  0
SECTION
  2
HEADER
  9
$ACADVER
  1
AC1015
  9
$ACADMAINTVER
 70
     6
  9
$DWGCODEPAGE
  3
ANSI_932
  9
$INSBASE
 10
0.0
 20
0.0
 30
0.0
  9
$EXTMIN
 10
0.0000003933412245
 20
-0.0000003446635901
 30
0.0
  9
$EXTMAX
 10
797.6000003933414
 20
551.5999996553366
 30
0.0
  9
$LIMMIN
 10
0.0
 20
0.0
  9
$LIMMAX
 10
840.0
 20
594.0
  9
$ORTHOMODE
 70
     0
  9
$REGENMODE
 70
     1
  9
$FILLMODE
 70
     1
  9
$QTEXTMODE
 70
     0
  9
$MIRRTEXT
 70
     1
  9
$LTSCALE
 40
2.0
  9
$ATTMODE
 70
     1
  9
$TEXTSIZE
 40
5.0
  9
$TRACEWID
 40
1.0
  9
$TEXTSTYLE
  7
STANDARD
  9
$CLAYER
  8
SUNPOU
  9
$CELTYPE
  6
BYLAYER
  9
$CECOLOR
 62
   256
  9
$CELTSCALE
 40
1.0
  9
$DISPSILH
 70
     0
  9
$DIMSCALE
 40
1.0
  9
$DIMASZ
 40
7.0
  9
$DIMEXO
 40
6.0
  9
$DIMDLI
 40
14.0
  9
$DIMRND
 40
0.0
  9
$DIMDLE
 40
0.0
  9
$DIMEXE
 40
3.0
  9
$DIMTP
 40
0.0
  9
$DIMTM
 40
0.0
  9
$DIMTXT
 40
6.0
  9
$DIMCEN
 40
150.0
  9
$DIMTSZ
 40
0.0
  9
$DIMTOL
 70
     0
  9
$DIMLIM
 70
     0
  9
$DIMTIH
 70
     0
  9
$DIMTOH
 70
     0
  9
$DIMSE1
 70
     0
  9
$DIMSE2
 70
     0
  9
$DIMTAD
 70
     3
  9
$DIMZIN
 70
     0
  9
$DIMBLK
  1

  9
$DIMASO
 70
     1
  9
$DIMSHO
 70
     1
  9
$DIMPOST
  1

  9
$DIMAPOST
  1

  9
$DIMALT
 70
     0
  9
$DIMALTD
 70
     2
  9
$DIMALTF
 40
25.4
  9
$DIMLFAC
 40
1.0
  9
$DIMTOFL
 70
     1
  9
$DIMTVP
 40
0.0
  9
$DIMTIX
 70
     0
  9
$DIMSOXD
 70
     0
  9
$DIMSAH
 70
     1
  9
$DIMBLK1
  1
OPEN
  9
$DIMBLK2
  1
OPEN
  9
$DIMSTYLE
  2
STANDARD
  9
$DIMCLRD
 70
   256
  9
$DIMCLRE
 70
   256
  9
$DIMCLRT
 70
   256
  9
$DIMTFAC
 40
1.0
  9
$DIMGAP
 40
2.0
  9
$DIMJUST
 70
     0
  9
$DIMSD1
 70
     0
  9
$DIMSD2
 70
     0
  9
$DIMTOLJ
 70
     1
  9
$DIMTZIN
 70
     0
  9
$DIMALTZ
 70
     0
  9
$DIMALTTZ
 70
     0
  9
$DIMUPT
 70
     0
  9
$DIMDEC
 70
     0
  9
$DIMTDEC
 70
     0
  9
$DIMALTU
 70
     2
  9
$DIMALTTD
 70
     2
  9
$DIMTXSTY
  7
STANDARD
  9
$DIMAUNIT
 70
     0
  9
$DIMADEC
 70
     0
  9
$DIMALTRND
 40
0.0
  9
$DIMAZIN
 70
     0
  9
$DIMDSEP
 70
    46
  9
$DIMATFIT
 70
     3
  9
$DIMFRAC
 70
     0
  9
$DIMLDRBLK
  1
OPEN
  9
$DIMLUNIT
 70
     2
  9
$DIMLWD
 70
    -1
  9
$DIMLWE
 70
    -1
  9
$DIMTMOVE
 70
     2
  9
$LUNITS
 70
     2
  9
$LUPREC
 70
     4
  9
$SKETCHINC
 40
1.0
  9
$FILLETRAD
 40
0.5
  9
$AUNITS
 70
     0
  9
$AUPREC
 70
     0
  9
$MENU
  1
.
  9
$ELEVATION
 40
0.0
  9
$PELEVATION
 40
0.0
  9
$THICKNESS
 40
0.0
  9
$LIMCHECK
 70
     0
  9
$CHAMFERA
 40
20.0
  9
$CHAMFERB
 40
20.0
  9
$CHAMFERC
 40
40.0
  9
$CHAMFERD
 40
0.0
  9
$SKPOLY
 70
     0
  9
$TDCREATE
 40
2451159.855623148
  9
$TDUCREATE
 40
2451159.480623148
  9
$TDUPDATE
 40
2455609.413509341
  9
$TDUUPDATE
 40
2455609.038509341
  9
$TDINDWG
 40
0.1427324074
  9
$TDUSRTIMER
 40
0.1427324074
  9
$USRTIMER
 70
     1
  9
$ANGBASE
 50
0.0
  9
$ANGDIR
 70
     0
  9
$PDMODE
 70
     0
  9
$PDSIZE
 40
0.0
  9
$PLINEWID
 40
0.0
  9
$SPLFRAME
 70
     0
  9
$SPLINETYPE
 70
     6
  9
$SPLINESEGS
 70
     8
  9
$HANDSEED
  5
279B
  9
$SURFTAB1
 70
     6
  9
$SURFTAB2
 70
     6
  9
$SURFTYPE
 70
     6
  9
$SURFU
 70
     6
  9
$SURFV
 70
     6
  9
$UCSBASE
  2

  9
$UCSNAME
  2

  9
$UCSORG
 10
0.0
 20
0.0
 30
0.0
  9
$UCSXDIR
 10
1.0
 20
0.0
 30
0.0
  9
$UCSYDIR
 10
0.0
 20
1.0
 30
0.0
  9
$UCSORTHOREF
  2

  9
$UCSORTHOVIEW
 70
     0
  9
$UCSORGTOP
 10
0.0
 20
0.0
 30
0.0
  9
$UCSORGBOTTOM
 10
0.0
 20
0.0
 30
0.0
  9
$UCSORGLEFT
 10
0.0
 20
0.0
 30
0.0
  9
$UCSORGRIGHT
 10
0.0
 20
0.0
 30
0.0
  9
$UCSORGFRONT
 10
0.0
 20
0.0
 30
0.0
  9
$UCSORGBACK
 10
0.0
 20
0.0
 30
0.0
  9
$PUCSBASE
  2

  9
$PUCSNAME
  2

  9
$PUCSORG
 10
0.0
 20
0.0
 30
0.0
  9
$PUCSXDIR
 10
1.0
 20
0.0
 30
0.0
  9
$PUCSYDIR
 10
0.0
 20
1.0
 30
0.0
  9
$PUCSORTHOREF
  2

  9
$PUCSORTHOVIEW
 70
     0
  9
$PUCSORGTOP
 10
0.0
 20
0.0
 30
0.0
  9
$PUCSORGBOTTOM
 10
0.0
 20
0.0
 30
0.0
  9
$PUCSORGLEFT
 10
0.0
 20
0.0
 30
0.0
  9
$PUCSORGRIGHT
 10
0.0
 20
0.0
 30
0.0
  9
$PUCSORGFRONT
 10
0.0
 20
0.0
 30
0.0
  9
$PUCSORGBACK
 10
0.0
 20
0.0
 30
0.0
  9
$USERI1
 70
     0
  9
$USERI2
 70
     0
  9
$USERI3
 70
     0
  9
$USERI4
 70
     0
  9
$USERI5
 70
     0
  9
$USERR1
 40
0.0
  9
$USERR2
 40
0.0
  9
$USERR3
 40
0.0
  9
$USERR4
 40
0.0
  9
$USERR5
 40
0.0
  9
$WORLDVIEW
 70
     1
  9
$SHADEDGE
 70
     3
  9
$SHADEDIF
 70
    70
  9
$TILEMODE
 70
     1
  9
$MAXACTVP
 70
    16
  9
$PINSBASE
 10
0.0
 20
0.0
 30
0.0
  9
$PLIMCHECK
 70
     0
  9
$PEXTMIN
 10
0.0
 20
0.0
 30
0.0
  9
$PEXTMAX
 10
420.0
 20
297.0
 30
0.0
  9
$PLIMMIN
 10
0.0
 20
0.0
  9
$PLIMMAX
 10
420.0
 20
297.0
  9
$UNITMODE
 70
     0
  9
$VISRETAIN
 70
     0
  9
$PLINEGEN
 70
     0
  9
$PSLTSCALE
 70
     1
  9
$TREEDEPTH
 70
  3020
  9
$CMLSTYLE
  2
STANDARD
  9
$CMLJUST
 70
     0
  9
$CMLSCALE
 40
1.0
  9
$PROXYGRAPHICS
 70
     1
  9
$MEASUREMENT
 70
     1
  9
$CELWEIGHT
370
    -1
  9
$ENDCAPS
280
     0
  9
$JOINSTYLE
280
     0
  9
$LWDISPLAY
290
     0
  9
$INSUNITS
 70
     0
  9
$HYPERLINKBASE
  1

  9
$STYLESHEET
  1
print.ctb
  9
$XEDIT
290
     1
  9
$CEPSNTYPE
380
     0
  9
$PSTYLEMODE
290
     1
  9
$FINGERPRINTGUID
  2
{844639E2-177E-11D4-932C-444553540000}
  9
$VERSIONGUID
  2
{A2FAD683-BCAC-468D-9D15-BA1C7CDFCAAF}
  9
$EXTNAMES
290
     1
  9
$PSVPSCALE
 40
0.0
  9
$OLESTARTUP
290
     0
  0
ENDSEC
  0
SECTION
  2
CLASSES
  0
CLASS
  1
ACDBDICTIONARYWDFLT
  2
AcDbDictionaryWithDefault
  3
ObjectDBX Classes
 90
        0
280
     0
281
     0
  0
CLASS
  1
ACDBPLACEHOLDER
  2
AcDbPlaceHolder
  3
ObjectDBX Classes
 90
        0
280
     0
281
     0
  0
CLASS
  1
LAYOUT
  2
AcDbLayout
  3
ObjectDBX Classes
 90
        0
280
     0
281
     0
  0
CLASS
  1
DUMMY
  2
AcDbLongTransaction
  3
DUMMY
 90
        0
280
     0
281
     0
  0
CLASS
  1
LWPOLYLINE
  2
AcDbPolyline
  3
AutoCAD 2000
 90
        0
280
     0
281
     1
  0
CLASS
  1
HATCH
  2
AcDbHatch
  3
AutoCAD 2000
 90
        0
280
     0
281
     1
  0
CLASS
  1
XRECORD
  2
AcDbXrecord
  3
AutoCAD 2000
 90
        0
280
     0
281
     0
  0
CLASS
  1
DUMMY
  2
AcDbLongTransaction
  3
DUMMY
 90
        0
280
     0
281
     0
  0
CLASS
  1
LWPOLYLINE
  2
AcDbPolyline
  3
AutoCAD 2000
 90
        0
280
     0
281
     1
  0
CLASS
  1
HATCH
  2
AcDbHatch
  3
AutoCAD 2000
 90
        0
280
     0
281
     1
  0
CLASS
  1
XRECORD
  2
AcDbXrecord
  3
AutoCAD 2000
 90
        0
280
     0
281
     0
  0
CLASS
  1
DUMMY
  2
AcDbLongTransaction
  3
DUMMY
 90
        0
280
     0
281
     0
  0
CLASS
  1
LWPOLYLINE
  2
AcDbPolyline
  3
AutoCAD 2000
 90
        0
280
     0
281
     1
  0
CLASS
  1
HATCH
  2
AcDbHatch
  3
AutoCAD 2000
 90
        0
280
     0
281
     1
  0
CLASS
  1
XRECORD
  2
AcDbXrecord
  3
AutoCAD 2000
 90
        0
280
     0
281
     0
  0
CLASS
  1
DUMMY
  2
AcDbLongTransaction
  3
DUMMY
 90
        0
280
     0
281
     0
  0
CLASS
  1
LWPOLYLINE
  2
AcDbPolyline
  3
AutoCAD 2000
 90
        0
280
     0
281
     1
  0
CLASS
  1
HATCH
  2
AcDbHatch
  3
AutoCAD 2000
 90
        0
280
     0
281
     1
  0
CLASS
  1
XRECORD
  2
AcDbXrecord
  3
AutoCAD 2000
 90
        0
280
     0
281
     0
  0
CLASS
  1
DUMMY
  2
AcDbLongTransaction
  3
DUMMY
 90
        0
280
     0
281
     0
  0
CLASS
  1
LWPOLYLINE
  2
AcDbPolyline
  3
AutoCAD 2000
 90
        0
280
     0
281
     1
  0
CLASS
  1
HATCH
  2
AcDbHatch
  3
AutoCAD 2000
 90
        0
280
     0
281
     1
  0
CLASS
  1
XRECORD
  2
AcDbXrecord
  3
AutoCAD 2000
 90
        0
280
     0
281
     0
  0
CLASS
  1
DUMMY
  2
AcDbLongTransaction
  3
DUMMY
 90
        0
280
     0
281
     0
  0
CLASS
  1
LWPOLYLINE
  2
AcDbPolyline
  3
AutoCAD 2000
 90
        0
280
     0
281
     1
  0
CLASS
  1
HATCH
  2
AcDbHatch
  3
AutoCAD 2000
 90
        0
280
     0
281
     1
  0
CLASS
  1
XRECORD
  2
AcDbXrecord
  3
AutoCAD 2000
 90
        0
280
     0
281
     0
  0
ENDSEC
  0
SECTION
  2
TABLES
  0
TABLE
  2
VPORT
  5
8
330
0
100
AcDbSymbolTable
 70
     2
  0
VPORT
  5
279A
330
8
100
AcDbSymbolTableRecord
100
AcDbViewportTableRecord
  2
*Active
 70
     0
 10
0.0
 20
0.0
 11
1.0
 21
1.0
 12
576.4834022817722
 22
285.1438927896524
 13
0.0
 23
0.0
 14
5.0
 24
5.0
 15
0.0
 25
0.0
 16
0.0
 26
0.0
 36
1.0
 17
0.0
 27
0.0
 37
0.0
 40
790.7922780485764
 41
1.651537335285505
 42
50.0
 43
0.0
 44
0.0
 50
0.0
 51
0.0
 71
     0
 72
   100
 73
     1
 74
     0
 75
     0
 76
     0
 77
     0
 78
     0
281
     0
 65
     1
110
0.0
120
0.0
130
0.0
111
1.0
121
0.0
131
0.0
112
0.0
122
1.0
132
0.0
 79
     0
146
0.0
  0
ENDTAB
  0
TABLE
  2
LTYPE
  5
5
330
0
100
AcDbSymbolTable
 70
     3
  0
LTYPE
  5
14
330
5
100
AcDbSymbolTableRecord
100
AcDbLinetypeTableRecord
  2
BYBLOCK
 70
     0
  3

 72
    65
 73
     0
 40
0.0
  0
LTYPE
  5
15
330
5
100
AcDbSymbolTableRecord
100
AcDbLinetypeTableRecord
  2
BYLAYER
 70
     0
  3

 72
    65
 73
     0
 40
0.0
  0
LTYPE
  5
16
330
5
100
AcDbSymbolTableRecord
100
AcDbLinetypeTableRecord
  2
CONTINUOUS
 70
     0
  3
Solid line
 72
    65
 73
     0
 40
0.0
  0
LTYPE
  5
115
330
5
100
AcDbSymbolTableRecord
100
AcDbLinetypeTableRecord
  2
PHANTOM
 70
     0
  3
______  __  __  ______  __  __  ______  __  __ 
 72
    65
 73
     6
 40
2.5
 49
1.25
 74
     0
 49
-0.25
 74
     0
 49
0.25
 74
     0
 49
-0.25
 74
     0
 49
0.25
 74
     0
 49
-0.25
 74
     0
  0
LTYPE
  5
135
330
5
100
AcDbSymbolTableRecord
100
AcDbLinetypeTableRecord
  2
CENTER
 70
     0
  3
____ _ ____ _ ____ _ ____ _ ____ _ ____ _ ____ 
 72
    65
 73
     4
 40
2.0
 49
1.25
 74
     0
 49
-0.25
 74
     0
 49
0.25
 74
     0
 49
-0.25
 74
     0
  0
ENDTAB
  0
TABLE
  2
LAYER
  5
2
330
0
100
AcDbSymbolTable
 70
     9
  0
LAYER
  5
F
330
2
100
AcDbSymbolTableRecord
100
AcDbLayerTableRecord
  2
0
 70
     0
 62
     7
  6
CONTINUOUS
370
    -3
390
C41
  0
LAYER
  5
62
330
2
100
AcDbSymbolTableRecord
100
AcDbLayerTableRecord
  2
VIEWPORT
 70
     0
 62
     7
  6
CONTINUOUS
370
    -3
390
C41
  0
LAYER
  5
65
330
2
100
AcDbSymbolTableRecord
100
AcDbLayerTableRecord
  2
ZUWAKU
 70
     0
 62
     7
  6
CONTINUOUS
370
    -3
390
C41
  0
LAYER
  5
143
330
2
100
AcDbSymbolTableRecord
100
AcDbLayerTableRecord
  2
NOKITOI
 70
     0
 62
     9
  6
PHANTOM
370
    -3
390
C41
  0
LAYER
  5
144
330
2
100
AcDbSymbolTableRecord
100
AcDbLayerTableRecord
  2
SEIHIN
 70
     0
 62
     3
  6
CONTINUOUS
370
    -3
390
C41
  0
LAYER
  5
3CD
330
2
100
AcDbSymbolTableRecord
100
AcDbLayerTableRecord
  2
CENTER L
 70
     0
 62
     1
  6
CENTER
370
    -3
390
C41
  0
LAYER
  5
3CE
330
2
100
AcDbSymbolTableRecord
100
AcDbLayerTableRecord
  2
SUNPOU
 70
     0
 62
     4
  6
CONTINUOUS
370
    -3
390
C41
  0
LAYER
  5
6E3
330
2
100
AcDbSymbolTableRecord
100
AcDbLayerTableRecord
  2
DEFPOINTS
 70
     0
 62
     7
  6
CONTINUOUS
290
     0
370
    -3
390
C41
  0
LAYER
  5
15FD
330
2
100
AcDbSymbolTableRecord
100
AcDbLayerTableRecord
  2
moji
 70
     0
 62
     2
  6
CONTINUOUS
370
    -3
390
C41
  0
ENDTAB
  0
TABLE
  2
STYLE
  5
3
330
0
100
AcDbSymbolTable
 70
     2
  0
STYLE
  5
10
330
3
100
AcDbSymbolTableRecord
100
AcDbTextStyleTableRecord
  2
STANDARD
 70
     0
 40
0.0
 41
1.0
 50
0.0
 71
     0
 42
5.0
  3
TXT
  4
a:\program files\autocad lt\ms\bigfont.shx
  0
STYLE
  5
15FE
330
3
100
AcDbSymbolTableRecord
100
AcDbTextStyleTableRecord
  2
ｽﾀｲﾙ1
 70
     0
 40
0.0
 41
1.0
 50
0.0
 71
     0
 42
2.5
  3
MS PGothic.ttf
  4

1001
ACAD
1000
MS PGothic
1071
    32818
  0
ENDTAB
  0
TABLE
  2
VIEW
  5
6
330
0
100
AcDbSymbolTable
 70
     0
  0
ENDTAB
  0
TABLE
  2
UCS
  5
7
330
0
100
AcDbSymbolTable
 70
     0
  0
ENDTAB
  0
TABLE
  2
APPID
  5
9
330
0
100
AcDbSymbolTable
 70
     1
  0
APPID
  5
11
330
9
100
AcDbSymbolTableRecord
100
AcDbRegAppTableRecord
  2
ACAD
 70
     0
  0
ENDTAB
  0
TABLE
  2
DIMSTYLE
  5
A
330
0
100
AcDbSymbolTable
 70
     1
100
AcDbDimStyleTable
  0
DIMSTYLE
105
1D
102
{ACAD_REACTORS
330
2002
330
200B
330
200C
330
201F
330
2022
330
2034
330
245A
330
24E8
330
25D6
330
25D8
330
25DE
330
25DF
330
25E1
330
25E4
330
2635
330
2636
330
276C
102
}
330
A
100
AcDbSymbolTableRecord
100
AcDbDimStyleTableRecord
  2
STANDARD
 70
     0
340
10
  0
ENDTAB
  0
TABLE
  2
BLOCK_RECORD
  5
1
330
0
100
AcDbSymbolTable
 70
    20
  0
BLOCK_RECORD
  5
1A
330
1
100
AcDbSymbolTableRecord
100
AcDbBlockTableRecord
  2
*MODEL_SPACE
340
C44
  0
BLOCK_RECORD
  5
17
330
1
100
AcDbSymbolTableRecord
100
AcDbBlockTableRecord
  2
*PAPER_SPACE
340
C45
  0
BLOCK_RECORD
  5
6D
330
1
100
AcDbSymbolTableRecord
100
AcDbBlockTableRecord
  2
_OPEN
340
0
102
{BLKREFS
331
2173
331
2174
331
217C
331
217D
331
2185
331
2186
331
218E
331
218F
331
2197
331
2198
331
21A2
331
21A3
331
26FA
331
26FB
331
2766
331
2767
331
270C
331
270D
331
278E
331
278F
331
271E
331
271F
331
2727
331
2728
331
2730
331
2731
331
2739
331
273A
331
2742
331
2743
331
274D
331
274E
331
2785
331
2786
331
25E8
331
25EA
102
}
  0
BLOCK_RECORD
  5
19FB
330
1
100
AcDbSymbolTableRecord
100
AcDbBlockTableRecord
  2
A$C6DF3607B
340
0
102
{BLKREFS
331
2218
102
}
  0
BLOCK_RECORD
  5
20CA
330
1
100
AcDbSymbolTableRecord
100
AcDbBlockTableRecord
  2
*D2
340
0
  0
BLOCK_RECORD
  5
20D6
330
1
100
AcDbSymbolTableRecord
100
AcDbBlockTableRecord
  2
*D3
340
0
  0
BLOCK_RECORD
  5
20E2
330
1
100
AcDbSymbolTableRecord
100
AcDbBlockTableRecord
  2
*D4
340
0
  0
BLOCK_RECORD
  5
20EE
330
1
100
AcDbSymbolTableRecord
100
AcDbBlockTableRecord
  2
*D5
340
0
  0
BLOCK_RECORD
  5
20FA
330
1
100
AcDbSymbolTableRecord
100
AcDbBlockTableRecord
  2
*D6
340
0
  0
BLOCK_RECORD
  5
2106
330
1
100
AcDbSymbolTableRecord
100
AcDbBlockTableRecord
  2
*D7
340
0
  0
BLOCK_RECORD
  5
2217
330
1
100
AcDbSymbolTableRecord
100
AcDbBlockTableRecord
  2
A$C49B61C09
340
0
102
{BLKREFS
331
25DB
102
}
  0
BLOCK_RECORD
  5
267D
330
1
100
AcDbSymbolTableRecord
100
AcDbBlockTableRecord
  2
*D9
340
0
  0
BLOCK_RECORD
  5
2689
330
1
100
AcDbSymbolTableRecord
100
AcDbBlockTableRecord
  2
*D10
340
0
  0
BLOCK_RECORD
  5
2695
330
1
100
AcDbSymbolTableRecord
100
AcDbBlockTableRecord
  2
*D11
340
0
  0
BLOCK_RECORD
  5
26A1
330
1
100
AcDbSymbolTableRecord
100
AcDbBlockTableRecord
  2
*D12
340
0
  0
BLOCK_RECORD
  5
26AD
330
1
100
AcDbSymbolTableRecord
100
AcDbBlockTableRecord
  2
*D13
340
0
  0
BLOCK_RECORD
  5
26B9
330
1
100
AcDbSymbolTableRecord
100
AcDbBlockTableRecord
  2
*D14
340
0
  0
BLOCK_RECORD
  5
26C5
330
1
100
AcDbSymbolTableRecord
100
AcDbBlockTableRecord
  2
*D15
340
0
  0
BLOCK_RECORD
  5
26D1
330
1
100
AcDbSymbolTableRecord
100
AcDbBlockTableRecord
  2
*D16
340
0
  0
BLOCK_RECORD
  5
26DD
330
1
100
AcDbSymbolTableRecord
100
AcDbBlockTableRecord
  2
*D17
340
0
  0
BLOCK_RECORD
  5
26E9
330
1
100
AcDbSymbolTableRecord
100
AcDbBlockTableRecord
  2
*D18
340
0
  0
BLOCK_RECORD
  5
276D
330
1
100
AcDbSymbolTableRecord
100
AcDbBlockTableRecord
  2
*D19
340
0
  0
ENDTAB
  0
ENDSEC
  0
SECTION
  2
BLOCKS
  0
BLOCK
  5
1B
330
1A
100
AcDbEntity
  8
0
100
AcDbBlockBegin
  2
*MODEL_SPACE
 70
     0
 71
     0
 10
0.0
 20
0.0
 30
0.0
  3
*MODEL_SPACE
  1

  0
ENDBLK
  5
1C
330
1A
100
AcDbEntity
  8
0
100
AcDbBlockEnd
  0
BLOCK
  5
18
330
17
100
AcDbEntity
 67
     1
  8
0
100
AcDbBlockBegin
  2
*PAPER_SPACE
 70
     0
 71
     0
 10
0.0
 20
0.0
 30
0.0
  3
*PAPER_SPACE
  1

  0
ENDBLK
  5
19
330
17
100
AcDbEntity
 67
     1
  8
0
100
AcDbBlockEnd
  0
BLOCK
  5
6E
330
6D
100
AcDbEntity
  8
0
100
AcDbBlockBegin
  2
_OPEN
 70
     0
 71
     0
 10
0.0
 20
0.0
 30
0.0
  3
_OPEN
  1

  0
LINE
  5
6F
330
6D
100
AcDbEntity
  8
0
  6
ByBlock
 62
     0
100
AcDbLine
 10
-1.0
 20
0.1666666666666667
 30
0.0
 11
0.0
 21
0.0
 31
0.0
  0
LINE
  5
70
330
6D
100
AcDbEntity
  8
0
  6
ByBlock
 62
     0
100
AcDbLine
 10
0.0
 20
0.0
 30
0.0
 11
-1.0
 21
-0.1666666666666667
 31
0.0
  0
LINE
  5
71
330
6D
100
AcDbEntity
  8
0
  6
ByBlock
 62
     0
100
AcDbLine
 10
0.0
 20
0.0
 30
0.0
 11
-1.0
 21
0.0
 31
0.0
  0
ENDBLK
  5
72
330
6D
100
AcDbEntity
  8
0
100
AcDbBlockEnd
  0
BLOCK
  5
1A58
330
19FB
100
AcDbEntity
  8
0
100
AcDbBlockBegin
  2
A$C6DF3607B
 70
     0
 71
     0
 10
0.0
 20
0.0
 30
0.0
  3
A$C6DF3607B
  1

  0
ARC
  5
19FC
330
19FB
100
AcDbEntity
  8
NOKITOI
  6
PHANTOM
 62
     8
 48
5.0
100
AcDbCircle
 10
10.29040352532718
 20
73.77665918252922
 30
0.0
 40
3.000000000000036
100
AcDbArc
 50
324.3087057504234
 51
8.07474083461601
  0
LINE
  5
19FD
330
19FB
100
AcDbEntity
  8
NOKITOI
  6
PHANTOM
 62
     8
 48
5.0
100
AcDbLine
 10
128.2146746422095
 20
51.3812109493922
 30
0.0
 11
128.2146504550051
 21
56.46197181825039
 31
0.0
  0
LINE
  5
19FE
330
19FB
100
AcDbEntity
  8
NOKITOI
  6
PHANTOM
 62
     8
 48
5.0
100
AcDbLine
 10
129.514643687523
 20
43.43077988857647
 30
0.0
 11
129.5146478915426
 21
57.00045563804088
 31
0.0
  0
LINE
  5
19FF
330
19FB
100
AcDbEntity
  8
NOKITOI
  6
PHANTOM
 62
     8
 48
5.0
100
AcDbLine
 10
123.5975513703806
 20
45.93237131561375
 30
0.0
 11
124.1698059918763
 21
58.41405249398702
 31
0.0
  0
LINE
  5
1A00
330
19FB
100
AcDbEntity
  8
NOKITOI
  6
PHANTOM
 62
     8
 48
5.0
100
AcDbLine
 10
122.5956619517938
 20
52.41177462278569
 30
0.0
 11
122.9405653832814
 21
60.00044135636381
 31
0.0
  0
LINE
  5
1A01
330
19FB
100
AcDbEntity
  8
NOKITOI
  6
PHANTOM
 62
     8
 48
5.0
100
AcDbLine
 10
122.2724523159559
 20
45.30042116109132
 30
0.0
 11
122.9188715876321
 21
59.52312808448005
 31
0.0
  0
LINE
  5
1A02
330
19FB
100
AcDbEntity
  8
NOKITOI
  6
PHANTOM
 62
     8
 48
5.0
100
AcDbLine
 10
20.13784077274352
 20
27.40670894420725
 30
0.0
 11
16.18876708195865
 21
55.61339806634123
 31
0.0
  0
LINE
  5
1A03
330
19FB
100
AcDbEntity
  8
NOKITOI
  6
PHANTOM
 62
     8
 48
5.0
100
AcDbLine
 10
21.42528460309597
 20
27.58695710210475
 30
0.0
 11
16.18146440634416
 21
65.04151047068126
 31
0.0
  0
LINE
  5
1A04
330
19FB
100
AcDbEntity
  8
NOKITOI
  6
PHANTOM
 62
     8
 48
5.0
100
AcDbLine
 10
35.794791149567
 20
1.30000947956944
 30
0.0
 11
117.4059277088054
 21
1.300397993270735
 31
0.0
  0
LINE
  5
1A05
330
19FB
100
AcDbEntity
  8
NOKITOI
  6
PHANTOM
 62
     8
 48
5.0
100
AcDbLine
 10
33.7495102438412
 20
-0.0000002571023288
 30
0.0
 11
119.6037632428688
 21
0.0004084561562649
 31
0.0
  0
LINE
  5
1A06
330
19FB
100
AcDbEntity
  8
NOKITOI
  6
PHANTOM
 62
     8
 48
5.0
100
AcDbLine
 10
31.7696030692515
 20
1.717148317474653
 30
0.0
 11
30.03760081640678
 21
13.84074986315983
 31
0.0
  0
LINE
  5
1A07
330
19FB
100
AcDbEntity
  8
NOKITOI
  6
PHANTOM
 62
     8
 48
5.0
100
AcDbLine
 10
32.82493041637542
 20
3.875731205022476
 30
0.0
 11
31.0605849818495
 21
16.15424608093684
 31
0.0
  0
ARC
  5
1A08
330
19FB
100
AcDbEntity
  8
NOKITOI
  6
PHANTOM
 62
     8
 48
5.0
100
AcDbCircle
 10
33.74950072274612
 20
1.999999742875161
 30
0.0
 40
2.000000000000059
100
AcDbArc
 50
188.1303747592974
 51
270.0002727592757
  0
ARC
  5
1A09
330
19FB
100
AcDbEntity
  8
NOKITOI
  6
PHANTOM
 62
     8
 48
5.0
100
AcDbCircle
 10
35.79477686792404
 20
4.300009479535447
 30
0.0
 40
2.99999999999991
100
AcDbArc
 50
188.1303764195606
 51
270.0002727592888
  0
ARC
  5
1A0A
330
19FB
100
AcDbEntity
  8
NOKITOI
  6
PHANTOM
 62
     8
 48
5.0
100
AcDbCircle
 10
37.46881022185437
 20
29.83312844914019
 30
0.0
 40
17.49999999999989
100
AcDbArc
 50
187.9698827592866
 51
244.2676227180992
  0
ARC
  5
1A0B
330
19FB
100
AcDbEntity
  8
NOKITOI
  6
PHANTOM
 62
     8
 48
5.0
100
AcDbCircle
 10
37.46881022185437
 20
29.83312844914019
 30
0.0
 40
16.19999999999994
100
AcDbArc
 50
187.9698827592866
 51
231.2685868059484
  0
ARC
  5
1A0C
330
19FB
100
AcDbEntity
  8
NOKITOI
  6
PHANTOM
 62
     8
 48
5.0
100
AcDbCircle
 10
30.76363501240428
 20
16.11157623623922
 30
0.0
 40
0.3000000000000004
100
AcDbArc
 50
8.177070333932466
 51
79.09679670050285
  0
ARC
  5
1A0D
330
19FB
100
AcDbEntity
  8
NOKITOI
  6
PHANTOM
 62
     8
 48
5.0
100
AcDbCircle
 10
27.9586194733937
 20
17.97579856725315
 30
0.0
 40
0.999999999999992
100
AcDbArc
 50
231.2685868059484
 51
259.0967967005029
  0
ARC
  5
1A0E
330
19FB
100
AcDbEntity
  8
NOKITOI
  6
PHANTOM
 62
     8
 48
5.0
100
AcDbCircle
 10
29.74061617125187
 20
13.79832203570857
 30
0.0
 40
0.2999999999999991
100
AcDbArc
 50
8.130376419557409
 51
64.26762271809918
  0
LINE
  5
1A0F
330
19FB
100
AcDbEntity
  8
NOKITOI
  6
PHANTOM
 62
     8
 48
5.0
100
AcDbLine
 10
27.76946913123049
 20
16.99385042806267
 30
0.0
 11
30.82038011505313
 21
16.40616067799635
 31
0.0
  0
LINE
  5
1A10
330
19FB
100
AcDbEntity
  8
NOKITOI
  6
PHANTOM
 62
     8
 48
5.0
100
AcDbLine
 10
121.6016911540796
 20
1.909602967408773
 30
0.0
 11
123.4930702655338
 21
43.63231217163491
 31
0.0
  0
LINE
  5
1A11
330
19FB
100
AcDbEntity
  8
NOKITOI
  6
PHANTOM
 62
     8
 48
5.0
100
AcDbLine
 10
120.4028196958152
 20
4.164189267704501
 30
0.0
 11
122.2724523159559
 21
45.30042116109132
 31
0.0
  0
ARC
  5
1A12
330
19FB
100
AcDbEntity
  8
NOKITOI
  6
PHANTOM
 62
     8
 48
5.0
100
AcDbCircle
 10
117.4059134271629
 20
4.300397993236402
 30
0.0
 40
2.999999999999661
100
AcDbArc
 50
270.0002727592757
 51
357.3977103715406
  0
ARC
  5
1A13
330
19FB
100
AcDbEntity
  8
NOKITOI
  6
PHANTOM
 62
     8
 48
5.0
100
AcDbCircle
 10
119.603753721774
 20
2.000408456133528
 30
0.0
 40
1.999999999999925
100
AcDbArc
 50
270.0002727592757
 51
357.3977107592921
  0
LINE
  5
1A14
330
19FB
100
AcDbEntity
  8
NOKITOI
  6
PHANTOM
 62
     8
 48
5.0
100
AcDbLine
 10
127.8100625650709
 20
43.60415660335514
 30
0.0
 11
129.5146481185466
 21
42.49999974289773
 31
0.0
  0
LINE
  5
1A15
330
19FB
100
AcDbEntity
  8
NOKITOI
  6
PHANTOM
 62
     8
 48
5.0
100
AcDbLine
 10
129.514643687523
 20
43.43077988857635
 30
0.0
 11
129.5146481185466
 21
42.49999974289773
 31
0.0
  0
ARC
  5
1A16
330
19FB
100
AcDbEntity
  8
NOKITOI
  6
PHANTOM
 62
     8
 48
5.0
100
AcDbCircle
 10
129.0146436875289
 20
43.43077750830253
 30
0.0
 40
0.4999999999999311
100
AcDbArc
 50
239.0365157592917
 51
0.0002727593017656
  0
ARC
  5
1A17
330
19FB
100
AcDbEntity
  8
NOKITOI
  6
PHANTOM
 62
     8
 48
5.0
100
AcDbCircle
 10
123.9925573055862
 20
43.60966936219097
 30
0.0
 40
0.499999999999965
100
AcDbArc
 50
90.00027275928873
 51
177.404437491292
  0
LINE
  5
1A18
330
19FB
100
AcDbEntity
  8
NOKITOI
  6
PHANTOM
 62
     8
 48
5.0
100
AcDbLine
 10
123.9925549253126
 20
44.10966936218529
 30
0.0
 11
127.0147097786899
 21
44.10968374929757
 31
0.0
  0
LINE
  5
1A19
330
19FB
100
AcDbEntity
  8
NOKITOI
  6
PHANTOM
 62
     8
 48
5.0
100
AcDbLine
 10
127.0147097786899
 20
44.10968374929757
 30
0.0
 11
123.5250042133898
 21
44.10968374929757
 31
0.0
  0
LINE
  5
1A1A
330
19FB
100
AcDbEntity
  8
NOKITOI
  6
PHANTOM
 62
     8
 48
5.0
100
AcDbLine
 10
127.0147097786899
 20
44.10968374929757
 30
0.0
 11
128.7573977286024
 21
43.00202928366593
 31
0.0
  0
LINE
  5
1A1B
330
19FB
100
AcDbEntity
  8
NOKITOI
  6
PHANTOM
 62
     8
 48
5.0
100
AcDbLine
 10
124.0970381286829
 20
45.40966985959733
 30
0.0
 11
127.9147035899673
 21
45.40968803377564
 31
0.0
  0
ARC
  5
1A1C
330
19FB
100
AcDbEntity
  8
NOKITOI
  6
PHANTOM
 62
     8
 48
5.0
100
AcDbCircle
 10
124.0970357484089
 20
45.90966985959165
 30
0.0
 40
0.4999999999999966
100
AcDbArc
 50
177.3977101688737
 51
270.0002727592888
  0
ARC
  5
1A1D
330
19FB
100
AcDbEntity
  8
NOKITOI
  6
PHANTOM
 62
     8
 48
5.0
100
AcDbCircle
 10
127.9147021618032
 20
45.70968803377195
 30
0.0
 40
0.299999999999716
100
AcDbArc
 50
270.0002727592888
 51
0.0002727593310776
  0
LINE
  5
1A1E
330
19FB
100
AcDbEntity
  8
NOKITOI
  6
PHANTOM
 62
     8
 48
5.0
100
AcDbLine
 10
128.2146746422095
 20
51.3812109493922
 30
0.0
 11
128.2147021617998
 21
45.70968946193648
 31
0.0
  0
ARC
  5
1A1F
330
19FB
100
AcDbEntity
  8
NOKITOI
  6
PHANTOM
 62
     8
 48
5.0
100
AcDbCircle
 10
9.217103878348212
 20
73.6243887463238
 30
0.0
 40
4.084047239721376
100
AcDbArc
 50
8.07474083461601
 51
65.56290547640806
  0
LINE
  5
1A20
330
19FB
100
AcDbEntity
  8
NOKITOI
  6
PHANTOM
 62
     8
 48
5.0
100
AcDbLine
 10
4.714548438332599
 20
77.89128675497381
 30
0.0
 11
4.714566839771464
 21
74.02588286696903
 31
0.0
  0
ARC
  5
1A21
330
19FB
100
AcDbEntity
  8
NOKITOI
  6
PHANTOM
 62
     8
 48
5.0
100
AcDbCircle
 10
2.976832985286023
 20
76.49985294462351
 30
0.0
 40
1.700000000000254
100
AcDbArc
 50
98.05602970221763
 51
187.125288759277
  0
ARC
  5
1A22
330
19FB
100
AcDbEntity
  8
NOKITOI
  6
PHANTOM
 62
     8
 48
5.0
100
AcDbCircle
 10
2.976832985286023
 20
76.49985294462351
 30
0.0
 40
3.000000000000204
100
AcDbArc
 50
98.09838408023845
 51
187.1252887592867
  0
ARC
  5
1A23
330
19FB
100
AcDbEntity
  8
NOKITOI
  6
PHANTOM
 62
     8
 48
5.0
100
AcDbCircle
 10
8.014546991360589
 20
74.28559468837636
 30
0.0
 40
1.5
100
AcDbArc
 50
80.27269634530323
 51
180.0
  0
ARC
  5
1A24
330
19FB
100
AcDbEntity
  8
NOKITOI
  6
PHANTOM
 62
     8
 48
5.0
100
AcDbCircle
 10
6.285356230304728
 20
54.22687237117862
 30
0.0
 40
11.90000000000003
100
AcDbArc
 50
69.37287935362224
 51
92.9999999999926
  0
LINE
  5
1A25
330
19FB
100
AcDbEntity
  8
NOKITOI
  6
PHANTOM
 62
     8
 48
5.0
100
AcDbLine
 10
4.235326354626864
 20
70.13390973264774
 30
0.0
 11
6.419470698961163
 21
73.14908414682316
 31
0.0
  0
ARC
  5
1A26
330
19FB
100
AcDbEntity
  8
NOKITOI
  6
PHANTOM
 62
     8
 48
5.0
100
AcDbCircle
 10
6.285356230304728
 20
54.22687237117862
 30
0.0
 40
10.00000000000008
100
AcDbArc
 50
7.969883756126735
 51
92.9999999999926
  0
LINE
  5
1A27
330
19FB
100
AcDbEntity
  8
NOKITOI
  6
PHANTOM
 62
     8
 48
5.0
100
AcDbLine
 10
1.51626550121307
 20
63.99065837684691
 30
0.0
 11
0.0000007567385865
 21
76.12773477326732
 31
0.0
  0
LINE
  5
1A28
330
19FB
100
AcDbEntity
  8
NOKITOI
  6
PHANTOM
 62
     8
 48
5.0
100
AcDbLine
 10
1.51626550121307
 20
63.99065837684691
 30
0.0
 11
5.761996667875224
 21
64.21316771872444
 31
0.0
  0
ARC
  5
1A29
330
19FB
100
AcDbEntity
  8
NOKITOI
  6
PHANTOM
 62
     8
 48
5.0
100
AcDbCircle
 10
4.214566839776921
 20
74.02588048669526
 30
0.0
 40
0.5000000000000315
100
AcDbArc
 50
324.0810261483387
 51
0.0002727592789674
  0
ARC
  5
1A2A
330
19FB
100
AcDbEntity
  8
NOKITOI
  6
PHANTOM
 62
     8
 48
5.0
100
AcDbCircle
 10
3.939876585704383
 20
68.7843527312881
 30
0.0
 40
0.9999999999999993
100
AcDbArc
 50
101.5576465781719
 51
187.1252891081787
  0
ARC
  5
1A2B
330
19FB
100
AcDbEntity
  8
NOKITOI
  6
PHANTOM
 62
     8
 48
5.0
100
AcDbCircle
 10
2.669428096177057
 20
71.89284252235962
 30
0.0
 40
0.5000000000000003
100
AcDbArc
 50
281.5576465781719
 51
324.081026148336
  0
LINE
  5
1A2C
330
19FB
100
AcDbEntity
  8
NOKITOI
  6
PHANTOM
 62
     8
 48
5.0
100
AcDbLine
 10
2.769604975040124
 20
71.40298071231388
 30
0.0
 11
2.45135841165677
 21
71.33789919998776
 31
0.0
  0
ARC
  5
1A2D
330
19FB
100
AcDbEntity
  8
NOKITOI
  6
PHANTOM
 62
     8
 48
5.0
100
AcDbCircle
 10
2.351181532793703
 20
71.82776101003344
 30
0.0
 40
0.4999999999999905
100
AcDbArc
 50
187.1209717742025
 51
281.5576465781719
  0
ARC
  5
1A2E
330
19FB
100
AcDbEntity
  8
NOKITOI
  6
PHANTOM
 62
     8
 48
5.0
100
AcDbCircle
 10
2.351181532793703
 20
71.82776101003344
 30
0.0
 40
0.4999999999999905
100
AcDbArc
 50
187.1209717742025
 51
281.5576465781719
  0
ARC
  5
1A2F
330
19FB
100
AcDbEntity
  8
NOKITOI
  6
PHANTOM
 62
     8
 48
5.0
100
AcDbCircle
 10
3.361599232417689
 20
70.787982802584
 30
0.0
 40
1.09142597774643
100
AcDbArc
 50
290.2590900096225
 51
323.1814341141131
  0
LINE
  5
1A30
330
19FB
100
AcDbEntity
  8
NOKITOI
  6
PHANTOM
 62
     8
 48
5.0
100
AcDbLine
 10
4.211124234085787
 20
66.03449739591429
 30
0.0
 11
5.6625583510139
 21
66.11056383475807
 31
0.0
  0
ARC
  5
1A31
330
19FB
100
AcDbEntity
  8
NOKITOI
  6
PHANTOM
 62
     8
 48
5.0
100
AcDbCircle
 10
4.158788277842973
 20
67.0331269306688
 30
0.0
 40
1.000000000000005
100
AcDbArc
 50
187.1252891081819
 51
273.0000000000056
  0
LINE
  5
1A32
330
19FB
100
AcDbEntity
  8
NOKITOI
  6
PHANTOM
 62
     8
 48
5.0
100
AcDbLine
 10
3.166510991613791
 20
66.90908747229503
 30
0.0
 11
2.947599299475201
 21
68.66031327291432
 31
0.0
  0
LINE
  5
1A33
330
19FB
100
AcDbEntity
  8
NOKITOI
  6
PHANTOM
 62
     8
 48
5.0
100
AcDbLine
 10
1.85503821779605
 20
71.76577866590924
 30
0.0
 11
1.289973738823733
 21
76.28888871839422
 31
0.0
  0
LINE
  5
1A34
330
19FB
100
AcDbEntity
  8
NOKITOI
  6
PHANTOM
 62
     8
 48
5.0
100
AcDbLine
 10
3.074351803777631
 20
71.59952223492121
 30
0.0
 11
4.619490547377723
 21
73.73256019925685
 31
0.0
  0
ARC
  5
1A35
330
19FB
100
AcDbEntity
  8
NOKITOI
  6
PHANTOM
 62
     8
 48
5.0
100
AcDbCircle
 10
14.75369025610587
 20
63.69990931311463
 30
0.0
 40
0.2999999999998296
100
AcDbArc
 50
7.969881501863628
 51
90.00027275924964
  0
LINE
  5
1A36
330
19FB
100
AcDbEntity
  8
NOKITOI
  6
PHANTOM
 62
     8
 48
5.0
100
AcDbLine
 10
15.22791759737163
 20
62.47636999742622
 30
0.0
 11
15.01461456900677
 21
63.99991055526044
 31
0.0
  0
LINE
  5
1A37
330
19FB
100
AcDbEntity
  8
NOKITOI
  6
PHANTOM
 62
     8
 48
5.0
100
AcDbLine
 10
13.53583546463017
 20
63.99990351546211
 30
0.0
 11
15.01461456900677
 21
63.99991055526044
 31
0.0
  0
ARC
  5
1A38
330
19FB
100
AcDbEntity
  8
NOKITOI
  6
PHANTOM
 62
     8
 48
5.0
100
AcDbCircle
 10
15.88436208136534
 20
64.99991469574627
 30
0.0
 40
0.2999999999996023
100
AcDbArc
 50
7.969884542966325
 51
90.00027275926269
  0
ARC
  5
1A39
330
19FB
100
AcDbEntity
  8
NOKITOI
  6
PHANTOM
 62
     8
 48
5.0
100
AcDbCircle
 10
10.8298287013107
 20
66.29989063341407
 30
0.0
 40
1.000000000000001
100
AcDbArc
 50
249.3728793536222
 51
270.0002727592757
  0
ARC
  5
1A3A
330
19FB
100
AcDbEntity
  8
NOKITOI
  6
PHANTOM
 62
     8
 48
5.0
100
AcDbCircle
 10
12.3179825773733
 20
63.89989771781427
 30
0.0
 40
0.099999999999981
100
AcDbArc
 50
90.00027275928873
 51
238.0500844895506
  0
LINE
  5
1A3B
330
19FB
100
AcDbEntity
  8
NOKITOI
  6
PHANTOM
 62
     8
 48
5.0
100
AcDbLine
 10
10.82983346185836
 20
65.29989063342532
 30
0.0
 11
15.88436065320127
 21
65.29991469574247
 31
0.0
  0
LINE
  5
1A3C
330
19FB
100
AcDbEntity
  8
NOKITOI
  6
PHANTOM
 62
     8
 48
5.0
100
AcDbLine
 10
12.31798210131854
 20
63.99989771781316
 30
0.0
 11
14.7536888279418
 21
63.99990931311106
 31
0.0
  0
ARC
  5
1A3D
330
19FB
100
AcDbEntity
  8
NOKITOI
  6
PHANTOM
 62
     8
 48
5.0
100
AcDbCircle
 10
15.30600850238909
 20
61.197369669517
 30
0.0
 40
0.1000000000000474
100
AcDbArc
 50
217.6942137014135
 51
7.969881501870078
  0
LINE
  5
1A3E
330
19FB
100
AcDbEntity
  8
NOKITOI
  6
PHANTOM
 62
     8
 48
5.0
100
AcDbLine
 10
15.40504261145122
 20
61.2112349225722
 30
0.0
 11
15.05079258329204
 21
63.74150507228023
 31
0.0
  0
ARC
  5
1A3F
330
19FB
100
AcDbEntity
  8
NOKITOI
  6
PHANTOM
 62
     8
 48
5.0
100
AcDbCircle
 10
6.285356230304728
 20
54.22687237117862
 30
0.0
 40
11.30000000000003
100
AcDbArc
 50
37.69421370141937
 51
58.05008448955056
  0
ARC
  5
1A40
330
19FB
100
AcDbEntity
  8
NOKITOI
  6
PHANTOM
 62
     8
 48
5.0
100
AcDbCircle
 10
9.217103878348212
 20
73.62438874632375
 30
0.0
 40
1.984047239721487
100
AcDbArc
 50
359.9999911171311
 51
64.8292325331936
  0
ARC
  5
1A41
330
19FB
100
AcDbEntity
  8
NOKITOI
  6
PHANTOM
 62
     8
 48
5.0
100
AcDbCircle
 10
9.635636478624633
 20
74.51499496262204
 30
0.0
 40
1.000000000000077
100
AcDbArc
 50
64.8292325331936
 51
80.27269634530323
  0
ARC
  5
1A42
330
19FB
100
AcDbEntity
  8
NOKITOI
  6
PHANTOM
 62
     8
 48
5.0
100
AcDbCircle
 10
6.014546991360589
 20
73.44240443426156
 30
0.0
 40
0.4999999999999855
100
AcDbArc
 50
324.081026148336
 51
0.0
  0
LINE
  5
1A43
330
19FB
100
AcDbEntity
  8
NOKITOI
  6
PHANTOM
 62
     8
 48
5.0
100
AcDbLine
 10
6.514546991360589
 20
74.28559468837636
 30
0.0
 11
6.514546991360589
 21
73.44240443426156
 31
0.0
  0
LINE
  5
1A44
330
19FB
100
AcDbEntity
  8
NOKITOI
  6
PHANTOM
 62
     8
 48
5.0
100
AcDbLine
 10
8.267985620718605
 20
75.76402928657444
 30
0.0
 11
9.804595564863462
 21
75.5006180280875
 31
0.0
  0
ARC
  5
1A45
330
19FB
100
AcDbEntity
  8
NOKITOI
  6
PHANTOM
 62
     8
 48
5.0
100
AcDbCircle
 10
11.9147478915437
 20
72.6098235557414
 30
0.0
 40
0.99999999999997
100
AcDbArc
 50
233.7824700684546
 51
324.3087057504162
  0
ARC
  5
1A46
330
19FB
100
AcDbEntity
  8
NOKITOI
  6
PHANTOM
 62
     8
 48
5.0
100
AcDbCircle
 10
11.50115111806952
 20
72.04507785281658
 30
0.0
 40
0.3000000000000114
100
AcDbArc
 50
180.0
 51
233.7824700684546
  0
LINE
  5
1A47
330
19FB
100
AcDbEntity
  8
NOKITOI
  6
PHANTOM
 62
     8
 48
5.0
100
AcDbLine
 10
11.9147478915437
 20
71.6098235557414
 30
0.0
 11
12.01474789154361
 21
71.6098235557414
 31
0.0
  0
LINE
  5
1A48
330
19FB
100
AcDbEntity
  8
NOKITOI
  6
PHANTOM
 62
     8
 48
5.0
100
AcDbLine
 10
11.20115111806956
 20
73.62438874632369
 30
0.0
 11
11.20115111806956
 21
72.04507785281658
 31
0.0
  0
ARC
  5
1A49
330
19FB
100
AcDbEntity
  8
NOKITOI
  6
PHANTOM
 62
     8
 48
5.0
100
AcDbCircle
 10
6.214539846639923
 20
79.69606008392481
 30
0.0
 40
0.2999999999999982
100
AcDbArc
 50
0.0002727593441052
 51
98.22733668820366
  0
LINE
  5
1A4A
330
19FB
100
AcDbEntity
  8
NOKITOI
  6
PHANTOM
 62
     8
 48
5.0
100
AcDbLine
 10
6.171609489442631
 20
79.99297250271343
 30
0.0
 11
2.554213188939116
 21
79.46993585722669
 31
0.0
  0
LINE
  5
1A4B
330
19FB
100
AcDbEntity
  8
NOKITOI
  6
PHANTOM
 62
     8
 48
5.0
100
AcDbLine
 10
4.1429978609616
 20
78.38613840861012
 30
0.0
 11
2.738592571013101
 21
78.18307649038559
 31
0.0
  0
ARC
  5
1A4C
330
19FB
100
AcDbEntity
  8
NOKITOI
  6
PHANTOM
 62
     8
 48
5.0
100
AcDbCircle
 10
4.214548438338284
 20
77.89128437470004
 30
0.0
 40
0.4999999999999978
100
AcDbArc
 50
0.0002727592789674
 51
98.22733668820366
  0
ARC
  5
1A4D
330
19FB
100
AcDbEntity
  8
NOKITOI
  6
PHANTOM
 62
     8
 48
5.0
100
AcDbCircle
 10
9.665567651501192
 20
74.61132271681879
 30
0.0
 40
3.000000000000007
100
AcDbArc
 50
65.56290547640806
 51
80.27269634529012
  0
LINE
  5
1A4E
330
19FB
100
AcDbEntity
  8
NOKITOI
  6
PHANTOM
 62
     8
 48
5.0
100
AcDbLine
 10
6.514539846637149
 20
79.69606142131863
 30
0.0
 11
6.514544984409781
 21
78.61682153244772
 31
0.0
  0
ARC
  5
1A4F
330
19FB
100
AcDbEntity
  8
NOKITOI
  6
PHANTOM
 62
     8
 48
5.0
100
AcDbCircle
 10
7.014544984404097
 20
78.61682391272143
 30
0.0
 40
0.4999999999999814
100
AcDbArc
 50
180.0002727592757
 51
260.2726963453033
  0
LINE
  5
1A50
330
19FB
100
AcDbEntity
  8
NOKITOI
  6
PHANTOM
 62
     8
 48
5.0
100
AcDbLine
 10
6.93006544128491
 20
78.1240123799887
 30
0.0
 11
10.17244491021745
 21
77.56819191321495
 31
0.0
  0
ARC
  5
1A51
330
19FB
100
AcDbEntity
  8
NOKITOI
  6
PHANTOM
 62
     8
 48
5.0
100
AcDbCircle
 10
124.469496618693
 20
58.40043162037364
 30
0.0
 40
0.2999999999997419
100
AcDbArc
 50
90.00027275926269
 51
177.397710168851
  0
LINE
  5
1A52
330
19FB
100
AcDbEntity
  8
NOKITOI
  6
PHANTOM
 62
     8
 48
5.0
100
AcDbLine
 10
124.469495190529
 20
58.70043162037052
 30
0.0
 11
125.9761621675666
 21
58.7004387929303
 31
0.0
  0
LINE
  5
1A53
330
19FB
100
AcDbEntity
  8
NOKITOI
  6
PHANTOM
 62
     8
 48
5.0
100
AcDbLine
 10
123.4183535848379
 20
60.00042661637519
 30
0.0
 11
126.5146336099338
 21
60.00044135636381
 31
0.0
  0
LINE
  5
1A54
330
19FB
100
AcDbEntity
  8
NOKITOI
  6
PHANTOM
 62
     8
 48
5.0
100
AcDbLine
 10
128.2146504550051
 20
56.46197181825039
 30
0.0
 11
125.9761621675666
 21
58.7004387929303
 31
0.0
  0
LINE
  5
1A55
330
19FB
100
AcDbEntity
  8
NOKITOI
  6
PHANTOM
 62
     8
 48
5.0
100
AcDbLine
 10
129.5146478915426
 20
57.00045563804088
 30
0.0
 11
126.5146336099338
 21
60.00044135636381
 31
0.0
  0
ARC
  5
1A56
330
19FB
100
AcDbEntity
  8
NOKITOI
  6
PHANTOM
 62
     8
 48
5.0
100
AcDbCircle
 10
123.4183559651119
 20
59.50042661638088
 30
0.0
 40
0.5000000000000734
100
AcDbArc
 50
90.00027275928873
 51
177.3977087835152
  0
LINE
  5
1A57
330
19FB
100
AcDbEntity
  8
NOKITOI
  6
PHANTOM
 62
     8
 48
5.0
100
AcDbLine
 10
126.5146336099338
 20
60.00044135636381
 30
0.0
 11
122.9405653832814
 21
60.00044135636381
 31
0.0
  0
ENDBLK
  5
1A59
330
19FB
100
AcDbEntity
  8
0
100
AcDbBlockEnd
  0
BLOCK
  5
20D4
330
20CA
100
AcDbEntity
  8
0
100
AcDbBlockBegin
  2
*D2
 70
     1
 71
     0
 10
0.0
 20
0.0
 30
0.0
  3
*D2
  1

  0
LINE
  5
2170
330
20CA
100
AcDbEntity
  8
SUNPOU
 62
     4
370
    -2
100
AcDbLine
 10
530.6116922931437
 20
453.2854054052098
 30
0.0
 11
530.6116922931437
 21
489.7506008261465
 31
0.0
  0
LINE
  5
2171
330
20CA
100
AcDbEntity
  8
SUNPOU
 62
     4
370
    -2
100
AcDbLine
 10
600.6116922931437
 20
453.2854054052098
 30
0.0
 11
600.6116922931437
 21
489.7506008261465
 31
0.0
  0
LINE
  5
2172
330
20CA
100
AcDbEntity
  8
SUNPOU
 62
     4
370
    -2
100
AcDbLine
 10
534.1116922931437
 20
488.2506008261465
 30
0.0
 11
597.1116922931437
 21
488.2506008261465
 31
0.0
  0
INSERT
  5
2173
330
20CA
100
AcDbEntity
  8
SUNPOU
 62
     4
370
    -2
100
AcDbBlockReference
  2
_OPEN
 10
530.6116922931437
 20
488.2506008261465
 30
0.0
 41
3.5
 42
3.5
 43
3.5
 50
180.0
  0
INSERT
  5
2174
330
20CA
100
AcDbEntity
  8
SUNPOU
 62
     4
370
    -2
100
AcDbBlockReference
  2
_OPEN
 10
600.6116922931437
 20
488.2506008261465
 30
0.0
 41
3.5
 42
3.5
 43
3.5
  0
MTEXT
  5
2175
330
20CA
100
AcDbEntity
  8
SUNPOU
 62
     4
100
AcDbMText
 10
565.6116922931437
 20
492.2506008261465
 30
0.0
 40
6.0
 41
0.0
 71
     5
 72
     1
  1
\A1;70
 73
     1
 44
1.0
  0
POINT
  5
2176
330
20CA
100
AcDbEntity
  8
DEFPOINTS
 62
     0
100
AcDbPoint
 10
530.6116922931437
 20
450.2854054052098
 30
0.0
  0
POINT
  5
2177
330
20CA
100
AcDbEntity
  8
DEFPOINTS
 62
     0
100
AcDbPoint
 10
600.6116922931437
 20
450.2854054052098
 30
0.0
  0
POINT
  5
2178
330
20CA
100
AcDbEntity
  8
DEFPOINTS
 62
     0
100
AcDbPoint
 10
600.6116922931437
 20
488.2506008261465
 30
0.0
  0
ENDBLK
  5
20D5
330
20CA
100
AcDbEntity
  8
0
100
AcDbBlockEnd
  0
BLOCK
  5
20E0
330
20D6
100
AcDbEntity
  8
0
100
AcDbBlockBegin
  2
*D3
 70
     1
 71
     0
 10
0.0
 20
0.0
 30
0.0
  3
*D3
  1

  0
LINE
  5
2179
330
20D6
100
AcDbEntity
  8
SUNPOU
 62
     4
370
    -2
100
AcDbLine
 10
603.6116922931437
 20
450.2854054052098
 30
0.0
 11
615.8716755349431
 21
450.2854054052098
 31
0.0
  0
LINE
  5
217A
330
20D6
100
AcDbEntity
  8
SUNPOU
 62
     4
370
    -2
100
AcDbLine
 10
591.2597831592437
 20
432.2854054052097
 30
0.0
 11
615.8716755349431
 21
432.2854054052097
 31
0.0
  0
LINE
  5
217B
330
20D6
100
AcDbEntity
  8
SUNPOU
 62
     4
370
    -2
100
AcDbLine
 10
614.3716755349431
 20
446.7854054052098
 30
0.0
 11
614.3716755349431
 21
435.7854054052097
 31
0.0
  0
INSERT
  5
217C
330
20D6
100
AcDbEntity
  8
SUNPOU
 62
     4
370
    -2
100
AcDbBlockReference
  2
_OPEN
 10
614.3716755349431
 20
450.2854054052098
 30
0.0
 41
3.5
 42
3.5
 43
3.5
 50
90.0
  0
INSERT
  5
217D
330
20D6
100
AcDbEntity
  8
SUNPOU
 62
     4
370
    -2
100
AcDbBlockReference
  2
_OPEN
 10
614.3716755349431
 20
432.2854054052097
 30
0.0
 41
3.5
 42
3.5
 43
3.5
 50
270.0
  0
MTEXT
  5
217E
330
20D6
100
AcDbEntity
  8
SUNPOU
 62
     4
100
AcDbMText
 10
610.3716755349429
 20
441.2854054052098
 30
0.0
 40
6.0
 41
0.0
 71
     5
 72
     1
  1
\A1;18
 11
6.123031769111886E-17
 21
1.0
 31
0.0
 73
     1
 44
1.0
  0
POINT
  5
217F
330
20D6
100
AcDbEntity
  8
DEFPOINTS
 62
     0
100
AcDbPoint
 10
600.6116922931437
 20
450.2854054052098
 30
0.0
  0
POINT
  5
2180
330
20D6
100
AcDbEntity
  8
DEFPOINTS
 62
     0
100
AcDbPoint
 10
588.2597831592437
 20
432.2854054052097
 30
0.0
  0
POINT
  5
2181
330
20D6
100
AcDbEntity
  8
DEFPOINTS
 62
     0
100
AcDbPoint
 10
614.3716755349431
 20
432.2854054052097
 30
0.0
  0
ENDBLK
  5
20E1
330
20D6
100
AcDbEntity
  8
0
100
AcDbBlockEnd
  0
BLOCK
  5
20EC
330
20E2
100
AcDbEntity
  8
0
100
AcDbBlockBegin
  2
*D4
 70
     1
 71
     0
 10
0.0
 20
0.0
 30
0.0
  3
*D4
  1

  0
LINE
  5
2182
330
20E2
100
AcDbEntity
  8
SUNPOU
 62
     4
370
    -2
100
AcDbLine
 10
561.6116922931437
 20
460.2854054052098
 30
0.0
 11
628.8148895007613
 21
460.2854054052098
 31
0.0
  0
LINE
  5
2183
330
20E2
100
AcDbEntity
  8
SUNPOU
 62
     4
370
    -2
100
AcDbLine
 10
568.6116922931437
 20
430.2854054052098
 30
0.0
 11
628.8148895007613
 21
430.2854054052098
 31
0.0
  0
LINE
  5
2184
330
20E2
100
AcDbEntity
  8
SUNPOU
 62
     4
370
    -2
100
AcDbLine
 10
627.3148895007613
 20
456.7854054052098
 30
0.0
 11
627.3148895007613
 21
433.7854054052098
 31
0.0
  0
INSERT
  5
2185
330
20E2
100
AcDbEntity
  8
SUNPOU
 62
     4
370
    -2
100
AcDbBlockReference
  2
_OPEN
 10
627.3148895007613
 20
460.2854054052098
 30
0.0
 41
3.5
 42
3.5
 43
3.5
 50
90.0
  0
INSERT
  5
2186
330
20E2
100
AcDbEntity
  8
SUNPOU
 62
     4
370
    -2
100
AcDbBlockReference
  2
_OPEN
 10
627.3148895007613
 20
430.2854054052098
 30
0.0
 41
3.5
 42
3.5
 43
3.5
 50
270.0
  0
MTEXT
  5
2187
330
20E2
100
AcDbEntity
  8
SUNPOU
 62
     4
100
AcDbMText
 10
623.3148895007612
 20
445.2854054052098
 30
0.0
 40
6.0
 41
0.0
 71
     5
 72
     1
  1
\A1;30
 11
6.123031769111886E-17
 21
1.0
 31
0.0
 73
     1
 44
1.0
  0
POINT
  5
2188
330
20E2
100
AcDbEntity
  8
DEFPOINTS
 62
     0
100
AcDbPoint
 10
558.6116922931437
 20
460.2854054052098
 30
0.0
  0
POINT
  5
2189
330
20E2
100
AcDbEntity
  8
DEFPOINTS
 62
     0
100
AcDbPoint
 10
565.6116922931437
 20
430.2854054052098
 30
0.0
  0
POINT
  5
218A
330
20E2
100
AcDbEntity
  8
DEFPOINTS
 62
     0
100
AcDbPoint
 10
627.3148895007613
 20
430.2854054052098
 30
0.0
  0
ENDBLK
  5
20ED
330
20E2
100
AcDbEntity
  8
0
100
AcDbBlockEnd
  0
BLOCK
  5
20F8
330
20EE
100
AcDbEntity
  8
0
100
AcDbBlockBegin
  2
*D5
 70
     1
 71
     0
 10
0.0
 20
0.0
 30
0.0
  3
*D5
  1

  0
LINE
  5
218B
330
20EE
100
AcDbEntity
  8
SUNPOU
 62
     4
370
    -2
100
AcDbLine
 10
555.6116922931437
 20
460.2854054052098
 30
0.0
 11
555.6116922931437
 21
473.8672851621869
 31
0.0
  0
LINE
  5
218C
330
20EE
100
AcDbEntity
  8
SUNPOU
 62
     4
370
    -2
100
AcDbLine
 10
575.6116922931437
 20
460.2854054052098
 30
0.0
 11
575.6116922931437
 21
473.8672851621869
 31
0.0
  0
LINE
  5
218D
330
20EE
100
AcDbEntity
  8
SUNPOU
 62
     4
370
    -2
100
AcDbLine
 10
559.1116922931437
 20
472.3672851621869
 30
0.0
 11
572.1116922931437
 21
472.3672851621869
 31
0.0
  0
INSERT
  5
218E
330
20EE
100
AcDbEntity
  8
SUNPOU
 62
     4
370
    -2
100
AcDbBlockReference
  2
_OPEN
 10
555.6116922931437
 20
472.3672851621869
 30
0.0
 41
3.5
 42
3.5
 43
3.5
 50
180.0
  0
INSERT
  5
218F
330
20EE
100
AcDbEntity
  8
SUNPOU
 62
     4
370
    -2
100
AcDbBlockReference
  2
_OPEN
 10
575.6116922931437
 20
472.3672851621869
 30
0.0
 41
3.5
 42
3.5
 43
3.5
  0
MTEXT
  5
2190
330
20EE
100
AcDbEntity
  8
SUNPOU
 62
     4
100
AcDbMText
 10
565.6116922931437
 20
476.3672851621869
 30
0.0
 40
6.0
 41
0.0
 71
     5
 72
     1
  1
\A1;20
 73
     1
 44
1.0
  0
POINT
  5
2191
330
20EE
100
AcDbEntity
  8
DEFPOINTS
 62
     0
100
AcDbPoint
 10
555.6116922931437
 20
457.2854054052098
 30
0.0
  0
POINT
  5
2192
330
20EE
100
AcDbEntity
  8
DEFPOINTS
 62
     0
100
AcDbPoint
 10
575.6116922931437
 20
457.2854054052098
 30
0.0
  0
POINT
  5
2193
330
20EE
100
AcDbEntity
  8
DEFPOINTS
 62
     0
100
AcDbPoint
 10
575.6116922931437
 20
472.3672851621869
 30
0.0
  0
ENDBLK
  5
20F9
330
20EE
100
AcDbEntity
  8
0
100
AcDbBlockEnd
  0
BLOCK
  5
2104
330
20FA
100
AcDbEntity
  8
0
100
AcDbBlockBegin
  2
*D6
 70
     1
 71
     0
 10
0.0
 20
0.0
 30
0.0
  3
*D6
  1

  0
LINE
  5
2194
330
20FA
100
AcDbEntity
  8
SUNPOU
 62
     4
370
    -2
100
AcDbLine
 10
585.6116922931437
 20
453.2854054052098
 30
0.0
 11
585.6116922931437
 21
473.8672851621869
 31
0.0
  0
LINE
  5
2195
330
20FA
100
AcDbEntity
  8
SUNPOU
 62
     4
370
    -2
100
AcDbLine
 10
600.6116922931437
 20
453.2854054052098
 30
0.0
 11
600.6116922931437
 21
473.8672851621869
 31
0.0
  0
LINE
  5
2196
330
20FA
100
AcDbEntity
  8
SUNPOU
 62
     4
370
    -2
100
AcDbLine
 10
589.1116922931437
 20
472.3672851621869
 30
0.0
 11
597.1116922931437
 21
472.3672851621869
 31
0.0
  0
INSERT
  5
2197
330
20FA
100
AcDbEntity
  8
SUNPOU
 62
     4
370
    -2
100
AcDbBlockReference
  2
_OPEN
 10
585.6116922931437
 20
472.3672851621869
 30
0.0
 41
3.5
 42
3.5
 43
3.5
 50
180.0
  0
INSERT
  5
2198
330
20FA
100
AcDbEntity
  8
SUNPOU
 62
     4
370
    -2
100
AcDbBlockReference
  2
_OPEN
 10
600.6116922931437
 20
472.3672851621869
 30
0.0
 41
3.5
 42
3.5
 43
3.5
  0
MTEXT
  5
2199
330
20FA
100
AcDbEntity
  8
SUNPOU
 62
     4
100
AcDbMText
 10
593.1116922931437
 20
476.3672851621869
 30
0.0
 40
6.0
 41
0.0
 71
     5
 72
     1
  1
\A1;15
 73
     1
 44
1.0
  0
POINT
  5
219A
330
20FA
100
AcDbEntity
  8
DEFPOINTS
 62
     0
100
AcDbPoint
 10
585.6116922931437
 20
450.2854054052098
 30
0.0
  0
POINT
  5
219B
330
20FA
100
AcDbEntity
  8
DEFPOINTS
 62
     0
100
AcDbPoint
 10
600.6116922931437
 20
450.2854054052098
 30
0.0
  0
POINT
  5
219C
330
20FA
100
AcDbEntity
  8
DEFPOINTS
 62
     0
100
AcDbPoint
 10
600.6116922931437
 20
472.3672851621869
 30
0.0
  0
ENDBLK
  5
2105
330
20FA
100
AcDbEntity
  8
0
100
AcDbBlockEnd
  0
BLOCK
  5
2112
330
2106
100
AcDbEntity
  8
0
100
AcDbBlockBegin
  2
*D7
 70
     1
 71
     0
 10
0.0
 20
0.0
 30
0.0
  3
*D7
  1

  0
LINE
  5
219D
330
2106
100
AcDbEntity
  8
SUNPOU
 62
     4
370
    -2
100
AcDbLine
 10
652.2070764990158
 20
461.7854054052098
 30
0.0
 11
652.2070764990158
 21
473.8672851621869
 31
0.0
  0
LINE
  5
219E
330
2106
100
AcDbEntity
  8
SUNPOU
 62
     4
370
    -2
100
AcDbLine
 10
660.207076499016
 20
451.7854054052097
 30
0.0
 11
660.207076499016
 21
473.8672851621869
 31
0.0
  0
LINE
  5
219F
330
2106
100
AcDbEntity
  8
SUNPOU
 62
     4
370
    -2
100
AcDbLine
 10
648.7070764990158
 20
472.3672851621869
 30
0.0
 11
645.2070764990158
 21
472.3672851621869
 31
0.0
  0
LINE
  5
21A0
330
2106
100
AcDbEntity
  8
SUNPOU
 62
     4
370
    -2
100
AcDbLine
 10
663.707076499016
 20
472.3672851621869
 30
0.0
 11
667.207076499016
 21
472.3672851621869
 31
0.0
  0
LINE
  5
21A1
330
2106
100
AcDbEntity
  8
SUNPOU
 62
     4
370
    -2
100
AcDbLine
 10
652.2070764990158
 20
472.3672851621869
 30
0.0
 11
660.207076499016
 21
472.3672851621869
 31
0.0
  0
INSERT
  5
21A2
330
2106
100
AcDbEntity
  8
SUNPOU
 62
     4
370
    -2
100
AcDbBlockReference
  2
_OPEN
 10
652.2070764990158
 20
472.3672851621869
 30
0.0
 41
3.5
 42
3.5
 43
3.5
  0
INSERT
  5
21A3
330
2106
100
AcDbEntity
  8
SUNPOU
 62
     4
370
    -2
100
AcDbBlockReference
  2
_OPEN
 10
660.207076499016
 20
472.3672851621869
 30
0.0
 41
3.5
 42
3.5
 43
3.5
 50
180.0
  0
MTEXT
  5
21A4
330
2106
100
AcDbEntity
  8
SUNPOU
 62
     4
100
AcDbMText
 10
656.2070764990159
 20
476.3672851621869
 30
0.0
 40
6.0
 41
0.0
 71
     5
 72
     1
  1
\A1;8
 73
     1
 44
1.0
  0
POINT
  5
21A5
330
2106
100
AcDbEntity
  8
DEFPOINTS
 62
     0
100
AcDbPoint
 10
652.2070764990158
 20
458.7854054052098
 30
0.0
  0
POINT
  5
21A6
330
2106
100
AcDbEntity
  8
DEFPOINTS
 62
     0
100
AcDbPoint
 10
660.207076499016
 20
448.7854054052097
 30
0.0
  0
POINT
  5
21A7
330
2106
100
AcDbEntity
  8
DEFPOINTS
 62
     0
100
AcDbPoint
 10
660.207076499016
 20
472.3672851621869
 30
0.0
  0
ENDBLK
  5
2113
330
2106
100
AcDbEntity
  8
0
100
AcDbBlockEnd
  0
BLOCK
  5
2219
330
2217
100
AcDbEntity
  8
0
100
AcDbBlockBegin
  2
A$C49B61C09
 70
     0
 71
     0
 10
0.0
 20
0.0
 30
0.0
  3
A$C49B61C09
  1

  0
INSERT
  5
2218
330
2217
100
AcDbEntity
  8
SUNPOU
100
AcDbBlockReference
  2
A$C6DF3607B
 10
-0.0000002108174613
 20
0.0000000110870246
 30
0.0
  0
ENDBLK
  5
221A
330
2217
100
AcDbEntity
  8
0
100
AcDbBlockEnd
  0
BLOCK
  5
2687
330
267D
100
AcDbEntity
  8
0
100
AcDbBlockBegin
  2
*D9
 70
     1
 71
     0
 10
0.0
 20
0.0
 30
0.0
  3
*D9
  1

  0
LINE
  5
26F7
330
267D
100
AcDbEntity
  8
SUNPOU
100
AcDbLine
 10
138.2631916318728
 20
264.4761365594089
 30
0.0
 11
138.2631916318728
 21
287.3124132856071
 31
0.0
  0
LINE
  5
26F8
330
267D
100
AcDbEntity
  8
SUNPOU
100
AcDbLine
 10
328.2631916318724
 20
264.4761365594089
 30
0.0
 11
328.2631916318724
 21
287.3124132856071
 31
0.0
  0
LINE
  5
26F9
330
267D
100
AcDbEntity
  8
SUNPOU
100
AcDbLine
 10
145.2631916318728
 20
284.3124132856071
 30
0.0
 11
321.2631916318724
 21
284.3124132856071
 31
0.0
  0
INSERT
  5
26FA
330
267D
100
AcDbEntity
  8
SUNPOU
100
AcDbBlockReference
  2
_OPEN
 10
138.2631916318728
 20
284.3124132856071
 30
0.0
 41
7.0
 42
7.0
 43
7.0
 50
180.0
  0
INSERT
  5
26FB
330
267D
100
AcDbEntity
  8
SUNPOU
100
AcDbBlockReference
  2
_OPEN
 10
328.2631916318724
 20
284.3124132856071
 30
0.0
 41
7.0
 42
7.0
 43
7.0
  0
MTEXT
  5
26FC
330
267D
100
AcDbEntity
  8
SUNPOU
100
AcDbMText
 10
233.2631916318726
 20
289.3124132856071
 30
0.0
 40
6.0
 41
0.0
 71
     5
 72
     1
  1
\A1;190
 73
     1
 44
1.0
  0
POINT
  5
26FD
330
267D
100
AcDbEntity
  8
DEFPOINTS
 62
     0
100
AcDbPoint
 10
138.2631916318728
 20
258.4761365594089
 30
0.0
  0
POINT
  5
26FE
330
267D
100
AcDbEntity
  8
DEFPOINTS
 62
     0
100
AcDbPoint
 10
328.2631916318724
 20
258.4761365594089
 30
0.0
  0
POINT
  5
26FF
330
267D
100
AcDbEntity
  8
DEFPOINTS
 62
     0
100
AcDbPoint
 10
328.2631916318724
 20
284.3124132856071
 30
0.0
  0
ENDBLK
  5
2688
330
267D
100
AcDbEntity
  8
0
100
AcDbBlockEnd
  0
BLOCK
  5
2693
330
2689
100
AcDbEntity
  8
0
100
AcDbBlockBegin
  2
*D10
 70
     1
 71
     0
 10
0.0
 20
0.0
 30
0.0
  3
*D10
  1

  0
LINE
  5
2763
330
2689
100
AcDbEntity
  8
SUNPOU
100
AcDbLine
 10
200.7631916318731
 20
346.4987450448215
 30
0.0
 11
200.7631916318731
 21
332.8002287200554
 31
0.0
  0
LINE
  5
2764
330
2689
100
AcDbEntity
  8
SUNPOU
100
AcDbLine
 10
265.7631916318731
 20
346.4987450448213
 30
0.0
 11
265.7631916318731
 21
332.8002287200554
 31
0.0
  0
LINE
  5
2765
330
2689
100
AcDbEntity
  8
SUNPOU
100
AcDbLine
 10
207.7631916318731
 20
335.8002287200554
 30
0.0
 11
258.7631916318731
 21
335.8002287200554
 31
0.0
  0
INSERT
  5
2766
330
2689
100
AcDbEntity
  8
SUNPOU
100
AcDbBlockReference
  2
_OPEN
 10
200.7631916318731
 20
335.8002287200554
 30
0.0
 41
7.0
 42
7.0
 43
7.0
 50
180.0
  0
INSERT
  5
2767
330
2689
100
AcDbEntity
  8
SUNPOU
100
AcDbBlockReference
  2
_OPEN
 10
265.7631916318731
 20
335.8002287200554
 30
0.0
 41
7.0
 42
7.0
 43
7.0
  0
MTEXT
  5
2768
330
2689
100
AcDbEntity
  8
SUNPOU
100
AcDbMText
 10
233.2631916318731
 20
340.8002287200554
 30
0.0
 40
6.0
 41
0.0
 71
     5
 72
     1
  1
\A1;65
 73
     1
 44
1.0
  0
POINT
  5
2769
330
2689
100
AcDbEntity
  8
DEFPOINTS
 62
     0
100
AcDbPoint
 10
200.7631916318731
 20
352.4987450448215
 30
0.0
  0
POINT
  5
276A
330
2689
100
AcDbEntity
  8
DEFPOINTS
 62
     0
100
AcDbPoint
 10
265.7631916318731
 20
352.4987450448213
 30
0.0
  0
POINT
  5
276B
330
2689
100
AcDbEntity
  8
DEFPOINTS
 62
     0
100
AcDbPoint
 10
265.7631916318731
 20
335.8002287200554
 30
0.0
  0
ENDBLK
  5
2694
330
2689
100
AcDbEntity
  8
0
100
AcDbBlockEnd
  0
BLOCK
  5
269F
330
2695
100
AcDbEntity
  8
0
100
AcDbBlockBegin
  2
*D11
 70
     1
 71
     0
 10
0.0
 20
0.0
 30
0.0
  3
*D11
  1

  0
LINE
  5
2709
330
2695
100
AcDbEntity
  8
SUNPOU
100
AcDbLine
 10
642.2276827979924
 20
237.4288541259967
 30
0.0
 11
670.6201968529695
 21
237.4288541259967
 31
0.0
  0
LINE
  5
270A
330
2695
100
AcDbEntity
  8
SUNPOU
100
AcDbLine
 10
612.5167408986922
 20
109.2288541259965
 30
0.0
 11
670.6201968529695
 21
109.2288541259965
 31
0.0
  0
LINE
  5
270B
330
2695
100
AcDbEntity
  8
SUNPOU
100
AcDbLine
 10
667.6201968529695
 20
230.4288541259967
 30
0.0
 11
667.6201968529695
 21
116.2288541259965
 31
0.0
  0
INSERT
  5
270C
330
2695
100
AcDbEntity
  8
SUNPOU
100
AcDbBlockReference
  2
_OPEN
 10
667.6201968529695
 20
237.4288541259967
 30
0.0
 41
7.0
 42
7.0
 43
7.0
 50
90.0
  0
INSERT
  5
270D
330
2695
100
AcDbEntity
  8
SUNPOU
100
AcDbBlockReference
  2
_OPEN
 10
667.6201968529695
 20
109.2288541259965
 30
0.0
 41
7.0
 42
7.0
 43
7.0
 50
270.0
  0
MTEXT
  5
270E
330
2695
100
AcDbEntity
  8
SUNPOU
100
AcDbMText
 10
662.6201968529695
 20
173.3288541259967
 30
0.0
 40
6.0
 41
0.0
 71
     5
 72
     1
  1
\A1;128
 11
6.123031769111886E-17
 21
1.0
 31
0.0
 73
     1
 44
1.0
  0
POINT
  5
270F
330
2695
100
AcDbEntity
  8
DEFPOINTS
 62
     0
100
AcDbPoint
 10
636.2276827979924
 20
237.4288541259967
 30
0.0
  0
POINT
  5
2710
330
2695
100
AcDbEntity
  8
DEFPOINTS
 62
     0
100
AcDbPoint
 10
606.5167408986922
 20
109.2288541259965
 30
0.0
  0
POINT
  5
2711
330
2695
100
AcDbEntity
  8
DEFPOINTS
 62
     0
100
AcDbPoint
 10
667.6201968529695
 20
109.2288541259965
 30
0.0
  0
ENDBLK
  5
26A0
330
2695
100
AcDbEntity
  8
0
100
AcDbBlockEnd
  0
BLOCK
  5
26AB
330
26A1
100
AcDbEntity
  8
0
100
AcDbBlockBegin
  2
*D12
 70
     1
 71
     0
 10
0.0
 20
0.0
 30
0.0
  3
*D12
  1

  0
LINE
  5
278B
330
26A1
100
AcDbEntity
  8
SUNPOU
 62
     4
370
    -2
100
AcDbLine
 10
542.2274679338241
 20
109.228814126099
 30
0.0
 11
542.2274679338241
 21
74.05802274359348
 31
0.0
  0
LINE
  5
278C
330
26A1
100
AcDbEntity
  8
SUNPOU
 62
     4
370
    -2
100
AcDbLine
 10
612.2276679337922
 20
109.2286441259965
 30
0.0
 11
612.2276679337922
 21
74.05802274359348
 31
0.0
  0
LINE
  5
278D
330
26A1
100
AcDbEntity
  8
SUNPOU
 62
     4
370
    -2
100
AcDbLine
 10
549.2274679338241
 20
77.05802274359348
 30
0.0
 11
605.2276679337922
 21
77.05802274359348
 31
0.0
  0
INSERT
  5
278E
330
26A1
100
AcDbEntity
  8
SUNPOU
 62
     4
370
    -2
100
AcDbBlockReference
  2
_OPEN
 10
542.2274679338241
 20
77.05802274359348
 30
0.0
 41
7.0
 42
7.0
 43
7.0
 50
180.0
  0
INSERT
  5
278F
330
26A1
100
AcDbEntity
  8
SUNPOU
 62
     4
370
    -2
100
AcDbBlockReference
  2
_OPEN
 10
612.2276679337922
 20
77.05802274359348
 30
0.0
 41
7.0
 42
7.0
 43
7.0
  0
MTEXT
  5
2790
330
26A1
100
AcDbEntity
  8
SUNPOU
 62
     4
100
AcDbMText
 10
577.2275679338081
 20
82.05802274359348
 30
0.0
 40
6.0
 41
0.0
 71
     5
 72
     1
  1
\A1;φ70
 73
     1
 44
1.0
  0
POINT
  5
2791
330
26A1
100
AcDbEntity
  8
DEFPOINTS
 62
     0
100
AcDbPoint
 10
542.2274679338241
 20
115.228814126099
 30
0.0
  0
POINT
  5
2792
330
26A1
100
AcDbEntity
  8
DEFPOINTS
 62
     0
100
AcDbPoint
 10
612.2276679337922
 20
115.2286441259965
 30
0.0
  0
POINT
  5
2793
330
26A1
100
AcDbEntity
  8
DEFPOINTS
 62
     0
100
AcDbPoint
 10
612.2276679337922
 20
77.05802274359348
 30
0.0
  0
ENDBLK
  5
26AC
330
26A1
100
AcDbEntity
  8
0
100
AcDbBlockEnd
  0
BLOCK
  5
26B7
330
26AD
100
AcDbEntity
  8
0
100
AcDbBlockBegin
  2
*D13
 70
     1
 71
     0
 10
0.0
 20
0.0
 30
0.0
  3
*D13
  1

  0
LINE
  5
271B
330
26AD
100
AcDbEntity
  8
SUNPOU
100
AcDbLine
 10
630.2276827979924
 20
243.4288541259967
 30
0.0
 11
630.2276827979924
 21
287.3124132856071
 31
0.0
  0
LINE
  5
271C
330
26AD
100
AcDbEntity
  8
SUNPOU
100
AcDbLine
 10
494.0445548835787
 20
263.2288541259967
 30
0.0
 11
494.0445548835787
 21
287.3124132856071
 31
0.0
  0
LINE
  5
271D
330
26AD
100
AcDbEntity
  8
SUNPOU
100
AcDbLine
 10
623.2276827979924
 20
284.3124132856071
 30
0.0
 11
501.0445548835787
 21
284.3124132856071
 31
0.0
  0
INSERT
  5
271E
330
26AD
100
AcDbEntity
  8
SUNPOU
100
AcDbBlockReference
  2
_OPEN
 10
630.2276827979924
 20
284.3124132856071
 30
0.0
 41
7.0
 42
7.0
 43
7.0
  0
INSERT
  5
271F
330
26AD
100
AcDbEntity
  8
SUNPOU
100
AcDbBlockReference
  2
_OPEN
 10
494.0445548835787
 20
284.3124132856071
 30
0.0
 41
7.0
 42
7.0
 43
7.0
 50
180.0
  0
MTEXT
  5
2720
330
26AD
100
AcDbEntity
  8
SUNPOU
100
AcDbMText
 10
562.1361188407856
 20
289.3124132856071
 30
0.0
 40
6.0
 41
0.0
 71
     5
 72
     1
  1
\A1;136
 73
     1
 44
1.0
  0
POINT
  5
2721
330
26AD
100
AcDbEntity
  8
DEFPOINTS
 62
     0
100
AcDbPoint
 10
630.2276827979924
 20
237.4288541259967
 30
0.0
  0
POINT
  5
2722
330
26AD
100
AcDbEntity
  8
DEFPOINTS
 62
     0
100
AcDbPoint
 10
494.0445548835787
 20
257.2288541259967
 30
0.0
  0
POINT
  5
2723
330
26AD
100
AcDbEntity
  8
DEFPOINTS
 62
     0
100
AcDbPoint
 10
494.0445548835787
 20
284.3124132856071
 30
0.0
  0
ENDBLK
  5
26B8
330
26AD
100
AcDbEntity
  8
0
100
AcDbBlockEnd
  0
BLOCK
  5
26C3
330
26B9
100
AcDbEntity
  8
0
100
AcDbBlockBegin
  2
*D14
 70
     1
 71
     0
 10
0.0
 20
0.0
 30
0.0
  3
*D14
  1

  0
LINE
  5
2724
330
26B9
100
AcDbEntity
  8
SUNPOU
100
AcDbLine
 10
521.6852432868984
 20
152.9288541259965
 30
0.0
 11
459.2193091371701
 21
152.9288541259965
 31
0.0
  0
LINE
  5
2725
330
26B9
100
AcDbEntity
  8
SUNPOU
100
AcDbLine
 10
542.1167408986921
 20
109.2288541259965
 30
0.0
 11
459.2193091371701
 21
109.2288541259966
 31
0.0
  0
LINE
  5
2726
330
26B9
100
AcDbEntity
  8
SUNPOU
100
AcDbLine
 10
462.2193091371701
 20
145.9288541259965
 30
0.0
 11
462.2193091371701
 21
116.2288541259966
 31
0.0
  0
INSERT
  5
2727
330
26B9
100
AcDbEntity
  8
SUNPOU
100
AcDbBlockReference
  2
_OPEN
 10
462.2193091371701
 20
152.9288541259965
 30
0.0
 41
7.0
 42
7.0
 43
7.0
 50
90.0
  0
INSERT
  5
2728
330
26B9
100
AcDbEntity
  8
SUNPOU
100
AcDbBlockReference
  2
_OPEN
 10
462.2193091371701
 20
109.2288541259966
 30
0.0
 41
7.0
 42
7.0
 43
7.0
 50
270.0
  0
MTEXT
  5
2729
330
26B9
100
AcDbEntity
  8
SUNPOU
100
AcDbMText
 10
457.2193091371701
 20
131.0788541259966
 30
0.0
 40
6.0
 41
0.0
 71
     5
 72
     1
  1
\A1;44
 11
6.123031769111886E-17
 21
1.0
 31
0.0
 73
     1
 44
1.0
  0
POINT
  5
272A
330
26B9
100
AcDbEntity
  8
DEFPOINTS
 62
     0
100
AcDbPoint
 10
527.6852432868984
 20
152.9288541259965
 30
0.0
  0
POINT
  5
272B
330
26B9
100
AcDbEntity
  8
DEFPOINTS
 62
     0
100
AcDbPoint
 10
548.1167408986921
 20
109.2288541259965
 30
0.0
  0
POINT
  5
272C
330
26B9
100
AcDbEntity
  8
DEFPOINTS
 62
     0
100
AcDbPoint
 10
462.2193091371701
 20
109.2288541259966
 30
0.0
  0
ENDBLK
  5
26C4
330
26B9
100
AcDbEntity
  8
0
100
AcDbBlockEnd
  0
BLOCK
  5
26CF
330
26C5
100
AcDbEntity
  8
0
100
AcDbBlockBegin
  2
*D15
 70
     1
 71
     0
 10
0.0
 20
0.0
 30
0.0
  3
*D15
  1

  0
LINE
  5
272D
330
26C5
100
AcDbEntity
  8
SUNPOU
100
AcDbLine
 10
488.0445548835787
 20
257.2288541259967
 30
0.0
 11
442.3223982138252
 21
257.2288541259967
 31
0.0
  0
LINE
  5
272E
330
26C5
100
AcDbEntity
  8
SUNPOU
100
AcDbLine
 10
536.1167408986921
 20
109.2288541259965
 30
0.0
 11
442.3223982138252
 21
109.2288541259965
 31
0.0
  0
LINE
  5
272F
330
26C5
100
AcDbEntity
  8
SUNPOU
100
AcDbLine
 10
445.3223982138252
 20
250.2288541259967
 30
0.0
 11
445.3223982138252
 21
116.2288541259965
 31
0.0
  0
INSERT
  5
2730
330
26C5
100
AcDbEntity
  8
SUNPOU
100
AcDbBlockReference
  2
_OPEN
 10
445.3223982138252
 20
257.2288541259967
 30
0.0
 41
7.0
 42
7.0
 43
7.0
 50
90.0
  0
INSERT
  5
2731
330
26C5
100
AcDbEntity
  8
SUNPOU
100
AcDbBlockReference
  2
_OPEN
 10
445.3223982138252
 20
109.2288541259965
 30
0.0
 41
7.0
 42
7.0
 43
7.0
 50
270.0
  0
MTEXT
  5
2732
330
26C5
100
AcDbEntity
  8
SUNPOU
100
AcDbMText
 10
440.3223982138252
 20
183.2288541259967
 30
0.0
 40
6.0
 41
0.0
 71
     5
 72
     1
  1
\A1;148
 11
6.123031769111886E-17
 21
1.0
 31
0.0
 73
     1
 44
1.0
  0
POINT
  5
2733
330
26C5
100
AcDbEntity
  8
DEFPOINTS
 62
     0
100
AcDbPoint
 10
494.0445548835787
 20
257.2288541259967
 30
0.0
  0
POINT
  5
2734
330
26C5
100
AcDbEntity
  8
DEFPOINTS
 62
     0
100
AcDbPoint
 10
542.1167408986921
 20
109.2288541259965
 30
0.0
  0
POINT
  5
2735
330
26C5
100
AcDbEntity
  8
DEFPOINTS
 62
     0
100
AcDbPoint
 10
445.3223982138252
 20
109.2288541259965
 30
0.0
  0
ENDBLK
  5
26D0
330
26C5
100
AcDbEntity
  8
0
100
AcDbBlockEnd
  0
BLOCK
  5
26DB
330
26D1
100
AcDbEntity
  8
0
100
AcDbBlockBegin
  2
*D16
 70
     1
 71
     0
 10
0.0
 20
0.0
 30
0.0
  3
*D16
  1

  0
LINE
  5
2736
330
26D1
100
AcDbEntity
  8
SUNPOU
100
AcDbLine
 10
527.6852432868984
 20
152.9288541259965
 30
0.0
 11
459.2193091371701
 21
152.9288541259965
 31
0.0
  0
LINE
  5
2737
330
26D1
100
AcDbEntity
  8
SUNPOU
100
AcDbLine
 10
488.0445548835787
 20
257.2288541259967
 30
0.0
 11
459.2193091371701
 21
257.2288541259967
 31
0.0
  0
LINE
  5
2738
330
26D1
100
AcDbEntity
  8
SUNPOU
100
AcDbLine
 10
462.2193091371701
 20
159.9288541259965
 30
0.0
 11
462.2193091371701
 21
250.2288541259967
 31
0.0
  0
INSERT
  5
2739
330
26D1
100
AcDbEntity
  8
SUNPOU
100
AcDbBlockReference
  2
_OPEN
 10
462.2193091371701
 20
152.9288541259965
 30
0.0
 41
7.0
 42
7.0
 43
7.0
 50
270.0
  0
INSERT
  5
273A
330
26D1
100
AcDbEntity
  8
SUNPOU
100
AcDbBlockReference
  2
_OPEN
 10
462.2193091371701
 20
257.2288541259967
 30
0.0
 41
7.0
 42
7.0
 43
7.0
 50
90.0
  0
MTEXT
  5
273B
330
26D1
100
AcDbEntity
  8
SUNPOU
100
AcDbMText
 10
457.21930913717
 20
205.0788541259967
 30
0.0
 40
6.0
 41
0.0
 71
     5
 72
     1
  1
\A1;104
 11
6.123031769111886E-17
 21
1.0
 31
0.0
 73
     1
 44
1.0
  0
POINT
  5
273C
330
26D1
100
AcDbEntity
  8
DEFPOINTS
 62
     0
100
AcDbPoint
 10
533.6852432868984
 20
152.9288541259965
 30
0.0
  0
POINT
  5
273D
330
26D1
100
AcDbEntity
  8
DEFPOINTS
 62
     0
100
AcDbPoint
 10
494.0445548835787
 20
257.2288541259967
 30
0.0
  0
POINT
  5
273E
330
26D1
100
AcDbEntity
  8
DEFPOINTS
 62
     0
100
AcDbPoint
 10
462.2193091371701
 20
257.2288541259967
 30
0.0
  0
ENDBLK
  5
26DC
330
26D1
100
AcDbEntity
  8
0
100
AcDbBlockEnd
  0
BLOCK
  5
26E7
330
26DD
100
AcDbEntity
  8
0
100
AcDbBlockBegin
  2
*D17
 70
     1
 71
     0
 10
0.0
 20
0.0
 30
0.0
  3
*D17
  1

  0
LINE
  5
273F
330
26DD
100
AcDbEntity
  8
SUNPOU
100
AcDbLine
 10
623.5546421789923
 20
172.9288541259966
 30
0.0
 11
653.8323622764647
 21
172.9288541259966
 31
0.0
  0
LINE
  5
2740
330
26DD
100
AcDbEntity
  8
SUNPOU
100
AcDbLine
 10
636.2276827979924
 20
237.4288541259967
 30
0.0
 11
653.8323622764647
 21
237.4288541259967
 31
0.0
  0
LINE
  5
2741
330
26DD
100
AcDbEntity
  8
SUNPOU
100
AcDbLine
 10
650.8323622764647
 20
179.9288541259966
 30
0.0
 11
650.8323622764647
 21
230.4288541259967
 31
0.0
  0
INSERT
  5
2742
330
26DD
100
AcDbEntity
  8
SUNPOU
100
AcDbBlockReference
  2
_OPEN
 10
650.8323622764647
 20
172.9288541259966
 30
0.0
 41
7.0
 42
7.0
 43
7.0
 50
270.0
  0
INSERT
  5
2743
330
26DD
100
AcDbEntity
  8
SUNPOU
100
AcDbBlockReference
  2
_OPEN
 10
650.8323622764647
 20
237.4288541259967
 30
0.0
 41
7.0
 42
7.0
 43
7.0
 50
90.0
  0
MTEXT
  5
2744
330
26DD
100
AcDbEntity
  8
SUNPOU
100
AcDbMText
 10
645.8323622764647
 20
205.1788541259968
 30
0.0
 40
6.0
 41
0.0
 71
     5
 72
     1
  1
\A1;65
 11
6.123031769111886E-17
 21
1.0
 31
0.0
 73
     1
 44
1.0
  0
POINT
  5
2745
330
26DD
100
AcDbEntity
  8
DEFPOINTS
 62
     0
100
AcDbPoint
 10
617.5546421789923
 20
172.9288541259966
 30
0.0
  0
POINT
  5
2746
330
26DD
100
AcDbEntity
  8
DEFPOINTS
 62
     0
100
AcDbPoint
 10
630.2276827979924
 20
237.4288541259967
 30
0.0
  0
POINT
  5
2747
330
26DD
100
AcDbEntity
  8
DEFPOINTS
 62
     0
100
AcDbPoint
 10
650.8323622764647
 20
237.4288541259967
 30
0.0
  0
ENDBLK
  5
26E8
330
26DD
100
AcDbEntity
  8
0
100
AcDbBlockEnd
  0
BLOCK
  5
26F5
330
26E9
100
AcDbEntity
  8
0
100
AcDbBlockBegin
  2
*D18
 70
     1
 71
     0
 10
0.0
 20
0.0
 30
0.0
  3
*D18
  1

  0
LINE
  5
2748
330
26E9
100
AcDbEntity
  8
SUNPOU
100
AcDbLine
 10
577.3167408986922
 20
155.2371471093452
 30
0.0
 11
577.3167408986922
 21
212.1807484295171
 31
0.0
  0
LINE
  5
2749
330
26E9
100
AcDbEntity
  8
SUNPOU
100
AcDbLine
 10
574.715883692458
 20
193.7974384720614
 30
0.0
 11
574.715883692458
 21
212.1807484295171
 31
0.0
  0
LINE
  5
274A
330
26E9
100
AcDbEntity
  8
SUNPOU
100
AcDbLine
 10
584.3167408986922
 20
209.1807484295171
 30
0.0
 11
591.3167408986922
 21
209.1807484295171
 31
0.0
  0
LINE
  5
274B
330
26E9
100
AcDbEntity
  8
SUNPOU
100
AcDbLine
 10
567.715883692458
 20
209.1807484295171
 30
0.0
 11
552.715883692458
 21
209.1807484295171
 31
0.0
  0
LINE
  5
274C
330
26E9
100
AcDbEntity
  8
SUNPOU
100
AcDbLine
 10
577.3167408986922
 20
209.1807484295171
 30
0.0
 11
574.715883692458
 21
209.1807484295171
 31
0.0
  0
INSERT
  5
274D
330
26E9
100
AcDbEntity
  8
SUNPOU
100
AcDbBlockReference
  2
_OPEN
 10
577.3167408986922
 20
209.1807484295171
 30
0.0
 41
7.0
 42
7.0
 43
7.0
 50
180.0
  0
INSERT
  5
274E
330
26E9
100
AcDbEntity
  8
SUNPOU
100
AcDbBlockReference
  2
_OPEN
 10
574.715883692458
 20
209.1807484295171
 30
0.0
 41
7.0
 42
7.0
 43
7.0
  0
MTEXT
  5
274F
330
26E9
100
AcDbEntity
  8
SUNPOU
100
AcDbMText
 10
556.715883692458
 20
214.1807484295171
 30
0.0
 40
6.0
 41
0.0
 71
     5
 72
     1
  1
\A1;3
 73
     1
 44
1.0
  0
POINT
  5
2750
330
26E9
100
AcDbEntity
  8
DEFPOINTS
 62
     0
100
AcDbPoint
 10
577.3167408986922
 20
149.2371471093452
 30
0.0
  0
POINT
  5
2751
330
26E9
100
AcDbEntity
  8
DEFPOINTS
 62
     0
100
AcDbPoint
 10
574.715883692458
 20
187.7974384720614
 30
0.0
  0
POINT
  5
2752
330
26E9
100
AcDbEntity
  8
DEFPOINTS
 62
     0
100
AcDbPoint
 10
574.715883692458
 20
209.1807484295171
 30
0.0
  0
ENDBLK
  5
26F6
330
26E9
100
AcDbEntity
  8
0
100
AcDbBlockEnd
  0
BLOCK
  5
2777
330
276D
100
AcDbEntity
  8
0
100
AcDbBlockBegin
  2
*D19
 70
     1
 71
     0
 10
0.0
 20
0.0
 30
0.0
  3
*D19
  1

  0
LINE
  5
2782
330
276D
100
AcDbEntity
  8
SUNPOU
100
AcDbLine
 10
328.263191631873
 20
353.6241884519866
 30
0.0
 11
328.263191631873
 21
332.8002287200554
 31
0.0
  0
LINE
  5
2783
330
276D
100
AcDbEntity
  8
SUNPOU
100
AcDbLine
 10
265.7631916318731
 20
346.4987450448213
 30
0.0
 11
265.7631916318731
 21
332.8002287200554
 31
0.0
  0
LINE
  5
2784
330
276D
100
AcDbEntity
  8
SUNPOU
100
AcDbLine
 10
321.263191631873
 20
335.8002287200554
 30
0.0
 11
272.7631916318731
 21
335.8002287200554
 31
0.0
  0
INSERT
  5
2785
330
276D
100
AcDbEntity
  8
SUNPOU
100
AcDbBlockReference
  2
_OPEN
 10
328.263191631873
 20
335.8002287200554
 30
0.0
 41
7.0
 42
7.0
 43
7.0
  0
INSERT
  5
2786
330
276D
100
AcDbEntity
  8
SUNPOU
100
AcDbBlockReference
  2
_OPEN
 10
265.7631916318731
 20
335.8002287200554
 30
0.0
 41
7.0
 42
7.0
 43
7.0
 50
180.0
  0
MTEXT
  5
2787
330
276D
100
AcDbEntity
  8
SUNPOU
100
AcDbMText
 10
297.013191631873
 20
340.8002287200554
 30
0.0
 40
6.0
 41
0.0
 71
     5
 72
     1
  1
\A1;※62.5
 73
     1
 44
1.0
  0
POINT
  5
2788
330
276D
100
AcDbEntity
  8
DEFPOINTS
 62
     0
100
AcDbPoint
 10
328.263191631873
 20
359.6241884519866
 30
0.0
  0
POINT
  5
2789
330
276D
100
AcDbEntity
  8
DEFPOINTS
 62
     0
100
AcDbPoint
 10
265.7631916318731
 20
352.4987450448213
 30
0.0
  0
POINT
  5
278A
330
276D
100
AcDbEntity
  8
DEFPOINTS
 62
     0
100
AcDbPoint
 10
265.7631916318731
 20
335.8002287200554
 30
0.0
  0
ENDBLK
  5
2778
330
276D
100
AcDbEntity
  8
0
100
AcDbBlockEnd
  0
ENDSEC
  0
SECTION
  2
ENTITIES
  0
TEXT
  5
9DF
330
1A
100
AcDbEntity
  8
SUNPOU
100
AcDbText
 10
676.296058680618
 20
45.3789568130245
 30
0.0
 40
6.0
  1
※a　軒樋の差込寸法を示す
100
AcDbText
  0
TEXT
  5
9E0
330
1A
100
AcDbEntity
  8
SUNPOU
100
AcDbText
 10
676.296058680618
 20
36.49396567134897
 30
0.0
 40
6.0
  1
※b　角々エルボの差込寸法を示す
100
AcDbText
  0
TEXT
  5
EDF
330
1A
100
AcDbEntity
  8
SUNPOU
 62
     4
100
AcDbText
 10
544.754825136059
 20
405.4713357348927
 30
0.0
 40
6.0
  1
洋風じょうご用ストッパー２個入り
100
AcDbText
  0
LINE
  5
18CA
330
1A
100
AcDbEntity
  8
ZUWAKU
100
AcDbLine
 10
208.6466016834092
 20
15.19999965533645
 30
0.0
 11
447.4243643643326
 21
15.19999965533644
 31
0.0
  0
LINE
  5
18CB
330
1A
100
AcDbEntity
  8
ZUWAKU
100
AcDbLine
 10
208.6466016834092
 20
15.59999965533644
 30
0.0
 11
447.4243643643326
 21
15.59999965533645
 31
0.0
  0
LINE
  5
18CC
330
1A
100
AcDbEntity
  8
ZUWAKU
100
AcDbLine
 10
208.6466016834092
 20
15.39999965533644
 30
0.0
 11
447.4243643643326
 21
15.39999965533644
 31
0.0
  0
LINE
  5
18CD
330
1A
100
AcDbEntity
  8
ZUWAKU
100
AcDbLine
 10
0.0000003933412245
 20
30.79999965533642
 30
0.0
 11
797.4000003933411
 21
30.79999965533642
 31
0.0
  0
LINE
  5
18CE
330
1A
100
AcDbEntity
  8
ZUWAKU
100
AcDbLine
 10
0.0000003933412245
 20
30.59999965533642
 30
0.0
 11
797.4000003933411
 21
30.59999965533642
 31
0.0
  0
LINE
  5
18CF
330
1A
100
AcDbEntity
  8
ZUWAKU
100
AcDbLine
 10
0.0000003933412245
 20
30.39999965533642
 30
0.0
 11
797.4000003933411
 21
30.39999965533642
 31
0.0
  0
LINE
  5
18D0
330
1A
100
AcDbEntity
  8
ZUWAKU
100
AcDbLine
 10
0.0000003933412245
 20
30.19999965533641
 30
0.0
 11
797.4000003933411
 21
30.19999965533641
 31
0.0
  0
LINE
  5
18D1
330
1A
100
AcDbEntity
  8
ZUWAKU
100
AcDbLine
 10
0.0000003933412245
 20
29.99999965533641
 30
0.0
 11
797.4000003933411
 21
29.99999965533641
 31
0.0
  0
LWPOLYLINE
  5
18D2
330
1A
100
AcDbEntity
  8
ZUWAKU
100
AcDbPolyline
 90
        4
 70
     1
 43
0.0
 10
0.2000003933411563
 20
551.3999996553365
 10
0.2000003933411563
 20
0.1999996553364554
 10
797.4000003933411
 20
0.1999996553364785
 10
797.4000003933413
 20
551.3999996553365
  0
LWPOLYLINE
  5
18D3
330
1A
100
AcDbEntity
  8
ZUWAKU
100
AcDbPolyline
 90
        4
 70
     1
 43
0.0
 10
0.6000003933411335
 20
550.9999996553365
 10
0.6000003933411335
 20
0.5999996553364326
 10
797.0000003933415
 20
0.5999996553364788
 10
797.0000003933412
 20
550.9999996553365
  0
LWPOLYLINE
  5
18D4
330
1A
100
AcDbEntity
  8
ZUWAKU
100
AcDbPolyline
 90
        4
 70
     1
 43
0.0
 10
0.0000003933412245
 20
551.5999996553364
 10
0.0000003933412245
 20
-0.0000003446635901
 10
797.6000003933414
 20
-0.0000003446635226
 10
797.6000003933414
 20
551.5999996553366
  0
LWPOLYLINE
  5
18D5
330
1A
100
AcDbEntity
  8
ZUWAKU
100
AcDbPolyline
 90
        4
 70
     1
 43
0.0
 10
0.4000003933412017
 20
551.1999996553365
 10
0.4000003933412017
 20
0.3999996553365008
 10
797.2000003933413
 20
0.3999996553364777
 10
797.2000003933413
 20
551.1999996553365
  0
LWPOLYLINE
  5
18D6
330
1A
100
AcDbEntity
  8
ZUWAKU
100
AcDbPolyline
 90
        4
 70
     1
 43
0.0
 10
0.800000393341179
 20
550.7999996553365
 10
0.800000393341179
 20
0.7999996553364781
 10
796.8000003933412
 20
0.7999996553364781
 10
796.8000003933412
 20
550.7999996553365
  0
TEXT
  5
18D7
330
1A
100
AcDbEntity
  8
moji
100
AcDbText
 10
92.95778998151036
 20
12.74117778561117
 30
0.0
 40
6.0
  1
アーバントップΣ９０
 41
0.9
  7
ｽﾀｲﾙ1
100
AcDbText
  0
HATCH
  5
18D8
330
1A
100
AcDbEntity
  8
ZUWAKU
100
AcDbHatch
 10
0.0
 20
0.0
 30
0.0
210
0.0
220
0.0
230
1.0
  2
ANSI37
 70
     0
 71
     0
 91
        8
 92
        7
 72
     1
 73
     1
 93
       24
 10
14.50226305446108
 20
17.64484813631999
 42
-0.1989123673796348
 10
14.09221254812235
 20
18.63479762998104
 42
0.0
 10
14.09221254812235
 20
19.92499965533642
 42
-0.4142135623730912
 10
14.61721254812233
 20
20.44999965533641
 42
0.0
 10
17.59221254812223
 20
20.44999965533641
 42
0.4142135623731546
 10
18.11721254812233
 20
20.9749996553364
 42
0.0
 10
18.11721254812233
 20
22.72499965533642
 42
0.4142135623731586
 10
17.59221254812223
 20
23.24999965533642
 42
0.0
 10
14.09221254812235
 20
23.24999965533642
 42
0.4142135623730928
 10
11.29221254812239
 20
20.44999965533644
 42
0.0
 10
11.29221254812239
 20
18.63479762998117
 42
0.1989123673796619
 10
12.52236406713882
 20
15.66494914899757
 42
0.0
 10
15.4321620417835
 20
12.75515117435291
 42
-0.1989123673796613
 10
15.84221254812235
 20
11.76520168069172
 42
0.0
 10
15.84221254812235
 20
10.4749996553364
 42
-0.4142135623730911
 10
15.31721254812237
 20
9.949999655336413
 42
0.0
 10
12.34221254812246
 20
9.949999655336413
 42
0.4142135623731526
 10
11.81721254812237
 20
9.424999655336425
 42
0.0
 10
11.81721254812237
 20
7.674999655336404
 42
0.4142135623731526
 10
12.34221254812246
 20
7.149999655336416
 42
0.0
 10
15.84221254812235
 20
7.149999655336416
 42
0.4142135623731044
 10
18.64221254812242
 20
9.949999655336391
 42
0.0
 10
18.64221254812242
 20
11.76520168069166
 42
0.1989123673796604
 10
17.41206102910587
 20
14.7350501616752
 42
0.0
 97
        0
 92
        7
 72
     1
 73
     1
 93
       16
 10
23.54221254812239
 20
19.04999965533642
 42
-0.4142135623730935
 10
24.94221254812237
 20
20.44999965533641
 42
0.0
 10
26.86721254812233
 20
20.44999965533641
 42
0.4142135623731546
 10
27.39221254812242
 20
20.9749996553364
 42
0.0
 10
27.39221254812242
 20
22.72499965533642
 42
0.4142135623730952
 10
26.86721254812244
 20
23.24999965533642
 42
0.0
 10
24.94221254812226
 20
23.24999965533637
 42
0.4142135623730892
 10
20.74221254812233
 20
19.04999965533635
 42
0.0
 10
20.74221254812233
 20
11.34999965533644
 42
0.4142135623730969
 10
24.94221254812237
 20
7.149999655336416
 42
0.0
 10
26.86721254812233
 20
7.149999655336416
 42
0.4142135623731526
 10
27.39221254812242
 20
7.674999655336404
 42
0.0
 10
27.39221254812242
 20
9.424999655336425
 42
0.414213562373089
 10
26.86721254812244
 20
9.949999655336413
 42
0.0
 10
24.94221254812237
 20
9.949999655336413
 42
-0.4142135623730928
 10
23.54221254812239
 20
11.3499996553364
 42
0.0
 97
        0
 92
        7
 72
     1
 73
     1
 93
        2
 10
24.24221254812233
 20
15.19999965533641
 42
1.0
 10
27.74221254812233
 20
15.19999965533641
 42
1.0
 97
        0
 92
        7
 72
     1
 73
     1
 93
       26
 10
37.31485903030034
 20
19.20504684889984
 42
0.0
 10
38.37649866343816
 20
22.56690568716943
 42
0.5069206636600134
 10
37.8758677642428
 20
23.24999965533642
 42
0.0
 10
36.17697838463357
 20
23.24999965533642
 42
0.3272098845218764
 10
35.67634748543821
 20
22.88309362350339
 42
0.0
 10
33.80807761080644
 20
16.96690568716949
 42
-0.3272098845219541
 10
33.30744671161096
 20
16.59999965533641
 42
0.0
 10
33.16721254812251
 20
16.59999965533641
 42
-0.4142135623731526
 10
32.64221254812242
 20
17.1249996553364
 42
0.0
 10
32.64221254812242
 20
22.72499965533642
 42
0.4142135623730952
 10
32.11721254812244
 20
23.24999965533642
 42
0.0
 10
30.36721254812233
 20
23.24999965533642
 42
0.4142135623730872
 10
29.84221254812235
 20
22.72499965533643
 42
0.0
 10
29.84221254812235
 20
7.674999655336404
 42
0.414213562373089
 10
30.36721254812233
 20
7.149999655336416
 42
0.0
 10
32.11721254812233
 20
7.149999655336416
 42
0.4142135623731526
 10
32.64221254812242
 20
7.674999655336404
 42
0.0
 10
32.64221254812242
 20
13.27499965533643
 42
-0.4142135623731526
 10
33.16721254812251
 20
13.79999965533641
 42
0.0
 10
33.30744671161108
 20
13.79999965533641
 42
-0.3272098845218915
 10
33.80807761080644
 20
13.43309362350334
 42
0.0
 10
35.67634748543821
 20
7.516905687169487
 42
0.3272098845218902
 10
36.17697838463357
 20
7.149999655336416
 42
0.0
 10
37.8758677642428
 20
7.149999655336416
 42
0.5069206636600334
 10
38.37649866343816
 20
7.833093623503423
 42
0.0
 10
36.0501072849645
 20
15.19999965533655
 42
0.0
 97
        0
 92
        7
 72
     1
 73
     1
 93
        8
 10
43.49221254812233
 20
22.72499965533643
 42
0.4142135623731546
 10
42.96721254812223
 20
23.24999965533642
 42
0.0
 10
41.21721254812246
 20
23.24999965533642
 42
0.4142135623731506
 10
40.69221254812237
 20
22.72499965533643
 42
0.0
 10
40.69221254812237
 20
7.674999655336404
 42
0.4142135623731526
 10
41.21721254812246
 20
7.149999655336416
 42
0.0
 10
42.96721254812223
 20
7.149999655336416
 42
0.4142135623731526
 10
43.49221254812233
 20
7.674999655336404
 42
0.0
 97
        0
 92
        7
 72
     1
 73
     1
 93
       24
 10
48.39221254812242
 20
19.92499965533642
 42
-0.4142135623731547
 10
48.91721254812251
 20
20.44999965533641
 42
0.0
 10
51.89221254812242
 20
20.44999965533641
 42
0.4142135623730911
 10
52.41721254812239
 20
20.9749996553364
 42
0.0
 10
52.41721254812239
 20
22.72499965533642
 42
0.4142135623730952
 10
51.89221254812242
 20
23.24999965533642
 42
0.0
 10
48.39221254812242
 20
23.24999965533642
 42
0.4142135623731048
 10
45.59221254812235
 20
20.44999965533644
 42
0.0
 10
45.59221254812235
 20
18.63479762998117
 42
0.1989123673796613
 10
46.82236406713889
 20
15.66494914899762
 42
0.0
 10
49.73216204178357
 20
12.75515117435295
 42
-0.1989123673796402
 10
50.14221254812242
 20
11.76520168069188
 42
0.0
 10
50.14221254812242
 20
10.4749996553364
 42
-0.4142135623730911
 10
49.61721254812244
 20
9.949999655336413
 42
0.0
 10
46.64221254812242
 20
9.949999655336413
 42
0.4142135623731526
 10
46.11721254812233
 20
9.424999655336425
 42
0.0
 10
46.11721254812233
 20
7.674999655336404
 42
0.414213562373089
 10
46.6422125481223
 20
7.149999655336416
 42
0.0
 10
50.14221254812242
 20
7.149999655336416
 42
0.4142135623730925
 10
52.94221254812237
 20
9.949999655336391
 42
0.0
 10
52.94221254812237
 20
11.76520168069166
 42
0.1989123673796675
 10
51.71206102910583
 20
14.73505016167532
 42
0.0
 10
48.80226305446126
 20
17.64484813631983
 42
-0.1989123673796653
 10
48.39221254812242
 20
18.634797629981
 42
0.0
 97
        0
 92
        7
 72
     1
 73
     1
 93
       16
 10
57.84221254812235
 20
22.7249996553364
 42
0.414213562373103
 10
57.31721254812237
 20
23.24999965533642
 42
0.0
 10
55.56721254812237
 20
23.24999965533642
 42
0.4142135623730872
 10
55.04221254812239
 20
22.72499965533643
 42
0.0
 10
55.04221254812239
 20
9.949999655336391
 42
0.4142135623730925
 10
57.84221254812235
 20
7.149999655336416
 42
0.0
 10
61.34221254812235
 20
7.149999655336416
 42
0.4142135623731044
 10
64.14221254812242
 20
9.949999655336391
 42
0.0
 10
64.14221254812242
 20
22.72499965533642
 42
0.4142135623730952
 10
63.61721254812244
 20
23.24999965533642
 42
0.0
 10
61.86721254812233
 20
23.24999965533642
 42
0.4142135623730872
 10
61.34221254812235
 20
22.72499965533643
 42
0.0
 10
61.34221254812235
 20
10.99999965533639
 42
-0.414213562373088
 10
60.29221254812239
 20
9.949999655336413
 42
0.0
 10
58.89221254812242
 20
9.949999655336413
 42
-0.4142135623731197
 10
57.84221254812235
 20
10.99999965533639
 42
0.0
 97
        0
 92
        7
 72
     1
 73
     1
 93
        8
 10
69.04221254812239
 20
22.72499965533643
 42
0.4142135623730872
 10
68.51721254812242
 20
23.24999965533642
 42
0.0
 10
66.76721254812242
 20
23.24999965533642
 42
0.4142135623731506
 10
66.24221254812233
 20
22.72499965533643
 42
0.0
 10
66.24221254812233
 20
7.674999655336404
 42
0.414213562373089
 10
66.7672125481223
 20
7.149999655336416
 42
0.0
 10
68.51721254812242
 20
7.149999655336416
 42
0.414213562373089
 10
69.04221254812239
 20
7.674999655336404
 42
0.0
 97
        0
 75
     0
 76
     1
 52
0.0
 41
0.2
 77
     0
 78
     2
 53
45.0
 43
-900.9423039413377
 44
-13.20000034466352
 45
-0.4490128060534576
 46
0.4490128060534577
 79
     0
 53
135.0
 43
-900.9423039413377
 44
-13.20000034466352
 45
-0.4490128060534577
 46
-0.4490128060534576
 79
     0
 47
0.057451373970553
 98
        8
 10
16.07985535636453
 20
15.16717330122197
 10
22.40451539978039
 20
18.84406183778742
 10
25.16436827900088
 20
15.51188130140713
 10
30.91406037497836
 20
16.20129730177791
 10
41.83847241229796
 20
16.66090956931953
 10
46.89820128847077
 20
19.41857597174362
 10
56.55768636574157
 20
18.72915757043143
 10
67.82708001296396
 20
19.18876983797304
  0
LINE
  5
18D9
330
1A
100
AcDbEntity
  8
ZUWAKU
100
AcDbLine
 10
24.94221254812237
 20
23.24999965533637
 30
0.0
 11
26.86721254812233
 21
23.24999965533642
 31
0.0
  0
LINE
  5
18DA
330
1A
100
AcDbEntity
  8
ZUWAKU
100
AcDbLine
 10
26.86721254812233
 20
20.44999965533641
 30
0.0
 11
24.94221254812237
 21
20.44999965533641
 31
0.0
  0
LINE
  5
18DB
330
1A
100
AcDbEntity
  8
ZUWAKU
100
AcDbLine
 10
24.94221254812237
 20
9.949999655336413
 30
0.0
 11
26.86721254812233
 21
9.949999655336413
 31
0.0
  0
LINE
  5
18DC
330
1A
100
AcDbEntity
  8
ZUWAKU
100
AcDbLine
 10
26.86721254812233
 20
7.149999655336416
 30
0.0
 11
24.94221254812237
 21
7.149999655336416
 31
0.0
  0
CIRCLE
  5
18DD
330
1A
100
AcDbEntity
  8
ZUWAKU
100
AcDbCircle
 10
25.99221254812233
 20
15.19999965533641
 30
0.0
 40
1.75
  0
ARC
  5
18DE
330
1A
100
AcDbEntity
  8
ZUWAKU
100
AcDbCircle
 10
15.49221254812233
 20
18.63479762998112
 30
0.0
 40
1.4
100
AcDbArc
 50
180.0000000000016
 51
224.9999999999988
  0
LINE
  5
18DF
330
1A
100
AcDbEntity
  8
ZUWAKU
100
AcDbLine
 10
23.54221254812239
 20
19.04999965533641
 30
0.0
 11
23.54221254812239
 21
11.34999965533642
 31
0.0
  0
LINE
  5
18E0
330
1A
100
AcDbEntity
  8
ZUWAKU
100
AcDbLine
 10
20.74221254812233
 20
11.34999965533642
 30
0.0
 11
20.74221254812233
 21
19.04999965533637
 31
0.0
  0
ARC
  5
18E1
330
1A
100
AcDbEntity
  8
ZUWAKU
100
AcDbCircle
 10
15.49221254812233
 20
18.63479762998112
 30
0.0
 40
4.199999999999999
100
AcDbArc
 50
180.0
 51
225.0
  0
ARC
  5
18E2
330
1A
100
AcDbEntity
  8
ZUWAKU
100
AcDbCircle
 10
15.84221254812235
 20
9.949999655336413
 30
0.0
 40
2.8
100
AcDbArc
 50
270.0
 51
0.0
  0
ARC
  5
18E3
330
1A
100
AcDbEntity
  8
ZUWAKU
100
AcDbCircle
 10
24.94221254812237
 20
11.34999965533642
 30
0.0
 40
4.199999999999999
100
AcDbArc
 50
180.0
 51
270.0
  0
ARC
  5
18E4
330
1A
100
AcDbEntity
  8
ZUWAKU
100
AcDbCircle
 10
14.44221254812237
 20
11.76520168069172
 30
0.0
 40
4.199999999999999
100
AcDbArc
 50
0.0
 51
45.0
  0
LINE
  5
18E5
330
1A
100
AcDbEntity
  8
ZUWAKU
100
AcDbLine
 10
17.41206102910587
 20
14.73505016167524
 30
0.0
 11
14.5022630544612
 21
17.64484813631992
 31
0.0
  0
LINE
  5
18E6
330
1A
100
AcDbEntity
  8
ZUWAKU
100
AcDbLine
 10
15.84221254812235
 20
10.47499965533642
 30
0.0
 11
15.84221254812235
 21
11.76520168069176
 31
0.0
  0
ARC
  5
18E7
330
1A
100
AcDbEntity
  8
ZUWAKU
100
AcDbCircle
 10
15.31721254812237
 20
10.47499965533642
 30
0.0
 40
0.5249999999999999
100
AcDbArc
 50
270.0
 51
0.0
  0
ARC
  5
18E8
330
1A
100
AcDbEntity
  8
ZUWAKU
100
AcDbCircle
 10
14.44221254812237
 20
11.76520168069176
 30
0.0
 40
1.4
100
AcDbArc
 50
0.0
 51
45.0
  0
LINE
  5
18E9
330
1A
100
AcDbEntity
  8
ZUWAKU
100
AcDbLine
 10
11.81721254812237
 20
7.674999655336414
 30
0.0
 11
11.81721254812237
 21
9.424999655336414
 31
0.0
  0
ARC
  5
18EA
330
1A
100
AcDbEntity
  8
ZUWAKU
100
AcDbCircle
 10
12.34221254812235
 20
7.674999655336414
 30
0.0
 40
0.5249999999999999
100
AcDbArc
 50
180.0
 51
270.0
  0
ARC
  5
18EB
330
1A
100
AcDbEntity
  8
ZUWAKU
100
AcDbCircle
 10
12.34221254812235
 20
9.424999655336414
 30
0.0
 40
0.5249999999999999
100
AcDbArc
 50
90.0
 51
180.0
  0
LINE
  5
18EC
330
1A
100
AcDbEntity
  8
ZUWAKU
100
AcDbLine
 10
12.34221254812235
 20
7.149999655336416
 30
0.0
 11
15.84221254812235
 21
7.149999655336416
 31
0.0
  0
LINE
  5
18ED
330
1A
100
AcDbEntity
  8
ZUWAKU
100
AcDbLine
 10
12.34221254812235
 20
9.949999655336413
 30
0.0
 11
15.31721254812237
 21
9.949999655336413
 31
0.0
  0
LINE
  5
18EE
330
1A
100
AcDbEntity
  8
ZUWAKU
100
AcDbLine
 10
12.52236406713882
 20
15.66494914899759
 30
0.0
 11
15.4321620417835
 21
12.75515117435293
 31
0.0
  0
LINE
  5
18EF
330
1A
100
AcDbEntity
  8
ZUWAKU
100
AcDbLine
 10
18.64221254812242
 20
9.949999655336413
 30
0.0
 11
18.64221254812242
 21
11.76520168069176
 31
0.0
  0
ARC
  5
18F0
330
1A
100
AcDbEntity
  8
ZUWAKU
100
AcDbCircle
 10
24.94221254812237
 20
11.34999965533642
 30
0.0
 40
1.4
100
AcDbArc
 50
180.0
 51
270.0
  0
ARC
  5
18F1
330
1A
100
AcDbEntity
  8
ZUWAKU
100
AcDbCircle
 10
17.59221254812235
 20
22.72499965533641
 30
0.0
 40
0.5249999999999999
100
AcDbArc
 50
0.0
 51
90.0
  0
ARC
  5
18F2
330
1A
100
AcDbEntity
  8
ZUWAKU
100
AcDbCircle
 10
17.59221254812235
 20
20.97499965533641
 30
0.0
 40
0.5249999999999999
100
AcDbArc
 50
270.0
 51
0.0
  0
LINE
  5
18F3
330
1A
100
AcDbEntity
  8
ZUWAKU
100
AcDbLine
 10
14.09221254812235
 20
23.24999965533642
 30
0.0
 11
17.59221254812235
 21
23.24999965533642
 31
0.0
  0
ARC
  5
18F4
330
1A
100
AcDbEntity
  8
ZUWAKU
100
AcDbCircle
 10
14.61721254812233
 20
19.92499965533641
 30
0.0
 40
0.5249999999999999
100
AcDbArc
 50
90.0
 51
180.0
  0
LINE
  5
18F5
330
1A
100
AcDbEntity
  8
ZUWAKU
100
AcDbLine
 10
14.09221254812235
 20
19.92499965533641
 30
0.0
 11
14.09221254812235
 21
18.63479762998107
 31
0.0
  0
LINE
  5
18F6
330
1A
100
AcDbEntity
  8
ZUWAKU
100
AcDbLine
 10
17.59221254812235
 20
20.44999965533641
 30
0.0
 11
14.61721254812233
 21
20.44999965533641
 31
0.0
  0
LINE
  5
18F7
330
1A
100
AcDbEntity
  8
ZUWAKU
100
AcDbLine
 10
11.29221254812239
 20
20.44999965533641
 30
0.0
 11
11.29221254812239
 21
18.63479762998107
 31
0.0
  0
ARC
  5
18F8
330
1A
100
AcDbEntity
  8
ZUWAKU
100
AcDbCircle
 10
14.09221254812235
 20
20.44999965533641
 30
0.0
 40
2.8
100
AcDbArc
 50
90.0
 51
180.0
  0
LINE
  5
18F9
330
1A
100
AcDbEntity
  8
ZUWAKU
100
AcDbLine
 10
18.11721254812233
 20
22.72499965533641
 30
0.0
 11
18.11721254812233
 21
20.97499965533641
 31
0.0
  0
ARC
  5
18FA
330
1A
100
AcDbEntity
  8
ZUWAKU
100
AcDbCircle
 10
24.94221254812237
 20
19.04999965533641
 30
0.0
 40
1.4
100
AcDbArc
 50
90.0
 51
180.0
  0
ARC
  5
18FB
330
1A
100
AcDbEntity
  8
ZUWAKU
100
AcDbCircle
 10
24.94221254812237
 20
19.04999965533637
 30
0.0
 40
4.199999999999999
100
AcDbArc
 50
90.0
 51
180.0
  0
LINE
  5
18FC
330
1A
100
AcDbEntity
  8
ZUWAKU
100
AcDbLine
 10
79.32662994132943
 20
29.99999965533641
 30
0.0
 11
79.32662994132966
 21
0.7999996553364781
 31
0.0
  0
LINE
  5
18FD
330
1A
100
AcDbEntity
  8
ZUWAKU
100
AcDbLine
 10
79.52662994132948
 20
29.99999965533641
 30
0.0
 11
79.5266299413297
 21
0.7999996553364781
 31
0.0
  0
LINE
  5
18FE
330
1A
100
AcDbEntity
  8
ZUWAKU
100
AcDbLine
 10
79.12662994132961
 20
29.99999965533641
 30
0.0
 11
79.12662994132961
 21
0.7999996553364781
 31
0.0
  0
LINE
  5
18FF
330
1A
100
AcDbEntity
  8
ZUWAKU
100
AcDbLine
 10
64.14221254812242
 20
9.949999655336413
 30
0.0
 11
64.14221254812242
 21
22.72499965533641
 31
0.0
  0
LINE
  5
1900
330
1A
100
AcDbEntity
  8
ZUWAKU
100
AcDbLine
 10
61.34221254812235
 20
22.72499965533641
 30
0.0
 11
61.34221254812235
 21
10.99999965533641
 31
0.0
  0
LINE
  5
1901
330
1A
100
AcDbEntity
  8
ZUWAKU
100
AcDbLine
 10
69.04221254812239
 20
7.674999655336414
 30
0.0
 11
69.04221254812239
 21
22.72499965533641
 31
0.0
  0
LINE
  5
1902
330
1A
100
AcDbEntity
  8
ZUWAKU
100
AcDbLine
 10
66.24221254812233
 20
22.72499965533641
 30
0.0
 11
66.24221254812233
 21
7.674999655336414
 31
0.0
  0
ARC
  5
1903
330
1A
100
AcDbEntity
  8
ZUWAKU
100
AcDbCircle
 10
49.79221254812239
 20
18.63479762998112
 30
0.0
 40
1.4
100
AcDbArc
 50
180.0000000000016
 51
224.9999999999988
  0
ARC
  5
1904
330
1A
100
AcDbEntity
  8
ZUWAKU
100
AcDbCircle
 10
49.79221254812239
 20
18.63479762998112
 30
0.0
 40
4.199999999999999
100
AcDbArc
 50
180.0
 51
225.0
  0
LINE
  5
1905
330
1A
100
AcDbEntity
  8
ZUWAKU
100
AcDbLine
 10
37.31485903030034
 20
19.20504684889984
 30
0.0
 11
36.0501072849645
 21
15.19999965533643
 31
0.0
  0
LINE
  5
1906
330
1A
100
AcDbEntity
  8
ZUWAKU
100
AcDbLine
 10
40.69221254812237
 20
22.72499965533641
 30
0.0
 11
40.69221254812237
 21
7.674999655336414
 31
0.0
  0
LINE
  5
1907
330
1A
100
AcDbEntity
  8
ZUWAKU
100
AcDbLine
 10
43.49221254812233
 20
7.674999655336414
 30
0.0
 11
43.49221254812233
 21
22.72499965533641
 31
0.0
  0
LINE
  5
1908
330
1A
100
AcDbEntity
  8
ZUWAKU
100
AcDbLine
 10
55.04221254812239
 20
22.72499965533641
 30
0.0
 11
55.04221254812239
 21
9.949999655336413
 31
0.0
  0
LINE
  5
1909
330
1A
100
AcDbEntity
  8
ZUWAKU
100
AcDbLine
 10
57.84221254812235
 20
10.99999965533641
 30
0.0
 11
57.84221254812235
 21
22.72499965533641
 31
0.0
  0
LINE
  5
190A
330
1A
100
AcDbEntity
  8
ZUWAKU
100
AcDbLine
 10
32.64221254812242
 20
17.12499965533642
 30
0.0
 11
32.64221254812242
 21
22.72499965533641
 31
0.0
  0
LINE
  5
190B
330
1A
100
AcDbEntity
  8
ZUWAKU
100
AcDbLine
 10
29.84221254812235
 20
22.72499965533641
 30
0.0
 11
29.84221254812235
 21
7.674999655336414
 31
0.0
  0
LINE
  5
190C
330
1A
100
AcDbEntity
  8
ZUWAKU
100
AcDbLine
 10
35.67634748543821
 20
22.88309362350339
 30
0.0
 11
33.80807761080644
 21
16.96690568716944
 31
0.0
  0
LINE
  5
190D
330
1A
100
AcDbEntity
  8
ZUWAKU
100
AcDbLine
 10
60.29221254812239
 20
9.949999655336413
 30
0.0
 11
58.89221254812242
 21
9.949999655336413
 31
0.0
  0
LINE
  5
190E
330
1A
100
AcDbEntity
  8
ZUWAKU
100
AcDbLine
 10
57.84221254812235
 20
7.149999655336416
 30
0.0
 11
61.34221254812235
 21
7.149999655336416
 31
0.0
  0
LINE
  5
190F
330
1A
100
AcDbEntity
  8
ZUWAKU
100
AcDbLine
 10
41.21721254812235
 20
7.149999655336416
 30
0.0
 11
42.96721254812235
 21
7.149999655336416
 31
0.0
  0
LINE
  5
1910
330
1A
100
AcDbEntity
  8
ZUWAKU
100
AcDbLine
 10
35.67634748543821
 20
7.516905687169441
 30
0.0
 11
33.80807761080644
 21
13.43309362350338
 31
0.0
  0
ARC
  5
1911
330
1A
100
AcDbEntity
  8
ZUWAKU
100
AcDbCircle
 10
33.30744671161108
 20
17.12499965533642
 30
0.0
 40
0.5249999999999999
100
AcDbArc
 50
270.0
 51
342.474431626277
  0
LINE
  5
1912
330
1A
100
AcDbEntity
  8
ZUWAKU
100
AcDbLine
 10
33.30744671161108
 20
16.59999965533641
 30
0.0
 11
33.16721254812239
 21
16.59999965533641
 31
0.0
  0
LINE
  5
1913
330
1A
100
AcDbEntity
  8
ZUWAKU
100
AcDbLine
 10
33.16721254812239
 20
13.79999965533641
 30
0.0
 11
33.30744671161108
 21
13.79999965533641
 31
0.0
  0
ARC
  5
1914
330
1A
100
AcDbEntity
  8
ZUWAKU
100
AcDbCircle
 10
33.16721254812239
 20
17.12499965533642
 30
0.0
 40
0.5249999999999999
100
AcDbArc
 50
180.0
 51
270.0
  0
LINE
  5
1915
330
1A
100
AcDbEntity
  8
ZUWAKU
100
AcDbLine
 10
30.36721254812233
 20
7.149999655336416
 30
0.0
 11
32.11721254812233
 21
7.149999655336416
 31
0.0
  0
ARC
  5
1916
330
1A
100
AcDbEntity
  8
ZUWAKU
100
AcDbCircle
 10
32.11721254812233
 20
7.674999655336414
 30
0.0
 40
0.5249999999999999
100
AcDbArc
 50
270.0
 51
0.0
  0
LINE
  5
1917
330
1A
100
AcDbEntity
  8
ZUWAKU
100
AcDbLine
 10
32.64221254812242
 20
7.674999655336414
 30
0.0
 11
32.64221254812242
 21
13.27499965533642
 31
0.0
  0
LINE
  5
1918
330
1A
100
AcDbEntity
  8
ZUWAKU
100
AcDbLine
 10
27.39221254812242
 20
9.424999655336414
 30
0.0
 11
27.39221254812242
 21
7.674999655336414
 31
0.0
  0
ARC
  5
1919
330
1A
100
AcDbEntity
  8
ZUWAKU
100
AcDbCircle
 10
26.86721254812233
 20
7.674999655336414
 30
0.0
 40
0.5249999999999999
100
AcDbArc
 50
270.0
 51
0.0
  0
ARC
  5
191A
330
1A
100
AcDbEntity
  8
ZUWAKU
100
AcDbCircle
 10
26.86721254812233
 20
9.424999655336414
 30
0.0
 40
0.5249999999999999
100
AcDbArc
 50
0.0
 51
90.0
  0
ARC
  5
191B
330
1A
100
AcDbEntity
  8
ZUWAKU
100
AcDbCircle
 10
30.36721254812233
 20
7.674999655336414
 30
0.0
 40
0.5249999999999999
100
AcDbArc
 50
180.0
 51
270.0
  0
ARC
  5
191C
330
1A
100
AcDbEntity
  8
ZUWAKU
100
AcDbCircle
 10
33.30744671161108
 20
13.27499965533642
 30
0.0
 40
0.5249999999999999
100
AcDbArc
 50
17.52556837372303
 51
90.0
  0
ARC
  5
191D
330
1A
100
AcDbEntity
  8
ZUWAKU
100
AcDbCircle
 10
33.16721254812239
 20
13.27499965533642
 30
0.0
 40
0.5249999999999999
100
AcDbArc
 50
90.0
 51
180.0
  0
ARC
  5
191E
330
1A
100
AcDbEntity
  8
ZUWAKU
100
AcDbCircle
 10
41.21721254812235
 20
7.674999655336414
 30
0.0
 40
0.5249999999999999
100
AcDbArc
 50
180.0
 51
270.0
  0
LINE
  5
191F
330
1A
100
AcDbEntity
  8
ZUWAKU
100
AcDbLine
 10
36.17697838463369
 20
7.149999655336416
 30
0.0
 11
37.87586776424269
 21
7.149999655336416
 31
0.0
  0
ARC
  5
1920
330
1A
100
AcDbEntity
  8
ZUWAKU
100
AcDbCircle
 10
37.87586776424269
 20
7.674999655336414
 30
0.0
 40
0.5249999999999999
100
AcDbArc
 50
270.0
 51
17.52556837372303
  0
LINE
  5
1921
330
1A
100
AcDbEntity
  8
ZUWAKU
100
AcDbLine
 10
38.37649866343816
 20
7.833093623503387
 30
0.0
 11
36.0501072849645
 21
15.19999965533643
 31
0.0
  0
ARC
  5
1922
330
1A
100
AcDbEntity
  8
ZUWAKU
100
AcDbCircle
 10
36.17697838463369
 20
7.674999655336414
 30
0.0
 40
0.5249999999999999
100
AcDbArc
 50
197.525568373723
 51
270.0
  0
ARC
  5
1923
330
1A
100
AcDbEntity
  8
ZUWAKU
100
AcDbCircle
 10
57.84221254812235
 20
9.949999655336413
 30
0.0
 40
2.8
100
AcDbArc
 50
180.0
 51
270.0
  0
ARC
  5
1924
330
1A
100
AcDbEntity
  8
ZUWAKU
100
AcDbCircle
 10
50.14221254812242
 20
9.949999655336413
 30
0.0
 40
2.8
100
AcDbArc
 50
270.0
 51
0.0
  0
LINE
  5
1925
330
1A
100
AcDbEntity
  8
ZUWAKU
100
AcDbLine
 10
51.71206102910594
 20
14.73505016167524
 30
0.0
 11
48.80226305446115
 21
17.64484813631992
 31
0.0
  0
LINE
  5
1926
330
1A
100
AcDbEntity
  8
ZUWAKU
100
AcDbLine
 10
50.14221254812242
 20
10.47499965533642
 30
0.0
 11
50.14221254812242
 21
11.76520168069176
 31
0.0
  0
ARC
  5
1927
330
1A
100
AcDbEntity
  8
ZUWAKU
100
AcDbCircle
 10
48.74221254812233
 20
11.76520168069176
 30
0.0
 40
1.4
100
AcDbArc
 50
0.0
 51
45.0
  0
ARC
  5
1928
330
1A
100
AcDbEntity
  8
ZUWAKU
100
AcDbCircle
 10
49.61721254812233
 20
10.47499965533642
 30
0.0
 40
0.5249999999999999
100
AcDbArc
 50
270.0
 51
0.0
  0
LINE
  5
1929
330
1A
100
AcDbEntity
  8
ZUWAKU
100
AcDbLine
 10
46.11721254812233
 20
7.674999655336414
 30
0.0
 11
46.11721254812233
 21
9.424999655336414
 31
0.0
  0
ARC
  5
192A
330
1A
100
AcDbEntity
  8
ZUWAKU
100
AcDbCircle
 10
46.64221254812242
 20
7.674999655336414
 30
0.0
 40
0.5249999999999999
100
AcDbArc
 50
180.0
 51
270.0
  0
ARC
  5
192B
330
1A
100
AcDbEntity
  8
ZUWAKU
100
AcDbCircle
 10
42.96721254812235
 20
7.674999655336414
 30
0.0
 40
0.5249999999999999
100
AcDbArc
 50
270.0
 51
0.0
  0
ARC
  5
192C
330
1A
100
AcDbEntity
  8
ZUWAKU
100
AcDbCircle
 10
46.64221254812242
 20
9.424999655336414
 30
0.0
 40
0.5249999999999999
100
AcDbArc
 50
90.0
 51
180.0
  0
LINE
  5
192D
330
1A
100
AcDbEntity
  8
ZUWAKU
100
AcDbLine
 10
46.64221254812242
 20
9.949999655336413
 30
0.0
 11
49.61721254812233
 21
9.949999655336413
 31
0.0
  0
LINE
  5
192E
330
1A
100
AcDbEntity
  8
ZUWAKU
100
AcDbLine
 10
46.64221254812242
 20
7.149999655336416
 30
0.0
 11
50.14221254812242
 21
7.149999655336416
 31
0.0
  0
LINE
  5
192F
330
1A
100
AcDbEntity
  8
ZUWAKU
100
AcDbLine
 10
46.82236406713889
 20
15.66494914899759
 30
0.0
 11
49.73216204178357
 21
12.75515117435293
 31
0.0
  0
LINE
  5
1930
330
1A
100
AcDbEntity
  8
ZUWAKU
100
AcDbLine
 10
52.94221254812237
 20
9.949999655336413
 30
0.0
 11
52.94221254812237
 21
11.76520168069176
 31
0.0
  0
ARC
  5
1931
330
1A
100
AcDbEntity
  8
ZUWAKU
100
AcDbCircle
 10
48.74221254812233
 20
11.76520168069172
 30
0.0
 40
4.199999999999999
100
AcDbArc
 50
0.0
 51
45.0
  0
ARC
  5
1932
330
1A
100
AcDbEntity
  8
ZUWAKU
100
AcDbCircle
 10
58.89221254812242
 20
10.99999965533641
 30
0.0
 40
1.05
100
AcDbArc
 50
180.0
 51
270.0
  0
ARC
  5
1933
330
1A
100
AcDbEntity
  8
ZUWAKU
100
AcDbCircle
 10
61.34221254812235
 20
9.949999655336413
 30
0.0
 40
2.8
100
AcDbArc
 50
270.0
 51
0.0
  0
LINE
  5
1934
330
1A
100
AcDbEntity
  8
ZUWAKU
100
AcDbLine
 10
66.76721254812242
 20
7.149999655336416
 30
0.0
 11
68.51721254812242
 21
7.149999655336416
 31
0.0
  0
ARC
  5
1935
330
1A
100
AcDbEntity
  8
ZUWAKU
100
AcDbCircle
 10
66.76721254812242
 20
7.674999655336414
 30
0.0
 40
0.5249999999999999
100
AcDbArc
 50
180.0
 51
270.0
  0
ARC
  5
1936
330
1A
100
AcDbEntity
  8
ZUWAKU
100
AcDbCircle
 10
60.29221254812239
 20
10.99999965533641
 30
0.0
 40
1.05
100
AcDbArc
 50
270.0
 51
0.0
  0
ARC
  5
1937
330
1A
100
AcDbEntity
  8
ZUWAKU
100
AcDbCircle
 10
68.51721254812242
 20
7.674999655336414
 30
0.0
 40
0.5249999999999999
100
AcDbArc
 50
270.0
 51
0.0
  0
LINE
  5
1938
330
1A
100
AcDbEntity
  8
ZUWAKU
100
AcDbLine
 10
42.96721254812235
 20
23.24999965533642
 30
0.0
 11
41.21721254812235
 21
23.24999965533642
 31
0.0
  0
ARC
  5
1939
330
1A
100
AcDbEntity
  8
ZUWAKU
100
AcDbCircle
 10
32.11721254812233
 20
22.72499965533641
 30
0.0
 40
0.5249999999999999
100
AcDbArc
 50
0.0
 51
90.0
  0
LINE
  5
193A
330
1A
100
AcDbEntity
  8
ZUWAKU
100
AcDbLine
 10
32.11721254812233
 20
23.24999965533642
 30
0.0
 11
30.36721254812233
 21
23.24999965533642
 31
0.0
  0
ARC
  5
193B
330
1A
100
AcDbEntity
  8
ZUWAKU
100
AcDbCircle
 10
26.86721254812233
 20
22.72499965533641
 30
0.0
 40
0.5249999999999999
100
AcDbArc
 50
0.0
 51
90.0
  0
ARC
  5
193C
330
1A
100
AcDbEntity
  8
ZUWAKU
100
AcDbCircle
 10
30.36721254812233
 20
22.72499965533641
 30
0.0
 40
0.5249999999999999
100
AcDbArc
 50
90.0
 51
180.0
  0
ARC
  5
193D
330
1A
100
AcDbEntity
  8
ZUWAKU
100
AcDbCircle
 10
26.86721254812233
 20
20.97499965533641
 30
0.0
 40
0.5249999999999999
100
AcDbArc
 50
270.0
 51
0.0
  0
LINE
  5
193E
330
1A
100
AcDbEntity
  8
ZUWAKU
100
AcDbLine
 10
27.39221254812242
 20
22.72499965533641
 30
0.0
 11
27.39221254812242
 21
20.97499965533641
 31
0.0
  0
ARC
  5
193F
330
1A
100
AcDbEntity
  8
ZUWAKU
100
AcDbCircle
 10
41.21721254812235
 20
22.72499965533641
 30
0.0
 40
0.5249999999999999
100
AcDbArc
 50
90.0
 51
180.0
  0
LINE
  5
1940
330
1A
100
AcDbEntity
  8
ZUWAKU
100
AcDbLine
 10
36.17697838463369
 20
23.24999965533642
 30
0.0
 11
37.87586776424269
 21
23.24999965533642
 31
0.0
  0
ARC
  5
1941
330
1A
100
AcDbEntity
  8
ZUWAKU
100
AcDbCircle
 10
37.87586776424269
 20
22.72499965533641
 30
0.0
 40
0.5249999999999999
100
AcDbArc
 50
342.474431626277
 51
90.0
  0
LINE
  5
1942
330
1A
100
AcDbEntity
  8
ZUWAKU
100
AcDbLine
 10
38.37649866343816
 20
22.56690568716945
 30
0.0
 11
37.31485903030034
 21
19.20504684889984
 31
0.0
  0
ARC
  5
1943
330
1A
100
AcDbEntity
  8
ZUWAKU
100
AcDbCircle
 10
36.17697838463369
 20
22.72499965533641
 30
0.0
 40
0.5249999999999999
100
AcDbArc
 50
90.0
 51
162.474431626277
  0
LINE
  5
1944
330
1A
100
AcDbEntity
  8
ZUWAKU
100
AcDbLine
 10
48.39221254812242
 20
23.24999965533642
 30
0.0
 11
51.89221254812242
 21
23.24999965533642
 31
0.0
  0
LINE
  5
1945
330
1A
100
AcDbEntity
  8
ZUWAKU
100
AcDbLine
 10
51.89221254812242
 20
20.44999965533641
 30
0.0
 11
48.91721254812239
 21
20.44999965533641
 31
0.0
  0
ARC
  5
1946
330
1A
100
AcDbEntity
  8
ZUWAKU
100
AcDbCircle
 10
48.91721254812239
 20
19.92499965533641
 30
0.0
 40
0.5249999999999999
100
AcDbArc
 50
90.0
 51
180.0
  0
LINE
  5
1947
330
1A
100
AcDbEntity
  8
ZUWAKU
100
AcDbLine
 10
48.39221254812242
 20
19.92499965533641
 30
0.0
 11
48.39221254812242
 21
18.63479762998107
 31
0.0
  0
ARC
  5
1948
330
1A
100
AcDbEntity
  8
ZUWAKU
100
AcDbCircle
 10
42.96721254812235
 20
22.72499965533641
 30
0.0
 40
0.5249999999999999
100
AcDbArc
 50
0.0
 51
90.0
  0
LINE
  5
1949
330
1A
100
AcDbEntity
  8
ZUWAKU
100
AcDbLine
 10
45.59221254812235
 20
20.44999965533641
 30
0.0
 11
45.59221254812235
 21
18.63479762998107
 31
0.0
  0
ARC
  5
194A
330
1A
100
AcDbEntity
  8
ZUWAKU
100
AcDbCircle
 10
48.39221254812242
 20
20.44999965533641
 30
0.0
 40
2.8
100
AcDbArc
 50
90.0
 51
180.0
  0
ARC
  5
194B
330
1A
100
AcDbEntity
  8
ZUWAKU
100
AcDbCircle
 10
57.31721254812237
 20
22.72499965533641
 30
0.0
 40
0.5249999999999999
100
AcDbArc
 50
0.0
 51
90.0
  0
ARC
  5
194C
330
1A
100
AcDbEntity
  8
ZUWAKU
100
AcDbCircle
 10
55.56721254812237
 20
22.72499965533641
 30
0.0
 40
0.5249999999999999
100
AcDbArc
 50
90.0
 51
180.0
  0
LINE
  5
194D
330
1A
100
AcDbEntity
  8
ZUWAKU
100
AcDbLine
 10
57.31721254812237
 20
23.24999965533642
 30
0.0
 11
55.56721254812237
 21
23.24999965533642
 31
0.0
  0
ARC
  5
194E
330
1A
100
AcDbEntity
  8
ZUWAKU
100
AcDbCircle
 10
51.89221254812242
 20
22.72499965533641
 30
0.0
 40
0.5249999999999999
100
AcDbArc
 50
0.0
 51
90.0
  0
ARC
  5
194F
330
1A
100
AcDbEntity
  8
ZUWAKU
100
AcDbCircle
 10
51.89221254812242
 20
20.97499965533641
 30
0.0
 40
0.5249999999999999
100
AcDbArc
 50
270.0
 51
0.0
  0
LINE
  5
1950
330
1A
100
AcDbEntity
  8
ZUWAKU
100
AcDbLine
 10
52.41721254812239
 20
22.72499965533641
 30
0.0
 11
52.41721254812239
 21
20.97499965533641
 31
0.0
  0
LINE
  5
1951
330
1A
100
AcDbEntity
  8
ZUWAKU
100
AcDbLine
 10
68.51721254812242
 20
23.24999965533642
 30
0.0
 11
66.76721254812242
 21
23.24999965533642
 31
0.0
  0
ARC
  5
1952
330
1A
100
AcDbEntity
  8
ZUWAKU
100
AcDbCircle
 10
66.76721254812242
 20
22.72499965533641
 30
0.0
 40
0.5249999999999999
100
AcDbArc
 50
90.0
 51
180.0
  0
ARC
  5
1953
330
1A
100
AcDbEntity
  8
ZUWAKU
100
AcDbCircle
 10
63.61721254812233
 20
22.72499965533641
 30
0.0
 40
0.5249999999999999
100
AcDbArc
 50
0.0
 51
90.0
  0
LINE
  5
1954
330
1A
100
AcDbEntity
  8
ZUWAKU
100
AcDbLine
 10
63.61721254812233
 20
23.24999965533642
 30
0.0
 11
61.86721254812233
 21
23.24999965533642
 31
0.0
  0
ARC
  5
1955
330
1A
100
AcDbEntity
  8
ZUWAKU
100
AcDbCircle
 10
61.86721254812233
 20
22.72499965533641
 30
0.0
 40
0.5249999999999999
100
AcDbArc
 50
90.0
 51
180.0
  0
ARC
  5
1956
330
1A
100
AcDbEntity
  8
ZUWAKU
100
AcDbCircle
 10
68.51721254812242
 20
22.72499965533641
 30
0.0
 40
0.5249999999999999
100
AcDbArc
 50
0.0
 51
90.0
  0
TEXT
  5
1957
330
1A
100
AcDbEntity
  8
moji
100
AcDbText
 10
239.8272030741923
 20
3.204920712743832
 30
0.0
 40
5.6
  1
Σ９０－ＵＴ６０
 41
0.9
  7
ｽﾀｲﾙ1
100
AcDbText
  0
TEXT
  5
1958
330
1A
100
AcDbEntity
  8
moji
100
AcDbText
 10
239.8272030741923
 20
18.0049207127438
 30
0.0
 40
5.6
  1
洋風じょうご
 41
0.9
  7
ｽﾀｲﾙ1
100
AcDbText
  0
LINE
  5
1959
330
1A
100
AcDbEntity
  8
ZUWAKU
100
AcDbLine
 10
208.2466016834092
 20
29.99999965533641
 30
0.0
 11
208.2466016834092
 21
0.7999996553364781
 31
0.0
  0
LINE
  5
195A
330
1A
100
AcDbEntity
  8
ZUWAKU
100
AcDbLine
 10
208.646601683409
 20
29.99999965533641
 30
0.0
 11
208.6466016834092
 21
0.7999996553364781
 31
0.0
  0
LINE
  5
195B
330
1A
100
AcDbEntity
  8
ZUWAKU
100
AcDbLine
 10
208.446601683409
 20
29.99999965533641
 30
0.0
 11
208.4466016834092
 21
0.7999996553364781
 31
0.0
  0
TEXT
  5
195C
330
1A
100
AcDbEntity
  8
ZUWAKU
100
AcDbText
 10
209.7240467056188
 20
9.655356193722028
 30
0.0
 40
4.0
  1
サイズ
 41
0.9
  7
ｽﾀｲﾙ1
100
AcDbText
  0
TEXT
  5
195D
330
1A
100
AcDbEntity
  8
ZUWAKU
100
AcDbText
 10
209.7240467056186
 20
24.05535619372199
 30
0.0
 40
4.0
  1
品名
 41
0.9
  7
ｽﾀｲﾙ1
100
AcDbText
  0
LINE
  5
195E
330
1A
100
AcDbEntity
  8
ZUWAKU
100
AcDbLine
 10
648.8172029035454
 20
15.19999965533644
 30
0.0
 11
697.2490109418825
 21
15.19999965533645
 31
0.0
  0
LINE
  5
195F
330
1A
100
AcDbEntity
  8
ZUWAKU
100
AcDbLine
 10
648.8172029035457
 20
15.39999965533645
 30
0.0
 11
697.2490109418825
 21
15.39999965533644
 31
0.0
  0
LINE
  5
1960
330
1A
100
AcDbEntity
  8
ZUWAKU
100
AcDbLine
 10
648.8172029035454
 20
15.59999965533644
 30
0.0
 11
697.2490109418825
 21
15.59999965533644
 31
0.0
  0
TEXT
  5
1961
330
1A
100
AcDbEntity
  8
ZUWAKU
100
AcDbText
 10
658.2039380806436
 20
18.0049207127438
 30
0.0
 40
5.6
  1
　　．　　．　　
 41
0.9
  7
ｽﾀｲﾙ1
100
AcDbText
  0
LINE
  5
1962
330
1A
100
AcDbEntity
  8
ZUWAKU
100
AcDbLine
 10
505.1991798914821
 20
15.19999965533645
 30
0.0
 11
552.5269561594537
 21
15.19999965533645
 31
0.0
  0
LINE
  5
1963
330
1A
100
AcDbEntity
  8
ZUWAKU
100
AcDbLine
 10
505.1991798914821
 20
15.39999965533644
 30
0.0
 11
552.5269561594537
 21
15.39999965533644
 31
0.0
  0
LINE
  5
1964
330
1A
100
AcDbEntity
  8
ZUWAKU
100
AcDbLine
 10
505.1991798914821
 20
15.59999965533644
 30
0.0
 11
552.5269561594537
 21
15.59999965533644
 31
0.0
  0
TEXT
  5
1965
330
1A
100
AcDbEntity
  8
moji
100
AcDbText
 10
464.5946263965802
 20
11.9426173769964
 30
0.0
 40
5.6
  1
ＧＴ６０□
 41
0.9
  7
ｽﾀｲﾙ1
100
AcDbText
  0
LINE
  5
1966
330
1A
100
AcDbEntity
  8
ZUWAKU
100
AcDbLine
 10
447.6243643643325
 20
29.99999965533641
 30
0.0
 11
447.6243643643327
 21
0.7999996553364781
 31
0.0
  0
LINE
  5
1967
330
1A
100
AcDbEntity
  8
ZUWAKU
100
AcDbLine
 10
447.8243643643325
 20
29.99999965533641
 30
0.0
 11
447.8243643643327
 21
0.7999996553364781
 31
0.0
  0
LINE
  5
1968
330
1A
100
AcDbEntity
  8
ZUWAKU
100
AcDbLine
 10
447.4243643643326
 20
29.99999965533641
 30
0.0
 11
447.4243643643326
 21
0.7999996553364781
 31
0.0
  0
TEXT
  5
1969
330
1A
100
AcDbEntity
  8
moji
100
AcDbText
 10
528.0409083656541
 20
18.0049207127438
 30
0.0
 40
5.6
  1
Ａ３
 41
0.9
  7
ｽﾀｲﾙ1
100
AcDbText
  0
LINE
  5
196A
330
1A
100
AcDbEntity
  8
ZUWAKU
100
AcDbLine
 10
504.9991798914821
 20
29.99999965533641
 30
0.0
 11
504.9991798914823
 21
0.7999996553364781
 31
0.0
  0
LINE
  5
196B
330
1A
100
AcDbEntity
  8
ZUWAKU
100
AcDbLine
 10
505.1991798914821
 20
29.99999965533641
 30
0.0
 11
505.1991798914823
 21
0.7999996553364781
 31
0.0
  0
LINE
  5
196C
330
1A
100
AcDbEntity
  8
ZUWAKU
100
AcDbLine
 10
504.7991798914823
 20
29.99999965533641
 30
0.0
 11
504.7991798914823
 21
0.7999996553364781
 31
0.0
  0
TEXT
  5
196D
330
1A
100
AcDbEntity
  8
ZUWAKU
100
AcDbText
 10
462.6937620488484
 20
2.614070566475903
 30
0.0
 40
3.0
  1
□には色品番が入ります
 41
0.9
  7
ｽﾀｲﾙ1
100
AcDbText
  0
TEXT
  5
196E
330
1A
100
AcDbEntity
  8
ZUWAKU
100
AcDbText
 10
506.676624913692
 20
9.655356193722028
 30
0.0
 40
4.0
  1
縮尺
 41
0.9
  7
ｽﾀｲﾙ1
100
AcDbText
  0
TEXT
  5
196F
330
1A
100
AcDbEntity
  8
moji
100
AcDbText
 10
528.0409083656541
 20
3.204920712743832
 30
0.0
 40
5.6
  1
１/２
 41
0.9
  7
ｽﾀｲﾙ1
100
AcDbText
  0
TEXT
  5
1970
330
1A
100
AcDbEntity
  8
ZUWAKU
100
AcDbText
 10
449.3018093865421
 20
24.05535619372199
 30
0.0
 40
4.0
  1
品番
 41
0.9
  7
ｽﾀｲﾙ1
100
AcDbText
  0
TEXT
  5
1971
330
1A
100
AcDbEntity
  8
ZUWAKU
100
AcDbText
 10
506.6766249136917
 20
24.05535619372199
 30
0.0
 40
4.0
  1
用紙
 41
0.9
  7
ｽﾀｲﾙ1
100
AcDbText
  0
LINE
  5
1972
330
1A
100
AcDbEntity
  8
ZUWAKU
100
AcDbLine
 10
648.6172029035456
 20
29.99999965533641
 30
0.0
 11
648.6172029035458
 21
0.7999996553364781
 31
0.0
  0
LINE
  5
1973
330
1A
100
AcDbEntity
  8
ZUWAKU
100
AcDbLine
 10
648.8172029035457
 20
29.99999965533641
 30
0.0
 11
648.8172029035459
 21
0.7999996553364781
 31
0.0
  0
LINE
  5
1974
330
1A
100
AcDbEntity
  8
ZUWAKU
100
AcDbLine
 10
648.4172029035458
 20
29.99999965533641
 30
0.0
 11
648.4172029035458
 21
0.7999996553364781
 31
0.0
  0
LINE
  5
1975
330
1A
100
AcDbEntity
  8
ZUWAKU
100
AcDbLine
 10
552.7269561594535
 20
29.99999965533641
 30
0.0
 11
552.7269561594537
 21
0.7999996553364781
 31
0.0
  0
LINE
  5
1976
330
1A
100
AcDbEntity
  8
ZUWAKU
100
AcDbLine
 10
552.9269561594535
 20
29.99999965533641
 30
0.0
 11
552.9269561594538
 21
0.7999996553364781
 31
0.0
  0
LINE
  5
1977
330
1A
100
AcDbEntity
  8
ZUWAKU
100
AcDbLine
 10
552.5269561594537
 20
29.99999965533641
 30
0.0
 11
552.5269561594537
 21
0.7999996553364781
 31
0.0
  0
TEXT
  5
1978
330
1A
100
AcDbEntity
  8
ZUWAKU
100
AcDbText
 10
650.2946479257553
 20
24.05535619372199
 30
0.0
 40
4.0
  1
DATE
 41
0.9
  7
ｽﾀｲﾙ1
100
AcDbText
  0
LINE
  5
1979
330
1A
100
AcDbEntity
  8
ZUWAKU
100
AcDbLine
 10
697.2490109418825
 20
29.99999965533641
 30
0.0
 11
697.2490109418825
 21
0.7999996553364781
 31
0.0
  0
LINE
  5
197A
330
1A
100
AcDbEntity
  8
ZUWAKU
100
AcDbLine
 10
697.4490109418825
 20
29.99999965533641
 30
0.0
 11
697.4490109418825
 21
0.7999996553364781
 31
0.0
  0
LINE
  5
197B
330
1A
100
AcDbEntity
  8
ZUWAKU
100
AcDbLine
 10
697.6490109418824
 20
29.99999965533641
 30
0.0
 11
697.6490109418826
 21
0.7999996553364781
 31
0.0
  0
LINE
  5
197C
330
1A
100
AcDbEntity
  8
ZUWAKU
100
AcDbLine
 10
697.8490109418824
 20
29.99999965533641
 30
0.0
 11
697.8490109418826
 21
0.7999996553364781
 31
0.0
  0
TEXT
  5
197D
330
1A
100
AcDbEntity
  8
ZUWAKU
100
AcDbText
 10
708.528084585585
 20
17.55383899102321
 30
0.0
 40
6.0
  1
積水化学工業株式会社
 41
0.9
  7
ｽﾀｲﾙ1
100
AcDbText
  0
TEXT
  5
197E
330
1A
100
AcDbEntity
  8
ZUWAKU
100
AcDbText
 10
708.528084585585
 20
6.648839969190476
 30
0.0
 40
6.0
  1
建材事業部
 41
0.9
  7
ｽﾀｲﾙ1
100
AcDbText
  0
DIMENSION
  5
2002
330
1A
100
AcDbEntity
  8
SUNPOU
 62
     4
 48
5.0
100
AcDbDimension
  2
*D2
 10
600.6116922931437
 20
488.2506008261465
 30
0.0
 11
565.6116922931437
 21
492.2506008261465
 31
0.0
 70
    32
 71
     5
 42
70.0
  3
STANDARD
100
AcDbAlignedDimension
 13
530.6116922931437
 23
450.2854054052098
 33
0.0
 14
600.6116922931437
 24
450.2854054052098
 34
0.0
100
AcDbRotatedDimension
1001
ACAD
1000
DSTYLE
1002
{
1070
    41
1040
3.5
1070
    42
1040
3.0
1070
    43
1040
7.0
1070
    44
1040
1.5
1070
    73
1070
     0
1070
    74
1070
     0
1070
    77
1070
     3
1070
   140
1040
6.0
1070
   141
1040
7.0
1070
   147
1040
1.0
1070
   172
1070
     1
1070
   173
1070
     1
1070
   176
1070
     4
1070
   177
1070
     4
1070
   178
1070
     4
1070
   271
1070
     0
1070
   272
1070
     2
1070
     6
1000
OPEN
1070
     7
1000
OPEN
1002
}
  0
LINE
  5
2003
330
1A
100
AcDbEntity
  8
SEIHIN
100
AcDbLine
 10
544.1116922931437
 20
450.2854054052098
 30
0.0
 11
530.6116922931437
 21
450.2854054052098
 31
0.0
  0
ARC
  5
2004
330
1A
100
AcDbEntity
  8
SEIHIN
100
AcDbCircle
 10
543.6116922931437
 20
434.2854054052098
 30
0.0
 40
2.0
100
AcDbArc
 50
270.0
 51
0.0
  0
ARC
  5
2005
330
1A
100
AcDbEntity
  8
SEIHIN
100
AcDbCircle
 10
542.9636014270438
 20
442.2854054052097
 30
0.0
 40
9.999999999999998
100
AcDbArc
 50
197.3540246363016
 51
270.0
  0
LINE
  5
2006
330
1A
100
AcDbEntity
  8
SEIHIN
100
AcDbLine
 10
543.6116922931437
 20
432.2854054052098
 30
0.0
 11
542.9636014270438
 21
432.2854054052098
 31
0.0
  0
LINE
  5
2007
330
1A
100
AcDbEntity
  8
SEIHIN
100
AcDbLine
 10
533.4188016466437
 20
439.3026554738097
 30
0.0
 11
530.6116922931437
 21
448.2854054052098
 31
0.0
  0
LINE
  5
2008
330
1A
100
AcDbEntity
  8
SEIHIN
100
AcDbLine
 10
530.6116922931437
 20
448.2854054052098
 30
0.0
 11
530.6116922931437
 21
450.2854054052098
 31
0.0
  0
ARC
  5
2009
330
1A
100
AcDbEntity
  8
SEIHIN
100
AcDbCircle
 10
531.6116922931437
 20
449.2854054052098
 30
0.0
 40
1.0
100
AcDbArc
 50
90.0
 51
93.03947777139152
  0
DIMENSION
  5
200B
330
1A
100
AcDbEntity
  8
SUNPOU
 62
     4
 48
5.0
100
AcDbDimension
  2
*D3
 10
614.3716755349431
 20
432.2854054052097
 30
0.0
 11
610.3716755349429
 21
441.2854054052098
 31
0.0
 70
    32
 71
     5
 42
18.00000000000006
  3
STANDARD
100
AcDbAlignedDimension
 13
600.6116922931437
 23
450.2854054052098
 33
0.0
 14
588.2597831592437
 24
432.2854054052097
 34
0.0
 50
90.0
100
AcDbRotatedDimension
1001
ACAD
1000
DSTYLE
1002
{
1070
    41
1040
3.5
1070
    42
1040
3.0
1070
    43
1040
7.0
1070
    44
1040
1.5
1070
    73
1070
     0
1070
    74
1070
     0
1070
    77
1070
     3
1070
   140
1040
6.0
1070
   141
1040
7.0
1070
   147
1040
1.0
1070
   172
1070
     1
1070
   173
1070
     1
1070
   176
1070
     4
1070
   177
1070
     4
1070
   178
1070
     4
1070
   271
1070
     0
1070
   272
1070
     2
1070
     6
1000
OPEN
1070
     7
1000
OPEN
1002
}
  0
DIMENSION
  5
200C
330
1A
100
AcDbEntity
  8
SUNPOU
 62
     4
 48
5.0
100
AcDbDimension
  2
*D4
 10
627.3148895007613
 20
430.2854054052098
 30
0.0
 11
627.3148895007612
 21
445.2854054052098
 31
0.0
 70
   160
 71
     5
 42
30.0
  3
STANDARD
100
AcDbAlignedDimension
 13
558.6116922931437
 23
460.2854054052098
 33
0.0
 14
565.6116922931437
 24
430.2854054052098
 34
0.0
 50
90.0
100
AcDbRotatedDimension
1001
ACAD
1000
DSTYLE
1002
{
1070
    41
1040
3.5
1070
    42
1040
3.0
1070
    43
1040
7.0
1070
    44
1040
1.5
1070
    73
1070
     0
1070
    74
1070
     0
1070
    77
1070
     3
1070
   140
1040
6.0
1070
   141
1040
7.0
1070
   147
1040
1.0
1070
   172
1070
     1
1070
   173
1070
     1
1070
   176
1070
     4
1070
   177
1070
     4
1070
   178
1070
     4
1070
   271
1070
     0
1070
   272
1070
     2
1070
     6
1000
OPEN
1070
     7
1000
OPEN
1002
}
  0
ARC
  5
200D
330
1A
100
AcDbEntity
  8
SEIHIN
100
AcDbCircle
 10
587.6116922931437
 20
434.2854054052098
 30
0.0
 40
2.0
100
AcDbArc
 50
180.0
 51
270.0
  0
ARC
  5
200E
330
1A
100
AcDbEntity
  8
SEIHIN
100
AcDbCircle
 10
588.2597831592437
 20
442.2854054052097
 30
0.0
 40
9.999999999999972
100
AcDbArc
 50
270.0
 51
342.6459753636984
  0
ARC
  5
200F
330
1A
100
AcDbEntity
  8
SEIHIN
100
AcDbCircle
 10
563.6116922931437
 20
438.2854054052097
 30
0.0
 40
8.0
100
AcDbArc
 50
180.0
 51
270.0
  0
ARC
  5
2010
330
1A
100
AcDbEntity
  8
SEIHIN
100
AcDbCircle
 10
567.6116922931437
 20
438.2854054052097
 30
0.0
 40
7.999999999999972
100
AcDbArc
 50
270.0
 51
0.0
  0
LINE
  5
2011
330
1A
100
AcDbEntity
  8
CENTER L
  6
CENTER
 62
     1
 48
5.0
100
AcDbLine
 10
565.6116922931437
 20
462.3295385394557
 30
0.0
 11
565.6116922931437
 21
428.2546751514776
 31
0.0
  0
LINE
  5
2012
330
1A
100
AcDbEntity
  8
SEIHIN
100
AcDbLine
 10
567.6116922931437
 20
430.2854054052098
 30
0.0
 11
563.6116922931437
 21
430.2854054052098
 31
0.0
  0
LINE
  5
2013
330
1A
100
AcDbEntity
  8
SEIHIN
100
AcDbLine
 10
588.2597831592437
 20
432.2854054052098
 30
0.0
 11
587.6116922931437
 21
432.2854054052098
 31
0.0
  0
ARC
  5
2014
330
1A
100
AcDbEntity
  8
SEIHIN
100
AcDbCircle
 10
576.6116922931437
 20
450.2854054052098
 30
0.0
 40
1.0
100
AcDbArc
 50
180.0
 51
270.0
  0
LINE
  5
2015
330
1A
100
AcDbEntity
  8
SEIHIN
100
AcDbLine
 10
575.6116922931437
 20
448.2854054052098
 30
0.0
 11
585.6116922931437
 21
448.2854054052098
 31
0.0
  0
LINE
  5
2016
330
1A
100
AcDbEntity
  8
SEIHIN
100
AcDbLine
 10
555.6116922931437
 20
438.2854054052097
 30
0.0
 11
555.6116922931437
 21
457.2854054052098
 31
0.0
  0
LINE
  5
2017
330
1A
100
AcDbEntity
  8
SEIHIN
100
AcDbLine
 10
575.6116922931437
 20
457.2854054052098
 30
0.0
 11
575.6116922931437
 21
438.2854054052097
 31
0.0
  0
LINE
  5
2018
330
1A
100
AcDbEntity
  8
SEIHIN
100
AcDbLine
 10
545.6116922931437
 20
450.2854054052098
 30
0.0
 11
545.6116922931437
 21
434.2854054052098
 31
0.0
  0
LINE
  5
2019
330
1A
100
AcDbEntity
  8
SEIHIN
100
AcDbLine
 10
546.6116922931437
 20
449.2854054052098
 30
0.0
 11
554.6116922931437
 21
449.2854054052098
 31
0.0
  0
LINE
  5
201A
330
1A
100
AcDbEntity
  8
SEIHIN
100
AcDbLine
 10
545.6116922931437
 20
448.2854054052098
 30
0.0
 11
555.6116922931437
 21
448.2854054052098
 31
0.0
  0
LINE
  5
201B
330
1A
100
AcDbEntity
  8
SEIHIN
100
AcDbLine
 10
544.1116922931437
 20
450.2854054052098
 30
0.0
 11
545.6116922931437
 21
450.2854054052098
 31
0.0
  0
ARC
  5
201C
330
1A
100
AcDbEntity
  8
SEIHIN
100
AcDbCircle
 10
546.6116922931437
 20
450.2854054052098
 30
0.0
 40
1.0
100
AcDbArc
 50
180.0
 51
270.0
  0
ARC
  5
201D
330
1A
100
AcDbEntity
  8
SEIHIN
100
AcDbCircle
 10
554.6116922931437
 20
450.2854054052098
 30
0.0
 40
1.0
100
AcDbArc
 50
270.0
 51
0.0
  0
LINE
  5
201E
330
1A
100
AcDbEntity
  8
SEIHIN
100
AcDbLine
 10
558.6116922931437
 20
460.2854054052098
 30
0.0
 11
572.6116922931437
 21
460.2854054052098
 31
0.0
  0
DIMENSION
  5
201F
330
1A
100
AcDbEntity
  8
SUNPOU
 62
     4
 48
5.0
100
AcDbDimension
  2
*D5
 10
575.6116922931437
 20
472.3672851621869
 30
0.0
 11
565.6116922931437
 21
476.3672851621869
 31
0.0
 70
    32
 71
     5
 42
20.0
  3
STANDARD
100
AcDbAlignedDimension
 13
555.6116922931437
 23
457.2854054052098
 33
0.0
 14
575.6116922931437
 24
457.2854054052098
 34
0.0
100
AcDbRotatedDimension
1001
ACAD
1000
DSTYLE
1002
{
1070
    41
1040
3.5
1070
    42
1040
3.0
1070
    43
1040
7.0
1070
    44
1040
1.5
1070
    73
1070
     0
1070
    74
1070
     0
1070
    77
1070
     3
1070
   140
1040
6.0
1070
   141
1040
7.0
1070
   147
1040
1.0
1070
   172
1070
     1
1070
   173
1070
     1
1070
   176
1070
     4
1070
   177
1070
     4
1070
   178
1070
     4
1070
   271
1070
     0
1070
   272
1070
     2
1070
     6
1000
OPEN
1070
     7
1000
OPEN
1002
}
  0
ARC
  5
2020
330
1A
100
AcDbEntity
  8
SEIHIN
100
AcDbCircle
 10
558.6116922931437
 20
457.2854054052098
 30
0.0
 40
3.0
100
AcDbArc
 50
90.0
 51
180.0
  0
ARC
  5
2021
330
1A
100
AcDbEntity
  8
SEIHIN
100
AcDbCircle
 10
572.6116922931437
 20
457.2854054052098
 30
0.0
 40
3.0
100
AcDbArc
 50
0.0
 51
90.0
  0
DIMENSION
  5
2022
330
1A
100
AcDbEntity
  8
SUNPOU
 62
     4
 48
5.0
100
AcDbDimension
  2
*D6
 10
600.6116922931437
 20
472.3672851621869
 30
0.0
 11
593.1116922931437
 21
476.3672851621869
 31
0.0
 70
    32
 71
     5
 42
15.0
  3
STANDARD
100
AcDbAlignedDimension
 13
585.6116922931437
 23
450.2854054052098
 33
0.0
 14
600.6116922931437
 24
450.2854054052098
 34
0.0
100
AcDbRotatedDimension
1001
ACAD
1000
DSTYLE
1002
{
1070
    41
1040
3.5
1070
    42
1040
3.0
1070
    43
1040
7.0
1070
    44
1040
1.5
1070
    73
1070
     0
1070
    74
1070
     0
1070
    77
1070
     3
1070
   140
1040
6.0
1070
   141
1040
7.0
1070
   147
1040
1.0
1070
   172
1070
     1
1070
   173
1070
     1
1070
   176
1070
     4
1070
   177
1070
     4
1070
   178
1070
     4
1070
   271
1070
     0
1070
   272
1070
     2
1070
     6
1000
OPEN
1070
     7
1000
OPEN
1002
}
  0
LINE
  5
2023
330
1A
100
AcDbEntity
  8
SEIHIN
100
AcDbLine
 10
600.6116922931437
 20
450.2854054052098
 30
0.0
 11
587.1116922931437
 21
450.2854054052098
 31
0.0
  0
LINE
  5
2024
330
1A
100
AcDbEntity
  8
SEIHIN
100
AcDbLine
 10
585.6116922931437
 20
434.2854054052098
 30
0.0
 11
585.6116922931437
 21
450.2854054052098
 31
0.0
  0
ARC
  5
2025
330
1A
100
AcDbEntity
  8
SEIHIN
100
AcDbCircle
 10
584.6116922931437
 20
450.2854054052098
 30
0.0
 40
1.0
100
AcDbArc
 50
270.0
 51
0.0
  0
LINE
  5
2026
330
1A
100
AcDbEntity
  8
SEIHIN
100
AcDbLine
 10
576.6116922931437
 20
449.2854054052098
 30
0.0
 11
584.6116922931437
 21
449.2854054052098
 31
0.0
  0
LINE
  5
2027
330
1A
100
AcDbEntity
  8
SEIHIN
100
AcDbLine
 10
585.6116922931437
 20
450.2854054052098
 30
0.0
 11
587.1116922931437
 21
450.2854054052098
 31
0.0
  0
LINE
  5
2028
330
1A
100
AcDbEntity
  8
SEIHIN
100
AcDbLine
 10
600.6116922931437
 20
448.2854054052098
 30
0.0
 11
597.8045829395437
 21
439.3026554738097
 31
0.0
  0
ARC
  5
2029
330
1A
100
AcDbEntity
  8
SEIHIN
100
AcDbCircle
 10
599.6116922931437
 20
449.2854054052098
 30
0.0
 40
0.9999999999999191
100
AcDbArc
 50
86.96052222859544
 51
90.0
  0
LINE
  5
202A
330
1A
100
AcDbEntity
  8
SEIHIN
100
AcDbLine
 10
600.6116922931437
 20
450.2854054052098
 30
0.0
 11
600.6116922931437
 21
448.2854054052098
 31
0.0
  0
LINE
  5
202B
330
1A
100
AcDbEntity
  8
SEIHIN
100
AcDbLine
 10
653.7070764990158
 20
439.3026554738098
 30
0.0
 11
653.7070764990158
 21
432.2854054052098
 31
0.0
  0
LINE
  5
202C
330
1A
100
AcDbEntity
  8
SEIHIN
100
AcDbLine
 10
654.207076499016
 20
439.3026554738098
 30
0.0
 11
654.207076499016
 21
432.2854054052098
 31
0.0
  0
LINE
  5
202D
330
1A
100
AcDbEntity
  8
SEIHIN
100
AcDbLine
 10
652.207076499016
 20
431.7854054052098
 30
0.0
 11
652.207076499016
 21
433.7854054052098
 31
0.0
  0
LINE
  5
202E
330
1A
100
AcDbEntity
  8
SEIHIN
100
AcDbLine
 10
654.207076499016
 20
436.2854054052096
 30
0.0
 11
654.207076499016
 21
432.2854054052096
 31
0.0
  0
LINE
  5
202F
330
1A
100
AcDbEntity
  8
SEIHIN
100
AcDbLine
 10
654.207076499016
 20
430.2854054052098
 30
0.0
 11
653.7070764990158
 21
430.2854054052098
 31
0.0
  0
ARC
  5
2030
330
1A
100
AcDbEntity
  8
SEIHIN
100
AcDbCircle
 10
653.7070764990158
 20
431.7854054052098
 30
0.0
 40
1.499999999999886
100
AcDbArc
 50
180.0
 51
270.0
  0
LINE
  5
2031
330
1A
100
AcDbEntity
  8
SEIHIN
100
AcDbLine
 10
654.207076499016
 20
432.2854054052098
 30
0.0
 11
654.207076499016
 21
430.2854054052098
 31
0.0
  0
LINE
  5
2032
330
1A
100
AcDbEntity
  8
SEIHIN
100
AcDbLine
 10
653.7070764990158
 20
432.2854054052098
 30
0.0
 11
653.7070764990158
 21
430.2854054052098
 31
0.0
  0
LINE
  5
2033
330
1A
100
AcDbEntity
  8
SEIHIN
100
AcDbLine
 10
654.207076499016
 20
432.2854054052096
 30
0.0
 11
654.207076499016
 21
430.2854054052096
 31
0.0
  0
DIMENSION
  5
2034
330
1A
100
AcDbEntity
  8
SUNPOU
 62
     4
 48
5.0
100
AcDbDimension
  2
*D7
 10
660.207076499016
 20
472.3672851621869
 30
0.0
 11
656.2070764990159
 21
476.3672851621869
 31
0.0
 70
    32
 71
     5
 42
8.000000000000227
  3
STANDARD
100
AcDbAlignedDimension
 13
652.2070764990158
 23
458.7854054052098
 33
0.0
 14
660.207076499016
 24
448.7854054052097
 34
0.0
100
AcDbRotatedDimension
1001
ACAD
1000
DSTYLE
1002
{
1070
    41
1040
3.5
1070
    42
1040
3.0
1070
    43
1040
7.0
1070
    44
1040
1.5
1070
    73
1070
     0
1070
    74
1070
     0
1070
    77
1070
     3
1070
   140
1040
6.0
1070
   141
1040
7.0
1070
   147
1040
1.0
1070
   172
1070
     1
1070
   173
1070
     1
1070
   176
1070
     4
1070
   177
1070
     4
1070
   178
1070
     4
1070
   271
1070
     0
1070
   272
1070
     2
1070
     6
1000
OPEN
1070
     7
1000
OPEN
1002
}
  0
LINE
  5
2035
330
1A
100
AcDbEntity
  8
SEIHIN
100
AcDbLine
 10
652.207076499016
 20
450.2854054052098
 30
0.0
 11
652.207076499016
 21
457.2854054052098
 31
0.0
  0
LINE
  5
2036
330
1A
100
AcDbEntity
  8
SEIHIN
100
AcDbLine
 10
654.207076499016
 20
457.2854054052098
 30
0.0
 11
654.207076499016
 21
450.7854054052098
 31
0.0
  0
LINE
  5
2037
330
1A
100
AcDbEntity
  8
SEIHIN
100
AcDbLine
 10
654.207076499016
 20
458.2854054052098
 30
0.0
 11
654.207076499016
 21
450.2854054052098
 31
0.0
  0
LINE
  5
2038
330
1A
100
AcDbEntity
  8
SEIHIN
100
AcDbLine
 10
652.207076499016
 20
450.2854054052098
 30
0.0
 11
659.207076499016
 21
450.2854054052098
 31
0.0
  0
LINE
  5
2039
330
1A
100
AcDbEntity
  8
SEIHIN
100
AcDbLine
 10
659.207076499016
 20
448.2854054052098
 30
0.0
 11
654.207076499016
 21
448.2854054052098
 31
0.0
  0
LINE
  5
203A
330
1A
100
AcDbEntity
  8
SEIHIN
100
AcDbLine
 10
655.9834561168161
 20
444.2056601829097
 30
0.0
 11
655.6570764990158
 21
448.2854054052098
 31
0.0
  0
LINE
  5
203B
330
1A
100
AcDbEntity
  8
SEIHIN
100
AcDbLine
 10
658.1570764990158
 20
448.2854054052098
 30
0.0
 11
658.1570764990158
 21
443.2854054052098
 31
0.0
  0
LINE
  5
203C
330
1A
100
AcDbEntity
  8
SEIHIN
100
AcDbLine
 10
658.1570764990161
 20
448.2854054052096
 30
0.0
 11
658.1570764990161
 21
443.2854054052096
 31
0.0
  0
LINE
  5
203D
330
1A
100
AcDbEntity
  8
SEIHIN
100
AcDbLine
 10
653.7070764990158
 20
448.2854054052098
 30
0.0
 11
653.7070764990158
 21
439.3026554738098
 31
0.0
  0
LINE
  5
203E
330
1A
100
AcDbEntity
  8
SEIHIN
100
AcDbLine
 10
654.207076499016
 20
439.3026554738098
 30
0.0
 11
654.207076499016
 21
448.2854054052098
 31
0.0
  0
LINE
  5
203F
330
1A
100
AcDbEntity
  8
SEIHIN
100
AcDbLine
 10
652.207076499016
 20
439.7500679635098
 30
0.0
 11
652.207076499016
 21
450.2839986425097
 31
0.0
  0
LINE
  5
2040
330
1A
100
AcDbEntity
  8
SEIHIN
100
AcDbLine
 10
658.1570764990158
 20
443.2854054052098
 30
0.0
 11
656.9802713953161
 21
443.2854054052098
 31
0.0
  0
ARC
  5
2041
330
1A
100
AcDbEntity
  8
SEIHIN
100
AcDbCircle
 10
656.9802713953161
 20
444.2854054052098
 30
0.0
 40
1.000000000000008
100
AcDbArc
 50
184.5739212599011
 51
270.0
  0
LINE
  5
2042
330
1A
100
AcDbEntity
  8
SEIHIN
100
AcDbLine
 10
652.207076499016
 20
433.7854054052098
 30
0.0
 11
652.207076499016
 21
439.7500679635098
 31
0.0
  0
LINE
  5
2043
330
1A
100
AcDbEntity
  8
SEIHIN
100
AcDbLine
 10
652.207076499016
 20
450.2839986425097
 30
0.0
 11
652.207076499016
 21
450.2854054052098
 31
0.0
  0
LINE
  5
2044
330
1A
100
AcDbEntity
  8
SEIHIN
100
AcDbLine
 10
654.207076499016
 20
448.2854054052098
 30
0.0
 11
653.7070764990158
 21
448.2854054052098
 31
0.0
  0
LINE
  5
2045
330
1A
100
AcDbEntity
  8
SEIHIN
100
AcDbLine
 10
660.207076499016
 20
449.2854054052098
 30
0.0
 11
660.207076499016
 21
448.2854054052098
 31
0.0
  0
LINE
  5
2046
330
1A
100
AcDbEntity
  8
SEIHIN
100
AcDbLine
 10
660.207076499016
 20
448.2854054052098
 30
0.0
 11
659.207076499016
 21
448.2854054052098
 31
0.0
  0
ARC
  5
2047
330
1A
100
AcDbEntity
  8
SEIHIN
100
AcDbCircle
 10
659.207076499016
 20
449.2854054052098
 30
0.0
 40
1.0
100
AcDbArc
 50
0.0
 51
90.0
  0
LINE
  5
2048
330
1A
100
AcDbEntity
  8
SEIHIN
100
AcDbLine
 10
660.207076499016
 20
448.2854054052096
 30
0.0
 11
659.207076499016
 21
448.2854054052096
 31
0.0
  0
LINE
  5
2049
330
1A
100
AcDbEntity
  8
SEIHIN
100
AcDbLine
 10
660.207076499016
 20
449.2854054052098
 30
0.0
 11
660.207076499016
 21
448.2854054052096
 31
0.0
  0
LINE
  5
204A
330
1A
100
AcDbEntity
  8
SEIHIN
100
AcDbLine
 10
654.207076499016
 20
460.2854054052098
 30
0.0
 11
654.207076499016
 21
458.2854054052098
 31
0.0
  0
ARC
  5
204B
330
1A
100
AcDbEntity
  8
SEIHIN
100
AcDbCircle
 10
653.7070764990158
 20
458.7854054052098
 30
0.0
 40
1.5
100
AcDbArc
 50
90.0
 51
180.0
  0
LINE
  5
204C
330
1A
100
AcDbEntity
  8
SEIHIN
100
AcDbLine
 10
653.7070764990158
 20
460.2854054052098
 30
0.0
 11
654.207076499016
 21
460.2854054052098
 31
0.0
  0
LINE
  5
204D
330
1A
100
AcDbEntity
  8
SEIHIN
100
AcDbLine
 10
653.707076499016
 20
460.2854054052098
 30
0.0
 11
654.207076499016
 21
460.2854054052098
 31
0.0
  0
LINE
  5
204E
330
1A
100
AcDbEntity
  8
SEIHIN
100
AcDbLine
 10
652.207076499016
 20
457.2854054052098
 30
0.0
 11
652.207076499016
 21
458.7854054052098
 31
0.0
  0
LINE
  5
204F
330
1A
100
AcDbEntity
  8
SEIHIN
100
AcDbLine
 10
654.207076499016
 20
460.2854054052098
 30
0.0
 11
654.207076499016
 21
457.2854054052098
 31
0.0
  0
LINE
  5
2454
330
1A
100
AcDbEntity
  8
SEIHIN
  6
Continuous
 62
     3
 48
5.0
100
AcDbLine
 10
147.2631916318728
 20
258.4761365594089
 30
0.0
 11
138.2631916318728
 21
258.4761365594089
 31
0.0
  0
LINE
  5
2455
330
1A
100
AcDbEntity
  8
SEIHIN
  6
Continuous
 62
     3
 48
5.0
100
AcDbLine
 10
233.2631916318726
 20
235.9607250494088
 30
0.0
 11
138.2631916318728
 21
235.9607250494088
 31
0.0
  0
LINE
  5
2456
330
1A
100
AcDbEntity
  8
SEIHIN
  6
Continuous
 62
     3
 48
5.0
100
AcDbLine
 10
138.2631916318728
 20
257.4607250494087
 30
0.0
 11
233.2631916318726
 21
257.4607250494087
 31
0.0
  0
LINE
  5
2457
330
1A
100
AcDbEntity
  8
SEIHIN
  6
Continuous
 62
     3
 48
5.0
100
AcDbLine
 10
233.2631916318726
 20
256.3403936819087
 30
0.0
 11
138.2631916318728
 21
256.3403936819087
 31
0.0
  0
LINE
  5
2458
330
1A
100
AcDbEntity
  8
SEIHIN
  6
Continuous
 62
     3
 48
5.0
100
AcDbLine
 10
233.2631916318726
 20
188.0286078531088
 30
0.0
 11
138.2631916318728
 21
188.0286078531088
 31
0.0
  0
LINE
  5
2459
330
1A
100
AcDbEntity
  8
SEIHIN
  6
Continuous
 62
     3
 48
5.0
100
AcDbLine
 10
233.2631916318726
 20
173.1607250494088
 30
0.0
 11
138.2631916318728
 21
173.1607250494088
 31
0.0
  0
DIMENSION
  5
245A
330
1A
100
AcDbEntity
  8
SUNPOU
100
AcDbDimension
  2
*D9
 10
328.2631916318724
 20
284.3124132856071
 30
0.0
 11
233.2631916318726
 21
289.3124132856071
 31
0.0
 70
    32
 71
     5
 42
189.9999999999996
  3
STANDARD
100
AcDbAlignedDimension
 13
138.2631916318728
 23
258.4761365594089
 33
0.0
 14
328.2631916318724
 24
258.4761365594089
 34
0.0
100
AcDbRotatedDimension
1001
ACAD
1000
DSTYLE
1002
{
1070
    41
1040
7.0
1070
    42
1040
6.0
1070
    43
1040
14.0
1070
    44
1040
3.0
1070
    73
1070
     0
1070
    74
1070
     0
1070
    77
1070
     3
1070
   140
1040
6.0
1070
   141
1040
150.0
1070
   147
1040
2.0
1070
   172
1070
     1
1070
   173
1070
     1
1070
   176
1070
   256
1070
   177
1070
   256
1070
   178
1070
   256
1070
   271
1070
     0
1070
   272
1070
     0
1070
   341
1005
6D
1070
     6
1000
OPEN
1070
     7
1000
OPEN
1070
   371
1070
    -1
1070
   372
1070
    -1
1002
}
  0
LINE
  5
245B
330
1A
100
AcDbEntity
  8
SEIHIN
  6
Continuous
 62
     3
 48
5.0
100
AcDbLine
 10
138.2631916318728
 20
202.7140257400088
 30
0.0
 11
138.2631916318728
 21
195.3713167965588
 31
0.0
  0
LINE
  5
245C
330
1A
100
AcDbEntity
  8
SEIHIN
  6
Continuous
 62
     3
 48
5.0
100
AcDbLine
 10
138.2631916318728
 20
181.4532450950588
 30
0.0
 11
138.2631916318728
 21
174.8778823370088
 31
0.0
  0
LINE
  5
245D
330
1A
100
AcDbEntity
  8
SEIHIN
  6
Continuous
 62
     3
 48
5.0
100
AcDbLine
 10
138.2631916318728
 20
173.1607250494088
 30
0.0
 11
138.2631916318728
 21
174.0193036932088
 31
0.0
  0
LINE
  5
245E
330
1A
100
AcDbEntity
  8
SEIHIN
  6
Continuous
 62
     3
 48
5.0
100
AcDbLine
 10
138.2631916318728
 20
174.0193036932088
 30
0.0
 11
138.2631916318728
 21
174.8778823370088
 31
0.0
  0
LINE
  5
245F
330
1A
100
AcDbEntity
  8
SEIHIN
  6
Continuous
 62
     3
 48
5.0
100
AcDbLine
 10
138.2631916318728
 20
195.3713167965588
 30
0.0
 11
138.2631916318728
 21
188.0286078531088
 31
0.0
  0
LINE
  5
2460
330
1A
100
AcDbEntity
  8
SEIHIN
  6
Continuous
 62
     3
 48
5.0
100
AcDbLine
 10
138.2631916318728
 20
188.0286078531088
 30
0.0
 11
138.2631916318728
 21
181.4532450950588
 31
0.0
  0
LINE
  5
2461
330
1A
100
AcDbEntity
  8
SEIHIN
  6
Continuous
 62
     3
 48
5.0
100
AcDbLine
 10
138.2631916318728
 20
246.5903936819087
 30
0.0
 11
138.2631916318728
 21
236.8403936819087
 31
0.0
  0
LINE
  5
2462
330
1A
100
AcDbEntity
  8
SEIHIN
  6
Continuous
 62
     3
 48
5.0
100
AcDbLine
 10
138.2631916318728
 20
230.4267019393088
 30
0.0
 11
138.2631916318728
 21
216.5703638396588
 31
0.0
  0
LINE
  5
2463
330
1A
100
AcDbEntity
  8
SEIHIN
  6
Continuous
 62
     3
 48
5.0
100
AcDbLine
 10
138.2631916318728
 20
216.5703638396588
 30
0.0
 11
138.2631916318728
 21
202.7140257400088
 31
0.0
  0
LINE
  5
2464
330
1A
100
AcDbEntity
  8
SEIHIN
  6
Continuous
 62
     3
 48
5.0
100
AcDbLine
 10
138.2631916318728
 20
235.9607250494088
 30
0.0
 11
138.2631916318728
 21
233.1937134943588
 31
0.0
  0
LINE
  5
2465
330
1A
100
AcDbEntity
  8
SEIHIN
  6
Continuous
 62
     3
 48
5.0
100
AcDbLine
 10
138.2631916318728
 20
233.1937134943588
 30
0.0
 11
138.2631916318728
 21
230.4267019393088
 31
0.0
  0
LINE
  5
2466
330
1A
100
AcDbEntity
  8
SEIHIN
  6
Continuous
 62
     3
 48
5.0
100
AcDbLine
 10
138.2631916318728
 20
235.9607250494088
 30
0.0
 11
138.2631916318728
 21
236.4005593656587
 31
0.0
  0
LINE
  5
2467
330
1A
100
AcDbEntity
  8
SEIHIN
  6
Continuous
 62
     3
 48
5.0
100
AcDbLine
 10
138.2631916318728
 20
236.4005593656587
 30
0.0
 11
138.2631916318728
 21
236.8403936819087
 31
0.0
  0
LINE
  5
2468
330
1A
100
AcDbEntity
  8
SEIHIN
  6
Continuous
 62
     3
 48
5.0
100
AcDbLine
 10
138.2631916318728
 20
258.2499842978087
 30
0.0
 11
138.2631916318728
 21
257.8553546736087
 31
0.0
  0
LINE
  5
2469
330
1A
100
AcDbEntity
  8
SEIHIN
  6
Continuous
 62
     3
 48
5.0
100
AcDbLine
 10
138.2631916318728
 20
256.9005593656587
 30
0.0
 11
138.2631916318728
 21
257.4607250494087
 31
0.0
  0
LINE
  5
246A
330
1A
100
AcDbEntity
  8
SEIHIN
  6
Continuous
 62
     3
 48
5.0
100
AcDbLine
 10
138.2631916318728
 20
256.3403936819087
 30
0.0
 11
138.2631916318728
 21
256.9005593656587
 31
0.0
  0
LINE
  5
246B
330
1A
100
AcDbEntity
  8
SEIHIN
  6
Continuous
 62
     3
 48
5.0
100
AcDbLine
 10
138.2631916318728
 20
257.8553546736087
 30
0.0
 11
138.2631916318728
 21
257.4607250494087
 31
0.0
  0
LINE
  5
246C
330
1A
100
AcDbEntity
  8
SEIHIN
  6
Continuous
 62
     3
 48
5.0
100
AcDbLine
 10
138.2631916318728
 20
256.3403936819087
 30
0.0
 11
138.2631916318728
 21
246.5903936819087
 31
0.0
  0
LINE
  5
246D
330
1A
100
AcDbEntity
  8
SEIHIN
  6
Continuous
 62
     3
 48
5.0
100
AcDbLine
 10
138.2631916318728
 20
258.2499842978087
 30
0.0
 11
138.2631916318728
 21
258.3630604286088
 31
0.0
  0
LINE
  5
246E
330
1A
100
AcDbEntity
  8
SEIHIN
  6
Continuous
 62
     3
 48
5.0
100
AcDbLine
 10
138.2631916318728
 20
258.3630604286088
 30
0.0
 11
138.2631916318728
 21
258.4761365594089
 31
0.0
  0
LINE
  5
246F
330
1A
100
AcDbEntity
  8
CENTER L
  6
CENTER
 62
     1
 48
5.0
100
AcDbLine
 10
233.2631916318728
 20
94.77869483367043
 30
0.0
 11
233.2631916318728
 21
269.6352956078292
 31
0.0
  0
LINE
  5
2470
330
1A
100
AcDbEntity
  8
SEIHIN
  6
Continuous
 62
     3
 48
5.0
100
AcDbLine
 10
328.2631916318724
 20
188.0286078531088
 30
0.0
 11
233.2631916318726
 21
188.0286078531088
 31
0.0
  0
LINE
  5
2471
330
1A
100
AcDbEntity
  8
SEIHIN
  6
Continuous
 62
     3
 48
5.0
100
AcDbLine
 10
328.2631916318724
 20
173.1607250494088
 30
0.0
 11
233.2631916318726
 21
173.1607250494088
 31
0.0
  0
LINE
  5
2472
330
1A
100
AcDbEntity
  8
SEIHIN
  6
Continuous
 62
     3
 48
5.0
100
AcDbLine
 10
328.2631916318724
 20
235.9607250494088
 30
0.0
 11
233.2631916318726
 21
235.9607250494088
 31
0.0
  0
LINE
  5
2473
330
1A
100
AcDbEntity
  8
SEIHIN
  6
Continuous
 62
     3
 48
5.0
100
AcDbLine
 10
233.2631916318726
 20
257.4607250494087
 30
0.0
 11
328.2631916318724
 21
257.4607250494087
 31
0.0
  0
LINE
  5
2474
330
1A
100
AcDbEntity
  8
SEIHIN
  6
Continuous
 62
     3
 48
5.0
100
AcDbLine
 10
328.2631916318724
 20
256.3403936819087
 30
0.0
 11
233.2631916318726
 21
256.3403936819087
 31
0.0
  0
LINE
  5
2475
330
1A
100
AcDbEntity
  8
SEIHIN
  6
Continuous
 62
     3
 48
5.0
100
AcDbLine
 10
284.1210560080726
 20
153.1607250494088
 30
0.0
 11
233.2631916318228
 21
153.1607250494088
 31
0.0
  0
LINE
  5
2476
330
1A
100
AcDbEntity
  8
SEIHIN
100
AcDbLine
 10
204.0628916318226
 20
109.4605750494088
 30
0.0
 11
233.2628916318226
 21
109.4606950494088
 31
0.0
  0
LINE
  5
2477
330
1A
100
AcDbEntity
  8
SEIHIN
100
AcDbLine
 10
233.2628916318226
 20
115.4607450494088
 30
0.0
 11
198.2629916318226
 21
115.4605550494088
 31
0.0
  0
LINE
  5
2478
330
1A
100
AcDbEntity
  8
SEIHIN
100
AcDbLine
 10
262.4631916318226
 20
109.4607250494088
 30
0.0
 11
204.0631916318225
 21
109.4607250494088
 31
0.0
  0
LINE
  5
2479
330
1A
100
AcDbEntity
  8
SEIHIN
100
AcDbLine
 10
204.0631916318225
 20
109.4607250494088
 30
0.0
 11
262.4631916318226
 21
109.4607250494088
 31
0.0
  0
LINE
  5
247A
330
1A
100
AcDbEntity
  8
SEIHIN
  6
Continuous
 62
     3
 48
5.0
100
AcDbLine
 10
233.2631916318228
 20
153.1607250494088
 30
0.0
 11
182.4053272555725
 21
153.1607250494088
 31
0.0
  0
LINE
  5
247B
330
1A
100
AcDbEntity
  8
SEIHIN
  6
Continuous
 62
     3
 48
5.0
100
AcDbLine
 10
180.4498964425725
 20
153.3146207920088
 30
0.0
 11
178.5426148258725
 21
153.7725185957088
 31
0.0
  0
LINE
  5
247C
330
1A
100
AcDbEntity
  8
SEIHIN
100
AcDbLine
 10
196.4572916318225
 20
129.4751350494088
 30
0.0
 11
195.1127916318226
 21
152.8605350494088
 31
0.0
  0
ARC
  5
247D
330
1A
100
AcDbEntity
  8
SEIHIN
100
AcDbCircle
 10
296.2923945905227
 20
135.2148120864088
 30
0.0
 40
99.99994689709999
100
AcDbArc
 50
183.2902880011004
 51
191.3932220468012
  0
LINE
  5
247E
330
1A
100
AcDbEntity
  8
SEIHIN
100
AcDbLine
 10
204.0630916318228
 20
109.4605750494088
 30
0.0
 11
204.0631916318225
 21
115.4608150494088
 31
0.0
  0
LINE
  5
247F
330
1A
100
AcDbEntity
  8
SEIHIN
  6
Continuous
 62
     3
 48
5.0
100
AcDbLine
 10
182.4053272555725
 20
153.1607250494088
 30
0.0
 11
180.4498964425725
 21
153.3146207920088
 31
0.0
  0
LINE
  5
2480
330
1A
100
AcDbEntity
  8
SEIHIN
  6
Continuous
 62
     3
 48
5.0
100
AcDbLine
 10
178.5426148258725
 20
153.7725185957088
 30
0.0
 11
176.7304460087726
 21
154.5231434971088
 31
0.0
  0
LINE
  5
2481
330
1A
100
AcDbEntity
  8
SEIHIN
  6
Continuous
 62
     3
 48
5.0
100
AcDbLine
 10
166.4954246788727
 20
163.8929580964588
 30
0.0
 11
159.4243568669726
 21
170.9640259083088
 31
0.0
  0
LINE
  5
2482
330
1A
100
AcDbEntity
  8
SEIHIN
  6
Continuous
 62
     3
 48
5.0
100
AcDbLine
 10
159.4243568669726
 20
170.9640259083088
 30
0.0
 11
159.3407903200728
 21
171.0462959303088
 31
0.0
  0
LINE
  5
2483
330
1A
100
AcDbEntity
  8
SEIHIN
  6
Continuous
 62
     3
 48
5.0
100
AcDbLine
 10
159.3407903200728
 20
171.0462959303088
 30
0.0
 11
159.2559476780725
 21
171.1272493142088
 31
0.0
  0
LINE
  5
2484
330
1A
100
AcDbEntity
  8
SEIHIN
  6
Continuous
 62
     3
 48
5.0
100
AcDbLine
 10
159.2559476780725
 20
171.1272493142088
 30
0.0
 11
157.9307886777724
 21
172.1210607207088
 31
0.0
  0
LINE
  5
2485
330
1A
100
AcDbEntity
  8
SEIHIN
  6
Continuous
 62
     3
 48
5.0
100
AcDbLine
 10
154.1210560080726
 20
173.1607250494088
 30
0.0
 11
154.1403757768726
 21
173.1607185011088
 31
0.0
  0
LINE
  5
2486
330
1A
100
AcDbEntity
  8
SEIHIN
  6
Continuous
 62
     3
 48
5.0
100
AcDbLine
 10
154.1351879330728
 20
173.1607117353088
 30
0.0
 11
154.1210560080726
 21
173.1607250494088
 31
0.0
  0
LINE
  5
2487
330
1A
100
AcDbEntity
  8
SEIHIN
  6
Continuous
 62
     3
 48
5.0
100
AcDbLine
 10
155.7841177768728
 20
172.9740160701087
 30
0.0
 11
154.1351879330728
 21
173.1607117353088
 31
0.0
  0
LINE
  5
2488
330
1A
100
AcDbEntity
  8
SEIHIN
  6
Continuous
 62
     3
 48
5.0
100
AcDbLine
 10
157.9307886777724
 20
172.1210607207088
 30
0.0
 11
155.7841177768728
 21
172.9740160701087
 31
0.0
  0
LINE
  5
2489
330
1A
100
AcDbEntity
  8
SEIHIN
  6
Continuous
 62
     3
 48
5.0
100
AcDbLine
 10
173.5664924907728
 20
156.8218902846088
 30
0.0
 11
166.4954246788727
 21
163.8929580964588
 31
0.0
  0
LINE
  5
248A
330
1A
100
AcDbEntity
  8
SEIHIN
  6
Continuous
 62
     3
 48
5.0
100
AcDbLine
 10
176.7304460087726
 20
154.5231434971088
 30
0.0
 11
175.0580116018728
 21
155.5480126198088
 31
0.0
  0
LINE
  5
248B
330
1A
100
AcDbEntity
  8
SEIHIN
  6
Continuous
 62
     3
 48
5.0
100
AcDbLine
 10
175.0580116018728
 20
155.5480126198088
 30
0.0
 11
173.5664924907728
 21
156.8218902846088
 31
0.0
  0
LINE
  5
248C
330
1A
100
AcDbEntity
  8
SEIHIN
100
AcDbLine
 10
233.2631916318226
 20
115.4607450494088
 30
0.0
 11
268.2631916318226
 21
115.4605150494088
 31
0.0
  0
LINE
  5
248D
330
1A
100
AcDbEntity
  8
SEIHIN
100
AcDbLine
 10
262.4632916318226
 20
109.4605750494088
 30
0.0
 11
233.2631916318226
 21
109.4607250494088
 31
0.0
  0
LINE
  5
248E
330
1A
100
AcDbEntity
  8
SEIHIN
100
AcDbLine
 10
233.2634916318225
 20
115.4607450494088
 30
0.0
 11
268.2633916318227
 21
115.4605550494088
 31
0.0
  0
LINE
  5
248F
330
1A
100
AcDbEntity
  8
SEIHIN
100
AcDbLine
 10
262.4634916318225
 20
109.4605750494088
 30
0.0
 11
233.2634916318225
 21
109.4606950494088
 31
0.0
  0
LINE
  5
2490
330
1A
100
AcDbEntity
  8
SEIHIN
100
AcDbLine
 10
270.0689916318227
 20
129.4751350494088
 30
0.0
 11
271.4134916318226
 21
152.8605350494088
 31
0.0
  0
LINE
  5
2491
330
1A
100
AcDbEntity
  8
SEIHIN
100
AcDbLine
 10
270.0690916318226
 20
129.4751350494088
 30
0.0
 11
271.4135916318226
 21
152.8605350494088
 31
0.0
  0
ARC
  5
2492
330
1A
100
AcDbEntity
  8
SEIHIN
100
AcDbCircle
 10
170.2338371958226
 20
135.2152886764088
 30
0.0
 40
100.0000428648
100
AcDbArc
 50
348.6063643594991
 51
356.7092694720998
  0
ARC
  5
2493
330
1A
100
AcDbEntity
  8
SEIHIN
100
AcDbCircle
 10
170.2339886731224
 20
135.2148120864088
 30
0.0
 40
99.99994689709999
100
AcDbArc
 50
348.6067779531987
 51
356.7097119988996
  0
LINE
  5
2494
330
1A
100
AcDbEntity
  8
SEIHIN
100
AcDbLine
 10
262.4630916318226
 20
109.4605750494088
 30
0.0
 11
262.4630916318226
 21
115.4608150494088
 31
0.0
  0
LINE
  5
2495
330
1A
100
AcDbEntity
  8
SEIHIN
100
AcDbLine
 10
262.4632916318226
 20
109.4605750494088
 30
0.0
 11
262.4631916318226
 21
115.4608150494088
 31
0.0
  0
LINE
  5
2496
330
1A
100
AcDbEntity
  8
SEIHIN
  6
Continuous
 62
     3
 48
5.0
100
AcDbLine
 10
156.2631916318728
 20
258.2499842978087
 30
0.0
 11
156.2631916318728
 21
257.8553546736087
 31
0.0
  0
LINE
  5
2497
330
1A
100
AcDbEntity
  8
SEIHIN
  6
Continuous
 62
     3
 48
5.0
100
AcDbLine
 10
156.2631916318728
 20
257.8553546736087
 30
0.0
 11
156.2631916318728
 21
257.4607250494087
 31
0.0
  0
LINE
  5
2498
330
1A
100
AcDbEntity
  8
SEIHIN
  6
Continuous
 62
     3
 48
5.0
100
AcDbLine
 10
156.2631916318728
 20
258.4761365594089
 30
0.0
 11
147.2631916318728
 21
258.4761365594089
 31
0.0
  0
LINE
  5
2499
330
1A
100
AcDbEntity
  8
SEIHIN
  6
Continuous
 62
     3
 48
5.0
100
AcDbLine
 10
156.2631916318728
 20
258.4761365594089
 30
0.0
 11
156.2631916318728
 21
258.3630604286088
 31
0.0
  0
LINE
  5
249A
330
1A
100
AcDbEntity
  8
SEIHIN
  6
Continuous
 62
     3
 48
5.0
100
AcDbLine
 10
156.2631916318728
 20
258.3630604286088
 30
0.0
 11
156.2631916318728
 21
258.2499842978087
 31
0.0
  0
LINE
  5
249B
330
1A
100
AcDbEntity
  8
SEIHIN
  6
Continuous
 62
     3
 48
5.0
100
AcDbLine
 10
328.2631916318724
 20
202.7140257400088
 30
0.0
 11
328.2631916318724
 21
195.3713167965588
 31
0.0
  0
LINE
  5
249C
330
1A
100
AcDbEntity
  8
SEIHIN
  6
Continuous
 62
     3
 48
5.0
100
AcDbLine
 10
287.9837684377726
 20
153.7725185957088
 30
0.0
 11
286.0764868210727
 21
153.3146207920088
 31
0.0
  0
LINE
  5
249D
330
1A
100
AcDbEntity
  8
SEIHIN
  6
Continuous
 62
     3
 48
5.0
100
AcDbLine
 10
286.0764868210727
 20
153.3146207920088
 30
0.0
 11
284.1210560080726
 21
153.1607250494088
 31
0.0
  0
LINE
  5
249E
330
1A
100
AcDbEntity
  8
SEIHIN
  6
Continuous
 62
     3
 48
5.0
100
AcDbLine
 10
310.7422654867723
 20
172.9740160701087
 30
0.0
 11
308.5955945858727
 21
172.1210607207088
 31
0.0
  0
LINE
  5
249F
330
1A
100
AcDbEntity
  8
SEIHIN
  6
Continuous
 62
     3
 48
5.0
100
AcDbLine
 10
292.9598907729724
 20
156.8218902846088
 30
0.0
 11
291.4683716617724
 21
155.5480126198088
 31
0.0
  0
LINE
  5
24A0
330
1A
100
AcDbEntity
  8
SEIHIN
  6
Continuous
 62
     3
 48
5.0
100
AcDbLine
 10
289.7959372548726
 20
154.5231434971088
 30
0.0
 11
287.9837684377726
 21
153.7725185957088
 31
0.0
  0
LINE
  5
24A1
330
1A
100
AcDbEntity
  8
SEIHIN
  6
Continuous
 62
     3
 48
5.0
100
AcDbLine
 10
291.4683716617724
 20
155.5480126198088
 30
0.0
 11
289.7959372548726
 21
154.5231434971088
 31
0.0
  0
LINE
  5
24A2
330
1A
100
AcDbEntity
  8
SEIHIN
  6
Continuous
 62
     3
 48
5.0
100
AcDbLine
 10
307.1020263966725
 20
170.9640259083088
 30
0.0
 11
300.0309585848227
 21
163.8929580964588
 31
0.0
  0
LINE
  5
24A3
330
1A
100
AcDbEntity
  8
SEIHIN
  6
Continuous
 62
     3
 48
5.0
100
AcDbLine
 10
292.9598907729724
 20
156.8218902846088
 30
0.0
 11
292.9100814062726
 21
156.8197369487087
 31
0.0
  0
LINE
  5
24A4
330
1A
100
AcDbEntity
  8
SEIHIN
  6
Continuous
 62
     3
 48
5.0
100
AcDbLine
 10
300.0309585848227
 20
163.8929580964588
 30
0.0
 11
292.9598907729724
 21
156.8218902846088
 31
0.0
  0
LINE
  5
24A5
330
1A
100
AcDbEntity
  8
SEIHIN
  6
Continuous
 62
     3
 48
5.0
100
AcDbLine
 10
308.5955945858727
 20
172.1210607207088
 30
0.0
 11
307.2704355855726
 21
171.1272493142088
 31
0.0
  0
LINE
  5
24A6
330
1A
100
AcDbEntity
  8
SEIHIN
  6
Continuous
 62
     3
 48
5.0
100
AcDbLine
 10
307.2704355855726
 20
171.1272493142088
 30
0.0
 11
307.1855929435724
 21
171.0462959303088
 31
0.0
  0
LINE
  5
24A7
330
1A
100
AcDbEntity
  8
SEIHIN
  6
Continuous
 62
     3
 48
5.0
100
AcDbLine
 10
307.1855929435724
 20
171.0462959303088
 30
0.0
 11
307.1020263966725
 21
170.9640259083088
 31
0.0
  0
LINE
  5
24A8
330
1A
100
AcDbEntity
  8
SEIHIN
  6
Continuous
 62
     3
 48
5.0
100
AcDbLine
 10
328.2631916318724
 20
181.4532450950588
 30
0.0
 11
328.2631916318724
 21
174.8778823370088
 31
0.0
  0
LINE
  5
24A9
330
1A
100
AcDbEntity
  8
SEIHIN
  6
Continuous
 62
     3
 48
5.0
100
AcDbLine
 10
312.4053272555725
 20
173.1607250494088
 30
0.0
 11
312.3911953306724
 21
173.1607117353088
 31
0.0
  0
LINE
  5
24AA
330
1A
100
AcDbEntity
  8
SEIHIN
  6
Continuous
 62
     3
 48
5.0
100
AcDbLine
 10
312.3911953306724
 20
173.1607117353088
 30
0.0
 11
310.7422654867723
 21
172.9740160701087
 31
0.0
  0
LINE
  5
24AB
330
1A
100
AcDbEntity
  8
SEIHIN
  6
Continuous
 62
     3
 48
5.0
100
AcDbLine
 10
312.3860074867725
 20
173.1607185011088
 30
0.0
 11
312.4053272555725
 21
173.1607250494088
 31
0.0
  0
LINE
  5
24AC
330
1A
100
AcDbEntity
  8
SEIHIN
  6
Continuous
 62
     3
 48
5.0
100
AcDbLine
 10
328.2631916318724
 20
174.8778823370088
 30
0.0
 11
328.2631916318724
 21
174.0193036932088
 31
0.0
  0
LINE
  5
24AD
330
1A
100
AcDbEntity
  8
SEIHIN
  6
Continuous
 62
     3
 48
5.0
100
AcDbLine
 10
328.2631916318724
 20
174.0193036932088
 30
0.0
 11
328.2631916318724
 21
173.1607250494088
 31
0.0
  0
LINE
  5
24AE
330
1A
100
AcDbEntity
  8
SEIHIN
  6
Continuous
 62
     3
 48
5.0
100
AcDbLine
 10
328.2631916318724
 20
195.3713167965588
 30
0.0
 11
328.2631916318724
 21
188.0286078531088
 31
0.0
  0
LINE
  5
24AF
330
1A
100
AcDbEntity
  8
SEIHIN
  6
Continuous
 62
     3
 48
5.0
100
AcDbLine
 10
328.2631916318724
 20
188.0286078531088
 30
0.0
 11
328.2631916318724
 21
181.4532450950588
 31
0.0
  0
LINE
  5
24B0
330
1A
100
AcDbEntity
  8
SEIHIN
  6
Continuous
 62
     3
 48
5.0
100
AcDbLine
 10
328.2631916318724
 20
246.5903936819087
 30
0.0
 11
328.2631916318724
 21
236.8403936819087
 31
0.0
  0
LINE
  5
24B1
330
1A
100
AcDbEntity
  8
SEIHIN
  6
Continuous
 62
     3
 48
5.0
100
AcDbLine
 10
328.2631916318724
 20
230.4267019393088
 30
0.0
 11
328.2631916318724
 21
216.5703638396588
 31
0.0
  0
LINE
  5
24B2
330
1A
100
AcDbEntity
  8
SEIHIN
  6
Continuous
 62
     3
 48
5.0
100
AcDbLine
 10
328.2631916318724
 20
216.5703638396588
 30
0.0
 11
328.2631916318724
 21
202.7140257400088
 31
0.0
  0
LINE
  5
24B3
330
1A
100
AcDbEntity
  8
SEIHIN
  6
Continuous
 62
     3
 48
5.0
100
AcDbLine
 10
328.2631916318724
 20
235.9607250494088
 30
0.0
 11
328.2631916318724
 21
233.1937134943588
 31
0.0
  0
LINE
  5
24B4
330
1A
100
AcDbEntity
  8
SEIHIN
  6
Continuous
 62
     3
 48
5.0
100
AcDbLine
 10
328.2631916318724
 20
233.1937134943588
 30
0.0
 11
328.2631916318724
 21
230.4267019393088
 31
0.0
  0
LINE
  5
24B5
330
1A
100
AcDbEntity
  8
SEIHIN
  6
Continuous
 62
     3
 48
5.0
100
AcDbLine
 10
328.2631916318724
 20
236.8403936819087
 30
0.0
 11
328.2631916318724
 21
236.4005593656587
 31
0.0
  0
LINE
  5
24B6
330
1A
100
AcDbEntity
  8
SEIHIN
  6
Continuous
 62
     3
 48
5.0
100
AcDbLine
 10
328.2631916318724
 20
236.4005593656587
 30
0.0
 11
328.2631916318724
 21
235.9607250494088
 31
0.0
  0
LINE
  5
24B7
330
1A
100
AcDbEntity
  8
SEIHIN
  6
Continuous
 62
     3
 48
5.0
100
AcDbLine
 10
328.2631916318724
 20
258.4761365594089
 30
0.0
 11
319.2631916318724
 21
258.4761365594089
 31
0.0
  0
LINE
  5
24B8
330
1A
100
AcDbEntity
  8
SEIHIN
  6
Continuous
 62
     3
 48
5.0
100
AcDbLine
 10
310.2631916318724
 20
258.2499842978087
 30
0.0
 11
310.2631916318724
 21
257.8553546736087
 31
0.0
  0
LINE
  5
24B9
330
1A
100
AcDbEntity
  8
SEIHIN
  6
Continuous
 62
     3
 48
5.0
100
AcDbLine
 10
310.2631916318724
 20
257.8553546736087
 30
0.0
 11
310.2631916318724
 21
257.4607250494087
 31
0.0
  0
LINE
  5
24BA
330
1A
100
AcDbEntity
  8
SEIHIN
  6
Continuous
 62
     3
 48
5.0
100
AcDbLine
 10
319.2631916318724
 20
258.4761365594089
 30
0.0
 11
310.2631916318724
 21
258.4761365594089
 31
0.0
  0
LINE
  5
24BB
330
1A
100
AcDbEntity
  8
SEIHIN
  6
Continuous
 62
     3
 48
5.0
100
AcDbLine
 10
310.2631916318724
 20
258.2499842978087
 30
0.0
 11
310.2631916318724
 21
258.3630604286088
 31
0.0
  0
LINE
  5
24BC
330
1A
100
AcDbEntity
  8
SEIHIN
  6
Continuous
 62
     3
 48
5.0
100
AcDbLine
 10
310.2631916318724
 20
258.3630604286088
 30
0.0
 11
310.2631916318724
 21
258.4761365594089
 31
0.0
  0
LINE
  5
24BD
330
1A
100
AcDbEntity
  8
SEIHIN
  6
Continuous
 62
     3
 48
5.0
100
AcDbLine
 10
328.2631916318724
 20
258.2499842978087
 30
0.0
 11
328.2631916318724
 21
257.8553546736087
 31
0.0
  0
LINE
  5
24BE
330
1A
100
AcDbEntity
  8
SEIHIN
  6
Continuous
 62
     3
 48
5.0
100
AcDbLine
 10
328.2631916318724
 20
257.4607250494087
 30
0.0
 11
328.2631916318724
 21
256.9005593656587
 31
0.0
  0
LINE
  5
24BF
330
1A
100
AcDbEntity
  8
SEIHIN
  6
Continuous
 62
     3
 48
5.0
100
AcDbLine
 10
328.2631916318724
 20
256.9005593656587
 30
0.0
 11
328.2631916318724
 21
256.3403936819087
 31
0.0
  0
LINE
  5
24C0
330
1A
100
AcDbEntity
  8
SEIHIN
  6
Continuous
 62
     3
 48
5.0
100
AcDbLine
 10
328.2631916318724
 20
257.8553546736087
 30
0.0
 11
328.2631916318724
 21
257.4607250494087
 31
0.0
  0
LINE
  5
24C1
330
1A
100
AcDbEntity
  8
SEIHIN
  6
Continuous
 62
     3
 48
5.0
100
AcDbLine
 10
328.2631916318724
 20
256.3403936819087
 30
0.0
 11
328.2631916318724
 21
246.5903936819087
 31
0.0
  0
LINE
  5
24C2
330
1A
100
AcDbEntity
  8
SEIHIN
  6
Continuous
 62
     3
 48
5.0
100
AcDbLine
 10
328.2631916318724
 20
258.4761365594089
 30
0.0
 11
328.2631916318724
 21
258.3630604286088
 31
0.0
  0
LINE
  5
24C3
330
1A
100
AcDbEntity
  8
SEIHIN
  6
Continuous
 62
     3
 48
5.0
100
AcDbLine
 10
328.2631916318724
 20
258.3630604286088
 30
0.0
 11
328.2631916318724
 21
258.2499842978087
 31
0.0
  0
LINE
  5
24C4
330
1A
100
AcDbEntity
  8
SEIHIN
  6
Continuous
 62
     3
 48
5.0
100
AcDbLine
 10
233.2631916318729
 20
495.6787848428861
 30
0.0
 11
138.2631916318731
 21
495.6787848428864
 31
0.0
  0
LINE
  5
24C5
330
1A
100
AcDbEntity
  8
SEIHIN
  6
Continuous
 62
     3
 48
5.0
100
AcDbLine
 10
147.2631916318733
 20
484.1287848428858
 30
0.0
 11
138.2631916318731
 21
484.1287848428854
 31
0.0
  0
LINE
  5
24C6
330
1A
100
AcDbEntity
  8
SEIHIN
  6
Continuous
 62
     3
 48
5.0
100
AcDbLine
 10
138.2631916318733
 20
393.4169857373859
 30
0.0
 11
233.263191631873
 21
393.4169857373861
 31
0.0
  0
LINE
  5
24C7
330
1A
100
AcDbEntity
  8
SEIHIN
  6
Continuous
 62
     3
 48
5.0
100
AcDbLine
 10
138.2631916318736
 20
395.1716775533861
 30
0.0
 11
148.2631916318736
 21
395.1716775533861
 31
0.0
  0
LINE
  5
24C8
330
1A
100
AcDbEntity
  8
SEIHIN
  6
Continuous
 62
     3
 48
5.0
100
AcDbLine
 10
233.2631916318731
 20
359.6241884519858
 30
0.0
 11
138.2631916318733
 21
359.6241884519864
 31
0.0
  0
LINE
  5
24C9
330
1A
100
AcDbEntity
  8
SEIHIN
  6
Continuous
 62
     3
 48
5.0
100
AcDbLine
 10
138.2631916318736
 20
379.6184993975857
 30
0.0
 11
233.2631916318731
 21
379.6184993975862
 31
0.0
  0
LINE
  5
24CA
330
1A
100
AcDbEntity
  8
SEIHIN
  6
Continuous
 62
     3
 48
5.0
100
AcDbLine
 10
138.2631916318733
 20
383.5335652031861
 30
0.0
 11
233.263191631873
 21
383.5335652031862
 31
0.0
  0
LINE
  5
24CB
330
1A
100
AcDbEntity
  8
SEIHIN
  6
Continuous
 62
     3
 48
5.0
100
AcDbLine
 10
147.2631916318738
 20
373.8431329604857
 30
0.0
 11
138.2631916318736
 21
373.8431329604864
 31
0.0
  0
LINE
  5
24CC
330
1A
100
AcDbEntity
  8
SEIHIN
  6
Continuous
 62
     3
 48
5.0
100
AcDbLine
 10
138.2631916318733
 20
374.444711776986
 30
0.0
 11
147.2631916318733
 21
374.4447117769855
 31
0.0
  0
LINE
  5
24CD
330
1A
100
AcDbEntity
  8
SEIHIN
  6
Continuous
 62
     3
 48
5.0
100
AcDbLine
 10
147.2631916318733
 20
370.1169857373859
 30
0.0
 11
138.2631916318733
 21
370.1169857373864
 31
0.0
  0
LINE
  5
24CE
330
1A
100
AcDbEntity
  8
SEIHIN
  6
Continuous
 62
     3
 48
5.0
100
AcDbLine
 10
138.2631916318735
 20
359.6241884519856
 30
0.0
 11
138.2631916318728
 21
495.678784842886
 31
0.0
  0
LINE
  5
24CF
330
1A
100
AcDbEntity
  8
SEIHIN
  6
Continuous
 62
     3
 48
5.0
100
AcDbLine
 10
328.263191631873
 20
440.0786603823362
 30
0.0
 11
328.263191631873
 21
495.6787848428864
 31
0.0
  0
LINE
  5
24D0
330
1A
100
AcDbEntity
  8
SEIHIN
  6
Continuous
 62
     3
 48
5.0
100
AcDbLine
 10
308.263191631873
 20
440.0786603823361
 30
0.0
 11
308.2631916318728
 21
483.0057442238861
 31
0.0
  0
LINE
  5
24D1
330
1A
100
AcDbEntity
  8
SEIHIN
  6
Continuous
 62
     3
 48
5.0
100
AcDbLine
 10
284.121062210673
 20
442.6566885134361
 30
0.0
 11
284.121062210673
 21
484.008791046386
 31
0.0
  0
LINE
  5
24D2
330
1A
100
AcDbEntity
  8
SEIHIN
  6
Continuous
 62
     3
 48
5.0
100
AcDbLine
 10
234.2631916318731
 20
478.2771482246862
 30
0.0
 11
234.2631916318731
 21
479.7756040793859
 31
0.0
  0
LINE
  5
24D3
330
1A
100
AcDbEntity
  8
SEIHIN
  6
Continuous
 62
     3
 48
5.0
100
AcDbLine
 10
232.2631916318731
 20
478.2771482246862
 30
0.0
 11
232.2631916318731
 21
479.7756040793859
 31
0.0
  0
ARC
  5
24D4
330
1A
100
AcDbEntity
  8
SEIHIN
  6
Continuous
 62
     3
 48
5.0
100
AcDbCircle
 10
233.2631916318729
 20
442.7678429435861
 30
0.0
 40
31.36666666669998
100
AcDbArc
 50
0.0
 51
90.0
  0
ARC
  5
24D5
330
1A
100
AcDbEntity
  8
SEIHIN
  6
Continuous
 62
     3
 48
5.0
100
AcDbCircle
 10
233.2631916318729
 20
442.7678429435861
 30
0.0
 40
35.59999999999991
100
AcDbArc
 50
0.0
 51
88.39035626450614
  0
LINE
  5
24D6
330
1A
100
AcDbEntity
  8
SEIHIN
  6
Continuous
 62
     3
 48
5.0
100
AcDbLine
 10
182.4053210530731
 20
442.6566885134361
 30
0.0
 11
182.4053210530731
 21
484.0087910463859
 31
0.0
  0
LINE
  5
24D7
330
1A
100
AcDbEntity
  8
SEIHIN
  6
Continuous
 62
     3
 48
5.0
100
AcDbLine
 10
158.2631916318731
 20
440.078660382336
 30
0.0
 11
158.2631916318733
 21
483.005744223886
 31
0.0
  0
ARC
  5
24D8
330
1A
100
AcDbEntity
  8
SEIHIN
  6
Continuous
 62
     3
 48
5.0
100
AcDbCircle
 10
233.2631916318733
 20
442.7678429435861
 30
0.0
 40
35.59999999999991
100
AcDbArc
 50
91.60964373549386
 51
180.0
  0
ARC
  5
24D9
330
1A
100
AcDbEntity
  8
SEIHIN
  6
Continuous
 62
     3
 48
5.0
100
AcDbCircle
 10
233.2631916318733
 20
442.7678429435861
 30
0.0
 40
31.36666666669998
100
AcDbArc
 50
90.0
 51
180.0
  0
LINE
  5
24DA
330
1A
100
AcDbEntity
  8
CENTER L
  6
PHANTOM
 62
     4
 48
5.0
100
AcDbLine
 10
265.7631916318731
 20
352.4987450448213
 30
0.0
 11
265.7631916318729
 21
493.1787848428853
 31
0.0
  0
LINE
  5
24DB
330
1A
100
AcDbEntity
  8
CENTER L
  6
PHANTOM
 62
     4
 48
5.0
100
AcDbLine
 10
200.7631916318731
 20
352.4987450448215
 30
0.0
 11
200.7631916318729
 21
493.178784842886
 31
0.0
  0
LINE
  5
24DC
330
1A
100
AcDbEntity
  8
CENTER L
  6
CENTER
 62
     1
 48
5.0
100
AcDbLine
 10
233.2631916318731
 20
353.4635534180768
 30
0.0
 11
233.2631916318729
 21
503.545327969575
 31
0.0
  0
LINE
  5
24DD
330
1A
100
AcDbEntity
  8
SEIHIN
  6
Continuous
 62
     3
 48
5.0
100
AcDbLine
 10
328.263191631873
 20
393.416985737386
 30
0.0
 11
233.263191631873
 21
393.416985737386
 31
0.0
  0
LINE
  5
24DE
330
1A
100
AcDbEntity
  8
SEIHIN
  6
Continuous
 62
     3
 48
5.0
100
AcDbLine
 10
328.263191631873
 20
383.5335652031862
 30
0.0
 11
233.263191631873
 21
383.5335652031861
 31
0.0
  0
LINE
  5
24DF
330
1A
100
AcDbEntity
  8
SEIHIN
  6
Continuous
 62
     3
 48
5.0
100
AcDbLine
 10
328.2631916318728
 20
379.6184993975859
 30
0.0
 11
233.2631916318731
 21
379.6184993975862
 31
0.0
  0
LINE
  5
24E0
330
1A
100
AcDbEntity
  8
SEIHIN
  6
Continuous
 62
     3
 48
5.0
100
AcDbLine
 10
233.2631916318731
 20
359.6241884519861
 30
0.0
 11
328.263191631873
 21
359.6241884519865
 31
0.0
  0
LINE
  5
24E1
330
1A
100
AcDbEntity
  8
SEIHIN
  6
Continuous
 62
     3
 48
5.0
100
AcDbLine
 10
305.063191631873
 20
395.171677553386
 30
0.0
 11
233.2631916318731
 21
395.1716775533864
 31
0.0
  0
LINE
  5
24E2
330
1A
100
AcDbEntity
  8
SEIHIN
  6
Continuous
 62
     3
 48
5.0
100
AcDbLine
 10
284.121062210673
 20
401.3045859804863
 30
0.0
 11
259.1921273385231
 21
401.3045859804863
 31
0.0
  0
LINE
  5
24E3
330
1A
100
AcDbEntity
  8
SEIHIN
  6
Continuous
 62
     3
 48
5.0
100
AcDbLine
 10
233.2631916318731
 20
365.2030957212858
 30
0.0
 11
310.2631974731733
 21
365.2030957212861
 31
0.0
  0
LINE
  5
24E4
330
1A
100
AcDbEntity
  8
SEIHIN
  6
Continuous
 62
     3
 48
5.0
100
AcDbLine
 10
233.2631916318731
 20
362.0139566531863
 30
0.0
 11
308.2631974872154
 21
362.0139566531863
 31
0.0
  0
LINE
  5
24E6
330
1A
100
AcDbEntity
  8
SEIHIN
  6
Continuous
 62
     3
 48
5.0
100
AcDbLine
 10
233.2631916318731
 20
365.2030957212859
 30
0.0
 11
156.2631857905731
 21
365.203095721286
 31
0.0
  0
LINE
  5
24E7
330
1A
100
AcDbEntity
  8
SEIHIN
  6
Continuous
 62
     3
 48
5.0
100
AcDbLine
 10
233.2631916318731
 20
362.0139566531866
 30
0.0
 11
158.263185776531
 21
362.0139566531861
 31
0.0
  0
DIMENSION
  5
24E8
330
1A
100
AcDbEntity
  8
SUNPOU
100
AcDbDimension
  2
*D10
 10
265.7631916318731
 20
335.8002287200554
 30
0.0
 11
233.2631916318731
 21
340.8002287200554
 31
0.0
 70
    32
 71
     5
 42
64.99999999999997
  3
STANDARD
100
AcDbAlignedDimension
 13
200.7631916318731
 23
352.4987450448215
 33
0.0
 14
265.7631916318731
 24
352.4987450448213
 34
0.0
100
AcDbRotatedDimension
1001
ACAD
1000
DSTYLE
1002
{
1070
    41
1040
7.0
1070
    42
1040
6.0
1070
    43
1040
14.0
1070
    44
1040
3.0
1070
    73
1070
     0
1070
    74
1070
     0
1070
    77
1070
     3
1070
   140
1040
6.0
1070
   141
1040
150.0
1070
   147
1040
2.0
1070
   172
1070
     1
1070
   173
1070
     1
1070
   176
1070
   256
1070
   177
1070
   256
1070
   178
1070
   256
1070
   271
1070
     0
1070
   272
1070
     0
1070
   341
1005
6D
1070
     6
1000
OPEN
1070
     7
1000
OPEN
1070
   371
1070
    -1
1070
   372
1070
    -1
1002
}
  0
ARC
  5
24E9
330
1A
100
AcDbEntity
  8
SEIHIN
  6
Continuous
 62
     3
 48
5.0
100
AcDbCircle
 10
158.263185776531
 20
364.0139566531862
 30
0.0
 40
2.000000000000005
100
AcDbArc
 50
224.9999725147659
 51
270.0
  0
LINE
  5
24EA
330
1A
100
AcDbEntity
  8
SEIHIN
  6
Continuous
 62
     3
 48
5.0
100
AcDbLine
 10
156.2631916318733
 20
374.194549632386
 30
0.0
 11
156.2631916318736
 21
374.0188412964355
 31
0.0
  0
LINE
  5
24EB
330
1A
100
AcDbEntity
  8
SEIHIN
  6
Continuous
 62
     3
 48
5.0
100
AcDbLine
 10
156.2631916318738
 20
373.8431329604853
 30
0.0
 11
147.2631916318738
 21
373.8431329604857
 31
0.0
  0
LINE
  5
24EC
330
1A
100
AcDbEntity
  8
SEIHIN
  6
Continuous
 62
     3
 48
5.0
100
AcDbLine
 10
156.2631916318736
 20
370.1169857373855
 30
0.0
 11
147.2631916318733
 21
370.1169857373859
 31
0.0
  0
LINE
  5
24ED
330
1A
100
AcDbEntity
  8
SEIHIN
  6
Continuous
 62
     3
 48
5.0
100
AcDbLine
 10
156.2631916318736
 20
372.4599234308857
 30
0.0
 11
156.2631916318738
 21
373.1515281956854
 31
0.0
  0
LINE
  5
24EE
330
1A
100
AcDbEntity
  8
SEIHIN
  6
Continuous
 62
     3
 48
5.0
100
AcDbLine
 10
156.2631916318738
 20
373.1515281956854
 30
0.0
 11
156.2631916318738
 21
373.8431329604853
 31
0.0
  0
LINE
  5
24EF
330
1A
100
AcDbEntity
  8
SEIHIN
  6
Continuous
 62
     3
 48
5.0
100
AcDbLine
 10
156.2631916318736
 20
374.0188412964355
 30
0.0
 11
156.2631916318738
 21
373.8431329604853
 31
0.0
  0
ARC
  5
24F0
330
1A
100
AcDbEntity
  8
SEIHIN
  6
Continuous
 62
     3
 48
5.0
100
AcDbCircle
 10
158.263185776531
 20
364.0139566531862
 30
0.0
 40
2.000000000000011
100
AcDbArc
 50
179.9999450295149
 51
224.9999725147659
  0
LINE
  5
24F1
330
1A
100
AcDbEntity
  8
SEIHIN
  6
Continuous
 62
     3
 48
5.0
100
AcDbLine
 10
156.2631916318736
 20
371.2884545841355
 30
0.0
 11
156.2631916318736
 21
370.1169857373855
 31
0.0
  0
LINE
  5
24F2
330
1A
100
AcDbEntity
  8
SEIHIN
  6
Continuous
 62
     3
 48
5.0
100
AcDbLine
 10
156.2631916318736
 20
370.1169857373855
 30
0.0
 11
156.2631887042028
 21
367.0654721547016
 31
0.0
  0
LINE
  5
24F3
330
1A
100
AcDbEntity
  8
SEIHIN
  6
Continuous
 62
     3
 48
5.0
100
AcDbLine
 10
156.2631887042028
 20
367.0654721547016
 30
0.0
 11
156.2631857765319
 21
364.0139585720181
 31
0.0
  0
LINE
  5
24F4
330
1A
100
AcDbEntity
  8
SEIHIN
  6
Continuous
 62
     3
 48
5.0
100
AcDbLine
 10
156.2631916318736
 20
372.4599234308857
 30
0.0
 11
156.2631916318736
 21
371.2884545841355
 31
0.0
  0
LINE
  5
24F5
330
1A
100
AcDbEntity
  8
SEIHIN
  6
Continuous
 62
     3
 48
5.0
100
AcDbLine
 10
147.2631916318733
 20
374.4447117769855
 30
0.0
 11
156.2631916318738
 21
374.4447117769853
 31
0.0
  0
LINE
  5
24F6
330
1A
100
AcDbEntity
  8
SEIHIN
  6
Continuous
 62
     3
 48
5.0
100
AcDbLine
 10
156.2631916318736
 20
374.3196307046856
 30
0.0
 11
156.2631916318738
 21
374.4447117769853
 31
0.0
  0
LINE
  5
24F7
330
1A
100
AcDbEntity
  8
SEIHIN
  6
Continuous
 62
     3
 48
5.0
100
AcDbLine
 10
156.2631916318733
 20
374.194549632386
 30
0.0
 11
156.2631916318736
 21
374.3196307046856
 31
0.0
  0
ARC
  5
24F9
330
1A
100
AcDbEntity
  8
SEIHIN
  6
Continuous
 62
     3
 48
5.0
100
AcDbCircle
 10
233.2631916318733
 20
442.7678429435861
 30
0.0
 40
29.14999999999998
100
AcDbArc
 50
90.0
 51
180.0
  0
ARC
  5
24FA
330
1A
100
AcDbEntity
  8
SEIHIN
  6
Continuous
 62
     3
 48
5.0
100
AcDbCircle
 10
233.2631916318733
 20
442.7678429435861
 30
0.0
 40
26.70000000000005
100
AcDbArc
 50
90.0
 51
180.0
  0
LINE
  5
24FB
330
1A
100
AcDbEntity
  8
CENTER L
  6
CENTER
 62
     1
 48
5.0
100
AcDbLine
 10
275.2023448176603
 20
442.7678429435862
 30
0.0
 11
190.3882443876585
 21
442.7678429435856
 31
0.0
  0
LINE
  5
24FC
330
1A
100
AcDbEntity
  8
SEIHIN
  6
Continuous
 62
     3
 48
5.0
100
AcDbLine
 10
161.4631916318734
 20
395.1716775533859
 30
0.0
 11
233.2631916318731
 21
395.1716775533864
 31
0.0
  0
LINE
  5
24FD
330
1A
100
AcDbEntity
  8
SEIHIN
  6
Continuous
 62
     3
 48
5.0
100
AcDbLine
 10
207.3342559252233
 20
401.3045859804863
 30
0.0
 11
232.2631907973733
 21
401.3045859804863
 31
0.0
  0
ARC
  5
24FE
330
1A
100
AcDbEntity
  8
SEIHIN
  6
Continuous
 62
     3
 48
5.0
100
AcDbCircle
 10
233.2631916318733
 20
442.7678429435861
 30
0.0
 40
35.59999999999918
100
AcDbArc
 50
180.0
 51
268.3903562645062
  0
ARC
  5
24FF
330
1A
100
AcDbEntity
  8
SEIHIN
  6
Continuous
 62
     3
 48
5.0
100
AcDbCircle
 10
233.2631916318733
 20
442.7678429435861
 30
0.0
 40
29.15000000000003
100
AcDbArc
 50
180.0
 51
270.0
  0
ARC
  5
2500
330
1A
100
AcDbEntity
  8
SEIHIN
  6
Continuous
 62
     3
 48
5.0
100
AcDbCircle
 10
233.2631916318733
 20
442.7678429435861
 30
0.0
 40
26.69999999999931
100
AcDbArc
 50
180.0
 51
270.0
  0
ARC
  5
2501
330
1A
100
AcDbEntity
  8
SEIHIN
  6
Continuous
 62
     3
 48
5.0
100
AcDbCircle
 10
233.2631916318733
 20
442.7678429435861
 30
0.0
 40
31.36666666669936
100
AcDbArc
 50
180.0
 51
270.0
  0
LINE
  5
2502
330
1A
100
AcDbEntity
  8
SEIHIN
  6
Continuous
 62
     3
 48
5.0
100
AcDbLine
 10
158.2631916318733
 20
397.151576540786
 30
0.0
 11
158.2631916318731
 21
440.078660382336
 31
0.0
  0
LINE
  5
2503
330
1A
100
AcDbEntity
  8
SEIHIN
  6
Continuous
 62
     3
 48
5.0
100
AcDbLine
 10
182.4053210530734
 20
401.3045859804862
 30
0.0
 11
182.4053210530731
 21
442.6566885134361
 31
0.0
  0
LINE
  5
2504
330
1A
100
AcDbEntity
  8
SEIHIN
  6
Continuous
 62
     3
 48
5.0
100
AcDbLine
 10
176.8496317182735
 20
401.0638279189862
 30
0.0
 11
178.5784942422739
 21
401.1958410313856
 31
0.0
  0
LINE
  5
2505
330
1A
100
AcDbEntity
  8
SEIHIN
  6
Continuous
 62
     3
 48
5.0
100
AcDbLine
 10
161.1921173844733
 20
398.8658619394858
 30
0.0
 11
168.2631877575732
 21
399.8760153820859
 31
0.0
  0
LINE
  5
2506
330
1A
100
AcDbEntity
  8
SEIHIN
  6
Continuous
 62
     3
 48
5.0
100
AcDbLine
 10
161.2631916318736
 20
397.7508148430865
 30
0.0
 11
161.2631916318736
 21
397.1581942100862
 31
0.0
  0
LINE
  5
2507
330
1A
100
AcDbEntity
  8
SEIHIN
  6
Continuous
 62
     3
 48
5.0
100
AcDbLine
 10
148.2631916318736
 20
395.1716775533861
 30
0.0
 11
158.2631916318736
 21
395.1716775533861
 31
0.0
  0
LINE
  5
2508
330
1A
100
AcDbEntity
  8
SEIHIN
  6
Continuous
 62
     3
 48
5.0
100
AcDbLine
 10
161.2631959233734
 20
395.3012918403857
 30
0.0
 11
161.3150668655733
 21
395.2447233071857
 31
0.0
  0
LINE
  5
2509
330
1A
100
AcDbEntity
  8
SEIHIN
  6
Continuous
 62
     3
 48
5.0
100
AcDbLine
 10
161.2631916318736
 20
397.1581942100862
 30
0.0
 11
161.2631916318736
 21
396.5655735770858
 31
0.0
  0
LINE
  5
250A
330
1A
100
AcDbEntity
  8
SEIHIN
  6
Continuous
 62
     3
 48
5.0
100
AcDbLine
 10
161.2631959233732
 20
395.4884131719862
 30
0.0
 11
159.7631928835734
 21
395.4884131719862
 31
0.0
  0
LINE
  5
250B
330
1A
100
AcDbEntity
  8
SEIHIN
  6
Continuous
 62
     3
 48
5.0
100
AcDbLine
 10
159.7631928835734
 20
395.4884131719862
 30
0.0
 11
158.2631898437736
 21
395.4884131719861
 31
0.0
  0
LINE
  5
250C
330
1A
100
AcDbEntity
  8
SEIHIN
  6
Continuous
 62
     3
 48
5.0
100
AcDbLine
 10
161.2631916318736
 20
396.5655735770858
 30
0.0
 11
161.2631916318736
 21
395.9334329722359
 31
0.0
  0
LINE
  5
250D
330
1A
100
AcDbEntity
  8
SEIHIN
  6
Continuous
 62
     3
 48
5.0
100
AcDbLine
 10
161.2631916318736
 20
395.9334329722359
 30
0.0
 11
161.2631916318736
 21
395.301292367386
 31
0.0
  0
LINE
  5
250E
330
1A
100
AcDbEntity
  8
SEIHIN
  6
Continuous
 62
     3
 48
5.0
100
AcDbLine
 10
158.2631916318736
 20
395.1716775533861
 30
0.0
 11
158.2631916318733
 21
396.1616270470861
 31
0.0
  0
LINE
  5
250F
330
1A
100
AcDbEntity
  8
SEIHIN
  6
Continuous
 62
     3
 48
5.0
100
AcDbLine
 10
158.2631916318733
 20
396.1616270470861
 30
0.0
 11
158.2631916318733
 21
397.151576540786
 31
0.0
  0
LINE
  5
2510
330
1A
100
AcDbEntity
  8
SEIHIN
  6
Continuous
 62
     3
 48
5.0
100
AcDbLine
 10
161.3150668655733
 20
395.2447233071857
 30
0.0
 11
161.4605021987739
 21
395.1728848090855
 31
0.0
  0
LINE
  5
2511
330
1A
100
AcDbEntity
  8
SEIHIN
  6
Continuous
 62
     3
 48
5.0
100
AcDbLine
 10
161.4605021987739
 20
395.1728848090855
 30
0.0
 11
161.4631844077731
 21
395.1716778149858
 31
0.0
  0
LINE
  5
2512
330
1A
100
AcDbEntity
  8
SEIHIN
  6
Continuous
 62
     3
 48
5.0
100
AcDbLine
 10
158.2631898437733
 20
397.9916592409861
 30
0.0
 11
159.7971079264733
 21
397.9916592409858
 31
0.0
  0
LINE
  5
2513
330
1A
100
AcDbEntity
  8
SEIHIN
  6
Continuous
 62
     3
 48
5.0
100
AcDbLine
 10
159.7971079264733
 20
397.9916592409858
 30
0.0
 11
161.3310260091733
 21
397.9916592409856
 31
0.0
  0
LINE
  5
2514
330
1A
100
AcDbEntity
  8
SEIHIN
  6
Continuous
 62
     3
 48
5.0
100
AcDbLine
 10
161.3310260091733
 20
397.9916592409856
 30
0.0
 11
161.2858605895729
 21
397.9015556445868
 31
0.0
  0
LINE
  5
2515
330
1A
100
AcDbEntity
  8
SEIHIN
  6
Continuous
 62
     3
 48
5.0
100
AcDbLine
 10
161.2858605895729
 20
397.9015556445868
 30
0.0
 11
161.2631959233734
 21
397.7508154978861
 31
0.0
  0
LINE
  5
2516
330
1A
100
AcDbEntity
  8
SEIHIN
  6
Continuous
 62
     3
 48
5.0
100
AcDbLine
 10
160.6145483766734
 20
398.7896015217867
 30
0.0
 11
158.7003154073735
 21
398.2851972153855
 31
0.0
  0
LINE
  5
2517
330
1A
100
AcDbEntity
  8
SEIHIN
  6
Continuous
 62
     3
 48
5.0
100
AcDbLine
 10
158.7003154073735
 20
398.2851972153855
 30
0.0
 11
158.2631898437736
 21
398.1239107718859
 31
0.0
  0
LINE
  5
2518
330
1A
100
AcDbEntity
  8
SEIHIN
  6
Continuous
 62
     3
 48
5.0
100
AcDbLine
 10
160.6145483766734
 20
398.7896015217867
 30
0.0
 11
160.8117205415734
 21
398.8142964711855
 31
0.0
  0
LINE
  5
2519
330
1A
100
AcDbEntity
  8
SEIHIN
  6
Continuous
 62
     3
 48
5.0
100
AcDbLine
 10
160.8117205415734
 20
398.8142964711855
 30
0.0
 11
161.0042882476733
 21
398.8397215773865
 31
0.0
  0
LINE
  5
251A
330
1A
100
AcDbEntity
  8
SEIHIN
  6
Continuous
 62
     3
 48
5.0
100
AcDbLine
 10
161.0042882476733
 20
398.8397215773865
 30
0.0
 11
161.1921173844733
 21
398.8658619394858
 31
0.0
  0
LINE
  5
251B
330
1A
100
AcDbEntity
  8
SEIHIN
  6
Continuous
 62
     3
 48
5.0
100
AcDbLine
 10
168.2631877575732
 20
399.8760153820859
 30
0.0
 11
175.3342581306734
 21
400.8861688246861
 31
0.0
  0
LINE
  5
251C
330
1A
100
AcDbEntity
  8
SEIHIN
  6
Continuous
 62
     3
 48
5.0
100
AcDbLine
 10
175.3342581306734
 20
400.8861688246861
 30
0.0
 11
176.8496317182735
 21
401.0638279189862
 31
0.0
  0
LINE
  5
251D
330
1A
100
AcDbEntity
  8
SEIHIN
  6
Continuous
 62
     3
 48
5.0
100
AcDbLine
 10
182.4053210530734
 20
401.3045859804862
 30
0.0
 11
207.3342559252233
 21
401.3045859804863
 31
0.0
  0
LINE
  5
251E
330
1A
100
AcDbEntity
  8
SEIHIN
  6
Continuous
 62
     3
 48
5.0
100
AcDbLine
 10
178.5784942422739
 20
401.1958410313856
 30
0.0
 11
180.4544312272734
 21
401.277138041486
 31
0.0
  0
LINE
  5
251F
330
1A
100
AcDbEntity
  8
SEIHIN
  6
Continuous
 62
     3
 48
5.0
100
AcDbLine
 10
180.4544312272734
 20
401.277138041486
 30
0.0
 11
182.4053210530734
 21
401.3045859804862
 31
0.0
  0
ARC
  5
2520
330
1A
100
AcDbEntity
  8
SEIHIN
  6
Continuous
 62
     3
 48
5.0
100
AcDbCircle
 10
233.2631916318729
 20
442.7678429435861
 30
0.0
 40
31.36666666669936
100
AcDbArc
 50
270.0
 51
0.0
  0
ARC
  5
2521
330
1A
100
AcDbEntity
  8
SEIHIN
  6
Continuous
 62
     3
 48
5.0
100
AcDbCircle
 10
233.2631916318729
 20
442.7678429435861
 30
0.0
 40
26.69999999999931
100
AcDbArc
 50
270.0
 51
0.0
  0
ARC
  5
2522
330
1A
100
AcDbEntity
  8
SEIHIN
  6
Continuous
 62
     3
 48
5.0
100
AcDbCircle
 10
233.2631916318729
 20
442.7678429435861
 30
0.0
 40
29.15000000000003
100
AcDbArc
 50
270.0
 51
0.0
  0
ARC
  5
2523
330
1A
100
AcDbEntity
  8
SEIHIN
  6
Continuous
 62
     3
 48
5.0
100
AcDbCircle
 10
233.2631916318729
 20
442.7678429435861
 30
0.0
 40
35.59999999999918
100
AcDbArc
 50
271.6096437354938
 51
0.0
  0
LINE
  5
2524
330
1A
100
AcDbEntity
  8
SEIHIN
  6
Continuous
 62
     3
 48
5.0
100
AcDbLine
 10
259.1921273385231
 20
401.3045859804863
 30
0.0
 11
234.2631924663731
 21
401.3045859804863
 31
0.0
  0
LINE
  5
2525
330
1A
100
AcDbEntity
  8
SEIHIN
  6
Continuous
 62
     3
 48
5.0
100
AcDbLine
 10
234.2631916318736
 20
399.5290244870362
 30
0.0
 11
234.2631916318736
 21
397.1515765407863
 31
0.0
  0
LINE
  5
2526
330
1A
100
AcDbEntity
  8
SEIHIN
  6
Continuous
 62
     3
 48
5.0
100
AcDbLine
 10
232.2631916318729
 20
399.5290244870362
 30
0.0
 11
232.2631916318729
 21
397.1515765407863
 31
0.0
  0
LINE
  5
2527
330
1A
100
AcDbEntity
  8
SEIHIN
  6
Continuous
 62
     3
 48
5.0
100
AcDbLine
 10
233.7631920491234
 20
407.366106407886
 30
0.0
 11
233.2631916318736
 21
407.3661064078859
 31
0.0
  0
LINE
  5
2528
330
1A
100
AcDbEntity
  8
SEIHIN
  6
Continuous
 62
     3
 48
5.0
100
AcDbLine
 10
234.2631924663729
 20
407.3661064078862
 30
0.0
 11
233.7631920491234
 21
407.366106407886
 31
0.0
  0
LINE
  5
2529
330
1A
100
AcDbEntity
  8
SEIHIN
  6
Continuous
 62
     3
 48
5.0
100
AcDbLine
 10
232.2631907973735
 20
407.3661064078862
 30
0.0
 11
232.7631912146231
 21
407.366106407886
 31
0.0
  0
LINE
  5
252A
330
1A
100
AcDbEntity
  8
SEIHIN
  6
Continuous
 62
     3
 48
5.0
100
AcDbLine
 10
232.7631912146231
 20
407.366106407886
 30
0.0
 11
233.2631916318729
 21
407.3661064078859
 31
0.0
  0
LINE
  5
252B
330
1A
100
AcDbEntity
  8
SEIHIN
  6
Continuous
 62
     3
 48
5.0
100
AcDbLine
 10
234.2631916318733
 20
401.9064724332862
 30
0.0
 11
234.2631916318731
 21
403.3913966737365
 31
0.0
  0
LINE
  5
252C
330
1A
100
AcDbEntity
  8
SEIHIN
  6
Continuous
 62
     3
 48
5.0
100
AcDbLine
 10
232.2631916318731
 20
401.9064724332862
 30
0.0
 11
232.2631916318733
 21
403.3913966737365
 31
0.0
  0
LINE
  5
252D
330
1A
100
AcDbEntity
  8
SEIHIN
  6
Continuous
 62
     3
 48
5.0
100
AcDbLine
 10
234.2631920491229
 20
406.1212136610365
 30
0.0
 11
234.2631916318729
 21
404.8763209141868
 31
0.0
  0
LINE
  5
252E
330
1A
100
AcDbEntity
  8
SEIHIN
  6
Continuous
 62
     3
 48
5.0
100
AcDbLine
 10
234.2631916318731
 20
403.3913966737365
 30
0.0
 11
234.2631916318729
 21
404.8763209141868
 31
0.0
  0
LINE
  5
252F
330
1A
100
AcDbEntity
  8
SEIHIN
  6
Continuous
 62
     3
 48
5.0
100
AcDbLine
 10
233.7631916318731
 20
404.8763209141864
 30
0.0
 11
234.2631916318729
 21
404.8763209141868
 31
0.0
  0
LINE
  5
2530
330
1A
100
AcDbEntity
  8
SEIHIN
  6
Continuous
 62
     3
 48
5.0
100
AcDbLine
 10
233.2631916318733
 20
404.8763209141861
 30
0.0
 11
233.7631916318731
 21
404.8763209141864
 31
0.0
  0
LINE
  5
2531
330
1A
100
AcDbEntity
  8
SEIHIN
  6
Continuous
 62
     3
 48
5.0
100
AcDbLine
 10
233.2631916318731
 20
404.8763209141861
 30
0.0
 11
232.7631916318733
 21
404.8763209141864
 31
0.0
  0
LINE
  5
2532
330
1A
100
AcDbEntity
  8
SEIHIN
  6
Continuous
 62
     3
 48
5.0
100
AcDbLine
 10
232.7631916318733
 20
404.8763209141864
 30
0.0
 11
232.2631916318736
 21
404.8763209141868
 31
0.0
  0
LINE
  5
2533
330
1A
100
AcDbEntity
  8
SEIHIN
  6
Continuous
 62
     3
 48
5.0
100
AcDbLine
 10
232.2631916318733
 20
403.3913966737365
 30
0.0
 11
232.2631916318736
 21
404.8763209141868
 31
0.0
  0
LINE
  5
2534
330
1A
100
AcDbEntity
  8
SEIHIN
  6
Continuous
 62
     3
 48
5.0
100
AcDbLine
 10
232.2631912146235
 20
406.1212136610365
 30
0.0
 11
232.2631916318736
 21
404.8763209141868
 31
0.0
  0
LINE
  5
2535
330
1A
100
AcDbEntity
  8
SEIHIN
  6
Continuous
 62
     3
 48
5.0
100
AcDbLine
 10
234.2631916318733
 20
401.9064724332862
 30
0.0
 11
234.2631916318736
 21
399.5290244870362
 31
0.0
  0
LINE
  5
2536
330
1A
100
AcDbEntity
  8
SEIHIN
  6
Continuous
 62
     3
 48
5.0
100
AcDbLine
 10
232.2631916318731
 20
401.9064724332862
 30
0.0
 11
232.2631916318729
 21
399.5290244870362
 31
0.0
  0
LINE
  5
2537
330
1A
100
AcDbEntity
  8
SEIHIN
  6
Continuous
 62
     3
 48
5.0
100
AcDbLine
 10
234.2631924663729
 20
407.3661064078862
 30
0.0
 11
234.2631920491229
 21
406.1212136610365
 31
0.0
  0
LINE
  5
2538
330
1A
100
AcDbEntity
  8
SEIHIN
  6
Continuous
 62
     3
 48
5.0
100
AcDbLine
 10
232.2631907973735
 20
407.3661064078862
 30
0.0
 11
232.2631912146235
 21
406.1212136610365
 31
0.0
  0
ARC
  5
2539
330
1A
100
AcDbEntity
  8
SEIHIN
  6
Continuous
 62
     3
 48
5.0
100
AcDbCircle
 10
233.2631916318729
 20
442.7678429435861
 30
0.0
 40
26.70000000000005
100
AcDbArc
 50
0.0
 51
90.0
  0
ARC
  5
253A
330
1A
100
AcDbEntity
  8
SEIHIN
  6
Continuous
 62
     3
 48
5.0
100
AcDbCircle
 10
233.2631916318729
 20
442.7678429435861
 30
0.0
 40
29.14999999999998
100
AcDbArc
 50
0.0
 51
90.0
  0
LINE
  5
253B
330
1A
100
AcDbEntity
  8
SEIHIN
  6
Continuous
 62
     3
 48
5.0
100
AcDbLine
 10
234.2631916318731
 20
476.7786923699865
 30
0.0
 11
234.2631916318731
 21
478.2771482246862
 31
0.0
  0
LINE
  5
253C
330
1A
100
AcDbEntity
  8
SEIHIN
  6
Continuous
 62
     3
 48
5.0
100
AcDbLine
 10
234.2631916318731
 20
476.7786923699865
 30
0.0
 11
234.2631920491234
 21
476.3716575316362
 31
0.0
  0
LINE
  5
253D
330
1A
100
AcDbEntity
  8
SEIHIN
  6
Continuous
 62
     3
 48
5.0
100
AcDbLine
 10
233.7631916318731
 20
476.7786923699863
 30
0.0
 11
233.2631916318731
 21
476.7786923699861
 31
0.0
  0
LINE
  5
253E
330
1A
100
AcDbEntity
  8
SEIHIN
  6
Continuous
 62
     3
 48
5.0
100
AcDbLine
 10
234.2631916318731
 20
476.7786923699865
 30
0.0
 11
233.7631916318731
 21
476.7786923699863
 31
0.0
  0
LINE
  5
253F
330
1A
100
AcDbEntity
  8
SEIHIN
  6
Continuous
 62
     3
 48
5.0
100
AcDbLine
 10
232.2631916318731
 20
476.7786923699865
 30
0.0
 11
232.7631916318731
 21
476.7786923699863
 31
0.0
  0
LINE
  5
2540
330
1A
100
AcDbEntity
  8
SEIHIN
  6
Continuous
 62
     3
 48
5.0
100
AcDbLine
 10
232.7631916318731
 20
476.7786923699863
 30
0.0
 11
233.2631916318731
 21
476.7786923699861
 31
0.0
  0
LINE
  5
2541
330
1A
100
AcDbEntity
  8
SEIHIN
  6
Continuous
 62
     3
 48
5.0
100
AcDbLine
 10
232.2631916318731
 20
476.7786923699865
 30
0.0
 11
232.2631912146229
 21
476.3716575316362
 31
0.0
  0
LINE
  5
2542
330
1A
100
AcDbEntity
  8
SEIHIN
  6
Continuous
 62
     3
 48
5.0
100
AcDbLine
 10
232.2631916318731
 20
476.7786923699865
 30
0.0
 11
232.2631916318731
 21
478.2771482246862
 31
0.0
  0
LINE
  5
2543
330
1A
100
AcDbEntity
  8
SEIHIN
  6
Continuous
 62
     3
 48
5.0
100
AcDbLine
 10
233.7631920491234
 20
475.9646226932861
 30
0.0
 11
234.2631924663734
 21
475.964622693286
 31
0.0
  0
LINE
  5
2544
330
1A
100
AcDbEntity
  8
SEIHIN
  6
Continuous
 62
     3
 48
5.0
100
AcDbLine
 10
233.2631916318736
 20
475.9646226932862
 30
0.0
 11
233.7631920491234
 21
475.9646226932861
 31
0.0
  0
LINE
  5
2545
330
1A
100
AcDbEntity
  8
SEIHIN
  6
Continuous
 62
     3
 48
5.0
100
AcDbLine
 10
233.2631916318726
 20
475.9646226932862
 30
0.0
 11
232.7631912146229
 21
475.9646226932861
 31
0.0
  0
LINE
  5
2546
330
1A
100
AcDbEntity
  8
SEIHIN
  6
Continuous
 62
     3
 48
5.0
100
AcDbLine
 10
232.7631912146229
 20
475.9646226932861
 30
0.0
 11
232.2631907973728
 21
475.964622693286
 31
0.0
  0
LINE
  5
2547
330
1A
100
AcDbEntity
  8
SEIHIN
  6
Continuous
 62
     3
 48
5.0
100
AcDbLine
 10
234.2631920491234
 20
476.3716575316362
 30
0.0
 11
234.2631924663734
 21
475.964622693286
 31
0.0
  0
LINE
  5
2548
330
1A
100
AcDbEntity
  8
SEIHIN
  6
Continuous
 62
     3
 48
5.0
100
AcDbLine
 10
232.2631912146229
 20
476.3716575316362
 30
0.0
 11
232.2631907973728
 21
475.964622693286
 31
0.0
  0
LINE
  5
2549
330
1A
100
AcDbEntity
  8
SEIHIN
  6
Continuous
 62
     3
 48
5.0
100
AcDbLine
 10
328.263191631873
 20
359.6241884519866
 30
0.0
 11
328.263191631873
 21
440.0786603823362
 31
0.0
  0
ARC
  5
254E
330
1A
100
AcDbEntity
  8
SEIHIN
  6
Continuous
 62
     3
 48
5.0
100
AcDbCircle
 10
308.2631974872154
 20
364.0139566531864
 30
0.0
 40
2.000000000000005
100
AcDbArc
 50
270.0
 51
315.0000274852342
  0
LINE
  5
254F
330
1A
100
AcDbEntity
  8
SEIHIN
  6
Continuous
 62
     3
 48
5.0
100
AcDbLine
 10
328.263191631873
 20
374.4447117769861
 30
0.0
 11
319.263191631873
 21
374.4447117769857
 31
0.0
  0
LINE
  5
2550
330
1A
100
AcDbEntity
  8
SEIHIN
  6
Continuous
 62
     3
 48
5.0
100
AcDbLine
 10
319.2631916318726
 20
373.8431329604859
 30
0.0
 11
328.2631916318728
 21
373.8431329604866
 31
0.0
  0
LINE
  5
2551
330
1A
100
AcDbEntity
  8
SEIHIN
  6
Continuous
 62
     3
 48
5.0
100
AcDbLine
 10
319.263191631873
 20
370.1169857373861
 30
0.0
 11
328.263191631873
 21
370.1169857373866
 31
0.0
  0
LINE
  5
2552
330
1A
100
AcDbEntity
  8
SEIHIN
  6
Continuous
 62
     3
 48
5.0
100
AcDbLine
 10
310.263191631873
 20
374.1945496323862
 30
0.0
 11
310.2631916318728
 21
374.0188412964357
 31
0.0
  0
LINE
  5
2553
330
1A
100
AcDbEntity
  8
SEIHIN
  6
Continuous
 62
     3
 48
5.0
100
AcDbLine
 10
310.2631916318726
 20
373.8431329604854
 30
0.0
 11
319.2631916318726
 21
373.8431329604859
 31
0.0
  0
LINE
  5
2554
330
1A
100
AcDbEntity
  8
SEIHIN
  6
Continuous
 62
     3
 48
5.0
100
AcDbLine
 10
310.2631916318728
 20
370.1169857373855
 30
0.0
 11
319.263191631873
 21
370.1169857373861
 31
0.0
  0
LINE
  5
2555
330
1A
100
AcDbEntity
  8
SEIHIN
  6
Continuous
 62
     3
 48
5.0
100
AcDbLine
 10
310.2631916318728
 20
374.0188412964357
 30
0.0
 11
310.2631916318726
 21
373.8431329604854
 31
0.0
  0
LINE
  5
2556
330
1A
100
AcDbEntity
  8
SEIHIN
  6
Continuous
 62
     3
 48
5.0
100
AcDbLine
 10
310.2631916318726
 20
373.1515281956856
 30
0.0
 11
310.2631916318726
 21
373.8431329604854
 31
0.0
  0
LINE
  5
2557
330
1A
100
AcDbEntity
  8
SEIHIN
  6
Continuous
 62
     3
 48
5.0
100
AcDbLine
 10
310.2631916318728
 20
372.4599234308858
 30
0.0
 11
310.2631916318726
 21
373.1515281956856
 31
0.0
  0
ARC
  5
2558
330
1A
100
AcDbEntity
  8
SEIHIN
  6
Continuous
 62
     3
 48
5.0
100
AcDbCircle
 10
308.2631974872154
 20
364.0139566531864
 30
0.0
 40
2.000000000000011
100
AcDbArc
 50
315.0000274852342
 51
0.0000549704851026
  0
LINE
  5
2559
330
1A
100
AcDbEntity
  8
SEIHIN
  6
Continuous
 62
     3
 48
5.0
100
AcDbLine
 10
310.2631916318728
 20
370.1169857373855
 30
0.0
 11
310.2631945595435
 21
367.0654721547018
 31
0.0
  0
LINE
  5
255A
330
1A
100
AcDbEntity
  8
SEIHIN
  6
Continuous
 62
     3
 48
5.0
100
AcDbLine
 10
310.2631916318728
 20
371.2884545841357
 30
0.0
 11
310.2631916318728
 21
370.1169857373855
 31
0.0
  0
LINE
  5
255B
330
1A
100
AcDbEntity
  8
SEIHIN
  6
Continuous
 62
     3
 48
5.0
100
AcDbLine
 10
310.2631945595435
 20
367.0654721547018
 30
0.0
 11
310.2631974872145
 21
364.0139585720182
 31
0.0
  0
LINE
  5
255C
330
1A
100
AcDbEntity
  8
SEIHIN
  6
Continuous
 62
     3
 48
5.0
100
AcDbLine
 10
310.2631916318728
 20
372.4599234308858
 30
0.0
 11
310.2631916318728
 21
371.2884545841357
 31
0.0
  0
LINE
  5
255D
330
1A
100
AcDbEntity
  8
SEIHIN
  6
Continuous
 62
     3
 48
5.0
100
AcDbLine
 10
319.263191631873
 20
374.4447117769857
 30
0.0
 11
310.2631916318726
 21
374.4447117769855
 31
0.0
  0
LINE
  5
255E
330
1A
100
AcDbEntity
  8
SEIHIN
  6
Continuous
 62
     3
 48
5.0
100
AcDbLine
 10
310.263191631873
 20
374.1945496323862
 30
0.0
 11
310.2631916318728
 21
374.3196307046857
 31
0.0
  0
LINE
  5
255F
330
1A
100
AcDbEntity
  8
SEIHIN
  6
Continuous
 62
     3
 48
5.0
100
AcDbLine
 10
310.2631916318728
 20
374.3196307046857
 30
0.0
 11
310.2631916318726
 21
374.4447117769855
 31
0.0
  0
LINE
  5
2560
330
1A
100
AcDbEntity
  8
SEIHIN
  6
Continuous
 62
     3
 48
5.0
100
AcDbLine
 10
284.121062210673
 20
401.3045859804863
 30
0.0
 11
284.121062210673
 21
442.6566885134361
 31
0.0
  0
LINE
  5
2561
330
1A
100
AcDbEntity
  8
SEIHIN
  6
Continuous
 62
     3
 48
5.0
100
AcDbLine
 10
308.263191631873
 20
397.1515765407862
 30
0.0
 11
308.263191631873
 21
440.0786603823361
 31
0.0
  0
LINE
  5
2562
330
1A
100
AcDbEntity
  8
SEIHIN
  6
Continuous
 62
     3
 48
5.0
100
AcDbLine
 10
318.2631916318728
 20
395.1716775533863
 30
0.0
 11
308.2631916318728
 21
395.1716775533863
 31
0.0
  0
LINE
  5
2563
330
1A
100
AcDbEntity
  8
SEIHIN
  6
Continuous
 62
     3
 48
5.0
100
AcDbLine
 10
298.2631955061731
 20
399.8760153820861
 30
0.0
 11
291.192125133073
 21
400.8861688246862
 31
0.0
  0
LINE
  5
2564
330
1A
100
AcDbEntity
  8
SEIHIN
  6
Continuous
 62
     3
 48
5.0
100
AcDbLine
 10
286.071952036473
 20
401.277138041486
 30
0.0
 11
284.121062210673
 21
401.3045859804863
 31
0.0
  0
LINE
  5
2565
330
1A
100
AcDbEntity
  8
SEIHIN
  6
Continuous
 62
     3
 48
5.0
100
AcDbLine
 10
291.192125133073
 20
400.8861688246862
 30
0.0
 11
289.6767515454728
 21
401.0638279189863
 31
0.0
  0
LINE
  5
2566
330
1A
100
AcDbEntity
  8
SEIHIN
  6
Continuous
 62
     3
 48
5.0
100
AcDbLine
 10
289.6767515454728
 20
401.0638279189863
 30
0.0
 11
287.9478890214725
 21
401.1958410313857
 31
0.0
  0
LINE
  5
2567
330
1A
100
AcDbEntity
  8
SEIHIN
  6
Continuous
 62
     3
 48
5.0
100
AcDbLine
 10
287.9478890214725
 20
401.1958410313857
 30
0.0
 11
286.071952036473
 21
401.277138041486
 31
0.0
  0
LINE
  5
2568
330
1A
100
AcDbEntity
  8
SEIHIN
  6
Continuous
 62
     3
 48
5.0
100
AcDbLine
 10
305.2631916318728
 20
397.7508148430866
 30
0.0
 11
305.2631916318728
 21
397.1581942100863
 31
0.0
  0
LINE
  5
2569
330
1A
100
AcDbEntity
  8
SEIHIN
  6
Continuous
 62
     3
 48
5.0
100
AcDbLine
 10
305.0658810649725
 20
395.1728848090856
 30
0.0
 11
305.0631988559733
 21
395.1716778149859
 31
0.0
  0
LINE
  5
256A
330
1A
100
AcDbEntity
  8
SEIHIN
  6
Continuous
 62
     3
 48
5.0
100
AcDbLine
 10
305.211316398173
 20
395.2447233071858
 30
0.0
 11
305.0658810649725
 21
395.1728848090856
 31
0.0
  0
LINE
  5
256B
330
1A
100
AcDbEntity
  8
SEIHIN
  6
Continuous
 62
     3
 48
5.0
100
AcDbLine
 10
308.263191631873
 20
396.1616270470862
 30
0.0
 11
308.263191631873
 21
397.1515765407862
 31
0.0
  0
LINE
  5
256C
330
1A
100
AcDbEntity
  8
SEIHIN
  6
Continuous
 62
     3
 48
5.0
100
AcDbLine
 10
308.2631916318728
 20
395.1716775533863
 30
0.0
 11
308.263191631873
 21
396.1616270470862
 31
0.0
  0
LINE
  5
256D
330
1A
100
AcDbEntity
  8
SEIHIN
  6
Continuous
 62
     3
 48
5.0
100
AcDbLine
 10
305.2631916318728
 20
395.933432972236
 30
0.0
 11
305.2631916318728
 21
395.3012923673861
 31
0.0
  0
LINE
  5
256E
330
1A
100
AcDbEntity
  8
SEIHIN
  6
Continuous
 62
     3
 48
5.0
100
AcDbLine
 10
305.2631916318728
 20
396.5655735770859
 30
0.0
 11
305.2631916318728
 21
395.933432972236
 31
0.0
  0
LINE
  5
256F
330
1A
100
AcDbEntity
  8
SEIHIN
  6
Continuous
 62
     3
 48
5.0
100
AcDbLine
 10
306.763190380173
 20
395.4884131719863
 30
0.0
 11
308.2631934199728
 21
395.4884131719862
 31
0.0
  0
LINE
  5
2570
330
1A
100
AcDbEntity
  8
SEIHIN
  6
Continuous
 62
     3
 48
5.0
100
AcDbLine
 10
305.2631873403732
 20
395.4884131719863
 30
0.0
 11
306.763190380173
 21
395.4884131719863
 31
0.0
  0
LINE
  5
2571
330
1A
100
AcDbEntity
  8
SEIHIN
  6
Continuous
 62
     3
 48
5.0
100
AcDbLine
 10
305.2631916318728
 20
397.1581942100863
 30
0.0
 11
305.2631916318728
 21
396.5655735770859
 31
0.0
  0
LINE
  5
2572
330
1A
100
AcDbEntity
  8
SEIHIN
  6
Continuous
 62
     3
 48
5.0
100
AcDbLine
 10
305.263187340373
 20
395.3012918403858
 30
0.0
 11
305.211316398173
 21
395.2447233071858
 31
0.0
  0
LINE
  5
2573
330
1A
100
AcDbEntity
  8
SEIHIN
  6
Continuous
 62
     3
 48
5.0
100
AcDbLine
 10
305.3342658792731
 20
398.8658619394859
 30
0.0
 11
298.2631955061731
 21
399.8760153820861
 31
0.0
  0
LINE
  5
2574
330
1A
100
AcDbEntity
  8
SEIHIN
  6
Continuous
 62
     3
 48
5.0
100
AcDbLine
 10
305.5220950160731
 20
398.8397215773866
 30
0.0
 11
305.3342658792731
 21
398.8658619394859
 31
0.0
  0
LINE
  5
2575
330
1A
100
AcDbEntity
  8
SEIHIN
  6
Continuous
 62
     3
 48
5.0
100
AcDbLine
 10
305.714662722173
 20
398.8142964711856
 30
0.0
 11
305.5220950160731
 21
398.8397215773866
 31
0.0
  0
LINE
  5
2576
330
1A
100
AcDbEntity
  8
SEIHIN
  6
Continuous
 62
     3
 48
5.0
100
AcDbLine
 10
305.9118348870729
 20
398.7896015217868
 30
0.0
 11
305.714662722173
 21
398.8142964711856
 31
0.0
  0
LINE
  5
2577
330
1A
100
AcDbEntity
  8
SEIHIN
  6
Continuous
 62
     3
 48
5.0
100
AcDbLine
 10
307.8260678563729
 20
398.2851972153856
 30
0.0
 11
308.2631934199728
 21
398.123910771886
 31
0.0
  0
LINE
  5
2578
330
1A
100
AcDbEntity
  8
SEIHIN
  6
Continuous
 62
     3
 48
5.0
100
AcDbLine
 10
305.9118348870729
 20
398.7896015217868
 30
0.0
 11
307.8260678563729
 21
398.2851972153856
 31
0.0
  0
LINE
  5
2579
330
1A
100
AcDbEntity
  8
SEIHIN
  6
Continuous
 62
     3
 48
5.0
100
AcDbLine
 10
305.2405226741735
 20
397.901555644587
 30
0.0
 11
305.263187340373
 21
397.7508154978862
 31
0.0
  0
LINE
  5
257A
330
1A
100
AcDbEntity
  8
SEIHIN
  6
Continuous
 62
     3
 48
5.0
100
AcDbLine
 10
305.1953572545731
 20
397.9916592409857
 30
0.0
 11
305.2405226741735
 21
397.901555644587
 31
0.0
  0
LINE
  5
257B
330
1A
100
AcDbEntity
  8
SEIHIN
  6
Continuous
 62
     3
 48
5.0
100
AcDbLine
 10
306.7292753372731
 20
397.9916592409859
 30
0.0
 11
305.1953572545731
 21
397.9916592409857
 31
0.0
  0
LINE
  5
257C
330
1A
100
AcDbEntity
  8
SEIHIN
  6
Continuous
 62
     3
 48
5.0
100
AcDbLine
 10
308.2631934199731
 20
397.9916592409862
 30
0.0
 11
306.7292753372731
 21
397.9916592409859
 31
0.0
  0
LINE
  5
257D
330
1A
100
AcDbEntity
  8
SEIHIN
  6
Continuous
 62
     3
 48
5.0
100
AcDbLine
 10
328.2631916318728
 20
395.1716775533863
 30
0.0
 11
318.2631916318728
 21
395.1716775533863
 31
0.0
  0
LINE
  5
257E
330
1A
100
AcDbEntity
  8
SEIHIN
  6
Continuous
 62
     3
 48
5.0
100
AcDbLine
 10
233.2631916318729
 20
495.6787848428863
 30
0.0
 11
328.263191631873
 21
495.6787848428865
 31
0.0
  0
LINE
  5
257F
330
1A
100
AcDbEntity
  8
SEIHIN
  6
Continuous
 62
     3
 48
5.0
100
AcDbLine
 10
271.7631945525234
 20
488.2122149040864
 30
0.0
 11
310.2631974731733
 21
488.2122149040865
 31
0.0
  0
LINE
  5
2580
330
1A
100
AcDbEntity
  8
SEIHIN
  6
Continuous
 62
     3
 48
5.0
100
AcDbLine
 10
284.121062210673
 20
484.008791046386
 30
0.0
 11
259.1921273385228
 21
484.0087910463861
 31
0.0
  0
LINE
  5
2581
330
1A
100
AcDbEntity
  8
SEIHIN
  6
Continuous
 62
     3
 48
5.0
100
AcDbLine
 10
233.2631916318729
 20
493.1787848428854
 30
0.0
 11
309.263191631873
 21
493.1787848428862
 31
0.0
  0
LINE
  5
2582
330
1A
100
AcDbEntity
  8
SEIHIN
  6
Continuous
 62
     3
 48
5.0
100
AcDbLine
 10
233.2631916318729
 20
493.1787848428853
 30
0.0
 11
157.2631916318731
 21
493.1787848428861
 31
0.0
  0
LINE
  5
2583
330
1A
100
AcDbEntity
  8
SEIHIN
  6
Continuous
 62
     3
 48
5.0
100
AcDbLine
 10
233.2631916318726
 20
488.2122149040863
 30
0.0
 11
194.7631887112228
 21
488.2122149040863
 31
0.0
  0
LINE
  5
2584
330
1A
100
AcDbEntity
  8
SEIHIN
  6
Continuous
 62
     3
 48
5.0
100
AcDbLine
 10
207.3342559252233
 20
484.0087910463861
 30
0.0
 11
232.2631907973735
 21
484.0087910463864
 31
0.0
  0
LINE
  5
2585
330
1A
100
AcDbEntity
  8
SEIHIN
  6
Continuous
 62
     3
 48
5.0
100
AcDbLine
 10
194.7631887112228
 20
488.2122149040863
 30
0.0
 11
156.2631857905729
 21
488.2122149040864
 31
0.0
  0
LINE
  5
2586
330
1A
100
AcDbEntity
  8
SEIHIN
  6
Continuous
 62
     3
 48
5.0
100
AcDbLine
 10
178.5784942422727
 20
484.0433580150858
 30
0.0
 11
176.8496317182733
 21
484.0853196849867
 31
0.0
  0
LINE
  5
2587
330
1A
100
AcDbEntity
  8
SEIHIN
  6
Continuous
 62
     3
 48
5.0
100
AcDbLine
 10
168.263187757573
 20
484.4628871699864
 30
0.0
 11
161.1921173844729
 21
484.7839829792866
 31
0.0
  0
LINE
  5
2588
330
1A
100
AcDbEntity
  8
SEIHIN
  6
Continuous
 62
     3
 48
5.0
100
AcDbLine
 10
156.2631916318731
 20
492.1787848428859
 30
0.0
 11
156.2631916318731
 21
489.0287848428858
 31
0.0
  0
LINE
  5
2589
330
1A
100
AcDbEntity
  8
SEIHIN
  6
Continuous
 62
     3
 48
5.0
100
AcDbLine
 10
148.2631916318731
 20
489.3684984078857
 30
0.0
 11
148.2631916318729
 21
492.8582119728857
 31
0.0
  0
LINE
  5
258A
330
1A
100
AcDbEntity
  8
SEIHIN
  6
Continuous
 62
     3
 48
5.0
100
AcDbLine
 10
146.2631916318731
 20
489.3684984078856
 30
0.0
 11
146.2631916318731
 21
492.8582119728855
 31
0.0
  0
LINE
  5
258B
330
1A
100
AcDbEntity
  8
SEIHIN
  6
Continuous
 62
     3
 48
5.0
100
AcDbLine
 10
156.2631916318736
 20
484.1287848428862
 30
0.0
 11
147.2631916318733
 21
484.1287848428858
 31
0.0
  0
LINE
  5
258C
330
1A
100
AcDbEntity
  8
SEIHIN
  6
Continuous
 62
     3
 48
5.0
100
AcDbLine
 10
148.2631916318731
 20
485.8787848428856
 30
0.0
 11
147.2631916318731
 21
485.8787848428857
 31
0.0
  0
LINE
  5
258D
330
1A
100
AcDbEntity
  8
SEIHIN
  6
Continuous
 62
     3
 48
5.0
100
AcDbLine
 10
147.2631916318731
 20
485.8787848428857
 30
0.0
 11
146.2631916318733
 21
485.8787848428858
 31
0.0
  0
LINE
  5
258E
330
1A
100
AcDbEntity
  8
SEIHIN
  6
Continuous
 62
     3
 48
5.0
100
AcDbLine
 10
148.2631916318731
 20
485.8787848428856
 30
0.0
 11
148.2631916318731
 21
489.3684984078857
 31
0.0
  0
LINE
  5
258F
330
1A
100
AcDbEntity
  8
SEIHIN
  6
Continuous
 62
     3
 48
5.0
100
AcDbLine
 10
146.2631916318733
 20
485.8787848428858
 30
0.0
 11
146.2631916318731
 21
489.3684984078856
 31
0.0
  0
LINE
  5
2590
330
1A
100
AcDbEntity
  8
SEIHIN
  6
Continuous
 62
     3
 48
5.0
100
AcDbLine
 10
158.2631916318731
 20
484.0047147936861
 30
0.0
 11
158.2631916318733
 21
483.005744223886
 31
0.0
  0
LINE
  5
2591
330
1A
100
AcDbEntity
  8
SEIHIN
  6
Continuous
 62
     3
 48
5.0
100
AcDbLine
 10
157.263188711223
 20
485.0036855317362
 30
0.0
 11
156.2631857905729
 21
485.0036856999862
 31
0.0
  0
LINE
  5
2592
330
1A
100
AcDbEntity
  8
SEIHIN
  6
Continuous
 62
     3
 48
5.0
100
AcDbLine
 10
156.2631916318733
 20
485.8787848428855
 30
0.0
 11
156.2631916318733
 21
485.0037848428859
 31
0.0
  0
LINE
  5
2593
330
1A
100
AcDbEntity
  8
SEIHIN
  6
Continuous
 62
     3
 48
5.0
100
AcDbLine
 10
156.2631916318733
 20
485.0037848428859
 30
0.0
 11
156.2631916318736
 21
484.1287848428862
 31
0.0
  0
LINE
  5
2594
330
1A
100
AcDbEntity
  8
SEIHIN
  6
Continuous
 62
     3
 48
5.0
100
AcDbLine
 10
158.2631916318731
 20
485.0036853634862
 30
0.0
 11
158.2631916318731
 21
484.0047147936861
 31
0.0
  0
LINE
  5
2595
330
1A
100
AcDbEntity
  8
SEIHIN
  6
Continuous
 62
     3
 48
5.0
100
AcDbLine
 10
158.2631916318731
 20
485.0036853634862
 30
0.0
 11
157.263188711223
 21
485.0036855317362
 31
0.0
  0
LINE
  5
2596
330
1A
100
AcDbEntity
  8
SEIHIN
  6
Continuous
 62
     3
 48
5.0
100
AcDbLine
 10
161.1921173844729
 20
484.7839829792866
 30
0.0
 11
160.2991802011732
 21
484.8199581077858
 31
0.0
  0
LINE
  5
2597
330
1A
100
AcDbEntity
  8
SEIHIN
  6
Continuous
 62
     3
 48
5.0
100
AcDbLine
 10
160.2991802011732
 20
484.8199581077858
 30
0.0
 11
159.3182218585735
 21
484.8508407642859
 31
0.0
  0
LINE
  5
2598
330
1A
100
AcDbEntity
  8
SEIHIN
  6
Continuous
 62
     3
 48
5.0
100
AcDbLine
 10
159.3182218585735
 20
484.8508407642859
 30
0.0
 11
158.2631898437731
 21
484.8761988153868
 31
0.0
  0
LINE
  5
2599
330
1A
100
AcDbEntity
  8
SEIHIN
  6
Continuous
 62
     3
 48
5.0
100
AcDbLine
 10
156.2631916318731
 20
489.0287848428858
 30
0.0
 11
156.2631916318733
 21
485.8787848428855
 31
0.0
  0
LINE
  5
259A
330
1A
100
AcDbEntity
  8
SEIHIN
  6
Continuous
 62
     3
 48
5.0
100
AcDbLine
 10
146.2631916318731
 20
493.3484984078856
 30
0.0
 11
146.2631916318731
 21
492.8582119728855
 31
0.0
  0
LINE
  5
259B
330
1A
100
AcDbEntity
  8
SEIHIN
  6
Continuous
 62
     3
 48
5.0
100
AcDbLine
 10
148.2631916318729
 20
492.8582119728857
 30
0.0
 11
148.2631916318729
 21
493.3484984078861
 31
0.0
  0
LINE
  5
259C
330
1A
100
AcDbEntity
  8
SEIHIN
  6
Continuous
 62
     3
 48
5.0
100
AcDbLine
 10
146.2631916318733
 20
493.8387848428858
 30
0.0
 11
146.2631916318731
 21
493.3484984078856
 31
0.0
  0
LINE
  5
259D
330
1A
100
AcDbEntity
  8
SEIHIN
  6
Continuous
 62
     3
 48
5.0
100
AcDbLine
 10
148.2631916318729
 20
493.3484984078861
 30
0.0
 11
148.2631916318729
 21
493.8387848428862
 31
0.0
  0
LINE
  5
259E
330
1A
100
AcDbEntity
  8
SEIHIN
  6
Continuous
 62
     3
 48
5.0
100
AcDbLine
 10
148.2631916318729
 20
493.8387848428862
 30
0.0
 11
147.2631916318731
 21
493.838784842886
 31
0.0
  0
LINE
  5
259F
330
1A
100
AcDbEntity
  8
SEIHIN
  6
Continuous
 62
     3
 48
5.0
100
AcDbLine
 10
147.2631916318731
 20
493.838784842886
 30
0.0
 11
146.2631916318733
 21
493.8387848428858
 31
0.0
  0
ARC
  5
25A0
330
1A
100
AcDbEntity
  8
SEIHIN
  6
Continuous
 62
     3
 48
5.0
100
AcDbCircle
 10
157.2631916318731
 20
492.1787848428862
 30
0.0
 40
1.000000000000008
100
AcDbArc
 50
90.0
 51
135.0000000000095
  0
ARC
  5
25A1
330
1A
100
AcDbEntity
  8
SEIHIN
  6
Continuous
 62
     3
 48
5.0
100
AcDbCircle
 10
157.2631916318731
 20
492.1787848428862
 30
0.0
 40
1.0
100
AcDbArc
 50
135.0000000000095
 51
180.0000000000033
  0
LINE
  5
25A2
330
1A
100
AcDbEntity
  8
SEIHIN
  6
Continuous
 62
     3
 48
5.0
100
AcDbLine
 10
175.3342581306732
 20
484.1417913606862
 30
0.0
 11
168.263187757573
 21
484.4628871699864
 31
0.0
  0
LINE
  5
25A3
330
1A
100
AcDbEntity
  8
SEIHIN
  6
Continuous
 62
     3
 48
5.0
100
AcDbLine
 10
176.8496317182733
 20
484.0853196849867
 30
0.0
 11
175.3342581306732
 21
484.1417913606862
 31
0.0
  0
LINE
  5
25A4
330
1A
100
AcDbEntity
  8
SEIHIN
  6
Continuous
 62
     3
 48
5.0
100
AcDbLine
 10
182.4053210530731
 20
484.0087910463859
 30
0.0
 11
207.3342559252233
 21
484.0087910463861
 31
0.0
  0
LINE
  5
25A5
330
1A
100
AcDbEntity
  8
SEIHIN
  6
Continuous
 62
     3
 48
5.0
100
AcDbLine
 10
182.4053210530731
 20
484.0087910463859
 30
0.0
 11
180.4544312272731
 21
484.0175156762863
 31
0.0
  0
LINE
  5
25A6
330
1A
100
AcDbEntity
  8
SEIHIN
  6
Continuous
 62
     3
 48
5.0
100
AcDbLine
 10
180.4544312272731
 20
484.0175156762863
 30
0.0
 11
178.5784942422727
 21
484.0433580150858
 31
0.0
  0
LINE
  5
25A7
330
1A
100
AcDbEntity
  8
SEIHIN
  6
Continuous
 62
     3
 48
5.0
100
AcDbLine
 10
233.2631916318736
 20
488.2122149040863
 30
0.0
 11
271.7631945525234
 21
488.2122149040864
 31
0.0
  0
LINE
  5
25A8
330
1A
100
AcDbEntity
  8
SEIHIN
  6
Continuous
 62
     3
 48
5.0
100
AcDbLine
 10
259.1921273385228
 20
484.0087910463861
 30
0.0
 11
234.2631924663727
 21
484.0087910463864
 31
0.0
  0
LINE
  5
25A9
330
1A
100
AcDbEntity
  8
SEIHIN
  6
Continuous
 62
     3
 48
5.0
100
AcDbLine
 10
234.2631924663731
 20
484.9169870188862
 30
0.0
 11
234.2631920491231
 21
482.346295549136
 31
0.0
  0
LINE
  5
25AA
330
1A
100
AcDbEntity
  8
SEIHIN
  6
Continuous
 62
     3
 48
5.0
100
AcDbLine
 10
232.2631907973731
 20
484.9169870188862
 30
0.0
 11
232.2631912146231
 21
482.346295549136
 31
0.0
  0
LINE
  5
25AB
330
1A
100
AcDbEntity
  8
SEIHIN
  6
Continuous
 62
     3
 48
5.0
100
AcDbLine
 10
233.7631920491234
 20
484.9169870188862
 30
0.0
 11
234.2631924663731
 21
484.9169870188862
 31
0.0
  0
LINE
  5
25AC
330
1A
100
AcDbEntity
  8
SEIHIN
  6
Continuous
 62
     3
 48
5.0
100
AcDbLine
 10
233.2631916318733
 20
484.9169870188863
 30
0.0
 11
233.7631920491234
 21
484.9169870188862
 31
0.0
  0
LINE
  5
25AD
330
1A
100
AcDbEntity
  8
SEIHIN
  6
Continuous
 62
     3
 48
5.0
100
AcDbLine
 10
233.2631916318729
 20
484.9169870188863
 30
0.0
 11
232.7631912146229
 21
484.9169870188862
 31
0.0
  0
LINE
  5
25AE
330
1A
100
AcDbEntity
  8
SEIHIN
  6
Continuous
 62
     3
 48
5.0
100
AcDbLine
 10
232.7631912146229
 20
484.9169870188862
 30
0.0
 11
232.2631907973731
 21
484.9169870188862
 31
0.0
  0
LINE
  5
25AF
330
1A
100
AcDbEntity
  8
SEIHIN
  6
Continuous
 62
     3
 48
5.0
100
AcDbLine
 10
234.2631920491231
 20
482.346295549136
 30
0.0
 11
234.2631916318731
 21
479.7756040793859
 31
0.0
  0
LINE
  5
25B0
330
1A
100
AcDbEntity
  8
SEIHIN
  6
Continuous
 62
     3
 48
5.0
100
AcDbLine
 10
233.7631916318731
 20
479.7756040793863
 30
0.0
 11
234.2631916318731
 21
479.7756040793859
 31
0.0
  0
LINE
  5
25B1
330
1A
100
AcDbEntity
  8
SEIHIN
  6
Continuous
 62
     3
 48
5.0
100
AcDbLine
 10
233.2631916318733
 20
479.7756040793868
 30
0.0
 11
233.7631916318731
 21
479.7756040793863
 31
0.0
  0
LINE
  5
25B2
330
1A
100
AcDbEntity
  8
SEIHIN
  6
Continuous
 62
     3
 48
5.0
100
AcDbLine
 10
233.2631916318729
 20
479.7756040793868
 30
0.0
 11
232.7631916318731
 21
479.7756040793863
 31
0.0
  0
LINE
  5
25B3
330
1A
100
AcDbEntity
  8
SEIHIN
  6
Continuous
 62
     3
 48
5.0
100
AcDbLine
 10
232.7631916318731
 20
479.7756040793863
 30
0.0
 11
232.2631916318731
 21
479.7756040793859
 31
0.0
  0
LINE
  5
25B4
330
1A
100
AcDbEntity
  8
SEIHIN
  6
Continuous
 62
     3
 48
5.0
100
AcDbLine
 10
232.2631912146231
 20
482.346295549136
 30
0.0
 11
232.2631916318731
 21
479.7756040793859
 31
0.0
  0
LINE
  5
25B5
330
1A
100
AcDbEntity
  8
SEIHIN
  6
Continuous
 62
     3
 48
5.0
100
AcDbLine
 10
309.2631945525232
 20
485.0036855317363
 30
0.0
 11
310.2631974731733
 21
485.0036856999863
 31
0.0
  0
ARC
  5
25B6
330
1A
100
AcDbEntity
  8
SEIHIN
  6
Continuous
 62
     3
 48
5.0
100
AcDbCircle
 10
309.263191631873
 20
492.1787848428862
 30
0.0
 40
1.000000000000008
100
AcDbArc
 50
44.9999999999905
 51
90.0
  0
LINE
  5
25B7
330
1A
100
AcDbEntity
  8
SEIHIN
  6
Continuous
 62
     3
 48
5.0
100
AcDbLine
 10
291.192125133073
 20
484.1417913606863
 30
0.0
 11
298.2631955061731
 21
484.4628871699865
 31
0.0
  0
LINE
  5
25B8
330
1A
100
AcDbEntity
  8
SEIHIN
  6
Continuous
 62
     3
 48
5.0
100
AcDbLine
 10
284.121062210673
 20
484.008791046386
 30
0.0
 11
286.071952036473
 21
484.0175156762863
 31
0.0
  0
LINE
  5
25B9
330
1A
100
AcDbEntity
  8
SEIHIN
  6
Continuous
 62
     3
 48
5.0
100
AcDbLine
 10
289.6767515454728
 20
484.0853196849868
 30
0.0
 11
291.192125133073
 21
484.1417913606863
 31
0.0
  0
LINE
  5
25BA
330
1A
100
AcDbEntity
  8
SEIHIN
  6
Continuous
 62
     3
 48
5.0
100
AcDbLine
 10
287.9478890214734
 20
484.0433580150859
 30
0.0
 11
289.6767515454728
 21
484.0853196849868
 31
0.0
  0
LINE
  5
25BB
330
1A
100
AcDbEntity
  8
SEIHIN
  6
Continuous
 62
     3
 48
5.0
100
AcDbLine
 10
286.071952036473
 20
484.0175156762863
 30
0.0
 11
287.9478890214734
 21
484.0433580150859
 31
0.0
  0
LINE
  5
25BC
330
1A
100
AcDbEntity
  8
SEIHIN
  6
Continuous
 62
     3
 48
5.0
100
AcDbLine
 10
298.2631955061731
 20
484.4628871699865
 30
0.0
 11
305.3342658792733
 21
484.7839829792867
 31
0.0
  0
LINE
  5
25BD
330
1A
100
AcDbEntity
  8
SEIHIN
  6
Continuous
 62
     3
 48
5.0
100
AcDbLine
 10
308.263191631873
 20
484.0047147936862
 30
0.0
 11
308.2631916318728
 21
483.0057442238861
 31
0.0
  0
LINE
  5
25BE
330
1A
100
AcDbEntity
  8
SEIHIN
  6
Continuous
 62
     3
 48
5.0
100
AcDbLine
 10
307.2081614051726
 20
484.850840764286
 30
0.0
 11
308.2631934199731
 21
484.8761988153869
 31
0.0
  0
LINE
  5
25BF
330
1A
100
AcDbEntity
  8
SEIHIN
  6
Continuous
 62
     3
 48
5.0
100
AcDbLine
 10
306.2272030625729
 20
484.8199581077859
 30
0.0
 11
307.2081614051726
 21
484.850840764286
 31
0.0
  0
LINE
  5
25C0
330
1A
100
AcDbEntity
  8
SEIHIN
  6
Continuous
 62
     3
 48
5.0
100
AcDbLine
 10
305.3342658792733
 20
484.7839829792867
 30
0.0
 11
306.2272030625729
 21
484.8199581077859
 31
0.0
  0
LINE
  5
25C1
330
1A
100
AcDbEntity
  8
SEIHIN
  6
Continuous
 62
     3
 48
5.0
100
AcDbLine
 10
308.263191631873
 20
485.0036853634863
 30
0.0
 11
309.2631945525232
 21
485.0036855317363
 31
0.0
  0
LINE
  5
25C2
330
1A
100
AcDbEntity
  8
SEIHIN
  6
Continuous
 62
     3
 48
5.0
100
AcDbLine
 10
308.263191631873
 20
485.0036853634863
 30
0.0
 11
308.263191631873
 21
484.0047147936862
 31
0.0
  0
LINE
  5
25C3
330
1A
100
AcDbEntity
  8
SEIHIN
  6
Continuous
 62
     3
 48
5.0
100
AcDbLine
 10
319.2631916318728
 20
484.1287848428859
 30
0.0
 11
328.263191631873
 21
484.1287848428855
 31
0.0
  0
LINE
  5
25C4
330
1A
100
AcDbEntity
  8
SEIHIN
  6
Continuous
 62
     3
 48
5.0
100
AcDbLine
 10
320.263191631873
 20
489.3684984078858
 30
0.0
 11
320.263191631873
 21
492.8582119728856
 31
0.0
  0
LINE
  5
25C5
330
1A
100
AcDbEntity
  8
SEIHIN
  6
Continuous
 62
     3
 48
5.0
100
AcDbLine
 10
318.263191631873
 20
489.3684984078859
 30
0.0
 11
318.2631916318733
 21
492.858211972886
 31
0.0
  0
LINE
  5
25C6
330
1A
100
AcDbEntity
  8
SEIHIN
  6
Continuous
 62
     3
 48
5.0
100
AcDbLine
 10
310.263191631873
 20
492.1787848428862
 30
0.0
 11
310.263191631873
 21
489.0287848428859
 31
0.0
  0
LINE
  5
25C7
330
1A
100
AcDbEntity
  8
SEIHIN
  6
Continuous
 62
     3
 48
5.0
100
AcDbLine
 10
310.2631916318726
 20
484.1287848428863
 30
0.0
 11
319.2631916318728
 21
484.1287848428859
 31
0.0
  0
LINE
  5
25C8
330
1A
100
AcDbEntity
  8
SEIHIN
  6
Continuous
 62
     3
 48
5.0
100
AcDbLine
 10
310.2631916318728
 20
485.003784842886
 30
0.0
 11
310.2631916318726
 21
484.1287848428863
 31
0.0
  0
LINE
  5
25C9
330
1A
100
AcDbEntity
  8
SEIHIN
  6
Continuous
 62
     3
 48
5.0
100
AcDbLine
 10
310.2631916318728
 20
485.8787848428856
 30
0.0
 11
310.2631916318728
 21
485.003784842886
 31
0.0
  0
LINE
  5
25CA
330
1A
100
AcDbEntity
  8
SEIHIN
  6
Continuous
 62
     3
 48
5.0
100
AcDbLine
 10
310.263191631873
 20
489.0287848428859
 30
0.0
 11
310.2631916318728
 21
485.8787848428856
 31
0.0
  0
LINE
  5
25CB
330
1A
100
AcDbEntity
  8
SEIHIN
  6
Continuous
 62
     3
 48
5.0
100
AcDbLine
 10
319.263191631873
 20
485.8787848428859
 30
0.0
 11
320.2631916318728
 21
485.878784842886
 31
0.0
  0
LINE
  5
25CC
330
1A
100
AcDbEntity
  8
SEIHIN
  6
Continuous
 62
     3
 48
5.0
100
AcDbLine
 10
318.263191631873
 20
485.8787848428858
 30
0.0
 11
319.263191631873
 21
485.8787848428859
 31
0.0
  0
LINE
  5
25CD
330
1A
100
AcDbEntity
  8
SEIHIN
  6
Continuous
 62
     3
 48
5.0
100
AcDbLine
 10
320.2631916318728
 20
485.878784842886
 30
0.0
 11
320.263191631873
 21
489.3684984078858
 31
0.0
  0
LINE
  5
25CE
330
1A
100
AcDbEntity
  8
SEIHIN
  6
Continuous
 62
     3
 48
5.0
100
AcDbLine
 10
318.263191631873
 20
485.8787848428858
 30
0.0
 11
318.263191631873
 21
489.3684984078859
 31
0.0
  0
ARC
  5
25CF
330
1A
100
AcDbEntity
  8
SEIHIN
  6
Continuous
 62
     3
 48
5.0
100
AcDbCircle
 10
309.263191631873
 20
492.1787848428862
 30
0.0
 40
1.0
100
AcDbArc
 50
359.9999999999968
 51
44.9999999999905
  0
LINE
  5
25D0
330
1A
100
AcDbEntity
  8
SEIHIN
  6
Continuous
 62
     3
 48
5.0
100
AcDbLine
 10
319.263191631873
 20
493.8387848428862
 30
0.0
 11
320.2631916318728
 21
493.838784842886
 31
0.0
  0
LINE
  5
25D1
330
1A
100
AcDbEntity
  8
SEIHIN
  6
Continuous
 62
     3
 48
5.0
100
AcDbLine
 10
318.2631916318733
 20
493.8387848428865
 30
0.0
 11
319.263191631873
 21
493.8387848428862
 31
0.0
  0
LINE
  5
25D2
330
1A
100
AcDbEntity
  8
SEIHIN
  6
Continuous
 62
     3
 48
5.0
100
AcDbLine
 10
318.2631916318733
 20
493.3484984078862
 30
0.0
 11
318.2631916318733
 21
493.8387848428865
 31
0.0
  0
LINE
  5
25D3
330
1A
100
AcDbEntity
  8
SEIHIN
  6
Continuous
 62
     3
 48
5.0
100
AcDbLine
 10
320.2631916318728
 20
493.838784842886
 30
0.0
 11
320.263191631873
 21
493.3484984078859
 31
0.0
  0
LINE
  5
25D4
330
1A
100
AcDbEntity
  8
SEIHIN
  6
Continuous
 62
     3
 48
5.0
100
AcDbLine
 10
318.2631916318733
 20
492.858211972886
 30
0.0
 11
318.2631916318733
 21
493.3484984078862
 31
0.0
  0
LINE
  5
25D5
330
1A
100
AcDbEntity
  8
SEIHIN
  6
Continuous
 62
     3
 48
5.0
100
AcDbLine
 10
320.263191631873
 20
493.3484984078859
 30
0.0
 11
320.263191631873
 21
492.8582119728856
 31
0.0
  0
DIMENSION
  5
25D6
330
1A
100
AcDbEntity
  8
SUNPOU
100
AcDbDimension
  2
*D11
 10
667.6201968529695
 20
109.2288541259965
 30
0.0
 11
662.6201968529695
 21
173.3288541259967
 31
0.0
 70
    32
 71
     5
 42
128.2000000000002
  3
STANDARD
100
AcDbAlignedDimension
 13
636.2276827979924
 23
237.4288541259967
 33
0.0
 14
606.5167408986922
 24
109.2288541259965
 34
0.0
 50
90.0
100
AcDbRotatedDimension
1001
ACAD
1000
DSTYLE
1002
{
1070
    41
1040
7.0
1070
    42
1040
6.0
1070
    43
1040
14.0
1070
    44
1040
3.0
1070
    73
1070
     0
1070
    74
1070
     0
1070
    77
1070
     3
1070
   140
1040
6.0
1070
   141
1040
150.0
1070
   147
1040
2.0
1070
   172
1070
     1
1070
   173
1070
     1
1070
   176
1070
   256
1070
   177
1070
   256
1070
   178
1070
   256
1070
   271
1070
     0
1070
   272
1070
     0
1070
   341
1005
6D
1070
     6
1000
OPEN
1070
     7
1000
OPEN
1070
   371
1070
    -1
1070
   372
1070
    -1
1002
}
  0
LINE
  5
25D7
330
1A
100
AcDbEntity
  8
SUNPOU
 62
     4
100
AcDbLine
 10
477.7106581296347
 20
108.2286841259965
 30
0.0
 11
477.7106581296347
 21
101.2286841259965
 31
0.0
  0
DIMENSION
  5
25D8
330
1A
100
AcDbEntity
  8
SUNPOU
100
AcDbDimension
  2
*D12
 10
612.2276679337922
 20
77.05802274359348
 30
0.0
 11
577.2275679338081
 21
82.05802274359348
 31
0.0
 70
    32
  1
φ<>
 71
     5
 42
70.00019999996812
  3
STANDARD
100
AcDbAlignedDimension
 13
542.2274679338241
 23
115.228814126099
 33
0.0
 14
612.2276679337922
 24
115.2286441259965
 34
0.0
100
AcDbRotatedDimension
1001
ACAD
1000
DSTYLE
1002
{
1070
    41
1040
7.0
1070
    42
1040
6.0
1070
    43
1040
14.0
1070
    44
1040
3.0
1070
    73
1070
     0
1070
    74
1070
     0
1070
    77
1070
     3
1070
   140
1040
6.0
1070
   141
1040
150.0
1070
   147
1040
2.0
1070
   172
1070
     1
1070
   173
1070
     1
1070
   176
1070
     4
1070
   177
1070
     4
1070
   178
1070
     4
1070
   271
1070
     0
1070
   272
1070
     2
1070
   341
1005
6D
1070
     6
1000
OPEN
1070
     7
1000
OPEN
1002
}
  0
LINE
  5
25D9
330
1A
100
AcDbEntity
  8
CENTER L
  6
CENTER
 62
     1
 48
5.0
100
AcDbLine
 10
577.3167408986922
 20
149.2371471093452
 30
0.0
 11
577.3167408986922
 21
100.8268502718304
 31
0.0
  0
MTEXT
  5
25DA
330
1A
100
AcDbEntity
  8
SUNPOU
 62
     4
100
AcDbMText
 10
470.2170482348161
 20
89.50718570599346
 30
0.0
 40
6.0
 41
0.0
 71
     5
 72
     5
  1
\U+203Bb 10
 11
6.123031769111886E-17
 21
1.0
 31
0.0
 73
     1
 44
1.0
  0
INSERT
  5
25DB
330
1A
100
AcDbEntity
  8
SUNPOU
100
AcDbBlockReference
  2
A$C49B61C09
 10
498.0392471599205
 20
175.4286500153826
 30
0.0
  0
LINE
  5
25DC
330
1A
100
AcDbEntity
  8
SEIHIN
  6
Continuous
 62
     3
 48
5.0
100
AcDbLine
 10
529.5322359915922
 20
172.9288541259966
 30
0.0
 11
574.7379650311921
 21
172.9288541259966
 31
0.0
  0
LINE
  5
25DD
330
1A
100
AcDbEntity
  8
SEIHIN
  6
Continuous
 62
     3
 48
5.0
100
AcDbLine
 10
531.7004744958922
 20
175.4288541259966
 30
0.0
 11
574.715883692458
 21
175.4288541259966
 31
0.0
  0
DIMENSION
  5
25DE
330
1A
100
AcDbEntity
  8
SUNPOU
100
AcDbDimension
  2
*D13
 10
494.0445548835787
 20
284.3124132856071
 30
0.0
 11
562.1361188407856
 21
289.3124132856071
 31
0.0
 70
    32
 71
     5
 42
136.1831279144137
  3
STANDARD
100
AcDbAlignedDimension
 13
630.2276827979924
 23
237.4288541259967
 33
0.0
 14
494.0445548835787
 24
257.2288541259967
 34
0.0
100
AcDbRotatedDimension
1001
ACAD
1000
DSTYLE
1002
{
1070
    41
1040
7.0
1070
    42
1040
6.0
1070
    43
1040
14.0
1070
    44
1040
3.0
1070
    73
1070
     0
1070
    74
1070
     0
1070
    77
1070
     3
1070
   140
1040
6.0
1070
   141
1040
150.0
1070
   147
1040
2.0
1070
   172
1070
     1
1070
   173
1070
     1
1070
   176
1070
   256
1070
   177
1070
   256
1070
   178
1070
   256
1070
   271
1070
     0
1070
   272
1070
     0
1070
   341
1005
6D
1070
     6
1000
OPEN
1070
     7
1000
OPEN
1070
   371
1070
    -1
1070
   372
1070
    -1
1002
}
  0
DIMENSION
  5
25DF
330
1A
100
AcDbEntity
  8
SUNPOU
100
AcDbDimension
  2
*D14
 10
462.2193091371701
 20
109.2288541259966
 30
0.0
 11
457.2193091371701
 21
131.0788541259966
 31
0.0
 70
    32
 71
     5
 42
43.7
  3
STANDARD
100
AcDbAlignedDimension
 13
527.6852432868984
 23
152.9288541259965
 33
0.0
 14
548.1167408986921
 24
109.2288541259965
 34
0.0
 50
90.0
100
AcDbRotatedDimension
1001
ACAD
1000
DSTYLE
1002
{
1070
    41
1040
7.0
1070
    42
1040
6.0
1070
    43
1040
14.0
1070
    44
1040
3.0
1070
    73
1070
     0
1070
    74
1070
     0
1070
    77
1070
     3
1070
   140
1040
6.0
1070
   141
1040
150.0
1070
   147
1040
2.0
1070
   172
1070
     1
1070
   173
1070
     1
1070
   176
1070
   256
1070
   177
1070
   256
1070
   178
1070
   256
1070
   271
1070
     0
1070
   272
1070
     0
1070
   341
1005
6D
1070
     6
1000
OPEN
1070
     7
1000
OPEN
1070
   371
1070
    -1
1070
   372
1070
    -1
1002
}
  0
LINE
  5
25E0
330
1A
100
AcDbEntity
  8
SEIHIN
  6
Continuous
 62
     3
 48
5.0
100
AcDbLine
 10
535.4198364823919
 20
152.9288541259965
 30
0.0
 11
577.227667933792
 21
152.9288541259965
 31
0.0
  0
DIMENSION
  5
25E1
330
1A
100
AcDbEntity
  8
SUNPOU
100
AcDbDimension
  2
*D15
 10
445.3223982138252
 20
109.2288541259965
 30
0.0
 11
440.3223982138252
 21
183.2288541259967
 31
0.0
 70
    32
 71
     5
 42
148.0000000000002
  3
STANDARD
100
AcDbAlignedDimension
 13
494.0445548835787
 23
257.2288541259967
 33
0.0
 14
542.1167408986921
 24
109.2288541259965
 34
0.0
 50
90.0
100
AcDbRotatedDimension
1001
ACAD
1000
DSTYLE
1002
{
1070
    41
1040
7.0
1070
    42
1040
6.0
1070
    43
1040
14.0
1070
    44
1040
3.0
1070
    73
1070
     0
1070
    74
1070
     0
1070
    77
1070
     3
1070
   140
1040
6.0
1070
   141
1040
150.0
1070
   147
1040
2.0
1070
   172
1070
     1
1070
   173
1070
     1
1070
   176
1070
   256
1070
   177
1070
   256
1070
   178
1070
   256
1070
   271
1070
     0
1070
   272
1070
     0
1070
   341
1005
6D
1070
     6
1000
OPEN
1070
     7
1000
OPEN
1070
   371
1070
    -1
1070
   372
1070
    -1
1002
}
  0
ARC
  5
25E2
330
1A
100
AcDbEntity
  8
SEIHIN
  6
Continuous
 62
     3
 48
5.0
100
AcDbCircle
 10
535.4121543612921
 20
205.2656168357966
 30
0.0
 40
20.00000000000009
100
AcDbArc
 50
187.9999999999986
 51
214.4306772468487
  0
ARC
  5
25E3
330
1A
100
AcDbEntity
  8
SEIHIN
  6
Continuous
 62
     3
 48
5.0
100
AcDbCircle
 10
535.4121543612921
 20
205.2656168357966
 30
0.0
 40
17.50000000000006
100
AcDbArc
 50
187.999999999999
 51
216.4088046688975
  0
DIMENSION
  5
25E4
330
1A
100
AcDbEntity
  8
SUNPOU
100
AcDbDimension
  2
*D16
 10
462.2193091371701
 20
257.2288541259967
 30
0.0
 11
457.21930913717
 21
205.0788541259967
 31
0.0
 70
    32
 71
     5
 42
104.3000000000002
  3
STANDARD
100
AcDbAlignedDimension
 13
533.6852432868984
 23
152.9288541259965
 33
0.0
 14
494.0445548835787
 24
257.2288541259967
 34
0.0
 50
90.0
100
AcDbRotatedDimension
1001
ACAD
1000
DSTYLE
1002
{
1070
    41
1040
7.0
1070
    42
1040
6.0
1070
    43
1040
14.0
1070
    44
1040
3.0
1070
    73
1070
     0
1070
    74
1070
     0
1070
    77
1070
     3
1070
   140
1040
6.0
1070
   141
1040
150.0
1070
   147
1040
2.0
1070
   172
1070
     1
1070
   173
1070
     1
1070
   176
1070
   256
1070
   177
1070
   256
1070
   178
1070
   256
1070
   271
1070
     0
1070
   272
1070
     0
1070
   341
1005
6D
1070
     6
1000
OPEN
1070
     7
1000
OPEN
1070
   371
1070
    -1
1070
   372
1070
    -1
1002
}
  0
ARC
  5
25E5
330
1A
100
AcDbEntity
  8
SEIHIN
  6
Continuous
 62
     3
 48
5.0
100
AcDbCircle
 10
535.4198364823919
 20
154.9288541259965
 30
0.0
 40
1.99999999999992
100
AcDbArc
 50
188.1301023542021
 51
229.0650511770985
  0
LINE
  5
25E6
330
1A
100
AcDbEntity
  8
SUNPOU
 62
     4
100
AcDbLine
 10
534.8228197404653
 20
125.2291139434086
 30
0.0
 11
474.7106581296348
 21
125.2291139434086
 31
0.0
  0
LINE
  5
25E7
330
1A
100
AcDbEntity
  8
SUNPOU
 62
     4
100
AcDbLine
 10
536.3165408986922
 20
115.2286841259965
 30
0.0
 11
474.7106581296347
 21
115.2286841259965
 31
0.0
  0
INSERT
  5
25E8
330
1A
100
AcDbEntity
  8
SUNPOU
 62
     4
100
AcDbBlockReference
  2
_OPEN
 10
477.7106581296348
 20
125.2291139434086
 30
0.0
 41
7.0
 42
7.0
 43
7.0
 50
270.0
  0
LINE
  5
25E9
330
1A
100
AcDbEntity
  8
SUNPOU
 62
     4
100
AcDbLine
 10
477.7106581296347
 20
115.2286841259965
 30
0.0
 11
477.7106581296348
 21
125.2291139434086
 31
0.0
  0
INSERT
  5
25EA
330
1A
100
AcDbEntity
  8
SUNPOU
 62
     4
100
AcDbBlockReference
  2
_OPEN
 10
477.7106581296347
 20
115.2286841259965
 30
0.0
 41
7.0
 42
7.0
 43
7.0
 50
90.0
  0
LINE
  5
25EB
330
1A
100
AcDbEntity
  8
SUNPOU
 62
     4
100
AcDbLine
 10
477.7106581296348
 20
132.2291139434086
 30
0.0
 11
477.7106581296348
 21
139.2291139434086
 31
0.0
  0
ARC
  5
25EC
330
1A
100
AcDbEntity
  8
SEIHIN
  6
Continuous
 62
     3
 48
5.0
100
AcDbCircle
 10
535.4198364823919
 20
154.9288541259965
 30
0.0
 40
1.999999999999974
100
AcDbArc
 50
229.0650511770985
 51
270.0
  0
ARC
  5
25ED
330
1A
100
AcDbEntity
  8
SEIHIN
  6
Continuous
 62
     3
 48
5.0
100
AcDbCircle
 10
531.7004744958922
 20
177.4288541259967
 30
0.0
 40
2.000000000000032
100
AcDbArc
 50
188.1301023542017
 51
229.0650511770985
  0
LINE
  5
25EE
330
1A
100
AcDbEntity
  8
SEIHIN
  6
Continuous
 62
     3
 48
5.0
100
AcDbLine
 10
526.612999467442
 20
181.2213741715466
 30
0.0
 11
527.552337004292
 21
174.6460114134966
 31
0.0
  0
LINE
  5
25EF
330
1A
100
AcDbEntity
  8
SEIHIN
  6
Continuous
 62
     3
 48
5.0
100
AcDbLine
 10
531.990445122342
 20
164.7924580229465
 30
0.0
 11
530.9802925777922
 21
171.8635258347966
 31
0.0
  0
LINE
  5
25F0
330
1A
100
AcDbEntity
  8
SEIHIN
  6
Continuous
 62
     3
 48
5.0
100
AcDbLine
 10
533.187140931992
 20
156.4155805590965
 30
0.0
 11
531.990445122342
 21
164.7924580229465
 31
0.0
  0
LINE
  5
25F1
330
1A
100
AcDbEntity
  8
SEIHIN
  6
Continuous
 62
     3
 48
5.0
100
AcDbLine
 10
533.4111165606921
 20
154.8477660598965
 30
0.0
 11
533.325755258792
 21
155.4452765467965
 31
0.0
  0
LINE
  5
25F2
330
1A
100
AcDbEntity
  8
SEIHIN
  6
Continuous
 62
     3
 48
5.0
100
AcDbLine
 10
533.439939131692
 20
154.6460117878965
 30
0.0
 11
533.4111165606921
 21
154.8477660598965
 31
0.0
  0
LINE
  5
25F3
330
1A
100
AcDbEntity
  8
SEIHIN
  6
Continuous
 62
     3
 48
5.0
100
AcDbLine
 10
533.325755258792
 20
155.4452765467965
 30
0.0
 11
533.187140931992
 21
156.4155805590965
 31
0.0
  0
ARC
  5
25F4
330
1A
100
AcDbEntity
  8
SEIHIN
  6
Continuous
 62
     3
 48
5.0
100
AcDbCircle
 10
531.7004744958922
 20
177.4288541259967
 30
0.0
 40
2.000000000000048
100
AcDbArc
 50
229.0650511770985
 51
270.0
  0
LINE
  5
25F5
330
1A
100
AcDbEntity
  8
SEIHIN
  6
Continuous
 62
     3
 48
5.0
100
AcDbLine
 10
530.9507560335919
 20
172.0702748479966
 30
0.0
 11
530.7886015974921
 21
172.4898840966966
 31
0.0
  0
ARC
  5
25F6
330
1A
100
AcDbEntity
  8
SEIHIN
  6
Continuous
 62
     3
 48
5.0
100
AcDbCircle
 10
529.5322359915922
 20
174.9288541259966
 30
0.0
 40
2.000000000000032
100
AcDbArc
 50
188.1301023542017
 51
229.0650511770985
  0
ARC
  5
25F7
330
1A
100
AcDbEntity
  8
SEIHIN
  6
Continuous
 62
     3
 48
5.0
100
AcDbCircle
 10
529.5322359915922
 20
174.9288541259966
 30
0.0
 40
2.000000000000048
100
AcDbArc
 50
229.0650511770985
 51
270.0
  0
LINE
  5
25F8
330
1A
100
AcDbEntity
  8
SEIHIN
  6
Continuous
 62
     3
 48
5.0
100
AcDbLine
 10
529.9608085655921
 20
172.9288536789966
 30
0.0
 11
529.9708668493922
 21
172.9288425030966
 31
0.0
  0
LINE
  5
25F9
330
1A
100
AcDbEntity
  8
SEIHIN
  6
Continuous
 62
     3
 48
5.0
100
AcDbLine
 10
529.9644258224921
 20
172.9288462283966
 30
0.0
 11
529.9608085655921
 21
172.9288536789966
 31
0.0
  0
LINE
  5
25FA
330
1A
100
AcDbEntity
  8
SEIHIN
  6
Continuous
 62
     3
 48
5.0
100
AcDbLine
 10
530.3499747418921
 20
172.8500228109966
 30
0.0
 11
529.9644258224921
 21
172.9288462283966
 31
0.0
  0
LINE
  5
25FB
330
1A
100
AcDbEntity
  8
SEIHIN
  6
Continuous
 62
     3
 48
5.0
100
AcDbLine
 10
530.7886015974921
 20
172.4898840966966
 30
0.0
 11
530.3499747418921
 21
172.8500228109966
 31
0.0
  0
LINE
  5
25FC
330
1A
100
AcDbEntity
  8
SEIHIN
  6
Continuous
 62
     3
 48
5.0
100
AcDbLine
 10
530.9654038750921
 20
171.9677362325965
 30
0.0
 11
530.9507560335919
 21
172.0702748479966
 31
0.0
  0
LINE
  5
25FD
330
1A
100
AcDbEntity
  8
SEIHIN
  6
Continuous
 62
     3
 48
5.0
100
AcDbLine
 10
530.9802938603921
 20
171.8635249616965
 30
0.0
 11
530.9654038750921
 21
171.9677362325965
 31
0.0
  0
ARC
  5
25FE
330
1A
100
AcDbEntity
  8
SEIHIN
  6
Continuous
 62
     3
 48
5.0
100
AcDbCircle
 10
535.4121543612921
 20
205.2656168357966
 30
0.0
 40
20.00000000000005
100
AcDbArc
 50
214.4306772468487
 51
240.8613544937007
  0
ARC
  5
25FF
330
1A
100
AcDbEntity
  8
SEIHIN
  6
Continuous
 62
     3
 48
5.0
100
AcDbCircle
 10
535.4121543612921
 20
205.2656168357966
 30
0.0
 40
17.5
100
AcDbArc
 50
216.4088046688975
 51
244.8176093378041
  0
LINE
  5
2600
330
1A
100
AcDbEntity
  8
SEIHIN
  6
Continuous
 62
     3
 48
5.0
100
AcDbLine
 10
527.9658836924921
 20
189.4288541259966
 30
0.0
 11
528.9658836924514
 21
182.4288541259966
 31
0.0
  0
LINE
  5
2601
330
1A
100
AcDbEntity
  8
SEIHIN
  6
Continuous
 62
     3
 48
5.0
100
AcDbLine
 10
528.9658836924514
 20
182.4288541259966
 30
0.0
 11
529.7205755084883
 21
177.1460114135219
 31
0.0
  0
LINE
  5
2602
330
1A
100
AcDbEntity
  8
SEIHIN
  6
Continuous
 62
     3
 48
5.0
100
AcDbLine
 10
525.6736619305921
 20
187.7967369295966
 30
0.0
 11
526.612999467442
 21
181.2213741715466
 31
0.0
  0
LINE
  5
2603
330
1A
100
AcDbEntity
  8
SEIHIN
  6
Continuous
 62
     3
 48
5.0
100
AcDbLine
 10
497.1374791754975
 20
252.4881913909525
 30
0.0
 11
497.9483681835461
 21
245.7983570747135
 31
0.0
  0
LINE
  5
2604
330
1A
100
AcDbEntity
  8
SEIHIN
  6
Continuous
 62
     3
 48
5.0
100
AcDbLine
 10
494.1803526250933
 20
256.1085227584836
 30
0.0
 11
495.362170806892
 21
246.3585227584968
 31
0.0
  0
ARC
  5
2605
330
1A
100
AcDbEntity
  8
SEIHIN
  6
Continuous
 62
     3
 48
5.0
100
AcDbCircle
 10
504.474286572392
 20
228.2288541259966
 30
0.0
 40
7.5
100
AcDbArc
 50
52.59825069269348
 51
90.0
  0
ARC
  5
2606
330
1A
100
AcDbEntity
  8
SEIHIN
  6
Continuous
 62
     3
 48
5.0
100
AcDbCircle
 10
504.474286572392
 20
228.2288541259966
 30
0.0
 40
10.00000000000004
100
AcDbArc
 50
52.11566383539702
 51
90.0
  0
LINE
  5
2607
330
1A
100
AcDbEntity
  8
SEIHIN
  6
Continuous
 62
     3
 48
5.0
100
AcDbLine
 10
497.9483681835461
 20
245.7983570747135
 30
0.0
 11
498.7592571915948
 21
239.1085227584746
 31
0.0
  0
LINE
  5
2608
330
1A
100
AcDbEntity
  8
SEIHIN
  6
Continuous
 62
     3
 48
5.0
100
AcDbLine
 10
497.536722770792
 20
235.7288541259966
 30
0.0
 11
501.005504671592
 21
235.7288541259966
 31
0.0
  0
ARC
  5
2609
330
1A
100
AcDbEntity
  8
SEIHIN
  6
Continuous
 62
     3
 48
5.0
100
AcDbCircle
 10
497.536722770792
 20
236.7288541259966
 30
0.0
 40
1.000000000000018
100
AcDbArc
 50
228.4556135594996
 51
270.0
  0
ARC
  5
260A
330
1A
100
AcDbEntity
  8
SEIHIN
  6
Continuous
 62
     3
 48
5.0
100
AcDbCircle
 10
497.536722770792
 20
236.7288541259966
 30
0.0
 40
0.9999999999999651
100
AcDbArc
 50
186.911227119
 51
228.4556135594996
  0
LINE
  5
260B
330
1A
100
AcDbEntity
  8
SEIHIN
  6
Continuous
 62
     3
 48
5.0
100
AcDbLine
 10
495.362170806892
 20
246.3585227584968
 30
0.0
 11
496.543988988692
 21
236.6085227584967
 31
0.0
  0
ARC
  5
260C
330
1A
100
AcDbEntity
  8
SEIHIN
  6
Continuous
 62
     3
 48
5.0
100
AcDbCircle
 10
499.751990973592
 20
239.2288541259967
 30
0.0
 40
1.000000000000018
100
AcDbArc
 50
228.4556135594996
 51
270.0
  0
ARC
  5
260D
330
1A
100
AcDbEntity
  8
SEIHIN
  6
Continuous
 62
     3
 48
5.0
100
AcDbCircle
 10
499.7519909736282
 20
239.2288541259967
 30
0.0
 40
1.000000000000018
100
AcDbArc
 50
228.4556135596037
 51
270.0
  0
LINE
  5
260E
330
1A
100
AcDbEntity
  8
SEIHIN
  6
Continuous
 62
     3
 48
5.0
100
AcDbLine
 10
499.7519909736282
 20
238.2288541259967
 30
0.0
 11
502.1131387730102
 21
238.2288541259967
 31
0.0
  0
LINE
  5
260F
330
1A
100
AcDbEntity
  8
SEIHIN
  6
Continuous
 62
     3
 48
5.0
100
AcDbLine
 10
502.1131387730102
 20
238.2288541259967
 30
0.0
 11
504.474286572392
 21
238.2288541259967
 31
0.0
  0
LINE
  5
2610
330
1A
100
AcDbEntity
  8
SEIHIN
  6
Continuous
 62
     3
 48
5.0
100
AcDbLine
 10
501.005504671592
 20
235.7288541259966
 30
0.0
 11
504.474286572392
 21
235.7288541259966
 31
0.0
  0
ARC
  5
2611
330
1A
100
AcDbEntity
  8
SEIHIN
  6
Continuous
 62
     3
 48
5.0
100
AcDbCircle
 10
499.751990973592
 20
239.2288541259967
 30
0.0
 40
1.000000000000078
100
AcDbArc
 50
186.9112271189992
 51
228.4556135594996
  0
ARC
  5
2612
330
1A
100
AcDbEntity
  8
SEIHIN
  6
Continuous
 62
     3
 48
5.0
100
AcDbCircle
 10
499.7519909736282
 20
239.2288541259967
 30
0.0
 40
1.000000000000023
100
AcDbArc
 50
186.9112271191899
 51
228.4556135596037
  0
LINE
  5
2613
330
1A
100
AcDbEntity
  8
SEIHIN
  6
Continuous
 62
     3
 48
5.0
100
AcDbLine
 10
511.7120303415923
 20
230.1948310158966
 30
0.0
 11
513.6594116640422
 21
216.3384929162466
 31
0.0
  0
LINE
  5
2614
330
1A
100
AcDbEntity
  8
SEIHIN
  6
Continuous
 62
     3
 48
5.0
100
AcDbLine
 10
514.1673973526922
 20
230.6872282638966
 30
0.0
 11
516.124930255492
 21
216.7586579164466
 31
0.0
  0
LINE
  5
2615
330
1A
100
AcDbEntity
  8
SEIHIN
  6
Continuous
 62
     3
 48
5.0
100
AcDbLine
 10
513.6594116640422
 20
216.3384929162466
 30
0.0
 11
515.6067929864921
 21
202.4821548165966
 31
0.0
  0
LINE
  5
2616
330
1A
100
AcDbEntity
  8
SEIHIN
  6
Continuous
 62
     3
 48
5.0
100
AcDbLine
 10
516.124930255492
 20
216.7586579164466
 30
0.0
 11
518.0824631582921
 21
202.8300875689966
 31
0.0
  0
ARC
  5
2617
330
1A
100
AcDbEntity
  8
SEIHIN
  6
Continuous
 62
     3
 48
5.0
100
AcDbCircle
 10
504.474286572392
 20
228.2288541259966
 30
0.0
 40
10.00000000000001
100
AcDbArc
 50
14.23132767080175
 51
52.11566383539702
  0
ARC
  5
2618
330
1A
100
AcDbEntity
  8
SEIHIN
  6
Continuous
 62
     3
 48
5.0
100
AcDbCircle
 10
504.474286572392
 20
228.2288541259966
 30
0.0
 40
7.499999999999966
100
AcDbArc
 50
15.19650138539819
 51
52.59825069269348
  0
ARC
  5
2619
330
1A
100
AcDbEntity
  8
SEIHIN
  6
Continuous
 62
     3
 48
5.0
100
AcDbCircle
 10
504.4622589113919
 20
258.7247061002966
 30
0.0
 40
4.999999999999909
100
AcDbArc
 50
272.3340135846053
 51
302.1603027500301
  0
ARC
  5
261A
330
1A
100
AcDbEntity
  8
SEIHIN
  6
Continuous
 62
     3
 48
5.0
100
AcDbCircle
 10
504.7920205260921
 20
260.7265804587966
 30
0.0
 40
3.499999999999903
100
AcDbArc
 50
288.6169918216401
 51
309.2993189486795
  0
ARC
  5
261B
330
1A
100
AcDbEntity
  8
SEIHIN
  6
Continuous
 62
     3
 48
5.0
100
AcDbCircle
 10
499.1229467395642
 20
252.7288541259967
 30
0.0
 40
1.999999999999995
100
AcDbArc
 50
89.9999837961615
 51
138.4556054576724
  0
ARC
  5
261C
330
1A
100
AcDbEntity
  8
SEIHIN
  6
Continuous
 62
     3
 48
5.0
100
AcDbCircle
 10
499.1229467395642
 20
252.7288541259966
 30
0.0
 40
2.00000000000008
100
AcDbArc
 50
89.99998379614847
 51
138.4556054576724
  0
LINE
  5
261D
330
1A
100
AcDbEntity
  8
SEIHIN
  6
Continuous
 62
     3
 48
5.0
100
AcDbLine
 10
499.919485049792
 20
257.2288541259967
 30
0.0
 11
495.1730864070921
 21
257.2288541259967
 31
0.0
  0
ARC
  5
261E
330
1A
100
AcDbEntity
  8
SEIHIN
  6
Continuous
 62
     3
 48
5.0
100
AcDbCircle
 10
499.1229467395642
 20
252.7288541259966
 30
0.0
 40
2.000000000000026
100
AcDbArc
 50
138.4556054576724
 51
186.9112271191906
  0
ARC
  5
261F
330
1A
100
AcDbEntity
  8
SEIHIN
  6
Continuous
 62
     3
 48
5.0
100
AcDbCircle
 10
499.1229467395642
 20
252.7288541259967
 30
0.0
 40
1.99999999999995
100
AcDbArc
 50
138.4556054576724
 51
186.9112271191902
  0
ARC
  5
2620
330
1A
100
AcDbEntity
  8
SEIHIN
  6
Continuous
 62
     3
 48
5.0
100
AcDbCircle
 10
495.1730864070921
 20
256.2288541259968
 30
0.0
 40
1.000000000000021
100
AcDbArc
 50
138.4556135595039
 51
186.911227119
  0
ARC
  5
2621
330
1A
100
AcDbEntity
  8
SEIHIN
  6
Continuous
 62
     3
 48
5.0
100
AcDbCircle
 10
495.1730864070921
 20
256.2288541259968
 30
0.0
 40
0.9999999999999716
100
AcDbArc
 50
90.0
 51
138.4556135595039
  0
ARC
  5
2622
330
1A
100
AcDbEntity
  8
SEIHIN
  6
Continuous
 62
     3
 48
5.0
100
AcDbCircle
 10
504.7920205260921
 20
260.7265804587966
 30
0.0
 40
3.499999999999924
100
AcDbArc
 50
267.934664694604
 51
288.6169918216401
  0
LINE
  5
2623
330
1A
100
AcDbEntity
  8
SEIHIN
  6
Continuous
 62
     3
 48
5.0
100
AcDbLine
 10
504.6658825480922
 20
254.7288525583968
 30
0.0
 11
504.6658831202922
 21
254.2288533421967
 31
0.0
  0
LINE
  5
2624
330
1A
100
AcDbEntity
  8
SEIHIN
  6
Continuous
 62
     3
 48
5.0
100
AcDbLine
 10
504.6658831202922
 20
254.2288533421967
 30
0.0
 11
504.6658836924921
 21
253.7288541259968
 31
0.0
  0
LINE
  5
2625
330
1A
100
AcDbEntity
  8
SEIHIN
  6
Continuous
 62
     3
 48
5.0
100
AcDbLine
 10
501.8944149266386
 20
254.7288533421967
 30
0.0
 11
499.1229473051851
 21
254.7288541259966
 31
0.0
  0
LINE
  5
2626
330
1A
100
AcDbEntity
  8
SEIHIN
  6
Continuous
 62
     3
 48
5.0
100
AcDbLine
 10
504.6658825480922
 20
254.7288525583968
 30
0.0
 11
501.8944149266386
 21
254.7288533421967
 31
0.0
  0
LINE
  5
2627
330
1A
100
AcDbEntity
  8
SEIHIN
  6
Continuous
 62
     3
 48
5.0
100
AcDbLine
 10
504.6658836924921
 20
257.2288541259967
 30
0.0
 11
499.919485049792
 21
257.2288541259967
 31
0.0
  0
ARC
  5
2628
330
1A
100
AcDbEntity
  8
SEIHIN
  6
Continuous
 62
     3
 48
5.0
100
AcDbCircle
 10
507.6421930602758
 20
257.2442656359547
 30
0.0
 40
0.9999999999999668
100
AcDbArc
 50
41.42366562880815
 51
85.3614922887333
  0
ARC
  5
2629
330
1A
100
AcDbEntity
  8
SEIHIN
  6
Continuous
 62
     3
 48
5.0
100
AcDbCircle
 10
507.6421930602919
 20
257.2442656359967
 30
0.0
 40
1.000000000000026
100
AcDbArc
 50
41.42366562500346
 51
85.36132351038812
  0
ARC
  5
262A
330
1A
100
AcDbEntity
  8
SEIHIN
  6
Continuous
 62
     3
 48
5.0
100
AcDbCircle
 10
507.993609732092
 20
256.8459934078967
 30
0.0
 40
1.000000000000042
100
AcDbArc
 50
6.704904456630469
 51
41.42366562500346
  0
ARC
  5
262B
330
1A
100
AcDbEntity
  8
SEIHIN
  6
Continuous
 62
     3
 48
5.0
100
AcDbCircle
 10
507.9936097321588
 20
256.845993407874
 30
0.0
 40
0.9999999999999899
100
AcDbArc
 50
6.705128772139162
 51
41.42366562880815
  0
ARC
  5
262C
330
1A
100
AcDbEntity
  8
SEIHIN
  6
Continuous
 62
     3
 48
5.0
100
AcDbCircle
 10
504.4622589113919
 20
258.7247061002966
 30
0.0
 40
4.999999999999914
100
AcDbArc
 50
302.1603027500301
 51
331.9865919154599
  0
ARC
  5
262D
330
1A
100
AcDbEntity
  8
SEIHIN
  6
Continuous
 62
     3
 48
5.0
100
AcDbCircle
 10
507.993609732092
 20
256.8459934078967
 30
0.0
 40
0.9999999999999829
100
AcDbArc
 50
331.9861432882638
 51
6.704904456630469
  0
ARC
  5
262E
330
1A
100
AcDbEntity
  8
SEIHIN
  6
Continuous
 62
     3
 48
5.0
100
AcDbCircle
 10
507.9936097321588
 20
256.845993407874
 30
0.0
 40
0.9999999999999991
100
AcDbArc
 50
331.9865919154596
 51
6.705128772139162
  0
LINE
  5
262F
330
1A
100
AcDbEntity
  8
SEIHIN
  6
Continuous
 62
     3
 48
5.0
100
AcDbLine
 10
508.5677392515383
 20
257.7067511590511
 30
0.0
 11
508.3920309155969
 21
257.9058872730914
 31
0.0
  0
LINE
  5
2630
330
1A
100
AcDbEntity
  8
SEIHIN
  6
Continuous
 62
     3
 48
5.0
100
AcDbLine
 10
508.7434475874798
 20
257.5076150450107
 30
0.0
 11
508.5677392515383
 21
257.7067511590511
 31
0.0
  0
ARC
  5
2631
330
1A
100
AcDbEntity
  8
SEIHIN
  6
Continuous
 62
     3
 48
5.0
100
AcDbCircle
 10
507.6421930602919
 20
257.2442656359967
 30
0.0
 40
0.999999999999997
100
AcDbArc
 50
85.36132351038812
 51
129.2989813957883
  0
ARC
  5
2632
330
1A
100
AcDbEntity
  8
SEIHIN
  6
Continuous
 62
     3
 48
5.0
100
AcDbCircle
 10
507.6421930602758
 20
257.2442656359547
 30
0.0
 40
0.9999999999999774
100
AcDbArc
 50
85.3614922887333
 51
129.2993189486794
  0
LINE
  5
2633
330
1A
100
AcDbEntity
  8
SEIHIN
  6
Continuous
 62
     3
 48
5.0
100
AcDbLine
 10
622.8075100435922
 20
193.9061726319466
 30
0.0
 11
623.6733848767922
 21
212.9742171140966
 31
0.0
  0
LINE
  5
2634
330
1A
100
AcDbEntity
  8
SEIHIN
  6
Continuous
 62
     3
 48
5.0
100
AcDbLine
 10
620.3642708854486
 20
195.2128763670918
 30
0.0
 11
621.2626580783917
 21
214.9968986081871
 31
0.0
  0
DIMENSION
  5
2635
330
1A
100
AcDbEntity
  8
SUNPOU
100
AcDbDimension
  2
*D17
 10
650.8323622764647
 20
237.4288541259967
 30
0.0
 11
645.8323622764647
 21
205.1788541259968
 31
0.0
 70
    32
 71
     5
 42
64.50000000000009
  3
STANDARD
100
AcDbAlignedDimension
 13
617.5546421789923
 23
172.9288541259966
 33
0.0
 14
630.2276827979924
 24
237.4288541259967
 34
0.0
 50
90.0
100
AcDbRotatedDimension
1001
ACAD
1000
DSTYLE
1002
{
1070
    41
1040
7.0
1070
    42
1040
6.0
1070
    43
1040
14.0
1070
    44
1040
3.0
1070
    73
1070
     0
1070
    74
1070
     0
1070
    77
1070
     3
1070
   140
1040
6.0
1070
   141
1040
150.0
1070
   147
1040
2.0
1070
   172
1070
     1
1070
   173
1070
     1
1070
   176
1070
   256
1070
   177
1070
   256
1070
   178
1070
   256
1070
   271
1070
     0
1070
   272
1070
     0
1070
   341
1005
6D
1070
     6
1000
OPEN
1070
     7
1000
OPEN
1070
   371
1070
    -1
1070
   372
1070
    -1
1002
}
  0
DIMENSION
  5
2636
330
1A
100
AcDbEntity
  8
SUNPOU
100
AcDbDimension
  2
*D18
 10
574.715883692458
 20
209.1807484295171
 30
0.0
 11
556.715883692458
 21
214.1807484295171
 31
0.0
 70
    32
 71
     5
 42
2.600857206234196
  3
STANDARD
100
AcDbAlignedDimension
 13
577.3167408986922
 23
149.2371471093452
 33
0.0
 14
574.715883692458
 24
187.7974384720614
 34
0.0
100
AcDbRotatedDimension
1001
ACAD
1000
DSTYLE
1002
{
1070
    41
1040
7.0
1070
    42
1040
6.0
1070
    43
1040
14.0
1070
    44
1040
3.0
1070
    73
1070
     0
1070
    74
1070
     0
1070
    77
1070
     3
1070
   140
1040
6.0
1070
   141
1040
150.0
1070
   147
1040
2.0
1070
   172
1070
     1
1070
   173
1070
     1
1070
   176
1070
   256
1070
   177
1070
   256
1070
   178
1070
   256
1070
   271
1070
     0
1070
   272
1070
     0
1070
   341
1005
6D
1070
     6
1000
OPEN
1070
     7
1000
OPEN
1070
   371
1070
    -1
1070
   372
1070
    -1
1002
}
  0
LINE
  5
2637
330
1A
100
AcDbEntity
  8
SEIHIN
100
AcDbLine
 10
612.2277686928949
 20
115.229064128715
 30
0.0
 11
542.227467933792
 21
115.2286841259965
 31
0.0
  0
LINE
  5
2638
330
1A
100
AcDbEntity
  8
SEIHIN
100
AcDbLine
 10
606.427667933792
 20
109.2288541259965
 30
0.0
 11
548.0276679337919
 21
109.2288541259965
 31
0.0
  0
LINE
  5
2639
330
1A
100
AcDbEntity
  8
SEIHIN
100
AcDbLine
 10
606.427667933792
 20
109.2288541259965
 30
0.0
 11
548.0276679337919
 21
109.2288541259965
 31
0.0
  0
LINE
  5
263A
330
1A
100
AcDbEntity
  8
SEIHIN
  6
Continuous
 62
     3
 48
5.0
100
AcDbLine
 10
574.7379650311921
 20
172.9288541259966
 30
0.0
 11
619.9436940707919
 21
172.9288541259966
 31
0.0
  0
LINE
  5
263B
330
1A
100
AcDbEntity
  8
SEIHIN
  6
Continuous
 62
     3
 48
5.0
100
AcDbLine
 10
574.715883692458
 20
175.4288541259966
 30
0.0
 11
617.5546421789923
 21
175.4288541259966
 31
0.0
  0
LINE
  5
263C
330
1A
100
AcDbEntity
  8
SEIHIN
  6
Continuous
 62
     3
 48
5.0
100
AcDbLine
 10
577.227667933792
 20
152.9288541259965
 30
0.0
 11
619.035499385192
 21
152.9288541259965
 31
0.0
  0
LINE
  5
263D
330
1A
100
AcDbEntity
  8
SEIHIN
100
AcDbLine
 10
540.4217679337921
 20
129.2432641259966
 30
0.0
 11
539.0772679337922
 21
152.6286641259965
 31
0.0
  0
ARC
  5
263E
330
1A
100
AcDbEntity
  8
SEIHIN
100
AcDbCircle
 10
640.2568708924921
 20
134.9829411629965
 30
0.0
 40
99.99994689709999
100
AcDbArc
 50
183.2902880011004
 51
191.3932220468012
  0
LINE
  5
263F
330
1A
100
AcDbEntity
  8
SEIHIN
100
AcDbLine
 10
548.0275679337922
 20
109.2287041259965
 30
0.0
 11
548.0276679337919
 21
115.2289441259965
 31
0.0
  0
LINE
  5
2640
330
1A
100
AcDbEntity
  8
CENTER L
  6
CENTER
 62
     1
 48
5.0
100
AcDbLine
 10
574.715883692458
 20
187.7974384720614
 30
0.0
 11
574.715883692458
 21
166.2953307510591
 31
0.0
  0
ARC
  5
2641
330
1A
100
AcDbEntity
  8
SEIHIN
  6
Continuous
 62
     3
 48
5.0
100
AcDbCircle
 10
619.035499385192
 20
154.9288541259965
 30
0.0
 40
2.000000000000011
100
AcDbArc
 50
313.7000000000053
 51
357.400000000002
  0
LINE
  5
2642
330
1A
100
AcDbEntity
  8
SEIHIN
100
AcDbLine
 10
614.0334679337921
 20
129.2432641259966
 30
0.0
 11
615.377967933792
 21
152.6286641259965
 31
0.0
  0
ARC
  5
2643
330
1A
100
AcDbEntity
  8
SEIHIN
100
AcDbCircle
 10
514.198313497792
 20
134.9834177529965
 30
0.0
 40
100.0000428648
100
AcDbArc
 50
348.6063643594991
 51
356.7092694720998
  0
LINE
  5
2644
330
1A
100
AcDbEntity
  8
SEIHIN
100
AcDbLine
 10
606.427567933792
 20
109.2287041259965
 30
0.0
 11
606.427567933792
 21
115.2289441259965
 31
0.0
  0
ARC
  5
2645
330
1A
100
AcDbEntity
  8
SEIHIN
  6
Continuous
 62
     3
 48
5.0
100
AcDbCircle
 10
619.035499385192
 20
154.9288541259965
 30
0.0
 40
2.0
100
AcDbArc
 50
270.0
 51
313.7000000000053
  0
ARC
  5
2646
330
1A
100
AcDbEntity
  8
SEIHIN
  6
Continuous
 62
     3
 48
5.0
100
AcDbCircle
 10
617.5546421789923
 20
177.4288541259967
 30
0.0
 40
2.000000000000052
100
AcDbArc
 50
313.7000000000053
 51
357.4000000000003
  0
LINE
  5
2647
330
1A
100
AcDbEntity
  8
SEIHIN
  6
Continuous
 62
     3
 48
5.0
100
AcDbLine
 10
621.9416352103922
 20
174.8381281497966
 30
0.0
 11
622.8075100435922
 21
193.9061726319466
 31
0.0
  0
ARC
  5
2648
330
1A
100
AcDbEntity
  8
SEIHIN
  6
Continuous
 62
     3
 48
5.0
100
AcDbCircle
 10
619.9436940707919
 20
174.9288541259966
 30
0.0
 40
2.0
100
AcDbArc
 50
270.0
 51
313.7000000000053
  0
LINE
  5
2649
330
1A
100
AcDbEntity
  8
SEIHIN
  6
Continuous
 62
     3
 48
5.0
100
AcDbLine
 10
621.0426029168921
 20
155.0398830058965
 30
0.0
 11
621.033438702792
 21
154.8381287338965
 31
0.0
  0
ARC
  5
264A
330
1A
100
AcDbEntity
  8
SEIHIN
  6
Continuous
 62
     3
 48
5.0
100
AcDbCircle
 10
617.5546421789923
 20
177.4288541259967
 30
0.0
 40
2.000000000000057
100
AcDbArc
 50
270.0
 51
313.7000000000053
  0
LINE
  5
264B
330
1A
100
AcDbEntity
  8
SEIHIN
  6
Continuous
 62
     3
 48
5.0
100
AcDbLine
 10
621.8152832795922
 20
172.0556425709965
 30
0.0
 11
621.4941879691924
 21
164.9845747591465
 31
0.0
  0
LINE
  5
264C
330
1A
100
AcDbEntity
  8
SEIHIN
  6
Continuous
 62
     3
 48
5.0
100
AcDbLine
 10
621.4941879691924
 20
164.9845747591465
 30
0.0
 11
621.173092658792
 21
157.9135069472965
 31
0.0
  0
LINE
  5
264D
330
1A
100
AcDbEntity
  8
SEIHIN
  6
Continuous
 62
     3
 48
5.0
100
AcDbLine
 10
621.1730923854921
 20
157.9135086121966
 30
0.0
 11
621.1137969397919
 21
156.6076975049965
 31
0.0
  0
LINE
  5
264E
330
1A
100
AcDbEntity
  8
SEIHIN
  6
Continuous
 62
     3
 48
5.0
100
AcDbLine
 10
621.1137969397919
 20
156.6076975049965
 30
0.0
 11
621.0426029168921
 21
155.0398830058965
 31
0.0
  0
ARC
  5
264F
330
1A
100
AcDbEntity
  8
SEIHIN
  6
Continuous
 62
     3
 48
5.0
100
AcDbCircle
 10
619.9436940707919
 20
174.9288541259966
 30
0.0
 40
2.000000000000011
100
AcDbArc
 50
313.7000000000053
 51
357.400000000002
  0
LINE
  5
2650
330
1A
100
AcDbEntity
  8
SEIHIN
  6
Continuous
 62
     3
 48
5.0
100
AcDbLine
 10
621.8689319097921
 20
173.2370879235966
 30
0.0
 11
621.8152840041921
 21
172.0556419076965
 31
0.0
  0
LINE
  5
2651
330
1A
100
AcDbEntity
  8
SEIHIN
  6
Continuous
 62
     3
 48
5.0
100
AcDbLine
 10
621.9087962411923
 20
174.1149823846966
 30
0.0
 11
621.8689319097921
 21
173.2370879235966
 31
0.0
  0
LINE
  5
2652
330
1A
100
AcDbEntity
  8
SEIHIN
  6
Continuous
 62
     3
 48
5.0
100
AcDbLine
 10
621.9333459042919
 20
174.6555890621966
 30
0.0
 11
621.9087962411923
 21
174.1149823846966
 31
0.0
  0
LINE
  5
2653
330
1A
100
AcDbEntity
  8
SEIHIN
  6
Continuous
 62
     3
 48
5.0
100
AcDbLine
 10
621.9416346751923
 20
174.8381282868966
 30
0.0
 11
621.9333459042919
 21
174.6555890621966
 31
0.0
  0
LINE
  5
2654
330
1A
100
AcDbEntity
  8
SEIHIN
  6
Continuous
 62
     3
 48
5.0
100
AcDbLine
 10
619.5525833185898
 20
177.3381281497419
 30
0.0
 11
620.3642708854486
 21
195.2128763670918
 31
0.0
  0
LINE
  5
2655
330
1A
100
AcDbEntity
  8
SEIHIN
  6
Continuous
 62
     3
 48
5.0
100
AcDbLine
 10
630.2276827979922
 20
216.9288541259966
 30
0.0
 11
630.2276827979922
 21
226.6788541259966
 31
0.0
  0
LINE
  5
2656
330
1A
100
AcDbEntity
  8
SEIHIN
  6
Continuous
 62
     3
 48
5.0
100
AcDbLine
 10
627.7276827979922
 20
217.4288541259966
 30
0.0
 11
627.7276827979922
 21
225.6788541259966
 31
0.0
  0
ARC
  5
2657
330
1A
100
AcDbEntity
  8
SEIHIN
  6
Continuous
 62
     3
 48
5.0
100
AcDbCircle
 10
627.2276827979922
 20
216.9288541259966
 30
0.0
 40
3.0
100
AcDbArc
 50
270.0
 51
315.0000000000078
  0
ARC
  5
2658
330
1A
100
AcDbEntity
  8
SEIHIN
  6
Continuous
 62
     3
 48
5.0
100
AcDbCircle
 10
622.7611139330779
 20
214.9288541259966
 30
0.0
 40
1.5
100
AcDbArc
 50
90.0
 51
133.7000000000597
  0
ARC
  5
2659
330
1A
100
AcDbEntity
  8
SEIHIN
  6
Continuous
 62
     3
 48
5.0
100
AcDbCircle
 10
622.761113933092
 20
214.9288541259966
 30
0.0
 40
1.5
100
AcDbArc
 50
90.0
 51
133.7000000000053
  0
ARC
  5
265A
330
1A
100
AcDbEntity
  8
SEIHIN
  6
Continuous
 62
     3
 48
5.0
100
AcDbCircle
 10
622.761113933092
 20
214.9288541259966
 30
0.0
 40
1.499999999999999
100
AcDbArc
 50
133.7000000000053
 51
177.3999999999999
  0
ARC
  5
265B
330
1A
100
AcDbEntity
  8
SEIHIN
  6
Continuous
 62
     3
 48
5.0
100
AcDbCircle
 10
622.7611139330779
 20
214.9288541259966
 30
0.0
 40
1.50000000000002
100
AcDbArc
 50
133.7000000000597
 51
177.4000000001287
  0
LINE
  5
265C
330
1A
100
AcDbEntity
  8
SEIHIN
  6
Continuous
 62
     3
 48
5.0
100
AcDbLine
 10
624.7443983655348
 20
216.4288541259966
 30
0.0
 11
626.7276827979922
 21
216.4288541259966
 31
0.0
  0
LINE
  5
265D
330
1A
100
AcDbEntity
  8
SEIHIN
  6
Continuous
 62
     3
 48
5.0
100
AcDbLine
 10
622.7611139330779
 20
216.4288541259966
 30
0.0
 11
624.7443983655348
 21
216.4288541259966
 31
0.0
  0
ARC
  5
265E
330
1A
100
AcDbEntity
  8
SEIHIN
  6
Continuous
 62
     3
 48
5.0
100
AcDbCircle
 10
626.7276827979922
 20
217.4288541259966
 30
0.0
 40
1.0
100
AcDbArc
 50
314.9999999999916
 51
0.0
  0
ARC
  5
265F
330
1A
100
AcDbEntity
  8
SEIHIN
  6
Continuous
 62
     3
 48
5.0
100
AcDbCircle
 10
626.7276827979922
 20
217.4288541259966
 30
0.0
 40
1.000000000000008
100
AcDbArc
 50
270.0
 51
314.9999999999916
  0
ARC
  5
2660
330
1A
100
AcDbEntity
  8
SEIHIN
  6
Continuous
 62
     3
 48
5.0
100
AcDbCircle
 10
626.7276827979922
 20
217.4288541259966
 30
0.0
 40
1.0
100
AcDbArc
 50
270.0
 51
314.9999999999916
  0
ARC
  5
2661
330
1A
100
AcDbEntity
  8
SEIHIN
  6
Continuous
 62
     3
 48
5.0
100
AcDbCircle
 10
626.7276827979922
 20
217.4288541259966
 30
0.0
 40
1.000000000000008
100
AcDbArc
 50
314.9999999999916
 51
0.0
  0
LINE
  5
2662
330
1A
100
AcDbEntity
  8
SEIHIN
  6
Continuous
 62
     3
 48
5.0
100
AcDbLine
 10
625.9500191222924
 20
213.9288541259966
 30
0.0
 11
627.2276827979922
 21
213.9288541259966
 31
0.0
  0
ARC
  5
2663
330
1A
100
AcDbEntity
  8
SEIHIN
  6
Continuous
 62
     3
 48
5.0
100
AcDbCircle
 10
624.6723554465921
 20
212.9288541259966
 30
0.0
 40
1.0
100
AcDbArc
 50
90.0
 51
133.7000000000053
  0
ARC
  5
2664
330
1A
100
AcDbEntity
  8
SEIHIN
  6
Continuous
 62
     3
 48
5.0
100
AcDbCircle
 10
624.6723554465921
 20
212.9288541259966
 30
0.0
 40
0.9999999999999867
100
AcDbArc
 50
133.7000000000053
 51
177.3999999999987
  0
LINE
  5
2665
330
1A
100
AcDbEntity
  8
SEIHIN
  6
Continuous
 62
     3
 48
5.0
100
AcDbLine
 10
624.6723554465921
 20
213.9288541259966
 30
0.0
 11
625.9500191222924
 21
213.9288541259966
 31
0.0
  0
ARC
  5
2666
330
1A
100
AcDbEntity
  8
SEIHIN
  6
Continuous
 62
     3
 48
5.0
100
AcDbCircle
 10
627.2276827979922
 20
216.9288541259966
 30
0.0
 40
2.999999999999984
100
AcDbArc
 50
315.0000000000078
 51
0.0000000000012213
  0
LINE
  5
2667
330
1A
100
AcDbEntity
  8
SEIHIN
  6
Continuous
 62
     3
 48
5.0
100
AcDbLine
 10
624.8276827979921
 20
237.4288541259967
 30
0.0
 11
620.427682797992
 21
237.4288541259967
 31
0.0
  0
ARC
  5
2668
330
1A
100
AcDbEntity
  8
SEIHIN
  6
Continuous
 62
     3
 48
5.0
100
AcDbCircle
 10
627.238093897292
 20
232.0151399980966
 30
0.0
 40
8.700000000000083
100
AcDbArc
 50
115.2025193712026
 51
141.5182013250993
  0
LINE
  5
2669
330
1A
100
AcDbEntity
  8
SEIHIN
  6
Continuous
 62
     3
 48
5.0
100
AcDbLine
 10
623.5776835051706
 20
234.9288543271467
 30
0.0
 11
620.4276841484921
 21
234.9288545282966
 31
0.0
  0
ARC
  5
266A
330
1A
100
AcDbEntity
  8
SEIHIN
  6
Continuous
 62
     3
 48
5.0
100
AcDbCircle
 10
620.427682797992
 20
235.6788541259967
 30
0.0
 40
1.75
100
AcDbArc
 50
180.0
 51
270.0
  0
LINE
  5
266B
330
1A
100
AcDbEntity
  8
SEIHIN
  6
Continuous
 62
     3
 48
5.0
100
AcDbLine
 10
620.4276834732418
 20
234.4288543271466
 30
0.0
 11
620.4276841484921
 21
234.9288545282966
 31
0.0
  0
LINE
  5
266C
330
1A
100
AcDbEntity
  8
SEIHIN
  6
Continuous
 62
     3
 48
5.0
100
AcDbLine
 10
620.427682797992
 20
233.9288541259967
 30
0.0
 11
620.4276834732418
 21
234.4288543271466
 31
0.0
  0
ARC
  5
266D
330
1A
100
AcDbEntity
  8
SEIHIN
  6
Continuous
 62
     3
 48
5.0
100
AcDbCircle
 10
620.427682797992
 20
235.6788541259967
 30
0.0
 40
1.75
100
AcDbArc
 50
90.0
 51
180.0
  0
ARC
  5
266E
330
1A
100
AcDbEntity
  8
SEIHIN
  6
Continuous
 62
     3
 48
5.0
100
AcDbCircle
 10
626.7276827979922
 20
233.9288541259967
 30
0.0
 40
1.000000000000008
100
AcDbArc
 50
45.00000000000835
 51
90.0
  0
ARC
  5
266F
330
1A
100
AcDbEntity
  8
SEIHIN
  6
Continuous
 62
     3
 48
5.0
100
AcDbCircle
 10
626.7276827979922
 20
233.9288541259967
 30
0.0
 40
1.000000000000002
100
AcDbArc
 50
44.9999981706236
 51
89.99999634125111
  0
LINE
  5
2670
330
1A
100
AcDbEntity
  8
SEIHIN
  6
Continuous
 62
     3
 48
5.0
100
AcDbLine
 10
630.2276827979922
 20
226.6788541259966
 30
0.0
 11
630.2276827979924
 21
237.4288541259967
 31
0.0
  0
ARC
  5
2671
330
1A
100
AcDbEntity
  8
SEIHIN
  6
Continuous
 62
     3
 48
5.0
100
AcDbCircle
 10
626.7276827979922
 20
233.9288541259967
 30
0.0
 40
0.9999999999999684
100
AcDbArc
 50
0.0
 51
44.9999981706236
  0
ARC
  5
2672
330
1A
100
AcDbEntity
  8
SEIHIN
  6
Continuous
 62
     3
 48
5.0
100
AcDbCircle
 10
626.7276827979922
 20
233.9288541259967
 30
0.0
 40
1.0
100
AcDbArc
 50
0.0
 51
45.00000000000835
  0
LINE
  5
2673
330
1A
100
AcDbEntity
  8
SEIHIN
  6
Continuous
 62
     3
 48
5.0
100
AcDbLine
 10
627.7276827979922
 20
225.6788541259966
 30
0.0
 11
627.7276827979922
 21
233.9288541259967
 31
0.0
  0
ARC
  5
2674
330
1A
100
AcDbEntity
  8
SEIHIN
  6
Continuous
 62
     3
 48
5.0
100
AcDbCircle
 10
629.2276827979922
 20
236.4288541259967
 30
0.0
 40
1.000000000000008
100
AcDbArc
 50
45.00000000000835
 51
90.0
  0
LINE
  5
2675
330
1A
100
AcDbEntity
  8
SEIHIN
  6
Continuous
 62
     3
 48
5.0
100
AcDbLine
 10
630.2276827979924
 20
237.4288541259967
 30
0.0
 11
624.8276827979921
 21
237.4288541259967
 31
0.0
  0
ARC
  5
2676
330
1A
100
AcDbEntity
  8
SEIHIN
  6
Continuous
 62
     3
 48
5.0
100
AcDbCircle
 10
627.238093897292
 20
232.0151399980966
 30
0.0
 40
8.700000000000093
100
AcDbArc
 50
88.88683741729467
 51
115.2025193712026
  0
ARC
  5
2677
330
1A
100
AcDbEntity
  8
SEIHIN
  6
Continuous
 62
     3
 48
5.0
100
AcDbCircle
 10
627.3876827979921
 20
239.7136868194967
 30
0.0
 40
1.0
100
AcDbArc
 50
0.0
 51
44.44341870865066
  0
ARC
  5
2678
330
1A
100
AcDbEntity
  8
SEIHIN
  6
Continuous
 62
     3
 48
5.0
100
AcDbCircle
 10
627.3876827979921
 20
239.7136868194967
 30
0.0
 40
0.9999999999999991
100
AcDbArc
 50
44.44341870865066
 51
88.8868374173077
  0
LINE
  5
2679
330
1A
100
AcDbEntity
  8
SEIHIN
  6
Continuous
 62
     3
 48
5.0
100
AcDbLine
 10
628.3876830452919
 20
238.5712704131466
 30
0.0
 11
628.3876832925921
 21
237.4288540067966
 31
0.0
  0
LINE
  5
267A
330
1A
100
AcDbEntity
  8
SEIHIN
  6
Continuous
 62
     3
 48
5.0
100
AcDbLine
 10
628.3876827979921
 20
239.7136868194967
 30
0.0
 11
628.3876830452919
 21
238.5712704131466
 31
0.0
  0
LINE
  5
267B
330
1A
100
AcDbEntity
  8
SEIHIN
  6
Continuous
 62
     3
 48
5.0
100
AcDbLine
 10
626.7276828618492
 20
234.9288541259967
 30
0.0
 11
623.5776835051706
 21
234.9288543271467
 31
0.0
  0
ARC
  5
267C
330
1A
100
AcDbEntity
  8
SEIHIN
  6
Continuous
 62
     3
 48
5.0
100
AcDbCircle
 10
629.2276827979922
 20
236.4288541259967
 30
0.0
 40
1.0
100
AcDbArc
 50
0.0
 51
45.00000000000835
  0
DIMENSION
  5
276C
330
1A
100
AcDbEntity
  8
SUNPOU
100
AcDbDimension
  2
*D19
 10
265.7631916318731
 20
335.8002287200554
 30
0.0
 11
297.013191631873
 21
340.8002287200554
 31
0.0
 70
    32
  1
※<>
 71
     5
 42
62.49999999999994
  3
STANDARD
100
AcDbAlignedDimension
 13
328.263191631873
 23
359.6241884519866
 33
0.0
 14
265.7631916318731
 24
352.4987450448213
 34
0.0
100
AcDbRotatedDimension
1001
ACAD
1000
DSTYLE
1002
{
1070
    41
1040
7.0
1070
    42
1040
6.0
1070
    43
1040
14.0
1070
    44
1040
3.0
1070
    73
1070
     0
1070
    74
1070
     0
1070
    77
1070
     3
1070
   140
1040
6.0
1070
   141
1040
150.0
1070
   147
1040
2.0
1070
   172
1070
     1
1070
   173
1070
     1
1070
   176
1070
   256
1070
   177
1070
   256
1070
   178
1070
   256
1070
   271
1070
     1
1070
   272
1070
     0
1070
   279
1070
     2
1070
   341
1005
6D
1070
   343
1005
6D
1070
   344
1005
6D
1070
   371
1070
    -1
1070
   372
1070
    -1
1002
}
  0
VIEWPORT
  5
22
330
17
100
AcDbEntity
 67
     1
  8
0
100
AcDbViewport
 10
313.6808219178083
 20
148.5
 30
0.0
 40
627.3616438356165
 41
297.0
 68
     2
 69
     1
 12
313.6808219178083
 22
148.5
 13
0.0
 23
0.0
 14
1.0
 24
1.0
 15
10.0
 25
10.0
 16
0.0
 26
0.0
 36
1.0
 17
0.0
 27
0.0
 37
0.0
 42
50.0
 43
0.0
 44
0.0
 45
297.0
 50
0.0
 51
0.0
 72
   100
 90
    32768
  1

281
     0
 71
     1
 74
     0
110
0.0
120
0.0
130
0.0
111
1.0
121
0.0
131
0.0
112
0.0
122
1.0
132
0.0
 79
     0
146
0.0
  0
VIEWPORT
  5
64
330
17
100
AcDbEntity
 67
     1
  8
VIEWPORT
100
AcDbViewport
 10
210.0
 20
148.5
 30
0.0
 40
420.0
 41
297.0
 68
     1
 69
     2
 12
420.0
 22
297.0
 13
0.0
 23
0.0
 14
10.0
 24
10.0
 15
0.0
 25
0.0
 16
0.0
 26
0.0
 36
1.0
 17
0.0
 27
0.0
 37
0.0
 42
50.0
 43
0.0
 44
0.0
 45
605.8799999999999
 50
0.0
 51
0.0
 72
   100
 90
    32768
  1

281
     0
 71
     1
 74
     0
110
0.0
120
0.0
130
0.0
111
1.0
121
0.0
131
0.0
112
0.0
122
1.0
132
0.0
 79
     0
146
0.0
  0
ENDSEC
  0
SECTION
  2
OBJECTS
  0
DICTIONARY
  5
C
330
0
100
AcDbDictionary
281
     1
  3
ACAD_GROUP
350
D
  3
ACAD_LAYOUT
350
C42
  3
ACAD_MLINESTYLE
350
E
  3
ACAD_PLOTSETTINGS
350
C43
  3
ACAD_PLOTSTYLENAME
350
C40
  0
DICTIONARY
  5
D
102
{ACAD_REACTORS
330
C
102
}
330
C
100
AcDbDictionary
281
     1
  0
DICTIONARY
  5
C42
102
{ACAD_REACTORS
330
C
102
}
330
C
100
AcDbDictionary
281
     1
  3
Model
350
C44
  3
ﾚｲｱｳﾄ1
350
C45
  0
DICTIONARY
  5
E
102
{ACAD_REACTORS
330
C
102
}
330
C
100
AcDbDictionary
281
     1
  3
STANDARD
350
13
  0
DICTIONARY
  5
C43
102
{ACAD_REACTORS
330
C
102
}
330
C
100
AcDbDictionary
281
     1
  0
ACDBDICTIONARYWDFLT
  5
C40
102
{ACAD_REACTORS
330
C
102
}
330
C
100
AcDbDictionary
281
     1
  3
Normal
350
C41
100
AcDbDictionaryWithDefault
340
C41
1001
ACAD
1000
TREAT_AS_HARD
1070
     0
1000
TREAT_AS_HARD
1070
     0
1000
TREAT_AS_HARD
1070
     0
1000
TREAT_AS_HARD
1070
     0
1000
TREAT_AS_HARD
1070
     0
1000
TREAT_AS_HARD
1070
     0
  0
LAYOUT
  5
C44
102
{ACAD_REACTORS
330
C42
102
}
330
C42
100
AcDbPlotSettings
  1

  2
Acrobat PDFWriter
  4
A3
  6

 40
7.143749713897705
 41
7.14375638961792
 42
7.143768310546875
 43
7.14373779296875
 44
297.1270751953125
 45
420.1583251953125
 46
0.0
 47
0.0
 48
0.0
 49
0.0
140
0.0
141
0.0
142
1.0
143
2.0
 70
 28336
 72
     1
 73
     1
 74
     2
  7
print.ctb
 75
    17
147
0.5
148
0.0
149
0.0
100
AcDbLayout
  1
Model
 70
     1
 71
     0
 10
0.0
 20
0.0
 11
12.0
 21
9.0
 12
0.0
 22
0.0
 32
0.0
 14
0.0
 24
0.0
 34
0.0
 15
0.0
 25
0.0
 35
0.0
146
0.0
 13
0.0
 23
0.0
 33
0.0
 16
1.0
 26
0.0
 36
0.0
 17
0.0
 27
1.0
 37
0.0
 76
     0
330
1A
  0
LAYOUT
  5
C45
102
{ACAD_REACTORS
330
C42
102
}
330
C42
100
AcDbPlotSettings
  1

  2
Canon LBP-A404 LIPS3
  4

  6

 40
0.0
 41
0.0
 42
0.0
 43
0.0
 44
0.0
 45
0.0
 46
0.0
 47
0.0
 48
0.0
 49
0.0
140
0.0
141
0.0
142
1.0
143
1.0
 70
   688
 72
     0
 73
     0
 74
     5
  7

 75
    16
147
1.0
148
0.0
149
0.0
100
AcDbLayout
  1
ﾚｲｱｳﾄ1
 70
     1
 71
     1
 10
0.0
 20
0.0
 11
420.0
 21
297.0
 12
0.0
 22
0.0
 32
0.0
 14
0.0
 24
0.0
 34
0.0
 15
420.0
 25
297.0
 35
0.0
146
0.0
 13
0.0
 23
0.0
 33
0.0
 16
1.0
 26
0.0
 36
0.0
 17
0.0
 27
1.0
 37
0.0
 76
     0
330
17
331
64
  0
MLINESTYLE
  5
13
102
{ACAD_REACTORS
330
E
102
}
330
E
100
AcDbMlineStyle
  2
STANDARD
 70
     0
  3

 62
     0
 51
90.0
 52
90.0
 71
     2
 49
0.5
 62
   256
  6
BYLAYER
 49
-0.5
 62
   256
  6
BYLAYER
  0
ACDBPLACEHOLDER
  5
C41
102
{ACAD_REACTORS
330
C40
102
}
330
C40
  0
ENDSEC
  0
EOF
