  0
SECTION
  2
HEADER
  9
$ACADVER
  1
AC1014
  9
$ACADMAINTVER
 70
     9
  9
$DWGCODEPAGE
  3
ANSI_932
  9
$INSBASE
 10
0.0
 20
0.0
 30
0.0
  9
$EXTMIN
 10
-0.05126640194635
 20
-0.0362526699479986
 30
-0.0000000000000058
  9
$EXTMAX
 10
797.6628945888771
 20
551.6439420217511
 30
0.0000000000000104
  9
$LIMMIN
 10
0.0
 20
0.0
  9
$LIMMAX
 10
840.0
 20
594.0
  9
$ORTHOMODE
 70
     0
  9
$REGENMODE
 70
     1
  9
$FILLMODE
 70
     1
  9
$QTEXTMODE
 70
     0
  9
$MIRRTEXT
 70
     1
  9
$DRAGMODE
 70
     2
  9
$LTSCALE
 40
2.0
  9
$OSMODE
 70
    35
  9
$ATTMODE
 70
     1
  9
$TEXTSIZE
 40
5.0
  9
$TRACEWID
 40
1.0
  9
$TEXTSTYLE
  7
STANDARD
  9
$CLAYER
  8
ZUWAKU
  9
$CELTYPE
  6
BYLAYER
  9
$CECOLOR
 62
   256
  9
$CELTSCALE
 40
1.0
  9
$DELOBJ
 70
     1
  9
$DISPSILH
 70
     0
  9
$DIMSCALE
 40
1.0
  9
$DIMASZ
 40
7.0
  9
$DIMEXO
 40
6.0
  9
$DIMDLI
 40
14.0
  9
$DIMRND
 40
0.0
  9
$DIMDLE
 40
0.0
  9
$DIMEXE
 40
3.0
  9
$DIMTP
 40
0.0
  9
$DIMTM
 40
0.0
  9
$DIMTXT
 40
6.0
  9
$DIMCEN
 40
150.0
  9
$DIMTSZ
 40
0.0
  9
$DIMTOL
 70
     0
  9
$DIMLIM
 70
     0
  9
$DIMTIH
 70
     0
  9
$DIMTOH
 70
     0
  9
$DIMSE1
 70
     0
  9
$DIMSE2
 70
     0
  9
$DIMTAD
 70
     3
  9
$DIMZIN
 70
     0
  9
$DIMBLK
  1

  9
$DIMASO
 70
     1
  9
$DIMSHO
 70
     1
  9
$DIMPOST
  1

  9
$DIMAPOST
  1

  9
$DIMALT
 70
     0
  9
$DIMALTD
 70
     2
  9
$DIMALTF
 40
25.4
  9
$DIMLFAC
 40
1.0
  9
$DIMTOFL
 70
     1
  9
$DIMTVP
 40
0.0
  9
$DIMTIX
 70
     0
  9
$DIMSOXD
 70
     0
  9
$DIMSAH
 70
     1
  9
$DIMBLK1
  1
OPEN
  9
$DIMBLK2
  1
OPEN
  9
$DIMSTYLE
  2
STANDARD
  9
$DIMCLRD
 70
   256
  9
$DIMCLRE
 70
   256
  9
$DIMCLRT
 70
   256
  9
$DIMTFAC
 40
1.0
  9
$DIMGAP
 40
2.0
  9
$DIMJUST
 70
     0
  9
$DIMSD1
 70
     0
  9
$DIMSD2
 70
     0
  9
$DIMTOLJ
 70
     1
  9
$DIMTZIN
 70
     0
  9
$DIMALTZ
 70
     0
  9
$DIMALTTZ
 70
     0
  9
$DIMFIT
 70
     3
  9
$DIMUPT
 70
     0
  9
$DIMUNIT
 70
     2
  9
$DIMDEC
 70
     0
  9
$DIMTDEC
 70
     0
  9
$DIMALTU
 70
     2
  9
$DIMALTTD
 70
     2
  9
$DIMTXSTY
  7
STANDARD
  9
$DIMAUNIT
 70
     0
  9
$LUNITS
 70
     2
  9
$LUPREC
 70
     4
  9
$SKETCHINC
 40
1.0
  9
$FILLETRAD
 40
20.0
  9
$AUNITS
 70
     0
  9
$AUPREC
 70
     0
  9
$MENU
  1
.
  9
$ELEVATION
 40
0.0
  9
$PELEVATION
 40
0.0
  9
$THICKNESS
 40
0.0
  9
$LIMCHECK
 70
     0
  9
$BLIPMODE
 70
     0
  9
$CHAMFERA
 40
20.0
  9
$CHAMFERB
 40
20.0
  9
$CHAMFERC
 40
40.0
  9
$CHAMFERD
 40
0.0
  9
$SKPOLY
 70
     0
  9
$TDCREATE
 40
2450994.354346065
  9
$TDUPDATE
 40
2453805.610673275
  9
$TDINDWG
 40
0.0204900231
  9
$TDUSRTIMER
 40
0.0204900231
  9
$USRTIMER
 70
     1
  9
$ANGBASE
 50
0.0
  9
$ANGDIR
 70
     0
  9
$PDMODE
 70
     0
  9
$PDSIZE
 40
0.0
  9
$PLINEWID
 40
0.0
  9
$COORDS
 70
     1
  9
$SPLFRAME
 70
     0
  9
$SPLINETYPE
 70
     6
  9
$SPLINESEGS
 70
     8
  9
$ATTDIA
 70
     0
  9
$ATTREQ
 70
     1
  9
$HANDLING
 70
 10241
  9
$HANDSEED
  5
8FF
  9
$SURFTAB1
 70
     6
  9
$SURFTAB2
 70
     6
  9
$SURFTYPE
 70
     6
  9
$SURFU
 70
     6
  9
$SURFV
 70
     6
  9
$UCSNAME
  2

  9
$UCSORG
 10
0.0
 20
0.0
 30
0.0
  9
$UCSXDIR
 10
1.0
 20
0.0
 30
0.0
  9
$UCSYDIR
 10
0.0
 20
1.0
 30
0.0
  9
$PUCSNAME
  2

  9
$PUCSORG
 10
0.0
 20
0.0
 30
0.0
  9
$PUCSXDIR
 10
1.0
 20
0.0
 30
0.0
  9
$PUCSYDIR
 10
0.0
 20
1.0
 30
0.0
  9
$USERI1
 70
     0
  9
$USERI2
 70
     0
  9
$USERI3
 70
     0
  9
$USERI4
 70
     0
  9
$USERI5
 70
     0
  9
$USERR1
 40
0.0
  9
$USERR2
 40
0.0
  9
$USERR3
 40
0.0
  9
$USERR4
 40
0.0
  9
$USERR5
 40
0.0
  9
$WORLDVIEW
 70
     1
  9
$SHADEDGE
 70
     3
  9
$SHADEDIF
 70
    70
  9
$TILEMODE
 70
     1
  9
$MAXACTVP
 70
    16
  9
$PINSBASE
 10
0.0
 20
0.0
 30
0.0
  9
$PLIMCHECK
 70
     0
  9
$PEXTMIN
 10
0.0
 20
0.0
 30
0.0
  9
$PEXTMAX
 10
420.0
 20
297.0
 30
0.0
  9
$PLIMMIN
 10
0.0
 20
0.0
  9
$PLIMMAX
 10
420.0
 20
297.0
  9
$UNITMODE
 70
     0
  9
$VISRETAIN
 70
     0
  9
$PLINEGEN
 70
     0
  9
$PSLTSCALE
 70
     1
  9
$TREEDEPTH
 70
  3020
  9
$PICKSTYLE
 70
     1
  9
$CMLSTYLE
  2
STANDARD
  9
$CMLJUST
 70
     0
  9
$CMLSCALE
 40
1.0
  9
$PROXYGRAPHICS
 70
     1
  9
$MEASUREMENT
 70
     1
  0
ENDSEC
  0
SECTION
  2
CLASSES
  0
CLASS
  1
ACDBDICTIONARYWDFLT
  2
AcDbDictionaryWithDefault
  3
AutoCAD 2000
 90
        0
280
     0
281
     0
  0
CLASS
  1
ACDBPLACEHOLDER
  2
AcDbPlaceHolder
  3
AutoCAD 2000
 90
        0
280
     0
281
     0
  0
CLASS
  1
LAYOUT
  2
AcDbLayout
  3
AutoCAD 2000
 90
        0
280
     0
281
     0
  0
CLASS
  1
LONG_TRANSACTION
  2
AcDbLongTransaction
  3
AutoCAD 2000
 90
        0
280
     0
281
     0
  0
CLASS
  1
LWPOLYLINE
  2
AcDbPolyline
  3
AutoCAD 2000
 90
        0
280
     0
281
     1
  0
CLASS
  1
HATCH
  2
AcDbHatch
  3
AutoCAD 2000
 90
        0
280
     0
281
     1
  0
CLASS
  1
XRECORD
  2
AcDbXrecord
  3
AutoCAD 2000
 90
        0
280
     0
281
     0
  0
CLASS
  1
LONG_TRANSACTION
  2
AcDbLongTransaction
  3
AutoCAD 2000
 90
        0
280
     0
281
     0
  0
CLASS
  1
LWPOLYLINE
  2
AcDbPolyline
  3
AutoCAD 2000
 90
        0
280
     0
281
     1
  0
CLASS
  1
HATCH
  2
AcDbHatch
  3
AutoCAD 2000
 90
        0
280
     0
281
     1
  0
CLASS
  1
XRECORD
  2
AcDbXrecord
  3
AutoCAD 2000
 90
        0
280
     0
281
     0
  0
CLASS
  1
LONG_TRANSACTION
  2
AcDbLongTransaction
  3
AutoCAD 2000
 90
        0
280
     0
281
     0
  0
CLASS
  1
LWPOLYLINE
  2
AcDbPolyline
  3
AutoCAD 2000
 90
        0
280
     0
281
     1
  0
CLASS
  1
HATCH
  2
AcDbHatch
  3
AutoCAD 2000
 90
        0
280
     0
281
     1
  0
CLASS
  1
XRECORD
  2
AcDbXrecord
  3
AutoCAD 2000
 90
        0
280
     0
281
     0
  0
CLASS
  1
LONG_TRANSACTION
  2
AcDbLongTransaction
  3
AutoCAD 2000
 90
        0
280
     0
281
     0
  0
CLASS
  1
LWPOLYLINE
  2
AcDbPolyline
  3
AutoCAD 2000
 90
        0
280
     0
281
     1
  0
CLASS
  1
HATCH
  2
AcDbHatch
  3
AutoCAD 2000
 90
        0
280
     0
281
     1
  0
CLASS
  1
XRECORD
  2
AcDbXrecord
  3
AutoCAD 2000
 90
        0
280
     0
281
     0
  0
ENDSEC
  0
SECTION
  2
TABLES
  0
TABLE
  2
VPORT
  5
8
330
0
100
AcDbSymbolTable
 70
     2
  0
VPORT
  5
8DB
330
8
100
AcDbSymbolTableRecord
100
AcDbViewportTableRecord
  2
*ACTIVE
 70
     0
 10
0.0
 20
0.0
 11
1.0
 21
1.0
 12
426.8139496519654
 22
270.8216590845343
 13
0.0
 23
0.0
 14
5.0
 24
5.0
 15
0.0
 25
0.0
 16
0.0
 26
0.0
 36
1.0
 17
0.0
 27
0.0
 37
0.0
 40
600.7555716781549
 41
1.795454545454545
 42
50.0
 43
0.0
 44
0.0
 50
0.0
 51
0.0
 71
     0
 72
   100
 73
     1
 74
     0
 75
     0
 76
     0
 77
     0
 78
     0
  0
ENDTAB
  0
TABLE
  2
LTYPE
  5
5
330
0
100
AcDbSymbolTable
 70
     2
  0
LTYPE
  5
14
330
5
100
AcDbSymbolTableRecord
100
AcDbLinetypeTableRecord
  2
BYBLOCK
 70
     0
  3

 72
    65
 73
     0
 40
0.0
  0
LTYPE
  5
15
330
5
100
AcDbSymbolTableRecord
100
AcDbLinetypeTableRecord
  2
BYLAYER
 70
     0
  3

 72
    65
 73
     0
 40
0.0
  0
LTYPE
  5
16
330
5
100
AcDbSymbolTableRecord
100
AcDbLinetypeTableRecord
  2
CONTINUOUS
 70
     0
  3
Solid line
 72
    65
 73
     0
 40
0.0
  0
LTYPE
  5
115
330
5
100
AcDbSymbolTableRecord
100
AcDbLinetypeTableRecord
  2
PHANTOM
 70
     0
  3
______  __  __  ______  __  __  ______  __  __ 
 72
    65
 73
     6
 40
2.5
 49
1.25
 74
     0
 49
-0.25
 74
     0
 49
0.25
 74
     0
 49
-0.25
 74
     0
 49
0.25
 74
     0
 49
-0.25
 74
     0
  0
ENDTAB
  0
TABLE
  2
LAYER
  5
2
330
0
100
AcDbSymbolTable
 70
     8
  0
LAYER
  5
F
330
2
100
AcDbSymbolTableRecord
100
AcDbLayerTableRecord
  2
0
 70
     0
 62
     7
  6
CONTINUOUS
  0
LAYER
  5
62
330
2
100
AcDbSymbolTableRecord
100
AcDbLayerTableRecord
  2
VIEWPORT
 70
     0
 62
     7
  6
CONTINUOUS
  0
LAYER
  5
65
330
2
100
AcDbSymbolTableRecord
100
AcDbLayerTableRecord
  2
ZUWAKU
 70
     0
 62
     7
  6
CONTINUOUS
  0
LAYER
  5
18B
330
2
100
AcDbSymbolTableRecord
100
AcDbLayerTableRecord
  2
SEIHIN
 70
     0
 62
     3
  6
CONTINUOUS
  0
LAYER
  5
18C
330
2
100
AcDbSymbolTableRecord
100
AcDbLayerTableRecord
  2
NOKITOI
 70
     0
 62
     8
  6
PHANTOM
  0
LAYER
  5
18D
330
2
100
AcDbSymbolTableRecord
100
AcDbLayerTableRecord
  2
SUNPOU
 70
     0
 62
     4
  6
CONTINUOUS
  0
LAYER
  5
18E
330
2
100
AcDbSymbolTableRecord
100
AcDbLayerTableRecord
  2
DEFPOINTS
 70
     0
 62
     7
  6
CONTINUOUS
  0
LAYER
  5
763
330
2
100
AcDbSymbolTableRecord
100
AcDbLayerTableRecord
  2
MOJI
 70
     0
 62
     2
  6
CONTINUOUS
  0
ENDTAB
  0
TABLE
  2
STYLE
  5
3
330
0
100
AcDbSymbolTable
 70
     2
  0
STYLE
  5
10
330
3
100
AcDbSymbolTableRecord
100
AcDbTextStyleTableRecord
  2
STANDARD
 70
     0
 40
0.0
 41
1.0
 50
0.0
 71
     0
 42
5.0
  3
TXT
  4
bigfont.shx
  0
STYLE
  5
764
330
3
100
AcDbSymbolTableRecord
100
AcDbTextStyleTableRecord
  2
ｽﾀｲﾙ1
 70
     0
 40
0.0
 41
1.0
 50
0.0
 71
     0
 42
2.5
  3
MS PGothic.ttf
  4

1001
ACAD
1000
MS PGothic
1071
    32818
  0
ENDTAB
  0
TABLE
  2
VIEW
  5
6
330
0
100
AcDbSymbolTable
 70
     0
  0
ENDTAB
  0
TABLE
  2
UCS
  5
7
330
0
100
AcDbSymbolTable
 70
     0
  0
ENDTAB
  0
TABLE
  2
APPID
  5
9
330
0
100
AcDbSymbolTable
 70
     1
  0
APPID
  5
11
330
9
100
AcDbSymbolTableRecord
100
AcDbRegAppTableRecord
  2
ACAD
 70
     0
  0
ENDTAB
  0
TABLE
  2
DIMSTYLE
  5
A
330
0
100
AcDbSymbolTable
 70
     1
  0
DIMSTYLE
105
1D
102
{ACAD_REACTORS
330
4C2
330
4F6
330
552
330
553
330
55E
330
560
330
5EC
330
5ED
102
}
330
A
100
AcDbSymbolTableRecord
100
AcDbDimStyleTableRecord
  2
STANDARD
 70
     0
  3

  4

  5

  6

  7

 40
1.0
 41
0.18
 42
0.0625
 43
0.38
 44
0.18
 45
0.0
 46
0.0
 47
0.0
 48
0.0
140
0.18
141
0.09
142
0.0
143
25.4
144
1.0
145
0.0
146
1.0
147
0.09
 71
     0
 72
     0
 73
     1
 74
     1
 75
     0
 76
     0
 77
     0
 78
     0
170
     0
171
     2
172
     0
173
     0
174
     0
175
     0
176
     0
177
     0
178
     0
270
     2
271
     4
272
     4
273
     2
274
     2
340
10
275
     0
280
     0
281
     0
282
     0
283
     1
284
     0
285
     0
286
     0
287
     3
288
     0
  0
ENDTAB
  0
TABLE
  2
BLOCK_RECORD
  5
1
330
0
100
AcDbSymbolTable
 70
     9
  0
BLOCK_RECORD
  5
1A
102
{ACAD_XDICTIONARY
360
69B
102
}
330
1
100
AcDbSymbolTableRecord
100
AcDbBlockTableRecord
  2
*MODEL_SPACE
  0
BLOCK_RECORD
  5
17
102
{ACAD_XDICTIONARY
360
699
102
}
330
1
100
AcDbSymbolTableRecord
100
AcDbBlockTableRecord
  2
*PAPER_SPACE
  0
BLOCK_RECORD
  5
6D
330
1
100
AcDbSymbolTableRecord
100
AcDbBlockTableRecord
  2
_OPEN
  0
BLOCK_RECORD
  5
5FA
330
1
100
AcDbSymbolTableRecord
100
AcDbBlockTableRecord
  2
*D1
  0
BLOCK_RECORD
  5
607
330
1
100
AcDbSymbolTableRecord
100
AcDbBlockTableRecord
  2
*D2
  0
BLOCK_RECORD
  5
615
330
1
100
AcDbSymbolTableRecord
100
AcDbBlockTableRecord
  2
*D3
  0
BLOCK_RECORD
  5
621
330
1
100
AcDbSymbolTableRecord
100
AcDbBlockTableRecord
  2
*D4
  0
BLOCK_RECORD
  5
62D
330
1
100
AcDbSymbolTableRecord
100
AcDbBlockTableRecord
  2
*D5
  0
BLOCK_RECORD
  5
63A
330
1
100
AcDbSymbolTableRecord
100
AcDbBlockTableRecord
  2
*D6
  0
BLOCK_RECORD
  5
648
330
1
100
AcDbSymbolTableRecord
100
AcDbBlockTableRecord
  2
*D7
  0
BLOCK_RECORD
  5
654
330
1
100
AcDbSymbolTableRecord
100
AcDbBlockTableRecord
  2
*D8
  0
ENDTAB
  0
ENDSEC
  0
SECTION
  2
BLOCKS
  0
BLOCK
  5
1B
330
1A
100
AcDbEntity
  8
0
100
AcDbBlockBegin
  2
*MODEL_SPACE
 70
     0
 10
0.0
 20
0.0
 30
0.0
  3
*MODEL_SPACE
  1

  0
ENDBLK
  5
1C
330
1A
100
AcDbEntity
  8
0
100
AcDbBlockEnd
  0
BLOCK
  5
18
330
17
100
AcDbEntity
 67
     1
  8
0
100
AcDbBlockBegin
  2
*PAPER_SPACE
 70
     0
 10
0.0
 20
0.0
 30
0.0
  3
*PAPER_SPACE
  1

  0
ENDBLK
  5
19
330
17
100
AcDbEntity
 67
     1
  8
0
100
AcDbBlockEnd
  0
BLOCK
  5
6E
330
6D
100
AcDbEntity
  8
0
100
AcDbBlockBegin
  2
_OPEN
 70
     0
 10
0.0
 20
0.0
 30
0.0
  3
_OPEN
  1

  0
LINE
  5
6F
330
6D
100
AcDbEntity
  8
0
  6
BYBLOCK
 62
     0
100
AcDbLine
 10
-1.0
 20
0.1666666666666666
 30
0.0
 11
0.0
 21
0.0
 31
0.0
  0
LINE
  5
70
330
6D
100
AcDbEntity
  8
0
  6
BYBLOCK
 62
     0
100
AcDbLine
 10
0.0
 20
0.0
 30
0.0
 11
-1.0
 21
-0.1666666666666666
 31
0.0
  0
LINE
  5
71
330
6D
100
AcDbEntity
  8
0
  6
BYBLOCK
 62
     0
100
AcDbLine
 10
0.0
 20
0.0
 30
0.0
 11
-1.0
 21
0.0
 31
0.0
  0
ENDBLK
  5
72
330
6D
100
AcDbEntity
  8
0
100
AcDbBlockEnd
  0
BLOCK
  5
5FB
330
5FA
100
AcDbEntity
  8
0
100
AcDbBlockBegin
  2
*D1
 70
     1
 10
0.0
 20
0.0
 30
0.0
  3
*D1
  1

  0
LINE
  5
6C8
330
5FA
100
AcDbEntity
  8
SUNPOU
  6
CONTINUOUS
 62
     4
100
AcDbLine
 10
656.6104622209727
 20
361.5980641449727
 30
0.0
 11
680.7495845060111
 21
361.5980641449727
 31
0.0
  0
LINE
  5
6C9
330
5FA
100
AcDbEntity
  8
SUNPOU
  6
CONTINUOUS
 62
     4
100
AcDbLine
 10
648.8613622209727
 20
343.2980641449727
 30
0.0
 11
680.7495845060111
 21
343.2980641449727
 31
0.0
  0
LINE
  5
6CA
330
5FA
100
AcDbEntity
  8
SUNPOU
  6
CONTINUOUS
 62
     4
100
AcDbLine
 10
677.7495845060111
 20
354.5980641449728
 30
0.0
 11
677.7495845060111
 21
350.2980641449727
 31
0.0
  0
LINE
  5
6CB
330
5FA
100
AcDbEntity
  8
SUNPOU
  6
CONTINUOUS
 62
     4
100
AcDbLine
 10
677.7495845060111
 20
343.2980641449727
 30
0.0
 11
677.7495845060111
 21
317.4980641449727
 31
0.0
  0
INSERT
  5
6CC
330
5FA
100
AcDbEntity
  8
SUNPOU
  6
CONTINUOUS
 62
     4
100
AcDbBlockReference
  2
_OPEN
 10
677.7495845060111
 20
361.5980641449727
 30
0.0
 41
7.0
 42
7.0
 43
7.0
 50
90.0
  0
INSERT
  5
6CD
330
5FA
100
AcDbEntity
  8
SUNPOU
  6
CONTINUOUS
 62
     4
100
AcDbBlockReference
  2
_OPEN
 10
677.7495845060111
 20
343.2980641449727
 30
0.0
 41
7.0
 42
7.0
 43
7.0
 50
270.0
  0
MTEXT
  5
6CE
330
5FA
100
AcDbEntity
  8
SUNPOU
  6
CONTINUOUS
 62
     4
100
AcDbMText
 10
672.7495845060111
 20
326.8980641449728
 30
0.0
 40
6.0
 41
0.0
 71
     5
 72
     5
  1
\A1;※18
 11
0.0000000000000001
 21
1.0
 31
0.0
1001
ACAD
1000
MTEXTBEGIN
1070
    73
1070
     1
1070
    44
1040
1.0
1070
    74
1070
     0
1000
MTEXTEND
1000
MTEXTBEGIN
1070
    73
1070
     1
1070
    44
1040
1.0
1070
    74
1070
     0
1000
MTEXTEND
1000
MTEXTBEGIN
1070
    73
1070
     1
1070
    44
1040
1.0
1070
    74
1070
     0
1000
MTEXTEND
  0
POINT
  5
6CF
330
5FA
100
AcDbEntity
  8
DEFPOINTS
  6
CONTINUOUS
 62
     0
100
AcDbPoint
 10
650.6104622209727
 20
361.5980641449727
 30
0.0
  0
POINT
  5
6D0
330
5FA
100
AcDbEntity
  8
DEFPOINTS
  6
CONTINUOUS
 62
     0
100
AcDbPoint
 10
642.8613622209727
 20
343.2980641449727
 30
0.0
  0
POINT
  5
6D1
330
5FA
100
AcDbEntity
  8
DEFPOINTS
  6
CONTINUOUS
 62
     0
100
AcDbPoint
 10
677.7495845060111
 20
343.2980641449727
 30
0.0
  0
ENDBLK
  5
606
330
5FA
100
AcDbEntity
  8
0
100
AcDbBlockEnd
  0
BLOCK
  5
608
330
607
100
AcDbEntity
  8
0
100
AcDbBlockBegin
  2
*D2
 70
     1
 10
0.0
 20
0.0
 30
0.0
  3
*D2
  1

  0
LINE
  5
6BF
330
607
100
AcDbEntity
  8
SUNPOU
  6
CONTINUOUS
 62
     4
100
AcDbLine
 10
656.6104622209727
 20
361.5980641449727
 30
0.0
 11
703.1983746169749
 21
361.5980641449727
 31
0.0
  0
LINE
  5
6C0
330
607
100
AcDbEntity
  8
SUNPOU
  6
CONTINUOUS
 62
     4
100
AcDbLine
 10
656.3103622209726
 20
341.5980641449728
 30
0.0
 11
703.1983746169749
 21
341.5980641449728
 31
0.0
  0
LINE
  5
6C1
330
607
100
AcDbEntity
  8
SUNPOU
  6
CONTINUOUS
 62
     4
100
AcDbLine
 10
700.1983746169749
 20
354.5980641449728
 30
0.0
 11
700.1983746169749
 21
348.5980641449728
 31
0.0
  0
INSERT
  5
6C2
330
607
100
AcDbEntity
  8
SUNPOU
  6
CONTINUOUS
 62
     4
100
AcDbBlockReference
  2
_OPEN
 10
700.1983746169749
 20
361.5980641449727
 30
0.0
 41
7.0
 42
7.0
 43
7.0
 50
90.0
  0
INSERT
  5
6C3
330
607
100
AcDbEntity
  8
SUNPOU
  6
CONTINUOUS
 62
     4
100
AcDbBlockReference
  2
_OPEN
 10
700.1983746169749
 20
341.5980641449728
 30
0.0
 41
7.0
 42
7.0
 43
7.0
 50
270.0
  0
MTEXT
  5
6C4
330
607
100
AcDbEntity
  8
SUNPOU
  6
CONTINUOUS
 62
     4
100
AcDbMText
 10
695.1983746169747
 20
351.5980641449729
 30
0.0
 40
6.0
 41
0.0
 71
     5
 72
     5
  1
\A1;20
 11
0.0000000000000001
 21
1.0
 31
0.0
1001
ACAD
1000
MTEXTBEGIN
1070
    73
1070
     1
1070
    44
1040
1.0
1070
    74
1070
     0
1000
MTEXTEND
1000
MTEXTBEGIN
1070
    73
1070
     1
1070
    44
1040
1.0
1070
    74
1070
     0
1000
MTEXTEND
1000
MTEXTBEGIN
1070
    73
1070
     1
1070
    44
1040
1.0
1070
    74
1070
     0
1000
MTEXTEND
  0
POINT
  5
6C5
330
607
100
AcDbEntity
  8
DEFPOINTS
  6
CONTINUOUS
 62
     0
100
AcDbPoint
 10
650.6104622209727
 20
361.5980641449727
 30
0.0
  0
POINT
  5
6C6
330
607
100
AcDbEntity
  8
DEFPOINTS
  6
CONTINUOUS
 62
     0
100
AcDbPoint
 10
650.3103622209725
 20
341.5980641449728
 30
0.0
  0
POINT
  5
6C7
330
607
100
AcDbEntity
  8
DEFPOINTS
  6
CONTINUOUS
 62
     0
100
AcDbPoint
 10
700.1983746169749
 20
341.5980641449728
 30
0.0
  0
ENDBLK
  5
614
330
607
100
AcDbEntity
  8
0
100
AcDbBlockEnd
  0
BLOCK
  5
616
330
615
100
AcDbEntity
  8
0
100
AcDbBlockBegin
  2
*D3
 70
     1
 10
0.0
 20
0.0
 30
0.0
  3
*D3
  1

  0
LINE
  5
6AD
330
615
100
AcDbEntity
  8
SUNPOU
  6
CONTINUOUS
 62
     4
100
AcDbLine
 10
651.2516622209727
 20
278.0286641449726
 30
0.0
 11
651.2516622209727
 21
298.1410904298459
 31
0.0
  0
LINE
  5
6AE
330
615
100
AcDbEntity
  8
SUNPOU
  6
CONTINUOUS
 62
     4
100
AcDbLine
 10
528.0711622209726
 20
278.0283641449727
 30
0.0
 11
528.0711622209726
 21
298.1410904298459
 31
0.0
  0
LINE
  5
6AF
330
615
100
AcDbEntity
  8
SUNPOU
  6
CONTINUOUS
 62
     4
100
AcDbLine
 10
644.2516622209727
 20
295.1410904298459
 30
0.0
 11
535.0711622209725
 21
295.1410904298459
 31
0.0
  0
INSERT
  5
6B0
330
615
100
AcDbEntity
  8
SUNPOU
  6
CONTINUOUS
 62
     4
100
AcDbBlockReference
  2
_OPEN
 10
651.2516622209727
 20
295.1410904298459
 30
0.0
 41
7.0
 42
7.0
 43
7.0
  0
INSERT
  5
6B1
330
615
100
AcDbEntity
  8
SUNPOU
  6
CONTINUOUS
 62
     4
100
AcDbBlockReference
  2
_OPEN
 10
528.0711622209726
 20
295.1410904298459
 30
0.0
 41
7.0
 42
7.0
 43
7.0
 50
180.0
  0
MTEXT
  5
6B2
330
615
100
AcDbEntity
  8
SUNPOU
  6
CONTINUOUS
 62
     4
100
AcDbMText
 10
589.6614122209727
 20
300.1410904298459
 30
0.0
 40
6.0
 41
0.0
 71
     5
 72
     5
  1
\A1;123
1001
ACAD
1000
MTEXTBEGIN
1070
    73
1070
     1
1070
    44
1040
1.0
1070
    74
1070
     0
1000
MTEXTEND
1000
MTEXTBEGIN
1070
    73
1070
     1
1070
    44
1040
1.0
1070
    74
1070
     0
1000
MTEXTEND
1000
MTEXTBEGIN
1070
    73
1070
     1
1070
    44
1040
1.0
1070
    74
1070
     0
1000
MTEXTEND
  0
POINT
  5
6B3
330
615
100
AcDbEntity
  8
DEFPOINTS
  6
CONTINUOUS
 62
     0
100
AcDbPoint
 10
651.2516622209727
 20
272.0286641449726
 30
0.0
  0
POINT
  5
6B4
330
615
100
AcDbEntity
  8
DEFPOINTS
  6
CONTINUOUS
 62
     0
100
AcDbPoint
 10
528.0711622209726
 20
272.0283641449727
 30
0.0
  0
POINT
  5
6B5
330
615
100
AcDbEntity
  8
DEFPOINTS
  6
CONTINUOUS
 62
     0
100
AcDbPoint
 10
528.0711622209726
 20
295.1410904298459
 30
0.0
  0
ENDBLK
  5
620
330
615
100
AcDbEntity
  8
0
100
AcDbBlockEnd
  0
BLOCK
  5
622
330
621
100
AcDbEntity
  8
0
100
AcDbBlockBegin
  2
*D4
 70
     1
 10
0.0
 20
0.0
 30
0.0
  3
*D4
  1

  0
LINE
  5
6B6
330
621
100
AcDbEntity
  8
SUNPOU
  6
CONTINUOUS
 62
     4
100
AcDbLine
 10
655.2524622209728
 20
274.0857641449728
 30
0.0
 11
680.7495845060112
 21
274.0857641449728
 31
0.0
  0
LINE
  5
6B7
330
621
100
AcDbEntity
  8
SUNPOU
  6
CONTINUOUS
 62
     4
100
AcDbLine
 10
632.9113622209729
 20
215.1856641449727
 30
0.0
 11
680.7495845060111
 21
215.1856641449727
 31
0.0
  0
LINE
  5
6B8
330
621
100
AcDbEntity
  8
SUNPOU
  6
CONTINUOUS
 62
     4
100
AcDbLine
 10
677.7495845060112
 20
267.0857641449728
 30
0.0
 11
677.7495845060111
 21
222.1856641449726
 31
0.0
  0
INSERT
  5
6B9
330
621
100
AcDbEntity
  8
SUNPOU
  6
CONTINUOUS
 62
     4
100
AcDbBlockReference
  2
_OPEN
 10
677.7495845060112
 20
274.0857641449728
 30
0.0
 41
7.0
 42
7.0
 43
7.0
 50
90.0
  0
INSERT
  5
6BA
330
621
100
AcDbEntity
  8
SUNPOU
  6
CONTINUOUS
 62
     4
100
AcDbBlockReference
  2
_OPEN
 10
677.7495845060111
 20
215.1856641449727
 30
0.0
 41
7.0
 42
7.0
 43
7.0
 50
270.0
  0
MTEXT
  5
6BB
330
621
100
AcDbEntity
  8
SUNPOU
  6
CONTINUOUS
 62
     4
100
AcDbMText
 10
672.7495845060111
 20
244.6357141449728
 30
0.0
 40
6.0
 41
0.0
 71
     5
 72
     5
  1
\A1;59
 11
0.0000000000000001
 21
1.0
 31
0.0
1001
ACAD
1000
MTEXTBEGIN
1070
    73
1070
     1
1070
    44
1040
1.0
1070
    74
1070
     0
1000
MTEXTEND
1000
MTEXTBEGIN
1070
    73
1070
     1
1070
    44
1040
1.0
1070
    74
1070
     0
1000
MTEXTEND
1000
MTEXTBEGIN
1070
    73
1070
     1
1070
    44
1040
1.0
1070
    74
1070
     0
1000
MTEXTEND
  0
POINT
  5
6BC
330
621
100
AcDbEntity
  8
DEFPOINTS
  6
CONTINUOUS
 62
     0
100
AcDbPoint
 10
649.2524622209728
 20
274.0857641449728
 30
0.0
  0
POINT
  5
6BD
330
621
100
AcDbEntity
  8
DEFPOINTS
  6
CONTINUOUS
 62
     0
100
AcDbPoint
 10
626.9113622209729
 20
215.1856641449727
 30
0.0
  0
POINT
  5
6BE
330
621
100
AcDbEntity
  8
DEFPOINTS
  6
CONTINUOUS
 62
     0
100
AcDbPoint
 10
677.7495845060111
 20
215.1856641449727
 30
0.0
  0
ENDBLK
  5
62C
330
621
100
AcDbEntity
  8
0
100
AcDbBlockEnd
  0
BLOCK
  5
62E
330
62D
100
AcDbEntity
  8
0
100
AcDbBlockBegin
  2
*D5
 70
     1
 10
0.0
 20
0.0
 30
0.0
  3
*D5
  1

  0
LINE
  5
6ED
330
62D
100
AcDbEntity
  8
SUNPOU
  6
CONTINUOUS
 62
     4
100
AcDbLine
 10
159.4904939503489
 20
361.5980641449727
 30
0.0
 11
141.8150492448285
 21
361.5980641449727
 31
0.0
  0
LINE
  5
6EE
330
62D
100
AcDbEntity
  8
SUNPOU
  6
CONTINUOUS
 62
     4
100
AcDbLine
 10
167.2395939503489
 20
343.2980641449727
 30
0.0
 11
141.8150492448285
 21
343.2980641449727
 31
0.0
  0
LINE
  5
6EF
330
62D
100
AcDbEntity
  8
SUNPOU
  6
CONTINUOUS
 62
     4
100
AcDbLine
 10
144.8150492448285
 20
354.5980641449728
 30
0.0
 11
144.8150492448285
 21
350.2980641449727
 31
0.0
  0
LINE
  5
6F0
330
62D
100
AcDbEntity
  8
SUNPOU
  6
CONTINUOUS
 62
     4
100
AcDbLine
 10
144.8150492448285
 20
343.2980641449727
 30
0.0
 11
144.8150492448284
 21
317.4980641449727
 31
0.0
  0
INSERT
  5
6F1
330
62D
100
AcDbEntity
  8
SUNPOU
  6
CONTINUOUS
 62
     4
100
AcDbBlockReference
  2
_OPEN
 10
144.8150492448285
 20
361.5980641449727
 30
0.0
 41
7.0
 42
7.0
 43
7.0
 50
90.0
  0
INSERT
  5
6F2
330
62D
100
AcDbEntity
  8
SUNPOU
  6
CONTINUOUS
 62
     4
100
AcDbBlockReference
  2
_OPEN
 10
144.8150492448285
 20
343.2980641449727
 30
0.0
 41
7.0
 42
7.0
 43
7.0
 50
270.0
  0
MTEXT
  5
6F3
330
62D
100
AcDbEntity
  8
SUNPOU
  6
CONTINUOUS
 62
     4
100
AcDbMText
 10
139.8150492448284
 20
326.8980641449727
 30
0.0
 40
6.0
 41
0.0
 71
     5
 72
     5
  1
\A1;※18
 11
0.0000000000000001
 21
1.0
 31
0.0
1001
ACAD
1000
MTEXTBEGIN
1070
    73
1070
     1
1070
    44
1040
1.0
1070
    74
1070
     0
1000
MTEXTEND
1000
MTEXTBEGIN
1070
    73
1070
     1
1070
    44
1040
1.0
1070
    74
1070
     0
1000
MTEXTEND
1000
MTEXTBEGIN
1070
    73
1070
     1
1070
    44
1040
1.0
1070
    74
1070
     0
1000
MTEXTEND
  0
POINT
  5
6F4
330
62D
100
AcDbEntity
  8
DEFPOINTS
  6
CONTINUOUS
 62
     0
100
AcDbPoint
 10
165.490493950349
 20
361.5980641449727
 30
0.0
  0
POINT
  5
6F5
330
62D
100
AcDbEntity
  8
DEFPOINTS
  6
CONTINUOUS
 62
     0
100
AcDbPoint
 10
173.239593950349
 20
343.2980641449727
 30
0.0
  0
POINT
  5
6F6
330
62D
100
AcDbEntity
  8
DEFPOINTS
  6
CONTINUOUS
 62
     0
100
AcDbPoint
 10
144.8150492448285
 20
343.2980641449727
 30
0.0
  0
ENDBLK
  5
639
330
62D
100
AcDbEntity
  8
0
100
AcDbBlockEnd
  0
BLOCK
  5
63B
330
63A
100
AcDbEntity
  8
0
100
AcDbBlockBegin
  2
*D6
 70
     1
 10
0.0
 20
0.0
 30
0.0
  3
*D6
  1

  0
LINE
  5
6E4
330
63A
100
AcDbEntity
  8
SUNPOU
  6
CONTINUOUS
 62
     4
100
AcDbLine
 10
168.8395939503489
 20
361.5981641449726
 30
0.0
 11
126.1466628013445
 21
361.5981641449727
 31
0.0
  0
LINE
  5
6E5
330
63A
100
AcDbEntity
  8
SUNPOU
  6
CONTINUOUS
 62
     4
100
AcDbLine
 10
168.8395939503489
 20
341.5980641449728
 30
0.0
 11
126.1466628013445
 21
341.5980641449728
 31
0.0
  0
LINE
  5
6E6
330
63A
100
AcDbEntity
  8
SUNPOU
  6
CONTINUOUS
 62
     4
100
AcDbLine
 10
129.1466628013445
 20
354.5981641449726
 30
0.0
 11
129.1466628013445
 21
348.5980641449728
 31
0.0
  0
INSERT
  5
6E7
330
63A
100
AcDbEntity
  8
SUNPOU
  6
CONTINUOUS
 62
     4
100
AcDbBlockReference
  2
_OPEN
 10
129.1466628013445
 20
361.5981641449726
 30
0.0
 41
7.0
 42
7.0
 43
7.0
 50
90.0
  0
INSERT
  5
6E8
330
63A
100
AcDbEntity
  8
SUNPOU
  6
CONTINUOUS
 62
     4
100
AcDbBlockReference
  2
_OPEN
 10
129.1466628013445
 20
341.5980641449728
 30
0.0
 41
7.0
 42
7.0
 43
7.0
 50
270.0
  0
MTEXT
  5
6E9
330
63A
100
AcDbEntity
  8
SUNPOU
  6
CONTINUOUS
 62
     4
100
AcDbMText
 10
124.1466628013444
 20
351.5981141449727
 30
0.0
 40
6.0
 41
0.0
 71
     5
 72
     5
  1
\A1;20
 11
0.0000000000000001
 21
1.0
 31
0.0
1001
ACAD
1000
MTEXTBEGIN
1070
    73
1070
     1
1070
    44
1040
1.0
1070
    74
1070
     0
1000
MTEXTEND
1000
MTEXTBEGIN
1070
    73
1070
     1
1070
    44
1040
1.0
1070
    74
1070
     0
1000
MTEXTEND
1000
MTEXTBEGIN
1070
    73
1070
     1
1070
    44
1040
1.0
1070
    74
1070
     0
1000
MTEXTEND
  0
POINT
  5
6EA
330
63A
100
AcDbEntity
  8
DEFPOINTS
  6
CONTINUOUS
 62
     0
100
AcDbPoint
 10
174.8395939503488
 20
361.5981641449726
 30
0.0
  0
POINT
  5
6EB
330
63A
100
AcDbEntity
  8
DEFPOINTS
  6
CONTINUOUS
 62
     0
100
AcDbPoint
 10
174.8395939503488
 20
341.5980641449728
 30
0.0
  0
POINT
  5
6EC
330
63A
100
AcDbEntity
  8
DEFPOINTS
  6
CONTINUOUS
 62
     0
100
AcDbPoint
 10
129.1466628013445
 20
341.5980641449728
 30
0.0
  0
ENDBLK
  5
647
330
63A
100
AcDbEntity
  8
0
100
AcDbBlockEnd
  0
BLOCK
  5
649
330
648
100
AcDbEntity
  8
0
100
AcDbBlockBegin
  2
*D7
 70
     1
 10
0.0
 20
0.0
 30
0.0
  3
*D7
  1

  0
LINE
  5
6DB
330
648
100
AcDbEntity
  8
SUNPOU
  6
CONTINUOUS
 62
     4
100
AcDbLine
 10
160.8484939503489
 20
274.0857641449728
 30
0.0
 11
141.8150492448285
 21
274.0857641449728
 31
0.0
  0
LINE
  5
6DC
330
648
100
AcDbEntity
  8
SUNPOU
  6
CONTINUOUS
 62
     4
100
AcDbLine
 10
183.1895939503488
 20
215.1856641449727
 30
0.0
 11
141.8150492448285
 21
215.1856641449727
 31
0.0
  0
LINE
  5
6DD
330
648
100
AcDbEntity
  8
SUNPOU
  6
CONTINUOUS
 62
     4
100
AcDbLine
 10
144.8150492448285
 20
267.0857641449728
 30
0.0
 11
144.8150492448285
 21
222.1856641449726
 31
0.0
  0
INSERT
  5
6DE
330
648
100
AcDbEntity
  8
SUNPOU
  6
CONTINUOUS
 62
     4
100
AcDbBlockReference
  2
_OPEN
 10
144.8150492448285
 20
274.0857641449728
 30
0.0
 41
7.0
 42
7.0
 43
7.0
 50
90.0
  0
INSERT
  5
6DF
330
648
100
AcDbEntity
  8
SUNPOU
  6
CONTINUOUS
 62
     4
100
AcDbBlockReference
  2
_OPEN
 10
144.8150492448285
 20
215.1856641449727
 30
0.0
 41
7.0
 42
7.0
 43
7.0
 50
270.0
  0
MTEXT
  5
6E0
330
648
100
AcDbEntity
  8
SUNPOU
  6
CONTINUOUS
 62
     4
100
AcDbMText
 10
139.8150492448284
 20
244.6357141449727
 30
0.0
 40
6.0
 41
0.0
 71
     5
 72
     5
  1
\A1;59
 11
0.0000000000000001
 21
1.0
 31
0.0
1001
ACAD
1000
MTEXTBEGIN
1070
    73
1070
     1
1070
    44
1040
1.0
1070
    74
1070
     0
1000
MTEXTEND
1000
MTEXTBEGIN
1070
    73
1070
     1
1070
    44
1040
1.0
1070
    74
1070
     0
1000
MTEXTEND
1000
MTEXTBEGIN
1070
    73
1070
     1
1070
    44
1040
1.0
1070
    74
1070
     0
1000
MTEXTEND
  0
POINT
  5
6E1
330
648
100
AcDbEntity
  8
DEFPOINTS
  6
CONTINUOUS
 62
     0
100
AcDbPoint
 10
166.8484939503489
 20
274.0857641449728
 30
0.0
  0
POINT
  5
6E2
330
648
100
AcDbEntity
  8
DEFPOINTS
  6
CONTINUOUS
 62
     0
100
AcDbPoint
 10
189.1895939503488
 20
215.1856641449727
 30
0.0
  0
POINT
  5
6E3
330
648
100
AcDbEntity
  8
DEFPOINTS
  6
CONTINUOUS
 62
     0
100
AcDbPoint
 10
144.8150492448285
 20
215.1856641449727
 30
0.0
  0
ENDBLK
  5
653
330
648
100
AcDbEntity
  8
0
100
AcDbBlockEnd
  0
BLOCK
  5
655
330
654
100
AcDbEntity
  8
0
100
AcDbBlockBegin
  2
*D8
 70
     1
 10
0.0
 20
0.0
 30
0.0
  3
*D8
  1

  0
LINE
  5
6D2
330
654
100
AcDbEntity
  8
SUNPOU
  6
CONTINUOUS
 62
     4
100
AcDbLine
 10
288.0297939503491
 20
278.0283641449727
 30
0.0
 11
288.0297939503491
 21
297.9605077142696
 31
0.0
  0
LINE
  5
6D3
330
654
100
AcDbEntity
  8
SUNPOU
  6
CONTINUOUS
 62
     4
100
AcDbLine
 10
164.8492939503489
 20
278.0286641449726
 30
0.0
 11
164.8492939503489
 21
297.9605077142696
 31
0.0
  0
LINE
  5
6D4
330
654
100
AcDbEntity
  8
SUNPOU
  6
CONTINUOUS
 62
     4
100
AcDbLine
 10
281.0297939503491
 20
294.9605077142696
 30
0.0
 11
171.8492939503489
 21
294.9605077142696
 31
0.0
  0
INSERT
  5
6D5
330
654
100
AcDbEntity
  8
SUNPOU
  6
CONTINUOUS
 62
     4
100
AcDbBlockReference
  2
_OPEN
 10
288.0297939503491
 20
294.9605077142696
 30
0.0
 41
7.0
 42
7.0
 43
7.0
  0
INSERT
  5
6D6
330
654
100
AcDbEntity
  8
SUNPOU
  6
CONTINUOUS
 62
     4
100
AcDbBlockReference
  2
_OPEN
 10
164.8492939503489
 20
294.9605077142696
 30
0.0
 41
7.0
 42
7.0
 43
7.0
 50
180.0
  0
MTEXT
  5
6D7
330
654
100
AcDbEntity
  8
SUNPOU
  6
CONTINUOUS
 62
     4
100
AcDbMText
 10
226.439543950349
 20
299.9605077142696
 30
0.0
 40
6.0
 41
0.0
 71
     5
 72
     5
  1
\A1;123
1001
ACAD
1000
MTEXTBEGIN
1070
    73
1070
     1
1070
    44
1040
1.0
1070
    74
1070
     0
1000
MTEXTEND
1000
MTEXTBEGIN
1070
    73
1070
     1
1070
    44
1040
1.0
1070
    74
1070
     0
1000
MTEXTEND
1000
MTEXTBEGIN
1070
    73
1070
     1
1070
    44
1040
1.0
1070
    74
1070
     0
1000
MTEXTEND
  0
POINT
  5
6D8
330
654
100
AcDbEntity
  8
DEFPOINTS
  6
CONTINUOUS
 62
     0
100
AcDbPoint
 10
288.0297939503491
 20
272.0283641449727
 30
0.0
  0
POINT
  5
6D9
330
654
100
AcDbEntity
  8
DEFPOINTS
  6
CONTINUOUS
 62
     0
100
AcDbPoint
 10
164.8492939503489
 20
272.0286641449726
 30
0.0
  0
POINT
  5
6DA
330
654
100
AcDbEntity
  8
DEFPOINTS
  6
CONTINUOUS
 62
     0
100
AcDbPoint
 10
164.8492939503489
 20
294.9605077142696
 30
0.0
  0
ENDBLK
  5
65F
330
654
100
AcDbEntity
  8
0
100
AcDbBlockEnd
  0
ENDSEC
  0
SECTION
  2
ENTITIES
  0
TEXT
  5
402
330
1A
100
AcDbEntity
  8
SUNPOU
 62
     4
100
AcDbText
 10
638.1509450276039
 20
45.13074277864769
 30
0.0
 40
8.0
  1
※　のきといの差込み寸法を示す
100
AcDbText
  0
DIMENSION
  5
4C2
330
1A
100
AcDbEntity
  8
SUNPOU
  6
CONTINUOUS
100
AcDbDimension
  2
*D3
 10
528.0711622209726
 20
295.1410904298459
 30
0.0
 11
589.6614122209727
 21
300.1410904298459
 31
0.0
 70
    32
  3
STANDARD
100
AcDbAlignedDimension
 13
651.2516622209727
 23
272.0286641449726
 33
0.0
 14
528.0711622209726
 24
272.0283641449727
 34
0.0
100
AcDbRotatedDimension
1001
ACAD
1000
DSTYLE
1002
{
1070
   140
1040
6.0
1070
    74
1070
     0
1070
   172
1070
     1
1070
    73
1070
     0
1070
   272
1070
     2
1070
    77
1070
     3
1070
   173
1070
     1
1070
   147
1040
2.0
1070
    42
1040
6.0
1070
    44
1040
3.0
1070
    43
1040
14.0
1070
   271
1070
     0
1070
   178
1070
     4
1070
   177
1070
     4
1070
   176
1070
     4
1070
   141
1040
150.0
1070
     7
1000
_OPEN
1070
     6
1000
_OPEN
1070
    41
1040
7.0
1002
}
  0
LINE
  5
4C4
330
1A
100
AcDbEntity
  8
NOKITOI
  6
PHANTOM
 62
     8
 48
3.5
100
AcDbLine
 10
538.2537122209726
 20
269.3857141449726
 30
0.0
 11
536.0222122209727
 21
269.3857141449726
 31
0.0
  0
ARC
  5
4C5
330
1A
100
AcDbEntity
  8
SEIHIN
  6
CONTINUOUS
 62
     3
 48
16.0
100
AcDbCircle
 10
581.3697408217627
 20
259.8856824702071
 30
0.0
 40
39.70001832531209
100
AcDbArc
 50
188.8499169819706
 51
269.999886561928
  0
ARC
  5
4C6
330
1A
100
AcDbEntity
  8
NOKITOI
  6
PHANTOM
 62
     8
 48
3.5
100
AcDbCircle
 10
581.7258959945154
 20
259.8857286213427
 30
0.0
 40
43.00001447645168
100
AcDbArc
 50
186.524910707118
 51
269.999888375144
  0
ARC
  5
4C7
330
1A
100
AcDbEntity
  8
NOKITOI
  6
PHANTOM
 62
     8
 48
3.5
100
AcDbCircle
 10
581.7259183029407
 20
259.8857085203163
 30
0.0
 40
41.79999437547816
100
AcDbArc
 50
184.474295212525
 51
269.9998545921086
  0
LINE
  5
4C8
330
1A
100
AcDbEntity
  8
SEIHIN
  6
CONTINUOUS
 62
     3
 48
16.0
100
AcDbLine
 10
530.0703622209728
 20
274.0854641449726
 30
0.0
 11
589.6613622209726
 21
274.0855641449728
 31
0.0
  0
ARC
  5
4C9
330
1A
100
AcDbEntity
  8
SEIHIN
  6
CONTINUOUS
 62
     3
 48
16.0
100
AcDbCircle
 10
581.3697373260835
 20
259.8856853450742
 30
0.0
 40
44.70002120016462
100
AcDbArc
 50
189.1657588768704
 51
269.9999037314577
  0
LINE
  5
4CA
330
1A
100
AcDbEntity
  8
NOKITOI
  6
PHANTOM
 62
     8
 48
3.5
100
AcDbLine
 10
539.5548122209731
 20
257.0857141449727
 30
0.0
 11
533.5139122209727
 21
257.0857141449727
 31
0.0
  0
LINE
  5
4CB
330
1A
100
AcDbEntity
  8
NOKITOI
  6
PHANTOM
 62
     8
 48
3.5
100
AcDbLine
 10
531.8662122209728
 20
255.8857141449726
 30
0.0
 11
538.0109122209725
 21
255.8857141449726
 31
0.0
  0
LINE
  5
4CC
330
1A
100
AcDbEntity
  8
NOKITOI
  6
PHANTOM
 62
     8
 48
3.5
100
AcDbLine
 10
537.9379122209727
 20
262.3857141449726
 30
0.0
 11
535.6888122209727
 21
262.3857141449726
 31
0.0
  0
LINE
  5
4CD
330
1A
100
AcDbEntity
  8
SEIHIN
  6
CONTINUOUS
 62
     3
 48
16.0
100
AcDbLine
 10
462.7148226081178
 20
274.0856641449726
 30
0.0
 11
481.7148226081179
 21
274.0857641449728
 31
0.0
  0
LINE
  5
4CE
330
1A
100
AcDbEntity
  8
SEIHIN
  6
CONTINUOUS
 62
     3
 48
16.0
100
AcDbLine
 10
467.7148226081179
 20
253.1856641449727
 30
0.0
 11
481.7149226081179
 21
253.1857641449727
 31
0.0
  0
LINE
  5
4CF
330
1A
100
AcDbEntity
  8
SEIHIN
  6
CONTINUOUS
 62
     3
 48
16.0
100
AcDbLine
 10
467.7148226081179
 20
215.1856641449727
 30
0.0
 11
481.7148226081179
 21
215.1856641449727
 31
0.0
  0
LINE
  5
4D0
330
1A
100
AcDbEntity
  8
SEIHIN
  6
CONTINUOUS
 62
     3
 48
16.0
100
AcDbLine
 10
467.7148226081179
 20
215.1856641449727
 30
0.0
 11
467.7149226081179
 21
274.0856641449726
 31
0.0
  0
LINE
  5
4D1
330
1A
100
AcDbEntity
  8
SEIHIN
  6
CONTINUOUS
 62
     3
 48
16.0
100
AcDbLine
 10
462.7149226081179
 20
215.8857641449727
 30
0.0
 11
462.7149226081179
 21
274.0856641449726
 31
0.0
  0
LINE
  5
4D2
330
1A
100
AcDbEntity
  8
SEIHIN
  6
CONTINUOUS
 62
     3
 48
16.0
100
AcDbLine
 10
462.7148226081178
 20
215.8857641449727
 30
0.0
 11
467.7148226081179
 21
215.1856641449727
 31
0.0
  0
LINE
  5
4D3
330
1A
100
AcDbEntity
  8
SEIHIN
  6
CONTINUOUS
 62
     3
 48
16.0
100
AcDbLine
 10
462.7148226081178
 20
253.8857641449727
 30
0.0
 11
467.7148226081179
 21
253.1856641449727
 31
0.0
  0
LINE
  5
4D4
330
1A
100
AcDbEntity
  8
SEIHIN
  6
CONTINUOUS
 62
     3
 48
16.0
100
AcDbLine
 10
482.7148226081179
 20
216.1857641449727
 30
0.0
 11
482.7148226081179
 21
273.0857641449728
 31
0.0
  0
ARC
  5
4D5
330
1A
100
AcDbEntity
  8
SEIHIN
  6
CONTINUOUS
 62
     3
 48
16.0
100
AcDbCircle
 10
481.7148226081179
 20
216.1857641449727
 30
0.0
 40
0.9999999999999715
100
AcDbArc
 50
269.9999999999983
 51
359.9999999999983
  0
ARC
  5
4D6
330
1A
100
AcDbEntity
  8
SEIHIN
  6
CONTINUOUS
 62
     3
 48
16.0
100
AcDbCircle
 10
481.7148226081179
 20
273.0857641449728
 30
0.0
 40
1.0
100
AcDbArc
 50
0.0
 51
90.0
  0
ARC
  5
4D7
330
1A
100
AcDbEntity
  8
SEIHIN
  6
CONTINUOUS
 62
     3
 48
16.0
100
AcDbCircle
 10
481.7149226081178
 20
254.1857641449727
 30
0.0
 40
1.0
100
AcDbArc
 50
270.0000000000032
 51
0.0000000000032569
  0
ARC
  5
4D8
330
1A
100
AcDbEntity
  8
SEIHIN
  6
CONTINUOUS
 62
     3
 48
16.0
100
AcDbCircle
 10
530.0704033770496
 20
272.0855064933693
 30
0.0
 40
1.99995765202671
100
AcDbArc
 50
90.00117905971537
 51
181.6372651741894
  0
ARC
  5
4D9
330
1A
100
AcDbEntity
  8
NOKITOI
  6
PHANTOM
 62
     8
 48
3.5
100
AcDbCircle
 10
535.4274501024194
 20
261.885757927498
 30
0.0
 40
3.999989731271038
100
AcDbArc
 50
96.47731142013144
 51
181.7899836067308
  0
LINE
  5
4DA
330
1A
100
AcDbEntity
  8
SEIHIN
  6
CONTINUOUS
 62
     3
 48
16.0
100
AcDbLine
 10
528.5679622209727
 20
254.6426641449727
 30
0.0
 11
528.0711622209726
 21
272.0283641449727
 31
0.0
  0
LINE
  5
4DB
330
1A
100
AcDbEntity
  8
NOKITOI
  6
PHANTOM
 62
     8
 48
3.5
100
AcDbLine
 10
529.9768122209727
 20
269.8232141449726
 30
0.0
 11
530.3670122209726
 21
257.3389141449725
 31
0.0
  0
ARC
  5
4DC
330
1A
100
AcDbEntity
  8
SEIHIN
  6
CONTINUOUS
 62
     3
 48
16.0
100
AcDbCircle
 10
530.0673552288089
 20
254.6855709399419
 30
0.0
 40
1.500006794985447
100
AcDbArc
 50
181.6391349969425
 51
270.0002670797698
  0
ARC
  5
4DD
330
1A
100
AcDbEntity
  8
SEIHIN
  6
CONTINUOUS
 62
     3
 48
16.0
100
AcDbCircle
 10
536.7468487880028
 20
252.6855755852343
 30
0.0
 40
0.4999885599188518
100
AcDbArc
 50
9.159347903265905
 51
89.99846065981698
  0
ARC
  5
4DE
330
1A
100
AcDbEntity
  8
NOKITOI
  6
PHANTOM
 62
     8
 48
3.5
100
AcDbCircle
 10
533.5139257931111
 20
259.0857009898862
 30
0.0
 40
1.999986844959662
100
AcDbArc
 50
181.7875531852363
 51
269.9996111843223
  0
ARC
  5
4DF
330
1A
100
AcDbEntity
  8
NOKITOI
  6
PHANTOM
 62
     8
 48
3.5
100
AcDbCircle
 10
531.8662481801236
 20
257.3856792908294
 30
0.0
 40
1.499965146287778
100
AcDbArc
 50
181.7866280217767
 51
269.9986264296976
  0
LINE
  5
4E0
330
1A
100
AcDbEntity
  8
NOKITOI
  6
PHANTOM
 62
     8
 48
3.5
100
AcDbLine
 10
531.5149122209724
 20
259.0233141449727
 30
0.0
 11
531.4294122209728
 21
261.7608141449726
 31
0.0
  0
LINE
  5
4E1
330
1A
100
AcDbEntity
  8
SEIHIN
  6
CONTINUOUS
 62
     3
 48
16.0
100
AcDbLine
 10
530.0673622209727
 20
253.1854641449727
 30
0.0
 11
536.7468622209726
 21
253.1855641449727
 31
0.0
  0
LINE
  5
4E2
330
1A
100
AcDbEntity
  8
NOKITOI
  6
PHANTOM
 62
     8
 48
3.5
100
AcDbLine
 10
536.9000122209729
 20
266.4141141449726
 30
0.0
 11
537.4550122209727
 21
267.0272141449728
 31
0.0
  0
LINE
  5
4E3
330
1A
100
AcDbEntity
  8
NOKITOI
  6
PHANTOM
 62
     8
 48
3.5
100
AcDbLine
 10
537.2738122209727
 20
263.5857141449727
 30
0.0
 11
537.4550122209727
 21
267.0272141449728
 31
0.0
  0
LINE
  5
4E4
330
1A
100
AcDbEntity
  8
NOKITOI
  6
PHANTOM
 62
     8
 48
3.5
100
AcDbLine
 10
537.2738122209727
 20
263.5857141449727
 30
0.0
 11
536.4959122209731
 21
263.5857141449727
 31
0.0
  0
LINE
  5
4E5
330
1A
100
AcDbEntity
  8
NOKITOI
  6
PHANTOM
 62
     8
 48
3.5
100
AcDbLine
 10
536.4959122209731
 20
263.5857141449727
 30
0.0
 11
536.9000122209729
 21
266.4141141449726
 31
0.0
  0
LINE
  5
4E6
330
1A
100
AcDbEntity
  8
NOKITOI
  6
PHANTOM
 62
     8
 48
3.5
100
AcDbLine
 10
535.8893122209731
 20
267.0857141449727
 30
0.0
 11
536.8851122209727
 21
268.1857141449728
 31
0.0
  0
LINE
  5
4E7
330
1A
100
AcDbEntity
  8
NOKITOI
  6
PHANTOM
 62
     8
 48
3.5
100
AcDbLine
 10
534.448612220973
 20
270.6857141449728
 30
0.0
 11
533.948612220973
 21
268.1857141449728
 31
0.0
  0
LINE
  5
4E8
330
1A
100
AcDbEntity
  8
NOKITOI
  6
PHANTOM
 62
     8
 48
3.5
100
AcDbLine
 10
531.9758122209726
 20
271.8857141449726
 30
0.0
 11
535.3024122209729
 21
271.8857141449726
 31
0.0
  0
LINE
  5
4E9
330
1A
100
AcDbEntity
  8
NOKITOI
  6
PHANTOM
 62
     8
 48
3.5
100
AcDbLine
 10
531.9758122209726
 20
270.6857141449728
 30
0.0
 11
534.448612220973
 21
270.6857141449728
 31
0.0
  0
LINE
  5
4EA
330
1A
100
AcDbEntity
  8
NOKITOI
  6
PHANTOM
 62
     8
 48
3.5
100
AcDbLine
 10
535.5319122209728
 20
269.9838141449725
 30
0.0
 11
535.7927122209728
 21
271.2877141449727
 31
0.0
  0
ARC
  5
4EB
330
1A
100
AcDbEntity
  8
NOKITOI
  6
PHANTOM
 62
     8
 48
3.5
100
AcDbCircle
 10
531.9758167157708
 20
269.8857187824995
 30
0.0
 40
0.7999953624857498
100
AcDbArc
 50
90.00032191805336
 51
181.7911273464199
  0
ARC
  5
4EC
330
1A
100
AcDbEntity
  8
NOKITOI
  6
PHANTOM
 62
     8
 48
3.5
100
AcDbCircle
 10
531.9758249718226
 20
269.885727300059
 30
0.0
 40
1.999986844954076
100
AcDbArc
 50
90.00036528735526
 51
181.7883072882699
  0
ARC
  5
4ED
330
1A
100
AcDbEntity
  8
NOKITOI
  6
PHANTOM
 62
     8
 48
3.5
100
AcDbCircle
 10
535.0326264393881
 20
265.3633995106716
 30
0.0
 40
0.5000073448410256
100
AcDbArc
 50
351.8729478641243
 51
96.47829282996843
  0
ARC
  5
4EE
330
1A
100
AcDbEntity
  8
NOKITOI
  6
PHANTOM
 62
     8
 48
3.5
100
AcDbCircle
 10
535.6888388215704
 20
262.8856834680906
 30
0.0
 40
0.4999693238254178
100
AcDbArc
 50
171.8555038770532
 51
269.9969516090348
  0
LINE
  5
4EF
330
1A
100
AcDbEntity
  8
NOKITOI
  6
PHANTOM
 62
     8
 48
3.5
100
AcDbLine
 10
535.1939122209726
 20
262.9565141449728
 30
0.0
 11
535.5276122209727
 21
265.2927141449728
 31
0.0
  0
LINE
  5
4F0
330
1A
100
AcDbEntity
  8
NOKITOI
  6
PHANTOM
 62
     8
 48
3.5
100
AcDbLine
 10
531.1762122209731
 20
269.8607141449725
 30
0.0
 11
531.3256122209724
 21
265.0818141449728
 31
0.0
  0
ARC
  5
4F1
330
1A
100
AcDbEntity
  8
NOKITOI
  6
PHANTOM
 62
     8
 48
3.5
100
AcDbCircle
 10
535.427532433642
 20
261.8857728733527
 30
0.0
 40
5.2000412730095
100
AcDbArc
 50
90.00132454306161
 51
142.0757990790561
  0
LINE
  5
4F2
330
1A
100
AcDbEntity
  8
NOKITOI
  6
PHANTOM
 62
     8
 48
3.5
100
AcDbLine
 10
533.948612220973
 20
268.1857141449728
 30
0.0
 11
536.8851122209727
 21
268.1857141449728
 31
0.0
  0
ARC
  5
4F3
330
1A
100
AcDbEntity
  8
NOKITOI
  6
PHANTOM
 62
     8
 48
3.5
100
AcDbCircle
 10
536.0222049664173
 20
269.885722994816
 30
0.0
 40
0.5000088498959383
100
AcDbArc
 50
168.6864043304884
 51
270.0008312961434
  0
LINE
  5
4F4
330
1A
100
AcDbEntity
  8
NOKITOI
  6
PHANTOM
 62
     8
 48
3.5
100
AcDbLine
 10
535.8893122209731
 20
267.0857141449727
 30
0.0
 11
535.4274122209728
 21
267.0857141449727
 31
0.0
  0
ARC
  5
4F5
330
1A
100
AcDbEntity
  8
NOKITOI
  6
PHANTOM
 62
     8
 48
3.5
100
AcDbCircle
 10
535.3024114379643
 20
271.3857150999743
 30
0.0
 40
0.4999990449987349
100
AcDbArc
 50
348.6967198015448
 51
89.99991027369452
  0
DIMENSION
  5
4F6
330
1A
100
AcDbEntity
  8
SUNPOU
  6
CONTINUOUS
100
AcDbDimension
  2
*D4
 10
677.7495845060111
 20
215.1856641449727
 30
0.0
 11
672.7495845060111
 21
244.6357141449728
 31
0.0
 70
    32
  3
STANDARD
100
AcDbAlignedDimension
 13
649.2524622209728
 23
274.0857641449728
 33
0.0
 14
626.9113622209729
 24
215.1856641449727
 34
0.0
 50
90.0
100
AcDbRotatedDimension
1001
ACAD
1000
DSTYLE
1002
{
1070
   140
1040
6.0
1070
    74
1070
     0
1070
   172
1070
     1
1070
    73
1070
     0
1070
   272
1070
     2
1070
    77
1070
     3
1070
   173
1070
     1
1070
   147
1040
2.0
1070
    42
1040
6.0
1070
    44
1040
3.0
1070
    43
1040
14.0
1070
   271
1070
     0
1070
   178
1070
     4
1070
   177
1070
     4
1070
   176
1070
     4
1070
   141
1040
150.0
1070
     7
1000
_OPEN
1070
     6
1000
_OPEN
1070
    41
1040
7.0
1002
}
  0
TEXT
  5
4F7
330
1A
100
AcDbEntity
  8
ZUWAKU
 62
     4
 48
5.0
100
AcDbText
 10
587.2672605012062
 20
164.7997977866305
 30
0.0
 40
8.0
  1
右
100
AcDbText
  0
LINE
  5
4F8
330
1A
100
AcDbEntity
  8
NOKITOI
  6
PHANTOM
 62
     8
 48
3.5
100
AcDbLine
 10
622.5553122209728
 20
216.8856141449726
 30
0.0
 11
602.3974122209731
 21
216.8856141449726
 31
0.0
  0
LINE
  5
4F9
330
1A
100
AcDbEntity
  8
NOKITOI
  6
PHANTOM
 62
     8
 48
3.5
100
AcDbLine
 10
622.3055122209728
 20
218.0856141449727
 30
0.0
 11
602.3974122209731
 21
218.0856141449727
 31
0.0
  0
LINE
  5
4FA
330
1A
100
AcDbEntity
  8
SEIHIN
  6
CONTINUOUS
 62
     3
 48
16.0
100
AcDbLine
 10
544.1185622209728
 20
256.0854641449727
 30
0.0
 11
635.1546622209728
 21
256.0856641449727
 31
0.0
  0
LINE
  5
4FB
330
1A
100
AcDbEntity
  8
NOKITOI
  6
PHANTOM
 62
     8
 48
3.5
100
AcDbLine
 10
626.5553122209728
 20
216.8856141449726
 30
0.0
 11
581.7259122209727
 21
216.8857141449726
 31
0.0
  0
LINE
  5
4FC
330
1A
100
AcDbEntity
  8
NOKITOI
  6
PHANTOM
 62
     8
 48
3.5
100
AcDbLine
 10
581.7259122209727
 20
218.0857141449727
 30
0.0
 11
626.3055122209728
 21
218.0856141449727
 31
0.0
  0
LINE
  5
4FD
330
1A
100
AcDbEntity
  8
SEIHIN
  6
CONTINUOUS
 62
     3
 48
16.0
100
AcDbLine
 10
625.1265622209728
 20
220.1856641449728
 30
0.0
 11
581.3698622209726
 21
220.1855641449727
 31
0.0
  0
LINE
  5
4FE
330
1A
100
AcDbEntity
  8
SEIHIN
  6
CONTINUOUS
 62
     3
 48
16.0
100
AcDbLine
 10
626.9113622209729
 20
215.1856641449727
 30
0.0
 11
581.3698622209726
 21
215.1856641449727
 31
0.0
  0
LINE
  5
4FF
330
1A
100
AcDbEntity
  8
SEIHIN
  6
CONTINUOUS
 62
     3
 48
16.0
100
AcDbLine
 10
649.2524622209728
 20
274.0857641449728
 30
0.0
 11
589.6613622209726
 21
274.0855641449728
 31
0.0
  0
ARC
  5
500
330
1A
100
AcDbEntity
  8
NOKITOI
  6
PHANTOM
 62
     8
 48
3.5
100
AcDbCircle
 10
539.5548247906811
 20
256.5857025202429
 30
0.0
 40
0.5000116248877111
100
AcDbArc
 50
4.474846808342897
 51
90.00144034898337
  0
ARC
  5
501
330
1A
100
AcDbEntity
  8
NOKITOI
  6
PHANTOM
 62
     8
 48
3.5
100
AcDbCircle
 10
538.0109037968102
 20
254.8857216600291
 30
0.0
 40
0.9999924849789756
100
AcDbArc
 50
6.528264606674428
 51
89.99951732740891
  0
ARC
  5
502
330
1A
100
AcDbEntity
  8
SEIHIN
  6
CONTINUOUS
 62
     3
 48
16.0
100
AcDbCircle
 10
544.1185573258976
 20
254.0854584287391
 30
0.0
 40
2.000005716239579
100
AcDbArc
 50
89.99985976682877
 51
188.8499148936526
  0
ARC
  5
503
330
1A
100
AcDbEntity
  8
NOKITOI
  6
PHANTOM
 62
     8
 48
3.5
100
AcDbCircle
 10
538.2537060198148
 20
268.8857206800579
 30
0.0
 40
0.4999934649531607
100
AcDbArc
 50
356.9955363203384
 51
89.99928939038005
  0
ARC
  5
504
330
1A
100
AcDbEntity
  8
NOKITOI
  6
PHANTOM
 62
     8
 48
3.5
100
AcDbCircle
 10
537.9379053339778
 20
262.8857076098871
 30
0.0
 40
0.499993464961963
100
AcDbArc
 50
270.0007892017873
 51
356.9970361317427
  0
LINE
  5
505
330
1A
100
AcDbEntity
  8
NOKITOI
  6
PHANTOM
 62
     8
 48
3.5
100
AcDbLine
 10
538.4373122209729
 20
262.8595141449726
 30
0.0
 11
538.7531122209727
 21
268.8594141449726
 31
0.0
  0
LINE
  5
506
330
1A
100
AcDbEntity
  8
NOKITOI
  6
PHANTOM
 62
     8
 48
3.5
100
AcDbLine
 10
640.8223122209731
 20
254.9852141449727
 30
0.0
 11
637.9535122209729
 21
226.2978141449726
 31
0.0
  0
LINE
  5
507
330
1A
100
AcDbEntity
  8
NOKITOI
  6
PHANTOM
 62
     8
 48
3.5
100
AcDbLine
 10
639.7813122209729
 20
256.6355141449727
 30
0.0
 11
636.7883122209725
 21
226.7057141449726
 31
0.0
  0
LINE
  5
508
330
1A
100
AcDbEntity
  8
SEIHIN
  6
CONTINUOUS
 62
     3
 48
16.0
100
AcDbLine
 10
642.0545622209727
 20
252.7355641449727
 30
0.0
 11
639.3241622209725
 21
225.4280641449727
 31
0.0
  0
LINE
  5
509
330
1A
100
AcDbEntity
  8
SEIHIN
  6
CONTINUOUS
 62
     3
 48
16.0
100
AcDbLine
 10
634.5549622209728
 20
227.9863641449727
 30
0.0
 11
637.1447622209728
 21
253.8867641449728
 31
0.0
  0
ARC
  5
50A
330
1A
100
AcDbEntity
  8
NOKITOI
  6
PHANTOM
 62
     8
 48
3.5
100
AcDbCircle
 10
636.958489648104
 20
226.3972720733
 30
0.0
 40
0.9999908507640039
100
AcDbArc
 50
309.2887092230696
 51
354.2862329477531
  0
LINE
  5
50B
330
1A
100
AcDbEntity
  8
SEIHIN
  6
CONTINUOUS
 62
     3
 48
16.0
100
AcDbLine
 10
638.9623622209728
 20
224.7536641449727
 30
0.0
 11
627.5446622209726
 21
215.4117641449727
 31
0.0
  0
ARC
  5
50C
330
1A
100
AcDbEntity
  8
SEIHIN
  6
CONTINUOUS
 62
     3
 48
16.0
100
AcDbCircle
 10
633.559933504295
 20
228.0858106159797
 30
0.0
 40
0.9999858737048647
100
AcDbArc
 50
309.2893973661633
 51
354.2926223903364
  0
ARC
  5
50D
330
1A
100
AcDbEntity
  8
SEIHIN
  6
CONTINUOUS
 62
     3
 48
16.0
100
AcDbCircle
 10
626.9114636879103
 20
216.1858003661604
 30
0.0
 40
1.000036226335296
100
AcDbArc
 50
269.9941865833159
 51
309.2848027533059
  0
LINE
  5
50E
330
1A
100
AcDbEntity
  8
SEIHIN
  6
CONTINUOUS
 62
     3
 48
16.0
100
AcDbLine
 10
625.7597622209726
 20
220.4116641449727
 30
0.0
 11
634.1931622209727
 21
227.3118641449727
 31
0.0
  0
LINE
  5
50F
330
1A
100
AcDbEntity
  8
NOKITOI
  6
PHANTOM
 62
     8
 48
3.5
100
AcDbLine
 10
637.5917122209727
 20
225.6233141449728
 30
0.0
 11
627.1886122209727
 21
217.1116141449727
 31
0.0
  0
LINE
  5
510
330
1A
100
AcDbEntity
  8
NOKITOI
  6
PHANTOM
 62
     8
 48
3.5
100
AcDbLine
 10
636.6074122209731
 20
226.3684141449727
 30
0.0
 11
626.6221122209729
 21
218.1986141449725
 31
0.0
  0
ARC
  5
511
330
1A
100
AcDbEntity
  8
NOKITOI
  6
PHANTOM
 62
     8
 48
3.5
100
AcDbCircle
 10
626.3055186087215
 20
218.5856164249622
 30
0.0
 40
0.5000022800304047
100
AcDbArc
 50
269.9992680212786
 51
309.2854498596058
  0
ARC
  5
512
330
1A
100
AcDbEntity
  8
NOKITOI
  6
PHANTOM
 62
     8
 48
3.5
100
AcDbCircle
 10
626.5553052883953
 20
217.8856116699666
 30
0.0
 40
0.9999975250179316
100
AcDbArc
 50
270.0003972084043
 51
309.2946416752298
  0
ARC
  5
513
330
1A
100
AcDbEntity
  8
SEIHIN
  6
CONTINUOUS
 62
     3
 48
16.0
100
AcDbCircle
 10
625.1263665857111
 20
221.1856300063073
 30
0.0
 40
0.999965865907731
100
AcDbArc
 50
270.0054796839147
 51
309.2952897056416
  0
ARC
  5
514
330
1A
100
AcDbEntity
  8
NOKITOI
  6
PHANTOM
 62
     8
 48
3.5
100
AcDbCircle
 10
636.2907947950946
 20
226.7553816585847
 30
0.0
 40
0.4999904508696396
100
AcDbArc
 50
309.2900846377958
 51
354.2990110749245
  0
ARC
  5
515
330
1A
100
AcDbEntity
  8
SEIHIN
  6
CONTINUOUS
 62
     3
 48
16.0
100
AcDbCircle
 10
638.3291036505029
 20
225.5276413851801
 30
0.0
 40
1.000028592307466
100
AcDbArc
 50
309.2896048481275
 51
354.2853373226958
  0
ARC
  5
516
330
1A
100
AcDbEntity
  8
SEIHIN
  6
CONTINUOUS
 62
     3
 48
16.0
100
AcDbCircle
 10
635.1546734213118
 20
254.0856517687993
 30
0.0
 40
2.000012376204799
100
AcDbArc
 50
354.29001278022
 51
90.00032086409063
  0
ARC
  5
517
330
1A
100
AcDbEntity
  8
SEIHIN
  6
CONTINUOUS
 62
     3
 48
16.0
100
AcDbCircle
 10
649.2524696373471
 20
272.0857565137519
 30
0.0
 40
2.00000763123462
100
AcDbArc
 50
358.3642081407486
 51
90.00021246265946
  0
ARC
  5
518
330
1A
100
AcDbEntity
  8
NOKITOI
  6
PHANTOM
 62
     8
 48
3.5
100
AcDbCircle
 10
644.3972812940367
 20
261.8857498896364
 30
0.0
 40
3.99998565374706
100
AcDbArc
 50
358.2086966591014
 51
83.52422380468325
  0
LINE
  5
519
330
1A
100
AcDbEntity
  8
SEIHIN
  6
CONTINUOUS
 62
     3
 48
16.0
100
AcDbLine
 10
650.7548622209728
 20
254.6428641449728
 30
0.0
 11
651.2516622209727
 21
272.0286641449726
 31
0.0
  0
LINE
  5
51A
330
1A
100
AcDbEntity
  8
NOKITOI
  6
PHANTOM
 62
     8
 48
3.5
100
AcDbLine
 10
649.8478122209728
 20
269.8232141449726
 30
0.0
 11
649.4577122209728
 21
257.3388141449726
 31
0.0
  0
LINE
  5
51B
330
1A
100
AcDbEntity
  8
SEIHIN
  6
CONTINUOUS
 62
     3
 48
16.0
100
AcDbLine
 10
649.2554622209727
 20
253.1857641449727
 30
0.0
 11
642.5520622209726
 21
253.1857641449727
 31
0.0
  0
LINE
  5
51C
330
1A
100
AcDbEntity
  8
NOKITOI
  6
PHANTOM
 62
     8
 48
3.5
100
AcDbLine
 10
640.2788122209724
 20
257.0857141449727
 30
0.0
 11
646.3107122209728
 21
257.0857141449727
 31
0.0
  0
LINE
  5
51D
330
1A
100
AcDbEntity
  8
NOKITOI
  6
PHANTOM
 62
     8
 48
3.5
100
AcDbLine
 10
647.9584122209728
 20
255.8857141449726
 30
0.0
 11
641.8173122209729
 21
255.8857141449726
 31
0.0
  0
ARC
  5
51E
330
1A
100
AcDbEntity
  8
NOKITOI
  6
PHANTOM
 62
     8
 48
3.5
100
AcDbCircle
 10
640.2788252919775
 20
256.5857259752525
 30
0.0
 40
0.499988169890889
100
AcDbArc
 50
90.00149786226627
 51
174.2966061377156
  0
ARC
  5
51F
330
1A
100
AcDbEntity
  8
NOKITOI
  6
PHANTOM
 62
     8
 48
3.5
100
AcDbCircle
 10
641.8173328708137
 20
254.8857328328218
 30
0.0
 40
0.9999813123640345
100
AcDbArc
 50
90.00118317084957
 51
174.290590033351
  0
ARC
  5
520
330
1A
100
AcDbEntity
  8
SEIHIN
  6
CONTINUOUS
 62
     3
 48
16.0
100
AcDbCircle
 10
642.5520752919774
 20
252.6857759752526
 30
0.0
 40
0.4999881698909184
100
AcDbArc
 50
90.00149786226952
 51
174.296606137719
  0
ARC
  5
521
330
1A
100
AcDbEntity
  8
NOKITOI
  6
PHANTOM
 62
     8
 48
3.5
100
AcDbCircle
 10
647.9584294341509
 20
257.3857308281204
 30
0.0
 40
1.500016683246579
100
AcDbArc
 50
269.9993425123348
 51
358.207642324411
  0
ARC
  5
522
330
1A
100
AcDbEntity
  8
NOKITOI
  6
PHANTOM
 62
     8
 48
3.5
100
AcDbCircle
 10
646.3107502087971
 20
259.0856509655449
 30
0.0
 40
2.000036820932882
100
AcDbArc
 50
269.9989117490339
 51
358.2110591274196
  0
ARC
  5
523
330
1A
100
AcDbEntity
  8
SEIHIN
  6
CONTINUOUS
 62
     3
 48
16.0
100
AcDbCircle
 10
649.2554692131366
 20
254.6857709399419
 30
0.0
 40
1.500006794985533
100
AcDbArc
 50
269.9997329202293
 51
358.3608650030563
  0
LINE
  5
524
330
1A
100
AcDbEntity
  8
NOKITOI
  6
PHANTOM
 62
     8
 48
3.5
100
AcDbLine
 10
648.3098122209728
 20
259.0231141449727
 30
0.0
 11
648.3953122209725
 21
261.7607141449726
 31
0.0
  0
LINE
  5
525
330
1A
100
AcDbEntity
  8
NOKITOI
  6
PHANTOM
 62
     8
 48
3.5
100
AcDbLine
 10
647.848812220973
 20
271.8856141449726
 30
0.0
 11
644.5222122209727
 21
271.8857141449726
 31
0.0
  0
LINE
  5
526
330
1A
100
AcDbEntity
  8
NOKITOI
  6
PHANTOM
 62
     8
 48
3.5
100
AcDbLine
 10
647.848812220973
 20
270.6856141449726
 30
0.0
 11
645.3761122209727
 21
270.6857141449728
 31
0.0
  0
ARC
  5
527
330
1A
100
AcDbEntity
  8
NOKITOI
  6
PHANTOM
 62
     8
 48
3.5
100
AcDbCircle
 10
644.3972943546216
 20
261.8857228733526
 30
0.0
 40
5.199991271650611
100
AcDbArc
 50
37.92532860473096
 51
89.99980314072548
  0
LINE
  5
528
330
1A
100
AcDbEntity
  8
NOKITOI
  6
PHANTOM
 62
     8
 48
3.5
100
AcDbLine
 10
645.3761122209727
 20
270.6857141449728
 30
0.0
 11
645.8761122209728
 21
268.1857141449728
 31
0.0
  0
LINE
  5
529
330
1A
100
AcDbEntity
  8
NOKITOI
  6
PHANTOM
 62
     8
 48
3.5
100
AcDbLine
 10
645.8761122209728
 20
268.1857141449728
 30
0.0
 11
642.9395122209728
 21
268.1857141449728
 31
0.0
  0
LINE
  5
52A
330
1A
100
AcDbEntity
  8
NOKITOI
  6
PHANTOM
 62
     8
 48
3.5
100
AcDbLine
 10
644.2927122209728
 20
269.9837141449728
 30
0.0
 11
644.0319122209728
 21
271.2877141449727
 31
0.0
  0
ARC
  5
52B
330
1A
100
AcDbEntity
  8
NOKITOI
  6
PHANTOM
 62
     8
 48
3.5
100
AcDbCircle
 10
643.8024114379643
 20
269.8857131899709
 30
0.0
 40
0.4999990449987399
100
AcDbArc
 50
270.0000897263054
 51
11.30328019845509
  0
ARC
  5
52C
330
1A
100
AcDbEntity
  8
NOKITOI
  6
PHANTOM
 62
     8
 48
3.5
100
AcDbCircle
 10
644.5222049664173
 20
271.3857052951292
 30
0.0
 40
0.500008849895925
100
AcDbArc
 50
89.99916870385492
 51
191.3135956695117
  0
LINE
  5
52D
330
1A
100
AcDbEntity
  8
NOKITOI
  6
PHANTOM
 62
     8
 48
3.5
100
AcDbLine
 10
642.5508122209728
 20
263.5857141449727
 30
0.0
 11
643.3287122209724
 21
263.5857141449727
 31
0.0
  0
ARC
  5
52E
330
1A
100
AcDbEntity
  8
NOKITOI
  6
PHANTOM
 62
     8
 48
3.5
100
AcDbCircle
 10
644.7920415934724
 20
265.3633443774675
 30
0.0
 40
0.4999578477751074
100
AcDbArc
 50
83.52609071220776
 51
188.1330561712924
  0
ARC
  5
52F
330
1A
100
AcDbEntity
  8
NOKITOI
  6
PHANTOM
 62
     8
 48
3.5
100
AcDbCircle
 10
644.135822407409
 20
262.8857258896967
 30
0.0
 40
0.5000117448278309
100
AcDbArc
 50
269.9988327478018
 51
8.127314608715803
  0
LINE
  5
530
330
1A
100
AcDbEntity
  8
NOKITOI
  6
PHANTOM
 62
     8
 48
3.5
100
AcDbLine
 10
643.3287122209724
 20
263.5857141449727
 30
0.0
 11
642.9247122209728
 21
266.4141141449726
 31
0.0
  0
LINE
  5
531
330
1A
100
AcDbEntity
  8
NOKITOI
  6
PHANTOM
 62
     8
 48
3.5
100
AcDbLine
 10
644.6308122209727
 20
262.9564141449726
 30
0.0
 11
644.2970122209729
 21
265.2926141449728
 31
0.0
  0
LINE
  5
532
330
1A
100
AcDbEntity
  8
NOKITOI
  6
PHANTOM
 62
     8
 48
3.5
100
AcDbLine
 10
643.9353122209729
 20
267.0857141449727
 30
0.0
 11
644.3973122209729
 21
267.0857141449727
 31
0.0
  0
LINE
  5
533
330
1A
100
AcDbEntity
  8
NOKITOI
  6
PHANTOM
 62
     8
 48
3.5
100
AcDbLine
 10
643.9353122209729
 20
267.0857141449727
 30
0.0
 11
642.9395122209728
 21
268.1857141449728
 31
0.0
  0
ARC
  5
534
330
1A
100
AcDbEntity
  8
NOKITOI
  6
PHANTOM
 62
     8
 48
3.5
100
AcDbCircle
 10
641.5709159304681
 20
268.8857180550034
 30
0.0
 40
0.4999960899831856
100
AcDbArc
 50
90.00042508015132
 51
183.0156217414654
  0
ARC
  5
535
330
1A
100
AcDbEntity
  8
NOKITOI
  6
PHANTOM
 62
     8
 48
3.5
100
AcDbCircle
 10
641.8867163423795
 20
262.8857102349421
 30
0.0
 40
0.4999960899864752
100
AcDbArc
 50
183.0147243791737
 51
269.9995277178594
  0
LINE
  5
536
330
1A
100
AcDbEntity
  8
NOKITOI
  6
PHANTOM
 62
     8
 48
3.5
100
AcDbLine
 10
641.3874122209729
 20
262.8594141449726
 30
0.0
 11
641.0716122209726
 21
268.8594141449726
 31
0.0
  0
LINE
  5
537
330
1A
100
AcDbEntity
  8
NOKITOI
  6
PHANTOM
 62
     8
 48
3.5
100
AcDbLine
 10
642.9247122209728
 20
266.4141141449726
 30
0.0
 11
642.3697122209725
 21
267.0271141449726
 31
0.0
  0
LINE
  5
538
330
1A
100
AcDbEntity
  8
NOKITOI
  6
PHANTOM
 62
     8
 48
3.5
100
AcDbLine
 10
641.5709122209729
 20
269.3857141449726
 30
0.0
 11
643.8024122209728
 21
269.3857141449726
 31
0.0
  0
LINE
  5
539
330
1A
100
AcDbEntity
  8
NOKITOI
  6
PHANTOM
 62
     8
 48
3.5
100
AcDbLine
 10
641.8867122209729
 20
262.3857141449726
 30
0.0
 11
644.1358122209724
 21
262.3857141449726
 31
0.0
  0
LINE
  5
53A
330
1A
100
AcDbEntity
  8
NOKITOI
  6
PHANTOM
 62
     8
 48
3.5
100
AcDbLine
 10
642.5508122209728
 20
263.5857141449727
 30
0.0
 11
642.3697122209725
 21
267.0271141449726
 31
0.0
  0
ARC
  5
53B
330
1A
100
AcDbEntity
  8
NOKITOI
  6
PHANTOM
 62
     8
 48
3.5
100
AcDbCircle
 10
647.8488561873257
 20
269.8856687824997
 30
0.0
 40
0.7999453636812564
100
AcDbArc
 50
358.212343644788
 51
90.00314907315372
  0
ARC
  5
53C
330
1A
100
AcDbEntity
  8
NOKITOI
  6
PHANTOM
 62
     8
 48
3.5
100
AcDbCircle
 10
647.8488009839786
 20
269.8857257387897
 30
0.0
 40
1.999988406214315
100
AcDbArc
 50
358.2088726535929
 51
89.99967808195611
  0
LINE
  5
53D
330
1A
100
AcDbEntity
  8
NOKITOI
  6
PHANTOM
 62
     8
 48
3.5
100
AcDbLine
 10
648.6484122209724
 20
269.8607141449725
 30
0.0
 11
648.4991122209728
 21
265.0817141449727
 31
0.0
  0
LINE
  5
53E
330
1A
100
AcDbEntity
  8
SEIHIN
  6
CONTINUOUS
 62
     3
 48
16.0
100
AcDbLine
 10
733.0989622209727
 20
215.8858641449727
 30
0.0
 11
733.0988622209726
 21
274.0858641449727
 31
0.0
  0
LINE
  5
53F
330
1A
100
AcDbEntity
  8
SEIHIN
  6
CONTINUOUS
 62
     3
 48
16.0
100
AcDbLine
 10
728.0989622209727
 20
215.1858641449727
 30
0.0
 11
728.0988622209727
 21
274.0858641449727
 31
0.0
  0
LINE
  5
540
330
1A
100
AcDbEntity
  8
SEIHIN
  6
CONTINUOUS
 62
     3
 48
16.0
100
AcDbLine
 10
713.0989622209726
 20
216.1859641449727
 30
0.0
 11
713.0988622209727
 21
273.0858641449726
 31
0.0
  0
LINE
  5
541
330
1A
100
AcDbEntity
  8
SEIHIN
  6
CONTINUOUS
 62
     3
 48
16.0
100
AcDbLine
 10
728.0989622209727
 20
225.0161641449727
 30
0.0
 11
714.0988622209727
 21
225.0161641449727
 31
0.0
  0
LINE
  5
542
330
1A
100
AcDbEntity
  8
SEIHIN
  6
CONTINUOUS
 62
     3
 48
16.0
100
AcDbLine
 10
728.0989622209727
 20
215.1858641449727
 30
0.0
 11
714.0989622209726
 21
215.1858641449727
 31
0.0
  0
ARC
  5
543
330
1A
100
AcDbEntity
  8
SEIHIN
  6
CONTINUOUS
 62
     3
 48
16.0
100
AcDbCircle
 10
714.0989622209726
 20
216.1859641449727
 30
0.0
 40
1.000000000000056
100
AcDbArc
 50
179.9999999999975
 51
269.9999999999967
  0
ARC
  5
544
330
1A
100
AcDbEntity
  8
SEIHIN
  6
CONTINUOUS
 62
     3
 48
16.0
100
AcDbCircle
 10
714.0988622209727
 20
226.0161641449727
 30
0.0
 40
1.000000000000056
100
AcDbArc
 50
180.0000000000032
 51
270.0000000000032
  0
LINE
  5
545
330
1A
100
AcDbEntity
  8
SEIHIN
  6
CONTINUOUS
 62
     3
 48
16.0
100
AcDbLine
 10
733.0989622209727
 20
215.8858641449727
 30
0.0
 11
728.0989622209727
 21
215.1858641449727
 31
0.0
  0
LINE
  5
546
330
1A
100
AcDbEntity
  8
SEIHIN
  6
CONTINUOUS
 62
     3
 48
16.0
100
AcDbLine
 10
733.0989622209727
 20
225.7162641449726
 30
0.0
 11
728.0989622209727
 21
225.0161641449727
 31
0.0
  0
ARC
  5
547
330
1A
100
AcDbEntity
  8
SEIHIN
  6
CONTINUOUS
 62
     3
 48
16.0
100
AcDbCircle
 10
714.0988622209727
 20
273.0858641449726
 30
0.0
 40
1.000000000000113
100
AcDbArc
 50
90.0
 51
180.0
  0
LINE
  5
548
330
1A
100
AcDbEntity
  8
SEIHIN
  6
CONTINUOUS
 62
     3
 48
16.0
100
AcDbLine
 10
728.0988622209727
 20
253.1858641449728
 30
0.0
 11
714.0988622209727
 21
253.1858641449728
 31
0.0
  0
ARC
  5
549
330
1A
100
AcDbEntity
  8
SEIHIN
  6
CONTINUOUS
 62
     3
 48
16.0
100
AcDbCircle
 10
714.0988622209727
 20
254.1858641449728
 30
0.0
 40
1.000000000000056
100
AcDbArc
 50
180.0000000000032
 51
270.0000000000032
  0
LINE
  5
54A
330
1A
100
AcDbEntity
  8
SEIHIN
  6
CONTINUOUS
 62
     3
 48
16.0
100
AcDbLine
 10
733.0988622209726
 20
253.8859641449727
 30
0.0
 11
728.0988622209727
 21
253.1858641449728
 31
0.0
  0
LINE
  5
54B
330
1A
100
AcDbEntity
  8
SEIHIN
  6
CONTINUOUS
 62
     3
 48
16.0
100
AcDbLine
 10
733.0988622209726
 20
274.0858641449727
 30
0.0
 11
714.0988622209727
 21
274.0858641449727
 31
0.0
  0
LINE
  5
54C
330
1A
100
AcDbEntity
  8
SEIHIN
  6
CONTINUOUS
 62
     3
 48
16.0
100
AcDbLine
 10
528.7123622209728
 20
361.5980641449727
 30
0.0
 11
650.6104622209727
 21
361.5980641449727
 31
0.0
  0
LINE
  5
54D
330
1A
100
AcDbEntity
  8
SEIHIN
  6
CONTINUOUS
 62
     3
 48
16.0
100
AcDbLine
 10
650.3103622209725
 20
341.5980641449728
 30
0.0
 11
529.0125622209725
 21
341.5980641449728
 31
0.0
  0
LINE
  5
54E
330
1A
100
AcDbEntity
  8
SEIHIN
  6
CONTINUOUS
 62
     3
 48
16.0
100
AcDbLine
 10
536.4614622209728
 20
343.2980641449727
 30
0.0
 11
642.8613622209727
 21
343.2980641449727
 31
0.0
  0
LINE
  5
54F
330
1A
100
AcDbEntity
  8
SEIHIN
  6
CONTINUOUS
 62
     3
 48
16.0
100
AcDbLine
 10
528.0125622209725
 20
356.5979641449725
 30
0.0
 11
528.0125622209725
 21
342.5980641449728
 31
0.0
  0
ARC
  5
550
330
1A
100
AcDbEntity
  8
SEIHIN
  6
CONTINUOUS
 62
     3
 48
16.0
100
AcDbCircle
 10
529.0125622209725
 20
342.5980641449728
 30
0.0
 40
1.0
100
AcDbArc
 50
180.0
 51
270.0
  0
LINE
  5
551
330
1A
100
AcDbEntity
  8
SEIHIN
  6
CONTINUOUS
 62
     3
 48
16.0
100
AcDbLine
 10
528.0123622209726
 20
356.5979641449725
 30
0.0
 11
528.7123622209728
 21
361.5979641449726
 31
0.0
  0
DIMENSION
  5
552
330
1A
100
AcDbEntity
  8
SUNPOU
  6
CONTINUOUS
100
AcDbDimension
  2
*D2
 10
700.1983746169749
 20
341.5980641449728
 30
0.0
 11
695.1983746169747
 21
351.5980641449729
 31
0.0
 70
    32
  3
STANDARD
100
AcDbAlignedDimension
 13
650.6104622209727
 23
361.5980641449727
 33
0.0
 14
650.3103622209725
 24
341.5980641449728
 34
0.0
 50
90.0
100
AcDbRotatedDimension
1001
ACAD
1000
DSTYLE
1002
{
1070
   140
1040
6.0
1070
    74
1070
     0
1070
   172
1070
     1
1070
    73
1070
     0
1070
   272
1070
     2
1070
    77
1070
     3
1070
   173
1070
     1
1070
   147
1040
2.0
1070
    42
1040
6.0
1070
    44
1040
3.0
1070
    43
1040
14.0
1070
   271
1070
     0
1070
   178
1070
     4
1070
   177
1070
     4
1070
   176
1070
     4
1070
   141
1040
150.0
1070
     7
1000
_OPEN
1070
     6
1000
_OPEN
1070
    41
1040
7.0
1002
}
  0
DIMENSION
  5
553
330
1A
100
AcDbEntity
  8
SUNPOU
  6
CONTINUOUS
100
AcDbDimension
  2
*D1
 10
677.7495845060111
 20
343.2980641449727
 30
0.0
 11
672.7495845060111
 21
326.8980641449728
 31
0.0
 70
    32
  1
※<>
  3
STANDARD
100
AcDbAlignedDimension
 13
650.6104622209727
 23
361.5980641449727
 33
0.0
 14
642.8613622209727
 24
343.2980641449727
 34
0.0
 50
90.0
100
AcDbRotatedDimension
1001
ACAD
1000
DSTYLE
1002
{
1070
   140
1040
6.0
1070
    74
1070
     0
1070
   172
1070
     1
1070
    73
1070
     0
1070
   272
1070
     2
1070
    77
1070
     3
1070
   173
1070
     1
1070
   147
1040
2.0
1070
    42
1040
6.0
1070
    44
1040
3.0
1070
    43
1040
14.0
1070
   271
1070
     0
1070
   178
1070
     4
1070
   177
1070
     4
1070
   176
1070
     4
1070
   141
1040
150.0
1070
     7
1000
_OPEN
1070
     6
1000
_OPEN
1070
    41
1040
7.0
1002
}
  0
LINE
  5
554
330
1A
100
AcDbEntity
  8
SEIHIN
  6
CONTINUOUS
 62
     3
 48
16.0
100
AcDbLine
 10
638.8362622209728
 20
351.2980641449727
 30
0.0
 11
540.4626622209727
 21
351.2980641449727
 31
0.0
  0
LINE
  5
555
330
1A
100
AcDbEntity
  8
SEIHIN
  6
CONTINUOUS
 62
     3
 48
16.0
100
AcDbLine
 10
540.4626622209727
 20
351.2980641449727
 30
0.0
 11
540.4626622209727
 21
343.2980641449727
 31
0.0
  0
LINE
  5
556
330
1A
100
AcDbEntity
  8
SEIHIN
  6
CONTINUOUS
 62
     3
 48
16.0
100
AcDbLine
 10
538.0614622209727
 20
361.5980641449727
 30
0.0
 11
538.0614622209727
 21
343.2980641449727
 31
0.0
  0
LINE
  5
557
330
1A
100
AcDbEntity
  8
SEIHIN
  6
CONTINUOUS
 62
     3
 48
16.0
100
AcDbLine
 10
638.8362622209728
 20
351.2980641449727
 30
0.0
 11
638.8362622209728
 21
343.2980641449727
 31
0.0
  0
LINE
  5
558
330
1A
100
AcDbEntity
  8
SEIHIN
  6
CONTINUOUS
 62
     3
 48
16.0
100
AcDbLine
 10
641.2613622209728
 20
361.5981641449726
 30
0.0
 11
641.2613622209728
 21
343.2981641449728
 31
0.0
  0
LINE
  5
559
330
1A
100
AcDbEntity
  8
SEIHIN
  6
CONTINUOUS
 62
     3
 48
16.0
100
AcDbLine
 10
651.3103622209728
 20
356.5980641449728
 30
0.0
 11
651.3103622209728
 21
342.5980641449728
 31
0.0
  0
ARC
  5
55A
330
1A
100
AcDbEntity
  8
SEIHIN
  6
CONTINUOUS
 62
     3
 48
16.0
100
AcDbCircle
 10
650.3103622209728
 20
342.5980641449728
 30
0.0
 40
1.000000000000085
100
AcDbArc
 50
269.9999999999951
 51
359.9999999999951
  0
LINE
  5
55B
330
1A
100
AcDbEntity
  8
SEIHIN
  6
CONTINUOUS
 62
     3
 48
16.0
100
AcDbLine
 10
637.6611622209727
 20
361.5981641449726
 30
0.0
 11
637.6612622209727
 21
351.2980641449727
 31
0.0
  0
LINE
  5
55C
330
1A
100
AcDbEntity
  8
SEIHIN
  6
CONTINUOUS
 62
     3
 48
16.0
100
AcDbLine
 10
626.6611622209727
 20
361.5980641449727
 30
0.0
 11
626.6612622209727
 21
351.2980641449727
 31
0.0
  0
LINE
  5
55D
330
1A
100
AcDbEntity
  8
SEIHIN
  6
CONTINUOUS
 62
     3
 48
16.0
100
AcDbLine
 10
651.3103622209728
 20
356.5980641449728
 30
0.0
 11
650.6104622209727
 21
361.5980641449727
 31
0.0
  0
DIMENSION
  5
55E
330
1A
100
AcDbEntity
  8
SUNPOU
  6
CONTINUOUS
100
AcDbDimension
  2
*D8
 10
164.8492939503489
 20
294.9605077142696
 30
0.0
 11
226.439543950349
 21
299.9605077142696
 31
0.0
 70
    32
  3
STANDARD
100
AcDbAlignedDimension
 13
288.0297939503491
 23
272.0283641449727
 33
0.0
 14
164.8492939503489
 24
272.0286641449726
 34
0.0
100
AcDbRotatedDimension
1001
ACAD
1000
DSTYLE
1002
{
1070
   140
1040
6.0
1070
    74
1070
     0
1070
   172
1070
     1
1070
    73
1070
     0
1070
   272
1070
     2
1070
    77
1070
     3
1070
   173
1070
     1
1070
   147
1040
2.0
1070
    42
1040
6.0
1070
    44
1040
3.0
1070
    43
1040
14.0
1070
   271
1070
     0
1070
   178
1070
     4
1070
   177
1070
     4
1070
   176
1070
     4
1070
   141
1040
150.0
1070
     7
1000
_OPEN
1070
     6
1000
_OPEN
1070
    41
1040
7.0
1002
}
  0
DIMENSION
  5
560
330
1A
100
AcDbEntity
  8
SUNPOU
  6
CONTINUOUS
100
AcDbDimension
  2
*D7
 10
144.8150492448285
 20
215.1856641449727
 30
0.0
 11
139.8150492448284
 21
244.6357141449727
 31
0.0
 70
    32
  3
STANDARD
100
AcDbAlignedDimension
 13
166.8484939503489
 23
274.0857641449728
 33
0.0
 14
189.1895939503488
 24
215.1856641449727
 34
0.0
 50
90.0
100
AcDbRotatedDimension
1001
ACAD
1000
DSTYLE
1002
{
1070
   140
1040
6.0
1070
    74
1070
     0
1070
   172
1070
     1
1070
    73
1070
     0
1070
   272
1070
     2
1070
    77
1070
     3
1070
   173
1070
     1
1070
   147
1040
2.0
1070
    42
1040
6.0
1070
    44
1040
3.0
1070
    43
1040
14.0
1070
   271
1070
     0
1070
   178
1070
     4
1070
   177
1070
     4
1070
   176
1070
     4
1070
   141
1040
150.0
1070
     7
1000
_OPEN
1070
     6
1000
_OPEN
1070
    41
1040
7.0
1002
}
  0
ARC
  5
561
330
1A
100
AcDbEntity
  8
SEIHIN
  6
CONTINUOUS
 62
     3
 48
16.0
100
AcDbCircle
 10
182.5410226670267
 20
228.0858106159797
 30
0.0
 40
0.9999858737048647
100
AcDbArc
 50
185.7073776096635
 51
230.7106026338367
  0
LINE
  5
562
330
1A
100
AcDbEntity
  8
SEIHIN
  6
CONTINUOUS
 62
     3
 48
16.0
100
AcDbLine
 10
177.1385939503488
 20
224.7536641449727
 30
0.0
 11
188.556293950349
 21
215.4117641449727
 31
0.0
  0
LINE
  5
563
330
1A
100
AcDbEntity
  8
NOKITOI
  6
PHANTOM
 62
     8
 48
3.5
100
AcDbLine
 10
179.4935439503485
 20
226.3684141449727
 30
0.0
 11
189.4788439503488
 21
218.1986141449725
 31
0.0
  0
LINE
  5
564
330
1A
100
AcDbEntity
  8
NOKITOI
  6
PHANTOM
 62
     8
 48
3.5
100
AcDbLine
 10
178.5092439503489
 20
225.6233141449728
 30
0.0
 11
188.9123439503489
 21
217.1116141449727
 31
0.0
  0
LINE
  5
565
330
1A
100
AcDbEntity
  8
SEIHIN
  6
CONTINUOUS
 62
     3
 48
16.0
100
AcDbLine
 10
181.5459939503489
 20
227.9863641449727
 30
0.0
 11
178.9561939503489
 21
253.8867641449728
 31
0.0
  0
LINE
  5
566
330
1A
100
AcDbEntity
  8
SEIHIN
  6
CONTINUOUS
 62
     3
 48
16.0
100
AcDbLine
 10
166.8484939503489
 20
274.0857641449728
 30
0.0
 11
226.439593950349
 21
274.0855641449728
 31
0.0
  0
LINE
  5
567
330
1A
100
AcDbEntity
  8
SEIHIN
  6
CONTINUOUS
 62
     3
 48
16.0
100
AcDbLine
 10
271.9823939503489
 20
256.0854641449727
 30
0.0
 11
180.9462939503489
 21
256.0856641449727
 31
0.0
  0
LINE
  5
568
330
1A
100
AcDbEntity
  8
SEIHIN
  6
CONTINUOUS
 62
     3
 48
16.0
100
AcDbLine
 10
83.00199395034907
 20
215.8858641449727
 30
0.0
 11
83.00209395034903
 21
274.0858641449727
 31
0.0
  0
LINE
  5
569
330
1A
100
AcDbEntity
  8
SEIHIN
  6
CONTINUOUS
 62
     3
 48
16.0
100
AcDbLine
 10
103.001993950349
 20
216.1859641449727
 30
0.0
 11
103.002093950349
 21
273.0858641449726
 31
0.0
  0
LINE
  5
56A
330
1A
100
AcDbEntity
  8
SEIHIN
  6
CONTINUOUS
 62
     3
 48
16.0
100
AcDbLine
 10
88.00199395034907
 20
215.1858641449727
 30
0.0
 11
88.00209395034903
 21
274.0858641449727
 31
0.0
  0
LINE
  5
56B
330
1A
100
AcDbEntity
  8
SEIHIN
  6
CONTINUOUS
 62
     3
 48
16.0
100
AcDbLine
 10
88.00199395034907
 20
215.1858641449727
 30
0.0
 11
102.001993950349
 21
215.1858641449727
 31
0.0
  0
LINE
  5
56C
330
1A
100
AcDbEntity
  8
SEIHIN
  6
CONTINUOUS
 62
     3
 48
16.0
100
AcDbLine
 10
88.00199395034907
 20
225.0161641449727
 30
0.0
 11
102.002093950349
 21
225.0161641449727
 31
0.0
  0
LINE
  5
56D
330
1A
100
AcDbEntity
  8
SEIHIN
  6
CONTINUOUS
 62
     3
 48
16.0
100
AcDbLine
 10
83.00199395034907
 20
215.8858641449727
 30
0.0
 11
88.00199395034907
 21
215.1858641449727
 31
0.0
  0
LINE
  5
56E
330
1A
100
AcDbEntity
  8
SEIHIN
  6
CONTINUOUS
 62
     3
 48
16.0
100
AcDbLine
 10
83.00199395034907
 20
225.7162641449726
 30
0.0
 11
88.00199395034907
 21
225.0161641449727
 31
0.0
  0
ARC
  5
56F
330
1A
100
AcDbEntity
  8
SEIHIN
  6
CONTINUOUS
 62
     3
 48
16.0
100
AcDbCircle
 10
102.001993950349
 20
216.1859641449727
 30
0.0
 40
1.000000000000056
100
AcDbArc
 50
270.0000000000032
 51
0.0000000000024427
  0
ARC
  5
570
330
1A
100
AcDbEntity
  8
SEIHIN
  6
CONTINUOUS
 62
     3
 48
16.0
100
AcDbCircle
 10
102.002093950349
 20
226.0161641449727
 30
0.0
 40
1.000000000000056
100
AcDbArc
 50
269.9999999999967
 51
359.9999999999967
  0
ARC
  5
571
330
1A
100
AcDbEntity
  8
SEIHIN
  6
CONTINUOUS
 62
     3
 48
16.0
100
AcDbCircle
 10
102.002093950349
 20
273.0858641449726
 30
0.0
 40
1.000000000000113
100
AcDbArc
 50
0.0
 51
90.0
  0
LINE
  5
572
330
1A
100
AcDbEntity
  8
SEIHIN
  6
CONTINUOUS
 62
     3
 48
16.0
100
AcDbLine
 10
88.00209395034903
 20
253.1858641449728
 30
0.0
 11
102.002093950349
 21
253.1858641449728
 31
0.0
  0
LINE
  5
573
330
1A
100
AcDbEntity
  8
SEIHIN
  6
CONTINUOUS
 62
     3
 48
16.0
100
AcDbLine
 10
83.00209395034903
 20
253.8859641449727
 30
0.0
 11
88.00209395034903
 21
253.1858641449728
 31
0.0
  0
ARC
  5
574
330
1A
100
AcDbEntity
  8
SEIHIN
  6
CONTINUOUS
 62
     3
 48
16.0
100
AcDbCircle
 10
102.002093950349
 20
254.1858641449728
 30
0.0
 40
1.000000000000056
100
AcDbArc
 50
269.9999999999967
 51
359.9999999999967
  0
LINE
  5
575
330
1A
100
AcDbEntity
  8
SEIHIN
  6
CONTINUOUS
 62
     3
 48
16.0
100
AcDbLine
 10
83.00209395034903
 20
274.0858641449727
 30
0.0
 11
102.002093950349
 21
274.0858641449727
 31
0.0
  0
LINE
  5
576
330
1A
100
AcDbEntity
  8
SEIHIN
  6
CONTINUOUS
 62
     3
 48
16.0
100
AcDbLine
 10
174.046393950349
 20
252.7355641449727
 30
0.0
 11
176.7767939503491
 21
225.4280641449727
 31
0.0
  0
LINE
  5
577
330
1A
100
AcDbEntity
  8
NOKITOI
  6
PHANTOM
 62
     8
 48
3.5
100
AcDbLine
 10
176.3196439503488
 20
256.6355141449727
 30
0.0
 11
179.3126439503491
 21
226.7057141449726
 31
0.0
  0
LINE
  5
578
330
1A
100
AcDbEntity
  8
NOKITOI
  6
PHANTOM
 62
     8
 48
3.5
100
AcDbLine
 10
175.2786439503486
 20
254.9852141449727
 30
0.0
 11
178.1474439503488
 21
226.2978141449726
 31
0.0
  0
ARC
  5
579
330
1A
100
AcDbEntity
  8
NOKITOI
  6
PHANTOM
 62
     8
 48
3.5
100
AcDbCircle
 10
179.1424665232177
 20
226.3972720733
 30
0.0
 40
0.9999908507640039
100
AcDbArc
 50
185.7137670522468
 51
230.7112907769303
  0
ARC
  5
57A
330
1A
100
AcDbEntity
  8
SEIHIN
  6
CONTINUOUS
 62
     3
 48
16.0
100
AcDbCircle
 10
177.7718525208188
 20
225.5276413851801
 30
0.0
 40
1.000028592307466
100
AcDbArc
 50
185.7146626773041
 51
230.7103951518723
  0
ARC
  5
57B
330
1A
100
AcDbEntity
  8
NOKITOI
  6
PHANTOM
 62
     8
 48
3.5
100
AcDbCircle
 10
179.8101613762271
 20
226.7553816585847
 30
0.0
 40
0.4999904508696396
100
AcDbArc
 50
185.7009889250754
 51
230.7099153622041
  0
ARC
  5
57C
330
1A
100
AcDbEntity
  8
SEIHIN
  6
CONTINUOUS
 62
     3
 48
16.0
100
AcDbCircle
 10
166.8484865339746
 20
272.0857565137519
 30
0.0
 40
2.00000763123462
100
AcDbArc
 50
89.99978753734053
 51
181.6357918592513
  0
LINE
  5
57D
330
1A
100
AcDbEntity
  8
SEIHIN
  6
CONTINUOUS
 62
     3
 48
16.0
100
AcDbLine
 10
165.3460939503488
 20
254.6428641449728
 30
0.0
 11
164.8492939503489
 21
272.0286641449726
 31
0.0
  0
LINE
  5
57E
330
1A
100
AcDbEntity
  8
NOKITOI
  6
PHANTOM
 62
     8
 48
3.5
100
AcDbLine
 10
166.2531439503488
 20
269.8232141449726
 30
0.0
 11
166.6432439503489
 21
257.3388141449726
 31
0.0
  0
ARC
  5
57F
330
1A
100
AcDbEntity
  8
NOKITOI
  6
PHANTOM
 62
     8
 48
3.5
100
AcDbCircle
 10
171.703674877285
 20
261.8857498896364
 30
0.0
 40
3.99998565374706
100
AcDbArc
 50
96.47577619531674
 51
181.7913033408985
  0
LINE
  5
580
330
1A
100
AcDbEntity
  8
SEIHIN
  6
CONTINUOUS
 62
     3
 48
16.0
100
AcDbLine
 10
166.845493950349
 20
253.1857641449727
 30
0.0
 11
173.5488939503491
 21
253.1857641449727
 31
0.0
  0
LINE
  5
581
330
1A
100
AcDbEntity
  8
NOKITOI
  6
PHANTOM
 62
     8
 48
3.5
100
AcDbLine
 10
168.1425439503489
 20
255.8857141449726
 30
0.0
 11
174.2836439503487
 21
255.8857141449726
 31
0.0
  0
LINE
  5
582
330
1A
100
AcDbEntity
  8
NOKITOI
  6
PHANTOM
 62
     8
 48
3.5
100
AcDbLine
 10
175.8221439503492
 20
257.0857141449727
 30
0.0
 11
169.7902439503488
 21
257.0857141449727
 31
0.0
  0
LINE
  5
583
330
1A
100
AcDbEntity
  8
NOKITOI
  6
PHANTOM
 62
     8
 48
3.5
100
AcDbLine
 10
167.7911439503489
 20
259.0231141449727
 30
0.0
 11
167.7056439503492
 21
261.7607141449726
 31
0.0
  0
ARC
  5
584
330
1A
100
AcDbEntity
  8
NOKITOI
  6
PHANTOM
 62
     8
 48
3.5
100
AcDbCircle
 10
169.7902059625246
 20
259.0856509655449
 30
0.0
 40
2.000036820932882
100
AcDbArc
 50
181.7889408725803
 51
270.001088250966
  0
ARC
  5
585
330
1A
100
AcDbEntity
  8
NOKITOI
  6
PHANTOM
 62
     8
 48
3.5
100
AcDbCircle
 10
168.1425267371707
 20
257.3857308281204
 30
0.0
 40
1.500016683246579
100
AcDbArc
 50
181.7923576755889
 51
270.0006574876651
  0
ARC
  5
586
330
1A
100
AcDbEntity
  8
SEIHIN
  6
CONTINUOUS
 62
     3
 48
16.0
100
AcDbCircle
 10
166.8454869581851
 20
254.6857709399419
 30
0.0
 40
1.500006794985533
100
AcDbArc
 50
181.6391349969435
 51
270.0002670797706
  0
ARC
  5
587
330
1A
100
AcDbEntity
  8
SEIHIN
  6
CONTINUOUS
 62
     3
 48
16.0
100
AcDbCircle
 10
180.9462827500099
 20
254.0856517687993
 30
0.0
 40
2.000012376204799
100
AcDbArc
 50
89.99967913590934
 51
185.7099872197799
  0
ARC
  5
588
330
1A
100
AcDbEntity
  8
NOKITOI
  6
PHANTOM
 62
     8
 48
3.5
100
AcDbCircle
 10
174.2836233005079
 20
254.8857328328218
 30
0.0
 40
0.9999813123640345
100
AcDbArc
 50
5.709409966648967
 51
89.99881682915043
  0
ARC
  5
589
330
1A
100
AcDbEntity
  8
NOKITOI
  6
PHANTOM
 62
     8
 48
3.5
100
AcDbCircle
 10
175.8221308793442
 20
256.5857259752525
 30
0.0
 40
0.499988169890889
100
AcDbArc
 50
5.703393862284335
 51
89.99850213773372
  0
ARC
  5
58A
330
1A
100
AcDbEntity
  8
SEIHIN
  6
CONTINUOUS
 62
     3
 48
16.0
100
AcDbCircle
 10
173.5488808793443
 20
252.6857759752526
 30
0.0
 40
0.4999881698909184
100
AcDbArc
 50
5.703393862280901
 51
89.99850213773047
  0
LINE
  5
58B
330
1A
100
AcDbEntity
  8
NOKITOI
  6
PHANTOM
 62
     8
 48
3.5
100
AcDbLine
 10
172.7722439503493
 20
263.5857141449727
 30
0.0
 11
173.1762439503488
 21
266.4141141449726
 31
0.0
  0
LINE
  5
58C
330
1A
100
AcDbEntity
  8
NOKITOI
  6
PHANTOM
 62
     8
 48
3.5
100
AcDbLine
 10
173.5501439503489
 20
263.5857141449727
 30
0.0
 11
172.7722439503493
 21
263.5857141449727
 31
0.0
  0
LINE
  5
58D
330
1A
100
AcDbEntity
  8
NOKITOI
  6
PHANTOM
 62
     8
 48
3.5
100
AcDbLine
 10
174.2142439503488
 20
262.3857141449726
 30
0.0
 11
171.9651439503493
 21
262.3857141449726
 31
0.0
  0
LINE
  5
58E
330
1A
100
AcDbEntity
  8
NOKITOI
  6
PHANTOM
 62
     8
 48
3.5
100
AcDbLine
 10
174.5300439503487
 20
269.3857141449726
 30
0.0
 11
172.2985439503488
 21
269.3857141449726
 31
0.0
  0
LINE
  5
58F
330
1A
100
AcDbEntity
  8
NOKITOI
  6
PHANTOM
 62
     8
 48
3.5
100
AcDbLine
 10
172.1656439503487
 20
267.0857141449727
 30
0.0
 11
173.1614439503489
 21
268.1857141449728
 31
0.0
  0
ARC
  5
590
330
1A
100
AcDbEntity
  8
NOKITOI
  6
PHANTOM
 62
     8
 48
3.5
100
AcDbCircle
 10
171.7036618167001
 20
261.8857228733526
 30
0.0
 40
5.199991271650611
100
AcDbArc
 50
90.00019685927453
 51
142.074671395269
  0
LINE
  5
591
330
1A
100
AcDbEntity
  8
NOKITOI
  6
PHANTOM
 62
     8
 48
3.5
100
AcDbLine
 10
167.4525439503493
 20
269.8607141449725
 30
0.0
 11
167.6018439503488
 21
265.0817141449727
 31
0.0
  0
LINE
  5
592
330
1A
100
AcDbEntity
  8
NOKITOI
  6
PHANTOM
 62
     8
 48
3.5
100
AcDbLine
 10
172.1656439503487
 20
267.0857141449727
 30
0.0
 11
171.7036439503488
 21
267.0857141449727
 31
0.0
  0
LINE
  5
593
330
1A
100
AcDbEntity
  8
NOKITOI
  6
PHANTOM
 62
     8
 48
3.5
100
AcDbLine
 10
171.4701439503489
 20
262.9564141449726
 30
0.0
 11
171.8039439503488
 21
265.2926141449728
 31
0.0
  0
ARC
  5
594
330
1A
100
AcDbEntity
  8
NOKITOI
  6
PHANTOM
 62
     8
 48
3.5
100
AcDbCircle
 10
171.9651337639127
 20
262.8857258896967
 30
0.0
 40
0.5000117448278309
100
AcDbArc
 50
171.8726853912841
 51
270.0011672521981
  0
ARC
  5
595
330
1A
100
AcDbEntity
  8
NOKITOI
  6
PHANTOM
 62
     8
 48
3.5
100
AcDbCircle
 10
171.3089145778492
 20
265.3633443774675
 30
0.0
 40
0.4999578477751074
100
AcDbArc
 50
351.8669438287075
 51
96.47390928779223
  0
LINE
  5
596
330
1A
100
AcDbEntity
  8
NOKITOI
  6
PHANTOM
 62
     8
 48
3.5
100
AcDbLine
 10
168.2521439503486
 20
270.6856141449726
 30
0.0
 11
170.7248439503489
 21
270.6857141449728
 31
0.0
  0
LINE
  5
597
330
1A
100
AcDbEntity
  8
NOKITOI
  6
PHANTOM
 62
     8
 48
3.5
100
AcDbLine
 10
168.2521439503486
 20
271.8856141449726
 30
0.0
 11
171.578743950349
 21
271.8857141449726
 31
0.0
  0
ARC
  5
598
330
1A
100
AcDbEntity
  8
NOKITOI
  6
PHANTOM
 62
     8
 48
3.5
100
AcDbCircle
 10
171.5787512049043
 20
271.3857052951292
 30
0.0
 40
0.500008849895925
100
AcDbArc
 50
348.6864043304882
 51
90.00083129614507
  0
ARC
  5
599
330
1A
100
AcDbEntity
  8
NOKITOI
  6
PHANTOM
 62
     8
 48
3.5
100
AcDbCircle
 10
172.2985447333574
 20
269.8857131899709
 30
0.0
 40
0.4999990449987399
100
AcDbArc
 50
168.6967198015449
 51
269.9999102736945
  0
LINE
  5
59A
330
1A
100
AcDbEntity
  8
NOKITOI
  6
PHANTOM
 62
     8
 48
3.5
100
AcDbLine
 10
171.8082439503489
 20
269.9837141449728
 30
0.0
 11
172.0690439503489
 21
271.2877141449727
 31
0.0
  0
LINE
  5
59B
330
1A
100
AcDbEntity
  8
NOKITOI
  6
PHANTOM
 62
     8
 48
3.5
100
AcDbLine
 10
170.2248439503489
 20
268.1857141449728
 30
0.0
 11
173.1614439503489
 21
268.1857141449728
 31
0.0
  0
LINE
  5
59C
330
1A
100
AcDbEntity
  8
NOKITOI
  6
PHANTOM
 62
     8
 48
3.5
100
AcDbLine
 10
170.7248439503489
 20
270.6857141449728
 30
0.0
 11
170.2248439503489
 21
268.1857141449728
 31
0.0
  0
ARC
  5
59D
330
1A
100
AcDbEntity
  8
NOKITOI
  6
PHANTOM
 62
     8
 48
3.5
100
AcDbCircle
 10
168.252155187343
 20
269.8857257387897
 30
0.0
 40
1.999988406214315
100
AcDbArc
 50
90.0003219180439
 51
181.791127346407
  0
ARC
  5
59E
330
1A
100
AcDbEntity
  8
NOKITOI
  6
PHANTOM
 62
     8
 48
3.5
100
AcDbCircle
 10
168.252099983996
 20
269.8856687824997
 30
0.0
 40
0.7999453636812564
100
AcDbArc
 50
89.99685092684627
 51
181.7876563552118
  0
LINE
  5
59F
330
1A
100
AcDbEntity
  8
NOKITOI
  6
PHANTOM
 62
     8
 48
3.5
100
AcDbLine
 10
173.5501439503489
 20
263.5857141449727
 30
0.0
 11
173.7312439503491
 21
267.0271141449726
 31
0.0
  0
LINE
  5
5A0
330
1A
100
AcDbEntity
  8
NOKITOI
  6
PHANTOM
 62
     8
 48
3.5
100
AcDbLine
 10
173.1762439503488
 20
266.4141141449726
 30
0.0
 11
173.7312439503491
 21
267.0271141449726
 31
0.0
  0
LINE
  5
5A1
330
1A
100
AcDbEntity
  8
NOKITOI
  6
PHANTOM
 62
     8
 48
3.5
100
AcDbLine
 10
174.7135439503488
 20
262.8594141449726
 30
0.0
 11
175.0293439503491
 21
268.8594141449726
 31
0.0
  0
ARC
  5
5A2
330
1A
100
AcDbEntity
  8
NOKITOI
  6
PHANTOM
 62
     8
 48
3.5
100
AcDbCircle
 10
174.2142398289422
 20
262.8857102349421
 30
0.0
 40
0.4999960899864752
100
AcDbArc
 50
270.0004722821405
 51
356.9852756208263
  0
ARC
  5
5A3
330
1A
100
AcDbEntity
  8
NOKITOI
  6
PHANTOM
 62
     8
 48
3.5
100
AcDbCircle
 10
174.5300402408536
 20
268.8857180550034
 30
0.0
 40
0.4999960899831856
100
AcDbArc
 50
356.9843782585345
 51
89.99957491984867
  0
TEXT
  5
5A4
330
1A
100
AcDbEntity
  8
ZUWAKU
 62
     4
 48
5.0
100
AcDbText
 10
215.1104035292805
 20
164.7447599927522
 30
0.0
 40
8.0
  1
左
100
AcDbText
  0
ARC
  5
5A5
330
1A
100
AcDbEntity
  8
SEIHIN
  6
CONTINUOUS
 62
     3
 48
16.0
100
AcDbCircle
 10
234.731215349559
 20
259.8856824702071
 30
0.0
 40
39.70001832531209
100
AcDbArc
 50
270.0001134380719
 51
351.1500830180293
  0
ARC
  5
5A6
330
1A
100
AcDbEntity
  8
SEIHIN
  6
CONTINUOUS
 62
     3
 48
16.0
100
AcDbCircle
 10
234.7312188452381
 20
259.8856853450742
 30
0.0
 40
44.70002120016462
100
AcDbArc
 50
270.0000962685421
 51
350.8342411231295
  0
LINE
  5
5A7
330
1A
100
AcDbEntity
  8
SEIHIN
  6
CONTINUOUS
 62
     3
 48
16.0
100
AcDbLine
 10
286.0305939503489
 20
274.0854641449726
 30
0.0
 11
226.439593950349
 21
274.0855641449728
 31
0.0
  0
ARC
  5
5A8
330
1A
100
AcDbEntity
  8
NOKITOI
  6
PHANTOM
 62
     8
 48
3.5
100
AcDbCircle
 10
234.375037868381
 20
259.8857085203163
 30
0.0
 40
41.79999437547816
100
AcDbArc
 50
270.0001454078912
 51
355.525704787475
  0
ARC
  5
5A9
330
1A
100
AcDbEntity
  8
NOKITOI
  6
PHANTOM
 62
     8
 48
3.5
100
AcDbCircle
 10
234.3750601768062
 20
259.8857286213427
 30
0.0
 40
43.00001447645168
100
AcDbArc
 50
270.0001116248559
 51
353.4750892928819
  0
LINE
  5
5AA
330
1A
100
AcDbEntity
  8
SEIHIN
  6
CONTINUOUS
 62
     3
 48
16.0
100
AcDbLine
 10
189.1895939503488
 20
215.1856641449727
 30
0.0
 11
234.731093950349
 21
215.1856641449727
 31
0.0
  0
LINE
  5
5AB
330
1A
100
AcDbEntity
  8
SEIHIN
  6
CONTINUOUS
 62
     3
 48
16.0
100
AcDbLine
 10
190.9743939503489
 20
220.1856641449728
 30
0.0
 11
234.731093950349
 21
220.1855641449727
 31
0.0
  0
LINE
  5
5AC
330
1A
100
AcDbEntity
  8
NOKITOI
  6
PHANTOM
 62
     8
 48
3.5
100
AcDbLine
 10
234.375043950349
 20
218.0857141449727
 30
0.0
 11
189.7954439503489
 21
218.0856141449727
 31
0.0
  0
LINE
  5
5AD
330
1A
100
AcDbEntity
  8
NOKITOI
  6
PHANTOM
 62
     8
 48
3.5
100
AcDbLine
 10
189.5456439503488
 20
216.8856141449726
 30
0.0
 11
234.375043950349
 21
216.8857141449726
 31
0.0
  0
LINE
  5
5AE
330
1A
100
AcDbEntity
  8
NOKITOI
  6
PHANTOM
 62
     8
 48
3.5
100
AcDbLine
 10
193.7954439503489
 20
218.0856141449727
 30
0.0
 11
213.7035439503486
 21
218.0856141449727
 31
0.0
  0
LINE
  5
5AF
330
1A
100
AcDbEntity
  8
NOKITOI
  6
PHANTOM
 62
     8
 48
3.5
100
AcDbLine
 10
193.5456439503489
 20
216.8856141449726
 30
0.0
 11
213.7035439503486
 21
216.8856141449726
 31
0.0
  0
ARC
  5
5B0
330
1A
100
AcDbEntity
  8
SEIHIN
  6
CONTINUOUS
 62
     3
 48
16.0
100
AcDbCircle
 10
189.1894924834114
 20
216.1858003661604
 30
0.0
 40
1.000036226335296
100
AcDbArc
 50
230.715197246694
 51
270.005813416684
  0
LINE
  5
5B1
330
1A
100
AcDbEntity
  8
SEIHIN
  6
CONTINUOUS
 62
     3
 48
16.0
100
AcDbLine
 10
190.3411939503491
 20
220.4116641449727
 30
0.0
 11
181.907793950349
 21
227.3118641449727
 31
0.0
  0
ARC
  5
5B2
330
1A
100
AcDbEntity
  8
NOKITOI
  6
PHANTOM
 62
     8
 48
3.5
100
AcDbCircle
 10
189.5456508829263
 20
217.8856116699666
 30
0.0
 40
0.9999975250179316
100
AcDbArc
 50
230.7053583247701
 51
269.9996027915957
  0
ARC
  5
5B3
330
1A
100
AcDbEntity
  8
NOKITOI
  6
PHANTOM
 62
     8
 48
3.5
100
AcDbCircle
 10
189.7954375626002
 20
218.5856164249622
 30
0.0
 40
0.5000022800304047
100
AcDbArc
 50
230.7145501403941
 51
270.0007319787213
  0
ARC
  5
5B4
330
1A
100
AcDbEntity
  8
SEIHIN
  6
CONTINUOUS
 62
     3
 48
16.0
100
AcDbCircle
 10
190.9745895856105
 20
221.1856300063073
 30
0.0
 40
0.999965865907731
100
AcDbArc
 50
230.7047102943583
 51
269.9945203160851
  0
ARC
  5
5B5
330
1A
100
AcDbEntity
  8
NOKITOI
  6
PHANTOM
 62
     8
 48
3.5
100
AcDbCircle
 10
280.6734237376797
 20
261.8857728733527
 30
0.0
 40
5.2000412730095
100
AcDbArc
 50
37.92420092094385
 51
89.99867545693838
  0
LINE
  5
5B6
330
1A
100
AcDbEntity
  8
NOKITOI
  6
PHANTOM
 62
     8
 48
3.5
100
AcDbLine
 10
284.1251439503492
 20
271.8857141449726
 30
0.0
 11
280.7985439503488
 21
271.8857141449726
 31
0.0
  0
ARC
  5
5B7
330
1A
100
AcDbEntity
  8
NOKITOI
  6
PHANTOM
 62
     8
 48
3.5
100
AcDbCircle
 10
280.6735060689022
 20
261.885757927498
 30
0.0
 40
3.999989731271038
100
AcDbArc
 50
358.2100163932691
 51
83.52268857986855
  0
LINE
  5
5B8
330
1A
100
AcDbEntity
  8
NOKITOI
  6
PHANTOM
 62
     8
 48
3.5
100
AcDbLine
 10
282.1523439503487
 20
268.1857141449728
 30
0.0
 11
279.2158439503489
 21
268.1857141449728
 31
0.0
  0
LINE
  5
5B9
330
1A
100
AcDbEntity
  8
NOKITOI
  6
PHANTOM
 62
     8
 48
3.5
100
AcDbLine
 10
284.2347439503489
 20
255.8857141449726
 30
0.0
 11
278.0900439503491
 21
255.8857141449726
 31
0.0
  0
LINE
  5
5BA
330
1A
100
AcDbEntity
  8
NOKITOI
  6
PHANTOM
 62
     8
 48
3.5
100
AcDbLine
 10
276.5461439503485
 20
257.0857141449727
 30
0.0
 11
282.5870439503489
 21
257.0857141449727
 31
0.0
  0
LINE
  5
5BB
330
1A
100
AcDbEntity
  8
SEIHIN
  6
CONTINUOUS
 62
     3
 48
16.0
100
AcDbLine
 10
286.0335939503491
 20
253.1854641449727
 30
0.0
 11
279.3540939503491
 21
253.1855641449727
 31
0.0
  0
ARC
  5
5BC
330
1A
100
AcDbEntity
  8
SEIHIN
  6
CONTINUOUS
 62
     3
 48
16.0
100
AcDbCircle
 10
271.9823988454241
 20
254.0854584287391
 30
0.0
 40
2.000005716239579
100
AcDbArc
 50
351.1500851063473
 51
90.00014023317124
  0
ARC
  5
5BD
330
1A
100
AcDbEntity
  8
NOKITOI
  6
PHANTOM
 62
     8
 48
3.5
100
AcDbCircle
 10
278.0900523745115
 20
254.8857216600291
 30
0.0
 40
0.9999924849789756
100
AcDbArc
 50
90.00048267259112
 51
173.4717353933255
  0
ARC
  5
5BE
330
1A
100
AcDbEntity
  8
SEIHIN
  6
CONTINUOUS
 62
     3
 48
16.0
100
AcDbCircle
 10
279.3541073833189
 20
252.6855755852343
 30
0.0
 40
0.4999885599188518
100
AcDbArc
 50
90.00153934018303
 51
170.840652096734
  0
ARC
  5
5BF
330
1A
100
AcDbEntity
  8
NOKITOI
  6
PHANTOM
 62
     8
 48
3.5
100
AcDbCircle
 10
276.5461313806406
 20
256.5857025202429
 30
0.0
 40
0.5000116248877111
100
AcDbArc
 50
89.99855965101662
 51
175.5251531916571
  0
LINE
  5
5C0
330
1A
100
AcDbEntity
  8
NOKITOI
  6
PHANTOM
 62
     8
 48
3.5
100
AcDbLine
 10
278.1630439503489
 20
262.3857141449726
 30
0.0
 11
280.4121439503489
 21
262.3857141449726
 31
0.0
  0
LINE
  5
5C1
330
1A
100
AcDbEntity
  8
NOKITOI
  6
PHANTOM
 62
     8
 48
3.5
100
AcDbLine
 10
280.5690439503489
 20
269.9838141449725
 30
0.0
 11
280.3082439503489
 21
271.2877141449727
 31
0.0
  0
LINE
  5
5C2
330
1A
100
AcDbEntity
  8
NOKITOI
  6
PHANTOM
 62
     8
 48
3.5
100
AcDbLine
 10
280.2116439503486
 20
267.0857141449727
 30
0.0
 11
279.2158439503489
 21
268.1857141449728
 31
0.0
  0
LINE
  5
5C3
330
1A
100
AcDbEntity
  8
NOKITOI
  6
PHANTOM
 62
     8
 48
3.5
100
AcDbLine
 10
277.6636439503488
 20
262.8595141449726
 30
0.0
 11
277.3478439503489
 21
268.8594141449726
 31
0.0
  0
LINE
  5
5C4
330
1A
100
AcDbEntity
  8
NOKITOI
  6
PHANTOM
 62
     8
 48
3.5
100
AcDbLine
 10
279.6050439503485
 20
263.5857141449727
 30
0.0
 11
279.2009439503488
 21
266.4141141449726
 31
0.0
  0
ARC
  5
5C5
330
1A
100
AcDbEntity
  8
NOKITOI
  6
PHANTOM
 62
     8
 48
3.5
100
AcDbCircle
 10
278.1630508373439
 20
262.8857076098871
 30
0.0
 40
0.499993464961963
100
AcDbArc
 50
183.0029638682573
 51
269.9992107982126
  0
LINE
  5
5C6
330
1A
100
AcDbEntity
  8
NOKITOI
  6
PHANTOM
 62
     8
 48
3.5
100
AcDbLine
 10
278.8271439503489
 20
263.5857141449727
 30
0.0
 11
279.6050439503485
 21
263.5857141449727
 31
0.0
  0
LINE
  5
5C7
330
1A
100
AcDbEntity
  8
NOKITOI
  6
PHANTOM
 62
     8
 48
3.5
100
AcDbLine
 10
278.8271439503489
 20
263.5857141449727
 30
0.0
 11
278.6459439503489
 21
267.0272141449728
 31
0.0
  0
LINE
  5
5C8
330
1A
100
AcDbEntity
  8
NOKITOI
  6
PHANTOM
 62
     8
 48
3.5
100
AcDbLine
 10
279.2009439503488
 20
266.4141141449726
 30
0.0
 11
278.6459439503489
 21
267.0272141449728
 31
0.0
  0
LINE
  5
5C9
330
1A
100
AcDbEntity
  8
NOKITOI
  6
PHANTOM
 62
     8
 48
3.5
100
AcDbLine
 10
277.8472439503491
 20
269.3857141449726
 30
0.0
 11
280.078743950349
 21
269.3857141449726
 31
0.0
  0
ARC
  5
5CA
330
1A
100
AcDbEntity
  8
NOKITOI
  6
PHANTOM
 62
     8
 48
3.5
100
AcDbCircle
 10
277.8472501515068
 20
268.8857206800579
 30
0.0
 40
0.4999934649531607
100
AcDbArc
 50
90.00071060961996
 51
183.0044636796616
  0
ARC
  5
5CB
330
1A
100
AcDbEntity
  8
NOKITOI
  6
PHANTOM
 62
     8
 48
3.5
100
AcDbCircle
 10
280.7985447333574
 20
271.3857150999743
 30
0.0
 40
0.4999990449987349
100
AcDbArc
 50
90.00008972630549
 51
191.3032801984551
  0
LINE
  5
5CC
330
1A
100
AcDbEntity
  8
NOKITOI
  6
PHANTOM
 62
     8
 48
3.5
100
AcDbLine
 10
280.2116439503486
 20
267.0857141449727
 30
0.0
 11
280.6735439503488
 21
267.0857141449727
 31
0.0
  0
ARC
  5
5CD
330
1A
100
AcDbEntity
  8
NOKITOI
  6
PHANTOM
 62
     8
 48
3.5
100
AcDbCircle
 10
280.0787512049044
 20
269.885722994816
 30
0.0
 40
0.5000088498959383
100
AcDbArc
 50
269.9991687038565
 51
11.31359566951149
  0
LINE
  5
5CE
330
1A
100
AcDbEntity
  8
NOKITOI
  6
PHANTOM
 62
     8
 48
3.5
100
AcDbLine
 10
280.9070439503491
 20
262.9565141449728
 30
0.0
 11
280.5733439503489
 21
265.2927141449728
 31
0.0
  0
ARC
  5
5CF
330
1A
100
AcDbEntity
  8
NOKITOI
  6
PHANTOM
 62
     8
 48
3.5
100
AcDbCircle
 10
280.4121173497512
 20
262.8856834680906
 30
0.0
 40
0.4999693238254178
100
AcDbArc
 50
270.0030483909652
 51
8.144496122946778
  0
ARC
  5
5D0
330
1A
100
AcDbEntity
  8
NOKITOI
  6
PHANTOM
 62
     8
 48
3.5
100
AcDbCircle
 10
281.0683297319335
 20
265.3633995106716
 30
0.0
 40
0.5000073448410256
100
AcDbArc
 50
83.5217071700316
 51
188.1270521358757
  0
ARC
  5
5D1
330
1A
100
AcDbEntity
  8
SEIHIN
  6
CONTINUOUS
 62
     3
 48
16.0
100
AcDbCircle
 10
286.0305527942721
 20
272.0855064933693
 30
0.0
 40
1.99995765202671
100
AcDbArc
 50
358.3627348258106
 51
89.99882094028464
  0
LINE
  5
5D2
330
1A
100
AcDbEntity
  8
NOKITOI
  6
PHANTOM
 62
     8
 48
3.5
100
AcDbLine
 10
286.1241439503489
 20
269.8232141449726
 30
0.0
 11
285.7339439503491
 21
257.3389141449725
 31
0.0
  0
LINE
  5
5D3
330
1A
100
AcDbEntity
  8
SEIHIN
  6
CONTINUOUS
 62
     3
 48
16.0
100
AcDbLine
 10
287.532993950349
 20
254.6426641449727
 30
0.0
 11
288.0297939503491
 21
272.0283641449727
 31
0.0
  0
LINE
  5
5D4
330
1A
100
AcDbEntity
  8
NOKITOI
  6
PHANTOM
 62
     8
 48
3.5
100
AcDbLine
 10
284.5860439503492
 20
259.0233141449727
 30
0.0
 11
284.6715439503489
 21
261.7608141449726
 31
0.0
  0
ARC
  5
5D5
330
1A
100
AcDbEntity
  8
SEIHIN
  6
CONTINUOUS
 62
     3
 48
16.0
100
AcDbCircle
 10
286.0336009425127
 20
254.6855709399419
 30
0.0
 40
1.500006794985447
100
AcDbArc
 50
269.9997329202301
 51
358.3608650030574
  0
ARC
  5
5D6
330
1A
100
AcDbEntity
  8
NOKITOI
  6
PHANTOM
 62
     8
 48
3.5
100
AcDbCircle
 10
284.234707991198
 20
257.3856792908294
 30
0.0
 40
1.499965146287778
100
AcDbArc
 50
270.0013735703023
 51
358.2133719782232
  0
ARC
  5
5D7
330
1A
100
AcDbEntity
  8
NOKITOI
  6
PHANTOM
 62
     8
 48
3.5
100
AcDbCircle
 10
282.5870303782105
 20
259.0857009898862
 30
0.0
 40
1.999986844959662
100
AcDbArc
 50
270.0003888156776
 51
358.2124468147636
  0
LINE
  5
5D8
330
1A
100
AcDbEntity
  8
NOKITOI
  6
PHANTOM
 62
     8
 48
3.5
100
AcDbLine
 10
284.9247439503485
 20
269.8607141449725
 30
0.0
 11
284.7753439503492
 21
265.0818141449728
 31
0.0
  0
ARC
  5
5D9
330
1A
100
AcDbEntity
  8
NOKITOI
  6
PHANTOM
 62
     8
 48
3.5
100
AcDbCircle
 10
284.125131199499
 20
269.885727300059
 30
0.0
 40
1.999986844954076
100
AcDbArc
 50
358.21169271173
 51
89.99963471264475
  0
ARC
  5
5DA
330
1A
100
AcDbEntity
  8
NOKITOI
  6
PHANTOM
 62
     8
 48
3.5
100
AcDbCircle
 10
284.1251394555508
 20
269.8857187824995
 30
0.0
 40
0.7999953624857498
100
AcDbArc
 50
358.20887265358
 51
89.99967808194661
  0
LINE
  5
5DB
330
1A
100
AcDbEntity
  8
NOKITOI
  6
PHANTOM
 62
     8
 48
3.5
100
AcDbLine
 10
284.1251439503492
 20
270.6857141449728
 30
0.0
 11
281.6523439503487
 21
270.6857141449728
 31
0.0
  0
LINE
  5
5DC
330
1A
100
AcDbEntity
  8
NOKITOI
  6
PHANTOM
 62
     8
 48
3.5
100
AcDbLine
 10
281.6523439503487
 20
270.6857141449728
 30
0.0
 11
282.1523439503487
 21
268.1857141449728
 31
0.0
  0
LINE
  5
5DD
330
1A
100
AcDbEntity
  8
SEIHIN
  6
CONTINUOUS
 62
     3
 48
16.0
100
AcDbLine
 10
333.3861335632036
 20
216.1857641449727
 30
0.0
 11
333.3861335632036
 21
273.0857641449728
 31
0.0
  0
LINE
  5
5DE
330
1A
100
AcDbEntity
  8
SEIHIN
  6
CONTINUOUS
 62
     3
 48
16.0
100
AcDbLine
 10
353.3860335632039
 20
215.8857641449727
 30
0.0
 11
353.3860335632039
 21
274.0856641449726
 31
0.0
  0
LINE
  5
5DF
330
1A
100
AcDbEntity
  8
SEIHIN
  6
CONTINUOUS
 62
     3
 48
16.0
100
AcDbLine
 10
348.3861335632036
 20
215.1856641449727
 30
0.0
 11
348.3860335632039
 21
274.0856641449726
 31
0.0
  0
LINE
  5
5E0
330
1A
100
AcDbEntity
  8
SEIHIN
  6
CONTINUOUS
 62
     3
 48
16.0
100
AcDbLine
 10
348.3861335632036
 20
215.1856641449727
 30
0.0
 11
334.3861335632036
 21
215.1856641449727
 31
0.0
  0
ARC
  5
5E1
330
1A
100
AcDbEntity
  8
SEIHIN
  6
CONTINUOUS
 62
     3
 48
16.0
100
AcDbCircle
 10
334.3861335632036
 20
216.1857641449727
 30
0.0
 40
0.9999999999999715
100
AcDbArc
 50
180.0000000000016
 51
270.0000000000016
  0
LINE
  5
5E2
330
1A
100
AcDbEntity
  8
SEIHIN
  6
CONTINUOUS
 62
     3
 48
16.0
100
AcDbLine
 10
353.3861335632038
 20
215.8857641449727
 30
0.0
 11
348.3861335632036
 21
215.1856641449727
 31
0.0
  0
LINE
  5
5E3
330
1A
100
AcDbEntity
  8
SEIHIN
  6
CONTINUOUS
 62
     3
 48
16.0
100
AcDbLine
 10
348.3861335632036
 20
253.1856641449727
 30
0.0
 11
334.3860335632039
 21
253.1857641449727
 31
0.0
  0
LINE
  5
5E4
330
1A
100
AcDbEntity
  8
SEIHIN
  6
CONTINUOUS
 62
     3
 48
16.0
100
AcDbLine
 10
353.3861335632038
 20
274.0856641449726
 30
0.0
 11
334.3861335632036
 21
274.0857641449728
 31
0.0
  0
ARC
  5
5E5
330
1A
100
AcDbEntity
  8
SEIHIN
  6
CONTINUOUS
 62
     3
 48
16.0
100
AcDbCircle
 10
334.3861335632036
 20
273.0857641449728
 30
0.0
 40
1.0
100
AcDbArc
 50
90.0
 51
180.0
  0
ARC
  5
5E6
330
1A
100
AcDbEntity
  8
SEIHIN
  6
CONTINUOUS
 62
     3
 48
16.0
100
AcDbCircle
 10
334.3860335632039
 20
254.1857641449727
 30
0.0
 40
1.0
100
AcDbArc
 50
179.9999999999967
 51
269.9999999999967
  0
LINE
  5
5E7
330
1A
100
AcDbEntity
  8
SEIHIN
  6
CONTINUOUS
 62
     3
 48
16.0
100
AcDbLine
 10
353.3861335632038
 20
253.8857641449727
 30
0.0
 11
348.3861335632036
 21
253.1856641449727
 31
0.0
  0
LINE
  5
5E8
330
1A
100
AcDbEntity
  8
SEIHIN
  6
CONTINUOUS
 62
     3
 48
16.0
100
AcDbLine
 10
279.6394939503489
 20
343.2980641449727
 30
0.0
 11
173.239593950349
 21
343.2980641449727
 31
0.0
  0
LINE
  5
5E9
330
1A
100
AcDbEntity
  8
SEIHIN
  6
CONTINUOUS
 62
     3
 48
16.0
100
AcDbLine
 10
177.2646939503488
 20
351.2980641449727
 30
0.0
 11
275.6382939503489
 21
351.2980641449727
 31
0.0
  0
LINE
  5
5EA
330
1A
100
AcDbEntity
  8
SEIHIN
  6
CONTINUOUS
 62
     3
 48
16.0
100
AcDbLine
 10
165.7905939503491
 20
341.5980641449728
 30
0.0
 11
287.0883939503491
 21
341.5980641449728
 31
0.0
  0
LINE
  5
5EB
330
1A
100
AcDbEntity
  8
SEIHIN
  6
CONTINUOUS
 62
     3
 48
16.0
100
AcDbLine
 10
287.3885939503488
 20
361.5980641449727
 30
0.0
 11
165.490493950349
 21
361.5980641449727
 31
0.0
  0
DIMENSION
  5
5EC
330
1A
100
AcDbEntity
  8
SUNPOU
  6
CONTINUOUS
100
AcDbDimension
  2
*D6
 10
129.1466628013445
 20
341.5980641449728
 30
0.0
 11
124.1466628013444
 21
351.5981141449727
 31
0.0
 70
    32
  3
STANDARD
100
AcDbAlignedDimension
 13
174.8395939503488
 23
361.5981641449726
 33
0.0
 14
174.8395939503488
 24
341.5980641449728
 34
0.0
 50
90.0
100
AcDbRotatedDimension
1001
ACAD
1000
DSTYLE
1002
{
1070
   140
1040
6.0
1070
    74
1070
     0
1070
   172
1070
     1
1070
    73
1070
     0
1070
   272
1070
     2
1070
    77
1070
     3
1070
   173
1070
     1
1070
   147
1040
2.0
1070
    42
1040
6.0
1070
    44
1040
3.0
1070
    43
1040
14.0
1070
   271
1070
     0
1070
   178
1070
     4
1070
   177
1070
     4
1070
   176
1070
     4
1070
   141
1040
150.0
1070
     7
1000
_OPEN
1070
     6
1000
_OPEN
1070
    41
1040
7.0
1002
}
  0
DIMENSION
  5
5ED
330
1A
100
AcDbEntity
  8
SUNPOU
  6
CONTINUOUS
100
AcDbDimension
  2
*D5
 10
144.8150492448285
 20
343.2980641449727
 30
0.0
 11
139.8150492448284
 21
326.8980641449727
 31
0.0
 70
    32
  1
※<>
  3
STANDARD
100
AcDbAlignedDimension
 13
165.490493950349
 23
361.5980641449727
 33
0.0
 14
173.239593950349
 24
343.2980641449727
 34
0.0
 50
90.0
100
AcDbRotatedDimension
1001
ACAD
1000
DSTYLE
1002
{
1070
   140
1040
6.0
1070
    74
1070
     0
1070
   172
1070
     1
1070
    73
1070
     0
1070
   272
1070
     2
1070
    77
1070
     3
1070
   173
1070
     1
1070
   147
1040
2.0
1070
    42
1040
6.0
1070
    44
1040
3.0
1070
    43
1040
14.0
1070
   271
1070
     0
1070
   178
1070
     4
1070
   177
1070
     4
1070
   176
1070
     4
1070
   141
1040
150.0
1070
     7
1000
_OPEN
1070
     6
1000
_OPEN
1070
    41
1040
7.0
1002
}
  0
LINE
  5
5EE
330
1A
100
AcDbEntity
  8
SEIHIN
  6
CONTINUOUS
 62
     3
 48
16.0
100
AcDbLine
 10
164.7905939503489
 20
356.5980641449728
 30
0.0
 11
164.7905939503489
 21
342.5980641449728
 31
0.0
  0
LINE
  5
5EF
330
1A
100
AcDbEntity
  8
SEIHIN
  6
CONTINUOUS
 62
     3
 48
16.0
100
AcDbLine
 10
174.8395939503488
 20
361.5981641449726
 30
0.0
 11
174.8395939503488
 21
343.2981641449728
 31
0.0
  0
LINE
  5
5F0
330
1A
100
AcDbEntity
  8
SEIHIN
  6
CONTINUOUS
 62
     3
 48
16.0
100
AcDbLine
 10
177.2646939503488
 20
351.2980641449727
 30
0.0
 11
177.2646939503488
 21
343.2980641449727
 31
0.0
  0
ARC
  5
5F1
330
1A
100
AcDbEntity
  8
SEIHIN
  6
CONTINUOUS
 62
     3
 48
16.0
100
AcDbCircle
 10
165.7905939503489
 20
342.5980641449728
 30
0.0
 40
1.000000000000085
100
AcDbArc
 50
180.0000000000048
 51
270.0000000000049
  0
LINE
  5
5F2
330
1A
100
AcDbEntity
  8
SEIHIN
  6
CONTINUOUS
 62
     3
 48
16.0
100
AcDbLine
 10
164.7905939503489
 20
356.5980641449728
 30
0.0
 11
165.490493950349
 21
361.5980641449727
 31
0.0
  0
LINE
  5
5F3
330
1A
100
AcDbEntity
  8
SEIHIN
  6
CONTINUOUS
 62
     3
 48
16.0
100
AcDbLine
 10
178.4397939503489
 20
361.5981641449726
 30
0.0
 11
178.439693950349
 21
351.2980641449727
 31
0.0
  0
LINE
  5
5F4
330
1A
100
AcDbEntity
  8
SEIHIN
  6
CONTINUOUS
 62
     3
 48
16.0
100
AcDbLine
 10
189.4397939503489
 20
361.5980641449727
 30
0.0
 11
189.439693950349
 21
351.2980641449727
 31
0.0
  0
LINE
  5
5F5
330
1A
100
AcDbEntity
  8
SEIHIN
  6
CONTINUOUS
 62
     3
 48
16.0
100
AcDbLine
 10
278.0394939503489
 20
361.5980641449727
 30
0.0
 11
278.0394939503489
 21
343.2980641449727
 31
0.0
  0
LINE
  5
5F6
330
1A
100
AcDbEntity
  8
SEIHIN
  6
CONTINUOUS
 62
     3
 48
16.0
100
AcDbLine
 10
275.6382939503489
 20
351.2980641449727
 30
0.0
 11
275.6382939503489
 21
343.2980641449727
 31
0.0
  0
LINE
  5
5F7
330
1A
100
AcDbEntity
  8
SEIHIN
  6
CONTINUOUS
 62
     3
 48
16.0
100
AcDbLine
 10
288.0883939503492
 20
356.5979641449725
 30
0.0
 11
288.0883939503492
 21
342.5980641449728
 31
0.0
  0
ARC
  5
5F8
330
1A
100
AcDbEntity
  8
SEIHIN
  6
CONTINUOUS
 62
     3
 48
16.0
100
AcDbCircle
 10
287.0883939503491
 20
342.5980641449728
 30
0.0
 40
1.0
100
AcDbArc
 50
270.0
 51
0.0
  0
LINE
  5
5F9
330
1A
100
AcDbEntity
  8
SEIHIN
  6
CONTINUOUS
 62
     3
 48
16.0
100
AcDbLine
 10
288.0885939503491
 20
356.5979641449725
 30
0.0
 11
287.3885939503488
 21
361.5979641449726
 31
0.0
  0
LINE
  5
81F
330
1A
100
AcDbEntity
  8
ZUWAKU
100
AcDbLine
 10
208.6466015947312
 20
15.20000012033744
 30
0.0
 11
447.4243642756546
 21
15.20000012033743
 31
0.0
  0
LINE
  5
820
330
1A
100
AcDbEntity
  8
ZUWAKU
100
AcDbLine
 10
208.6466015947312
 20
15.60000012033743
 30
0.0
 11
447.4243642756546
 21
15.60000012033744
 31
0.0
  0
LINE
  5
821
330
1A
100
AcDbEntity
  8
ZUWAKU
100
AcDbLine
 10
208.6466015947312
 20
15.40000012033743
 30
0.0
 11
447.4243642756546
 21
15.40000012033743
 31
0.0
  0
LINE
  5
822
330
1A
100
AcDbEntity
  8
ZUWAKU
100
AcDbLine
 10
0.0000003046632173
 20
30.80000012033741
 30
0.0
 11
797.400000304663
 21
30.80000012033741
 31
0.0
  0
LINE
  5
823
330
1A
100
AcDbEntity
  8
ZUWAKU
100
AcDbLine
 10
0.0000003046632173
 20
30.60000012033741
 30
0.0
 11
797.400000304663
 21
30.60000012033741
 31
0.0
  0
LINE
  5
824
330
1A
100
AcDbEntity
  8
ZUWAKU
100
AcDbLine
 10
0.0000003046632173
 20
30.40000012033741
 30
0.0
 11
797.400000304663
 21
30.40000012033741
 31
0.0
  0
LINE
  5
825
330
1A
100
AcDbEntity
  8
ZUWAKU
100
AcDbLine
 10
0.0000003046632173
 20
30.2000001203374
 30
0.0
 11
797.400000304663
 21
30.2000001203374
 31
0.0
  0
LINE
  5
826
330
1A
100
AcDbEntity
  8
ZUWAKU
100
AcDbLine
 10
0.0000003046632173
 20
30.0000001203374
 30
0.0
 11
797.400000304663
 21
30.0000001203374
 31
0.0
  0
LWPOLYLINE
  5
827
330
1A
100
AcDbEntity
  8
ZUWAKU
100
AcDbPolyline
 90
        4
 70
     1
 43
0.0
 10
0.2000003046631491
 20
551.4000001203375
 10
0.2000003046631491
 20
0.2000001203374495
 10
797.400000304663
 20
0.2000001203374726
 10
797.4000003046633
 20
551.4000001203375
  0
LWPOLYLINE
  5
828
330
1A
100
AcDbEntity
  8
ZUWAKU
100
AcDbPolyline
 90
        4
 70
     1
 43
0.0
 10
0.6000003046631264
 20
551.0000001203374
 10
0.6000003046631264
 20
0.6000001203374268
 10
797.0000003046634
 20
0.600000120337473
 10
797.0000003046632
 20
551.0000001203374
  0
LWPOLYLINE
  5
829
330
1A
100
AcDbEntity
  8
ZUWAKU
100
AcDbPolyline
 90
        4
 70
     1
 43
0.0
 10
0.0000003046632173
 20
551.6000001203374
 10
0.0000003046632173
 20
0.000000120337404
 10
797.6000003046634
 20
0.0000001203374715
 10
797.6000003046634
 20
551.6000001203375
  0
LWPOLYLINE
  5
82A
330
1A
100
AcDbEntity
  8
ZUWAKU
100
AcDbPolyline
 90
        4
 70
     1
 43
0.0
 10
0.4000003046631946
 20
551.2000001203374
 10
0.4000003046631946
 20
0.400000120337495
 10
797.2000003046632
 20
0.4000001203374719
 10
797.2000003046632
 20
551.2000001203374
  0
LWPOLYLINE
  5
82B
330
1A
100
AcDbEntity
  8
ZUWAKU
100
AcDbPolyline
 90
        4
 70
     1
 43
0.0
 10
0.8000003046631718
 20
550.8000001203375
 10
0.8000003046631718
 20
0.8000001203374722
 10
796.8000003046632
 20
0.8000001203374722
 10
796.8000003046632
 20
550.8000001203375
  0
TEXT
  5
82C
330
1A
100
AcDbEntity
  8
MOJI
100
AcDbText
 10
92.95778989283235
 20
12.74117825061216
 30
0.0
 40
6.0
  1
新・丸トップＲＶ１０５
 41
0.9
  7
ｽﾀｲﾙ1
100
AcDbText
  0
HATCH
  5
82D
330
1A
100
AcDbEntity
  8
ZUWAKU
100
AcDbHatch
 10
0.0
 20
0.0
 30
0.0
210
0.0
220
0.0
230
1.0
  2
ANSI37
 70
     0
 71
     0
 91
        8
 92
        7
 72
     1
 73
     1
 93
       24
 10
14.50226296578307
 20
17.64484860132098
 42
-0.1989123673796348
 10
14.09221245944434
 20
18.63479809498203
 42
0.0
 10
14.09221245944434
 20
19.92500012033741
 42
-0.4142135623730912
 10
14.61721245944431
 20
20.4500001203374
 42
0.0
 10
17.59221245944422
 20
20.4500001203374
 42
0.4142135623731546
 10
18.11721245944431
 20
20.97500012033739
 42
0.0
 10
18.11721245944431
 20
22.72500012033741
 42
0.4142135623731586
 10
17.59221245944422
 20
23.25000012033741
 42
0.0
 10
14.09221245944434
 20
23.25000012033741
 42
0.4142135623730928
 10
11.29221245944438
 20
20.45000012033743
 42
0.0
 10
11.29221245944438
 20
18.63479809498216
 42
0.1989123673796619
 10
12.52236397846081
 20
15.66494961399856
 42
0.0
 10
15.43216195310549
 20
12.7551516393539
 42
-0.1989123673796613
 10
15.84221245944434
 20
11.76520214569271
 42
0.0
 10
15.84221245944434
 20
10.47500012033739
 42
-0.4142135623730911
 10
15.31721245944436
 20
9.950000120337406
 42
0.0
 10
12.34221245944445
 20
9.950000120337406
 42
0.4142135623731526
 10
11.81721245944436
 20
9.425000120337418
 42
0.0
 10
11.81721245944436
 20
7.675000120337397
 42
0.4142135623731526
 10
12.34221245944445
 20
7.150000120337409
 42
0.0
 10
15.84221245944434
 20
7.150000120337409
 42
0.4142135623731044
 10
18.6422124594444
 20
9.950000120337385
 42
0.0
 10
18.6422124594444
 20
11.76520214569265
 42
0.1989123673796604
 10
17.41206094042786
 20
14.73505062667619
 42
0.0
 97
        0
 92
        7
 72
     1
 73
     1
 93
       16
 10
23.54221245944438
 20
19.05000012033741
 42
-0.4142135623730935
 10
24.94221245944436
 20
20.4500001203374
 42
0.0
 10
26.86721245944431
 20
20.4500001203374
 42
0.4142135623731546
 10
27.3922124594444
 20
20.97500012033739
 42
0.0
 10
27.3922124594444
 20
22.72500012033741
 42
0.4142135623730951
 10
26.86721245944443
 20
23.25000012033741
 42
0.0
 10
24.94221245944425
 20
23.25000012033736
 42
0.4142135623730892
 10
20.74221245944432
 20
19.05000012033734
 42
0.0
 10
20.74221245944432
 20
11.35000012033743
 42
0.4142135623730969
 10
24.94221245944436
 20
7.150000120337409
 42
0.0
 10
26.86721245944431
 20
7.150000120337409
 42
0.4142135623731526
 10
27.3922124594444
 20
7.675000120337397
 42
0.0
 10
27.3922124594444
 20
9.425000120337418
 42
0.4142135623730891
 10
26.86721245944443
 20
9.950000120337406
 42
0.0
 10
24.94221245944436
 20
9.950000120337406
 42
-0.4142135623730928
 10
23.54221245944438
 20
11.35000012033739
 42
0.0
 97
        0
 92
        7
 72
     1
 73
     1
 93
        2
 10
24.24221245944432
 20
15.2000001203374
 42
1.0
 10
27.74221245944431
 20
15.2000001203374
 42
1.0
 97
        0
 92
        7
 72
     1
 73
     1
 93
       26
 10
37.31485894162233
 20
19.20504731390083
 42
0.0
 10
38.37649857476014
 20
22.56690615217042
 42
0.5069206636600134
 10
37.87586767556479
 20
23.25000012033741
 42
0.0
 10
36.17697829595556
 20
23.25000012033741
 42
0.3272098845218764
 10
35.6763473967602
 20
22.88309408850437
 42
0.0
 10
33.80807752212843
 20
16.96690615217048
 42
-0.3272098845219541
 10
33.30744662293295
 20
16.6000001203374
 42
0.0
 10
33.16721245944449
 20
16.6000001203374
 42
-0.4142135623731526
 10
32.6422124594444
 20
17.12500012033739
 42
0.0
 10
32.6422124594444
 20
22.72500012033741
 42
0.4142135623730951
 10
32.11721245944443
 20
23.25000012033741
 42
0.0
 10
30.36721245944431
 20
23.25000012033741
 42
0.4142135623730871
 10
29.84221245944434
 20
22.72500012033742
 42
0.0
 10
29.84221245944434
 20
7.675000120337397
 42
0.4142135623730891
 10
30.36721245944431
 20
7.150000120337409
 42
0.0
 10
32.11721245944431
 20
7.150000120337409
 42
0.4142135623731526
 10
32.6422124594444
 20
7.675000120337397
 42
0.0
 10
32.6422124594444
 20
13.27500012033742
 42
-0.4142135623731526
 10
33.16721245944449
 20
13.80000012033741
 42
0.0
 10
33.30744662293307
 20
13.80000012033741
 42
-0.3272098845218915
 10
33.80807752212843
 20
13.43309408850433
 42
0.0
 10
35.6763473967602
 20
7.516906152170481
 42
0.3272098845218902
 10
36.17697829595556
 20
7.150000120337409
 42
0.0
 10
37.87586767556479
 20
7.150000120337409
 42
0.5069206636600335
 10
38.37649857476014
 20
7.833094088504417
 42
0.0
 10
36.05010719628649
 20
15.20000012033754
 42
0.0
 97
        0
 92
        7
 72
     1
 73
     1
 93
        8
 10
43.49221245944431
 20
22.72500012033741
 42
0.4142135623731546
 10
42.96721245944422
 20
23.25000012033741
 42
0.0
 10
41.21721245944445
 20
23.25000012033741
 42
0.4142135623731507
 10
40.69221245944436
 20
22.72500012033742
 42
0.0
 10
40.69221245944436
 20
7.675000120337397
 42
0.4142135623731526
 10
41.21721245944445
 20
7.150000120337409
 42
0.0
 10
42.96721245944422
 20
7.150000120337409
 42
0.4142135623731526
 10
43.49221245944431
 20
7.675000120337397
 42
0.0
 97
        0
 92
        7
 72
     1
 73
     1
 93
       24
 10
48.39221245944441
 20
19.92500012033741
 42
-0.4142135623731546
 10
48.9172124594445
 20
20.4500001203374
 42
0.0
 10
51.89221245944441
 20
20.4500001203374
 42
0.4142135623730911
 10
52.41721245944439
 20
20.97500012033739
 42
0.0
 10
52.41721245944439
 20
22.72500012033741
 42
0.4142135623730952
 10
51.89221245944441
 20
23.25000012033741
 42
0.0
 10
48.39221245944441
 20
23.25000012033741
 42
0.4142135623731048
 10
45.59221245944434
 20
20.45000012033743
 42
0.0
 10
45.59221245944434
 20
18.63479809498216
 42
0.1989123673796613
 10
46.82236397846089
 20
15.66494961399861
 42
0.0
 10
49.73216195310556
 20
12.75515163935394
 42
-0.1989123673796402
 10
50.1422124594444
 20
11.76520214569287
 42
0.0
 10
50.1422124594444
 20
10.47500012033739
 42
-0.4142135623730911
 10
49.61721245944443
 20
9.950000120337406
 42
0.0
 10
46.64221245944441
 20
9.950000120337406
 42
0.4142135623731526
 10
46.11721245944432
 20
9.425000120337418
 42
0.0
 10
46.11721245944432
 20
7.675000120337397
 42
0.4142135623730891
 10
46.64221245944429
 20
7.150000120337409
 42
0.0
 10
50.1422124594444
 20
7.150000120337409
 42
0.4142135623730925
 10
52.94221245944436
 20
9.950000120337385
 42
0.0
 10
52.94221245944436
 20
11.76520214569265
 42
0.1989123673796675
 10
51.71206094042782
 20
14.73505062667631
 42
0.0
 10
48.80226296578325
 20
17.64484860132082
 42
-0.1989123673796652
 10
48.39221245944441
 20
18.63479809498199
 42
0.0
 97
        0
 92
        7
 72
     1
 73
     1
 93
       16
 10
57.84221245944434
 20
22.72500012033739
 42
0.414213562373103
 10
57.31721245944436
 20
23.25000012033741
 42
0.0
 10
55.56721245944436
 20
23.25000012033741
 42
0.4142135623730871
 10
55.04221245944439
 20
22.72500012033742
 42
0.0
 10
55.04221245944439
 20
9.950000120337385
 42
0.4142135623730926
 10
57.84221245944434
 20
7.150000120337409
 42
0.0
 10
61.34221245944434
 20
7.150000120337409
 42
0.4142135623731044
 10
64.14221245944441
 20
9.950000120337385
 42
0.0
 10
64.14221245944441
 20
22.72500012033741
 42
0.4142135623730951
 10
63.61721245944443
 20
23.25000012033741
 42
0.0
 10
61.86721245944432
 20
23.25000012033741
 42
0.4142135623730871
 10
61.34221245944434
 20
22.72500012033742
 42
0.0
 10
61.34221245944434
 20
11.00000012033738
 42
-0.414213562373088
 10
60.29221245944438
 20
9.950000120337406
 42
0.0
 10
58.8922124594444
 20
9.950000120337406
 42
-0.4142135623731197
 10
57.84221245944434
 20
11.00000012033738
 42
0.0
 97
        0
 92
        7
 72
     1
 73
     1
 93
        8
 10
69.04221245944438
 20
22.72500012033742
 42
0.4142135623730871
 10
68.51721245944441
 20
23.25000012033741
 42
0.0
 10
66.76721245944441
 20
23.25000012033741
 42
0.4142135623731507
 10
66.24221245944432
 20
22.72500012033742
 42
0.0
 10
66.24221245944432
 20
7.675000120337397
 42
0.4142135623730891
 10
66.76721245944429
 20
7.150000120337409
 42
0.0
 10
68.51721245944441
 20
7.150000120337409
 42
0.4142135623730891
 10
69.04221245944438
 20
7.675000120337397
 42
0.0
 97
        0
 75
     0
 76
     1
 52
0.0
 41
0.2
 77
     0
 78
     2
 53
45.0
 43
-900.9423040300157
 44
-13.19999987966252
 45
-0.4490128060534576
 46
0.4490128060534577
 79
     0
 53
135.0
 43
-900.9423040300157
 44
-13.19999987966252
 45
-0.4490128060534577
 46
-0.4490128060534576
 79
     0
 47
0.057451373970553
 98
        8
 10
16.07985526768652
 20
15.16717376622295
 10
22.40451531110238
 20
18.84406230278841
 10
25.16436819032287
 20
15.51188176640812
 10
30.91406028630035
 20
16.2012977667789
 10
41.83847232361995
 20
16.66091003432052
 10
46.89820119979276
 20
19.41857643674461
 10
56.55768627706357
 20
18.72915803543241
 10
67.82707992428595
 20
19.18877030297403
  0
LINE
  5
82E
330
1A
100
AcDbEntity
  8
ZUWAKU
100
AcDbLine
 10
24.94221245944436
 20
23.25000012033736
 30
0.0
 11
26.86721245944431
 21
23.25000012033741
 31
0.0
  0
LINE
  5
82F
330
1A
100
AcDbEntity
  8
ZUWAKU
100
AcDbLine
 10
26.86721245944431
 20
20.4500001203374
 30
0.0
 11
24.94221245944436
 21
20.4500001203374
 31
0.0
  0
LINE
  5
830
330
1A
100
AcDbEntity
  8
ZUWAKU
100
AcDbLine
 10
24.94221245944436
 20
9.950000120337406
 30
0.0
 11
26.86721245944431
 21
9.950000120337406
 31
0.0
  0
LINE
  5
831
330
1A
100
AcDbEntity
  8
ZUWAKU
100
AcDbLine
 10
26.86721245944431
 20
7.150000120337409
 30
0.0
 11
24.94221245944436
 21
7.150000120337409
 31
0.0
  0
CIRCLE
  5
832
330
1A
100
AcDbEntity
  8
ZUWAKU
100
AcDbCircle
 10
25.99221245944431
 20
15.2000001203374
 30
0.0
 40
1.75
  0
ARC
  5
833
330
1A
100
AcDbEntity
  8
ZUWAKU
100
AcDbCircle
 10
15.49221245944431
 20
18.6347980949821
 30
0.0
 40
1.399999999999999
100
AcDbArc
 50
180.0000000000016
 51
224.9999999999988
  0
LINE
  5
834
330
1A
100
AcDbEntity
  8
ZUWAKU
100
AcDbLine
 10
23.54221245944438
 20
19.0500001203374
 30
0.0
 11
23.54221245944438
 21
11.35000012033741
 31
0.0
  0
LINE
  5
835
330
1A
100
AcDbEntity
  8
ZUWAKU
100
AcDbLine
 10
20.74221245944432
 20
11.35000012033741
 30
0.0
 11
20.74221245944432
 21
19.05000012033736
 31
0.0
  0
ARC
  5
836
330
1A
100
AcDbEntity
  8
ZUWAKU
100
AcDbCircle
 10
15.49221245944431
 20
18.6347980949821
 30
0.0
 40
4.199999999999999
100
AcDbArc
 50
180.0
 51
225.0
  0
ARC
  5
837
330
1A
100
AcDbEntity
  8
ZUWAKU
100
AcDbCircle
 10
15.84221245944434
 20
9.950000120337406
 30
0.0
 40
2.799999999999999
100
AcDbArc
 50
270.0
 51
0.0
  0
ARC
  5
838
330
1A
100
AcDbEntity
  8
ZUWAKU
100
AcDbCircle
 10
24.94221245944436
 20
11.35000012033741
 30
0.0
 40
4.199999999999999
100
AcDbArc
 50
180.0
 51
270.0
  0
ARC
  5
839
330
1A
100
AcDbEntity
  8
ZUWAKU
100
AcDbCircle
 10
14.44221245944436
 20
11.76520214569271
 30
0.0
 40
4.199999999999999
100
AcDbArc
 50
0.0
 51
45.0
  0
LINE
  5
83A
330
1A
100
AcDbEntity
  8
ZUWAKU
100
AcDbLine
 10
17.41206094042786
 20
14.73505062667623
 30
0.0
 11
14.50226296578319
 21
17.64484860132091
 31
0.0
  0
LINE
  5
83B
330
1A
100
AcDbEntity
  8
ZUWAKU
100
AcDbLine
 10
15.84221245944434
 20
10.47500012033741
 30
0.0
 11
15.84221245944434
 21
11.76520214569275
 31
0.0
  0
ARC
  5
83C
330
1A
100
AcDbEntity
  8
ZUWAKU
100
AcDbCircle
 10
15.31721245944436
 20
10.47500012033741
 30
0.0
 40
0.525
100
AcDbArc
 50
270.0
 51
0.0
  0
ARC
  5
83D
330
1A
100
AcDbEntity
  8
ZUWAKU
100
AcDbCircle
 10
14.44221245944436
 20
11.76520214569275
 30
0.0
 40
1.399999999999999
100
AcDbArc
 50
0.0
 51
45.0
  0
LINE
  5
83E
330
1A
100
AcDbEntity
  8
ZUWAKU
100
AcDbLine
 10
11.81721245944436
 20
7.675000120337408
 30
0.0
 11
11.81721245944436
 21
9.425000120337408
 31
0.0
  0
ARC
  5
83F
330
1A
100
AcDbEntity
  8
ZUWAKU
100
AcDbCircle
 10
12.34221245944434
 20
7.675000120337408
 30
0.0
 40
0.525
100
AcDbArc
 50
180.0
 51
270.0
  0
ARC
  5
840
330
1A
100
AcDbEntity
  8
ZUWAKU
100
AcDbCircle
 10
12.34221245944434
 20
9.425000120337408
 30
0.0
 40
0.525
100
AcDbArc
 50
90.0
 51
180.0
  0
LINE
  5
841
330
1A
100
AcDbEntity
  8
ZUWAKU
100
AcDbLine
 10
12.34221245944434
 20
7.150000120337409
 30
0.0
 11
15.84221245944434
 21
7.150000120337409
 31
0.0
  0
LINE
  5
842
330
1A
100
AcDbEntity
  8
ZUWAKU
100
AcDbLine
 10
12.34221245944434
 20
9.950000120337406
 30
0.0
 11
15.31721245944436
 21
9.950000120337406
 31
0.0
  0
LINE
  5
843
330
1A
100
AcDbEntity
  8
ZUWAKU
100
AcDbLine
 10
12.52236397846081
 20
15.66494961399858
 30
0.0
 11
15.43216195310549
 21
12.75515163935392
 31
0.0
  0
LINE
  5
844
330
1A
100
AcDbEntity
  8
ZUWAKU
100
AcDbLine
 10
18.6422124594444
 20
9.950000120337406
 30
0.0
 11
18.6422124594444
 21
11.76520214569275
 31
0.0
  0
ARC
  5
845
330
1A
100
AcDbEntity
  8
ZUWAKU
100
AcDbCircle
 10
24.94221245944436
 20
11.35000012033741
 30
0.0
 40
1.399999999999999
100
AcDbArc
 50
180.0
 51
270.0
  0
ARC
  5
846
330
1A
100
AcDbEntity
  8
ZUWAKU
100
AcDbCircle
 10
17.59221245944434
 20
22.7250001203374
 30
0.0
 40
0.525
100
AcDbArc
 50
0.0
 51
90.0
  0
ARC
  5
847
330
1A
100
AcDbEntity
  8
ZUWAKU
100
AcDbCircle
 10
17.59221245944434
 20
20.9750001203374
 30
0.0
 40
0.525
100
AcDbArc
 50
270.0
 51
0.0
  0
LINE
  5
848
330
1A
100
AcDbEntity
  8
ZUWAKU
100
AcDbLine
 10
14.09221245944434
 20
23.25000012033741
 30
0.0
 11
17.59221245944434
 21
23.25000012033741
 31
0.0
  0
ARC
  5
849
330
1A
100
AcDbEntity
  8
ZUWAKU
100
AcDbCircle
 10
14.61721245944431
 20
19.9250001203374
 30
0.0
 40
0.525
100
AcDbArc
 50
90.0
 51
180.0
  0
LINE
  5
84A
330
1A
100
AcDbEntity
  8
ZUWAKU
100
AcDbLine
 10
14.09221245944434
 20
19.9250001203374
 30
0.0
 11
14.09221245944434
 21
18.63479809498206
 31
0.0
  0
LINE
  5
84B
330
1A
100
AcDbEntity
  8
ZUWAKU
100
AcDbLine
 10
17.59221245944434
 20
20.4500001203374
 30
0.0
 11
14.61721245944431
 21
20.4500001203374
 31
0.0
  0
LINE
  5
84C
330
1A
100
AcDbEntity
  8
ZUWAKU
100
AcDbLine
 10
11.29221245944438
 20
20.4500001203374
 30
0.0
 11
11.29221245944438
 21
18.63479809498206
 31
0.0
  0
ARC
  5
84D
330
1A
100
AcDbEntity
  8
ZUWAKU
100
AcDbCircle
 10
14.09221245944434
 20
20.4500001203374
 30
0.0
 40
2.799999999999999
100
AcDbArc
 50
90.0
 51
180.0
  0
LINE
  5
84E
330
1A
100
AcDbEntity
  8
ZUWAKU
100
AcDbLine
 10
18.11721245944431
 20
22.7250001203374
 30
0.0
 11
18.11721245944431
 21
20.9750001203374
 31
0.0
  0
ARC
  5
84F
330
1A
100
AcDbEntity
  8
ZUWAKU
100
AcDbCircle
 10
24.94221245944436
 20
19.0500001203374
 30
0.0
 40
1.399999999999999
100
AcDbArc
 50
90.0
 51
180.0
  0
ARC
  5
850
330
1A
100
AcDbEntity
  8
ZUWAKU
100
AcDbCircle
 10
24.94221245944436
 20
19.05000012033736
 30
0.0
 40
4.199999999999999
100
AcDbArc
 50
90.0
 51
180.0
  0
LINE
  5
851
330
1A
100
AcDbEntity
  8
ZUWAKU
100
AcDbLine
 10
79.32662985265142
 20
30.0000001203374
 30
0.0
 11
79.32662985265165
 21
0.8000001203374722
 31
0.0
  0
LINE
  5
852
330
1A
100
AcDbEntity
  8
ZUWAKU
100
AcDbLine
 10
79.52662985265146
 20
30.0000001203374
 30
0.0
 11
79.5266298526517
 21
0.8000001203374722
 31
0.0
  0
LINE
  5
853
330
1A
100
AcDbEntity
  8
ZUWAKU
100
AcDbLine
 10
79.12662985265161
 20
30.0000001203374
 30
0.0
 11
79.12662985265161
 21
0.8000001203374722
 31
0.0
  0
LINE
  5
854
330
1A
100
AcDbEntity
  8
ZUWAKU
100
AcDbLine
 10
64.14221245944441
 20
9.950000120337406
 30
0.0
 11
64.14221245944441
 21
22.7250001203374
 31
0.0
  0
LINE
  5
855
330
1A
100
AcDbEntity
  8
ZUWAKU
100
AcDbLine
 10
61.34221245944434
 20
22.7250001203374
 30
0.0
 11
61.34221245944434
 21
11.0000001203374
 31
0.0
  0
LINE
  5
856
330
1A
100
AcDbEntity
  8
ZUWAKU
100
AcDbLine
 10
69.04221245944438
 20
7.675000120337408
 30
0.0
 11
69.04221245944438
 21
22.7250001203374
 31
0.0
  0
LINE
  5
857
330
1A
100
AcDbEntity
  8
ZUWAKU
100
AcDbLine
 10
66.24221245944432
 20
22.7250001203374
 30
0.0
 11
66.24221245944432
 21
7.675000120337408
 31
0.0
  0
ARC
  5
858
330
1A
100
AcDbEntity
  8
ZUWAKU
100
AcDbCircle
 10
49.79221245944438
 20
18.6347980949821
 30
0.0
 40
1.399999999999999
100
AcDbArc
 50
180.0000000000016
 51
224.9999999999988
  0
ARC
  5
859
330
1A
100
AcDbEntity
  8
ZUWAKU
100
AcDbCircle
 10
49.79221245944438
 20
18.6347980949821
 30
0.0
 40
4.199999999999999
100
AcDbArc
 50
180.0
 51
225.0
  0
LINE
  5
85A
330
1A
100
AcDbEntity
  8
ZUWAKU
100
AcDbLine
 10
37.31485894162233
 20
19.20504731390083
 30
0.0
 11
36.05010719628649
 21
15.20000012033742
 31
0.0
  0
LINE
  5
85B
330
1A
100
AcDbEntity
  8
ZUWAKU
100
AcDbLine
 10
40.69221245944436
 20
22.7250001203374
 30
0.0
 11
40.69221245944436
 21
7.675000120337408
 31
0.0
  0
LINE
  5
85C
330
1A
100
AcDbEntity
  8
ZUWAKU
100
AcDbLine
 10
43.49221245944431
 20
7.675000120337408
 30
0.0
 11
43.49221245944431
 21
22.7250001203374
 31
0.0
  0
LINE
  5
85D
330
1A
100
AcDbEntity
  8
ZUWAKU
100
AcDbLine
 10
55.04221245944439
 20
22.7250001203374
 30
0.0
 11
55.04221245944439
 21
9.950000120337406
 31
0.0
  0
LINE
  5
85E
330
1A
100
AcDbEntity
  8
ZUWAKU
100
AcDbLine
 10
57.84221245944434
 20
11.0000001203374
 30
0.0
 11
57.84221245944434
 21
22.7250001203374
 31
0.0
  0
LINE
  5
85F
330
1A
100
AcDbEntity
  8
ZUWAKU
100
AcDbLine
 10
32.6422124594444
 20
17.12500012033741
 30
0.0
 11
32.6422124594444
 21
22.7250001203374
 31
0.0
  0
LINE
  5
860
330
1A
100
AcDbEntity
  8
ZUWAKU
100
AcDbLine
 10
29.84221245944434
 20
22.7250001203374
 30
0.0
 11
29.84221245944434
 21
7.675000120337408
 31
0.0
  0
LINE
  5
861
330
1A
100
AcDbEntity
  8
ZUWAKU
100
AcDbLine
 10
35.6763473967602
 20
22.88309408850437
 30
0.0
 11
33.80807752212843
 21
16.96690615217043
 31
0.0
  0
LINE
  5
862
330
1A
100
AcDbEntity
  8
ZUWAKU
100
AcDbLine
 10
60.29221245944438
 20
9.950000120337406
 30
0.0
 11
58.8922124594444
 21
9.950000120337406
 31
0.0
  0
LINE
  5
863
330
1A
100
AcDbEntity
  8
ZUWAKU
100
AcDbLine
 10
57.84221245944434
 20
7.150000120337409
 30
0.0
 11
61.34221245944434
 21
7.150000120337409
 31
0.0
  0
LINE
  5
864
330
1A
100
AcDbEntity
  8
ZUWAKU
100
AcDbLine
 10
41.21721245944434
 20
7.150000120337409
 30
0.0
 11
42.96721245944434
 21
7.150000120337409
 31
0.0
  0
LINE
  5
865
330
1A
100
AcDbEntity
  8
ZUWAKU
100
AcDbLine
 10
35.6763473967602
 20
7.516906152170435
 30
0.0
 11
33.80807752212843
 21
13.43309408850437
 31
0.0
  0
ARC
  5
866
330
1A
100
AcDbEntity
  8
ZUWAKU
100
AcDbCircle
 10
33.30744662293307
 20
17.12500012033741
 30
0.0
 40
0.525
100
AcDbArc
 50
270.0
 51
342.4744316262769
  0
LINE
  5
867
330
1A
100
AcDbEntity
  8
ZUWAKU
100
AcDbLine
 10
33.30744662293307
 20
16.6000001203374
 30
0.0
 11
33.16721245944438
 21
16.6000001203374
 31
0.0
  0
LINE
  5
868
330
1A
100
AcDbEntity
  8
ZUWAKU
100
AcDbLine
 10
33.16721245944438
 20
13.80000012033741
 30
0.0
 11
33.30744662293307
 21
13.80000012033741
 31
0.0
  0
ARC
  5
869
330
1A
100
AcDbEntity
  8
ZUWAKU
100
AcDbCircle
 10
33.16721245944438
 20
17.12500012033741
 30
0.0
 40
0.525
100
AcDbArc
 50
180.0
 51
270.0
  0
LINE
  5
86A
330
1A
100
AcDbEntity
  8
ZUWAKU
100
AcDbLine
 10
30.36721245944431
 20
7.150000120337409
 30
0.0
 11
32.11721245944431
 21
7.150000120337409
 31
0.0
  0
ARC
  5
86B
330
1A
100
AcDbEntity
  8
ZUWAKU
100
AcDbCircle
 10
32.11721245944431
 20
7.675000120337408
 30
0.0
 40
0.525
100
AcDbArc
 50
270.0
 51
0.0
  0
LINE
  5
86C
330
1A
100
AcDbEntity
  8
ZUWAKU
100
AcDbLine
 10
32.6422124594444
 20
7.675000120337408
 30
0.0
 11
32.6422124594444
 21
13.27500012033741
 31
0.0
  0
LINE
  5
86D
330
1A
100
AcDbEntity
  8
ZUWAKU
100
AcDbLine
 10
27.3922124594444
 20
9.425000120337408
 30
0.0
 11
27.3922124594444
 21
7.675000120337408
 31
0.0
  0
ARC
  5
86E
330
1A
100
AcDbEntity
  8
ZUWAKU
100
AcDbCircle
 10
26.86721245944431
 20
7.675000120337408
 30
0.0
 40
0.525
100
AcDbArc
 50
270.0
 51
0.0
  0
ARC
  5
86F
330
1A
100
AcDbEntity
  8
ZUWAKU
100
AcDbCircle
 10
26.86721245944431
 20
9.425000120337408
 30
0.0
 40
0.525
100
AcDbArc
 50
0.0
 51
90.0
  0
ARC
  5
870
330
1A
100
AcDbEntity
  8
ZUWAKU
100
AcDbCircle
 10
30.36721245944431
 20
7.675000120337408
 30
0.0
 40
0.525
100
AcDbArc
 50
180.0
 51
270.0
  0
ARC
  5
871
330
1A
100
AcDbEntity
  8
ZUWAKU
100
AcDbCircle
 10
33.30744662293307
 20
13.27500012033741
 30
0.0
 40
0.525
100
AcDbArc
 50
17.52556837372303
 51
90.0
  0
ARC
  5
872
330
1A
100
AcDbEntity
  8
ZUWAKU
100
AcDbCircle
 10
33.16721245944438
 20
13.27500012033741
 30
0.0
 40
0.525
100
AcDbArc
 50
90.0
 51
180.0
  0
ARC
  5
873
330
1A
100
AcDbEntity
  8
ZUWAKU
100
AcDbCircle
 10
41.21721245944434
 20
7.675000120337408
 30
0.0
 40
0.525
100
AcDbArc
 50
180.0
 51
270.0
  0
LINE
  5
874
330
1A
100
AcDbEntity
  8
ZUWAKU
100
AcDbLine
 10
36.17697829595567
 20
7.150000120337409
 30
0.0
 11
37.87586767556467
 21
7.150000120337409
 31
0.0
  0
ARC
  5
875
330
1A
100
AcDbEntity
  8
ZUWAKU
100
AcDbCircle
 10
37.87586767556467
 20
7.675000120337408
 30
0.0
 40
0.525
100
AcDbArc
 50
270.0
 51
17.52556837372303
  0
LINE
  5
876
330
1A
100
AcDbEntity
  8
ZUWAKU
100
AcDbLine
 10
38.37649857476014
 20
7.833094088504381
 30
0.0
 11
36.05010719628649
 21
15.20000012033742
 31
0.0
  0
ARC
  5
877
330
1A
100
AcDbEntity
  8
ZUWAKU
100
AcDbCircle
 10
36.17697829595567
 20
7.675000120337408
 30
0.0
 40
0.525
100
AcDbArc
 50
197.525568373723
 51
270.0
  0
ARC
  5
878
330
1A
100
AcDbEntity
  8
ZUWAKU
100
AcDbCircle
 10
57.84221245944434
 20
9.950000120337406
 30
0.0
 40
2.799999999999999
100
AcDbArc
 50
180.0
 51
270.0
  0
ARC
  5
879
330
1A
100
AcDbEntity
  8
ZUWAKU
100
AcDbCircle
 10
50.1422124594444
 20
9.950000120337406
 30
0.0
 40
2.799999999999999
100
AcDbArc
 50
270.0
 51
0.0
  0
LINE
  5
87A
330
1A
100
AcDbEntity
  8
ZUWAKU
100
AcDbLine
 10
51.71206094042793
 20
14.73505062667623
 30
0.0
 11
48.80226296578314
 21
17.64484860132091
 31
0.0
  0
LINE
  5
87B
330
1A
100
AcDbEntity
  8
ZUWAKU
100
AcDbLine
 10
50.1422124594444
 20
10.47500012033741
 30
0.0
 11
50.1422124594444
 21
11.76520214569275
 31
0.0
  0
ARC
  5
87C
330
1A
100
AcDbEntity
  8
ZUWAKU
100
AcDbCircle
 10
48.74221245944432
 20
11.76520214569275
 30
0.0
 40
1.399999999999999
100
AcDbArc
 50
0.0
 51
45.0
  0
ARC
  5
87D
330
1A
100
AcDbEntity
  8
ZUWAKU
100
AcDbCircle
 10
49.61721245944431
 20
10.47500012033741
 30
0.0
 40
0.525
100
AcDbArc
 50
270.0
 51
0.0
  0
LINE
  5
87E
330
1A
100
AcDbEntity
  8
ZUWAKU
100
AcDbLine
 10
46.11721245944432
 20
7.675000120337408
 30
0.0
 11
46.11721245944432
 21
9.425000120337408
 31
0.0
  0
ARC
  5
87F
330
1A
100
AcDbEntity
  8
ZUWAKU
100
AcDbCircle
 10
46.64221245944441
 20
7.675000120337408
 30
0.0
 40
0.525
100
AcDbArc
 50
180.0
 51
270.0
  0
ARC
  5
880
330
1A
100
AcDbEntity
  8
ZUWAKU
100
AcDbCircle
 10
42.96721245944434
 20
7.675000120337408
 30
0.0
 40
0.525
100
AcDbArc
 50
270.0
 51
0.0
  0
ARC
  5
881
330
1A
100
AcDbEntity
  8
ZUWAKU
100
AcDbCircle
 10
46.64221245944441
 20
9.425000120337408
 30
0.0
 40
0.525
100
AcDbArc
 50
90.0
 51
180.0
  0
LINE
  5
882
330
1A
100
AcDbEntity
  8
ZUWAKU
100
AcDbLine
 10
46.64221245944441
 20
9.950000120337406
 30
0.0
 11
49.61721245944431
 21
9.950000120337406
 31
0.0
  0
LINE
  5
883
330
1A
100
AcDbEntity
  8
ZUWAKU
100
AcDbLine
 10
46.64221245944441
 20
7.150000120337409
 30
0.0
 11
50.1422124594444
 21
7.150000120337409
 31
0.0
  0
LINE
  5
884
330
1A
100
AcDbEntity
  8
ZUWAKU
100
AcDbLine
 10
46.82236397846089
 20
15.66494961399858
 30
0.0
 11
49.73216195310556
 21
12.75515163935392
 31
0.0
  0
LINE
  5
885
330
1A
100
AcDbEntity
  8
ZUWAKU
100
AcDbLine
 10
52.94221245944436
 20
9.950000120337406
 30
0.0
 11
52.94221245944436
 21
11.76520214569275
 31
0.0
  0
ARC
  5
886
330
1A
100
AcDbEntity
  8
ZUWAKU
100
AcDbCircle
 10
48.74221245944432
 20
11.76520214569271
 30
0.0
 40
4.199999999999999
100
AcDbArc
 50
0.0
 51
45.0
  0
ARC
  5
887
330
1A
100
AcDbEntity
  8
ZUWAKU
100
AcDbCircle
 10
58.8922124594444
 20
11.0000001203374
 30
0.0
 40
1.049999999999999
100
AcDbArc
 50
180.0
 51
270.0
  0
ARC
  5
888
330
1A
100
AcDbEntity
  8
ZUWAKU
100
AcDbCircle
 10
61.34221245944434
 20
9.950000120337406
 30
0.0
 40
2.799999999999999
100
AcDbArc
 50
270.0
 51
0.0
  0
LINE
  5
889
330
1A
100
AcDbEntity
  8
ZUWAKU
100
AcDbLine
 10
66.76721245944441
 20
7.150000120337409
 30
0.0
 11
68.51721245944441
 21
7.150000120337409
 31
0.0
  0
ARC
  5
88A
330
1A
100
AcDbEntity
  8
ZUWAKU
100
AcDbCircle
 10
66.76721245944441
 20
7.675000120337408
 30
0.0
 40
0.525
100
AcDbArc
 50
180.0
 51
270.0
  0
ARC
  5
88B
330
1A
100
AcDbEntity
  8
ZUWAKU
100
AcDbCircle
 10
60.29221245944438
 20
11.0000001203374
 30
0.0
 40
1.049999999999999
100
AcDbArc
 50
270.0
 51
0.0
  0
ARC
  5
88C
330
1A
100
AcDbEntity
  8
ZUWAKU
100
AcDbCircle
 10
68.51721245944441
 20
7.675000120337408
 30
0.0
 40
0.525
100
AcDbArc
 50
270.0
 51
0.0
  0
LINE
  5
88D
330
1A
100
AcDbEntity
  8
ZUWAKU
100
AcDbLine
 10
42.96721245944434
 20
23.25000012033741
 30
0.0
 11
41.21721245944434
 21
23.25000012033741
 31
0.0
  0
ARC
  5
88E
330
1A
100
AcDbEntity
  8
ZUWAKU
100
AcDbCircle
 10
32.11721245944431
 20
22.7250001203374
 30
0.0
 40
0.525
100
AcDbArc
 50
0.0
 51
90.0
  0
LINE
  5
88F
330
1A
100
AcDbEntity
  8
ZUWAKU
100
AcDbLine
 10
32.11721245944431
 20
23.25000012033741
 30
0.0
 11
30.36721245944431
 21
23.25000012033741
 31
0.0
  0
ARC
  5
890
330
1A
100
AcDbEntity
  8
ZUWAKU
100
AcDbCircle
 10
26.86721245944431
 20
22.7250001203374
 30
0.0
 40
0.525
100
AcDbArc
 50
0.0
 51
90.0
  0
ARC
  5
891
330
1A
100
AcDbEntity
  8
ZUWAKU
100
AcDbCircle
 10
30.36721245944431
 20
22.7250001203374
 30
0.0
 40
0.525
100
AcDbArc
 50
90.0
 51
180.0
  0
ARC
  5
892
330
1A
100
AcDbEntity
  8
ZUWAKU
100
AcDbCircle
 10
26.86721245944431
 20
20.9750001203374
 30
0.0
 40
0.525
100
AcDbArc
 50
270.0
 51
0.0
  0
LINE
  5
893
330
1A
100
AcDbEntity
  8
ZUWAKU
100
AcDbLine
 10
27.3922124594444
 20
22.7250001203374
 30
0.0
 11
27.3922124594444
 21
20.9750001203374
 31
0.0
  0
ARC
  5
894
330
1A
100
AcDbEntity
  8
ZUWAKU
100
AcDbCircle
 10
41.21721245944434
 20
22.7250001203374
 30
0.0
 40
0.525
100
AcDbArc
 50
90.0
 51
180.0
  0
LINE
  5
895
330
1A
100
AcDbEntity
  8
ZUWAKU
100
AcDbLine
 10
36.17697829595567
 20
23.25000012033741
 30
0.0
 11
37.87586767556467
 21
23.25000012033741
 31
0.0
  0
ARC
  5
896
330
1A
100
AcDbEntity
  8
ZUWAKU
100
AcDbCircle
 10
37.87586767556467
 20
22.7250001203374
 30
0.0
 40
0.525
100
AcDbArc
 50
342.4744316262769
 51
90.0
  0
LINE
  5
897
330
1A
100
AcDbEntity
  8
ZUWAKU
100
AcDbLine
 10
38.37649857476014
 20
22.56690615217043
 30
0.0
 11
37.31485894162233
 21
19.20504731390083
 31
0.0
  0
ARC
  5
898
330
1A
100
AcDbEntity
  8
ZUWAKU
100
AcDbCircle
 10
36.17697829595567
 20
22.7250001203374
 30
0.0
 40
0.525
100
AcDbArc
 50
90.0
 51
162.4744316262769
  0
LINE
  5
899
330
1A
100
AcDbEntity
  8
ZUWAKU
100
AcDbLine
 10
48.39221245944441
 20
23.25000012033741
 30
0.0
 11
51.89221245944441
 21
23.25000012033741
 31
0.0
  0
LINE
  5
89A
330
1A
100
AcDbEntity
  8
ZUWAKU
100
AcDbLine
 10
51.89221245944441
 20
20.4500001203374
 30
0.0
 11
48.91721245944438
 21
20.4500001203374
 31
0.0
  0
ARC
  5
89B
330
1A
100
AcDbEntity
  8
ZUWAKU
100
AcDbCircle
 10
48.91721245944438
 20
19.9250001203374
 30
0.0
 40
0.525
100
AcDbArc
 50
90.0
 51
180.0
  0
LINE
  5
89C
330
1A
100
AcDbEntity
  8
ZUWAKU
100
AcDbLine
 10
48.39221245944441
 20
19.9250001203374
 30
0.0
 11
48.39221245944441
 21
18.63479809498206
 31
0.0
  0
ARC
  5
89D
330
1A
100
AcDbEntity
  8
ZUWAKU
100
AcDbCircle
 10
42.96721245944434
 20
22.7250001203374
 30
0.0
 40
0.525
100
AcDbArc
 50
0.0
 51
90.0
  0
LINE
  5
89E
330
1A
100
AcDbEntity
  8
ZUWAKU
100
AcDbLine
 10
45.59221245944434
 20
20.4500001203374
 30
0.0
 11
45.59221245944434
 21
18.63479809498206
 31
0.0
  0
ARC
  5
89F
330
1A
100
AcDbEntity
  8
ZUWAKU
100
AcDbCircle
 10
48.39221245944441
 20
20.4500001203374
 30
0.0
 40
2.799999999999999
100
AcDbArc
 50
90.0
 51
180.0
  0
ARC
  5
8A0
330
1A
100
AcDbEntity
  8
ZUWAKU
100
AcDbCircle
 10
57.31721245944436
 20
22.7250001203374
 30
0.0
 40
0.525
100
AcDbArc
 50
0.0
 51
90.0
  0
ARC
  5
8A1
330
1A
100
AcDbEntity
  8
ZUWAKU
100
AcDbCircle
 10
55.56721245944436
 20
22.7250001203374
 30
0.0
 40
0.525
100
AcDbArc
 50
90.0
 51
180.0
  0
LINE
  5
8A2
330
1A
100
AcDbEntity
  8
ZUWAKU
100
AcDbLine
 10
57.31721245944436
 20
23.25000012033741
 30
0.0
 11
55.56721245944436
 21
23.25000012033741
 31
0.0
  0
ARC
  5
8A3
330
1A
100
AcDbEntity
  8
ZUWAKU
100
AcDbCircle
 10
51.89221245944441
 20
22.7250001203374
 30
0.0
 40
0.525
100
AcDbArc
 50
0.0
 51
90.0
  0
ARC
  5
8A4
330
1A
100
AcDbEntity
  8
ZUWAKU
100
AcDbCircle
 10
51.89221245944441
 20
20.9750001203374
 30
0.0
 40
0.525
100
AcDbArc
 50
270.0
 51
0.0
  0
LINE
  5
8A5
330
1A
100
AcDbEntity
  8
ZUWAKU
100
AcDbLine
 10
52.41721245944439
 20
22.7250001203374
 30
0.0
 11
52.41721245944439
 21
20.9750001203374
 31
0.0
  0
LINE
  5
8A6
330
1A
100
AcDbEntity
  8
ZUWAKU
100
AcDbLine
 10
68.51721245944441
 20
23.25000012033741
 30
0.0
 11
66.76721245944441
 21
23.25000012033741
 31
0.0
  0
ARC
  5
8A7
330
1A
100
AcDbEntity
  8
ZUWAKU
100
AcDbCircle
 10
66.76721245944441
 20
22.7250001203374
 30
0.0
 40
0.525
100
AcDbArc
 50
90.0
 51
180.0
  0
ARC
  5
8A8
330
1A
100
AcDbEntity
  8
ZUWAKU
100
AcDbCircle
 10
63.61721245944432
 20
22.7250001203374
 30
0.0
 40
0.525
100
AcDbArc
 50
0.0
 51
90.0
  0
LINE
  5
8A9
330
1A
100
AcDbEntity
  8
ZUWAKU
100
AcDbLine
 10
63.61721245944432
 20
23.25000012033741
 30
0.0
 11
61.86721245944432
 21
23.25000012033741
 31
0.0
  0
ARC
  5
8AA
330
1A
100
AcDbEntity
  8
ZUWAKU
100
AcDbCircle
 10
61.86721245944432
 20
22.7250001203374
 30
0.0
 40
0.525
100
AcDbArc
 50
90.0
 51
180.0
  0
ARC
  5
8AB
330
1A
100
AcDbEntity
  8
ZUWAKU
100
AcDbCircle
 10
68.51721245944441
 20
22.7250001203374
 30
0.0
 40
0.525
100
AcDbArc
 50
0.0
 51
90.0
  0
TEXT
  5
8AC
330
1A
100
AcDbEntity
  8
MOJI
100
AcDbText
 10
239.8272029855143
 20
3.204921177744825
 30
0.0
 40
5.599999999999999
  1
ＲＶ１０５
 41
0.9
  7
ｽﾀｲﾙ1
100
AcDbText
  0
LINE
  5
8AD
330
1A
100
AcDbEntity
  8
ZUWAKU
100
AcDbLine
 10
208.2466015947311
 20
30.0000001203374
 30
0.0
 11
208.2466015947311
 21
0.8000001203374722
 31
0.0
  0
LINE
  5
8AE
330
1A
100
AcDbEntity
  8
ZUWAKU
100
AcDbLine
 10
208.646601594731
 20
30.0000001203374
 30
0.0
 11
208.6466015947312
 21
0.8000001203374722
 31
0.0
  0
LINE
  5
8AF
330
1A
100
AcDbEntity
  8
ZUWAKU
100
AcDbLine
 10
208.4466015947309
 20
30.0000001203374
 30
0.0
 11
208.4466015947311
 21
0.8000001203374722
 31
0.0
  0
TEXT
  5
8B0
330
1A
100
AcDbEntity
  8
MOJI
100
AcDbText
 10
239.8272029855143
 20
18.00492117774479
 30
0.0
 40
5.599999999999999
  1
止り（右・左）
 41
0.9
  7
ｽﾀｲﾙ1
100
AcDbText
  0
TEXT
  5
8B1
330
1A
100
AcDbEntity
  8
ZUWAKU
100
AcDbText
 10
209.7240466169407
 20
9.655356658723022
 30
0.0
 40
4.0
  1
サイズ
 41
0.9
  7
ｽﾀｲﾙ1
100
AcDbText
  0
TEXT
  5
8B2
330
1A
100
AcDbEntity
  8
ZUWAKU
100
AcDbText
 10
209.7240466169405
 20
24.05535665872298
 30
0.0
 40
4.0
  1
品名
 41
0.9
  7
ｽﾀｲﾙ1
100
AcDbText
  0
LINE
  5
8B3
330
1A
100
AcDbEntity
  8
ZUWAKU
100
AcDbLine
 10
648.8172028148674
 20
15.20000012033743
 30
0.0
 11
697.2490108532045
 21
15.20000012033744
 31
0.0
  0
LINE
  5
8B4
330
1A
100
AcDbEntity
  8
ZUWAKU
100
AcDbLine
 10
648.8172028148676
 20
15.40000012033744
 30
0.0
 11
697.2490108532045
 21
15.40000012033743
 31
0.0
  0
LINE
  5
8B5
330
1A
100
AcDbEntity
  8
ZUWAKU
100
AcDbLine
 10
648.8172028148674
 20
15.60000012033743
 30
0.0
 11
697.2490108532045
 21
15.60000012033743
 31
0.0
  0
TEXT
  5
8B6
330
1A
100
AcDbEntity
  8
ZUWAKU
100
AcDbText
 10
658.2039379919656
 20
18.00492117774479
 30
0.0
 40
5.599999999999999
  1
　　．　　．　　
 41
0.9
  7
ｽﾀｲﾙ1
100
AcDbText
  0
LINE
  5
8B7
330
1A
100
AcDbEntity
  8
ZUWAKU
100
AcDbLine
 10
505.1991798028041
 20
15.20000012033744
 30
0.0
 11
552.5269560707756
 21
15.20000012033744
 31
0.0
  0
LINE
  5
8B8
330
1A
100
AcDbEntity
  8
ZUWAKU
100
AcDbLine
 10
505.1991798028041
 20
15.40000012033743
 30
0.0
 11
552.5269560707756
 21
15.40000012033743
 31
0.0
  0
LINE
  5
8B9
330
1A
100
AcDbEntity
  8
ZUWAKU
100
AcDbLine
 10
505.1991798028041
 20
15.60000012033743
 30
0.0
 11
552.5269560707756
 21
15.60000012033743
 31
0.0
  0
TEXT
  5
8BA
330
1A
100
AcDbEntity
  8
MOJI
100
AcDbText
 10
464.5946263079022
 20
11.94261784199738
 30
0.0
 40
5.599999999999999
  1
ＧＴ７３Ｍ
 41
0.9
  7
ｽﾀｲﾙ1
100
AcDbText
  0
LINE
  5
8BB
330
1A
100
AcDbEntity
  8
ZUWAKU
100
AcDbLine
 10
447.6243642756544
 20
30.0000001203374
 30
0.0
 11
447.6243642756546
 21
0.8000001203374722
 31
0.0
  0
LINE
  5
8BC
330
1A
100
AcDbEntity
  8
ZUWAKU
100
AcDbLine
 10
447.8243642756544
 20
30.0000001203374
 30
0.0
 11
447.8243642756547
 21
0.8000001203374722
 31
0.0
  0
LINE
  5
8BD
330
1A
100
AcDbEntity
  8
ZUWAKU
100
AcDbLine
 10
447.4243642756546
 20
30.0000001203374
 30
0.0
 11
447.4243642756546
 21
0.8000001203374722
 31
0.0
  0
TEXT
  5
8BE
330
1A
100
AcDbEntity
  8
MOJI
100
AcDbText
 10
528.0409082769761
 20
18.00492117774479
 30
0.0
 40
5.599999999999999
  1
Ａ３
 41
0.9
  7
ｽﾀｲﾙ1
100
AcDbText
  0
LINE
  5
8BF
330
1A
100
AcDbEntity
  8
ZUWAKU
100
AcDbLine
 10
504.999179802804
 20
30.0000001203374
 30
0.0
 11
504.9991798028043
 21
0.8000001203374722
 31
0.0
  0
LINE
  5
8C0
330
1A
100
AcDbEntity
  8
ZUWAKU
100
AcDbLine
 10
505.1991798028041
 20
30.0000001203374
 30
0.0
 11
505.1991798028043
 21
0.8000001203374722
 31
0.0
  0
LINE
  5
8C1
330
1A
100
AcDbEntity
  8
ZUWAKU
100
AcDbLine
 10
504.7991798028042
 20
30.0000001203374
 30
0.0
 11
504.7991798028042
 21
0.8000001203374722
 31
0.0
  0
TEXT
  5
8C2
330
1A
100
AcDbEntity
  8
ZUWAKU
100
AcDbText
 10
462.6937619601704
 20
2.614071031476896
 30
0.0
 40
3.0
  1
□には色品番が入ります
 41
0.9
  7
ｽﾀｲﾙ1
100
AcDbText
  0
TEXT
  5
8C3
330
1A
100
AcDbEntity
  8
ZUWAKU
100
AcDbText
 10
506.6766248250139
 20
9.655356658723022
 30
0.0
 40
4.0
  1
縮尺
 41
0.9
  7
ｽﾀｲﾙ1
100
AcDbText
  0
TEXT
  5
8C4
330
1A
100
AcDbEntity
  8
MOJI
100
AcDbText
 10
528.0409082769761
 20
3.204921177744825
 30
0.0
 40
5.599999999999999
  1
１/２
 41
0.9
  7
ｽﾀｲﾙ1
100
AcDbText
  0
TEXT
  5
8C5
330
1A
100
AcDbEntity
  8
ZUWAKU
100
AcDbText
 10
449.301809297864
 20
24.05535665872298
 30
0.0
 40
4.0
  1
品番
 41
0.9
  7
ｽﾀｲﾙ1
100
AcDbText
  0
TEXT
  5
8C6
330
1A
100
AcDbEntity
  8
ZUWAKU
100
AcDbText
 10
506.6766248250137
 20
24.05535665872298
 30
0.0
 40
4.0
  1
用紙
 41
0.9
  7
ｽﾀｲﾙ1
100
AcDbText
  0
LINE
  5
8C7
330
1A
100
AcDbEntity
  8
ZUWAKU
100
AcDbLine
 10
648.6172028148676
 20
30.0000001203374
 30
0.0
 11
648.6172028148678
 21
0.8000001203374722
 31
0.0
  0
LINE
  5
8C8
330
1A
100
AcDbEntity
  8
ZUWAKU
100
AcDbLine
 10
648.8172028148676
 20
30.0000001203374
 30
0.0
 11
648.8172028148678
 21
0.8000001203374722
 31
0.0
  0
LINE
  5
8C9
330
1A
100
AcDbEntity
  8
ZUWAKU
100
AcDbLine
 10
648.4172028148678
 20
30.0000001203374
 30
0.0
 11
648.4172028148678
 21
0.8000001203374722
 31
0.0
  0
LINE
  5
8CA
330
1A
100
AcDbEntity
  8
ZUWAKU
100
AcDbLine
 10
552.7269560707755
 20
30.0000001203374
 30
0.0
 11
552.7269560707757
 21
0.8000001203374722
 31
0.0
  0
LINE
  5
8CB
330
1A
100
AcDbEntity
  8
ZUWAKU
100
AcDbLine
 10
552.9269560707755
 20
30.0000001203374
 30
0.0
 11
552.9269560707757
 21
0.8000001203374722
 31
0.0
  0
LINE
  5
8CC
330
1A
100
AcDbEntity
  8
ZUWAKU
100
AcDbLine
 10
552.5269560707756
 20
30.0000001203374
 30
0.0
 11
552.5269560707756
 21
0.8000001203374722
 31
0.0
  0
TEXT
  5
8CD
330
1A
100
AcDbEntity
  8
ZUWAKU
100
AcDbText
 10
650.2946478370772
 20
24.05535665872298
 30
0.0
 40
4.0
  1
DATE
 41
0.9
  7
ｽﾀｲﾙ1
100
AcDbText
  0
LINE
  5
8CE
330
1A
100
AcDbEntity
  8
ZUWAKU
100
AcDbLine
 10
697.2490108532045
 20
30.0000001203374
 30
0.0
 11
697.2490108532045
 21
0.8000001203374722
 31
0.0
  0
LINE
  5
8CF
330
1A
100
AcDbEntity
  8
ZUWAKU
100
AcDbLine
 10
697.4490108532044
 20
30.0000001203374
 30
0.0
 11
697.4490108532044
 21
0.8000001203374722
 31
0.0
  0
LINE
  5
8D0
330
1A
100
AcDbEntity
  8
ZUWAKU
100
AcDbLine
 10
697.6490108532043
 20
30.0000001203374
 30
0.0
 11
697.6490108532045
 21
0.8000001203374722
 31
0.0
  0
LINE
  5
8D1
330
1A
100
AcDbEntity
  8
ZUWAKU
100
AcDbLine
 10
697.8490108532043
 20
30.0000001203374
 30
0.0
 11
697.8490108532046
 21
0.8000001203374722
 31
0.0
  0
TEXT
  5
8D2
330
1A
100
AcDbEntity
  8
ZUWAKU
100
AcDbText
 10
708.5280844969069
 20
17.5538394560242
 30
0.0
 40
6.0
  1
積水化学工業株式会社
 41
0.9
  7
ｽﾀｲﾙ1
100
AcDbText
  0
TEXT
  5
8D3
330
1A
100
AcDbEntity
  8
ZUWAKU
100
AcDbText
 10
708.5280844969069
 20
6.64884043419147
 30
0.0
 40
6.0
  1
建材事業部
 41
0.9
  7
ｽﾀｲﾙ1
100
AcDbText
  0
VIEWPORT
  5
22
330
17
100
AcDbEntity
 67
     1
  8
0
100
AcDbViewport
 10
313.6808219178082
 20
148.5
 30
0.0
 40
627.3616438356165
 41
297.0
 68
     2
 69
     1
1001
ACAD
1000
MVIEW
1002
{
1070
    16
1010
0.0
1020
0.0
1030
0.0
1010
0.0
1020
0.0
1030
1.0
1040
0.0
1040
297.0
1040
313.6808219178082
1040
148.5
1040
50.0
1040
0.0
1040
0.0
1070
     0
1070
   100
1070
     1
1070
     0
1070
     0
1070
     0
1070
     0
1070
     0
1040
0.0
1040
0.0
1040
0.0
1040
1.0
1040
1.0
1040
10.0
1040
10.0
1070
     0
1002
{
1002
}
1002
}
  0
VIEWPORT
  5
64
330
17
100
AcDbEntity
 67
     1
  8
VIEWPORT
100
AcDbViewport
 10
210.0
 20
148.5
 30
0.0
 40
420.0
 41
297.0
 68
     1
 69
     2
1001
ACAD
1000
MVIEW
1002
{
1070
    16
1010
0.0
1020
0.0
1030
0.0
1010
0.0
1020
0.0
1030
1.0
1040
0.0
1040
605.8799999999998
1040
420.0
1040
297.0
1040
50.0
1040
0.0
1040
0.0
1070
     0
1070
   100
1070
     1
1070
     0
1070
     0
1070
     0
1070
     0
1070
     0
1040
0.0
1040
0.0
1040
0.0
1040
10.0
1040
10.0
1040
0.0
1040
0.0
1070
     0
1002
{
1002
}
1002
}
  0
ENDSEC
  0
SECTION
  2
OBJECTS
  0
DICTIONARY
  5
C
330
0
100
AcDbDictionary
  3
ACAD_GROUP
350
D
  3
ACAD_LAYOUT
350
66C
  3
ACAD_MLINESTYLE
350
E
  3
ACAD_PLOTSETTINGS
350
66D
  3
ACAD_PLOTSTYLENAME
350
66A
  3
ACDBHEADERROUNDTRIPXREC
350
8DC
  0
DICTIONARY
  5
69B
330
1A
100
AcDbDictionary
280
     1
  3
ACAD_LAYOUTSELFREF
360
8FE
  0
DICTIONARY
  5
699
330
17
100
AcDbDictionary
280
     1
  3
ACAD_LAYOUTSELFREF
360
8FD
  0
DICTIONARY
  5
D
102
{ACAD_REACTORS
330
C
102
}
330
C
100
AcDbDictionary
  0
DICTIONARY
  5
66C
102
{ACAD_REACTORS
330
C
102
}
330
C
100
AcDbDictionary
  0
DICTIONARY
  5
E
102
{ACAD_REACTORS
330
C
102
}
330
C
100
AcDbDictionary
  3
STANDARD
350
13
  0
DICTIONARY
  5
66D
102
{ACAD_REACTORS
330
C
102
}
330
C
100
AcDbDictionary
  0
ACDBDICTIONARYWDFLT
  5
66A
102
{ACAD_REACTORS
330
C
102
}
330
C
100
AcDbDictionary
281
     1
  3
Normal
350
66B
100
AcDbDictionaryWithDefault
340
66B
1001
ACAD
1000
TREAT_AS_HARD
1070
     0
1000
TREAT_AS_HARD
1070
     0
1000
TREAT_AS_HARD
1070
     0
  0
DICTIONARY
  5
8DC
102
{ACAD_REACTORS
330
C
102
}
330
C
100
AcDbDictionary
  3
TSTACKALIGN
350
8DD
  3
TSTACKSIZE
350
8DE
  3
HYPERLINKBASE
350
8DF
  3
STYLESHEET
350
8E0
  3
LAYOUTDICT
350
8E1
  3
PLOTSETDICT
350
8E2
  3
PLOTSTYLNAMDICT
350
8E3
  3
LWETCUNION
350
8E4
  3
INSUNITS
350
8E5
  3
CEPSNTYPE
350
8E6
  3
FINGERPRINTGUID
350
8E7
  3
VERSIONGUID
350
8E8
  3
PSVPSCALE
350
8E9
  3
DIMSTYLEDATA
350
8EA
  3
PUCSORTHOREF
350
8EB
  3
PUCSORTHOVIEW
350
8EC
  3
PUCSBASE
350
8ED
  3
PUCSORGTOP
350
8EE
  3
PUCSORGBOTTOM
350
8EF
  3
PUCSORGLEFT
350
8F0
  3
PUCSORGRIGHT
350
8F1
  3
PUCSORGFRONT
350
8F2
  3
PUCSORGBACK
350
8F3
  3
UCSORTHOREF
350
8F4
  3
UCSORTHOVIEW
350
8F5
  3
UCSBASE
350
8F6
  3
UCSORGTOP
350
8F7
  3
UCSORGBOTTOM
350
8F8
  3
UCSORGLEFT
350
8F9
  3
UCSORGRIGHT
350
8FA
  3
UCSORGFRONT
350
8FB
  3
UCSORGBACK
350
8FC
  0
XRECORD
  5
8FE
102
{ACAD_REACTORS
330
69B
102
}
330
69B
100
AcDbXrecord
340
1A
  0
XRECORD
  5
8FD
102
{ACAD_REACTORS
330
699
102
}
330
699
100
AcDbXrecord
340
17
  0
MLINESTYLE
  5
13
102
{ACAD_REACTORS
330
E
102
}
330
E
100
AcDbMlineStyle
  2
STANDARD
 70
     0
  3

 62
     0
 51
90.0
 52
90.0
 71
     2
 49
0.5
 62
   256
  6
BYLAYER
 49
-0.5
 62
   256
  6
BYLAYER
  0
ACDBPLACEHOLDER
  5
66B
102
{ACAD_REACTORS
330
66A
102
}
330
66A
100
AcDbPlaceHolder
280
     0
  0
XRECORD
  5
8DD
102
{ACAD_REACTORS
330
8DC
102
}
330
8DC
100
AcDbXrecord
 90
        1
  0
XRECORD
  5
8DE
102
{ACAD_REACTORS
330
8DC
102
}
330
8DC
100
AcDbXrecord
 90
       70
  0
XRECORD
  5
8DF
102
{ACAD_REACTORS
330
8DC
102
}
330
8DC
100
AcDbXrecord
  1

  0
XRECORD
  5
8E0
102
{ACAD_REACTORS
330
8DC
102
}
330
8DC
100
AcDbXrecord
  1
systemprinter.ctb
  0
XRECORD
  5
8E1
102
{ACAD_REACTORS
330
8DC
102
}
330
8DC
100
AcDbXrecord
340
66C
  0
XRECORD
  5
8E2
102
{ACAD_REACTORS
330
8DC
102
}
330
8DC
100
AcDbXrecord
340
66D
  0
XRECORD
  5
8E3
102
{ACAD_REACTORS
330
8DC
102
}
330
8DC
100
AcDbXrecord
340
66A
  0
XRECORD
  5
8E4
102
{ACAD_REACTORS
330
8DC
102
}
330
8DC
100
AcDbXrecord
 90
    10781
  0
XRECORD
  5
8E5
102
{ACAD_REACTORS
330
8DC
102
}
330
8DC
100
AcDbXrecord
 90
        0
  0
XRECORD
  5
8E6
102
{ACAD_REACTORS
330
8DC
102
}
330
8DC
100
AcDbXrecord
 90
        0
  0
XRECORD
  5
8E7
102
{ACAD_REACTORS
330
8DC
102
}
330
8DC
100
AcDbXrecord
  1
{0AF96C34-3FCC-4A9B-AABB-7C9C78276AEA}
  0
XRECORD
  5
8E8
102
{ACAD_REACTORS
330
8DC
102
}
330
8DC
100
AcDbXrecord
  1
{4DFB33F1-4D35-49D8-81D3-B38A09AA5C46}
  0
XRECORD
  5
8E9
102
{ACAD_REACTORS
330
8DC
102
}
330
8DC
100
AcDbXrecord
 40
0.0
  0
XRECORD
  5
8EA
102
{ACAD_REACTORS
330
8DC
102
}
330
8DC
100
AcDbXrecord
1000
DSTYLE
1002
{
1070
   341
340
6D
1070
   343
340
6D
1070
   344
340
6D
1070
   371
 70
    -1
1070
   372
 70
    -1
1002
}
  0
XRECORD
  5
8EB
102
{ACAD_REACTORS
330
8DC
102
}
330
8DC
100
AcDbXrecord
340
0
  0
XRECORD
  5
8EC
102
{ACAD_REACTORS
330
8DC
102
}
330
8DC
100
AcDbXrecord
 70
     0
  0
XRECORD
  5
8ED
102
{ACAD_REACTORS
330
8DC
102
}
330
8DC
100
AcDbXrecord
340
0
  0
XRECORD
  5
8EE
102
{ACAD_REACTORS
330
8DC
102
}
330
8DC
100
AcDbXrecord
 10
0.0
 20
0.0
 30
0.0
  0
XRECORD
  5
8EF
102
{ACAD_REACTORS
330
8DC
102
}
330
8DC
100
AcDbXrecord
 10
0.0
 20
0.0
 30
0.0
  0
XRECORD
  5
8F0
102
{ACAD_REACTORS
330
8DC
102
}
330
8DC
100
AcDbXrecord
 10
0.0
 20
0.0
 30
0.0
  0
XRECORD
  5
8F1
102
{ACAD_REACTORS
330
8DC
102
}
330
8DC
100
AcDbXrecord
 10
0.0
 20
0.0
 30
0.0
  0
XRECORD
  5
8F2
102
{ACAD_REACTORS
330
8DC
102
}
330
8DC
100
AcDbXrecord
 10
0.0
 20
0.0
 30
0.0
  0
XRECORD
  5
8F3
102
{ACAD_REACTORS
330
8DC
102
}
330
8DC
100
AcDbXrecord
 10
0.0
 20
0.0
 30
0.0
  0
XRECORD
  5
8F4
102
{ACAD_REACTORS
330
8DC
102
}
330
8DC
100
AcDbXrecord
340
0
  0
XRECORD
  5
8F5
102
{ACAD_REACTORS
330
8DC
102
}
330
8DC
100
AcDbXrecord
 70
     0
  0
XRECORD
  5
8F6
102
{ACAD_REACTORS
330
8DC
102
}
330
8DC
100
AcDbXrecord
340
0
  0
XRECORD
  5
8F7
102
{ACAD_REACTORS
330
8DC
102
}
330
8DC
100
AcDbXrecord
 10
0.0
 20
0.0
 30
0.0
  0
XRECORD
  5
8F8
102
{ACAD_REACTORS
330
8DC
102
}
330
8DC
100
AcDbXrecord
 10
0.0
 20
0.0
 30
0.0
  0
XRECORD
  5
8F9
102
{ACAD_REACTORS
330
8DC
102
}
330
8DC
100
AcDbXrecord
 10
0.0
 20
0.0
 30
0.0
  0
XRECORD
  5
8FA
102
{ACAD_REACTORS
330
8DC
102
}
330
8DC
100
AcDbXrecord
 10
0.0
 20
0.0
 30
0.0
  0
XRECORD
  5
8FB
102
{ACAD_REACTORS
330
8DC
102
}
330
8DC
100
AcDbXrecord
 10
0.0
 20
0.0
 30
0.0
  0
XRECORD
  5
8FC
102
{ACAD_REACTORS
330
8DC
102
}
330
8DC
100
AcDbXrecord
 10
0.0
 20
0.0
 30
0.0
  0
ENDSEC
  0
EOF
