  0
SECTION
  2
HEADER
  9
$ACADVER
  1
AC1015
  9
$ACADMAINTVER
 70
     6
  9
$DWGCODEPAGE
  3
ANSI_932
  9
$INSBASE
 10
0.0
 20
0.0
 30
0.0
  9
$EXTMIN
 10
0.0000000135560185
 20
-0.0000001317113174
 30
0.0
  9
$EXTMAX
 10
797.6000000135562
 20
551.5999998682888
 30
0.0
  9
$LIMMIN
 10
0.0
 20
0.0
  9
$LIMMAX
 10
840.0
 20
594.0
  9
$ORTHOMODE
 70
     0
  9
$REGENMODE
 70
     1
  9
$FILLMODE
 70
     1
  9
$QTEXTMODE
 70
     0
  9
$MIRRTEXT
 70
     1
  9
$LTSCALE
 40
2.0
  9
$ATTMODE
 70
     1
  9
$TEXTSIZE
 40
5.0
  9
$TRACEWID
 40
1.0
  9
$TEXTSTYLE
  7
STANDARD
  9
$CLAYER
  8
ZUWAKU
  9
$CELTYPE
  6
BYLAYER
  9
$CECOLOR
 62
   256
  9
$CELTSCALE
 40
1.0
  9
$DISPSILH
 70
     0
  9
$DIMSCALE
 40
1.0
  9
$DIMASZ
 40
7.0
  9
$DIMEXO
 40
6.0
  9
$DIMDLI
 40
14.0
  9
$DIMRND
 40
0.0
  9
$DIMDLE
 40
0.0
  9
$DIMEXE
 40
3.0
  9
$DIMTP
 40
0.0
  9
$DIMTM
 40
0.0
  9
$DIMTXT
 40
6.0
  9
$DIMCEN
 40
150.0
  9
$DIMTSZ
 40
0.0
  9
$DIMTOL
 70
     0
  9
$DIMLIM
 70
     0
  9
$DIMTIH
 70
     0
  9
$DIMTOH
 70
     0
  9
$DIMSE1
 70
     0
  9
$DIMSE2
 70
     0
  9
$DIMTAD
 70
     3
  9
$DIMZIN
 70
     0
  9
$DIMBLK
  1

  9
$DIMASO
 70
     1
  9
$DIMSHO
 70
     1
  9
$DIMPOST
  1

  9
$DIMAPOST
  1

  9
$DIMALT
 70
     0
  9
$DIMALTD
 70
     2
  9
$DIMALTF
 40
25.4
  9
$DIMLFAC
 40
1.0
  9
$DIMTOFL
 70
     1
  9
$DIMTVP
 40
0.0
  9
$DIMTIX
 70
     0
  9
$DIMSOXD
 70
     0
  9
$DIMSAH
 70
     1
  9
$DIMBLK1
  1
OPEN
  9
$DIMBLK2
  1
OPEN
  9
$DIMSTYLE
  2
STANDARD
  9
$DIMCLRD
 70
   256
  9
$DIMCLRE
 70
   256
  9
$DIMCLRT
 70
   256
  9
$DIMTFAC
 40
1.0
  9
$DIMGAP
 40
2.0
  9
$DIMJUST
 70
     0
  9
$DIMSD1
 70
     0
  9
$DIMSD2
 70
     0
  9
$DIMTOLJ
 70
     1
  9
$DIMTZIN
 70
     0
  9
$DIMALTZ
 70
     0
  9
$DIMALTTZ
 70
     0
  9
$DIMUPT
 70
     0
  9
$DIMDEC
 70
     0
  9
$DIMTDEC
 70
     0
  9
$DIMALTU
 70
     2
  9
$DIMALTTD
 70
     2
  9
$DIMTXSTY
  7
STANDARD
  9
$DIMAUNIT
 70
     0
  9
$DIMADEC
 70
     0
  9
$DIMALTRND
 40
0.0
  9
$DIMAZIN
 70
     0
  9
$DIMDSEP
 70
    46
  9
$DIMATFIT
 70
     3
  9
$DIMFRAC
 70
     0
  9
$DIMLDRBLK
  1
OPEN
  9
$DIMLUNIT
 70
     2
  9
$DIMLWD
 70
    -1
  9
$DIMLWE
 70
    -1
  9
$DIMTMOVE
 70
     0
  9
$LUNITS
 70
     2
  9
$LUPREC
 70
     4
  9
$SKETCHINC
 40
1.0
  9
$FILLETRAD
 40
2.0
  9
$AUNITS
 70
     0
  9
$AUPREC
 70
     0
  9
$MENU
  1
.
  9
$ELEVATION
 40
0.0
  9
$PELEVATION
 40
0.0
  9
$THICKNESS
 40
0.0
  9
$LIMCHECK
 70
     0
  9
$CHAMFERA
 40
20.0
  9
$CHAMFERB
 40
20.0
  9
$CHAMFERC
 40
40.0
  9
$CHAMFERD
 40
0.0
  9
$SKPOLY
 70
     0
  9
$TDCREATE
 40
2451212.496837384
  9
$TDUCREATE
 40
2451212.121837384
  9
$TDUPDATE
 40
2455609.396946597
  9
$TDUUPDATE
 40
2455609.021946597
  9
$TDINDWG
 40
0.1010191782
  9
$TDUSRTIMER
 40
0.1010191782
  9
$USRTIMER
 70
     1
  9
$ANGBASE
 50
0.0
  9
$ANGDIR
 70
     0
  9
$PDMODE
 70
     0
  9
$PDSIZE
 40
0.0
  9
$PLINEWID
 40
0.0
  9
$SPLFRAME
 70
     0
  9
$SPLINETYPE
 70
     6
  9
$SPLINESEGS
 70
     8
  9
$HANDSEED
  5
FA6
  9
$SURFTAB1
 70
     6
  9
$SURFTAB2
 70
     6
  9
$SURFTYPE
 70
     6
  9
$SURFU
 70
     6
  9
$SURFV
 70
     6
  9
$UCSBASE
  2

  9
$UCSNAME
  2

  9
$UCSORG
 10
0.0
 20
0.0
 30
0.0
  9
$UCSXDIR
 10
1.0
 20
0.0
 30
0.0
  9
$UCSYDIR
 10
0.0
 20
1.0
 30
0.0
  9
$UCSORTHOREF
  2

  9
$UCSORTHOVIEW
 70
     0
  9
$UCSORGTOP
 10
0.0
 20
0.0
 30
0.0
  9
$UCSORGBOTTOM
 10
0.0
 20
0.0
 30
0.0
  9
$UCSORGLEFT
 10
0.0
 20
0.0
 30
0.0
  9
$UCSORGRIGHT
 10
0.0
 20
0.0
 30
0.0
  9
$UCSORGFRONT
 10
0.0
 20
0.0
 30
0.0
  9
$UCSORGBACK
 10
0.0
 20
0.0
 30
0.0
  9
$PUCSBASE
  2

  9
$PUCSNAME
  2

  9
$PUCSORG
 10
0.0
 20
0.0
 30
0.0
  9
$PUCSXDIR
 10
1.0
 20
0.0
 30
0.0
  9
$PUCSYDIR
 10
0.0
 20
1.0
 30
0.0
  9
$PUCSORTHOREF
  2

  9
$PUCSORTHOVIEW
 70
     0
  9
$PUCSORGTOP
 10
0.0
 20
0.0
 30
0.0
  9
$PUCSORGBOTTOM
 10
0.0
 20
0.0
 30
0.0
  9
$PUCSORGLEFT
 10
0.0
 20
0.0
 30
0.0
  9
$PUCSORGRIGHT
 10
0.0
 20
0.0
 30
0.0
  9
$PUCSORGFRONT
 10
0.0
 20
0.0
 30
0.0
  9
$PUCSORGBACK
 10
0.0
 20
0.0
 30
0.0
  9
$USERI1
 70
     0
  9
$USERI2
 70
     0
  9
$USERI3
 70
     0
  9
$USERI4
 70
     0
  9
$USERI5
 70
     0
  9
$USERR1
 40
0.0
  9
$USERR2
 40
0.0
  9
$USERR3
 40
0.0
  9
$USERR4
 40
0.0
  9
$USERR5
 40
0.0
  9
$WORLDVIEW
 70
     1
  9
$SHADEDGE
 70
     3
  9
$SHADEDIF
 70
    70
  9
$TILEMODE
 70
     1
  9
$MAXACTVP
 70
    16
  9
$PINSBASE
 10
0.0
 20
0.0
 30
0.0
  9
$PLIMCHECK
 70
     0
  9
$PEXTMIN
 10
0.0
 20
0.0
 30
0.0
  9
$PEXTMAX
 10
420.0
 20
297.0
 30
0.0
  9
$PLIMMIN
 10
0.0
 20
0.0
  9
$PLIMMAX
 10
420.0
 20
297.0
  9
$UNITMODE
 70
     0
  9
$VISRETAIN
 70
     0
  9
$PLINEGEN
 70
     0
  9
$PSLTSCALE
 70
     1
  9
$TREEDEPTH
 70
  3020
  9
$CMLSTYLE
  2
STANDARD
  9
$CMLJUST
 70
     0
  9
$CMLSCALE
 40
1.0
  9
$PROXYGRAPHICS
 70
     1
  9
$MEASUREMENT
 70
     1
  9
$CELWEIGHT
370
    -1
  9
$ENDCAPS
280
     0
  9
$JOINSTYLE
280
     0
  9
$LWDISPLAY
290
     0
  9
$INSUNITS
 70
     0
  9
$HYPERLINKBASE
  1

  9
$STYLESHEET
  1
systemprinter.ctb
  9
$XEDIT
290
     1
  9
$CEPSNTYPE
380
     0
  9
$PSTYLEMODE
290
     1
  9
$FINGERPRINTGUID
  2
{6B84EFAC-A936-11D5-932D-0050DA99388B}
  9
$VERSIONGUID
  2
{EA76EF97-F392-44D6-8277-1182A196ED86}
  9
$EXTNAMES
290
     1
  9
$PSVPSCALE
 40
0.0
  9
$OLESTARTUP
290
     0
  0
ENDSEC
  0
SECTION
  2
CLASSES
  0
CLASS
  1
ACDBDICTIONARYWDFLT
  2
AcDbDictionaryWithDefault
  3
ObjectDBX Classes
 90
        0
280
     0
281
     0
  0
CLASS
  1
ACDBPLACEHOLDER
  2
AcDbPlaceHolder
  3
ObjectDBX Classes
 90
        0
280
     0
281
     0
  0
CLASS
  1
LAYOUT
  2
AcDbLayout
  3
ObjectDBX Classes
 90
        0
280
     0
281
     0
  0
CLASS
  1
DUMMY
  2
AcDbLongTransaction
  3
DUMMY
 90
        0
280
     0
281
     0
  0
CLASS
  1
LWPOLYLINE
  2
AcDbPolyline
  3
AutoCAD 2000
 90
        0
280
     0
281
     1
  0
CLASS
  1
HATCH
  2
AcDbHatch
  3
AutoCAD 2000
 90
        0
280
     0
281
     1
  0
CLASS
  1
XRECORD
  2
AcDbXrecord
  3
AutoCAD 2000
 90
        0
280
     0
281
     0
  0
CLASS
  1
DUMMY
  2
AcDbLongTransaction
  3
DUMMY
 90
        0
280
     0
281
     0
  0
CLASS
  1
LWPOLYLINE
  2
AcDbPolyline
  3
AutoCAD 2000
 90
        0
280
     0
281
     1
  0
CLASS
  1
HATCH
  2
AcDbHatch
  3
AutoCAD 2000
 90
        0
280
     0
281
     1
  0
CLASS
  1
XRECORD
  2
AcDbXrecord
  3
AutoCAD 2000
 90
        0
280
     0
281
     0
  0
CLASS
  1
DUMMY
  2
AcDbLongTransaction
  3
DUMMY
 90
        0
280
     0
281
     0
  0
CLASS
  1
LWPOLYLINE
  2
AcDbPolyline
  3
AutoCAD 2000
 90
        0
280
     0
281
     1
  0
CLASS
  1
HATCH
  2
AcDbHatch
  3
AutoCAD 2000
 90
        0
280
     0
281
     1
  0
CLASS
  1
XRECORD
  2
AcDbXrecord
  3
AutoCAD 2000
 90
        0
280
     0
281
     0
  0
CLASS
  1
DUMMY
  2
AcDbLongTransaction
  3
DUMMY
 90
        0
280
     0
281
     0
  0
CLASS
  1
LWPOLYLINE
  2
AcDbPolyline
  3
AutoCAD 2000
 90
        0
280
     0
281
     1
  0
CLASS
  1
HATCH
  2
AcDbHatch
  3
AutoCAD 2000
 90
        0
280
     0
281
     1
  0
CLASS
  1
XRECORD
  2
AcDbXrecord
  3
AutoCAD 2000
 90
        0
280
     0
281
     0
  0
ENDSEC
  0
SECTION
  2
TABLES
  0
TABLE
  2
VPORT
  5
8
330
0
100
AcDbSymbolTable
 70
     2
  0
VPORT
  5
FA5
330
8
100
AcDbSymbolTableRecord
100
AcDbViewportTableRecord
  2
*Active
 70
     0
 10
0.0
 20
0.0
 11
1.0
 21
1.0
 12
416.6437991857215
 22
300.873440476082
 13
0.0
 23
0.0
 14
5.0
 24
5.0
 15
0.0
 25
0.0
 16
0.0
 26
0.0
 36
1.0
 17
0.0
 27
0.0
 37
0.0
 40
637.2603500685069
 41
1.651537335285505
 42
50.0
 43
0.0
 44
0.0
 50
0.0
 51
0.0
 71
     0
 72
   100
 73
     1
 74
     0
 75
     0
 76
     0
 77
     0
 78
     0
281
     0
 65
     1
110
0.0
120
0.0
130
0.0
111
1.0
121
0.0
131
0.0
112
0.0
122
1.0
132
0.0
 79
     0
146
0.0
  0
ENDTAB
  0
TABLE
  2
LTYPE
  5
5
330
0
100
AcDbSymbolTable
 70
     3
  0
LTYPE
  5
14
330
5
100
AcDbSymbolTableRecord
100
AcDbLinetypeTableRecord
  2
BYBLOCK
 70
     0
  3

 72
    65
 73
     0
 40
0.0
  0
LTYPE
  5
15
330
5
100
AcDbSymbolTableRecord
100
AcDbLinetypeTableRecord
  2
BYLAYER
 70
     0
  3

 72
    65
 73
     0
 40
0.0
  0
LTYPE
  5
16
330
5
100
AcDbSymbolTableRecord
100
AcDbLinetypeTableRecord
  2
CONTINUOUS
 70
     0
  3
Solid line
 72
    65
 73
     0
 40
0.0
  0
LTYPE
  5
135
330
5
100
AcDbSymbolTableRecord
100
AcDbLinetypeTableRecord
  2
CENTER
 70
     0
  3
____ _ ____ _ ____ _ ____ _ ____ _ ____ _ ____ 
 72
    65
 73
     4
 40
2.0
 49
1.25
 74
     0
 49
-0.25
 74
     0
 49
0.25
 74
     0
 49
-0.25
 74
     0
  0
LTYPE
  5
94A
330
5
100
AcDbSymbolTableRecord
100
AcDbLinetypeTableRecord
  2
PHANTOM
 70
     0
  3
______  __  __  ______  __  __  ______  __  __ 
 72
    65
 73
     6
 40
2.5
 49
1.25
 74
     0
 49
-0.25
 74
     0
 49
0.25
 74
     0
 49
-0.25
 74
     0
 49
0.25
 74
     0
 49
-0.25
 74
     0
  0
ENDTAB
  0
TABLE
  2
LAYER
  5
2
330
0
100
AcDbSymbolTable
 70
    10
  0
LAYER
  5
F
330
2
100
AcDbSymbolTableRecord
100
AcDbLayerTableRecord
  2
0
 70
     0
 62
     7
  6
CONTINUOUS
370
    -3
390
4BB
  0
LAYER
  5
62
330
2
100
AcDbSymbolTableRecord
100
AcDbLayerTableRecord
  2
VIEWPORT
 70
     0
 62
     7
  6
CONTINUOUS
370
    -3
390
4BB
  0
LAYER
  5
65
330
2
100
AcDbSymbolTableRecord
100
AcDbLayerTableRecord
  2
ZUWAKU
 70
     0
 62
     7
  6
CONTINUOUS
370
    -3
390
4BB
  0
LAYER
  5
28E
330
2
100
AcDbSymbolTableRecord
100
AcDbLayerTableRecord
  2
SEIHIN
 70
     0
 62
     3
  6
CONTINUOUS
370
    -3
390
4BB
  0
LAYER
  5
28F
330
2
100
AcDbSymbolTableRecord
100
AcDbLayerTableRecord
  2
SUNPOU
 70
     0
 62
     4
  6
CONTINUOUS
370
    -3
390
4BB
  0
LAYER
  5
290
330
2
100
AcDbSymbolTableRecord
100
AcDbLayerTableRecord
  2
CENTER L
 70
     0
 62
     1
  6
CENTER
370
    -3
390
4BB
  0
LAYER
  5
3EF
330
2
100
AcDbSymbolTableRecord
100
AcDbLayerTableRecord
  2
DEFPOINTS
 70
     0
 62
     7
  6
CONTINUOUS
290
     0
370
    -3
390
4BB
  0
LAYER
  5
702
330
2
100
AcDbSymbolTableRecord
100
AcDbLayerTableRecord
  2
moji
 70
     0
 62
     2
  6
CONTINUOUS
370
    -3
390
4BB
  0
LAYER
  5
94B
330
2
100
AcDbSymbolTableRecord
100
AcDbLayerTableRecord
  2
NOKITOI
 70
     0
 62
     9
  6
PHANTOM
370
    -3
390
4BB
  0
LAYER
  5
94C
330
2
100
AcDbSymbolTableRecord
100
AcDbLayerTableRecord
  2
Σ90G
 70
     0
 62
     7
  6
CONTINUOUS
370
    -3
390
4BB
  0
ENDTAB
  0
TABLE
  2
STYLE
  5
3
330
0
100
AcDbSymbolTable
 70
     2
  0
STYLE
  5
10
330
3
100
AcDbSymbolTableRecord
100
AcDbTextStyleTableRecord
  2
STANDARD
 70
     0
 40
0.0
 41
1.0
 50
0.0
 71
     0
 42
5.0
  3
TXT
  4
bigfont.shx
  0
STYLE
  5
703
330
3
100
AcDbSymbolTableRecord
100
AcDbTextStyleTableRecord
  2
ｽﾀｲﾙ1
 70
     0
 40
0.0
 41
1.0
 50
0.0
 71
     0
 42
2.5
  3
MS PGothic.ttf
  4

1001
ACAD
1000
MS PGothic
1071
    32818
  0
ENDTAB
  0
TABLE
  2
VIEW
  5
6
330
0
100
AcDbSymbolTable
 70
     0
  0
ENDTAB
  0
TABLE
  2
UCS
  5
7
330
0
100
AcDbSymbolTable
 70
     0
  0
ENDTAB
  0
TABLE
  2
APPID
  5
9
330
0
100
AcDbSymbolTable
 70
     1
  0
APPID
  5
11
330
9
100
AcDbSymbolTableRecord
100
AcDbRegAppTableRecord
  2
ACAD
 70
     0
  0
ENDTAB
  0
TABLE
  2
DIMSTYLE
  5
A
330
0
100
AcDbSymbolTable
 70
     1
100
AcDbDimStyleTable
  0
DIMSTYLE
105
1D
102
{ACAD_REACTORS
330
C1A
330
C1B
330
C5F
330
C61
330
C62
330
CC0
330
CC1
330
D6B
330
D6C
102
}
330
A
100
AcDbSymbolTableRecord
100
AcDbDimStyleTableRecord
  2
STANDARD
 70
     0
340
10
  0
ENDTAB
  0
TABLE
  2
BLOCK_RECORD
  5
1
330
0
100
AcDbSymbolTable
 70
    11
  0
BLOCK_RECORD
  5
1A
330
1
100
AcDbSymbolTableRecord
100
AcDbBlockTableRecord
  2
*MODEL_SPACE
340
4BE
  0
BLOCK_RECORD
  5
17
330
1
100
AcDbSymbolTableRecord
100
AcDbBlockTableRecord
  2
*PAPER_SPACE
340
4BF
  0
BLOCK_RECORD
  5
6D
330
1
100
AcDbSymbolTableRecord
100
AcDbBlockTableRecord
  2
_OPEN
340
0
102
{BLKREFS
331
F51
331
F52
331
F5A
331
F5B
331
F63
331
F64
331
F6C
331
F6D
331
F75
331
F76
331
F7E
331
F7F
331
F87
331
F88
331
F90
331
F91
331
F99
331
F9A
331
E1F
331
E20
102
}
  0
BLOCK_RECORD
  5
8AF
330
1
100
AcDbSymbolTableRecord
100
AcDbBlockTableRecord
  2
A$C6DF3607B
340
0
102
{BLKREFS
331
C60
102
}
  0
BLOCK_RECORD
  5
EE2
330
1
100
AcDbSymbolTableRecord
100
AcDbBlockTableRecord
  2
*D2
340
0
  0
BLOCK_RECORD
  5
EEE
330
1
100
AcDbSymbolTableRecord
100
AcDbBlockTableRecord
  2
*D3
340
0
  0
BLOCK_RECORD
  5
EFA
330
1
100
AcDbSymbolTableRecord
100
AcDbBlockTableRecord
  2
*D4
340
0
  0
BLOCK_RECORD
  5
F06
330
1
100
AcDbSymbolTableRecord
100
AcDbBlockTableRecord
  2
*D5
340
0
  0
BLOCK_RECORD
  5
F12
330
1
100
AcDbSymbolTableRecord
100
AcDbBlockTableRecord
  2
*D6
340
0
  0
BLOCK_RECORD
  5
F1E
330
1
100
AcDbSymbolTableRecord
100
AcDbBlockTableRecord
  2
*D7
340
0
  0
BLOCK_RECORD
  5
F2A
330
1
100
AcDbSymbolTableRecord
100
AcDbBlockTableRecord
  2
*D8
340
0
  0
BLOCK_RECORD
  5
F36
330
1
100
AcDbSymbolTableRecord
100
AcDbBlockTableRecord
  2
*D9
340
0
  0
BLOCK_RECORD
  5
F42
330
1
100
AcDbSymbolTableRecord
100
AcDbBlockTableRecord
  2
*D10
340
0
  0
ENDTAB
  0
ENDSEC
  0
SECTION
  2
BLOCKS
  0
BLOCK
  5
1B
330
1A
100
AcDbEntity
  8
0
100
AcDbBlockBegin
  2
*MODEL_SPACE
 70
     0
 71
     0
 10
0.0
 20
0.0
 30
0.0
  3
*MODEL_SPACE
  1

  0
ENDBLK
  5
1C
330
1A
100
AcDbEntity
  8
0
100
AcDbBlockEnd
  0
BLOCK
  5
18
330
17
100
AcDbEntity
 67
     1
  8
0
100
AcDbBlockBegin
  2
*PAPER_SPACE
 70
     0
 71
     0
 10
0.0
 20
0.0
 30
0.0
  3
*PAPER_SPACE
  1

  0
ENDBLK
  5
19
330
17
100
AcDbEntity
 67
     1
  8
0
100
AcDbBlockEnd
  0
BLOCK
  5
6E
330
6D
100
AcDbEntity
  8
0
100
AcDbBlockBegin
  2
_OPEN
 70
     0
 71
     0
 10
0.0
 20
0.0
 30
0.0
  3
_OPEN
  1

  0
LINE
  5
6F
330
6D
100
AcDbEntity
  8
0
  6
ByBlock
 62
     0
100
AcDbLine
 10
-1.0
 20
0.1666666666666667
 30
0.0
 11
0.0
 21
0.0
 31
0.0
  0
LINE
  5
70
330
6D
100
AcDbEntity
  8
0
  6
ByBlock
 62
     0
100
AcDbLine
 10
0.0
 20
0.0
 30
0.0
 11
-1.0
 21
-0.1666666666666667
 31
0.0
  0
LINE
  5
71
330
6D
100
AcDbEntity
  8
0
  6
ByBlock
 62
     0
100
AcDbLine
 10
0.0
 20
0.0
 30
0.0
 11
-1.0
 21
0.0
 31
0.0
  0
ENDBLK
  5
72
330
6D
100
AcDbEntity
  8
0
100
AcDbBlockEnd
  0
BLOCK
  5
90C
330
8AF
100
AcDbEntity
  8
0
100
AcDbBlockBegin
  2
A$C6DF3607B
 70
     0
 71
     0
 10
0.0
 20
0.0
 30
0.0
  3
A$C6DF3607B
  1

  0
ARC
  5
8B0
330
8AF
100
AcDbEntity
  8
NOKITOI
  6
PHANTOM
 62
     8
 48
5.0
100
AcDbCircle
 10
10.29040352532718
 20
73.77665918252922
 30
0.0
 40
3.000000000000036
100
AcDbArc
 50
324.3087057504234
 51
8.07474083461601
  0
LINE
  5
8B1
330
8AF
100
AcDbEntity
  8
NOKITOI
  6
PHANTOM
 62
     8
 48
5.0
100
AcDbLine
 10
128.2146746422095
 20
51.3812109493922
 30
0.0
 11
128.2146504550051
 21
56.46197181825039
 31
0.0
  0
LINE
  5
8B2
330
8AF
100
AcDbEntity
  8
NOKITOI
  6
PHANTOM
 62
     8
 48
5.0
100
AcDbLine
 10
129.514643687523
 20
43.43077988857647
 30
0.0
 11
129.5146478915426
 21
57.00045563804088
 31
0.0
  0
LINE
  5
8B3
330
8AF
100
AcDbEntity
  8
NOKITOI
  6
PHANTOM
 62
     8
 48
5.0
100
AcDbLine
 10
123.5975513703806
 20
45.93237131561375
 30
0.0
 11
124.1698059918763
 21
58.41405249398702
 31
0.0
  0
LINE
  5
8B4
330
8AF
100
AcDbEntity
  8
NOKITOI
  6
PHANTOM
 62
     8
 48
5.0
100
AcDbLine
 10
122.5956619517938
 20
52.41177462278569
 30
0.0
 11
122.9405653832814
 21
60.00044135636381
 31
0.0
  0
LINE
  5
8B5
330
8AF
100
AcDbEntity
  8
NOKITOI
  6
PHANTOM
 62
     8
 48
5.0
100
AcDbLine
 10
122.2724523159559
 20
45.30042116109132
 30
0.0
 11
122.9188715876321
 21
59.52312808448005
 31
0.0
  0
LINE
  5
8B6
330
8AF
100
AcDbEntity
  8
NOKITOI
  6
PHANTOM
 62
     8
 48
5.0
100
AcDbLine
 10
20.13784077274352
 20
27.40670894420725
 30
0.0
 11
16.18876708195865
 21
55.61339806634123
 31
0.0
  0
LINE
  5
8B7
330
8AF
100
AcDbEntity
  8
NOKITOI
  6
PHANTOM
 62
     8
 48
5.0
100
AcDbLine
 10
21.42528460309597
 20
27.58695710210475
 30
0.0
 11
16.18146440634416
 21
65.04151047068126
 31
0.0
  0
LINE
  5
8B8
330
8AF
100
AcDbEntity
  8
NOKITOI
  6
PHANTOM
 62
     8
 48
5.0
100
AcDbLine
 10
35.794791149567
 20
1.30000947956944
 30
0.0
 11
117.4059277088054
 21
1.300397993270735
 31
0.0
  0
LINE
  5
8B9
330
8AF
100
AcDbEntity
  8
NOKITOI
  6
PHANTOM
 62
     8
 48
5.0
100
AcDbLine
 10
33.7495102438412
 20
-0.0000002571023288
 30
0.0
 11
119.6037632428688
 21
0.0004084561562649
 31
0.0
  0
LINE
  5
8BA
330
8AF
100
AcDbEntity
  8
NOKITOI
  6
PHANTOM
 62
     8
 48
5.0
100
AcDbLine
 10
31.7696030692515
 20
1.717148317474653
 30
0.0
 11
30.03760081640678
 21
13.84074986315983
 31
0.0
  0
LINE
  5
8BB
330
8AF
100
AcDbEntity
  8
NOKITOI
  6
PHANTOM
 62
     8
 48
5.0
100
AcDbLine
 10
32.82493041637542
 20
3.875731205022476
 30
0.0
 11
31.0605849818495
 21
16.15424608093684
 31
0.0
  0
ARC
  5
8BC
330
8AF
100
AcDbEntity
  8
NOKITOI
  6
PHANTOM
 62
     8
 48
5.0
100
AcDbCircle
 10
33.74950072274612
 20
1.999999742875161
 30
0.0
 40
2.000000000000059
100
AcDbArc
 50
188.1303747592974
 51
270.0002727592757
  0
ARC
  5
8BD
330
8AF
100
AcDbEntity
  8
NOKITOI
  6
PHANTOM
 62
     8
 48
5.0
100
AcDbCircle
 10
35.79477686792404
 20
4.300009479535447
 30
0.0
 40
2.99999999999991
100
AcDbArc
 50
188.1303764195606
 51
270.0002727592888
  0
ARC
  5
8BE
330
8AF
100
AcDbEntity
  8
NOKITOI
  6
PHANTOM
 62
     8
 48
5.0
100
AcDbCircle
 10
37.46881022185437
 20
29.83312844914019
 30
0.0
 40
17.49999999999989
100
AcDbArc
 50
187.9698827592866
 51
244.2676227180992
  0
ARC
  5
8BF
330
8AF
100
AcDbEntity
  8
NOKITOI
  6
PHANTOM
 62
     8
 48
5.0
100
AcDbCircle
 10
37.46881022185437
 20
29.83312844914019
 30
0.0
 40
16.19999999999994
100
AcDbArc
 50
187.9698827592866
 51
231.2685868059484
  0
ARC
  5
8C0
330
8AF
100
AcDbEntity
  8
NOKITOI
  6
PHANTOM
 62
     8
 48
5.0
100
AcDbCircle
 10
30.76363501240428
 20
16.11157623623922
 30
0.0
 40
0.3000000000000004
100
AcDbArc
 50
8.177070333932466
 51
79.09679670050285
  0
ARC
  5
8C1
330
8AF
100
AcDbEntity
  8
NOKITOI
  6
PHANTOM
 62
     8
 48
5.0
100
AcDbCircle
 10
27.9586194733937
 20
17.97579856725315
 30
0.0
 40
0.999999999999992
100
AcDbArc
 50
231.2685868059484
 51
259.0967967005029
  0
ARC
  5
8C2
330
8AF
100
AcDbEntity
  8
NOKITOI
  6
PHANTOM
 62
     8
 48
5.0
100
AcDbCircle
 10
29.74061617125187
 20
13.79832203570857
 30
0.0
 40
0.2999999999999991
100
AcDbArc
 50
8.130376419557409
 51
64.26762271809918
  0
LINE
  5
8C3
330
8AF
100
AcDbEntity
  8
NOKITOI
  6
PHANTOM
 62
     8
 48
5.0
100
AcDbLine
 10
27.76946913123049
 20
16.99385042806267
 30
0.0
 11
30.82038011505313
 21
16.40616067799635
 31
0.0
  0
LINE
  5
8C4
330
8AF
100
AcDbEntity
  8
NOKITOI
  6
PHANTOM
 62
     8
 48
5.0
100
AcDbLine
 10
121.6016911540796
 20
1.909602967408773
 30
0.0
 11
123.4930702655338
 21
43.63231217163491
 31
0.0
  0
LINE
  5
8C5
330
8AF
100
AcDbEntity
  8
NOKITOI
  6
PHANTOM
 62
     8
 48
5.0
100
AcDbLine
 10
120.4028196958152
 20
4.164189267704501
 30
0.0
 11
122.2724523159559
 21
45.30042116109132
 31
0.0
  0
ARC
  5
8C6
330
8AF
100
AcDbEntity
  8
NOKITOI
  6
PHANTOM
 62
     8
 48
5.0
100
AcDbCircle
 10
117.4059134271629
 20
4.300397993236402
 30
0.0
 40
2.999999999999661
100
AcDbArc
 50
270.0002727592757
 51
357.3977103715406
  0
ARC
  5
8C7
330
8AF
100
AcDbEntity
  8
NOKITOI
  6
PHANTOM
 62
     8
 48
5.0
100
AcDbCircle
 10
119.603753721774
 20
2.000408456133528
 30
0.0
 40
1.999999999999925
100
AcDbArc
 50
270.0002727592757
 51
357.3977107592921
  0
LINE
  5
8C8
330
8AF
100
AcDbEntity
  8
NOKITOI
  6
PHANTOM
 62
     8
 48
5.0
100
AcDbLine
 10
127.8100625650709
 20
43.60415660335514
 30
0.0
 11
129.5146481185466
 21
42.49999974289773
 31
0.0
  0
LINE
  5
8C9
330
8AF
100
AcDbEntity
  8
NOKITOI
  6
PHANTOM
 62
     8
 48
5.0
100
AcDbLine
 10
129.514643687523
 20
43.43077988857635
 30
0.0
 11
129.5146481185466
 21
42.49999974289773
 31
0.0
  0
ARC
  5
8CA
330
8AF
100
AcDbEntity
  8
NOKITOI
  6
PHANTOM
 62
     8
 48
5.0
100
AcDbCircle
 10
129.0146436875289
 20
43.43077750830253
 30
0.0
 40
0.4999999999999311
100
AcDbArc
 50
239.0365157592917
 51
0.0002727593017656
  0
ARC
  5
8CB
330
8AF
100
AcDbEntity
  8
NOKITOI
  6
PHANTOM
 62
     8
 48
5.0
100
AcDbCircle
 10
123.9925573055862
 20
43.60966936219097
 30
0.0
 40
0.499999999999965
100
AcDbArc
 50
90.00027275928873
 51
177.404437491292
  0
LINE
  5
8CC
330
8AF
100
AcDbEntity
  8
NOKITOI
  6
PHANTOM
 62
     8
 48
5.0
100
AcDbLine
 10
123.9925549253126
 20
44.10966936218529
 30
0.0
 11
127.0147097786899
 21
44.10968374929757
 31
0.0
  0
LINE
  5
8CD
330
8AF
100
AcDbEntity
  8
NOKITOI
  6
PHANTOM
 62
     8
 48
5.0
100
AcDbLine
 10
127.0147097786899
 20
44.10968374929757
 30
0.0
 11
123.5250042133898
 21
44.10968374929757
 31
0.0
  0
LINE
  5
8CE
330
8AF
100
AcDbEntity
  8
NOKITOI
  6
PHANTOM
 62
     8
 48
5.0
100
AcDbLine
 10
127.0147097786899
 20
44.10968374929757
 30
0.0
 11
128.7573977286024
 21
43.00202928366593
 31
0.0
  0
LINE
  5
8CF
330
8AF
100
AcDbEntity
  8
NOKITOI
  6
PHANTOM
 62
     8
 48
5.0
100
AcDbLine
 10
124.0970381286829
 20
45.40966985959733
 30
0.0
 11
127.9147035899673
 21
45.40968803377564
 31
0.0
  0
ARC
  5
8D0
330
8AF
100
AcDbEntity
  8
NOKITOI
  6
PHANTOM
 62
     8
 48
5.0
100
AcDbCircle
 10
124.0970357484089
 20
45.90966985959165
 30
0.0
 40
0.4999999999999966
100
AcDbArc
 50
177.3977101688737
 51
270.0002727592888
  0
ARC
  5
8D1
330
8AF
100
AcDbEntity
  8
NOKITOI
  6
PHANTOM
 62
     8
 48
5.0
100
AcDbCircle
 10
127.9147021618032
 20
45.70968803377195
 30
0.0
 40
0.299999999999716
100
AcDbArc
 50
270.0002727592888
 51
0.0002727593310776
  0
LINE
  5
8D2
330
8AF
100
AcDbEntity
  8
NOKITOI
  6
PHANTOM
 62
     8
 48
5.0
100
AcDbLine
 10
128.2146746422095
 20
51.3812109493922
 30
0.0
 11
128.2147021617998
 21
45.70968946193648
 31
0.0
  0
ARC
  5
8D3
330
8AF
100
AcDbEntity
  8
NOKITOI
  6
PHANTOM
 62
     8
 48
5.0
100
AcDbCircle
 10
9.217103878348212
 20
73.6243887463238
 30
0.0
 40
4.084047239721376
100
AcDbArc
 50
8.07474083461601
 51
65.56290547640806
  0
LINE
  5
8D4
330
8AF
100
AcDbEntity
  8
NOKITOI
  6
PHANTOM
 62
     8
 48
5.0
100
AcDbLine
 10
4.714548438332599
 20
77.89128675497381
 30
0.0
 11
4.714566839771464
 21
74.02588286696903
 31
0.0
  0
ARC
  5
8D5
330
8AF
100
AcDbEntity
  8
NOKITOI
  6
PHANTOM
 62
     8
 48
5.0
100
AcDbCircle
 10
2.976832985286023
 20
76.49985294462351
 30
0.0
 40
1.700000000000254
100
AcDbArc
 50
98.05602970221763
 51
187.125288759277
  0
ARC
  5
8D6
330
8AF
100
AcDbEntity
  8
NOKITOI
  6
PHANTOM
 62
     8
 48
5.0
100
AcDbCircle
 10
2.976832985286023
 20
76.49985294462351
 30
0.0
 40
3.000000000000204
100
AcDbArc
 50
98.09838408023845
 51
187.1252887592867
  0
ARC
  5
8D7
330
8AF
100
AcDbEntity
  8
NOKITOI
  6
PHANTOM
 62
     8
 48
5.0
100
AcDbCircle
 10
8.014546991360589
 20
74.28559468837636
 30
0.0
 40
1.5
100
AcDbArc
 50
80.27269634530323
 51
180.0
  0
ARC
  5
8D8
330
8AF
100
AcDbEntity
  8
NOKITOI
  6
PHANTOM
 62
     8
 48
5.0
100
AcDbCircle
 10
6.285356230304728
 20
54.22687237117862
 30
0.0
 40
11.90000000000003
100
AcDbArc
 50
69.37287935362224
 51
92.9999999999926
  0
LINE
  5
8D9
330
8AF
100
AcDbEntity
  8
NOKITOI
  6
PHANTOM
 62
     8
 48
5.0
100
AcDbLine
 10
4.235326354626864
 20
70.13390973264774
 30
0.0
 11
6.419470698961163
 21
73.14908414682316
 31
0.0
  0
ARC
  5
8DA
330
8AF
100
AcDbEntity
  8
NOKITOI
  6
PHANTOM
 62
     8
 48
5.0
100
AcDbCircle
 10
6.285356230304728
 20
54.22687237117862
 30
0.0
 40
10.00000000000008
100
AcDbArc
 50
7.969883756126735
 51
92.9999999999926
  0
LINE
  5
8DB
330
8AF
100
AcDbEntity
  8
NOKITOI
  6
PHANTOM
 62
     8
 48
5.0
100
AcDbLine
 10
1.51626550121307
 20
63.99065837684691
 30
0.0
 11
0.0000007567385865
 21
76.12773477326732
 31
0.0
  0
LINE
  5
8DC
330
8AF
100
AcDbEntity
  8
NOKITOI
  6
PHANTOM
 62
     8
 48
5.0
100
AcDbLine
 10
1.51626550121307
 20
63.99065837684691
 30
0.0
 11
5.761996667875224
 21
64.21316771872444
 31
0.0
  0
ARC
  5
8DD
330
8AF
100
AcDbEntity
  8
NOKITOI
  6
PHANTOM
 62
     8
 48
5.0
100
AcDbCircle
 10
4.214566839776921
 20
74.02588048669526
 30
0.0
 40
0.5000000000000315
100
AcDbArc
 50
324.0810261483387
 51
0.0002727592789674
  0
ARC
  5
8DE
330
8AF
100
AcDbEntity
  8
NOKITOI
  6
PHANTOM
 62
     8
 48
5.0
100
AcDbCircle
 10
3.939876585704383
 20
68.7843527312881
 30
0.0
 40
0.9999999999999993
100
AcDbArc
 50
101.5576465781719
 51
187.1252891081787
  0
ARC
  5
8DF
330
8AF
100
AcDbEntity
  8
NOKITOI
  6
PHANTOM
 62
     8
 48
5.0
100
AcDbCircle
 10
2.669428096177057
 20
71.89284252235962
 30
0.0
 40
0.5000000000000003
100
AcDbArc
 50
281.5576465781719
 51
324.081026148336
  0
LINE
  5
8E0
330
8AF
100
AcDbEntity
  8
NOKITOI
  6
PHANTOM
 62
     8
 48
5.0
100
AcDbLine
 10
2.769604975040124
 20
71.40298071231388
 30
0.0
 11
2.45135841165677
 21
71.33789919998776
 31
0.0
  0
ARC
  5
8E1
330
8AF
100
AcDbEntity
  8
NOKITOI
  6
PHANTOM
 62
     8
 48
5.0
100
AcDbCircle
 10
2.351181532793703
 20
71.82776101003344
 30
0.0
 40
0.4999999999999905
100
AcDbArc
 50
187.1209717742025
 51
281.5576465781719
  0
ARC
  5
8E2
330
8AF
100
AcDbEntity
  8
NOKITOI
  6
PHANTOM
 62
     8
 48
5.0
100
AcDbCircle
 10
2.351181532793703
 20
71.82776101003344
 30
0.0
 40
0.4999999999999905
100
AcDbArc
 50
187.1209717742025
 51
281.5576465781719
  0
ARC
  5
8E3
330
8AF
100
AcDbEntity
  8
NOKITOI
  6
PHANTOM
 62
     8
 48
5.0
100
AcDbCircle
 10
3.361599232417689
 20
70.787982802584
 30
0.0
 40
1.09142597774643
100
AcDbArc
 50
290.2590900096225
 51
323.1814341141131
  0
LINE
  5
8E4
330
8AF
100
AcDbEntity
  8
NOKITOI
  6
PHANTOM
 62
     8
 48
5.0
100
AcDbLine
 10
4.211124234085787
 20
66.03449739591429
 30
0.0
 11
5.6625583510139
 21
66.11056383475807
 31
0.0
  0
ARC
  5
8E5
330
8AF
100
AcDbEntity
  8
NOKITOI
  6
PHANTOM
 62
     8
 48
5.0
100
AcDbCircle
 10
4.158788277842973
 20
67.0331269306688
 30
0.0
 40
1.000000000000005
100
AcDbArc
 50
187.1252891081819
 51
273.0000000000056
  0
LINE
  5
8E6
330
8AF
100
AcDbEntity
  8
NOKITOI
  6
PHANTOM
 62
     8
 48
5.0
100
AcDbLine
 10
3.166510991613791
 20
66.90908747229503
 30
0.0
 11
2.947599299475201
 21
68.66031327291432
 31
0.0
  0
LINE
  5
8E7
330
8AF
100
AcDbEntity
  8
NOKITOI
  6
PHANTOM
 62
     8
 48
5.0
100
AcDbLine
 10
1.85503821779605
 20
71.76577866590924
 30
0.0
 11
1.289973738823733
 21
76.28888871839422
 31
0.0
  0
LINE
  5
8E8
330
8AF
100
AcDbEntity
  8
NOKITOI
  6
PHANTOM
 62
     8
 48
5.0
100
AcDbLine
 10
3.074351803777631
 20
71.59952223492121
 30
0.0
 11
4.619490547377723
 21
73.73256019925685
 31
0.0
  0
ARC
  5
8E9
330
8AF
100
AcDbEntity
  8
NOKITOI
  6
PHANTOM
 62
     8
 48
5.0
100
AcDbCircle
 10
14.75369025610587
 20
63.69990931311463
 30
0.0
 40
0.2999999999998296
100
AcDbArc
 50
7.969881501863628
 51
90.00027275924964
  0
LINE
  5
8EA
330
8AF
100
AcDbEntity
  8
NOKITOI
  6
PHANTOM
 62
     8
 48
5.0
100
AcDbLine
 10
15.22791759737163
 20
62.47636999742622
 30
0.0
 11
15.01461456900677
 21
63.99991055526044
 31
0.0
  0
LINE
  5
8EB
330
8AF
100
AcDbEntity
  8
NOKITOI
  6
PHANTOM
 62
     8
 48
5.0
100
AcDbLine
 10
13.53583546463017
 20
63.99990351546211
 30
0.0
 11
15.01461456900677
 21
63.99991055526044
 31
0.0
  0
ARC
  5
8EC
330
8AF
100
AcDbEntity
  8
NOKITOI
  6
PHANTOM
 62
     8
 48
5.0
100
AcDbCircle
 10
15.88436208136534
 20
64.99991469574627
 30
0.0
 40
0.2999999999996023
100
AcDbArc
 50
7.969884542966325
 51
90.00027275926269
  0
ARC
  5
8ED
330
8AF
100
AcDbEntity
  8
NOKITOI
  6
PHANTOM
 62
     8
 48
5.0
100
AcDbCircle
 10
10.8298287013107
 20
66.29989063341407
 30
0.0
 40
1.000000000000001
100
AcDbArc
 50
249.3728793536222
 51
270.0002727592757
  0
ARC
  5
8EE
330
8AF
100
AcDbEntity
  8
NOKITOI
  6
PHANTOM
 62
     8
 48
5.0
100
AcDbCircle
 10
12.3179825773733
 20
63.89989771781427
 30
0.0
 40
0.099999999999981
100
AcDbArc
 50
90.00027275928873
 51
238.0500844895506
  0
LINE
  5
8EF
330
8AF
100
AcDbEntity
  8
NOKITOI
  6
PHANTOM
 62
     8
 48
5.0
100
AcDbLine
 10
10.82983346185836
 20
65.29989063342532
 30
0.0
 11
15.88436065320127
 21
65.29991469574247
 31
0.0
  0
LINE
  5
8F0
330
8AF
100
AcDbEntity
  8
NOKITOI
  6
PHANTOM
 62
     8
 48
5.0
100
AcDbLine
 10
12.31798210131854
 20
63.99989771781316
 30
0.0
 11
14.7536888279418
 21
63.99990931311106
 31
0.0
  0
ARC
  5
8F1
330
8AF
100
AcDbEntity
  8
NOKITOI
  6
PHANTOM
 62
     8
 48
5.0
100
AcDbCircle
 10
15.30600850238909
 20
61.197369669517
 30
0.0
 40
0.1000000000000474
100
AcDbArc
 50
217.6942137014135
 51
7.969881501870078
  0
LINE
  5
8F2
330
8AF
100
AcDbEntity
  8
NOKITOI
  6
PHANTOM
 62
     8
 48
5.0
100
AcDbLine
 10
15.40504261145122
 20
61.2112349225722
 30
0.0
 11
15.05079258329204
 21
63.74150507228023
 31
0.0
  0
ARC
  5
8F3
330
8AF
100
AcDbEntity
  8
NOKITOI
  6
PHANTOM
 62
     8
 48
5.0
100
AcDbCircle
 10
6.285356230304728
 20
54.22687237117862
 30
0.0
 40
11.30000000000003
100
AcDbArc
 50
37.69421370141937
 51
58.05008448955056
  0
ARC
  5
8F4
330
8AF
100
AcDbEntity
  8
NOKITOI
  6
PHANTOM
 62
     8
 48
5.0
100
AcDbCircle
 10
9.217103878348212
 20
73.62438874632375
 30
0.0
 40
1.984047239721487
100
AcDbArc
 50
359.9999911171311
 51
64.8292325331936
  0
ARC
  5
8F5
330
8AF
100
AcDbEntity
  8
NOKITOI
  6
PHANTOM
 62
     8
 48
5.0
100
AcDbCircle
 10
9.635636478624633
 20
74.51499496262204
 30
0.0
 40
1.000000000000077
100
AcDbArc
 50
64.8292325331936
 51
80.27269634530323
  0
ARC
  5
8F6
330
8AF
100
AcDbEntity
  8
NOKITOI
  6
PHANTOM
 62
     8
 48
5.0
100
AcDbCircle
 10
6.014546991360589
 20
73.44240443426156
 30
0.0
 40
0.4999999999999855
100
AcDbArc
 50
324.081026148336
 51
0.0
  0
LINE
  5
8F7
330
8AF
100
AcDbEntity
  8
NOKITOI
  6
PHANTOM
 62
     8
 48
5.0
100
AcDbLine
 10
6.514546991360589
 20
74.28559468837636
 30
0.0
 11
6.514546991360589
 21
73.44240443426156
 31
0.0
  0
LINE
  5
8F8
330
8AF
100
AcDbEntity
  8
NOKITOI
  6
PHANTOM
 62
     8
 48
5.0
100
AcDbLine
 10
8.267985620718605
 20
75.76402928657444
 30
0.0
 11
9.804595564863462
 21
75.5006180280875
 31
0.0
  0
ARC
  5
8F9
330
8AF
100
AcDbEntity
  8
NOKITOI
  6
PHANTOM
 62
     8
 48
5.0
100
AcDbCircle
 10
11.9147478915437
 20
72.6098235557414
 30
0.0
 40
0.99999999999997
100
AcDbArc
 50
233.7824700684546
 51
324.3087057504162
  0
ARC
  5
8FA
330
8AF
100
AcDbEntity
  8
NOKITOI
  6
PHANTOM
 62
     8
 48
5.0
100
AcDbCircle
 10
11.50115111806952
 20
72.04507785281658
 30
0.0
 40
0.3000000000000114
100
AcDbArc
 50
180.0
 51
233.7824700684546
  0
LINE
  5
8FB
330
8AF
100
AcDbEntity
  8
NOKITOI
  6
PHANTOM
 62
     8
 48
5.0
100
AcDbLine
 10
11.9147478915437
 20
71.6098235557414
 30
0.0
 11
12.01474789154361
 21
71.6098235557414
 31
0.0
  0
LINE
  5
8FC
330
8AF
100
AcDbEntity
  8
NOKITOI
  6
PHANTOM
 62
     8
 48
5.0
100
AcDbLine
 10
11.20115111806956
 20
73.62438874632369
 30
0.0
 11
11.20115111806956
 21
72.04507785281658
 31
0.0
  0
ARC
  5
8FD
330
8AF
100
AcDbEntity
  8
NOKITOI
  6
PHANTOM
 62
     8
 48
5.0
100
AcDbCircle
 10
6.214539846639923
 20
79.69606008392481
 30
0.0
 40
0.2999999999999982
100
AcDbArc
 50
0.0002727593441052
 51
98.22733668820366
  0
LINE
  5
8FE
330
8AF
100
AcDbEntity
  8
NOKITOI
  6
PHANTOM
 62
     8
 48
5.0
100
AcDbLine
 10
6.171609489442631
 20
79.99297250271343
 30
0.0
 11
2.554213188939116
 21
79.46993585722669
 31
0.0
  0
LINE
  5
8FF
330
8AF
100
AcDbEntity
  8
NOKITOI
  6
PHANTOM
 62
     8
 48
5.0
100
AcDbLine
 10
4.1429978609616
 20
78.38613840861012
 30
0.0
 11
2.738592571013101
 21
78.18307649038559
 31
0.0
  0
ARC
  5
900
330
8AF
100
AcDbEntity
  8
NOKITOI
  6
PHANTOM
 62
     8
 48
5.0
100
AcDbCircle
 10
4.214548438338284
 20
77.89128437470004
 30
0.0
 40
0.4999999999999978
100
AcDbArc
 50
0.0002727592789674
 51
98.22733668820366
  0
ARC
  5
901
330
8AF
100
AcDbEntity
  8
NOKITOI
  6
PHANTOM
 62
     8
 48
5.0
100
AcDbCircle
 10
9.665567651501192
 20
74.61132271681879
 30
0.0
 40
3.000000000000007
100
AcDbArc
 50
65.56290547640806
 51
80.27269634529012
  0
LINE
  5
902
330
8AF
100
AcDbEntity
  8
NOKITOI
  6
PHANTOM
 62
     8
 48
5.0
100
AcDbLine
 10
6.514539846637149
 20
79.69606142131863
 30
0.0
 11
6.514544984409781
 21
78.61682153244772
 31
0.0
  0
ARC
  5
903
330
8AF
100
AcDbEntity
  8
NOKITOI
  6
PHANTOM
 62
     8
 48
5.0
100
AcDbCircle
 10
7.014544984404097
 20
78.61682391272143
 30
0.0
 40
0.4999999999999814
100
AcDbArc
 50
180.0002727592757
 51
260.2726963453033
  0
LINE
  5
904
330
8AF
100
AcDbEntity
  8
NOKITOI
  6
PHANTOM
 62
     8
 48
5.0
100
AcDbLine
 10
6.93006544128491
 20
78.1240123799887
 30
0.0
 11
10.17244491021745
 21
77.56819191321495
 31
0.0
  0
ARC
  5
905
330
8AF
100
AcDbEntity
  8
NOKITOI
  6
PHANTOM
 62
     8
 48
5.0
100
AcDbCircle
 10
124.469496618693
 20
58.40043162037364
 30
0.0
 40
0.2999999999997419
100
AcDbArc
 50
90.00027275926269
 51
177.397710168851
  0
LINE
  5
906
330
8AF
100
AcDbEntity
  8
NOKITOI
  6
PHANTOM
 62
     8
 48
5.0
100
AcDbLine
 10
124.469495190529
 20
58.70043162037052
 30
0.0
 11
125.9761621675666
 21
58.7004387929303
 31
0.0
  0
LINE
  5
907
330
8AF
100
AcDbEntity
  8
NOKITOI
  6
PHANTOM
 62
     8
 48
5.0
100
AcDbLine
 10
123.4183535848379
 20
60.00042661637519
 30
0.0
 11
126.5146336099338
 21
60.00044135636381
 31
0.0
  0
LINE
  5
908
330
8AF
100
AcDbEntity
  8
NOKITOI
  6
PHANTOM
 62
     8
 48
5.0
100
AcDbLine
 10
128.2146504550051
 20
56.46197181825039
 30
0.0
 11
125.9761621675666
 21
58.7004387929303
 31
0.0
  0
LINE
  5
909
330
8AF
100
AcDbEntity
  8
NOKITOI
  6
PHANTOM
 62
     8
 48
5.0
100
AcDbLine
 10
129.5146478915426
 20
57.00045563804088
 30
0.0
 11
126.5146336099338
 21
60.00044135636381
 31
0.0
  0
ARC
  5
90A
330
8AF
100
AcDbEntity
  8
NOKITOI
  6
PHANTOM
 62
     8
 48
5.0
100
AcDbCircle
 10
123.4183559651119
 20
59.50042661638088
 30
0.0
 40
0.5000000000000734
100
AcDbArc
 50
90.00027275928873
 51
177.3977087835152
  0
LINE
  5
90B
330
8AF
100
AcDbEntity
  8
NOKITOI
  6
PHANTOM
 62
     8
 48
5.0
100
AcDbLine
 10
126.5146336099338
 20
60.00044135636381
 30
0.0
 11
122.9405653832814
 21
60.00044135636381
 31
0.0
  0
ENDBLK
  5
90D
330
8AF
100
AcDbEntity
  8
0
100
AcDbBlockEnd
  0
BLOCK
  5
EEC
330
EE2
100
AcDbEntity
  8
0
100
AcDbBlockBegin
  2
*D2
 70
     1
 71
     0
 10
0.0
 20
0.0
 30
0.0
  3
*D2
  1

  0
LINE
  5
F4E
330
EE2
100
AcDbEntity
  8
SUNPOU
100
AcDbLine
 10
411.0420859533357
 20
203.3701123252786
 30
0.0
 11
384.0564988943299
 21
203.3701123252786
 31
0.0
  0
LINE
  5
F4F
330
EE2
100
AcDbEntity
  8
SUNPOU
100
AcDbLine
 10
413.5996617109649
 20
182.2701123252786
 30
0.0
 11
384.0564988943299
 21
182.2701123252786
 31
0.0
  0
LINE
  5
F50
330
EE2
100
AcDbEntity
  8
SUNPOU
100
AcDbLine
 10
387.0564988943299
 20
196.3701123252786
 30
0.0
 11
387.0564988943299
 21
189.2701123252786
 31
0.0
  0
INSERT
  5
F51
330
EE2
100
AcDbEntity
  8
SUNPOU
100
AcDbBlockReference
  2
_OPEN
 10
387.0564988943299
 20
203.3701123252786
 30
0.0
 41
7.0
 42
7.0
 43
7.0
 50
90.0
  0
INSERT
  5
F52
330
EE2
100
AcDbEntity
  8
SUNPOU
100
AcDbBlockReference
  2
_OPEN
 10
387.0564988943299
 20
182.2701123252786
 30
0.0
 41
7.0
 42
7.0
 43
7.0
 50
270.0
  0
MTEXT
  5
F53
330
EE2
100
AcDbEntity
  8
SUNPOU
100
AcDbMText
 10
382.0564988943299
 20
192.8201123252787
 30
0.0
 40
6.0
 41
0.0
 71
     5
 72
     1
  1
\A1;21
 11
6.123031769111886E-17
 21
1.0
 31
0.0
 73
     1
 44
1.0
  0
POINT
  5
F54
330
EE2
100
AcDbEntity
  8
DEFPOINTS
 62
     0
100
AcDbPoint
 10
417.0420859533357
 20
203.3701123252786
 30
0.0
  0
POINT
  5
F55
330
EE2
100
AcDbEntity
  8
DEFPOINTS
 62
     0
100
AcDbPoint
 10
419.5996617109649
 20
182.2701123252786
 30
0.0
  0
POINT
  5
F56
330
EE2
100
AcDbEntity
  8
DEFPOINTS
 62
     0
100
AcDbPoint
 10
387.0564988943299
 20
182.2701123252786
 30
0.0
  0
ENDBLK
  5
EED
330
EE2
100
AcDbEntity
  8
0
100
AcDbBlockEnd
  0
BLOCK
  5
EF8
330
EEE
100
AcDbEntity
  8
0
100
AcDbBlockBegin
  2
*D3
 70
     1
 71
     0
 10
0.0
 20
0.0
 30
0.0
  3
*D3
  1

  0
LINE
  5
F57
330
EEE
100
AcDbEntity
  8
SUNPOU
100
AcDbLine
 10
413.197885734666
 20
203.3701123252786
 30
0.0
 11
366.4500378632864
 21
203.3701123252786
 31
0.0
  0
LINE
  5
F58
330
EEE
100
AcDbEntity
  8
SUNPOU
100
AcDbLine
 10
446.477519837066
 20
119.4701123252786
 30
0.0
 11
366.4500378632863
 21
119.4701123252786
 31
0.0
  0
LINE
  5
F59
330
EEE
100
AcDbEntity
  8
SUNPOU
100
AcDbLine
 10
369.4500378632864
 20
196.3701123252786
 30
0.0
 11
369.4500378632863
 21
126.4701123252786
 31
0.0
  0
INSERT
  5
F5A
330
EEE
100
AcDbEntity
  8
SUNPOU
100
AcDbBlockReference
  2
_OPEN
 10
369.4500378632864
 20
203.3701123252786
 30
0.0
 41
7.0
 42
7.0
 43
7.0
 50
90.0
  0
INSERT
  5
F5B
330
EEE
100
AcDbEntity
  8
SUNPOU
100
AcDbBlockReference
  2
_OPEN
 10
369.4500378632863
 20
119.4701123252786
 30
0.0
 41
7.0
 42
7.0
 43
7.0
 50
270.0
  0
MTEXT
  5
F5C
330
EEE
100
AcDbEntity
  8
SUNPOU
100
AcDbMText
 10
364.4500378632863
 20
161.4201123252787
 30
0.0
 40
6.0
 41
0.0
 71
     5
 72
     1
  1
\A1;84
 11
6.123031769111886E-17
 21
1.0
 31
0.0
 73
     1
 44
1.0
  0
POINT
  5
F5D
330
EEE
100
AcDbEntity
  8
DEFPOINTS
 62
     0
100
AcDbPoint
 10
419.197885734666
 20
203.3701123252786
 30
0.0
  0
POINT
  5
F5E
330
EEE
100
AcDbEntity
  8
DEFPOINTS
 62
     0
100
AcDbPoint
 10
452.477519837066
 20
119.4701123252786
 30
0.0
  0
POINT
  5
F5F
330
EEE
100
AcDbEntity
  8
DEFPOINTS
 62
     0
100
AcDbPoint
 10
369.4500378632863
 20
119.4701123252786
 30
0.0
  0
ENDBLK
  5
EF9
330
EEE
100
AcDbEntity
  8
0
100
AcDbBlockEnd
  0
BLOCK
  5
F04
330
EFA
100
AcDbEntity
  8
0
100
AcDbBlockBegin
  2
*D4
 70
     1
 71
     0
 10
0.0
 20
0.0
 30
0.0
  3
*D4
  1

  0
LINE
  5
F60
330
EFA
100
AcDbEntity
  8
SUNPOU
100
AcDbLine
 10
450.7429290335878
 20
113.4701123252786
 30
0.0
 11
450.7429290335878
 21
86.98919701219279
 31
0.0
  0
LINE
  5
F61
330
EFA
100
AcDbEntity
  8
SUNPOU
100
AcDbLine
 10
544.43563619798
 20
113.4701123252786
 30
0.0
 11
544.43563619798
 21
86.98919701219279
 31
0.0
  0
LINE
  5
F62
330
EFA
100
AcDbEntity
  8
SUNPOU
100
AcDbLine
 10
457.7429290335878
 20
89.98919701219279
 30
0.0
 11
537.43563619798
 21
89.98919701219279
 31
0.0
  0
INSERT
  5
F63
330
EFA
100
AcDbEntity
  8
SUNPOU
100
AcDbBlockReference
  2
_OPEN
 10
450.7429290335878
 20
89.98919701219279
 30
0.0
 41
7.0
 42
7.0
 43
7.0
 50
180.0
  0
INSERT
  5
F64
330
EFA
100
AcDbEntity
  8
SUNPOU
100
AcDbBlockReference
  2
_OPEN
 10
544.43563619798
 20
89.98919701219279
 30
0.0
 41
7.0
 42
7.0
 43
7.0
  0
MTEXT
  5
F65
330
EFA
100
AcDbEntity
  8
SUNPOU
100
AcDbMText
 10
497.5892826157839
 20
94.98919701219279
 30
0.0
 40
6.0
 41
0.0
 71
     5
 72
     1
  1
\A1;94
 73
     1
 44
1.0
  0
POINT
  5
F66
330
EFA
100
AcDbEntity
  8
DEFPOINTS
 62
     0
100
AcDbPoint
 10
450.7429290335878
 20
119.4701123252786
 30
0.0
  0
POINT
  5
F67
330
EFA
100
AcDbEntity
  8
DEFPOINTS
 62
     0
100
AcDbPoint
 10
544.43563619798
 20
119.4701123252786
 30
0.0
  0
POINT
  5
F68
330
EFA
100
AcDbEntity
  8
DEFPOINTS
 62
     0
100
AcDbPoint
 10
544.43563619798
 20
89.98919701219279
 30
0.0
  0
ENDBLK
  5
F05
330
EFA
100
AcDbEntity
  8
0
100
AcDbBlockEnd
  0
BLOCK
  5
F10
330
F06
100
AcDbEntity
  8
0
100
AcDbBlockBegin
  2
*D5
 70
     1
 71
     0
 10
0.0
 20
0.0
 30
0.0
  3
*D5
  1

  0
LINE
  5
F69
330
F06
100
AcDbEntity
  8
SUNPOU
100
AcDbLine
 10
417.1730249614659
 20
214.4394605276786
 30
0.0
 11
417.1730249614659
 21
255.6087958816704
 31
0.0
  0
LINE
  5
F6A
330
F06
100
AcDbEntity
  8
SUNPOU
100
AcDbLine
 10
596.241720659066
 20
210.4282138560786
 30
0.0
 11
596.241720659066
 21
255.6087958816704
 31
0.0
  0
LINE
  5
F6B
330
F06
100
AcDbEntity
  8
SUNPOU
100
AcDbLine
 10
424.1730249614659
 20
252.6087958816704
 30
0.0
 11
589.241720659066
 21
252.6087958816704
 31
0.0
  0
INSERT
  5
F6C
330
F06
100
AcDbEntity
  8
SUNPOU
100
AcDbBlockReference
  2
_OPEN
 10
417.1730249614659
 20
252.6087958816704
 30
0.0
 41
7.0
 42
7.0
 43
7.0
 50
180.0
  0
INSERT
  5
F6D
330
F06
100
AcDbEntity
  8
SUNPOU
100
AcDbBlockReference
  2
_OPEN
 10
596.241720659066
 20
252.6087958816704
 30
0.0
 41
7.0
 42
7.0
 43
7.0
  0
MTEXT
  5
F6E
330
F06
100
AcDbEntity
  8
SUNPOU
100
AcDbMText
 10
506.707372810266
 20
257.6087958816704
 30
0.0
 40
6.0
 41
0.0
 71
     5
 72
     1
  1
\A1;179
 73
     1
 44
1.0
  0
POINT
  5
F6F
330
F06
100
AcDbEntity
  8
DEFPOINTS
 62
     0
100
AcDbPoint
 10
417.1730249614659
 20
208.4394605276786
 30
0.0
  0
POINT
  5
F70
330
F06
100
AcDbEntity
  8
DEFPOINTS
 62
     0
100
AcDbPoint
 10
596.241720659066
 20
204.4282138560786
 30
0.0
  0
POINT
  5
F71
330
F06
100
AcDbEntity
  8
DEFPOINTS
 62
     0
100
AcDbPoint
 10
596.241720659066
 20
252.6087958816704
 30
0.0
  0
ENDBLK
  5
F11
330
F06
100
AcDbEntity
  8
0
100
AcDbBlockEnd
  0
BLOCK
  5
F1C
330
F12
100
AcDbEntity
  8
0
100
AcDbBlockBegin
  2
*D6
 70
     1
 71
     0
 10
0.0
 20
0.0
 30
0.0
  3
*D6
  1

  0
LINE
  5
F72
330
F12
100
AcDbEntity
  8
SUNPOU
100
AcDbLine
 10
417.1730249614659
 20
208.4394605276786
 30
0.0
 11
417.1730249614659
 21
238.4392192611738
 31
0.0
  0
LINE
  5
F73
330
F12
100
AcDbEntity
  8
SUNPOU
100
AcDbLine
 10
552.8995075630658
 20
188.5701123252786
 30
0.0
 11
552.8995075630658
 21
238.4392192611738
 31
0.0
  0
LINE
  5
F74
330
F12
100
AcDbEntity
  8
SUNPOU
100
AcDbLine
 10
424.1730249614659
 20
235.4392192611738
 30
0.0
 11
545.8995075630658
 21
235.4392192611738
 31
0.0
  0
INSERT
  5
F75
330
F12
100
AcDbEntity
  8
SUNPOU
100
AcDbBlockReference
  2
_OPEN
 10
417.1730249614659
 20
235.4392192611738
 30
0.0
 41
7.0
 42
7.0
 43
7.0
 50
180.0
  0
INSERT
  5
F76
330
F12
100
AcDbEntity
  8
SUNPOU
100
AcDbBlockReference
  2
_OPEN
 10
552.8995075630658
 20
235.4392192611738
 30
0.0
 41
7.0
 42
7.0
 43
7.0
  0
MTEXT
  5
F77
330
F12
100
AcDbEntity
  8
SUNPOU
100
AcDbMText
 10
485.0362662622658
 20
240.4392192611738
 30
0.0
 40
6.0
 41
0.0
 71
     5
 72
     1
  1
\A1;136
 73
     1
 44
1.0
  0
POINT
  5
F78
330
F12
100
AcDbEntity
  8
DEFPOINTS
 62
     0
100
AcDbPoint
 10
417.1730249614659
 20
202.4394605276786
 30
0.0
  0
POINT
  5
F79
330
F12
100
AcDbEntity
  8
DEFPOINTS
 62
     0
100
AcDbPoint
 10
552.8995075630658
 20
182.5701123252786
 30
0.0
  0
POINT
  5
F7A
330
F12
100
AcDbEntity
  8
DEFPOINTS
 62
     0
100
AcDbPoint
 10
552.8995075630658
 20
235.4392192611738
 30
0.0
  0
ENDBLK
  5
F1D
330
F12
100
AcDbEntity
  8
0
100
AcDbBlockEnd
  0
BLOCK
  5
F28
330
F1E
100
AcDbEntity
  8
0
100
AcDbBlockBegin
  2
*D7
 70
     1
 71
     0
 10
0.0
 20
0.0
 30
0.0
  3
*D7
  1

  0
LINE
  5
F7B
330
F1E
100
AcDbEntity
  8
SUNPOU
100
AcDbLine
 10
558.8995075630658
 20
183.5701123252786
 30
0.0
 11
629.2922400712812
 21
183.5701123252786
 31
0.0
  0
LINE
  5
F7C
330
F1E
100
AcDbEntity
  8
SUNPOU
100
AcDbLine
 10
558.8995075630658
 20
160.4701123252786
 30
0.0
 11
629.2922400712812
 21
160.4701123252786
 31
0.0
  0
LINE
  5
F7D
330
F1E
100
AcDbEntity
  8
SUNPOU
100
AcDbLine
 10
626.2922400712812
 20
176.5701123252786
 30
0.0
 11
626.2922400712812
 21
167.4701123252786
 31
0.0
  0
INSERT
  5
F7E
330
F1E
100
AcDbEntity
  8
SUNPOU
100
AcDbBlockReference
  2
_OPEN
 10
626.2922400712812
 20
183.5701123252786
 30
0.0
 41
7.0
 42
7.0
 43
7.0
 50
90.0
  0
INSERT
  5
F7F
330
F1E
100
AcDbEntity
  8
SUNPOU
100
AcDbBlockReference
  2
_OPEN
 10
626.2922400712812
 20
160.4701123252786
 30
0.0
 41
7.0
 42
7.0
 43
7.0
 50
270.0
  0
MTEXT
  5
F80
330
F1E
100
AcDbEntity
  8
SUNPOU
100
AcDbMText
 10
621.2922400712812
 20
172.0201123252787
 30
0.0
 40
6.0
 41
0.0
 71
     5
 72
     1
  1
\A1;23
 11
6.123031769111886E-17
 21
1.0
 31
0.0
 73
     1
 44
1.0
  0
POINT
  5
F81
330
F1E
100
AcDbEntity
  8
DEFPOINTS
 62
     0
100
AcDbPoint
 10
552.8995075630658
 20
183.5701123252786
 30
0.0
  0
POINT
  5
F82
330
F1E
100
AcDbEntity
  8
DEFPOINTS
 62
     0
100
AcDbPoint
 10
552.8995075630658
 20
160.4701123252786
 30
0.0
  0
POINT
  5
F83
330
F1E
100
AcDbEntity
  8
DEFPOINTS
 62
     0
100
AcDbPoint
 10
626.2922400712812
 20
160.4701123252786
 30
0.0
  0
ENDBLK
  5
F29
330
F1E
100
AcDbEntity
  8
0
100
AcDbBlockEnd
  0
BLOCK
  5
F34
330
F2A
100
AcDbEntity
  8
0
100
AcDbBlockBegin
  2
*D8
 70
     1
 71
     0
 10
0.0
 20
0.0
 30
0.0
  3
*D8
  1

  0
LINE
  5
F84
330
F2A
100
AcDbEntity
  8
SUNPOU
100
AcDbLine
 10
557.8995075630658
 20
183.5701123252786
 30
0.0
 11
648.8496834400046
 21
183.5701123252786
 31
0.0
  0
LINE
  5
F85
330
F2A
100
AcDbEntity
  8
SUNPOU
100
AcDbLine
 10
548.524394684466
 20
119.4701123252786
 30
0.0
 11
648.8496834400046
 21
119.4701123252786
 31
0.0
  0
LINE
  5
F86
330
F2A
100
AcDbEntity
  8
SUNPOU
100
AcDbLine
 10
645.8496834400046
 20
176.5701123252786
 30
0.0
 11
645.8496834400046
 21
126.4701123252786
 31
0.0
  0
INSERT
  5
F87
330
F2A
100
AcDbEntity
  8
SUNPOU
100
AcDbBlockReference
  2
_OPEN
 10
645.8496834400046
 20
183.5701123252786
 30
0.0
 41
7.0
 42
7.0
 43
7.0
 50
90.0
  0
INSERT
  5
F88
330
F2A
100
AcDbEntity
  8
SUNPOU
100
AcDbBlockReference
  2
_OPEN
 10
645.8496834400046
 20
119.4701123252786
 30
0.0
 41
7.0
 42
7.0
 43
7.0
 50
270.0
  0
MTEXT
  5
F89
330
F2A
100
AcDbEntity
  8
SUNPOU
100
AcDbMText
 10
640.8496834400046
 20
151.5201123252787
 30
0.0
 40
6.0
 41
0.0
 71
     5
 72
     1
  1
\A1;64
 11
6.123031769111886E-17
 21
1.0
 31
0.0
 73
     1
 44
1.0
  0
POINT
  5
F8A
330
F2A
100
AcDbEntity
  8
DEFPOINTS
 62
     0
100
AcDbPoint
 10
551.8995075630658
 20
183.5701123252786
 30
0.0
  0
POINT
  5
F8B
330
F2A
100
AcDbEntity
  8
DEFPOINTS
 62
     0
100
AcDbPoint
 10
542.524394684466
 20
119.4701123252786
 30
0.0
  0
POINT
  5
F8C
330
F2A
100
AcDbEntity
  8
DEFPOINTS
 62
     0
100
AcDbPoint
 10
645.8496834400046
 20
119.4701123252786
 30
0.0
  0
ENDBLK
  5
F35
330
F2A
100
AcDbEntity
  8
0
100
AcDbBlockEnd
  0
BLOCK
  5
F40
330
F36
100
AcDbEntity
  8
0
100
AcDbBlockBegin
  2
*D9
 70
     1
 71
     0
 10
0.0
 20
0.0
 30
0.0
  3
*D9
  1

  0
LINE
  5
F8D
330
F36
100
AcDbEntity
  8
SUNPOU
100
AcDbLine
 10
595.0707509145234
 20
470.7401580214701
 30
0.0
 11
648.3048945360913
 21
470.74015802147
 31
0.0
  0
LINE
  5
F8E
330
F36
100
AcDbEntity
  8
SUNPOU
100
AcDbLine
 10
556.7278272803234
 20
291.6690548394701
 30
0.0
 11
648.3048945360913
 21
291.66905483947
 31
0.0
  0
LINE
  5
F8F
330
F36
100
AcDbEntity
  8
SUNPOU
100
AcDbLine
 10
645.3048945360913
 20
463.74015802147
 30
0.0
 11
645.3048945360913
 21
298.66905483947
 31
0.0
  0
INSERT
  5
F90
330
F36
100
AcDbEntity
  8
SUNPOU
100
AcDbBlockReference
  2
_OPEN
 10
645.3048945360913
 20
470.74015802147
 30
0.0
 41
7.0
 42
7.0
 43
7.0
 50
90.0
  0
INSERT
  5
F91
330
F36
100
AcDbEntity
  8
SUNPOU
100
AcDbBlockReference
  2
_OPEN
 10
645.3048945360913
 20
291.66905483947
 30
0.0
 41
7.0
 42
7.0
 43
7.0
 50
270.0
  0
MTEXT
  5
F92
330
F36
100
AcDbEntity
  8
SUNPOU
100
AcDbMText
 10
640.3048945360912
 20
381.2046064304701
 30
0.0
 40
6.0
 41
0.0
 71
     5
 72
     1
  1
\A1;179
 11
6.123031769111886E-17
 21
1.0
 31
0.0
 73
     1
 44
1.0
  0
POINT
  5
F93
330
F36
100
AcDbEntity
  8
DEFPOINTS
 62
     0
100
AcDbPoint
 10
589.0707509145234
 20
470.7401580214701
 30
0.0
  0
POINT
  5
F94
330
F36
100
AcDbEntity
  8
DEFPOINTS
 62
     0
100
AcDbPoint
 10
550.7278272803234
 20
291.6690548394701
 30
0.0
  0
POINT
  5
F95
330
F36
100
AcDbEntity
  8
DEFPOINTS
 62
     0
100
AcDbPoint
 10
645.3048945360913
 20
291.66905483947
 30
0.0
  0
ENDBLK
  5
F41
330
F36
100
AcDbEntity
  8
0
100
AcDbBlockEnd
  0
BLOCK
  5
F4C
330
F42
100
AcDbEntity
  8
0
100
AcDbBlockBegin
  2
*D10
 70
     1
 71
     0
 10
0.0
 20
0.0
 30
0.0
  3
*D10
  1

  0
LINE
  5
F96
330
F42
100
AcDbEntity
  8
SUNPOU
100
AcDbLine
 10
595.0707509145234
 20
470.7401580214701
 30
0.0
 11
629.0377121402761
 21
470.7401580214701
 31
0.0
  0
LINE
  5
F97
330
F42
100
AcDbEntity
  8
SUNPOU
100
AcDbLine
 10
600.0700403763233
 20
335.0112679352702
 30
0.0
 11
629.0377121402761
 21
335.0112679352702
 31
0.0
  0
LINE
  5
F98
330
F42
100
AcDbEntity
  8
SUNPOU
100
AcDbLine
 10
626.0377121402761
 20
463.7401580214701
 30
0.0
 11
626.0377121402761
 21
342.0112679352702
 31
0.0
  0
INSERT
  5
F99
330
F42
100
AcDbEntity
  8
SUNPOU
100
AcDbBlockReference
  2
_OPEN
 10
626.0377121402761
 20
470.7401580214701
 30
0.0
 41
7.0
 42
7.0
 43
7.0
 50
90.0
  0
INSERT
  5
F9A
330
F42
100
AcDbEntity
  8
SUNPOU
100
AcDbBlockReference
  2
_OPEN
 10
626.0377121402761
 20
335.0112679352702
 30
0.0
 41
7.0
 42
7.0
 43
7.0
 50
270.0
  0
MTEXT
  5
F9B
330
F42
100
AcDbEntity
  8
SUNPOU
100
AcDbMText
 10
621.037712140276
 20
402.8757129783701
 30
0.0
 40
6.0
 41
0.0
 71
     5
 72
     1
  1
\A1;136
 11
6.123031769111886E-17
 21
1.0
 31
0.0
 73
     1
 44
1.0
  0
POINT
  5
F9C
330
F42
100
AcDbEntity
  8
DEFPOINTS
 62
     0
100
AcDbPoint
 10
589.0707509145234
 20
470.7401580214701
 30
0.0
  0
POINT
  5
F9D
330
F42
100
AcDbEntity
  8
DEFPOINTS
 62
     0
100
AcDbPoint
 10
594.0700403763233
 20
335.0112679352702
 30
0.0
  0
POINT
  5
F9E
330
F42
100
AcDbEntity
  8
DEFPOINTS
 62
     0
100
AcDbPoint
 10
626.0377121402761
 20
335.0112679352702
 30
0.0
  0
ENDBLK
  5
F4D
330
F42
100
AcDbEntity
  8
0
100
AcDbBlockEnd
  0
ENDSEC
  0
SECTION
  2
ENTITIES
  0
TEXT
  5
46F
330
1A
100
AcDbEntity
  8
SUNPOU
 62
     4
100
AcDbText
 10
684.9983445684752
 20
37.16107601380135
 30
0.0
 40
6.0
  1
※　のきといの差込み寸法を示す
100
AcDbText
  0
LINE
  5
7BE
330
1A
100
AcDbEntity
  8
ZUWAKU
100
AcDbLine
 10
208.646601303624
 20
15.19999986828872
 30
0.0
 11
447.4243639845474
 21
15.19999986828871
 31
0.0
  0
LINE
  5
7BF
330
1A
100
AcDbEntity
  8
ZUWAKU
100
AcDbLine
 10
208.646601303624
 20
15.59999986828872
 30
0.0
 11
447.4243639845474
 21
15.59999986828872
 31
0.0
  0
LINE
  5
7C0
330
1A
100
AcDbEntity
  8
ZUWAKU
100
AcDbLine
 10
208.646601303624
 20
15.39999986828872
 30
0.0
 11
447.4243639845474
 21
15.39999986828872
 31
0.0
  0
LINE
  5
7C1
330
1A
100
AcDbEntity
  8
ZUWAKU
100
AcDbLine
 10
0.0000000135560185
 20
30.79999986828869
 30
0.0
 11
797.4000000135559
 21
30.79999986828869
 31
0.0
  0
LINE
  5
7C2
330
1A
100
AcDbEntity
  8
ZUWAKU
100
AcDbLine
 10
0.0000000135560185
 20
30.59999986828869
 30
0.0
 11
797.4000000135559
 21
30.59999986828869
 31
0.0
  0
LINE
  5
7C3
330
1A
100
AcDbEntity
  8
ZUWAKU
100
AcDbLine
 10
0.0000000135560185
 20
30.39999986828869
 30
0.0
 11
797.4000000135559
 21
30.39999986828869
 31
0.0
  0
LINE
  5
7C4
330
1A
100
AcDbEntity
  8
ZUWAKU
100
AcDbLine
 10
0.0000000135560185
 20
30.19999986828869
 30
0.0
 11
797.4000000135559
 21
30.19999986828869
 31
0.0
  0
LINE
  5
7C5
330
1A
100
AcDbEntity
  8
ZUWAKU
100
AcDbLine
 10
0.0000000135560185
 20
29.99999986828868
 30
0.0
 11
797.4000000135559
 21
29.99999986828868
 31
0.0
  0
LWPOLYLINE
  5
7C6
330
1A
100
AcDbEntity
  8
ZUWAKU
100
AcDbPolyline
 90
        4
 70
     1
 43
0.0
 10
0.2000000135559503
 20
551.3999998682888
 10
0.2000000135559503
 20
0.1999998682887281
 10
797.4000000135559
 20
0.1999998682887512
 10
797.4000000135561
 20
551.3999998682888
  0
LWPOLYLINE
  5
7C7
330
1A
100
AcDbEntity
  8
ZUWAKU
100
AcDbPolyline
 90
        4
 70
     1
 43
0.0
 10
0.6000000135559276
 20
550.9999998682888
 10
0.6000000135559276
 20
0.5999998682887053
 10
797.0000000135563
 20
0.5999998682887515
 10
797.000000013556
 20
550.9999998682888
  0
LWPOLYLINE
  5
7C8
330
1A
100
AcDbEntity
  8
ZUWAKU
100
AcDbPolyline
 90
        4
 70
     1
 43
0.0
 10
0.0000000135560185
 20
551.5999998682887
 10
0.0000000135560185
 20
-0.0000001317113174
 10
797.6000000135562
 20
-0.0000001317112499
 10
797.6000000135562
 20
551.5999998682888
  0
LWPOLYLINE
  5
7C9
330
1A
100
AcDbEntity
  8
ZUWAKU
100
AcDbPolyline
 90
        4
 70
     1
 43
0.0
 10
0.4000000135559958
 20
551.1999998682887
 10
0.4000000135559958
 20
0.3999998682887735
 10
797.2000000135561
 20
0.3999998682887505
 10
797.2000000135561
 20
551.1999998682887
  0
LWPOLYLINE
  5
7CA
330
1A
100
AcDbEntity
  8
ZUWAKU
100
AcDbPolyline
 90
        4
 70
     1
 43
0.0
 10
0.8000000135559731
 20
550.7999998682888
 10
0.8000000135559731
 20
0.7999998682887508
 10
796.800000013556
 20
0.7999998682887508
 10
796.800000013556
 20
550.7999998682888
  0
TEXT
  5
7CB
330
1A
100
AcDbEntity
  8
moji
100
AcDbText
 10
92.95778960172515
 20
12.74117799856344
 30
0.0
 40
6.0
  1
アーバントップΣ９０
 41
0.9
  7
ｽﾀｲﾙ1
100
AcDbText
  0
HATCH
  5
7CC
330
1A
100
AcDbEntity
  8
ZUWAKU
100
AcDbHatch
 10
0.0
 20
0.0
 30
0.0
210
0.0
220
0.0
230
1.0
  2
ANSI37
 70
     0
 71
     0
 91
        8
 92
        7
 72
     1
 73
     1
 93
       24
 10
14.50226267467588
 20
17.64484834927227
 42
-0.1989123673796348
 10
14.09221216833714
 20
18.63479784293332
 42
0.0
 10
14.09221216833714
 20
19.92499986828869
 42
-0.4142135623730912
 10
14.61721216833712
 20
20.44999986828869
 42
0.0
 10
17.59221216833703
 20
20.44999986828869
 42
0.4142135623731546
 10
18.11721216833712
 20
20.97499986828868
 42
0.0
 10
18.11721216833712
 20
22.72499986828869
 42
0.4142135623731586
 10
17.59221216833703
 20
23.24999986828869
 42
0.0
 10
14.09221216833714
 20
23.24999986828869
 42
0.4142135623730928
 10
11.29221216833719
 20
20.44999986828871
 42
0.0
 10
11.29221216833719
 20
18.63479784293345
 42
0.1989123673796619
 10
12.52236368735362
 20
15.66494936194984
 42
0.0
 10
15.43216166199829
 20
12.75515138730518
 42
-0.1989123673796613
 10
15.84221216833714
 20
11.76520189364399
 42
0.0
 10
15.84221216833714
 20
10.47499986828868
 42
-0.4142135623730911
 10
15.31721216833716
 20
9.949999868288685
 42
0.0
 10
12.34221216833726
 20
9.949999868288685
 42
0.4142135623731526
 10
11.81721216833716
 20
9.424999868288698
 42
0.0
 10
11.81721216833716
 20
7.674999868288676
 42
0.4142135623731526
 10
12.34221216833726
 20
7.149999868288688
 42
0.0
 10
15.84221216833714
 20
7.149999868288688
 42
0.4142135623731044
 10
18.64221216833721
 20
9.949999868288664
 42
0.0
 10
18.64221216833721
 20
11.76520189364394
 42
0.1989123673796604
 10
17.41206064932067
 20
14.73505037462748
 42
0.0
 97
        0
 92
        7
 72
     1
 73
     1
 93
       16
 10
23.54221216833719
 20
19.04999986828869
 42
-0.4142135623730935
 10
24.94221216833716
 20
20.44999986828869
 42
0.0
 10
26.86721216833712
 20
20.44999986828869
 42
0.4142135623731546
 10
27.39221216833721
 20
20.97499986828868
 42
0.0
 10
27.39221216833721
 20
22.72499986828869
 42
0.4142135623730952
 10
26.86721216833723
 20
23.24999986828869
 42
0.0
 10
24.94221216833705
 20
23.24999986828865
 42
0.4142135623730892
 10
20.74221216833712
 20
19.04999986828862
 42
0.0
 10
20.74221216833712
 20
11.34999986828871
 42
0.4142135623730969
 10
24.94221216833716
 20
7.149999868288688
 42
0.0
 10
26.86721216833712
 20
7.149999868288688
 42
0.4142135623731526
 10
27.39221216833721
 20
7.674999868288676
 42
0.0
 10
27.39221216833721
 20
9.424999868288698
 42
0.414213562373089
 10
26.86721216833723
 20
9.949999868288685
 42
0.0
 10
24.94221216833716
 20
9.949999868288685
 42
-0.4142135623730928
 10
23.54221216833719
 20
11.34999986828867
 42
0.0
 97
        0
 92
        7
 72
     1
 73
     1
 93
        2
 10
24.24221216833712
 20
15.19999986828869
 42
1.0
 10
27.74221216833712
 20
15.19999986828869
 42
1.0
 97
        0
 92
        7
 72
     1
 73
     1
 93
       26
 10
37.31485865051513
 20
19.20504706185211
 42
0.0
 10
38.37649828365295
 20
22.5669059001217
 42
0.5069206636600134
 10
37.87586738445759
 20
23.24999986828869
 42
0.0
 10
36.17697800484837
 20
23.24999986828869
 42
0.3272098845218764
 10
35.67634710565301
 20
22.88309383645566
 42
0.0
 10
33.80807723102123
 20
16.96690590012177
 42
-0.3272098845219541
 10
33.30744633182576
 20
16.59999986828868
 42
0.0
 10
33.1672121683373
 20
16.59999986828868
 42
-0.4142135623731526
 10
32.64221216833721
 20
17.12499986828867
 42
0.0
 10
32.64221216833721
 20
22.72499986828869
 42
0.4142135623730952
 10
32.11721216833723
 20
23.24999986828869
 42
0.0
 10
30.36721216833712
 20
23.24999986828869
 42
0.4142135623730872
 10
29.84221216833714
 20
22.72499986828871
 42
0.0
 10
29.84221216833714
 20
7.674999868288676
 42
0.414213562373089
 10
30.36721216833712
 20
7.149999868288688
 42
0.0
 10
32.11721216833712
 20
7.149999868288688
 42
0.4142135623731526
 10
32.64221216833721
 20
7.674999868288676
 42
0.0
 10
32.64221216833721
 20
13.2749998682887
 42
-0.4142135623731526
 10
33.1672121683373
 20
13.79999986828869
 42
0.0
 10
33.30744633182587
 20
13.79999986828869
 42
-0.3272098845218915
 10
33.80807723102123
 20
13.43309383645561
 42
0.0
 10
35.67634710565301
 20
7.51690590012176
 42
0.3272098845218902
 10
36.17697800484837
 20
7.149999868288688
 42
0.0
 10
37.87586738445759
 20
7.149999868288688
 42
0.5069206636600334
 10
38.37649828365295
 20
7.833093836455696
 42
0.0
 10
36.05010690517929
 20
15.19999986828882
 42
0.0
 97
        0
 92
        7
 72
     1
 73
     1
 93
        8
 10
43.49221216833712
 20
22.7249998682887
 42
0.4142135623731546
 10
42.96721216833703
 20
23.24999986828869
 42
0.0
 10
41.21721216833726
 20
23.24999986828869
 42
0.4142135623731506
 10
40.69221216833716
 20
22.72499986828871
 42
0.0
 10
40.69221216833716
 20
7.674999868288676
 42
0.4142135623731526
 10
41.21721216833726
 20
7.149999868288688
 42
0.0
 10
42.96721216833703
 20
7.149999868288688
 42
0.4142135623731526
 10
43.49221216833712
 20
7.674999868288676
 42
0.0
 97
        0
 92
        7
 72
     1
 73
     1
 93
       24
 10
48.39221216833721
 20
19.92499986828869
 42
-0.4142135623731547
 10
48.9172121683373
 20
20.44999986828869
 42
0.0
 10
51.89221216833721
 20
20.44999986828869
 42
0.4142135623730911
 10
52.41721216833719
 20
20.97499986828868
 42
0.0
 10
52.41721216833719
 20
22.72499986828869
 42
0.4142135623730952
 10
51.89221216833721
 20
23.24999986828869
 42
0.0
 10
48.39221216833721
 20
23.24999986828869
 42
0.4142135623731048
 10
45.59221216833714
 20
20.44999986828871
 42
0.0
 10
45.59221216833714
 20
18.63479784293345
 42
0.1989123673796613
 10
46.82236368735369
 20
15.66494936194989
 42
0.0
 10
49.73216166199836
 20
12.75515138730523
 42
-0.1989123673796402
 10
50.14221216833721
 20
11.76520189364415
 42
0.0
 10
50.14221216833721
 20
10.47499986828868
 42
-0.4142135623730911
 10
49.61721216833723
 20
9.949999868288685
 42
0.0
 10
46.64221216833721
 20
9.949999868288685
 42
0.4142135623731526
 10
46.11721216833712
 20
9.424999868288698
 42
0.0
 10
46.11721216833712
 20
7.674999868288676
 42
0.414213562373089
 10
46.6422121683371
 20
7.149999868288688
 42
0.0
 10
50.14221216833721
 20
7.149999868288688
 42
0.4142135623730925
 10
52.94221216833716
 20
9.949999868288664
 42
0.0
 10
52.94221216833716
 20
11.76520189364394
 42
0.1989123673796675
 10
51.71206064932062
 20
14.73505037462759
 42
0.0
 10
48.80226267467606
 20
17.64484834927211
 42
-0.1989123673796653
 10
48.39221216833721
 20
18.63479784293327
 42
0.0
 97
        0
 92
        7
 72
     1
 73
     1
 93
       16
 10
57.84221216833714
 20
22.72499986828868
 42
0.414213562373103
 10
57.31721216833716
 20
23.24999986828869
 42
0.0
 10
55.56721216833716
 20
23.24999986828869
 42
0.4142135623730872
 10
55.04221216833719
 20
22.72499986828871
 42
0.0
 10
55.04221216833719
 20
9.949999868288664
 42
0.4142135623730925
 10
57.84221216833714
 20
7.149999868288688
 42
0.0
 10
61.34221216833714
 20
7.149999868288688
 42
0.4142135623731044
 10
64.14221216833721
 20
9.949999868288664
 42
0.0
 10
64.14221216833721
 20
22.72499986828869
 42
0.4142135623730952
 10
63.61721216833723
 20
23.24999986828869
 42
0.0
 10
61.86721216833712
 20
23.24999986828869
 42
0.4142135623730872
 10
61.34221216833714
 20
22.72499986828871
 42
0.0
 10
61.34221216833714
 20
10.99999986828866
 42
-0.414213562373088
 10
60.29221216833719
 20
9.949999868288685
 42
0.0
 10
58.89221216833721
 20
9.949999868288685
 42
-0.4142135623731197
 10
57.84221216833714
 20
10.99999986828866
 42
0.0
 97
        0
 92
        7
 72
     1
 73
     1
 93
        8
 10
69.04221216833719
 20
22.72499986828871
 42
0.4142135623730872
 10
68.51721216833721
 20
23.24999986828869
 42
0.0
 10
66.76721216833721
 20
23.24999986828869
 42
0.4142135623731506
 10
66.24221216833712
 20
22.72499986828871
 42
0.0
 10
66.24221216833712
 20
7.674999868288676
 42
0.414213562373089
 10
66.7672121683371
 20
7.149999868288688
 42
0.0
 10
68.51721216833721
 20
7.149999868288688
 42
0.414213562373089
 10
69.04221216833719
 20
7.674999868288676
 42
0.0
 97
        0
 75
     0
 76
     1
 52
0.0
 41
0.2
 77
     0
 78
     2
 53
45.0
 43
-900.942304321123
 44
-13.20000013171125
 45
-0.4490128060534576
 46
0.4490128060534577
 79
     0
 53
135.0
 43
-900.942304321123
 44
-13.20000013171125
 45
-0.4490128060534577
 46
-0.4490128060534576
 79
     0
 47
0.057451373970553
 98
        8
 10
16.07985497657933
 20
15.16717351417424
 10
22.40451501999519
 20
18.84406205073969
 10
25.16436789921568
 20
15.5118815143594
 10
30.91405999519316
 20
16.20129751473019
 10
41.83847203251276
 20
16.6609097822718
 10
46.89820090868557
 20
19.41857618469589
 10
56.55768598595637
 20
18.7291577833837
 10
67.82707963317876
 20
19.18877005092531
  0
LINE
  5
7CD
330
1A
100
AcDbEntity
  8
ZUWAKU
100
AcDbLine
 10
24.94221216833716
 20
23.24999986828865
 30
0.0
 11
26.86721216833712
 21
23.24999986828869
 31
0.0
  0
LINE
  5
7CE
330
1A
100
AcDbEntity
  8
ZUWAKU
100
AcDbLine
 10
26.86721216833712
 20
20.44999986828869
 30
0.0
 11
24.94221216833716
 21
20.44999986828869
 31
0.0
  0
LINE
  5
7CF
330
1A
100
AcDbEntity
  8
ZUWAKU
100
AcDbLine
 10
24.94221216833716
 20
9.949999868288685
 30
0.0
 11
26.86721216833712
 21
9.949999868288685
 31
0.0
  0
LINE
  5
7D0
330
1A
100
AcDbEntity
  8
ZUWAKU
100
AcDbLine
 10
26.86721216833712
 20
7.149999868288688
 30
0.0
 11
24.94221216833716
 21
7.149999868288688
 31
0.0
  0
CIRCLE
  5
7D1
330
1A
100
AcDbEntity
  8
ZUWAKU
100
AcDbCircle
 10
25.99221216833712
 20
15.19999986828869
 30
0.0
 40
1.75
  0
ARC
  5
7D2
330
1A
100
AcDbEntity
  8
ZUWAKU
100
AcDbCircle
 10
15.49221216833712
 20
18.63479784293339
 30
0.0
 40
1.4
100
AcDbArc
 50
180.0000000000016
 51
224.9999999999988
  0
LINE
  5
7D3
330
1A
100
AcDbEntity
  8
ZUWAKU
100
AcDbLine
 10
23.54221216833719
 20
19.04999986828869
 30
0.0
 11
23.54221216833719
 21
11.34999986828869
 31
0.0
  0
LINE
  5
7D4
330
1A
100
AcDbEntity
  8
ZUWAKU
100
AcDbLine
 10
20.74221216833712
 20
11.34999986828869
 30
0.0
 11
20.74221216833712
 21
19.04999986828864
 31
0.0
  0
ARC
  5
7D5
330
1A
100
AcDbEntity
  8
ZUWAKU
100
AcDbCircle
 10
15.49221216833712
 20
18.63479784293339
 30
0.0
 40
4.199999999999999
100
AcDbArc
 50
180.0
 51
225.0
  0
ARC
  5
7D6
330
1A
100
AcDbEntity
  8
ZUWAKU
100
AcDbCircle
 10
15.84221216833714
 20
9.949999868288685
 30
0.0
 40
2.8
100
AcDbArc
 50
270.0
 51
0.0
  0
ARC
  5
7D7
330
1A
100
AcDbEntity
  8
ZUWAKU
100
AcDbCircle
 10
24.94221216833716
 20
11.34999986828869
 30
0.0
 40
4.199999999999999
100
AcDbArc
 50
180.0
 51
270.0
  0
ARC
  5
7D8
330
1A
100
AcDbEntity
  8
ZUWAKU
100
AcDbCircle
 10
14.44221216833716
 20
11.76520189364399
 30
0.0
 40
4.199999999999999
100
AcDbArc
 50
0.0
 51
45.0
  0
LINE
  5
7D9
330
1A
100
AcDbEntity
  8
ZUWAKU
100
AcDbLine
 10
17.41206064932067
 20
14.73505037462751
 30
0.0
 11
14.50226267467599
 21
17.64484834927219
 31
0.0
  0
LINE
  5
7DA
330
1A
100
AcDbEntity
  8
ZUWAKU
100
AcDbLine
 10
15.84221216833714
 20
10.47499986828869
 30
0.0
 11
15.84221216833714
 21
11.76520189364403
 31
0.0
  0
ARC
  5
7DB
330
1A
100
AcDbEntity
  8
ZUWAKU
100
AcDbCircle
 10
15.31721216833716
 20
10.47499986828869
 30
0.0
 40
0.5249999999999999
100
AcDbArc
 50
270.0
 51
0.0
  0
ARC
  5
7DC
330
1A
100
AcDbEntity
  8
ZUWAKU
100
AcDbCircle
 10
14.44221216833716
 20
11.76520189364403
 30
0.0
 40
1.4
100
AcDbArc
 50
0.0
 51
45.0
  0
LINE
  5
7DD
330
1A
100
AcDbEntity
  8
ZUWAKU
100
AcDbLine
 10
11.81721216833716
 20
7.674999868288687
 30
0.0
 11
11.81721216833716
 21
9.424999868288687
 31
0.0
  0
ARC
  5
7DE
330
1A
100
AcDbEntity
  8
ZUWAKU
100
AcDbCircle
 10
12.34221216833714
 20
7.674999868288687
 30
0.0
 40
0.5249999999999999
100
AcDbArc
 50
180.0
 51
270.0
  0
ARC
  5
7DF
330
1A
100
AcDbEntity
  8
ZUWAKU
100
AcDbCircle
 10
12.34221216833714
 20
9.424999868288687
 30
0.0
 40
0.5249999999999999
100
AcDbArc
 50
90.0
 51
180.0
  0
LINE
  5
7E0
330
1A
100
AcDbEntity
  8
ZUWAKU
100
AcDbLine
 10
12.34221216833714
 20
7.149999868288688
 30
0.0
 11
15.84221216833714
 21
7.149999868288688
 31
0.0
  0
LINE
  5
7E1
330
1A
100
AcDbEntity
  8
ZUWAKU
100
AcDbLine
 10
12.34221216833714
 20
9.949999868288685
 30
0.0
 11
15.31721216833716
 21
9.949999868288685
 31
0.0
  0
LINE
  5
7E2
330
1A
100
AcDbEntity
  8
ZUWAKU
100
AcDbLine
 10
12.52236368735362
 20
15.66494936194987
 30
0.0
 11
15.43216166199829
 21
12.7551513873052
 31
0.0
  0
LINE
  5
7E3
330
1A
100
AcDbEntity
  8
ZUWAKU
100
AcDbLine
 10
18.64221216833721
 20
9.949999868288685
 30
0.0
 11
18.64221216833721
 21
11.76520189364403
 31
0.0
  0
ARC
  5
7E4
330
1A
100
AcDbEntity
  8
ZUWAKU
100
AcDbCircle
 10
24.94221216833716
 20
11.34999986828869
 30
0.0
 40
1.4
100
AcDbArc
 50
180.0
 51
270.0
  0
ARC
  5
7E5
330
1A
100
AcDbEntity
  8
ZUWAKU
100
AcDbCircle
 10
17.59221216833714
 20
22.72499986828868
 30
0.0
 40
0.5249999999999999
100
AcDbArc
 50
0.0
 51
90.0
  0
ARC
  5
7E6
330
1A
100
AcDbEntity
  8
ZUWAKU
100
AcDbCircle
 10
17.59221216833714
 20
20.97499986828868
 30
0.0
 40
0.5249999999999999
100
AcDbArc
 50
270.0
 51
0.0
  0
LINE
  5
7E7
330
1A
100
AcDbEntity
  8
ZUWAKU
100
AcDbLine
 10
14.09221216833714
 20
23.24999986828869
 30
0.0
 11
17.59221216833714
 21
23.24999986828869
 31
0.0
  0
ARC
  5
7E8
330
1A
100
AcDbEntity
  8
ZUWAKU
100
AcDbCircle
 10
14.61721216833712
 20
19.92499986828869
 30
0.0
 40
0.5249999999999999
100
AcDbArc
 50
90.0
 51
180.0
  0
LINE
  5
7E9
330
1A
100
AcDbEntity
  8
ZUWAKU
100
AcDbLine
 10
14.09221216833714
 20
19.92499986828869
 30
0.0
 11
14.09221216833714
 21
18.63479784293335
 31
0.0
  0
LINE
  5
7EA
330
1A
100
AcDbEntity
  8
ZUWAKU
100
AcDbLine
 10
17.59221216833714
 20
20.44999986828869
 30
0.0
 11
14.61721216833712
 21
20.44999986828869
 31
0.0
  0
LINE
  5
7EB
330
1A
100
AcDbEntity
  8
ZUWAKU
100
AcDbLine
 10
11.29221216833719
 20
20.44999986828869
 30
0.0
 11
11.29221216833719
 21
18.63479784293335
 31
0.0
  0
ARC
  5
7EC
330
1A
100
AcDbEntity
  8
ZUWAKU
100
AcDbCircle
 10
14.09221216833714
 20
20.44999986828869
 30
0.0
 40
2.8
100
AcDbArc
 50
90.0
 51
180.0
  0
LINE
  5
7ED
330
1A
100
AcDbEntity
  8
ZUWAKU
100
AcDbLine
 10
18.11721216833712
 20
22.72499986828868
 30
0.0
 11
18.11721216833712
 21
20.97499986828868
 31
0.0
  0
ARC
  5
7EE
330
1A
100
AcDbEntity
  8
ZUWAKU
100
AcDbCircle
 10
24.94221216833716
 20
19.04999986828869
 30
0.0
 40
1.4
100
AcDbArc
 50
90.0
 51
180.0
  0
ARC
  5
7EF
330
1A
100
AcDbEntity
  8
ZUWAKU
100
AcDbCircle
 10
24.94221216833716
 20
19.04999986828864
 30
0.0
 40
4.199999999999999
100
AcDbArc
 50
90.0
 51
180.0
  0
LINE
  5
7F0
330
1A
100
AcDbEntity
  8
ZUWAKU
100
AcDbLine
 10
79.32662956154422
 20
29.99999986828868
 30
0.0
 11
79.32662956154445
 21
0.7999998682887508
 31
0.0
  0
LINE
  5
7F1
330
1A
100
AcDbEntity
  8
ZUWAKU
100
AcDbLine
 10
79.52662956154427
 20
29.99999986828868
 30
0.0
 11
79.5266295615445
 21
0.7999998682887508
 31
0.0
  0
LINE
  5
7F2
330
1A
100
AcDbEntity
  8
ZUWAKU
100
AcDbLine
 10
79.12662956154441
 20
29.99999986828868
 30
0.0
 11
79.12662956154441
 21
0.7999998682887508
 31
0.0
  0
LINE
  5
7F3
330
1A
100
AcDbEntity
  8
ZUWAKU
100
AcDbLine
 10
64.14221216833721
 20
9.949999868288685
 30
0.0
 11
64.14221216833721
 21
22.72499986828868
 31
0.0
  0
LINE
  5
7F4
330
1A
100
AcDbEntity
  8
ZUWAKU
100
AcDbLine
 10
61.34221216833714
 20
22.72499986828868
 30
0.0
 11
61.34221216833714
 21
10.99999986828868
 31
0.0
  0
LINE
  5
7F5
330
1A
100
AcDbEntity
  8
ZUWAKU
100
AcDbLine
 10
69.04221216833719
 20
7.674999868288687
 30
0.0
 11
69.04221216833719
 21
22.72499986828868
 31
0.0
  0
LINE
  5
7F6
330
1A
100
AcDbEntity
  8
ZUWAKU
100
AcDbLine
 10
66.24221216833712
 20
22.72499986828868
 30
0.0
 11
66.24221216833712
 21
7.674999868288687
 31
0.0
  0
ARC
  5
7F7
330
1A
100
AcDbEntity
  8
ZUWAKU
100
AcDbCircle
 10
49.79221216833719
 20
18.63479784293339
 30
0.0
 40
1.4
100
AcDbArc
 50
180.0000000000016
 51
224.9999999999988
  0
ARC
  5
7F8
330
1A
100
AcDbEntity
  8
ZUWAKU
100
AcDbCircle
 10
49.79221216833719
 20
18.63479784293339
 30
0.0
 40
4.199999999999999
100
AcDbArc
 50
180.0
 51
225.0
  0
LINE
  5
7F9
330
1A
100
AcDbEntity
  8
ZUWAKU
100
AcDbLine
 10
37.31485865051513
 20
19.20504706185211
 30
0.0
 11
36.05010690517929
 21
15.19999986828871
 31
0.0
  0
LINE
  5
7FA
330
1A
100
AcDbEntity
  8
ZUWAKU
100
AcDbLine
 10
40.69221216833716
 20
22.72499986828868
 30
0.0
 11
40.69221216833716
 21
7.674999868288687
 31
0.0
  0
LINE
  5
7FB
330
1A
100
AcDbEntity
  8
ZUWAKU
100
AcDbLine
 10
43.49221216833712
 20
7.674999868288687
 30
0.0
 11
43.49221216833712
 21
22.72499986828868
 31
0.0
  0
LINE
  5
7FC
330
1A
100
AcDbEntity
  8
ZUWAKU
100
AcDbLine
 10
55.04221216833719
 20
22.72499986828868
 30
0.0
 11
55.04221216833719
 21
9.949999868288685
 31
0.0
  0
LINE
  5
7FD
330
1A
100
AcDbEntity
  8
ZUWAKU
100
AcDbLine
 10
57.84221216833714
 20
10.99999986828868
 30
0.0
 11
57.84221216833714
 21
22.72499986828868
 31
0.0
  0
LINE
  5
7FE
330
1A
100
AcDbEntity
  8
ZUWAKU
100
AcDbLine
 10
32.64221216833721
 20
17.12499986828869
 30
0.0
 11
32.64221216833721
 21
22.72499986828868
 31
0.0
  0
LINE
  5
7FF
330
1A
100
AcDbEntity
  8
ZUWAKU
100
AcDbLine
 10
29.84221216833714
 20
22.72499986828868
 30
0.0
 11
29.84221216833714
 21
7.674999868288687
 31
0.0
  0
LINE
  5
800
330
1A
100
AcDbEntity
  8
ZUWAKU
100
AcDbLine
 10
35.67634710565301
 20
22.88309383645566
 30
0.0
 11
33.80807723102123
 21
16.96690590012172
 31
0.0
  0
LINE
  5
801
330
1A
100
AcDbEntity
  8
ZUWAKU
100
AcDbLine
 10
60.29221216833719
 20
9.949999868288685
 30
0.0
 11
58.89221216833721
 21
9.949999868288685
 31
0.0
  0
LINE
  5
802
330
1A
100
AcDbEntity
  8
ZUWAKU
100
AcDbLine
 10
57.84221216833714
 20
7.149999868288688
 30
0.0
 11
61.34221216833714
 21
7.149999868288688
 31
0.0
  0
LINE
  5
803
330
1A
100
AcDbEntity
  8
ZUWAKU
100
AcDbLine
 10
41.21721216833714
 20
7.149999868288688
 30
0.0
 11
42.96721216833714
 21
7.149999868288688
 31
0.0
  0
LINE
  5
804
330
1A
100
AcDbEntity
  8
ZUWAKU
100
AcDbLine
 10
35.67634710565301
 20
7.516905900121714
 30
0.0
 11
33.80807723102123
 21
13.43309383645565
 31
0.0
  0
ARC
  5
805
330
1A
100
AcDbEntity
  8
ZUWAKU
100
AcDbCircle
 10
33.30744633182587
 20
17.12499986828869
 30
0.0
 40
0.5249999999999999
100
AcDbArc
 50
270.0
 51
342.474431626277
  0
LINE
  5
806
330
1A
100
AcDbEntity
  8
ZUWAKU
100
AcDbLine
 10
33.30744633182587
 20
16.59999986828868
 30
0.0
 11
33.16721216833719
 21
16.59999986828868
 31
0.0
  0
LINE
  5
807
330
1A
100
AcDbEntity
  8
ZUWAKU
100
AcDbLine
 10
33.16721216833719
 20
13.79999986828869
 30
0.0
 11
33.30744633182587
 21
13.79999986828869
 31
0.0
  0
ARC
  5
808
330
1A
100
AcDbEntity
  8
ZUWAKU
100
AcDbCircle
 10
33.16721216833719
 20
17.12499986828869
 30
0.0
 40
0.5249999999999999
100
AcDbArc
 50
180.0
 51
270.0
  0
LINE
  5
809
330
1A
100
AcDbEntity
  8
ZUWAKU
100
AcDbLine
 10
30.36721216833712
 20
7.149999868288688
 30
0.0
 11
32.11721216833712
 21
7.149999868288688
 31
0.0
  0
ARC
  5
80A
330
1A
100
AcDbEntity
  8
ZUWAKU
100
AcDbCircle
 10
32.11721216833712
 20
7.674999868288687
 30
0.0
 40
0.5249999999999999
100
AcDbArc
 50
270.0
 51
0.0
  0
LINE
  5
80B
330
1A
100
AcDbEntity
  8
ZUWAKU
100
AcDbLine
 10
32.64221216833721
 20
7.674999868288687
 30
0.0
 11
32.64221216833721
 21
13.27499986828869
 31
0.0
  0
LINE
  5
80C
330
1A
100
AcDbEntity
  8
ZUWAKU
100
AcDbLine
 10
27.39221216833721
 20
9.424999868288687
 30
0.0
 11
27.39221216833721
 21
7.674999868288687
 31
0.0
  0
ARC
  5
80D
330
1A
100
AcDbEntity
  8
ZUWAKU
100
AcDbCircle
 10
26.86721216833712
 20
7.674999868288687
 30
0.0
 40
0.5249999999999999
100
AcDbArc
 50
270.0
 51
0.0
  0
ARC
  5
80E
330
1A
100
AcDbEntity
  8
ZUWAKU
100
AcDbCircle
 10
26.86721216833712
 20
9.424999868288687
 30
0.0
 40
0.5249999999999999
100
AcDbArc
 50
0.0
 51
90.0
  0
ARC
  5
80F
330
1A
100
AcDbEntity
  8
ZUWAKU
100
AcDbCircle
 10
30.36721216833712
 20
7.674999868288687
 30
0.0
 40
0.5249999999999999
100
AcDbArc
 50
180.0
 51
270.0
  0
ARC
  5
810
330
1A
100
AcDbEntity
  8
ZUWAKU
100
AcDbCircle
 10
33.30744633182587
 20
13.27499986828869
 30
0.0
 40
0.5249999999999999
100
AcDbArc
 50
17.52556837372303
 51
90.0
  0
ARC
  5
811
330
1A
100
AcDbEntity
  8
ZUWAKU
100
AcDbCircle
 10
33.16721216833719
 20
13.27499986828869
 30
0.0
 40
0.5249999999999999
100
AcDbArc
 50
90.0
 51
180.0
  0
ARC
  5
812
330
1A
100
AcDbEntity
  8
ZUWAKU
100
AcDbCircle
 10
41.21721216833714
 20
7.674999868288687
 30
0.0
 40
0.5249999999999999
100
AcDbArc
 50
180.0
 51
270.0
  0
LINE
  5
813
330
1A
100
AcDbEntity
  8
ZUWAKU
100
AcDbLine
 10
36.17697800484848
 20
7.149999868288688
 30
0.0
 11
37.87586738445748
 21
7.149999868288688
 31
0.0
  0
ARC
  5
814
330
1A
100
AcDbEntity
  8
ZUWAKU
100
AcDbCircle
 10
37.87586738445748
 20
7.674999868288687
 30
0.0
 40
0.5249999999999999
100
AcDbArc
 50
270.0
 51
17.52556837372303
  0
LINE
  5
815
330
1A
100
AcDbEntity
  8
ZUWAKU
100
AcDbLine
 10
38.37649828365295
 20
7.83309383645566
 30
0.0
 11
36.05010690517929
 21
15.19999986828871
 31
0.0
  0
ARC
  5
816
330
1A
100
AcDbEntity
  8
ZUWAKU
100
AcDbCircle
 10
36.17697800484848
 20
7.674999868288687
 30
0.0
 40
0.5249999999999999
100
AcDbArc
 50
197.525568373723
 51
270.0
  0
ARC
  5
817
330
1A
100
AcDbEntity
  8
ZUWAKU
100
AcDbCircle
 10
57.84221216833714
 20
9.949999868288685
 30
0.0
 40
2.8
100
AcDbArc
 50
180.0
 51
270.0
  0
ARC
  5
818
330
1A
100
AcDbEntity
  8
ZUWAKU
100
AcDbCircle
 10
50.14221216833721
 20
9.949999868288685
 30
0.0
 40
2.8
100
AcDbArc
 50
270.0
 51
0.0
  0
LINE
  5
819
330
1A
100
AcDbEntity
  8
ZUWAKU
100
AcDbLine
 10
51.71206064932073
 20
14.73505037462751
 30
0.0
 11
48.80226267467594
 21
17.64484834927219
 31
0.0
  0
LINE
  5
81A
330
1A
100
AcDbEntity
  8
ZUWAKU
100
AcDbLine
 10
50.14221216833721
 20
10.47499986828869
 30
0.0
 11
50.14221216833721
 21
11.76520189364403
 31
0.0
  0
ARC
  5
81B
330
1A
100
AcDbEntity
  8
ZUWAKU
100
AcDbCircle
 10
48.74221216833712
 20
11.76520189364403
 30
0.0
 40
1.4
100
AcDbArc
 50
0.0
 51
45.0
  0
ARC
  5
81C
330
1A
100
AcDbEntity
  8
ZUWAKU
100
AcDbCircle
 10
49.61721216833712
 20
10.47499986828869
 30
0.0
 40
0.5249999999999999
100
AcDbArc
 50
270.0
 51
0.0
  0
LINE
  5
81D
330
1A
100
AcDbEntity
  8
ZUWAKU
100
AcDbLine
 10
46.11721216833712
 20
7.674999868288687
 30
0.0
 11
46.11721216833712
 21
9.424999868288687
 31
0.0
  0
ARC
  5
81E
330
1A
100
AcDbEntity
  8
ZUWAKU
100
AcDbCircle
 10
46.64221216833721
 20
7.674999868288687
 30
0.0
 40
0.5249999999999999
100
AcDbArc
 50
180.0
 51
270.0
  0
ARC
  5
81F
330
1A
100
AcDbEntity
  8
ZUWAKU
100
AcDbCircle
 10
42.96721216833714
 20
7.674999868288687
 30
0.0
 40
0.5249999999999999
100
AcDbArc
 50
270.0
 51
0.0
  0
ARC
  5
820
330
1A
100
AcDbEntity
  8
ZUWAKU
100
AcDbCircle
 10
46.64221216833721
 20
9.424999868288687
 30
0.0
 40
0.5249999999999999
100
AcDbArc
 50
90.0
 51
180.0
  0
LINE
  5
821
330
1A
100
AcDbEntity
  8
ZUWAKU
100
AcDbLine
 10
46.64221216833721
 20
9.949999868288685
 30
0.0
 11
49.61721216833712
 21
9.949999868288685
 31
0.0
  0
LINE
  5
822
330
1A
100
AcDbEntity
  8
ZUWAKU
100
AcDbLine
 10
46.64221216833721
 20
7.149999868288688
 30
0.0
 11
50.14221216833721
 21
7.149999868288688
 31
0.0
  0
LINE
  5
823
330
1A
100
AcDbEntity
  8
ZUWAKU
100
AcDbLine
 10
46.82236368735369
 20
15.66494936194987
 30
0.0
 11
49.73216166199836
 21
12.7551513873052
 31
0.0
  0
LINE
  5
824
330
1A
100
AcDbEntity
  8
ZUWAKU
100
AcDbLine
 10
52.94221216833716
 20
9.949999868288685
 30
0.0
 11
52.94221216833716
 21
11.76520189364403
 31
0.0
  0
ARC
  5
825
330
1A
100
AcDbEntity
  8
ZUWAKU
100
AcDbCircle
 10
48.74221216833712
 20
11.76520189364399
 30
0.0
 40
4.199999999999999
100
AcDbArc
 50
0.0
 51
45.0
  0
ARC
  5
826
330
1A
100
AcDbEntity
  8
ZUWAKU
100
AcDbCircle
 10
58.89221216833721
 20
10.99999986828868
 30
0.0
 40
1.05
100
AcDbArc
 50
180.0
 51
270.0
  0
ARC
  5
827
330
1A
100
AcDbEntity
  8
ZUWAKU
100
AcDbCircle
 10
61.34221216833714
 20
9.949999868288685
 30
0.0
 40
2.8
100
AcDbArc
 50
270.0
 51
0.0
  0
LINE
  5
828
330
1A
100
AcDbEntity
  8
ZUWAKU
100
AcDbLine
 10
66.76721216833721
 20
7.149999868288688
 30
0.0
 11
68.51721216833721
 21
7.149999868288688
 31
0.0
  0
ARC
  5
829
330
1A
100
AcDbEntity
  8
ZUWAKU
100
AcDbCircle
 10
66.76721216833721
 20
7.674999868288687
 30
0.0
 40
0.5249999999999999
100
AcDbArc
 50
180.0
 51
270.0
  0
ARC
  5
82A
330
1A
100
AcDbEntity
  8
ZUWAKU
100
AcDbCircle
 10
60.29221216833719
 20
10.99999986828868
 30
0.0
 40
1.05
100
AcDbArc
 50
270.0
 51
0.0
  0
ARC
  5
82B
330
1A
100
AcDbEntity
  8
ZUWAKU
100
AcDbCircle
 10
68.51721216833721
 20
7.674999868288687
 30
0.0
 40
0.5249999999999999
100
AcDbArc
 50
270.0
 51
0.0
  0
LINE
  5
82C
330
1A
100
AcDbEntity
  8
ZUWAKU
100
AcDbLine
 10
42.96721216833714
 20
23.24999986828869
 30
0.0
 11
41.21721216833714
 21
23.24999986828869
 31
0.0
  0
ARC
  5
82D
330
1A
100
AcDbEntity
  8
ZUWAKU
100
AcDbCircle
 10
32.11721216833712
 20
22.72499986828868
 30
0.0
 40
0.5249999999999999
100
AcDbArc
 50
0.0
 51
90.0
  0
LINE
  5
82E
330
1A
100
AcDbEntity
  8
ZUWAKU
100
AcDbLine
 10
32.11721216833712
 20
23.24999986828869
 30
0.0
 11
30.36721216833712
 21
23.24999986828869
 31
0.0
  0
ARC
  5
82F
330
1A
100
AcDbEntity
  8
ZUWAKU
100
AcDbCircle
 10
26.86721216833712
 20
22.72499986828868
 30
0.0
 40
0.5249999999999999
100
AcDbArc
 50
0.0
 51
90.0
  0
ARC
  5
830
330
1A
100
AcDbEntity
  8
ZUWAKU
100
AcDbCircle
 10
30.36721216833712
 20
22.72499986828868
 30
0.0
 40
0.5249999999999999
100
AcDbArc
 50
90.0
 51
180.0
  0
ARC
  5
831
330
1A
100
AcDbEntity
  8
ZUWAKU
100
AcDbCircle
 10
26.86721216833712
 20
20.97499986828868
 30
0.0
 40
0.5249999999999999
100
AcDbArc
 50
270.0
 51
0.0
  0
LINE
  5
832
330
1A
100
AcDbEntity
  8
ZUWAKU
100
AcDbLine
 10
27.39221216833721
 20
22.72499986828868
 30
0.0
 11
27.39221216833721
 21
20.97499986828868
 31
0.0
  0
ARC
  5
833
330
1A
100
AcDbEntity
  8
ZUWAKU
100
AcDbCircle
 10
41.21721216833714
 20
22.72499986828868
 30
0.0
 40
0.5249999999999999
100
AcDbArc
 50
90.0
 51
180.0
  0
LINE
  5
834
330
1A
100
AcDbEntity
  8
ZUWAKU
100
AcDbLine
 10
36.17697800484848
 20
23.24999986828869
 30
0.0
 11
37.87586738445748
 21
23.24999986828869
 31
0.0
  0
ARC
  5
835
330
1A
100
AcDbEntity
  8
ZUWAKU
100
AcDbCircle
 10
37.87586738445748
 20
22.72499986828868
 30
0.0
 40
0.5249999999999999
100
AcDbArc
 50
342.474431626277
 51
90.0
  0
LINE
  5
836
330
1A
100
AcDbEntity
  8
ZUWAKU
100
AcDbLine
 10
38.37649828365295
 20
22.56690590012172
 30
0.0
 11
37.31485865051513
 21
19.20504706185211
 31
0.0
  0
ARC
  5
837
330
1A
100
AcDbEntity
  8
ZUWAKU
100
AcDbCircle
 10
36.17697800484848
 20
22.72499986828868
 30
0.0
 40
0.5249999999999999
100
AcDbArc
 50
90.0
 51
162.474431626277
  0
LINE
  5
838
330
1A
100
AcDbEntity
  8
ZUWAKU
100
AcDbLine
 10
48.39221216833721
 20
23.24999986828869
 30
0.0
 11
51.89221216833721
 21
23.24999986828869
 31
0.0
  0
LINE
  5
839
330
1A
100
AcDbEntity
  8
ZUWAKU
100
AcDbLine
 10
51.89221216833721
 20
20.44999986828869
 30
0.0
 11
48.91721216833719
 21
20.44999986828869
 31
0.0
  0
ARC
  5
83A
330
1A
100
AcDbEntity
  8
ZUWAKU
100
AcDbCircle
 10
48.91721216833719
 20
19.92499986828869
 30
0.0
 40
0.5249999999999999
100
AcDbArc
 50
90.0
 51
180.0
  0
LINE
  5
83B
330
1A
100
AcDbEntity
  8
ZUWAKU
100
AcDbLine
 10
48.39221216833721
 20
19.92499986828869
 30
0.0
 11
48.39221216833721
 21
18.63479784293335
 31
0.0
  0
ARC
  5
83C
330
1A
100
AcDbEntity
  8
ZUWAKU
100
AcDbCircle
 10
42.96721216833714
 20
22.72499986828868
 30
0.0
 40
0.5249999999999999
100
AcDbArc
 50
0.0
 51
90.0
  0
LINE
  5
83D
330
1A
100
AcDbEntity
  8
ZUWAKU
100
AcDbLine
 10
45.59221216833714
 20
20.44999986828869
 30
0.0
 11
45.59221216833714
 21
18.63479784293335
 31
0.0
  0
ARC
  5
83E
330
1A
100
AcDbEntity
  8
ZUWAKU
100
AcDbCircle
 10
48.39221216833721
 20
20.44999986828869
 30
0.0
 40
2.8
100
AcDbArc
 50
90.0
 51
180.0
  0
ARC
  5
83F
330
1A
100
AcDbEntity
  8
ZUWAKU
100
AcDbCircle
 10
57.31721216833716
 20
22.72499986828868
 30
0.0
 40
0.5249999999999999
100
AcDbArc
 50
0.0
 51
90.0
  0
ARC
  5
840
330
1A
100
AcDbEntity
  8
ZUWAKU
100
AcDbCircle
 10
55.56721216833716
 20
22.72499986828868
 30
0.0
 40
0.5249999999999999
100
AcDbArc
 50
90.0
 51
180.0
  0
LINE
  5
841
330
1A
100
AcDbEntity
  8
ZUWAKU
100
AcDbLine
 10
57.31721216833716
 20
23.24999986828869
 30
0.0
 11
55.56721216833716
 21
23.24999986828869
 31
0.0
  0
ARC
  5
842
330
1A
100
AcDbEntity
  8
ZUWAKU
100
AcDbCircle
 10
51.89221216833721
 20
22.72499986828868
 30
0.0
 40
0.5249999999999999
100
AcDbArc
 50
0.0
 51
90.0
  0
ARC
  5
843
330
1A
100
AcDbEntity
  8
ZUWAKU
100
AcDbCircle
 10
51.89221216833721
 20
20.97499986828868
 30
0.0
 40
0.5249999999999999
100
AcDbArc
 50
270.0
 51
0.0
  0
LINE
  5
844
330
1A
100
AcDbEntity
  8
ZUWAKU
100
AcDbLine
 10
52.41721216833719
 20
22.72499986828868
 30
0.0
 11
52.41721216833719
 21
20.97499986828868
 31
0.0
  0
LINE
  5
845
330
1A
100
AcDbEntity
  8
ZUWAKU
100
AcDbLine
 10
68.51721216833721
 20
23.24999986828869
 30
0.0
 11
66.76721216833721
 21
23.24999986828869
 31
0.0
  0
ARC
  5
846
330
1A
100
AcDbEntity
  8
ZUWAKU
100
AcDbCircle
 10
66.76721216833721
 20
22.72499986828868
 30
0.0
 40
0.5249999999999999
100
AcDbArc
 50
90.0
 51
180.0
  0
ARC
  5
847
330
1A
100
AcDbEntity
  8
ZUWAKU
100
AcDbCircle
 10
63.61721216833712
 20
22.72499986828868
 30
0.0
 40
0.5249999999999999
100
AcDbArc
 50
0.0
 51
90.0
  0
LINE
  5
848
330
1A
100
AcDbEntity
  8
ZUWAKU
100
AcDbLine
 10
63.61721216833712
 20
23.24999986828869
 30
0.0
 11
61.86721216833712
 21
23.24999986828869
 31
0.0
  0
ARC
  5
849
330
1A
100
AcDbEntity
  8
ZUWAKU
100
AcDbCircle
 10
61.86721216833712
 20
22.72499986828868
 30
0.0
 40
0.5249999999999999
100
AcDbArc
 50
90.0
 51
180.0
  0
ARC
  5
84A
330
1A
100
AcDbEntity
  8
ZUWAKU
100
AcDbCircle
 10
68.51721216833721
 20
22.72499986828868
 30
0.0
 40
0.5249999999999999
100
AcDbArc
 50
0.0
 51
90.0
  0
TEXT
  5
84B
330
1A
100
AcDbEntity
  8
moji
100
AcDbText
 10
239.8272026944071
 20
18.00492092569607
 30
0.0
 40
5.6
  1
曲り（出）Ⅱ
 41
0.9
  7
ｽﾀｲﾙ1
100
AcDbText
  0
TEXT
  5
84C
330
1A
100
AcDbEntity
  8
moji
100
AcDbText
 10
239.8272026944071
 20
3.204920925696104
 30
0.0
 40
5.6
  1
Σ９０
 41
0.9
  7
ｽﾀｲﾙ1
100
AcDbText
  0
LINE
  5
84D
330
1A
100
AcDbEntity
  8
ZUWAKU
100
AcDbLine
 10
208.246601303624
 20
29.99999986828868
 30
0.0
 11
208.246601303624
 21
0.7999998682887508
 31
0.0
  0
LINE
  5
84E
330
1A
100
AcDbEntity
  8
ZUWAKU
100
AcDbLine
 10
208.6466013036238
 20
29.99999986828868
 30
0.0
 11
208.646601303624
 21
0.7999998682887508
 31
0.0
  0
LINE
  5
84F
330
1A
100
AcDbEntity
  8
ZUWAKU
100
AcDbLine
 10
208.4466013036238
 20
29.99999986828868
 30
0.0
 11
208.446601303624
 21
0.7999998682887508
 31
0.0
  0
TEXT
  5
850
330
1A
100
AcDbEntity
  8
ZUWAKU
100
AcDbText
 10
209.7240463258336
 20
9.655356406674301
 30
0.0
 40
4.0
  1
サイズ
 41
0.9
  7
ｽﾀｲﾙ1
100
AcDbText
  0
TEXT
  5
851
330
1A
100
AcDbEntity
  8
ZUWAKU
100
AcDbText
 10
209.7240463258333
 20
24.05535640667426
 30
0.0
 40
4.0
  1
品名
 41
0.9
  7
ｽﾀｲﾙ1
100
AcDbText
  0
LINE
  5
852
330
1A
100
AcDbEntity
  8
ZUWAKU
100
AcDbLine
 10
648.8172025237602
 20
15.19999986828871
 30
0.0
 11
697.2490105620973
 21
15.19999986828872
 31
0.0
  0
LINE
  5
853
330
1A
100
AcDbEntity
  8
ZUWAKU
100
AcDbLine
 10
648.8172025237604
 20
15.39999986828872
 30
0.0
 11
697.2490105620973
 21
15.39999986828872
 31
0.0
  0
LINE
  5
854
330
1A
100
AcDbEntity
  8
ZUWAKU
100
AcDbLine
 10
648.8172025237602
 20
15.59999986828872
 30
0.0
 11
697.2490105620973
 21
15.59999986828872
 31
0.0
  0
TEXT
  5
855
330
1A
100
AcDbEntity
  8
ZUWAKU
100
AcDbText
 10
658.2039377008584
 20
18.00492092569607
 30
0.0
 40
5.6
  1
　　．　　．　　
 41
0.9
  7
ｽﾀｲﾙ1
100
AcDbText
  0
LINE
  5
856
330
1A
100
AcDbEntity
  8
ZUWAKU
100
AcDbLine
 10
505.1991795116969
 20
15.19999986828872
 30
0.0
 11
552.5269557796685
 21
15.19999986828872
 31
0.0
  0
LINE
  5
857
330
1A
100
AcDbEntity
  8
ZUWAKU
100
AcDbLine
 10
505.1991795116969
 20
15.39999986828872
 30
0.0
 11
552.5269557796685
 21
15.39999986828872
 31
0.0
  0
LINE
  5
858
330
1A
100
AcDbEntity
  8
ZUWAKU
100
AcDbLine
 10
505.1991795116969
 20
15.59999986828872
 30
0.0
 11
552.5269557796685
 21
15.59999986828872
 31
0.0
  0
TEXT
  5
859
330
1A
100
AcDbEntity
  8
moji
100
AcDbText
 10
463.2464320045581
 20
11.94261758994867
 30
0.0
 40
5.6
  1
ＧＴ７７□
 41
0.9
  7
ｽﾀｲﾙ1
100
AcDbText
  0
LINE
  5
85A
330
1A
100
AcDbEntity
  8
ZUWAKU
100
AcDbLine
 10
447.6243639845472
 20
29.99999986828868
 30
0.0
 11
447.6243639845475
 21
0.7999998682887508
 31
0.0
  0
LINE
  5
85B
330
1A
100
AcDbEntity
  8
ZUWAKU
100
AcDbLine
 10
447.8243639845473
 20
29.99999986828868
 30
0.0
 11
447.8243639845475
 21
0.7999998682887508
 31
0.0
  0
LINE
  5
85C
330
1A
100
AcDbEntity
  8
ZUWAKU
100
AcDbLine
 10
447.4243639845474
 20
29.99999986828868
 30
0.0
 11
447.4243639845474
 21
0.7999998682887508
 31
0.0
  0
TEXT
  5
85D
330
1A
100
AcDbEntity
  8
moji
100
AcDbText
 10
528.0409079858689
 20
18.00492092569607
 30
0.0
 40
5.6
  1
Ａ３
 41
0.9
  7
ｽﾀｲﾙ1
100
AcDbText
  0
LINE
  5
85E
330
1A
100
AcDbEntity
  8
ZUWAKU
100
AcDbLine
 10
504.9991795116969
 20
29.99999986828868
 30
0.0
 11
504.9991795116971
 21
0.7999998682887508
 31
0.0
  0
LINE
  5
85F
330
1A
100
AcDbEntity
  8
ZUWAKU
100
AcDbLine
 10
505.1991795116969
 20
29.99999986828868
 30
0.0
 11
505.1991795116971
 21
0.7999998682887508
 31
0.0
  0
LINE
  5
860
330
1A
100
AcDbEntity
  8
ZUWAKU
100
AcDbLine
 10
504.7991795116971
 20
29.99999986828868
 30
0.0
 11
504.7991795116971
 21
0.7999998682887508
 31
0.0
  0
TEXT
  5
861
330
1A
100
AcDbEntity
  8
ZUWAKU
100
AcDbText
 10
462.1716760137122
 20
2.614070779428175
 30
0.0
 40
3.0
  1
□には色品番が入ります
 41
0.9
  7
ｽﾀｲﾙ1
100
AcDbText
  0
TEXT
  5
862
330
1A
100
AcDbEntity
  8
ZUWAKU
100
AcDbText
 10
506.6766245339068
 20
9.655356406674301
 30
0.0
 40
4.0
  1
縮尺
 41
0.9
  7
ｽﾀｲﾙ1
100
AcDbText
  0
TEXT
  5
863
330
1A
100
AcDbEntity
  8
moji
100
AcDbText
 10
528.0409079858689
 20
3.204920925696104
 30
0.0
 40
5.6
  1
１/２
 41
0.9
  7
ｽﾀｲﾙ1
100
AcDbText
  0
TEXT
  5
864
330
1A
100
AcDbEntity
  8
ZUWAKU
100
AcDbText
 10
449.3018090067569
 20
24.05535640667426
 30
0.0
 40
4.0
  1
品番
 41
0.9
  7
ｽﾀｲﾙ1
100
AcDbText
  0
TEXT
  5
865
330
1A
100
AcDbEntity
  8
ZUWAKU
100
AcDbText
 10
506.6766245339065
 20
24.05535640667426
 30
0.0
 40
4.0
  1
用紙
 41
0.9
  7
ｽﾀｲﾙ1
100
AcDbText
  0
LINE
  5
866
330
1A
100
AcDbEntity
  8
ZUWAKU
100
AcDbLine
 10
648.6172025237604
 20
29.99999986828868
 30
0.0
 11
648.6172025237606
 21
0.7999998682887508
 31
0.0
  0
LINE
  5
867
330
1A
100
AcDbEntity
  8
ZUWAKU
100
AcDbLine
 10
648.8172025237604
 20
29.99999986828868
 30
0.0
 11
648.8172025237607
 21
0.7999998682887508
 31
0.0
  0
LINE
  5
868
330
1A
100
AcDbEntity
  8
ZUWAKU
100
AcDbLine
 10
648.4172025237606
 20
29.99999986828868
 30
0.0
 11
648.4172025237606
 21
0.7999998682887508
 31
0.0
  0
LINE
  5
869
330
1A
100
AcDbEntity
  8
ZUWAKU
100
AcDbLine
 10
552.7269557796683
 20
29.99999986828868
 30
0.0
 11
552.7269557796685
 21
0.7999998682887508
 31
0.0
  0
LINE
  5
86A
330
1A
100
AcDbEntity
  8
ZUWAKU
100
AcDbLine
 10
552.9269557796683
 20
29.99999986828868
 30
0.0
 11
552.9269557796686
 21
0.7999998682887508
 31
0.0
  0
LINE
  5
86B
330
1A
100
AcDbEntity
  8
ZUWAKU
100
AcDbLine
 10
552.5269557796685
 20
29.99999986828868
 30
0.0
 11
552.5269557796685
 21
0.7999998682887508
 31
0.0
  0
TEXT
  5
86C
330
1A
100
AcDbEntity
  8
ZUWAKU
100
AcDbText
 10
650.2946475459701
 20
24.05535640667426
 30
0.0
 40
4.0
  1
DATE
 41
0.9
  7
ｽﾀｲﾙ1
100
AcDbText
  0
LINE
  5
86D
330
1A
100
AcDbEntity
  8
ZUWAKU
100
AcDbLine
 10
697.2490105620973
 20
29.99999986828868
 30
0.0
 11
697.2490105620973
 21
0.7999998682887508
 31
0.0
  0
LINE
  5
86E
330
1A
100
AcDbEntity
  8
ZUWAKU
100
AcDbLine
 10
697.4490105620973
 20
29.99999986828868
 30
0.0
 11
697.4490105620973
 21
0.7999998682887508
 31
0.0
  0
LINE
  5
86F
330
1A
100
AcDbEntity
  8
ZUWAKU
100
AcDbLine
 10
697.6490105620972
 20
29.99999986828868
 30
0.0
 11
697.6490105620974
 21
0.7999998682887508
 31
0.0
  0
LINE
  5
870
330
1A
100
AcDbEntity
  8
ZUWAKU
100
AcDbLine
 10
697.8490105620972
 20
29.99999986828868
 30
0.0
 11
697.8490105620974
 21
0.7999998682887508
 31
0.0
  0
TEXT
  5
871
330
1A
100
AcDbEntity
  8
ZUWAKU
100
AcDbText
 10
708.5280842057998
 20
17.55383920397549
 30
0.0
 40
6.0
  1
積水化学工業株式会社
 41
0.9
  7
ｽﾀｲﾙ1
100
AcDbText
  0
TEXT
  5
872
330
1A
100
AcDbEntity
  8
ZUWAKU
100
AcDbText
 10
708.5280842057998
 20
6.648840182142749
 30
0.0
 40
6.0
  1
建材事業部
 41
0.9
  7
ｽﾀｲﾙ1
100
AcDbText
  0
DIMENSION
  5
C1A
330
1A
100
AcDbEntity
  8
SUNPOU
100
AcDbDimension
  2
*D2
 10
387.0564988943299
 20
182.2701123252786
 30
0.0
 11
382.0564988943299
 21
192.8201123252787
 31
0.0
 70
    32
 71
     5
 42
21.10000000000002
  3
STANDARD
100
AcDbAlignedDimension
 13
417.0420859533357
 23
203.3701123252786
 33
0.0
 14
419.5996617109649
 24
182.2701123252786
 34
0.0
 50
90.0
100
AcDbRotatedDimension
1001
ACAD
1000
DSTYLE
1002
{
1070
    41
1040
7.0
1070
    42
1040
6.0
1070
    43
1040
14.0
1070
    44
1040
3.0
1070
    73
1070
     0
1070
    74
1070
     0
1070
    77
1070
     3
1070
   140
1040
6.0
1070
   141
1040
150.0
1070
   147
1040
2.0
1070
   172
1070
     1
1070
   173
1070
     1
1070
   176
1070
   256
1070
   177
1070
   256
1070
   178
1070
   256
1070
   271
1070
     0
1070
   272
1070
     0
1070
   341
1005
6D
1070
     6
1000
OPEN
1070
     7
1000
OPEN
1070
   371
1070
    -1
1070
   372
1070
    -1
1002
}
  0
DIMENSION
  5
C1B
330
1A
100
AcDbEntity
  8
SUNPOU
100
AcDbDimension
  2
*D3
 10
369.4500378632863
 20
119.4701123252786
 30
0.0
 11
364.4500378632863
 21
161.4201123252787
 31
0.0
 70
    32
 71
     5
 42
83.90000000000002
  3
STANDARD
100
AcDbAlignedDimension
 13
419.197885734666
 23
203.3701123252786
 33
0.0
 14
452.477519837066
 24
119.4701123252786
 34
0.0
 50
90.0
100
AcDbRotatedDimension
1001
ACAD
1000
DSTYLE
1002
{
1070
    41
1040
7.0
1070
    42
1040
6.0
1070
    43
1040
14.0
1070
    44
1040
3.0
1070
    73
1070
     0
1070
    74
1070
     0
1070
    77
1070
     3
1070
   140
1040
6.0
1070
   141
1040
150.0
1070
   147
1040
2.0
1070
   172
1070
     1
1070
   173
1070
     1
1070
   176
1070
   256
1070
   177
1070
   256
1070
   178
1070
   256
1070
   271
1070
     0
1070
   272
1070
     0
1070
   341
1005
6D
1070
     6
1000
OPEN
1070
     7
1000
OPEN
1070
   371
1070
    -1
1070
   372
1070
    -1
1002
}
  0
LINE
  5
C1C
330
1A
100
AcDbEntity
  8
SEIHIN
  6
Continuous
 62
     3
100
AcDbLine
 10
136.0449938060567
 20
179.9617859030786
 30
0.0
 11
135.1218664554567
 21
180.7642482662786
 31
0.0
  0
LINE
  5
C1D
330
1A
100
AcDbEntity
  8
SEIHIN
  6
Continuous
 62
     3
100
AcDbLine
 10
294.6030071630569
 20
182.2701123252786
 30
0.0
 11
124.8397892782568
 21
182.2701123252786
 31
0.0
  0
LINE
  5
C1E
330
1A
100
AcDbEntity
  8
SEIHIN
  6
Continuous
 62
     3
100
AcDbLine
 10
122.5246377630567
 20
203.3701123252786
 30
0.0
 11
294.5039876494568
 21
203.3701123252786
 31
0.0
  0
LINE
  5
C1F
330
1A
100
AcDbEntity
  8
SEIHIN
  6
Continuous
 62
     3
100
AcDbLine
 10
122.8543217140568
 20
183.1497809576786
 30
0.0
 11
120.5391701990568
 21
202.2497809576786
 31
0.0
  0
LINE
  5
C20
330
1A
100
AcDbEntity
  8
SEIHIN
  6
Continuous
 62
     3
100
AcDbLine
 10
124.8397892782568
 20
182.2701123252786
 30
0.0
 11
123.8470554960568
 21
182.2701123252786
 31
0.0
  0
ARC
  5
C21
330
1A
100
AcDbEntity
  8
SEIHIN
  6
Continuous
 62
     3
100
AcDbCircle
 10
123.8470554960568
 20
183.2701123252786
 30
0.0
 40
1.000000000000022
100
AcDbArc
 50
186.9112271190004
 51
270.0
  0
LINE
  5
C22
330
1A
100
AcDbEntity
  8
SEIHIN
  6
Continuous
 62
     3
100
AcDbLine
 10
131.7670263770567
 20
182.1729623284786
 30
0.0
 11
130.5477348500567
 21
182.2701123252786
 31
0.0
  0
LINE
  5
C23
330
1A
100
AcDbEntity
  8
SEIHIN
  6
Continuous
 62
     3
100
AcDbLine
 10
132.9555505878568
 20
181.8839637984786
 30
0.0
 11
131.7670263770567
 21
182.1729623284786
 31
0.0
  0
LINE
  5
C24
330
1A
100
AcDbEntity
  8
SEIHIN
  6
Continuous
 62
     3
100
AcDbLine
 10
134.0833165410568
 20
181.4104092562786
 30
0.0
 11
132.9555505878568
 21
181.8839637984786
 31
0.0
  0
LINE
  5
C25
330
1A
100
AcDbEntity
  8
SEIHIN
  6
Continuous
 62
     3
100
AcDbLine
 10
135.1218664554567
 20
180.7642482662786
 30
0.0
 11
134.0833165410568
 21
181.4104092562786
 31
0.0
  0
LINE
  5
C26
330
1A
100
AcDbEntity
  8
SEIHIN
  6
Continuous
 62
     3
100
AcDbLine
 10
121.5319039810568
 20
203.3701123252786
 30
0.0
 11
122.5246377630567
 21
203.3701123252786
 31
0.0
  0
ARC
  5
C27
330
1A
100
AcDbEntity
  8
SEIHIN
  6
Continuous
 62
     3
100
AcDbCircle
 10
121.5319039810568
 20
202.3701123252786
 30
0.0
 40
1.0
100
AcDbArc
 50
90.0
 51
186.9112271190004
  0
ARC
  5
C28
330
1A
100
AcDbEntity
  8
SEIHIN
  6
Continuous
 62
     3
100
AcDbCircle
 10
130.9251317952569
 20
206.8678386580786
 30
0.0
 40
3.499999999999982
100
AcDbArc
 50
272.0653353054026
 51
310.1498168343011
  0
ARC
  5
C29
330
1A
100
AcDbEntity
  8
SEIHIN
  6
Continuous
 62
     3
100
AcDbCircle
 10
133.8266798684567
 20
203.4282138560786
 30
0.0
 40
1.000000000000008
100
AcDbArc
 50
44.99999999999942
 51
130.1498168343011
  0
LINE
  5
C2A
330
1A
100
AcDbEntity
  8
SEIHIN
  6
Continuous
 62
     3
100
AcDbLine
 10
134.5337866496568
 20
204.1353206370786
 30
0.0
 11
134.8131361378567
 21
203.8559711488786
 31
0.0
  0
ARC
  5
C2B
330
1A
100
AcDbEntity
  8
SEIHIN
  6
Continuous
 62
     3
100
AcDbCircle
 10
134.1060293566568
 20
203.1488643676786
 30
0.0
 40
1.00000000000002
100
AcDbArc
 50
12.78234211239987
 51
44.99999999999942
  0
LINE
  5
C2C
330
1A
100
AcDbEntity
  8
SEIHIN
  6
Continuous
 62
     3
100
AcDbLine
 10
154.0400575866568
 20
133.7785108944786
 30
0.0
 11
294.6030071630569
 21
133.7785108944786
 31
0.0
  0
LINE
  5
C2D
330
1A
100
AcDbEntity
  8
SEIHIN
  6
Continuous
 62
     3
100
AcDbLine
 10
155.8388063410569
 20
119.4701123252786
 30
0.0
 11
294.6030071630569
 21
119.4701123252786
 31
0.0
  0
LINE
  5
C2E
330
1A
100
AcDbEntity
  8
SEIHIN
  6
Continuous
 62
     3
100
AcDbLine
 10
143.6375931114569
 20
143.1596704706786
 30
0.0
 11
142.8812454854567
 21
144.9967046870786
 31
0.0
  0
ARC
  5
C2F
330
1A
100
AcDbEntity
  8
SEIHIN
  6
Continuous
 62
     3
100
AcDbCircle
 10
155.8388063410569
 20
121.4701123252786
 30
0.0
 40
1.999999999999976
100
AcDbArc
 50
188.1301023542016
 51
270.0
  0
LINE
  5
C30
330
1A
100
AcDbEntity
  8
SEIHIN
  6
Continuous
 62
     3
100
AcDbLine
 10
152.0601585992567
 20
133.7785108944786
 30
0.0
 11
152.0187746228569
 21
133.9536704276786
 31
0.0
  0
LINE
  5
C31
330
1A
100
AcDbEntity
  8
SEIHIN
  6
Continuous
 62
     3
100
AcDbLine
 10
144.5742213768567
 20
141.4076761966786
 30
0.0
 11
143.6375931114569
 21
143.1596704706786
 31
0.0
  0
LINE
  5
C32
330
1A
100
AcDbEntity
  8
SEIHIN
  6
Continuous
 62
     3
100
AcDbLine
 10
151.7205220250569
 20
134.3967559826786
 30
0.0
 11
151.5738175924569
 21
134.5010215332786
 31
0.0
  0
LINE
  5
C33
330
1A
100
AcDbEntity
  8
SEIHIN
  6
Continuous
 62
     3
100
AcDbLine
 10
151.8461605490568
 20
134.2678821802786
 30
0.0
 11
151.7205220250569
 21
134.3967559826786
 31
0.0
  0
LINE
  5
C34
330
1A
100
AcDbEntity
  8
SEIHIN
  6
Continuous
 62
     3
100
AcDbLine
 10
151.9466632934568
 20
134.1185747994786
 30
0.0
 11
151.8461605490568
 21
134.2678821802786
 31
0.0
  0
LINE
  5
C35
330
1A
100
AcDbEntity
  8
SEIHIN
  6
Continuous
 62
     3
100
AcDbLine
 10
152.0187746228569
 20
133.9536704276786
 30
0.0
 11
151.9466632934568
 21
134.1185747994786
 31
0.0
  0
LINE
  5
C36
330
1A
100
AcDbEntity
  8
SEIHIN
  6
Continuous
 62
     3
100
AcDbLine
 10
145.6817010304569
 20
139.7583595928786
 30
0.0
 11
144.5742213768567
 21
141.4076761966786
 31
0.0
  0
LINE
  5
C37
330
1A
100
AcDbEntity
  8
SEIHIN
  6
Continuous
 62
     3
100
AcDbLine
 10
146.9488828212568
 20
138.2283247066786
 30
0.0
 11
145.6817010304569
 21
139.7583595928786
 31
0.0
  0
LINE
  5
C38
330
1A
100
AcDbEntity
  8
SEIHIN
  6
Continuous
 62
     3
100
AcDbLine
 10
148.3630097396567
 20
136.8329747500786
 30
0.0
 11
146.9488828212568
 21
138.2283247066786
 31
0.0
  0
LINE
  5
C39
330
1A
100
AcDbEntity
  8
SEIHIN
  6
Continuous
 62
     3
100
AcDbLine
 10
149.9098454464568
 20
135.5863570302786
 30
0.0
 11
148.3630097396567
 21
136.8329747500786
 31
0.0
  0
LINE
  5
C3A
330
1A
100
AcDbEntity
  8
SEIHIN
  6
Continuous
 62
     3
100
AcDbLine
 10
151.5738175924569
 20
134.5010215332786
 30
0.0
 11
149.9098454464568
 21
135.5863570302786
 31
0.0
  0
LINE
  5
C3B
330
1A
100
AcDbEntity
  8
SEIHIN
  6
Continuous
 62
     3
100
AcDbLine
 10
153.8589073538567
 20
121.1872696126786
 30
0.0
 11
152.0601585992567
 21
133.7785108944786
 31
0.0
  0
LINE
  5
C3C
330
1A
100
AcDbEntity
  8
SEIHIN
  6
Continuous
 62
     3
100
AcDbLine
 10
153.6585783174567
 20
133.7304014484786
 30
0.0
 11
154.0400575866568
 21
133.7785108944786
 31
0.0
  0
LINE
  5
C3D
330
1A
100
AcDbEntity
  8
SEIHIN
  6
Continuous
 62
     3
100
AcDbLine
 10
153.2913892824568
 20
133.6946894882786
 30
0.0
 11
153.6585783174567
 21
133.7304014484786
 31
0.0
  0
LINE
  5
C3E
330
1A
100
AcDbEntity
  8
SEIHIN
  6
Continuous
 62
     3
100
AcDbLine
 10
152.9522454026567
 20
133.6727127858786
 30
0.0
 11
153.2913892824568
 21
133.6946894882786
 31
0.0
  0
LINE
  5
C3F
330
1A
100
AcDbEntity
  8
SEIHIN
  6
Continuous
 62
     3
100
AcDbLine
 10
152.6538510264568
 20
133.6652945896786
 30
0.0
 11
152.9522454026567
 21
133.6727127858786
 31
0.0
  0
LINE
  5
C40
330
1A
100
AcDbEntity
  8
SEIHIN
  6
Continuous
 62
     3
100
AcDbLine
 10
152.4073840230567
 20
133.6727127858786
 30
0.0
 11
152.6538510264568
 21
133.6652945896786
 31
0.0
  0
LINE
  5
C41
330
1A
100
AcDbEntity
  8
SEIHIN
  6
Continuous
 62
     3
100
AcDbLine
 10
152.2220770602569
 20
133.6946894882786
 30
0.0
 11
152.4073840230567
 21
133.6727127858786
 31
0.0
  0
LINE
  5
C42
330
1A
100
AcDbEntity
  8
SEIHIN
  6
Continuous
 62
     3
100
AcDbLine
 10
152.1048717464566
 20
133.7304014484786
 30
0.0
 11
152.2220770602569
 21
133.6946894882786
 31
0.0
  0
LINE
  5
C43
330
1A
100
AcDbEntity
  8
SEIHIN
  6
Continuous
 62
     3
100
AcDbLine
 10
152.0601585992567
 20
133.7785108944786
 30
0.0
 11
152.1048717464566
 21
133.7304014484786
 31
0.0
  0
LINE
  5
C44
330
1A
100
AcDbEntity
  8
SEIHIN
  6
Continuous
 62
     3
100
AcDbLine
 10
141.9379578694568
 20
148.8512476360786
 30
0.0
 11
138.1727989792569
 21
175.6417452026786
 31
0.0
  0
LINE
  5
C45
330
1A
100
AcDbEntity
  8
SEIHIN
  6
Continuous
 62
     3
100
AcDbLine
 10
142.3127928238569
 20
146.9002850016786
 30
0.0
 11
141.9379578694568
 21
148.8512476360786
 31
0.0
  0
LINE
  5
C46
330
1A
100
AcDbEntity
  8
SEIHIN
  6
Continuous
 62
     3
100
AcDbLine
 10
142.8812454854567
 20
144.9967046870786
 30
0.0
 11
142.3127928238569
 21
146.9002850016786
 31
0.0
  0
LINE
  5
C47
330
1A
100
AcDbEntity
  8
SEIHIN
  6
Continuous
 62
     3
100
AcDbLine
 10
137.4553052406568
 20
177.9723867552786
 30
0.0
 11
136.8294046138567
 21
179.0232713136786
 31
0.0
  0
LINE
  5
C48
330
1A
100
AcDbEntity
  8
SEIHIN
  6
Continuous
 62
     3
100
AcDbLine
 10
137.9069018568569
 20
176.8356500020786
 30
0.0
 11
137.4553052406568
 21
177.9723867552786
 31
0.0
  0
LINE
  5
C49
330
1A
100
AcDbEntity
  8
SEIHIN
  6
Continuous
 62
     3
100
AcDbLine
 10
138.1727989792569
 20
175.6417452026786
 30
0.0
 11
137.9069018568569
 21
176.8356500020786
 31
0.0
  0
LINE
  5
C4A
330
1A
100
AcDbEntity
  8
SEIHIN
  6
Continuous
 62
     3
100
AcDbLine
 10
136.8294046138567
 20
179.0232713136786
 30
0.0
 11
136.0449938060567
 21
179.9617859030786
 31
0.0
  0
LINE
  5
C4B
330
1A
100
AcDbEntity
  8
SEIHIN
  6
Continuous
 62
     3
100
AcDbLine
 10
299.6030071630569
 20
183.2701123252786
 30
0.0
 11
299.6030071630569
 21
202.2521177114786
 31
0.0
  0
LINE
  5
C4C
330
1A
100
AcDbEntity
  8
SEIHIN
  6
Continuous
 62
     3
100
AcDbLine
 10
299.6030071630569
 20
135.3649535282786
 30
0.0
 11
299.6030071630569
 21
148.9904207368786
 31
0.0
  0
LINE
  5
C4D
330
1A
100
AcDbEntity
  8
SEIHIN
  6
Continuous
 62
     3
100
AcDbLine
 10
299.6030071630569
 20
120.4701123252786
 30
0.0
 11
299.6030071630569
 21
121.3286909688786
 31
0.0
  0
LINE
  5
C4E
330
1A
100
AcDbEntity
  8
SEIHIN
  6
Continuous
 62
     3
100
AcDbLine
 10
299.6030071630569
 20
120.4701123252786
 30
0.0
 11
294.6030071630569
 21
119.4701123252786
 31
0.0
  0
LINE
  5
C4F
330
1A
100
AcDbEntity
  8
SEIHIN
  6
Continuous
 62
     3
100
AcDbLine
 10
299.6030071630569
 20
121.3286909688786
 30
0.0
 11
299.6030071630569
 21
133.9199322506786
 31
0.0
  0
LINE
  5
C50
330
1A
100
AcDbEntity
  8
SEIHIN
  6
Continuous
 62
     3
100
AcDbLine
 10
299.6030071630569
 20
133.9199322506786
 30
0.0
 11
294.6030071630569
 21
133.7785108944786
 31
0.0
  0
LINE
  5
C51
330
1A
100
AcDbEntity
  8
SEIHIN
  6
Continuous
 62
     3
100
AcDbLine
 10
299.6030071630569
 20
133.9199322506786
 30
0.0
 11
299.6030071630569
 21
135.3649535282786
 31
0.0
  0
LINE
  5
C52
330
1A
100
AcDbEntity
  8
SEIHIN
  6
Continuous
 62
     3
100
AcDbLine
 10
299.6030071630569
 20
148.9904207368786
 30
0.0
 11
299.6030071630569
 21
175.7809183034786
 31
0.0
  0
LINE
  5
C53
330
1A
100
AcDbEntity
  8
SEIHIN
  6
Continuous
 62
     3
100
AcDbLine
 10
299.6030071630569
 20
175.7809183034786
 30
0.0
 11
299.6030071630569
 21
183.2701123252786
 31
0.0
  0
LINE
  5
C54
330
1A
100
AcDbEntity
  8
SEIHIN
  6
Continuous
 62
     3
100
AcDbLine
 10
299.6030071630569
 20
183.2701123252786
 30
0.0
 11
295.8607963066568
 21
182.5216701538786
 31
0.0
  0
LINE
  5
C55
330
1A
100
AcDbEntity
  8
SEIHIN
  6
Continuous
 62
     3
100
AcDbLine
 10
295.8607963066568
 20
182.5216701538786
 30
0.0
 11
294.6030071630569
 21
182.2701123252786
 31
0.0
  0
LINE
  5
C56
330
1A
100
AcDbEntity
  8
SEIHIN
  6
Continuous
 62
     3
100
AcDbLine
 10
269.6030071630569
 20
204.1925749230786
 30
0.0
 11
299.6030071630569
 21
204.1925749230786
 31
0.0
  0
LINE
  5
C57
330
1A
100
AcDbEntity
  8
SEIHIN
  6
Continuous
 62
     3
100
AcDbLine
 10
299.6030071630569
 20
204.4282138560786
 30
0.0
 11
269.6030071630569
 21
204.4282138560786
 31
0.0
  0
LINE
  5
C58
330
1A
100
AcDbEntity
  8
SEIHIN
  6
Continuous
 62
     3
100
AcDbLine
 10
269.6030071630569
 20
203.3701123252786
 30
0.0
 11
269.6030071630569
 21
204.1925749230786
 31
0.0
  0
LINE
  5
C59
330
1A
100
AcDbEntity
  8
SEIHIN
  6
Continuous
 62
     3
100
AcDbLine
 10
269.6030071630569
 20
204.1925749230786
 30
0.0
 11
269.6030071630569
 21
204.4282138560786
 31
0.0
  0
LINE
  5
C5A
330
1A
100
AcDbEntity
  8
SEIHIN
  6
Continuous
 62
     3
100
AcDbLine
 10
299.6030071630569
 20
203.3701123252786
 30
0.0
 11
299.6030071630569
 21
204.1925749230786
 31
0.0
  0
LINE
  5
C5B
330
1A
100
AcDbEntity
  8
SEIHIN
  6
Continuous
 62
     3
100
AcDbLine
 10
299.6030071630569
 20
204.1925749230786
 30
0.0
 11
299.6030071630569
 21
204.4282138560786
 31
0.0
  0
LINE
  5
C5C
330
1A
100
AcDbEntity
  8
SEIHIN
  6
Continuous
 62
     3
100
AcDbLine
 10
294.5039876494568
 20
203.3701123252786
 30
0.0
 11
299.6030071630569
 21
203.3701123252786
 31
0.0
  0
LINE
  5
C5D
330
1A
100
AcDbEntity
  8
SEIHIN
  6
Continuous
 62
     3
100
AcDbLine
 10
299.6030071630569
 20
203.3701123252786
 30
0.0
 11
299.6030071630569
 21
202.2521177114786
 31
0.0
  0
LINE
  5
C5E
330
1A
100
AcDbEntity
  8
CENTER L
  6
CENTER
 62
     1
 48
5.0
100
AcDbLine
 10
495.2277028197234
 20
275.2533586904661
 30
0.0
 11
495.2277028197234
 21
403.4468198070902
 31
0.0
  0
DIMENSION
  5
C5F
330
1A
100
AcDbEntity
  8
SUNPOU
100
AcDbDimension
  2
*D4
 10
544.43563619798
 20
89.98919701219279
 30
0.0
 11
497.5892826157839
 21
94.98919701219279
 31
0.0
 70
    32
 71
     5
 42
93.69270716439223
  3
STANDARD
100
AcDbAlignedDimension
 13
450.7429290335878
 23
119.4701123252786
 33
0.0
 14
544.43563619798
 24
119.4701123252786
 34
0.0
100
AcDbRotatedDimension
1001
ACAD
1000
DSTYLE
1002
{
1070
    41
1040
7.0
1070
    42
1040
6.0
1070
    43
1040
14.0
1070
    44
1040
3.0
1070
    73
1070
     0
1070
    74
1070
     0
1070
    77
1070
     3
1070
   140
1040
6.0
1070
   141
1040
150.0
1070
   147
1040
2.0
1070
   172
1070
     1
1070
   173
1070
     1
1070
   176
1070
   256
1070
   177
1070
   256
1070
   178
1070
   256
1070
   271
1070
     0
1070
   272
1070
     0
1070
   341
1005
6D
1070
     6
1000
OPEN
1070
     7
1000
OPEN
1070
   371
1070
    -1
1070
   372
1070
    -1
1002
}
  0
INSERT
  5
C60
330
1A
100
AcDbEntity
  8
Σ90G
 62
     9
100
AcDbBlockReference
  2
A$C6DF3607B
 10
420.6765410406215
 20
121.1128326859412
 30
0.0
  0
DIMENSION
  5
C61
330
1A
100
AcDbEntity
  8
SUNPOU
100
AcDbDimension
  2
*D5
 10
596.241720659066
 20
252.6087958816704
 30
0.0
 11
506.707372810266
 21
257.6087958816704
 31
0.0
 70
    32
 71
     5
 42
179.0686956976001
  3
STANDARD
100
AcDbAlignedDimension
 13
417.1730249614659
 23
208.4394605276786
 33
0.0
 14
596.241720659066
 24
204.4282138560786
 34
0.0
100
AcDbRotatedDimension
1001
ACAD
1000
DSTYLE
1002
{
1070
    41
1040
7.0
1070
    42
1040
6.0
1070
    43
1040
14.0
1070
    44
1040
3.0
1070
    73
1070
     0
1070
    74
1070
     0
1070
    77
1070
     3
1070
   140
1040
6.0
1070
   141
1040
150.0
1070
   147
1040
2.0
1070
   172
1070
     1
1070
   173
1070
     1
1070
   176
1070
   256
1070
   177
1070
   256
1070
   178
1070
   256
1070
   271
1070
     0
1070
   272
1070
     0
1070
   341
1005
6D
1070
     6
1000
OPEN
1070
     7
1000
OPEN
1070
   371
1070
    -1
1070
   372
1070
    -1
1002
}
  0
DIMENSION
  5
C62
330
1A
100
AcDbEntity
  8
SUNPOU
100
AcDbDimension
  2
*D6
 10
552.8995075630658
 20
235.4392192611738
 30
0.0
 11
485.0362662622658
 21
240.4392192611738
 31
0.0
 70
    32
 71
     5
 42
135.7264826015999
  3
STANDARD
100
AcDbAlignedDimension
 13
417.1730249614659
 23
202.4394605276786
 33
0.0
 14
552.8995075630658
 24
182.5701123252786
 34
0.0
100
AcDbRotatedDimension
1001
ACAD
1000
DSTYLE
1002
{
1070
    41
1040
7.0
1070
    42
1040
6.0
1070
    43
1040
14.0
1070
    44
1040
3.0
1070
    73
1070
     0
1070
    74
1070
     0
1070
    77
1070
     3
1070
   140
1040
6.0
1070
   141
1040
150.0
1070
   147
1040
2.0
1070
   172
1070
     1
1070
   173
1070
     1
1070
   176
1070
   256
1070
   177
1070
   256
1070
   178
1070
   256
1070
   271
1070
     0
1070
   272
1070
     0
1070
   341
1005
6D
1070
     6
1000
OPEN
1070
     7
1000
OPEN
1070
   371
1070
    -1
1070
   372
1070
    -1
1002
}
  0
LINE
  5
C63
330
1A
100
AcDbEntity
  8
SEIHIN
  6
Continuous
 62
     3
100
AcDbLine
 10
529.1433581748659
 20
122.8126852174786
 30
0.0
 11
529.4074538386658
 21
122.9367789918786
 31
0.0
  0
LINE
  5
C64
330
1A
100
AcDbEntity
  8
SEIHIN
  6
Continuous
 62
     3
100
AcDbLine
 10
431.7199604392658
 20
203.3701123252786
 30
0.0
 11
564.241720659066
 21
203.3701123252786
 31
0.0
  0
LINE
  5
C65
330
1A
100
AcDbEntity
  8
SEIHIN
  6
Continuous
 62
     3
100
AcDbLine
 10
427.186448345866
 20
184.5701123252786
 30
0.0
 11
544.3930719714658
 21
184.5701123252786
 31
0.0
  0
LINE
  5
C66
330
1A
100
AcDbEntity
  8
SEIHIN
  6
Continuous
 62
     3
100
AcDbLine
 10
532.8393220928658
 20
135.2456050890786
 30
0.0
 11
452.7925370500659
 21
135.2456050890786
 31
0.0
  0
LINE
  5
C67
330
1A
100
AcDbEntity
  8
SEIHIN
  6
Continuous
 62
     3
100
AcDbLine
 10
541.6058889464659
 20
120.4701123252786
 30
0.0
 11
452.477519837066
 21
120.4701123252786
 31
0.0
  0
LINE
  5
C68
330
1A
100
AcDbEntity
  8
SEIHIN
  6
Continuous
 62
     3
100
AcDbLine
 10
540.3264669440657
 20
121.7701123252786
 30
0.0
 11
454.4722992608658
 21
121.7701123252786
 31
0.0
  0
LINE
  5
C69
330
1A
100
AcDbEntity
  8
SEIHIN
  6
Continuous
 62
     3
100
AcDbLine
 10
452.477519837066
 20
119.4701123252786
 30
0.0
 11
542.524394684466
 21
119.4701123252786
 31
0.0
  0
LINE
  5
C6A
330
1A
100
AcDbEntity
  8
SEIHIN
  6
Continuous
 62
     3
100
AcDbLine
 10
420.4857689920657
 20
183.2701123252786
 30
0.0
 11
418.1849198542657
 21
202.2521177114786
 31
0.0
  0
LINE
  5
C6B
330
1A
100
AcDbEntity
  8
SEIHIN
  6
Continuous
 62
     3
100
AcDbLine
 10
421.531081956666
 20
185.4497809576786
 30
0.0
 11
419.9093039404659
 21
198.8294495900786
 31
0.0
  0
LINE
  5
C6C
330
1A
100
AcDbEntity
  8
SEIHIN
  6
Continuous
 62
     3
100
AcDbLine
 10
417.1778836948658
 20
202.2497809576786
 30
0.0
 11
419.4930352100657
 21
183.1497809576786
 31
0.0
  0
ARC
  5
C6D
330
1A
100
AcDbEntity
  8
SEIHIN
  6
Continuous
 62
     3
100
AcDbCircle
 10
458.1839791262657
 20
151.6068750350786
 30
0.0
 40
19.80000000000005
100
AcDbArc
 50
188.0000000000007
 51
239.7609758912979
  0
ARC
  5
C6E
330
1A
100
AcDbEntity
  8
SEIHIN
  6
Continuous
 62
     3
100
AcDbCircle
 10
458.1839791262657
 20
151.6068750350786
 30
0.0
 40
18.79999999999994
100
AcDbArc
 50
188.0000000000007
 51
239.7609758912979
  0
ARC
  5
C6F
330
1A
100
AcDbEntity
  8
SEIHIN
  6
Continuous
 62
     3
100
AcDbCircle
 10
458.1839791262657
 20
151.6068750350786
 30
0.0
 40
17.49999999999995
100
AcDbArc
 50
188.0000000000007
 51
243.1303886881017
  0
ARC
  5
C70
330
1A
100
AcDbEntity
  8
SEIHIN
  6
Continuous
 62
     3
100
AcDbCircle
 10
452.477519837066
 20
121.4701123252786
 30
0.0
 40
2.000000000000032
100
AcDbArc
 50
188.1301023542008
 51
270.0
  0
ARC
  5
C71
330
1A
100
AcDbEntity
  8
SEIHIN
  6
Continuous
 62
     3
100
AcDbCircle
 10
452.477519837066
 20
121.4701123252786
 30
0.0
 40
0.9999999999999598
100
AcDbArc
 50
188.1301023542016
 51
270.0
  0
LINE
  5
C72
330
1A
100
AcDbEntity
  8
SEIHIN
  6
Continuous
 62
     3
100
AcDbLine
 10
448.698872095066
 20
133.7785108944786
 30
0.0
 11
450.4976208496657
 21
121.1872696126786
 31
0.0
  0
LINE
  5
C73
330
1A
100
AcDbEntity
  8
SEIHIN
  6
Continuous
 62
     3
100
AcDbLine
 10
451.4875703432658
 20
121.3286909688786
 30
0.0
 11
449.688821588866
 21
133.9199322506786
 31
0.0
  0
LINE
  5
C74
330
1A
100
AcDbEntity
  8
SEIHIN
  6
Continuous
 62
     3
100
AcDbLine
 10
452.4924002736659
 20
123.4872696126786
 30
0.0
 11
450.8126380626659
 21
135.2456050890786
 31
0.0
  0
ARC
  5
C75
330
1A
100
AcDbEntity
  8
SEIHIN
  6
Continuous
 62
     3
100
AcDbCircle
 10
454.4722992608658
 20
123.7701123252786
 30
0.0
 40
2.000000000000032
100
AcDbArc
 50
188.1301023542008
 51
270.0
  0
LINE
  5
C76
330
1A
100
AcDbEntity
  8
SEIHIN
  6
Continuous
 62
     3
100
AcDbLine
 10
450.8573512098658
 20
135.1974956430786
 30
0.0
 11
450.8126380626659
 21
135.2456050890786
 31
0.0
  0
LINE
  5
C77
330
1A
100
AcDbEntity
  8
SEIHIN
  6
Continuous
 62
     3
100
AcDbLine
 10
450.9745565236658
 20
135.1617836828786
 30
0.0
 11
450.8573512098658
 21
135.1974956430786
 31
0.0
  0
LINE
  5
C78
330
1A
100
AcDbEntity
  8
SEIHIN
  6
Continuous
 62
     3
100
AcDbLine
 10
451.1598634864658
 20
135.1398069804786
 30
0.0
 11
450.9745565236658
 21
135.1617836828786
 31
0.0
  0
LINE
  5
C79
330
1A
100
AcDbEntity
  8
SEIHIN
  6
Continuous
 62
     3
100
AcDbLine
 10
451.4063304898657
 20
135.1323887842786
 30
0.0
 11
451.1598634864658
 21
135.1398069804786
 31
0.0
  0
LINE
  5
C7A
330
1A
100
AcDbEntity
  8
SEIHIN
  6
Continuous
 62
     3
100
AcDbLine
 10
451.7047248660658
 20
135.1398069804786
 30
0.0
 11
451.4063304898657
 21
135.1323887842786
 31
0.0
  0
LINE
  5
C7B
330
1A
100
AcDbEntity
  8
SEIHIN
  6
Continuous
 62
     3
100
AcDbLine
 10
452.0438687458659
 20
135.1617836828786
 30
0.0
 11
451.7047248660658
 21
135.1398069804786
 31
0.0
  0
LINE
  5
C7C
330
1A
100
AcDbEntity
  8
SEIHIN
  6
Continuous
 62
     3
100
AcDbLine
 10
452.4110577808658
 20
135.1974956430786
 30
0.0
 11
452.0438687458659
 21
135.1617836828786
 31
0.0
  0
LINE
  5
C7D
330
1A
100
AcDbEntity
  8
SEIHIN
  6
Continuous
 62
     3
100
AcDbLine
 10
452.7925370500659
 20
135.2456050890786
 30
0.0
 11
452.4110577808658
 21
135.1974956430786
 31
0.0
  0
ARC
  5
C7E
330
1A
100
AcDbEntity
  8
SEIHIN
  6
Continuous
 62
     3
100
AcDbCircle
 10
447.7089226014657
 20
133.6370895382786
 30
0.0
 40
0.9999999999999598
100
AcDbArc
 50
8.130102354201577
 51
59.7609758912978
  0
ARC
  5
C7F
330
1A
100
AcDbEntity
  8
SEIHIN
  6
Continuous
 62
     3
100
AcDbCircle
 10
447.7089226014657
 20
133.6370895382786
 30
0.0
 40
2.000000000000032
100
AcDbArc
 50
8.130102354200771
 51
59.7609758912978
  0
ARC
  5
C80
330
1A
100
AcDbEntity
  8
SEIHIN
  6
Continuous
 62
     3
100
AcDbCircle
 10
449.8226885690658
 20
135.1041837328786
 30
0.0
 40
0.9999999999999598
100
AcDbArc
 50
8.130102354201577
 51
63.13038868810128
  0
ARC
  5
C81
330
1A
100
AcDbEntity
  8
SEIHIN
  6
Continuous
 62
     3
100
AcDbCircle
 10
427.186448345866
 20
174.5701123252786
 30
0.0
 40
7.7
100
AcDbArc
 50
7.999999999999956
 51
90.0
  0
ARC
  5
C82
330
1A
100
AcDbEntity
  8
SEIHIN
  6
Continuous
 62
     3
100
AcDbCircle
 10
427.186448345866
 20
174.5701123252786
 30
0.0
 40
8.699999999999989
100
AcDbArc
 50
8.000000000000762
 51
90.0
  0
ARC
  5
C83
330
1A
100
AcDbEntity
  8
SEIHIN
  6
Continuous
 62
     3
100
AcDbCircle
 10
427.186448345866
 20
174.5701123252786
 30
0.0
 40
9.999999999999982
100
AcDbArc
 50
8.000000000000762
 51
90.0
  0
LINE
  5
C84
330
1A
100
AcDbEntity
  8
SEIHIN
  6
Continuous
 62
     3
100
AcDbLine
 10
420.4857689920657
 20
182.2701123252786
 30
0.0
 11
427.186448345866
 21
182.2701123252786
 31
0.0
  0
LINE
  5
C85
330
1A
100
AcDbEntity
  8
SEIHIN
  6
Continuous
 62
     3
100
AcDbLine
 10
427.186448345866
 20
183.2701123252786
 30
0.0
 11
420.4857689920657
 21
183.2701123252786
 31
0.0
  0
LINE
  5
C86
330
1A
100
AcDbEntity
  8
SEIHIN
  6
Continuous
 62
     3
100
AcDbLine
 10
427.186448345866
 20
184.5701123252786
 30
0.0
 11
422.5238157386659
 21
184.5701123252786
 31
0.0
  0
LINE
  5
C87
330
1A
100
AcDbEntity
  8
SEIHIN
  6
Continuous
 62
     3
100
AcDbLine
 10
419.6985058000657
 20
182.6534952100786
 30
0.0
 11
419.8225689344658
 21
182.5216701538786
 31
0.0
  0
LINE
  5
C88
330
1A
100
AcDbEntity
  8
SEIHIN
  6
Continuous
 62
     3
100
AcDbLine
 10
419.6002408922657
 20
182.8055265050786
 30
0.0
 11
419.6985058000657
 21
182.6534952100786
 31
0.0
  0
LINE
  5
C89
330
1A
100
AcDbEntity
  8
SEIHIN
  6
Continuous
 62
     3
100
AcDbLine
 10
419.530994303266
 20
182.9727820480786
 30
0.0
 11
419.6002408922657
 21
182.8055265050786
 31
0.0
  0
LINE
  5
C8A
330
1A
100
AcDbEntity
  8
SEIHIN
  6
Continuous
 62
     3
100
AcDbLine
 10
419.4930352100657
 20
183.1497809576786
 30
0.0
 11
419.530994303266
 21
182.9727820480786
 31
0.0
  0
LINE
  5
C8B
330
1A
100
AcDbEntity
  8
SEIHIN
  6
Continuous
 62
     3
100
AcDbLine
 10
420.3054885254658
 20
182.2864970786786
 30
0.0
 11
420.4857689920657
 21
182.2701123252786
 31
0.0
  0
LINE
  5
C8C
330
1A
100
AcDbEntity
  8
SEIHIN
  6
Continuous
 62
     3
100
AcDbLine
 10
420.1311157608659
 20
182.3351144184786
 30
0.0
 11
420.3054885254658
 21
182.2864970786786
 31
0.0
  0
LINE
  5
C8D
330
1A
100
AcDbEntity
  8
SEIHIN
  6
Continuous
 62
     3
100
AcDbLine
 10
419.9683648078658
 20
182.4143711784786
 30
0.0
 11
420.1311157608659
 21
182.3351144184786
 31
0.0
  0
LINE
  5
C8E
330
1A
100
AcDbEntity
  8
SEIHIN
  6
Continuous
 62
     3
100
AcDbLine
 10
419.8225689344658
 20
182.5216701538786
 30
0.0
 11
419.9683648078658
 21
182.4143711784786
 31
0.0
  0
ARC
  5
C8F
330
1A
100
AcDbEntity
  8
SEIHIN
  6
Continuous
 62
     3
100
AcDbCircle
 10
422.5238157386659
 20
185.5701123252786
 30
0.0
 40
0.9999999999999651
100
AcDbArc
 50
186.9112271190012
 51
270.0
  0
LINE
  5
C90
330
1A
100
AcDbEntity
  8
SEIHIN
  6
Continuous
 62
     3
100
AcDbLine
 10
434.811512475266
 20
175.6417452026786
 30
0.0
 11
438.5766713652658
 21
148.8512476360786
 31
0.0
  0
LINE
  5
C91
330
1A
100
AcDbEntity
  8
SEIHIN
  6
Continuous
 62
     3
100
AcDbLine
 10
439.5669394340659
 20
148.9904207368786
 30
0.0
 11
435.8017805438658
 21
175.7809183034786
 31
0.0
  0
LINE
  5
C92
330
1A
100
AcDbEntity
  8
SEIHIN
  6
Continuous
 62
     3
100
AcDbLine
 10
440.8542879234658
 20
149.1713457682786
 30
0.0
 11
437.0891290332659
 21
175.9618433348786
 31
0.0
  0
LINE
  5
C93
330
1A
100
AcDbEntity
  8
SEIHIN
  6
Continuous
 62
     3
100
AcDbLine
 10
437.1336488118657
 20
175.9144486334786
 30
0.0
 11
437.0891290332659
 21
175.9618433348786
 31
0.0
  0
LINE
  5
C94
330
1A
100
AcDbEntity
  8
SEIHIN
  6
Continuous
 62
     3
100
AcDbLine
 10
437.2507507100659
 20
175.8792661042786
 30
0.0
 11
437.1336488118657
 21
175.9144486334786
 31
0.0
  0
LINE
  5
C95
330
1A
100
AcDbEntity
  8
SEIHIN
  6
Continuous
 62
     3
100
AcDbLine
 10
437.4360445254658
 20
175.8576147562786
 30
0.0
 11
437.2507507100659
 21
175.8792661042786
 31
0.0
  0
LINE
  5
C96
330
1A
100
AcDbEntity
  8
SEIHIN
  6
Continuous
 62
     3
100
AcDbLine
 10
437.6825835098659
 20
175.8503063078786
 30
0.0
 11
437.4360445254658
 21
175.8576147562786
 31
0.0
  0
LINE
  5
C97
330
1A
100
AcDbEntity
  8
SEIHIN
  6
Continuous
 62
     3
100
AcDbLine
 10
437.981124806666
 20
175.8576147562786
 30
0.0
 11
437.6825835098659
 21
175.8503063078786
 31
0.0
  0
LINE
  5
C98
330
1A
100
AcDbEntity
  8
SEIHIN
  6
Continuous
 62
     3
100
AcDbLine
 10
438.3204759686657
 20
175.8792661042786
 30
0.0
 11
437.981124806666
 21
175.8576147562786
 31
0.0
  0
LINE
  5
C99
330
1A
100
AcDbEntity
  8
SEIHIN
  6
Continuous
 62
     3
100
AcDbLine
 10
438.6879145692658
 20
175.9144486334786
 30
0.0
 11
438.3204759686657
 21
175.8792661042786
 31
0.0
  0
LINE
  5
C9A
330
1A
100
AcDbEntity
  8
SEIHIN
  6
Continuous
 62
     3
100
AcDbLine
 10
439.069665170666
 20
175.9618433348786
 30
0.0
 11
438.6879145692658
 21
175.9144486334786
 31
0.0
  0
LINE
  5
C9B
330
1A
100
AcDbEntity
  8
SEIHIN
  6
Continuous
 62
     3
100
AcDbLine
 10
477.8767820912658
 20
122.7701123252786
 30
0.0
 11
529.1433581748659
 21
122.8126852174786
 31
0.0
  0
LINE
  5
C9C
330
1A
100
AcDbEntity
  8
CENTER L
  6
CENTER
 62
     1
 48
5.0
100
AcDbLine
 10
495.2277028197234
 20
107.7903984484289
 30
0.0
 11
495.2277028197234
 21
136.5527250979799
 31
0.0
  0
ARC
  5
C9D
330
1A
100
AcDbEntity
  8
SEIHIN
  6
Continuous
 62
     3
100
AcDbCircle
 10
474.594384286266
 20
122.7701123252786
 30
0.0
 40
1.0
100
AcDbArc
 50
270.0
 51
311.4096221093033
  0
ARC
  5
C9E
330
1A
100
AcDbEntity
  8
SEIHIN
  6
Continuous
 62
     3
100
AcDbCircle
 10
477.2401355972659
 20
119.7701123252786
 30
0.0
 40
3.0
100
AcDbArc
 50
90.0
 51
131.4096221093021
  0
LINE
  5
C9F
330
1A
100
AcDbEntity
  8
SEIHIN
  6
Continuous
 62
     3
100
AcDbLine
 10
477.2401355972659
 20
122.7701123252786
 30
0.0
 11
477.8767820912658
 21
122.7701123252786
 31
0.0
  0
LINE
  5
CA0
330
1A
100
AcDbEntity
  8
SEIHIN
  6
Continuous
 62
     3
100
AcDbLine
 10
528.8546830402659
 20
122.7701123252786
 30
0.0
 11
529.1433581748659
 21
122.8126852174786
 31
0.0
  0
ARC
  5
CA1
330
1A
100
AcDbEntity
  8
SEIHIN
  6
Continuous
 62
     3
100
AcDbCircle
 10
427.2340836764658
 20
205.0659642994786
 30
0.0
 40
4.999999999999989
100
AcDbArc
 50
272.3340135845987
 51
331.3619392904017
  0
ARC
  5
CA2
330
1A
100
AcDbEntity
  8
SEIHIN
  6
Continuous
 62
     3
100
AcDbCircle
 10
430.465393364266
 20
203.4282138560786
 30
0.0
 40
1.000000000000008
100
AcDbArc
 50
44.99999999999942
 51
130.1498168343011
  0
LINE
  5
CA3
330
1A
100
AcDbEntity
  8
SEIHIN
  6
Continuous
 62
     3
100
AcDbLine
 10
421.8947715046659
 20
201.0701123252786
 30
0.0
 11
427.437708457466
 21
201.0701123252786
 31
0.0
  0
ARC
  5
CA4
330
1A
100
AcDbEntity
  8
SEIHIN
  6
Continuous
 62
     3
100
AcDbCircle
 10
421.8947715046659
 20
199.0701123252786
 30
0.0
 40
2.0
100
AcDbArc
 50
90.0
 51
186.9112271190004
  0
LINE
  5
CA5
330
1A
100
AcDbEntity
  8
SEIHIN
  6
Continuous
 62
     3
100
AcDbLine
 10
427.437708457466
 20
200.0701123252786
 30
0.0
 11
427.437708457466
 21
201.0701123252786
 31
0.0
  0
LINE
  5
CA6
330
1A
100
AcDbEntity
  8
SEIHIN
  6
Continuous
 62
     3
100
AcDbLine
 10
419.197885734666
 20
203.3701123252786
 30
0.0
 11
427.437708457466
 21
203.3701123252786
 31
0.0
  0
LINE
  5
CA7
330
1A
100
AcDbEntity
  8
SEIHIN
  6
Continuous
 62
     3
100
AcDbLine
 10
418.180249587266
 20
202.4394605276786
 30
0.0
 11
418.1849198542657
 21
202.2521177114786
 31
0.0
  0
LINE
  5
CA8
330
1A
100
AcDbEntity
  8
SEIHIN
  6
Continuous
 62
     3
100
AcDbLine
 10
418.2113169628658
 20
202.6243679534786
 30
0.0
 11
418.180249587266
 21
202.4394605276786
 31
0.0
  0
LINE
  5
CA9
330
1A
100
AcDbEntity
  8
SEIHIN
  6
Continuous
 62
     3
100
AcDbLine
 10
418.277030948266
 20
202.8003463560786
 30
0.0
 11
418.2113169628658
 21
202.6243679534786
 31
0.0
  0
LINE
  5
CAA
330
1A
100
AcDbEntity
  8
SEIHIN
  6
Continuous
 62
     3
100
AcDbLine
 10
418.3750837802659
 20
202.9612156746786
 30
0.0
 11
418.277030948266
 21
202.8003463560786
 31
0.0
  0
LINE
  5
CAB
330
1A
100
AcDbEntity
  8
SEIHIN
  6
Continuous
 62
     3
100
AcDbLine
 10
418.5020320112658
 20
203.1013264534786
 30
0.0
 11
418.3750837802659
 21
202.9612156746786
 31
0.0
  0
LINE
  5
CAC
330
1A
100
AcDbEntity
  8
SEIHIN
  6
Continuous
 62
     3
100
AcDbLine
 10
418.6534174360659
 20
203.2157582412786
 30
0.0
 11
418.5020320112658
 21
203.1013264534786
 31
0.0
  0
LINE
  5
CAD
330
1A
100
AcDbEntity
  8
SEIHIN
  6
Continuous
 62
     3
100
AcDbLine
 10
418.8239236572658
 20
203.3004923894786
 30
0.0
 11
418.6534174360659
 21
203.2157582412786
 31
0.0
  0
LINE
  5
CAE
330
1A
100
AcDbEntity
  8
SEIHIN
  6
Continuous
 62
     3
100
AcDbLine
 10
419.007562787466
 20
203.3525531794786
 30
0.0
 11
418.8239236572658
 21
203.3004923894786
 31
0.0
  0
LINE
  5
CAF
330
1A
100
AcDbEntity
  8
SEIHIN
  6
Continuous
 62
     3
100
AcDbLine
 10
419.197885734666
 20
203.3701123252786
 30
0.0
 11
419.007562787466
 21
203.3525531794786
 31
0.0
  0
LINE
  5
CB0
330
1A
100
AcDbEntity
  8
SEIHIN
  6
Continuous
 62
     3
100
AcDbLine
 10
417.984043181066
 20
203.3525531794786
 30
0.0
 11
418.1706174768658
 21
203.3701123252786
 31
0.0
  0
LINE
  5
CB1
330
1A
100
AcDbEntity
  8
SEIHIN
  6
Continuous
 62
     3
100
AcDbLine
 10
417.8040210558659
 20
203.3004923894786
 30
0.0
 11
417.984043181066
 21
203.3525531794786
 31
0.0
  0
LINE
  5
CB2
330
1A
100
AcDbEntity
  8
SEIHIN
  6
Continuous
 62
     3
100
AcDbLine
 10
417.6368731704658
 20
203.2157582412786
 30
0.0
 11
417.8040210558659
 21
203.3004923894786
 31
0.0
  0
LINE
  5
CB3
330
1A
100
AcDbEntity
  8
SEIHIN
  6
Continuous
 62
     3
100
AcDbLine
 10
417.4884694732657
 20
203.1013264534786
 30
0.0
 11
417.6368731704658
 21
203.2157582412786
 31
0.0
  0
LINE
  5
CB4
330
1A
100
AcDbEntity
  8
SEIHIN
  6
Continuous
 62
     3
100
AcDbLine
 10
417.3640216484657
 20
202.9612156746786
 30
0.0
 11
417.4884694732657
 21
203.1013264534786
 31
0.0
  0
LINE
  5
CB5
330
1A
100
AcDbEntity
  8
SEIHIN
  6
Continuous
 62
     3
100
AcDbLine
 10
417.2679000910659
 20
202.8003463560786
 30
0.0
 11
417.3640216484657
 21
202.9612156746786
 31
0.0
  0
LINE
  5
CB6
330
1A
100
AcDbEntity
  8
SEIHIN
  6
Continuous
 62
     3
100
AcDbLine
 10
417.2034804258658
 20
202.6243679534786
 30
0.0
 11
417.2679000910659
 21
202.8003463560786
 31
0.0
  0
LINE
  5
CB7
330
1A
100
AcDbEntity
  8
SEIHIN
  6
Continuous
 62
     3
100
AcDbLine
 10
417.1730249614659
 20
202.4394605276786
 30
0.0
 11
417.2034804258658
 21
202.6243679534786
 31
0.0
  0
LINE
  5
CB8
330
1A
100
AcDbEntity
  8
SEIHIN
  6
Continuous
 62
     3
100
AcDbLine
 10
417.1776032418659
 20
202.2521177114786
 30
0.0
 11
417.1730249614659
 21
202.4394605276786
 31
0.0
  0
LINE
  5
CB9
330
1A
100
AcDbEntity
  8
SEIHIN
  6
Continuous
 62
     3
100
AcDbLine
 10
418.1706174768658
 20
203.3701123252786
 30
0.0
 11
419.197885734666
 21
203.3701123252786
 31
0.0
  0
LINE
  5
CBA
330
1A
100
AcDbEntity
  8
SEIHIN
  6
Continuous
 62
     3
100
AcDbLine
 10
417.1776032418659
 20
202.2521177114786
 30
0.0
 11
417.1778836948658
 21
202.2497809576786
 31
0.0
  0
ARC
  5
CBB
330
1A
100
AcDbEntity
  8
SEIHIN
  6
Continuous
 62
     3
100
AcDbCircle
 10
427.563845291066
 20
206.8678386580786
 30
0.0
 40
3.49999999999998
100
AcDbArc
 50
267.934664694604
 51
310.1498168343011
  0
LINE
  5
CBC
330
1A
100
AcDbEntity
  8
SEIHIN
  6
Continuous
 62
     3
100
AcDbLine
 10
427.437708457466
 20
203.3701123252786
 30
0.0
 11
427.6899821246659
 21
203.3701123252786
 31
0.0
  0
LINE
  5
CBD
330
1A
100
AcDbEntity
  8
SEIHIN
  6
Continuous
 62
     3
100
AcDbLine
 10
431.1725001454659
 20
204.1353206370786
 30
0.0
 11
431.4518496338658
 21
203.8559711488786
 31
0.0
  0
ARC
  5
CBE
330
1A
100
AcDbEntity
  8
SEIHIN
  6
Continuous
 62
     3
100
AcDbCircle
 10
430.7447428526659
 20
203.1488643676786
 30
0.0
 40
1.000000000000044
100
AcDbArc
 50
331.3619392904024
 51
44.99999999999942
  0
LINE
  5
CBF
330
1A
100
AcDbEntity
  8
SEIHIN
  6
Continuous
 62
     3
100
AcDbLine
 10
596.241720659066
 20
185.4497809576786
 30
0.0
 11
596.241720659066
 21
198.8294495900786
 31
0.0
  0
DIMENSION
  5
CC0
330
1A
100
AcDbEntity
  8
SUNPOU
100
AcDbDimension
  2
*D7
 10
626.2922400712812
 20
160.4701123252786
 30
0.0
 11
621.2922400712812
 21
172.0201123252787
 31
0.0
 70
    32
 71
     5
 42
23.10000000000002
  3
STANDARD
100
AcDbAlignedDimension
 13
552.8995075630658
 23
183.5701123252786
 33
0.0
 14
552.8995075630658
 24
160.4701123252786
 34
0.0
 50
90.0
100
AcDbRotatedDimension
1001
ACAD
1000
DSTYLE
1002
{
1070
    41
1040
7.0
1070
    42
1040
6.0
1070
    43
1040
14.0
1070
    44
1040
3.0
1070
    73
1070
     0
1070
    74
1070
     0
1070
    77
1070
     3
1070
   140
1040
6.0
1070
   141
1040
150.0
1070
   147
1040
2.0
1070
   172
1070
     1
1070
   173
1070
     1
1070
   176
1070
   256
1070
   177
1070
   256
1070
   178
1070
   256
1070
   271
1070
     0
1070
   272
1070
     0
1070
   341
1005
6D
1070
     6
1000
OPEN
1070
     7
1000
OPEN
1070
   371
1070
    -1
1070
   372
1070
    -1
1002
}
  0
DIMENSION
  5
CC1
330
1A
100
AcDbEntity
  8
SUNPOU
100
AcDbDimension
  2
*D8
 10
645.8496834400046
 20
119.4701123252786
 30
0.0
 11
640.8496834400046
 21
151.5201123252787
 31
0.0
 70
    32
 71
     5
 42
64.10000000000002
  3
STANDARD
100
AcDbAlignedDimension
 13
551.8995075630658
 23
183.5701123252786
 33
0.0
 14
542.524394684466
 24
119.4701123252786
 34
0.0
 50
90.0
100
AcDbRotatedDimension
1001
ACAD
1000
DSTYLE
1002
{
1070
    41
1040
7.0
1070
    42
1040
6.0
1070
    43
1040
14.0
1070
    44
1040
3.0
1070
    73
1070
     0
1070
    74
1070
     0
1070
    77
1070
     3
1070
   140
1040
6.0
1070
   141
1040
150.0
1070
   147
1040
2.0
1070
   172
1070
     1
1070
   173
1070
     1
1070
   176
1070
   256
1070
   177
1070
   256
1070
   178
1070
   256
1070
   271
1070
     0
1070
   272
1070
     0
1070
   341
1005
6D
1070
     6
1000
OPEN
1070
     7
1000
OPEN
1070
   371
1070
    -1
1070
   372
1070
    -1
1002
}
  0
LINE
  5
CC2
330
1A
100
AcDbEntity
  8
SEIHIN
  6
Continuous
 62
     3
100
AcDbLine
 10
582.241720659066
 20
184.5701123252786
 30
0.0
 11
596.241720659066
 21
184.5701123252786
 31
0.0
  0
LINE
  5
CC3
330
1A
100
AcDbEntity
  8
SEIHIN
  6
Continuous
 62
     3
100
AcDbLine
 10
596.241720659066
 20
159.5145943946786
 30
0.0
 11
591.241720659066
 21
159.5145943946786
 31
0.0
  0
LINE
  5
CC4
330
1A
100
AcDbEntity
  8
SEIHIN
  6
Continuous
 62
     3
100
AcDbLine
 10
566.241720659066
 20
183.5701123252786
 30
0.0
 11
596.241720659066
 21
183.5701123252786
 31
0.0
  0
LINE
  5
CC5
330
1A
100
AcDbEntity
  8
SEIHIN
  6
Continuous
 62
     3
100
AcDbLine
 10
596.241720659066
 20
120.4701123252786
 30
0.0
 11
591.2434128298658
 21
119.4704507592786
 31
0.0
  0
LINE
  5
CC6
330
1A
100
AcDbEntity
  8
SEIHIN
  6
Continuous
 62
     3
100
AcDbLine
 10
532.530852238466
 20
128.4525714082786
 30
0.0
 11
533.9393505296659
 21
159.4701123252786
 31
0.0
  0
LINE
  5
CC7
330
1A
100
AcDbEntity
  8
SEIHIN
  6
Continuous
 62
     3
100
AcDbLine
 10
544.5223358240658
 20
121.3793863488786
 30
0.0
 11
546.2540454882658
 21
159.5145943946786
 31
0.0
  0
LINE
  5
CC8
330
1A
100
AcDbEntity
  8
SEIHIN
  6
Continuous
 62
     3
100
AcDbLine
 10
545.2530149972658
 20
159.5145943946786
 30
0.0
 11
543.565031419266
 21
122.3423095374786
 31
0.0
  0
LINE
  5
CC9
330
1A
100
AcDbEntity
  8
SEIHIN
  6
Continuous
 62
     3
100
AcDbLine
 10
544.0344828434659
 20
161.3381568074786
 30
0.0
 11
542.324408083666
 21
123.6793863488786
 31
0.0
  0
LINE
  5
CCA
330
1A
100
AcDbEntity
  8
SEIHIN
  6
Continuous
 62
     3
100
AcDbLine
 10
555.8265166458657
 20
121.4442387674786
 30
0.0
 11
555.8265166458657
 21
159.4643980394786
 31
0.0
  0
LINE
  5
CCB
330
1A
100
AcDbEntity
  8
SEIHIN
  6
Continuous
 62
     3
100
AcDbLine
 10
591.241720659066
 20
119.4701123252786
 30
0.0
 11
559.6604083132659
 21
119.4701123252786
 31
0.0
  0
LINE
  5
CCC
330
1A
100
AcDbEntity
  8
SEIHIN
  6
Continuous
 62
     3
100
AcDbLine
 10
556.3966607252658
 20
120.0467804742786
 30
0.0
 11
555.9794889512657
 21
120.6868532314786
 31
0.0
  0
LINE
  5
CCD
330
1A
100
AcDbEntity
  8
SEIHIN
  6
Continuous
 62
     3
100
AcDbLine
 10
544.0072793056659
 20
120.1280790914786
 30
0.0
 11
544.3670874788659
 21
120.6926271062786
 31
0.0
  0
LINE
  5
CCE
330
1A
100
AcDbEntity
  8
SEIHIN
  6
Continuous
 62
     3
100
AcDbLine
 10
541.6058889464659
 20
120.4701123252786
 30
0.0
 11
542.2611263114659
 21
120.5801345136786
 31
0.0
  0
LINE
  5
CCF
330
1A
100
AcDbEntity
  8
SEIHIN
  6
Continuous
 62
     3
100
AcDbLine
 10
546.241720659066
 20
119.4701123252786
 30
0.0
 11
544.6317860508659
 21
119.4701123252786
 31
0.0
  0
LINE
  5
CD0
330
1A
100
AcDbEntity
  8
SEIHIN
  6
Continuous
 62
     3
100
AcDbLine
 10
543.4838458768659
 20
119.7152751790786
 30
0.0
 11
544.0072793056659
 21
120.1280790914786
 31
0.0
  0
LINE
  5
CD1
330
1A
100
AcDbEntity
  8
SEIHIN
  6
Continuous
 62
     3
100
AcDbLine
 10
542.8558074030659
 20
119.4977620494786
 30
0.0
 11
543.4838458768659
 21
119.7152751790786
 31
0.0
  0
LINE
  5
CD2
330
1A
100
AcDbEntity
  8
SEIHIN
  6
Continuous
 62
     3
100
AcDbLine
 10
542.5611862886658
 20
119.4704507592786
 30
0.0
 11
542.8558074030659
 21
119.4977620494786
 31
0.0
  0
LINE
  5
CD3
330
1A
100
AcDbEntity
  8
SEIHIN
  6
Continuous
 62
     3
100
AcDbLine
 10
544.6317860508659
 20
119.4701123252786
 30
0.0
 11
542.6579731118659
 21
119.4701123252786
 31
0.0
  0
LINE
  5
CD4
330
1A
100
AcDbEntity
  8
SEIHIN
  6
Continuous
 62
     3
100
AcDbLine
 10
542.524394684466
 20
119.4701123252786
 30
0.0
 11
542.5611862886658
 21
119.4704507592786
 31
0.0
  0
LINE
  5
CD5
330
1A
100
AcDbEntity
  8
SEIHIN
  6
Continuous
 62
     3
100
AcDbLine
 10
557.7434624796658
 20
119.4701123252786
 30
0.0
 11
546.241720659066
 21
119.4701123252786
 31
0.0
  0
LINE
  5
CD6
330
1A
100
AcDbEntity
  8
SEIHIN
  6
Continuous
 62
     3
100
AcDbLine
 10
557.0155499868658
 20
119.6198875142786
 30
0.0
 11
556.3966607252658
 21
120.0467804742786
 31
0.0
  0
LINE
  5
CD7
330
1A
100
AcDbEntity
  8
SEIHIN
  6
Continuous
 62
     3
100
AcDbLine
 10
557.7434624796658
 20
119.4701123252786
 30
0.0
 11
557.0155499868658
 21
119.6198875142786
 31
0.0
  0
LINE
  5
CD8
330
1A
100
AcDbEntity
  8
SEIHIN
  6
Continuous
 62
     3
100
AcDbLine
 10
559.6604083132659
 20
119.4701123252786
 30
0.0
 11
557.7434624796658
 21
119.4701123252786
 31
0.0
  0
LINE
  5
CD9
330
1A
100
AcDbEntity
  8
SEIHIN
  6
Continuous
 62
     3
100
AcDbLine
 10
531.9103179372658
 20
125.8728193682786
 30
0.0
 11
532.530852238466
 21
128.4525714082786
 31
0.0
  0
LINE
  5
CDA
330
1A
100
AcDbEntity
  8
SEIHIN
  6
Continuous
 62
     3
100
AcDbLine
 10
530.3742351274657
 20
123.7093423038786
 30
0.0
 11
531.9103179372658
 21
125.8728193682786
 31
0.0
  0
LINE
  5
CDB
330
1A
100
AcDbEntity
  8
SEIHIN
  6
Continuous
 62
     3
100
AcDbLine
 10
529.4074538386658
 20
122.9367789918786
 30
0.0
 11
530.3742351274657
 21
123.7093423038786
 31
0.0
  0
LINE
  5
CDC
330
1A
100
AcDbEntity
  8
SEIHIN
  6
Continuous
 62
     3
100
AcDbLine
 10
540.6765375140658
 20
121.8009880030786
 30
0.0
 11
540.3264669440657
 21
121.7701123252786
 31
0.0
  0
LINE
  5
CDD
330
1A
100
AcDbEntity
  8
SEIHIN
  6
Continuous
 62
     3
100
AcDbLine
 10
541.308594773466
 20
122.0278652340786
 30
0.0
 11
540.6765375140658
 21
121.8009880030786
 31
0.0
  0
LINE
  5
CDE
330
1A
100
AcDbEntity
  8
SEIHIN
  6
Continuous
 62
     3
100
AcDbLine
 10
541.8299245702658
 20
122.4511676082786
 30
0.0
 11
541.308594773466
 21
122.0278652340786
 31
0.0
  0
LINE
  5
CDF
330
1A
100
AcDbEntity
  8
SEIHIN
  6
Continuous
 62
     3
100
AcDbLine
 10
542.1817509244659
 20
123.0231709940786
 30
0.0
 11
541.8299245702658
 21
122.4511676082786
 31
0.0
  0
LINE
  5
CE0
330
1A
100
AcDbEntity
  8
SEIHIN
  6
Continuous
 62
     3
100
AcDbLine
 10
542.324408083666
 20
123.6793863488786
 30
0.0
 11
542.1817509244659
 21
123.0231709940786
 31
0.0
  0
LINE
  5
CE1
330
1A
100
AcDbEntity
  8
SEIHIN
  6
Continuous
 62
     3
100
AcDbLine
 10
544.3670874788659
 20
120.6926271062786
 30
0.0
 11
544.520328761266
 21
121.3426479716786
 31
0.0
  0
LINE
  5
CE2
330
1A
100
AcDbEntity
  8
SEIHIN
  6
Continuous
 62
     3
100
AcDbLine
 10
543.5182330280659
 20
121.9924647946786
 30
0.0
 11
543.565031419266
 21
122.3423095374786
 31
0.0
  0
LINE
  5
CE3
330
1A
100
AcDbEntity
  8
SEIHIN
  6
Continuous
 62
     3
100
AcDbLine
 10
543.2741178512658
 20
121.3920636072786
 30
0.0
 11
543.5182330280659
 21
121.9924647946786
 31
0.0
  0
LINE
  5
CE4
330
1A
100
AcDbEntity
  8
SEIHIN
  6
Continuous
 62
     3
100
AcDbLine
 10
542.8427618806659
 20
120.9024906330786
 30
0.0
 11
543.2741178512658
 21
121.3920636072786
 31
0.0
  0
LINE
  5
CE5
330
1A
100
AcDbEntity
  8
SEIHIN
  6
Continuous
 62
     3
100
AcDbLine
 10
542.2611263114659
 20
120.5801345136786
 30
0.0
 11
542.8427618806659
 21
120.9024906330786
 31
0.0
  0
LINE
  5
CE6
330
1A
100
AcDbEntity
  8
SEIHIN
  6
Continuous
 62
     3
100
AcDbLine
 10
544.520328761266
 20
121.3426479716786
 30
0.0
 11
544.5223358240658
 21
121.3793863488786
 31
0.0
  0
LINE
  5
CE7
330
1A
100
AcDbEntity
  8
SEIHIN
  6
Continuous
 62
     3
100
AcDbLine
 10
555.9794889512657
 20
120.6868532314786
 30
0.0
 11
555.8265166458657
 21
121.4442387674786
 31
0.0
  0
LINE
  5
CE8
330
1A
100
AcDbEntity
  8
SEIHIN
  6
Continuous
 62
     3
100
AcDbLine
 10
591.2434128298658
 20
119.4704507592786
 30
0.0
 11
591.241720659066
 21
119.4701123252786
 31
0.0
  0
LINE
  5
CE9
330
1A
100
AcDbEntity
  8
SEIHIN
  6
Continuous
 62
     3
100
AcDbLine
 10
561.9555680876658
 20
159.5810121073786
 30
0.0
 11
562.2053189998658
 21
159.7198676466786
 31
0.0
  0
LINE
  5
CEA
330
1A
100
AcDbEntity
  8
SEIHIN
  6
Continuous
 62
     3
100
AcDbLine
 10
591.241720659066
 20
159.5154753132786
 30
0.0
 11
560.5995075630658
 21
159.5154753132786
 31
0.0
  0
LINE
  5
CEB
330
1A
100
AcDbEntity
  8
SEIHIN
  6
Continuous
 62
     3
100
AcDbLine
 10
551.0642080120658
 20
184.5701123252786
 30
0.0
 11
580.241720659066
 21
184.5701123252786
 31
0.0
  0
LINE
  5
CEC
330
1A
100
AcDbEntity
  8
SEIHIN
  6
Continuous
 62
     3
100
AcDbLine
 10
560.5995065396658
 20
180.2701121344787
 30
0.0
 11
560.5995065396658
 21
160.5154751017786
 31
0.0
  0
LINE
  5
CED
330
1A
100
AcDbEntity
  8
SEIHIN
  6
Continuous
 62
     3
100
AcDbLine
 10
555.8265166458657
 20
180.2701123252786
 30
0.0
 11
555.8265166458657
 21
159.4701123252786
 31
0.0
  0
LINE
  5
CEE
330
1A
100
AcDbEntity
  8
SEIHIN
  6
Continuous
 62
     3
100
AcDbLine
 10
550.5995075630658
 20
180.2701123252786
 30
0.0
 11
550.5995075630658
 21
163.7701123252786
 31
0.0
  0
LINE
  5
CEF
330
1A
100
AcDbEntity
  8
SEIHIN
  6
Continuous
 62
     3
100
AcDbLine
 10
533.9393505296659
 20
180.2701123252786
 30
0.0
 11
533.9393505296659
 21
159.4701123252786
 31
0.0
  0
LINE
  5
CF0
330
1A
100
AcDbEntity
  8
SEIHIN
  6
Continuous
 62
     3
100
AcDbLine
 10
552.8995075630658
 20
182.5701123252786
 30
0.0
 11
552.8995075630658
 21
163.4701123252786
 31
0.0
  0
LINE
  5
CF1
330
1A
100
AcDbEntity
  8
SEIHIN
  6
Continuous
 62
     3
100
AcDbLine
 10
545.8920776360658
 20
160.3981916490786
 30
0.0
 11
545.7194824012659
 21
160.3107361576786
 31
0.0
  0
LINE
  5
CF2
330
1A
100
AcDbEntity
  8
SEIHIN
  6
Continuous
 62
     3
100
AcDbLine
 10
549.5995075630658
 20
162.7701123252786
 30
0.0
 11
545.5329386980659
 21
162.7701123252786
 31
0.0
  0
LINE
  5
CF3
330
1A
100
AcDbEntity
  8
SEIHIN
  6
Continuous
 62
     3
100
AcDbLine
 10
545.2801041582659
 20
159.7032316884786
 30
0.0
 11
545.2530149972658
 21
159.5145943946786
 31
0.0
  0
LINE
  5
CF4
330
1A
100
AcDbEntity
  8
SEIHIN
  6
Continuous
 62
     3
100
AcDbLine
 10
545.3431833462657
 20
159.8834091804786
 30
0.0
 11
545.2801041582659
 21
159.7032316884786
 31
0.0
  0
LINE
  5
CF5
330
1A
100
AcDbEntity
  8
SEIHIN
  6
Continuous
 62
     3
100
AcDbLine
 10
545.4399634446659
 20
160.0485883068786
 30
0.0
 11
545.3431833462657
 21
159.8834091804786
 31
0.0
  0
LINE
  5
CF6
330
1A
100
AcDbEntity
  8
SEIHIN
  6
Continuous
 62
     3
100
AcDbLine
 10
545.5669323454658
 20
160.1927747876786
 30
0.0
 11
545.4399634446659
 21
160.0485883068786
 31
0.0
  0
LINE
  5
CF7
330
1A
100
AcDbEntity
  8
SEIHIN
  6
Continuous
 62
     3
100
AcDbLine
 10
545.7194824012659
 20
160.3107361576786
 30
0.0
 11
545.5669323454658
 21
160.1927747876786
 31
0.0
  0
ARC
  5
CF8
330
1A
100
AcDbEntity
  8
SEIHIN
  6
Continuous
 62
     3
100
AcDbCircle
 10
545.5329386980659
 20
161.2701123252786
 30
0.0
 40
1.5
100
AcDbArc
 50
90.0
 51
177.3999999999991
  0
LINE
  5
CF9
330
1A
100
AcDbEntity
  8
SEIHIN
  6
Continuous
 62
     3
100
AcDbLine
 10
546.2807880904659
 20
159.7039819356786
 30
0.0
 11
546.2540854900658
 21
159.5154753044786
 31
0.0
  0
LINE
  5
CFA
330
1A
100
AcDbEntity
  8
SEIHIN
  6
Continuous
 62
     3
100
AcDbLine
 10
546.3427332450658
 20
159.8840113130786
 30
0.0
 11
546.2807880904659
 21
159.7039819356786
 31
0.0
  0
LINE
  5
CFB
330
1A
100
AcDbEntity
  8
SEIHIN
  6
Continuous
 62
     3
100
AcDbLine
 10
546.437675579866
 20
160.0490377712786
 30
0.0
 11
546.3427332450658
 21
159.8840113130786
 31
0.0
  0
LINE
  5
CFC
330
1A
100
AcDbEntity
  8
SEIHIN
  6
Continuous
 62
     3
100
AcDbLine
 10
546.562173646066
 20
160.1930794680786
 30
0.0
 11
546.437675579866
 21
160.0490377712786
 31
0.0
  0
LINE
  5
CFD
330
1A
100
AcDbEntity
  8
SEIHIN
  6
Continuous
 62
     3
100
AcDbLine
 10
546.7117146652658
 20
160.3109152116786
 30
0.0
 11
546.562173646066
 21
160.1930794680786
 31
0.0
  0
LINE
  5
CFE
330
1A
100
AcDbEntity
  8
SEIHIN
  6
Continuous
 62
     3
100
AcDbLine
 10
546.8808781074658
 20
160.3982737182786
 30
0.0
 11
546.7117146652658
 21
160.3109152116786
 31
0.0
  0
LINE
  5
CFF
330
1A
100
AcDbEntity
  8
SEIHIN
  6
Continuous
 62
     3
100
AcDbLine
 10
547.0635321738657
 20
160.4519884356786
 30
0.0
 11
546.8808781074658
 21
160.3982737182786
 31
0.0
  0
LINE
  5
D00
330
1A
100
AcDbEntity
  8
SEIHIN
  6
Continuous
 62
     3
100
AcDbLine
 10
547.2530560602659
 20
160.4701123252786
 30
0.0
 11
547.0635321738657
 21
160.4519884356786
 31
0.0
  0
LINE
  5
D01
330
1A
100
AcDbEntity
  8
SEIHIN
  6
Continuous
 62
     3
100
AcDbLine
 10
546.078454642666
 20
160.4519675394786
 30
0.0
 11
545.8920776360658
 21
160.3981916490786
 31
0.0
  0
LINE
  5
D02
330
1A
100
AcDbEntity
  8
SEIHIN
  6
Continuous
 62
     3
100
AcDbLine
 10
546.271849879666
 20
160.4701123252786
 30
0.0
 11
546.078454642666
 21
160.4519675394786
 31
0.0
  0
ARC
  5
D03
330
1A
100
AcDbEntity
  8
SEIHIN
  6
Continuous
 62
     3
100
AcDbCircle
 10
549.8995075630658
 20
163.4701123252786
 30
0.0
 40
3.0
100
AcDbArc
 50
270.0
 51
0.0
  0
ARC
  5
D04
330
1A
100
AcDbEntity
  8
SEIHIN
  6
Continuous
 62
     3
100
AcDbCircle
 10
549.5995075630658
 20
163.7701123252786
 30
0.0
 40
1.0
100
AcDbArc
 50
270.0
 51
0.0
  0
LINE
  5
D05
330
1A
100
AcDbEntity
  8
SEIHIN
  6
Continuous
 62
     3
100
AcDbLine
 10
546.2540454882658
 20
159.5145943946786
 30
0.0
 11
546.2540854896658
 21
159.5154752956786
 31
0.0
  0
LINE
  5
D06
330
1A
100
AcDbEntity
  8
SEIHIN
  6
Continuous
 62
     3
100
AcDbLine
 10
549.8995075630658
 20
160.4701123252786
 30
0.0
 11
546.271849879666
 21
160.4701123252786
 31
0.0
  0
LINE
  5
D07
330
1A
100
AcDbEntity
  8
SEIHIN
  6
Continuous
 62
     3
100
AcDbLine
 10
560.6187215869657
 20
160.3203853740786
 30
0.0
 11
560.5995065396658
 21
160.5154751017786
 31
0.0
  0
LINE
  5
D08
330
1A
100
AcDbEntity
  8
SEIHIN
  6
Continuous
 62
     3
100
AcDbLine
 10
560.6756291215659
 20
160.1327918618786
 30
0.0
 11
560.6187215869657
 21
160.3203853740786
 31
0.0
  0
LINE
  5
D09
330
1A
100
AcDbEntity
  8
SEIHIN
  6
Continuous
 62
     3
100
AcDbLine
 10
560.7680386727659
 20
159.9599048643786
 30
0.0
 11
560.6756291215659
 21
160.1327918618786
 31
0.0
  0
LINE
  5
D0A
330
1A
100
AcDbEntity
  8
SEIHIN
  6
Continuous
 62
     3
100
AcDbLine
 10
560.8924000387658
 20
159.8083684369787
 30
0.0
 11
560.7680386727659
 21
159.9599048643786
 31
0.0
  0
LINE
  5
D0B
330
1A
100
AcDbEntity
  8
SEIHIN
  6
Continuous
 62
     3
100
AcDbLine
 10
561.0439373975657
 20
159.6840061395786
 30
0.0
 11
560.8924000387658
 21
159.8083684369787
 31
0.0
  0
LINE
  5
D0C
330
1A
100
AcDbEntity
  8
SEIHIN
  6
Continuous
 62
     3
100
AcDbLine
 10
561.2168243949657
 20
159.5915956571786
 30
0.0
 11
561.0439373975657
 21
159.6840061395786
 31
0.0
  0
LINE
  5
D0D
330
1A
100
AcDbEntity
  8
SEIHIN
  6
Continuous
 62
     3
100
AcDbLine
 10
561.4044188385658
 20
159.5346899851786
 30
0.0
 11
561.2168243949657
 21
159.5915956571786
 31
0.0
  0
LINE
  5
D0E
330
1A
100
AcDbEntity
  8
SEIHIN
  6
Continuous
 62
     3
100
AcDbLine
 10
561.5995085661659
 20
159.5154749378786
 30
0.0
 11
561.4044188385658
 21
159.5346899851786
 31
0.0
  0
LINE
  5
D0F
330
1A
100
AcDbEntity
  8
SEIHIN
  6
Continuous
 62
     3
100
AcDbLine
 10
561.720558149166
 20
159.5228295921786
 30
0.0
 11
561.5995085661659
 21
159.5154749378786
 31
0.0
  0
LINE
  5
D10
330
1A
100
AcDbEntity
  8
SEIHIN
  6
Continuous
 62
     3
100
AcDbLine
 10
561.8398307686657
 20
159.5447827279786
 30
0.0
 11
561.720558149166
 21
159.5228295921786
 31
0.0
  0
LINE
  5
D11
330
1A
100
AcDbEntity
  8
SEIHIN
  6
Continuous
 62
     3
100
AcDbLine
 10
561.9555680876658
 20
159.5810121073786
 30
0.0
 11
561.8398307686657
 21
159.5447827279786
 31
0.0
  0
LINE
  5
D12
330
1A
100
AcDbEntity
  8
SEIHIN
  6
Continuous
 62
     3
100
AcDbLine
 10
559.6604083132659
 20
159.5154753132786
 30
0.0
 11
559.6604083132659
 21
159.4701123252786
 31
0.0
  0
LINE
  5
D13
330
1A
100
AcDbEntity
  8
SEIHIN
  6
Continuous
 62
     3
100
AcDbLine
 10
555.8265166458657
 20
159.4701123252786
 30
0.0
 11
559.6604083132659
 21
159.4701123252786
 31
0.0
  0
LINE
  5
D14
330
1A
100
AcDbEntity
  8
SEIHIN
  6
Continuous
 62
     3
100
AcDbLine
 10
559.6604083132659
 20
159.4701123252786
 30
0.0
 11
560.5995075630658
 21
159.4701123252786
 31
0.0
  0
LINE
  5
D15
330
1A
100
AcDbEntity
  8
SEIHIN
  6
Continuous
 62
     3
100
AcDbLine
 10
560.5995075630658
 20
159.5154753132786
 30
0.0
 11
560.5995075630658
 21
159.4701123252786
 31
0.0
  0
ARC
  5
D16
330
1A
100
AcDbEntity
  8
SEIHIN
  6
Continuous
 62
     3
100
AcDbCircle
 10
550.1854946872659
 20
178.0787458218786
 30
0.0
 40
8.700000000000021
100
AcDbArc
 50
90.90253272650125
 51
139.9478067115998
  0
LINE
  5
D17
330
1A
100
AcDbEntity
  8
SEIHIN
  6
Continuous
 62
     3
100
AcDbLine
 10
543.2295075630657
 20
183.5701123252786
 30
0.0
 11
551.8995075630658
 21
183.5701123252786
 31
0.0
  0
LINE
  5
D18
330
1A
100
AcDbEntity
  8
SEIHIN
  6
Continuous
 62
     3
100
AcDbLine
 10
545.2112400446658
 20
180.2701123252786
 30
0.0
 11
549.5995075630658
 21
180.2701123252786
 31
0.0
  0
LINE
  5
D19
330
1A
100
AcDbEntity
  8
SEIHIN
  6
Continuous
 62
     3
100
AcDbLine
 10
543.2295075630657
 20
181.2701123252786
 30
0.0
 11
549.5995075630658
 21
181.2701123252786
 31
0.0
  0
LINE
  5
D1A
330
1A
100
AcDbEntity
  8
SEIHIN
  6
Continuous
 62
     3
100
AcDbLine
 10
533.9393505296659
 20
180.2701123252786
 30
0.0
 11
539.5006745642659
 21
180.2701123252786
 31
0.0
  0
ARC
  5
D1B
330
1A
100
AcDbEntity
  8
SEIHIN
  6
Continuous
 62
     3
100
AcDbCircle
 10
543.2963674548657
 20
183.8701123252786
 30
0.0
 40
0.3000000000000114
100
AcDbArc
 50
270.0
 51
319.9478067115969
  0
LINE
  5
D1C
330
1A
100
AcDbEntity
  8
SEIHIN
  6
Continuous
 62
     3
100
AcDbLine
 10
543.3590185468659
 20
180.2701123252786
 30
0.0
 11
545.2112400446658
 21
180.2701123252786
 31
0.0
  0
LINE
  5
D1D
330
1A
100
AcDbEntity
  8
SEIHIN
  6
Continuous
 62
     3
100
AcDbLine
 10
539.5006745642659
 20
180.2701123252786
 30
0.0
 11
543.3590185468659
 21
180.2701123252786
 31
0.0
  0
LINE
  5
D1E
330
1A
100
AcDbEntity
  8
SEIHIN
  6
Continuous
 62
     3
100
AcDbLine
 10
543.2295075630657
 20
181.2701123252786
 30
0.0
 11
543.2295075630657
 21
180.2701123252786
 31
0.0
  0
ARC
  5
D1F
330
1A
100
AcDbEntity
  8
SEIHIN
  6
Continuous
 62
     3
100
AcDbCircle
 10
543.8126027524659
 20
181.9201123252786
 30
0.0
 40
1.749999999999991
100
AcDbArc
 50
109.4629509463026
 51
250.5370490536974
  0
LINE
  5
D20
330
1A
100
AcDbEntity
  8
SEIHIN
  6
Continuous
 62
     3
100
AcDbLine
 10
553.0330959902658
 20
180.2701123252786
 30
0.0
 11
555.8265166458657
 21
180.2701123252786
 31
0.0
  0
ARC
  5
D21
330
1A
100
AcDbEntity
  8
SEIHIN
  6
Continuous
 62
     3
100
AcDbCircle
 10
551.364208012066
 20
183.8701123252786
 30
0.0
 40
0.2999999999999545
100
AcDbArc
 50
180.0
 51
270.0
  0
ARC
  5
D22
330
1A
100
AcDbEntity
  8
SEIHIN
  6
Continuous
 62
     3
100
AcDbCircle
 10
550.0642080120658
 20
185.7777905380786
 30
0.0
 40
1.0
100
AcDbArc
 50
0.0
 51
90.90253272650125
  0
LINE
  5
D23
330
1A
100
AcDbEntity
  8
SEIHIN
  6
Continuous
 62
     3
100
AcDbLine
 10
551.0642080120658
 20
183.8701123252786
 30
0.0
 11
551.0642080120658
 21
185.7777905380786
 31
0.0
  0
ARC
  5
D24
330
1A
100
AcDbEntity
  8
SEIHIN
  6
Continuous
 62
     3
100
AcDbCircle
 10
551.8995075630658
 20
182.5701123252786
 30
0.0
 40
1.0
100
AcDbArc
 50
0.0
 51
90.0
  0
LINE
  5
D25
330
1A
100
AcDbEntity
  8
SEIHIN
  6
Continuous
 62
     3
100
AcDbLine
 10
549.5995075630658
 20
180.2701123252786
 30
0.0
 11
550.5995075630658
 21
180.2701123252786
 31
0.0
  0
ARC
  5
D26
330
1A
100
AcDbEntity
  8
SEIHIN
  6
Continuous
 62
     3
100
AcDbCircle
 10
549.5995075630658
 20
180.2701123252786
 30
0.0
 40
1.0
100
AcDbArc
 50
0.0
 51
90.0
  0
LINE
  5
D27
330
1A
100
AcDbEntity
  8
SEIHIN
  6
Continuous
 62
     3
100
AcDbLine
 10
558.5995075630658
 20
180.2701123252786
 30
0.0
 11
559.5995075630658
 21
180.2701123252786
 31
0.0
  0
LINE
  5
D28
330
1A
100
AcDbEntity
  8
SEIHIN
  6
Continuous
 62
     3
100
AcDbLine
 10
557.4634565835656
 20
180.2701121344787
 30
0.0
 11
558.5168423901657
 21
180.2701123252787
 31
0.0
  0
LINE
  5
D29
330
1A
100
AcDbEntity
  8
SEIHIN
  6
Continuous
 62
     3
100
AcDbLine
 10
559.9135879182657
 20
180.2701123252787
 30
0.0
 11
560.5995065396658
 21
180.2701121344787
 31
0.0
  0
LINE
  5
D2A
330
1A
100
AcDbEntity
  8
SEIHIN
  6
Continuous
 62
     3
100
AcDbLine
 10
558.5168423901657
 20
180.2701123252787
 30
0.0
 11
559.9135879182657
 21
180.2701123252787
 31
0.0
  0
LINE
  5
D2B
330
1A
100
AcDbEntity
  8
SEIHIN
  6
Continuous
 62
     3
100
AcDbLine
 10
558.5995075630658
 20
180.2701123252786
 30
0.0
 11
558.0119696796658
 21
180.2701123252786
 31
0.0
  0
LINE
  5
D2C
330
1A
100
AcDbEntity
  8
SEIHIN
  6
Continuous
 62
     3
100
AcDbLine
 10
555.8265166458657
 20
180.2701123252786
 30
0.0
 11
558.0119696796658
 21
180.2701123252786
 31
0.0
  0
LINE
  5
D2D
330
1A
100
AcDbEntity
  8
SEIHIN
  6
Continuous
 62
     3
100
AcDbLine
 10
562.599507563066
 20
163.4701123252787
 30
0.0
 11
562.5995068674658
 21
180.2701121344787
 31
0.0
  0
LINE
  5
D2E
330
1A
100
AcDbEntity
  8
SEIHIN
  6
Continuous
 62
     3
100
AcDbLine
 10
562.5983892803658
 20
160.4681993051786
 30
0.0
 11
562.5984786873657
 21
160.4701122417786
 31
0.0
  0
LINE
  5
D2F
330
1A
100
AcDbEntity
  8
SEIHIN
  6
Continuous
 62
     3
100
AcDbLine
 10
562.593177599266
 20
160.4031389727786
 30
0.0
 11
562.5983892803658
 21
160.4681993051786
 31
0.0
  0
LINE
  5
D30
330
1A
100
AcDbEntity
  8
SEIHIN
  6
Continuous
 62
     3
100
AcDbLine
 10
562.5707960551658
 20
160.2775696813786
 30
0.0
 11
562.593177599266
 21
160.4031389727786
 31
0.0
  0
LINE
  5
D31
330
1A
100
AcDbEntity
  8
SEIHIN
  6
Continuous
 62
     3
100
AcDbLine
 10
562.5170363908658
 20
160.1178050189786
 30
0.0
 11
562.5707960551658
 21
160.2775696813786
 31
0.0
  0
LINE
  5
D32
330
1A
100
AcDbEntity
  8
SEIHIN
  6
Continuous
 62
     3
100
AcDbLine
 10
562.4031691675657
 20
159.9203907101786
 30
0.0
 11
562.5170363908658
 21
160.1178050189786
 31
0.0
  0
LINE
  5
D33
330
1A
100
AcDbEntity
  8
SEIHIN
  6
Continuous
 62
     3
100
AcDbLine
 10
562.2053189998658
 20
159.7198676466786
 30
0.0
 11
562.4031691675657
 21
159.9203907101786
 31
0.0
  0
LINE
  5
D34
330
1A
100
AcDbEntity
  8
SEIHIN
  6
Continuous
 62
     3
100
AcDbLine
 10
562.599507563066
 20
160.5154753133786
 30
0.0
 11
562.5984786873657
 21
160.4701122417786
 31
0.0
  0
LINE
  5
D35
330
1A
100
AcDbEntity
  8
SEIHIN
  6
Continuous
 62
     3
100
AcDbLine
 10
562.599507563066
 20
160.5154753133786
 30
0.0
 11
562.599507563066
 21
163.4701123252787
 31
0.0
  0
LINE
  5
D36
330
1A
100
AcDbEntity
  8
SEIHIN
  6
Continuous
 62
     3
100
AcDbLine
 10
591.241720659066
 20
159.5145943946786
 30
0.0
 11
591.2417226414657
 21
159.5154752956786
 31
0.0
  0
LINE
  5
D37
330
1A
100
AcDbEntity
  8
SEIHIN
  6
Continuous
 62
     3
100
AcDbLine
 10
566.241720659066
 20
182.5701123252786
 30
0.0
 11
566.241720659066
 21
183.5701123252786
 31
0.0
  0
LINE
  5
D38
330
1A
100
AcDbEntity
  8
SEIHIN
  6
Continuous
 62
     3
100
AcDbLine
 10
566.241720659066
 20
182.5701123252786
 30
0.0
 11
566.241720659066
 21
183.5701123252786
 31
0.0
  0
LINE
  5
D39
330
1A
100
AcDbEntity
  8
SEIHIN
  6
Continuous
 62
     3
100
AcDbLine
 10
562.5995068674658
 20
180.2701121344787
 30
0.0
 11
565.241720659066
 21
180.2701123252787
 31
0.0
  0
ARC
  5
D3A
330
1A
100
AcDbEntity
  8
SEIHIN
  6
Continuous
 62
     3
100
AcDbCircle
 10
565.241720659066
 20
181.2701123252787
 30
0.0
 40
1.0
100
AcDbArc
 50
270.0
 51
0.0
  0
ARC
  5
D3B
330
1A
100
AcDbEntity
  8
SEIHIN
  6
Continuous
 62
     3
100
AcDbCircle
 10
565.241720659066
 20
181.2701123252786
 30
0.0
 40
1.0
100
AcDbArc
 50
270.0
 51
0.0
  0
LINE
  5
D3C
330
1A
100
AcDbEntity
  8
SEIHIN
  6
Continuous
 62
     3
100
AcDbLine
 10
566.241720659066
 20
181.2701123252787
 30
0.0
 11
566.241720659066
 21
182.5701123252786
 31
0.0
  0
LINE
  5
D3D
330
1A
100
AcDbEntity
  8
SEIHIN
  6
Continuous
 62
     3
100
AcDbLine
 10
566.241720659066
 20
181.2701123252786
 30
0.0
 11
566.241720659066
 21
182.5701123252786
 31
0.0
  0
LINE
  5
D3E
330
1A
100
AcDbEntity
  8
SEIHIN
  6
Continuous
 62
     3
100
AcDbLine
 10
580.4831935624659
 20
186.7719027744786
 30
0.0
 11
580.5417206590657
 21
186.7776664752786
 31
0.0
  0
LINE
  5
D3F
330
1A
100
AcDbEntity
  8
SEIHIN
  6
Continuous
 62
     3
100
AcDbLine
 10
580.426915629266
 20
186.7548331680786
 30
0.0
 11
580.4831935624659
 21
186.7719027744786
 31
0.0
  0
LINE
  5
D40
330
1A
100
AcDbEntity
  8
SEIHIN
  6
Continuous
 62
     3
100
AcDbLine
 10
580.3750495890658
 20
186.7271136314786
 30
0.0
 11
580.426915629266
 21
186.7548331680786
 31
0.0
  0
LINE
  5
D41
330
1A
100
AcDbEntity
  8
SEIHIN
  6
Continuous
 62
     3
100
AcDbLine
 10
580.3295886246658
 20
186.6898094106786
 30
0.0
 11
580.3750495890658
 21
186.7271136314786
 31
0.0
  0
LINE
  5
D42
330
1A
100
AcDbEntity
  8
SEIHIN
  6
Continuous
 62
     3
100
AcDbLine
 10
580.2922797752658
 20
186.6443540862786
 30
0.0
 11
580.3295886246658
 21
186.6898094106786
 31
0.0
  0
LINE
  5
D43
330
1A
100
AcDbEntity
  8
SEIHIN
  6
Continuous
 62
     3
100
AcDbLine
 10
580.2645567992659
 20
186.5924944806786
 30
0.0
 11
580.2922797752658
 21
186.6443540862786
 31
0.0
  0
LINE
  5
D44
330
1A
100
AcDbEntity
  8
SEIHIN
  6
Continuous
 62
     3
100
AcDbLine
 10
580.2474850748658
 20
186.5362235296786
 30
0.0
 11
580.2645567992659
 21
186.5924944806786
 31
0.0
  0
LINE
  5
D45
330
1A
100
AcDbEntity
  8
SEIHIN
  6
Continuous
 62
     3
100
AcDbLine
 10
580.241720659066
 20
186.4777036940786
 30
0.0
 11
580.2474850748658
 21
186.5362235296786
 31
0.0
  0
LINE
  5
D46
330
1A
100
AcDbEntity
  8
SEIHIN
  6
Continuous
 62
     3
100
AcDbLine
 10
582.2359562430659
 20
186.5362235296786
 30
0.0
 11
582.241720659066
 21
186.4777036940786
 31
0.0
  0
LINE
  5
D47
330
1A
100
AcDbEntity
  8
SEIHIN
  6
Continuous
 62
     3
100
AcDbLine
 10
582.2188845186659
 20
186.5924944806786
 30
0.0
 11
582.2359562430659
 21
186.5362235296786
 31
0.0
  0
LINE
  5
D48
330
1A
100
AcDbEntity
  8
SEIHIN
  6
Continuous
 62
     3
100
AcDbLine
 10
582.1911615426659
 20
186.6443540862786
 30
0.0
 11
582.2188845186659
 21
186.5924944806786
 31
0.0
  0
LINE
  5
D49
330
1A
100
AcDbEntity
  8
SEIHIN
  6
Continuous
 62
     3
100
AcDbLine
 10
582.1538526932659
 20
186.6898094106786
 30
0.0
 11
582.1911615426659
 21
186.6443540862786
 31
0.0
  0
LINE
  5
D4A
330
1A
100
AcDbEntity
  8
SEIHIN
  6
Continuous
 62
     3
100
AcDbLine
 10
582.1083917288659
 20
186.7271136314786
 30
0.0
 11
582.1538526932659
 21
186.6898094106786
 31
0.0
  0
LINE
  5
D4B
330
1A
100
AcDbEntity
  8
SEIHIN
  6
Continuous
 62
     3
100
AcDbLine
 10
582.0565256886659
 20
186.7548331680786
 30
0.0
 11
582.1083917288659
 21
186.7271136314786
 31
0.0
  0
LINE
  5
D4C
330
1A
100
AcDbEntity
  8
SEIHIN
  6
Continuous
 62
     3
100
AcDbLine
 10
582.0002477556657
 20
186.7719027744786
 30
0.0
 11
582.0565256886659
 21
186.7548331680786
 31
0.0
  0
LINE
  5
D4D
330
1A
100
AcDbEntity
  8
SEIHIN
  6
Continuous
 62
     3
100
AcDbLine
 10
581.9417206590658
 20
186.7776664752786
 30
0.0
 11
582.0002477556657
 21
186.7719027744786
 31
0.0
  0
LINE
  5
D4E
330
1A
100
AcDbEntity
  8
SEIHIN
  6
Continuous
 62
     3
100
AcDbLine
 10
580.241720659066
 20
183.8701123252786
 30
0.0
 11
580.241720659066
 21
185.7777905380786
 31
0.0
  0
ARC
  5
D4F
330
1A
100
AcDbEntity
  8
SEIHIN
  6
Continuous
 62
     3
100
AcDbCircle
 10
582.5417206590657
 20
183.8701123252786
 30
0.0
 40
0.2999999999999545
100
AcDbArc
 50
180.0
 51
270.0
  0
ARC
  5
D50
330
1A
100
AcDbEntity
  8
SEIHIN
  6
Continuous
 62
     3
100
AcDbCircle
 10
579.9417206590658
 20
183.8701123252786
 30
0.0
 40
0.3000000000000114
100
AcDbArc
 50
270.0
 51
0.0
  0
LINE
  5
D51
330
1A
100
AcDbEntity
  8
SEIHIN
  6
Continuous
 62
     3
100
AcDbLine
 10
582.241720659066
 20
186.4777036940786
 30
0.0
 11
582.241720659066
 21
185.7777905380786
 31
0.0
  0
LINE
  5
D52
330
1A
100
AcDbEntity
  8
SEIHIN
  6
Continuous
 62
     3
100
AcDbLine
 10
582.241720659066
 20
185.7777905380786
 30
0.0
 11
582.241720659066
 21
183.8701123252786
 31
0.0
  0
LINE
  5
D53
330
1A
100
AcDbEntity
  8
SEIHIN
  6
Continuous
 62
     3
100
AcDbLine
 10
581.9417206590658
 20
186.7776664752786
 30
0.0
 11
580.5417206590657
 21
186.7776664752786
 31
0.0
  0
LINE
  5
D54
330
1A
100
AcDbEntity
  8
SEIHIN
  6
Continuous
 62
     3
100
AcDbLine
 10
580.241720659066
 20
185.7777905380786
 30
0.0
 11
580.241720659066
 21
186.4777036940786
 31
0.0
  0
LINE
  5
D55
330
1A
100
AcDbEntity
  8
SEIHIN
  6
Continuous
 62
     3
100
AcDbLine
 10
596.241720659066
 20
159.5145943946786
 30
0.0
 11
596.241720659066
 21
122.3423095374786
 31
0.0
  0
LINE
  5
D56
330
1A
100
AcDbEntity
  8
SEIHIN
  6
Continuous
 62
     3
100
AcDbLine
 10
596.241720659066
 20
122.3423095374786
 30
0.0
 11
596.241720659066
 21
120.4701123252786
 31
0.0
  0
LINE
  5
D57
330
1A
100
AcDbEntity
  8
SEIHIN
  6
Continuous
 62
     3
100
AcDbLine
 10
596.241720659066
 20
182.5701123252786
 30
0.0
 11
596.241720659066
 21
163.4701123252786
 31
0.0
  0
LINE
  5
D58
330
1A
100
AcDbEntity
  8
SEIHIN
  6
Continuous
 62
     3
100
AcDbLine
 10
596.241720659066
 20
160.4701123252786
 30
0.0
 11
596.241720659066
 21
159.5145943946786
 31
0.0
  0
LINE
  5
D59
330
1A
100
AcDbEntity
  8
SEIHIN
  6
Continuous
 62
     3
100
AcDbLine
 10
596.241720659066
 20
163.4701123252786
 30
0.0
 11
596.241720659066
 21
160.4701123252786
 31
0.0
  0
LINE
  5
D5A
330
1A
100
AcDbEntity
  8
SEIHIN
  6
Continuous
 62
     3
100
AcDbLine
 10
596.241720659066
 20
183.5701123252786
 30
0.0
 11
596.241720659066
 21
182.5701123252786
 31
0.0
  0
LINE
  5
D5B
330
1A
100
AcDbEntity
  8
SEIHIN
  6
Continuous
 62
     3
100
AcDbLine
 10
596.241720659066
 20
185.4497809576786
 30
0.0
 11
596.241720659066
 21
184.5701123252786
 31
0.0
  0
LINE
  5
D5C
330
1A
100
AcDbEntity
  8
SEIHIN
  6
Continuous
 62
     3
100
AcDbLine
 10
596.241720659066
 20
183.5701123252786
 30
0.0
 11
596.241720659066
 21
184.5701123252786
 31
0.0
  0
LINE
  5
D5D
330
1A
100
AcDbEntity
  8
SEIHIN
  6
Continuous
 62
     3
100
AcDbLine
 10
596.241720659066
 20
204.4282138560786
 30
0.0
 11
566.241720659066
 21
204.4282138560786
 31
0.0
  0
LINE
  5
D5E
330
1A
100
AcDbEntity
  8
SEIHIN
  6
Continuous
 62
     3
100
AcDbLine
 10
566.241720659066
 20
200.0701123252786
 30
0.0
 11
596.241720659066
 21
200.0701123252786
 31
0.0
  0
LINE
  5
D5F
330
1A
100
AcDbEntity
  8
SEIHIN
  6
Continuous
 62
     3
100
AcDbLine
 10
566.241720659066
 20
204.1353206370786
 30
0.0
 11
596.241720659066
 21
204.1353206370786
 31
0.0
  0
LINE
  5
D60
330
1A
100
AcDbEntity
  8
SEIHIN
  6
Continuous
 62
     3
100
AcDbLine
 10
566.241720659066
 20
203.8559711488786
 30
0.0
 11
596.241720659066
 21
203.8559711488786
 31
0.0
  0
LINE
  5
D61
330
1A
100
AcDbEntity
  8
SEIHIN
  6
Continuous
 62
     3
100
AcDbLine
 10
566.241720659066
 20
202.6695893846786
 30
0.0
 11
566.241720659066
 21
200.0701123252786
 31
0.0
  0
LINE
  5
D62
330
1A
100
AcDbEntity
  8
SEIHIN
  6
Continuous
 62
     3
100
AcDbLine
 10
566.241720659066
 20
204.1353206370786
 30
0.0
 11
566.241720659066
 21
203.8559711488786
 31
0.0
  0
LINE
  5
D63
330
1A
100
AcDbEntity
  8
SEIHIN
  6
Continuous
 62
     3
100
AcDbLine
 10
566.241720659066
 20
204.4282138560786
 30
0.0
 11
566.241720659066
 21
204.1353206370786
 31
0.0
  0
LINE
  5
D64
330
1A
100
AcDbEntity
  8
SEIHIN
  6
Continuous
 62
     3
100
AcDbLine
 10
564.241720659066
 20
203.3701123252786
 30
0.0
 11
566.241720659066
 21
203.3701123252786
 31
0.0
  0
LINE
  5
D65
330
1A
100
AcDbEntity
  8
SEIHIN
  6
Continuous
 62
     3
100
AcDbLine
 10
566.241720659066
 20
203.8559711488786
 30
0.0
 11
566.241720659066
 21
202.6695893846786
 31
0.0
  0
LINE
  5
D66
330
1A
100
AcDbEntity
  8
SEIHIN
  6
Continuous
 62
     3
100
AcDbLine
 10
596.241720659066
 20
202.6695893846786
 30
0.0
 11
596.241720659066
 21
200.0701123252786
 31
0.0
  0
LINE
  5
D67
330
1A
100
AcDbEntity
  8
SEIHIN
  6
Continuous
 62
     3
100
AcDbLine
 10
596.241720659066
 20
200.0701123252786
 30
0.0
 11
596.241720659066
 21
198.8294495900786
 31
0.0
  0
LINE
  5
D68
330
1A
100
AcDbEntity
  8
SEIHIN
  6
Continuous
 62
     3
100
AcDbLine
 10
596.241720659066
 20
203.8559711488786
 30
0.0
 11
596.241720659066
 21
202.6695893846786
 31
0.0
  0
LINE
  5
D69
330
1A
100
AcDbEntity
  8
SEIHIN
  6
Continuous
 62
     3
100
AcDbLine
 10
596.241720659066
 20
204.1353206370786
 30
0.0
 11
596.241720659066
 21
203.8559711488786
 31
0.0
  0
LINE
  5
D6A
330
1A
100
AcDbEntity
  8
SEIHIN
  6
Continuous
 62
     3
100
AcDbLine
 10
596.241720659066
 20
204.4282138560786
 30
0.0
 11
596.241720659066
 21
204.1353206370786
 31
0.0
  0
DIMENSION
  5
D6B
330
1A
100
AcDbEntity
  8
SUNPOU
100
AcDbDimension
  2
*D9
 10
645.3048945360913
 20
291.66905483947
 30
0.0
 11
640.3048945360912
 21
381.2046064304701
 31
0.0
 70
    32
 71
     5
 42
179.071103182
  3
STANDARD
100
AcDbAlignedDimension
 13
589.0707509145234
 23
470.7401580214701
 33
0.0
 14
550.7278272803234
 24
291.6690548394701
 34
0.0
 50
90.0
100
AcDbRotatedDimension
1001
ACAD
1000
DSTYLE
1002
{
1070
    41
1040
7.0
1070
    42
1040
6.0
1070
    43
1040
14.0
1070
    44
1040
3.0
1070
    73
1070
     0
1070
    74
1070
     0
1070
    77
1070
     3
1070
   140
1040
6.0
1070
   141
1040
150.0
1070
   147
1040
2.0
1070
   172
1070
     1
1070
   173
1070
     1
1070
   176
1070
   256
1070
   177
1070
   256
1070
   178
1070
   256
1070
   271
1070
     0
1070
   272
1070
     0
1070
   341
1005
6D
1070
     6
1000
OPEN
1070
     7
1000
OPEN
1070
   371
1070
    -1
1070
   372
1070
    -1
1002
}
  0
DIMENSION
  5
D6C
330
1A
100
AcDbEntity
  8
SUNPOU
100
AcDbDimension
  2
*D10
 10
626.0377121402761
 20
335.0112679352702
 30
0.0
 11
621.037712140276
 21
402.8757129783701
 31
0.0
 70
    32
 71
     5
 42
135.7288900861999
  3
STANDARD
100
AcDbAlignedDimension
 13
589.0707509145234
 23
470.7401580214701
 33
0.0
 14
594.0700403763233
 24
335.0112679352702
 34
0.0
 50
90.0
100
AcDbRotatedDimension
1001
ACAD
1000
DSTYLE
1002
{
1070
    41
1040
7.0
1070
    42
1040
6.0
1070
    43
1040
14.0
1070
    44
1040
3.0
1070
    73
1070
     0
1070
    74
1070
     0
1070
    77
1070
     3
1070
   140
1040
6.0
1070
   141
1040
150.0
1070
   147
1040
2.0
1070
   172
1070
     1
1070
   173
1070
     1
1070
   176
1070
   256
1070
   177
1070
   256
1070
   178
1070
   256
1070
   271
1070
     0
1070
   272
1070
     0
1070
   341
1005
6D
1070
     6
1000
OPEN
1070
     7
1000
OPEN
1070
   371
1070
    -1
1070
   372
1070
    -1
1002
}
  0
LINE
  5
D6D
330
1A
100
AcDbEntity
  8
SEIHIN
  6
Continuous
 62
     3
100
AcDbLine
 10
448.5881466309234
 20
437.2658298242702
 30
0.0
 11
415.5918947587234
 21
470.1472004568701
 31
0.0
  0
LINE
  5
D6E
330
1A
100
AcDbEntity
  8
CENTER L
  6
CENTER
 62
     1
 48
5.0
100
AcDbLine
 10
543.4307191881205
 20
342.3056693321363
 30
0.0
 11
405.1910745287922
 21
480.5482409004313
 31
0.0
  0
LINE
  5
D6F
330
1A
100
AcDbEntity
  8
SEIHIN
  6
Continuous
 62
     3
100
AcDbLine
 10
562.0700403763234
 20
468.55185491967
 30
0.0
 11
562.4602210203234
 21
468.51314420007
 31
0.0
  0
LINE
  5
D70
330
1A
100
AcDbEntity
  8
SEIHIN
  6
Continuous
 62
     3
100
AcDbLine
 10
418.7838395265234
 20
468.5138523660702
 30
0.0
 11
419.1727078599233
 21
468.5518549196701
 31
0.0
  0
LINE
  5
D71
330
1A
100
AcDbEntity
  8
SEIHIN
  6
Continuous
 62
     3
100
AcDbLine
 10
594.0700403763233
 20
468.7128897636701
 30
0.0
 11
594.0700403763233
 21
460.4730670408701
 31
0.0
  0
LINE
  5
D72
330
1A
100
AcDbEntity
  8
SEIHIN
  6
Continuous
 62
     3
100
AcDbLine
 10
414.9989371941233
 20
468.7474242394702
 30
0.0
 11
414.9989371941233
 21
296.6683443010701
 31
0.0
  0
LINE
  5
D73
330
1A
100
AcDbEntity
  8
CENTER L
  6
CENTER
 62
     1
 48
5.0
100
AcDbLine
 10
609.3508704939352
 20
390.5113923959701
 30
0.0
 11
482.2844064913097
 21
390.5113923959701
 31
0.0
  0
LINE
  5
D74
330
1A
100
AcDbEntity
  8
SEIHIN
  6
Continuous
 62
     3
100
AcDbLine
 10
528.6184997865234
 20
337.7330085996701
 30
0.0
 11
530.1877699687234
 21
336.0781303650703
 31
0.0
  0
LINE
  5
D75
330
1A
100
AcDbEntity
  8
SEIHIN
  6
Continuous
 62
     3
100
AcDbLine
 10
530.5413075801234
 20
354.0962364042701
 30
0.0
 11
529.2193636537234
 21
352.3280680388701
 31
0.0
  0
LINE
  5
D76
330
1A
100
AcDbEntity
  8
SEIHIN
  6
Continuous
 62
     3
100
AcDbLine
 10
538.1547866613234
 20
291.6690548394701
 30
0.0
 11
452.3006189781233
 21
291.6690548394701
 31
0.0
  0
LINE
  5
D77
330
1A
100
AcDbEntity
  8
SEIHIN
  6
Continuous
 62
     3
100
AcDbLine
 10
425.0147680631234
 20
460.7243271524702
 30
0.0
 11
564.0700403763234
 21
460.7243271524701
 31
0.0
  0
LINE
  5
D78
330
1A
100
AcDbEntity
  8
SEIHIN
  6
Continuous
 62
     3
100
AcDbLine
 10
564.0700403763234
 20
465.38695975987
 30
0.0
 11
421.3448692379234
 21
465.3869597598701
 31
0.0
  0
LINE
  5
D79
330
1A
100
AcDbEntity
  8
SEIHIN
  6
Continuous
 62
     3
100
AcDbLine
 10
440.6631437781234
 20
447.0564875750703
 30
0.0
 11
594.0700403763233
 21
447.0564875750702
 31
0.0
  0
LINE
  5
D7A
330
1A
100
AcDbEntity
  8
SEIHIN
  6
Continuous
 62
     3
100
AcDbLine
 10
449.0068932415234
 20
437.6361252776702
 30
0.0
 11
594.0700403763233
 21
437.6361252776701
 31
0.0
  0
LINE
  5
D7B
330
1A
100
AcDbEntity
  8
SEIHIN
  6
Continuous
 62
     3
100
AcDbLine
 10
420.3521354559234
 20
321.6690548394701
 30
0.0
 11
420.3521354559234
 21
464.3942259776701
 31
0.0
  0
LINE
  5
D7C
330
1A
100
AcDbEntity
  8
SEIHIN
  6
Continuous
 62
     3
100
AcDbLine
 10
425.0147680631234
 20
460.7243271524702
 30
0.0
 11
425.0147680631234
 21
321.6690548394701
 31
0.0
  0
LINE
  5
D7D
330
1A
100
AcDbEntity
  8
SEIHIN
  6
Continuous
 62
     3
100
AcDbLine
 10
448.1029699379234
 20
436.7322019740701
 30
0.0
 11
448.1029699379234
 21
291.6690548394701
 31
0.0
  0
LINE
  5
D7E
330
1A
100
AcDbEntity
  8
SEIHIN
  6
Continuous
 62
     3
100
AcDbLine
 10
438.6826076405234
 20
445.0759514374701
 30
0.0
 11
438.6826076405234
 21
291.6690548394701
 31
0.0
  0
LINE
  5
D7F
330
1A
100
AcDbEntity
  8
SEIHIN
  6
Continuous
 62
     3
100
AcDbLine
 10
417.1872402959234
 20
466.5663873556701
 30
0.0
 11
417.1872402959234
 21
323.6690548394701
 31
0.0
  0
LINE
  5
D80
330
1A
100
AcDbEntity
  8
SEIHIN
  6
Continuous
 62
     3
100
AcDbLine
 10
434.9174487505234
 20
291.6690548394701
 30
0.0
 11
429.5730625699234
 21
291.6690548394701
 31
0.0
  0
LINE
  5
D81
330
1A
100
AcDbEntity
  8
SEIHIN
  6
Continuous
 62
     3
100
AcDbLine
 10
429.5730625699234
 20
291.6690548394701
 30
0.0
 11
429.5730625699234
 21
321.6690548394701
 31
0.0
  0
LINE
  5
D82
330
1A
100
AcDbEntity
  8
SEIHIN
  6
Continuous
 62
     3
100
AcDbLine
 10
425.2660281747234
 20
321.6690548394701
 30
0.0
 11
425.2660281747234
 21
291.6690548394701
 31
0.0
  0
LINE
  5
D83
330
1A
100
AcDbEntity
  8
SEIHIN
  6
Continuous
 62
     3
100
AcDbLine
 10
414.9989371941233
 20
296.6683443010701
 30
0.0
 11
416.0061134487235
 21
291.6690548394701
 31
0.0
  0
LINE
  5
D84
330
1A
100
AcDbEntity
  8
SEIHIN
  6
Continuous
 62
     3
100
AcDbLine
 10
417.0262054519234
 20
291.6690548394701
 30
0.0
 11
425.2660281747234
 21
291.6690548394701
 31
0.0
  0
LINE
  5
D85
330
1A
100
AcDbEntity
  8
SEIHIN
  6
Continuous
 62
     3
100
AcDbLine
 10
417.0262054519234
 20
291.6690548394701
 30
0.0
 11
416.0085693043234
 21
291.6690548394701
 31
0.0
  0
LINE
  5
D86
330
1A
100
AcDbEntity
  8
SEIHIN
  6
Continuous
 62
     3
100
AcDbLine
 10
429.0008198627234
 20
291.6690548394701
 30
0.0
 11
429.2801693511234
 21
291.6690548394701
 31
0.0
  0
LINE
  5
D87
330
1A
100
AcDbEntity
  8
SEIHIN
  6
Continuous
 62
     3
100
AcDbLine
 10
429.2801693511234
 20
291.6690548394701
 30
0.0
 11
429.5730625699234
 21
291.6690548394701
 31
0.0
  0
LINE
  5
D88
330
1A
100
AcDbEntity
  8
SEIHIN
  6
Continuous
 62
     3
100
AcDbLine
 10
427.6489246209234
 20
291.6690548394701
 30
0.0
 11
429.0008198627234
 21
291.6690548394701
 31
0.0
  0
LINE
  5
D89
330
1A
100
AcDbEntity
  8
SEIHIN
  6
Continuous
 62
     3
100
AcDbLine
 10
425.2660281747234
 20
291.6690548394701
 30
0.0
 11
427.6489246209234
 21
291.6690548394701
 31
0.0
  0
LINE
  5
D8A
330
1A
100
AcDbEntity
  8
SEIHIN
  6
Continuous
 62
     3
100
AcDbLine
 10
415.0059229589233
 20
296.6690409916702
 30
0.0
 11
415.0062034121233
 21
296.6690548394701
 31
0.0
  0
LINE
  5
D8B
330
1A
100
AcDbEntity
  8
SEIHIN
  6
Continuous
 62
     3
100
AcDbLine
 10
419.2018791005235
 20
321.6690548394701
 30
0.0
 11
425.2660281747234
 21
321.6690548394701
 31
0.0
  0
LINE
  5
D8C
330
1A
100
AcDbEntity
  8
SEIHIN
  6
Continuous
 62
     3
100
AcDbLine
 10
418.8088425675234
 20
321.7074842786702
 30
0.0
 11
419.2018791005235
 21
321.6690548394701
 31
0.0
  0
LINE
  5
D8D
330
1A
100
AcDbEntity
  8
SEIHIN
  6
Continuous
 62
     3
100
AcDbLine
 10
418.4309102079234
 20
321.8212957744701
 30
0.0
 11
418.8088425675234
 21
321.7074842786702
 31
0.0
  0
LINE
  5
D8E
330
1A
100
AcDbEntity
  8
SEIHIN
  6
Continuous
 62
     3
100
AcDbLine
 10
418.0826057505234
 20
322.0061156148701
 30
0.0
 11
418.4309102079234
 21
321.8212957744701
 31
0.0
  0
LINE
  5
D8F
330
1A
100
AcDbEntity
  8
SEIHIN
  6
Continuous
 62
     3
100
AcDbLine
 10
417.7773143401234
 20
322.2548412770701
 30
0.0
 11
418.0826057505234
 21
322.0061156148701
 31
0.0
  0
LINE
  5
D90
330
1A
100
AcDbEntity
  8
SEIHIN
  6
Continuous
 62
     3
100
AcDbLine
 10
417.5267681547234
 20
322.5579143732701
 30
0.0
 11
417.7773143401234
 21
322.2548412770701
 31
0.0
  0
LINE
  5
D91
330
1A
100
AcDbEntity
  8
SEIHIN
  6
Continuous
 62
     3
100
AcDbLine
 10
417.3405955435234
 20
322.9036879746701
 30
0.0
 11
417.5267681547234
 21
322.5579143732701
 31
0.0
  0
LINE
  5
D92
330
1A
100
AcDbEntity
  8
SEIHIN
  6
Continuous
 62
     3
100
AcDbLine
 10
417.2259510157234
 20
323.2788741954702
 30
0.0
 11
417.3405955435234
 21
322.9036879746701
 31
0.0
  0
LINE
  5
D93
330
1A
100
AcDbEntity
  8
SEIHIN
  6
Continuous
 62
     3
100
AcDbLine
 10
417.1872402959234
 20
323.6690548394701
 30
0.0
 11
417.2259510157234
 21
323.2788741954702
 31
0.0
  0
LINE
  5
D94
330
1A
100
AcDbEntity
  8
SEIHIN
  6
Continuous
 62
     3
100
AcDbLine
 10
429.0008198627234
 20
321.6690548394701
 30
0.0
 11
429.2801693511234
 21
321.6690548394701
 31
0.0
  0
LINE
  5
D95
330
1A
100
AcDbEntity
  8
SEIHIN
  6
Continuous
 62
     3
100
AcDbLine
 10
429.2801693511234
 20
321.6690548394701
 30
0.0
 11
429.5730625699234
 21
321.6690548394701
 31
0.0
  0
LINE
  5
D96
330
1A
100
AcDbEntity
  8
SEIHIN
  6
Continuous
 62
     3
100
AcDbLine
 10
427.6489246209234
 20
321.6690548394701
 30
0.0
 11
429.0008198627234
 21
321.6690548394701
 31
0.0
  0
LINE
  5
D97
330
1A
100
AcDbEntity
  8
SEIHIN
  6
Continuous
 62
     3
100
AcDbLine
 10
425.2660281747234
 20
321.6690548394701
 30
0.0
 11
427.6489246209234
 21
321.6690548394701
 31
0.0
  0
LINE
  5
D98
330
1A
100
AcDbEntity
  8
SEIHIN
  6
Continuous
 62
     3
100
AcDbLine
 10
448.1029699379234
 20
291.6690548394701
 30
0.0
 11
438.6826076405234
 21
291.6690548394701
 31
0.0
  0
LINE
  5
D99
330
1A
100
AcDbEntity
  8
SEIHIN
  6
Continuous
 62
     3
100
AcDbLine
 10
438.6826076405234
 20
291.6690548394701
 30
0.0
 11
434.9174487505234
 21
291.6690548394701
 31
0.0
  0
LINE
  5
D9A
330
1A
100
AcDbEntity
  8
SEIHIN
  6
Continuous
 62
     3
100
AcDbLine
 10
448.1029699379234
 20
291.6690548394701
 30
0.0
 11
448.6409577799234
 21
291.6690548394701
 31
0.0
  0
LINE
  5
D9B
330
1A
100
AcDbEntity
  8
SEIHIN
  6
Continuous
 62
     3
100
AcDbLine
 10
450.3207199907233
 20
291.6690548394701
 30
0.0
 11
448.6409577799234
 21
291.6690548394701
 31
0.0
  0
LINE
  5
D9C
330
1A
100
AcDbEntity
  8
SEIHIN
  6
Continuous
 62
     3
100
AcDbLine
 10
450.3207199907233
 20
291.6690548394701
 30
0.0
 11
452.3006189781233
 21
291.6690548394701
 31
0.0
  0
LINE
  5
D9D
330
1A
100
AcDbEntity
  8
SEIHIN
  6
Continuous
 62
     3
100
AcDbLine
 10
527.2357735561234
 20
341.6689948394702
 30
0.0
 11
527.5972696071234
 21
339.6345283220702
 31
0.0
  0
LINE
  5
D9E
330
1A
100
AcDbEntity
  8
SEIHIN
  6
Continuous
 62
     3
100
AcDbLine
 10
527.5972696071234
 20
339.6345283220702
 30
0.0
 11
528.6184997865234
 21
337.7330085996701
 31
0.0
  0
LINE
  5
D9F
330
1A
100
AcDbEntity
  8
SEIHIN
  6
Continuous
 62
     3
100
AcDbLine
 10
527.2357735559234
 20
341.6690548394701
 30
0.0
 11
527.2357735561234
 21
341.6689948394702
 31
0.0
  0
LINE
  5
DA0
330
1A
100
AcDbEntity
  8
SEIHIN
  6
Continuous
 62
     3
100
AcDbLine
 10
527.2357735549233
 20
345.3902775618702
 30
0.0
 11
527.2357735561234
 21
345.3902175618701
 31
0.0
  0
LINE
  5
DA1
330
1A
100
AcDbEntity
  8
SEIHIN
  6
Continuous
 62
     3
100
AcDbLine
 10
527.2663433661234
 20
346.2826860302702
 30
0.0
 11
527.2357735549233
 21
345.3902775618702
 31
0.0
  0
LINE
  5
DA2
330
1A
100
AcDbEntity
  8
SEIHIN
  6
Continuous
 62
     3
100
AcDbLine
 10
527.5540343743234
 20
348.2612553980702
 30
0.0
 11
527.2663433661234
 21
346.2826860302702
 31
0.0
  0
LINE
  5
DA3
330
1A
100
AcDbEntity
  8
SEIHIN
  6
Continuous
 62
     3
100
AcDbLine
 10
528.2161472915234
 20
350.3645228014701
 30
0.0
 11
527.5540343743234
 21
348.2612553980702
 31
0.0
  0
LINE
  5
DA4
330
1A
100
AcDbEntity
  8
SEIHIN
  6
Continuous
 62
     3
100
AcDbLine
 10
529.2193636537234
 20
352.3280680388701
 30
0.0
 11
528.2161472915234
 21
350.3645228014701
 31
0.0
  0
LINE
  5
DA5
330
1A
100
AcDbEntity
  8
SEIHIN
  6
Continuous
 62
     3
100
AcDbLine
 10
527.2357735559234
 20
345.3902175618701
 30
0.0
 11
527.2357735559234
 21
341.6690548394701
 31
0.0
  0
LINE
  5
DA6
330
1A
100
AcDbEntity
  8
SEIHIN
  6
Continuous
 62
     3
100
AcDbLine
 10
421.1504350711234
 20
465.3679584828702
 30
0.0
 11
421.3448692379234
 21
465.3869597598701
 31
0.0
  0
LINE
  5
DA7
330
1A
100
AcDbEntity
  8
SEIHIN
  6
Continuous
 62
     3
100
AcDbLine
 10
420.9638864723233
 20
465.31167150267
 30
0.0
 11
421.1504350711234
 21
465.3679584828702
 31
0.0
  0
LINE
  5
DA8
330
1A
100
AcDbEntity
  8
SEIHIN
  6
Continuous
 62
     3
100
AcDbLine
 10
420.7922612523234
 20
465.2202223250703
 30
0.0
 11
420.9638864723233
 21
465.31167150267
 31
0.0
  0
LINE
  5
DA9
330
1A
100
AcDbEntity
  8
SEIHIN
  6
Continuous
 62
     3
100
AcDbLine
 10
420.6420342157234
 20
465.0970610000701
 30
0.0
 11
420.7922612523234
 21
465.2202223250703
 31
0.0
  0
LINE
  5
DAA
330
1A
100
AcDbEntity
  8
SEIHIN
  6
Continuous
 62
     3
100
AcDbLine
 10
420.5188728907234
 20
464.94683396327
 30
0.0
 11
420.6420342157234
 21
465.0970610000701
 31
0.0
  0
LINE
  5
DAB
330
1A
100
AcDbEntity
  8
SEIHIN
  6
Continuous
 62
     3
100
AcDbLine
 10
420.4274237129234
 20
464.7752087432701
 30
0.0
 11
420.5188728907234
 21
464.94683396327
 31
0.0
  0
LINE
  5
DAC
330
1A
100
AcDbEntity
  8
SEIHIN
  6
Continuous
 62
     3
100
AcDbLine
 10
420.3711367327234
 20
464.5886601444701
 30
0.0
 11
420.4274237129234
 21
464.7752087432701
 31
0.0
  0
LINE
  5
DAD
330
1A
100
AcDbEntity
  8
SEIHIN
  6
Continuous
 62
     3
100
AcDbLine
 10
420.3521354559234
 20
464.3942259776701
 30
0.0
 11
420.3711367327234
 21
464.5886601444701
 31
0.0
  0
LINE
  5
DAE
330
1A
100
AcDbEntity
  8
SEIHIN
  6
Continuous
 62
     3
100
AcDbLine
 10
418.4107423291234
 20
468.4012784054702
 30
0.0
 11
418.7838395265234
 21
468.5138523660702
 31
0.0
  0
LINE
  5
DAF
330
1A
100
AcDbEntity
  8
SEIHIN
  6
Continuous
 62
     3
100
AcDbLine
 10
418.0674918887235
 20
468.2183800500701
 30
0.0
 11
418.4107423291234
 21
468.4012784054702
 31
0.0
  0
LINE
  5
DB0
330
1A
100
AcDbEntity
  8
SEIHIN
  6
Continuous
 62
     3
100
AcDbLine
 10
417.7670378155234
 20
467.9720574000702
 30
0.0
 11
418.0674918887235
 21
468.2183800500701
 31
0.0
  0
LINE
  5
DB1
330
1A
100
AcDbEntity
  8
SEIHIN
  6
Continuous
 62
     3
100
AcDbLine
 10
417.5207151655234
 20
467.67160332687
 30
0.0
 11
417.7670378155234
 21
467.9720574000702
 31
0.0
  0
LINE
  5
DB2
330
1A
100
AcDbEntity
  8
SEIHIN
  6
Continuous
 62
     3
100
AcDbLine
 10
417.3378168103234
 20
467.3283528866701
 30
0.0
 11
417.5207151655234
 21
467.67160332687
 31
0.0
  0
LINE
  5
DB3
330
1A
100
AcDbEntity
  8
SEIHIN
  6
Continuous
 62
     3
100
AcDbLine
 10
417.2252428495234
 20
466.9552556890702
 30
0.0
 11
417.3378168103234
 21
467.3283528866701
 31
0.0
  0
LINE
  5
DB4
330
1A
100
AcDbEntity
  8
SEIHIN
  6
Continuous
 62
     3
100
AcDbLine
 10
417.1872402959234
 20
466.5663873556701
 30
0.0
 11
417.2252428495234
 21
466.9552556890702
 31
0.0
  0
LINE
  5
DB5
330
1A
100
AcDbEntity
  8
SEIHIN
  6
Continuous
 62
     3
100
AcDbLine
 10
438.7271274191235
 20
445.4577020390701
 30
0.0
 11
438.6826076405234
 21
445.0759514374701
 31
0.0
  0
LINE
  5
DB6
330
1A
100
AcDbEntity
  8
SEIHIN
  6
Continuous
 62
     3
100
AcDbLine
 10
448.2024311505234
 20
436.8534412996702
 30
0.0
 11
448.1029699379234
 21
436.7322019740701
 31
0.0
  0
LINE
  5
DB7
330
1A
100
AcDbEntity
  8
SEIHIN
  6
Continuous
 62
     3
100
AcDbLine
 10
448.3072096739234
 20
436.9738792608702
 30
0.0
 11
448.2024311505234
 21
436.8534412996702
 31
0.0
  0
LINE
  5
DB8
330
1A
100
AcDbEntity
  8
SEIHIN
  6
Continuous
 62
     3
100
AcDbLine
 10
448.4166129461235
 20
437.0927197902703
 30
0.0
 11
448.3072096739234
 21
436.9738792608702
 31
0.0
  0
LINE
  5
DB9
330
1A
100
AcDbEntity
  8
SEIHIN
  6
Continuous
 62
     3
100
AcDbLine
 10
448.5299178365234
 20
437.2091773790702
 30
0.0
 11
448.4166129461235
 21
437.0927197902703
 31
0.0
  0
LINE
  5
DBA
330
1A
100
AcDbEntity
  8
SEIHIN
  6
Continuous
 62
     3
100
AcDbLine
 10
448.6463754253234
 20
437.3224822694702
 30
0.0
 11
448.5299178365234
 21
437.2091773790702
 31
0.0
  0
LINE
  5
DBB
330
1A
100
AcDbEntity
  8
SEIHIN
  6
Continuous
 62
     3
100
AcDbLine
 10
448.7652159549234
 20
437.4318855416701
 30
0.0
 11
448.6463754253234
 21
437.3224822694702
 31
0.0
  0
LINE
  5
DBC
330
1A
100
AcDbEntity
  8
SEIHIN
  6
Continuous
 62
     3
100
AcDbLine
 10
448.8856539159234
 20
437.5366640650701
 30
0.0
 11
448.7652159549234
 21
437.4318855416701
 31
0.0
  0
LINE
  5
DBD
330
1A
100
AcDbEntity
  8
SEIHIN
  6
Continuous
 62
     3
100
AcDbLine
 10
449.0068932415234
 20
437.6361252776702
 30
0.0
 11
448.8856539159234
 21
437.5366640650701
 31
0.0
  0
LINE
  5
DBE
330
1A
100
AcDbEntity
  8
SEIHIN
  6
Continuous
 62
     3
100
AcDbLine
 10
439.2760621171234
 20
446.4630330984702
 30
0.0
 11
439.0295231327234
 21
446.1644918016701
 31
0.0
  0
LINE
  5
DBF
330
1A
100
AcDbEntity
  8
SEIHIN
  6
Continuous
 62
     3
100
AcDbLine
 10
438.8442293173234
 20
445.8251406396702
 30
0.0
 11
438.7271274191235
 21
445.4577020390701
 31
0.0
  0
LINE
  5
DC0
330
1A
100
AcDbEntity
  8
SEIHIN
  6
Continuous
 62
     3
100
AcDbLine
 10
439.0295231327234
 20
446.1644918016701
 30
0.0
 11
438.8442293173234
 21
445.8251406396702
 31
0.0
  0
LINE
  5
DC1
330
1A
100
AcDbEntity
  8
SEIHIN
  6
Continuous
 62
     3
100
AcDbLine
 10
439.5746034139233
 20
446.7095720828701
 30
0.0
 11
439.2760621171234
 21
446.4630330984702
 31
0.0
  0
LINE
  5
DC2
330
1A
100
AcDbEntity
  8
SEIHIN
  6
Continuous
 62
     3
100
AcDbLine
 10
439.9139545761234
 20
446.89486589827
 30
0.0
 11
439.5746034139233
 21
446.7095720828701
 31
0.0
  0
LINE
  5
DC3
330
1A
100
AcDbEntity
  8
SEIHIN
  6
Continuous
 62
     3
100
AcDbLine
 10
440.2813931765234
 20
447.0119677964702
 30
0.0
 11
439.9139545761234
 21
446.89486589827
 31
0.0
  0
LINE
  5
DC4
330
1A
100
AcDbEntity
  8
SEIHIN
  6
Continuous
 62
     3
100
AcDbLine
 10
440.6631437781234
 20
447.0564875750703
 30
0.0
 11
440.2813931765234
 21
447.0119677964702
 31
0.0
  0
LINE
  5
DC5
330
1A
100
AcDbEntity
  8
SEIHIN
  6
Continuous
 62
     3
100
AcDbLine
 10
594.0700403763233
 20
347.5843085544701
 30
0.0
 11
594.0700403763233
 21
433.43847623747
 31
0.0
  0
LINE
  5
DC6
330
1A
100
AcDbEntity
  8
SEIHIN
  6
Continuous
 62
     3
100
AcDbLine
 10
537.2528873263234
 20
328.7036779106701
 30
0.0
 11
536.5833430181234
 21
329.5878410440702
 31
0.0
  0
LINE
  5
DC7
330
1A
100
AcDbEntity
  8
SEIHIN
  6
Continuous
 62
     3
100
AcDbLine
 10
540.5230517615235
 20
329.8410101890701
 30
0.0
 11
541.1873382641234
 21
328.5567644404702
 31
0.0
  0
ARC
  5
DC8
330
1A
100
AcDbEntity
  8
SEIHIN
  6
Continuous
 62
     3
100
AcDbCircle
 10
544.6354907565234
 20
330.3112679352702
 30
0.0
 40
0.9999999999999607
100
AcDbArc
 50
204.3595952450054
 51
270.0
  0
ARC
  5
DC9
330
1A
100
AcDbEntity
  8
SEIHIN
  6
Continuous
 62
     3
100
AcDbCircle
 10
549.7278272803234
 20
328.3112679352702
 30
0.0
 40
1.0
100
AcDbArc
 50
0.0
 51
90.0
  0
LINE
  5
DCA
330
1A
100
AcDbEntity
  8
SUNPOU
100
AcDbLine
 10
556.7278272803234
 20
291.6690548394701
 30
0.0
 11
574.7656383997584
 21
291.6690548394701
 31
0.0
  0
LINE
  5
DCB
330
1A
100
AcDbEntity
  8
SUNPOU
100
AcDbLine
 10
555.3928722921356
 20
327.3090548394702
 30
0.0
 11
574.7656383997584
 21
327.3090548394702
 31
0.0
  0
LINE
  5
DCC
330
1A
100
AcDbEntity
  8
SEIHIN
  6
Continuous
 62
     3
100
AcDbLine
 10
547.8767762129234
 20
305.9690548394702
 30
0.0
 11
547.8767762129234
 21
307.3690548394701
 31
0.0
  0
LINE
  5
DCD
330
1A
100
AcDbEntity
  8
SEIHIN
  6
Continuous
 62
     3
100
AcDbLine
 10
541.3543247465234
 20
305.9690548394702
 30
0.0
 11
541.3543247465234
 21
307.3690548394701
 31
0.0
  0
LINE
  5
DCE
330
1A
100
AcDbEntity
  8
SEIHIN
  6
Continuous
 62
     3
100
AcDbLine
 10
548.8925277293234
 20
305.9690548394702
 30
0.0
 11
548.8925277293234
 21
307.3690548394701
 31
0.0
  0
LINE
  5
DCF
330
1A
100
AcDbEntity
  8
SEIHIN
  6
Continuous
 62
     3
100
AcDbLine
 10
539.8909224697234
 20
321.6690548394701
 30
0.0
 11
539.8909224697234
 21
291.6690548394701
 31
0.0
  0
LINE
  5
DD0
330
1A
100
AcDbEntity
  8
SEIHIN
  6
Continuous
 62
     3
100
AcDbLine
 10
550.7278272803234
 20
291.6690548394701
 30
0.0
 11
550.7278272803234
 21
321.6690548394701
 31
0.0
  0
LINE
  5
DD1
330
1A
100
AcDbEntity
  8
SEIHIN
  6
Continuous
 62
     3
100
AcDbLine
 10
538.1547866613234
 20
291.6690548394701
 30
0.0
 11
538.1547866613234
 21
325.5414157204701
 31
0.0
  0
LINE
  5
DD2
330
1A
100
AcDbEntity
  8
SEIHIN
  6
Continuous
 62
     3
100
AcDbLine
 10
541.9294020233234
 20
305.6690548394701
 30
0.0
 11
547.8815016679234
 21
305.6690548394701
 31
0.0
  0
LINE
  5
DD3
330
1A
100
AcDbEntity
  8
SEIHIN
  6
Continuous
 62
     3
100
AcDbLine
 10
541.0578272803234
 20
291.6690548394701
 30
0.0
 11
549.7278272803234
 21
291.6690548394701
 31
0.0
  0
LINE
  5
DD4
330
1A
100
AcDbEntity
  8
SEIHIN
  6
Continuous
 62
     3
100
AcDbLine
 10
539.8909224697234
 20
291.6690548394701
 30
0.0
 11
541.0578272803234
 21
291.6690548394701
 31
0.0
  0
LINE
  5
DD5
330
1A
100
AcDbEntity
  8
SEIHIN
  6
Continuous
 62
     3
100
AcDbLine
 10
539.8909224697234
 20
291.6690548394701
 30
0.0
 11
538.1547866613234
 21
291.6690548394701
 31
0.0
  0
LINE
  5
DD6
330
1A
100
AcDbEntity
  8
SEIHIN
  6
Continuous
 62
     3
100
AcDbLine
 10
541.7373477217234
 20
305.6849210528702
 30
0.0
 11
541.9294020233234
 21
305.6690548394701
 31
0.0
  0
LINE
  5
DD7
330
1A
100
AcDbEntity
  8
SEIHIN
  6
Continuous
 62
     3
100
AcDbLine
 10
541.5475226749234
 20
305.7413287122701
 30
0.0
 11
541.7373477217234
 21
305.6849210528702
 31
0.0
  0
LINE
  5
DD8
330
1A
100
AcDbEntity
  8
SEIHIN
  6
Continuous
 62
     3
100
AcDbLine
 10
541.4324244251234
 20
305.8146282414701
 30
0.0
 11
541.5475226749234
 21
305.7413287122701
 31
0.0
  0
LINE
  5
DD9
330
1A
100
AcDbEntity
  8
SEIHIN
  6
Continuous
 62
     3
100
AcDbLine
 10
541.3751180121234
 20
305.8869387534702
 30
0.0
 11
541.4324244251234
 21
305.8146282414701
 31
0.0
  0
LINE
  5
DDA
330
1A
100
AcDbEntity
  8
SEIHIN
  6
Continuous
 62
     3
100
AcDbLine
 10
541.3636106241233
 20
305.9138546876701
 30
0.0
 11
541.3751180121234
 21
305.8869387534702
 31
0.0
  0
LINE
  5
DDB
330
1A
100
AcDbEntity
  8
SEIHIN
  6
Continuous
 62
     3
100
AcDbLine
 10
541.3543247465234
 20
305.9690548394702
 30
0.0
 11
541.3636106241233
 21
305.9138546876701
 31
0.0
  0
LINE
  5
DDC
330
1A
100
AcDbEntity
  8
SEIHIN
  6
Continuous
 62
     3
100
AcDbLine
 10
549.7278272803234
 20
291.6690548394701
 30
0.0
 11
550.7278272803234
 21
291.6690548394701
 31
0.0
  0
LINE
  5
DDD
330
1A
100
AcDbEntity
  8
SEIHIN
  6
Continuous
 62
     3
100
AcDbLine
 10
547.8805797773234
 20
305.6748192552701
 30
0.0
 11
547.8815016679234
 21
305.6690548394701
 31
0.0
  0
LINE
  5
DDE
330
1A
100
AcDbEntity
  8
SEIHIN
  6
Continuous
 62
     3
100
AcDbLine
 10
547.8796933145234
 20
305.6918909796701
 30
0.0
 11
547.8805797773234
 21
305.6748192552701
 31
0.0
  0
LINE
  5
DDF
330
1A
100
AcDbEntity
  8
SEIHIN
  6
Continuous
 62
     3
100
AcDbLine
 10
547.8788763459234
 20
305.7196139556701
 30
0.0
 11
547.8796933145234
 21
305.6918909796701
 31
0.0
  0
LINE
  5
DE0
330
1A
100
AcDbEntity
  8
SEIHIN
  6
Continuous
 62
     3
100
AcDbLine
 10
547.8781602667234
 20
305.7569228050701
 30
0.0
 11
547.8788763459234
 21
305.7196139556701
 31
0.0
  0
LINE
  5
DE1
330
1A
100
AcDbEntity
  8
SEIHIN
  6
Continuous
 62
     3
100
AcDbLine
 10
547.8775725957233
 20
305.8023837694701
 30
0.0
 11
547.8781602667234
 21
305.7569228050701
 31
0.0
  0
LINE
  5
DE2
330
1A
100
AcDbEntity
  8
SEIHIN
  6
Continuous
 62
     3
100
AcDbLine
 10
547.8771359169234
 20
305.85424980967
 30
0.0
 11
547.8775725957233
 21
305.8023837694701
 31
0.0
  0
LINE
  5
DE3
330
1A
100
AcDbEntity
  8
SEIHIN
  6
Continuous
 62
     3
100
AcDbLine
 10
547.8768670113234
 20
305.9105277428702
 30
0.0
 11
547.8771359169234
 21
305.85424980967
 31
0.0
  0
LINE
  5
DE4
330
1A
100
AcDbEntity
  8
SEIHIN
  6
Continuous
 62
     3
100
AcDbLine
 10
547.8767762129234
 20
305.9690548394702
 30
0.0
 11
547.8768670113234
 21
305.9105277428702
 31
0.0
  0
LINE
  5
DE5
330
1A
100
AcDbEntity
  8
SEIHIN
  6
Continuous
 62
     3
100
AcDbLine
 10
547.8815016679234
 20
305.6690548394701
 30
0.0
 11
548.5925277293234
 21
305.6690548394701
 31
0.0
  0
ARC
  5
DE6
330
1A
100
AcDbEntity
  8
SEIHIN
  6
Continuous
 62
     3
100
AcDbCircle
 10
548.5925277293234
 20
305.9690548394702
 30
0.0
 40
0.3000000000000114
100
AcDbArc
 50
270.0
 51
0.0
  0
LINE
  5
DE7
330
1A
100
AcDbEntity
  8
SEIHIN
  6
Continuous
 62
     3
100
AcDbLine
 10
547.8815016679234
 20
307.6690548394701
 30
0.0
 11
541.9294020233234
 21
307.6690548394701
 31
0.0
  0
LINE
  5
DE8
330
1A
100
AcDbEntity
  8
SEIHIN
  6
Continuous
 62
     3
100
AcDbLine
 10
541.0578272803234
 20
321.6690548394701
 30
0.0
 11
549.7278272803234
 21
321.6690548394701
 31
0.0
  0
LINE
  5
DE9
330
1A
100
AcDbEntity
  8
SEIHIN
  6
Continuous
 62
     3
100
AcDbLine
 10
543.0395597619233
 20
327.3112679352702
 30
0.0
 11
547.4278272803234
 21
327.3112679352702
 31
0.0
  0
LINE
  5
DEA
330
1A
100
AcDbEntity
  8
SEIHIN
  6
Continuous
 62
     3
100
AcDbLine
 10
544.6354907565234
 20
329.3112679352702
 30
0.0
 11
549.7278272803234
 21
329.3112679352702
 31
0.0
  0
LINE
  5
DEB
330
1A
100
AcDbEntity
  8
SEIHIN
  6
Continuous
 62
     3
100
AcDbLine
 10
541.3552407085233
 20
307.38646562427
 30
0.0
 11
541.3543247465234
 21
307.3690548394701
 31
0.0
  0
LINE
  5
DEC
330
1A
100
AcDbEntity
  8
SEIHIN
  6
Continuous
 62
     3
100
AcDbLine
 10
541.3701395567234
 20
307.4408524056702
 30
0.0
 11
541.3552407085233
 21
307.38646562427
 31
0.0
  0
LINE
  5
DED
330
1A
100
AcDbEntity
  8
SEIHIN
  6
Continuous
 62
     3
100
AcDbLine
 10
541.4261569757234
 20
307.5176527230702
 30
0.0
 11
541.3701395567234
 21
307.4408524056702
 31
0.0
  0
LINE
  5
DEE
330
1A
100
AcDbEntity
  8
SEIHIN
  6
Continuous
 62
     3
100
AcDbLine
 10
541.5337022651233
 20
307.5902573742702
 30
0.0
 11
541.4261569757234
 21
307.5176527230702
 31
0.0
  0
LINE
  5
DEF
330
1A
100
AcDbEntity
  8
SEIHIN
  6
Continuous
 62
     3
100
AcDbLine
 10
541.7107950899234
 20
307.6482034230702
 30
0.0
 11
541.5337022651233
 21
307.5902573742702
 31
0.0
  0
LINE
  5
DF0
330
1A
100
AcDbEntity
  8
SEIHIN
  6
Continuous
 62
     3
100
AcDbLine
 10
541.9294020233234
 20
307.6690548394701
 30
0.0
 11
541.7107950899234
 21
307.6482034230702
 31
0.0
  0
LINE
  5
DF1
330
1A
100
AcDbEntity
  8
SEIHIN
  6
Continuous
 62
     3
100
AcDbLine
 10
537.7481612491233
 20
327.7115488624701
 30
0.0
 11
537.2528873263234
 21
328.7036779106701
 31
0.0
  0
LINE
  5
DF2
330
1A
100
AcDbEntity
  8
SEIHIN
  6
Continuous
 62
     3
100
AcDbLine
 10
541.6510092693234
 20
327.8624828358701
 30
0.0
 11
541.5890745811233
 21
327.9342811014702
 31
0.0
  0
LINE
  5
DF3
330
1A
100
AcDbEntity
  8
SEIHIN
  6
Continuous
 62
     3
100
AcDbLine
 10
541.7058358103234
 20
327.7851158628702
 30
0.0
 11
541.6510092693234
 21
327.8624828358701
 31
0.0
  0
LINE
  5
DF4
330
1A
100
AcDbEntity
  8
SEIHIN
  6
Continuous
 62
     3
100
AcDbLine
 10
541.7530591251234
 20
327.70287880027
 30
0.0
 11
541.7058358103234
 21
327.7851158628702
 31
0.0
  0
LINE
  5
DF5
330
1A
100
AcDbEntity
  8
SEIHIN
  6
Continuous
 62
     3
100
AcDbLine
 10
541.7922527907234
 20
327.6165142416702
 30
0.0
 11
541.7530591251234
 21
327.70287880027
 31
0.0
  0
LINE
  5
DF6
330
1A
100
AcDbEntity
  8
SEIHIN
  6
Continuous
 62
     3
100
AcDbLine
 10
541.8230628915234
 20
327.5268020524701
 30
0.0
 11
541.7922527907234
 21
327.6165142416702
 31
0.0
  0
LINE
  5
DF7
330
1A
100
AcDbEntity
  8
SEIHIN
  6
Continuous
 62
     3
100
AcDbLine
 10
541.8452112151234
 20
327.4345523260701
 30
0.0
 11
541.8230628915234
 21
327.5268020524701
 31
0.0
  0
LINE
  5
DF8
330
1A
100
AcDbEntity
  8
SEIHIN
  6
Continuous
 62
     3
100
AcDbLine
 10
541.8584977637233
 20
327.3405980702702
 30
0.0
 11
541.8452112151234
 21
327.4345523260701
 31
0.0
  0
LINE
  5
DF9
330
1A
100
AcDbEntity
  8
SEIHIN
  6
Continuous
 62
     3
100
AcDbLine
 10
541.8628025607234
 20
327.2457876844702
 30
0.0
 11
541.8584977637233
 21
327.3405980702702
 31
0.0
  0
LINE
  5
DFA
330
1A
100
AcDbEntity
  8
SEIHIN
  6
Continuous
 62
     3
100
AcDbLine
 10
541.8198994155234
 20
327.2919420928703
 30
0.0
 11
541.7779751571234
 21
327.3389874524702
 31
0.0
  0
LINE
  5
DFB
330
1A
100
AcDbEntity
  8
SEIHIN
  6
Continuous
 62
     3
100
AcDbLine
 10
541.8628025607234
 20
327.2457876844702
 30
0.0
 11
541.8198994155234
 21
327.2919420928703
 31
0.0
  0
LINE
  5
DFC
330
1A
100
AcDbEntity
  8
SEIHIN
  6
Continuous
 62
     3
100
AcDbLine
 10
538.0522551509234
 20
326.6453271564702
 30
0.0
 11
537.7481612491233
 21
327.7115488624701
 31
0.0
  0
LINE
  5
DFD
330
1A
100
AcDbEntity
  8
SEIHIN
  6
Continuous
 62
     3
100
AcDbLine
 10
538.1547866613234
 20
325.5414157204701
 30
0.0
 11
538.0522551509234
 21
326.6453271564702
 31
0.0
  0
LINE
  5
DFE
330
1A
100
AcDbEntity
  8
SEIHIN
  6
Continuous
 62
     3
100
AcDbLine
 10
539.8909224697234
 20
321.6690548394701
 30
0.0
 11
541.0578272803234
 21
321.6690548394701
 31
0.0
  0
ARC
  5
DFF
330
1A
100
AcDbEntity
  8
SEIHIN
  6
Continuous
 62
     3
100
AcDbCircle
 10
543.0395597619233
 20
329.3112679352702
 30
0.0
 40
2.000000000000005
100
AcDbArc
 50
202.1635531193979
 51
270.0
  0
LINE
  5
E00
330
1A
100
AcDbEntity
  8
SEIHIN
  6
Continuous
 62
     3
100
AcDbLine
 10
541.8628025607234
 20
327.2457876844702
 30
0.0
 11
541.8628025607234
 21
321.6690548394701
 31
0.0
  0
LINE
  5
E01
330
1A
100
AcDbEntity
  8
SEIHIN
  6
Continuous
 62
     3
100
AcDbLine
 10
547.8768670113234
 20
307.4275819360702
 30
0.0
 11
547.8767762129234
 21
307.3690548394701
 31
0.0
  0
LINE
  5
E02
330
1A
100
AcDbEntity
  8
SEIHIN
  6
Continuous
 62
     3
100
AcDbLine
 10
547.8771359169234
 20
307.4838598690702
 30
0.0
 11
547.8768670113234
 21
307.4275819360702
 31
0.0
  0
LINE
  5
E03
330
1A
100
AcDbEntity
  8
SEIHIN
  6
Continuous
 62
     3
100
AcDbLine
 10
547.8775725957233
 20
307.5357259092701
 30
0.0
 11
547.8771359169234
 21
307.4838598690702
 31
0.0
  0
LINE
  5
E04
330
1A
100
AcDbEntity
  8
SEIHIN
  6
Continuous
 62
     3
100
AcDbLine
 10
547.8781602667234
 20
307.5811868736702
 30
0.0
 11
547.8775725957233
 21
307.5357259092701
 31
0.0
  0
LINE
  5
E05
330
1A
100
AcDbEntity
  8
SEIHIN
  6
Continuous
 62
     3
100
AcDbLine
 10
547.8788763459234
 20
307.6184957230702
 30
0.0
 11
547.8781602667234
 21
307.5811868736702
 31
0.0
  0
LINE
  5
E06
330
1A
100
AcDbEntity
  8
SEIHIN
  6
Continuous
 62
     3
100
AcDbLine
 10
547.8796933145234
 20
307.6462186990701
 30
0.0
 11
547.8788763459234
 21
307.6184957230702
 31
0.0
  0
LINE
  5
E07
330
1A
100
AcDbEntity
  8
SEIHIN
  6
Continuous
 62
     3
100
AcDbLine
 10
547.8805797773234
 20
307.6632904234701
 30
0.0
 11
547.8796933145234
 21
307.6462186990701
 31
0.0
  0
LINE
  5
E08
330
1A
100
AcDbEntity
  8
SEIHIN
  6
Continuous
 62
     3
100
AcDbLine
 10
547.8815016679234
 20
307.6690548394701
 30
0.0
 11
547.8805797773234
 21
307.6632904234701
 31
0.0
  0
LINE
  5
E09
330
1A
100
AcDbEntity
  8
SEIHIN
  6
Continuous
 62
     3
100
AcDbLine
 10
548.5925277293234
 20
307.6690548394701
 30
0.0
 11
547.8815016679234
 21
307.6690548394701
 31
0.0
  0
ARC
  5
E0A
330
1A
100
AcDbEntity
  8
SEIHIN
  6
Continuous
 62
     3
100
AcDbCircle
 10
548.5925277293234
 20
307.3690548394701
 30
0.0
 40
0.2999999999999545
100
AcDbArc
 50
0.0
 51
90.0
  0
LINE
  5
E0B
330
1A
100
AcDbEntity
  8
SEIHIN
100
AcDbLine
 10
548.4278272803233
 20
325.3745548394701
 30
0.0
 11
548.429694579124
 21
323.148505295933
 31
0.0
  0
LINE
  5
E0C
330
1A
100
AcDbEntity
  8
SEIHIN
100
AcDbLine
 10
550.7278272803234
 20
325.37455483947
 30
0.0
 11
550.7278272803234
 21
323.1395548394701
 31
0.0
  0
LINE
  5
E0D
330
1A
100
AcDbEntity
  8
SEIHIN
100
AcDbLine
 10
550.7278272803234
 20
323.1395548394701
 30
0.0
 11
548.429694579124
 21
323.148505295933
 31
0.0
  0
LINE
  5
E0E
330
1A
100
AcDbEntity
  8
SEIHIN
100
AcDbLine
 10
548.4278272803233
 20
325.3745548394701
 30
0.0
 11
550.7278272803234
 21
325.3745548394701
 31
0.0
  0
LINE
  5
E0F
330
1A
100
AcDbEntity
  8
SEIHIN
  6
Continuous
 62
     3
100
AcDbLine
 10
548.4278272803233
 20
323.1395548394701
 30
0.0
 11
548.4278272803234
 21
322.6690548394701
 31
0.0
  0
LINE
  5
E10
330
1A
100
AcDbEntity
  8
SEIHIN
  6
Continuous
 62
     3
100
AcDbLine
 10
550.7278272803234
 20
323.1395548394701
 30
0.0
 11
550.7278272803234
 21
322.6690548394701
 31
0.0
  0
LINE
  5
E11
330
1A
100
AcDbEntity
  8
SEIHIN
  6
Continuous
 62
     3
100
AcDbLine
 10
548.4266221265234
 20
322.3596177320702
 30
0.0
 11
548.4278272803234
 21
322.6690548394701
 31
0.0
  0
LINE
  5
E12
330
1A
100
AcDbEntity
  8
SEIHIN
  6
Continuous
 62
     3
100
AcDbLine
 10
548.4123069591234
 20
322.1031949118702
 30
0.0
 11
548.4266221265234
 21
322.3596177320702
 31
0.0
  0
LINE
  5
E13
330
1A
100
AcDbEntity
  8
SEIHIN
  6
Continuous
 62
     3
100
AcDbLine
 10
548.3659489411234
 20
321.9122959788703
 30
0.0
 11
548.4123069591234
 21
322.1031949118702
 31
0.0
  0
LINE
  5
E14
330
1A
100
AcDbEntity
  8
SEIHIN
  6
Continuous
 62
     3
100
AcDbLine
 10
548.2577159537234
 20
321.7720747686702
 30
0.0
 11
548.3659489411234
 21
321.9122959788703
 31
0.0
  0
LINE
  5
E15
330
1A
100
AcDbEntity
  8
SEIHIN
  6
Continuous
 62
     3
100
AcDbLine
 10
548.0474802477233
 20
321.6924681164702
 30
0.0
 11
548.2577159537234
 21
321.7720747686702
 31
0.0
  0
LINE
  5
E16
330
1A
100
AcDbEntity
  8
SEIHIN
  6
Continuous
 62
     3
100
AcDbLine
 10
547.7559657083234
 20
321.67058895407
 30
0.0
 11
548.0474802477233
 21
321.6924681164702
 31
0.0
  0
LINE
  5
E17
330
1A
100
AcDbEntity
  8
SEIHIN
  6
Continuous
 62
     3
100
AcDbLine
 10
547.4278272803234
 20
321.6690548394701
 30
0.0
 11
547.7559657083234
 21
321.67058895407
 31
0.0
  0
LINE
  5
E18
330
1A
100
AcDbEntity
  8
SEIHIN
  6
Continuous
 62
     3
100
AcDbLine
 10
550.7278272803234
 20
321.6690548394701
 30
0.0
 11
549.7278272803234
 21
321.6690548394701
 31
0.0
  0
LINE
  5
E19
330
1A
100
AcDbEntity
  8
SEIHIN
  6
Continuous
 62
     3
100
AcDbLine
 10
550.7278272803234
 20
322.6690548394701
 30
0.0
 11
550.7278272803234
 21
321.6690548394701
 31
0.0
  0
ARC
  5
E1A
330
1A
100
AcDbEntity
  8
SEIHIN
  6
Continuous
 62
     3
100
AcDbCircle
 10
547.4278272803234
 20
326.3112679352702
 30
0.0
 40
1.0
100
AcDbArc
 50
0.0
 51
90.0
  0
LINE
  5
E1B
330
1A
100
AcDbEntity
  8
SEIHIN
  6
Continuous
 62
     3
100
AcDbLine
 10
548.4278272803234
 20
326.3112679352702
 30
0.0
 11
548.4278272803233
 21
325.3745548394701
 31
0.0
  0
LINE
  5
E1C
330
1A
100
AcDbEntity
  8
SEIHIN
  6
Continuous
 62
     3
100
AcDbLine
 10
550.7278272803234
 20
328.3112679352702
 30
0.0
 11
550.7278272803234
 21
325.37455483947
 31
0.0
  0
MTEXT
  5
E1D
330
1A
100
AcDbEntity
  8
SUNPOU
100
AcDbMText
 10
566.7656383997583
 20
309.4890548394702
 30
0.0
 40
6.0
 41
0.0
 71
     5
 72
     5
  1
\U+203B36
 11
6.123031769111886E-17
 21
1.0
 31
0.0
 73
     1
 44
1.0
  0
LINE
  5
E1E
330
1A
100
AcDbEntity
  8
SUNPOU
100
AcDbLine
 10
571.7656383997584
 20
320.3090548394702
 30
0.0
 11
571.7656383997584
 21
298.6690548394701
 31
0.0
  0
INSERT
  5
E1F
330
1A
100
AcDbEntity
  8
SUNPOU
100
AcDbBlockReference
  2
_OPEN
 10
571.7656383997584
 20
291.6690548394701
 30
0.0
 41
7.0
 42
7.0
 43
7.0
 50
270.0
  0
INSERT
  5
E20
330
1A
100
AcDbEntity
  8
SUNPOU
100
AcDbBlockReference
  2
_OPEN
 10
571.7656383997584
 20
327.3090548394702
 30
0.0
 41
7.0
 42
7.0
 43
7.0
 50
90.0
  0
LINE
  5
E21
330
1A
100
AcDbEntity
  8
SEIHIN
100
AcDbLine
 10
560.5995065396658
 20
335.0112679352702
 30
0.0
 11
562.5995068674658
 21
335.0112679352702
 31
0.0
  0
LINE
  5
E22
330
1A
100
AcDbEntity
  8
SEIHIN
100
AcDbLine
 10
560.5995065396658
 20
337.3112679352701
 30
0.0
 11
562.5995068674658
 21
337.3112679352702
 31
0.0
  0
LINE
  5
E23
330
1A
100
AcDbEntity
  8
SEIHIN
  6
Continuous
 62
     3
100
AcDbLine
 10
558.4933075311234
 20
343.8762926548701
 30
0.0
 11
564.0700403763234
 21
343.8762926548701
 31
0.0
  0
LINE
  5
E24
330
1A
100
AcDbEntity
  8
SEIHIN
  6
Continuous
 62
     3
100
AcDbLine
 10
560.1976794953234
 20
347.5843085544701
 30
0.0
 11
594.0700403763233
 21
347.5843085544701
 31
0.0
  0
LINE
  5
E25
330
1A
100
AcDbEntity
  8
SEIHIN
100
AcDbLine
 10
550.2164212117234
 20
354.8382768908701
 30
0.0
 11
556.1512541715234
 21
349.1557521974702
 31
0.0
  0
LINE
  5
E26
330
1A
100
AcDbEntity
  8
SEIHIN
  6
Continuous
 62
     3
100
AcDbLine
 10
551.2405381497234
 20
350.9416291242702
 30
0.0
 11
548.7583864481234
 21
352.80447480647
 31
0.0
  0
LINE
  5
E27
330
1A
100
AcDbEntity
  8
SEIHIN
  6
Continuous
 62
     3
100
AcDbLine
 10
536.7609344465234
 20
352.6337295752702
 30
0.0
 11
535.3347127743234
 21
351.63534015787
 31
0.0
  0
LINE
  5
E28
330
1A
100
AcDbEntity
  8
SEIHIN
  6
Continuous
 62
     3
100
AcDbLine
 10
544.0700403763234
 20
351.6690548394701
 30
0.0
 11
546.4486506173233
 21
351.3820096198703
 31
0.0
  0
LINE
  5
E29
330
1A
100
AcDbEntity
  8
SEIHIN
  6
Continuous
 62
     3
100
AcDbLine
 10
531.7676702469234
 20
341.6690548394701
 30
0.0
 11
532.2483978741234
 21
338.6053472496702
 31
0.0
  0
LINE
  5
E2A
330
1A
100
AcDbEntity
  8
SEIHIN
  6
Continuous
 62
     3
100
AcDbLine
 10
534.4669413115234
 20
338.8794884956702
 30
0.0
 11
534.0700403763234
 21
341.6690548394701
 31
0.0
  0
LINE
  5
E2B
330
1A
100
AcDbEntity
  8
SEIHIN
  6
Continuous
 62
     3
100
AcDbLine
 10
539.0387228149234
 20
333.0269760264702
 30
0.0
 11
537.1287651663233
 21
334.4705600948702
 31
0.0
  0
LINE
  5
E2C
330
1A
100
AcDbEntity
  8
SEIHIN
  6
Continuous
 62
     3
100
AcDbLine
 10
537.3289942815234
 20
332.7078454778701
 30
0.0
 11
538.5618625029233
 21
331.9509971622703
 31
0.0
  0
LINE
  5
E2D
330
1A
100
AcDbEntity
  8
SEIHIN
100
AcDbLine
 10
530.9008183249234
 20
335.5226740038701
 30
0.0
 11
536.5833430181234
 21
329.5878410440702
 31
0.0
  0
LINE
  5
E2E
330
1A
100
AcDbEntity
  8
SEIHIN
  6
Continuous
 62
     3
100
AcDbLine
 10
535.2929273829234
 20
334.0485154750701
 30
0.0
 11
537.3289942815234
 21
332.7078454778701
 31
0.0
  0
LINE
  5
E2F
330
1A
100
AcDbEntity
  8
SEIHIN
  6
Continuous
 62
     3
100
AcDbLine
 10
533.6357956535234
 20
335.8497235082701
 30
0.0
 11
535.2929273829234
 21
334.0485154750701
 31
0.0
  0
LINE
  5
E30
330
1A
100
AcDbEntity
  8
SEIHIN
  6
Continuous
 62
     3
100
AcDbLine
 10
532.2483978741234
 20
338.6053472496702
 30
0.0
 11
533.6357956535234
 21
335.8497235082701
 31
0.0
  0
LINE
  5
E31
330
1A
100
AcDbEntity
  8
SEIHIN
  6
Continuous
 62
     3
100
AcDbLine
 10
530.1877699687234
 20
336.0781303650703
 30
0.0
 11
530.9008183249234
 21
335.5226740038701
 31
0.0
  0
LINE
  5
E32
330
1A
100
AcDbEntity
  8
SEIHIN
  6
Continuous
 62
     3
100
AcDbLine
 10
535.6157091761234
 20
336.3286256042701
 30
0.0
 11
534.4669413115234
 21
338.8794884956702
 31
0.0
  0
LINE
  5
E33
330
1A
100
AcDbEntity
  8
SEIHIN
  6
Continuous
 62
     3
100
AcDbLine
 10
537.1287651663233
 20
334.4705600948702
 30
0.0
 11
535.6157091761234
 21
336.3286256042701
 31
0.0
  0
LINE
  5
E34
330
1A
100
AcDbEntity
  8
SEIHIN
  6
Continuous
 62
     3
100
AcDbLine
 10
542.0078571465234
 20
331.7541464096702
 30
0.0
 11
541.2181331125235
 21
332.0842588524703
 31
0.0
  0
LINE
  5
E35
330
1A
100
AcDbEntity
  8
SEIHIN
  6
Continuous
 62
     3
100
AcDbLine
 10
542.7092868145234
 20
331.2638773356701
 30
0.0
 11
542.0078571465234
 21
331.7541464096702
 31
0.0
  0
LINE
  5
E36
330
1A
100
AcDbEntity
  8
SEIHIN
  6
Continuous
 62
     3
100
AcDbLine
 10
543.2903599897234
 20
330.6358616734702
 30
0.0
 11
542.7092868145234
 21
331.2638773356701
 31
0.0
  0
LINE
  5
E37
330
1A
100
AcDbEntity
  8
SEIHIN
  6
Continuous
 62
     3
100
AcDbLine
 10
543.7245160025234
 20
329.8988058186702
 30
0.0
 11
543.2903599897234
 21
330.6358616734702
 31
0.0
  0
LINE
  5
E38
330
1A
100
AcDbEntity
  8
SEIHIN
  6
Continuous
 62
     3
100
AcDbLine
 10
541.2181331125235
 20
332.0842588524703
 30
0.0
 11
539.0387228149234
 21
333.0269760264702
 31
0.0
  0
LINE
  5
E39
330
1A
100
AcDbEntity
  8
SEIHIN
  6
Continuous
 62
     3
100
AcDbLine
 10
539.6382634721233
 20
330.9848704402701
 30
0.0
 11
540.5230517615235
 21
329.8410101890701
 31
0.0
  0
LINE
  5
E3A
330
1A
100
AcDbEntity
  8
SEIHIN
  6
Continuous
 62
     3
100
AcDbLine
 10
538.5618625029233
 20
331.9509971622703
 30
0.0
 11
539.6382634721233
 21
330.9848704402701
 31
0.0
  0
LINE
  5
E3B
330
1A
100
AcDbEntity
  8
SEIHIN
  6
Continuous
 62
     3
100
AcDbLine
 10
536.4061251871234
 20
348.1020123120701
 30
0.0
 11
537.6370829037234
 21
349.3329700284702
 31
0.0
  0
LINE
  5
E3C
330
1A
100
AcDbEntity
  8
SEIHIN
  6
Continuous
 62
     3
100
AcDbLine
 10
531.9193520827234
 20
345.7174205934701
 30
0.0
 11
531.7676702469234
 21
343.9817192708703
 31
0.0
  0
LINE
  5
E3D
330
1A
100
AcDbEntity
  8
SEIHIN
  6
Continuous
 62
     3
100
AcDbLine
 10
532.3698008513234
 20
347.3998969860701
 30
0.0
 11
531.9193520827234
 21
345.7174205934701
 31
0.0
  0
LINE
  5
E3E
330
1A
100
AcDbEntity
  8
SEIHIN
  6
Continuous
 62
     3
100
AcDbLine
 10
533.1053656405234
 20
348.9781607692702
 30
0.0
 11
532.3698008513234
 21
347.3998969860701
 31
0.0
  0
LINE
  5
E3F
330
1A
100
AcDbEntity
  8
SEIHIN
  6
Continuous
 62
     3
100
AcDbLine
 10
534.1037550577235
 20
350.4043824412703
 30
0.0
 11
533.1053656405234
 21
348.9781607692702
 31
0.0
  0
LINE
  5
E40
330
1A
100
AcDbEntity
  8
SEIHIN
  6
Continuous
 62
     3
100
AcDbLine
 10
535.3347127743234
 20
351.63534015787
 30
0.0
 11
534.1037550577235
 21
350.4043824412703
 31
0.0
  0
LINE
  5
E41
330
1A
100
AcDbEntity
  8
SEIHIN
  6
Continuous
 62
     3
100
AcDbLine
 10
535.4077357697233
 20
346.6757906398701
 30
0.0
 11
536.4061251871234
 21
348.1020123120701
 31
0.0
  0
LINE
  5
E42
330
1A
100
AcDbEntity
  8
SEIHIN
  6
Continuous
 62
     3
100
AcDbLine
 10
534.6721709807234
 20
345.09752685667
 30
0.0
 11
535.4077357697233
 21
346.6757906398701
 31
0.0
  0
LINE
  5
E43
330
1A
100
AcDbEntity
  8
SEIHIN
  6
Continuous
 62
     3
100
AcDbLine
 10
534.2217222121234
 20
343.4150504640701
 30
0.0
 11
534.6721709807234
 21
345.09752685667
 31
0.0
  0
LINE
  5
E44
330
1A
100
AcDbEntity
  8
SEIHIN
  6
Continuous
 62
     3
100
AcDbLine
 10
534.0700403763234
 20
341.6793491414702
 30
0.0
 11
534.2217222121234
 21
343.4150504640701
 31
0.0
  0
LINE
  5
E45
330
1A
100
AcDbEntity
  8
SEIHIN
  6
Continuous
 62
     3
100
AcDbLine
 10
534.0700403763234
 20
341.6690548394701
 30
0.0
 11
534.0700403763234
 21
341.6793491414702
 31
0.0
  0
LINE
  5
E46
330
1A
100
AcDbEntity
  8
SEIHIN
  6
Continuous
 62
     3
100
AcDbLine
 10
531.7676702469234
 20
343.9817192708703
 30
0.0
 11
531.7676702469234
 21
341.6690548394701
 31
0.0
  0
LINE
  5
E47
330
1A
100
AcDbEntity
  8
SEIHIN
  6
Continuous
 62
     3
100
AcDbLine
 10
542.3240447515234
 20
351.5173730034702
 30
0.0
 11
544.0597460741234
 21
351.6690548394701
 31
0.0
  0
LINE
  5
E48
330
1A
100
AcDbEntity
  8
SEIHIN
  6
Continuous
 62
     3
100
AcDbLine
 10
540.6415683589235
 20
351.0669242350701
 30
0.0
 11
542.3240447515234
 21
351.5173730034702
 31
0.0
  0
LINE
  5
E49
330
1A
100
AcDbEntity
  8
SEIHIN
  6
Continuous
 62
     3
100
AcDbLine
 10
539.0633045757234
 20
350.3313594458701
 30
0.0
 11
540.6415683589235
 21
351.0669242350701
 31
0.0
  0
LINE
  5
E4A
330
1A
100
AcDbEntity
  8
SEIHIN
  6
Continuous
 62
     3
100
AcDbLine
 10
537.6370829037234
 20
349.3329700284702
 30
0.0
 11
539.0633045757234
 21
350.3313594458701
 31
0.0
  0
LINE
  5
E4B
330
1A
100
AcDbEntity
  8
SEIHIN
  6
Continuous
 62
     3
100
AcDbLine
 10
544.0597460741234
 20
351.6690548394701
 30
0.0
 11
544.0700403763234
 21
351.6690548394701
 31
0.0
  0
LINE
  5
E4C
330
1A
100
AcDbEntity
  8
SEIHIN
  6
Continuous
 62
     3
100
AcDbLine
 10
556.4278272803234
 20
336.0112679352702
 30
0.0
 11
556.4278272803234
 21
341.1036044592703
 31
0.0
  0
LINE
  5
E4D
330
1A
100
AcDbEntity
  8
SEIHIN
  6
Continuous
 62
     3
100
AcDbLine
 10
558.4278272803234
 20
338.3112679352702
 30
0.0
 11
558.4278272803234
 21
342.6995354538702
 31
0.0
  0
LINE
  5
E4E
330
1A
100
AcDbEntity
  8
SEIHIN
100
AcDbLine
 10
560.5995065396658
 20
337.3112679352701
 30
0.0
 11
560.5995065396658
 21
335.0112679352702
 31
0.0
  0
LINE
  5
E4F
330
1A
100
AcDbEntity
  8
SEIHIN
  6
Continuous
 62
     3
100
AcDbLine
 10
557.4278272803234
 20
335.0112679352702
 30
0.0
 11
560.5995065396658
 21
335.0112679352702
 31
0.0
  0
ARC
  5
E50
330
1A
100
AcDbEntity
  8
SEIHIN
  6
Continuous
 62
     3
100
AcDbCircle
 10
559.4278272803234
 20
338.3112679352702
 30
0.0
 40
1.0
100
AcDbArc
 50
180.0
 51
270.0
  0
ARC
  5
E51
330
1A
100
AcDbEntity
  8
SEIHIN
  6
Continuous
 62
     3
100
AcDbCircle
 10
557.4278272803234
 20
336.0112679352702
 30
0.0
 40
1.0
100
AcDbArc
 50
180.0
 51
270.0
  0
LINE
  5
E52
330
1A
100
AcDbEntity
  8
SEIHIN
  6
Continuous
 62
     3
100
AcDbLine
 10
559.4278272803234
 20
337.3112679352702
 30
0.0
 11
560.5995065396658
 21
337.3112679352701
 31
0.0
  0
LINE
  5
E53
330
1A
100
AcDbEntity
  8
SEIHIN
  6
Continuous
 62
     3
100
AcDbLine
 10
553.9849488059234
 20
343.7312380690702
 30
0.0
 11
554.4752178801234
 21
343.0298084012701
 31
0.0
  0
LINE
  5
E54
330
1A
100
AcDbEntity
  8
SEIHIN
  6
Continuous
 62
     3
100
AcDbLine
 10
554.7542247753233
 20
346.1008317434702
 30
0.0
 11
553.7880980533233
 21
347.1772327126702
 31
0.0
  0
LINE
  5
E55
330
1A
100
AcDbEntity
  8
SEIHIN
  6
Continuous
 62
     3
100
AcDbLine
 10
553.6548363631234
 20
344.5209621032701
 30
0.0
 11
553.9849488059234
 21
343.7312380690702
 31
0.0
  0
LINE
  5
E56
330
1A
100
AcDbEntity
  8
SEIHIN
  6
Continuous
 62
     3
100
AcDbLine
 10
553.7880980533233
 20
347.1772327126702
 30
0.0
 11
553.0312497377233
 21
348.4101009340701
 31
0.0
  0
LINE
  5
E57
330
1A
100
AcDbEntity
  8
SEIHIN
  6
Continuous
 62
     3
100
AcDbLine
 10
552.4892337665234
 20
347.0646438902701
 30
0.0
 11
553.6548363631234
 21
344.5209621032701
 31
0.0
  0
LINE
  5
E58
330
1A
100
AcDbEntity
  8
SEIHIN
  6
Continuous
 62
     3
100
AcDbLine
 10
550.6463276691234
 20
349.2022069202702
 30
0.0
 11
552.4892337665234
 21
347.0646438902701
 31
0.0
  0
LINE
  5
E59
330
1A
100
AcDbEntity
  8
SEIHIN
  6
Continuous
 62
     3
100
AcDbLine
 10
548.6711086045234
 20
350.5479192320701
 30
0.0
 11
550.6463276691234
 21
349.2022069202702
 31
0.0
  0
LINE
  5
E5A
330
1A
100
AcDbEntity
  8
SEIHIN
  6
Continuous
 62
     3
100
AcDbLine
 10
546.4486506173233
 20
351.3820096198703
 30
0.0
 11
548.6711086045234
 21
350.5479192320701
 31
0.0
  0
LINE
  5
E5B
330
1A
100
AcDbEntity
  8
SEIHIN
  6
Continuous
 62
     3
100
AcDbLine
 10
553.0312497377233
 20
348.4101009340701
 30
0.0
 11
551.2405381497234
 21
350.9416291242702
 31
0.0
  0
LINE
  5
E5C
330
1A
100
AcDbEntity
  8
SEIHIN
  6
Continuous
 62
     3
100
AcDbLine
 10
555.1032335423233
 20
342.4487352260702
 30
0.0
 11
555.8402893969234
 21
342.0145792130701
 31
0.0
  0
LINE
  5
E5D
330
1A
100
AcDbEntity
  8
SEIHIN
  6
Continuous
 62
     3
100
AcDbLine
 10
554.4752178801234
 20
343.0298084012701
 30
0.0
 11
555.1032335423233
 21
342.4487352260702
 31
0.0
  0
LINE
  5
E5E
330
1A
100
AcDbEntity
  8
SEIHIN
  6
Continuous
 62
     3
100
AcDbLine
 10
555.8980850265234
 20
345.2160434540703
 30
0.0
 11
554.7542247753233
 21
346.1008317434702
 31
0.0
  0
LINE
  5
E5F
330
1A
100
AcDbEntity
  8
SEIHIN
  6
Continuous
 62
     3
100
AcDbLine
 10
557.1823307751234
 20
344.5517569514701
 30
0.0
 11
555.8980850265234
 21
345.2160434540703
 31
0.0
  0
LINE
  5
E60
330
1A
100
AcDbEntity
  8
SEIHIN
  6
Continuous
 62
     3
100
AcDbLine
 10
558.3984971453234
 20
343.8805974520702
 30
0.0
 11
558.4933075311234
 21
343.8762926548701
 31
0.0
  0
LINE
  5
E61
330
1A
100
AcDbEntity
  8
SEIHIN
  6
Continuous
 62
     3
100
AcDbLine
 10
558.3045428895234
 20
343.8938840004702
 30
0.0
 11
558.3984971453234
 21
343.8805974520702
 31
0.0
  0
LINE
  5
E62
330
1A
100
AcDbEntity
  8
SEIHIN
  6
Continuous
 62
     3
100
AcDbLine
 10
558.2122931633234
 20
343.9160323240702
 30
0.0
 11
558.3045428895234
 21
343.8938840004702
 31
0.0
  0
LINE
  5
E63
330
1A
100
AcDbEntity
  8
SEIHIN
  6
Continuous
 62
     3
100
AcDbLine
 10
558.1225809739234
 20
343.9468424248702
 30
0.0
 11
558.2122931633234
 21
343.9160323240702
 31
0.0
  0
LINE
  5
E64
330
1A
100
AcDbEntity
  8
SEIHIN
  6
Continuous
 62
     3
100
AcDbLine
 10
558.0362164153233
 20
343.9860360904701
 30
0.0
 11
558.1225809739234
 21
343.9468424248702
 31
0.0
  0
LINE
  5
E65
330
1A
100
AcDbEntity
  8
SEIHIN
  6
Continuous
 62
     3
100
AcDbLine
 10
557.9539793527234
 20
344.0332594052701
 30
0.0
 11
558.0362164153233
 21
343.9860360904701
 31
0.0
  0
LINE
  5
E66
330
1A
100
AcDbEntity
  8
SEIHIN
  6
Continuous
 62
     3
100
AcDbLine
 10
557.8766123797234
 20
344.0880859462701
 30
0.0
 11
557.9539793527234
 21
344.0332594052701
 31
0.0
  0
LINE
  5
E67
330
1A
100
AcDbEntity
  8
SEIHIN
  6
Continuous
 62
     3
100
AcDbLine
 10
557.8048141141234
 20
344.15002063447
 30
0.0
 11
557.8766123797234
 21
344.0880859462701
 31
0.0
  0
LINE
  5
E68
330
1A
100
AcDbEntity
  8
SEIHIN
  6
Continuous
 62
     3
100
AcDbLine
 10
558.1158104727234
 20
344.0022838224701
 30
0.0
 11
558.4001077631234
 21
343.9611200584701
 31
0.0
  0
LINE
  5
E69
330
1A
100
AcDbEntity
  8
SEIHIN
  6
Continuous
 62
     3
100
AcDbLine
 10
557.8130211503234
 20
344.1508929082701
 30
0.0
 11
558.1158104727234
 21
344.0022838224701
 31
0.0
  0
LINE
  5
E6A
330
1A
100
AcDbEntity
  8
SEIHIN
  6
Continuous
 62
     3
100
AcDbLine
 10
557.7411052703234
 20
344.2079455176701
 30
0.0
 11
557.8130211503234
 21
344.1508929082701
 31
0.0
  0
LINE
  5
E6B
330
1A
100
AcDbEntity
  8
SEIHIN
  6
Continuous
 62
     3
100
AcDbLine
 10
558.4471531227234
 20
343.9191958000703
 30
0.0
 11
558.4933075311234
 21
343.8762926548701
 31
0.0
  0
LINE
  5
E6C
330
1A
100
AcDbEntity
  8
SEIHIN
  6
Continuous
 62
     3
100
AcDbLine
 10
558.4001077631234
 20
343.9611200584701
 30
0.0
 11
558.4471531227234
 21
343.9191958000703
 31
0.0
  0
LINE
  5
E6D
330
1A
100
AcDbEntity
  8
SEIHIN
  6
Continuous
 62
     3
100
AcDbLine
 10
559.0937680591234
 20
347.6868400648701
 30
0.0
 11
560.1976794953234
 21
347.5843085544701
 31
0.0
  0
LINE
  5
E6E
330
1A
100
AcDbEntity
  8
SEIHIN
  6
Continuous
 62
     3
100
AcDbLine
 10
558.0275463531234
 20
347.9909339664702
 30
0.0
 11
559.0937680591234
 21
347.6868400648701
 31
0.0
  0
LINE
  5
E6F
330
1A
100
AcDbEntity
  8
SEIHIN
  6
Continuous
 62
     3
100
AcDbLine
 10
557.0354173049234
 20
348.4862078892701
 30
0.0
 11
558.0275463531234
 21
347.9909339664702
 31
0.0
  0
LINE
  5
E70
330
1A
100
AcDbEntity
  8
SEIHIN
  6
Continuous
 62
     3
100
AcDbLine
 10
556.1512541715234
 20
349.1557521974702
 30
0.0
 11
557.0354173049234
 21
348.4862078892701
 31
0.0
  0
ARC
  5
E71
330
1A
100
AcDbEntity
  8
SEIHIN
  6
Continuous
 62
     3
100
AcDbCircle
 10
555.4278272803234
 20
341.1036044592703
 30
0.0
 40
1.0
100
AcDbArc
 50
0.0
 51
65.64040475500195
  0
ARC
  5
E72
330
1A
100
AcDbEntity
  8
SEIHIN
  6
Continuous
 62
     3
100
AcDbCircle
 10
556.4278272803234
 20
342.6995354538702
 30
0.0
 40
2.0
100
AcDbArc
 50
0.0
 51
67.83644688060024
  0
LINE
  5
E73
330
1A
100
AcDbEntity
  8
SEIHIN
  6
Continuous
 62
     3
100
AcDbLine
 10
547.7216134153234
 20
357.3207421234703
 30
0.0
 11
545.6067122627234
 21
358.29675522847
 31
0.0
  0
LINE
  5
E74
330
1A
100
AcDbEntity
  8
SEIHIN
  6
Continuous
 62
     3
100
AcDbLine
 10
546.4965114639234
 20
353.6725425650701
 30
0.0
 11
544.0700403763234
 21
353.9714249688701
 31
0.0
  0
LINE
  5
E75
330
1A
100
AcDbEntity
  8
SEIHIN
  6
Continuous
 62
     3
100
AcDbLine
 10
538.3391982297234
 20
353.3692943644702
 30
0.0
 11
536.7609344465234
 21
352.6337295752702
 31
0.0
  0
LINE
  5
E76
330
1A
100
AcDbEntity
  8
SEIHIN
  6
Continuous
 62
     3
100
AcDbLine
 10
538.1427333285234
 20
358.3151512890701
 30
0.0
 11
535.9987859643234
 21
357.76194603447
 31
0.0
  0
LINE
  5
E77
330
1A
100
AcDbEntity
  8
SEIHIN
  6
Continuous
 62
     3
100
AcDbLine
 10
532.1397199849234
 20
355.6188699024702
 30
0.0
 11
530.5413075801234
 21
354.0962364042701
 31
0.0
  0
LINE
  5
E78
330
1A
100
AcDbEntity
  8
SEIHIN
  6
Continuous
 62
     3
100
AcDbLine
 10
533.9790880575233
 20
356.8529465520702
 30
0.0
 11
532.1397199849234
 21
355.6188699024702
 31
0.0
  0
LINE
  5
E79
330
1A
100
AcDbEntity
  8
SEIHIN
  6
Continuous
 62
     3
100
AcDbLine
 10
535.9987859643234
 20
357.76194603447
 30
0.0
 11
533.9790880575233
 21
356.8529465520702
 31
0.0
  0
LINE
  5
E7A
330
1A
100
AcDbEntity
  8
SEIHIN
  6
Continuous
 62
     3
100
AcDbLine
 10
544.0701003763234
 20
358.5033216594701
 30
0.0
 11
544.0700403763234
 21
358.5033216596702
 31
0.0
  0
LINE
  5
E7B
330
1A
100
AcDbEntity
  8
SEIHIN
  6
Continuous
 62
     3
100
AcDbLine
 10
545.6067122627234
 20
358.29675522847
 30
0.0
 11
544.0701003763234
 21
358.5033216594701
 31
0.0
  0
LINE
  5
E7C
330
1A
100
AcDbEntity
  8
SEIHIN
  6
Continuous
 62
     3
100
AcDbLine
 10
540.0216746221233
 20
353.81974313287
 30
0.0
 11
538.3391982297234
 21
353.3692943644702
 31
0.0
  0
LINE
  5
E7D
330
1A
100
AcDbEntity
  8
SEIHIN
  6
Continuous
 62
     3
100
AcDbLine
 10
541.7573759447233
 20
353.9714249688701
 30
0.0
 11
540.0216746221233
 21
353.81974313287
 31
0.0
  0
LINE
  5
E7E
330
1A
100
AcDbEntity
  8
SEIHIN
  6
Continuous
 62
     3
100
AcDbLine
 10
540.3488176537234
 20
358.5033216606702
 30
0.0
 11
538.1427333285234
 21
358.3151512890701
 31
0.0
  0
LINE
  5
E7F
330
1A
100
AcDbEntity
  8
SEIHIN
  6
Continuous
 62
     3
100
AcDbLine
 10
540.3488776537233
 20
358.5033216594701
 30
0.0
 11
540.3488176537234
 21
358.5033216606702
 31
0.0
  0
LINE
  5
E80
330
1A
100
AcDbEntity
  8
SEIHIN
  6
Continuous
 62
     3
100
AcDbLine
 10
544.0700403763234
 20
353.9714249688701
 30
0.0
 11
541.7573759447233
 21
353.9714249688701
 31
0.0
  0
LINE
  5
E81
330
1A
100
AcDbEntity
  8
SEIHIN
  6
Continuous
 62
     3
100
AcDbLine
 10
544.0700403763234
 20
358.5033216596702
 30
0.0
 11
540.3488776537233
 21
358.5033216596702
 31
0.0
  0
LINE
  5
E82
330
1A
100
AcDbEntity
  8
SEIHIN
  6
Continuous
 62
     3
100
AcDbLine
 10
549.0765659329234
 20
356.1901783302702
 30
0.0
 11
547.7216134153234
 21
357.3207421234703
 31
0.0
  0
LINE
  5
E83
330
1A
100
AcDbEntity
  8
SEIHIN
  6
Continuous
 62
     3
100
AcDbLine
 10
550.2164212117234
 20
354.8382768908701
 30
0.0
 11
549.0765659329234
 21
356.1901783302702
 31
0.0
  0
LINE
  5
E84
330
1A
100
AcDbEntity
  8
SEIHIN
  6
Continuous
 62
     3
100
AcDbLine
 10
548.7583864481234
 20
352.80447480647
 30
0.0
 11
546.4965114639234
 21
353.6725425650701
 31
0.0
  0
LINE
  5
E85
330
1A
100
AcDbEntity
  8
SEIHIN
  6
Continuous
 62
     3
100
AcDbLine
 10
579.7700403763233
 20
336.8465674862702
 30
0.0
 11
578.3700403763234
 21
336.8465674862702
 31
0.0
  0
LINE
  5
E86
330
1A
100
AcDbEntity
  8
SEIHIN
  6
Continuous
 62
     3
100
AcDbLine
 10
579.7700403763233
 20
337.8623190026702
 30
0.0
 11
578.3700403763234
 21
337.8623190026702
 31
0.0
  0
LINE
  5
E87
330
1A
100
AcDbEntity
  8
SEIHIN
  6
Continuous
 62
     3
100
AcDbLine
 10
579.7700403763233
 20
344.3847704690701
 30
0.0
 11
578.3700403763234
 21
344.3847704690701
 31
0.0
  0
LINE
  5
E88
330
1A
100
AcDbEntity
  8
SEIHIN
  6
Continuous
 62
     3
100
AcDbLine
 10
594.0700403763233
 20
335.0112679352702
 30
0.0
 11
564.0700403763234
 21
335.0112679352702
 31
0.0
  0
LINE
  5
E89
330
1A
100
AcDbEntity
  8
SEIHIN
  6
Continuous
 62
     3
100
AcDbLine
 10
594.0700403763233
 20
345.84817274587
 30
0.0
 11
564.0700403763234
 21
345.8481727458701
 31
0.0
  0
LINE
  5
E8A
330
1A
100
AcDbEntity
  8
SEIHIN
  6
Continuous
 62
     3
100
AcDbLine
 10
578.0700403763234
 20
337.8575935476703
 30
0.0
 11
578.0700403763234
 21
343.8096931922702
 31
0.0
  0
LINE
  5
E8B
330
1A
100
AcDbEntity
  8
SEIHIN
  6
Continuous
 62
     3
100
AcDbLine
 10
564.0700403763234
 20
344.6812679352703
 30
0.0
 11
564.0700403763234
 21
336.0112679352702
 31
0.0
  0
LINE
  5
E8C
330
1A
100
AcDbEntity
  8
SEIHIN
100
AcDbLine
 10
562.5995068674658
 20
337.3112679352702
 30
0.0
 11
562.5995068674658
 21
335.0112679352702
 31
0.0
  0
LINE
  5
E8D
330
1A
100
AcDbEntity
  8
SEIHIN
  6
Continuous
 62
     3
100
AcDbLine
 10
562.599506867466
 20
335.0112679352702
 30
0.0
 11
563.0700403763234
 21
335.0112679352702
 31
0.0
  0
LINE
  5
E8E
330
1A
100
AcDbEntity
  8
SEIHIN
  6
Continuous
 62
     3
100
AcDbLine
 10
562.5995068674658
 20
337.3112679352702
 30
0.0
 11
563.0700403763234
 21
337.3112679352702
 31
0.0
  0
LINE
  5
E8F
330
1A
100
AcDbEntity
  8
SEIHIN
  6
Continuous
 62
     3
100
AcDbLine
 10
564.0688352225234
 20
338.0018308280702
 30
0.0
 11
564.0700403763234
 21
338.3112679352702
 31
0.0
  0
LINE
  5
E90
330
1A
100
AcDbEntity
  8
SEIHIN
  6
Continuous
 62
     3
100
AcDbLine
 10
564.0545200549234
 20
337.7454080078702
 30
0.0
 11
564.0688352225234
 21
338.0018308280702
 31
0.0
  0
LINE
  5
E91
330
1A
100
AcDbEntity
  8
SEIHIN
  6
Continuous
 62
     3
100
AcDbLine
 10
564.0081620369234
 20
337.5545090748702
 30
0.0
 11
564.0545200549234
 21
337.7454080078702
 31
0.0
  0
LINE
  5
E92
330
1A
100
AcDbEntity
  8
SEIHIN
  6
Continuous
 62
     3
100
AcDbLine
 10
563.8999290497234
 20
337.4142878646702
 30
0.0
 11
564.0081620369234
 21
337.5545090748702
 31
0.0
  0
LINE
  5
E93
330
1A
100
AcDbEntity
  8
SEIHIN
  6
Continuous
 62
     3
100
AcDbLine
 10
563.6896933437234
 20
337.3346812124702
 30
0.0
 11
563.8999290497234
 21
337.4142878646702
 31
0.0
  0
LINE
  5
E94
330
1A
100
AcDbEntity
  8
SEIHIN
  6
Continuous
 62
     3
100
AcDbLine
 10
563.3981788043234
 20
337.3128020500702
 30
0.0
 11
563.6896933437234
 21
337.3346812124702
 31
0.0
  0
LINE
  5
E95
330
1A
100
AcDbEntity
  8
SEIHIN
  6
Continuous
 62
     3
100
AcDbLine
 10
563.0700403763234
 20
337.3112679352702
 30
0.0
 11
563.3981788043234
 21
337.3128020500702
 31
0.0
  0
LINE
  5
E96
330
1A
100
AcDbEntity
  8
SEIHIN
  6
Continuous
 62
     3
100
AcDbLine
 10
564.0700403763234
 20
335.0112679352702
 30
0.0
 11
564.0700403763234
 21
336.0112679352702
 31
0.0
  0
LINE
  5
E97
330
1A
100
AcDbEntity
  8
SEIHIN
  6
Continuous
 62
     3
100
AcDbLine
 10
564.0700403763234
 20
335.0112679352702
 30
0.0
 11
563.0700403763234
 21
335.0112679352702
 31
0.0
  0
LINE
  5
E98
330
1A
100
AcDbEntity
  8
SEIHIN
  6
Continuous
 62
     3
100
AcDbLine
 10
578.3115132797234
 20
337.8622282042701
 30
0.0
 11
578.3700403763234
 21
337.8623190026702
 31
0.0
  0
LINE
  5
E99
330
1A
100
AcDbEntity
  8
SEIHIN
  6
Continuous
 62
     3
100
AcDbLine
 10
578.2552353465234
 20
337.8619592988702
 30
0.0
 11
578.3115132797234
 21
337.8622282042701
 31
0.0
  0
LINE
  5
E9A
330
1A
100
AcDbEntity
  8
SEIHIN
  6
Continuous
 62
     3
100
AcDbLine
 10
578.2033693063233
 20
337.86152261987
 30
0.0
 11
578.2552353465234
 21
337.8619592988702
 31
0.0
  0
LINE
  5
E9B
330
1A
100
AcDbEntity
  8
SEIHIN
  6
Continuous
 62
     3
100
AcDbLine
 10
578.1579083419234
 20
337.8609349488701
 30
0.0
 11
578.2033693063233
 21
337.86152261987
 31
0.0
  0
LINE
  5
E9C
330
1A
100
AcDbEntity
  8
SEIHIN
  6
Continuous
 62
     3
100
AcDbLine
 10
578.1205994925234
 20
337.8602188698702
 30
0.0
 11
578.1579083419234
 21
337.8609349488701
 31
0.0
  0
LINE
  5
E9D
330
1A
100
AcDbEntity
  8
SEIHIN
  6
Continuous
 62
     3
100
AcDbLine
 10
578.0928765165234
 20
337.8594019010701
 30
0.0
 11
578.1205994925234
 21
337.8602188698702
 31
0.0
  0
LINE
  5
E9E
330
1A
100
AcDbEntity
  8
SEIHIN
  6
Continuous
 62
     3
100
AcDbLine
 10
578.0758047921233
 20
337.8585154382701
 30
0.0
 11
578.0928765165234
 21
337.8594019010701
 31
0.0
  0
LINE
  5
E9F
330
1A
100
AcDbEntity
  8
SEIHIN
  6
Continuous
 62
     3
100
AcDbLine
 10
578.0700403763234
 20
337.8575935476703
 30
0.0
 11
578.0758047921233
 21
337.8585154382701
 31
0.0
  0
LINE
  5
EA0
330
1A
100
AcDbEntity
  8
SEIHIN
  6
Continuous
 62
     3
100
AcDbLine
 10
578.0700403763234
 20
337.1465674862701
 30
0.0
 11
578.0700403763234
 21
337.8575935476703
 31
0.0
  0
ARC
  5
EA1
330
1A
100
AcDbEntity
  8
SEIHIN
  6
Continuous
 62
     3
100
AcDbCircle
 10
578.3700403763234
 20
337.1465674862701
 30
0.0
 40
0.2999999999999545
100
AcDbArc
 50
180.0
 51
270.0
  0
LINE
  5
EA2
330
1A
100
AcDbEntity
  8
SEIHIN
  6
Continuous
 62
     3
100
AcDbLine
 10
564.0700403763234
 20
345.8481727458701
 30
0.0
 11
564.0700403763234
 21
344.6812679352703
 31
0.0
  0
LINE
  5
EA3
330
1A
100
AcDbEntity
  8
SEIHIN
  6
Continuous
 62
     3
100
AcDbLine
 10
578.3526295913234
 20
344.3838545070702
 30
0.0
 11
578.3700403763234
 21
344.3847704690701
 31
0.0
  0
LINE
  5
EA4
330
1A
100
AcDbEntity
  8
SEIHIN
  6
Continuous
 62
     3
100
AcDbLine
 10
578.2982428099234
 20
344.3689556588703
 30
0.0
 11
578.3526295913234
 21
344.3838545070702
 31
0.0
  0
LINE
  5
EA5
330
1A
100
AcDbEntity
  8
SEIHIN
  6
Continuous
 62
     3
100
AcDbLine
 10
578.2214424927233
 20
344.3129382400701
 30
0.0
 11
578.2982428099234
 21
344.3689556588703
 31
0.0
  0
LINE
  5
EA6
330
1A
100
AcDbEntity
  8
SEIHIN
  6
Continuous
 62
     3
100
AcDbLine
 10
578.1488378413234
 20
344.2053929504701
 30
0.0
 11
578.2214424927233
 21
344.3129382400701
 31
0.0
  0
LINE
  5
EA7
330
1A
100
AcDbEntity
  8
SEIHIN
  6
Continuous
 62
     3
100
AcDbLine
 10
578.0908917925234
 20
344.02830012587
 30
0.0
 11
578.1488378413234
 21
344.2053929504701
 31
0.0
  0
LINE
  5
EA8
330
1A
100
AcDbEntity
  8
SEIHIN
  6
Continuous
 62
     3
100
AcDbLine
 10
578.0700403763234
 20
343.8096931922702
 30
0.0
 11
578.0908917925234
 21
344.02830012587
 31
0.0
  0
LINE
  5
EA9
330
1A
100
AcDbEntity
  8
SEIHIN
  6
Continuous
 62
     3
100
AcDbLine
 10
580.0700403763234
 20
343.8096931922702
 30
0.0
 11
580.0700403763234
 21
337.8575935476703
 31
0.0
  0
LINE
  5
EAA
330
1A
100
AcDbEntity
  8
SEIHIN
  6
Continuous
 62
     3
100
AcDbLine
 10
594.0700403763233
 20
344.6812679352702
 30
0.0
 11
594.0700403763233
 21
336.0112679352702
 31
0.0
  0
LINE
  5
EAB
330
1A
100
AcDbEntity
  8
SEIHIN
  6
Continuous
 62
     3
100
AcDbLine
 10
580.0642759603234
 20
337.8585154382701
 30
0.0
 11
580.0700403763234
 21
337.8575935476703
 31
0.0
  0
LINE
  5
EAC
330
1A
100
AcDbEntity
  8
SEIHIN
  6
Continuous
 62
     3
100
AcDbLine
 10
580.0472042359234
 20
337.8594019010701
 30
0.0
 11
580.0642759603234
 21
337.8585154382701
 31
0.0
  0
LINE
  5
EAD
330
1A
100
AcDbEntity
  8
SEIHIN
  6
Continuous
 62
     3
100
AcDbLine
 10
580.0194812599234
 20
337.8602188698702
 30
0.0
 11
580.0472042359234
 21
337.8594019010701
 31
0.0
  0
LINE
  5
EAE
330
1A
100
AcDbEntity
  8
SEIHIN
  6
Continuous
 62
     3
100
AcDbLine
 10
579.9821724105234
 20
337.8609349488701
 30
0.0
 11
580.0194812599234
 21
337.8602188698702
 31
0.0
  0
LINE
  5
EAF
330
1A
100
AcDbEntity
  8
SEIHIN
  6
Continuous
 62
     3
100
AcDbLine
 10
579.9367114461234
 20
337.86152261987
 30
0.0
 11
579.9821724105234
 21
337.8609349488701
 31
0.0
  0
LINE
  5
EB0
330
1A
100
AcDbEntity
  8
SEIHIN
  6
Continuous
 62
     3
100
AcDbLine
 10
579.8848454059233
 20
337.8619592988702
 30
0.0
 11
579.9367114461234
 21
337.86152261987
 31
0.0
  0
LINE
  5
EB1
330
1A
100
AcDbEntity
  8
SEIHIN
  6
Continuous
 62
     3
100
AcDbLine
 10
579.8285674729234
 20
337.8622282042701
 30
0.0
 11
579.8848454059233
 21
337.8619592988702
 31
0.0
  0
LINE
  5
EB2
330
1A
100
AcDbEntity
  8
SEIHIN
  6
Continuous
 62
     3
100
AcDbLine
 10
579.7700403763233
 20
337.8623190026702
 30
0.0
 11
579.8285674729234
 21
337.8622282042701
 31
0.0
  0
LINE
  5
EB3
330
1A
100
AcDbEntity
  8
SEIHIN
  6
Continuous
 62
     3
100
AcDbLine
 10
580.0700403763234
 20
337.8575935476703
 30
0.0
 11
580.0700403763234
 21
337.1465674862701
 31
0.0
  0
ARC
  5
EB4
330
1A
100
AcDbEntity
  8
SEIHIN
  6
Continuous
 62
     3
100
AcDbCircle
 10
579.7700403763233
 20
337.1465674862701
 30
0.0
 40
0.3000000000000114
100
AcDbArc
 50
270.0
 51
0.0
  0
LINE
  5
EB5
330
1A
100
AcDbEntity
  8
SEIHIN
  6
Continuous
 62
     3
100
AcDbLine
 10
594.0700403763233
 20
336.0112679352702
 30
0.0
 11
594.0700403763233
 21
335.0112679352702
 31
0.0
  0
LINE
  5
EB6
330
1A
100
AcDbEntity
  8
SEIHIN
  6
Continuous
 62
     3
100
AcDbLine
 10
580.0541741629234
 20
344.0017474938701
 30
0.0
 11
580.0700403763234
 21
343.8096931922702
 31
0.0
  0
LINE
  5
EB7
330
1A
100
AcDbEntity
  8
SEIHIN
  6
Continuous
 62
     3
100
AcDbLine
 10
579.9977665035234
 20
344.1915725408702
 30
0.0
 11
580.0541741629234
 21
344.0017474938701
 31
0.0
  0
LINE
  5
EB8
330
1A
100
AcDbEntity
  8
SEIHIN
  6
Continuous
 62
     3
100
AcDbLine
 10
579.9244669741233
 20
344.3066707904701
 30
0.0
 11
579.9977665035234
 21
344.1915725408702
 31
0.0
  0
LINE
  5
EB9
330
1A
100
AcDbEntity
  8
SEIHIN
  6
Continuous
 62
     3
100
AcDbLine
 10
579.8521564621234
 20
344.3639772036701
 30
0.0
 11
579.9244669741233
 21
344.3066707904701
 31
0.0
  0
LINE
  5
EBA
330
1A
100
AcDbEntity
  8
SEIHIN
  6
Continuous
 62
     3
100
AcDbLine
 10
579.8252405279234
 20
344.3754845916702
 30
0.0
 11
579.8521564621234
 21
344.3639772036701
 31
0.0
  0
LINE
  5
EBB
330
1A
100
AcDbEntity
  8
SEIHIN
  6
Continuous
 62
     3
100
AcDbLine
 10
579.7700403763233
 20
344.3847704690701
 30
0.0
 11
579.8252405279234
 21
344.3754845916702
 31
0.0
  0
LINE
  5
EBC
330
1A
100
AcDbEntity
  8
SEIHIN
  6
Continuous
 62
     3
100
AcDbLine
 10
594.0700403763233
 20
347.5843085544701
 30
0.0
 11
594.0700403763233
 21
345.84817274587
 31
0.0
  0
LINE
  5
EBD
330
1A
100
AcDbEntity
  8
SEIHIN
  6
Continuous
 62
     3
100
AcDbLine
 10
594.0700403763233
 20
345.84817274587
 30
0.0
 11
594.0700403763233
 21
344.6812679352702
 31
0.0
  0
LINE
  5
EBE
330
1A
100
AcDbEntity
  8
SEIHIN
  6
Continuous
 62
     3
100
AcDbLine
 10
594.0700403763233
 20
437.6361252776701
 30
0.0
 11
594.0700403763233
 21
447.0564875750702
 31
0.0
  0
LINE
  5
EBF
330
1A
100
AcDbEntity
  8
SEIHIN
  6
Continuous
 62
     3
100
AcDbLine
 10
594.0700403763233
 20
435.41837522487
 30
0.0
 11
594.0700403763233
 21
433.43847623747
 31
0.0
  0
LINE
  5
EC0
330
1A
100
AcDbEntity
  8
SEIHIN
  6
Continuous
 62
     3
100
AcDbLine
 10
594.0700403763233
 20
437.6361252776701
 30
0.0
 11
594.0700403763233
 21
437.09813743567
 31
0.0
  0
LINE
  5
EC1
330
1A
100
AcDbEntity
  8
SEIHIN
  6
Continuous
 62
     3
100
AcDbLine
 10
594.0700403763233
 20
435.41837522487
 30
0.0
 11
594.0700403763233
 21
437.09813743567
 31
0.0
  0
LINE
  5
EC2
330
1A
100
AcDbEntity
  8
SEIHIN
  6
Continuous
 62
     3
100
AcDbLine
 10
564.0700403763234
 20
456.16603264587
 30
0.0
 11
594.0700403763233
 21
456.16603264587
 31
0.0
  0
LINE
  5
EC3
330
1A
100
AcDbEntity
  8
SEIHIN
  6
Continuous
 62
     3
100
AcDbLine
 10
564.0700403763234
 20
460.4730670408701
 30
0.0
 11
594.0700403763233
 21
460.4730670408701
 31
0.0
  0
LINE
  5
EC4
330
1A
100
AcDbEntity
  8
SEIHIN
  6
Continuous
 62
     3
100
AcDbLine
 10
564.0700403763234
 20
458.09017059487
 30
0.0
 11
564.0700403763234
 21
456.73827535287
 31
0.0
  0
LINE
  5
EC5
330
1A
100
AcDbEntity
  8
SEIHIN
  6
Continuous
 62
     3
100
AcDbLine
 10
564.0700403763234
 20
456.4589258646702
 30
0.0
 11
564.0700403763234
 21
456.16603264587
 31
0.0
  0
LINE
  5
EC6
330
1A
100
AcDbEntity
  8
SEIHIN
  6
Continuous
 62
     3
100
AcDbLine
 10
564.0700403763234
 20
456.73827535287
 30
0.0
 11
564.0700403763234
 21
456.4589258646702
 31
0.0
  0
LINE
  5
EC7
330
1A
100
AcDbEntity
  8
SEIHIN
  6
Continuous
 62
     3
100
AcDbLine
 10
564.0316109371233
 20
466.9302526480701
 30
0.0
 11
564.0700403763234
 21
466.5372161150699
 31
0.0
  0
LINE
  5
EC8
330
1A
100
AcDbEntity
  8
SEIHIN
  6
Continuous
 62
     3
100
AcDbLine
 10
563.9177994413234
 20
467.3081850076701
 30
0.0
 11
564.0316109371233
 21
466.9302526480701
 31
0.0
  0
LINE
  5
EC9
330
1A
100
AcDbEntity
  8
SEIHIN
  6
Continuous
 62
     3
100
AcDbLine
 10
563.7329796009234
 20
467.6564894652702
 30
0.0
 11
563.9177994413234
 21
467.3081850076701
 31
0.0
  0
LINE
  5
ECA
330
1A
100
AcDbEntity
  8
SEIHIN
  6
Continuous
 62
     3
100
AcDbLine
 10
563.4842539385234
 20
467.9617808754701
 30
0.0
 11
563.7329796009234
 21
467.6564894652702
 31
0.0
  0
LINE
  5
ECB
330
1A
100
AcDbEntity
  8
SEIHIN
  6
Continuous
 62
     3
100
AcDbLine
 10
563.1811808423233
 20
468.2123270608699
 30
0.0
 11
563.4842539385234
 21
467.9617808754701
 31
0.0
  0
LINE
  5
ECC
330
1A
100
AcDbEntity
  8
SEIHIN
  6
Continuous
 62
     3
100
AcDbLine
 10
562.8354072409234
 20
468.3984996720701
 30
0.0
 11
563.1811808423233
 21
468.2123270608699
 31
0.0
  0
LINE
  5
ECD
330
1A
100
AcDbEntity
  8
SEIHIN
  6
Continuous
 62
     3
100
AcDbLine
 10
562.4602210203234
 20
468.51314420007
 30
0.0
 11
562.8354072409234
 21
468.3984996720701
 31
0.0
  0
LINE
  5
ECE
330
1A
100
AcDbEntity
  8
SEIHIN
  6
Continuous
 62
     3
100
AcDbLine
 10
564.0700403763234
 20
460.4730670408701
 30
0.0
 11
564.0700403763234
 21
458.09017059487
 31
0.0
  0
LINE
  5
ECF
330
1A
100
AcDbEntity
  8
SEIHIN
  6
Continuous
 62
     3
100
AcDbLine
 10
564.0700403763234
 20
466.5372161150699
 30
0.0
 11
564.0700403763234
 21
460.4730670408701
 31
0.0
  0
LINE
  5
ED0
330
1A
100
AcDbEntity
  8
SEIHIN
  6
Continuous
 62
     3
100
AcDbLine
 10
594.0700403763233
 20
458.09017059487
 30
0.0
 11
594.0700403763233
 21
456.73827535287
 31
0.0
  0
LINE
  5
ED1
330
1A
100
AcDbEntity
  8
SEIHIN
  6
Continuous
 62
     3
100
AcDbLine
 10
594.0700403763233
 20
447.0564875750702
 30
0.0
 11
594.0700403763233
 21
450.82164646507
 31
0.0
  0
LINE
  5
ED2
330
1A
100
AcDbEntity
  8
SEIHIN
  6
Continuous
 62
     3
100
AcDbLine
 10
594.0700403763233
 20
450.82164646507
 30
0.0
 11
594.0700403763233
 21
456.16603264587
 31
0.0
  0
LINE
  5
ED3
330
1A
100
AcDbEntity
  8
SEIHIN
  6
Continuous
 62
     3
100
AcDbLine
 10
594.0700403763233
 20
456.4589258646702
 30
0.0
 11
594.0700403763233
 21
456.16603264587
 31
0.0
  0
LINE
  5
ED4
330
1A
100
AcDbEntity
  8
SEIHIN
  6
Continuous
 62
     3
100
AcDbLine
 10
594.0700403763233
 20
456.73827535287
 30
0.0
 11
594.0700403763233
 21
456.4589258646702
 31
0.0
  0
LINE
  5
ED5
330
1A
100
AcDbEntity
  8
SEIHIN
  6
Continuous
 62
     3
100
AcDbLine
 10
594.0700403763233
 20
460.4730670408701
 30
0.0
 11
594.0700403763233
 21
458.09017059487
 31
0.0
  0
LINE
  5
ED6
330
1A
100
AcDbEntity
  8
SEIHIN
  6
Continuous
 62
     3
100
AcDbLine
 10
419.1727078599233
 20
468.5518549196701
 30
0.0
 11
562.0700403763234
 21
468.55185491967
 31
0.0
  0
LINE
  5
ED7
330
1A
100
AcDbEntity
  8
SEIHIN
  6
Continuous
 62
     3
100
AcDbLine
 10
589.0707509145234
 20
470.7401580214701
 30
0.0
 11
416.9916709761234
 21
470.7401580214702
 31
0.0
  0
LINE
  5
ED8
330
1A
100
AcDbEntity
  8
SEIHIN
  6
Continuous
 62
     3
100
AcDbLine
 10
416.6053065911234
 20
470.6923853014702
 30
0.0
 11
416.9916709761234
 21
470.7328918034701
 31
0.0
  0
LINE
  5
ED9
330
1A
100
AcDbEntity
  8
SEIHIN
  6
Continuous
 62
     3
100
AcDbLine
 10
416.2340686139235
 20
470.5779521204701
 30
0.0
 11
416.6053065911234
 21
470.6923853014702
 31
0.0
  0
LINE
  5
EDA
330
1A
100
AcDbEntity
  8
SEIHIN
  6
Continuous
 62
     3
100
AcDbLine
 10
415.8919625239234
 20
470.3939094148701
 30
0.0
 11
416.2340686139235
 21
470.5779521204701
 31
0.0
  0
LINE
  5
EDB
330
1A
100
AcDbEntity
  8
SEIHIN
  6
Continuous
 62
     3
100
AcDbLine
 10
415.5918947587234
 20
470.1472004568701
 30
0.0
 11
415.8919625239234
 21
470.3939094148701
 31
0.0
  0
LINE
  5
EDC
330
1A
100
AcDbEntity
  8
SEIHIN
  6
Continuous
 62
     3
100
AcDbLine
 10
415.3451858007234
 20
469.8471326916703
 30
0.0
 11
415.5918947587234
 21
470.1472004568701
 31
0.0
  0
LINE
  5
EDD
330
1A
100
AcDbEntity
  8
SEIHIN
  6
Continuous
 62
     3
100
AcDbLine
 10
415.1611430951234
 20
469.5050266016702
 30
0.0
 11
415.3451858007234
 21
469.8471326916703
 31
0.0
  0
LINE
  5
EDE
330
1A
100
AcDbEntity
  8
SEIHIN
  6
Continuous
 62
     3
100
AcDbLine
 10
415.0467099141233
 20
469.1337886244702
 30
0.0
 11
415.1611430951234
 21
469.5050266016702
 31
0.0
  0
LINE
  5
EDF
330
1A
100
AcDbEntity
  8
SEIHIN
  6
Continuous
 62
     3
100
AcDbLine
 10
415.0062034121233
 20
468.7474242394702
 30
0.0
 11
415.0467099141233
 21
469.1337886244702
 31
0.0
  0
LINE
  5
EE0
330
1A
100
AcDbEntity
  8
SEIHIN
  6
Continuous
 62
     3
100
AcDbLine
 10
594.0700403763233
 20
468.7128897636701
 30
0.0
 11
594.0700403763233
 21
469.73052591127
 31
0.0
  0
LINE
  5
EE1
330
1A
100
AcDbEntity
  8
SEIHIN
  6
Continuous
 62
     3
100
AcDbLine
 10
594.0700403763233
 20
469.73298176707
 30
0.0
 11
589.0707509145234
 21
470.7401580214701
 31
0.0
  0
VIEWPORT
  5
22
330
17
100
AcDbEntity
 67
     1
  8
0
100
AcDbViewport
 10
313.6808219178083
 20
148.5
 30
0.0
 40
627.3616438356165
 41
297.0
 68
     2
 69
     1
 12
313.6808219178083
 22
148.5
 13
0.0
 23
0.0
 14
1.0
 24
1.0
 15
10.0
 25
10.0
 16
0.0
 26
0.0
 36
1.0
 17
0.0
 27
0.0
 37
0.0
 42
50.0
 43
0.0
 44
0.0
 45
297.0
 50
0.0
 51
0.0
 72
   100
 90
    32768
  1

281
     0
 71
     1
 74
     0
110
0.0
120
0.0
130
0.0
111
1.0
121
0.0
131
0.0
112
0.0
122
1.0
132
0.0
 79
     0
146
0.0
  0
VIEWPORT
  5
64
330
17
100
AcDbEntity
 67
     1
  8
VIEWPORT
100
AcDbViewport
 10
210.0
 20
148.5
 30
0.0
 40
420.0
 41
297.0
 68
     1
 69
     2
 12
420.0
 22
297.0
 13
0.0
 23
0.0
 14
10.0
 24
10.0
 15
0.0
 25
0.0
 16
0.0
 26
0.0
 36
1.0
 17
0.0
 27
0.0
 37
0.0
 42
50.0
 43
0.0
 44
0.0
 45
605.8799999999999
 50
0.0
 51
0.0
 72
   100
 90
    32768
  1

281
     0
 71
     1
 74
     0
110
0.0
120
0.0
130
0.0
111
1.0
121
0.0
131
0.0
112
0.0
122
1.0
132
0.0
 79
     0
146
0.0
  0
ENDSEC
  0
SECTION
  2
OBJECTS
  0
DICTIONARY
  5
C
330
0
100
AcDbDictionary
281
     1
  3
ACAD_GROUP
350
D
  3
ACAD_LAYOUT
350
4BC
  3
ACAD_MLINESTYLE
350
E
  3
ACAD_PLOTSETTINGS
350
4BD
  3
ACAD_PLOTSTYLENAME
350
4BA
  0
DICTIONARY
  5
D
102
{ACAD_REACTORS
330
C
102
}
330
C
100
AcDbDictionary
281
     1
  0
DICTIONARY
  5
4BC
102
{ACAD_REACTORS
330
C
102
}
330
C
100
AcDbDictionary
281
     1
  3
Model
350
4BE
  3
ﾚｲｱｳﾄ1
350
4BF
  0
DICTIONARY
  5
E
102
{ACAD_REACTORS
330
C
102
}
330
C
100
AcDbDictionary
281
     1
  3
STANDARD
350
13
  0
DICTIONARY
  5
4BD
102
{ACAD_REACTORS
330
C
102
}
330
C
100
AcDbDictionary
281
     1
  0
ACDBDICTIONARYWDFLT
  5
4BA
102
{ACAD_REACTORS
330
C
102
}
330
C
100
AcDbDictionary
281
     1
  3
Normal
350
4BB
100
AcDbDictionaryWithDefault
340
4BB
1001
ACAD
1000
TREAT_AS_HARD
1070
     0
1000
TREAT_AS_HARD
1070
     0
1000
TREAT_AS_HARD
1070
     0
1000
TREAT_AS_HARD
1070
     0
  0
LAYOUT
  5
4BE
102
{ACAD_REACTORS
330
4BC
102
}
330
4BC
100
AcDbPlotSettings
  1

  2
Canon LASER SHOT LBP-2360
  4
A3
  6

 40
5.873749732971191
 41
5.873747825622559
 42
5.873748779296875
 43
5.873748779296875
 44
296.9259948730469
 45
419.9466552734375
 46
0.0
 47
0.0
 48
0.0
 49
0.0
140
0.0
141
0.0
142
1.0
143
2.0
 70
 28336
 72
     1
 73
     1
 74
     2
  7
systemprinter.ctb
 75
    17
147
0.5
148
0.0
149
0.0
100
AcDbLayout
  1
Model
 70
     1
 71
     0
 10
0.0
 20
0.0
 11
12.0
 21
9.0
 12
0.0
 22
0.0
 32
0.0
 14
0.0
 24
0.0
 34
0.0
 15
0.0
 25
0.0
 35
0.0
146
0.0
 13
0.0
 23
0.0
 33
0.0
 16
1.0
 26
0.0
 36
0.0
 17
0.0
 27
1.0
 37
0.0
 76
     0
330
1A
  0
LAYOUT
  5
4BF
102
{ACAD_REACTORS
330
4BC
102
}
330
4BC
100
AcDbPlotSettings
  1

  2
Canon LBP-730 LIPS4
  4

  6

 40
0.0
 41
0.0
 42
0.0
 43
0.0
 44
0.0
 45
0.0
 46
0.0
 47
0.0
 48
0.0
 49
0.0
140
0.0
141
0.0
142
1.0
143
1.0
 70
   688
 72
     0
 73
     0
 74
     5
  7
systemprinter.ctb
 75
    16
147
1.0
148
0.0
149
0.0
100
AcDbLayout
  1
ﾚｲｱｳﾄ1
 70
     1
 71
     1
 10
0.0
 20
0.0
 11
420.0
 21
297.0
 12
0.0
 22
0.0
 32
0.0
 14
0.0
 24
0.0
 34
0.0
 15
420.0
 25
297.0
 35
0.0
146
0.0
 13
0.0
 23
0.0
 33
0.0
 16
1.0
 26
0.0
 36
0.0
 17
0.0
 27
1.0
 37
0.0
 76
     0
330
17
331
64
  0
MLINESTYLE
  5
13
102
{ACAD_REACTORS
330
E
102
}
330
E
100
AcDbMlineStyle
  2
STANDARD
 70
     0
  3

 62
     0
 51
90.0
 52
90.0
 71
     2
 49
0.5
 62
   256
  6
BYLAYER
 49
-0.5
 62
   256
  6
BYLAYER
  0
ACDBPLACEHOLDER
  5
4BB
102
{ACAD_REACTORS
330
4BA
102
}
330
4BA
  0
ENDSEC
  0
EOF
