  0
SECTION
  2
HEADER
  9
$ACADVER
  1
AC1015
  9
$ACADMAINTVER
 70
     6
  9
$DWGCODEPAGE
  3
ANSI_932
  9
$INSBASE
 10
0.0
 20
0.0
 30
0.0
  9
$EXTMIN
 10
0.0000003933412245
 20
-0.0000003446635901
 30
0.0
  9
$EXTMAX
 10
797.6000003933414
 20
551.5999996553366
 30
0.0
  9
$LIMMIN
 10
0.0
 20
0.0
  9
$LIMMAX
 10
840.0
 20
594.0
  9
$ORTHOMODE
 70
     0
  9
$REGENMODE
 70
     1
  9
$FILLMODE
 70
     1
  9
$QTEXTMODE
 70
     0
  9
$MIRRTEXT
 70
     1
  9
$LTSCALE
 40
2.0
  9
$ATTMODE
 70
     1
  9
$TEXTSIZE
 40
5.0
  9
$TRACEWID
 40
1.0
  9
$TEXTSTYLE
  7
STANDARD
  9
$CLAYER
  8
SUNPOU
  9
$CELTYPE
  6
BYLAYER
  9
$CECOLOR
 62
   256
  9
$CELTSCALE
 40
1.0
  9
$DISPSILH
 70
     0
  9
$DIMSCALE
 40
1.0
  9
$DIMASZ
 40
7.0
  9
$DIMEXO
 40
6.0
  9
$DIMDLI
 40
14.0
  9
$DIMRND
 40
0.0
  9
$DIMDLE
 40
0.0
  9
$DIMEXE
 40
3.0
  9
$DIMTP
 40
0.0
  9
$DIMTM
 40
0.0
  9
$DIMTXT
 40
6.0
  9
$DIMCEN
 40
150.0
  9
$DIMTSZ
 40
0.0
  9
$DIMTOL
 70
     0
  9
$DIMLIM
 70
     0
  9
$DIMTIH
 70
     0
  9
$DIMTOH
 70
     0
  9
$DIMSE1
 70
     0
  9
$DIMSE2
 70
     0
  9
$DIMTAD
 70
     3
  9
$DIMZIN
 70
     0
  9
$DIMBLK
  1

  9
$DIMASO
 70
     1
  9
$DIMSHO
 70
     1
  9
$DIMPOST
  1

  9
$DIMAPOST
  1

  9
$DIMALT
 70
     0
  9
$DIMALTD
 70
     2
  9
$DIMALTF
 40
25.4
  9
$DIMLFAC
 40
1.0
  9
$DIMTOFL
 70
     1
  9
$DIMTVP
 40
0.0
  9
$DIMTIX
 70
     0
  9
$DIMSOXD
 70
     0
  9
$DIMSAH
 70
     1
  9
$DIMBLK1
  1
OPEN
  9
$DIMBLK2
  1
OPEN
  9
$DIMSTYLE
  2
STANDARD
  9
$DIMCLRD
 70
   256
  9
$DIMCLRE
 70
   256
  9
$DIMCLRT
 70
   256
  9
$DIMTFAC
 40
1.0
  9
$DIMGAP
 40
2.0
  9
$DIMJUST
 70
     0
  9
$DIMSD1
 70
     0
  9
$DIMSD2
 70
     0
  9
$DIMTOLJ
 70
     1
  9
$DIMTZIN
 70
     0
  9
$DIMALTZ
 70
     0
  9
$DIMALTTZ
 70
     0
  9
$DIMUPT
 70
     0
  9
$DIMDEC
 70
     0
  9
$DIMTDEC
 70
     0
  9
$DIMALTU
 70
     2
  9
$DIMALTTD
 70
     2
  9
$DIMTXSTY
  7
STANDARD
  9
$DIMAUNIT
 70
     0
  9
$DIMADEC
 70
     0
  9
$DIMALTRND
 40
0.0
  9
$DIMAZIN
 70
     0
  9
$DIMDSEP
 70
    46
  9
$DIMATFIT
 70
     3
  9
$DIMFRAC
 70
     0
  9
$DIMLDRBLK
  1
OPEN
  9
$DIMLUNIT
 70
     2
  9
$DIMLWD
 70
    -1
  9
$DIMLWE
 70
    -1
  9
$DIMTMOVE
 70
     2
  9
$LUNITS
 70
     2
  9
$LUPREC
 70
     4
  9
$SKETCHINC
 40
1.0
  9
$FILLETRAD
 40
0.5
  9
$AUNITS
 70
     0
  9
$AUPREC
 70
     0
  9
$MENU
  1
.
  9
$ELEVATION
 40
0.0
  9
$PELEVATION
 40
0.0
  9
$THICKNESS
 40
0.0
  9
$LIMCHECK
 70
     0
  9
$CHAMFERA
 40
20.0
  9
$CHAMFERB
 40
20.0
  9
$CHAMFERC
 40
40.0
  9
$CHAMFERD
 40
0.0
  9
$SKPOLY
 70
     0
  9
$TDCREATE
 40
2451159.855623148
  9
$TDUCREATE
 40
2451159.480623148
  9
$TDUPDATE
 40
2455609.414089467
  9
$TDUUPDATE
 40
2455609.039089467
  9
$TDINDWG
 40
0.1573464931
  9
$TDUSRTIMER
 40
0.1573464931
  9
$USRTIMER
 70
     1
  9
$ANGBASE
 50
0.0
  9
$ANGDIR
 70
     0
  9
$PDMODE
 70
     0
  9
$PDSIZE
 40
0.0
  9
$PLINEWID
 40
0.0
  9
$SPLFRAME
 70
     0
  9
$SPLINETYPE
 70
     6
  9
$SPLINESEGS
 70
     8
  9
$HANDSEED
  5
2F3A
  9
$SURFTAB1
 70
     6
  9
$SURFTAB2
 70
     6
  9
$SURFTYPE
 70
     6
  9
$SURFU
 70
     6
  9
$SURFV
 70
     6
  9
$UCSBASE
  2

  9
$UCSNAME
  2

  9
$UCSORG
 10
0.0
 20
0.0
 30
0.0
  9
$UCSXDIR
 10
1.0
 20
0.0
 30
0.0
  9
$UCSYDIR
 10
0.0
 20
1.0
 30
0.0
  9
$UCSORTHOREF
  2

  9
$UCSORTHOVIEW
 70
     0
  9
$UCSORGTOP
 10
0.0
 20
0.0
 30
0.0
  9
$UCSORGBOTTOM
 10
0.0
 20
0.0
 30
0.0
  9
$UCSORGLEFT
 10
0.0
 20
0.0
 30
0.0
  9
$UCSORGRIGHT
 10
0.0
 20
0.0
 30
0.0
  9
$UCSORGFRONT
 10
0.0
 20
0.0
 30
0.0
  9
$UCSORGBACK
 10
0.0
 20
0.0
 30
0.0
  9
$PUCSBASE
  2

  9
$PUCSNAME
  2

  9
$PUCSORG
 10
0.0
 20
0.0
 30
0.0
  9
$PUCSXDIR
 10
1.0
 20
0.0
 30
0.0
  9
$PUCSYDIR
 10
0.0
 20
1.0
 30
0.0
  9
$PUCSORTHOREF
  2

  9
$PUCSORTHOVIEW
 70
     0
  9
$PUCSORGTOP
 10
0.0
 20
0.0
 30
0.0
  9
$PUCSORGBOTTOM
 10
0.0
 20
0.0
 30
0.0
  9
$PUCSORGLEFT
 10
0.0
 20
0.0
 30
0.0
  9
$PUCSORGRIGHT
 10
0.0
 20
0.0
 30
0.0
  9
$PUCSORGFRONT
 10
0.0
 20
0.0
 30
0.0
  9
$PUCSORGBACK
 10
0.0
 20
0.0
 30
0.0
  9
$USERI1
 70
     0
  9
$USERI2
 70
     0
  9
$USERI3
 70
     0
  9
$USERI4
 70
     0
  9
$USERI5
 70
     0
  9
$USERR1
 40
0.0
  9
$USERR2
 40
0.0
  9
$USERR3
 40
0.0
  9
$USERR4
 40
0.0
  9
$USERR5
 40
0.0
  9
$WORLDVIEW
 70
     1
  9
$SHADEDGE
 70
     3
  9
$SHADEDIF
 70
    70
  9
$TILEMODE
 70
     1
  9
$MAXACTVP
 70
    16
  9
$PINSBASE
 10
0.0
 20
0.0
 30
0.0
  9
$PLIMCHECK
 70
     0
  9
$PEXTMIN
 10
0.0
 20
0.0
 30
0.0
  9
$PEXTMAX
 10
420.0
 20
297.0
 30
0.0
  9
$PLIMMIN
 10
0.0
 20
0.0
  9
$PLIMMAX
 10
420.0
 20
297.0
  9
$UNITMODE
 70
     0
  9
$VISRETAIN
 70
     0
  9
$PLINEGEN
 70
     0
  9
$PSLTSCALE
 70
     1
  9
$TREEDEPTH
 70
  3020
  9
$CMLSTYLE
  2
STANDARD
  9
$CMLJUST
 70
     0
  9
$CMLSCALE
 40
1.0
  9
$PROXYGRAPHICS
 70
     1
  9
$MEASUREMENT
 70
     1
  9
$CELWEIGHT
370
    -1
  9
$ENDCAPS
280
     0
  9
$JOINSTYLE
280
     0
  9
$LWDISPLAY
290
     0
  9
$INSUNITS
 70
     0
  9
$HYPERLINKBASE
  1

  9
$STYLESHEET
  1
print.ctb
  9
$XEDIT
290
     1
  9
$CEPSNTYPE
380
     0
  9
$PSTYLEMODE
290
     1
  9
$FINGERPRINTGUID
  2
{844639E2-177E-11D4-932C-444553540000}
  9
$VERSIONGUID
  2
{2B069D8E-B148-4DA2-BD90-22A2B222DEF5}
  9
$EXTNAMES
290
     1
  9
$PSVPSCALE
 40
0.0
  9
$OLESTARTUP
290
     0
  0
ENDSEC
  0
SECTION
  2
CLASSES
  0
CLASS
  1
ACDBDICTIONARYWDFLT
  2
AcDbDictionaryWithDefault
  3
ObjectDBX Classes
 90
        0
280
     0
281
     0
  0
CLASS
  1
ACDBPLACEHOLDER
  2
AcDbPlaceHolder
  3
ObjectDBX Classes
 90
        0
280
     0
281
     0
  0
CLASS
  1
LAYOUT
  2
AcDbLayout
  3
ObjectDBX Classes
 90
        0
280
     0
281
     0
  0
CLASS
  1
DUMMY
  2
AcDbLongTransaction
  3
DUMMY
 90
        0
280
     0
281
     0
  0
CLASS
  1
LWPOLYLINE
  2
AcDbPolyline
  3
AutoCAD 2000
 90
        0
280
     0
281
     1
  0
CLASS
  1
HATCH
  2
AcDbHatch
  3
AutoCAD 2000
 90
        0
280
     0
281
     1
  0
CLASS
  1
XRECORD
  2
AcDbXrecord
  3
AutoCAD 2000
 90
        0
280
     0
281
     0
  0
CLASS
  1
DUMMY
  2
AcDbLongTransaction
  3
DUMMY
 90
        0
280
     0
281
     0
  0
CLASS
  1
LWPOLYLINE
  2
AcDbPolyline
  3
AutoCAD 2000
 90
        0
280
     0
281
     1
  0
CLASS
  1
HATCH
  2
AcDbHatch
  3
AutoCAD 2000
 90
        0
280
     0
281
     1
  0
CLASS
  1
XRECORD
  2
AcDbXrecord
  3
AutoCAD 2000
 90
        0
280
     0
281
     0
  0
CLASS
  1
DUMMY
  2
AcDbLongTransaction
  3
DUMMY
 90
        0
280
     0
281
     0
  0
CLASS
  1
LWPOLYLINE
  2
AcDbPolyline
  3
AutoCAD 2000
 90
        0
280
     0
281
     1
  0
CLASS
  1
HATCH
  2
AcDbHatch
  3
AutoCAD 2000
 90
        0
280
     0
281
     1
  0
CLASS
  1
XRECORD
  2
AcDbXrecord
  3
AutoCAD 2000
 90
        0
280
     0
281
     0
  0
CLASS
  1
DUMMY
  2
AcDbLongTransaction
  3
DUMMY
 90
        0
280
     0
281
     0
  0
CLASS
  1
LWPOLYLINE
  2
AcDbPolyline
  3
AutoCAD 2000
 90
        0
280
     0
281
     1
  0
CLASS
  1
HATCH
  2
AcDbHatch
  3
AutoCAD 2000
 90
        0
280
     0
281
     1
  0
CLASS
  1
XRECORD
  2
AcDbXrecord
  3
AutoCAD 2000
 90
        0
280
     0
281
     0
  0
CLASS
  1
DUMMY
  2
AcDbLongTransaction
  3
DUMMY
 90
        0
280
     0
281
     0
  0
CLASS
  1
LWPOLYLINE
  2
AcDbPolyline
  3
AutoCAD 2000
 90
        0
280
     0
281
     1
  0
CLASS
  1
HATCH
  2
AcDbHatch
  3
AutoCAD 2000
 90
        0
280
     0
281
     1
  0
CLASS
  1
XRECORD
  2
AcDbXrecord
  3
AutoCAD 2000
 90
        0
280
     0
281
     0
  0
CLASS
  1
DUMMY
  2
AcDbLongTransaction
  3
DUMMY
 90
        0
280
     0
281
     0
  0
CLASS
  1
LWPOLYLINE
  2
AcDbPolyline
  3
AutoCAD 2000
 90
        0
280
     0
281
     1
  0
CLASS
  1
HATCH
  2
AcDbHatch
  3
AutoCAD 2000
 90
        0
280
     0
281
     1
  0
CLASS
  1
XRECORD
  2
AcDbXrecord
  3
AutoCAD 2000
 90
        0
280
     0
281
     0
  0
ENDSEC
  0
SECTION
  2
TABLES
  0
TABLE
  2
VPORT
  5
8
330
0
100
AcDbSymbolTable
 70
     2
  0
VPORT
  5
2F39
330
8
100
AcDbSymbolTableRecord
100
AcDbViewportTableRecord
  2
*Active
 70
     0
 10
0.0
 20
0.0
 11
1.0
 21
1.0
 12
458.8560832709571
 22
252.9440824561226
 13
0.0
 23
0.0
 14
5.0
 24
5.0
 15
0.0
 25
0.0
 16
0.0
 26
0.0
 36
1.0
 17
0.0
 27
0.0
 37
0.0
 40
735.4945260419829
 41
1.651537335285505
 42
50.0
 43
0.0
 44
0.0
 50
0.0
 51
0.0
 71
     0
 72
   100
 73
     1
 74
     0
 75
     0
 76
     0
 77
     0
 78
     0
281
     0
 65
     1
110
0.0
120
0.0
130
0.0
111
1.0
121
0.0
131
0.0
112
0.0
122
1.0
132
0.0
 79
     0
146
0.0
  0
ENDTAB
  0
TABLE
  2
LTYPE
  5
5
330
0
100
AcDbSymbolTable
 70
     3
  0
LTYPE
  5
14
330
5
100
AcDbSymbolTableRecord
100
AcDbLinetypeTableRecord
  2
BYBLOCK
 70
     0
  3

 72
    65
 73
     0
 40
0.0
  0
LTYPE
  5
15
330
5
100
AcDbSymbolTableRecord
100
AcDbLinetypeTableRecord
  2
BYLAYER
 70
     0
  3

 72
    65
 73
     0
 40
0.0
  0
LTYPE
  5
16
330
5
100
AcDbSymbolTableRecord
100
AcDbLinetypeTableRecord
  2
CONTINUOUS
 70
     0
  3
Solid line
 72
    65
 73
     0
 40
0.0
  0
LTYPE
  5
115
330
5
100
AcDbSymbolTableRecord
100
AcDbLinetypeTableRecord
  2
PHANTOM
 70
     0
  3
______  __  __  ______  __  __  ______  __  __ 
 72
    65
 73
     6
 40
2.5
 49
1.25
 74
     0
 49
-0.25
 74
     0
 49
0.25
 74
     0
 49
-0.25
 74
     0
 49
0.25
 74
     0
 49
-0.25
 74
     0
  0
LTYPE
  5
135
330
5
100
AcDbSymbolTableRecord
100
AcDbLinetypeTableRecord
  2
CENTER
 70
     0
  3
____ _ ____ _ ____ _ ____ _ ____ _ ____ _ ____ 
 72
    65
 73
     4
 40
2.0
 49
1.25
 74
     0
 49
-0.25
 74
     0
 49
0.25
 74
     0
 49
-0.25
 74
     0
  0
ENDTAB
  0
TABLE
  2
LAYER
  5
2
330
0
100
AcDbSymbolTable
 70
     9
  0
LAYER
  5
F
330
2
100
AcDbSymbolTableRecord
100
AcDbLayerTableRecord
  2
0
 70
     0
 62
     7
  6
CONTINUOUS
370
    -3
390
C41
  0
LAYER
  5
62
330
2
100
AcDbSymbolTableRecord
100
AcDbLayerTableRecord
  2
VIEWPORT
 70
     0
 62
     7
  6
CONTINUOUS
370
    -3
390
C41
  0
LAYER
  5
65
330
2
100
AcDbSymbolTableRecord
100
AcDbLayerTableRecord
  2
ZUWAKU
 70
     0
 62
     7
  6
CONTINUOUS
370
    -3
390
C41
  0
LAYER
  5
143
330
2
100
AcDbSymbolTableRecord
100
AcDbLayerTableRecord
  2
NOKITOI
 70
     0
 62
     9
  6
PHANTOM
370
    -3
390
C41
  0
LAYER
  5
144
330
2
100
AcDbSymbolTableRecord
100
AcDbLayerTableRecord
  2
SEIHIN
 70
     0
 62
     3
  6
CONTINUOUS
370
    -3
390
C41
  0
LAYER
  5
3CD
330
2
100
AcDbSymbolTableRecord
100
AcDbLayerTableRecord
  2
CENTER L
 70
     0
 62
     1
  6
CENTER
370
    -3
390
C41
  0
LAYER
  5
3CE
330
2
100
AcDbSymbolTableRecord
100
AcDbLayerTableRecord
  2
SUNPOU
 70
     0
 62
     4
  6
CONTINUOUS
370
    -3
390
C41
  0
LAYER
  5
6E3
330
2
100
AcDbSymbolTableRecord
100
AcDbLayerTableRecord
  2
DEFPOINTS
 70
     0
 62
     7
  6
CONTINUOUS
290
     0
370
    -3
390
C41
  0
LAYER
  5
15FD
330
2
100
AcDbSymbolTableRecord
100
AcDbLayerTableRecord
  2
moji
 70
     0
 62
     2
  6
CONTINUOUS
370
    -3
390
C41
  0
ENDTAB
  0
TABLE
  2
STYLE
  5
3
330
0
100
AcDbSymbolTable
 70
     2
  0
STYLE
  5
10
330
3
100
AcDbSymbolTableRecord
100
AcDbTextStyleTableRecord
  2
STANDARD
 70
     0
 40
0.0
 41
1.0
 50
0.0
 71
     0
 42
5.0
  3
TXT
  4
a:\program files\autocad lt\ms\bigfont.shx
  0
STYLE
  5
15FE
330
3
100
AcDbSymbolTableRecord
100
AcDbTextStyleTableRecord
  2
ｽﾀｲﾙ1
 70
     0
 40
0.0
 41
1.0
 50
0.0
 71
     0
 42
2.5
  3
MS PGothic.ttf
  4

1001
ACAD
1000
MS PGothic
1071
    32818
  0
ENDTAB
  0
TABLE
  2
VIEW
  5
6
330
0
100
AcDbSymbolTable
 70
     0
  0
ENDTAB
  0
TABLE
  2
UCS
  5
7
330
0
100
AcDbSymbolTable
 70
     0
  0
ENDTAB
  0
TABLE
  2
APPID
  5
9
330
0
100
AcDbSymbolTable
 70
     1
  0
APPID
  5
11
330
9
100
AcDbSymbolTableRecord
100
AcDbRegAppTableRecord
  2
ACAD
 70
     0
  0
ENDTAB
  0
TABLE
  2
DIMSTYLE
  5
A
330
0
100
AcDbSymbolTable
 70
     1
100
AcDbDimStyleTable
  0
DIMSTYLE
105
1D
102
{ACAD_REACTORS
330
2002
330
200B
330
200C
330
201F
330
2022
330
2034
330
28AB
330
28AF
330
28ED
330
2978
330
2979
330
297A
330
297B
330
297C
330
297D
330
297E
330
2998
330
2999
330
299A
330
29C3
330
2F1D
102
}
330
A
100
AcDbSymbolTableRecord
100
AcDbDimStyleTableRecord
  2
STANDARD
 70
     0
340
10
  0
ENDTAB
  0
TABLE
  2
BLOCK_RECORD
  5
1
330
0
100
AcDbSymbolTable
 70
    22
  0
BLOCK_RECORD
  5
1A
330
1
100
AcDbSymbolTableRecord
100
AcDbBlockTableRecord
  2
*MODEL_SPACE
340
C44
  0
BLOCK_RECORD
  5
17
330
1
100
AcDbSymbolTableRecord
100
AcDbBlockTableRecord
  2
*PAPER_SPACE
340
C45
  0
BLOCK_RECORD
  5
6D
330
1
100
AcDbSymbolTableRecord
100
AcDbBlockTableRecord
  2
_OPEN
340
0
102
{BLKREFS
331
2173
331
2174
331
217C
331
217D
331
2185
331
2186
331
218E
331
218F
331
2197
331
2198
331
21A2
331
21A3
331
2AC0
331
2AC1
331
2AC9
331
2ACA
331
2AD2
331
2AD3
331
2ADB
331
2ADC
331
2AE4
331
2AE5
331
2AEF
331
2AF0
331
2AF8
331
2AF9
331
2B01
331
2B02
331
2B0A
331
2B0B
331
2B13
331
2B14
331
2B27
331
2B28
331
2B30
331
2B31
331
2B39
331
2B3A
331
2B44
331
2B45
331
2F2D
331
2F2E
102
}
  0
BLOCK_RECORD
  5
20CA
330
1
100
AcDbSymbolTableRecord
100
AcDbBlockTableRecord
  2
*D1
340
0
  0
BLOCK_RECORD
  5
20D6
330
1
100
AcDbSymbolTableRecord
100
AcDbBlockTableRecord
  2
*D2
340
0
  0
BLOCK_RECORD
  5
20E2
330
1
100
AcDbSymbolTableRecord
100
AcDbBlockTableRecord
  2
*D3
340
0
  0
BLOCK_RECORD
  5
20EE
330
1
100
AcDbSymbolTableRecord
100
AcDbBlockTableRecord
  2
*D4
340
0
  0
BLOCK_RECORD
  5
20FA
330
1
100
AcDbSymbolTableRecord
100
AcDbBlockTableRecord
  2
*D5
340
0
  0
BLOCK_RECORD
  5
2106
330
1
100
AcDbSymbolTableRecord
100
AcDbBlockTableRecord
  2
*D6
340
0
  0
BLOCK_RECORD
  5
2A03
330
1
100
AcDbSymbolTableRecord
100
AcDbBlockTableRecord
  2
*D7
340
0
  0
BLOCK_RECORD
  5
2A0F
330
1
100
AcDbSymbolTableRecord
100
AcDbBlockTableRecord
  2
*D8
340
0
  0
BLOCK_RECORD
  5
2A1B
330
1
100
AcDbSymbolTableRecord
100
AcDbBlockTableRecord
  2
*D9
340
0
  0
BLOCK_RECORD
  5
2A27
330
1
100
AcDbSymbolTableRecord
100
AcDbBlockTableRecord
  2
*D10
340
0
  0
BLOCK_RECORD
  5
2A33
330
1
100
AcDbSymbolTableRecord
100
AcDbBlockTableRecord
  2
*D11
340
0
  0
BLOCK_RECORD
  5
2A3F
330
1
100
AcDbSymbolTableRecord
100
AcDbBlockTableRecord
  2
*D12
340
0
  0
BLOCK_RECORD
  5
2A4D
330
1
100
AcDbSymbolTableRecord
100
AcDbBlockTableRecord
  2
*D13
340
0
  0
BLOCK_RECORD
  5
2A59
330
1
100
AcDbSymbolTableRecord
100
AcDbBlockTableRecord
  2
*D14
340
0
  0
BLOCK_RECORD
  5
2A65
330
1
100
AcDbSymbolTableRecord
100
AcDbBlockTableRecord
  2
*D15
340
0
  0
BLOCK_RECORD
  5
2A71
330
1
100
AcDbSymbolTableRecord
100
AcDbBlockTableRecord
  2
*D16
340
0
  0
BLOCK_RECORD
  5
2A89
330
1
100
AcDbSymbolTableRecord
100
AcDbBlockTableRecord
  2
*D17
340
0
  0
BLOCK_RECORD
  5
2A97
330
1
100
AcDbSymbolTableRecord
100
AcDbBlockTableRecord
  2
*D18
340
0
  0
BLOCK_RECORD
  5
2AA3
330
1
100
AcDbSymbolTableRecord
100
AcDbBlockTableRecord
  2
*D19
340
0
  0
BLOCK_RECORD
  5
2AAF
330
1
100
AcDbSymbolTableRecord
100
AcDbBlockTableRecord
  2
*D20
340
0
  0
BLOCK_RECORD
  5
2F1E
330
1
100
AcDbSymbolTableRecord
100
AcDbBlockTableRecord
  2
*D21
340
0
  0
ENDTAB
  0
ENDSEC
  0
SECTION
  2
BLOCKS
  0
BLOCK
  5
1B
330
1A
100
AcDbEntity
  8
0
100
AcDbBlockBegin
  2
*MODEL_SPACE
 70
     0
 71
     0
 10
0.0
 20
0.0
 30
0.0
  3
*MODEL_SPACE
  1

  0
ENDBLK
  5
1C
330
1A
100
AcDbEntity
  8
0
100
AcDbBlockEnd
  0
BLOCK
  5
18
330
17
100
AcDbEntity
 67
     1
  8
0
100
AcDbBlockBegin
  2
*PAPER_SPACE
 70
     0
 71
     0
 10
0.0
 20
0.0
 30
0.0
  3
*PAPER_SPACE
  1

  0
ENDBLK
  5
19
330
17
100
AcDbEntity
 67
     1
  8
0
100
AcDbBlockEnd
  0
BLOCK
  5
6E
330
6D
100
AcDbEntity
  8
0
100
AcDbBlockBegin
  2
_OPEN
 70
     0
 71
     0
 10
0.0
 20
0.0
 30
0.0
  3
_OPEN
  1

  0
LINE
  5
6F
330
6D
100
AcDbEntity
  8
0
  6
ByBlock
 62
     0
100
AcDbLine
 10
-1.0
 20
0.1666666666666667
 30
0.0
 11
0.0
 21
0.0
 31
0.0
  0
LINE
  5
70
330
6D
100
AcDbEntity
  8
0
  6
ByBlock
 62
     0
100
AcDbLine
 10
0.0
 20
0.0
 30
0.0
 11
-1.0
 21
-0.1666666666666667
 31
0.0
  0
LINE
  5
71
330
6D
100
AcDbEntity
  8
0
  6
ByBlock
 62
     0
100
AcDbLine
 10
0.0
 20
0.0
 30
0.0
 11
-1.0
 21
0.0
 31
0.0
  0
ENDBLK
  5
72
330
6D
100
AcDbEntity
  8
0
100
AcDbBlockEnd
  0
BLOCK
  5
20D4
330
20CA
100
AcDbEntity
  8
0
100
AcDbBlockBegin
  2
*D1
 70
     1
 71
     0
 10
0.0
 20
0.0
 30
0.0
  3
*D1
  1

  0
LINE
  5
2170
330
20CA
100
AcDbEntity
  8
SUNPOU
 62
     4
370
    -2
100
AcDbLine
 10
530.6116922931437
 20
453.2854054052098
 30
0.0
 11
530.6116922931437
 21
489.7506008261465
 31
0.0
  0
LINE
  5
2171
330
20CA
100
AcDbEntity
  8
SUNPOU
 62
     4
370
    -2
100
AcDbLine
 10
600.6116922931437
 20
453.2854054052098
 30
0.0
 11
600.6116922931437
 21
489.7506008261465
 31
0.0
  0
LINE
  5
2172
330
20CA
100
AcDbEntity
  8
SUNPOU
 62
     4
370
    -2
100
AcDbLine
 10
534.1116922931437
 20
488.2506008261465
 30
0.0
 11
597.1116922931437
 21
488.2506008261465
 31
0.0
  0
INSERT
  5
2173
330
20CA
100
AcDbEntity
  8
SUNPOU
 62
     4
370
    -2
100
AcDbBlockReference
  2
_OPEN
 10
530.6116922931437
 20
488.2506008261465
 30
0.0
 41
3.5
 42
3.5
 43
3.5
 50
180.0
  0
INSERT
  5
2174
330
20CA
100
AcDbEntity
  8
SUNPOU
 62
     4
370
    -2
100
AcDbBlockReference
  2
_OPEN
 10
600.6116922931437
 20
488.2506008261465
 30
0.0
 41
3.5
 42
3.5
 43
3.5
  0
MTEXT
  5
2175
330
20CA
100
AcDbEntity
  8
SUNPOU
 62
     4
100
AcDbMText
 10
565.6116922931437
 20
492.2506008261465
 30
0.0
 40
6.0
 41
0.0
 71
     5
 72
     1
  1
\A1;70
 73
     1
 44
1.0
  0
POINT
  5
2176
330
20CA
100
AcDbEntity
  8
DEFPOINTS
 62
     0
100
AcDbPoint
 10
530.6116922931437
 20
450.2854054052098
 30
0.0
  0
POINT
  5
2177
330
20CA
100
AcDbEntity
  8
DEFPOINTS
 62
     0
100
AcDbPoint
 10
600.6116922931437
 20
450.2854054052098
 30
0.0
  0
POINT
  5
2178
330
20CA
100
AcDbEntity
  8
DEFPOINTS
 62
     0
100
AcDbPoint
 10
600.6116922931437
 20
488.2506008261465
 30
0.0
  0
ENDBLK
  5
20D5
330
20CA
100
AcDbEntity
  8
0
100
AcDbBlockEnd
  0
BLOCK
  5
20E0
330
20D6
100
AcDbEntity
  8
0
100
AcDbBlockBegin
  2
*D2
 70
     1
 71
     0
 10
0.0
 20
0.0
 30
0.0
  3
*D2
  1

  0
LINE
  5
2179
330
20D6
100
AcDbEntity
  8
SUNPOU
 62
     4
370
    -2
100
AcDbLine
 10
603.6116922931437
 20
450.2854054052098
 30
0.0
 11
615.8716755349431
 21
450.2854054052098
 31
0.0
  0
LINE
  5
217A
330
20D6
100
AcDbEntity
  8
SUNPOU
 62
     4
370
    -2
100
AcDbLine
 10
591.2597831592437
 20
432.2854054052097
 30
0.0
 11
615.8716755349431
 21
432.2854054052097
 31
0.0
  0
LINE
  5
217B
330
20D6
100
AcDbEntity
  8
SUNPOU
 62
     4
370
    -2
100
AcDbLine
 10
614.3716755349431
 20
446.7854054052098
 30
0.0
 11
614.3716755349431
 21
435.7854054052097
 31
0.0
  0
INSERT
  5
217C
330
20D6
100
AcDbEntity
  8
SUNPOU
 62
     4
370
    -2
100
AcDbBlockReference
  2
_OPEN
 10
614.3716755349431
 20
450.2854054052098
 30
0.0
 41
3.5
 42
3.5
 43
3.5
 50
90.0
  0
INSERT
  5
217D
330
20D6
100
AcDbEntity
  8
SUNPOU
 62
     4
370
    -2
100
AcDbBlockReference
  2
_OPEN
 10
614.3716755349431
 20
432.2854054052097
 30
0.0
 41
3.5
 42
3.5
 43
3.5
 50
270.0
  0
MTEXT
  5
217E
330
20D6
100
AcDbEntity
  8
SUNPOU
 62
     4
100
AcDbMText
 10
610.3716755349429
 20
441.2854054052098
 30
0.0
 40
6.0
 41
0.0
 71
     5
 72
     1
  1
\A1;18
 11
6.123031769111886E-17
 21
1.0
 31
0.0
 73
     1
 44
1.0
  0
POINT
  5
217F
330
20D6
100
AcDbEntity
  8
DEFPOINTS
 62
     0
100
AcDbPoint
 10
600.6116922931437
 20
450.2854054052098
 30
0.0
  0
POINT
  5
2180
330
20D6
100
AcDbEntity
  8
DEFPOINTS
 62
     0
100
AcDbPoint
 10
588.2597831592437
 20
432.2854054052097
 30
0.0
  0
POINT
  5
2181
330
20D6
100
AcDbEntity
  8
DEFPOINTS
 62
     0
100
AcDbPoint
 10
614.3716755349431
 20
432.2854054052097
 30
0.0
  0
ENDBLK
  5
20E1
330
20D6
100
AcDbEntity
  8
0
100
AcDbBlockEnd
  0
BLOCK
  5
20EC
330
20E2
100
AcDbEntity
  8
0
100
AcDbBlockBegin
  2
*D3
 70
     1
 71
     0
 10
0.0
 20
0.0
 30
0.0
  3
*D3
  1

  0
LINE
  5
2182
330
20E2
100
AcDbEntity
  8
SUNPOU
 62
     4
370
    -2
100
AcDbLine
 10
561.6116922931437
 20
460.2854054052098
 30
0.0
 11
628.8148895007613
 21
460.2854054052098
 31
0.0
  0
LINE
  5
2183
330
20E2
100
AcDbEntity
  8
SUNPOU
 62
     4
370
    -2
100
AcDbLine
 10
568.6116922931437
 20
430.2854054052098
 30
0.0
 11
628.8148895007613
 21
430.2854054052098
 31
0.0
  0
LINE
  5
2184
330
20E2
100
AcDbEntity
  8
SUNPOU
 62
     4
370
    -2
100
AcDbLine
 10
627.3148895007613
 20
456.7854054052098
 30
0.0
 11
627.3148895007613
 21
433.7854054052098
 31
0.0
  0
INSERT
  5
2185
330
20E2
100
AcDbEntity
  8
SUNPOU
 62
     4
370
    -2
100
AcDbBlockReference
  2
_OPEN
 10
627.3148895007613
 20
460.2854054052098
 30
0.0
 41
3.5
 42
3.5
 43
3.5
 50
90.0
  0
INSERT
  5
2186
330
20E2
100
AcDbEntity
  8
SUNPOU
 62
     4
370
    -2
100
AcDbBlockReference
  2
_OPEN
 10
627.3148895007613
 20
430.2854054052098
 30
0.0
 41
3.5
 42
3.5
 43
3.5
 50
270.0
  0
MTEXT
  5
2187
330
20E2
100
AcDbEntity
  8
SUNPOU
 62
     4
100
AcDbMText
 10
623.3148895007612
 20
445.2854054052098
 30
0.0
 40
6.0
 41
0.0
 71
     5
 72
     1
  1
\A1;30
 11
6.123031769111886E-17
 21
1.0
 31
0.0
 73
     1
 44
1.0
  0
POINT
  5
2188
330
20E2
100
AcDbEntity
  8
DEFPOINTS
 62
     0
100
AcDbPoint
 10
558.6116922931437
 20
460.2854054052098
 30
0.0
  0
POINT
  5
2189
330
20E2
100
AcDbEntity
  8
DEFPOINTS
 62
     0
100
AcDbPoint
 10
565.6116922931437
 20
430.2854054052098
 30
0.0
  0
POINT
  5
218A
330
20E2
100
AcDbEntity
  8
DEFPOINTS
 62
     0
100
AcDbPoint
 10
627.3148895007613
 20
430.2854054052098
 30
0.0
  0
ENDBLK
  5
20ED
330
20E2
100
AcDbEntity
  8
0
100
AcDbBlockEnd
  0
BLOCK
  5
20F8
330
20EE
100
AcDbEntity
  8
0
100
AcDbBlockBegin
  2
*D4
 70
     1
 71
     0
 10
0.0
 20
0.0
 30
0.0
  3
*D4
  1

  0
LINE
  5
218B
330
20EE
100
AcDbEntity
  8
SUNPOU
 62
     4
370
    -2
100
AcDbLine
 10
555.6116922931437
 20
460.2854054052098
 30
0.0
 11
555.6116922931437
 21
473.8672851621869
 31
0.0
  0
LINE
  5
218C
330
20EE
100
AcDbEntity
  8
SUNPOU
 62
     4
370
    -2
100
AcDbLine
 10
575.6116922931437
 20
460.2854054052098
 30
0.0
 11
575.6116922931437
 21
473.8672851621869
 31
0.0
  0
LINE
  5
218D
330
20EE
100
AcDbEntity
  8
SUNPOU
 62
     4
370
    -2
100
AcDbLine
 10
559.1116922931437
 20
472.3672851621869
 30
0.0
 11
572.1116922931437
 21
472.3672851621869
 31
0.0
  0
INSERT
  5
218E
330
20EE
100
AcDbEntity
  8
SUNPOU
 62
     4
370
    -2
100
AcDbBlockReference
  2
_OPEN
 10
555.6116922931437
 20
472.3672851621869
 30
0.0
 41
3.5
 42
3.5
 43
3.5
 50
180.0
  0
INSERT
  5
218F
330
20EE
100
AcDbEntity
  8
SUNPOU
 62
     4
370
    -2
100
AcDbBlockReference
  2
_OPEN
 10
575.6116922931437
 20
472.3672851621869
 30
0.0
 41
3.5
 42
3.5
 43
3.5
  0
MTEXT
  5
2190
330
20EE
100
AcDbEntity
  8
SUNPOU
 62
     4
100
AcDbMText
 10
565.6116922931437
 20
476.3672851621869
 30
0.0
 40
6.0
 41
0.0
 71
     5
 72
     1
  1
\A1;20
 73
     1
 44
1.0
  0
POINT
  5
2191
330
20EE
100
AcDbEntity
  8
DEFPOINTS
 62
     0
100
AcDbPoint
 10
555.6116922931437
 20
457.2854054052098
 30
0.0
  0
POINT
  5
2192
330
20EE
100
AcDbEntity
  8
DEFPOINTS
 62
     0
100
AcDbPoint
 10
575.6116922931437
 20
457.2854054052098
 30
0.0
  0
POINT
  5
2193
330
20EE
100
AcDbEntity
  8
DEFPOINTS
 62
     0
100
AcDbPoint
 10
575.6116922931437
 20
472.3672851621869
 30
0.0
  0
ENDBLK
  5
20F9
330
20EE
100
AcDbEntity
  8
0
100
AcDbBlockEnd
  0
BLOCK
  5
2104
330
20FA
100
AcDbEntity
  8
0
100
AcDbBlockBegin
  2
*D5
 70
     1
 71
     0
 10
0.0
 20
0.0
 30
0.0
  3
*D5
  1

  0
LINE
  5
2194
330
20FA
100
AcDbEntity
  8
SUNPOU
 62
     4
370
    -2
100
AcDbLine
 10
585.6116922931437
 20
453.2854054052098
 30
0.0
 11
585.6116922931437
 21
473.8672851621869
 31
0.0
  0
LINE
  5
2195
330
20FA
100
AcDbEntity
  8
SUNPOU
 62
     4
370
    -2
100
AcDbLine
 10
600.6116922931437
 20
453.2854054052098
 30
0.0
 11
600.6116922931437
 21
473.8672851621869
 31
0.0
  0
LINE
  5
2196
330
20FA
100
AcDbEntity
  8
SUNPOU
 62
     4
370
    -2
100
AcDbLine
 10
589.1116922931437
 20
472.3672851621869
 30
0.0
 11
597.1116922931437
 21
472.3672851621869
 31
0.0
  0
INSERT
  5
2197
330
20FA
100
AcDbEntity
  8
SUNPOU
 62
     4
370
    -2
100
AcDbBlockReference
  2
_OPEN
 10
585.6116922931437
 20
472.3672851621869
 30
0.0
 41
3.5
 42
3.5
 43
3.5
 50
180.0
  0
INSERT
  5
2198
330
20FA
100
AcDbEntity
  8
SUNPOU
 62
     4
370
    -2
100
AcDbBlockReference
  2
_OPEN
 10
600.6116922931437
 20
472.3672851621869
 30
0.0
 41
3.5
 42
3.5
 43
3.5
  0
MTEXT
  5
2199
330
20FA
100
AcDbEntity
  8
SUNPOU
 62
     4
100
AcDbMText
 10
593.1116922931437
 20
476.3672851621869
 30
0.0
 40
6.0
 41
0.0
 71
     5
 72
     1
  1
\A1;15
 73
     1
 44
1.0
  0
POINT
  5
219A
330
20FA
100
AcDbEntity
  8
DEFPOINTS
 62
     0
100
AcDbPoint
 10
585.6116922931437
 20
450.2854054052098
 30
0.0
  0
POINT
  5
219B
330
20FA
100
AcDbEntity
  8
DEFPOINTS
 62
     0
100
AcDbPoint
 10
600.6116922931437
 20
450.2854054052098
 30
0.0
  0
POINT
  5
219C
330
20FA
100
AcDbEntity
  8
DEFPOINTS
 62
     0
100
AcDbPoint
 10
600.6116922931437
 20
472.3672851621869
 30
0.0
  0
ENDBLK
  5
2105
330
20FA
100
AcDbEntity
  8
0
100
AcDbBlockEnd
  0
BLOCK
  5
2112
330
2106
100
AcDbEntity
  8
0
100
AcDbBlockBegin
  2
*D6
 70
     1
 71
     0
 10
0.0
 20
0.0
 30
0.0
  3
*D6
  1

  0
LINE
  5
219D
330
2106
100
AcDbEntity
  8
SUNPOU
 62
     4
370
    -2
100
AcDbLine
 10
652.2070764990158
 20
461.7854054052098
 30
0.0
 11
652.2070764990158
 21
473.8672851621869
 31
0.0
  0
LINE
  5
219E
330
2106
100
AcDbEntity
  8
SUNPOU
 62
     4
370
    -2
100
AcDbLine
 10
660.207076499016
 20
451.7854054052097
 30
0.0
 11
660.207076499016
 21
473.8672851621869
 31
0.0
  0
LINE
  5
219F
330
2106
100
AcDbEntity
  8
SUNPOU
 62
     4
370
    -2
100
AcDbLine
 10
648.7070764990158
 20
472.3672851621869
 30
0.0
 11
645.2070764990158
 21
472.3672851621869
 31
0.0
  0
LINE
  5
21A0
330
2106
100
AcDbEntity
  8
SUNPOU
 62
     4
370
    -2
100
AcDbLine
 10
663.707076499016
 20
472.3672851621869
 30
0.0
 11
667.207076499016
 21
472.3672851621869
 31
0.0
  0
LINE
  5
21A1
330
2106
100
AcDbEntity
  8
SUNPOU
 62
     4
370
    -2
100
AcDbLine
 10
652.2070764990158
 20
472.3672851621869
 30
0.0
 11
660.207076499016
 21
472.3672851621869
 31
0.0
  0
INSERT
  5
21A2
330
2106
100
AcDbEntity
  8
SUNPOU
 62
     4
370
    -2
100
AcDbBlockReference
  2
_OPEN
 10
652.2070764990158
 20
472.3672851621869
 30
0.0
 41
3.5
 42
3.5
 43
3.5
  0
INSERT
  5
21A3
330
2106
100
AcDbEntity
  8
SUNPOU
 62
     4
370
    -2
100
AcDbBlockReference
  2
_OPEN
 10
660.207076499016
 20
472.3672851621869
 30
0.0
 41
3.5
 42
3.5
 43
3.5
 50
180.0
  0
MTEXT
  5
21A4
330
2106
100
AcDbEntity
  8
SUNPOU
 62
     4
100
AcDbMText
 10
656.2070764990159
 20
476.3672851621869
 30
0.0
 40
6.0
 41
0.0
 71
     5
 72
     1
  1
\A1;8
 73
     1
 44
1.0
  0
POINT
  5
21A5
330
2106
100
AcDbEntity
  8
DEFPOINTS
 62
     0
100
AcDbPoint
 10
652.2070764990158
 20
458.7854054052098
 30
0.0
  0
POINT
  5
21A6
330
2106
100
AcDbEntity
  8
DEFPOINTS
 62
     0
100
AcDbPoint
 10
660.207076499016
 20
448.7854054052097
 30
0.0
  0
POINT
  5
21A7
330
2106
100
AcDbEntity
  8
DEFPOINTS
 62
     0
100
AcDbPoint
 10
660.207076499016
 20
472.3672851621869
 30
0.0
  0
ENDBLK
  5
2113
330
2106
100
AcDbEntity
  8
0
100
AcDbBlockEnd
  0
BLOCK
  5
2A0D
330
2A03
100
AcDbEntity
  8
0
100
AcDbBlockBegin
  2
*D7
 70
     1
 71
     0
 10
0.0
 20
0.0
 30
0.0
  3
*D7
  1

  0
LINE
  5
2ABD
330
2A03
100
AcDbEntity
  8
SUNPOU
 62
     4
370
    -2
100
AcDbLine
 10
122.7042181006957
 20
276.1064289981478
 30
0.0
 11
122.7042181006957
 21
309.5982574347324
 31
0.0
  0
LINE
  5
2ABE
330
2A03
100
AcDbEntity
  8
SUNPOU
 62
     4
370
    -2
100
AcDbLine
 10
342.7048181006957
 20
276.1059289981479
 30
0.0
 11
342.7048181006957
 21
309.5982574347324
 31
0.0
  0
LINE
  5
2ABF
330
2A03
100
AcDbEntity
  8
SUNPOU
 62
     4
370
    -2
100
AcDbLine
 10
129.7042181006957
 20
306.5982574347324
 30
0.0
 11
335.7048181006957
 21
306.5982574347324
 31
0.0
  0
INSERT
  5
2AC0
330
2A03
100
AcDbEntity
  8
SUNPOU
 62
     4
370
    -2
100
AcDbBlockReference
  2
_OPEN
 10
122.7042181006957
 20
306.5982574347324
 30
0.0
 41
7.0
 42
7.0
 43
7.0
 50
180.0
  0
INSERT
  5
2AC1
330
2A03
100
AcDbEntity
  8
SUNPOU
 62
     4
370
    -2
100
AcDbBlockReference
  2
_OPEN
 10
342.7048181006957
 20
306.5982574347324
 30
0.0
 41
7.0
 42
7.0
 43
7.0
  0
MTEXT
  5
2AC2
330
2A03
100
AcDbEntity
  8
SUNPOU
 62
     4
100
AcDbMText
 10
232.7045181006957
 20
311.5982574347324
 30
0.0
 40
6.0
 41
0.0
 71
     5
 72
     1
  1
\A1;220
 73
     1
 44
1.0
  0
POINT
  5
2AC3
330
2A03
100
AcDbEntity
  8
DEFPOINTS
 62
     0
100
AcDbPoint
 10
122.7042181006957
 20
270.1064289981478
 30
0.0
  0
POINT
  5
2AC4
330
2A03
100
AcDbEntity
  8
DEFPOINTS
 62
     0
100
AcDbPoint
 10
342.7048181006957
 20
270.1059289981479
 30
0.0
  0
POINT
  5
2AC5
330
2A03
100
AcDbEntity
  8
DEFPOINTS
 62
     0
100
AcDbPoint
 10
342.7048181006957
 20
306.5982574347324
 30
0.0
  0
ENDBLK
  5
2A0E
330
2A03
100
AcDbEntity
  8
0
100
AcDbBlockEnd
  0
BLOCK
  5
2A19
330
2A0F
100
AcDbEntity
  8
0
100
AcDbBlockBegin
  2
*D8
 70
     1
 71
     0
 10
0.0
 20
0.0
 30
0.0
  3
*D8
  1

  0
LINE
  5
2AC6
330
2A0F
100
AcDbEntity
  8
SUNPOU
 62
     4
370
    -2
100
AcDbLine
 10
153.7041463054793
 20
148.206431097473
 30
0.0
 11
153.7041463054793
 21
56.32995437589852
 31
0.0
  0
LINE
  5
2AC7
330
2A0F
100
AcDbEntity
  8
SUNPOU
 62
     4
370
    -2
100
AcDbLine
 10
311.7044829192275
 20
148.2061247995099
 30
0.0
 11
311.7044829192275
 21
56.32995437589852
 31
0.0
  0
LINE
  5
2AC8
330
2A0F
100
AcDbEntity
  8
SUNPOU
 62
     4
370
    -2
100
AcDbLine
 10
160.7041463054793
 20
59.32995437589852
 30
0.0
 11
304.7044829192275
 21
59.32995437589852
 31
0.0
  0
INSERT
  5
2AC9
330
2A0F
100
AcDbEntity
  8
SUNPOU
 62
     4
370
    -2
100
AcDbBlockReference
  2
_OPEN
 10
153.7041463054793
 20
59.32995437589852
 30
0.0
 41
7.0
 42
7.0
 43
7.0
 50
180.0
  0
INSERT
  5
2ACA
330
2A0F
100
AcDbEntity
  8
SUNPOU
 62
     4
370
    -2
100
AcDbBlockReference
  2
_OPEN
 10
311.7044829192275
 20
59.32995437589852
 30
0.0
 41
7.0
 42
7.0
 43
7.0
  0
MTEXT
  5
2ACB
330
2A0F
100
AcDbEntity
  8
SUNPOU
 62
     4
100
AcDbMText
 10
232.7043146123534
 20
64.32995437589852
 30
0.0
 40
6.0
 41
0.0
 71
     5
 72
     1
  1
\A1;158
 73
     1
 44
1.0
  0
POINT
  5
2ACC
330
2A0F
100
AcDbEntity
  8
DEFPOINTS
 62
     0
100
AcDbPoint
 10
153.7041463054793
 20
154.206431097473
 30
0.0
  0
POINT
  5
2ACD
330
2A0F
100
AcDbEntity
  8
DEFPOINTS
 62
     0
100
AcDbPoint
 10
311.7044829192275
 20
154.2061247995099
 30
0.0
  0
POINT
  5
2ACE
330
2A0F
100
AcDbEntity
  8
DEFPOINTS
 62
     0
100
AcDbPoint
 10
311.7044829192275
 20
59.32995437589852
 30
0.0
  0
ENDBLK
  5
2A1A
330
2A0F
100
AcDbEntity
  8
0
100
AcDbBlockEnd
  0
BLOCK
  5
2A25
330
2A1B
100
AcDbEntity
  8
0
100
AcDbBlockBegin
  2
*D9
 70
     1
 71
     0
 10
0.0
 20
0.0
 30
0.0
  3
*D9
  1

  0
LINE
  5
2ACF
330
2A1B
100
AcDbEntity
  8
SUNPOU
 62
     4
370
    -2
100
AcDbLine
 10
262.7048181006957
 20
390.4891112458128
 30
0.0
 11
262.7048181006957
 21
337.4962892565018
 31
0.0
  0
LINE
  5
2AD0
330
2A1B
100
AcDbEntity
  8
SUNPOU
 62
     4
370
    -2
100
AcDbLine
 10
202.7048498089484
 20
390.4892157751923
 30
0.0
 11
202.7048498089484
 21
337.4962892565018
 31
0.0
  0
LINE
  5
2AD1
330
2A1B
100
AcDbEntity
  8
SUNPOU
 62
     4
370
    -2
100
AcDbLine
 10
255.7048181006957
 20
340.4962892565018
 30
0.0
 11
209.7048498089484
 21
340.4962892565018
 31
0.0
  0
INSERT
  5
2AD2
330
2A1B
100
AcDbEntity
  8
SUNPOU
 62
     4
370
    -2
100
AcDbBlockReference
  2
_OPEN
 10
262.7048181006957
 20
340.4962892565018
 30
0.0
 41
7.0
 42
7.0
 43
7.0
  0
INSERT
  5
2AD3
330
2A1B
100
AcDbEntity
  8
SUNPOU
 62
     4
370
    -2
100
AcDbBlockReference
  2
_OPEN
 10
202.7048498089484
 20
340.4962892565018
 30
0.0
 41
7.0
 42
7.0
 43
7.0
 50
180.0
  0
MTEXT
  5
2AD4
330
2A1B
100
AcDbEntity
  8
SUNPOU
 62
     4
100
AcDbMText
 10
232.7048339548221
 20
345.4962892565018
 30
0.0
 40
6.0
 41
0.0
 71
     5
 72
     1
  1
\A1;※a 60
 73
     1
 44
1.0
  0
POINT
  5
2AD5
330
2A1B
100
AcDbEntity
  8
DEFPOINTS
 62
     0
100
AcDbPoint
 10
262.7048181006957
 20
396.4891112458128
 30
0.0
  0
POINT
  5
2AD6
330
2A1B
100
AcDbEntity
  8
DEFPOINTS
 62
     0
100
AcDbPoint
 10
202.7048498089484
 20
396.4892157751923
 30
0.0
  0
POINT
  5
2AD7
330
2A1B
100
AcDbEntity
  8
DEFPOINTS
 62
     0
100
AcDbPoint
 10
202.7048498089484
 20
340.4962892565018
 30
0.0
  0
ENDBLK
  5
2A26
330
2A1B
100
AcDbEntity
  8
0
100
AcDbBlockEnd
  0
BLOCK
  5
2A31
330
2A27
100
AcDbEntity
  8
0
100
AcDbBlockBegin
  2
*D10
 70
     1
 71
     0
 10
0.0
 20
0.0
 30
0.0
  3
*D10
  1

  0
LINE
  5
2AD8
330
2A27
100
AcDbEntity
  8
SUNPOU
 62
     4
370
    -2
100
AcDbLine
 10
483.0154527461739
 20
276.1059289981479
 30
0.0
 11
483.0154527461739
 21
309.258726187695
 31
0.0
  0
LINE
  5
2AD9
330
2A27
100
AcDbEntity
  8
SUNPOU
 62
     4
370
    -2
100
AcDbLine
 10
648.015552746174
 20
252.7060289981478
 30
0.0
 11
648.015552746174
 21
309.258726187695
 31
0.0
  0
LINE
  5
2ADA
330
2A27
100
AcDbEntity
  8
SUNPOU
 62
     4
370
    -2
100
AcDbLine
 10
490.0154527461739
 20
306.258726187695
 30
0.0
 11
641.015552746174
 21
306.258726187695
 31
0.0
  0
INSERT
  5
2ADB
330
2A27
100
AcDbEntity
  8
SUNPOU
 62
     4
370
    -2
100
AcDbBlockReference
  2
_OPEN
 10
483.0154527461739
 20
306.258726187695
 30
0.0
 41
7.0
 42
7.0
 43
7.0
 50
180.0
  0
INSERT
  5
2ADC
330
2A27
100
AcDbEntity
  8
SUNPOU
 62
     4
370
    -2
100
AcDbBlockReference
  2
_OPEN
 10
648.015552746174
 20
306.258726187695
 30
0.0
 41
7.0
 42
7.0
 43
7.0
  0
MTEXT
  5
2ADD
330
2A27
100
AcDbEntity
  8
SUNPOU
 62
     4
100
AcDbMText
 10
565.515502746174
 20
311.258726187695
 30
0.0
 40
6.0
 41
0.0
 71
     5
 72
     1
  1
\A1;165
 73
     1
 44
1.0
  0
POINT
  5
2ADE
330
2A27
100
AcDbEntity
  8
DEFPOINTS
 62
     0
100
AcDbPoint
 10
483.0154527461739
 20
270.1059289981479
 30
0.0
  0
POINT
  5
2ADF
330
2A27
100
AcDbEntity
  8
DEFPOINTS
 62
     0
100
AcDbPoint
 10
648.015552746174
 20
246.7060289981478
 30
0.0
  0
POINT
  5
2AE0
330
2A27
100
AcDbEntity
  8
DEFPOINTS
 62
     0
100
AcDbPoint
 10
648.015552746174
 20
306.258726187695
 30
0.0
  0
ENDBLK
  5
2A32
330
2A27
100
AcDbEntity
  8
0
100
AcDbBlockEnd
  0
BLOCK
  5
2A3D
330
2A33
100
AcDbEntity
  8
0
100
AcDbBlockBegin
  2
*D11
 70
     1
 71
     0
 10
0.0
 20
0.0
 30
0.0
  3
*D11
  1

  0
LINE
  5
2AE1
330
2A33
100
AcDbEntity
  8
SUNPOU
 62
     4
370
    -2
100
AcDbLine
 10
584.4154527461739
 20
190.4393702019324
 30
0.0
 11
584.4154527461739
 21
294.6429242556853
 31
0.0
  0
LINE
  5
2AE2
330
2A33
100
AcDbEntity
  8
SUNPOU
 62
     4
370
    -2
100
AcDbLine
 10
648.015552746174
 20
252.7060289981478
 30
0.0
 11
648.015552746174
 21
294.6429242556853
 31
0.0
  0
LINE
  5
2AE3
330
2A33
100
AcDbEntity
  8
SUNPOU
 62
     4
370
    -2
100
AcDbLine
 10
591.4154527461739
 20
291.6429242556853
 30
0.0
 11
641.015552746174
 21
291.6429242556853
 31
0.0
  0
INSERT
  5
2AE4
330
2A33
100
AcDbEntity
  8
SUNPOU
 62
     4
370
    -2
100
AcDbBlockReference
  2
_OPEN
 10
584.4154527461739
 20
291.6429242556853
 30
0.0
 41
7.0
 42
7.0
 43
7.0
 50
180.0
  0
INSERT
  5
2AE5
330
2A33
100
AcDbEntity
  8
SUNPOU
 62
     4
370
    -2
100
AcDbBlockReference
  2
_OPEN
 10
648.015552746174
 20
291.6429242556853
 30
0.0
 41
7.0
 42
7.0
 43
7.0
  0
MTEXT
  5
2AE6
330
2A33
100
AcDbEntity
  8
SUNPOU
 62
     4
100
AcDbMText
 10
616.2155027461739
 20
296.6429242556853
 30
0.0
 40
6.0
 41
0.0
 71
     5
 72
     1
  1
\A1;64
 73
     1
 44
1.0
  0
POINT
  5
2AE7
330
2A33
100
AcDbEntity
  8
DEFPOINTS
 62
     0
100
AcDbPoint
 10
584.4154527461739
 20
184.4393702019324
 30
0.0
  0
POINT
  5
2AE8
330
2A33
100
AcDbEntity
  8
DEFPOINTS
 62
     0
100
AcDbPoint
 10
648.015552746174
 20
246.7060289981478
 30
0.0
  0
POINT
  5
2AE9
330
2A33
100
AcDbEntity
  8
DEFPOINTS
 62
     0
100
AcDbPoint
 10
648.015552746174
 20
291.6429242556853
 30
0.0
  0
ENDBLK
  5
2A3E
330
2A33
100
AcDbEntity
  8
0
100
AcDbBlockEnd
  0
BLOCK
  5
2A4B
330
2A3F
100
AcDbEntity
  8
0
100
AcDbBlockBegin
  2
*D12
 70
     1
 71
     0
 10
0.0
 20
0.0
 30
0.0
  3
*D12
  1

  0
LINE
  5
2AEA
330
2A3F
100
AcDbEntity
  8
SUNPOU
 62
     4
370
    -2
100
AcDbLine
 10
636.6220266734737
 20
104.8168531871887
 30
0.0
 11
670.8627594736536
 21
104.8168531871887
 31
0.0
  0
LINE
  5
2AEB
330
2A3F
100
AcDbEntity
  8
SUNPOU
 62
     4
370
    -2
100
AcDbLine
 10
635.5153527461738
 20
94.70572899814783
 30
0.0
 11
670.8627594736536
 21
94.70572899814783
 31
0.0
  0
LINE
  5
2AEC
330
2A3F
100
AcDbEntity
  8
SUNPOU
 62
     4
370
    -2
100
AcDbLine
 10
667.8627594736536
 20
111.8168531871887
 30
0.0
 11
667.8627594736536
 21
118.8168531871887
 31
0.0
  0
LINE
  5
2AED
330
2A3F
100
AcDbEntity
  8
SUNPOU
 62
     4
370
    -2
100
AcDbLine
 10
667.8627594736536
 20
87.70572899814783
 30
0.0
 11
667.8627594736536
 21
52.90572899814782
 31
0.0
  0
LINE
  5
2AEE
330
2A3F
100
AcDbEntity
  8
SUNPOU
 62
     4
370
    -2
100
AcDbLine
 10
667.8627594736536
 20
104.8168531871887
 30
0.0
 11
667.8627594736536
 21
94.70572899814783
 31
0.0
  0
INSERT
  5
2AEF
330
2A3F
100
AcDbEntity
  8
SUNPOU
 62
     4
370
    -2
100
AcDbBlockReference
  2
_OPEN
 10
667.8627594736536
 20
104.8168531871887
 30
0.0
 41
7.0
 42
7.0
 43
7.0
 50
270.0
  0
INSERT
  5
2AF0
330
2A3F
100
AcDbEntity
  8
SUNPOU
 62
     4
370
    -2
100
AcDbBlockReference
  2
_OPEN
 10
667.8627594736536
 20
94.70572899814783
 30
0.0
 41
7.0
 42
7.0
 43
7.0
 50
90.0
  0
MTEXT
  5
2AF1
330
2A3F
100
AcDbEntity
  8
SUNPOU
 62
     4
100
AcDbMText
 10
662.8627594736536
 20
66.80572899814793
 30
0.0
 40
6.0
 41
0.0
 71
     5
 72
     1
  1
\A1;※b 10
 11
6.123031769111886E-17
 21
1.0
 31
0.0
 73
     1
 44
1.0
  0
POINT
  5
2AF2
330
2A3F
100
AcDbEntity
  8
DEFPOINTS
 62
     0
100
AcDbPoint
 10
630.6220266734737
 20
104.8168531871887
 30
0.0
  0
POINT
  5
2AF3
330
2A3F
100
AcDbEntity
  8
DEFPOINTS
 62
     0
100
AcDbPoint
 10
629.5153527461738
 20
94.70572899814783
 30
0.0
  0
POINT
  5
2AF4
330
2A3F
100
AcDbEntity
  8
DEFPOINTS
 62
     0
100
AcDbPoint
 10
667.8627594736536
 20
94.70572899814783
 30
0.0
  0
ENDBLK
  5
2A4C
330
2A3F
100
AcDbEntity
  8
0
100
AcDbBlockEnd
  0
BLOCK
  5
2A57
330
2A4D
100
AcDbEntity
  8
0
100
AcDbBlockBegin
  2
*D13
 70
     1
 71
     0
 10
0.0
 20
0.0
 30
0.0
  3
*D13
  1

  0
LINE
  5
2AF5
330
2A4D
100
AcDbEntity
  8
SUNPOU
 62
     4
370
    -2
100
AcDbLine
 10
654.015552746174
 20
246.7060289981478
 30
0.0
 11
699.5252829429105
 21
246.7060289981478
 31
0.0
  0
LINE
  5
2AF6
330
2A4D
100
AcDbEntity
  8
SUNPOU
 62
     4
370
    -2
100
AcDbLine
 10
633.5542527461739
 20
177.2059289981478
 30
0.0
 11
699.5252829429105
 21
177.2059289981478
 31
0.0
  0
LINE
  5
2AF7
330
2A4D
100
AcDbEntity
  8
SUNPOU
 62
     4
370
    -2
100
AcDbLine
 10
696.5252829429105
 20
239.7060289981478
 30
0.0
 11
696.5252829429105
 21
184.2059289981478
 31
0.0
  0
INSERT
  5
2AF8
330
2A4D
100
AcDbEntity
  8
SUNPOU
 62
     4
370
    -2
100
AcDbBlockReference
  2
_OPEN
 10
696.5252829429105
 20
246.7060289981478
 30
0.0
 41
7.0
 42
7.0
 43
7.0
 50
90.0
  0
INSERT
  5
2AF9
330
2A4D
100
AcDbEntity
  8
SUNPOU
 62
     4
370
    -2
100
AcDbBlockReference
  2
_OPEN
 10
696.5252829429105
 20
177.2059289981478
 30
0.0
 41
7.0
 42
7.0
 43
7.0
 50
270.0
  0
MTEXT
  5
2AFA
330
2A4D
100
AcDbEntity
  8
SUNPOU
 62
     4
100
AcDbMText
 10
691.5252829429105
 20
211.9559789981479
 30
0.0
 40
6.0
 41
0.0
 71
     5
 72
     1
  1
\A1;70
 11
6.123031769111886E-17
 21
1.0
 31
0.0
 73
     1
 44
1.0
  0
POINT
  5
2AFB
330
2A4D
100
AcDbEntity
  8
DEFPOINTS
 62
     0
100
AcDbPoint
 10
648.015552746174
 20
246.7060289981478
 30
0.0
  0
POINT
  5
2AFC
330
2A4D
100
AcDbEntity
  8
DEFPOINTS
 62
     0
100
AcDbPoint
 10
627.5542527461739
 20
177.2059289981478
 30
0.0
  0
POINT
  5
2AFD
330
2A4D
100
AcDbEntity
  8
DEFPOINTS
 62
     0
100
AcDbPoint
 10
696.5252829429105
 20
177.2059289981478
 30
0.0
  0
ENDBLK
  5
2A58
330
2A4D
100
AcDbEntity
  8
0
100
AcDbBlockEnd
  0
BLOCK
  5
2A63
330
2A59
100
AcDbEntity
  8
0
100
AcDbBlockBegin
  2
*D14
 70
     1
 71
     0
 10
0.0
 20
0.0
 30
0.0
  3
*D14
  1

  0
LINE
  5
2AFE
330
2A59
100
AcDbEntity
  8
SUNPOU
 62
     4
370
    -2
100
AcDbLine
 10
524.0154868904732
 20
148.2059289981478
 30
0.0
 11
524.0154868904732
 21
40.39312381030391
 31
0.0
  0
LINE
  5
2AFF
330
2A59
100
AcDbEntity
  8
SUNPOU
 62
     4
370
    -2
100
AcDbLine
 10
640.6081120054331
 20
148.2059289981478
 30
0.0
 11
640.6081120054331
 21
40.39312381030391
 31
0.0
  0
LINE
  5
2B00
330
2A59
100
AcDbEntity
  8
SUNPOU
 62
     4
370
    -2
100
AcDbLine
 10
531.0154868904732
 20
43.39312381030391
 30
0.0
 11
633.6081120054331
 21
43.39312381030391
 31
0.0
  0
INSERT
  5
2B01
330
2A59
100
AcDbEntity
  8
SUNPOU
 62
     4
370
    -2
100
AcDbBlockReference
  2
_OPEN
 10
524.0154868904732
 20
43.39312381030391
 30
0.0
 41
7.0
 42
7.0
 43
7.0
 50
180.0
  0
INSERT
  5
2B02
330
2A59
100
AcDbEntity
  8
SUNPOU
 62
     4
370
    -2
100
AcDbBlockReference
  2
_OPEN
 10
640.6081120054331
 20
43.39312381030391
 30
0.0
 41
7.0
 42
7.0
 43
7.0
  0
MTEXT
  5
2B03
330
2A59
100
AcDbEntity
  8
SUNPOU
 62
     4
100
AcDbMText
 10
582.3117994479532
 20
48.39312381030391
 30
0.0
 40
6.0
 41
0.0
 71
     5
 72
     1
  1
\A1;117
 73
     1
 44
1.0
  0
POINT
  5
2B04
330
2A59
100
AcDbEntity
  8
DEFPOINTS
 62
     0
100
AcDbPoint
 10
524.0154868904732
 20
154.2059289981478
 30
0.0
  0
POINT
  5
2B05
330
2A59
100
AcDbEntity
  8
DEFPOINTS
 62
     0
100
AcDbPoint
 10
640.6081120054331
 20
154.2059289981478
 30
0.0
  0
POINT
  5
2B06
330
2A59
100
AcDbEntity
  8
DEFPOINTS
 62
     0
100
AcDbPoint
 10
640.6081120054331
 20
43.39312381030391
 30
0.0
  0
ENDBLK
  5
2A64
330
2A59
100
AcDbEntity
  8
0
100
AcDbBlockEnd
  0
BLOCK
  5
2A6F
330
2A65
100
AcDbEntity
  8
0
100
AcDbBlockBegin
  2
*D15
 70
     1
 71
     0
 10
0.0
 20
0.0
 30
0.0
  3
*D15
  1

  0
LINE
  5
2B07
330
2A65
100
AcDbEntity
  8
SUNPOU
 62
     4
370
    -2
100
AcDbLine
 10
477.0154527461739
 20
270.1059289981479
 30
0.0
 11
397.7244474505151
 21
270.1059289981479
 31
0.0
  0
LINE
  5
2B08
330
2A65
100
AcDbEntity
  8
SUNPOU
 62
     4
370
    -2
100
AcDbLine
 10
545.7656527461739
 20
87.20582899814787
 30
0.0
 11
397.7244474505151
 21
87.20582899814792
 31
0.0
  0
LINE
  5
2B09
330
2A65
100
AcDbEntity
  8
SUNPOU
 62
     4
370
    -2
100
AcDbLine
 10
400.7244474505151
 20
263.1059289981479
 30
0.0
 11
400.7244474505151
 21
94.20582899814792
 31
0.0
  0
INSERT
  5
2B0A
330
2A65
100
AcDbEntity
  8
SUNPOU
 62
     4
370
    -2
100
AcDbBlockReference
  2
_OPEN
 10
400.7244474505151
 20
270.1059289981479
 30
0.0
 41
7.0
 42
7.0
 43
7.0
 50
90.0
  0
INSERT
  5
2B0B
330
2A65
100
AcDbEntity
  8
SUNPOU
 62
     4
370
    -2
100
AcDbBlockReference
  2
_OPEN
 10
400.7244474505151
 20
87.20582899814792
 30
0.0
 41
7.0
 42
7.0
 43
7.0
 50
270.0
  0
MTEXT
  5
2B0C
330
2A65
100
AcDbEntity
  8
SUNPOU
 62
     4
100
AcDbMText
 10
395.7244474505151
 20
178.655878998148
 30
0.0
 40
6.0
 41
0.0
 71
     5
 72
     1
  1
\A1;183
 11
6.123031769111886E-17
 21
1.0
 31
0.0
 73
     1
 44
1.0
  0
POINT
  5
2B0D
330
2A65
100
AcDbEntity
  8
DEFPOINTS
 62
     0
100
AcDbPoint
 10
483.0154527461739
 20
270.1059289981479
 30
0.0
  0
POINT
  5
2B0E
330
2A65
100
AcDbEntity
  8
DEFPOINTS
 62
     0
100
AcDbPoint
 10
551.7656527461739
 20
87.20582899814787
 30
0.0
  0
POINT
  5
2B0F
330
2A65
100
AcDbEntity
  8
DEFPOINTS
 62
     0
100
AcDbPoint
 10
400.7244474505151
 20
87.20582899814792
 30
0.0
  0
ENDBLK
  5
2A70
330
2A65
100
AcDbEntity
  8
0
100
AcDbBlockEnd
  0
BLOCK
  5
2A7B
330
2A71
100
AcDbEntity
  8
0
100
AcDbBlockBegin
  2
*D16
 70
     1
 71
     0
 10
0.0
 20
0.0
 30
0.0
  3
*D16
  1

  0
LINE
  5
2B10
330
2A71
100
AcDbEntity
  8
SUNPOU
 62
     4
370
    -2
100
AcDbLine
 10
531.4514674856617
 20
138.2332790198853
 30
0.0
 11
417.9174941020474
 21
138.2332790198853
 31
0.0
  0
LINE
  5
2B11
330
2A71
100
AcDbEntity
  8
SUNPOU
 62
     4
370
    -2
100
AcDbLine
 10
540.515552746174
 20
94.70582899814788
 30
0.0
 11
417.9174941020474
 21
94.70582899814791
 31
0.0
  0
LINE
  5
2B12
330
2A71
100
AcDbEntity
  8
SUNPOU
 62
     4
370
    -2
100
AcDbLine
 10
420.9174941020474
 20
131.2332790198853
 30
0.0
 11
420.9174941020474
 21
101.7058289981479
 31
0.0
  0
INSERT
  5
2B13
330
2A71
100
AcDbEntity
  8
SUNPOU
 62
     4
370
    -2
100
AcDbBlockReference
  2
_OPEN
 10
420.9174941020474
 20
138.2332790198853
 30
0.0
 41
7.0
 42
7.0
 43
7.0
 50
90.0
  0
INSERT
  5
2B14
330
2A71
100
AcDbEntity
  8
SUNPOU
 62
     4
370
    -2
100
AcDbBlockReference
  2
_OPEN
 10
420.9174941020474
 20
94.70582899814791
 30
0.0
 41
7.0
 42
7.0
 43
7.0
 50
270.0
  0
MTEXT
  5
2B15
330
2A71
100
AcDbEntity
  8
SUNPOU
 62
     4
100
AcDbMText
 10
415.9174941020474
 20
116.4695540090167
 30
0.0
 40
6.0
 41
0.0
 71
     5
 72
     1
  1
\A1;44
 11
6.123031769111886E-17
 21
1.0
 31
0.0
 73
     1
 44
1.0
  0
POINT
  5
2B16
330
2A71
100
AcDbEntity
  8
DEFPOINTS
 62
     0
100
AcDbPoint
 10
537.4514674856617
 20
138.2332790198853
 30
0.0
  0
POINT
  5
2B17
330
2A71
100
AcDbEntity
  8
DEFPOINTS
 62
     0
100
AcDbPoint
 10
546.515552746174
 20
94.70582899814787
 30
0.0
  0
POINT
  5
2B18
330
2A71
100
AcDbEntity
  8
DEFPOINTS
 62
     0
100
AcDbPoint
 10
420.9174941020474
 20
94.70582899814791
 30
0.0
  0
ENDBLK
  5
2A7C
330
2A71
100
AcDbEntity
  8
0
100
AcDbBlockEnd
  0
BLOCK
  5
2A95
330
2A89
100
AcDbEntity
  8
0
100
AcDbBlockBegin
  2
*D17
 70
     1
 71
     0
 10
0.0
 20
0.0
 30
0.0
  3
*D17
  1

  0
LINE
  5
2B22
330
2A89
100
AcDbEntity
  8
SUNPOU
 62
     4
370
    -2
100
AcDbLine
 10
519.7715527461738
 20
154.2059289981478
 30
0.0
 11
417.9174941020474
 21
154.2059289981479
 31
0.0
  0
LINE
  5
2B23
330
2A89
100
AcDbEntity
  8
SUNPOU
 62
     4
370
    -2
100
AcDbLine
 10
531.7810527461739
 20
138.2059289981478
 30
0.0
 11
417.9174941020474
 21
138.2059289981479
 31
0.0
  0
LINE
  5
2B24
330
2A89
100
AcDbEntity
  8
SUNPOU
 62
     4
370
    -2
100
AcDbLine
 10
420.9174941020474
 20
161.2059289981479
 30
0.0
 11
420.9174941020474
 21
168.2059289981479
 31
0.0
  0
LINE
  5
2B25
330
2A89
100
AcDbEntity
  8
SUNPOU
 62
     4
370
    -2
100
AcDbLine
 10
420.9174941020474
 20
131.2059289981479
 30
0.0
 11
420.9174941020473
 21
124.2059289981479
 31
0.0
  0
LINE
  5
2B26
330
2A89
100
AcDbEntity
  8
SUNPOU
 62
     4
370
    -2
100
AcDbLine
 10
420.9174941020474
 20
154.2059289981479
 30
0.0
 11
420.9174941020474
 21
138.2059289981479
 31
0.0
  0
INSERT
  5
2B27
330
2A89
100
AcDbEntity
  8
SUNPOU
 62
     4
370
    -2
100
AcDbBlockReference
  2
_OPEN
 10
420.9174941020474
 20
154.2059289981479
 30
0.0
 41
7.0
 42
7.0
 43
7.0
 50
270.0
  0
INSERT
  5
2B28
330
2A89
100
AcDbEntity
  8
SUNPOU
 62
     4
370
    -2
100
AcDbBlockReference
  2
_OPEN
 10
420.9174941020474
 20
138.2059289981479
 30
0.0
 41
7.0
 42
7.0
 43
7.0
 50
90.0
  0
MTEXT
  5
2B29
330
2A89
100
AcDbEntity
  8
SUNPOU
 62
     4
100
AcDbMText
 10
415.9174941020473
 20
146.2059289981479
 30
0.0
 40
6.0
 41
0.0
 71
     5
 72
     1
  1
\A1;16
 11
6.123031769111886E-17
 21
1.0
 31
0.0
 73
     1
 44
1.0
  0
POINT
  5
2B2A
330
2A89
100
AcDbEntity
  8
DEFPOINTS
 62
     0
100
AcDbPoint
 10
525.7715527461738
 20
154.2059289981478
 30
0.0
  0
POINT
  5
2B2B
330
2A89
100
AcDbEntity
  8
DEFPOINTS
 62
     0
100
AcDbPoint
 10
537.7810527461739
 20
138.2059289981478
 30
0.0
  0
POINT
  5
2B2C
330
2A89
100
AcDbEntity
  8
DEFPOINTS
 62
     0
100
AcDbPoint
 10
420.9174941020474
 20
138.2059289981479
 30
0.0
  0
ENDBLK
  5
2A96
330
2A89
100
AcDbEntity
  8
0
100
AcDbBlockEnd
  0
BLOCK
  5
2AA1
330
2A97
100
AcDbEntity
  8
0
100
AcDbBlockBegin
  2
*D18
 70
     1
 71
     0
 10
0.0
 20
0.0
 30
0.0
  3
*D18
  1

  0
LINE
  5
2B2D
330
2A97
100
AcDbEntity
  8
SUNPOU
 62
     4
370
    -2
100
AcDbLine
 10
477.0154527461739
 20
270.1059289981479
 30
0.0
 11
417.9174941020474
 21
270.1059289981479
 31
0.0
  0
LINE
  5
2B2E
330
2A97
100
AcDbEntity
  8
SUNPOU
 62
     4
370
    -2
100
AcDbLine
 10
519.7715527461738
 20
154.2059289981478
 30
0.0
 11
417.9174941020474
 21
154.2059289981479
 31
0.0
  0
LINE
  5
2B2F
330
2A97
100
AcDbEntity
  8
SUNPOU
 62
     4
370
    -2
100
AcDbLine
 10
420.9174941020474
 20
263.1059289981479
 30
0.0
 11
420.9174941020474
 21
161.2059289981479
 31
0.0
  0
INSERT
  5
2B30
330
2A97
100
AcDbEntity
  8
SUNPOU
 62
     4
370
    -2
100
AcDbBlockReference
  2
_OPEN
 10
420.9174941020474
 20
270.1059289981479
 30
0.0
 41
7.0
 42
7.0
 43
7.0
 50
90.0
  0
INSERT
  5
2B31
330
2A97
100
AcDbEntity
  8
SUNPOU
 62
     4
370
    -2
100
AcDbBlockReference
  2
_OPEN
 10
420.9174941020474
 20
154.2059289981479
 30
0.0
 41
7.0
 42
7.0
 43
7.0
 50
270.0
  0
MTEXT
  5
2B32
330
2A97
100
AcDbEntity
  8
SUNPOU
 62
     4
100
AcDbMText
 10
415.9174941020473
 20
212.1559289981479
 30
0.0
 40
6.0
 41
0.0
 71
     5
 72
     1
  1
\A1;116
 11
6.123031769111886E-17
 21
1.0
 31
0.0
 73
     1
 44
1.0
  0
POINT
  5
2B33
330
2A97
100
AcDbEntity
  8
DEFPOINTS
 62
     0
100
AcDbPoint
 10
483.0154527461739
 20
270.1059289981479
 30
0.0
  0
POINT
  5
2B34
330
2A97
100
AcDbEntity
  8
DEFPOINTS
 62
     0
100
AcDbPoint
 10
525.7715527461738
 20
154.2059289981478
 30
0.0
  0
POINT
  5
2B35
330
2A97
100
AcDbEntity
  8
DEFPOINTS
 62
     0
100
AcDbPoint
 10
420.9174941020474
 20
154.2059289981479
 30
0.0
  0
ENDBLK
  5
2AA2
330
2A97
100
AcDbEntity
  8
0
100
AcDbBlockEnd
  0
BLOCK
  5
2AAD
330
2AA3
100
AcDbEntity
  8
0
100
AcDbBlockBegin
  2
*D19
 70
     1
 71
     0
 10
0.0
 20
0.0
 30
0.0
  3
*D19
  1

  0
LINE
  5
2B36
330
2AA3
100
AcDbEntity
  8
SUNPOU
 62
     4
370
    -2
100
AcDbLine
 10
477.0154527461739
 20
270.1059289981479
 30
0.0
 11
438.1105407535797
 21
270.1059289981479
 31
0.0
  0
LINE
  5
2B37
330
2AA3
100
AcDbEntity
  8
SUNPOU
 62
     4
370
    -2
100
AcDbLine
 10
535.1001527461737
 20
177.2059289981478
 30
0.0
 11
438.1105407535797
 21
177.2059289981479
 31
0.0
  0
LINE
  5
2B38
330
2AA3
100
AcDbEntity
  8
SUNPOU
 62
     4
370
    -2
100
AcDbLine
 10
441.1105407535797
 20
263.1059289981479
 30
0.0
 11
441.1105407535797
 21
184.2059289981479
 31
0.0
  0
INSERT
  5
2B39
330
2AA3
100
AcDbEntity
  8
SUNPOU
 62
     4
370
    -2
100
AcDbBlockReference
  2
_OPEN
 10
441.1105407535797
 20
270.1059289981479
 30
0.0
 41
7.0
 42
7.0
 43
7.0
 50
90.0
  0
INSERT
  5
2B3A
330
2AA3
100
AcDbEntity
  8
SUNPOU
 62
     4
370
    -2
100
AcDbBlockReference
  2
_OPEN
 10
441.1105407535797
 20
177.2059289981479
 30
0.0
 41
7.0
 42
7.0
 43
7.0
 50
270.0
  0
MTEXT
  5
2B3B
330
2AA3
100
AcDbEntity
  8
SUNPOU
 62
     4
100
AcDbMText
 10
436.1105407535796
 20
223.6559289981479
 30
0.0
 40
6.0
 41
0.0
 71
     5
 72
     1
  1
\A1;93
 11
6.123031769111886E-17
 21
1.0
 31
0.0
 73
     1
 44
1.0
  0
POINT
  5
2B3C
330
2AA3
100
AcDbEntity
  8
DEFPOINTS
 62
     0
100
AcDbPoint
 10
483.0154527461739
 20
270.1059289981479
 30
0.0
  0
POINT
  5
2B3D
330
2AA3
100
AcDbEntity
  8
DEFPOINTS
 62
     0
100
AcDbPoint
 10
541.1001527461737
 20
177.2059289981478
 30
0.0
  0
POINT
  5
2B3E
330
2AA3
100
AcDbEntity
  8
DEFPOINTS
 62
     0
100
AcDbPoint
 10
441.1105407535797
 20
177.2059289981479
 30
0.0
  0
ENDBLK
  5
2AAE
330
2AA3
100
AcDbEntity
  8
0
100
AcDbBlockEnd
  0
BLOCK
  5
2ABB
330
2AAF
100
AcDbEntity
  8
0
100
AcDbBlockBegin
  2
*D20
 70
     1
 71
     0
 10
0.0
 20
0.0
 30
0.0
  3
*D20
  1

  0
LINE
  5
2B3F
330
2AAF
100
AcDbEntity
  8
SUNPOU
 62
     4
370
    -2
100
AcDbLine
 10
584.4154527461739
 20
190.4393702019324
 30
0.0
 11
584.4154527461739
 21
213.6131599535927
 31
0.0
  0
LINE
  5
2B40
330
2AAF
100
AcDbEntity
  8
SUNPOU
 62
     4
370
    -2
100
AcDbLine
 10
588.0154527461738
 20
150.4891966092527
 30
0.0
 11
588.0154527461738
 21
213.6131599535927
 31
0.0
  0
LINE
  5
2B41
330
2AAF
100
AcDbEntity
  8
SUNPOU
 62
     4
370
    -2
100
AcDbLine
 10
577.4154527461739
 20
210.6131599535927
 30
0.0
 11
570.4154527461739
 21
210.6131599535927
 31
0.0
  0
LINE
  5
2B42
330
2AAF
100
AcDbEntity
  8
SUNPOU
 62
     4
370
    -2
100
AcDbLine
 10
595.0154527461738
 20
210.6131599535927
 30
0.0
 11
610.0154527461738
 21
210.6131599535927
 31
0.0
  0
LINE
  5
2B43
330
2AAF
100
AcDbEntity
  8
SUNPOU
 62
     4
370
    -2
100
AcDbLine
 10
584.4154527461739
 20
210.6131599535927
 30
0.0
 11
588.0154527461738
 21
210.6131599535927
 31
0.0
  0
INSERT
  5
2B44
330
2AAF
100
AcDbEntity
  8
SUNPOU
 62
     4
370
    -2
100
AcDbBlockReference
  2
_OPEN
 10
584.4154527461739
 20
210.6131599535927
 30
0.0
 41
7.0
 42
7.0
 43
7.0
  0
INSERT
  5
2B45
330
2AAF
100
AcDbEntity
  8
SUNPOU
 62
     4
370
    -2
100
AcDbBlockReference
  2
_OPEN
 10
588.0154527461738
 20
210.6131599535927
 30
0.0
 41
7.0
 42
7.0
 43
7.0
 50
180.0
  0
MTEXT
  5
2B46
330
2AAF
100
AcDbEntity
  8
SUNPOU
 62
     4
100
AcDbMText
 10
606.0154527461738
 20
215.6131599535927
 30
0.0
 40
6.0
 41
0.0
 71
     5
 72
     1
  1
\A1;4
 73
     1
 44
1.0
  0
POINT
  5
2B47
330
2AAF
100
AcDbEntity
  8
DEFPOINTS
 62
     0
100
AcDbPoint
 10
584.4154527461739
 20
184.4393702019324
 30
0.0
  0
POINT
  5
2B48
330
2AAF
100
AcDbEntity
  8
DEFPOINTS
 62
     0
100
AcDbPoint
 10
588.0154527461738
 20
144.4891966092527
 30
0.0
  0
POINT
  5
2B49
330
2AAF
100
AcDbEntity
  8
DEFPOINTS
 62
     0
100
AcDbPoint
 10
588.0154527461738
 20
210.6131599535927
 30
0.0
  0
ENDBLK
  5
2ABC
330
2AAF
100
AcDbEntity
  8
0
100
AcDbBlockEnd
  0
BLOCK
  5
2F28
330
2F1E
100
AcDbEntity
  8
0
100
AcDbBlockBegin
  2
*D21
 70
     1
 71
     0
 10
0.0
 20
0.0
 30
0.0
  3
*D21
  1

  0
LINE
  5
2F2A
330
2F1E
100
AcDbEntity
  8
SUNPOU
 62
     4
370
    -2
100
AcDbLine
 10
545.4429495935279
 20
88.51255425872483
 30
0.0
 11
545.4429495935279
 21
52.46953180191375
 31
0.0
  0
LINE
  5
2F2B
330
2F1E
100
AcDbEntity
  8
SUNPOU
 62
     4
370
    -2
100
AcDbLine
 10
628.4429495936153
 20
88.51255425872478
 30
0.0
 11
628.4429495936153
 21
52.46953180191375
 31
0.0
  0
LINE
  5
2F2C
330
2F1E
100
AcDbEntity
  8
SUNPOU
 62
     4
370
    -2
100
AcDbLine
 10
552.4429495935279
 20
55.46953180191375
 30
0.0
 11
621.4429495936153
 21
55.46953180191375
 31
0.0
  0
INSERT
  5
2F2D
330
2F1E
100
AcDbEntity
  8
SUNPOU
 62
     4
370
    -2
100
AcDbBlockReference
  2
_OPEN
 10
545.4429495935279
 20
55.46953180191375
 30
0.0
 41
7.0
 42
7.0
 43
7.0
 50
180.0
  0
INSERT
  5
2F2E
330
2F1E
100
AcDbEntity
  8
SUNPOU
 62
     4
370
    -2
100
AcDbBlockReference
  2
_OPEN
 10
628.4429495936153
 20
55.46953180191375
 30
0.0
 41
7.0
 42
7.0
 43
7.0
  0
MTEXT
  5
2F2F
330
2F1E
100
AcDbEntity
  8
SUNPOU
 62
     4
100
AcDbMText
 10
586.9429495935716
 20
60.46953180191375
 30
0.0
 40
6.0
 41
0.0
 71
     5
 72
     1
  1
\A1;φ83
 73
     1
 44
1.0
  0
POINT
  5
2F30
330
2F1E
100
AcDbEntity
  8
DEFPOINTS
 62
     0
100
AcDbPoint
 10
545.4429495935279
 20
94.51255425872483
 30
0.0
  0
POINT
  5
2F31
330
2F1E
100
AcDbEntity
  8
DEFPOINTS
 62
     0
100
AcDbPoint
 10
628.4429495936153
 20
94.51255425872478
 30
0.0
  0
POINT
  5
2F32
330
2F1E
100
AcDbEntity
  8
DEFPOINTS
 62
     0
100
AcDbPoint
 10
628.4429495936153
 20
55.46953180191375
 30
0.0
  0
ENDBLK
  5
2F29
330
2F1E
100
AcDbEntity
  8
0
100
AcDbBlockEnd
  0
ENDSEC
  0
SECTION
  2
ENTITIES
  0
TEXT
  5
9DF
330
1A
100
AcDbEntity
  8
SUNPOU
100
AcDbText
 10
676.296058680618
 20
45.3789568130245
 30
0.0
 40
6.0
  1
※a　軒樋の差込寸法を示す
100
AcDbText
  0
TEXT
  5
9E0
330
1A
100
AcDbEntity
  8
SUNPOU
100
AcDbText
 10
676.296058680618
 20
36.49396567134897
 30
0.0
 40
6.0
  1
※b　角々エルボの差込寸法を示す
100
AcDbText
  0
TEXT
  5
EDF
330
1A
100
AcDbEntity
  8
SUNPOU
 62
     4
100
AcDbText
 10
544.754825136059
 20
405.4713357348927
 30
0.0
 40
6.0
  1
じょうご用ストッパー２個入り
100
AcDbText
  0
LINE
  5
18CA
330
1A
100
AcDbEntity
  8
ZUWAKU
100
AcDbLine
 10
208.6466016834092
 20
15.19999965533645
 30
0.0
 11
447.4243643643326
 21
15.19999965533644
 31
0.0
  0
LINE
  5
18CB
330
1A
100
AcDbEntity
  8
ZUWAKU
100
AcDbLine
 10
208.6466016834092
 20
15.59999965533644
 30
0.0
 11
447.4243643643326
 21
15.59999965533645
 31
0.0
  0
LINE
  5
18CC
330
1A
100
AcDbEntity
  8
ZUWAKU
100
AcDbLine
 10
208.6466016834092
 20
15.39999965533644
 30
0.0
 11
447.4243643643326
 21
15.39999965533644
 31
0.0
  0
LINE
  5
18CD
330
1A
100
AcDbEntity
  8
ZUWAKU
100
AcDbLine
 10
0.0000003933412245
 20
30.79999965533642
 30
0.0
 11
797.4000003933411
 21
30.79999965533642
 31
0.0
  0
LINE
  5
18CE
330
1A
100
AcDbEntity
  8
ZUWAKU
100
AcDbLine
 10
0.0000003933412245
 20
30.59999965533642
 30
0.0
 11
797.4000003933411
 21
30.59999965533642
 31
0.0
  0
LINE
  5
18CF
330
1A
100
AcDbEntity
  8
ZUWAKU
100
AcDbLine
 10
0.0000003933412245
 20
30.39999965533642
 30
0.0
 11
797.4000003933411
 21
30.39999965533642
 31
0.0
  0
LINE
  5
18D0
330
1A
100
AcDbEntity
  8
ZUWAKU
100
AcDbLine
 10
0.0000003933412245
 20
30.19999965533641
 30
0.0
 11
797.4000003933411
 21
30.19999965533641
 31
0.0
  0
LINE
  5
18D1
330
1A
100
AcDbEntity
  8
ZUWAKU
100
AcDbLine
 10
0.0000003933412245
 20
29.99999965533641
 30
0.0
 11
797.4000003933411
 21
29.99999965533641
 31
0.0
  0
LWPOLYLINE
  5
18D2
330
1A
100
AcDbEntity
  8
ZUWAKU
100
AcDbPolyline
 90
        4
 70
     1
 43
0.0
 10
0.2000003933411563
 20
551.3999996553365
 10
0.2000003933411563
 20
0.1999996553364554
 10
797.4000003933411
 20
0.1999996553364785
 10
797.4000003933413
 20
551.3999996553365
  0
LWPOLYLINE
  5
18D3
330
1A
100
AcDbEntity
  8
ZUWAKU
100
AcDbPolyline
 90
        4
 70
     1
 43
0.0
 10
0.6000003933411335
 20
550.9999996553365
 10
0.6000003933411335
 20
0.5999996553364326
 10
797.0000003933415
 20
0.5999996553364788
 10
797.0000003933412
 20
550.9999996553365
  0
LWPOLYLINE
  5
18D4
330
1A
100
AcDbEntity
  8
ZUWAKU
100
AcDbPolyline
 90
        4
 70
     1
 43
0.0
 10
0.0000003933412245
 20
551.5999996553364
 10
0.0000003933412245
 20
-0.0000003446635901
 10
797.6000003933414
 20
-0.0000003446635226
 10
797.6000003933414
 20
551.5999996553366
  0
LWPOLYLINE
  5
18D5
330
1A
100
AcDbEntity
  8
ZUWAKU
100
AcDbPolyline
 90
        4
 70
     1
 43
0.0
 10
0.4000003933412017
 20
551.1999996553365
 10
0.4000003933412017
 20
0.3999996553365008
 10
797.2000003933413
 20
0.3999996553364777
 10
797.2000003933413
 20
551.1999996553365
  0
LWPOLYLINE
  5
18D6
330
1A
100
AcDbEntity
  8
ZUWAKU
100
AcDbPolyline
 90
        4
 70
     1
 43
0.0
 10
0.800000393341179
 20
550.7999996553365
 10
0.800000393341179
 20
0.7999996553364781
 10
796.8000003933412
 20
0.7999996553364781
 10
796.8000003933412
 20
550.7999996553365
  0
TEXT
  5
18D7
330
1A
100
AcDbEntity
  8
moji
100
AcDbText
 10
92.95778998151036
 20
12.74117778561117
 30
0.0
 40
6.0
  1
アーバントップΣ９０
 41
0.9
  7
ｽﾀｲﾙ1
100
AcDbText
  0
HATCH
  5
18D8
330
1A
100
AcDbEntity
  8
ZUWAKU
100
AcDbHatch
 10
0.0
 20
0.0
 30
0.0
210
0.0
220
0.0
230
1.0
  2
ANSI37
 70
     0
 71
     0
 91
        8
 92
        7
 72
     1
 73
     1
 93
       24
 10
14.50226305446108
 20
17.64484813631999
 42
-0.1989123673796348
 10
14.09221254812235
 20
18.63479762998104
 42
0.0
 10
14.09221254812235
 20
19.92499965533642
 42
-0.4142135623730912
 10
14.61721254812233
 20
20.44999965533641
 42
0.0
 10
17.59221254812223
 20
20.44999965533641
 42
0.4142135623731546
 10
18.11721254812233
 20
20.9749996553364
 42
0.0
 10
18.11721254812233
 20
22.72499965533642
 42
0.4142135623731586
 10
17.59221254812223
 20
23.24999965533642
 42
0.0
 10
14.09221254812235
 20
23.24999965533642
 42
0.4142135623730928
 10
11.29221254812239
 20
20.44999965533644
 42
0.0
 10
11.29221254812239
 20
18.63479762998117
 42
0.1989123673796619
 10
12.52236406713882
 20
15.66494914899757
 42
0.0
 10
15.4321620417835
 20
12.75515117435291
 42
-0.1989123673796613
 10
15.84221254812235
 20
11.76520168069172
 42
0.0
 10
15.84221254812235
 20
10.4749996553364
 42
-0.4142135623730911
 10
15.31721254812237
 20
9.949999655336413
 42
0.0
 10
12.34221254812246
 20
9.949999655336413
 42
0.4142135623731526
 10
11.81721254812237
 20
9.424999655336425
 42
0.0
 10
11.81721254812237
 20
7.674999655336404
 42
0.4142135623731526
 10
12.34221254812246
 20
7.149999655336416
 42
0.0
 10
15.84221254812235
 20
7.149999655336416
 42
0.4142135623731044
 10
18.64221254812242
 20
9.949999655336391
 42
0.0
 10
18.64221254812242
 20
11.76520168069166
 42
0.1989123673796604
 10
17.41206102910587
 20
14.7350501616752
 42
0.0
 97
        0
 92
        7
 72
     1
 73
     1
 93
       16
 10
23.54221254812239
 20
19.04999965533642
 42
-0.4142135623730935
 10
24.94221254812237
 20
20.44999965533641
 42
0.0
 10
26.86721254812233
 20
20.44999965533641
 42
0.4142135623731546
 10
27.39221254812242
 20
20.9749996553364
 42
0.0
 10
27.39221254812242
 20
22.72499965533642
 42
0.4142135623730952
 10
26.86721254812244
 20
23.24999965533642
 42
0.0
 10
24.94221254812226
 20
23.24999965533637
 42
0.4142135623730892
 10
20.74221254812233
 20
19.04999965533635
 42
0.0
 10
20.74221254812233
 20
11.34999965533644
 42
0.4142135623730969
 10
24.94221254812237
 20
7.149999655336416
 42
0.0
 10
26.86721254812233
 20
7.149999655336416
 42
0.4142135623731526
 10
27.39221254812242
 20
7.674999655336404
 42
0.0
 10
27.39221254812242
 20
9.424999655336425
 42
0.414213562373089
 10
26.86721254812244
 20
9.949999655336413
 42
0.0
 10
24.94221254812237
 20
9.949999655336413
 42
-0.4142135623730928
 10
23.54221254812239
 20
11.3499996553364
 42
0.0
 97
        0
 92
        7
 72
     1
 73
     1
 93
        2
 10
24.24221254812233
 20
15.19999965533641
 42
1.0
 10
27.74221254812233
 20
15.19999965533641
 42
1.0
 97
        0
 92
        7
 72
     1
 73
     1
 93
       26
 10
37.31485903030034
 20
19.20504684889984
 42
0.0
 10
38.37649866343816
 20
22.56690568716943
 42
0.5069206636600134
 10
37.8758677642428
 20
23.24999965533642
 42
0.0
 10
36.17697838463357
 20
23.24999965533642
 42
0.3272098845218764
 10
35.67634748543821
 20
22.88309362350339
 42
0.0
 10
33.80807761080644
 20
16.96690568716949
 42
-0.3272098845219541
 10
33.30744671161096
 20
16.59999965533641
 42
0.0
 10
33.16721254812251
 20
16.59999965533641
 42
-0.4142135623731526
 10
32.64221254812242
 20
17.1249996553364
 42
0.0
 10
32.64221254812242
 20
22.72499965533642
 42
0.4142135623730952
 10
32.11721254812244
 20
23.24999965533642
 42
0.0
 10
30.36721254812233
 20
23.24999965533642
 42
0.4142135623730872
 10
29.84221254812235
 20
22.72499965533643
 42
0.0
 10
29.84221254812235
 20
7.674999655336404
 42
0.414213562373089
 10
30.36721254812233
 20
7.149999655336416
 42
0.0
 10
32.11721254812233
 20
7.149999655336416
 42
0.4142135623731526
 10
32.64221254812242
 20
7.674999655336404
 42
0.0
 10
32.64221254812242
 20
13.27499965533643
 42
-0.4142135623731526
 10
33.16721254812251
 20
13.79999965533641
 42
0.0
 10
33.30744671161108
 20
13.79999965533641
 42
-0.3272098845218915
 10
33.80807761080644
 20
13.43309362350334
 42
0.0
 10
35.67634748543821
 20
7.516905687169487
 42
0.3272098845218902
 10
36.17697838463357
 20
7.149999655336416
 42
0.0
 10
37.8758677642428
 20
7.149999655336416
 42
0.5069206636600334
 10
38.37649866343816
 20
7.833093623503423
 42
0.0
 10
36.0501072849645
 20
15.19999965533655
 42
0.0
 97
        0
 92
        7
 72
     1
 73
     1
 93
        8
 10
43.49221254812233
 20
22.72499965533643
 42
0.4142135623731546
 10
42.96721254812223
 20
23.24999965533642
 42
0.0
 10
41.21721254812246
 20
23.24999965533642
 42
0.4142135623731506
 10
40.69221254812237
 20
22.72499965533643
 42
0.0
 10
40.69221254812237
 20
7.674999655336404
 42
0.4142135623731526
 10
41.21721254812246
 20
7.149999655336416
 42
0.0
 10
42.96721254812223
 20
7.149999655336416
 42
0.4142135623731526
 10
43.49221254812233
 20
7.674999655336404
 42
0.0
 97
        0
 92
        7
 72
     1
 73
     1
 93
       24
 10
48.39221254812242
 20
19.92499965533642
 42
-0.4142135623731547
 10
48.91721254812251
 20
20.44999965533641
 42
0.0
 10
51.89221254812242
 20
20.44999965533641
 42
0.4142135623730911
 10
52.41721254812239
 20
20.9749996553364
 42
0.0
 10
52.41721254812239
 20
22.72499965533642
 42
0.4142135623730952
 10
51.89221254812242
 20
23.24999965533642
 42
0.0
 10
48.39221254812242
 20
23.24999965533642
 42
0.4142135623731048
 10
45.59221254812235
 20
20.44999965533644
 42
0.0
 10
45.59221254812235
 20
18.63479762998117
 42
0.1989123673796613
 10
46.82236406713889
 20
15.66494914899762
 42
0.0
 10
49.73216204178357
 20
12.75515117435295
 42
-0.1989123673796402
 10
50.14221254812242
 20
11.76520168069188
 42
0.0
 10
50.14221254812242
 20
10.4749996553364
 42
-0.4142135623730911
 10
49.61721254812244
 20
9.949999655336413
 42
0.0
 10
46.64221254812242
 20
9.949999655336413
 42
0.4142135623731526
 10
46.11721254812233
 20
9.424999655336425
 42
0.0
 10
46.11721254812233
 20
7.674999655336404
 42
0.414213562373089
 10
46.6422125481223
 20
7.149999655336416
 42
0.0
 10
50.14221254812242
 20
7.149999655336416
 42
0.4142135623730925
 10
52.94221254812237
 20
9.949999655336391
 42
0.0
 10
52.94221254812237
 20
11.76520168069166
 42
0.1989123673796675
 10
51.71206102910583
 20
14.73505016167532
 42
0.0
 10
48.80226305446126
 20
17.64484813631983
 42
-0.1989123673796653
 10
48.39221254812242
 20
18.634797629981
 42
0.0
 97
        0
 92
        7
 72
     1
 73
     1
 93
       16
 10
57.84221254812235
 20
22.7249996553364
 42
0.414213562373103
 10
57.31721254812237
 20
23.24999965533642
 42
0.0
 10
55.56721254812237
 20
23.24999965533642
 42
0.4142135623730872
 10
55.04221254812239
 20
22.72499965533643
 42
0.0
 10
55.04221254812239
 20
9.949999655336391
 42
0.4142135623730925
 10
57.84221254812235
 20
7.149999655336416
 42
0.0
 10
61.34221254812235
 20
7.149999655336416
 42
0.4142135623731044
 10
64.14221254812242
 20
9.949999655336391
 42
0.0
 10
64.14221254812242
 20
22.72499965533642
 42
0.4142135623730952
 10
63.61721254812244
 20
23.24999965533642
 42
0.0
 10
61.86721254812233
 20
23.24999965533642
 42
0.4142135623730872
 10
61.34221254812235
 20
22.72499965533643
 42
0.0
 10
61.34221254812235
 20
10.99999965533639
 42
-0.414213562373088
 10
60.29221254812239
 20
9.949999655336413
 42
0.0
 10
58.89221254812242
 20
9.949999655336413
 42
-0.4142135623731197
 10
57.84221254812235
 20
10.99999965533639
 42
0.0
 97
        0
 92
        7
 72
     1
 73
     1
 93
        8
 10
69.04221254812239
 20
22.72499965533643
 42
0.4142135623730872
 10
68.51721254812242
 20
23.24999965533642
 42
0.0
 10
66.76721254812242
 20
23.24999965533642
 42
0.4142135623731506
 10
66.24221254812233
 20
22.72499965533643
 42
0.0
 10
66.24221254812233
 20
7.674999655336404
 42
0.414213562373089
 10
66.7672125481223
 20
7.149999655336416
 42
0.0
 10
68.51721254812242
 20
7.149999655336416
 42
0.414213562373089
 10
69.04221254812239
 20
7.674999655336404
 42
0.0
 97
        0
 75
     0
 76
     1
 52
0.0
 41
0.2
 77
     0
 78
     2
 53
45.0
 43
-900.9423039413377
 44
-13.20000034466352
 45
-0.4490128060534576
 46
0.4490128060534577
 79
     0
 53
135.0
 43
-900.9423039413377
 44
-13.20000034466352
 45
-0.4490128060534577
 46
-0.4490128060534576
 79
     0
 47
0.057451373970553
 98
        8
 10
16.07985535636453
 20
15.16717330122197
 10
22.40451539978039
 20
18.84406183778742
 10
25.16436827900088
 20
15.51188130140713
 10
30.91406037497836
 20
16.20129730177791
 10
41.83847241229796
 20
16.66090956931953
 10
46.89820128847077
 20
19.41857597174362
 10
56.55768636574157
 20
18.72915757043143
 10
67.82708001296396
 20
19.18876983797304
  0
LINE
  5
18D9
330
1A
100
AcDbEntity
  8
ZUWAKU
100
AcDbLine
 10
24.94221254812237
 20
23.24999965533637
 30
0.0
 11
26.86721254812233
 21
23.24999965533642
 31
0.0
  0
LINE
  5
18DA
330
1A
100
AcDbEntity
  8
ZUWAKU
100
AcDbLine
 10
26.86721254812233
 20
20.44999965533641
 30
0.0
 11
24.94221254812237
 21
20.44999965533641
 31
0.0
  0
LINE
  5
18DB
330
1A
100
AcDbEntity
  8
ZUWAKU
100
AcDbLine
 10
24.94221254812237
 20
9.949999655336413
 30
0.0
 11
26.86721254812233
 21
9.949999655336413
 31
0.0
  0
LINE
  5
18DC
330
1A
100
AcDbEntity
  8
ZUWAKU
100
AcDbLine
 10
26.86721254812233
 20
7.149999655336416
 30
0.0
 11
24.94221254812237
 21
7.149999655336416
 31
0.0
  0
CIRCLE
  5
18DD
330
1A
100
AcDbEntity
  8
ZUWAKU
100
AcDbCircle
 10
25.99221254812233
 20
15.19999965533641
 30
0.0
 40
1.75
  0
ARC
  5
18DE
330
1A
100
AcDbEntity
  8
ZUWAKU
100
AcDbCircle
 10
15.49221254812233
 20
18.63479762998112
 30
0.0
 40
1.4
100
AcDbArc
 50
180.0000000000016
 51
224.9999999999988
  0
LINE
  5
18DF
330
1A
100
AcDbEntity
  8
ZUWAKU
100
AcDbLine
 10
23.54221254812239
 20
19.04999965533641
 30
0.0
 11
23.54221254812239
 21
11.34999965533642
 31
0.0
  0
LINE
  5
18E0
330
1A
100
AcDbEntity
  8
ZUWAKU
100
AcDbLine
 10
20.74221254812233
 20
11.34999965533642
 30
0.0
 11
20.74221254812233
 21
19.04999965533637
 31
0.0
  0
ARC
  5
18E1
330
1A
100
AcDbEntity
  8
ZUWAKU
100
AcDbCircle
 10
15.49221254812233
 20
18.63479762998112
 30
0.0
 40
4.199999999999999
100
AcDbArc
 50
180.0
 51
225.0
  0
ARC
  5
18E2
330
1A
100
AcDbEntity
  8
ZUWAKU
100
AcDbCircle
 10
15.84221254812235
 20
9.949999655336413
 30
0.0
 40
2.8
100
AcDbArc
 50
270.0
 51
0.0
  0
ARC
  5
18E3
330
1A
100
AcDbEntity
  8
ZUWAKU
100
AcDbCircle
 10
24.94221254812237
 20
11.34999965533642
 30
0.0
 40
4.199999999999999
100
AcDbArc
 50
180.0
 51
270.0
  0
ARC
  5
18E4
330
1A
100
AcDbEntity
  8
ZUWAKU
100
AcDbCircle
 10
14.44221254812237
 20
11.76520168069172
 30
0.0
 40
4.199999999999999
100
AcDbArc
 50
0.0
 51
45.0
  0
LINE
  5
18E5
330
1A
100
AcDbEntity
  8
ZUWAKU
100
AcDbLine
 10
17.41206102910587
 20
14.73505016167524
 30
0.0
 11
14.5022630544612
 21
17.64484813631992
 31
0.0
  0
LINE
  5
18E6
330
1A
100
AcDbEntity
  8
ZUWAKU
100
AcDbLine
 10
15.84221254812235
 20
10.47499965533642
 30
0.0
 11
15.84221254812235
 21
11.76520168069176
 31
0.0
  0
ARC
  5
18E7
330
1A
100
AcDbEntity
  8
ZUWAKU
100
AcDbCircle
 10
15.31721254812237
 20
10.47499965533642
 30
0.0
 40
0.5249999999999999
100
AcDbArc
 50
270.0
 51
0.0
  0
ARC
  5
18E8
330
1A
100
AcDbEntity
  8
ZUWAKU
100
AcDbCircle
 10
14.44221254812237
 20
11.76520168069176
 30
0.0
 40
1.4
100
AcDbArc
 50
0.0
 51
45.0
  0
LINE
  5
18E9
330
1A
100
AcDbEntity
  8
ZUWAKU
100
AcDbLine
 10
11.81721254812237
 20
7.674999655336414
 30
0.0
 11
11.81721254812237
 21
9.424999655336414
 31
0.0
  0
ARC
  5
18EA
330
1A
100
AcDbEntity
  8
ZUWAKU
100
AcDbCircle
 10
12.34221254812235
 20
7.674999655336414
 30
0.0
 40
0.5249999999999999
100
AcDbArc
 50
180.0
 51
270.0
  0
ARC
  5
18EB
330
1A
100
AcDbEntity
  8
ZUWAKU
100
AcDbCircle
 10
12.34221254812235
 20
9.424999655336414
 30
0.0
 40
0.5249999999999999
100
AcDbArc
 50
90.0
 51
180.0
  0
LINE
  5
18EC
330
1A
100
AcDbEntity
  8
ZUWAKU
100
AcDbLine
 10
12.34221254812235
 20
7.149999655336416
 30
0.0
 11
15.84221254812235
 21
7.149999655336416
 31
0.0
  0
LINE
  5
18ED
330
1A
100
AcDbEntity
  8
ZUWAKU
100
AcDbLine
 10
12.34221254812235
 20
9.949999655336413
 30
0.0
 11
15.31721254812237
 21
9.949999655336413
 31
0.0
  0
LINE
  5
18EE
330
1A
100
AcDbEntity
  8
ZUWAKU
100
AcDbLine
 10
12.52236406713882
 20
15.66494914899759
 30
0.0
 11
15.4321620417835
 21
12.75515117435293
 31
0.0
  0
LINE
  5
18EF
330
1A
100
AcDbEntity
  8
ZUWAKU
100
AcDbLine
 10
18.64221254812242
 20
9.949999655336413
 30
0.0
 11
18.64221254812242
 21
11.76520168069176
 31
0.0
  0
ARC
  5
18F0
330
1A
100
AcDbEntity
  8
ZUWAKU
100
AcDbCircle
 10
24.94221254812237
 20
11.34999965533642
 30
0.0
 40
1.4
100
AcDbArc
 50
180.0
 51
270.0
  0
ARC
  5
18F1
330
1A
100
AcDbEntity
  8
ZUWAKU
100
AcDbCircle
 10
17.59221254812235
 20
22.72499965533641
 30
0.0
 40
0.5249999999999999
100
AcDbArc
 50
0.0
 51
90.0
  0
ARC
  5
18F2
330
1A
100
AcDbEntity
  8
ZUWAKU
100
AcDbCircle
 10
17.59221254812235
 20
20.97499965533641
 30
0.0
 40
0.5249999999999999
100
AcDbArc
 50
270.0
 51
0.0
  0
LINE
  5
18F3
330
1A
100
AcDbEntity
  8
ZUWAKU
100
AcDbLine
 10
14.09221254812235
 20
23.24999965533642
 30
0.0
 11
17.59221254812235
 21
23.24999965533642
 31
0.0
  0
ARC
  5
18F4
330
1A
100
AcDbEntity
  8
ZUWAKU
100
AcDbCircle
 10
14.61721254812233
 20
19.92499965533641
 30
0.0
 40
0.5249999999999999
100
AcDbArc
 50
90.0
 51
180.0
  0
LINE
  5
18F5
330
1A
100
AcDbEntity
  8
ZUWAKU
100
AcDbLine
 10
14.09221254812235
 20
19.92499965533641
 30
0.0
 11
14.09221254812235
 21
18.63479762998107
 31
0.0
  0
LINE
  5
18F6
330
1A
100
AcDbEntity
  8
ZUWAKU
100
AcDbLine
 10
17.59221254812235
 20
20.44999965533641
 30
0.0
 11
14.61721254812233
 21
20.44999965533641
 31
0.0
  0
LINE
  5
18F7
330
1A
100
AcDbEntity
  8
ZUWAKU
100
AcDbLine
 10
11.29221254812239
 20
20.44999965533641
 30
0.0
 11
11.29221254812239
 21
18.63479762998107
 31
0.0
  0
ARC
  5
18F8
330
1A
100
AcDbEntity
  8
ZUWAKU
100
AcDbCircle
 10
14.09221254812235
 20
20.44999965533641
 30
0.0
 40
2.8
100
AcDbArc
 50
90.0
 51
180.0
  0
LINE
  5
18F9
330
1A
100
AcDbEntity
  8
ZUWAKU
100
AcDbLine
 10
18.11721254812233
 20
22.72499965533641
 30
0.0
 11
18.11721254812233
 21
20.97499965533641
 31
0.0
  0
ARC
  5
18FA
330
1A
100
AcDbEntity
  8
ZUWAKU
100
AcDbCircle
 10
24.94221254812237
 20
19.04999965533641
 30
0.0
 40
1.4
100
AcDbArc
 50
90.0
 51
180.0
  0
ARC
  5
18FB
330
1A
100
AcDbEntity
  8
ZUWAKU
100
AcDbCircle
 10
24.94221254812237
 20
19.04999965533637
 30
0.0
 40
4.199999999999999
100
AcDbArc
 50
90.0
 51
180.0
  0
LINE
  5
18FC
330
1A
100
AcDbEntity
  8
ZUWAKU
100
AcDbLine
 10
79.32662994132943
 20
29.99999965533641
 30
0.0
 11
79.32662994132966
 21
0.7999996553364781
 31
0.0
  0
LINE
  5
18FD
330
1A
100
AcDbEntity
  8
ZUWAKU
100
AcDbLine
 10
79.52662994132948
 20
29.99999965533641
 30
0.0
 11
79.5266299413297
 21
0.7999996553364781
 31
0.0
  0
LINE
  5
18FE
330
1A
100
AcDbEntity
  8
ZUWAKU
100
AcDbLine
 10
79.12662994132961
 20
29.99999965533641
 30
0.0
 11
79.12662994132961
 21
0.7999996553364781
 31
0.0
  0
LINE
  5
18FF
330
1A
100
AcDbEntity
  8
ZUWAKU
100
AcDbLine
 10
64.14221254812242
 20
9.949999655336413
 30
0.0
 11
64.14221254812242
 21
22.72499965533641
 31
0.0
  0
LINE
  5
1900
330
1A
100
AcDbEntity
  8
ZUWAKU
100
AcDbLine
 10
61.34221254812235
 20
22.72499965533641
 30
0.0
 11
61.34221254812235
 21
10.99999965533641
 31
0.0
  0
LINE
  5
1901
330
1A
100
AcDbEntity
  8
ZUWAKU
100
AcDbLine
 10
69.04221254812239
 20
7.674999655336414
 30
0.0
 11
69.04221254812239
 21
22.72499965533641
 31
0.0
  0
LINE
  5
1902
330
1A
100
AcDbEntity
  8
ZUWAKU
100
AcDbLine
 10
66.24221254812233
 20
22.72499965533641
 30
0.0
 11
66.24221254812233
 21
7.674999655336414
 31
0.0
  0
ARC
  5
1903
330
1A
100
AcDbEntity
  8
ZUWAKU
100
AcDbCircle
 10
49.79221254812239
 20
18.63479762998112
 30
0.0
 40
1.4
100
AcDbArc
 50
180.0000000000016
 51
224.9999999999988
  0
ARC
  5
1904
330
1A
100
AcDbEntity
  8
ZUWAKU
100
AcDbCircle
 10
49.79221254812239
 20
18.63479762998112
 30
0.0
 40
4.199999999999999
100
AcDbArc
 50
180.0
 51
225.0
  0
LINE
  5
1905
330
1A
100
AcDbEntity
  8
ZUWAKU
100
AcDbLine
 10
37.31485903030034
 20
19.20504684889984
 30
0.0
 11
36.0501072849645
 21
15.19999965533643
 31
0.0
  0
LINE
  5
1906
330
1A
100
AcDbEntity
  8
ZUWAKU
100
AcDbLine
 10
40.69221254812237
 20
22.72499965533641
 30
0.0
 11
40.69221254812237
 21
7.674999655336414
 31
0.0
  0
LINE
  5
1907
330
1A
100
AcDbEntity
  8
ZUWAKU
100
AcDbLine
 10
43.49221254812233
 20
7.674999655336414
 30
0.0
 11
43.49221254812233
 21
22.72499965533641
 31
0.0
  0
LINE
  5
1908
330
1A
100
AcDbEntity
  8
ZUWAKU
100
AcDbLine
 10
55.04221254812239
 20
22.72499965533641
 30
0.0
 11
55.04221254812239
 21
9.949999655336413
 31
0.0
  0
LINE
  5
1909
330
1A
100
AcDbEntity
  8
ZUWAKU
100
AcDbLine
 10
57.84221254812235
 20
10.99999965533641
 30
0.0
 11
57.84221254812235
 21
22.72499965533641
 31
0.0
  0
LINE
  5
190A
330
1A
100
AcDbEntity
  8
ZUWAKU
100
AcDbLine
 10
32.64221254812242
 20
17.12499965533642
 30
0.0
 11
32.64221254812242
 21
22.72499965533641
 31
0.0
  0
LINE
  5
190B
330
1A
100
AcDbEntity
  8
ZUWAKU
100
AcDbLine
 10
29.84221254812235
 20
22.72499965533641
 30
0.0
 11
29.84221254812235
 21
7.674999655336414
 31
0.0
  0
LINE
  5
190C
330
1A
100
AcDbEntity
  8
ZUWAKU
100
AcDbLine
 10
35.67634748543821
 20
22.88309362350339
 30
0.0
 11
33.80807761080644
 21
16.96690568716944
 31
0.0
  0
LINE
  5
190D
330
1A
100
AcDbEntity
  8
ZUWAKU
100
AcDbLine
 10
60.29221254812239
 20
9.949999655336413
 30
0.0
 11
58.89221254812242
 21
9.949999655336413
 31
0.0
  0
LINE
  5
190E
330
1A
100
AcDbEntity
  8
ZUWAKU
100
AcDbLine
 10
57.84221254812235
 20
7.149999655336416
 30
0.0
 11
61.34221254812235
 21
7.149999655336416
 31
0.0
  0
LINE
  5
190F
330
1A
100
AcDbEntity
  8
ZUWAKU
100
AcDbLine
 10
41.21721254812235
 20
7.149999655336416
 30
0.0
 11
42.96721254812235
 21
7.149999655336416
 31
0.0
  0
LINE
  5
1910
330
1A
100
AcDbEntity
  8
ZUWAKU
100
AcDbLine
 10
35.67634748543821
 20
7.516905687169441
 30
0.0
 11
33.80807761080644
 21
13.43309362350338
 31
0.0
  0
ARC
  5
1911
330
1A
100
AcDbEntity
  8
ZUWAKU
100
AcDbCircle
 10
33.30744671161108
 20
17.12499965533642
 30
0.0
 40
0.5249999999999999
100
AcDbArc
 50
270.0
 51
342.474431626277
  0
LINE
  5
1912
330
1A
100
AcDbEntity
  8
ZUWAKU
100
AcDbLine
 10
33.30744671161108
 20
16.59999965533641
 30
0.0
 11
33.16721254812239
 21
16.59999965533641
 31
0.0
  0
LINE
  5
1913
330
1A
100
AcDbEntity
  8
ZUWAKU
100
AcDbLine
 10
33.16721254812239
 20
13.79999965533641
 30
0.0
 11
33.30744671161108
 21
13.79999965533641
 31
0.0
  0
ARC
  5
1914
330
1A
100
AcDbEntity
  8
ZUWAKU
100
AcDbCircle
 10
33.16721254812239
 20
17.12499965533642
 30
0.0
 40
0.5249999999999999
100
AcDbArc
 50
180.0
 51
270.0
  0
LINE
  5
1915
330
1A
100
AcDbEntity
  8
ZUWAKU
100
AcDbLine
 10
30.36721254812233
 20
7.149999655336416
 30
0.0
 11
32.11721254812233
 21
7.149999655336416
 31
0.0
  0
ARC
  5
1916
330
1A
100
AcDbEntity
  8
ZUWAKU
100
AcDbCircle
 10
32.11721254812233
 20
7.674999655336414
 30
0.0
 40
0.5249999999999999
100
AcDbArc
 50
270.0
 51
0.0
  0
LINE
  5
1917
330
1A
100
AcDbEntity
  8
ZUWAKU
100
AcDbLine
 10
32.64221254812242
 20
7.674999655336414
 30
0.0
 11
32.64221254812242
 21
13.27499965533642
 31
0.0
  0
LINE
  5
1918
330
1A
100
AcDbEntity
  8
ZUWAKU
100
AcDbLine
 10
27.39221254812242
 20
9.424999655336414
 30
0.0
 11
27.39221254812242
 21
7.674999655336414
 31
0.0
  0
ARC
  5
1919
330
1A
100
AcDbEntity
  8
ZUWAKU
100
AcDbCircle
 10
26.86721254812233
 20
7.674999655336414
 30
0.0
 40
0.5249999999999999
100
AcDbArc
 50
270.0
 51
0.0
  0
ARC
  5
191A
330
1A
100
AcDbEntity
  8
ZUWAKU
100
AcDbCircle
 10
26.86721254812233
 20
9.424999655336414
 30
0.0
 40
0.5249999999999999
100
AcDbArc
 50
0.0
 51
90.0
  0
ARC
  5
191B
330
1A
100
AcDbEntity
  8
ZUWAKU
100
AcDbCircle
 10
30.36721254812233
 20
7.674999655336414
 30
0.0
 40
0.5249999999999999
100
AcDbArc
 50
180.0
 51
270.0
  0
ARC
  5
191C
330
1A
100
AcDbEntity
  8
ZUWAKU
100
AcDbCircle
 10
33.30744671161108
 20
13.27499965533642
 30
0.0
 40
0.5249999999999999
100
AcDbArc
 50
17.52556837372303
 51
90.0
  0
ARC
  5
191D
330
1A
100
AcDbEntity
  8
ZUWAKU
100
AcDbCircle
 10
33.16721254812239
 20
13.27499965533642
 30
0.0
 40
0.5249999999999999
100
AcDbArc
 50
90.0
 51
180.0
  0
ARC
  5
191E
330
1A
100
AcDbEntity
  8
ZUWAKU
100
AcDbCircle
 10
41.21721254812235
 20
7.674999655336414
 30
0.0
 40
0.5249999999999999
100
AcDbArc
 50
180.0
 51
270.0
  0
LINE
  5
191F
330
1A
100
AcDbEntity
  8
ZUWAKU
100
AcDbLine
 10
36.17697838463369
 20
7.149999655336416
 30
0.0
 11
37.87586776424269
 21
7.149999655336416
 31
0.0
  0
ARC
  5
1920
330
1A
100
AcDbEntity
  8
ZUWAKU
100
AcDbCircle
 10
37.87586776424269
 20
7.674999655336414
 30
0.0
 40
0.5249999999999999
100
AcDbArc
 50
270.0
 51
17.52556837372303
  0
LINE
  5
1921
330
1A
100
AcDbEntity
  8
ZUWAKU
100
AcDbLine
 10
38.37649866343816
 20
7.833093623503387
 30
0.0
 11
36.0501072849645
 21
15.19999965533643
 31
0.0
  0
ARC
  5
1922
330
1A
100
AcDbEntity
  8
ZUWAKU
100
AcDbCircle
 10
36.17697838463369
 20
7.674999655336414
 30
0.0
 40
0.5249999999999999
100
AcDbArc
 50
197.525568373723
 51
270.0
  0
ARC
  5
1923
330
1A
100
AcDbEntity
  8
ZUWAKU
100
AcDbCircle
 10
57.84221254812235
 20
9.949999655336413
 30
0.0
 40
2.8
100
AcDbArc
 50
180.0
 51
270.0
  0
ARC
  5
1924
330
1A
100
AcDbEntity
  8
ZUWAKU
100
AcDbCircle
 10
50.14221254812242
 20
9.949999655336413
 30
0.0
 40
2.8
100
AcDbArc
 50
270.0
 51
0.0
  0
LINE
  5
1925
330
1A
100
AcDbEntity
  8
ZUWAKU
100
AcDbLine
 10
51.71206102910594
 20
14.73505016167524
 30
0.0
 11
48.80226305446115
 21
17.64484813631992
 31
0.0
  0
LINE
  5
1926
330
1A
100
AcDbEntity
  8
ZUWAKU
100
AcDbLine
 10
50.14221254812242
 20
10.47499965533642
 30
0.0
 11
50.14221254812242
 21
11.76520168069176
 31
0.0
  0
ARC
  5
1927
330
1A
100
AcDbEntity
  8
ZUWAKU
100
AcDbCircle
 10
48.74221254812233
 20
11.76520168069176
 30
0.0
 40
1.4
100
AcDbArc
 50
0.0
 51
45.0
  0
ARC
  5
1928
330
1A
100
AcDbEntity
  8
ZUWAKU
100
AcDbCircle
 10
49.61721254812233
 20
10.47499965533642
 30
0.0
 40
0.5249999999999999
100
AcDbArc
 50
270.0
 51
0.0
  0
LINE
  5
1929
330
1A
100
AcDbEntity
  8
ZUWAKU
100
AcDbLine
 10
46.11721254812233
 20
7.674999655336414
 30
0.0
 11
46.11721254812233
 21
9.424999655336414
 31
0.0
  0
ARC
  5
192A
330
1A
100
AcDbEntity
  8
ZUWAKU
100
AcDbCircle
 10
46.64221254812242
 20
7.674999655336414
 30
0.0
 40
0.5249999999999999
100
AcDbArc
 50
180.0
 51
270.0
  0
ARC
  5
192B
330
1A
100
AcDbEntity
  8
ZUWAKU
100
AcDbCircle
 10
42.96721254812235
 20
7.674999655336414
 30
0.0
 40
0.5249999999999999
100
AcDbArc
 50
270.0
 51
0.0
  0
ARC
  5
192C
330
1A
100
AcDbEntity
  8
ZUWAKU
100
AcDbCircle
 10
46.64221254812242
 20
9.424999655336414
 30
0.0
 40
0.5249999999999999
100
AcDbArc
 50
90.0
 51
180.0
  0
LINE
  5
192D
330
1A
100
AcDbEntity
  8
ZUWAKU
100
AcDbLine
 10
46.64221254812242
 20
9.949999655336413
 30
0.0
 11
49.61721254812233
 21
9.949999655336413
 31
0.0
  0
LINE
  5
192E
330
1A
100
AcDbEntity
  8
ZUWAKU
100
AcDbLine
 10
46.64221254812242
 20
7.149999655336416
 30
0.0
 11
50.14221254812242
 21
7.149999655336416
 31
0.0
  0
LINE
  5
192F
330
1A
100
AcDbEntity
  8
ZUWAKU
100
AcDbLine
 10
46.82236406713889
 20
15.66494914899759
 30
0.0
 11
49.73216204178357
 21
12.75515117435293
 31
0.0
  0
LINE
  5
1930
330
1A
100
AcDbEntity
  8
ZUWAKU
100
AcDbLine
 10
52.94221254812237
 20
9.949999655336413
 30
0.0
 11
52.94221254812237
 21
11.76520168069176
 31
0.0
  0
ARC
  5
1931
330
1A
100
AcDbEntity
  8
ZUWAKU
100
AcDbCircle
 10
48.74221254812233
 20
11.76520168069172
 30
0.0
 40
4.199999999999999
100
AcDbArc
 50
0.0
 51
45.0
  0
ARC
  5
1932
330
1A
100
AcDbEntity
  8
ZUWAKU
100
AcDbCircle
 10
58.89221254812242
 20
10.99999965533641
 30
0.0
 40
1.05
100
AcDbArc
 50
180.0
 51
270.0
  0
ARC
  5
1933
330
1A
100
AcDbEntity
  8
ZUWAKU
100
AcDbCircle
 10
61.34221254812235
 20
9.949999655336413
 30
0.0
 40
2.8
100
AcDbArc
 50
270.0
 51
0.0
  0
LINE
  5
1934
330
1A
100
AcDbEntity
  8
ZUWAKU
100
AcDbLine
 10
66.76721254812242
 20
7.149999655336416
 30
0.0
 11
68.51721254812242
 21
7.149999655336416
 31
0.0
  0
ARC
  5
1935
330
1A
100
AcDbEntity
  8
ZUWAKU
100
AcDbCircle
 10
66.76721254812242
 20
7.674999655336414
 30
0.0
 40
0.5249999999999999
100
AcDbArc
 50
180.0
 51
270.0
  0
ARC
  5
1936
330
1A
100
AcDbEntity
  8
ZUWAKU
100
AcDbCircle
 10
60.29221254812239
 20
10.99999965533641
 30
0.0
 40
1.05
100
AcDbArc
 50
270.0
 51
0.0
  0
ARC
  5
1937
330
1A
100
AcDbEntity
  8
ZUWAKU
100
AcDbCircle
 10
68.51721254812242
 20
7.674999655336414
 30
0.0
 40
0.5249999999999999
100
AcDbArc
 50
270.0
 51
0.0
  0
LINE
  5
1938
330
1A
100
AcDbEntity
  8
ZUWAKU
100
AcDbLine
 10
42.96721254812235
 20
23.24999965533642
 30
0.0
 11
41.21721254812235
 21
23.24999965533642
 31
0.0
  0
ARC
  5
1939
330
1A
100
AcDbEntity
  8
ZUWAKU
100
AcDbCircle
 10
32.11721254812233
 20
22.72499965533641
 30
0.0
 40
0.5249999999999999
100
AcDbArc
 50
0.0
 51
90.0
  0
LINE
  5
193A
330
1A
100
AcDbEntity
  8
ZUWAKU
100
AcDbLine
 10
32.11721254812233
 20
23.24999965533642
 30
0.0
 11
30.36721254812233
 21
23.24999965533642
 31
0.0
  0
ARC
  5
193B
330
1A
100
AcDbEntity
  8
ZUWAKU
100
AcDbCircle
 10
26.86721254812233
 20
22.72499965533641
 30
0.0
 40
0.5249999999999999
100
AcDbArc
 50
0.0
 51
90.0
  0
ARC
  5
193C
330
1A
100
AcDbEntity
  8
ZUWAKU
100
AcDbCircle
 10
30.36721254812233
 20
22.72499965533641
 30
0.0
 40
0.5249999999999999
100
AcDbArc
 50
90.0
 51
180.0
  0
ARC
  5
193D
330
1A
100
AcDbEntity
  8
ZUWAKU
100
AcDbCircle
 10
26.86721254812233
 20
20.97499965533641
 30
0.0
 40
0.5249999999999999
100
AcDbArc
 50
270.0
 51
0.0
  0
LINE
  5
193E
330
1A
100
AcDbEntity
  8
ZUWAKU
100
AcDbLine
 10
27.39221254812242
 20
22.72499965533641
 30
0.0
 11
27.39221254812242
 21
20.97499965533641
 31
0.0
  0
ARC
  5
193F
330
1A
100
AcDbEntity
  8
ZUWAKU
100
AcDbCircle
 10
41.21721254812235
 20
22.72499965533641
 30
0.0
 40
0.5249999999999999
100
AcDbArc
 50
90.0
 51
180.0
  0
LINE
  5
1940
330
1A
100
AcDbEntity
  8
ZUWAKU
100
AcDbLine
 10
36.17697838463369
 20
23.24999965533642
 30
0.0
 11
37.87586776424269
 21
23.24999965533642
 31
0.0
  0
ARC
  5
1941
330
1A
100
AcDbEntity
  8
ZUWAKU
100
AcDbCircle
 10
37.87586776424269
 20
22.72499965533641
 30
0.0
 40
0.5249999999999999
100
AcDbArc
 50
342.474431626277
 51
90.0
  0
LINE
  5
1942
330
1A
100
AcDbEntity
  8
ZUWAKU
100
AcDbLine
 10
38.37649866343816
 20
22.56690568716945
 30
0.0
 11
37.31485903030034
 21
19.20504684889984
 31
0.0
  0
ARC
  5
1943
330
1A
100
AcDbEntity
  8
ZUWAKU
100
AcDbCircle
 10
36.17697838463369
 20
22.72499965533641
 30
0.0
 40
0.5249999999999999
100
AcDbArc
 50
90.0
 51
162.474431626277
  0
LINE
  5
1944
330
1A
100
AcDbEntity
  8
ZUWAKU
100
AcDbLine
 10
48.39221254812242
 20
23.24999965533642
 30
0.0
 11
51.89221254812242
 21
23.24999965533642
 31
0.0
  0
LINE
  5
1945
330
1A
100
AcDbEntity
  8
ZUWAKU
100
AcDbLine
 10
51.89221254812242
 20
20.44999965533641
 30
0.0
 11
48.91721254812239
 21
20.44999965533641
 31
0.0
  0
ARC
  5
1946
330
1A
100
AcDbEntity
  8
ZUWAKU
100
AcDbCircle
 10
48.91721254812239
 20
19.92499965533641
 30
0.0
 40
0.5249999999999999
100
AcDbArc
 50
90.0
 51
180.0
  0
LINE
  5
1947
330
1A
100
AcDbEntity
  8
ZUWAKU
100
AcDbLine
 10
48.39221254812242
 20
19.92499965533641
 30
0.0
 11
48.39221254812242
 21
18.63479762998107
 31
0.0
  0
ARC
  5
1948
330
1A
100
AcDbEntity
  8
ZUWAKU
100
AcDbCircle
 10
42.96721254812235
 20
22.72499965533641
 30
0.0
 40
0.5249999999999999
100
AcDbArc
 50
0.0
 51
90.0
  0
LINE
  5
1949
330
1A
100
AcDbEntity
  8
ZUWAKU
100
AcDbLine
 10
45.59221254812235
 20
20.44999965533641
 30
0.0
 11
45.59221254812235
 21
18.63479762998107
 31
0.0
  0
ARC
  5
194A
330
1A
100
AcDbEntity
  8
ZUWAKU
100
AcDbCircle
 10
48.39221254812242
 20
20.44999965533641
 30
0.0
 40
2.8
100
AcDbArc
 50
90.0
 51
180.0
  0
ARC
  5
194B
330
1A
100
AcDbEntity
  8
ZUWAKU
100
AcDbCircle
 10
57.31721254812237
 20
22.72499965533641
 30
0.0
 40
0.5249999999999999
100
AcDbArc
 50
0.0
 51
90.0
  0
ARC
  5
194C
330
1A
100
AcDbEntity
  8
ZUWAKU
100
AcDbCircle
 10
55.56721254812237
 20
22.72499965533641
 30
0.0
 40
0.5249999999999999
100
AcDbArc
 50
90.0
 51
180.0
  0
LINE
  5
194D
330
1A
100
AcDbEntity
  8
ZUWAKU
100
AcDbLine
 10
57.31721254812237
 20
23.24999965533642
 30
0.0
 11
55.56721254812237
 21
23.24999965533642
 31
0.0
  0
ARC
  5
194E
330
1A
100
AcDbEntity
  8
ZUWAKU
100
AcDbCircle
 10
51.89221254812242
 20
22.72499965533641
 30
0.0
 40
0.5249999999999999
100
AcDbArc
 50
0.0
 51
90.0
  0
ARC
  5
194F
330
1A
100
AcDbEntity
  8
ZUWAKU
100
AcDbCircle
 10
51.89221254812242
 20
20.97499965533641
 30
0.0
 40
0.5249999999999999
100
AcDbArc
 50
270.0
 51
0.0
  0
LINE
  5
1950
330
1A
100
AcDbEntity
  8
ZUWAKU
100
AcDbLine
 10
52.41721254812239
 20
22.72499965533641
 30
0.0
 11
52.41721254812239
 21
20.97499965533641
 31
0.0
  0
LINE
  5
1951
330
1A
100
AcDbEntity
  8
ZUWAKU
100
AcDbLine
 10
68.51721254812242
 20
23.24999965533642
 30
0.0
 11
66.76721254812242
 21
23.24999965533642
 31
0.0
  0
ARC
  5
1952
330
1A
100
AcDbEntity
  8
ZUWAKU
100
AcDbCircle
 10
66.76721254812242
 20
22.72499965533641
 30
0.0
 40
0.5249999999999999
100
AcDbArc
 50
90.0
 51
180.0
  0
ARC
  5
1953
330
1A
100
AcDbEntity
  8
ZUWAKU
100
AcDbCircle
 10
63.61721254812233
 20
22.72499965533641
 30
0.0
 40
0.5249999999999999
100
AcDbArc
 50
0.0
 51
90.0
  0
LINE
  5
1954
330
1A
100
AcDbEntity
  8
ZUWAKU
100
AcDbLine
 10
63.61721254812233
 20
23.24999965533642
 30
0.0
 11
61.86721254812233
 21
23.24999965533642
 31
0.0
  0
ARC
  5
1955
330
1A
100
AcDbEntity
  8
ZUWAKU
100
AcDbCircle
 10
61.86721254812233
 20
22.72499965533641
 30
0.0
 40
0.5249999999999999
100
AcDbArc
 50
90.0
 51
180.0
  0
ARC
  5
1956
330
1A
100
AcDbEntity
  8
ZUWAKU
100
AcDbCircle
 10
68.51721254812242
 20
22.72499965533641
 30
0.0
 40
0.5249999999999999
100
AcDbArc
 50
0.0
 51
90.0
  0
TEXT
  5
1957
330
1A
100
AcDbEntity
  8
moji
100
AcDbText
 10
239.8272030741923
 20
3.204920712743832
 30
0.0
 40
5.6
  1
Σ９０－ＵＴ７５
 41
0.9
  7
ｽﾀｲﾙ1
100
AcDbText
  0
TEXT
  5
1958
330
1A
100
AcDbEntity
  8
moji
100
AcDbText
 10
239.8272030741923
 20
18.0049207127438
 30
0.0
 40
5.6
  1
じょうご
 41
0.9
  7
ｽﾀｲﾙ1
100
AcDbText
  0
LINE
  5
1959
330
1A
100
AcDbEntity
  8
ZUWAKU
100
AcDbLine
 10
208.2466016834092
 20
29.99999965533641
 30
0.0
 11
208.2466016834092
 21
0.7999996553364781
 31
0.0
  0
LINE
  5
195A
330
1A
100
AcDbEntity
  8
ZUWAKU
100
AcDbLine
 10
208.646601683409
 20
29.99999965533641
 30
0.0
 11
208.6466016834092
 21
0.7999996553364781
 31
0.0
  0
LINE
  5
195B
330
1A
100
AcDbEntity
  8
ZUWAKU
100
AcDbLine
 10
208.446601683409
 20
29.99999965533641
 30
0.0
 11
208.4466016834092
 21
0.7999996553364781
 31
0.0
  0
TEXT
  5
195C
330
1A
100
AcDbEntity
  8
ZUWAKU
100
AcDbText
 10
209.7240467056188
 20
9.655356193722028
 30
0.0
 40
4.0
  1
サイズ
 41
0.9
  7
ｽﾀｲﾙ1
100
AcDbText
  0
TEXT
  5
195D
330
1A
100
AcDbEntity
  8
ZUWAKU
100
AcDbText
 10
209.7240467056186
 20
24.05535619372199
 30
0.0
 40
4.0
  1
品名
 41
0.9
  7
ｽﾀｲﾙ1
100
AcDbText
  0
LINE
  5
195E
330
1A
100
AcDbEntity
  8
ZUWAKU
100
AcDbLine
 10
648.8172029035454
 20
15.19999965533644
 30
0.0
 11
697.2490109418825
 21
15.19999965533645
 31
0.0
  0
LINE
  5
195F
330
1A
100
AcDbEntity
  8
ZUWAKU
100
AcDbLine
 10
648.8172029035457
 20
15.39999965533645
 30
0.0
 11
697.2490109418825
 21
15.39999965533644
 31
0.0
  0
LINE
  5
1960
330
1A
100
AcDbEntity
  8
ZUWAKU
100
AcDbLine
 10
648.8172029035454
 20
15.59999965533644
 30
0.0
 11
697.2490109418825
 21
15.59999965533644
 31
0.0
  0
TEXT
  5
1961
330
1A
100
AcDbEntity
  8
ZUWAKU
100
AcDbText
 10
658.2039380806436
 20
18.0049207127438
 30
0.0
 40
5.6
  1
　　．　　．　　
 41
0.9
  7
ｽﾀｲﾙ1
100
AcDbText
  0
LINE
  5
1962
330
1A
100
AcDbEntity
  8
ZUWAKU
100
AcDbLine
 10
505.1991798914821
 20
15.19999965533645
 30
0.0
 11
552.5269561594537
 21
15.19999965533645
 31
0.0
  0
LINE
  5
1963
330
1A
100
AcDbEntity
  8
ZUWAKU
100
AcDbLine
 10
505.1991798914821
 20
15.39999965533644
 30
0.0
 11
552.5269561594537
 21
15.39999965533644
 31
0.0
  0
LINE
  5
1964
330
1A
100
AcDbEntity
  8
ZUWAKU
100
AcDbLine
 10
505.1991798914821
 20
15.59999965533644
 30
0.0
 11
552.5269561594537
 21
15.59999965533644
 31
0.0
  0
TEXT
  5
1965
330
1A
100
AcDbEntity
  8
moji
100
AcDbText
 10
464.5946263965802
 20
11.9426173769964
 30
0.0
 40
5.6
  1
ＧＴ８７□
 41
0.9
  7
ｽﾀｲﾙ1
100
AcDbText
  0
LINE
  5
1966
330
1A
100
AcDbEntity
  8
ZUWAKU
100
AcDbLine
 10
447.6243643643325
 20
29.99999965533641
 30
0.0
 11
447.6243643643327
 21
0.7999996553364781
 31
0.0
  0
LINE
  5
1967
330
1A
100
AcDbEntity
  8
ZUWAKU
100
AcDbLine
 10
447.8243643643325
 20
29.99999965533641
 30
0.0
 11
447.8243643643327
 21
0.7999996553364781
 31
0.0
  0
LINE
  5
1968
330
1A
100
AcDbEntity
  8
ZUWAKU
100
AcDbLine
 10
447.4243643643326
 20
29.99999965533641
 30
0.0
 11
447.4243643643326
 21
0.7999996553364781
 31
0.0
  0
TEXT
  5
1969
330
1A
100
AcDbEntity
  8
moji
100
AcDbText
 10
528.0409083656541
 20
18.0049207127438
 30
0.0
 40
5.6
  1
Ａ３
 41
0.9
  7
ｽﾀｲﾙ1
100
AcDbText
  0
LINE
  5
196A
330
1A
100
AcDbEntity
  8
ZUWAKU
100
AcDbLine
 10
504.9991798914821
 20
29.99999965533641
 30
0.0
 11
504.9991798914823
 21
0.7999996553364781
 31
0.0
  0
LINE
  5
196B
330
1A
100
AcDbEntity
  8
ZUWAKU
100
AcDbLine
 10
505.1991798914821
 20
29.99999965533641
 30
0.0
 11
505.1991798914823
 21
0.7999996553364781
 31
0.0
  0
LINE
  5
196C
330
1A
100
AcDbEntity
  8
ZUWAKU
100
AcDbLine
 10
504.7991798914823
 20
29.99999965533641
 30
0.0
 11
504.7991798914823
 21
0.7999996553364781
 31
0.0
  0
TEXT
  5
196D
330
1A
100
AcDbEntity
  8
ZUWAKU
100
AcDbText
 10
462.6937620488484
 20
2.614070566475903
 30
0.0
 40
3.0
  1
□には色品番が入ります
 41
0.9
  7
ｽﾀｲﾙ1
100
AcDbText
  0
TEXT
  5
196E
330
1A
100
AcDbEntity
  8
ZUWAKU
100
AcDbText
 10
506.676624913692
 20
9.655356193722028
 30
0.0
 40
4.0
  1
縮尺
 41
0.9
  7
ｽﾀｲﾙ1
100
AcDbText
  0
TEXT
  5
196F
330
1A
100
AcDbEntity
  8
moji
100
AcDbText
 10
528.0409083656541
 20
3.204920712743832
 30
0.0
 40
5.6
  1
１/２
 41
0.9
  7
ｽﾀｲﾙ1
100
AcDbText
  0
TEXT
  5
1970
330
1A
100
AcDbEntity
  8
ZUWAKU
100
AcDbText
 10
449.3018093865421
 20
24.05535619372199
 30
0.0
 40
4.0
  1
品番
 41
0.9
  7
ｽﾀｲﾙ1
100
AcDbText
  0
TEXT
  5
1971
330
1A
100
AcDbEntity
  8
ZUWAKU
100
AcDbText
 10
506.6766249136917
 20
24.05535619372199
 30
0.0
 40
4.0
  1
用紙
 41
0.9
  7
ｽﾀｲﾙ1
100
AcDbText
  0
LINE
  5
1972
330
1A
100
AcDbEntity
  8
ZUWAKU
100
AcDbLine
 10
648.6172029035456
 20
29.99999965533641
 30
0.0
 11
648.6172029035458
 21
0.7999996553364781
 31
0.0
  0
LINE
  5
1973
330
1A
100
AcDbEntity
  8
ZUWAKU
100
AcDbLine
 10
648.8172029035457
 20
29.99999965533641
 30
0.0
 11
648.8172029035459
 21
0.7999996553364781
 31
0.0
  0
LINE
  5
1974
330
1A
100
AcDbEntity
  8
ZUWAKU
100
AcDbLine
 10
648.4172029035458
 20
29.99999965533641
 30
0.0
 11
648.4172029035458
 21
0.7999996553364781
 31
0.0
  0
LINE
  5
1975
330
1A
100
AcDbEntity
  8
ZUWAKU
100
AcDbLine
 10
552.7269561594535
 20
29.99999965533641
 30
0.0
 11
552.7269561594537
 21
0.7999996553364781
 31
0.0
  0
LINE
  5
1976
330
1A
100
AcDbEntity
  8
ZUWAKU
100
AcDbLine
 10
552.9269561594535
 20
29.99999965533641
 30
0.0
 11
552.9269561594538
 21
0.7999996553364781
 31
0.0
  0
LINE
  5
1977
330
1A
100
AcDbEntity
  8
ZUWAKU
100
AcDbLine
 10
552.5269561594537
 20
29.99999965533641
 30
0.0
 11
552.5269561594537
 21
0.7999996553364781
 31
0.0
  0
TEXT
  5
1978
330
1A
100
AcDbEntity
  8
ZUWAKU
100
AcDbText
 10
650.2946479257553
 20
24.05535619372199
 30
0.0
 40
4.0
  1
DATE
 41
0.9
  7
ｽﾀｲﾙ1
100
AcDbText
  0
LINE
  5
1979
330
1A
100
AcDbEntity
  8
ZUWAKU
100
AcDbLine
 10
697.2490109418825
 20
29.99999965533641
 30
0.0
 11
697.2490109418825
 21
0.7999996553364781
 31
0.0
  0
LINE
  5
197A
330
1A
100
AcDbEntity
  8
ZUWAKU
100
AcDbLine
 10
697.4490109418825
 20
29.99999965533641
 30
0.0
 11
697.4490109418825
 21
0.7999996553364781
 31
0.0
  0
LINE
  5
197B
330
1A
100
AcDbEntity
  8
ZUWAKU
100
AcDbLine
 10
697.6490109418824
 20
29.99999965533641
 30
0.0
 11
697.6490109418826
 21
0.7999996553364781
 31
0.0
  0
LINE
  5
197C
330
1A
100
AcDbEntity
  8
ZUWAKU
100
AcDbLine
 10
697.8490109418824
 20
29.99999965533641
 30
0.0
 11
697.8490109418826
 21
0.7999996553364781
 31
0.0
  0
TEXT
  5
197D
330
1A
100
AcDbEntity
  8
ZUWAKU
100
AcDbText
 10
708.528084585585
 20
17.55383899102321
 30
0.0
 40
6.0
  1
積水化学工業株式会社
 41
0.9
  7
ｽﾀｲﾙ1
100
AcDbText
  0
TEXT
  5
197E
330
1A
100
AcDbEntity
  8
ZUWAKU
100
AcDbText
 10
708.528084585585
 20
6.648839969190476
 30
0.0
 40
6.0
  1
建材事業部
 41
0.9
  7
ｽﾀｲﾙ1
100
AcDbText
  0
DIMENSION
  5
2002
330
1A
100
AcDbEntity
  8
SUNPOU
 62
     4
 48
5.0
100
AcDbDimension
  2
*D1
 10
600.6116922931437
 20
488.2506008261465
 30
0.0
 11
565.6116922931437
 21
492.2506008261465
 31
0.0
 70
    32
 71
     5
 42
70.0
  3
STANDARD
100
AcDbAlignedDimension
 13
530.6116922931437
 23
450.2854054052098
 33
0.0
 14
600.6116922931437
 24
450.2854054052098
 34
0.0
100
AcDbRotatedDimension
1001
ACAD
1000
DSTYLE
1002
{
1070
    41
1040
3.5
1070
    42
1040
3.0
1070
    43
1040
7.0
1070
    44
1040
1.5
1070
    73
1070
     0
1070
    74
1070
     0
1070
    77
1070
     3
1070
   140
1040
6.0
1070
   141
1040
7.0
1070
   147
1040
1.0
1070
   172
1070
     1
1070
   173
1070
     1
1070
   176
1070
     4
1070
   177
1070
     4
1070
   178
1070
     4
1070
   271
1070
     0
1070
   272
1070
     2
1070
     6
1000
OPEN
1070
     7
1000
OPEN
1002
}
  0
LINE
  5
2003
330
1A
100
AcDbEntity
  8
SEIHIN
100
AcDbLine
 10
544.1116922931437
 20
450.2854054052098
 30
0.0
 11
530.6116922931437
 21
450.2854054052098
 31
0.0
  0
ARC
  5
2004
330
1A
100
AcDbEntity
  8
SEIHIN
100
AcDbCircle
 10
543.6116922931437
 20
434.2854054052098
 30
0.0
 40
2.0
100
AcDbArc
 50
270.0
 51
0.0
  0
ARC
  5
2005
330
1A
100
AcDbEntity
  8
SEIHIN
100
AcDbCircle
 10
542.9636014270438
 20
442.2854054052097
 30
0.0
 40
9.999999999999998
100
AcDbArc
 50
197.3540246363016
 51
270.0
  0
LINE
  5
2006
330
1A
100
AcDbEntity
  8
SEIHIN
100
AcDbLine
 10
543.6116922931437
 20
432.2854054052098
 30
0.0
 11
542.9636014270438
 21
432.2854054052098
 31
0.0
  0
LINE
  5
2007
330
1A
100
AcDbEntity
  8
SEIHIN
100
AcDbLine
 10
533.4188016466437
 20
439.3026554738097
 30
0.0
 11
530.6116922931437
 21
448.2854054052098
 31
0.0
  0
LINE
  5
2008
330
1A
100
AcDbEntity
  8
SEIHIN
100
AcDbLine
 10
530.6116922931437
 20
448.2854054052098
 30
0.0
 11
530.6116922931437
 21
450.2854054052098
 31
0.0
  0
ARC
  5
2009
330
1A
100
AcDbEntity
  8
SEIHIN
100
AcDbCircle
 10
531.6116922931437
 20
449.2854054052098
 30
0.0
 40
1.0
100
AcDbArc
 50
90.0
 51
93.03947777139152
  0
DIMENSION
  5
200B
330
1A
100
AcDbEntity
  8
SUNPOU
 62
     4
 48
5.0
100
AcDbDimension
  2
*D2
 10
614.3716755349431
 20
432.2854054052097
 30
0.0
 11
610.3716755349429
 21
441.2854054052098
 31
0.0
 70
    32
 71
     5
 42
18.00000000000006
  3
STANDARD
100
AcDbAlignedDimension
 13
600.6116922931437
 23
450.2854054052098
 33
0.0
 14
588.2597831592437
 24
432.2854054052097
 34
0.0
 50
90.0
100
AcDbRotatedDimension
1001
ACAD
1000
DSTYLE
1002
{
1070
    41
1040
3.5
1070
    42
1040
3.0
1070
    43
1040
7.0
1070
    44
1040
1.5
1070
    73
1070
     0
1070
    74
1070
     0
1070
    77
1070
     3
1070
   140
1040
6.0
1070
   141
1040
7.0
1070
   147
1040
1.0
1070
   172
1070
     1
1070
   173
1070
     1
1070
   176
1070
     4
1070
   177
1070
     4
1070
   178
1070
     4
1070
   271
1070
     0
1070
   272
1070
     2
1070
     6
1000
OPEN
1070
     7
1000
OPEN
1002
}
  0
DIMENSION
  5
200C
330
1A
100
AcDbEntity
  8
SUNPOU
 62
     4
 48
5.0
100
AcDbDimension
  2
*D3
 10
627.3148895007613
 20
430.2854054052098
 30
0.0
 11
627.3148895007612
 21
445.2854054052098
 31
0.0
 70
   160
 71
     5
 42
30.0
  3
STANDARD
100
AcDbAlignedDimension
 13
558.6116922931437
 23
460.2854054052098
 33
0.0
 14
565.6116922931437
 24
430.2854054052098
 34
0.0
 50
90.0
100
AcDbRotatedDimension
1001
ACAD
1000
DSTYLE
1002
{
1070
    41
1040
3.5
1070
    42
1040
3.0
1070
    43
1040
7.0
1070
    44
1040
1.5
1070
    73
1070
     0
1070
    74
1070
     0
1070
    77
1070
     3
1070
   140
1040
6.0
1070
   141
1040
7.0
1070
   147
1040
1.0
1070
   172
1070
     1
1070
   173
1070
     1
1070
   176
1070
     4
1070
   177
1070
     4
1070
   178
1070
     4
1070
   271
1070
     0
1070
   272
1070
     2
1070
     6
1000
OPEN
1070
     7
1000
OPEN
1002
}
  0
ARC
  5
200D
330
1A
100
AcDbEntity
  8
SEIHIN
100
AcDbCircle
 10
587.6116922931437
 20
434.2854054052098
 30
0.0
 40
2.0
100
AcDbArc
 50
180.0
 51
270.0
  0
ARC
  5
200E
330
1A
100
AcDbEntity
  8
SEIHIN
100
AcDbCircle
 10
588.2597831592437
 20
442.2854054052097
 30
0.0
 40
9.999999999999972
100
AcDbArc
 50
270.0
 51
342.6459753636984
  0
ARC
  5
200F
330
1A
100
AcDbEntity
  8
SEIHIN
100
AcDbCircle
 10
563.6116922931437
 20
438.2854054052097
 30
0.0
 40
8.0
100
AcDbArc
 50
180.0
 51
270.0
  0
ARC
  5
2010
330
1A
100
AcDbEntity
  8
SEIHIN
100
AcDbCircle
 10
567.6116922931437
 20
438.2854054052097
 30
0.0
 40
7.999999999999972
100
AcDbArc
 50
270.0
 51
0.0
  0
LINE
  5
2011
330
1A
100
AcDbEntity
  8
CENTER L
  6
CENTER
 62
     1
 48
5.0
100
AcDbLine
 10
565.6116922931437
 20
462.3295385394557
 30
0.0
 11
565.6116922931437
 21
428.2546751514776
 31
0.0
  0
LINE
  5
2012
330
1A
100
AcDbEntity
  8
SEIHIN
100
AcDbLine
 10
567.6116922931437
 20
430.2854054052098
 30
0.0
 11
563.6116922931437
 21
430.2854054052098
 31
0.0
  0
LINE
  5
2013
330
1A
100
AcDbEntity
  8
SEIHIN
100
AcDbLine
 10
588.2597831592437
 20
432.2854054052098
 30
0.0
 11
587.6116922931437
 21
432.2854054052098
 31
0.0
  0
ARC
  5
2014
330
1A
100
AcDbEntity
  8
SEIHIN
100
AcDbCircle
 10
576.6116922931437
 20
450.2854054052098
 30
0.0
 40
1.0
100
AcDbArc
 50
180.0
 51
270.0
  0
LINE
  5
2015
330
1A
100
AcDbEntity
  8
SEIHIN
100
AcDbLine
 10
575.6116922931437
 20
448.2854054052098
 30
0.0
 11
585.6116922931437
 21
448.2854054052098
 31
0.0
  0
LINE
  5
2016
330
1A
100
AcDbEntity
  8
SEIHIN
100
AcDbLine
 10
555.6116922931437
 20
438.2854054052097
 30
0.0
 11
555.6116922931437
 21
457.2854054052098
 31
0.0
  0
LINE
  5
2017
330
1A
100
AcDbEntity
  8
SEIHIN
100
AcDbLine
 10
575.6116922931437
 20
457.2854054052098
 30
0.0
 11
575.6116922931437
 21
438.2854054052097
 31
0.0
  0
LINE
  5
2018
330
1A
100
AcDbEntity
  8
SEIHIN
100
AcDbLine
 10
545.6116922931437
 20
450.2854054052098
 30
0.0
 11
545.6116922931437
 21
434.2854054052098
 31
0.0
  0
LINE
  5
2019
330
1A
100
AcDbEntity
  8
SEIHIN
100
AcDbLine
 10
546.6116922931437
 20
449.2854054052098
 30
0.0
 11
554.6116922931437
 21
449.2854054052098
 31
0.0
  0
LINE
  5
201A
330
1A
100
AcDbEntity
  8
SEIHIN
100
AcDbLine
 10
545.6116922931437
 20
448.2854054052098
 30
0.0
 11
555.6116922931437
 21
448.2854054052098
 31
0.0
  0
LINE
  5
201B
330
1A
100
AcDbEntity
  8
SEIHIN
100
AcDbLine
 10
544.1116922931437
 20
450.2854054052098
 30
0.0
 11
545.6116922931437
 21
450.2854054052098
 31
0.0
  0
ARC
  5
201C
330
1A
100
AcDbEntity
  8
SEIHIN
100
AcDbCircle
 10
546.6116922931437
 20
450.2854054052098
 30
0.0
 40
1.0
100
AcDbArc
 50
180.0
 51
270.0
  0
ARC
  5
201D
330
1A
100
AcDbEntity
  8
SEIHIN
100
AcDbCircle
 10
554.6116922931437
 20
450.2854054052098
 30
0.0
 40
1.0
100
AcDbArc
 50
270.0
 51
0.0
  0
LINE
  5
201E
330
1A
100
AcDbEntity
  8
SEIHIN
100
AcDbLine
 10
558.6116922931437
 20
460.2854054052098
 30
0.0
 11
572.6116922931437
 21
460.2854054052098
 31
0.0
  0
DIMENSION
  5
201F
330
1A
100
AcDbEntity
  8
SUNPOU
 62
     4
 48
5.0
100
AcDbDimension
  2
*D4
 10
575.6116922931437
 20
472.3672851621869
 30
0.0
 11
565.6116922931437
 21
476.3672851621869
 31
0.0
 70
    32
 71
     5
 42
20.0
  3
STANDARD
100
AcDbAlignedDimension
 13
555.6116922931437
 23
457.2854054052098
 33
0.0
 14
575.6116922931437
 24
457.2854054052098
 34
0.0
100
AcDbRotatedDimension
1001
ACAD
1000
DSTYLE
1002
{
1070
    41
1040
3.5
1070
    42
1040
3.0
1070
    43
1040
7.0
1070
    44
1040
1.5
1070
    73
1070
     0
1070
    74
1070
     0
1070
    77
1070
     3
1070
   140
1040
6.0
1070
   141
1040
7.0
1070
   147
1040
1.0
1070
   172
1070
     1
1070
   173
1070
     1
1070
   176
1070
     4
1070
   177
1070
     4
1070
   178
1070
     4
1070
   271
1070
     0
1070
   272
1070
     2
1070
     6
1000
OPEN
1070
     7
1000
OPEN
1002
}
  0
ARC
  5
2020
330
1A
100
AcDbEntity
  8
SEIHIN
100
AcDbCircle
 10
558.6116922931437
 20
457.2854054052098
 30
0.0
 40
3.0
100
AcDbArc
 50
90.0
 51
180.0
  0
ARC
  5
2021
330
1A
100
AcDbEntity
  8
SEIHIN
100
AcDbCircle
 10
572.6116922931437
 20
457.2854054052098
 30
0.0
 40
3.0
100
AcDbArc
 50
0.0
 51
90.0
  0
DIMENSION
  5
2022
330
1A
100
AcDbEntity
  8
SUNPOU
 62
     4
 48
5.0
100
AcDbDimension
  2
*D5
 10
600.6116922931437
 20
472.3672851621869
 30
0.0
 11
593.1116922931437
 21
476.3672851621869
 31
0.0
 70
    32
 71
     5
 42
15.0
  3
STANDARD
100
AcDbAlignedDimension
 13
585.6116922931437
 23
450.2854054052098
 33
0.0
 14
600.6116922931437
 24
450.2854054052098
 34
0.0
100
AcDbRotatedDimension
1001
ACAD
1000
DSTYLE
1002
{
1070
    41
1040
3.5
1070
    42
1040
3.0
1070
    43
1040
7.0
1070
    44
1040
1.5
1070
    73
1070
     0
1070
    74
1070
     0
1070
    77
1070
     3
1070
   140
1040
6.0
1070
   141
1040
7.0
1070
   147
1040
1.0
1070
   172
1070
     1
1070
   173
1070
     1
1070
   176
1070
     4
1070
   177
1070
     4
1070
   178
1070
     4
1070
   271
1070
     0
1070
   272
1070
     2
1070
     6
1000
OPEN
1070
     7
1000
OPEN
1002
}
  0
LINE
  5
2023
330
1A
100
AcDbEntity
  8
SEIHIN
100
AcDbLine
 10
600.6116922931437
 20
450.2854054052098
 30
0.0
 11
587.1116922931437
 21
450.2854054052098
 31
0.0
  0
LINE
  5
2024
330
1A
100
AcDbEntity
  8
SEIHIN
100
AcDbLine
 10
585.6116922931437
 20
434.2854054052098
 30
0.0
 11
585.6116922931437
 21
450.2854054052098
 31
0.0
  0
ARC
  5
2025
330
1A
100
AcDbEntity
  8
SEIHIN
100
AcDbCircle
 10
584.6116922931437
 20
450.2854054052098
 30
0.0
 40
1.0
100
AcDbArc
 50
270.0
 51
0.0
  0
LINE
  5
2026
330
1A
100
AcDbEntity
  8
SEIHIN
100
AcDbLine
 10
576.6116922931437
 20
449.2854054052098
 30
0.0
 11
584.6116922931437
 21
449.2854054052098
 31
0.0
  0
LINE
  5
2027
330
1A
100
AcDbEntity
  8
SEIHIN
100
AcDbLine
 10
585.6116922931437
 20
450.2854054052098
 30
0.0
 11
587.1116922931437
 21
450.2854054052098
 31
0.0
  0
LINE
  5
2028
330
1A
100
AcDbEntity
  8
SEIHIN
100
AcDbLine
 10
600.6116922931437
 20
448.2854054052098
 30
0.0
 11
597.8045829395437
 21
439.3026554738097
 31
0.0
  0
ARC
  5
2029
330
1A
100
AcDbEntity
  8
SEIHIN
100
AcDbCircle
 10
599.6116922931437
 20
449.2854054052098
 30
0.0
 40
0.9999999999999191
100
AcDbArc
 50
86.96052222859544
 51
90.0
  0
LINE
  5
202A
330
1A
100
AcDbEntity
  8
SEIHIN
100
AcDbLine
 10
600.6116922931437
 20
450.2854054052098
 30
0.0
 11
600.6116922931437
 21
448.2854054052098
 31
0.0
  0
LINE
  5
202B
330
1A
100
AcDbEntity
  8
SEIHIN
100
AcDbLine
 10
653.7070764990158
 20
439.3026554738098
 30
0.0
 11
653.7070764990158
 21
432.2854054052098
 31
0.0
  0
LINE
  5
202C
330
1A
100
AcDbEntity
  8
SEIHIN
100
AcDbLine
 10
654.207076499016
 20
439.3026554738098
 30
0.0
 11
654.207076499016
 21
432.2854054052098
 31
0.0
  0
LINE
  5
202D
330
1A
100
AcDbEntity
  8
SEIHIN
100
AcDbLine
 10
652.207076499016
 20
431.7854054052098
 30
0.0
 11
652.207076499016
 21
433.7854054052098
 31
0.0
  0
LINE
  5
202E
330
1A
100
AcDbEntity
  8
SEIHIN
100
AcDbLine
 10
654.207076499016
 20
436.2854054052096
 30
0.0
 11
654.207076499016
 21
432.2854054052096
 31
0.0
  0
LINE
  5
202F
330
1A
100
AcDbEntity
  8
SEIHIN
100
AcDbLine
 10
654.207076499016
 20
430.2854054052098
 30
0.0
 11
653.7070764990158
 21
430.2854054052098
 31
0.0
  0
ARC
  5
2030
330
1A
100
AcDbEntity
  8
SEIHIN
100
AcDbCircle
 10
653.7070764990158
 20
431.7854054052098
 30
0.0
 40
1.499999999999886
100
AcDbArc
 50
180.0
 51
270.0
  0
LINE
  5
2031
330
1A
100
AcDbEntity
  8
SEIHIN
100
AcDbLine
 10
654.207076499016
 20
432.2854054052098
 30
0.0
 11
654.207076499016
 21
430.2854054052098
 31
0.0
  0
LINE
  5
2032
330
1A
100
AcDbEntity
  8
SEIHIN
100
AcDbLine
 10
653.7070764990158
 20
432.2854054052098
 30
0.0
 11
653.7070764990158
 21
430.2854054052098
 31
0.0
  0
LINE
  5
2033
330
1A
100
AcDbEntity
  8
SEIHIN
100
AcDbLine
 10
654.207076499016
 20
432.2854054052096
 30
0.0
 11
654.207076499016
 21
430.2854054052096
 31
0.0
  0
DIMENSION
  5
2034
330
1A
100
AcDbEntity
  8
SUNPOU
 62
     4
 48
5.0
100
AcDbDimension
  2
*D6
 10
660.207076499016
 20
472.3672851621869
 30
0.0
 11
656.2070764990159
 21
476.3672851621869
 31
0.0
 70
    32
 71
     5
 42
8.000000000000227
  3
STANDARD
100
AcDbAlignedDimension
 13
652.2070764990158
 23
458.7854054052098
 33
0.0
 14
660.207076499016
 24
448.7854054052097
 34
0.0
100
AcDbRotatedDimension
1001
ACAD
1000
DSTYLE
1002
{
1070
    41
1040
3.5
1070
    42
1040
3.0
1070
    43
1040
7.0
1070
    44
1040
1.5
1070
    73
1070
     0
1070
    74
1070
     0
1070
    77
1070
     3
1070
   140
1040
6.0
1070
   141
1040
7.0
1070
   147
1040
1.0
1070
   172
1070
     1
1070
   173
1070
     1
1070
   176
1070
     4
1070
   177
1070
     4
1070
   178
1070
     4
1070
   271
1070
     0
1070
   272
1070
     2
1070
     6
1000
OPEN
1070
     7
1000
OPEN
1002
}
  0
LINE
  5
2035
330
1A
100
AcDbEntity
  8
SEIHIN
100
AcDbLine
 10
652.207076499016
 20
450.2854054052098
 30
0.0
 11
652.207076499016
 21
457.2854054052098
 31
0.0
  0
LINE
  5
2036
330
1A
100
AcDbEntity
  8
SEIHIN
100
AcDbLine
 10
654.207076499016
 20
457.2854054052098
 30
0.0
 11
654.207076499016
 21
450.7854054052098
 31
0.0
  0
LINE
  5
2037
330
1A
100
AcDbEntity
  8
SEIHIN
100
AcDbLine
 10
654.207076499016
 20
458.2854054052098
 30
0.0
 11
654.207076499016
 21
450.2854054052098
 31
0.0
  0
LINE
  5
2038
330
1A
100
AcDbEntity
  8
SEIHIN
100
AcDbLine
 10
652.207076499016
 20
450.2854054052098
 30
0.0
 11
659.207076499016
 21
450.2854054052098
 31
0.0
  0
LINE
  5
2039
330
1A
100
AcDbEntity
  8
SEIHIN
100
AcDbLine
 10
659.207076499016
 20
448.2854054052098
 30
0.0
 11
654.207076499016
 21
448.2854054052098
 31
0.0
  0
LINE
  5
203A
330
1A
100
AcDbEntity
  8
SEIHIN
100
AcDbLine
 10
655.9834561168161
 20
444.2056601829097
 30
0.0
 11
655.6570764990158
 21
448.2854054052098
 31
0.0
  0
LINE
  5
203B
330
1A
100
AcDbEntity
  8
SEIHIN
100
AcDbLine
 10
658.1570764990158
 20
448.2854054052098
 30
0.0
 11
658.1570764990158
 21
443.2854054052098
 31
0.0
  0
LINE
  5
203C
330
1A
100
AcDbEntity
  8
SEIHIN
100
AcDbLine
 10
658.1570764990161
 20
448.2854054052096
 30
0.0
 11
658.1570764990161
 21
443.2854054052096
 31
0.0
  0
LINE
  5
203D
330
1A
100
AcDbEntity
  8
SEIHIN
100
AcDbLine
 10
653.7070764990158
 20
448.2854054052098
 30
0.0
 11
653.7070764990158
 21
439.3026554738098
 31
0.0
  0
LINE
  5
203E
330
1A
100
AcDbEntity
  8
SEIHIN
100
AcDbLine
 10
654.207076499016
 20
439.3026554738098
 30
0.0
 11
654.207076499016
 21
448.2854054052098
 31
0.0
  0
LINE
  5
203F
330
1A
100
AcDbEntity
  8
SEIHIN
100
AcDbLine
 10
652.207076499016
 20
439.7500679635098
 30
0.0
 11
652.207076499016
 21
450.2839986425097
 31
0.0
  0
LINE
  5
2040
330
1A
100
AcDbEntity
  8
SEIHIN
100
AcDbLine
 10
658.1570764990158
 20
443.2854054052098
 30
0.0
 11
656.9802713953161
 21
443.2854054052098
 31
0.0
  0
ARC
  5
2041
330
1A
100
AcDbEntity
  8
SEIHIN
100
AcDbCircle
 10
656.9802713953161
 20
444.2854054052098
 30
0.0
 40
1.000000000000008
100
AcDbArc
 50
184.5739212599011
 51
270.0
  0
LINE
  5
2042
330
1A
100
AcDbEntity
  8
SEIHIN
100
AcDbLine
 10
652.207076499016
 20
433.7854054052098
 30
0.0
 11
652.207076499016
 21
439.7500679635098
 31
0.0
  0
LINE
  5
2043
330
1A
100
AcDbEntity
  8
SEIHIN
100
AcDbLine
 10
652.207076499016
 20
450.2839986425097
 30
0.0
 11
652.207076499016
 21
450.2854054052098
 31
0.0
  0
LINE
  5
2044
330
1A
100
AcDbEntity
  8
SEIHIN
100
AcDbLine
 10
654.207076499016
 20
448.2854054052098
 30
0.0
 11
653.7070764990158
 21
448.2854054052098
 31
0.0
  0
LINE
  5
2045
330
1A
100
AcDbEntity
  8
SEIHIN
100
AcDbLine
 10
660.207076499016
 20
449.2854054052098
 30
0.0
 11
660.207076499016
 21
448.2854054052098
 31
0.0
  0
LINE
  5
2046
330
1A
100
AcDbEntity
  8
SEIHIN
100
AcDbLine
 10
660.207076499016
 20
448.2854054052098
 30
0.0
 11
659.207076499016
 21
448.2854054052098
 31
0.0
  0
ARC
  5
2047
330
1A
100
AcDbEntity
  8
SEIHIN
100
AcDbCircle
 10
659.207076499016
 20
449.2854054052098
 30
0.0
 40
1.0
100
AcDbArc
 50
0.0
 51
90.0
  0
LINE
  5
2048
330
1A
100
AcDbEntity
  8
SEIHIN
100
AcDbLine
 10
660.207076499016
 20
448.2854054052096
 30
0.0
 11
659.207076499016
 21
448.2854054052096
 31
0.0
  0
LINE
  5
2049
330
1A
100
AcDbEntity
  8
SEIHIN
100
AcDbLine
 10
660.207076499016
 20
449.2854054052098
 30
0.0
 11
660.207076499016
 21
448.2854054052096
 31
0.0
  0
LINE
  5
204A
330
1A
100
AcDbEntity
  8
SEIHIN
100
AcDbLine
 10
654.207076499016
 20
460.2854054052098
 30
0.0
 11
654.207076499016
 21
458.2854054052098
 31
0.0
  0
ARC
  5
204B
330
1A
100
AcDbEntity
  8
SEIHIN
100
AcDbCircle
 10
653.7070764990158
 20
458.7854054052098
 30
0.0
 40
1.5
100
AcDbArc
 50
90.0
 51
180.0
  0
LINE
  5
204C
330
1A
100
AcDbEntity
  8
SEIHIN
100
AcDbLine
 10
653.7070764990158
 20
460.2854054052098
 30
0.0
 11
654.207076499016
 21
460.2854054052098
 31
0.0
  0
LINE
  5
204D
330
1A
100
AcDbEntity
  8
SEIHIN
100
AcDbLine
 10
653.707076499016
 20
460.2854054052098
 30
0.0
 11
654.207076499016
 21
460.2854054052098
 31
0.0
  0
LINE
  5
204E
330
1A
100
AcDbEntity
  8
SEIHIN
100
AcDbLine
 10
652.207076499016
 20
457.2854054052098
 30
0.0
 11
652.207076499016
 21
458.7854054052098
 31
0.0
  0
LINE
  5
204F
330
1A
100
AcDbEntity
  8
SEIHIN
100
AcDbLine
 10
654.207076499016
 20
460.2854054052098
 30
0.0
 11
654.207076499016
 21
457.2854054052098
 31
0.0
  0
DIMENSION
  5
28AB
330
1A
100
AcDbEntity
  8
SUNPOU
100
AcDbDimension
  2
*D7
 10
342.7048181006957
 20
306.5982574347324
 30
0.0
 11
232.7045181006957
 21
311.5982574347324
 31
0.0
 70
    32
 71
     5
 42
220.0006
  3
STANDARD
100
AcDbAlignedDimension
 13
122.7042181006957
 23
270.1064289981478
 33
0.0
 14
342.7048181006957
 24
270.1059289981479
 34
0.0
100
AcDbRotatedDimension
1001
ACAD
1000
DSTYLE
1002
{
1070
   140
1040
6.0
1070
    74
1070
     0
1070
   172
1070
     1
1070
    73
1070
     0
1070
   272
1070
     2
1070
    77
1070
     3
1070
   173
1070
     1
1070
   147
1040
2.0
1070
    42
1040
6.0
1070
    44
1040
3.0
1070
    43
1040
14.0
1070
   271
1070
     0
1070
   178
1070
     4
1070
   177
1070
     4
1070
   176
1070
     4
1070
   141
1040
150.0
1070
     7
1000
_OPEN
1070
     6
1000
_OPEN
1070
    41
1040
7.0
1002
}
  0
LINE
  5
28AC
330
1A
100
AcDbEntity
  8
SEIHIN
  6
Continuous
 62
     3
 48
16.0
100
AcDbLine
 10
232.7045181006956
 20
270.1061289981479
 30
0.0
 11
122.7042181006957
 21
270.1064289981478
 31
0.0
  0
ARC
  5
28AD
330
1A
100
AcDbEntity
  8
SEIHIN
  6
Continuous
 62
     3
 48
16.0
100
AcDbCircle
 10
127.5142044252464
 20
242.1062413743212
 30
0.0
 40
2.000012376220158
100
AcDbArc
 50
185.7106998542104
 51
270.0003917703403
  0
LINE
  5
28AE
330
1A
100
AcDbEntity
  8
SEIHIN
  6
Continuous
 62
     3
 48
16.0
100
AcDbLine
 10
125.5241181006958
 20
241.9073289981479
 30
0.0
 11
122.7042181006957
 21
270.1059289981479
 31
0.0
  0
DIMENSION
  5
28AF
330
1A
100
AcDbEntity
  8
SUNPOU
100
AcDbDimension
  2
*D8
 10
311.7044829192275
 20
59.32995437589852
 30
0.0
 11
232.7043146123534
 21
64.32995437589852
 31
0.0
 70
    32
 71
     5
 42
158.0003366137482
  3
STANDARD
100
AcDbAlignedDimension
 13
153.7041463054793
 23
154.206431097473
 33
0.0
 14
311.7044829192275
 24
154.2061247995099
 34
0.0
100
AcDbRotatedDimension
1001
ACAD
1000
DSTYLE
1002
{
1070
   140
1040
6.0
1070
    74
1070
     0
1070
   172
1070
     1
1070
    73
1070
     0
1070
   272
1070
     2
1070
    77
1070
     3
1070
   173
1070
     1
1070
   147
1040
2.0
1070
    42
1040
6.0
1070
    44
1040
3.0
1070
    43
1040
14.0
1070
   271
1070
     0
1070
   178
1070
     4
1070
   177
1070
     4
1070
   176
1070
     4
1070
   141
1040
150.0
1070
     7
1000
_OPEN
1070
     6
1000
_OPEN
1070
    41
1040
7.0
1002
}
  0
LINE
  5
28B4
330
1A
100
AcDbEntity
  8
CENTER L
  6
CENTER
 62
     1
 48
5.0
100
AcDbLine
 10
232.7045202123094
 20
277.1060840112829
 30
0.0
 11
232.7042181006957
 21
78.65812899814785
 31
0.0
  0
LINE
  5
28C1
330
1A
100
AcDbEntity
  8
SEIHIN
  6
Continuous
 62
     3
 48
16.0
100
AcDbLine
 10
232.7045181006956
 20
270.1061289981479
 30
0.0
 11
342.7048181006957
 21
270.1059289981479
 31
0.0
  0
LINE
  5
28C2
330
1A
100
AcDbEntity
  8
SEIHIN
  6
Continuous
 62
     3
 48
16.0
100
AcDbLine
 10
232.7042181006957
 20
138.2062289981477
 30
0.0
 11
290.5957181006958
 21
138.2061289981477
 31
0.0
  0
LINE
  5
28C3
330
1A
100
AcDbEntity
  8
SEIHIN
  6
Continuous
 62
     3
 48
16.0
100
AcDbLine
 10
232.7044181006958
 20
240.1060289981479
 30
0.0
 11
337.8947181006956
 21
240.1058289981478
 31
0.0
  0
LINE
  5
28C4
330
1A
100
AcDbEntity
  8
SEIHIN
  6
Continuous
 62
     3
 48
16.0
100
AcDbLine
 10
232.7043181006957
 20
154.2063289981478
 30
0.0
 11
310.0801181006956
 21
154.2061289981478
 31
0.0
  0
LINE
  5
28C5
330
1A
100
AcDbEntity
  8
SEIHIN
  6
Continuous
 62
     3
 48
16.0
100
AcDbLine
 10
232.7044181006958
 20
138.2062289981477
 30
0.0
 11
275.8938181006957
 21
138.2061289981477
 31
0.0
  0
LINE
  5
28C6
330
1A
100
AcDbEntity
  8
SEIHIN
  6
Continuous
 62
     3
 48
16.0
100
AcDbLine
 10
232.7043181006957
 20
177.2062289981478
 30
0.0
 11
316.5240181006956
 21
177.2061289981478
 31
0.0
  0
LINE
  5
28C7
330
1A
100
AcDbEntity
  8
SEIHIN
  6
Continuous
 62
     3
 48
16.0
100
AcDbLine
 10
135.7046181006957
 20
240.1061289981479
 30
0.0
 11
153.3710181006958
 21
155.7962289981478
 31
0.0
  0
LINE
  5
28C8
330
1A
100
AcDbEntity
  8
SEIHIN
  6
Continuous
 62
     3
 48
16.0
100
AcDbLine
 10
232.7044181006958
 20
177.2062289981478
 30
0.0
 11
148.8847181006958
 21
177.2064289981478
 31
0.0
  0
LINE
  5
28C9
330
1A
100
AcDbEntity
  8
SEIHIN
  6
Continuous
 62
     3
 48
16.0
100
AcDbLine
 10
232.7044181006958
 20
154.2063289981478
 30
0.0
 11
155.3285181006957
 21
154.2064289981477
 31
0.0
  0
LINE
  5
28CA
330
1A
100
AcDbEntity
  8
SEIHIN
  6
Continuous
 62
     3
 48
16.0
100
AcDbLine
 10
232.7042181006957
 20
138.2062289981477
 30
0.0
 11
189.5148181006957
 21
138.2062289981477
 31
0.0
  0
LINE
  5
28CB
330
1A
100
AcDbEntity
  8
SEIHIN
  6
Continuous
 62
     3
 48
16.0
100
AcDbLine
 10
232.7044181006958
 20
138.2062289981477
 30
0.0
 11
174.8129181006958
 21
138.2063289981477
 31
0.0
  0
ARC
  5
28CC
330
1A
100
AcDbEntity
  8
SEIHIN
  6
Continuous
 62
     3
 48
16.0
100
AcDbCircle
 10
155.328567537831
 20
156.2063888473417
 30
0.0
 40
1.999959849804929
100
AcDbArc
 50
191.8344188115563
 51
269.9985837019648
  0
LINE
  5
28CD
330
1A
100
AcDbEntity
  8
SEIHIN
  6
Continuous
 62
     3
 48
16.0
100
AcDbLine
 10
163.8511181006958
 20
153.9713289981478
 30
0.0
 11
173.1168181006958
 21
139.1463289981477
 31
0.0
  0
ARC
  5
28CE
330
1A
100
AcDbEntity
  8
SEIHIN
  6
Continuous
 62
     3
 48
16.0
100
AcDbCircle
 10
174.8128144922041
 20
140.2063309981457
 30
0.0
 40
2.000002000001237
100
AcDbArc
 50
212.0054865836513
 51
270.0001033755677
  0
ARC
  5
28CF
330
1A
100
AcDbEntity
  8
SEIHIN
  6
Continuous
 62
     3
 48
16.0
100
AcDbCircle
 10
163.4271190028187
 20
153.7063284981483
 30
0.0
 40
0.5000005000003183
100
AcDbArc
 50
32.00548658365461
 51
90.00010337557093
  0
LINE
  5
28D0
330
1A
100
AcDbEntity
  8
SEIHIN
  6
Continuous
 62
     3
 48
16.0
100
AcDbLine
 10
232.7045181006956
 20
240.1061289981479
 30
0.0
 11
127.5142181006958
 21
240.1062289981478
 31
0.0
  0
LINE
  5
28D1
330
1A
100
AcDbEntity
  8
SEIHIN
  6
Continuous
 62
     3
 48
16.0
100
AcDbLine
 10
329.7043181006958
 20
240.1058289981478
 30
0.0
 11
312.0376181006958
 21
155.7959289981478
 31
0.0
  0
ARC
  5
28D2
330
1A
100
AcDbEntity
  8
SEIHIN
  6
Continuous
 62
     3
 48
16.0
100
AcDbCircle
 10
290.5957930239524
 20
140.2062151005512
 30
0.0
 40
1.999986102560666
100
AcDbArc
 50
270.0007184007727
 51
327.9913874665095
  0
LINE
  5
28D3
330
1A
100
AcDbEntity
  8
SEIHIN
  6
Continuous
 62
     3
 48
16.0
100
AcDbLine
 10
301.5575181006956
 20
153.9711289981478
 30
0.0
 11
292.2917181006958
 21
139.1461289981478
 31
0.0
  0
ARC
  5
28D4
330
1A
100
AcDbEntity
  8
SEIHIN
  6
Continuous
 62
     3
 48
16.0
100
AcDbCircle
 10
301.9815171985727
 20
153.7061284981482
 30
0.0
 40
0.5000005000004076
100
AcDbArc
 50
89.99989662441443
 51
147.9945134163325
  0
ARC
  5
28D5
330
1A
100
AcDbEntity
  8
SEIHIN
  6
Continuous
 62
     3
 48
16.0
100
AcDbCircle
 10
310.0801289189236
 20
156.2061377843593
 30
0.0
 40
2.000008786240775
100
AcDbArc
 50
269.9996900819593
 51
348.1644425590183
  0
LINE
  5
28D6
330
1A
100
AcDbEntity
  8
SEIHIN
  6
Continuous
 62
     3
 48
16.0
100
AcDbLine
 10
339.8848181006957
 20
241.9068289981479
 30
0.0
 11
342.7048181006957
 21
270.1055289981478
 31
0.0
  0
ARC
  5
28D7
330
1A
100
AcDbEntity
  8
SEIHIN
  6
Continuous
 62
     3
 48
16.0
100
AcDbCircle
 10
337.8947317761449
 20
242.1058413743213
 30
0.0
 40
2.000012376220284
100
AcDbArc
 50
269.9996082296581
 51
354.2893001457896
  0
LINE
  5
28D8
330
1A
100
AcDbEntity
  8
SEIHIN
  6
Continuous
 62
     3
 48
16.0
100
AcDbLine
 10
122.7045181006956
 20
415.3889790367572
 30
0.0
 11
126.7244181006957
 21
415.3889790367572
 31
0.0
  0
LINE
  5
28D9
330
1A
100
AcDbEntity
  8
SEIHIN
  6
Continuous
 62
     3
 48
16.0
100
AcDbLine
 10
122.7048181006958
 20
415.3889790367572
 30
0.0
 11
126.7047181006957
 21
415.3889790367572
 31
0.0
  0
ARC
  5
28DA
330
1A
100
AcDbEntity
  8
SEIHIN
  6
Continuous
 62
     3
 48
16.0
100
AcDbCircle
 10
137.7045181008623
 20
383.4890790365906
 30
0.0
 40
15.00000000016667
100
AcDbArc
 50
179.9999999993633
 51
269.9996180274992
  0
ARC
  5
28DB
330
1A
100
AcDbEntity
  8
SEIHIN
  6
Continuous
 62
     3
 48
16.0
100
AcDbCircle
 10
138.7244181006957
 20
382.8004790367572
 30
0.0
 40
12.00000000041661
100
AcDbArc
 50
179.9995225351711
 51
269.9995225351703
  0
LINE
  5
28DC
330
1A
100
AcDbEntity
  8
SEIHIN
  6
Continuous
 62
     3
 48
16.0
100
AcDbLine
 10
122.7045181006956
 20
383.4889790367572
 30
0.0
 11
122.7045181006956
 21
415.3889790367572
 31
0.0
  0
LINE
  5
28DD
330
1A
100
AcDbEntity
  8
SEIHIN
  6
Continuous
 62
     3
 48
16.0
100
AcDbLine
 10
122.7048181006958
 20
415.3892790367572
 30
0.0
 11
122.7048181006958
 21
383.4888790367572
 31
0.0
  0
LINE
  5
28DE
330
1A
100
AcDbEntity
  8
SUNPOU
  6
PHANTOM
 62
     4
 48
5.0
100
AcDbLine
 10
202.7048498089484
 20
396.4892157751923
 30
0.0
 11
202.7053027698321
 21
526.489215774478
 31
0.0
  0
LINE
  5
28DF
330
1A
100
AcDbEntity
  8
SUNPOU
  6
PHANTOM
 62
     4
 48
5.0
100
AcDbLine
 10
262.7048181006957
 20
396.4891112458128
 30
0.0
 11
262.7048181006958
 21
526.4891112458878
 31
0.0
  0
LINE
  5
28E0
330
1A
100
AcDbEntity
  8
SEIHIN
  6
Continuous
 62
     3
 48
16.0
100
AcDbLine
 10
148.8853181006957
 20
425.367579036757
 30
0.0
 11
148.8854181006957
 21
514.1326790367571
 31
0.0
  0
LINE
  5
28E1
330
1A
100
AcDbEntity
  8
SEIHIN
  6
Continuous
 62
     3
 48
16.0
100
AcDbLine
 10
151.2352181006957
 20
424.8389790367572
 30
0.0
 11
151.2353181006956
 21
514.9389790367571
 31
0.0
  0
LINE
  5
28E2
330
1A
100
AcDbEntity
  8
SEIHIN
  6
Continuous
 62
     3
 48
16.0
100
AcDbLine
 10
174.9799181006957
 20
436.2192790367571
 30
0.0
 11
174.9799181006957
 21
510.5727790367571
 31
0.0
  0
LINE
  5
28E3
330
1A
100
AcDbEntity
  8
SEIHIN
  6
Continuous
 62
     3
 48
16.0
100
AcDbLine
 10
164.9797181006958
 20
434.219479036757
 30
0.0
 11
164.9798181006958
 21
511.1653790367573
 31
0.0
  0
LINE
  5
28E4
330
1A
100
AcDbEntity
  8
SEIHIN
  6
Continuous
 62
     3
 48
16.0
100
AcDbLine
 10
155.5728181006957
 20
424.2086790367572
 30
0.0
 11
155.5729181006957
 21
515.3654790367572
 31
0.0
  0
LINE
  5
28E5
330
1A
100
AcDbEntity
  8
SEIHIN
  6
Continuous
 62
     3
 48
16.0
100
AcDbLine
 10
316.5243181006957
 20
425.3674790367571
 30
0.0
 11
316.5243181006957
 21
514.1325790367571
 31
0.0
  0
LINE
  5
28E6
330
1A
100
AcDbEntity
  8
SEIHIN
  6
Continuous
 62
     3
 48
16.0
100
AcDbLine
 10
314.1743181006956
 20
424.8389790367572
 30
0.0
 11
314.1744181006958
 21
514.9389790367571
 31
0.0
  0
LINE
  5
28E7
330
1A
100
AcDbEntity
  8
SEIHIN
  6
Continuous
 62
     3
 48
16.0
100
AcDbLine
 10
290.4297181006957
 20
436.2192790367571
 30
0.0
 11
290.4297181006957
 21
510.5726790367572
 31
0.0
  0
LINE
  5
28E8
330
1A
100
AcDbEntity
  8
SEIHIN
  6
Continuous
 62
     3
 48
16.0
100
AcDbLine
 10
300.4298181006956
 20
434.219479036757
 30
0.0
 11
300.4299181006957
 21
511.1653790367573
 31
0.0
  0
LINE
  5
28E9
330
1A
100
AcDbEntity
  8
SEIHIN
  6
Continuous
 62
     3
 48
16.0
100
AcDbLine
 10
309.8368181006957
 20
424.2086790367572
 30
0.0
 11
309.8368181006957
 21
515.3653790367571
 31
0.0
  0
ARC
  5
28EA
330
1A
100
AcDbEntity
  8
SEIHIN
  6
Continuous
 62
     3
 48
16.0
100
AcDbCircle
 10
232.7050181006086
 20
473.4890290366701
 30
0.0
 40
28.70005000008712
100
AcDbArc
 50
89.99999999982576
 51
269.9998003636587
  0
ARC
  5
28EB
330
1A
100
AcDbEntity
  8
SEIHIN
  6
Continuous
 62
     3
 48
16.0
100
AcDbCircle
 10
232.7046181006957
 20
473.4890790368443
 30
0.0
 40
28.70000000008719
100
AcDbArc
 50
270.0
 51
89.99980036313754
  0
LINE
  5
28EC
330
1A
100
AcDbEntity
  8
CENTER L
  6
CENTER
 62
     1
 48
5.0
100
AcDbLine
 10
232.7048181006958
 20
354.3211790367572
 30
0.0
 11
232.7048181006958
 21
541.0546790367572
 31
0.0
  0
DIMENSION
  5
28ED
330
1A
100
AcDbEntity
  8
SUNPOU
100
AcDbDimension
  2
*D9
 10
202.7048498089484
 20
340.4962892565018
 30
0.0
 11
232.7048339548221
 21
345.4962892565018
 31
0.0
 70
    32
  1
※a <>
 71
     5
 42
59.99996829174728
  3
STANDARD
100
AcDbAlignedDimension
 13
262.7048181006957
 23
396.4891112458128
 33
0.0
 14
202.7048498089484
 24
396.4892157751923
 34
0.0
100
AcDbRotatedDimension
1001
ACAD
1000
DSTYLE
1002
{
1070
   140
1040
6.0
1070
    74
1070
     0
1070
   172
1070
     1
1070
    73
1070
     0
1070
   272
1070
     2
1070
    77
1070
     3
1070
   173
1070
     1
1070
   147
1040
2.0
1070
    42
1040
6.0
1070
    44
1040
3.0
1070
    43
1040
14.0
1070
   271
1070
     0
1070
   178
1070
     4
1070
   177
1070
     4
1070
   176
1070
     4
1070
   141
1040
150.0
1070
     7
1000
_OPEN
1070
     6
1000
_OPEN
1070
    41
1040
7.0
1002
}
  0
LINE
  5
28EE
330
1A
100
AcDbEntity
  8
SEIHIN
  6
Continuous
 62
     3
 48
16.0
100
AcDbLine
 10
327.7051181006956
 20
368.4890790367572
 30
0.0
 11
232.7048181006958
 21
368.4890790367572
 31
0.0
  0
LINE
  5
28EF
330
1A
100
AcDbEntity
  8
SEIHIN
  6
Continuous
 62
     3
 48
16.0
100
AcDbLine
 10
326.6852181006956
 20
370.8004790367572
 30
0.0
 11
232.7048181006958
 21
370.8004790367572
 31
0.0
  0
LINE
  5
28F0
330
1A
100
AcDbEntity
  8
SEIHIN
  6
Continuous
 62
     3
 48
16.0
100
AcDbLine
 10
323.9152181006957
 20
373.570479036757
 30
0.0
 11
232.7048181006958
 21
373.570479036757
 31
0.0
  0
LINE
  5
28F1
330
1A
100
AcDbEntity
  8
SEIHIN
  6
Continuous
 62
     3
 48
16.0
100
AcDbLine
 10
304.4148181006957
 20
385.9461790367572
 30
0.0
 11
232.7048181006958
 21
385.9462790367572
 31
0.0
  0
LINE
  5
28F2
330
1A
100
AcDbEntity
  8
SEIHIN
  6
Continuous
 62
     3
 48
16.0
100
AcDbLine
 10
301.4743181006958
 20
408.5648790367571
 30
0.0
 11
232.7049181006956
 21
408.5648790367571
 31
0.0
  0
LINE
  5
28F3
330
1A
100
AcDbEntity
  8
SEIHIN
  6
Continuous
 62
     3
 48
16.0
100
AcDbLine
 10
297.1367181006957
 20
411.5085790367572
 30
0.0
 11
232.7049181006956
 21
411.5085790367572
 31
0.0
  0
LINE
  5
28F4
330
1A
100
AcDbEntity
  8
SEIHIN
  6
Continuous
 62
     3
 48
16.0
100
AcDbLine
 10
287.7299181006957
 20
421.5194790367572
 30
0.0
 11
232.7049181006956
 21
421.5195790367572
 31
0.0
  0
LINE
  5
28F5
330
1A
100
AcDbEntity
  8
SEIHIN
  6
Continuous
 62
     3
 48
16.0
100
AcDbLine
 10
277.7297181006958
 20
423.5191790367572
 30
0.0
 11
232.7048181006958
 21
423.5192790367572
 31
0.0
  0
LINE
  5
28F6
330
1A
100
AcDbEntity
  8
CENTER L
  6
CENTER
 62
     1
 48
5.0
100
AcDbLine
 10
270.9190997142208
 20
473.4891200649524
 30
0.0
 11
194.4901364871707
 21
473.489038008562
 31
0.0
  0
ARC
  5
28F7
330
1A
100
AcDbEntity
  8
SEIHIN
  6
Continuous
 62
     3
 48
16.0
100
AcDbCircle
 10
150.7548063213188
 20
398.6461868733664
 30
0.0
 40
12.70000783661465
100
AcDbArc
 50
202.7298245840929
 51
270.0000531423743
  0
LINE
  5
28F8
330
1A
100
AcDbEntity
  8
SEIHIN
  6
Continuous
 62
     3
 48
16.0
100
AcDbLine
 10
129.4943181006958
 20
393.7390790367572
 30
0.0
 11
129.4943181006958
 21
385.570479036757
 31
0.0
  0
LINE
  5
28F9
330
1A
100
AcDbEntity
  8
SEIHIN
  6
Continuous
 62
     3
 48
16.0
100
AcDbLine
 10
126.7244181006957
 20
382.8004790367572
 30
0.0
 11
126.7244181006957
 21
415.3889790367572
 31
0.0
  0
LINE
  5
28FA
330
1A
100
AcDbEntity
  8
SEIHIN
  6
Continuous
 62
     3
 48
16.0
100
AcDbLine
 10
137.7045181006956
 20
368.4890790367572
 30
0.0
 11
232.7048181006958
 21
368.488979036757
 31
0.0
  0
LINE
  5
28FB
330
1A
100
AcDbEntity
  8
SEIHIN
  6
Continuous
 62
     3
 48
16.0
100
AcDbLine
 10
138.7244181006956
 20
370.8004790367572
 30
0.0
 11
232.7048181006958
 21
370.8004790367572
 31
0.0
  0
LINE
  5
28FC
330
1A
100
AcDbEntity
  8
SEIHIN
  6
Continuous
 62
     3
 48
16.0
100
AcDbLine
 10
141.4943181006958
 20
373.570479036757
 30
0.0
 11
232.7048181006958
 21
373.5703790367572
 31
0.0
  0
LINE
  5
28FD
330
1A
100
AcDbEntity
  8
SEIHIN
  6
Continuous
 62
     3
 48
16.0
100
AcDbLine
 10
160.9948181006956
 20
385.9461790367572
 30
0.0
 11
232.7048181006958
 21
385.9461790367572
 31
0.0
  0
ARC
  5
28FE
330
1A
100
AcDbEntity
  8
SEIHIN
  6
Continuous
 62
     3
 48
16.0
100
AcDbCircle
 10
141.4943181006958
 20
385.570479036757
 30
0.0
 40
12.00000000000001
100
AcDbArc
 50
180.0
 51
270.0
  0
LINE
  5
28FF
330
1A
100
AcDbEntity
  8
SEIHIN
  6
Continuous
 62
     3
 48
16.0
100
AcDbLine
 10
163.9352181006958
 20
408.5648790367571
 30
0.0
 11
232.7047181006957
 21
408.5648790367571
 31
0.0
  0
LINE
  5
2900
330
1A
100
AcDbEntity
  8
SEIHIN
  6
Continuous
 62
     3
 48
16.0
100
AcDbLine
 10
168.2728181006956
 20
411.5085790367572
 30
0.0
 11
232.7047181006957
 21
411.5085790367572
 31
0.0
  0
LINE
  5
2901
330
1A
100
AcDbEntity
  8
SEIHIN
  6
Continuous
 62
     3
 48
16.0
100
AcDbLine
 10
177.6797181006957
 20
421.5195790367572
 30
0.0
 11
232.7047181006957
 21
421.5195790367572
 31
0.0
  0
LINE
  5
2902
330
1A
100
AcDbEntity
  8
SEIHIN
  6
Continuous
 62
     3
 48
16.0
100
AcDbLine
 10
187.6799181006958
 20
423.5192790367572
 30
0.0
 11
232.7048181006958
 21
423.5192790367572
 31
0.0
  0
ARC
  5
2903
330
1A
100
AcDbEntity
  8
SEIHIN
  6
Continuous
 62
     3
 48
16.0
100
AcDbCircle
 10
187.6799181006957
 20
436.2192790367572
 30
0.0
 40
12.69999999999997
100
AcDbArc
 50
180.0000000000004
 51
270.0
  0
ARC
  5
2904
330
1A
100
AcDbEntity
  8
SEIHIN
  6
Continuous
 62
     3
 48
16.0
100
AcDbCircle
 10
168.2728181006956
 20
424.2085790367571
 30
0.0
 40
12.69999999999986
100
AcDbArc
 50
180.0000000000004
 51
270.0
  0
ARC
  5
2905
330
1A
100
AcDbEntity
  8
SEIHIN
  6
Continuous
 62
     3
 48
16.0
100
AcDbCircle
 10
163.9352181006958
 20
421.2648790367572
 30
0.0
 40
12.70000000000013
100
AcDbArc
 50
180.0
 51
270.0
  0
LINE
  5
2906
330
1A
100
AcDbEntity
  8
SEIHIN
  6
Continuous
 62
     3
 48
16.0
100
AcDbLine
 10
137.5089181006957
 20
409.1765790367572
 30
0.0
 11
143.1436181006957
 21
412.955679036757
 31
0.0
  0
LINE
  5
2907
330
1A
100
AcDbEntity
  8
SEIHIN
  6
Continuous
 62
     3
 48
16.0
100
AcDbLine
 10
145.4936181006956
 20
412.955679036757
 30
0.0
 11
139.8589181006958
 21
409.1765790367572
 31
0.0
  0
ARC
  5
2908
330
1A
100
AcDbEntity
  8
SEIHIN
  6
Continuous
 62
     3
 48
16.0
100
AcDbCircle
 10
78.25905430524767
 20
403.0188111730329
 30
0.0
 40
50.00003393557162
100
AcDbArc
 50
356.1239298729369
 51
14.32389935119059
  0
ARC
  5
2909
330
1A
100
AcDbEntity
  8
SEIHIN
  6
Continuous
 62
     3
 48
16.0
100
AcDbCircle
 10
168.0527166765063
 20
398.924171219728
 30
0.0
 40
30.00003573631305
100
AcDbArc
 50
160.0166827138809
 51
179.3322839348057
  0
ARC
  5
290A
330
1A
100
AcDbEntity
  8
SEIHIN
  6
Continuous
 62
     3
 48
16.0
100
AcDbCircle
 10
165.7028316128142
 20
398.9244532044459
 30
0.0
 40
30.00004738680197
100
AcDbArc
 50
160.0172638566292
 51
179.3328227809576
  0
LINE
  5
290B
330
1A
100
AcDbEntity
  8
SEIHIN
  6
Continuous
 62
     3
 48
16.0
100
AcDbLine
 10
129.4943181006958
 20
393.7390790367572
 30
0.0
 11
138.0547181006957
 21
393.7390790367572
 31
0.0
  0
LINE
  5
290C
330
1A
100
AcDbEntity
  8
SEIHIN
  6
Continuous
 62
     3
 48
16.0
100
AcDbLine
 10
129.4943181006958
 20
393.7390790367572
 30
0.0
 11
128.8400181006957
 21
392.8944790367572
 31
0.0
  0
LINE
  5
290D
330
1A
100
AcDbEntity
  8
SEIHIN
  6
Continuous
 62
     3
 48
16.0
100
AcDbLine
 10
127.9447181006957
 20
393.2007790367571
 30
0.0
 11
127.9447181006957
 21
399.6389790367572
 31
0.0
  0
LINE
  5
290E
330
1A
100
AcDbEntity
  8
SEIHIN
  6
Continuous
 62
     3
 48
16.0
100
AcDbLine
 10
127.9447181006957
 20
399.6386790367571
 30
0.0
 11
128.1447181006957
 21
399.6386790367571
 31
0.0
  0
ARC
  5
290F
330
1A
100
AcDbEntity
  8
SEIHIN
  6
Continuous
 62
     3
 48
16.0
100
AcDbCircle
 10
128.444719465692
 20
393.2007785697139
 30
0.0
 40
0.5000013649964693
100
AcDbArc
 50
179.9999464809434
 51
322.2224506870201
  0
LINE
  5
2910
330
1A
100
AcDbEntity
  8
SEIHIN
  6
Continuous
 62
     3
 48
16.0
100
AcDbLine
 10
138.0547181006957
 20
393.7390790367572
 30
0.0
 11
138.0547181006957
 21
399.2738790367571
 31
0.0
  0
LINE
  5
2911
330
1A
100
AcDbEntity
  8
SEIHIN
  6
Continuous
 62
     3
 48
16.0
100
AcDbLine
 10
135.7048181006958
 20
393.7390790367572
 30
0.0
 11
135.7048181006958
 21
399.2738790367571
 31
0.0
  0
LINE
  5
2912
330
1A
100
AcDbEntity
  8
SEIHIN
  6
Continuous
 62
     3
 48
16.0
100
AcDbLine
 10
148.4486181006957
 20
424.541279036757
 30
0.0
 11
145.9517181006956
 21
422.8389790367572
 31
0.0
  0
LINE
  5
2913
330
1A
100
AcDbEntity
  8
SEIHIN
  6
Continuous
 62
     3
 48
16.0
100
AcDbLine
 10
150.7985181006957
 20
424.541279036757
 30
0.0
 11
148.3016181006958
 21
422.8389790367572
 31
0.0
  0
LINE
  5
2914
330
1A
100
AcDbEntity
  8
SEIHIN
  6
Continuous
 62
     3
 48
16.0
100
AcDbLine
 10
145.9517181006956
 20
422.8389790367572
 30
0.0
 11
148.3016181006958
 21
422.8389790367572
 31
0.0
  0
ARC
  5
2915
330
1A
100
AcDbEntity
  8
SEIHIN
  6
Continuous
 62
     3
 48
16.0
100
AcDbCircle
 10
128.4555831663795
 20
422.4693560819302
 30
0.0
 40
17.50003882191502
100
AcDbArc
 50
327.0683969667397
 51
1.210249328824054
  0
ARC
  5
2916
330
1A
100
AcDbEntity
  8
SEIHIN
  6
Continuous
 62
     3
 48
16.0
100
AcDbCircle
 10
130.8056222373523
 20
422.4694935960496
 30
0.0
 40
17.49999685571974
100
AcDbArc
 50
327.0677715502479
 51
1.209801903661584
  0
ARC
  5
2917
330
1A
100
AcDbEntity
  8
SEIHIN
  6
Continuous
 62
     3
 48
16.0
100
AcDbCircle
 10
150.2352397686653
 20
425.3676200348178
 30
0.0
 40
0.9999783328707617
100
AcDbArc
 50
304.283667157894
 51
359.9976509332516
  0
ARC
  5
2918
330
1A
100
AcDbEntity
  8
SEIHIN
  6
Continuous
 62
     3
 48
16.0
100
AcDbCircle
 10
147.8852984560816
 20
425.36754186963
 30
0.0
 40
1.000019645304764
100
AcDbArc
 50
304.2849182179927
 51
0.002129477680157
  0
ARC
  5
2919
330
1A
100
AcDbEntity
  8
SEIHIN
  6
Continuous
 62
     3
 48
16.0
100
AcDbCircle
 10
177.6797181004988
 20
434.2194790369539
 30
0.0
 40
12.70000000019675
100
AcDbArc
 50
179.999548853018
 51
270.0000000008891
  0
LINE
  5
291A
330
1A
100
AcDbEntity
  8
SEIHIN
  6
Continuous
 62
     3
 48
16.0
100
AcDbLine
 10
335.9152181006957
 20
393.7389790367572
 30
0.0
 11
335.9152181006957
 21
385.5703790367572
 31
0.0
  0
LINE
  5
291B
330
1A
100
AcDbEntity
  8
SEIHIN
  6
Continuous
 62
     3
 48
16.0
100
AcDbLine
 10
338.6852181006957
 20
382.8003790367571
 30
0.0
 11
338.6852181006957
 21
415.3889790367572
 31
0.0
  0
LINE
  5
291C
330
1A
100
AcDbEntity
  8
SEIHIN
  6
Continuous
 62
     3
 48
16.0
100
AcDbLine
 10
342.7051181006956
 20
383.4888790367572
 30
0.0
 11
342.7051181006956
 21
415.3889790367572
 31
0.0
  0
LINE
  5
291D
330
1A
100
AcDbEntity
  8
SEIHIN
  6
Continuous
 62
     3
 48
16.0
100
AcDbLine
 10
342.7048181006957
 20
415.3892790367572
 30
0.0
 11
342.7048181006957
 21
383.4888790367572
 31
0.0
  0
ARC
  5
291E
330
1A
100
AcDbEntity
  8
SEIHIN
  6
Continuous
 62
     3
 48
16.0
100
AcDbCircle
 10
314.6548298797379
 20
398.6461868730768
 30
0.0
 40
12.70000783681148
100
AcDbArc
 50
269.9994957115434
 51
337.2701754176965
  0
ARC
  5
291F
330
1A
100
AcDbEntity
  8
SEIHIN
  6
Continuous
 62
     3
 48
16.0
100
AcDbCircle
 10
327.7051181006955
 20
383.4889790367571
 30
0.0
 40
15.00000000000009
100
AcDbArc
 50
270.0
 51
0.0000000000004071
  0
ARC
  5
2920
330
1A
100
AcDbEntity
  8
SEIHIN
  6
Continuous
 62
     3
 48
16.0
100
AcDbCircle
 10
326.6852181006957
 20
382.8004790367573
 30
0.0
 40
12.00000000000006
100
AcDbArc
 50
270.0
 51
359.9999999999996
  0
ARC
  5
2921
330
1A
100
AcDbEntity
  8
SEIHIN
  6
Continuous
 62
     3
 48
16.0
100
AcDbCircle
 10
323.9152181006957
 20
385.570479036757
 30
0.0
 40
12.0
100
AcDbArc
 50
270.0
 51
0.0
  0
LINE
  5
2922
330
1A
100
AcDbEntity
  8
SEIHIN
  6
Continuous
 62
     3
 48
16.0
100
AcDbLine
 10
327.9007181006957
 20
409.1765790367572
 30
0.0
 11
322.2660181006958
 21
412.955679036757
 31
0.0
  0
LINE
  5
2923
330
1A
100
AcDbEntity
  8
SEIHIN
  6
Continuous
 62
     3
 48
16.0
100
AcDbLine
 10
319.9160181006957
 20
412.955679036757
 30
0.0
 11
325.5507181006956
 21
409.1765790367572
 31
0.0
  0
ARC
  5
2924
330
1A
100
AcDbEntity
  8
SEIHIN
  6
Continuous
 62
     3
 48
16.0
100
AcDbCircle
 10
277.7298181004989
 20
436.2192790365602
 30
0.0
 40
12.70000000019673
100
AcDbArc
 50
269.9995488530172
 51
0.0000000008879091
  0
ARC
  5
2925
330
1A
100
AcDbEntity
  8
SEIHIN
  6
Continuous
 62
     3
 48
16.0
100
AcDbCircle
 10
287.7299181004989
 20
434.2194790365602
 30
0.0
 40
12.7000000001967
100
AcDbArc
 50
269.9995488530172
 51
0.0000000008879091
  0
ARC
  5
2926
330
1A
100
AcDbEntity
  8
SEIHIN
  6
Continuous
 62
     3
 48
16.0
100
AcDbCircle
 10
301.4743181006957
 20
421.2647790367572
 30
0.0
 40
12.69999999999993
100
AcDbArc
 50
270.0
 51
0.0000000000004071
  0
ARC
  5
2927
330
1A
100
AcDbEntity
  8
SEIHIN
  6
Continuous
 62
     3
 48
16.0
100
AcDbCircle
 10
297.1367681006958
 20
424.2086290367572
 30
0.0
 40
12.70005000009834
100
AcDbArc
 50
269.9997744269523
 51
359.9997744269523
  0
LINE
  5
2928
330
1A
100
AcDbEntity
  8
SEIHIN
  6
Continuous
 62
     3
 48
16.0
100
AcDbLine
 10
316.9610181006956
 20
424.541279036757
 30
0.0
 11
319.4579181006958
 21
422.8389790367572
 31
0.0
  0
LINE
  5
2929
330
1A
100
AcDbEntity
  8
SEIHIN
  6
Continuous
 62
     3
 48
16.0
100
AcDbLine
 10
314.6110181006958
 20
424.541279036757
 30
0.0
 11
317.1079181006958
 21
422.8389790367572
 31
0.0
  0
LINE
  5
292A
330
1A
100
AcDbEntity
  8
SEIHIN
  6
Continuous
 62
     3
 48
16.0
100
AcDbLine
 10
319.4579181006958
 20
422.8389790367572
 30
0.0
 11
317.1079181006958
 21
422.8389790367572
 31
0.0
  0
ARC
  5
292B
330
1A
100
AcDbEntity
  8
SEIHIN
  6
Continuous
 62
     3
 48
16.0
100
AcDbCircle
 10
334.6039876744468
 20
422.4694861264994
 30
0.0
 40
17.49997072969747
100
AcDbArc
 50
178.7901718288011
 51
212.9322547172884
  0
ARC
  5
292C
330
1A
100
AcDbEntity
  8
SEIHIN
  6
Continuous
 62
     3
 48
16.0
100
AcDbCircle
 10
336.9540267447707
 20
422.4693486124617
 30
0.0
 40
17.50001269530503
100
AcDbArc
 50
178.7897244032563
 51
212.9316293011795
  0
ARC
  5
292D
330
1A
100
AcDbEntity
  8
SEIHIN
  6
Continuous
 62
     3
 48
16.0
100
AcDbCircle
 10
315.1742964327261
 20
425.3675200348178
 30
0.0
 40
0.9999783328709969
100
AcDbArc
 50
180.0023490667483
 51
235.7163328421099
  0
ARC
  5
292E
330
1A
100
AcDbEntity
  8
SEIHIN
  6
Continuous
 62
     3
 48
16.0
100
AcDbCircle
 10
317.5242964327263
 20
425.3675200348176
 30
0.0
 40
0.9999783328709044
100
AcDbArc
 50
180.0023490667337
 51
235.7163328420922
  0
ARC
  5
292F
330
1A
100
AcDbEntity
  8
SEIHIN
  6
Continuous
 62
     3
 48
16.0
100
AcDbCircle
 10
387.1505234891911
 20
403.0188379726659
 30
0.0
 40
49.99997071402473
100
AcDbArc
 50
165.6761138456807
 51
183.8759909617819
  0
ARC
  5
2930
330
1A
100
AcDbEntity
  8
SEIHIN
  6
Continuous
 62
     3
 48
16.0
100
AcDbCircle
 10
297.3569195248851
 20
398.9241712197275
 30
0.0
 40
30.00003573631313
100
AcDbArc
 50
0.6677160651951193
 51
19.98331728611946
  0
ARC
  5
2931
330
1A
100
AcDbEntity
  8
SEIHIN
  6
Continuous
 62
     3
 48
16.0
100
AcDbCircle
 10
299.7068045885773
 20
398.9243532044458
 30
0.0
 40
30.00004738680197
100
AcDbArc
 50
0.6671772190423854
 51
19.98273614337082
  0
LINE
  5
2932
330
1A
100
AcDbEntity
  8
SEIHIN
  6
Continuous
 62
     3
 48
16.0
100
AcDbLine
 10
335.9152181006957
 20
393.7389790367572
 30
0.0
 11
327.3548181006956
 21
393.7389790367572
 31
0.0
  0
LINE
  5
2933
330
1A
100
AcDbEntity
  8
SEIHIN
  6
Continuous
 62
     3
 48
16.0
100
AcDbLine
 10
329.7047181006956
 20
393.7389790367572
 30
0.0
 11
329.7047181006956
 21
399.2737790367572
 31
0.0
  0
LINE
  5
2934
330
1A
100
AcDbEntity
  8
SEIHIN
  6
Continuous
 62
     3
 48
16.0
100
AcDbLine
 10
327.3548181006956
 20
393.7389790367572
 30
0.0
 11
327.3548181006956
 21
399.2737790367572
 31
0.0
  0
LINE
  5
2935
330
1A
100
AcDbEntity
  8
SEIHIN
  6
Continuous
 62
     3
 48
16.0
100
AcDbLine
 10
337.4649181006956
 20
399.6386790367571
 30
0.0
 11
337.2649181006956
 21
399.6386790367571
 31
0.0
  0
ARC
  5
2936
330
1A
100
AcDbEntity
  8
SEIHIN
  6
Continuous
 62
     3
 48
16.0
100
AcDbCircle
 10
336.9648772140391
 20
393.2006650498934
 30
0.0
 40
0.5000408868521414
100
AcDbArc
 50
217.7720797467029
 51
0.0016026454801675
  0
LINE
  5
2937
330
1A
100
AcDbEntity
  8
SEIHIN
  6
Continuous
 62
     3
 48
16.0
100
AcDbLine
 10
337.4649181006956
 20
393.2006790367572
 30
0.0
 11
337.4649181006956
 21
399.6388790367572
 31
0.0
  0
LINE
  5
2938
330
1A
100
AcDbEntity
  8
SEIHIN
  6
Continuous
 62
     3
 48
16.0
100
AcDbLine
 10
335.9152181006957
 20
393.7389790367572
 30
0.0
 11
336.5696181006957
 21
392.8944790367572
 31
0.0
  0
LINE
  5
2939
330
1A
100
AcDbEntity
  8
SEIHIN
  6
Continuous
 62
     3
 48
16.0
100
AcDbLine
 10
342.7051181006956
 20
415.3889790367572
 30
0.0
 11
338.6852181006957
 21
415.3889790367572
 31
0.0
  0
LINE
  5
293A
330
1A
100
AcDbEntity
  8
SEIHIN
  6
Continuous
 62
     3
 48
16.0
100
AcDbLine
 10
342.7048181006957
 20
415.3889790367572
 30
0.0
 11
338.7049181006958
 21
415.3889790367572
 31
0.0
  0
LINE
  5
293B
330
1A
100
AcDbEntity
  8
SEIHIN
  6
Continuous
 62
     3
 48
16.0
100
AcDbLine
 10
320.5549181006958
 20
533.4888790367571
 30
0.0
 11
232.7049181006956
 21
533.4890790367573
 31
0.0
  0
LINE
  5
293C
330
1A
100
AcDbEntity
  8
SEIHIN
  6
Continuous
 62
     3
 48
16.0
100
AcDbLine
 10
320.4853181006957
 20
531.1888790367572
 30
0.0
 11
232.7048181006958
 21
531.1889790367571
 31
0.0
  0
LINE
  5
293D
330
1A
100
AcDbEntity
  8
SEIHIN
  6
Continuous
 62
     3
 48
16.0
100
AcDbLine
 10
314.8561181006958
 20
526.1725790367572
 30
0.0
 11
232.7048181006958
 21
526.1725790367572
 31
0.0
  0
LINE
  5
293E
330
1A
100
AcDbEntity
  8
SEIHIN
  6
Continuous
 62
     3
 48
16.0
100
AcDbLine
 10
301.3368181006957
 20
523.8653790367572
 30
0.0
 11
232.7050181006957
 21
523.8654790367572
 31
0.0
  0
LINE
  5
293F
330
1A
100
AcDbEntity
  8
SEIHIN
  6
Continuous
 62
     3
 48
16.0
100
AcDbLine
 10
277.7298181006956
 20
523.2727790367572
 30
0.0
 11
232.7050181006957
 21
523.272879036757
 31
0.0
  0
LINE
  5
2940
330
1A
100
AcDbEntity
  8
SEIHIN
  6
Continuous
 62
     3
 48
16.0
100
AcDbLine
 10
144.8548181006958
 20
533.4890790367573
 30
0.0
 11
232.7048181006958
 21
533.4890790367573
 31
0.0
  0
LINE
  5
2941
330
1A
100
AcDbEntity
  8
SEIHIN
  6
Continuous
 62
     3
 48
16.0
100
AcDbLine
 10
144.9244181006957
 20
531.1889790367571
 30
0.0
 11
232.7048181006958
 21
531.1889790367571
 31
0.0
  0
LINE
  5
2942
330
1A
100
AcDbEntity
  8
SEIHIN
  6
Continuous
 62
     3
 48
16.0
100
AcDbLine
 10
150.5536181006956
 20
526.1725790367572
 30
0.0
 11
232.7048181006958
 21
526.1724790367572
 31
0.0
  0
LINE
  5
2943
330
1A
100
AcDbEntity
  8
SEIHIN
  6
Continuous
 62
     3
 48
16.0
100
AcDbLine
 10
164.0729181006957
 20
523.8653790367572
 30
0.0
 11
232.7047181006957
 21
523.8653790367572
 31
0.0
  0
LINE
  5
2944
330
1A
100
AcDbEntity
  8
SEIHIN
  6
Continuous
 62
     3
 48
16.0
100
AcDbLine
 10
187.6799181006958
 20
523.2727790367572
 30
0.0
 11
232.7047181006957
 21
523.2727790367572
 31
0.0
  0
ARC
  5
2945
330
1A
100
AcDbEntity
  8
SEIHIN
  6
Continuous
 62
     3
 48
16.0
100
AcDbCircle
 10
150.5536181006956
 20
518.1725790367572
 30
0.0
 40
8.0
100
AcDbArc
 50
90.0
 51
180.0000000000004
  0
ARC
  5
2946
330
1A
100
AcDbEntity
  8
SEIHIN
  6
Continuous
 62
     3
 48
16.0
100
AcDbCircle
 10
150.5536181006956
 20
523.1889790367571
 30
0.0
 40
8.0
100
AcDbArc
 50
90.0
 51
180.0
  0
ARC
  5
2947
330
1A
100
AcDbEntity
  8
SEIHIN
  6
Continuous
 62
     3
 48
16.0
100
AcDbCircle
 10
144.9244181006957
 20
523.1889790367571
 30
0.0
 40
8.0
100
AcDbArc
 50
90.0
 51
180.0
  0
ARC
  5
2948
330
1A
100
AcDbEntity
  8
SEIHIN
  6
Continuous
 62
     3
 48
16.0
100
AcDbCircle
 10
144.8548181006959
 20
522.4890790367571
 30
0.0
 40
11.00000000000011
100
AcDbArc
 50
90.0
 51
180.0000000000004
  0
ARC
  5
2949
330
1A
100
AcDbEntity
  8
SEIHIN
  6
Continuous
 62
     3
 48
16.0
100
AcDbCircle
 10
164.0729181006958
 20
515.3653790367572
 30
0.0
 40
8.500000000000114
100
AcDbArc
 50
90.0
 51
180.0000000000004
  0
ARC
  5
294A
330
1A
100
AcDbEntity
  8
SEIHIN
  6
Continuous
 62
     3
 48
16.0
100
AcDbCircle
 10
143.5536500121772
 20
517.6259394734474
 30
0.0
 40
1.000031912264188
100
AcDbArc
 50
179.9977332616693
 51
257.7765300901638
  0
LINE
  5
294B
330
1A
100
AcDbEntity
  8
SEIHIN
  6
Continuous
 62
     3
 48
16.0
100
AcDbLine
 10
148.0970181006958
 20
515.1099790367571
 30
0.0
 11
140.9932181006957
 21
516.6485790367573
 31
0.0
  0
ARC
  5
294C
330
1A
100
AcDbEntity
  8
SEIHIN
  6
Continuous
 62
     3
 48
16.0
100
AcDbCircle
 10
130.2961613912231
 20
514.507322695714
 30
0.0
 40
8.999972019066826
100
AcDbArc
 50
317.433903094841
 51
9.024819743718043
  0
LINE
  5
294D
330
1A
100
AcDbEntity
  8
SEIHIN
  6
Continuous
 62
     3
 48
16.0
100
AcDbLine
 10
136.9244181006957
 20
508.4190790367572
 30
0.0
 11
136.9244181006957
 21
523.1889790367571
 31
0.0
  0
LINE
  5
294E
330
1A
100
AcDbEntity
  8
SEIHIN
  6
Continuous
 62
     3
 48
16.0
100
AcDbLine
 10
133.8548181006958
 20
522.4890790367571
 30
0.0
 11
133.8548181006958
 21
508.4190790367572
 31
0.0
  0
LINE
  5
294F
330
1A
100
AcDbEntity
  8
SEIHIN
  6
Continuous
 62
     3
 48
16.0
100
AcDbLine
 10
133.8545181006957
 20
508.4190790367572
 30
0.0
 11
136.9244181006957
 21
508.4190790367572
 31
0.0
  0
LINE
  5
2950
330
1A
100
AcDbEntity
  8
SEIHIN
  6
Continuous
 62
     3
 48
16.0
100
AcDbLine
 10
142.5536181006956
 20
522.4190790367571
 30
0.0
 11
142.5536181006956
 21
523.1889790367571
 31
0.0
  0
ARC
  5
2951
330
1A
100
AcDbEntity
  8
SEIHIN
  6
Continuous
 62
     3
 48
16.0
100
AcDbCircle
 10
141.5536181006956
 20
522.4190790367571
 30
0.0
 40
1.0
100
AcDbArc
 50
0.0
 51
90.0
  0
ARC
  5
2952
330
1A
100
AcDbEntity
  8
SEIHIN
  6
Continuous
 62
     3
 48
16.0
100
AcDbCircle
 10
139.7648181006957
 20
522.4190790367571
 30
0.0
 40
1.0
100
AcDbArc
 50
90.0
 51
180.0
  0
ARC
  5
2953
330
1A
100
AcDbEntity
  8
SEIHIN
  6
Continuous
 62
     3
 48
16.0
100
AcDbCircle
 10
139.2048181006957
 20
522.4190790367571
 30
0.0
 40
1.000000000000114
100
AcDbArc
 50
359.9999999999968
 51
73.73979529168464
  0
LINE
  5
2954
330
1A
100
AcDbEntity
  8
SEIHIN
  6
Continuous
 62
     3
 48
16.0
100
AcDbLine
 10
139.7648181006957
 20
523.4190790367571
 30
0.0
 11
141.5536181006956
 21
523.4190790367571
 31
0.0
  0
LINE
  5
2955
330
1A
100
AcDbEntity
  8
SEIHIN
  6
Continuous
 62
     3
 48
16.0
100
AcDbLine
 10
142.5536181006956
 20
517.625979036757
 30
0.0
 11
142.5536181006956
 21
518.172579036757
 31
0.0
  0
LINE
  5
2956
330
1A
100
AcDbEntity
  8
SEIHIN
  6
Continuous
 62
     3
 48
16.0
100
AcDbLine
 10
138.7648181006957
 20
515.9190790367572
 30
0.0
 11
139.1847181006957
 21
515.9190790367572
 31
0.0
  0
ARC
  5
2957
330
1A
100
AcDbEntity
  8
SEIHIN
  6
Continuous
 62
     3
 48
16.0
100
AcDbCircle
 10
141.2048500121773
 20
517.6259394734474
 30
0.0
 40
1.00003191226416
100
AcDbArc
 50
179.997733261666
 51
257.7765300901571
  0
LINE
  5
2958
330
1A
100
AcDbEntity
  8
SEIHIN
  6
Continuous
 62
     3
 48
16.0
100
AcDbLine
 10
140.2048181006958
 20
522.4190790367571
 30
0.0
 11
140.2048181006958
 21
517.625979036757
 31
0.0
  0
LINE
  5
2959
330
1A
100
AcDbEntity
  8
SEIHIN
  6
Continuous
 62
     3
 48
16.0
100
AcDbLine
 10
138.7648181006957
 20
522.4190790367571
 30
0.0
 11
138.7648181006957
 21
515.9190790367572
 31
0.0
  0
LINE
  5
295A
330
1A
100
AcDbEntity
  8
SEIHIN
  6
Continuous
 62
     3
 48
16.0
100
AcDbLine
 10
151.2353181006956
 20
514.9389790367571
 30
0.0
 11
143.3419181006958
 21
516.6485790367573
 31
0.0
  0
ARC
  5
295B
330
1A
100
AcDbEntity
  8
SEIHIN
  6
Continuous
 62
     3
 48
16.0
100
AcDbCircle
 10
147.8854350559832
 20
514.1326580154261
 30
0.0
 40
0.9999830449334881
100
AcDbArc
 50
0.001204453971373
 51
77.77878836709034
  0
ARC
  5
295C
330
1A
100
AcDbEntity
  8
SEIHIN
  6
Continuous
 62
     3
 48
16.0
100
AcDbCircle
 10
187.6799181006958
 20
510.5727790367571
 30
0.0
 40
12.70000000000005
100
AcDbArc
 50
90.0
 51
180.0000000000004
  0
ARC
  5
295D
330
1A
100
AcDbEntity
  8
SEIHIN
  6
Continuous
 62
     3
 48
16.0
100
AcDbCircle
 10
177.6798181006958
 20
511.1653790367573
 30
0.0
 40
12.70000000000005
100
AcDbArc
 50
90.0
 51
180.0
  0
ARC
  5
295E
330
1A
100
AcDbEntity
  8
SEIHIN
  6
Continuous
 62
     3
 48
16.0
100
AcDbCircle
 10
323.8561181006957
 20
522.419079036757
 30
0.0
 40
1.000000000000057
100
AcDbArc
 50
89.99999999999675
 51
179.9999999999967
  0
LINE
  5
295F
330
1A
100
AcDbEntity
  8
SEIHIN
  6
Continuous
 62
     3
 48
16.0
100
AcDbLine
 10
317.3126181006958
 20
515.109879036757
 30
0.0
 11
324.4165181006957
 21
516.6485790367573
 31
0.0
  0
ARC
  5
2960
330
1A
100
AcDbEntity
  8
SEIHIN
  6
Continuous
 62
     3
 48
16.0
100
AcDbCircle
 10
314.8561181006957
 20
518.1725790367572
 30
0.0
 40
7.999999999999972
100
AcDbArc
 50
359.9999999999996
 51
90.0
  0
ARC
  5
2961
330
1A
100
AcDbEntity
  8
SEIHIN
  6
Continuous
 62
     3
 48
16.0
100
AcDbCircle
 10
320.4853181006957
 20
523.1889790367571
 30
0.0
 40
8.0
100
AcDbArc
 50
0.0
 51
90.0
  0
ARC
  5
2962
330
1A
100
AcDbEntity
  8
SEIHIN
  6
Continuous
 62
     3
 48
16.0
100
AcDbCircle
 10
314.8561181006957
 20
523.1889790367571
 30
0.0
 40
7.999999999999943
100
AcDbArc
 50
359.9999999999996
 51
90.0
  0
ARC
  5
2963
330
1A
100
AcDbEntity
  8
SEIHIN
  6
Continuous
 62
     3
 48
16.0
100
AcDbCircle
 10
320.5549181006957
 20
522.4890790367571
 30
0.0
 40
11.00000000000011
100
AcDbArc
 50
359.9999999999992
 51
90.0
  0
ARC
  5
2964
330
1A
100
AcDbEntity
  8
SEIHIN
  6
Continuous
 62
     3
 48
16.0
100
AcDbCircle
 10
277.7297681006957
 20
510.5727290367572
 30
0.0
 40
12.70005000009837
100
AcDbArc
 50
359.9997744269527
 51
89.99977442695234
  0
ARC
  5
2965
330
1A
100
AcDbEntity
  8
SEIHIN
  6
Continuous
 62
     3
 48
16.0
100
AcDbCircle
 10
287.7299181006956
 20
511.1653790367573
 30
0.0
 40
12.69999999999996
100
AcDbArc
 50
359.9999999999996
 51
90.0
  0
ARC
  5
2966
330
1A
100
AcDbEntity
  8
SEIHIN
  6
Continuous
 62
     3
 48
16.0
100
AcDbCircle
 10
301.3368181006956
 20
515.3653790367572
 30
0.0
 40
8.500000000000085
100
AcDbArc
 50
359.9999999999996
 51
90.0
  0
LINE
  5
2967
330
1A
100
AcDbEntity
  8
SEIHIN
  6
Continuous
 62
     3
 48
16.0
100
AcDbLine
 10
314.1744181006958
 20
514.9389790367571
 30
0.0
 11
322.0677181006956
 21
516.6485790367573
 31
0.0
  0
ARC
  5
2968
330
1A
100
AcDbEntity
  8
SEIHIN
  6
Continuous
 62
     3
 48
16.0
100
AcDbCircle
 10
317.5243011454082
 20
514.132558015426
 30
0.0
 40
0.9999830449334519
100
AcDbArc
 50
102.2212116329063
 51
179.9987955460254
  0
LINE
  5
2969
330
1A
100
AcDbEntity
  8
SEIHIN
  6
Continuous
 62
     3
 48
16.0
100
AcDbLine
 10
322.8561181006957
 20
522.4190790367571
 30
0.0
 11
322.8561181006957
 21
523.1889790367571
 31
0.0
  0
LINE
  5
296A
330
1A
100
AcDbEntity
  8
SEIHIN
  6
Continuous
 62
     3
 48
16.0
100
AcDbLine
 10
322.8561181006957
 20
517.6258790367573
 30
0.0
 11
322.8561181006957
 21
518.172579036757
 31
0.0
  0
ARC
  5
296B
330
1A
100
AcDbEntity
  8
SEIHIN
  6
Continuous
 62
     3
 48
16.0
100
AcDbCircle
 10
321.856145638954
 20
517.6259131755447
 30
0.0
 40
0.9999724623243634
100
AcDbArc
 50
282.2148600097087
 51
359.9980439376898
  0
ARC
  5
296C
330
1A
100
AcDbEntity
  8
SEIHIN
  6
Continuous
 62
     3
 48
16.0
100
AcDbCircle
 10
335.1135992269152
 20
514.5071416699631
 30
0.0
 40
9.000008843754554
100
AcDbArc
 50
170.974695199449
 51
222.5651812191623
  0
LINE
  5
296D
330
1A
100
AcDbEntity
  8
SEIHIN
  6
Continuous
 62
     3
 48
16.0
100
AcDbLine
 10
331.5549181006958
 20
522.4890790367571
 30
0.0
 11
331.5549181006958
 21
508.4190790367572
 31
0.0
  0
LINE
  5
296E
330
1A
100
AcDbEntity
  8
SEIHIN
  6
Continuous
 62
     3
 48
16.0
100
AcDbLine
 10
328.4853181006957
 20
508.4190790367572
 30
0.0
 11
328.4853181006957
 21
523.1889790367571
 31
0.0
  0
LINE
  5
296F
330
1A
100
AcDbEntity
  8
SEIHIN
  6
Continuous
 62
     3
 48
16.0
100
AcDbLine
 10
331.5551181006956
 20
508.4190790367572
 30
0.0
 11
328.4853181006957
 21
508.4190790367572
 31
0.0
  0
ARC
  5
2970
330
1A
100
AcDbEntity
  8
SEIHIN
  6
Continuous
 62
     3
 48
16.0
100
AcDbCircle
 10
325.6448181006957
 20
522.4190790367571
 30
0.0
 40
1.0
100
AcDbArc
 50
0.0
 51
90.0
  0
ARC
  5
2971
330
1A
100
AcDbEntity
  8
SEIHIN
  6
Continuous
 62
     3
 48
16.0
100
AcDbCircle
 10
326.2048181006958
 20
522.4190790367572
 30
0.0
 40
1.000000000000032
100
AcDbArc
 50
106.2602047083222
 51
180.0000000000098
  0
LINE
  5
2972
330
1A
100
AcDbEntity
  8
SEIHIN
  6
Continuous
 62
     3
 48
16.0
100
AcDbLine
 10
325.6448181006957
 20
523.4190790367571
 30
0.0
 11
323.8561181006958
 21
523.4190790367571
 31
0.0
  0
LINE
  5
2973
330
1A
100
AcDbEntity
  8
SEIHIN
  6
Continuous
 62
     3
 48
16.0
100
AcDbLine
 10
326.6448181006957
 20
515.9190790367572
 30
0.0
 11
326.2250181006957
 21
515.9190790367572
 31
0.0
  0
ARC
  5
2974
330
1A
100
AcDbEntity
  8
SEIHIN
  6
Continuous
 62
     3
 48
16.0
100
AcDbCircle
 10
324.2048350559832
 20
517.6259000580884
 30
0.0
 40
0.9999830449335164
100
AcDbArc
 50
282.221211632908
 51
359.9987955460254
  0
LINE
  5
2975
330
1A
100
AcDbEntity
  8
SEIHIN
  6
Continuous
 62
     3
 48
16.0
100
AcDbLine
 10
325.2048181006958
 20
522.4190790367571
 30
0.0
 11
325.2048181006958
 21
517.6258790367573
 31
0.0
  0
LINE
  5
2976
330
1A
100
AcDbEntity
  8
SEIHIN
  6
Continuous
 62
     3
 48
16.0
100
AcDbLine
 10
326.6448181006957
 20
522.4190790367571
 30
0.0
 11
326.6448181006957
 21
515.9190790367572
 31
0.0
  0
MTEXT
  5
2977
330
1A
100
AcDbEntity
  8
SUNPOU
  6
Continuous
 62
     4
100
AcDbMText
 10
539.0254897078912
 20
293.6455673590624
 30
0.0
 40
6.0
 41
0.0
 71
     7
 72
     5
  1
2-φ2.0
 73
     1
 44
1.0
  0
DIMENSION
  5
2978
330
1A
100
AcDbEntity
  8
SUNPOU
100
AcDbDimension
  2
*D10
 10
648.015552746174
 20
306.258726187695
 30
0.0
 11
565.515502746174
 21
311.258726187695
 31
0.0
 70
    32
 71
     5
 42
165.0001000000001
  3
STANDARD
100
AcDbAlignedDimension
 13
483.0154527461739
 23
270.1059289981479
 33
0.0
 14
648.015552746174
 24
246.7060289981478
 34
0.0
100
AcDbRotatedDimension
1001
ACAD
1000
DSTYLE
1002
{
1070
   140
1040
6.0
1070
    74
1070
     0
1070
   172
1070
     1
1070
    73
1070
     0
1070
   272
1070
     2
1070
    77
1070
     3
1070
   173
1070
     1
1070
   147
1040
2.0
1070
    42
1040
6.0
1070
    44
1040
3.0
1070
    43
1040
14.0
1070
   271
1070
     0
1070
   178
1070
     4
1070
   177
1070
     4
1070
   176
1070
     4
1070
   141
1040
150.0
1070
     7
1000
_OPEN
1070
     6
1000
_OPEN
1070
    41
1040
7.0
1002
}
  0
DIMENSION
  5
2979
330
1A
100
AcDbEntity
  8
SUNPOU
100
AcDbDimension
  2
*D11
 10
648.015552746174
 20
291.6429242556853
 30
0.0
 11
616.2155027461739
 21
291.6429242556853
 31
0.0
 70
   160
 71
     5
 42
63.60010000000011
  3
STANDARD
100
AcDbAlignedDimension
 13
584.4154527461739
 23
184.4393702019324
 33
0.0
 14
648.015552746174
 24
246.7060289981478
 34
0.0
100
AcDbRotatedDimension
1001
ACAD
1000
DSTYLE
1002
{
1070
   140
1040
6.0
1070
    74
1070
     0
1070
   172
1070
     1
1070
    73
1070
     0
1070
   272
1070
     2
1070
    77
1070
     3
1070
   173
1070
     1
1070
   147
1040
2.0
1070
    42
1040
6.0
1070
    44
1040
3.0
1070
    43
1040
14.0
1070
   271
1070
     0
1070
   178
1070
     4
1070
   177
1070
     4
1070
   176
1070
     4
1070
   141
1040
150.0
1070
     7
1000
_OPEN
1070
     6
1000
_OPEN
1070
    41
1040
7.0
1002
}
  0
DIMENSION
  5
297A
330
1A
100
AcDbEntity
  8
SUNPOU
100
AcDbDimension
  2
*D12
 10
667.8627594736536
 20
94.70572899814783
 30
0.0
 11
662.8627594736536
 21
66.80572899814793
 31
0.0
 70
    32
  1
※b <>
 71
     5
 42
10.11112418904085
  3
STANDARD
100
AcDbAlignedDimension
 13
630.6220266734737
 23
104.8168531871887
 33
0.0
 14
629.5153527461738
 24
94.70572899814783
 34
0.0
 50
90.0
100
AcDbRotatedDimension
1001
ACAD
1000
DSTYLE
1002
{
1070
   140
1040
6.0
1070
    74
1070
     0
1070
   172
1070
     1
1070
    73
1070
     0
1070
   272
1070
     2
1070
    77
1070
     3
1070
   173
1070
     1
1070
   147
1040
2.0
1070
    42
1040
6.0
1070
    44
1040
3.0
1070
    43
1040
14.0
1070
   271
1070
     0
1070
   178
1070
     4
1070
   177
1070
     4
1070
   176
1070
     4
1070
   141
1040
150.0
1070
     7
1000
_OPEN
1070
     6
1000
_OPEN
1070
    41
1040
7.0
1002
}
  0
DIMENSION
  5
297B
330
1A
100
AcDbEntity
  8
SUNPOU
100
AcDbDimension
  2
*D13
 10
696.5252829429105
 20
177.2059289981478
 30
0.0
 11
691.5252829429105
 21
211.9559789981479
 31
0.0
 70
    32
 71
     5
 42
69.50009999999995
  3
STANDARD
100
AcDbAlignedDimension
 13
648.015552746174
 23
246.7060289981478
 33
0.0
 14
627.5542527461739
 24
177.2059289981478
 34
0.0
 50
90.0
100
AcDbRotatedDimension
1001
ACAD
1000
DSTYLE
1002
{
1070
   140
1040
6.0
1070
    74
1070
     0
1070
   172
1070
     1
1070
    73
1070
     0
1070
   272
1070
     2
1070
    77
1070
     3
1070
   173
1070
     1
1070
   147
1040
2.0
1070
    42
1040
6.0
1070
    44
1040
3.0
1070
    43
1040
14.0
1070
   271
1070
     0
1070
   178
1070
     4
1070
   177
1070
     4
1070
   176
1070
     4
1070
   141
1040
150.0
1070
     7
1000
_OPEN
1070
     6
1000
_OPEN
1070
    41
1040
7.0
1002
}
  0
DIMENSION
  5
297C
330
1A
100
AcDbEntity
  8
SUNPOU
100
AcDbDimension
  2
*D14
 10
640.6081120054331
 20
43.39312381030391
 30
0.0
 11
582.3117994479532
 21
48.39312381030391
 31
0.0
 70
    32
 71
     5
 42
116.5926251149599
  3
STANDARD
100
AcDbAlignedDimension
 13
524.0154868904732
 23
154.2059289981478
 33
0.0
 14
640.6081120054331
 24
154.2059289981478
 34
0.0
100
AcDbRotatedDimension
1001
ACAD
1000
DSTYLE
1002
{
1070
   140
1040
6.0
1070
    74
1070
     0
1070
   172
1070
     1
1070
    73
1070
     0
1070
   272
1070
     2
1070
    77
1070
     3
1070
   173
1070
     1
1070
   147
1040
2.0
1070
    42
1040
6.0
1070
    44
1040
3.0
1070
    43
1040
14.0
1070
   271
1070
     0
1070
   178
1070
     4
1070
   177
1070
     4
1070
   176
1070
     4
1070
   141
1040
150.0
1070
     7
1000
_OPEN
1070
     6
1000
_OPEN
1070
    41
1040
7.0
1002
}
  0
DIMENSION
  5
297D
330
1A
100
AcDbEntity
  8
SUNPOU
100
AcDbDimension
  2
*D15
 10
400.7244474505151
 20
87.20582899814792
 30
0.0
 11
395.7244474505151
 21
178.655878998148
 31
0.0
 70
    32
 71
     5
 42
182.9001
  3
STANDARD
100
AcDbAlignedDimension
 13
483.0154527461739
 23
270.1059289981479
 33
0.0
 14
551.7656527461739
 24
87.20582899814787
 34
0.0
 50
90.0
100
AcDbRotatedDimension
1001
ACAD
1000
DSTYLE
1002
{
1070
   140
1040
6.0
1070
    74
1070
     0
1070
   172
1070
     1
1070
    73
1070
     0
1070
   272
1070
     2
1070
    77
1070
     3
1070
   173
1070
     1
1070
   147
1040
2.0
1070
    42
1040
6.0
1070
    44
1040
3.0
1070
    43
1040
14.0
1070
   271
1070
     0
1070
   178
1070
     4
1070
   177
1070
     4
1070
   176
1070
     4
1070
   141
1040
150.0
1070
     7
1000
_OPEN
1070
     6
1000
_OPEN
1070
    41
1040
7.0
1002
}
  0
DIMENSION
  5
297E
330
1A
100
AcDbEntity
  8
SUNPOU
100
AcDbDimension
  2
*D16
 10
420.9174941020474
 20
94.70582899814791
 30
0.0
 11
415.9174941020474
 21
116.4695540090167
 31
0.0
 70
    32
 71
     5
 42
43.52745002173741
  3
STANDARD
100
AcDbAlignedDimension
 13
537.4514674856617
 23
138.2332790198853
 33
0.0
 14
546.515552746174
 24
94.70582899814787
 34
0.0
 50
90.0
100
AcDbRotatedDimension
1001
ACAD
1000
DSTYLE
1002
{
1070
   140
1040
6.0
1070
    74
1070
     0
1070
   172
1070
     1
1070
    73
1070
     0
1070
   272
1070
     2
1070
    77
1070
     3
1070
   173
1070
     1
1070
   147
1040
2.0
1070
    42
1040
6.0
1070
    44
1040
3.0
1070
    43
1040
14.0
1070
   271
1070
     0
1070
   178
1070
     4
1070
   177
1070
     4
1070
   176
1070
     4
1070
   141
1040
150.0
1070
     7
1000
_OPEN
1070
     6
1000
_OPEN
1070
    41
1040
7.0
1002
}
  0
LINE
  5
2983
330
1A
100
AcDbEntity
  8
CENTER L
  6
CENTER
 62
     1
 48
5.0
100
AcDbLine
 10
588.0154527461738
 20
75.72172899814774
 30
0.0
 11
588.0154527461738
 21
144.4891966092527
 31
0.0
  0
LINE
  5
2991
330
1A
100
AcDbEntity
  8
NOKITOI
  6
PHANTOM
 62
     8
100
AcDbLine
 10
519.9537527461739
 20
247.5060289981479
 30
0.0
 11
521.253752746174
 21
247.5060289981479
 31
0.0
  0
ARC
  5
2992
330
1A
100
AcDbEntity
  8
NOKITOI
  6
PHANTOM
 62
     8
100
AcDbCircle
 10
519.253752746174
 20
252.2060289981479
 30
0.0
 40
2.0
100
AcDbArc
 50
0.0
 51
90.0
  0
ARC
  5
2993
330
1A
100
AcDbEntity
  8
NOKITOI
  6
PHANTOM
 62
     8
100
AcDbCircle
 10
517.9537527461739
 20
250.9060289981479
 30
0.0
 40
2.0
100
AcDbArc
 50
0.0
 51
90.0
  0
LINE
  5
2994
330
1A
100
AcDbEntity
  8
NOKITOI
  6
PHANTOM
 62
     8
100
AcDbLine
 10
519.318352746174
 20
241.2060289981479
 30
0.0
 11
522.7537527461739
 21
241.2060289981479
 31
0.0
  0
ARC
  5
2995
330
1A
100
AcDbEntity
  8
NOKITOI
  6
PHANTOM
 62
     8
100
AcDbCircle
 10
514.0492466276949
 20
231.2568343712301
 30
0.0
 40
11.30001845330598
100
AcDbArc
 50
35.72477995922397
 51
61.6976929906939
  0
LINE
  5
2996
330
1A
100
AcDbEntity
  8
NOKITOI
  6
PHANTOM
 62
     8
100
AcDbLine
 10
523.884452746174
 20
242.5060289981479
 30
0.0
 11
516.2537527461739
 21
242.5060289981479
 31
0.0
  0
ARC
  5
2997
330
1A
100
AcDbEntity
  8
NOKITOI
  6
PHANTOM
 62
     8
100
AcDbCircle
 10
514.0562365497115
 20
231.2060430851677
 30
0.0
 40
9.999985912993367
100
AcDbArc
 50
7.969086351823849
 51
89.9999072009758
  0
DIMENSION
  5
2998
330
1A
100
AcDbEntity
  8
SUNPOU
100
AcDbDimension
  2
*D17
 10
420.9174941020474
 20
138.2059289981479
 30
0.0
 11
415.9174941020473
 21
146.2059289981479
 31
0.0
 70
    32
 71
     5
 42
16.0
  3
STANDARD
100
AcDbAlignedDimension
 13
525.7715527461738
 23
154.2059289981478
 33
0.0
 14
537.7810527461739
 24
138.2059289981478
 34
0.0
 50
90.0
100
AcDbRotatedDimension
1001
ACAD
1000
DSTYLE
1002
{
1070
   140
1040
6.0
1070
    74
1070
     0
1070
   172
1070
     1
1070
    73
1070
     0
1070
   272
1070
     2
1070
    77
1070
     3
1070
   173
1070
     1
1070
   147
1040
2.0
1070
    42
1040
6.0
1070
    44
1040
3.0
1070
    43
1040
14.0
1070
   271
1070
     0
1070
   178
1070
     4
1070
   177
1070
     4
1070
   176
1070
     4
1070
   141
1040
150.0
1070
     7
1000
_OPEN
1070
     6
1000
_OPEN
1070
    41
1040
7.0
1002
}
  0
DIMENSION
  5
2999
330
1A
100
AcDbEntity
  8
SUNPOU
100
AcDbDimension
  2
*D18
 10
420.9174941020474
 20
154.2059289981479
 30
0.0
 11
415.9174941020473
 21
212.1559289981479
 31
0.0
 70
    32
 71
     5
 42
115.9
  3
STANDARD
100
AcDbAlignedDimension
 13
483.0154527461739
 23
270.1059289981479
 33
0.0
 14
525.7715527461738
 24
154.2059289981478
 34
0.0
 50
90.0
100
AcDbRotatedDimension
1001
ACAD
1000
DSTYLE
1002
{
1070
   140
1040
6.0
1070
    74
1070
     0
1070
   172
1070
     1
1070
    73
1070
     0
1070
   272
1070
     2
1070
    77
1070
     3
1070
   173
1070
     1
1070
   147
1040
2.0
1070
    42
1040
6.0
1070
    44
1040
3.0
1070
    43
1040
14.0
1070
   271
1070
     0
1070
   178
1070
     4
1070
   177
1070
     4
1070
   176
1070
     4
1070
   141
1040
150.0
1070
     7
1000
_OPEN
1070
     6
1000
_OPEN
1070
    41
1040
7.0
1002
}
  0
DIMENSION
  5
299A
330
1A
100
AcDbEntity
  8
SUNPOU
100
AcDbDimension
  2
*D19
 10
441.1105407535797
 20
177.2059289981479
 30
0.0
 11
436.1105407535796
 21
223.6559289981479
 31
0.0
 70
    32
 71
     5
 42
92.90000000000003
  3
STANDARD
100
AcDbAlignedDimension
 13
483.0154527461739
 23
270.1059289981479
 33
0.0
 14
541.1001527461737
 24
177.2059289981478
 34
0.0
 50
90.0
100
AcDbRotatedDimension
1001
ACAD
1000
DSTYLE
1002
{
1070
   140
1040
6.0
1070
    74
1070
     0
1070
   172
1070
     1
1070
    73
1070
     0
1070
   272
1070
     2
1070
    77
1070
     3
1070
   173
1070
     1
1070
   147
1040
2.0
1070
    42
1040
6.0
1070
    44
1040
3.0
1070
    43
1040
14.0
1070
   271
1070
     0
1070
   178
1070
     4
1070
   177
1070
     4
1070
   176
1070
     4
1070
   141
1040
150.0
1070
     7
1000
_OPEN
1070
     6
1000
_OPEN
1070
    41
1040
7.0
1002
}
  0
LINE
  5
299B
330
1A
100
AcDbEntity
  8
SEIHIN
  6
Continuous
 62
     3
 48
16.0
100
AcDbLine
 10
527.6566527461739
 20
270.1059289981479
 30
0.0
 11
483.0154527461739
 21
270.1059289981479
 31
0.0
  0
ARC
  5
299C
330
1A
100
AcDbEntity
  8
SEIHIN
  6
Continuous
 62
     3
 48
16.0
100
AcDbCircle
 10
513.8002612640418
 20
230.1059215936533
 30
0.0
 40
10.00000740449816
100
AcDbArc
 50
7.999857461286344
 51
90.0000488037517
  0
LINE
  5
299D
330
1A
100
AcDbEntity
  8
CENTER L
  6
CENTER
 62
     1
 48
5.0
100
AcDbLine
 10
527.4680527461738
 20
263.1059289981479
 30
0.0
 11
516.1257527461738
 21
263.1059289981479
 31
0.0
  0
ARC
  5
299E
330
1A
100
AcDbEntity
  8
SEIHIN
  6
Continuous
 62
     3
 48
16.0
100
AcDbCircle
 10
526.4531017452337
 20
196.4525854984478
 30
0.0
 40
20.00004532688645
100
AcDbArc
 50
189.9196787395952
 51
254.2237223397118
  0
ARC
  5
299F
330
1A
100
AcDbEntity
  8
SEIHIN
  6
Continuous
 62
     3
 48
16.0
100
AcDbCircle
 10
514.9153970165664
 20
270.6871857065167
 30
0.0
 40
15.00001563234988
100
AcDbArc
 50
267.1342321444622
 51
348.5474164428911
  0
LINE
  5
29A0
330
1A
100
AcDbEntity
  8
SEIHIN
  6
Continuous
 62
     3
 48
16.0
100
AcDbLine
 10
500.6867527461739
 20
227.6899289981478
 30
0.0
 11
506.7521527461737
 21
193.0072289981478
 31
0.0
  0
ARC
  5
29A1
330
1A
100
AcDbEntity
  8
NOKITOI
  6
PHANTOM
 62
     8
100
AcDbCircle
 10
519.9537527461739
 20
248.8061289981479
 30
0.0
 40
1.300000000000011
100
AcDbArc
 50
90.0
 51
270.0
  0
LINE
  5
29A2
330
1A
100
AcDbEntity
  8
NOKITOI
  6
PHANTOM
 62
     8
100
AcDbLine
 10
514.2537527461739
 20
250.9060289981479
 30
0.0
 11
514.2537527461739
 21
244.5060289981479
 31
0.0
  0
LINE
  5
29A3
330
1A
100
AcDbEntity
  8
NOKITOI
  6
PHANTOM
 62
     8
100
AcDbLine
 10
512.9537527461739
 20
255.9060289981479
 30
0.0
 11
512.9537527461739
 21
242.5060289981479
 31
0.0
  0
LINE
  5
29A4
330
1A
100
AcDbEntity
  8
NOKITOI
  6
PHANTOM
 62
     8
100
AcDbLine
 10
509.0073527461739
 20
253.6579289981479
 30
0.0
 11
510.401352746174
 21
242.5060289981479
 31
0.0
  0
LINE
  5
29A5
330
1A
100
AcDbEntity
  8
NOKITOI
  6
PHANTOM
 62
     8
100
AcDbLine
 10
507.675252746174
 20
253.8339289981479
 30
0.0
 11
509.2537527461739
 21
241.2060289981479
 31
0.0
  0
LINE
  5
29A6
330
1A
100
AcDbEntity
  8
SEIHIN
  6
Continuous
 62
     3
 48
16.0
100
AcDbLine
 10
506.6448527461738
 20
254.3672289981479
 30
0.0
 11
508.1142527461739
 21
241.4365289981479
 31
0.0
  0
LINE
  5
29A7
330
1A
100
AcDbEntity
  8
SEIHIN
  6
Continuous
 62
     3
 48
16.0
100
AcDbLine
 10
483.0154527461739
 20
270.1059289981479
 30
0.0
 11
485.8463527461737
 21
241.7975289981479
 31
0.0
  0
ARC
  5
29A8
330
1A
100
AcDbEntity
  8
SEIHIN
  6
Continuous
 62
     3
 48
16.0
100
AcDbCircle
 10
487.8364268779958
 20
241.9965552279272
 30
0.0
 40
2.000001622571219
100
AcDbArc
 50
185.7111295176312
 51
263.4951698198985
  0
LINE
  5
29A9
330
1A
100
AcDbEntity
  8
SEIHIN
  6
Continuous
 62
     3
 48
16.0
100
AcDbLine
 10
487.1840527461739
 20
240.1059289981479
 30
0.0
 11
513.8002527461739
 21
240.1059289981479
 31
0.0
  0
LINE
  5
29AA
330
1A
100
AcDbEntity
  8
SEIHIN
  6
Continuous
 62
     3
 48
16.0
100
AcDbLine
 10
485.7318527461738
 20
240.1059289981479
 30
0.0
 11
485.9109527461737
 21
240.1059289981479
 31
0.0
  0
ARC
  5
29AB
330
1A
100
AcDbEntity
  8
SEIHIN
  6
Continuous
 62
     3
 48
16.0
100
AcDbCircle
 10
485.9109679020144
 20
225.1059147200855
 30
0.0
 40
15.00003158497085
100
AcDbArc
 50
9.919668339791913
 51
83.49679734654183
  0
LINE
  5
29AC
330
1A
100
AcDbEntity
  8
NOKITOI
  6
PHANTOM
 62
     8
100
AcDbLine
 10
512.9537527461739
 20
242.5060289981479
 30
0.0
 11
510.401352746174
 21
242.5060289981479
 31
0.0
  0
LINE
  5
29AD
330
1A
100
AcDbEntity
  8
NOKITOI
  6
PHANTOM
 62
     8
100
AcDbLine
 10
509.2537527461739
 20
241.2060289981479
 30
0.0
 11
514.0562527461739
 21
241.2060289981479
 31
0.0
  0
ARC
  5
29AE
330
1A
100
AcDbEntity
  8
SEIHIN
  6
Continuous
 62
     3
 48
16.0
100
AcDbCircle
 10
509.6046992430006
 20
241.60597676496
 30
0.0
 40
1.500047767766285
100
AcDbArc
 50
186.4860660611928
 51
270.0020436055954
  0
ARC
  5
29AF
330
1A
100
AcDbEntity
  8
NOKITOI
  6
PHANTOM
 62
     8
100
AcDbCircle
 10
516.2537527461739
 20
244.5060289981479
 30
0.0
 40
2.0
100
AcDbArc
 50
180.0
 51
270.0
  0
LINE
  5
29B0
330
1A
100
AcDbEntity
  8
NOKITOI
  6
PHANTOM
 62
     8
100
AcDbLine
 10
510.991952746174
 20
255.9060289981479
 30
0.0
 11
512.9537527461739
 21
255.9060289981479
 31
0.0
  0
LINE
  5
29B1
330
1A
100
AcDbEntity
  8
NOKITOI
  6
PHANTOM
 62
     8
100
AcDbLine
 10
510.652152746174
 20
257.2060289981479
 30
0.0
 11
514.2537527461739
 21
257.2060289981479
 31
0.0
  0
LINE
  5
29B2
330
1A
100
AcDbEntity
  8
SEIHIN
  6
Continuous
 62
     3
 48
16.0
100
AcDbLine
 10
509.6257527461737
 20
257.7059289981477
 30
0.0
 11
514.1654527461739
 21
257.7059289981477
 31
0.0
  0
ARC
  5
29B3
330
1A
100
AcDbEntity
  8
NOKITOI
  6
PHANTOM
 62
     8
100
AcDbCircle
 10
510.9919316956425
 20
253.9060051521822
 30
0.0
 40
2.000023846076517
100
AcDbArc
 50
89.99939695388625
 51
187.1251239525234
  0
ARC
  5
29B4
330
1A
100
AcDbEntity
  8
NOKITOI
  6
PHANTOM
 62
     8
100
AcDbCircle
 10
510.6521677057388
 20
254.206045944077
 30
0.0
 40
2.999983054108306
100
AcDbArc
 50
90.00028570825525
 51
187.1253020571569
  0
ARC
  5
29B5
330
1A
100
AcDbEntity
  8
SEIHIN
  6
Continuous
 62
     3
 48
16.0
100
AcDbCircle
 10
509.6257612033209
 20
254.7059384706777
 30
0.0
 40
2.999990527481946
100
AcDbArc
 50
90.00016152012297
 51
186.4827176698638
  0
LINE
  5
29B6
330
1A
100
AcDbEntity
  8
NOKITOI
  6
PHANTOM
 62
     8
100
AcDbLine
 10
519.9537527461739
 20
250.1061289981479
 30
0.0
 11
519.9537527461739
 21
250.9060289981479
 31
0.0
  0
ARC
  5
29B7
330
1A
100
AcDbEntity
  8
NOKITOI
  6
PHANTOM
 62
     8
100
AcDbCircle
 10
514.7537527461739
 20
254.7060289981479
 30
0.0
 40
0.5
100
AcDbArc
 50
180.0
 51
270.0
  0
LINE
  5
29B8
330
1A
100
AcDbEntity
  8
NOKITOI
  6
PHANTOM
 62
     8
100
AcDbLine
 10
514.2537527461739
 20
257.2060289981479
 30
0.0
 11
514.2537527461739
 21
254.7060289981479
 31
0.0
  0
ARC
  5
29B9
330
1A
100
AcDbEntity
  8
NOKITOI
  6
PHANTOM
 62
     8
100
AcDbCircle
 10
516.2537527461739
 20
250.9060289981479
 30
0.0
 40
2.0
100
AcDbArc
 50
90.0
 51
180.0
  0
LINE
  5
29BA
330
1A
100
AcDbEntity
  8
NOKITOI
  6
PHANTOM
 62
     8
100
AcDbLine
 10
519.253752746174
 20
254.2060289981479
 30
0.0
 11
514.7537527461739
 21
254.2060289981479
 31
0.0
  0
LINE
  5
29BB
330
1A
100
AcDbEntity
  8
NOKITOI
  6
PHANTOM
 62
     8
100
AcDbLine
 10
517.9537527461739
 20
252.9060289981479
 30
0.0
 11
516.2537527461739
 21
252.9060289981479
 31
0.0
  0
LINE
  5
29BC
330
1A
100
AcDbEntity
  8
SEIHIN
  6
Continuous
 62
     3
 48
16.0
100
AcDbLine
 10
514.1654527461739
 20
255.7059289981478
 30
0.0
 11
514.1654527461739
 21
257.7059289981477
 31
0.0
  0
LINE
  5
29BD
330
1A
100
AcDbEntity
  8
NOKITOI
  6
PHANTOM
 62
     8
100
AcDbLine
 10
631.2537527461739
 20
221.2060289981478
 30
0.0
 11
629.340552746174
 21
179.115128998148
 31
0.0
  0
LINE
  5
29BE
330
1A
100
AcDbEntity
  8
NOKITOI
  6
PHANTOM
 62
     8
100
AcDbLine
 10
630.658052746174
 20
236.7287289981479
 30
0.0
 11
628.1416527461738
 21
181.3697289981479
 31
0.0
  0
ARC
  5
29BF
330
1A
100
AcDbEntity
  8
NOKITOI
  6
PHANTOM
 62
     8
100
AcDbCircle
 10
545.2077770963423
 20
207.0391376867304
 30
0.0
 40
16.19999005602697
100
AcDbArc
 50
187.9696639128037
 51
241.7088364731412
  0
ARC
  5
29C0
330
1A
100
AcDbEntity
  8
NOKITOI
  6
PHANTOM
 62
     8
100
AcDbCircle
 10
545.2078080159203
 20
207.0390897150048
 30
0.0
 40
17.49996433219532
100
AcDbArc
 50
187.9693736291694
 51
244.7893872175536
  0
LINE
  5
29C1
330
1A
100
AcDbEntity
  8
NOKITOI
  6
PHANTOM
 62
     8
100
AcDbLine
 10
535.5908527461739
 20
206.3467289981479
 30
0.0
 11
537.5297527461739
 21
192.7741289981479
 31
0.0
  0
LINE
  5
29C2
330
1A
100
AcDbEntity
  8
NOKITOI
  6
PHANTOM
 62
     8
100
AcDbLine
 10
540.513352746174
 20
181.0816289981478
 30
0.0
 11
536.781252746174
 21
207.2060289981479
 31
0.0
  0
DIMENSION
  5
29C3
330
1A
100
AcDbEntity
  8
SUNPOU
100
AcDbDimension
  2
*D20
 10
588.0154527461738
 20
210.6131599535927
 30
0.0
 11
606.0154527461738
 21
215.6131599535927
 31
0.0
 70
    32
 71
     5
 42
3.599999999999909
  3
STANDARD
100
AcDbAlignedDimension
 13
584.4154527461739
 23
184.4393702019324
 33
0.0
 14
588.0154527461738
 24
144.4891966092527
 34
0.0
100
AcDbRotatedDimension
1001
ACAD
1000
DSTYLE
1002
{
1070
   140
1040
6.0
1070
    74
1070
     0
1070
   172
1070
     1
1070
    73
1070
     0
1070
   272
1070
     2
1070
    77
1070
     3
1070
   173
1070
     1
1070
   147
1040
2.0
1070
    42
1040
6.0
1070
    44
1040
3.0
1070
    43
1040
14.0
1070
   271
1070
     0
1070
   178
1070
     4
1070
   177
1070
     4
1070
   176
1070
     4
1070
   141
1040
150.0
1070
     7
1000
_OPEN
1070
     6
1000
_OPEN
1070
    41
1040
7.0
1002
}
  0
LINE
  5
29C4
330
1A
100
AcDbEntity
  8
SEIHIN
  6
Continuous
 62
     3
 48
16.0
100
AcDbLine
 10
629.5521527461737
 20
179.1152289981478
 30
0.0
 11
631.2804527461741
 21
217.1741289981478
 31
0.0
  0
LINE
  5
29C5
330
1A
100
AcDbEntity
  8
SEIHIN
  6
Continuous
 62
     3
 48
16.0
100
AcDbLine
 10
640.0868527461738
 20
140.1319289981478
 30
0.0
 11
642.8798527461737
 21
215.5430289981478
 31
0.0
  0
ARC
  5
29C6
330
1A
100
AcDbEntity
  8
SEIHIN
  6
Continuous
 62
     3
 48
16.0
100
AcDbCircle
 10
544.8118786881925
 20
207.0426938224817
 30
0.0
 40
17.50002543243978
100
AcDbArc
 50
187.9997752369799
 51
244.8174485165425
  0
LINE
  5
29C7
330
1A
100
AcDbEntity
  8
NOKITOI
  6
PHANTOM
 62
     8
100
AcDbLine
 10
543.4831527461738
 20
178.5059289981479
 30
0.0
 11
625.1447527461738
 21
178.5059289981479
 31
0.0
  0
LINE
  5
29C8
330
1A
100
AcDbEntity
  8
NOKITOI
  6
PHANTOM
 62
     8
100
AcDbLine
 10
541.4883527461739
 20
177.2059289981478
 30
0.0
 11
627.342552746174
 21
177.2059289981478
 31
0.0
  0
LINE
  5
29C9
330
1A
100
AcDbEntity
  8
SEIHIN
  6
Continuous
 62
     3
 48
16.0
100
AcDbLine
 10
541.1001527461737
 20
177.2059289981478
 30
0.0
 11
627.5542527461738
 21
177.2059289981478
 31
0.0
  0
LINE
  5
29CA
330
1A
100
AcDbEntity
  8
SEIHIN
  6
Continuous
 62
     3
 48
16.0
100
AcDbLine
 10
638.0882527461739
 20
138.2059289981478
 30
0.0
 11
537.7810527461739
 21
138.2059289981478
 31
0.0
  0
LINE
  5
29CB
330
1A
100
AcDbEntity
  8
SEIHIN
  6
Continuous
 62
     3
 48
16.0
100
AcDbLine
 10
640.6081527461737
 20
154.2059289981478
 30
0.0
 11
525.7715527461738
 21
154.2059289981478
 31
0.0
  0
LINE
  5
29CC
330
1A
100
AcDbEntity
  8
SEIHIN
  6
Continuous
 62
     3
 48
16.0
100
AcDbLine
 10
521.0155527461737
 20
177.2059289981478
 30
0.0
 11
523.7883527461739
 21
155.9473289981478
 31
0.0
  0
ARC
  5
29CD
330
1A
100
AcDbEntity
  8
SEIHIN
  6
Continuous
 62
     3
 48
16.0
100
AcDbCircle
 10
537.7810889592525
 20
140.2058970288868
 30
0.0
 40
1.99996803106682
100
AcDbArc
 50
187.1222021805325
 51
269.9989625551324
  0
LINE
  5
29CE
330
1A
100
AcDbEntity
  8
SEIHIN
  6
Continuous
 62
     3
 48
16.0
100
AcDbLine
 10
534.0702527461739
 20
153.7679289981478
 30
0.0
 11
535.7965527461739
 21
139.9578289981477
 31
0.0
  0
ARC
  5
29CF
330
1A
100
AcDbEntity
  8
SEIHIN
  6
Continuous
 62
     3
 48
16.0
100
AcDbCircle
 10
525.771551617222
 20
156.2059299893973
 30
0.0
 40
2.000000991249805
100
AcDbArc
 50
187.4320578617472
 51
270.0000323420719
  0
ARC
  5
29D0
330
1A
100
AcDbEntity
  8
SEIHIN
  6
Continuous
 62
     3
 48
16.0
100
AcDbCircle
 10
533.5740858424815
 20
153.7058997798553
 30
0.0
 40
0.5000292193878863
100
AcDbArc
 50
7.125966350241886
 51
90.0037923358709
  0
ARC
  5
29D1
330
1A
100
AcDbEntity
  8
NOKITOI
  6
PHANTOM
 62
     8
100
AcDbCircle
 10
543.4831774854879
 20
181.505907542161
 30
0.0
 40
2.99997854411512
100
AcDbArc
 50
188.1304401609565
 51
269.9995275105259
  0
LINE
  5
29D2
330
1A
100
AcDbEntity
  8
NOKITOI
  6
PHANTOM
 62
     8
100
AcDbLine
 10
537.7537527461739
 20
191.205928998148
 30
0.0
 11
539.5084527461739
 21
178.9230289981479
 31
0.0
  0
LINE
  5
29D3
330
1A
100
AcDbEntity
  8
SEIHIN
  6
Continuous
 62
     3
 48
16.0
100
AcDbLine
 10
537.3655527461737
 20
191.2059289981478
 30
0.0
 11
539.1202527461738
 21
178.9231289981478
 31
0.0
  0
LINE
  5
29D4
330
1A
100
AcDbEntity
  8
SEIHIN
  6
Continuous
 62
     3
 48
16.0
100
AcDbLine
 10
536.0152527461737
 20
177.2059289981478
 30
0.0
 11
521.0155527461737
 21
177.2059289981478
 31
0.0
  0
ARC
  5
29D5
330
1A
100
AcDbEntity
  8
NOKITOI
  6
PHANTOM
 62
     8
100
AcDbCircle
 10
541.4883474969593
 20
179.2059335506374
 30
0.0
 40
2.000004552496454
100
AcDbArc
 50
188.131873294726
 51
270.0001503785779
  0
ARC
  5
29D6
330
1A
100
AcDbEntity
  8
SEIHIN
  6
Continuous
 62
     3
 48
16.0
100
AcDbCircle
 10
541.1001556502583
 20
179.2059264793945
 30
0.0
 40
1.999997481248795
100
AcDbArc
 50
188.1288037280674
 51
269.9999168039996
  0
LINE
  5
29D7
330
1A
100
AcDbEntity
  8
CENTER L
  6
CENTER
 62
     1
 48
5.0
100
AcDbLine
 10
584.4154527461739
 20
161.9026369889351
 30
0.0
 11
584.4154527461739
 21
182.7939369889351
 31
0.0
  0
ARC
  5
29D8
330
1A
100
AcDbEntity
  8
SEIHIN
  6
Continuous
 62
     3
 48
16.0
100
AcDbCircle
 10
638.0882369157696
 20
140.2059137430315
 30
0.0
 40
1.999984744946299
100
AcDbArc
 50
270.000453511135
 51
357.8799933077594
  0
ARC
  5
29D9
330
1A
100
AcDbEntity
  8
NOKITOI
  6
PHANTOM
 62
     8
100
AcDbCircle
 10
625.1447492622665
 20
181.5059256689775
 30
0.0
 40
2.999996670831683
100
AcDbArc
 50
270.0000665378032
 51
357.3979379474862
  0
ARC
  5
29DA
330
1A
100
AcDbEntity
  8
NOKITOI
  6
PHANTOM
 62
     8
100
AcDbCircle
 10
627.342585270191
 20
179.2059600776649
 30
0.0
 40
2.000031079781521
100
AcDbArc
 50
269.999068270025
 51
357.3970263848195
  0
ARC
  5
29DB
330
1A
100
AcDbEntity
  8
SEIHIN
  6
Continuous
 62
     3
 48
16.0
100
AcDbCircle
 10
627.5542306270764
 20
179.2059078604244
 30
0.0
 40
1.999978862398832
100
AcDbArc
 50
270.0006336721639
 51
357.4013236225686
  0
LINE
  5
29DC
330
1A
100
AcDbEntity
  8
NOKITOI
  6
PHANTOM
 62
     8
100
AcDbLine
 10
521.253752746174
 20
252.2060289981479
 30
0.0
 11
521.253752746174
 21
247.5060289981479
 31
0.0
  0
LINE
  5
29DD
330
1A
100
AcDbEntity
  8
NOKITOI
  6
PHANTOM
 62
     8
100
AcDbLine
 10
523.959652746174
 20
232.5924289981479
 30
0.0
 11
527.876852746174
 21
204.6127289981479
 31
0.0
  0
LINE
  5
29DE
330
1A
100
AcDbEntity
  8
NOKITOI
  6
PHANTOM
 62
     8
100
AcDbLine
 10
523.884452746174
 20
242.5060289981479
 30
0.0
 11
526.952652746174
 21
220.5899289981479
 31
0.0
  0
LINE
  5
29DF
330
1A
100
AcDbEntity
  8
SEIHIN
  6
Continuous
 62
     3
 48
16.0
100
AcDbLine
 10
527.4821527461739
 20
204.6072289981478
 30
0.0
 11
523.7029527461739
 21
231.4977289981479
 31
0.0
  0
ARC
  5
29E0
330
1A
100
AcDbEntity
  8
NOKITOI
  6
PHANTOM
 62
     8
100
AcDbCircle
 10
544.2836159797306
 20
223.0162790644466
 30
0.0
 40
17.49998460705382
100
AcDbArc
 50
187.9696597232937
 51
244.6144785993157
  0
ARC
  5
29E1
330
1A
100
AcDbEntity
  8
NOKITOI
  6
PHANTOM
 62
     8
100
AcDbCircle
 10
544.2835879147577
 20
223.0162917575813
 30
0.0
 40
18.7999459388005
100
AcDbArc
 50
209.402094483778
 51
242.4591529343756
  0
LINE
  5
29E2
330
1A
100
AcDbEntity
  8
NOKITOI
  6
PHANTOM
 62
     8
100
AcDbLine
 10
527.9051527461739
 20
213.7867289981479
 30
0.0
 11
529.1642527461738
 21
204.7930289981479
 31
0.0
  0
LINE
  5
29E3
330
1A
100
AcDbEntity
  8
NOKITOI
  6
PHANTOM
 62
     8
100
AcDbLine
 10
522.7537527461739
 20
241.2060289981479
 30
0.0
 11
523.230052746174
 21
237.8037289981478
 31
0.0
  0
LEADER
  5
29E4
330
1A
100
AcDbEntity
  8
SUNPOU
  6
Continuous
 62
     4
100
AcDbLeader
  3
STANDARD
 74
     0
 40
6.0
 41
30.2
 76
     3
 10
522.8928241604987
 20
263.3174594178532
 30
0.0
 10
535.6892838637054
 20
291.6455673590624
 30
0.0
 10
537.0254897078912
 20
291.6455673590624
 30
0.0
1001
ACAD
1000
DSTYLE
1002
{
1070
     6
1000
OPEN
1070
    41
1040
7.0
1070
    42
1040
6.0
1070
    43
1040
14.0
1070
    44
1040
3.0
1070
    73
1070
     0
1070
    74
1070
     0
1070
    77
1070
     3
1070
   140
1040
6.0
1070
   141
1040
150.0
1070
   147
1040
2.0
1070
   172
1070
     1
1070
   173
1070
     1
1070
   176
1070
     4
1070
   177
1070
     4
1070
   178
1070
     4
1070
   271
1070
     0
1070
   272
1070
     2
1070
   341
1005
6D
1070
   343
1005
6D
1070
   344
1005
6D
1002
}
  0
LINE
  5
29E5
330
1A
100
AcDbEntity
  8
CENTER L
  6
CENTER
 62
     1
 48
5.0
100
AcDbLine
 10
521.9154527461737
 20
258.4300289981479
 30
0.0
 11
521.9154527461737
 21
268.6295289981479
 31
0.0
  0
ARC
  5
29E6
330
1A
100
AcDbEntity
  8
SEIHIN
  6
Continuous
 62
     3
 48
16.0
100
AcDbCircle
 10
527.6566200795063
 20
268.1059689464459
 30
0.0
 40
1.999960051968764
100
AcDbArc
 50
348.5464206667343
 51
89.99906415021472
  0
ARC
  5
29E7
330
1A
100
AcDbEntity
  8
SEIHIN
  6
Continuous
 62
     3
 48
16.0
100
AcDbCircle
 10
521.9154527461739
 20
263.1059289981479
 30
0.0
 40
0.9999999999999432
100
AcDbArc
 50
180.0
 51
0.0
  0
ARC
  5
29E8
330
1A
100
AcDbEntity
  8
SEIHIN
  6
Continuous
 62
     3
 48
16.0
100
AcDbCircle
 10
521.9154527461739
 20
263.1059289981479
 30
0.0
 40
0.9999999999999432
100
AcDbArc
 50
0.0
 51
180.0
  0
LINE
  5
29E9
330
1A
100
AcDbEntity
  8
NOKITOI
  6
PHANTOM
 62
     8
100
AcDbLine
 10
635.953752746174
 20
222.5060289981479
 30
0.0
 11
635.953752746174
 21
234.4886289981479
 31
0.0
  0
LINE
  5
29EA
330
1A
100
AcDbEntity
  8
NOKITOI
  6
PHANTOM
 62
     8
100
AcDbLine
 10
631.9219527461739
 20
235.9060289981478
 30
0.0
 11
631.3128527461738
 21
222.5060289981479
 31
0.0
  0
LINE
  5
29EB
330
1A
100
AcDbEntity
  8
NOKITOI
  6
PHANTOM
 62
     8
100
AcDbLine
 10
637.253752746174
 20
235.2060289981479
 30
0.0
 11
637.253752746174
 21
220.5891289981479
 31
0.0
  0
LINE
  5
29EC
330
1A
100
AcDbEntity
  8
SEIHIN
  6
Continuous
 62
     3
 48
16.0
100
AcDbLine
 10
637.9455527461738
 20
219.6060289981478
 30
0.0
 11
637.9455527461738
 21
235.7060289981478
 31
0.0
  0
LINE
  5
29ED
330
1A
100
AcDbEntity
  8
SEIHIN
  6
Continuous
 62
     3
 48
16.0
100
AcDbLine
 10
648.015552746174
 20
218.5060289981479
 30
0.0
 11
648.015552746174
 21
246.7060289981478
 31
0.0
  0
LINE
  5
29EE
330
1A
100
AcDbEntity
  8
NOKITOI
  6
PHANTOM
 62
     8
100
AcDbLine
 10
634.7537527461739
 20
221.2060289981478
 30
0.0
 11
636.496552746174
 21
220.1603289981478
 31
0.0
  0
LINE
  5
29EF
330
1A
100
AcDbEntity
  8
NOKITOI
  6
PHANTOM
 62
     8
100
AcDbLine
 10
631.3128527461738
 20
222.5060289981479
 30
0.0
 11
635.953752746174
 21
222.5060289981479
 31
0.0
  0
LINE
  5
29F0
330
1A
100
AcDbEntity
  8
SEIHIN
  6
Continuous
 62
     3
 48
16.0
100
AcDbLine
 10
636.9455527461738
 20
218.6060289981478
 30
0.0
 11
632.7789527461738
 21
218.6060289981478
 31
0.0
  0
LINE
  5
29F1
330
1A
100
AcDbEntity
  8
SEIHIN
  6
Continuous
 62
     3
 48
16.0
100
AcDbLine
 10
631.2500527461738
 20
216.5060289981479
 30
0.0
 11
646.015552746174
 21
216.5060289981479
 31
0.0
  0
LINE
  5
29F2
330
1A
100
AcDbEntity
  8
NOKITOI
  6
PHANTOM
 62
     8
100
AcDbLine
 10
631.2537527461739
 20
221.2060289981478
 30
0.0
 11
634.7537527461739
 21
221.2060289981478
 31
0.0
  0
ARC
  5
29F3
330
1A
100
AcDbEntity
  8
SEIHIN
  6
Continuous
 62
     3
 48
16.0
100
AcDbCircle
 10
632.7789283531611
 20
217.1060056885102
 30
0.0
 40
1.500023309835952
100
AcDbArc
 50
89.99906827002822
 51
177.3970263848236
  0
ARC
  5
29F4
330
1A
100
AcDbEntity
  8
SEIHIN
  6
Continuous
 62
     3
 48
16.0
100
AcDbCircle
 10
643.8791606613759
 20
215.506036625706
 30
0.0
 40
0.9999923724731209
100
AcDbArc
 50
90.00045351113664
 51
177.8799933077611
  0
ARC
  5
29F5
330
1A
100
AcDbEntity
  8
NOKITOI
  6
PHANTOM
 62
     8
100
AcDbCircle
 10
636.7537421064004
 20
220.5891229730466
 30
0.0
 40
0.500010639809949
100
AcDbArc
 50
239.0447944605788
 51
0.0006904110642984
  0
ARC
  5
29F6
330
1A
100
AcDbEntity
  8
SEIHIN
  6
Continuous
 62
     3
 48
16.0
100
AcDbCircle
 10
636.9455527461738
 20
219.6060289981479
 30
0.0
 40
1.000000000000028
100
AcDbArc
 50
269.9999999999968
 51
359.9999999999951
  0
ARC
  5
29F7
330
1A
100
AcDbEntity
  8
SEIHIN
  6
Continuous
 62
     3
 48
16.0
100
AcDbCircle
 10
646.015552746174
 20
218.5060289981479
 30
0.0
 40
2.0
100
AcDbArc
 50
270.0
 51
0.0
  0
LINE
  5
29F8
330
1A
100
AcDbEntity
  8
NOKITOI
  6
PHANTOM
 62
     8
100
AcDbLine
 10
634.079752746174
 20
237.2060289981479
 30
0.0
 11
637.253752746174
 21
235.2060289981479
 31
0.0
  0
LINE
  5
29F9
330
1A
100
AcDbEntity
  8
NOKITOI
  6
PHANTOM
 62
     8
100
AcDbLine
 10
635.953752746174
 20
234.4886289981479
 30
0.0
 11
633.704252746174
 21
235.9060289981478
 31
0.0
  0
LINE
  5
29FA
330
1A
100
AcDbEntity
  8
SEIHIN
  6
Continuous
 62
     3
 48
16.0
100
AcDbLine
 10
625.0168527461739
 20
246.7060289981478
 30
0.0
 11
648.015552746174
 21
246.7060289981478
 31
0.0
  0
LINE
  5
29FB
330
1A
100
AcDbEntity
  8
SEIHIN
  6
Continuous
 62
     3
 48
16.0
100
AcDbLine
 10
635.9455527461738
 20
237.7060289981478
 30
0.0
 11
630.4455527461738
 21
237.7060289981478
 31
0.0
  0
LINE
  5
29FC
330
1A
100
AcDbEntity
  8
SEIHIN
  6
Continuous
 62
     3
 48
16.0
100
AcDbLine
 10
630.4455527461738
 20
237.7060289981478
 30
0.0
 11
630.4455527461738
 21
235.7060289981478
 31
0.0
  0
ARC
  5
29FD
330
1A
100
AcDbEntity
  8
SEIHIN
  6
Continuous
 62
     3
 48
16.0
100
AcDbCircle
 10
632.0154753880669
 20
244.5680014450211
 30
0.0
 40
8.999973708028207
100
AcDbArc
 50
178.8697478908936
 51
259.9534941212611
  0
LINE
  5
29FE
330
1A
100
AcDbEntity
  8
NOKITOI
  6
PHANTOM
 62
     8
100
AcDbLine
 10
633.704252746174
 20
235.9060289981478
 30
0.0
 11
631.9219527461739
 21
235.9060289981478
 31
0.0
  0
LINE
  5
29FF
330
1A
100
AcDbEntity
  8
NOKITOI
  6
PHANTOM
 62
     8
100
AcDbLine
 10
631.1574527461739
 20
237.2060289981479
 30
0.0
 11
634.079752746174
 21
237.2060289981479
 31
0.0
  0
ARC
  5
2A00
330
1A
100
AcDbEntity
  8
NOKITOI
  6
PHANTOM
 62
     8
100
AcDbCircle
 10
631.1574446151697
 20
236.7060212282687
 30
0.0
 40
0.5000077699453767
100
AcDbArc
 50
89.99906827002333
 51
177.3970263848191
  0
ARC
  5
2A01
330
1A
100
AcDbEntity
  8
SEIHIN
  6
Continuous
 62
     3
 48
16.0
100
AcDbCircle
 10
625.0168587992866
 20
244.7060349331653
 30
0.0
 40
1.999994064991655
100
AcDbArc
 50
90.00017340942029
 51
178.8713668319723
  0
ARC
  5
2A02
330
1A
100
AcDbEntity
  8
SEIHIN
  6
Continuous
 62
     3
 48
16.0
100
AcDbCircle
 10
635.9455527461738
 20
235.7060289981477
 30
0.0
 40
2.000000000000057
100
AcDbArc
 50
0.0000000000016284
 51
90.00000000000162
  0
LINE
  5
2F09
330
1A
100
AcDbEntity
  8
SEIHIN
  6
Continuous
 62
     3
 48
32.0
100
AcDbLine
 10
232.7041181006955
 20
90.20662899814775
 30
0.0
 11
197.4543181006957
 21
90.20652899814778
 31
0.0
  0
LINE
  5
2F0A
330
1A
100
AcDbEntity
  8
SEIHIN
  6
Continuous
 62
     3
 48
32.0
100
AcDbLine
 10
191.2042181006957
 20
94.51285425884774
 30
0.0
 11
232.7042181006957
 21
94.51285425884774
 31
0.0
  0
LINE
  5
2F0B
330
1A
100
AcDbEntity
  8
SEIHIN
  6
Continuous
 62
     3
 48
32.0
100
AcDbLine
 10
196.5930930485956
 20
94.51285425884774
 30
0.0
 11
197.4543181006957
 21
90.20672899814772
 31
0.0
  0
ARC
  5
2F0C
330
1A
100
AcDbEntity
  8
SEIHIN
  6
Continuous
 62
     3
 48
32.0
100
AcDbCircle
 10
289.9260277925957
 20
110.4503663341477
 30
0.0
 40
100.0
100
AcDbArc
 50
182.0000000000005
 51
189.1706278673005
  0
ARC
  5
2F0D
330
1A
100
AcDbEntity
  8
SEIHIN
  6
Continuous
 62
     3
 48
32.0
100
AcDbCircle
 10
175.4824084087957
 20
110.4503663341477
 30
0.0
 40
100.0
100
AcDbArc
 50
350.8293721326995
 51
357.9999999999995
  0
LINE
  5
2F0E
330
1A
100
AcDbEntity
  8
SEIHIN
  6
Continuous
 62
     3
 48
32.0
100
AcDbLine
 10
232.7044181006957
 20
90.20662899814775
 30
0.0
 11
267.9543181006957
 21
90.20652899814778
 31
0.0
  0
LINE
  5
2F0F
330
1A
100
AcDbEntity
  8
SEIHIN
  6
Continuous
 62
     3
 48
32.0
100
AcDbLine
 10
274.2042181006957
 20
94.51285425884774
 30
0.0
 11
232.7042181006957
 21
94.51285425884774
 31
0.0
  0
LINE
  5
2F10
330
1A
100
AcDbEntity
  8
SEIHIN
  6
Continuous
 62
     3
 48
32.0
100
AcDbLine
 10
268.8155631527957
 20
94.51285425884774
 30
0.0
 11
267.9543181006957
 21
90.20662899814775
 31
0.0
  0
LINE
  5
2F11
330
1A
100
AcDbEntity
  8
SEIHIN
  6
Continuous
 62
     3
 48
32.0
100
AcDbLine
 10
275.4214911106958
 20
106.9604166638477
 30
0.0
 11
275.9668887936957
 21
138.2062289981477
 31
0.0
  0
LINE
  5
2F12
330
1A
100
AcDbEntity
  8
SEIHIN
  6
Continuous
 62
     3
 48
32.0
100
AcDbLine
 10
189.9869450906956
 20
106.9604166638477
 30
0.0
 11
189.4415474076957
 21
138.2062289981477
 31
0.0
  0
LINE
  5
2F13
330
1A
100
AcDbEntity
  8
SEIHIN
  6
Continuous
 62
     3
 48
32.0
100
AcDbLine
 10
544.2256041199304
 20
106.9601166638478
 30
0.0
 11
543.6802064369309
 21
138.2059289981478
 31
0.0
  0
LINE
  5
2F14
330
1A
100
AcDbEntity
  8
SEIHIN
  6
Continuous
 62
     3
 48
32.0
100
AcDbLine
 10
586.9427771299307
 20
90.20632899814785
 30
0.0
 11
551.6929771299307
 21
90.20622899814788
 31
0.0
  0
LINE
  5
2F15
330
1A
100
AcDbEntity
  8
SEIHIN
  6
Continuous
 62
     3
 48
32.0
100
AcDbLine
 10
545.4428771299305
 20
94.51255425884784
 30
0.0
 11
586.9428771299305
 21
94.51255425884784
 31
0.0
  0
LINE
  5
2F16
330
1A
100
AcDbEntity
  8
SEIHIN
  6
Continuous
 62
     3
 48
32.0
100
AcDbLine
 10
550.8317520778306
 20
94.51255425884784
 30
0.0
 11
551.6929771299307
 21
90.20642899814783
 31
0.0
  0
ARC
  5
2F17
330
1A
100
AcDbEntity
  8
SEIHIN
  6
Continuous
 62
     3
 48
32.0
100
AcDbCircle
 10
644.1646868218305
 20
110.4500663341478
 30
0.0
 40
100.0
100
AcDbArc
 50
182.0000000000005
 51
189.1706278673005
  0
LINE
  5
2F18
330
1A
100
AcDbEntity
  8
SEIHIN
  6
Continuous
 62
     3
 48
32.0
100
AcDbLine
 10
586.9430771299309
 20
90.20632899814785
 30
0.0
 11
622.1929771299307
 21
90.20622899814788
 31
0.0
  0
LINE
  5
2F19
330
1A
100
AcDbEntity
  8
SEIHIN
  6
Continuous
 62
     3
 48
32.0
100
AcDbLine
 10
628.4428771299305
 20
94.51255425884784
 30
0.0
 11
586.9428771299305
 21
94.51255425884784
 31
0.0
  0
LINE
  5
2F1A
330
1A
100
AcDbEntity
  8
SEIHIN
  6
Continuous
 62
     3
 48
32.0
100
AcDbLine
 10
623.0542221820307
 20
94.51255425884784
 30
0.0
 11
622.1929771299307
 21
90.20632899814785
 31
0.0
  0
ARC
  5
2F1B
330
1A
100
AcDbEntity
  8
SEIHIN
  6
Continuous
 62
     3
 48
32.0
100
AcDbCircle
 10
529.7210674380309
 20
110.4500663341478
 30
0.0
 40
100.0
100
AcDbArc
 50
350.8293721326995
 51
357.9999999999995
  0
LINE
  5
2F1C
330
1A
100
AcDbEntity
  8
SEIHIN
  6
Continuous
 62
     3
 48
32.0
100
AcDbLine
 10
629.6601501399306
 20
106.9601166638478
 30
0.0
 11
630.205547822931
 21
138.2059289981478
 31
0.0
  0
DIMENSION
  5
2F1D
330
1A
100
AcDbEntity
  8
SUNPOU
100
AcDbDimension
  2
*D21
 10
628.4429495936153
 20
55.46953180191375
 30
0.0
 11
586.9429495935716
 21
60.46953180191375
 31
0.0
 70
    32
  1
φ<>
 71
     5
 42
83.00000000008731
  3
STANDARD
100
AcDbAlignedDimension
 13
545.4429495935279
 23
94.51255425872483
 33
0.0
 14
628.4429495936153
 24
94.51255425872478
 34
0.0
100
AcDbRotatedDimension
1001
ACAD
1000
DSTYLE
1002
{
1070
   140
1040
6.0
1070
    74
1070
     0
1070
   172
1070
     1
1070
    73
1070
     0
1070
   272
1070
     2
1070
    77
1070
     3
1070
   173
1070
     1
1070
   147
1040
2.0
1070
    42
1040
6.0
1070
    44
1040
3.0
1070
    43
1040
14.0
1070
   271
1070
     0
1070
   178
1070
     4
1070
   177
1070
     4
1070
   176
1070
     4
1070
   141
1040
150.0
1070
     7
1000
_OPEN
1070
     6
1000
_OPEN
1070
    41
1040
7.0
1002
}
  0
VIEWPORT
  5
22
330
17
100
AcDbEntity
 67
     1
  8
0
100
AcDbViewport
 10
313.6808219178083
 20
148.5
 30
0.0
 40
627.3616438356165
 41
297.0
 68
     2
 69
     1
 12
313.6808219178083
 22
148.5
 13
0.0
 23
0.0
 14
1.0
 24
1.0
 15
10.0
 25
10.0
 16
0.0
 26
0.0
 36
1.0
 17
0.0
 27
0.0
 37
0.0
 42
50.0
 43
0.0
 44
0.0
 45
297.0
 50
0.0
 51
0.0
 72
   100
 90
    32768
  1

281
     0
 71
     1
 74
     0
110
0.0
120
0.0
130
0.0
111
1.0
121
0.0
131
0.0
112
0.0
122
1.0
132
0.0
 79
     0
146
0.0
  0
VIEWPORT
  5
64
330
17
100
AcDbEntity
 67
     1
  8
VIEWPORT
100
AcDbViewport
 10
210.0
 20
148.5
 30
0.0
 40
420.0
 41
297.0
 68
     1
 69
     2
 12
420.0
 22
297.0
 13
0.0
 23
0.0
 14
10.0
 24
10.0
 15
0.0
 25
0.0
 16
0.0
 26
0.0
 36
1.0
 17
0.0
 27
0.0
 37
0.0
 42
50.0
 43
0.0
 44
0.0
 45
605.8799999999999
 50
0.0
 51
0.0
 72
   100
 90
    32768
  1

281
     0
 71
     1
 74
     0
110
0.0
120
0.0
130
0.0
111
1.0
121
0.0
131
0.0
112
0.0
122
1.0
132
0.0
 79
     0
146
0.0
  0
ENDSEC
  0
SECTION
  2
OBJECTS
  0
DICTIONARY
  5
C
330
0
100
AcDbDictionary
281
     1
  3
ACAD_GROUP
350
D
  3
ACAD_LAYOUT
350
C42
  3
ACAD_MLINESTYLE
350
E
  3
ACAD_PLOTSETTINGS
350
C43
  3
ACAD_PLOTSTYLENAME
350
C40
  0
DICTIONARY
  5
D
102
{ACAD_REACTORS
330
C
102
}
330
C
100
AcDbDictionary
281
     1
  0
DICTIONARY
  5
C42
102
{ACAD_REACTORS
330
C
102
}
330
C
100
AcDbDictionary
281
     1
  3
Model
350
C44
  3
ﾚｲｱｳﾄ1
350
C45
  0
DICTIONARY
  5
E
102
{ACAD_REACTORS
330
C
102
}
330
C
100
AcDbDictionary
281
     1
  3
STANDARD
350
13
  0
DICTIONARY
  5
C43
102
{ACAD_REACTORS
330
C
102
}
330
C
100
AcDbDictionary
281
     1
  0
ACDBDICTIONARYWDFLT
  5
C40
102
{ACAD_REACTORS
330
C
102
}
330
C
100
AcDbDictionary
281
     1
  3
Normal
350
C41
100
AcDbDictionaryWithDefault
340
C41
1001
ACAD
1000
TREAT_AS_HARD
1070
     0
1000
TREAT_AS_HARD
1070
     0
1000
TREAT_AS_HARD
1070
     0
1000
TREAT_AS_HARD
1070
     0
1000
TREAT_AS_HARD
1070
     0
1000
TREAT_AS_HARD
1070
     0
  0
LAYOUT
  5
C44
102
{ACAD_REACTORS
330
C42
102
}
330
C42
100
AcDbPlotSettings
  1

  2
Acrobat PDFWriter
  4
A3
  6

 40
7.143749713897705
 41
7.14375638961792
 42
7.143768310546875
 43
7.14373779296875
 44
297.1270751953125
 45
420.1583251953125
 46
0.0
 47
0.0
 48
0.0
 49
0.0
140
0.0
141
0.0
142
1.0
143
2.0
 70
 28336
 72
     1
 73
     1
 74
     2
  7
print.ctb
 75
    17
147
0.5
148
0.0
149
0.0
100
AcDbLayout
  1
Model
 70
     1
 71
     0
 10
0.0
 20
0.0
 11
12.0
 21
9.0
 12
0.0
 22
0.0
 32
0.0
 14
0.0
 24
0.0
 34
0.0
 15
0.0
 25
0.0
 35
0.0
146
0.0
 13
0.0
 23
0.0
 33
0.0
 16
1.0
 26
0.0
 36
0.0
 17
0.0
 27
1.0
 37
0.0
 76
     0
330
1A
  0
LAYOUT
  5
C45
102
{ACAD_REACTORS
330
C42
102
}
330
C42
100
AcDbPlotSettings
  1

  2
Canon LBP-A404 LIPS3
  4

  6

 40
0.0
 41
0.0
 42
0.0
 43
0.0
 44
0.0
 45
0.0
 46
0.0
 47
0.0
 48
0.0
 49
0.0
140
0.0
141
0.0
142
1.0
143
1.0
 70
   688
 72
     0
 73
     0
 74
     5
  7

 75
    16
147
1.0
148
0.0
149
0.0
100
AcDbLayout
  1
ﾚｲｱｳﾄ1
 70
     1
 71
     1
 10
0.0
 20
0.0
 11
420.0
 21
297.0
 12
0.0
 22
0.0
 32
0.0
 14
0.0
 24
0.0
 34
0.0
 15
420.0
 25
297.0
 35
0.0
146
0.0
 13
0.0
 23
0.0
 33
0.0
 16
1.0
 26
0.0
 36
0.0
 17
0.0
 27
1.0
 37
0.0
 76
     0
330
17
331
64
  0
MLINESTYLE
  5
13
102
{ACAD_REACTORS
330
E
102
}
330
E
100
AcDbMlineStyle
  2
STANDARD
 70
     0
  3

 62
     0
 51
90.0
 52
90.0
 71
     2
 49
0.5
 62
   256
  6
BYLAYER
 49
-0.5
 62
   256
  6
BYLAYER
  0
ACDBPLACEHOLDER
  5
C41
102
{ACAD_REACTORS
330
C40
102
}
330
C40
  0
ENDSEC
  0
EOF
