  0
SECTION
  2
HEADER
  9
$ACADVER
  1
AC1015
  9
$ACADMAINTVER
 70
    20
  9
$DWGCODEPAGE
  3
ANSI_932
  9
$INSBASE
 10
0.0
 20
0.0
 30
0.0
  9
$EXTMIN
 10
29.97705473235919
 20
29.96466344544297
 30
-0.0015258207003583
  9
$EXTMAX
 10
1625.202732121574
 20
1133.200747331139
 30
0.0000000349246037
  9
$LIMMIN
 10
0.0
 20
0.0
  9
$LIMMAX
 10
1682.0
 20
1188.0
  9
$ORTHOMODE
 70
     1
  9
$REGENMODE
 70
     1
  9
$FILLMODE
 70
     1
  9
$QTEXTMODE
 70
     0
  9
$MIRRTEXT
 70
     1
  9
$LTSCALE
 40
5.657142857142857
  9
$ATTMODE
 70
     1
  9
$TEXTSIZE
 40
19.8
  9
$TRACEWID
 40
0.05
  9
$TEXTSTYLE
  7
ｽﾀｲﾙ1
  9
$CLAYER
  8
SUNPOU
  9
$CELTYPE
  6
BYLAYER
  9
$CECOLOR
 62
   256
  9
$CELTSCALE
 40
1.0
  9
$DISPSILH
 70
     0
  9
$DIMSCALE
 40
1.0
  9
$DIMASZ
 40
14.0
  9
$DIMEXO
 40
12.0
  9
$DIMDLI
 40
28.0
  9
$DIMRND
 40
0.0
  9
$DIMDLE
 40
0.0
  9
$DIMEXE
 40
6.0
  9
$DIMTP
 40
0.0
  9
$DIMTM
 40
0.0
  9
$DIMTXT
 40
12.0
  9
$DIMCEN
 40
150.0
  9
$DIMTSZ
 40
0.0
  9
$DIMTOL
 70
     0
  9
$DIMLIM
 70
     0
  9
$DIMTIH
 70
     0
  9
$DIMTOH
 70
     0
  9
$DIMSE1
 70
     0
  9
$DIMSE2
 70
     0
  9
$DIMTAD
 70
     3
  9
$DIMZIN
 70
     0
  9
$DIMBLK
  1

  9
$DIMASO
 70
     1
  9
$DIMSHO
 70
     1
  9
$DIMPOST
  1

  9
$DIMAPOST
  1

  9
$DIMALT
 70
     0
  9
$DIMALTD
 70
     2
  9
$DIMALTF
 40
0.03937
  9
$DIMLFAC
 40
1.0
  9
$DIMTOFL
 70
     1
  9
$DIMTVP
 40
0.0
  9
$DIMTIX
 70
     0
  9
$DIMSOXD
 70
     0
  9
$DIMSAH
 70
     1
  9
$DIMBLK1
  1
OPEN
  9
$DIMBLK2
  1
OPEN
  9
$DIMSTYLE
  2
STANDARD
  9
$DIMCLRD
 70
   256
  9
$DIMCLRE
 70
   256
  9
$DIMCLRT
 70
   256
  9
$DIMTFAC
 40
1.0
  9
$DIMGAP
 40
4.0
  9
$DIMJUST
 70
     0
  9
$DIMSD1
 70
     0
  9
$DIMSD2
 70
     0
  9
$DIMTOLJ
 70
     1
  9
$DIMTZIN
 70
     0
  9
$DIMALTZ
 70
     0
  9
$DIMALTTZ
 70
     0
  9
$DIMUPT
 70
     0
  9
$DIMDEC
 70
     0
  9
$DIMTDEC
 70
     0
  9
$DIMALTU
 70
     2
  9
$DIMALTTD
 70
     2
  9
$DIMTXSTY
  7
STANDARD
  9
$DIMAUNIT
 70
     0
  9
$DIMADEC
 70
     0
  9
$DIMALTRND
 40
0.0
  9
$DIMAZIN
 70
     0
  9
$DIMDSEP
 70
    46
  9
$DIMATFIT
 70
     3
  9
$DIMFRAC
 70
     0
  9
$DIMLDRBLK
  1
OPEN
  9
$DIMLUNIT
 70
     2
  9
$DIMLWD
 70
    -1
  9
$DIMLWE
 70
    -1
  9
$DIMTMOVE
 70
     0
  9
$LUNITS
 70
     2
  9
$LUPREC
 70
     4
  9
$SKETCHINC
 40
0.1
  9
$FILLETRAD
 40
20.0
  9
$AUNITS
 70
     0
  9
$AUPREC
 70
     0
  9
$MENU
  1
acad
  9
$ELEVATION
 40
0.0
  9
$PELEVATION
 40
0.0
  9
$THICKNESS
 40
0.0
  9
$LIMCHECK
 70
     0
  9
$CHAMFERA
 40
56.57142857142858
  9
$CHAMFERB
 40
56.57142857142858
  9
$CHAMFERC
 40
113.1428571428571
  9
$CHAMFERD
 40
0.0
  9
$SKPOLY
 70
     0
  9
$TDCREATE
 40
2451019.669682407
  9
$TDUCREATE
 40
2451019.294682407
  9
$TDUPDATE
 40
2458668.383093565
  9
$TDUUPDATE
 40
2458668.008093565
  9
$TDINDWG
 40
0.1899985648
  9
$TDUSRTIMER
 40
0.1899985648
  9
$USRTIMER
 70
     1
  9
$ANGBASE
 50
0.0
  9
$ANGDIR
 70
     0
  9
$PDMODE
 70
     0
  9
$PDSIZE
 40
0.0
  9
$PLINEWID
 40
0.0
  9
$SPLFRAME
 70
     0
  9
$SPLINETYPE
 70
     6
  9
$SPLINESEGS
 70
     8
  9
$HANDSEED
  5
2BA2
  9
$SURFTAB1
 70
     6
  9
$SURFTAB2
 70
     6
  9
$SURFTYPE
 70
     6
  9
$SURFU
 70
     6
  9
$SURFV
 70
     6
  9
$UCSBASE
  2

  9
$UCSNAME
  2

  9
$UCSORG
 10
0.0
 20
0.0
 30
0.0
  9
$UCSXDIR
 10
1.0
 20
0.0
 30
0.0
  9
$UCSYDIR
 10
0.0
 20
1.0
 30
0.0
  9
$UCSORTHOREF
  2

  9
$UCSORTHOVIEW
 70
     0
  9
$UCSORGTOP
 10
0.0
 20
0.0
 30
0.0
  9
$UCSORGBOTTOM
 10
0.0
 20
0.0
 30
0.0
  9
$UCSORGLEFT
 10
0.0
 20
0.0
 30
0.0
  9
$UCSORGRIGHT
 10
0.0
 20
0.0
 30
0.0
  9
$UCSORGFRONT
 10
0.0
 20
0.0
 30
0.0
  9
$UCSORGBACK
 10
0.0
 20
0.0
 30
0.0
  9
$PUCSBASE
  2

  9
$PUCSNAME
  2

  9
$PUCSORG
 10
0.0
 20
0.0
 30
0.0
  9
$PUCSXDIR
 10
1.0
 20
0.0
 30
0.0
  9
$PUCSYDIR
 10
0.0
 20
1.0
 30
0.0
  9
$PUCSORTHOREF
  2

  9
$PUCSORTHOVIEW
 70
     0
  9
$PUCSORGTOP
 10
0.0
 20
0.0
 30
0.0
  9
$PUCSORGBOTTOM
 10
0.0
 20
0.0
 30
0.0
  9
$PUCSORGLEFT
 10
0.0
 20
0.0
 30
0.0
  9
$PUCSORGRIGHT
 10
0.0
 20
0.0
 30
0.0
  9
$PUCSORGFRONT
 10
0.0
 20
0.0
 30
0.0
  9
$PUCSORGBACK
 10
0.0
 20
0.0
 30
0.0
  9
$USERI1
 70
     0
  9
$USERI2
 70
     0
  9
$USERI3
 70
     0
  9
$USERI4
 70
     0
  9
$USERI5
 70
     0
  9
$USERR1
 40
0.0
  9
$USERR2
 40
0.0
  9
$USERR3
 40
0.0
  9
$USERR4
 40
0.0
  9
$USERR5
 40
0.0
  9
$WORLDVIEW
 70
     1
  9
$SHADEDGE
 70
     3
  9
$SHADEDIF
 70
    70
  9
$TILEMODE
 70
     1
  9
$MAXACTVP
 70
    16
  9
$PINSBASE
 10
0.0
 20
0.0
 30
0.0
  9
$PLIMCHECK
 70
     0
  9
$PEXTMIN
 10
-0.0128164049386896
 20
-0.0090630292066862
 30
-0.0015258207003583
  9
$PEXTMAX
 10
420.0128183607161
 20
297.0090644122207
 30
0.0000000349246037
  9
$PLIMMIN
 10
-10.01343682308299
 20
-10.00967368473416
  9
$PLIMMAX
 10
430.0134290162437
 20
330.0110840973768
  9
$UNITMODE
 70
     0
  9
$VISRETAIN
 70
     0
  9
$PLINEGEN
 70
     0
  9
$PSLTSCALE
 70
     1
  9
$TREEDEPTH
 70
  3020
  9
$CMLSTYLE
  2
STANDARD
  9
$CMLJUST
 70
     0
  9
$CMLSCALE
 40
20.0
  9
$PROXYGRAPHICS
 70
     1
  9
$MEASUREMENT
 70
     1
  9
$CELWEIGHT
370
    -1
  9
$ENDCAPS
280
     0
  9
$JOINSTYLE
280
     0
  9
$LWDISPLAY
290
     0
  9
$INSUNITS
 70
     0
  9
$HYPERLINKBASE
  1

  9
$STYLESHEET
  1
monochrome.ctb
  9
$XEDIT
290
     1
  9
$CEPSNTYPE
380
     0
  9
$PSTYLEMODE
290
     1
  9
$FINGERPRINTGUID
  2
{E1832D66-A93C-11D5-932D-0050DA99388B}
  9
$VERSIONGUID
  2
{C5B3D789-BA47-49ED-8989-57C12623C84C}
  9
$EXTNAMES
290
     1
  9
$PSVPSCALE
 40
0.0
  9
$OLESTARTUP
290
     0
  0
ENDSEC
  0
SECTION
  2
CLASSES
  0
CLASS
  1
ACDBDICTIONARYWDFLT
  2
AcDbDictionaryWithDefault
  3
ObjectDBX Classes
 90
        0
280
     0
281
     0
  0
CLASS
  1
ACDBPLACEHOLDER
  2
AcDbPlaceHolder
  3
ObjectDBX Classes
 90
        0
280
     0
281
     0
  0
CLASS
  1
LAYOUT
  2
AcDbLayout
  3
ObjectDBX Classes
 90
        0
280
     0
281
     0
  0
CLASS
  1
DICTIONARYVAR
  2
AcDbDictionaryVar
  3
ObjectDBX Classes
 90
        0
280
     0
281
     0
  0
ENDSEC
  0
SECTION
  2
TABLES
  0
TABLE
  2
VPORT
  5
8
330
0
100
AcDbSymbolTable
 70
     6
  0
VPORT
  5
2B96
330
8
100
AcDbSymbolTableRecord
100
AcDbViewportTableRecord
  2
*Active
 70
     0
 10
0.0
 20
0.0
 11
1.0
 21
1.0
 12
1047.677008469142
 22
540.5163379170862
 13
0.0
 23
0.0
 14
10.0
 24
10.0
 15
10.0
 25
10.0
 16
0.0
 26
0.0
 36
1.0
 17
0.0
 27
0.0
 37
0.0
 40
1581.143920437568
 41
1.916926272066459
 42
50.0
 43
0.0
 44
0.0
 50
0.0
 51
0.0
 71
     0
 72
   100
 73
     1
 74
     0
 75
     0
 76
     0
 77
     0
 78
     0
281
     0
 65
     1
110
0.0
120
0.0
130
0.0
111
1.0
121
0.0
131
0.0
112
0.0
122
1.0
132
0.0
 79
     0
146
0.0
  0
ENDTAB
  0
TABLE
  2
LTYPE
  5
5
330
0
100
AcDbSymbolTable
 70
     3
  0
LTYPE
  5
13
330
5
100
AcDbSymbolTableRecord
100
AcDbLinetypeTableRecord
  2
BYBLOCK
 70
     0
  3

 72
    65
 73
     0
 40
0.0
  0
LTYPE
  5
14
330
5
100
AcDbSymbolTableRecord
100
AcDbLinetypeTableRecord
  2
BYLAYER
 70
     0
  3

 72
    65
 73
     0
 40
0.0
  0
LTYPE
  5
15
330
5
100
AcDbSymbolTableRecord
100
AcDbLinetypeTableRecord
  2
CONTINUOUS
 70
     0
  3
Solid line
 72
    65
 73
     0
 40
0.0
  0
LTYPE
  5
11C
330
5
100
AcDbSymbolTableRecord
100
AcDbLinetypeTableRecord
  2
CENTER
 70
     0
  3
____ _ ____ _ ____ _ ____ _ ____ _ ____ _ ____ 
 72
    65
 73
     4
 40
2.0
 49
1.25
 74
     0
 49
-0.25
 74
     0
 49
0.25
 74
     0
 49
-0.25
 74
     0
  0
LTYPE
  5
11E
330
5
100
AcDbSymbolTableRecord
100
AcDbLinetypeTableRecord
  2
PHANTOM
 70
     0
  3
______  __  __  ______  __  __  ______  __  __ 
 72
    65
 73
     6
 40
2.5
 49
1.25
 74
     0
 49
-0.25
 74
     0
 49
0.25
 74
     0
 49
-0.25
 74
     0
 49
0.25
 74
     0
 49
-0.25
 74
     0
  0
ENDTAB
  0
TABLE
  2
LAYER
  5
2
330
0
100
AcDbSymbolTable
 70
     9
  0
LAYER
  5
F
330
2
100
AcDbSymbolTableRecord
100
AcDbLayerTableRecord
  2
0
 70
     0
 62
     7
  6
CONTINUOUS
370
    -3
390
11D9
  0
LAYER
  5
23
330
2
100
AcDbSymbolTableRecord
100
AcDbLayerTableRecord
  2
VIEWPORT
 70
     0
 62
     7
  6
CONTINUOUS
370
    -3
390
11D9
  0
LAYER
  5
2D
330
2
100
AcDbSymbolTableRecord
100
AcDbLayerTableRecord
  2
ZUWAKU
 70
     0
 62
     7
  6
CONTINUOUS
370
    -3
390
11D9
  0
LAYER
  5
A6
330
2
100
AcDbSymbolTableRecord
100
AcDbLayerTableRecord
  2
DEFPOINTS
 70
     0
 62
     7
  6
CONTINUOUS
290
     0
370
    -3
390
11D9
  0
LAYER
  5
1F5
330
2
100
AcDbSymbolTableRecord
100
AcDbLayerTableRecord
  2
SEIHIN
 70
     0
 62
     3
  6
CONTINUOUS
370
    -3
390
11D9
  0
LAYER
  5
5FF
330
2
100
AcDbSymbolTableRecord
100
AcDbLayerTableRecord
  2
CENTER L
 70
     0
 62
     1
  6
CENTER
370
    -3
390
11D9
  0
LAYER
  5
600
330
2
100
AcDbSymbolTableRecord
100
AcDbLayerTableRecord
  2
SUNPOU
 70
     0
 62
     4
  6
CONTINUOUS
370
    -3
390
11D9
  0
LAYER
  5
CDA
330
2
100
AcDbSymbolTableRecord
100
AcDbLayerTableRecord
  2
NOKITOI
 70
     0
 62
     8
  6
PHANTOM
370
    -3
390
11D9
  0
LAYER
  5
14B3
330
2
100
AcDbSymbolTableRecord
100
AcDbLayerTableRecord
  2
moji
 70
     0
 62
     2
  6
CONTINUOUS
370
    -3
390
11D9
  0
ENDTAB
  0
TABLE
  2
STYLE
  5
3
330
0
100
AcDbSymbolTable
 70
     2
  0
STYLE
  5
10
330
3
100
AcDbSymbolTableRecord
100
AcDbTextStyleTableRecord
  2
STANDARD
 70
     0
 40
0.0
 41
1.0
 50
0.0
 71
     0
 42
19.8
  3
txt
  4
c:\PROGRAM FILES\AUTOCAD LT\ms\bigfont.shx
  0
STYLE
  5
14A8
330
3
100
AcDbSymbolTableRecord
100
AcDbTextStyleTableRecord
  2
ｽﾀｲﾙ1
 70
     0
 40
0.0
 41
1.0
 50
0.0
 71
     0
 42
19.8
  3
MS Gothic.ttf
  4

1001
ACAD
1000
MS Gothic
1071
    32817
  0
ENDTAB
  0
TABLE
  2
VIEW
  5
6
330
0
100
AcDbSymbolTable
 70
     0
  0
ENDTAB
  0
TABLE
  2
UCS
  5
7
330
0
100
AcDbSymbolTable
 70
     0
  0
ENDTAB
  0
TABLE
  2
APPID
  5
9
330
0
100
AcDbSymbolTable
 70
     1
  0
APPID
  5
11
330
9
100
AcDbSymbolTableRecord
100
AcDbRegAppTableRecord
  2
ACAD
 70
     0
  0
ENDTAB
  0
TABLE
  2
DIMSTYLE
  5
A
330
0
100
AcDbSymbolTable
 70
     1
100
AcDbDimStyleTable
 71
     0
  0
DIMSTYLE
105
1D
102
{ACAD_REACTORS
330
2309
330
230A
330
2389
330
2370
330
232F
330
231B
330
235F
330
244E
330
2714
330
2721
330
279E
330
230B
102
}
330
A
100
AcDbSymbolTableRecord
100
AcDbDimStyleTableRecord
  2
STANDARD
 70
     0
340
10
  0
ENDTAB
  0
TABLE
  2
BLOCK_RECORD
  5
1
330
0
100
AcDbSymbolTable
 70
    14
  0
BLOCK_RECORD
  5
19
102
{ACAD_XDICTIONARY
360
13D5
102
}
330
1
100
AcDbSymbolTableRecord
100
AcDbBlockTableRecord
  2
*MODEL_SPACE
340
11DC
  0
BLOCK_RECORD
  5
16
102
{ACAD_XDICTIONARY
360
13D3
102
}
330
1
100
AcDbSymbolTableRecord
100
AcDbBlockTableRecord
  2
*PAPER_SPACE
340
11DD
  0
BLOCK_RECORD
  5
27
330
1
100
AcDbSymbolTableRecord
100
AcDbBlockTableRecord
  2
_OPEN
340
0
102
{BLKREFS
331
2A4D
331
2A4E
331
2A56
331
2A57
331
2A7C
331
2A7D
331
2A6A
331
2A6B
331
2AB4
331
2AB5
331
2A85
331
2A86
331
2A90
331
2A91
331
2A99
331
2A9A
331
2AA2
331
2AA3
331
2AAB
331
2AAC
331
2A73
331
2A74
331
2B7A
331
2B7B
102
}
  0
BLOCK_RECORD
  5
1F70
330
1
100
AcDbSymbolTableRecord
100
AcDbBlockTableRecord
  2
*X1
340
0
102
{BLKREFS
331
15D7
102
}
  0
BLOCK_RECORD
  5
245F
330
1
100
AcDbSymbolTableRecord
100
AcDbBlockTableRecord
  2
*D2
340
0
  0
BLOCK_RECORD
  5
246B
330
1
100
AcDbSymbolTableRecord
100
AcDbBlockTableRecord
  2
*D3
340
0
  0
BLOCK_RECORD
  5
2477
330
1
100
AcDbSymbolTableRecord
100
AcDbBlockTableRecord
  2
*D4
340
0
  0
BLOCK_RECORD
  5
248F
330
1
100
AcDbSymbolTableRecord
100
AcDbBlockTableRecord
  2
*D5
340
0
  0
BLOCK_RECORD
  5
24A7
330
1
100
AcDbSymbolTableRecord
100
AcDbBlockTableRecord
  2
*D6
340
0
  0
BLOCK_RECORD
  5
24B3
330
1
100
AcDbSymbolTableRecord
100
AcDbBlockTableRecord
  2
*D7
340
0
  0
BLOCK_RECORD
  5
24BF
330
1
100
AcDbSymbolTableRecord
100
AcDbBlockTableRecord
  2
*D8
340
0
  0
BLOCK_RECORD
  5
24CB
330
1
100
AcDbSymbolTableRecord
100
AcDbBlockTableRecord
  2
*D9
340
0
  0
BLOCK_RECORD
  5
24D7
330
1
100
AcDbSymbolTableRecord
100
AcDbBlockTableRecord
  2
*D10
340
0
  0
BLOCK_RECORD
  5
2715
330
1
100
AcDbSymbolTableRecord
100
AcDbBlockTableRecord
  2
*D11
340
0
  0
BLOCK_RECORD
  5
2722
330
1
100
AcDbSymbolTableRecord
100
AcDbBlockTableRecord
  2
*D12
340
0
  0
BLOCK_RECORD
  5
279F
330
1
100
AcDbSymbolTableRecord
100
AcDbBlockTableRecord
  2
*D13
340
0
  0
ENDTAB
  0
ENDSEC
  0
SECTION
  2
BLOCKS
  0
BLOCK
  5
1A
330
19
100
AcDbEntity
  8
0
100
AcDbBlockBegin
  2
*MODEL_SPACE
 70
     0
 10
0.0
 20
0.0
 30
0.0
  3
*MODEL_SPACE
  1

  0
ENDBLK
  5
1B
330
19
100
AcDbEntity
  8
0
100
AcDbBlockEnd
  0
BLOCK
  5
17
330
16
100
AcDbEntity
 67
     1
  8
0
100
AcDbBlockBegin
  2
*PAPER_SPACE
 70
     0
 10
0.0
 20
0.0
 30
0.0
  3
*PAPER_SPACE
  1

  0
ENDBLK
  5
18
330
16
100
AcDbEntity
 67
     1
  8
0
100
AcDbBlockEnd
  0
BLOCK
  5
28
330
27
100
AcDbEntity
  8
0
100
AcDbBlockBegin
  2
_OPEN
 70
     0
 10
0.0
 20
0.0
 30
0.0
  3
_OPEN
  1

  0
LINE
  5
29
330
27
100
AcDbEntity
  8
0
  6
ByBlock
 62
     0
100
AcDbLine
 10
-1.0
 20
0.1666666666666666
 30
0.0
 11
0.0
 21
0.0
 31
0.0
  0
LINE
  5
2A
330
27
100
AcDbEntity
  8
0
  6
ByBlock
 62
     0
100
AcDbLine
 10
0.0
 20
0.0
 30
0.0
 11
-1.0
 21
-0.1666666666666666
 31
0.0
  0
LINE
  5
2B
330
27
100
AcDbEntity
  8
0
  6
ByBlock
 62
     0
100
AcDbLine
 10
0.0
 20
0.0
 30
0.0
 11
-1.0
 21
0.0
 31
0.0
  0
ENDBLK
  5
2C
330
27
100
AcDbEntity
  8
0
100
AcDbBlockEnd
  0
BLOCK
  5
2104
330
1F70
100
AcDbEntity
  8
0
100
AcDbBlockBegin
  2
*X1
 70
     1
 10
0.0
 20
0.0
 30
0.0
  3
*X1
  1

  0
LINE
  5
1F71
330
1F70
100
AcDbEntity
  8
0
 62
     0
100
AcDbLine
 10
138.0844243231183
 20
45.20833800885884
 30
0.0
 11
136.7927624636885
 21
46.4999998682888
 31
0.0
  0
LINE
  5
1F72
330
1F70
100
AcDbEntity
  8
0
 62
     0
100
AcDbLine
 10
138.0844243231183
 20
43.41228678464505
 30
0.0
 11
134.9967112394746
 21
46.4999998682888
 31
0.0
  0
LINE
  5
1F73
330
1F70
100
AcDbEntity
  8
0
 62
     0
100
AcDbLine
 10
138.0844243231182
 20
41.61623556043116
 30
0.0
 11
133.2421564310883
 21
46.45850345246105
 31
0.0
  0
LINE
  5
1F74
330
1F70
100
AcDbEntity
  8
0
 62
     0
100
AcDbLine
 10
138.0844243231183
 20
39.8201843362175
 30
0.0
 11
132.4844243231182
 21
45.42018433621751
 31
0.0
  0
LINE
  5
1F75
330
1F70
100
AcDbEntity
  8
0
 62
     0
100
AcDbLine
 10
138.0844243231183
 20
38.0241331120036
 30
0.0
 11
132.4844243231182
 21
43.62413311200373
 31
0.0
  0
LINE
  5
1F76
330
1F70
100
AcDbEntity
  8
0
 62
     0
100
AcDbLine
 10
138.0844243231182
 20
36.2280818877897
 30
0.0
 11
132.4844243231181
 21
41.82808188778984
 31
0.0
  0
LINE
  5
1F77
330
1F70
100
AcDbEntity
  8
0
 62
     0
100
AcDbLine
 10
128.2844243231181
 20
44.2320306635761
 30
0.0
 11
126.0164551184056
 21
46.4999998682888
 31
0.0
  0
LINE
  5
1F78
330
1F70
100
AcDbEntity
  8
0
 62
     0
100
AcDbLine
 10
138.0844243231183
 20
34.43203066357603
 30
0.0
 11
132.4844243231182
 21
40.03203066357616
 31
0.0
  0
LINE
  5
1F79
330
1F70
100
AcDbEntity
  8
0
 62
     0
100
AcDbLine
 10
128.2844243231181
 20
42.43597943936231
 30
0.0
 11
124.2204038941917
 21
46.49999986828868
 31
0.0
  0
LINE
  5
1F7A
330
1F70
100
AcDbEntity
  8
0
 62
     0
100
AcDbLine
 10
138.0844243231182
 20
32.63597943936213
 30
0.0
 11
132.4844243231182
 21
38.23597943936227
 31
0.0
  0
LINE
  5
1F7B
330
1F70
100
AcDbEntity
  8
0
 62
     0
100
AcDbLine
 10
128.2844243231181
 20
40.63992821514841
 30
0.0
 11
122.873402392844
 21
46.05095014542257
 31
0.0
  0
LINE
  5
1F7C
330
1F70
100
AcDbEntity
  8
0
 62
     0
100
AcDbLine
 10
138.0844243231182
 20
30.83992821514835
 30
0.0
 11
132.4844243231181
 21
36.43992821514837
 31
0.0
  0
LINE
  5
1F7D
330
1F70
100
AcDbEntity
  8
0
 62
     0
100
AcDbLine
 10
128.2844243231184
 20
38.84387699093441
 30
0.0
 11
122.684424323118
 21
44.44387699093465
 31
0.0
  0
LINE
  5
1F7E
330
1F70
100
AcDbEntity
  8
0
 62
     0
100
AcDbLine
 10
138.0844243231183
 20
29.04387699093445
 30
0.0
 11
132.4844243231182
 21
34.64387699093459
 31
0.0
  0
LINE
  5
1F7F
330
1F70
100
AcDbEntity
  8
0
 62
     0
100
AcDbLine
 10
128.2844243231183
 20
37.04782576672062
 30
0.0
 11
122.684424323118
 21
42.64782576672098
 31
0.0
  0
LINE
  5
1F80
330
1F70
100
AcDbEntity
  8
0
 62
     0
100
AcDbLine
 10
138.0844243231182
 20
27.24782576672067
 30
0.0
 11
132.4844243231181
 21
32.84782576672081
 31
0.0
  0
LINE
  5
1F81
330
1F70
100
AcDbEntity
  8
0
 62
     0
100
AcDbLine
 10
128.2844243231183
 20
35.25177454250684
 30
0.0
 11
122.684424323118
 21
40.85177454250708
 31
0.0
  0
LINE
  5
1F82
330
1F70
100
AcDbEntity
  8
0
 62
     0
100
AcDbLine
 10
138.0844243231182
 20
25.45177454250688
 30
0.0
 11
132.4844243231181
 21
31.05177454250702
 31
0.0
  0
LINE
  5
1F83
330
1F70
100
AcDbEntity
  8
0
 62
     0
100
AcDbLine
 10
128.2844243231181
 20
33.45572331829294
 30
0.0
 11
122.6844243231179
 21
39.05572331829319
 31
0.0
  0
LINE
  5
1F84
330
1F70
100
AcDbEntity
  8
0
 62
     0
100
AcDbLine
 10
138.0844243231181
 20
23.65572331829298
 30
0.0
 11
132.4844243231181
 21
29.25572331829312
 31
0.0
  0
LINE
  5
1F85
330
1F70
100
AcDbEntity
  8
0
 62
     0
100
AcDbLine
 10
128.2844243231183
 20
31.65967209407927
 30
0.0
 11
122.684424323118
 21
37.25967209407952
 31
0.0
  0
LINE
  5
1F86
330
1F70
100
AcDbEntity
  8
0
 62
     0
100
AcDbLine
 10
115.6844243231181
 20
44.2596720940794
 30
0.0
 11
113.4440965489086
 21
46.4999998682888
 31
0.0
  0
LINE
  5
1F87
330
1F70
100
AcDbEntity
  8
0
 62
     0
100
AcDbLine
 10
138.0844243231182
 20
21.85967209407932
 30
0.0
 11
132.4844243231181
 21
27.45967209407934
 31
0.0
  0
LINE
  5
1F88
330
1F70
100
AcDbEntity
  8
0
 62
     0
100
AcDbLine
 10
128.2844243231183
 20
29.86362086986537
 30
0.0
 11
122.6844243231179
 21
35.46362086986562
 31
0.0
  0
LINE
  5
1F89
330
1F70
100
AcDbEntity
  8
0
 62
     0
100
AcDbLine
 10
115.6844243231182
 20
42.46362086986539
 30
0.0
 11
111.6480453246948
 21
46.4999998682888
 31
0.0
  0
LINE
  5
1F8A
330
1F70
100
AcDbEntity
  8
0
 62
     0
100
AcDbLine
 10
138.0844243231182
 20
20.06362086986542
 30
0.0
 11
132.4844243231181
 21
25.66362086986555
 31
0.0
  0
LINE
  5
1F8B
330
1F70
100
AcDbEntity
  8
0
 62
     0
100
AcDbLine
 10
128.2844243231181
 20
28.06756964565159
 30
0.0
 11
122.684424323118
 21
33.66756964565161
 31
0.0
  0
LINE
  5
1F8C
330
1F70
100
AcDbEntity
  8
0
 62
     0
100
AcDbLine
 10
115.6844243231181
 20
40.6675696456515
 30
0.0
 11
110.28489887647
 21
46.06709509229972
 31
0.0
  0
LINE
  5
1F8D
330
1F70
100
AcDbEntity
  8
0
 62
     0
100
AcDbLine
 10
138.0844243231181
 20
18.26756964565163
 30
0.0
 11
132.484424323118
 21
23.86756964565166
 31
0.0
  0
LINE
  5
1F8E
330
1F70
100
AcDbEntity
  8
0
 62
     0
100
AcDbLine
 10
128.2844243231183
 20
26.27151842143769
 30
0.0
 11
122.6844243231181
 21
31.87151842143783
 31
0.0
  0
LINE
  5
1F8F
330
1F70
100
AcDbEntity
  8
0
 62
     0
100
AcDbLine
 10
115.6844243231182
 20
38.87151842143771
 30
0.0
 11
110.0844243231181
 21
44.47151842143784
 31
0.0
  0
LINE
  5
1F90
330
1F70
100
AcDbEntity
  8
0
 62
     0
100
AcDbLine
 10
138.0844243231182
 20
16.47151842143773
 30
0.0
 11
132.4844243231181
 21
22.07151842143787
 31
0.0
  0
LINE
  5
1F91
330
1F70
100
AcDbEntity
  8
0
 62
     0
100
AcDbLine
 10
128.2844243231181
 20
24.47546719722391
 30
0.0
 11
122.6844243231181
 21
30.07546719722404
 31
0.0
  0
LINE
  5
1F92
330
1F70
100
AcDbEntity
  8
0
 62
     0
100
AcDbLine
 10
115.6844243231182
 20
37.07546719722393
 30
0.0
 11
110.0844243231182
 21
42.67546719722395
 31
0.0
  0
LINE
  5
1F93
330
1F70
100
AcDbEntity
  8
0
 62
     0
100
AcDbLine
 10
137.9404936133386
 20
14.81939790700358
 30
0.0
 11
132.4844243231181
 21
20.27546719722409
 31
0.0
  0
LINE
  5
1F94
330
1F70
100
AcDbEntity
  8
0
 62
     0
100
AcDbLine
 10
128.2844243231183
 20
22.67941597300989
 30
0.0
 11
122.684424323118
 21
28.27941597301015
 31
0.0
  0
LINE
  5
1F95
330
1F70
100
AcDbEntity
  8
0
 62
     0
100
AcDbLine
 10
115.6844243231181
 20
35.27941597301015
 30
0.0
 11
110.0844243231182
 21
40.87941597301005
 31
0.0
  0
LINE
  5
1F96
330
1F70
100
AcDbEntity
  8
0
 62
     0
100
AcDbLine
 10
136.6638404278396
 20
14.29999986828863
 30
0.0
 11
132.484424323118
 21
18.4794159730103
 31
0.0
  0
LINE
  5
1F97
330
1F70
100
AcDbEntity
  8
0
 62
     0
100
AcDbLine
 10
115.6844243231181
 20
33.48336474879625
 30
0.0
 11
110.0844243231181
 21
39.08336474879616
 31
0.0
  0
LINE
  5
1F98
330
1F70
100
AcDbEntity
  8
0
 62
     0
100
AcDbLine
 10
128.2844243231183
 20
20.88336474879611
 30
0.0
 11
122.684424323118
 21
26.48336474879636
 31
0.0
  0
LINE
  5
1F99
330
1F70
100
AcDbEntity
  8
0
 62
     0
100
AcDbLine
 10
104.8344243231181
 20
44.33336474879626
 30
0.0
 11
102.6677892036255
 21
46.4999998682888
 31
0.0
  0
LINE
  5
1F9A
330
1F70
100
AcDbEntity
  8
0
 62
     0
100
AcDbLine
 10
134.8677892036258
 20
14.29999986828841
 30
0.0
 11
132.484424323118
 21
16.6833647487964
 31
0.0
  0
LINE
  5
1F9B
330
1F70
100
AcDbEntity
  8
0
 62
     0
100
AcDbLine
 10
115.6844243231181
 20
31.68731352458247
 30
0.0
 11
110.0844243231182
 21
37.28731352458249
 31
0.0
  0
LINE
  5
1F9C
330
1F70
100
AcDbEntity
  8
0
 62
     0
100
AcDbLine
 10
104.8344243231181
 20
42.53731352458248
 30
0.0
 11
100.8717379794118
 21
46.4999998682889
 31
0.0
  0
LINE
  5
1F9D
330
1F70
100
AcDbEntity
  8
0
 62
     0
100
AcDbLine
 10
128.2325077218271
 20
19.13923012587361
 30
0.0
 11
122.684424323118
 21
24.68731352458258
 31
0.0
  0
LINE
  5
1F9E
330
1F70
100
AcDbEntity
  8
0
 62
     0
100
AcDbLine
 10
115.6844243231182
 20
29.89126230036845
 30
0.0
 11
110.0844243231182
 21
35.49126230036859
 31
0.0
  0
LINE
  5
1F9F
330
1F70
100
AcDbEntity
  8
0
 62
     0
100
AcDbLine
 10
104.4432632308904
 20
41.13242339259636
 30
0.0
 11
99.07568675519815
 21
46.49999986828868
 31
0.0
  0
LINE
  5
1FA0
330
1F70
100
AcDbEntity
  8
0
 62
     0
100
AcDbLine
 10
127.8465371313126
 20
17.72914949217408
 30
0.0
 11
122.684424323118
 21
22.89126230036879
 31
0.0
  0
LINE
  5
1FA1
330
1F70
100
AcDbEntity
  8
0
 62
     0
100
AcDbLine
 10
115.6844243231182
 20
28.09521107615467
 30
0.0
 11
110.0844243231181
 21
33.69521107615481
 31
0.0
  0
LINE
  5
1FA2
330
1F70
100
AcDbEntity
  8
0
 62
     0
100
AcDbLine
 10
102.8796355309841
 20
40.89999986828866
 30
0.0
 11
97.27963553098414
 21
46.4999998682888
 31
0.0
  0
LINE
  5
1FA3
330
1F70
100
AcDbEntity
  8
0
 62
     0
100
AcDbLine
 10
127.1964733794655
 20
16.58316201980733
 30
0.0
 11
122.541392844799
 21
21.23824255447392
 31
0.0
  0
LINE
  5
1FA4
330
1F70
100
AcDbEntity
  8
0
 62
     0
100
AcDbLine
 10
115.6844243231184
 20
26.29915985194088
 30
0.0
 11
110.0844243231182
 21
31.89915985194102
 31
0.0
  0
LINE
  5
1FA5
330
1F70
100
AcDbEntity
  8
0
 62
     0
100
AcDbLine
 10
101.0835843067705
 20
40.89999986828877
 30
0.0
 11
95.60845084841572
 21
46.37513332664354
 31
0.0
  0
LINE
  5
1FA6
330
1F70
100
AcDbEntity
  8
0
 62
     0
100
AcDbLine
 10
126.3323897848154
 20
15.65119439024374
 30
0.0
 11
121.738221567864
 21
20.24536260719515
 31
0.0
  0
LINE
  5
1FA7
330
1F70
100
AcDbEntity
  8
0
 62
     0
100
AcDbLine
 10
115.6844243231182
 20
24.5031086277271
 30
0.0
 11
110.0844243231181
 21
30.10310862772712
 31
0.0
  0
LINE
  5
1FA8
330
1F70
100
AcDbEntity
  8
0
 62
     0
100
AcDbLine
 10
99.28753308255659
 20
40.89999986828877
 30
0.0
 11
94.27916999934893
 21
45.90836295149631
 31
0.0
  0
LINE
  5
1FA9
330
1F70
100
AcDbEntity
  8
0
 62
     0
100
AcDbLine
 10
125.2600650949633
 20
14.92746785588201
 30
0.0
 11
120.2875330825566
 21
19.89999986828866
 31
0.0
  0
LINE
  5
1FAA
330
1F70
100
AcDbEntity
  8
0
 62
     0
100
AcDbLine
 10
115.6844243231182
 20
22.70705740351321
 30
0.0
 11
110.0844243231182
 21
28.30705740351311
 31
0.0
  0
LINE
  5
1FAB
330
1F70
100
AcDbEntity
  8
0
 62
     0
100
AcDbLine
 10
97.53506151437898
 20
40.85642021225237
 30
0.0
 11
93.19396812492858
 21
45.19751360170277
 31
0.0
  0
LINE
  5
1FAC
330
1F70
100
AcDbEntity
  8
0
 62
     0
100
AcDbLine
 10
123.9472399751407
 20
14.44424175149072
 30
0.0
 11
118.4914818583428
 21
19.89999986828866
 31
0.0
  0
LINE
  5
1FAD
330
1F70
100
AcDbEntity
  8
0
 62
     0
100
AcDbLine
 10
96.78442432311829
 20
39.81100617929917
 30
0.0
 11
92.31774400683946
 21
44.27768649557799
 31
0.0
  0
LINE
  5
1FAE
330
1F70
100
AcDbEntity
  8
0
 62
     0
100
AcDbLine
 10
122.295430634129
 20
14.29999986828852
 30
0.0
 11
110.0844243231182
 21
26.51100617929933
 31
0.0
  0
LINE
  5
1FAF
330
1F70
100
AcDbEntity
  8
0
 62
     0
100
AcDbLine
 10
96.7844243231184
 20
38.0149549550855
 30
0.0
 11
91.65420218213341
 21
43.14517709607048
 31
0.0
  0
LINE
  5
1FB0
330
1F70
100
AcDbEntity
  8
0
 62
     0
100
AcDbLine
 10
120.4993794099152
 20
14.29999986828852
 30
0.0
 11
110.0844243231183
 21
24.71495495508555
 31
0.0
  0
LINE
  5
1FB1
330
1F70
100
AcDbEntity
  8
0
 62
     0
100
AcDbLine
 10
97.19751288532586
 20
35.80581516866414
 30
0.0
 11
91.24984514340519
 21
41.75348291058469
 31
0.0
  0
LINE
  5
1FB2
330
1F70
100
AcDbEntity
  8
0
 62
     0
100
AcDbLine
 10
118.7033281857012
 20
14.29999986828863
 30
0.0
 11
110.0844243231182
 21
22.91890373087176
 31
0.0
  0
LINE
  5
1FB3
330
1F70
100
AcDbEntity
  8
0
 62
     0
100
AcDbLine
 10
105.6316317285009
 20
25.5756451012752
 30
0.0
 11
91.18442432311814
 21
40.02285250665784
 31
0.0
  0
LINE
  5
1FB4
330
1F70
100
AcDbEntity
  8
0
 62
     0
100
AcDbLine
 10
86.98442432311798
 20
44.222852506658
 30
0.0
 11
84.70727696148742
 21
46.49999986828868
 31
0.0
  0
LINE
  5
1FB5
330
1F70
100
AcDbEntity
  8
0
 62
     0
100
AcDbLine
 10
116.9072769614874
 20
14.29999986828863
 30
0.0
 11
110.0844243231182
 21
21.12285250665786
 31
0.0
  0
LINE
  5
1FB6
330
1F70
100
AcDbEntity
  8
0
 62
     0
100
AcDbLine
 10
105.8844243231183
 20
23.52680128244413
 30
0.0
 11
91.18442432311827
 21
38.22680128244417
 31
0.0
  0
LINE
  5
1FB7
330
1F70
100
AcDbEntity
  8
0
 62
     0
100
AcDbLine
 10
86.98442432311821
 20
42.4268012824441
 30
0.0
 11
82.91122573727353
 21
46.4999998682889
 31
0.0
  0
LINE
  5
1FB8
330
1F70
100
AcDbEntity
  8
0
 62
     0
100
AcDbLine
 10
115.078329979784
 20
14.3328956257784
 30
0.0
 11
110.117320080608
 21
19.29390552495442
 31
0.0
  0
LINE
  5
1FB9
330
1F70
100
AcDbEntity
  8
0
 62
     0
100
AcDbLine
 10
86.98442432311821
 20
40.63075005823032
 30
0.0
 11
81.56964454756758
 21
46.04552983378084
 31
0.0
  0
LINE
  5
1FBA
330
1F70
100
AcDbEntity
  8
0
 62
     0
100
AcDbLine
 10
105.8844243231182
 20
21.73075005823023
 30
0.0
 11
91.23124565888293
 21
36.38392872246561
 31
0.0
  0
LINE
  5
1FBB
330
1F70
100
AcDbEntity
  8
0
 62
     0
100
AcDbLine
 10
86.98442432311821
 20
38.83469883401642
 30
0.0
 11
81.38442432311819
 21
44.43469883401633
 31
0.0
  0
LINE
  5
1FBC
330
1F70
100
AcDbEntity
  8
0
 62
     0
100
AcDbLine
 10
105.8844243231179
 20
19.93469883401656
 30
0.0
 11
91.86748449456297
 21
33.95163866257167
 31
0.0
  0
LINE
  5
1FBD
330
1F70
100
AcDbEntity
  8
0
 62
     0
100
AcDbLine
 10
86.98442432311821
 20
37.03864760980264
 30
0.0
 11
81.38442432311832
 21
42.63864760980254
 31
0.0
  0
LINE
  5
1FBE
330
1F70
100
AcDbEntity
  8
0
 62
     0
100
AcDbLine
 10
105.66730068794
 20
18.35577124498081
 30
0.0
 11
100.2760311098634
 21
23.74704082305743
 31
0.0
  0
LINE
  5
1FBF
330
1F70
100
AcDbEntity
  8
0
 62
     0
100
AcDbLine
 10
86.98442432311821
 20
35.24259638558886
 30
0.0
 11
81.38442432311819
 21
40.84259638558876
 31
0.0
  0
LINE
  5
1FC0
330
1F70
100
AcDbEntity
  8
0
 62
     0
100
AcDbLine
 10
76.80145052196417
 20
45.42557018674279
 30
0.0
 11
75.72702084041816
 21
46.4999998682889
 31
0.0
  0
LINE
  5
1FC1
330
1F70
100
AcDbEntity
  8
0
 62
     0
100
AcDbLine
 10
105.1315492724169
 20
17.09547143629015
 30
0.0
 11
100.2844243231183
 21
21.94259638558879
 31
0.0
  0
LINE
  5
1FC2
330
1F70
100
AcDbEntity
  8
0
 62
     0
100
AcDbLine
 10
86.98442432311811
 20
33.44654516137496
 30
0.0
 11
81.38442432311819
 21
39.04654516137498
 31
0.0
  0
LINE
  5
1FC3
330
1F70
100
AcDbEntity
  8
0
 62
     0
100
AcDbLine
 10
76.40359519345896
 20
44.0273742910341
 30
0.0
 11
73.93096961620438
 21
46.4999998682888
 31
0.0
  0
LINE
  5
1FC4
330
1F70
100
AcDbEntity
  8
0
 62
     0
100
AcDbLine
 10
104.3655756760663
 20
16.06539380842685
 30
0.0
 11
100.0898539573453
 21
20.34111552714785
 31
0.0
  0
LINE
  5
1FC5
330
1F70
100
AcDbEntity
  8
0
 62
     0
100
AcDbLine
 10
86.98442432311811
 20
31.65049393716117
 30
0.0
 11
81.38442432311819
 21
37.25049393716108
 31
0.0
  0
LINE
  5
1FC6
330
1F70
100
AcDbEntity
  8
0
 62
     0
100
AcDbLine
 10
75.97254289964758
 20
42.66237536063158
 30
0.0
 11
72.15411177270642
 21
46.48080648757286
 31
0.0
  0
LINE
  5
1FC7
330
1F70
100
AcDbEntity
  8
0
 62
     0
100
AcDbLine
 10
103.392937745835
 20
15.24198051444409
 30
0.0
 11
98.73491839199061
 21
19.89999986828866
 31
0.0
  0
LINE
  5
1FC8
330
1F70
100
AcDbEntity
  8
0
 62
     0
100
AcDbLine
 10
86.98442432311834
 20
29.85444271294728
 30
0.0
 11
81.38442432311819
 21
35.4544427129473
 31
0.0
  0
LINE
  5
1FC9
330
1F70
100
AcDbEntity
  8
0
 62
     0
100
AcDbLine
 10
75.54149060583654
 20
41.29737643022906
 30
0.0
 11
71.28549060583646
 21
45.55337643022915
 31
0.0
  0
LINE
  5
1FCA
330
1F70
100
AcDbEntity
  8
0
 62
     0
100
AcDbLine
 10
102.2007698489143
 20
14.63809718715117
 30
0.0
 11
96.93886716777683
 21
19.89999986828877
 31
0.0
  0
LINE
  5
1FCB
330
1F70
100
AcDbEntity
  8
0
 62
     0
100
AcDbLine
 10
86.98442432311834
 20
28.05839148873338
 30
0.0
 11
81.38442432311819
 21
33.65839148873352
 31
0.0
  0
LINE
  5
1FCC
330
1F70
100
AcDbEntity
  8
0
 62
     0
100
AcDbLine
 10
75.11043831202482
 20
39.93237749982688
 30
0.0
 11
70.85443831202486
 21
44.18837749982685
 31
0.0
  0
LINE
  5
1FCD
330
1F70
100
AcDbEntity
  8
0
 62
     0
100
AcDbLine
 10
100.7254245456193
 20
14.31739126623233
 30
0.0
 11
95.14281594356305
 21
19.89999986828866
 31
0.0
  0
LINE
  5
1FCE
330
1F70
100
AcDbEntity
  8
0
 62
     0
100
AcDbLine
 10
86.98442432311821
 20
26.26234026451959
 30
0.0
 11
81.38442432311808
 21
31.86234026451962
 31
0.0
  0
LINE
  5
1FCF
330
1F70
100
AcDbEntity
  8
0
 62
     0
100
AcDbLine
 10
74.67938601821368
 20
38.56737856942414
 30
0.0
 11
70.42338601821348
 21
42.82337856942421
 31
0.0
  0
LINE
  5
1FD0
330
1F70
100
AcDbEntity
  8
0
 62
     0
100
AcDbLine
 10
98.94676471934928
 20
14.29999986828852
 30
0.0
 11
93.34676471934916
 21
19.89999986828866
 31
0.0
  0
LINE
  5
1FD1
330
1F70
100
AcDbEntity
  8
0
 62
     0
100
AcDbLine
 10
86.98442432311834
 20
24.46628904030581
 30
0.0
 11
81.38442432311819
 21
30.06628904030595
 31
0.0
  0
LINE
  5
1FD2
330
1F70
100
AcDbEntity
  8
0
 62
     0
100
AcDbLine
 10
74.24833372440253
 20
37.20237963902162
 30
0.0
 11
69.99233372440222
 21
41.45837963902181
 31
0.0
  0
LINE
  5
1FD3
330
1F70
100
AcDbEntity
  8
0
 62
     0
100
AcDbLine
 10
97.1507134951355
 20
14.29999986828863
 30
0.0
 11
92.28349010054273
 21
19.16722326288141
 31
0.0
  0
LINE
  5
1FD4
330
1F70
100
AcDbEntity
  8
0
 62
     0
100
AcDbLine
 10
73.81728143059103
 20
35.83738070861921
 30
0.0
 11
69.56128143059095
 21
40.09338070861929
 31
0.0
  0
LINE
  5
1FD5
330
1F70
100
AcDbEntity
  8
0
 62
     0
100
AcDbLine
 10
86.98442432311821
 20
22.67023781609191
 30
0.0
 11
81.38442432311819
 21
28.27023781609205
 31
0.0
  0
LINE
  5
1FD6
330
1F70
100
AcDbEntity
  8
0
 62
     0
100
AcDbLine
 10
65.28442432311817
 20
44.37023781609207
 30
0.0
 11
63.15466227092156
 21
46.49999986828857
 31
0.0
  0
LINE
  5
1FD7
330
1F70
100
AcDbEntity
  8
0
 62
     0
100
AcDbLine
 10
95.35466227092172
 20
14.29999986828852
 30
0.0
 11
92.23442432311822
 21
17.42023781609202
 31
0.0
  0
LINE
  5
1FD8
330
1F70
100
AcDbEntity
  8
0
 62
     0
100
AcDbLine
 10
73.38622913677966
 20
34.47238177821669
 30
0.0
 11
69.13022913677969
 21
38.72838177821666
 31
0.0
  0
LINE
  5
1FD9
330
1F70
100
AcDbEntity
  8
0
 62
     0
100
AcDbLine
 10
86.98442432311821
 20
20.87418659187813
 30
0.0
 11
81.38442432311808
 21
26.47418659187827
 31
0.0
  0
LINE
  5
1FDA
330
1F70
100
AcDbEntity
  8
0
 62
     0
100
AcDbLine
 10
65.28442432311817
 20
42.57418659187817
 30
0.0
 11
61.35861104670778
 21
46.49999986828857
 31
0.0
  0
LINE
  5
1FDB
330
1F70
100
AcDbEntity
  8
0
 62
     0
100
AcDbLine
 10
93.5586110467077
 20
14.29999986828863
 30
0.0
 11
92.23442432311811
 21
15.62418659187813
 31
0.0
  0
LINE
  5
1FDC
330
1F70
100
AcDbEntity
  8
0
 62
     0
100
AcDbLine
 10
72.95517684296829
 20
33.10738284781417
 30
0.0
 11
68.6991768429682
 21
37.36338284781425
 31
0.0
  0
LINE
  5
1FDD
330
1F70
100
AcDbEntity
  8
0
 62
     0
100
AcDbLine
 10
65.28442432311805
 20
40.77813536766427
 30
0.0
 11
59.93353446532285
 21
46.1290252254596
 31
0.0
  0
LINE
  5
1FDE
330
1F70
100
AcDbEntity
  8
0
 62
     0
100
AcDbLine
 10
86.98442432311821
 20
19.07813536766423
 30
0.0
 11
81.38442432311808
 21
24.67813536766437
 31
0.0
  0
LINE
  5
1FDF
330
1F70
100
AcDbEntity
  8
0
 62
     0
100
AcDbLine
 10
72.52412454915702
 20
31.74238391741176
 30
0.0
 11
68.26812454915705
 21
35.99838391741173
 31
0.0
  0
LINE
  5
1FE0
330
1F70
100
AcDbEntity
  8
0
 62
     0
100
AcDbLine
 10
65.28442432311817
 20
38.98208414345061
 30
0.0
 11
59.68442432311826
 21
44.58208414345051
 31
0.0
  0
LINE
  5
1FE1
330
1F70
100
AcDbEntity
  8
0
 62
     0
100
AcDbLine
 10
86.98442432311821
 20
17.28208414345056
 30
0.0
 11
81.38442432311808
 21
22.88208414345058
 31
0.0
  0
LINE
  5
1FE2
330
1F70
100
AcDbEntity
  8
0
 62
     0
100
AcDbLine
 10
72.11394753037325
 20
30.35650971198163
 30
0.0
 11
67.83707225534556
 21
34.63338498700932
 31
0.0
  0
LINE
  5
1FE3
330
1F70
100
AcDbEntity
  8
0
 62
     0
100
AcDbLine
 10
65.28442432311817
 20
37.18603291923671
 30
0.0
 11
59.68442432311815
 21
42.78603291923661
 31
0.0
  0
LINE
  5
1FE4
330
1F70
100
AcDbEntity
  8
0
 62
     0
100
AcDbLine
 10
86.98442432311834
 20
15.48603291923655
 30
0.0
 11
81.38442432311808
 21
21.0860329192368
 31
0.0
  0
LINE
  5
1FE5
330
1F70
100
AcDbEntity
  8
0
 62
     0
100
AcDbLine
 10
72.94289424924125
 20
27.73151176889974
 30
0.0
 11
67.25597726397632
 21
33.41842875416467
 31
0.0
  0
LINE
  5
1FE6
330
1F70
100
AcDbEntity
  8
0
 62
     0
100
AcDbLine
 10
65.28442432311829
 20
35.3899816950227
 30
0.0
 11
59.68442432311815
 21
40.98998169502283
 31
0.0
  0
LINE
  5
1FE7
330
1F70
100
AcDbEntity
  8
0
 62
     0
100
AcDbLine
 10
86.30633432845332
 20
14.36807168968755
 30
0.0
 11
81.38442432311819
 21
19.28998169502279
 31
0.0
  0
LINE
  5
1FE8
330
1F70
100
AcDbEntity
  8
0
 62
     0
100
AcDbLine
 10
73.77184096810935
 20
25.10651382581796
 30
0.0
 11
59.68442432311815
 21
39.19393047080905
 31
0.0
  0
LINE
  5
1FE9
330
1F70
100
AcDbEntity
  8
0
 62
     0
100
AcDbLine
 10
54.78442432311829
 20
44.09393047080903
 30
0.0
 11
52.37835492563852
 21
46.49999986828868
 31
0.0
  0
LINE
  5
1FEA
330
1F70
100
AcDbEntity
  8
0
 62
     0
100
AcDbLine
 10
84.57835492563868
 20
14.29999986828863
 30
0.0
 11
81.38442432311832
 21
17.493930470809
 31
0.0
  0
LINE
  5
1FEB
330
1F70
100
AcDbEntity
  8
0
 62
     0
100
AcDbLine
 10
74.60078768697712
 20
22.48151588273618
 30
0.0
 11
59.68442432311815
 21
37.39787924659527
 31
0.0
  0
LINE
  5
1FEC
330
1F70
100
AcDbEntity
  8
0
 62
     0
100
AcDbLine
 10
54.78442432311829
 20
42.29787924659513
 30
0.0
 11
50.58230370142474
 21
46.49999986828868
 31
0.0
  0
LINE
  5
1FED
330
1F70
100
AcDbEntity
  8
0
 62
     0
100
AcDbLine
 10
82.78230370142466
 20
14.29999986828875
 30
0.0
 11
81.38442432311819
 21
15.69787924659522
 31
0.0
  0
LINE
  5
1FEE
330
1F70
100
AcDbEntity
  8
0
 62
     0
100
AcDbLine
 10
54.25061093233807
 20
41.03564141316144
 30
0.0
 11
48.85016749591523
 21
46.43608484958417
 31
0.0
  0
LINE
  5
1FEF
330
1F70
100
AcDbEntity
  8
0
 62
     0
100
AcDbLine
 10
75.42973440584501
 20
19.85651793965451
 30
0.0
 11
59.68442432311815
 21
35.60182802238137
 31
0.0
  0
LINE
  5
1FF0
330
1F70
100
AcDbEntity
  8
0
 62
     0
100
AcDbLine
 10
65.95944216780139
 20
27.53075895348434
 30
0.0
 11
59.68442432311838
 21
33.80577679816736
 31
0.0
  0
LINE
  5
1FF1
330
1F70
100
AcDbEntity
  8
0
 62
     0
100
AcDbLine
 10
52.59020125299707
 20
40.89999986828866
 30
0.0
 11
47.3740813567407
 21
46.11611976454503
 31
0.0
  0
LINE
  5
1FF2
330
1F70
100
AcDbEntity
  8
0
 62
     0
100
AcDbLine
 10
76.25868112471301
 20
17.23151999657273
 30
0.0
 11
68.07406574009724
 21
25.41613538118838
 31
0.0
  0
LINE
  5
1FF3
330
1F70
100
AcDbEntity
  8
0
 62
     0
100
AcDbLine
 10
65.28442432311829
 20
26.40972557395367
 30
0.0
 11
59.68442432311826
 21
32.00972557395369
 31
0.0
  0
LINE
  5
1FF4
330
1F70
100
AcDbEntity
  8
0
 62
     0
100
AcDbLine
 10
50.79415002878318
 20
40.89999986828866
 30
0.0
 11
46.09663852507924
 21
45.59751137199259
 31
0.0
  0
LINE
  5
1FF5
330
1F70
100
AcDbEntity
  8
0
 62
     0
100
AcDbLine
 10
76.72875884013421
 20
14.96539105693762
 30
0.0
 11
68.90301245896512
 21
22.79113743810683
 31
0.0
  0
LINE
  5
1FF6
330
1F70
100
AcDbEntity
  8
0
 62
     0
100
AcDbLine
 10
65.28442432311817
 20
24.61367434973988
 30
0.0
 11
59.68442432311826
 21
30.21367434973979
 31
0.0
  0
LINE
  5
1FF7
330
1F70
100
AcDbEntity
  8
0
 62
     0
100
AcDbLine
 10
49.10792302369611
 20
40.79017564916194
 30
0.0
 11
44.97914057441017
 21
44.91895809844788
 31
0.0
  0
LINE
  5
1FF8
330
1F70
100
AcDbEntity
  8
0
 62
     0
100
AcDbLine
 10
75.59809880456953
 20
14.29999986828852
 30
0.0
 11
69.731959177833
 21
20.16613949502505
 31
0.0
  0
LINE
  5
1FF9
330
1F70
100
AcDbEntity
  8
0
 62
     0
100
AcDbLine
 10
65.28442432311817
 20
22.81762312552598
 30
0.0
 11
59.68442432311815
 21
28.41762312552589
 31
0.0
  0
LINE
  5
1FFA
330
1F70
100
AcDbEntity
  8
0
 62
     0
100
AcDbLine
 10
47.96421063801813
 20
40.13783681062602
 30
0.0
 11
44.00383015718659
 21
44.09821729145756
 31
0.0
  0
LINE
  5
1FFB
330
1F70
100
AcDbEntity
  8
0
 62
     0
100
AcDbLine
 10
73.80204758035564
 20
14.29999986828852
 30
0.0
 11
70.56090589670112
 21
17.54114155194304
 31
0.0
  0
LINE
  5
1FFC
330
1F70
100
AcDbEntity
  8
0
 62
     0
100
AcDbLine
 10
55.45528258871366
 20
30.85071363571683
 30
0.0
 11
52.43513809054616
 21
33.87085813388433
 31
0.0
  0
LINE
  5
1FFD
330
1F70
100
AcDbEntity
  8
0
 62
     0
100
AcDbLine
 10
65.2844243231184
 20
21.02157190131209
 30
0.0
 11
59.68442432311826
 21
26.62157190131222
 31
0.0
  0
LINE
  5
1FFE
330
1F70
100
AcDbEntity
  8
0
 62
     0
100
AcDbLine
 10
47.25196749776023
 20
39.05402872667025
 30
0.0
 11
43.16509810516413
 21
43.14089811926635
 31
0.0
  0
LINE
  5
1FFF
330
1F70
100
AcDbEntity
  8
0
 62
     0
100
AcDbLine
 10
71.90533034773261
 20
14.40066587669787
 30
0.0
 11
71.40462200454999
 21
14.90137421988049
 31
0.0
  0
LINE
  5
2000
330
1F70
100
AcDbEntity
  8
0
 62
     0
100
AcDbLine
 10
55.28225526842982
 20
29.22768973178677
 30
0.0
 11
50.81211418661609
 21
33.69783081360049
 31
0.0
  0
LINE
  5
2001
330
1F70
100
AcDbEntity
  8
0
 62
     0
100
AcDbLine
 10
47.08442432311835
 20
37.42552067709823
 30
0.0
 11
42.4672200632408
 21
42.04272493697579
 31
0.0
  0
LINE
  5
2002
330
1F70
100
AcDbEntity
  8
0
 62
     0
100
AcDbLine
 10
65.28442432311829
 20
19.22552067709819
 30
0.0
 11
59.68442432311826
 21
24.82552067709832
 31
0.0
  0
LINE
  5
2003
330
1F70
100
AcDbEntity
  8
0
 62
     0
100
AcDbLine
 10
54.61854414983372
 20
28.09534962616885
 30
0.0
 11
49.67977408099819
 21
33.0341196950044
 31
0.0
  0
LINE
  5
2004
330
1F70
100
AcDbEntity
  8
0
 62
     0
100
AcDbLine
 10
47.08442432311835
 20
35.62946945288434
 30
0.0
 11
41.92606064882045
 21
40.78783312718224
 31
0.0
  0
LINE
  5
2005
330
1F70
100
AcDbEntity
  8
0
 62
     0
100
AcDbLine
 10
65.28442432311829
 20
17.4294694528844
 30
0.0
 11
59.68442432311815
 21
23.02946945288454
 31
0.0
  0
LINE
  5
2006
330
1F70
100
AcDbEntity
  8
0
 62
     0
100
AcDbLine
 10
47.08442432311835
 20
33.83341822867055
 30
0.0
 11
41.57663290296875
 21
39.34120964882027
 31
0.0
  0
LINE
  5
2007
330
1F70
100
AcDbEntity
  8
0
 62
     0
100
AcDbLine
 10
53.61487726556084
 20
27.30296528622819
 30
0.0
 11
48.88738974105752
 21
32.0304528107315
 31
0.0
  0
LINE
  5
2008
330
1F70
100
AcDbEntity
  8
0
 62
     0
100
AcDbLine
 10
36.23442432311822
 20
44.6834182286708
 30
0.0
 11
34.41784268350023
 21
46.4999998682888
 31
0.0
  0
LINE
  5
2009
330
1F70
100
AcDbEntity
  8
0
 62
     0
100
AcDbLine
 10
65.2844243231184
 20
15.63341822867062
 30
0.0
 11
59.68442432311826
 21
21.23341822867076
 31
0.0
  0
LINE
  5
200A
330
1F70
100
AcDbEntity
  8
0
 62
     0
100
AcDbLine
 10
47.08442432311835
 20
32.03736700445677
 30
0.0
 11
41.48442432311822
 21
37.6373670044569
 31
0.0
  0
LINE
  5
200B
330
1F70
100
AcDbEntity
  8
0
 62
     0
100
AcDbLine
 10
52.21423838070598
 20
26.90755294686915
 30
0.0
 11
48.49197740169848
 21
30.62981392587665
 31
0.0
  0
LINE
  5
200C
330
1F70
100
AcDbEntity
  8
0
 62
     0
100
AcDbLine
 10
36.23442432311811
 20
42.8873670044569
 30
0.0
 11
32.62179145928633
 21
46.49999986828868
 31
0.0
  0
LINE
  5
200D
330
1F70
100
AcDbEntity
  8
0
 62
     0
100
AcDbLine
 10
64.70861672057697
 20
14.41317460699815
 30
0.0
 11
59.68442432311815
 21
19.43736700445686
 31
0.0
  0
LINE
  5
200E
330
1F70
100
AcDbEntity
  8
0
 62
     0
100
AcDbLine
 10
47.08442432311835
 20
30.24131578024287
 30
0.0
 11
41.48442432311822
 21
35.84131578024301
 31
0.0
  0
LINE
  5
200F
330
1F70
100
AcDbEntity
  8
0
 62
     0
100
AcDbLine
 10
36.01635638257744
 20
41.30938372078378
 30
0.0
 11
30.82574023507232
 21
46.4999998682888
 31
0.0
  0
LINE
  5
2010
330
1F70
100
AcDbEntity
  8
0
 62
     0
100
AcDbLine
 10
63.02574023507259
 20
14.29999986828863
 30
0.0
 11
59.68442432311815
 21
17.64131578024307
 31
0.0
  0
LINE
  5
2011
330
1F70
100
AcDbEntity
  8
0
 62
     0
100
AcDbLine
 10
47.08442432311824
 20
28.44526455602909
 30
0.0
 11
41.4844243231181
 21
34.04526455602911
 31
0.0
  0
LINE
  5
2012
330
1F70
100
AcDbEntity
  8
0
 62
     0
100
AcDbLine
 10
34.62968901085867
 20
40.89999986828866
 30
0.0
 11
29.02968901085854
 21
46.4999998682888
 31
0.0
  0
LINE
  5
2013
330
1F70
100
AcDbEntity
  8
0
 62
     0
100
AcDbLine
 10
61.22968901085869
 20
14.29999986828852
 30
0.0
 11
59.68442432311815
 21
15.84526455602918
 31
0.0
  0
LINE
  5
2014
330
1F70
100
AcDbEntity
  8
0
 62
     0
100
AcDbLine
 10
47.08442432311847
 20
26.64921333181519
 30
0.0
 11
41.48442432311822
 21
32.24921333181544
 31
0.0
  0
LINE
  5
2015
330
1F70
100
AcDbEntity
  8
0
 62
     0
100
AcDbLine
 10
32.83363778664489
 20
40.89999986828877
 30
0.0
 11
27.3033792424352
 21
46.43025841249846
 31
0.0
  0
LINE
  5
2016
330
1F70
100
AcDbEntity
  8
0
 62
     0
100
AcDbLine
 10
54.77921942544435
 20
18.95441822948919
 30
0.0
 11
53.83884268431893
 21
19.89479497061472
 31
0.0
  0
LINE
  5
2017
330
1F70
100
AcDbEntity
  8
0
 62
     0
100
AcDbLine
 10
47.08442432311847
 20
24.85316210760129
 30
0.0
 11
41.48442432311822
 21
30.45316210760154
 31
0.0
  0
LINE
  5
2018
330
1F70
100
AcDbEntity
  8
0
 62
     0
100
AcDbLine
 10
31.03758656243099
 20
40.89999986828866
 30
0.0
 11
25.91710962547825
 21
46.02047680524151
 31
0.0
  0
LINE
  5
2019
330
1F70
100
AcDbEntity
  8
0
 62
     0
100
AcDbLine
 10
54.7844243231184
 20
17.15316210760136
 30
0.0
 11
52.0375865624311
 21
19.89999986828866
 31
0.0
  0
LINE
  5
201A
330
1F70
100
AcDbEntity
  8
0
 62
     0
100
AcDbLine
 10
47.08442432311835
 20
23.05711088338739
 30
0.0
 11
41.48442432311833
 21
28.65711088338753
 31
0.0
  0
LINE
  5
201B
330
1F70
100
AcDbEntity
  8
0
 62
     0
100
AcDbLine
 10
29.24153533821732
 20
40.89999986828843
 30
0.0
 11
24.78861630578376
 21
45.35291890072199
 31
0.0
  0
LINE
  5
201C
330
1F70
100
AcDbEntity
  8
0
 62
     0
100
AcDbLine
 10
54.78442432311829
 20
15.35711088338746
 30
0.0
 11
50.24153533821709
 21
19.89999986828877
 31
0.0
  0
LINE
  5
201D
330
1F70
100
AcDbEntity
  8
0
 62
     0
100
AcDbLine
 10
28.22094968298813
 20
40.12453429930405
 30
0.0
 11
23.87243068130226
 21
44.47305330098993
 31
0.0
  0
LINE
  5
201E
330
1F70
100
AcDbEntity
  8
0
 62
     0
100
AcDbLine
 10
54.00895875413358
 20
14.33652522815862
 30
0.0
 11
41.48442432311833
 21
26.86105965917386
 31
0.0
  0
LINE
  5
201F
330
1F70
100
AcDbEntity
  8
0
 62
     0
100
AcDbLine
 10
28.18442432311826
 20
38.36500843496003
 30
0.0
 11
23.16546827636409
 21
43.3839644817142
 31
0.0
  0
LINE
  5
2020
330
1F70
100
AcDbEntity
  8
0
 62
     0
100
AcDbLine
 10
52.24943288978977
 20
14.29999986828852
 30
0.0
 11
41.48442432311833
 21
25.06500843495996
 31
0.0
  0
LINE
  5
2021
330
1F70
100
AcDbEntity
  8
0
 62
     0
100
AcDbLine
 10
28.30869573938912
 20
36.44468579447516
 30
0.0
 11
22.70370807177664
 21
42.04967346208775
 31
0.0
  0
LINE
  5
2022
330
1F70
100
AcDbEntity
  8
0
 62
     0
100
AcDbLine
 10
50.45338166557576
 20
14.29999986828863
 30
0.0
 11
41.48442432311822
 21
23.26895721074607
 31
0.0
  0
LINE
  5
2023
330
1F70
100
AcDbEntity
  8
0
 62
     0
100
AcDbLine
 10
36.89317650556359
 20
26.06415380408703
 30
0.0
 11
22.58442432311836
 21
40.37290598653226
 31
0.0
  0
LINE
  5
2024
330
1F70
100
AcDbEntity
  8
0
 62
     0
100
AcDbLine
 10
48.55078626724867
 20
14.40654404240194
 30
0.0
 11
41.59096849723153
 21
21.36636181241909
 31
0.0
  0
LINE
  5
2025
330
1F70
100
AcDbEntity
  8
0
 62
     0
100
AcDbLine
 10
37.27696553373403
 20
23.8843135517028
 30
0.0
 11
22.58442432311813
 21
38.5768547623187
 31
0.0
  0
LINE
  5
2026
330
1F70
100
AcDbEntity
  8
0
 62
     0
100
AcDbLine
 10
45.80317044204548
 20
15.35810864339123
 30
0.0
 11
42.5425330982207
 21
18.61874598721613
 31
0.0
  0
LINE
  5
2027
330
1F70
100
AcDbEntity
  8
0
 62
     0
100
AcDbLine
 10
37.2844243231184
 20
22.08080353810453
 30
0.0
 11
22.59955321796292
 21
36.7656746432599
 31
0.0
  0
LINE
  5
2028
330
1F70
100
AcDbEntity
  8
0
 62
     0
100
AcDbLine
 10
37.28442432311818
 20
20.28475231389086
 30
0.0
 11
23.04613473461063
 21
34.52304190239829
 31
0.0
  0
LINE
  5
2029
330
1F70
100
AcDbEntity
  8
0
 62
     0
100
AcDbLine
 10
37.13938433085434
 20
18.63374108194102
 30
0.0
 11
31.61260104361622
 21
24.16052436917914
 31
0.0
  0
LINE
  5
202A
330
1F70
100
AcDbEntity
  8
0
 62
     0
100
AcDbLine
 10
36.65550845279665
 20
17.32156573578481
 30
0.0
 11
31.68442432311826
 21
22.2926498654632
 31
0.0
  0
LINE
  5
202B
330
1F70
100
AcDbEntity
  8
0
 62
     0
100
AcDbLine
 10
35.93126995803312
 20
16.24975300633446
 30
0.0
 11
31.6126262585168
 21
20.56839670585077
 31
0.0
  0
LINE
  5
202C
330
1F70
100
AcDbEntity
  8
0
 62
     0
100
AcDbLine
 10
34.99881721349936
 20
15.38615452665442
 30
0.0
 11
30.48497187186513
 21
19.89999986828877
 31
0.0
  0
LINE
  5
202D
330
1F70
100
AcDbEntity
  8
0
 62
     0
100
AcDbLine
 10
33.85228831803374
 20
14.73663219790626
 30
0.0
 11
28.68892064765123
 21
19.89999986828866
 31
0.0
  0
LINE
  5
202E
330
1F70
100
AcDbEntity
  8
0
 62
     0
100
AcDbLine
 10
32.44146313986187
 20
14.35140615186424
 30
0.0
 11
26.89286942343745
 21
19.89999986828866
 31
0.0
  0
LINE
  5
202F
330
1F70
100
AcDbEntity
  8
0
 62
     0
100
AcDbLine
 10
30.69681819922357
 20
14.29999986828863
 30
0.0
 11
25.09681819922355
 21
19.89999986828866
 31
0.0
  0
LINE
  5
2030
330
1F70
100
AcDbEntity
  8
0
 62
     0
100
AcDbLine
 10
28.9007669750099
 20
14.29999986828852
 30
0.0
 11
23.79411918537414
 21
19.40664765792439
 31
0.0
  0
LINE
  5
2031
330
1F70
100
AcDbEntity
  8
0
 62
     0
100
AcDbLine
 10
27.10471575079589
 20
14.29999986828863
 30
0.0
 11
23.63442432311831
 21
17.77029129596622
 31
0.0
  0
LINE
  5
2032
330
1F70
100
AcDbEntity
  8
0
 62
     0
100
AcDbLine
 10
25.30866452658222
 20
14.29999986828852
 30
0.0
 11
23.63442432311831
 21
15.97424007175243
 31
0.0
  0
LINE
  5
2033
330
1F70
100
AcDbEntity
  8
0
 62
     0
100
AcDbLine
 10
137.2677988924521
 20
14.32626342252365
 30
0.0
 11
138.0581607688837
 21
15.11662529895523
 31
0.0
  0
LINE
  5
2034
330
1F70
100
AcDbEntity
  8
0
 62
     0
100
AcDbLine
 10
135.4454841140032
 20
14.29999986828841
 30
0.0
 11
138.0844243231186
 21
16.9389400774038
 31
0.0
  0
LINE
  5
2035
330
1F70
100
AcDbEntity
  8
0
 62
     0
100
AcDbLine
 10
133.6494328897894
 20
14.29999986828841
 30
0.0
 11
138.0844243231186
 21
18.73499130161758
 31
0.0
  0
LINE
  5
2036
330
1F70
100
AcDbEntity
  8
0
 62
     0
100
AcDbLine
 10
132.5468194496219
 20
14.99343765233482
 30
0.0
 11
138.0844243231184
 21
20.53104252583148
 31
0.0
  0
LINE
  5
2037
330
1F70
100
AcDbEntity
  8
0
 62
     0
100
AcDbLine
 10
132.4844243231183
 20
16.72709375004513
 30
0.0
 11
138.0844243231184
 21
22.32709375004515
 31
0.0
  0
LINE
  5
2038
330
1F70
100
AcDbEntity
  8
0
 62
     0
100
AcDbLine
 10
132.4844243231184
 20
18.52314497425891
 30
0.0
 11
138.0844243231184
 21
24.12314497425905
 31
0.0
  0
LINE
  5
2039
330
1F70
100
AcDbEntity
  8
0
 62
     0
100
AcDbLine
 10
132.4844243231183
 20
20.31919619847281
 30
0.0
 11
138.0844243231184
 21
25.91919619847295
 31
0.0
  0
LINE
  5
203A
330
1F70
100
AcDbEntity
  8
0
 62
     0
100
AcDbLine
 10
132.4844243231183
 20
22.11524742268659
 30
0.0
 11
138.0844243231184
 21
27.71524742268673
 31
0.0
  0
LINE
  5
203B
330
1F70
100
AcDbEntity
  8
0
 62
     0
100
AcDbLine
 10
125.3375540472489
 20
14.96837714681715
 30
0.0
 11
127.61604704459
 21
17.24687014415838
 31
0.0
  0
LINE
  5
203C
330
1F70
100
AcDbEntity
  8
0
 62
     0
100
AcDbLine
 10
132.4844243231183
 20
23.91129864690038
 30
0.0
 11
138.0844243231184
 21
29.51129864690051
 31
0.0
  0
LINE
  5
203D
330
1F70
100
AcDbEntity
  8
0
 62
     0
100
AcDbLine
 10
122.8764177142033
 20
14.30329203798533
 30
0.0
 11
128.2811321534219
 21
19.70800647720387
 31
0.0
  0
LINE
  5
203E
330
1F70
100
AcDbEntity
  8
0
 62
     0
100
AcDbLine
 10
132.4844243231183
 20
25.70734987111428
 30
0.0
 11
138.0844243231184
 21
31.3073498711143
 31
0.0
  0
LINE
  5
203F
330
1F70
100
AcDbEntity
  8
0
 62
     0
100
AcDbLine
 10
121.0770743202924
 20
14.29999986828841
 30
0.0
 11
128.2844243231185
 21
21.50734987111434
 31
0.0
  0
LINE
  5
2040
330
1F70
100
AcDbEntity
  8
0
 62
     0
100
AcDbLine
 10
132.4844243231183
 20
27.50340109532806
 30
0.0
 11
138.0844243231183
 21
33.1034010953282
 31
0.0
  0
LINE
  5
2041
330
1F70
100
AcDbEntity
  8
0
 62
     0
100
AcDbLine
 10
119.2810230960787
 20
14.29999986828841
 30
0.0
 11
128.2844243231184
 21
23.30340109532824
 31
0.0
  0
LINE
  5
2042
330
1F70
100
AcDbEntity
  8
0
 62
     0
100
AcDbLine
 10
132.4844243231183
 20
29.29945231954184
 30
0.0
 11
138.0844243231184
 21
34.89945231954198
 31
0.0
  0
LINE
  5
2043
330
1F70
100
AcDbEntity
  8
0
 62
     0
100
AcDbLine
 10
117.484971871865
 20
14.29999986828852
 30
0.0
 11
128.2844243231185
 21
25.09945231954203
 31
0.0
  0
LINE
  5
2044
330
1F70
100
AcDbEntity
  8
0
 62
     0
100
AcDbLine
 10
122.4752419189562
 20
21.08632113959368
 30
0.0
 11
128.2844243231185
 21
26.89550354375581
 31
0.0
  0
LINE
  5
2045
330
1F70
100
AcDbEntity
  8
0
 62
     0
100
AcDbLine
 10
132.4844243231183
 20
31.09550354375563
 30
0.0
 11
138.0844243231184
 21
36.69550354375576
 31
0.0
  0
LINE
  5
2046
330
1F70
100
AcDbEntity
  8
0
 62
     0
100
AcDbLine
 10
115.688920647651
 20
14.29999986828841
 30
0.0
 11
121.4981030518132
 21
20.10918227245054
 31
0.0
  0
LINE
  5
2047
330
1F70
100
AcDbEntity
  8
0
 62
     0
100
AcDbLine
 10
122.6844243231182
 20
23.09155476796957
 30
0.0
 11
128.2844243231184
 21
28.69155476796971
 31
0.0
  0
LINE
  5
2048
330
1F70
100
AcDbEntity
  8
0
 62
     0
100
AcDbLine
 10
132.4844243231182
 20
32.89155476796953
 30
0.0
 11
138.0844243231183
 21
38.49155476796966
 31
0.0
  0
LINE
  5
2049
330
1F70
100
AcDbEntity
  8
0
 62
     0
100
AcDbLine
 10
114.1167689261916
 20
14.52389937104283
 30
0.0
 11
119.4928694234373
 21
19.89999986828854
 31
0.0
  0
LINE
  5
204A
330
1F70
100
AcDbEntity
  8
0
 62
     0
100
AcDbLine
 10
122.6844243231184
 20
24.88760599218358
 30
0.0
 11
128.2844243231184
 21
30.48760599218349
 31
0.0
  0
LINE
  5
204B
330
1F70
100
AcDbEntity
  8
0
 62
     0
100
AcDbLine
 10
132.4844243231182
 20
34.68760599218342
 30
0.0
 11
138.0844243231183
 21
40.28760599218344
 31
0.0
  0
LINE
  5
204C
330
1F70
100
AcDbEntity
  8
0
 62
     0
100
AcDbLine
 10
112.8607951917713
 20
15.06397686083653
 30
0.0
 11
117.6985737705122
 21
19.90175543957741
 31
0.0
  0
LINE
  5
204D
330
1F70
100
AcDbEntity
  8
0
 62
     0
100
AcDbLine
 10
122.6844243231185
 20
26.68365721639736
 30
0.0
 11
128.2844243231184
 21
32.28365721639728
 31
0.0
  0
LINE
  5
204E
330
1F70
100
AcDbEntity
  8
0
 62
     0
100
AcDbLine
 10
132.4844243231183
 20
36.48365721639709
 30
0.0
 11
138.0844243231183
 21
42.08365721639722
 31
0.0
  0
LINE
  5
204F
330
1F70
100
AcDbEntity
  8
0
 62
     0
100
AcDbLine
 10
111.8342754290412
 20
15.83350832231997
 30
0.0
 11
116.4116165930868
 21
20.41084948636569
 31
0.0
  0
LINE
  5
2050
330
1F70
100
AcDbEntity
  8
0
 62
     0
100
AcDbLine
 10
122.6844243231185
 20
28.47970844061115
 30
0.0
 11
128.2844243231184
 21
34.07970844061117
 31
0.0
  0
LINE
  5
2051
330
1F70
100
AcDbEntity
  8
0
 62
     0
100
AcDbLine
 10
132.4844243231182
 20
38.27970844061099
 30
0.0
 11
138.0844243231183
 21
43.87970844061112
 31
0.0
  0
LINE
  5
2052
330
1F70
100
AcDbEntity
  8
0
 62
     0
100
AcDbLine
 10
111.0143470785909
 20
16.80963119608361
 30
0.0
 11
115.737140036268
 21
21.53242415376076
 31
0.0
  0
LINE
  5
2053
330
1F70
100
AcDbEntity
  8
0
 62
     0
100
AcDbLine
 10
122.6844243231184
 20
30.27575966482505
 30
0.0
 11
128.2844243231185
 21
35.87575966482518
 31
0.0
  0
LINE
  5
2054
330
1F70
100
AcDbEntity
  8
0
 62
     0
100
AcDbLine
 10
132.4844243231182
 20
40.07575966482477
 30
0.0
 11
138.0641260160174
 21
45.6554613577241
 31
0.0
  0
LINE
  5
2055
330
1F70
100
AcDbEntity
  8
0
 62
     0
100
AcDbLine
 10
110.4144973217229
 20
18.0058326634296
 30
0.0
 11
115.6844243231184
 21
23.27575966482493
 31
0.0
  0
LINE
  5
2056
330
1F70
100
AcDbEntity
  8
0
 62
     0
100
AcDbLine
 10
122.6844243231185
 20
32.07181088903872
 30
0.0
 11
128.2844243231186
 21
37.67181088903885
 31
0.0
  0
LINE
  5
2057
330
1F70
100
AcDbEntity
  8
0
 62
     0
100
AcDbLine
 10
132.4844243231182
 20
41.87181088903855
 30
0.0
 11
137.1098973258584
 21
46.4972838917788
 31
0.0
  0
LINE
  5
2058
330
1F70
100
AcDbEntity
  8
0
 62
     0
100
AcDbLine
 10
110.09967025181
 20
19.48705681773038
 30
0.0
 11
115.6844243231184
 21
25.07181088903872
 31
0.0
  0
LINE
  5
2059
330
1F70
100
AcDbEntity
  8
0
 62
     0
100
AcDbLine
 10
122.6844243231184
 20
33.86786211325262
 30
0.0
 11
128.2844243231185
 21
39.46786211325275
 31
0.0
  0
LINE
  5
205A
330
1F70
100
AcDbEntity
  8
0
 62
     0
100
AcDbLine
 10
132.4844243231183
 20
43.66786211325257
 30
0.0
 11
135.3165620781543
 21
46.49999986828857
 31
0.0
  0
LINE
  5
205B
330
1F70
100
AcDbEntity
  8
0
 62
     0
100
AcDbLine
 10
110.0844243231184
 20
21.26786211325259
 30
0.0
 11
115.6844243231185
 21
26.86786211325273
 31
0.0
  0
LINE
  5
205C
330
1F70
100
AcDbEntity
  8
0
 62
     0
100
AcDbLine
 10
122.6844243231184
 20
35.66391333746651
 30
0.0
 11
128.2844243231185
 21
41.26391333746653
 31
0.0
  0
LINE
  5
205D
330
1F70
100
AcDbEntity
  8
0
 62
     0
100
AcDbLine
 10
110.0844243231183
 20
23.06391333746649
 30
0.0
 11
115.6844243231185
 21
28.66391333746662
 31
0.0
  0
LINE
  5
205E
330
1F70
100
AcDbEntity
  8
0
 62
     0
100
AcDbLine
 10
132.4845177526132
 20
45.46400676696134
 30
0.0
 11
133.5204174244458
 21
46.49990643879379
 31
0.0
  0
LINE
  5
205F
330
1F70
100
AcDbEntity
  8
0
 62
     0
100
AcDbLine
 10
101.4413130616943
 20
14.42080207604238
 30
0.0
 11
105.7636221153646
 21
18.74311112971281
 31
0.0
  0
LINE
  5
2060
330
1F70
100
AcDbEntity
  8
0
 62
     0
100
AcDbLine
 10
110.0844243231183
 20
24.85996456168027
 30
0.0
 11
115.6844243231185
 21
30.45996456168041
 31
0.0
  0
LINE
  5
2061
330
1F70
100
AcDbEntity
  8
0
 62
     0
100
AcDbLine
 10
122.6844243231184
 20
37.45996456168029
 30
0.0
 11
128.2844243231184
 21
43.05996456168043
 31
0.0
  0
LINE
  5
2062
330
1F70
100
AcDbEntity
  8
0
 62
     0
100
AcDbLine
 10
99.5244596297266
 20
14.29999986828863
 30
0.0
 11
105.8844243231183
 21
20.65996456168034
 31
0.0
  0
LINE
  5
2063
330
1F70
100
AcDbEntity
  8
0
 62
     0
100
AcDbLine
 10
110.0844243231183
 20
26.65601578589406
 30
0.0
 11
115.6844243231185
 21
32.25601578589419
 31
0.0
  0
LINE
  5
2064
330
1F70
100
AcDbEntity
  8
0
 62
     0
100
AcDbLine
 10
122.6844243231184
 20
39.25601578589408
 30
0.0
 11
128.2844243231185
 21
44.85601578589421
 31
0.0
  0
LINE
  5
2065
330
1F70
100
AcDbEntity
  8
0
 62
     0
100
AcDbLine
 10
97.72840840551282
 20
14.29999986828852
 30
0.0
 11
105.8844243231184
 21
22.45601578589401
 31
0.0
  0
LINE
  5
2066
330
1F70
100
AcDbEntity
  8
0
 62
     0
100
AcDbLine
 10
110.0844243231183
 20
28.45206701010795
 30
0.0
 11
115.6844243231185
 21
34.05206701010798
 31
0.0
  0
LINE
  5
2067
330
1F70
100
AcDbEntity
  8
0
 62
     0
100
AcDbLine
 10
122.6844243231184
 20
41.05206701010786
 30
0.0
 11
127.8969494134502
 21
46.26459210043981
 31
0.0
  0
LINE
  5
2068
330
1F70
100
AcDbEntity
  8
0
 62
     0
100
AcDbLine
 10
95.93235718129903
 20
14.29999986828863
 30
0.0
 11
105.8557871222924
 21
24.22342980928204
 31
0.0
  0
LINE
  5
2069
330
1F70
100
AcDbEntity
  8
0
 62
     0
100
AcDbLine
 10
110.0844243231183
 20
30.24811823432174
 30
0.0
 11
115.6844243231184
 21
35.84811823432187
 31
0.0
  0
LINE
  5
206A
330
1F70
100
AcDbEntity
  8
0
 62
     0
100
AcDbLine
 10
122.6844243231182
 20
42.84811823432176
 30
0.0
 11
126.3363059570852
 21
46.49999986828868
 31
0.0
  0
LINE
  5
206B
330
1F70
100
AcDbEntity
  8
0
 62
     0
100
AcDbLine
 10
94.13630595708514
 20
14.29999986828863
 30
0.0
 11
105.5859623810349
 21
25.74965629223834
 31
0.0
  0
LINE
  5
206C
330
1F70
100
AcDbEntity
  8
0
 62
     0
100
AcDbLine
 10
110.0844243231183
 20
32.04416945853552
 30
0.0
 11
115.6844243231185
 21
37.64416945853566
 31
0.0
  0
LINE
  5
206D
330
1F70
100
AcDbEntity
  8
0
 62
     0
100
AcDbLine
 10
100.2844243231186
 20
22.24416945853568
 30
0.0
 11
105.1047874671978
 21
27.06453260261492
 31
0.0
  0
LINE
  5
206E
330
1F70
100
AcDbEntity
  8
0
 62
     0
100
AcDbLine
 10
122.6844243231184
 20
44.64416945853554
 30
0.0
 11
124.5402547328715
 21
46.49999986828868
 31
0.0
  0
LINE
  5
206F
330
1F70
100
AcDbEntity
  8
0
 62
     0
100
AcDbLine
 10
92.59676543913361
 20
14.55651057455077
 30
0.0
 11
97.94025473287138
 21
19.89999986828854
 31
0.0
  0
LINE
  5
2070
330
1F70
100
AcDbEntity
  8
0
 62
     0
100
AcDbLine
 10
100.2446831728638
 20
24.00047953249475
 30
0.0
 11
104.4577888574767
 21
28.21358521710772
 31
0.0
  0
LINE
  5
2071
330
1F70
100
AcDbEntity
  8
0
 62
     0
100
AcDbLine
 10
110.0844243231183
 20
33.8402206827493
 30
0.0
 11
115.6844243231184
 21
39.44022068274944
 31
0.0
  0
LINE
  5
2072
330
1F70
100
AcDbEntity
  8
0
 62
     0
100
AcDbLine
 10
92.23442432311845
 20
15.99022068274939
 30
0.0
 11
96.14420350865749
 21
19.89999986828854
 31
0.0
  0
LINE
  5
2073
330
1F70
100
AcDbEntity
  8
0
 62
     0
100
AcDbLine
 10
99.69591349858603
 20
25.247761082431
 30
0.0
 11
103.6660466216211
 21
29.21789420546611
 31
0.0
  0
LINE
  5
2074
330
1F70
100
AcDbEntity
  8
0
 62
     0
100
AcDbLine
 10
110.0844243231182
 20
35.6362719069632
 30
0.0
 11
115.6844243231184
 21
41.23627190696334
 31
0.0
  0
LINE
  5
2075
330
1F70
100
AcDbEntity
  8
0
 62
     0
100
AcDbLine
 10
92.23442432311832
 20
17.78627190696329
 30
0.0
 11
94.34815228444369
 21
19.89999986828866
 31
0.0
  0
LINE
  5
2076
330
1F70
100
AcDbEntity
  8
0
 62
     0
100
AcDbLine
 10
110.0844243231183
 20
37.43232313117699
 30
0.0
 11
115.6844243231185
 21
43.03232313117701
 31
0.0
  0
LINE
  5
2077
330
1F70
100
AcDbEntity
  8
0
 62
     0
100
AcDbLine
 10
98.81336370435191
 20
26.16126251241042
 30
0.0
 11
102.7731616789965
 21
30.12106048705505
 31
0.0
  0
LINE
  5
2078
330
1F70
100
AcDbEntity
  8
0
 62
     0
100
AcDbLine
 10
97.91533809224496
 20
27.05928812451737
 30
0.0
 11
101.8751360668896
 21
31.019086099162
 31
0.0
  0
LINE
  5
2079
330
1F70
100
AcDbEntity
  8
0
 62
     0
100
AcDbLine
 10
110.0844243231182
 20
39.22837435539077
 30
0.0
 11
115.6844243231184
 21
44.8283743553909
 31
0.0
  0
LINE
  5
207A
330
1F70
100
AcDbEntity
  8
0
 62
     0
100
AcDbLine
 10
85.15604983601599
 20
14.29999986828852
 30
0.0
 11
86.98442432311834
 21
16.12837435539075
 31
0.0
  0
LINE
  5
207B
330
1F70
100
AcDbEntity
  8
0
 62
     0
100
AcDbLine
 10
97.017312480138
 20
27.95731373662432
 30
0.0
 11
100.9771104547826
 21
31.91711171126895
 31
0.0
  0
LINE
  5
207C
330
1F70
100
AcDbEntity
  8
0
 62
     0
100
AcDbLine
 10
110.0844243231182
 20
41.02442557960467
 30
0.0
 11
115.312062506921
 21
46.25206376340736
 31
0.0
  0
LINE
  5
207D
330
1F70
100
AcDbEntity
  8
0
 62
     0
100
AcDbLine
 10
83.3599986118021
 20
14.29999986828852
 30
0.0
 11
86.98442432311844
 21
17.92442557960476
 31
0.0
  0
LINE
  5
207E
330
1F70
100
AcDbEntity
  8
0
 62
     0
100
AcDbLine
 10
96.11928686803105
 20
28.85533934873127
 30
0.0
 11
100.0790848426757
 21
32.8151373233759
 31
0.0
  0
LINE
  5
207F
330
1F70
100
AcDbEntity
  8
0
 62
     0
100
AcDbLine
 10
110.0844243231182
 20
42.82047680381845
 30
0.0
 11
113.7639473875885
 21
46.4999998682888
 31
0.0
  0
LINE
  5
2080
330
1F70
100
AcDbEntity
  8
0
 62
     0
100
AcDbLine
 10
81.78716966331228
 20
14.52322214401249
 30
0.0
 11
86.98442432311834
 21
19.72047680381865
 31
0.0
  0
LINE
  5
2081
330
1F70
100
AcDbEntity
  8
0
 62
     0
100
AcDbLine
 10
95.22126125592421
 20
29.7533649608381
 30
0.0
 11
99.18105923056884
 21
33.71316293548273
 31
0.0
  0
LINE
  5
2082
330
1F70
100
AcDbEntity
  8
0
 62
     0
100
AcDbLine
 10
110.0844243231182
 20
44.61652802803223
 30
0.0
 11
111.9678961633748
 21
46.49999986828868
 31
0.0
  0
LINE
  5
2083
330
1F70
100
AcDbEntity
  8
0
 62
     0
100
AcDbLine
 10
81.38442432311842
 20
15.91652802803241
 30
0.0
 11
86.98442432311844
 21
21.51652802803233
 31
0.0
  0
LINE
  5
2084
330
1F70
100
AcDbEntity
  8
0
 62
     0
100
AcDbLine
 10
94.32323564381727
 20
30.65139057294505
 30
0.0
 11
98.2830336184619
 21
34.61118854758968
 31
0.0
  0
LINE
  5
2085
330
1F70
100
AcDbEntity
  8
0
 62
     0
100
AcDbLine
 10
81.38442432311842
 20
17.71257925224631
 30
0.0
 11
86.98442432311834
 21
23.31257925224623
 31
0.0
  0
LINE
  5
2086
330
1F70
100
AcDbEntity
  8
0
 62
     0
100
AcDbLine
 10
93.4292678417346
 20
31.55347399507639
 30
0.0
 11
97.39721490849866
 21
35.52142106184033
 31
0.0
  0
LINE
  5
2087
330
1F70
100
AcDbEntity
  8
0
 62
     0
100
AcDbLine
 10
81.38442432311842
 20
19.50863047646009
 30
0.0
 11
86.98442432311834
 21
25.10863047646012
 31
0.0
  0
LINE
  5
2088
330
1F70
100
AcDbEntity
  8
0
 62
     0
100
AcDbLine
 10
102.7757937149467
 20
40.89999986828854
 30
0.0
 11
104.8344243231184
 21
42.95863047646014
 31
0.0
  0
LINE
  5
2089
330
1F70
100
AcDbEntity
  8
0
 62
     0
100
AcDbLine
 10
76.39911187369796
 20
14.52331802703963
 30
0.0
 11
76.578416596608
 21
14.70262274994979
 31
0.0
  0
LINE
  5
208A
330
1F70
100
AcDbEntity
  8
0
 62
     0
100
AcDbLine
 10
92.63326348409066
 20
32.55352086164612
 30
0.0
 11
96.83253203892787
 21
36.75278941648333
 31
0.0
  0
LINE
  5
208B
330
1F70
100
AcDbEntity
  8
0
 62
     0
100
AcDbLine
 10
81.38442432311842
 20
21.30468170067388
 30
0.0
 11
86.98442432311844
 21
26.90468170067379
 31
0.0
  0
LINE
  5
208C
330
1F70
100
AcDbEntity
  8
0
 62
     0
100
AcDbLine
 10
100.9797424907332
 20
40.89999986828866
 30
0.0
 11
104.8344243231184
 21
44.75468170067393
 31
0.0
  0
LINE
  5
208D
330
1F70
100
AcDbEntity
  8
0
 62
     0
100
AcDbLine
 10
74.37974249073306
 20
14.29999986828852
 30
0.0
 11
76.51130068334612
 21
16.43155806090158
 31
0.0
  0
LINE
  5
208E
330
1F70
100
AcDbEntity
  8
0
 62
     0
100
AcDbLine
 10
91.98159495529727
 20
33.69790355706664
 30
0.0
 11
96.78442432311863
 21
38.50073292488799
 31
0.0
  0
LINE
  5
208F
330
1F70
100
AcDbEntity
  8
0
 62
     0
100
AcDbLine
 10
81.38442432311842
 20
23.10073292488767
 30
0.0
 11
86.98442432311834
 21
28.70073292488769
 31
0.0
  0
LINE
  5
2090
330
1F70
100
AcDbEntity
  8
0
 62
     0
100
AcDbLine
 10
99.18369126651919
 20
40.89999986828854
 30
0.0
 11
104.5010864595226
 21
46.21739506129199
 31
0.0
  0
LINE
  5
2091
330
1F70
100
AcDbEntity
  8
0
 62
     0
100
AcDbLine
 10
72.58369126651905
 20
14.29999986828841
 30
0.0
 11
76.08024838953475
 21
17.7965569913041
 31
0.0
  0
LINE
  5
2092
330
1F70
100
AcDbEntity
  8
0
 62
     0
100
AcDbLine
 10
81.38442432311832
 20
24.89678414910156
 30
0.0
 11
86.98442432311834
 21
30.49678414910147
 31
0.0
  0
LINE
  5
2093
330
1F70
100
AcDbEntity
  8
0
 62
     0
100
AcDbLine
 10
91.49483082995709
 20
35.00719065594035
 30
0.0
 11
102.9876400423054
 21
46.49999986828868
 31
0.0
  0
LINE
  5
2094
330
1F70
100
AcDbEntity
  8
0
 62
     0
100
AcDbLine
 10
71.39966264520911
 20
14.91202247119236
 30
0.0
 11
75.64919609572337
 21
19.16155592170662
 31
0.0
  0
LINE
  5
2095
330
1F70
100
AcDbEntity
  8
0
 62
     0
100
AcDbLine
 10
81.38442432311832
 20
26.69283537331546
 30
0.0
 11
86.98442432311821
 21
32.29283537331537
 31
0.0
  0
LINE
  5
2096
330
1F70
100
AcDbEntity
  8
0
 62
     0
100
AcDbLine
 10
91.21741711178572
 20
36.52582816198287
 30
0.0
 11
101.1915888180916
 21
46.49999986828868
 31
0.0
  0
LINE
  5
2097
330
1F70
100
AcDbEntity
  8
0
 62
     0
100
AcDbLine
 10
70.96214380191191
 20
16.27055485210906
 30
0.0
 11
75.21814380191199
 21
20.52655485210914
 31
0.0
  0
LINE
  5
2098
330
1F70
100
AcDbEntity
  8
0
 62
     0
100
AcDbLine
 10
81.38442432311842
 20
28.48888659752913
 30
0.0
 11
86.98442432311834
 21
34.08888659752915
 31
0.0
  0
LINE
  5
2099
330
1F70
100
AcDbEntity
  8
0
 62
     0
100
AcDbLine
 10
91.18442432311837
 20
38.28888659752909
 30
0.0
 11
99.39553759387786
 21
46.49999986828868
 31
0.0
  0
LINE
  5
209A
330
1F70
100
AcDbEntity
  8
0
 62
     0
100
AcDbLine
 10
70.53109150810064
 20
17.63555378251146
 30
0.0
 11
74.78709150810084
 21
21.89155378251155
 31
0.0
  0
LINE
  5
209B
330
1F70
100
AcDbEntity
  8
0
 62
     0
100
AcDbLine
 10
81.38442432311832
 20
30.28493782174303
 30
0.0
 11
86.98442432311834
 21
35.88493782174294
 31
0.0
  0
LINE
  5
209C
330
1F70
100
AcDbEntity
  8
0
 62
     0
100
AcDbLine
 10
91.1844243231185
 20
40.08493782174309
 30
0.0
 11
97.59948636966408
 21
46.49999986828868
 31
0.0
  0
LINE
  5
209D
330
1F70
100
AcDbEntity
  8
0
 62
     0
100
AcDbLine
 10
70.10003921428915
 20
19.00055271291387
 30
0.0
 11
74.35603921428958
 21
23.2565527129143
 31
0.0
  0
LINE
  5
209E
330
1F70
100
AcDbEntity
  8
0
 62
     0
100
AcDbLine
 10
81.38442432311832
 20
32.08098904595682
 30
0.0
 11
86.98442432311844
 21
37.68098904595695
 31
0.0
  0
LINE
  5
209F
330
1F70
100
AcDbEntity
  8
0
 62
     0
100
AcDbLine
 10
69.66898692047789
 20
20.36555164331651
 30
0.0
 11
73.92498692047809
 21
24.62155164331659
 31
0.0
  0
LINE
  5
20A0
330
1F70
100
AcDbEntity
  8
0
 62
     0
100
AcDbLine
 10
91.29105766336079
 20
41.98762238619941
 30
0.0
 11
95.69680180520743
 21
46.39336652804604
 31
0.0
  0
LINE
  5
20A1
330
1F70
100
AcDbEntity
  8
0
 62
     0
100
AcDbLine
 10
63.6034351454499
 20
14.29999986828852
 30
0.0
 11
65.28442432311829
 21
15.9809890459569
 31
0.0
  0
LINE
  5
20A2
330
1F70
100
AcDbEntity
  8
0
 62
     0
100
AcDbLine
 10
69.23793462666674
 20
21.73055057371891
 30
0.0
 11
73.49393462666682
 21
25.98655057371912
 31
0.0
  0
LINE
  5
20A3
330
1F70
100
AcDbEntity
  8
0
 62
     0
100
AcDbLine
 10
81.38442432311832
 20
33.8770402701706
 30
0.0
 11
86.98442432311844
 21
39.47704027017073
 31
0.0
  0
LINE
  5
20A4
330
1F70
100
AcDbEntity
  8
0
 62
     0
100
AcDbLine
 10
61.80738392123624
 20
14.29999986828841
 30
0.0
 11
65.2844243231184
 21
17.77704027017068
 31
0.0
  0
LINE
  5
20A5
330
1F70
100
AcDbEntity
  8
0
 62
     0
100
AcDbLine
 10
68.80688233285536
 20
23.09554950412143
 30
0.0
 11
73.06288233285545
 21
27.35154950412164
 31
0.0
  0
LINE
  5
20A6
330
1F70
100
AcDbEntity
  8
0
 62
     0
100
AcDbLine
 10
81.38442432311832
 20
35.67309149438449
 30
0.0
 11
86.98442432311844
 21
41.27309149438452
 31
0.0
  0
LINE
  5
20A7
330
1F70
100
AcDbEntity
  8
0
 62
     0
100
AcDbLine
 10
60.17363219232493
 20
14.46229936359111
 30
0.0
 11
65.2844243231184
 21
19.57309149438447
 31
0.0
  0
LINE
  5
20A8
330
1F70
100
AcDbEntity
  8
0
 62
     0
100
AcDbLine
 10
68.37583003904398
 20
24.46054843452396
 30
0.0
 11
72.63183003904408
 21
28.71654843452416
 31
0.0
  0
LINE
  5
20A9
330
1F70
100
AcDbEntity
  8
0
 62
     0
100
AcDbLine
 10
81.38442432311832
 20
37.46914271859828
 30
0.0
 11
86.98442432311834
 21
43.06914271859841
 31
0.0
  0
LINE
  5
20AA
330
1F70
100
AcDbEntity
  8
0
 62
     0
100
AcDbLine
 10
59.68442432311838
 20
15.76914271859834
 30
0.0
 11
65.28442432311852
 21
21.36914271859848
 31
0.0
  0
LINE
  5
20AB
330
1F70
100
AcDbEntity
  8
0
 62
     0
100
AcDbLine
 10
67.94477774523272
 20
25.82554736492637
 30
0.0
 11
72.20077774523304
 21
30.08154736492668
 31
0.0
  0
LINE
  5
20AC
330
1F70
100
AcDbEntity
  8
0
 62
     0
100
AcDbLine
 10
81.38442432311832
 20
39.26519394281206
 30
0.0
 11
86.98442432311844
 21
44.86519394281219
 31
0.0
  0
LINE
  5
20AD
330
1F70
100
AcDbEntity
  8
0
 62
     0
100
AcDbLine
 10
59.68442432311838
 20
17.56519394281213
 30
0.0
 11
65.28442432311852
 21
23.16519394281227
 31
0.0
  0
LINE
  5
20AE
330
1F70
100
AcDbEntity
  8
0
 62
     0
100
AcDbLine
 10
67.47518017128925
 20
27.1520010151969
 30
0.0
 11
72.73576830715104
 21
32.41258915105869
 31
0.0
  0
LINE
  5
20AF
330
1F70
100
AcDbEntity
  8
0
 62
     0
100
AcDbLine
 10
81.38442432311842
 20
41.06124516702607
 30
0.0
 11
86.59187347812155
 21
46.26869432202909
 31
0.0
  0
LINE
  5
20B0
330
1F70
100
AcDbEntity
  8
0
 62
     0
100
AcDbLine
 10
59.68442432311838
 20
19.36124516702603
 30
0.0
 11
65.28442432311852
 21
24.96124516702605
 31
0.0
  0
LINE
  5
20B1
330
1F70
100
AcDbEntity
  8
0
 62
     0
100
AcDbLine
 10
66.10080943155447
 20
27.57368149967601
 30
0.0
 11
73.56471502601903
 21
35.03758709414058
 31
0.0
  0
LINE
  5
20B2
330
1F70
100
AcDbEntity
  8
0
 62
     0
100
AcDbLine
 10
59.68442432311838
 20
21.15729639123981
 30
0.0
 11
65.31074269173098
 21
26.78361475985241
 31
0.0
  0
LINE
  5
20B3
330
1F70
100
AcDbEntity
  8
0
 62
     0
100
AcDbLine
 10
81.38442432311842
 20
42.85729639123985
 30
0.0
 11
85.02712780016713
 21
46.49999986828868
 31
0.0
  0
LINE
  5
20B4
330
1F70
100
AcDbEntity
  8
0
 62
     0
100
AcDbLine
 10
52.82712780016709
 20
14.29999986828852
 30
0.0
 11
54.7844243231184
 21
16.25729639123995
 31
0.0
  0
LINE
  5
20B5
330
1F70
100
AcDbEntity
  8
0
 62
     0
100
AcDbLine
 10
59.68442432311826
 20
22.95334761545371
 30
0.0
 11
74.39366174488691
 21
37.66258503722236
 31
0.0
  0
LINE
  5
20B6
330
1F70
100
AcDbEntity
  8
0
 62
     0
100
AcDbLine
 10
81.38442432311832
 20
44.65334761545375
 30
0.0
 11
83.23107657595324
 21
46.49999986828868
 31
0.0
  0
LINE
  5
20B7
330
1F70
100
AcDbEntity
  8
0
 62
     0
100
AcDbLine
 10
51.0310765759532
 20
14.29999986828863
 30
0.0
 11
54.78442432311851
 21
18.05334761545396
 31
0.0
  0
LINE
  5
20B8
330
1F70
100
AcDbEntity
  8
0
 62
     0
100
AcDbLine
 10
59.68442432311838
 20
24.74939883966738
 30
0.0
 11
75.22260846375513
 21
40.28758298030425
 31
0.0
  0
LINE
  5
20B9
330
1F70
100
AcDbEntity
  8
0
 62
     0
100
AcDbLine
 10
49.25838660043962
 20
14.32336111698873
 30
0.0
 11
54.50175575590606
 21
19.56673027245506
 31
0.0
  0
LINE
  5
20BA
330
1F70
100
AcDbEntity
  8
0
 62
     0
100
AcDbLine
 10
59.68442432311826
 20
26.54545006388128
 30
0.0
 11
66.3389741275256
 21
33.19999986828861
 31
0.0
  0
LINE
  5
20BB
330
1F70
100
AcDbEntity
  8
0
 62
     0
100
AcDbLine
 10
67.86693979800702
 20
34.72796553877004
 30
0.0
 11
76.05155518262302
 21
42.91258092338603
 31
0.0
  0
LINE
  5
20BC
330
1F70
100
AcDbEntity
  8
0
 62
     0
100
AcDbLine
 10
47.72206556554567
 20
14.58309130630857
 30
0.0
 11
53.03897412752553
 21
19.89999986828854
 31
0.0
  0
LINE
  5
20BD
330
1F70
100
AcDbEntity
  8
0
 62
     0
100
AcDbLine
 10
59.68442432311826
 20
28.34150128809517
 30
0.0
 11
65.32040546453493
 21
33.97748242951172
 31
0.0
  0
LINE
  5
20BE
330
1F70
100
AcDbEntity
  8
0
 62
     0
100
AcDbLine
 10
68.6958865168749
 20
37.3529634818517
 30
0.0
 11
76.80169808622565
 21
45.45877505120256
 31
0.0
  0
LINE
  5
20BF
330
1F70
100
AcDbEntity
  8
0
 62
     0
100
AcDbLine
 10
46.39979705189285
 20
15.05687401686975
 30
0.0
 11
51.24292290331175
 21
19.89999986828854
 31
0.0
  0
LINE
  5
20C0
330
1F70
100
AcDbEntity
  8
0
 62
     0
100
AcDbLine
 10
59.68442432311838
 20
30.13755251230885
 30
0.0
 11
65.2844243231184
 21
35.73755251230898
 31
0.0
  0
LINE
  5
20C1
330
1F70
100
AcDbEntity
  8
0
 62
     0
100
AcDbLine
 10
69.52483323574313
 20
39.97796142493371
 30
0.0
 11
76.01367434108727
 21
46.46680253027784
 31
0.0
  0
LINE
  5
20C2
330
1F70
100
AcDbEntity
  8
0
 62
     0
100
AcDbLine
 10
45.24459048356425
 20
15.69771867275472
 30
0.0
 11
49.47671420054996
 21
19.92984238974054
 31
0.0
  0
LINE
  5
20C3
330
1F70
100
AcDbEntity
  8
0
 62
     0
100
AcDbLine
 10
59.68442432311826
 20
31.93360373652274
 30
0.0
 11
65.2844243231184
 21
37.53360373652288
 31
0.0
  0
LINE
  5
20C4
330
1F70
100
AcDbEntity
  8
0
 62
     0
100
AcDbLine
 10
70.35377995461101
 20
42.60295936801537
 30
0.0
 11
74.25082045488409
 21
46.49999986828857
 31
0.0
  0
LINE
  5
20C5
330
1F70
100
AcDbEntity
  8
0
 62
     0
100
AcDbLine
 10
44.23468055080014
 20
16.4838599642045
 30
0.0
 11
48.20808191851336
 21
20.45726133191772
 31
0.0
  0
LINE
  5
20C6
330
1F70
100
AcDbEntity
  8
0
 62
     0
100
AcDbLine
 10
59.68442432311826
 20
33.72965496073653
 30
0.0
 11
65.2844243231184
 21
39.32965496073666
 31
0.0
  0
LINE
  5
20C7
330
1F70
100
AcDbEntity
  8
0
 62
     0
100
AcDbLine
 10
53.00769258667128
 20
27.05292322428966
 30
0.0
 11
55.33150096711745
 21
29.37673160473583
 31
0.0
  0
LINE
  5
20C8
330
1F70
100
AcDbEntity
  8
0
 62
     0
100
AcDbLine
 10
71.18272667347878
 20
45.22795731109716
 30
0.0
 11
72.45476923067042
 21
46.4999998682888
 31
0.0
  0
LINE
  5
20C9
330
1F70
100
AcDbEntity
  8
0
 62
     0
100
AcDbLine
 10
43.36180640414045
 20
17.40703704175883
 30
0.0
 11
47.38758001596898
 21
21.43281065358735
 31
0.0
  0
LINE
  5
20CA
330
1F70
100
AcDbEntity
  8
0
 62
     0
100
AcDbLine
 10
51.15774690341163
 20
26.99902876524391
 30
0.0
 11
55.38539542616319
 21
31.22667728799536
 31
0.0
  0
LINE
  5
20CB
330
1F70
100
AcDbEntity
  8
0
 62
     0
100
AcDbLine
 10
59.68442432311838
 20
35.52570618495054
 30
0.0
 11
65.28442432311852
 21
41.12570618495067
 31
0.0
  0
LINE
  5
20CC
330
1F70
100
AcDbEntity
  8
0
 62
     0
100
AcDbLine
 10
42.62776795425452
 20
18.46904981608668
 30
0.0
 11
47.08442432311835
 21
22.92570618495063
 31
0.0
  0
LINE
  5
20CD
330
1F70
100
AcDbEntity
  8
0
 62
     0
100
AcDbLine
 10
49.92945376457123
 20
27.56678685061706
 30
0.0
 11
54.81763734078993
 21
32.45497042683587
 31
0.0
  0
LINE
  5
20CE
330
1F70
100
AcDbEntity
  8
0
 62
     0
100
AcDbLine
 10
59.68442432311838
 20
37.32175740916432
 30
0.0
 11
65.28442432311852
 21
42.92175740916445
 31
0.0
  0
LINE
  5
20CF
330
1F70
100
AcDbEntity
  8
0
 62
     0
100
AcDbLine
 10
42.04513293440505
 20
19.68246602045099
 30
0.0
 11
47.08442432311835
 21
24.7217574091643
 31
0.0
  0
LINE
  5
20D0
330
1F70
100
AcDbEntity
  8
0
 62
     0
100
AcDbLine
 10
49.05353391059179
 20
28.48691822085164
 30
0.0
 11
53.89750597055547
 21
33.3308902808152
 31
0.0
  0
LINE
  5
20D1
330
1F70
100
AcDbEntity
  8
0
 62
     0
100
AcDbLine
 10
59.68442432311838
 20
39.11780863337822
 30
0.0
 11
65.28442432311852
 21
44.71780863337824
 31
0.0
  0
LINE
  5
20D2
330
1F70
100
AcDbEntity
  8
0
 62
     0
100
AcDbLine
 10
41.64285820605573
 20
21.07624251631557
 30
0.0
 11
47.08442432311835
 21
26.51780863337819
 31
0.0
  0
LINE
  5
20D3
330
1F70
100
AcDbEntity
  8
0
 62
     0
100
AcDbLine
 10
48.54143244577506
 20
29.77086798024868
 30
0.0
 11
52.61355621115831
 21
33.84299174563205
 31
0.0
  0
LINE
  5
20D4
330
1F70
100
AcDbEntity
  8
0
 62
     0
100
AcDbLine
 10
41.48442432311822
 20
22.71385985759196
 30
0.0
 11
47.08442432311835
 21
28.31385985759198
 31
0.0
  0
LINE
  5
20D5
330
1F70
100
AcDbEntity
  8
0
 62
     0
100
AcDbLine
 10
59.68442432311838
 20
40.913859857592
 30
0.0
 11
64.96992410640814
 21
46.19935964088187
 31
0.0
  0
LINE
  5
20D6
330
1F70
100
AcDbEntity
  8
0
 62
     0
100
AcDbLine
 10
33.31243080736704
 20
14.54186634184077
 30
0.0
 11
37.04255784956649
 21
18.27199338404023
 31
0.0
  0
LINE
  5
20D7
330
1F70
100
AcDbEntity
  8
0
 62
     0
100
AcDbLine
 10
48.77825861273663
 20
31.80374537142404
 30
0.0
 11
50.58067881998306
 21
33.60616557867047
 31
0.0
  0
LINE
  5
20D8
330
1F70
100
AcDbEntity
  8
0
 62
     0
100
AcDbLine
 10
41.48442432311822
 20
24.50991108180563
 30
0.0
 11
47.08442432311835
 21
30.10991108180576
 31
0.0
  0
LINE
  5
20D9
330
1F70
100
AcDbEntity
  8
0
 62
     0
100
AcDbLine
 10
59.68442432311838
 20
42.70991108180578
 30
0.0
 11
63.47451310960116
 21
46.49999986828857
 31
0.0
  0
LINE
  5
20DA
330
1F70
100
AcDbEntity
  8
0
 62
     0
100
AcDbLine
 10
31.27451310960112
 20
14.29999986828852
 30
0.0
 11
37.28442432311863
 21
20.30991108180592
 31
0.0
  0
LINE
  5
20DB
330
1F70
100
AcDbEntity
  8
0
 62
     0
100
AcDbLine
 10
41.48442432311822
 20
26.30596230601952
 30
0.0
 11
47.08442432311835
 21
31.90596230601966
 31
0.0
  0
LINE
  5
20DC
330
1F70
100
AcDbEntity
  8
0
 62
     0
100
AcDbLine
 10
59.68442432311838
 20
44.50596230601957
 30
0.0
 11
61.67846188538738
 21
46.49999986828868
 31
0.0
  0
LINE
  5
20DD
330
1F70
100
AcDbEntity
  8
0
 62
     0
100
AcDbLine
 10
29.47846188538711
 20
14.29999986828841
 30
0.0
 11
37.28442432311851
 21
22.10596230601982
 31
0.0
  0
LINE
  5
20DE
330
1F70
100
AcDbEntity
  8
0
 62
     0
100
AcDbLine
 10
41.48442432311822
 20
28.10201353023331
 30
0.0
 11
47.08442432311824
 21
33.70201353023345
 31
0.0
  0
LINE
  5
20DF
330
1F70
100
AcDbEntity
  8
0
 62
     0
100
AcDbLine
 10
27.68241066117344
 20
14.29999986828863
 30
0.0
 11
37.27654561799602
 21
23.89413482511122
 31
0.0
  0
LINE
  5
20E0
330
1F70
100
AcDbEntity
  8
0
 62
     0
100
AcDbLine
 10
41.48442432311822
 20
29.89806475444721
 30
0.0
 11
47.08442432311835
 21
35.49806475444734
 31
0.0
  0
LINE
  5
20E1
330
1F70
100
AcDbEntity
  8
0
 62
     0
100
AcDbLine
 10
52.48635943695979
 20
40.89999986828877
 30
0.0
 11
54.78442432311863
 21
43.19806475444761
 31
0.0
  0
LINE
  5
20E2
330
1F70
100
AcDbEntity
  8
0
 62
     0
100
AcDbLine
 10
25.88635943695954
 20
14.29999986828852
 30
0.0
 11
37.05722194535338
 21
25.47086237668236
 31
0.0
  0
LINE
  5
20E3
330
1F70
100
AcDbEntity
  8
0
 62
     0
100
AcDbLine
 10
41.48442432311822
 20
31.69411597866099
 30
0.0
 11
47.08442432311835
 21
37.29411597866101
 31
0.0
  0
LINE
  5
20E4
330
1F70
100
AcDbEntity
  8
0
 62
     0
100
AcDbLine
 10
31.68442432311838
 20
21.89411597866115
 30
0.0
 11
36.61254445726513
 21
26.8222361128079
 31
0.0
  0
LINE
  5
20E5
330
1F70
100
AcDbEntity
  8
0
 62
     0
100
AcDbLine
 10
50.69030821274577
 20
40.89999986828854
 30
0.0
 11
54.78442432311863
 21
44.99411597866128
 31
0.0
  0
LINE
  5
20E6
330
1F70
100
AcDbEntity
  8
0
 62
     0
100
AcDbLine
 10
24.20575996326568
 20
14.41545161880845
 30
0.0
 11
29.69030821274578
 21
19.89999986828854
 31
0.0
  0
LINE
  5
20E7
330
1F70
100
AcDbEntity
  8
0
 62
     0
100
AcDbLine
 10
41.4844243231181
 20
33.49016720287477
 30
0.0
 11
47.41605373467769
 21
39.42179661443436
 31
0.0
  0
LINE
  5
20E8
330
1F70
100
AcDbEntity
  8
0
 62
     0
100
AcDbLine
 10
31.68010613989987
 20
23.68584901965641
 30
0.0
 11
35.99568138792108
 21
28.00142426767775
 31
0.0
  0
LINE
  5
20E9
330
1F70
100
AcDbEntity
  8
0
 62
     0
100
AcDbLine
 10
48.56262757697277
 20
40.56837045672944
 30
0.0
 11
54.3174894932788
 21
46.32323237303535
 31
0.0
  0
LINE
  5
20EA
330
1F70
100
AcDbEntity
  8
0
 62
     0
100
AcDbLine
 10
23.63442432311842
 20
15.64016720287497
 30
0.0
 11
27.89425698853199
 21
19.89999986828854
 31
0.0
  0
LINE
  5
20EB
330
1F70
100
AcDbEntity
  8
0
 62
     0
100
AcDbLine
 10
31.24090010089844
 20
25.04269420486901
 30
0.0
 11
35.23119745824329
 21
29.03299156221385
 31
0.0
  0
LINE
  5
20EC
330
1F70
100
AcDbEntity
  8
0
 62
     0
100
AcDbLine
 10
41.4844243231181
 20
35.28621842708867
 30
0.0
 11
52.69820576431823
 21
46.4999998682888
 31
0.0
  0
LINE
  5
20ED
330
1F70
100
AcDbEntity
  8
0
 62
     0
100
AcDbLine
 10
23.63442432311831
 20
17.43621842708887
 30
0.0
 11
26.0982057643181
 21
19.89999986828866
 31
0.0
  0
LINE
  5
20EE
330
1F70
100
AcDbEntity
  8
0
 62
     0
100
AcDbLine
 10
30.38839044428903
 20
25.98623577247327
 30
0.0
 11
34.34818841893378
 21
29.94603374711801
 31
0.0
  0
LINE
  5
20EF
330
1F70
100
AcDbEntity
  8
0
 62
     0
100
AcDbLine
 10
41.48442432311822
 20
37.08226965130234
 30
0.0
 11
50.90215454010411
 21
46.49999986828833
 31
0.0
  0
LINE
  5
20F0
330
1F70
100
AcDbEntity
  8
0
 62
     0
100
AcDbLine
 10
23.77232816715787
 20
19.3701734953421
 30
0.0
 11
24.1642506960651
 21
19.76209602424933
 31
0.0
  0
LINE
  5
20F1
330
1F70
100
AcDbEntity
  8
0
 62
     0
100
AcDbLine
 10
41.52437455143138
 20
38.9182711038294
 30
0.0
 11
49.06615308757739
 21
46.46004963997552
 31
0.0
  0
LINE
  5
20F2
330
1F70
100
AcDbEntity
  8
0
 62
     0
100
AcDbLine
 10
29.49036483218208
 20
26.88426138458022
 30
0.0
 11
33.45016280682683
 21
30.84405935922496
 31
0.0
  0
LINE
  5
20F3
330
1F70
100
AcDbEntity
  8
0
 62
     0
100
AcDbLine
 10
42.12330141596294
 20
41.31324919257497
 30
0.0
 11
46.67117499883192
 21
45.86112277544396
 31
0.0
  0
LINE
  5
20F4
330
1F70
100
AcDbEntity
  8
0
 62
     0
100
AcDbLine
 10
28.59233922007513
 20
27.78228699668716
 30
0.0
 11
32.55213719471988
 21
31.74208497133191
 31
0.0
  0
LINE
  5
20F5
330
1F70
100
AcDbEntity
  8
0
 62
     0
100
AcDbLine
 10
27.6943136079683
 20
28.680312608794
 30
0.0
 11
31.65411158261293
 21
32.64011058343851
 31
0.0
  0
LINE
  5
20F6
330
1F70
100
AcDbEntity
  8
0
 62
     0
100
AcDbLine
 10
26.79628799586135
 20
29.57833822090094
 30
0.0
 11
30.75608597050598
 21
33.53813619554546
 31
0.0
  0
LINE
  5
20F7
330
1F70
100
AcDbEntity
  8
0
 62
     0
100
AcDbLine
 10
25.8982623837544
 20
30.4763638330079
 30
0.0
 11
29.85806035839903
 21
34.43616180765241
 31
0.0
  0
LINE
  5
20F8
330
1F70
100
AcDbEntity
  8
0
 62
     0
100
AcDbLine
 10
34.52584719482127
 20
40.89999986828854
 30
0.0
 11
36.23442432311811
 21
42.6085769965855
 31
0.0
  0
LINE
  5
20F9
330
1F70
100
AcDbEntity
  8
0
 62
     0
100
AcDbLine
 10
25.00040339970372
 20
31.37455607317111
 30
0.0
 11
28.96053468656862
 21
35.33468736003602
 31
0.0
  0
LINE
  5
20FA
330
1F70
100
AcDbEntity
  8
0
 62
     0
100
AcDbLine
 10
32.72979597060749
 20
40.89999986828854
 30
0.0
 11
36.23442432311833
 21
44.40462822079939
 31
0.0
  0
LINE
  5
20FB
330
1F70
100
AcDbEntity
  8
0
 62
     0
100
AcDbLine
 10
24.17746755060057
 20
32.34767144828152
 30
0.0
 11
28.30074092399275
 21
36.47094482167381
 31
0.0
  0
LINE
  5
20FC
330
1F70
100
AcDbEntity
  8
0
 62
     0
100
AcDbLine
 10
30.93374474639359
 20
40.89999986828854
 30
0.0
 11
36.06130652359605
 21
46.027561645491
 31
0.0
  0
LINE
  5
20FD
330
1F70
100
AcDbEntity
  8
0
 62
     0
100
AcDbLine
 10
23.49654633807563
 20
33.46280145997048
 30
0.0
 11
28.18442432311849
 21
38.15067944501334
 31
0.0
  0
LINE
  5
20FE
330
1F70
100
AcDbEntity
  8
0
 62
     0
100
AcDbLine
 10
29.13276022383957
 20
40.89506656994831
 30
0.0
 11
34.73769352217994
 21
46.49999986828868
 31
0.0
  0
LINE
  5
20FF
330
1F70
100
AcDbEntity
  8
0
 62
     0
100
AcDbLine
 10
22.97515974661144
 20
34.73746609272018
 30
0.0
 11
28.18935762145861
 21
39.95166396756747
 31
0.0
  0
LINE
  5
2100
330
1F70
100
AcDbEntity
  8
0
 62
     0
100
AcDbLine
 10
22.65153582211531
 20
36.20989339243783
 30
0.0
 11
32.94164229796616
 21
46.49999986828868
 31
0.0
  0
LINE
  5
2101
330
1F70
100
AcDbEntity
  8
0
 62
     0
100
AcDbLine
 10
22.58442432311847
 20
37.93883311765489
 30
0.0
 11
31.14559107375226
 21
46.49999986828868
 31
0.0
  0
LINE
  5
2102
330
1F70
100
AcDbEntity
  8
0
 62
     0
100
AcDbLine
 10
22.58442432311847
 20
39.73488434186868
 30
0.0
 11
29.34953984953848
 21
46.49999986828868
 31
0.0
  0
LINE
  5
2103
330
1F70
100
AcDbEntity
  8
0
 62
     0
100
AcDbLine
 10
22.62480834399491
 20
41.57131958695901
 30
0.0
 11
27.51310460444813
 21
46.45961584741224
 31
0.0
  0
ENDBLK
  5
2105
330
1F70
100
AcDbEntity
  8
0
100
AcDbBlockEnd
  0
BLOCK
  5
2469
330
245F
100
AcDbEntity
  8
0
100
AcDbBlockBegin
  2
*D2
 70
     1
 10
0.0
 20
0.0
 30
0.0
  3
*D2
  1

  0
LINE
  5
2A4A
330
245F
100
AcDbEntity
  8
SUNPOU
  6
Continuous
 62
     4
370
    -2
100
AcDbLine
 10
768.2655702781792
 20
550.3481473482104
 30
0.0
 11
768.2655702781792
 21
574.1603153784581
 31
0.0
  0
LINE
  5
2A4B
330
245F
100
AcDbEntity
  8
SUNPOU
  6
Continuous
 62
     4
370
    -2
100
AcDbLine
 10
1037.765570278178
 20
499.349771326766
 30
0.0
 11
1037.765570278178
 21
574.1603153784581
 31
0.0
  0
LINE
  5
2A4C
330
245F
100
AcDbEntity
  8
SUNPOU
  6
Continuous
 62
     4
370
    -2
100
AcDbLine
 10
782.2655702781792
 20
568.1603153784581
 30
0.0
 11
1023.765570278179
 21
568.1603153784581
 31
0.0
  0
INSERT
  5
2A4D
330
245F
100
AcDbEntity
  8
SUNPOU
  6
Continuous
 62
     4
370
    -2
100
AcDbBlockReference
  2
_OPEN
 10
768.2655702781792
 20
568.1603153784581
 30
0.0
 41
14.0
 42
14.0
 43
14.0
 50
180.0
  0
INSERT
  5
2A4E
330
245F
100
AcDbEntity
  8
SUNPOU
  6
Continuous
 62
     4
370
    -2
100
AcDbBlockReference
  2
_OPEN
 10
1037.765570278178
 20
568.1603153784581
 30
0.0
 41
14.0
 42
14.0
 43
14.0
  0
MTEXT
  5
2A4F
330
245F
100
AcDbEntity
  8
SUNPOU
  6
Continuous
 62
     4
100
AcDbMText
 10
903.015570278179
 20
578.1603153784581
 30
0.0
 40
12.0
 41
0.0
 71
     5
 72
     5
  1
\A1;270
 73
     1
 44
1.0
1001
ACAD
1000
MTEXTBEGIN
1070
    73
1070
     1
1070
    44
1040
1.0
1070
    74
1070
     0
1000
MTEXTEND
  0
POINT
  5
2A50
330
245F
100
AcDbEntity
  8
DEFPOINTS
  6
Continuous
 62
     0
100
AcDbPoint
 10
768.2655702781792
 20
538.3481473482104
 30
0.0
  0
POINT
  5
2A51
330
245F
100
AcDbEntity
  8
DEFPOINTS
  6
Continuous
 62
     0
100
AcDbPoint
 10
1037.765570278178
 20
487.349771326766
 30
0.0
  0
POINT
  5
2A52
330
245F
100
AcDbEntity
  8
DEFPOINTS
  6
Continuous
 62
     0
100
AcDbPoint
 10
1037.765570278178
 20
568.1603153784581
 30
0.0
  0
ENDBLK
  5
246A
330
245F
100
AcDbEntity
  8
0
100
AcDbBlockEnd
  0
BLOCK
  5
2475
330
246B
100
AcDbEntity
  8
0
100
AcDbBlockBegin
  2
*D3
 70
     1
 10
0.0
 20
0.0
 30
0.0
  3
*D3
  1

  0
LINE
  5
2A53
330
246B
100
AcDbEntity
  8
SUNPOU
  6
Continuous
 62
     4
370
    -2
100
AcDbLine
 10
768.2655702781792
 20
500.2146642223316
 30
0.0
 11
768.2655702781792
 21
544.3593977525758
 31
0.0
  0
LINE
  5
2A54
330
246B
100
AcDbEntity
  8
SUNPOU
  6
Continuous
 62
     4
370
    -2
100
AcDbLine
 10
975.0171400200974
 20
471.6888620491953
 30
0.0
 11
975.0171400200974
 21
544.3593977525758
 31
0.0
  0
LINE
  5
2A55
330
246B
100
AcDbEntity
  8
SUNPOU
  6
Continuous
 62
     4
370
    -2
100
AcDbLine
 10
782.2655702781792
 20
538.3593977525759
 30
0.0
 11
961.0171400200975
 21
538.3593977525759
 31
0.0
  0
INSERT
  5
2A56
330
246B
100
AcDbEntity
  8
SUNPOU
  6
Continuous
 62
     4
370
    -2
100
AcDbBlockReference
  2
_OPEN
 10
768.2655702781792
 20
538.3593977525759
 30
0.0
 41
14.0
 42
14.0
 43
14.0
 50
180.0
  0
INSERT
  5
2A57
330
246B
100
AcDbEntity
  8
SUNPOU
  6
Continuous
 62
     4
370
    -2
100
AcDbBlockReference
  2
_OPEN
 10
975.0171400200974
 20
538.3593977525759
 30
0.0
 41
14.0
 42
14.0
 43
14.0
  0
MTEXT
  5
2A58
330
246B
100
AcDbEntity
  8
SUNPOU
  6
Continuous
 62
     4
100
AcDbMText
 10
871.6413551491383
 20
548.3593977525758
 30
0.0
 40
12.0
 41
0.0
 71
     5
 72
     5
  1
\A1;207
 73
     1
 44
1.0
1001
ACAD
1000
MTEXTBEGIN
1070
    73
1070
     1
1070
    44
1040
1.0
1070
    74
1070
     0
1000
MTEXTEND
  0
POINT
  5
2A59
330
246B
100
AcDbEntity
  8
DEFPOINTS
  6
Continuous
 62
     0
100
AcDbPoint
 10
768.2655702781792
 20
488.2146642223315
 30
0.0
  0
POINT
  5
2A5A
330
246B
100
AcDbEntity
  8
DEFPOINTS
  6
Continuous
 62
     0
100
AcDbPoint
 10
975.0171400200974
 20
459.6888620491953
 30
0.0
  0
POINT
  5
2A5B
330
246B
100
AcDbEntity
  8
DEFPOINTS
  6
Continuous
 62
     0
100
AcDbPoint
 10
975.0171400200974
 20
538.3593977525759
 30
0.0
  0
ENDBLK
  5
2476
330
246B
100
AcDbEntity
  8
0
100
AcDbBlockEnd
  0
BLOCK
  5
2481
330
2477
100
AcDbEntity
  8
0
100
AcDbBlockBegin
  2
*D4
 70
     1
 10
0.0
 20
0.0
 30
0.0
  3
*D4
  1

  0
LINE
  5
2B77
330
2477
100
AcDbEntity
  8
SUNPOU
  6
Continuous
 62
     4
370
    -2
100
AcDbLine
 10
796.104385564625
 20
321.6239341022316
 30
0.0
 11
796.104385564625
 21
267.0374555561799
 31
0.0
  0
LINE
  5
2B78
330
2477
100
AcDbEntity
  8
SUNPOU
  6
Continuous
 62
     4
370
    -2
100
AcDbLine
 10
951.4267549918352
 20
321.6239341022316
 30
0.0
 11
951.4267549918352
 21
267.0374555561799
 31
0.0
  0
LINE
  5
2B79
330
2477
100
AcDbEntity
  8
SUNPOU
  6
Continuous
 62
     4
370
    -2
100
AcDbLine
 10
810.1043855646251
 20
273.0374555561799
 30
0.0
 11
937.4267549918354
 21
273.0374555561799
 31
0.0
  0
INSERT
  5
2B7A
330
2477
100
AcDbEntity
  8
SUNPOU
  6
Continuous
 62
     4
370
    -2
100
AcDbBlockReference
  2
_OPEN
 10
796.104385564625
 20
273.0374555561799
 30
0.0
 41
14.0
 42
14.0
 43
14.0
 50
180.0
  0
INSERT
  5
2B7B
330
2477
100
AcDbEntity
  8
SUNPOU
  6
Continuous
 62
     4
370
    -2
100
AcDbBlockReference
  2
_OPEN
 10
951.4267549918352
 20
273.0374555561799
 30
0.0
 41
14.0
 42
14.0
 43
14.0
  0
MTEXT
  5
2B7C
330
2477
100
AcDbEntity
  8
SUNPOU
  6
Continuous
 62
     4
100
AcDbMText
 10
873.7655702782301
 20
283.0374555561799
 30
0.0
 40
12.0
 41
0.0
 71
     5
 72
     1
  1
\A1;155
 73
     1
 44
1.0
1001
ACAD
1000
MTEXTBEGIN
1070
    73
1070
     1
1070
    44
1040
1.0
1070
    74
1070
     0
1000
MTEXTEND
  0
POINT
  5
2B7D
330
2477
100
AcDbEntity
  8
DEFPOINTS
  6
Continuous
 62
     0
100
AcDbPoint
 10
796.104385564625
 20
333.6239341022316
 30
0.0
  0
POINT
  5
2B7E
330
2477
100
AcDbEntity
  8
DEFPOINTS
  6
Continuous
 62
     0
100
AcDbPoint
 10
951.4267549918352
 20
333.6239341022316
 30
0.0
  0
POINT
  5
2B7F
330
2477
100
AcDbEntity
  8
DEFPOINTS
  6
Continuous
 62
     0
100
AcDbPoint
 10
951.4267549918352
 20
273.0374555561799
 30
0.0
  0
ENDBLK
  5
2482
330
2477
100
AcDbEntity
  8
0
100
AcDbBlockEnd
  0
BLOCK
  5
2499
330
248F
100
AcDbEntity
  8
0
100
AcDbBlockBegin
  2
*D5
 70
     1
 10
0.0
 20
0.0
 30
0.0
  3
*D5
  1

  0
LINE
  5
2A79
330
248F
100
AcDbEntity
  8
SUNPOU
  6
Continuous
 62
     4
370
    -2
100
AcDbLine
 10
756.0123739455718
 20
671.9701451998303
 30
0.0
 11
686.5314093951717
 21
671.9701451998303
 31
0.0
  0
LINE
  5
2A7A
330
248F
100
AcDbEntity
  8
SUNPOU
  6
Continuous
 62
     4
370
    -2
100
AcDbLine
 10
756.2655702781796
 20
719.4701451998303
 30
0.0
 11
686.5314093951717
 21
719.4701451998303
 31
0.0
  0
LINE
  5
2A7B
330
248F
100
AcDbEntity
  8
SUNPOU
  6
Continuous
 62
     4
370
    -2
100
AcDbLine
 10
692.5314093951717
 20
685.9701451998303
 30
0.0
 11
692.5314093951717
 21
705.4701451998303
 31
0.0
  0
INSERT
  5
2A7C
330
248F
100
AcDbEntity
  8
SUNPOU
  6
Continuous
 62
     4
370
    -2
100
AcDbBlockReference
  2
_OPEN
 10
692.5314093951717
 20
671.9701451998303
 30
0.0
 41
14.0
 42
14.0
 43
14.0
 50
270.0
  0
INSERT
  5
2A7D
330
248F
100
AcDbEntity
  8
SUNPOU
  6
Continuous
 62
     4
370
    -2
100
AcDbBlockReference
  2
_OPEN
 10
692.5314093951717
 20
719.4701451998303
 30
0.0
 41
14.0
 42
14.0
 43
14.0
 50
90.0
  0
MTEXT
  5
2A7E
330
248F
100
AcDbEntity
  8
SUNPOU
  6
Continuous
 62
     4
100
AcDbMText
 10
682.5314093951716
 20
695.7201451998304
 30
0.0
 40
12.0
 41
0.0
 71
     5
 72
     5
  1
\A1;48
 11
0.0000000000000001
 21
1.0
 31
0.0
 73
     1
 44
1.0
1001
ACAD
1000
MTEXTBEGIN
1070
    73
1070
     1
1070
    44
1040
1.0
1070
    74
1070
     0
1000
MTEXTEND
  0
POINT
  5
2A7F
330
248F
100
AcDbEntity
  8
DEFPOINTS
  6
Continuous
 62
     0
100
AcDbPoint
 10
768.0123739455718
 20
671.9701451998302
 30
0.0
  0
POINT
  5
2A80
330
248F
100
AcDbEntity
  8
DEFPOINTS
  6
Continuous
 62
     0
100
AcDbPoint
 10
768.2655702781796
 20
719.4701451998302
 30
0.0
  0
POINT
  5
2A81
330
248F
100
AcDbEntity
  8
DEFPOINTS
  6
Continuous
 62
     0
100
AcDbPoint
 10
692.5314093951717
 20
719.4701451998303
 30
0.0
  0
ENDBLK
  5
249A
330
248F
100
AcDbEntity
  8
0
100
AcDbBlockEnd
  0
BLOCK
  5
24B1
330
24A7
100
AcDbEntity
  8
0
100
AcDbBlockBegin
  2
*D6
 70
     1
 10
0.0
 20
0.0
 30
0.0
  3
*D6
  1

  0
LINE
  5
2A65
330
24A7
100
AcDbEntity
  8
SUNPOU
  6
Continuous
 62
     4
370
    -2
100
AcDbLine
 10
753.8513567158063
 20
490.0843169460564
 30
0.0
 11
693.1992104063717
 21
490.0843169460564
 31
0.0
  0
LINE
  5
2A66
330
24A7
100
AcDbEntity
  8
SUNPOU
  6
Continuous
 62
     4
370
    -2
100
AcDbLine
 10
758.2655702781792
 20
463.6239341022315
 30
0.0
 11
693.1992104063717
 21
463.6239341022315
 31
0.0
  0
LINE
  5
2A67
330
24A7
100
AcDbEntity
  8
SUNPOU
  6
Continuous
 62
     4
370
    -2
100
AcDbLine
 10
699.1992104063718
 20
504.0843169460565
 30
0.0
 11
699.1992104063718
 21
518.0843169460565
 31
0.0
  0
LINE
  5
2A68
330
24A7
100
AcDbEntity
  8
SUNPOU
  6
Continuous
 62
     4
370
    -2
100
AcDbLine
 10
699.1992104063718
 20
449.6239341022315
 30
0.0
 11
699.1992104063718
 21
407.6239341022315
 31
0.0
  0
LINE
  5
2A69
330
24A7
100
AcDbEntity
  8
SUNPOU
  6
Continuous
 62
     4
370
    -2
100
AcDbLine
 10
699.1992104063718
 20
490.0843169460564
 30
0.0
 11
699.1992104063718
 21
463.6239341022315
 31
0.0
  0
INSERT
  5
2A6A
330
24A7
100
AcDbEntity
  8
SUNPOU
  6
Continuous
 62
     4
370
    -2
100
AcDbBlockReference
  2
_OPEN
 10
699.1992104063718
 20
490.0843169460564
 30
0.0
 41
14.0
 42
14.0
 43
14.0
 50
270.0
  0
INSERT
  5
2A6B
330
24A7
100
AcDbEntity
  8
SUNPOU
  6
Continuous
 62
     4
370
    -2
100
AcDbBlockReference
  2
_OPEN
 10
699.1992104063718
 20
463.6239341022315
 30
0.0
 41
14.0
 42
14.0
 43
14.0
 50
90.0
  0
MTEXT
  5
2A6C
330
24A7
100
AcDbEntity
  8
SUNPOU
  6
Continuous
 62
     4
100
AcDbMText
 10
689.1992104063716
 20
421.6239341022316
 30
0.0
 40
12.0
 41
0.0
 71
     5
 72
     5
  1
\A1;26
 11
0.0000000000000001
 21
1.0
 31
0.0
 73
     1
 44
1.0
1001
ACAD
1000
MTEXTBEGIN
1070
    73
1070
     1
1070
    44
1040
1.0
1070
    74
1070
     0
1000
MTEXTEND
  0
POINT
  5
2A6D
330
24A7
100
AcDbEntity
  8
DEFPOINTS
  6
Continuous
 62
     0
100
AcDbPoint
 10
765.8513567158063
 20
490.0843169460564
 30
0.0
  0
POINT
  5
2A6E
330
24A7
100
AcDbEntity
  8
DEFPOINTS
  6
Continuous
 62
     0
100
AcDbPoint
 10
770.2655702781791
 20
463.6239341022315
 30
0.0
  0
POINT
  5
2A6F
330
24A7
100
AcDbEntity
  8
DEFPOINTS
  6
Continuous
 62
     0
100
AcDbPoint
 10
699.1992104063718
 20
463.6239341022315
 30
0.0
  0
ENDBLK
  5
24B2
330
24A7
100
AcDbEntity
  8
0
100
AcDbBlockEnd
  0
BLOCK
  5
24BD
330
24B3
100
AcDbEntity
  8
0
100
AcDbBlockBegin
  2
*D7
 70
     1
 10
0.0
 20
0.0
 30
0.0
  3
*D7
  1

  0
LINE
  5
2AB1
330
24B3
100
AcDbEntity
  8
SUNPOU
  6
Continuous
 62
     4
370
    -2
100
AcDbLine
 10
987.6655702781787
 20
671.9701451998304
 30
0.0
 11
1012.418983192124
 21
671.9701451998304
 31
0.0
  0
LINE
  5
2AB2
330
24B3
100
AcDbEntity
  8
SUNPOU
  6
Continuous
 62
     4
370
    -2
100
AcDbLine
 10
987.6655702781787
 20
719.4701451998302
 30
0.0
 11
1012.418983192124
 21
719.4701451998302
 31
0.0
  0
LINE
  5
2AB3
330
24B3
100
AcDbEntity
  8
SUNPOU
  6
Continuous
 62
     4
370
    -2
100
AcDbLine
 10
1006.418983192124
 20
685.9701451998304
 30
0.0
 11
1006.418983192124
 21
705.4701451998302
 31
0.0
  0
INSERT
  5
2AB4
330
24B3
100
AcDbEntity
  8
SUNPOU
  6
Continuous
 62
     4
370
    -2
100
AcDbBlockReference
  2
_OPEN
 10
1006.418983192124
 20
671.9701451998304
 30
0.0
 41
14.0
 42
14.0
 43
14.0
 50
270.0
  0
INSERT
  5
2AB5
330
24B3
100
AcDbEntity
  8
SUNPOU
  6
Continuous
 62
     4
370
    -2
100
AcDbBlockReference
  2
_OPEN
 10
1006.418983192124
 20
719.4701451998302
 30
0.0
 41
14.0
 42
14.0
 43
14.0
 50
90.0
  0
MTEXT
  5
2AB6
330
24B3
100
AcDbEntity
  8
SUNPOU
  6
Continuous
 62
     4
100
AcDbMText
 10
996.418983192124
 20
695.7201451998304
 30
0.0
 40
12.0
 41
0.0
 71
     5
 72
     5
  1
\A1;48
 11
0.0000000000000001
 21
1.0
 31
0.0
 73
     1
 44
1.0
1001
ACAD
1000
MTEXTBEGIN
1070
    73
1070
     1
1070
    44
1040
1.0
1070
    74
1070
     0
1000
MTEXTEND
  0
POINT
  5
2AB7
330
24B3
100
AcDbEntity
  8
DEFPOINTS
  6
Continuous
 62
     0
100
AcDbPoint
 10
975.6655702781788
 20
671.9701451998304
 30
0.0
  0
POINT
  5
2AB8
330
24B3
100
AcDbEntity
  8
DEFPOINTS
  6
Continuous
 62
     0
100
AcDbPoint
 10
975.6655702781788
 20
719.4701451998302
 30
0.0
  0
POINT
  5
2AB9
330
24B3
100
AcDbEntity
  8
DEFPOINTS
  6
Continuous
 62
     0
100
AcDbPoint
 10
1006.418983192124
 20
719.4701451998302
 30
0.0
  0
ENDBLK
  5
24BE
330
24B3
100
AcDbEntity
  8
0
100
AcDbBlockEnd
  0
BLOCK
  5
24C9
330
24BF
100
AcDbEntity
  8
0
100
AcDbBlockBegin
  2
*D8
 70
     1
 10
0.0
 20
0.0
 30
0.0
  3
*D8
  1

  0
LINE
  5
2A82
330
24BF
100
AcDbEntity
  8
SUNPOU
  6
Continuous
 62
     4
370
    -2
100
AcDbLine
 10
1049.765570278179
 20
460.2146642223315
 30
0.0
 11
1158.767875515724
 21
460.2146642223315
 31
0.0
  0
LINE
  5
2A83
330
24BF
100
AcDbEntity
  8
SUNPOU
  6
Continuous
 62
     4
370
    -2
100
AcDbLine
 10
1044.770088278347
 20
333.6252895022878
 30
0.0
 11
1158.767875515724
 21
333.6252895022877
 31
0.0
  0
LINE
  5
2A84
330
24BF
100
AcDbEntity
  8
SUNPOU
  6
Continuous
 62
     4
370
    -2
100
AcDbLine
 10
1152.767875515724
 20
446.2146642223315
 30
0.0
 11
1152.767875515724
 21
347.6252895022877
 31
0.0
  0
INSERT
  5
2A85
330
24BF
100
AcDbEntity
  8
SUNPOU
  6
Continuous
 62
     4
370
    -2
100
AcDbBlockReference
  2
_OPEN
 10
1152.767875515724
 20
460.2146642223315
 30
0.0
 41
14.0
 42
14.0
 43
14.0
 50
90.0
  0
INSERT
  5
2A86
330
24BF
100
AcDbEntity
  8
SUNPOU
  6
Continuous
 62
     4
370
    -2
100
AcDbBlockReference
  2
_OPEN
 10
1152.767875515724
 20
333.6252895022877
 30
0.0
 41
14.0
 42
14.0
 43
14.0
 50
270.0
  0
MTEXT
  5
2A87
330
24BF
100
AcDbEntity
  8
SUNPOU
  6
Continuous
 62
     4
100
AcDbMText
 10
1142.767875515724
 20
396.9199768623099
 30
0.0
 40
12.0
 41
0.0
 71
     5
 72
     5
  1
\A1;127
 11
0.0000000000000001
 21
1.0
 31
0.0
 73
     1
 44
1.0
1001
ACAD
1000
MTEXTBEGIN
1070
    73
1070
     1
1070
    44
1040
1.0
1070
    74
1070
     0
1000
MTEXTEND
  0
POINT
  5
2A88
330
24BF
100
AcDbEntity
  8
DEFPOINTS
  6
Continuous
 62
     0
100
AcDbPoint
 10
1037.765570278178
 20
460.2146642223315
 30
0.0
  0
POINT
  5
2A89
330
24BF
100
AcDbEntity
  8
DEFPOINTS
  6
Continuous
 62
     0
100
AcDbPoint
 10
1032.770088278347
 20
333.6252895022878
 30
0.0
  0
POINT
  5
2A8A
330
24BF
100
AcDbEntity
  8
DEFPOINTS
  6
Continuous
 62
     0
100
AcDbPoint
 10
1152.767875515724
 20
333.6252895022877
 30
0.0
  0
ENDBLK
  5
24CA
330
24BF
100
AcDbEntity
  8
0
100
AcDbBlockEnd
  0
BLOCK
  5
24D5
330
24CB
100
AcDbEntity
  8
0
100
AcDbBlockBegin
  2
*D9
 70
     1
 10
0.0
 20
0.0
 30
0.0
  3
*D9
  1

  0
LINE
  5
2A8B
330
24CB
100
AcDbEntity
  8
SUNPOU
  6
Continuous
 62
     4
370
    -2
100
AcDbLine
 10
1055.765570278178
 20
460.2146642223315
 30
0.0
 11
1126.914194850587
 21
460.2146642223315
 31
0.0
  0
LINE
  5
2A8C
330
24CB
100
AcDbEntity
  8
SUNPOU
  6
Continuous
 62
     4
370
    -2
100
AcDbLine
 10
1049.765570278179
 20
432.1239341022315
 30
0.0
 11
1126.914194850587
 21
432.1239341022315
 31
0.0
  0
LINE
  5
2A8D
330
24CB
100
AcDbEntity
  8
SUNPOU
  6
Continuous
 62
     4
370
    -2
100
AcDbLine
 10
1120.914194850587
 20
474.2146642223316
 30
0.0
 11
1120.914194850587
 21
488.2146642223315
 31
0.0
  0
LINE
  5
2A8E
330
24CB
100
AcDbEntity
  8
SUNPOU
  6
Continuous
 62
     4
370
    -2
100
AcDbLine
 10
1120.914194850587
 20
418.1239341022315
 30
0.0
 11
1120.914194850587
 21
404.1239341022315
 31
0.0
  0
LINE
  5
2A8F
330
24CB
100
AcDbEntity
  8
SUNPOU
  6
Continuous
 62
     4
370
    -2
100
AcDbLine
 10
1120.914194850587
 20
460.2146642223315
 30
0.0
 11
1120.914194850587
 21
432.1239341022315
 31
0.0
  0
INSERT
  5
2A90
330
24CB
100
AcDbEntity
  8
SUNPOU
  6
Continuous
 62
     4
370
    -2
100
AcDbBlockReference
  2
_OPEN
 10
1120.914194850587
 20
460.2146642223315
 30
0.0
 41
14.0
 42
14.0
 43
14.0
 50
270.0
  0
INSERT
  5
2A91
330
24CB
100
AcDbEntity
  8
SUNPOU
  6
Continuous
 62
     4
370
    -2
100
AcDbBlockReference
  2
_OPEN
 10
1120.914194850587
 20
432.1239341022315
 30
0.0
 41
14.0
 42
14.0
 43
14.0
 50
90.0
  0
MTEXT
  5
2A92
330
24CB
100
AcDbEntity
  8
SUNPOU
  6
Continuous
 62
     4
100
AcDbMText
 10
1110.914194850587
 20
446.1692991622817
 30
0.0
 40
12.0
 41
0.0
 71
     5
 72
     5
  1
\A1;28
 11
0.0000000000000001
 21
1.0
 31
0.0
 73
     1
 44
1.0
1001
ACAD
1000
MTEXTBEGIN
1070
    73
1070
     1
1070
    44
1040
1.0
1070
    74
1070
     0
1000
MTEXTEND
  0
POINT
  5
2A93
330
24CB
100
AcDbEntity
  8
DEFPOINTS
  6
Continuous
 62
     0
100
AcDbPoint
 10
1043.765570278178
 20
460.2146642223315
 30
0.0
  0
POINT
  5
2A94
330
24CB
100
AcDbEntity
  8
DEFPOINTS
  6
Continuous
 62
     0
100
AcDbPoint
 10
1037.765570278178
 20
432.1239341022315
 30
0.0
  0
POINT
  5
2A95
330
24CB
100
AcDbEntity
  8
DEFPOINTS
  6
Continuous
 62
     0
100
AcDbPoint
 10
1120.914194850587
 20
432.1239341022315
 30
0.0
  0
ENDBLK
  5
24D6
330
24CB
100
AcDbEntity
  8
0
100
AcDbBlockEnd
  0
BLOCK
  5
24E1
330
24D7
100
AcDbEntity
  8
0
100
AcDbBlockBegin
  2
*D10
 70
     1
 10
0.0
 20
0.0
 30
0.0
  3
*D10
  1

  0
LINE
  5
2A96
330
24D7
100
AcDbEntity
  8
SUNPOU
  6
Continuous
 62
     4
370
    -2
100
AcDbLine
 10
983.7655702781788
 20
921.6395528430302
 30
0.0
 11
983.7655702781788
 21
986.458319002166
 31
0.0
  0
LINE
  5
2A97
330
24D7
100
AcDbEntity
  8
SUNPOU
  6
Continuous
 62
     4
370
    -2
100
AcDbLine
 10
1037.765570278178
 20
923.1288455476303
 30
0.0
 11
1037.765570278178
 21
986.458319002166
 31
0.0
  0
LINE
  5
2A98
330
24D7
100
AcDbEntity
  8
SUNPOU
  6
Continuous
 62
     4
370
    -2
100
AcDbLine
 10
997.7655702781786
 20
980.4583190021659
 30
0.0
 11
1023.765570278179
 21
980.4583190021659
 31
0.0
  0
INSERT
  5
2A99
330
24D7
100
AcDbEntity
  8
SUNPOU
  6
Continuous
 62
     4
370
    -2
100
AcDbBlockReference
  2
_OPEN
 10
983.7655702781788
 20
980.4583190021659
 30
0.0
 41
14.0
 42
14.0
 43
14.0
 50
180.0
  0
INSERT
  5
2A9A
330
24D7
100
AcDbEntity
  8
SUNPOU
  6
Continuous
 62
     4
370
    -2
100
AcDbBlockReference
  2
_OPEN
 10
1037.765570278178
 20
980.4583190021659
 30
0.0
 41
14.0
 42
14.0
 43
14.0
  0
MTEXT
  5
2A9B
330
24D7
100
AcDbEntity
  8
SUNPOU
  6
Continuous
 62
     4
100
AcDbMText
 10
1010.765570278179
 20
990.4583190021661
 30
0.0
 40
12.0
 41
0.0
 71
     5
 72
     5
  1
\A1;\U+203B54
 73
     1
 44
1.0
1001
ACAD
1000
MTEXTBEGIN
1070
    73
1070
     1
1070
    44
1040
1.0
1070
    74
1070
     0
1000
MTEXTEND
  0
POINT
  5
2A9C
330
24D7
100
AcDbEntity
  8
DEFPOINTS
  6
Continuous
 62
     0
100
AcDbPoint
 10
983.7655702781788
 20
909.6395528430303
 30
0.0
  0
POINT
  5
2A9D
330
24D7
100
AcDbEntity
  8
DEFPOINTS
  6
Continuous
 62
     0
100
AcDbPoint
 10
1037.765570278178
 20
911.1288455476303
 30
0.0
  0
POINT
  5
2A9E
330
24D7
100
AcDbEntity
  8
DEFPOINTS
  6
Continuous
 62
     0
100
AcDbPoint
 10
1037.765570278178
 20
980.4583190021659
 30
0.0
  0
ENDBLK
  5
24E2
330
24D7
100
AcDbEntity
  8
0
100
AcDbBlockEnd
  0
BLOCK
  5
271F
330
2715
100
AcDbEntity
  8
0
100
AcDbBlockBegin
  2
*D11
 70
     1
 10
0.0
 20
0.0
 30
0.0
  3
*D11
  1

  0
LINE
  5
2A9F
330
2715
100
AcDbEntity
  8
SUNPOU
100
AcDbLine
 10
1049.765570278179
 20
941.4701451998302
 30
0.0
 11
1126.402585547385
 21
941.4701451998302
 31
0.0
  0
LINE
  5
2AA0
330
2715
100
AcDbEntity
  8
SUNPOU
100
AcDbLine
 10
1049.765570278179
 20
734.0701451998303
 30
0.0
 11
1126.402585547385
 21
734.0701451998303
 31
0.0
  0
LINE
  5
2AA1
330
2715
100
AcDbEntity
  8
SUNPOU
100
AcDbLine
 10
1120.402585547386
 20
927.4701451998303
 30
0.0
 11
1120.402585547386
 21
748.0701451998303
 31
0.0
  0
INSERT
  5
2AA2
330
2715
100
AcDbEntity
  8
SUNPOU
100
AcDbBlockReference
  2
_OPEN
 10
1120.402585547386
 20
941.4701451998302
 30
0.0
 41
14.0
 42
14.0
 43
14.0
 50
90.0
  0
INSERT
  5
2AA3
330
2715
100
AcDbEntity
  8
SUNPOU
100
AcDbBlockReference
  2
_OPEN
 10
1120.402585547386
 20
734.0701451998303
 30
0.0
 41
14.0
 42
14.0
 43
14.0
 50
270.0
  0
MTEXT
  5
2AA4
330
2715
100
AcDbEntity
  8
SUNPOU
100
AcDbMText
 10
1110.402585547385
 20
837.7701451998303
 30
0.0
 40
12.0
 41
0.0
 71
     5
 72
     5
  1
\A1;207
 11
0.0000000000000001
 21
1.0
 31
0.0
 73
     1
 44
1.0
1001
ACAD
1000
MTEXTBEGIN
1070
    73
1070
     1
1070
    44
1040
1.0
1070
    74
1070
     0
1000
MTEXTEND
  0
POINT
  5
2AA5
330
2715
100
AcDbEntity
  8
DEFPOINTS
 62
     0
100
AcDbPoint
 10
1037.765570278178
 20
941.4701451998302
 30
0.0
  0
POINT
  5
2AA6
330
2715
100
AcDbEntity
  8
DEFPOINTS
 62
     0
100
AcDbPoint
 10
1037.765570278178
 20
734.0701451998303
 30
0.0
  0
POINT
  5
2AA7
330
2715
100
AcDbEntity
  8
DEFPOINTS
 62
     0
100
AcDbPoint
 10
1120.402585547386
 20
734.0701451998303
 30
0.0
  0
ENDBLK
  5
2720
330
2715
100
AcDbEntity
  8
0
100
AcDbBlockEnd
  0
BLOCK
  5
272C
330
2722
100
AcDbEntity
  8
0
100
AcDbBlockBegin
  2
*D12
 70
     1
 10
0.0
 20
0.0
 30
0.0
  3
*D12
  1

  0
LINE
  5
2AA8
330
2722
100
AcDbEntity
  8
SUNPOU
100
AcDbLine
 10
1049.765570278179
 20
941.4701451998302
 30
0.0
 11
1158.767875515724
 21
941.4701451998302
 31
0.0
  0
LINE
  5
2AA9
330
2722
100
AcDbEntity
  8
SUNPOU
100
AcDbLine
 10
959.4349779213791
 20
671.9701451998304
 30
0.0
 11
1158.767875515724
 21
671.9701451998304
 31
0.0
  0
LINE
  5
2AAA
330
2722
100
AcDbEntity
  8
SUNPOU
100
AcDbLine
 10
1152.767875515724
 20
927.4701451998303
 30
0.0
 11
1152.767875515724
 21
685.9701451998304
 31
0.0
  0
INSERT
  5
2AAB
330
2722
100
AcDbEntity
  8
SUNPOU
100
AcDbBlockReference
  2
_OPEN
 10
1152.767875515724
 20
941.4701451998302
 30
0.0
 41
14.0
 42
14.0
 43
14.0
 50
90.0
  0
INSERT
  5
2AAC
330
2722
100
AcDbEntity
  8
SUNPOU
100
AcDbBlockReference
  2
_OPEN
 10
1152.767875515724
 20
671.9701451998304
 30
0.0
 41
14.0
 42
14.0
 43
14.0
 50
270.0
  0
MTEXT
  5
2AAD
330
2722
100
AcDbEntity
  8
SUNPOU
100
AcDbMText
 10
1142.767875515724
 20
806.7201451998304
 30
0.0
 40
12.0
 41
0.0
 71
     5
 72
     5
  1
\A1;270
 11
0.0000000000000001
 21
1.0
 31
0.0
 73
     1
 44
1.0
1001
ACAD
1000
MTEXTBEGIN
1070
    73
1070
     1
1070
    44
1040
1.0
1070
    74
1070
     0
1000
MTEXTEND
  0
POINT
  5
2AAE
330
2722
100
AcDbEntity
  8
DEFPOINTS
 62
     0
100
AcDbPoint
 10
1037.765570278178
 20
941.4701451998302
 30
0.0
  0
POINT
  5
2AAF
330
2722
100
AcDbEntity
  8
DEFPOINTS
 62
     0
100
AcDbPoint
 10
947.4349779213792
 20
671.9701451998304
 30
0.0
  0
POINT
  5
2AB0
330
2722
100
AcDbEntity
  8
DEFPOINTS
 62
     0
100
AcDbPoint
 10
1152.767875515724
 20
671.9701451998304
 30
0.0
  0
ENDBLK
  5
272D
330
2722
100
AcDbEntity
  8
0
100
AcDbBlockEnd
  0
BLOCK
  5
27A9
330
279F
100
AcDbEntity
  8
0
100
AcDbBlockBegin
  2
*D13
 70
     1
 10
0.0
 20
0.0
 30
0.0
  3
*D13
  1

  0
LINE
  5
2A70
330
279F
100
AcDbEntity
  8
SUNPOU
100
AcDbLine
 10
758.438829510979
 20
490.2071453987316
 30
0.0
 11
665.1024560830801
 21
490.2071453987316
 31
0.0
  0
LINE
  5
2A71
330
279F
100
AcDbEntity
  8
SUNPOU
100
AcDbLine
 10
785.8785087069788
 20
333.6239341022316
 30
0.0
 11
665.1024560830801
 21
333.6239341022316
 31
0.0
  0
LINE
  5
2A72
330
279F
100
AcDbEntity
  8
SUNPOU
100
AcDbLine
 10
671.1024560830801
 20
476.2071453987315
 30
0.0
 11
671.1024560830801
 21
347.6239341022315
 31
0.0
  0
INSERT
  5
2A73
330
279F
100
AcDbEntity
  8
SUNPOU
100
AcDbBlockReference
  2
_OPEN
 10
671.1024560830801
 20
490.2071453987316
 30
0.0
 41
14.0
 42
14.0
 43
14.0
 50
90.0
  0
INSERT
  5
2A74
330
279F
100
AcDbEntity
  8
SUNPOU
100
AcDbBlockReference
  2
_OPEN
 10
671.1024560830801
 20
333.6239341022316
 30
0.0
 41
14.0
 42
14.0
 43
14.0
 50
270.0
  0
MTEXT
  5
2A75
330
279F
100
AcDbEntity
  8
SUNPOU
100
AcDbMText
 10
661.10245608308
 20
411.9155397504816
 30
0.0
 40
12.0
 41
0.0
 71
     5
 72
     5
  1
\A1;157
 11
0.0000000000000001
 21
1.0
 31
0.0
 73
     1
 44
1.0
1001
ACAD
1000
MTEXTBEGIN
1070
    73
1070
     1
1070
    44
1040
1.0
1070
    74
1070
     0
1000
MTEXTEND
  0
POINT
  5
2A76
330
279F
100
AcDbEntity
  8
DEFPOINTS
 62
     0
100
AcDbPoint
 10
770.438829510979
 20
490.2071453987316
 30
0.0
  0
POINT
  5
2A77
330
279F
100
AcDbEntity
  8
DEFPOINTS
 62
     0
100
AcDbPoint
 10
797.8785087069788
 20
333.6239341022316
 30
0.0
  0
POINT
  5
2A78
330
279F
100
AcDbEntity
  8
DEFPOINTS
 62
     0
100
AcDbPoint
 10
671.1024560830801
 20
333.6239341022316
 30
0.0
  0
ENDBLK
  5
27AA
330
279F
100
AcDbEntity
  8
0
100
AcDbBlockEnd
  0
ENDSEC
  0
SECTION
  2
ENTITIES
  0
TEXT
  5
70F
330
19
100
AcDbEntity
  8
SUNPOU
 62
     4
100
AcDbText
 10
1392.583581941548
 20
102.4347061266651
 30
0.0
 40
12.0
  1
※　のきといの差込み寸法を示す
100
AcDbText
  0
LINE
  5
15C9
330
19
100
AcDbEntity
  8
ZUWAKU
100
AcDbLine
 10
447.293202593692
 20
60.39999986828876
 30
0.0
 11
924.8487279555389
 21
60.39999986828874
 31
0.0
  0
LINE
  5
15CA
330
19
100
AcDbEntity
  8
ZUWAKU
100
AcDbLine
 10
447.293202593692
 20
61.19999986828875
 30
0.0
 11
924.8487279555389
 21
61.19999986828876
 31
0.0
  0
LINE
  5
15CB
330
19
100
AcDbEntity
  8
ZUWAKU
100
AcDbLine
 10
447.293202593692
 20
60.79999986828875
 30
0.0
 11
924.8487279555389
 21
60.79999986828875
 31
0.0
  0
LINE
  5
15CC
330
19
100
AcDbEntity
  8
ZUWAKU
100
AcDbLine
 10
30.00000001355602
 20
91.5999998682887
 30
0.0
 11
1624.800000013556
 21
91.5999998682887
 31
0.0
  0
LINE
  5
15CD
330
19
100
AcDbEntity
  8
ZUWAKU
100
AcDbLine
 10
30.00000001355602
 20
91.19999986828871
 30
0.0
 11
1624.800000013556
 21
91.19999986828871
 31
0.0
  0
LINE
  5
15CE
330
19
100
AcDbEntity
  8
ZUWAKU
100
AcDbLine
 10
30.00000001355602
 20
90.7999998682887
 30
0.0
 11
1624.800000013556
 21
90.7999998682887
 31
0.0
  0
LINE
  5
15CF
330
19
100
AcDbEntity
  8
ZUWAKU
100
AcDbLine
 10
30.00000001355602
 20
90.39999986828869
 30
0.0
 11
1624.800000013556
 21
90.39999986828869
 31
0.0
  0
LINE
  5
15D0
330
19
100
AcDbEntity
  8
ZUWAKU
100
AcDbLine
 10
30.00000001355602
 20
89.99999986828868
 30
0.0
 11
1624.800000013556
 21
89.99999986828868
 31
0.0
  0
LWPOLYLINE
  5
15D1
330
19
100
AcDbEntity
  8
ZUWAKU
100
AcDbPolyline
 90
        4
 70
     1
 43
0.0
 10
30.40000001355589
 20
1132.799999868289
 10
30.40000001355589
 20
30.39999986828878
 10
1624.800000013556
 20
30.39999986828882
 10
1624.800000013556
 20
1132.799999868289
  0
LWPOLYLINE
  5
15D2
330
19
100
AcDbEntity
  8
ZUWAKU
100
AcDbPolyline
 90
        4
 70
     1
 43
0.0
 10
31.20000001355584
 20
1131.999999868289
 10
31.20000001355584
 20
31.19999986828873
 10
1624.000000013556
 20
31.19999986828882
 10
1624.000000013556
 20
1131.999999868289
  0
LWPOLYLINE
  5
15D3
330
19
100
AcDbEntity
  8
ZUWAKU
100
AcDbPolyline
 90
        4
 70
     1
 43
0.0
 10
30.00000001355602
 20
1133.199999868288
 10
30.00000001355602
 20
29.99999986828868
 10
1625.200000013556
 20
29.99999986828882
 10
1625.200000013556
 20
1133.199999868289
  0
LWPOLYLINE
  5
15D4
330
19
100
AcDbEntity
  8
ZUWAKU
100
AcDbPolyline
 90
        4
 70
     1
 43
0.0
 10
30.80000001355597
 20
1132.399999868289
 10
30.80000001355597
 20
30.79999986828886
 10
1624.400000013556
 20
30.79999986828882
 10
1624.400000013556
 20
1132.399999868289
  0
LWPOLYLINE
  5
15D5
330
19
100
AcDbEntity
  8
ZUWAKU
100
AcDbPolyline
 90
        4
 70
     1
 43
0.0
 10
31.60000001355593
 20
1131.599999868289
 10
31.60000001355593
 20
31.59999986828882
 10
1623.600000013556
 20
31.59999986828882
 10
1623.600000013556
 20
1131.599999868289
  0
TEXT
  5
15D6
330
19
100
AcDbEntity
  8
moji
100
AcDbText
 10
215.9155791898943
 20
55.48235612883821
 30
0.0
 40
12.0
  1
大型　のきとい
 41
0.9
  7
ｽﾀｲﾙ1
100
AcDbText
  0
INSERT
  5
15D7
330
19
100
AcDbEntity
  8
ZUWAKU
  6
Continuous
100
AcDbBlockReference
  2
*X1
 10
30.0
 20
30.0
 30
0.0
1001
ACAD
1000
HATCH
1002
{
1070
    19
1000
ANSI37
1040
0.4
1040
0.0
1000
R14_HATCH_DATA
1000
15D7
1011
31.0
1021
30.0
1031
0.0
1011
30.0
1021
31.0
1031
0.0
1011
30.0
1021
30.0
1031
1.0
1040
0.0
1010
0.0
1020
0.0
1030
1.0
1000
ANSI37
1070
     0
1070
     0
1071
        8
1071
        7
1070
     1
1070
     1
1071
       24
1040
29.00452533579573
1040
35.28969683025585
1040
-0.1989123673796348
1040
28.18442432311826
1040
37.26959581757795
1040
0.0
1040
28.18442432311826
1040
39.84999986828871
1040
-0.4142135623730912
1040
29.23442432311822
1040
40.89999986828869
1040
0.0
1040
35.18442432311804
1040
40.89999986828869
1040
0.4142135623731546
1040
36.23442432311822
1040
41.94999986828867
1040
0.0
1040
36.23442432311822
1040
45.44999986828869
1040
0.4142135623731586
1040
35.18442432311804
1040
46.49999986828869
1040
0.0
1040
28.18442432311826
1040
46.49999986828869
1040
0.4142135623730928
1040
22.58442432311836
1040
40.89999986828874
1040
0.0
1040
22.58442432311836
1040
37.26959581757821
1040
0.1989123673796619
1040
25.04472736115122
1040
31.32989885561099
1040
0.0
1040
30.86432331044057
1040
25.51030290632168
1040
-0.1989123673796613
1040
31.68442432311826
1040
23.53040391899931
1040
0.0
1040
31.68442432311826
1040
20.94999986828867
1040
-0.4142135623730911
1040
30.63442432311831
1040
19.89999986828869
1040
0.0
1040
24.68442432311849
1040
19.89999986828869
1040
0.4142135623731526
1040
23.63442432311831
1040
18.84999986828871
1040
0.0
1040
23.63442432311831
1040
15.34999986828867
1040
0.4142135623731526
1040
24.68442432311849
1040
14.29999986828869
1040
0.0
1040
31.68442432311826
1040
14.29999986828869
1040
0.4142135623731044
1040
37.2844243231184
1040
19.89999986828864
1040
0.0
1040
37.2844243231184
1040
23.53040391899919
1040
0.1989123673796604
1040
34.82412128508531
1040
29.47010088096627
1040
0.0
1071
        0
1071
        7
1070
     1
1070
     1
1071
       16
1040
47.08442432311835
1040
38.0999998682887
1040
-0.4142135623730935
1040
49.88442432311831
1040
40.89999986828869
1040
0.0
1040
53.73442432311822
1040
40.89999986828869
1040
0.4142135623731546
1040
54.7844243231184
1040
41.94999986828867
1040
0.0
1040
54.7844243231184
1040
45.44999986828869
1040
0.4142135623730951
1040
53.73442432311844
1040
46.49999986828869
1040
0.0
1040
49.88442432311808
1040
46.49999986828861
1040
0.4142135623730892
1040
41.48442432311822
1040
38.09999986828856
1040
0.0
1040
41.48442432311822
1040
22.69999986828874
1040
0.4142135623730969
1040
49.88442432311831
1040
14.29999986828869
1040
0.0
1040
53.73442432311822
1040
14.29999986828869
1040
0.4142135623731526
1040
54.7844243231184
1040
15.34999986828867
1040
0.0
1040
54.7844243231184
1040
18.84999986828871
1040
0.4142135623730891
1040
53.73442432311844
1040
19.89999986828869
1040
0.0
1040
49.88442432311831
1040
19.89999986828869
1040
-0.4142135623730928
1040
47.08442432311835
1040
22.69999986828866
1040
0.0
1071
        0
1071
        7
1070
     1
1070
     1
1071
        2
1040
48.48442432311822
1040
30.39999986828869
1040
1.0
1040
55.48442432311822
1040
30.39999986828869
1040
1.0
1071
        0
1071
        7
1070
     1
1070
     1
1071
       26
1040
74.62971728747425
1040
38.41009425541555
1040
0.0
1040
76.75299655374988
1040
45.13381193195472
1040
0.5069206636600134
1040
75.75173475535916
1040
46.49999986828869
1040
0.0
1040
72.35395599614071
1040
46.49999986828869
1040
0.3272098845218764
1040
71.35269419774999
1040
45.76618780462263
1040
0.0
1040
67.61615444848644
1040
33.93381193195485
1040
-0.3272098845219541
1040
66.61489265009549
1040
33.19999986828868
1040
0.0
1040
66.33442432311858
1040
33.19999986828868
1040
-0.4142135623731526
1040
65.2844243231184
1040
34.24999986828866
1040
0.0
1040
65.2844243231184
1040
45.44999986828869
1040
0.4142135623730951
1040
64.23442432311844
1040
46.49999986828869
1040
0.0
1040
60.73442432311821
1040
46.49999986828869
1040
0.4142135623730871
1040
59.68442432311826
1040
45.44999986828872
1040
0.0
1040
59.68442432311826
1040
15.34999986828867
1040
0.4142135623730891
1040
60.73442432311821
1040
14.29999986828869
1040
0.0
1040
64.23442432311822
1040
14.29999986828869
1040
0.4142135623731526
1040
65.2844243231184
1040
15.34999986828867
1040
0.0
1040
65.2844243231184
1040
26.54999986828872
1040
-0.4142135623731526
1040
66.33442432311858
1040
27.59999986828869
1040
0.0
1040
66.61489265009572
1040
27.59999986828869
1040
-0.3272098845218915
1040
67.61615444848644
1040
26.86618780462254
1040
0.0
1040
71.35269419774999
1040
15.03381193195483
1040
0.3272098845218902
1040
72.35395599614071
1040
14.29999986828869
1040
0.0
1040
75.75173475535916
1040
14.29999986828869
1040
0.5069206636600335
1040
76.75299655374988
1040
15.66618780462271
1040
0.0
1040
72.10021379680256
1040
30.39999986828897
1040
0.0
1071
        0
1071
        7
1070
     1
1070
     1
1071
        8
1040
86.98442432311821
1040
45.44999986828871
1040
0.4142135623731546
1040
85.93442432311803
1040
46.49999986828869
1040
0.0
1040
82.4344243231185
1040
46.49999986828869
1040
0.4142135623731507
1040
81.38442432311832
1040
45.44999986828872
1040
0.0
1040
81.38442432311832
1040
15.34999986828867
1040
0.4142135623731526
1040
82.4344243231185
1040
14.29999986828869
1040
0.0
1040
85.93442432311803
1040
14.29999986828869
1040
0.4142135623731526
1040
86.98442432311821
1040
15.34999986828867
1040
0.0
1071
        0
1071
        7
1070
     1
1070
     1
1071
       24
1040
96.7844243231184
1040
39.84999986828871
1040
-0.4142135623731546
1040
97.83442432311858
1040
40.89999986828869
1040
0.0
1040
103.7844243231184
1040
40.89999986828869
1040
0.4142135623730911
1040
104.8344243231183
1040
41.94999986828867
1040
0.0
1040
104.8344243231183
1040
45.44999986828869
1040
0.4142135623730952
1040
103.7844243231184
1040
46.49999986828869
1040
0.0
1040
96.7844243231184
1040
46.49999986828869
1040
0.4142135623731048
1040
91.18442432311827
1040
40.89999986828874
1040
0.0
1040
91.18442432311827
1040
37.26959581757821
1040
0.1989123673796613
1040
93.64472736115136
1040
31.32989885561111
1040
0.0
1040
99.46432331044071
1040
25.51030290632177
1040
-0.1989123673796402
1040
100.2844243231184
1040
23.53040391899963
1040
0.0
1040
100.2844243231184
1040
20.94999986828867
1040
-0.4142135623730911
1040
99.23442432311844
1040
19.89999986828869
1040
0.0
1040
93.2844243231184
1040
19.89999986828869
1040
0.4142135623731526
1040
92.23442432311822
1040
18.84999986828871
1040
0.0
1040
92.23442432311822
1040
15.34999986828867
1040
0.4142135623730891
1040
93.28442432311817
1040
14.29999986828869
1040
0.0
1040
100.2844243231184
1040
14.29999986828869
1040
0.4142135623730925
1040
105.8844243231183
1040
19.89999986828864
1040
0.0
1040
105.8844243231183
1040
23.53040391899919
1040
0.1989123673796675
1040
103.4241212850852
1040
29.4701008809665
1040
0.0
1040
97.60452533579609
1040
35.28969683025553
1040
-0.1989123673796652
1040
96.7844243231184
1040
37.26959581757787
1040
0.0
1071
        0
1071
        7
1070
     1
1070
     1
1071
       16
1040
115.6844243231182
1040
45.44999986828867
1040
0.414213562373103
1040
114.6344243231183
1040
46.49999986828869
1040
0.0
1040
111.1344243231183
1040
46.49999986828869
1040
0.4142135623730871
1040
110.0844243231183
1040
45.44999986828872
1040
0.0
1040
110.0844243231183
1040
19.89999986828864
1040
0.4142135623730926
1040
115.6844243231182
1040
14.29999986828869
1040
0.0
1040
122.6844243231182
1040
14.29999986828869
1040
0.4142135623731044
1040
128.2844243231184
1040
19.89999986828864
1040
0.0
1040
128.2844243231184
1040
45.44999986828869
1040
0.4142135623730951
1040
127.2344243231184
1040
46.49999986828869
1040
0.0
1040
123.7344243231182
1040
46.49999986828869
1040
0.4142135623730871
1040
122.6844243231182
1040
45.44999986828872
1040
0.0
1040
122.6844243231182
1040
21.99999986828864
1040
-0.414213562373088
1040
120.5844243231183
1040
19.89999986828869
1040
0.0
1040
117.7844243231184
1040
19.89999986828869
1040
-0.4142135623731197
1040
115.6844243231182
1040
21.99999986828864
1040
0.0
1071
        0
1071
        7
1070
     1
1070
     1
1071
        8
1040
138.0844243231183
1040
45.44999986828872
1040
0.4142135623730871
1040
137.0344243231184
1040
46.49999986828869
1040
0.0
1040
133.5344243231184
1040
46.49999986828869
1040
0.4142135623731507
1040
132.4844243231182
1040
45.44999986828872
1040
0.0
1040
132.4844243231182
1040
15.34999986828867
1040
0.4142135623730891
1040
133.5344243231181
1040
14.29999986828869
1040
0.0
1040
137.0344243231184
1040
14.29999986828869
1040
0.4142135623730891
1040
138.0844243231183
1040
15.34999986828867
1040
0.0
1071
        0
1070
     0
1070
     1
1040
0.0
1040
0.4
1070
     0
1070
     2
1040
0.7853981633974483
1040
-1801.884608655802
1040
-26.40000013171118
1040
-0.8980256121069151
1040
0.8980256121069153
1070
     0
1040
2.356194490192344
1040
-1801.884608655802
1040
-26.40000013171118
1040
-0.8980256121069153
1040
-0.8980256121069151
1070
     0
1040
0.057451373970553
1071
        8
1040
32.15970993960264
1040
30.3343471600598
1040
0.0
1040
44.80903002643436
1040
37.68812423319071
1040
0.0
1040
50.32873578487533
1040
31.02376316043012
1040
0.0
1040
61.82811997683029
1040
32.40259516117169
1040
0.0
1040
83.67694405146949
1040
33.32181969625492
1040
0.0
1040
93.79640180381512
1040
38.83715250110311
1040
0.0
1040
113.1153719583567
1040
37.45831569847871
1040
0.0
1040
135.6541592528015
1040
38.37754023356195
1040
0.0
1002
}
  0
LINE
  5
15D8
330
19
100
AcDbEntity
  8
ZUWAKU
100
AcDbLine
 10
79.88442432311831
 20
76.49999986828861
 30
0.0
 11
83.73442432311822
 21
76.4999998682887
 31
0.0
  0
LINE
  5
15D9
330
19
100
AcDbEntity
  8
ZUWAKU
100
AcDbLine
 10
83.73442432311822
 20
70.89999986828869
 30
0.0
 11
79.88442432311831
 21
70.89999986828869
 31
0.0
  0
LINE
  5
15DA
330
19
100
AcDbEntity
  8
ZUWAKU
100
AcDbLine
 10
79.88442432311831
 20
49.89999986828869
 30
0.0
 11
83.73442432311822
 21
49.89999986828869
 31
0.0
  0
LINE
  5
15DB
330
19
100
AcDbEntity
  8
ZUWAKU
100
AcDbLine
 10
83.73442432311822
 20
44.29999986828869
 30
0.0
 11
79.88442432311831
 21
44.29999986828869
 31
0.0
  0
CIRCLE
  5
15DC
330
19
100
AcDbEntity
  8
ZUWAKU
100
AcDbCircle
 10
81.98442432311821
 20
60.39999986828869
 30
0.0
 40
3.5
  0
ARC
  5
15DD
330
19
100
AcDbEntity
  8
ZUWAKU
100
AcDbCircle
 10
60.98442432311822
 20
67.26959581757809
 30
0.0
 40
2.799999999999999
100
AcDbArc
 50
180.0000000000016
 51
224.9999999999988
  0
LINE
  5
15DE
330
19
100
AcDbEntity
  8
ZUWAKU
100
AcDbLine
 10
77.08442432311835
 20
68.09999986828869
 30
0.0
 11
77.08442432311835
 21
52.6999998682887
 31
0.0
  0
LINE
  5
15DF
330
19
100
AcDbEntity
  8
ZUWAKU
100
AcDbLine
 10
71.48442432311822
 20
52.6999998682887
 30
0.0
 11
71.48442432311822
 21
68.0999998682886
 31
0.0
  0
ARC
  5
15E0
330
19
100
AcDbEntity
  8
ZUWAKU
100
AcDbCircle
 10
60.98442432311822
 20
67.26959581757809
 30
0.0
 40
8.399999999999998
100
AcDbArc
 50
180.0
 51
225.0
  0
ARC
  5
15E1
330
19
100
AcDbEntity
  8
ZUWAKU
100
AcDbCircle
 10
61.68442432311826
 20
49.89999986828869
 30
0.0
 40
5.599999999999999
100
AcDbArc
 50
270.0
 51
0.0
  0
ARC
  5
15E2
330
19
100
AcDbEntity
  8
ZUWAKU
100
AcDbCircle
 10
79.88442432311831
 20
52.6999998682887
 30
0.0
 40
8.399999999999998
100
AcDbArc
 50
180.0
 51
270.0
  0
ARC
  5
15E3
330
19
100
AcDbEntity
  8
ZUWAKU
100
AcDbCircle
 10
58.88442432311831
 20
53.5304039189993
 30
0.0
 40
8.399999999999998
100
AcDbArc
 50
0.0
 51
45.0
  0
LINE
  5
15E4
330
19
100
AcDbEntity
  8
ZUWAKU
100
AcDbLine
 10
64.82412128508531
 20
59.47010088096634
 30
0.0
 11
59.00452533579596
 21
65.28969683025569
 31
0.0
  0
LINE
  5
15E5
330
19
100
AcDbEntity
  8
ZUWAKU
100
AcDbLine
 10
61.68442432311826
 20
50.9499998682887
 30
0.0
 11
61.68442432311826
 21
53.53040391899938
 31
0.0
  0
ARC
  5
15E6
330
19
100
AcDbEntity
  8
ZUWAKU
100
AcDbCircle
 10
60.6344243231183
 20
50.9499998682887
 30
0.0
 40
1.049999999999999
100
AcDbArc
 50
270.0
 51
0.0
  0
ARC
  5
15E7
330
19
100
AcDbEntity
  8
ZUWAKU
100
AcDbCircle
 10
58.88442432311831
 20
53.53040391899938
 30
0.0
 40
2.799999999999999
100
AcDbArc
 50
0.0
 51
45.0
  0
LINE
  5
15E8
330
19
100
AcDbEntity
  8
ZUWAKU
100
AcDbLine
 10
53.63442432311831
 20
45.34999986828869
 30
0.0
 11
53.63442432311831
 21
48.84999986828869
 31
0.0
  0
ARC
  5
15E9
330
19
100
AcDbEntity
  8
ZUWAKU
100
AcDbCircle
 10
54.68442432311826
 20
45.34999986828869
 30
0.0
 40
1.049999999999999
100
AcDbArc
 50
180.0
 51
270.0
  0
ARC
  5
15EA
330
19
100
AcDbEntity
  8
ZUWAKU
100
AcDbCircle
 10
54.68442432311826
 20
48.84999986828869
 30
0.0
 40
1.049999999999999
100
AcDbArc
 50
90.0
 51
180.0
  0
LINE
  5
15EB
330
19
100
AcDbEntity
  8
ZUWAKU
100
AcDbLine
 10
54.68442432311826
 20
44.29999986828869
 30
0.0
 11
61.68442432311826
 21
44.29999986828869
 31
0.0
  0
LINE
  5
15EC
330
19
100
AcDbEntity
  8
ZUWAKU
100
AcDbLine
 10
54.68442432311826
 20
49.89999986828869
 30
0.0
 11
60.6344243231183
 21
49.89999986828869
 31
0.0
  0
LINE
  5
15ED
330
19
100
AcDbEntity
  8
ZUWAKU
100
AcDbLine
 10
55.04472736115122
 20
61.32989885561105
 30
0.0
 11
60.86432331044057
 21
55.51030290632173
 31
0.0
  0
LINE
  5
15EE
330
19
100
AcDbEntity
  8
ZUWAKU
100
AcDbLine
 10
67.2844243231184
 20
49.89999986828869
 30
0.0
 11
67.2844243231184
 21
53.53040391899938
 31
0.0
  0
ARC
  5
15EF
330
19
100
AcDbEntity
  8
ZUWAKU
100
AcDbCircle
 10
79.88442432311831
 20
52.6999998682887
 30
0.0
 40
2.799999999999999
100
AcDbArc
 50
180.0
 51
270.0
  0
ARC
  5
15F0
330
19
100
AcDbEntity
  8
ZUWAKU
100
AcDbCircle
 10
65.18442432311826
 20
75.44999986828869
 30
0.0
 40
1.049999999999999
100
AcDbArc
 50
0.0
 51
90.0
  0
ARC
  5
15F1
330
19
100
AcDbEntity
  8
ZUWAKU
100
AcDbCircle
 10
65.18442432311826
 20
71.94999986828868
 30
0.0
 40
1.049999999999999
100
AcDbArc
 50
270.0
 51
0.0
  0
LINE
  5
15F2
330
19
100
AcDbEntity
  8
ZUWAKU
100
AcDbLine
 10
58.18442432311826
 20
76.4999998682887
 30
0.0
 11
65.18442432311826
 21
76.4999998682887
 31
0.0
  0
ARC
  5
15F3
330
19
100
AcDbEntity
  8
ZUWAKU
100
AcDbCircle
 10
59.23442432311822
 20
69.84999986828869
 30
0.0
 40
1.049999999999999
100
AcDbArc
 50
90.0
 51
180.0
  0
LINE
  5
15F4
330
19
100
AcDbEntity
  8
ZUWAKU
100
AcDbLine
 10
58.18442432311826
 20
69.84999986828869
 30
0.0
 11
58.18442432311826
 21
67.269595817578
 31
0.0
  0
LINE
  5
15F5
330
19
100
AcDbEntity
  8
ZUWAKU
100
AcDbLine
 10
65.18442432311826
 20
70.89999986828869
 30
0.0
 11
59.23442432311822
 21
70.89999986828869
 31
0.0
  0
LINE
  5
15F6
330
19
100
AcDbEntity
  8
ZUWAKU
100
AcDbLine
 10
52.58442432311835
 20
70.89999986828869
 30
0.0
 11
52.58442432311835
 21
67.269595817578
 31
0.0
  0
ARC
  5
15F7
330
19
100
AcDbEntity
  8
ZUWAKU
100
AcDbCircle
 10
58.18442432311826
 20
70.89999986828869
 30
0.0
 40
5.599999999999999
100
AcDbArc
 50
90.0
 51
180.0
  0
LINE
  5
15F8
330
19
100
AcDbEntity
  8
ZUWAKU
100
AcDbLine
 10
66.23442432311822
 20
75.44999986828869
 30
0.0
 11
66.23442432311822
 21
71.94999986828868
 31
0.0
  0
ARC
  5
15F9
330
19
100
AcDbEntity
  8
ZUWAKU
100
AcDbCircle
 10
79.88442432311831
 20
68.09999986828869
 30
0.0
 40
2.799999999999999
100
AcDbArc
 50
90.0
 51
180.0
  0
ARC
  5
15FA
330
19
100
AcDbEntity
  8
ZUWAKU
100
AcDbCircle
 10
79.88442432311831
 20
68.0999998682886
 30
0.0
 40
8.399999999999998
100
AcDbArc
 50
90.0
 51
180.0
  0
LINE
  5
15FB
330
19
100
AcDbEntity
  8
ZUWAKU
100
AcDbLine
 10
188.6532591095324
 20
89.99999986828868
 30
0.0
 11
188.6532591095329
 21
31.59999986828882
 31
0.0
  0
LINE
  5
15FC
330
19
100
AcDbEntity
  8
ZUWAKU
100
AcDbLine
 10
189.0532591095325
 20
89.99999986828868
 30
0.0
 11
189.0532591095329
 21
31.59999986828882
 31
0.0
  0
LINE
  5
15FD
330
19
100
AcDbEntity
  8
ZUWAKU
100
AcDbLine
 10
188.2532591095328
 20
89.99999986828868
 30
0.0
 11
188.2532591095328
 21
31.59999986828882
 31
0.0
  0
LINE
  5
15FE
330
19
100
AcDbEntity
  8
ZUWAKU
100
AcDbLine
 10
158.2844243231184
 20
49.89999986828869
 30
0.0
 11
158.2844243231184
 21
75.44999986828869
 31
0.0
  0
LINE
  5
15FF
330
19
100
AcDbEntity
  8
ZUWAKU
100
AcDbLine
 10
152.6844243231182
 20
75.44999986828869
 30
0.0
 11
152.6844243231182
 21
51.99999986828868
 31
0.0
  0
LINE
  5
1600
330
19
100
AcDbEntity
  8
ZUWAKU
100
AcDbLine
 10
168.0844243231183
 20
45.34999986828869
 30
0.0
 11
168.0844243231183
 21
75.44999986828869
 31
0.0
  0
LINE
  5
1601
330
19
100
AcDbEntity
  8
ZUWAKU
100
AcDbLine
 10
162.4844243231182
 20
75.44999986828869
 30
0.0
 11
162.4844243231182
 21
45.34999986828869
 31
0.0
  0
ARC
  5
1602
330
19
100
AcDbEntity
  8
ZUWAKU
100
AcDbCircle
 10
129.5844243231183
 20
67.26959581757809
 30
0.0
 40
2.799999999999999
100
AcDbArc
 50
180.0000000000016
 51
224.9999999999988
  0
ARC
  5
1603
330
19
100
AcDbEntity
  8
ZUWAKU
100
AcDbCircle
 10
129.5844243231183
 20
67.26959581757809
 30
0.0
 40
8.399999999999998
100
AcDbArc
 50
180.0
 51
225.0
  0
LINE
  5
1604
330
19
100
AcDbEntity
  8
ZUWAKU
100
AcDbLine
 10
104.6297172874742
 20
68.41009425541554
 30
0.0
 11
102.1002137968025
 21
60.39999986828873
 31
0.0
  0
LINE
  5
1605
330
19
100
AcDbEntity
  8
ZUWAKU
100
AcDbLine
 10
111.3844243231183
 20
75.44999986828869
 30
0.0
 11
111.3844243231183
 21
45.34999986828869
 31
0.0
  0
LINE
  5
1606
330
19
100
AcDbEntity
  8
ZUWAKU
100
AcDbLine
 10
116.9844243231182
 20
45.34999986828869
 30
0.0
 11
116.9844243231182
 21
75.44999986828869
 31
0.0
  0
LINE
  5
1607
330
19
100
AcDbEntity
  8
ZUWAKU
100
AcDbLine
 10
140.0844243231183
 20
75.44999986828869
 30
0.0
 11
140.0844243231183
 21
49.89999986828869
 31
0.0
  0
LINE
  5
1608
330
19
100
AcDbEntity
  8
ZUWAKU
100
AcDbLine
 10
145.6844243231183
 20
51.99999986828868
 30
0.0
 11
145.6844243231183
 21
75.44999986828869
 31
0.0
  0
LINE
  5
1609
330
19
100
AcDbEntity
  8
ZUWAKU
100
AcDbLine
 10
95.28442432311839
 20
64.24999986828869
 30
0.0
 11
95.28442432311839
 21
75.44999986828869
 31
0.0
  0
LINE
  5
160A
330
19
100
AcDbEntity
  8
ZUWAKU
100
AcDbLine
 10
89.68442432311826
 20
75.44999986828869
 30
0.0
 11
89.68442432311826
 21
45.34999986828869
 31
0.0
  0
LINE
  5
160B
330
19
100
AcDbEntity
  8
ZUWAKU
100
AcDbLine
 10
101.35269419775
 20
75.76618780462263
 30
0.0
 11
97.61615444848644
 21
63.93381193195475
 31
0.0
  0
LINE
  5
160C
330
19
100
AcDbEntity
  8
ZUWAKU
100
AcDbLine
 10
150.5844243231183
 20
49.89999986828869
 30
0.0
 11
147.7844243231184
 21
49.89999986828869
 31
0.0
  0
LINE
  5
160D
330
19
100
AcDbEntity
  8
ZUWAKU
100
AcDbLine
 10
145.6844243231183
 20
44.29999986828869
 30
0.0
 11
152.6844243231182
 21
44.29999986828869
 31
0.0
  0
LINE
  5
160E
330
19
100
AcDbEntity
  8
ZUWAKU
100
AcDbLine
 10
112.4344243231182
 20
44.29999986828869
 30
0.0
 11
115.9344243231182
 21
44.29999986828869
 31
0.0
  0
LINE
  5
160F
330
19
100
AcDbEntity
  8
ZUWAKU
100
AcDbLine
 10
101.35269419775
 20
45.03381193195474
 30
0.0
 11
97.61615444848644
 21
56.86618780462262
 31
0.0
  0
ARC
  5
1610
330
19
100
AcDbEntity
  8
ZUWAKU
100
AcDbCircle
 10
96.61489265009572
 20
64.24999986828869
 30
0.0
 40
1.049999999999999
100
AcDbArc
 50
270.0
 51
342.474431626277
  0
LINE
  5
1611
330
19
100
AcDbEntity
  8
ZUWAKU
100
AcDbLine
 10
96.61489265009572
 20
63.19999986828868
 30
0.0
 11
96.33442432311836
 21
63.19999986828868
 31
0.0
  0
LINE
  5
1612
330
19
100
AcDbEntity
  8
ZUWAKU
100
AcDbLine
 10
96.33442432311836
 20
57.59999986828869
 30
0.0
 11
96.61489265009572
 21
57.59999986828869
 31
0.0
  0
ARC
  5
1613
330
19
100
AcDbEntity
  8
ZUWAKU
100
AcDbCircle
 10
96.33442432311836
 20
64.24999986828869
 30
0.0
 40
1.049999999999999
100
AcDbArc
 50
180.0
 51
270.0
  0
LINE
  5
1614
330
19
100
AcDbEntity
  8
ZUWAKU
100
AcDbLine
 10
90.73442432311821
 20
44.29999986828869
 30
0.0
 11
94.23442432311821
 21
44.29999986828869
 31
0.0
  0
ARC
  5
1615
330
19
100
AcDbEntity
  8
ZUWAKU
100
AcDbCircle
 10
94.23442432311821
 20
45.34999986828869
 30
0.0
 40
1.049999999999999
100
AcDbArc
 50
270.0
 51
0.0
  0
LINE
  5
1616
330
19
100
AcDbEntity
  8
ZUWAKU
100
AcDbLine
 10
95.28442432311839
 20
45.34999986828869
 30
0.0
 11
95.28442432311839
 21
56.54999986828869
 31
0.0
  0
LINE
  5
1617
330
19
100
AcDbEntity
  8
ZUWAKU
100
AcDbLine
 10
84.7844243231184
 20
48.84999986828869
 30
0.0
 11
84.7844243231184
 21
45.34999986828869
 31
0.0
  0
ARC
  5
1618
330
19
100
AcDbEntity
  8
ZUWAKU
100
AcDbCircle
 10
83.73442432311822
 20
45.34999986828869
 30
0.0
 40
1.049999999999999
100
AcDbArc
 50
270.0
 51
0.0
  0
ARC
  5
1619
330
19
100
AcDbEntity
  8
ZUWAKU
100
AcDbCircle
 10
83.73442432311822
 20
48.84999986828869
 30
0.0
 40
1.049999999999999
100
AcDbArc
 50
0.0
 51
90.0
  0
ARC
  5
161A
330
19
100
AcDbEntity
  8
ZUWAKU
100
AcDbCircle
 10
90.73442432311821
 20
45.34999986828869
 30
0.0
 40
1.049999999999999
100
AcDbArc
 50
180.0
 51
270.0
  0
ARC
  5
161B
330
19
100
AcDbEntity
  8
ZUWAKU
100
AcDbCircle
 10
96.61489265009572
 20
56.54999986828869
 30
0.0
 40
1.049999999999999
100
AcDbArc
 50
17.52556837372303
 51
90.0
  0
ARC
  5
161C
330
19
100
AcDbEntity
  8
ZUWAKU
100
AcDbCircle
 10
96.33442432311836
 20
56.54999986828869
 30
0.0
 40
1.049999999999999
100
AcDbArc
 50
90.0
 51
180.0
  0
ARC
  5
161D
330
19
100
AcDbEntity
  8
ZUWAKU
100
AcDbCircle
 10
112.4344243231182
 20
45.34999986828869
 30
0.0
 40
1.049999999999999
100
AcDbArc
 50
180.0
 51
270.0
  0
LINE
  5
161E
330
19
100
AcDbEntity
  8
ZUWAKU
100
AcDbLine
 10
102.3539559961409
 20
44.29999986828869
 30
0.0
 11
105.7517347553589
 21
44.29999986828869
 31
0.0
  0
ARC
  5
161F
330
19
100
AcDbEntity
  8
ZUWAKU
100
AcDbCircle
 10
105.7517347553589
 20
45.34999986828869
 30
0.0
 40
1.049999999999999
100
AcDbArc
 50
270.0
 51
17.52556837372303
  0
LINE
  5
1620
330
19
100
AcDbEntity
  8
ZUWAKU
100
AcDbLine
 10
106.7529965537499
 20
45.66618780462263
 30
0.0
 11
102.1002137968025
 21
60.39999986828873
 31
0.0
  0
ARC
  5
1621
330
19
100
AcDbEntity
  8
ZUWAKU
100
AcDbCircle
 10
102.3539559961409
 20
45.34999986828869
 30
0.0
 40
1.049999999999999
100
AcDbArc
 50
197.525568373723
 51
270.0
  0
ARC
  5
1622
330
19
100
AcDbEntity
  8
ZUWAKU
100
AcDbCircle
 10
145.6844243231183
 20
49.89999986828869
 30
0.0
 40
5.599999999999999
100
AcDbArc
 50
180.0
 51
270.0
  0
ARC
  5
1623
330
19
100
AcDbEntity
  8
ZUWAKU
100
AcDbCircle
 10
130.2844243231184
 20
49.89999986828869
 30
0.0
 40
5.599999999999999
100
AcDbArc
 50
270.0
 51
0.0
  0
LINE
  5
1624
330
19
100
AcDbEntity
  8
ZUWAKU
100
AcDbLine
 10
133.4241212850854
 20
59.47010088096634
 30
0.0
 11
127.6045253357958
 21
65.28969683025569
 31
0.0
  0
LINE
  5
1625
330
19
100
AcDbEntity
  8
ZUWAKU
100
AcDbLine
 10
130.2844243231184
 20
50.9499998682887
 30
0.0
 11
130.2844243231184
 21
53.53040391899938
 31
0.0
  0
ARC
  5
1626
330
19
100
AcDbEntity
  8
ZUWAKU
100
AcDbCircle
 10
127.4844243231182
 20
53.53040391899938
 30
0.0
 40
2.799999999999999
100
AcDbArc
 50
0.0
 51
45.0
  0
ARC
  5
1627
330
19
100
AcDbEntity
  8
ZUWAKU
100
AcDbCircle
 10
129.2344243231182
 20
50.9499998682887
 30
0.0
 40
1.049999999999999
100
AcDbArc
 50
270.0
 51
0.0
  0
LINE
  5
1628
330
19
100
AcDbEntity
  8
ZUWAKU
100
AcDbLine
 10
122.2344243231182
 20
45.34999986828869
 30
0.0
 11
122.2344243231182
 21
48.84999986828869
 31
0.0
  0
ARC
  5
1629
330
19
100
AcDbEntity
  8
ZUWAKU
100
AcDbCircle
 10
123.2844243231184
 20
45.34999986828869
 30
0.0
 40
1.049999999999999
100
AcDbArc
 50
180.0
 51
270.0
  0
ARC
  5
162A
330
19
100
AcDbEntity
  8
ZUWAKU
100
AcDbCircle
 10
115.9344243231182
 20
45.34999986828869
 30
0.0
 40
1.049999999999999
100
AcDbArc
 50
270.0
 51
0.0
  0
ARC
  5
162B
330
19
100
AcDbEntity
  8
ZUWAKU
100
AcDbCircle
 10
123.2844243231184
 20
48.84999986828869
 30
0.0
 40
1.049999999999999
100
AcDbArc
 50
90.0
 51
180.0
  0
LINE
  5
162C
330
19
100
AcDbEntity
  8
ZUWAKU
100
AcDbLine
 10
123.2844243231184
 20
49.89999986828869
 30
0.0
 11
129.2344243231182
 21
49.89999986828869
 31
0.0
  0
LINE
  5
162D
330
19
100
AcDbEntity
  8
ZUWAKU
100
AcDbLine
 10
123.2844243231184
 20
44.29999986828869
 30
0.0
 11
130.2844243231184
 21
44.29999986828869
 31
0.0
  0
LINE
  5
162E
330
19
100
AcDbEntity
  8
ZUWAKU
100
AcDbLine
 10
123.6447273611513
 20
61.32989885561105
 30
0.0
 11
129.4643233104407
 21
55.51030290632173
 31
0.0
  0
LINE
  5
162F
330
19
100
AcDbEntity
  8
ZUWAKU
100
AcDbLine
 10
135.8844243231183
 20
49.89999986828869
 30
0.0
 11
135.8844243231183
 21
53.53040391899938
 31
0.0
  0
ARC
  5
1630
330
19
100
AcDbEntity
  8
ZUWAKU
100
AcDbCircle
 10
127.4844243231182
 20
53.5304039189993
 30
0.0
 40
8.399999999999998
100
AcDbArc
 50
0.0
 51
45.0
  0
ARC
  5
1631
330
19
100
AcDbEntity
  8
ZUWAKU
100
AcDbCircle
 10
147.7844243231184
 20
51.99999986828868
 30
0.0
 40
2.099999999999999
100
AcDbArc
 50
180.0
 51
270.0
  0
ARC
  5
1632
330
19
100
AcDbEntity
  8
ZUWAKU
100
AcDbCircle
 10
152.6844243231182
 20
49.89999986828869
 30
0.0
 40
5.599999999999999
100
AcDbArc
 50
270.0
 51
0.0
  0
LINE
  5
1633
330
19
100
AcDbEntity
  8
ZUWAKU
100
AcDbLine
 10
163.5344243231184
 20
44.29999986828869
 30
0.0
 11
167.0344243231184
 21
44.29999986828869
 31
0.0
  0
ARC
  5
1634
330
19
100
AcDbEntity
  8
ZUWAKU
100
AcDbCircle
 10
163.5344243231184
 20
45.34999986828869
 30
0.0
 40
1.049999999999999
100
AcDbArc
 50
180.0
 51
270.0
  0
ARC
  5
1635
330
19
100
AcDbEntity
  8
ZUWAKU
100
AcDbCircle
 10
150.5844243231183
 20
51.99999986828868
 30
0.0
 40
2.099999999999999
100
AcDbArc
 50
270.0
 51
0.0
  0
ARC
  5
1636
330
19
100
AcDbEntity
  8
ZUWAKU
100
AcDbCircle
 10
167.0344243231184
 20
45.34999986828869
 30
0.0
 40
1.049999999999999
100
AcDbArc
 50
270.0
 51
0.0
  0
LINE
  5
1637
330
19
100
AcDbEntity
  8
ZUWAKU
100
AcDbLine
 10
115.9344243231182
 20
76.4999998682887
 30
0.0
 11
112.4344243231182
 21
76.4999998682887
 31
0.0
  0
ARC
  5
1638
330
19
100
AcDbEntity
  8
ZUWAKU
100
AcDbCircle
 10
94.23442432311821
 20
75.44999986828869
 30
0.0
 40
1.049999999999999
100
AcDbArc
 50
0.0
 51
90.0
  0
LINE
  5
1639
330
19
100
AcDbEntity
  8
ZUWAKU
100
AcDbLine
 10
94.23442432311821
 20
76.4999998682887
 30
0.0
 11
90.73442432311821
 21
76.4999998682887
 31
0.0
  0
ARC
  5
163A
330
19
100
AcDbEntity
  8
ZUWAKU
100
AcDbCircle
 10
83.73442432311822
 20
75.44999986828869
 30
0.0
 40
1.049999999999999
100
AcDbArc
 50
0.0
 51
90.0
  0
ARC
  5
163B
330
19
100
AcDbEntity
  8
ZUWAKU
100
AcDbCircle
 10
90.73442432311821
 20
75.44999986828869
 30
0.0
 40
1.049999999999999
100
AcDbArc
 50
90.0
 51
180.0
  0
ARC
  5
163C
330
19
100
AcDbEntity
  8
ZUWAKU
100
AcDbCircle
 10
83.73442432311822
 20
71.94999986828868
 30
0.0
 40
1.049999999999999
100
AcDbArc
 50
270.0
 51
0.0
  0
LINE
  5
163D
330
19
100
AcDbEntity
  8
ZUWAKU
100
AcDbLine
 10
84.7844243231184
 20
75.44999986828869
 30
0.0
 11
84.7844243231184
 21
71.94999986828868
 31
0.0
  0
ARC
  5
163E
330
19
100
AcDbEntity
  8
ZUWAKU
100
AcDbCircle
 10
112.4344243231182
 20
75.44999986828869
 30
0.0
 40
1.049999999999999
100
AcDbArc
 50
90.0
 51
180.0
  0
LINE
  5
163F
330
19
100
AcDbEntity
  8
ZUWAKU
100
AcDbLine
 10
102.3539559961409
 20
76.4999998682887
 30
0.0
 11
105.7517347553589
 21
76.4999998682887
 31
0.0
  0
ARC
  5
1640
330
19
100
AcDbEntity
  8
ZUWAKU
100
AcDbCircle
 10
105.7517347553589
 20
75.44999986828869
 30
0.0
 40
1.049999999999999
100
AcDbArc
 50
342.474431626277
 51
90.0
  0
LINE
  5
1641
330
19
100
AcDbEntity
  8
ZUWAKU
100
AcDbLine
 10
106.7529965537499
 20
75.13381193195475
 30
0.0
 11
104.6297172874742
 21
68.41009425541554
 31
0.0
  0
ARC
  5
1642
330
19
100
AcDbEntity
  8
ZUWAKU
100
AcDbCircle
 10
102.3539559961409
 20
75.44999986828869
 30
0.0
 40
1.049999999999999
100
AcDbArc
 50
90.0
 51
162.474431626277
  0
LINE
  5
1643
330
19
100
AcDbEntity
  8
ZUWAKU
100
AcDbLine
 10
126.7844243231184
 20
76.4999998682887
 30
0.0
 11
133.7844243231184
 21
76.4999998682887
 31
0.0
  0
LINE
  5
1644
330
19
100
AcDbEntity
  8
ZUWAKU
100
AcDbLine
 10
133.7844243231184
 20
70.89999986828869
 30
0.0
 11
127.8344243231183
 21
70.89999986828869
 31
0.0
  0
ARC
  5
1645
330
19
100
AcDbEntity
  8
ZUWAKU
100
AcDbCircle
 10
127.8344243231183
 20
69.84999986828869
 30
0.0
 40
1.049999999999999
100
AcDbArc
 50
90.0
 51
180.0
  0
LINE
  5
1646
330
19
100
AcDbEntity
  8
ZUWAKU
100
AcDbLine
 10
126.7844243231184
 20
69.84999986828869
 30
0.0
 11
126.7844243231184
 21
67.269595817578
 31
0.0
  0
ARC
  5
1647
330
19
100
AcDbEntity
  8
ZUWAKU
100
AcDbCircle
 10
115.9344243231182
 20
75.44999986828869
 30
0.0
 40
1.049999999999999
100
AcDbArc
 50
0.0
 51
90.0
  0
LINE
  5
1648
330
19
100
AcDbEntity
  8
ZUWAKU
100
AcDbLine
 10
121.1844243231182
 20
70.89999986828869
 30
0.0
 11
121.1844243231182
 21
67.269595817578
 31
0.0
  0
ARC
  5
1649
330
19
100
AcDbEntity
  8
ZUWAKU
100
AcDbCircle
 10
126.7844243231184
 20
70.89999986828869
 30
0.0
 40
5.599999999999999
100
AcDbArc
 50
90.0
 51
180.0
  0
ARC
  5
164A
330
19
100
AcDbEntity
  8
ZUWAKU
100
AcDbCircle
 10
144.6344243231183
 20
75.44999986828869
 30
0.0
 40
1.049999999999999
100
AcDbArc
 50
0.0
 51
90.0
  0
ARC
  5
164B
330
19
100
AcDbEntity
  8
ZUWAKU
100
AcDbCircle
 10
141.1344243231183
 20
75.44999986828869
 30
0.0
 40
1.049999999999999
100
AcDbArc
 50
90.0
 51
180.0
  0
LINE
  5
164C
330
19
100
AcDbEntity
  8
ZUWAKU
100
AcDbLine
 10
144.6344243231183
 20
76.4999998682887
 30
0.0
 11
141.1344243231183
 21
76.4999998682887
 31
0.0
  0
ARC
  5
164D
330
19
100
AcDbEntity
  8
ZUWAKU
100
AcDbCircle
 10
133.7844243231184
 20
75.44999986828869
 30
0.0
 40
1.049999999999999
100
AcDbArc
 50
0.0
 51
90.0
  0
ARC
  5
164E
330
19
100
AcDbEntity
  8
ZUWAKU
100
AcDbCircle
 10
133.7844243231184
 20
71.94999986828868
 30
0.0
 40
1.049999999999999
100
AcDbArc
 50
270.0
 51
0.0
  0
LINE
  5
164F
330
19
100
AcDbEntity
  8
ZUWAKU
100
AcDbLine
 10
134.8344243231183
 20
75.44999986828869
 30
0.0
 11
134.8344243231183
 21
71.94999986828868
 31
0.0
  0
LINE
  5
1650
330
19
100
AcDbEntity
  8
ZUWAKU
100
AcDbLine
 10
167.0344243231184
 20
76.4999998682887
 30
0.0
 11
163.5344243231184
 21
76.4999998682887
 31
0.0
  0
ARC
  5
1651
330
19
100
AcDbEntity
  8
ZUWAKU
100
AcDbCircle
 10
163.5344243231184
 20
75.44999986828869
 30
0.0
 40
1.049999999999999
100
AcDbArc
 50
90.0
 51
180.0
  0
ARC
  5
1652
330
19
100
AcDbEntity
  8
ZUWAKU
100
AcDbCircle
 10
157.2344243231182
 20
75.44999986828869
 30
0.0
 40
1.049999999999999
100
AcDbArc
 50
0.0
 51
90.0
  0
LINE
  5
1653
330
19
100
AcDbEntity
  8
ZUWAKU
100
AcDbLine
 10
157.2344243231182
 20
76.4999998682887
 30
0.0
 11
153.7344243231182
 21
76.4999998682887
 31
0.0
  0
ARC
  5
1654
330
19
100
AcDbEntity
  8
ZUWAKU
100
AcDbCircle
 10
153.7344243231182
 20
75.44999986828869
 30
0.0
 40
1.049999999999999
100
AcDbArc
 50
90.0
 51
180.0
  0
ARC
  5
1655
330
19
100
AcDbEntity
  8
ZUWAKU
100
AcDbCircle
 10
167.0344243231184
 20
75.44999986828869
 30
0.0
 40
1.049999999999999
100
AcDbArc
 50
0.0
 51
90.0
  0
TEXT
  5
1656
330
19
100
AcDbEntity
  8
moji
100
AcDbText
 10
509.6544053752581
 20
66.00984198310346
 30
0.0
 40
11.2
  1
曲り（出）
 41
0.9
  7
ｽﾀｲﾙ1
100
AcDbText
  0
TEXT
  5
1657
330
19
100
AcDbEntity
  8
moji
100
AcDbText
 10
509.6544053752581
 20
36.40984198310353
 30
0.0
 40
11.2
  1
Ｖ３００
 41
0.9
  7
ｽﾀｲﾙ1
100
AcDbText
  0
LINE
  5
1658
330
19
100
AcDbEntity
  8
ZUWAKU
100
AcDbLine
 10
446.4932025936918
 20
89.99999986828868
 30
0.0
 11
446.4932025936918
 21
31.59999986828882
 31
0.0
  0
LINE
  5
1659
330
19
100
AcDbEntity
  8
ZUWAKU
100
AcDbLine
 10
447.2932025936915
 20
89.99999986828868
 30
0.0
 11
447.293202593692
 21
31.59999986828882
 31
0.0
  0
LINE
  5
165A
330
19
100
AcDbEntity
  8
ZUWAKU
100
AcDbLine
 10
446.8932025936915
 20
89.99999986828868
 30
0.0
 11
446.8932025936919
 21
31.59999986828882
 31
0.0
  0
TEXT
  5
165B
330
19
100
AcDbEntity
  8
ZUWAKU
100
AcDbText
 10
449.4480926381111
 20
49.31071294505992
 30
0.0
 40
8.0
  1
サイズ
 41
0.9
  7
ｽﾀｲﾙ1
100
AcDbText
  0
TEXT
  5
165C
330
19
100
AcDbEntity
  8
ZUWAKU
100
AcDbText
 10
449.4480926381107
 20
78.11071294505985
 30
0.0
 40
8.0
  1
品名
 41
0.9
  7
ｽﾀｲﾙ1
100
AcDbText
  0
LINE
  5
165D
330
19
100
AcDbEntity
  8
ZUWAKU
100
AcDbLine
 10
1327.634405033964
 20
60.39999986828874
 30
0.0
 11
1424.498021110638
 21
60.39999986828875
 31
0.0
  0
LINE
  5
165E
330
19
100
AcDbEntity
  8
ZUWAKU
100
AcDbLine
 10
1327.634405033965
 20
60.79999986828876
 30
0.0
 11
1424.498021110638
 21
60.79999986828875
 31
0.0
  0
LINE
  5
165F
330
19
100
AcDbEntity
  8
ZUWAKU
100
AcDbLine
 10
1327.634405033964
 20
61.19999986828875
 30
0.0
 11
1424.498021110638
 21
61.19999986828875
 31
0.0
  0
TEXT
  5
1660
330
19
100
AcDbEntity
  8
ZUWAKU
100
AcDbText
 10
1343.373092964378
 20
56.55266196976356
 30
0.0
 40
11.2
  1
　　．　　．　　
 41
0.9
  7
ｽﾀｲﾙ1
100
AcDbText
  0
LINE
  5
1661
330
19
100
AcDbEntity
  8
ZUWAKU
100
AcDbLine
 10
1040.398359009838
 20
60.39999986828876
 30
0.0
 11
1135.053911545781
 21
60.39999986828876
 31
0.0
  0
LINE
  5
1662
330
19
100
AcDbEntity
  8
ZUWAKU
100
AcDbLine
 10
1040.398359009838
 20
60.79999986828875
 30
0.0
 11
1135.053911545781
 21
60.79999986828875
 31
0.0
  0
LINE
  5
1663
330
19
100
AcDbEntity
  8
ZUWAKU
100
AcDbLine
 10
1040.398359009838
 20
61.19999986828875
 30
0.0
 11
1135.053911545781
 21
61.19999986828875
 31
0.0
  0
TEXT
  5
1664
330
19
100
AcDbEntity
  8
moji
100
AcDbText
 10
956.4928639955601
 20
53.88523531160865
 30
0.0
 40
11.2
  1
ＧＵ１３
 41
0.9
  7
ｽﾀｲﾙ1
100
AcDbText
  0
LINE
  5
1665
330
19
100
AcDbEntity
  8
ZUWAKU
100
AcDbLine
 10
925.2487279555385
 20
89.99999986828868
 30
0.0
 11
925.2487279555388
 21
31.59999986828882
 31
0.0
  0
LINE
  5
1666
330
19
100
AcDbEntity
  8
ZUWAKU
100
AcDbLine
 10
925.6487279555384
 20
89.99999986828868
 30
0.0
 11
925.648727955539
 21
31.59999986828882
 31
0.0
  0
LINE
  5
1667
330
19
100
AcDbEntity
  8
ZUWAKU
100
AcDbLine
 10
924.8487279555389
 20
89.99999986828868
 30
0.0
 11
924.8487279555389
 21
31.59999986828882
 31
0.0
  0
TEXT
  5
1668
330
19
100
AcDbEntity
  8
moji
100
AcDbText
 10
1086.081815958181
 20
66.00984198310346
 30
0.0
 40
11.2
  1
Ａ３
 41
0.9
  7
ｽﾀｲﾙ1
100
AcDbText
  0
LINE
  5
1669
330
19
100
AcDbEntity
  8
ZUWAKU
100
AcDbLine
 10
1039.998359009838
 20
89.99999986828868
 30
0.0
 11
1039.998359009838
 21
31.59999986828882
 31
0.0
  0
LINE
  5
166A
330
19
100
AcDbEntity
  8
ZUWAKU
100
AcDbLine
 10
1040.398359009838
 20
89.99999986828868
 30
0.0
 11
1040.398359009838
 21
31.59999986828882
 31
0.0
  0
LINE
  5
166B
330
19
100
AcDbEntity
  8
ZUWAKU
100
AcDbLine
 10
1039.598359009838
 20
89.99999986828868
 30
0.0
 11
1039.598359009838
 21
31.59999986828882
 31
0.0
  0
TEXT
  5
166D
330
19
100
AcDbEntity
  8
ZUWAKU
100
AcDbText
 10
1043.353249054257
 20
49.31071294505992
 30
0.0
 40
8.0
  1
縮尺
 41
0.9
  7
ｽﾀｲﾙ1
100
AcDbText
  0
TEXT
  5
166E
330
19
100
AcDbEntity
  8
moji
100
AcDbText
 10
1086.081815958181
 20
36.40984198310353
 30
0.0
 40
11.2
  1
１/４
 41
0.9
  7
ｽﾀｲﾙ1
100
AcDbText
  0
TEXT
  5
166F
330
19
100
AcDbEntity
  8
ZUWAKU
100
AcDbText
 10
928.6036179999578
 20
78.11071294505985
 30
0.0
 40
8.0
  1
品番
 41
0.9
  7
ｽﾀｲﾙ1
100
AcDbText
  0
TEXT
  5
1670
330
19
100
AcDbEntity
  8
ZUWAKU
100
AcDbText
 10
1043.353249054257
 20
78.11071294505985
 30
0.0
 40
8.0
  1
用紙
 41
0.9
  7
ｽﾀｲﾙ1
100
AcDbText
  0
LINE
  5
1671
330
19
100
AcDbEntity
  8
ZUWAKU
100
AcDbLine
 10
1327.234405033965
 20
89.99999986828868
 30
0.0
 11
1327.234405033965
 21
31.59999986828882
 31
0.0
  0
LINE
  5
1672
330
19
100
AcDbEntity
  8
ZUWAKU
100
AcDbLine
 10
1327.634405033965
 20
89.99999986828868
 30
0.0
 11
1327.634405033965
 21
31.59999986828882
 31
0.0
  0
LINE
  5
1673
330
19
100
AcDbEntity
  8
ZUWAKU
100
AcDbLine
 10
1326.834405033965
 20
89.99999986828868
 30
0.0
 11
1326.834405033965
 21
31.59999986828882
 31
0.0
  0
LINE
  5
1674
330
19
100
AcDbEntity
  8
ZUWAKU
100
AcDbLine
 10
1135.45391154578
 20
89.99999986828868
 30
0.0
 11
1135.453911545781
 21
31.59999986828882
 31
0.0
  0
LINE
  5
1675
330
19
100
AcDbEntity
  8
ZUWAKU
100
AcDbLine
 10
1135.853911545781
 20
89.99999986828868
 30
0.0
 11
1135.853911545781
 21
31.59999986828882
 31
0.0
  0
LINE
  5
1676
330
19
100
AcDbEntity
  8
ZUWAKU
100
AcDbLine
 10
1135.053911545781
 20
89.99999986828868
 30
0.0
 11
1135.053911545781
 21
31.59999986828882
 31
0.0
  0
TEXT
  5
1677
330
19
100
AcDbEntity
  8
ZUWAKU
100
AcDbText
 10
1330.589295078384
 20
78.11071294505985
 30
0.0
 40
8.0
  1
DATE
 41
0.9
  7
ｽﾀｲﾙ1
100
AcDbText
  0
LINE
  5
1678
330
19
100
AcDbEntity
  8
ZUWAKU
100
AcDbLine
 10
1424.498021110638
 20
89.99999986828868
 30
0.0
 11
1424.498021110638
 21
31.59999986828882
 31
0.0
  0
LINE
  5
1679
330
19
100
AcDbEntity
  8
ZUWAKU
100
AcDbLine
 10
1424.898021110639
 20
89.99999986828868
 30
0.0
 11
1424.898021110639
 21
31.59999986828882
 31
0.0
  0
LINE
  5
167A
330
19
100
AcDbEntity
  8
ZUWAKU
100
AcDbLine
 10
1425.298021110638
 20
89.99999986828868
 30
0.0
 11
1425.298021110639
 21
31.59999986828882
 31
0.0
  0
LINE
  5
167B
330
19
100
AcDbEntity
  8
ZUWAKU
100
AcDbLine
 10
1425.698021110638
 20
89.99999986828868
 30
0.0
 11
1425.698021110639
 21
31.59999986828882
 31
0.0
  0
TEXT
  5
167C
330
19
100
AcDbEntity
  8
ZUWAKU
100
AcDbText
 10
1444.021385974261
 20
55.65049852632239
 30
0.0
 40
12.0
  1
積水化学工業株式会社
 41
0.9
  7
ｽﾀｲﾙ1
100
AcDbText
  0
LINE
  5
181A
330
19
100
AcDbEntity
  8
SEIHIN
  6
Continuous
 62
     3
100
AcDbLine
 10
477.1704294296691
 20
333.6239341022316
 30
0.0
 11
402.1705294296693
 21
333.6239341022316
 31
0.0
  0
LINE
  5
181B
330
19
100
AcDbEntity
  8
SEIHIN
  6
Continuous
 62
     3
100
AcDbLine
 10
315.3604294296715
 20
488.1238741022315
 30
0.0
 11
566.1705294296694
 21
488.1238741022316
 31
0.0
  0
LINE
  5
181C
330
19
100
AcDbEntity
  8
SEIHIN
  6
Continuous
 62
     3
100
AcDbLine
 10
566.1705294296694
 20
463.6238741022314
 30
0.0
 11
299.6702294296692
 21
463.6238741022315
 31
0.0
  0
LINE
  5
181D
330
19
100
AcDbEntity
  8
SEIHIN
  6
Continuous
 62
     3
100
AcDbLine
 10
297.6702294296692
 20
465.6238741022315
 30
0.0
 11
297.6702294296692
 21
487.1238741022315
 31
0.0
  0
LINE
  5
181E
330
19
100
AcDbEntity
  8
SEIHIN
  6
Continuous
 62
     3
100
AcDbLine
 10
309.8858294296692
 20
462.7431741022315
 30
0.0
 11
325.1850294296692
 21
335.3853941022316
 31
0.0
  0
ARC
  5
181F
330
19
100
AcDbEntity
  8
SEIHIN
  6
Continuous
 62
     3
100
AcDbCircle
 10
299.6702294296692
 20
465.6238741022315
 30
0.0
 40
2.0
100
AcDbArc
 50
179.9999999999992
 51
270.0
  0
ARC
  5
1820
330
19
100
AcDbEntity
  8
SEIHIN
  6
Continuous
 62
     3
100
AcDbCircle
 10
308.8929968283182
 20
462.6239030205677
 30
0.0
 40
0.9999710821951779
100
AcDbArc
 50
6.850235553456814
 51
89.99813202616902
  0
LINE
  5
1821
330
19
100
AcDbEntity
  8
SEIHIN
  6
Continuous
 62
     3
100
AcDbLine
 10
327.1707294296693
 20
333.6239341022316
 30
0.0
 11
402.1705294296693
 21
333.6239341022316
 31
0.0
  0
ARC
  5
1822
330
19
100
AcDbEntity
  8
SEIHIN
  6
Continuous
 62
     3
100
AcDbCircle
 10
327.1707427008796
 20
335.6239223298623
 30
0.0
 40
1.999988227674721
100
AcDbArc
 50
186.8496749234757
 51
269.9996198055907
  0
ARC
  5
1823
330
19
100
AcDbEntity
  8
SEIHIN
  6
Continuous
 62
     3
100
AcDbCircle
 10
317.2702294296692
 20
490.1239741022314
 30
0.0
 40
3.000000000000056
100
AcDbArc
 50
0.0000000000008142
 51
90.0
  0
LINE
  5
1824
330
19
100
AcDbEntity
  8
SEIHIN
  6
Continuous
 62
     3
100
AcDbLine
 10
298.6702294296692
 20
488.1238741022315
 30
0.0
 11
315.3604294296692
 21
488.1238741022315
 31
0.0
  0
ARC
  5
1825
330
19
100
AcDbEntity
  8
SEIHIN
  6
Continuous
 62
     3
100
AcDbCircle
 10
298.6702294296692
 20
487.1238741022316
 30
0.0
 40
0.9999999999999431
100
AcDbArc
 50
90.0
 51
180.0000000000032
  0
ARC
  5
1826
330
19
100
AcDbEntity
  8
SEIHIN
  6
Continuous
 62
     3
100
AcDbCircle
 10
310.558833364702
 20
492.5091796925855
 30
0.0
 40
10.00004481440134
100
AcDbArc
 50
333.9899627345487
 51
346.2002340776435
  0
ARC
  5
1827
330
19
100
AcDbEntity
  8
SEIHIN
  6
Continuous
 62
     3
100
AcDbCircle
 10
309.7701848937122
 20
493.1238575091856
 30
0.0
 40
7.500044535975201
100
AcDbArc
 50
318.1901594788633
 51
0.0001267607806797
  0
LINE
  5
1828
330
19
100
AcDbEntity
  8
SEIHIN
  6
Continuous
 62
     3
100
AcDbLine
 10
566.1705294296694
 20
334.6239341022316
 30
0.0
 11
566.1705294296694
 21
491.4224741022316
 31
0.0
  0
LINE
  5
1829
330
19
100
AcDbEntity
  8
SEIHIN
  6
Continuous
 62
     3
100
AcDbLine
 10
561.1702294296692
 20
463.6238741022313
 30
0.0
 11
561.1702294296692
 21
333.6239341022316
 31
0.0
  0
LINE
  5
182A
330
19
100
AcDbEntity
  8
SEIHIN
  6
Continuous
 62
     3
100
AcDbLine
 10
561.1705294296694
 20
333.6239341022316
 30
0.0
 11
470.4140294296694
 21
333.6239341022316
 31
0.0
  0
LINE
  5
182B
330
19
100
AcDbEntity
  8
SEIHIN
  6
Continuous
 62
     3
100
AcDbLine
 10
561.1705294296694
 20
333.6239341022316
 30
0.0
 11
566.1705294296694
 21
334.6239341022316
 31
0.0
  0
LINE
  5
182C
330
19
100
AcDbEntity
  8
SEIHIN
  6
Continuous
 62
     3
100
AcDbLine
 10
518.6708294296695
 20
491.4215741022315
 30
0.0
 11
566.1712294296689
 21
491.4214741022315
 31
0.0
  0
LINE
  5
182D
330
19
100
AcDbEntity
  8
SEIHIN
  6
Continuous
 62
     3
100
AcDbLine
 10
518.6708294296695
 20
488.1240741022314
 30
0.0
 11
518.6708294296695
 21
491.4215741022315
 31
0.0
  0
DIMENSION
  5
2309
330
19
100
AcDbEntity
  8
SUNPOU
  6
Continuous
100
AcDbDimension
  2
*D2
 10
1037.765570278178
 20
568.1603153784581
 30
0.0
 11
903.015570278179
 21
578.1603153784581
 31
0.0
 70
    32
 71
     5
 42
-1.0
  3
STANDARD
100
AcDbAlignedDimension
 13
768.2655702781792
 23
538.3481473482104
 33
0.0
 14
1037.765570278178
 24
487.349771326766
 34
0.0
100
AcDbRotatedDimension
1001
ACAD
1000
DSTYLE
1002
{
1070
    41
1040
14.0
1070
    42
1040
12.0
1070
    43
1040
28.0
1070
    44
1040
6.0
1070
    73
1070
     0
1070
    74
1070
     0
1070
    77
1070
     3
1070
   140
1040
12.0
1070
   141
1040
150.0
1070
   143
1040
0.03937
1070
   147
1040
4.0
1070
   172
1070
     1
1070
   173
1070
     1
1070
   176
1070
     4
1070
   177
1070
     4
1070
   178
1070
     4
1070
   271
1070
     0
1070
   272
1070
     2
1070
     6
1000
OPEN
1070
     7
1000
OPEN
1002
}
  0
DIMENSION
  5
230A
330
19
100
AcDbEntity
  8
SUNPOU
  6
Continuous
100
AcDbDimension
  2
*D3
 10
975.0171400200974
 20
538.3593977525759
 30
0.0
 11
871.6413551491383
 21
548.3593977525758
 31
0.0
 70
    32
 71
     5
 42
-1.0
  3
STANDARD
100
AcDbAlignedDimension
 13
768.2655702781792
 23
488.2146642223315
 33
0.0
 14
975.0171400200974
 24
459.6888620491953
 34
0.0
100
AcDbRotatedDimension
1001
ACAD
1000
DSTYLE
1002
{
1070
    41
1040
14.0
1070
    42
1040
12.0
1070
    43
1040
28.0
1070
    44
1040
6.0
1070
    73
1070
     0
1070
    74
1070
     0
1070
    77
1070
     3
1070
   140
1040
12.0
1070
   141
1040
150.0
1070
   143
1040
0.03937
1070
   147
1040
4.0
1070
   172
1070
     1
1070
   173
1070
     1
1070
   176
1070
     4
1070
   177
1070
     4
1070
   178
1070
     4
1070
   271
1070
     0
1070
   272
1070
     2
1070
     6
1000
OPEN
1070
     7
1000
OPEN
1002
}
  0
DIMENSION
  5
230B
330
19
100
AcDbEntity
  8
SUNPOU
  6
Continuous
100
AcDbDimension
  2
*D4
 10
951.4267549918352
 20
273.0374555561799
 30
0.0
 11
873.7655702782301
 21
283.0374555561799
 31
0.0
 70
    32
 71
     5
 42
155.3223694272102
  3
STANDARD
100
AcDbAlignedDimension
 13
796.104385564625
 23
333.6239341022316
 33
0.0
 14
951.4267549918352
 24
333.6239341022316
 34
0.0
100
AcDbRotatedDimension
1001
ACAD
1000
DSTYLE
1002
{
1070
    41
1040
14.0
1070
    42
1040
12.0
1070
    43
1040
28.0
1070
    44
1040
6.0
1070
    73
1070
     0
1070
    74
1070
     0
1070
    77
1070
     3
1070
   140
1040
12.0
1070
   141
1040
150.0
1070
   143
1040
0.03937
1070
   147
1040
4.0
1070
   172
1070
     1
1070
   173
1070
     1
1070
   176
1070
     4
1070
   177
1070
     4
1070
   178
1070
     4
1070
   271
1070
     0
1070
   272
1070
     2
1070
     6
1000
OPEN
1070
     7
1000
OPEN
1002
}
  0
LINE
  5
230D
330
19
100
AcDbEntity
  8
CENTER L
  6
CENTER
 62
     1
 48
5.0
100
AcDbLine
 10
951.8533878496391
 20
757.8823276283688
 30
0.0
 11
759.1988017148826
 21
950.536913763338
 31
0.0
  0
LINE
  5
230E
330
19
100
AcDbEntity
  8
SEIHIN
  6
Continuous
 62
     3
100
AcDbLine
 10
800.5925935365791
 20
911.1288455476303
 30
0.0
 11
1037.765570278178
 21
911.1288455476303
 31
0.0
  0
LINE
  5
230F
330
19
100
AcDbEntity
  8
SEIHIN
  6
Continuous
 62
     3
100
AcDbLine
 10
990.2655702781787
 20
926.2693774738302
 30
0.0
 11
785.4520616103793
 21
926.2693774738302
 31
0.0
  0
LINE
  5
2310
330
19
100
AcDbEntity
  8
SEIHIN
  6
Continuous
 62
     3
100
AcDbLine
 10
770.2655702781797
 20
941.4701451998302
 30
0.0
 11
1037.765570278178
 21
941.4701451998302
 31
0.0
  0
LINE
  5
2311
330
19
100
AcDbEntity
  8
SEIHIN
  6
Continuous
 62
     3
100
AcDbLine
 10
987.2655702781788
 20
938.4701451998303
 30
0.0
 11
773.2655702781796
 21
938.4701451998303
 31
0.0
  0
LINE
  5
2312
330
19
100
AcDbEntity
  8
CENTER L
  6
CENTER
 62
     1
 48
5.0
100
AcDbLine
 10
1047.024074334738
 20
835.9701451998301
 30
0.0
 11
861.602085657565
 21
835.9701451998301
 31
0.0
  0
LINE
  5
2313
330
19
100
AcDbEntity
  8
SEIHIN
  6
Continuous
 62
     3
100
AcDbLine
 10
947.4349779213792
 20
671.9701451998304
 30
0.0
 11
800.0961626349791
 21
671.9701451998304
 31
0.0
  0
LINE
  5
2314
330
19
100
AcDbEntity
  8
SEIHIN
  6
Continuous
 62
     3
100
AcDbLine
 10
990.2655702781787
 20
490.2146642223315
 30
0.0
 11
786.6351284702789
 21
490.2146642223315
 31
0.0
  0
LINE
  5
2317
330
19
100
AcDbEntity
  8
SEIHIN
  6
Continuous
 62
     3
100
AcDbLine
 10
785.4520616103789
 20
466.6239341022315
 30
0.0
 11
1037.765570278178
 21
466.6239341022315
 31
0.0
  0
LINE
  5
2318
330
19
100
AcDbEntity
  8
SEIHIN
  6
Continuous
 62
     3
100
AcDbLine
 10
949.652631849379
 20
333.6239341022316
 30
0.0
 11
797.8785087069788
 21
333.6239341022316
 31
0.0
  0
LINE
  5
2319
330
19
100
AcDbEntity
  8
SEIHIN
  6
Continuous
 62
     3
100
AcDbLine
 10
799.5257406914791
 20
335.6239341022316
 30
0.0
 11
948.0053998648788
 21
335.6239341022316
 31
0.0
  0
LINE
  5
231A
330
19
100
AcDbEntity
  8
SEIHIN
  6
Continuous
 62
     3
100
AcDbLine
 10
947.4349779213792
 20
336.6239341022315
 30
0.0
 11
800.0961626349788
 21
336.6239341022315
 31
0.0
  0
DIMENSION
  5
231B
330
19
100
AcDbEntity
  8
SUNPOU
  6
Continuous
100
AcDbDimension
  2
*D5
 10
692.5314093951717
 20
719.4701451998303
 30
0.0
 11
682.5314093951716
 21
695.7201451998304
 31
0.0
 70
    32
 71
     5
 42
-1.0
  3
STANDARD
100
AcDbAlignedDimension
 13
768.0123739455718
 23
671.9701451998302
 33
0.0
 14
768.2655702781796
 24
719.4701451998302
 34
0.0
 50
90.0
100
AcDbRotatedDimension
1001
ACAD
1000
DSTYLE
1002
{
1070
    41
1040
14.0
1070
    42
1040
12.0
1070
    43
1040
28.0
1070
    44
1040
6.0
1070
    73
1070
     0
1070
    74
1070
     0
1070
    77
1070
     3
1070
   140
1040
12.0
1070
   141
1040
150.0
1070
   143
1040
0.03937
1070
   147
1040
4.0
1070
   172
1070
     1
1070
   173
1070
     1
1070
   176
1070
     4
1070
   177
1070
     4
1070
   178
1070
     4
1070
   271
1070
     0
1070
   272
1070
     2
1070
     6
1000
OPEN
1070
     7
1000
OPEN
1002
}
  0
LINE
  5
231C
330
19
100
AcDbEntity
  8
CENTER L
  6
CENTER
 62
     1
 48
5.0
100
AcDbLine
 10
873.7655702781792
 20
661.6829023283801
 30
0.0
 11
873.7655702781792
 21
848.1336298205292
 31
0.0
  0
LINE
  5
231D
330
19
100
AcDbEntity
  8
SEIHIN
  6
Continuous
 62
     3
100
AcDbLine
 10
781.0909425319794
 20
719.4701451998304
 30
0.0
 11
781.0909425319794
 21
671.9701451998304
 31
0.0
  0
LINE
  5
231E
330
19
100
AcDbEntity
  8
SEIHIN
  6
Continuous
 62
     3
100
AcDbLine
 10
787.4954730132793
 20
671.9701451998304
 30
0.0
 11
787.4954730132793
 21
719.4701451998304
 31
0.0
  0
LINE
  5
231F
330
19
100
AcDbEntity
  8
SEIHIN
  6
Continuous
 62
     3
100
AcDbLine
 10
768.2655702781796
 20
671.9701451998304
 30
0.0
 11
768.2655702781796
 21
939.4701451998303
 31
0.0
  0
LINE
  5
2320
330
19
100
AcDbEntity
  8
SEIHIN
  6
Continuous
 62
     3
100
AcDbLine
 10
798.6068699303793
 20
671.9701451998304
 30
0.0
 11
798.6068699303793
 21
909.1431219415303
 31
0.0
  0
ELLIPSE
  5
2322
330
19
100
AcDbEntity
  8
SEIHIN
  6
Continuous
 62
     3
100
AcDbEllipse
 10
799.7892978089792
 20
337.7780000251314
 30
0.0
 11
1.505012016539943
 21
1.696626328326626
 31
0.0
210
0.0
220
0.0
230
1.0
 40
0.8818532392999907
 41
2.477763942186543
 42
3.805421364992909
  0
ELLIPSE
  5
2323
330
19
100
AcDbEntity
  8
SEIHIN
  6
Continuous
 62
     3
100
AcDbEllipse
 10
781.5374832668788
 20
462.6239341022315
 30
0.0
 11
-1.078104315798196
 21
0.0000000000005224
 31
0.0
210
0.0
220
0.0
230
1.0
 40
0.9275540272999311
 41
3.25256008311867
 42
4.712388980385139
  0
LINE
  5
2325
330
19
100
AcDbEntity
  8
SEIHIN
  6
Continuous
 62
     3
100
AcDbLine
 10
782.6089566266789
 20
462.7346739340316
 30
0.0
 11
797.6820426086789
 21
337.2594078204315
 31
0.0
  0
LINE
  5
2326
330
19
100
AcDbEntity
  8
SEIHIN
  6
Continuous
 62
     3
100
AcDbLine
 10
795.9170298926494
 20
335.1835684615826
 30
0.0
 11
780.5945775923789
 21
462.7346739340316
 31
0.0
  0
LINE
  5
2327
330
19
100
AcDbEntity
  8
SEIHIN
  6
Continuous
 62
     3
100
AcDbLine
 10
798.6068699303789
 20
337.9450284287315
 30
0.0
 11
783.4663380042791
 21
463.9817454492315
 31
0.0
  0
ARC
  5
2329
330
19
100
AcDbEntity
  8
SEIHIN
  6
Continuous
 62
     3
100
AcDbCircle
 10
797.8785087069788
 20
335.6239341022316
 30
0.0
 40
2.0
100
AcDbArc
 50
186.8499999999999
 51
190.3904165170043
  0
ARC
  5
232A
330
19
100
AcDbEntity
  8
SEIHIN
  6
Continuous
 62
     3
100
AcDbCircle
 10
797.8785087069788
 20
335.6239341022316
 30
0.0
 40
2.000000000000015
100
AcDbArc
 50
266.459583483015
 51
270.0
  0
ARC
  5
232B
330
19
100
AcDbEntity
  8
SEIHIN
  6
Continuous
 62
     3
100
AcDbCircle
 10
797.8785087069788
 20
335.6239341022316
 30
0.0
 40
1.99999999999973
100
AcDbArc
 50
190.3904165170043
 51
266.459583483015
  0
ARC
  5
232D
330
19
100
AcDbEntity
  8
SEIHIN
  6
Continuous
 62
     3
100
AcDbCircle
 10
800.0961626349788
 20
338.1239341022316
 30
0.0
 40
1.5
100
AcDbArc
 50
186.8499999999999
 51
270.0
  0
LINE
  5
232E
330
19
100
AcDbEntity
  8
SEIHIN
  6
Continuous
 62
     3
100
AcDbLine
 10
798.6068699303793
 20
671.9701451998304
 30
0.0
 11
787.4954730132793
 21
671.9701451998304
 31
0.0
  0
DIMENSION
  5
232F
330
19
100
AcDbEntity
  8
SUNPOU
  6
Continuous
100
AcDbDimension
  2
*D6
 10
699.1992104063718
 20
463.6239341022315
 30
0.0
 11
689.1992104063716
 21
421.6239341022316
 31
0.0
 70
    32
 71
     5
 42
-1.0
  3
STANDARD
100
AcDbAlignedDimension
 13
765.8513567158063
 23
490.0843169460564
 33
0.0
 14
770.2655702781791
 24
463.6239341022315
 34
0.0
 50
90.0
100
AcDbRotatedDimension
1001
ACAD
1000
DSTYLE
1002
{
1070
    41
1040
14.0
1070
    42
1040
12.0
1070
    43
1040
28.0
1070
    44
1040
6.0
1070
    73
1070
     0
1070
    74
1070
     0
1070
    77
1070
     3
1070
   140
1040
12.0
1070
   141
1040
150.0
1070
   143
1040
0.03937
1070
   147
1040
4.0
1070
   172
1070
     1
1070
   173
1070
     1
1070
   176
1070
     4
1070
   177
1070
     4
1070
   178
1070
     4
1070
   271
1070
     0
1070
   272
1070
     2
1070
     6
1000
OPEN
1070
     7
1000
OPEN
1002
}
  0
LINE
  5
2330
330
19
100
AcDbEntity
  8
SEIHIN
  6
Continuous
 62
     3
100
AcDbLine
 10
768.2655702781792
 20
488.2146642223315
 30
0.0
 11
768.2655702781792
 21
465.6239341022315
 31
0.0
  0
LINE
  5
2331
330
19
100
AcDbEntity
  8
SEIHIN
  6
Continuous
 62
     3
100
AcDbLine
 10
771.2655702781792
 20
467.6239341022315
 30
0.0
 11
771.2655702781792
 21
484.9424738621315
 31
0.0
  0
ARC
  5
2332
330
19
100
AcDbEntity
  8
SEIHIN
  6
Continuous
 62
     3
100
AcDbCircle
 10
780.4877525949789
 20
463.6239341022315
 30
0.0
 40
3.000000000000001
100
AcDbArc
 50
6.849999999999871
 51
90.0
  0
LINE
  5
2333
330
19
100
AcDbEntity
  8
SEIHIN
  6
Continuous
 62
     3
100
AcDbLine
 10
780.4877525949789
 20
466.6239341022315
 30
0.0
 11
785.4520616103789
 21
466.6239341022315
 31
0.0
  0
LINE
  5
2334
330
19
100
AcDbEntity
  8
SEIHIN
  6
Continuous
 62
     3
100
AcDbLine
 10
770.2655702781791
 20
463.6239341022315
 30
0.0
 11
781.5374832668788
 21
463.6239341022315
 31
0.0
  0
ARC
  5
2335
330
19
100
AcDbEntity
  8
SEIHIN
  6
Continuous
 62
     3
100
AcDbCircle
 10
770.2655702781791
 20
465.6239341022315
 30
0.0
 40
2.0
100
AcDbArc
 50
180.0
 51
270.0
  0
ARC
  5
2336
330
19
100
AcDbEntity
  8
SEIHIN
  6
Continuous
 62
     3
100
AcDbCircle
 10
779.6006910237791
 20
462.6239341022315
 30
0.0
 40
1.0
100
AcDbArc
 50
6.849999999999871
 51
90.0
  0
LINE
  5
2337
330
19
100
AcDbEntity
  8
SEIHIN
  6
Continuous
 62
     3
100
AcDbLine
 10
780.5945775923789
 20
462.7346739340316
 30
0.0
 11
780.593552826879
 21
462.7432045512316
 31
0.0
  0
LINE
  5
2338
330
19
100
AcDbEntity
  8
SEIHIN
  6
Continuous
 62
     3
100
AcDbLine
 10
780.4877525949789
 20
466.6239341022315
 30
0.0
 11
772.2655702781792
 21
466.6239341022315
 31
0.0
  0
ARC
  5
2339
330
19
100
AcDbEntity
  8
SEIHIN
  6
Continuous
 62
     3
100
AcDbCircle
 10
772.2655702781792
 20
467.6239341022315
 30
0.0
 40
1.0
100
AcDbArc
 50
180.0
 51
270.0
  0
ARC
  5
233A
330
19
100
AcDbEntity
  8
SEIHIN
  6
Continuous
 62
     3
100
AcDbCircle
 10
781.7839794628792
 20
497.2507994067315
 30
0.0
 40
8.000000000000031
100
AcDbArc
 50
265.0302592719114
 51
298.7600988403086
  0
LINE
  5
233B
330
19
100
AcDbEntity
  8
SEIHIN
  6
Continuous
 62
     3
100
AcDbLine
 10
773.438829510979
 20
486.9349550385315
 30
0.0
 11
782.7655702781791
 21
486.1239341022315
 31
0.0
  0
LINE
  5
233E
330
19
100
AcDbEntity
  8
SEIHIN
  6
Continuous
 62
     3
100
AcDbLine
 10
785.5909207108791
 20
490.2146642223315
 30
0.0
 11
770.2655702781791
 21
490.2146642223315
 31
0.0
  0
ARC
  5
233F
330
19
100
AcDbEntity
  8
SEIHIN
  6
Continuous
 62
     3
100
AcDbCircle
 10
770.2655702781791
 20
488.2146642223315
 30
0.0
 40
1.999999999999919
100
AcDbArc
 50
85.03025927191142
 51
180.0
  0
ARC
  5
2340
330
19
100
AcDbEntity
  8
SEIHIN
  6
Continuous
 62
     3
100
AcDbCircle
 10
773.2655702781792
 20
484.9424738621315
 30
0.0
 40
2.000000000000004
100
AcDbArc
 50
85.03025927191142
 51
180.0
  0
LINE
  5
2341
330
19
100
AcDbEntity
  8
SEIHIN
  6
Continuous
 62
     3
100
AcDbLine
 10
781.0909425319789
 20
489.2808747012315
 30
0.0
 11
770.438829510979
 21
490.2071453987316
 31
0.0
  0
ARC
  5
2343
330
19
100
AcDbEntity
  8
SEIHIN
  6
Continuous
 62
     3
100
AcDbCircle
 10
785.9954730132792
 20
488.7727110235315
 30
0.0
 40
1.499999999999789
100
AcDbArc
 50
333.2497137905996
 51
44.99999999999539
  0
ARC
  5
2344
330
19
100
AcDbEntity
  8
SEIHIN
  6
Continuous
 62
     3
100
AcDbCircle
 10
780.1911244956788
 20
491.6983798848315
 30
0.0
 40
8.000000000000065
100
AcDbArc
 50
288.7721625519111
 51
333.2497137906055
  0
LINE
  5
2345
330
19
100
AcDbEntity
  8
SEIHIN
  6
Continuous
 62
     3
100
AcDbLine
 10
782.7655702781791
 20
486.1239341022315
 30
0.0
 11
782.7655702781791
 21
484.1239341022315
 31
0.0
  0
LINE
  5
2346
330
19
100
AcDbEntity
  8
SEIHIN
  6
Continuous
 62
     3
100
AcDbLine
 10
787.0561331850788
 20
489.8333711953315
 30
0.0
 11
786.8213758681788
 21
490.0681285122315
 31
0.0
  0
ARC
  5
2347
330
19
100
AcDbEntity
  8
SEIHIN
  6
Continuous
 62
     3
100
AcDbCircle
 10
786.1142690869789
 20
489.3610217311315
 30
0.0
 40
1.000000000000068
100
AcDbArc
 50
44.99999999999078
 51
118.7600988403086
  0
LINE
  5
2348
330
19
100
AcDbEntity
  8
SEIHIN
  6
Continuous
 62
     3
100
AcDbLine
 10
785.6331257953796
 20
671.9701451998304
 30
0.0
 11
781.0909425319794
 21
671.9701451998304
 31
0.0
  0
LINE
  5
2349
330
19
100
AcDbEntity
  8
SEIHIN
  6
Continuous
 62
     3
100
AcDbLine
 10
781.0909425319794
 20
671.9701451998304
 30
0.0
 11
770.4388295109795
 21
671.9701451998304
 31
0.0
  0
LINE
  5
234A
330
19
100
AcDbEntity
  8
SEIHIN
  6
Continuous
 62
     3
100
AcDbLine
 10
770.4388295109795
 20
671.9701451998304
 30
0.0
 11
768.2655702781796
 21
671.9701451998304
 31
0.0
  0
LINE
  5
234B
330
19
100
AcDbEntity
  8
SEIHIN
  6
Continuous
 62
     3
100
AcDbLine
 10
786.8213758681792
 20
671.9701451998304
 30
0.0
 11
785.6331257953796
 21
671.9701451998304
 31
0.0
  0
LINE
  5
234C
330
19
100
AcDbEntity
  8
SEIHIN
  6
Continuous
 62
     3
100
AcDbLine
 10
787.4954730132793
 20
671.9701451998304
 30
0.0
 11
787.0561331850792
 21
671.9701451998304
 31
0.0
  0
LINE
  5
234D
330
19
100
AcDbEntity
  8
SEIHIN
  6
Continuous
 62
     3
100
AcDbLine
 10
787.0561331850792
 20
671.9701451998304
 30
0.0
 11
786.8213758681792
 21
671.9701451998304
 31
0.0
  0
LINE
  5
234E
330
19
100
AcDbEntity
  8
SEIHIN
  6
Continuous
 62
     3
100
AcDbLine
 10
800.0961626349791
 20
671.9701451998304
 30
0.0
 11
798.6068699303793
 21
671.9701451998304
 31
0.0
  0
ELLIPSE
  5
2350
330
19
100
AcDbEntity
  8
SEIHIN
  6
Continuous
 62
     3
100
AcDbEllipse
 10
800.5997573935795
 20
909.1359580845303
 30
0.0
 11
1.414213562373192
 21
1.414213562373192
 31
0.0
210
0.0
220
0.0
230
1.0
 40
0.9929877570999451
 41
0.7925111233119861
 42
2.34908153027775
  0
ELLIPSE
  5
2351
330
19
100
AcDbEntity
  8
SEIHIN
  6
Continuous
 62
     3
100
AcDbEllipse
 10
785.5237001805792
 20
924.2120152974303
 30
0.0
 11
-1.494836060609259
 21
1.494836060609259
 31
0.0
210
0.0
220
0.0
230
0.9999999999999998
 40
0.9460659931999613
 41
-0.7782852034829637
 42
0.7782852034830206
  0
LINE
  5
2352
330
19
100
AcDbEntity
  8
SEIHIN
  6
Continuous
 62
     3
100
AcDbLine
 10
783.4663380042796
 20
924.2836538676304
 30
0.0
 11
783.4663380042796
 21
719.4701451998304
 31
0.0
  0
LINE
  5
2353
330
19
100
AcDbEntity
  8
SEIHIN
  6
Continuous
 62
     3
100
AcDbLine
 10
771.2655702781797
 20
722.4701451998304
 30
0.0
 11
771.2655702781797
 21
936.4701451998303
 31
0.0
  0
LINE
  5
2354
330
19
100
AcDbEntity
  8
SEIHIN
  6
Continuous
 62
     3
100
AcDbLine
 10
781.0909425319794
 20
719.4701451998304
 30
0.0
 11
785.6331257953796
 21
719.4701451998304
 31
0.0
  0
ARC
  5
2355
330
19
100
AcDbEntity
  8
SEIHIN
  6
Continuous
 62
     3
100
AcDbCircle
 10
774.2655702781797
 20
722.4701451998304
 30
0.0
 40
3.0
100
AcDbArc
 50
180.0
 51
270.0
  0
LINE
  5
2356
330
19
100
AcDbEntity
  8
SEIHIN
  6
Continuous
 62
     3
100
AcDbLine
 10
774.2655702781797
 20
719.4701451998304
 30
0.0
 11
781.0909425319794
 21
719.4701451998304
 31
0.0
  0
LINE
  5
2357
330
19
100
AcDbEntity
  8
SEIHIN
  6
Continuous
 62
     3
100
AcDbLine
 10
787.0561331850792
 20
719.4701451998304
 30
0.0
 11
787.4954730132793
 21
719.4701451998304
 31
0.0
  0
LINE
  5
2358
330
19
100
AcDbEntity
  8
SEIHIN
  6
Continuous
 62
     3
100
AcDbLine
 10
786.8213758681792
 20
719.4701451998304
 30
0.0
 11
787.0561331850792
 21
719.4701451998304
 31
0.0
  0
LINE
  5
2359
330
19
100
AcDbEntity
  8
SEIHIN
  6
Continuous
 62
     3
100
AcDbLine
 10
785.6331257953796
 20
719.4701451998304
 30
0.0
 11
786.8213758681792
 21
719.4701451998304
 31
0.0
  0
ARC
  5
235C
330
19
100
AcDbEntity
  8
SEIHIN
  6
Continuous
 62
     3
100
AcDbCircle
 10
770.2655702781797
 20
939.4701451998303
 30
0.0
 40
2.0
100
AcDbArc
 50
90.0
 51
180.0
  0
ARC
  5
235D
330
19
100
AcDbEntity
  8
SEIHIN
  6
Continuous
 62
     3
100
AcDbCircle
 10
773.2655702781796
 20
936.4701451998303
 30
0.0
 40
2.000000000000176
100
AcDbArc
 50
135.0000000000092
 51
180.0
  0
ARC
  5
235E
330
19
100
AcDbEntity
  8
SEIHIN
  6
Continuous
 62
     3
100
AcDbCircle
 10
773.2655702781796
 20
936.4701451998303
 30
0.0
 40
2.0
100
AcDbArc
 50
90.0
 51
135.0000000000092
  0
DIMENSION
  5
235F
330
19
100
AcDbEntity
  8
SUNPOU
  6
Continuous
100
AcDbDimension
  2
*D7
 10
1006.418983192124
 20
719.4701451998302
 30
0.0
 11
996.418983192124
 21
695.7201451998304
 31
0.0
 70
    32
 71
     5
 42
-1.0
  3
STANDARD
100
AcDbAlignedDimension
 13
975.6655702781788
 23
671.9701451998304
 33
0.0
 14
975.6655702781788
 24
719.4701451998302
 34
0.0
 50
90.0
100
AcDbRotatedDimension
1001
ACAD
1000
DSTYLE
1002
{
1070
    41
1040
14.0
1070
    42
1040
12.0
1070
    43
1040
28.0
1070
    44
1040
6.0
1070
    73
1070
     0
1070
    74
1070
     0
1070
    77
1070
     3
1070
   140
1040
12.0
1070
   141
1040
150.0
1070
   143
1040
0.03937
1070
   147
1040
4.0
1070
   172
1070
     1
1070
   173
1070
     1
1070
   176
1070
     4
1070
   177
1070
     4
1070
   178
1070
     4
1070
   271
1070
     0
1070
   272
1070
     2
1070
     6
1000
OPEN
1070
     7
1000
OPEN
1002
}
  0
LINE
  5
2360
330
19
100
AcDbEntity
  8
SEIHIN
  6
Continuous
 62
     3
100
AcDbLine
 10
975.6655702781788
 20
719.4701451998304
 30
0.0
 11
975.6655702781788
 21
671.9701451998304
 31
0.0
  0
LINE
  5
2361
330
19
100
AcDbEntity
  8
SEIHIN
  6
Continuous
 62
     3
100
AcDbLine
 10
958.642665406279
 20
719.4701451998304
 30
0.0
 11
958.642665406279
 21
671.9701451998304
 31
0.0
  0
SPLINE
  5
2362
330
19
100
AcDbEntity
  8
SEIHIN
  6
Continuous
 62
     3
100
AcDbSpline
210
0.0
220
0.0
230
1.0
 70
    24
 71
     3
 72
     8
 73
     4
 74
     0
 42
0.0000000001
 43
0.0000000001
 40
0.0
 40
0.0
 40
0.0
 40
0.0
 40
1.0
 40
1.0
 40
1.0
 40
1.0
 10
948.9242706260117
 20
731.0841451998376
 30
0.0
 10
948.9242706260117
 20
711.3794785331708
 30
0.0
 10
948.9242706260117
 20
691.6748118665042
 30
0.0
 10
948.9242706260117
 20
671.9701451998376
 30
0.0
  0
ELLIPSE
  5
2363
330
19
100
AcDbEntity
  8
SEIHIN
  6
Continuous
 62
     3
100
AcDbEllipse
 10
987.2655702781788
 20
486.8630645370315
 30
0.0
 11
-3.0
 21
0.0000000000000128
 31
0.0
210
0.0
220
0.0
230
1.0
 40
0.0869565217000575
 41
3.141592653589841
 42
3.420785933254303
  0
ELLIPSE
  5
2365
330
19
100
AcDbEntity
  8
SEIHIN
  6
Continuous
 62
     3
100
AcDbEllipse
 10
1043.205876787078
 20
429.1239341022315
 30
0.0
 11
-10.43976458264788
 21
0.3730695955668704
 31
0.0
210
0.0
220
0.0
230
1.0
 40
0.2851321765655228
 41
0.0051242489262477
 42
0.0101889715835117
  0
ELLIPSE
  5
2366
330
19
100
AcDbEntity
  8
SEIHIN
  6
Continuous
 62
     3
100
AcDbEllipse
 10
1033.205876787079
 20
429.1239341022315
 30
0.0
 11
0.0000000000000172
 21
2.999999999999943
 31
0.0
210
0.0
220
0.0
230
1.0
 40
0.1477790778000183
 41
0.0000000000000386
 42
1.451241273033285
  0
SPLINE
  5
2367
330
19
100
AcDbEntity
  8
SEIHIN
  6
Continuous
 62
     3
100
AcDbSpline
210
0.0
220
0.0
230
1.0
 70
    24
 71
     3
 72
     8
 73
     4
 74
     0
 42
0.0000000001
 43
0.0000000001
 40
0.0
 40
0.0
 40
0.0
 40
0.0
 40
1.0
 40
1.0
 40
1.0
 40
1.0
 10
996.5153686311802
 20
333.6239341022443
 30
0.0
 10
1008.598769180188
 20
333.6239341022443
 30
0.0
 10
1020.682169729195
 20
333.6239341022443
 30
0.0
 10
1032.765570278202
 20
333.6239341022443
 30
0.0
  0
SPLINE
  5
2368
330
19
100
AcDbEntity
  8
SEIHIN
  6
Continuous
 62
     3
100
AcDbSpline
210
0.0
220
0.0
230
1.0
 70
    24
 71
     3
 72
     8
 73
     4
 74
     0
 42
0.0000000001
 43
0.0000000001
 40
0.0
 40
0.0
 40
0.0
 40
0.0
 40
1.0
 40
1.0
 40
1.0
 40
1.0
 10
1032.770088278347
 20
333.6252895022878
 30
0.0
 10
1034.435248944965
 20
334.1248377022733
 30
0.0
 10
1036.100409611584
 20
334.6243859022588
 30
0.0
 10
1037.765570278202
 20
335.1239341022443
 30
0.0
  0
ELLIPSE
  5
236C
330
19
100
AcDbEntity
  8
SEIHIN
  6
Continuous
 62
     3
100
AcDbEllipse
 10
1016.515570278178
 20
461.0520719737315
 30
0.0
 11
0.737098913431884
 21
0.737098913431884
 31
0.0
210
0.0
220
0.0
230
1.0
 40
0.9168170765996608
 41
2.399563659530177
 42
3.305348486772216
  0
ELLIPSE
  5
236D
330
19
100
AcDbEntity
  8
SEIHIN
  6
Continuous
 62
     3
100
AcDbEllipse
 10
1011.515570278179
 20
461.0520719737315
 30
0.0
 11
-0.7370989134318683
 21
0.7370989134318683
 31
0.0
210
0.0
220
0.0
230
1.0
 40
0.9168170766001388
 41
2.977836820407548
 42
3.883621647649149
  0
ELLIPSE
  5
236E
330
19
100
AcDbEntity
  8
SEIHIN
  6
Continuous
 62
     3
100
AcDbEllipse
 10
964.138923717979
 20
429.1239341022315
 30
0.0
 11
3.234312947394435
 21
0.0000000000004979
 31
0.0
210
0.0
220
0.0
230
1.0
 40
0.9275540272999929
 41
1.570796326794754
 42
3.03062522406133
  0
DIMENSION
  5
2370
330
19
100
AcDbEntity
  8
SUNPOU
  6
Continuous
100
AcDbDimension
  2
*D8
 10
1152.767875515724
 20
333.6252895022877
 30
0.0
 11
1142.767875515724
 21
396.9199768623099
 31
0.0
 70
    32
 71
     5
 42
-1.0
  3
STANDARD
100
AcDbAlignedDimension
 13
1037.765570278178
 23
460.2146642223315
 33
0.0
 14
1032.770088278347
 24
333.6252895022878
 34
0.0
 50
90.0
100
AcDbRotatedDimension
1001
ACAD
1000
DSTYLE
1002
{
1070
    41
1040
14.0
1070
    42
1040
12.0
1070
    43
1040
28.0
1070
    44
1040
6.0
1070
    73
1070
     0
1070
    74
1070
     0
1070
    77
1070
     3
1070
   140
1040
12.0
1070
   141
1040
150.0
1070
   143
1040
0.03937
1070
   147
1040
4.0
1070
   172
1070
     1
1070
   173
1070
     1
1070
   176
1070
     4
1070
   177
1070
     4
1070
   178
1070
     4
1070
   271
1070
     0
1070
   272
1070
     2
1070
     6
1000
OPEN
1070
     7
1000
OPEN
1002
}
  0
LINE
  5
2371
330
19
100
AcDbEntity
  8
SEIHIN
  6
Continuous
 62
     3
100
AcDbLine
 10
1037.765570278178
 20
429.4666552155316
 30
0.0
 11
1037.765570278178
 21
336.8111059305315
 31
0.0
  0
LINE
  5
2372
330
19
100
AcDbEntity
  8
SEIHIN
  6
Continuous
 62
     3
100
AcDbLine
 10
1032.765570278179
 20
335.3853932042316
 30
0.0
 11
1032.765570278179
 21
429.4666552155316
 31
0.0
  0
LINE
  5
2373
330
19
100
AcDbEntity
  8
SEIHIN
  6
Continuous
 62
     3
100
AcDbLine
 10
985.5723232094584
 20
361.8607332179842
 30
0.0
 11
989.3573212179488
 21
418.4054747674779
 31
0.0
  0
LINE
  5
2374
330
19
100
AcDbEntity
  8
SEIHIN
  6
Continuous
 62
     3
100
AcDbLine
 10
983.7655702781786
 20
418.633632778983
 30
0.0
 11
983.7655702781788
 21
361.8607332179842
 31
0.0
  0
LINE
  5
2375
330
19
100
AcDbEntity
  8
SEIHIN
  6
Continuous
 62
     3
100
AcDbLine
 10
949.8490979477789
 20
337.2594078204315
 30
0.0
 11
960.9245036384789
 21
429.4561535976316
 31
0.0
  0
LINE
  5
2376
330
19
100
AcDbEntity
  8
SEIHIN
  6
Continuous
 62
     3
100
AcDbLine
 10
960.2807722556788
 20
432.4817454492316
 30
0.0
 11
948.9242706259791
 21
337.9450284287315
 31
0.0
  0
LINE
  5
2377
330
19
100
AcDbEntity
  8
SEIHIN
  6
Continuous
 62
     3
100
AcDbLine
 10
962.9388826726788
 20
429.4561535976316
 30
0.0
 11
951.6272187480579
 21
335.2926861539614
 31
0.0
  0
LINE
  5
2378
330
19
100
AcDbEntity
  8
SEIHIN
  6
Continuous
 62
     3
100
AcDbLine
 10
948.0799369735789
 20
338.0715848572315
 30
0.0
 11
951.119873517279
 21
425.1239776880315
 31
0.0
  0
LINE
  5
2379
330
19
100
AcDbEntity
  8
SEIHIN
  6
Continuous
 62
     3
100
AcDbLine
 10
996.3996263008791
 20
333.6239341022316
 30
0.0
 11
978.6515702781791
 21
333.6239341022316
 31
0.0
  0
LINE
  5
237A
330
19
100
AcDbEntity
  8
SEIHIN
  6
Continuous
 62
     3
100
AcDbLine
 10
978.271515601479
 20
333.6239341022316
 30
0.0
 11
961.5891735230791
 21
333.6239341022316
 31
0.0
  0
LINE
  5
237B
330
19
100
AcDbEntity
  8
SEIHIN
  6
Continuous
 62
     3
100
AcDbLine
 10
961.5891735230791
 20
333.6239341022316
 30
0.0
 11
950.0026318493789
 21
333.6239341022316
 31
0.0
  0
LINE
  5
237D
330
19
100
AcDbEntity
  8
SEIHIN
  6
Continuous
 62
     3
100
AcDbLine
 10
951.619835151979
 20
335.2632248476315
 30
0.0
 11
951.6383554555789
 21
335.3853932042316
 31
0.0
  0
LINE
  5
237E
330
19
100
AcDbEntity
  8
SEIHIN
  6
Continuous
 62
     3
100
AcDbLine
 10
949.652631849379
 20
333.6239341022316
 30
0.0
 11
949.7761370691788
 21
333.6277511295315
 31
0.0
  0
ARC
  5
237F
330
19
100
AcDbEntity
  8
SEIHIN
  6
Continuous
 62
     3
100
AcDbCircle
 10
949.652631849379
 20
335.6239341022316
 30
0.0
 40
2.000000000002511
100
AcDbArc
 50
273.540416516985
 51
349.6095834827996
  0
ARC
  5
2380
330
19
100
AcDbEntity
  8
SEIHIN
  6
Continuous
 62
     3
100
AcDbCircle
 10
948.0350266149791
 20
337.4474887312315
 30
0.0
 40
1.823795281634407
100
AcDbArc
 50
269.0692143879764
 51
354.0807856118978
  0
ARC
  5
2381
330
19
100
AcDbEntity
  8
SEIHIN
  6
Continuous
 62
     3
100
AcDbCircle
 10
946.5817655213788
 20
338.1235268122316
 30
0.0
 40
1.499071601663138
100
AcDbArc
 50
291.0864895710975
 51
358.014337258698
  0
ARC
  5
2382
330
19
100
AcDbEntity
  8
SEIHIN
  6
Continuous
 62
     3
100
AcDbCircle
 10
947.4349779213792
 20
338.1239341022316
 30
0.0
 40
1.49999999999261
100
AcDbArc
 50
269.9999999997916
 51
353.150000000299
  0
LINE
  5
2383
330
19
100
AcDbEntity
  8
SEIHIN
  6
Continuous
 62
     3
100
AcDbLine
 10
978.6515702781791
 20
333.6239341022316
 30
0.0
 11
978.271515601479
 21
333.6239341022316
 31
0.0
  0
LINE
  5
2384
330
19
100
AcDbEntity
  8
SEIHIN
  6
Continuous
 62
     3
100
AcDbLine
 10
996.515368631179
 20
333.6239341022316
 30
0.0
 11
996.3996263008791
 21
333.6239341022316
 31
0.0
  0
LINE
  5
2385
330
19
100
AcDbEntity
  8
SEIHIN
  6
Continuous
 62
     3
100
AcDbLine
 10
1032.765570278179
 20
335.3853932042316
 30
0.0
 11
1032.770088278379
 21
335.3124613305316
 31
0.0
  0
LINE
  5
2386
330
19
100
AcDbEntity
  8
SEIHIN
  6
Continuous
 62
     3
100
AcDbLine
 10
1032.770088278379
 20
333.6252895023315
 30
0.0
 11
1032.765570278179
 21
333.6239341022316
 31
0.0
  0
ARC
  5
2387
330
19
100
AcDbEntity
  8
SEIHIN
  6
Continuous
 62
     3
100
AcDbCircle
 10
1029.540699196079
 20
334.4688754164315
 30
0.0
 40
3.337752393332139
100
AcDbArc
 50
345.3602471704984
 51
14.63975282949849
  0
LINE
  5
2388
330
19
100
AcDbEntity
  8
SEIHIN
  6
Continuous
 62
     3
100
AcDbLine
 10
1037.765570278178
 20
336.8111059305315
 30
0.0
 11
1037.765570278178
 21
335.1239341022315
 31
0.0
  0
DIMENSION
  5
2389
330
19
100
AcDbEntity
  8
SUNPOU
  6
Continuous
100
AcDbDimension
  2
*D9
 10
1120.914194850587
 20
432.1239341022315
 30
0.0
 11
1110.914194850587
 21
446.1692991622817
 31
0.0
 70
    32
 71
     5
 42
-1.0
  3
STANDARD
100
AcDbAlignedDimension
 13
1043.765570278178
 23
460.2146642223315
 33
0.0
 14
1037.765570278178
 24
432.1239341022315
 34
0.0
 50
90.0
100
AcDbRotatedDimension
1001
ACAD
1000
DSTYLE
1002
{
1070
    41
1040
14.0
1070
    42
1040
12.0
1070
    43
1040
28.0
1070
    44
1040
6.0
1070
    73
1070
     0
1070
    74
1070
     0
1070
    77
1070
     3
1070
   140
1040
12.0
1070
   141
1040
150.0
1070
   143
1040
0.03937
1070
   147
1040
4.0
1070
   172
1070
     1
1070
   173
1070
     1
1070
   176
1070
     4
1070
   177
1070
     4
1070
   178
1070
     4
1070
   271
1070
     0
1070
   272
1070
     2
1070
     6
1000
OPEN
1070
     7
1000
OPEN
1002
}
  0
LINE
  5
238A
330
19
100
AcDbEntity
  8
SEIHIN
  6
Continuous
 62
     3
100
AcDbLine
 10
1037.765570278178
 20
467.6239341022315
 30
0.0
 11
1037.765570278178
 21
484.1239341022315
 31
0.0
  0
LINE
  5
238B
330
19
100
AcDbEntity
  8
SEIHIN
  6
Continuous
 62
     3
100
AcDbLine
 10
1037.765570278178
 20
460.2146642223315
 30
0.0
 11
990.2655702781787
 21
460.2146642223315
 31
0.0
  0
LINE
  5
238C
330
19
100
AcDbEntity
  8
SEIHIN
  6
Continuous
 62
     3
100
AcDbLine
 10
1037.765570278178
 20
458.2146642223316
 30
0.0
 11
990.2655702781787
 21
458.2146642223316
 31
0.0
  0
LINE
  5
238D
330
19
100
AcDbEntity
  8
SEIHIN
  6
Continuous
 62
     3
100
AcDbLine
 10
1037.765570278178
 20
432.1239341022315
 30
0.0
 11
990.2655702781787
 21
432.1239341022315
 31
0.0
  0
LINE
  5
238E
330
19
100
AcDbEntity
  8
SEIHIN
  6
Continuous
 62
     3
100
AcDbLine
 10
990.2655702781787
 20
429.4817454492315
 30
0.0
 11
990.2655702781787
 21
432.1239341022315
 31
0.0
  0
ARC
  5
238F
330
19
100
AcDbEntity
  8
SEIHIN
  6
Continuous
 62
     3
100
AcDbCircle
 10
965.920542378479
 20
429.1239341022315
 30
0.0
 40
3.0
100
AcDbArc
 50
90.0
 51
173.1500000000001
  0
LINE
  5
2390
330
19
100
AcDbEntity
  8
SEIHIN
  6
Continuous
 62
     3
100
AcDbLine
 10
983.6655702781788
 20
428.4239341022316
 30
0.0
 11
983.6655702781788
 21
454.1239341022315
 31
0.0
  0
LINE
  5
2391
330
19
100
AcDbEntity
  8
SEIHIN
  6
Continuous
 62
     3
100
AcDbLine
 10
951.1198719952787
 20
425.1239341022315
 30
0.0
 11
951.1198719952787
 21
454.1239341022315
 31
0.0
  0
LINE
  5
2398
330
19
100
AcDbEntity
  8
SEIHIN
  6
Continuous
 62
     3
100
AcDbLine
 10
962.9419569692789
 20
429.4817454492315
 30
0.0
 11
962.9388826726788
 21
429.4561535976316
 31
0.0
  0
LINE
  5
239F
330
19
100
AcDbEntity
  8
SEIHIN
  6
Continuous
 62
     3
100
AcDbLine
 10
990.2655702781787
 20
428.4239341022316
 30
0.0
 11
990.2655702781787
 21
429.4817454492315
 31
0.0
  0
LINE
  5
23A2
330
19
100
AcDbEntity
  8
SEIHIN
  6
Continuous
 62
     3
100
AcDbLine
 10
961.1655702781789
 20
456.1239341022315
 30
0.0
 11
970.4923110454791
 21
456.9349550385315
 31
0.0
  0
LINE
  5
23A3
330
19
100
AcDbEntity
  8
SEIHIN
  6
Continuous
 62
     3
100
AcDbLine
 10
973.492311045479
 20
460.2071453987315
 30
0.0
 11
960.9260913653791
 21
459.1144306439316
 31
0.0
  0
ARC
  5
23A4
330
19
100
AcDbEntity
  8
SEIHIN
  6
Continuous
 62
     3
100
AcDbCircle
 10
967.8921662927789
 20
453.3536246257315
 30
0.0
 40
10.00000000000001
100
AcDbArc
 50
78.63579496300442
 51
137.8891164071005
  0
ARC
  5
23A6
330
19
100
AcDbEntity
  8
SEIHIN
  6
Continuous
 62
     3
100
AcDbCircle
 10
963.2593576648789
 20
432.1239341022315
 30
0.0
 40
3.0
100
AcDbArc
 50
90.0
 51
173.1500000000001
  0
LINE
  5
23A7
330
19
100
AcDbEntity
  8
SEIHIN
  6
Continuous
 62
     3
100
AcDbLine
 10
961.1655702781789
 20
454.1239341022315
 30
0.0
 11
961.1655702781789
 21
456.1239341022315
 31
0.0
  0
ARC
  5
23A8
330
19
100
AcDbEntity
  8
SEIHIN
  6
Continuous
 62
     3
100
AcDbCircle
 10
961.1426654062791
 20
456.6238291734316
 30
0.0
 40
2.500000000000022
100
AcDbArc
 50
94.96974072811454
 51
270.524948340186
  0
LINE
  5
23AA
330
19
100
AcDbEntity
  8
SEIHIN
  6
Continuous
 62
     3
100
AcDbLine
 10
951.1198719952789
 20
454.1239341022315
 30
0.0
 11
972.6655702781789
 21
454.1239341022315
 31
0.0
  0
LINE
  5
23AB
330
19
100
AcDbEntity
  8
SEIHIN
  6
Continuous
 62
     3
100
AcDbLine
 10
959.3968934920788
 20
454.1239341022315
 30
0.0
 11
961.1197605343788
 21
454.1239341022315
 31
0.0
  0
ARC
  5
23AC
330
19
100
AcDbEntity
  8
SEIHIN
  6
Continuous
 62
     3
100
AcDbCircle
 10
967.8921662927789
 20
453.3536246257315
 30
0.0
 40
10.00000000000963
100
AcDbArc
 50
137.8891164071005
 51
154.149321115403
  0
LINE
  5
23AF
330
19
100
AcDbEntity
  8
SEIHIN
  6
Continuous
 62
     3
100
AcDbLine
 10
990.2655702781787
 20
458.2146642223316
 30
0.0
 11
990.2655702781787
 21
434.1239341022315
 31
0.0
  0
LINE
  5
23B0
330
19
100
AcDbEntity
  8
SEIHIN
  6
Continuous
 62
     3
100
AcDbLine
 10
975.6655702781788
 20
434.1239341022315
 30
0.0
 11
975.6655702781788
 21
458.2146642223316
 31
0.0
  0
LINE
  5
23B1
330
19
100
AcDbEntity
  8
SEIHIN
  6
Continuous
 62
     3
100
AcDbLine
 10
972.6655702781789
 20
454.9424738621315
 30
0.0
 11
972.6655702781789
 21
436.1239341022315
 31
0.0
  0
LINE
  5
23B2
330
19
100
AcDbEntity
  8
SEIHIN
  6
Continuous
 62
     3
100
AcDbLine
 10
983.6655702781788
 20
454.1239341022315
 30
0.0
 11
975.6655702781788
 21
454.1239341022315
 31
0.0
  0
LINE
  5
23B3
330
19
100
AcDbEntity
  8
SEIHIN
  6
Continuous
 62
     3
100
AcDbLine
 10
971.6655702781789
 20
435.1239341022315
 30
0.0
 11
963.2593576648789
 21
435.1239341022315
 31
0.0
  0
LINE
  5
23B4
330
19
100
AcDbEntity
  8
SEIHIN
  6
Continuous
 62
     3
100
AcDbLine
 10
964.138923717979
 20
432.1239341022315
 30
0.0
 11
973.6655702781789
 21
432.1239341022315
 31
0.0
  0
ARC
  5
23B5
330
19
100
AcDbEntity
  8
SEIHIN
  6
Continuous
 62
     3
100
AcDbCircle
 10
971.6655702781789
 20
436.1239341022315
 30
0.0
 40
1.0
100
AcDbArc
 50
270.0
 51
0.0
  0
ARC
  5
23B6
330
19
100
AcDbEntity
  8
SEIHIN
  6
Continuous
 62
     3
100
AcDbCircle
 10
973.6655702781789
 20
434.1239341022315
 30
0.0
 40
2.0
100
AcDbArc
 50
270.0
 51
0.0
  0
LINE
  5
23BB
330
19
100
AcDbEntity
  8
SEIHIN
  6
Continuous
 62
     3
100
AcDbLine
 10
990.2655702781787
 20
432.1239341022315
 30
0.0
 11
990.2655702781787
 21
434.1239341022315
 31
0.0
  0
ARC
  5
23BC
330
19
100
AcDbEntity
  8
SEIHIN
  6
Continuous
 62
     3
100
AcDbCircle
 10
969.6655702781788
 20
462.1771748354316
 30
0.0
 40
1.0
100
AcDbArc
 50
0.0
 51
78.63579496300442
  0
ARC
  5
23BD
330
19
100
AcDbEntity
  8
SEIHIN
  6
Continuous
 62
     3
100
AcDbCircle
 10
971.6655702781789
 20
461.0520719737315
 30
0.0
 40
0.9999999999999369
100
AcDbArc
 50
184.9697407281018
 51
274.9697407281146
  0
ARC
  5
23BE
330
19
100
AcDbEntity
  8
SEIHIN
  6
Continuous
 62
     3
100
AcDbCircle
 10
970.6655702781787
 20
454.9424738621315
 30
0.0
 40
2.0
100
AcDbArc
 50
0.0
 51
94.96974072808859
  0
ARC
  5
23BF
330
19
100
AcDbEntity
  8
SEIHIN
  6
Continuous
 62
     3
100
AcDbCircle
 10
973.6655702781789
 20
458.2146642223316
 30
0.0
 40
2.0
100
AcDbArc
 50
0.0
 51
94.96974072811454
  0
ARC
  5
23C0
330
19
100
AcDbEntity
  8
SEIHIN
  6
Continuous
 62
     3
100
AcDbCircle
 10
971.6655702781789
 20
461.0520719737315
 30
0.0
 40
1.0
100
AcDbArc
 50
180.0
 51
184.9697407281018
  0
LINE
  5
23C1
330
19
100
AcDbEntity
  8
SEIHIN
  6
Continuous
 62
     3
100
AcDbLine
 10
970.6655702781787
 20
461.0520719737315
 30
0.0
 11
970.6655702781787
 21
462.1771748354316
 31
0.0
  0
LINE
  5
23C2
330
19
100
AcDbEntity
  8
SEIHIN
  6
Continuous
 62
     3
100
AcDbLine
 10
990.2655702781787
 20
458.2146642223316
 30
0.0
 11
990.2655702781787
 21
460.2146642223315
 31
0.0
  0
LINE
  5
23C3
330
19
100
AcDbEntity
  8
SEIHIN
  6
Continuous
 62
     3
100
AcDbLine
 10
1037.765570278178
 20
432.1239341022315
 30
0.0
 11
1037.765570278178
 21
429.4666552155316
 31
0.0
  0
LINE
  5
23C4
330
19
100
AcDbEntity
  8
SEIHIN
  6
Continuous
 62
     3
100
AcDbLine
 10
1015.515570278179
 20
463.3536246257316
 30
0.0
 11
1012.515570278178
 21
463.3536246257316
 31
0.0
  0
LINE
  5
23C5
330
19
100
AcDbEntity
  8
SEIHIN
  6
Continuous
 62
     3
100
AcDbLine
 10
1012.515570278178
 20
463.1575693032315
 30
0.0
 11
1012.515570278178
 21
463.3536246257316
 31
0.0
  0
LINE
  5
23C6
330
19
100
AcDbEntity
  8
SEIHIN
  6
Continuous
 62
     3
100
AcDbLine
 10
1015.515570278179
 20
463.1575693032315
 30
0.0
 11
1015.515570278179
 21
463.3536246257316
 31
0.0
  0
LINE
  5
23C7
330
19
100
AcDbEntity
  8
SEIHIN
  6
Continuous
 62
     3
100
AcDbLine
 10
1012.515570278178
 20
461.0520719737315
 30
0.0
 11
1012.515570278178
 21
462.1771748354316
 31
0.0
  0
LINE
  5
23C8
330
19
100
AcDbEntity
  8
SEIHIN
  6
Continuous
 62
     3
100
AcDbLine
 10
1015.515570278179
 20
461.0520719737315
 30
0.0
 11
1015.515570278179
 21
462.1771748354316
 31
0.0
  0
LINE
  5
23C9
330
19
100
AcDbEntity
  8
SEIHIN
  6
Continuous
 62
     3
100
AcDbLine
 10
1012.515570278178
 20
463.1575693032315
 30
0.0
 11
1012.515570278178
 21
462.1771748354316
 31
0.0
  0
LINE
  5
23CA
330
19
100
AcDbEntity
  8
SEIHIN
  6
Continuous
 62
     3
100
AcDbLine
 10
1015.515570278179
 20
462.1771748354316
 30
0.0
 11
1015.515570278179
 21
463.1575693032315
 31
0.0
  0
LINE
  5
23CB
330
19
100
AcDbEntity
  8
SEIHIN
  6
Continuous
 62
     3
100
AcDbLine
 10
1015.515570278179
 20
460.9654423574315
 30
0.0
 11
1015.515570278179
 21
461.0520719737315
 31
0.0
  0
LINE
  5
23CD
330
19
100
AcDbEntity
  8
SEIHIN
  6
Continuous
 62
     3
100
AcDbLine
 10
1012.515570278178
 20
461.0520719737315
 30
0.0
 11
1012.515570278178
 21
460.9654423574315
 31
0.0
  0
LINE
  5
23CE
330
19
100
AcDbEntity
  8
SEIHIN
  6
Continuous
 62
     3
100
AcDbLine
 10
1037.765570278178
 20
434.1239341022315
 30
0.0
 11
1037.765570278178
 21
458.2146642223316
 31
0.0
  0
LINE
  5
23CF
330
19
100
AcDbEntity
  8
SEIHIN
  6
Continuous
 62
     3
100
AcDbLine
 10
1037.765570278178
 20
434.1239341022315
 30
0.0
 11
1037.765570278178
 21
432.1239341022315
 31
0.0
  0
LINE
  5
23D0
330
19
100
AcDbEntity
  8
SEIHIN
  6
Continuous
 62
     3
100
AcDbLine
 10
1037.765570278178
 20
466.6239341022315
 30
0.0
 11
1037.765570278178
 21
463.9817454492315
 31
0.0
  0
LINE
  5
23D1
330
19
100
AcDbEntity
  8
SEIHIN
  6
Continuous
 62
     3
100
AcDbLine
 10
1037.765570278178
 20
460.2146642223315
 30
0.0
 11
1037.765570278178
 21
458.2146642223316
 31
0.0
  0
LINE
  5
23D2
330
19
100
AcDbEntity
  8
SEIHIN
  6
Continuous
 62
     3
100
AcDbLine
 10
1037.765570278178
 20
460.2146642223315
 30
0.0
 11
1037.765570278178
 21
463.9817454492315
 31
0.0
  0
LINE
  5
23D3
330
19
100
AcDbEntity
  8
SEIHIN
  6
Continuous
 62
     3
100
AcDbLine
 10
1037.765570278178
 20
467.6239341022315
 30
0.0
 11
1037.765570278178
 21
466.6239341022315
 31
0.0
  0
LINE
  5
23D4
330
19
100
AcDbEntity
  8
SEIHIN
  6
Continuous
 62
     3
100
AcDbLine
 10
1037.765570278178
 20
490.3610217311315
 30
0.0
 11
990.2655702781787
 21
490.3610217311315
 31
0.0
  0
LINE
  5
23D5
330
19
100
AcDbEntity
  8
SEIHIN
  6
Continuous
 62
     3
100
AcDbLine
 10
990.2655702781787
 20
484.1239341022315
 30
0.0
 11
1037.765570278178
 21
484.1239341022315
 31
0.0
  0
LINE
  5
23D6
330
19
100
AcDbEntity
  8
SEIHIN
  6
Continuous
 62
     3
100
AcDbLine
 10
990.2655702781787
 20
488.0975566709315
 30
0.0
 11
1037.765570278178
 21
488.0975566709315
 31
0.0
  0
LINE
  5
23D7
330
19
100
AcDbEntity
  8
SEIHIN
  6
Continuous
 62
     3
100
AcDbLine
 10
990.2655702781787
 20
489.8333711953315
 30
0.0
 11
990.2655702781787
 21
488.0975566709315
 31
0.0
  0
LINE
  5
23D8
330
19
100
AcDbEntity
  8
SEIHIN
  6
Continuous
 62
     3
100
AcDbLine
 10
987.2655702781788
 20
484.9424738621315
 30
0.0
 11
987.2655702781788
 21
490.1352548972314
 31
0.0
  0
ARC
  5
23D9
330
19
100
AcDbEntity
  8
SEIHIN
  6
Continuous
 62
     3
100
AcDbCircle
 10
994.7292644756792
 20
477.2230452873315
 30
0.0
 40
10.73761186651667
100
AcDbArc
 50
115.2472297354048
 51
134.0350394100914
  0
LINE
  5
23DA
330
19
100
AcDbEntity
  8
SEIHIN
  6
Continuous
 62
     3
100
AcDbLine
 10
990.2655702781787
 20
484.9424738621315
 30
0.0
 11
987.2655702781788
 21
484.9424738621315
 31
0.0
  0
LINE
  5
23DB
330
19
100
AcDbEntity
  8
SEIHIN
  6
Continuous
 62
     3
100
AcDbLine
 10
990.2655702781787
 20
488.0975566709315
 30
0.0
 11
990.2655702781787
 21
484.1239341022315
 31
0.0
  0
LINE
  5
23DC
330
19
100
AcDbEntity
  8
SEIHIN
  6
Continuous
 62
     3
100
AcDbLine
 10
990.2655702781787
 20
490.3610217311315
 30
0.0
 11
990.2655702781787
 21
490.0681285122315
 31
0.0
  0
LINE
  5
23DD
330
19
100
AcDbEntity
  8
SEIHIN
  6
Continuous
 62
     3
100
AcDbLine
 10
990.2655702781787
 20
490.0681285122315
 30
0.0
 11
990.2655702781787
 21
489.8333711953315
 31
0.0
  0
LINE
  5
23DE
330
19
100
AcDbEntity
  8
SEIHIN
  6
Continuous
 62
     3
100
AcDbLine
 10
973.492311045479
 20
671.9701451998304
 30
0.0
 11
960.9260913653791
 21
671.9701451998304
 31
0.0
  0
LINE
  5
23DF
330
19
100
AcDbEntity
  8
SEIHIN
  6
Continuous
 62
     3
100
AcDbLine
 10
958.642665406279
 20
671.9701451998304
 30
0.0
 11
948.9242706259791
 21
671.9701451998304
 31
0.0
  0
LINE
  5
23E0
330
19
100
AcDbEntity
  8
SEIHIN
  6
Continuous
 62
     3
100
AcDbLine
 10
948.9242706259791
 20
671.9701451998304
 30
0.0
 11
947.4349779213792
 21
671.9701451998304
 31
0.0
  0
LINE
  5
23E1
330
19
100
AcDbEntity
  8
SEIHIN
  6
Continuous
 62
     3
100
AcDbLine
 10
960.9260913653791
 20
671.9701451998304
 30
0.0
 11
958.642665406279
 21
671.9701451998304
 31
0.0
  0
LINE
  5
23E2
330
19
100
AcDbEntity
  8
SEIHIN
  6
Continuous
 62
     3
100
AcDbLine
 10
975.6655702781788
 20
671.9701451998304
 30
0.0
 11
973.492311045479
 21
671.9701451998304
 31
0.0
  0
LINE
  5
23E3
330
19
100
AcDbEntity
  8
SEIHIN
  6
Continuous
 62
     3
100
AcDbLine
 10
1037.765570278178
 20
488.0975566709315
 30
0.0
 11
1037.765570278178
 21
489.8333711953315
 31
0.0
  0
LINE
  5
23E4
330
19
100
AcDbEntity
  8
SEIHIN
  6
Continuous
 62
     3
100
AcDbLine
 10
1037.765570278178
 20
484.1239341022315
 30
0.0
 11
1037.765570278178
 21
488.0975566709315
 31
0.0
  0
LINE
  5
23E5
330
19
100
AcDbEntity
  8
SEIHIN
  6
Continuous
 62
     3
100
AcDbLine
 10
1037.765570278178
 20
489.8333711953315
 30
0.0
 11
1037.765570278178
 21
490.0681285122315
 31
0.0
  0
LINE
  5
23E6
330
19
100
AcDbEntity
  8
SEIHIN
  6
Continuous
 62
     3
100
AcDbLine
 10
1037.765570278178
 20
490.0681285122315
 30
0.0
 11
1037.765570278178
 21
490.3610217311315
 31
0.0
  0
SPLINE
  5
23E7
330
19
100
AcDbEntity
  8
SEIHIN
  6
Continuous
 62
     3
100
AcDbSpline
210
0.0
220
0.0
230
1.0
 70
    24
 71
     3
 72
     8
 73
     4
 74
     0
 42
0.0000000001
 43
0.0000000001
 40
0.0
 40
0.0
 40
0.0
 40
0.0
 40
1.0
 40
1.0
 40
1.0
 40
1.0
 10
978.6515702782024
 20
760.8114448520283
 30
0.0
 10
998.3562369448689
 20
760.8114448520284
 30
0.0
 10
1018.060903611535
 20
760.8114448520287
 30
0.0
 10
1037.765570278202
 20
760.8114448520288
 30
0.0
  0
SPLINE
  5
23E8
330
19
100
AcDbEntity
  8
SEIHIN
  6
Continuous
 62
     3
100
AcDbSpline
210
0.0
220
0.0
230
1.0
 70
     8
 71
     3
 72
     8
 73
     4
 74
     0
 42
0.0000000001
 43
0.0000000001
 40
0.0
 40
0.0
 40
0.0
 40
0.0
 40
1.0
 40
1.0
 40
1.0
 40
1.0
 10
960.6902794940204
 20
761.5378213217582
 30
0.0
 10
964.9715518473279
 20
761.5378213217582
 30
0.0
 10
969.2528242006359
 20
761.6557785045004
 30
0.0
 10
973.5340965539437
 20
761.6557785045005
 30
0.0
  0
SPLINE
  5
23E9
330
19
100
AcDbEntity
  8
SEIHIN
  6
Continuous
 62
     3
100
AcDbSpline
210
0.0
220
0.0
230
1.0
 70
     8
 71
     3
 72
     8
 73
     4
 74
     0
 42
0.0000000001
 43
0.0000000001
 40
0.0
 40
0.0
 40
0.0
 40
0.0
 40
1.0
 40
1.0
 40
1.0
 40
1.0
 10
948.1978941562813
 20
749.0454359840194
 30
0.0
 10
948.1978941562813
 20
744.7641636307117
 30
0.0
 10
948.0799369735393
 20
740.4828912774038
 30
0.0
 10
948.0799369735393
 20
736.201618924096
 30
0.0
  0
ELLIPSE
  5
23EA
330
19
100
AcDbEntity
  8
SEIHIN
  6
Continuous
 62
     3
100
AcDbEllipse
 10
986.9655702781789
 20
746.9208312130303
 30
0.0
 11
-3.299999999999954
 21
0.0000000000001226
 31
0.0
210
0.0
220
0.0
230
1.0
 40
0.1201279459001035
 41
3.141592653590102
 42
3.59576829217892
  0
ELLIPSE
  5
23EB
330
19
100
AcDbEntity
  8
SEIHIN
  6
Continuous
 62
     3
100
AcDbEllipse
 10
986.9655702781789
 20
749.9423997644304
 30
0.0
 11
3.299999999999954
 21
0.000000000000105
 31
0.0
210
0.0
220
0.0
230
1.0
 40
0.1201279458999857
 41
-0.0000000000002647
 42
1.570796326794893
  0
ELLIPSE
  5
23EE
330
19
100
AcDbEntity
  8
SEIHIN
  6
Continuous
 62
     3
100
AcDbEllipse
 10
986.9655702781789
 20
746.4948853728303
 30
0.0
 11
3.299469006406625
 21
0.4667734198018201
 31
0.0
210
0.0
220
0.0
230
1.0
 40
0.1268215392000064
 41
0.4362362146946861
 42
1.552856902900465
  0
ELLIPSE
  5
23EF
330
19
100
AcDbEntity
  8
SEIHIN
  6
Continuous
 62
     3
100
AcDbEllipse
 10
986.9655702781789
 20
746.4948853728303
 30
0.0
 11
3.299469006405178
 21
0.4667734198013029
 31
0.0
210
0.0
220
0.0
230
0.9999999999999996
 40
0.1268215392000607
 41
1.552856902900435
 42
2.331211948270819
  0
ELLIPSE
  5
23F0
330
19
100
AcDbEntity
  8
SEIHIN
  6
Continuous
 62
     3
100
AcDbEllipse
 10
959.7933157136788
 20
722.7701451998304
 30
0.0
 11
0.000000000000105
 21
3.299999999999954
 31
0.0
210
0.0
220
0.0
230
1.0
 40
0.1201279458999858
 41
1.5707963267949
 42
3.141592653590057
  0
ELLIPSE
  5
23F1
330
19
100
AcDbEntity
  8
SEIHIN
  6
Continuous
 62
     3
100
AcDbEllipse
 10
962.8148842649791
 20
722.7701451998304
 30
0.0
 11
0.0000000000001589
 21
3.299999999999954
 31
0.0
210
0.0
220
0.0
230
1.0
 40
0.1201279458998927
 41
2.687417015000516
 42
3.141592653590191
  0
ELLIPSE
  5
23F2
330
19
100
AcDbEntity
  8
SEIHIN
  6
Continuous
 62
     3
100
AcDbEllipse
 10
963.2408301052789
 20
722.7701451998304
 30
0.0
 11
0.4667734198018494
 21
3.299469006406461
 31
0.0
210
0.0
220
0.0
230
0.9999999999999998
 40
0.1268215392000075
 41
1.588735750689364
 42
2.705356438895206
  0
ELLIPSE
  5
23F5
330
19
100
AcDbEntity
  8
SEIHIN
  6
Continuous
 62
     3
100
AcDbEllipse
 10
963.2408301052789
 20
722.7701451998304
 30
0.0
 11
0.4667734198022781
 21
3.299469006409003
 31
0.0
210
0.0
220
0.0
230
1.0
 40
0.126821539199909
 41
0.8103807053200618
 42
1.588735750689352
  0
LINE
  5
23F6
330
19
100
AcDbEntity
  8
SUNPOU
  6
PHANTOM
 62
     4
 48
5.0
100
AcDbLine
 10
983.7655702781788
 20
762.3007375566303
 30
0.0
 11
983.7655702781788
 21
909.6395528430303
 31
0.0
  0
LINE
  5
23F7
330
19
100
AcDbEntity
  8
SEIHIN
  6
Continuous
 62
     3
100
AcDbLine
 10
1037.765570278178
 20
762.3007375566303
 30
0.0
 11
1037.765570278178
 21
909.6395528430303
 31
0.0
  0
LINE
  5
23F8
330
19
100
AcDbEntity
  8
SEIHIN
  6
Continuous
 62
     3
100
AcDbLine
 10
1037.765570278178
 20
751.0930500717304
 30
0.0
 11
990.2655702781787
 21
751.0930500717304
 31
0.0
  0
LINE
  5
23F9
330
19
100
AcDbEntity
  8
SEIHIN
  6
Continuous
 62
     3
100
AcDbLine
 10
1037.765570278178
 20
734.0701451998303
 30
0.0
 11
990.2655702781787
 21
734.0701451998303
 31
0.0
  0
LINE
  5
23FA
330
19
100
AcDbEntity
  8
SEIHIN
  6
Continuous
 62
     3
100
AcDbLine
 10
990.2655702781787
 20
748.8096241126303
 30
0.0
 11
990.2655702781787
 21
736.2434044325303
 31
0.0
  0
ARC
  5
23FB
330
19
100
AcDbEntity
  8
SEIHIN
  6
Continuous
 62
     3
100
AcDbCircle
 10
964.6220054002791
 20
744.6678381364304
 30
0.0
 40
10.0
100
AcDbArc
 50
180.0
 51
244.901449331901
  0
ARC
  5
23FC
330
19
100
AcDbEntity
  8
SEIHIN
  6
Continuous
 62
     3
100
AcDbCircle
 10
964.1198719952788
 20
744.4931556050304
 30
0.0
 40
13.0
100
AcDbArc
 50
180.0
 51
243.3718355139879
  0
LINE
  5
23FD
330
19
100
AcDbEntity
  8
SEIHIN
  6
Continuous
 62
     3
100
AcDbLine
 10
959.3968934920788
 20
726.0701451998303
 30
0.0
 11
963.2593576648789
 21
726.0701451998303
 31
0.0
  0
LINE
  5
23FE
330
19
100
AcDbEntity
  8
SEIHIN
  6
Continuous
 62
     3
100
AcDbLine
 10
959.3968934920788
 20
722.7701451998304
 30
0.0
 11
962.814080500679
 21
722.7701451998304
 31
0.0
  0
LINE
  5
23FF
330
19
100
AcDbEntity
  8
SEIHIN
  6
Continuous
 62
     3
100
AcDbLine
 10
960.9260913653791
 20
719.4701451998304
 30
0.0
 11
973.492311045479
 21
719.4701451998304
 31
0.0
  0
ARC
  5
2400
330
19
100
AcDbEntity
  8
SEIHIN
  6
Continuous
 62
     3
100
AcDbCircle
 10
958.259357664879
 20
731.0841451998303
 30
0.0
 40
5.0
100
AcDbArc
 50
0.0
 51
64.90144933190094
  0
LINE
  5
2402
330
19
100
AcDbEntity
  8
SEIHIN
  6
Continuous
 62
     3
100
AcDbLine
 10
960.9260913653791
 20
698.2201451998304
 30
0.0
 11
971.7521998945787
 21
698.2201451998304
 31
0.0
  0
LINE
  5
2404
330
19
100
AcDbEntity
  8
SEIHIN
  6
Continuous
 62
     3
100
AcDbLine
 10
971.7521998945787
 20
693.2201451998304
 30
0.0
 11
960.9260913653791
 21
693.2201451998304
 31
0.0
  0
LINE
  5
2405
330
19
100
AcDbEntity
  8
SEIHIN
  6
Continuous
 62
     3
100
AcDbLine
 10
958.8928317774792
 20
698.2201451998304
 30
0.0
 11
960.9260913653791
 21
698.2201451998304
 31
0.0
  0
LINE
  5
2408
330
19
100
AcDbEntity
  8
SEIHIN
  6
Continuous
 62
     3
100
AcDbLine
 10
960.9260913653791
 20
693.2201451998304
 30
0.0
 11
958.8928317774792
 21
693.2201451998304
 31
0.0
  0
LINE
  5
240B
330
19
100
AcDbEntity
  8
SEIHIN
  6
Continuous
 62
     3
100
AcDbLine
 10
958.8928317774792
 20
698.2201451998304
 30
0.0
 11
958.8928317774792
 21
693.2201451998304
 31
0.0
  0
LINE
  5
240C
330
19
100
AcDbEntity
  8
SEIHIN
  6
Continuous
 62
     3
100
AcDbLine
 10
959.3968934920788
 20
722.7701451998304
 30
0.0
 11
959.3968934920788
 21
726.0701451998303
 31
0.0
  0
LINE
  5
240D
330
19
100
AcDbEntity
  8
SEIHIN
  6
Continuous
 62
     3
100
AcDbLine
 10
958.642665406279
 20
719.4701451998304
 30
0.0
 11
960.9260913653791
 21
719.4701451998304
 31
0.0
  0
LINE
  5
240E
330
19
100
AcDbEntity
  8
SEIHIN
  6
Continuous
 62
     3
100
AcDbLine
 10
959.3968934920788
 20
731.0841451998303
 30
0.0
 11
948.9242706259791
 21
731.0841451998303
 31
0.0
  0
LINE
  5
240F
330
19
100
AcDbEntity
  8
SEIHIN
  6
Continuous
 62
     3
100
AcDbLine
 10
948.3954861106782
 20
733.2494054823304
 30
0.0
 11
948.8174124613786
 21
731.7302549664304
 31
0.0
  0
LINE
  5
2410
330
19
100
AcDbEntity
  8
SEIHIN
  6
Continuous
 62
     3
100
AcDbLine
 10
948.0799369735784
 20
736.2016189241303
 30
0.0
 11
948.3954861106782
 21
733.2494054823304
 31
0.0
  0
LINE
  5
2411
330
19
100
AcDbEntity
  8
SEIHIN
  6
Continuous
 62
     3
100
AcDbLine
 10
948.817412461379
 20
731.7302549664304
 30
0.0
 11
948.9242706259791
 21
731.0841451998303
 31
0.0
  0
LINE
  5
2412
330
19
100
AcDbEntity
  8
SEIHIN
  6
Continuous
 62
     3
100
AcDbLine
 10
959.3968934920788
 20
731.0841451998303
 30
0.0
 11
959.3968934920788
 21
726.0701451998303
 31
0.0
  0
ARC
  5
2413
330
19
100
AcDbEntity
  8
SEIHIN
  6
Continuous
 62
     3
100
AcDbCircle
 10
957.3968934920788
 20
731.0841451998303
 30
0.0
 40
2.0
100
AcDbArc
 50
0.0
 51
63.37183551398791
  0
LINE
  5
2419
330
19
100
AcDbEntity
  8
SEIHIN
  6
Continuous
 62
     3
100
AcDbLine
 10
971.7521998945787
 20
698.2201451998304
 30
0.0
 11
971.7521998945787
 21
693.2201451998304
 31
0.0
  0
LINE
  5
241B
330
19
100
AcDbEntity
  8
SEIHIN
  6
Continuous
 62
     3
100
AcDbLine
 10
963.2593576648789
 20
726.0701451998303
 30
0.0
 11
963.2593576648789
 21
725.0871050573303
 31
0.0
  0
LINE
  5
241C
330
19
100
AcDbEntity
  8
SEIHIN
  6
Continuous
 62
     3
100
AcDbLine
 10
973.492311045479
 20
719.4701451998304
 30
0.0
 11
975.6655702781788
 21
719.4701451998304
 31
0.0
  0
LINE
  5
241D
330
19
100
AcDbEntity
  8
SEIHIN
  6
Continuous
 62
     3
100
AcDbLine
 10
963.2593576648789
 20
726.0701451998303
 30
0.0
 11
963.2593576648789
 21
731.0841451998303
 31
0.0
  0
LINE
  5
241E
330
19
100
AcDbEntity
  8
SEIHIN
  6
Continuous
 62
     3
100
AcDbLine
 10
990.2655702781787
 20
734.0701451998303
 30
0.0
 11
990.2655702781787
 21
736.2434044325303
 31
0.0
  0
ARC
  5
241F
330
19
100
AcDbEntity
  8
SEIHIN
  6
Continuous
 62
     3
100
AcDbCircle
 10
963.6198719952787
 20
746.1158434828304
 30
0.0
 40
12.5
100
AcDbArc
 50
90.0
 51
180.0
  0
ARC
  5
2420
330
19
100
AcDbEntity
  8
SEIHIN
  6
Continuous
 62
     3
100
AcDbCircle
 10
964.6220054002791
 20
745.1137100777303
 30
0.0
 40
10.0
100
AcDbArc
 50
90.0
 51
180.0
  0
ARC
  5
2421
330
19
100
AcDbEntity
  8
SEIHIN
  6
Continuous
 62
     3
100
AcDbCircle
 10
960.6785436223788
 20
749.0571718556303
 30
0.0
 40
12.48065498386282
100
AcDbArc
 50
89.94612333940841
 51
180.0538766606014
  0
LINE
  5
2422
330
19
100
AcDbEntity
  8
SEIHIN
  6
Continuous
 62
     3
100
AcDbLine
 10
951.1198719952787
 20
746.1158434828304
 30
0.0
 11
951.1198719952787
 21
744.4931556050304
 31
0.0
  0
LINE
  5
2423
330
19
100
AcDbEntity
  8
SEIHIN
  6
Continuous
 62
     3
100
AcDbLine
 10
954.6220054002789
 20
744.6678381364304
 30
0.0
 11
954.6220054002789
 21
745.1137100777303
 31
0.0
  0
LINE
  5
2424
330
19
100
AcDbEntity
  8
SEIHIN
  6
Continuous
 62
     3
100
AcDbLine
 10
978.6515702781791
 20
760.8114448520304
 30
0.0
 11
978.6515702781791
 21
750.3388219859304
 31
0.0
  0
ARC
  5
2425
330
19
100
AcDbEntity
  8
SEIHIN
  6
Continuous
 62
     3
100
AcDbCircle
 10
965.242559872979
 20
745.6158434828304
 30
0.0
 40
12.9999999999999
100
AcDbArc
 50
26.62816448599608
 51
90.0
  0
LINE
  5
2426
330
19
100
AcDbEntity
  8
SEIHIN
  6
Continuous
 62
     3
100
AcDbLine
 10
978.6515702781791
 20
750.3388219859304
 30
0.0
 11
983.6655702781788
 21
750.3388219859304
 31
0.0
  0
LINE
  5
2427
330
19
100
AcDbEntity
  8
SEIHIN
  6
Continuous
 62
     3
100
AcDbLine
 10
983.6655702781788
 20
746.4763578131303
 30
0.0
 11
978.6515702781791
 21
746.4763578131303
 31
0.0
  0
ARC
  5
2428
330
19
100
AcDbEntity
  8
SEIHIN
  6
Continuous
 62
     3
100
AcDbCircle
 10
978.6515702781791
 20
751.4763578131303
 30
0.0
 40
5.000000000000079
100
AcDbArc
 50
205.0985506681004
 51
270.0
  0
ARC
  5
2429
330
19
100
AcDbEntity
  8
SEIHIN
  6
Continuous
 62
     3
100
AcDbCircle
 10
965.0678773415791
 20
745.1137100777303
 30
0.0
 40
9.999999999999745
100
AcDbArc
 50
25.09855066810339
 51
90.0
  0
LINE
  5
242A
330
19
100
AcDbEntity
  8
SEIHIN
  6
Continuous
 62
     3
100
AcDbLine
 10
963.6198719952787
 20
758.6158434828304
 30
0.0
 11
965.242559872979
 21
758.6158434828304
 31
0.0
  0
LINE
  5
242B
330
19
100
AcDbEntity
  8
SEIHIN
  6
Continuous
 62
     3
100
AcDbLine
 10
965.0678773415791
 20
755.1137100777303
 30
0.0
 11
964.6220054002791
 21
755.1137100777303
 31
0.0
  0
ARC
  5
242C
330
19
100
AcDbEntity
  8
SEIHIN
  6
Continuous
 62
     3
100
AcDbCircle
 10
978.6515702781791
 20
752.3388219859303
 30
0.0
 40
2.000000000000379
100
AcDbArc
 50
206.6281644859932
 51
270.0
  0
LINE
  5
242D
330
19
100
AcDbEntity
  8
SEIHIN
  6
Continuous
 62
     3
100
AcDbLine
 10
986.9655702781789
 20
746.9216349774304
 30
0.0
 11
986.9655702781789
 21
750.3388219859304
 31
0.0
  0
LINE
  5
242E
330
19
100
AcDbEntity
  8
SEIHIN
  6
Continuous
 62
     3
100
AcDbLine
 10
983.6655702781788
 20
750.3388219859304
 30
0.0
 11
983.6655702781788
 21
746.4763578131303
 31
0.0
  0
LINE
  5
242F
330
19
100
AcDbEntity
  8
SEIHIN
  6
Continuous
 62
     3
100
AcDbLine
 10
984.6486104207791
 20
746.4763578131303
 30
0.0
 11
983.6655702781788
 21
746.4763578131303
 31
0.0
  0
LINE
  5
2430
330
19
100
AcDbEntity
  8
SEIHIN
  6
Continuous
 62
     3
100
AcDbLine
 10
983.6655702781788
 20
750.3388219859304
 30
0.0
 11
986.9655702781789
 21
750.3388219859304
 31
0.0
  0
LINE
  5
2431
330
19
100
AcDbEntity
  8
SEIHIN
  6
Continuous
 62
     3
100
AcDbLine
 10
990.2655702781787
 20
751.0930500717304
 30
0.0
 11
990.2655702781787
 21
748.8096241126303
 31
0.0
  0
LINE
  5
2432
330
19
100
AcDbEntity
  8
SEIHIN
  6
Continuous
 62
     3
100
AcDbLine
 10
976.4569364617784
 20
761.3465818414304
 30
0.0
 11
973.5340965539787
 21
761.6557785045304
 31
0.0
  0
LINE
  5
2433
330
19
100
AcDbEntity
  8
SEIHIN
  6
Continuous
 62
     3
100
AcDbLine
 10
978.0054605116786
 20
760.9183030166303
 30
0.0
 11
976.4569364617784
 21
761.3465818414304
 31
0.0
  0
LINE
  5
2434
330
19
100
AcDbEntity
  8
SEIHIN
  6
Continuous
 62
     3
100
AcDbLine
 10
978.6515702781791
 20
760.8114448520304
 30
0.0
 11
978.005460511679
 21
760.9183030166303
 31
0.0
  0
LINE
  5
2435
330
19
100
AcDbEntity
  8
SEIHIN
  6
Continuous
 62
     3
100
AcDbLine
 10
1037.765570278178
 20
736.2434044325303
 30
0.0
 11
1037.765570278178
 21
748.8096241126303
 31
0.0
  0
LINE
  5
2436
330
19
100
AcDbEntity
  8
SEIHIN
  6
Continuous
 62
     3
100
AcDbLine
 10
1037.765570278178
 20
736.2434044325303
 30
0.0
 11
1037.765570278178
 21
734.0701451998303
 31
0.0
  0
LINE
  5
2439
330
19
100
AcDbEntity
  8
SEIHIN
  6
Continuous
 62
     3
100
AcDbLine
 10
1011.515570278179
 20
750.8428837005303
 30
0.0
 11
1016.515570278178
 21
750.8428837005303
 31
0.0
  0
LINE
  5
243A
330
19
100
AcDbEntity
  8
SEIHIN
  6
Continuous
 62
     3
100
AcDbLine
 10
1011.515570278179
 20
737.9835155834304
 30
0.0
 11
1016.515570278178
 21
737.9835155834304
 31
0.0
  0
LINE
  5
243B
330
19
100
AcDbEntity
  8
SEIHIN
  6
Continuous
 62
     3
100
AcDbLine
 10
1011.515570278179
 20
748.8096241126303
 30
0.0
 11
1011.515570278179
 21
737.9835155834304
 31
0.0
  0
LINE
  5
243C
330
19
100
AcDbEntity
  8
SEIHIN
  6
Continuous
 62
     3
100
AcDbLine
 10
1011.515570278179
 20
750.8428837005303
 30
0.0
 11
1011.515570278179
 21
748.8096241126303
 31
0.0
  0
LINE
  5
243E
330
19
100
AcDbEntity
  8
SEIHIN
  6
Continuous
 62
     3
100
AcDbLine
 10
1016.515570278178
 20
737.9835155834304
 30
0.0
 11
1016.515570278178
 21
748.8096241126303
 31
0.0
  0
LINE
  5
2448
330
19
100
AcDbEntity
  8
SEIHIN
  6
Continuous
 62
     3
100
AcDbLine
 10
1016.515570278178
 20
750.8428837005303
 30
0.0
 11
1016.510023298678
 21
750.8384632603304
 31
0.0
  0
LINE
  5
2449
330
19
100
AcDbEntity
  8
SEIHIN
  6
Continuous
 62
     3
100
AcDbLine
 10
1016.515570278178
 20
748.8096241126303
 30
0.0
 11
1016.515570278178
 21
750.8428837005303
 31
0.0
  0
LINE
  5
244B
330
19
100
AcDbEntity
  8
SEIHIN
  6
Continuous
 62
     3
100
AcDbLine
 10
1037.765570278178
 20
751.0930500717304
 30
0.0
 11
1037.765570278178
 21
760.8114448520304
 31
0.0
  0
LINE
  5
244C
330
19
100
AcDbEntity
  8
SEIHIN
  6
Continuous
 62
     3
100
AcDbLine
 10
1037.765570278178
 20
748.8096241126303
 30
0.0
 11
1037.765570278178
 21
751.0930500717304
 31
0.0
  0
LINE
  5
244D
330
19
100
AcDbEntity
  8
SEIHIN
  6
Continuous
 62
     3
100
AcDbLine
 10
1037.765570278178
 20
762.3007375566303
 30
0.0
 11
1037.765570278178
 21
760.8114448520304
 31
0.0
  0
DIMENSION
  5
244E
330
19
100
AcDbEntity
  8
SUNPOU
  6
Continuous
100
AcDbDimension
  2
*D10
 10
1037.765570278178
 20
980.4583190021659
 30
0.0
 11
1010.765570278179
 21
990.4583190021661
 31
0.0
 70
    32
  1
\U+203B<>
 71
     5
 42
-1.0
  3
STANDARD
100
AcDbAlignedDimension
 13
983.7655702781788
 23
909.6395528430303
 33
0.0
 14
1037.765570278178
 24
911.1288455476303
 34
0.0
100
AcDbRotatedDimension
1001
ACAD
1000
DSTYLE
1002
{
1070
    41
1040
14.0
1070
    42
1040
12.0
1070
    43
1040
28.0
1070
    44
1040
6.0
1070
    73
1070
     0
1070
    74
1070
     0
1070
    77
1070
     3
1070
   140
1040
12.0
1070
   141
1040
150.0
1070
   143
1040
0.03937
1070
   147
1040
4.0
1070
   172
1070
     1
1070
   173
1070
     1
1070
   176
1070
     4
1070
   177
1070
     4
1070
   178
1070
     4
1070
   271
1070
     0
1070
   272
1070
     2
1070
     6
1000
OPEN
1070
     7
1000
OPEN
1002
}
  0
LINE
  5
244F
330
19
100
AcDbEntity
  8
SEIHIN
  6
Continuous
 62
     3
100
AcDbLine
 10
990.2655702781787
 20
928.6447729460304
 30
0.0
 11
1037.765570278178
 21
928.6447729460304
 31
0.0
  0
LINE
  5
2450
330
19
100
AcDbEntity
  8
SEIHIN
  6
Continuous
 62
     3
100
AcDbLine
 10
990.2655702781787
 20
922.2402424647302
 30
0.0
 11
1037.765570278178
 21
922.2402424647302
 31
0.0
  0
LINE
  5
2451
330
19
100
AcDbEntity
  8
SEIHIN
  6
Continuous
 62
     3
100
AcDbLine
 10
990.2655702781787
 20
922.6795822929302
 30
0.0
 11
990.2655702781787
 21
922.2402424647302
 31
0.0
  0
LINE
  5
2452
330
19
100
AcDbEntity
  8
SEIHIN
  6
Continuous
 62
     3
100
AcDbLine
 10
990.2655702781787
 20
935.4701451998304
 30
0.0
 11
990.2655702781787
 21
928.6447729460304
 31
0.0
  0
LINE
  5
2453
330
19
100
AcDbEntity
  8
SEIHIN
  6
Continuous
 62
     3
100
AcDbLine
 10
990.2655702781787
 20
924.1025896826302
 30
0.0
 11
990.2655702781787
 21
922.9143396098303
 31
0.0
  0
LINE
  5
2454
330
19
100
AcDbEntity
  8
SEIHIN
  6
Continuous
 62
     3
100
AcDbLine
 10
990.2655702781787
 20
922.9143396098303
 30
0.0
 11
990.2655702781787
 21
922.6795822929302
 31
0.0
  0
LINE
  5
2455
330
19
100
AcDbEntity
  8
SEIHIN
  6
Continuous
 62
     3
100
AcDbLine
 10
990.2655702781787
 20
928.6447729460304
 30
0.0
 11
990.2655702781787
 21
924.1025896826302
 31
0.0
  0
ARC
  5
2456
330
19
100
AcDbEntity
  8
SEIHIN
  6
Continuous
 62
     3
100
AcDbCircle
 10
987.2655702781788
 20
935.4701451998304
 30
0.0
 40
3.0
100
AcDbArc
 50
0.0
 51
90.0
  0
LINE
  5
2457
330
19
100
AcDbEntity
  8
SEIHIN
  6
Continuous
 62
     3
100
AcDbLine
 10
1037.765570278178
 20
922.2402424647302
 30
0.0
 11
1037.765570278178
 21
922.6795822929302
 31
0.0
  0
LINE
  5
2458
330
19
100
AcDbEntity
  8
SEIHIN
  6
Continuous
 62
     3
100
AcDbLine
 10
1037.765570278178
 20
911.1288455476303
 30
0.0
 11
1037.765570278178
 21
909.6395528430303
 31
0.0
  0
LINE
  5
2459
330
19
100
AcDbEntity
  8
SEIHIN
  6
Continuous
 62
     3
100
AcDbLine
 10
1037.765570278178
 20
911.1288455476303
 30
0.0
 11
1037.765570278178
 21
922.2402424647302
 31
0.0
  0
LINE
  5
245A
330
19
100
AcDbEntity
  8
SEIHIN
  6
Continuous
 62
     3
100
AcDbLine
 10
1037.765570278178
 20
928.6447729460304
 30
0.0
 11
1037.765570278178
 21
939.2968859671302
 31
0.0
  0
LINE
  5
245B
330
19
100
AcDbEntity
  8
SEIHIN
  6
Continuous
 62
     3
100
AcDbLine
 10
1037.765570278178
 20
924.1025896826302
 30
0.0
 11
1037.765570278178
 21
928.6447729460304
 31
0.0
  0
LINE
  5
245C
330
19
100
AcDbEntity
  8
SEIHIN
  6
Continuous
 62
     3
100
AcDbLine
 10
1037.765570278178
 20
922.6795822929302
 30
0.0
 11
1037.765570278178
 21
922.9143396098303
 31
0.0
  0
LINE
  5
245D
330
19
100
AcDbEntity
  8
SEIHIN
  6
Continuous
 62
     3
100
AcDbLine
 10
1037.765570278178
 20
922.9143396098303
 30
0.0
 11
1037.765570278178
 21
924.1025896826302
 31
0.0
  0
LINE
  5
245E
330
19
100
AcDbEntity
  8
SEIHIN
  6
Continuous
 62
     3
100
AcDbLine
 10
1037.765570278178
 20
941.4701451998302
 30
0.0
 11
1037.765570278178
 21
939.2968859671302
 31
0.0
  0
ARC
  5
26B4
330
19
100
AcDbEntity
  8
SEIHIN
  6
Continuous
 62
     3
100
AcDbCircle
 10
986.9655702781789
 20
428.4239341022315
 30
0.0
 40
3.300000000000068
100
AcDbArc
 50
179.999999999999
 51
0.0000000000010051
  0
DIMENSION
  5
2714
330
19
100
AcDbEntity
  8
SUNPOU
100
AcDbDimension
  2
*D11
 10
1120.402585547386
 20
734.0701451998303
 30
0.0
 11
1110.402585547385
 21
837.7701451998303
 31
0.0
 70
    32
 71
     5
 42
-1.0
  3
STANDARD
100
AcDbAlignedDimension
 13
1037.765570278178
 23
941.4701451998302
 33
0.0
 14
1037.765570278178
 24
734.0701451998303
 34
0.0
 50
90.0
100
AcDbRotatedDimension
1001
ACAD
1000
DSTYLE
1002
{
1070
    41
1040
14.0
1070
    42
1040
12.0
1070
    43
1040
28.0
1070
    44
1040
6.0
1070
    73
1070
     0
1070
    74
1070
     0
1070
    77
1070
     3
1070
   140
1040
12.0
1070
   141
1040
150.0
1070
   143
1040
0.03937
1070
   147
1040
4.0
1070
   172
1070
     1
1070
   173
1070
     1
1070
   176
1070
   256
1070
   177
1070
   256
1070
   178
1070
   256
1070
   271
1070
     0
1070
   272
1070
     0
1070
   341
1005
27
1070
     6
1000
OPEN
1070
     7
1000
OPEN
1070
   371
1070
    -1
1070
   372
1070
    -1
1002
}
  0
DIMENSION
  5
2721
330
19
100
AcDbEntity
  8
SUNPOU
100
AcDbDimension
  2
*D12
 10
1152.767875515724
 20
671.9701451998304
 30
0.0
 11
1142.767875515724
 21
806.7201451998304
 31
0.0
 70
    32
 71
     5
 42
-1.0
  3
STANDARD
100
AcDbAlignedDimension
 13
1037.765570278178
 23
941.4701451998302
 33
0.0
 14
947.4349779213792
 24
671.9701451998304
 34
0.0
 50
90.0
100
AcDbRotatedDimension
1001
ACAD
1000
DSTYLE
1002
{
1070
    41
1040
14.0
1070
    42
1040
12.0
1070
    43
1040
28.0
1070
    44
1040
6.0
1070
    73
1070
     0
1070
    74
1070
     0
1070
    77
1070
     3
1070
   140
1040
12.0
1070
   141
1040
150.0
1070
   143
1040
0.03937
1070
   147
1040
4.0
1070
   172
1070
     1
1070
   173
1070
     1
1070
   176
1070
   256
1070
   177
1070
   256
1070
   178
1070
   256
1070
   271
1070
     0
1070
   272
1070
     0
1070
   341
1005
27
1070
     6
1000
OPEN
1070
     7
1000
OPEN
1070
   371
1070
    -1
1070
   372
1070
    -1
1002
}
  0
DIMENSION
  5
279E
330
19
100
AcDbEntity
  8
SUNPOU
100
AcDbDimension
  2
*D13
 10
671.1024560830801
 20
333.6239341022316
 30
0.0
 11
661.10245608308
 21
411.9155397504816
 31
0.0
 70
    32
 71
     5
 42
-1.0
  3
STANDARD
100
AcDbAlignedDimension
 13
770.438829510979
 23
490.2071453987316
 33
0.0
 14
797.8785087069788
 24
333.6239341022316
 34
0.0
 50
90.0
100
AcDbRotatedDimension
1001
ACAD
1000
DSTYLE
1002
{
1070
    41
1040
14.0
1070
    42
1040
12.0
1070
    43
1040
28.0
1070
    44
1040
6.0
1070
    73
1070
     0
1070
    74
1070
     0
1070
    77
1070
     3
1070
   140
1040
12.0
1070
   141
1040
150.0
1070
   143
1040
0.03937
1070
   147
1040
4.0
1070
   172
1070
     1
1070
   173
1070
     1
1070
   176
1070
   256
1070
   177
1070
   256
1070
   178
1070
   256
1070
   271
1070
     0
1070
   272
1070
     0
1070
   341
1005
27
1070
     6
1000
OPEN
1070
     7
1000
OPEN
1070
   371
1070
    -1
1070
   372
1070
    -1
1002
}
  0
LINE
  5
27AD
330
19
100
AcDbEntity
  8
SUNPOU
  6
PHANTOM
 62
     4
 48
5.0
100
AcDbLine
 10
948.0814842765227
 20
737.0707451998304
 30
0.0
 11
771.0656445241856
 21
737.0707451998304
 31
0.0
  0
LINE
  5
27AE
330
19
100
AcDbEntity
  8
SEIHIN
  6
Continuous
 62
     3
100
AcDbLine
 10
784.0288641199696
 20
925.7068513580392
 30
0.0
 11
799.1954606402515
 21
910.5402548379249
 31
0.0
  0
LINE
  5
27AF
330
19
100
AcDbEntity
  8
CENTER L
  6
CENTER
 62
     1
 48
5.0
100
AcDbLine
 10
873.7655702781792
 20
320.1312740007609
 30
0.0
 11
873.7655702781792
 21
352.3185758449704
 31
0.0
  0
LINE
  5
28EF
330
19
100
AcDbEntity
  8
NOKITOI
 48
5.0
100
AcDbLine
 10
946.2857715911628
 20
338.4239341022316
 30
0.0
 11
801.2461540352283
 21
338.4239341022316
 31
0.0
  0
LINE
  5
28F0
330
19
100
AcDbEntity
  8
NOKITOI
 48
5.0
100
AcDbLine
 10
800.0941702781792
 20
336.6239341022315
 30
0.0
 11
947.4369702781791
 21
336.6239341022315
 31
0.0
  0
LINE
  5
28F1
330
19
100
AcDbEntity
  8
NOKITOI
 48
5.0
100
AcDbLine
 10
946.2857715911628
 20
337.5239341022316
 30
0.0
 11
801.2461540352283
 21
337.5239341022316
 31
0.0
  0
LINE
  5
28F2
330
19
100
AcDbEntity
  8
NOKITOI
 48
5.0
100
AcDbLine
 10
782.357770278179
 20
486.6241341022315
 30
0.0
 11
800.2534513700378
 21
339.303346298025
 31
0.0
  0
LINE
  5
28F3
330
19
100
AcDbEntity
  8
NOKITOI
 48
5.0
100
AcDbLine
 10
782.730970278179
 20
468.6241341022315
 30
0.0
 11
798.6051702781792
 21
337.9431341022316
 31
0.0
  0
LINE
  5
28F4
330
19
100
AcDbEntity
  8
NOKITOI
 48
5.0
100
AcDbLine
 10
783.4554793985621
 20
470.1241341022316
 30
0.0
 11
799.3600189713661
 21
339.1948172742392
 31
0.0
  0
ARC
  5
28F5
330
19
100
AcDbEntity
  8
NOKITOI
 48
5.0
100
AcDbCircle
 10
800.0942060910038
 20
338.1239023748937
 30
0.0
 40
1.499968273089708
100
AcDbArc
 50
186.9218100777323
 51
269.9986320219204
  0
ARC
  5
28F6
330
19
100
AcDbEntity
  8
NOKITOI
 48
5.0
100
AcDbCircle
 10
801.2461540352283
 20
339.4239341022316
 30
0.0
 40
1.0
100
AcDbArc
 50
186.9260276328737
 51
270.0
  0
ARC
  5
28F7
330
19
100
AcDbEntity
  8
NOKITOI
 48
5.0
100
AcDbCircle
 10
801.2461540352283
 20
339.4239341022316
 30
0.0
 40
1.9
100
AcDbArc
 50
186.9260276328737
 51
270.0
  0
ARC
  5
28F8
330
19
100
AcDbEntity
  8
NOKITOI
 48
5.0
100
AcDbCircle
 10
774.357770278179
 20
484.6241341022316
 30
0.0
 40
2.0
100
AcDbArc
 50
90.0
 51
180.0
  0
LINE
  5
28F9
330
19
100
AcDbEntity
  8
NOKITOI
 48
5.0
100
AcDbLine
 10
782.357770278179
 20
486.6241341022315
 30
0.0
 11
774.357770278179
 21
486.6241341022315
 31
0.0
  0
LINE
  5
28FA
330
19
100
AcDbEntity
  8
NOKITOI
 48
5.0
100
AcDbLine
 10
780.7630702781789
 20
485.1241341022315
 30
0.0
 11
774.357770278179
 21
485.1241341022315
 31
0.0
  0
LINE
  5
28FB
330
19
100
AcDbEntity
  8
NOKITOI
 48
5.0
100
AcDbLine
 10
780.7630702781789
 20
484.8241341022314
 30
0.0
 11
774.357770278179
 21
484.8241341022314
 31
0.0
  0
ARC
  5
28FC
330
19
100
AcDbEntity
  8
NOKITOI
 48
5.0
100
AcDbCircle
 10
774.3577202781789
 20
484.6240841022316
 30
0.0
 40
0.5000500062483003
100
AcDbArc
 50
89.98567963550119
 51
179.9856796354979
  0
ARC
  5
28FD
330
19
100
AcDbEntity
  8
NOKITOI
 48
5.0
100
AcDbCircle
 10
774.3577202781789
 20
484.6240841022316
 30
0.0
 40
0.2000500062483002
100
AcDbArc
 50
89.98567963550119
 51
179.9856796354979
  0
LINE
  5
28FE
330
19
100
AcDbEntity
  8
NOKITOI
 48
5.0
100
AcDbLine
 10
772.3576702781793
 20
468.6241341022315
 30
0.0
 11
782.730970278179
 21
468.6241341022315
 31
0.0
  0
LINE
  5
28FF
330
19
100
AcDbEntity
  8
NOKITOI
 48
5.0
100
AcDbLine
 10
783.4554793985621
 20
470.1241341022316
 30
0.0
 11
773.8576702781792
 21
470.1241341022316
 31
0.0
  0
LINE
  5
2900
330
19
100
AcDbEntity
  8
NOKITOI
 48
5.0
100
AcDbLine
 10
782.5122702781791
 20
470.4241341022316
 30
0.0
 11
774.1576702781794
 21
470.4241341022316
 31
0.0
  0
LINE
  5
2901
330
19
100
AcDbEntity
  8
NOKITOI
 48
5.0
100
AcDbLine
 10
772.3576702781793
 20
468.6241341022315
 30
0.0
 11
772.357770278179
 21
484.6241341022316
 31
0.0
  0
LINE
  5
2902
330
19
100
AcDbEntity
  8
NOKITOI
 48
5.0
100
AcDbLine
 10
773.8576702781792
 20
470.1241341022316
 30
0.0
 11
773.8576702781792
 21
484.6241341022316
 31
0.0
  0
LINE
  5
2903
330
19
100
AcDbEntity
  8
NOKITOI
 48
5.0
100
AcDbLine
 10
782.512299655491
 20
470.4241341022316
 30
0.0
 11
780.7630702781789
 21
484.8241341022314
 31
0.0
  0
LINE
  5
2904
330
19
100
AcDbEntity
  8
NOKITOI
 48
5.0
100
AcDbLine
 10
774.1576702781794
 20
470.4241341022316
 30
0.0
 11
774.1576702781794
 21
484.6241341022316
 31
0.0
  0
LINE
  5
2905
330
19
100
AcDbEntity
  8
NOKITOI
 48
5.0
100
AcDbLine
 10
969.7692702781791
 20
440.4239341022316
 30
0.0
 11
969.7692702781791
 21
454.6240341022315
 31
0.0
  0
LINE
  5
2906
330
19
100
AcDbEntity
  8
NOKITOI
 48
5.0
100
AcDbLine
 10
970.069270278179
 20
440.1239341022316
 30
0.0
 11
970.069270278179
 21
454.6240341022315
 31
0.0
  0
LINE
  5
2907
330
19
100
AcDbEntity
  8
NOKITOI
 48
5.0
100
AcDbLine
 10
971.5692702781788
 20
438.6240341022316
 30
0.0
 11
971.5692702781788
 21
454.6240341022315
 31
0.0
  0
LINE
  5
2908
330
19
100
AcDbEntity
  8
NOKITOI
 48
5.0
100
AcDbLine
 10
961.4092852927027
 20
440.4239341022316
 30
0.0
 11
963.1633702781792
 21
454.8239341022314
 31
0.0
  0
LINE
  5
2909
330
19
100
AcDbEntity
  8
NOKITOI
 48
5.0
100
AcDbLine
 10
961.5692702781789
 20
456.6240341022314
 30
0.0
 11
947.2784343417034
 21
339.3030181657731
 31
0.0
  0
LINE
  5
290A
330
19
100
AcDbEntity
  8
NOKITOI
 48
5.0
100
AcDbLine
 10
961.190070278179
 20
438.6240341022316
 30
0.0
 11
948.9259702781792
 21
337.9426341022317
 31
0.0
  0
LINE
  5
290B
330
19
100
AcDbEntity
  8
NOKITOI
 48
5.0
100
AcDbLine
 10
960.4660506373056
 20
440.1239341022316
 30
0.0
 11
948.1718308171899
 21
339.1941938229605
 31
0.0
  0
ARC
  5
290D
330
19
100
AcDbEntity
  8
NOKITOI
 48
5.0
100
AcDbCircle
 10
947.4369685261203
 20
338.1239325505632
 30
0.0
 40
1.499998448332718
100
AcDbArc
 50
270.0000669237721
 51
353.0579294895364
  0
ARC
  5
290E
330
19
100
AcDbEntity
  8
NOKITOI
 48
5.0
100
AcDbCircle
 10
946.2857715911628
 20
339.4239341022316
 30
0.0
 40
1.0
100
AcDbArc
 50
270.0
 51
353.0550331906538
  0
ARC
  5
290F
330
19
100
AcDbEntity
  8
NOKITOI
 48
5.0
100
AcDbCircle
 10
946.2857715911628
 20
339.4239341022316
 30
0.0
 40
1.9
100
AcDbArc
 50
270.0
 51
353.0550331906538
  0
LINE
  5
2910
330
19
100
AcDbEntity
  8
NOKITOI
 48
5.0
100
AcDbLine
 10
970.069270278179
 20
440.1239341022316
 30
0.0
 11
960.4660506373056
 21
440.1239341022316
 31
0.0
  0
LINE
  5
2911
330
19
100
AcDbEntity
  8
NOKITOI
 48
5.0
100
AcDbLine
 10
971.5692702781788
 20
438.6240341022316
 30
0.0
 11
961.190070278179
 21
438.6240341022316
 31
0.0
  0
LINE
  5
2912
330
19
100
AcDbEntity
  8
NOKITOI
 48
5.0
100
AcDbLine
 10
969.7692702781791
 20
440.4239341022316
 30
0.0
 11
961.4092702781791
 21
440.4239341022316
 31
0.0
  0
LINE
  5
2913
330
19
100
AcDbEntity
  8
NOKITOI
 48
5.0
100
AcDbLine
 10
961.5692702781789
 20
456.6240341022314
 30
0.0
 11
969.5692702781789
 21
456.6240341022314
 31
0.0
  0
LINE
  5
2914
330
19
100
AcDbEntity
  8
NOKITOI
 48
5.0
100
AcDbLine
 10
963.1633702781792
 20
455.1239341022315
 30
0.0
 11
969.5692702781789
 21
455.1239341022315
 31
0.0
  0
LINE
  5
2915
330
19
100
AcDbEntity
  8
NOKITOI
 48
5.0
100
AcDbLine
 10
963.1633702781792
 20
454.8239341022314
 30
0.0
 11
969.5692702781789
 21
454.8239341022314
 31
0.0
  0
ARC
  5
2916
330
19
100
AcDbEntity
  8
NOKITOI
 48
5.0
100
AcDbCircle
 10
969.5692702781789
 20
454.6240341022315
 30
0.0
 40
0.5000000000000739
100
AcDbArc
 50
359.999999999974
 51
89.99999999997395
  0
ARC
  5
2917
330
19
100
AcDbEntity
  8
NOKITOI
 48
5.0
100
AcDbCircle
 10
969.5692702781789
 20
454.6240341022315
 30
0.0
 40
2.0
100
AcDbArc
 50
0.0
 51
90.0
  0
ARC
  5
2918
330
19
100
AcDbEntity
  8
NOKITOI
 48
5.0
100
AcDbCircle
 10
969.5692702781789
 20
454.6240341022315
 30
0.0
 40
0.2000000000000739
100
AcDbArc
 50
359.999999999974
 51
89.99999999997395
  0
VIEWPORT
  5
22
102
{ACAD_XDICTIONARY
360
2B9A
102
}
330
16
100
AcDbEntity
 67
     1
  8
0
100
AcDbViewport
 10
313.6808219178082
 20
163.6373951824752
 30
0.0
 40
627.3616438356164
 41
327.2747903649505
 68
     2
 69
     1
 12
313.6808219178082
 22
163.6373951824752
 13
0.0
 23
0.0
 14
10.0
 24
10.0
 15
10.0
 25
10.0
 16
0.0
 26
0.0
 36
1.0
 17
0.0
 27
0.0
 37
0.0
 42
50.0
 43
0.0
 44
0.0
 45
327.2747903649505
 50
0.0
 51
0.0
 72
   100
 90
    32768
  1

281
     0
 71
     1
 74
     0
110
0.0
120
0.0
130
0.0
111
1.0
121
0.0
131
0.0
112
0.0
122
1.0
132
0.0
 79
     0
146
0.0
  0
VIEWPORT
  5
25
102
{ACAD_XDICTIONARY
360
2B9C
102
}
330
16
100
AcDbEntity
 67
     1
  8
VIEWPORT
100
AcDbViewport
 10
210.0
 20
148.5
 30
0.0
 40
420.0
 41
297.0
 68
     1
 69
     2
 12
841.0
 22
594.0
 13
0.0
 23
0.0
 14
57.0
 24
57.0
 15
57.0
 25
57.0
 16
0.0
 26
0.0
 36
1.0
 17
0.0
 27
0.0
 37
0.0
 42
50.0
 43
0.0
 44
0.0
 45
1212.607689320388
 50
0.0
 51
0.0
 72
   100
 90
    32768
  1

281
     0
 71
     1
 74
     0
110
0.0
120
0.0
130
0.0
111
1.0
121
0.0
131
0.0
112
0.0
122
1.0
132
0.0
 79
     0
146
0.0
  0
ENDSEC
  0
SECTION
  2
OBJECTS
  0
DICTIONARY
  5
C
330
0
100
AcDbDictionary
281
     1
  3
ACAD_COLOR
350
2B57
  3
ACAD_GROUP
350
D
  3
ACAD_LAYOUT
350
11DA
  3
ACAD_MATERIAL
350
2B56
  3
ACAD_MLINESTYLE
350
E
  3
ACAD_PLOTSETTINGS
350
11DB
  3
ACAD_PLOTSTYLENAME
350
11D8
  3
ACDBHEADERROUNDTRIPXREC
350
2B97
  3
AcDbVariableDictionary
350
2B87
  0
DICTIONARY
  5
13D5
330
19
100
AcDbDictionary
280
     1
281
     1
  3
ACAD_LAYOUTSELFREF
360
2B33
  0
DICTIONARY
  5
13D3
330
16
100
AcDbDictionary
280
     1
281
     1
  3
ACAD_LAYOUTSELFREF
360
2B32
  0
DICTIONARY
  5
2B9A
330
22
100
AcDbDictionary
280
     1
281
     1
  3
ACAD_XREC_ROUNDTRIP
360
2B9B
  0
DICTIONARY
  5
2B9C
330
25
100
AcDbDictionary
280
     1
281
     1
  3
ACAD_XREC_ROUNDTRIP
360
2B9D
  0
DICTIONARY
  5
2B57
102
{ACAD_REACTORS
330
C
102
}
330
C
100
AcDbDictionary
281
     1
  0
DICTIONARY
  5
D
102
{ACAD_REACTORS
330
C
102
}
330
C
100
AcDbDictionary
281
     1
  0
DICTIONARY
  5
11DA
102
{ACAD_REACTORS
330
C
102
}
330
C
100
AcDbDictionary
281
     1
  3
Model
350
11DC
  3
ﾚｲｱｳﾄ1
350
11DD
  0
DICTIONARY
  5
2B56
102
{ACAD_REACTORS
330
C
102
}
330
C
100
AcDbDictionary
281
     1
  0
DICTIONARY
  5
E
102
{ACAD_REACTORS
330
C
102
}
330
C
100
AcDbDictionary
281
     1
  3
STANDARD
350
1C
  0
DICTIONARY
  5
11DB
102
{ACAD_REACTORS
330
C
102
}
330
C
100
AcDbDictionary
281
     1
  0
ACDBDICTIONARYWDFLT
  5
11D8
102
{ACAD_REACTORS
330
C
102
}
330
C
100
AcDbDictionary
281
     1
  3
Normal
350
11D9
100
AcDbDictionaryWithDefault
340
11D9
1001
ACAD
1000
TREAT_AS_HARD
1070
     0
1000
TREAT_AS_HARD
1070
     0
1000
TREAT_AS_HARD
1070
     0
1000
TREAT_AS_HARD
1070
     0
1000
TREAT_AS_HARD
1070
     0
1000
TREAT_AS_HARD
1070
     0
1000
TREAT_AS_HARD
1070
     0
1000
TREAT_AS_HARD
1070
     0
  0
DICTIONARY
  5
2B97
102
{ACAD_REACTORS
330
C
102
}
330
C
100
AcDbDictionary
281
     1
  3
COLORDICT
350
2B99
  3
MATERIALDICT
350
2B98
  0
DICTIONARY
  5
2B87
102
{ACAD_REACTORS
330
C
102
}
330
C
100
AcDbDictionary
281
     1
  3
DIMASSOC
350
2B88
  3
PROJECTNAME
350
2B89
  0
XRECORD
  5
2B33
102
{ACAD_REACTORS
330
13D5
102
}
330
13D5
100
AcDbXrecord
280
     1
340
19
  0
XRECORD
  5
2B32
102
{ACAD_REACTORS
330
13D3
102
}
330
13D3
100
AcDbXrecord
280
     1
340
16
  0
XRECORD
  5
2B9B
102
{ACAD_REACTORS
330
2B9A
102
}
330
2B9A
100
AcDbXrecord
280
     1
102
SHADEPLOT
 70
     0
  0
XRECORD
  5
2B9D
102
{ACAD_REACTORS
330
2B9C
102
}
330
2B9C
100
AcDbXrecord
280
     1
102
SHADEPLOT
 70
     0
  0
LAYOUT
  5
11DC
102
{ACAD_XDICTIONARY
360
2B9E
102
}
102
{ACAD_REACTORS
330
11DA
102
}
330
11DA
100
AcDbPlotSettings
  1

  2
Microsoft Print to PDF
  4
A3
  6

 40
3.174999952316284
 41
3.174999952316284
 42
3.17498779296875
 43
3.17498779296875
 44
297.0106506347656
 45
419.9889831542968
 46
0.0
 47
0.0
 48
31.60000001355593
 49
29.99999986828882
140
1625.200000013556
141
1131.599999868289
142
1.0
143
4.0
 70
 28336
 72
     1
 73
     1
 74
     4
  7
monochrome.ctb
 75
    18
147
0.25
148
-31.60000001355593
149
-29.99999986828882
100
AcDbLayout
  1
Model
 70
     1
 71
     0
 10
0.0
 20
0.0
 11
12.0
 21
9.0
 12
0.0
 22
0.0
 32
0.0
 14
0.0
 24
0.0
 34
0.0
 15
0.0
 25
0.0
 35
0.0
146
0.0
 13
0.0
 23
0.0
 33
0.0
 16
1.0
 26
0.0
 36
0.0
 17
0.0
 27
1.0
 37
0.0
 76
     0
330
19
  0
LAYOUT
  5
11DD
102
{ACAD_XDICTIONARY
360
2BA0
102
}
102
{ACAD_REACTORS
330
11DA
102
}
330
11DA
100
AcDbPlotSettings
  1

  2
none_device
  4
Letter_(8.50_x_11.00_Inches)
  6

 40
6.349999904632568
 41
6.349999904632568
 42
6.350006103515625
 43
6.350006103515625
 44
215.8999938964844
 45
279.3999938964844
 46
0.0
 47
0.0
 48
0.0
 49
0.0
140
0.0
141
0.0
142
1.0
143
1.574899339483712
 70
   688
 72
     1
 73
     1
 74
     1
  7
monochrome.ctb
 75
     0
147
0.6349612162056162
148
0.0128164049386896
149
0.0090630292066862
100
AcDbLayout
  1
ﾚｲｱｳﾄ1
 70
     1
 71
     1
 10
-10.01343682308299
 20
-10.00967368473416
 11
430.0134290162437
 21
330.0110840973768
 12
0.0
 22
0.0
 32
0.0
 14
-0.0128164049386896
 24
-0.0090630292066862
 34
-0.0015258207003583
 15
420.0128183607161
 25
297.0090644122207
 35
0.0000000349246037
146
0.0
 13
0.0
 23
0.0
 33
0.0
 16
1.0
 26
0.0
 36
0.0
 17
0.0
 27
1.0
 37
0.0
 76
     0
330
16
331
25
  0
MLINESTYLE
  5
1C
102
{ACAD_REACTORS
330
E
102
}
330
E
100
AcDbMlineStyle
  2
STANDARD
 70
     0
  3

 62
     0
 51
90.0
 52
90.0
 71
     2
 49
0.5
 62
   256
  6
BYLAYER
 49
-0.5
 62
   256
  6
BYLAYER
  0
ACDBPLACEHOLDER
  5
11D9
102
{ACAD_REACTORS
330
11D8
102
}
330
11D8
  0
XRECORD
  5
2B99
102
{ACAD_REACTORS
330
2B97
102
}
330
2B97
100
AcDbXrecord
280
     1
340
2B57
  0
XRECORD
  5
2B98
102
{ACAD_REACTORS
330
2B97
102
}
330
2B97
100
AcDbXrecord
280
     1
340
2B56
  0
DICTIONARYVAR
  5
2B88
102
{ACAD_REACTORS
330
2B87
102
}
330
2B87
100
DictionaryVariables
280
     0
  1
1
  0
DICTIONARYVAR
  5
2B89
102
{ACAD_REACTORS
330
2B87
102
}
330
2B87
100
DictionaryVariables
280
     0
  1

  0
DICTIONARY
  5
2B9E
330
11DC
100
AcDbDictionary
280
     1
281
     1
  3
ACAD_XREC_ROUNDTRIP
360
2B9F
  0
DICTIONARY
  5
2BA0
330
11DD
100
AcDbDictionary
280
     1
281
     1
  3
ACAD_XREC_ROUNDTRIP
360
2BA1
  0
XRECORD
  5
2B9F
102
{ACAD_REACTORS
330
2B9E
102
}
330
2B9E
100
AcDbXrecord
280
     1
102
SHADEPLOT
 70
     0
102
SHADEPLOTRESLEVEL
 70
     2
102
SHADEPLOTCUSTOMDPI
 70
   300
  0
XRECORD
  5
2BA1
102
{ACAD_REACTORS
330
2BA0
102
}
330
2BA0
100
AcDbXrecord
280
     1
102
SHADEPLOT
 70
     0
102
SHADEPLOTRESLEVEL
 70
     2
102
SHADEPLOTCUSTOMDPI
 70
   300
  0
ENDSEC
  0
EOF
