  0
SECTION
  2
HEADER
  9
$ACADVER
  1
AC1018
  9
$ACADMAINTVER
 70
     0
  9
$DWGCODEPAGE
  3
ANSI_932
  9
$LASTSAVEDBY
  1
kogure009
  9
$INSBASE
 10
0.0
 20
0.0
 30
0.0
  9
$EXTMIN
 10
-252.2775807919368
 20
-137.4642211996126
 30
0.0
  9
$EXTMAX
 10
404.6288939226093
 20
340.7286899453855
 30
0.0
  9
$LIMMIN
 10
0.0
 20
0.0
  9
$LIMMAX
 10
420.0
 20
297.0
  9
$ORTHOMODE
 70
     0
  9
$REGENMODE
 70
     1
  9
$FILLMODE
 70
     1
  9
$QTEXTMODE
 70
     0
  9
$MIRRTEXT
 70
     1
  9
$LTSCALE
 40
1.0
  9
$ATTMODE
 70
     1
  9
$TEXTSIZE
 40
2.5
  9
$TRACEWID
 40
1.0
  9
$TEXTSTYLE
  7
STANDARD
  9
$CLAYER
  8
CENTER L
  9
$CELTYPE
  6
BYLAYER
  9
$CECOLOR
 62
   256
  9
$CELTSCALE
 40
1.0
  9
$DISPSILH
 70
     0
  9
$DIMSCALE
 40
1.0
  9
$DIMASZ
 40
3.0
  9
$DIMEXO
 40
3.0
  9
$DIMDLI
 40
7.0
  9
$DIMRND
 40
0.0
  9
$DIMDLE
 40
0.0
  9
$DIMEXE
 40
1.5
  9
$DIMTP
 40
0.0
  9
$DIMTM
 40
0.0
  9
$DIMTXT
 40
3.0
  9
$DIMCEN
 40
150.0
  9
$DIMTSZ
 40
0.0
  9
$DIMTOL
 70
     0
  9
$DIMLIM
 70
     0
  9
$DIMTIH
 70
     0
  9
$DIMTOH
 70
     0
  9
$DIMSE1
 70
     0
  9
$DIMSE2
 70
     0
  9
$DIMTAD
 70
     3
  9
$DIMZIN
 70
     0
  9
$DIMBLK
  1

  9
$DIMASO
 70
     1
  9
$DIMSHO
 70
     1
  9
$DIMPOST
  1

  9
$DIMAPOST
  1

  9
$DIMALT
 70
     0
  9
$DIMALTD
 70
     2
  9
$DIMALTF
 40
25.4
  9
$DIMLFAC
 40
1.0
  9
$DIMTOFL
 70
     1
  9
$DIMTVP
 40
0.0
  9
$DIMTIX
 70
     0
  9
$DIMSOXD
 70
     0
  9
$DIMSAH
 70
     1
  9
$DIMBLK1
  1
OPEN
  9
$DIMBLK2
  1
OPEN
  9
$DIMSTYLE
  2
STANDARD
  9
$DIMCLRD
 70
   256
  9
$DIMCLRE
 70
   256
  9
$DIMCLRT
 70
   256
  9
$DIMTFAC
 40
1.0
  9
$DIMGAP
 40
1.0
  9
$DIMJUST
 70
     0
  9
$DIMSD1
 70
     0
  9
$DIMSD2
 70
     0
  9
$DIMTOLJ
 70
     1
  9
$DIMTZIN
 70
     0
  9
$DIMALTZ
 70
     0
  9
$DIMALTTZ
 70
     0
  9
$DIMUPT
 70
     0
  9
$DIMDEC
 70
     0
  9
$DIMTDEC
 70
     0
  9
$DIMALTU
 70
     2
  9
$DIMALTTD
 70
     2
  9
$DIMTXSTY
  7
STANDARD
  9
$DIMAUNIT
 70
     0
  9
$DIMADEC
 70
     4
  9
$DIMALTRND
 40
0.0
  9
$DIMAZIN
 70
     0
  9
$DIMDSEP
 70
    46
  9
$DIMATFIT
 70
     3
  9
$DIMFRAC
 70
     0
  9
$DIMLDRBLK
  1
OPEN
  9
$DIMLUNIT
 70
     2
  9
$DIMLWD
 70
    -1
  9
$DIMLWE
 70
    -1
  9
$DIMTMOVE
 70
     0
  9
$LUNITS
 70
     2
  9
$LUPREC
 70
     4
  9
$SKETCHINC
 40
1.0
  9
$FILLETRAD
 40
0.0
  9
$AUNITS
 70
     0
  9
$AUPREC
 70
     0
  9
$MENU
  1
.
  9
$ELEVATION
 40
0.0
  9
$PELEVATION
 40
0.0
  9
$THICKNESS
 40
0.0
  9
$LIMCHECK
 70
     0
  9
$CHAMFERA
 40
0.0
  9
$CHAMFERB
 40
0.0
  9
$CHAMFERC
 40
20.0
  9
$CHAMFERD
 40
0.0
  9
$SKPOLY
 70
     0
  9
$TDCREATE
 40
2450994.350997107
  9
$TDUCREATE
 40
2450993.975997107
  9
$TDUPDATE
 40
2458395.455214317
  9
$TDUUPDATE
 40
2458395.080214317
  9
$TDINDWG
 40
0.1045842708
  9
$TDUSRTIMER
 40
0.1045833681
  9
$USRTIMER
 70
     1
  9
$ANGBASE
 50
0.0
  9
$ANGDIR
 70
     0
  9
$PDMODE
 70
     0
  9
$PDSIZE
 40
0.0
  9
$PLINEWID
 40
0.0
  9
$SPLFRAME
 70
     0
  9
$SPLINETYPE
 70
     6
  9
$SPLINESEGS
 70
     8
  9
$HANDSEED
  5
445C
  9
$SURFTAB1
 70
     6
  9
$SURFTAB2
 70
     6
  9
$SURFTYPE
 70
     6
  9
$SURFU
 70
     6
  9
$SURFV
 70
     6
  9
$UCSBASE
  2

  9
$UCSNAME
  2

  9
$UCSORG
 10
0.0
 20
0.0
 30
0.0
  9
$UCSXDIR
 10
1.0
 20
0.0
 30
0.0
  9
$UCSYDIR
 10
0.0
 20
1.0
 30
0.0
  9
$UCSORTHOREF
  2

  9
$UCSORTHOVIEW
 70
     0
  9
$UCSORGTOP
 10
0.0
 20
0.0
 30
0.0
  9
$UCSORGBOTTOM
 10
0.0
 20
0.0
 30
0.0
  9
$UCSORGLEFT
 10
0.0
 20
0.0
 30
0.0
  9
$UCSORGRIGHT
 10
0.0
 20
0.0
 30
0.0
  9
$UCSORGFRONT
 10
0.0
 20
0.0
 30
0.0
  9
$UCSORGBACK
 10
0.0
 20
0.0
 30
0.0
  9
$PUCSBASE
  2

  9
$PUCSNAME
  2

  9
$PUCSORG
 10
0.0
 20
0.0
 30
0.0
  9
$PUCSXDIR
 10
1.0
 20
0.0
 30
0.0
  9
$PUCSYDIR
 10
0.0
 20
1.0
 30
0.0
  9
$PUCSORTHOREF
  2

  9
$PUCSORTHOVIEW
 70
     0
  9
$PUCSORGTOP
 10
0.0
 20
0.0
 30
0.0
  9
$PUCSORGBOTTOM
 10
0.0
 20
0.0
 30
0.0
  9
$PUCSORGLEFT
 10
0.0
 20
0.0
 30
0.0
  9
$PUCSORGRIGHT
 10
0.0
 20
0.0
 30
0.0
  9
$PUCSORGFRONT
 10
0.0
 20
0.0
 30
0.0
  9
$PUCSORGBACK
 10
0.0
 20
0.0
 30
0.0
  9
$USERI1
 70
     0
  9
$USERI2
 70
     0
  9
$USERI3
 70
     0
  9
$USERI4
 70
     0
  9
$USERI5
 70
     0
  9
$USERR1
 40
0.0
  9
$USERR2
 40
0.0
  9
$USERR3
 40
0.0
  9
$USERR4
 40
0.0
  9
$USERR5
 40
0.0
  9
$WORLDVIEW
 70
     1
  9
$SHADEDGE
 70
     3
  9
$SHADEDIF
 70
    70
  9
$TILEMODE
 70
     1
  9
$MAXACTVP
 70
    16
  9
$PINSBASE
 10
0.0
 20
0.0
 30
0.0
  9
$PLIMCHECK
 70
     0
  9
$PEXTMIN
 10
0.0
 20
0.0
 30
0.0
  9
$PEXTMAX
 10
420.0
 20
297.0
 30
0.0
  9
$PLIMMIN
 10
0.0
 20
0.0
  9
$PLIMMAX
 10
420.0
 20
297.0
  9
$UNITMODE
 70
     0
  9
$VISRETAIN
 70
     0
  9
$PLINEGEN
 70
     0
  9
$PSLTSCALE
 70
     1
  9
$TREEDEPTH
 70
  3020
  9
$CMLSTYLE
  2
STANDARD
  9
$CMLJUST
 70
     0
  9
$CMLSCALE
 40
1.0
  9
$PROXYGRAPHICS
 70
     1
  9
$MEASUREMENT
 70
     1
  9
$CELWEIGHT
370
    -1
  9
$ENDCAPS
280
     0
  9
$JOINSTYLE
280
     0
  9
$LWDISPLAY
290
     0
  9
$INSUNITS
 70
     0
  9
$HYPERLINKBASE
  1

  9
$STYLESHEET
  1
MONOCHROME.CTB
  9
$XEDIT
290
     1
  9
$CEPSNTYPE
380
     0
  9
$PSTYLEMODE
290
     1
  9
$FINGERPRINTGUID
  2
{B4565D9B-6A16-43F4-BC10-4AF2DFFDD405}
  9
$VERSIONGUID
  2
{1624FE2D-73FD-4D60-BC41-CB568170DCD3}
  9
$EXTNAMES
290
     1
  9
$PSVPSCALE
 40
0.0
  9
$OLESTARTUP
290
     0
  9
$SORTENTS
280
   127
  9
$INDEXCTL
280
     0
  9
$HIDETEXT
280
     0
  9
$XCLIPFRAME
290
     0
  9
$HALOGAP
280
     0
  9
$OBSCOLOR
 70
   257
  9
$OBSLTYPE
280
     0
  9
$INTERSECTIONDISPLAY
280
     0
  9
$INTERSECTIONCOLOR
 70
   257
  9
$DIMASSOC
280
     1
  9
$PROJECTNAME
  1

  0
ENDSEC
  0
SECTION
  2
CLASSES
  0
CLASS
  1
ACDBDICTIONARYWDFLT
  2
AcDbDictionaryWithDefault
  3
ObjectDBX Classes
 90
        0
 91
        1
280
     0
281
     0
  0
CLASS
  1
ACDBPLACEHOLDER
  2
AcDbPlaceHolder
  3
ObjectDBX Classes
 90
        0
 91
        1
280
     0
281
     0
  0
CLASS
  1
LAYOUT
  2
AcDbLayout
  3
ObjectDBX Classes
 90
        0
 91
        2
280
     0
281
     0
  0
CLASS
  1
LONG_TRANSACTION
  2
AcDbLongTransaction
  3
ObjectDBX Classes
 90
        0
 91
        0
280
     0
281
     0
  0
CLASS
  1
LWPOLYLINE
  2
AcDbPolyline
  3
ObjectDBX Classes
 90
        0
 91
        5
280
     0
281
     1
  0
CLASS
  1
HATCH
  2
AcDbHatch
  3
ObjectDBX Classes
 90
        0
 91
        0
280
     0
281
     1
  0
CLASS
  1
XRECORD
  2
AcDbXrecord
  3
ObjectDBX Classes
 90
        0
 91
       58
280
     0
281
     0
  0
CLASS
  1
LONG_TRANSACTION
  2
AcDbLongTransaction
  3
ObjectDBX Classes
 90
        0
 91
        0
280
     0
281
     0
  0
CLASS
  1
LWPOLYLINE
  2
AcDbPolyline
  3
ObjectDBX Classes
 90
        0
 91
        5
280
     0
281
     1
  0
CLASS
  1
HATCH
  2
AcDbHatch
  3
ObjectDBX Classes
 90
        0
 91
        0
280
     0
281
     1
  0
CLASS
  1
XRECORD
  2
AcDbXrecord
  3
ObjectDBX Classes
 90
        0
 91
       58
280
     0
281
     0
  0
CLASS
  1
LONG_TRANSACTION
  2
AcDbLongTransaction
  3
ObjectDBX Classes
 90
        0
 91
        0
280
     0
281
     0
  0
CLASS
  1
LWPOLYLINE
  2
AcDbPolyline
  3
ObjectDBX Classes
 90
        0
 91
        5
280
     0
281
     1
  0
CLASS
  1
HATCH
  2
AcDbHatch
  3
ObjectDBX Classes
 90
        0
 91
        0
280
     0
281
     1
  0
CLASS
  1
XRECORD
  2
AcDbXrecord
  3
ObjectDBX Classes
 90
        0
 91
       58
280
     0
281
     0
  0
CLASS
  1
LONG_TRANSACTION
  2
AcDbLongTransaction
  3
ObjectDBX Classes
 90
        0
 91
        0
280
     0
281
     0
  0
CLASS
  1
LWPOLYLINE
  2
AcDbPolyline
  3
ObjectDBX Classes
 90
        0
 91
        5
280
     0
281
     1
  0
CLASS
  1
HATCH
  2
AcDbHatch
  3
ObjectDBX Classes
 90
        0
 91
        0
280
     0
281
     1
  0
CLASS
  1
XRECORD
  2
AcDbXrecord
  3
ObjectDBX Classes
 90
        0
 91
       58
280
     0
281
     0
  0
CLASS
  1
LONG_TRANSACTION
  2
AcDbLongTransaction
  3
ObjectDBX Classes
 90
        0
 91
        0
280
     0
281
     0
  0
CLASS
  1
LWPOLYLINE
  2
AcDbPolyline
  3
ObjectDBX Classes
 90
        0
 91
        5
280
     0
281
     1
  0
CLASS
  1
HATCH
  2
AcDbHatch
  3
ObjectDBX Classes
 90
        0
 91
        0
280
     0
281
     1
  0
CLASS
  1
XRECORD
  2
AcDbXrecord
  3
ObjectDBX Classes
 90
        0
 91
       58
280
     0
281
     0
  0
CLASS
  1
LONG_TRANSACTION
  2
AcDbLongTransaction
  3
ObjectDBX Classes
 90
        0
 91
        0
280
     0
281
     0
  0
CLASS
  1
LWPOLYLINE
  2
AcDbPolyline
  3
ObjectDBX Classes
 90
        0
 91
        5
280
     0
281
     1
  0
CLASS
  1
HATCH
  2
AcDbHatch
  3
ObjectDBX Classes
 90
        0
 91
        0
280
     0
281
     1
  0
CLASS
  1
XRECORD
  2
AcDbXrecord
  3
ObjectDBX Classes
 90
        0
 91
       58
280
     0
281
     0
  0
CLASS
  1
LONG_TRANSACTION
  2
AcDbLongTransaction
  3
ObjectDBX Classes
 90
        0
 91
        0
280
     0
281
     0
  0
CLASS
  1
LWPOLYLINE
  2
AcDbPolyline
  3
ObjectDBX Classes
 90
        0
 91
        5
280
     0
281
     1
  0
CLASS
  1
HATCH
  2
AcDbHatch
  3
ObjectDBX Classes
 90
        0
 91
        0
280
     0
281
     1
  0
CLASS
  1
XRECORD
  2
AcDbXrecord
  3
ObjectDBX Classes
 90
        0
 91
       58
280
     0
281
     0
  0
CLASS
  1
LONG_TRANSACTION
  2
AcDbLongTransaction
  3
ObjectDBX Classes
 90
        0
 91
        0
280
     0
281
     0
  0
CLASS
  1
LWPOLYLINE
  2
AcDbPolyline
  3
ObjectDBX Classes
 90
        0
 91
        5
280
     0
281
     1
  0
CLASS
  1
HATCH
  2
AcDbHatch
  3
ObjectDBX Classes
 90
        0
 91
        0
280
     0
281
     1
  0
CLASS
  1
XRECORD
  2
AcDbXrecord
  3
ObjectDBX Classes
 90
        0
 91
       58
280
     0
281
     0
  0
CLASS
  1
LONG_TRANSACTION
  2
AcDbLongTransaction
  3
ObjectDBX Classes
 90
        0
 91
        0
280
     0
281
     0
  0
CLASS
  1
LWPOLYLINE
  2
AcDbPolyline
  3
ObjectDBX Classes
 90
        0
 91
        5
280
     0
281
     1
  0
CLASS
  1
HATCH
  2
AcDbHatch
  3
ObjectDBX Classes
 90
        0
 91
        0
280
     0
281
     1
  0
CLASS
  1
XRECORD
  2
AcDbXrecord
  3
ObjectDBX Classes
 90
        0
 91
       58
280
     0
281
     0
  0
CLASS
  1
MATERIAL
  2
AcDbMaterial
  3
ObjectDBX Classes
 90
        0
 91
        3
280
     0
281
     0
  0
CLASS
  1
VISUALSTYLE
  2
AcDbVisualStyle
  3
ObjectDBX Classes
 90
     4095
 91
       24
280
     0
281
     0
  0
CLASS
  1
TABLESTYLE
  2
AcDbTableStyle
  3
ObjectDBX Classes
 90
     4095
 91
        1
280
     0
281
     0
  0
CLASS
  1
SCALE
  2
AcDbScale
  3
ObjectDBX Classes
 90
     1153
 91
       17
280
     0
281
     0
  0
CLASS
  1
MLEADERSTYLE
  2
AcDbMLeaderStyle
  3
ACDB_MLEADERSTYLE_CLASS
 90
     4095
 91
        1
280
     0
281
     0
  0
CLASS
  1
SORTENTSTABLE
  2
AcDbSortentsTable
  3
ObjectDBX Classes
 90
        0
 91
        4
280
     0
281
     0
  0
CLASS
  1
DICTIONARYVAR
  2
AcDbDictionaryVar
  3
ObjectDBX Classes
 90
        0
 91
       11
280
     0
281
     0
  0
CLASS
  1
CELLSTYLEMAP
  2
AcDbCellStyleMap
  3
ObjectDBX Classes
 90
     1152
 91
        1
280
     0
281
     0
  0
CLASS
  1
ACAD_PROXY_OBJECT_WRAPPER
  2
AcDbProxyObjectWrapper
  3
ObjectDBX Classes
 90
        0
 91
        0
280
     0
281
     0
  0
CLASS
  1
LONG_TRANSACTION
  2
AcDbLongTransaction
  3
ObjectDBX Classes
 90
        0
 91
        0
280
     0
281
     0
  0
CLASS
  1
LWPOLYLINE
  2
AcDbPolyline
  3
ObjectDBX Classes
 90
        0
 91
        5
280
     0
281
     1
  0
CLASS
  1
HATCH
  2
AcDbHatch
  3
ObjectDBX Classes
 90
        0
 91
        0
280
     0
281
     1
  0
CLASS
  1
XRECORD
  2
AcDbXrecord
  3
ObjectDBX Classes
 90
        0
 91
       58
280
     0
281
     0
  0
CLASS
  1
LONG_TRANSACTION
  2
AcDbLongTransaction
  3
ObjectDBX Classes
 90
        0
 91
        0
280
     0
281
     0
  0
CLASS
  1
LWPOLYLINE
  2
AcDbPolyline
  3
ObjectDBX Classes
 90
        0
 91
        5
280
     0
281
     1
  0
CLASS
  1
HATCH
  2
AcDbHatch
  3
ObjectDBX Classes
 90
        0
 91
        0
280
     0
281
     1
  0
CLASS
  1
XRECORD
  2
AcDbXrecord
  3
ObjectDBX Classes
 90
        0
 91
       58
280
     0
281
     0
  0
CLASS
  1
LONG_TRANSACTION
  2
AcDbLongTransaction
  3
ObjectDBX Classes
 90
        0
 91
        0
280
     0
281
     0
  0
CLASS
  1
LWPOLYLINE
  2
AcDbPolyline
  3
ObjectDBX Classes
 90
        0
 91
        5
280
     0
281
     1
  0
CLASS
  1
HATCH
  2
AcDbHatch
  3
ObjectDBX Classes
 90
        0
 91
        0
280
     0
281
     1
  0
CLASS
  1
XRECORD
  2
AcDbXrecord
  3
ObjectDBX Classes
 90
        0
 91
       58
280
     0
281
     0
  0
ENDSEC
  0
SECTION
  2
TABLES
  0
TABLE
  2
VPORT
  5
8
102
{ACAD_XDICTIONARY
360
3144
102
}
330
0
100
AcDbSymbolTable
 70
     2
  0
VPORT
  5
445B
330
8
100
AcDbSymbolTableRecord
100
AcDbViewportTableRecord
  2
*Active
 70
     0
 10
0.0
 20
0.0
 11
1.0
 21
1.0
 12
147.4902175722529
 22
117.1456842086129
 13
0.0
 23
0.0
 14
5.0
 24
5.0
 15
0.0
 25
0.0
 16
0.0
 26
0.0
 36
1.0
 17
0.0
 27
0.0
 37
0.0
 40
288.5529129891633
 41
2.006514657980456
 42
50.0
 43
0.0
 44
0.0
 50
0.0
 51
0.0
 71
     0
 72
   100
 73
     1
 74
     0
 75
     0
 76
     0
 77
     0
 78
     0
281
     0
 65
     1
110
0.0
120
0.0
130
0.0
111
1.0
121
0.0
131
0.0
112
0.0
122
1.0
132
0.0
 79
     0
146
0.0
  0
ENDTAB
  0
TABLE
  2
LTYPE
  5
5
330
0
100
AcDbSymbolTable
 70
     3
  0
LTYPE
  5
14
330
5
100
AcDbSymbolTableRecord
100
AcDbLinetypeTableRecord
  2
BYBLOCK
 70
     0
  3

 72
    65
 73
     0
 40
0.0
  0
LTYPE
  5
15
330
5
100
AcDbSymbolTableRecord
100
AcDbLinetypeTableRecord
  2
BYLAYER
 70
     0
  3

 72
    65
 73
     0
 40
0.0
  0
LTYPE
  5
16
330
5
100
AcDbSymbolTableRecord
100
AcDbLinetypeTableRecord
  2
CONTINUOUS
 70
     0
  3
Solid line
 72
    65
 73
     0
 40
0.0
  0
LTYPE
  5
120
330
5
100
AcDbSymbolTableRecord
100
AcDbLinetypeTableRecord
  2
CENTER
 70
     0
  3
____ _ ____ _ ____ _ ____ _ ____ _ ____ _ ____ 
 72
    65
 73
     4
 40
2.0
 49
1.25
 74
     0
 49
-0.25
 74
     0
 49
0.25
 74
     0
 49
-0.25
 74
     0
  0
LTYPE
  5
38C7
330
5
100
AcDbSymbolTableRecord
100
AcDbLinetypeTableRecord
  2
PHANTOM2
 70
     0
  3
Phantom (.5x) ___ _ _ ___ _ _ ___ _ _ ___ _ _
 72
    65
 73
     6
 40
31.75
 49
15.875
 74
     0
 49
-3.174999999999998
 74
     0
 49
3.174999999999998
 74
     0
 49
-3.174999999999998
 74
     0
 49
3.174999999999998
 74
     0
 49
-3.174999999999998
 74
     0
  0
ENDTAB
  0
TABLE
  2
LAYER
  5
2
102
{ACAD_XDICTIONARY
360
436C
102
}
330
0
100
AcDbSymbolTable
 70
     8
  0
LAYER
  5
F
102
{ACAD_XDICTIONARY
360
3121
102
}
330
2
100
AcDbSymbolTableRecord
100
AcDbLayerTableRecord
  2
0
 70
     0
 62
     7
  6
CONTINUOUS
370
    -3
390
290
  0
LAYER
  5
62
102
{ACAD_XDICTIONARY
360
3123
102
}
330
2
100
AcDbSymbolTableRecord
100
AcDbLayerTableRecord
  2
VIEWPORT
 70
     0
 62
     7
  6
CONTINUOUS
370
    -3
390
290
  0
LAYER
  5
6B
102
{ACAD_XDICTIONARY
360
3125
102
}
330
2
100
AcDbSymbolTableRecord
100
AcDbLayerTableRecord
  2
ZUWAKU
 70
     0
 62
     7
  6
CONTINUOUS
370
    -3
390
290
  0
LAYER
  5
140
102
{ACAD_XDICTIONARY
360
3127
102
}
330
2
100
AcDbSymbolTableRecord
100
AcDbLayerTableRecord
  2
SEIHIN
 70
     0
 62
     3
  6
CONTINUOUS
370
    -3
390
290
  0
LAYER
  5
141
102
{ACAD_XDICTIONARY
360
3129
102
}
330
2
100
AcDbSymbolTableRecord
100
AcDbLayerTableRecord
  2
SUNPOU
 70
     0
 62
     4
  6
CONTINUOUS
370
    -3
390
290
  0
LAYER
  5
142
102
{ACAD_XDICTIONARY
360
312B
102
}
330
2
100
AcDbSymbolTableRecord
100
AcDbLayerTableRecord
  2
CENTER L
 70
     0
 62
     1
  6
CENTER
370
    -3
390
290
  0
LAYER
  5
1F5
330
2
100
AcDbSymbolTableRecord
100
AcDbLayerTableRecord
  2
DEFPOINTS
 70
     0
 62
     7
  6
CONTINUOUS
290
     0
370
    -3
390
290
  0
LAYER
  5
4EF
102
{ACAD_XDICTIONARY
360
312D
102
}
330
2
100
AcDbSymbolTableRecord
100
AcDbLayerTableRecord
  2
moji
 70
     0
 62
     2
  6
CONTINUOUS
370
    -3
390
290
  0
ENDTAB
  0
TABLE
  2
STYLE
  5
3
330
0
100
AcDbSymbolTable
 70
     2
  0
STYLE
  5
10
330
3
100
AcDbSymbolTableRecord
100
AcDbTextStyleTableRecord
  2
STANDARD
 70
     0
 40
0.0
 41
1.0
 50
0.0
 71
     0
 42
2.5
  3
TXT
  4
bigfont.shx
  0
STYLE
  5
4F0
330
3
100
AcDbSymbolTableRecord
100
AcDbTextStyleTableRecord
  2
ｽﾀｲﾙ1
 70
     0
 40
0.0
 41
1.0
 50
0.0
 71
     0
 42
2.5
  3

  4

1001
ACAD
1000
MS PGothic
1071
    32818
  0
ENDTAB
  0
TABLE
  2
VIEW
  5
6
330
0
100
AcDbSymbolTable
 70
     0
  0
ENDTAB
  0
TABLE
  2
UCS
  5
7
330
0
100
AcDbSymbolTable
 70
     0
  0
ENDTAB
  0
TABLE
  2
APPID
  5
9
330
0
100
AcDbSymbolTable
 70
     5
  0
APPID
  5
11
330
9
100
AcDbSymbolTableRecord
100
AcDbRegAppTableRecord
  2
ACAD
 70
     0
  0
APPID
  5
309A
330
9
100
AcDbSymbolTableRecord
100
AcDbRegAppTableRecord
  2
ACAD_DSTYLE_DIMJAG
 70
     0
  0
APPID
  5
309B
330
9
100
AcDbSymbolTableRecord
100
AcDbRegAppTableRecord
  2
ACAD_DSTYLE_DIMTALN
 70
     0
  0
APPID
  5
30CE
330
9
100
AcDbSymbolTableRecord
100
AcDbRegAppTableRecord
  2
ACAD_EXEMPT_FROM_CAD_STANDARDS
 70
     0
  0
APPID
  5
3182
330
9
100
AcDbSymbolTableRecord
100
AcDbRegAppTableRecord
  2
ACAD_MLEADERVER
 70
     0
  0
ENDTAB
  0
TABLE
  2
DIMSTYLE
  5
A
330
0
100
AcDbSymbolTable
 70
     1
100
AcDbDimStyleTable
 71
     1
340
1D
  0
DIMSTYLE
105
1D
102
{ACAD_REACTORS
330
3084
330
3016
330
3015
330
3018
330
30C1
330
3C21
330
3C22
102
}
330
A
100
AcDbSymbolTableRecord
100
AcDbDimStyleTableRecord
  2
STANDARD
 70
     0
340
10
  0
ENDTAB
  0
TABLE
  2
BLOCK_RECORD
  5
1
330
0
100
AcDbSymbolTable
 70
    26
  0
BLOCK_RECORD
  5
1A
102
{ACAD_XDICTIONARY
360
2D8
102
}
330
1
100
AcDbSymbolTableRecord
100
AcDbBlockTableRecord
  2
*MODEL_SPACE
340
293
  0
BLOCK_RECORD
  5
17
102
{ACAD_XDICTIONARY
360
2D6
102
}
330
1
100
AcDbSymbolTableRecord
100
AcDbBlockTableRecord
  2
*PAPER_SPACE
340
294
  0
BLOCK_RECORD
  5
B2
330
1
100
AcDbSymbolTableRecord
100
AcDbBlockTableRecord
  2
_OPEN
340
0
102
{BLKREFS
331
4214
331
4215
331
421D
331
421E
331
4226
331
4227
331
422F
331
4230
331
4238
331
4239
331
4241
331
4242
331
424D
331
424E
331
4289
331
428A
331
4294
331
4295
331
429F
331
42A0
331
42B6
331
42B7
331
42DD
331
42DE
331
42EA
331
42EB
331
42F8
331
42F9
331
430E
331
430F
331
431D
331
431E
331
4334
331
4335
331
434B
331
434C
331
4362
331
4363
331
443B
331
443C
331
4455
331
4456
102
}
  0
BLOCK_RECORD
  5
28AC
330
1
100
AcDbSymbolTableRecord
100
AcDbBlockTableRecord
  2
*X1
340
0
102
{BLKREFS
331
2BB2
102
}
  0
BLOCK_RECORD
  5
3027
330
1
100
AcDbSymbolTableRecord
100
AcDbBlockTableRecord
  2
*D2
340
0
  0
BLOCK_RECORD
  5
3033
330
1
100
AcDbSymbolTableRecord
100
AcDbBlockTableRecord
  2
*D3
340
0
  0
BLOCK_RECORD
  5
303F
330
1
100
AcDbSymbolTableRecord
100
AcDbBlockTableRecord
  2
*D4
340
0
  0
BLOCK_RECORD
  5
3085
330
1
100
AcDbSymbolTableRecord
100
AcDbBlockTableRecord
  2
*D5
340
0
  0
BLOCK_RECORD
  5
30C2
330
1
100
AcDbSymbolTableRecord
100
AcDbBlockTableRecord
  2
*D6
340
0
  0
BLOCK_RECORD
  5
3C2E
330
1
100
AcDbSymbolTableRecord
100
AcDbBlockTableRecord
  2
*D7
340
0
  0
BLOCK_RECORD
  5
3C3A
330
1
100
AcDbSymbolTableRecord
100
AcDbBlockTableRecord
  2
*D8
340
0
  0
BLOCK_RECORD
  5
425B
330
1
100
AcDbSymbolTableRecord
100
AcDbBlockTableRecord
  2
*D9
340
0
  0
BLOCK_RECORD
  5
4268
330
1
100
AcDbSymbolTableRecord
100
AcDbBlockTableRecord
  2
*D10
340
0
  0
BLOCK_RECORD
  5
4277
330
1
100
AcDbSymbolTableRecord
100
AcDbBlockTableRecord
  2
*D11
340
0
  0
BLOCK_RECORD
  5
42B0
330
1
100
AcDbSymbolTableRecord
100
AcDbBlockTableRecord
  2
*D12
340
0
  0
BLOCK_RECORD
  5
42D7
330
1
100
AcDbSymbolTableRecord
100
AcDbBlockTableRecord
  2
*D13
340
0
  0
BLOCK_RECORD
  5
42E4
330
1
100
AcDbSymbolTableRecord
100
AcDbBlockTableRecord
  2
*D14
340
0
  0
BLOCK_RECORD
  5
42F2
330
1
100
AcDbSymbolTableRecord
100
AcDbBlockTableRecord
  2
*D15
340
0
  0
BLOCK_RECORD
  5
42FF
330
1
100
AcDbSymbolTableRecord
100
AcDbBlockTableRecord
  2
*D16
340
0
  0
BLOCK_RECORD
  5
4317
330
1
100
AcDbSymbolTableRecord
100
AcDbBlockTableRecord
  2
*D17
340
0
  0
BLOCK_RECORD
  5
4325
330
1
100
AcDbSymbolTableRecord
100
AcDbBlockTableRecord
  2
*D18
340
0
  0
BLOCK_RECORD
  5
433C
330
1
100
AcDbSymbolTableRecord
100
AcDbBlockTableRecord
  2
*D19
340
0
  0
BLOCK_RECORD
  5
4353
330
1
100
AcDbSymbolTableRecord
100
AcDbBlockTableRecord
  2
*D20
340
0
  0
BLOCK_RECORD
  5
43FB
102
{ACAD_XDICTIONARY
360
43FC
102
}
330
1
100
AcDbSymbolTableRecord
100
AcDbBlockTableRecord
  2
A$C586F2F75
340
0
102
{BLKREFS
331
441E
102
}
  0
BLOCK_RECORD
  5
440A
102
{ACAD_XDICTIONARY
360
440B
102
}
330
1
100
AcDbSymbolTableRecord
100
AcDbBlockTableRecord
  2
A$C0A1B3B73
340
0
102
{BLKREFS
331
441F
102
}
  0
BLOCK_RECORD
  5
4428
330
1
100
AcDbSymbolTableRecord
100
AcDbBlockTableRecord
  2
*D24
340
0
  0
BLOCK_RECORD
  5
4442
330
1
100
AcDbSymbolTableRecord
100
AcDbBlockTableRecord
  2
*D25
340
0
  0
ENDTAB
  0
ENDSEC
  0
SECTION
  2
BLOCKS
  0
BLOCK
  5
1B
330
1A
100
AcDbEntity
  8
0
100
AcDbBlockBegin
  2
*MODEL_SPACE
 70
     0
 10
0.0
 20
0.0
 30
0.0
  3
*MODEL_SPACE
  1

  0
ENDBLK
  5
1C
330
1A
100
AcDbEntity
  8
0
100
AcDbBlockEnd
  0
BLOCK
  5
18
330
17
100
AcDbEntity
 67
     1
  8
0
100
AcDbBlockBegin
  2
*PAPER_SPACE
 70
     0
 10
0.0
 20
0.0
 30
0.0
  3
*PAPER_SPACE
  1

  0
ENDBLK
  5
19
330
17
100
AcDbEntity
 67
     1
  8
0
100
AcDbBlockEnd
  0
BLOCK
  5
B3
330
B2
100
AcDbEntity
  8
0
100
AcDbBlockBegin
  2
_OPEN
 70
     0
 10
0.0
 20
0.0
 30
0.0
  3
_OPEN
  1

  0
LINE
  5
B4
330
B2
100
AcDbEntity
  8
0
  6
ByBlock
 62
     0
100
AcDbLine
 10
-1.0
 20
0.1666666666666666
 30
0.0
 11
0.0
 21
0.0
 31
0.0
  0
LINE
  5
B5
330
B2
100
AcDbEntity
  8
0
  6
ByBlock
 62
     0
100
AcDbLine
 10
0.0
 20
0.0
 30
0.0
 11
-1.0
 21
-0.1666666666666666
 31
0.0
  0
LINE
  5
B6
330
B2
100
AcDbEntity
  8
0
  6
ByBlock
 62
     0
100
AcDbLine
 10
0.0
 20
0.0
 30
0.0
 11
-1.0
 21
0.0
 31
0.0
  0
ENDBLK
  5
B7
330
B2
100
AcDbEntity
  8
0
100
AcDbBlockEnd
  0
BLOCK
  5
2A40
330
28AC
100
AcDbEntity
  8
0
100
AcDbBlockBegin
  2
*X1
 70
     1
 10
0.0
 20
0.0
 30
0.0
  3
*X1
  1

  0
LINE
  5
28AD
330
28AC
100
AcDbEntity
  8
0
 62
     0
100
AcDbLine
 10
66.7504780856609
 20
28.71175535310772
 30
0.0
 11
66.10464715594599
 21
29.3575862828227
 31
0.0
  0
LINE
  5
28AE
330
28AC
100
AcDbEntity
  8
0
 62
     0
100
AcDbLine
 10
66.7504780856609
 20
27.81372974100083
 30
0.0
 11
65.20662154383905
 21
29.3575862828227
 31
0.0
  0
LINE
  5
28AF
330
28AC
100
AcDbEntity
  8
0
 62
     0
100
AcDbLine
 10
66.75047808566086
 20
26.91570412889388
 30
0.0
 11
64.32934413964591
 21
29.33683807490883
 31
0.0
  0
LINE
  5
28B0
330
28AC
100
AcDbEntity
  8
0
 62
     0
100
AcDbLine
 10
66.7504780856609
 20
26.01767851678705
 30
0.0
 11
63.95047808566085
 21
28.81767851678706
 31
0.0
  0
LINE
  5
28B1
330
28AC
100
AcDbEntity
  8
0
 62
     0
100
AcDbLine
 10
66.7504780856609
 20
25.1196529046801
 30
0.0
 11
63.95047808566085
 21
27.91965290468017
 31
0.0
  0
LINE
  5
28B2
330
28AC
100
AcDbEntity
  8
0
 62
     0
100
AcDbLine
 10
66.75047808566086
 20
24.22162729257315
 30
0.0
 11
63.95047808566079
 21
27.02162729257322
 31
0.0
  0
LINE
  5
28B3
330
28AC
100
AcDbEntity
  8
0
 62
     0
100
AcDbLine
 10
61.85047808566082
 20
28.22360168046635
 30
0.0
 11
60.71649348330453
 21
29.3575862828227
 31
0.0
  0
LINE
  5
28B4
330
28AC
100
AcDbEntity
  8
0
 62
     0
100
AcDbLine
 10
66.7504780856609
 20
23.32360168046631
 30
0.0
 11
63.95047808566085
 21
26.12360168046638
 31
0.0
  0
LINE
  5
28B5
330
28AC
100
AcDbEntity
  8
0
 62
     0
100
AcDbLine
 10
61.85047808566082
 20
27.32557606835945
 30
0.0
 11
59.81846787119757
 21
29.35758628282264
 31
0.0
  0
LINE
  5
28B6
330
28AC
100
AcDbEntity
  8
0
 62
     0
100
AcDbLine
 10
66.75047808566086
 20
22.42557606835936
 30
0.0
 11
63.95047808566085
 21
25.22557606835943
 31
0.0
  0
LINE
  5
28B7
330
28AC
100
AcDbEntity
  8
0
 62
     0
100
AcDbLine
 10
61.85047808566082
 20
26.4275504562525
 30
0.0
 11
59.14496712052375
 21
29.13306142138959
 31
0.0
  0
LINE
  5
28B8
330
28AC
100
AcDbEntity
  8
0
 62
     0
100
AcDbLine
 10
66.75047808566086
 20
21.52755045625247
 30
0.0
 11
63.95047808566079
 21
24.32755045625248
 31
0.0
  0
LINE
  5
28B9
330
28AC
100
AcDbEntity
  8
0
 62
     0
100
AcDbLine
 10
61.85047808566093
 20
25.5295248441455
 30
0.0
 11
59.05047808566076
 21
28.32952484414562
 31
0.0
  0
LINE
  5
28BA
330
28AC
100
AcDbEntity
  8
0
 62
     0
100
AcDbLine
 10
66.7504780856609
 20
20.62952484414552
 30
0.0
 11
63.95047808566085
 21
23.42952484414559
 31
0.0
  0
LINE
  5
28BB
330
28AC
100
AcDbEntity
  8
0
 62
     0
100
AcDbLine
 10
61.85047808566089
 20
24.63149923203861
 30
0.0
 11
59.05047808566076
 21
27.43149923203879
 31
0.0
  0
LINE
  5
28BC
330
28AC
100
AcDbEntity
  8
0
 62
     0
100
AcDbLine
 10
66.75047808566086
 20
19.73149923203863
 30
0.0
 11
63.95047808566079
 21
22.5314992320387
 31
0.0
  0
LINE
  5
28BD
330
28AC
100
AcDbEntity
  8
0
 62
     0
100
AcDbLine
 10
61.85047808566089
 20
23.73347361993172
 30
0.0
 11
59.05047808566076
 21
26.53347361993184
 31
0.0
  0
LINE
  5
28BE
330
28AC
100
AcDbEntity
  8
0
 62
     0
100
AcDbLine
 10
66.75047808566086
 20
18.83347361993173
 30
0.0
 11
63.95047808566079
 21
21.63347361993181
 31
0.0
  0
LINE
  5
28BF
330
28AC
100
AcDbEntity
  8
0
 62
     0
100
AcDbLine
 10
61.85047808566082
 20
22.83544800782477
 30
0.0
 11
59.0504780856607
 21
25.63544800782489
 31
0.0
  0
LINE
  5
28C0
330
28AC
100
AcDbEntity
  8
0
 62
     0
100
AcDbLine
 10
66.7504780856608
 20
17.93544800782479
 30
0.0
 11
63.95047808566079
 21
20.73544800782486
 31
0.0
  0
LINE
  5
28C1
330
28AC
100
AcDbEntity
  8
0
 62
     0
100
AcDbLine
 10
61.85047808566089
 20
21.93742239571793
 30
0.0
 11
59.05047808566076
 21
24.73742239571806
 31
0.0
  0
LINE
  5
28C2
330
28AC
100
AcDbEntity
  8
0
 62
     0
100
AcDbLine
 10
55.55047808566081
 20
28.237422395718
 30
0.0
 11
54.43031419855618
 21
29.35758628282264
 31
0.0
  0
LINE
  5
28C3
330
28AC
100
AcDbEntity
  8
0
 62
     0
100
AcDbLine
 10
66.75047808566086
 20
17.03742239571795
 30
0.0
 11
63.95047808566079
 21
19.83742239571796
 31
0.0
  0
LINE
  5
28C4
330
28AC
100
AcDbEntity
  8
0
 62
     0
100
AcDbLine
 10
61.85047808566089
 20
21.03939678361098
 30
0.0
 11
59.0504780856607
 21
23.83939678361111
 31
0.0
  0
LINE
  5
28C5
330
28AC
100
AcDbEntity
  8
0
 62
     0
100
AcDbLine
 10
55.55047808566076
 20
27.33939678361105
 30
0.0
 11
53.53228858644921
 21
29.35758628282264
 31
0.0
  0
LINE
  5
28C6
330
28AC
100
AcDbEntity
  8
0
 62
     0
100
AcDbLine
 10
66.75047808566086
 20
16.139396783611
 30
0.0
 11
63.95047808566079
 21
18.93939678361107
 31
0.0
  0
LINE
  5
28C7
330
28AC
100
AcDbEntity
  8
0
 62
     0
100
AcDbLine
 10
61.85047808566082
 20
20.14137117150409
 30
0.0
 11
59.05047808566076
 21
22.9413711715041
 31
0.0
  0
LINE
  5
28C8
330
28AC
100
AcDbEntity
  8
0
 62
     0
100
AcDbLine
 10
55.55047808566076
 20
26.44137117150416
 30
0.0
 11
52.85071536233676
 21
29.14113389482816
 31
0.0
  0
LINE
  5
28C9
330
28AC
100
AcDbEntity
  8
0
 62
     0
100
AcDbLine
 10
66.7504780856608
 20
15.24137117150411
 30
0.0
 11
63.95047808566072
 21
18.04137117150412
 31
0.0
  0
LINE
  5
28CA
330
28AC
100
AcDbEntity
  8
0
 62
     0
100
AcDbLine
 10
61.85047808566089
 20
19.24334555939713
 30
0.0
 11
59.05047808566081
 21
22.04334555939721
 31
0.0
  0
LINE
  5
28CB
330
28AC
100
AcDbEntity
  8
0
 62
     0
100
AcDbLine
 10
55.55047808566081
 20
25.54334555939721
 30
0.0
 11
52.7504780856608
 21
28.34334555939722
 31
0.0
  0
LINE
  5
28CC
330
28AC
100
AcDbEntity
  8
0
 62
     0
100
AcDbLine
 10
66.75047808566086
 20
14.34334555939716
 30
0.0
 11
63.95047808566079
 21
17.14334555939723
 31
0.0
  0
LINE
  5
28CD
330
28AC
100
AcDbEntity
  8
0
 62
     0
100
AcDbLine
 10
61.85047808566082
 20
18.34531994729025
 30
0.0
 11
59.05047808566081
 21
21.14531994729032
 31
0.0
  0
LINE
  5
28CE
330
28AC
100
AcDbEntity
  8
0
 62
     0
100
AcDbLine
 10
55.55047808566087
 20
24.64531994729027
 30
0.0
 11
52.7504780856608
 21
27.44531994729033
 31
0.0
  0
LINE
  5
28CF
330
28AC
100
AcDbEntity
  8
0
 62
     0
100
AcDbLine
 10
66.67851273077103
 20
13.51728530218008
 30
0.0
 11
63.95047808566079
 21
16.24531994729034
 31
0.0
  0
LINE
  5
28D0
330
28AC
100
AcDbEntity
  8
0
 62
     0
100
AcDbLine
 10
61.85047808566089
 20
17.44729433518324
 30
0.0
 11
59.05047808566076
 21
20.24729433518337
 31
0.0
  0
LINE
  5
28D1
330
28AC
100
AcDbEntity
  8
0
 62
     0
100
AcDbLine
 10
55.55047808566081
 20
23.74729433518337
 30
0.0
 11
52.75047808566075
 21
26.54729433518338
 31
0.0
  0
LINE
  5
28D2
330
28AC
100
AcDbEntity
  8
0
 62
     0
100
AcDbLine
 10
66.04018613802157
 20
13.25758628282261
 30
0.0
 11
63.95047808566072
 21
15.34729433518345
 31
0.0
  0
LINE
  5
28D3
330
28AC
100
AcDbEntity
  8
0
 62
     0
100
AcDbLine
 10
55.55047808566081
 20
22.84926872307642
 30
0.0
 11
52.75047808566075
 21
25.64926872307649
 31
0.0
  0
LINE
  5
28D4
330
28AC
100
AcDbEntity
  8
0
 62
     0
100
AcDbLine
 10
61.85047808566089
 20
16.54926872307635
 30
0.0
 11
59.05047808566076
 21
19.34926872307648
 31
0.0
  0
LINE
  5
28D5
330
28AC
100
AcDbEntity
  8
0
 62
     0
100
AcDbLine
 10
50.1254780856608
 20
28.27426872307643
 30
0.0
 11
49.04216052591465
 21
29.35758628282253
 31
0.0
  0
LINE
  5
28D6
330
28AC
100
AcDbEntity
  8
0
 62
     0
100
AcDbLine
 10
65.14216052591468
 20
13.2575862828225
 30
0.0
 11
63.95047808566072
 21
14.4492687230765
 31
0.0
  0
LINE
  5
28D7
330
28AC
100
AcDbEntity
  8
0
 62
     0
100
AcDbLine
 10
55.55047808566081
 20
21.95124311096953
 30
0.0
 11
52.75047808566085
 21
24.75124311096954
 31
0.0
  0
LINE
  5
28D8
330
28AC
100
AcDbEntity
  8
0
 62
     0
100
AcDbLine
 10
50.1254780856608
 20
27.37624311096954
 30
0.0
 11
48.14413491380782
 21
29.35758628282258
 31
0.0
  0
LINE
  5
28D9
330
28AC
100
AcDbEntity
  8
0
 62
     0
100
AcDbLine
 10
61.82451978501529
 20
15.6772014116151
 30
0.0
 11
59.05047808566076
 21
18.45124311096958
 31
0.0
  0
LINE
  5
28DA
330
28AC
100
AcDbEntity
  8
0
 62
     0
100
AcDbLine
 10
55.55047808566081
 20
21.05321749886264
 30
0.0
 11
52.75047808566085
 21
23.85321749886259
 31
0.0
  0
LINE
  5
28DB
330
28AC
100
AcDbEntity
  8
0
 62
     0
100
AcDbLine
 10
49.92989753954696
 20
26.67379804497648
 30
0.0
 11
47.24610930170081
 21
29.35758628282264
 31
0.0
  0
LINE
  5
28DC
330
28AC
100
AcDbEntity
  8
0
 62
     0
100
AcDbLine
 10
61.63153448975805
 20
14.97216109476534
 30
0.0
 11
59.05047808566076
 21
17.55321749886269
 31
0.0
  0
LINE
  5
28DD
330
28AC
100
AcDbEntity
  8
0
 62
     0
100
AcDbLine
 10
55.55047808566081
 20
20.15519188675569
 30
0.0
 11
52.7504780856608
 21
22.9551918867557
 31
0.0
  0
LINE
  5
28DE
330
28AC
100
AcDbEntity
  8
0
 62
     0
100
AcDbLine
 10
49.14808368959382
 20
26.55758628282263
 30
0.0
 11
46.34808368959393
 21
29.35758628282253
 31
0.0
  0
LINE
  5
28DF
330
28AC
100
AcDbEntity
  8
0
 62
     0
100
AcDbLine
 10
61.30650261383447
 20
14.39916735858196
 30
0.0
 11
58.97896234650125
 21
16.72670762591525
 31
0.0
  0
LINE
  5
28E0
330
28AC
100
AcDbEntity
  8
0
 62
     0
100
AcDbLine
 10
55.55047808566081
 20
19.25716627464885
 30
0.0
 11
52.75047808566085
 21
22.05716627464881
 31
0.0
  0
LINE
  5
28E1
330
28AC
100
AcDbEntity
  8
0
 62
     0
100
AcDbLine
 10
48.25005807748704
 20
26.55758628282257
 30
0.0
 11
45.5124913483096
 21
29.29515301200007
 31
0.0
  0
LINE
  5
28E2
330
28AC
100
AcDbEntity
  8
0
 62
     0
100
AcDbLine
 10
60.87446081650944
 20
13.93318354380017
 30
0.0
 11
58.57737670803373
 21
16.23026765227587
 31
0.0
  0
LINE
  5
28E3
330
28AC
100
AcDbEntity
  8
0
 62
     0
100
AcDbLine
 10
55.55047808566081
 20
18.3591406625419
 30
0.0
 11
52.7504780856608
 21
21.15914066254186
 31
0.0
  0
LINE
  5
28E4
330
28AC
100
AcDbEntity
  8
0
 62
     0
100
AcDbLine
 10
47.35203246538014
 20
26.55758628282257
 30
0.0
 11
44.8478509237762
 21
29.06176782442646
 31
0.0
  0
LINE
  5
28E5
330
28AC
100
AcDbEntity
  8
0
 62
     0
100
AcDbLine
 10
60.3382984715834
 20
13.5713202766193
 30
0.0
 11
57.85203246538014
 21
16.05758628282257
 31
0.0
  0
LINE
  5
28E6
330
28AC
100
AcDbEntity
  8
0
 62
     0
100
AcDbLine
 10
55.55047808566076
 20
17.46111505043495
 30
0.0
 11
52.7504780856608
 21
20.26111505043497
 31
0.0
  0
LINE
  5
28E7
330
28AC
100
AcDbEntity
  8
0
 62
     0
100
AcDbLine
 10
46.47579668129123
 20
26.53579645480448
 30
0.0
 11
44.30524998656601
 21
28.70634314952969
 31
0.0
  0
LINE
  5
28E8
330
28AC
100
AcDbEntity
  8
0
 62
     0
100
AcDbLine
 10
59.6818859116721
 20
13.32970722442366
 30
0.0
 11
56.95400685327314
 21
16.05758628282262
 31
0.0
  0
LINE
  5
28E9
330
28AC
100
AcDbEntity
  8
0
 62
     0
100
AcDbLine
 10
46.10047808566089
 20
26.01308943832788
 30
0.0
 11
43.86713792752146
 21
28.24642959646729
 31
0.0
  0
LINE
  5
28EA
330
28AC
100
AcDbEntity
  8
0
 62
     0
100
AcDbLine
 10
58.85598124116626
 20
13.25758628282256
 30
0.0
 11
52.7504780856608
 21
19.36308943832802
 31
0.0
  0
LINE
  5
28EB
330
28AC
100
AcDbEntity
  8
0
 62
     0
100
AcDbLine
 10
46.10047808566089
 20
25.11506382622111
 30
0.0
 11
43.53536701516843
 21
27.68017489671354
 31
0.0
  0
LINE
  5
28EC
330
28AC
100
AcDbEntity
  8
0
 62
     0
100
AcDbLine
 10
57.95795562905937
 20
13.25758628282256
 30
0.0
 11
52.7504780856608
 21
18.46506382622118
 31
0.0
  0
LINE
  5
28ED
330
28AC
100
AcDbEntity
  8
0
 62
     0
100
AcDbLine
 10
46.30702236676467
 20
24.01049393301037
 30
0.0
 11
43.33318849580432
 21
26.98432780397065
 31
0.0
  0
LINE
  5
28EE
330
28AC
100
AcDbEntity
  8
0
 62
     0
100
AcDbLine
 10
57.05993001695246
 20
13.25758628282256
 30
0.0
 11
52.7504780856608
 21
17.56703821411423
 31
0.0
  0
LINE
  5
28EF
330
28AC
100
AcDbEntity
  8
0
 62
     0
100
AcDbLine
 10
50.52408178835225
 20
18.89540889931584
 30
0.0
 11
43.30047808566075
 21
26.11901260200733
 31
0.0
  0
LINE
  5
28F0
330
28AC
100
AcDbEntity
  8
0
 62
     0
100
AcDbLine
 10
41.20047808566073
 20
28.2190126020073
 30
0.0
 11
40.06190440484544
 21
29.35758628282264
 31
0.0
  0
LINE
  5
28F1
330
28AC
100
AcDbEntity
  8
0
 62
     0
100
AcDbLine
 10
56.16190440484554
 20
13.25758628282256
 30
0.0
 11
52.75047808566075
 21
16.66901260200727
 31
0.0
  0
LINE
  5
28F2
330
28AC
100
AcDbEntity
  8
0
 62
     0
100
AcDbLine
 10
50.65047808566088
 20
17.87098698990036
 30
0.0
 11
43.30047808566081
 21
25.22098698990044
 31
0.0
  0
LINE
  5
28F3
330
28AC
100
AcDbEntity
  8
0
 62
     0
100
AcDbLine
 10
41.20047808566083
 20
27.32098698990035
 30
0.0
 11
39.16387879273857
 21
29.3575862828227
 31
0.0
  0
LINE
  5
28F4
330
28AC
100
AcDbEntity
  8
0
 62
     0
100
AcDbLine
 10
55.24743091399376
 20
13.2740341615675
 30
0.0
 11
52.76692596440574
 21
15.75453911115551
 31
0.0
  0
LINE
  5
28F5
330
28AC
100
AcDbEntity
  8
0
 62
     0
100
AcDbLine
 10
41.20047808566083
 20
26.42296137779346
 30
0.0
 11
38.49308819788554
 21
29.13035126556872
 31
0.0
  0
LINE
  5
28F6
330
28AC
100
AcDbEntity
  8
0
 62
     0
100
AcDbLine
 10
50.65047808566084
 20
16.97296137779341
 30
0.0
 11
43.32388875354321
 21
24.2995507099111
 31
0.0
  0
LINE
  5
28F7
330
28AC
100
AcDbEntity
  8
0
 62
     0
100
AcDbLine
 10
41.20047808566083
 20
25.52493576568651
 30
0.0
 11
38.40047808566078
 21
28.32493576568658
 31
0.0
  0
LINE
  5
28F8
330
28AC
100
AcDbEntity
  8
0
 62
     0
100
AcDbLine
 10
50.65047808566071
 20
16.07493576568657
 30
0.0
 11
43.64200817138321
 21
23.08340567996413
 31
0.0
  0
LINE
  5
28F9
330
28AC
100
AcDbEntity
  8
0
 62
     0
100
AcDbLine
 10
41.20047808566083
 20
24.62691015357961
 30
0.0
 11
38.40047808566078
 21
27.42691015357963
 31
0.0
  0
LINE
  5
28FA
330
28AC
100
AcDbEntity
  8
0
 62
     0
100
AcDbLine
 10
50.54191626807176
 20
15.2854719711687
 30
0.0
 11
47.84628147903345
 21
17.98110676020701
 31
0.0
  0
LINE
  5
28FB
330
28AC
100
AcDbEntity
  8
0
 62
     0
100
AcDbLine
 10
41.20047808566083
 20
23.72888454147272
 30
0.0
 11
38.40047808566078
 21
26.52888454147279
 31
0.0
  0
LINE
  5
28FC
330
28AC
100
AcDbEntity
  8
0
 62
     0
100
AcDbLine
 10
36.10899118508382
 20
28.82037144204969
 30
0.0
 11
35.57177634431094
 21
29.35758628282264
 31
0.0
  0
LINE
  5
28FD
330
28AC
100
AcDbEntity
  8
0
 62
     0
100
AcDbLine
 10
50.2740405603102
 20
14.65532206682337
 30
0.0
 11
47.85047808566089
 21
17.07888454147269
 31
0.0
  0
LINE
  5
28FE
330
28AC
100
AcDbEntity
  8
0
 62
     0
100
AcDbLine
 10
41.20047808566079
 20
22.83085892936577
 30
0.0
 11
38.40047808566078
 21
25.63085892936584
 31
0.0
  0
LINE
  5
28FF
330
28AC
100
AcDbEntity
  8
0
 62
     0
100
AcDbLine
 10
35.91006352083122
 20
28.12127349419535
 30
0.0
 11
34.67375073220399
 21
29.35758628282264
 31
0.0
  0
LINE
  5
2900
330
28AC
100
AcDbEntity
  8
0
 62
     0
100
AcDbLine
 10
49.8910537621349
 20
14.14028325289172
 30
0.0
 11
47.75319290277439
 21
16.27814411225222
 31
0.0
  0
LINE
  5
2901
330
28AC
100
AcDbEntity
  8
0
 62
     0
100
AcDbLine
 10
41.20047808566079
 20
21.93283331725888
 30
0.0
 11
38.40047808566072
 21
24.7328333172589
 31
0.0
  0
LINE
  5
2902
330
28AC
100
AcDbEntity
  8
0
 62
     0
100
AcDbLine
 10
35.69453737392553
 20
27.43877402899409
 30
0.0
 11
33.78532181045495
 21
29.34798959246473
 31
0.0
  0
LINE
  5
2903
330
28AC
100
AcDbEntity
  8
0
 62
     0
100
AcDbLine
 10
49.40473479701927
 20
13.72857660590034
 30
0.0
 11
47.07572512009703
 21
16.05758628282262
 31
0.0
  0
LINE
  5
2904
330
28AC
100
AcDbEntity
  8
0
 62
     0
100
AcDbLine
 10
41.20047808566083
 20
21.03480770515199
 30
0.0
 11
38.40047808566078
 21
23.83480770515206
 31
0.0
  0
LINE
  5
2905
330
28AC
100
AcDbEntity
  8
0
 62
     0
100
AcDbLine
 10
35.47901122702
 20
26.75627456379283
 30
0.0
 11
33.35101122701997
 21
28.88427456379287
 31
0.0
  0
LINE
  5
2906
330
28AC
100
AcDbEntity
  8
0
 62
     0
100
AcDbLine
 10
48.80865084855891
 20
13.42663494225388
 30
0.0
 11
46.17769950799014
 21
16.05758628282268
 31
0.0
  0
LINE
  5
2907
330
28AC
100
AcDbEntity
  8
0
 62
     0
100
AcDbLine
 10
41.20047808566079
 20
20.1367820930451
 30
0.0
 11
38.40047808566072
 21
22.93678209304511
 31
0.0
  0
LINE
  5
2908
330
28AC
100
AcDbEntity
  8
0
 62
     0
100
AcDbLine
 10
35.26348508011415
 20
26.07377509859174
 30
0.0
 11
33.13548508011417
 21
28.20177509859173
 31
0.0
  0
LINE
  5
2909
330
28AC
100
AcDbEntity
  8
0
 62
     0
100
AcDbLine
 10
48.07097819691144
 20
13.26628198179446
 30
0.0
 11
45.27967389588325
 21
16.05758628282262
 31
0.0
  0
LINE
  5
290A
330
28AC
100
AcDbEntity
  8
0
 62
     0
100
AcDbLine
 10
41.20047808566079
 20
19.23875648093815
 30
0.0
 11
38.40047808566078
 21
22.03875648093811
 31
0.0
  0
LINE
  5
290B
330
28AC
100
AcDbEntity
  8
0
 62
     0
100
AcDbLine
 10
35.04795893320858
 20
25.39127563339036
 30
0.0
 11
32.91995893320848
 21
27.51927563339041
 31
0.0
  0
LINE
  5
290C
330
28AC
100
AcDbEntity
  8
0
 62
     0
100
AcDbLine
 10
47.18164828377637
 20
13.25758628282256
 30
0.0
 11
44.38164828377631
 21
16.05758628282262
 31
0.0
  0
LINE
  5
290D
330
28AC
100
AcDbEntity
  8
0
 62
     0
100
AcDbLine
 10
41.20047808566079
 20
18.34073086883126
 30
0.0
 11
38.40047808566083
 21
21.14073086883127
 31
0.0
  0
LINE
  5
290E
330
28AC
100
AcDbEntity
  8
0
 62
     0
100
AcDbLine
 10
34.83243278630295
 20
24.70877616818916
 30
0.0
 11
32.70443278630285
 21
26.83677616818921
 31
0.0
  0
LINE
  5
290F
330
28AC
100
AcDbEntity
  8
0
 62
     0
100
AcDbLine
 10
46.28362267166949
 20
13.25758628282261
 30
0.0
 11
43.85001097437309
 21
15.691197980119
 31
0.0
  0
LINE
  5
2910
330
28AC
100
AcDbEntity
  8
0
 62
     0
100
AcDbLine
 10
34.61690663939732
 20
24.02627670298779
 30
0.0
 11
32.48890663939722
 21
26.15427670298795
 31
0.0
  0
LINE
  5
2911
330
28AC
100
AcDbEntity
  8
0
 62
     0
100
AcDbLine
 10
41.20047808566079
 20
17.44270525672436
 30
0.0
 11
38.40047808566083
 21
20.24270525672432
 31
0.0
  0
LINE
  5
2912
330
28AC
100
AcDbEntity
  8
0
 62
     0
100
AcDbLine
 10
30.35047808566083
 20
28.29270525672433
 30
0.0
 11
29.28559705956252
 21
29.35758628282258
 31
0.0
  0
LINE
  5
2913
330
28AC
100
AcDbEntity
  8
0
 62
     0
100
AcDbLine
 10
45.38559705956259
 20
13.25758628282256
 30
0.0
 11
43.82547808566084
 21
14.81770525672431
 31
0.0
  0
LINE
  5
2914
330
28AC
100
AcDbEntity
  8
0
 62
     0
100
AcDbLine
 10
34.40138049249152
 20
23.3437772377867
 30
0.0
 11
32.27338049249159
 21
25.47177723778663
 31
0.0
  0
LINE
  5
2915
330
28AC
100
AcDbEntity
  8
0
 62
     0
100
AcDbLine
 10
41.20047808566079
 20
16.54467964461742
 30
0.0
 11
38.40047808566078
 21
19.34467964461743
 31
0.0
  0
LINE
  5
2916
330
28AC
100
AcDbEntity
  8
0
 62
     0
100
AcDbLine
 10
30.35047808566083
 20
27.39467964461738
 30
0.0
 11
28.38757144745563
 21
29.35758628282258
 31
0.0
  0
LINE
  5
2917
330
28AC
100
AcDbEntity
  8
0
 62
     0
100
AcDbLine
 10
44.48757144745559
 20
13.25758628282261
 30
0.0
 11
43.82547808566079
 21
13.91967964461736
 31
0.0
  0
LINE
  5
2918
330
28AC
100
AcDbEntity
  8
0
 62
     0
100
AcDbLine
 10
34.18585434558588
 20
22.66127777258538
 30
0.0
 11
32.05785434558585
 21
24.78927777258542
 31
0.0
  0
LINE
  5
2919
330
28AC
100
AcDbEntity
  8
0
 62
     0
100
AcDbLine
 10
30.35047808566077
 20
26.49665403251044
 30
0.0
 11
27.67503315676317
 21
29.1720989614081
 31
0.0
  0
LINE
  5
291A
330
28AC
100
AcDbEntity
  8
0
 62
     0
100
AcDbLine
 10
41.20047808566073
 20
15.64665403251052
 30
0.0
 11
38.40047808566078
 21
18.44665403251048
 31
0.0
  0
LINE
  5
291B
330
28AC
100
AcDbEntity
  8
0
 62
     0
100
AcDbLine
 10
33.97032819868025
 20
21.97877830738418
 30
0.0
 11
31.84232819868026
 21
24.10677830738416
 31
0.0
  0
LINE
  5
291C
330
28AC
100
AcDbEntity
  8
0
 62
     0
100
AcDbLine
 10
30.35047808566083
 20
25.5986284204036
 30
0.0
 11
27.55047808566077
 21
28.39862842040361
 31
0.0
  0
LINE
  5
291D
330
28AC
100
AcDbEntity
  8
0
 62
     0
100
AcDbLine
 10
41.20047808566079
 20
14.74862842040363
 30
0.0
 11
38.40047808566078
 21
17.54862842040359
 31
0.0
  0
LINE
  5
291E
330
28AC
100
AcDbEntity
  8
0
 62
     0
100
AcDbLine
 10
33.7652396892882
 20
21.28584120466928
 30
0.0
 11
31.62680205177452
 21
23.42427884218296
 31
0.0
  0
LINE
  5
291F
330
28AC
100
AcDbEntity
  8
0
 62
     0
100
AcDbLine
 10
30.35047808566083
 20
24.70060280829665
 30
0.0
 11
27.55047808566077
 21
27.50060280829672
 31
0.0
  0
LINE
  5
2920
330
28AC
100
AcDbEntity
  8
0
 62
     0
100
AcDbLine
 10
41.20047808566073
 20
13.85060280829668
 30
0.0
 11
38.40047808566078
 21
16.65060280829669
 31
0.0
  0
LINE
  5
2921
330
28AC
100
AcDbEntity
  8
0
 62
     0
100
AcDbLine
 10
34.1797130487222
 20
19.97334223312833
 30
0.0
 11
31.3362545560899
 21
22.81680072576063
 31
0.0
  0
LINE
  5
2922
330
28AC
100
AcDbEntity
  8
0
 62
     0
100
AcDbLine
 10
30.35047808566088
 20
23.80257719618965
 30
0.0
 11
27.5504780856607
 21
26.60257719618977
 31
0.0
  0
LINE
  5
2923
330
28AC
100
AcDbEntity
  8
0
 62
     0
100
AcDbLine
 10
40.8614330883284
 20
13.29162219352207
 30
0.0
 11
38.40047808566078
 21
15.75257719618974
 31
0.0
  0
LINE
  5
2924
330
28AC
100
AcDbEntity
  8
0
 62
     0
100
AcDbLine
 10
34.59418640815619
 20
18.6608432615875
 30
0.0
 11
27.55047808566077
 21
25.70455158408293
 31
0.0
  0
LINE
  5
2925
330
28AC
100
AcDbEntity
  8
0
 62
     0
100
AcDbLine
 10
25.10047808566088
 20
28.15455158408281
 30
0.0
 11
23.89744338692111
 21
29.35758628282258
 31
0.0
  0
LINE
  5
2926
330
28AC
100
AcDbEntity
  8
0
 62
     0
100
AcDbLine
 10
39.99744338692114
 20
13.25758628282256
 30
0.0
 11
38.40047808566089
 21
14.8545515840828
 31
0.0
  0
LINE
  5
2927
330
28AC
100
AcDbEntity
  8
0
 62
     0
100
AcDbLine
 10
35.00865976759025
 20
17.34834429004649
 30
0.0
 11
27.55047808566077
 21
24.80652597197599
 31
0.0
  0
LINE
  5
2928
330
28AC
100
AcDbEntity
  8
0
 62
     0
100
AcDbLine
 10
25.10047808566088
 20
27.25652597197586
 30
0.0
 11
22.99941777481411
 21
29.35758628282264
 31
0.0
  0
LINE
  5
2929
330
28AC
100
AcDbEntity
  8
0
 62
     0
100
AcDbLine
 10
39.09941777481419
 20
13.2575862828225
 30
0.0
 11
38.40047808566083
 21
13.95652597197591
 31
0.0
  0
LINE
  5
292A
330
28AC
100
AcDbEntity
  8
0
 62
     0
100
AcDbLine
 10
24.83357139027078
 20
26.62540705525902
 30
0.0
 11
22.13334967205935
 21
29.32562877347038
 31
0.0
  0
LINE
  5
292B
330
28AC
100
AcDbEntity
  8
0
 62
     0
100
AcDbLine
 10
35.42313312702419
 20
16.03584531850561
 30
0.0
 11
27.55047808566081
 21
23.90850035986898
 31
0.0
  0
LINE
  5
292C
330
28AC
100
AcDbEntity
  8
0
 62
     0
100
AcDbLine
 10
30.68798700800245
 20
19.87296582542046
 30
0.0
 11
27.55047808566081
 21
23.01047474776209
 31
0.0
  0
LINE
  5
292D
330
28AC
100
AcDbEntity
  8
0
 62
     0
100
AcDbLine
 10
24.00336655060034
 20
26.55758628282252
 30
0.0
 11
21.39530660247209
 21
29.16564623095081
 31
0.0
  0
LINE
  5
292E
330
28AC
100
AcDbEntity
  8
0
 62
     0
100
AcDbLine
 10
35.83760648645824
 20
14.72334634696466
 30
0.0
 11
31.74529879415013
 21
18.81565403927277
 31
0.0
  0
LINE
  5
292F
330
28AC
100
AcDbEntity
  8
0
 62
     0
100
AcDbLine
 10
30.35047808566088
 20
19.31244913565513
 30
0.0
 11
27.55047808566081
 21
22.1124491356552
 31
0.0
  0
LINE
  5
2930
330
28AC
100
AcDbEntity
  8
0
 62
     0
100
AcDbLine
 10
23.10534093849333
 20
26.55758628282263
 30
0.0
 11
20.75658518664136
 21
28.9063420346746
 31
0.0
  0
LINE
  5
2931
330
28AC
100
AcDbEntity
  8
0
 62
     0
100
AcDbLine
 10
36.07264534416886
 20
13.59028187714711
 30
0.0
 11
32.15977215358407
 21
17.50315506773194
 31
0.0
  0
LINE
  5
2932
330
28AC
100
AcDbEntity
  8
0
 62
     0
100
AcDbLine
 10
30.35047808566083
 20
18.41442352354824
 30
0.0
 11
27.55047808566077
 21
21.21442352354825
 31
0.0
  0
LINE
  5
2933
330
28AC
100
AcDbEntity
  8
0
 62
     0
100
AcDbLine
 10
22.26222743594981
 20
26.50267417325927
 30
0.0
 11
20.19783621130682
 21
28.56706539790224
 31
0.0
  0
LINE
  5
2934
330
28AC
100
AcDbEntity
  8
0
 62
     0
100
AcDbLine
 10
35.5073153263865
 20
13.25758628282256
 30
0.0
 11
32.57424551301813
 21
16.19065609619088
 31
0.0
  0
LINE
  5
2935
330
28AC
100
AcDbEntity
  8
0
 62
     0
100
AcDbLine
 10
30.35047808566083
 20
17.51639791144128
 30
0.0
 11
27.55047808566077
 21
20.31639791144136
 31
0.0
  0
LINE
  5
2936
330
28AC
100
AcDbEntity
  8
0
 62
     0
100
AcDbLine
 10
21.6903712431108
 20
26.17650475399131
 30
0.0
 11
19.71018100269503
 21
28.15669499440708
 31
0.0
  0
LINE
  5
2937
330
28AC
100
AcDbEntity
  8
0
 62
     0
100
AcDbLine
 10
34.60928971427956
 20
13.25758628282256
 30
0.0
 11
32.98871887245207
 21
14.87815712465004
 31
0.0
  0
LINE
  5
2938
330
28AC
100
AcDbEntity
  8
0
 62
     0
100
AcDbLine
 10
25.43590721845857
 20
21.53294316653671
 30
0.0
 11
23.92583496937482
 21
23.04301541562046
 31
0.0
  0
LINE
  5
2939
330
28AC
100
AcDbEntity
  8
0
 62
     0
100
AcDbLine
 10
30.35047808566094
 20
16.61837229933434
 30
0.0
 11
27.55047808566081
 21
19.41837229933446
 31
0.0
  0
LINE
  5
293A
330
28AC
100
AcDbEntity
  8
0
 62
     0
100
AcDbLine
 10
21.33424967298186
 20
25.63460071201343
 30
0.0
 11
19.2908149766838
 21
27.67803540831148
 31
0.0
  0
LINE
  5
293B
330
28AC
100
AcDbEntity
  8
0
 62
     0
100
AcDbLine
 10
33.66093109796805
 20
13.30791928702723
 30
0.0
 11
33.41057692637674
 21
13.55827345861854
 31
0.0
  0
LINE
  5
293C
330
28AC
100
AcDbEntity
  8
0
 62
     0
100
AcDbLine
 10
25.34939355831665
 20
20.72143121457168
 30
0.0
 11
23.11432301740979
 21
22.95650175547854
 31
0.0
  0
LINE
  5
293D
330
28AC
100
AcDbEntity
  8
0
 62
     0
100
AcDbLine
 10
21.25047808566092
 20
24.82034668722742
 30
0.0
 11
18.94187595572214
 21
27.12894881716619
 31
0.0
  0
LINE
  5
293E
330
28AC
100
AcDbEntity
  8
0
 62
     0
100
AcDbLine
 10
30.35047808566088
 20
15.72034668722739
 30
0.0
 11
27.55047808566077
 21
18.52034668722757
 31
0.0
  0
LINE
  5
293F
330
28AC
100
AcDbEntity
  8
0
 62
     0
100
AcDbLine
 10
25.01753799901861
 20
20.15526116176272
 30
0.0
 11
22.54815296460083
 21
22.62464619618048
 31
0.0
  0
LINE
  5
2940
330
28AC
100
AcDbEntity
  8
0
 62
     0
100
AcDbLine
 10
21.25047808566092
 20
23.92232107512047
 30
0.0
 11
18.67129624851196
 21
26.50150291226942
 31
0.0
  0
LINE
  5
2941
330
28AC
100
AcDbEntity
  8
0
 62
     0
100
AcDbLine
 10
30.35047808566088
 20
14.8223210751205
 30
0.0
 11
27.55047808566081
 21
17.62232107512057
 31
0.0
  0
LINE
  5
2942
330
28AC
100
AcDbEntity
  8
0
 62
     0
100
AcDbLine
 10
21.25047808566092
 20
23.02429546301357
 30
0.0
 11
18.4965823755861
 21
25.77819117308843
 31
0.0
  0
LINE
  5
2943
330
28AC
100
AcDbEntity
  8
0
 62
     0
100
AcDbLine
 10
24.51570455688216
 20
19.75906899179239
 30
0.0
 11
22.1519607946305
 21
22.12281275404405
 31
0.0
  0
LINE
  5
2944
330
28AC
100
AcDbEntity
  8
0
 62
     0
100
AcDbLine
 10
15.82547808566073
 20
28.44929546301376
 30
0.0
 11
14.91718726585185
 21
29.3575862828227
 31
0.0
  0
LINE
  5
2945
330
28AC
100
AcDbEntity
  8
0
 62
     0
100
AcDbLine
 10
30.35047808566094
 20
13.9242954630136
 30
0.0
 11
27.55047808566088
 21
16.72429546301367
 31
0.0
  0
LINE
  5
2946
330
28AC
100
AcDbEntity
  8
0
 62
     0
100
AcDbLine
 10
21.25047808566092
 20
22.12626985090668
 30
0.0
 11
18.45047808566085
 21
24.92626985090675
 31
0.0
  0
LINE
  5
2947
330
28AC
100
AcDbEntity
  8
0
 62
     0
100
AcDbLine
 10
23.81538511445473
 20
19.56136282211287
 30
0.0
 11
21.95425462495098
 21
21.42249331161662
 31
0.0
  0
LINE
  5
2948
330
28AC
100
AcDbEntity
  8
0
 62
     0
100
AcDbLine
 10
15.82547808566073
 20
27.55126985090686
 30
0.0
 11
14.0191616537449
 21
29.35758628282264
 31
0.0
  0
LINE
  5
2949
330
28AC
100
AcDbEntity
  8
0
 62
     0
100
AcDbLine
 10
30.06257428439023
 20
13.31417365217737
 30
0.0
 11
27.55047808566081
 21
15.82626985090672
 31
0.0
  0
LINE
  5
294A
330
28AC
100
AcDbEntity
  8
0
 62
     0
100
AcDbLine
 10
21.25047808566092
 20
21.22824423879973
 30
0.0
 11
18.45047808566085
 21
24.0282442387998
 31
0.0
  0
LINE
  5
294B
330
28AC
100
AcDbEntity
  8
0
 62
     0
100
AcDbLine
 10
15.71644411539046
 20
26.7622782090702
 30
0.0
 11
13.12113604163789
 21
29.3575862828227
 31
0.0
  0
LINE
  5
294C
330
28AC
100
AcDbEntity
  8
0
 62
     0
100
AcDbLine
 10
29.22113604163809
 20
13.2575862828225
 30
0.0
 11
27.55047808566081
 21
14.92824423879983
 31
0.0
  0
LINE
  5
294D
330
28AC
100
AcDbEntity
  8
0
 62
     0
100
AcDbLine
 10
21.25047808566086
 20
20.33021862669284
 30
0.0
 11
18.45047808566079
 21
23.13021862669285
 31
0.0
  0
LINE
  5
294E
330
28AC
100
AcDbEntity
  8
0
 62
     0
100
AcDbLine
 10
15.02311042953113
 20
26.55758628282257
 30
0.0
 11
12.223110429531
 21
29.3575862828227
 31
0.0
  0
LINE
  5
294F
330
28AC
100
AcDbEntity
  8
0
 62
     0
100
AcDbLine
 10
28.32311042953108
 20
13.25758628282256
 30
0.0
 11
27.55047808566081
 21
14.03021862669288
 31
0.0
  0
LINE
  5
2950
330
28AC
100
AcDbEntity
  8
0
 62
     0
100
AcDbLine
 10
21.25047808566092
 20
19.43219301458595
 30
0.0
 11
18.45047808566085
 21
22.23219301458602
 31
0.0
  0
LINE
  5
2951
330
28AC
100
AcDbEntity
  8
0
 62
     0
100
AcDbLine
 10
14.12508481742424
 20
26.55758628282257
 30
0.0
 11
11.35995554531934
 21
29.32271555492753
 31
0.0
  0
LINE
  5
2952
330
28AC
100
AcDbEntity
  8
0
 62
     0
100
AcDbLine
 10
25.09787563682392
 20
15.58479546342289
 30
0.0
 11
24.62768726626122
 21
16.05498383398566
 31
0.0
  0
LINE
  5
2953
330
28AC
100
AcDbEntity
  8
0
 62
     0
100
AcDbLine
 10
21.25047808566086
 20
18.534167402479
 30
0.0
 11
18.45047808566085
 21
21.33416740247907
 31
0.0
  0
LINE
  5
2954
330
28AC
100
AcDbEntity
  8
0
 62
     0
100
AcDbLine
 10
13.22705920531734
 20
26.55758628282257
 30
0.0
 11
10.66682073684086
 21
29.11782475129906
 31
0.0
  0
LINE
  5
2955
330
28AC
100
AcDbEntity
  8
0
 62
     0
100
AcDbLine
 10
25.10047808566083
 20
14.68416740247903
 30
0.0
 11
23.72705920531729
 21
16.05758628282262
 31
0.0
  0
LINE
  5
2956
330
28AC
100
AcDbEntity
  8
0
 62
     0
100
AcDbLine
 10
21.25047808566086
 20
17.63614179037211
 30
0.0
 11
18.45047808566089
 21
20.43614179037206
 31
0.0
  0
LINE
  5
2957
330
28AC
100
AcDbEntity
  8
0
 62
     0
100
AcDbLine
 10
12.3290335932104
 20
26.55758628282252
 30
0.0
 11
10.10257407699362
 21
28.78404579903929
 31
0.0
  0
LINE
  5
2958
330
28AC
100
AcDbEntity
  8
0
 62
     0
100
AcDbLine
 10
25.10047808566083
 20
13.78614179037214
 30
0.0
 11
22.8290335932104
 21
16.05758628282251
 31
0.0
  0
LINE
  5
2959
330
28AC
100
AcDbEntity
  8
0
 62
     0
100
AcDbLine
 10
11.8187407655958
 20
26.16985349833033
 30
0.0
 11
9.644481264752867
 21
28.34411299917326
 31
0.0
  0
LINE
  5
295A
330
28AC
100
AcDbEntity
  8
0
 62
     0
100
AcDbLine
 10
24.71274530116853
 20
13.27584896275761
 30
0.0
 11
18.45047808566089
 21
19.53811617826523
 31
0.0
  0
LINE
  5
295B
330
28AC
100
AcDbEntity
  8
0
 62
     0
100
AcDbLine
 10
11.80047808566087
 20
25.29009056615831
 30
0.0
 11
9.291000062283783
 21
27.7995685895354
 31
0.0
  0
LINE
  5
295C
330
28AC
100
AcDbEntity
  8
0
 62
     0
100
AcDbLine
 10
23.83298236899662
 20
13.25758628282256
 30
0.0
 11
18.45047808566089
 21
18.64009056615828
 31
0.0
  0
LINE
  5
295D
330
28AC
100
AcDbEntity
  8
0
 62
     0
100
AcDbLine
 10
11.8626137937963
 20
24.32992924591588
 30
0.0
 11
9.060119959990061
 21
27.13242307972218
 31
0.0
  0
LINE
  5
295E
330
28AC
100
AcDbEntity
  8
0
 62
     0
100
AcDbLine
 10
22.93495675688962
 20
13.25758628282261
 30
0.0
 11
18.45047808566085
 21
17.74206495405132
 31
0.0
  0
LINE
  5
295F
330
28AC
100
AcDbEntity
  8
0
 62
     0
100
AcDbLine
 10
16.15485417688353
 20
19.13966325072181
 30
0.0
 11
9.000478085660914
 21
26.29403934194443
 31
0.0
  0
LINE
  5
2960
330
28AC
100
AcDbEntity
  8
0
 62
     0
100
AcDbLine
 10
21.98365905772607
 20
13.31085836987927
 30
0.0
 11
18.5037501727175
 21
16.79076725488784
 31
0.0
  0
LINE
  5
2961
330
28AC
100
AcDbEntity
  8
0
 62
     0
100
AcDbLine
 10
16.34674869096875
 20
18.04974312452969
 30
0.0
 11
9.000478085660803
 21
25.39601372983765
 31
0.0
  0
LINE
  5
2962
330
28AC
100
AcDbEntity
  8
0
 62
     0
100
AcDbLine
 10
20.60985114512448
 20
13.78664067037391
 30
0.0
 11
18.97953247321209
 21
15.41695934228636
 31
0.0
  0
LINE
  5
2963
330
28AC
100
AcDbEntity
  8
0
 62
     0
100
AcDbLine
 10
16.35047808566088
 20
17.14798811773062
 30
0.0
 11
9.008042533083196
 21
24.49042367030825
 31
0.0
  0
LINE
  5
2964
330
28AC
100
AcDbEntity
  8
0
 62
     0
100
AcDbLine
 10
16.35047808566082
 20
16.24996250562373
 30
0.0
 11
9.231333291407054
 21
23.36910729987744
 31
0.0
  0
LINE
  5
2965
330
28AC
100
AcDbEntity
  8
0
 62
     0
100
AcDbLine
 10
16.27795808952891
 20
15.42445688964881
 30
0.0
 11
13.51456644590985
 21
18.18784853326787
 31
0.0
  0
LINE
  5
2966
330
28AC
100
AcDbEntity
  8
0
 62
     0
100
AcDbLine
 10
16.03602015050006
 20
14.7683692165707
 30
0.0
 11
13.55047808566081
 21
17.25391128140995
 31
0.0
  0
LINE
  5
2967
330
28AC
100
AcDbEntity
  8
0
 62
     0
100
AcDbLine
 10
15.67390090311829
 20
14.23246285184552
 30
0.0
 11
13.51457905336014
 21
16.39178470160368
 31
0.0
  0
LINE
  5
2968
330
28AC
100
AcDbEntity
  8
0
 62
     0
100
AcDbLine
 10
15.20767453085142
 20
13.80066361200551
 30
0.0
 11
12.9507518600343
 21
16.05758628282268
 31
0.0
  0
LINE
  5
2969
330
28AC
100
AcDbEntity
  8
0
 62
     0
100
AcDbLine
 10
14.63441008311861
 20
13.47590244763142
 30
0.0
 11
12.05272624792735
 21
16.05758628282262
 31
0.0
  0
LINE
  5
296A
330
28AC
100
AcDbEntity
  8
0
 62
     0
100
AcDbLine
 10
13.92899749403267
 20
13.28328942461041
 30
0.0
 11
11.15470063582046
 21
16.05758628282262
 31
0.0
  0
LINE
  5
296B
330
28AC
100
AcDbEntity
  8
0
 62
     0
100
AcDbLine
 10
13.05667502371363
 20
13.25758628282244
 30
0.0
 11
10.25667502371351
 21
16.05758628282262
 31
0.0
  0
LINE
  5
296C
330
28AC
100
AcDbEntity
  8
0
 62
     0
100
AcDbLine
 10
12.15864941160669
 20
13.25758628282256
 30
0.0
 11
9.605325516788806
 21
15.81091017764049
 31
0.0
  0
LINE
  5
296D
330
28AC
100
AcDbEntity
  8
0
 62
     0
100
AcDbLine
 10
11.2606237994998
 20
13.25758628282256
 30
0.0
 11
9.525478085660836
 21
14.99273199666152
 31
0.0
  0
LINE
  5
296E
330
28AC
100
AcDbEntity
  8
0
 62
     0
100
AcDbLine
 10
10.36259818739285
 20
13.25758628282256
 30
0.0
 11
9.525478085660836
 21
14.09470638455457
 31
0.0
  0
LINE
  5
296F
330
28AC
100
AcDbEntity
  8
0
 62
     0
100
AcDbLine
 10
66.34216537032779
 20
13.27071805994012
 30
0.0
 11
66.73734630854358
 21
13.66589899815591
 31
0.0
  0
LINE
  5
2970
330
28AC
100
AcDbEntity
  8
0
 62
     0
100
AcDbLine
 10
65.43100798110335
 20
13.2575862828225
 30
0.0
 11
66.75047808566103
 21
14.57705638738019
 31
0.0
  0
LINE
  5
2971
330
28AC
100
AcDbEntity
  8
0
 62
     0
100
AcDbLine
 10
64.53298236899644
 20
13.2575862828225
 30
0.0
 11
66.75047808566103
 21
15.47508199948708
 31
0.0
  0
LINE
  5
2972
330
28AC
100
AcDbEntity
  8
0
 62
     0
100
AcDbLine
 10
63.9816756489127
 20
13.60430517484571
 30
0.0
 11
66.75047808566097
 21
16.37310761159404
 31
0.0
  0
LINE
  5
2973
330
28AC
100
AcDbEntity
  8
0
 62
     0
100
AcDbLine
 10
63.9504780856609
 20
14.47113322370086
 30
0.0
 11
66.75047808566097
 21
17.27113322370087
 31
0.0
  0
LINE
  5
2974
330
28AC
100
AcDbEntity
  8
0
 62
     0
100
AcDbLine
 10
63.95047808566096
 20
15.36915883580775
 30
0.0
 11
66.75047808566097
 21
18.16915883580782
 31
0.0
  0
LINE
  5
2975
330
28AC
100
AcDbEntity
  8
0
 62
     0
100
AcDbLine
 10
63.9504780856609
 20
16.26718444791469
 30
0.0
 11
66.75047808566097
 21
19.06718444791477
 31
0.0
  0
LINE
  5
2976
330
28AC
100
AcDbEntity
  8
0
 62
     0
100
AcDbLine
 10
63.9504780856609
 20
17.16521006002159
 30
0.0
 11
66.75047808566097
 21
19.96521006002166
 31
0.0
  0
LINE
  5
2977
330
28AC
100
AcDbEntity
  8
0
 62
     0
100
AcDbLine
 10
60.37704294772618
 20
13.59177492208687
 30
0.0
 11
61.51628944639674
 21
14.73102142075748
 31
0.0
  0
LINE
  5
2978
330
28AC
100
AcDbEntity
  8
0
 62
     0
100
AcDbLine
 10
63.9504780856609
 20
18.06323567212848
 30
0.0
 11
66.75047808566097
 21
20.86323567212855
 31
0.0
  0
LINE
  5
2979
330
28AC
100
AcDbEntity
  8
0
 62
     0
100
AcDbLine
 10
59.14647478120339
 20
13.25923236767096
 30
0.0
 11
61.84883200081269
 21
15.96158958728023
 31
0.0
  0
LINE
  5
297A
330
28AC
100
AcDbEntity
  8
0
 62
     0
100
AcDbLine
 10
63.9504780856609
 20
18.96126128423543
 30
0.0
 11
66.75047808566097
 21
21.76126128423545
 31
0.0
  0
LINE
  5
297B
330
28AC
100
AcDbEntity
  8
0
 62
     0
100
AcDbLine
 10
58.24680308424797
 20
13.2575862828225
 30
0.0
 11
61.850478085661
 21
16.86126128423547
 31
0.0
  0
LINE
  5
297C
330
28AC
100
AcDbEntity
  8
0
 62
     0
100
AcDbLine
 10
63.9504780856609
 20
19.85928689634232
 30
0.0
 11
66.7504780856609
 21
22.6592868963424
 31
0.0
  0
LINE
  5
297D
330
28AC
100
AcDbEntity
  8
0
 62
     0
100
AcDbLine
 10
57.34877747214107
 20
13.2575862828225
 30
0.0
 11
61.85047808566093
 21
17.75928689634241
 31
0.0
  0
LINE
  5
297E
330
28AC
100
AcDbEntity
  8
0
 62
     0
100
AcDbLine
 10
63.9504780856609
 20
20.75731250844922
 30
0.0
 11
66.75047808566097
 21
23.55731250844929
 31
0.0
  0
LINE
  5
297F
330
28AC
100
AcDbEntity
  8
0
 62
     0
100
AcDbLine
 10
56.45075186003424
 20
13.25758628282256
 30
0.0
 11
61.850478085661
 21
18.65731250844931
 31
0.0
  0
LINE
  5
2980
330
28AC
100
AcDbEntity
  8
0
 62
     0
100
AcDbLine
 10
58.94588688357988
 20
16.65074691847513
 30
0.0
 11
61.850478085661
 21
19.5553381205562
 31
0.0
  0
LINE
  5
2981
330
28AC
100
AcDbEntity
  8
0
 62
     0
100
AcDbLine
 10
63.9504780856609
 20
21.65533812055612
 30
0.0
 11
66.75047808566097
 21
24.45533812055618
 31
0.0
  0
LINE
  5
2982
330
28AC
100
AcDbEntity
  8
0
 62
     0
100
AcDbLine
 10
55.55272624792724
 20
13.2575862828225
 30
0.0
 11
58.45731745000836
 21
16.16217748490356
 31
0.0
  0
LINE
  5
2983
330
28AC
100
AcDbEntity
  8
0
 62
     0
100
AcDbLine
 10
59.05047808566087
 20
17.65336373266308
 30
0.0
 11
61.85047808566093
 21
20.45336373266315
 31
0.0
  0
LINE
  5
2984
330
28AC
100
AcDbEntity
  8
0
 62
     0
100
AcDbLine
 10
63.95047808566085
 20
22.55336373266306
 30
0.0
 11
66.7504780856609
 21
25.35336373266313
 31
0.0
  0
LINE
  5
2985
330
28AC
100
AcDbEntity
  8
0
 62
     0
100
AcDbLine
 10
54.76665038719755
 20
13.36953603419971
 30
0.0
 11
57.45470063582041
 21
16.05758628282257
 31
0.0
  0
LINE
  5
2986
330
28AC
100
AcDbEntity
  8
0
 62
     0
100
AcDbLine
 10
59.05047808566092
 20
18.55138934477009
 30
0.0
 11
61.85047808566093
 21
21.35138934477004
 31
0.0
  0
LINE
  5
2987
330
28AC
100
AcDbEntity
  8
0
 62
     0
100
AcDbLine
 10
63.95047808566085
 20
23.45138934477001
 30
0.0
 11
66.7504780856609
 21
26.25138934477002
 31
0.0
  0
LINE
  5
2988
330
28AC
100
AcDbEntity
  8
0
 62
     0
100
AcDbLine
 10
54.1386635199874
 20
13.63957477909656
 30
0.0
 11
56.55755280935784
 21
16.058464068467
 31
0.0
  0
LINE
  5
2989
330
28AC
100
AcDbEntity
  8
0
 62
     0
100
AcDbLine
 10
59.05047808566099
 20
19.44941495687698
 30
0.0
 11
61.85047808566093
 21
22.24941495687693
 31
0.0
  0
LINE
  5
298A
330
28AC
100
AcDbEntity
  8
0
 62
     0
100
AcDbLine
 10
63.9504780856609
 20
24.34941495687684
 30
0.0
 11
66.7504780856609
 21
27.14941495687691
 31
0.0
  0
LINE
  5
298B
330
28AC
100
AcDbEntity
  8
0
 62
     0
100
AcDbLine
 10
53.62540363862233
 20
14.02434050983828
 30
0.0
 11
55.91407422064515
 21
16.31301109186114
 31
0.0
  0
LINE
  5
298C
330
28AC
100
AcDbEntity
  8
0
 62
     0
100
AcDbLine
 10
59.05047808566099
 20
20.34744056898387
 30
0.0
 11
61.85047808566093
 21
23.14744056898388
 31
0.0
  0
LINE
  5
298D
330
28AC
100
AcDbEntity
  8
0
 62
     0
100
AcDbLine
 10
63.95047808566085
 20
25.24744056898379
 30
0.0
 11
66.7504780856609
 21
28.04744056898386
 31
0.0
  0
LINE
  5
298E
330
28AC
100
AcDbEntity
  8
0
 62
     0
100
AcDbLine
 10
53.21543946339722
 20
14.5124019467201
 30
0.0
 11
55.57683594223572
 21
16.87379842555866
 31
0.0
  0
LINE
  5
298F
330
28AC
100
AcDbEntity
  8
0
 62
     0
100
AcDbLine
 10
59.05047808566092
 20
21.24546618109082
 30
0.0
 11
61.850478085661
 21
24.04546618109089
 31
0.0
  0
LINE
  5
2990
330
28AC
100
AcDbEntity
  8
0
 62
     0
100
AcDbLine
 10
63.95047808566085
 20
26.14546618109069
 30
0.0
 11
66.74032893211045
 21
28.93531702754035
 31
0.0
  0
LINE
  5
2991
330
28AC
100
AcDbEntity
  8
0
 62
     0
100
AcDbLine
 10
52.91551458496321
 20
15.1105026803931
 30
0.0
 11
55.55047808566094
 21
17.74546618109076
 31
0.0
  0
LINE
  5
2992
330
28AC
100
AcDbEntity
  8
0
 62
     0
100
AcDbLine
 10
59.05047808566099
 20
22.14349179319766
 30
0.0
 11
61.85047808566105
 21
24.94349179319772
 31
0.0
  0
LINE
  5
2993
330
28AC
100
AcDbEntity
  8
0
 62
     0
100
AcDbLine
 10
63.95047808566085
 20
27.04349179319758
 30
0.0
 11
66.26321458703097
 21
29.3562282945677
 31
0.0
  0
LINE
  5
2994
330
28AC
100
AcDbEntity
  8
0
 62
     0
100
AcDbLine
 10
52.75810105000676
 20
15.85111475754348
 30
0.0
 11
55.55047808566094
 21
18.64349179319765
 31
0.0
  0
LINE
  5
2995
330
28AC
100
AcDbEntity
  8
0
 62
     0
100
AcDbLine
 10
59.05047808566092
 20
23.04151740530461
 30
0.0
 11
61.850478085661
 21
25.84151740530467
 31
0.0
  0
LINE
  5
2996
330
28AC
100
AcDbEntity
  8
0
 62
     0
100
AcDbLine
 10
63.9504780856609
 20
27.94151740530458
 30
0.0
 11
65.3665469631789
 21
29.35758628282258
 31
0.0
  0
LINE
  5
2997
330
28AC
100
AcDbEntity
  8
0
 62
     0
100
AcDbLine
 10
52.75047808566097
 20
16.74151740530459
 30
0.0
 11
55.55047808566097
 21
19.54151740530466
 31
0.0
  0
LINE
  5
2998
330
28AC
100
AcDbEntity
  8
0
 62
     0
100
AcDbLine
 10
59.05047808566092
 20
23.93954301741155
 30
0.0
 11
61.850478085661
 21
26.73954301741157
 31
0.0
  0
LINE
  5
2999
330
28AC
100
AcDbEntity
  8
0
 62
     0
100
AcDbLine
 10
52.75047808566093
 20
17.63954301741154
 30
0.0
 11
55.55047808566097
 21
20.43954301741161
 31
0.0
  0
LINE
  5
299A
330
28AC
100
AcDbEntity
  8
0
 62
     0
100
AcDbLine
 10
63.95052480040835
 20
28.83958973215897
 30
0.0
 11
64.46847463632463
 21
29.3575395680752
 31
0.0
  0
LINE
  5
299B
330
28AC
100
AcDbEntity
  8
0
 62
     0
100
AcDbLine
 10
48.42892245494891
 20
13.31798738669948
 30
0.0
 11
50.59007698178408
 21
15.4791419135347
 31
0.0
  0
LINE
  5
299C
330
28AC
100
AcDbEntity
  8
0
 62
     0
100
AcDbLine
 10
52.75047808566093
 20
18.53756862951843
 30
0.0
 11
55.55047808566097
 21
21.3375686295185
 31
0.0
  0
LINE
  5
299D
330
28AC
100
AcDbEntity
  8
0
 62
     0
100
AcDbLine
 10
59.05047808566092
 20
24.83756862951845
 30
0.0
 11
61.85047808566093
 21
27.63756862951852
 31
0.0
  0
LINE
  5
299E
330
28AC
100
AcDbEntity
  8
0
 62
     0
100
AcDbLine
 10
47.47049573896503
 20
13.25758628282261
 30
0.0
 11
50.65047808566088
 21
16.43756862951846
 31
0.0
  0
LINE
  5
299F
330
28AC
100
AcDbEntity
  8
0
 62
     0
100
AcDbLine
 10
52.75047808566093
 20
19.43559424162532
 30
0.0
 11
55.55047808566097
 21
22.23559424162539
 31
0.0
  0
LINE
  5
29A0
330
28AC
100
AcDbEntity
  8
0
 62
     0
100
AcDbLine
 10
59.05047808566092
 20
25.73559424162534
 30
0.0
 11
61.850478085661
 21
28.5355942416254
 31
0.0
  0
LINE
  5
29A1
330
28AC
100
AcDbEntity
  8
0
 62
     0
100
AcDbLine
 10
46.57247012685814
 20
13.25758628282256
 30
0.0
 11
50.65047808566095
 21
17.3355942416253
 31
0.0
  0
LINE
  5
29A2
330
28AC
100
AcDbEntity
  8
0
 62
     0
100
AcDbLine
 10
52.75047808566093
 20
20.33361985373227
 30
0.0
 11
55.55047808566097
 21
23.13361985373228
 31
0.0
  0
LINE
  5
29A3
330
28AC
100
AcDbEntity
  8
0
 62
     0
100
AcDbLine
 10
59.05047808566092
 20
26.63361985373223
 30
0.0
 11
61.65674063082684
 21
29.23988239889821
 31
0.0
  0
LINE
  5
29A4
330
28AC
100
AcDbEntity
  8
0
 62
     0
100
AcDbLine
 10
45.67444451475124
 20
13.25758628282261
 30
0.0
 11
50.63615948524807
 21
18.21930125331937
 31
0.0
  0
LINE
  5
29A5
330
28AC
100
AcDbEntity
  8
0
 62
     0
100
AcDbLine
 10
52.75047808566093
 20
21.23164546583916
 30
0.0
 11
55.55047808566094
 21
24.03164546583923
 31
0.0
  0
LINE
  5
29A6
330
28AC
100
AcDbEntity
  8
0
 62
     0
100
AcDbLine
 10
59.05047808566087
 20
27.53164546583918
 30
0.0
 11
60.87641890264433
 21
29.35758628282264
 31
0.0
  0
LINE
  5
29A7
330
28AC
100
AcDbEntity
  8
0
 62
     0
100
AcDbLine
 10
44.77641890264431
 20
13.25758628282261
 30
0.0
 11
50.50124711461927
 21
18.98241449479758
 31
0.0
  0
LINE
  5
29A8
330
28AC
100
AcDbEntity
  8
0
 62
     0
100
AcDbLine
 10
52.75047808566093
 20
22.12967107794606
 30
0.0
 11
55.55047808566097
 21
24.92967107794612
 31
0.0
  0
LINE
  5
29A9
330
28AC
100
AcDbEntity
  8
0
 62
     0
100
AcDbLine
 10
47.85047808566105
 20
17.22967107794613
 30
0.0
 11
50.26065965770072
 21
19.63985264998587
 31
0.0
  0
LINE
  5
29AA
330
28AC
100
AcDbEntity
  8
0
 62
     0
100
AcDbLine
 10
59.05047808566092
 20
28.42967107794607
 30
0.0
 11
59.9783932905375
 21
29.35758628282264
 31
0.0
  0
LINE
  5
29AB
330
28AC
100
AcDbEntity
  8
0
 62
     0
100
AcDbLine
 10
44.00664864366853
 20
13.38584163595368
 30
0.0
 11
46.67839329053744
 21
16.05758628282257
 31
0.0
  0
LINE
  5
29AC
330
28AC
100
AcDbEntity
  8
0
 62
     0
100
AcDbLine
 10
47.83060751053364
 20
18.10782611492567
 30
0.0
 11
49.93716035284013
 21
20.21437895723216
 31
0.0
  0
LINE
  5
29AD
330
28AC
100
AcDbEntity
  8
0
 62
     0
100
AcDbLine
 10
52.75047808566093
 20
23.02769669005295
 30
0.0
 11
55.55047808566094
 21
25.82769669005302
 31
0.0
  0
LINE
  5
29AE
330
28AC
100
AcDbEntity
  8
0
 62
     0
100
AcDbLine
 10
43.82547808566096
 20
14.10269669005299
 30
0.0
 11
45.78036767843047
 21
16.05758628282257
 31
0.0
  0
LINE
  5
29AF
330
28AC
100
AcDbEntity
  8
0
 62
     0
100
AcDbLine
 10
47.55622267339474
 20
18.73146688989379
 30
0.0
 11
49.54128923491231
 21
20.71653345141135
 31
0.0
  0
LINE
  5
29B0
330
28AC
100
AcDbEntity
  8
0
 62
     0
100
AcDbLine
 10
52.75047808566085
 20
23.9257223021599
 30
0.0
 11
55.55047808566094
 21
26.72572230215997
 31
0.0
  0
LINE
  5
29B1
330
28AC
100
AcDbEntity
  8
0
 62
     0
100
AcDbLine
 10
43.8254780856609
 20
15.00072230215994
 30
0.0
 11
44.88234206632357
 21
16.05758628282262
 31
0.0
  0
LINE
  5
29B2
330
28AC
100
AcDbEntity
  8
0
 62
     0
100
AcDbLine
 10
52.75047808566093
 20
24.82374791426679
 30
0.0
 11
55.55047808566097
 21
27.6237479142668
 31
0.0
  0
LINE
  5
29B3
330
28AC
100
AcDbEntity
  8
0
 62
     0
100
AcDbLine
 10
47.11494777627769
 20
19.1882176048835
 30
0.0
 11
49.09484676360006
 21
21.16811659220593
 31
0.0
  0
LINE
  5
29B4
330
28AC
100
AcDbEntity
  8
0
 62
     0
100
AcDbLine
 10
46.66593497022421
 20
19.63723041093698
 30
0.0
 11
48.64583395754658
 21
21.61712939825941
 31
0.0
  0
LINE
  5
29B5
330
28AC
100
AcDbEntity
  8
0
 62
     0
100
AcDbLine
 10
52.75047808566085
 20
25.72177352637368
 30
0.0
 11
55.55047808566094
 21
28.52177352637375
 31
0.0
  0
LINE
  5
29B6
330
28AC
100
AcDbEntity
  8
0
 62
     0
100
AcDbLine
 10
40.28629084210972
 20
13.25758628282256
 30
0.0
 11
41.2004780856609
 21
14.17177352637367
 31
0.0
  0
LINE
  5
29B7
330
28AC
100
AcDbEntity
  8
0
 62
     0
100
AcDbLine
 10
46.21692216417073
 20
20.08624321699045
 30
0.0
 11
48.19682115149311
 21
22.06614220431288
 31
0.0
  0
LINE
  5
29B8
330
28AC
100
AcDbEntity
  8
0
 62
     0
100
AcDbLine
 10
52.75047808566085
 20
26.61979913848063
 30
0.0
 11
55.36429717756226
 21
29.23361823038198
 31
0.0
  0
LINE
  5
29B9
330
28AC
100
AcDbEntity
  8
0
 62
     0
100
AcDbLine
 10
39.38826523000279
 20
13.25758628282256
 30
0.0
 11
41.20047808566096
 21
15.06979913848067
 31
0.0
  0
LINE
  5
29BA
330
28AC
100
AcDbEntity
  8
0
 62
     0
100
AcDbLine
 10
45.76790935811725
 20
20.53525602304393
 30
0.0
 11
47.74780834543963
 21
22.51515501036636
 31
0.0
  0
LINE
  5
29BB
330
28AC
100
AcDbEntity
  8
0
 62
     0
100
AcDbLine
 10
52.75047808566085
 20
27.51782475058752
 30
0.0
 11
54.59023961789597
 21
29.3575862828227
 31
0.0
  0
LINE
  5
29BC
330
28AC
100
AcDbEntity
  8
0
 62
     0
100
AcDbLine
 10
38.60185075575789
 20
13.36919742068453
 30
0.0
 11
41.2004780856609
 21
15.96782475058762
 31
0.0
  0
LINE
  5
29BD
330
28AC
100
AcDbEntity
  8
0
 62
     0
100
AcDbLine
 10
45.31889655206384
 20
20.98426882909735
 30
0.0
 11
47.29879553938621
 21
22.96416781641978
 31
0.0
  0
LINE
  5
29BE
330
28AC
100
AcDbEntity
  8
0
 62
     0
100
AcDbLine
 10
52.75047808566085
 20
28.41585036269441
 30
0.0
 11
53.69221400578914
 21
29.35758628282264
 31
0.0
  0
LINE
  5
29BF
330
28AC
100
AcDbEntity
  8
0
 62
     0
100
AcDbLine
 10
38.40047808566095
 20
14.0658503626945
 30
0.0
 11
41.20047808566096
 21
16.86585036269446
 31
0.0
  0
LINE
  5
29C0
330
28AC
100
AcDbEntity
  8
0
 62
     0
100
AcDbLine
 10
44.86988374601037
 20
21.43328163515082
 30
0.0
 11
46.84978273333274
 21
23.41318062247325
 31
0.0
  0
LINE
  5
29C1
330
28AC
100
AcDbEntity
  8
0
 62
     0
100
AcDbLine
 10
38.40047808566095
 20
14.96387597480145
 30
0.0
 11
41.2004780856609
 21
17.76387597480141
 31
0.0
  0
LINE
  5
29C2
330
28AC
100
AcDbEntity
  8
0
 62
     0
100
AcDbLine
 10
44.42289984496905
 20
21.88432334621649
 30
0.0
 11
46.40687337835106
 21
23.86829687959846
 31
0.0
  0
LINE
  5
29C3
330
28AC
100
AcDbEntity
  8
0
 62
     0
100
AcDbLine
 10
38.40047808566095
 20
15.86190158690834
 30
0.0
 11
41.2004780856609
 21
18.66190158690836
 31
0.0
  0
LINE
  5
29C4
330
28AC
100
AcDbEntity
  8
0
 62
     0
100
AcDbLine
 10
49.09616278157511
 20
26.55758628282257
 30
0.0
 11
50.12547808566097
 21
27.58690158690837
 31
0.0
  0
LINE
  5
29C5
330
28AC
100
AcDbEntity
  8
0
 62
     0
100
AcDbLine
 10
35.90782186095072
 20
13.36924536219811
 30
0.0
 11
35.99747422240574
 21
13.45889772365319
 31
0.0
  0
LINE
  5
29C6
330
28AC
100
AcDbEntity
  8
0
 62
     0
100
AcDbLine
 10
44.02489766614706
 20
22.38434677950136
 30
0.0
 11
46.12453194356567
 21
24.48398105691997
 31
0.0
  0
LINE
  5
29C7
330
28AC
100
AcDbEntity
  8
0
 62
     0
100
AcDbLine
 10
38.40047808566095
 20
16.75992719901524
 30
0.0
 11
41.20047808566096
 21
19.55992719901519
 31
0.0
  0
LINE
  5
29C8
330
28AC
100
AcDbEntity
  8
0
 62
     0
100
AcDbLine
 10
48.19813716946835
 20
26.55758628282263
 30
0.0
 11
50.12547808566097
 21
28.48492719901526
 31
0.0
  0
LINE
  5
29C9
330
28AC
100
AcDbEntity
  8
0
 62
     0
100
AcDbLine
 10
34.89813716946827
 20
13.25758628282256
 30
0.0
 11
35.9639162657748
 21
14.32336537912908
 31
0.0
  0
LINE
  5
29CA
330
28AC
100
AcDbEntity
  8
0
 62
     0
100
AcDbLine
 10
43.69906340175036
 20
22.95653812721162
 30
0.0
 11
46.10047808566105
 21
25.35795281112229
 31
0.0
  0
LINE
  5
29CB
330
28AC
100
AcDbEntity
  8
0
 62
     0
100
AcDbLine
 10
38.40047808566095
 20
17.65795281112213
 30
0.0
 11
41.2004780856609
 21
20.45795281112214
 31
0.0
  0
LINE
  5
29CC
330
28AC
100
AcDbEntity
  8
0
 62
     0
100
AcDbLine
 10
47.30011155736132
 20
26.55758628282257
 30
0.0
 11
49.95880915386305
 21
29.21628387932429
 31
0.0
  0
LINE
  5
29CD
330
28AC
100
AcDbEntity
  8
0
 62
     0
100
AcDbLine
 10
34.00011155736127
 20
13.2575862828225
 30
0.0
 11
35.74839011886911
 21
15.00586484433035
 31
0.0
  0
LINE
  5
29CE
330
28AC
100
AcDbEntity
  8
0
 62
     0
100
AcDbLine
 10
38.40047808566089
 20
18.55597842322907
 30
0.0
 11
41.2004780856609
 21
21.35597842322903
 31
0.0
  0
LINE
  5
29CF
330
28AC
100
AcDbEntity
  8
0
 62
     0
100
AcDbLine
 10
43.45568133908027
 20
23.61118167664847
 30
0.0
 11
49.20208594525445
 21
29.35758628282264
 31
0.0
  0
LINE
  5
29D0
330
28AC
100
AcDbEntity
  8
0
 62
     0
100
AcDbLine
 10
33.40809724670629
 20
13.56359758427447
 30
0.0
 11
35.53286397196342
 21
15.68836430953161
 31
0.0
  0
LINE
  5
29D1
330
28AC
100
AcDbEntity
  8
0
 62
     0
100
AcDbLine
 10
38.40047808566089
 20
19.45400403533603
 30
0.0
 11
41.20047808566083
 21
22.25400403533598
 31
0.0
  0
LINE
  5
29D2
330
28AC
100
AcDbEntity
  8
0
 62
     0
100
AcDbLine
 10
43.31697447999458
 20
24.37050042966973
 30
0.0
 11
48.30406033314756
 21
29.35758628282264
 31
0.0
  0
LINE
  5
29D3
330
28AC
100
AcDbEntity
  8
0
 62
     0
100
AcDbLine
 10
33.18933782505769
 20
14.24286377473282
 30
0.0
 11
35.31733782505773
 21
16.37086377473287
 31
0.0
  0
LINE
  5
29D4
330
28AC
100
AcDbEntity
  8
0
 62
     0
100
AcDbLine
 10
38.40047808566095
 20
20.35202964744286
 30
0.0
 11
41.2004780856609
 21
23.15202964744287
 31
0.0
  0
LINE
  5
29D5
330
28AC
100
AcDbEntity
  8
0
 62
     0
100
AcDbLine
 10
43.30047808566092
 20
25.25202964744285
 30
0.0
 11
47.40603472104067
 21
29.35758628282264
 31
0.0
  0
LINE
  5
29D6
330
28AC
100
AcDbEntity
  8
0
 62
     0
100
AcDbLine
 10
32.97381167815206
 20
14.92536323993403
 30
0.0
 11
35.10181167815216
 21
17.05336323993407
 31
0.0
  0
LINE
  5
29D7
330
28AC
100
AcDbEntity
  8
0
 62
     0
100
AcDbLine
 10
38.40047808566089
 20
21.25005525954981
 30
0.0
 11
41.2004780856609
 21
24.05005525954976
 31
0.0
  0
LINE
  5
29D8
330
28AC
100
AcDbEntity
  8
0
 62
     0
100
AcDbLine
 10
43.30047808566097
 20
26.15005525954984
 30
0.0
 11
46.50800910893376
 21
29.35758628282264
 31
0.0
  0
LINE
  5
29D9
330
28AC
100
AcDbEntity
  8
0
 62
     0
100
AcDbLine
 10
32.75828553124632
 20
15.60786270513523
 30
0.0
 11
34.88628553124654
 21
17.73586270513544
 31
0.0
  0
LINE
  5
29DA
330
28AC
100
AcDbEntity
  8
0
 62
     0
100
AcDbLine
 10
38.40047808566089
 20
22.1480808716567
 30
0.0
 11
41.20047808566096
 21
24.94808087165677
 31
0.0
  0
LINE
  5
29DB
330
28AC
100
AcDbEntity
  8
0
 62
     0
100
AcDbLine
 10
32.54275938434068
 20
16.29036217033655
 30
0.0
 11
34.67075938434078
 21
18.41836217033659
 31
0.0
  0
LINE
  5
29DC
330
28AC
100
AcDbEntity
  8
0
 62
     0
100
AcDbLine
 10
43.35379475578213
 20
27.101397541778
 30
0.0
 11
45.55666682670545
 21
29.30426961270132
 31
0.0
  0
LINE
  5
29DD
330
28AC
100
AcDbEntity
  8
0
 62
     0
100
AcDbLine
 10
29.50998349682669
 20
13.25758628282256
 30
0.0
 11
30.35047808566088
 21
14.09808087165675
 31
0.0
  0
LINE
  5
29DE
330
28AC
100
AcDbEntity
  8
0
 62
     0
100
AcDbLine
 10
32.32723323743511
 20
16.97286163553775
 30
0.0
 11
34.45523323743515
 21
19.10086163553785
 31
0.0
  0
LINE
  5
29DF
330
28AC
100
AcDbEntity
  8
0
 62
     0
100
AcDbLine
 10
38.40047808566089
 20
23.04610648376359
 30
0.0
 11
41.20047808566096
 21
25.84610648376366
 31
0.0
  0
LINE
  5
29E0
330
28AC
100
AcDbEntity
  8
0
 62
     0
100
AcDbLine
 10
28.61195788471986
 20
13.2575862828225
 30
0.0
 11
30.35047808566094
 21
14.99610648376364
 31
0.0
  0
LINE
  5
29E1
330
28AC
100
AcDbEntity
  8
0
 62
     0
100
AcDbLine
 10
32.11170709052942
 20
17.65536110073901
 30
0.0
 11
34.23970709052947
 21
19.78336110073911
 31
0.0
  0
LINE
  5
29E2
330
28AC
100
AcDbEntity
  8
0
 62
     0
100
AcDbLine
 10
38.40047808566089
 20
23.94413209587054
 30
0.0
 11
41.20047808566096
 21
26.74413209587056
 31
0.0
  0
LINE
  5
29E3
330
28AC
100
AcDbEntity
  8
0
 62
     0
100
AcDbLine
 10
27.7950820202642
 20
13.33873603047385
 30
0.0
 11
30.35047808566094
 21
15.89413209587053
 31
0.0
  0
LINE
  5
29E4
330
28AC
100
AcDbEntity
  8
0
 62
     0
100
AcDbLine
 10
31.89618094362373
 20
18.33786056594027
 30
0.0
 11
34.02418094362378
 21
20.46586056594037
 31
0.0
  0
LINE
  5
29E5
330
28AC
100
AcDbEntity
  8
0
 62
     0
100
AcDbLine
 10
38.40047808566089
 20
24.84215770797745
 30
0.0
 11
41.2004780856609
 21
27.64215770797751
 31
0.0
  0
LINE
  5
29E6
330
28AC
100
AcDbEntity
  8
0
 62
     0
100
AcDbLine
 10
27.55047808566093
 20
13.99215770797747
 30
0.0
 11
30.350478085661
 21
16.79215770797753
 31
0.0
  0
LINE
  5
29E7
330
28AC
100
AcDbEntity
  8
0
 62
     0
100
AcDbLine
 10
31.6806547967181
 20
19.02036003114148
 30
0.0
 11
33.80865479671827
 21
21.14836003114163
 31
0.0
  0
LINE
  5
29E8
330
28AC
100
AcDbEntity
  8
0
 62
     0
100
AcDbLine
 10
38.40047808566089
 20
25.74018332008433
 30
0.0
 11
41.20047808566096
 21
28.5401833200844
 31
0.0
  0
LINE
  5
29E9
330
28AC
100
AcDbEntity
  8
0
 62
     0
100
AcDbLine
 10
27.55047808566093
 20
14.89018332008436
 30
0.0
 11
30.350478085661
 21
17.69018332008443
 31
0.0
  0
LINE
  5
29EA
330
28AC
100
AcDbEntity
  8
0
 62
     0
100
AcDbLine
 10
31.44585600974636
 20
19.68358685627675
 30
0.0
 11
34.07615007767737
 21
22.3138809242077
 31
0.0
  0
LINE
  5
29EB
330
28AC
100
AcDbEntity
  8
0
 62
     0
100
AcDbLine
 10
38.40047808566095
 20
26.63820893219134
 30
0.0
 11
41.00420266316251
 21
29.24193350969284
 31
0.0
  0
LINE
  5
29EC
330
28AC
100
AcDbEntity
  8
0
 62
     0
100
AcDbLine
 10
27.55047808566093
 20
15.78820893219131
 30
0.0
 11
30.350478085661
 21
18.58820893219132
 31
0.0
  0
LINE
  5
29ED
330
28AC
100
AcDbEntity
  8
0
 62
     0
100
AcDbLine
 10
30.75867063987897
 20
19.8944270985163
 30
0.0
 11
34.49062343711125
 21
23.62637989574858
 31
0.0
  0
LINE
  5
29EE
330
28AC
100
AcDbEntity
  8
0
 62
     0
100
AcDbLine
 10
27.55047808566093
 20
16.6862345442982
 30
0.0
 11
30.36363726996723
 21
19.4993937286045
 31
0.0
  0
LINE
  5
29EF
330
28AC
100
AcDbEntity
  8
0
 62
     0
100
AcDbLine
 10
38.40047808566095
 20
27.53623454429823
 30
0.0
 11
40.22182982418529
 21
29.35758628282264
 31
0.0
  0
LINE
  5
29F0
330
28AC
100
AcDbEntity
  8
0
 62
     0
100
AcDbLine
 10
24.12182982418528
 20
13.25758628282256
 30
0.0
 11
25.10047808566094
 21
14.23623454429827
 31
0.0
  0
LINE
  5
29F1
330
28AC
100
AcDbEntity
  8
0
 62
     0
100
AcDbLine
 10
27.55047808566088
 20
17.58426015640515
 30
0.0
 11
34.9050967965452
 21
24.93887886728948
 31
0.0
  0
LINE
  5
29F2
330
28AC
100
AcDbEntity
  8
0
 62
     0
100
AcDbLine
 10
38.40047808566089
 20
28.43426015640517
 30
0.0
 11
39.3238042120783
 21
29.35758628282258
 31
0.0
  0
LINE
  5
29F3
330
28AC
100
AcDbEntity
  8
0
 62
     0
100
AcDbLine
 10
23.22380421207833
 20
13.25758628282261
 30
0.0
 11
25.10047808566099
 21
15.13426015640527
 31
0.0
  0
LINE
  5
29F4
330
28AC
100
AcDbEntity
  8
0
 62
     0
100
AcDbLine
 10
27.55047808566093
 20
18.48228576851198
 30
0.0
 11
35.31957015597932
 21
26.25137783883042
 31
0.0
  0
LINE
  5
29F5
330
28AC
100
AcDbEntity
  8
0
 62
     0
100
AcDbLine
 10
22.33745922432155
 20
13.26926690717266
 30
0.0
 11
24.95914380205477
 21
15.89095148490583
 31
0.0
  0
LINE
  5
29F6
330
28AC
100
AcDbEntity
  8
0
 62
     0
100
AcDbLine
 10
27.55047808566088
 20
19.38031138061893
 30
0.0
 11
30.87775298786454
 21
22.7075862828226
 31
0.0
  0
LINE
  5
29F7
330
28AC
100
AcDbEntity
  8
0
 62
     0
100
AcDbLine
 10
31.64173582310542
 20
23.47156911806349
 30
0.0
 11
35.73404351541325
 21
27.56387681037131
 31
0.0
  0
LINE
  5
29F8
330
28AC
100
AcDbEntity
  8
0
 62
     0
100
AcDbLine
 10
21.56929870687458
 20
13.39913200183258
 30
0.0
 11
24.22775298786451
 21
16.05758628282257
 31
0.0
  0
LINE
  5
29F9
330
28AC
100
AcDbEntity
  8
0
 62
     0
100
AcDbLine
 10
27.55047808566088
 20
20.27833699272588
 30
0.0
 11
30.3684686563692
 21
23.09632756343416
 31
0.0
  0
LINE
  5
29FA
330
28AC
100
AcDbEntity
  8
0
 62
     0
100
AcDbLine
 10
32.05620918253937
 20
24.78406808960432
 30
0.0
 11
36.10911496721457
 21
28.83697387427958
 31
0.0
  0
LINE
  5
29FB
330
28AC
100
AcDbEntity
  8
0
 62
     0
100
AcDbLine
 10
20.90816445004816
 20
13.63602335711317
 30
0.0
 11
23.32972737575762
 21
16.05758628282257
 31
0.0
  0
LINE
  5
29FC
330
28AC
100
AcDbEntity
  8
0
 62
     0
100
AcDbLine
 10
27.55047808566093
 20
21.17636260483272
 30
0.0
 11
30.35047808566094
 21
23.97636260483279
 31
0.0
  0
LINE
  5
29FD
330
28AC
100
AcDbEntity
  8
0
 62
     0
100
AcDbLine
 10
32.4706825419733
 20
26.09656706114515
 30
0.0
 11
35.71510309464537
 21
29.34098761381722
 31
0.0
  0
LINE
  5
29FE
330
28AC
100
AcDbEntity
  8
0
 62
     0
100
AcDbLine
 10
20.33056116588387
 20
13.95644568505565
 30
0.0
 11
22.44662302437672
 21
16.07250754354857
 31
0.0
  0
LINE
  5
29FF
330
28AC
100
AcDbEntity
  8
0
 62
     0
100
AcDbLine
 10
27.55047808566088
 20
22.07438821693967
 30
0.0
 11
30.35047808566094
 21
24.87438821693974
 31
0.0
  0
LINE
  5
2A00
330
28AC
100
AcDbEntity
  8
0
 62
     0
100
AcDbLine
 10
32.88515590140725
 20
27.40906603268598
 30
0.0
 11
34.83367615154378
 21
29.35758628282258
 31
0.0
  0
LINE
  5
2A01
330
28AC
100
AcDbEntity
  8
0
 62
     0
100
AcDbLine
 10
19.8256061995018
 20
14.34951633078054
 30
0.0
 11
21.81230688335842
 21
16.33621701463716
 31
0.0
  0
LINE
  5
2A02
330
28AC
100
AcDbEntity
  8
0
 62
     0
100
AcDbLine
 10
27.55047808566088
 20
22.97241382904656
 30
0.0
 11
30.35047808566094
 21
25.77241382904663
 31
0.0
  0
LINE
  5
2A03
330
28AC
100
AcDbEntity
  8
0
 62
     0
100
AcDbLine
 10
24.21211221743738
 20
19.63404796082312
 30
0.0
 11
25.37401640766046
 21
20.79595215104621
 31
0.0
  0
LINE
  5
2A04
330
28AC
100
AcDbEntity
  8
0
 62
     0
100
AcDbLine
 10
33.29962926084113
 20
28.72156500422688
 30
0.0
 11
33.93565053943684
 21
29.35758628282258
 31
0.0
  0
LINE
  5
2A05
330
28AC
100
AcDbEntity
  8
0
 62
     0
100
AcDbLine
 10
19.38916912617196
 20
14.81110486955771
 30
0.0
 11
21.40205593208623
 21
16.82399167547197
 31
0.0
  0
LINE
  5
2A06
330
28AC
100
AcDbEntity
  8
0
 62
     0
100
AcDbLine
 10
23.28713937580756
 20
19.60710073130025
 30
0.0
 11
25.40096363718334
 21
21.72092499267598
 31
0.0
  0
LINE
  5
2A07
330
28AC
100
AcDbEntity
  8
0
 62
     0
100
AcDbLine
 10
27.55047808566093
 20
23.87043944115356
 30
0.0
 11
30.350478085661
 21
26.67043944115363
 31
0.0
  0
LINE
  5
2A08
330
28AC
100
AcDbEntity
  8
0
 62
     0
100
AcDbLine
 10
19.022149901229
 20
15.34211125672164
 30
0.0
 11
21.25047808566092
 21
17.57043944115361
 31
0.0
  0
LINE
  5
2A09
330
28AC
100
AcDbEntity
  8
0
 62
     0
100
AcDbLine
 10
22.67299280638736
 20
19.89097977398683
 30
0.0
 11
25.1170845944967
 21
22.33507156209623
 31
0.0
  0
LINE
  5
2A0A
330
28AC
100
AcDbEntity
  8
0
 62
     0
100
AcDbLine
 10
27.55047808566093
 20
24.76846505326046
 30
0.0
 11
30.350478085661
 21
27.56846505326052
 31
0.0
  0
LINE
  5
2A0B
330
28AC
100
AcDbEntity
  8
0
 62
     0
100
AcDbLine
 10
18.73083239130426
 20
15.94881935890379
 30
0.0
 11
21.25047808566092
 21
18.46846505326044
 31
0.0
  0
LINE
  5
2A0C
330
28AC
100
AcDbEntity
  8
0
 62
     0
100
AcDbLine
 10
22.23503287939764
 20
20.35104545910412
 30
0.0
 11
24.65701890937948
 21
22.7730314890859
 31
0.0
  0
LINE
  5
2A0D
330
28AC
100
AcDbEntity
  8
0
 62
     0
100
AcDbLine
 10
27.55047808566093
 20
25.6664906653674
 30
0.0
 11
30.350478085661
 21
28.46649066536743
 31
0.0
  0
LINE
  5
2A0E
330
28AC
100
AcDbEntity
  8
0
 62
     0
100
AcDbLine
 10
18.5296950271296
 20
16.64570760683608
 30
0.0
 11
21.25047808566092
 21
19.36649066536739
 31
0.0
  0
LINE
  5
2A0F
330
28AC
100
AcDbEntity
  8
0
 62
     0
100
AcDbLine
 10
21.97898214698927
 20
20.99302033880264
 30
0.0
 11
24.0150440296809
 21
23.02908222149432
 31
0.0
  0
LINE
  5
2A10
330
28AC
100
AcDbEntity
  8
0
 62
     0
100
AcDbLine
 10
18.45047808566085
 20
17.46451627747427
 30
0.0
 11
21.25047808566092
 21
20.26451627747428
 31
0.0
  0
LINE
  5
2A11
330
28AC
100
AcDbEntity
  8
0
 62
     0
100
AcDbLine
 10
27.55047808566093
 20
26.5645162774743
 30
0.0
 11
30.19322797730581
 21
29.20726616911924
 31
0.0
  0
LINE
  5
2A12
330
28AC
100
AcDbEntity
  8
0
 62
     0
100
AcDbLine
 10
14.36448132778525
 20
13.37851951959868
 30
0.0
 11
16.22954484888498
 21
15.24358304069841
 31
0.0
  0
LINE
  5
2A13
330
28AC
100
AcDbEntity
  8
0
 62
     0
100
AcDbLine
 10
22.09739523047006
 20
22.00945903439032
 30
0.0
 11
22.99860533409327
 21
22.91066913801353
 31
0.0
  0
LINE
  5
2A14
330
28AC
100
AcDbEntity
  8
0
 62
     0
100
AcDbLine
 10
18.45047808566085
 20
18.36254188958111
 30
0.0
 11
21.25047808566092
 21
21.16254188958118
 31
0.0
  0
LINE
  5
2A15
330
28AC
100
AcDbEntity
  8
0
 62
     0
100
AcDbLine
 10
27.55047808566093
 20
27.46254188958119
 30
0.0
 11
29.44552247890232
 21
29.35758628282258
 31
0.0
  0
LINE
  5
2A16
330
28AC
100
AcDbEntity
  8
0
 62
     0
100
AcDbLine
 10
13.34552247890229
 20
13.25758628282256
 30
0.0
 11
16.35047808566105
 21
16.26254188958126
 31
0.0
  0
LINE
  5
2A17
330
28AC
100
AcDbEntity
  8
0
 62
     0
100
AcDbLine
 10
18.45047808566085
 20
19.26056750168806
 30
0.0
 11
21.25047808566092
 21
22.06056750168813
 31
0.0
  0
LINE
  5
2A18
330
28AC
100
AcDbEntity
  8
0
 62
     0
100
AcDbLine
 10
27.55047808566093
 20
28.36056750168808
 30
0.0
 11
28.54749686679543
 21
29.35758628282264
 31
0.0
  0
LINE
  5
2A19
330
28AC
100
AcDbEntity
  8
0
 62
     0
100
AcDbLine
 10
12.44749686679529
 20
13.2575862828225
 30
0.0
 11
16.35047808566099
 21
17.1605675016882
 31
0.0
  0
LINE
  5
2A1A
330
28AC
100
AcDbEntity
  8
0
 62
     0
100
AcDbLine
 10
18.45047808566085
 20
20.15859311379495
 30
0.0
 11
21.25047808566086
 21
22.95859311379502
 31
0.0
  0
LINE
  5
2A1B
330
28AC
100
AcDbEntity
  8
0
 62
     0
100
AcDbLine
 10
11.54947125468845
 20
13.25758628282261
 30
0.0
 11
16.34653873309975
 21
18.05465376123391
 31
0.0
  0
LINE
  5
2A1C
330
28AC
100
AcDbEntity
  8
0
 62
     0
100
AcDbLine
 10
18.45047808566085
 20
21.0566187259019
 30
0.0
 11
21.25047808566092
 21
23.85661872590197
 31
0.0
  0
LINE
  5
2A1D
330
28AC
100
AcDbEntity
  8
0
 62
     0
100
AcDbLine
 10
23.95144564258163
 20
26.55758628282268
 30
0.0
 11
25.10047808566105
 21
27.7066187259021
 31
0.0
  0
LINE
  5
2A1E
330
28AC
100
AcDbEntity
  8
0
 62
     0
100
AcDbLine
 10
10.6514456425815
 20
13.25758628282256
 30
0.0
 11
16.23687689677842
 21
18.84301753701947
 31
0.0
  0
LINE
  5
2A1F
330
28AC
100
AcDbEntity
  8
0
 62
     0
100
AcDbLine
 10
18.45047808566085
 20
21.95464433800879
 30
0.0
 11
21.25047808566092
 21
24.7546443380088
 31
0.0
  0
LINE
  5
2A20
330
28AC
100
AcDbEntity
  8
0
 62
     0
100
AcDbLine
 10
13.55047808566093
 20
17.05464433800887
 30
0.0
 11
16.0145381527343
 21
19.51870440508225
 31
0.0
  0
LINE
  5
2A21
330
28AC
100
AcDbEntity
  8
0
 62
     0
100
AcDbLine
 10
23.05342003047463
 20
26.55758628282257
 30
0.0
 11
25.10047808566105
 21
28.60464433800894
 31
0.0
  0
LINE
  5
2A22
330
28AC
100
AcDbEntity
  8
0
 62
     0
100
AcDbLine
 10
9.811145905734575
 20
13.31531215808252
 30
0.0
 11
12.55342003047462
 21
16.05758628282257
 31
0.0
  0
LINE
  5
2A23
330
28AC
100
AcDbEntity
  8
0
 62
     0
100
AcDbLine
 10
18.45047808566079
 20
22.85266995011568
 30
0.0
 11
21.41629279144058
 21
25.81848465589548
 31
0.0
  0
LINE
  5
2A24
330
28AC
100
AcDbEntity
  8
0
 62
     0
100
AcDbLine
 10
13.54831899405167
 20
17.9505108585065
 30
0.0
 11
15.70610661806228
 21
20.10829848251717
 31
0.0
  0
LINE
  5
2A25
330
28AC
100
AcDbEntity
  8
0
 62
     0
100
AcDbLine
 10
21.98957971258812
 20
26.39177157704302
 30
0.0
 11
24.86701067074114
 21
29.26920253519597
 31
0.0
  0
LINE
  5
2A26
330
28AC
100
AcDbEntity
  8
0
 62
     0
100
AcDbLine
 10
9.525478085660948
 20
13.92766995011578
 30
0.0
 11
11.65539441836773
 21
16.05758628282257
 31
0.0
  0
LINE
  5
2A27
330
28AC
100
AcDbEntity
  8
0
 62
     0
100
AcDbLine
 10
13.32871597455096
 20
18.6289334511128
 30
0.0
 11
15.32386465322338
 21
20.62408212978522
 31
0.0
  0
LINE
  5
2A28
330
28AC
100
AcDbEntity
  8
0
 62
     0
100
AcDbLine
 10
18.45047808566079
 20
23.75069556222263
 30
0.0
 11
24.05736880626085
 21
29.3575862828227
 31
0.0
  0
LINE
  5
2A29
330
28AC
100
AcDbEntity
  8
0
 62
     0
100
AcDbLine
 10
9.525478085660893
 20
14.82569556222273
 30
0.0
 11
10.75736880626078
 21
16.05758628282262
 31
0.0
  0
LINE
  5
2A2A
330
28AC
100
AcDbEntity
  8
0
 62
     0
100
AcDbLine
 10
12.90246114624625
 20
19.10070423491493
 30
0.0
 11
14.88236013356862
 21
21.0806032222373
 31
0.0
  0
LINE
  5
2A2B
330
28AC
100
AcDbEntity
  8
0
 62
     0
100
AcDbLine
 10
18.45047808566085
 20
24.64872117432947
 30
0.0
 11
23.15934319415379
 21
29.35758628282247
 31
0.0
  0
LINE
  5
2A2C
330
28AC
100
AcDbEntity
  8
0
 62
     0
100
AcDbLine
 10
9.594430007680673
 20
15.79267309634935
 30
0.0
 11
9.790391272134288
 21
15.98863436080296
 31
0.0
  0
LINE
  5
2A2D
330
28AC
100
AcDbEntity
  8
0
 62
     0
100
AcDbLine
 10
18.47045319981743
 20
25.566721900593
 30
0.0
 11
22.24134246789043
 21
29.33761116866606
 31
0.0
  0
LINE
  5
2A2E
330
28AC
100
AcDbEntity
  8
0
 62
     0
100
AcDbLine
 10
12.45344834019278
 20
19.5497170409684
 30
0.0
 11
14.43334732751515
 21
21.52961602829078
 31
0.0
  0
LINE
  5
2A2F
330
28AC
100
AcDbEntity
  8
0
 62
     0
100
AcDbLine
 10
18.76991663208321
 20
26.76421094496578
 30
0.0
 11
21.0438534235177
 21
29.03814773640028
 31
0.0
  0
LINE
  5
2A30
330
28AC
100
AcDbEntity
  8
0
 62
     0
100
AcDbLine
 10
12.0044355341393
 20
19.99872984702188
 30
0.0
 11
13.98433452146167
 21
21.97862883434425
 31
0.0
  0
LINE
  5
2A31
330
28AC
100
AcDbEntity
  8
0
 62
     0
100
AcDbLine
 10
11.55542272808588
 20
20.4477426530753
 30
0.0
 11
13.5353217154082
 21
22.42764164039755
 31
0.0
  0
LINE
  5
2A32
330
28AC
100
AcDbEntity
  8
0
 62
     0
100
AcDbLine
 10
11.10640992203241
 20
20.89675545912877
 30
0.0
 11
13.08630890935473
 21
22.87665444645103
 31
0.0
  0
LINE
  5
2A33
330
28AC
100
AcDbEntity
  8
0
 62
     0
100
AcDbLine
 10
10.65739711597894
 20
21.34576826518225
 30
0.0
 11
12.63729610330125
 21
23.3256672525045
 31
0.0
  0
LINE
  5
2A34
330
28AC
100
AcDbEntity
  8
0
 62
     0
100
AcDbLine
 10
14.97118952151237
 20
26.55758628282257
 30
0.0
 11
15.82547808566085
 21
27.4118748469711
 31
0.0
  0
LINE
  5
2A35
330
28AC
100
AcDbEntity
  8
0
 62
     0
100
AcDbLine
 10
10.20846762395359
 20
21.79486438526385
 30
0.0
 11
12.18853326738605
 21
23.77493002869631
 31
0.0
  0
LINE
  5
2A36
330
28AC
100
AcDbEntity
  8
0
 62
     0
100
AcDbLine
 10
14.07316390940548
 20
26.55758628282257
 30
0.0
 11
15.8254780856609
 21
28.309900459078
 31
0.0
  0
LINE
  5
2A37
330
28AC
100
AcDbEntity
  8
0
 62
     0
100
AcDbLine
 10
9.796999699402023
 20
22.28142207281905
 30
0.0
 11
11.85863638609811
 21
24.3430587595152
 31
0.0
  0
LINE
  5
2A38
330
28AC
100
AcDbEntity
  8
0
 62
     0
100
AcDbLine
 10
13.17513829729853
 20
26.55758628282257
 30
0.0
 11
15.73891918589976
 21
29.1213671714238
 31
0.0
  0
LINE
  5
2A39
330
28AC
100
AcDbEntity
  8
0
 62
     0
100
AcDbLine
 10
9.456539093139554
 20
22.83898707866354
 30
0.0
 11
11.80047808566098
 21
25.18292607118497
 31
0.0
  0
LINE
  5
2A3A
330
28AC
100
AcDbEntity
  8
0
 62
     0
100
AcDbLine
 10
12.27464603602152
 20
26.55511963365245
 30
0.0
 11
15.07711268519171
 21
29.35758628282264
 31
0.0
  0
LINE
  5
2A3B
330
28AC
100
AcDbEntity
  8
0
 62
     0
100
AcDbLine
 10
9.195845797407455
 20
23.47631939503839
 30
0.0
 11
11.80294473483104
 21
26.08341833246203
 31
0.0
  0
LINE
  5
2A3C
330
28AC
100
AcDbEntity
  8
0
 62
     0
100
AcDbLine
 10
9.034033835159393
 20
24.21253304489721
 30
0.0
 11
14.17908707308481
 21
29.35758628282264
 31
0.0
  0
LINE
  5
2A3D
330
28AC
100
AcDbEntity
  8
0
 62
     0
100
AcDbLine
 10
9.000478085660972
 20
25.07700290750574
 30
0.0
 11
13.28106146097781
 21
29.35758628282258
 31
0.0
  0
LINE
  5
2A3E
330
28AC
100
AcDbEntity
  8
0
 62
     0
100
AcDbLine
 10
9.000478085660972
 20
25.97502851961265
 30
0.0
 11
12.38303584887086
 21
29.35758628282258
 31
0.0
  0
LINE
  5
2A3F
330
28AC
100
AcDbEntity
  8
0
 62
     0
100
AcDbLine
 10
9.020670096099195
 20
26.89324614215781
 30
0.0
 11
11.4648182263258
 21
29.33739427238443
 31
0.0
  0
ENDBLK
  5
2A41
330
28AC
100
AcDbEntity
  8
0
100
AcDbBlockEnd
  0
BLOCK
  5
3028
330
3027
100
AcDbEntity
  8
0
100
AcDbBlockBegin
  2
*D2
 70
     1
 10
0.0
 20
0.0
 30
0.0
  3
*D2
  1

  0
LINE
  5
4211
330
3027
100
AcDbEntity
  8
SUNPOU
  6
Continuous
440
 16777216
100
AcDbLine
 10
300.3540701600576
 20
102.3570890585819
 30
0.0
 11
313.3103891205702
 21
102.3570890585819
 31
0.0
  0
LINE
  5
4212
330
3027
100
AcDbEntity
  8
SUNPOU
  6
Continuous
440
 16777216
100
AcDbLine
 10
301.3540701600576
 20
72.35708905858212
 30
0.0
 11
313.3103891205702
 21
72.35708905858212
 31
0.0
  0
LINE
  5
4213
330
3027
100
AcDbEntity
  8
SUNPOU
  6
Continuous
440
 16777216
100
AcDbLine
 10
311.8103891205702
 20
99.35708905858191
 30
0.0
 11
311.8103891205702
 21
75.35708905858212
 31
0.0
  0
INSERT
  5
4214
330
3027
100
AcDbEntity
  8
SUNPOU
  6
Continuous
440
 16777216
100
AcDbBlockReference
  2
_OPEN
 10
311.8103891205702
 20
102.3570890585819
 30
0.0
 41
3.0
 42
3.0
 43
3.0
 50
90.0
  0
INSERT
  5
4215
330
3027
100
AcDbEntity
  8
SUNPOU
  6
Continuous
440
 16777216
100
AcDbBlockReference
  2
_OPEN
 10
311.8103891205702
 20
72.35708905858212
 30
0.0
 41
3.0
 42
3.0
 43
3.0
 50
270.0
  0
MTEXT
  5
4216
330
3027
100
AcDbEntity
  8
SUNPOU
  6
Continuous
440
 16777216
100
AcDbMText
 10
309.3103891205702
 20
87.35708905858206
 30
0.0
 40
3.0
 41
0.0
 71
     5
 72
     1
  1
\A1;30
 11
0.0000000000000001
 21
1.0
 31
0.0
 73
     1
 44
1.0
  0
POINT
  5
4217
330
3027
100
AcDbEntity
  8
DEFPOINTS
  6
Continuous
 62
     0
440
 16777216
100
AcDbPoint
 10
297.3540701600576
 20
102.3570890585819
 30
0.0
  0
POINT
  5
4218
330
3027
100
AcDbEntity
  8
DEFPOINTS
  6
Continuous
 62
     0
440
 16777216
100
AcDbPoint
 10
298.3540701600576
 20
72.35708905858212
 30
0.0
  0
POINT
  5
4219
330
3027
100
AcDbEntity
  8
DEFPOINTS
  6
Continuous
 62
     0
440
 16777216
100
AcDbPoint
 10
311.8103891205702
 20
72.35708905858212
 30
0.0
  0
ENDBLK
  5
3029
330
3027
100
AcDbEntity
  8
0
100
AcDbBlockEnd
  0
BLOCK
  5
3034
330
3033
100
AcDbEntity
  8
0
100
AcDbBlockBegin
  2
*D3
 70
     1
 10
0.0
 20
0.0
 30
0.0
  3
*D3
  1

  0
LINE
  5
421A
330
3033
100
AcDbEntity
  8
SUNPOU
  6
Continuous
440
 16777216
100
AcDbLine
 10
249.3541528029784
 20
237.3570890585819
 30
0.0
 11
321.5937727206124
 21
237.3570890585819
 31
0.0
  0
LINE
  5
421B
330
3033
100
AcDbEntity
  8
SUNPOU
  6
Continuous
440
 16777216
100
AcDbLine
 10
301.3540701600576
 20
72.35708905858212
 30
0.0
 11
321.5937727206124
 21
72.35708905858212
 31
0.0
  0
LINE
  5
421C
330
3033
100
AcDbEntity
  8
SUNPOU
  6
Continuous
440
 16777216
100
AcDbLine
 10
320.0937727206124
 20
234.3570890585819
 30
0.0
 11
320.0937727206124
 21
75.35708905858212
 31
0.0
  0
INSERT
  5
421D
330
3033
100
AcDbEntity
  8
SUNPOU
  6
Continuous
440
 16777216
100
AcDbBlockReference
  2
_OPEN
 10
320.0937727206124
 20
237.3570890585819
 30
0.0
 41
3.0
 42
3.0
 43
3.0
 50
90.0
  0
INSERT
  5
421E
330
3033
100
AcDbEntity
  8
SUNPOU
  6
Continuous
440
 16777216
100
AcDbBlockReference
  2
_OPEN
 10
320.0937727206124
 20
72.35708905858212
 30
0.0
 41
3.0
 42
3.0
 43
3.0
 50
270.0
  0
MTEXT
  5
421F
330
3033
100
AcDbEntity
  8
SUNPOU
  6
Continuous
440
 16777216
100
AcDbMText
 10
317.5937727206124
 20
154.857089058582
 30
0.0
 40
3.0
 41
0.0
 71
     5
 72
     1
  1
\A1;165
 11
0.0000000000000001
 21
1.0
 31
0.0
 73
     1
 44
1.0
  0
POINT
  5
4220
330
3033
100
AcDbEntity
  8
DEFPOINTS
  6
Continuous
 62
     0
440
 16777216
100
AcDbPoint
 10
246.3541528029784
 20
237.3570890585819
 30
0.0
  0
POINT
  5
4221
330
3033
100
AcDbEntity
  8
DEFPOINTS
  6
Continuous
 62
     0
440
 16777216
100
AcDbPoint
 10
298.3540701600576
 20
72.35708905858212
 30
0.0
  0
POINT
  5
4222
330
3033
100
AcDbEntity
  8
DEFPOINTS
  6
Continuous
 62
     0
440
 16777216
100
AcDbPoint
 10
320.0937727206124
 20
72.35708905858212
 30
0.0
  0
ENDBLK
  5
3035
330
3033
100
AcDbEntity
  8
0
100
AcDbBlockEnd
  0
BLOCK
  5
3040
330
303F
100
AcDbEntity
  8
0
100
AcDbBlockBegin
  2
*D4
 70
     1
 10
0.0
 20
0.0
 30
0.0
  3
*D4
  1

  0
LINE
  5
4223
330
303F
100
AcDbEntity
  8
SUNPOU
  6
Continuous
440
 16777216
100
AcDbLine
 10
96.35407016005743
 20
69.35708905858212
 30
0.0
 11
96.35407016005743
 21
54.05927677875865
 31
0.0
  0
LINE
  5
4224
330
303F
100
AcDbEntity
  8
SUNPOU
  6
Continuous
440
 16777216
100
AcDbLine
 10
298.3540701600576
 20
69.35708905858212
 30
0.0
 11
298.3540701600576
 21
54.05927677875865
 31
0.0
  0
LINE
  5
4225
330
303F
100
AcDbEntity
  8
SUNPOU
  6
Continuous
440
 16777216
100
AcDbLine
 10
99.35407016005742
 20
55.55927677875866
 30
0.0
 11
295.3540701600577
 21
55.55927677875866
 31
0.0
  0
INSERT
  5
4226
330
303F
100
AcDbEntity
  8
SUNPOU
  6
Continuous
440
 16777216
100
AcDbBlockReference
  2
_OPEN
 10
96.35407016005743
 20
55.55927677875866
 30
0.0
 41
3.0
 42
3.0
 43
3.0
 50
180.0
  0
INSERT
  5
4227
330
303F
100
AcDbEntity
  8
SUNPOU
  6
Continuous
440
 16777216
100
AcDbBlockReference
  2
_OPEN
 10
298.3540701600576
 20
55.55927677875866
 30
0.0
 41
3.0
 42
3.0
 43
3.0
  0
MTEXT
  5
4228
330
303F
100
AcDbEntity
  8
SUNPOU
  6
Continuous
440
 16777216
100
AcDbMText
 10
197.5253777439785
 20
58.05927677875866
 30
0.0
 40
3.0
 41
0.0
 71
     5
 72
     1
  1
\A1;φ202
 73
     1
 44
1.0
  0
POINT
  5
4229
330
303F
100
AcDbEntity
  8
DEFPOINTS
  6
Continuous
 62
     0
440
 16777216
100
AcDbPoint
 10
96.35407016005743
 20
72.35708905858212
 30
0.0
  0
POINT
  5
422A
330
303F
100
AcDbEntity
  8
DEFPOINTS
  6
Continuous
 62
     0
440
 16777216
100
AcDbPoint
 10
298.3540701600576
 20
72.35708905858212
 30
0.0
  0
POINT
  5
422B
330
303F
100
AcDbEntity
  8
DEFPOINTS
  6
Continuous
 62
     0
440
 16777216
100
AcDbPoint
 10
298.3540701600576
 20
55.55927677875866
 30
0.0
  0
ENDBLK
  5
3041
330
303F
100
AcDbEntity
  8
0
100
AcDbBlockEnd
  0
BLOCK
  5
3086
330
3085
100
AcDbEntity
  8
0
100
AcDbBlockBegin
  2
*D5
 70
     1
 10
0.0
 20
0.0
 30
0.0
  3
*D5
  1

  0
LINE
  5
422C
330
3085
100
AcDbEntity
  8
SUNPOU
  6
Continuous
440
 16777216
100
AcDbLine
 10
150.3540701600575
 20
240.3570890585819
 30
0.0
 11
150.3540701600575
 21
247.8134366428654
 31
0.0
  0
LINE
  5
422D
330
3085
100
AcDbEntity
  8
SUNPOU
  6
Continuous
440
 16777216
100
AcDbLine
 10
244.3540701600575
 20
240.3570890585819
 30
0.0
 11
244.3540701600575
 21
247.8134366428654
 31
0.0
  0
LINE
  5
422E
330
3085
100
AcDbEntity
  8
SUNPOU
  6
Continuous
440
 16777216
100
AcDbLine
 10
153.3540701600575
 20
246.3134366428654
 30
0.0
 11
241.3540701600575
 21
246.3134366428654
 31
0.0
  0
INSERT
  5
422F
330
3085
100
AcDbEntity
  8
SUNPOU
  6
Continuous
440
 16777216
100
AcDbBlockReference
  2
_OPEN
 10
150.3540701600575
 20
246.3134366428654
 30
0.0
 41
3.0
 42
3.0
 43
3.0
 50
180.0
  0
INSERT
  5
4230
330
3085
100
AcDbEntity
  8
SUNPOU
  6
Continuous
440
 16777216
100
AcDbBlockReference
  2
_OPEN
 10
244.3540701600575
 20
246.3134366428654
 30
0.0
 41
3.0
 42
3.0
 43
3.0
  0
MTEXT
  5
4231
330
3085
100
AcDbEntity
  8
SUNPOU
  6
Continuous
440
 16777216
100
AcDbMText
 10
197.3540701600575
 20
248.8134366428655
 30
0.0
 40
3.0
 41
0.0
 71
     5
 72
     1
  1
\A1;φ94
 73
     1
 44
1.0
  0
POINT
  5
4232
330
3085
100
AcDbEntity
  8
DEFPOINTS
  6
Continuous
 62
     0
440
 16777216
100
AcDbPoint
 10
150.3540701600575
 20
237.3570890585819
 30
0.0
  0
POINT
  5
4233
330
3085
100
AcDbEntity
  8
DEFPOINTS
  6
Continuous
 62
     0
440
 16777216
100
AcDbPoint
 10
244.3540701600575
 20
237.3570890585819
 30
0.0
  0
POINT
  5
4234
330
3085
100
AcDbEntity
  8
DEFPOINTS
  6
Continuous
 62
     0
440
 16777216
100
AcDbPoint
 10
244.3540701600575
 20
246.3134366428654
 30
0.0
  0
ENDBLK
  5
3087
330
3085
100
AcDbEntity
  8
0
100
AcDbBlockEnd
  0
BLOCK
  5
30C3
330
30C2
100
AcDbEntity
  8
0
100
AcDbBlockBegin
  2
*D6
 70
     1
 10
0.0
 20
0.0
 30
0.0
  3
*D6
  1

  0
LINE
  5
4235
330
30C2
100
AcDbEntity
  8
SUNPOU
  6
Continuous
440
 16777216
100
AcDbLine
 10
145.8540701600575
 20
69.35708905858212
 30
0.0
 11
145.8540701600575
 21
60.78678805420452
 31
0.0
  0
LINE
  5
4236
330
30C2
100
AcDbEntity
  8
SUNPOU
  6
Continuous
440
 16777216
100
AcDbLine
 10
248.8540701600575
 20
69.35708905858212
 30
0.0
 11
248.8540701600575
 21
60.78678805420452
 31
0.0
  0
LINE
  5
4237
330
30C2
100
AcDbEntity
  8
SUNPOU
  6
Continuous
440
 16777216
100
AcDbLine
 10
148.8540701600575
 20
62.28678805420452
 30
0.0
 11
245.8540701600575
 21
62.28678805420452
 31
0.0
  0
INSERT
  5
4238
330
30C2
100
AcDbEntity
  8
SUNPOU
  6
Continuous
440
 16777216
100
AcDbBlockReference
  2
_OPEN
 10
145.8540701600575
 20
62.28678805420452
 30
0.0
 41
3.0
 42
3.0
 43
3.0
 50
180.0
  0
INSERT
  5
4239
330
30C2
100
AcDbEntity
  8
SUNPOU
  6
Continuous
440
 16777216
100
AcDbBlockReference
  2
_OPEN
 10
248.8540701600575
 20
62.28678805420452
 30
0.0
 41
3.0
 42
3.0
 43
3.0
  0
MTEXT
  5
423A
330
30C2
100
AcDbEntity
  8
SUNPOU
  6
Continuous
440
 16777216
100
AcDbMText
 10
197.3540701600575
 20
64.78678805420452
 30
0.0
 40
3.0
 41
0.0
 71
     5
 72
     1
  1
\A1;φ104
 73
     1
 44
1.0
  0
POINT
  5
423B
330
30C2
100
AcDbEntity
  8
DEFPOINTS
  6
Continuous
 62
     0
440
 16777216
100
AcDbPoint
 10
145.8540701600575
 20
72.35708905858212
 30
0.0
  0
POINT
  5
423C
330
30C2
100
AcDbEntity
  8
DEFPOINTS
  6
Continuous
 62
     0
440
 16777216
100
AcDbPoint
 10
248.8540701600575
 20
72.35708905858212
 30
0.0
  0
POINT
  5
423D
330
30C2
100
AcDbEntity
  8
DEFPOINTS
  6
Continuous
 62
     0
440
 16777216
100
AcDbPoint
 10
248.8540701600575
 20
62.28678805420452
 30
0.0
  0
ENDBLK
  5
30C4
330
30C2
100
AcDbEntity
  8
0
100
AcDbBlockEnd
  0
BLOCK
  5
3C38
330
3C2E
100
AcDbEntity
  8
0
100
AcDbBlockBegin
  2
*D7
 70
     1
 10
0.0
 20
0.0
 30
0.0
  3
*D7
  1

  0
LINE
  5
423E
330
3C2E
100
AcDbEntity
  8
SUNPOU
  6
Continuous
 62
     4
440
 16777216
370
    -2
100
AcDbLine
 10
243.0412964730704
 20
72.35708905858212
 30
0.0
 11
213.4867667818869
 21
72.35708905858214
 31
0.0
  0
LINE
  5
423F
330
3C2E
100
AcDbEntity
  8
SUNPOU
  6
Continuous
 62
     4
440
 16777216
370
    -2
100
AcDbLine
 10
241.9503873821613
 20
162.3570890585821
 30
0.0
 11
213.4867667818869
 21
162.3570890585821
 31
0.0
  0
LINE
  5
4240
330
3C2E
100
AcDbEntity
  8
SUNPOU
  6
Continuous
 62
     4
440
 16777216
370
    -2
100
AcDbLine
 10
214.9867667818869
 20
75.35708905858212
 30
0.0
 11
214.9867667818869
 21
159.3570890585821
 31
0.0
  0
INSERT
  5
4241
330
3C2E
100
AcDbEntity
  8
SUNPOU
  6
Continuous
 62
     4
440
 16777216
370
    -2
100
AcDbBlockReference
  2
_OPEN
 10
214.9867667818869
 20
72.35708905858214
 30
0.0
 41
3.0
 42
3.0
 43
3.0
 50
270.0
  0
INSERT
  5
4242
330
3C2E
100
AcDbEntity
  8
SUNPOU
  6
Continuous
 62
     4
440
 16777216
370
    -2
100
AcDbBlockReference
  2
_OPEN
 10
214.9867667818869
 20
162.3570890585821
 30
0.0
 41
3.0
 42
3.0
 43
3.0
 50
90.0
  0
MTEXT
  5
4243
330
3C2E
100
AcDbEntity
  8
SUNPOU
  6
Continuous
 62
     4
440
 16777216
100
AcDbMText
 10
209.9867667818869
 20
117.3570890585821
 30
0.0
 40
3.0
 41
0.0
 71
     5
 72
     1
  1
\A1;たてといの端部位置\P８０～１００ｍｍ
 11
0.0000000000000001
 21
1.0
 31
0.0
 73
     1
 44
1.0
  0
POINT
  5
4244
330
3C2E
100
AcDbEntity
  8
DEFPOINTS
  6
Continuous
 62
     0
440
 16777216
100
AcDbPoint
 10
246.0412964730704
 20
72.35708905858212
 30
0.0
  0
POINT
  5
4245
330
3C2E
100
AcDbEntity
  8
DEFPOINTS
  6
Continuous
 62
     0
440
 16777216
100
AcDbPoint
 10
244.9503873821612
 20
162.3570890585821
 30
0.0
  0
POINT
  5
4246
330
3C2E
100
AcDbEntity
  8
DEFPOINTS
  6
Continuous
 62
     0
440
 16777216
100
AcDbPoint
 10
214.9867667818869
 20
162.3570890585821
 30
0.0
  0
ENDBLK
  5
3C39
330
3C2E
100
AcDbEntity
  8
0
100
AcDbBlockEnd
  0
BLOCK
  5
3C44
330
3C3A
100
AcDbEntity
  8
0
100
AcDbBlockBegin
  2
*D8
 70
     1
 10
0.0
 20
0.0
 30
0.0
  3
*D8
  1

  0
LINE
  5
4247
330
3C3A
100
AcDbEntity
  8
SUNPOU
  6
Continuous
 62
     4
440
 16777216
370
    -2
100
AcDbLine
 10
246.4104759446454
 20
102.3570890585821
 30
0.0
 11
234.8372159939429
 21
102.3570890585821
 31
0.0
  0
LINE
  5
4248
330
3C3A
100
AcDbEntity
  8
SUNPOU
  6
Continuous
 62
     4
440
 16777216
370
    -2
100
AcDbLine
 10
245.4044188115506
 20
72.35708905858212
 30
0.0
 11
234.8372159939429
 21
72.35708905858212
 31
0.0
  0
LINE
  5
4249
330
3C3A
100
AcDbEntity
  8
SUNPOU
  6
Continuous
 62
     4
440
 16777216
370
    -2
100
AcDbLine
 10
236.3372159939429
 20
105.3570890585821
 30
0.0
 11
236.3372159939429
 21
108.3570890585821
 31
0.0
  0
LINE
  5
424A
330
3C3A
100
AcDbEntity
  8
SUNPOU
  6
Continuous
 62
     4
440
 16777216
370
    -2
100
AcDbLine
 10
236.3372159939429
 20
69.35708905858212
 30
0.0
 11
236.3372159939429
 21
66.35708905858212
 31
0.0
  0
MTEXT
  5
424B
330
3C3A
100
AcDbEntity
  8
SUNPOU
  6
Continuous
 62
     4
440
 16777216
100
AcDbMText
 10
231.6132640463804
 20
91.0203413994451
 30
0.0
 40
3.0
 41
0.0
 71
     5
 72
     1
  1
\A1;排水管のパイプの高さ\P３０～３５ｍｍ
 11
0.0000000000000001
 21
1.0
 31
0.0
 73
     1
 44
1.0
  0
LINE
  5
424C
330
3C3A
100
AcDbEntity
  8
SUNPOU
  6
Continuous
 62
     4
440
 16777216
370
    -2
100
AcDbLine
 10
236.3372159939429
 20
102.3570890585821
 30
0.0
 11
236.3372159939429
 21
72.35708905858212
 31
0.0
  0
INSERT
  5
424D
330
3C3A
100
AcDbEntity
  8
SUNPOU
  6
Continuous
 62
     4
440
 16777216
370
    -2
100
AcDbBlockReference
  2
_OPEN
 10
236.3372159939429
 20
102.3570890585821
 30
0.0
 41
3.0
 42
3.0
 43
3.0
 50
270.0
  0
INSERT
  5
424E
330
3C3A
100
AcDbEntity
  8
SUNPOU
  6
Continuous
 62
     4
440
 16777216
370
    -2
100
AcDbBlockReference
  2
_OPEN
 10
236.3372159939429
 20
72.35708905858212
 30
0.0
 41
3.0
 42
3.0
 43
3.0
 50
90.0
  0
POINT
  5
424F
330
3C3A
100
AcDbEntity
  8
DEFPOINTS
  6
Continuous
 62
     0
440
 16777216
100
AcDbPoint
 10
249.4104759446454
 20
102.3570890585821
 30
0.0
  0
POINT
  5
4250
330
3C3A
100
AcDbEntity
  8
DEFPOINTS
  6
Continuous
 62
     0
440
 16777216
100
AcDbPoint
 10
248.4044188115506
 20
72.35708905858212
 30
0.0
  0
POINT
  5
4251
330
3C3A
100
AcDbEntity
  8
DEFPOINTS
  6
Continuous
 62
     0
440
 16777216
100
AcDbPoint
 10
236.3372159939429
 20
72.35708905858212
 30
0.0
  0
ENDBLK
  5
3C45
330
3C3A
100
AcDbEntity
  8
0
100
AcDbBlockEnd
  0
BLOCK
  5
425C
330
425B
100
AcDbEntity
  8
0
100
AcDbBlockBegin
  2
*D9
 70
     1
 10
0.0
 20
0.0
 30
0.0
  3
*D9
  1

  0
LINE
  5
4285
330
425B
100
AcDbEntity
  8
CENTER L
440
 16777216
100
AcDbLine
 10
256.9880175737953
 20
105.3570890585821
 30
0.0
 11
256.9880175737953
 21
130.549241697627
 31
0.0
  0
LINE
  5
4286
330
425B
100
AcDbEntity
  8
CENTER L
440
 16777216
100
AcDbLine
 10
267.3540701600574
 20
105.3570890585821
 30
0.0
 11
267.3540701600574
 21
130.549241697627
 31
0.0
  0
LINE
  5
4287
330
425B
100
AcDbEntity
  8
CENTER L
440
 16777216
100
AcDbLine
 10
259.9880175737953
 20
129.049241697627
 30
0.0
 11
264.3540701600575
 21
129.049241697627
 31
0.0
  0
LINE
  5
4288
330
425B
100
AcDbEntity
  8
CENTER L
440
 16777216
100
AcDbLine
 10
267.3540701600574
 20
129.049241697627
 30
0.0
 11
285.8540701600574
 21
129.049241697627
 31
0.0
  0
INSERT
  5
4289
330
425B
100
AcDbEntity
  8
CENTER L
440
 16777216
100
AcDbBlockReference
  2
_OPEN
 10
256.9880175737953
 20
129.049241697627
 30
0.0
 41
3.0
 42
3.0
 43
3.0
 50
180.0
  0
INSERT
  5
428A
330
425B
100
AcDbEntity
  8
CENTER L
440
 16777216
100
AcDbBlockReference
  2
_OPEN
 10
267.3540701600574
 20
129.049241697627
 30
0.0
 41
3.0
 42
3.0
 43
3.0
  0
MTEXT
  5
428B
330
425B
100
AcDbEntity
  8
CENTER L
440
 16777216
100
AcDbMText
 10
278.1040701600574
 20
131.549241697627
 30
0.0
 40
3.0
 41
0.0
 71
     5
 72
     1
  1
\A1;10.366
 73
     1
 44
1.0
  0
POINT
  5
428C
330
425B
100
AcDbEntity
  8
DEFPOINTS
 62
     0
440
 16777216
100
AcDbPoint
 10
256.9880175737953
 20
102.3570890585821
 30
0.0
  0
POINT
  5
428D
330
425B
100
AcDbEntity
  8
DEFPOINTS
 62
     0
440
 16777216
100
AcDbPoint
 10
267.3540701600574
 20
102.3570890585821
 30
0.0
  0
POINT
  5
428E
330
425B
100
AcDbEntity
  8
DEFPOINTS
 62
     0
440
 16777216
100
AcDbPoint
 10
267.3540701600574
 20
129.049241697627
 30
0.0
  0
ENDBLK
  5
425D
330
425B
100
AcDbEntity
  8
0
100
AcDbBlockEnd
  0
BLOCK
  5
4269
330
4268
100
AcDbEntity
  8
0
100
AcDbBlockBegin
  2
*D10
 70
     1
 10
0.0
 20
0.0
 30
0.0
  3
*D10
  1

  0
LINE
  5
428F
330
4268
100
AcDbEntity
  8
CENTER L
440
 16777216
100
AcDbLine
 10
260.0269886202678
 20
105.3570890585821
 30
0.0
 11
260.0269886202678
 21
118.8688093612539
 31
0.0
  0
LINE
  5
4290
330
4268
100
AcDbEntity
  8
CENTER L
440
 16777216
100
AcDbLine
 10
263.2540701600575
 20
105.3570890585821
 30
0.0
 11
263.2540701600575
 21
118.8688093612539
 31
0.0
  0
LINE
  5
4291
330
4268
100
AcDbEntity
  8
CENTER L
440
 16777216
100
AcDbLine
 10
257.0269886202678
 20
117.368809361254
 30
0.0
 11
254.0269886202679
 21
117.368809361254
 31
0.0
  0
LINE
  5
4292
330
4268
100
AcDbEntity
  8
CENTER L
440
 16777216
100
AcDbLine
 10
266.2540701600575
 20
117.368809361254
 30
0.0
 11
283.2540701600575
 21
117.368809361254
 31
0.0
  0
LINE
  5
4293
330
4268
100
AcDbEntity
  8
CENTER L
440
 16777216
100
AcDbLine
 10
260.0269886202678
 20
117.368809361254
 30
0.0
 11
263.2540701600575
 21
117.368809361254
 31
0.0
  0
INSERT
  5
4294
330
4268
100
AcDbEntity
  8
CENTER L
440
 16777216
100
AcDbBlockReference
  2
_OPEN
 10
260.0269886202678
 20
117.368809361254
 30
0.0
 41
3.0
 42
3.0
 43
3.0
  0
INSERT
  5
4295
330
4268
100
AcDbEntity
  8
CENTER L
440
 16777216
100
AcDbBlockReference
  2
_OPEN
 10
263.2540701600575
 20
117.368809361254
 30
0.0
 41
3.0
 42
3.0
 43
3.0
 50
180.0
  0
MTEXT
  5
4296
330
4268
100
AcDbEntity
  8
CENTER L
440
 16777216
100
AcDbMText
 10
276.2540701600575
 20
119.8688093612539
 30
0.0
 40
3.0
 41
0.0
 71
     5
 72
     1
  1
\A1;3.227
 73
     1
 44
1.0
  0
POINT
  5
4297
330
4268
100
AcDbEntity
  8
DEFPOINTS
 62
     0
440
 16777216
100
AcDbPoint
 10
260.0269886202678
 20
102.3570890585821
 30
0.0
  0
POINT
  5
4298
330
4268
100
AcDbEntity
  8
DEFPOINTS
 62
     0
440
 16777216
100
AcDbPoint
 10
263.2540701600575
 20
102.3570890585821
 30
0.0
  0
POINT
  5
4299
330
4268
100
AcDbEntity
  8
DEFPOINTS
 62
     0
440
 16777216
100
AcDbPoint
 10
263.2540701600575
 20
117.368809361254
 30
0.0
  0
ENDBLK
  5
426A
330
4268
100
AcDbEntity
  8
0
100
AcDbBlockEnd
  0
BLOCK
  5
4278
330
4277
100
AcDbEntity
  8
0
100
AcDbBlockBegin
  2
*D11
 70
     1
 10
0.0
 20
0.0
 30
0.0
  3
*D11
  1

  0
LINE
  5
429A
330
4277
100
AcDbEntity
  8
CENTER L
440
 16777216
100
AcDbLine
 10
263.2540701600575
 20
105.3570890585821
 30
0.0
 11
263.2540701600575
 21
106.4491097567786
 31
0.0
  0
LINE
  5
429B
330
4277
100
AcDbEntity
  8
CENTER L
440
 16777216
100
AcDbLine
 10
267.3540701600574
 20
105.3570890585821
 30
0.0
 11
267.3540701600574
 21
106.4491097567786
 31
0.0
  0
LINE
  5
429C
330
4277
100
AcDbEntity
  8
CENTER L
440
 16777216
100
AcDbLine
 10
260.2540701600575
 20
104.9491097567786
 30
0.0
 11
257.2540701600575
 21
104.9491097567786
 31
0.0
  0
LINE
  5
429D
330
4277
100
AcDbEntity
  8
CENTER L
440
 16777216
100
AcDbLine
 10
270.3540701600575
 20
104.9491097567786
 30
0.0
 11
282.8540701600575
 21
104.9491097567786
 31
0.0
  0
LINE
  5
429E
330
4277
100
AcDbEntity
  8
CENTER L
440
 16777216
100
AcDbLine
 10
263.2540701600575
 20
104.9491097567786
 30
0.0
 11
267.3540701600574
 21
104.9491097567786
 31
0.0
  0
INSERT
  5
429F
330
4277
100
AcDbEntity
  8
CENTER L
440
 16777216
100
AcDbBlockReference
  2
_OPEN
 10
263.2540701600575
 20
104.9491097567786
 30
0.0
 41
3.0
 42
3.0
 43
3.0
  0
INSERT
  5
42A0
330
4277
100
AcDbEntity
  8
CENTER L
440
 16777216
100
AcDbBlockReference
  2
_OPEN
 10
267.3540701600574
 20
104.9491097567786
 30
0.0
 41
3.0
 42
3.0
 43
3.0
 50
180.0
  0
MTEXT
  5
42A1
330
4277
100
AcDbEntity
  8
CENTER L
440
 16777216
100
AcDbMText
 10
278.1040701600574
 20
107.4491097567786
 30
0.0
 40
3.0
 41
0.0
 71
     5
 72
     1
  1
\A1;4.10
 73
     1
 44
1.0
  0
POINT
  5
42A2
330
4277
100
AcDbEntity
  8
DEFPOINTS
 62
     0
440
 16777216
100
AcDbPoint
 10
263.2540701600575
 20
102.3570890585821
 30
0.0
  0
POINT
  5
42A3
330
4277
100
AcDbEntity
  8
DEFPOINTS
 62
     0
440
 16777216
100
AcDbPoint
 10
267.3540701600574
 20
102.3570890585821
 30
0.0
  0
POINT
  5
42A4
330
4277
100
AcDbEntity
  8
DEFPOINTS
 62
     0
440
 16777216
100
AcDbPoint
 10
267.3540701600574
 20
104.9491097567786
 30
0.0
  0
ENDBLK
  5
4279
330
4277
100
AcDbEntity
  8
0
100
AcDbBlockEnd
  0
BLOCK
  5
42B1
330
42B0
100
AcDbEntity
  8
0
100
AcDbBlockBegin
  2
*D12
 70
     1
 10
0.0
 20
0.0
 30
0.0
  3
*D12
  1

  0
LINE
  5
42B3
330
42B0
100
AcDbEntity
  8
CENTER L
440
 16777216
100
AcDbLine
 10
197.3540701600575
 20
42.80768080681139
 30
0.0
 11
197.3540701600575
 21
36.17573407171699
 31
0.0
  0
LINE
  5
42B4
330
42B0
100
AcDbEntity
  8
CENTER L
440
 16777216
100
AcDbLine
 10
343.3540701600575
 20
42.80768080681139
 30
0.0
 11
343.3540701600575
 21
36.17573407171699
 31
0.0
  0
LINE
  5
42B5
330
42B0
100
AcDbEntity
  8
CENTER L
440
 16777216
100
AcDbLine
 10
200.3540701600575
 20
37.67573407171699
 30
0.0
 11
340.3540701600574
 21
37.67573407171699
 31
0.0
  0
INSERT
  5
42B6
330
42B0
100
AcDbEntity
  8
CENTER L
440
 16777216
100
AcDbBlockReference
  2
_OPEN
 10
197.3540701600575
 20
37.67573407171699
 30
0.0
 41
3.0
 42
3.0
 43
3.0
 50
180.0
  0
INSERT
  5
42B7
330
42B0
100
AcDbEntity
  8
CENTER L
440
 16777216
100
AcDbBlockReference
  2
_OPEN
 10
343.3540701600575
 20
37.67573407171699
 30
0.0
 41
3.0
 42
3.0
 43
3.0
  0
MTEXT
  5
42B8
330
42B0
100
AcDbEntity
  8
CENTER L
440
 16777216
100
AcDbMText
 10
270.3540701600575
 20
40.17573407171697
 30
0.0
 40
3.0
 41
0.0
 71
     5
 72
     1
  1
\A1;146
 73
     1
 44
1.0
  0
POINT
  5
42B9
330
42B0
100
AcDbEntity
  8
DEFPOINTS
 62
     0
440
 16777216
100
AcDbPoint
 10
197.3540701600575
 20
45.80768080681139
 30
0.0
  0
POINT
  5
42BA
330
42B0
100
AcDbEntity
  8
DEFPOINTS
 62
     0
440
 16777216
100
AcDbPoint
 10
343.3540701600575
 20
45.80768080681139
 30
0.0
  0
POINT
  5
42BB
330
42B0
100
AcDbEntity
  8
DEFPOINTS
 62
     0
440
 16777216
100
AcDbPoint
 10
343.3540701600575
 20
37.67573407171699
 30
0.0
  0
ENDBLK
  5
42B2
330
42B0
100
AcDbEntity
  8
0
100
AcDbBlockEnd
  0
BLOCK
  5
42D8
330
42D7
100
AcDbEntity
  8
0
100
AcDbBlockBegin
  2
*D13
 70
     1
 10
0.0
 20
0.0
 30
0.0
  3
*D13
  1

  0
LINE
  5
42DA
330
42D7
100
AcDbEntity
  8
CENTER L
440
 16777216
100
AcDbLine
 10
197.3540701600575
 20
54.42611650374
 30
0.0
 11
197.3540701600575
 21
54.95490194604622
 31
0.0
  0
LINE
  5
42DB
330
42D7
100
AcDbEntity
  8
CENTER L
440
 16777216
100
AcDbLine
 10
270.3521946094785
 20
54.42611650374
 30
0.0
 11
270.3521946094785
 21
54.95490194604622
 31
0.0
  0
LINE
  5
42DC
330
42D7
100
AcDbEntity
  8
CENTER L
440
 16777216
100
AcDbLine
 10
200.3540701600575
 20
53.45490194604622
 30
0.0
 11
267.3521946094784
 21
53.45490194604622
 31
0.0
  0
INSERT
  5
42DD
330
42D7
100
AcDbEntity
  8
CENTER L
440
 16777216
100
AcDbBlockReference
  2
_OPEN
 10
197.3540701600575
 20
53.45490194604622
 30
0.0
 41
3.0
 42
3.0
 43
3.0
 50
180.0
  0
INSERT
  5
42DE
330
42D7
100
AcDbEntity
  8
CENTER L
440
 16777216
100
AcDbBlockReference
  2
_OPEN
 10
270.3521946094785
 20
53.45490194604622
 30
0.0
 41
3.0
 42
3.0
 43
3.0
  0
MTEXT
  5
42DF
330
42D7
100
AcDbEntity
  8
CENTER L
440
 16777216
100
AcDbMText
 10
233.8531323847679
 20
55.95490194604622
 30
0.0
 40
3.0
 41
0.0
 71
     5
 72
     1
  1
\A1;73
 73
     1
 44
1.0
  0
POINT
  5
42E0
330
42D7
100
AcDbEntity
  8
DEFPOINTS
 62
     0
440
 16777216
100
AcDbPoint
 10
197.3540701600575
 20
51.42611650374
 30
0.0
  0
POINT
  5
42E1
330
42D7
100
AcDbEntity
  8
DEFPOINTS
 62
     0
440
 16777216
100
AcDbPoint
 10
270.3521946094785
 20
51.42611650374
 30
0.0
  0
POINT
  5
42E2
330
42D7
100
AcDbEntity
  8
DEFPOINTS
 62
     0
440
 16777216
100
AcDbPoint
 10
270.3521946094785
 20
53.45490194604622
 30
0.0
  0
ENDBLK
  5
42D9
330
42D7
100
AcDbEntity
  8
0
100
AcDbBlockEnd
  0
BLOCK
  5
42E5
330
42E4
100
AcDbEntity
  8
0
100
AcDbBlockBegin
  2
*D14
 70
     1
 10
0.0
 20
0.0
 30
0.0
  3
*D14
  1

  0
LINE
  5
42E7
330
42E4
100
AcDbEntity
  8
CENTER L
440
 16777216
100
AcDbLine
 10
197.3540701600575
 20
99.35708905858191
 30
0.0
 11
197.3540701600575
 21
96.79720888998
 31
0.0
  0
LINE
  5
42E8
330
42E4
100
AcDbEntity
  8
CENTER L
440
 16777216
100
AcDbLine
 10
270.3521946094785
 20
99.28774507110757
 30
0.0
 11
270.3521946094785
 21
96.79720888998
 31
0.0
  0
LINE
  5
42E9
330
42E4
100
AcDbEntity
  8
CENTER L
440
 16777216
100
AcDbLine
 10
200.3540701600575
 20
98.29720888997997
 30
0.0
 11
267.3521946094784
 21
98.29720888997997
 31
0.0
  0
INSERT
  5
42EA
330
42E4
100
AcDbEntity
  8
CENTER L
440
 16777216
100
AcDbBlockReference
  2
_OPEN
 10
197.3540701600575
 20
98.29720888997997
 30
0.0
 41
3.0
 42
3.0
 43
3.0
 50
180.0
  0
INSERT
  5
42EB
330
42E4
100
AcDbEntity
  8
CENTER L
440
 16777216
100
AcDbBlockReference
  2
_OPEN
 10
270.3521946094785
 20
98.29720888997997
 30
0.0
 41
3.0
 42
3.0
 43
3.0
  0
MTEXT
  5
42EC
330
42E4
100
AcDbEntity
  8
CENTER L
440
 16777216
100
AcDbMText
 10
233.8531323847679
 20
100.7972088899799
 30
0.0
 40
3.0
 41
0.0
 71
     5
 72
     1
  1
\A1;73
 73
     1
 44
1.0
  0
POINT
  5
42ED
330
42E4
100
AcDbEntity
  8
DEFPOINTS
 62
     0
440
 16777216
100
AcDbPoint
 10
197.3540701600575
 20
102.3570890585819
 30
0.0
  0
POINT
  5
42EE
330
42E4
100
AcDbEntity
  8
DEFPOINTS
 62
     0
440
 16777216
100
AcDbPoint
 10
270.3521946094785
 20
102.2877450711075
 30
0.0
  0
POINT
  5
42EF
330
42E4
100
AcDbEntity
  8
DEFPOINTS
 62
     0
440
 16777216
100
AcDbPoint
 10
270.3521946094785
 20
98.29720888997997
 30
0.0
  0
ENDBLK
  5
42E6
330
42E4
100
AcDbEntity
  8
0
100
AcDbBlockEnd
  0
BLOCK
  5
42F3
330
42F2
100
AcDbEntity
  8
0
100
AcDbBlockBegin
  2
*D15
 70
     1
 10
0.0
 20
0.0
 30
0.0
  3
*D15
  1

  0
LINE
  5
42F5
330
42F2
100
AcDbEntity
  8
CENTER L
440
 16777216
100
AcDbLine
 10
197.5253777439785
 20
52.55927677875866
 30
0.0
 11
197.5253777439785
 21
48.20726465434642
 31
0.0
  0
LINE
  5
42F6
330
42F2
100
AcDbEntity
  8
CENTER L
440
 16777216
100
AcDbLine
 10
270.3521946094785
 20
52.55927677875866
 30
0.0
 11
270.3521946094785
 21
48.20726465434642
 31
0.0
  0
LINE
  5
42F7
330
42F2
100
AcDbEntity
  8
CENTER L
440
 16777216
100
AcDbLine
 10
200.5253777439786
 20
49.70726465434642
 30
0.0
 11
267.3521946094784
 21
49.70726465434642
 31
0.0
  0
INSERT
  5
42F8
330
42F2
100
AcDbEntity
  8
CENTER L
440
 16777216
100
AcDbBlockReference
  2
_OPEN
 10
197.5253777439785
 20
49.70726465434642
 30
0.0
 41
3.0
 42
3.0
 43
3.0
 50
180.0
  0
INSERT
  5
42F9
330
42F2
100
AcDbEntity
  8
CENTER L
440
 16777216
100
AcDbBlockReference
  2
_OPEN
 10
270.3521946094785
 20
49.70726465434642
 30
0.0
 41
3.0
 42
3.0
 43
3.0
  0
MTEXT
  5
42FA
330
42F2
100
AcDbEntity
  8
CENTER L
440
 16777216
100
AcDbMText
 10
233.9387861767285
 20
52.20726465434642
 30
0.0
 40
3.0
 41
0.0
 71
     5
 72
     1
  1
\A1;73
 73
     1
 44
1.0
  0
POINT
  5
42FB
330
42F2
100
AcDbEntity
  8
DEFPOINTS
 62
     0
440
 16777216
100
AcDbPoint
 10
197.5253777439785
 20
55.55927677875866
 30
0.0
  0
POINT
  5
42FC
330
42F2
100
AcDbEntity
  8
DEFPOINTS
 62
     0
440
 16777216
100
AcDbPoint
 10
270.3521946094785
 20
55.55927677875866
 30
0.0
  0
POINT
  5
42FD
330
42F2
100
AcDbEntity
  8
DEFPOINTS
 62
     0
440
 16777216
100
AcDbPoint
 10
270.3521946094785
 20
49.70726465434642
 30
0.0
  0
ENDBLK
  5
42F4
330
42F2
100
AcDbEntity
  8
0
100
AcDbBlockEnd
  0
BLOCK
  5
4300
330
42FF
100
AcDbEntity
  8
0
100
AcDbBlockBegin
  2
*D16
 70
     1
 10
0.0
 20
0.0
 30
0.0
  3
*D16
  1

  0
LINE
  5
430B
330
42FF
100
AcDbEntity
  8
CENTER L
440
 16777216
100
AcDbLine
 10
197.3540701600575
 20
52.55927677875866
 30
0.0
 11
197.3540701600575
 21
48.04458754372557
 31
0.0
  0
LINE
  5
430C
330
42FF
100
AcDbEntity
  8
CENTER L
440
 16777216
100
AcDbLine
 10
270.3521946094785
 20
52.55927677875866
 30
0.0
 11
270.3521946094785
 21
48.04458754372557
 31
0.0
  0
LINE
  5
430D
330
42FF
100
AcDbEntity
  8
CENTER L
440
 16777216
100
AcDbLine
 10
200.3540701600575
 20
49.54458754372558
 30
0.0
 11
267.3521946094784
 21
49.54458754372558
 31
0.0
  0
INSERT
  5
430E
330
42FF
100
AcDbEntity
  8
CENTER L
440
 16777216
100
AcDbBlockReference
  2
_OPEN
 10
197.3540701600575
 20
49.54458754372558
 30
0.0
 41
3.0
 42
3.0
 43
3.0
 50
180.0
  0
INSERT
  5
430F
330
42FF
100
AcDbEntity
  8
CENTER L
440
 16777216
100
AcDbBlockReference
  2
_OPEN
 10
270.3521946094785
 20
49.54458754372558
 30
0.0
 41
3.0
 42
3.0
 43
3.0
  0
MTEXT
  5
4310
330
42FF
100
AcDbEntity
  8
CENTER L
440
 16777216
100
AcDbMText
 10
233.8531323847679
 20
52.04458754372558
 30
0.0
 40
3.0
 41
0.0
 71
     5
 72
     1
  1
\A1;72.998
 73
     1
 44
1.0
  0
POINT
  5
4311
330
42FF
100
AcDbEntity
  8
DEFPOINTS
 62
     0
440
 16777216
100
AcDbPoint
 10
197.3540701600575
 20
55.55927677875866
 30
0.0
  0
POINT
  5
4312
330
42FF
100
AcDbEntity
  8
DEFPOINTS
 62
     0
440
 16777216
100
AcDbPoint
 10
270.3521946094785
 20
55.55927677875866
 30
0.0
  0
POINT
  5
4313
330
42FF
100
AcDbEntity
  8
DEFPOINTS
 62
     0
440
 16777216
100
AcDbPoint
 10
270.3521946094785
 20
49.54458754372558
 30
0.0
  0
ENDBLK
  5
4301
330
42FF
100
AcDbEntity
  8
0
100
AcDbBlockEnd
  0
BLOCK
  5
4318
330
4317
100
AcDbEntity
  8
0
100
AcDbBlockBegin
  2
*D17
 70
     1
 10
0.0
 20
0.0
 30
0.0
  3
*D17
  1

  0
LINE
  5
431A
330
4317
100
AcDbEntity
  8
CENTER L
440
 16777216
100
AcDbLine
 10
197.3540701600575
 20
105.3570890585819
 30
0.0
 11
197.3540701600575
 21
107.7312700024597
 31
0.0
  0
LINE
  5
431B
330
4317
100
AcDbEntity
  8
CENTER L
440
 16777216
100
AcDbLine
 10
269.4861420232163
 20
105.3570890585819
 30
0.0
 11
269.4861420232163
 21
107.7312700024597
 31
0.0
  0
LINE
  5
431C
330
4317
100
AcDbEntity
  8
CENTER L
440
 16777216
100
AcDbLine
 10
200.3540701600575
 20
106.2312700024597
 30
0.0
 11
266.4861420232163
 21
106.2312700024597
 31
0.0
  0
INSERT
  5
431D
330
4317
100
AcDbEntity
  8
CENTER L
440
 16777216
100
AcDbBlockReference
  2
_OPEN
 10
197.3540701600575
 20
106.2312700024597
 30
0.0
 41
3.0
 42
3.0
 43
3.0
 50
180.0
  0
INSERT
  5
431E
330
4317
100
AcDbEntity
  8
CENTER L
440
 16777216
100
AcDbBlockReference
  2
_OPEN
 10
269.4861420232163
 20
106.2312700024597
 30
0.0
 41
3.0
 42
3.0
 43
3.0
  0
MTEXT
  5
431F
330
4317
100
AcDbEntity
  8
CENTER L
440
 16777216
100
AcDbMText
 10
233.4201060916369
 20
108.7312700024597
 30
0.0
 40
3.0
 41
0.0
 71
     5
 72
     1
  1
\A1;72
 73
     1
 44
1.0
  0
POINT
  5
4320
330
4317
100
AcDbEntity
  8
DEFPOINTS
 62
     0
440
 16777216
100
AcDbPoint
 10
197.3540701600575
 20
102.3570890585819
 30
0.0
  0
POINT
  5
4321
330
4317
100
AcDbEntity
  8
DEFPOINTS
 62
     0
440
 16777216
100
AcDbPoint
 10
269.4861420232163
 20
102.3570890585819
 30
0.0
  0
POINT
  5
4322
330
4317
100
AcDbEntity
  8
DEFPOINTS
 62
     0
440
 16777216
100
AcDbPoint
 10
269.4861420232163
 20
106.2312700024597
 30
0.0
  0
ENDBLK
  5
4319
330
4317
100
AcDbEntity
  8
0
100
AcDbBlockEnd
  0
BLOCK
  5
4326
330
4325
100
AcDbEntity
  8
0
100
AcDbBlockBegin
  2
*D18
 70
     1
 10
0.0
 20
0.0
 30
0.0
  3
*D18
  1

  0
LINE
  5
4331
330
4325
100
AcDbEntity
  8
CENTER L
440
 16777216
100
AcDbLine
 10
197.3540701600575
 20
105.3570890585818
 30
0.0
 11
197.3540701600575
 21
117.607362799204
 31
0.0
  0
LINE
  5
4332
330
4325
100
AcDbEntity
  8
CENTER L
440
 16777216
100
AcDbLine
 10
270.3540701600575
 20
105.3570890585819
 30
0.0
 11
270.3540701600575
 21
117.607362799204
 31
0.0
  0
LINE
  5
4333
330
4325
100
AcDbEntity
  8
CENTER L
440
 16777216
100
AcDbLine
 10
200.3540701600576
 20
116.107362799204
 30
0.0
 11
267.3540701600574
 21
116.107362799204
 31
0.0
  0
INSERT
  5
4334
330
4325
100
AcDbEntity
  8
CENTER L
440
 16777216
100
AcDbBlockReference
  2
_OPEN
 10
197.3540701600575
 20
116.107362799204
 30
0.0
 41
3.0
 42
3.0
 43
3.0
 50
180.0
  0
INSERT
  5
4335
330
4325
100
AcDbEntity
  8
CENTER L
440
 16777216
100
AcDbBlockReference
  2
_OPEN
 10
270.3540701600575
 20
116.107362799204
 30
0.0
 41
3.0
 42
3.0
 43
3.0
  0
MTEXT
  5
4336
330
4325
100
AcDbEntity
  8
CENTER L
440
 16777216
100
AcDbMText
 10
233.8540701600575
 20
118.607362799204
 30
0.0
 40
3.0
 41
0.0
 71
     5
 72
     1
  1
\A1;73.000
 73
     1
 44
1.0
  0
POINT
  5
4337
330
4325
100
AcDbEntity
  8
DEFPOINTS
 62
     0
440
 16777216
100
AcDbPoint
 10
197.3540701600575
 20
102.3570890585818
 30
0.0
  0
POINT
  5
4338
330
4325
100
AcDbEntity
  8
DEFPOINTS
 62
     0
440
 16777216
100
AcDbPoint
 10
270.3540701600575
 20
102.3570890585819
 30
0.0
  0
POINT
  5
4339
330
4325
100
AcDbEntity
  8
DEFPOINTS
 62
     0
440
 16777216
100
AcDbPoint
 10
270.3540701600575
 20
116.107362799204
 30
0.0
  0
ENDBLK
  5
4327
330
4325
100
AcDbEntity
  8
0
100
AcDbBlockEnd
  0
BLOCK
  5
433D
330
433C
100
AcDbEntity
  8
0
100
AcDbBlockBegin
  2
*D19
 70
     1
 10
0.0
 20
0.0
 30
0.0
  3
*D19
  1

  0
LINE
  5
4348
330
433C
100
AcDbEntity
  8
CENTER L
440
 16777216
100
AcDbLine
 10
274.3540701600575
 20
105.3570890585819
 30
0.0
 11
274.3540701600575
 21
109.9116568856401
 31
0.0
  0
LINE
  5
4349
330
433C
100
AcDbEntity
  8
CENTER L
440
 16777216
100
AcDbLine
 10
197.3540701600575
 20
105.3570890585819
 30
0.0
 11
197.3540701600575
 21
109.9116568856401
 31
0.0
  0
LINE
  5
434A
330
433C
100
AcDbEntity
  8
CENTER L
440
 16777216
100
AcDbLine
 10
271.3540701600575
 20
108.4116568856401
 30
0.0
 11
200.3540701600575
 21
108.4116568856401
 31
0.0
  0
INSERT
  5
434B
330
433C
100
AcDbEntity
  8
CENTER L
440
 16777216
100
AcDbBlockReference
  2
_OPEN
 10
274.3540701600575
 20
108.4116568856401
 30
0.0
 41
3.0
 42
3.0
 43
3.0
  0
INSERT
  5
434C
330
433C
100
AcDbEntity
  8
CENTER L
440
 16777216
100
AcDbBlockReference
  2
_OPEN
 10
197.3540701600575
 20
108.4116568856401
 30
0.0
 41
3.0
 42
3.0
 43
3.0
 50
180.0
  0
MTEXT
  5
434D
330
433C
100
AcDbEntity
  8
CENTER L
440
 16777216
100
AcDbMText
 10
235.8540701600575
 20
110.9116568856401
 30
0.0
 40
3.0
 41
0.0
 71
     5
 72
     1
  1
\A1;77.000
 73
     1
 44
1.0
  0
POINT
  5
434E
330
433C
100
AcDbEntity
  8
DEFPOINTS
 62
     0
440
 16777216
100
AcDbPoint
 10
274.3540701600575
 20
102.3570890585819
 30
0.0
  0
POINT
  5
434F
330
433C
100
AcDbEntity
  8
DEFPOINTS
 62
     0
440
 16777216
100
AcDbPoint
 10
197.3540701600575
 20
102.3570890585819
 30
0.0
  0
POINT
  5
4350
330
433C
100
AcDbEntity
  8
DEFPOINTS
 62
     0
440
 16777216
100
AcDbPoint
 10
197.3540701600575
 20
108.4116568856401
 30
0.0
  0
ENDBLK
  5
433E
330
433C
100
AcDbEntity
  8
0
100
AcDbBlockEnd
  0
BLOCK
  5
4354
330
4353
100
AcDbEntity
  8
0
100
AcDbBlockBegin
  2
*D20
 70
     1
 10
0.0
 20
0.0
 30
0.0
  3
*D20
  1

  0
LINE
  5
435F
330
4353
100
AcDbEntity
  8
CENTER L
440
 16777216
100
AcDbLine
 10
279.8540701600574
 20
99.35708905858191
 30
0.0
 11
279.8540701600574
 21
91.2719871929479
 31
0.0
  0
LINE
  5
4360
330
4353
100
AcDbEntity
  8
CENTER L
440
 16777216
100
AcDbLine
 10
197.3540701600575
 20
99.35708905858186
 30
0.0
 11
197.3540701600575
 21
91.2719871929479
 31
0.0
  0
LINE
  5
4361
330
4353
100
AcDbEntity
  8
CENTER L
440
 16777216
100
AcDbLine
 10
276.8540701600575
 20
92.77198719294792
 30
0.0
 11
200.3540701600576
 21
92.77198719294792
 31
0.0
  0
INSERT
  5
4362
330
4353
100
AcDbEntity
  8
CENTER L
440
 16777216
100
AcDbBlockReference
  2
_OPEN
 10
279.8540701600574
 20
92.77198719294792
 30
0.0
 41
3.0
 42
3.0
 43
3.0
  0
INSERT
  5
4363
330
4353
100
AcDbEntity
  8
CENTER L
440
 16777216
100
AcDbBlockReference
  2
_OPEN
 10
197.3540701600575
 20
92.77198719294792
 30
0.0
 41
3.0
 42
3.0
 43
3.0
 50
180.0
  0
MTEXT
  5
4364
330
4353
100
AcDbEntity
  8
CENTER L
440
 16777216
100
AcDbMText
 10
238.6040701600575
 20
95.27198719294792
 30
0.0
 40
3.0
 41
0.0
 71
     5
 72
     1
  1
\A1;82.500
 73
     1
 44
1.0
  0
POINT
  5
4365
330
4353
100
AcDbEntity
  8
DEFPOINTS
 62
     0
440
 16777216
100
AcDbPoint
 10
279.8540701600574
 20
102.3570890585819
 30
0.0
  0
POINT
  5
4366
330
4353
100
AcDbEntity
  8
DEFPOINTS
 62
     0
440
 16777216
100
AcDbPoint
 10
197.3540701600575
 20
102.3570890585818
 30
0.0
  0
POINT
  5
4367
330
4353
100
AcDbEntity
  8
DEFPOINTS
 62
     0
440
 16777216
100
AcDbPoint
 10
197.3540701600575
 20
92.77198719294792
 30
0.0
  0
ENDBLK
  5
4355
330
4353
100
AcDbEntity
  8
0
100
AcDbBlockEnd
  0
BLOCK
  5
43FE
330
43FB
100
AcDbEntity
  8
0
 62
    30
100
AcDbBlockBegin
  2
A$C586F2F75
 70
     0
 10
0.0
 20
0.0
 30
0.0
  3
A$C586F2F75
  1

  0
LINE
  5
43FF
330
43FB
100
AcDbEntity
  8
VIEWPORT
 48
10.0
100
AcDbLine
 10
165.0000007816646
 20
150.000299881065
 30
0.0
 11
0.0000008461919379
 21
150.0001498810652
 31
0.0
  0
LINE
  5
4400
330
43FB
100
AcDbEntity
  8
SUNPOU
100
AcDbLine
 10
0.0000008461919379
 20
150.0001498810653
 30
0.0
 11
0.0000008461919379
 21
0.0001498810652834
 31
0.0
  0
LINE
  5
4401
330
43FB
100
AcDbEntity
  8
SUNPOU
100
AcDbLine
 10
165.0000007816646
 20
149.9999998810657
 30
0.0
 11
165.0000007816646
 21
-0.0000001189342811
 31
0.0
  0
LINE
  5
4402
330
43FB
100
AcDbEntity
  8
SUNPOU
100
AcDbLine
 10
159.9000007816648
 20
149.9999998810658
 30
0.0
 11
159.9000007816648
 21
-0.0000001189342242
 31
0.0
  0
LINE
  5
4403
330
43FB
100
AcDbEntity
  8
SUNPOU
100
AcDbLine
 10
5.100000845508816
 20
150.0001498810677
 30
0.0
 11
5.100000845508816
 21
0.0001498810676708
 31
0.0
  0
LINE
  5
4404
330
43FB
100
AcDbEntity
  8
moji
 48
10.0
100
AcDbLine
 10
165.000000789889
 20
150.0005175167174
 30
0.0
 11
0.0000008544163279
 21
150.0003675167175
 31
0.0
  0
LINE
  5
4405
330
43FB
100
AcDbEntity
  8
moji
100
AcDbLine
 10
0.0000008544163279
 20
150.0003675167177
 30
0.0
 11
0.0000008544163279
 21
0.000367516717688
 31
0.0
  0
LINE
  5
4406
330
43FB
100
AcDbEntity
  8
moji
100
AcDbLine
 10
165.000000789889
 20
150.0002175167181
 30
0.0
 11
165.000000789889
 21
0.0002175167181235
 31
0.0
  0
LINE
  5
4407
330
43FB
100
AcDbEntity
  8
moji
100
AcDbLine
 10
156.1000008089686
 20
150.0002248810646
 30
0.0
 11
156.1000008089686
 21
0.0002248810645824
 31
0.0
  0
LINE
  5
4408
330
43FB
100
AcDbEntity
  8
moji
100
AcDbLine
 10
8.90000077975651
 20
150.0003675167254
 30
0.0
 11
8.90000077975651
 21
0.0003675167254187
 31
0.0
  0
ENDBLK
  5
4409
330
43FB
100
AcDbEntity
  8
0
 62
    30
100
AcDbBlockEnd
  0
BLOCK
  5
440D
330
440A
100
AcDbEntity
  8
0
100
AcDbBlockBegin
  2
A$C0A1B3B73
 70
     0
 10
0.0
 20
0.0
 30
0.0
  3
A$C0A1B3B73
  1

  0
LINE
  5
440E
330
440A
100
AcDbEntity
  8
CENTER L
  6
CENTER
 62
    30
 48
5.0
100
AcDbLine
 10
101.0000006503128
 20
38.79403915490798
 30
0.0
 11
101.0000006503128
 21
210.3890332398866
 31
0.0
  0
LINE
  5
440F
330
440A
100
AcDbEntity
  8
SEIHIN
  6
Continuous
 62
    30
100
AcDbLine
 10
101.0000006503128
 20
42.32904415203711
 30
0.0
 11
202.000000650313
 21
42.32904415203711
 31
0.0
  0
LINE
  5
4410
330
440A
100
AcDbEntity
  8
SEIHIN
  6
Continuous
 62
    30
100
AcDbLine
 10
0.0000006503127565
 20
42.32904415203711
 30
0.0
 11
101.0000006503128
 21
42.32904415203711
 31
0.0
  0
LINE
  5
4411
330
440A
100
AcDbEntity
  8
SEIHIN
  6
PHANTOM2
 62
    30
 48
0.5
370
     5
100
AcDbLine
 10
158.0000006503128
 20
0.0002102432756601
 30
0.0
 11
158.0000006503128
 21
72.32904415203711
 31
0.0
  0
LINE
  5
4412
330
440A
100
AcDbEntity
  8
SEIHIN
  6
PHANTOM2
 62
    30
 48
0.5
370
     5
100
AcDbLine
 10
154.9000006503129
 20
0.0002102432756601
 30
0.0
 11
154.9000006503129
 21
72.32904415203711
 31
0.0
  0
LINE
  5
4413
330
440A
100
AcDbEntity
  8
SEIHIN
  6
PHANTOM2
 62
    30
 48
0.5
370
     5
100
AcDbLine
 10
171.0000006503128
 20
0.0002102432756601
 30
0.0
 11
171.0000006503128
 21
72.32904415203711
 31
0.0
  0
LINE
  5
4414
330
440A
100
AcDbEntity
  8
SEIHIN
  6
PHANTOM2
 62
    30
 48
0.5
370
     5
100
AcDbLine
 10
166.9000006503129
 20
0.0002102432756601
 30
0.0
 11
166.9000006503129
 21
72.32904415203711
 31
0.0
  0
LINE
  5
4415
330
440A
100
AcDbEntity
  8
SEIHIN
  6
PHANTOM2
 62
    30
 48
0.5
370
     5
100
AcDbLine
 10
160.6339480640506
 20
72.32904415203711
 30
0.0
 11
171.0000006503128
 21
72.32904415203711
 31
0.0
  0
LINE
  5
4416
330
440A
100
AcDbEntity
  8
SEIHIN
  6
PHANTOM2
 62
    30
 48
0.5
370
     5
100
AcDbLine
 10
158.0000006503128
 20
72.32904415203711
 30
0.0
 11
152.8613440551357
 21
72.32904415203711
 31
0.0
  0
LINE
  5
4417
330
440A
100
AcDbEntity
  8
SEIHIN
  6
PHANTOM2
 62
    30
 48
0.5
370
     5
100
AcDbLine
 10
164.0000007047622
 20
0.0000002449112202
 30
0.0
 11
164.0000007047622
 21
72.32883415367268
 31
0.0
  0
LINE
  5
4418
330
440A
100
AcDbEntity
  8
SEIHIN
  6
PHANTOM2
 62
    30
 48
0.5
370
     5
100
AcDbLine
 10
183.5000006503128
 20
0.0002102432754327
 30
0.0
 11
183.5000006503128
 21
72.32904415203688
 31
0.0
  0
LINE
  5
4419
330
440A
100
AcDbEntity
  8
SEIHIN
  6
PHANTOM2
 62
    30
 48
0.5
370
     5
100
AcDbLine
 10
178.4000006354022
 20
0.0002102432754469
 30
0.0
 11
178.400000635402
 21
72.32904415203688
 31
0.0
  0
LINE
  5
441A
330
440A
100
AcDbEntity
  8
SEIHIN
  6
PHANTOM2
 62
    30
 48
0.5
370
     5
100
AcDbLine
 10
173.1339480640506
 20
72.32904415203688
 30
0.0
 11
183.5000006503128
 21
72.32904415203688
 31
0.0
  0
LINE
  5
441B
330
440A
100
AcDbEntity
  8
SEIHIN
  6
PHANTOM2
 62
    30
 48
0.5
370
     5
100
AcDbLine
 10
174.6000006625807
 20
0.0002102432754327
 30
0.0
 11
174.6000006625807
 21
72.32904415203688
 31
0.0
  0
ENDBLK
  5
441C
330
440A
100
AcDbEntity
  8
0
100
AcDbBlockEnd
  0
BLOCK
  5
4434
330
4428
100
AcDbEntity
  8
0
100
AcDbBlockBegin
  2
*D24
 70
     1
 10
0.0
 20
0.0
 30
0.0
  3
*D24
  1

  0
LINE
  5
4436
330
4428
100
AcDbEntity
  8
CENTER L
100
AcDbLine
 10
274.3540701600575
 20
105.3570890585819
 30
0.0
 11
274.3540701600575
 21
116.5594396730594
 31
0.0
  0
LINE
  5
4437
330
4428
100
AcDbEntity
  8
CENTER L
100
AcDbLine
 10
274.7540701451466
 20
105.3570890585819
 30
0.0
 11
274.7540701451466
 21
116.5594396730594
 31
0.0
  0
LINE
  5
4438
330
4428
100
AcDbEntity
  8
CENTER L
100
AcDbLine
 10
271.3540701600575
 20
115.0594396730594
 30
0.0
 11
268.3540701600575
 21
115.0594396730594
 31
0.0
  0
LINE
  5
4439
330
4428
100
AcDbEntity
  8
CENTER L
100
AcDbLine
 10
277.7540701451465
 20
115.0594396730594
 30
0.0
 11
295.7540701451465
 21
115.0594396730594
 31
0.0
  0
LINE
  5
443A
330
4428
100
AcDbEntity
  8
CENTER L
100
AcDbLine
 10
274.3540701600575
 20
115.0594396730594
 30
0.0
 11
274.7540701451466
 21
115.0594396730594
 31
0.0
  0
INSERT
  5
443B
330
4428
100
AcDbEntity
  8
CENTER L
100
AcDbBlockReference
  2
_OPEN
 10
274.3540701600575
 20
115.0594396730594
 30
0.0
 41
3.0
 42
3.0
 43
3.0
  0
INSERT
  5
443C
330
4428
100
AcDbEntity
  8
CENTER L
100
AcDbBlockReference
  2
_OPEN
 10
274.7540701451466
 20
115.0594396730594
 30
0.0
 41
3.0
 42
3.0
 43
3.0
 50
180.0
  0
MTEXT
  5
443D
330
4428
100
AcDbEntity
  8
CENTER L
100
AcDbMText
 10
288.2540701451465
 20
117.5594396730594
 30
0.0
 40
3.0
 41
0.0
 71
     5
 72
     1
  1
\A1;0.4000
 73
     1
 44
1.0
  0
POINT
  5
443E
330
4428
100
AcDbEntity
  8
DEFPOINTS
 62
     0
100
AcDbPoint
 10
274.3540701600575
 20
102.3570890585819
 30
0.0
  0
POINT
  5
443F
330
4428
100
AcDbEntity
  8
DEFPOINTS
 62
     0
100
AcDbPoint
 10
274.7540701451466
 20
102.3570890585819
 30
0.0
  0
POINT
  5
4440
330
4428
100
AcDbEntity
  8
DEFPOINTS
 62
     0
100
AcDbPoint
 10
274.7540701451466
 20
115.0594396730594
 30
0.0
  0
ENDBLK
  5
4435
330
4428
100
AcDbEntity
  8
0
100
AcDbBlockEnd
  0
BLOCK
  5
444E
330
4442
100
AcDbEntity
  8
0
100
AcDbBlockBegin
  2
*D25
 70
     1
 10
0.0
 20
0.0
 30
0.0
  3
*D25
  1

  0
LINE
  5
4450
330
4442
100
AcDbEntity
  8
CENTER L
100
AcDbLine
 10
260.0269886202678
 20
105.3570890585821
 30
0.0
 11
260.0269886202678
 21
110.6340034688236
 31
0.0
  0
LINE
  5
4451
330
4442
100
AcDbEntity
  8
CENTER L
100
AcDbLine
 10
260.3540702145068
 20
105.3570890585821
 30
0.0
 11
260.3540702145068
 21
110.6340034688236
 31
0.0
  0
LINE
  5
4452
330
4442
100
AcDbEntity
  8
CENTER L
100
AcDbLine
 10
257.0269886202678
 20
109.1340034688236
 30
0.0
 11
254.0269886202679
 21
109.1340034688236
 31
0.0
  0
LINE
  5
4453
330
4442
100
AcDbEntity
  8
CENTER L
100
AcDbLine
 10
263.3540702145068
 20
109.1340034688236
 30
0.0
 11
279.8540702145068
 21
109.1340034688236
 31
0.0
  0
LINE
  5
4454
330
4442
100
AcDbEntity
  8
CENTER L
100
AcDbLine
 10
260.0269886202678
 20
109.1340034688236
 30
0.0
 11
260.3540702145068
 21
109.1340034688236
 31
0.0
  0
INSERT
  5
4455
330
4442
100
AcDbEntity
  8
CENTER L
100
AcDbBlockReference
  2
_OPEN
 10
260.0269886202678
 20
109.1340034688236
 30
0.0
 41
3.0
 42
3.0
 43
3.0
  0
INSERT
  5
4456
330
4442
100
AcDbEntity
  8
CENTER L
100
AcDbBlockReference
  2
_OPEN
 10
260.3540702145068
 20
109.1340034688236
 30
0.0
 41
3.0
 42
3.0
 43
3.0
 50
180.0
  0
MTEXT
  5
4457
330
4442
100
AcDbEntity
  8
CENTER L
100
AcDbMText
 10
273.1040702145068
 20
111.6340034688236
 30
0.0
 40
3.0
 41
0.0
 71
     5
 72
     1
  1
\A1;0.327
 73
     1
 44
1.0
  0
POINT
  5
4458
330
4442
100
AcDbEntity
  8
DEFPOINTS
 62
     0
100
AcDbPoint
 10
260.0269886202678
 20
102.3570890585821
 30
0.0
  0
POINT
  5
4459
330
4442
100
AcDbEntity
  8
DEFPOINTS
 62
     0
100
AcDbPoint
 10
260.3540702145068
 20
102.3570890585821
 30
0.0
  0
POINT
  5
445A
330
4442
100
AcDbEntity
  8
DEFPOINTS
 62
     0
100
AcDbPoint
 10
260.3540702145068
 20
109.1340034688236
 30
0.0
  0
ENDBLK
  5
444F
330
4442
100
AcDbEntity
  8
0
100
AcDbBlockEnd
  0
ENDSEC
  0
SECTION
  2
ENTITIES
  0
LWPOLYLINE
  5
5EF
330
1A
100
AcDbEntity
  8
ZUWAKU
100
AcDbPolyline
 90
        4
 70
     1
 43
0.0
 10
5.928893922609403
 20
283.8625000000001
 10
5.928893922609403
 20
8.262500000000018
 10
404.5288939226093
 20
8.262500000000031
 10
404.5288939226096
 20
283.8625000000001
  0
LWPOLYLINE
  5
5F0
330
1A
100
AcDbEntity
  8
ZUWAKU
100
AcDbPolyline
 90
        4
 70
     1
 43
0.0
 10
6.128893922609392
 20
283.6625000000001
 10
6.128893922609392
 20
8.462500000000007
 10
404.3288939226094
 20
8.462500000000032
 10
404.3288939226094
 20
283.6625000000001
  0
LWPOLYLINE
  5
5F1
330
1A
100
AcDbEntity
  8
ZUWAKU
100
AcDbPolyline
 90
        4
 70
     1
 43
0.0
 10
5.828893922609437
 20
283.9625
 10
5.828893922609437
 20
8.162499999999997
 10
404.6288939226093
 20
8.162500000000031
 10
404.6288939226093
 20
283.9625000000001
  0
LWPOLYLINE
  5
5F2
330
1A
100
AcDbEntity
  8
ZUWAKU
100
AcDbPolyline
 90
        4
 70
     1
 43
0.0
 10
6.028893922609428
 20
283.7625
 10
6.028893922609428
 20
8.362500000000043
 10
404.4288939226095
 20
8.362500000000032
 10
404.4288939226095
 20
283.7625
  0
LWPOLYLINE
  5
5F3
330
1A
100
AcDbEntity
  8
ZUWAKU
100
AcDbPolyline
 90
        4
 70
     1
 43
0.0
 10
6.228893922609414
 20
283.5625000000001
 10
6.228893922609414
 20
8.56250000000003
 10
404.2288939226094
 20
8.56250000000003
 10
404.2288939226094
 20
283.5625000000001
  0
LINE
  5
2BA1
330
1A
100
AcDbEntity
  8
ZUWAKU
100
AcDbLine
 10
110.1521945676434
 20
15.76250000000001
 30
0.0
 11
229.5410759081051
 21
15.76250000000001
 31
0.0
  0
LINE
  5
2BA2
330
1A
100
AcDbEntity
  8
ZUWAKU
100
AcDbLine
 10
110.1521945676434
 20
15.96250000000001
 30
0.0
 11
229.5410759081051
 21
15.96250000000001
 31
0.0
  0
LINE
  5
2BA3
330
1A
100
AcDbEntity
  8
ZUWAKU
100
AcDbLine
 10
110.1521945676434
 20
15.86250000000001
 30
0.0
 11
229.5410759081051
 21
15.86250000000001
 31
0.0
  0
LINE
  5
2BA4
330
1A
100
AcDbEntity
  8
ZUWAKU
100
AcDbLine
 10
5.828893922609552
 20
23.56250000000001
 30
0.0
 11
404.5288939226093
 21
23.56250000000001
 31
0.0
  0
LINE
  5
2BA5
330
1A
100
AcDbEntity
  8
ZUWAKU
100
AcDbLine
 10
5.828893922609552
 20
23.4625
 30
0.0
 11
404.5288939226093
 21
23.4625
 31
0.0
  0
LINE
  5
2BA6
330
1A
100
AcDbEntity
  8
ZUWAKU
100
AcDbLine
 10
5.828893922609552
 20
23.3625
 30
0.0
 11
404.5288939226093
 21
23.3625
 31
0.0
  0
LINE
  5
2BA7
330
1A
100
AcDbEntity
  8
ZUWAKU
100
AcDbLine
 10
5.828893922609552
 20
23.2625
 30
0.0
 11
404.5288939226093
 21
23.2625
 31
0.0
  0
LINE
  5
2BA8
330
1A
100
AcDbEntity
  8
ZUWAKU
100
AcDbLine
 10
5.828893922609552
 20
23.1625
 30
0.0
 11
404.5288939226093
 21
23.1625
 31
0.0
  0
LINE
  5
2BB0
330
1A
100
AcDbEntity
  8
ZUWAKU
100
AcDbLine
 10
14.62500000000005
 20
18.3875
 30
0.0
 11
13.1375000000001
 21
18.3875
 31
0.0
  0
ARC
  5
2BB1
330
1A
100
AcDbEntity
  8
ZUWAKU
100
AcDbCircle
 10
13.75000000000005
 20
13.1375
 30
0.0
 40
1.399999999999999
100
AcDbArc
 50
270.0
 51
0.0
  0
INSERT
  5
2BB2
330
1A
100
AcDbEntity
  8
ZUWAKU
  6
Continuous
100
AcDbBlockReference
  2
*X1
 10
6.97476095716962
 20
5.108706858588674
 30
0.0
 41
0.5
 42
0.5
 43
0.5
1001
ACAD
1000
HATCH
1002
{
1070
    19
1000
ANSI37
1040
0.2
1040
0.0
1000
R14_HATCH_DATA
1000
4E4
1011
7.47476095716962
1021
5.108706858588674
1031
0.0
1011
6.97476095716962
1021
5.608706858588675
1031
0.0
1011
6.97476095716962
1021
5.108706858588674
1031
0.5
1040
0.0
1010
0.0
1020
0.0
1030
1.0
1000
ANSI37
1070
     0
1070
     0
1071
        8
1071
        7
1070
     1
1070
     1
1071
       24
1040
12.2105285919996
1040
23.75243476380623
1040
-0.1989123673796348
1040
11.80047808566087
1040
24.74238425746728
1040
0.0
1040
11.80047808566087
1040
26.03258628282266
1040
-0.4142135623730912
1040
12.32547808566085
1040
26.55758628282265
1040
0.0
1040
15.30047808566076
1040
26.55758628282265
1040
0.4142135623731546
1040
15.82547808566085
1040
27.08258628282264
1040
0.0
1040
15.82547808566085
1040
28.83258628282265
1040
0.4142135623731586
1040
15.30047808566076
1040
29.35758628282265
1040
0.0
1040
11.80047808566087
1040
29.35758628282265
1040
0.4142135623730928
1040
9.000478085660914
1040
26.55758628282268
1040
0.0
1040
9.000478085660914
1040
24.74238425746741
1040
0.1989123673796619
1040
10.23062960467735
1040
21.77253577648381
1040
0.0
1040
13.14042757932202
1040
18.86273780183914
1040
-0.1989123673796613
1040
13.55047808566087
1040
17.87278830817795
1040
0.0
1040
13.55047808566087
1040
16.58258628282264
1040
-0.4142135623730911
1040
13.02547808566089
1040
16.05758628282265
1040
0.0
1040
10.05047808566098
1040
16.05758628282265
1040
0.4142135623731526
1040
9.525478085660893
1040
15.53258628282266
1040
0.0
1040
9.525478085660893
1040
13.78258628282264
1040
0.4142135623731526
1040
10.05047808566098
1040
13.25758628282265
1040
0.0
1040
13.55047808566087
1040
13.25758628282265
1040
0.4142135623731045
1040
16.35047808566094
1040
16.05758628282262
1040
0.0
1040
16.35047808566094
1040
17.87278830817789
1040
0.1989123673796604
1040
15.12032656664439
1040
20.84263678916144
1040
0.0
1071
        0
1071
        7
1070
     1
1070
     1
1071
       16
1040
21.25047808566092
1040
25.15758628282266
1040
-0.4142135623730935
1040
22.65047808566089
1040
26.55758628282265
1040
0.0
1040
24.57547808566086
1040
26.55758628282265
1040
0.4142135623731546
1040
25.10047808566094
1040
27.08258628282264
1040
0.0
1040
25.10047808566094
1040
28.83258628282265
1040
0.4142135623730951
1040
24.57547808566096
1040
29.35758628282265
1040
0.0
1040
22.65047808566079
1040
29.35758628282261
1040
0.4142135623730893
1040
18.45047808566085
1040
25.15758628282259
1040
0.0
1040
18.45047808566085
1040
17.45758628282267
1040
0.4142135623730969
1040
22.65047808566089
1040
13.25758628282265
1040
0.0
1040
24.57547808566086
1040
13.25758628282265
1040
0.4142135623731526
1040
25.10047808566094
1040
13.78258628282264
1040
0.0
1040
25.10047808566094
1040
15.53258628282266
1040
0.4142135623730891
1040
24.57547808566096
1040
16.05758628282265
1040
0.0
1040
22.65047808566089
1040
16.05758628282265
1040
-0.4142135623730928
1040
21.25047808566092
1040
17.45758628282264
1040
0.0
1071
        0
1071
        7
1070
     1
1070
     1
1071
        2
1040
21.95047808566085
1040
21.30758628282265
1040
1.0
1040
25.45047808566085
1040
21.30758628282265
1040
1.0
1071
        0
1071
        7
1070
     1
1070
     1
1071
       26
1040
35.02312456783887
1040
25.31263347638608
1040
0.0
1040
36.08476420097668
1040
28.67449231465567
1040
0.5069206636600134
1040
35.58413330178132
1040
29.35758628282265
1040
0.0
1040
33.8852439221721
1040
29.35758628282265
1040
0.3272098845218764
1040
33.38461302297674
1040
28.99068025098963
1040
0.0
1040
31.51634314834496
1040
23.07449231465573
1040
-0.3272098845219541
1040
31.01571224914949
1040
22.70758628282265
1040
0.0
1040
30.87547808566103
1040
22.70758628282265
1040
-0.4142135623731526
1040
30.35047808566094
1040
23.23258628282263
1040
0.0
1040
30.35047808566094
1040
28.83258628282265
1040
0.4142135623730951
1040
29.82547808566096
1040
29.35758628282265
1040
0.0
1040
28.07547808566086
1040
29.35758628282265
1040
0.4142135623730871
1040
27.55047808566088
1040
28.83258628282267
1040
0.0
1040
27.55047808566088
1040
13.78258628282264
1040
0.4142135623730891
1040
28.07547808566086
1040
13.25758628282265
1040
0.0
1040
29.82547808566085
1040
13.25758628282265
1040
0.4142135623731526
1040
30.35047808566094
1040
13.78258628282264
1040
0.0
1040
30.35047808566094
1040
19.38258628282266
1040
-0.4142135623731526
1040
30.87547808566103
1040
19.90758628282265
1040
0.0
1040
31.01571224914961
1040
19.90758628282265
1040
-0.3272098845218915
1040
31.51634314834496
1040
19.54068025098957
1040
0.0
1040
33.38461302297674
1040
13.62449231465572
1040
0.3272098845218902
1040
33.8852439221721
1040
13.25758628282265
1040
0.0
1040
35.58413330178132
1040
13.25758628282265
1040
0.5069206636600336
1040
36.08476420097668
1040
13.94068025098966
1040
0.0
1040
33.75837282250302
1040
21.30758628282279
1040
0.0
1071
        0
1071
        7
1070
     1
1070
     1
1071
        8
1040
41.20047808566083
1040
28.83258628282266
1040
0.4142135623731546
1040
40.67547808566074
1040
29.35758628282265
1040
0.0
1040
38.92547808566098
1040
29.35758628282265
1040
0.4142135623731507
1040
38.40047808566089
1040
28.83258628282267
1040
0.0
1040
38.40047808566089
1040
13.78258628282264
1040
0.4142135623731526
1040
38.92547808566098
1040
13.25758628282265
1040
0.0
1040
40.67547808566074
1040
13.25758628282265
1040
0.4142135623731526
1040
41.20047808566083
1040
13.78258628282264
1040
0.0
1071
        0
1071
        7
1070
     1
1070
     1
1071
       24
1040
46.10047808566092
1040
26.03258628282266
1040
-0.4142135623731546
1040
46.62547808566102
1040
26.55758628282265
1040
0.0
1040
49.60047808566093
1040
26.55758628282265
1040
0.4142135623730911
1040
50.12547808566091
1040
27.08258628282264
1040
0.0
1040
50.12547808566091
1040
28.83258628282265
1040
0.4142135623730952
1040
49.60047808566093
1040
29.35758628282265
1040
0.0
1040
46.10047808566092
1040
29.35758628282265
1040
0.4142135623731048
1040
43.30047808566087
1040
26.55758628282268
1040
0.0
1040
43.30047808566087
1040
24.74238425746741
1040
0.1989123673796613
1040
44.5306296046774
1040
21.77253577648386
1040
0.0
1040
47.44042757932208
1040
18.86273780183919
1040
-0.1989123673796402
1040
47.85047808566093
1040
17.87278830817811
1040
0.0
1040
47.85047808566093
1040
16.58258628282264
1040
-0.4142135623730911
1040
47.32547808566096
1040
16.05758628282265
1040
0.0
1040
44.35047808566093
1040
16.05758628282265
1040
0.4142135623731526
1040
43.82547808566084
1040
15.53258628282266
1040
0.0
1040
43.82547808566084
1040
13.78258628282264
1040
0.4142135623730891
1040
44.35047808566081
1040
13.25758628282265
1040
0.0
1040
47.85047808566093
1040
13.25758628282265
1040
0.4142135623730925
1040
50.65047808566088
1040
16.05758628282262
1040
0.0
1040
50.65047808566088
1040
17.87278830817789
1040
0.1989123673796675
1040
49.42032656664435
1040
20.84263678916155
1040
0.0
1040
46.51052859199977
1040
23.75243476380607
1040
-0.1989123673796652
1040
46.10047808566092
1040
24.74238425746724
1040
0.0
1071
        0
1071
        7
1070
     1
1070
     1
1071
       16
1040
55.55047808566087
1040
28.83258628282264
1040
0.414213562373103
1040
55.02547808566088
1040
29.35758628282265
1040
0.0
1040
53.27547808566088
1040
29.35758628282265
1040
0.4142135623730871
1040
52.75047808566093
1040
28.83258628282267
1040
0.0
1040
52.75047808566093
1040
16.05758628282262
1040
0.4142135623730927
1040
55.55047808566087
1040
13.25758628282265
1040
0.0
1040
59.05047808566087
1040
13.25758628282265
1040
0.4142135623731045
1040
61.85047808566093
1040
16.05758628282262
1040
0.0
1040
61.85047808566093
1040
28.83258628282265
1040
0.4142135623730951
1040
61.32547808566096
1040
29.35758628282265
1040
0.0
1040
59.57547808566085
1040
29.35758628282265
1040
0.4142135623730871
1040
59.05047808566087
1040
28.83258628282267
1040
0.0
1040
59.05047808566087
1040
17.10758628282262
1040
-0.4142135623730879
1040
58.00047808566091
1040
16.05758628282265
1040
0.0
1040
56.60047808566093
1040
16.05758628282265
1040
-0.4142135623731197
1040
55.55047808566087
1040
17.10758628282262
1040
0.0
1071
        0
1071
        7
1070
     1
1070
     1
1071
        8
1040
66.7504780856609
1040
28.83258628282267
1040
0.4142135623730871
1040
66.22547808566094
1040
29.35758628282265
1040
0.0
1040
64.47547808566094
1040
29.35758628282265
1040
0.4142135623731507
1040
63.95047808566085
1040
28.83258628282267
1040
0.0
1040
63.95047808566085
1040
13.78258628282264
1040
0.4142135623730891
1040
64.47547808566082
1040
13.25758628282265
1040
0.0
1040
66.22547808566094
1040
13.25758628282265
1040
0.4142135623730891
1040
66.7504780856609
1040
13.78258628282264
1040
0.0
1071
        0
1070
     0
1070
     1
1040
0.0
1040
0.2
1070
     0
1070
     2
1040
0.7853981633974483
1040
-903.2340384037993
1040
-7.092413717177286
1040
-0.4490128060534576
1040
0.4490128060534577
1070
     0
1040
2.356194490192344
1040
-903.2340384037993
1040
-7.092413717177286
1040
-0.4490128060534577
1040
-0.4490128060534576
1070
     0
1040
0.057451373970553
1071
        8
1040
13.78812089390305
1040
21.2747599287082
1040
0.0
1040
20.11278093731892
1040
24.95164846527366
1040
0.0
1040
22.87263381653941
1040
21.61946792889336
1040
0.0
1040
28.62232591251689
1040
22.30888392926415
1040
0.0
1040
39.54673794983648
1040
22.76849619680576
1040
0.0
1040
44.6064668260093
1040
25.52616259922986
1040
0.0
1040
54.2659519032801
1040
24.83674419791766
1040
0.0
1040
65.53534555050247
1040
25.29635646545928
1040
0.0
1002
}
  0
LINE
  5
2BB3
330
1A
100
AcDbEntity
  8
ZUWAKU
100
AcDbLine
 10
12.87500000000006
 20
19.7875
 30
0.0
 11
14.62500000000005
 21
19.7875
 31
0.0
  0
LINE
  5
2BB4
330
1A
100
AcDbEntity
  8
ZUWAKU
100
AcDbLine
 10
14.53492424049187
 20
15.53002525316941
 30
0.0
 11
13.08002525316948
 21
16.98492424049175
 31
0.0
  0
ARC
  5
2BB5
330
1A
100
AcDbEntity
  8
ZUWAKU
100
AcDbCircle
 10
13.5750000000001
 20
17.47989898732235
 30
0.0
 40
2.099999999999999
100
AcDbArc
 50
180.0
 51
224.9999999999996
  0
ARC
  5
2BB6
330
1A
100
AcDbEntity
  8
ZUWAKU
100
AcDbCircle
 10
13.05000000000001
 20
14.04510101267767
 30
0.0
 40
0.7
100
AcDbArc
 50
0.0
 51
44.99999999999954
  0
LINE
  5
2BB7
330
1A
100
AcDbEntity
  8
ZUWAKU
100
AcDbLine
 10
13.75000000000005
 20
13.4
 30
0.0
 11
13.75000000000005
 21
14.04510101267767
 31
0.0
  0
ARC
  5
2BB8
330
1A
100
AcDbEntity
  8
ZUWAKU
100
AcDbCircle
 10
13.48750000000001
 20
13.4
 30
0.0
 40
0.2625
100
AcDbArc
 50
270.0
 51
0.0
  0
LINE
  5
2BB9
330
1A
100
AcDbEntity
  8
ZUWAKU
100
AcDbLine
 10
11.73750000000001
 20
12.0
 30
0.0
 11
11.73750000000001
 21
12.875
 31
0.0
  0
ARC
  5
2BBA
330
1A
100
AcDbEntity
  8
ZUWAKU
100
AcDbCircle
 10
12.00000000000005
 20
12.0
 30
0.0
 40
0.2625
100
AcDbArc
 50
180.0
 51
270.0
  0
ARC
  5
2BBB
330
1A
100
AcDbEntity
  8
ZUWAKU
100
AcDbCircle
 10
12.00000000000005
 20
12.875
 30
0.0
 40
0.2625
100
AcDbArc
 50
90.0
 51
180.0
  0
LINE
  5
2BBC
330
1A
100
AcDbEntity
  8
ZUWAKU
100
AcDbLine
 10
12.00000000000005
 20
11.7375
 30
0.0
 11
13.75000000000005
 21
11.7375
 31
0.0
  0
LINE
  5
2BBD
330
1A
100
AcDbEntity
  8
ZUWAKU
100
AcDbLine
 10
12.00000000000005
 20
13.1375
 30
0.0
 11
13.48750000000001
 21
13.1375
 31
0.0
  0
LINE
  5
2BBE
330
1A
100
AcDbEntity
  8
ZUWAKU
100
AcDbLine
 10
12.09007575950824
 20
15.99497474683059
 30
0.0
 11
13.54497474683063
 21
14.54007575950826
 31
0.0
  0
LINE
  5
2BBF
330
1A
100
AcDbEntity
  8
ZUWAKU
100
AcDbLine
 10
12.87500000000006
 20
18.125
 30
0.0
 11
12.87500000000006
 21
17.47989898732233
 31
0.0
  0
LINE
  5
2BC0
330
1A
100
AcDbEntity
  8
ZUWAKU
100
AcDbLine
 10
11.47500000000008
 20
18.3875
 30
0.0
 11
11.47500000000008
 21
17.47989898732233
 31
0.0
  0
ARC
  5
2BC1
330
1A
100
AcDbEntity
  8
ZUWAKU
100
AcDbCircle
 10
12.87500000000006
 20
18.3875
 30
0.0
 40
1.399999999999999
100
AcDbArc
 50
90.0
 51
180.0
  0
ARC
  5
2BC2
330
1A
100
AcDbEntity
  8
ZUWAKU
100
AcDbCircle
 10
13.5750000000001
 20
17.47989898732235
 30
0.0
 40
0.7
100
AcDbArc
 50
180.0000000000016
 51
224.9999999999994
  0
ARC
  5
2BC3
330
1A
100
AcDbEntity
  8
ZUWAKU
100
AcDbCircle
 10
13.1375000000001
 20
18.125
 30
0.0
 40
0.2625
100
AcDbArc
 50
90.0
 51
180.0
  0
LINE
  5
2BC4
330
1A
100
AcDbEntity
  8
ZUWAKU
100
AcDbLine
 10
45.49220869660353
 20
23.1625
 30
0.0
 11
45.49220869660375
 21
8.56250000000003
 31
0.0
  0
LINE
  5
2BC5
330
1A
100
AcDbEntity
  8
ZUWAKU
100
AcDbLine
 10
45.59220869660367
 20
23.1625
 30
0.0
 11
45.59220869660367
 21
8.56250000000003
 31
0.0
  0
LINE
  5
2BC6
330
1A
100
AcDbEntity
  8
ZUWAKU
100
AcDbLine
 10
45.39220869660363
 20
23.1625
 30
0.0
 11
45.39220869660363
 21
8.56250000000003
 31
0.0
  0
LINE
  5
2BC7
330
1A
100
AcDbEntity
  8
ZUWAKU
100
AcDbLine
 10
30.02500000000015
 20
19.7875
 30
0.0
 11
31.77500000000015
 21
19.7875
 31
0.0
  0
LINE
  5
2BC8
330
1A
100
AcDbEntity
  8
ZUWAKU
100
AcDbLine
 10
31.77500000000015
 20
18.3875
 30
0.0
 11
30.2875000000002
 21
18.3875
 31
0.0
  0
LINE
  5
2BC9
330
1A
100
AcDbEntity
  8
ZUWAKU
100
AcDbLine
 10
31.68492424049174
 20
15.53002525316941
 30
0.0
 11
30.23002525316935
 21
16.98492424049175
 31
0.0
  0
LINE
  5
2BCA
330
1A
100
AcDbEntity
  8
ZUWAKU
100
AcDbLine
 10
29.15000000000015
 20
13.1375
 30
0.0
 11
30.6375000000001
 21
13.1375
 31
0.0
  0
LINE
  5
2BCB
330
1A
100
AcDbEntity
  8
ZUWAKU
100
AcDbLine
 10
29.15000000000015
 20
11.7375
 30
0.0
 11
30.90000000000015
 21
11.7375
 31
0.0
  0
LINE
  5
2BCC
330
1A
100
AcDbEntity
  8
ZUWAKU
100
AcDbLine
 10
29.24007575950833
 20
15.99497474683059
 30
0.0
 11
30.69497474683072
 21
14.54007575950826
 31
0.0
  0
ARC
  5
2BCD
330
1A
100
AcDbEntity
  8
ZUWAKU
100
AcDbCircle
 10
21.8875000000001
 20
19.525
 30
0.0
 40
0.2625
100
AcDbArc
 50
0.0
 51
90.0
  0
ARC
  5
2BCE
330
1A
100
AcDbEntity
  8
ZUWAKU
100
AcDbCircle
 10
22.41250000000019
 20
16.725
 30
0.0
 40
0.2625
100
AcDbArc
 50
180.0
 51
270.0
  0
ARC
  5
2BCF
330
1A
100
AcDbEntity
  8
ZUWAKU
100
AcDbCircle
 10
21.8875000000001
 20
12.0
 30
0.0
 40
0.2625
100
AcDbArc
 50
270.0
 51
0.0
  0
ARC
  5
2BD0
330
1A
100
AcDbEntity
  8
ZUWAKU
100
AcDbCircle
 10
22.41250000000019
 20
14.8
 30
0.0
 40
0.2625
100
AcDbArc
 50
90.0
 51
180.0
  0
CIRCLE
  5
2BD1
330
1A
100
AcDbEntity
  8
ZUWAKU
100
AcDbCircle
 10
18.8250000000001
 20
15.7625
 30
0.0
 40
0.875
  0
LINE
  5
2BD2
330
1A
100
AcDbEntity
  8
ZUWAKU
100
AcDbLine
 10
17.60000000000008
 20
17.6875
 30
0.0
 11
17.60000000000008
 21
13.8375
 31
0.0
  0
LINE
  5
2BD3
330
1A
100
AcDbEntity
  8
ZUWAKU
100
AcDbLine
 10
16.2000000000001
 20
13.8375
 30
0.0
 11
16.2000000000001
 21
17.68749999999998
 31
0.0
  0
LINE
  5
2BD4
330
1A
100
AcDbEntity
  8
ZUWAKU
100
AcDbLine
 10
20.75000000000006
 20
19.525
 30
0.0
 11
20.75000000000006
 21
12.0
 31
0.0
  0
ARC
  5
2BD5
330
1A
100
AcDbEntity
  8
ZUWAKU
100
AcDbCircle
 10
18.30000000000001
 20
13.8375
 30
0.0
 40
0.7
100
AcDbArc
 50
180.0
 51
270.0
  0
ARC
  5
2BD6
330
1A
100
AcDbEntity
  8
ZUWAKU
100
AcDbCircle
 10
18.30000000000001
 20
13.8375
 30
0.0
 40
2.099999999999999
100
AcDbArc
 50
180.0
 51
270.0
  0
LINE
  5
2BD7
330
1A
100
AcDbEntity
  8
ZUWAKU
100
AcDbLine
 10
15.15000000000014
 20
13.1375
 30
0.0
 11
15.15000000000014
 21
14.04510101267767
 31
0.0
  0
ARC
  5
2BD8
330
1A
100
AcDbEntity
  8
ZUWAKU
100
AcDbCircle
 10
13.05000000000001
 20
14.04510101267765
 30
0.0
 40
2.099999999999999
100
AcDbArc
 50
0.0
 51
44.99999999999954
  0
LINE
  5
2BD9
330
1A
100
AcDbEntity
  8
ZUWAKU
100
AcDbLine
 10
18.30000000000001
 20
13.1375
 30
0.0
 11
19.2625000000001
 21
13.1375
 31
0.0
  0
LINE
  5
2BDA
330
1A
100
AcDbEntity
  8
ZUWAKU
100
AcDbLine
 10
19.2625000000001
 20
11.7375
 30
0.0
 11
18.30000000000001
 21
11.7375
 31
0.0
  0
LINE
  5
2BDB
330
1A
100
AcDbEntity
  8
ZUWAKU
100
AcDbLine
 10
19.52500000000014
 20
12.875
 30
0.0
 11
19.52500000000014
 21
12.0
 31
0.0
  0
ARC
  5
2BDC
330
1A
100
AcDbEntity
  8
ZUWAKU
100
AcDbCircle
 10
19.2625000000001
 20
12.0
 30
0.0
 40
0.2625
100
AcDbArc
 50
270.0
 51
0.0
  0
ARC
  5
2BDD
330
1A
100
AcDbEntity
  8
ZUWAKU
100
AcDbCircle
 10
19.2625000000001
 20
12.875
 30
0.0
 40
0.2625
100
AcDbArc
 50
0.0
 51
90.0
  0
ARC
  5
2BDE
330
1A
100
AcDbEntity
  8
ZUWAKU
100
AcDbCircle
 10
21.0125000000001
 20
12.0
 30
0.0
 40
0.2625
100
AcDbArc
 50
180.0
 51
270.0
  0
LINE
  5
2BDF
330
1A
100
AcDbEntity
  8
ZUWAKU
100
AcDbLine
 10
21.0125000000001
 20
11.7375
 30
0.0
 11
21.8875000000001
 21
11.7375
 31
0.0
  0
ARC
  5
2BE0
330
1A
100
AcDbEntity
  8
ZUWAKU
100
AcDbCircle
 10
18.30000000000001
 20
17.6875
 30
0.0
 40
0.7
100
AcDbArc
 50
90.0
 51
180.0
  0
ARC
  5
2BE1
330
1A
100
AcDbEntity
  8
ZUWAKU
100
AcDbCircle
 10
18.30000000000001
 20
17.68749999999998
 30
0.0
 40
2.099999999999999
100
AcDbArc
 50
90.0
 51
180.0
  0
ARC
  5
2BE2
330
1A
100
AcDbEntity
  8
ZUWAKU
100
AcDbCircle
 10
14.62500000000005
 20
19.525
 30
0.0
 40
0.2625
100
AcDbArc
 50
0.0
 51
90.0
  0
ARC
  5
2BE3
330
1A
100
AcDbEntity
  8
ZUWAKU
100
AcDbCircle
 10
14.62500000000005
 20
18.65
 30
0.0
 40
0.2625
100
AcDbArc
 50
270.0
 51
0.0
  0
LINE
  5
2BE4
330
1A
100
AcDbEntity
  8
ZUWAKU
100
AcDbLine
 10
14.8875000000001
 20
19.525
 30
0.0
 11
14.8875000000001
 21
18.65
 31
0.0
  0
LINE
  5
2BE5
330
1A
100
AcDbEntity
  8
ZUWAKU
100
AcDbLine
 10
18.30000000000001
 20
19.78749999999998
 30
0.0
 11
19.2625000000001
 21
19.7875
 31
0.0
  0
LINE
  5
2BE6
330
1A
100
AcDbEntity
  8
ZUWAKU
100
AcDbLine
 10
19.2625000000001
 20
18.3875
 30
0.0
 11
18.30000000000001
 21
18.3875
 31
0.0
  0
ARC
  5
2BE7
330
1A
100
AcDbEntity
  8
ZUWAKU
100
AcDbCircle
 10
19.2625000000001
 20
19.525
 30
0.0
 40
0.2625
100
AcDbArc
 50
0.0
 51
90.0
  0
ARC
  5
2BE8
330
1A
100
AcDbEntity
  8
ZUWAKU
100
AcDbCircle
 10
21.0125000000001
 20
19.525
 30
0.0
 40
0.2625
100
AcDbArc
 50
90.0
 51
180.0
  0
ARC
  5
2BE9
330
1A
100
AcDbEntity
  8
ZUWAKU
100
AcDbCircle
 10
19.2625000000001
 20
18.65
 30
0.0
 40
0.2625
100
AcDbArc
 50
270.0
 51
0.0
  0
LINE
  5
2BEA
330
1A
100
AcDbEntity
  8
ZUWAKU
100
AcDbLine
 10
19.52500000000014
 20
19.525
 30
0.0
 11
19.52500000000014
 21
18.65
 31
0.0
  0
LINE
  5
2BEB
330
1A
100
AcDbEntity
  8
ZUWAKU
100
AcDbLine
 10
21.8875000000001
 20
19.7875
 30
0.0
 11
21.0125000000001
 21
19.7875
 31
0.0
  0
ARC
  5
2BEC
330
1A
100
AcDbEntity
  8
ZUWAKU
100
AcDbCircle
 10
30.72500000000019
 20
17.47989898732235
 30
0.0
 40
2.099999999999999
100
AcDbArc
 50
180.0
 51
224.9999999999996
  0
LINE
  5
2BED
330
1A
100
AcDbEntity
  8
ZUWAKU
100
AcDbLine
 10
24.486323241089
 20
17.76502359678171
 30
0.0
 11
23.85394736842119
 21
15.76250000000001
 31
0.0
  0
LINE
  5
2BEE
330
1A
100
AcDbEntity
  8
ZUWAKU
100
AcDbLine
 10
26.17500000000001
 20
19.525
 30
0.0
 11
26.17500000000001
 21
12.0
 31
0.0
  0
LINE
  5
2BEF
330
1A
100
AcDbEntity
  8
ZUWAKU
100
AcDbLine
 10
27.5750000000001
 20
12.0
 30
0.0
 11
27.5750000000001
 21
19.525
 31
0.0
  0
ARC
  5
2BF0
330
1A
100
AcDbEntity
  8
ZUWAKU
100
AcDbCircle
 10
26.43750000000006
 20
12.0
 30
0.0
 40
0.2625
100
AcDbArc
 50
180.0
 51
270.0
  0
LINE
  5
2BF1
330
1A
100
AcDbEntity
  8
ZUWAKU
100
AcDbLine
 10
22.15000000000015
 20
12.0
 30
0.0
 11
22.15000000000015
 21
14.8
 31
0.0
  0
LINE
  5
2BF2
330
1A
100
AcDbEntity
  8
ZUWAKU
100
AcDbLine
 10
23.66706746865799
 20
11.92095301591651
 30
0.0
 11
22.73293253134199
 21
14.87904698408348
 31
0.0
  0
LINE
  5
2BF3
330
1A
100
AcDbEntity
  8
ZUWAKU
100
AcDbLine
 10
23.91738291825578
 20
11.7375
 30
0.0
 11
24.76682760806018
 21
11.7375
 31
0.0
  0
ARC
  5
2BF4
330
1A
100
AcDbEntity
  8
ZUWAKU
100
AcDbCircle
 10
24.76682760806018
 20
12.0
 30
0.0
 40
0.2625
100
AcDbArc
 50
270.0
 51
17.52556837372243
  0
ARC
  5
2BF5
330
1A
100
AcDbEntity
  8
ZUWAKU
100
AcDbCircle
 10
23.91738291825578
 20
12.0
 30
0.0
 40
0.2625
100
AcDbArc
 50
197.5255683737224
 51
270.0
  0
LINE
  5
2BF6
330
1A
100
AcDbEntity
  8
ZUWAKU
100
AcDbLine
 10
22.41250000000019
 20
15.0625
 30
0.0
 11
22.48261708174442
 21
15.0625
 31
0.0
  0
LINE
  5
2BF7
330
1A
100
AcDbEntity
  8
ZUWAKU
100
AcDbLine
 10
25.01714305765796
 20
12.07904698408349
 30
0.0
 11
23.85394736842119
 21
15.76250000000001
 31
0.0
  0
ARC
  5
2BF8
330
1A
100
AcDbEntity
  8
ZUWAKU
100
AcDbCircle
 10
22.48261708174442
 20
14.8
 30
0.0
 40
0.2625
100
AcDbArc
 50
17.52556837372243
 51
90.0
  0
LINE
  5
2BF9
330
1A
100
AcDbEntity
  8
ZUWAKU
100
AcDbLine
 10
26.43750000000006
 20
11.7375
 30
0.0
 11
27.31250000000006
 21
11.7375
 31
0.0
  0
LINE
  5
2BFA
330
1A
100
AcDbEntity
  8
ZUWAKU
100
AcDbLine
 10
28.8875000000001
 20
12.0
 30
0.0
 11
28.8875000000001
 21
12.875
 31
0.0
  0
ARC
  5
2BFB
330
1A
100
AcDbEntity
  8
ZUWAKU
100
AcDbCircle
 10
29.15000000000015
 20
12.0
 30
0.0
 40
0.2625
100
AcDbArc
 50
180.0
 51
270.0
  0
ARC
  5
2BFC
330
1A
100
AcDbEntity
  8
ZUWAKU
100
AcDbCircle
 10
27.31250000000006
 20
12.0
 30
0.0
 40
0.2625
100
AcDbArc
 50
270.0
 51
0.0
  0
ARC
  5
2BFD
330
1A
100
AcDbEntity
  8
ZUWAKU
100
AcDbCircle
 10
29.15000000000015
 20
12.875
 30
0.0
 40
0.2625
100
AcDbArc
 50
90.0
 51
180.0
  0
ARC
  5
2BFE
330
1A
100
AcDbEntity
  8
ZUWAKU
100
AcDbCircle
 10
26.43750000000006
 20
19.525
 30
0.0
 40
0.2625
100
AcDbArc
 50
90.0
 51
180.0
  0
LINE
  5
2BFF
330
1A
100
AcDbEntity
  8
ZUWAKU
100
AcDbLine
 10
23.66706746865799
 20
19.60404698408348
 30
0.0
 11
22.73293253134199
 21
16.64595301591651
 31
0.0
  0
ARC
  5
2C00
330
1A
100
AcDbEntity
  8
ZUWAKU
100
AcDbCircle
 10
22.48261708174442
 20
16.725
 30
0.0
 40
0.2625
100
AcDbArc
 50
270.0
 51
342.4744316262775
  0
LINE
  5
2C01
330
1A
100
AcDbEntity
  8
ZUWAKU
100
AcDbLine
 10
22.48261708174442
 20
16.4625
 30
0.0
 11
22.41250000000019
 21
16.4625
 31
0.0
  0
LINE
  5
2C02
330
1A
100
AcDbEntity
  8
ZUWAKU
100
AcDbLine
 10
22.15000000000015
 20
16.725
 30
0.0
 11
22.15000000000015
 21
19.525
 31
0.0
  0
LINE
  5
2C03
330
1A
100
AcDbEntity
  8
ZUWAKU
100
AcDbLine
 10
23.91738291825578
 20
19.7875
 30
0.0
 11
24.76682760806018
 21
19.7875
 31
0.0
  0
ARC
  5
2C04
330
1A
100
AcDbEntity
  8
ZUWAKU
100
AcDbCircle
 10
24.76682760806018
 20
19.525
 30
0.0
 40
0.2625
100
AcDbArc
 50
342.4744316262775
 51
90.0
  0
LINE
  5
2C05
330
1A
100
AcDbEntity
  8
ZUWAKU
100
AcDbLine
 10
25.01714305765796
 20
19.44595301591651
 30
0.0
 11
24.486323241089
 21
17.76502359678171
 31
0.0
  0
ARC
  5
2C06
330
1A
100
AcDbEntity
  8
ZUWAKU
100
AcDbCircle
 10
23.91738291825578
 20
19.525
 30
0.0
 40
0.2625
100
AcDbArc
 50
90.0
 51
162.4744316262774
  0
ARC
  5
2C07
330
1A
100
AcDbEntity
  8
ZUWAKU
100
AcDbCircle
 10
30.2875000000002
 20
18.125
 30
0.0
 40
0.2625
100
AcDbArc
 50
90.0
 51
180.0
  0
LINE
  5
2C08
330
1A
100
AcDbEntity
  8
ZUWAKU
100
AcDbLine
 10
30.02500000000015
 20
18.125
 30
0.0
 11
30.02500000000015
 21
17.47989898732233
 31
0.0
  0
ARC
  5
2C09
330
1A
100
AcDbEntity
  8
ZUWAKU
100
AcDbCircle
 10
30.72500000000019
 20
17.47989898732235
 30
0.0
 40
0.7
100
AcDbArc
 50
180.0000000000016
 51
224.9999999999994
  0
LINE
  5
2C0A
330
1A
100
AcDbEntity
  8
ZUWAKU
100
AcDbLine
 10
27.31250000000006
 20
19.7875
 30
0.0
 11
26.43750000000006
 21
19.7875
 31
0.0
  0
ARC
  5
2C0B
330
1A
100
AcDbEntity
  8
ZUWAKU
100
AcDbCircle
 10
27.31250000000006
 20
19.525
 30
0.0
 40
0.2625
100
AcDbArc
 50
0.0
 51
90.0
  0
LINE
  5
2C0C
330
1A
100
AcDbEntity
  8
ZUWAKU
100
AcDbLine
 10
28.62500000000006
 20
18.3875
 30
0.0
 11
28.62500000000006
 21
17.47989898732233
 31
0.0
  0
ARC
  5
2C0D
330
1A
100
AcDbEntity
  8
ZUWAKU
100
AcDbCircle
 10
30.02500000000015
 20
18.3875
 30
0.0
 40
1.399999999999999
100
AcDbArc
 50
90.0
 51
180.0
  0
LINE
  5
2C0E
330
1A
100
AcDbEntity
  8
ZUWAKU
100
AcDbLine
 10
37.90000000000015
 20
13.1375
 30
0.0
 11
37.90000000000015
 21
19.525
 31
0.0
  0
LINE
  5
2C0F
330
1A
100
AcDbEntity
  8
ZUWAKU
100
AcDbLine
 10
36.50000000000007
 20
19.525
 30
0.0
 11
36.50000000000007
 21
13.6625
 31
0.0
  0
LINE
  5
2C10
330
1A
100
AcDbEntity
  8
ZUWAKU
100
AcDbLine
 10
33.35000000000019
 20
19.525
 30
0.0
 11
33.35000000000019
 21
13.1375
 31
0.0
  0
LINE
  5
2C11
330
1A
100
AcDbEntity
  8
ZUWAKU
100
AcDbLine
 10
34.75000000000006
 20
13.6625
 30
0.0
 11
34.75000000000006
 21
19.525
 31
0.0
  0
ARC
  5
2C12
330
1A
100
AcDbEntity
  8
ZUWAKU
100
AcDbCircle
 10
34.75000000000006
 20
13.1375
 30
0.0
 40
1.399999999999999
100
AcDbArc
 50
180.0
 51
270.0
  0
ARC
  5
2C13
330
1A
100
AcDbEntity
  8
ZUWAKU
100
AcDbCircle
 10
30.2000000000001
 20
14.04510101267767
 30
0.0
 40
0.7
100
AcDbArc
 50
0.0
 51
44.99999999999954
  0
ARC
  5
2C14
330
1A
100
AcDbEntity
  8
ZUWAKU
100
AcDbCircle
 10
30.90000000000015
 20
13.1375
 30
0.0
 40
1.399999999999999
100
AcDbArc
 50
270.0
 51
0.0
  0
LINE
  5
2C15
330
1A
100
AcDbEntity
  8
ZUWAKU
100
AcDbLine
 10
30.90000000000015
 20
13.4
 30
0.0
 11
30.90000000000015
 21
14.04510101267767
 31
0.0
  0
ARC
  5
2C16
330
1A
100
AcDbEntity
  8
ZUWAKU
100
AcDbCircle
 10
30.6375000000001
 20
13.4
 30
0.0
 40
0.2625
100
AcDbArc
 50
270.0
 51
0.0
  0
LINE
  5
2C17
330
1A
100
AcDbEntity
  8
ZUWAKU
100
AcDbLine
 10
32.30000000000001
 20
13.1375
 30
0.0
 11
32.30000000000001
 21
14.04510101267767
 31
0.0
  0
ARC
  5
2C18
330
1A
100
AcDbEntity
  8
ZUWAKU
100
AcDbCircle
 10
30.2000000000001
 20
14.04510101267765
 30
0.0
 40
2.099999999999999
100
AcDbArc
 50
0.0
 51
44.99999999999954
  0
LINE
  5
2C19
330
1A
100
AcDbEntity
  8
ZUWAKU
100
AcDbLine
 10
35.97500000000021
 20
13.1375
 30
0.0
 11
35.27500000000015
 21
13.1375
 31
0.0
  0
LINE
  5
2C1A
330
1A
100
AcDbEntity
  8
ZUWAKU
100
AcDbLine
 10
34.75000000000006
 20
11.7375
 30
0.0
 11
36.50000000000007
 21
11.7375
 31
0.0
  0
ARC
  5
2C1B
330
1A
100
AcDbEntity
  8
ZUWAKU
100
AcDbCircle
 10
35.27500000000015
 20
13.6625
 30
0.0
 40
0.525
100
AcDbArc
 50
180.0
 51
270.0
  0
ARC
  5
2C1C
330
1A
100
AcDbEntity
  8
ZUWAKU
100
AcDbCircle
 10
35.97500000000021
 20
13.6625
 30
0.0
 40
0.525
100
AcDbArc
 50
270.0
 51
0.0
  0
ARC
  5
2C1D
330
1A
100
AcDbEntity
  8
ZUWAKU
100
AcDbCircle
 10
36.50000000000007
 20
13.1375
 30
0.0
 40
1.399999999999999
100
AcDbArc
 50
270.0
 51
0.0
  0
LINE
  5
2C1E
330
1A
100
AcDbEntity
  8
ZUWAKU
100
AcDbLine
 10
34.48750000000001
 20
19.7875
 30
0.0
 11
33.61250000000001
 21
19.7875
 31
0.0
  0
ARC
  5
2C1F
330
1A
100
AcDbEntity
  8
ZUWAKU
100
AcDbCircle
 10
33.61250000000001
 20
19.525
 30
0.0
 40
0.2625
100
AcDbArc
 50
90.0
 51
180.0
  0
ARC
  5
2C20
330
1A
100
AcDbEntity
  8
ZUWAKU
100
AcDbCircle
 10
31.77500000000015
 20
19.525
 30
0.0
 40
0.2625
100
AcDbArc
 50
0.0
 51
90.0
  0
ARC
  5
2C21
330
1A
100
AcDbEntity
  8
ZUWAKU
100
AcDbCircle
 10
31.77500000000015
 20
18.65
 30
0.0
 40
0.2625
100
AcDbArc
 50
270.0
 51
0.0
  0
LINE
  5
2C22
330
1A
100
AcDbEntity
  8
ZUWAKU
100
AcDbLine
 10
32.03750000000019
 20
19.525
 30
0.0
 11
32.03750000000019
 21
18.65
 31
0.0
  0
ARC
  5
2C23
330
1A
100
AcDbEntity
  8
ZUWAKU
100
AcDbCircle
 10
34.48750000000001
 20
19.525
 30
0.0
 40
0.2625
100
AcDbArc
 50
0.0
 51
90.0
  0
LINE
  5
2C24
330
1A
100
AcDbEntity
  8
ZUWAKU
100
AcDbLine
 10
37.63750000000011
 20
19.7875
 30
0.0
 11
36.7625000000001
 21
19.7875
 31
0.0
  0
ARC
  5
2C25
330
1A
100
AcDbEntity
  8
ZUWAKU
100
AcDbCircle
 10
36.7625000000001
 20
19.525
 30
0.0
 40
0.2625
100
AcDbArc
 50
90.0
 51
180.0
  0
ARC
  5
2C26
330
1A
100
AcDbEntity
  8
ZUWAKU
100
AcDbCircle
 10
37.63750000000011
 20
19.525
 30
0.0
 40
0.2625
100
AcDbArc
 50
0.0
 51
90.0
  0
LINE
  5
2C27
330
1A
100
AcDbEntity
  8
ZUWAKU
100
AcDbLine
 10
40.35000000000018
 20
12.0
 30
0.0
 11
40.35000000000018
 21
19.525
 31
0.0
  0
LINE
  5
2C28
330
1A
100
AcDbEntity
  8
ZUWAKU
100
AcDbLine
 10
38.9500000000001
 20
19.525
 30
0.0
 11
38.9500000000001
 21
12.0
 31
0.0
  0
LINE
  5
2C29
330
1A
100
AcDbEntity
  8
ZUWAKU
100
AcDbLine
 10
39.21250000000015
 20
11.7375
 30
0.0
 11
40.08750000000015
 21
11.7375
 31
0.0
  0
ARC
  5
2C2A
330
1A
100
AcDbEntity
  8
ZUWAKU
100
AcDbCircle
 10
39.21250000000015
 20
12.0
 30
0.0
 40
0.2625
100
AcDbArc
 50
180.0
 51
270.0
  0
ARC
  5
2C2B
330
1A
100
AcDbEntity
  8
ZUWAKU
100
AcDbCircle
 10
40.08750000000015
 20
12.0
 30
0.0
 40
0.2625
100
AcDbArc
 50
270.0
 51
0.0
  0
LINE
  5
2C2C
330
1A
100
AcDbEntity
  8
ZUWAKU
100
AcDbLine
 10
40.08750000000015
 20
19.7875
 30
0.0
 11
39.21250000000015
 21
19.7875
 31
0.0
  0
ARC
  5
2C2D
330
1A
100
AcDbEntity
  8
ZUWAKU
100
AcDbCircle
 10
39.21250000000015
 20
19.525
 30
0.0
 40
0.2625
100
AcDbArc
 50
90.0
 51
180.0
  0
ARC
  5
2C2E
330
1A
100
AcDbEntity
  8
ZUWAKU
100
AcDbCircle
 10
40.08750000000015
 20
19.525
 30
0.0
 40
0.2625
100
AcDbArc
 50
0.0
 51
90.0
  0
TEXT
  5
2C2F
330
1A
100
AcDbEntity
  8
moji
100
AcDbText
 10
52.307788716694
 20
14.53308906513738
 30
0.0
 40
3.0
  1
大型　たてとい
 41
0.9
  7
ｽﾀｲﾙ1
100
AcDbText
  0
TEXT
  5
2C30
330
1A
100
AcDbEntity
  8
moji
100
AcDbText
 10
125.742495263035
 20
17.16496052870369
 30
0.0
 40
2.799999999999998
  1
排水管カバー
 41
0.9
  7
ｽﾀｲﾙ1
100
AcDbText
  0
LINE
  5
2C31
330
1A
100
AcDbEntity
  8
ZUWAKU
100
AcDbLine
 10
109.9521945676434
 20
23.1625
 30
0.0
 11
109.9521945676434
 21
8.56250000000003
 31
0.0
  0
LINE
  5
2C32
330
1A
100
AcDbEntity
  8
ZUWAKU
100
AcDbLine
 10
110.1521945676434
 20
23.1625
 30
0.0
 11
110.1521945676434
 21
8.56250000000003
 31
0.0
  0
LINE
  5
2C33
330
1A
100
AcDbEntity
  8
ZUWAKU
100
AcDbLine
 10
110.0521945676433
 20
23.1625
 30
0.0
 11
110.0521945676435
 21
8.56250000000003
 31
0.0
  0
TEXT
  5
2C34
330
1A
100
AcDbEntity
  8
moji
100
AcDbText
 10
125.742495263035
 20
9.764960528703706
 30
0.0
 40
2.799999999999998
  1
７５
 41
0.9
  7
ｽﾀｲﾙ1
100
AcDbText
  0
TEXT
  5
2C35
330
1A
100
AcDbEntity
  8
ZUWAKU
100
AcDbText
 10
110.6909170787483
 20
12.9901782691928
 30
0.0
 40
2.0
  1
サイズ
 41
0.9
  7
ｽﾀｲﾙ1
100
AcDbText
  0
TEXT
  5
2C36
330
1A
100
AcDbEntity
  8
ZUWAKU
100
AcDbText
 10
110.6909170787481
 20
20.19017826919279
 30
0.0
 40
2.0
  1
品名
 41
0.9
  7
ｽﾀｲﾙ1
100
AcDbText
  0
LINE
  5
2C47
330
1A
100
AcDbEntity
  8
ZUWAKU
100
AcDbLine
 10
330.2374951777115
 20
15.76250000000001
 30
0.0
 11
354.4533991968802
 21
15.76250000000001
 31
0.0
  0
LINE
  5
2C48
330
1A
100
AcDbEntity
  8
ZUWAKU
100
AcDbLine
 10
330.2374951777118
 20
15.86250000000001
 30
0.0
 11
354.4533991968802
 21
15.86250000000001
 31
0.0
  0
LINE
  5
2C49
330
1A
100
AcDbEntity
  8
ZUWAKU
100
AcDbLine
 10
330.2374951777115
 20
15.96250000000001
 30
0.0
 11
354.4533991968802
 21
15.96250000000001
 31
0.0
  0
TEXT
  5
2C4A
330
1A
100
AcDbEntity
  8
ZUWAKU
100
AcDbText
 10
334.9308627662606
 20
17.16496052870369
 30
0.0
 40
2.799999999999998
  1
　　．　　．　　
 41
0.9
  7
ｽﾀｲﾙ1
100
AcDbText
  0
TEXT
  5
2C60
330
1A
100
AcDbEntity
  8
moji
100
AcDbText
 10
269.8493479087659
 20
9.764960528703706
 30
0.0
 40
2.799999999999998
  1
１/１
 41
0.9
  7
ｽﾀｲﾙ1
100
AcDbText
  0
LINE
  5
2C61
330
1A
100
AcDbEntity
  8
ZUWAKU
100
AcDbLine
 10
258.42848367168
 20
15.76250000000001
 30
0.0
 11
282.0923718056657
 21
15.76250000000001
 31
0.0
  0
LINE
  5
2C62
330
1A
100
AcDbEntity
  8
ZUWAKU
100
AcDbLine
 10
258.42848367168
 20
15.86250000000001
 30
0.0
 11
282.0923718056657
 21
15.86250000000001
 31
0.0
  0
LINE
  5
2C63
330
1A
100
AcDbEntity
  8
ZUWAKU
100
AcDbLine
 10
258.42848367168
 20
15.96250000000001
 30
0.0
 11
282.0923718056657
 21
15.96250000000001
 31
0.0
  0
LINE
  5
2C64
330
1A
100
AcDbEntity
  8
ZUWAKU
100
AcDbLine
 10
229.6410759081051
 20
23.1625
 30
0.0
 11
229.6410759081053
 21
8.56250000000003
 31
0.0
  0
LINE
  5
2C65
330
1A
100
AcDbEntity
  8
ZUWAKU
100
AcDbLine
 10
229.7410759081052
 20
23.1625
 30
0.0
 11
229.7410759081052
 21
8.56250000000003
 31
0.0
  0
LINE
  5
2C66
330
1A
100
AcDbEntity
  8
ZUWAKU
100
AcDbLine
 10
229.5410759081051
 20
23.1625
 30
0.0
 11
229.5410759081051
 21
8.56250000000003
 31
0.0
  0
LINE
  5
2C67
330
1A
100
AcDbEntity
  8
ZUWAKU
100
AcDbLine
 10
258.3284836716799
 20
23.1625
 30
0.0
 11
258.3284836716801
 21
8.56250000000003
 31
0.0
  0
LINE
  5
2C68
330
1A
100
AcDbEntity
  8
ZUWAKU
100
AcDbLine
 10
258.42848367168
 20
23.1625
 30
0.0
 11
258.42848367168
 21
8.56250000000003
 31
0.0
  0
LINE
  5
2C69
330
1A
100
AcDbEntity
  8
ZUWAKU
100
AcDbLine
 10
258.2284836716799
 20
23.1625
 30
0.0
 11
258.2284836716799
 21
8.56250000000003
 31
0.0
  0
TEXT
  5
2C6A
330
1A
100
AcDbEntity
  8
moji
100
AcDbText
 10
236.8779989534874
 20
14.05322110919863
 30
0.0
 40
2.799999999999998
  1
ＧＵ６３□
 41
0.9
  7
ｽﾀｲﾙ1
100
AcDbText
  0
TEXT
  5
2C6B
330
1A
100
AcDbEntity
  8
ZUWAKU
100
AcDbText
 10
230.4797984192099
 20
20.19017826919279
 30
0.0
 40
2.0
  1
品番
 41
0.9
  7
ｽﾀｲﾙ1
100
AcDbText
  0
TEXT
  5
2C6C
330
1A
100
AcDbEntity
  8
ZUWAKU
100
AcDbText
 10
259.1672061827849
 20
12.9901782691928
 30
0.0
 40
2.0
  1
縮尺
 41
0.9
  7
ｽﾀｲﾙ1
100
AcDbText
  0
TEXT
  5
2C6D
330
1A
100
AcDbEntity
  8
ZUWAKU
100
AcDbText
 10
259.1672061827847
 20
20.19017826919279
 30
0.0
 40
2.0
  1
用紙
 41
0.9
  7
ｽﾀｲﾙ1
100
AcDbText
  0
TEXT
  5
2C6E
330
1A
100
AcDbEntity
  8
moji
100
AcDbText
 10
269.8493479087659
 20
17.16496052870369
 30
0.0
 40
2.799999999999998
  1
Ａ３
 41
0.9
  7
ｽﾀｲﾙ1
100
AcDbText
  0
LINE
  5
2C6F
330
1A
100
AcDbEntity
  8
ZUWAKU
100
AcDbLine
 10
282.1923718056656
 20
23.1625
 30
0.0
 11
282.1923718056658
 21
8.56250000000003
 31
0.0
  0
LINE
  5
2C70
330
1A
100
AcDbEntity
  8
ZUWAKU
100
AcDbLine
 10
282.0923718056657
 20
23.1625
 30
0.0
 11
282.0923718056657
 21
8.56250000000003
 31
0.0
  0
LINE
  5
2C71
330
1A
100
AcDbEntity
  8
ZUWAKU
100
AcDbLine
 10
330.1374951777116
 20
23.1625
 30
0.0
 11
330.1374951777118
 21
8.56250000000003
 31
0.0
  0
LINE
  5
2C72
330
1A
100
AcDbEntity
  8
ZUWAKU
100
AcDbLine
 10
330.2374951777118
 20
23.1625
 30
0.0
 11
330.2374951777118
 21
8.56250000000003
 31
0.0
  0
LINE
  5
2C73
330
1A
100
AcDbEntity
  8
ZUWAKU
100
AcDbLine
 10
330.0374951777117
 20
23.1625
 30
0.0
 11
330.0374951777117
 21
8.56250000000003
 31
0.0
  0
LINE
  5
2C74
330
1A
100
AcDbEntity
  8
ZUWAKU
100
AcDbLine
 10
282.2923718056657
 20
23.1625
 30
0.0
 11
282.2923718056657
 21
8.56250000000003
 31
0.0
  0
TEXT
  5
2C75
330
1A
100
AcDbEntity
  8
ZUWAKU
100
AcDbText
 10
330.9762176888165
 20
20.19017826919279
 30
0.0
 40
2.0
  1
DATE
 41
0.9
  7
ｽﾀｲﾙ1
100
AcDbText
  0
LINE
  5
2C89
330
1A
100
AcDbEntity
  8
ZUWAKU
100
AcDbLine
 10
354.4533991968802
 20
23.1625
 30
0.0
 11
354.4533991968802
 21
8.56250000000003
 31
0.0
  0
LINE
  5
2C8A
330
1A
100
AcDbEntity
  8
ZUWAKU
100
AcDbLine
 10
354.5533991968801
 20
23.1625
 30
0.0
 11
354.5533991968801
 21
8.56250000000003
 31
0.0
  0
LINE
  5
2C8B
330
1A
100
AcDbEntity
  8
ZUWAKU
100
AcDbLine
 10
354.65339919688
 20
23.1625
 30
0.0
 11
354.6533991968802
 21
8.56250000000003
 31
0.0
  0
LINE
  5
2C8C
330
1A
100
AcDbEntity
  8
ZUWAKU
100
AcDbLine
 10
354.7533991968801
 20
23.1625
 30
0.0
 11
354.7533991968801
 21
8.56250000000003
 31
0.0
  0
TEXT
  5
2C8E
330
1A
100
AcDbEntity
  8
ZUWAKU
100
AcDbText
 10
359.1440382084841
 20
14.41015099283951
 30
0.0
 40
3.0
  1
積水化学工業株式会社
 41
0.9
  7
ｽﾀｲﾙ1
100
AcDbText
  0
LINE
  5
2FF6
330
1A
100
AcDbEntity
  8
SEIHIN
  6
Continuous
 62
     3
100
AcDbLine
 10
294.8540701600576
 20
72.35708905858212
 30
0.0
 11
297.3540701600576
 21
72.35708905858212
 31
0.0
  0
LINE
  5
2FF7
330
1A
100
AcDbEntity
  8
SEIHIN
  6
Continuous
 62
     3
100
AcDbLine
 10
294.8540701600576
 20
98.61589930956156
 30
0.0
 11
294.8540701600576
 21
72.35708905858212
 31
0.0
  0
ARC
  5
2FF8
330
1A
100
AcDbEntity
  8
SEIHIN
  6
Continuous
 62
     3
100
AcDbCircle
 10
292.3540701600576
 20
98.61589930956156
 30
0.0
 40
2.5
100
AcDbArc
 50
0.0
 51
73.61045966596626
  0
ARC
  5
2FF9
330
1A
100
AcDbEntity
  8
SEIHIN
  6
Continuous
 62
     3
100
AcDbCircle
 10
292.3540701600576
 20
98.61589930956164
 30
0.0
 40
5.0
100
AcDbArc
 50
0.0
 51
73.61045966596626
  0
LINE
  5
2FFA
330
1A
100
AcDbEntity
  8
SEIHIN
  6
Continuous
 62
     3
100
AcDbLine
 10
298.3540701600576
 20
72.35708905858212
 30
0.0
 11
298.3540701600576
 21
74.85708905858212
 31
0.0
  0
LINE
  5
2FFB
330
1A
100
AcDbEntity
  8
SEIHIN
  6
Continuous
 62
     3
100
AcDbLine
 10
297.3540701600576
 20
75.35708905858212
 30
0.0
 11
298.3540701600576
 21
74.85708905858212
 31
0.0
  0
LINE
  5
2FFC
330
1A
100
AcDbEntity
  8
SEIHIN
  6
Continuous
 62
     3
100
AcDbLine
 10
260.8542170783621
 20
72.35708906538706
 30
0.0
 11
260.8542170784444
 21
72.35708905858212
 31
0.0
  0
LINE
  5
2FFD
330
1A
100
AcDbEntity
  8
SEIHIN
  6
Continuous
 62
     3
100
AcDbLine
 10
258.8540701600575
 20
72.35708905858212
 30
0.0
 11
256.8540701600575
 21
72.35708905858212
 31
0.0
  0
LINE
  5
2FFE
330
1A
100
AcDbEntity
  8
SEIHIN
  6
Continuous
 62
     3
100
AcDbLine
 10
249.9871691114372
 20
113.6826415513129
 30
0.0
 11
293.0594859700365
 21
101.0143130634897
 31
0.0
  0
ARC
  5
2FFF
330
1A
100
AcDbEntity
  8
SEIHIN
  6
Continuous
 62
     3
100
AcDbCircle
 10
249.8460859494414
 20
113.2029588005273
 30
0.0
 40
0.4999999999998814
100
AcDbArc
 50
73.61045966595952
 51
179.3099183019305
  0
LINE
  5
3000
330
1A
100
AcDbEntity
  8
SEIHIN
  6
Continuous
 62
     3
100
AcDbLine
 10
249.3461222146777
 20
113.2089807538009
 30
0.0
 11
248.8540701600575
 21
72.35708905858212
 31
0.0
  0
ARC
  5
3001
330
1A
100
AcDbEntity
  8
SEIHIN
  6
Continuous
 62
     3
100
AcDbCircle
 10
250.4276499027994
 20
119.2860441601289
 30
0.0
 40
2.999999999999904
100
AcDbArc
 50
180.5208563745055
 51
253.6104596659663
  0
LINE
  5
3002
330
1A
100
AcDbEntity
  8
SEIHIN
  6
Continuous
 62
     3
100
AcDbLine
 10
135.8540701600576
 20
72.35708905858212
 30
0.0
 11
137.8540701600576
 21
72.35708905858212
 31
0.0
  0
LINE
  5
3003
330
1A
100
AcDbEntity
  8
SEIHIN
  6
Continuous
 62
     3
100
AcDbLine
 10
101.6933042426134
 20
102.3570890585819
 30
0.0
 11
197.3540701600575
 21
102.3570890585819
 31
0.0
  0
LINE
  5
3004
330
1A
100
AcDbEntity
  8
SEIHIN
  6
Continuous
 62
     3
100
AcDbLine
 10
96.35407016005743
 20
74.85708905858223
 30
0.0
 11
97.35407016005742
 21
75.35708905858212
 31
0.0
  0
LINE
  5
3005
330
1A
100
AcDbEntity
  8
SEIHIN
  6
Continuous
 62
     3
100
AcDbLine
 10
97.35407016005742
 20
75.35708905858212
 30
0.0
 11
197.3540701600575
 21
75.35708905858212
 31
0.0
  0
LINE
  5
3006
330
1A
100
AcDbEntity
  8
SEIHIN
  6
Continuous
 62
     3
100
AcDbLine
 10
97.35407016005742
 20
75.35708905858212
 30
0.0
 11
97.35407016005742
 21
98.61589930956164
 31
0.0
  0
LINE
  5
3007
330
1A
100
AcDbEntity
  8
CENTER L
  6
CENTER
 62
     1
 48
5.0
100
AcDbLine
 10
197.3540701600575
 20
68.82208406145299
 30
0.0
 11
197.3540701600575
 21
240.4170781464316
 31
0.0
  0
LINE
  5
3008
330
1A
100
AcDbEntity
  8
SEIHIN
  6
Continuous
 62
     3
100
AcDbLine
 10
149.9799719793226
 20
117.3570890585819
 30
0.0
 11
197.3540701600575
 21
117.3570890585819
 31
0.0
  0
LINE
  5
3009
330
1A
100
AcDbEntity
  8
SEIHIN
  6
Continuous
 62
     3
100
AcDbLine
 10
145.1269893892903
 20
116.407947655415
 30
0.0
 11
100.9432385400997
 21
103.4127268174178
 31
0.0
  0
ARC
  5
300A
330
1A
100
AcDbEntity
  8
SEIHIN
  6
Continuous
 62
     3
100
AcDbCircle
 10
144.2804904173155
 20
119.2860441601289
 30
0.0
 40
3.000000000000115
100
AcDbArc
 50
286.3895403340405
 51
359.4791436254943
  0
LINE
  5
300B
330
1A
100
AcDbEntity
  8
SEIHIN
  6
Continuous
 62
     3
100
AcDbLine
 10
148.3539875171369
 20
237.3570890585819
 30
0.0
 11
147.2803664580568
 21
119.2587725597584
 31
0.0
  0
LINE
  5
300C
330
1A
100
AcDbEntity
  8
SEIHIN
  6
Continuous
 62
     3
100
AcDbLine
 10
148.3539875171369
 20
237.3570890585819
 30
0.0
 11
246.3540701600575
 21
237.3570890585819
 31
0.0
  0
LINE
  5
300D
330
1A
100
AcDbEntity
  8
SEIHIN
  6
Continuous
 62
     3
100
AcDbLine
 10
96.35407016005743
 20
72.35708905858212
 30
0.0
 11
96.35407016005743
 21
74.85708905858223
 31
0.0
  0
LINE
  5
300E
330
1A
100
AcDbEntity
  8
SEIHIN
  6
Continuous
 62
     3
100
AcDbLine
 10
133.853923241753
 20
72.35708906538706
 30
0.0
 11
133.8539232416707
 21
72.35708905858212
 31
0.0
  0
LINE
  5
300F
330
1A
100
AcDbEntity
  8
SEIHIN
  6
Continuous
 62
     3
100
AcDbLine
 10
244.3540701600575
 20
237.3570890585819
 30
0.0
 11
245.8540701600577
 21
72.35708905858212
 31
0.0
  0
LINE
  5
3010
330
1A
100
AcDbEntity
  8
SEIHIN
  6
Continuous
 62
     3
100
AcDbLine
 10
246.3541528029784
 20
237.3570890585819
 30
0.0
 11
247.4479868047017
 21
117.0353488689805
 31
0.0
  0
LINE
  5
3012
330
1A
100
AcDbEntity
  8
SEIHIN
  6
Continuous
 62
     3
100
AcDbLine
 10
297.3540701600576
 20
75.35708905858212
 30
0.0
 11
297.3540701600576
 21
98.61589969121965
 31
0.0
  0
LINE
  5
3013
330
1A
100
AcDbEntity
  8
SEIHIN
  6
Continuous
 62
     3
100
AcDbLine
 10
247.4479868047017
 20
117.0353488689805
 30
0.0
 11
293.7649030654329
 21
103.4127264393538
 31
0.0
  0
DIMENSION
  5
3015
330
1A
100
AcDbEntity
  8
SUNPOU
  6
Continuous
100
AcDbDimension
  2
*D2
 10
311.8103891205702
 20
72.35708905858212
 30
0.0
 11
309.3103891205702
 21
87.35708905858206
 31
0.0
 70
    32
 71
     5
 42
29.99999999999977
  3
STANDARD
100
AcDbAlignedDimension
 13
297.3540701600576
 23
102.3570890585819
 33
0.0
 14
298.3540701600576
 24
72.35708905858212
 34
0.0
 50
90.0
100
AcDbRotatedDimension
1001
ACAD
1000
DSTYLE
1002
{
1070
    41
1040
3.0
1070
    42
1040
3.0
1070
    43
1040
7.0
1070
    44
1040
1.5
1070
    73
1070
     0
1070
    74
1070
     0
1070
    77
1070
     3
1070
   140
1040
3.0
1070
   141
1040
150.0
1070
   147
1040
1.0
1070
   172
1070
     1
1070
   173
1070
     1
1070
   176
1070
   256
1070
   177
1070
   256
1070
   178
1070
   256
1070
   271
1070
     0
1070
   272
1070
     0
1070
   341
1005
B2
1070
     6
1000
OPEN
1070
     7
1000
OPEN
1070
   371
1070
    -1
1070
   372
1070
    -1
1002
}
  0
DIMENSION
  5
3016
330
1A
100
AcDbEntity
  8
SUNPOU
  6
Continuous
100
AcDbDimension
  2
*D3
 10
320.0937727206124
 20
72.35708905858212
 30
0.0
 11
317.5937727206124
 21
154.857089058582
 31
0.0
 70
    32
 71
     5
 42
164.9999999999996
  3
STANDARD
100
AcDbAlignedDimension
 13
246.3541528029784
 23
237.3570890585819
 33
0.0
 14
298.3540701600576
 24
72.35708905858212
 34
0.0
 50
90.0
100
AcDbRotatedDimension
1001
ACAD
1000
DSTYLE
1002
{
1070
    41
1040
3.0
1070
    42
1040
3.0
1070
    43
1040
7.0
1070
    44
1040
1.5
1070
    73
1070
     0
1070
    74
1070
     0
1070
    77
1070
     3
1070
   140
1040
3.0
1070
   141
1040
150.0
1070
   147
1040
1.0
1070
   172
1070
     1
1070
   173
1070
     1
1070
   176
1070
   256
1070
   177
1070
   256
1070
   178
1070
   256
1070
   271
1070
     0
1070
   272
1070
     0
1070
   341
1005
B2
1070
     6
1000
OPEN
1070
     7
1000
OPEN
1070
   371
1070
    -1
1070
   372
1070
    -1
1002
}
  0
DIMENSION
  5
3018
330
1A
100
AcDbEntity
  8
SUNPOU
  6
Continuous
100
AcDbDimension
  2
*D4
 10
298.3540701600576
 20
55.55927677875866
 30
0.0
 11
197.5253777439785
 21
55.55927677875866
 31
0.0
 70
   160
  1
φ<>
 71
     5
 42
202.0000000000002
  3
STANDARD
100
AcDbAlignedDimension
 13
96.35407016005743
 23
72.35708905858212
 33
0.0
 14
298.3540701600576
 24
72.35708905858212
 34
0.0
100
AcDbRotatedDimension
1001
ACAD
1000
DSTYLE
1002
{
1070
    41
1040
3.0
1070
    42
1040
3.0
1070
    43
1040
7.0
1070
    44
1040
1.5
1070
    73
1070
     0
1070
    74
1070
     0
1070
    77
1070
     3
1070
   140
1040
3.0
1070
   141
1040
150.0
1070
   147
1040
1.0
1070
   172
1070
     1
1070
   173
1070
     1
1070
   176
1070
   256
1070
   177
1070
   256
1070
   178
1070
   256
1070
   271
1070
     0
1070
   272
1070
     0
1070
   341
1005
B2
1070
     6
1000
OPEN
1070
     7
1000
OPEN
1070
   371
1070
    -1
1070
   372
1070
    -1
1002
}
  0
LINE
  5
3020
330
1A
100
AcDbEntity
  8
SEIHIN
  6
Continuous
 62
     3
100
AcDbLine
 10
197.3540701600575
 20
72.35708905858212
 30
0.0
 11
298.3540701600576
 21
72.35708905858212
 31
0.0
  0
ARC
  5
3021
330
1A
100
AcDbEntity
  8
SEIHIN
  6
Continuous
 62
     3
100
AcDbCircle
 10
102.3540701600574
 20
98.61589930956164
 30
0.0
 40
4.999999999999903
100
AcDbArc
 50
106.3895403340337
 51
180.0
  0
LINE
  5
3022
330
1A
100
AcDbEntity
  8
SEIHIN
  6
Continuous
 62
     3
100
AcDbLine
 10
133.853923241753
 20
72.35708906538706
 30
0.0
 11
133.8539232416705
 21
72.35708905858212
 31
0.0
  0
LINE
  5
3024
330
1A
100
AcDbEntity
  8
SEIHIN
  6
Continuous
 62
     3
100
AcDbLine
 10
99.85407016005742
 20
72.35708905858212
 30
0.0
 11
97.35407016005742
 21
72.35708905858212
 31
0.0
  0
LINE
  5
3025
330
1A
100
AcDbEntity
  8
SEIHIN
  6
Continuous
 62
     3
100
AcDbLine
 10
96.35407016005743
 20
72.35708905858212
 30
0.0
 11
197.3540701600575
 21
72.35708905858212
 31
0.0
  0
LINE
  5
3026
330
1A
100
AcDbEntity
  8
SEIHIN
  6
Continuous
 62
     3
100
AcDbLine
 10
135.8540701600576
 20
72.35708905858212
 30
0.0
 11
137.8540701600576
 21
72.35708905858212
 31
0.0
  0
DIMENSION
  5
3084
330
1A
100
AcDbEntity
  8
SUNPOU
  6
Continuous
100
AcDbDimension
  2
*D5
 10
244.3540701600575
 20
246.3134366428654
 30
0.0
 11
197.3540701600575
 21
248.8134366428655
 31
0.0
 70
    32
  1
φ<>
 71
     5
 42
94.0
  3
STANDARD
100
AcDbAlignedDimension
 13
150.3540701600575
 23
237.3570890585819
 33
0.0
 14
244.3540701600575
 24
237.3570890585819
 34
0.0
100
AcDbRotatedDimension
1001
ACAD
1000
DSTYLE
1002
{
1070
    41
1040
3.0
1070
    42
1040
3.0
1070
    43
1040
7.0
1070
    44
1040
1.5
1070
    73
1070
     0
1070
    74
1070
     0
1070
    77
1070
     3
1070
   140
1040
3.0
1070
   141
1040
150.0
1070
   147
1040
1.0
1070
   172
1070
     1
1070
   173
1070
     1
1070
   176
1070
   256
1070
   177
1070
   256
1070
   178
1070
   256
1070
   271
1070
     0
1070
   272
1070
     0
1070
   341
1005
B2
1070
     6
1000
OPEN
1070
     7
1000
OPEN
1070
   371
1070
    -1
1070
   372
1070
    -1
1002
}
  0
DIMENSION
  5
30C1
330
1A
100
AcDbEntity
  8
SUNPOU
  6
Continuous
100
AcDbDimension
  2
*D6
 10
248.8540701600575
 20
62.28678805420452
 30
0.0
 11
197.3540701600575
 21
64.78678805420452
 31
0.0
 70
    32
  1
φ104
 71
     5
 42
103.0
  3
STANDARD
100
AcDbAlignedDimension
 13
145.8540701600575
 23
72.35708905858212
 33
0.0
 14
248.8540701600575
 24
72.35708905858212
 34
0.0
100
AcDbRotatedDimension
1001
ACAD
1000
DSTYLE
1002
{
1070
    41
1040
3.0
1070
    42
1040
3.0
1070
    43
1040
7.0
1070
    44
1040
1.5
1070
    73
1070
     0
1070
    74
1070
     0
1070
    77
1070
     3
1070
   140
1040
3.0
1070
   141
1040
150.0
1070
   147
1040
1.0
1070
   172
1070
     1
1070
   173
1070
     1
1070
   176
1070
   256
1070
   177
1070
   256
1070
   178
1070
   256
1070
   271
1070
     0
1070
   272
1070
     0
1070
   341
1005
B2
1070
     6
1000
OPEN
1070
     7
1000
OPEN
1070
   371
1070
    -1
1070
   372
1070
    -1
1002
}
  0
LINE
  5
33C7
330
1A
100
AcDbEntity
  8
0
 62
     0
100
AcDbLine
 10
295.6561477879568
 20
72.35708905858212
 30
0.0
 11
298.2221219119903
 21
74.92306318261569
 31
0.0
  0
LINE
  5
33C8
330
1A
100
AcDbEntity
  8
0
 62
     0
100
AcDbLine
 10
294.8540701600576
 20
74.38343855542917
 30
0.0
 11
297.3540701600576
 21
76.88343855542905
 31
0.0
  0
LINE
  5
33C9
330
1A
100
AcDbEntity
  8
0
 62
     0
100
AcDbLine
 10
294.8540701600576
 20
77.21186568017536
 30
0.0
 11
297.3540701600575
 21
79.71186568017526
 31
0.0
  0
LINE
  5
33CA
330
1A
100
AcDbEntity
  8
0
 62
     0
100
AcDbLine
 10
294.8540701600576
 20
80.0402928049216
 30
0.0
 11
297.3540701600575
 21
82.54029280492146
 31
0.0
  0
LINE
  5
33CB
330
1A
100
AcDbEntity
  8
0
 62
     0
100
AcDbLine
 10
294.8540701600576
 20
82.86871992966778
 30
0.0
 11
297.3540701600575
 21
85.36871992966769
 31
0.0
  0
LINE
  5
33CC
330
1A
100
AcDbEntity
  8
0
 62
     0
100
AcDbLine
 10
294.8540701600576
 20
85.69714705441402
 30
0.0
 11
297.3540701600575
 21
88.1971470544139
 31
0.0
  0
LINE
  5
33CD
330
1A
100
AcDbEntity
  8
0
 62
     0
100
AcDbLine
 10
294.8540701600576
 20
88.52557417916001
 30
0.0
 11
297.3540701600575
 21
91.02557417916001
 31
0.0
  0
LINE
  5
33CE
330
1A
100
AcDbEntity
  8
0
 62
     0
100
AcDbLine
 10
294.8540701600578
 20
91.35400130390621
 30
0.0
 11
297.3540701600576
 21
93.85400130390621
 31
0.0
  0
LINE
  5
33CF
330
1A
100
AcDbEntity
  8
0
 62
     0
100
AcDbLine
 10
294.8540701600576
 20
94.18242842865245
 30
0.0
 11
297.3540701600576
 21
96.68242842865245
 31
0.0
  0
LINE
  5
33D0
330
1A
100
AcDbEntity
  8
0
 62
     0
100
AcDbLine
 10
294.8540701600576
 20
97.01085555339865
 30
0.0
 11
297.2853337667416
 21
99.44211916008249
 31
0.0
  0
LINE
  5
33D1
330
1A
100
AcDbEntity
  8
0
 62
     0
100
AcDbLine
 10
294.6408815828597
 20
99.62609410094694
 30
0.0
 11
296.4698146713126
 21
101.4550271893998
 31
0.0
  0
LINE
  5
33D2
330
1A
100
AcDbEntity
  8
0
 62
     0
100
AcDbLine
 10
293.1665512165944
 20
100.9801908594278
 30
0.0
 11
295.0275084811169
 21
102.8411481239502
 31
0.0
  0
LINE
  5
33D3
330
1A
100
AcDbEntity
  8
0
 62
     0
100
AcDbLine
 10
290.9829825854844
 20
101.625049353064
 30
0.0
 11
292.996624079424
 21
103.6386908470035
 31
0.0
  0
LINE
  5
33D4
330
1A
100
AcDbEntity
  8
0
 62
     0
100
AcDbLine
 10
288.7973798072715
 20
102.2678736995972
 30
0.0
 11
290.811021301211
 21
104.2815151935368
 31
0.0
  0
LINE
  5
33D5
330
1A
100
AcDbEntity
  8
0
 62
     0
100
AcDbLine
 10
286.6117770290583
 20
102.9106980461304
 30
0.0
 11
288.6254185229979
 21
104.92433954007
 31
0.0
  0
LINE
  5
33D6
330
1A
100
AcDbEntity
  8
0
 62
     0
100
AcDbLine
 10
284.4261742508454
 20
103.5535223926637
 30
0.0
 11
286.4398157447851
 21
105.5671638866033
 31
0.0
  0
LINE
  5
33D7
330
1A
100
AcDbEntity
  8
0
 62
     0
100
AcDbLine
 10
282.2405714726324
 20
104.1963467391967
 30
0.0
 11
284.254212966572
 21
106.2099882331364
 31
0.0
  0
LINE
  5
33D8
330
1A
100
AcDbEntity
  8
0
 62
     0
100
AcDbLine
 10
280.0549686944196
 20
104.8391710857299
 30
0.0
 11
282.0686101883591
 21
106.8528125796696
 31
0.0
  0
LINE
  5
33D9
330
1A
100
AcDbEntity
  8
0
 62
     0
100
AcDbLine
 10
247.5728866672716
 20
72.35708905858212
 30
0.0
 11
248.8696898695406
 21
73.65389226085108
 31
0.0
  0
LINE
  5
33DA
330
1A
100
AcDbEntity
  8
0
 62
     0
100
AcDbLine
 10
277.8693659162065
 20
105.4819954322632
 30
0.0
 11
279.8830074101462
 21
107.4956369262029
 31
0.0
  0
LINE
  5
33DB
330
1A
100
AcDbEntity
  8
0
 62
     0
100
AcDbLine
 10
245.8440736680078
 20
73.45670318406451
 30
0.0
 11
248.9041729941137
 21
76.51680251017035
 31
0.0
  0
LINE
  5
33DC
330
1A
100
AcDbEntity
  8
0
 62
     0
100
AcDbLine
 10
275.6837631379935
 20
106.1248197787964
 30
0.0
 11
277.6974046319334
 21
108.1384612727362
 31
0.0
  0
LINE
  5
33DD
330
1A
100
AcDbEntity
  8
0
 62
     0
100
AcDbLine
 10
245.8185923425595
 20
76.25964898336246
 30
0.0
 11
248.9386561186867
 21
79.37971275948962
 31
0.0
  0
LINE
  5
33DE
330
1A
100
AcDbEntity
  8
0
 62
     0
100
AcDbLine
 10
273.4981603597806
 20
106.7676441253297
 30
0.0
 11
275.5118018537203
 21
108.7812856192694
 31
0.0
  0
LINE
  5
33DF
330
1A
100
AcDbEntity
  8
0
 62
     0
100
AcDbLine
 10
245.7931110171114
 20
79.06259478266055
 30
0.0
 11
248.9731392432598
 21
82.24262300880889
 31
0.0
  0
LINE
  5
33E0
330
1A
100
AcDbEntity
  8
0
 62
     0
100
AcDbLine
 10
271.3125575815676
 20
107.4104684718629
 30
0.0
 11
273.3261990755071
 21
109.4241099658024
 31
0.0
  0
LINE
  5
33E1
330
1A
100
AcDbEntity
  8
0
 62
     0
100
AcDbLine
 10
245.7676296916633
 20
81.86554058195861
 30
0.0
 11
249.0076223678328
 21
85.10553325812805
 31
0.0
  0
LINE
  5
33E2
330
1A
100
AcDbEntity
  8
0
 62
     0
100
AcDbLine
 10
269.1269548033546
 20
108.0532928183961
 30
0.0
 11
271.1405962972942
 21
110.0669343123358
 31
0.0
  0
LINE
  5
33E3
330
1A
100
AcDbEntity
  8
0
 62
     0
100
AcDbLine
 10
245.742148366215
 20
84.66848638125656
 30
0.0
 11
249.0421054924059
 21
87.96844350744743
 31
0.0
  0
LINE
  5
33E4
330
1A
100
AcDbEntity
  8
0
 62
     0
100
AcDbLine
 10
266.9413520251417
 20
108.6961171649293
 30
0.0
 11
268.9549935190813
 21
110.709758658869
 31
0.0
  0
LINE
  5
33E5
330
1A
100
AcDbEntity
  8
0
 62
     0
100
AcDbLine
 10
245.7166670407669
 20
87.47143218055464
 30
0.0
 11
249.0765886169788
 21
90.83135375676659
 31
0.0
  0
LINE
  5
33E6
330
1A
100
AcDbEntity
  8
0
 62
     0
100
AcDbLine
 10
264.7557492469287
 20
109.3389415114626
 30
0.0
 11
266.7693907408683
 21
111.3525830054022
 31
0.0
  0
LINE
  5
33E7
330
1A
100
AcDbEntity
  8
0
 62
     0
100
AcDbLine
 10
245.6911857153187
 20
90.27437797985271
 30
0.0
 11
249.111071741552
 21
93.69426400608594
 31
0.0
  0
LINE
  5
33E8
330
1A
100
AcDbEntity
  8
0
 62
     0
100
AcDbLine
 10
262.5701464687157
 20
109.9817658579959
 30
0.0
 11
264.5837879626554
 21
111.9954073519355
 31
0.0
  0
LINE
  5
33E9
330
1A
100
AcDbEntity
  8
0
 62
     0
100
AcDbLine
 10
245.6657043898705
 20
93.07732377915071
 30
0.0
 11
249.1455548661249
 21
96.55717425540515
 31
0.0
  0
LINE
  5
33EA
330
1A
100
AcDbEntity
  8
0
 62
     0
100
AcDbLine
 10
260.3845436905029
 20
110.6245902045291
 30
0.0
 11
262.3981851844426
 21
112.6382316984686
 31
0.0
  0
LINE
  5
33EB
330
1A
100
AcDbEntity
  8
0
 62
     0
100
AcDbLine
 10
245.6402230644225
 20
95.88026957844864
 30
0.0
 11
249.180037990698
 21
99.42008450472416
 31
0.0
  0
LINE
  5
33EC
330
1A
100
AcDbEntity
  8
0
 62
     0
100
AcDbLine
 10
258.1989409122898
 20
111.2674145510622
 30
0.0
 11
260.2125824062296
 21
113.2810560450019
 31
0.0
  0
LINE
  5
33ED
330
1A
100
AcDbEntity
  8
0
 62
     0
100
AcDbLine
 10
245.6147417389743
 20
98.68321537774669
 30
0.0
 11
249.2145211152712
 21
102.2829947540434
 31
0.0
  0
LINE
  5
33EE
330
1A
100
AcDbEntity
  8
0
 62
     0
100
AcDbLine
 10
256.013338134077
 20
111.9102388975955
 30
0.0
 11
258.0269796280165
 21
113.9238803915351
 31
0.0
  0
LINE
  5
33EF
330
1A
100
AcDbEntity
  8
0
 62
     0
100
AcDbLine
 10
245.5892604135262
 20
101.4861611770448
 30
0.0
 11
249.2490042398441
 21
105.1459050033627
 31
0.0
  0
LINE
  5
33F0
330
1A
100
AcDbEntity
  8
0
 62
     0
100
AcDbLine
 10
253.827735355864
 20
112.5530632441288
 30
0.0
 11
255.8413768498035
 21
114.5667047380683
 31
0.0
  0
LINE
  5
33F1
330
1A
100
AcDbEntity
  8
0
 62
     0
100
AcDbLine
 10
245.5637790880779
 20
104.2891069763427
 30
0.0
 11
249.2834873644172
 21
108.008815252682
 31
0.0
  0
LINE
  5
33F2
330
1A
100
AcDbEntity
  8
0
 62
     0
100
AcDbLine
 10
251.642132577651
 20
113.1958875906619
 30
0.0
 11
253.6557740715906
 21
115.2095290846015
 31
0.0
  0
LINE
  5
33F3
330
1A
100
AcDbEntity
  8
0
 62
     0
100
AcDbLine
 10
245.5382977626298
 20
107.0920527756408
 30
0.0
 11
249.3179704889901
 21
110.8717255020011
 31
0.0
  0
LINE
  5
33F4
330
1A
100
AcDbEntity
  8
0
 62
     0
100
AcDbLine
 10
245.5128164371815
 20
109.8949985749387
 30
0.0
 11
251.4701712933776
 21
115.8523534311348
 31
0.0
  0
LINE
  5
33F5
330
1A
100
AcDbEntity
  8
0
 62
     0
100
AcDbLine
 10
245.4873351117334
 20
112.6979443742368
 30
0.0
 11
249.2845685151646
 21
116.495177777668
 31
0.0
  0
LINE
  5
33F6
330
1A
100
AcDbEntity
  8
0
 62
     0
100
AcDbLine
 10
245.4618537862852
 20
115.5008901735349
 30
0.0
 11
247.4439176666568
 21
117.4829540539065
 31
0.0
  0
LINE
  5
33F7
330
1A
100
AcDbEntity
  8
0
 62
     0
100
AcDbLine
 10
245.4363724608371
 20
118.303835972833
 30
0.0
 11
247.4184363412087
 21
120.2858998532045
 31
0.0
  0
LINE
  5
33F8
330
1A
100
AcDbEntity
  8
0
 62
     0
100
AcDbLine
 10
245.410891135389
 20
121.106781772131
 30
0.0
 11
247.3929550157606
 21
123.0888456525025
 31
0.0
  0
LINE
  5
33F9
330
1A
100
AcDbEntity
  8
0
 62
     0
100
AcDbLine
 10
245.3854098099408
 20
123.9097275714289
 30
0.0
 11
247.3674736903124
 21
125.8917914518005
 31
0.0
  0
LINE
  5
33FA
330
1A
100
AcDbEntity
  8
0
 62
     0
100
AcDbLine
 10
245.3599284844927
 20
126.712673370727
 30
0.0
 11
247.3419923648644
 21
128.6947372510987
 31
0.0
  0
LINE
  5
33FB
330
1A
100
AcDbEntity
  8
0
 62
     0
100
AcDbLine
 10
245.3344471590444
 20
129.5156191700249
 30
0.0
 11
247.3165110394161
 21
131.4976830503965
 31
0.0
  0
LINE
  5
33FC
330
1A
100
AcDbEntity
  8
0
 62
     0
100
AcDbLine
 10
245.3089658335963
 20
132.318564969323
 30
0.0
 11
247.291029713968
 21
134.3006288496947
 31
0.0
  0
LINE
  5
33FD
330
1A
100
AcDbEntity
  8
0
 62
     0
100
AcDbLine
 10
245.283484508148
 20
135.121510768621
 30
0.0
 11
247.2655483885197
 21
137.1035746489926
 31
0.0
  0
LINE
  5
33FE
330
1A
100
AcDbEntity
  8
0
 62
     0
100
AcDbLine
 10
245.2580031826999
 20
137.924456567919
 30
0.0
 11
247.2400670630716
 21
139.9065204482907
 31
0.0
  0
LINE
  5
33FF
330
1A
100
AcDbEntity
  8
0
 62
     0
100
AcDbLine
 10
245.2325218572517
 20
140.7274023672171
 30
0.0
 11
247.2145857376235
 21
142.7094662475888
 31
0.0
  0
LINE
  5
3400
330
1A
100
AcDbEntity
  8
0
 62
     0
100
AcDbLine
 10
245.2070405318036
 20
143.5303481665151
 30
0.0
 11
247.1891044121754
 21
145.5124120468869
 31
0.0
  0
LINE
  5
3401
330
1A
100
AcDbEntity
  8
0
 62
     0
100
AcDbLine
 10
245.1815592063554
 20
146.3332939658131
 30
0.0
 11
247.1636230867271
 21
148.3153578461848
 31
0.0
  0
LINE
  5
3402
330
1A
100
AcDbEntity
  8
0
 62
     0
100
AcDbLine
 10
245.1560778809072
 20
149.1362397651112
 30
0.0
 11
247.1381417612789
 21
151.1183036454829
 31
0.0
  0
LINE
  5
3403
330
1A
100
AcDbEntity
  8
0
 62
     0
100
AcDbLine
 10
245.1305965554592
 20
151.9391855644092
 30
0.0
 11
247.112660435831
 21
153.9212494447808
 31
0.0
  0
LINE
  5
3404
330
1A
100
AcDbEntity
  8
0
 62
     0
100
AcDbLine
 10
245.105115230011
 20
154.7421313637071
 30
0.0
 11
247.0871791103828
 21
156.7241952440789
 31
0.0
  0
LINE
  5
3405
330
1A
100
AcDbEntity
  8
0
 62
     0
100
AcDbLine
 10
245.0796339045628
 20
157.5450771630052
 30
0.0
 11
247.0616977849345
 21
159.5271410433769
 31
0.0
  0
LINE
  5
3406
330
1A
100
AcDbEntity
  8
0
 62
     0
100
AcDbLine
 10
245.0541525791146
 20
160.3480229623033
 30
0.0
 11
247.0362164594864
 21
162.330086842675
 31
0.0
  0
LINE
  5
3407
330
1A
100
AcDbEntity
  8
0
 62
     0
100
AcDbLine
 10
245.0286712536664
 20
163.1509687616012
 30
0.0
 11
247.0107351340383
 21
165.133032641973
 31
0.0
  0
LINE
  5
3408
330
1A
100
AcDbEntity
  8
0
 62
     0
100
AcDbLine
 10
245.0031899282183
 20
165.9539145608993
 30
0.0
 11
246.9852538085901
 21
167.9359784412711
 31
0.0
  0
LINE
  5
3409
330
1A
100
AcDbEntity
  8
0
 62
     0
100
AcDbLine
 10
244.9777086027701
 20
168.7568603601974
 30
0.0
 11
246.9597724831418
 21
170.7389242405691
 31
0.0
  0
LINE
  5
340A
330
1A
100
AcDbEntity
  8
0
 62
     0
100
AcDbLine
 10
244.952227277322
 20
171.5598061594954
 30
0.0
 11
246.9342911576938
 21
173.5418700398671
 31
0.0
  0
LINE
  5
340B
330
1A
100
AcDbEntity
  8
0
 62
     0
100
AcDbLine
 10
244.9267459518737
 20
174.3627519587934
 30
0.0
 11
246.9088098322457
 21
176.3448158391652
 31
0.0
  0
LINE
  5
340C
330
1A
100
AcDbEntity
  8
0
 62
     0
100
AcDbLine
 10
244.9012646264257
 20
177.1656977580913
 30
0.0
 11
246.8833285067976
 21
179.1477616384633
 31
0.0
  0
LINE
  5
340D
330
1A
100
AcDbEntity
  8
0
 62
     0
100
AcDbLine
 10
244.8757833009775
 20
179.9686435573894
 30
0.0
 11
246.8578471813493
 21
181.9507074377611
 31
0.0
  0
LINE
  5
340E
330
1A
100
AcDbEntity
  8
0
 62
     0
100
AcDbLine
 10
244.8503019755294
 20
182.7715893566875
 30
0.0
 11
246.8323658559012
 21
184.7536532370592
 31
0.0
  0
LINE
  5
340F
330
1A
100
AcDbEntity
  8
0
 62
     0
100
AcDbLine
 10
244.8248206500811
 20
185.5745351559854
 30
0.0
 11
246.8068845304531
 21
187.5565990363574
 31
0.0
  0
LINE
  5
3410
330
1A
100
AcDbEntity
  8
0
 62
     0
100
AcDbLine
 10
244.799339324633
 20
188.3774809552835
 30
0.0
 11
246.7814032050049
 21
190.3595448356553
 31
0.0
  0
LINE
  5
3411
330
1A
100
AcDbEntity
  8
0
 62
     0
100
AcDbLine
 10
244.7738579991848
 20
191.1804267545815
 30
0.0
 11
246.7559218795567
 21
193.1624906349534
 31
0.0
  0
LINE
  5
3412
330
1A
100
AcDbEntity
  8
0
 62
     0
100
AcDbLine
 10
244.7483766737367
 20
193.9833725538795
 30
0.0
 11
246.7304405541085
 21
195.9654364342515
 31
0.0
  0
LINE
  5
3413
330
1A
100
AcDbEntity
  8
0
 62
     0
100
AcDbLine
 10
244.7228953482885
 20
196.7863183531775
 30
0.0
 11
246.7049592286603
 21
198.7683822335494
 31
0.0
  0
LINE
  5
3414
330
1A
100
AcDbEntity
  8
0
 62
     0
100
AcDbLine
 10
244.6974140228403
 20
199.5892641524757
 30
0.0
 11
246.6794779032122
 21
201.5713280328475
 31
0.0
  0
LINE
  5
3415
330
1A
100
AcDbEntity
  8
0
 62
     0
100
AcDbLine
 10
244.6719326973921
 20
202.3922099517737
 30
0.0
 11
246.653996577764
 21
204.3742738321456
 31
0.0
  0
LINE
  5
3416
330
1A
100
AcDbEntity
  8
0
 62
     0
100
AcDbLine
 10
244.646451371944
 20
205.1951557510715
 30
0.0
 11
246.628515252316
 21
207.1772196314435
 31
0.0
  0
LINE
  5
3417
330
1A
100
AcDbEntity
  8
0
 62
     0
100
AcDbLine
 10
244.6209700464958
 20
207.9981015503696
 30
0.0
 11
246.6030339268678
 21
209.9801654307416
 31
0.0
  0
LINE
  5
3418
330
1A
100
AcDbEntity
  8
0
 62
     0
100
AcDbLine
 10
244.5954887210477
 20
210.8010473496677
 30
0.0
 11
246.5775526014197
 21
212.7831112300397
 31
0.0
  0
LINE
  5
3419
330
1A
100
AcDbEntity
  8
0
 62
     0
100
AcDbLine
 10
244.5700073955995
 20
213.6039931489656
 30
0.0
 11
246.5520712759714
 21
215.5860570293377
 31
0.0
  0
LINE
  5
341A
330
1A
100
AcDbEntity
  8
0
 62
     0
100
AcDbLine
 10
244.5445260701514
 20
216.4069389482637
 30
0.0
 11
246.5265899505233
 21
218.3890028286358
 31
0.0
  0
LINE
  5
341B
330
1A
100
AcDbEntity
  8
0
 62
     0
100
AcDbLine
 10
244.5190447447032
 20
219.2098847475618
 30
0.0
 11
246.5011086250752
 21
221.1919486279338
 31
0.0
  0
LINE
  5
341C
330
1A
100
AcDbEntity
  8
0
 62
     0
100
AcDbLine
 10
244.493563419255
 20
222.0128305468597
 30
0.0
 11
246.475627299627
 21
223.9948944272318
 31
0.0
  0
LINE
  5
341D
330
1A
100
AcDbEntity
  8
0
 62
     0
100
AcDbLine
 10
244.4680820938067
 20
224.8157763461578
 30
0.0
 11
246.4501459741788
 21
226.7978402265299
 31
0.0
  0
LINE
  5
341E
330
1A
100
AcDbEntity
  8
0
 62
     0
100
AcDbLine
 10
244.4426007683586
 20
227.6187221454559
 30
0.0
 11
246.4246646487306
 21
229.6007860258279
 31
0.0
  0
LINE
  5
341F
330
1A
100
AcDbEntity
  8
0
 62
     0
100
AcDbLine
 10
244.4171194429105
 20
230.4216679447538
 30
0.0
 11
246.3991833232825
 21
232.403731825126
 31
0.0
  0
LINE
  5
3420
330
1A
100
AcDbEntity
  8
0
 62
     0
100
AcDbLine
 10
244.3916381174623
 20
233.2246137440518
 30
0.0
 11
246.3737019978345
 21
235.2066776244239
 31
0.0
  0
LINE
  5
3421
330
1A
100
AcDbEntity
  8
0
 62
     0
100
AcDbLine
 10
244.3661567920142
 20
236.0275595433499
 30
0.0
 11
245.6956863072462
 21
237.3570890585819
 31
0.0
  0
LINE
  5
3BD9
330
1A
100
AcDbEntity
  8
SEIHIN
  6
PHANTOM2
 62
   251
 48
0.5
370
     5
100
AcDbLine
 10
254.3540701600575
 20
30.02825514982067
 30
0.0
 11
254.3540701600575
 21
102.3570890585821
 31
0.0
  0
LINE
  5
3BDA
330
1A
100
AcDbEntity
  8
SEIHIN
  6
PHANTOM2
 62
   251
 48
0.5
370
     5
100
AcDbLine
 10
251.2540701600575
 20
30.02825514982067
 30
0.0
 11
251.2540701600575
 21
102.3570890585821
 31
0.0
  0
DIMENSION
  5
3C21
330
1A
100
AcDbEntity
  8
SUNPOU
  6
Continuous
100
AcDbDimension
  2
*D7
 10
214.9867667818869
 20
162.3570890585821
 30
0.0
 11
209.9867667818869
 21
117.3570890585821
 31
0.0
 70
    32
  1
たてといの端部位置\P８０～１００ｍｍ
 71
     5
 42
90.0
  3
STANDARD
100
AcDbAlignedDimension
 13
246.0412964730704
 23
72.35708905858212
 33
0.0
 14
244.9503873821612
 24
162.3570890585821
 34
0.0
 50
90.0
100
AcDbRotatedDimension
1001
ACAD
1000
DSTYLE
1002
{
1070
    41
1040
3.0
1070
    42
1040
3.0
1070
    43
1040
7.0
1070
    44
1040
1.5
1070
    73
1070
     0
1070
    74
1070
     0
1070
    77
1070
     3
1070
   140
1040
3.0
1070
   141
1040
150.0
1070
   147
1040
1.0
1070
   172
1070
     1
1070
   173
1070
     1
1070
   176
1070
     4
1070
   177
1070
     4
1070
   178
1070
     4
1070
   271
1070
     0
1070
   272
1070
     2
1070
     6
1000
OPEN
1070
     7
1000
OPEN
1002
}
  0
DIMENSION
  5
3C22
330
1A
100
AcDbEntity
  8
SUNPOU
  6
Continuous
100
AcDbDimension
  2
*D8
 10
236.3372159939429
 20
72.35708905858212
 30
0.0
 11
231.6132640463804
 21
91.0203413994451
 31
0.0
 70
   160
  1
排水管のパイプの高さ\P３０～３５ｍｍ
 71
     5
 42
30.0
  3
STANDARD
100
AcDbAlignedDimension
 13
249.4104759446454
 23
102.3570890585821
 33
0.0
 14
248.4044188115506
 24
72.35708905858212
 34
0.0
 50
90.0
100
AcDbRotatedDimension
1001
ACAD
1000
DSTYLE
1002
{
1070
   287
1070
     5
1070
   287
1070
     5
1070
    41
1040
3.0
1070
    42
1040
3.0
1070
    43
1040
7.0
1070
    44
1040
1.5
1070
    73
1070
     0
1070
    74
1070
     0
1070
    77
1070
     3
1070
   140
1040
3.0
1070
   141
1040
150.0
1070
   147
1040
1.0
1070
   172
1070
     1
1070
   173
1070
     1
1070
   176
1070
     4
1070
   177
1070
     4
1070
   178
1070
     4
1070
   271
1070
     0
1070
   272
1070
     2
1070
   279
1070
     2
1070
     6
1000
OPEN
1070
     7
1000
OPEN
1002
}
  0
LINE
  5
3C26
330
1A
100
AcDbEntity
  8
SEIHIN
  6
PHANTOM2
 62
   251
 48
0.5
370
     5
100
AcDbLine
 10
267.3540701600574
 20
30.02825514982067
 30
0.0
 11
267.3540701600574
 21
102.3570890585821
 31
0.0
  0
LINE
  5
3C27
330
1A
100
AcDbEntity
  8
SEIHIN
  6
PHANTOM2
 62
   251
 48
0.5
370
     5
100
AcDbLine
 10
263.2540701600575
 20
30.02825514982067
 30
0.0
 11
263.2540701600575
 21
102.3570890585821
 31
0.0
  0
LINE
  5
3C28
330
1A
100
AcDbEntity
  8
SEIHIN
  6
PHANTOM2
 62
   251
 48
0.5
370
     5
100
AcDbLine
 10
256.9880175737953
 20
102.3570890585821
 30
0.0
 11
267.3540701600574
 21
102.3570890585821
 31
0.0
  0
LEADER
  5
3C2A
330
1A
100
AcDbEntity
  8
SUNPOU
100
AcDbLeader
  3
STANDARD
 76
     3
 10
262.4207361279441
 20
102.3570890585822
 30
0.0
 10
279.3118991700822
 20
136.310246232486
 30
0.0
 10
303.3254830830626
 20
136.310246232486
 30
0.0
1001
ACAD
1000
DSTYLE
1002
{
1070
    41
1040
3.0
1070
    42
1040
3.0
1070
    43
1040
7.0
1070
    44
1040
1.5
1070
    73
1070
     0
1070
    74
1070
     0
1070
    77
1070
     0
1070
   140
1040
3.0
1070
   141
1040
150.0
1070
   147
1040
1.0
1070
   172
1070
     1
1070
   173
1070
     1
1070
   176
1070
   256
1070
   177
1070
   256
1070
   178
1070
   256
1070
   271
1070
     0
1070
   272
1070
     0
1070
   341
1005
B2
1070
   343
1005
B2
1070
   344
1005
B2
1070
   371
1070
    -1
1070
   372
1070
    -1
1002
}
  0
TEXT
  5
3C2C
330
1A
100
AcDbEntity
  8
moji
100
AcDbText
 10
280.2084621956024
 20
137.4495214606417
 30
0.0
 40
2.799999999999998
  1
VU125 VP125
 41
0.9
  7
ｽﾀｲﾙ1
100
AcDbText
  0
LINE
  5
3C7C
330
1A
100
AcDbEntity
  8
SEIHIN
  6
PHANTOM2
 62
   251
 48
0.5
370
     5
100
AcDbLine
 10
254.3540701600575
 20
102.3570890585821
 30
0.0
 11
249.2154135648804
 21
102.3570890585821
 31
0.0
  0
LEADER
  5
3C80
330
1A
100
AcDbEntity
  8
SUNPOU
100
AcDbLeader
  3
STANDARD
 76
     3
 10
252.1799164967295
 20
102.3570890585821
 30
0.0
 10
273.711074785534
 20
145.5271734393159
 30
0.0
 10
286.4164272417147
 20
145.5271734393159
 30
0.0
1001
ACAD
1000
DSTYLE
1002
{
1070
    41
1040
3.0
1070
    42
1040
3.0
1070
    43
1040
7.0
1070
    44
1040
1.5
1070
    73
1070
     0
1070
    74
1070
     0
1070
    77
1070
     0
1070
   140
1040
3.0
1070
   141
1040
150.0
1070
   147
1040
1.0
1070
   172
1070
     1
1070
   173
1070
     1
1070
   176
1070
   256
1070
   177
1070
   256
1070
   178
1070
   256
1070
   271
1070
     0
1070
   272
1070
     0
1070
   341
1005
B2
1070
   343
1005
B2
1070
   344
1005
B2
1070
   371
1070
    -1
1070
   372
1070
    -1
1002
}
  0
TEXT
  5
3C81
330
1A
100
AcDbEntity
  8
moji
100
AcDbText
 10
274.6076378110543
 20
146.6664486674715
 30
0.0
 40
2.799999999999998
  1
VU100
 41
0.9
  7
ｽﾀｲﾙ1
100
AcDbText
  0
LINE
  5
3C86
330
1A
100
AcDbEntity
  8
SEIHIN
  6
PHANTOM2
 62
   251
 48
0.5
370
     5
100
AcDbLine
 10
260.3540702145068
 20
30.02804515145624
 30
0.0
 11
260.3540702145068
 21
102.3568790602176
 31
0.0
  0
TEXT
  5
41B9
330
1A
100
AcDbEntity
  8
moji
100
AcDbText
 10
327.3690596105033
 20
45.77742703900081
 30
0.0
 40
2.799999999999998
  1
※VP100には、対応しません。
 41
0.9
  7
ｽﾀｲﾙ1
100
AcDbText
  0
LINE
  5
4254
330
1A
100
AcDbEntity
  8
SEIHIN
  6
PHANTOM2
 62
   251
 48
0.5
370
     5
100
AcDbLine
 10
279.8540701600574
 20
30.02825514982044
 30
0.0
 11
279.8540701600574
 21
102.3570890585819
 31
0.0
  0
LINE
  5
4255
330
1A
100
AcDbEntity
  8
SEIHIN
  6
PHANTOM2
 62
   251
 48
0.5
370
     5
100
AcDbLine
 10
274.7540701451467
 20
30.02825514982044
 30
0.0
 11
274.7540701451466
 21
102.3570890585819
 31
0.0
  0
LINE
  5
4256
330
1A
100
AcDbEntity
  8
SEIHIN
  6
PHANTOM2
 62
   251
 48
0.5
370
     5
100
AcDbLine
 10
269.4880175737954
 20
102.3570890585819
 30
0.0
 11
279.8540701600574
 21
102.3570890585819
 31
0.0
  0
LEADER
  5
4257
330
1A
100
AcDbEntity
  8
SUNPOU
100
AcDbLeader
  3
STANDARD
 76
     3
 10
275.2406563047611
 20
102.2877450711076
 30
0.0
 10
287.0817411195673
 20
126.0896711328994
 30
0.0
 10
316.1454032598797
 20
126.0842989631013
 30
0.0
1001
ACAD
1000
DSTYLE
1002
{
1070
    41
1040
3.0
1070
    42
1040
3.0
1070
    43
1040
7.0
1070
    44
1040
1.5
1070
    73
1070
     0
1070
    74
1070
     0
1070
    77
1070
     0
1070
   140
1040
3.0
1070
   141
1040
150.0
1070
   147
1040
1.0
1070
   172
1070
     1
1070
   173
1070
     1
1070
   176
1070
   256
1070
   177
1070
   256
1070
   178
1070
   256
1070
   271
1070
     0
1070
   272
1070
     0
1070
   341
1005
B2
1070
   343
1005
B2
1070
   344
1005
B2
1070
   371
1070
    -1
1070
   372
1070
    -1
1002
}
  0
TEXT
  5
4258
330
1A
100
AcDbEntity
  8
moji
100
AcDbText
 10
288.5366290305083
 20
127.2665311911944
 30
0.0
 40
2.799999999999998
  1
VU150 VP150
 41
0.9
  7
ｽﾀｲﾙ1
100
AcDbText
  0
LINE
  5
4259
330
1A
100
AcDbEntity
  8
SEIHIN
  6
PHANTOM2
 62
   251
 48
0.5
370
     5
100
AcDbLine
 10
270.9540701723252
 20
30.02825514982025
 30
0.0
 11
270.9540701723252
 21
102.3570890585817
 31
0.0
  0
LINE
  5
42AD
330
1A
100
AcDbEntity
  8
CENTER L
100
AcDbLine
 10
197.3540701600575
 20
60.09872273633743
 30
0.0
 11
197.3540701600575
 21
37.08431948169585
 31
0.0
  0
VIEWPORT
  5
22
330
17
100
AcDbEntity
 67
     1
  8
0
100
AcDbViewport
 10
313.6808219178083
 20
148.5
 30
0.0
 40
627.3616438356165
 41
297.0
 68
     2
 69
     1
 12
313.6808219178083
 22
148.5
 13
0.0
 23
0.0
 14
1.0
 24
1.0
 15
10.0
 25
10.0
 16
0.0
 26
0.0
 36
1.0
 17
0.0
 27
0.0
 37
0.0
 42
50.0
 43
0.0
 44
0.0
 45
297.0
 50
0.0
 51
0.0
 72
   100
 90
    32768
  1

281
     0
 71
     1
 74
     0
110
0.0
120
0.0
130
0.0
111
1.0
121
0.0
131
0.0
112
0.0
122
1.0
132
0.0
 79
     0
146
0.0
170
     0
  0
VIEWPORT
  5
64
330
17
100
AcDbEntity
 67
     1
  8
VIEWPORT
100
AcDbViewport
 10
210.0
 20
148.5
 30
0.0
 40
420.0
 41
297.0
 68
     1
 69
     2
 12
210.0
 22
148.5
 13
0.0
 23
0.0
 14
5.0
 24
5.0
 15
0.0
 25
0.0
 16
0.0
 26
0.0
 36
1.0
 17
0.0
 27
0.0
 37
0.0
 42
50.0
 43
0.0
 44
0.0
 45
302.9399999999999
 50
0.0
 51
0.0
 72
   100
 90
    32768
  1

281
     0
 71
     1
 74
     0
110
0.0
120
0.0
130
0.0
111
1.0
121
0.0
131
0.0
112
0.0
122
1.0
132
0.0
 79
     0
146
0.0
170
     0
  0
ENDSEC
  0
SECTION
  2
OBJECTS
  0
DICTIONARY
  5
C
330
0
100
AcDbDictionary
281
     1
  3
ACAD_COLOR
350
2F77
  3
ACAD_GROUP
350
D
  3
ACAD_LAYOUT
350
291
  3
ACAD_MATERIAL
350
2F45
  3
ACAD_MLEADERSTYLE
350
2F8C
  3
ACAD_MLINESTYLE
350
E
  3
ACAD_PLOTSETTINGS
350
292
  3
ACAD_PLOTSTYLENAME
350
28F
  3
ACAD_SCALELIST
350
2F7A
  3
ACAD_TABLESTYLE
350
2F78
  3
ACAD_VISUALSTYLE
350
2F5E
  3
ACDB_RECOMPOSE_DATA
350
43BD
  3
AcDbVariableDictionary
350
312F
  0
DICTIONARY
  5
3144
330
8
100
AcDbDictionary
280
     1
281
     1
  3
ACAD_XREC_ROUNDTRIP
360
3145
  0
DICTIONARY
  5
436C
330
2
100
AcDbDictionary
280
     1
281
     1
  3
ACAD_LAYERSTATES
360
436D
  0
DICTIONARY
  5
3121
330
F
100
AcDbDictionary
280
     1
281
     1
  3
ADSK_XREC_LAYER_RECONCILED
360
3122
  0
DICTIONARY
  5
3123
330
62
100
AcDbDictionary
280
     1
281
     1
  3
ADSK_XREC_LAYER_RECONCILED
360
3124
  0
DICTIONARY
  5
3125
330
6B
100
AcDbDictionary
280
     1
281
     1
  3
ADSK_XREC_LAYER_RECONCILED
360
3126
  0
DICTIONARY
  5
3127
330
140
100
AcDbDictionary
280
     1
281
     1
  3
ADSK_XREC_LAYER_RECONCILED
360
3128
  0
DICTIONARY
  5
3129
330
141
100
AcDbDictionary
280
     1
281
     1
  3
ADSK_XREC_LAYER_RECONCILED
360
312A
  0
DICTIONARY
  5
312B
330
142
100
AcDbDictionary
280
     1
281
     1
  3
ADSK_XREC_LAYER_RECONCILED
360
312C
  0
DICTIONARY
  5
312D
330
4EF
100
AcDbDictionary
280
     1
281
     1
  3
ADSK_XREC_LAYER_RECONCILED
360
312E
  0
DICTIONARY
  5
2D8
330
1A
100
AcDbDictionary
280
     1
281
     1
  3
ACAD_LAYOUTSELFREF
360
36A7
  3
ACAD_SORTENTS
360
3082
  0
DICTIONARY
  5
2D6
330
17
100
AcDbDictionary
280
     1
281
     1
  3
ACAD_LAYOUTSELFREF
360
36A6
  0
DICTIONARY
  5
43FC
330
43FB
100
AcDbDictionary
280
     1
281
     1
  3
ACAD_SORTENTS
360
43FD
  0
DICTIONARY
  5
440B
330
440A
100
AcDbDictionary
280
     1
281
     1
  3
ACAD_SORTENTS
360
440C
  0
DICTIONARY
  5
2F77
102
{ACAD_REACTORS
330
C
102
}
330
C
100
AcDbDictionary
281
     1
  0
DICTIONARY
  5
D
102
{ACAD_REACTORS
330
C
102
}
330
C
100
AcDbDictionary
281
     1
  0
DICTIONARY
  5
291
102
{ACAD_REACTORS
330
C
102
}
330
C
100
AcDbDictionary
281
     1
  3
Model
350
293
  3
ﾚｲｱｳﾄ1
350
294
  0
DICTIONARY
  5
2F45
102
{ACAD_REACTORS
330
C
102
}
330
C
100
AcDbDictionary
281
     1
  3
ByBlock
350
2F4E
  3
ByLayer
350
2F46
  3
Global
350
2F56
  0
DICTIONARY
  5
2F8C
102
{ACAD_REACTORS
330
C
102
}
330
C
100
AcDbDictionary
281
     1
  3
Standard
350
2F8D
  0
DICTIONARY
  5
E
102
{ACAD_REACTORS
330
C
102
}
330
C
100
AcDbDictionary
281
     1
  3
STANDARD
350
13
  0
DICTIONARY
  5
292
102
{ACAD_REACTORS
330
C
102
}
330
C
100
AcDbDictionary
281
     1
  0
ACDBDICTIONARYWDFLT
  5
28F
102
{ACAD_REACTORS
330
C
102
}
330
C
100
AcDbDictionary
281
     1
  3
Normal
350
290
100
AcDbDictionaryWithDefault
340
290
  0
DICTIONARY
  5
2F7A
102
{ACAD_REACTORS
330
C
102
}
330
C
100
AcDbDictionary
281
     1
  3
A0
350
2F7B
  3
A1
350
2F7C
  3
A2
350
2F7D
  3
A3
350
2F7E
  3
A4
350
2F7F
  3
A5
350
2F80
  3
A6
350
2F81
  3
A7
350
2F82
  3
A8
350
2F83
  3
A9
350
2F84
  3
B0
350
2F85
  3
B1
350
2F86
  3
B2
350
2F87
  3
B3
350
2F88
  3
B4
350
2F89
  3
B5
350
2F8A
  3
B6
350
2F8B
  0
DICTIONARY
  5
2F78
102
{ACAD_REACTORS
330
C
102
}
330
C
100
AcDbDictionary
281
     1
  3
Standard
350
2F79
  0
DICTIONARY
  5
2F5E
102
{ACAD_REACTORS
330
C
102
}
330
C
100
AcDbDictionary
281
     1
  3
2dWireframe
350
2F64
  3
Basic
350
2F63
  3
Brighten
350
2F6A
  3
ColorChange
350
2F6E
  3
Conceptual
350
2F67
  3
Dim
350
2F69
  3
EdgeColorOff
350
2F76
  3
Facepattern
350
2F6D
  3
Flat
350
2F5F
  3
FlatWithEdges
350
2F60
  3
Gouraud
350
2F61
  3
GouraudWithEdges
350
2F62
  3
Hidden
350
2F66
  3
JitterOff
350
2F74
  3
Linepattern
350
2F6C
  3
OverhangOff
350
2F75
  3
Realistic
350
2F68
  3
Shaded
350
2F73
  3
Shaded with edges
350
2F72
  3
Shades of Gray
350
2F6F
  3
Sketchy
350
2F70
  3
Thicken
350
2F6B
  3
Wireframe
350
2F65
  3
X-Ray
350
2F71
  0
XRECORD
  5
43BD
102
{ACAD_REACTORS
330
C
102
}
330
C
100
AcDbXrecord
280
     1
 90
        1
330
2F79
330
3C22
  0
DICTIONARY
  5
312F
102
{ACAD_REACTORS
330
C
102
}
330
C
100
AcDbDictionary
281
     1
  3
CANNOSCALE
350
3133
  3
CMLEADERSTYLE
350
3131
  3
CTABLESTYLE
350
3130
  3
DIMASSOC
350
3185
  3
INDEXCTL
350
3184
  3
LAYEREVAL
350
3135
  3
LAYERNOTIFY
350
3136
  3
LIGHTINGUNITS
350
3134
  3
MSLTSCALE
350
3132
  3
SORTENTS
350
3183
  3
XCLIPFRAME
350
437E
  0
XRECORD
  5
3145
102
{ACAD_REACTORS
330
3144
102
}
330
3144
100
AcDbXrecord
280
     1
102
VTR_0.000_0.000_1.000_1.000_VISUALSTYLE
340
2F64
102
VTR_0.000_0.000_1.000_1.000_GRIDDISPLAY
 70
     3
102
VTR_0.000_0.000_1.000_1.000_GRIDMAJOR
 70
     5
102
VTR_0.000_0.000_1.000_1.000_DEFAULTLIGHTING
280
     1
102
VTR_0.000_0.000_1.000_1.000_DEFAULTLIGHTINGTYPE
 70
     1
102
VTR_0.000_0.000_1.000_1.000_BRIGHTNESS
141
0.0
102
VTR_0.000_0.000_1.000_1.000_CONTRAST
142
0.0
  0
DICTIONARY
  5
436D
102
{ACAD_REACTORS
330
436C
102
}
330
436C
100
AcDbDictionary
281
     1
  0
XRECORD
  5
3122
102
{ACAD_REACTORS
330
3121
102
}
330
3121
100
AcDbXrecord
280
     1
290
     1
  0
XRECORD
  5
3124
102
{ACAD_REACTORS
330
3123
102
}
330
3123
100
AcDbXrecord
280
     1
290
     1
  0
XRECORD
  5
3126
102
{ACAD_REACTORS
330
3125
102
}
330
3125
100
AcDbXrecord
280
     1
290
     1
  0
XRECORD
  5
3128
102
{ACAD_REACTORS
330
3127
102
}
330
3127
100
AcDbXrecord
280
     1
290
     1
  0
XRECORD
  5
312A
102
{ACAD_REACTORS
330
3129
102
}
330
3129
100
AcDbXrecord
280
     1
290
     1
  0
XRECORD
  5
312C
102
{ACAD_REACTORS
330
312B
102
}
330
312B
100
AcDbXrecord
280
     1
290
     1
  0
XRECORD
  5
312E
102
{ACAD_REACTORS
330
312D
102
}
330
312D
100
AcDbXrecord
280
     1
290
     1
  0
XRECORD
  5
36A7
102
{ACAD_REACTORS
330
2D8
102
}
330
2D8
100
AcDbXrecord
280
     1
340
1A
  0
SORTENTSTABLE
  5
3082
102
{ACAD_REACTORS
330
2D8
102
}
330
2D8
100
AcDbSortentsTable
330
1A
331
3010
  5
3013
331
3018
  5
301D
331
2BB8
  5
2BB8
331
2BC0
  5
2BC0
331
2BFF
  5
2BFF
331
2C30
  5
2C30
331
2FFF
  5
2FFF
331
2C11
  5
2C11
331
2BC8
  5
2BC8
331
2C07
  5
2C07
331
2C0F
  5
2C0F
331
2C48
  5
2C48
331
2BD0
  5
2BD0
331
3007
  5
3007
331
300F
  5
3012
331
2C60
  5
2C60
331
2BD8
  5
2BD8
331
2BE0
  5
2BE0
331
5F1
  5
5F1
331
2C68
  5
2C68
331
2C70
  5
2C70
331
2BB3
  5
2BB3
331
2BA1
  5
2BA1
331
2BE8
  5
2BE8
331
2C19
  5
2C19
331
2C21
  5
2C21
331
2BF0
  5
2BF0
331
2C29
  5
2C29
331
2BB9
  5
2BB9
331
2BF8
  5
2BF8
331
2C00
  5
2C00
331
2C31
  5
2C31
331
2BC1
  5
2BC1
331
2FF8
  5
2FF8
331
3000
  5
3000
331
2BC9
  5
2BC9
331
2C08
  5
2C08
331
2C12
  5
2C12
331
3008
  5
300A
331
2BD1
  5
2BD1
331
2C49
  5
2C49
331
2C61
  5
2C61
331
2BD9
  5
2BD9
331
2C69
  5
2C69
331
5F2
  5
5F2
331
2BE1
  5
2BE1
331
2C1A
  5
2C1A
331
2BB4
  5
2BB4
331
2C71
  5
2C71
331
2BA2
  5
2BA2
331
2BE9
  5
2BE9
331
2BF1
  5
2BF1
331
2C22
  5
2C22
331
2C89
  5
2C89
331
3024
  5
3026
331
2C2A
  5
2C2A
331
3012
  5
3014
331
2BBA
  5
2BBA
331
2BF9
  5
2BF9
331
2C32
  5
2C32
331
2FF9
  5
2FF9
331
2BC2
  5
2BC2
331
2C01
  5
2C01
331
3001
  5
3001
331
2C13
  5
2C13
331
2BCA
  5
2BCA
331
2C09
  5
2C09
331
2C4A
  5
2C4A
331
2BD2
  5
2BD2
331
3009
  5
300B
331
2C62
  5
2C62
331
2BDA
  5
2BDA
331
2BE2
  5
2BE2
331
5F3
  5
5F3
331
2C6A
  5
2C6A
331
2C72
  5
2C72
331
2BB5
  5
2BB5
331
2BA3
  5
2BA3
331
2BEA
  5
2BEA
331
2C1B
  5
2C1B
331
2C23
  5
2C23
331
2C8A
  5
2C8A
331
2BF2
  5
2BF2
331
2C2B
  5
2C2B
331
3025
  5
3081
331
3013
  5
3015
331
2BBB
  5
2BBB
331
2BFA
  5
2BFA
331
2C02
  5
2C02
331
2C33
  5
2C33
331
2BC3
  5
2BC3
331
2FFA
  5
2FFA
331
3002
  5
3002
331
2BCB
  5
2BCB
331
2C0A
  5
2C0A
331
2C14
  5
2C14
331
2BD3
  5
2BD3
331
300A
  5
300C
331
2C63
  5
2C63
331
2BDB
  5
2BDB
331
2C6B
  5
2C6B
331
2BE3
  5
2BE3
331
2C1C
  5
2C1C
331
2BEB
  5
2BEB
331
2BA4
  5
2BA4
331
2BB6
  5
2BB6
331
2C73
  5
2C73
331
2BF3
  5
2BF3
331
2C24
  5
2C24
331
2C8B
  5
2C8B
331
3026
  5
3083
331
2C2C
  5
2C2C
331
2BBC
  5
2BBC
331
2BFB
  5
2BFB
331
2C34
  5
2C34
331
2FFB
  5
2FFB
331
2BC4
  5
2BC4
331
2C03
  5
2C03
331
3003
  5
3003
331
2C15
  5
2C15
331
2BCC
  5
2BCC
331
2C0B
  5
2C0B
331
2BD4
  5
2BD4
331
300B
  5
300D
331
2C64
  5
2C64
331
2BDC
  5
2BDC
331
2C6C
  5
2C6C
331
2BE4
  5
2BE4
331
2C74
  5
2C74
331
2BB7
  5
2BB7
331
2BA5
  5
2BA5
331
2BEC
  5
2BEC
331
2C1D
  5
2C1D
331
2C25
  5
2C25
331
2C8C
  5
2C8C
331
2BF4
  5
2BF4
331
2C2D
  5
2C2D
331
3015
  5
3017
331
2BFC
  5
2BFC
331
2BBD
  5
2BBD
331
2C04
  5
2C04
331
2C35
  5
2C35
331
2BC5
  5
2BC5
331
2FFC
  5
2FFC
331
3004
  5
3004
331
2BCD
  5
2BCD
331
2C0C
  5
2C0C
331
2C16
  5
2C16
331
2BD5
  5
2BD5
331
300C
  5
300E
331
2C65
  5
2C65
331
2BDD
  5
2BDD
331
2BB0
  5
2BB0
331
2C6D
  5
2C6D
331
2BE5
  5
2BE5
331
2BED
  5
2BED
331
2C1E
  5
2C1E
331
2BA6
  5
2BA6
331
2C75
  5
2C75
331
2C26
  5
2C26
331
2BF5
  5
2BF5
331
3020
  5
3022
331
2C2E
  5
2C2E
331
3016
  5
3018
331
2BBE
  5
2BBE
331
2BFD
  5
2BFD
331
2C36
  5
2C36
331
2FFD
  5
2FFD
331
2BC6
  5
2BC6
331
2C05
  5
2C05
331
2C0D
  5
2C0D
331
2C17
  5
2C17
331
2BCE
  5
2BCE
331
3005
  5
3005
331
2BD6
  5
2BD6
331
300D
  5
300F
331
2C66
  5
2C66
331
2BDE
  5
2BDE
331
5EF
  5
5EF
331
2BB1
  5
2BB1
331
2C6E
  5
2C6E
331
2BE6
  5
2BE6
331
2BA7
  5
2BA7
331
2BEE
  5
2BEE
331
2C1F
  5
2C1F
331
2C27
  5
2C27
331
3021
  5
3024
331
2C8E
  5
2C8E
331
2BF6
  5
2BF6
331
2C2F
  5
2C2F
331
2FF6
  5
2FF6
331
2BFE
  5
2BFE
331
2BBF
  5
2BBF
331
2FFE
  5
2FFE
331
2C06
  5
2C06
331
2C10
  5
2C10
331
2BC7
  5
2BC7
331
3006
  5
3006
331
2BCF
  5
2BCF
331
2C0E
  5
2C0E
331
2C47
  5
2C47
331
2BD7
  5
2BD7
331
300E
  5
3010
331
2C67
  5
2C67
331
5F0
  5
5F0
331
2BDF
  5
2BDF
331
2C18
  5
2C18
331
2BB2
  5
2BB2
331
2C6F
  5
2C6F
331
2BE7
  5
2BE7
331
2BEF
  5
2BEF
331
2C20
  5
2C20
331
2BA8
  5
2BA8
331
3022
  5
3025
331
2BF7
  5
2BF7
331
2C28
  5
2C28
331
2FF7
  5
2FF7
  0
XRECORD
  5
36A6
102
{ACAD_REACTORS
330
2D6
102
}
330
2D6
100
AcDbXrecord
280
     1
340
17
  0
SORTENTSTABLE
  5
43FD
102
{ACAD_REACTORS
330
43FC
102
}
330
43FC
100
AcDbSortentsTable
330
43FB
  0
SORTENTSTABLE
  5
440C
102
{ACAD_REACTORS
330
440B
102
}
330
440B
100
AcDbSortentsTable
330
440A
  0
LAYOUT
  5
293
102
{ACAD_XDICTIONARY
360
4372
102
}
102
{ACAD_REACTORS
330
291
102
}
330
291
100
AcDbPlotSettings
  1

  2
LBP3980
  4
A3
  6

 40
5.873749732971191
 41
5.873747825622557
 42
5.873748779296875
 43
5.873748779296875
 44
296.9259948730469
 45
419.9466552734373
 46
4.669999999999999
 47
4.69
 48
0.0
 49
0.0
140
0.0
141
0.0
142
1.0
143
1.0
 70
 11956
 72
     1
 73
     1
 74
     1
  7
monochrome.ctb
 75
    16
147
1.0
 76
     0
 77
     2
 78
   300
148
-5.819092781538073
149
-8.148285613102187
100
AcDbLayout
  1
Model
 70
     1
 71
     0
 10
0.0
 20
0.0
 11
12.0
 21
9.0
 12
0.0
 22
0.0
 32
0.0
 14
0.0
 24
0.0
 34
0.0
 15
0.0
 25
0.0
 35
0.0
146
0.0
 13
0.0
 23
0.0
 33
0.0
 16
1.0
 26
0.0
 36
0.0
 17
0.0
 27
1.0
 37
0.0
 76
     0
330
1A
331
41C6
  0
LAYOUT
  5
294
102
{ACAD_REACTORS
330
291
102
}
330
291
100
AcDbPlotSettings
  1

  2
Acrobat Distiller
  4

  6

 40
0.0
 41
0.0
 42
0.0
 43
0.0
 44
0.0
 45
0.0
 46
0.0
 47
0.0
 48
0.0
 49
0.0
140
0.0
141
0.0
142
1.0
143
1.0
 70
   688
 72
     0
 73
     0
 74
     5
  7
monochrome.ctb
 75
    16
147
1.0
 76
     0
 77
     2
 78
   300
148
0.0
149
0.0
100
AcDbLayout
  1
ﾚｲｱｳﾄ1
 70
     1
 71
     1
 10
0.0
 20
0.0
 11
420.0
 21
297.0
 12
0.0
 22
0.0
 32
0.0
 14
0.0
 24
0.0
 34
0.0
 15
420.0
 25
297.0
 35
0.0
146
0.0
 13
0.0
 23
0.0
 33
0.0
 16
1.0
 26
0.0
 36
0.0
 17
0.0
 27
1.0
 37
0.0
 76
     0
330
17
331
64
  0
MATERIAL
  5
2F4E
330
2F45
100
AcDbMaterial
  1
ByBlock
 72
     0
 43
0.0208333333333333
 43
0.0
 43
0.0
 43
0.0
 43
0.0
 43
0.0208333333333333
 43
0.0
 43
0.0
 43
0.0
 43
0.0
 43
1.0
 43
0.0
 43
0.0
 43
0.0
 43
0.0
 43
1.0
 77
     0
 47
0.0208333333333333
 47
0.0
 47
0.0
 47
0.0
 47
0.0
 47
0.0208333333333333
 47
0.0
 47
0.0
 47
0.0
 47
0.0
 47
1.0
 47
0.0
 47
0.0
 47
0.0
 47
0.0
 47
1.0
171
     0
 49
0.0208333333333333
 49
0.0
 49
0.0
 49
0.0
 49
0.0
 49
0.0208333333333333
 49
0.0
 49
0.0
 49
0.0
 49
0.0
 49
1.0
 49
0.0
 49
0.0
 49
0.0
 49
0.0
 49
1.0
175
     0
142
0.0208333333333333
142
0.0
142
0.0
142
0.0
142
0.0
142
0.0208333333333333
142
0.0
142
0.0
142
0.0
142
0.0
142
1.0
142
0.0
142
0.0
142
0.0
142
0.0
142
1.0
179
     0
144
0.0208333333333333
144
0.0
144
0.0
144
0.0
144
0.0
144
0.0208333333333333
144
0.0
144
0.0
144
0.0
144
0.0
144
1.0
144
0.0
144
0.0
144
0.0
144
0.0
144
1.0
147
0.0208333333333333
147
0.0
147
0.0
147
0.0
147
0.0
147
0.0208333333333333
147
0.0
147
0.0
147
0.0
147
0.0
147
1.0
147
0.0
147
0.0
147
0.0
147
0.0
147
1.0
  0
MATERIAL
  5
2F46
330
2F45
100
AcDbMaterial
  1
ByLayer
 72
     0
 43
0.0208333333333333
 43
0.0
 43
0.0
 43
0.0
 43
0.0
 43
0.0208333333333333
 43
0.0
 43
0.0
 43
0.0
 43
0.0
 43
1.0
 43
0.0
 43
0.0
 43
0.0
 43
0.0
 43
1.0
 77
     0
 47
0.0208333333333333
 47
0.0
 47
0.0
 47
0.0
 47
0.0
 47
0.0208333333333333
 47
0.0
 47
0.0
 47
0.0
 47
0.0
 47
1.0
 47
0.0
 47
0.0
 47
0.0
 47
0.0
 47
1.0
171
     0
 49
0.0208333333333333
 49
0.0
 49
0.0
 49
0.0
 49
0.0
 49
0.0208333333333333
 49
0.0
 49
0.0
 49
0.0
 49
0.0
 49
1.0
 49
0.0
 49
0.0
 49
0.0
 49
0.0
 49
1.0
175
     0
142
0.0208333333333333
142
0.0
142
0.0
142
0.0
142
0.0
142
0.0208333333333333
142
0.0
142
0.0
142
0.0
142
0.0
142
1.0
142
0.0
142
0.0
142
0.0
142
0.0
142
1.0
179
     0
144
0.0208333333333333
144
0.0
144
0.0
144
0.0
144
0.0
144
0.0208333333333333
144
0.0
144
0.0
144
0.0
144
0.0
144
1.0
144
0.0
144
0.0
144
0.0
144
0.0
144
1.0
147
0.0208333333333333
147
0.0
147
0.0
147
0.0
147
0.0
147
0.0208333333333333
147
0.0
147
0.0
147
0.0
147
0.0
147
1.0
147
0.0
147
0.0
147
0.0
147
0.0
147
1.0
  0
MATERIAL
  5
2F56
330
2F45
100
AcDbMaterial
  1
Global
 72
     0
 43
0.0208333333333333
 43
0.0
 43
0.0
 43
0.0
 43
0.0
 43
0.0208333333333333
 43
0.0
 43
0.0
 43
0.0
 43
0.0
 43
1.0
 43
0.0
 43
0.0
 43
0.0
 43
0.0
 43
1.0
 77
     0
 47
0.0208333333333333
 47
0.0
 47
0.0
 47
0.0
 47
0.0
 47
0.0208333333333333
 47
0.0
 47
0.0
 47
0.0
 47
0.0
 47
1.0
 47
0.0
 47
0.0
 47
0.0
 47
0.0
 47
1.0
171
     0
 49
0.0208333333333333
 49
0.0
 49
0.0
 49
0.0
 49
0.0
 49
0.0208333333333333
 49
0.0
 49
0.0
 49
0.0
 49
0.0
 49
1.0
 49
0.0
 49
0.0
 49
0.0
 49
0.0
 49
1.0
175
     0
142
0.0208333333333333
142
0.0
142
0.0
142
0.0
142
0.0
142
0.0208333333333333
142
0.0
142
0.0
142
0.0
142
0.0
142
1.0
142
0.0
142
0.0
142
0.0
142
0.0
142
1.0
179
     0
144
0.0208333333333333
144
0.0
144
0.0
144
0.0
144
0.0
144
0.0208333333333333
144
0.0
144
0.0
144
0.0
144
0.0
144
1.0
144
0.0
144
0.0
144
0.0
144
0.0
144
1.0
147
0.0208333333333333
147
0.0
147
0.0
147
0.0
147
0.0
147
0.0208333333333333
147
0.0
147
0.0
147
0.0
147
0.0
147
1.0
147
0.0
147
0.0
147
0.0
147
0.0
147
1.0
  0
MLEADERSTYLE
  5
2F8D
102
{ACAD_REACTORS
330
2F8C
102
}
330
2F8C
100
AcDbMLeaderStyle
170
     2
171
     1
172
     0
 90
        2
 40
0.0
 41
0.0
173
     1
 91
-1056964608
340
14
 92
       -2
290
     1
 42
2.0
291
     1
 43
0.36
  3
Standard
 44
4.0
300

342
10
174
     1
178
     6
175
     1
176
     0
 93
-1056964608
 45
4.0
292
     0
297
     0
 46
4.0
 94
-1056964608
 47
1.0
 49
1.0
140
1.0
293
     1
141
0.0
294
     1
177
     0
142
1.0
295
     0
296
     0
143
0.125
1001
ACAD_MLEADERVER
1070
     2
  0
MLINESTYLE
  5
13
102
{ACAD_REACTORS
330
E
102
}
330
E
100
AcDbMlineStyle
  2
STANDARD
 70
     0
  3

 62
     0
 51
90.0
 52
90.0
 71
     2
 49
0.5
 62
   256
  6
BYLAYER
 49
-0.5
 62
   256
  6
BYLAYER
  0
ACDBPLACEHOLDER
  5
290
102
{ACAD_REACTORS
330
28F
102
}
330
28F
  0
SCALE
  5
2F7B
102
{ACAD_REACTORS
330
2F7A
102
}
330
2F7A
100
AcDbScale
 70
     0
300
1:1
140
1.0
141
1.0
290
     1
  0
SCALE
  5
2F7C
102
{ACAD_REACTORS
330
2F7A
102
}
330
2F7A
100
AcDbScale
 70
     0
300
1:2
140
1.0
141
2.0
290
     0
  0
SCALE
  5
2F7D
102
{ACAD_REACTORS
330
2F7A
102
}
330
2F7A
100
AcDbScale
 70
     0
300
1:4
140
1.0
141
4.0
290
     0
  0
SCALE
  5
2F7E
102
{ACAD_REACTORS
330
2F7A
102
}
330
2F7A
100
AcDbScale
 70
     0
300
1:5
140
1.0
141
5.0
290
     0
  0
SCALE
  5
2F7F
102
{ACAD_REACTORS
330
2F7A
102
}
330
2F7A
100
AcDbScale
 70
     0
300
1:8
140
1.0
141
8.0
290
     0
  0
SCALE
  5
2F80
102
{ACAD_REACTORS
330
2F7A
102
}
330
2F7A
100
AcDbScale
 70
     0
300
1:10
140
1.0
141
10.0
290
     0
  0
SCALE
  5
2F81
102
{ACAD_REACTORS
330
2F7A
102
}
330
2F7A
100
AcDbScale
 70
     0
300
1:16
140
1.0
141
16.0
290
     0
  0
SCALE
  5
2F82
102
{ACAD_REACTORS
330
2F7A
102
}
330
2F7A
100
AcDbScale
 70
     0
300
1:20
140
1.0
141
20.0
290
     0
  0
SCALE
  5
2F83
102
{ACAD_REACTORS
330
2F7A
102
}
330
2F7A
100
AcDbScale
 70
     0
300
1:30
140
1.0
141
30.0
290
     0
  0
SCALE
  5
2F84
102
{ACAD_REACTORS
330
2F7A
102
}
330
2F7A
100
AcDbScale
 70
     0
300
1:40
140
1.0
141
40.0
290
     0
  0
SCALE
  5
2F85
102
{ACAD_REACTORS
330
2F7A
102
}
330
2F7A
100
AcDbScale
 70
     0
300
1:50
140
1.0
141
50.0
290
     0
  0
SCALE
  5
2F86
102
{ACAD_REACTORS
330
2F7A
102
}
330
2F7A
100
AcDbScale
 70
     0
300
1:100
140
1.0
141
100.0
290
     0
  0
SCALE
  5
2F87
102
{ACAD_REACTORS
330
2F7A
102
}
330
2F7A
100
AcDbScale
 70
     0
300
2:1
140
2.0
141
1.0
290
     0
  0
SCALE
  5
2F88
102
{ACAD_REACTORS
330
2F7A
102
}
330
2F7A
100
AcDbScale
 70
     0
300
4:1
140
4.0
141
1.0
290
     0
  0
SCALE
  5
2F89
102
{ACAD_REACTORS
330
2F7A
102
}
330
2F7A
100
AcDbScale
 70
     0
300
8:1
140
8.0
141
1.0
290
     0
  0
SCALE
  5
2F8A
102
{ACAD_REACTORS
330
2F7A
102
}
330
2F7A
100
AcDbScale
 70
     0
300
10:1
140
10.0
141
1.0
290
     0
  0
SCALE
  5
2F8B
102
{ACAD_REACTORS
330
2F7A
102
}
330
2F7A
100
AcDbScale
 70
     0
300
100:1
140
100.0
141
1.0
290
     0
  0
TABLESTYLE
  5
2F79
102
{ACAD_XDICTIONARY
360
3140
102
}
102
{ACAD_REACTORS
330
2F78
102
}
330
2F78
100
AcDbTableStyle
  3
Standard
 70
     0
 71
     0
 40
1.5
 41
1.5
280
     0
281
     0
  7
STANDARD
140
4.5
170
     2
 62
     0
 63
     7
283
     0
274
    -2
284
     1
 64
     0
275
    -2
285
     1
 65
     0
276
    -2
286
     1
 66
     0
277
    -2
287
     1
 67
     0
278
    -2
288
     1
 68
     0
279
    -2
289
     1
 69
     0
  7
STANDARD
140
6.0
170
     5
 62
     0
 63
     7
283
     0
274
    -2
284
     1
 64
     0
275
    -2
285
     1
 65
     0
276
    -2
286
     1
 66
     0
277
    -2
287
     1
 67
     0
278
    -2
288
     1
 68
     0
279
    -2
289
     1
 69
     0
  7
STANDARD
140
4.5
170
     5
 62
     0
 63
     7
283
     0
274
    -2
284
     1
 64
     0
275
    -2
285
     1
 65
     0
276
    -2
286
     1
 66
     0
277
    -2
287
     1
 67
     0
278
    -2
288
     1
 68
     0
279
    -2
289
     1
 69
     0
  0
VISUALSTYLE
  5
2F64
102
{ACAD_XDICTIONARY
360
43CB
102
}
102
{ACAD_REACTORS
330
2F5E
102
}
330
2F5E
100
AcDbVisualStyle
  2
2dWireframe
 70
     4
 71
     0
 72
     2
 73
     0
 90
        0
 40
-0.6
 41
-30.0
 62
     5
 63
     7
 74
     1
 91
        4
 64
     7
 65
   257
 75
     1
175
     1
 42
1.0
 92
        0
 66
   257
 43
1.0
 76
     1
 77
     6
 78
     2
 67
     7
 79
     5
170
     0
171
     0
290
     0
174
     0
 93
        1
 44
0.0
173
     0
291
     0
 45
0.0
1001
ACAD
1000
AcDbSavedByObjectVersion
1070
     0
  0
VISUALSTYLE
  5
2F63
102
{ACAD_XDICTIONARY
360
43C9
102
}
102
{ACAD_REACTORS
330
2F5E
102
}
330
2F5E
100
AcDbVisualStyle
  2
Basic
 70
     7
 71
     1
 72
     0
 73
     1
 90
        0
 40
-0.6
 41
-30.0
 62
     5
 63
     7
 74
     0
 91
        4
 64
     7
 65
   257
 75
     1
175
     1
 42
1.0
 92
        8
 66
     7
 43
1.0
 76
     1
 77
     6
 78
     2
 67
     7
 79
     5
170
     0
171
     0
290
     0
174
     0
 93
        1
 44
0.0
173
     0
291
     1
 45
0.0
1001
ACAD
1000
AcDbSavedByObjectVersion
1070
     0
  0
VISUALSTYLE
  5
2F6A
102
{ACAD_XDICTIONARY
360
43D7
102
}
102
{ACAD_REACTORS
330
2F5E
102
}
330
2F5E
100
AcDbVisualStyle
  2
Brighten
 70
    12
 71
     2
 72
     2
 73
     0
 90
        0
 40
-0.6
 41
-30.0
 62
     5
 63
     7
 74
     1
 91
        4
 64
     7
 65
   257
 75
     1
175
     1
 42
1.0
 92
        8
 66
     7
 43
1.0
 76
     1
 77
     6
 78
     2
 67
     7
 79
     5
170
     0
171
     0
290
     0
174
     0
 93
        1
 44
50.0
173
     0
291
     1
 45
0.0
1001
ACAD
1000
AcDbSavedByObjectVersion
1070
     0
  0
VISUALSTYLE
  5
2F6E
102
{ACAD_XDICTIONARY
360
43DF
102
}
102
{ACAD_REACTORS
330
2F5E
102
}
330
2F5E
100
AcDbVisualStyle
  2
ColorChange
 70
    16
 71
     2
 72
     2
 73
     3
 90
        0
 40
-0.6
 41
-30.0
 62
     5
 63
     8
 74
     1
 91
        4
 64
     7
 65
   257
 75
     1
175
     1
 42
1.0
 92
        8
 66
     8
 43
1.0
 76
     1
 77
     6
 78
     2
 67
     7
 79
     5
170
     0
171
     0
290
     0
174
     0
 93
        1
 44
0.0
173
     0
291
     1
 45
0.0
1001
ACAD
1000
AcDbSavedByObjectVersion
1070
     0
  0
VISUALSTYLE
  5
2F67
102
{ACAD_XDICTIONARY
360
43D1
102
}
102
{ACAD_REACTORS
330
2F5E
102
}
330
2F5E
100
AcDbVisualStyle
  2
Conceptual
 70
     9
 71
     3
 72
     2
 73
     0
 90
        0
 40
-0.6
 41
-30.0
 62
     5
 63
     7
 74
     2
 91
        2
 64
     7
 65
   257
 75
     1
175
     1
 42
179.0
 92
        8
 66
     7
 43
1.0
 76
     1
 77
     6
 78
     2
 67
     7
 79
     3
170
     0
171
     0
290
     0
174
     0
 93
        1
 44
0.0
173
     0
291
     0
 45
0.0
1001
ACAD
1000
AcDbSavedByObjectVersion
1070
     0
  0
VISUALSTYLE
  5
2F69
102
{ACAD_XDICTIONARY
360
43D5
102
}
102
{ACAD_REACTORS
330
2F5E
102
}
330
2F5E
100
AcDbVisualStyle
  2
Dim
 70
    11
 71
     2
 72
     2
 73
     0
 90
        0
 40
-0.6
 41
-30.0
 62
     5
 63
     7
 74
     1
 91
        4
 64
     7
 65
   257
 75
     1
175
     1
 42
1.0
 92
        8
 66
     7
 43
1.0
 76
     1
 77
     6
 78
     2
 67
     7
 79
     5
170
     0
171
     0
290
     0
174
     0
 93
        1
 44
-50.0
173
     0
291
     1
 45
0.0
1001
ACAD
1000
AcDbSavedByObjectVersion
1070
     0
  0
VISUALSTYLE
  5
2F76
102
{ACAD_XDICTIONARY
360
43EF
102
}
102
{ACAD_REACTORS
330
2F5E
102
}
330
2F5E
100
AcDbVisualStyle
  2
EdgeColorOff
 70
    22
 71
     2
 72
     2
 73
     0
 90
        0
 40
-0.6
 41
-30.0
 62
     5
 63
     7
 74
     1
 91
        4
 64
     7
 65
   257
 75
     1
175
     1
 42
1.0
 92
        8
 66
     7
 43
1.0
 76
     1
 77
     6
 78
     2
 67
     7
 79
     5
170
     0
171
     0
290
     0
174
     0
 93
        1
 44
0.0
173
     0
291
     1
 45
0.0
1001
ACAD
1000
AcDbSavedByObjectVersion
1070
     0
  0
VISUALSTYLE
  5
2F6D
102
{ACAD_XDICTIONARY
360
43DD
102
}
102
{ACAD_REACTORS
330
2F5E
102
}
330
2F5E
100
AcDbVisualStyle
  2
Facepattern
 70
    15
 71
     2
 72
     2
 73
     0
 90
        0
 40
-0.6
 41
-30.0
 62
     5
 63
     7
 74
     1
 91
        4
 64
     7
 65
   257
 75
     1
175
     1
 42
1.0
 92
        8
 66
     7
 43
1.0
 76
     1
 77
     6
 78
     2
 67
     7
 79
     5
170
     0
171
     0
290
     0
174
     0
 93
        1
 44
0.0
173
     0
291
     1
 45
0.0
1001
ACAD
1000
AcDbSavedByObjectVersion
1070
     0
  0
VISUALSTYLE
  5
2F5F
102
{ACAD_XDICTIONARY
360
43C1
102
}
102
{ACAD_REACTORS
330
2F5E
102
}
330
2F5E
100
AcDbVisualStyle
  2
Flat
 70
     0
 71
     2
 72
     1
 73
     1
 90
        2
 40
-0.6
 41
30.0
 62
     5
 63
     7
 74
     0
 91
        0
 64
     7
 65
   257
 75
     1
175
     1
 42
1.0
 92
        8
 66
     7
 43
1.0
 76
     1
 77
     6
 78
     2
 67
     7
 79
     5
170
     0
171
     0
290
     0
174
     0
 93
       13
 44
0.0
173
     0
291
     1
 45
0.0
1001
ACAD
1000
AcDbSavedByObjectVersion
1070
     0
  0
VISUALSTYLE
  5
2F60
102
{ACAD_XDICTIONARY
360
43C3
102
}
102
{ACAD_REACTORS
330
2F5E
102
}
330
2F5E
100
AcDbVisualStyle
  2
FlatWithEdges
 70
     1
 71
     2
 72
     1
 73
     1
 90
        2
 40
-0.6
 41
30.0
 62
     5
 63
     7
 74
     1
 91
        0
 64
     7
 65
   257
 75
     1
175
     1
 42
1.0
 92
        0
 66
   257
 43
1.0
 76
     1
 77
     6
 78
     2
 67
     7
 79
     5
170
     0
171
     0
290
     0
174
     0
 93
       13
 44
0.0
173
     0
291
     1
 45
0.0
1001
ACAD
1000
AcDbSavedByObjectVersion
1070
     0
  0
VISUALSTYLE
  5
2F61
102
{ACAD_XDICTIONARY
360
43C5
102
}
102
{ACAD_REACTORS
330
2F5E
102
}
330
2F5E
100
AcDbVisualStyle
  2
Gouraud
 70
     2
 71
     2
 72
     2
 73
     1
 90
        2
 40
-0.6
 41
30.0
 62
     5
 63
     7
 74
     0
 91
        0
 64
     7
 65
   257
 75
     1
175
     1
 42
1.0
 92
        0
 66
     7
 43
1.0
 76
     1
 77
     6
 78
     2
 67
     7
 79
     5
170
     0
171
     0
290
     0
174
     0
 93
       13
 44
0.0
173
     0
291
     1
 45
0.0
1001
ACAD
1000
AcDbSavedByObjectVersion
1070
     0
  0
VISUALSTYLE
  5
2F62
102
{ACAD_XDICTIONARY
360
43C7
102
}
102
{ACAD_REACTORS
330
2F5E
102
}
330
2F5E
100
AcDbVisualStyle
  2
GouraudWithEdges
 70
     3
 71
     2
 72
     2
 73
     1
 90
        2
 40
-0.6
 41
30.0
 62
     5
 63
     7
 74
     1
 91
        0
 64
     7
 65
   257
 75
     1
175
     1
 42
1.0
 92
        0
 66
   257
 43
1.0
 76
     1
 77
     6
 78
     2
 67
     7
 79
     5
170
     0
171
     0
290
     0
174
     0
 93
       13
 44
0.0
173
     0
291
     1
 45
0.0
1001
ACAD
1000
AcDbSavedByObjectVersion
1070
     0
  0
VISUALSTYLE
  5
2F66
102
{ACAD_XDICTIONARY
360
43CF
102
}
102
{ACAD_REACTORS
330
2F5E
102
}
330
2F5E
100
AcDbVisualStyle
  2
Hidden
 70
     6
 71
     1
 72
     2
 73
     2
 90
        0
 40
-0.6
 41
-30.0
 62
     5
 63
     7
 74
     2
 91
        2
 64
     7
 65
   257
 75
     2
175
     1
 42
40.0
 92
        0
 66
   257
 43
1.0
 76
     1
 77
     6
 78
     2
 67
     7
 79
     3
170
     0
171
     0
290
     0
174
     0
 93
        1
 44
0.0
173
     0
291
     0
 45
0.0
1001
ACAD
1000
AcDbSavedByObjectVersion
1070
     0
  0
VISUALSTYLE
  5
2F74
102
{ACAD_XDICTIONARY
360
43EB
102
}
102
{ACAD_REACTORS
330
2F5E
102
}
330
2F5E
100
AcDbVisualStyle
  2
JitterOff
 70
    20
 71
     2
 72
     2
 73
     0
 90
        0
 40
-0.6
 41
-30.0
 62
     5
 63
     7
 74
     1
 91
        4
 64
     7
 65
   257
 75
     1
175
     1
 42
1.0
 92
       10
 66
     7
 43
1.0
 76
     1
 77
     6
 78
     2
 67
     7
 79
     5
170
     0
171
     0
290
     0
174
     0
 93
        1
 44
0.0
173
     0
291
     1
 45
0.0
1001
ACAD
1000
AcDbSavedByObjectVersion
1070
     0
  0
VISUALSTYLE
  5
2F6C
102
{ACAD_XDICTIONARY
360
43DB
102
}
102
{ACAD_REACTORS
330
2F5E
102
}
330
2F5E
100
AcDbVisualStyle
  2
Linepattern
 70
    14
 71
     2
 72
     2
 73
     0
 90
        0
 40
-0.6
 41
-30.0
 62
     5
 63
     7
 74
     1
 91
        4
 64
     7
 65
   257
 75
     7
175
     7
 42
1.0
 92
        8
 66
     7
 43
1.0
 76
     1
 77
     6
 78
     2
 67
     7
 79
     5
170
     0
171
     0
290
     0
174
     0
 93
        1
 44
0.0
173
     0
291
     1
 45
0.0
1001
ACAD
1000
AcDbSavedByObjectVersion
1070
     0
  0
VISUALSTYLE
  5
2F75
102
{ACAD_XDICTIONARY
360
43ED
102
}
102
{ACAD_REACTORS
330
2F5E
102
}
330
2F5E
100
AcDbVisualStyle
  2
OverhangOff
 70
    21
 71
     2
 72
     2
 73
     0
 90
        0
 40
-0.6
 41
-30.0
 62
     5
 63
     7
 74
     1
 91
        4
 64
     7
 65
   257
 75
     1
175
     1
 42
1.0
 92
        9
 66
     7
 43
1.0
 76
     1
 77
     6
 78
     2
 67
     7
 79
     5
170
     0
171
     0
290
     0
174
     0
 93
        1
 44
0.0
173
     0
291
     1
 45
0.0
1001
ACAD
1000
AcDbSavedByObjectVersion
1070
     0
  0
VISUALSTYLE
  5
2F68
102
{ACAD_XDICTIONARY
360
43D3
102
}
102
{ACAD_REACTORS
330
2F5E
102
}
330
2F5E
100
AcDbVisualStyle
  2
Realistic
 70
     8
 71
     2
 72
     2
 73
     0
 90
        2
 40
-0.6
 41
30.0
 62
     5
 63
     7
 74
     0
 91
        0
 64
     7
 65
   257
 75
     1
175
     1
 42
1.0
 92
        8
 66
   257
 43
1.0
 76
     1
 77
     6
 78
     2
 67
     7
 79
     3
170
     0
171
     0
290
     0
174
     0
 93
       13
 44
0.0
173
     0
291
     0
 45
0.0
1001
ACAD
1000
AcDbSavedByObjectVersion
1070
     0
  0
VISUALSTYLE
  5
2F73
102
{ACAD_XDICTIONARY
360
43E9
102
}
102
{ACAD_REACTORS
330
2F5E
102
}
330
2F5E
100
AcDbVisualStyle
  2
Shaded
 70
    27
 71
     2
 72
     2
 73
     1
 90
        2
 40
-0.6
 41
30.0
 62
     5
 63
     7
 74
     0
 91
        4
 64
     7
 65
   257
 75
     1
175
     1
 42
1.0
 92
        8
 66
   257
 43
1.0
 76
     1
 77
     6
 78
     2
 67
     8
 79
     3
170
     0
171
     0
290
     0
174
     0
 93
        5
 44
0.0
173
     0
291
     0
 45
0.0
1001
ACAD
1000
AcDbSavedByObjectVersion
1070
     0
  0
VISUALSTYLE
  5
2F72
102
{ACAD_XDICTIONARY
360
43E7
102
}
102
{ACAD_REACTORS
330
2F5E
102
}
330
2F5E
100
AcDbVisualStyle
  2
Shaded with edges
 70
    26
 71
     2
 72
     2
 73
     1
 90
        2
 40
-0.6
 41
30.0
 62
     5
 63
     7
 74
     1
 91
       10
 64
     7
 65
   257
 75
     2
175
     1
 42
1.0
 92
        8
 66
   257
 43
1.0
 76
     1
 77
     6
 78
     2
 67
     7
 79
     3
170
     0
171
     0
290
     0
174
     0
 93
        5
 44
0.0
173
     0
291
     0
 45
0.0
1001
ACAD
1000
AcDbSavedByObjectVersion
1070
     0
  0
VISUALSTYLE
  5
2F6F
102
{ACAD_XDICTIONARY
360
43E1
102
}
102
{ACAD_REACTORS
330
2F5E
102
}
330
2F5E
100
AcDbVisualStyle
  2
Shades of Gray
 70
    23
 71
     2
 72
     2
 73
     3
 90
        0
 40
-0.6
 41
-30.0
 62
     5
 63
     7
 74
     2
 91
        2
 64
     7
 65
     7
 75
     1
175
     1
 42
40.0
 92
        8
 66
     7
 43
1.0
 76
     1
 77
     6
 78
     2
 67
     7
 79
     3
170
     0
171
     0
290
     0
174
     0
 93
        1
 44
0.0
173
     0
291
     0
 45
0.0
1001
ACAD
1000
AcDbSavedByObjectVersion
1070
     0
  0
VISUALSTYLE
  5
2F70
102
{ACAD_XDICTIONARY
360
43E3
102
}
102
{ACAD_REACTORS
330
2F5E
102
}
330
2F5E
100
AcDbVisualStyle
  2
Sketchy
 70
    24
 71
     1
 72
     2
 73
     2
 90
        0
 40
-0.6
 41
-30.0
 62
     5
 63
     7
 74
     2
 91
        2
 64
     7
 65
     7
 75
     1
175
     1
 42
40.0
 92
       11
 66
     7
 43
1.0
 76
     1
 77
     6
 78
     2
 67
     7
 79
     6
170
     0
171
     0
290
     0
174
     0
 93
        1
 44
0.0
173
     0
291
     0
 45
0.0
1001
ACAD
1000
AcDbSavedByObjectVersion
1070
     0
  0
VISUALSTYLE
  5
2F6B
102
{ACAD_XDICTIONARY
360
43D9
102
}
102
{ACAD_REACTORS
330
2F5E
102
}
330
2F5E
100
AcDbVisualStyle
  2
Thicken
 70
    13
 71
     2
 72
     2
 73
     0
 90
        0
 40
-0.6
 41
-30.0
 62
     5
 63
     7
 74
     1
 91
        4
 64
     7
 65
   257
 75
     1
175
     1
 42
1.0
 92
       12
 66
     7
 43
1.0
 76
     1
 77
     6
 78
     2
 67
     7
 79
     5
170
     0
171
     0
290
     0
174
     0
 93
        1
 44
0.0
173
     0
291
     1
 45
0.0
1001
ACAD
1000
AcDbSavedByObjectVersion
1070
     0
  0
VISUALSTYLE
  5
2F65
102
{ACAD_XDICTIONARY
360
43CD
102
}
102
{ACAD_REACTORS
330
2F5E
102
}
330
2F5E
100
AcDbVisualStyle
  2
Wireframe
 70
     5
 71
     0
 72
     2
 73
     0
 90
        0
 40
-0.6
 41
-30.0
 62
     5
 63
     7
 74
     1
 91
        4
 64
     7
 65
   257
 75
     1
175
     1
 42
1.0
 92
        0
 66
   257
 43
1.0
 76
     1
 77
     6
 78
     2
 67
     7
 79
     3
170
     0
171
     0
290
     0
174
     0
 93
        1
 44
0.0
173
     0
291
     0
 45
0.0
1001
ACAD
1000
AcDbSavedByObjectVersion
1070
     0
  0
VISUALSTYLE
  5
2F71
102
{ACAD_XDICTIONARY
360
43E5
102
}
102
{ACAD_REACTORS
330
2F5E
102
}
330
2F5E
100
AcDbVisualStyle
  2
X-Ray
 70
    25
 71
     2
 72
     2
 73
     1
 90
        1
 40
0.5
 41
-30.0
 62
     5
 63
     7
 74
     1
 91
        0
 64
     7
 65
   257
 75
     1
175
     1
 42
1.0
 92
        8
 66
     7
 43
1.0
 76
     1
 77
     6
 78
     2
 67
     7
 79
     3
170
     0
171
     0
290
     0
174
     0
 93
       13
 44
0.0
173
     0
291
     0
 45
0.0
1001
ACAD
1000
AcDbSavedByObjectVersion
1070
     0
  0
DICTIONARYVAR
  5
3133
102
{ACAD_REACTORS
330
312F
102
}
330
312F
100
DictionaryVariables
280
     0
  1
1:1
  0
DICTIONARYVAR
  5
3131
102
{ACAD_REACTORS
330
312F
102
}
330
312F
100
DictionaryVariables
280
     0
  1
STANDARD
  0
DICTIONARYVAR
  5
3130
102
{ACAD_REACTORS
330
312F
102
}
330
312F
100
DictionaryVariables
280
     0
  1
STANDARD
  0
DICTIONARYVAR
  5
3185
102
{ACAD_REACTORS
330
312F
102
}
330
312F
100
DictionaryVariables
280
     0
  1
1
  0
DICTIONARYVAR
  5
3184
102
{ACAD_REACTORS
330
312F
102
}
330
312F
100
DictionaryVariables
280
     0
  1
0
  0
DICTIONARYVAR
  5
3135
102
{ACAD_REACTORS
330
312F
102
}
330
312F
100
DictionaryVariables
280
     0
  1
1
  0
DICTIONARYVAR
  5
3136
102
{ACAD_REACTORS
330
312F
102
}
330
312F
100
DictionaryVariables
280
     0
  1
15
  0
DICTIONARYVAR
  5
3134
102
{ACAD_REACTORS
330
312F
102
}
330
312F
100
DictionaryVariables
280
     0
  1
0
  0
DICTIONARYVAR
  5
3132
102
{ACAD_REACTORS
330
312F
102
}
330
312F
100
DictionaryVariables
280
     0
  1
0
  0
DICTIONARYVAR
  5
3183
102
{ACAD_REACTORS
330
312F
102
}
330
312F
100
DictionaryVariables
280
     0
  1
127
  0
DICTIONARYVAR
  5
437E
102
{ACAD_REACTORS
330
312F
102
}
330
312F
100
DictionaryVariables
280
     0
  1
2
  0
DICTIONARY
  5
4372
330
293
100
AcDbDictionary
280
     1
281
     1
  3
ADSK_XREC_LAYOUTTHUMBNAIL
360
4373
  0
DICTIONARY
  5
3140
330
2F79
100
AcDbDictionary
280
     1
281
     1
  3
ACAD_ROUNDTRIP_2008_TABLESTYLE_CELLSTYLEMAP
360
43BC
  3
ACAD_XREC_ROUNDTRIP
360
43F1
  0
DICTIONARY
  5
43CB
330
2F64
100
AcDbDictionary
280
     1
281
     1
  3
ACAD_XREC_ROUNDTRIP
360
43CC
  0
DICTIONARY
  5
43C9
330
2F63
100
AcDbDictionary
280
     1
281
     1
  3
ACAD_XREC_ROUNDTRIP
360
43CA
  0
DICTIONARY
  5
43D7
330
2F6A
100
AcDbDictionary
280
     1
281
     1
  3
ACAD_XREC_ROUNDTRIP
360
43D8
  0
DICTIONARY
  5
43DF
330
2F6E
100
AcDbDictionary
280
     1
281
     1
  3
ACAD_XREC_ROUNDTRIP
360
43E0
  0
DICTIONARY
  5
43D1
330
2F67
100
AcDbDictionary
280
     1
281
     1
  3
ACAD_XREC_ROUNDTRIP
360
43D2
  0
DICTIONARY
  5
43D5
330
2F69
100
AcDbDictionary
280
     1
281
     1
  3
ACAD_XREC_ROUNDTRIP
360
43D6
  0
DICTIONARY
  5
43EF
330
2F76
100
AcDbDictionary
280
     1
281
     1
  3
ACAD_XREC_ROUNDTRIP
360
43F0
  0
DICTIONARY
  5
43DD
330
2F6D
100
AcDbDictionary
280
     1
281
     1
  3
ACAD_XREC_ROUNDTRIP
360
43DE
  0
DICTIONARY
  5
43C1
330
2F5F
100
AcDbDictionary
280
     1
281
     1
  3
ACAD_XREC_ROUNDTRIP
360
43C2
  0
DICTIONARY
  5
43C3
330
2F60
100
AcDbDictionary
280
     1
281
     1
  3
ACAD_XREC_ROUNDTRIP
360
43C4
  0
DICTIONARY
  5
43C5
330
2F61
100
AcDbDictionary
280
     1
281
     1
  3
ACAD_XREC_ROUNDTRIP
360
43C6
  0
DICTIONARY
  5
43C7
330
2F62
100
AcDbDictionary
280
     1
281
     1
  3
ACAD_XREC_ROUNDTRIP
360
43C8
  0
DICTIONARY
  5
43CF
330
2F66
100
AcDbDictionary
280
     1
281
     1
  3
ACAD_XREC_ROUNDTRIP
360
43D0
  0
DICTIONARY
  5
43EB
330
2F74
100
AcDbDictionary
280
     1
281
     1
  3
ACAD_XREC_ROUNDTRIP
360
43EC
  0
DICTIONARY
  5
43DB
330
2F6C
100
AcDbDictionary
280
     1
281
     1
  3
ACAD_XREC_ROUNDTRIP
360
43DC
  0
DICTIONARY
  5
43ED
330
2F75
100
AcDbDictionary
280
     1
281
     1
  3
ACAD_XREC_ROUNDTRIP
360
43EE
  0
DICTIONARY
  5
43D3
330
2F68
100
AcDbDictionary
280
     1
281
     1
  3
ACAD_XREC_ROUNDTRIP
360
43D4
  0
DICTIONARY
  5
43E9
330
2F73
100
AcDbDictionary
280
     1
281
     1
  3
ACAD_XREC_ROUNDTRIP
360
43EA
  0
DICTIONARY
  5
43E7
330
2F72
100
AcDbDictionary
280
     1
281
     1
  3
ACAD_XREC_ROUNDTRIP
360
43E8
  0
DICTIONARY
  5
43E1
330
2F6F
100
AcDbDictionary
280
     1
281
     1
  3
ACAD_XREC_ROUNDTRIP
360
43E2
  0
DICTIONARY
  5
43E3
330
2F70
100
AcDbDictionary
280
     1
281
     1
  3
ACAD_XREC_ROUNDTRIP
360
43E4
  0
DICTIONARY
  5
43D9
330
2F6B
100
AcDbDictionary
280
     1
281
     1
  3
ACAD_XREC_ROUNDTRIP
360
43DA
  0
DICTIONARY
  5
43CD
330
2F65
100
AcDbDictionary
280
     1
281
     1
  3
ACAD_XREC_ROUNDTRIP
360
43CE
  0
DICTIONARY
  5
43E5
330
2F71
100
AcDbDictionary
280
     1
281
     1
  3
ACAD_XREC_ROUNDTRIP
360
43E6
  0
XRECORD
  5
4373
102
{ACAD_REACTORS
330
4372
102
}
330
4372
100
AcDbXrecord
280
     1
310
280000000001000082000000010008000000000000820000000000000000000000010000000000003028210000000000FFFFFF000000000000000000000000000000000000000000000000000000000000000000330000006600000099000000CC000000FF00000000330000333300006633000099330000CC330000FF3300
310
0000660000336600006666000099660000CC660000FF66000000990000339900006699000099990000CC990000FF99000000CC000033CC000066CC000099CC0000CCCC0000FFCC000000FF000033FF000066FF000099FF0000CCFF0000FFFF000000003300330033006600330099003300CC003300FF003300003333003333
310
33006633330099333300CC333300FF33330000663300336633006666330099663300CC663300FF66330000993300339933006699330099993300CC993300FF99330000CC330033CC330066CC330099CC3300CCCC3300FFCC330000FF330033FF330066FF330099FF3300CCFF3300FFFF330000006600330066006600660099
310
006600CC006600FF00660000336600333366006633660099336600CC336600FF33660000666600336666006666660099666600CC666600FF66660000996600339966006699660099996600CC996600FF99660000CC660033CC660066CC660099CC6600CCCC6600FFCC660000FF660033FF660066FF660099FF6600CCFF6600
310
FFFF660000009900330099006600990099009900CC009900FF00990000339900333399006633990099339900CC339900FF33990000669900336699006666990099669900CC669900FF66990000999900339999006699990099999900CC999900FF99990000CC990033CC990066CC990099CC9900CCCC9900FFCC990000FF99
310
0033FF990066FF990099FF9900CCFF9900FFFF99000000CC003300CC006600CC009900CC00CC00CC00FF00CC000033CC003333CC006633CC009933CC00CC33CC00FF33CC000066CC003366CC006666CC009966CC00CC66CC00FF66CC000099CC003399CC006699CC009999CC00CC99CC00FF99CC0000CCCC0033CCCC0066CC
310
CC0099CCCC00CCCCCC00FFCCCC0000FFCC0033FFCC0066FFCC0099FFCC00CCFFCC00FFFFCC000000FF003300FF006600FF009900FF00CC00FF00FF00FF000033FF003333FF006633FF009933FF00CC33FF00FF33FF000066FF003366FF006666FF009966FF00CC66FF00FF66FF000099FF003399FF006699FF009999FF00CC
310
99FF00FF99FF0000CCFF0033CCFF0066CCFF0099CCFF00CCCCFF00FFCCFF0000FFFF0033FFFF0066FFFF0099FFFF00CCFFFF00FFFFFF00000000000D0D0D001A1A1A00282828003535350043434300505050005D5D5D006B6B6B00787878008686860093939300A1A1A100AEAEAE00BBBBBB00C9C9C900D6D6D600E4E4E400
310
F1F1F100FFFFFF000000000000000000000000000000000000000000000000000000000000000000000000000000000000000000000000000000000000000000000000000000000000000000000000000000000000000000000000000000000000000000000000000000000000000000000000000000000000000000000000
310
00000000000000000000000000000000000000000000000000000000000000000000000000000000000000000000000000000000000000000000000000000000000000000000000000000000000000000000000000000000000000000000000000000000000000000000000000000000000000000000000000000000000000
310
00000000000000000000000000000000000000000000000000000000000000000000000000000000000000000000000000000000000000000000000000000000000000000000000000000000000000000000000000000000000000000000000000000000000000000000000000000000000000000000000000000000000000
310
00000000000000000000000000000000000000000000000000000000000000000000000000000000000000000000000000000000000000000000000000000000000000000000000000000000000000000000000000000000000000000000000000000000000000000000000000000000000000000000000000000000000000
310
00000000000000000000000000000000000000000000000000000000000000000000000000000000000000000000000000000000000000000000000000000000000000000000000000000000000000000000000000000000000000000000000000000000000000000000000000000000000000000000000000000000000000
310
00000000000000000000000000000000000000000000000000000000000000000000000000000000000000000000000000000000000000000000000000000000000000000000000000000000000000000000000000000000000000000000000000000000000000000000000000000000000000000000000000000000000000
310
00000000000000000000000000000000000000000000000000000000000000000000000000000000000000000000000000000000000000000000000000000000000000000000000000000000000000000000000000000000000000000000000000000000000000000000000000000000000000000000000000000000000000
310
00000000000000000000000000000000000000000000000000000000000000000000000000000000000000000000000000000000000000000000000000000000000000000000000000000000000000000000000000000000000000000000000000000000000000000000000000000000000000000000000000000000000000
310
00000000000000000000000000000000000000000000000000000000000000000000000000000000000000000000000000000000000000000000000000000000000000000000000000000000000000000000000000000000000000000000000000000000000000000000000000000000000000000000000000000000000000
310
00000000000000000000000000000000000000000000000000000000000000000000000000000000000000000000000000000000000000000000000000000000000000000000000000000000000000000000000000000000000000000000000000000000000000000000000000000000000000000000000000000000000000
310
00000000000000000000000000000000000000000000000000000000000000000000000000000000000000000000000000000000000000000000000000000000000000000000000000000000000000000000000000000000000000000000000000000000000000000000000000000000000000000000000000000000000000
310
00000000000000000000000000000000000000000000000000000000000000000000000000000000000000000000000000000000000000000000000000000000000000000000000000000000000000000000000000000000000000000000000000000000000000000000000000000000000000000000000000000000000000
310
00000000000000000000000000000000000000000000000000000000000000000000000000000000000000000000000000000000000000000000000000000000000000000000000000000000000000000000000000000000000000000000000000000000000000000000000000000000000000000000000000000000000000
310
00000000000000000000000000000000000000000000000000000000000000000000000000000000000000000000000000000000000000000000000000000000000000000000000000000000000000000000000000000000000000000000000000000000000000000000000000000000000000000000000000000000000000
310
00000000000000000000000000000000000000000000000000000000000000000000000000000000000000000000000000000000000000000000000000000000000000000000000000000000000000000000000000000000000000000000000000000000000000000000000000000000000000000000000000000000000000
310
00000000000000000000000000000000000000000000000000000000000000000000000000000000000000000000000000000000000000000000000000000000000000000000000000000000000000000000000000000000000000000000000000000000000000000000000000000000000000000000000000000000000000
310
00000000000000000000000000000000000000000000000000000000000000000000000000000000000000000000000000000000000000000000000000000000000000000000000000000000000000000000000000000000000000000000000000000000000000000000000000000000000000000000000000000000000000
310
00000000000000000000000000000000000000000000000000000000000000000000000000000000000000000000000000000000000000000000000000000000000000000000000000000000000000000000000000000000000000000000000000000000000000000000000000000000000000000000000000000000000000
310
00000000000000000000000000000000000000000000000000000000000000000000000000000000000000000000000000000000000000000000000000000000000000000000000000000000000000000000000000000000000000000000000000000000000000000000000000000000000000000000000000000000000000
310
00000000000000000000000000000000000000000000000000000000000000000000000000000000000000000000000000000000000000000000000000000000000000000000000000000000000000000000000000000000000000000000000000000000000000000000000000000000000000000000000000000000000000
310
00000000000000000000000000000000000000000000000000000000000000000000000000000000000000000000000000000000000000000000000000000000000000000000000000000000000000000000000000000000000000000000000000000000000000000000000000000000000000000000000000000000000000
310
00000000000000000000000000000000000000000000000000000000000000000000000000000000000000000000000000000000000000000000000000000000000000000000000000000000000000000000000000000000000000000000000000000000000000000000000000000000000000000000000000000000000000
310
0000000000000000000000000000000000000000000000000000000000000000000000000000000000000000000000000000000000000000000000000000000000000000000000000000000000000000000000000000000000000000000000000000F5F5F5F5F5F5F5F5F5F5F5F5F5F5F5F5F5F5F5F5F5F5F5F5F5F5F5F5F5
310
F5F5F5F5F5F5F5F5F5F5F5F5F5F5F5F5F5F5F5F5F5F5F5F5F5F5F5F5DCDCF5F5F5F5F5F5F5F5F5F5F5F5F5F5F5F5F5F5F5F5F5F5F5F5F5F5F5F5F5F5F5F5F5F5F5F5F5F5F5F5F5F5F5F5F5F5F5F5F5F5F5F5F5F5F5F5F5F5F5F5F5F5F5F5F5F5DCDCDCF5F5F5F5F5F5F5F5F5F5F5F5F5F5F5F5F5F5F5F5F5F5F5F5F5F5F5F5
310
F5F5F5F5F5F5F5F5F5F5F5F5F5F5F5F5F5F5F5F5F5F5F5F5F5F5F5F5F5F5F5F5F500000000000000000000000000000000000000000000000000000000000000000000000000000000000000000000000000000000000000000000000000000000000000F5F50000000000000000000000000000000000F500000000000000
310
00000000000000000000000000000000000000000000F500000000000000DCDC0000000000000000000000000000000000000000000000000000000000000000000000000000000000000000000000F5000000000000000000000000F50000000000DCDCDC0000F500000000000000000000000000000000000000000000F5
310
00000000000000000000F50000000000000000000000000000000000000000000000F500000000000000000000000000000000000000000000000000000000000000000000000000000000000000000000000000000000000000000000000000000000000000F5F500F5F5F5F5F5F5F5F5F5F5F5F5F5F5F500F50000000000
310
000000000000000000000000000000000000000000000000F5F5F5F50000000000000000000000000000000000000000000000000000000000000000000000000000000000000000000000000000000000F50000DCDCDCDCDCDCDC000000F5F5F50000000000000000F5000000000000000000000000000000000000000000
310
00F500000000000000000000F50000000000000000000000000000000000000000000000F500000000000000000000000000000000000000000000000000000000000000000000000000000000000000000000000000000000000000000000000000000000000000F5F50000F5F5F5F5F5F5F5F5F5F5F5F5F5F500F50000DC
310
DCDCDCDCDCDCDCDCDCDCDC000000000000000000000000000000F50000000000000000000000000000000000000000000000000000000000000000000000000000000000000000000000000000000000000000F50000DCDCDCDCDCDCDC000000F500000000000000000000F500000000000000000000000000000000000000
310
000000F500000000000000000000F500F5F5F5F5F5F5F5F5F5F5F5F5F5F5F5F5F5F5F5000000F500000000000000000000000000000000000000000000000000000000000000000000000000000000000000000000000000000000000000000000000000000000000000F5F500F5F5F5F5F5F5F5F5F5F5F5F5F5F5F500F500
310
00DCDCDCDCDCDCDCDCDCDCDCDC000000000000000000000000000000F5F5F5F5F5F5F5F5DCDCDCDCDCDCDCDCDCDCF5F5F5F5F5F5F5F5F5F5F5F5F5F5F5F5F5F5F5F5F5F5F5F5F5F5F5F5F5F5F5F5F5F5F5F5F5F5F5F5000000000000000000000000F5F5F5F5F5F5DCDCF5F5F5F50000000000000000000000000000000000
310
0000000000F5F5F5F5F5F5F5F5F5F5F5F500F5F5F5F5F5F5F5F5F5F5F5F5F5F5F5F5F5F5F5000000F500000000000000000000000000000000000000000000000000000000000000000000000000000000000000000000000000000000000000000000000000000000000000F5F500F5F5F5F5F5F5F5F5F5F5F5F5F5F5F500
310
F50000000000000000000000000000000000000000000000000000000000F5F5F50000000000DCDCDCDCDCDCDCDCDCDC000000000000000000000000000000000000000000000000000000000000000000000000000000F5F50000000000000000000000F5F5F5000000DCDC000000F5000000000000000000000000000000
310
00000000000000F5F5F5F5F5F5F5F5F5F5F5F50000000000000000000000000000000000000000000000F500000000000000000000000000000000000000000000000000000000000000000000000000000000000000000000000000000000000000000000000000000000000000F5F5000000000000000000000000000000
310
0000F50000000000000000000000000000000000000000000000000000000000F5F5F5000000000000000000000000000000000000000000000000000000000000000000000000000000000000000000000000000000000000F5F50000000000000000000000F5F5F50000000000000000F500000000000000000000000000
310
000000000000000000F5F5F50000000000000000F50000000000000000000000000000000000000000000000F500000000000000000000000000000000000000000000000000000000000000000000000000000000000000000000000000000000000000000000000000000000000000F5F5F5F5F5F5F5F5F5F5F5F5F5F5F5
310
F5F5F5F5F5F5F5F5F5F5F5F5F5F5F5F5F5F5F5F5F5F5F5F5F5F5F5F5F5F5F5F5F5F5F5F5F5F5F5F5F5F5F5F5F5F5F5F5F5F5F5F5F5F5F5F5F5F5F5F5F5F5F5F5F5F5F5F5F5F5F5F5F5F5F5F5F5F5F5F5F5F5F5F5F5F5F5F5F5F5F5F5F5F5F5F5F5F5F5F5F5F5F5F5F5F5F5F5F5F5F5F5F5F5F5F5F5F5F5F5F5F5F5F5F5F5F5
310
F5F5F5F5F5F5F5F5F5F5F5F5F5F5F5F5F5F5F5F5F5F5F5F5F5F5F5F5F5F5F5F5F5F5F5F5F5F5F5F5F5F5F5F5F5F5F500000000000000000000000000000000000000000000000000000000000000000000000000000000000000000000000000000000000000000000000000000000000000F5F50000000000000000000000
310
00000000000000000000000000000000000000000000000000000000000000000000000000000000000000000000000000000000000000000000000000000000000000000000000000000000000000000000000000000000000000000000000000000000000000000000000000000000000000000000000000000000000000
310
000000000000000000000000000000000000000000000000000000000000000000000000000000000000000000000000F500000000000000000000000000000000000000000000000000000000000000000000000000000000000000000000000000000000000000000000000000000000000000F5F5000000000000000000
310
00000000000000000000000000000000000000000000000000000000000000000000000000000000000000000000000000000000000000000000000000000000000000000000000000000000000000000000000000000000000000000000000000000000000000000000000000000000000000000000000000000000000000
310
0000000000000000000000000000000000000000000000000000000000000000000000000000000000000000000000000000F500000000000000000000000000000000000000000000000000000000000000000000000000000000000000000000000000000000000000000000000000000000000000F5F500000000000000
310
0000000000000000000000000000000000000000000000000000000000000000000000000000000000000000000000000000000000000000000000000000000000000000000000000000000000000000000000000000000000000000000000000000000000000000000000E9E90000E9E900E900E900E900E9000000000000
310
00000000000000000000000000000000000000000000000000000000000000000000000000000000000000000000000000000000F500000000000000000000000000000000000000000000000000000000000000000000000000000000000000000000000000000000000000000000000000000000000000F5F50000000000
310
00000000000000000000000000000000000000000000000000000000000000000000000000000000000000000000000000000000000000000000000000000000000000000000000000000000000000000000000000000000000000000000000000000000000000000000000000E9E90000E9E900E900E900E900E900000000
310
000000000000000000000000000000000000000000000000000000000000000000000000000000000000000000000000000000000000F500000000000000000000000000000000000000000000000000000000000000000000000000000000000000000000000000000000000000000000000000000000000000F5F5000000
310
000000000000000000000000000000000000000000000000000000000000000000000000000000000000000000000000000000000000000000000000000000000000000000000000000000000000000000000000000000000000000000000000000000000000000000000000000000E9E90000E9E900E900E900E900E90000
310
0000000000000000000000000000000000000000000000000000000000000000000000000000000000000000000000000000000000000000F500000000000000000000000000000000000000000000000000000000000000000000000000000000000000000000000000000000000000000000000000000000000000F5F500
310
000000000000000000000000000000000000000000000000000000000000000000000000000000000000000000000000000000000000000000000000000000000000000000000000000000000000000000000000000000BE00000000000000000000000000000000000000000000000000E9E90000E9E900E900E900E900E9
310
00000000000000000000000000000000000000000000000000000000000000000000000000000000000000000000000000000000000000000000F500000000000000000000000000000000000000000000000000000000000000000000000000000000000000000000000000000000000000000000000000000000000000F5
310
F500000000000000000000000000000000000000000000000000000000000000000000000000000000000000000000000000000000000000000000000000000000000000000000000000000000000000000000000000000000BE00000000000000000000000000000000000000000000000000E9E90000E9E900E900E900E9
310
00E900000000000000000000000000000000000000000000000000000000000000000000000000000000000000000000000000000000000000000000F5000000000000000000000000000000000000000000000000000000000000000000000000000000000000000000000000000000000000000000000000000000000000
310
00F5F500000000000000000000000000000000000000000000000000000000000000000000000000000000000000000000000000000000000000000000000000000000000000000000000000000000000000000000000000000000BE00000000000000000000000000000000000000000000000000E9E90000E9E900E900E9
310
00E900E900000000000000000000000000000000000000000000000000000000000000000000000000000000000000000000000000000000000000000000F500000000000000000000000000000000000000000000000000000000000000000000000000000000000000000000000000000000000000000000000000000000
310
000000F5F500000000000000000000000000000000000000000000000000000000000000000000000000000000000000000000000000000000000000000000000000000000000000000000000000000000000000000000000000000000BE00000000000000000000000000000000000000000000000000E9E90000E9E900E9
310
00E900E900E900000000000000000000000000000000000000000000000000000000000000000000000000000000000000000000000000000000000000000000F50000000000000000000000000000000000000000000000000000000000000000000000000000000000000000000000000000000000000000000000000000
310
0000000000F5F500000000000000000000000000000000000000000000000000000000000000000000000000000000000000000000000000000000000000000000000000000000000000000000000000000000000000000000000000000000BE00000000000000000000000000000000000000000000000000E9E90000E9E9
310
00E900E900E900E900000000000000000000000000000000000000000000DCDCDCDCDCDCDCDCDCDCDCDCDCDCDCDCDCDCDCDCDC000000000000000000000000000000F5000000000000000000000000000000000000000000000000000000000000000000000000000000000000000000000000000000000000000000000000
310
00000000000000F5F500000000000000000000000000000000000000000000000000000000000000000000000000000000000000000000000000000000000000000000000000000000000000000000000000000000000000000000000000000000BE00000000000000000000000000000000000000000000000000E9E90000
310
E9E900E900E900E900E900000000000000000000000000000000000000000000DCDCDCDCDCDCDCDCDCDCDCDCDCDCDCDCDCDCDCDCDC000000000000000000000000000000F500000000000000000000000000000000000000000000000000000000000000000000000000000000000000000000000000000000000000000000
310
000000000000000000F5F500000000000000000000000000000000000000000000000000000000000000000000000000000000000000000000000000000000000000000000000000000000000000000000000000000000000000000000000000000000BE00000000000000000000000000000000000000000000000000E9E9
310
0000E9E900E900E900E900E900000000000000000000000000000000000000000000000000000000000000000000000000000000000000000000000000000000000000000000F50000000000000000000000000000000000000000000000000000000000000000000000000000000000000000000000000000000000000000
310
0000000000000000000000F5F500000000000000000000000000000000000000000000000000000000000000000000000000000000000000000000000000000000000000000000000000000000000000000000000000000000000000000000000000000000BE00000000000000000000000000000000000000000000000000
310
E9E90000E9E900E900E900E900E900000000000000000000000000000000000000000000000000000000000000000000000000000000000000000000000000000000000000000000F5000000000000000000000000000000000000000000000000000000000000000000000000000000000000000000000000000000000000
310
00000000000000000000000000F5F500000000000000000000000000000000000000000000000000000000000000000000000000000000002D00000000000000000000000000000000000000000000000000000000000000000000000000000000000000000000BE0000000000000000000000000000000000000000000000
310
0000E9E90000E9E900E900E900E900E900000000000000002D00000000000000000000000000000000000000000000000000000000000000000000000000000000000000000000000000F500000000000000000000000000000000000000000000000000000000000000000000000000000000000000000000000000000000
310
000000000000000000000000000000F5F500000000000000000000000000000000000000000000000000000000000000000000000000000000002D2D2D2D2D2D2D2D2D2D2D2D2D2D2D2D2D2D2D2D2D2D2D2D2D2D2D2D2D2D2D2D2D2D2D2D2D2D2D2D2D2D2D2D2D2D2DBE2D2D2D2D2D2D2D2D2D2D2D2D2D2D2D2D2D2D2D2D2D
310
2D2D2D2DE9E92D2DE9E92DE92DE92DE92DE92D2D2D2D2D2D2D2D2D00000000000000000000000000000000000000000000000000000000000000000000000000000000000000000000000000F50000000000000000000000000000000000000000000000000000000000000000000000000000000000000000000000000000
310
0000000000000000000000000000000000F5F500000000000000000000000000000000000000000000000000000000000000000000000000000000002D00000000000000000000000000000000000000000000000000000000000000000000000000000000000000002D2DBE2D2D2D00000000000000000000000000000000
310
000000000000E9E90000E9E900E900E900E900E900000000000000002D00000000000000000000000000000000000000000000000000000000000000000000000000000000000000000000000000F5000000000000000000000000000000000000000000000000000000000000000000000000000000000000000000000000
310
00000000000000000000000000000000000000F5F500000000000000000000000000000000000000000000000000000000000000000000000000000000002D0000000000000000000000000000000000000000000000000000000000000000000000000000000000000000002DBE2D2D2D0000000000000000000000000000
310
0000000000000000E9E90000E9E900E900E900E900E900000000000000002D00000000000000000000000000000000000000000000000000000000000000000000000000000000000000000000000000F500000000000000000000000000000000000000000000000000000000000000000000000000000000000000000000
310
000000000000000000000000000000000000000000F5F500000000000000000000000000000000000000000000000000000000000000000000000000000000002D000000000000000000000000000000000000000000002D2D2D2D2D2D2D2D2D2D2D2D2D2D2D2D2D2D2D2D2D2D2D2D2D2D2D2D2D2D2D2D2D2D2D2D2D2D2D2D
310
2D2D2D2D2D2D2D2D2D2DE9E90000E9E900E900E900E900E900000000000000002D00000000000000000000000000000000000000000000000000000000000000000000000000000000000000000000000000F50000000000000000000000000000000000000000000000000000000000000000000000000000000000000000
310
0000000000000000000000000000000000000000000000F5F500000000000000000000000000000000000000000000000000000000000000000000000000000000002D000000000000000000000000000000000000000000002D0000000000000000000000000000000000000000002D2D2D2D2D2D00000000000000000000
310
00000000000000000000002DE9E90000E9E900E900E900E900E900000000000000002D00000000000000000000000000000000000000000000000000000000000000000000000000000000000000000000000000F5000000000000000000000000000000000000000000000000000000000000000000000000000000000000
310
00000000000000000000000000000000000000000000000000F5F500000000000000000000000000000000000000000000000000000000000000000000000000000000002D000000000000000000000000000000000000000000002D0000000000000000000000000000000000000000002D2D2D2D2D000000000000000000
310
000000000000002D00000000002DE9E90000E9E900E900E900E900E900000000000000002D00000000000000000000000000000000000000000000000000000000000000000000000000000000000000000000000000F500000000000000000000000000000000000000000000000000000000000000000000000000000000
310
000000000000000000000000000000000000000000000000000000F5F500000000000000000000000000000000000000000000000000000000000000000000000000000000002D000000000000000000000000000000000000000000002D0000000000000000000000000000000000000000000000BE000000000000000000
310
0000000000000000002D00000000002DE9E90000E9E900E900E900E900E900000000000000002D00000000000000000000000000000000000000000000000000000000000000000000000000000000000000000000000000F50000000000000000000000000000000000000000000000000000000000000000000000000000
310
0000000000000000000000000000000000000000000000000000000000F5F500000000000000000000000000000000000000000000000000000000000000000000000000000000002D000000000000000000000000000000000000000000002D0000000000000000000000000000000000000000000000BE00000000000000
310
00000000000000000000002D00000000002DE9E90000E9E900E900E900E900E900000000000000002D00000000000000000000000000000000000000000000000000000000000000000000000000000000000000000000000000F5000000000000000000000000000000000000000000000000000000000000000000000000
310
00000000000000000000000000000000000000000000000000000000000000F5F5000000000000000000000000000000000000000000000000000000000000000000000000000000000028282828282828282828282828282828282828282828282D2828282828282828282828282828282828282828282828282828282828
310
28282D2D2D2D2D2D2D2D2D2D2D2D2D2D2D2D2D2DE9E92828E9E928E928E928E928E928282828282828F5282D2D2D2D2D2D2D2D2D2D2D0000000000000000000000000000000000000000000000000000000000000000000000000000F500000000000000000000000000000000000000000000000000000000000000000000
310
000000000000000000000000000000000000000000000000000000000000000000F5F500000000000000000000000000000000000000000000000000000000000000000000000000000000002828282828282828282828282828282828282828282828282828282828282828282828282828282828282828282828BE000000
310
000000002D2D00000000002D2D00002D00000028F5F5E9E90000E9E900E900E900E900E9000000000000F528F500000000002D0000002D000000000000000000000000000000000000000000000000000000000000000000000000000000F50000000000000000000000000000000000000000000000000000000000000000
310
0000000000000000000000000000000000000000000000000000000000000000000000F5F500000000000000000000000000000000000000000000000000000000000000000000000000000000002800000000000000000000000000000000000000000000000000000000000000000000000000000000000000000000BE00
310
000000000000002D00000000002D2D00002D000000F500F5E9E90000E9E900E900E900E900E9000000000000F5F50000000000002D0000002D000000000000000000000000000000000000000000000000000000000000000000000000000000F5000000000000000000000000000000000000000000000000000000000000
310
00000000000000000000000000000000000000000000000000000000000000000000000000F5F500000000000000000000000000000000000000000000000000000000000000000000000000000000002800000000000000000000000000000000000000000000000000000000000000000000000000000000000000000000
310
BE00000000000000002D00000000002D2D2D2D2D000000F5F5F5E9E90000E9E900E900E900E900E900000000000028F50000000000002D0000002D000000000000000000000000000000000000000000000000000000000000000000000000000000F500000000000000000000000000000000000000000000000000000000
310
000000000000000000000000000000000000000000000000000000000000000000000000000000F5F50000000000000000000000000000000000000000000000000000000000000000000000000000000000280000000000000000000000000000000000000000000000000000000000000000000000000000000000000000
310
0000BE00000000000000002D00000000002D2D2D2D2D000000F5F528E9E90000E9E900E900E900E900E9000000000000F5280000000000002D0000002D000000000000000000000000000000000000000000000000000000000000000000000000000000F50000000000000000000000000000000000000000000000000000
310
0000000000000000000000000000000000000000000000000000000000000000000000000000000000F5F5000000000000000000000000000000000000000000000000000000000000000000000000000000000028000000000000000000000000000000000000000000000000000000000000000000000000000000000000
310
00000000BE00000000000000002D00000000002D2D2D2D2D00000028F5F5E9E90000E9E900E900E900E900E9000000000000F5F50000000000002D0000002D000000000000000000000000000000000000000000000000000000000000000000000000000000F5000000000000000000000000000000000000000000000000
310
00000000000000000000000000000000000000000000000000000000000000000000000000000000000000F5F500000000000000000000000000000000000000000000000000000000000000000000000000000000002800000000000000000000000000000000000000000000000000000000000000000000000000000000
310
000000000000BE00000000000000002D00000000002D2D2D2D2D000000F500F5E9E90000E9E900E900E900E900E9000000000000F5F5000000002D2D2D0000002D000000000000000000000000000000000000000000000000000000000000000000000000000000F500000000000000000000000000000000000000000000
310
000000000000000000000000000000000000000000000000000000000000000000000000000000000000000000F5F50000000000000000000000000000000000000000000000000000000000000000000000000000000000280000000000000000000000000000000000000000000000000000000000000000000000000000
310
0000000000000000BE00000000000000002D00000000002D2D002D2D000000F5F5F5E9E90000E9E900E900E900E900E9000000000000F5F5000000002D2D2D0000002D000000000000000000000000000000000000000000000000000000000000000000000000000000F50000000000000000000000000000000000000000
310
0000000000000000000000000000000000000000000000000000000000000000000000000000000000000000000000F5F5000000000000000000000000000000000000000000000000000000000000000000000000000000000028000000000000000000000000000000000000000000000000000000000000000000000000
310
00000000000000000000BE00000000000000002D00000000002D2D2D2D2D000000F5F528E9E90000E9E900E900E900E900E900000000000028F5000000002D2D2D0000002D000000000000000000000000000000000000000000000000000000000000000000000000000000F5000000000000000000000000000000000000
310
00000000000000000000000000000000000000000000000000000000000000000000000000000000000000000000000000F5F500000000000000000000000000000000000000000000000000000000000000000000000000000000002800000000000000000000000000000000000000000000000000000000000000000000
310
000000000000000000000000BE00000000000000002D00000000002D2D2D2D2D00000028F5F5E9E90000E9E900E900E900E900E9000000000000F5F50000000000002D0000002D000000000000000000000000000000000000000000000000000000000000000000000000000000F500000000000000000000000000000000
310
000000000000000000000000000000000000000000000000000000000000000000000000000000000000000000000000000000F5F50000000000000000000000000000000000000000000000000000000000000000000000000000000000280000000000000000000000000000000000000000000000000000000000000000
310
0000000000000000000000000000BE00000000000000002D00000000002D2D2D2D2D000000F500F5E9E90000E9E900E900E900E900E9000000000000F5F50000000000002D0000002D000000000000000000000000000000000000000000000000000000000000000000000000000000F50000000000000000000000000000
310
0000000000000000000000000000000000000000000000000000000000000000000000000000000000000000000000000000000000F5F5000000000000000000000000000000000000000000000000000000000000000000000000000000000028000000000000000000000000000000000000000000000000000000000000
310
00000000000000000000000000000000BE00000000000000002D00000000002D2D2D2D2D000000F5F5F5E9E90000E9E900E900E900E900E9000000000000F5F50000000000002D0000002D000000000000000000000000000000000000000000000000000000000000000000000000000000F5000000000000000000000000
310
00000000000000000000000000000000000000000000000000000000000000000000000000000000000000000000000000000000000000F5F500000000000000000000000000000000000000000000000000000000000000000000000000000000002800000000000000000000000000000000000000000000000000000000
310
000000000000000000000000000000000000BE00000000000000002D00000000002D2D2D2D2D000000F5F528E9E90000E9E900E900E900E900E900000000000028F50000000000002D0000002D000000000000000000000000000000000000000000000000000000000000000000000000000000F500000000000000000000
310
000000000000000000000000000000000000000000000000000000000000000000000000000000000000000000000000000000000000000000F5F50000000000000000000000000000000000000000000000000000000000000000000000000000000000002800000000000000000000000000000000000000000000000000
310
0000000000000000000000000000000000000000BE00000000000000002D00000000002D2D2D2D2D00000028F5F5E9E90000E9E900E900E900E900E90000000028F5F5F50000000000002D0000002D000000000000000000000000000000000000000000000000000000000000000000000000000000F50000000000000000
310
0000000000000000000000000000000000000000000000000000000000000000000000000000000000000000000000000000000000000000000000F5F5000000000000000000000000000000000000000000000000000000000000000000000000000000000000282828282828282828282828282828282828282828282828
310
28282828282828282828282828282828282828282828BE000000002D2D00002D00000000002D2D2D2D2D2D2D2D2D00E92DE9E9E9E92DE9E9E9E9E92DE9E92828F5F5F528F5F5002D2D2D2D2D2D2D00002D000000000000000000000000000000000000000000000000000000000000000000000000000000F5000000000000
310
00000000000000000000000000000000000000000000000000000000000000000000000000000000000000000000000000000000000000000000000000F5F500000000000000000000000000000000000000000000000000000000000000000000000000000000000000000028282800000000000000000000000000000000
310
000000000000000000000000000000000000000000000000BE000000002D2D2D2D2D00000000002D2D00002D000000F5F5F5002D0000002D2D000000002D2DF5F5F5F5F5F5F50000000000000000000000002D000000000000000000000000000000000000000000000000000000000000000000000000000000F500000000
310
000000000000000000000000000000000000000000000000000000000000000000000000000000000000000000000000000000000000000000000000000000F5F50000000000000000000000000000000000000000000000000000000000000000000000000000000000000000000000002828280000000000000000000000
310
0000000000000000000000000000000000000000000000000000BE000000002D2D2D2D2D00000000002D2D00002D000000F5F528002D000000002D0028F5F5F5002DF5F5000000000000000000000000000000002D000000000000000000000000000000000000000000000000000000000000000000000000000000F50000
310
0000000000000000000000000000000000000000000000000000000000000000000000000000000000000000000000000000000000000000000000000000000000F5F5000000000000000000000000000000000000000000000000000000000000000000000000000000000000000000000000000000282828000000000000
310
00000000000000000000000000000000000000000000000000000000BE000000002D2D2D2D2D00000000002D2D00002D000000F5F5F500002D002828F52DF528F5F5F52D0000000000000000000000000000000000002D000000000000000000000000000000000000000000000000000000000000000000000000000000F5
310
00000000000000000000000000000000000000000000000000000000000000000000000000000000000000000000000000000000000000000000000000000000000000F5F500000000000000000000000000000000000000000000000000000000000000000000000000000000000000000000000000000000000028282800
310
000000000000000000000000000000000000000000000000000000000000BE000000002D2D2D2D2D0000000000000000000000000028F5F500282DF5F5F5F52DF5F5000000002D00000000000000000000000000000000002D0000000000000000000000000000000000000000000000000000000000000000000000000000
310
00F500000000000000000000000000000000000000000000000000000000000000000000000000000000000000000000000000000000000000000000000000000000000000F5F50000000000000000000000000000000000000000000000000000000000000000000000000000000000000000000000000000000000000000
310
0028282800000000000000000000000000000000000000000000000000000000BE000000002D2D2D2D2D00000000000000000000000000F500F5F5F5002DF5F500002D00000000002D00000000000000000000000000000000002D000000000000000000000000000000000000000000000000000000000000000000000000
310
000000F500000000000000000000000000000000000000000000000000000000000000000000000000000000000000000000000000000000000000000000000000000000000000F5F5000000000000000000000000000000000000000000000000000000000000000000000000000000000000000000000000000000000000
310
00000000000028282800000000000000000000000000000000000000000000000000BE000000002D2D2D2D2D00000000000000000000000000F5F500F5F5F52D000000002D0000000000002D000000000000000000000000000000002D00000000000000000000000000000000000000000000000000000000000000000000
310
0000000000F500000000000000000000000000000000000000000000000000000000000000000000000000000000000000000000000000000000000000000000000000000000000000F5F500000000000000000000000000000000000000000000000000000000000000000000000000000000000000000000000000000000
310
00000000000000000000002828282828282828282828282828282828282828282828282828000000002D2D2D2D2D00000000000000000000000000F5F5F5000000002D000000002D00000000002D000000000000000000000000000000002D0000000000000000000000000000000000000000000000000000000000000000
310
00000000000000F500000000000000000000000000000000000000000000000000000000000000000000000000000000000000000000000000000000000000000000000000000000000000F5F50000000000000000000000000000000000000000000000000000000000000000000000000000000000000000000000000000
310
0000000000000000000000000000002800000000000000000000000000000000000000000000BE000000002D2D2D2D2D0000000000000000000000000028F500000000002D000000002D0000000000002D0000000000000000000000000000002D000000000000000000000000000000000000000000000000000000000000
310
000000000000000000F500000000000000000000000000000000000000000000000000000000000000000000000000000000000000000000000000000000000000000000000000000000000000F5F5000000000000000000000000000000000000000000000000000000000000000000000000000000000000000000000000
310
00000000000000000000000000000000002800000000000000000000000000000000000000000000BE000000002D2D2D2D2D00000000000000000000000000F5280000000000002D000000002D00000000002D0000000000000000000000000000002D00000000000000000000000000000000000000000000000000000000
310
0000000000000000000000F500000000000000000000000000000000000000000000000000000000000000000000000000000000000000000000000000000000000000000000000000000000000000F5F500000000000000000000000000000000000000000000000000000000000000000000000000000000000000000000
310
000000000000000000000000000000000000002800000000000000000000000000000000000000000000BE000000002D2D2D2D2D00000000000000000000000000F5F50000000000002D000000002D0000000000002D00000000000000000000000000002D0000000000000000000000000000000000000000000000000000
310
00000000000000000000000000F500000000000000000000000000000000000000000000000000000000000000000000000000000000000000000000000000000000000000000000000000000000000000F5F50000000000000000000000000000000000000000000000000000000000000000000000000000000000000000
310
0000000000000000000000000000000000000000002800000000000000000000000000000000000000000000BE000000002D2D2D2D2D00000000000000000000000000F5F5000000000000002D000000002D0000000000DCDCDCDCDCDCDCDCDCDC2D2D2D2D002D000000000000000000000000000000000000000000000000
310
000000000000000000000000000000F500000000000000000000000000000000000000000000000000000000000000000000000000000000000000000000000000000000000000000000000000000000000000F5F5000000000000000000000000000000000000000000000000000000000000000000000000000000000000
310
00000000000000000000000000000000000000000000002800000000000000000000000000000000000000000000BE000000002D2D2D2D2D0000000000000000000000000028F5000000000000002D000000002D0000000000DCDCDCDCDCDCDCDCDCDC00000000002D00000000000000000000000000000000000000000000
310
0000000000000000000000000000000000F500000000000000000000000000000000000000000000000000000000000000000000000000000000000000000000000000000000000000000000000000000000000000F5F500000000000000000000000000000000000000000000000000000000000000000000000000000000
310
000000000000000000000000000000000000000000000000002800000000000000000000000000000000000000000000BE000000002D2D2D2D2D00000000000000000000000000F52800000000000000002D000000002D000000000000000000000000000000000000002D0000000000000000000000000000000000000000
310
00000000000000000000000000000000000000F500000000000000000000000000000000000000000000000000000000000000000000000000000000000000000000000000000000000000000000000000000000000000F5F50000000000000000000000000000000000000000000000000000000000000000000000000000
310
0000000000000000000000000000000000000000000000000000002800000000000000000000000000000000000000000000BE000000002D2D00002D00000000000000000000000000F5F500000000000000002D000000002D000000000000000000000000000000000000002D000000000000000000000000000000000000
310
000000000000000000000000000000000000000000F500000000000000000000000000000000000000000000000000000000000000000000000000000000000000000000000000000000000000000000000000000000000000F5F5000000000000000000000000000000000000000000000000000000000000000000000000
310
00000000000000000000000000000000000000000000000000000000002800000000000000000000000000000000000000000000BE00000000000000002D00000000000000000000000000F5F50000000000000000002D000000002D0000000000000000000000000000000000002D00000000000000000000000000000000
310
0000000000000000000000000000000000000000000000F500000000000000000000000000000000000000000000000000000000000000000000000000000000000000000000000000000000000000000000000000000000000000F5F500000000000000000000000000000000000000000000000000000000000000000000
310
000000000000000000000000000000000000000000000000000000000000002800000000000000000000000000000000000000000000BE00000000000000002D0000000000000000000000000028F50000000000000000002D00000000DCDCDCDCDCDCDCDCDCDC2D2D000000000000002D0000000000000000000000000000
310
00000000000000000000000000000000000000000000000000F500000000000000000000000000000000000000000000000000000000000000000000000000000000000000000000000000000000000000000000000000000000000000F5F50000000000000000000000000000000000000000000000000000000000000000
310
0000000000000000000000000000000000000000000000000000000000000000002800000000000000000000000000000000000000000000BE00000000000000002D00000000000000000000000000F5F5000000000000000000002D000000DCDCDCDCDCDCDCDCDCDC0000000000000000002D000000000000000000000000
310
000000000000000000000000000000000000000000000000000000F500000000000000000000000000000000000000000000000000000000000000000000000000000000000000000000000000000000000000000000000000000000000000F5F5000000000000000000000000000000000000000000000000000000000000
310
00000000000000000000000000000000000000000000000000000000000000000000002800000000000000000000000000000000000000000000BE00000000000000002D00000000000000000000000000F528000000000000000000002D000000000000000000000000000000000000000000002D00000000000000000000
310
0000000000000000000000000000000000000000000000000000000000F500000000000000000000000000000000000000000000000000000000000000000000000000000000000000000000000000000000000000000000000000000000000000F5F500000000000000000000000000000000000000000000000000000000
310
000000000000000000000000000000000000000000000000000000000000000000000000002800000000000000000000000000000000000000000000BE00000000000000002D00000000000000000000000000F5F500000000000000000000002D0000000000000000000000000000000000000000002D0000000000000000
310
00000000000000000000000000000000000000000000000000000000000000F500000000000000000000000000000000000000000000000000000000000000000000000000000000000000000000000000000000000000000000000000000000000000F5F50000000000000000000000000000000000000000000000000000
310
0000000000000000000000000000000000000000000000000000000000000000000000000000002800000000000000000000000000000000000000000000BE00000000000000002D00000000000000000000000000F5F500000000000000000000002DDCDCDCDCDC2D0000000000000000000000000000002D000000000000
310
000000000000000000000000000000000000000000000000000000000000000000F500000000000000000000000000000000000000000000000000000000000000000000000000000000000000000000000000000000000000000000000000000000000000F5F5000000000000000000000000000000000000000000000000
310
00000000000000000000000000000000000000000000000000000000000000000000000000000000002800000000000000000000000000000000000000000000BE00000000000000002D0000000000000000000000000028F5000000000000000000000000DCDCDCDCDC000000000000000000000000000000002D00000000
310
0000000000000000000000000000000000000000000000000000000000000000000000F500000000000000000000000000000000000000000000000000000000000000000000000000000000000000000000000000000000000000000000000000000000000000F5F500000000000000000000000000000000000000000000
310
000000000000000000000000000000000000000000000000000000000000000000000000000000000000002800000000000000000000000000000000000000000000BE00000000000000002D00000000000000000000000000F5280000000000000000000000000000000000000000000000000000000000000000002D0000
310
00000000000000000000000000000000000000000000000000000000000000000000000000F500000000000000000000000000000000000000000000000000000000000000000000000000000000000000000000000000000000000000000000000000000000000000F5F50000000000000000000000000000000000000000
310
0000000000000000000000000000000000000000000000000000000000000000000000000000000000000000002800000000000000000000000000000000000000000000BE00000000000000002D00000000000000000000000000F5F5000000000000000000000000000000000000000000000000000000000000002D2D2D
310
000000000000000000000000000000000000000000000000000000000000000000000000000000F500000000000000000000000000000000000000000000000000000000000000000000000000000000000000000000000000000000000000000000000000000000000000F5F5000000000000000000000000000000000000
310
00000000000000000000000000000000000000000000000000000000000000000000000000000000000000000000002800000000000000000000000000000000000000000000BE00000000000000002D00000000000000000000000000F5F5000000000000000000000000000000000000000000000000000000000000002D
310
2D2D000000000000000000000000000000000000000000000000000000000000000000000000000000F500000000000000000000000000000000000000000000000000000000000000000000000000000000000000000000000000000000000000000000000000000000000000F5F500000000000000000000000000000000
310
000000000000000000000000000000000000000000000000000000000000000000000000000000000000000000000000002800000000000000000000000000000000000000000000BE00000000000000002D0000000000000000000000000028F5000000000000000000000000000000000000000000000000000000000000
310
002D2D2D000000000000000000000000000000000000000000000000000000000000000000000000000000F500000000000000000000000000000000000000000000000000000000000000000000000000000000000000000000000000000000000000000000000000000000000000F5F50000000000000000000000000000
310
0000000000000000000000000000000000000000000000000000000000000000000000000000000000000000000000000000002800000000000000000000000000000000000000000000BE00000000000000002D00000000000000000000000000F52800000000000000000000000000000000000000000000000000000000
310
0000002D2D2D000000000000000000000000000000000000000000000000000000000000000000000000000000F500000000000000000000000000000000000000000000000000000000000000000000000000000000000000000000000000000000000000000000000000000000000000F5F5000000000000000000000000
310
00000000000000000000000000000000000000000000000000000000000000000000000000000000000000000000000000000000002800000000000000000000000000000000000000000000BE000000000000002D2D00000000000000000000000000F5F50000000000000000000000000000000000000000000000000000
310
000000000000002D000000000000000000000000000000000000000000000000000000000000000000000000000000F500000000000000000000000000000000000000000000000000000000000000000000000000000000000000000000000000000000000000000000000000000000000000F5F500000000000000000000
310
000000000000000000000000000000000000000000000000000000000000000000000000000000000000000000000000000000000000002800000000000000000000000000000000000000000000BE000000000000002D2D2D2D2D2D2D2D2D2D2D2D2D2D002DF5000000000000000000000000000000000000000000000000
310
0000000000000000002D000000000000000000000000000000000000000000000000000000000000000000000000000000F500000000000000000000000000000000000000000000000000000000000000000000000000000000000000000000000000000000000000000000000000000000000000F5F50000000000000000
310
0000000000000000000000000000000000000000000000000000000000000000000000000000000000000000000000000000000000000000002800000000000000000000000000000000000000000000BE0000000000000000000000000000000000000000000028F500000000000000000000000000000000000000000000
310
00000000000000000000002D000000000000000000000000000000000000000000000000000000000000000000000000000000F500000000000000000000000000000000000000000000000000000000000000000000000000000000000000000000000000000000000000000000000000000000000000F5F5000000000000
310
00000000000000000000000000000000000000000000000000000000000000000000000000000000000000000000000000000000000000000000002800000000000000000000000000000000000000000000BE00000000000000000000000000000000000000000000F5280000000000000000000000000000000000000000
310
000000000000000000000000002D000000000000000000000000000000000000000000000000000000000000000000000000000000F500000000000000000000000000000000000000000000000000000000000000000000000000000000000000000000000000000000000000000000000000000000000000F5F500000000
310
000000000000000000000000000000000000000000000000000000000000000000000000000000000000000000000000000000000000000000000000002800000000000000000000000000000000000000000000BE00000000000000000000000000000000000000000000F5F5000000000000000000000000000000000000
310
0000000000000000000000000000002D000000000000000000000000000000000000000000000000000000000000000000000000000000F500000000000000000000000000000000000000000000000000000000000000000000000000000000000000000000000000000000000000000000000000000000000000F5F50000
310
0000000000000000000000000000000000000000000000000000000000000000000000000000000000000000000000000000000000000000000000000000002800000000000000000000000000000000000000000000BE00000000000000000000000000000000000000000000F5F500000000000000000000000000000000
310
00000000000000000000000000000000002D000000000000000000000000000000000000000000000000000000000000000000000000000000F500000000000000000000000000000000000000000000000000000000000000000000000000000000000000000000000000000000000000000000000000000000000000F5F5
310
00000000000000000000000000000000000000000000000000000000000000000000000000000000000000000000000000000000000000000000000000000000002800000000000000000000000000000000000000000000BE0000000000000000000000000000000000000000000028F50000000000000000000000000000
310
000000000000000000000000000000000000002D000000000000000000000000000000000000000000000000000000000000000000000000000000F500000000000000000000000000000000000000000000000000000000000000000000000000000000000000000000000000000000000000000000000000000000000000
310
F5F500000000000000000000000000000000000000000000000000000000000000000000000000000000000000000000000000000000000000000000000000000000002800000000000000000000000000000000000000000000BE00000000000000000000000000000000000000000000F5F5000000000000000000000000
310
0000000000000000000000000000000000000000002D000000000000000000000000000000000000000000000000000000000000000000000000000000F50000000000000000000000000000000000000000000000000000000000000000000000000000000000000000000000000000000000000000000000000000000000
310
0000F5F500000000000000000000000000000000000000000000000000000000000000000000000000000000000000000000000000000000000000000000000000000000002800000000000000000000000000000000000000000000BE00000000000000000000000000000000000000000000F50000000000000000000000
310
00000000000000000000000000000000000000000000002D000000000000000000000000000000000000000000000000000000000000000000000000000000F5000000000000000000000000000000000000000000000000000000000000000000000000000000000000000000000000000000000000000000000000000000
310
00000000F5F500000000000000000000000000000000000000000000000000000000000000000000000000000000000000000000000000000000000000000000000000000000002800000000000000000000000000000000000000000000BE00000000000000000000000000000000000000000000F5F50000000000000000
310
000000000000000000000000000000000000000000000000002D000000000000000000000000000000000000000000000000000000000000000000000000000000F500000000000000000000000000000000000000000000000000000000000000000000000000000000000000000000000000000000000000000000000000
310
000000000000F5F500000000000000000000000000000000000000000000000000000000000000000000000000000000000000000000000000000000000000000000000000000000002800000000000000000000000000000000000000000000BE00000000000000000000000000000000000000000000F5F5000000000000
310
0000000000000000000000000000000000000000000000000000002D000000000000000000000000000000000000000000000000000000000000000000000000000000F50000000000000000000000000000000000000000000000000000000000000000000000000000000000000000000000000000000000000000000000
310
0000000000000000F5F500000000000000000000000000000000000000000000000000000000000000000000000000000000000000000000000000000000000000000000000000000000002800000000000000000000000000000000000000000000BE0000000000000000000000000000000000000000000028F500000000
310
00000000000000000000000000000000000000000000000000000000002D000000000000000000000000000000000000000000000000000000000000000000000000000000F5000000000000000000000000000000000000000000000000000000000000000000000000000000000000000000000000000000000000000000
310
00000000000000000000F5F500000000000000000000000000000000000000000000000000000000000000000000000000000000000000000000000000000000000000000000000000000000002800000000000000000000000000000000000000000000BE00000000000000000000000000000000000000000000F5000000
310
000000000000000000000000000000000000000000000000000000000000002D000000000000000000000000000000000000000000000000000000000000000000000000000000F500000000000000000000000000000000000000000000000000000000000000000000000000000000000000000000000000000000000000
310
000000000000000000000000F5F500000000000000000000000000000000000000000000000000000000000000000000000000000000000000000000000000000000000000000000000000000000002800000000000000000000000000000000000000000000BE00000000000000000000000000000000000000000000F5F5
310
0000000000000000000000000000000000000000000000000000000000000000002D000000000000000000000000000000000000000000000000000000000000000000000000000000F50000000000000000000000000000000000000000000000000000000000000000000000000000000000000000000000000000000000
310
0000000000000000000000000000F5F500000000000000000000000000000000000000000000000000000000000000000000000000000000000000000000000000000000000000000000000000000000002800000000000000000000000000000000000000000000BE00000000000000000000000000000000000000000000
310
F5F50000000000000000000000000000000000000000000000000000000000000000002D000000000000000000000000000000000000000000000000000000000000000000000000000000F5000000000000000000000000000000000000000000000000000000000000000000000000000000000000000000000000000000
310
00000000000000000000000000000000F5F500000000000000000000000000000000000000000000000000000000000000000000000000000000000000000000000000000000000000000000000000000000002800000000000000000000000000000000000000000000BE0000000000000000000000000000000000000000
310
000028F50000000000000000000000000000000000000000000000000000000000000000002D000000000000000000000000000000000000000000000000000000000000000000000000000000F500000000000000000000000000000000000000000000000000000000000000000000000000000000000000000000000000
310
000000000000000000000000000000000000F5F500000000000000000000000000000000000000000000000000000000000000000000000000000000000000000000000000000000000000000000000000000000002800000000000000000000000000000000000000000000BE000000000000000000000000000000000000
310
00000000F5000000000000000000000000000000000000000000000000000000000000000000002D000000000000000000000000000000000000000000000000000000000000000000000000000000F50000000000000000000000000000000000000000000000000000000000000000000000000000000000000000000000
310
0000000000000000000000000000000000000000F5F500000000000000000000000000000000000000000000000000000000000000000000000000000000000000000000000000000000000000000000000000000000002800000000000000000000000000000000000000000000BE00000000000000000000000000000000
310
000000000000F5F50000000000000000000000000000000000000000000000000000000000000000002D000000000000000000000000000000000000000000000000000000000000000000000000000000F5000000000000000000000000000000000000000000000000000000000000000000000000000000000000000000
310
00000000000000000000000000000000000000000000F5F500000000000000000000000000000000000000000000000000000000000000000000000000000000000000000000000000000000000000000000000000000000002800000000000000000000000000000000000000000000BE0000000000000000000000000000
310
0000000000000000F5F50000000000000000000000000000000000000000000000000000000000000000002D000000000000000000000000000000000000000000000000000000000000000000000000000000F500000000000000000000000000000000000000000000000000000000000000000000000000000000000000
310
000000000000000000000000000000000000000000000000F5F500000000000000000000000000000000000000000000000000000000000000000000000000000000000000000000000000000000000000000000000000000000002800000000000000000000000000000000000000000000BE000000000000000000000000
310
0000000000000000000028F50000000000000000000000000000000000000000000000000000000000000000002D000000000000000000000000000000000000000000000000000000000000000000000000000000F50000000000000000000000000000000000000000000000000000000000000000000000000000000000
310
0000000000000000000000000000000000000000000000000000F5F500000000000000000000000000000000000000000000000000000000000000000000000000000000000000000000000000000000000000000000000000000000002800000000000000000000000000000000000000000000BE00000000000000000000
310
000000000000000000000000F5000000000000000000000000000000000000000000000000000000000000000000002D000000000000000000000000000000000000000000000000000000000000000000000000000000F5000000000000000000000000000000000000000000000000000000000000000000000000000000
310
00000000000000000000000000000000000000000000000000000000F5F500000000000000000000000000000000000000000000000000000000000000000000000000000000000000000000000000000000000000000000000000000000002800000000000000000000000000000000000000000000BE0000000000000000
310
0000000000000000000000000000F5F50000000000000000000000000000000000000000000000000000000000000000002D000000000000000000000000000000000000000000000000000000000000000000000000000000F500000000000000000000000000000000000000000000000000000000000000000000000000
310
000000000000000000000000000000000000000000000000000000000000F5F500000000000000000000000000000000000000000000000000000000000000000000000000000000000000000000000000000000000000000000000000000000002800000000000000000000000000000000000000000000BE000000000000
310
00000000000000000000000000000000F5F50000000000000000000000000000000000000000000000000000000000000000002D000000000000000000000000000000000000000000000000000000000000000000000000000000F50000000000000000000000000000000000000000000000000000000000000000000000
310
0000000000000000000000000000000000000000000000000000000000000000F5F500000000000000000000000000000000000000000000000000000000000000000000000000000000000000000000000000000000000000000000000000000000002800000000000000000000000000000000000000000000BE00000000
310
00000000000000000000000000000000000028F50000000000000000000000000000000000000000000000000000000000000000002D000000000000000000000000000000000000000000000000000000000000000000000000000000F5000000000000000000000000000000000000000000000000000000000000000000
310
00000000000000000000000000000000000000000000000000000000000000000000F5F500000000000000000000000000000000000000000000000000000000000000000000000000000000000000000000000000000000000000000000000000000000002800000000000000000000000000000000000000000000BE0000
310
0000000000000000000000000000000000000000F5F50000000000000000000000000000000000000000000000000000000000000000002D000000000000000000000000000000000000000000000000000000000000000000000000000000F500000000000000000000000000000000000000000000000000000000000000
310
000000000000000000000000000000000000000000000000000000000000000000000000F5F500000000000000000000000000000000000000000000000000000000000000000000000000000000000000000000000000000000000000000000000000000000002800000000000000000000000000000000000000000000BE
310
00000000000000000000000000000000000000000000F5000000000000000000000000000000000000000000000000000000000000000000002D000000000000000000000000000000000000000000000000000000000000000000000000000000F50000000000000000000000000000000000000000000000000000000000
310
0000000000000000000000000000000000000000000000000000000000000000000000000000F5F5000000000000000000000000000000000000000000000000000000000000000000000000000000000000000000000000000000000000000000000000000000000028000000000000000000000000000000000000000000
310
00BE00000000000000000000000000000000000000000000F5F50000000000000000000000000000000000000000000000000000000000000000002D000000000000000000000000000000000000000000000000000000000000000000000000000000F5000000000000000000000000000000000000000000000000000000
310
00000000000000000000000000000000000000000000000000000000000000000000000000000000F5F500000000000000000000000000000000000000000000000000000000000000000000000000000000000000000000000000000000000000000000000000000000002800000000000000000000000000000000000000
310
000000BE00000000000000000000000000000000000000000000F5F50000000000000000000000000000000000000000000000000000000000000000002D000000000000000000000000000000000000000000000000000000000000000000000000000000F500000000000000000000000000000000000000000000000000
310
000000000000000000000000000000000000000000000000000000000000000000000000000000000000F5F50000000000000000000000000000000000000000000000000000000000000000000000000000000000000000000000000000000000000000000000000000000000280000000000000000000000000000000000
310
0000000000BE0000000000000000000000000000000000000000000028F50000000000000000000000000000000000000000000000000000000000000000002D000000000000000000000000000000000000000000000000000000000000000000000000000000F50000000000000000000000000000000000000000000000
310
0000000000000000000000000000000000000000000000000000000000000000000000000000000000000000F5F5000000000000000000000000000000000000000000000000000000000000000000000000000000000000000000000000000000000000000000000000000000000028000000000000000000000000000000
310
00000000000000BE00000000000000000000000000000000000000000000F5000000000000000000000000000000000000000000000000000000000000000000002D000000000000000000000000000000000000000000000000000000000000000000000000000000F5000000000000000000000000000000000000000000
310
00000000000000000000000000000000000000000000000000000000000000000000000000000000000000000000F5F500000000000000000000000000000000000000000000000000000000000000000000000000000000000000000000000000000000000000000000000000000000002800000000000000000000000000
310
000000000000000000BE00000000000000000000000000000000000000000000F5F50000000000000000000000000000000000000000000000000000000000000000002D000000000000000000000000000000000000000000000000000000000000000000000000000000F500000000000000000000000000000000000000
310
000000000000000000000000000000000000000000000000000000000000000000000000000000000000000000000000F5F50000000000000000000000000000000000000000000000000000000000000000000000000000000000000000000000000000000000000000000000000000000000280000000000000000000000
310
0000000000000000000000BE00000000000000000000000000000000000000000000F5F50000000000000000000000000000000000000000000000000000000000000000002D000000000000000000000000000000000000000000000000000000000000000000000000000000F50000000000000000000000000000000000
310
0000000000000000000000000000000000000000000000000000000000000000000000000000000000000000000000000000F5F5000000000000000000000000000000000000000000000000000000000000000000000000000000000000000000000000000000000000000000000000000000000028000000000000000000
310
00000000000000000000000000BE00000000000000000000000000000000000000000000F5000000000000000000000000000000000000000000000000000000000000000000002D000000000000000000000000000000000000000000000000000000000000000000000000000000F5000000000000000000000000000000
310
00000000000000000000000000000000000000000000000000000000000000000000000000000000000000000000000000000000F5F500000000000000000000000000000000000000000000000000000000000000000000000000000000000000000000000000000000000000000000000000000000002800000000000000
310
000000000000000000000000000000BE00000000000000000000000000000000000000000000F5000000000000000000000000000000000000000000000000000000000000000000002D000000000000000000000000000000000000000000000000000000000000000000000000000000F500000000000000000000000000
310
000000000000000000000000000000000000000000000000000000000000000000000000000000000000000000000000000000000000F5F50000000000000000000000000000000000000000000000000000000000000000000000000000000000000000000000000000000000000000000000000000000000280000000000
310
0000000000000000000000000000000000BE00000000000000000000000000000000000000000000F5000000000000000000000000000000000000000000000000000000000000000000002D000000000000000000000000000000000000000000000000000000000000000000000000000000F50000000000000000000000
310
0000000000000000000000000000000000000000000000000000000000000000000000000000000000000000000000000000000000000000F5F5000000000000000000000000000000000000000000000000000000000000000000000000000000000000000000000000000000000000000000000000000000000028000000
310
00000000000000000000000000000000000000BE00000000000000000000000000000000000000000000F5000000000000000000000000000000000000000000000000000000000000000000002D000000000000000000000000000000000000000000000000000000000000000000000000000000F5000000000000000000
310
00000000000000000000000000000000000000000000000000000000000000000000000000000000000000000000000000000000000000000000F5F50000000000000000000000000000000000000000000000000000000000000000000000000000000000000000000000000000000000000000000000000000000000282D
310
2828282828282828282828282828282828282828282828282828282828282828282828282828282828282828F5002D2D2D2D2D2D2D2D2D2D2D2D2D2D2D2D2D2D2D2D2D2D2D2D2D2D2D2D2D2D2D2D2D2D2D0000000000000000000000000000000000000000000000000000000000000000000000000000F500000000000000
310
000000000000000000000000000000000000000000000000000000000000000000000000000000000000000000000000000000000000000000000000F5F50000000000000000000000000000000000000000000000000000000000000000000000000000000000000000000000000000000000000000000000000000000000
310
002D000000000000000000000000000000000000000000BE000000000000000000000000000000000000000000002D0000000000000000000000000000000000000000000000000000000000000000000000000000000000000000000000000000000000000000000000000000000000000000000000000000F50000000000
310
0000000000000000000000000000000000000000000000000000000000000000000000000000000000000000000000000000000000000000000000000000F5F5000000000000000000000000000000000000000000000000000000000000000000000000000000000000000000000000000000000000000000000000000000
310
0000002D00000000000000000000000000000000000000000000000000000000000000000000000000000000000000002D0000000000000000000000000000000000000000000000000000000000000000000000000000000000000000000000000000000000000000000000000000000000000000000000000000F5000000
310
00000000000000000000000000000000000000000000000000000000000000000000000000000000000000000000000000000000000000000000000000000000F5F500000000000000000000000000000000000000000000000000000000000000000000000000000000000000000000000000000000000000000000000000
310
00000000002D00000000000000000000000000000000000000000000000000000000000000000000000000000000000000002D0000000000000000000000000000000000000000000000000000000000000000000000000000000000000000000000000000000000000000000000000000000000000000000000000000F500
310
000000000000000000000000000000000000000000000000000000000000000000000000000000000000000000000000000000000000000000000000000000000000F5F50000000000000000000000000000000000000000000000000000000000000000000000000000000000000000000000000000000000000000000000
310
000000000000002D2D2D2D2D2D2D2D2D2D2D2D2D2D2D2D2D2D2D2D2D2D2D2D2D2D2D2D2D2D2D2D2D2D2D2D2D2D2D2D2D2D2D2D2D2D0000000000000000000000000000000000000000000000000000000000000000000000000000000000000000000000000000000000000000000000000000000000000000000000000000
310
F500000000000000000000000000000000000000000000000000000000000000000000000000000000000000000000000000000000000000000000000000000000000000F5F5000000000000000000000000000000000000000000000000000000000000000000000000000000000000000000000000000000000000000000
310
0000000000000000002D00000000000000000000000000000000000000002D2D2D2D00000000000000000000000000000000000000002D000000000000000000000000000000000000000000000000000000000000000000000000000000000000000000000000000000000000000000000000000000000000000000000000
310
0000F500000000000000000000000000000000000000000000000000000000000000000000000000000000000000000000000000000000000000000000000000000000000000F5F500000000000000000000000000000000000000000000000000000000000000000000000000000000000000000000000000000000000000
310
00000000000000000000000000000000000000000000000000000000000000002D2D2D2D00000000000000000000000000000000000000000000000000000000000000000000000000000000000000000000000000000000000000000000000000000000000000000000000000000000000000000000000000000000000000
310
00000000F500000000000000000000000000000000000000000000000000000000000000000000000000000000000000000000000000000000000000000000000000000000000000F5F50000000000000000000000000000000000000000000000000000000000000000000000000000000000000000000000000000000000
310
00000000000000000000000000000000000000000000000000000000000000000000000000000000000000000000000000000000000000000000000000000000000000000000000000000000000000000000000000000000000000000000000000000000000000000000000000000000000000000000000000000000000000
310
000000000000F500000000000000000000000000000000000000000000000000000000000000000000000000000000000000000000000000000000000000000000000000000000000000F5F5000000000000000000000000000000000000000000000000000000000000000000000000000000000000000000000000000000
310
00000000000000000000000000000000000000000000000000000000000000000000000000000000000000000000000000000000000000000000000000000000000000000000000000000000000000000000000000000000000000000000000000000000000000000000000000000000000000000000000000000000000000
310
0000000000000000F500000000000000000000000000000000000000000000000000000000000000000000000000000000000000000000000000000000000000000000000000000000000000F5F500000000000000000000000000000000000000000000000000000000000000000000000000000000000000000000000000
310
00000000000000000000000000000000000000000000000000000000000000000000000000000000000000000000000000000000000000000000000000000000000000000000000000000000000000000000000000000000000000000000000000000000000000000000000000000000000000000000000000000000000000
310
00000000000000000000F500000000000000000000000000000000000000000000000000000000000000000000000000000000000000000000000000000000000000000000000000000000000000F5F50000000000000000000000000000000000000000000000000000000000000000000000000000000000000000000000
310
00000000000000000000000000000000000000000000000000000000000000000000000000000000000000000000000000000000000000000000000000000000000000000000000000000000000000000000000000000000000000000000000000000000000000000000000000000000000000000000000000000000000000
310
000000000000000000000000F500000000000000000000000000000000000000000000000000000000000000000000000000000000000000000000000000000000000000000000000000000000000000F5F5000000000000000000000000000000000000000000000000000000000000000000000000000000000000000000
310
00000000000000000000000000000000000000000000000000000000000000000000000000000000000000000000000000000000000000000000000000000000000000000000000000000000000000000000000000000000000000000000000000000000000000000000000000000000000000000000000000000000000000
310
0000000000000000000000000000F5000000000000000000000000000000000000000000000000000000000000000000000000000000
  0
CELLSTYLEMAP
  5
43BC
102
{ACAD_REACTORS
330
3140
102
}
330
3140
100
AcDbCellStyleMap
 90
        3
300
CELLSTYLE
  1
TABLEFORMAT_BEGIN
 90
        5
170
     1
 91
        0
 92
    32768
 62
   257
 93
        1
300
CONTENTFORMAT
  1
CONTENTFORMAT_BEGIN
 90
        0
 91
        0
 92
      512
 93
        0
300

 40
0.0
140
1.0
 94
        5
 62
     0
340
10
144
6.0
309
CONTENTFORMAT_END
171
     1
301
MARGIN
  1
CELLMARGIN_BEGIN
 40
1.5
 40
1.5
 40
1.5
 40
1.5
 40
0.18
 40
0.18
309
CELLMARGIN_END
 94
        6
 95
        1
302
GRIDFORMAT
  1
GRIDFORMAT_BEGIN
 90
        0
 91
        1
 62
     0
 92
       -2
340
0
 93
        0
 40
1.125
309
GRIDFORMAT_END
 95
        2
302
GRIDFORMAT
  1
GRIDFORMAT_BEGIN
 90
        0
 91
        1
 62
     0
 92
       -2
340
0
 93
        0
 40
1.125
309
GRIDFORMAT_END
 95
        4
302
GRIDFORMAT
  1
GRIDFORMAT_BEGIN
 90
        0
 91
        1
 62
     0
 92
       -2
340
0
 93
        0
 40
1.125
309
GRIDFORMAT_END
 95
        8
302
GRIDFORMAT
  1
GRIDFORMAT_BEGIN
 90
        0
 91
        1
 62
     0
 92
       -2
340
0
 93
        0
 40
1.125
309
GRIDFORMAT_END
 95
       16
302
GRIDFORMAT
  1
GRIDFORMAT_BEGIN
 90
        0
 91
        1
 62
     0
 92
       -2
340
0
 93
        0
 40
1.125
309
GRIDFORMAT_END
 95
       32
302
GRIDFORMAT
  1
GRIDFORMAT_BEGIN
 90
        0
 91
        1
 62
     0
 92
       -2
340
0
 93
        0
 40
1.125
309
GRIDFORMAT_END
309
TABLEFORMAT_END
  1
CELLSTYLE_BEGIN
 90
        1
 91
        1
300
_TITLE
309
CELLSTYLE_END
300
CELLSTYLE
  1
TABLEFORMAT_BEGIN
 90
        5
170
     1
 91
        0
 92
        0
 62
   257
 93
        1
300
CONTENTFORMAT
  1
CONTENTFORMAT_BEGIN
 90
        0
 91
        0
 92
      512
 93
        0
300

 40
0.0
140
1.0
 94
        5
 62
     0
340
10
144
4.5
309
CONTENTFORMAT_END
171
     1
301
MARGIN
  1
CELLMARGIN_BEGIN
 40
1.5
 40
1.5
 40
1.5
 40
1.5
 40
0.18
 40
0.18
309
CELLMARGIN_END
 94
        6
 95
        1
302
GRIDFORMAT
  1
GRIDFORMAT_BEGIN
 90
        0
 91
        1
 62
     0
 92
       -2
340
0
 93
        0
 40
1.125
309
GRIDFORMAT_END
 95
        2
302
GRIDFORMAT
  1
GRIDFORMAT_BEGIN
 90
        0
 91
        1
 62
     0
 92
       -2
340
0
 93
        0
 40
1.125
309
GRIDFORMAT_END
 95
        4
302
GRIDFORMAT
  1
GRIDFORMAT_BEGIN
 90
        0
 91
        1
 62
     0
 92
       -2
340
0
 93
        0
 40
1.125
309
GRIDFORMAT_END
 95
        8
302
GRIDFORMAT
  1
GRIDFORMAT_BEGIN
 90
        0
 91
        1
 62
     0
 92
       -2
340
0
 93
        0
 40
1.125
309
GRIDFORMAT_END
 95
       16
302
GRIDFORMAT
  1
GRIDFORMAT_BEGIN
 90
        0
 91
        1
 62
     0
 92
       -2
340
0
 93
        0
 40
1.125
309
GRIDFORMAT_END
 95
       32
302
GRIDFORMAT
  1
GRIDFORMAT_BEGIN
 90
        0
 91
        1
 62
     0
 92
       -2
340
0
 93
        0
 40
1.125
309
GRIDFORMAT_END
309
TABLEFORMAT_END
  1
CELLSTYLE_BEGIN
 90
        2
 91
        1
300
_HEADER
309
CELLSTYLE_END
300
CELLSTYLE
  1
TABLEFORMAT_BEGIN
 90
        5
170
     1
 91
        0
 92
        0
 62
   257
 93
        1
300
CONTENTFORMAT
  1
CONTENTFORMAT_BEGIN
 90
        0
 91
        0
 92
      512
 93
        0
300

 40
0.0
140
1.0
 94
        2
 62
     0
340
10
144
4.5
309
CONTENTFORMAT_END
171
     1
301
MARGIN
  1
CELLMARGIN_BEGIN
 40
1.5
 40
1.5
 40
1.5
 40
1.5
 40
0.18
 40
0.18
309
CELLMARGIN_END
 94
        6
 95
        1
302
GRIDFORMAT
  1
GRIDFORMAT_BEGIN
 90
        0
 91
        1
 62
     0
 92
       -2
340
0
 93
        0
 40
1.125
309
GRIDFORMAT_END
 95
        2
302
GRIDFORMAT
  1
GRIDFORMAT_BEGIN
 90
        0
 91
        1
 62
     0
 92
       -2
340
0
 93
        0
 40
1.125
309
GRIDFORMAT_END
 95
        4
302
GRIDFORMAT
  1
GRIDFORMAT_BEGIN
 90
        0
 91
        1
 62
     0
 92
       -2
340
0
 93
        0
 40
1.125
309
GRIDFORMAT_END
 95
        8
302
GRIDFORMAT
  1
GRIDFORMAT_BEGIN
 90
        0
 91
        1
 62
     0
 92
       -2
340
0
 93
        0
 40
1.125
309
GRIDFORMAT_END
 95
       16
302
GRIDFORMAT
  1
GRIDFORMAT_BEGIN
 90
        0
 91
        1
 62
     0
 92
       -2
340
0
 93
        0
 40
1.125
309
GRIDFORMAT_END
 95
       32
302
GRIDFORMAT
  1
GRIDFORMAT_BEGIN
 90
        0
 91
        1
 62
     0
 92
       -2
340
0
 93
        0
 40
1.125
309
GRIDFORMAT_END
309
TABLEFORMAT_END
  1
CELLSTYLE_BEGIN
 90
        3
 91
        2
300
_DATA
309
CELLSTYLE_END
  0
XRECORD
  5
43F1
102
{ACAD_REACTORS
330
3140
102
}
330
3140
100
AcDbXrecord
280
     1
102
ACAD_ROUNDTRIP_PRE2007_TABLESTYLE
 90
      512
 91
        0
  1

 92
      512
 93
        0
  2

 94
      512
 95
        0
  3

  0
XRECORD
  5
43CC
102
{ACAD_REACTORS
330
43CB
102
}
330
43CB
100
AcDbXrecord
280
     1
102
RTVSPropertyOp0
 70
     1
102
RTVSPropertyOp1
 70
     1
102
RTVSPropertyOp2
 70
     1
102
RTVSPropertyOp3
 70
     1
102
RTVSPropertyOp4
 70
     1
102
RTVSPropertyOp5
 70
     1
102
RTVSPropertyOp6
 70
     1
102
RTVSPropertyOp7
 70
     1
102
RTVSPropertyOp8
 70
     1
102
RTVSPropertyOp9
 70
     1
102
RTVSPropertyOp10
 70
     1
102
RTVSPropertyOp11
 70
     1
102
RTVSPropertyOp12
 70
     1
102
RTVSPropertyOp13
 70
     1
102
RTVSPropertyOp14
 70
     1
102
RTVSPropertyOp15
 70
     1
102
RTVSPropertyOp16
 70
     1
102
RTVSPropertyOp17
 70
     1
102
RTVSPropertyOp18
 70
     1
102
RTVSPropertyOp19
 70
     1
102
RTVSPropertyOp20
 70
     1
102
RTVSPropertyOp21
 70
     1
102
RTVSPropertyOp22
 70
     1
102
RTVSPropertyOp23
 70
     1
102
RTVSPropertyOp24
 70
     1
102
RTVSPropertyOp25
 70
     1
102
RTVSPropertyOp26
 70
     1
102
RTVSPropertyOp27
 70
     1
102
RTVSPropertyOp28
 70
     1
102
RTVSPropertyOp29
 70
     1
102
RTVSPropertyOp30
 70
     1
102
RTVSPropertyOp31
 70
     1
102
RTVSPropertyOp32
 70
     1
  0
XRECORD
  5
43CA
102
{ACAD_REACTORS
330
43C9
102
}
330
43C9
100
AcDbXrecord
280
     1
102
RTVSPropertyOp0
 70
     1
102
RTVSPropertyOp1
 70
     1
102
RTVSPropertyOp2
 70
     1
102
RTVSPropertyOp3
 70
     1
102
RTVSPropertyOp4
 70
     1
102
RTVSPropertyOp5
 70
     1
102
RTVSPropertyOp6
 70
     1
102
RTVSPropertyOp7
 70
     1
102
RTVSPropertyOp8
 70
     1
102
RTVSPropertyOp9
 70
     1
102
RTVSPropertyOp10
 70
     1
102
RTVSPropertyOp11
 70
     1
102
RTVSPropertyOp12
 70
     1
102
RTVSPropertyOp13
 70
     1
102
RTVSPropertyOp14
 70
     1
102
RTVSPropertyOp15
 70
     1
102
RTVSPropertyOp16
 70
     1
102
RTVSPropertyOp17
 70
     1
102
RTVSPropertyOp18
 70
     1
102
RTVSPropertyOp19
 70
     1
102
RTVSPropertyOp20
 70
     1
102
RTVSPropertyOp21
 70
     1
102
RTVSPropertyOp22
 70
     1
102
RTVSPropertyOp23
 70
     1
102
RTVSPropertyOp24
 70
     1
102
RTVSPropertyOp25
 70
     1
102
RTVSPropertyOp26
 70
     1
102
RTVSPropertyOp27
 70
     1
102
RTVSPropertyOp28
 70
     1
102
RTVSPropertyOp29
 70
     1
102
RTVSPropertyOp30
 70
     1
102
RTVSPropertyOp31
 70
     1
102
RTVSPropertyOp32
 70
     1
  0
XRECORD
  5
43D8
102
{ACAD_REACTORS
330
43D7
102
}
330
43D7
100
AcDbXrecord
280
     1
102
RTVSPropertyOp0
 70
     1
102
RTVSPropertyOp1
 70
     1
102
RTVSPropertyOp2
 70
     1
102
RTVSPropertyOp3
 70
     1
102
RTVSPropertyOp4
 70
     1
102
RTVSPropertyOp5
 70
     1
102
RTVSPropertyOp6
 70
     1
102
RTVSPropertyOp7
 70
     1
102
RTVSPropertyOp8
 70
     1
102
RTVSPropertyOp9
 70
     1
102
RTVSPropertyOp10
 70
     1
102
RTVSPropertyOp11
 70
     1
102
RTVSPropertyOp12
 70
     1
102
RTVSPropertyOp13
 70
     1
102
RTVSPropertyOp14
 70
     1
102
RTVSPropertyOp15
 70
     1
102
RTVSPropertyOp16
 70
     1
102
RTVSPropertyOp17
 70
     1
102
RTVSPropertyOp18
 70
     1
102
RTVSPropertyOp19
 70
     1
102
RTVSPropertyOp20
 70
     1
102
RTVSPropertyOp21
 70
     1
102
RTVSPropertyOp22
 70
     1
102
RTVSPropertyOp23
 70
     1
102
RTVSPropertyOp24
 70
     1
102
RTVSPropertyOp25
 70
     1
102
RTVSPropertyOp26
 70
     1
102
RTVSPropertyOp27
 70
     1
102
RTVSPropertyOp28
 70
     1
102
RTVSPropertyOp29
 70
     1
102
RTVSPropertyOp30
 70
     1
102
RTVSPropertyOp31
 70
     1
102
RTVSPropertyOp32
 70
     1
  0
XRECORD
  5
43E0
102
{ACAD_REACTORS
330
43DF
102
}
330
43DF
100
AcDbXrecord
280
     1
102
RTVSPropertyOp0
 70
     1
102
RTVSPropertyOp1
 70
     1
102
RTVSPropertyOp2
 70
     1
102
RTVSPropertyOp3
 70
     1
102
RTVSPropertyOp4
 70
     1
102
RTVSPropertyOp5
 70
     1
102
RTVSPropertyOp6
 70
     1
102
RTVSPropertyOp7
 70
     1
102
RTVSPropertyOp8
 70
     1
102
RTVSPropertyOp9
 70
     1
102
RTVSPropertyOp10
 70
     1
102
RTVSPropertyOp11
 70
     1
102
RTVSPropertyOp12
 70
     1
102
RTVSPropertyOp13
 70
     1
102
RTVSPropertyOp14
 70
     1
102
RTVSPropertyOp15
 70
     1
102
RTVSPropertyOp16
 70
     1
102
RTVSPropertyOp17
 70
     1
102
RTVSPropertyOp18
 70
     1
102
RTVSPropertyOp19
 70
     1
102
RTVSPropertyOp20
 70
     1
102
RTVSPropertyOp21
 70
     1
102
RTVSPropertyOp22
 70
     1
102
RTVSPropertyOp23
 70
     1
102
RTVSPropertyOp24
 70
     1
102
RTVSPropertyOp25
 70
     1
102
RTVSPropertyOp26
 70
     1
102
RTVSPropertyOp27
 70
     1
102
RTVSPropertyOp28
 70
     1
102
RTVSPropertyOp29
 70
     1
102
RTVSPropertyOp30
 70
     1
102
RTVSPropertyOp31
 70
     1
102
RTVSPropertyOp32
 70
     1
  0
XRECORD
  5
43D2
102
{ACAD_REACTORS
330
43D1
102
}
330
43D1
100
AcDbXrecord
280
     1
102
RTVSPropertyOp0
 70
     1
102
RTVSPropertyOp1
 70
     1
102
RTVSPropertyOp2
 70
     1
102
RTVSPropertyOp3
 70
     1
102
RTVSPropertyOp4
 70
     1
102
RTVSPropertyOp5
 70
     1
102
RTVSPropertyOp6
 70
     1
102
RTVSPropertyOp7
 70
     1
102
RTVSPropertyOp8
 70
     1
102
RTVSPropertyOp9
 70
     1
102
RTVSPropertyOp10
 70
     1
102
RTVSPropertyOp11
 70
     1
102
RTVSPropertyOp12
 70
     1
102
RTVSPropertyOp13
 70
     1
102
RTVSPropertyOp14
 70
     1
102
RTVSPropertyOp15
 70
     1
102
RTVSPropertyOp16
 70
     1
102
RTVSPropertyOp17
 70
     1
102
RTVSPropertyOp18
 70
     1
102
RTVSPropertyOp19
 70
     1
102
RTVSPropertyOp20
 70
     1
102
RTVSPropertyOp21
 70
     1
102
RTVSPropertyOp22
 70
     1
102
RTVSPropertyOp23
 70
     1
102
RTVSPropertyOp24
 70
     1
102
RTVSPropertyOp25
 70
     1
102
RTVSPropertyOp26
 70
     1
102
RTVSPropertyOp27
 70
     1
102
RTVSPropertyOp28
 70
     1
102
RTVSPropertyOp29
 70
     1
102
RTVSPropertyOp30
 70
     1
102
RTVSPropertyOp31
 70
     1
102
RTVSPropertyOp32
 70
     1
  0
XRECORD
  5
43D6
102
{ACAD_REACTORS
330
43D5
102
}
330
43D5
100
AcDbXrecord
280
     1
102
RTVSPropertyOp0
 70
     1
102
RTVSPropertyOp1
 70
     1
102
RTVSPropertyOp2
 70
     1
102
RTVSPropertyOp3
 70
     1
102
RTVSPropertyOp4
 70
     1
102
RTVSPropertyOp5
 70
     1
102
RTVSPropertyOp6
 70
     1
102
RTVSPropertyOp7
 70
     1
102
RTVSPropertyOp8
 70
     1
102
RTVSPropertyOp9
 70
     1
102
RTVSPropertyOp10
 70
     1
102
RTVSPropertyOp11
 70
     1
102
RTVSPropertyOp12
 70
     1
102
RTVSPropertyOp13
 70
     1
102
RTVSPropertyOp14
 70
     1
102
RTVSPropertyOp15
 70
     1
102
RTVSPropertyOp16
 70
     1
102
RTVSPropertyOp17
 70
     1
102
RTVSPropertyOp18
 70
     1
102
RTVSPropertyOp19
 70
     1
102
RTVSPropertyOp20
 70
     1
102
RTVSPropertyOp21
 70
     1
102
RTVSPropertyOp22
 70
     1
102
RTVSPropertyOp23
 70
     1
102
RTVSPropertyOp24
 70
     1
102
RTVSPropertyOp25
 70
     1
102
RTVSPropertyOp26
 70
     1
102
RTVSPropertyOp27
 70
     1
102
RTVSPropertyOp28
 70
     1
102
RTVSPropertyOp29
 70
     1
102
RTVSPropertyOp30
 70
     1
102
RTVSPropertyOp31
 70
     1
102
RTVSPropertyOp32
 70
     1
  0
XRECORD
  5
43F0
102
{ACAD_REACTORS
330
43EF
102
}
330
43EF
100
AcDbXrecord
280
     1
102
RTVSPropertyOp0
 70
     0
102
RTVSPropertyOp1
 70
     0
102
RTVSPropertyOp2
 70
     0
102
RTVSPropertyOp3
 70
     0
102
RTVSPropertyOp4
 70
     0
102
RTVSPropertyOp5
 70
     0
102
RTVSPropertyOp6
 70
     0
102
RTVSPropertyOp7
 70
     0
102
RTVSPropertyOp8
 70
     0
102
RTVSPropertyOp9
 70
     0
102
RTVSPropertyOp10
 70
     0
102
RTVSPropertyOp11
 70
     0
102
RTVSPropertyOp12
 70
     0
102
RTVSPropertyOp13
 70
     0
102
RTVSPropertyOp14
 70
     2
102
RTVSPropertyOp15
 70
     0
102
RTVSPropertyOp16
 70
     0
102
RTVSPropertyOp17
 70
     0
102
RTVSPropertyOp18
 70
     0
102
RTVSPropertyOp19
 70
     0
102
RTVSPropertyOp20
 70
     0
102
RTVSPropertyOp21
 70
     0
102
RTVSPropertyOp22
 70
     0
102
RTVSPropertyOp23
 70
     0
102
RTVSPropertyOp24
 70
     0
102
RTVSPropertyOp25
 70
     0
102
RTVSPropertyOp26
 70
     0
102
RTVSPropertyOp27
 70
     0
102
RTVSPropertyOp28
 70
     1
102
RTVSPropertyOp29
 70
     1
102
RTVSPropertyOp30
 70
     1
102
RTVSPropertyOp31
 70
     1
102
RTVSPropertyOp32
 70
     1
  0
XRECORD
  5
43DE
102
{ACAD_REACTORS
330
43DD
102
}
330
43DD
100
AcDbXrecord
280
     1
102
RTVSPropertyOp0
 70
     1
102
RTVSPropertyOp1
 70
     1
102
RTVSPropertyOp2
 70
     1
102
RTVSPropertyOp3
 70
     1
102
RTVSPropertyOp4
 70
     1
102
RTVSPropertyOp5
 70
     1
102
RTVSPropertyOp6
 70
     1
102
RTVSPropertyOp7
 70
     1
102
RTVSPropertyOp8
 70
     1
102
RTVSPropertyOp9
 70
     1
102
RTVSPropertyOp10
 70
     1
102
RTVSPropertyOp11
 70
     1
102
RTVSPropertyOp12
 70
     1
102
RTVSPropertyOp13
 70
     1
102
RTVSPropertyOp14
 70
     1
102
RTVSPropertyOp15
 70
     1
102
RTVSPropertyOp16
 70
     1
102
RTVSPropertyOp17
 70
     1
102
RTVSPropertyOp18
 70
     1
102
RTVSPropertyOp19
 70
     1
102
RTVSPropertyOp20
 70
     1
102
RTVSPropertyOp21
 70
     1
102
RTVSPropertyOp22
 70
     1
102
RTVSPropertyOp23
 70
     1
102
RTVSPropertyOp24
 70
     1
102
RTVSPropertyOp25
 70
     1
102
RTVSPropertyOp26
 70
     1
102
RTVSPropertyOp27
 70
     1
102
RTVSPropertyOp28
 70
     1
102
RTVSPropertyOp29
 70
     1
102
RTVSPropertyOp30
 70
     1
102
RTVSPropertyOp31
 70
     1
102
RTVSPropertyOp32
 70
     1
  0
XRECORD
  5
43C2
102
{ACAD_REACTORS
330
43C1
102
}
330
43C1
100
AcDbXrecord
280
     1
102
RTVSPropertyOp0
 70
     1
102
RTVSPropertyOp1
 70
     1
102
RTVSPropertyOp2
 70
     1
102
RTVSPropertyOp3
 70
     1
102
RTVSPropertyOp4
 70
     1
102
RTVSPropertyOp5
 70
     1
102
RTVSPropertyOp6
 70
     1
102
RTVSPropertyOp7
 70
     1
102
RTVSPropertyOp8
 70
     1
102
RTVSPropertyOp9
 70
     1
102
RTVSPropertyOp10
 70
     1
102
RTVSPropertyOp11
 70
     1
102
RTVSPropertyOp12
 70
     1
102
RTVSPropertyOp13
 70
     1
102
RTVSPropertyOp14
 70
     1
102
RTVSPropertyOp15
 70
     1
102
RTVSPropertyOp16
 70
     1
102
RTVSPropertyOp17
 70
     1
102
RTVSPropertyOp18
 70
     1
102
RTVSPropertyOp19
 70
     1
102
RTVSPropertyOp20
 70
     1
102
RTVSPropertyOp21
 70
     1
102
RTVSPropertyOp22
 70
     1
102
RTVSPropertyOp23
 70
     1
102
RTVSPropertyOp24
 70
     1
102
RTVSPropertyOp25
 70
     1
102
RTVSPropertyOp26
 70
     1
102
RTVSPropertyOp27
 70
     1
102
RTVSPropertyOp28
 70
     1
102
RTVSPropertyOp29
 70
     1
102
RTVSPropertyOp30
 70
     1
102
RTVSPropertyOp31
 70
     1
102
RTVSPropertyOp32
 70
     1
  0
XRECORD
  5
43C4
102
{ACAD_REACTORS
330
43C3
102
}
330
43C3
100
AcDbXrecord
280
     1
102
RTVSPropertyOp0
 70
     1
102
RTVSPropertyOp1
 70
     1
102
RTVSPropertyOp2
 70
     1
102
RTVSPropertyOp3
 70
     1
102
RTVSPropertyOp4
 70
     1
102
RTVSPropertyOp5
 70
     1
102
RTVSPropertyOp6
 70
     1
102
RTVSPropertyOp7
 70
     1
102
RTVSPropertyOp8
 70
     1
102
RTVSPropertyOp9
 70
     1
102
RTVSPropertyOp10
 70
     1
102
RTVSPropertyOp11
 70
     1
102
RTVSPropertyOp12
 70
     1
102
RTVSPropertyOp13
 70
     1
102
RTVSPropertyOp14
 70
     1
102
RTVSPropertyOp15
 70
     1
102
RTVSPropertyOp16
 70
     1
102
RTVSPropertyOp17
 70
     1
102
RTVSPropertyOp18
 70
     1
102
RTVSPropertyOp19
 70
     1
102
RTVSPropertyOp20
 70
     1
102
RTVSPropertyOp21
 70
     1
102
RTVSPropertyOp22
 70
     1
102
RTVSPropertyOp23
 70
     1
102
RTVSPropertyOp24
 70
     1
102
RTVSPropertyOp25
 70
     1
102
RTVSPropertyOp26
 70
     1
102
RTVSPropertyOp27
 70
     1
102
RTVSPropertyOp28
 70
     1
102
RTVSPropertyOp29
 70
     1
102
RTVSPropertyOp30
 70
     1
102
RTVSPropertyOp31
 70
     1
102
RTVSPropertyOp32
 70
     1
  0
XRECORD
  5
43C6
102
{ACAD_REACTORS
330
43C5
102
}
330
43C5
100
AcDbXrecord
280
     1
102
RTVSPropertyOp0
 70
     1
102
RTVSPropertyOp1
 70
     1
102
RTVSPropertyOp2
 70
     1
102
RTVSPropertyOp3
 70
     1
102
RTVSPropertyOp4
 70
     1
102
RTVSPropertyOp5
 70
     1
102
RTVSPropertyOp6
 70
     1
102
RTVSPropertyOp7
 70
     1
102
RTVSPropertyOp8
 70
     1
102
RTVSPropertyOp9
 70
     1
102
RTVSPropertyOp10
 70
     1
102
RTVSPropertyOp11
 70
     1
102
RTVSPropertyOp12
 70
     1
102
RTVSPropertyOp13
 70
     1
102
RTVSPropertyOp14
 70
     1
102
RTVSPropertyOp15
 70
     1
102
RTVSPropertyOp16
 70
     1
102
RTVSPropertyOp17
 70
     1
102
RTVSPropertyOp18
 70
     1
102
RTVSPropertyOp19
 70
     1
102
RTVSPropertyOp20
 70
     1
102
RTVSPropertyOp21
 70
     1
102
RTVSPropertyOp22
 70
     1
102
RTVSPropertyOp23
 70
     1
102
RTVSPropertyOp24
 70
     1
102
RTVSPropertyOp25
 70
     1
102
RTVSPropertyOp26
 70
     1
102
RTVSPropertyOp27
 70
     1
102
RTVSPropertyOp28
 70
     1
102
RTVSPropertyOp29
 70
     1
102
RTVSPropertyOp30
 70
     1
102
RTVSPropertyOp31
 70
     1
102
RTVSPropertyOp32
 70
     1
  0
XRECORD
  5
43C8
102
{ACAD_REACTORS
330
43C7
102
}
330
43C7
100
AcDbXrecord
280
     1
102
RTVSPropertyOp0
 70
     1
102
RTVSPropertyOp1
 70
     1
102
RTVSPropertyOp2
 70
     1
102
RTVSPropertyOp3
 70
     1
102
RTVSPropertyOp4
 70
     1
102
RTVSPropertyOp5
 70
     1
102
RTVSPropertyOp6
 70
     1
102
RTVSPropertyOp7
 70
     1
102
RTVSPropertyOp8
 70
     1
102
RTVSPropertyOp9
 70
     1
102
RTVSPropertyOp10
 70
     1
102
RTVSPropertyOp11
 70
     1
102
RTVSPropertyOp12
 70
     1
102
RTVSPropertyOp13
 70
     1
102
RTVSPropertyOp14
 70
     1
102
RTVSPropertyOp15
 70
     1
102
RTVSPropertyOp16
 70
     1
102
RTVSPropertyOp17
 70
     1
102
RTVSPropertyOp18
 70
     1
102
RTVSPropertyOp19
 70
     1
102
RTVSPropertyOp20
 70
     1
102
RTVSPropertyOp21
 70
     1
102
RTVSPropertyOp22
 70
     1
102
RTVSPropertyOp23
 70
     1
102
RTVSPropertyOp24
 70
     1
102
RTVSPropertyOp25
 70
     1
102
RTVSPropertyOp26
 70
     1
102
RTVSPropertyOp27
 70
     1
102
RTVSPropertyOp28
 70
     1
102
RTVSPropertyOp29
 70
     1
102
RTVSPropertyOp30
 70
     1
102
RTVSPropertyOp31
 70
     1
102
RTVSPropertyOp32
 70
     1
  0
XRECORD
  5
43D0
102
{ACAD_REACTORS
330
43CF
102
}
330
43CF
100
AcDbXrecord
280
     1
102
RTVSPropertyOp0
 70
     1
102
RTVSPropertyOp1
 70
     1
102
RTVSPropertyOp2
 70
     1
102
RTVSPropertyOp3
 70
     1
102
RTVSPropertyOp4
 70
     1
102
RTVSPropertyOp5
 70
     1
102
RTVSPropertyOp6
 70
     1
102
RTVSPropertyOp7
 70
     1
102
RTVSPropertyOp8
 70
     1
102
RTVSPropertyOp9
 70
     1
102
RTVSPropertyOp10
 70
     1
102
RTVSPropertyOp11
 70
     1
102
RTVSPropertyOp12
 70
     1
102
RTVSPropertyOp13
 70
     1
102
RTVSPropertyOp14
 70
     1
102
RTVSPropertyOp15
 70
     1
102
RTVSPropertyOp16
 70
     1
102
RTVSPropertyOp17
 70
     1
102
RTVSPropertyOp18
 70
     1
102
RTVSPropertyOp19
 70
     1
102
RTVSPropertyOp20
 70
     1
102
RTVSPropertyOp21
 70
     1
102
RTVSPropertyOp22
 70
     1
102
RTVSPropertyOp23
 70
     1
102
RTVSPropertyOp24
 70
     1
102
RTVSPropertyOp25
 70
     1
102
RTVSPropertyOp26
 70
     1
102
RTVSPropertyOp27
 70
     1
102
RTVSPropertyOp28
 70
     1
102
RTVSPropertyOp29
 70
     1
102
RTVSPropertyOp30
 70
     1
102
RTVSPropertyOp31
 70
     1
102
RTVSPropertyOp32
 70
     1
  0
XRECORD
  5
43EC
102
{ACAD_REACTORS
330
43EB
102
}
330
43EB
100
AcDbXrecord
280
     1
102
RTVSPropertyOp0
 70
     0
102
RTVSPropertyOp1
 70
     0
102
RTVSPropertyOp2
 70
     0
102
RTVSPropertyOp3
 70
     0
102
RTVSPropertyOp4
 70
     0
102
RTVSPropertyOp5
 70
     0
102
RTVSPropertyOp6
 70
     0
102
RTVSPropertyOp7
 70
     0
102
RTVSPropertyOp8
 70
     0
102
RTVSPropertyOp9
 70
     0
102
RTVSPropertyOp10
 70
     0
102
RTVSPropertyOp11
 70
     0
102
RTVSPropertyOp12
 70
     0
102
RTVSPropertyOp13
 70
     0
102
RTVSPropertyOp14
 70
     2
102
RTVSPropertyOp15
 70
     0
102
RTVSPropertyOp16
 70
     0
102
RTVSPropertyOp17
 70
     0
102
RTVSPropertyOp18
 70
     0
102
RTVSPropertyOp19
 70
     0
102
RTVSPropertyOp20
 70
     0
102
RTVSPropertyOp21
 70
     0
102
RTVSPropertyOp22
 70
     0
102
RTVSPropertyOp23
 70
     0
102
RTVSPropertyOp24
 70
     0
102
RTVSPropertyOp25
 70
     0
102
RTVSPropertyOp26
 70
     0
102
RTVSPropertyOp27
 70
     0
102
RTVSPropertyOp28
 70
     1
102
RTVSPropertyOp29
 70
     1
102
RTVSPropertyOp30
 70
     1
102
RTVSPropertyOp31
 70
     1
102
RTVSPropertyOp32
 70
     1
  0
XRECORD
  5
43DC
102
{ACAD_REACTORS
330
43DB
102
}
330
43DB
100
AcDbXrecord
280
     1
102
RTVSPropertyOp0
 70
     1
102
RTVSPropertyOp1
 70
     1
102
RTVSPropertyOp2
 70
     1
102
RTVSPropertyOp3
 70
     1
102
RTVSPropertyOp4
 70
     1
102
RTVSPropertyOp5
 70
     1
102
RTVSPropertyOp6
 70
     1
102
RTVSPropertyOp7
 70
     1
102
RTVSPropertyOp8
 70
     1
102
RTVSPropertyOp9
 70
     1
102
RTVSPropertyOp10
 70
     1
102
RTVSPropertyOp11
 70
     1
102
RTVSPropertyOp12
 70
     1
102
RTVSPropertyOp13
 70
     1
102
RTVSPropertyOp14
 70
     1
102
RTVSPropertyOp15
 70
     1
102
RTVSPropertyOp16
 70
     1
102
RTVSPropertyOp17
 70
     1
102
RTVSPropertyOp18
 70
     1
102
RTVSPropertyOp19
 70
     1
102
RTVSPropertyOp20
 70
     1
102
RTVSPropertyOp21
 70
     1
102
RTVSPropertyOp22
 70
     1
102
RTVSPropertyOp23
 70
     1
102
RTVSPropertyOp24
 70
     1
102
RTVSPropertyOp25
 70
     1
102
RTVSPropertyOp26
 70
     1
102
RTVSPropertyOp27
 70
     1
102
RTVSPropertyOp28
 70
     1
102
RTVSPropertyOp29
 70
     1
102
RTVSPropertyOp30
 70
     1
102
RTVSPropertyOp31
 70
     1
102
RTVSPropertyOp32
 70
     1
  0
XRECORD
  5
43EE
102
{ACAD_REACTORS
330
43ED
102
}
330
43ED
100
AcDbXrecord
280
     1
102
RTVSPropertyOp0
 70
     0
102
RTVSPropertyOp1
 70
     0
102
RTVSPropertyOp2
 70
     0
102
RTVSPropertyOp3
 70
     0
102
RTVSPropertyOp4
 70
     0
102
RTVSPropertyOp5
 70
     0
102
RTVSPropertyOp6
 70
     0
102
RTVSPropertyOp7
 70
     0
102
RTVSPropertyOp8
 70
     0
102
RTVSPropertyOp9
 70
     0
102
RTVSPropertyOp10
 70
     0
102
RTVSPropertyOp11
 70
     0
102
RTVSPropertyOp12
 70
     0
102
RTVSPropertyOp13
 70
     0
102
RTVSPropertyOp14
 70
     2
102
RTVSPropertyOp15
 70
     0
102
RTVSPropertyOp16
 70
     0
102
RTVSPropertyOp17
 70
     0
102
RTVSPropertyOp18
 70
     0
102
RTVSPropertyOp19
 70
     0
102
RTVSPropertyOp20
 70
     0
102
RTVSPropertyOp21
 70
     0
102
RTVSPropertyOp22
 70
     0
102
RTVSPropertyOp23
 70
     0
102
RTVSPropertyOp24
 70
     0
102
RTVSPropertyOp25
 70
     0
102
RTVSPropertyOp26
 70
     0
102
RTVSPropertyOp27
 70
     0
102
RTVSPropertyOp28
 70
     1
102
RTVSPropertyOp29
 70
     1
102
RTVSPropertyOp30
 70
     1
102
RTVSPropertyOp31
 70
     1
102
RTVSPropertyOp32
 70
     1
  0
XRECORD
  5
43D4
102
{ACAD_REACTORS
330
43D3
102
}
330
43D3
100
AcDbXrecord
280
     1
102
RTVSPropertyOp0
 70
     1
102
RTVSPropertyOp1
 70
     1
102
RTVSPropertyOp2
 70
     1
102
RTVSPropertyOp3
 70
     1
102
RTVSPropertyOp4
 70
     1
102
RTVSPropertyOp5
 70
     1
102
RTVSPropertyOp6
 70
     1
102
RTVSPropertyOp7
 70
     1
102
RTVSPropertyOp8
 70
     1
102
RTVSPropertyOp9
 70
     1
102
RTVSPropertyOp10
 70
     1
102
RTVSPropertyOp11
 70
     1
102
RTVSPropertyOp12
 70
     1
102
RTVSPropertyOp13
 70
     1
102
RTVSPropertyOp14
 70
     1
102
RTVSPropertyOp15
 70
     1
102
RTVSPropertyOp16
 70
     1
102
RTVSPropertyOp17
 70
     1
102
RTVSPropertyOp18
 70
     1
102
RTVSPropertyOp19
 70
     1
102
RTVSPropertyOp20
 70
     1
102
RTVSPropertyOp21
 70
     1
102
RTVSPropertyOp22
 70
     1
102
RTVSPropertyOp23
 70
     1
102
RTVSPropertyOp24
 70
     1
102
RTVSPropertyOp25
 70
     1
102
RTVSPropertyOp26
 70
     1
102
RTVSPropertyOp27
 70
     1
102
RTVSPropertyOp28
 70
     1
102
RTVSPropertyOp29
 70
     1
102
RTVSPropertyOp30
 70
     1
102
RTVSPropertyOp31
 70
     1
102
RTVSPropertyOp32
 70
     1
  0
XRECORD
  5
43EA
102
{ACAD_REACTORS
330
43E9
102
}
330
43E9
100
AcDbXrecord
280
     1
102
RTVSPropertyOp0
 70
     1
102
RTVSPropertyOp1
 70
     1
102
RTVSPropertyOp2
 70
     1
102
RTVSPropertyOp3
 70
     1
102
RTVSPropertyOp4
 70
     1
102
RTVSPropertyOp5
 70
     1
102
RTVSPropertyOp6
 70
     1
102
RTVSPropertyOp7
 70
     1
102
RTVSPropertyOp8
 70
     1
102
RTVSPropertyOp9
 70
     1
102
RTVSPropertyOp10
 70
     1
102
RTVSPropertyOp11
 70
     1
102
RTVSPropertyOp12
 70
     1
102
RTVSPropertyOp13
 70
     1
102
RTVSPropertyOp14
 70
     1
102
RTVSPropertyOp15
 70
     1
102
RTVSPropertyOp16
 70
     1
102
RTVSPropertyOp17
 70
     1
102
RTVSPropertyOp18
 70
     1
102
RTVSPropertyOp19
 70
     1
102
RTVSPropertyOp20
 70
     1
102
RTVSPropertyOp21
 70
     1
102
RTVSPropertyOp22
 70
     1
102
RTVSPropertyOp23
 70
     1
102
RTVSPropertyOp24
 70
     1
102
RTVSPropertyOp25
 70
     1
102
RTVSPropertyOp26
 70
     1
102
RTVSPropertyOp27
 70
     1
102
RTVSPropertyOp28
 70
     1
102
RTVSPropertyOp29
 70
     1
102
RTVSPropertyOp30
 70
     1
102
RTVSPropertyOp31
 70
     1
102
RTVSPropertyOp32
 70
     1
  0
XRECORD
  5
43E8
102
{ACAD_REACTORS
330
43E7
102
}
330
43E7
100
AcDbXrecord
280
     1
102
RTVSPropertyOp0
 70
     1
102
RTVSPropertyOp1
 70
     1
102
RTVSPropertyOp2
 70
     1
102
RTVSPropertyOp3
 70
     1
102
RTVSPropertyOp4
 70
     1
102
RTVSPropertyOp5
 70
     1
102
RTVSPropertyOp6
 70
     1
102
RTVSPropertyOp7
 70
     1
102
RTVSPropertyOp8
 70
     1
102
RTVSPropertyOp9
 70
     1
102
RTVSPropertyOp10
 70
     1
102
RTVSPropertyOp11
 70
     1
102
RTVSPropertyOp12
 70
     1
102
RTVSPropertyOp13
 70
     1
102
RTVSPropertyOp14
 70
     1
102
RTVSPropertyOp15
 70
     1
102
RTVSPropertyOp16
 70
     1
102
RTVSPropertyOp17
 70
     1
102
RTVSPropertyOp18
 70
     1
102
RTVSPropertyOp19
 70
     1
102
RTVSPropertyOp20
 70
     1
102
RTVSPropertyOp21
 70
     1
102
RTVSPropertyOp22
 70
     1
102
RTVSPropertyOp23
 70
     1
102
RTVSPropertyOp24
 70
     1
102
RTVSPropertyOp25
 70
     1
102
RTVSPropertyOp26
 70
     1
102
RTVSPropertyOp27
 70
     1
102
RTVSPropertyOp28
 70
     1
102
RTVSPropertyOp29
 70
     1
102
RTVSPropertyOp30
 70
     1
102
RTVSPropertyOp31
 70
     1
102
RTVSPropertyOp32
 70
     1
  0
XRECORD
  5
43E2
102
{ACAD_REACTORS
330
43E1
102
}
330
43E1
100
AcDbXrecord
280
     1
102
RTVSPropertyOp0
 70
     1
102
RTVSPropertyOp1
 70
     1
102
RTVSPropertyOp2
 70
     1
102
RTVSPropertyOp3
 70
     1
102
RTVSPropertyOp4
 70
     1
102
RTVSPropertyOp5
 70
     1
102
RTVSPropertyOp6
 70
     1
102
RTVSPropertyOp7
 70
     1
102
RTVSPropertyOp8
 70
     1
102
RTVSPropertyOp9
 70
     1
102
RTVSPropertyOp10
 70
     1
102
RTVSPropertyOp11
 70
     1
102
RTVSPropertyOp12
 70
     1
102
RTVSPropertyOp13
 70
     1
102
RTVSPropertyOp14
 70
     1
102
RTVSPropertyOp15
 70
     1
102
RTVSPropertyOp16
 70
     1
102
RTVSPropertyOp17
 70
     1
102
RTVSPropertyOp18
 70
     1
102
RTVSPropertyOp19
 70
     1
102
RTVSPropertyOp20
 70
     1
102
RTVSPropertyOp21
 70
     1
102
RTVSPropertyOp22
 70
     1
102
RTVSPropertyOp23
 70
     1
102
RTVSPropertyOp24
 70
     1
102
RTVSPropertyOp25
 70
     1
102
RTVSPropertyOp26
 70
     1
102
RTVSPropertyOp27
 70
     1
102
RTVSPropertyOp28
 70
     1
102
RTVSPropertyOp29
 70
     1
102
RTVSPropertyOp30
 70
     1
102
RTVSPropertyOp31
 70
     1
102
RTVSPropertyOp32
 70
     1
  0
XRECORD
  5
43E4
102
{ACAD_REACTORS
330
43E3
102
}
330
43E3
100
AcDbXrecord
280
     1
102
RTVSPropertyOp0
 70
     1
102
RTVSPropertyOp1
 70
     1
102
RTVSPropertyOp2
 70
     1
102
RTVSPropertyOp3
 70
     1
102
RTVSPropertyOp4
 70
     1
102
RTVSPropertyOp5
 70
     1
102
RTVSPropertyOp6
 70
     1
102
RTVSPropertyOp7
 70
     1
102
RTVSPropertyOp8
 70
     1
102
RTVSPropertyOp9
 70
     1
102
RTVSPropertyOp10
 70
     1
102
RTVSPropertyOp11
 70
     1
102
RTVSPropertyOp12
 70
     1
102
RTVSPropertyOp13
 70
     1
102
RTVSPropertyOp14
 70
     1
102
RTVSPropertyOp15
 70
     1
102
RTVSPropertyOp16
 70
     1
102
RTVSPropertyOp17
 70
     1
102
RTVSPropertyOp18
 70
     1
102
RTVSPropertyOp19
 70
     1
102
RTVSPropertyOp20
 70
     1
102
RTVSPropertyOp21
 70
     1
102
RTVSPropertyOp22
 70
     1
102
RTVSPropertyOp23
 70
     1
102
RTVSPropertyOp24
 70
     1
102
RTVSPropertyOp25
 70
     1
102
RTVSPropertyOp26
 70
     1
102
RTVSPropertyOp27
 70
     1
102
RTVSPropertyOp28
 70
     1
102
RTVSPropertyOp29
 70
     1
102
RTVSPropertyOp30
 70
     1
102
RTVSPropertyOp31
 70
     1
102
RTVSPropertyOp32
 70
     1
  0
XRECORD
  5
43DA
102
{ACAD_REACTORS
330
43D9
102
}
330
43D9
100
AcDbXrecord
280
     1
102
RTVSPropertyOp0
 70
     1
102
RTVSPropertyOp1
 70
     1
102
RTVSPropertyOp2
 70
     1
102
RTVSPropertyOp3
 70
     1
102
RTVSPropertyOp4
 70
     1
102
RTVSPropertyOp5
 70
     1
102
RTVSPropertyOp6
 70
     1
102
RTVSPropertyOp7
 70
     1
102
RTVSPropertyOp8
 70
     1
102
RTVSPropertyOp9
 70
     1
102
RTVSPropertyOp10
 70
     1
102
RTVSPropertyOp11
 70
     1
102
RTVSPropertyOp12
 70
     1
102
RTVSPropertyOp13
 70
     1
102
RTVSPropertyOp14
 70
     1
102
RTVSPropertyOp15
 70
     1
102
RTVSPropertyOp16
 70
     1
102
RTVSPropertyOp17
 70
     1
102
RTVSPropertyOp18
 70
     1
102
RTVSPropertyOp19
 70
     1
102
RTVSPropertyOp20
 70
     1
102
RTVSPropertyOp21
 70
     1
102
RTVSPropertyOp22
 70
     1
102
RTVSPropertyOp23
 70
     1
102
RTVSPropertyOp24
 70
     1
102
RTVSPropertyOp25
 70
     1
102
RTVSPropertyOp26
 70
     1
102
RTVSPropertyOp27
 70
     1
102
RTVSPropertyOp28
 70
     1
102
RTVSPropertyOp29
 70
     1
102
RTVSPropertyOp30
 70
     1
102
RTVSPropertyOp31
 70
     1
102
RTVSPropertyOp32
 70
     1
  0
XRECORD
  5
43CE
102
{ACAD_REACTORS
330
43CD
102
}
330
43CD
100
AcDbXrecord
280
     1
102
RTVSPropertyOp0
 70
     1
102
RTVSPropertyOp1
 70
     1
102
RTVSPropertyOp2
 70
     1
102
RTVSPropertyOp3
 70
     1
102
RTVSPropertyOp4
 70
     1
102
RTVSPropertyOp5
 70
     1
102
RTVSPropertyOp6
 70
     1
102
RTVSPropertyOp7
 70
     1
102
RTVSPropertyOp8
 70
     1
102
RTVSPropertyOp9
 70
     1
102
RTVSPropertyOp10
 70
     1
102
RTVSPropertyOp11
 70
     1
102
RTVSPropertyOp12
 70
     1
102
RTVSPropertyOp13
 70
     1
102
RTVSPropertyOp14
 70
     1
102
RTVSPropertyOp15
 70
     1
102
RTVSPropertyOp16
 70
     1
102
RTVSPropertyOp17
 70
     1
102
RTVSPropertyOp18
 70
     1
102
RTVSPropertyOp19
 70
     1
102
RTVSPropertyOp20
 70
     1
102
RTVSPropertyOp21
 70
     1
102
RTVSPropertyOp22
 70
     1
102
RTVSPropertyOp23
 70
     1
102
RTVSPropertyOp24
 70
     1
102
RTVSPropertyOp25
 70
     1
102
RTVSPropertyOp26
 70
     1
102
RTVSPropertyOp27
 70
     1
102
RTVSPropertyOp28
 70
     1
102
RTVSPropertyOp29
 70
     1
102
RTVSPropertyOp30
 70
     1
102
RTVSPropertyOp31
 70
     1
102
RTVSPropertyOp32
 70
     1
  0
XRECORD
  5
43E6
102
{ACAD_REACTORS
330
43E5
102
}
330
43E5
100
AcDbXrecord
280
     1
102
RTVSPropertyOp0
 70
     1
102
RTVSPropertyOp1
 70
     1
102
RTVSPropertyOp2
 70
     1
102
RTVSPropertyOp3
 70
     1
102
RTVSPropertyOp4
 70
     1
102
RTVSPropertyOp5
 70
     1
102
RTVSPropertyOp6
 70
     1
102
RTVSPropertyOp7
 70
     1
102
RTVSPropertyOp8
 70
     1
102
RTVSPropertyOp9
 70
     1
102
RTVSPropertyOp10
 70
     1
102
RTVSPropertyOp11
 70
     1
102
RTVSPropertyOp12
 70
     1
102
RTVSPropertyOp13
 70
     1
102
RTVSPropertyOp14
 70
     1
102
RTVSPropertyOp15
 70
     1
102
RTVSPropertyOp16
 70
     1
102
RTVSPropertyOp17
 70
     1
102
RTVSPropertyOp18
 70
     1
102
RTVSPropertyOp19
 70
     1
102
RTVSPropertyOp20
 70
     1
102
RTVSPropertyOp21
 70
     1
102
RTVSPropertyOp22
 70
     1
102
RTVSPropertyOp23
 70
     1
102
RTVSPropertyOp24
 70
     1
102
RTVSPropertyOp25
 70
     1
102
RTVSPropertyOp26
 70
     1
102
RTVSPropertyOp27
 70
     1
102
RTVSPropertyOp28
 70
     1
102
RTVSPropertyOp29
 70
     1
102
RTVSPropertyOp30
 70
     1
102
RTVSPropertyOp31
 70
     1
102
RTVSPropertyOp32
 70
     1
  0
ENDSEC
  0
EOF
