  0
SECTION
  2
HEADER
  9
$ACADVER
  1
AC1012
  9
$DWGCODEPAGE
  3
dos932
  9
$INSBASE
 10
0.0
 20
0.0
 30
0.0
  9
$EXTMIN
 10
-0.05126640194635
 20
-0.0362528016673878
 30
-0.0000000349181948
  9
$EXTMAX
 10
797.6628945888771
 20
551.6439420123595
 30
0.0000000814935746
  9
$LIMMIN
 10
0.0
 20
0.0
  9
$LIMMAX
 10
840.0
 20
594.0
  9
$ORTHOMODE
 70
     1
  9
$REGENMODE
 70
     1
  9
$FILLMODE
 70
     1
  9
$QTEXTMODE
 70
     0
  9
$MIRRTEXT
 70
     1
  9
$DRAGMODE
 70
     2
  9
$LTSCALE
 40
1.0
  9
$OSMODE
 70
    63
  9
$ATTMODE
 70
     1
  9
$TEXTSIZE
 40
5.0
  9
$TRACEWID
 40
1.0
  9
$TEXTSTYLE
  7
STANDARD
  9
$CLAYER
  8
0
  9
$CELTYPE
  6
BYLAYER
  9
$CECOLOR
 62
   256
  9
$CELTSCALE
 40
1.0
  9
$DELOBJ
 70
     1
  9
$DISPSILH
 70
     0
  9
$DIMSCALE
 40
1.0
  9
$DIMASZ
 40
7.0
  9
$DIMEXO
 40
6.0
  9
$DIMDLI
 40
14.0
  9
$DIMRND
 40
0.0
  9
$DIMDLE
 40
0.0
  9
$DIMEXE
 40
3.0
  9
$DIMTP
 40
0.0
  9
$DIMTM
 40
0.0
  9
$DIMTXT
 40
6.0
  9
$DIMCEN
 40
150.0
  9
$DIMTSZ
 40
0.0
  9
$DIMTOL
 70
     0
  9
$DIMLIM
 70
     0
  9
$DIMTIH
 70
     0
  9
$DIMTOH
 70
     0
  9
$DIMSE1
 70
     0
  9
$DIMSE2
 70
     0
  9
$DIMTAD
 70
     3
  9
$DIMZIN
 70
     0
  9
$DIMBLK
  1

  9
$DIMASO
 70
     1
  9
$DIMSHO
 70
     1
  9
$DIMPOST
  1

  9
$DIMAPOST
  1

  9
$DIMALT
 70
     0
  9
$DIMALTD
 70
     2
  9
$DIMALTF
 40
25.4
  9
$DIMLFAC
 40
1.0
  9
$DIMTOFL
 70
     1
  9
$DIMTVP
 40
0.0
  9
$DIMTIX
 70
     0
  9
$DIMSOXD
 70
     0
  9
$DIMSAH
 70
     1
  9
$DIMBLK1
  1
OPEN
  9
$DIMBLK2
  1
OPEN
  9
$DIMSTYLE
  2
STANDARD
  9
$DIMCLRD
 70
   256
  9
$DIMCLRE
 70
   256
  9
$DIMCLRT
 70
   256
  9
$DIMTFAC
 40
1.0
  9
$DIMGAP
 40
2.0
  9
$DIMJUST
 70
     0
  9
$DIMSD1
 70
     0
  9
$DIMSD2
 70
     0
  9
$DIMTOLJ
 70
     1
  9
$DIMTZIN
 70
     0
  9
$DIMALTZ
 70
     0
  9
$DIMALTTZ
 70
     0
  9
$DIMFIT
 70
     3
  9
$DIMUPT
 70
     0
  9
$DIMUNIT
 70
     2
  9
$DIMDEC
 70
     0
  9
$DIMTDEC
 70
     0
  9
$DIMALTU
 70
     2
  9
$DIMALTTD
 70
     2
  9
$DIMTXSTY
  7
STANDARD
  9
$DIMAUNIT
 70
     0
  9
$LUNITS
 70
     2
  9
$LUPREC
 70
     4
  9
$SKETCHINC
 40
1.0
  9
$FILLETRAD
 40
0.5
  9
$AUNITS
 70
     0
  9
$AUPREC
 70
     0
  9
$MENU
  1
.
  9
$ELEVATION
 40
0.0
  9
$PELEVATION
 40
0.0
  9
$THICKNESS
 40
0.0
  9
$LIMCHECK
 70
     0
  9
$BLIPMODE
 70
     0
  9
$CHAMFERA
 40
20.0
  9
$CHAMFERB
 40
20.0
  9
$CHAMFERC
 40
40.0
  9
$CHAMFERD
 40
0.0
  9
$SKPOLY
 70
     0
  9
$TDCREATE
 40
2451212.659369560
  9
$TDUPDATE
 40
2455894.589585451
  9
$TDINDWG
 40
0.0948578241
  9
$TDUSRTIMER
 40
0.0948578241
  9
$USRTIMER
 70
     1
  9
$ANGBASE
 50
0.0
  9
$ANGDIR
 70
     0
  9
$PDMODE
 70
     0
  9
$PDSIZE
 40
0.0
  9
$PLINEWID
 40
0.0
  9
$COORDS
 70
     0
  9
$SPLFRAME
 70
     0
  9
$SPLINETYPE
 70
     6
  9
$SPLINESEGS
 70
     8
  9
$ATTDIA
 70
     0
  9
$ATTREQ
 70
     1
  9
$HANDLING
 70
 10241
  9
$HANDSEED
  5
19A1
  9
$SURFTAB1
 70
     6
  9
$SURFTAB2
 70
     6
  9
$SURFTYPE
 70
     6
  9
$SURFU
 70
     6
  9
$SURFV
 70
     6
  9
$UCSNAME
  2

  9
$UCSORG
 10
0.0
 20
0.0
 30
0.0
  9
$UCSXDIR
 10
1.0
 20
0.0
 30
0.0
  9
$UCSYDIR
 10
0.0
 20
1.0
 30
0.0
  9
$PUCSNAME
  2

  9
$PUCSORG
 10
0.0
 20
0.0
 30
0.0
  9
$PUCSXDIR
 10
1.0
 20
0.0
 30
0.0
  9
$PUCSYDIR
 10
0.0
 20
1.0
 30
0.0
  9
$USERI1
 70
     0
  9
$USERI2
 70
     0
  9
$USERI3
 70
     0
  9
$USERI4
 70
     0
  9
$USERI5
 70
     0
  9
$USERR1
 40
0.0
  9
$USERR2
 40
0.0
  9
$USERR3
 40
0.0
  9
$USERR4
 40
0.0
  9
$USERR5
 40
0.0
  9
$WORLDVIEW
 70
     1
  9
$SHADEDGE
 70
     3
  9
$SHADEDIF
 70
    70
  9
$TILEMODE
 70
     1
  9
$MAXACTVP
 70
    16
  9
$PINSBASE
 10
0.0
 20
0.0
 30
0.0
  9
$PLIMCHECK
 70
     0
  9
$PEXTMIN
 10
0.0
 20
0.0
 30
0.0
  9
$PEXTMAX
 10
420.0
 20
297.0
 30
0.0
  9
$PLIMMIN
 10
0.0
 20
0.0
  9
$PLIMMAX
 10
420.0
 20
297.0
  9
$UNITMODE
 70
     0
  9
$VISRETAIN
 70
     0
  9
$PLINEGEN
 70
     0
  9
$PSLTSCALE
 70
     1
  9
$TREEDEPTH
 70
  3020
  9
$PICKSTYLE
 70
     1
  9
$CMLSTYLE
  2
STANDARD
  9
$CMLJUST
 70
     0
  9
$CMLSCALE
 40
1.0
  9
$SAVEIMAGES
 70
     1
  0
ENDSEC
  0
SECTION
  2
CLASSES
  0
CLASS
  1
ACDBDICTIONARYWDFLT
  2
AcDbDictionaryWithDefault
  3
AutoCAD 2000
 90
    32768
280
     0
281
     0
  0
CLASS
  1
ACDBPLACEHOLDER
  2
AcDbPlaceHolder
  3
AutoCAD 2000
 90
    32768
280
     0
281
     0
  0
CLASS
  1
LAYOUT
  2
AcDbLayout
  3
AutoCAD 2000
 90
    32768
280
     0
281
     0
  0
CLASS
  1
LONG_TRANSACTION
  2
AcDbLongTransaction
  3
AutoCAD 2000
 90
    32768
280
     0
281
     0
  0
CLASS
  1
LWPOLYLINE
  2
AcDbPolyline
  3
AutoCAD 2000
 90
    32768
280
     0
281
     1
  0
CLASS
  1
HATCH
  2
AcDbHatch
  3
AutoCAD 2000
 90
    32768
280
     0
281
     1
  0
CLASS
  1
XRECORD
  2
AcDbXrecord
  3
AutoCAD 2000
 90
    32768
280
     0
281
     0
  0
CLASS
  1
LONG_TRANSACTION
  2
AcDbLongTransaction
  3
AutoCAD 2000
 90
    32768
280
     0
281
     0
  0
CLASS
  1
LWPOLYLINE
  2
AcDbPolyline
  3
AutoCAD 2000
 90
    32768
280
     0
281
     1
  0
CLASS
  1
HATCH
  2
AcDbHatch
  3
AutoCAD 2000
 90
    32768
280
     0
281
     1
  0
CLASS
  1
XRECORD
  2
AcDbXrecord
  3
AutoCAD 2000
 90
    32768
280
     0
281
     0
  0
CLASS
  1
LONG_TRANSACTION
  2
AcDbLongTransaction
  3
AutoCAD 2000
 90
    32768
280
     0
281
     0
  0
CLASS
  1
LWPOLYLINE
  2
AcDbPolyline
  3
AutoCAD 2000
 90
    32768
280
     0
281
     1
  0
CLASS
  1
HATCH
  2
AcDbHatch
  3
AutoCAD 2000
 90
    32768
280
     0
281
     1
  0
CLASS
  1
XRECORD
  2
AcDbXrecord
  3
AutoCAD 2000
 90
    32768
280
     0
281
     0
  0
CLASS
  1
DICTIONARYVAR
  2
AcDbDictionaryVar
  3
AutoCAD 2000
 90
    32768
280
     0
281
     0
  0
CLASS
  1
LONG_TRANSACTION
  2
AcDbLongTransaction
  3
AutoCAD 2000
 90
    32768
280
     0
281
     0
  0
CLASS
  1
LWPOLYLINE
  2
AcDbPolyline
  3
AutoCAD 2000
 90
    32768
280
     0
281
     1
  0
CLASS
  1
HATCH
  2
AcDbHatch
  3
AutoCAD 2000
 90
    32768
280
     0
281
     1
  0
CLASS
  1
XRECORD
  2
AcDbXrecord
  3
AutoCAD 2000
 90
    32768
280
     0
281
     0
  0
CLASS
  1
LONG_TRANSACTION
  2
AcDbLongTransaction
  3
AutoCAD 2000
 90
    32768
280
     0
281
     0
  0
CLASS
  1
LWPOLYLINE
  2
AcDbPolyline
  3
AutoCAD 2000
 90
    32768
280
     0
281
     1
  0
CLASS
  1
HATCH
  2
AcDbHatch
  3
AutoCAD 2000
 90
    32768
280
     0
281
     1
  0
CLASS
  1
XRECORD
  2
AcDbXrecord
  3
AutoCAD 2000
 90
    32768
280
     0
281
     0
  0
CLASS
  1
LONG_TRANSACTION
  2
AcDbLongTransaction
  3
AutoCAD 2000
 90
    32768
280
     0
281
     0
  0
CLASS
  1
LWPOLYLINE
  2
AcDbPolyline
  3
AutoCAD 2000
 90
    32768
280
     0
281
     1
  0
CLASS
  1
HATCH
  2
AcDbHatch
  3
AutoCAD 2000
 90
    32768
280
     0
281
     1
  0
CLASS
  1
XRECORD
  2
AcDbXrecord
  3
AutoCAD 2000
 90
    32768
280
     0
281
     0
  0
CLASS
  1
LONG_TRANSACTION
  2
AcDbLongTransaction
  3
AutoCAD 2000
 90
    32768
280
     0
281
     0
  0
CLASS
  1
LWPOLYLINE
  2
AcDbPolyline
  3
AutoCAD 2000
 90
    32768
280
     0
281
     1
  0
CLASS
  1
HATCH
  2
AcDbHatch
  3
AutoCAD 2000
 90
    32768
280
     0
281
     1
  0
CLASS
  1
XRECORD
  2
AcDbXrecord
  3
AutoCAD 2000
 90
    32768
280
     0
281
     0
  0
CLASS
  1
LONG_TRANSACTION
  2
AcDbLongTransaction
  3
AutoCAD 2000
 90
    32768
280
     0
281
     0
  0
CLASS
  1
LWPOLYLINE
  2
AcDbPolyline
  3
AutoCAD 2000
 90
    32768
280
     0
281
     1
  0
CLASS
  1
HATCH
  2
AcDbHatch
  3
AutoCAD 2000
 90
    32768
280
     0
281
     1
  0
CLASS
  1
XRECORD
  2
AcDbXrecord
  3
AutoCAD 2000
 90
    32768
280
     0
281
     0
  0
ENDSEC
  0
SECTION
  2
TABLES
  0
TABLE
  2
VPORT
  5
8
330
0
100
AcDbSymbolTable
 70
     6
  0
VPORT
  5
196B
330
8
100
AcDbSymbolTableRecord
100
AcDbViewportTableRecord
  2
*ACTIVE
 70
     0
 10
0.0
 20
0.0
 11
1.0
 21
1.0
 12
419.9743667990268
 22
296.9818735991663
 13
0.0
 23
0.0
 14
5.0
 24
5.0
 15
0.0
 25
0.0
 16
0.0
 26
0.0
 36
1.0
 17
0.0
 27
0.0
 37
0.0
 40
598.5766572816801
 41
1.535714285714285
 42
50.0
 43
0.0
 44
0.0
 50
0.0
 51
0.0
 71
     0
 72
   100
 73
     1
 74
     0
 75
     0
 76
     0
 77
     0
 78
     0
  0
ENDTAB
  0
TABLE
  2
LTYPE
  5
5
330
0
100
AcDbSymbolTable
 70
     3
  0
LTYPE
  5
14
330
5
100
AcDbSymbolTableRecord
100
AcDbLinetypeTableRecord
  2
BYBLOCK
 70
     0
  3

 72
    65
 73
     0
 40
0.0
  0
LTYPE
  5
15
330
5
100
AcDbSymbolTableRecord
100
AcDbLinetypeTableRecord
  2
BYLAYER
 70
     0
  3

 72
    65
 73
     0
 40
0.0
  0
LTYPE
  5
16
330
5
100
AcDbSymbolTableRecord
100
AcDbLinetypeTableRecord
  2
CONTINUOUS
 70
     0
  3
Solid line
 72
    65
 73
     0
 40
0.0
  0
LTYPE
  5
115
330
5
100
AcDbSymbolTableRecord
100
AcDbLinetypeTableRecord
  2
PHANTOM
 70
     0
  3
______  __  __  ______  __  __  ______  __  __ 
 72
    65
 73
     6
 40
2.5
 49
1.25
 74
     0
 49
-0.25
 74
     0
 49
0.25
 74
     0
 49
-0.25
 74
     0
 49
0.25
 74
     0
 49
-0.25
 74
     0
  0
LTYPE
  5
135
330
5
100
AcDbSymbolTableRecord
100
AcDbLinetypeTableRecord
  2
CENTER
 70
     0
  3
____ _ ____ _ ____ _ ____ _ ____ _ ____ _ ____ 
 72
    65
 73
     4
 40
2.0
 49
1.25
 74
     0
 49
-0.25
 74
     0
 49
0.25
 74
     0
 49
-0.25
 74
     0
  0
ENDTAB
  0
TABLE
  2
LAYER
  5
2
330
0
100
AcDbSymbolTable
 70
     9
  0
LAYER
  5
F
330
2
100
AcDbSymbolTableRecord
100
AcDbLayerTableRecord
  2
0
 70
     0
 62
     7
  6
CONTINUOUS
  0
LAYER
  5
62
330
2
100
AcDbSymbolTableRecord
100
AcDbLayerTableRecord
  2
VIEWPORT
 70
     0
 62
     7
  6
CONTINUOUS
  0
LAYER
  5
65
330
2
100
AcDbSymbolTableRecord
100
AcDbLayerTableRecord
  2
ZUWAKU
 70
     0
 62
     7
  6
CONTINUOUS
  0
LAYER
  5
3C5
330
2
100
AcDbSymbolTableRecord
100
AcDbLayerTableRecord
  2
NOKITOI
 70
     0
 62
     8
  6
PHANTOM
  0
LAYER
  5
3C6
330
2
100
AcDbSymbolTableRecord
100
AcDbLayerTableRecord
  2
SEIHIN
 70
     0
 62
     3
  6
CONTINUOUS
  0
LAYER
  5
3C7
330
2
100
AcDbSymbolTableRecord
100
AcDbLayerTableRecord
  2
SUNPOU
 70
     0
 62
     4
  6
CONTINUOUS
  0
LAYER
  5
3C8
330
2
100
AcDbSymbolTableRecord
100
AcDbLayerTableRecord
  2
CENTER_L
 70
     0
 62
     1
  6
CENTER
  0
LAYER
  5
3EA
330
2
100
AcDbSymbolTableRecord
100
AcDbLayerTableRecord
  2
DEFPOINTS
 70
     0
 62
     7
  6
CONTINUOUS
  0
LAYER
  5
73E
330
2
100
AcDbSymbolTableRecord
100
AcDbLayerTableRecord
  2
MOJI
 70
     0
 62
     2
  6
CONTINUOUS
  0
ENDTAB
  0
TABLE
  2
STYLE
  5
3
330
0
100
AcDbSymbolTable
 70
     2
  0
STYLE
  5
10
330
3
100
AcDbSymbolTableRecord
100
AcDbTextStyleTableRecord
  2
STANDARD
 70
     0
 40
0.0
 41
1.0
 50
0.0
 71
     0
 42
5.0
  3
TXT
  4
bigfont.shx
  0
STYLE
  5
73F
330
3
100
AcDbSymbolTableRecord
100
AcDbTextStyleTableRecord
  2
ｽﾀｲﾙ1
 70
     0
 40
0.0
 41
1.0
 50
0.0
 71
     0
 42
2.5
  3
MS PGothic.ttf
  4

1001
ACAD
1000
MS PGothic
1071
    32818
  0
ENDTAB
  0
TABLE
  2
VIEW
  5
6
330
0
100
AcDbSymbolTable
 70
     0
  0
ENDTAB
  0
TABLE
  2
UCS
  5
7
330
0
100
AcDbSymbolTable
 70
     0
  0
ENDTAB
  0
TABLE
  2
APPID
  5
9
330
0
100
AcDbSymbolTable
 70
     1
  0
APPID
  5
11
330
9
100
AcDbSymbolTableRecord
100
AcDbRegAppTableRecord
  2
ACAD
 70
     0
  0
ENDTAB
  0
TABLE
  2
DIMSTYLE
  5
A
330
0
100
AcDbSymbolTable
 70
     1
  0
DIMSTYLE
105
1D
102
{ACAD_REACTORS
330
12E0
330
12ED
330
12FA
330
1322
102
}
330
A
100
AcDbSymbolTableRecord
100
AcDbDimStyleTableRecord
  2
STANDARD
 70
     0
  3

  4

  5

  6

  7

 40
1.0
 41
0.18
 42
0.0625
 43
0.38
 44
0.18
 45
0.0
 46
0.0
 47
0.0
 48
0.0
140
0.18
141
0.09
142
0.0
143
25.4
144
1.0
145
0.0
146
1.0
147
0.09
 71
     0
 72
     0
 73
     1
 74
     1
 75
     0
 76
     0
 77
     0
 78
     0
170
     0
171
     2
172
     0
173
     0
174
     0
175
     0
176
     0
177
     0
178
     0
270
     2
271
     4
272
     4
273
     2
274
     2
340
10
275
     0
280
     0
281
     0
282
     0
283
     1
284
     0
285
     0
286
     0
287
     3
288
     0
  0
ENDTAB
  0
TABLE
  2
BLOCK_RECORD
  5
1
330
0
100
AcDbSymbolTable
 70
     6
  0
BLOCK_RECORD
  5
1A
102
{ACAD_XDICTIONARY
360
687
102
}
330
1
100
AcDbSymbolTableRecord
100
AcDbBlockTableRecord
  2
*MODEL_SPACE
  0
BLOCK_RECORD
  5
17
102
{ACAD_XDICTIONARY
360
685
102
}
330
1
100
AcDbSymbolTableRecord
100
AcDbBlockTableRecord
  2
*PAPER_SPACE
  0
BLOCK_RECORD
  5
6D
330
1
100
AcDbSymbolTableRecord
100
AcDbBlockTableRecord
  2
_OPEN
  0
BLOCK_RECORD
  5
107D
330
1
100
AcDbSymbolTableRecord
100
AcDbBlockTableRecord
  2
*X1
  0
BLOCK_RECORD
  5
12E1
330
1
100
AcDbSymbolTableRecord
100
AcDbBlockTableRecord
  2
*D2
  0
BLOCK_RECORD
  5
12EE
330
1
100
AcDbSymbolTableRecord
100
AcDbBlockTableRecord
  2
*D3
  0
BLOCK_RECORD
  5
12FB
330
1
100
AcDbSymbolTableRecord
100
AcDbBlockTableRecord
  2
*D4
  0
BLOCK_RECORD
  5
1323
330
1
100
AcDbSymbolTableRecord
100
AcDbBlockTableRecord
  2
*D5
  0
ENDTAB
  0
ENDSEC
  0
SECTION
  2
BLOCKS
  0
BLOCK
  5
1B
330
1A
100
AcDbEntity
  8
0
100
AcDbBlockBegin
  2
*MODEL_SPACE
 70
     0
 10
0.0
 20
0.0
 30
0.0
  3
*MODEL_SPACE
  1

  0
ENDBLK
  5
1C
330
1A
100
AcDbEntity
  8
0
100
AcDbBlockEnd
  0
BLOCK
  5
18
330
17
100
AcDbEntity
 67
     1
  8
0
100
AcDbBlockBegin
  2
*PAPER_SPACE
 70
     0
 10
0.0
 20
0.0
 30
0.0
  3
*PAPER_SPACE
  1

  0
ENDBLK
  5
19
330
17
100
AcDbEntity
 67
     1
  8
0
100
AcDbBlockEnd
  0
BLOCK
  5
6E
330
6D
100
AcDbEntity
  8
0
100
AcDbBlockBegin
  2
_OPEN
 70
     0
 10
0.0
 20
0.0
 30
0.0
  3
_OPEN
  1

  0
LINE
  5
6F
330
6D
100
AcDbEntity
  8
0
  6
BYBLOCK
 62
     0
100
AcDbLine
 10
-1.0
 20
0.1666666666666666
 30
0.0
 11
0.0
 21
0.0
 31
0.0
  0
LINE
  5
70
330
6D
100
AcDbEntity
  8
0
  6
BYBLOCK
 62
     0
100
AcDbLine
 10
0.0
 20
0.0
 30
0.0
 11
-1.0
 21
-0.1666666666666666
 31
0.0
  0
LINE
  5
71
330
6D
100
AcDbEntity
  8
0
  6
BYBLOCK
 62
     0
100
AcDbLine
 10
0.0
 20
0.0
 30
0.0
 11
-1.0
 21
0.0
 31
0.0
  0
ENDBLK
  5
72
330
6D
100
AcDbEntity
  8
0
100
AcDbBlockEnd
  0
BLOCK
  5
1211
330
107D
100
AcDbEntity
  8
0
100
AcDbBlockBegin
  2
*X1
 70
     1
 10
0.0
 20
0.0
 30
0.0
  3
*X1
  1

  0
LINE
  5
107E
330
107D
100
AcDbEntity
  8
0
 62
     0
100
AcDbLine
 10
69.04221216833718
 20
22.60416893857376
 30
0.0
 11
68.39638123862227
 21
23.24999986828874
 31
0.0
  0
LINE
  5
107F
330
107D
100
AcDbEntity
  8
0
 62
     0
100
AcDbLine
 10
69.04221216833718
 20
21.70614332646687
 30
0.0
 11
67.49835562651532
 21
23.24999986828874
 31
0.0
  0
LINE
  5
1080
330
107D
100
AcDbEntity
  8
0
 62
     0
100
AcDbLine
 10
69.04221216833713
 20
20.80811771435992
 30
0.0
 11
66.62107822232218
 21
23.22925166037486
 31
0.0
  0
LINE
  5
1081
330
107D
100
AcDbEntity
  8
0
 62
     0
100
AcDbLine
 10
69.04221216833718
 20
19.91009210225309
 30
0.0
 11
66.24221216833712
 21
22.71009210225309
 31
0.0
  0
LINE
  5
1082
330
107D
100
AcDbEntity
  8
0
 62
     0
100
AcDbLine
 10
69.04221216833718
 20
19.01206649014613
 30
0.0
 11
66.24221216833712
 21
21.8120664901462
 31
0.0
  0
LINE
  5
1083
330
107D
100
AcDbEntity
  8
0
 62
     0
100
AcDbLine
 10
69.04221216833713
 20
18.11404087803919
 30
0.0
 11
66.24221216833706
 21
20.91404087803926
 31
0.0
  0
LINE
  5
1084
330
107D
100
AcDbEntity
  8
0
 62
     0
100
AcDbLine
 10
64.14221216833709
 20
22.11601526593239
 30
0.0
 11
63.0082275659808
 21
23.24999986828874
 31
0.0
  0
LINE
  5
1085
330
107D
100
AcDbEntity
  8
0
 62
     0
100
AcDbLine
 10
69.04221216833718
 20
17.21601526593235
 30
0.0
 11
66.24221216833712
 21
20.01601526593242
 31
0.0
  0
LINE
  5
1086
330
107D
100
AcDbEntity
  8
0
 62
     0
100
AcDbLine
 10
64.14221216833709
 20
21.21798965382549
 30
0.0
 11
62.11020195387385
 21
23.24999986828868
 31
0.0
  0
LINE
  5
1087
330
107D
100
AcDbEntity
  8
0
 62
     0
100
AcDbLine
 10
69.04221216833713
 20
16.3179896538254
 30
0.0
 11
66.24221216833712
 21
19.11798965382547
 31
0.0
  0
LINE
  5
1088
330
107D
100
AcDbEntity
  8
0
 62
     0
100
AcDbLine
 10
64.14221216833709
 20
20.31996404171855
 30
0.0
 11
61.43670120320002
 21
23.02547500685562
 31
0.0
  0
LINE
  5
1089
330
107D
100
AcDbEntity
  8
0
 62
     0
100
AcDbLine
 10
69.04221216833713
 20
15.41996404171851
 30
0.0
 11
66.24221216833706
 21
18.21996404171852
 31
0.0
  0
LINE
  5
108A
330
107D
100
AcDbEntity
  8
0
 62
     0
100
AcDbLine
 10
64.14221216833721
 20
19.42193842961154
 30
0.0
 11
61.34221216833703
 21
22.22193842961166
 31
0.0
  0
LINE
  5
108B
330
107D
100
AcDbEntity
  8
0
 62
     0
100
AcDbLine
 10
69.04221216833718
 20
14.52193842961156
 30
0.0
 11
66.24221216833712
 21
17.32193842961163
 31
0.0
  0
LINE
  5
108C
330
107D
100
AcDbEntity
  8
0
 62
     0
100
AcDbLine
 10
64.14221216833715
 20
18.52391281750465
 30
0.0
 11
61.34221216833703
 21
21.32391281750483
 31
0.0
  0
LINE
  5
108D
330
107D
100
AcDbEntity
  8
0
 62
     0
100
AcDbLine
 10
69.04221216833713
 20
13.62391281750467
 30
0.0
 11
66.24221216833706
 21
16.42391281750474
 31
0.0
  0
LINE
  5
108E
330
107D
100
AcDbEntity
  8
0
 62
     0
100
AcDbLine
 10
64.14221216833715
 20
17.62588720539776
 30
0.0
 11
61.34221216833703
 21
20.42588720539788
 31
0.0
  0
LINE
  5
108F
330
107D
100
AcDbEntity
  8
0
 62
     0
100
AcDbLine
 10
69.04221216833713
 20
12.72588720539778
 30
0.0
 11
66.24221216833706
 21
15.52588720539785
 31
0.0
  0
LINE
  5
1090
330
107D
100
AcDbEntity
  8
0
 62
     0
100
AcDbLine
 10
64.14221216833709
 20
16.72786159329081
 30
0.0
 11
61.34221216833697
 21
19.52786159329093
 31
0.0
  0
LINE
  5
1091
330
107D
100
AcDbEntity
  8
0
 62
     0
100
AcDbLine
 10
69.04221216833708
 20
11.82786159329083
 30
0.0
 11
66.24221216833706
 21
14.6278615932909
 31
0.0
  0
LINE
  5
1092
330
107D
100
AcDbEntity
  8
0
 62
     0
100
AcDbLine
 10
64.14221216833715
 20
15.82983598118397
 30
0.0
 11
61.34221216833703
 21
18.6298359811841
 31
0.0
  0
LINE
  5
1093
330
107D
100
AcDbEntity
  8
0
 62
     0
100
AcDbLine
 10
57.84221216833708
 20
22.12983598118404
 30
0.0
 11
56.72204828123245
 21
23.24999986828868
 31
0.0
  0
LINE
  5
1094
330
107D
100
AcDbEntity
  8
0
 62
     0
100
AcDbLine
 10
69.04221216833713
 20
10.92983598118399
 30
0.0
 11
66.24221216833706
 21
13.72983598118401
 31
0.0
  0
LINE
  5
1095
330
107D
100
AcDbEntity
  8
0
 62
     0
100
AcDbLine
 10
64.14221216833715
 20
14.93181036907702
 30
0.0
 11
61.34221216833697
 21
17.73181036907715
 31
0.0
  0
LINE
  5
1096
330
107D
100
AcDbEntity
  8
0
 62
     0
100
AcDbLine
 10
57.84221216833703
 20
21.23181036907709
 30
0.0
 11
55.82402266912549
 21
23.24999986828868
 31
0.0
  0
LINE
  5
1097
330
107D
100
AcDbEntity
  8
0
 62
     0
100
AcDbLine
 10
69.04221216833713
 20
10.03181036907704
 30
0.0
 11
66.24221216833706
 21
12.83181036907711
 31
0.0
  0
LINE
  5
1098
330
107D
100
AcDbEntity
  8
0
 62
     0
100
AcDbLine
 10
64.14221216833709
 20
14.03378475697013
 30
0.0
 11
61.34221216833703
 21
16.83378475697014
 31
0.0
  0
LINE
  5
1099
330
107D
100
AcDbEntity
  8
0
 62
     0
100
AcDbLine
 10
57.84221216833703
 20
20.3337847569702
 30
0.0
 11
55.14244944501303
 21
23.0335474802942
 31
0.0
  0
LINE
  5
109A
330
107D
100
AcDbEntity
  8
0
 62
     0
100
AcDbLine
 10
69.04221216833708
 20
9.133784756970158
 30
0.0
 11
66.242212168337
 21
11.93378475697016
 31
0.0
  0
LINE
  5
109B
330
107D
100
AcDbEntity
  8
0
 62
     0
100
AcDbLine
 10
64.14221216833715
 20
13.13575914486318
 30
0.0
 11
61.34221216833708
 21
15.93575914486325
 31
0.0
  0
LINE
  5
109C
330
107D
100
AcDbEntity
  8
0
 62
     0
100
AcDbLine
 10
57.84221216833708
 20
19.43575914486325
 30
0.0
 11
55.04221216833707
 21
22.23575914486326
 31
0.0
  0
LINE
  5
109D
330
107D
100
AcDbEntity
  8
0
 62
     0
100
AcDbLine
 10
69.04221216833713
 20
8.235759144863209
 30
0.0
 11
66.24221216833706
 21
11.03575914486327
 31
0.0
  0
LINE
  5
109E
330
107D
100
AcDbEntity
  8
0
 62
     0
100
AcDbLine
 10
64.14221216833709
 20
12.23773353275629
 30
0.0
 11
61.34221216833708
 21
15.03773353275636
 31
0.0
  0
LINE
  5
109F
330
107D
100
AcDbEntity
  8
0
 62
     0
100
AcDbLine
 10
57.84221216833714
 20
18.5377335327563
 30
0.0
 11
55.04221216833713
 21
21.33773353275632
 31
0.0
  0
LINE
  5
10A0
330
107D
100
AcDbEntity
  8
0
 62
     0
100
AcDbLine
 10
68.97024681344731
 20
7.409698887646129
 30
0.0
 11
66.24221216833706
 21
10.13773353275638
 31
0.0
  0
LINE
  5
10A1
330
107D
100
AcDbEntity
  8
0
 62
     0
100
AcDbLine
 10
64.14221216833715
 20
11.33970792064928
 30
0.0
 11
61.34221216833703
 21
14.13970792064941
 31
0.0
  0
LINE
  5
10A2
330
107D
100
AcDbEntity
  8
0
 62
     0
100
AcDbLine
 10
57.84221216833708
 20
17.63970792064941
 30
0.0
 11
55.04221216833713
 21
20.43970792064937
 31
0.0
  0
LINE
  5
10A3
330
107D
100
AcDbEntity
  8
0
 62
     0
100
AcDbLine
 10
68.33192022069784
 20
7.149999868288659
 30
0.0
 11
66.242212168337
 21
9.239707920649493
 31
0.0
  0
LINE
  5
10A4
330
107D
100
AcDbEntity
  8
0
 62
     0
100
AcDbLine
 10
57.84221216833708
 20
16.74168230854246
 30
0.0
 11
55.04221216833707
 21
19.54168230854241
 31
0.0
  0
LINE
  5
10A5
330
107D
100
AcDbEntity
  8
0
 62
     0
100
AcDbLine
 10
64.14221216833715
 20
10.44168230854239
 30
0.0
 11
61.34221216833703
 21
13.24168230854252
 31
0.0
  0
LINE
  5
10A6
330
107D
100
AcDbEntity
  8
0
 62
     0
100
AcDbLine
 10
52.41721216833707
 20
22.16668230854247
 30
0.0
 11
51.33389460859075
 21
23.24999986828874
 31
0.0
  0
LINE
  5
10A7
330
107D
100
AcDbEntity
  8
0
 62
     0
100
AcDbLine
 10
67.43389460859095
 20
7.149999868288546
 30
0.0
 11
66.242212168337
 21
8.341682308542544
 31
0.0
  0
LINE
  5
10A8
330
107D
100
AcDbEntity
  8
0
 62
     0
100
AcDbLine
 10
57.84221216833708
 20
15.84365669643557
 30
0.0
 11
55.04221216833713
 21
18.64365669643558
 31
0.0
  0
LINE
  5
10A9
330
107D
100
AcDbEntity
  8
0
 62
     0
100
AcDbLine
 10
52.41721216833707
 20
21.26865669643558
 30
0.0
 11
50.43586899648392
 21
23.24999986828879
 31
0.0
  0
LINE
  5
10AA
330
107D
100
AcDbEntity
  8
0
 62
     0
100
AcDbLine
 10
64.11625386769157
 20
9.569614997081146
 30
0.0
 11
61.34221216833703
 21
12.34365669643563
 31
0.0
  0
LINE
  5
10AB
330
107D
100
AcDbEntity
  8
0
 62
     0
100
AcDbLine
 10
57.84221216833708
 20
14.94563108432868
 30
0.0
 11
55.04221216833713
 21
17.74563108432863
 31
0.0
  0
LINE
  5
10AC
330
107D
100
AcDbEntity
  8
0
 62
     0
100
AcDbLine
 10
52.22163162222324
 20
20.56621163044252
 30
0.0
 11
49.53784338437708
 21
23.24999986828868
 31
0.0
  0
LINE
  5
10AD
330
107D
100
AcDbEntity
  8
0
 62
     0
100
AcDbLine
 10
63.92326857243432
 20
8.864574680231385
 30
0.0
 11
61.34221216833703
 21
11.44563108432873
 31
0.0
  0
LINE
  5
10AE
330
107D
100
AcDbEntity
  8
0
 62
     0
100
AcDbLine
 10
57.84221216833708
 20
14.04760547222173
 30
0.0
 11
55.04221216833707
 21
16.84760547222174
 31
0.0
  0
LINE
  5
10AF
330
107D
100
AcDbEntity
  8
0
 62
     0
100
AcDbLine
 10
51.43981777227009
 20
20.44999986828867
 30
0.0
 11
48.63981777227007
 21
23.24999986828874
 31
0.0
  0
LINE
  5
10B0
330
107D
100
AcDbEntity
  8
0
 62
     0
100
AcDbLine
 10
63.59823669651075
 20
8.291580944048007
 30
0.0
 11
61.27069642917752
 21
10.61912121138129
 31
0.0
  0
LINE
  5
10B1
330
107D
100
AcDbEntity
  8
0
 62
     0
100
AcDbLine
 10
57.84221216833708
 20
13.14957986011489
 30
0.0
 11
55.04221216833713
 21
15.94957986011485
 31
0.0
  0
LINE
  5
10B2
330
107D
100
AcDbEntity
  8
0
 62
     0
100
AcDbLine
 10
50.54179216016326
 20
20.44999986828873
 30
0.0
 11
47.80422543098587
 21
23.18756659746611
 31
0.0
  0
LINE
  5
10B3
330
107D
100
AcDbEntity
  8
0
 62
     0
100
AcDbLine
 10
63.16619489918571
 20
7.825597129266213
 30
0.0
 11
60.86911079071001
 21
10.12268123774191
 31
0.0
  0
LINE
  5
10B4
330
107D
100
AcDbEntity
  8
0
 62
     0
100
AcDbLine
 10
57.84221216833708
 20
12.25155424800794
 30
0.0
 11
55.04221216833707
 21
15.0515542480079
 31
0.0
  0
LINE
  5
10B5
330
107D
100
AcDbEntity
  8
0
 62
     0
100
AcDbLine
 10
49.6437665480563
 20
20.44999986828873
 30
0.0
 11
47.13958500645247
 21
22.95418140989249
 31
0.0
  0
LINE
  5
10B6
330
107D
100
AcDbEntity
  8
0
 62
     0
100
AcDbLine
 10
62.63003255425968
 20
7.463733862085348
 30
0.0
 11
60.1437665480563
 21
9.949999868288671
 31
0.0
  0
LINE
  5
10B7
330
107D
100
AcDbEntity
  8
0
 62
     0
100
AcDbLine
 10
57.84221216833703
 20
11.353528635901
 30
0.0
 11
55.04221216833713
 21
14.15352863590089
 31
0.0
  0
LINE
  5
10B8
330
107D
100
AcDbEntity
  8
0
 62
     0
100
AcDbLine
 10
48.7675307639675
 20
20.42821004027052
 30
0.0
 11
46.59698406924229
 21
22.59875673499573
 31
0.0
  0
LINE
  5
10B9
330
107D
100
AcDbEntity
  8
0
 62
     0
100
AcDbLine
 10
61.97361999434838
 20
7.222120809889702
 30
0.0
 11
59.24574093594941
 21
9.949999868288671
 31
0.0
  0
LINE
  5
10BA
330
107D
100
AcDbEntity
  8
0
 62
     0
100
AcDbLine
 10
48.39221216833715
 20
19.90550302379392
 30
0.0
 11
46.15887201019774
 21
22.13884318193334
 31
0.0
  0
LINE
  5
10BB
330
107D
100
AcDbEntity
  8
0
 62
     0
100
AcDbLine
 10
61.14771532384253
 20
7.149999868288603
 30
0.0
 11
55.04221216833713
 21
13.255503023794
 31
0.0
  0
LINE
  5
10BC
330
107D
100
AcDbEntity
  8
0
 62
     0
100
AcDbLine
 10
48.3922121683372
 20
19.00747741168709
 30
0.0
 11
45.82710109784471
 21
21.57258848217958
 31
0.0
  0
LINE
  5
10BD
330
107D
100
AcDbEntity
  8
0
 62
     0
100
AcDbLine
 10
60.24968971173564
 20
7.149999868288603
 30
0.0
 11
55.04221216833719
 21
12.35747741168711
 31
0.0
  0
LINE
  5
10BE
330
107D
100
AcDbEntity
  8
0
 62
     0
100
AcDbLine
 10
48.59875644944094
 20
17.90290751847641
 30
0.0
 11
45.6249225784806
 21
20.87674138943668
 31
0.0
  0
LINE
  5
10BF
330
107D
100
AcDbEntity
  8
0
 62
     0
100
AcDbLine
 10
59.35166409962874
 20
7.149999868288603
 30
0.0
 11
55.04221216833713
 21
11.45945179958022
 31
0.0
  0
LINE
  5
10C0
330
107D
100
AcDbEntity
  8
0
 62
     0
100
AcDbLine
 10
52.81581587102846
 20
12.78782248478194
 30
0.0
 11
45.59221216833708
 21
20.01142618747326
 31
0.0
  0
LINE
  5
10C1
330
107D
100
AcDbEntity
  8
0
 62
     0
100
AcDbLine
 10
43.492212168337
 20
22.11142618747334
 30
0.0
 11
42.35363848752172
 21
23.24999986828868
 31
0.0
  0
LINE
  5
10C2
330
107D
100
AcDbEntity
  8
0
 62
     0
100
AcDbLine
 10
58.4536384875218
 20
7.149999868288603
 30
0.0
 11
55.04221216833713
 21
10.56142618747327
 31
0.0
  0
LINE
  5
10C3
330
107D
100
AcDbEntity
  8
0
 62
     0
100
AcDbLine
 10
52.94221216833716
 20
11.7634005753664
 30
0.0
 11
45.59221216833714
 21
19.11340057536642
 31
0.0
  0
LINE
  5
10C4
330
107D
100
AcDbEntity
  8
0
 62
     0
100
AcDbLine
 10
43.49221216833711
 20
21.21340057536639
 30
0.0
 11
41.45561287541477
 21
23.24999986828879
 31
0.0
  0
LINE
  5
10C5
330
107D
100
AcDbEntity
  8
0
 62
     0
100
AcDbLine
 10
57.53916499667003
 20
7.166447747033544
 30
0.0
 11
55.05866004708201
 21
9.646952696621553
 31
0.0
  0
LINE
  5
10C6
330
107D
100
AcDbEntity
  8
0
 62
     0
100
AcDbLine
 10
43.49221216833711
 20
20.3153749632595
 30
0.0
 11
40.7848222805618
 21
23.02276485103476
 31
0.0
  0
LINE
  5
10C7
330
107D
100
AcDbEntity
  8
0
 62
     0
100
AcDbLine
 10
52.94221216833711
 20
10.86537496325945
 30
0.0
 11
45.61562283621947
 21
18.19196429537714
 31
0.0
  0
LINE
  5
10C8
330
107D
100
AcDbEntity
  8
0
 62
     0
100
AcDbLine
 10
43.49221216833711
 20
19.41734935115255
 30
0.0
 11
40.6922121683371
 21
22.2173493511525
 31
0.0
  0
LINE
  5
10C9
330
107D
100
AcDbEntity
  8
0
 62
     0
100
AcDbLine
 10
52.94221216833699
 20
9.96734935115262
 30
0.0
 11
45.93374225405949
 21
16.97581926543017
 31
0.0
  0
LINE
  5
10CA
330
107D
100
AcDbEntity
  8
0
 62
     0
100
AcDbLine
 10
43.49221216833711
 20
18.51932373904566
 30
0.0
 11
40.69221216833716
 21
21.31932373904561
 31
0.0
  0
LINE
  5
10CB
330
107D
100
AcDbEntity
  8
0
 62
     0
100
AcDbLine
 10
52.83365035074803
 20
9.177885556634748
 30
0.0
 11
50.13801556170972
 21
11.87352034567305
 31
0.0
  0
LINE
  5
10CC
330
107D
100
AcDbEntity
  8
0
 62
     0
100
AcDbLine
 10
43.49221216833711
 20
17.62129812693876
 30
0.0
 11
40.6922121683371
 21
20.42129812693872
 31
0.0
  0
LINE
  5
10CD
330
107D
100
AcDbEntity
  8
0
 62
     0
100
AcDbLine
 10
38.40072526776009
 20
22.71278502751573
 30
0.0
 11
37.86351042698709
 21
23.24999986828879
 31
0.0
  0
LINE
  5
10CE
330
107D
100
AcDbEntity
  8
0
 62
     0
100
AcDbLine
 10
52.56577464298647
 20
8.547735652289418
 30
0.0
 11
50.14221216833715
 21
10.97129812693873
 31
0.0
  0
LINE
  5
10CF
330
107D
100
AcDbEntity
  8
0
 62
     0
100
AcDbLine
 10
43.49221216833706
 20
16.72327251483181
 30
0.0
 11
40.6922121683371
 21
19.52327251483183
 31
0.0
  0
LINE
  5
10D0
330
107D
100
AcDbEntity
  8
0
 62
     0
100
AcDbLine
 10
38.20179760350749
 20
22.01368707966139
 30
0.0
 11
36.9654848148802
 21
23.24999986828874
 31
0.0
  0
LINE
  5
10D1
330
107D
100
AcDbEntity
  8
0
 62
     0
100
AcDbLine
 10
52.18278784481118
 20
8.032696838357765
 30
0.0
 11
50.04492698545067
 21
10.17055769771826
 31
0.0
  0
LINE
  5
10D2
330
107D
100
AcDbEntity
  8
0
 62
     0
100
AcDbLine
 10
43.49221216833706
 20
15.82524690272492
 30
0.0
 11
40.6922121683371
 21
18.62524690272488
 31
0.0
  0
LINE
  5
10D3
330
107D
100
AcDbEntity
  8
0
 62
     0
100
AcDbLine
 10
37.9862714566018
 20
21.33118761446013
 30
0.0
 11
36.07705589313122
 21
23.24040317793077
 31
0.0
  0
LINE
  5
10D4
330
107D
100
AcDbEntity
  8
0
 62
     0
100
AcDbLine
 10
51.69646887969554
 20
7.620990191366388
 30
0.0
 11
49.36745920277331
 21
9.949999868288671
 31
0.0
  0
LINE
  5
10D5
330
107D
100
AcDbEntity
  8
0
 62
     0
100
AcDbLine
 10
43.49221216833711
 20
14.92722129061803
 30
0.0
 11
40.6922121683371
 21
17.72722129061799
 31
0.0
  0
LINE
  5
10D6
330
107D
100
AcDbEntity
  8
0
 62
     0
100
AcDbLine
 10
37.77074530969628
 20
20.64868814925887
 30
0.0
 11
35.64274530969623
 21
22.77668814925891
 31
0.0
  0
LINE
  5
10D7
330
107D
100
AcDbEntity
  8
0
 62
     0
100
AcDbLine
 10
51.10038493123517
 20
7.319048527719928
 30
0.0
 11
48.46943359066642
 21
9.949999868288728
 31
0.0
  0
LINE
  5
10D8
330
107D
100
AcDbEntity
  8
0
 62
     0
100
AcDbLine
 10
43.49221216833706
 20
14.02919567851114
 30
0.0
 11
40.6922121683371
 21
16.8291956785111
 31
0.0
  0
LINE
  5
10D9
330
107D
100
AcDbEntity
  8
0
 62
     0
100
AcDbLine
 10
37.55521916279042
 20
19.96618868405778
 30
0.0
 11
35.42721916279043
 21
22.09418868405776
 31
0.0
  0
LINE
  5
10DA
330
107D
100
AcDbEntity
  8
0
 62
     0
100
AcDbLine
 10
50.3627122795877
 20
7.158695567260508
 30
0.0
 11
47.57140797855953
 21
9.949999868288671
 31
0.0
  0
LINE
  5
10DB
330
107D
100
AcDbEntity
  8
0
 62
     0
100
AcDbLine
 10
43.49221216833706
 20
13.13117006640419
 30
0.0
 11
40.69221216833705
 21
15.93117006640414
 31
0.0
  0
LINE
  5
10DC
330
107D
100
AcDbEntity
  8
0
 62
     0
100
AcDbLine
 10
37.33969301588484
 20
19.2836892188564
 30
0.0
 11
35.21169301588475
 21
21.41168921885645
 31
0.0
  0
LINE
  5
10DD
330
107D
100
AcDbEntity
  8
0
 62
     0
100
AcDbLine
 10
49.47338236645265
 20
7.149999868288603
 30
0.0
 11
46.67338236645258
 21
9.949999868288671
 31
0.0
  0
LINE
  5
10DE
330
107D
100
AcDbEntity
  8
0
 62
     0
100
AcDbLine
 10
43.49221216833706
 20
12.2331444542973
 30
0.0
 11
40.6922121683371
 21
15.03314445429731
 31
0.0
  0
LINE
  5
10DF
330
107D
100
AcDbEntity
  8
0
 62
     0
100
AcDbLine
 10
37.12416686897927
 20
18.60118975365514
 30
0.0
 11
34.99616686897911
 21
20.72918975365524
 31
0.0
  0
LINE
  5
10E0
330
107D
100
AcDbEntity
  8
0
 62
     0
100
AcDbLine
 10
48.57535675434576
 20
7.149999868288659
 30
0.0
 11
46.14174505704937
 21
9.583611565585044
 31
0.0
  0
LINE
  5
10E1
330
107D
100
AcDbEntity
  8
0
 62
     0
100
AcDbLine
 10
36.90864072207352
 20
17.91869028845394
 30
0.0
 11
34.78064072207348
 21
20.04669028845398
 31
0.0
  0
LINE
  5
10E2
330
107D
100
AcDbEntity
  8
0
 62
     0
100
AcDbLine
 10
43.49221216833706
 20
11.33511884219041
 30
0.0
 11
40.6922121683371
 21
14.13511884219036
 31
0.0
  0
LINE
  5
10E3
330
107D
100
AcDbEntity
  8
0
 62
     0
100
AcDbLine
 10
32.64221216833709
 20
22.18511884219037
 30
0.0
 11
31.57733114223879
 21
23.24999986828862
 31
0.0
  0
LINE
  5
10E4
330
107D
100
AcDbEntity
  8
0
 62
     0
100
AcDbLine
 10
47.67733114223887
 20
7.149999868288603
 30
0.0
 11
46.11721216833712
 21
8.710118842190354
 31
0.0
  0
LINE
  5
10E5
330
107D
100
AcDbEntity
  8
0
 62
     0
100
AcDbLine
 10
36.69311457516784
 20
17.23619082325268
 30
0.0
 11
34.56511457516785
 21
19.36419082325267
 31
0.0
  0
LINE
  5
10E6
330
107D
100
AcDbEntity
  8
0
 62
     0
100
AcDbLine
 10
43.49221216833706
 20
10.43709323008346
 30
0.0
 11
40.69221216833705
 21
13.23709323008347
 31
0.0
  0
LINE
  5
10E7
330
107D
100
AcDbEntity
  8
0
 62
     0
100
AcDbLine
 10
32.64221216833709
 20
21.28709323008342
 30
0.0
 11
30.67930553013189
 21
23.24999986828862
 31
0.0
  0
LINE
  5
10E8
330
107D
100
AcDbEntity
  8
0
 62
     0
100
AcDbLine
 10
46.77930553013186
 20
7.149999868288659
 30
0.0
 11
46.11721216833706
 21
7.812093230083405
 31
0.0
  0
LINE
  5
10E9
330
107D
100
AcDbEntity
  8
0
 62
     0
100
AcDbLine
 10
36.47758842826215
 20
16.55369135805142
 30
0.0
 11
34.34958842826211
 21
18.68169135805146
 31
0.0
  0
LINE
  5
10EA
330
107D
100
AcDbEntity
  8
0
 62
     0
100
AcDbLine
 10
32.64221216833703
 20
20.38906761797647
 30
0.0
 11
29.96676723943943
 21
23.06451254687414
 31
0.0
  0
LINE
  5
10EB
330
107D
100
AcDbEntity
  8
0
 62
     0
100
AcDbLine
 10
43.492212168337
 20
9.53906761797657
 30
0.0
 11
40.69221216833705
 21
12.33906761797652
 31
0.0
  0
LINE
  5
10EC
330
107D
100
AcDbEntity
  8
0
 62
     0
100
AcDbLine
 10
36.26206228135652
 20
15.87119189285022
 30
0.0
 11
34.13406228135653
 21
17.9991918928502
 31
0.0
  0
LINE
  5
10ED
330
107D
100
AcDbEntity
  8
0
 62
     0
100
AcDbLine
 10
32.64221216833709
 20
19.49104200586964
 30
0.0
 11
29.84221216833702
 21
22.29104200586965
 31
0.0
  0
LINE
  5
10EE
330
107D
100
AcDbEntity
  8
0
 62
     0
100
AcDbLine
 10
43.49221216833706
 20
8.641042005869678
 30
0.0
 11
40.69221216833705
 21
11.44104200586963
 31
0.0
  0
LINE
  5
10EF
330
107D
100
AcDbEntity
  8
0
 62
     0
100
AcDbLine
 10
36.05697377196463
 20
15.17825479013515
 30
0.0
 11
33.91853613445078
 21
17.316692427649
 31
0.0
  0
LINE
  5
10F0
330
107D
100
AcDbEntity
  8
0
 62
     0
100
AcDbLine
 10
32.64221216833709
 20
18.59301639376269
 30
0.0
 11
29.84221216833702
 21
21.39301639376276
 31
0.0
  0
LINE
  5
10F1
330
107D
100
AcDbEntity
  8
0
 62
     0
100
AcDbLine
 10
43.492212168337
 20
7.743016393762729
 30
0.0
 11
40.69221216833705
 21
10.54301639376274
 31
0.0
  0
LINE
  5
10F2
330
107D
100
AcDbEntity
  8
0
 62
     0
100
AcDbLine
 10
36.47144713139863
 20
13.8657558185942
 30
0.0
 11
33.62798863876617
 21
16.70921431122667
 31
0.0
  0
LINE
  5
10F3
330
107D
100
AcDbEntity
  8
0
 62
     0
100
AcDbLine
 10
32.64221216833715
 20
17.69499078165569
 30
0.0
 11
29.84221216833697
 21
20.49499078165581
 31
0.0
  0
LINE
  5
10F4
330
107D
100
AcDbEntity
  8
0
 62
     0
100
AcDbLine
 10
43.15316717100467
 20
7.184035778988118
 30
0.0
 11
40.6922121683371
 21
9.644990781655735
 31
0.0
  0
LINE
  5
10F5
330
107D
100
AcDbEntity
  8
0
 62
     0
100
AcDbLine
 10
36.88592049083268
 20
12.55325684705332
 30
0.0
 11
29.84221216833702
 21
19.59696516954898
 31
0.0
  0
LINE
  5
10F6
330
107D
100
AcDbEntity
  8
0
 62
     0
100
AcDbLine
 10
27.39221216833715
 20
22.04696516954885
 30
0.0
 11
26.18917746959738
 21
23.24999986828862
 31
0.0
  0
LINE
  5
10F7
330
107D
100
AcDbEntity
  8
0
 62
     0
100
AcDbLine
 10
42.28917746959734
 20
7.149999868288659
 30
0.0
 11
40.69221216833716
 21
8.746965169548843
 31
0.0
  0
LINE
  5
10F8
330
107D
100
AcDbEntity
  8
0
 62
     0
100
AcDbLine
 10
37.30039385026657
 20
11.24075787551243
 30
0.0
 11
29.84221216833702
 21
18.69893955744203
 31
0.0
  0
LINE
  5
10F9
330
107D
100
AcDbEntity
  8
0
 62
     0
100
AcDbLine
 10
27.39221216833715
 20
21.1489395574419
 30
0.0
 11
25.29115185749037
 21
23.24999986828868
 31
0.0
  0
LINE
  5
10FA
330
107D
100
AcDbEntity
  8
0
 62
     0
100
AcDbLine
 10
41.39115185749034
 20
7.149999868288716
 30
0.0
 11
40.6922121683371
 21
7.848939557441951
 31
0.0
  0
LINE
  5
10FB
330
107D
100
AcDbEntity
  8
0
 62
     0
100
AcDbLine
 10
27.12530547294704
 20
20.51782064072506
 30
0.0
 11
24.42508375473562
 21
23.21804235893643
 31
0.0
  0
LINE
  5
10FC
330
107D
100
AcDbEntity
  8
0
 62
     0
100
AcDbLine
 10
37.71486720970051
 20
9.928258903971595
 30
0.0
 11
29.84221216833708
 21
17.80091394533502
 31
0.0
  0
LINE
  5
10FD
330
107D
100
AcDbEntity
  8
0
 62
     0
100
AcDbLine
 10
32.9797210906787
 20
13.76537941088651
 30
0.0
 11
29.84221216833708
 21
16.90288833322813
 31
0.0
  0
LINE
  5
10FE
330
107D
100
AcDbEntity
  8
0
 62
     0
100
AcDbLine
 10
26.2951006332766
 20
20.44999986828855
 30
0.0
 11
23.68704068514836
 21
23.05805981641686
 31
0.0
  0
LINE
  5
10FF
330
107D
100
AcDbEntity
  8
0
 62
     0
100
AcDbLine
 10
38.12934056913451
 20
8.615759932430705
 30
0.0
 11
34.03703287682663
 21
12.70806762473853
 31
0.0
  0
LINE
  5
1100
330
107D
100
AcDbEntity
  8
0
 62
     0
100
AcDbLine
 10
32.64221216833715
 20
13.20486272112117
 30
0.0
 11
29.84221216833708
 21
16.00486272112124
 31
0.0
  0
LINE
  5
1101
330
107D
100
AcDbEntity
  8
0
 62
     0
100
AcDbLine
 10
25.39707502116959
 20
20.44999986828867
 30
0.0
 11
23.04831926931762
 21
22.79875562014063
 31
0.0
  0
LINE
  5
1102
330
107D
100
AcDbEntity
  8
0
 62
     0
100
AcDbLine
 10
38.36437942684511
 20
7.48269546261315
 30
0.0
 11
34.45150623626057
 21
11.39556865319775
 31
0.0
  0
LINE
  5
1103
330
107D
100
AcDbEntity
  8
0
 62
     0
100
AcDbLine
 10
32.64221216833709
 20
12.30683710901428
 30
0.0
 11
29.84221216833702
 21
15.10683710901429
 31
0.0
  0
LINE
  5
1104
330
107D
100
AcDbEntity
  8
0
 62
     0
100
AcDbLine
 10
24.55396151862606
 20
20.39508775872531
 30
0.0
 11
22.48957029398309
 21
22.45947898336828
 31
0.0
  0
LINE
  5
1105
330
107D
100
AcDbEntity
  8
0
 62
     0
100
AcDbLine
 10
37.79904940906277
 20
7.149999868288603
 30
0.0
 11
34.86597959569451
 21
10.08306968165686
 31
0.0
  0
LINE
  5
1106
330
107D
100
AcDbEntity
  8
0
 62
     0
100
AcDbLine
 10
32.64221216833709
 20
11.40881149690733
 30
0.0
 11
29.84221216833702
 21
14.2088114969074
 31
0.0
  0
LINE
  5
1107
330
107D
100
AcDbEntity
  8
0
 62
     0
100
AcDbLine
 10
23.98210532578707
 20
20.06891833945735
 30
0.0
 11
22.0019150853713
 21
22.04910857987312
 31
0.0
  0
LINE
  5
1108
330
107D
100
AcDbEntity
  8
0
 62
     0
100
AcDbLine
 10
36.90102379695582
 20
7.149999868288603
 30
0.0
 11
35.28045295512856
 21
8.770570710115862
 31
0.0
  0
LINE
  5
1109
330
107D
100
AcDbEntity
  8
0
 62
     0
100
AcDbLine
 10
27.72764130113483
 20
15.42535675200275
 30
0.0
 11
26.21756905205109
 21
16.9354290010865
 31
0.0
  0
LINE
  5
110A
330
107D
100
AcDbEntity
  8
0
 62
     0
100
AcDbLine
 10
32.64221216833721
 20
10.51078588480038
 30
0.0
 11
29.84221216833708
 21
13.31078588480051
 31
0.0
  0
LINE
  5
110B
330
107D
100
AcDbEntity
  8
0
 62
     0
100
AcDbLine
 10
23.62598375565812
 20
19.52701429747946
 30
0.0
 11
21.58254905936007
 21
21.57044899377751
 31
0.0
  0
LINE
  5
110C
330
107D
100
AcDbEntity
  8
0
 62
     0
100
AcDbLine
 10
35.95266518064431
 20
7.200332872493277
 30
0.0
 11
35.702311009053
 21
7.450687044084588
 31
0.0
  0
LINE
  5
110D
330
107D
100
AcDbEntity
  8
0
 62
     0
100
AcDbLine
 10
27.64112764099292
 20
14.61384480003772
 30
0.0
 11
25.40605710008605
 21
16.84891534094458
 31
0.0
  0
LINE
  5
110E
330
107D
100
AcDbEntity
  8
0
 62
     0
100
AcDbLine
 10
23.54221216833718
 20
18.71276027269345
 30
0.0
 11
21.2336100383984
 21
21.02136240263223
 31
0.0
  0
LINE
  5
110F
330
107D
100
AcDbEntity
  8
0
 62
     0
100
AcDbLine
 10
32.64221216833715
 20
9.612760272693435
 30
0.0
 11
29.84221216833702
 21
12.41276027269361
 31
0.0
  0
LINE
  5
1110
330
107D
100
AcDbEntity
  8
0
 62
     0
100
AcDbLine
 10
27.30927208169487
 20
14.04767474722876
 30
0.0
 11
24.8398870472771
 21
16.51705978164653
 31
0.0
  0
LINE
  5
1111
330
107D
100
AcDbEntity
  8
0
 62
     0
100
AcDbLine
 10
23.54221216833718
 20
17.81473466058651
 30
0.0
 11
20.96303033118823
 21
20.39391649773546
 31
0.0
  0
LINE
  5
1112
330
107D
100
AcDbEntity
  8
0
 62
     0
100
AcDbLine
 10
32.64221216833715
 20
8.714734660586543
 30
0.0
 11
29.84221216833708
 21
11.51473466058661
 31
0.0
  0
LINE
  5
1113
330
107D
100
AcDbEntity
  8
0
 62
     0
100
AcDbLine
 10
23.54221216833718
 20
16.91670904847961
 30
0.0
 11
20.78831645826238
 21
19.67060475855447
 31
0.0
  0
LINE
  5
1114
330
107D
100
AcDbEntity
  8
0
 62
     0
100
AcDbLine
 10
26.80743863955842
 20
13.65148257725843
 30
0.0
 11
24.44369487730677
 21
16.01522633951009
 31
0.0
  0
LINE
  5
1115
330
107D
100
AcDbEntity
  8
0
 62
     0
100
AcDbLine
 10
18.11721216833712
 20
22.34170904847974
 30
0.0
 11
17.20892134852812
 21
23.24999986828874
 31
0.0
  0
LINE
  5
1116
330
107D
100
AcDbEntity
  8
0
 62
     0
100
AcDbLine
 10
32.64221216833721
 20
7.816709048479651
 30
0.0
 11
29.84221216833714
 21
10.61670904847971
 31
0.0
  0
LINE
  5
1117
330
107D
100
AcDbEntity
  8
0
 62
     0
100
AcDbLine
 10
23.54221216833718
 20
16.01868343637272
 30
0.0
 11
20.74221216833711
 21
18.81868343637279
 31
0.0
  0
LINE
  5
1118
330
107D
100
AcDbEntity
  8
0
 62
     0
100
AcDbLine
 10
26.107119197131
 20
13.45377640757891
 30
0.0
 11
24.24598870762725
 21
15.31490689708266
 31
0.0
  0
LINE
  5
1119
330
107D
100
AcDbEntity
  8
0
 62
     0
100
AcDbLine
 10
18.11721216833706
 20
21.44368343637279
 30
0.0
 11
16.31089573642117
 21
23.24999986828868
 31
0.0
  0
LINE
  5
111A
330
107D
100
AcDbEntity
  8
0
 62
     0
100
AcDbLine
 10
32.35430836706649
 20
7.206587237643418
 30
0.0
 11
29.84221216833708
 21
9.718683436372771
 31
0.0
  0
LINE
  5
111B
330
107D
100
AcDbEntity
  8
0
 62
     0
100
AcDbLine
 10
23.54221216833718
 20
15.12065782426577
 30
0.0
 11
20.74221216833711
 21
17.92065782426584
 31
0.0
  0
LINE
  5
111C
330
107D
100
AcDbEntity
  8
0
 62
     0
100
AcDbLine
 10
18.00817819806673
 20
20.65469179453623
 30
0.0
 11
15.41287012431416
 21
23.24999986828874
 31
0.0
  0
LINE
  5
111D
330
107D
100
AcDbEntity
  8
0
 62
     0
100
AcDbLine
 10
31.5128701243143
 20
7.149999868288659
 30
0.0
 11
29.84221216833708
 21
8.820657824265879
 31
0.0
  0
LINE
  5
111E
330
107D
100
AcDbEntity
  8
0
 62
     0
100
AcDbLine
 10
23.54221216833713
 20
14.22263221215888
 30
0.0
 11
20.74221216833706
 21
17.02263221215889
 31
0.0
  0
LINE
  5
111F
330
107D
100
AcDbEntity
  8
0
 62
     0
100
AcDbLine
 10
17.31484451220734
 20
20.44999986828867
 30
0.0
 11
14.51484451220727
 21
23.24999986828874
 31
0.0
  0
LINE
  5
1120
330
107D
100
AcDbEntity
  8
0
 62
     0
100
AcDbLine
 10
30.61484451220735
 20
7.149999868288603
 30
0.0
 11
29.84221216833708
 21
7.92263221215893
 31
0.0
  0
LINE
  5
1121
330
107D
100
AcDbEntity
  8
0
 62
     0
100
AcDbLine
 10
23.54221216833724
 20
13.32460660005193
 30
0.0
 11
20.74221216833711
 21
16.12460660005206
 31
0.0
  0
LINE
  5
1122
330
107D
100
AcDbEntity
  8
0
 62
     0
100
AcDbLine
 10
16.41681890010045
 20
20.44999986828873
 30
0.0
 11
13.6516896279956
 21
23.21512914039357
 31
0.0
  0
LINE
  5
1123
330
107D
100
AcDbEntity
  8
0
 62
     0
100
AcDbLine
 10
27.38960971950018
 20
9.477209048888937
 30
0.0
 11
26.91942134893747
 21
9.947397419451704
 31
0.0
  0
LINE
  5
1124
330
107D
100
AcDbEntity
  8
0
 62
     0
100
AcDbLine
 10
23.54221216833724
 20
12.42658098794498
 30
0.0
 11
20.74221216833711
 21
15.22658098794511
 31
0.0
  0
LINE
  5
1125
330
107D
100
AcDbEntity
  8
0
 62
     0
100
AcDbLine
 10
15.5187932879935
 20
20.44999986828867
 30
0.0
 11
12.95855481951713
 21
23.01023833676509
 31
0.0
  0
LINE
  5
1126
330
107D
100
AcDbEntity
  8
0
 62
     0
100
AcDbLine
 10
27.39221216833721
 20
8.576580987945021
 30
0.0
 11
26.01879328799356
 21
9.949999868288671
 31
0.0
  0
LINE
  5
1127
330
107D
100
AcDbEntity
  8
0
 62
     0
100
AcDbLine
 10
23.54221216833718
 20
11.52855537583803
 30
0.0
 11
20.74221216833717
 21
14.3285553758381
 31
0.0
  0
LINE
  5
1128
330
107D
100
AcDbEntity
  8
0
 62
     0
100
AcDbLine
 10
14.62076767588667
 20
20.44999986828855
 30
0.0
 11
12.39430815966989
 21
22.67645938450533
 31
0.0
  0
LINE
  5
1129
330
107D
100
AcDbEntity
  8
0
 62
     0
100
AcDbLine
 10
27.39221216833715
 20
7.678555375838072
 30
0.0
 11
25.12076767588666
 21
9.949999868288557
 31
0.0
  0
LINE
  5
112A
330
107D
100
AcDbEntity
  8
0
 62
     0
100
AcDbLine
 10
14.11047484827207
 20
20.06226708379637
 30
0.0
 11
11.93621534742914
 21
22.2365265846393
 31
0.0
  0
LINE
  5
112B
330
107D
100
AcDbEntity
  8
0
 62
     0
100
AcDbLine
 10
27.00447938384479
 20
7.168262548223651
 30
0.0
 11
20.74221216833717
 21
13.43052976373127
 31
0.0
  0
LINE
  5
112C
330
107D
100
AcDbEntity
  8
0
 62
     0
100
AcDbLine
 10
14.09221216833714
 20
19.18250415162435
 30
0.0
 11
11.58273414496005
 21
21.69198217500144
 31
0.0
  0
LINE
  5
112D
330
107D
100
AcDbEntity
  8
0
 62
     0
100
AcDbLine
 10
26.12471645167289
 20
7.149999868288603
 30
0.0
 11
20.74221216833717
 21
12.53250415162432
 31
0.0
  0
LINE
  5
112E
330
107D
100
AcDbEntity
  8
0
 62
     0
100
AcDbLine
 10
14.15434787647257
 20
18.22234283138192
 30
0.0
 11
11.35185404266633
 21
21.02483666518821
 31
0.0
  0
LINE
  5
112F
330
107D
100
AcDbEntity
  8
0
 62
     0
100
AcDbLine
 10
25.22669083956589
 20
7.149999868288659
 30
0.0
 11
20.74221216833711
 21
11.63447853951737
 31
0.0
  0
LINE
  5
1130
330
107D
100
AcDbEntity
  8
0
 62
     0
100
AcDbLine
 10
18.4465882595598
 20
13.03207683618785
 30
0.0
 11
11.29221216833718
 21
20.18645292741047
 31
0.0
  0
LINE
  5
1131
330
107D
100
AcDbEntity
  8
0
 62
     0
100
AcDbLine
 10
24.27539314040234
 20
7.203271955345314
 30
0.0
 11
20.79548425539377
 21
10.68318084035388
 31
0.0
  0
LINE
  5
1132
330
107D
100
AcDbEntity
  8
0
 62
     0
100
AcDbLine
 10
18.63848277364502
 20
11.94215670999574
 30
0.0
 11
11.29221216833707
 21
19.28842731530369
 31
0.0
  0
LINE
  5
1133
330
107D
100
AcDbEntity
  8
0
 62
     0
100
AcDbLine
 10
22.90158522780075
 20
7.679054255839957
 30
0.0
 11
21.27126655588836
 21
9.309372927752406
 31
0.0
  0
LINE
  5
1134
330
107D
100
AcDbEntity
  8
0
 62
     0
100
AcDbLine
 10
18.64221216833721
 20
11.0404017031966
 30
0.0
 11
11.29977661575946
 21
18.38283725577429
 31
0.0
  0
LINE
  5
1135
330
107D
100
AcDbEntity
  8
0
 62
     0
100
AcDbLine
 10
18.64221216833709
 20
10.14237609108977
 30
0.0
 11
11.52306737408332
 21
17.26152088534348
 31
0.0
  0
LINE
  5
1136
330
107D
100
AcDbEntity
  8
0
 62
     0
100
AcDbLine
 10
18.56969217220518
 20
9.316870475114853
 30
0.0
 11
15.80630052858612
 21
12.08026211873391
 31
0.0
  0
LINE
  5
1137
330
107D
100
AcDbEntity
  8
0
 62
     0
100
AcDbLine
 10
18.32775423317633
 20
8.660782802036749
 30
0.0
 11
15.84221216833708
 21
11.146324866876
 31
0.0
  0
LINE
  5
1138
330
107D
100
AcDbEntity
  8
0
 62
     0
100
AcDbLine
 10
17.96563498579456
 20
8.12487643731157
 30
0.0
 11
15.8063131360364
 21
10.28419828706972
 31
0.0
  0
LINE
  5
1139
330
107D
100
AcDbEntity
  8
0
 62
     0
100
AcDbLine
 10
17.49940861352769
 20
7.693077197471552
 30
0.0
 11
15.24248594271057
 21
9.949999868288728
 31
0.0
  0
LINE
  5
113A
330
107D
100
AcDbEntity
  8
0
 62
     0
100
AcDbLine
 10
16.92614416579488
 20
7.368316033097471
 30
0.0
 11
14.34446033060362
 21
9.949999868288671
 31
0.0
  0
LINE
  5
113B
330
107D
100
AcDbEntity
  8
0
 62
     0
100
AcDbLine
 10
16.22073157670894
 20
7.17570301007646
 30
0.0
 11
13.44643471849673
 21
9.949999868288671
 31
0.0
  0
LINE
  5
113C
330
107D
100
AcDbEntity
  8
0
 62
     0
100
AcDbLine
 10
15.34840910638979
 20
7.149999868288659
 30
0.0
 11
12.54840910638978
 21
9.949999868288671
 31
0.0
  0
LINE
  5
113D
330
107D
100
AcDbEntity
  8
0
 62
     0
100
AcDbLine
 10
14.45038349428296
 20
7.149999868288603
 30
0.0
 11
11.89705959946508
 21
9.703323763106538
 31
0.0
  0
LINE
  5
113E
330
107D
100
AcDbEntity
  8
0
 62
     0
100
AcDbLine
 10
13.55235788217595
 20
7.149999868288659
 30
0.0
 11
11.81721216833716
 21
8.885145582127449
 31
0.0
  0
LINE
  5
113F
330
107D
100
AcDbEntity
  8
0
 62
     0
100
AcDbLine
 10
12.65433227006911
 20
7.149999868288603
 30
0.0
 11
11.81721216833716
 21
7.987119970020557
 31
0.0
  0
LINE
  5
1140
330
107D
100
AcDbEntity
  8
0
 62
     0
100
AcDbLine
 10
68.63389945300406
 20
7.163131645406167
 30
0.0
 11
69.02908039121985
 21
7.558312583621955
 31
0.0
  0
LINE
  5
1141
330
107D
100
AcDbEntity
  8
0
 62
     0
100
AcDbLine
 10
67.72274206377961
 20
7.149999868288546
 30
0.0
 11
69.0422121683373
 21
8.469469972846241
 31
0.0
  0
LINE
  5
1142
330
107D
100
AcDbEntity
  8
0
 62
     0
100
AcDbLine
 10
66.82471645167272
 20
7.149999868288546
 30
0.0
 11
69.0422121683373
 21
9.367495584953132
 31
0.0
  0
LINE
  5
1143
330
107D
100
AcDbEntity
  8
0
 62
     0
100
AcDbLine
 10
66.27340973158897
 20
7.49671876031175
 30
0.0
 11
69.04221216833724
 21
10.26552119706008
 31
0.0
  0
LINE
  5
1144
330
107D
100
AcDbEntity
  8
0
 62
     0
100
AcDbLine
 10
66.24221216833717
 20
8.363546809166905
 30
0.0
 11
69.04221216833724
 21
11.16354680916691
 31
0.0
  0
LINE
  5
1145
330
107D
100
AcDbEntity
  8
0
 62
     0
100
AcDbLine
 10
66.24221216833723
 20
9.261572421273797
 30
0.0
 11
69.04221216833724
 21
12.06157242127386
 31
0.0
  0
LINE
  5
1146
330
107D
100
AcDbEntity
  8
0
 62
     0
100
AcDbLine
 10
66.24221216833717
 20
10.15959803338074
 30
0.0
 11
69.04221216833724
 21
12.95959803338081
 31
0.0
  0
LINE
  5
1147
330
107D
100
AcDbEntity
  8
0
 62
     0
100
AcDbLine
 10
66.24221216833717
 20
11.05762364548763
 30
0.0
 11
69.04221216833724
 21
13.8576236454877
 31
0.0
  0
LINE
  5
1148
330
107D
100
AcDbEntity
  8
0
 62
     0
100
AcDbLine
 10
62.66877703040245
 20
7.484188507552914
 30
0.0
 11
63.80802352907301
 21
8.62343500622353
 31
0.0
  0
LINE
  5
1149
330
107D
100
AcDbEntity
  8
0
 62
     0
100
AcDbLine
 10
66.24221216833717
 20
11.95564925759452
 30
0.0
 11
69.04221216833724
 21
14.75564925759459
 31
0.0
  0
LINE
  5
114A
330
107D
100
AcDbEntity
  8
0
 62
     0
100
AcDbLine
 10
61.43820886387965
 20
7.151645953137006
 30
0.0
 11
64.14056608348897
 21
9.854003172746274
 31
0.0
  0
LINE
  5
114B
330
107D
100
AcDbEntity
  8
0
 62
     0
100
AcDbLine
 10
66.24221216833717
 20
12.85367486970147
 30
0.0
 11
69.04221216833724
 21
15.65367486970149
 31
0.0
  0
LINE
  5
114C
330
107D
100
AcDbEntity
  8
0
 62
     0
100
AcDbLine
 10
60.53853716692424
 20
7.149999868288546
 30
0.0
 11
64.14221216833727
 21
10.75367486970151
 31
0.0
  0
LINE
  5
114D
330
107D
100
AcDbEntity
  8
0
 62
     0
100
AcDbLine
 10
66.24221216833717
 20
13.75170048180837
 30
0.0
 11
69.04221216833718
 21
16.55170048180844
 31
0.0
  0
LINE
  5
114E
330
107D
100
AcDbEntity
  8
0
 62
     0
100
AcDbLine
 10
59.64051155481735
 20
7.149999868288546
 30
0.0
 11
64.14221216833721
 21
11.65170048180846
 31
0.0
  0
LINE
  5
114F
330
107D
100
AcDbEntity
  8
0
 62
     0
100
AcDbLine
 10
66.24221216833729
 20
14.64972609391532
 30
0.0
 11
69.04221216833724
 21
17.44972609391533
 31
0.0
  0
LINE
  5
1150
330
107D
100
AcDbEntity
  8
0
 62
     0
100
AcDbLine
 10
58.74248594271051
 20
7.149999868288603
 30
0.0
 11
64.14221216833727
 21
12.54972609391535
 31
0.0
  0
LINE
  5
1151
330
107D
100
AcDbEntity
  8
0
 62
     0
100
AcDbLine
 10
61.23762096625615
 20
10.54316050394118
 30
0.0
 11
64.14221216833727
 21
13.44775170602224
 31
0.0
  0
LINE
  5
1152
330
107D
100
AcDbEntity
  8
0
 62
     0
100
AcDbLine
 10
66.24221216833723
 20
15.54775170602226
 30
0.0
 11
69.04221216833724
 21
18.34775170602222
 31
0.0
  0
LINE
  5
1153
330
107D
100
AcDbEntity
  8
0
 62
     0
100
AcDbLine
 10
57.84446033060351
 20
7.149999868288546
 30
0.0
 11
60.74905153268463
 21
10.05459107036961
 31
0.0
  0
LINE
  5
1154
330
107D
100
AcDbEntity
  8
0
 62
     0
100
AcDbLine
 10
61.34221216833714
 20
11.54577731812912
 30
0.0
 11
64.14221216833721
 21
14.34577731812919
 31
0.0
  0
LINE
  5
1155
330
107D
100
AcDbEntity
  8
0
 62
     0
100
AcDbLine
 10
66.24221216833723
 20
16.44577731812915
 30
0.0
 11
69.04221216833718
 21
19.24577731812917
 31
0.0
  0
LINE
  5
1156
330
107D
100
AcDbEntity
  8
0
 62
     0
100
AcDbLine
 10
57.05838446987383
 20
7.261949619665756
 30
0.0
 11
59.74643471849669
 21
9.949999868288614
 31
0.0
  0
LINE
  5
1157
330
107D
100
AcDbEntity
  8
0
 62
     0
100
AcDbLine
 10
61.3422121683372
 20
12.44380293023613
 30
0.0
 11
64.14221216833721
 21
15.24380293023608
 31
0.0
  0
LINE
  5
1158
330
107D
100
AcDbEntity
  8
0
 62
     0
100
AcDbLine
 10
66.24221216833717
 20
17.3438029302361
 30
0.0
 11
69.04221216833718
 21
20.14380293023606
 31
0.0
  0
LINE
  5
1159
330
107D
100
AcDbEntity
  8
0
 62
     0
100
AcDbLine
 10
56.43039760266367
 20
7.531988364562607
 30
0.0
 11
58.84928689203412
 21
9.950877653933048
 31
0.0
  0
LINE
  5
115A
330
107D
100
AcDbEntity
  8
0
 62
     0
100
AcDbLine
 10
61.34221216833726
 20
13.34182854234302
 30
0.0
 11
64.14221216833721
 21
16.14182854234297
 31
0.0
  0
LINE
  5
115B
330
107D
100
AcDbEntity
  8
0
 62
     0
100
AcDbLine
 10
66.24221216833723
 20
18.241828542343
 30
0.0
 11
69.04221216833718
 21
21.04182854234295
 31
0.0
  0
LINE
  5
115C
330
107D
100
AcDbEntity
  8
0
 62
     0
100
AcDbLine
 10
55.91713772129861
 20
7.916754095304327
 30
0.0
 11
58.20580830332142
 21
10.20542467732718
 31
0.0
  0
LINE
  5
115D
330
107D
100
AcDbEntity
  8
0
 62
     0
100
AcDbLine
 10
61.34221216833726
 20
14.23985415444991
 30
0.0
 11
64.14221216833721
 21
17.03985415444992
 31
0.0
  0
LINE
  5
115E
330
107D
100
AcDbEntity
  8
0
 62
     0
100
AcDbLine
 10
66.24221216833723
 20
19.13985415444989
 30
0.0
 11
69.04221216833718
 21
21.9398541544499
 31
0.0
  0
LINE
  5
115F
330
107D
100
AcDbEntity
  8
0
 62
     0
100
AcDbLine
 10
55.50717354607349
 20
8.404815532186148
 30
0.0
 11
57.868570024912
 21
10.76621201102472
 31
0.0
  0
LINE
  5
1160
330
107D
100
AcDbEntity
  8
0
 62
     0
100
AcDbLine
 10
61.3422121683372
 20
15.13787976655686
 30
0.0
 11
64.14221216833727
 21
17.93787976655693
 31
0.0
  0
LINE
  5
1161
330
107D
100
AcDbEntity
  8
0
 62
     0
100
AcDbLine
 10
66.24221216833717
 20
20.03787976655684
 30
0.0
 11
69.03206301478673
 21
22.82773061300639
 31
0.0
  0
LINE
  5
1162
330
107D
100
AcDbEntity
  8
0
 62
     0
100
AcDbLine
 10
55.20724866763948
 20
9.002916265859141
 30
0.0
 11
57.8422121683372
 21
11.6378797665568
 31
0.0
  0
LINE
  5
1163
330
107D
100
AcDbEntity
  8
0
 62
     0
100
AcDbLine
 10
61.34221216833726
 20
16.03590537866369
 30
0.0
 11
64.14221216833732
 21
18.83590537866376
 31
0.0
  0
LINE
  5
1164
330
107D
100
AcDbEntity
  8
0
 62
     0
100
AcDbLine
 10
66.24221216833729
 20
20.93590537866379
 30
0.0
 11
68.55494866970724
 21
23.24864188003374
 31
0.0
  0
LINE
  5
1165
330
107D
100
AcDbEntity
  8
0
 62
     0
100
AcDbLine
 10
55.04983513268303
 20
9.743528343009529
 30
0.0
 11
57.8422121683372
 21
12.5359053786637
 31
0.0
  0
LINE
  5
1166
330
107D
100
AcDbEntity
  8
0
 62
     0
100
AcDbLine
 10
61.3422121683372
 20
16.93393099077064
 30
0.0
 11
64.14221216833727
 21
19.73393099077071
 31
0.0
  0
LINE
  5
1167
330
107D
100
AcDbEntity
  8
0
 62
     0
100
AcDbLine
 10
66.24221216833729
 20
21.83393099077068
 30
0.0
 11
67.65828104585517
 21
23.24999986828862
 31
0.0
  0
LINE
  5
1168
330
107D
100
AcDbEntity
  8
0
 62
     0
100
AcDbLine
 10
55.04221216833724
 20
10.63393099077063
 30
0.0
 11
57.84221216833725
 21
13.4339309907707
 31
0.0
  0
LINE
  5
1169
330
107D
100
AcDbEntity
  8
0
 62
     0
100
AcDbLine
 10
61.3422121683372
 20
17.83195660287759
 30
0.0
 11
64.14221216833727
 21
20.6319566028776
 31
0.0
  0
LINE
  5
116A
330
107D
100
AcDbEntity
  8
0
 62
     0
100
AcDbLine
 10
55.04221216833719
 20
11.53195660287758
 30
0.0
 11
57.84221216833725
 21
14.33195660287765
 31
0.0
  0
LINE
  5
116B
330
107D
100
AcDbEntity
  8
0
 62
     0
100
AcDbLine
 10
66.24225888308462
 20
22.73200331762501
 30
0.0
 11
66.7602087190009
 21
23.24995315354124
 31
0.0
  0
LINE
  5
116C
330
107D
100
AcDbEntity
  8
0
 62
     0
100
AcDbLine
 10
50.72065653762519
 20
7.21040097216553
 30
0.0
 11
52.88181106446035
 21
9.371555499000749
 31
0.0
  0
LINE
  5
116D
330
107D
100
AcDbEntity
  8
0
 62
     0
100
AcDbLine
 10
55.04221216833719
 20
12.42998221498447
 30
0.0
 11
57.84221216833725
 21
15.22998221498454
 31
0.0
  0
LINE
  5
116E
330
107D
100
AcDbEntity
  8
0
 62
     0
100
AcDbLine
 10
61.3422121683372
 20
18.72998221498448
 30
0.0
 11
64.14221216833721
 21
21.52998221498455
 31
0.0
  0
LINE
  5
116F
330
107D
100
AcDbEntity
  8
0
 62
     0
100
AcDbLine
 10
49.76222982164131
 20
7.149999868288659
 30
0.0
 11
52.94221216833716
 21
10.32998221498451
 31
0.0
  0
LINE
  5
1170
330
107D
100
AcDbEntity
  8
0
 62
     0
100
AcDbLine
 10
55.04221216833719
 20
13.32800782709137
 30
0.0
 11
57.84221216833725
 21
16.12800782709143
 31
0.0
  0
LINE
  5
1171
330
107D
100
AcDbEntity
  8
0
 62
     0
100
AcDbLine
 10
61.3422121683372
 20
19.62800782709138
 30
0.0
 11
64.14221216833727
 21
22.42800782709144
 31
0.0
  0
LINE
  5
1172
330
107D
100
AcDbEntity
  8
0
 62
     0
100
AcDbLine
 10
48.86420420953442
 20
7.149999868288603
 30
0.0
 11
52.94221216833722
 21
11.22800782709134
 31
0.0
  0
LINE
  5
1173
330
107D
100
AcDbEntity
  8
0
 62
     0
100
AcDbLine
 10
55.04221216833719
 20
14.22603343919831
 30
0.0
 11
57.84221216833725
 21
17.02603343919832
 31
0.0
  0
LINE
  5
1174
330
107D
100
AcDbEntity
  8
0
 62
     0
100
AcDbLine
 10
61.3422121683372
 20
20.52603343919827
 30
0.0
 11
63.94847471350312
 21
23.13229598436425
 31
0.0
  0
LINE
  5
1175
330
107D
100
AcDbEntity
  8
0
 62
     0
100
AcDbLine
 10
47.96617859742752
 20
7.149999868288659
 30
0.0
 11
52.92789356792423
 21
12.11171483878536
 31
0.0
  0
LINE
  5
1176
330
107D
100
AcDbEntity
  8
0
 62
     0
100
AcDbLine
 10
55.04221216833724
 20
15.12405905130532
 30
0.0
 11
57.8422121683372
 21
17.92405905130527
 31
0.0
  0
LINE
  5
1177
330
107D
100
AcDbEntity
  8
0
 62
     0
100
AcDbLine
 10
61.34221216833714
 20
21.42405905130522
 30
0.0
 11
63.1681529853206
 21
23.24999986828868
 31
0.0
  0
LINE
  5
1178
330
107D
100
AcDbEntity
  8
0
 62
     0
100
AcDbLine
 10
47.06815298532058
 20
7.149999868288659
 30
0.0
 11
52.79298119729549
 21
12.87482808026351
 31
0.0
  0
LINE
  5
1179
330
107D
100
AcDbEntity
  8
0
 62
     0
100
AcDbLine
 10
55.0422121683373
 20
16.02208466341215
 30
0.0
 11
57.84221216833725
 21
18.82208466341216
 31
0.0
  0
LINE
  5
117A
330
107D
100
AcDbEntity
  8
0
 62
     0
100
AcDbLine
 10
50.14221216833732
 20
11.12208466341218
 30
0.0
 11
52.55239374037694
 21
13.5322662354518
 31
0.0
  0
LINE
  5
117B
330
107D
100
AcDbEntity
  8
0
 62
     0
100
AcDbLine
 10
61.3422121683372
 20
22.32208466341211
 30
0.0
 11
62.27012737321377
 21
23.24999986828868
 31
0.0
  0
LINE
  5
117C
330
107D
100
AcDbEntity
  8
0
 62
     0
100
AcDbLine
 10
46.29838272634481
 20
7.278255221419726
 30
0.0
 11
48.9701273732137
 21
9.949999868288614
 31
0.0
  0
LINE
  5
117D
330
107D
100
AcDbEntity
  8
0
 62
     0
100
AcDbLine
 10
50.12234159320991
 20
12.00023970039171
 30
0.0
 11
52.2288944355164
 21
14.1067925426982
 31
0.0
  0
LINE
  5
117E
330
107D
100
AcDbEntity
  8
0
 62
     0
100
AcDbLine
 10
55.04221216833724
 20
16.9201102755191
 30
0.0
 11
57.8422121683372
 21
19.72011027551906
 31
0.0
  0
LINE
  5
117F
330
107D
100
AcDbEntity
  8
0
 62
     0
100
AcDbLine
 10
46.11721216833723
 20
7.995110275519039
 30
0.0
 11
48.07210176110675
 21
9.949999868288614
 31
0.0
  0
LINE
  5
1180
330
107D
100
AcDbEntity
  8
0
 62
     0
100
AcDbLine
 10
49.84795675607102
 20
12.62388047535984
 30
0.0
 11
51.83302331758858
 21
14.60894703687739
 31
0.0
  0
LINE
  5
1181
330
107D
100
AcDbEntity
  8
0
 62
     0
100
AcDbLine
 10
55.04221216833724
 20
17.818135887626
 30
0.0
 11
57.8422121683372
 21
20.61813588762601
 31
0.0
  0
LINE
  5
1182
330
107D
100
AcDbEntity
  8
0
 62
     0
100
AcDbLine
 10
46.11721216833717
 20
8.893135887625987
 30
0.0
 11
47.17407614899985
 21
9.949999868288671
 31
0.0
  0
LINE
  5
1183
330
107D
100
AcDbEntity
  8
0
 62
     0
100
AcDbLine
 10
55.04221216833724
 20
18.71616149973289
 30
0.0
 11
57.84221216833725
 21
21.51616149973284
 31
0.0
  0
LINE
  5
1184
330
107D
100
AcDbEntity
  8
0
 62
     0
100
AcDbLine
 10
49.40668185895396
 20
13.08063119034954
 30
0.0
 11
51.38658084627627
 21
15.06053017767186
 31
0.0
  0
LINE
  5
1185
330
107D
100
AcDbEntity
  8
0
 62
     0
100
AcDbLine
 10
48.95766905290049
 20
13.52964399640302
 30
0.0
 11
50.93756804022286
 21
15.50954298372545
 31
0.0
  0
LINE
  5
1186
330
107D
100
AcDbEntity
  8
0
 62
     0
100
AcDbLine
 10
55.04221216833724
 20
19.61418711183983
 30
0.0
 11
57.8422121683372
 21
22.41418711183979
 31
0.0
  0
LINE
  5
1187
330
107D
100
AcDbEntity
  8
0
 62
     0
100
AcDbLine
 10
42.578024924786
 20
7.149999868288603
 30
0.0
 11
43.49221216833718
 21
8.064187111839714
 31
0.0
  0
LINE
  5
1188
330
107D
100
AcDbEntity
  8
0
 62
     0
100
AcDbLine
 10
48.50865624684701
 20
13.97865680245649
 30
0.0
 11
50.48855523416938
 21
15.95855578977892
 31
0.0
  0
LINE
  5
1189
330
107D
100
AcDbEntity
  8
0
 62
     0
100
AcDbLine
 10
55.04221216833719
 20
20.51221272394673
 30
0.0
 11
57.65603126023854
 21
23.12603181584802
 31
0.0
  0
LINE
  5
118A
330
107D
100
AcDbEntity
  8
0
 62
     0
100
AcDbLine
 10
41.67999931267906
 20
7.149999868288603
 30
0.0
 11
43.49221216833723
 21
8.96221272394672
 31
0.0
  0
LINE
  5
118B
330
107D
100
AcDbEntity
  8
0
 62
     0
100
AcDbLine
 10
48.05964344079353
 20
14.42766960850997
 30
0.0
 11
50.03954242811591
 21
16.4075685958324
 31
0.0
  0
LINE
  5
118C
330
107D
100
AcDbEntity
  8
0
 62
     0
100
AcDbLine
 10
55.04221216833719
 20
21.41023833605367
 30
0.0
 11
56.88197370057219
 21
23.24999986828868
 31
0.0
  0
LINE
  5
118D
330
107D
100
AcDbEntity
  8
0
 62
     0
100
AcDbLine
 10
40.89358483843414
 20
7.261611006150587
 30
0.0
 11
43.49221216833718
 21
9.860238336053669
 31
0.0
  0
LINE
  5
118E
330
107D
100
AcDbEntity
  8
0
 62
     0
100
AcDbLine
 10
47.61063063474011
 20
14.87668241456339
 30
0.0
 11
49.59052962206249
 21
16.85658140188581
 31
0.0
  0
LINE
  5
118F
330
107D
100
AcDbEntity
  8
0
 62
     0
100
AcDbLine
 10
55.0422121683373
 20
22.30826394816062
 30
0.0
 11
55.9839480884653
 21
23.24999986828862
 31
0.0
  0
LINE
  5
1190
330
107D
100
AcDbEntity
  8
0
 62
     0
100
AcDbLine
 10
40.69221216833722
 20
7.958263948160549
 30
0.0
 11
43.49221216833723
 21
10.7582639481605
 31
0.0
  0
LINE
  5
1191
330
107D
100
AcDbEntity
  8
0
 62
     0
100
AcDbLine
 10
47.16161782868664
 20
15.32569522061686
 30
0.0
 11
49.14151681600902
 21
17.30559420793929
 31
0.0
  0
LINE
  5
1192
330
107D
100
AcDbEntity
  8
0
 62
     0
100
AcDbLine
 10
40.69221216833722
 20
8.856289560267498
 30
0.0
 11
43.49221216833718
 21
11.65628956026745
 31
0.0
  0
LINE
  5
1193
330
107D
100
AcDbEntity
  8
0
 62
     0
100
AcDbLine
 10
46.71463392764531
 20
15.77673693168253
 30
0.0
 11
48.69860746102734
 21
17.7607104650645
 31
0.0
  0
LINE
  5
1194
330
107D
100
AcDbEntity
  8
0
 62
     0
100
AcDbLine
 10
40.69221216833722
 20
9.75431517237439
 30
0.0
 11
43.49221216833718
 21
12.5543151723744
 31
0.0
  0
LINE
  5
1195
330
107D
100
AcDbEntity
  8
0
 62
     0
100
AcDbLine
 10
51.38789686425139
 20
20.44999986828861
 30
0.0
 11
52.41721216833724
 21
21.47931517237441
 31
0.0
  0
LINE
  5
1196
330
107D
100
AcDbEntity
  8
0
 62
     0
100
AcDbLine
 10
38.19955594362699
 20
7.261658947664159
 30
0.0
 11
38.28920830508201
 21
7.351311309119239
 31
0.0
  0
LINE
  5
1197
330
107D
100
AcDbEntity
  8
0
 62
     0
100
AcDbLine
 10
46.31663174882334
 20
16.2767603649674
 30
0.0
 11
48.41626602624194
 21
18.376394642386
 31
0.0
  0
LINE
  5
1198
330
107D
100
AcDbEntity
  8
0
 62
     0
100
AcDbLine
 10
40.69221216833722
 20
10.65234078448128
 30
0.0
 11
43.49221216833723
 21
13.45234078448123
 31
0.0
  0
LINE
  5
1199
330
107D
100
AcDbEntity
  8
0
 62
     0
100
AcDbLine
 10
50.48987125214461
 20
20.44999986828867
 30
0.0
 11
52.41721216833724
 21
22.3773407844813
 31
0.0
  0
LINE
  5
119A
330
107D
100
AcDbEntity
  8
0
 62
     0
100
AcDbLine
 10
37.18987125214454
 20
7.149999868288603
 30
0.0
 11
38.25565034845107
 21
8.215778964595131
 31
0.0
  0
LINE
  5
119B
330
107D
100
AcDbEntity
  8
0
 62
     0
100
AcDbLine
 10
45.99079748442664
 20
16.84895171267766
 30
0.0
 11
48.39221216833732
 21
19.25036639658833
 31
0.0
  0
LINE
  5
119C
330
107D
100
AcDbEntity
  8
0
 62
     0
100
AcDbLine
 10
40.69221216833722
 20
11.55036639658817
 30
0.0
 11
43.49221216833718
 21
14.35036639658818
 31
0.0
  0
LINE
  5
119D
330
107D
100
AcDbEntity
  8
0
 62
     0
100
AcDbLine
 10
49.5918456400376
 20
20.44999986828861
 30
0.0
 11
52.25054323653933
 21
23.10869746479033
 31
0.0
  0
LINE
  5
119E
330
107D
100
AcDbEntity
  8
0
 62
     0
100
AcDbLine
 10
36.29184564003753
 20
7.149999868288546
 30
0.0
 11
38.04012420154538
 21
8.898278429796391
 31
0.0
  0
LINE
  5
119F
330
107D
100
AcDbEntity
  8
0
 62
     0
100
AcDbLine
 10
40.69221216833716
 20
12.44839200869512
 30
0.0
 11
43.49221216833718
 21
15.24839200869507
 31
0.0
  0
LINE
  5
11A0
330
107D
100
AcDbEntity
  8
0
 62
     0
100
AcDbLine
 10
45.74741542175655
 20
17.50359526211451
 30
0.0
 11
51.49382002793072
 21
23.24999986828868
 31
0.0
  0
LINE
  5
11A1
330
107D
100
AcDbEntity
  8
0
 62
     0
100
AcDbLine
 10
35.69983132938256
 20
7.45601116974052
 30
0.0
 11
37.82459805463969
 21
9.580777894997652
 31
0.0
  0
LINE
  5
11A2
330
107D
100
AcDbEntity
  8
0
 62
     0
100
AcDbLine
 10
40.69221216833716
 20
13.34641762080207
 30
0.0
 11
43.49221216833711
 21
16.14641762080202
 31
0.0
  0
LINE
  5
11A3
330
107D
100
AcDbEntity
  8
0
 62
     0
100
AcDbLine
 10
45.60870856267086
 20
18.26291401513577
 30
0.0
 11
50.59579441582383
 21
23.24999986828868
 31
0.0
  0
LINE
  5
11A4
330
107D
100
AcDbEntity
  8
0
 62
     0
100
AcDbLine
 10
35.48107190773396
 20
8.13527736019887
 30
0.0
 11
37.609071907734
 21
10.26327736019891
 31
0.0
  0
LINE
  5
11A5
330
107D
100
AcDbEntity
  8
0
 62
     0
100
AcDbLine
 10
40.69221216833722
 20
14.2444432329089
 30
0.0
 11
43.49221216833718
 21
17.04444323290891
 31
0.0
  0
LINE
  5
11A6
330
107D
100
AcDbEntity
  8
0
 62
     0
100
AcDbLine
 10
45.59221216833726
 20
19.14444323290899
 30
0.0
 11
49.69776880371694
 21
23.24999986828868
 31
0.0
  0
LINE
  5
11A7
330
107D
100
AcDbEntity
  8
0
 62
     0
100
AcDbLine
 10
35.26554576082833
 20
8.817776825400073
 30
0.0
 11
37.39354576082843
 21
10.94577682540011
 31
0.0
  0
LINE
  5
11A8
330
107D
100
AcDbEntity
  8
0
 62
     0
100
AcDbLine
 10
40.69221216833727
 20
15.14246884501591
 30
0.0
 11
43.49221216833718
 21
17.94246884501581
 31
0.0
  0
LINE
  5
11A9
330
107D
100
AcDbEntity
  8
0
 62
     0
100
AcDbLine
 10
45.59221216833726
 20
20.04246884501589
 30
0.0
 11
48.79974319161004
 21
23.24999986828868
 31
0.0
  0
LINE
  5
11AA
330
107D
100
AcDbEntity
  8
0
 62
     0
100
AcDbLine
 10
35.05001961392264
 20
9.500276290601334
 30
0.0
 11
37.1780196139228
 21
11.62827629060149
 31
0.0
  0
LINE
  5
11AB
330
107D
100
AcDbEntity
  8
0
 62
     0
100
AcDbLine
 10
40.69221216833722
 20
16.04049445712286
 30
0.0
 11
43.49221216833723
 21
18.84049445712281
 31
0.0
  0
LINE
  5
11AC
330
107D
100
AcDbEntity
  8
0
 62
     0
100
AcDbLine
 10
34.83449346701695
 20
10.18277575580259
 30
0.0
 11
36.96249346701705
 21
12.31077575580263
 31
0.0
  0
LINE
  5
11AD
330
107D
100
AcDbEntity
  8
0
 62
     0
100
AcDbLine
 10
45.6455288384584
 20
20.99381112724404
 30
0.0
 11
47.84840090938172
 21
23.19668319816736
 31
0.0
  0
LINE
  5
11AE
330
107D
100
AcDbEntity
  8
0
 62
     0
100
AcDbLine
 10
31.80171757950296
 20
7.149999868288603
 30
0.0
 11
32.64221216833715
 21
7.990494457122792
 31
0.0
  0
LINE
  5
11AF
330
107D
100
AcDbEntity
  8
0
 62
     0
100
AcDbLine
 10
34.61896732011144
 20
10.86527522100391
 30
0.0
 11
36.74696732011142
 21
12.99327522100389
 31
0.0
  0
LINE
  5
11B0
330
107D
100
AcDbEntity
  8
0
 62
     0
100
AcDbLine
 10
40.69221216833727
 20
16.93852006922969
 30
0.0
 11
43.49221216833723
 21
19.7385200692297
 31
0.0
  0
LINE
  5
11B1
330
107D
100
AcDbEntity
  8
0
 62
     0
100
AcDbLine
 10
30.90369196739612
 20
7.149999868288546
 30
0.0
 11
32.64221216833727
 21
8.888520069229741
 31
0.0
  0
LINE
  5
11B2
330
107D
100
AcDbEntity
  8
0
 62
     0
100
AcDbLine
 10
34.40344117320569
 20
11.54777468620505
 30
0.0
 11
36.53144117320573
 21
13.67577468620515
 31
0.0
  0
LINE
  5
11B3
330
107D
100
AcDbEntity
  8
0
 62
     0
100
AcDbLine
 10
40.69221216833722
 20
17.83654568133664
 30
0.0
 11
43.49221216833723
 21
20.6365456813366
 31
0.0
  0
LINE
  5
11B4
330
107D
100
AcDbEntity
  8
0
 62
     0
100
AcDbLine
 10
30.08681610294047
 20
7.231149615939898
 30
0.0
 11
32.64221216833727
 21
9.78654568133669
 31
0.0
  0
LINE
  5
11B5
330
107D
100
AcDbEntity
  8
0
 62
     0
100
AcDbLine
 10
34.1879150263
 20
12.23027415140632
 30
0.0
 11
36.31591502630004
 21
14.35827415140642
 31
0.0
  0
LINE
  5
11B6
330
107D
100
AcDbEntity
  8
0
 62
     0
100
AcDbLine
 10
40.69221216833722
 20
18.73457129344359
 30
0.0
 11
43.49221216833718
 21
21.53457129344354
 31
0.0
  0
LINE
  5
11B7
330
107D
100
AcDbEntity
  8
0
 62
     0
100
AcDbLine
 10
29.8422121683372
 20
7.884571293443514
 30
0.0
 11
32.64221216833727
 21
10.68457129344358
 31
0.0
  0
LINE
  5
11B8
330
107D
100
AcDbEntity
  8
0
 62
     0
100
AcDbLine
 10
33.97238887939437
 20
12.91277361660752
 30
0.0
 11
36.10038887939452
 21
15.04077361660768
 31
0.0
  0
LINE
  5
11B9
330
107D
100
AcDbEntity
  8
0
 62
     0
100
AcDbLine
 10
40.69221216833727
 20
19.63259690555043
 30
0.0
 11
43.49221216833723
 21
22.43259690555043
 31
0.0
  0
LINE
  5
11BA
330
107D
100
AcDbEntity
  8
0
 62
     0
100
AcDbLine
 10
29.8422121683372
 20
8.782596905550406
 30
0.0
 11
32.64221216833727
 21
11.58259690555047
 31
0.0
  0
LINE
  5
11BB
330
107D
100
AcDbEntity
  8
0
 62
     0
100
AcDbLine
 10
33.73759009242263
 20
13.57600044174279
 30
0.0
 11
36.36788416035352
 21
16.20629450967368
 31
0.0
  0
LINE
  5
11BC
330
107D
100
AcDbEntity
  8
0
 62
     0
100
AcDbLine
 10
40.69221216833722
 20
20.53062251765737
 30
0.0
 11
43.29593674583878
 21
23.13434709515888
 31
0.0
  0
LINE
  5
11BD
330
107D
100
AcDbEntity
  8
0
 62
     0
100
AcDbLine
 10
29.8422121683372
 20
9.680622517657354
 30
0.0
 11
32.64221216833727
 21
12.48062251765736
 31
0.0
  0
LINE
  5
11BE
330
107D
100
AcDbEntity
  8
0
 62
     0
100
AcDbLine
 10
33.05040472255524
 20
13.78684068398234
 30
0.0
 11
36.78235751978752
 21
17.51879348121462
 31
0.0
  0
LINE
  5
11BF
330
107D
100
AcDbEntity
  8
0
 62
     0
100
AcDbLine
 10
29.8422121683372
 20
10.57864812976424
 30
0.0
 11
32.6553713526435
 21
13.39180731407054
 31
0.0
  0
LINE
  5
11C0
330
107D
100
AcDbEntity
  8
0
 62
     0
100
AcDbLine
 10
40.69221216833722
 20
21.42864812976426
 30
0.0
 11
42.51356390686157
 21
23.24999986828868
 31
0.0
  0
LINE
  5
11C1
330
107D
100
AcDbEntity
  8
0
 62
     0
100
AcDbLine
 10
26.41356390686155
 20
7.149999868288603
 30
0.0
 11
27.39221216833721
 21
8.128648129764314
 31
0.0
  0
LINE
  5
11C2
330
107D
100
AcDbEntity
  8
0
 62
     0
100
AcDbLine
 10
29.84221216833714
 20
11.47667374187119
 30
0.0
 11
37.19683087922146
 21
18.83129245275552
 31
0.0
  0
LINE
  5
11C3
330
107D
100
AcDbEntity
  8
0
 62
     0
100
AcDbLine
 10
40.69221216833716
 20
22.32667374187121
 30
0.0
 11
41.61553829475457
 21
23.24999986828862
 31
0.0
  0
LINE
  5
11C4
330
107D
100
AcDbEntity
  8
0
 62
     0
100
AcDbLine
 10
25.5155382947546
 20
7.149999868288659
 30
0.0
 11
27.39221216833726
 21
9.02667374187132
 31
0.0
  0
LINE
  5
11C5
330
107D
100
AcDbEntity
  8
0
 62
     0
100
AcDbLine
 10
29.8422121683372
 20
12.37469935397803
 30
0.0
 11
37.61130423865557
 21
20.14379142429646
 31
0.0
  0
LINE
  5
11C6
330
107D
100
AcDbEntity
  8
0
 62
     0
100
AcDbLine
 10
24.62919330699782
 20
7.161680492638708
 30
0.0
 11
27.25087788473103
 21
9.783365070371871
 31
0.0
  0
LINE
  5
11C7
330
107D
100
AcDbEntity
  8
0
 62
     0
100
AcDbLine
 10
29.84221216833714
 20
13.27272496608498
 30
0.0
 11
33.16948707054081
 21
16.59999986828864
 31
0.0
  0
LINE
  5
11C8
330
107D
100
AcDbEntity
  8
0
 62
     0
100
AcDbLine
 10
33.93346990578169
 20
17.36398270352952
 30
0.0
 11
38.02577759808952
 21
21.45629039583735
 31
0.0
  0
LINE
  5
11C9
330
107D
100
AcDbEntity
  8
0
 62
     0
100
AcDbLine
 10
23.86103278955084
 20
7.291545587298628
 30
0.0
 11
26.51948707054077
 21
9.949999868288614
 31
0.0
  0
LINE
  5
11CA
330
107D
100
AcDbEntity
  8
0
 62
     0
100
AcDbLine
 10
29.84221216833714
 20
14.17075057819192
 30
0.0
 11
32.66020273904547
 21
16.9887411489002
 31
0.0
  0
LINE
  5
11CB
330
107D
100
AcDbEntity
  8
0
 62
     0
100
AcDbLine
 10
34.34794326521563
 20
18.67648167507036
 30
0.0
 11
38.40084904989083
 21
22.72938745974562
 31
0.0
  0
LINE
  5
11CC
330
107D
100
AcDbEntity
  8
0
 62
     0
100
AcDbLine
 10
23.19989853272443
 20
7.528436942579219
 30
0.0
 11
25.62146145843388
 21
9.949999868288614
 31
0.0
  0
LINE
  5
11CD
330
107D
100
AcDbEntity
  8
0
 62
     0
100
AcDbLine
 10
29.8422121683372
 20
15.06877619029876
 30
0.0
 11
32.64221216833732
 21
17.86877619029888
 31
0.0
  0
LINE
  5
11CE
330
107D
100
AcDbEntity
  8
0
 62
     0
100
AcDbLine
 10
34.76241662464957
 20
19.98898064661119
 30
0.0
 11
38.00683717732164
 21
23.23340119928326
 31
0.0
  0
LINE
  5
11CF
330
107D
100
AcDbEntity
  8
0
 62
     0
100
AcDbLine
 10
22.62229524856013
 20
7.8488592705217
 30
0.0
 11
24.73835710705299
 21
9.964921129014612
 31
0.0
  0
LINE
  5
11D0
330
107D
100
AcDbEntity
  8
0
 62
     0
100
AcDbLine
 10
29.84221216833714
 20
15.96680180240571
 30
0.0
 11
32.64221216833727
 21
18.76680180240583
 31
0.0
  0
LINE
  5
11D1
330
107D
100
AcDbEntity
  8
0
 62
     0
100
AcDbLine
 10
35.17688998408351
 20
21.30147961815203
 30
0.0
 11
37.12541023422005
 21
23.24999986828862
 31
0.0
  0
LINE
  5
11D2
330
107D
100
AcDbEntity
  8
0
 62
     0
100
AcDbLine
 10
22.11734028217807
 20
8.24192991624659
 30
0.0
 11
24.10404096603468
 21
10.2286306001032
 31
0.0
  0
LINE
  5
11D3
330
107D
100
AcDbEntity
  8
0
 62
     0
100
AcDbLine
 10
29.84221216833714
 20
16.8648274145126
 30
0.0
 11
32.64221216833727
 21
19.66482741451278
 31
0.0
  0
LINE
  5
11D4
330
107D
100
AcDbEntity
  8
0
 62
     0
100
AcDbLine
 10
26.50384630011365
 20
13.52646154628917
 30
0.0
 11
27.66575049033673
 21
14.68836573651225
 31
0.0
  0
LINE
  5
11D5
330
107D
100
AcDbEntity
  8
0
 62
     0
100
AcDbLine
 10
35.5913633435174
 20
22.61397858969292
 30
0.0
 11
36.22738462211311
 21
23.24999986828862
 31
0.0
  0
LINE
  5
11D6
330
107D
100
AcDbEntity
  8
0
 62
     0
100
AcDbLine
 10
21.68090320884823
 20
8.703518455023754
 30
0.0
 11
23.6937900147625
 21
10.71640526093801
 31
0.0
  0
LINE
  5
11D7
330
107D
100
AcDbEntity
  8
0
 62
     0
100
AcDbLine
 10
25.57887345848382
 20
13.49951431676629
 30
0.0
 11
27.6926977198596
 21
15.61333857814202
 31
0.0
  0
LINE
  5
11D8
330
107D
100
AcDbEntity
  8
0
 62
     0
100
AcDbLine
 10
29.8422121683372
 20
17.7628530266196
 30
0.0
 11
32.64221216833727
 21
20.56285302661967
 31
0.0
  0
LINE
  5
11D9
330
107D
100
AcDbEntity
  8
0
 62
     0
100
AcDbLine
 10
21.31388398390527
 20
9.234524842187681
 30
0.0
 11
23.54221216833718
 21
11.46285302661965
 31
0.0
  0
LINE
  5
11DA
330
107D
100
AcDbEntity
  8
0
 62
     0
100
AcDbLine
 10
24.96472688906362
 20
13.78339335945287
 30
0.0
 11
27.40881867717297
 21
16.22748514756227
 31
0.0
  0
LINE
  5
11DB
330
107D
100
AcDbEntity
  8
0
 62
     0
100
AcDbLine
 10
29.8422121683372
 20
18.6608786387265
 30
0.0
 11
32.64221216833727
 21
21.46087863872657
 31
0.0
  0
LINE
  5
11DC
330
107D
100
AcDbEntity
  8
0
 62
     0
100
AcDbLine
 10
21.02256647398053
 20
9.841232944369835
 30
0.0
 11
23.54221216833718
 21
12.36087863872649
 31
0.0
  0
LINE
  5
11DD
330
107D
100
AcDbEntity
  8
0
 62
     0
100
AcDbLine
 10
24.5267669620739
 20
14.24345904457015
 30
0.0
 11
26.94875299205574
 21
16.66544507455194
 31
0.0
  0
LINE
  5
11DE
330
107D
100
AcDbEntity
  8
0
 62
     0
100
AcDbLine
 10
29.8422121683372
 20
19.55890425083345
 30
0.0
 11
32.64221216833727
 21
22.35890425083346
 31
0.0
  0
LINE
  5
11DF
330
107D
100
AcDbEntity
  8
0
 62
     0
100
AcDbLine
 10
20.82142910980587
 20
10.53812119230212
 30
0.0
 11
23.54221216833718
 21
13.25890425083343
 31
0.0
  0
LINE
  5
11E0
330
107D
100
AcDbEntity
  8
0
 62
     0
100
AcDbLine
 10
24.27071622966554
 20
14.88543392426868
 30
0.0
 11
26.30677811235716
 21
16.92149580696036
 31
0.0
  0
LINE
  5
11E1
330
107D
100
AcDbEntity
  8
0
 62
     0
100
AcDbLine
 10
20.74221216833711
 20
11.35692986294031
 30
0.0
 11
23.54221216833718
 21
14.15692986294033
 31
0.0
  0
LINE
  5
11E2
330
107D
100
AcDbEntity
  8
0
 62
     0
100
AcDbLine
 10
29.8422121683372
 20
20.45692986294034
 30
0.0
 11
32.48496205998208
 21
23.09967975458528
 31
0.0
  0
LINE
  5
11E3
330
107D
100
AcDbEntity
  8
0
 62
     0
100
AcDbLine
 10
16.65621541046152
 20
7.270933105064727
 30
0.0
 11
18.52127893156125
 21
9.135996626164455
 31
0.0
  0
LINE
  5
11E4
330
107D
100
AcDbEntity
  8
0
 62
     0
100
AcDbLine
 10
24.38912931314632
 20
15.90187261985636
 30
0.0
 11
25.29033941676954
 21
16.80308272347957
 31
0.0
  0
LINE
  5
11E5
330
107D
100
AcDbEntity
  8
0
 62
     0
100
AcDbLine
 10
20.74221216833711
 20
12.25495547504715
 30
0.0
 11
23.54221216833729
 21
15.05495547504728
 31
0.0
  0
LINE
  5
11E6
330
107D
100
AcDbEntity
  8
0
 62
     0
100
AcDbLine
 10
29.8422121683372
 20
21.35495547504723
 30
0.0
 11
31.73725656157859
 21
23.24999986828862
 31
0.0
  0
LINE
  5
11E7
330
107D
100
AcDbEntity
  8
0
 62
     0
100
AcDbLine
 10
15.63725656157856
 20
7.149999868288603
 30
0.0
 11
18.64221216833732
 21
10.1549554750473
 31
0.0
  0
LINE
  5
11E8
330
107D
100
AcDbEntity
  8
0
 62
     0
100
AcDbLine
 10
20.74221216833711
 20
13.1529810871541
 30
0.0
 11
23.54221216833724
 21
15.95298108715422
 31
0.0
  0
LINE
  5
11E9
330
107D
100
AcDbEntity
  8
0
 62
     0
100
AcDbLine
 10
29.8422121683372
 20
22.25298108715412
 30
0.0
 11
30.8392309494717
 21
23.24999986828868
 31
0.0
  0
LINE
  5
11EA
330
107D
100
AcDbEntity
  8
0
 62
     0
100
AcDbLine
 10
14.73923094947156
 20
7.149999868288546
 30
0.0
 11
18.64221216833726
 21
11.05298108715425
 31
0.0
  0
LINE
  5
11EB
330
107D
100
AcDbEntity
  8
0
 62
     0
100
AcDbLine
 10
20.74221216833711
 20
14.05100669926099
 30
0.0
 11
23.54221216833724
 21
16.85100669926117
 31
0.0
  0
LINE
  5
11EC
330
107D
100
AcDbEntity
  8
0
 62
     0
100
AcDbLine
 10
13.84120533736472
 20
7.149999868288659
 30
0.0
 11
18.63827281577601
 21
11.94706734669995
 31
0.0
  0
LINE
  5
11ED
330
107D
100
AcDbEntity
  8
0
 62
     0
100
AcDbLine
 10
20.74221216833711
 20
14.94903231136794
 30
0.0
 11
23.54221216833724
 21
17.74903231136806
 31
0.0
  0
LINE
  5
11EE
330
107D
100
AcDbEntity
  8
0
 62
     0
100
AcDbLine
 10
26.2431797252579
 20
20.44999986828873
 30
0.0
 11
27.39221216833732
 21
21.59903231136814
 31
0.0
  0
LINE
  5
11EF
330
107D
100
AcDbEntity
  8
0
 62
     0
100
AcDbLine
 10
12.94317972525777
 20
7.149999868288603
 30
0.0
 11
18.52861097945469
 21
12.73543112248552
 31
0.0
  0
LINE
  5
11F0
330
107D
100
AcDbEntity
  8
0
 62
     0
100
AcDbLine
 10
20.74221216833711
 20
15.84705792347483
 30
0.0
 11
23.54221216833724
 21
18.64705792347496
 31
0.0
  0
LINE
  5
11F1
330
107D
100
AcDbEntity
  8
0
 62
     0
100
AcDbLine
 10
15.8422121683372
 20
10.94705792347491
 30
0.0
 11
18.30627223541057
 21
13.41111799054829
 31
0.0
  0
LINE
  5
11F2
330
107D
100
AcDbEntity
  8
0
 62
     0
100
AcDbLine
 10
25.34515411315089
 20
20.44999986828861
 30
0.0
 11
27.39221216833732
 21
22.49705792347498
 31
0.0
  0
LINE
  5
11F3
330
107D
100
AcDbEntity
  8
0
 62
     0
100
AcDbLine
 10
12.10287998841084
 20
7.207725743548564
 30
0.0
 11
14.84515411315089
 21
9.949999868288614
 31
0.0
  0
LINE
  5
11F4
330
107D
100
AcDbEntity
  8
0
 62
     0
100
AcDbLine
 10
20.74221216833706
 20
16.74508353558172
 30
0.0
 11
23.70802687411685
 21
19.71089824136152
 31
0.0
  0
LINE
  5
11F5
330
107D
100
AcDbEntity
  8
0
 62
     0
100
AcDbLine
 10
15.84005307672794
 20
11.84292444397254
 30
0.0
 11
17.99784070073854
 21
14.00071206798321
 31
0.0
  0
LINE
  5
11F6
330
107D
100
AcDbEntity
  8
0
 62
     0
100
AcDbLine
 10
24.28131379526439
 20
20.28418516250906
 30
0.0
 11
27.1587447534174
 21
23.16161612066201
 31
0.0
  0
LINE
  5
11F7
330
107D
100
AcDbEntity
  8
0
 62
     0
100
AcDbLine
 10
11.81721216833722
 20
7.820083535581829
 30
0.0
 11
13.947128501044
 21
9.949999868288614
 31
0.0
  0
LINE
  5
11F8
330
107D
100
AcDbEntity
  8
0
 62
     0
100
AcDbLine
 10
15.62045005722723
 20
12.52134703657884
 30
0.0
 11
17.61559873589965
 21
14.51649571525126
 31
0.0
  0
LINE
  5
11F9
330
107D
100
AcDbEntity
  8
0
 62
     0
100
AcDbLine
 10
20.74221216833706
 20
17.64310914768867
 30
0.0
 11
26.34910288893701
 21
23.24999986828862
 31
0.0
  0
LINE
  5
11FA
330
107D
100
AcDbEntity
  8
0
 62
     0
100
AcDbLine
 10
11.81721216833716
 20
8.718109147688778
 30
0.0
 11
13.04910288893705
 21
9.949999868288671
 31
0.0
  0
LINE
  5
11FB
330
107D
100
AcDbEntity
  8
0
 62
     0
100
AcDbLine
 10
15.19419522892252
 20
12.99311782038097
 30
0.0
 11
17.17409421624489
 21
14.97301680770334
 31
0.0
  0
LINE
  5
11FC
330
107D
100
AcDbEntity
  8
0
 62
     0
100
AcDbLine
 10
20.74221216833711
 20
18.54113475979551
 30
0.0
 11
25.45107727683006
 21
23.24999986828851
 31
0.0
  0
LINE
  5
11FD
330
107D
100
AcDbEntity
  8
0
 62
     0
100
AcDbLine
 10
11.88616409035694
 20
9.685086681815391
 30
0.0
 11
12.08212535481055
 21
9.881047946269006
 31
0.0
  0
LINE
  5
11FE
330
107D
100
AcDbEntity
  8
0
 62
     0
100
AcDbLine
 10
20.7621872824937
 20
19.45913548605903
 30
0.0
 11
24.5330765505667
 21
23.2300247541321
 31
0.0
  0
LINE
  5
11FF
330
107D
100
AcDbEntity
  8
0
 62
     0
100
AcDbLine
 10
14.74518242286904
 20
13.44213062643444
 30
0.0
 11
16.72508141019142
 21
15.42202961375681
 31
0.0
  0
LINE
  5
1200
330
107D
100
AcDbEntity
  8
0
 62
     0
100
AcDbLine
 10
21.06165071475948
 20
20.65662453043182
 30
0.0
 11
23.33558750619397
 21
22.93056132186632
 31
0.0
  0
LINE
  5
1201
330
107D
100
AcDbEntity
  8
0
 62
     0
100
AcDbLine
 10
14.29616961681557
 20
13.89114343248792
 30
0.0
 11
16.27606860413794
 21
15.87104241981029
 31
0.0
  0
LINE
  5
1202
330
107D
100
AcDbEntity
  8
0
 62
     0
100
AcDbLine
 10
13.84715681076215
 20
14.34015623854134
 30
0.0
 11
15.82705579808447
 21
16.32005522586359
 31
0.0
  0
LINE
  5
1203
330
107D
100
AcDbEntity
  8
0
 62
     0
100
AcDbLine
 10
13.39814400470868
 20
14.78916904459481
 30
0.0
 11
15.378042992031
 21
16.76906803191707
 31
0.0
  0
LINE
  5
1204
330
107D
100
AcDbEntity
  8
0
 62
     0
100
AcDbLine
 10
12.94913119865521
 20
15.23818185064828
 30
0.0
 11
14.92903018597752
 21
17.21808083797054
 31
0.0
  0
LINE
  5
1205
330
107D
100
AcDbEntity
  8
0
 62
     0
100
AcDbLine
 10
17.26292360418864
 20
20.44999986828861
 30
0.0
 11
18.11721216833712
 21
21.30428843243714
 31
0.0
  0
LINE
  5
1206
330
107D
100
AcDbEntity
  8
0
 62
     0
100
AcDbLine
 10
12.50020170662986
 20
15.68727797072989
 30
0.0
 11
14.48026735006232
 21
17.66734361416235
 31
0.0
  0
LINE
  5
1207
330
107D
100
AcDbEntity
  8
0
 62
     0
100
AcDbLine
 10
16.36489799208175
 20
20.44999986828861
 30
0.0
 11
18.11721216833717
 21
22.20231404454403
 31
0.0
  0
LINE
  5
1208
330
107D
100
AcDbEntity
  8
0
 62
     0
100
AcDbLine
 10
12.08873378207829
 20
16.1738356582851
 30
0.0
 11
14.15037046877438
 21
18.23547234498124
 31
0.0
  0
LINE
  5
1209
330
107D
100
AcDbEntity
  8
0
 62
     0
100
AcDbLine
 10
15.4668723799748
 20
20.44999986828861
 30
0.0
 11
18.03065326857603
 21
23.01378075688984
 31
0.0
  0
LINE
  5
120A
330
107D
100
AcDbEntity
  8
0
 62
     0
100
AcDbLine
 10
11.74827317581582
 20
16.73140066412958
 30
0.0
 11
14.09221216833725
 21
19.07533965665101
 31
0.0
  0
LINE
  5
120B
330
107D
100
AcDbEntity
  8
0
 62
     0
100
AcDbLine
 10
14.56638011869779
 20
20.44753321911849
 30
0.0
 11
17.36884676786786
 21
23.24999986828862
 31
0.0
  0
LINE
  5
120C
330
107D
100
AcDbEntity
  8
0
 62
     0
100
AcDbLine
 10
11.48757988008372
 20
17.36873298050443
 30
0.0
 11
14.09467881750731
 21
19.97583191792807
 31
0.0
  0
LINE
  5
120D
330
107D
100
AcDbEntity
  8
0
 62
     0
100
AcDbLine
 10
11.32576791783566
 20
18.10494663036325
 30
0.0
 11
16.47082115576103
 21
23.24999986828856
 31
0.0
  0
LINE
  5
120E
330
107D
100
AcDbEntity
  8
0
 62
     0
100
AcDbLine
 10
11.29221216833724
 20
18.96941649297178
 30
0.0
 11
15.57279554365408
 21
23.24999986828862
 31
0.0
  0
LINE
  5
120F
330
107D
100
AcDbEntity
  8
0
 62
     0
100
AcDbLine
 10
11.29221216833724
 20
19.86744210507868
 30
0.0
 11
14.67476993154713
 21
23.24999986828862
 31
0.0
  0
LINE
  5
1210
330
107D
100
AcDbEntity
  8
0
 62
     0
100
AcDbLine
 10
11.31240417877546
 20
20.78565972762385
 30
0.0
 11
13.75655230900207
 21
23.22980785785046
 31
0.0
  0
ENDBLK
  5
1212
330
107D
100
AcDbEntity
  8
0
100
AcDbBlockEnd
  0
BLOCK
  5
12EB
330
12E1
100
AcDbEntity
  8
0
100
AcDbBlockBegin
  2
*D2
 70
     1
 10
0.0
 20
0.0
 30
0.0
  3
*D2
  1

  0
LINE
  5
1729
330
12E1
100
AcDbEntity
  8
SUNPOU
100
AcDbLine
 10
329.0399877301329
 20
224.3114349598869
 30
0.0
 11
329.0399877301329
 21
262.0424706463145
 31
0.0
  0
LINE
  5
172A
330
12E1
100
AcDbEntity
  8
SUNPOU
100
AcDbLine
 10
199.039987730133
 20
224.3114349598869
 30
0.0
 11
199.039987730133
 21
262.0424706463145
 31
0.0
  0
LINE
  5
172B
330
12E1
100
AcDbEntity
  8
SUNPOU
100
AcDbLine
 10
322.0399877301329
 20
259.0424706463145
 30
0.0
 11
206.039987730133
 21
259.0424706463145
 31
0.0
  0
INSERT
  5
172C
330
12E1
100
AcDbEntity
  8
SUNPOU
100
AcDbBlockReference
  2
_OPEN
 10
329.0399877301329
 20
259.0424706463145
 30
0.0
 41
7.0
 42
7.0
 43
7.0
  0
INSERT
  5
172D
330
12E1
100
AcDbEntity
  8
SUNPOU
100
AcDbBlockReference
  2
_OPEN
 10
199.039987730133
 20
259.0424706463145
 30
0.0
 41
7.0
 42
7.0
 43
7.0
 50
180.0
  0
MTEXT
  5
172E
330
12E1
100
AcDbEntity
  8
SUNPOU
100
AcDbMText
 10
264.0399877301329
 20
264.0424706463145
 30
0.0
 40
6.0
 41
0.0
 71
     5
 72
     1
  1
\A1;130
1001
ACAD
1000
MTEXTBEGIN
1070
    73
1070
     1
1070
    44
1040
1.0
1070
    74
1070
     0
1000
MTEXTEND
1000
MTEXTBEGIN
1070
    73
1070
     1
1070
    44
1040
1.0
1070
    74
1070
     0
1000
MTEXTEND
1000
MTEXTBEGIN
1070
    73
1070
     1
1070
    44
1040
1.0
1070
    74
1070
     0
1000
MTEXTEND
  0
POINT
  5
172F
330
12E1
100
AcDbEntity
  8
DEFPOINTS
 62
     0
100
AcDbPoint
 10
329.0399877301329
 20
218.3114349598869
 30
0.0
  0
POINT
  5
1730
330
12E1
100
AcDbEntity
  8
DEFPOINTS
 62
     0
100
AcDbPoint
 10
199.039987730133
 20
218.311434959887
 30
0.0
  0
POINT
  5
1731
330
12E1
100
AcDbEntity
  8
DEFPOINTS
 62
     0
100
AcDbPoint
 10
199.039987730133
 20
259.0424706463145
 30
0.0
  0
ENDBLK
  5
12EC
330
12E1
100
AcDbEntity
  8
0
100
AcDbBlockEnd
  0
BLOCK
  5
12F8
330
12EE
100
AcDbEntity
  8
0
100
AcDbBlockBegin
  2
*D3
 70
     1
 10
0.0
 20
0.0
 30
0.0
  3
*D3
  1

  0
LINE
  5
1732
330
12EE
100
AcDbEntity
  8
SUNPOU
100
AcDbLine
 10
420.4193940624179
 20
224.8098621505434
 30
0.0
 11
382.7976660877275
 21
224.8098621505434
 31
0.0
  0
LINE
  5
1733
330
12EE
100
AcDbEntity
  8
SUNPOU
100
AcDbLine
 10
482.1187571676122
 20
106.4117242441714
 30
0.0
 11
382.7976660877274
 21
106.4117242441714
 31
0.0
  0
LINE
  5
1734
330
12EE
100
AcDbEntity
  8
SUNPOU
100
AcDbLine
 10
385.7976660877275
 20
217.8098621505434
 30
0.0
 11
385.7976660877274
 21
113.4117242441714
 31
0.0
  0
INSERT
  5
1735
330
12EE
100
AcDbEntity
  8
SUNPOU
100
AcDbBlockReference
  2
_OPEN
 10
385.7976660877275
 20
224.8098621505434
 30
0.0
 41
7.0
 42
7.0
 43
7.0
 50
90.0
  0
INSERT
  5
1736
330
12EE
100
AcDbEntity
  8
SUNPOU
100
AcDbBlockReference
  2
_OPEN
 10
385.7976660877274
 20
106.4117242441714
 30
0.0
 41
7.0
 42
7.0
 43
7.0
 50
270.0
  0
MTEXT
  5
1737
330
12EE
100
AcDbEntity
  8
SUNPOU
100
AcDbMText
 10
380.7976660877274
 20
165.6107931973575
 30
0.0
 40
6.0
 41
0.0
 71
     5
 72
     1
  1
\A1;118
 11
0.0000000000000001
 21
1.0
 31
0.0
1001
ACAD
1000
MTEXTBEGIN
1070
    73
1070
     1
1070
    44
1040
1.0
1070
    74
1070
     0
1000
MTEXTEND
1000
MTEXTBEGIN
1070
    73
1070
     1
1070
    44
1040
1.0
1070
    74
1070
     0
1000
MTEXTEND
1000
MTEXTBEGIN
1070
    73
1070
     1
1070
    44
1040
1.0
1070
    74
1070
     0
1000
MTEXTEND
  0
POINT
  5
1738
330
12EE
100
AcDbEntity
  8
DEFPOINTS
 62
     0
100
AcDbPoint
 10
426.419394062418
 20
224.8098621505434
 30
0.0
  0
POINT
  5
1739
330
12EE
100
AcDbEntity
  8
DEFPOINTS
 62
     0
100
AcDbPoint
 10
488.1187571676123
 20
106.4117242441714
 30
0.0
  0
POINT
  5
173A
330
12EE
100
AcDbEntity
  8
DEFPOINTS
 62
     0
100
AcDbPoint
 10
385.7976660877274
 20
106.4117242441714
 30
0.0
  0
ENDBLK
  5
12F9
330
12EE
100
AcDbEntity
  8
0
100
AcDbBlockEnd
  0
BLOCK
  5
1305
330
12FB
100
AcDbEntity
  8
0
100
AcDbBlockBegin
  2
*D4
 70
     1
 10
0.0
 20
0.0
 30
0.0
  3
*D4
  1

  0
LINE
  5
173B
330
12FB
100
AcDbEntity
  8
SUNPOU
100
AcDbLine
 10
425.1693940624177
 20
230.3098621505434
 30
0.0
 11
425.1693940624177
 21
262.0424706463145
 31
0.0
  0
LINE
  5
173C
330
12FB
100
AcDbEntity
  8
SUNPOU
100
AcDbLine
 10
546.7558467148998
 20
179.1842417366925
 30
0.0
 11
546.7558467148998
 21
262.0424706463145
 31
0.0
  0
LINE
  5
173D
330
12FB
100
AcDbEntity
  8
SUNPOU
100
AcDbLine
 10
432.1693940624177
 20
259.0424706463145
 30
0.0
 11
539.7558467148997
 21
259.0424706463145
 31
0.0
  0
INSERT
  5
173E
330
12FB
100
AcDbEntity
  8
SUNPOU
100
AcDbBlockReference
  2
_OPEN
 10
425.1693940624177
 20
259.0424706463145
 30
0.0
 41
7.0
 42
7.0
 43
7.0
 50
180.0
  0
INSERT
  5
173F
330
12FB
100
AcDbEntity
  8
SUNPOU
100
AcDbBlockReference
  2
_OPEN
 10
546.7558467148998
 20
259.0424706463145
 30
0.0
 41
7.0
 42
7.0
 43
7.0
  0
MTEXT
  5
1740
330
12FB
100
AcDbEntity
  8
SUNPOU
100
AcDbMText
 10
485.9626203886588
 20
264.0424706463145
 30
0.0
 40
6.0
 41
0.0
 71
     5
 72
     1
  1
\A1;122
1001
ACAD
1000
MTEXTBEGIN
1070
    73
1070
     1
1070
    44
1040
1.0
1070
    74
1070
     0
1000
MTEXTEND
1000
MTEXTBEGIN
1070
    73
1070
     1
1070
    44
1040
1.0
1070
    74
1070
     0
1000
MTEXTEND
1000
MTEXTBEGIN
1070
    73
1070
     1
1070
    44
1040
1.0
1070
    74
1070
     0
1000
MTEXTEND
  0
POINT
  5
1741
330
12FB
100
AcDbEntity
  8
DEFPOINTS
 62
     0
100
AcDbPoint
 10
425.1693940624177
 20
224.3098621505434
 30
0.0
  0
POINT
  5
1742
330
12FB
100
AcDbEntity
  8
DEFPOINTS
 62
     0
100
AcDbPoint
 10
546.7558467148998
 20
173.1842417366925
 30
0.0
  0
POINT
  5
1743
330
12FB
100
AcDbEntity
  8
DEFPOINTS
 62
     0
100
AcDbPoint
 10
546.7558467148998
 20
259.0424706463145
 30
0.0
  0
ENDBLK
  5
1306
330
12FB
100
AcDbEntity
  8
0
100
AcDbBlockEnd
  0
BLOCK
  5
132D
330
1323
100
AcDbEntity
  8
0
100
AcDbBlockBegin
  2
*D5
 70
     1
 10
0.0
 20
0.0
 30
0.0
  3
*D5
  1

  0
LINE
  5
1744
330
1323
100
AcDbEntity
  8
SUNPOU
100
AcDbLine
 10
552.2558467148996
 20
173.6842417366927
 30
0.0
 11
585.8936428757506
 21
173.6842417366926
 31
0.0
  0
LINE
  5
1745
330
1323
100
AcDbEntity
  8
SUNPOU
100
AcDbLine
 10
494.879394062418
 20
106.4114349598867
 30
0.0
 11
585.8936428757506
 21
106.4114349598866
 31
0.0
  0
LINE
  5
1746
330
1323
100
AcDbEntity
  8
SUNPOU
100
AcDbLine
 10
582.8936428757506
 20
166.6842417366926
 30
0.0
 11
582.8936428757506
 21
113.4114349598867
 31
0.0
  0
INSERT
  5
1747
330
1323
100
AcDbEntity
  8
SUNPOU
100
AcDbBlockReference
  2
_OPEN
 10
582.8936428757506
 20
173.6842417366926
 30
0.0
 41
7.0
 42
7.0
 43
7.0
 50
90.0
  0
INSERT
  5
1748
330
1323
100
AcDbEntity
  8
SUNPOU
100
AcDbBlockReference
  2
_OPEN
 10
582.8936428757506
 20
106.4114349598866
 30
0.0
 41
7.0
 42
7.0
 43
7.0
 50
270.0
  0
MTEXT
  5
1749
330
1323
100
AcDbEntity
  8
SUNPOU
100
AcDbMText
 10
577.8936428757506
 20
140.0478383482897
 30
0.0
 40
6.0
 41
0.0
 71
     5
 72
     1
  1
\A1;67
 11
0.0000000000000001
 21
1.0
 31
0.0
1001
ACAD
1000
MTEXTBEGIN
1070
    73
1070
     1
1070
    44
1040
1.0
1070
    74
1070
     0
1000
MTEXTEND
1000
MTEXTBEGIN
1070
    73
1070
     1
1070
    44
1040
1.0
1070
    74
1070
     0
1000
MTEXTEND
1000
MTEXTBEGIN
1070
    73
1070
     1
1070
    44
1040
1.0
1070
    74
1070
     0
1000
MTEXTEND
  0
POINT
  5
174A
330
1323
100
AcDbEntity
  8
DEFPOINTS
 62
     0
100
AcDbPoint
 10
546.2558467148997
 20
173.6842417366927
 30
0.0
  0
POINT
  5
174B
330
1323
100
AcDbEntity
  8
DEFPOINTS
 62
     0
100
AcDbPoint
 10
488.879394062418
 20
106.4114349598867
 30
0.0
  0
POINT
  5
174C
330
1323
100
AcDbEntity
  8
DEFPOINTS
 62
     0
100
AcDbPoint
 10
582.8936428757506
 20
106.4114349598866
 30
0.0
  0
ENDBLK
  5
132E
330
1323
100
AcDbEntity
  8
0
100
AcDbBlockEnd
  0
ENDSEC
  0
SECTION
  2
ENTITIES
  0
TEXT
  5
479
330
1A
100
AcDbEntity
  8
SUNPOU
 62
     4
100
AcDbText
 10
684.8705355682746
 20
37.65718762322844
 30
0.0
 40
6.0
  1
※　のきといの差込み寸法を示す
100
AcDbText
  0
LINE
  5
832
330
1A
100
AcDbEntity
  8
ZUWAKU
100
AcDbLine
 10
208.646601303624
 20
15.19999986828872
 30
0.0
 11
447.4243639845474
 21
15.19999986828871
 31
0.0
  0
LINE
  5
833
330
1A
100
AcDbEntity
  8
ZUWAKU
100
AcDbLine
 10
208.646601303624
 20
15.59999986828871
 30
0.0
 11
447.4243639845474
 21
15.59999986828872
 31
0.0
  0
LINE
  5
834
330
1A
100
AcDbEntity
  8
ZUWAKU
100
AcDbLine
 10
208.646601303624
 20
15.39999986828871
 30
0.0
 11
447.4243639845474
 21
15.39999986828871
 31
0.0
  0
LINE
  5
835
330
1A
100
AcDbEntity
  8
ZUWAKU
100
AcDbLine
 10
0.0000000135560185
 20
30.79999986828869
 30
0.0
 11
797.4000000135559
 21
30.79999986828869
 31
0.0
  0
LINE
  5
836
330
1A
100
AcDbEntity
  8
ZUWAKU
100
AcDbLine
 10
0.0000000135560185
 20
30.59999986828869
 30
0.0
 11
797.4000000135559
 21
30.59999986828869
 31
0.0
  0
LINE
  5
837
330
1A
100
AcDbEntity
  8
ZUWAKU
100
AcDbLine
 10
0.0000000135560185
 20
30.39999986828869
 30
0.0
 11
797.4000000135559
 21
30.39999986828869
 31
0.0
  0
LINE
  5
838
330
1A
100
AcDbEntity
  8
ZUWAKU
100
AcDbLine
 10
0.0000000135560185
 20
30.19999986828868
 30
0.0
 11
797.4000000135559
 21
30.19999986828868
 31
0.0
  0
LINE
  5
839
330
1A
100
AcDbEntity
  8
ZUWAKU
100
AcDbLine
 10
0.0000000135560185
 20
29.99999986828868
 30
0.0
 11
797.4000000135559
 21
29.99999986828868
 31
0.0
  0
POLYLINE
  5
83A
330
1A
100
AcDbEntity
  8
ZUWAKU
100
AcDb2dPolyline
 66
     1
 10
0.0
 20
0.0
 30
0.0
 70
     1
  0
VERTEX
  5
196E
330
83A
100
AcDbEntity
  8
ZUWAKU
100
AcDbVertex
100
AcDb2dVertex
 10
0.2000000135559503
 20
551.3999998682887
 30
0.0
  0
VERTEX
  5
196F
330
83A
100
AcDbEntity
  8
ZUWAKU
100
AcDbVertex
100
AcDb2dVertex
 10
0.2000000135559503
 20
0.1999998682887281
 30
0.0
  0
VERTEX
  5
1970
330
83A
100
AcDbEntity
  8
ZUWAKU
100
AcDbVertex
100
AcDb2dVertex
 10
797.4000000135559
 20
0.1999998682887511
 30
0.0
  0
VERTEX
  5
1971
330
83A
100
AcDbEntity
  8
ZUWAKU
100
AcDbVertex
100
AcDb2dVertex
 10
797.4000000135561
 20
551.3999998682887
 30
0.0
  0
SEQEND
  5
1972
330
83A
100
AcDbEntity
  8
ZUWAKU
  0
POLYLINE
  5
83B
330
1A
100
AcDbEntity
  8
ZUWAKU
100
AcDb2dPolyline
 66
     1
 10
0.0
 20
0.0
 30
0.0
 70
     1
  0
VERTEX
  5
1973
330
83B
100
AcDbEntity
  8
ZUWAKU
100
AcDbVertex
100
AcDb2dVertex
 10
0.6000000135559276
 20
550.9999998682888
 30
0.0
  0
VERTEX
  5
1974
330
83B
100
AcDbEntity
  8
ZUWAKU
100
AcDbVertex
100
AcDb2dVertex
 10
0.6000000135559276
 20
0.5999998682887054
 30
0.0
  0
VERTEX
  5
1975
330
83B
100
AcDbEntity
  8
ZUWAKU
100
AcDbVertex
100
AcDb2dVertex
 10
797.0000000135562
 20
0.5999998682887516
 30
0.0
  0
VERTEX
  5
1976
330
83B
100
AcDbEntity
  8
ZUWAKU
100
AcDbVertex
100
AcDb2dVertex
 10
797.000000013556
 20
550.9999998682888
 30
0.0
  0
SEQEND
  5
1977
330
83B
100
AcDbEntity
  8
ZUWAKU
  0
POLYLINE
  5
83C
330
1A
100
AcDbEntity
  8
ZUWAKU
100
AcDb2dPolyline
 66
     1
 10
0.0
 20
0.0
 30
0.0
 70
     1
  0
VERTEX
  5
1978
330
83C
100
AcDbEntity
  8
ZUWAKU
100
AcDbVertex
100
AcDb2dVertex
 10
0.0000000135560185
 20
551.5999998682887
 30
0.0
  0
VERTEX
  5
1979
330
83C
100
AcDbEntity
  8
ZUWAKU
100
AcDbVertex
100
AcDb2dVertex
 10
0.0000000135560185
 20
-0.0000001317113174
 30
0.0
  0
VERTEX
  5
197A
330
83C
100
AcDbEntity
  8
ZUWAKU
100
AcDbVertex
100
AcDb2dVertex
 10
797.6000000135561
 20
-0.0000001317112499
 30
0.0
  0
VERTEX
  5
197B
330
83C
100
AcDbEntity
  8
ZUWAKU
100
AcDbVertex
100
AcDb2dVertex
 10
797.6000000135561
 20
551.5999998682888
 30
0.0
  0
SEQEND
  5
197C
330
83C
100
AcDbEntity
  8
ZUWAKU
  0
POLYLINE
  5
83D
330
1A
100
AcDbEntity
  8
ZUWAKU
100
AcDb2dPolyline
 66
     1
 10
0.0
 20
0.0
 30
0.0
 70
     1
  0
VERTEX
  5
197D
330
83D
100
AcDbEntity
  8
ZUWAKU
100
AcDbVertex
100
AcDb2dVertex
 10
0.4000000135559958
 20
551.1999998682887
 30
0.0
  0
VERTEX
  5
197E
330
83D
100
AcDbEntity
  8
ZUWAKU
100
AcDbVertex
100
AcDb2dVertex
 10
0.4000000135559958
 20
0.3999998682887735
 30
0.0
  0
VERTEX
  5
197F
330
83D
100
AcDbEntity
  8
ZUWAKU
100
AcDbVertex
100
AcDb2dVertex
 10
797.200000013556
 20
0.3999998682887504
 30
0.0
  0
VERTEX
  5
1980
330
83D
100
AcDbEntity
  8
ZUWAKU
100
AcDbVertex
100
AcDb2dVertex
 10
797.200000013556
 20
551.1999998682887
 30
0.0
  0
SEQEND
  5
1981
330
83D
100
AcDbEntity
  8
ZUWAKU
  0
POLYLINE
  5
83E
330
1A
100
AcDbEntity
  8
ZUWAKU
100
AcDb2dPolyline
 66
     1
 10
0.0
 20
0.0
 30
0.0
 70
     1
  0
VERTEX
  5
1982
330
83E
100
AcDbEntity
  8
ZUWAKU
100
AcDbVertex
100
AcDb2dVertex
 10
0.800000013555973
 20
550.7999998682887
 30
0.0
  0
VERTEX
  5
1983
330
83E
100
AcDbEntity
  8
ZUWAKU
100
AcDbVertex
100
AcDb2dVertex
 10
0.800000013555973
 20
0.7999998682887508
 30
0.0
  0
VERTEX
  5
1984
330
83E
100
AcDbEntity
  8
ZUWAKU
100
AcDbVertex
100
AcDb2dVertex
 10
796.8000000135559
 20
0.7999998682887508
 30
0.0
  0
VERTEX
  5
1985
330
83E
100
AcDbEntity
  8
ZUWAKU
100
AcDbVertex
100
AcDb2dVertex
 10
796.8000000135559
 20
550.7999998682887
 30
0.0
  0
SEQEND
  5
1986
330
83E
100
AcDbEntity
  8
ZUWAKU
  0
INSERT
  5
840
330
1A
100
AcDbEntity
  8
ZUWAKU
  6
CONTINUOUS
100
AcDbBlockReference
  2
*X1
 10
0.0
 20
0.0
 30
0.0
1001
ACAD
1000
HATCH
1002
{
1070
    19
1000
ANSI37
1040
0.2
1040
0.0
1000
R14_HATCH_DATA
1000
840
1011
1.0
1021
0.0
1031
0.0
1011
0.0
1021
1.0
1031
0.0
1011
0.0
1021
0.0
1031
1.0
1040
0.0
1010
0.0
1020
0.0
1030
1.0
1000
ANSI37
1070
     0
1070
     0
1071
        8
1071
        7
1070
     1
1070
     1
1071
       24
1040
14.50226267467587
1040
17.64484834927226
1040
-0.1989123673796348
1040
14.09221216833714
1040
18.63479784293331
1040
0.0
1040
14.09221216833714
1040
19.92499986828869
1040
-0.4142135623730912
1040
14.61721216833711
1040
20.44999986828868
1040
0.0
1040
17.59221216833702
1040
20.44999986828868
1040
0.4142135623731546
1040
18.11721216833712
1040
20.97499986828867
1040
0.0
1040
18.11721216833712
1040
22.72499986828869
1040
0.4142135623731586
1040
17.59221216833702
1040
23.24999986828868
1040
0.0
1040
14.09221216833714
1040
23.24999986828868
1040
0.4142135623730928
1040
11.29221216833718
1040
20.44999986828871
1040
0.0
1040
11.29221216833718
1040
18.63479784293344
1040
0.1989123673796619
1040
12.52236368735361
1040
15.66494936194983
1040
0.0
1040
15.43216166199829
1040
12.75515138730518
1040
-0.1989123673796613
1040
15.84221216833714
1040
11.76520189364399
1040
0.0
1040
15.84221216833714
1040
10.47499986828867
1040
-0.4142135623730911
1040
15.31721216833716
1040
9.949999868288685
1040
0.0
1040
12.34221216833725
1040
9.949999868288685
1040
0.4142135623731526
1040
11.81721216833716
1040
9.424999868288697
1040
0.0
1040
11.81721216833716
1040
7.674999868288676
1040
0.4142135623731526
1040
12.34221216833725
1040
7.149999868288688
1040
0.0
1040
15.84221216833714
1040
7.149999868288688
1040
0.4142135623731044
1040
18.64221216833721
1040
9.949999868288664
1040
0.0
1040
18.64221216833721
1040
11.76520189364393
1040
0.1989123673796604
1040
17.41206064932066
1040
14.73505037462747
1040
0.0
1071
        0
1071
        7
1070
     1
1070
     1
1071
       16
1040
23.54221216833718
1040
19.04999986828869
1040
-0.4142135623730935
1040
24.94221216833716
1040
20.44999986828868
1040
0.0
1040
26.86721216833712
1040
20.44999986828868
1040
0.4142135623731546
1040
27.39221216833721
1040
20.97499986828867
1040
0.0
1040
27.39221216833721
1040
22.72499986828869
1040
0.4142135623730951
1040
26.86721216833723
1040
23.24999986828868
1040
0.0
1040
24.94221216833705
1040
23.24999986828864
1040
0.4142135623730892
1040
20.74221216833711
1040
19.04999986828862
1040
0.0
1040
20.74221216833711
1040
11.34999986828871
1040
0.4142135623730969
1040
24.94221216833716
1040
7.149999868288688
1040
0.0
1040
26.86721216833712
1040
7.149999868288688
1040
0.4142135623731526
1040
27.39221216833721
1040
7.674999868288676
1040
0.0
1040
27.39221216833721
1040
9.424999868288697
1040
0.4142135623730891
1040
26.86721216833723
1040
9.949999868288685
1040
0.0
1040
24.94221216833716
1040
9.949999868288685
1040
-0.4142135623730928
1040
23.54221216833718
1040
11.34999986828867
1040
0.0
1071
        0
1071
        7
1070
     1
1070
     1
1071
        2
1040
24.24221216833712
1040
15.19999986828868
1040
1.0
1040
27.74221216833712
1040
15.19999986828868
1040
1.0
1071
        0
1071
        7
1070
     1
1070
     1
1071
       26
1040
37.31485865051513
1040
19.20504706185211
1040
0.0
1040
38.37649828365295
1040
22.5669059001217
1040
0.5069206636600134
1040
37.87586738445759
1040
23.24999986828868
1040
0.0
1040
36.17697800484836
1040
23.24999986828868
1040
0.3272098845218764
1040
35.676347105653
1040
22.88309383645565
1040
0.0
1040
33.80807723102122
1040
16.96690590012176
1040
-0.3272098845219541
1040
33.30744633182575
1040
16.59999986828868
1040
0.0
1040
33.1672121683373
1040
16.59999986828868
1040
-0.4142135623731526
1040
32.64221216833721
1040
17.12499986828867
1040
0.0
1040
32.64221216833721
1040
22.72499986828869
1040
0.4142135623730951
1040
32.11721216833723
1040
23.24999986828868
1040
0.0
1040
30.36721216833711
1040
23.24999986828868
1040
0.4142135623730871
1040
29.84221216833714
1040
22.7249998682887
1040
0.0
1040
29.84221216833714
1040
7.674999868288676
1040
0.4142135623730891
1040
30.36721216833711
1040
7.149999868288688
1040
0.0
1040
32.11721216833712
1040
7.149999868288688
1040
0.4142135623731526
1040
32.64221216833721
1040
7.674999868288676
1040
0.0
1040
32.64221216833721
1040
13.27499986828869
1040
-0.4142135623731526
1040
33.1672121683373
1040
13.79999986828868
1040
0.0
1040
33.30744633182587
1040
13.79999986828868
1040
-0.3272098845218915
1040
33.80807723102122
1040
13.43309383645561
1040
0.0
1040
35.676347105653
1040
7.516905900121759
1040
0.3272098845218902
1040
36.17697800484836
1040
7.149999868288688
1040
0.0
1040
37.87586738445759
1040
7.149999868288688
1040
0.5069206636600335
1040
38.37649828365295
1040
7.833093836455695
1040
0.0
1040
36.05010690517929
1040
15.19999986828882
1040
0.0
1071
        0
1071
        7
1070
     1
1070
     1
1071
        8
1040
43.49221216833711
1040
22.7249998682887
1040
0.4142135623731546
1040
42.96721216833702
1040
23.24999986828868
1040
0.0
1040
41.21721216833726
1040
23.24999986828868
1040
0.4142135623731507
1040
40.69221216833716
1040
22.7249998682887
1040
0.0
1040
40.69221216833716
1040
7.674999868288676
1040
0.4142135623731526
1040
41.21721216833726
1040
7.149999868288688
1040
0.0
1040
42.96721216833702
1040
7.149999868288688
1040
0.4142135623731526
1040
43.49221216833711
1040
7.674999868288676
1040
0.0
1071
        0
1071
        7
1070
     1
1070
     1
1071
       24
1040
48.3922121683372
1040
19.92499986828869
1040
-0.4142135623731546
1040
48.9172121683373
1040
20.44999986828868
1040
0.0
1040
51.89221216833721
1040
20.44999986828868
1040
0.4142135623730911
1040
52.41721216833719
1040
20.97499986828867
1040
0.0
1040
52.41721216833719
1040
22.72499986828869
1040
0.4142135623730952
1040
51.89221216833721
1040
23.24999986828868
1040
0.0
1040
48.3922121683372
1040
23.24999986828868
1040
0.4142135623731048
1040
45.59221216833714
1040
20.44999986828871
1040
0.0
1040
45.59221216833714
1040
18.63479784293344
1040
0.1989123673796613
1040
46.82236368735368
1040
15.66494936194989
1040
0.0
1040
49.73216166199836
1040
12.75515138730522
1040
-0.1989123673796402
1040
50.14221216833721
1040
11.76520189364415
1040
0.0
1040
50.14221216833721
1040
10.47499986828867
1040
-0.4142135623730911
1040
49.61721216833723
1040
9.949999868288685
1040
0.0
1040
46.64221216833721
1040
9.949999868288685
1040
0.4142135623731526
1040
46.11721216833712
1040
9.424999868288697
1040
0.0
1040
46.11721216833712
1040
7.674999868288676
1040
0.4142135623730891
1040
46.64221216833709
1040
7.149999868288688
1040
0.0
1040
50.14221216833721
1040
7.149999868288688
1040
0.4142135623730925
1040
52.94221216833716
1040
9.949999868288664
1040
0.0
1040
52.94221216833716
1040
11.76520189364393
1040
0.1989123673796675
1040
51.71206064932062
1040
14.73505037462759
1040
0.0
1040
48.80226267467605
1040
17.6448483492721
1040
-0.1989123673796652
1040
48.3922121683372
1040
18.63479784293327
1040
0.0
1071
        0
1071
        7
1070
     1
1070
     1
1071
       16
1040
57.84221216833714
1040
22.72499986828867
1040
0.414213562373103
1040
57.31721216833716
1040
23.24999986828868
1040
0.0
1040
55.56721216833716
1040
23.24999986828868
1040
0.4142135623730871
1040
55.04221216833719
1040
22.7249998682887
1040
0.0
1040
55.04221216833719
1040
9.949999868288664
1040
0.4142135623730926
1040
57.84221216833714
1040
7.149999868288688
1040
0.0
1040
61.34221216833714
1040
7.149999868288688
1040
0.4142135623731044
1040
64.14221216833721
1040
9.949999868288664
1040
0.0
1040
64.14221216833721
1040
22.72499986828869
1040
0.4142135623730951
1040
63.61721216833723
1040
23.24999986828868
1040
0.0
1040
61.86721216833712
1040
23.24999986828868
1040
0.4142135623730871
1040
61.34221216833714
1040
22.7249998682887
1040
0.0
1040
61.34221216833714
1040
10.99999986828866
1040
-0.414213562373088
1040
60.29221216833718
1040
9.949999868288685
1040
0.0
1040
58.89221216833721
1040
9.949999868288685
1040
-0.4142135623731197
1040
57.84221216833714
1040
10.99999986828866
1040
0.0
1071
        0
1071
        7
1070
     1
1070
     1
1071
        8
1040
69.04221216833718
1040
22.7249998682887
1040
0.4142135623730871
1040
68.51721216833721
1040
23.24999986828868
1040
0.0
1040
66.76721216833721
1040
23.24999986828868
1040
0.4142135623731507
1040
66.24221216833712
1040
22.7249998682887
1040
0.0
1040
66.24221216833712
1040
7.674999868288676
1040
0.4142135623730891
1040
66.76721216833709
1040
7.149999868288688
1040
0.0
1040
68.51721216833721
1040
7.149999868288688
1040
0.4142135623730891
1040
69.04221216833718
1040
7.674999868288676
1040
0.0
1071
        0
1070
     0
1070
     1
1040
0.0
1040
0.2
1070
     0
1070
     2
1040
0.7853981633974483
1040
-900.942304321123
1040
-13.20000013171124
1040
-0.4490128060534576
1040
0.4490128060534577
1070
     0
1040
2.356194490192344
1040
-900.942304321123
1040
-13.20000013171124
1040
-0.4490128060534577
1040
-0.4490128060534576
1070
     0
1040
0.057451373970553
1071
        8
1040
16.07985497657932
1040
15.16717351417423
1040
0.0
1040
22.40451501999519
1040
18.84406205073969
1040
0.0
1040
25.16436789921567
1040
15.5118815143594
1040
0.0
1040
30.91405999519315
1040
16.20129751473018
1040
0.0
1040
41.83847203251275
1040
16.6609097822718
1040
0.0
1040
46.89820090868557
1040
19.41857618469589
1040
0.0
1040
56.55768598595637
1040
18.72915778338369
1040
0.0
1040
67.82707963317875
1040
19.18877005092531
1040
0.0
1002
}
  0
LINE
  5
841
330
1A
100
AcDbEntity
  8
ZUWAKU
100
AcDbLine
 10
24.94221216833716
 20
23.24999986828864
 30
0.0
 11
26.86721216833712
 21
23.24999986828868
 31
0.0
  0
LINE
  5
842
330
1A
100
AcDbEntity
  8
ZUWAKU
100
AcDbLine
 10
26.86721216833712
 20
20.44999986828868
 30
0.0
 11
24.94221216833716
 21
20.44999986828868
 31
0.0
  0
LINE
  5
843
330
1A
100
AcDbEntity
  8
ZUWAKU
100
AcDbLine
 10
24.94221216833716
 20
9.949999868288685
 30
0.0
 11
26.86721216833712
 21
9.949999868288685
 31
0.0
  0
LINE
  5
844
330
1A
100
AcDbEntity
  8
ZUWAKU
100
AcDbLine
 10
26.86721216833712
 20
7.149999868288688
 30
0.0
 11
24.94221216833716
 21
7.149999868288688
 31
0.0
  0
CIRCLE
  5
845
330
1A
100
AcDbEntity
  8
ZUWAKU
100
AcDbCircle
 10
25.99221216833711
 20
15.19999986828868
 30
0.0
 40
1.75
  0
ARC
  5
846
330
1A
100
AcDbEntity
  8
ZUWAKU
100
AcDbCircle
 10
15.49221216833712
 20
18.63479784293338
 30
0.0
 40
1.399999999999999
100
AcDbArc
 50
180.0000000000016
 51
224.9999999999988
  0
LINE
  5
847
330
1A
100
AcDbEntity
  8
ZUWAKU
100
AcDbLine
 10
23.54221216833718
 20
19.04999986828868
 30
0.0
 11
23.54221216833718
 21
11.34999986828869
 31
0.0
  0
LINE
  5
848
330
1A
100
AcDbEntity
  8
ZUWAKU
100
AcDbLine
 10
20.74221216833711
 20
11.34999986828869
 30
0.0
 11
20.74221216833711
 21
19.04999986828864
 31
0.0
  0
ARC
  5
849
330
1A
100
AcDbEntity
  8
ZUWAKU
100
AcDbCircle
 10
15.49221216833712
 20
18.63479784293338
 30
0.0
 40
4.199999999999999
100
AcDbArc
 50
180.0
 51
225.0
  0
ARC
  5
84A
330
1A
100
AcDbEntity
  8
ZUWAKU
100
AcDbCircle
 10
15.84221216833714
 20
9.949999868288685
 30
0.0
 40
2.799999999999999
100
AcDbArc
 50
270.0
 51
0.0
  0
ARC
  5
84B
330
1A
100
AcDbEntity
  8
ZUWAKU
100
AcDbCircle
 10
24.94221216833716
 20
11.34999986828869
 30
0.0
 40
4.199999999999999
100
AcDbArc
 50
180.0
 51
270.0
  0
ARC
  5
84C
330
1A
100
AcDbEntity
  8
ZUWAKU
100
AcDbCircle
 10
14.44221216833716
 20
11.76520189364399
 30
0.0
 40
4.199999999999999
100
AcDbArc
 50
0.0
 51
45.0
  0
LINE
  5
84D
330
1A
100
AcDbEntity
  8
ZUWAKU
100
AcDbLine
 10
17.41206064932066
 20
14.73505037462751
 30
0.0
 11
14.50226267467598
 21
17.64484834927218
 31
0.0
  0
LINE
  5
84E
330
1A
100
AcDbEntity
  8
ZUWAKU
100
AcDbLine
 10
15.84221216833714
 20
10.47499986828869
 30
0.0
 11
15.84221216833714
 21
11.76520189364403
 31
0.0
  0
ARC
  5
84F
330
1A
100
AcDbEntity
  8
ZUWAKU
100
AcDbCircle
 10
15.31721216833716
 20
10.47499986828869
 30
0.0
 40
0.525
100
AcDbArc
 50
270.0
 51
0.0
  0
ARC
  5
850
330
1A
100
AcDbEntity
  8
ZUWAKU
100
AcDbCircle
 10
14.44221216833716
 20
11.76520189364403
 30
0.0
 40
1.399999999999999
100
AcDbArc
 50
0.0
 51
45.0
  0
LINE
  5
851
330
1A
100
AcDbEntity
  8
ZUWAKU
100
AcDbLine
 10
11.81721216833716
 20
7.674999868288686
 30
0.0
 11
11.81721216833716
 21
9.424999868288686
 31
0.0
  0
ARC
  5
852
330
1A
100
AcDbEntity
  8
ZUWAKU
100
AcDbCircle
 10
12.34221216833714
 20
7.674999868288686
 30
0.0
 40
0.525
100
AcDbArc
 50
180.0
 51
270.0
  0
ARC
  5
853
330
1A
100
AcDbEntity
  8
ZUWAKU
100
AcDbCircle
 10
12.34221216833714
 20
9.424999868288686
 30
0.0
 40
0.525
100
AcDbArc
 50
90.0
 51
180.0
  0
LINE
  5
854
330
1A
100
AcDbEntity
  8
ZUWAKU
100
AcDbLine
 10
12.34221216833714
 20
7.149999868288688
 30
0.0
 11
15.84221216833714
 21
7.149999868288688
 31
0.0
  0
LINE
  5
855
330
1A
100
AcDbEntity
  8
ZUWAKU
100
AcDbLine
 10
12.34221216833714
 20
9.949999868288685
 30
0.0
 11
15.31721216833716
 21
9.949999868288685
 31
0.0
  0
LINE
  5
856
330
1A
100
AcDbEntity
  8
ZUWAKU
100
AcDbLine
 10
12.52236368735361
 20
15.66494936194986
 30
0.0
 11
15.43216166199829
 21
12.7551513873052
 31
0.0
  0
LINE
  5
857
330
1A
100
AcDbEntity
  8
ZUWAKU
100
AcDbLine
 10
18.64221216833721
 20
9.949999868288685
 30
0.0
 11
18.64221216833721
 21
11.76520189364403
 31
0.0
  0
ARC
  5
858
330
1A
100
AcDbEntity
  8
ZUWAKU
100
AcDbCircle
 10
24.94221216833716
 20
11.34999986828869
 30
0.0
 40
1.399999999999999
100
AcDbArc
 50
180.0
 51
270.0
  0
ARC
  5
859
330
1A
100
AcDbEntity
  8
ZUWAKU
100
AcDbCircle
 10
17.59221216833714
 20
22.72499986828868
 30
0.0
 40
0.525
100
AcDbArc
 50
0.0
 51
90.0
  0
ARC
  5
85A
330
1A
100
AcDbEntity
  8
ZUWAKU
100
AcDbCircle
 10
17.59221216833714
 20
20.97499986828868
 30
0.0
 40
0.525
100
AcDbArc
 50
270.0
 51
0.0
  0
LINE
  5
85B
330
1A
100
AcDbEntity
  8
ZUWAKU
100
AcDbLine
 10
14.09221216833714
 20
23.24999986828868
 30
0.0
 11
17.59221216833714
 21
23.24999986828868
 31
0.0
  0
ARC
  5
85C
330
1A
100
AcDbEntity
  8
ZUWAKU
100
AcDbCircle
 10
14.61721216833711
 20
19.92499986828868
 30
0.0
 40
0.525
100
AcDbArc
 50
90.0
 51
180.0
  0
LINE
  5
85D
330
1A
100
AcDbEntity
  8
ZUWAKU
100
AcDbLine
 10
14.09221216833714
 20
19.92499986828868
 30
0.0
 11
14.09221216833714
 21
18.63479784293334
 31
0.0
  0
LINE
  5
85E
330
1A
100
AcDbEntity
  8
ZUWAKU
100
AcDbLine
 10
17.59221216833714
 20
20.44999986828868
 30
0.0
 11
14.61721216833711
 21
20.44999986828868
 31
0.0
  0
LINE
  5
85F
330
1A
100
AcDbEntity
  8
ZUWAKU
100
AcDbLine
 10
11.29221216833718
 20
20.44999986828868
 30
0.0
 11
11.29221216833718
 21
18.63479784293334
 31
0.0
  0
ARC
  5
860
330
1A
100
AcDbEntity
  8
ZUWAKU
100
AcDbCircle
 10
14.09221216833714
 20
20.44999986828868
 30
0.0
 40
2.799999999999999
100
AcDbArc
 50
90.0
 51
180.0
  0
LINE
  5
861
330
1A
100
AcDbEntity
  8
ZUWAKU
100
AcDbLine
 10
18.11721216833712
 20
22.72499986828868
 30
0.0
 11
18.11721216833712
 21
20.97499986828868
 31
0.0
  0
ARC
  5
862
330
1A
100
AcDbEntity
  8
ZUWAKU
100
AcDbCircle
 10
24.94221216833716
 20
19.04999986828868
 30
0.0
 40
1.399999999999999
100
AcDbArc
 50
90.0
 51
180.0
  0
ARC
  5
863
330
1A
100
AcDbEntity
  8
ZUWAKU
100
AcDbCircle
 10
24.94221216833716
 20
19.04999986828864
 30
0.0
 40
4.199999999999999
100
AcDbArc
 50
90.0
 51
180.0
  0
LINE
  5
864
330
1A
100
AcDbEntity
  8
ZUWAKU
100
AcDbLine
 10
79.32662956154422
 20
29.99999986828868
 30
0.0
 11
79.32662956154445
 21
0.7999998682887508
 31
0.0
  0
LINE
  5
865
330
1A
100
AcDbEntity
  8
ZUWAKU
100
AcDbLine
 10
79.52662956154426
 20
29.99999986828868
 30
0.0
 11
79.52662956154449
 21
0.7999998682887508
 31
0.0
  0
LINE
  5
866
330
1A
100
AcDbEntity
  8
ZUWAKU
100
AcDbLine
 10
79.12662956154441
 20
29.99999986828868
 30
0.0
 11
79.12662956154441
 21
0.7999998682887508
 31
0.0
  0
LINE
  5
867
330
1A
100
AcDbEntity
  8
ZUWAKU
100
AcDbLine
 10
64.14221216833721
 20
9.949999868288685
 30
0.0
 11
64.14221216833721
 21
22.72499986828868
 31
0.0
  0
LINE
  5
868
330
1A
100
AcDbEntity
  8
ZUWAKU
100
AcDbLine
 10
61.34221216833714
 20
22.72499986828868
 30
0.0
 11
61.34221216833714
 21
10.99999986828868
 31
0.0
  0
LINE
  5
869
330
1A
100
AcDbEntity
  8
ZUWAKU
100
AcDbLine
 10
69.04221216833718
 20
7.674999868288686
 30
0.0
 11
69.04221216833718
 21
22.72499986828868
 31
0.0
  0
LINE
  5
86A
330
1A
100
AcDbEntity
  8
ZUWAKU
100
AcDbLine
 10
66.24221216833712
 20
22.72499986828868
 30
0.0
 11
66.24221216833712
 21
7.674999868288686
 31
0.0
  0
ARC
  5
86B
330
1A
100
AcDbEntity
  8
ZUWAKU
100
AcDbCircle
 10
49.79221216833718
 20
18.63479784293338
 30
0.0
 40
1.399999999999999
100
AcDbArc
 50
180.0000000000016
 51
224.9999999999988
  0
ARC
  5
86C
330
1A
100
AcDbEntity
  8
ZUWAKU
100
AcDbCircle
 10
49.79221216833718
 20
18.63479784293338
 30
0.0
 40
4.199999999999999
100
AcDbArc
 50
180.0
 51
225.0
  0
LINE
  5
86D
330
1A
100
AcDbEntity
  8
ZUWAKU
100
AcDbLine
 10
37.31485865051513
 20
19.20504706185211
 30
0.0
 11
36.05010690517929
 21
15.1999998682887
 31
0.0
  0
LINE
  5
86E
330
1A
100
AcDbEntity
  8
ZUWAKU
100
AcDbLine
 10
40.69221216833716
 20
22.72499986828868
 30
0.0
 11
40.69221216833716
 21
7.674999868288686
 31
0.0
  0
LINE
  5
86F
330
1A
100
AcDbEntity
  8
ZUWAKU
100
AcDbLine
 10
43.49221216833711
 20
7.674999868288686
 30
0.0
 11
43.49221216833711
 21
22.72499986828868
 31
0.0
  0
LINE
  5
870
330
1A
100
AcDbEntity
  8
ZUWAKU
100
AcDbLine
 10
55.04221216833719
 20
22.72499986828868
 30
0.0
 11
55.04221216833719
 21
9.949999868288685
 31
0.0
  0
LINE
  5
871
330
1A
100
AcDbEntity
  8
ZUWAKU
100
AcDbLine
 10
57.84221216833714
 20
10.99999986828868
 30
0.0
 11
57.84221216833714
 21
22.72499986828868
 31
0.0
  0
LINE
  5
872
330
1A
100
AcDbEntity
  8
ZUWAKU
100
AcDbLine
 10
32.64221216833721
 20
17.12499986828869
 30
0.0
 11
32.64221216833721
 21
22.72499986828868
 31
0.0
  0
LINE
  5
873
330
1A
100
AcDbEntity
  8
ZUWAKU
100
AcDbLine
 10
29.84221216833714
 20
22.72499986828868
 30
0.0
 11
29.84221216833714
 21
7.674999868288686
 31
0.0
  0
LINE
  5
874
330
1A
100
AcDbEntity
  8
ZUWAKU
100
AcDbLine
 10
35.676347105653
 20
22.88309383645565
 30
0.0
 11
33.80807723102122
 21
16.96690590012171
 31
0.0
  0
LINE
  5
875
330
1A
100
AcDbEntity
  8
ZUWAKU
100
AcDbLine
 10
60.29221216833718
 20
9.949999868288685
 30
0.0
 11
58.89221216833721
 21
9.949999868288685
 31
0.0
  0
LINE
  5
876
330
1A
100
AcDbEntity
  8
ZUWAKU
100
AcDbLine
 10
57.84221216833714
 20
7.149999868288688
 30
0.0
 11
61.34221216833714
 21
7.149999868288688
 31
0.0
  0
LINE
  5
877
330
1A
100
AcDbEntity
  8
ZUWAKU
100
AcDbLine
 10
41.21721216833714
 20
7.149999868288688
 30
0.0
 11
42.96721216833714
 21
7.149999868288688
 31
0.0
  0
LINE
  5
878
330
1A
100
AcDbEntity
  8
ZUWAKU
100
AcDbLine
 10
35.676347105653
 20
7.516905900121713
 30
0.0
 11
33.80807723102122
 21
13.43309383645565
 31
0.0
  0
ARC
  5
879
330
1A
100
AcDbEntity
  8
ZUWAKU
100
AcDbCircle
 10
33.30744633182587
 20
17.12499986828869
 30
0.0
 40
0.525
100
AcDbArc
 50
270.0
 51
342.4744316262769
  0
LINE
  5
87A
330
1A
100
AcDbEntity
  8
ZUWAKU
100
AcDbLine
 10
33.30744633182587
 20
16.59999986828868
 30
0.0
 11
33.16721216833718
 21
16.59999986828868
 31
0.0
  0
LINE
  5
87B
330
1A
100
AcDbEntity
  8
ZUWAKU
100
AcDbLine
 10
33.16721216833718
 20
13.79999986828868
 30
0.0
 11
33.30744633182587
 21
13.79999986828868
 31
0.0
  0
ARC
  5
87C
330
1A
100
AcDbEntity
  8
ZUWAKU
100
AcDbCircle
 10
33.16721216833718
 20
17.12499986828869
 30
0.0
 40
0.525
100
AcDbArc
 50
180.0
 51
270.0
  0
LINE
  5
87D
330
1A
100
AcDbEntity
  8
ZUWAKU
100
AcDbLine
 10
30.36721216833711
 20
7.149999868288688
 30
0.0
 11
32.11721216833712
 21
7.149999868288688
 31
0.0
  0
ARC
  5
87E
330
1A
100
AcDbEntity
  8
ZUWAKU
100
AcDbCircle
 10
32.11721216833712
 20
7.674999868288686
 30
0.0
 40
0.525
100
AcDbArc
 50
270.0
 51
0.0
  0
LINE
  5
87F
330
1A
100
AcDbEntity
  8
ZUWAKU
100
AcDbLine
 10
32.64221216833721
 20
7.674999868288686
 30
0.0
 11
32.64221216833721
 21
13.27499986828868
 31
0.0
  0
LINE
  5
880
330
1A
100
AcDbEntity
  8
ZUWAKU
100
AcDbLine
 10
27.39221216833721
 20
9.424999868288686
 30
0.0
 11
27.39221216833721
 21
7.674999868288686
 31
0.0
  0
ARC
  5
881
330
1A
100
AcDbEntity
  8
ZUWAKU
100
AcDbCircle
 10
26.86721216833712
 20
7.674999868288686
 30
0.0
 40
0.525
100
AcDbArc
 50
270.0
 51
0.0
  0
ARC
  5
882
330
1A
100
AcDbEntity
  8
ZUWAKU
100
AcDbCircle
 10
26.86721216833712
 20
9.424999868288686
 30
0.0
 40
0.525
100
AcDbArc
 50
0.0
 51
90.0
  0
ARC
  5
883
330
1A
100
AcDbEntity
  8
ZUWAKU
100
AcDbCircle
 10
30.36721216833711
 20
7.674999868288686
 30
0.0
 40
0.525
100
AcDbArc
 50
180.0
 51
270.0
  0
ARC
  5
884
330
1A
100
AcDbEntity
  8
ZUWAKU
100
AcDbCircle
 10
33.30744633182587
 20
13.27499986828868
 30
0.0
 40
0.525
100
AcDbArc
 50
17.52556837372303
 51
90.0
  0
ARC
  5
885
330
1A
100
AcDbEntity
  8
ZUWAKU
100
AcDbCircle
 10
33.16721216833718
 20
13.27499986828868
 30
0.0
 40
0.525
100
AcDbArc
 50
90.0
 51
180.0
  0
ARC
  5
886
330
1A
100
AcDbEntity
  8
ZUWAKU
100
AcDbCircle
 10
41.21721216833714
 20
7.674999868288686
 30
0.0
 40
0.525
100
AcDbArc
 50
180.0
 51
270.0
  0
LINE
  5
887
330
1A
100
AcDbEntity
  8
ZUWAKU
100
AcDbLine
 10
36.17697800484847
 20
7.149999868288688
 30
0.0
 11
37.87586738445748
 21
7.149999868288688
 31
0.0
  0
ARC
  5
888
330
1A
100
AcDbEntity
  8
ZUWAKU
100
AcDbCircle
 10
37.87586738445748
 20
7.674999868288686
 30
0.0
 40
0.525
100
AcDbArc
 50
270.0
 51
17.52556837372303
  0
LINE
  5
889
330
1A
100
AcDbEntity
  8
ZUWAKU
100
AcDbLine
 10
38.37649828365295
 20
7.83309383645566
 30
0.0
 11
36.05010690517929
 21
15.1999998682887
 31
0.0
  0
ARC
  5
88A
330
1A
100
AcDbEntity
  8
ZUWAKU
100
AcDbCircle
 10
36.17697800484847
 20
7.674999868288686
 30
0.0
 40
0.525
100
AcDbArc
 50
197.525568373723
 51
270.0
  0
ARC
  5
88B
330
1A
100
AcDbEntity
  8
ZUWAKU
100
AcDbCircle
 10
57.84221216833714
 20
9.949999868288685
 30
0.0
 40
2.799999999999999
100
AcDbArc
 50
180.0
 51
270.0
  0
ARC
  5
88C
330
1A
100
AcDbEntity
  8
ZUWAKU
100
AcDbCircle
 10
50.14221216833721
 20
9.949999868288685
 30
0.0
 40
2.799999999999999
100
AcDbArc
 50
270.0
 51
0.0
  0
LINE
  5
88D
330
1A
100
AcDbEntity
  8
ZUWAKU
100
AcDbLine
 10
51.71206064932073
 20
14.73505037462751
 30
0.0
 11
48.80226267467595
 21
17.64484834927218
 31
0.0
  0
LINE
  5
88E
330
1A
100
AcDbEntity
  8
ZUWAKU
100
AcDbLine
 10
50.14221216833721
 20
10.47499986828869
 30
0.0
 11
50.14221216833721
 21
11.76520189364403
 31
0.0
  0
ARC
  5
88F
330
1A
100
AcDbEntity
  8
ZUWAKU
100
AcDbCircle
 10
48.74221216833712
 20
11.76520189364403
 30
0.0
 40
1.399999999999999
100
AcDbArc
 50
0.0
 51
45.0
  0
ARC
  5
890
330
1A
100
AcDbEntity
  8
ZUWAKU
100
AcDbCircle
 10
49.61721216833712
 20
10.47499986828869
 30
0.0
 40
0.525
100
AcDbArc
 50
270.0
 51
0.0
  0
LINE
  5
891
330
1A
100
AcDbEntity
  8
ZUWAKU
100
AcDbLine
 10
46.11721216833712
 20
7.674999868288686
 30
0.0
 11
46.11721216833712
 21
9.424999868288686
 31
0.0
  0
ARC
  5
892
330
1A
100
AcDbEntity
  8
ZUWAKU
100
AcDbCircle
 10
46.64221216833721
 20
7.674999868288686
 30
0.0
 40
0.525
100
AcDbArc
 50
180.0
 51
270.0
  0
ARC
  5
893
330
1A
100
AcDbEntity
  8
ZUWAKU
100
AcDbCircle
 10
42.96721216833714
 20
7.674999868288686
 30
0.0
 40
0.525
100
AcDbArc
 50
270.0
 51
0.0
  0
ARC
  5
894
330
1A
100
AcDbEntity
  8
ZUWAKU
100
AcDbCircle
 10
46.64221216833721
 20
9.424999868288686
 30
0.0
 40
0.525
100
AcDbArc
 50
90.0
 51
180.0
  0
LINE
  5
895
330
1A
100
AcDbEntity
  8
ZUWAKU
100
AcDbLine
 10
46.64221216833721
 20
9.949999868288685
 30
0.0
 11
49.61721216833712
 21
9.949999868288685
 31
0.0
  0
LINE
  5
896
330
1A
100
AcDbEntity
  8
ZUWAKU
100
AcDbLine
 10
46.64221216833721
 20
7.149999868288688
 30
0.0
 11
50.14221216833721
 21
7.149999868288688
 31
0.0
  0
LINE
  5
897
330
1A
100
AcDbEntity
  8
ZUWAKU
100
AcDbLine
 10
46.82236368735368
 20
15.66494936194986
 30
0.0
 11
49.73216166199836
 21
12.7551513873052
 31
0.0
  0
LINE
  5
898
330
1A
100
AcDbEntity
  8
ZUWAKU
100
AcDbLine
 10
52.94221216833716
 20
9.949999868288685
 30
0.0
 11
52.94221216833716
 21
11.76520189364403
 31
0.0
  0
ARC
  5
899
330
1A
100
AcDbEntity
  8
ZUWAKU
100
AcDbCircle
 10
48.74221216833712
 20
11.76520189364399
 30
0.0
 40
4.199999999999999
100
AcDbArc
 50
0.0
 51
45.0
  0
ARC
  5
89A
330
1A
100
AcDbEntity
  8
ZUWAKU
100
AcDbCircle
 10
58.89221216833721
 20
10.99999986828868
 30
0.0
 40
1.049999999999999
100
AcDbArc
 50
180.0
 51
270.0
  0
ARC
  5
89B
330
1A
100
AcDbEntity
  8
ZUWAKU
100
AcDbCircle
 10
61.34221216833714
 20
9.949999868288685
 30
0.0
 40
2.799999999999999
100
AcDbArc
 50
270.0
 51
0.0
  0
LINE
  5
89C
330
1A
100
AcDbEntity
  8
ZUWAKU
100
AcDbLine
 10
66.76721216833721
 20
7.149999868288688
 30
0.0
 11
68.51721216833721
 21
7.149999868288688
 31
0.0
  0
ARC
  5
89D
330
1A
100
AcDbEntity
  8
ZUWAKU
100
AcDbCircle
 10
66.76721216833721
 20
7.674999868288686
 30
0.0
 40
0.525
100
AcDbArc
 50
180.0
 51
270.0
  0
ARC
  5
89E
330
1A
100
AcDbEntity
  8
ZUWAKU
100
AcDbCircle
 10
60.29221216833718
 20
10.99999986828868
 30
0.0
 40
1.049999999999999
100
AcDbArc
 50
270.0
 51
0.0
  0
ARC
  5
89F
330
1A
100
AcDbEntity
  8
ZUWAKU
100
AcDbCircle
 10
68.51721216833721
 20
7.674999868288686
 30
0.0
 40
0.525
100
AcDbArc
 50
270.0
 51
0.0
  0
LINE
  5
8A0
330
1A
100
AcDbEntity
  8
ZUWAKU
100
AcDbLine
 10
42.96721216833714
 20
23.24999986828868
 30
0.0
 11
41.21721216833714
 21
23.24999986828868
 31
0.0
  0
ARC
  5
8A1
330
1A
100
AcDbEntity
  8
ZUWAKU
100
AcDbCircle
 10
32.11721216833712
 20
22.72499986828868
 30
0.0
 40
0.525
100
AcDbArc
 50
0.0
 51
90.0
  0
LINE
  5
8A2
330
1A
100
AcDbEntity
  8
ZUWAKU
100
AcDbLine
 10
32.11721216833712
 20
23.24999986828868
 30
0.0
 11
30.36721216833711
 21
23.24999986828868
 31
0.0
  0
ARC
  5
8A3
330
1A
100
AcDbEntity
  8
ZUWAKU
100
AcDbCircle
 10
26.86721216833712
 20
22.72499986828868
 30
0.0
 40
0.525
100
AcDbArc
 50
0.0
 51
90.0
  0
ARC
  5
8A4
330
1A
100
AcDbEntity
  8
ZUWAKU
100
AcDbCircle
 10
30.36721216833711
 20
22.72499986828868
 30
0.0
 40
0.525
100
AcDbArc
 50
90.0
 51
180.0
  0
ARC
  5
8A5
330
1A
100
AcDbEntity
  8
ZUWAKU
100
AcDbCircle
 10
26.86721216833712
 20
20.97499986828868
 30
0.0
 40
0.525
100
AcDbArc
 50
270.0
 51
0.0
  0
LINE
  5
8A6
330
1A
100
AcDbEntity
  8
ZUWAKU
100
AcDbLine
 10
27.39221216833721
 20
22.72499986828868
 30
0.0
 11
27.39221216833721
 21
20.97499986828868
 31
0.0
  0
ARC
  5
8A7
330
1A
100
AcDbEntity
  8
ZUWAKU
100
AcDbCircle
 10
41.21721216833714
 20
22.72499986828868
 30
0.0
 40
0.525
100
AcDbArc
 50
90.0
 51
180.0
  0
LINE
  5
8A8
330
1A
100
AcDbEntity
  8
ZUWAKU
100
AcDbLine
 10
36.17697800484847
 20
23.24999986828868
 30
0.0
 11
37.87586738445748
 21
23.24999986828868
 31
0.0
  0
ARC
  5
8A9
330
1A
100
AcDbEntity
  8
ZUWAKU
100
AcDbCircle
 10
37.87586738445748
 20
22.72499986828868
 30
0.0
 40
0.525
100
AcDbArc
 50
342.4744316262769
 51
90.0
  0
LINE
  5
8AA
330
1A
100
AcDbEntity
  8
ZUWAKU
100
AcDbLine
 10
38.37649828365295
 20
22.56690590012171
 30
0.0
 11
37.31485865051513
 21
19.20504706185211
 31
0.0
  0
ARC
  5
8AB
330
1A
100
AcDbEntity
  8
ZUWAKU
100
AcDbCircle
 10
36.17697800484847
 20
22.72499986828868
 30
0.0
 40
0.525
100
AcDbArc
 50
90.0
 51
162.4744316262769
  0
LINE
  5
8AC
330
1A
100
AcDbEntity
  8
ZUWAKU
100
AcDbLine
 10
48.3922121683372
 20
23.24999986828868
 30
0.0
 11
51.89221216833721
 21
23.24999986828868
 31
0.0
  0
LINE
  5
8AD
330
1A
100
AcDbEntity
  8
ZUWAKU
100
AcDbLine
 10
51.89221216833721
 20
20.44999986828868
 30
0.0
 11
48.91721216833719
 21
20.44999986828868
 31
0.0
  0
ARC
  5
8AE
330
1A
100
AcDbEntity
  8
ZUWAKU
100
AcDbCircle
 10
48.91721216833719
 20
19.92499986828868
 30
0.0
 40
0.525
100
AcDbArc
 50
90.0
 51
180.0
  0
LINE
  5
8AF
330
1A
100
AcDbEntity
  8
ZUWAKU
100
AcDbLine
 10
48.3922121683372
 20
19.92499986828868
 30
0.0
 11
48.3922121683372
 21
18.63479784293334
 31
0.0
  0
ARC
  5
8B0
330
1A
100
AcDbEntity
  8
ZUWAKU
100
AcDbCircle
 10
42.96721216833714
 20
22.72499986828868
 30
0.0
 40
0.525
100
AcDbArc
 50
0.0
 51
90.0
  0
LINE
  5
8B1
330
1A
100
AcDbEntity
  8
ZUWAKU
100
AcDbLine
 10
45.59221216833714
 20
20.44999986828868
 30
0.0
 11
45.59221216833714
 21
18.63479784293334
 31
0.0
  0
ARC
  5
8B2
330
1A
100
AcDbEntity
  8
ZUWAKU
100
AcDbCircle
 10
48.3922121683372
 20
20.44999986828868
 30
0.0
 40
2.799999999999999
100
AcDbArc
 50
90.0
 51
180.0
  0
ARC
  5
8B3
330
1A
100
AcDbEntity
  8
ZUWAKU
100
AcDbCircle
 10
57.31721216833716
 20
22.72499986828868
 30
0.0
 40
0.525
100
AcDbArc
 50
0.0
 51
90.0
  0
ARC
  5
8B4
330
1A
100
AcDbEntity
  8
ZUWAKU
100
AcDbCircle
 10
55.56721216833716
 20
22.72499986828868
 30
0.0
 40
0.525
100
AcDbArc
 50
90.0
 51
180.0
  0
LINE
  5
8B5
330
1A
100
AcDbEntity
  8
ZUWAKU
100
AcDbLine
 10
57.31721216833716
 20
23.24999986828868
 30
0.0
 11
55.56721216833716
 21
23.24999986828868
 31
0.0
  0
ARC
  5
8B6
330
1A
100
AcDbEntity
  8
ZUWAKU
100
AcDbCircle
 10
51.89221216833721
 20
22.72499986828868
 30
0.0
 40
0.525
100
AcDbArc
 50
0.0
 51
90.0
  0
ARC
  5
8B7
330
1A
100
AcDbEntity
  8
ZUWAKU
100
AcDbCircle
 10
51.89221216833721
 20
20.97499986828868
 30
0.0
 40
0.525
100
AcDbArc
 50
270.0
 51
0.0
  0
LINE
  5
8B8
330
1A
100
AcDbEntity
  8
ZUWAKU
100
AcDbLine
 10
52.41721216833719
 20
22.72499986828868
 30
0.0
 11
52.41721216833719
 21
20.97499986828868
 31
0.0
  0
LINE
  5
8B9
330
1A
100
AcDbEntity
  8
ZUWAKU
100
AcDbLine
 10
68.51721216833721
 20
23.24999986828868
 30
0.0
 11
66.76721216833721
 21
23.24999986828868
 31
0.0
  0
ARC
  5
8BA
330
1A
100
AcDbEntity
  8
ZUWAKU
100
AcDbCircle
 10
66.76721216833721
 20
22.72499986828868
 30
0.0
 40
0.525
100
AcDbArc
 50
90.0
 51
180.0
  0
ARC
  5
8BB
330
1A
100
AcDbEntity
  8
ZUWAKU
100
AcDbCircle
 10
63.61721216833712
 20
22.72499986828868
 30
0.0
 40
0.525
100
AcDbArc
 50
0.0
 51
90.0
  0
LINE
  5
8BC
330
1A
100
AcDbEntity
  8
ZUWAKU
100
AcDbLine
 10
63.61721216833712
 20
23.24999986828868
 30
0.0
 11
61.86721216833712
 21
23.24999986828868
 31
0.0
  0
ARC
  5
8BD
330
1A
100
AcDbEntity
  8
ZUWAKU
100
AcDbCircle
 10
61.86721216833712
 20
22.72499986828868
 30
0.0
 40
0.525
100
AcDbArc
 50
90.0
 51
180.0
  0
ARC
  5
8BE
330
1A
100
AcDbEntity
  8
ZUWAKU
100
AcDbCircle
 10
68.51721216833721
 20
22.72499986828868
 30
0.0
 40
0.525
100
AcDbArc
 50
0.0
 51
90.0
  0
TEXT
  5
8BF
330
1A
100
AcDbEntity
  8
MOJI
100
AcDbText
 10
233.6907906318449
 20
19.42038736576501
 30
0.0
 40
5.599999999999999
  1
インサイドジョイント
 41
0.9
  7
ｽﾀｲﾙ1
100
AcDbText
  0
LINE
  5
8C1
330
1A
100
AcDbEntity
  8
ZUWAKU
100
AcDbLine
 10
208.2466013036239
 20
29.99999986828868
 30
0.0
 11
208.2466013036239
 21
0.7999998682887508
 31
0.0
  0
LINE
  5
8C2
330
1A
100
AcDbEntity
  8
ZUWAKU
100
AcDbLine
 10
208.6466013036238
 20
29.99999986828868
 30
0.0
 11
208.646601303624
 21
0.7999998682887508
 31
0.0
  0
LINE
  5
8C3
330
1A
100
AcDbEntity
  8
ZUWAKU
100
AcDbLine
 10
208.4466013036237
 20
29.99999986828868
 30
0.0
 11
208.446601303624
 21
0.7999998682887508
 31
0.0
  0
TEXT
  5
8C4
330
1A
100
AcDbEntity
  8
ZUWAKU
100
AcDbText
 10
209.7240463258335
 20
9.6553564066743
 30
0.0
 40
4.0
  1
サイズ
 41
0.9
  7
ｽﾀｲﾙ1
100
AcDbText
  0
TEXT
  5
8C5
330
1A
100
AcDbEntity
  8
ZUWAKU
100
AcDbText
 10
209.7240463258333
 20
24.05535640667426
 30
0.0
 40
4.0
  1
品名
 41
0.9
  7
ｽﾀｲﾙ1
100
AcDbText
  0
LINE
  5
8C6
330
1A
100
AcDbEntity
  8
ZUWAKU
100
AcDbLine
 10
648.8172025237602
 20
15.19999986828871
 30
0.0
 11
697.2490105620972
 21
15.19999986828871
 31
0.0
  0
LINE
  5
8C7
330
1A
100
AcDbEntity
  8
ZUWAKU
100
AcDbLine
 10
648.8172025237604
 20
15.39999986828872
 30
0.0
 11
697.2490105620972
 21
15.39999986828871
 31
0.0
  0
LINE
  5
8C8
330
1A
100
AcDbEntity
  8
ZUWAKU
100
AcDbLine
 10
648.8172025237602
 20
15.59999986828871
 30
0.0
 11
697.2490105620972
 21
15.59999986828871
 31
0.0
  0
TEXT
  5
8C9
330
1A
100
AcDbEntity
  8
ZUWAKU
100
AcDbText
 10
658.2039377008584
 20
18.00492092569607
 30
0.0
 40
5.599999999999999
  1
　　．　　．　　
 41
0.9
  7
ｽﾀｲﾙ1
100
AcDbText
  0
LINE
  5
8CA
330
1A
100
AcDbEntity
  8
ZUWAKU
100
AcDbLine
 10
505.1991795116968
 20
15.19999986828872
 30
0.0
 11
552.5269557796685
 21
15.19999986828872
 31
0.0
  0
LINE
  5
8CB
330
1A
100
AcDbEntity
  8
ZUWAKU
100
AcDbLine
 10
505.1991795116968
 20
15.39999986828871
 30
0.0
 11
552.5269557796685
 21
15.39999986828871
 31
0.0
  0
LINE
  5
8CC
330
1A
100
AcDbEntity
  8
ZUWAKU
100
AcDbLine
 10
505.1991795116968
 20
15.59999986828871
 30
0.0
 11
552.5269557796685
 21
15.59999986828871
 31
0.0
  0
LINE
  5
8CE
330
1A
100
AcDbEntity
  8
ZUWAKU
100
AcDbLine
 10
447.6243639845472
 20
29.99999986828868
 30
0.0
 11
447.6243639845474
 21
0.7999998682887508
 31
0.0
  0
LINE
  5
8CF
330
1A
100
AcDbEntity
  8
ZUWAKU
100
AcDbLine
 10
447.8243639845472
 20
29.99999986828868
 30
0.0
 11
447.8243639845475
 21
0.7999998682887508
 31
0.0
  0
LINE
  5
8D0
330
1A
100
AcDbEntity
  8
ZUWAKU
100
AcDbLine
 10
447.4243639845474
 20
29.99999986828868
 30
0.0
 11
447.4243639845474
 21
0.7999998682887508
 31
0.0
  0
TEXT
  5
8D1
330
1A
100
AcDbEntity
  8
MOJI
100
AcDbText
 10
528.0409079858689
 20
18.00492092569607
 30
0.0
 40
5.599999999999999
  1
Ａ３
 41
0.9
  7
ｽﾀｲﾙ1
100
AcDbText
  0
LINE
  5
8D2
330
1A
100
AcDbEntity
  8
ZUWAKU
100
AcDbLine
 10
504.9991795116969
 20
29.99999986828868
 30
0.0
 11
504.999179511697
 21
0.7999998682887508
 31
0.0
  0
LINE
  5
8D3
330
1A
100
AcDbEntity
  8
ZUWAKU
100
AcDbLine
 10
505.1991795116968
 20
29.99999986828868
 30
0.0
 11
505.1991795116971
 21
0.7999998682887508
 31
0.0
  0
LINE
  5
8D4
330
1A
100
AcDbEntity
  8
ZUWAKU
100
AcDbLine
 10
504.799179511697
 20
29.99999986828868
 30
0.0
 11
504.799179511697
 21
0.7999998682887508
 31
0.0
  0
TEXT
  5
8D5
330
1A
100
AcDbEntity
  8
ZUWAKU
100
AcDbText
 10
461.9861313271924
 20
2.614070779428175
 30
0.0
 40
3.0
  1
□には色品番が入ります
 41
0.9
  7
ｽﾀｲﾙ1
100
AcDbText
  0
TEXT
  5
8D6
330
1A
100
AcDbEntity
  8
ZUWAKU
100
AcDbText
 10
506.6766245339067
 20
9.6553564066743
 30
0.0
 40
4.0
  1
縮尺
 41
0.9
  7
ｽﾀｲﾙ1
100
AcDbText
  0
TEXT
  5
8D7
330
1A
100
AcDbEntity
  8
MOJI
100
AcDbText
 10
528.0409079858689
 20
3.204920925696104
 30
0.0
 40
5.599999999999999
  1
１/２
 41
0.9
  7
ｽﾀｲﾙ1
100
AcDbText
  0
TEXT
  5
8D8
330
1A
100
AcDbEntity
  8
ZUWAKU
100
AcDbText
 10
449.3018090067569
 20
24.05535640667426
 30
0.0
 40
4.0
  1
品番
 41
0.9
  7
ｽﾀｲﾙ1
100
AcDbText
  0
TEXT
  5
8D9
330
1A
100
AcDbEntity
  8
ZUWAKU
100
AcDbText
 10
506.6766245339065
 20
24.05535640667426
 30
0.0
 40
4.0
  1
用紙
 41
0.9
  7
ｽﾀｲﾙ1
100
AcDbText
  0
LINE
  5
8DA
330
1A
100
AcDbEntity
  8
ZUWAKU
100
AcDbLine
 10
648.6172025237603
 20
29.99999986828868
 30
0.0
 11
648.6172025237606
 21
0.7999998682887508
 31
0.0
  0
LINE
  5
8DB
330
1A
100
AcDbEntity
  8
ZUWAKU
100
AcDbLine
 10
648.8172025237604
 20
29.99999986828868
 30
0.0
 11
648.8172025237607
 21
0.7999998682887508
 31
0.0
  0
LINE
  5
8DC
330
1A
100
AcDbEntity
  8
ZUWAKU
100
AcDbLine
 10
648.4172025237605
 20
29.99999986828868
 30
0.0
 11
648.4172025237605
 21
0.7999998682887508
 31
0.0
  0
LINE
  5
8DD
330
1A
100
AcDbEntity
  8
ZUWAKU
100
AcDbLine
 10
552.7269557796683
 20
29.99999986828868
 30
0.0
 11
552.7269557796684
 21
0.7999998682887508
 31
0.0
  0
LINE
  5
8DE
330
1A
100
AcDbEntity
  8
ZUWAKU
100
AcDbLine
 10
552.9269557796683
 20
29.99999986828868
 30
0.0
 11
552.9269557796685
 21
0.7999998682887508
 31
0.0
  0
LINE
  5
8DF
330
1A
100
AcDbEntity
  8
ZUWAKU
100
AcDbLine
 10
552.5269557796685
 20
29.99999986828868
 30
0.0
 11
552.5269557796685
 21
0.7999998682887508
 31
0.0
  0
TEXT
  5
8E0
330
1A
100
AcDbEntity
  8
ZUWAKU
100
AcDbText
 10
650.29464754597
 20
24.05535640667426
 30
0.0
 40
4.0
  1
DATE
 41
0.9
  7
ｽﾀｲﾙ1
100
AcDbText
  0
LINE
  5
8E1
330
1A
100
AcDbEntity
  8
ZUWAKU
100
AcDbLine
 10
697.2490105620972
 20
29.99999986828868
 30
0.0
 11
697.2490105620972
 21
0.7999998682887508
 31
0.0
  0
LINE
  5
8E2
330
1A
100
AcDbEntity
  8
ZUWAKU
100
AcDbLine
 10
697.4490105620973
 20
29.99999986828868
 30
0.0
 11
697.4490105620973
 21
0.7999998682887508
 31
0.0
  0
LINE
  5
8E3
330
1A
100
AcDbEntity
  8
ZUWAKU
100
AcDbLine
 10
697.6490105620971
 20
29.99999986828868
 30
0.0
 11
697.6490105620974
 21
0.7999998682887508
 31
0.0
  0
LINE
  5
8E4
330
1A
100
AcDbEntity
  8
ZUWAKU
100
AcDbLine
 10
697.8490105620972
 20
29.99999986828868
 30
0.0
 11
697.8490105620974
 21
0.7999998682887508
 31
0.0
  0
TEXT
  5
8E5
330
1A
100
AcDbEntity
  8
ZUWAKU
100
AcDbText
 10
708.5280842057998
 20
17.55383920397548
 30
0.0
 40
6.0
  1
積水化学工業株式会社
 41
0.9
  7
ｽﾀｲﾙ1
100
AcDbText
  0
TEXT
  5
8E6
330
1A
100
AcDbEntity
  8
ZUWAKU
100
AcDbText
 10
708.5280842057998
 20
6.648840182142748
 30
0.0
 40
6.0
  1
建材事業部
 41
0.9
  7
ｽﾀｲﾙ1
100
AcDbText
  0
LINE
  5
DA7
330
1A
100
AcDbEntity
  8
SEIHIN
100
AcDbLine
 10
546.755766819685
 20
462.9040431616754
 30
0.0
 11
546.755766819685
 21
332.9040431616754
 31
0.0
  0
LINE
  5
DA9
330
1A
100
AcDbEntity
  8
SEIHIN
100
AcDbLine
 10
544.2489618283903
 20
332.9040431616754
 30
0.0
 11
544.2489618283903
 21
462.9040431616754
 31
0.0
  0
LINE
  5
DAF
330
1A
100
AcDbEntity
  8
SEIHIN
100
AcDbLine
 10
440.6693940624181
 20
380.9040431616752
 30
0.0
 11
440.6693940624181
 21
332.9040431616752
 31
0.0
  0
LINE
  5
DB1
330
1A
100
AcDbEntity
  8
SEIHIN
100
AcDbLine
 10
432.1693940624177
 20
382.9040431616753
 30
0.0
 11
432.1693940624177
 21
332.9040431616752
 31
0.0
  0
LINE
  5
DB2
330
1A
100
AcDbEntity
  8
SEIHIN
100
AcDbLine
 10
437.6693940624177
 20
382.9040431616752
 30
0.0
 11
437.6693940624177
 21
332.9040431616752
 31
0.0
  0
LINE
  5
DB8
330
1A
100
AcDbEntity
  8
SEIHIN
100
AcDbLine
 10
420.6804523678197
 20
462.9040431616754
 30
0.0
 11
420.6804523678197
 21
332.9040431616754
 31
0.0
  0
LINE
  5
DBE
330
1A
100
AcDbEntity
  8
SEIHIN
100
AcDbLine
 10
544.018519453335
 20
170.4708288500979
 30
0.0
 11
534.7155229871027
 21
111.1670627842379
 31
0.0
  0
LINE
  5
DBF
330
1A
100
AcDbEntity
  8
SEIHIN
100
AcDbLine
 10
537.1853189661988
 20
110.779625277481
 30
0.0
 11
546.4851415526086
 21
170.0631588271637
 31
0.0
  0
LINE
  5
DC0
330
1A
100
AcDbEntity
  8
SEIHIN
100
AcDbLine
 10
443.2648552265882
 20
111.2583701041008
 30
0.0
 11
441.5782613960809
 21
130.5335392637796
 31
0.0
  0
LINE
  5
DC1
330
1A
100
AcDbEntity
  8
SEIHIN
100
AcDbLine
 10
439.2726276116686
 20
128.2030653423812
 30
0.0
 11
440.9270174746689
 21
109.2959379187068
 31
0.0
  0
ARC
  5
DD1
330
1A
100
AcDbEntity
  8
SEIHIN
100
AcDbCircle
 10
488.8793940624181
 20
1106.411434959887
 30
0.0
 40
997.5000000000003
100
AcDbArc
 50
267.4611129628138
 51
272.5523615615421
  0
ARC
  5
DD2
330
1A
100
AcDbEntity
  8
SEIHIN
100
AcDbCircle
 10
488.8793940624181
 20
1106.411434959887
 30
0.0
 40
1000.0
100
AcDbArc
 50
267.3604758624242
 51
272.5523615615421
  0
ARC
  5
DD3
330
1A
100
AcDbEntity
  8
SEIHIN
100
AcDbCircle
 10
442.9194047613
 20
109.4702735148189
 30
0.0
 40
2.000000000000271
100
AcDbArc
 50
185.0006933570874
 51
267.3604758624242
  0
ARC
  5
DD4
330
1A
100
AcDbEntity
  8
SEIHIN
100
AcDbCircle
 10
444.7591456915615
 20
111.3891218011849
 30
0.0
 40
1.5000000000002
100
AcDbArc
 50
185.0006933570857
 51
267.4611129628138
  0
ARC
  5
DD5
330
1A
100
AcDbEntity
  8
SEIHIN
100
AcDbCircle
 10
533.2336453996454
 20
111.3995252882918
 30
0.0
 40
1.50000000000009
100
AcDbArc
 50
272.552361561516
 51
351.0846535048932
  0
ARC
  5
DD6
330
1A
100
AcDbEntity
  8
SEIHIN
100
AcDbCircle
 10
533.2336453996454
 20
111.3995252882917
 30
0.0
 40
3.999999999999993
100
AcDbArc
 50
272.5523615615421
 51
351.0846535048932
  0
LINE
  5
DD7
330
1A
100
AcDbEntity
  8
SEIHIN
100
AcDbLine
 10
279.0399877301329
 20
209.3114349598867
 30
0.0
 11
329.0399877301329
 21
209.3114349598867
 31
0.0
  0
LINE
  5
DD8
330
1A
100
AcDbEntity
  8
SEIHIN
100
AcDbLine
 10
281.0399877301329
 20
218.3114349598868
 30
0.0
 11
329.0399877301329
 21
218.3114349598869
 31
0.0
  0
LINE
  5
DD9
330
1A
100
AcDbEntity
  8
SEIHIN
100
AcDbLine
 10
317.0399877301328
 20
205.2711440396121
 30
0.0
 11
211.0399877301325
 21
205.2711440396121
 31
0.0
  0
LINE
  5
DDA
330
1A
100
AcDbEntity
  8
SEIHIN
100
AcDbLine
 10
199.0399877301329
 20
206.0946119782526
 30
0.0
 11
329.0399877301329
 21
206.0946119782526
 31
0.0
  0
LINE
  5
DE5
330
1A
100
AcDbEntity
  8
SEIHIN
100
AcDbLine
 10
199.0399877301329
 20
218.3114349598869
 30
0.0
 11
199.0399877301328
 21
106.4117242441714
 31
0.0
  0
LINE
  5
DED
330
1A
100
AcDbEntity
  8
SEIHIN
100
AcDbLine
 10
249.0399877301328
 20
209.3114349598867
 30
0.0
 11
199.0399877301329
 21
209.3114349598867
 31
0.0
  0
LINE
  5
E05
330
1A
100
AcDbEntity
  8
SEIHIN
100
AcDbLine
 10
252.0399877301329
 20
224.8098621505434
 30
0.0
 11
276.0399877301328
 21
224.8098621505434
 31
0.0
  0
LINE
  5
E06
330
1A
100
AcDbEntity
  8
SEIHIN
100
AcDbLine
 10
250.0399877301329
 20
207.3114349598867
 30
0.0
 11
278.0399877301328
 21
207.3114349598867
 31
0.0
  0
LINE
  5
E0B
330
1A
100
AcDbEntity
  8
SEIHIN
100
AcDbLine
 10
249.0399877301328
 20
208.3114349598868
 30
0.0
 11
249.0399877301328
 21
209.3114349598867
 31
0.0
  0
LINE
  5
E27
330
1A
100
AcDbEntity
  8
SEIHIN
100
AcDbLine
 10
279.0399877301329
 20
208.3114349598868
 30
0.0
 11
279.0399877301329
 21
209.3114349598867
 31
0.0
  0
LINE
  5
E2F
330
1A
100
AcDbEntity
  8
SEIHIN
100
AcDbLine
 10
276.0399877301328
 20
224.8098621505434
 30
0.0
 11
278.3312755776105
 21
224.8098621505434
 31
0.0
  0
LINE
  5
E3B
330
1A
100
AcDbEntity
  8
SEIHIN
100
AcDbLine
 10
279.0399877301329
 20
224.3098621505435
 30
0.0
 11
279.0399877301329
 21
220.3120532898323
 31
0.0
  0
LINE
  5
E3F
330
1A
100
AcDbEntity
  8
SEIHIN
100
AcDbLine
 10
329.0399877301329
 20
218.3114349598869
 30
0.0
 11
329.0399877301328
 21
106.4117242441714
 31
0.0
  0
ARC
  5
E5A
330
1A
100
AcDbEntity
  8
SEIHIN
100
AcDbCircle
 10
1419.980328507461
 20
219.428227636173
 30
0.0
 40
997.5000000000003
100
AcDbArc
 50
182.2678493388758
 51
184.76018793703
  0
ARC
  5
E5B
330
1A
100
AcDbEntity
  8
SEIHIN
100
AcDbCircle
 10
1419.980328507461
 20
219.428227636173
 30
0.0
 40
1000.0
100
AcDbArc
 50
182.1446628286393
 51
184.9027067593153
  0
LINE
  5
E5C
330
1A
100
AcDbEntity
  8
SEIHIN
100
AcDbLine
 10
440.4592419277069
 20
131.8550863235331
 30
0.0
 11
427.0404981964629
 21
135.3224619646813
 31
0.0
  0
LINE
  5
E5D
330
1A
100
AcDbEntity
  8
SEIHIN
100
AcDbLine
 10
424.0121489805883
 20
133.522867797569
 30
0.0
 11
437.7806016538365
 21
129.9651280887192
 31
0.0
  0
ARC
  5
E5E
330
1A
100
AcDbEntity
  8
SEIHIN
100
AcDbCircle
 10
427.4157691930618
 20
136.7747607215187
 30
0.0
 40
1.500000000000321
100
AcDbArc
 50
184.7601879370283
 51
255.5117967719766
  0
ARC
  5
E5F
330
1A
100
AcDbEntity
  8
SEIHIN
100
AcDbCircle
 10
424.1372393127871
 20
134.0069673831814
 30
0.0
 40
0.4999999999997148
100
AcDbArc
 50
184.9027067593185
 51
255.5117967720573
  0
ARC
  5
E60
330
1A
100
AcDbEntity
  8
SEIHIN
100
AcDbCircle
 10
440.083970931108
 20
130.4027875666955
 30
0.0
 40
1.500000000000015
100
AcDbArc
 50
5.000693357088985
 51
75.51179677197659
  0
ARC
  5
E61
330
1A
100
AcDbEntity
  8
SEIHIN
100
AcDbCircle
 10
437.2802403250379
 20
128.0287297462692
 30
0.0
 40
2.000000000000012
100
AcDbArc
 50
5.000693357087364
 51
75.51179677197659
  0
ARC
  5
E62
330
1A
100
AcDbEntity
  8
SEIHIN
100
AcDbCircle
 10
439.6693940624182
 20
206.0540756470061
 30
0.0
 40
3.5
100
AcDbArc
 50
289.4712206344996
 51
0.0
  0
ARC
  5
E63
330
1A
100
AcDbEntity
  8
SEIHIN
100
AcDbCircle
 10
427.1693940624182
 20
204.8114349598868
 30
0.0
 40
2.0
100
AcDbArc
 50
180.0
 51
270.0
  0
ARC
  5
E64
330
1A
100
AcDbEntity
  8
SEIHIN
100
AcDbCircle
 10
438.6693940624176
 20
191.2247089543486
 30
0.0
 40
1.500000000000236
100
AcDbArc
 50
299.1974860460889
 51
0.0
  0
LINE
  5
E65
330
1A
100
AcDbEntity
  8
SEIHIN
100
AcDbLine
 10
436.6450367777479
 20
191.2390000066889
 30
0.0
 11
420.9365416889872
 21
182.4607233394401
 31
0.0
  0
LINE
  5
E66
330
1A
100
AcDbEntity
  8
SEIHIN
100
AcDbLine
 10
424.0287063465384
 20
181.3248238695206
 30
0.0
 11
439.4011260989154
 21
189.9152937311427
 31
0.0
  0
ARC
  5
E67
330
1A
100
AcDbEntity
  8
SEIHIN
100
AcDbCircle
 10
421.1804523678193
 20
182.0242515983716
 30
0.0
 40
0.499999999999684
100
AcDbArc
 50
119.1974860460295
 51
182.1446628286377
  0
ARC
  5
E68
330
1A
100
AcDbEntity
  8
SEIHIN
100
AcDbCircle
 10
424.7604383830362
 20
180.0154086463147
 30
0.0
 40
1.500000000000137
100
AcDbArc
 50
119.1974860460889
 51
182.2678493388758
  0
LINE
  5
E69
330
1A
100
AcDbEntity
  8
SEIHIN
100
AcDbLine
 10
427.1693940624182
 20
202.8114349598868
 30
0.0
 11
435.6693940624182
 21
202.8114349598868
 31
0.0
  0
ARC
  5
E6A
330
1A
100
AcDbEntity
  8
SEIHIN
100
AcDbCircle
 10
441.1693940624181
 20
201.8114349598868
 30
0.0
 40
1.000000000000454
100
AcDbArc
 50
109.4712206344999
 51
180.0
  0
LINE
  5
E6B
330
1A
100
AcDbEntity
  8
SEIHIN
100
AcDbLine
 10
437.6693940624177
 20
200.8114349598868
 30
0.0
 11
437.6693940624177
 21
192.9848869709633
 31
0.0
  0
ARC
  5
E6C
330
1A
100
AcDbEntity
  8
SEIHIN
100
AcDbCircle
 10
435.6693940624182
 20
192.9848869709633
 30
0.0
 40
1.99999999999992
100
AcDbArc
 50
299.1974860460598
 51
0.0
  0
LINE
  5
E6D
330
1A
100
AcDbEntity
  8
SEIHIN
100
AcDbLine
 10
440.1693940624177
 20
191.2247089543486
 30
0.0
 11
440.1693940624177
 21
201.8114349598868
 31
0.0
  0
ARC
  5
E6E
330
1A
100
AcDbEntity
  8
SEIHIN
100
AcDbCircle
 10
435.6693940624182
 20
200.8114349598868
 30
0.0
 40
2.0
100
AcDbArc
 50
0.0
 51
90.0
  0
ARC
  5
E6F
330
1A
100
AcDbEntity
  8
SEIHIN
100
AcDbCircle
 10
438.1693940624181
 20
216.3130077692303
 30
0.0
 40
2.5
100
AcDbArc
 50
0.0
 51
77.27564431457574
  0
LINE
  5
E70
330
1A
100
AcDbEntity
  8
SEIHIN
100
AcDbLine
 10
440.6693940624181
 20
218.3114349598869
 30
0.0
 11
440.6693940624181
 21
206.1614349598868
 31
0.0
  0
LINE
  5
E71
330
1A
100
AcDbEntity
  8
SEIHIN
100
AcDbLine
 10
443.1693940624182
 20
206.0540756470061
 30
0.0
 11
443.1693940624182
 21
216.7126932073615
 31
0.0
  0
LINE
  5
E72
330
1A
100
AcDbEntity
  8
SEIHIN
100
AcDbLine
 10
436.6693940624181
 20
207.3114349598867
 30
0.0
 11
432.6693940624181
 21
207.3114349598867
 31
0.0
  0
ARC
  5
E73
330
1A
100
AcDbEntity
  8
SEIHIN
100
AcDbCircle
 10
431.6693940624181
 20
208.8114349598868
 30
0.0
 40
0.5000000000000569
100
AcDbArc
 50
0.0
 51
90.0
  0
LINE
  5
E74
330
1A
100
AcDbEntity
  8
SEIHIN
100
AcDbLine
 10
432.1693940624177
 20
207.8114349598868
 30
0.0
 11
432.1693940624177
 21
208.8114349598868
 31
0.0
  0
ARC
  5
E75
330
1A
100
AcDbEntity
  8
SEIHIN
100
AcDbCircle
 10
432.6693940624181
 20
207.8114349598868
 30
0.0
 40
0.5000000000004548
100
AcDbArc
 50
180.0
 51
270.0
  0
LINE
  5
E76
330
1A
100
AcDbEntity
  8
SEIHIN
100
AcDbLine
 10
429.8122512052755
 20
208.3114349598868
 30
0.0
 11
427.9551083481323
 21
207.3114349598867
 31
0.0
  0
LINE
  5
E77
330
1A
100
AcDbEntity
  8
SEIHIN
100
AcDbLine
 10
429.8122512052755
 20
208.3114349598868
 30
0.0
 11
431.6693940624181
 21
209.3114349598867
 31
0.0
  0
LINE
  5
E78
330
1A
100
AcDbEntity
  8
SEIHIN
100
AcDbLine
 10
425.1693940624181
 20
205.2141408783304
 30
0.0
 11
425.1693940624181
 21
204.8114349598868
 31
0.0
  0
ARC
  5
E79
330
1A
100
AcDbEntity
  8
SEIHIN
100
AcDbCircle
 10
426.1693940624182
 20
205.2141408783304
 30
0.0
 40
1.00000000000017
100
AcDbArc
 50
118.300755766033
 51
180.0
  0
ARC
  5
E7A
330
1A
100
AcDbEntity
  8
SEIHIN
100
AcDbCircle
 10
426.1693940624182
 20
205.2141408783304
 30
0.0
 40
1.000000000000187
100
AcDbArc
 50
176.732188091201
 51
180.0
  0
LINE
  5
E7B
330
1A
100
AcDbEntity
  8
SEIHIN
100
AcDbLine
 10
431.6693940624181
 20
209.3114349598867
 30
0.0
 11
425.6952942393827
 21
206.0946119782526
 31
0.0
  0
ARC
  5
E7C
330
1A
100
AcDbEntity
  8
SEIHIN
100
AcDbCircle
 10
436.6693940624181
 20
206.3114349598868
 30
0.0
 40
1.0
100
AcDbArc
 50
0.0
 51
90.0
  0
LINE
  5
E7D
330
1A
100
AcDbEntity
  8
SEIHIN
100
AcDbLine
 10
437.6693940624177
 20
206.1614349598868
 30
0.0
 11
437.6693940624177
 21
206.3114349598868
 31
0.0
  0
ARC
  5
E7E
330
1A
100
AcDbEntity
  8
SEIHIN
100
AcDbCircle
 10
438.6693940624176
 20
206.1614349598868
 30
0.0
 40
1.0
100
AcDbArc
 50
180.0
 51
270.0
  0
LINE
  5
E7F
330
1A
100
AcDbEntity
  8
SEIHIN
100
AcDbLine
 10
439.6693940624182
 20
205.1614349598868
 30
0.0
 11
438.6693940624176
 21
205.1614349598868
 31
0.0
  0
ARC
  5
E80
330
1A
100
AcDbEntity
  8
SEIHIN
100
AcDbCircle
 10
439.6693940624182
 20
206.1614349598868
 30
0.0
 40
1.0
100
AcDbArc
 50
270.0
 51
0.0
  0
LINE
  5
E82
330
1A
100
AcDbEntity
  8
SEIHIN
100
AcDbLine
 10
428.0592636267006
 20
223.7218270876408
 30
0.0
 11
439.660567983874
 21
221.1021777166663
 31
0.0
  0
LINE
  5
E83
330
1A
100
AcDbEntity
  8
SEIHIN
100
AcDbLine
 10
438.7200462410046
 20
218.7516102743995
 30
0.0
 11
427.9491331909834
 21
221.183751930856
 31
0.0
  0
ARC
  5
E88
330
1A
100
AcDbEntity
  8
SEIHIN
100
AcDbCircle
 10
428.1693940624177
 20
224.2095475886746
 30
0.0
 40
0.499999999999935
100
AcDbArc
 50
180.0
 51
257.2756443146023
  0
LINE
  5
E89
330
1A
100
AcDbEntity
  8
SEIHIN
100
AcDbLine
 10
427.6693940624181
 20
224.3098621505434
 30
0.0
 11
427.6693940624181
 21
224.2095475886746
 31
0.0
  0
LINE
  5
E8A
330
1A
100
AcDbEntity
  8
SEIHIN
100
AcDbLine
 10
425.1693940624181
 20
222.6108058361494
 30
0.0
 11
425.1693940624181
 21
224.3098621505434
 31
0.0
  0
ARC
  5
E8D
330
1A
100
AcDbEntity
  8
SEIHIN
100
AcDbCircle
 10
426.1693940624182
 20
222.6108058361494
 30
0.0
 40
1.000000000000025
100
AcDbArc
 50
180.0
 51
257.2756443145757
  0
ARC
  5
E8F
330
1A
100
AcDbEntity
  8
SEIHIN
100
AcDbCircle
 10
425.6693940624177
 20
224.3098621505434
 30
0.0
 40
0.5
100
AcDbArc
 50
90.0
 51
180.0
  0
LINE
  5
E90
330
1A
100
AcDbEntity
  8
SEIHIN
100
AcDbLine
 10
425.6693940624177
 20
224.8098621505434
 30
0.0
 11
427.1693940624182
 21
224.8098621505434
 31
0.0
  0
LINE
  5
E93
330
1A
100
AcDbEntity
  8
SEIHIN
100
AcDbLine
 10
425.9491331909835
 20
221.6353648340817
 30
0.0
 11
427.9491331909834
 21
221.183751930856
 31
0.0
  0
ARC
  5
E97
330
1A
100
AcDbEntity
  8
SEIHIN
100
AcDbCircle
 10
427.1693940624182
 20
224.3098621505434
 30
0.0
 40
0.5
100
AcDbArc
 50
0.0
 51
90.0
  0
LINE
  5
E98
330
1A
100
AcDbEntity
  8
SEIHIN
100
AcDbLine
 10
443.0420441937517
 20
217.7756752528116
 30
0.0
 11
440.6693940624181
 21
218.3114349598869
 31
0.0
  0
ARC
  5
E99
330
1A
100
AcDbEntity
  8
SEIHIN
100
AcDbCircle
 10
438.6693940624176
 20
216.7126932073615
 30
0.0
 40
4.500000000000487
100
AcDbArc
 50
0.0
 51
13.66344427581783
  0
ARC
  5
E9B
330
1A
100
AcDbEntity
  8
SEIHIN
100
AcDbCircle
 10
438.6693940624004
 20
216.71269320735
 30
0.0
 40
4.500000000020033
100
AcDbArc
 50
13.66344427591022
 51
50.00959986377512
  0
ARC
  5
E9F
330
1A
100
AcDbEntity
  8
SEIHIN
100
AcDbCircle
 10
438.6693940624176
 20
216.7126932073615
 30
0.0
 40
4.500000000000087
100
AcDbArc
 50
50.00959986384383
 51
77.27564431457574
  0
LINE
  5
EA0
330
1A
100
AcDbEntity
  8
SEIHIN
100
AcDbLine
 10
546.7558467148996
 20
332.9040431616756
 30
0.0
 11
420.682078369959
 21
332.9040431616756
 31
0.0
  0
ARC
  5
EB7
330
1A
100
AcDbEntity
  8
SEIHIN
100
AcDbCircle
 10
544.7486250433935
 20
172.8416913568047
 30
0.0
 40
0.4999999999999364
100
AcDbArc
 50
102.8042660652536
 51
177.896931705159
  0
LINE
  5
EB8
330
1A
100
AcDbEntity
  8
SEIHIN
100
AcDbLine
 10
546.1450361631046
 20
173.6718081645883
 30
0.0
 11
544.6378144915993
 21
173.3292577847005
 31
0.0
  0
ARC
  5
EB9
330
1A
100
AcDbEntity
  8
SEIHIN
100
AcDbCircle
 10
546.2558467148997
 20
173.1842417366925
 30
0.0
 40
0.5000000000001381
100
AcDbArc
 50
358.9757197602308
 51
102.8042660653605
  0
ARC
  5
EBA
330
1A
100
AcDbEntity
  8
SEIHIN
100
AcDbCircle
 10
524.059394062418
 20
173.5810913885152
 30
0.0
 40
22.70000000000013
100
AcDbArc
 50
351.0846535048932
 51
358.9757197602308
  0
ARC
  5
EBB
330
1A
100
AcDbEntity
  8
SEIHIN
100
AcDbCircle
 10
524.06256794224
 20
173.6013239046925
 30
0.0
 40
20.2000000000004
100
AcDbArc
 50
351.0846535048932
 51
357.8969317051589
  0
LINE
  5
ECE
330
1A
100
AcDbEntity
  8
SEIHIN
100
AcDbLine
 10
427.6693940624181
 20
412.195331009153
 30
0.0
 11
427.6693940624181
 21
383.6127553141973
 31
0.0
  0
LINE
  5
ECF
330
1A
100
AcDbEntity
  8
SEIHIN
100
AcDbLine
 10
425.1693940624181
 20
385.9040431616751
 30
0.0
 11
425.1693940624181
 21
409.9040431616751
 31
0.0
  0
LINE
  5
ED1
330
1A
100
AcDbEntity
  8
SEIHIN
100
AcDbLine
 10
439.660567983874
 20
382.9040431616752
 30
0.0
 11
439.660567983874
 21
412.9040431616751
 31
0.0
  0
LINE
  5
ED2
330
1A
100
AcDbEntity
  8
SEIHIN
100
AcDbLine
 10
425.1710200645574
 20
335.4040431616752
 30
0.0
 11
425.1710200645574
 21
385.8052840154947
 31
0.0
  0
LINE
  5
ED4
330
1A
100
AcDbEntity
  8
SEIHIN
100
AcDbLine
 10
428.1693940624177
 20
382.9040431616752
 30
0.0
 11
441.561360689699
 21
382.9040431616752
 31
0.0
  0
ARC
  5
ED7
330
1A
100
AcDbEntity
  8
SEIHIN
100
AcDbCircle
 10
428.169394062414
 20
385.904043161629
 30
0.0
 40
2.999999999953843
100
AcDbArc
 50
262.7029971635784
 51
270.0000000000781
  0
ARC
  5
EDB
330
1A
100
AcDbEntity
  8
SEIHIN
100
AcDbCircle
 10
428.1693940624177
 20
385.9040431616751
 30
0.0
 40
2.999999999999914
100
AcDbArc
 50
180.0
 51
246.4218215217928
  0
ARC
  5
EDD
330
1A
100
AcDbEntity
  8
SEIHIN
100
AcDbCircle
 10
427.1693940624182
 20
383.6127553141973
 30
0.0
 40
0.5000000000000983
100
AcDbArc
 50
246.421821521764
 51
0.0
  0
ARC
  5
EDF
330
1A
100
AcDbEntity
  8
SEIHIN
100
AcDbCircle
 10
428.169394062414
 20
385.9040431616609
 30
0.0
 40
2.999999999985382
100
AcDbArc
 50
246.4218215217637
 51
262.7029971636572
  0
POLYLINE
  5
EE0
330
1A
100
AcDbEntity
  8
SEIHIN
100
AcDb2dPolyline
 66
     1
 10
0.0
 20
0.0
 30
0.0
  0
VERTEX
  5
1987
330
EE0
100
AcDbEntity
  8
SEIHIN
100
AcDbVertex
100
AcDb2dVertex
 10
443.0420441937517
 20
380.9040431616752
 30
0.0
  0
VERTEX
  5
1988
330
EE0
100
AcDbEntity
  8
SEIHIN
100
AcDbVertex
100
AcDb2dVertex
 10
443.0405544049781
 20
381.05402484693
 30
0.0
  0
VERTEX
  5
1989
330
EE0
100
AcDbEntity
  8
SEIHIN
100
AcDbVertex
100
AcDb2dVertex
 10
443.0281192560427
 20
381.3540902884493
 30
0.0
  0
VERTEX
  5
198A
330
EE0
100
AcDbEntity
  8
SEIHIN
100
AcDbVertex
100
AcDb2dVertex
 10
443.000834744144
 20
381.6496355843383
 30
0.0
  0
VERTEX
  5
198B
330
EE0
100
AcDbEntity
  8
SEIHIN
100
AcDbVertex
100
AcDb2dVertex
 10
442.9533713127743
 20
381.9367919323791
 30
0.0
  0
VERTEX
  5
198C
330
EE0
100
AcDbEntity
  8
SEIHIN
100
AcDbVertex
100
AcDb2dVertex
 10
442.88045006128
 20
382.1981088453012
 30
0.0
  0
VERTEX
  5
198D
330
EE0
100
AcDbEntity
  8
SEIHIN
100
AcDbVertex
100
AcDb2dVertex
 10
442.7842003706191
 20
382.4094078447259
 30
0.0
  0
VERTEX
  5
198E
330
EE0
100
AcDbEntity
  8
SEIHIN
100
AcDbVertex
100
AcDb2dVertex
 10
442.6570556849928
 20
382.5824931708546
 30
0.0
  0
VERTEX
  5
198F
330
EE0
100
AcDbEntity
  8
SEIHIN
100
AcDbVertex
100
AcDb2dVertex
 10
442.4764523914659
 20
382.7276985187176
 30
0.0
  0
VERTEX
  5
1990
330
EE0
100
AcDbEntity
  8
SEIHIN
100
AcDbVertex
100
AcDb2dVertex
 10
442.255202211566
 20
382.8245850694031
 30
0.0
  0
VERTEX
  5
1991
330
EE0
100
AcDbEntity
  8
SEIHIN
100
AcDbVertex
100
AcDb2dVertex
 10
441.9338642639082
 20
382.8871056499857
 30
0.0
  0
VERTEX
  5
1992
330
EE0
100
AcDbEntity
  8
SEIHIN
100
AcDbVertex
100
AcDb2dVertex
 10
441.5613606896977
 20
382.9040431616752
 30
0.0
  0
SEQEND
  5
1993
330
EE0
100
AcDbEntity
  8
SEIHIN
  0
LINE
  5
F11
330
1A
100
AcDbEntity
  8
SEIHIN
100
AcDbLine
 10
544.2490417236043
 20
332.9040431616756
 30
0.0
 11
544.2490417236042
 21
462.9040431616752
 31
0.0
  0
LINE
  5
F12
330
1A
100
AcDbEntity
  8
SEIHIN
100
AcDbLine
 10
546.7558467148998
 20
332.9040431616756
 30
0.0
 11
546.7558467148997
 21
462.9040431616754
 31
0.0
  0
LINE
  5
F13
330
1A
100
AcDbEntity
  8
SEIHIN
100
AcDbLine
 10
534.5256031116304
 20
332.9040431616756
 30
0.0
 11
534.5256031116304
 21
462.8898715748825
 31
0.0
  0
LINE
  5
F14
330
1A
100
AcDbEntity
  8
SEIHIN
100
AcDbLine
 10
443.3793653406235
 20
332.9040431616756
 30
0.0
 11
443.3793653406235
 21
462.8831860037989
 31
0.0
  0
LINE
  5
F17
330
1A
100
AcDbEntity
  8
SEIHIN
100
AcDbLine
 10
425.1693940624178
 20
332.9040431616757
 30
0.0
 11
425.1693940624178
 21
385.9040431616751
 31
0.0
  0
LINE
  5
F18
330
1A
100
AcDbEntity
  8
SEIHIN
100
AcDbLine
 10
425.1710200645574
 20
332.9040431616757
 30
0.0
 11
425.1710200645574
 21
386.0028023078617
 31
0.0
  0
LINE
  5
F19
330
1A
100
AcDbEntity
  8
SEIHIN
100
AcDbLine
 10
432.1693940624182
 20
332.9040431616757
 30
0.0
 11
432.1693940624182
 21
382.9040431616752
 31
0.0
  0
LINE
  5
F1A
330
1A
100
AcDbEntity
  8
SEIHIN
100
AcDbLine
 10
440.6693940624182
 20
332.9040431616757
 30
0.0
 11
440.6693940624182
 21
382.9040431616751
 31
0.0
  0
LINE
  5
F1B
330
1A
100
AcDbEntity
  8
SEIHIN
100
AcDbLine
 10
437.6693940624181
 20
332.9040431616757
 30
0.0
 11
437.6693940624181
 21
382.9040431616751
 31
0.0
  0
LINE
  5
F1D
330
1A
100
AcDbEntity
  8
CENTER_L
 48
10.0
100
AcDbLine
 10
555.4306018204974
 20
397.9040431616754
 30
0.0
 11
409.623110913199
 21
397.9040431616754
 31
0.0
  0
LINE
  5
F20
330
1A
100
AcDbEntity
  8
SEIHIN
100
AcDbLine
 10
546.7558467148996
 20
462.9040431616752
 30
0.0
 11
420.682078369959
 21
462.9040431616751
 31
0.0
  0
LINE
  5
F21
330
1A
100
AcDbEntity
  8
SEIHIN
100
AcDbLine
 10
443.0420441937517
 20
332.9040431616757
 30
0.0
 11
443.0420441937517
 21
380.9040431616752
 31
0.0
  0
LINE
  5
F24
330
1A
100
AcDbEntity
  8
SEIHIN
100
AcDbLine
 10
440.6693940624182
 20
462.9040431616751
 30
0.0
 11
440.6693940624182
 21
412.9040431616757
 31
0.0
  0
LINE
  5
F25
330
1A
100
AcDbEntity
  8
SEIHIN
100
AcDbLine
 10
437.6693940624181
 20
462.9040431616751
 30
0.0
 11
437.6693940624181
 21
412.9040431616757
 31
0.0
  0
LINE
  5
F26
330
1A
100
AcDbEntity
  8
SEIHIN
100
AcDbLine
 10
432.1693940624182
 20
462.9040431616751
 30
0.0
 11
432.1693940624182
 21
412.9040431616756
 31
0.0
  0
LINE
  5
F27
330
1A
100
AcDbEntity
  8
SEIHIN
100
AcDbLine
 10
425.1693940624178
 20
462.9040431616751
 30
0.0
 11
425.1693940624178
 21
409.9040431616756
 31
0.0
  0
LINE
  5
F28
330
1A
100
AcDbEntity
  8
SEIHIN
100
AcDbLine
 10
425.1710200645574
 20
462.9040431616751
 30
0.0
 11
425.1710200645574
 21
409.805284015489
 31
0.0
  0
LINE
  5
F29
330
1A
100
AcDbEntity
  8
SEIHIN
100
AcDbLine
 10
443.0420441937517
 20
462.9040431616751
 30
0.0
 11
443.0420441937517
 21
414.9040431616756
 31
0.0
  0
LINE
  5
F2A
330
1A
100
AcDbEntity
  8
SEIHIN
100
AcDbLine
 10
437.6693940624177
 20
412.9040431616756
 30
0.0
 11
437.6693940624177
 21
462.9040431616756
 31
0.0
  0
LINE
  5
F2B
330
1A
100
AcDbEntity
  8
SEIHIN
100
AcDbLine
 10
432.1693940624177
 20
412.9040431616755
 30
0.0
 11
432.1693940624177
 21
462.9040431616756
 31
0.0
  0
LINE
  5
F2C
330
1A
100
AcDbEntity
  8
SEIHIN
100
AcDbLine
 10
440.6693940624181
 20
414.9040431616756
 30
0.0
 11
440.6693940624181
 21
462.9040431616756
 31
0.0
  0
LINE
  5
F2E
330
1A
100
AcDbEntity
  8
SEIHIN
100
AcDbLine
 10
428.1693940624177
 20
412.9040431616756
 30
0.0
 11
441.561360689699
 21
412.9040431616756
 31
0.0
  0
ARC
  5
F2F
330
1A
100
AcDbEntity
  8
SEIHIN
100
AcDbCircle
 10
428.169394062414
 20
409.90404316169
 30
0.0
 40
2.999999999985382
100
AcDbArc
 50
97.29700283634274
 51
113.5781784782362
  0
ARC
  5
F30
330
1A
100
AcDbEntity
  8
SEIHIN
100
AcDbCircle
 10
427.1693940624182
 20
412.1953310091535
 30
0.0
 40
0.5000000000000983
100
AcDbArc
 50
0.0
 51
113.5781784782359
  0
ARC
  5
F31
330
1A
100
AcDbEntity
  8
SEIHIN
100
AcDbCircle
 10
428.1693940624177
 20
409.9040431616756
 30
0.0
 40
2.999999999999914
100
AcDbArc
 50
113.5781784782071
 51
180.0
  0
ARC
  5
F32
330
1A
100
AcDbEntity
  8
SEIHIN
100
AcDbCircle
 10
428.169394062414
 20
409.9040431617217
 30
0.0
 40
2.999999999953843
100
AcDbArc
 50
89.99999999992184
 51
97.29700283642147
  0
POLYLINE
  5
F33
330
1A
100
AcDbEntity
  8
SEIHIN
100
AcDb2dPolyline
 66
     1
 10
0.0
 20
0.0
 30
0.0
  0
VERTEX
  5
1994
330
F33
100
AcDbEntity
  8
SEIHIN
100
AcDbVertex
100
AcDb2dVertex
 10
443.0420441937517
 20
414.9040431616755
 30
0.0
  0
VERTEX
  5
1995
330
F33
100
AcDbEntity
  8
SEIHIN
100
AcDbVertex
100
AcDb2dVertex
 10
443.0405544049781
 20
414.7540614764207
 30
0.0
  0
VERTEX
  5
1996
330
F33
100
AcDbEntity
  8
SEIHIN
100
AcDbVertex
100
AcDb2dVertex
 10
443.0281192560427
 20
414.4539960349014
 30
0.0
  0
VERTEX
  5
1997
330
F33
100
AcDbEntity
  8
SEIHIN
100
AcDbVertex
100
AcDb2dVertex
 10
443.000834744144
 20
414.1584507390125
 30
0.0
  0
VERTEX
  5
1998
330
F33
100
AcDbEntity
  8
SEIHIN
100
AcDbVertex
100
AcDb2dVertex
 10
442.9533713127743
 20
413.8712943909716
 30
0.0
  0
VERTEX
  5
1999
330
F33
100
AcDbEntity
  8
SEIHIN
100
AcDbVertex
100
AcDb2dVertex
 10
442.88045006128
 20
413.6099774780495
 30
0.0
  0
VERTEX
  5
199A
330
F33
100
AcDbEntity
  8
SEIHIN
100
AcDbVertex
100
AcDb2dVertex
 10
442.7842003706191
 20
413.3986784786248
 30
0.0
  0
VERTEX
  5
199B
330
F33
100
AcDbEntity
  8
SEIHIN
100
AcDbVertex
100
AcDb2dVertex
 10
442.6570556849928
 20
413.2255931524962
 30
0.0
  0
VERTEX
  5
199C
330
F33
100
AcDbEntity
  8
SEIHIN
100
AcDbVertex
100
AcDb2dVertex
 10
442.4764523914659
 20
413.0803878046332
 30
0.0
  0
VERTEX
  5
199D
330
F33
100
AcDbEntity
  8
SEIHIN
100
AcDbVertex
100
AcDb2dVertex
 10
442.255202211566
 20
412.9835012539476
 30
0.0
  0
VERTEX
  5
199E
330
F33
100
AcDbEntity
  8
SEIHIN
100
AcDbVertex
100
AcDb2dVertex
 10
441.9338642639082
 20
412.920980673365
 30
0.0
  0
VERTEX
  5
199F
330
F33
100
AcDbEntity
  8
SEIHIN
100
AcDbVertex
100
AcDb2dVertex
 10
441.5613606896977
 20
412.9040431616756
 30
0.0
  0
SEQEND
  5
19A0
330
F33
100
AcDbEntity
  8
SEIHIN
  0
LINE
  5
F34
330
1A
100
AcDbEntity
  8
SEIHIN
100
AcDbLine
 10
329.0399877301329
 20
106.4117242441714
 30
0.0
 11
199.0399877301324
 21
106.4117242441714
 31
0.0
  0
LINE
  5
F35
330
1A
100
AcDbEntity
  8
SEIHIN
100
AcDbLine
 10
329.0399877301329
 20
107.5545082681808
 30
0.0
 11
199.0399877301324
 21
107.5545082681808
 31
0.0
  0
LINE
  5
F36
330
1A
100
AcDbEntity
  8
SEIHIN
100
AcDbLine
 10
329.0399877301328
 20
129.6114349598868
 30
0.0
 11
199.0399877301329
 21
129.6114349598868
 31
0.0
  0
LINE
  5
F37
330
1A
100
AcDbEntity
  8
SEIHIN
100
AcDbLine
 10
329.0399877301329
 20
133.6114349598869
 30
0.0
 11
199.0399877301329
 21
133.6114349598869
 31
0.0
  0
LINE
  5
F38
330
1A
100
AcDbEntity
  8
SEIHIN
100
AcDbLine
 10
329.0399877301329
 20
182.3114349598867
 30
0.0
 11
199.0399877301329
 21
182.3114349598867
 31
0.0
  0
LINE
  5
F39
330
1A
100
AcDbEntity
  8
SEIHIN
100
AcDbLine
 10
329.0399877301329
 20
191.8114349598867
 30
0.0
 11
199.0399877301329
 21
191.8114349598867
 31
0.0
  0
LINE
  5
F3A
330
1A
100
AcDbEntity
  8
SEIHIN
100
AcDbLine
 10
329.0399877301329
 20
202.8114349598868
 30
0.0
 11
317.0399877301329
 21
202.8114349598868
 31
0.0
  0
LINE
  5
F3B
330
1A
100
AcDbEntity
  8
SEIHIN
100
AcDbLine
 10
329.039987730133
 20
206.0946119782526
 30
0.0
 11
199.0399877301329
 21
206.0946119782526
 31
0.0
  0
LINE
  5
F3C
330
1A
100
AcDbEntity
  8
SEIHIN
100
AcDbLine
 10
329.039987730133
 20
209.3114349598868
 30
0.0
 11
279.0399877301329
 21
209.3114349598868
 31
0.0
  0
LINE
  5
F3D
330
1A
100
AcDbEntity
  8
SEIHIN
100
AcDbLine
 10
329.0399877301329
 20
218.3114349598869
 30
0.0
 11
199.039987730133
 21
218.311434959887
 31
0.0
  0
LINE
  5
F3F
330
1A
100
AcDbEntity
  8
SEIHIN
100
AcDbLine
 10
278.5399877301329
 20
224.8098621505435
 30
0.0
 11
249.5399877301329
 21
224.8098621505435
 31
0.0
  0
LINE
  5
F41
330
1A
100
AcDbEntity
  8
CENTER_L
 48
10.0
100
AcDbLine
 10
264.0399877301326
 20
99.13882230111926
 30
0.0
 11
264.0399877301326
 21
233.1441344270515
 31
0.0
  0
LINE
  5
F43
330
1A
100
AcDbEntity
  8
SEIHIN
100
AcDbLine
 10
317.0399877301328
 20
205.2711440396121
 30
0.0
 11
317.0399877301328
 21
202.8114349598868
 31
0.0
  0
LINE
  5
F45
330
1A
100
AcDbEntity
  8
SEIHIN
100
AcDbLine
 10
211.0399877301325
 20
205.2711440396121
 30
0.0
 11
211.0399877301325
 21
202.8114349598868
 31
0.0
  0
LINE
  5
F47
330
1A
100
AcDbEntity
  8
SEIHIN
100
AcDbLine
 10
249.0399877301329
 20
224.3098621505439
 30
0.0
 11
249.0399877301328
 21
220.3120532898327
 31
0.0
  0
LINE
  5
F4A
330
1A
100
AcDbEntity
  8
SEIHIN
100
AcDbLine
 10
252.0399877301329
 20
224.8098621505438
 30
0.0
 11
249.7486998826552
 21
224.8098621505438
 31
0.0
  0
LINE
  5
F4B
330
1A
100
AcDbEntity
  8
SEIHIN
100
AcDbLine
 10
211.0399877301325
 20
202.8114349598868
 30
0.0
 11
199.0399877301324
 21
202.8114349598868
 31
0.0
  0
LINE
  5
F4D
330
1A
100
AcDbEntity
  8
SEIHIN
100
AcDbLine
 10
249.0399877301328
 20
209.3114349598868
 30
0.0
 11
199.0399877301329
 21
209.3114349598868
 31
0.0
  0
LINE
  5
F4E
330
1A
100
AcDbEntity
  8
SEIHIN
100
AcDbLine
 10
279.0399877301329
 20
221.9864104771958
 30
0.0
 11
249.0399877301328
 21
221.9864104771958
 31
0.0
  0
LINE
  5
FC0
330
1A
100
AcDbEntity
  8
NOKITOI
100
AcDbLine
 10
429.1675842880029
 20
213.8114349598855
 30
0.0
 11
429.1675842880029
 21
215.9704760244697
 31
0.0
  0
LINE
  5
FC1
330
1A
100
AcDbEntity
  8
NOKITOI
100
AcDbLine
 10
427.6675842880029
 20
216.2986010244697
 30
0.0
 11
427.6675842880029
 21
213.8114349598855
 31
0.0
  0
ARC
  5
FC2
330
1A
100
AcDbEntity
  8
NOKITOI
100
AcDbCircle
 10
1417.667584288738
 20
224.8114349598857
 30
0.0
 40
998.3999999999998
100
AcDbArc
 50
180.1673696882618
 51
180.8493437959589
  0
ARC
  5
FC3
330
1A
100
AcDbEntity
  8
NOKITOI
100
AcDbCircle
 10
437.6675842880032
 20
213.7016425406157
 30
0.0
 40
2.0
100
AcDbArc
 50
0.0
 51
77.66091272167456
  0
ARC
  5
FC4
330
1A
100
AcDbEntity
  8
NOKITOI
100
AcDbCircle
 10
437.6870124014152
 20
213.5033867906112
 30
0.0
 40
1.990469879287869
100
AcDbArc
 50
5.716280370791512
 51
79.4270390383314
  0
LINE
  5
FC5
330
1A
100
AcDbEntity
  8
NOKITOI
100
AcDbLine
 10
437.7744327274059
 20
214.0877279283503
 30
0.0
 11
429.1675842880029
 21
215.9704760244697
 31
0.0
  0
LINE
  5
FC6
330
1A
100
AcDbEntity
  8
NOKITOI
100
AcDbLine
 10
438.0522386698529
 20
215.4600625719289
 30
0.0
 11
424.4111480334364
 21
218.444051148645
 31
0.0
  0
ARC
  5
FC7
330
1A
100
AcDbEntity
  8
NOKITOI
100
AcDbCircle
 10
1417.667584288738
 20
224.8114349598857
 30
0.0
 40
1000.000000000736
100
AcDbArc
 50
180.0795916737998
 51
185.9063572242696
  0
ARC
  5
FC8
330
1A
100
AcDbEntity
  8
NOKITOI
100
AcDbCircle
 10
1417.667584288738
 20
224.8114349598857
 30
0.0
 40
999.800000000736
100
AcDbArc
 50
180.0795916737998
 51
185.9063572242696
  0
ARC
  5
FC9
330
1A
100
AcDbEntity
  8
NOKITOI
100
AcDbCircle
 10
488.8793940624182
 20
1104.811434959886
 30
0.0
 40
998.3999999999999
100
AcDbArc
 50
267.3431291593075
 51
272.5751779642489
  0
ARC
  5
FCA
330
1A
100
AcDbEntity
  8
NOKITOI
100
AcDbCircle
 10
488.8793940624182
 20
1104.811434959886
 30
0.0
 40
1000.0
100
AcDbArc
 50
267.2627870055292
 51
272.6033918042165
  0
ARC
  5
FCB
330
1A
100
AcDbEntity
  8
NOKITOI
100
AcDbCircle
 10
488.8793940624182
 20
1104.811434959886
 30
0.0
 40
999.8000000000002
100
AcDbArc
 50
267.2627870055292
 51
272.6033918042165
  0
ARC
  5
FCC
330
1A
100
AcDbEntity
  8
NOKITOI
100
AcDbCircle
 10
1417.667584288738
 20
224.8114349598857
 30
0.0
 40
998.4000000000001
100
AcDbArc
 50
185.3325301949828
 51
185.8753038897116
  0
LINE
  5
FCD
330
1A
100
AcDbEntity
  8
NOKITOI
100
AcDbLine
 10
437.5212595909966
 20
128.424385333526
 30
0.0
 11
438.0298012049165
 21
122.6114349598863
 31
0.0
  0
LINE
  5
FCE
330
1A
100
AcDbEntity
  8
NOKITOI
100
AcDbLine
 10
440.6993529577706
 20
109.3082112372141
 30
0.0
 11
439.0463560732735
 21
128.2030048870312
 31
0.0
  0
LINE
  5
FCF
330
1A
100
AcDbEntity
  8
NOKITOI
100
AcDbLine
 10
438.1492539408032
 20
120.0985863410323
 30
0.0
 11
439.2273053289114
 21
107.7757811904344
 31
0.0
  0
LINE
  5
FD0
330
1A
100
AcDbEntity
  8
NOKITOI
100
AcDbLine
 10
438.3484929567378
 20
120.1160166172615
 30
0.0
 11
439.426544344846
 21
107.7932114666637
 31
0.0
  0
ARC
  5
FD1
330
1A
100
AcDbEntity
  8
NOKITOI
100
AcDbCircle
 10
441.2196954882571
 20
107.9500839527265
 30
0.0
 40
2.000000000000289
100
AcDbArc
 50
184.9997491441009
 51
267.2627870055292
  0
LINE
  5
FD2
330
1A
100
AcDbEntity
  8
NOKITOI
100
AcDbLine
 10
438.0298012049165
 20
122.6114349598863
 30
0.0
 11
424.5121483171081
 21
122.6114349598863
 31
0.0
  0
LINE
  5
FD3
330
1A
100
AcDbEntity
  8
NOKITOI
100
AcDbLine
 10
423.9708699933408
 20
121.0114349598862
 30
0.0
 11
437.1530588611304
 21
121.0114349598862
 31
0.0
  0
LINE
  5
FD4
330
1A
100
AcDbEntity
  8
NOKITOI
100
AcDbLine
 10
423.9708699933408
 20
121.2114349598862
 30
0.0
 11
437.1530588611304
 21
121.2114349598862
 31
0.0
  0
ARC
  5
FD5
330
1A
100
AcDbEntity
  8
NOKITOI
100
AcDbCircle
 10
423.9708699933408
 20
122.0114349598862
 30
0.0
 40
1.000000000000155
100
AcDbArc
 50
185.9063572242696
 51
270.0
  0
ARC
  5
FD6
330
1A
100
AcDbEntity
  8
NOKITOI
100
AcDbCircle
 10
423.9708699933408
 20
122.0114349598862
 30
0.0
 40
0.8000000000001556
100
AcDbArc
 50
185.9063572242696
 51
270.0
  0
ARC
  5
FD7
330
1A
100
AcDbEntity
  8
NOKITOI
100
AcDbCircle
 10
437.1530588611304
 20
120.0114349598862
 30
0.0
 40
1.000000000000007
100
AcDbArc
 50
4.999749144100993
 51
90.0
  0
ARC
  5
FD8
330
1A
100
AcDbEntity
  8
NOKITOI
100
AcDbCircle
 10
437.1530588611304
 20
120.0114349598862
 30
0.0
 40
1.200000000000007
100
AcDbArc
 50
4.999749144100993
 51
90.0
  0
ARC
  5
FD9
330
1A
100
AcDbEntity
  8
NOKITOI
100
AcDbCircle
 10
442.6917431171162
 20
109.4825139995061
 30
0.0
 40
1.999999999999942
100
AcDbArc
 50
184.9997491441009
 51
267.3431291593075
  0
ARC
  5
FDA
330
1A
100
AcDbEntity
  8
NOKITOI
100
AcDbCircle
 10
441.2196954882571
 20
107.9500839527265
 30
0.0
 40
1.800000000000289
100
AcDbArc
 50
184.9997491441009
 51
267.2627870055292
  0
LINE
  5
FDB
330
1A
100
AcDbEntity
  8
CENTER_L
 48
10.0
100
AcDbLine
 10
488.879394062418
 20
96.66413349222512
 30
0.0
 11
488.879394062418
 21
113.3587364275474
 31
0.0
  0
ARC
  5
FDC
330
1A
100
AcDbEntity
  8
NOKITOI
100
AcDbCircle
 10
1417.667584288738
 20
224.8114349598857
 30
0.0
 40
998.4000000000001
100
AcDbArc
 50
182.4109906480892
 51
185.2410550612985
  0
ARC
  5
FDD
330
1A
100
AcDbEntity
  8
NOKITOI
100
AcDbCircle
 10
437.0539659139279
 20
128.0287021247393
 30
0.0
 40
2.000000000000012
100
AcDbArc
 50
4.999749144100993
 51
75.51309319945739
  0
LINE
  5
FDE
330
1A
100
AcDbEntity
  8
NOKITOI
100
AcDbLine
 10
423.5885661701255
 20
132.0242282106053
 30
0.0
 11
437.5212595909966
 21
128.424385333526
 31
0.0
  0
LINE
  5
FDF
330
1A
100
AcDbEntity
  8
NOKITOI
100
AcDbLine
 10
437.554283427852
 20
129.9651117883333
 30
0.0
 11
423.4416944628904
 21
133.6114349598863
 31
0.0
  0
ARC
  5
FE0
330
1A
100
AcDbEntity
  8
NOKITOI
100
AcDbCircle
 10
426.4593770984143
 20
205.3114349598855
 30
0.0
 40
8.500000000000023
100
AcDbArc
 50
90.0
 51
146.4276220008665
  0
ARC
  5
FE1
330
1A
100
AcDbEntity
  8
NOKITOI
100
AcDbCircle
 10
426.4900219915198
 20
203.8114349598854
 30
0.0
 40
7.000000000000047
100
AcDbArc
 50
181.2137395248443
 51
270.0
  0
ARC
  5
FE2
330
1A
100
AcDbEntity
  8
NOKITOI
100
AcDbCircle
 10
426.4900219915198
 20
203.8114349598854
 30
0.0
 40
8.500000000000021
100
AcDbArc
 50
215.913149754821
 51
270.0
  0
ARC
  5
FE3
330
1A
100
AcDbEntity
  8
NOKITOI
100
AcDbCircle
 10
426.4593770984143
 20
205.3114349598855
 30
0.0
 40
7.000000000000182
100
AcDbArc
 50
90.0
 51
181.127032230844
  0
LINE
  5
FE4
330
1A
100
AcDbEntity
  8
NOKITOI
100
AcDbLine
 10
420.1513889314906
 20
182.8114349598859
 30
0.0
 11
435.8331684897184
 21
191.3567453644634
 31
0.0
  0
LINE
  5
FE5
330
1A
100
AcDbEntity
  8
NOKITOI
100
AcDbLine
 10
420.0824471087877
 20
184.4821146376023
 30
0.0
 11
435.1675842880031
 21
192.7023028639055
 31
0.0
  0
ARC
  5
FE6
330
1A
100
AcDbEntity
  8
NOKITOI
100
AcDbCircle
 10
1417.667584288738
 20
224.8114349598857
 30
0.0
 40
998.3999999999999
100
AcDbArc
 50
181.4914279597314
 51
182.3150327430775
  0
ARC
  5
FE7
330
1A
100
AcDbEntity
  8
NOKITOI
100
AcDbCircle
 10
1417.667584288738
 20
224.8114349598857
 30
0.0
 40
998.4000000007354
100
AcDbArc
 50
181.127032230844
 51
181.2137395248443
  0
ARC
  5
FE8
330
1A
100
AcDbEntity
  8
NOKITOI
100
AcDbCircle
 10
435.067584288003
 20
192.7616940575067
 30
0.0
 40
1.600000000000008
100
AcDbArc
 50
298.5868361218862
 51
0.0
  0
ARC
  5
FE9
330
1A
100
AcDbEntity
  8
NOKITOI
100
AcDbCircle
 10
434.6675842880031
 20
211.8114349598855
 30
0.0
 40
4.999999999999985
100
AcDbArc
 50
270.0
 51
0.0
  0
LINE
  5
FEA
330
1A
100
AcDbEntity
  8
NOKITOI
100
AcDbLine
 10
435.067584288003
 20
196.8114349598854
 30
0.0
 11
426.4900219915198
 21
196.8114349598854
 31
0.0
  0
LINE
  5
FEB
330
1A
100
AcDbEntity
  8
NOKITOI
100
AcDbLine
 10
435.1675842880031
 20
195.3114349598854
 30
0.0
 11
426.4900219915198
 21
195.3114349598854
 31
0.0
  0
LINE
  5
FEC
330
1A
100
AcDbEntity
  8
NOKITOI
100
AcDbLine
 10
435.1675842880031
 20
192.7023028639055
 30
0.0
 11
435.1675842880031
 21
195.3114349598854
 31
0.0
  0
LINE
  5
FED
330
1A
100
AcDbEntity
  8
NOKITOI
100
AcDbLine
 10
436.6675842880032
 20
192.7616940575067
 30
0.0
 11
436.6675842880032
 21
195.2114349598855
 31
0.0
  0
ARC
  5
FEE
330
1A
100
AcDbEntity
  8
NOKITOI
100
AcDbCircle
 10
435.067584288003
 20
195.2114349598855
 30
0.0
 40
1.600000000000008
100
AcDbArc
 50
0.0
 51
90.0
  0
LINE
  5
FEF
330
1A
100
AcDbEntity
  8
NOKITOI
100
AcDbLine
 10
429.1675842880029
 20
213.8114349598855
 30
0.0
 11
432.0971142969311
 21
213.8114349598855
 31
0.0
  0
LINE
  5
FF0
330
1A
100
AcDbEntity
  8
NOKITOI
100
AcDbLine
 10
426.4593770984143
 20
212.3114349598854
 30
0.0
 11
432.2398842961195
 21
212.3114349598854
 31
0.0
  0
LINE
  5
FF1
330
1A
100
AcDbEntity
  8
NOKITOI
100
AcDbLine
 10
426.4593770984143
 20
213.8114349598855
 30
0.0
 11
427.6675842880029
 21
213.8114349598855
 31
0.0
  0
ARC
  5
FF2
330
1A
100
AcDbEntity
  8
NOKITOI
100
AcDbCircle
 10
432.0971142969311
 20
211.2114349598854
 30
0.0
 40
2.600000000000022
100
AcDbArc
 50
340.0168934781021
 51
90.0
  0
ARC
  5
FF3
330
1A
100
AcDbEntity
  8
NOKITOI
100
AcDbCircle
 10
432.2398842961195
 20
211.3114349598855
 30
0.0
 40
1.000000000000003
100
AcDbArc
 50
340.0168934781021
 51
90.0
  0
LINE
  5
FF4
330
1A
100
AcDbEntity
  8
NOKITOI
100
AcDbLine
 10
434.540577198001
 20
210.32290299586
 30
0.0
 11
434.0530875600261
 21
208.9823064914288
 31
0.0
  0
ARC
  5
FF5
330
1A
100
AcDbEntity
  8
NOKITOI
100
AcDbCircle
 10
432.3814342839448
 20
207.3114349598855
 30
0.0
 40
0.5
100
AcDbArc
 50
160.0168934781021
 51
270.0
  0
LINE
  5
FF6
330
1A
100
AcDbEntity
  8
NOKITOI
100
AcDbLine
 10
434.5229842717704
 20
208.3114349598854
 30
0.0
 11
434.6675842880031
 21
208.3114349598854
 31
0.0
  0
LINE
  5
FF7
330
1A
100
AcDbEntity
  8
NOKITOI
100
AcDbLine
 10
432.3814342839448
 20
206.8114349598855
 30
0.0
 11
434.6675842880031
 21
206.8114349598855
 31
0.0
  0
LINE
  5
FF8
330
1A
100
AcDbEntity
  8
NOKITOI
100
AcDbLine
 10
433.1796777196077
 20
210.9696918967987
 30
0.0
 11
431.9115375722006
 21
207.4823064914288
 31
0.0
  0
ARC
  5
FF9
330
1A
100
AcDbEntity
  8
NOKITOI
100
AcDbCircle
 10
434.5229842717704
 20
208.8114349598855
 30
0.0
 40
0.5
100
AcDbArc
 50
160.0168934781021
 51
270.0
  0
ARC
  5
FFA
330
1A
100
AcDbEntity
  8
NOKITOI
100
AcDbCircle
 10
437.6675842880032
 20
213.5992779196521
 30
0.0
 40
0.5
100
AcDbArc
 50
0.0
 51
77.66091272167456
  0
LINE
  5
FFB
330
1A
100
AcDbEntity
  8
NOKITOI
100
AcDbLine
 10
438.1675842880031
 20
211.8114349598855
 30
0.0
 11
438.1675842880031
 21
213.5992779196521
 31
0.0
  0
ARC
  5
FFC
330
1A
100
AcDbEntity
  8
NOKITOI
100
AcDbCircle
 10
434.6675842880031
 20
211.8114349598855
 30
0.0
 40
3.499999999999985
100
AcDbArc
 50
270.0
 51
0.0
  0
LINE
  5
FFD
330
1A
100
AcDbEntity
  8
NOKITOI
100
AcDbLine
 10
439.6675842880031
 20
211.8114349598855
 30
0.0
 11
439.6675842880031
 21
213.7016425406156
 31
0.0
  0
LINE
  5
FFE
330
1A
100
AcDbEntity
  8
NOKITOI
100
AcDbLine
 10
546.7989052467614
 20
169.7303999775833
 30
0.0
 11
537.5092078696265
 21
110.7928625053141
 31
0.0
  0
LINE
  5
FFF
330
1A
100
AcDbEntity
  8
NOKITOI
100
AcDbLine
 10
539.0134328671861
 20
110.0599058720647
 30
0.0
 11
548.3793929813241
 21
169.4812845005538
 31
0.0
  0
LINE
  5
1000
330
1A
100
AcDbEntity
  8
NOKITOI
100
AcDbLine
 10
538.8158719003656
 20
110.0910453066935
 30
0.0
 11
548.1818320145039
 21
169.5124239351824
 31
0.0
  0
ARC
  5
1001
330
1A
100
AcDbEntity
  8
NOKITOI
100
AcDbCircle
 10
534.0744086966765
 20
110.8383917377827
 30
0.0
 40
4.999999999999973
100
AcDbArc
 50
272.6033918042165
 51
351.0427677630327
  0
ARC
  5
1002
330
1A
100
AcDbEntity
  8
NOKITOI
100
AcDbCircle
 10
533.557988533219
 20
111.4156511978885
 30
0.0
 40
4.000000000000015
100
AcDbArc
 50
272.5751779642489
 51
351.0427677630327
  0
ARC
  5
1003
330
1A
100
AcDbEntity
  8
NOKITOI
100
AcDbCircle
 10
534.0744086966765
 20
110.8383917377827
 30
0.0
 40
4.799999999999973
100
AcDbArc
 50
272.6033918042165
 51
351.0427677630327
  0
LINE
  5
1004
330
1A
100
AcDbEntity
  8
NOKITOI
100
AcDbLine
 10
533.6793940624183
 20
169.811434959887
 30
0.0
 11
541.6793940624184
 21
169.811434959887
 31
0.0
  0
LINE
  5
1005
330
1A
100
AcDbEntity
  8
NOKITOI
100
AcDbLine
 10
535.7936155699497
 20
171.311434959887
 30
0.0
 11
540.5982552323341
 21
171.311434959887
 31
0.0
  0
LINE
  5
1006
330
1A
100
AcDbEntity
  8
NOKITOI
100
AcDbLine
 10
540.4450167110731
 20
189.1417853846144
 30
0.0
 11
533.6793940624183
 21
169.811434959887
 31
0.0
  0
LINE
  5
1007
330
1A
100
AcDbEntity
  8
NOKITOI
100
AcDbLine
 10
541.7086155699496
 20
188.2114349598864
 30
0.0
 11
535.7936155699497
 21
171.311434959887
 31
0.0
  0
LINE
  5
1008
330
1A
100
AcDbEntity
  8
NOKITOI
100
AcDbLine
 10
547.0793940624185
 20
175.349686892525
 30
0.0
 11
547.0793940624185
 21
184.8114349598863
 31
0.0
  0
LINE
  5
1009
330
1A
100
AcDbEntity
  8
NOKITOI
100
AcDbLine
 10
548.6793940624179
 20
173.3114349598863
 30
0.0
 11
548.6793940624184
 21
184.8114349598863
 31
0.0
  0
LINE
  5
100A
330
1A
100
AcDbEntity
  8
NOKITOI
100
AcDbLine
 10
548.4793940624179
 20
173.3114349598863
 30
0.0
 11
548.4793940624183
 21
184.8114349598863
 31
0.0
  0
LINE
  5
100B
330
1A
100
AcDbEntity
  8
NOKITOI
100
AcDbLine
 10
541.5234330744262
 20
174.0869684861631
 30
0.0
 11
547.0793940624185
 21
175.349686892525
 31
0.0
  0
LINE
  5
100C
330
1A
100
AcDbEntity
  8
NOKITOI
100
AcDbLine
 10
542.6793940624183
 20
172.811434959887
 30
0.0
 11
547.0793940624185
 21
173.811434959887
 31
0.0
  0
LINE
  5
100D
330
1A
100
AcDbEntity
  8
NOKITOI
100
AcDbLine
 10
541.6793940624184
 20
169.811434959887
 30
0.0
 11
542.6793940624183
 21
172.811434959887
 31
0.0
  0
LINE
  5
100E
330
1A
100
AcDbEntity
  8
NOKITOI
100
AcDbLine
 10
540.5982552323341
 20
171.311434959887
 30
0.0
 11
541.5234330744262
 21
174.0869684861631
 31
0.0
  0
ARC
  5
100F
330
1A
100
AcDbEntity
  8
NOKITOI
100
AcDbCircle
 10
524.0793940624175
 20
173.3114349598863
 30
0.0
 40
23.00000000000073
100
AcDbArc
 50
351.0427677630327
 51
0.0
  0
ARC
  5
1010
330
1A
100
AcDbEntity
  8
NOKITOI
100
AcDbCircle
 10
524.0793940624175
 20
173.3114349598863
 30
0.0
 40
24.60000000000039
100
AcDbArc
 50
351.0427677630327
 51
0.0
  0
ARC
  5
1011
330
1A
100
AcDbEntity
  8
NOKITOI
100
AcDbCircle
 10
524.0793940624175
 20
173.3114349598863
 30
0.0
 40
24.40000000000039
100
AcDbArc
 50
351.0427677630327
 51
0.0
  0
LINE
  5
1012
330
1A
100
AcDbEntity
  8
NOKITOI
100
AcDbLine
 10
547.0793940624185
 20
173.811434959887
 30
0.0
 11
547.0793940624182
 21
173.3114349598863
 31
0.0
  0
ARC
  5
1013
330
1A
100
AcDbEntity
  8
NOKITOI
100
AcDbCircle
 10
543.6793940624183
 20
184.8114349598863
 30
0.0
 40
5.000000000000028
100
AcDbArc
 50
0.0
 51
90.0
  0
ARC
  5
1014
330
1A
100
AcDbEntity
  8
NOKITOI
100
AcDbCircle
 10
543.6793940624183
 20
184.8114349598863
 30
0.0
 40
3.400000000000034
100
AcDbArc
 50
0.0
 51
90.0
  0
ARC
  5
1015
330
1A
100
AcDbEntity
  8
NOKITOI
100
AcDbCircle
 10
543.6793940624183
 20
184.8114349598863
 30
0.0
 40
4.800000000000028
100
AcDbArc
 50
0.0
 51
90.0
  0
LINE
  5
1016
330
1A
100
AcDbEntity
  8
NOKITOI
100
AcDbLine
 10
543.6793940624183
 20
189.8114349598863
 30
0.0
 11
541.3888750674391
 21
189.8114349598863
 31
0.0
  0
LINE
  5
1017
330
1A
100
AcDbEntity
  8
NOKITOI
100
AcDbLine
 10
543.6793940624183
 20
189.6114349598862
 30
0.0
 11
541.3888750674391
 21
189.6114349598862
 31
0.0
  0
ARC
  5
1018
330
1A
100
AcDbEntity
  8
NOKITOI
100
AcDbCircle
 10
541.3888750674391
 20
188.8114349598863
 30
0.0
 40
1.000000000000013
100
AcDbArc
 50
90.0
 51
160.7099537808137
  0
ARC
  5
1019
330
1A
100
AcDbEntity
  8
NOKITOI
100
AcDbCircle
 10
541.3035871990445
 20
188.5995741641825
 30
0.0
 40
1.015448812288253
100
AcDbArc
 50
85.18203328732571
 51
147.72644637953
  0
LINE
  5
101A
330
1A
100
AcDbEntity
  8
NOKITOI
100
AcDbLine
 10
543.6793940624183
 20
188.2114349598864
 30
0.0
 11
541.7086155699496
 21
188.2114349598864
 31
0.0
  0
LINE
  5
101B
330
1A
100
AcDbEntity
  8
NOKITOI
100
AcDbLine
 10
423.3256981710115
 20
222.9253969988827
 30
0.0
 11
418.9847759394904
 21
224.3723710760564
 31
0.0
  0
LINE
  5
101C
330
1A
100
AcDbEntity
  8
NOKITOI
100
AcDbLine
 10
423.2624526178081
 20
222.7356603392726
 30
0.0
 11
418.921530386287
 21
224.1826344164463
 31
0.0
  0
ARC
  5
101D
330
1A
100
AcDbEntity
  8
NOKITOI
100
AcDbCircle
 10
423.067584288003
 20
218.3284972341046
 30
0.0
 40
1.0
100
AcDbArc
 50
180.0
 51
257.6609127216745
  0
ARC
  5
101E
330
1A
100
AcDbEntity
  8
NOKITOI
100
AcDbCircle
 10
419.7718418908035
 20
221.8964213968341
 30
0.0
 40
0.5000000000000031
100
AcDbArc
 50
71.56505117707181
 51
180.1673696882651
  0
ARC
  5
101F
330
1A
100
AcDbEntity
  8
NOKITOI
100
AcDbCircle
 10
418.6685481734735
 20
223.4236877780058
 30
0.0
 40
1.000000000000119
100
AcDbArc
 50
71.56505117707181
 51
180.0795916737998
  0
ARC
  5
1020
330
1A
100
AcDbEntity
  8
NOKITOI
100
AcDbCircle
 10
418.6685481734735
 20
223.4236877780058
 30
0.0
 40
0.8000000000001193
100
AcDbArc
 50
71.56505117707181
 51
180.0795916737998
  0
ARC
  5
1021
330
1A
100
AcDbEntity
  8
NOKITOI
100
AcDbCircle
 10
421.567584288003
 20
221.2978405977677
 30
0.0
 40
0.5
100
AcDbArc
 50
0.0
 51
71.56505117707181
  0
LINE
  5
1022
330
1A
100
AcDbEntity
  8
NOKITOI
100
AcDbLine
 10
421.7256981710113
 20
221.7721822467929
 30
0.0
 11
419.9299557738118
 21
222.3707630458594
 31
0.0
  0
LINE
  5
1023
330
1A
100
AcDbEntity
  8
NOKITOI
100
AcDbLine
 10
422.067584288003
 20
218.3284972341046
 30
0.0
 11
422.067584288003
 21
221.2978405977677
 31
0.0
  0
LINE
  5
1024
330
1A
100
AcDbEntity
  8
NOKITOI
100
AcDbLine
 10
438.094978045614
 20
215.6554425754082
 30
0.0
 11
424.4538874091975
 21
218.6394311521242
 31
0.0
  0
LINE
  5
1025
330
1A
100
AcDbEntity
  8
NOKITOI
100
AcDbLine
 10
423.6675842880029
 20
219.6163311695205
 30
0.0
 11
423.6675842880029
 21
222.4510553498575
 31
0.0
  0
LINE
  5
1026
330
1A
100
AcDbEntity
  8
NOKITOI
100
AcDbLine
 10
423.4675842880029
 20
219.6163311695205
 30
0.0
 11
423.4675842880029
 21
222.4510553498575
 31
0.0
  0
ARC
  5
1027
330
1A
100
AcDbEntity
  8
NOKITOI
100
AcDbCircle
 10
424.6675842880029
 20
219.6163311695205
 30
0.0
 40
1.00000000000001
100
AcDbArc
 50
180.0
 51
257.6609127216745
  0
ARC
  5
1028
330
1A
100
AcDbEntity
  8
NOKITOI
100
AcDbCircle
 10
423.1675842880029
 20
222.4510553498575
 30
0.0
 40
0.5000000000000077
100
AcDbArc
 50
0.0
 51
71.56505117707181
  0
ARC
  5
1029
330
1A
100
AcDbEntity
  8
NOKITOI
100
AcDbCircle
 10
424.6675842880029
 20
219.6163311695205
 30
0.0
 40
1.20000000000001
100
AcDbArc
 50
180.0
 51
257.6609127216745
  0
ARC
  5
102A
330
1A
100
AcDbEntity
  8
NOKITOI
100
AcDbCircle
 10
423.1675842880029
 20
222.4510553498575
 30
0.0
 40
0.3000000000000076
100
AcDbArc
 50
0.0
 51
71.56505117707181
  0
LINE
  5
102B
330
1A
100
AcDbEntity
  8
NOKITOI
100
AcDbLine
 10
427.6675842880029
 20
216.2986010244697
 30
0.0
 11
422.8538874091976
 21
217.3515972167084
 31
0.0
  0
LINE
  5
102D
330
1A
100
AcDbEntity
  8
CENTER_L
 48
10.0
100
AcDbLine
 10
488.879394062418
 20
317.2507163751956
 30
0.0
 11
488.879394062418
 21
478.5573699481552
 31
0.0
  0
DIMENSION
  5
12E0
330
1A
100
AcDbEntity
  8
SUNPOU
100
AcDbDimension
  2
*D2
 10
199.039987730133
 20
259.0424706463145
 30
0.0
 11
264.0399877301329
 21
264.0424706463145
 31
0.0
 70
    32
  3
STANDARD
100
AcDbAlignedDimension
 13
329.0399877301329
 23
218.3114349598869
 33
0.0
 14
199.039987730133
 24
218.311434959887
 34
0.0
100
AcDbRotatedDimension
1001
ACAD
1000
DSTYLE
1002
{
1070
    41
1040
7.0
1070
    42
1040
6.0
1070
    43
1040
14.0
1070
    44
1040
3.0
1070
    73
1070
     0
1070
    74
1070
     0
1070
    77
1070
     3
1070
   140
1040
6.0
1070
   141
1040
150.0
1070
   147
1040
2.0
1070
   172
1070
     1
1070
   173
1070
     1
1070
   176
1070
   256
1070
   177
1070
   256
1070
   178
1070
   256
1070
   271
1070
     0
1070
   272
1070
     0
1070
   341
1005
6D
1070
     6
1000
OPEN
1070
     7
1000
OPEN
1070
   371
1070
    -1
1070
   372
1070
    -1
1002
}
  0
DIMENSION
  5
12ED
330
1A
100
AcDbEntity
  8
SUNPOU
100
AcDbDimension
  2
*D3
 10
385.7976660877274
 20
106.4117242441714
 30
0.0
 11
380.7976660877274
 21
165.6107931973575
 31
0.0
 70
    32
  3
STANDARD
100
AcDbAlignedDimension
 13
426.419394062418
 23
224.8098621505434
 33
0.0
 14
488.1187571676123
 24
106.4117242441714
 34
0.0
 50
90.0
100
AcDbRotatedDimension
1001
ACAD
1000
DSTYLE
1002
{
1070
    41
1040
7.0
1070
    42
1040
6.0
1070
    43
1040
14.0
1070
    44
1040
3.0
1070
    73
1070
     0
1070
    74
1070
     0
1070
    77
1070
     3
1070
   140
1040
6.0
1070
   141
1040
150.0
1070
   147
1040
2.0
1070
   172
1070
     1
1070
   173
1070
     1
1070
   176
1070
   256
1070
   177
1070
   256
1070
   178
1070
   256
1070
   271
1070
     0
1070
   272
1070
     0
1070
   341
1005
6D
1070
     6
1000
OPEN
1070
     7
1000
OPEN
1070
   371
1070
    -1
1070
   372
1070
    -1
1002
}
  0
DIMENSION
  5
12FA
330
1A
100
AcDbEntity
  8
SUNPOU
100
AcDbDimension
  2
*D4
 10
546.7558467148998
 20
259.0424706463145
 30
0.0
 11
485.9626203886588
 21
264.0424706463145
 31
0.0
 70
    32
  3
STANDARD
100
AcDbAlignedDimension
 13
425.1693940624177
 23
224.3098621505434
 33
0.0
 14
546.7558467148998
 24
173.1842417366925
 34
0.0
100
AcDbRotatedDimension
1001
ACAD
1000
DSTYLE
1002
{
1070
    41
1040
7.0
1070
    42
1040
6.0
1070
    43
1040
14.0
1070
    44
1040
3.0
1070
    73
1070
     0
1070
    74
1070
     0
1070
    77
1070
     3
1070
   140
1040
6.0
1070
   141
1040
150.0
1070
   147
1040
2.0
1070
   172
1070
     1
1070
   173
1070
     1
1070
   176
1070
   256
1070
   177
1070
   256
1070
   178
1070
   256
1070
   271
1070
     0
1070
   272
1070
     0
1070
   341
1005
6D
1070
     6
1000
OPEN
1070
     7
1000
OPEN
1070
   371
1070
    -1
1070
   372
1070
    -1
1002
}
  0
DIMENSION
  5
1322
330
1A
100
AcDbEntity
  8
SUNPOU
100
AcDbDimension
  2
*D5
 10
582.8936428757506
 20
106.4114349598866
 30
0.0
 11
577.8936428757506
 21
140.0478383482897
 31
0.0
 70
    32
  3
STANDARD
100
AcDbAlignedDimension
 13
546.2558467148997
 23
173.6842417366927
 33
0.0
 14
488.879394062418
 24
106.4114349598867
 34
0.0
 50
90.0
100
AcDbRotatedDimension
1001
ACAD
1000
DSTYLE
1002
{
1070
    41
1040
7.0
1070
    42
1040
6.0
1070
    43
1040
14.0
1070
    44
1040
3.0
1070
    73
1070
     0
1070
    74
1070
     0
1070
    77
1070
     3
1070
   140
1040
6.0
1070
   141
1040
150.0
1070
   147
1040
2.0
1070
   172
1070
     1
1070
   173
1070
     1
1070
   176
1070
   256
1070
   177
1070
   256
1070
   178
1070
   256
1070
   271
1070
     0
1070
   272
1070
     0
1070
   341
1005
6D
1070
     6
1000
OPEN
1070
     7
1000
OPEN
1070
   371
1070
    -1
1070
   372
1070
    -1
1002
}
  0
TEXT
  5
15A6
330
1A
100
AcDbEntity
  8
MOJI
100
AcDbText
 10
93.35778960172513
 20
12.74117799856344
 30
0.0
 40
6.0
  1
ユニシェイプ
 41
0.9
  7
ｽﾀｲﾙ1
100
AcDbText
  0
TEXT
  5
1607
330
1A
100
AcDbEntity
  8
MOJI
100
AcDbText
 10
233.179673069384
 20
4.786871367267067
 30
0.0
 40
5.599999999999999
  1
ＵＳＴ１４０
 41
0.9
  7
ｽﾀｲﾙ1
100
AcDbText
  0
TEXT
  5
1611
330
1A
100
AcDbEntity
  8
MOJI
100
AcDbText
 10
463.246432004558
 20
11.94261758994866
 30
0.0
 40
5.599999999999999
  1
GU６５□
 41
0.9
  7
ｽﾀｲﾙ1
100
AcDbText
  0
ARC
  5
17BE
330
1A
100
AcDbEntity
  8
SEIHIN
100
AcDbCircle
 10
247.0144934533376
 20
220.3369214527345
 30
0.0
 40
2.025646931440898
100
AcDbArc
 50
270.7211291385871
 51
359.2965819708841
  0
ARC
  5
17C0
330
1A
100
AcDbEntity
  8
SEIHIN
100
AcDbCircle
 10
249.5399877301321
 20
224.3098621505442
 30
0.0
 40
0.4999999999992327
100
AcDbArc
 50
89.99999999991207
 51
180.0000000000358
  0
ARC
  5
17C1
330
1A
100
AcDbEntity
  8
SEIHIN
100
AcDbCircle
 10
250.0399877301324
 20
208.3114349598869
 30
0.0
 40
1.000000000000142
100
AcDbArc
 50
179.9999999999983
 51
269.9999999999983
  0
ARC
  5
17C2
330
1A
100
AcDbEntity
  8
SEIHIN
100
AcDbCircle
 10
278.5399877301375
 20
224.309862150541
 30
0.0
 40
0.4999999999992327
100
AcDbArc
 50
359.9999999999514
 51
90.00000000007515
  0
ARC
  5
17C3
330
1A
100
AcDbEntity
  8
SEIHIN
100
AcDbCircle
 10
281.0654820069311
 20
220.3369214527306
 30
0.0
 40
2.025646931440898
100
AcDbArc
 50
180.703418029103
 51
269.2788708614
  0
ARC
  5
17C4
330
1A
100
AcDbEntity
  8
SEIHIN
100
AcDbCircle
 10
278.0399877301336
 20
208.3114349598837
 30
0.0
 40
1.000000000000142
100
AcDbArc
 50
269.9999999999888
 51
359.9999999999888
  0
VIEWPORT
  5
22
330
17
100
AcDbEntity
 67
     1
  8
0
100
AcDbViewport
 10
313.6808219178082
 20
148.5
 30
0.0
 40
627.3616438356165
 41
297.0
 68
     2
 69
     1
1001
ACAD
1000
MVIEW
1002
{
1070
    16
1010
0.0
1020
0.0
1030
0.0
1010
0.0
1020
0.0
1030
1.0
1040
0.0
1040
297.0
1040
313.6808219178082
1040
148.5
1040
50.0
1040
0.0
1040
0.0
1070
     0
1070
   100
1070
     1
1070
     0
1070
     0
1070
     0
1070
     0
1070
     0
1040
0.0
1040
0.0
1040
0.0
1040
1.0
1040
1.0
1040
10.0
1040
10.0
1070
     0
1002
{
1002
}
1002
}
  0
VIEWPORT
  5
64
330
17
100
AcDbEntity
 67
     1
  8
VIEWPORT
100
AcDbViewport
 10
210.0
 20
148.5
 30
0.0
 40
420.0
 41
297.0
 68
     1
 69
     2
1001
ACAD
1000
MVIEW
1002
{
1070
    16
1010
0.0
1020
0.0
1030
0.0
1010
0.0
1020
0.0
1030
1.0
1040
0.0
1040
605.8799999999998
1040
420.0
1040
297.0
1040
50.0
1040
0.0
1040
0.0
1070
     0
1070
   100
1070
     1
1070
     0
1070
     0
1070
     0
1070
     0
1070
     0
1040
0.0
1040
0.0
1040
0.0
1040
10.0
1040
10.0
1040
0.0
1040
0.0
1070
     0
1002
{
1002
}
1002
}
  0
ENDSEC
  0
SECTION
  2
OBJECTS
  0
DICTIONARY
  5
C
330
0
100
AcDbDictionary
  3
ACAD_GROUP
350
D
  3
ACAD_LAYOUT
350
498
  3
ACAD_MLINESTYLE
350
E
  3
ACAD_PLOTSETTINGS
350
499
1001
ACAD
1000
TREAT_AS_HARD
1070
     0
  0
DICTIONARY
  5
687
330
1A
100
AcDbDictionary
  3
ACAD_LAYOUTSELFREF
350
196D
1001
ACAD
1000
TREAT_AS_HARD
1070
     1
  0
DICTIONARY
  5
685
330
17
100
AcDbDictionary
  3
ACAD_LAYOUTSELFREF
350
196C
1001
ACAD
1000
TREAT_AS_HARD
1070
     1
  0
DICTIONARY
  5
D
102
{ACAD_REACTORS
330
C
102
}
330
C
100
AcDbDictionary
1001
ACAD
1000
TREAT_AS_HARD
1070
     0
  0
DICTIONARY
  5
498
102
{ACAD_REACTORS
330
C
102
}
330
C
100
AcDbDictionary
1001
ACAD
1000
TREAT_AS_HARD
1070
     0
  0
DICTIONARY
  5
E
102
{ACAD_REACTORS
330
C
102
}
330
C
100
AcDbDictionary
  3
STANDARD
350
13
1001
ACAD
1000
TREAT_AS_HARD
1070
     0
  0
DICTIONARY
  5
499
102
{ACAD_REACTORS
330
C
102
}
330
C
100
AcDbDictionary
1001
ACAD
1000
TREAT_AS_HARD
1070
     0
  0
XRECORD
  5
196D
102
{ACAD_REACTORS
330
687
102
}
330
687
100
AcDbXrecord
340
1A
  0
XRECORD
  5
196C
102
{ACAD_REACTORS
330
685
102
}
330
685
100
AcDbXrecord
340
17
  0
MLINESTYLE
  5
13
102
{ACAD_REACTORS
330
E
102
}
330
E
100
AcDbMlineStyle
  2
STANDARD
 70
     0
  3

 62
     0
 51
90.0
 52
90.0
 71
     2
 49
0.5
 62
   256
  6
BYLAYER
 49
-0.5
 62
   256
  6
BYLAYER
  0
ENDSEC
  0
EOF
