  0
SECTION
  2
HEADER
  9
$ACADVER
  1
AC1015
  9
$ACADMAINTVER
 70
    20
  9
$DWGCODEPAGE
  3
ANSI_932
  9
$INSBASE
 10
0.0
 20
0.0
 30
0.0
  9
$EXTMIN
 10
26598.70154530608
 20
-4593.632069631199
 30
0.0
  9
$EXTMAX
 10
27795.10154530609
 20
-3766.232069631206
 30
0.0
  9
$LIMMIN
 10
0.0
 20
0.0
  9
$LIMMAX
 10
431.7999999999999
 20
279.4
  9
$ORTHOMODE
 70
     1
  9
$REGENMODE
 70
     1
  9
$FILLMODE
 70
     1
  9
$QTEXTMODE
 70
     0
  9
$MIRRTEXT
 70
     1
  9
$LTSCALE
 40
1.0
  9
$ATTMODE
 70
     1
  9
$TEXTSIZE
 40
3.5
  9
$TRACEWID
 40
1.0
  9
$TEXTSTYLE
  7
MSUI
  9
$CLAYER
  8
CENTER_L
  9
$CELTYPE
  6
ByLayer
  9
$CECOLOR
 62
   256
  9
$CELTSCALE
 40
1.0
  9
$DISPSILH
 70
     0
  9
$DIMSCALE
 40
1.0
  9
$DIMASZ
 40
6.0
  9
$DIMEXO
 40
3.0
  9
$DIMDLI
 40
3.75
  9
$DIMRND
 40
0.0
  9
$DIMDLE
 40
0.0
  9
$DIMEXE
 40
1.0
  9
$DIMTP
 40
0.0
  9
$DIMTM
 40
0.0
  9
$DIMTXT
 40
10.0
  9
$DIMCEN
 40
2.5
  9
$DIMTSZ
 40
0.0
  9
$DIMTOL
 70
     0
  9
$DIMLIM
 70
     0
  9
$DIMTIH
 70
     0
  9
$DIMTOH
 70
     0
  9
$DIMSE1
 70
     0
  9
$DIMSE2
 70
     0
  9
$DIMTAD
 70
     1
  9
$DIMZIN
 70
     9
  9
$DIMBLK
  1

  9
$DIMASO
 70
     1
  9
$DIMSHO
 70
     1
  9
$DIMPOST
  1

  9
$DIMAPOST
  1

  9
$DIMALT
 70
     0
  9
$DIMALTD
 70
     3
  9
$DIMALTF
 40
0.0393700787401575
  9
$DIMLFAC
 40
1.0
  9
$DIMTOFL
 70
     1
  9
$DIMTVP
 40
0.0
  9
$DIMTIX
 70
     0
  9
$DIMSOXD
 70
     0
  9
$DIMSAH
 70
     0
  9
$DIMBLK1
  1

  9
$DIMBLK2
  1

  9
$DIMSTYLE
  2
ISO-25
  9
$DIMCLRD
 70
     5
  9
$DIMCLRE
 70
     5
  9
$DIMCLRT
 70
     5
  9
$DIMTFAC
 40
1.0
  9
$DIMGAP
 40
1.524
  9
$DIMJUST
 70
     0
  9
$DIMSD1
 70
     0
  9
$DIMSD2
 70
     0
  9
$DIMTOLJ
 70
     0
  9
$DIMTZIN
 70
     1
  9
$DIMALTZ
 70
     0
  9
$DIMALTTZ
 70
     0
  9
$DIMUPT
 70
     0
  9
$DIMDEC
 70
     2
  9
$DIMTDEC
 70
     2
  9
$DIMALTU
 70
     2
  9
$DIMALTTD
 70
     3
  9
$DIMTXSTY
  7
MSUI
  9
$DIMAUNIT
 70
     0
  9
$DIMADEC
 70
     2
  9
$DIMALTRND
 40
0.0
  9
$DIMAZIN
 70
     2
  9
$DIMDSEP
 70
    44
  9
$DIMATFIT
 70
     3
  9
$DIMFRAC
 70
     0
  9
$DIMLDRBLK
  1

  9
$DIMLUNIT
 70
     2
  9
$DIMLWD
 70
    -2
  9
$DIMLWE
 70
    -2
  9
$DIMTMOVE
 70
     0
  9
$LUNITS
 70
     2
  9
$LUPREC
 70
     2
  9
$SKETCHINC
 40
1.0
  9
$FILLETRAD
 40
1.0
  9
$AUNITS
 70
     0
  9
$AUPREC
 70
     2
  9
$MENU
  1
.
  9
$ELEVATION
 40
0.0
  9
$PELEVATION
 40
0.0
  9
$THICKNESS
 40
0.0
  9
$LIMCHECK
 70
     0
  9
$CHAMFERA
 40
0.0
  9
$CHAMFERB
 40
0.0
  9
$CHAMFERC
 40
0.0
  9
$CHAMFERD
 40
0.0
  9
$SKPOLY
 70
     0
  9
$TDCREATE
 40
2459977.552915243
  9
$TDUCREATE
 40
2459977.177915243
  9
$TDUPDATE
 40
2460199.701766701
  9
$TDUUPDATE
 40
2460199.326766701
  9
$TDINDWG
 40
11.1231800231
  9
$TDUSRTIMER
 40
11.1231800231
  9
$USRTIMER
 70
     1
  9
$ANGBASE
 50
0.0
  9
$ANGDIR
 70
     0
  9
$PDMODE
 70
     0
  9
$PDSIZE
 40
-1.0
  9
$PLINEWID
 40
0.0
  9
$SPLFRAME
 70
     0
  9
$SPLINETYPE
 70
     6
  9
$SPLINESEGS
 70
  8000
  9
$HANDSEED
  5
3B2D1
  9
$SURFTAB1
 70
     6
  9
$SURFTAB2
 70
     6
  9
$SURFTYPE
 70
     6
  9
$SURFU
 70
     6
  9
$SURFV
 70
     6
  9
$UCSBASE
  2

  9
$UCSNAME
  2

  9
$UCSORG
 10
0.0
 20
0.0
 30
0.0
  9
$UCSXDIR
 10
1.0
 20
0.0
 30
0.0
  9
$UCSYDIR
 10
0.0
 20
1.0
 30
0.0
  9
$UCSORTHOREF
  2

  9
$UCSORTHOVIEW
 70
     0
  9
$UCSORGTOP
 10
0.0
 20
0.0
 30
0.0
  9
$UCSORGBOTTOM
 10
0.0
 20
0.0
 30
0.0
  9
$UCSORGLEFT
 10
0.0
 20
0.0
 30
0.0
  9
$UCSORGRIGHT
 10
0.0
 20
0.0
 30
0.0
  9
$UCSORGFRONT
 10
0.0
 20
0.0
 30
0.0
  9
$UCSORGBACK
 10
0.0
 20
0.0
 30
0.0
  9
$PUCSBASE
  2

  9
$PUCSNAME
  2

  9
$PUCSORG
 10
0.0
 20
0.0
 30
0.0
  9
$PUCSXDIR
 10
1.0
 20
0.0
 30
0.0
  9
$PUCSYDIR
 10
0.0
 20
1.0
 30
0.0
  9
$PUCSORTHOREF
  2

  9
$PUCSORTHOVIEW
 70
     0
  9
$PUCSORGTOP
 10
0.0
 20
0.0
 30
0.0
  9
$PUCSORGBOTTOM
 10
0.0
 20
0.0
 30
0.0
  9
$PUCSORGLEFT
 10
0.0
 20
0.0
 30
0.0
  9
$PUCSORGRIGHT
 10
0.0
 20
0.0
 30
0.0
  9
$PUCSORGFRONT
 10
0.0
 20
0.0
 30
0.0
  9
$PUCSORGBACK
 10
0.0
 20
0.0
 30
0.0
  9
$USERI1
 70
     0
  9
$USERI2
 70
     0
  9
$USERI3
 70
     0
  9
$USERI4
 70
     0
  9
$USERI5
 70
     0
  9
$USERR1
 40
0.0
  9
$USERR2
 40
0.0
  9
$USERR3
 40
0.0
  9
$USERR4
 40
0.0
  9
$USERR5
 40
0.0
  9
$WORLDVIEW
 70
     1
  9
$SHADEDGE
 70
     3
  9
$SHADEDIF
 70
    70
  9
$TILEMODE
 70
     0
  9
$MAXACTVP
 70
    64
  9
$PINSBASE
 10
0.0
 20
0.0
 30
0.0
  9
$PLIMCHECK
 70
     0
  9
$PEXTMIN
 10
-73.83861450660799
 20
-22.64352933958139
 30
0.0
  9
$PEXTMAX
 10
344.4227553844882
 20
272.4048239951644
 30
0.0
  9
$PLIMMIN
 10
-74.68970753027355
 20
-23.6288666236274
  9
$PLIMMAX
 10
345.2569477431639
 20
273.2971282494195
  9
$UNITMODE
 70
     0
  9
$VISRETAIN
 70
     1
  9
$PLINEGEN
 70
     0
  9
$PSLTSCALE
 70
     1
  9
$TREEDEPTH
 70
  3020
  9
$CMLSTYLE
  2
Standard
  9
$CMLJUST
 70
     0
  9
$CMLSCALE
 40
20.0
  9
$PROXYGRAPHICS
 70
     1
  9
$MEASUREMENT
 70
     1
  9
$CELWEIGHT
370
    30
  9
$ENDCAPS
280
     0
  9
$JOINSTYLE
280
     0
  9
$LWDISPLAY
290
     1
  9
$INSUNITS
 70
     4
  9
$HYPERLINKBASE
  1

  9
$STYLESHEET
  1

  9
$XEDIT
290
     1
  9
$CEPSNTYPE
380
     0
  9
$PSTYLEMODE
290
     1
  9
$FINGERPRINTGUID
  2
{f0a142a2-46f0-4585-a537-6b23719e1866}
  9
$VERSIONGUID
  2
{A42910A6-045D-4885-AA2A-FB27CBC7BEFB}
  9
$EXTNAMES
290
     1
  9
$PSVPSCALE
 40
0.0
  9
$OLESTARTUP
290
     0
  0
ENDSEC
  0
SECTION
  2
CLASSES
  0
CLASS
  1
ACDBDICTIONARYWDFLT
  2
AcDbDictionaryWithDefault
  3
ObjectDBX Classes
 90
        0
280
     0
281
     0
  0
CLASS
  1
VISUALSTYLE
  2
AcDbVisualStyle
  3
ObjectDBX Classes
 90
    36863
280
     0
281
     0
  0
CLASS
  1
MATERIAL
  2
AcDbMaterial
  3
ObjectDBX Classes
 90
    32768
280
     0
281
     0
  0
CLASS
  1
SCALE
  2
AcDbScale
  3
ObjectDBX Classes
 90
     1153
280
     0
281
     0
  0
CLASS
  1
TABLESTYLE
  2
AcDbTableStyle
  3
ObjectDBX Classes
 90
    36863
280
     0
281
     0
  0
CLASS
  1
MLEADERSTYLE
  2
AcDbMLeaderStyle
  3
ACDB_MLEADERSTYLE_CLASS
 90
    36863
280
     0
281
     0
  0
CLASS
  1
SUN
  2
AcDbSun
  3
SCENEOE
 90
    33921
280
     0
281
     0
  0
CLASS
  1
ACDBPLACEHOLDER
  2
AcDbPlaceHolder
  3
ObjectDBX Classes
 90
        0
280
     0
281
     0
  0
CLASS
  1
LAYOUT
  2
AcDbLayout
  3
ObjectDBX Classes
 90
        0
280
     0
281
     0
  0
CLASS
  1
DICTIONARYVAR
  2
AcDbDictionaryVar
  3
ObjectDBX Classes
 90
        0
280
     0
281
     0
  0
ENDSEC
  0
SECTION
  2
TABLES
  0
TABLE
  2
VPORT
  5
8
330
0
100
AcDbSymbolTable
 70
     3
  0
VPORT
  5
3B2C4
330
8
100
AcDbSymbolTableRecord
100
AcDbViewportTableRecord
  2
*Active
 70
     0
 10
0.0
 20
0.0
 11
1.0
 21
1.0
 12
27406.77044359144
 22
-4171.289198957184
 13
0.0
 23
0.0
 14
10.0
 24
10.0
 15
10.0
 25
10.0
 16
0.0
 26
0.0
 36
1.0
 17
0.0
 27
0.0
 37
0.0
 40
878.7191703392263
 41
2.121839080459769
 42
50.0
 43
0.0
 44
0.0
 50
0.0
 51
0.0
 71
     0
 72
 20000
 73
     1
 74
     2
 75
     0
 76
     0
 77
     0
 78
     0
281
     0
 65
     1
110
0.0
120
0.0
130
0.0
111
1.0
121
0.0
131
0.0
112
0.0
122
1.0
132
0.0
 79
     0
146
0.0
  0
ENDTAB
  0
TABLE
  2
LTYPE
  5
5
330
0
100
AcDbSymbolTable
 70
     2
  0
LTYPE
  5
14
330
5
100
AcDbSymbolTableRecord
100
AcDbLinetypeTableRecord
  2
ByBlock
 70
     0
  3

 72
    65
 73
     0
 40
0.0
  0
LTYPE
  5
15
330
5
100
AcDbSymbolTableRecord
100
AcDbLinetypeTableRecord
  2
ByLayer
 70
     0
  3

 72
    65
 73
     0
 40
0.0
  0
LTYPE
  5
16
330
5
100
AcDbSymbolTableRecord
100
AcDbLinetypeTableRecord
  2
Continuous
 70
     0
  3
Solid line
 72
    65
 73
     0
 40
0.0
  0
LTYPE
  5
70
330
5
100
AcDbSymbolTableRecord
100
AcDbLinetypeTableRecord
  2
CENTER
 70
     0
  3
Center ____ _ ____ _ ____ _ ____ _ ____ _ ____
 72
    65
 73
     4
 40
10.16
 49
6.349999999999999
 74
     0
 49
-1.27
 74
     0
 49
1.27
 74
     0
 49
-1.27
 74
     0
  0
ENDTAB
  0
TABLE
  2
LAYER
  5
2
102
{ACAD_XDICTIONARY
360
1F218
102
}
330
0
100
AcDbSymbolTable
 70
     9
  0
LAYER
  5
10
330
2
100
AcDbSymbolTableRecord
100
AcDbLayerTableRecord
  2
0
 70
     0
 62
     7
  6
Continuous
370
    -3
390
F
  0
LAYER
  5
C68
330
2
100
AcDbSymbolTableRecord
100
AcDbLayerTableRecord
  2
Defpoints
 70
     0
 62
     7
  6
Continuous
290
     0
370
    -3
390
F
  0
LAYER
  5
3949
330
2
100
AcDbSymbolTableRecord
100
AcDbLayerTableRecord
  2
ZUWAKU
 70
     0
 62
     7
  6
Continuous
370
    -3
390
F
  0
LAYER
  5
394A
330
2
100
AcDbSymbolTableRecord
100
AcDbLayerTableRecord
  2
SEIHIN
 70
     0
 62
     3
  6
Continuous
370
    -3
390
F
  0
LAYER
  5
394B
330
2
100
AcDbSymbolTableRecord
100
AcDbLayerTableRecord
  2
SUNPOU
 70
     0
 62
     4
  6
Continuous
370
    -3
390
F
  0
LAYER
  5
394C
330
2
100
AcDbSymbolTableRecord
100
AcDbLayerTableRecord
  2
CENTER L
 70
     0
 62
     1
  6
CENTER
370
    -3
390
F
  0
LAYER
  5
394D
330
2
100
AcDbSymbolTableRecord
100
AcDbLayerTableRecord
  2
moji
 70
     0
 62
     2
  6
Continuous
370
    -3
390
F
  0
LAYER
  5
35EAE
330
2
100
AcDbSymbolTableRecord
100
AcDbLayerTableRecord
  2
寸法
 70
     0
 62
     4
  6
Continuous
370
    -3
390
F
  0
LAYER
  5
3729E
330
2
100
AcDbSymbolTableRecord
100
AcDbLayerTableRecord
  2
CENTER_L
 70
     0
 62
     1
  6
CENTER
370
    -3
390
F
  0
ENDTAB
  0
TABLE
  2
STYLE
  5
3
330
0
100
AcDbSymbolTable
 70
     3
  0
STYLE
  5
11
330
3
100
AcDbSymbolTableRecord
100
AcDbTextStyleTableRecord
  2
Standard
 70
     0
 40
0.0
 41
1.0
 50
0.0
 71
     0
 42
3.5
  3
txt
  4
bigfont
  0
STYLE
  5
C75
330
3
100
AcDbSymbolTableRecord
100
AcDbTextStyleTableRecord
  2
MSUI
 70
     0
 40
0.0
 41
1.0
 50
0.0
 71
     0
 42
3.5
  3
MS UI Gothic.ttf
  4

1001
ACAD
1000
MS UI Gothic
1071
    32818
  0
STYLE
  5
394E
330
3
100
AcDbSymbolTableRecord
100
AcDbTextStyleTableRecord
  2
ｽﾀｲﾙ1
 70
     0
 40
0.0
 41
1.0
 50
0.0
 71
     0
 42
2.5
  3

  4

1001
ACAD
1000
MS PGothic
1071
    32818
  0
ENDTAB
  0
TABLE
  2
VIEW
  5
6
330
0
100
AcDbSymbolTable
 70
     0
  0
ENDTAB
  0
TABLE
  2
UCS
  5
7
330
0
100
AcDbSymbolTable
 70
     0
  0
ENDTAB
  0
TABLE
  2
APPID
  5
9
330
0
100
AcDbSymbolTable
 70
     1
  0
APPID
  5
12
330
9
100
AcDbSymbolTableRecord
100
AcDbRegAppTableRecord
  2
ACAD
 70
     0
  0
ENDTAB
  0
TABLE
  2
DIMSTYLE
  5
A
330
0
100
AcDbSymbolTable
 70
     2
100
AcDbDimStyleTable
 71
     2
340
394F
340
27
  0
DIMSTYLE
105
27
330
A
100
AcDbSymbolTableRecord
100
AcDbDimStyleTableRecord
  2
ISO-25
 70
     0
 41
2.5
 42
0.625
 43
3.75
 44
1.25
 73
     0
 74
     0
 77
     1
 78
     8
140
2.5
141
2.5
143
0.03937007874016
147
0.625
171
     3
172
     1
271
     2
272
     2
274
     3
278
    44
283
     0
284
     8
340
11
  0
DIMSTYLE
105
394F
102
{ACAD_REACTORS
330
393DC
330
3941A
330
39419
330
39418
330
395BC
330
395BB
330
395BA
330
395B9
330
393DB
102
}
330
A
100
AcDbSymbolTableRecord
100
AcDbDimStyleTableRecord
  2
STANDARD
 70
     0
340
11
  0
ENDTAB
  0
TABLE
  2
BLOCK_RECORD
  5
1
330
0
100
AcDbSymbolTable
 70
    15
  0
BLOCK_RECORD
  5
1F
330
1
100
AcDbSymbolTableRecord
100
AcDbBlockTableRecord
  2
*Model_Space
340
22
  0
BLOCK_RECORD
  5
1B
330
1
100
AcDbSymbolTableRecord
100
AcDbBlockTableRecord
  2
*Paper_Space
340
1E
  0
BLOCK_RECORD
  5
3729
330
1
100
AcDbSymbolTableRecord
100
AcDbBlockTableRecord
  2
_OPEN
340
0
102
{BLKREFS
331
3B004
331
3B005
331
3B00D
331
3B00E
331
3B016
331
3B017
331
3B01F
331
3B020
331
3B028
331
3B029
331
3B031
331
3B032
331
3B03A
331
3B03B
331
3B045
331
3B046
331
3B1F6
331
3B1F7
102
}
  0
BLOCK_RECORD
  5
1D29B
330
1
100
AcDbSymbolTableRecord
100
AcDbBlockTableRecord
  2
SW_CENTERMARKSYMBOL_0
340
0
  0
BLOCK_RECORD
  5
1D2A6
330
1
100
AcDbSymbolTableRecord
100
AcDbBlockTableRecord
  2
SW_CENTERMARKSYMBOL_1
340
0
  0
BLOCK_RECORD
  5
1D2B1
330
1
100
AcDbSymbolTableRecord
100
AcDbBlockTableRecord
  2
SW_CENTERMARKSYMBOL_2
340
0
  0
BLOCK_RECORD
  5
1FBAA
102
{ACAD_XDICTIONARY
360
1FBAB
102
}
330
1
100
AcDbSymbolTableRecord
100
AcDbBlockTableRecord
  2
_Open30
340
0
  0
BLOCK_RECORD
  5
38213
330
1
100
AcDbSymbolTableRecord
100
AcDbBlockTableRecord
  2
*X5
340
0
102
{BLKREFS
331
38510
102
}
  0
BLOCK_RECORD
  5
395BD
330
1
100
AcDbSymbolTableRecord
100
AcDbBlockTableRecord
  2
*D6
340
0
  0
BLOCK_RECORD
  5
395CB
330
1
100
AcDbSymbolTableRecord
100
AcDbBlockTableRecord
  2
*D7
340
0
  0
BLOCK_RECORD
  5
395D9
330
1
100
AcDbSymbolTableRecord
100
AcDbBlockTableRecord
  2
*D8
340
0
  0
BLOCK_RECORD
  5
395E5
330
1
100
AcDbSymbolTableRecord
100
AcDbBlockTableRecord
  2
*D9
340
0
  0
BLOCK_RECORD
  5
395F1
330
1
100
AcDbSymbolTableRecord
100
AcDbBlockTableRecord
  2
*D10
340
0
  0
BLOCK_RECORD
  5
395FD
330
1
100
AcDbSymbolTableRecord
100
AcDbBlockTableRecord
  2
*D11
340
0
  0
BLOCK_RECORD
  5
39609
330
1
100
AcDbSymbolTableRecord
100
AcDbBlockTableRecord
  2
*D12
340
0
  0
BLOCK_RECORD
  5
39615
330
1
100
AcDbSymbolTableRecord
100
AcDbBlockTableRecord
  2
*D13
340
0
  0
BLOCK_RECORD
  5
39621
330
1
100
AcDbSymbolTableRecord
100
AcDbBlockTableRecord
  2
*D14
340
0
  0
ENDTAB
  0
ENDSEC
  0
SECTION
  2
BLOCKS
  0
BLOCK
  5
20
330
1F
100
AcDbEntity
  8
0
100
AcDbBlockBegin
  2
*Model_Space
 70
     0
 10
0.0
 20
0.0
 30
0.0
  3
*Model_Space
  1

  0
ENDBLK
  5
21
330
1F
100
AcDbEntity
  8
0
100
AcDbBlockEnd
  0
BLOCK
  5
1C
330
1B
100
AcDbEntity
 67
     1
  8
0
100
AcDbBlockBegin
  2
*Paper_Space
 70
     0
 10
0.0
 20
0.0
 30
0.0
  3
*Paper_Space
  1

  0
ENDBLK
  5
1D
330
1B
100
AcDbEntity
 67
     1
  8
0
100
AcDbBlockEnd
  0
BLOCK
  5
372A
330
3729
100
AcDbEntity
  8
0
100
AcDbBlockBegin
  2
_OPEN
 70
     0
 10
0.0
 20
0.0
 30
0.0
  3
_OPEN
  1

  0
LINE
  5
372B
330
3729
100
AcDbEntity
  8
0
  6
ByBlock
 62
     0
100
AcDbLine
 10
-1.0
 20
0.1666666666666666
 30
0.0
 11
0.0
 21
0.0
 31
0.0
  0
LINE
  5
372C
330
3729
100
AcDbEntity
  8
0
  6
ByBlock
 62
     0
100
AcDbLine
 10
0.0
 20
0.0
 30
0.0
 11
-1.0
 21
-0.1666666666666666
 31
0.0
  0
LINE
  5
372D
330
3729
100
AcDbEntity
  8
0
  6
ByBlock
 62
     0
100
AcDbLine
 10
0.0
 20
0.0
 30
0.0
 11
-1.0
 21
0.0
 31
0.0
  0
ENDBLK
  5
372E
330
3729
100
AcDbEntity
  8
0
100
AcDbBlockEnd
  0
BLOCK
  5
1D29C
330
1D29B
100
AcDbEntity
  8
0
100
AcDbBlockBegin
  2
SW_CENTERMARKSYMBOL_0
 70
     0
 10
0.0
 20
0.0
 30
0.0
  3
SW_CENTERMARKSYMBOL_0
  1

  0
LINE
  5
1D29D
330
1D29B
100
AcDbEntity
  8
0
  6
Continuous
 62
     0
370
    18
100
AcDbLine
 10
0.0
 20
0.0
 30
0.0
 11
0.0
 21
2.500000000000057
 31
0.0
  0
LINE
  5
1D29E
330
1D29B
100
AcDbEntity
  8
0
  6
Continuous
 62
     0
370
    18
100
AcDbLine
 10
0.0
 20
0.0
 30
0.0
 11
-2.499999999999946
 21
0.0
 31
0.0
  0
LINE
  5
1D29F
330
1D29B
100
AcDbEntity
  8
0
  6
Continuous
 62
     0
370
    18
100
AcDbLine
 10
0.0
 20
0.0
 30
0.0
 11
0.0
 21
-2.500000000000057
 31
0.0
  0
LINE
  5
1D2A0
330
1D29B
100
AcDbEntity
  8
0
  6
Continuous
 62
     0
370
    18
100
AcDbLine
 10
0.0
 20
0.0
 30
0.0
 11
2.499999999999946
 21
0.0
 31
0.0
  0
LINE
  5
1D2A1
330
1D29B
100
AcDbEntity
  8
0
  6
Continuous
 62
     0
370
    18
100
AcDbLine
 10
0.0
 20
2.500000000000057
 30
0.0
 11
0.0
 21
3.750000000000031
 31
0.0
  0
LINE
  5
1D2A2
330
1D29B
100
AcDbEntity
  8
0
  6
Continuous
 62
     0
370
    18
100
AcDbLine
 10
-2.499999999999946
 20
0.0
 30
0.0
 11
-3.750000000000142
 21
0.0
 31
0.0
  0
LINE
  5
1D2A3
330
1D29B
100
AcDbEntity
  8
0
  6
Continuous
 62
     0
370
    18
100
AcDbLine
 10
0.0
 20
-2.500000000000057
 30
0.0
 11
0.0
 21
-3.750000000000031
 31
0.0
  0
LINE
  5
1D2A4
330
1D29B
100
AcDbEntity
  8
0
  6
Continuous
 62
     0
370
    18
100
AcDbLine
 10
2.499999999999946
 20
0.0
 30
0.0
 11
3.74999999999992
 21
0.0
 31
0.0
  0
ENDBLK
  5
1D2A5
330
1D29B
100
AcDbEntity
  8
0
100
AcDbBlockEnd
  0
BLOCK
  5
1D2A7
330
1D2A6
100
AcDbEntity
  8
0
100
AcDbBlockBegin
  2
SW_CENTERMARKSYMBOL_1
 70
     0
 10
0.0
 20
0.0
 30
0.0
  3
SW_CENTERMARKSYMBOL_1
  1

  0
LINE
  5
1D2A8
330
1D2A6
100
AcDbEntity
  8
0
  6
Continuous
 62
     0
370
    18
100
AcDbLine
 10
0.0
 20
0.0
 30
0.0
 11
0.0
 21
2.500000000000057
 31
0.0
  0
LINE
  5
1D2A9
330
1D2A6
100
AcDbEntity
  8
0
  6
Continuous
 62
     0
370
    18
100
AcDbLine
 10
0.0
 20
0.0
 30
0.0
 11
-2.499999999999946
 21
0.0
 31
0.0
  0
LINE
  5
1D2AA
330
1D2A6
100
AcDbEntity
  8
0
  6
Continuous
 62
     0
370
    18
100
AcDbLine
 10
0.0
 20
0.0
 30
0.0
 11
0.0
 21
-2.500000000000057
 31
0.0
  0
LINE
  5
1D2AB
330
1D2A6
100
AcDbEntity
  8
0
  6
Continuous
 62
     0
370
    18
100
AcDbLine
 10
0.0
 20
0.0
 30
0.0
 11
2.499999999999946
 21
0.0
 31
0.0
  0
LINE
  5
1D2AC
330
1D2A6
100
AcDbEntity
  8
0
  6
Continuous
 62
     0
370
    18
100
AcDbLine
 10
0.0
 20
2.500000000000057
 30
0.0
 11
0.0
 21
3.750000000000031
 31
0.0
  0
LINE
  5
1D2AD
330
1D2A6
100
AcDbEntity
  8
0
  6
Continuous
 62
     0
370
    18
100
AcDbLine
 10
-2.499999999999946
 20
0.0
 30
0.0
 11
-3.74999999999992
 21
0.0
 31
0.0
  0
LINE
  5
1D2AE
330
1D2A6
100
AcDbEntity
  8
0
  6
Continuous
 62
     0
370
    18
100
AcDbLine
 10
0.0
 20
-2.500000000000057
 30
0.0
 11
0.0
 21
-3.750000000000031
 31
0.0
  0
LINE
  5
1D2AF
330
1D2A6
100
AcDbEntity
  8
0
  6
Continuous
 62
     0
370
    18
100
AcDbLine
 10
2.499999999999946
 20
0.0
 30
0.0
 11
3.74999999999992
 21
0.0
 31
0.0
  0
ENDBLK
  5
1D2B0
330
1D2A6
100
AcDbEntity
  8
0
100
AcDbBlockEnd
  0
BLOCK
  5
1D2B2
330
1D2B1
100
AcDbEntity
  8
0
100
AcDbBlockBegin
  2
SW_CENTERMARKSYMBOL_2
 70
     0
 10
0.0
 20
0.0
 30
0.0
  3
SW_CENTERMARKSYMBOL_2
  1

  0
LINE
  5
1D2B3
330
1D2B1
100
AcDbEntity
  8
0
  6
Continuous
 62
     0
370
    18
100
AcDbLine
 10
0.0
 20
0.0
 30
0.0
 11
0.0
 21
2.500000000000057
 31
0.0
  0
LINE
  5
1D2B4
330
1D2B1
100
AcDbEntity
  8
0
  6
Continuous
 62
     0
370
    18
100
AcDbLine
 10
0.0
 20
0.0
 30
0.0
 11
-2.499999999999946
 21
0.0
 31
0.0
  0
LINE
  5
1D2B5
330
1D2B1
100
AcDbEntity
  8
0
  6
Continuous
 62
     0
370
    18
100
AcDbLine
 10
0.0
 20
0.0
 30
0.0
 11
0.0
 21
-2.500000000000057
 31
0.0
  0
LINE
  5
1D2B6
330
1D2B1
100
AcDbEntity
  8
0
  6
Continuous
 62
     0
370
    18
100
AcDbLine
 10
0.0
 20
0.0
 30
0.0
 11
2.500000000000168
 21
0.0
 31
0.0
  0
LINE
  5
1D2B7
330
1D2B1
100
AcDbEntity
  8
0
  6
Continuous
 62
     0
370
    18
100
AcDbLine
 10
0.0
 20
2.500000000000057
 30
0.0
 11
0.0
 21
3.750000000000031
 31
0.0
  0
LINE
  5
1D2B8
330
1D2B1
100
AcDbEntity
  8
0
  6
Continuous
 62
     0
370
    18
100
AcDbLine
 10
-2.499999999999946
 20
0.0
 30
0.0
 11
-3.74999999999992
 21
0.0
 31
0.0
  0
LINE
  5
1D2B9
330
1D2B1
100
AcDbEntity
  8
0
  6
Continuous
 62
     0
370
    18
100
AcDbLine
 10
0.0
 20
-2.500000000000057
 30
0.0
 11
0.0
 21
-3.750000000000031
 31
0.0
  0
LINE
  5
1D2BA
330
1D2B1
100
AcDbEntity
  8
0
  6
Continuous
 62
     0
370
    18
100
AcDbLine
 10
2.500000000000168
 20
0.0
 30
0.0
 11
3.750000000000142
 21
0.0
 31
0.0
  0
ENDBLK
  5
1D2BB
330
1D2B1
100
AcDbEntity
  8
0
100
AcDbBlockEnd
  0
BLOCK
  5
1FBAC
330
1FBAA
100
AcDbEntity
  8
0
370
     0
100
AcDbBlockBegin
  2
_Open30
 70
     0
 10
0.0
 20
0.0
 30
0.0
  3
_Open30
  1

  0
LINE
  5
1FBAD
330
1FBAA
100
AcDbEntity
  8
0
  6
ByBlock
 62
     0
370
    -2
100
AcDbLine
 10
-1.0
 20
0.26794919
 30
0.0
 11
0.0
 21
0.0
 31
0.0
  0
LINE
  5
1FBAE
330
1FBAA
100
AcDbEntity
  8
0
  6
ByBlock
 62
     0
370
    -2
100
AcDbLine
 10
0.0
 20
0.0
 30
0.0
 11
-1.0
 21
-0.26794919
 31
0.0
  0
LINE
  5
1FBAF
330
1FBAA
100
AcDbEntity
  8
0
  6
ByBlock
 62
     0
370
    -2
100
AcDbLine
 10
0.0
 20
0.0
 30
0.0
 11
-1.0
 21
0.0
 31
0.0
  0
ENDBLK
  5
1FBB0
330
1FBAA
100
AcDbEntity
  8
0
370
     0
100
AcDbBlockEnd
  0
BLOCK
  5
38214
330
38213
100
AcDbEntity
  8
0
100
AcDbBlockBegin
  2
*X5
 70
     1
 10
0.0
 20
0.0
 30
0.0
  3
*X5
  1

1001
ACAD
1000
RTMaterial
1005
0
  0
LINE
  5
38215
330
38213
100
AcDbEntity
  8
0
 62
     0
100
AcDbLine
 10
79.04221215478115
 20
32.60416907028508
 30
0.0
 11
78.39638122506625
 21
33.25000000000006
 31
0.0
1001
ACAD
1000
RTMaterial
1005
0
  0
LINE
  5
38216
330
38213
100
AcDbEntity
  8
0
 62
     0
100
AcDbLine
 10
79.04221215478115
 20
31.70614345817819
 30
0.0
 11
77.4983556129593
 21
33.25000000000006
 31
0.0
1001
ACAD
1000
RTMaterial
1005
0
  0
LINE
  5
38217
330
38213
100
AcDbEntity
  8
0
 62
     0
100
AcDbLine
 10
79.04221215478111
 20
30.80811784607124
 30
0.0
 11
76.62107820876618
 21
33.22925179208619
 31
0.0
1001
ACAD
1000
RTMaterial
1005
0
  0
LINE
  5
38218
330
38213
100
AcDbEntity
  8
0
 62
     0
100
AcDbLine
 10
79.04221215478115
 20
29.91009223396441
 30
0.0
 11
76.2422121547811
 21
32.71009223396442
 31
0.0
1001
ACAD
1000
RTMaterial
1005
0
  0
LINE
  5
38219
330
38213
100
AcDbEntity
  8
0
 62
     0
100
AcDbLine
 10
79.04221215478115
 20
29.01206662185746
 30
0.0
 11
76.2422121547811
 21
31.81206662185753
 31
0.0
1001
ACAD
1000
RTMaterial
1005
0
  0
LINE
  5
3821A
330
38213
100
AcDbEntity
  8
0
 62
     0
100
AcDbLine
 10
79.04221215478111
 20
28.11404100975052
 30
0.0
 11
76.24221215478105
 21
30.91404100975058
 31
0.0
1001
ACAD
1000
RTMaterial
1005
0
  0
LINE
  5
3821B
330
38213
100
AcDbEntity
  8
0
 62
     0
100
AcDbLine
 10
74.14221215478106
 20
32.11601539764371
 30
0.0
 11
73.00822755242484
 21
33.24999999999994
 31
0.0
1001
ACAD
1000
RTMaterial
1005
0
  0
LINE
  5
3821C
330
38213
100
AcDbEntity
  8
0
 62
     0
100
AcDbLine
 10
79.04221215478115
 20
27.21601539764368
 30
0.0
 11
76.2422121547811
 21
30.01601539764374
 31
0.0
1001
ACAD
1000
RTMaterial
1005
0
  0
LINE
  5
3821D
330
38213
100
AcDbEntity
  8
0
 62
     0
100
AcDbLine
 10
74.14221215478106
 20
31.21798978553682
 30
0.0
 11
72.11020194031795
 21
33.24999999999994
 31
0.0
1001
ACAD
1000
RTMaterial
1005
0
  0
LINE
  5
3821E
330
38213
100
AcDbEntity
  8
0
 62
     0
100
AcDbLine
 10
79.04221215478111
 20
26.31798978553673
 30
0.0
 11
76.2422121547811
 21
29.11798978553679
 31
0.0
1001
ACAD
1000
RTMaterial
1005
0
  0
LINE
  5
3821F
330
38213
100
AcDbEntity
  8
0
 62
     0
100
AcDbLine
 10
74.14221215478106
 20
30.31996417342987
 30
0.0
 11
71.436701189644
 21
33.02547513856695
 31
0.0
1001
ACAD
1000
RTMaterial
1005
0
  0
LINE
  5
38220
330
38213
100
AcDbEntity
  8
0
 62
     0
100
AcDbLine
 10
79.04221215478111
 20
25.41996417342983
 30
0.0
 11
76.24221215478105
 21
28.21996417342985
 31
0.0
1001
ACAD
1000
RTMaterial
1005
0
  0
LINE
  5
38221
330
38213
100
AcDbEntity
  8
0
 62
     0
100
AcDbLine
 10
74.14221215478106
 20
29.42193856132292
 30
0.0
 11
71.34221215478103
 21
32.22193856132299
 31
0.0
1001
ACAD
1000
RTMaterial
1005
0
  0
LINE
  5
38222
330
38213
100
AcDbEntity
  8
0
 62
     0
100
AcDbLine
 10
79.04221215478115
 20
24.52193856132288
 30
0.0
 11
76.2422121547811
 21
27.32193856132295
 31
0.0
1001
ACAD
1000
RTMaterial
1005
0
  0
LINE
  5
38223
330
38213
100
AcDbEntity
  8
0
 62
     0
100
AcDbLine
 10
74.14221215478106
 20
28.52391294921608
 30
0.0
 11
71.34221215478103
 21
31.32391294921615
 31
0.0
1001
ACAD
1000
RTMaterial
1005
0
  0
LINE
  5
38224
330
38213
100
AcDbEntity
  8
0
 62
     0
100
AcDbLine
 10
79.04221215478111
 20
23.62391294921599
 30
0.0
 11
76.24221215478105
 21
26.42391294921606
 31
0.0
1001
ACAD
1000
RTMaterial
1005
0
  0
LINE
  5
38225
330
38213
100
AcDbEntity
  8
0
 62
     0
100
AcDbLine
 10
74.14221215478102
 20
27.62588733710913
 30
0.0
 11
71.34221215478103
 21
30.4258873371092
 31
0.0
1001
ACAD
1000
RTMaterial
1005
0
  0
LINE
  5
38226
330
38213
100
AcDbEntity
  8
0
 62
     0
100
AcDbLine
 10
79.04221215478111
 20
22.7258873371091
 30
0.0
 11
76.24221215478105
 21
25.52588733710917
 31
0.0
1001
ACAD
1000
RTMaterial
1005
0
  0
LINE
  5
38227
330
38213
100
AcDbEntity
  8
0
 62
     0
100
AcDbLine
 10
74.14221215478102
 20
26.72786172500224
 30
0.0
 11
71.34221215478095
 21
29.52786172500225
 31
0.0
1001
ACAD
1000
RTMaterial
1005
0
  0
LINE
  5
38228
330
38213
100
AcDbEntity
  8
0
 62
     0
100
AcDbLine
 10
79.04221215478107
 20
21.82786172500215
 30
0.0
 11
76.24221215478105
 21
24.62786172500222
 31
0.0
1001
ACAD
1000
RTMaterial
1005
0
  0
LINE
  5
38229
330
38213
100
AcDbEntity
  8
0
 62
     0
100
AcDbLine
 10
74.14221215478106
 20
25.82983611289535
 30
0.0
 11
71.34221215478103
 21
28.62983611289542
 31
0.0
1001
ACAD
1000
RTMaterial
1005
0
  0
LINE
  5
3822A
330
38213
100
AcDbEntity
  8
0
 62
     0
100
AcDbLine
 10
67.84221215478106
 20
32.12983611289536
 30
0.0
 11
66.72204826767643
 21
33.25
 31
0.0
1001
ACAD
1000
RTMaterial
1005
0
  0
LINE
  5
3822B
330
38213
100
AcDbEntity
  8
0
 62
     0
100
AcDbLine
 10
79.04221215478111
 20
20.92983611289532
 30
0.0
 11
76.24221215478105
 21
23.72983611289533
 31
0.0
1001
ACAD
1000
RTMaterial
1005
0
  0
LINE
  5
3822C
330
38213
100
AcDbEntity
  8
0
 62
     0
100
AcDbLine
 10
74.14221215478102
 20
24.93181050078846
 30
0.0
 11
71.34221215478095
 21
27.73181050078847
 31
0.0
1001
ACAD
1000
RTMaterial
1005
0
  0
LINE
  5
3822D
330
38213
100
AcDbEntity
  8
0
 62
     0
100
AcDbLine
 10
67.84221215478101
 20
31.23181050078841
 30
0.0
 11
65.82402265556948
 21
33.25
 31
0.0
1001
ACAD
1000
RTMaterial
1005
0
  0
LINE
  5
3822E
330
38213
100
AcDbEntity
  8
0
 62
     0
100
AcDbLine
 10
79.04221215478111
 20
20.03181050078837
 30
0.0
 11
76.24221215478105
 21
22.83181050078844
 31
0.0
1001
ACAD
1000
RTMaterial
1005
0
  0
LINE
  5
3822F
330
38213
100
AcDbEntity
  8
0
 62
     0
100
AcDbLine
 10
74.14221215478102
 20
24.03378488868151
 30
0.0
 11
71.34221215478103
 21
26.83378488868147
 31
0.0
1001
ACAD
1000
RTMaterial
1005
0
  0
LINE
  5
38230
330
38213
100
AcDbEntity
  8
0
 62
     0
100
AcDbLine
 10
67.84221215478101
 20
30.33378488868152
 30
0.0
 11
65.14244943145701
 21
33.03354761200552
 31
0.0
1001
ACAD
1000
RTMaterial
1005
0
  0
LINE
  5
38231
330
38213
100
AcDbEntity
  8
0
 62
     0
100
AcDbLine
 10
79.04221215478107
 20
19.13378488868147
 30
0.0
 11
76.24221215478098
 21
21.93378488868149
 31
0.0
1001
ACAD
1000
RTMaterial
1005
0
  0
LINE
  5
38232
330
38213
100
AcDbEntity
  8
0
 62
     0
100
AcDbLine
 10
74.14221215478102
 20
23.13575927657456
 30
0.0
 11
71.34221215478106
 21
25.93575927657457
 31
0.0
1001
ACAD
1000
RTMaterial
1005
0
  0
LINE
  5
38233
330
38213
100
AcDbEntity
  8
0
 62
     0
100
AcDbLine
 10
67.84221215478106
 20
29.43575927657457
 30
0.0
 11
65.04221215478104
 21
32.23575927657459
 31
0.0
1001
ACAD
1000
RTMaterial
1005
0
  0
LINE
  5
38234
330
38213
100
AcDbEntity
  8
0
 62
     0
100
AcDbLine
 10
79.04221215478111
 20
18.23575927657453
 30
0.0
 11
76.24221215478105
 21
21.03575927657459
 31
0.0
1001
ACAD
1000
RTMaterial
1005
0
  0
LINE
  5
38235
330
38213
100
AcDbEntity
  8
0
 62
     0
100
AcDbLine
 10
74.14221215478102
 20
22.23773366446772
 30
0.0
 11
71.34221215478106
 21
25.03773366446768
 31
0.0
1001
ACAD
1000
RTMaterial
1005
0
  0
LINE
  5
38236
330
38213
100
AcDbEntity
  8
0
 62
     0
100
AcDbLine
 10
67.84221215478111
 20
28.53773366446763
 30
0.0
 11
65.04221215478104
 21
31.33773366446769
 31
0.0
1001
ACAD
1000
RTMaterial
1005
0
  0
LINE
  5
38237
330
38213
100
AcDbEntity
  8
0
 62
     0
100
AcDbLine
 10
78.97024679989129
 20
17.40969901935744
 30
0.0
 11
76.24221215478105
 21
20.1377336644677
 31
0.0
1001
ACAD
1000
RTMaterial
1005
0
  0
LINE
  5
38238
330
38213
100
AcDbEntity
  8
0
 62
     0
100
AcDbLine
 10
74.14221215478102
 20
21.33970805236078
 30
0.0
 11
71.34221215478103
 21
24.13970805236073
 31
0.0
1001
ACAD
1000
RTMaterial
1005
0
  0
LINE
  5
38239
330
38213
100
AcDbEntity
  8
0
 62
     0
100
AcDbLine
 10
67.84221215478106
 20
27.63970805236073
 30
0.0
 11
65.042212154781
 21
30.43970805236074
 31
0.0
1001
ACAD
1000
RTMaterial
1005
0
  0
LINE
  5
3823A
330
38213
100
AcDbEntity
  8
0
 62
     0
100
AcDbLine
 10
78.33192020714193
 20
17.14999999999981
 30
0.0
 11
76.24221215478098
 21
19.23970805236081
 31
0.0
1001
ACAD
1000
RTMaterial
1005
0
  0
LINE
  5
3823B
330
38213
100
AcDbEntity
  8
0
 62
     0
100
AcDbLine
 10
67.84221215478106
 20
26.74168244025378
 30
0.0
 11
65.042212154781
 21
29.54168244025386
 31
0.0
1001
ACAD
1000
RTMaterial
1005
0
  0
LINE
  5
3823C
330
38213
100
AcDbEntity
  8
0
 62
     0
100
AcDbLine
 10
74.14221215478097
 20
20.44168244025389
 30
0.0
 11
71.34221215478103
 21
23.24168244025384
 31
0.0
1001
ACAD
1000
RTMaterial
1005
0
  0
LINE
  5
3823D
330
38213
100
AcDbEntity
  8
0
 62
     0
100
AcDbLine
 10
62.41721215478104
 20
32.1666824402538
 30
0.0
 11
61.33389459503489
 21
33.24999999999989
 31
0.0
1001
ACAD
1000
RTMaterial
1005
0
  0
LINE
  5
3823E
330
38213
100
AcDbEntity
  8
0
 62
     0
100
AcDbLine
 10
77.43389459503493
 20
17.14999999999986
 30
0.0
 11
76.24221215478098
 21
18.34168244025386
 31
0.0
1001
ACAD
1000
RTMaterial
1005
0
  0
LINE
  5
3823F
330
38213
100
AcDbEntity
  8
0
 62
     0
100
AcDbLine
 10
67.84221215478106
 20
25.84365682814689
 30
0.0
 11
65.04221215478111
 21
28.64365682814689
 31
0.0
1001
ACAD
1000
RTMaterial
1005
0
  0
LINE
  5
38240
330
38213
100
AcDbEntity
  8
0
 62
     0
100
AcDbLine
 10
62.41721215478104
 20
31.26865682814691
 30
0.0
 11
60.43586898292806
 21
33.24999999999994
 31
0.0
1001
ACAD
1000
RTMaterial
1005
0
  0
LINE
  5
38241
330
38213
100
AcDbEntity
  8
0
 62
     0
100
AcDbLine
 10
74.11625385413555
 20
19.56961512879246
 30
0.0
 11
71.34221215478103
 21
22.34365682814695
 31
0.0
1001
ACAD
1000
RTMaterial
1005
0
  0
LINE
  5
38242
330
38213
100
AcDbEntity
  8
0
 62
     0
100
AcDbLine
 10
67.84221215478106
 20
24.94563121604
 30
0.0
 11
65.04221215478111
 21
27.74563121603995
 31
0.0
1001
ACAD
1000
RTMaterial
1005
0
  0
LINE
  5
38243
330
38213
100
AcDbEntity
  8
0
 62
     0
100
AcDbLine
 10
62.22163160866722
 20
30.56621176215384
 30
0.0
 11
59.53784337082106
 21
33.25
 31
0.0
1001
ACAD
1000
RTMaterial
1005
0
  0
LINE
  5
38244
330
38213
100
AcDbEntity
  8
0
 62
     0
100
AcDbLine
 10
73.92326855887829
 20
18.8645748119427
 30
0.0
 11
71.34221215478103
 21
21.44563121604006
 31
0.0
1001
ACAD
1000
RTMaterial
1005
0
  0
LINE
  5
38245
330
38213
100
AcDbEntity
  8
0
 62
     0
100
AcDbLine
 10
67.84221215478106
 20
24.04760560393305
 30
0.0
 11
65.04221215478104
 21
26.84760560393306
 31
0.0
1001
ACAD
1000
RTMaterial
1005
0
  0
LINE
  5
38246
330
38213
100
AcDbEntity
  8
0
 62
     0
100
AcDbLine
 10
61.43981775871406
 20
30.44999999999999
 30
0.0
 11
58.63981775871417
 21
33.24999999999989
 31
0.0
1001
ACAD
1000
RTMaterial
1005
0
  0
LINE
  5
38247
330
38213
100
AcDbEntity
  8
0
 62
     0
100
AcDbLine
 10
73.59823668295473
 20
18.29158107575932
 30
0.0
 11
71.2706964156215
 21
20.61912134309261
 31
0.0
1001
ACAD
1000
RTMaterial
1005
0
  0
LINE
  5
38248
330
38213
100
AcDbEntity
  8
0
 62
     0
100
AcDbLine
 10
67.84221215478106
 20
23.14957999182622
 30
0.0
 11
65.04221215478111
 21
25.94957999182617
 31
0.0
1001
ACAD
1000
RTMaterial
1005
0
  0
LINE
  5
38249
330
38213
100
AcDbEntity
  8
0
 62
     0
100
AcDbLine
 10
60.54179214660728
 20
30.44999999999993
 30
0.0
 11
57.80422541742985
 21
33.18756672917743
 31
0.0
1001
ACAD
1000
RTMaterial
1005
0
  0
LINE
  5
3824A
330
38213
100
AcDbEntity
  8
0
 62
     0
100
AcDbLine
 10
73.16619488562969
 20
17.82559726097753
 30
0.0
 11
70.86911077715399
 21
20.12268136945323
 31
0.0
1001
ACAD
1000
RTMaterial
1005
0
  0
LINE
  5
3824B
330
38213
100
AcDbEntity
  8
0
 62
     0
100
AcDbLine
 10
67.84221215478106
 20
22.25155437971928
 30
0.0
 11
65.04221215478104
 21
25.05155437971922
 31
0.0
1001
ACAD
1000
RTMaterial
1005
0
  0
LINE
  5
3824C
330
38213
100
AcDbEntity
  8
0
 62
     0
100
AcDbLine
 10
59.6437665345004
 20
30.44999999999993
 30
0.0
 11
57.13958499289645
 21
32.95418154160382
 31
0.0
1001
ACAD
1000
RTMaterial
1005
0
  0
LINE
  5
3824D
330
38213
100
AcDbEntity
  8
0
 62
     0
100
AcDbLine
 10
72.63003254070365
 20
17.46373399379666
 30
0.0
 11
70.1437665345004
 21
19.94999999999993
 31
0.0
1001
ACAD
1000
RTMaterial
1005
0
  0
LINE
  5
3824E
330
38213
100
AcDbEntity
  8
0
 62
     0
100
AcDbLine
 10
67.84221215478101
 20
21.35352876761232
 30
0.0
 11
65.04221215478104
 21
24.15352876761233
 31
0.0
1001
ACAD
1000
RTMaterial
1005
0
  0
LINE
  5
3824F
330
38213
100
AcDbEntity
  8
0
 62
     0
100
AcDbLine
 10
58.76753075041147
 20
30.42821017198185
 30
0.0
 11
56.59698405568629
 21
32.59875686670705
 31
0.0
1001
ACAD
1000
RTMaterial
1005
0
  0
LINE
  5
38250
330
38213
100
AcDbEntity
  8
0
 62
     0
100
AcDbLine
 10
71.97361998079236
 20
17.22212094160102
 30
0.0
 11
69.24574092239339
 21
19.94999999999999
 31
0.0
1001
ACAD
1000
RTMaterial
1005
0
  0
LINE
  5
38251
330
38213
100
AcDbEntity
  8
0
 62
     0
100
AcDbLine
 10
58.39221215478108
 20
29.90550315550536
 30
0.0
 11
56.15887199664172
 21
32.13884331364467
 31
0.0
1001
ACAD
1000
RTMaterial
1005
0
  0
LINE
  5
38252
330
38213
100
AcDbEntity
  8
0
 62
     0
100
AcDbLine
 10
71.14771531028655
 20
17.14999999999981
 30
0.0
 11
65.04221215478104
 21
23.25550315550538
 31
0.0
1001
ACAD
1000
RTMaterial
1005
0
  0
LINE
  5
38253
330
38213
100
AcDbEntity
  8
0
 62
     0
100
AcDbLine
 10
58.39221215478113
 20
29.00747754339846
 30
0.0
 11
55.82710108428869
 21
31.5725886138909
 31
0.0
1001
ACAD
1000
RTMaterial
1005
0
  0
LINE
  5
38254
330
38213
100
AcDbEntity
  8
0
 62
     0
100
AcDbLine
 10
70.24968969817962
 20
17.14999999999992
 30
0.0
 11
65.04221215478104
 21
22.35747754339854
 31
0.0
1001
ACAD
1000
RTMaterial
1005
0
  0
LINE
  5
38255
330
38213
100
AcDbEntity
  8
0
 62
     0
100
AcDbLine
 10
58.59875643588492
 20
27.90290765018773
 30
0.0
 11
55.62492256492459
 21
30.87674152114801
 31
0.0
1001
ACAD
1000
RTMaterial
1005
0
  0
LINE
  5
38256
330
38213
100
AcDbEntity
  8
0
 62
     0
100
AcDbLine
 10
69.35166408607273
 20
17.14999999999992
 30
0.0
 11
65.04221215478104
 21
21.45945193129159
 31
0.0
1001
ACAD
1000
RTMaterial
1005
0
  0
LINE
  5
38257
330
38213
100
AcDbEntity
  8
0
 62
     0
100
AcDbLine
 10
62.81581585747243
 20
22.78782261649326
 30
0.0
 11
55.59221215478101
 21
30.01142631918469
 31
0.0
1001
ACAD
1000
RTMaterial
1005
0
  0
LINE
  5
38258
330
38213
100
AcDbEntity
  8
0
 62
     0
100
AcDbLine
 10
53.49221215478099
 20
32.11142631918466
 30
0.0
 11
52.35363847396576
 21
33.24999999999994
 31
0.0
1001
ACAD
1000
RTMaterial
1005
0
  0
LINE
  5
38259
330
38213
100
AcDbEntity
  8
0
 62
     0
100
AcDbLine
 10
68.45363847396578
 20
17.14999999999992
 30
0.0
 11
65.042212154781
 21
20.56142631918465
 31
0.0
1001
ACAD
1000
RTMaterial
1005
0
  0
LINE
  5
3825A
330
38213
100
AcDbEntity
  8
0
 62
     0
100
AcDbLine
 10
62.94221215478096
 20
21.76340070707789
 30
0.0
 11
55.59221215478107
 21
29.1134007070778
 31
0.0
1001
ACAD
1000
RTMaterial
1005
0
  0
LINE
  5
3825B
330
38213
100
AcDbEntity
  8
0
 62
     0
100
AcDbLine
 10
53.4922121547811
 20
31.21340070707772
 30
0.0
 11
51.45561286185887
 21
33.24999999999994
 31
0.0
1001
ACAD
1000
RTMaterial
1005
0
  0
LINE
  5
3825C
330
38213
100
AcDbEntity
  8
0
 62
     0
100
AcDbLine
 10
67.53916498311401
 20
17.16644787874486
 30
0.0
 11
65.058660033526
 21
19.64695282833287
 31
0.0
1001
ACAD
1000
RTMaterial
1005
0
  0
LINE
  5
3825D
330
38213
100
AcDbEntity
  8
0
 62
     0
100
AcDbLine
 10
53.4922121547811
 20
30.31537509497082
 30
0.0
 11
50.78482226700578
 21
33.02276498274608
 31
0.0
1001
ACAD
1000
RTMaterial
1005
0
  0
LINE
  5
3825E
330
38213
100
AcDbEntity
  8
0
 62
     0
100
AcDbLine
 10
62.94221215478103
 20
20.86537509497089
 30
0.0
 11
55.61562282266344
 21
28.19196442708847
 31
0.0
1001
ACAD
1000
RTMaterial
1005
0
  0
LINE
  5
3825F
330
38213
100
AcDbEntity
  8
0
 62
     0
100
AcDbLine
 10
53.4922121547811
 20
29.41734948286387
 30
0.0
 11
50.69221215478102
 21
32.21734948286394
 31
0.0
1001
ACAD
1000
RTMaterial
1005
0
  0
LINE
  5
38260
330
38213
100
AcDbEntity
  8
0
 62
     0
100
AcDbLine
 10
62.94221215478096
 20
19.96734948286394
 30
0.0
 11
55.93374224050347
 21
26.9758193971415
 31
0.0
1001
ACAD
1000
RTMaterial
1005
0
  0
LINE
  5
38261
330
38213
100
AcDbEntity
  8
0
 62
     0
100
AcDbLine
 10
53.4922121547811
 20
28.51932387075698
 30
0.0
 11
50.69221215478102
 21
31.31932387075699
 31
0.0
1001
ACAD
1000
RTMaterial
1005
0
  0
LINE
  5
38262
330
38213
100
AcDbEntity
  8
0
 62
     0
100
AcDbLine
 10
62.83365033719201
 20
19.17788568834606
 30
0.0
 11
60.1380155481537
 21
21.87352047738437
 31
0.0
1001
ACAD
1000
RTMaterial
1005
0
  0
LINE
  5
38263
330
38213
100
AcDbEntity
  8
0
 62
     0
100
AcDbLine
 10
53.4922121547811
 20
27.62129825865009
 30
0.0
 11
50.69221215478102
 21
30.42129825865016
 31
0.0
1001
ACAD
1000
RTMaterial
1005
0
  0
LINE
  5
38264
330
38213
100
AcDbEntity
  8
0
 62
     0
100
AcDbLine
 10
48.40072525420407
 20
32.71278515922706
 30
0.0
 11
47.86351041343118
 21
33.25
 31
0.0
1001
ACAD
1000
RTMaterial
1005
0
  0
LINE
  5
38265
330
38213
100
AcDbEntity
  8
0
 62
     0
100
AcDbLine
 10
62.56577462943045
 20
18.54773578400073
 30
0.0
 11
60.14221215478113
 21
20.97129825865005
 31
0.0
1001
ACAD
1000
RTMaterial
1005
0
  0
LINE
  5
38266
330
38213
100
AcDbEntity
  8
0
 62
     0
100
AcDbLine
 10
53.49221215478103
 20
26.72327264654314
 30
0.0
 11
50.69221215478102
 21
29.52327264654321
 31
0.0
1001
ACAD
1000
RTMaterial
1005
0
  0
LINE
  5
38267
330
38213
100
AcDbEntity
  8
0
 62
     0
100
AcDbLine
 10
48.20179758995147
 20
32.01368721137271
 30
0.0
 11
46.96548480132422
 21
33.25
 31
0.0
1001
ACAD
1000
RTMaterial
1005
0
  0
LINE
  5
38268
330
38213
100
AcDbEntity
  8
0
 62
     0
100
AcDbLine
 10
62.18278783125516
 20
18.03269697006907
 30
0.0
 11
60.04492697189466
 21
20.17055782942958
 31
0.0
1001
ACAD
1000
RTMaterial
1005
0
  0
LINE
  5
38269
330
38213
100
AcDbEntity
  8
0
 62
     0
100
AcDbLine
 10
53.49221215478103
 20
25.82524703443624
 30
0.0
 11
50.69221215478098
 21
28.62524703443625
 31
0.0
1001
ACAD
1000
RTMaterial
1005
0
  0
LINE
  5
3826A
330
38213
100
AcDbEntity
  8
0
 62
     0
100
AcDbLine
 10
47.98627144304576
 20
31.33118774617145
 30
0.0
 11
46.07705587957521
 21
33.24040330964209
 31
0.0
1001
ACAD
1000
RTMaterial
1005
0
  0
LINE
  5
3826B
330
38213
100
AcDbEntity
  8
0
 62
     0
100
AcDbLine
 10
61.69646886613953
 20
17.6209903230777
 30
0.0
 11
59.36745918921747
 21
19.94999999999982
 31
0.0
1001
ACAD
1000
RTMaterial
1005
0
  0
LINE
  5
3826C
330
38213
100
AcDbEntity
  8
0
 62
     0
100
AcDbLine
 10
53.4922121547811
 20
24.92722142232935
 30
0.0
 11
50.69221215478102
 21
27.72722142232942
 31
0.0
1001
ACAD
1000
RTMaterial
1005
0
  0
LINE
  5
3826D
330
38213
100
AcDbEntity
  8
0
 62
     0
100
AcDbLine
 10
47.77074529614026
 20
30.64868828097019
 30
0.0
 11
45.64274529614022
 21
32.77668828097024
 31
0.0
1001
ACAD
1000
RTMaterial
1005
0
  0
LINE
  5
3826E
330
38213
100
AcDbEntity
  8
0
 62
     0
100
AcDbLine
 10
61.10038491767915
 20
17.31904865943124
 30
0.0
 11
58.46943357711052
 21
19.94999999999993
 31
0.0
1001
ACAD
1000
RTMaterial
1005
0
  0
LINE
  5
3826F
330
38213
100
AcDbEntity
  8
0
 62
     0
100
AcDbLine
 10
53.49221215478103
 20
24.02919581022246
 30
0.0
 11
50.69221215478098
 21
26.82919581022247
 31
0.0
1001
ACAD
1000
RTMaterial
1005
0
  0
LINE
  5
38270
330
38213
100
AcDbEntity
  8
0
 62
     0
100
AcDbLine
 10
47.5552191492344
 20
29.9661888157691
 30
0.0
 11
45.42721914923442
 21
32.0941888157691
 31
0.0
1001
ACAD
1000
RTMaterial
1005
0
  0
LINE
  5
38271
330
38213
100
AcDbEntity
  8
0
 62
     0
100
AcDbLine
 10
60.36271226603168
 20
17.15869569897182
 30
0.0
 11
57.57140796500351
 21
19.94999999999999
 31
0.0
1001
ACAD
1000
RTMaterial
1005
0
  0
LINE
  5
38272
330
38213
100
AcDbEntity
  8
0
 62
     0
100
AcDbLine
 10
53.49221215478103
 20
23.13117019811551
 30
0.0
 11
50.69221215478102
 21
25.93117019811547
 31
0.0
1001
ACAD
1000
RTMaterial
1005
0
  0
LINE
  5
38273
330
38213
100
AcDbEntity
  8
0
 62
     0
100
AcDbLine
 10
47.33969300232882
 20
29.28368935056773
 30
0.0
 11
45.21169300232872
 21
31.41168935056777
 31
0.0
1001
ACAD
1000
RTMaterial
1005
0
  0
LINE
  5
38274
330
38213
100
AcDbEntity
  8
0
 62
     0
100
AcDbLine
 10
59.47338235289663
 20
17.14999999999992
 30
0.0
 11
56.67338235289657
 21
19.94999999999999
 31
0.0
1001
ACAD
1000
RTMaterial
1005
0
  0
LINE
  5
38275
330
38213
100
AcDbEntity
  8
0
 62
     0
100
AcDbLine
 10
53.49221215478103
 20
22.23314458600862
 30
0.0
 11
50.69221215478108
 21
25.03314458600863
 31
0.0
1001
ACAD
1000
RTMaterial
1005
0
  0
LINE
  5
38276
330
38213
100
AcDbEntity
  8
0
 62
     0
100
AcDbLine
 10
47.12416685542318
 20
28.60118988536653
 30
0.0
 11
44.99616685542309
 21
30.72918988536657
 31
0.0
1001
ACAD
1000
RTMaterial
1005
0
  0
LINE
  5
38277
330
38213
100
AcDbEntity
  8
0
 62
     0
100
AcDbLine
 10
58.57535674078974
 20
17.14999999999998
 30
0.0
 11
56.14174504349334
 21
19.58361169729636
 31
0.0
1001
ACAD
1000
RTMaterial
1005
0
  0
LINE
  5
38278
330
38213
100
AcDbEntity
  8
0
 62
     0
100
AcDbLine
 10
46.90864070851755
 20
27.91869042016515
 30
0.0
 11
44.78064070851746
 21
30.0466904201653
 31
0.0
1001
ACAD
1000
RTMaterial
1005
0
  0
LINE
  5
38279
330
38213
100
AcDbEntity
  8
0
 62
     0
100
AcDbLine
 10
53.49221215478103
 20
21.33511897390173
 30
0.0
 11
50.69221215478108
 21
24.13511897390169
 31
0.0
1001
ACAD
1000
RTMaterial
1005
0
  0
LINE
  5
3827A
330
38213
100
AcDbEntity
  8
0
 62
     0
100
AcDbLine
 10
42.64221215478108
 20
32.1851189739017
 30
0.0
 11
41.57733112868277
 21
33.24999999999994
 31
0.0
1001
ACAD
1000
RTMaterial
1005
0
  0
LINE
  5
3827B
330
38213
100
AcDbEntity
  8
0
 62
     0
100
AcDbLine
 10
57.67733112868285
 20
17.14999999999992
 30
0.0
 11
56.1172121547811
 21
18.71011897390167
 31
0.0
1001
ACAD
1000
RTMaterial
1005
0
  0
LINE
  5
3827C
330
38213
100
AcDbEntity
  8
0
 62
     0
100
AcDbLine
 10
46.69311456161175
 20
27.23619095496407
 30
0.0
 11
44.56511456161182
 21
29.36419095496399
 31
0.0
1001
ACAD
1000
RTMaterial
1005
0
  0
LINE
  5
3827D
330
38213
100
AcDbEntity
  8
0
 62
     0
100
AcDbLine
 10
53.49221215478103
 20
20.43709336179478
 30
0.0
 11
50.69221215478102
 21
23.23709336179479
 31
0.0
1001
ACAD
1000
RTMaterial
1005
0
  0
LINE
  5
3827E
330
38213
100
AcDbEntity
  8
0
 62
     0
100
AcDbLine
 10
42.64221215478108
 20
31.28709336179475
 30
0.0
 11
40.67930551657588
 21
33.24999999999994
 31
0.0
1001
ACAD
1000
RTMaterial
1005
0
  0
LINE
  5
3827F
330
38213
100
AcDbEntity
  8
0
 62
     0
100
AcDbLine
 10
56.77930551657585
 20
17.14999999999998
 30
0.0
 11
56.11721215478103
 21
17.81209336179472
 31
0.0
1001
ACAD
1000
RTMaterial
1005
0
  0
LINE
  5
38280
330
38213
100
AcDbEntity
  8
0
 62
     0
100
AcDbLine
 10
46.47758841470613
 20
26.55369148976274
 30
0.0
 11
44.34958841470609
 21
28.68169148976278
 31
0.0
1001
ACAD
1000
RTMaterial
1005
0
  0
LINE
  5
38281
330
38213
100
AcDbEntity
  8
0
 62
     0
100
AcDbLine
 10
42.64221215478102
 20
30.3890677496878
 30
0.0
 11
39.96676722588342
 21
33.06451267858547
 31
0.0
1001
ACAD
1000
RTMaterial
1005
0
  0
LINE
  5
38282
330
38213
100
AcDbEntity
  8
0
 62
     0
100
AcDbLine
 10
53.49221215478099
 20
19.53906774968789
 30
0.0
 11
50.69221215478102
 21
22.33906774968784
 31
0.0
1001
ACAD
1000
RTMaterial
1005
0
  0
LINE
  5
38283
330
38213
100
AcDbEntity
  8
0
 62
     0
100
AcDbLine
 10
46.2620622678005
 20
25.87119202456154
 30
0.0
 11
44.1340622678005
 21
27.99919202456152
 31
0.0
1001
ACAD
1000
RTMaterial
1005
0
  0
LINE
  5
38284
330
38213
100
AcDbEntity
  8
0
 62
     0
100
AcDbLine
 10
42.64221215478108
 20
29.49104213758096
 30
0.0
 11
39.84221215478101
 21
32.29104213758097
 31
0.0
1001
ACAD
1000
RTMaterial
1005
0
  0
LINE
  5
38285
330
38213
100
AcDbEntity
  8
0
 62
     0
100
AcDbLine
 10
53.49221215478103
 20
18.64104213758099
 30
0.0
 11
50.69221215478102
 21
21.44104213758095
 31
0.0
1001
ACAD
1000
RTMaterial
1005
0
  0
LINE
  5
38286
330
38213
100
AcDbEntity
  8
0
 62
     0
100
AcDbLine
 10
46.05697375840843
 20
25.17825492184665
 30
0.0
 11
43.91853612089477
 21
27.31669255936032
 31
0.0
1001
ACAD
1000
RTMaterial
1005
0
  0
LINE
  5
38287
330
38213
100
AcDbEntity
  8
0
 62
     0
100
AcDbLine
 10
42.64221215478108
 20
28.59301652547401
 30
0.0
 11
39.84221215478101
 21
31.39301652547408
 31
0.0
1001
ACAD
1000
RTMaterial
1005
0
  0
LINE
  5
38288
330
38213
100
AcDbEntity
  8
0
 62
     0
100
AcDbLine
 10
53.49221215478099
 20
17.74301652547405
 30
0.0
 11
50.69221215478102
 21
20.54301652547406
 31
0.0
1001
ACAD
1000
RTMaterial
1005
0
  0
LINE
  5
38289
330
38213
100
AcDbEntity
  8
0
 62
     0
100
AcDbLine
 10
46.47144711784243
 20
23.8657559503057
 30
0.0
 11
43.62798862521015
 21
26.70921444293799
 31
0.0
1001
ACAD
1000
RTMaterial
1005
0
  0
LINE
  5
3828A
330
38213
100
AcDbEntity
  8
0
 62
     0
100
AcDbLine
 10
42.64221215478113
 20
27.69499091336701
 30
0.0
 11
39.84221215478095
 21
30.49499091336713
 31
0.0
1001
ACAD
1000
RTMaterial
1005
0
  0
LINE
  5
3828B
330
38213
100
AcDbEntity
  8
0
 62
     0
100
AcDbLine
 10
53.15316715744864
 20
17.18403591069943
 30
0.0
 11
50.69221215478102
 21
19.64499091336711
 31
0.0
1001
ACAD
1000
RTMaterial
1005
0
  0
LINE
  5
3828C
330
38213
100
AcDbEntity
  8
0
 62
     0
100
AcDbLine
 10
46.88592047727644
 20
22.55325697876486
 30
0.0
 11
39.84221215478101
 21
29.5969653012603
 31
0.0
1001
ACAD
1000
RTMaterial
1005
0
  0
LINE
  5
3828D
330
38213
100
AcDbEntity
  8
0
 62
     0
100
AcDbLine
 10
37.39221215478114
 20
32.04696530126017
 30
0.0
 11
36.18917745604136
 21
33.24999999999994
 31
0.0
1001
ACAD
1000
RTMaterial
1005
0
  0
LINE
  5
3828E
330
38213
100
AcDbEntity
  8
0
 62
     0
100
AcDbLine
 10
52.28917745604139
 20
17.14999999999992
 30
0.0
 11
50.69221215478115
 21
18.74696530126016
 31
0.0
1001
ACAD
1000
RTMaterial
1005
0
  0
LINE
  5
3828F
330
38213
100
AcDbEntity
  8
0
 62
     0
100
AcDbLine
 10
47.3003938367105
 20
21.24075800722386
 30
0.0
 11
39.84221215478101
 21
28.69893968915335
 31
0.0
1001
ACAD
1000
RTMaterial
1005
0
  0
LINE
  5
38290
330
38213
100
AcDbEntity
  8
0
 62
     0
100
AcDbLine
 10
37.39221215478114
 20
31.14893968915322
 30
0.0
 11
35.29115184393436
 21
33.25
 31
0.0
1001
ACAD
1000
RTMaterial
1005
0
  0
LINE
  5
38291
330
38213
100
AcDbEntity
  8
0
 62
     0
100
AcDbLine
 10
51.39115184393443
 20
17.14999999999986
 30
0.0
 11
50.69221215478108
 21
17.84893968915327
 31
0.0
1001
ACAD
1000
RTMaterial
1005
0
  0
LINE
  5
38292
330
38213
100
AcDbEntity
  8
0
 62
     0
100
AcDbLine
 10
37.12530545939103
 20
30.51782077243638
 30
0.0
 11
34.42508374117962
 21
33.21804249064775
 31
0.0
1001
ACAD
1000
RTMaterial
1005
0
  0
LINE
  5
38293
330
38213
100
AcDbEntity
  8
0
 62
     0
100
AcDbLine
 10
47.71486719614443
 20
19.92825903568297
 30
0.0
 11
39.84221215478095
 21
27.80091407704646
 31
0.0
1001
ACAD
1000
RTMaterial
1005
0
  0
LINE
  5
38294
330
38213
100
AcDbEntity
  8
0
 62
     0
100
AcDbLine
 10
42.97972107712269
 20
23.76537954259783
 30
0.0
 11
39.84221215478101
 21
26.90288846493951
 31
0.0
1001
ACAD
1000
RTMaterial
1005
0
  0
LINE
  5
38295
330
38213
100
AcDbEntity
  8
0
 62
     0
100
AcDbLine
 10
36.29510061972059
 20
30.44999999999987
 30
0.0
 11
33.68704067159234
 21
33.05805994812818
 31
0.0
1001
ACAD
1000
RTMaterial
1005
0
  0
LINE
  5
38296
330
38213
100
AcDbEntity
  8
0
 62
     0
100
AcDbLine
 10
48.1293405555785
 20
18.61576006414202
 30
0.0
 11
44.03703286327037
 21
22.70806775645013
 31
0.0
1001
ACAD
1000
RTMaterial
1005
0
  0
LINE
  5
38297
330
38213
100
AcDbEntity
  8
0
 62
     0
100
AcDbLine
 10
42.64221215478113
 20
23.20486285283249
 30
0.0
 11
39.84221215478095
 21
26.00486285283262
 31
0.0
1001
ACAD
1000
RTMaterial
1005
0
  0
LINE
  5
38298
330
38213
100
AcDbEntity
  8
0
 62
     0
100
AcDbLine
 10
35.39707500761358
 20
30.44999999999999
 30
0.0
 11
33.04831925576163
 21
32.79875575185196
 31
0.0
1001
ACAD
1000
RTMaterial
1005
0
  0
LINE
  5
38299
330
38213
100
AcDbEntity
  8
0
 62
     0
100
AcDbLine
 10
48.3643794132891
 20
17.48269559432447
 30
0.0
 11
44.45150622270432
 21
21.3955687849093
 31
0.0
1001
ACAD
1000
RTMaterial
1005
0
  0
LINE
  5
3829A
330
38213
100
AcDbEntity
  8
0
 62
     0
100
AcDbLine
 10
42.64221215478108
 20
22.3068372407256
 30
0.0
 11
39.84221215478095
 21
25.10683724072573
 31
0.0
1001
ACAD
1000
RTMaterial
1005
0
  0
LINE
  5
3829B
330
38213
100
AcDbEntity
  8
0
 62
     0
100
AcDbLine
 10
34.55396150507005
 20
30.39508789043663
 30
0.0
 11
32.48957028042708
 21
32.4594791150796
 31
0.0
1001
ACAD
1000
RTMaterial
1005
0
  0
LINE
  5
3829C
330
38213
100
AcDbEntity
  8
0
 62
     0
100
AcDbLine
 10
47.79904939550675
 20
17.14999999999992
 30
0.0
 11
44.86597958213836
 21
20.08306981336824
 31
0.0
1001
ACAD
1000
RTMaterial
1005
0
  0
LINE
  5
3829D
330
38213
100
AcDbEntity
  8
0
 62
     0
100
AcDbLine
 10
42.64221215478108
 20
21.40881162861865
 30
0.0
 11
39.84221215478095
 21
24.20881162861878
 31
0.0
1001
ACAD
1000
RTMaterial
1005
0
  0
LINE
  5
3829E
330
38213
100
AcDbEntity
  8
0
 62
     0
100
AcDbLine
 10
33.98210531223106
 20
30.06891847116867
 30
0.0
 11
32.00191507181529
 21
32.04910871158444
 31
0.0
1001
ACAD
1000
RTMaterial
1005
0
  0
LINE
  5
3829F
330
38213
100
AcDbEntity
  8
0
 62
     0
100
AcDbLine
 10
46.90102378339981
 20
17.14999999999992
 30
0.0
 11
45.28045294157232
 21
18.77057084182741
 31
0.0
1001
ACAD
1000
RTMaterial
1005
0
  0
LINE
  5
382A0
330
38213
100
AcDbEntity
  8
0
 62
     0
100
AcDbLine
 10
37.72764128757882
 20
25.42535688371407
 30
0.0
 11
36.21756903849507
 21
26.93542913279782
 31
0.0
1001
ACAD
1000
RTMaterial
1005
0
  0
LINE
  5
382A1
330
38213
100
AcDbEntity
  8
0
 62
     0
100
AcDbLine
 10
42.64221215478108
 20
20.51078601651176
 30
0.0
 11
39.84221215478095
 21
23.31078601651194
 31
0.0
1001
ACAD
1000
RTMaterial
1005
0
  0
LINE
  5
382A2
330
38213
100
AcDbEntity
  8
0
 62
     0
100
AcDbLine
 10
33.62598374210211
 20
29.52701442919078
 30
0.0
 11
31.58254904580406
 21
31.57044912548883
 31
0.0
1001
ACAD
1000
RTMaterial
1005
0
  0
LINE
  5
382A3
330
38213
100
AcDbEntity
  8
0
 62
     0
100
AcDbLine
 10
45.9526651670883
 20
17.20033300420459
 30
0.0
 11
45.70231099549697
 21
17.4506871757959
 31
0.0
1001
ACAD
1000
RTMaterial
1005
0
  0
LINE
  5
382A4
330
38213
100
AcDbEntity
  8
0
 62
     0
100
AcDbLine
 10
37.6411276274369
 20
24.61384493174904
 30
0.0
 11
35.40605708653004
 21
26.8489154726559
 31
0.0
1001
ACAD
1000
RTMaterial
1005
0
  0
LINE
  5
382A5
330
38213
100
AcDbEntity
  8
0
 62
     0
100
AcDbLine
 10
33.54221215478117
 20
28.71276040440477
 30
0.0
 11
31.23361002484239
 21
31.02136253434355
 31
0.0
1001
ACAD
1000
RTMaterial
1005
0
  0
LINE
  5
382A6
330
38213
100
AcDbEntity
  8
0
 62
     0
100
AcDbLine
 10
42.64221215478108
 20
19.61276040440487
 30
0.0
 11
39.84221215478095
 21
22.41276040440499
 31
0.0
1001
ACAD
1000
RTMaterial
1005
0
  0
LINE
  5
382A7
330
38213
100
AcDbEntity
  8
0
 62
     0
100
AcDbLine
 10
37.30927206813885
 20
24.04767487894009
 30
0.0
 11
34.83988703372109
 21
26.51705991335786
 31
0.0
1001
ACAD
1000
RTMaterial
1005
0
  0
LINE
  5
382A8
330
38213
100
AcDbEntity
  8
0
 62
     0
100
AcDbLine
 10
33.54221215478117
 20
27.81473479229783
 30
0.0
 11
30.96303031763222
 21
30.39391662944678
 31
0.0
1001
ACAD
1000
RTMaterial
1005
0
  0
LINE
  5
382A9
330
38213
100
AcDbEntity
  8
0
 62
     0
100
AcDbLine
 10
42.64221215478108
 20
18.71473479229791
 30
0.0
 11
39.84221215478101
 21
21.51473479229799
 31
0.0
1001
ACAD
1000
RTMaterial
1005
0
  0
LINE
  5
382AA
330
38213
100
AcDbEntity
  8
0
 62
     0
100
AcDbLine
 10
33.54221215478117
 20
26.91670918019094
 30
0.0
 11
30.78831644470638
 21
29.67060489026579
 31
0.0
1001
ACAD
1000
RTMaterial
1005
0
  0
LINE
  5
382AB
330
38213
100
AcDbEntity
  8
0
 62
     0
100
AcDbLine
 10
36.80743862600241
 20
23.65148270896975
 30
0.0
 11
34.44369486375075
 21
26.01522647122141
 31
0.0
1001
ACAD
1000
RTMaterial
1005
0
  0
LINE
  5
382AC
330
38213
100
AcDbEntity
  8
0
 62
     0
100
AcDbLine
 10
28.11721215478099
 20
32.34170918019112
 30
0.0
 11
27.20892133497211
 21
33.25000000000006
 31
0.0
1001
ACAD
1000
RTMaterial
1005
0
  0
LINE
  5
382AD
330
38213
100
AcDbEntity
  8
0
 62
     0
100
AcDbLine
 10
42.64221215478108
 20
17.81670918019108
 30
0.0
 11
39.84221215478101
 21
20.61670918019109
 31
0.0
1001
ACAD
1000
RTMaterial
1005
0
  0
LINE
  5
382AE
330
38213
100
AcDbEntity
  8
0
 62
     0
100
AcDbLine
 10
33.54221215478117
 20
26.01868356808405
 30
0.0
 11
30.74221215478104
 21
28.81868356808417
 31
0.0
1001
ACAD
1000
RTMaterial
1005
0
  0
LINE
  5
382AF
330
38213
100
AcDbEntity
  8
0
 62
     0
100
AcDbLine
 10
36.10711918357498
 20
23.45377653929023
 30
0.0
 11
34.24598869407123
 21
25.31490702879398
 31
0.0
1001
ACAD
1000
RTMaterial
1005
0
  0
LINE
  5
382B0
330
38213
100
AcDbEntity
  8
0
 62
     0
100
AcDbLine
 10
28.11721215478099
 20
31.44368356808423
 30
0.0
 11
26.31089572286516
 21
33.25
 31
0.0
1001
ACAD
1000
RTMaterial
1005
0
  0
LINE
  5
382B1
330
38213
100
AcDbEntity
  8
0
 62
     0
100
AcDbLine
 10
42.35430835351047
 20
17.20658736935473
 30
0.0
 11
39.84221215478101
 21
19.7186835680842
 31
0.0
1001
ACAD
1000
RTMaterial
1005
0
  0
LINE
  5
382B2
330
38213
100
AcDbEntity
  8
0
 62
     0
100
AcDbLine
 10
33.54221215478117
 20
25.1206579559771
 30
0.0
 11
30.74221215478099
 21
27.92065795597722
 31
0.0
1001
ACAD
1000
RTMaterial
1005
0
  0
LINE
  5
382B3
330
38213
100
AcDbEntity
  8
0
 62
     0
100
AcDbLine
 10
28.00817818451071
 20
30.65469192624755
 30
0.0
 11
25.41287011075826
 21
33.25
 31
0.0
1001
ACAD
1000
RTMaterial
1005
0
  0
LINE
  5
382B4
330
38213
100
AcDbEntity
  8
0
 62
     0
100
AcDbLine
 10
41.51287011075834
 20
17.14999999999986
 30
0.0
 11
39.84221215478101
 21
18.82065795597725
 31
0.0
1001
ACAD
1000
RTMaterial
1005
0
  0
LINE
  5
382B5
330
38213
100
AcDbEntity
  8
0
 62
     0
100
AcDbLine
 10
33.54221215478111
 20
24.2226323438702
 30
0.0
 11
30.74221215478099
 21
27.02263234387033
 31
0.0
1001
ACAD
1000
RTMaterial
1005
0
  0
LINE
  5
382B6
330
38213
100
AcDbEntity
  8
0
 62
     0
100
AcDbLine
 10
27.31484449865138
 20
30.44999999999993
 30
0.0
 11
24.51484449865143
 21
33.24999999999989
 31
0.0
1001
ACAD
1000
RTMaterial
1005
0
  0
LINE
  5
382B7
330
38213
100
AcDbEntity
  8
0
 62
     0
100
AcDbLine
 10
40.61484449865145
 20
17.14999999999986
 30
0.0
 11
39.84221215478095
 21
17.92263234387036
 31
0.0
1001
ACAD
1000
RTMaterial
1005
0
  0
LINE
  5
382B8
330
38213
100
AcDbEntity
  8
0
 62
     0
100
AcDbLine
 10
33.54221215478117
 20
23.32460673176331
 30
0.0
 11
30.74221215478104
 21
26.12460673176344
 31
0.0
1001
ACAD
1000
RTMaterial
1005
0
  0
LINE
  5
382B9
330
38213
100
AcDbEntity
  8
0
 62
     0
100
AcDbLine
 10
26.41681888654449
 20
30.44999999999993
 30
0.0
 11
23.65168961443959
 21
33.2151292721049
 31
0.0
1001
ACAD
1000
RTMaterial
1005
0
  0
LINE
  5
382BA
330
38213
100
AcDbEntity
  8
0
 62
     0
100
AcDbLine
 10
37.38960970594418
 20
19.47720918060025
 30
0.0
 11
36.91942133538146
 21
19.94739755116302
 31
0.0
1001
ACAD
1000
RTMaterial
1005
0
  0
LINE
  5
382BB
330
38213
100
AcDbEntity
  8
0
 62
     0
100
AcDbLine
 10
33.54221215478111
 20
22.42658111965636
 30
0.0
 11
30.74221215478099
 21
25.22658111965654
 31
0.0
1001
ACAD
1000
RTMaterial
1005
0
  0
LINE
  5
382BC
330
38213
100
AcDbEntity
  8
0
 62
     0
100
AcDbLine
 10
25.5187932744376
 20
30.44999999999993
 30
0.0
 11
22.95855480596111
 21
33.01023846847642
 31
0.0
1001
ACAD
1000
RTMaterial
1005
0
  0
LINE
  5
382BD
330
38213
100
AcDbEntity
  8
0
 62
     0
100
AcDbLine
 10
37.39221215478108
 20
18.57658111965639
 30
0.0
 11
36.01879327443754
 21
19.94999999999999
 31
0.0
1001
ACAD
1000
RTMaterial
1005
0
  0
LINE
  5
382BE
330
38213
100
AcDbEntity
  8
0
 62
     0
100
AcDbLine
 10
33.54221215478111
 20
21.52855550754947
 30
0.0
 11
30.74221215478099
 21
24.3285555075496
 31
0.0
1001
ACAD
1000
RTMaterial
1005
0
  0
LINE
  5
382BF
330
38213
100
AcDbEntity
  8
0
 62
     0
100
AcDbLine
 10
24.62076766233065
 20
30.44999999999987
 30
0.0
 11
22.39430814611387
 21
32.67645951621665
 31
0.0
1001
ACAD
1000
RTMaterial
1005
0
  0
LINE
  5
382C0
330
38213
100
AcDbEntity
  8
0
 62
     0
100
AcDbLine
 10
37.39221215478108
 20
17.6785555075495
 30
0.0
 11
35.12076766233065
 21
19.94999999999987
 31
0.0
1001
ACAD
1000
RTMaterial
1005
0
  0
LINE
  5
382C1
330
38213
100
AcDbEntity
  8
0
 62
     0
100
AcDbLine
 10
24.11047483471606
 20
30.06226721550769
 30
0.0
 11
21.93621533387312
 21
32.23652671635063
 31
0.0
1001
ACAD
1000
RTMaterial
1005
0
  0
LINE
  5
382C2
330
38213
100
AcDbEntity
  8
0
 62
     0
100
AcDbLine
 10
37.00447937028878
 20
17.16826267993497
 30
0.0
 11
30.74221215478099
 21
23.4305298954427
 31
0.0
1001
ACAD
1000
RTMaterial
1005
0
  0
LINE
  5
382C3
330
38213
100
AcDbEntity
  8
0
 62
     0
100
AcDbLine
 10
24.09221215478112
 20
29.18250428333568
 30
0.0
 11
21.58273413140404
 21
31.69198230671276
 31
0.0
1001
ACAD
1000
RTMaterial
1005
0
  0
LINE
  5
382C4
330
38213
100
AcDbEntity
  8
0
 62
     0
100
AcDbLine
 10
36.12471643811689
 20
17.14999999999992
 30
0.0
 11
30.74221215478099
 21
22.53250428333581
 31
0.0
1001
ACAD
1000
RTMaterial
1005
0
  0
LINE
  5
382C5
330
38213
100
AcDbEntity
  8
0
 62
     0
100
AcDbLine
 10
24.15434786291655
 20
28.22234296309324
 30
0.0
 11
21.35185402911031
 21
31.02483679689953
 31
0.0
1001
ACAD
1000
RTMaterial
1005
0
  0
LINE
  5
382C6
330
38213
100
AcDbEntity
  8
0
 62
     0
100
AcDbLine
 10
35.22669082600986
 20
17.14999999999998
 30
0.0
 11
30.74221215478099
 21
21.63447867122886
 31
0.0
1001
ACAD
1000
RTMaterial
1005
0
  0
LINE
  5
382C7
330
38213
100
AcDbEntity
  8
0
 62
     0
100
AcDbLine
 10
28.44658824600378
 20
23.03207696789917
 30
0.0
 11
21.29221215478117
 21
30.18645305912179
 31
0.0
1001
ACAD
1000
RTMaterial
1005
0
  0
LINE
  5
382C8
330
38213
100
AcDbEntity
  8
0
 62
     0
100
AcDbLine
 10
34.27539312684633
 20
17.20327208705663
 30
0.0
 11
30.79548424183776
 21
20.6831809720652
 31
0.0
1001
ACAD
1000
RTMaterial
1005
0
  0
LINE
  5
382C9
330
38213
100
AcDbEntity
  8
0
 62
     0
100
AcDbLine
 10
28.63848276008901
 20
21.94215684170706
 30
0.0
 11
21.29221215478105
 21
29.28842744701502
 31
0.0
1001
ACAD
1000
RTMaterial
1005
0
  0
LINE
  5
382CA
330
38213
100
AcDbEntity
  8
0
 62
     0
100
AcDbLine
 10
32.90158521424473
 20
17.67905438755127
 30
0.0
 11
31.27126654233234
 21
19.30937305946372
 31
0.0
1001
ACAD
1000
RTMaterial
1005
0
  0
LINE
  5
382CB
330
38213
100
AcDbEntity
  8
0
 62
     0
100
AcDbLine
 10
28.64221215478114
 20
21.04040183490798
 30
0.0
 11
21.29977660220345
 21
28.38283738748561
 31
0.0
1001
ACAD
1000
RTMaterial
1005
0
  0
LINE
  5
382CC
330
38213
100
AcDbEntity
  8
0
 62
     0
100
AcDbLine
 10
28.64221215478108
 20
20.14237622280109
 30
0.0
 11
21.52306736052731
 21
27.2615210170548
 31
0.0
1001
ACAD
1000
RTMaterial
1005
0
  0
LINE
  5
382CD
330
38213
100
AcDbEntity
  8
0
 62
     0
100
AcDbLine
 10
28.56969215864916
 20
19.31687060682617
 30
0.0
 11
25.8063005150301
 21
22.08026225044523
 31
0.0
1001
ACAD
1000
RTMaterial
1005
0
  0
LINE
  5
382CE
330
38213
100
AcDbEntity
  8
0
 62
     0
100
AcDbLine
 10
28.32775421962032
 20
18.66078293374807
 30
0.0
 11
25.84221215478107
 21
21.14632499858732
 31
0.0
1001
ACAD
1000
RTMaterial
1005
0
  0
LINE
  5
382CF
330
38213
100
AcDbEntity
  8
0
 62
     0
100
AcDbLine
 10
27.96563497223855
 20
18.12487656902289
 30
0.0
 11
25.80631312248039
 21
20.28419841878104
 31
0.0
1001
ACAD
1000
RTMaterial
1005
0
  0
LINE
  5
382D0
330
38213
100
AcDbEntity
  8
0
 62
     0
100
AcDbLine
 10
27.49940859997167
 20
17.69307732918287
 30
0.0
 11
25.24248592915455
 21
19.95000000000004
 31
0.0
1001
ACAD
1000
RTMaterial
1005
0
  0
LINE
  5
382D1
330
38213
100
AcDbEntity
  8
0
 62
     0
100
AcDbLine
 10
26.92614415223886
 20
17.36831616480879
 30
0.0
 11
24.34446031704761
 21
19.94999999999999
 31
0.0
1001
ACAD
1000
RTMaterial
1005
0
  0
LINE
  5
382D2
330
38213
100
AcDbEntity
  8
0
 62
     0
100
AcDbLine
 10
26.22073156315293
 20
17.17570314178778
 30
0.0
 11
23.44643470494077
 21
19.94999999999993
 31
0.0
1001
ACAD
1000
RTMaterial
1005
0
  0
LINE
  5
382D3
330
38213
100
AcDbEntity
  8
0
 62
     0
100
AcDbLine
 10
25.34840909283389
 20
17.14999999999981
 30
0.0
 11
22.54840909283387
 21
19.94999999999987
 31
0.0
1001
ACAD
1000
RTMaterial
1005
0
  0
LINE
  5
382D4
330
38213
100
AcDbEntity
  8
0
 62
     0
100
AcDbLine
 10
24.45038348072694
 20
17.14999999999992
 30
0.0
 11
21.89705958590906
 21
19.70332389481785
 31
0.0
1001
ACAD
1000
RTMaterial
1005
0
  0
LINE
  5
382D5
330
38213
100
AcDbEntity
  8
0
 62
     0
100
AcDbLine
 10
23.55235786862005
 20
17.14999999999992
 30
0.0
 11
21.81721215478109
 21
18.88514571383888
 31
0.0
1001
ACAD
1000
RTMaterial
1005
0
  0
LINE
  5
382D6
330
38213
100
AcDbEntity
  8
0
 62
     0
100
AcDbLine
 10
22.6543322565131
 20
17.14999999999992
 30
0.0
 11
21.81721215478109
 21
17.98712010173193
 31
0.0
1001
ACAD
1000
RTMaterial
1005
0
  0
LINE
  5
382D7
330
38213
100
AcDbEntity
  8
0
 62
     0
100
AcDbLine
 10
78.63389943944806
 20
17.16313177711748
 30
0.0
 11
79.02908037766383
 21
17.55831271533327
 31
0.0
1001
ACAD
1000
RTMaterial
1005
0
  0
LINE
  5
382D8
330
38213
100
AcDbEntity
  8
0
 62
     0
100
AcDbLine
 10
77.7227420502237
 20
17.14999999999992
 30
0.0
 11
79.04221215478128
 21
18.46947010455756
 31
0.0
1001
ACAD
1000
RTMaterial
1005
0
  0
LINE
  5
382D9
330
38213
100
AcDbEntity
  8
0
 62
     0
100
AcDbLine
 10
76.82471643811675
 20
17.14999999999998
 30
0.0
 11
79.04221215478128
 21
19.36749571666445
 31
0.0
1001
ACAD
1000
RTMaterial
1005
0
  0
LINE
  5
382DA
330
38213
100
AcDbEntity
  8
0
 62
     0
100
AcDbLine
 10
76.27340971803295
 20
17.49671889202307
 30
0.0
 11
79.04221215478123
 21
20.2655213287714
 31
0.0
1001
ACAD
1000
RTMaterial
1005
0
  0
LINE
  5
382DB
330
38213
100
AcDbEntity
  8
0
 62
     0
100
AcDbLine
 10
76.24221215478115
 20
18.36354694087822
 30
0.0
 11
79.04221215478123
 21
21.16354694087823
 31
0.0
1001
ACAD
1000
RTMaterial
1005
0
  0
LINE
  5
382DC
330
38213
100
AcDbEntity
  8
0
 62
     0
100
AcDbLine
 10
76.2422121547812
 20
19.26157255298511
 30
0.0
 11
79.04221215478123
 21
22.06157255298518
 31
0.0
1001
ACAD
1000
RTMaterial
1005
0
  0
LINE
  5
382DD
330
38213
100
AcDbEntity
  8
0
 62
     0
100
AcDbLine
 10
76.24221215478115
 20
20.15959816509206
 30
0.0
 11
79.04221215478123
 21
22.95959816509213
 31
0.0
1001
ACAD
1000
RTMaterial
1005
0
  0
LINE
  5
382DE
330
38213
100
AcDbEntity
  8
0
 62
     0
100
AcDbLine
 10
76.24221215478115
 20
21.05762377719896
 30
0.0
 11
79.04221215478123
 21
23.85762377719903
 31
0.0
1001
ACAD
1000
RTMaterial
1005
0
  0
LINE
  5
382DF
330
38213
100
AcDbEntity
  8
0
 62
     0
100
AcDbLine
 10
72.66877701684643
 20
17.48418863926423
 30
0.0
 11
73.80802351551699
 21
18.62343513793485
 31
0.0
1001
ACAD
1000
RTMaterial
1005
0
  0
LINE
  5
382E0
330
38213
100
AcDbEntity
  8
0
 62
     0
100
AcDbLine
 10
76.24221215478115
 20
21.95564938930585
 30
0.0
 11
79.04221215478123
 21
24.75564938930592
 31
0.0
1001
ACAD
1000
RTMaterial
1005
0
  0
LINE
  5
382E1
330
38213
100
AcDbEntity
  8
0
 62
     0
100
AcDbLine
 10
71.43820885032363
 20
17.15164608484832
 30
0.0
 11
74.14056606993296
 21
19.85400330445759
 31
0.0
1001
ACAD
1000
RTMaterial
1005
0
  0
LINE
  5
382E2
330
38213
100
AcDbEntity
  8
0
 62
     0
100
AcDbLine
 10
76.24221215478115
 20
22.8536750014128
 30
0.0
 11
79.04221215478123
 21
25.65367500141281
 31
0.0
1001
ACAD
1000
RTMaterial
1005
0
  0
LINE
  5
382E3
330
38213
100
AcDbEntity
  8
0
 62
     0
100
AcDbLine
 10
70.53853715336821
 20
17.14999999999986
 30
0.0
 11
74.14221215478125
 21
20.75367500141283
 31
0.0
1001
ACAD
1000
RTMaterial
1005
0
  0
LINE
  5
382E4
330
38213
100
AcDbEntity
  8
0
 62
     0
100
AcDbLine
 10
76.24221215478115
 20
23.75170061351969
 30
0.0
 11
79.04221215478115
 21
26.55170061351976
 31
0.0
1001
ACAD
1000
RTMaterial
1005
0
  0
LINE
  5
382E5
330
38213
100
AcDbEntity
  8
0
 62
     0
100
AcDbLine
 10
69.64051154126133
 20
17.14999999999986
 30
0.0
 11
74.14221215478119
 21
21.65170061351978
 31
0.0
1001
ACAD
1000
RTMaterial
1005
0
  0
LINE
  5
382E6
330
38213
100
AcDbEntity
  8
0
 62
     0
100
AcDbLine
 10
76.24221215478115
 20
24.64972622562658
 30
0.0
 11
79.04221215478123
 21
27.44972622562665
 31
0.0
1001
ACAD
1000
RTMaterial
1005
0
  0
LINE
  5
382E7
330
38213
100
AcDbEntity
  8
0
 62
     0
100
AcDbLine
 10
68.74248592915449
 20
17.14999999999992
 30
0.0
 11
74.14221215478125
 21
22.54972622562668
 31
0.0
1001
ACAD
1000
RTMaterial
1005
0
  0
LINE
  5
382E8
330
38213
100
AcDbEntity
  8
0
 62
     0
100
AcDbLine
 10
71.23762095270013
 20
20.5431606356525
 30
0.0
 11
74.14221215478125
 21
23.44775183773356
 31
0.0
1001
ACAD
1000
RTMaterial
1005
0
  0
LINE
  5
382E9
330
38213
100
AcDbEntity
  8
0
 62
     0
100
AcDbLine
 10
76.24221215478115
 20
25.54775183773347
 30
0.0
 11
79.04221215478123
 21
28.34775183773354
 31
0.0
1001
ACAD
1000
RTMaterial
1005
0
  0
LINE
  5
382EA
330
38213
100
AcDbEntity
  8
0
 62
     0
100
AcDbLine
 10
67.84446031704749
 20
17.14999999999986
 30
0.0
 11
70.74905151912862
 21
20.05459120208093
 31
0.0
1001
ACAD
1000
RTMaterial
1005
0
  0
LINE
  5
382EB
330
38213
100
AcDbEntity
  8
0
 62
     0
100
AcDbLine
 10
71.34221215478112
 20
21.54577744984044
 30
0.0
 11
74.14221215478119
 21
24.34577744984051
 31
0.0
1001
ACAD
1000
RTMaterial
1005
0
  0
LINE
  5
382EC
330
38213
100
AcDbEntity
  8
0
 62
     0
100
AcDbLine
 10
76.2422121547811
 20
26.44577744984042
 30
0.0
 11
79.04221215478115
 21
29.24577744984049
 31
0.0
1001
ACAD
1000
RTMaterial
1005
0
  0
LINE
  5
382ED
330
38213
100
AcDbEntity
  8
0
 62
     0
100
AcDbLine
 10
67.05838445631781
 20
17.26194975137707
 30
0.0
 11
69.74643470494067
 21
19.94999999999993
 31
0.0
1001
ACAD
1000
RTMaterial
1005
0
  0
LINE
  5
382EE
330
38213
100
AcDbEntity
  8
0
 62
     0
100
AcDbLine
 10
71.34221215478119
 20
22.44380306194745
 30
0.0
 11
74.14221215478119
 21
25.2438030619474
 31
0.0
1001
ACAD
1000
RTMaterial
1005
0
  0
LINE
  5
382EF
330
38213
100
AcDbEntity
  8
0
 62
     0
100
AcDbLine
 10
76.2422121547811
 20
27.34380306194737
 30
0.0
 11
79.04221215478115
 21
30.14380306194738
 31
0.0
1001
ACAD
1000
RTMaterial
1005
0
  0
LINE
  5
382F0
330
38213
100
AcDbEntity
  8
0
 62
     0
100
AcDbLine
 10
66.43039758910766
 20
17.53198849627392
 30
0.0
 11
68.8492868784781
 21
19.95087778564436
 31
0.0
1001
ACAD
1000
RTMaterial
1005
0
  0
LINE
  5
382F1
330
38213
100
AcDbEntity
  8
0
 62
     0
100
AcDbLine
 10
71.34221215478124
 20
23.34182867405434
 30
0.0
 11
74.14221215478119
 21
26.1418286740543
 31
0.0
1001
ACAD
1000
RTMaterial
1005
0
  0
LINE
  5
382F2
330
38213
100
AcDbEntity
  8
0
 62
     0
100
AcDbLine
 10
76.24221215478115
 20
28.24182867405421
 30
0.0
 11
79.04221215478115
 21
31.04182867405427
 31
0.0
1001
ACAD
1000
RTMaterial
1005
0
  0
LINE
  5
382F3
330
38213
100
AcDbEntity
  8
0
 62
     0
100
AcDbLine
 10
65.91713770774248
 20
17.91675422701558
 30
0.0
 11
68.2058082897654
 21
20.2054248090385
 31
0.0
1001
ACAD
1000
RTMaterial
1005
0
  0
LINE
  5
382F4
330
38213
100
AcDbEntity
  8
0
 62
     0
100
AcDbLine
 10
71.34221215478124
 20
24.23985428616123
 30
0.0
 11
74.14221215478119
 21
27.03985428616125
 31
0.0
1001
ACAD
1000
RTMaterial
1005
0
  0
LINE
  5
382F5
330
38213
100
AcDbEntity
  8
0
 62
     0
100
AcDbLine
 10
76.2422121547811
 20
29.13985428616115
 30
0.0
 11
79.04221215478115
 21
31.93985428616122
 31
0.0
1001
ACAD
1000
RTMaterial
1005
0
  0
LINE
  5
382F6
330
38213
100
AcDbEntity
  8
0
 62
     0
100
AcDbLine
 10
65.50717353251747
 20
18.40481566389746
 30
0.0
 11
67.86857001135597
 21
20.76621214273604
 31
0.0
1001
ACAD
1000
RTMaterial
1005
0
  0
LINE
  5
382F7
330
38213
100
AcDbEntity
  8
0
 62
     0
100
AcDbLine
 10
71.34221215478119
 20
25.13787989826818
 30
0.0
 11
74.14221215478125
 21
27.93787989826825
 31
0.0
1001
ACAD
1000
RTMaterial
1005
0
  0
LINE
  5
382F8
330
38213
100
AcDbEntity
  8
0
 62
     0
100
AcDbLine
 10
76.2422121547811
 20
30.03787989826804
 30
0.0
 11
79.03206300123071
 21
32.82773074471772
 31
0.0
1001
ACAD
1000
RTMaterial
1005
0
  0
LINE
  5
382F9
330
38213
100
AcDbEntity
  8
0
 62
     0
100
AcDbLine
 10
65.20724865408346
 20
19.00291639757046
 30
0.0
 11
67.84221215478118
 21
21.63787989826813
 31
0.0
1001
ACAD
1000
RTMaterial
1005
0
  0
LINE
  5
382FA
330
38213
100
AcDbEntity
  8
0
 62
     0
100
AcDbLine
 10
71.34221215478124
 20
26.03590551037502
 30
0.0
 11
74.14221215478129
 21
28.83590551037509
 31
0.0
1001
ACAD
1000
RTMaterial
1005
0
  0
LINE
  5
382FB
330
38213
100
AcDbEntity
  8
0
 62
     0
100
AcDbLine
 10
76.2422121547811
 20
30.93590551037494
 30
0.0
 11
78.55494865615122
 21
33.24864201174506
 31
0.0
1001
ACAD
1000
RTMaterial
1005
0
  0
LINE
  5
382FC
330
38213
100
AcDbEntity
  8
0
 62
     0
100
AcDbLine
 10
65.04983511912701
 20
19.74352847472085
 30
0.0
 11
67.84221215478118
 21
22.53590551037502
 31
0.0
1001
ACAD
1000
RTMaterial
1005
0
  0
LINE
  5
382FD
330
38213
100
AcDbEntity
  8
0
 62
     0
100
AcDbLine
 10
71.34221215478119
 20
26.93393112248197
 30
0.0
 11
74.14221215478125
 21
29.73393112248203
 31
0.0
1001
ACAD
1000
RTMaterial
1005
0
  0
LINE
  5
382FE
330
38213
100
AcDbEntity
  8
0
 62
     0
100
AcDbLine
 10
76.24221215478115
 20
31.83393112248194
 30
0.0
 11
77.65828103229916
 21
33.24999999999994
 31
0.0
1001
ACAD
1000
RTMaterial
1005
0
  0
LINE
  5
382FF
330
38213
100
AcDbEntity
  8
0
 62
     0
100
AcDbLine
 10
65.04221215478121
 20
20.63393112248196
 30
0.0
 11
67.84221215478122
 21
23.43393112248202
 31
0.0
1001
ACAD
1000
RTMaterial
1005
0
  0
LINE
  5
38300
330
38213
100
AcDbEntity
  8
0
 62
     0
100
AcDbLine
 10
71.34221215478119
 20
27.83195673458891
 30
0.0
 11
74.14221215478125
 21
30.63195673458892
 31
0.0
1001
ACAD
1000
RTMaterial
1005
0
  0
LINE
  5
38301
330
38213
100
AcDbEntity
  8
0
 62
     0
100
AcDbLine
 10
65.04221215478117
 20
21.5319567345889
 30
0.0
 11
67.84221215478122
 21
24.33195673458897
 31
0.0
1001
ACAD
1000
RTMaterial
1005
0
  0
LINE
  5
38302
330
38213
100
AcDbEntity
  8
0
 62
     0
100
AcDbLine
 10
76.24225886952858
 20
32.73200344933633
 30
0.0
 11
76.76020870544488
 21
33.24995328525256
 31
0.0
1001
ACAD
1000
RTMaterial
1005
0
  0
LINE
  5
38303
330
38213
100
AcDbEntity
  8
0
 62
     0
100
AcDbLine
 10
60.72065652406918
 20
17.21040110387685
 30
0.0
 11
62.88181105090433
 21
19.37155563071206
 31
0.0
1001
ACAD
1000
RTMaterial
1005
0
  0
LINE
  5
38304
330
38213
100
AcDbEntity
  8
0
 62
     0
100
AcDbLine
 10
65.04221215478117
 20
22.42998234669579
 30
0.0
 11
67.84221215478122
 21
25.22998234669586
 31
0.0
1001
ACAD
1000
RTMaterial
1005
0
  0
LINE
  5
38305
330
38213
100
AcDbEntity
  8
0
 62
     0
100
AcDbLine
 10
71.34221215478119
 20
28.7299823466958
 30
0.0
 11
74.14221215478119
 21
31.52998234669587
 31
0.0
1001
ACAD
1000
RTMaterial
1005
0
  0
LINE
  5
38306
330
38213
100
AcDbEntity
  8
0
 62
     0
100
AcDbLine
 10
59.76222980808529
 20
17.14999999999998
 30
0.0
 11
62.9422121547811
 21
20.32998234669571
 31
0.0
1001
ACAD
1000
RTMaterial
1005
0
  0
LINE
  5
38307
330
38213
100
AcDbEntity
  8
0
 62
     0
100
AcDbLine
 10
65.04221215478117
 20
23.32800795880269
 30
0.0
 11
67.84221215478122
 21
26.12800795880275
 31
0.0
1001
ACAD
1000
RTMaterial
1005
0
  0
LINE
  5
38308
330
38213
100
AcDbEntity
  8
0
 62
     0
100
AcDbLine
 10
71.34221215478119
 20
29.6280079588027
 30
0.0
 11
74.14221215478125
 21
32.42800795880278
 31
0.0
1001
ACAD
1000
RTMaterial
1005
0
  0
LINE
  5
38309
330
38213
100
AcDbEntity
  8
0
 62
     0
100
AcDbLine
 10
58.8642041959784
 20
17.14999999999992
 30
0.0
 11
62.9422121547812
 21
21.22800795880266
 31
0.0
1001
ACAD
1000
RTMaterial
1005
0
  0
LINE
  5
3830A
330
38213
100
AcDbEntity
  8
0
 62
     0
100
AcDbLine
 10
65.04221215478117
 20
24.22603357090963
 30
0.0
 11
67.84221215478122
 21
27.02603357090965
 31
0.0
1001
ACAD
1000
RTMaterial
1005
0
  0
LINE
  5
3830B
330
38213
100
AcDbEntity
  8
0
 62
     0
100
AcDbLine
 10
71.34221215478119
 20
30.52603357090959
 30
0.0
 11
73.94847469994708
 21
33.13229611607557
 31
0.0
1001
ACAD
1000
RTMaterial
1005
0
  0
LINE
  5
3830C
330
38213
100
AcDbEntity
  8
0
 62
     0
100
AcDbLine
 10
57.96617858387151
 20
17.14999999999998
 30
0.0
 11
62.92789355436821
 21
22.11171497049668
 31
0.0
1001
ACAD
1000
RTMaterial
1005
0
  0
LINE
  5
3830D
330
38213
100
AcDbEntity
  8
0
 62
     0
100
AcDbLine
 10
65.04221215478117
 20
25.12405918301653
 30
0.0
 11
67.84221215478118
 21
27.9240591830166
 31
0.0
1001
ACAD
1000
RTMaterial
1005
0
  0
LINE
  5
3830E
330
38213
100
AcDbEntity
  8
0
 62
     0
100
AcDbLine
 10
71.34221215478112
 20
31.42405918301654
 30
0.0
 11
73.16815297176457
 21
33.25
 31
0.0
1001
ACAD
1000
RTMaterial
1005
0
  0
LINE
  5
3830F
330
38213
100
AcDbEntity
  8
0
 62
     0
100
AcDbLine
 10
57.06815297176456
 20
17.14999999999998
 30
0.0
 11
62.79298118373947
 21
22.87482821197483
 31
0.0
1001
ACAD
1000
RTMaterial
1005
0
  0
LINE
  5
38310
330
38213
100
AcDbEntity
  8
0
 62
     0
100
AcDbLine
 10
65.04221215478117
 20
26.02208479512342
 30
0.0
 11
67.84221215478122
 21
28.82208479512349
 31
0.0
1001
ACAD
1000
RTMaterial
1005
0
  0
LINE
  5
38311
330
38213
100
AcDbEntity
  8
0
 62
     0
100
AcDbLine
 10
60.14221215478119
 20
21.12208479512344
 30
0.0
 11
62.55239372682091
 21
23.53226636716312
 31
0.0
1001
ACAD
1000
RTMaterial
1005
0
  0
LINE
  5
38312
330
38213
100
AcDbEntity
  8
0
 62
     0
100
AcDbLine
 10
71.34221215478119
 20
32.32208479512343
 30
0.0
 11
72.27012735965775
 21
33.25
 31
0.0
1001
ACAD
1000
RTMaterial
1005
0
  0
LINE
  5
38313
330
38213
100
AcDbEntity
  8
0
 62
     0
100
AcDbLine
 10
56.29838271278879
 20
17.27825535313104
 30
0.0
 11
58.97012735965768
 21
19.94999999999993
 31
0.0
1001
ACAD
1000
RTMaterial
1005
0
  0
LINE
  5
38314
330
38213
100
AcDbEntity
  8
0
 62
     0
100
AcDbLine
 10
60.12234157965389
 20
22.00023983210304
 30
0.0
 11
62.22889442196038
 21
24.10679267440952
 31
0.0
1001
ACAD
1000
RTMaterial
1005
0
  0
LINE
  5
38315
330
38213
100
AcDbEntity
  8
0
 62
     0
100
AcDbLine
 10
65.04221215478117
 20
26.92011040723031
 30
0.0
 11
67.84221215478118
 21
29.72011040723037
 31
0.0
1001
ACAD
1000
RTMaterial
1005
0
  0
LINE
  5
38316
330
38213
100
AcDbEntity
  8
0
 62
     0
100
AcDbLine
 10
56.1172121547812
 20
17.99511040723035
 30
0.0
 11
58.07210174755073
 21
19.94999999999993
 31
0.0
1001
ACAD
1000
RTMaterial
1005
0
  0
LINE
  5
38317
330
38213
100
AcDbEntity
  8
0
 62
     0
100
AcDbLine
 10
59.847956742515
 20
22.62388060707116
 30
0.0
 11
61.83302330403257
 21
24.60894716858871
 31
0.0
1001
ACAD
1000
RTMaterial
1005
0
  0
LINE
  5
38318
330
38213
100
AcDbEntity
  8
0
 62
     0
100
AcDbLine
 10
65.04221215478111
 20
27.81813601933726
 30
0.0
 11
67.84221215478118
 21
30.61813601933733
 31
0.0
1001
ACAD
1000
RTMaterial
1005
0
  0
LINE
  5
38319
330
38213
100
AcDbEntity
  8
0
 62
     0
100
AcDbLine
 10
56.1172121547811
 20
18.89313601933719
 30
0.0
 11
57.17407613544384
 21
19.94999999999999
 31
0.0
1001
ACAD
1000
RTMaterial
1005
0
  0
LINE
  5
3831A
330
38213
100
AcDbEntity
  8
0
 62
     0
100
AcDbLine
 10
65.04221215478117
 20
28.71616163144415
 30
0.0
 11
67.84221215478122
 21
31.51616163144416
 31
0.0
1001
ACAD
1000
RTMaterial
1005
0
  0
LINE
  5
3831B
330
38213
100
AcDbEntity
  8
0
 62
     0
100
AcDbLine
 10
59.40668184539794
 20
23.08063132206087
 30
0.0
 11
61.3865808327203
 21
25.06053030938331
 31
0.0
1001
ACAD
1000
RTMaterial
1005
0
  0
LINE
  5
3831C
330
38213
100
AcDbEntity
  8
0
 62
     0
100
AcDbLine
 10
58.95766903934447
 20
23.52964412811434
 30
0.0
 11
60.93756802666678
 21
25.50954311543666
 31
0.0
1001
ACAD
1000
RTMaterial
1005
0
  0
LINE
  5
3831D
330
38213
100
AcDbEntity
  8
0
 62
     0
100
AcDbLine
 10
65.04221215478111
 20
29.61418724355104
 30
0.0
 11
67.84221215478118
 21
32.41418724355111
 31
0.0
1001
ACAD
1000
RTMaterial
1005
0
  0
LINE
  5
3831E
330
38213
100
AcDbEntity
  8
0
 62
     0
100
AcDbLine
 10
52.57802491122999
 20
17.14999999999992
 30
0.0
 11
53.49221215478116
 21
18.06418724355103
 31
0.0
1001
ACAD
1000
RTMaterial
1005
0
  0
LINE
  5
3831F
330
38213
100
AcDbEntity
  8
0
 62
     0
100
AcDbLine
 10
58.508656233291
 20
23.97865693416782
 30
0.0
 11
60.4885552206133
 21
25.95855592149013
 31
0.0
1001
ACAD
1000
RTMaterial
1005
0
  0
LINE
  5
38320
330
38213
100
AcDbEntity
  8
0
 62
     0
100
AcDbLine
 10
65.04221215478111
 20
30.51221285565799
 30
0.0
 11
67.65603124668252
 21
33.12603194755934
 31
0.0
1001
ACAD
1000
RTMaterial
1005
0
  0
LINE
  5
38321
330
38213
100
AcDbEntity
  8
0
 62
     0
100
AcDbLine
 10
51.67999929912304
 20
17.14999999999992
 30
0.0
 11
53.4922121547812
 21
18.96221285565804
 31
0.0
1001
ACAD
1000
RTMaterial
1005
0
  0
LINE
  5
38322
330
38213
100
AcDbEntity
  8
0
 62
     0
100
AcDbLine
 10
58.05964342723751
 20
24.42766974022129
 30
0.0
 11
60.03954241455983
 21
26.40756872754361
 31
0.0
1001
ACAD
1000
RTMaterial
1005
0
  0
LINE
  5
38323
330
38213
100
AcDbEntity
  8
0
 62
     0
100
AcDbLine
 10
65.04221215478111
 20
31.41023846776489
 30
0.0
 11
66.88197368701617
 21
33.25
 31
0.0
1001
ACAD
1000
RTMaterial
1005
0
  0
LINE
  5
38324
330
38213
100
AcDbEntity
  8
0
 62
     0
100
AcDbLine
 10
50.89358482487813
 20
17.2616111378619
 30
0.0
 11
53.49221215478116
 21
19.86023846776499
 31
0.0
1001
ACAD
1000
RTMaterial
1005
0
  0
LINE
  5
38325
330
38213
100
AcDbEntity
  8
0
 62
     0
100
AcDbLine
 10
57.6106306211841
 20
24.87668254627471
 30
0.0
 11
59.5905296085064
 21
26.85658153359702
 31
0.0
1001
ACAD
1000
RTMaterial
1005
0
  0
LINE
  5
38326
330
38213
100
AcDbEntity
  8
0
 62
     0
100
AcDbLine
 10
65.04221215478111
 20
32.30826407987179
 30
0.0
 11
65.98394807490939
 21
33.25
 31
0.0
1001
ACAD
1000
RTMaterial
1005
0
  0
LINE
  5
38327
330
38213
100
AcDbEntity
  8
0
 62
     0
100
AcDbLine
 10
50.69221215478119
 20
17.95826407987187
 30
0.0
 11
53.4922121547812
 21
20.75826407987182
 31
0.0
1001
ACAD
1000
RTMaterial
1005
0
  0
LINE
  5
38328
330
38213
100
AcDbEntity
  8
0
 62
     0
100
AcDbLine
 10
57.16161781513061
 20
25.32569535232819
 30
0.0
 11
59.14151680245293
 21
27.3055943396505
 31
0.0
1001
ACAD
1000
RTMaterial
1005
0
  0
LINE
  5
38329
330
38213
100
AcDbEntity
  8
0
 62
     0
100
AcDbLine
 10
50.69221215478119
 20
18.85628969197881
 30
0.0
 11
53.49221215478116
 21
21.65628969197877
 31
0.0
1001
ACAD
1000
RTMaterial
1005
0
  0
LINE
  5
3832A
330
38213
100
AcDbEntity
  8
0
 62
     0
100
AcDbLine
 10
56.71463391408929
 20
25.77673706339385
 30
0.0
 11
58.69860744747132
 21
27.76071059677582
 31
0.0
1001
ACAD
1000
RTMaterial
1005
0
  0
LINE
  5
3832B
330
38213
100
AcDbEntity
  8
0
 62
     0
100
AcDbLine
 10
50.69221215478119
 20
19.7543153040857
 30
0.0
 11
53.49221215478116
 21
22.55431530408571
 31
0.0
1001
ACAD
1000
RTMaterial
1005
0
  0
LINE
  5
3832C
330
38213
100
AcDbEntity
  8
0
 62
     0
100
AcDbLine
 10
61.38789685069547
 20
30.44999999999999
 30
0.0
 11
62.41721215478122
 21
31.47931530408573
 31
0.0
1001
ACAD
1000
RTMaterial
1005
0
  0
LINE
  5
3832D
330
38213
100
AcDbEntity
  8
0
 62
     0
100
AcDbLine
 10
48.19955593007097
 20
17.26165907937548
 30
0.0
 11
48.289208291526
 21
17.35131144083055
 31
0.0
1001
ACAD
1000
RTMaterial
1005
0
  0
LINE
  5
3832E
330
38213
100
AcDbEntity
  8
0
 62
     0
100
AcDbLine
 10
56.31663173526732
 20
26.27676049667872
 30
0.0
 11
58.41626601268592
 21
28.37639477409732
 31
0.0
1001
ACAD
1000
RTMaterial
1005
0
  0
LINE
  5
3832F
330
38213
100
AcDbEntity
  8
0
 62
     0
100
AcDbLine
 10
50.69221215478119
 20
20.6523409161926
 30
0.0
 11
53.4922121547812
 21
23.45234091619255
 31
0.0
1001
ACAD
1000
RTMaterial
1005
0
  0
LINE
  5
38330
330
38213
100
AcDbEntity
  8
0
 62
     0
100
AcDbLine
 10
60.48987123858859
 20
30.44999999999999
 30
0.0
 11
62.41721215478122
 21
32.37734091619262
 31
0.0
1001
ACAD
1000
RTMaterial
1005
0
  0
LINE
  5
38331
330
38213
100
AcDbEntity
  8
0
 62
     0
100
AcDbLine
 10
47.18987123858852
 20
17.14999999999992
 30
0.0
 11
48.25565033489505
 21
18.21577909630645
 31
0.0
1001
ACAD
1000
RTMaterial
1005
0
  0
LINE
  5
38332
330
38213
100
AcDbEntity
  8
0
 62
     0
100
AcDbLine
 10
55.99079747087063
 20
26.84895184438898
 30
0.0
 11
58.39221215478125
 21
29.25036652829954
 31
0.0
1001
ACAD
1000
RTMaterial
1005
0
  0
LINE
  5
38333
330
38213
100
AcDbEntity
  8
0
 62
     0
100
AcDbLine
 10
50.69221215478119
 20
21.55036652829949
 30
0.0
 11
53.49221215478116
 21
24.3503665282995
 31
0.0
1001
ACAD
1000
RTMaterial
1005
0
  0
LINE
  5
38334
330
38213
100
AcDbEntity
  8
0
 62
     0
100
AcDbLine
 10
59.59184562648171
 20
30.44999999999999
 30
0.0
 11
62.25054322298331
 21
33.10869759650167
 31
0.0
1001
ACAD
1000
RTMaterial
1005
0
  0
LINE
  5
38335
330
38213
100
AcDbEntity
  8
0
 62
     0
100
AcDbLine
 10
46.29184562648163
 20
17.14999999999992
 30
0.0
 11
48.04012418798937
 21
18.89827856150771
 31
0.0
1001
ACAD
1000
RTMaterial
1005
0
  0
LINE
  5
38336
330
38213
100
AcDbEntity
  8
0
 62
     0
100
AcDbLine
 10
50.69221215478115
 20
22.44839214040644
 30
0.0
 11
53.49221215478116
 21
25.24839214040639
 31
0.0
1001
ACAD
1000
RTMaterial
1005
0
  0
LINE
  5
38337
330
38213
100
AcDbEntity
  8
0
 62
     0
100
AcDbLine
 10
55.74741540820054
 20
27.50359539382583
 30
0.0
 11
61.4938200143747
 21
33.25
 31
0.0
1001
ACAD
1000
RTMaterial
1005
0
  0
LINE
  5
38338
330
38213
100
AcDbEntity
  8
0
 62
     0
100
AcDbLine
 10
45.69983131582654
 20
17.45601130145184
 30
0.0
 11
47.82459804108366
 21
19.58077802670896
 31
0.0
1001
ACAD
1000
RTMaterial
1005
0
  0
LINE
  5
38339
330
38213
100
AcDbEntity
  8
0
 62
     0
100
AcDbLine
 10
50.69221215478115
 20
23.34641775251339
 30
0.0
 11
53.4922121547811
 21
26.14641775251334
 31
0.0
1001
ACAD
1000
RTMaterial
1005
0
  0
LINE
  5
3833A
330
38213
100
AcDbEntity
  8
0
 62
     0
100
AcDbLine
 10
55.60870854911485
 20
28.2629141468471
 30
0.0
 11
60.5957944022678
 21
33.25
 31
0.0
1001
ACAD
1000
RTMaterial
1005
0
  0
LINE
  5
3833B
330
38213
100
AcDbEntity
  8
0
 62
     0
100
AcDbLine
 10
45.48107189417793
 20
18.13527749191019
 30
0.0
 11
47.60907189417793
 21
20.26327749191017
 31
0.0
1001
ACAD
1000
RTMaterial
1005
0
  0
LINE
  5
3833C
330
38213
100
AcDbEntity
  8
0
 62
     0
100
AcDbLine
 10
50.69221215478119
 20
24.24444336462022
 30
0.0
 11
53.49221215478116
 21
27.04444336462024
 31
0.0
1001
ACAD
1000
RTMaterial
1005
0
  0
LINE
  5
3833D
330
38213
100
AcDbEntity
  8
0
 62
     0
100
AcDbLine
 10
55.59221215478117
 20
29.1444433646202
 30
0.0
 11
59.69776879016092
 21
33.25
 31
0.0
1001
ACAD
1000
RTMaterial
1005
0
  0
LINE
  5
3833E
330
38213
100
AcDbEntity
  8
0
 62
     0
100
AcDbLine
 10
45.26554574727231
 20
18.81777695711139
 30
0.0
 11
47.3935457472724
 21
20.94577695711143
 31
0.0
1001
ACAD
1000
RTMaterial
1005
0
  0
LINE
  5
3833F
330
38213
100
AcDbEntity
  8
0
 62
     0
100
AcDbLine
 10
50.69221215478115
 20
25.14246897672717
 30
0.0
 11
53.49221215478116
 21
27.94246897672713
 31
0.0
1001
ACAD
1000
RTMaterial
1005
0
  0
LINE
  5
38340
330
38213
100
AcDbEntity
  8
0
 62
     0
100
AcDbLine
 10
55.59221215478125
 20
30.04246897672721
 30
0.0
 11
58.79974317805403
 21
33.25
 31
0.0
1001
ACAD
1000
RTMaterial
1005
0
  0
LINE
  5
38341
330
38213
100
AcDbEntity
  8
0
 62
     0
100
AcDbLine
 10
45.05001960036657
 20
19.50027642231258
 30
0.0
 11
47.17801960036672
 21
21.62827642231269
 31
0.0
1001
ACAD
1000
RTMaterial
1005
0
  0
LINE
  5
38342
330
38213
100
AcDbEntity
  8
0
 62
     0
100
AcDbLine
 10
50.69221215478115
 20
26.04049458883407
 30
0.0
 11
53.4922121547812
 21
28.84049458883414
 31
0.0
1001
ACAD
1000
RTMaterial
1005
0
  0
LINE
  5
38343
330
38213
100
AcDbEntity
  8
0
 62
     0
100
AcDbLine
 10
44.83449345346094
 20
20.18277588751391
 30
0.0
 11
46.96249345346102
 21
22.31077588751396
 31
0.0
1001
ACAD
1000
RTMaterial
1005
0
  0
LINE
  5
38344
330
38213
100
AcDbEntity
  8
0
 62
     0
100
AcDbLine
 10
55.64552882490239
 20
30.99381125895536
 30
0.0
 11
57.84840089582569
 21
33.19668332987868
 31
0.0
1001
ACAD
1000
RTMaterial
1005
0
  0
LINE
  5
38345
330
38213
100
AcDbEntity
  8
0
 62
     0
100
AcDbLine
 10
41.80171756594694
 20
17.14999999999992
 30
0.0
 11
42.64221215478113
 21
17.99049458883411
 31
0.0
1001
ACAD
1000
RTMaterial
1005
0
  0
LINE
  5
38346
330
38213
100
AcDbEntity
  8
0
 62
     0
100
AcDbLine
 10
44.61896730655535
 20
20.86527535271512
 30
0.0
 11
46.74696730655528
 21
22.9932753527151
 31
0.0
1001
ACAD
1000
RTMaterial
1005
0
  0
LINE
  5
38347
330
38213
100
AcDbEntity
  8
0
 62
     0
100
AcDbLine
 10
50.69221215478115
 20
26.93852020094096
 30
0.0
 11
53.4922121547812
 21
29.73852020094103
 31
0.0
1001
ACAD
1000
RTMaterial
1005
0
  0
LINE
  5
38348
330
38213
100
AcDbEntity
  8
0
 62
     0
100
AcDbLine
 10
40.90369195384011
 20
17.14999999999986
 30
0.0
 11
42.64221215478118
 21
18.888520200941
 31
0.0
1001
ACAD
1000
RTMaterial
1005
0
  0
LINE
  5
38349
330
38213
100
AcDbEntity
  8
0
 62
     0
100
AcDbLine
 10
44.40344115964967
 20
21.54777481791638
 30
0.0
 11
46.53144115964972
 21
23.67577481791648
 31
0.0
1001
ACAD
1000
RTMaterial
1005
0
  0
LINE
  5
3834A
330
38213
100
AcDbEntity
  8
0
 62
     0
100
AcDbLine
 10
50.69221215478115
 20
27.83654581304791
 30
0.0
 11
53.4922121547812
 21
30.63654581304792
 31
0.0
1001
ACAD
1000
RTMaterial
1005
0
  0
LINE
  5
3834B
330
38213
100
AcDbEntity
  8
0
 62
     0
100
AcDbLine
 10
40.08681608938444
 20
17.23114974765121
 30
0.0
 11
42.64221215478118
 21
19.78654581304789
 31
0.0
1001
ACAD
1000
RTMaterial
1005
0
  0
LINE
  5
3834C
330
38213
100
AcDbEntity
  8
0
 62
     0
100
AcDbLine
 10
44.18791501274397
 20
22.23027428311764
 30
0.0
 11
46.31591501274407
 21
24.3582742831178
 31
0.0
1001
ACAD
1000
RTMaterial
1005
0
  0
LINE
  5
3834D
330
38213
100
AcDbEntity
  8
0
 62
     0
100
AcDbLine
 10
50.69221215478115
 20
28.7345714251548
 30
0.0
 11
53.49221215478116
 21
31.53457142515487
 31
0.0
1001
ACAD
1000
RTMaterial
1005
0
  0
LINE
  5
3834E
330
38213
100
AcDbEntity
  8
0
 62
     0
100
AcDbLine
 10
39.84221215478118
 20
17.88457142515483
 30
0.0
 11
42.64221215478125
 21
20.6845714251549
 31
0.0
1001
ACAD
1000
RTMaterial
1005
0
  0
LINE
  5
3834F
330
38213
100
AcDbEntity
  8
0
 62
     0
100
AcDbLine
 10
43.97238886583835
 20
22.91277374831884
 30
0.0
 11
46.10038886583839
 21
25.04077374831894
 31
0.0
1001
ACAD
1000
RTMaterial
1005
0
  0
LINE
  5
38350
330
38213
100
AcDbEntity
  8
0
 62
     0
100
AcDbLine
 10
50.69221215478115
 20
29.63259703726169
 30
0.0
 11
53.4922121547812
 21
32.43259703726177
 31
0.0
1001
ACAD
1000
RTMaterial
1005
0
  0
LINE
  5
38351
330
38213
100
AcDbEntity
  8
0
 62
     0
100
AcDbLine
 10
39.84221215478118
 20
18.78259703726172
 30
0.0
 11
42.64221215478125
 21
21.58259703726179
 31
0.0
1001
ACAD
1000
RTMaterial
1005
0
  0
LINE
  5
38352
330
38213
100
AcDbEntity
  8
0
 62
     0
100
AcDbLine
 10
43.7375900788666
 20
23.57600057345411
 30
0.0
 11
46.36788414679751
 21
26.20629464138501
 31
0.0
1001
ACAD
1000
RTMaterial
1005
0
  0
LINE
  5
38353
330
38213
100
AcDbEntity
  8
0
 62
     0
100
AcDbLine
 10
50.69221215478119
 20
30.53062264936869
 30
0.0
 11
53.29593673228277
 21
33.1343472268702
 31
0.0
1001
ACAD
1000
RTMaterial
1005
0
  0
LINE
  5
38354
330
38213
100
AcDbEntity
  8
0
 62
     0
100
AcDbLine
 10
39.84221215478118
 20
19.68062264936867
 30
0.0
 11
42.64221215478125
 21
22.48062264936868
 31
0.0
1001
ACAD
1000
RTMaterial
1005
0
  0
LINE
  5
38355
330
38213
100
AcDbEntity
  8
0
 62
     0
100
AcDbLine
 10
43.05040470899921
 20
23.78684081569367
 30
0.0
 11
46.78235750623144
 21
27.51879361292589
 31
0.0
1001
ACAD
1000
RTMaterial
1005
0
  0
LINE
  5
38356
330
38213
100
AcDbEntity
  8
0
 62
     0
100
AcDbLine
 10
39.84221215478118
 20
20.57864826147556
 30
0.0
 11
42.65537133908747
 21
23.39180744578186
 31
0.0
1001
ACAD
1000
RTMaterial
1005
0
  0
LINE
  5
38357
330
38213
100
AcDbEntity
  8
0
 62
     0
100
AcDbLine
 10
50.69221215478119
 20
31.42864826147559
 30
0.0
 11
52.51356389330556
 21
33.25
 31
0.0
1001
ACAD
1000
RTMaterial
1005
0
  0
LINE
  5
38358
330
38213
100
AcDbEntity
  8
0
 62
     0
100
AcDbLine
 10
36.41356389330554
 20
17.14999999999992
 30
0.0
 11
37.39221215478119
 21
18.12864826147563
 31
0.0
1001
ACAD
1000
RTMaterial
1005
0
  0
LINE
  5
38359
330
38213
100
AcDbEntity
  8
0
 62
     0
100
AcDbLine
 10
39.84221215478113
 20
21.47667387358251
 30
0.0
 11
47.19683086566539
 21
28.83129258446672
 31
0.0
1001
ACAD
1000
RTMaterial
1005
0
  0
LINE
  5
3835A
330
38213
100
AcDbEntity
  8
0
 62
     0
100
AcDbLine
 10
50.69221215478115
 20
32.32667387358254
 30
0.0
 11
51.6155382811986
 21
33.25
 31
0.0
1001
ACAD
1000
RTMaterial
1005
0
  0
LINE
  5
3835B
330
38213
100
AcDbEntity
  8
0
 62
     0
100
AcDbLine
 10
35.51553828119859
 20
17.14999999999998
 30
0.0
 11
37.39221215478119
 21
19.02667387358258
 31
0.0
1001
ACAD
1000
RTMaterial
1005
0
  0
LINE
  5
3835C
330
38213
100
AcDbEntity
  8
0
 62
     0
100
AcDbLine
 10
39.84221215478118
 20
22.37469948568936
 30
0.0
 11
47.61130422509944
 21
30.14379155600761
 31
0.0
1001
ACAD
1000
RTMaterial
1005
0
  0
LINE
  5
3835D
330
38213
100
AcDbEntity
  8
0
 62
     0
100
AcDbLine
 10
34.6291932934418
 20
17.16168062435002
 30
0.0
 11
37.25087787117502
 21
19.78336520208319
 31
0.0
1001
ACAD
1000
RTMaterial
1005
0
  0
LINE
  5
3835E
330
38213
100
AcDbEntity
  8
0
 62
     0
100
AcDbLine
 10
39.84221215478113
 20
23.2727250977963
 30
0.0
 11
43.16948705698478
 21
26.59999999999997
 31
0.0
1001
ACAD
1000
RTMaterial
1005
0
  0
LINE
  5
3835F
330
38213
100
AcDbEntity
  8
0
 62
     0
100
AcDbLine
 10
43.9334698922255
 20
27.36398283524068
 30
0.0
 11
48.02577758453344
 21
31.45629052754856
 31
0.0
1001
ACAD
1000
RTMaterial
1005
0
  0
LINE
  5
38360
330
38213
100
AcDbEntity
  8
0
 62
     0
100
AcDbLine
 10
33.86103277599483
 20
17.29154571900994
 30
0.0
 11
36.51948705698476
 21
19.94999999999993
 31
0.0
1001
ACAD
1000
RTMaterial
1005
0
  0
LINE
  5
38361
330
38213
100
AcDbEntity
  8
0
 62
     0
100
AcDbLine
 10
39.84221215478113
 20
24.17075070990325
 30
0.0
 11
42.66020272548945
 21
26.98874128061152
 31
0.0
1001
ACAD
1000
RTMaterial
1005
0
  0
LINE
  5
38362
330
38213
100
AcDbEntity
  8
0
 62
     0
100
AcDbLine
 10
44.34794325165944
 20
28.67648180678151
 30
0.0
 11
48.40084903633481
 21
32.72938759145694
 31
0.0
1001
ACAD
1000
RTMaterial
1005
0
  0
LINE
  5
38363
330
38213
100
AcDbEntity
  8
0
 62
     0
100
AcDbLine
 10
33.19989851916842
 20
17.52843707429053
 30
0.0
 11
35.62146144487787
 21
19.94999999999993
 31
0.0
1001
ACAD
1000
RTMaterial
1005
0
  0
LINE
  5
38364
330
38213
100
AcDbEntity
  8
0
 62
     0
100
AcDbLine
 10
39.84221215478118
 20
25.06877632201008
 30
0.0
 11
42.64221215478118
 21
27.86877632201015
 31
0.0
1001
ACAD
1000
RTMaterial
1005
0
  0
LINE
  5
38365
330
38213
100
AcDbEntity
  8
0
 62
     0
100
AcDbLine
 10
44.76241661109354
 20
29.98898077832251
 30
0.0
 11
48.00683716376562
 21
33.23340133099458
 31
0.0
1001
ACAD
1000
RTMaterial
1005
0
  0
LINE
  5
38366
330
38213
100
AcDbEntity
  8
0
 62
     0
100
AcDbLine
 10
32.62229523500412
 20
17.84885940223302
 30
0.0
 11
34.73835709349697
 21
19.96492126072593
 31
0.0
1001
ACAD
1000
RTMaterial
1005
0
  0
LINE
  5
38367
330
38213
100
AcDbEntity
  8
0
 62
     0
100
AcDbLine
 10
39.84221215478113
 20
25.96680193411704
 30
0.0
 11
42.64221215478118
 21
28.7668019341171
 31
0.0
1001
ACAD
1000
RTMaterial
1005
0
  0
LINE
  5
38368
330
38213
100
AcDbEntity
  8
0
 62
     0
100
AcDbLine
 10
45.1768899705275
 20
31.30147974986336
 30
0.0
 11
47.12541022066403
 21
33.24999999999994
 31
0.0
1001
ACAD
1000
RTMaterial
1005
0
  0
LINE
  5
38369
330
38213
100
AcDbEntity
  8
0
 62
     0
100
AcDbLine
 10
32.11734026862206
 20
18.24193004795791
 30
0.0
 11
34.10404095247867
 21
20.22863073181452
 31
0.0
1001
ACAD
1000
RTMaterial
1005
0
  0
LINE
  5
3836A
330
38213
100
AcDbEntity
  8
0
 62
     0
100
AcDbLine
 10
39.84221215478113
 20
26.86482754622392
 30
0.0
 11
42.64221215478118
 21
29.66482754622399
 31
0.0
1001
ACAD
1000
RTMaterial
1005
0
  0
LINE
  5
3836B
330
38213
100
AcDbEntity
  8
0
 62
     0
100
AcDbLine
 10
36.50384628655763
 20
23.52646167800049
 30
0.0
 11
37.66575047678073
 21
24.68836586822357
 31
0.0
1001
ACAD
1000
RTMaterial
1005
0
  0
LINE
  5
3836C
330
38213
100
AcDbEntity
  8
0
 62
     0
100
AcDbLine
 10
45.59136332996138
 20
32.61397872140424
 30
0.0
 11
46.2273846085572
 21
33.25000000000006
 31
0.0
1001
ACAD
1000
RTMaterial
1005
0
  0
LINE
  5
3836D
330
38213
100
AcDbEntity
  8
0
 62
     0
100
AcDbLine
 10
31.68090319529222
 20
18.70351858673507
 30
0.0
 11
33.69379000120648
 21
20.71640539264933
 31
0.0
1001
ACAD
1000
RTMaterial
1005
0
  0
LINE
  5
3836E
330
38213
100
AcDbEntity
  8
0
 62
     0
100
AcDbLine
 10
35.57887344492781
 20
23.49951444847761
 30
0.0
 11
37.69269770630359
 21
25.61333870985334
 31
0.0
1001
ACAD
1000
RTMaterial
1005
0
  0
LINE
  5
3836F
330
38213
100
AcDbEntity
  8
0
 62
     0
100
AcDbLine
 10
39.84221215478108
 20
27.76285315833087
 30
0.0
 11
42.64221215478113
 21
30.56285315833094
 31
0.0
1001
ACAD
1000
RTMaterial
1005
0
  0
LINE
  5
38370
330
38213
100
AcDbEntity
  8
0
 62
     0
100
AcDbLine
 10
31.31388397034925
 20
19.234524973899
 30
0.0
 11
33.54221215478117
 21
21.46285315833097
 31
0.0
1001
ACAD
1000
RTMaterial
1005
0
  0
LINE
  5
38371
330
38213
100
AcDbEntity
  8
0
 62
     0
100
AcDbLine
 10
34.96472687550761
 20
23.78339349116419
 30
0.0
 11
37.40881866361696
 21
26.2274852792736
 31
0.0
1001
ACAD
1000
RTMaterial
1005
0
  0
LINE
  5
38372
330
38213
100
AcDbEntity
  8
0
 62
     0
100
AcDbLine
 10
39.84221215478113
 20
28.66087877043776
 30
0.0
 11
42.64221215478118
 21
31.46087877043778
 31
0.0
1001
ACAD
1000
RTMaterial
1005
0
  0
LINE
  5
38373
330
38213
100
AcDbEntity
  8
0
 62
     0
100
AcDbLine
 10
31.02256646042452
 20
19.84123307608115
 30
0.0
 11
33.54221215478117
 21
22.36087877043781
 31
0.0
1001
ACAD
1000
RTMaterial
1005
0
  0
LINE
  5
38374
330
38213
100
AcDbEntity
  8
0
 62
     0
100
AcDbLine
 10
34.52676694851789
 20
24.24345917628148
 30
0.0
 11
36.94875297849973
 21
26.66544520626326
 31
0.0
1001
ACAD
1000
RTMaterial
1005
0
  0
LINE
  5
38375
330
38213
100
AcDbEntity
  8
0
 62
     0
100
AcDbLine
 10
39.84221215478113
 20
29.55890438254466
 30
0.0
 11
42.64221215478113
 21
32.35890438254472
 31
0.0
1001
ACAD
1000
RTMaterial
1005
0
  0
LINE
  5
38376
330
38213
100
AcDbEntity
  8
0
 62
     0
100
AcDbLine
 10
30.82142909624986
 20
20.53812132401345
 30
0.0
 11
33.54221215478117
 21
23.25890438254476
 31
0.0
1001
ACAD
1000
RTMaterial
1005
0
  0
LINE
  5
38377
330
38213
100
AcDbEntity
  8
0
 62
     0
100
AcDbLine
 10
34.27071621610952
 20
24.88543405598
 30
0.0
 11
36.30677809880115
 21
26.92149593867168
 31
0.0
1001
ACAD
1000
RTMaterial
1005
0
  0
LINE
  5
38378
330
38213
100
AcDbEntity
  8
0
 62
     0
100
AcDbLine
 10
30.74221215478111
 20
21.35692999465164
 30
0.0
 11
33.54221215478117
 21
24.15692999465165
 31
0.0
1001
ACAD
1000
RTMaterial
1005
0
  0
LINE
  5
38379
330
38213
100
AcDbEntity
  8
0
 62
     0
100
AcDbLine
 10
39.84221215478108
 20
30.4569299946516
 30
0.0
 11
42.48496204642606
 21
33.0996798862966
 31
0.0
1001
ACAD
1000
RTMaterial
1005
0
  0
LINE
  5
3837A
330
38213
100
AcDbEntity
  8
0
 62
     0
100
AcDbLine
 10
26.65621539690552
 20
17.27093323677603
 30
0.0
 11
28.52127891800524
 21
19.13599675787577
 31
0.0
1001
ACAD
1000
RTMaterial
1005
0
  0
LINE
  5
3837B
330
38213
100
AcDbEntity
  8
0
 62
     0
100
AcDbLine
 10
34.38912929959031
 20
25.90187275156768
 30
0.0
 11
35.29033940321352
 21
26.80308285519089
 31
0.0
1001
ACAD
1000
RTMaterial
1005
0
  0
LINE
  5
3837C
330
38213
100
AcDbEntity
  8
0
 62
     0
100
AcDbLine
 10
30.74221215478111
 20
22.25495560675847
 30
0.0
 11
33.54221215478117
 21
25.05495560675854
 31
0.0
1001
ACAD
1000
RTMaterial
1005
0
  0
LINE
  5
3837D
330
38213
100
AcDbEntity
  8
0
 62
     0
100
AcDbLine
 10
39.84221215478113
 20
31.35495560675844
 30
0.0
 11
41.73725654802267
 21
33.25000000000006
 31
0.0
1001
ACAD
1000
RTMaterial
1005
0
  0
LINE
  5
3837E
330
38213
100
AcDbEntity
  8
0
 62
     0
100
AcDbLine
 10
25.63725654802255
 20
17.14999999999992
 30
0.0
 11
28.64221215478119
 21
20.15495560675856
 31
0.0
1001
ACAD
1000
RTMaterial
1005
0
  0
LINE
  5
3837F
330
38213
100
AcDbEntity
  8
0
 62
     0
100
AcDbLine
 10
30.74221215478111
 20
23.15298121886542
 30
0.0
 11
33.54221215478117
 21
25.95298121886549
 31
0.0
1001
ACAD
1000
RTMaterial
1005
0
  0
LINE
  5
38380
330
38213
100
AcDbEntity
  8
0
 62
     0
100
AcDbLine
 10
39.84221215478108
 20
32.25298121886539
 30
0.0
 11
40.83923093591567
 21
33.25
 31
0.0
1001
ACAD
1000
RTMaterial
1005
0
  0
LINE
  5
38381
330
38213
100
AcDbEntity
  8
0
 62
     0
100
AcDbLine
 10
24.73923093591566
 20
17.14999999999992
 30
0.0
 11
28.64221215478119
 21
21.05298121886551
 31
0.0
1001
ACAD
1000
RTMaterial
1005
0
  0
LINE
  5
38382
330
38213
100
AcDbEntity
  8
0
 62
     0
100
AcDbLine
 10
30.74221215478111
 20
24.05100683097231
 30
0.0
 11
33.54221215478111
 21
26.85100683097238
 31
0.0
1001
ACAD
1000
RTMaterial
1005
0
  0
LINE
  5
38383
330
38213
100
AcDbEntity
  8
0
 62
     0
100
AcDbLine
 10
23.84120532380871
 20
17.14999999999998
 30
0.0
 11
28.63827280222
 21
21.94706747841127
 31
0.0
1001
ACAD
1000
RTMaterial
1005
0
  0
LINE
  5
38384
330
38213
100
AcDbEntity
  8
0
 62
     0
100
AcDbLine
 10
30.74221215478111
 20
24.94903244307926
 30
0.0
 11
33.54221215478117
 21
27.74903244307933
 31
0.0
1001
ACAD
1000
RTMaterial
1005
0
  0
LINE
  5
38385
330
38213
100
AcDbEntity
  8
0
 62
     0
100
AcDbLine
 10
36.24317971170189
 20
30.45000000000005
 30
0.0
 11
37.39221215478125
 21
31.59903244307936
 31
0.0
1001
ACAD
1000
RTMaterial
1005
0
  0
LINE
  5
38386
330
38213
100
AcDbEntity
  8
0
 62
     0
100
AcDbLine
 10
22.94317971170176
 20
17.14999999999992
 30
0.0
 11
28.52861096589868
 21
22.73543125419684
 31
0.0
1001
ACAD
1000
RTMaterial
1005
0
  0
LINE
  5
38387
330
38213
100
AcDbEntity
  8
0
 62
     0
100
AcDbLine
 10
30.74221215478111
 20
25.84705805518615
 30
0.0
 11
33.54221215478117
 21
28.64705805518616
 31
0.0
1001
ACAD
1000
RTMaterial
1005
0
  0
LINE
  5
38388
330
38213
100
AcDbEntity
  8
0
 62
     0
100
AcDbLine
 10
25.84221215478118
 20
20.94705805518623
 30
0.0
 11
28.30627222185455
 21
23.41111812225961
 31
0.0
1001
ACAD
1000
RTMaterial
1005
0
  0
LINE
  5
38389
330
38213
100
AcDbEntity
  8
0
 62
     0
100
AcDbLine
 10
35.34515409959489
 20
30.44999999999993
 30
0.0
 11
37.39221215478119
 21
32.49705805518625
 31
0.0
1001
ACAD
1000
RTMaterial
1005
0
  0
LINE
  5
3838A
330
38213
100
AcDbEntity
  8
0
 62
     0
100
AcDbLine
 10
22.10287997485483
 20
17.20772587525988
 30
0.0
 11
24.84515409959488
 21
19.94999999999993
 31
0.0
1001
ACAD
1000
RTMaterial
1005
0
  0
LINE
  5
3838B
330
38213
100
AcDbEntity
  8
0
 62
     0
100
AcDbLine
 10
30.74221215478104
 20
26.74508366729305
 30
0.0
 11
33.70802686056084
 21
29.71089837307284
 31
0.0
1001
ACAD
1000
RTMaterial
1005
0
  0
LINE
  5
3838C
330
38213
100
AcDbEntity
  8
0
 62
     0
100
AcDbLine
 10
25.84005306317192
 20
21.84292457568387
 30
0.0
 11
27.99784068718253
 21
24.00071219969453
 31
0.0
1001
ACAD
1000
RTMaterial
1005
0
  0
LINE
  5
3838D
330
38213
100
AcDbEntity
  8
0
 62
     0
100
AcDbLine
 10
34.28131378170838
 20
30.28418529422038
 30
0.0
 11
37.15874473986139
 21
33.16161625237334
 31
0.0
1001
ACAD
1000
RTMaterial
1005
0
  0
LINE
  5
3838E
330
38213
100
AcDbEntity
  8
0
 62
     0
100
AcDbLine
 10
21.81721215478109
 20
17.82008366729309
 30
0.0
 11
23.94712848748804
 21
19.95000000000004
 31
0.0
1001
ACAD
1000
RTMaterial
1005
0
  0
LINE
  5
3838F
330
38213
100
AcDbEntity
  8
0
 62
     0
100
AcDbLine
 10
25.62045004367121
 20
22.52134716829016
 30
0.0
 11
27.61559872234363
 21
24.51649584696259
 31
0.0
1001
ACAD
1000
RTMaterial
1005
0
  0
LINE
  5
38390
330
38213
100
AcDbEntity
  8
0
 62
     0
100
AcDbLine
 10
30.74221215478104
 20
27.64310927939999
 30
0.0
 11
36.34910287538111
 21
33.25000000000006
 31
0.0
1001
ACAD
1000
RTMaterial
1005
0
  0
LINE
  5
38391
330
38213
100
AcDbEntity
  8
0
 62
     0
100
AcDbLine
 10
21.81721215478109
 20
18.71810927940004
 30
0.0
 11
23.04910287538104
 21
19.94999999999999
 31
0.0
1001
ACAD
1000
RTMaterial
1005
0
  0
LINE
  5
38392
330
38213
100
AcDbEntity
  8
0
 62
     0
100
AcDbLine
 10
25.19419521536651
 20
22.99311795209229
 30
0.0
 11
27.17409420268888
 21
24.97301693941466
 31
0.0
1001
ACAD
1000
RTMaterial
1005
0
  0
LINE
  5
38393
330
38213
100
AcDbEntity
  8
0
 62
     0
100
AcDbLine
 10
30.74221215478111
 20
28.54113489150683
 30
0.0
 11
35.45107726327416
 21
33.24999999999994
 31
0.0
1001
ACAD
1000
RTMaterial
1005
0
  0
LINE
  5
38394
330
38213
100
AcDbEntity
  8
0
 62
     0
100
AcDbLine
 10
21.88616407680092
 20
19.68508681352671
 30
0.0
 11
22.08212534125454
 21
19.88104807798032
 31
0.0
1001
ACAD
1000
RTMaterial
1005
0
  0
LINE
  5
38395
330
38213
100
AcDbEntity
  8
0
 62
     0
100
AcDbLine
 10
30.76218726893768
 20
29.45913561777036
 30
0.0
 11
34.53307653701069
 21
33.23002488584342
 31
0.0
1001
ACAD
1000
RTMaterial
1005
0
  0
LINE
  5
38396
330
38213
100
AcDbEntity
  8
0
 62
     0
100
AcDbLine
 10
24.74518240931303
 20
23.44213075814577
 30
0.0
 11
26.7250813966354
 21
25.42202974546814
 31
0.0
1001
ACAD
1000
RTMaterial
1005
0
  0
LINE
  5
38397
330
38213
100
AcDbEntity
  8
0
 62
     0
100
AcDbLine
 10
31.06165070120346
 20
30.65662466214315
 30
0.0
 11
33.33558749263796
 21
32.93056145357765
 31
0.0
1001
ACAD
1000
RTMaterial
1005
0
  0
LINE
  5
38398
330
38213
100
AcDbEntity
  8
0
 62
     0
100
AcDbLine
 10
24.29616960325956
 20
23.89114356419923
 30
0.0
 11
26.27606859058194
 21
25.87104255152161
 31
0.0
1001
ACAD
1000
RTMaterial
1005
0
  0
LINE
  5
38399
330
38213
100
AcDbEntity
  8
0
 62
     0
100
AcDbLine
 10
23.84715679720614
 20
24.34015637025266
 30
0.0
 11
25.82705578452845
 21
26.32005535757492
 31
0.0
1001
ACAD
1000
RTMaterial
1005
0
  0
LINE
  5
3839A
330
38213
100
AcDbEntity
  8
0
 62
     0
100
AcDbLine
 10
23.39814399115267
 20
24.78916917630613
 30
0.0
 11
25.37804297847498
 21
26.76906816362839
 31
0.0
1001
ACAD
1000
RTMaterial
1005
0
  0
LINE
  5
3839B
330
38213
100
AcDbEntity
  8
0
 62
     0
100
AcDbLine
 10
22.94913118509919
 20
25.23818198235961
 30
0.0
 11
24.92903017242151
 21
27.21808096968187
 31
0.0
1001
ACAD
1000
RTMaterial
1005
0
  0
LINE
  5
3839C
330
38213
100
AcDbEntity
  8
0
 62
     0
100
AcDbLine
 10
27.26292359063268
 20
30.45000000000005
 30
0.0
 11
28.11721215478105
 21
31.30428856414841
 31
0.0
1001
ACAD
1000
RTMaterial
1005
0
  0
LINE
  5
3839D
330
38213
100
AcDbEntity
  8
0
 62
     0
100
AcDbLine
 10
22.50020169307385
 20
25.68727810244122
 30
0.0
 11
24.4802673365063
 21
27.66734374587367
 31
0.0
1001
ACAD
1000
RTMaterial
1005
0
  0
LINE
  5
3839E
330
38213
100
AcDbEntity
  8
0
 62
     0
100
AcDbLine
 10
26.36489797852573
 20
30.44999999999993
 30
0.0
 11
28.11721215478116
 21
32.20231417625536
 31
0.0
1001
ACAD
1000
RTMaterial
1005
0
  0
LINE
  5
3839F
330
38213
100
AcDbEntity
  8
0
 62
     0
100
AcDbLine
 10
22.08873376852228
 20
26.17383578999643
 30
0.0
 11
24.15037045521837
 21
28.23547247669257
 31
0.0
1001
ACAD
1000
RTMaterial
1005
0
  0
LINE
  5
383A0
330
38213
100
AcDbEntity
  8
0
 62
     0
100
AcDbLine
 10
25.46687236641878
 20
30.44999999999993
 30
0.0
 11
28.03065325502002
 21
33.01378088860116
 31
0.0
1001
ACAD
1000
RTMaterial
1005
0
  0
LINE
  5
383A1
330
38213
100
AcDbEntity
  8
0
 62
     0
100
AcDbLine
 10
21.74827316225981
 20
26.7314007958409
 30
0.0
 11
24.09221215478112
 21
29.07533978836227
 31
0.0
1001
ACAD
1000
RTMaterial
1005
0
  0
LINE
  5
383A2
330
38213
100
AcDbEntity
  8
0
 62
     0
100
AcDbLine
 10
24.56638010514178
 20
30.44753335082982
 30
0.0
 11
27.36884675431197
 21
33.25
 31
0.0
1001
ACAD
1000
RTMaterial
1005
0
  0
LINE
  5
383A3
330
38213
100
AcDbEntity
  8
0
 62
     0
100
AcDbLine
 10
21.48757986652771
 20
27.36873311221575
 30
0.0
 11
24.0946788039513
 21
29.9758320496394
 31
0.0
1001
ACAD
1000
RTMaterial
1005
0
  0
LINE
  5
383A4
330
38213
100
AcDbEntity
  8
0
 62
     0
100
AcDbLine
 10
21.32576790427965
 20
28.10494676207458
 30
0.0
 11
26.47082114220507
 21
33.25
 31
0.0
1001
ACAD
1000
RTMaterial
1005
0
  0
LINE
  5
383A5
330
38213
100
AcDbEntity
  8
0
 62
     0
100
AcDbLine
 10
21.29221215478117
 20
28.96941662468299
 30
0.0
 11
25.57279553009812
 21
33.25
 31
0.0
1001
ACAD
1000
RTMaterial
1005
0
  0
LINE
  5
383A6
330
38213
100
AcDbEntity
  8
0
 62
     0
100
AcDbLine
 10
21.29221215478111
 20
29.86744223678994
 30
0.0
 11
24.67476991799123
 21
33.25
 31
0.0
1001
ACAD
1000
RTMaterial
1005
0
  0
LINE
  5
383A7
330
38213
100
AcDbEntity
  8
0
 62
     0
100
AcDbLine
 10
21.31240416521945
 20
30.78565985933517
 30
0.0
 11
23.75655229544606
 21
33.22980798956179
 31
0.0
1001
ACAD
1000
RTMaterial
1005
0
  0
ENDBLK
  5
383A8
330
38213
100
AcDbEntity
  8
0
100
AcDbBlockEnd
1001
ACAD
1000
RTMaterial
1005
0
  0
BLOCK
  5
395C9
330
395BD
100
AcDbEntity
  8
0
370
    30
100
AcDbBlockBegin
  2
*D6
 70
     1
 10
0.0
 20
0.0
 30
0.0
  3
*D6
  1

  0
LINE
  5
3B040
330
395BD
100
AcDbEntity
  8
SUNPOU
  6
Continuous
 62
     4
370
    -2
100
AcDbLine
 10
27172.55347764431
 20
-4129.395568652204
 30
0.0
 11
27152.93584218129
 21
-4129.395568652204
 31
0.0
  0
LINE
  5
3B041
330
395BD
100
AcDbEntity
  8
SUNPOU
  6
Continuous
 62
     4
370
    -2
100
AcDbLine
 10
27174.15102574835
 20
-4152.392393413957
 30
0.0
 11
27152.93584218129
 21
-4152.392393413957
 31
0.0
  0
LINE
  5
3B042
330
395BD
100
AcDbEntity
  8
SUNPOU
  6
Continuous
 62
     4
370
    -2
100
AcDbLine
 10
27158.93584218129
 20
-4115.395568652203
 30
0.0
 11
27158.93584218129
 21
-4101.395568652203
 31
0.0
  0
LINE
  5
3B043
330
395BD
100
AcDbEntity
  8
SUNPOU
  6
Continuous
 62
     4
370
    -2
100
AcDbLine
 10
27158.93584218129
 20
-4166.392393413956
 30
0.0
 11
27158.93584218129
 21
-4208.392393413957
 31
0.0
  0
LINE
  5
3B044
330
395BD
100
AcDbEntity
  8
SUNPOU
  6
Continuous
 62
     4
370
    -2
100
AcDbLine
 10
27158.93584218129
 20
-4129.395568652204
 30
0.0
 11
27158.93584218129
 21
-4152.392393413957
 31
0.0
  0
INSERT
  5
3B045
330
395BD
100
AcDbEntity
  8
SUNPOU
  6
Continuous
 62
     4
370
    -2
100
AcDbBlockReference
  2
_OPEN
 10
27158.93584218129
 20
-4129.395568652204
 30
0.0
 41
14.0
 42
14.0
 43
14.0
 50
270.0
  0
INSERT
  5
3B046
330
395BD
100
AcDbEntity
  8
SUNPOU
  6
Continuous
 62
     4
370
    -2
100
AcDbBlockReference
  2
_OPEN
 10
27158.93584218129
 20
-4152.392393413957
 30
0.0
 41
14.0
 42
14.0
 43
14.0
 50
90.0
  0
MTEXT
  5
3B047
330
395BD
100
AcDbEntity
  8
SUNPOU
  6
Continuous
 62
     4
100
AcDbMText
 10
27148.93584218129
 20
-4194.392393413951
 30
0.0
 40
12.0
 41
0.0
 71
     5
 72
     1
  1
\A1;23
 11
0.0000000000000001
 21
1.0
 31
0.0
 73
     1
 44
1.0
1001
ACAD
1000
MTEXTBEGIN
1070
    73
1070
     1
1070
    44
1040
1.0
1070
    74
1070
     0
1000
MTEXTEND
  0
POINT
  5
3B048
330
395BD
100
AcDbEntity
  8
Defpoints
  6
Continuous
 62
     0
370
    30
100
AcDbPoint
 10
27184.55347764431
 20
-4129.395568652204
 30
0.0
  0
POINT
  5
3B049
330
395BD
100
AcDbEntity
  8
Defpoints
  6
Continuous
 62
     0
370
    30
100
AcDbPoint
 10
27186.15102574835
 20
-4152.392393413957
 30
0.0
  0
POINT
  5
3B04A
330
395BD
100
AcDbEntity
  8
Defpoints
  6
Continuous
 62
     0
370
    30
100
AcDbPoint
 10
27158.93584218129
 20
-4152.392393413957
 30
0.0
  0
ENDBLK
  5
395CA
330
395BD
100
AcDbEntity
  8
0
370
    30
100
AcDbBlockEnd
  0
BLOCK
  5
395D7
330
395CB
100
AcDbEntity
  8
0
370
    30
100
AcDbBlockBegin
  2
*D7
 70
     1
 10
0.0
 20
0.0
 30
0.0
  3
*D7
  1

  0
LINE
  5
3B1F1
330
395CB
100
AcDbEntity
  8
SUNPOU
  6
Continuous
 62
     4
370
    -2
100
AcDbLine
 10
27595.89767799147
 20
-4179.494390953404
 30
0.0
 11
27618.88901844606
 21
-4179.494390953404
 31
0.0
  0
LINE
  5
3B1F2
330
395CB
100
AcDbEntity
  8
SUNPOU
  6
Continuous
 62
     4
370
    -2
100
AcDbLine
 10
27593.8539969082
 20
-4202.392393413954
 30
0.0
 11
27618.88901844606
 21
-4202.392393413954
 31
0.0
  0
LINE
  5
3B1F3
330
395CB
100
AcDbEntity
  8
SUNPOU
  6
Continuous
 62
     4
370
    -2
100
AcDbLine
 10
27612.88901844606
 20
-4165.494390953404
 30
0.0
 11
27612.88901844606
 21
-4151.494390953405
 31
0.0
  0
LINE
  5
3B1F4
330
395CB
100
AcDbEntity
  8
SUNPOU
  6
Continuous
 62
     4
370
    -2
100
AcDbLine
 10
27612.88901844606
 20
-4216.392393413954
 30
0.0
 11
27612.88901844606
 21
-4258.392393413955
 31
0.0
  0
LINE
  5
3B1F5
330
395CB
100
AcDbEntity
  8
SUNPOU
  6
Continuous
 62
     4
370
    -2
100
AcDbLine
 10
27612.88901844606
 20
-4179.494390953404
 30
0.0
 11
27612.88901844606
 21
-4202.392393413954
 31
0.0
  0
INSERT
  5
3B1F6
330
395CB
100
AcDbEntity
  8
SUNPOU
  6
Continuous
 62
     4
370
    -2
100
AcDbBlockReference
  2
_OPEN
 10
27612.88901844606
 20
-4179.494390953404
 30
0.0
 41
14.0
 42
14.0
 43
14.0
 50
270.0
  0
INSERT
  5
3B1F7
330
395CB
100
AcDbEntity
  8
SUNPOU
  6
Continuous
 62
     4
370
    -2
100
AcDbBlockReference
  2
_OPEN
 10
27612.88901844606
 20
-4202.392393413954
 30
0.0
 41
14.0
 42
14.0
 43
14.0
 50
90.0
  0
MTEXT
  5
3B1F8
330
395CB
100
AcDbEntity
  8
SUNPOU
  6
Continuous
 62
     4
100
AcDbMText
 10
27602.88901844606
 20
-4244.39239341395
 30
0.0
 40
12.0
 41
0.0
 71
     5
 72
     1
  1
\A1;23
 11
0.0000000000000001
 21
1.0
 31
0.0
 73
     1
 44
1.0
1001
ACAD
1000
MTEXTBEGIN
1070
    73
1070
     1
1070
    44
1040
1.0
1070
    74
1070
     0
1000
MTEXTEND
  0
POINT
  5
3B1F9
330
395CB
100
AcDbEntity
  8
Defpoints
  6
Continuous
 62
     0
370
    30
100
AcDbPoint
 10
27583.89767799147
 20
-4179.494390953404
 30
0.0
  0
POINT
  5
3B1FA
330
395CB
100
AcDbEntity
  8
Defpoints
  6
Continuous
 62
     0
370
    30
100
AcDbPoint
 10
27581.8539969082
 20
-4202.392393413954
 30
0.0
  0
POINT
  5
3B1FB
330
395CB
100
AcDbEntity
  8
Defpoints
  6
Continuous
 62
     0
370
    30
100
AcDbPoint
 10
27612.88901844606
 20
-4202.392393413954
 30
0.0
  0
ENDBLK
  5
395D8
330
395CB
100
AcDbEntity
  8
0
370
    30
100
AcDbBlockEnd
  0
BLOCK
  5
395E3
330
395D9
100
AcDbEntity
  8
0
370
    30
100
AcDbBlockBegin
  2
*D8
 70
     1
 10
0.0
 20
0.0
 30
0.0
  3
*D8
  1

  0
LINE
  5
3B025
330
395D9
100
AcDbEntity
  8
SUNPOU
  6
Continuous
 62
     4
370
    -2
100
AcDbLine
 10
27172.15102574835
 20
-3861.194396789525
 30
0.0
 11
27118.13725502207
 21
-3861.194396789525
 31
0.0
  0
LINE
  5
3B026
330
395D9
100
AcDbEntity
  8
SUNPOU
  6
Continuous
 62
     4
370
    -2
100
AcDbLine
 10
27172.15102574835
 20
-4001.194396789524
 30
0.0
 11
27118.13725502207
 21
-4001.194396789524
 31
0.0
  0
LINE
  5
3B027
330
395D9
100
AcDbEntity
  8
SUNPOU
  6
Continuous
 62
     4
370
    -2
100
AcDbLine
 10
27124.13725502206
 20
-3875.194396789525
 30
0.0
 11
27124.13725502206
 21
-3987.194396789525
 31
0.0
  0
INSERT
  5
3B028
330
395D9
100
AcDbEntity
  8
SUNPOU
  6
Continuous
 62
     4
370
    -2
100
AcDbBlockReference
  2
_OPEN
 10
27124.13725502206
 20
-3861.194396789525
 30
0.0
 41
14.0
 42
14.0
 43
14.0
 50
90.0
  0
INSERT
  5
3B029
330
395D9
100
AcDbEntity
  8
SUNPOU
  6
Continuous
 62
     4
370
    -2
100
AcDbBlockReference
  2
_OPEN
 10
27124.13725502206
 20
-4001.194396789524
 30
0.0
 41
14.0
 42
14.0
 43
14.0
 50
270.0
  0
MTEXT
  5
3B02A
330
395D9
100
AcDbEntity
  8
SUNPOU
  6
Continuous
 62
     4
100
AcDbMText
 10
27114.13725502207
 20
-3931.194396789521
 30
0.0
 40
12.0
 41
0.0
 71
     5
 72
     1
  1
\A1;140
 11
0.0000000000000001
 21
1.0
 31
0.0
 73
     1
 44
1.0
1001
ACAD
1000
MTEXTBEGIN
1070
    73
1070
     1
1070
    44
1040
1.0
1070
    74
1070
     0
1000
MTEXTEND
  0
POINT
  5
3B02B
330
395D9
100
AcDbEntity
  8
Defpoints
  6
Continuous
 62
     0
370
    30
100
AcDbPoint
 10
27184.15102574835
 20
-3861.194396789525
 30
0.0
  0
POINT
  5
3B02C
330
395D9
100
AcDbEntity
  8
Defpoints
  6
Continuous
 62
     0
370
    30
100
AcDbPoint
 10
27184.15102574835
 20
-4001.194396789524
 30
0.0
  0
POINT
  5
3B02D
330
395D9
100
AcDbEntity
  8
Defpoints
  6
Continuous
 62
     0
370
    30
100
AcDbPoint
 10
27124.13725502206
 20
-4001.194396789524
 30
0.0
  0
ENDBLK
  5
395E4
330
395D9
100
AcDbEntity
  8
0
370
    30
100
AcDbBlockEnd
  0
BLOCK
  5
395EF
330
395E5
100
AcDbEntity
  8
0
370
    30
100
AcDbBlockBegin
  2
*D9
 70
     1
 10
0.0
 20
0.0
 30
0.0
  3
*D9
  1

  0
LINE
  5
3B02E
330
395E5
100
AcDbEntity
  8
SUNPOU
  6
Continuous
 62
     4
370
    -2
100
AcDbLine
 10
27595.85399690821
 20
-3846.194396789525
 30
0.0
 11
27656.7048014131
 21
-3846.194396789525
 31
0.0
  0
LINE
  5
3B02F
330
395E5
100
AcDbEntity
  8
SUNPOU
  6
Continuous
 62
     4
370
    -2
100
AcDbLine
 10
27595.6039969082
 20
-4016.194396789525
 30
0.0
 11
27656.7048014131
 21
-4016.194396789525
 31
0.0
  0
LINE
  5
3B030
330
395E5
100
AcDbEntity
  8
SUNPOU
  6
Continuous
 62
     4
370
    -2
100
AcDbLine
 10
27650.70480141309
 20
-3860.194396789525
 30
0.0
 11
27650.70480141309
 21
-4002.194396789525
 31
0.0
  0
INSERT
  5
3B031
330
395E5
100
AcDbEntity
  8
SUNPOU
  6
Continuous
 62
     4
370
    -2
100
AcDbBlockReference
  2
_OPEN
 10
27650.70480141309
 20
-3846.194396789525
 30
0.0
 41
14.0
 42
14.0
 43
14.0
 50
90.0
  0
INSERT
  5
3B032
330
395E5
100
AcDbEntity
  8
SUNPOU
  6
Continuous
 62
     4
370
    -2
100
AcDbBlockReference
  2
_OPEN
 10
27650.70480141309
 20
-4016.194396789525
 30
0.0
 41
14.0
 42
14.0
 43
14.0
 50
270.0
  0
MTEXT
  5
3B033
330
395E5
100
AcDbEntity
  8
SUNPOU
  6
Continuous
 62
     4
100
AcDbMText
 10
27640.7048014131
 20
-3931.194396789521
 30
0.0
 40
12.0
 41
0.0
 71
     5
 72
     1
  1
\A1;170
 11
0.0000000000000001
 21
1.0
 31
0.0
 73
     1
 44
1.0
1001
ACAD
1000
MTEXTBEGIN
1070
    73
1070
     1
1070
    44
1040
1.0
1070
    74
1070
     0
1000
MTEXTEND
  0
POINT
  5
3B034
330
395E5
100
AcDbEntity
  8
Defpoints
  6
Continuous
 62
     0
370
    30
100
AcDbPoint
 10
27583.8539969082
 20
-3846.194396789525
 30
0.0
  0
POINT
  5
3B035
330
395E5
100
AcDbEntity
  8
Defpoints
  6
Continuous
 62
     0
370
    30
100
AcDbPoint
 10
27583.60399690821
 20
-4016.194396789525
 30
0.0
  0
POINT
  5
3B036
330
395E5
100
AcDbEntity
  8
Defpoints
  6
Continuous
 62
     0
370
    30
100
AcDbPoint
 10
27650.70480141309
 20
-4016.194396789525
 30
0.0
  0
ENDBLK
  5
395F0
330
395E5
100
AcDbEntity
  8
0
370
    30
100
AcDbBlockEnd
  0
BLOCK
  5
395FB
330
395F1
100
AcDbEntity
  8
0
370
    30
100
AcDbBlockBegin
  2
*D10
 70
     1
 10
0.0
 20
0.0
 30
0.0
  3
*D10
  1

  0
LINE
  5
3B037
330
395F1
100
AcDbEntity
  8
SUNPOU
  6
Continuous
 62
     4
370
    -2
100
AcDbLine
 10
27593.3539969082
 20
-3901.194396789525
 30
0.0
 11
27625.4931646848
 21
-3901.194396789525
 31
0.0
  0
LINE
  5
3B038
330
395F1
100
AcDbEntity
  8
SUNPOU
  6
Continuous
 62
     4
370
    -2
100
AcDbLine
 10
27593.3539969082
 20
-3961.194396789525
 30
0.0
 11
27625.4931646848
 21
-3961.194396789525
 31
0.0
  0
LINE
  5
3B039
330
395F1
100
AcDbEntity
  8
SUNPOU
  6
Continuous
 62
     4
370
    -2
100
AcDbLine
 10
27619.49316468479
 20
-3915.194396789525
 30
0.0
 11
27619.49316468479
 21
-3947.194396789525
 31
0.0
  0
INSERT
  5
3B03A
330
395F1
100
AcDbEntity
  8
SUNPOU
  6
Continuous
 62
     4
370
    -2
100
AcDbBlockReference
  2
_OPEN
 10
27619.49316468479
 20
-3901.194396789525
 30
0.0
 41
14.0
 42
14.0
 43
14.0
 50
90.0
  0
INSERT
  5
3B03B
330
395F1
100
AcDbEntity
  8
SUNPOU
  6
Continuous
 62
     4
370
    -2
100
AcDbBlockReference
  2
_OPEN
 10
27619.49316468479
 20
-3961.194396789525
 30
0.0
 41
14.0
 42
14.0
 43
14.0
 50
270.0
  0
MTEXT
  5
3B03C
330
395F1
100
AcDbEntity
  8
SUNPOU
  6
Continuous
 62
     4
100
AcDbMText
 10
27609.49316468479
 20
-3931.194396789521
 30
0.0
 40
12.0
 41
0.0
 71
     5
 72
     1
  1
\A1;60
 11
0.0000000000000001
 21
1.0
 31
0.0
 73
     1
 44
1.0
1001
ACAD
1000
MTEXTBEGIN
1070
    73
1070
     1
1070
    44
1040
1.0
1070
    74
1070
     0
1000
MTEXTEND
  0
POINT
  5
3B03D
330
395F1
100
AcDbEntity
  8
Defpoints
  6
Continuous
 62
     0
370
    30
100
AcDbPoint
 10
27581.35399690821
 20
-3901.194396789525
 30
0.0
  0
POINT
  5
3B03E
330
395F1
100
AcDbEntity
  8
Defpoints
  6
Continuous
 62
     0
370
    30
100
AcDbPoint
 10
27581.35399690821
 20
-3961.194396789525
 30
0.0
  0
POINT
  5
3B03F
330
395F1
100
AcDbEntity
  8
Defpoints
  6
Continuous
 62
     0
370
    30
100
AcDbPoint
 10
27619.49316468479
 20
-3961.194396789525
 30
0.0
  0
ENDBLK
  5
395FC
330
395F1
100
AcDbEntity
  8
0
370
    30
100
AcDbBlockEnd
  0
BLOCK
  5
39607
330
395FD
100
AcDbEntity
  8
0
370
    30
100
AcDbBlockBegin
  2
*D11
 70
     1
 10
0.0
 20
0.0
 30
0.0
  3
*D11
  1

  0
LINE
  5
3B001
330
395FD
100
AcDbEntity
  8
SUNPOU
  6
Continuous
 62
     4
370
    -2
100
AcDbLine
 10
27183.15102574835
 20
-4118.892393413957
 30
0.0
 11
27183.15102574835
 21
-4077.260252779531
 31
0.0
  0
LINE
  5
3B002
330
395FD
100
AcDbEntity
  8
SUNPOU
  6
Continuous
 62
     4
370
    -2
100
AcDbLine
 10
27584.85399690821
 20
-4168.892393413954
 30
0.0
 11
27584.85399690821
 21
-4077.260252779531
 31
0.0
  0
LINE
  5
3B003
330
395FD
100
AcDbEntity
  8
SUNPOU
  6
Continuous
 62
     4
370
    -2
100
AcDbLine
 10
27197.15102574835
 20
-4083.260252779531
 30
0.0
 11
27570.8539969082
 21
-4083.260252779531
 31
0.0
  0
INSERT
  5
3B004
330
395FD
100
AcDbEntity
  8
SUNPOU
  6
Continuous
 62
     4
370
    -2
100
AcDbBlockReference
  2
_OPEN
 10
27183.15102574835
 20
-4083.260252779531
 30
0.0
 41
14.0
 42
14.0
 43
14.0
 50
180.0
  0
INSERT
  5
3B005
330
395FD
100
AcDbEntity
  8
SUNPOU
  6
Continuous
 62
     4
370
    -2
100
AcDbBlockReference
  2
_OPEN
 10
27584.85399690821
 20
-4083.260252779531
 30
0.0
 41
14.0
 42
14.0
 43
14.0
  0
MTEXT
  5
3B006
330
395FD
100
AcDbEntity
  8
SUNPOU
  6
Continuous
 62
     4
100
AcDbMText
 10
27384.00251132828
 20
-4073.260252779531
 30
0.0
 40
12.0
 41
0.0
 71
     5
 72
     1
  1
\A1;402
 73
     1
 44
1.0
1001
ACAD
1000
MTEXTBEGIN
1070
    73
1070
     1
1070
    44
1040
1.0
1070
    74
1070
     0
1000
MTEXTEND
  0
POINT
  5
3B007
330
395FD
100
AcDbEntity
  8
Defpoints
  6
Continuous
 62
     0
370
    30
100
AcDbPoint
 10
27183.15102574835
 20
-4130.892393413957
 30
0.0
  0
POINT
  5
3B008
330
395FD
100
AcDbEntity
  8
Defpoints
  6
Continuous
 62
     0
370
    30
100
AcDbPoint
 10
27584.85399690821
 20
-4180.892393413954
 30
0.0
  0
POINT
  5
3B009
330
395FD
100
AcDbEntity
  8
Defpoints
  6
Continuous
 62
     0
370
    30
100
AcDbPoint
 10
27584.85399690821
 20
-4083.260252779531
 30
0.0
  0
ENDBLK
  5
39608
330
395FD
100
AcDbEntity
  8
0
370
    30
100
AcDbBlockEnd
  0
BLOCK
  5
39613
330
39609
100
AcDbEntity
  8
0
370
    30
100
AcDbBlockBegin
  2
*D12
 70
     1
 10
0.0
 20
0.0
 30
0.0
  3
*D12
  1

  0
LINE
  5
3B00A
330
39609
100
AcDbEntity
  8
SUNPOU
  6
Continuous
 62
     4
370
    -2
100
AcDbLine
 10
27540.43024464229
 20
-4450.392393413959
 30
0.0
 11
27540.43024464229
 21
-4496.914114563926
 31
0.0
  0
LINE
  5
3B00B
330
39609
100
AcDbEntity
  8
SUNPOU
  6
Continuous
 62
     4
370
    -2
100
AcDbLine
 10
27233.52302407589
 20
-4450.392393413959
 30
0.0
 11
27233.52302407589
 21
-4496.914114563926
 31
0.0
  0
LINE
  5
3B00C
330
39609
100
AcDbEntity
  8
SUNPOU
  6
Continuous
 62
     4
370
    -2
100
AcDbLine
 10
27526.43024464229
 20
-4490.914114563926
 30
0.0
 11
27247.5230240759
 21
-4490.914114563926
 31
0.0
  0
INSERT
  5
3B00D
330
39609
100
AcDbEntity
  8
SUNPOU
  6
Continuous
 62
     4
370
    -2
100
AcDbBlockReference
  2
_OPEN
 10
27540.43024464229
 20
-4490.914114563926
 30
0.0
 41
14.0
 42
14.0
 43
14.0
  0
INSERT
  5
3B00E
330
39609
100
AcDbEntity
  8
SUNPOU
  6
Continuous
 62
     4
370
    -2
100
AcDbBlockReference
  2
_OPEN
 10
27233.52302407589
 20
-4490.914114563926
 30
0.0
 41
14.0
 42
14.0
 43
14.0
 50
180.0
  0
MTEXT
  5
3B00F
330
39609
100
AcDbEntity
  8
SUNPOU
  6
Continuous
 62
     4
100
AcDbMText
 10
27386.97663435909
 20
-4480.914114563925
 30
0.0
 40
12.0
 41
0.0
 71
     5
 72
     1
  1
\A1;307
 73
     1
 44
1.0
1001
ACAD
1000
MTEXTBEGIN
1070
    73
1070
     1
1070
    44
1040
1.0
1070
    74
1070
     0
1000
MTEXTEND
  0
POINT
  5
3B010
330
39609
100
AcDbEntity
  8
Defpoints
  6
Continuous
 62
     0
370
    30
100
AcDbPoint
 10
27540.43024464229
 20
-4438.39239341396
 30
0.0
  0
POINT
  5
3B011
330
39609
100
AcDbEntity
  8
Defpoints
  6
Continuous
 62
     0
370
    30
100
AcDbPoint
 10
27233.52302407589
 20
-4438.39239341396
 30
0.0
  0
POINT
  5
3B012
330
39609
100
AcDbEntity
  8
Defpoints
  6
Continuous
 62
     0
370
    30
100
AcDbPoint
 10
27233.52302407589
 20
-4490.914114563926
 30
0.0
  0
ENDBLK
  5
39614
330
39609
100
AcDbEntity
  8
0
370
    30
100
AcDbBlockEnd
  0
BLOCK
  5
3961F
330
39615
100
AcDbEntity
  8
0
370
    30
100
AcDbBlockBegin
  2
*D13
 70
     1
 10
0.0
 20
0.0
 30
0.0
  3
*D13
  1

  0
LINE
  5
3B013
330
39615
100
AcDbEntity
  8
SUNPOU
  6
Continuous
 62
     4
370
    -2
100
AcDbLine
 10
27595.3539969082
 20
-4179.392393413954
 30
0.0
 11
27647.72648415474
 21
-4179.392393413954
 31
0.0
  0
LINE
  5
3B014
330
39615
100
AcDbEntity
  8
SUNPOU
  6
Continuous
 62
     4
370
    -2
100
AcDbLine
 10
27552.43024464229
 20
-4438.39239341396
 30
0.0
 11
27647.72648415474
 21
-4438.39239341396
 31
0.0
  0
LINE
  5
3B015
330
39615
100
AcDbEntity
  8
SUNPOU
  6
Continuous
 62
     4
370
    -2
100
AcDbLine
 10
27641.72648415474
 20
-4193.392393413954
 30
0.0
 11
27641.72648415474
 21
-4424.39239341396
 31
0.0
  0
INSERT
  5
3B016
330
39615
100
AcDbEntity
  8
SUNPOU
  6
Continuous
 62
     4
370
    -2
100
AcDbBlockReference
  2
_OPEN
 10
27641.72648415474
 20
-4179.392393413954
 30
0.0
 41
14.0
 42
14.0
 43
14.0
 50
90.0
  0
INSERT
  5
3B017
330
39615
100
AcDbEntity
  8
SUNPOU
  6
Continuous
 62
     4
370
    -2
100
AcDbBlockReference
  2
_OPEN
 10
27641.72648415474
 20
-4438.39239341396
 30
0.0
 41
14.0
 42
14.0
 43
14.0
 50
270.0
  0
MTEXT
  5
3B018
330
39615
100
AcDbEntity
  8
SUNPOU
  6
Continuous
 62
     4
100
AcDbMText
 10
27631.72648415474
 20
-4308.392393413955
 30
0.0
 40
12.0
 41
0.0
 71
     5
 72
     1
  1
\A1;259
 11
0.0000000000000001
 21
1.0
 31
0.0
 73
     1
 44
1.0
1001
ACAD
1000
MTEXTBEGIN
1070
    73
1070
     1
1070
    44
1040
1.0
1070
    74
1070
     0
1000
MTEXTEND
  0
POINT
  5
3B019
330
39615
100
AcDbEntity
  8
Defpoints
  6
Continuous
 62
     0
370
    30
100
AcDbPoint
 10
27583.35399690821
 20
-4179.392393413954
 30
0.0
  0
POINT
  5
3B01A
330
39615
100
AcDbEntity
  8
Defpoints
  6
Continuous
 62
     0
370
    30
100
AcDbPoint
 10
27540.43024464229
 20
-4438.39239341396
 30
0.0
  0
POINT
  5
3B01B
330
39615
100
AcDbEntity
  8
Defpoints
  6
Continuous
 62
     0
370
    30
100
AcDbPoint
 10
27641.72648415474
 20
-4438.39239341396
 30
0.0
  0
ENDBLK
  5
39620
330
39615
100
AcDbEntity
  8
0
370
    30
100
AcDbBlockEnd
  0
BLOCK
  5
3962B
330
39621
100
AcDbEntity
  8
0
370
    30
100
AcDbBlockBegin
  2
*D14
 70
     1
 10
0.0
 20
0.0
 30
0.0
  3
*D14
  1

  0
LINE
  5
3B01C
330
39621
100
AcDbEntity
  8
SUNPOU
  6
Continuous
 62
     4
370
    -2
100
AcDbLine
 10
27172.65102574835
 20
-4129.392393413956
 30
0.0
 11
27115.39973081995
 21
-4129.392393413956
 31
0.0
  0
LINE
  5
3B01D
330
39621
100
AcDbEntity
  8
SUNPOU
  6
Continuous
 62
     4
370
    -2
100
AcDbLine
 10
27221.52302407589
 20
-4438.39239341396
 30
0.0
 11
27115.39973081995
 21
-4438.39239341396
 31
0.0
  0
LINE
  5
3B01E
330
39621
100
AcDbEntity
  8
SUNPOU
  6
Continuous
 62
     4
370
    -2
100
AcDbLine
 10
27121.39973081995
 20
-4143.392393413956
 30
0.0
 11
27121.39973081995
 21
-4424.39239341396
 31
0.0
  0
INSERT
  5
3B01F
330
39621
100
AcDbEntity
  8
SUNPOU
  6
Continuous
 62
     4
370
    -2
100
AcDbBlockReference
  2
_OPEN
 10
27121.39973081995
 20
-4129.392393413956
 30
0.0
 41
14.0
 42
14.0
 43
14.0
 50
90.0
  0
INSERT
  5
3B020
330
39621
100
AcDbEntity
  8
SUNPOU
  6
Continuous
 62
     4
370
    -2
100
AcDbBlockReference
  2
_OPEN
 10
27121.39973081995
 20
-4438.39239341396
 30
0.0
 41
14.0
 42
14.0
 43
14.0
 50
270.0
  0
MTEXT
  5
3B021
330
39621
100
AcDbEntity
  8
SUNPOU
  6
Continuous
 62
     4
100
AcDbMText
 10
27111.39973081995
 20
-4282.137076444989
 30
0.0
 40
12.0
 41
0.0
 71
     5
 72
     1
  1
\A1;309
 11
0.0000000000000001
 21
1.0
 31
0.0
 73
     1
 44
1.0
1001
ACAD
1000
MTEXTBEGIN
1070
    73
1070
     1
1070
    44
1040
1.0
1070
    74
1070
     0
1000
MTEXTEND
  0
POINT
  5
3B022
330
39621
100
AcDbEntity
  8
Defpoints
  6
Continuous
 62
     0
370
    30
100
AcDbPoint
 10
27184.65102574835
 20
-4129.392393413956
 30
0.0
  0
POINT
  5
3B023
330
39621
100
AcDbEntity
  8
Defpoints
  6
Continuous
 62
     0
370
    30
100
AcDbPoint
 10
27233.52302407589
 20
-4438.39239341396
 30
0.0
  0
POINT
  5
3B024
330
39621
100
AcDbEntity
  8
Defpoints
  6
Continuous
 62
     0
370
    30
100
AcDbPoint
 10
27121.39973081995
 20
-4438.39239341396
 30
0.0
  0
ENDBLK
  5
3962C
330
39621
100
AcDbEntity
  8
0
370
    30
100
AcDbBlockEnd
  0
ENDSEC
  0
SECTION
  2
ENTITIES
  0
LWPOLYLINE
  5
38461
330
1F
100
AcDbEntity
  8
ZUWAKU
100
AcDbPolyline
 90
        4
 70
     1
 43
0.0
 10
26599.90154530609
 20
-3767.432069631202
 10
26599.90154530609
 20
-4592.432069631202
 10
27793.90154530608
 20
-4592.432069631202
 10
27793.90154530608
 20
-3767.432069631202
1001
ACAD
1000
RTMaterial
1005
0
  0
LWPOLYLINE
  5
38462
330
1F
100
AcDbEntity
  8
ZUWAKU
100
AcDbPolyline
 90
        4
 70
     1
 43
0.0
 10
26599.30154530609
 20
-3766.832069631204
 10
26599.30154530609
 20
-4593.032069631201
 10
27794.50154530608
 20
-4593.032069631201
 10
27794.50154530608
 20
-3766.832069631204
1001
ACAD
1000
RTMaterial
1005
0
  0
LWPOLYLINE
  5
38463
330
1F
100
AcDbEntity
  8
ZUWAKU
100
AcDbPolyline
 90
        4
 70
     1
 43
0.0
 10
26598.70154530608
 20
-3766.232069631206
 10
26598.70154530608
 20
-4593.632069631199
 10
27795.10154530609
 20
-4593.632069631199
 10
27795.10154530609
 20
-3766.232069631206
1001
ACAD
1000
RTMaterial
1005
0
  0
LWPOLYLINE
  5
38464
330
1F
100
AcDbEntity
  8
ZUWAKU
100
AcDbPolyline
 90
        4
 70
     1
 43
0.0
 10
26599.60154530609
 20
-3767.1320696312
 10
26599.60154530609
 20
-4592.732069631205
 10
27794.20154530609
 20
-4592.732069631205
 10
27794.20154530609
 20
-3767.1320696312
1001
ACAD
1000
RTMaterial
1005
0
  0
LWPOLYLINE
  5
38465
330
1F
100
AcDbEntity
  8
ZUWAKU
100
AcDbPolyline
 90
        4
 70
     1
 43
0.0
 10
26599.00154530609
 20
-3766.532069631201
 10
26599.00154530609
 20
-4593.332069631204
 10
27794.80154530608
 20
-4593.332069631204
 10
27794.80154530608
 20
-3766.532069631201
1001
ACAD
1000
RTMaterial
1005
0
  0
LINE
  5
38466
330
1F
100
AcDbEntity
  8
ZUWAKU
100
AcDbLine
 10
26598.70154530608
 20
-4548.632069631199
 30
0.0
 11
27794.80154530608
 21
-4548.632069631199
 31
0.0
1001
ACAD
1000
RTMaterial
1005
0
  0
LINE
  5
38467
330
1F
100
AcDbEntity
  8
ZUWAKU
100
AcDbLine
 10
26598.70154530608
 20
-4548.332069631204
 30
0.0
 11
27794.80154530608
 21
-4548.332069631204
 31
0.0
1001
ACAD
1000
RTMaterial
1005
0
  0
LINE
  5
38468
330
1F
100
AcDbEntity
  8
ZUWAKU
100
AcDbLine
 10
26598.70154530608
 20
-4548.032069631201
 30
0.0
 11
27794.80154530608
 21
-4548.032069631201
 31
0.0
1001
ACAD
1000
RTMaterial
1005
0
  0
LINE
  5
38469
330
1F
100
AcDbEntity
  8
ZUWAKU
100
AcDbLine
 10
26598.70154530608
 20
-4547.732069631205
 30
0.0
 11
27794.80154530608
 21
-4547.732069631205
 31
0.0
1001
ACAD
1000
RTMaterial
1005
0
  0
LINE
  5
3846A
330
1F
100
AcDbEntity
  8
ZUWAKU
100
AcDbLine
 10
26598.70154530608
 20
-4547.432069631202
 30
0.0
 11
27794.80154530608
 21
-4547.432069631202
 31
0.0
1001
ACAD
1000
RTMaterial
1005
0
  0
TEXT
  5
3846B
330
1F
100
AcDbEntity
  8
moji
100
AcDbText
 10
26959.96256641902
 20
-4588.973602824434
 30
0.0
 40
8.399999999999996
  1
Ｖ-ＭAX
 41
0.9
  7
ｽﾀｲﾙ1
100
AcDbText
1001
ACAD
1000
RTMaterial
1005
0
  0
TEXT
  5
3846C
330
1F
100
AcDbEntity
  8
ZUWAKU
100
AcDbText
 10
27658.57629228102
 20
-4574.98916628856
 30
0.0
 40
9.0
  1
積水化学工業株式会社
 41
0.9
  7
ｽﾀｲﾙ1
100
AcDbText
1001
ACAD
1000
RTMaterial
1005
0
  0
LINE
  5
3846D
330
1F
100
AcDbEntity
  8
ZUWAKU
100
AcDbLine
 10
27645.4750611289
 20
-4548.632069631199
 30
0.0
 11
27645.4750611289
 21
-4592.432069631202
 31
0.0
1001
ACAD
1000
RTMaterial
1005
0
  0
LINE
  5
3846E
330
1F
100
AcDbEntity
  8
ZUWAKU
100
AcDbLine
 10
27645.17506112889
 20
-4548.632069631199
 30
0.0
 11
27645.17506112889
 21
-4592.432069631202
 31
0.0
1001
ACAD
1000
RTMaterial
1005
0
  0
LINE
  5
3846F
330
1F
100
AcDbEntity
  8
ZUWAKU
100
AcDbLine
 10
27644.87506112891
 20
-4548.632069631199
 30
0.0
 11
27644.87506112891
 21
-4592.432069631202
 31
0.0
1001
ACAD
1000
RTMaterial
1005
0
  0
LINE
  5
38470
330
1F
100
AcDbEntity
  8
ZUWAKU
100
AcDbLine
 10
27644.57506112889
 20
-4548.632069631199
 30
0.0
 11
27644.57506112889
 21
-4592.432069631202
 31
0.0
1001
ACAD
1000
RTMaterial
1005
0
  0
TEXT
  5
38471
330
1F
100
AcDbEntity
  8
ZUWAKU
100
AcDbText
 10
27574.14351660471
 20
-4557.549034823623
 30
0.0
 40
6.0
  1
DATE
 41
0.9
  7
ｽﾀｲﾙ1
100
AcDbText
1001
ACAD
1000
RTMaterial
1005
0
  0
LINE
  5
38472
330
1F
100
AcDbEntity
  8
ZUWAKU
100
AcDbLine
 10
27427.49197895526
 20
-4548.632069631199
 30
0.0
 11
27427.49197895526
 21
-4592.432069631202
 31
0.0
1001
ACAD
1000
RTMaterial
1005
0
  0
LINE
  5
38473
330
1F
100
AcDbEntity
  8
ZUWAKU
100
AcDbLine
 10
27428.09197895526
 20
-4548.632069631199
 30
0.0
 11
27428.09197895526
 21
-4592.432069631202
 31
0.0
1001
ACAD
1000
RTMaterial
1005
0
  0
LINE
  5
38474
330
1F
100
AcDbEntity
  8
ZUWAKU
100
AcDbLine
 10
27427.79197895526
 20
-4548.632069631199
 30
0.0
 11
27427.79197895526
 21
-4592.432069631202
 31
0.0
1001
ACAD
1000
RTMaterial
1005
0
  0
LINE
  5
38475
330
1F
100
AcDbEntity
  8
ZUWAKU
100
AcDbLine
 10
27571.32734907139
 20
-4548.632069631199
 30
0.0
 11
27571.32734907139
 21
-4592.432069631202
 31
0.0
1001
ACAD
1000
RTMaterial
1005
0
  0
LINE
  5
38476
330
1F
100
AcDbEntity
  8
ZUWAKU
100
AcDbLine
 10
27571.92734907139
 20
-4548.632069631199
 30
0.0
 11
27571.92734907139
 21
-4592.432069631202
 31
0.0
1001
ACAD
1000
RTMaterial
1005
0
  0
LINE
  5
38477
330
1F
100
AcDbEntity
  8
ZUWAKU
100
AcDbLine
 10
27571.6273490714
 20
-4548.632069631199
 30
0.0
 11
27571.6273490714
 21
-4592.432069631202
 31
0.0
1001
ACAD
1000
RTMaterial
1005
0
  0
TEXT
  5
38478
330
1F
100
AcDbEntity
  8
ZUWAKU
100
AcDbText
 10
27358.71648208661
 20
-4557.549034823623
 30
0.0
 40
6.0
  1
用紙
 41
0.9
  7
ｽﾀｲﾙ1
100
AcDbText
1001
ACAD
1000
RTMaterial
1005
0
  0
TEXT
  5
38479
330
1F
100
AcDbEntity
  8
ZUWAKU
100
AcDbText
 10
27272.65425879589
 20
-4557.549034823623
 30
0.0
 40
6.0
  1
品番
 41
0.9
  7
ｽﾀｲﾙ1
100
AcDbText
1001
ACAD
1000
RTMaterial
1005
0
  0
TEXT
  5
3847A
330
1F
100
AcDbEntity
  8
moji
100
AcDbText
 10
27390.76290726456
 20
-4588.824688045093
 30
0.0
 40
8.399999999999996
  1
１/３
 41
0.9
  7
ｽﾀｲﾙ1
100
AcDbText
1001
ACAD
1000
RTMaterial
1005
0
  0
TEXT
  5
3847B
330
1F
100
AcDbEntity
  8
ZUWAKU
100
AcDbText
 10
27358.71648208661
 20
-4579.149034823622
 30
0.0
 40
6.0
  1
縮尺
 41
0.9
  7
ｽﾀｲﾙ1
100
AcDbText
1001
ACAD
1000
RTMaterial
1005
0
  0
TEXT
  5
3847C
330
1F
100
AcDbEntity
  8
ZUWAKU
100
AcDbText
 10
27292.74218778935
 20
-4589.710963264489
 30
0.0
 40
4.5
  1
□には色品番が入ります
 41
0.9
  7
ｽﾀｲﾙ1
100
AcDbText
1001
ACAD
1000
RTMaterial
1005
0
  0
LINE
  5
3847D
330
1F
100
AcDbEntity
  8
ZUWAKU
100
AcDbLine
 10
27355.9003145533
 20
-4548.632069631199
 30
0.0
 11
27355.9003145533
 21
-4592.432069631202
 31
0.0
1001
ACAD
1000
RTMaterial
1005
0
  0
LINE
  5
3847E
330
1F
100
AcDbEntity
  8
ZUWAKU
100
AcDbLine
 10
27356.5003145533
 20
-4548.632069631199
 30
0.0
 11
27356.5003145533
 21
-4592.432069631202
 31
0.0
1001
ACAD
1000
RTMaterial
1005
0
  0
LINE
  5
3847F
330
1F
100
AcDbEntity
  8
ZUWAKU
100
AcDbLine
 10
27356.2003145533
 20
-4548.632069631199
 30
0.0
 11
27356.2003145533
 21
-4592.432069631202
 31
0.0
1001
ACAD
1000
RTMaterial
1005
0
  0
TEXT
  5
38480
330
1F
100
AcDbEntity
  8
moji
100
AcDbText
 10
27390.76290726456
 20
-4566.624688045089
 30
0.0
 40
8.399999999999996
  1
Ａ３
 41
0.9
  7
ｽﾀｲﾙ1
100
AcDbText
1001
ACAD
1000
RTMaterial
1005
0
  0
LINE
  5
38481
330
1F
100
AcDbEntity
  8
ZUWAKU
100
AcDbLine
 10
27269.83809126258
 20
-4548.632069631199
 30
0.0
 11
27269.83809126258
 21
-4592.432069631202
 31
0.0
1001
ACAD
1000
RTMaterial
1005
0
  0
LINE
  5
38482
330
1F
100
AcDbEntity
  8
ZUWAKU
100
AcDbLine
 10
27270.43809126258
 20
-4548.632069631199
 30
0.0
 11
27270.43809126258
 21
-4592.432069631202
 31
0.0
1001
ACAD
1000
RTMaterial
1005
0
  0
LINE
  5
38483
330
1F
100
AcDbEntity
  8
ZUWAKU
100
AcDbLine
 10
27270.13809126257
 20
-4548.632069631199
 30
0.0
 11
27270.13809126257
 21
-4592.432069631202
 31
0.0
1001
ACAD
1000
RTMaterial
1005
0
  0
TEXT
  5
38484
330
1F
100
AcDbEntity
  8
moji
100
AcDbText
 10
27291.71526147466
 20
-4574.27813272479
 30
0.0
 40
8.399999999999996
  1
ＧＸ７０□
 41
0.9
  7
ｽﾀｲﾙ1
100
AcDbText
1001
ACAD
1000
RTMaterial
1005
0
  0
LINE
  5
38485
330
1F
100
AcDbEntity
  8
ZUWAKU
100
AcDbLine
 10
27356.5003145533
 20
-4570.232069631205
 30
0.0
 11
27427.49197895526
 21
-4570.232069631205
 31
0.0
1001
ACAD
1000
RTMaterial
1005
0
  0
LINE
  5
38486
330
1F
100
AcDbEntity
  8
ZUWAKU
100
AcDbLine
 10
27356.5003145533
 20
-4570.532069631201
 30
0.0
 11
27427.49197895526
 21
-4570.532069631201
 31
0.0
1001
ACAD
1000
RTMaterial
1005
0
  0
LINE
  5
38487
330
1F
100
AcDbEntity
  8
ZUWAKU
100
AcDbLine
 10
27356.5003145533
 20
-4570.832069631204
 30
0.0
 11
27427.49197895526
 21
-4570.832069631204
 31
0.0
1001
ACAD
1000
RTMaterial
1005
0
  0
TEXT
  5
38488
330
1F
100
AcDbEntity
  8
ZUWAKU
100
AcDbText
 10
27586.00745183704
 20
-4566.624688045089
 30
0.0
 40
8.399999999999996
  1
　　．　　．　　
 41
0.9
  7
ｽﾀｲﾙ1
100
AcDbText
1001
ACAD
1000
RTMaterial
1005
0
  0
LINE
  5
38489
330
1F
100
AcDbEntity
  8
ZUWAKU
100
AcDbLine
 10
27571.92734907139
 20
-4570.232069631205
 30
0.0
 11
27644.57506112889
 21
-4570.232069631205
 31
0.0
1001
ACAD
1000
RTMaterial
1005
0
  0
LINE
  5
3848A
330
1F
100
AcDbEntity
  8
ZUWAKU
100
AcDbLine
 10
27571.92734907139
 20
-4570.532069631201
 30
0.0
 11
27644.57506112889
 21
-4570.532069631201
 31
0.0
1001
ACAD
1000
RTMaterial
1005
0
  0
LINE
  5
3848B
330
1F
100
AcDbEntity
  8
ZUWAKU
100
AcDbLine
 10
27571.92734907139
 20
-4570.832069631204
 30
0.0
 11
27644.57506112889
 21
-4570.832069631204
 31
0.0
1001
ACAD
1000
RTMaterial
1005
0
  0
TEXT
  5
3848C
330
1F
100
AcDbEntity
  8
ZUWAKU
100
AcDbText
 10
26913.2876147745
 20
-4557.549034823623
 30
0.0
 40
6.0
  1
品名
 41
0.9
  7
ｽﾀｲﾙ1
100
AcDbText
1001
ACAD
1000
RTMaterial
1005
0
  0
TEXT
  5
3848D
330
1F
100
AcDbEntity
  8
ZUWAKU
100
AcDbText
 10
26913.2876147745
 20
-4579.149034823622
 30
0.0
 40
6.0
  1
サイズ
 41
0.9
  7
ｽﾀｲﾙ1
100
AcDbText
1001
ACAD
1000
RTMaterial
1005
0
  0
LINE
  5
3848E
330
1F
100
AcDbEntity
  8
ZUWAKU
100
AcDbLine
 10
26911.37144724119
 20
-4548.632069631199
 30
0.0
 11
26911.37144724119
 21
-4592.432069631202
 31
0.0
1001
ACAD
1000
RTMaterial
1005
0
  0
LINE
  5
3848F
330
1F
100
AcDbEntity
  8
ZUWAKU
100
AcDbLine
 10
26911.67144724119
 20
-4548.632069631199
 30
0.0
 11
26911.67144724119
 21
-4592.432069631202
 31
0.0
1001
ACAD
1000
RTMaterial
1005
0
  0
LINE
  5
38490
330
1F
100
AcDbEntity
  8
ZUWAKU
100
AcDbLine
 10
26911.07144724119
 20
-4548.632069631199
 30
0.0
 11
26911.07144724119
 21
-4592.432069631202
 31
0.0
1001
ACAD
1000
RTMaterial
1005
0
  0
TEXT
  5
38491
330
1F
100
AcDbEntity
  8
moji
100
AcDbText
 10
26958.44234932737
 20
-4566.624688045089
 30
0.0
 40
8.399999999999996
  1
ジョイント
 41
0.9
  7
ｽﾀｲﾙ1
100
AcDbText
1001
ACAD
1000
RTMaterial
1005
0
  0
ARC
  5
38492
330
1F
100
AcDbEntity
  8
ZUWAKU
100
AcDbCircle
 10
26701.47736353825
 20
-4559.544569631206
 30
0.0
 40
0.7874999999999999
100
AcDbArc
 50
0.0
 51
90.0
1001
ACAD
1000
RTMaterial
1005
0
  0
ARC
  5
38493
330
1F
100
AcDbEntity
  8
ZUWAKU
100
AcDbCircle
 10
26691.50236353826
 20
-4559.544569631206
 30
0.0
 40
0.7874999999999999
100
AcDbArc
 50
90.0
 51
180.0
1001
ACAD
1000
RTMaterial
1005
0
  0
LINE
  5
38494
330
1F
100
AcDbEntity
  8
ZUWAKU
100
AcDbLine
 10
26694.12736353826
 20
-4558.7570696312
 30
0.0
 11
26691.50236353826
 21
-4558.7570696312
 31
0.0
1001
ACAD
1000
RTMaterial
1005
0
  0
ARC
  5
38495
330
1F
100
AcDbEntity
  8
ZUWAKU
100
AcDbCircle
 10
26694.12736353826
 20
-4559.544569631206
 30
0.0
 40
0.7874999999999999
100
AcDbArc
 50
0.0
 51
90.0
1001
ACAD
1000
RTMaterial
1005
0
  0
ARC
  5
38496
330
1F
100
AcDbEntity
  8
ZUWAKU
100
AcDbCircle
 10
26698.85236353826
 20
-4559.544569631206
 30
0.0
 40
0.7874999999999999
100
AcDbArc
 50
90.0
 51
180.0
1001
ACAD
1000
RTMaterial
1005
0
  0
LINE
  5
38497
330
1F
100
AcDbEntity
  8
ZUWAKU
100
AcDbLine
 10
26701.47736353825
 20
-4558.7570696312
 30
0.0
 11
26698.85236353826
 21
-4558.7570696312
 31
0.0
1001
ACAD
1000
RTMaterial
1005
0
  0
LINE
  5
38498
330
1F
100
AcDbEntity
  8
ZUWAKU
100
AcDbLine
 10
26677.32736353826
 20
-4559.544569631206
 30
0.0
 11
26677.32736353826
 21
-4562.169569631205
 31
0.0
1001
ACAD
1000
RTMaterial
1005
0
  0
ARC
  5
38499
330
1F
100
AcDbEntity
  8
ZUWAKU
100
AcDbCircle
 10
26676.53986353826
 20
-4562.169569631205
 30
0.0
 40
0.7874999999999999
100
AcDbArc
 50
270.0
 51
0.0
1001
ACAD
1000
RTMaterial
1005
0
  0
ARC
  5
3849A
330
1F
100
AcDbEntity
  8
ZUWAKU
100
AcDbCircle
 10
26676.53986353826
 20
-4559.544569631206
 30
0.0
 40
0.7874999999999999
100
AcDbArc
 50
0.0
 51
90.0
1001
ACAD
1000
RTMaterial
1005
0
  0
LINE
  5
3849B
330
1F
100
AcDbEntity
  8
ZUWAKU
100
AcDbLine
 10
26684.67736353826
 20
-4558.7570696312
 30
0.0
 11
26682.05236353827
 21
-4558.7570696312
 31
0.0
1001
ACAD
1000
RTMaterial
1005
0
  0
ARC
  5
3849C
330
1F
100
AcDbEntity
  8
ZUWAKU
100
AcDbCircle
 10
26682.05236353827
 20
-4559.544569631206
 30
0.0
 40
0.7874999999999999
100
AcDbArc
 50
90.0
 51
180.0
1001
ACAD
1000
RTMaterial
1005
0
  0
ARC
  5
3849D
330
1F
100
AcDbEntity
  8
ZUWAKU
100
AcDbCircle
 10
26684.67736353826
 20
-4559.544569631206
 30
0.0
 40
0.7874999999999999
100
AcDbArc
 50
0.0
 51
90.0
1001
ACAD
1000
RTMaterial
1005
0
  0
ARC
  5
3849E
330
1F
100
AcDbEntity
  8
ZUWAKU
100
AcDbCircle
 10
26671.28986353826
 20
-4562.957069631203
 30
0.0
 40
4.199999999999998
100
AcDbArc
 50
90.0
 51
180.0
1001
ACAD
1000
RTMaterial
1005
0
  0
LINE
  5
3849F
330
1F
100
AcDbEntity
  8
ZUWAKU
100
AcDbLine
 10
26667.08986353826
 20
-4562.957069631203
 30
0.0
 11
26667.08986353826
 21
-4565.679872669239
 31
0.0
1001
ACAD
1000
RTMaterial
1005
0
  0
ARC
  5
384A0
330
1F
100
AcDbEntity
  8
ZUWAKU
100
AcDbCircle
 10
26663.15236353826
 20
-4559.544569631206
 30
0.0
 40
0.7874999999999999
100
AcDbArc
 50
0.0
 51
90.0
1001
ACAD
1000
RTMaterial
1005
0
  0
LINE
  5
384A1
330
1F
100
AcDbEntity
  8
ZUWAKU
100
AcDbLine
 10
26671.28986353826
 20
-4563.744569631203
 30
0.0
 11
26671.28986353826
 21
-4565.679872669239
 31
0.0
1001
ACAD
1000
RTMaterial
1005
0
  0
ARC
  5
384A2
330
1F
100
AcDbEntity
  8
ZUWAKU
100
AcDbCircle
 10
26672.07736353826
 20
-4563.744569631203
 30
0.0
 40
0.7874999999999999
100
AcDbArc
 50
90.0
 51
180.0
1001
ACAD
1000
RTMaterial
1005
0
  0
LINE
  5
384A3
330
1F
100
AcDbEntity
  8
ZUWAKU
100
AcDbLine
 10
26676.53986353826
 20
-4562.957069631203
 30
0.0
 11
26672.07736353826
 21
-4562.957069631203
 31
0.0
1001
ACAD
1000
RTMaterial
1005
0
  0
LINE
  5
384A4
330
1F
100
AcDbEntity
  8
ZUWAKU
100
AcDbLine
 10
26671.28986353826
 20
-4558.7570696312
 30
0.0
 11
26676.53986353826
 21
-4558.7570696312
 31
0.0
1001
ACAD
1000
RTMaterial
1005
0
  0
ARC
  5
384A5
330
1F
100
AcDbEntity
  8
ZUWAKU
100
AcDbCircle
 10
26652.96701229303
 20
-4559.544569631206
 30
0.0
 40
0.7874999999999999
100
AcDbArc
 50
90.0
 51
162.4744316262144
1001
ACAD
1000
RTMaterial
1005
0
  0
LINE
  5
384A6
330
1F
100
AcDbEntity
  8
ZUWAKU
100
AcDbLine
 10
26656.26629271124
 20
-4559.78171058345
 30
0.0
 11
26654.67383326153
 21
-4564.824498840859
 31
0.0
1001
ACAD
1000
RTMaterial
1005
0
  0
ARC
  5
384A7
330
1F
100
AcDbEntity
  8
ZUWAKU
100
AcDbCircle
 10
26655.51534636244
 20
-4559.544569631206
 30
0.0
 40
0.7874999999999999
100
AcDbArc
 50
342.4744316262144
 51
90.0
1001
ACAD
1000
RTMaterial
1005
0
  0
LINE
  5
384A8
330
1F
100
AcDbEntity
  8
ZUWAKU
100
AcDbLine
 10
26652.96701229303
 20
-4558.7570696312
 30
0.0
 11
26655.51534636244
 21
-4558.7570696312
 31
0.0
1001
ACAD
1000
RTMaterial
1005
0
  0
ARC
  5
384A9
330
1F
100
AcDbEntity
  8
ZUWAKU
100
AcDbCircle
 10
26660.52736353826
 20
-4559.544569631206
 30
0.0
 40
0.7874999999999999
100
AcDbArc
 50
90.0
 51
180.0
1001
ACAD
1000
RTMaterial
1005
0
  0
LINE
  5
384AA
330
1F
100
AcDbEntity
  8
ZUWAKU
100
AcDbLine
 10
26639.78986353825
 20
-4559.544569631206
 30
0.0
 11
26639.78986353825
 21
-4562.169569631205
 31
0.0
1001
ACAD
1000
RTMaterial
1005
0
  0
ARC
  5
384AB
330
1F
100
AcDbEntity
  8
ZUWAKU
100
AcDbCircle
 10
26639.00236353826
 20
-4562.169569631205
 30
0.0
 40
0.7874999999999999
100
AcDbArc
 50
270.0
 51
0.0
1001
ACAD
1000
RTMaterial
1005
0
  0
ARC
  5
384AC
330
1F
100
AcDbEntity
  8
ZUWAKU
100
AcDbCircle
 10
26644.25236353826
 20
-4559.544569631206
 30
0.0
 40
0.7874999999999999
100
AcDbArc
 50
90.0
 51
180.0
1001
ACAD
1000
RTMaterial
1005
0
  0
ARC
  5
384AD
330
1F
100
AcDbEntity
  8
ZUWAKU
100
AcDbCircle
 10
26639.00236353826
 20
-4559.544569631206
 30
0.0
 40
0.7874999999999999
100
AcDbArc
 50
0.0
 51
90.0
1001
ACAD
1000
RTMaterial
1005
0
  0
LINE
  5
384AE
330
1F
100
AcDbEntity
  8
ZUWAKU
100
AcDbLine
 10
26646.87736353826
 20
-4558.7570696312
 30
0.0
 11
26644.25236353826
 21
-4558.7570696312
 31
0.0
1001
ACAD
1000
RTMaterial
1005
0
  0
ARC
  5
384AF
330
1F
100
AcDbEntity
  8
ZUWAKU
100
AcDbCircle
 10
26646.87736353826
 20
-4559.544569631206
 30
0.0
 40
0.7874999999999999
100
AcDbArc
 50
0.0
 51
90.0
1001
ACAD
1000
RTMaterial
1005
0
  0
LINE
  5
384B0
330
1F
100
AcDbEntity
  8
ZUWAKU
100
AcDbLine
 10
26663.15236353826
 20
-4558.7570696312
 30
0.0
 11
26660.52736353826
 21
-4558.7570696312
 31
0.0
1001
ACAD
1000
RTMaterial
1005
0
  0
ARC
  5
384B1
330
1F
100
AcDbEntity
  8
ZUWAKU
100
AcDbCircle
 10
26701.47736353825
 20
-4582.119569631202
 30
0.0
 40
0.7874999999999999
100
AcDbArc
 50
270.0
 51
0.0
1001
ACAD
1000
RTMaterial
1005
0
  0
ARC
  5
384B2
330
1F
100
AcDbEntity
  8
ZUWAKU
100
AcDbCircle
 10
26689.13986353826
 20
-4577.1320696312
 30
0.0
 40
1.574999999999999
100
AcDbArc
 50
270.0
 51
0.0
1001
ACAD
1000
RTMaterial
1005
0
  0
ARC
  5
384B3
330
1F
100
AcDbEntity
  8
ZUWAKU
100
AcDbCircle
 10
26698.85236353826
 20
-4582.119569631202
 30
0.0
 40
0.7874999999999999
100
AcDbArc
 50
180.0
 51
270.0
1001
ACAD
1000
RTMaterial
1005
0
  0
LINE
  5
384B4
330
1F
100
AcDbEntity
  8
ZUWAKU
100
AcDbLine
 10
26698.85236353826
 20
-4582.9070696312
 30
0.0
 11
26701.47736353825
 21
-4582.9070696312
 31
0.0
1001
ACAD
1000
RTMaterial
1005
0
  0
ARC
  5
384B5
330
1F
100
AcDbEntity
  8
ZUWAKU
100
AcDbCircle
 10
26690.71486353826
 20
-4578.707069631204
 30
0.0
 40
4.199999999999998
100
AcDbArc
 50
270.0
 51
0.0
1001
ACAD
1000
RTMaterial
1005
0
  0
ARC
  5
384B6
330
1F
100
AcDbEntity
  8
ZUWAKU
100
AcDbCircle
 10
26687.03986353825
 20
-4577.1320696312
 30
0.0
 40
1.574999999999999
100
AcDbArc
 50
180.0
 51
270.0
1001
ACAD
1000
RTMaterial
1005
0
  0
ARC
  5
384B7
330
1F
100
AcDbEntity
  8
ZUWAKU
100
AcDbCircle
 10
26671.81486353826
 20
-4575.984266593168
 30
0.0
 40
6.299999999999998
100
AcDbArc
 50
0.0
 51
44.99999999985261
1001
ACAD
1000
RTMaterial
1005
0
  0
LINE
  5
384B8
330
1F
100
AcDbEntity
  8
ZUWAKU
100
AcDbLine
 10
26678.11486353826
 20
-4578.707069631204
 30
0.0
 11
26678.11486353826
 21
-4575.984266593168
 31
0.0
1001
ACAD
1000
RTMaterial
1005
0
  0
LINE
  5
384B9
330
1F
100
AcDbEntity
  8
ZUWAKU
100
AcDbLine
 10
26668.93509081679
 20
-4570.134645390713
 30
0.0
 11
26673.29978777875
 21
-4574.499342352679
 31
0.0
1001
ACAD
1000
RTMaterial
1005
0
  0
LINE
  5
384BA
330
1F
100
AcDbEntity
  8
ZUWAKU
100
AcDbLine
 10
26668.66486353826
 20
-4582.9070696312
 30
0.0
 11
26673.91486353825
 21
-4582.9070696312
 31
0.0
1001
ACAD
1000
RTMaterial
1005
0
  0
LINE
  5
384BB
330
1F
100
AcDbEntity
  8
ZUWAKU
100
AcDbLine
 10
26668.66486353826
 20
-4578.707069631204
 30
0.0
 11
26673.12736353826
 21
-4578.707069631204
 31
0.0
1001
ACAD
1000
RTMaterial
1005
0
  0
ARC
  5
384BC
330
1F
100
AcDbEntity
  8
ZUWAKU
100
AcDbCircle
 10
26668.66486353826
 20
-4579.494569631203
 30
0.0
 40
0.7874999999999999
100
AcDbArc
 50
90.0
 51
180.0
1001
ACAD
1000
RTMaterial
1005
0
  0
ARC
  5
384BD
330
1F
100
AcDbEntity
  8
ZUWAKU
100
AcDbCircle
 10
26663.15236353826
 20
-4582.119569631202
 30
0.0
 40
0.7874999999999999
100
AcDbArc
 50
270.0
 51
0.0
1001
ACAD
1000
RTMaterial
1005
0
  0
ARC
  5
384BE
330
1F
100
AcDbEntity
  8
ZUWAKU
100
AcDbCircle
 10
26668.66486353826
 20
-4582.119569631202
 30
0.0
 40
0.7874999999999999
100
AcDbArc
 50
180.0
 51
270.0
1001
ACAD
1000
RTMaterial
1005
0
  0
LINE
  5
384BF
330
1F
100
AcDbEntity
  8
ZUWAKU
100
AcDbLine
 10
26667.87736353826
 20
-4582.119569631202
 30
0.0
 11
26667.87736353826
 21
-4579.494569631203
 31
0.0
1001
ACAD
1000
RTMaterial
1005
0
  0
ARC
  5
384C0
330
1F
100
AcDbEntity
  8
ZUWAKU
100
AcDbCircle
 10
26673.12736353826
 20
-4577.919569631204
 30
0.0
 40
0.7874999999999999
100
AcDbArc
 50
270.0
 51
0.0
1001
ACAD
1000
RTMaterial
1005
0
  0
ARC
  5
384C1
330
1F
100
AcDbEntity
  8
ZUWAKU
100
AcDbCircle
 10
26671.81486353826
 20
-4575.984266593168
 30
0.0
 40
2.099999999999999
100
AcDbArc
 50
0.0
 51
44.99999999985261
1001
ACAD
1000
RTMaterial
1005
0
  0
LINE
  5
384C2
330
1F
100
AcDbEntity
  8
ZUWAKU
100
AcDbLine
 10
26673.91486353825
 20
-4577.919569631204
 30
0.0
 11
26673.91486353825
 21
-4575.984266593168
 31
0.0
1001
ACAD
1000
RTMaterial
1005
0
  0
LINE
  5
384C3
330
1F
100
AcDbEntity
  8
ZUWAKU
100
AcDbLine
 10
26676.26963625973
 20
-4571.529493871694
 30
0.0
 11
26671.90493929777
 21
-4567.164796909728
 31
0.0
1001
ACAD
1000
RTMaterial
1005
0
  0
ARC
  5
384C4
330
1F
100
AcDbEntity
  8
ZUWAKU
100
AcDbCircle
 10
26673.91486353825
 20
-4578.707069631204
 30
0.0
 40
4.199999999999998
100
AcDbArc
 50
270.0
 51
0.0
1001
ACAD
1000
RTMaterial
1005
0
  0
ARC
  5
384C5
330
1F
100
AcDbEntity
  8
ZUWAKU
100
AcDbCircle
 10
26685.46486353826
 20
-4578.707069631204
 30
0.0
 40
4.199999999999998
100
AcDbArc
 50
180.0
 51
270.0
1001
ACAD
1000
RTMaterial
1005
0
  0
ARC
  5
384C6
330
1F
100
AcDbEntity
  8
ZUWAKU
100
AcDbCircle
 10
26652.96701229303
 20
-4582.119569631202
 30
0.0
 40
0.7874999999999999
100
AcDbArc
 50
197.5255683737856
 51
270.0
1001
ACAD
1000
RTMaterial
1005
0
  0
LINE
  5
384C7
330
1F
100
AcDbEntity
  8
ZUWAKU
100
AcDbLine
 10
26656.26629271124
 20
-4581.882428678949
 30
0.0
 11
26652.77670564352
 21
-4570.832069631204
 31
0.0
1001
ACAD
1000
RTMaterial
1005
0
  0
ARC
  5
384C8
330
1F
100
AcDbEntity
  8
ZUWAKU
100
AcDbCircle
 10
26655.51534636244
 20
-4582.119569631202
 30
0.0
 40
0.7874999999999999
100
AcDbArc
 50
270.0
 51
17.52556837378564
1001
ACAD
1000
RTMaterial
1005
0
  0
LINE
  5
384C9
330
1F
100
AcDbEntity
  8
ZUWAKU
100
AcDbLine
 10
26652.96701229303
 20
-4582.9070696312
 30
0.0
 11
26655.51534636244
 21
-4582.9070696312
 31
0.0
1001
ACAD
1000
RTMaterial
1005
0
  0
ARC
  5
384CA
330
1F
100
AcDbEntity
  8
ZUWAKU
100
AcDbCircle
 10
26660.52736353826
 20
-4582.119569631202
 30
0.0
 40
0.7874999999999999
100
AcDbArc
 50
180.0
 51
270.0
1001
ACAD
1000
RTMaterial
1005
0
  0
ARC
  5
384CB
330
1F
100
AcDbEntity
  8
ZUWAKU
100
AcDbCircle
 10
26648.45236353826
 20
-4573.719569631201
 30
0.0
 40
0.7874999999999999
100
AcDbArc
 50
90.0
 51
180.0
1001
ACAD
1000
RTMaterial
1005
0
  0
ARC
  5
384CC
330
1F
100
AcDbEntity
  8
ZUWAKU
100
AcDbCircle
 10
26648.66271478349
 20
-4573.719569631201
 30
0.0
 40
0.7874999999999999
100
AcDbArc
 50
17.52556837378564
 51
90.0
1001
ACAD
1000
RTMaterial
1005
0
  0
ARC
  5
384CD
330
1F
100
AcDbEntity
  8
ZUWAKU
100
AcDbCircle
 10
26644.25236353826
 20
-4582.119569631202
 30
0.0
 40
0.7874999999999999
100
AcDbArc
 50
180.0
 51
270.0
1001
ACAD
1000
RTMaterial
1005
0
  0
ARC
  5
384CE
330
1F
100
AcDbEntity
  8
ZUWAKU
100
AcDbCircle
 10
26639.00236353826
 20
-4579.494569631203
 30
0.0
 40
0.7874999999999999
100
AcDbArc
 50
0.0
 51
90.0
1001
ACAD
1000
RTMaterial
1005
0
  0
ARC
  5
384CF
330
1F
100
AcDbEntity
  8
ZUWAKU
100
AcDbCircle
 10
26639.00236353826
 20
-4582.119569631202
 30
0.0
 40
0.7874999999999999
100
AcDbArc
 50
270.0
 51
0.0
1001
ACAD
1000
RTMaterial
1005
0
  0
LINE
  5
384D0
330
1F
100
AcDbEntity
  8
ZUWAKU
100
AcDbLine
 10
26639.78986353825
 20
-4579.494569631203
 30
0.0
 11
26639.78986353825
 21
-4582.119569631202
 31
0.0
1001
ACAD
1000
RTMaterial
1005
0
  0
LINE
  5
384D1
330
1F
100
AcDbEntity
  8
ZUWAKU
100
AcDbLine
 10
26647.66486353826
 20
-4582.119569631202
 30
0.0
 11
26647.66486353826
 21
-4573.719569631201
 31
0.0
1001
ACAD
1000
RTMaterial
1005
0
  0
ARC
  5
384D2
330
1F
100
AcDbEntity
  8
ZUWAKU
100
AcDbCircle
 10
26646.87736353826
 20
-4582.119569631202
 30
0.0
 40
0.7874999999999999
100
AcDbArc
 50
270.0
 51
0.0
1001
ACAD
1000
RTMaterial
1005
0
  0
LINE
  5
384D3
330
1F
100
AcDbEntity
  8
ZUWAKU
100
AcDbLine
 10
26644.25236353826
 20
-4582.9070696312
 30
0.0
 11
26646.87736353826
 21
-4582.9070696312
 31
0.0
1001
ACAD
1000
RTMaterial
1005
0
  0
ARC
  5
384D4
330
1F
100
AcDbEntity
  8
ZUWAKU
100
AcDbCircle
 10
26648.45236353826
 20
-4567.944569631199
 30
0.0
 40
0.7874999999999999
100
AcDbArc
 50
180.0
 51
270.0
1001
ACAD
1000
RTMaterial
1005
0
  0
LINE
  5
384D5
330
1F
100
AcDbEntity
  8
ZUWAKU
100
AcDbLine
 10
26648.45236353826
 20
-4572.932069631202
 30
0.0
 11
26648.66271478349
 21
-4572.932069631202
 31
0.0
1001
ACAD
1000
RTMaterial
1005
0
  0
LINE
  5
384D6
330
1F
100
AcDbEntity
  8
ZUWAKU
100
AcDbLine
 10
26648.66271478349
 20
-4568.732069631205
 30
0.0
 11
26648.45236353826
 21
-4568.732069631205
 31
0.0
1001
ACAD
1000
RTMaterial
1005
0
  0
ARC
  5
384D7
330
1F
100
AcDbEntity
  8
ZUWAKU
100
AcDbCircle
 10
26648.66271478349
 20
-4567.944569631199
 30
0.0
 40
0.7874999999999999
100
AcDbArc
 50
270.0
 51
342.4744316262144
1001
ACAD
1000
RTMaterial
1005
0
  0
LINE
  5
384D8
330
1F
100
AcDbEntity
  8
ZUWAKU
100
AcDbLine
 10
26652.21606594423
 20
-4582.356710583455
 30
0.0
 11
26649.41366113229
 21
-4573.482428678948
 31
0.0
1001
ACAD
1000
RTMaterial
1005
0
  0
LINE
  5
384D9
330
1F
100
AcDbEntity
  8
ZUWAKU
100
AcDbLine
 10
26660.52736353826
 20
-4582.9070696312
 30
0.0
 11
26663.15236353826
 21
-4582.9070696312
 31
0.0
1001
ACAD
1000
RTMaterial
1005
0
  0
LINE
  5
384DA
330
1F
100
AcDbEntity
  8
ZUWAKU
100
AcDbLine
 10
26685.46486353826
 20
-4582.9070696312
 30
0.0
 11
26690.71486353826
 21
-4582.9070696312
 31
0.0
1001
ACAD
1000
RTMaterial
1005
0
  0
LINE
  5
384DB
330
1F
100
AcDbEntity
  8
ZUWAKU
100
AcDbLine
 10
26689.13986353826
 20
-4578.707069631204
 30
0.0
 11
26687.03986353825
 21
-4578.707069631204
 31
0.0
1001
ACAD
1000
RTMaterial
1005
0
  0
LINE
  5
384DC
330
1F
100
AcDbEntity
  8
ZUWAKU
100
AcDbLine
 10
26652.21606594423
 20
-4559.307428678952
 30
0.0
 11
26649.41366113229
 21
-4568.181710583452
 31
0.0
1001
ACAD
1000
RTMaterial
1005
0
  0
LINE
  5
384DD
330
1F
100
AcDbEntity
  8
ZUWAKU
100
AcDbLine
 10
26643.46486353826
 20
-4559.544569631206
 30
0.0
 11
26643.46486353826
 21
-4582.119569631202
 31
0.0
1001
ACAD
1000
RTMaterial
1005
0
  0
LINE
  5
384DE
330
1F
100
AcDbEntity
  8
ZUWAKU
100
AcDbLine
 10
26647.66486353826
 20
-4567.944569631199
 30
0.0
 11
26647.66486353826
 21
-4559.544569631206
 31
0.0
1001
ACAD
1000
RTMaterial
1005
0
  0
LINE
  5
384DF
330
1F
100
AcDbEntity
  8
ZUWAKU
100
AcDbLine
 10
26685.46486353826
 20
-4577.1320696312
 30
0.0
 11
26685.46486353826
 21
-4559.544569631206
 31
0.0
1001
ACAD
1000
RTMaterial
1005
0
  0
LINE
  5
384E0
330
1F
100
AcDbEntity
  8
ZUWAKU
100
AcDbLine
 10
26681.26486353826
 20
-4559.544569631206
 30
0.0
 11
26681.26486353826
 21
-4578.707069631204
 31
0.0
1001
ACAD
1000
RTMaterial
1005
0
  0
LINE
  5
384E1
330
1F
100
AcDbEntity
  8
ZUWAKU
100
AcDbLine
 10
26663.93986353826
 20
-4582.119569631202
 30
0.0
 11
26663.93986353826
 21
-4559.544569631206
 31
0.0
1001
ACAD
1000
RTMaterial
1005
0
  0
LINE
  5
384E2
330
1F
100
AcDbEntity
  8
ZUWAKU
100
AcDbLine
 10
26659.73986353826
 20
-4559.544569631206
 30
0.0
 11
26659.73986353826
 21
-4582.119569631202
 31
0.0
1001
ACAD
1000
RTMaterial
1005
0
  0
LINE
  5
384E3
330
1F
100
AcDbEntity
  8
ZUWAKU
100
AcDbLine
 10
26654.67383326153
 20
-4564.824498840859
 30
0.0
 11
26652.77670564352
 21
-4570.832069631204
 31
0.0
1001
ACAD
1000
RTMaterial
1005
0
  0
ARC
  5
384E4
330
1F
100
AcDbEntity
  8
ZUWAKU
100
AcDbCircle
 10
26673.38986353826
 20
-4565.679872669239
 30
0.0
 40
6.299999999999998
100
AcDbArc
 50
180.0
 51
224.9999999998526
1001
ACAD
1000
RTMaterial
1005
0
  0
ARC
  5
384E5
330
1F
100
AcDbEntity
  8
ZUWAKU
100
AcDbCircle
 10
26673.38986353826
 20
-4565.679872669239
 30
0.0
 40
2.099999999999999
100
AcDbArc
 50
180.0
 51
224.9999999998526
1001
ACAD
1000
RTMaterial
1005
0
  0
LINE
  5
384E6
330
1F
100
AcDbEntity
  8
ZUWAKU
100
AcDbLine
 10
26698.06486353826
 20
-4559.544569631206
 30
0.0
 11
26698.06486353826
 21
-4582.119569631202
 31
0.0
1001
ACAD
1000
RTMaterial
1005
0
  0
LINE
  5
384E7
330
1F
100
AcDbEntity
  8
ZUWAKU
100
AcDbLine
 10
26702.26486353826
 20
-4582.119569631202
 30
0.0
 11
26702.26486353826
 21
-4559.544569631206
 31
0.0
1001
ACAD
1000
RTMaterial
1005
0
  0
LINE
  5
384E8
330
1F
100
AcDbEntity
  8
ZUWAKU
100
AcDbLine
 10
26690.71486353826
 20
-4559.544569631206
 30
0.0
 11
26690.71486353826
 21
-4577.1320696312
 31
0.0
1001
ACAD
1000
RTMaterial
1005
0
  0
LINE
  5
384E9
330
1F
100
AcDbEntity
  8
ZUWAKU
100
AcDbLine
 10
26694.91486353825
 20
-4578.707069631204
 30
0.0
 11
26694.91486353825
 21
-4559.544569631206
 31
0.0
1001
ACAD
1000
RTMaterial
1005
0
  0
LINE
  5
384EA
330
1F
100
AcDbEntity
  8
ZUWAKU
100
AcDbLine
 10
26717.39148962807
 20
-4548.632069631199
 30
0.0
 11
26717.39148962807
 21
-4592.432069631202
 31
0.0
1001
ACAD
1000
RTMaterial
1005
0
  0
LINE
  5
384EB
330
1F
100
AcDbEntity
  8
ZUWAKU
100
AcDbLine
 10
26717.99148962807
 20
-4548.632069631199
 30
0.0
 11
26717.99148962807
 21
-4592.432069631202
 31
0.0
1001
ACAD
1000
RTMaterial
1005
0
  0
LINE
  5
384EC
330
1F
100
AcDbEntity
  8
ZUWAKU
100
AcDbLine
 10
26717.69148962807
 20
-4548.632069631199
 30
0.0
 11
26717.69148962807
 21
-4592.432069631202
 31
0.0
1001
ACAD
1000
RTMaterial
1005
0
  0
ARC
  5
384ED
330
1F
100
AcDbEntity
  8
ZUWAKU
100
AcDbCircle
 10
26636.11486353826
 20
-4565.057069631202
 30
0.0
 40
6.299999999999998
100
AcDbArc
 50
90.0
 51
180.0
1001
ACAD
1000
RTMaterial
1005
0
  0
ARC
  5
384EE
330
1F
100
AcDbEntity
  8
ZUWAKU
100
AcDbCircle
 10
26636.11486353826
 20
-4565.057069631202
 30
0.0
 40
2.099999999999999
100
AcDbArc
 50
90.0
 51
180.0
1001
ACAD
1000
RTMaterial
1005
0
  0
LINE
  5
384EF
330
1F
100
AcDbEntity
  8
ZUWAKU
100
AcDbLine
 10
26625.87736353826
 20
-4559.544569631206
 30
0.0
 11
26625.87736353826
 21
-4562.169569631205
 31
0.0
1001
ACAD
1000
RTMaterial
1005
0
  0
ARC
  5
384F0
330
1F
100
AcDbEntity
  8
ZUWAKU
100
AcDbCircle
 10
26619.83986353826
 20
-4562.957069631203
 30
0.0
 40
4.199999999999998
100
AcDbArc
 50
90.0
 51
180.0
1001
ACAD
1000
RTMaterial
1005
0
  0
LINE
  5
384F1
330
1F
100
AcDbEntity
  8
ZUWAKU
100
AcDbLine
 10
26615.63986353826
 20
-4562.957069631203
 30
0.0
 11
26615.63986353826
 21
-4565.679872669239
 31
0.0
1001
ACAD
1000
RTMaterial
1005
0
  0
LINE
  5
384F2
330
1F
100
AcDbEntity
  8
ZUWAKU
100
AcDbLine
 10
26625.08986353826
 20
-4562.957069631203
 30
0.0
 11
26620.62736353826
 21
-4562.957069631203
 31
0.0
1001
ACAD
1000
RTMaterial
1005
0
  0
LINE
  5
384F3
330
1F
100
AcDbEntity
  8
ZUWAKU
100
AcDbLine
 10
26619.83986353826
 20
-4563.744569631203
 30
0.0
 11
26619.83986353826
 21
-4565.679872669239
 31
0.0
1001
ACAD
1000
RTMaterial
1005
0
  0
ARC
  5
384F4
330
1F
100
AcDbEntity
  8
ZUWAKU
100
AcDbCircle
 10
26620.62736353826
 20
-4563.744569631203
 30
0.0
 40
0.7874999999999999
100
AcDbArc
 50
90.0
 51
180.0
1001
ACAD
1000
RTMaterial
1005
0
  0
LINE
  5
384F5
330
1F
100
AcDbEntity
  8
ZUWAKU
100
AcDbLine
 10
26619.83986353826
 20
-4558.7570696312
 30
0.0
 11
26625.08986353826
 21
-4558.7570696312
 31
0.0
1001
ACAD
1000
RTMaterial
1005
0
  0
ARC
  5
384F6
330
1F
100
AcDbEntity
  8
ZUWAKU
100
AcDbCircle
 10
26625.08986353826
 20
-4562.169569631205
 30
0.0
 40
0.7874999999999999
100
AcDbArc
 50
270.0
 51
0.0
1001
ACAD
1000
RTMaterial
1005
0
  0
ARC
  5
384F7
330
1F
100
AcDbEntity
  8
ZUWAKU
100
AcDbCircle
 10
26625.08986353826
 20
-4559.544569631206
 30
0.0
 40
0.7874999999999999
100
AcDbArc
 50
0.0
 51
90.0
1001
ACAD
1000
RTMaterial
1005
0
  0
ARC
  5
384F8
330
1F
100
AcDbEntity
  8
ZUWAKU
100
AcDbCircle
 10
26636.11486353826
 20
-4576.607069631205
 30
0.0
 40
2.099999999999999
100
AcDbArc
 50
180.0
 51
270.0
1001
ACAD
1000
RTMaterial
1005
0
  0
LINE
  5
384F9
330
1F
100
AcDbEntity
  8
ZUWAKU
100
AcDbLine
 10
26626.66486353826
 20
-4578.707069631204
 30
0.0
 11
26626.66486353826
 21
-4575.984266593168
 31
0.0
1001
ACAD
1000
RTMaterial
1005
0
  0
LINE
  5
384FA
330
1F
100
AcDbEntity
  8
ZUWAKU
100
AcDbLine
 10
26617.48509081678
 20
-4570.134645390713
 30
0.0
 11
26621.84978777875
 21
-4574.499342352679
 31
0.0
1001
ACAD
1000
RTMaterial
1005
0
  0
LINE
  5
384FB
330
1F
100
AcDbEntity
  8
ZUWAKU
100
AcDbLine
 10
26617.21486353826
 20
-4578.707069631204
 30
0.0
 11
26621.67736353827
 21
-4578.707069631204
 31
0.0
1001
ACAD
1000
RTMaterial
1005
0
  0
LINE
  5
384FC
330
1F
100
AcDbEntity
  8
ZUWAKU
100
AcDbLine
 10
26617.21486353826
 20
-4582.9070696312
 30
0.0
 11
26622.46486353826
 21
-4582.9070696312
 31
0.0
1001
ACAD
1000
RTMaterial
1005
0
  0
ARC
  5
384FD
330
1F
100
AcDbEntity
  8
ZUWAKU
100
AcDbCircle
 10
26617.21486353826
 20
-4579.494569631203
 30
0.0
 40
0.7874999999999999
100
AcDbArc
 50
90.0
 51
180.0
1001
ACAD
1000
RTMaterial
1005
0
  0
ARC
  5
384FE
330
1F
100
AcDbEntity
  8
ZUWAKU
100
AcDbCircle
 10
26617.21486353826
 20
-4582.119569631202
 30
0.0
 40
0.7874999999999999
100
AcDbArc
 50
180.0
 51
270.0
1001
ACAD
1000
RTMaterial
1005
0
  0
LINE
  5
384FF
330
1F
100
AcDbEntity
  8
ZUWAKU
100
AcDbLine
 10
26616.42736353826
 20
-4582.119569631202
 30
0.0
 11
26616.42736353826
 21
-4579.494569631203
 31
0.0
1001
ACAD
1000
RTMaterial
1005
0
  0
ARC
  5
38500
330
1F
100
AcDbEntity
  8
ZUWAKU
100
AcDbCircle
 10
26620.36486353826
 20
-4575.984266593168
 30
0.0
 40
2.099999999999999
100
AcDbArc
 50
0.0
 51
44.99999999985261
1001
ACAD
1000
RTMaterial
1005
0
  0
ARC
  5
38501
330
1F
100
AcDbEntity
  8
ZUWAKU
100
AcDbCircle
 10
26621.67736353827
 20
-4577.919569631204
 30
0.0
 40
0.7874999999999999
100
AcDbArc
 50
270.0
 51
0.0
1001
ACAD
1000
RTMaterial
1005
0
  0
LINE
  5
38502
330
1F
100
AcDbEntity
  8
ZUWAKU
100
AcDbLine
 10
26622.46486353826
 20
-4577.919569631204
 30
0.0
 11
26622.46486353826
 21
-4575.984266593168
 31
0.0
1001
ACAD
1000
RTMaterial
1005
0
  0
LINE
  5
38503
330
1F
100
AcDbEntity
  8
ZUWAKU
100
AcDbLine
 10
26624.81963625973
 20
-4571.529493871694
 30
0.0
 11
26620.45493929777
 21
-4567.164796909728
 31
0.0
1001
ACAD
1000
RTMaterial
1005
0
  0
ARC
  5
38504
330
1F
100
AcDbEntity
  8
ZUWAKU
100
AcDbCircle
 10
26620.36486353826
 20
-4575.984266593168
 30
0.0
 40
6.299999999999998
100
AcDbArc
 50
0.0
 51
44.99999999985261
1001
ACAD
1000
RTMaterial
1005
0
  0
ARC
  5
38505
330
1F
100
AcDbEntity
  8
ZUWAKU
100
AcDbCircle
 10
26636.11486353826
 20
-4576.607069631205
 30
0.0
 40
6.299999999999998
100
AcDbArc
 50
180.0
 51
270.0
1001
ACAD
1000
RTMaterial
1005
0
  0
ARC
  5
38506
330
1F
100
AcDbEntity
  8
ZUWAKU
100
AcDbCircle
 10
26622.46486353826
 20
-4578.707069631204
 30
0.0
 40
4.199999999999998
100
AcDbArc
 50
270.0
 51
0.0
1001
ACAD
1000
RTMaterial
1005
0
  0
ARC
  5
38507
330
1F
100
AcDbEntity
  8
ZUWAKU
100
AcDbCircle
 10
26621.93986353826
 20
-4565.679872669239
 30
0.0
 40
6.299999999999998
100
AcDbArc
 50
180.0
 51
224.9999999998526
1001
ACAD
1000
RTMaterial
1005
0
  0
LINE
  5
38508
330
1F
100
AcDbEntity
  8
ZUWAKU
100
AcDbLine
 10
26629.81486353826
 20
-4576.607069631205
 30
0.0
 11
26629.81486353826
 21
-4565.057069631202
 31
0.0
1001
ACAD
1000
RTMaterial
1005
0
  0
LINE
  5
38509
330
1F
100
AcDbEntity
  8
ZUWAKU
100
AcDbLine
 10
26634.01486353826
 20
-4565.057069631202
 30
0.0
 11
26634.01486353826
 21
-4576.607069631205
 31
0.0
1001
ACAD
1000
RTMaterial
1005
0
  0
ARC
  5
3850A
330
1F
100
AcDbEntity
  8
ZUWAKU
100
AcDbCircle
 10
26621.93986353826
 20
-4565.679872669239
 30
0.0
 40
2.099999999999999
100
AcDbArc
 50
180.0
 51
224.9999999998526
1001
ACAD
1000
RTMaterial
1005
0
  0
CIRCLE
  5
3850B
330
1F
100
AcDbEntity
  8
ZUWAKU
100
AcDbCircle
 10
26637.68986353826
 20
-4570.832069631204
 30
0.0
 40
2.625
1001
ACAD
1000
RTMaterial
1005
0
  0
LINE
  5
3850C
330
1F
100
AcDbEntity
  8
ZUWAKU
100
AcDbLine
 10
26639.00236353826
 20
-4582.9070696312
 30
0.0
 11
26636.11486353826
 21
-4582.9070696312
 31
0.0
1001
ACAD
1000
RTMaterial
1005
0
  0
LINE
  5
3850D
330
1F
100
AcDbEntity
  8
ZUWAKU
100
AcDbLine
 10
26636.11486353826
 20
-4578.707069631204
 30
0.0
 11
26639.00236353826
 21
-4578.707069631204
 31
0.0
1001
ACAD
1000
RTMaterial
1005
0
  0
LINE
  5
3850E
330
1F
100
AcDbEntity
  8
ZUWAKU
100
AcDbLine
 10
26639.00236353826
 20
-4562.957069631203
 30
0.0
 11
26636.11486353826
 21
-4562.957069631203
 31
0.0
1001
ACAD
1000
RTMaterial
1005
0
  0
LINE
  5
3850F
330
1F
100
AcDbEntity
  8
ZUWAKU
100
AcDbLine
 10
26636.11486353826
 20
-4558.7570696312
 30
0.0
 11
26639.00236353826
 21
-4558.7570696312
 31
0.0
1001
ACAD
1000
RTMaterial
1005
0
  0
INSERT
  5
38510
330
1F
100
AcDbEntity
  8
ZUWAKU
  6
Continuous
100
AcDbBlockReference
  2
*X5
 10
26583.70154530608
 20
-4608.632069631199
 30
0.0
 41
1.5
 42
1.5
 43
1.5
1001
ACAD
1000
HATCH
1002
{
1070
    19
1000
ANSI37
1040
0.2
1040
0.0
1000
R14_HATCH_DATA
1000
B0E
1011
26585.20154530608
1021
-4608.632069631199
1031
0.0
1011
26583.70154530608
1021
-4607.132069631199
1031
0.0
1011
26583.70154530608
1021
-4608.632069631199
1031
1.5
1040
0.0
1010
0.0
1020
0.0
1030
1.0
1000
ANSI37
1070
     0
1070
     0
1071
        8
1071
        7
1070
     1
1070
     1
1071
       24
1040
24.50226266111986
1040
27.64484848098359
1040
-0.1989123673796348
1040
24.09221215478112
1040
28.63479797464464
1040
0.0
1040
24.09221215478112
1040
29.92500000000001
1040
-0.4142135623730912
1040
24.61721215478111
1040
30.45
1040
0.0
1040
27.59221215478101
1040
30.45
1040
0.4142135623731546
1040
28.1172121547811
1040
30.975
1040
0.0
1040
28.1172121547811
1040
32.72500000000001
1040
0.4142135623731586
1040
27.59221215478101
1040
33.25000000000001
1040
0.0
1040
24.09221215478112
1040
33.25000000000001
1040
0.4142135623730928
1040
21.29221215478117
1040
30.45000000000003
1040
0.0
1040
21.29221215478117
1040
28.63479797464476
1040
0.1989123673796619
1040
22.5223636737976
1040
25.66494949366115
1040
0.0
1040
25.43216164844228
1040
22.7551515190165
1040
-0.1989123673796613
1040
25.84221215478113
1040
21.76520202535531
1040
0.0
1040
25.84221215478113
1040
20.47499999999999
1040
-0.4142135623730911
1040
25.31721215478115
1040
19.95
1040
0.0
1040
22.34221215478124
1040
19.95
1040
0.4142135623731526
1040
21.81721215478114
1040
19.42500000000001
1040
0.0
1040
21.81721215478114
1040
17.67499999999999
1040
0.4142135623731526
1040
22.34221215478124
1040
17.15
1040
0.0
1040
25.84221215478113
1040
17.15
1040
0.4142135623731045
1040
28.64221215478119
1040
19.94999999999998
1040
0.0
1040
28.64221215478119
1040
21.76520202535526
1040
0.1989123673796604
1040
27.41206063576465
1040
24.7350505063388
1040
0.0
1071
        0
1071
        7
1070
     1
1070
     1
1071
       16
1040
33.54221215478117
1040
29.05000000000001
1040
-0.4142135623730935
1040
34.94221215478115
1040
30.45
1040
0.0
1040
36.8672121547811
1040
30.45
1040
0.4142135623731546
1040
37.39221215478119
1040
30.975
1040
0.0
1040
37.39221215478119
1040
32.72500000000001
1040
0.4142135623730951
1040
36.86721215478121
1040
33.25000000000001
1040
0.0
1040
34.94221215478103
1040
33.24999999999997
1040
0.4142135623730893
1040
30.74221215478111
1040
29.04999999999994
1040
0.0
1040
30.74221215478111
1040
21.35000000000003
1040
0.4142135623730969
1040
34.94221215478115
1040
17.15
1040
0.0
1040
36.8672121547811
1040
17.15
1040
0.4142135623731526
1040
37.39221215478119
1040
17.67499999999999
1040
0.0
1040
37.39221215478119
1040
19.42500000000001
1040
0.4142135623730891
1040
36.86721215478121
1040
19.95
1040
0.0
1040
34.94221215478115
1040
19.95
1040
-0.4142135623730928
1040
33.54221215478117
1040
21.34999999999999
1040
0.0
1071
        0
1071
        7
1070
     1
1070
     1
1071
        2
1040
34.2422121547811
1040
25.2
1040
1.0
1040
37.7422121547811
1040
25.2
1040
1.0
1071
        0
1071
        7
1070
     1
1070
     1
1071
       26
1040
47.31485863695911
1040
29.20504719356343
1040
0.0
1040
48.37649827009693
1040
32.56690603183302
1040
0.5069206636600134
1040
47.87586737090157
1040
33.25000000000001
1040
0.0
1040
46.17697799129234
1040
33.25000000000001
1040
0.3272098845218764
1040
45.67634709209698
1040
32.88309396816698
1040
0.0
1040
43.80807721746521
1040
26.96690603183308
1040
-0.3272098845219541
1040
43.30744631826974
1040
26.6
1040
0.0
1040
43.16721215478128
1040
26.6
1040
-0.4142135623731526
1040
42.64221215478118
1040
27.12499999999999
1040
0.0
1040
42.64221215478118
1040
32.72500000000001
1040
0.4142135623730951
1040
42.11721215478121
1040
33.25000000000001
1040
0.0
1040
40.3672121547811
1040
33.25000000000001
1040
0.4142135623730871
1040
39.84221215478113
1040
32.72500000000003
1040
0.0
1040
39.84221215478113
1040
17.67499999999999
1040
0.4142135623730891
1040
40.3672121547811
1040
17.15
1040
0.0
1040
42.11721215478109
1040
17.15
1040
0.4142135623731526
1040
42.64221215478118
1040
17.67499999999999
1040
0.0
1040
42.64221215478118
1040
23.27500000000002
1040
-0.4142135623731526
1040
43.16721215478128
1040
23.8
1040
0.0
1040
43.30744631826985
1040
23.8
1040
-0.3272098845218915
1040
43.80807721746521
1040
23.43309396816693
1040
0.0
1040
45.67634709209698
1040
17.51690603183307
1040
0.3272098845218902
1040
46.17697799129234
1040
17.15
1040
0.0
1040
47.87586737090157
1040
17.15
1040
0.5069206636600336
1040
48.37649827009693
1040
17.83309396816701
1040
0.0
1040
46.05010689162328
1040
25.20000000000014
1040
0.0
1071
        0
1071
        7
1070
     1
1070
     1
1071
        8
1040
53.4922121547811
1040
32.72500000000002
1040
0.4142135623731546
1040
52.967212154781
1040
33.25000000000001
1040
0.0
1040
51.21721215478125
1040
33.25000000000001
1040
0.4142135623731507
1040
50.69221215478115
1040
32.72500000000003
1040
0.0
1040
50.69221215478115
1040
17.67499999999999
1040
0.4142135623731526
1040
51.21721215478125
1040
17.15
1040
0.0
1040
52.967212154781
1040
17.15
1040
0.4142135623731526
1040
53.4922121547811
1040
17.67499999999999
1040
0.0
1071
        0
1071
        7
1070
     1
1070
     1
1071
       24
1040
58.39221215478119
1040
29.92500000000001
1040
-0.4142135623731546
1040
58.91721215478128
1040
30.45
1040
0.0
1040
61.89221215478119
1040
30.45
1040
0.4142135623730911
1040
62.41721215478117
1040
30.975
1040
0.0
1040
62.41721215478117
1040
32.72500000000001
1040
0.4142135623730952
1040
61.89221215478119
1040
33.25000000000001
1040
0.0
1040
58.39221215478119
1040
33.25000000000001
1040
0.4142135623731048
1040
55.59221215478111
1040
30.45000000000003
1040
0.0
1040
55.59221215478111
1040
28.63479797464476
1040
0.1989123673796613
1040
56.82236367379768
1040
25.66494949366121
1040
0.0
1040
59.73216164844235
1040
22.75515151901654
1040
-0.1989123673796402
1040
60.14221215478119
1040
21.76520202535547
1040
0.0
1040
60.14221215478119
1040
20.47499999999999
1040
-0.4142135623730911
1040
59.61721215478121
1040
19.95
1040
0.0
1040
56.64221215478119
1040
19.95
1040
0.4142135623731526
1040
56.1172121547811
1040
19.42500000000001
1040
0.0
1040
56.1172121547811
1040
17.67499999999999
1040
0.4142135623730891
1040
56.64221215478107
1040
17.15
1040
0.0
1040
60.14221215478119
1040
17.15
1040
0.4142135623730925
1040
62.94221215478113
1040
19.94999999999998
1040
0.0
1040
62.94221215478113
1040
21.76520202535526
1040
0.1989123673796675
1040
61.7120606357646
1040
24.73505050633891
1040
0.0
1040
58.80226266112003
1040
27.64484848098343
1040
-0.1989123673796652
1040
58.39221215478119
1040
28.63479797464459
1040
0.0
1071
        0
1071
        7
1070
     1
1070
     1
1071
       16
1040
67.84221215478111
1040
32.72499999999999
1040
0.414213562373103
1040
67.31721215478114
1040
33.25000000000001
1040
0.0
1040
65.56721215478114
1040
33.25000000000001
1040
0.4142135623730871
1040
65.04221215478117
1040
32.72500000000003
1040
0.0
1040
65.04221215478117
1040
19.94999999999998
1040
0.4142135623730927
1040
67.84221215478111
1040
17.15
1040
0.0
1040
71.34221215478112
1040
17.15
1040
0.4142135623731045
1040
74.14221215478119
1040
19.94999999999998
1040
0.0
1040
74.14221215478119
1040
32.72500000000001
1040
0.4142135623730951
1040
73.61721215478119
1040
33.25000000000001
1040
0.0
1040
71.8672121547811
1040
33.25000000000001
1040
0.4142135623730871
1040
71.34221215478112
1040
32.72500000000003
1040
0.0
1040
71.34221215478112
1040
20.99999999999998
1040
-0.4142135623730879
1040
70.29221215478115
1040
19.95
1040
0.0
1040
68.89221215478119
1040
19.95
1040
-0.4142135623731197
1040
67.84221215478111
1040
20.99999999999998
1040
0.0
1071
        0
1071
        7
1070
     1
1070
     1
1071
        8
1040
79.04221215478115
1040
32.72500000000003
1040
0.4142135623730871
1040
78.51721215478119
1040
33.25000000000001
1040
0.0
1040
76.76721215478119
1040
33.25000000000001
1040
0.4142135623731507
1040
76.2422121547811
1040
32.72500000000003
1040
0.0
1040
76.2422121547811
1040
17.67499999999999
1040
0.4142135623730891
1040
76.76721215478107
1040
17.15
1040
0.0
1040
78.51721215478119
1040
17.15
1040
0.4142135623730891
1040
79.04221215478115
1040
17.67499999999999
1040
0.0
1071
        0
1070
     0
1070
     1
1040
0.0
1040
0.2
1070
     0
1070
     2
1040
0.7853981633974483
1040
-890.9423043346789
1040
-3.19999999999993
1040
-0.4490128060534576
1040
0.4490128060534577
1070
     0
1040
2.356194490192344
1040
-890.9423043346789
1040
-3.19999999999993
1040
-0.4490128060534577
1040
-0.4490128060534576
1070
     0
1040
0.057451373970553
1071
        8
1040
26.07985496302331
1040
25.16717364588556
1040
0.0
1040
32.40451500643917
1040
28.84406218245101
1040
0.0
1040
35.16436788565966
1040
25.51188164607072
1040
0.0
1040
40.91405998163714
1040
26.20129764644151
1040
0.0
1040
51.83847201895673
1040
26.66090991398312
1040
0.0
1040
56.89820089512955
1040
29.41857631640722
1040
0.0
1040
66.55768597240035
1040
28.72915791509502
1040
0.0
1040
77.82707961962273
1040
29.18877018263663
1040
0.0
1002
}
1000
RTMaterial
1005
0
  0
TEXT
  5
38511
330
1F
100
AcDbEntity
  8
moji
100
AcDbText
 10
26738.13822968833
 20
-4574.520302435787
 30
0.0
 40
9.0
  1
大型のきとい
 41
0.9
  7
ｽﾀｲﾙ1
100
AcDbText
1001
ACAD
1000
RTMaterial
1005
0
  0
LINE
  5
38512
330
1F
100
AcDbEntity
  8
ZUWAKU
100
AcDbLine
 10
26911.67144724119
 20
-4570.532069631201
 30
0.0
 11
27269.83809126258
 21
-4570.532069631201
 31
0.0
1001
ACAD
1000
RTMaterial
1005
0
  0
LINE
  5
38513
330
1F
100
AcDbEntity
  8
ZUWAKU
100
AcDbLine
 10
26911.67144724119
 20
-4570.232069631205
 30
0.0
 11
27269.83809126258
 21
-4570.232069631205
 31
0.0
1001
ACAD
1000
RTMaterial
1005
0
  0
LINE
  5
38514
330
1F
100
AcDbEntity
  8
ZUWAKU
100
AcDbLine
 10
26911.67144724119
 20
-4570.832069631204
 30
0.0
 11
27269.83809126258
 21
-4570.832069631204
 31
0.0
1001
ACAD
1000
RTMaterial
1005
0
  0
LINE
  5
393D8
330
1F
100
AcDbEntity
  8
CENTER L
  6
CENTER
 62
     1
 48
5.0
100
AcDbLine
 10
27386.97324350594
 20
-4028.394744509692
 30
0.0
 11
27386.97324350594
 21
-3836.564580486687
 31
0.0
  0
LINE
  5
393DA
330
1F
100
AcDbEntity
  8
CENTER L
  6
CENTER
 62
     1
 48
5.0
100
AcDbLine
 10
27596.86385757886
 20
-3931.194396789525
 30
0.0
 11
27156.56366572311
 21
-3931.194396789525
 31
0.0
  0
DIMENSION
  5
393DB
330
1F
100
AcDbEntity
  8
SUNPOU
  6
Continuous
100
AcDbDimension
  2
*D7
 10
27612.88901844606
 20
-4202.392393413954
 30
0.0
 11
27602.88901844606
 21
-4244.39239341395
 31
0.0
 70
    32
 71
     5
 42
22.89800246054984
  3
STANDARD
100
AcDbAlignedDimension
 13
27583.89767799147
 23
-4179.494390953404
 33
0.0
 14
27581.8539969082
 24
-4202.392393413954
 34
0.0
 50
90.0
100
AcDbRotatedDimension
1001
ACAD
1000
DSTYLE
1002
{
1070
    41
1040
14.0
1070
    42
1040
12.0
1070
    43
1040
28.0
1070
    44
1040
6.0
1070
    73
1070
     0
1070
    74
1070
     0
1070
    77
1070
     3
1070
   140
1040
12.0
1070
   141
1040
150.0
1070
   143
1040
0.03937
1070
   147
1040
4.0
1070
   172
1070
     1
1070
   173
1070
     1
1070
   176
1070
     4
1070
   177
1070
     4
1070
   178
1070
     4
1070
   271
1070
     0
1070
   272
1070
     2
1070
   343
1005
3729
1070
   344
1005
3729
1002
}
  0
DIMENSION
  5
393DC
330
1F
100
AcDbEntity
  8
SUNPOU
  6
Continuous
100
AcDbDimension
  2
*D6
 10
27158.93584218129
 20
-4152.392393413957
 30
0.0
 11
27148.93584218129
 21
-4194.392393413951
 31
0.0
 70
    32
 71
     5
 42
22.99682476175258
  3
STANDARD
100
AcDbAlignedDimension
 13
27184.55347764431
 23
-4129.395568652204
 33
0.0
 14
27186.15102574835
 24
-4152.392393413957
 34
0.0
 50
90.0
100
AcDbRotatedDimension
1001
ACAD
1000
DSTYLE
1002
{
1070
    41
1040
14.0
1070
    42
1040
12.0
1070
    43
1040
28.0
1070
    44
1040
6.0
1070
    73
1070
     0
1070
    74
1070
     0
1070
    77
1070
     3
1070
   140
1040
12.0
1070
   141
1040
150.0
1070
   143
1040
0.03937
1070
   147
1040
4.0
1070
   172
1070
     1
1070
   173
1070
     1
1070
   176
1070
     4
1070
   177
1070
     4
1070
   178
1070
     4
1070
   271
1070
     0
1070
   272
1070
     2
1070
   343
1005
3729
1070
   344
1005
3729
1002
}
  0
DIMENSION
  5
39418
330
1F
100
AcDbEntity
  8
SUNPOU
  6
Continuous
100
AcDbDimension
  2
*D10
 10
27619.49316468479
 20
-3961.194396789525
 30
0.0
 11
27609.49316468479
 21
-3931.194396789521
 31
0.0
 70
    32
 71
     5
 42
60.0
  3
STANDARD
100
AcDbAlignedDimension
 13
27581.35399690821
 23
-3901.194396789525
 33
0.0
 14
27581.35399690821
 24
-3961.194396789525
 34
0.0
 50
90.0
100
AcDbRotatedDimension
1001
ACAD
1000
DSTYLE
1002
{
1070
    41
1040
14.0
1070
    42
1040
12.0
1070
    43
1040
28.0
1070
    44
1040
6.0
1070
    73
1070
     0
1070
    74
1070
     0
1070
    77
1070
     3
1070
   140
1040
12.0
1070
   141
1040
150.0
1070
   143
1040
0.03937
1070
   147
1040
4.0
1070
   172
1070
     1
1070
   173
1070
     1
1070
   176
1070
     4
1070
   177
1070
     4
1070
   178
1070
     4
1070
   271
1070
     0
1070
   272
1070
     2
1070
   343
1005
3729
1070
   344
1005
3729
1002
}
  0
DIMENSION
  5
39419
330
1F
100
AcDbEntity
  8
SUNPOU
  6
Continuous
100
AcDbDimension
  2
*D9
 10
27650.70480141309
 20
-4016.194396789525
 30
0.0
 11
27640.7048014131
 21
-3931.194396789521
 31
0.0
 70
    32
 71
     5
 42
170.0
  3
STANDARD
100
AcDbAlignedDimension
 13
27583.8539969082
 23
-3846.194396789525
 33
0.0
 14
27583.60399690821
 24
-4016.194396789525
 34
0.0
 50
90.0
100
AcDbRotatedDimension
1001
ACAD
1000
DSTYLE
1002
{
1070
    41
1040
14.0
1070
    42
1040
12.0
1070
    43
1040
28.0
1070
    44
1040
6.0
1070
    73
1070
     0
1070
    74
1070
     0
1070
    77
1070
     3
1070
   140
1040
12.0
1070
   141
1040
150.0
1070
   143
1040
0.03937
1070
   147
1040
4.0
1070
   172
1070
     1
1070
   173
1070
     1
1070
   176
1070
     4
1070
   177
1070
     4
1070
   178
1070
     4
1070
   271
1070
     0
1070
   272
1070
     2
1070
   343
1005
3729
1070
   344
1005
3729
1002
}
  0
DIMENSION
  5
3941A
330
1F
100
AcDbEntity
  8
SUNPOU
  6
Continuous
100
AcDbDimension
  2
*D8
 10
27124.13725502206
 20
-4001.194396789524
 30
0.0
 11
27114.13725502207
 21
-3931.194396789521
 31
0.0
 70
    32
 71
     5
 42
140.0
  3
STANDARD
100
AcDbAlignedDimension
 13
27184.15102574835
 23
-3861.194396789525
 33
0.0
 14
27184.15102574835
 24
-4001.194396789524
 34
0.0
 50
90.0
100
AcDbRotatedDimension
1001
ACAD
1000
DSTYLE
1002
{
1070
    41
1040
14.0
1070
    42
1040
12.0
1070
    43
1040
28.0
1070
    44
1040
6.0
1070
    73
1070
     0
1070
    74
1070
     0
1070
    77
1070
     3
1070
   140
1040
12.0
1070
   141
1040
150.0
1070
   143
1040
0.03937
1070
   147
1040
4.0
1070
   172
1070
     1
1070
   173
1070
     1
1070
   176
1070
     4
1070
   177
1070
     4
1070
   178
1070
     4
1070
   271
1070
     0
1070
   272
1070
     2
1070
   343
1005
3729
1070
   344
1005
3729
1002
}
  0
LINE
  5
3941B
330
1F
100
AcDbEntity
  8
SEIHIN
  6
Continuous
 62
     3
100
AcDbLine
 10
27534.64253037353
 20
-4015.194396789524
 30
0.0
 11
27534.64253037353
 21
-3957.694396789524
 31
0.0
  0
LINE
  5
3941C
330
1F
100
AcDbEntity
  8
SEIHIN
  6
Continuous
 62
     3
100
AcDbLine
 10
27534.64253037353
 20
-3847.194396789525
 30
0.0
 11
27534.64253037353
 21
-3904.694396789525
 31
0.0
  0
LINE
  5
3941D
330
1F
100
AcDbEntity
  8
SEIHIN
  6
Continuous
 62
     3
100
AcDbLine
 10
27239.30395663836
 20
-4000.194396789524
 30
0.0
 11
27239.30395663836
 21
-3957.694396789524
 31
0.0
  0
LINE
  5
3941E
330
1F
100
AcDbEntity
  8
SEIHIN
  6
Continuous
 62
     3
100
AcDbLine
 10
27239.30395663836
 20
-3862.194396789525
 30
0.0
 11
27239.30395663836
 21
-3904.694396789525
 31
0.0
  0
LINE
  5
3941F
330
1F
100
AcDbEntity
  8
SEIHIN
  6
Continuous
 62
     3
100
AcDbLine
 10
27206.09165465585
 20
-3961.194396789525
 30
0.0
 11
27206.09165465585
 21
-3901.194396789525
 31
0.0
  0
SPLINE
  5
39420
330
1F
100
AcDbEntity
  8
SEIHIN
  6
Continuous
 62
     3
100
AcDbSpline
210
0.0
220
0.0
230
1.0
 70
     8
 71
     3
 72
    11
 73
     7
 74
     0
 42
0.0000000001
 43
0.0000000001
 40
0.0
 40
0.0
 40
0.0
 40
0.0
 40
0.351684511957874
 40
0.6093069511445944
 40
0.8439770950171769
 40
1.0
 40
1.0
 40
1.0
 40
1.0
 10
27207.01518172979
 20
-3904.694396789525
 30
0.0
 10
27206.87330493362
 20
-3904.711400729076
 30
0.0
 10
27206.62749792428
 20
-3904.740860708725
 30
0.0
 10
27206.34552707165
 20
-3904.925522149613
 30
0.0
 10
27206.17592562476
 20
-3905.104082474844
 30
0.0
 10
27206.11570407545
 20
-3905.212023189096
 30
0.0
 10
27206.09165465585
 20
-3905.255129212745
 30
0.0
  0
SPLINE
  5
39421
330
1F
100
AcDbEntity
  8
SEIHIN
  6
Continuous
 62
     3
100
AcDbSpline
210
0.0
220
0.0
230
1.0
 70
     8
 71
     3
 72
    11
 73
     7
 74
     0
 42
0.0000000001
 43
0.0000000001
 40
0.0
 40
0.0
 40
0.0
 40
0.0
 40
0.1452718242508412
 40
0.4663192925319425
 40
0.7652782100122116
 40
1.0
 40
1.0
 40
1.0
 40
1.0
 10
27206.09165465585
 20
-3957.118634633438
 30
0.0
 10
27206.10939130212
 20
-3957.158166043519
 30
0.0
 10
27206.1663255382
 20
-3957.285060981866
 30
0.0
 10
27206.38761240044
 20
-3957.506911652656
 30
0.0
 10
27206.69945683323
 20
-3957.668078154375
 30
0.0
 10
27206.91873811709
 20
-3957.68635730869
 30
0.0
 10
27207.01518172979
 20
-3957.694396789526
 30
0.0
  0
LINE
  5
39422
330
1F
100
AcDbEntity
  8
SEIHIN
  6
Continuous
 62
     3
100
AcDbLine
 10
27562.91282145965
 20
-3901.194396789525
 30
0.0
 11
27562.91282145965
 21
-3961.194396789525
 31
0.0
  0
LINE
  5
39423
330
1F
100
AcDbEntity
  8
SEIHIN
  6
Continuous
 62
     3
100
AcDbLine
 10
27562.91282145965
 20
-3919.83813383786
 30
0.0
 11
27562.09557462094
 21
-3907.237443195354
 31
0.0
  0
LINE
  5
39424
330
1F
100
AcDbEntity
  8
SEIHIN
  6
Continuous
 62
     3
100
AcDbLine
 10
27562.09557462094
 20
-3955.151350383696
 30
0.0
 11
27562.91282145965
 21
-3942.55065974119
 31
0.0
  0
SPLINE
  5
39425
330
1F
100
AcDbEntity
  8
SEIHIN
  6
Continuous
 62
     3
100
AcDbSpline
210
0.0
220
0.0
230
1.0
 70
     8
 71
     3
 72
    14
 73
    10
 74
     0
 42
0.0000000001
 43
0.0000000001
 40
0.0
 40
0.0
 40
0.0
 40
0.0
 40
0.1140466189220089
 40
0.3388253531737463
 40
0.582032679282015
 40
0.7169681405815806
 40
0.8232787367304846
 40
0.9222750032686336
 40
1.0
 40
1.0
 40
1.0
 40
1.0
 10
27562.09557462094
 20
-3907.237443195354
 30
0.0
 10
27562.08541016571
 20
-3907.096993214889
 30
0.0
 10
27562.05521220664
 20
-3906.679725130274
 30
0.0
 10
27561.9720070769
 20
-3906.040198877473
 30
0.0
 10
27561.8739545567
 20
-3905.578151754177
 30
0.0
 10
27561.69900621548
 20
-3905.177467186547
 30
0.0
 10
27561.42360144063
 20
-3904.882390315485
 30
0.0
 10
27561.10707977929
 20
-3904.720622567867
 30
0.0
 10
27560.88830019411
 20
-3904.702407905649
 30
0.0
 10
27560.79207723696
 20
-3904.694396789525
 30
0.0
  0
SPLINE
  5
39426
330
1F
100
AcDbEntity
  8
SEIHIN
  6
Continuous
 62
     3
100
AcDbSpline
210
0.0
220
0.0
230
1.0
 70
     8
 71
     3
 72
    15
 73
    11
 74
     0
 42
0.0000000001
 43
0.0000000001
 40
0.0
 40
0.0
 40
0.0
 40
0.0
 40
0.1138850630658504
 40
0.1973102544984322
 40
0.2733028649941893
 40
0.3490420412169807
 40
0.4437349573958062
 40
0.6300352334396067
 40
0.8489417933825261
 40
0.9999999999999998
 40
0.9999999999999998
 40
0.9999999999999998
 40
0.9999999999999998
 10
27560.79207723696
 20
-3957.694396789526
 30
0.0
 10
27560.93377030892
 20
-3957.677426998068
 30
0.0
 10
27561.17925900898
 20
-3957.648026181306
 30
0.0
 10
27561.46308060611
 20
-3957.46302074985
 30
0.0
 10
27561.64710828748
 20
-3957.264119475683
 30
0.0
 10
27561.77166975021
 20
-3957.049367465828
 30
0.0
 10
27561.87634605868
 20
-3956.773128592155
 30
0.0
 10
27561.96592038612
 20
-3956.376196460801
 30
0.0
 10
27562.04741872358
 20
-3955.792377498655
 30
0.0
 10
27562.08161296499
 20
-3955.337200934178
 30
0.0
 10
27562.09557462094
 20
-3955.151350383696
 30
0.0
  0
ARC
  5
39427
330
1F
100
AcDbEntity
  8
SEIHIN
  6
Continuous
 62
     3
100
AcDbCircle
 10
27222.78097568997
 20
-3928.694396789525
 30
0.0
 40
1.000000000000013
100
AcDbArc
 50
270.0
 51
356.3624741295921
  0
ARC
  5
39428
330
1F
100
AcDbEntity
  8
SEIHIN
  6
Continuous
 62
     3
100
AcDbCircle
 10
27222.78097568997
 20
-3933.694396789525
 30
0.0
 40
1.000000000000007
100
AcDbArc
 50
3.641973731906343
 51
90.0
  0
LINE
  5
39429
330
1F
100
AcDbEntity
  8
SEIHIN
  6
Continuous
 62
     3
100
AcDbLine
 10
27225.15784630326
 20
-3907.238219938585
 30
0.0
 11
27223.7789291411
 21
-3928.75834137019
 31
0.0
  0
LINE
  5
3942A
330
1F
100
AcDbEntity
  8
SEIHIN
  6
Continuous
 62
     3
100
AcDbLine
 10
27223.7789291411
 20
-3933.630452208861
 30
0.0
 11
27225.15784630326
 21
-3955.150573640465
 31
0.0
  0
SPLINE
  5
3942B
330
1F
100
AcDbEntity
  8
SEIHIN
  6
Continuous
 62
     3
100
AcDbSpline
210
0.0
220
0.0
230
1.0
 70
     8
 71
     3
 72
    15
 73
    11
 74
     0
 42
0.0000000001
 43
0.0000000001
 40
0.0
 40
0.0
 40
0.0
 40
0.0
 40
0.1141630812712358
 40
0.1976207805002936
 40
0.2735349921248831
 40
0.3489582222109466
 40
0.4425814465346381
 40
0.6270480955772099
 40
0.8462098298725255
 40
1.0
 40
1.0
 40
1.0
 40
1.0
 10
27226.4586365475
 20
-3904.694396789525
 30
0.0
 10
27226.31692303913
 20
-3904.711373239205
 30
0.0
 10
27226.07161138653
 20
-3904.740760140809
 30
0.0
 10
27225.78805758042
 20
-3904.925608790311
 30
0.0
 10
27225.60433876486
 20
-3905.124149517739
 30
0.0
 10
27225.48024686554
 20
-3905.338123337187
 30
0.0
 10
27225.376225933
 20
-3905.612668880356
 30
0.0
 10
27225.28731832479
 20
-3906.007074238911
 30
0.0
 10
27225.20599467153
 20
-3906.59119660665
 30
0.0
 10
27225.17190393432
 20
-3907.049311869337
 30
0.0
 10
27225.15784630326
 20
-3907.238219938585
 30
0.0
  0
SPLINE
  5
3942C
330
1F
100
AcDbEntity
  8
SEIHIN
  6
Continuous
 62
     3
100
AcDbSpline
210
0.0
220
0.0
230
1.0
 70
     8
 71
     3
 72
    14
 73
    10
 74
     0
 42
0.0000000001
 43
0.0000000001
 40
0.0
 40
0.0
 40
0.0
 40
0.0
 40
0.1145093864936438
 40
0.3396604311580527
 40
0.5827078740645716
 40
0.7167630183419127
 40
0.8229883170654439
 40
0.9220537529660454
 40
1.0
 40
1.0
 40
1.0
 40
1.0
 10
27225.15784630326
 20
-3955.150573640465
 30
0.0
 10
27225.16791592964
 20
-3955.291359492491
 30
0.0
 10
27225.19778469185
 20
-3955.70896179274
 30
0.0
 10
27225.28053286231
 20
-3956.349848119179
 30
0.0
 10
27225.37763540443
 20
-3956.811313569789
 30
0.0
 10
27225.55291067107
 20
-3957.212466016282
 30
0.0
 10
27225.82764516528
 20
-3957.506609024525
 30
0.0
 10
27226.14372614363
 20
-3957.668154661981
 30
0.0
 10
27226.36236151053
 20
-3957.686373993935
 30
0.0
 10
27226.4586365475
 20
-3957.694396789526
 30
0.0
  0
ARC
  5
3942D
330
1F
100
AcDbEntity
  8
SEIHIN
  6
Continuous
 62
     3
100
AcDbCircle
 10
27549.13178671829
 20
-3928.694396789525
 30
0.0
 40
1.000000000000271
100
AcDbArc
 50
183.1650731944385
 51
270.0
  0
ARC
  5
3942E
330
1F
100
AcDbEntity
  8
SEIHIN
  6
Continuous
 62
     3
100
AcDbCircle
 10
27549.13178671829
 20
-3933.694396789525
 30
0.0
 40
1.0
100
AcDbArc
 50
90.0
 51
176.7631467482386
  0
LINE
  5
3942F
330
1F
100
AcDbEntity
  8
SEIHIN
  6
Continuous
 62
     3
100
AcDbLine
 10
27548.13383326716
 20
-3928.75834137019
 30
0.0
 11
27546.754916105
 21
-3907.238219938585
 31
0.0
  0
LINE
  5
39430
330
1F
100
AcDbEntity
  8
SEIHIN
  6
Continuous
 62
     3
100
AcDbLine
 10
27546.754916105
 20
-3955.150573640465
 30
0.0
 11
27548.13383326716
 21
-3933.630452208861
 31
0.0
  0
SPLINE
  5
39431
330
1F
100
AcDbEntity
  8
SEIHIN
  6
Continuous
 62
     3
100
AcDbSpline
210
0.0
220
0.0
230
1.0
 70
     8
 71
     3
 72
    14
 73
    10
 74
     0
 42
0.0000000001
 43
0.0000000001
 40
0.0
 40
0.0
 40
0.0
 40
0.0
 40
0.1145093864942972
 40
0.3396604311599087
 40
0.5827078740677987
 40
0.7167630183447682
 40
0.8229883170672373
 40
0.9220537529681626
 40
0.9999999999999998
 40
0.9999999999999998
 40
0.9999999999999998
 40
0.9999999999999998
 10
27546.754916105
 20
-3907.238219938585
 30
0.0
 10
27546.74484647863
 20
-3907.097434086559
 30
0.0
 10
27546.71497771641
 20
-3906.679831786311
 30
0.0
 10
27546.63222954595
 20
-3906.038945459872
 30
0.0
 10
27546.53512700383
 20
-3905.577480009262
 30
0.0
 10
27546.3598517372
 20
-3905.176327562772
 30
0.0
 10
27546.08511724299
 20
-3904.882184554531
 30
0.0
 10
27545.76903626465
 20
-3904.720638917073
 30
0.0
 10
27545.55040089775
 20
-3904.702419585117
 30
0.0
 10
27545.45412586078
 20
-3904.694396789525
 30
0.0
  0
SPLINE
  5
39432
330
1F
100
AcDbEntity
  8
SEIHIN
  6
Continuous
 62
     3
100
AcDbSpline
210
0.0
220
0.0
230
1.0
 70
     8
 71
     3
 72
    15
 73
    11
 74
     0
 42
0.0000000001
 43
0.0000000001
 40
0.0
 40
0.0
 40
0.0
 40
0.0
 40
0.1141630812721348
 40
0.1976207805007696
 40
0.2735349921255306
 40
0.3489582222123202
 40
0.4425814465391164
 40
0.6270480955897493
 40
0.8462098298854087
 40
0.9999999999999998
 40
0.9999999999999998
 40
0.9999999999999998
 40
0.9999999999999998
 10
27545.45412586078
 20
-3957.694396789526
 30
0.0
 10
27545.59583936916
 20
-3957.677420339842
 30
0.0
 10
27545.84115102175
 20
-3957.648033438234
 30
0.0
 10
27546.12470482785
 20
-3957.463184788728
 30
0.0
 10
27546.30842364341
 20
-3957.264644061297
 30
0.0
 10
27546.43251554273
 20
-3957.050670241848
 30
0.0
 10
27546.53653647527
 20
-3956.776124698673
 30
0.0
 10
27546.62544408348
 20
-3956.381719340107
 30
0.0
 10
27546.70676773674
 20
-3955.797596972366
 30
0.0
 10
27546.74085847394
 20
-3955.339481709696
 30
0.0
 10
27546.754916105
 20
-3955.150573640465
 30
0.0
  0
ARC
  5
39433
330
1F
100
AcDbEntity
  8
SEIHIN
  6
Continuous
 62
     3
100
AcDbCircle
 10
27185.65214390344
 20
-3862.194396789525
 30
0.0
 40
1.000000000000227
100
AcDbArc
 50
0.0
 51
90.0
  0
ARC
  5
39434
330
1F
100
AcDbEntity
  8
SEIHIN
  6
Continuous
 62
     3
100
AcDbCircle
 10
27184.15102574835
 20
-3862.194396789525
 30
0.0
 40
1.0
100
AcDbArc
 50
90.0
 51
179.999999999987
  0
LINE
  5
39435
330
1F
100
AcDbEntity
  8
SEIHIN
  6
Continuous
 62
     3
100
AcDbLine
 10
27184.65102574835
 20
-3861.194396789525
 30
0.0
 11
27184.15102574835
 21
-3861.194396789525
 31
0.0
  0
LINE
  5
39436
330
1F
100
AcDbEntity
  8
SEIHIN
  6
Continuous
 62
     3
100
AcDbLine
 10
27185.65214390344
 20
-3861.194396789525
 30
0.0
 11
27184.65102574835
 21
-3861.194396789525
 31
0.0
  0
LINE
  5
39437
330
1F
100
AcDbEntity
  8
SEIHIN
  6
Continuous
 62
     3
100
AcDbLine
 10
27186.65214390345
 20
-3901.194396789525
 30
0.0
 11
27186.65214390345
 21
-3862.194396789525
 31
0.0
  0
LINE
  5
39438
330
1F
100
AcDbEntity
  8
SEIHIN
  6
Continuous
 62
     3
100
AcDbLine
 10
27185.65214390344
 20
-3901.194396789525
 30
0.0
 11
27200.30801105353
 21
-3901.194396789525
 31
0.0
  0
LINE
  5
39439
330
1F
100
AcDbEntity
  8
SEIHIN
  6
Continuous
 62
     3
100
AcDbLine
 10
27185.65214390344
 20
-3961.194396789525
 30
0.0
 11
27200.30801105353
 21
-3961.194396789525
 31
0.0
  0
LINE
  5
3943A
330
1F
100
AcDbEntity
  8
SEIHIN
  6
Continuous
 62
     3
100
AcDbLine
 10
27183.15102574835
 20
-4000.194396789525
 30
0.0
 11
27183.15102574835
 21
-3862.194396789525
 31
0.0
  0
LINE
  5
3943B
330
1F
100
AcDbEntity
  8
SEIHIN
  6
Continuous
 62
     3
100
AcDbLine
 10
27200.97063110175
 20
-3901.194396789525
 30
0.0
 11
27200.97063110175
 21
-3961.194396789525
 31
0.0
  0
LINE
  5
3943C
330
1F
100
AcDbEntity
  8
SEIHIN
  6
Continuous
 62
     3
100
AcDbLine
 10
27200.97063110175
 20
-3961.194396789525
 30
0.0
 11
27200.30801105353
 21
-3961.194396789525
 31
0.0
  0
LINE
  5
3943D
330
1F
100
AcDbEntity
  8
SEIHIN
  6
Continuous
 62
     3
100
AcDbLine
 10
27200.97063110175
 20
-3901.194396789525
 30
0.0
 11
27200.30801105353
 21
-3901.194396789525
 31
0.0
  0
LINE
  5
3943E
330
1F
100
AcDbEntity
  8
SEIHIN
  6
Continuous
 62
     3
100
AcDbLine
 10
27186.65214390345
 20
-3961.194396789525
 30
0.0
 11
27186.65214390345
 21
-4000.194396789525
 31
0.0
  0
LINE
  5
3943F
330
1F
100
AcDbEntity
  8
SEIHIN
  6
Continuous
 62
     3
100
AcDbLine
 10
27184.65102574835
 20
-4001.194396789524
 30
0.0
 11
27184.15102574835
 21
-4001.194396789524
 31
0.0
  0
ARC
  5
39440
330
1F
100
AcDbEntity
  8
SEIHIN
  6
Continuous
 62
     3
100
AcDbCircle
 10
27184.15102574835
 20
-4000.194396789525
 30
0.0
 40
1.0
100
AcDbArc
 50
179.999999999987
 51
270.0
  0
ARC
  5
39441
330
1F
100
AcDbEntity
  8
SEIHIN
  6
Continuous
 62
     3
100
AcDbCircle
 10
27185.65214390344
 20
-4000.194396789525
 30
0.0
 40
1.000000000000227
100
AcDbArc
 50
270.0
 51
0.0
  0
LINE
  5
39442
330
1F
100
AcDbEntity
  8
SEIHIN
  6
Continuous
 62
     3
100
AcDbLine
 10
27185.65214390344
 20
-4001.194396789524
 30
0.0
 11
27184.65102574835
 21
-4001.194396789524
 31
0.0
  0
LINE
  5
39443
330
1F
100
AcDbEntity
  8
SEIHIN
  6
Continuous
 62
     3
100
AcDbLine
 10
27200.97063110175
 20
-3961.194396789525
 30
0.0
 11
27205.75427470406
 21
-3961.194396789525
 31
0.0
  0
LINE
  5
39444
330
1F
100
AcDbEntity
  8
SEIHIN
  6
Continuous
 62
     3
100
AcDbLine
 10
27200.97063110175
 20
-3901.194396789525
 30
0.0
 11
27205.75427470406
 21
-3901.194396789525
 31
0.0
  0
LINE
  5
39445
330
1F
100
AcDbEntity
  8
SEIHIN
  6
Continuous
 62
     3
100
AcDbLine
 10
27206.09165465585
 20
-3961.194396789525
 30
0.0
 11
27205.75427470406
 21
-3961.194396789525
 31
0.0
  0
LINE
  5
39446
330
1F
100
AcDbEntity
  8
SEIHIN
  6
Continuous
 62
     3
100
AcDbLine
 10
27206.09165465585
 20
-3901.194396789525
 30
0.0
 11
27205.75427470406
 21
-3901.194396789525
 31
0.0
  0
LINE
  5
39447
330
1F
100
AcDbEntity
  8
SEIHIN
  6
Continuous
 62
     3
100
AcDbLine
 10
27187.45214390344
 20
-3861.194396789525
 30
0.0
 11
27185.65214390344
 21
-3861.194396789525
 31
0.0
  0
LINE
  5
39448
330
1F
100
AcDbEntity
  8
SEIHIN
  6
Continuous
 62
     3
100
AcDbLine
 10
27187.45214390344
 20
-4001.194396789524
 30
0.0
 11
27185.65214390344
 21
-4001.194396789524
 31
0.0
  0
LINE
  5
39449
330
1F
100
AcDbEntity
  8
SEIHIN
  6
Continuous
 62
     3
100
AcDbLine
 10
27206.89440821501
 20
-3929.694396789523
 30
0.0
 11
27207.44910830311
 21
-3907.10604838411
 31
0.0
  0
LINE
  5
3944A
330
1F
100
AcDbEntity
  8
SEIHIN
  6
Continuous
 62
     3
100
AcDbLine
 10
27206.89440821501
 20
-3932.694396789528
 30
0.0
 11
27207.44910830311
 21
-3955.28274519494
 31
0.0
  0
LINE
  5
3944B
330
1F
100
AcDbEntity
  8
SEIHIN
  6
Continuous
 62
     3
100
AcDbLine
 10
27206.89440821501
 20
-3932.694396789528
 30
0.0
 11
27206.89440821501
 21
-3929.694396789523
 31
0.0
  0
ELLIPSE
  5
3944C
330
1F
100
AcDbEntity
  8
SEIHIN
  6
Continuous
 62
     3
100
AcDbEllipse
 10
27200.97213382316
 20
-3862.194396789525
 30
0.0
 11
0.0
 21
1.0
 31
0.0
210
0.0
220
0.0
230
1.0
 40
0.8847252645559819
 41
5.436700619962116
 42
6.283185307179586
  0
LINE
  5
3944D
330
1F
100
AcDbEntity
  8
SEIHIN
  6
Continuous
 62
     3
100
AcDbLine
 10
27200.97213382316
 20
-3861.194396789525
 30
0.0
 11
27187.45214390344
 21
-3861.194396789525
 31
0.0
  0
ELLIPSE
  5
3944E
330
1F
100
AcDbEntity
  8
SEIHIN
  6
Continuous
 62
     3
100
AcDbEllipse
 10
27200.97213382316
 20
-3862.194396789525
 30
0.0
 11
0.7489557207891266
 21
-0.7489557207890128
 31
0.0
210
0.0
220
0.0
230
0.9999999999999998
 40
0.884725264555853
 41
0.8464846872172259
 42
1.570796326794449
  0
ELLIPSE
  5
3944F
330
1F
100
AcDbEntity
  8
SEIHIN
  6
Continuous
 62
     3
100
AcDbEllipse
 10
27207.81030880619
 20
-3907.694396789525
 30
0.0
 11
0.0
 21
3.0
 31
0.0
210
0.0
220
0.0
230
1.0
 40
0.1227845609029525
 41
0.0
 42
1.373400766945007
  0
LINE
  5
39450
330
1F
100
AcDbEntity
  8
SEIHIN
  6
Continuous
 62
     3
100
AcDbLine
 10
27219.33033990336
 20
-3904.694396789525
 30
0.0
 11
27207.81030880619
 21
-3904.694396789525
 31
0.0
  0
ARC
  5
39451
330
1F
100
AcDbEntity
  8
SEIHIN
  6
Continuous
 62
     3
100
AcDbCircle
 10
27214.83430420493
 20
-3906.595235740821
 30
0.0
 40
4.881344663130664
100
AcDbArc
 50
353.9932349997539
 51
22.91772310395888
  0
LINE
  5
39452
330
1F
100
AcDbEntity
  8
SEIHIN
  6
Continuous
 62
     3
100
AcDbLine
 10
27219.68884807266
 20
-3907.10604838411
 30
0.0
 11
27220.23941351042
 21
-3929.694396789524
 31
0.0
  0
LINE
  5
39453
330
1F
100
AcDbEntity
  8
SEIHIN
  6
Continuous
 62
     3
100
AcDbLine
 10
27220.23941351042
 20
-3932.694396789526
 30
0.0
 11
27220.23941351042
 21
-3929.694396789524
 31
0.0
  0
LINE
  5
39454
330
1F
100
AcDbEntity
  8
SEIHIN
  6
Continuous
 62
     3
100
AcDbLine
 10
27219.68884807266
 20
-3955.28274519494
 30
0.0
 11
27220.23941351042
 21
-3932.694396789526
 31
0.0
  0
ARC
  5
39455
330
1F
100
AcDbEntity
  8
SEIHIN
  6
Continuous
 62
     3
100
AcDbCircle
 10
27214.83430420493
 20
-3955.793557838229
 30
0.0
 40
4.881344663131331
100
AcDbArc
 50
337.0822768960412
 51
6.006765000246101
  0
LINE
  5
39456
330
1F
100
AcDbEntity
  8
SEIHIN
  6
Continuous
 62
     3
100
AcDbLine
 10
27219.33033990336
 20
-3957.694396789526
 30
0.0
 11
27207.81030880619
 21
-3957.694396789526
 31
0.0
  0
ELLIPSE
  5
39457
330
1F
100
AcDbEntity
  8
SEIHIN
  6
Continuous
 62
     3
100
AcDbEllipse
 10
27207.81030880619
 20
-3954.694396789525
 30
0.0
 11
0.0
 21
3.0
 31
0.0
210
0.0
220
0.0
230
1.0
 40
0.1227845609029525
 41
1.768191886644785
 42
3.141592653589792
  0
ELLIPSE
  5
39458
330
1F
100
AcDbEntity
  8
SEIHIN
  6
Continuous
 62
     3
100
AcDbEllipse
 10
27200.97213382316
 20
-4000.194396789525
 30
0.0
 11
0.7489557207891267
 21
0.7489557207890698
 31
0.0
210
0.0
220
0.0
230
1.0
 40
0.8847252645558945
 41
4.71238898038519
 42
5.43670061996236
  0
ELLIPSE
  5
39459
330
1F
100
AcDbEntity
  8
SEIHIN
  6
Continuous
 62
     3
100
AcDbEllipse
 10
27200.97213382316
 20
-4000.194396789525
 30
0.0
 11
0.0
 21
1.0
 31
0.0
210
0.0
220
0.0
230
1.0
 40
0.8847252645559819
 41
3.141592653589793
 42
3.988077340807375
  0
LINE
  5
3945A
330
1F
100
AcDbEntity
  8
SEIHIN
  6
Continuous
 62
     3
100
AcDbLine
 10
27200.97213382316
 20
-4001.194396789524
 30
0.0
 11
27187.45214390344
 21
-4001.194396789524
 31
0.0
  0
LINE
  5
3945B
330
1F
100
AcDbEntity
  8
SEIHIN
  6
Continuous
 62
     3
100
AcDbLine
 10
27235.3337720318
 20
-3861.194396789525
 30
0.0
 11
27200.97213382316
 21
-3861.194396789525
 31
0.0
  0
LINE
  5
3945C
330
1F
100
AcDbEntity
  8
SEIHIN
  6
Continuous
 62
     3
100
AcDbLine
 10
27235.3337720318
 20
-4001.194396789524
 30
0.0
 11
27200.97213382316
 21
-4001.194396789524
 31
0.0
  0
LINE
  5
3945D
330
1F
100
AcDbEntity
  8
SEIHIN
  6
Continuous
 62
     3
100
AcDbLine
 10
27207.81030880619
 20
-3904.694396789525
 30
0.0
 11
27207.01518172979
 21
-3904.694396789525
 31
0.0
  0
LINE
  5
3945E
330
1F
100
AcDbEntity
  8
SEIHIN
  6
Continuous
 62
     3
100
AcDbLine
 10
27207.81030880619
 20
-3957.694396789526
 30
0.0
 11
27207.01518172979
 21
-3957.694396789526
 31
0.0
  0
LINE
  5
3945F
330
1F
100
AcDbEntity
  8
SEIHIN
  6
Continuous
 62
     3
100
AcDbLine
 10
27583.35399690821
 20
-3846.194396789525
 30
0.0
 11
27582.3539969082
 21
-3846.194396789525
 31
0.0
  0
ARC
  5
39460
330
1F
100
AcDbEntity
  8
SEIHIN
  6
Continuous
 62
     3
100
AcDbCircle
 10
27582.3539969082
 20
-3847.194396789525
 30
0.0
 40
1.0
100
AcDbArc
 50
90.0
 51
180.0
  0
LINE
  5
39461
330
1F
100
AcDbEntity
  8
SEIHIN
  6
Continuous
 62
     3
100
AcDbLine
 10
27568.69360117228
 20
-3961.194396789525
 30
0.0
 11
27582.3539969082
 21
-3961.194396789525
 31
0.0
  0
LINE
  5
39462
330
1F
100
AcDbEntity
  8
SEIHIN
  6
Continuous
 62
     3
100
AcDbLine
 10
27568.69360117228
 20
-3901.194396789525
 30
0.0
 11
27582.3539969082
 21
-3901.194396789525
 31
0.0
  0
LINE
  5
39463
330
1F
100
AcDbEntity
  8
SEIHIN
  6
Continuous
 62
     3
100
AcDbLine
 10
27584.85399690821
 20
-3847.194396789525
 30
0.0
 11
27584.85399690821
 21
-4015.194396789524
 31
0.0
  0
LINE
  5
39464
330
1F
100
AcDbEntity
  8
SEIHIN
  6
Continuous
 62
     3
100
AcDbLine
 10
27581.35399690821
 20
-3847.194396789525
 30
0.0
 11
27581.35399690821
 21
-3901.194396789525
 31
0.0
  0
LINE
  5
39465
330
1F
100
AcDbEntity
  8
SEIHIN
  6
Continuous
 62
     3
100
AcDbLine
 10
27583.8539969082
 20
-3846.194396789525
 30
0.0
 11
27583.35399690821
 21
-3846.194396789525
 31
0.0
  0
ARC
  5
39466
330
1F
100
AcDbEntity
  8
SEIHIN
  6
Continuous
 62
     3
100
AcDbCircle
 10
27583.8539969082
 20
-3847.194396789525
 30
0.0
 40
1.0
100
AcDbArc
 50
0.0
 51
90.0
  0
LINE
  5
39467
330
1F
100
AcDbEntity
  8
SEIHIN
  6
Continuous
 62
     3
100
AcDbLine
 10
27568.0307519662
 20
-3961.194396789525
 30
0.0
 11
27568.0307519662
 21
-3901.194396789525
 31
0.0
  0
LINE
  5
39468
330
1F
100
AcDbEntity
  8
SEIHIN
  6
Continuous
 62
     3
100
AcDbLine
 10
27568.69360117228
 20
-3961.194396789525
 30
0.0
 11
27568.0307519662
 21
-3961.194396789525
 31
0.0
  0
LINE
  5
39469
330
1F
100
AcDbEntity
  8
SEIHIN
  6
Continuous
 62
     3
100
AcDbLine
 10
27568.69360117228
 20
-3901.194396789525
 30
0.0
 11
27568.0307519662
 21
-3901.194396789525
 31
0.0
  0
LINE
  5
3946A
330
1F
100
AcDbEntity
  8
SEIHIN
  6
Continuous
 62
     3
100
AcDbLine
 10
27581.35399690821
 20
-4015.194396789524
 30
0.0
 11
27581.35399690821
 21
-3961.194396789525
 31
0.0
  0
LINE
  5
3946B
330
1F
100
AcDbEntity
  8
SEIHIN
  6
Continuous
 62
     3
100
AcDbLine
 10
27583.35399690821
 20
-4016.194396789525
 30
0.0
 11
27582.3539969082
 21
-4016.194396789525
 31
0.0
  0
ARC
  5
3946C
330
1F
100
AcDbEntity
  8
SEIHIN
  6
Continuous
 62
     3
100
AcDbCircle
 10
27583.8539969082
 20
-4015.194396789524
 30
0.0
 40
1.0
100
AcDbArc
 50
270.0
 51
0.0
  0
LINE
  5
3946D
330
1F
100
AcDbEntity
  8
SEIHIN
  6
Continuous
 62
     3
100
AcDbLine
 10
27583.8539969082
 20
-4016.194396789525
 30
0.0
 11
27583.35399690821
 21
-4016.194396789525
 31
0.0
  0
ARC
  5
3946E
330
1F
100
AcDbEntity
  8
SEIHIN
  6
Continuous
 62
     3
100
AcDbCircle
 10
27582.3539969082
 20
-4015.194396789524
 30
0.0
 40
1.0
100
AcDbArc
 50
180.0
 51
270.0
  0
LINE
  5
3946F
330
1F
100
AcDbEntity
  8
SEIHIN
  6
Continuous
 62
     3
100
AcDbLine
 10
27563.24997225358
 20
-3961.194396789525
 30
0.0
 11
27568.0307519662
 21
-3961.194396789525
 31
0.0
  0
LINE
  5
39470
330
1F
100
AcDbEntity
  8
SEIHIN
  6
Continuous
 62
     3
100
AcDbLine
 10
27563.24997225358
 20
-3901.194396789525
 30
0.0
 11
27568.0307519662
 21
-3901.194396789525
 31
0.0
  0
LINE
  5
39471
330
1F
100
AcDbEntity
  8
SEIHIN
  6
Continuous
 62
     3
100
AcDbLine
 10
27563.24997225358
 20
-3961.194396789525
 30
0.0
 11
27562.91282145965
 21
-3961.194396789525
 31
0.0
  0
LINE
  5
39472
330
1F
100
AcDbEntity
  8
SEIHIN
  6
Continuous
 62
     3
100
AcDbLine
 10
27563.24997225358
 20
-3901.194396789525
 30
0.0
 11
27562.91282145965
 21
-3901.194396789525
 31
0.0
  0
LINE
  5
39473
330
1F
100
AcDbEntity
  8
SEIHIN
  6
Continuous
 62
     3
100
AcDbLine
 10
27582.3539969082
 20
-3846.194396789525
 30
0.0
 11
27580.74508993751
 21
-3846.194396789525
 31
0.0
  0
LINE
  5
39474
330
1F
100
AcDbEntity
  8
SEIHIN
  6
Continuous
 62
     3
100
AcDbLine
 10
27582.3539969082
 20
-4016.194396789525
 30
0.0
 11
27580.74508993751
 21
-4016.194396789525
 31
0.0
  0
LINE
  5
39475
330
1F
100
AcDbEntity
  8
SEIHIN
  6
Continuous
 62
     3
100
AcDbLine
 10
27560.35815066364
 20
-3907.10604838411
 30
0.0
 11
27560.91285075174
 21
-3929.694396789524
 31
0.0
  0
LINE
  5
39476
330
1F
100
AcDbEntity
  8
SEIHIN
  6
Continuous
 62
     3
100
AcDbLine
 10
27560.35815066364
 20
-3955.28274519494
 30
0.0
 11
27560.91285075174
 21
-3932.694396789526
 31
0.0
  0
ELLIPSE
  5
39477
330
1F
100
AcDbEntity
  8
SEIHIN
  6
Continuous
 62
     3
100
AcDbEllipse
 10
27566.83512514359
 20
-3847.194396789525
 30
0.0
 11
0.7489557207886719
 21
0.7489557207885582
 31
0.0
210
0.0
220
0.0
230
1.0
 40
0.8847252645556304
 41
1.570796326796481
 42
2.295107966372442
  0
ELLIPSE
  5
39478
330
1F
100
AcDbEntity
  8
SEIHIN
  6
Continuous
 62
     3
100
AcDbEllipse
 10
27566.83512514359
 20
-4015.194396789524
 30
0.0
 11
-0.7489557207884447
 21
0.7489557207885582
 31
0.0
210
0.0
220
0.0
230
0.9999999999999998
 40
0.8847252645561061
 41
0.8464846872172339
 42
1.570796326793407
  0
LINE
  5
39479
330
1F
100
AcDbEntity
  8
SEIHIN
  6
Continuous
 62
     3
100
AcDbLine
 10
27560.91285075174
 20
-3932.694396789526
 30
0.0
 11
27560.91285075174
 21
-3929.694396789524
 31
0.0
  0
ELLIPSE
  5
3947A
330
1F
100
AcDbEntity
  8
SEIHIN
  6
Continuous
 62
     3
100
AcDbEllipse
 10
27566.83512514359
 20
-3847.194396789525
 30
0.0
 11
0.0
 21
1.0
 31
0.0
210
0.0
220
0.0
230
1.0
 40
0.8847252645559819
 41
0.0
 42
0.8464846872185905
  0
LINE
  5
3947B
330
1F
100
AcDbEntity
  8
SEIHIN
  6
Continuous
 62
     3
100
AcDbLine
 10
27580.74508993751
 20
-3846.194396789525
 30
0.0
 11
27566.83512514359
 21
-3846.194396789525
 31
0.0
  0
ELLIPSE
  5
3947C
330
1F
100
AcDbEntity
  8
SEIHIN
  6
Continuous
 62
     3
100
AcDbEllipse
 10
27566.83512514359
 20
-4015.194396789524
 30
0.0
 11
0.0
 21
1.0
 31
0.0
210
0.0
220
0.0
230
1.0
 40
0.8847252645559819
 41
2.29510796637116
 42
3.141592653589793
  0
LINE
  5
3947D
330
1F
100
AcDbEntity
  8
SEIHIN
  6
Continuous
 62
     3
100
AcDbLine
 10
27580.74508993751
 20
-4016.194396789525
 30
0.0
 11
27566.83512514359
 21
-4016.194396789525
 31
0.0
  0
ARC
  5
3947E
330
1F
100
AcDbEntity
  8
SEIHIN
  6
Continuous
 62
     3
100
AcDbCircle
 10
27557.07845820332
 20
-3955.79355783823
 30
0.0
 40
4.881344663121535
100
AcDbArc
 50
173.993234999728
 51
202.9177231039829
  0
LINE
  5
3947F
330
1F
100
AcDbEntity
  8
SEIHIN
  6
Continuous
 62
     3
100
AcDbLine
 10
27551.67334889784
 20
-3932.694396789524
 30
0.0
 11
27552.22391433559
 21
-3955.28274519494
 31
0.0
  0
LINE
  5
39480
330
1F
100
AcDbEntity
  8
SEIHIN
  6
Continuous
 62
     3
100
AcDbLine
 10
27551.67334889784
 20
-3932.694396789524
 30
0.0
 11
27551.67334889784
 21
-3929.694396789526
 31
0.0
  0
LINE
  5
39481
330
1F
100
AcDbEntity
  8
SEIHIN
  6
Continuous
 62
     3
100
AcDbLine
 10
27551.67334889784
 20
-3929.694396789526
 30
0.0
 11
27552.22391433559
 21
-3907.10604838411
 31
0.0
  0
ARC
  5
39482
330
1F
100
AcDbEntity
  8
SEIHIN
  6
Continuous
 62
     3
100
AcDbCircle
 10
27557.07845820332
 20
-3906.59523574082
 30
0.0
 40
4.881344663121087
100
AcDbArc
 50
157.0822768960051
 51
186.006765000272
  0
LINE
  5
39483
330
1F
100
AcDbEntity
  8
SEIHIN
  6
Continuous
 62
     3
100
AcDbLine
 10
27552.5824225049
 20
-3904.694396789525
 30
0.0
 11
27559.99695016056
 21
-3904.694396789525
 31
0.0
  0
ELLIPSE
  5
39484
330
1F
100
AcDbEntity
  8
SEIHIN
  6
Continuous
 62
     3
100
AcDbEllipse
 10
27559.99695016056
 20
-3907.694396789525
 30
0.0
 11
0.0
 21
3.0
 31
0.0
210
0.0
220
0.0
230
1.0
 40
0.1227845609028767
 41
4.909784540234344
 42
6.283185307179586
  0
ELLIPSE
  5
39485
330
1F
100
AcDbEntity
  8
SEIHIN
  6
Continuous
 62
     3
100
AcDbEllipse
 10
27559.99695016056
 20
-3954.694396789525
 30
0.0
 11
0.0
 21
3.0
 31
0.0
210
0.0
220
0.0
230
1.0
 40
0.1227845609029525
 41
3.141592653589792
 42
4.514993420534927
  0
LINE
  5
39486
330
1F
100
AcDbEntity
  8
SEIHIN
  6
Continuous
 62
     3
100
AcDbLine
 10
27552.5824225049
 20
-3957.694396789526
 30
0.0
 11
27559.99695016056
 21
-3957.694396789526
 31
0.0
  0
LINE
  5
39487
330
1F
100
AcDbEntity
  8
SEIHIN
  6
Continuous
 62
     3
100
AcDbLine
 10
27566.83512514359
 20
-3846.194396789525
 30
0.0
 11
27538.6127149801
 21
-3846.194396789525
 31
0.0
  0
LINE
  5
39488
330
1F
100
AcDbEntity
  8
SEIHIN
  6
Continuous
 62
     3
100
AcDbLine
 10
27566.83512514359
 20
-4016.194396789525
 30
0.0
 11
27538.6127149801
 21
-4016.194396789525
 31
0.0
  0
LINE
  5
39489
330
1F
100
AcDbEntity
  8
SEIHIN
  6
Continuous
 62
     3
100
AcDbLine
 10
27560.79207723696
 20
-3904.694396789525
 30
0.0
 11
27559.99695016056
 21
-3904.694396789525
 31
0.0
  0
LINE
  5
3948A
330
1F
100
AcDbEntity
  8
SEIHIN
  6
Continuous
 62
     3
100
AcDbLine
 10
27560.79207723696
 20
-3957.694396789526
 30
0.0
 11
27559.99695016056
 21
-3957.694396789526
 31
0.0
  0
LINE
  5
3948B
330
1F
100
AcDbEntity
  8
SEIHIN
  6
Continuous
 62
     3
100
AcDbLine
 10
27220.23941351042
 20
-3929.694396789525
 30
0.0
 11
27223.11150353894
 21
-3929.694396789525
 31
0.0
  0
LINE
  5
3948C
330
1F
100
AcDbEntity
  8
SEIHIN
  6
Continuous
 62
     3
100
AcDbLine
 10
27220.23941351042
 20
-3932.694396789525
 30
0.0
 11
27223.11150353894
 21
-3932.694396789525
 31
0.0
  0
LINE
  5
3948D
330
1F
100
AcDbEntity
  8
SEIHIN
  6
Continuous
 62
     3
100
AcDbLine
 10
27548.80125886932
 20
-3929.694396789525
 30
0.0
 11
27551.67334889784
 21
-3929.694396789525
 31
0.0
  0
LINE
  5
3948E
330
1F
100
AcDbEntity
  8
SEIHIN
  6
Continuous
 62
     3
100
AcDbLine
 10
27548.80125886932
 20
-3932.694396789525
 30
0.0
 11
27551.67334889784
 21
-3932.694396789525
 31
0.0
  0
LINE
  5
3948F
330
1F
100
AcDbEntity
  8
SEIHIN
  6
Continuous
 62
     3
100
AcDbLine
 10
27224.22061679314
 20
-3932.694396789525
 30
0.0
 11
27223.78136990771
 21
-3932.694396789525
 31
0.0
  0
LINE
  5
39490
330
1F
100
AcDbEntity
  8
SEIHIN
  6
Continuous
 62
     3
100
AcDbLine
 10
27224.22061679314
 20
-3929.694396789525
 30
0.0
 11
27223.78136990771
 21
-3929.694396789525
 31
0.0
  0
LINE
  5
39491
330
1F
100
AcDbEntity
  8
SEIHIN
  6
Continuous
 62
     3
100
AcDbLine
 10
27225.34033175531
 20
-3929.694396789525
 30
0.0
 11
27224.22061679314
 21
-3929.694396789525
 31
0.0
  0
LINE
  5
39492
330
1F
100
AcDbEntity
  8
SEIHIN
  6
Continuous
 62
     3
100
AcDbLine
 10
27225.34033175531
 20
-3932.694396789525
 30
0.0
 11
27224.22061679314
 21
-3932.694396789525
 31
0.0
  0
LINE
  5
39493
330
1F
100
AcDbEntity
  8
SEIHIN
  6
Continuous
 62
     3
100
AcDbLine
 10
27223.78136990771
 20
-3929.694396789525
 30
0.0
 11
27223.11150353894
 21
-3929.694396789525
 31
0.0
  0
LINE
  5
39494
330
1F
100
AcDbEntity
  8
SEIHIN
  6
Continuous
 62
     3
100
AcDbLine
 10
27223.78136990771
 20
-3932.694396789525
 30
0.0
 11
27223.11150353894
 21
-3932.694396789525
 31
0.0
  0
ARC
  5
39495
330
1F
100
AcDbEntity
  8
SEIHIN
  6
Continuous
 62
     3
100
AcDbCircle
 10
27231.73798998616
 20
-3955.793557838229
 30
0.0
 40
4.881344663128213
100
AcDbArc
 50
173.9932349997409
 51
202.9177231039709
  0
LINE
  5
39496
330
1F
100
AcDbEntity
  8
SEIHIN
  6
Continuous
 62
     3
100
AcDbLine
 10
27226.33288068068
 20
-3932.694396789524
 30
0.0
 11
27226.88344611843
 21
-3955.28274519494
 31
0.0
  0
LINE
  5
39497
330
1F
100
AcDbEntity
  8
SEIHIN
  6
Continuous
 62
     3
100
AcDbLine
 10
27226.33288068068
 20
-3932.694396789524
 30
0.0
 11
27226.33288068068
 21
-3929.694396789526
 31
0.0
  0
LINE
  5
39498
330
1F
100
AcDbEntity
  8
SEIHIN
  6
Continuous
 62
     3
100
AcDbLine
 10
27226.33288068068
 20
-3929.694396789526
 30
0.0
 11
27226.88344611843
 21
-3907.10604838411
 31
0.0
  0
ARC
  5
39499
330
1F
100
AcDbEntity
  8
SEIHIN
  6
Continuous
 62
     3
100
AcDbCircle
 10
27231.73798998616
 20
-3906.595235740821
 30
0.0
 40
4.881344663127559
100
AcDbArc
 50
157.0822768960291
 51
186.0067650002591
  0
LINE
  5
3949A
330
1F
100
AcDbEntity
  8
SEIHIN
  6
Continuous
 62
     3
100
AcDbLine
 10
27239.46224420191
 20
-3904.694396789525
 30
0.0
 11
27227.24195428773
 21
-3904.694396789525
 31
0.0
  0
LINE
  5
3949B
330
1F
100
AcDbEntity
  8
SEIHIN
  6
Continuous
 62
     3
100
AcDbLine
 10
27239.46224420191
 20
-3957.694396789526
 30
0.0
 11
27227.24195428773
 21
-3957.694396789526
 31
0.0
  0
LINE
  5
3949C
330
1F
100
AcDbEntity
  8
SEIHIN
  6
Continuous
 62
     3
100
AcDbLine
 10
27225.34033175531
 20
-3929.694396789525
 30
0.0
 11
27226.33288068068
 21
-3929.694396789526
 31
0.0
  0
LINE
  5
3949D
330
1F
100
AcDbEntity
  8
SEIHIN
  6
Continuous
 62
     3
100
AcDbLine
 10
27225.34033175531
 20
-3932.694396789525
 30
0.0
 11
27226.33288068068
 21
-3932.694396789524
 31
0.0
  0
LINE
  5
3949E
330
1F
100
AcDbEntity
  8
SEIHIN
  6
Continuous
 62
     3
100
AcDbLine
 10
27226.03629703128
 20
-3955.28274519494
 30
0.0
 11
27226.88344611843
 21
-3955.28274519494
 31
0.0
  0
LINE
  5
3949F
330
1F
100
AcDbEntity
  8
SEIHIN
  6
Continuous
 62
     3
100
AcDbLine
 10
27227.24195428773
 20
-3904.694396789525
 30
0.0
 11
27226.4586365475
 21
-3904.694396789525
 31
0.0
  0
LINE
  5
394A0
330
1F
100
AcDbEntity
  8
SEIHIN
  6
Continuous
 62
     3
100
AcDbLine
 10
27227.24195428773
 20
-3957.694396789526
 30
0.0
 11
27226.4586365475
 21
-3957.694396789526
 31
0.0
  0
ELLIPSE
  5
394A1
330
1F
100
AcDbEntity
  8
SEIHIN
  6
Continuous
 62
     3
100
AcDbEllipse
 10
27226.37923285537
 20
-3954.694396789525
 30
0.0
 11
-0.0805994911495418
 21
2.999983942200969
 31
0.0
210
0.0
220
0.0
230
1.0
 40
0.1217827432710103
 41
1.764920005094319
 42
3.138320772039531
  0
LINE
  5
394A2
330
1F
100
AcDbEntity
  8
SEIHIN
  6
Continuous
 62
     3
100
AcDbLine
 10
27548.13139250055
 20
-3932.694396789525
 30
0.0
 11
27547.69214561512
 21
-3932.694396789525
 31
0.0
  0
LINE
  5
394A3
330
1F
100
AcDbEntity
  8
SEIHIN
  6
Continuous
 62
     3
100
AcDbLine
 10
27547.69214561512
 20
-3932.694396789525
 30
0.0
 11
27546.57242787923
 21
-3932.694396789524
 31
0.0
  0
LINE
  5
394A4
330
1F
100
AcDbEntity
  8
SEIHIN
  6
Continuous
 62
     3
100
AcDbLine
 10
27547.69214561512
 20
-3929.694396789525
 30
0.0
 11
27546.57242787923
 21
-3929.694396789526
 31
0.0
  0
LINE
  5
394A5
330
1F
100
AcDbEntity
  8
SEIHIN
  6
Continuous
 62
     3
100
AcDbLine
 10
27548.13139250055
 20
-3929.694396789525
 30
0.0
 11
27547.69214561512
 21
-3929.694396789525
 31
0.0
  0
LINE
  5
394A6
330
1F
100
AcDbEntity
  8
SEIHIN
  6
Continuous
 62
     3
100
AcDbLine
 10
27548.80125886932
 20
-3929.694396789525
 30
0.0
 11
27548.13139250055
 21
-3929.694396789525
 31
0.0
  0
LINE
  5
394A7
330
1F
100
AcDbEntity
  8
SEIHIN
  6
Continuous
 62
     3
100
AcDbLine
 10
27548.80125886932
 20
-3932.694396789525
 30
0.0
 11
27548.13139250055
 21
-3932.694396789525
 31
0.0
  0
LINE
  5
394A8
330
1F
100
AcDbEntity
  8
SEIHIN
  6
Continuous
 62
     3
100
AcDbLine
 10
27545.02931628982
 20
-3955.28274519494
 30
0.0
 11
27545.57988172757
 21
-3932.694396789524
 31
0.0
  0
ARC
  5
394A9
330
1F
100
AcDbEntity
  8
SEIHIN
  6
Continuous
 62
     3
100
AcDbCircle
 10
27540.17477242209
 20
-3955.793557838229
 30
0.0
 40
4.881344663126391
100
AcDbArc
 50
337.0822768960291
 51
6.006765000259058
  0
LINE
  5
394AA
330
1F
100
AcDbEntity
  8
SEIHIN
  6
Continuous
 62
     3
100
AcDbLine
 10
27534.48424280996
 20
-3957.694396789526
 30
0.0
 11
27544.67080812052
 21
-3957.694396789526
 31
0.0
  0
LINE
  5
394AB
330
1F
100
AcDbEntity
  8
SEIHIN
  6
Continuous
 62
     3
100
AcDbLine
 10
27534.48424280996
 20
-3904.694396789525
 30
0.0
 11
27544.67080812052
 21
-3904.694396789525
 31
0.0
  0
ARC
  5
394AC
330
1F
100
AcDbEntity
  8
SEIHIN
  6
Continuous
 62
     3
100
AcDbCircle
 10
27540.17477242209
 20
-3906.595235740821
 30
0.0
 40
4.881344663125499
100
AcDbArc
 50
353.993234999741
 51
22.91772310397088
  0
LINE
  5
394AD
330
1F
100
AcDbEntity
  8
SEIHIN
  6
Continuous
 62
     3
100
AcDbLine
 10
27545.02931628982
 20
-3907.10604838411
 30
0.0
 11
27545.57988172757
 21
-3929.694396789526
 31
0.0
  0
LINE
  5
394AE
330
1F
100
AcDbEntity
  8
SEIHIN
  6
Continuous
 62
     3
100
AcDbLine
 10
27545.57988172757
 20
-3932.694396789524
 30
0.0
 11
27545.57988172757
 21
-3929.694396789526
 31
0.0
  0
LINE
  5
394AF
330
1F
100
AcDbEntity
  8
SEIHIN
  6
Continuous
 62
     3
100
AcDbLine
 10
27545.57988172757
 20
-3929.694396789526
 30
0.0
 11
27546.57242787923
 21
-3929.694396789526
 31
0.0
  0
LINE
  5
394B0
330
1F
100
AcDbEntity
  8
SEIHIN
  6
Continuous
 62
     3
100
AcDbLine
 10
27545.57988172757
 20
-3932.694396789524
 30
0.0
 11
27546.57242787923
 21
-3932.694396789524
 31
0.0
  0
LINE
  5
394B1
330
1F
100
AcDbEntity
  8
SEIHIN
  6
Continuous
 62
     3
100
AcDbLine
 10
27545.45412586076
 20
-3904.694396789525
 30
0.0
 11
27544.67080812052
 21
-3904.694396789525
 31
0.0
  0
LINE
  5
394B2
330
1F
100
AcDbEntity
  8
SEIHIN
  6
Continuous
 62
     3
100
AcDbLine
 10
27545.45412586076
 20
-3957.694396789526
 30
0.0
 11
27544.67080812052
 21
-3957.694396789526
 31
0.0
  0
LINE
  5
394B3
330
1F
100
AcDbEntity
  8
SEIHIN
  6
Continuous
 62
     3
100
AcDbLine
 10
27241.4473365052
 20
-3904.694396789525
 30
0.0
 11
27241.4473365052
 21
-3957.694396789526
 31
0.0
  0
LINE
  5
394B4
330
1F
100
AcDbEntity
  8
SEIHIN
  6
Continuous
 62
     3
100
AcDbLine
 10
27241.4473365052
 20
-3957.694396789526
 30
0.0
 11
27239.46224420191
 21
-3957.694396789526
 31
0.0
  0
LINE
  5
394B5
330
1F
100
AcDbEntity
  8
SEIHIN
  6
Continuous
 62
     3
100
AcDbLine
 10
27241.4473365052
 20
-3904.694396789525
 30
0.0
 11
27239.46224420191
 21
-3904.694396789525
 31
0.0
  0
LINE
  5
394B6
330
1F
100
AcDbEntity
  8
SEIHIN
  6
Continuous
 62
     3
100
AcDbLine
 10
27532.49915050667
 20
-3957.694396789526
 30
0.0
 11
27532.49915050667
 21
-3904.694396789525
 31
0.0
  0
LINE
  5
394B7
330
1F
100
AcDbEntity
  8
SEIHIN
  6
Continuous
 62
     3
100
AcDbLine
 10
27534.48424280996
 20
-3957.694396789526
 30
0.0
 11
27532.49915050667
 21
-3957.694396789526
 31
0.0
  0
LINE
  5
394B8
330
1F
100
AcDbEntity
  8
SEIHIN
  6
Continuous
 62
     3
100
AcDbLine
 10
27534.48424280996
 20
-3904.694396789525
 30
0.0
 11
27532.49915050667
 21
-3904.694396789525
 31
0.0
  0
LINE
  5
394B9
330
1F
100
AcDbEntity
  8
SEIHIN
  6
Continuous
 62
     3
100
AcDbLine
 10
27241.4473365052
 20
-3957.694396789526
 30
0.0
 11
27252.09662993641
 21
-3957.694396789526
 31
0.0
  0
LINE
  5
394BA
330
1F
100
AcDbEntity
  8
SEIHIN
  6
Continuous
 62
     3
100
AcDbLine
 10
27241.4473365052
 20
-3904.694396789525
 30
0.0
 11
27252.09662993641
 21
-3904.694396789525
 31
0.0
  0
LINE
  5
394BB
330
1F
100
AcDbEntity
  8
SEIHIN
  6
Continuous
 62
     3
100
AcDbLine
 10
27254.09662993641
 20
-3904.694396789525
 30
0.0
 11
27254.09662993641
 21
-3957.694396789526
 31
0.0
  0
LINE
  5
394BC
330
1F
100
AcDbEntity
  8
SEIHIN
  6
Continuous
 62
     3
100
AcDbLine
 10
27254.09662993641
 20
-3957.694396789526
 30
0.0
 11
27252.09662993641
 21
-3957.694396789526
 31
0.0
  0
LINE
  5
394BD
330
1F
100
AcDbEntity
  8
SEIHIN
  6
Continuous
 62
     3
100
AcDbLine
 10
27254.09662993641
 20
-3904.694396789525
 30
0.0
 11
27252.09662993641
 21
-3904.694396789525
 31
0.0
  0
LINE
  5
394BE
330
1F
100
AcDbEntity
  8
SEIHIN
  6
Continuous
 62
     3
100
AcDbLine
 10
27521.84985707548
 20
-3957.694396789526
 30
0.0
 11
27532.49915050667
 21
-3957.694396789526
 31
0.0
  0
LINE
  5
394BF
330
1F
100
AcDbEntity
  8
SEIHIN
  6
Continuous
 62
     3
100
AcDbLine
 10
27521.84985707548
 20
-3904.694396789525
 30
0.0
 11
27532.49915050667
 21
-3904.694396789525
 31
0.0
  0
LINE
  5
394C0
330
1F
100
AcDbEntity
  8
SEIHIN
  6
Continuous
 62
     3
100
AcDbLine
 10
27519.84985707548
 20
-3957.694396789526
 30
0.0
 11
27519.84985707548
 21
-3904.694396789525
 31
0.0
  0
LINE
  5
394C1
330
1F
100
AcDbEntity
  8
SEIHIN
  6
Continuous
 62
     3
100
AcDbLine
 10
27521.84985707548
 20
-3957.694396789526
 30
0.0
 11
27519.84985707548
 21
-3957.694396789526
 31
0.0
  0
LINE
  5
394C2
330
1F
100
AcDbEntity
  8
SEIHIN
  6
Continuous
 62
     3
100
AcDbLine
 10
27521.84985707548
 20
-3904.694396789525
 30
0.0
 11
27519.84985707548
 21
-3904.694396789525
 31
0.0
  0
LINE
  5
394C3
330
1F
100
AcDbEntity
  8
SEIHIN
  6
Continuous
 62
     3
100
AcDbLine
 10
27519.84985707548
 20
-3957.694396789526
 30
0.0
 11
27517.84985707548
 21
-3957.694396789526
 31
0.0
  0
LINE
  5
394C4
330
1F
100
AcDbEntity
  8
SEIHIN
  6
Continuous
 62
     3
100
AcDbLine
 10
27519.84985707548
 20
-3904.694396789525
 30
0.0
 11
27517.84985707548
 21
-3904.694396789525
 31
0.0
  0
LINE
  5
394C5
330
1F
100
AcDbEntity
  8
SEIHIN
  6
Continuous
 62
     3
100
AcDbLine
 10
27256.09662993641
 20
-3957.694396789526
 30
0.0
 11
27254.09662993641
 21
-3957.694396789526
 31
0.0
  0
LINE
  5
394C6
330
1F
100
AcDbEntity
  8
SEIHIN
  6
Continuous
 62
     3
100
AcDbLine
 10
27256.09662993641
 20
-3904.694396789525
 30
0.0
 11
27254.09662993641
 21
-3904.694396789525
 31
0.0
  0
LINE
  5
394C7
330
1F
100
AcDbEntity
  8
SEIHIN
  6
Continuous
 62
     3
100
AcDbLine
 10
27516.71375891777
 20
-3957.694396789526
 30
0.0
 11
27515.89302956311
 21
-3957.694396789526
 31
0.0
  0
LINE
  5
394C8
330
1F
100
AcDbEntity
  8
SEIHIN
  6
Continuous
 62
     3
100
AcDbLine
 10
27516.71375891777
 20
-3904.694396789525
 30
0.0
 11
27515.89302956311
 21
-3904.694396789525
 31
0.0
  0
LINE
  5
394C9
330
1F
100
AcDbEntity
  8
SEIHIN
  6
Continuous
 62
     3
100
AcDbLine
 10
27517.84985707548
 20
-3957.694396789526
 30
0.0
 11
27516.71375891777
 21
-3957.694396789526
 31
0.0
  0
LINE
  5
394CA
330
1F
100
AcDbEntity
  8
SEIHIN
  6
Continuous
 62
     3
100
AcDbLine
 10
27517.84985707548
 20
-3904.694396789525
 30
0.0
 11
27516.71375891777
 21
-3904.694396789525
 31
0.0
  0
LINE
  5
394CB
330
1F
100
AcDbEntity
  8
SEIHIN
  6
Continuous
 62
     3
100
AcDbLine
 10
27258.05197136768
 20
-3957.694396789526
 30
0.0
 11
27257.2316845314
 21
-3957.694396789526
 31
0.0
  0
LINE
  5
394CC
330
1F
100
AcDbEntity
  8
SEIHIN
  6
Continuous
 62
     3
100
AcDbLine
 10
27258.05197136768
 20
-3904.694396789525
 30
0.0
 11
27257.2316845314
 21
-3904.694396789525
 31
0.0
  0
LINE
  5
394CD
330
1F
100
AcDbEntity
  8
SEIHIN
  6
Continuous
 62
     3
100
AcDbLine
 10
27256.09662993641
 20
-3957.694396789526
 30
0.0
 11
27257.2316845314
 21
-3957.694396789526
 31
0.0
  0
LINE
  5
394CE
330
1F
100
AcDbEntity
  8
SEIHIN
  6
Continuous
 62
     3
100
AcDbLine
 10
27256.09662993641
 20
-3904.694396789525
 30
0.0
 11
27257.2316845314
 21
-3904.694396789525
 31
0.0
  0
LINE
  5
394CF
330
1F
100
AcDbEntity
  8
SEIHIN
  6
Continuous
 62
     3
100
AcDbLine
 10
27258.05197136768
 20
-3957.694396789526
 30
0.0
 11
27259.27072622651
 21
-3957.694396789526
 31
0.0
  0
LINE
  5
394D0
330
1F
100
AcDbEntity
  8
SEIHIN
  6
Continuous
 62
     3
100
AcDbLine
 10
27258.05197136768
 20
-3904.694396789525
 30
0.0
 11
27259.27072622651
 21
-3904.694396789525
 31
0.0
  0
LINE
  5
394D1
330
1F
100
AcDbEntity
  8
SEIHIN
  6
Continuous
 62
     3
100
AcDbLine
 10
27514.67594951711
 20
-3957.694396789526
 30
0.0
 11
27515.89302956311
 21
-3957.694396789526
 31
0.0
  0
LINE
  5
394D2
330
1F
100
AcDbEntity
  8
SEIHIN
  6
Continuous
 62
     3
100
AcDbLine
 10
27514.67594951711
 20
-3904.694396789525
 30
0.0
 11
27515.89302956311
 21
-3904.694396789525
 31
0.0
  0
LINE
  5
394D3
330
1F
100
AcDbEntity
  8
SEIHIN
  6
Continuous
 62
     3
100
AcDbLine
 10
27538.6127149801
 20
-3846.194396789525
 30
0.0
 11
27531.66489191861
 21
-3846.194396789525
 31
0.0
  0
LINE
  5
394D4
330
1F
100
AcDbEntity
  8
SEIHIN
  6
Continuous
 62
     3
100
AcDbLine
 10
27242.2292873524
 20
-3861.194396789525
 30
0.0
 11
27235.3337720318
 21
-3861.194396789525
 31
0.0
  0
LINE
  5
394D5
330
1F
100
AcDbEntity
  8
SEIHIN
  6
Continuous
 62
     3
100
AcDbLine
 10
27242.2292873524
 20
-4001.194396789524
 30
0.0
 11
27235.3337720318
 21
-4001.194396789524
 31
0.0
  0
LINE
  5
394D6
330
1F
100
AcDbEntity
  8
SEIHIN
  6
Continuous
 62
     3
100
AcDbLine
 10
27538.6127149801
 20
-4016.194396789525
 30
0.0
 11
27531.66489191861
 21
-4016.194396789525
 31
0.0
  0
LINE
  5
394D7
330
1F
100
AcDbEntity
  8
SEIHIN
  6
Continuous
 62
     3
100
AcDbLine
 10
27514.67594951711
 20
-3957.694396789526
 30
0.0
 11
27513.85522016245
 21
-3957.694396789526
 31
0.0
  0
LINE
  5
394D8
330
1F
100
AcDbEntity
  8
SEIHIN
  6
Continuous
 62
     3
100
AcDbLine
 10
27514.67594951711
 20
-3904.694396789525
 30
0.0
 11
27513.85522016245
 21
-3904.694396789525
 31
0.0
  0
LINE
  5
394D9
330
1F
100
AcDbEntity
  8
SEIHIN
  6
Continuous
 62
     3
100
AcDbLine
 10
27260.09101306278
 20
-3957.694396789526
 30
0.0
 11
27259.27072622651
 21
-3957.694396789526
 31
0.0
  0
LINE
  5
394DA
330
1F
100
AcDbEntity
  8
SEIHIN
  6
Continuous
 62
     3
100
AcDbLine
 10
27260.09101306278
 20
-3904.694396789525
 30
0.0
 11
27259.27072622651
 21
-3904.694396789525
 31
0.0
  0
ARC
  5
394DB
330
1F
100
AcDbEntity
  8
SEIHIN
  6
Continuous
 62
     3
100
AcDbCircle
 10
27419.4326552141
 20
-3954.694396789525
 30
0.0
 40
3.000000000000138
100
AcDbArc
 50
191.3099324740074
 51
270.0
  0
LINE
  5
394DC
330
1F
100
AcDbEntity
  8
SEIHIN
  6
Continuous
 62
     3
100
AcDbLine
 10
27411.97324350594
 20
-3932.694396789525
 30
0.0
 11
27416.49091318703
 21
-3955.28274519494
 31
0.0
  0
LINE
  5
394DD
330
1F
100
AcDbEntity
  8
SEIHIN
  6
Continuous
 62
     3
100
AcDbLine
 10
27411.97324350594
 20
-3932.694396789525
 30
0.0
 11
27411.97324350594
 21
-3929.694396789525
 31
0.0
  0
LINE
  5
394DE
330
1F
100
AcDbEntity
  8
SEIHIN
  6
Continuous
 62
     3
100
AcDbLine
 10
27411.97324350594
 20
-3929.694396789525
 30
0.0
 11
27416.49091318703
 21
-3907.10604838411
 31
0.0
  0
ARC
  5
394DF
330
1F
100
AcDbEntity
  8
SEIHIN
  6
Continuous
 62
     3
100
AcDbCircle
 10
27419.4326552141
 20
-3907.694396789525
 30
0.0
 40
3.000000000000138
100
AcDbArc
 50
90.0
 51
168.6900675259925
  0
LINE
  5
394E0
330
1F
100
AcDbEntity
  8
SEIHIN
  6
Continuous
 62
     3
100
AcDbLine
 10
27419.4326552141
 20
-3957.694396789526
 30
0.0
 11
27513.85522016245
 21
-3957.694396789526
 31
0.0
  0
LINE
  5
394E1
330
1F
100
AcDbEntity
  8
SEIHIN
  6
Continuous
 62
     3
100
AcDbLine
 10
27419.4326552141
 20
-3904.694396789525
 30
0.0
 11
27513.85522016245
 21
-3904.694396789525
 31
0.0
  0
LINE
  5
394E2
330
1F
100
AcDbEntity
  8
SEIHIN
  6
Continuous
 62
     3
100
AcDbLine
 10
27357.45557382486
 20
-3955.28274519494
 30
0.0
 11
27361.97324350595
 21
-3932.694396789524
 31
0.0
  0
ARC
  5
394E3
330
1F
100
AcDbEntity
  8
SEIHIN
  6
Continuous
 62
     3
100
AcDbCircle
 10
27354.51383179779
 20
-3954.694396789525
 30
0.0
 40
3.0
100
AcDbArc
 50
270.0
 51
348.6900675259926
  0
ARC
  5
394E4
330
1F
100
AcDbEntity
  8
SEIHIN
  6
Continuous
 62
     3
100
AcDbCircle
 10
27354.51383179779
 20
-3907.694396789525
 30
0.0
 40
3.0
100
AcDbArc
 50
11.30993247400744
 51
90.0
  0
LINE
  5
394E5
330
1F
100
AcDbEntity
  8
SEIHIN
  6
Continuous
 62
     3
100
AcDbLine
 10
27357.45557382486
 20
-3907.10604838411
 30
0.0
 11
27361.97324350595
 21
-3929.694396789526
 31
0.0
  0
LINE
  5
394E6
330
1F
100
AcDbEntity
  8
SEIHIN
  6
Continuous
 62
     3
100
AcDbLine
 10
27361.97324350595
 20
-3929.694396789526
 30
0.0
 11
27361.97324350595
 21
-3932.694396789524
 31
0.0
  0
LINE
  5
394E7
330
1F
100
AcDbEntity
  8
SEIHIN
  6
Continuous
 62
     3
100
AcDbLine
 10
27260.09101306278
 20
-3957.694396789526
 30
0.0
 11
27354.51383179779
 21
-3957.694396789526
 31
0.0
  0
LINE
  5
394E8
330
1F
100
AcDbEntity
  8
SEIHIN
  6
Continuous
 62
     3
100
AcDbLine
 10
27260.09101306278
 20
-3904.694396789525
 30
0.0
 11
27354.51383179779
 21
-3904.694396789525
 31
0.0
  0
LINE
  5
394E9
330
1F
100
AcDbEntity
  8
SEIHIN
  6
Continuous
 62
     3
100
AcDbLine
 10
27362.29544006854
 20
-3929.694396789525
 30
0.0
 11
27361.97324350595
 21
-3929.694396789526
 31
0.0
  0
LINE
  5
394EA
330
1F
100
AcDbEntity
  8
SEIHIN
  6
Continuous
 62
     3
100
AcDbLine
 10
27362.29544006854
 20
-3932.694396789525
 30
0.0
 11
27361.97324350595
 21
-3932.694396789524
 31
0.0
  0
LINE
  5
394EB
330
1F
100
AcDbEntity
  8
SEIHIN
  6
Continuous
 62
     3
100
AcDbLine
 10
27362.63804813181
 20
-3929.694396789525
 30
0.0
 11
27362.29544006854
 21
-3929.694396789525
 31
0.0
  0
LINE
  5
394EC
330
1F
100
AcDbEntity
  8
SEIHIN
  6
Continuous
 62
     3
100
AcDbLine
 10
27363.97324350595
 20
-3929.694396789525
 30
0.0
 11
27362.63804813181
 21
-3929.694396789525
 31
0.0
  0
LINE
  5
394ED
330
1F
100
AcDbEntity
  8
SEIHIN
  6
Continuous
 62
     3
100
AcDbLine
 10
27363.97324350595
 20
-3932.694396789525
 30
0.0
 11
27362.29544006854
 21
-3932.694396789525
 31
0.0
  0
LINE
  5
394EE
330
1F
100
AcDbEntity
  8
SEIHIN
  6
Continuous
 62
     3
100
AcDbLine
 10
27411.97324350594
 20
-3929.694396789525
 30
0.0
 11
27411.65104694335
 21
-3929.694396789525
 31
0.0
  0
LINE
  5
394EF
330
1F
100
AcDbEntity
  8
SEIHIN
  6
Continuous
 62
     3
100
AcDbLine
 10
27411.65104694335
 20
-3932.694396789525
 30
0.0
 11
27411.30843888008
 21
-3932.694396789525
 31
0.0
  0
LINE
  5
394F0
330
1F
100
AcDbEntity
  8
SEIHIN
  6
Continuous
 62
     3
100
AcDbLine
 10
27411.65104694335
 20
-3929.694396789525
 30
0.0
 11
27411.30843888008
 21
-3929.694396789525
 31
0.0
  0
LINE
  5
394F1
330
1F
100
AcDbEntity
  8
SEIHIN
  6
Continuous
 62
     3
100
AcDbLine
 10
27411.97324350594
 20
-3932.694396789525
 30
0.0
 11
27411.65104694335
 21
-3932.694396789525
 31
0.0
  0
LINE
  5
394F2
330
1F
100
AcDbEntity
  8
SEIHIN
  6
Continuous
 62
     3
100
AcDbLine
 10
27411.30843888008
 20
-3929.694396789525
 30
0.0
 11
27409.97324350594
 21
-3929.694396789525
 31
0.0
  0
LINE
  5
394F3
330
1F
100
AcDbEntity
  8
SEIHIN
  6
Continuous
 62
     3
100
AcDbLine
 10
27411.30843888008
 20
-3932.694396789525
 30
0.0
 11
27409.97324350594
 21
-3932.694396789525
 31
0.0
  0
LINE
  5
394F4
330
1F
100
AcDbEntity
  8
SEIHIN
  6
Continuous
 62
     3
100
AcDbLine
 10
27363.97324350595
 20
-3929.694396789525
 30
0.0
 11
27409.97324350594
 21
-3929.694396789525
 31
0.0
  0
LINE
  5
394F5
330
1F
100
AcDbEntity
  8
SEIHIN
  6
Continuous
 62
     3
100
AcDbLine
 10
27363.97324350595
 20
-3932.694396789525
 30
0.0
 11
27409.97324350594
 21
-3932.694396789525
 31
0.0
  0
LINE
  5
394F6
330
1F
100
AcDbEntity
  8
SEIHIN
  6
Continuous
 62
     3
100
AcDbLine
 10
27242.33361755787
 20
-3861.188939497849
 30
0.0
 11
27242.33361746684
 21
-3861.188939502596
 31
0.0
  0
LINE
  5
394F7
330
1F
100
AcDbEntity
  8
SEIHIN
  6
Continuous
 62
     3
100
AcDbLine
 10
27385.21923288808
 20
-3846.199854076454
 30
0.0
 11
27242.33361746684
 21
-3861.188939502596
 31
0.0
  0
ARC
  5
394F8
330
1F
100
AcDbEntity
  8
SEIHIN
  6
Continuous
 62
     3
100
AcDbCircle
 10
27385.32356309404
 20
-3847.194396789525
 30
0.0
 40
1.000000000000066
100
AcDbArc
 50
92.99428912127964
 51
95.98857824255011
  0
ARC
  5
394F9
330
1F
100
AcDbEntity
  8
SEIHIN
  6
Continuous
 62
     3
100
AcDbCircle
 10
27385.32356309404
 20
-3847.194396789525
 30
0.0
 40
1.000000000000066
100
AcDbArc
 50
90.0
 51
92.99428912127964
  0
LINE
  5
394FA
330
1F
100
AcDbEntity
  8
SEIHIN
  6
Continuous
 62
     3
100
AcDbLine
 10
27531.66489191861
 20
-3846.194396789525
 30
0.0
 11
27385.32356309404
 21
-3846.194396789525
 31
0.0
  0
ARC
  5
394FB
330
1F
100
AcDbEntity
  8
SEIHIN
  6
Continuous
 62
     3
100
AcDbCircle
 10
27385.32356309404
 20
-4015.194396789524
 30
0.0
 40
0.9999999999999776
100
AcDbArc
 50
264.0114217574498
 51
267.0057108787204
  0
LINE
  5
394FC
330
1F
100
AcDbEntity
  8
SEIHIN
  6
Continuous
 62
     3
100
AcDbLine
 10
27385.21923288808
 20
-4016.188939502597
 30
0.0
 11
27242.33361746684
 21
-4001.199854076453
 31
0.0
  0
LINE
  5
394FD
330
1F
100
AcDbEntity
  8
SEIHIN
  6
Continuous
 62
     3
100
AcDbLine
 10
27242.33361755787
 20
-4001.199854081202
 30
0.0
 11
27242.33361746684
 21
-4001.199854076453
 31
0.0
  0
ARC
  5
394FE
330
1F
100
AcDbEntity
  8
SEIHIN
  6
Continuous
 62
     3
100
AcDbCircle
 10
27385.32356309404
 20
-4015.194396789524
 30
0.0
 40
1.0
100
AcDbArc
 50
267.0057108787204
 51
270.0
  0
LINE
  5
394FF
330
1F
100
AcDbEntity
  8
SEIHIN
  6
Continuous
 62
     3
100
AcDbLine
 10
27531.66489191861
 20
-4016.194396789525
 30
0.0
 11
27385.32356309404
 21
-4016.194396789525
 31
0.0
  0
ARC
  5
39500
330
1F
100
AcDbEntity
  8
SEIHIN
  6
Continuous
 62
     3
100
AcDbCircle
 10
27242.2292873523
 20
-3860.194397662466
 30
0.0
 40
0.9999991270592545
100
AcDbArc
 50
270.0000000057842
 51
275.9885834665509
  0
ARC
  5
39501
330
1F
100
AcDbEntity
  8
SEIHIN
  6
Continuous
 62
     3
100
AcDbCircle
 10
27242.22928735231
 20
-4002.194395916529
 30
0.0
 40
0.9999991270038321
100
AcDbArc
 50
84.01141653329229
 51
89.99999999437211
  0
LINE
  5
39502
330
1F
100
AcDbEntity
  8
SEIHIN
  6
Continuous
 62
     3
100
AcDbLine
 10
27201.9646799748
 20
-3862.194396789525
 30
0.0
 11
27201.9646799748
 21
-3901.194396789525
 31
0.0
  0
LINE
  5
39503
330
1F
100
AcDbEntity
  8
SEIHIN
  6
Continuous
 62
     3
100
AcDbLine
 10
27201.9646799748
 20
-4000.194396789525
 30
0.0
 11
27201.9646799748
 21
-3961.194396789525
 31
0.0
  0
LINE
  5
39504
330
1F
100
AcDbEntity
  8
SEIHIN
  6
Continuous
 62
     3
100
AcDbLine
 10
27565.84257899195
 20
-3847.194396789525
 30
0.0
 11
27565.84257899195
 21
-3901.194396789525
 31
0.0
  0
LINE
  5
39505
330
1F
100
AcDbEntity
  8
SEIHIN
  6
Continuous
 62
     3
100
AcDbLine
 10
27565.84257899195
 20
-4015.194396789524
 30
0.0
 11
27565.84257899195
 21
-3961.194396789525
 31
0.0
  0
ARC
  5
39506
330
1F
100
AcDbEntity
  8
SEIHIN
  6
Continuous
 62
     3
100
AcDbCircle
 10
27225.75633599559
 20
-3954.158142207147
 30
0.0
 40
1.15892625376195
100
AcDbArc
 50
238.9077563307467
 51
283.9791818602358
  0
LINE
  5
39507
330
1F
100
AcDbEntity
  8
SEIHIN
  6
Continuous
 62
     3
100
AcDbLine
 10
27242.28159509328
 20
-4434.89239341396
 30
0.0
 11
27531.66489191861
 21
-4434.89239341396
 31
0.0
  0
LINE
  5
39508
330
1F
100
AcDbEntity
  8
SEIHIN
  6
Continuous
 62
     3
100
AcDbLine
 10
27201.85685908771
 20
-4148.892393413958
 30
0.0
 11
27236.32631818344
 21
-4429.623609474391
 31
0.0
  0
LINE
  5
39509
330
1F
100
AcDbEntity
  8
CENTER L
  6
CENTER
 62
     1
 48
5.0
100
AcDbLine
 10
27386.97324350594
 20
-4389.450929450809
 30
0.0
 11
27386.97324350594
 21
-4464.605043709247
 31
0.0
  0
LINE
  5
3950A
330
1F
100
AcDbEntity
  8
SEIHIN
  6
Continuous
 62
     3
100
AcDbLine
 10
27565.10307433602
 20
-4198.892393413956
 30
0.0
 11
27564.10647175429
 21
-4198.892393413956
 31
0.0
  0
LINE
  5
3950B
330
1F
100
AcDbEntity
  8
SEIHIN
  6
Continuous
 62
     3
100
AcDbLine
 10
27203.70078721245
 20
-4148.892393413958
 30
0.0
 11
27202.70418463073
 21
-4148.892393413956
 31
0.0
  0
ARC
  5
3950C
330
1F
100
AcDbEntity
  8
SEIHIN
  6
Continuous
 62
     3
100
AcDbCircle
 10
27546.81616656604
 20
-4321.906181956163
 30
0.0
 40
2.000000000000075
100
AcDbArc
 50
311.1180771936788
 51
353.0000000000073
  0
ARC
  5
3950D
330
1F
100
AcDbEntity
  8
SEIHIN
  6
Continuous
 62
     3
100
AcDbCircle
 10
27409.97324350594
 20
-4430.892393413961
 30
0.0
 40
2.000000000000215
100
AcDbArc
 50
270.0
 51
311.8819228063553
  0
LINE
  5
3950E
330
1F
100
AcDbEntity
  8
SEIHIN
  6
Continuous
 62
     3
100
AcDbLine
 10
27363.97324350595
 20
-4432.89239341396
 30
0.0
 11
27409.97324350594
 21
-4432.89239341396
 31
0.0
  0
ARC
  5
3950F
330
1F
100
AcDbEntity
  8
SEIHIN
  6
Continuous
 62
     3
100
AcDbCircle
 10
27363.97324350595
 20
-4430.892393413961
 30
0.0
 40
2.0000000000004
100
AcDbArc
 50
228.1180771936535
 51
270.0
  0
ARC
  5
39510
330
1F
100
AcDbEntity
  8
SEIHIN
  6
Continuous
 62
     3
100
AcDbCircle
 10
27225.09659584222
 20
-4305.342824245111
 30
0.0
 40
2.000000000000079
100
AcDbArc
 50
186.9999999999926
 51
228.8819228063298
  0
LINE
  5
39511
330
1F
100
AcDbEntity
  8
SEIHIN
  6
Continuous
 62
     3
100
AcDbLine
 10
27217.5055137423
 20
-4259.929439956424
 30
0.0
 11
27223.11150353894
 21
-4305.586562931922
 31
0.0
  0
ARC
  5
39512
330
1F
100
AcDbEntity
  8
SEIHIN
  6
Continuous
 62
     3
100
AcDbCircle
 10
27219.49060604559
 20
-4259.685701269614
 30
0.0
 40
1.999999999999853
100
AcDbArc
 50
145.1180771936972
 51
186.9999999999926
  0
ARC
  5
39513
330
1F
100
AcDbEntity
  8
SEIHIN
  6
Continuous
 62
     3
100
AcDbCircle
 10
27552.42215636267
 20
-4276.249058980662
 30
0.0
 40
2.000000000000079
100
AcDbArc
 50
353.0000000000073
 51
34.88192280634329
  0
LINE
  5
39514
330
1F
100
AcDbEntity
  8
SEIHIN
  6
Continuous
 62
     3
100
AcDbLine
 10
27548.80125886932
 20
-4322.149920642973
 30
0.0
 11
27554.40724866596
 21
-4276.492797667472
 31
0.0
  0
ARC
  5
39515
330
1F
100
AcDbEntity
  8
SEIHIN
  6
Continuous
 62
     3
100
AcDbCircle
 10
27552.42215636267
 20
-4276.249058980662
 30
0.0
 40
2.000000000002096
100
AcDbArc
 50
50.02432490674546
 51
82.99991922454614
  0
ARC
  5
39516
330
1F
100
AcDbEntity
  8
SEIHIN
  6
Continuous
 62
     3
100
AcDbCircle
 10
27219.49060604559
 20
-4259.685701269614
 30
0.0
 40
2.000000000000023
100
AcDbArc
 50
96.99999999997976
 51
129.9756750932545
  0
ARC
  5
39517
330
1F
100
AcDbEntity
  8
SEIHIN
  6
Continuous
 62
     3
100
AcDbCircle
 10
27363.97324350595
 20
-4430.892393413961
 30
0.0
 40
2.0
100
AcDbArc
 50
179.999999999987
 51
212.9756750932905
  0
ARC
  5
39518
330
1F
100
AcDbEntity
  8
SEIHIN
  6
Continuous
 62
     3
100
AcDbCircle
 10
27409.97324350594
 20
-4430.892393413961
 30
0.0
 40
2.000000000002258
100
AcDbArc
 50
327.0243249067204
 51
359.9999183358655
  0
ARC
  5
39519
330
1F
100
AcDbEntity
  8
SEIHIN
  6
Continuous
 62
     3
100
AcDbCircle
 10
27546.81616656604
 20
-4321.906181956163
 30
0.0
 40
1.99999999999998
100
AcDbArc
 50
263.0000000000202
 51
295.975675093284
  0
ARC
  5
3951A
330
1F
100
AcDbEntity
  8
SEIHIN
  6
Continuous
 62
     3
100
AcDbCircle
 10
27552.42215636267
 20
-4276.249058980662
 30
0.0
 40
2.000000000000112
100
AcDbArc
 50
34.88192280634329
 51
50.02432490674546
  0
ARC
  5
3951B
330
1F
100
AcDbEntity
  8
SEIHIN
  6
Continuous
 62
     3
100
AcDbCircle
 10
27409.97324350594
 20
-4430.892393413961
 30
0.0
 40
2.000000000000215
100
AcDbArc
 50
311.8819228063553
 51
327.0243249067204
  0
ARC
  5
3951C
330
1F
100
AcDbEntity
  8
SEIHIN
  6
Continuous
 62
     3
100
AcDbCircle
 10
27224.88360708841
 20
-4306.855348177147
 30
0.0
 40
0.7218240553436168
100
AcDbArc
 50
203.2932556374914
 51
249.008804971763
  0
ARC
  5
3951D
330
1F
100
AcDbEntity
  8
SEIHIN
  6
Continuous
 62
     3
100
AcDbCircle
 10
27225.09659584222
 20
-4305.342824245111
 30
0.0
 40
1.999999999999952
100
AcDbArc
 50
228.8819228063298
 51
244.0243249067161
  0
ARC
  5
3951E
330
1F
100
AcDbEntity
  8
SEIHIN
  6
Continuous
 62
     3
100
AcDbCircle
 10
27219.49060604559
 20
-4259.685701269614
 30
0.0
 40
1.999999999999975
100
AcDbArc
 50
129.9756750932545
 51
145.1180771936972
  0
ARC
  5
3951F
330
1F
100
AcDbEntity
  8
SEIHIN
  6
Continuous
 62
     3
100
AcDbCircle
 10
27363.97324350595
 20
-4430.892393413961
 30
0.0
 40
2.0000000000004
100
AcDbArc
 50
212.9756750932905
 51
228.1180771936535
  0
ARC
  5
39520
330
1F
100
AcDbEntity
  8
SEIHIN
  6
Continuous
 62
     3
100
AcDbCircle
 10
27546.81616656604
 20
-4321.906181956163
 30
0.0
 40
1.999999999999967
100
AcDbArc
 50
295.975675093284
 51
311.1180771936788
  0
SPLINE
  5
39521
330
1F
100
AcDbEntity
  8
SEIHIN
  6
Continuous
 62
     3
100
AcDbSpline
210
0.0
220
0.0
230
1.0
 70
    24
 71
     3
 72
    12
 73
     8
 74
     0
 42
0.0000000001
 43
0.0000000001
 40
0.0
 40
0.0
 40
0.0
 40
0.0
 40
0.2500000000000169
 40
0.2500000000000169
 40
0.5000000000000338
 40
0.5000000000000338
 40
1.0
 40
1.0
 40
1.0
 40
1.0
 10
27565.10307433602
 20
-4198.892393413956
 30
0.0
 10
27565.27640138899
 20
-4198.892393413956
 30
0.0
 10
27565.44398191599
 20
-4198.892393413958
 30
0.0
 10
27565.76971019969
 20
-4198.892393413958
 30
0.0
 10
27565.92009597389
 20
-4198.892393413958
 30
0.0
 10
27566.34691671939
 20
-4198.892393413958
 30
0.0
 10
27566.59382620088
 20
-4198.892393413956
 30
0.0
 10
27566.83512514359
 20
-4198.892393413956
 30
0.0
  0
SPLINE
  5
39522
330
1F
100
AcDbEntity
  8
SEIHIN
  6
Continuous
 62
     3
100
AcDbSpline
210
0.0
220
0.0
230
1.0
 70
    24
 71
     3
 72
    12
 73
     8
 74
     0
 42
0.0000000001
 43
0.0000000001
 40
0.0
 40
0.0
 40
0.0
 40
0.0
 40
0.25
 40
0.25
 40
0.5
 40
0.5
 40
1.0
 40
1.0
 40
1.0
 40
1.0
 10
27202.70418463073
 20
-4148.892393413956
 30
0.0
 10
27202.53085757776
 20
-4148.892393413956
 30
0.0
 10
27202.36327705076
 20
-4148.892393413958
 30
0.0
 10
27202.03754876705
 20
-4148.892393413958
 30
0.0
 10
27201.88716299285
 20
-4148.892393413958
 30
0.0
 10
27201.46034224736
 20
-4148.892393413958
 30
0.0
 10
27201.21343276016
 20
-4148.892393413958
 30
0.0
 10
27200.97213382316
 20
-4148.892393413958
 30
0.0
  0
LINE
  5
39523
330
1F
100
AcDbEntity
  8
SEIHIN
  6
Continuous
 62
     3
100
AcDbLine
 10
27237.0496963208
 20
-4416.737554227373
 30
0.0
 11
27237.12356754402
 21
-4417.300272945125
 31
0.0
  0
LINE
  5
39524
330
1F
100
AcDbEntity
  8
SEIHIN
  6
Continuous
 62
     3
100
AcDbLine
 10
27226.33288068068
 20
-4307.20604720499
 30
0.0
 11
27226.88344611843
 21
-4311.690042861335
 31
0.0
  0
LINE
  5
39525
330
1F
100
AcDbEntity
  8
SEIHIN
  6
Continuous
 62
     3
100
AcDbLine
 10
27225.34033175531
 20
-4307.327916888964
 30
0.0
 11
27226.33288068068
 21
-4307.20604720499
 31
0.0
  0
SPLINE
  5
39526
330
1F
100
AcDbEntity
  8
SEIHIN
  6
Continuous
 62
     3
100
AcDbSpline
210
0.0
220
0.0
230
1.0
 70
     8
 71
     3
 72
     8
 73
     4
 74
     0
 42
0.0000000001
 43
0.0000000001
 40
0.0
 40
0.0
 40
0.0
 40
0.0
 40
1.0
 40
1.0
 40
1.0
 40
1.0
 10
27224.62503204396
 20
-4307.52926873126
 30
0.0
 10
27224.89377504371
 20
-4307.466167069402
 30
0.0
 10
27225.12308528931
 20
-4307.397994323326
 30
0.0
 10
27225.34033452904
 20
-4307.327916548394
 30
0.0
  0
LINE
  5
39527
330
1F
100
AcDbEntity
  8
SEIHIN
  6
Continuous
 62
     3
100
AcDbLine
 10
27551.67334889784
 20
-4274.142097333974
 30
0.0
 11
27552.22391433559
 21
-4269.658101677628
 31
0.0
  0
LINE
  5
39528
330
1F
100
AcDbEntity
  8
SEIHIN
  6
Continuous
 62
     3
100
AcDbLine
 10
27552.66589784806
 20
-4274.263967021002
 30
0.0
 11
27551.67334889784
 21
-4274.142097333974
 31
0.0
  0
SPLINE
  5
39529
330
1F
100
AcDbEntity
  8
SEIHIN
  6
Continuous
 62
     3
100
AcDbSpline
210
0.0
220
0.0
230
1.0
 70
     8
 71
     3
 72
     8
 73
     4
 74
     0
 42
0.0000000001
 43
0.0000000001
 40
0.0
 40
0.0
 40
0.0
 40
0.0
 40
1.0
 40
1.0
 40
1.0
 40
1.0
 10
27553.40866149551
 20
-4274.241642847985
 30
0.0
 10
27553.13263563762
 20
-4274.237855304876
 30
0.0
 10
27552.89364440697
 20
-4274.248527859871
 30
0.0
 10
27552.66589504949
 20
-4274.26396667738
 30
0.0
  0
LINE
  5
3952A
330
1F
100
AcDbEntity
  8
SEIHIN
  6
Continuous
 62
     3
100
AcDbLine
 10
27411.97324350594
 20
-4429.89239341396
 30
0.0
 11
27416.49091318703
 21
-4429.89239341396
 31
0.0
  0
LINE
  5
3952B
330
1F
100
AcDbEntity
  8
SEIHIN
  6
Continuous
 62
     3
100
AcDbLine
 10
27411.97324350594
 20
-4430.892396264575
 30
0.0
 11
27411.97324350594
 21
-4429.89239341396
 31
0.0
  0
SPLINE
  5
3952C
330
1F
100
AcDbEntity
  8
SEIHIN
  6
Continuous
 62
     3
100
AcDbSpline
210
0.0
220
0.0
230
1.0
 70
     8
 71
     3
 72
     8
 73
     4
 74
     0
 42
0.0000000001
 43
0.0000000001
 40
0.0
 40
0.0
 40
0.0
 40
0.0
 40
1.0
 40
1.0
 40
1.0
 40
1.0
 10
27412.08592139598
 20
-4431.626902801102
 30
0.0
 10
27412.05604161724
 20
-4431.352472812564
 30
0.0
 10
27412.01632290948
 20
-4431.116563644115
 30
0.0
 10
27411.97324350594
 20
-4430.892393413961
 30
0.0
  0
LINE
  5
3952D
330
1F
100
AcDbEntity
  8
SEIHIN
  6
Continuous
 62
     3
100
AcDbLine
 10
27357.45557382486
 20
-4429.89239341396
 30
0.0
 11
27361.97324350595
 21
-4429.89239341396
 31
0.0
  0
SPLINE
  5
3952E
330
1F
100
AcDbEntity
  8
SEIHIN
  6
Continuous
 62
     3
100
AcDbSpline
210
0.0
220
0.0
230
1.0
 70
     8
 71
     3
 72
     8
 73
     4
 74
     0
 42
0.0000000001
 43
0.0000000001
 40
0.0
 40
0.0
 40
0.0
 40
0.0
 40
1.0
 40
1.0
 40
1.0
 40
1.0
 10
27361.86056561591
 20
-4431.626902801102
 30
0.0
 10
27361.89044539325
 20
-4431.352472825501
 30
0.0
 10
27361.93016410462
 20
-4431.116563632424
 30
0.0
 10
27361.97324350595
 20
-4430.892393413961
 30
0.0
  0
LINE
  5
3952F
330
1F
100
AcDbEntity
  8
SEIHIN
  6
Continuous
 62
     3
100
AcDbLine
 10
27361.97324350595
 20
-4429.89239341396
 30
0.0
 11
27361.97324350595
 21
-4430.892393413961
 31
0.0
  0
LINE
  5
39530
330
1F
100
AcDbEntity
  8
SEIHIN
  6
Continuous
 62
     3
100
AcDbLine
 10
27545.02931628982
 20
-4328.253400572385
 30
0.0
 11
27545.57988172757
 21
-4323.769404916038
 31
0.0
  0
SPLINE
  5
39531
330
1F
100
AcDbEntity
  8
SEIHIN
  6
Continuous
 62
     3
100
AcDbSpline
210
0.0
220
0.0
230
1.0
 70
     8
 71
     3
 72
     8
 73
     4
 74
     0
 42
0.0000000001
 43
0.0000000001
 40
0.0
 40
0.0
 40
0.0
 40
0.0
 40
1.0
 40
1.0
 40
1.0
 40
1.0
 10
27547.2877303643
 20
-4324.092626442312
 30
0.0
 10
27547.01898737697
 20
-4324.029524783369
 30
0.0
 10
27546.78967710828
 20
-4323.961352030804
 30
0.0
 10
27546.57242787923
 20
-4323.891274259445
 30
0.0
  0
LINE
  5
39532
330
1F
100
AcDbEntity
  8
SEIHIN
  6
Continuous
 62
     3
100
AcDbLine
 10
27545.57988172757
 20
-4323.769404916038
 30
0.0
 11
27546.57242787923
 21
-4323.891274259445
 31
0.0
  0
LINE
  5
39533
330
1F
100
AcDbEntity
  8
SEIHIN
  6
Continuous
 62
     3
100
AcDbLine
 10
27203.70078721245
 20
-4148.892393413958
 30
0.0
 11
27206.89440821501
 21
-4148.892393413956
 31
0.0
  0
LINE
  5
39534
330
1F
100
AcDbEntity
  8
SEIHIN
  6
Continuous
 62
     3
100
AcDbLine
 10
27206.89440821501
 20
-4148.892393413956
 30
0.0
 11
27207.44910830311
 21
-4153.41006309504
 31
0.0
  0
LINE
  5
39535
330
1F
100
AcDbEntity
  8
SEIHIN
  6
Continuous
 62
     3
100
AcDbLine
 10
27560.91285075174
 20
-4198.892393413958
 30
0.0
 11
27564.10647175429
 21
-4198.892393413956
 31
0.0
  0
LINE
  5
39536
330
1F
100
AcDbEntity
  8
SEIHIN
  6
Continuous
 62
     3
100
AcDbLine
 10
27560.35815066364
 20
-4203.410063095041
 30
0.0
 11
27560.91285075174
 21
-4198.892393413958
 31
0.0
  0
LINE
  5
39537
330
1F
100
AcDbEntity
  8
SEIHIN
  6
Continuous
 62
     3
100
AcDbLine
 10
27219.68884807266
 20
-4253.094743966579
 30
0.0
 11
27220.23941351042
 21
-4257.578739622926
 31
0.0
  0
SPLINE
  5
39538
330
1F
100
AcDbEntity
  8
SEIHIN
  6
Continuous
 62
     3
100
AcDbSpline
210
0.0
220
0.0
230
1.0
 70
     8
 71
     3
 72
     8
 73
     4
 74
     0
 42
0.0000000001
 43
0.0000000001
 40
0.0
 40
0.0
 40
0.0
 40
0.0
 40
1.0
 40
1.0
 40
1.0
 40
1.0
 10
27218.50410091275
 20
-4257.678285136936
 30
0.0
 10
27218.78012675777
 20
-4257.674497594004
 30
0.0
 10
27219.01911801222
 20
-4257.685170149845
 30
0.0
 10
27219.24686735877
 20
-4257.70060896633
 30
0.0
  0
LINE
  5
39539
330
1F
100
AcDbEntity
  8
SEIHIN
  6
Continuous
 62
     3
100
AcDbLine
 10
27220.23941351042
 20
-4257.578739622926
 30
0.0
 11
27219.24686735877
 21
-4257.70060896633
 31
0.0
  0
SPLINE
  5
3953A
330
1F
100
AcDbEntity
  8
SEIHIN
  6
Continuous
 62
     3
100
AcDbSpline
210
0.0
220
0.0
230
1.0
 70
     8
 71
     3
 72
    10
 73
     6
 74
     0
 42
0.0000000001
 43
0.0000000001
 40
0.0
 40
0.0
 40
0.0
 40
0.0
 40
0.5
 40
0.5
 40
1.0
 40
1.0
 40
1.0
 40
1.0
 10
27412.08592139598
 20
-4431.626902801102
 30
0.0
 10
27412.09732673233
 20
-4431.68013903321
 30
0.0
 10
27412.1127803624
 20
-4431.734498726924
 30
0.0
 10
27412.15365377539
 20
-4431.85691129147
 30
0.0
 10
27412.18007829496
 20
-4431.926538096409
 30
0.0
 10
27412.21156155162
 20
-4431.99935210711
 30
0.0
  0
ELLIPSE
  5
3953B
330
1F
100
AcDbEntity
  8
SEIHIN
  6
Continuous
 62
     3
100
AcDbEllipse
 10
27413.19304740867
 20
-4431.601593733704
 30
0.0
 11
1.040738201365456
 21
0.2081476402730756
 31
0.0
210
0.0
220
0.0
230
1.0
 40
0.94219725422245
 41
3.340449629530461
 42
4.511037330396584
  0
SPLINE
  5
3953C
330
1F
100
AcDbEntity
  8
SEIHIN
  6
Continuous
 62
     3
100
AcDbSpline
210
0.0
220
0.0
230
1.0
 70
     8
 71
     3
 72
    10
 73
     6
 74
     0
 42
0.0000000001
 43
0.0000000001
 40
0.0
 40
0.0
 40
0.0
 40
0.0
 40
0.5
 40
0.5
 40
1.0
 40
1.0
 40
1.0
 40
1.0
 10
27224.62503204396
 20
-4307.52926873126
 30
0.0
 10
27224.5735825875
 20
-4307.54707691861
 30
0.0
 10
27224.52151140645
 20
-4307.569040139846
 30
0.0
 10
27224.4049925026
 20
-4307.624527227477
 30
0.0
 10
27224.33910502416
 20
-4307.659240155699
 30
0.0
 10
27224.27067060187
 20
-4307.699362536606
 30
0.0
  0
ELLIPSE
  5
3953D
330
1F
100
AcDbEntity
  8
SEIHIN
  6
Continuous
 62
     3
100
AcDbEllipse
 10
27224.78507718164
 20
-4308.625057995104
 30
0.0
 11
-0.3334302205832955
 21
1.007613880379864
 31
0.0
210
0.0
220
0.0
230
0.9999999999999998
 40
0.9421972542223789
 41
0.1988569759399399
 42
1.369444676806712
  0
ELLIPSE
  5
3953E
330
1F
100
AcDbEntity
  8
SEIHIN
  6
Continuous
 62
     3
100
AcDbEllipse
 10
27360.75343960323
 20
-4431.601593733704
 30
0.0
 11
1.040738201365229
 21
-0.2081476402731042
 31
0.0
210
0.0
220
0.0
230
1.0
 40
0.9421972542226168
 41
4.913740630373135
 42
6.084328331239584
  0
SPLINE
  5
3953F
330
1F
100
AcDbEntity
  8
SEIHIN
  6
Continuous
 62
     3
100
AcDbSpline
210
0.0
220
0.0
230
1.0
 70
     8
 71
     3
 72
    10
 73
     6
 74
     0
 42
0.0000000001
 43
0.0000000001
 40
0.0
 40
0.0
 40
0.0
 40
0.0
 40
0.5
 40
0.5
 40
1.0
 40
1.0
 40
1.0
 40
1.0
 10
27361.73492546027
 20
-4431.999352107109
 30
0.0
 10
27361.76664704286
 20
-4431.925986899715
 30
0.0
 10
27361.79273325698
 20
-4431.857168166986
 30
0.0
 10
27361.83352137982
 20
-4431.735095852952
 30
0.0
 10
27361.84913595118
 20
-4431.680252589847
 30
0.0
 10
27361.86056561591
 20
-4431.626902801102
 30
0.0
  0
SPLINE
  5
39540
330
1F
100
AcDbEntity
  8
SEIHIN
  6
Continuous
 62
     3
100
AcDbSpline
210
0.0
220
0.0
230
1.0
 70
     8
 71
     3
 72
    10
 73
     6
 74
     0
 42
0.0000000001
 43
0.0000000001
 40
0.0
 40
0.0
 40
0.0
 40
0.0
 40
0.5
 40
0.5
 40
1.0
 40
1.0
 40
1.0
 40
1.0
 10
27553.40866149551
 20
-4274.241642847985
 30
0.0
 10
27553.46289087367
 20
-4274.236810389941
 30
0.0
 10
27553.51872870222
 20
-4274.228096729065
 30
0.0
 10
27553.64521003808
 20
-4274.202446319168
 30
0.0
 10
27553.71753819422
 20
-4274.184704136947
 30
0.0
 10
27553.79364630415
 20
-4274.162329347388
 30
0.0
  0
ELLIPSE
  5
39541
330
1F
100
AcDbEntity
  8
SEIHIN
  6
Continuous
 62
     3
100
AcDbEllipse
 10
27553.5184657983
 20
-4273.139684785289
 30
0.0
 11
-0.0797620580694911
 21
1.058347512882676
 31
0.0
210
0.0
220
0.0
230
1.0
 40
0.9421972542225949
 41
3.340449629529608
 42
4.511037330396167
  0
ELLIPSE
  5
39542
330
1F
100
AcDbEntity
  8
SEIHIN
  6
Continuous
 62
     3
100
AcDbEllipse
 10
27547.12768522662
 20
-4325.188415706156
 30
0.0
 11
0.3334302205835229
 21
1.007613880379864
 31
0.0
210
0.0
220
0.0
230
1.0
 40
0.9421972542223063
 41
4.913740630373083
 42
6.084328331239471
  0
SPLINE
  5
39543
330
1F
100
AcDbEntity
  8
SEIHIN
  6
Continuous
 62
     3
100
AcDbSpline
210
0.0
220
0.0
230
1.0
 70
     8
 71
     3
 72
    10
 73
     6
 74
     0
 42
0.0000000001
 43
0.0000000001
 40
0.0
 40
0.0
 40
0.0
 40
0.0
 40
0.5
 40
0.5
 40
1.0
 40
1.0
 40
1.0
 40
1.0
 10
27547.64209180639
 20
-4324.262720247658
 30
0.0
 10
27547.57313934057
 20
-4324.222294143283
 30
0.0
 10
27547.50801268202
 20
-4324.188015478069
 30
0.0
 10
27547.39182109826
 20
-4324.132654510953
 30
0.0
 10
27547.33928956608
 20
-4324.110472615781
 30
0.0
 10
27547.2877303643
 20
-4324.092626442312
 30
0.0
  0
ELLIPSE
  5
39544
330
1F
100
AcDbEntity
  8
SEIHIN
  6
Continuous
 62
     3
100
AcDbEllipse
 10
27218.39429660997
 20
-4256.576327074241
 30
0.0
 11
0.0797620580692637
 21
1.058347512882704
 31
0.0
210
0.0
220
0.0
230
0.9999999999999998
 40
0.9421972542225807
 41
1.772147976783221
 42
2.942735677650002
  0
SPLINE
  5
39545
330
1F
100
AcDbEntity
  8
SEIHIN
  6
Continuous
 62
     3
100
AcDbSpline
210
0.0
220
0.0
230
1.0
 70
     8
 71
     3
 72
    10
 73
     6
 74
     0
 42
0.0000000001
 43
0.0000000001
 40
0.0
 40
0.0
 40
0.0
 40
0.0
 40
0.5
 40
0.5
 40
1.0
 40
1.0
 40
1.0
 40
1.0
 10
27218.11911610412
 20
-4257.59897163634
 30
0.0
 10
27218.19545731557
 20
-4257.621414954702
 30
0.0
 10
27218.26698651908
 20
-4257.63896571992
 30
0.0
 10
27218.39408094868
 20
-4257.664756699314
 30
0.0
 10
27218.44981056027
 20
-4257.673447245383
 30
0.0
 10
27218.50410091275
 20
-4257.678285136936
 30
0.0
  0
ELLIPSE
  5
39546
330
1F
100
AcDbEntity
  8
SEIHIN
  6
Continuous
 62
     3
100
AcDbEllipse
 10
27562.48511378097
 20
-4200.112197316675
 30
0.0
 11
0.3285613602747617
 21
1.013182275356342
 31
0.0
210
0.0
220
0.0
230
1.0
 40
0.9388570968667949
 41
4.90788275638695
 42
6.590480708606555
  0
ELLIPSE
  5
39547
330
1F
100
AcDbEntity
  8
SEIHIN
  6
Continuous
 62
     3
100
AcDbEllipse
 10
27205.32214518577
 20
-4150.112197316675
 30
0.0
 11
-0.3285613602745343
 21
1.013182275356371
 31
0.0
210
0.0
220
0.0
230
1.0
 40
0.9388570968666217
 41
5.975889905752577
 42
7.65848785797239
  0
LINE
  5
39548
330
1F
100
AcDbEntity
  8
SEIHIN
  6
Continuous
 62
     3
100
AcDbLine
 10
27515.15985307618
 20
-4432.471979960786
 30
0.0
 11
27516.57313229969
 21
-4431.836004310203
 31
0.0
  0
LINE
  5
39549
330
1F
100
AcDbEntity
  8
SEIHIN
  6
Continuous
 62
     3
100
AcDbLine
 10
27522.56145579701
 20
-4430.205190697412
 30
0.0
 11
27522.56145579701
 21
-4420.102793573575
 31
0.0
  0
LINE
  5
3954A
330
1F
100
AcDbEntity
  8
SEIHIN
  6
Continuous
 62
     3
100
AcDbLine
 10
27204.32520768095
 20
-4150.217982066106
 30
0.0
 11
27217.40131828529
 21
-4256.714356758357
 31
0.0
  0
LINE
  5
3954B
330
1F
100
AcDbEntity
  8
SEIHIN
  6
Continuous
 62
     3
100
AcDbLine
 10
27413.17706019332
 20
-4432.603992135494
 30
0.0
 11
27514.54479790766
 21
-4432.603992135494
 31
0.0
  0
LINE
  5
3954C
330
1F
100
AcDbEntity
  8
SEIHIN
  6
Continuous
 62
     3
100
AcDbLine
 10
27238.60961891171
 20
-4418.603992135493
 30
0.0
 11
27249.8862297768
 21
-4418.603992135493
 31
0.0
  0
LINE
  5
3954D
330
1F
100
AcDbEntity
  8
SEIHIN
  6
Continuous
 62
     3
100
AcDbLine
 10
27524.0602572351
 20
-4418.603992135493
 30
0.0
 11
27535.34159343326
 21
-4418.603992135493
 31
0.0
  0
LINE
  5
3954E
330
1F
100
AcDbEntity
  8
SEIHIN
  6
Continuous
 62
     3
100
AcDbLine
 10
27554.51144412297
 20
-4273.277714469406
 30
0.0
 11
27563.48205128579
 21
-4200.217982066106
 31
0.0
  0
LINE
  5
3954F
330
1F
100
AcDbEntity
  8
SEIHIN
  6
Continuous
 62
     3
100
AcDbLine
 10
27258.54985310352
 20
-4432.365428498783
 30
0.0
 11
27258.78909458923
 21
-4432.472734111121
 31
0.0
  0
LINE
  5
39550
330
1F
100
AcDbEntity
  8
SEIHIN
  6
Continuous
 62
     3
100
AcDbLine
 10
27517.18818746821
 20
-4431.703992135495
 30
0.0
 11
27521.06265435893
 21
-4431.703992135495
 31
0.0
  0
LINE
  5
39551
330
1F
100
AcDbEntity
  8
SEIHIN
  6
Continuous
 62
     3
100
AcDbLine
 10
27252.88383265296
 20
-4431.703992135493
 30
0.0
 11
27256.757536466
 21
-4431.703992135493
 31
0.0
  0
LINE
  5
39552
330
1F
100
AcDbEntity
  8
SEIHIN
  6
Continuous
 62
     3
100
AcDbLine
 10
27251.38503121488
 20
-4420.102793573575
 30
0.0
 11
27251.38503121488
 21
-4430.205190697411
 31
0.0
  0
LINE
  5
39553
330
1F
100
AcDbEntity
  8
SEIHIN
  6
Continuous
 62
     3
100
AcDbLine
 10
27536.82922303271
 20
-4417.287848644565
 30
0.0
 11
27548.12456025417
 21
-4325.294709292152
 31
0.0
  0
LINE
  5
39554
330
1F
100
AcDbEntity
  8
SEIHIN
  6
Continuous
 62
     3
100
AcDbLine
 10
27259.40247111505
 20
-4432.603992135494
 30
0.0
 11
27360.76942681857
 21
-4432.603992135494
 31
0.0
  0
LINE
  5
39555
330
1F
100
AcDbEntity
  8
SEIHIN
  6
Continuous
 62
     3
100
AcDbLine
 10
27257.37226001092
 20
-4431.835855127956
 30
0.0
 11
27258.54985310352
 21
-4432.365428498783
 31
0.0
  0
LINE
  5
39556
330
1F
100
AcDbEntity
  8
SEIHIN
  6
Continuous
 62
     3
100
AcDbLine
 10
27223.78820215409
 20
-4308.7313515811
 30
0.0
 11
27237.0496963208
 21
-4416.737554227373
 31
0.0
  0
ELLIPSE
  5
39557
330
1F
100
AcDbEntity
  8
SEIHIN
  6
Continuous
 62
     3
100
AcDbEllipse
 10
27259.40332640141
 20
-4431.101193893576
 30
0.0
 11
0.3144948707524691
 21
1.469653166954605
 31
0.0
210
0.0
220
0.0
230
1.0
 40
0.9980529336511285
 41
2.930950589342588
 42
3.352234717836922
  0
ELLIPSE
  5
39558
330
1F
100
AcDbEntity
  8
SEIHIN
  6
Continuous
 62
     3
100
AcDbEllipse
 10
27256.75736499688
 20
-4433.203592934344
 30
0.0
 11
1.466636856717058
 21
-0.3146050389293825
 31
0.0
210
0.0
220
0.0
230
1.0
 40
0.9997216457073927
 41
1.359662069364081
 42
1.781930584225282
  0
ELLIPSE
  5
39559
330
1F
100
AcDbEntity
  8
SEIHIN
  6
Continuous
 62
     3
100
AcDbEllipse
 10
27517.18835903876
 20
-4433.203592934345
 30
0.0
 11
1.466598681753794
 21
0.3147829516952641
 31
0.0
210
0.0
220
0.0
230
0.9999999999999998
 40
0.9997216312468117
 41
1.359540862549208
 42
1.782051791040714
  0
ELLIPSE
  5
3955A
330
1F
100
AcDbEntity
  8
SEIHIN
  6
Continuous
 62
     3
100
AcDbEllipse
 10
27514.54394005491
 20
-4431.101193893576
 30
0.0
 11
-0.3153972121879178
 21
1.469460569998943
 31
0.0
210
0.0
220
0.0
230
1.0
 40
0.9980524225668061
 41
2.930337189344282
 42
3.352848117835921
  0
ELLIPSE
  5
3955B
330
1F
100
AcDbEntity
  8
SEIHIN
  6
Continuous
 62
     3
100
AcDbEllipse
 10
27238.61312532473
 20
-4417.101193893575
 30
0.0
 11
0.9924917913042461
 21
1.131297134221526
 31
0.0
210
0.0
220
0.0
230
0.9999999999999998
 40
0.9967111492056032
 41
2.422159864581093
 42
3.861025442598325
  0
ELLIPSE
  5
3955C
330
1F
100
AcDbEntity
  8
SEIHIN
  6
Continuous
 62
     3
100
AcDbEllipse
 10
27535.33805735993
 20
-4417.101193893575
 30
0.0
 11
-0.9972339528158045
 21
1.127167938756862
 31
0.0
210
0.0
220
0.0
230
1.0
 40
0.9966869554704869
 41
2.417987725143314
 42
3.865197582036114
  0
ELLIPSE
  5
3955D
330
1F
100
AcDbEntity
  8
SEIHIN
  6
Continuous
 62
     3
100
AcDbEllipse
 10
27521.0586575551
 20
-4430.201193893577
 30
0.0
 11
1.06461500255682
 21
-1.064615002556307
 31
0.0
210
0.0
220
0.0
230
1.0
 40
0.9962852009719993
 41
5.498585866166671
 42
7.067784748192373
  0
ELLIPSE
  5
3955E
330
1F
100
AcDbEntity
  8
SEIHIN
  6
Continuous
 62
     3
100
AcDbEllipse
 10
27524.06105659586
 20
-4420.103592934342
 30
0.0
 11
1.060660171779773
 21
1.060660171779939
 31
0.0
210
0.0
220
0.0
230
1.0
 40
0.9994687938737031
 41
0.7861968857817475
 42
2.35539576780781
  0
ELLIPSE
  5
3955F
330
1F
100
AcDbEntity
  8
SEIHIN
  6
Continuous
 62
     3
100
AcDbEllipse
 10
27249.88543041603
 20
-4420.103592934342
 30
0.0
 11
1.06066017178
 21
-1.060660171779751
 31
0.0
210
0.0
220
0.0
230
1.0
 40
0.9994687938734971
 41
0.7861968857818523
 42
2.355395767807595
  0
ELLIPSE
  5
39560
330
1F
100
AcDbEntity
  8
SEIHIN
  6
Continuous
 62
     3
100
AcDbEllipse
 10
27252.8878294568
 20
-4430.201193893577
 30
0.0
 11
1.064615002556365
 21
1.064615002556445
 31
0.0
210
0.0
220
0.0
230
0.9999999999999998
 40
0.9962852009720821
 41
2.35699321257675
 42
3.926192094602868
  0
LINE
  5
39561
330
1F
100
AcDbEntity
  8
SEIHIN
  6
Continuous
 62
     3
100
AcDbLine
 10
27354.51383179779
 20
-4429.89239341396
 30
0.0
 11
27357.45557382486
 21
-4429.89239341396
 31
0.0
  0
LINE
  5
39562
330
1F
100
AcDbEntity
  8
SEIHIN
  6
Continuous
 62
     3
100
AcDbLine
 10
27552.5824225049
 20
-4266.738286949536
 30
0.0
 11
27559.99695016056
 21
-4206.351805122113
 31
0.0
  0
LINE
  5
39563
330
1F
100
AcDbEntity
  8
SEIHIN
  6
Continuous
 62
     3
100
AcDbLine
 10
27219.33033990336
 20
-4250.174929238488
 30
0.0
 11
27207.81030880619
 21
-4156.351805122112
 31
0.0
  0
LINE
  5
39564
330
1F
100
AcDbEntity
  8
SEIHIN
  6
Continuous
 62
     3
100
AcDbLine
 10
27416.49091318703
 20
-4429.89239341396
 30
0.0
 11
27419.4326552141
 21
-4429.89239341396
 31
0.0
  0
LINE
  5
39565
330
1F
100
AcDbEntity
  8
SEIHIN
  6
Continuous
 62
     3
100
AcDbLine
 10
27534.48424280996
 20
-4414.13613210077
 30
0.0
 11
27544.67080812052
 21
-4331.173215300477
 31
0.0
  0
LINE
  5
39566
330
1F
100
AcDbEntity
  8
SEIHIN
  6
Continuous
 62
     3
100
AcDbLine
 10
27517.84985707548
 20
-4428.99239341396
 30
0.0
 11
27516.71375891777
 21
-4428.99239341396
 31
0.0
  0
ARC
  5
39567
330
1F
100
AcDbEntity
  8
SEIHIN
  6
Continuous
 62
     3
100
AcDbCircle
 10
27513.85522016245
 20
-4427.89239341396
 30
0.0
 40
2.0
100
AcDbArc
 50
270.0
 51
294.227745317928
  0
ARC
  5
39568
330
1F
100
AcDbEntity
  8
SEIHIN
  6
Continuous
 62
     3
100
AcDbCircle
 10
27532.49915050667
 20
-4413.89239341396
 30
0.0
 40
2.0
100
AcDbArc
 50
270.0
 51
352.9999999999944
  0
LINE
  5
39569
330
1F
100
AcDbEntity
  8
SEIHIN
  6
Continuous
 62
     3
100
AcDbLine
 10
27521.84985707548
 20
-4415.89239341396
 30
0.0
 11
27532.49915050667
 21
-4415.89239341396
 31
0.0
  0
ARC
  5
3956A
330
1F
100
AcDbEntity
  8
SEIHIN
  6
Continuous
 62
     3
100
AcDbCircle
 10
27521.84985707548
 20
-4417.89239341396
 30
0.0
 40
2.000000000000227
100
AcDbArc
 50
90.0
 51
180.0
  0
LINE
  5
3956B
330
1F
100
AcDbEntity
  8
SEIHIN
  6
Continuous
 62
     3
100
AcDbLine
 10
27519.84985707548
 20
-4426.99239341396
 30
0.0
 11
27519.84985707548
 21
-4417.89239341396
 31
0.0
  0
ARC
  5
3956C
330
1F
100
AcDbEntity
  8
SEIHIN
  6
Continuous
 62
     3
100
AcDbCircle
 10
27517.84985707548
 20
-4426.99239341396
 30
0.0
 40
2.0
100
AcDbArc
 50
270.0
 51
0.0
  0
ARC
  5
3956D
330
1F
100
AcDbEntity
  8
SEIHIN
  6
Continuous
 62
     3
100
AcDbCircle
 10
27516.71375891777
 20
-4430.992393413959
 30
0.0
 40
2.000000000000031
100
AcDbArc
 50
90.0
 51
114.2277453179755
  0
LINE
  5
3956E
330
1F
100
AcDbEntity
  8
SEIHIN
  6
Continuous
 62
     3
100
AcDbLine
 10
27514.67594951711
 20
-4429.716236424311
 30
0.0
 11
27515.89302956311
 21
-4429.168550403609
 31
0.0
  0
LINE
  5
3956F
330
1F
100
AcDbEntity
  8
SEIHIN
  6
Continuous
 62
     3
100
AcDbLine
 10
27419.4326552141
 20
-4429.89239341396
 30
0.0
 11
27513.85522016245
 21
-4429.89239341396
 31
0.0
  0
LINE
  5
39570
330
1F
100
AcDbEntity
  8
SEIHIN
  6
Continuous
 62
     3
100
AcDbLine
 10
27239.46224420191
 20
-4414.13613210077
 30
0.0
 11
27227.24195428773
 21
-4314.609857589427
 31
0.0
  0
LINE
  5
39571
330
1F
100
AcDbEntity
  8
SEIHIN
  6
Continuous
 62
     3
100
AcDbLine
 10
27260.09101306278
 20
-4429.89239341396
 30
0.0
 11
27354.51383179779
 21
-4429.89239341396
 31
0.0
  0
ARC
  5
39572
330
1F
100
AcDbEntity
  8
SEIHIN
  6
Continuous
 62
     3
100
AcDbCircle
 10
27260.09101306278
 20
-4427.89239341396
 30
0.0
 40
2.0
100
AcDbArc
 50
245.7861555781236
 51
270.0
  0
LINE
  5
39573
330
1F
100
AcDbEntity
  8
SEIHIN
  6
Continuous
 62
     3
100
AcDbLine
 10
27258.05197136768
 20
-4429.168351334884
 30
0.0
 11
27259.27072622651
 21
-4429.716435493036
 31
0.0
  0
ARC
  5
39574
330
1F
100
AcDbEntity
  8
SEIHIN
  6
Continuous
 62
     3
100
AcDbCircle
 10
27257.2316845314
 20
-4430.99239341396
 30
0.0
 40
2.000000000000115
100
AcDbArc
 50
65.78615557811828
 51
90.0
  0
LINE
  5
39575
330
1F
100
AcDbEntity
  8
SEIHIN
  6
Continuous
 62
     3
100
AcDbLine
 10
27256.09662993641
 20
-4428.992393413961
 30
0.0
 11
27257.2316845314
 21
-4428.992393413961
 31
0.0
  0
ARC
  5
39576
330
1F
100
AcDbEntity
  8
SEIHIN
  6
Continuous
 62
     3
100
AcDbCircle
 10
27256.09662993641
 20
-4426.99239341396
 30
0.0
 40
2.000000000000001
100
AcDbArc
 50
180.0
 51
270.0
  0
LINE
  5
39577
330
1F
100
AcDbEntity
  8
SEIHIN
  6
Continuous
 62
     3
100
AcDbLine
 10
27254.09662993641
 20
-4426.99239341396
 30
0.0
 11
27254.09662993641
 21
-4417.892393413958
 31
0.0
  0
ARC
  5
39578
330
1F
100
AcDbEntity
  8
SEIHIN
  6
Continuous
 62
     3
100
AcDbCircle
 10
27252.09662993641
 20
-4417.892393413958
 30
0.0
 40
2.000000000000003
100
AcDbArc
 50
0.0
 51
90.0
  0
LINE
  5
39579
330
1F
100
AcDbEntity
  8
SEIHIN
  6
Continuous
 62
     3
100
AcDbLine
 10
27241.4473365052
 20
-4415.892393413958
 30
0.0
 11
27252.09662993641
 21
-4415.892393413958
 31
0.0
  0
ARC
  5
3957A
330
1F
100
AcDbEntity
  8
SEIHIN
  6
Continuous
 62
     3
100
AcDbCircle
 10
27241.4473365052
 20
-4413.892393413958
 30
0.0
 40
2.0
100
AcDbArc
 50
186.9999999999926
 51
270.0
  0
LINE
  5
3957B
330
1F
100
AcDbEntity
  8
SEIHIN
  6
Continuous
 62
     3
100
AcDbLine
 10
27559.99695016056
 20
-4206.351805122113
 30
0.0
 11
27560.35815066364
 21
-4203.410063095041
 31
0.0
  0
LINE
  5
3957C
330
1F
100
AcDbEntity
  8
SEIHIN
  6
Continuous
 62
     3
100
AcDbLine
 10
27544.67080812052
 20
-4331.173215300477
 30
0.0
 11
27545.02931628982
 21
-4328.253400572385
 31
0.0
  0
LINE
  5
3957D
330
1F
100
AcDbEntity
  8
SEIHIN
  6
Continuous
 62
     3
100
AcDbLine
 10
27207.44910830311
 20
-4153.41006309504
 30
0.0
 11
27207.81030880619
 21
-4156.351805122112
 31
0.0
  0
LINE
  5
3957E
330
1F
100
AcDbEntity
  8
SEIHIN
  6
Continuous
 62
     3
100
AcDbLine
 10
27219.33033990336
 20
-4250.174929238488
 30
0.0
 11
27219.68884807266
 21
-4253.094743966579
 31
0.0
  0
LINE
  5
3957F
330
1F
100
AcDbEntity
  8
SEIHIN
  6
Continuous
 62
     3
100
AcDbLine
 10
27552.22391433559
 20
-4269.658101677628
 30
0.0
 11
27552.5824225049
 21
-4266.738286949536
 31
0.0
  0
LINE
  5
39580
330
1F
100
AcDbEntity
  8
SEIHIN
  6
Continuous
 62
     3
100
AcDbLine
 10
27226.88344611843
 20
-4311.690042861335
 30
0.0
 11
27227.24195428773
 21
-4314.609857589427
 31
0.0
  0
LINE
  5
39581
330
1F
100
AcDbEntity
  8
SEIHIN
  6
Continuous
 62
     3
100
AcDbLine
 10
27185.65214390344
 20
-4129.392393413956
 30
0.0
 11
27200.30801105353
 21
-4129.392393413956
 31
0.0
  0
ARC
  5
39582
330
1F
100
AcDbEntity
  8
SEIHIN
  6
Continuous
 62
     3
100
AcDbCircle
 10
27199.3608457818
 20
-4132.892393413957
 30
0.0
 40
1.000000000000082
100
AcDbArc
 50
48.49999999998428
 51
90.0
  0
ARC
  5
39583
330
1F
100
AcDbEntity
  8
SEIHIN
  6
Continuous
 62
     3
100
AcDbCircle
 10
27205.09165465585
 20
-4134.62460376556
 30
0.0
 40
0.9999999999998793
100
AcDbArc
 50
318.5000000000027
 51
48.4999999999929
  0
ARC
  5
39584
330
1F
100
AcDbEntity
  8
SEIHIN
  6
Continuous
 62
     3
100
AcDbCircle
 10
27187.65214390344
 20
-4132.892393413957
 30
0.0
 40
1.0
100
AcDbArc
 50
90.0
 51
180.0
  0
ARC
  5
39585
330
1F
100
AcDbEntity
  8
SEIHIN
  6
Continuous
 62
     3
100
AcDbCircle
 10
27200.30801105353
 20
-4130.392393413957
 30
0.0
 40
1.0
100
AcDbArc
 50
48.4999999999929
 51
90.0
  0
LINE
  5
39586
330
1F
100
AcDbEntity
  8
SEIHIN
  6
Continuous
 62
     3
100
AcDbLine
 10
27205.84061037664
 20
-4135.287223813775
 30
0.0
 11
27204.84668030432
 21
-4136.410657394959
 31
0.0
  0
LINE
  5
39587
330
1F
100
AcDbEntity
  8
SEIHIN
  6
Continuous
 62
     3
100
AcDbLine
 10
27200.97063110175
 20
-4129.643437693168
 30
0.0
 11
27205.75427470406
 21
-4133.875648044771
 31
0.0
  0
LINE
  5
39588
330
1F
100
AcDbEntity
  8
SEIHIN
  6
Continuous
 62
     3
100
AcDbLine
 10
27199.73971189049
 20
-4131.892393413957
 30
0.0
 11
27187.65214390344
 21
-4131.892393413957
 31
0.0
  0
LINE
  5
39589
330
1F
100
AcDbEntity
  8
SEIHIN
  6
Continuous
 62
     3
100
AcDbLine
 10
27204.84668030432
 20
-4136.410657394959
 30
0.0
 11
27199.73971189049
 21
-4131.892393413957
 31
0.0
  0
LINE
  5
3958A
330
1F
100
AcDbEntity
  8
SEIHIN
  6
Continuous
 62
     3
100
AcDbLine
 10
27568.69360117228
 20
-4179.392393413954
 30
0.0
 11
27582.3539969082
 21
-4179.392393413954
 31
0.0
  0
ARC
  5
3958B
330
1F
100
AcDbEntity
  8
SEIHIN
  6
Continuous
 62
     3
100
AcDbCircle
 10
27580.3539969082
 20
-4182.892393413954
 30
0.0
 40
1.000000000000454
100
AcDbArc
 50
0.0
 51
90.0
  0
ARC
  5
3958C
330
1F
100
AcDbEntity
  8
SEIHIN
  6
Continuous
 62
     3
100
AcDbCircle
 10
27568.69360117228
 20
-4180.392393413955
 30
0.0
 40
1.0
100
AcDbArc
 50
90.0
 51
131.517533153928
  0
LINE
  5
3958D
330
1F
100
AcDbEntity
  8
SEIHIN
  6
Continuous
 62
     3
100
AcDbLine
 10
27563.24997225358
 20
-4183.875925897566
 30
0.0
 11
27568.0307519662
 21
-4179.643640497428
 31
0.0
  0
ARC
  5
3958E
330
1F
100
AcDbEntity
  8
SEIHIN
  6
Continuous
 62
     3
100
AcDbCircle
 10
27563.91282145965
 20
-4184.624678814092
 30
0.0
 40
0.9999999999999101
100
AcDbArc
 50
131.517533153928
 51
221.5175331539183
  0
LINE
  5
3958F
330
1F
100
AcDbEntity
  8
SEIHIN
  6
Continuous
 62
     3
100
AcDbLine
 10
27564.15834235224
 20
-4186.410657394957
 30
0.0
 11
27563.16406854313
 21
-4185.287528020167
 31
0.0
  0
LINE
  5
39590
330
1F
100
AcDbEntity
  8
SEIHIN
  6
Continuous
 62
     3
100
AcDbLine
 10
27569.26216280251
 20
-4181.892393413955
 30
0.0
 11
27564.15834235224
 21
-4186.410657394957
 31
0.0
  0
ARC
  5
39591
330
1F
100
AcDbEntity
  8
SEIHIN
  6
Continuous
 62
     3
100
AcDbCircle
 10
27569.64120388934
 20
-4182.892393413954
 30
0.0
 40
1.0
100
AcDbArc
 50
90.0
 51
131.517533153928
  0
LINE
  5
39592
330
1F
100
AcDbEntity
  8
SEIHIN
  6
Continuous
 62
     3
100
AcDbLine
 10
27580.3539969082
 20
-4181.892393413955
 30
0.0
 11
27569.26216280251
 21
-4181.892393413955
 31
0.0
  0
LINE
  5
39593
330
1F
100
AcDbEntity
  8
SEIHIN
  6
Continuous
 62
     3
100
AcDbLine
 10
27197.07073640147
 20
-4152.392393413957
 30
0.0
 11
27186.15102574835
 21
-4152.392393413957
 31
0.0
  0
LINE
  5
39594
330
1F
100
AcDbEntity
  8
SEIHIN
  6
Continuous
 62
     3
100
AcDbLine
 10
27186.65214390345
 20
-4130.392393413957
 30
0.0
 11
27186.65214390345
 21
-4146.892393413957
 31
0.0
  0
ARC
  5
39595
330
1F
100
AcDbEntity
  8
SEIHIN
  6
Continuous
 62
     3
100
AcDbCircle
 10
27200.97213382316
 20
-4149.892393413957
 30
0.0
 40
1.000000000000298
100
AcDbArc
 50
6.999999999992674
 51
48.49999999997564
  0
ARC
  5
39596
330
1F
100
AcDbEntity
  8
SEIHIN
  6
Continuous
 62
     3
100
AcDbCircle
 10
27197.07073640147
 20
-4153.892393413957
 30
0.0
 40
1.500000000000056
100
AcDbArc
 50
7.001747838013496
 51
90.0
  0
ARC
  5
39597
330
1F
100
AcDbEntity
  8
SEIHIN
  6
Continuous
 62
     3
100
AcDbCircle
 10
27189.05214390344
 20
-4146.892393413957
 30
0.0
 40
2.39999999999966
100
AcDbArc
 50
180.0
 51
236.4426902380617
  0
ARC
  5
39598
330
1F
100
AcDbEntity
  8
SEIHIN
  6
Continuous
 62
     3
100
AcDbCircle
 10
27186.15102574835
 20
-4149.392393413957
 30
0.0
 40
3.000000000000227
100
AcDbArc
 50
179.999999999987
 51
270.0
  0
ARC
  5
39599
330
1F
100
AcDbEntity
  8
SEIHIN
  6
Continuous
 62
     3
100
AcDbCircle
 10
27200.97213382316
 20
-4149.892393413957
 30
0.0
 40
1.000000000000468
100
AcDbArc
 50
48.49999999998428
 51
90.0
  0
LINE
  5
3959A
330
1F
100
AcDbEntity
  8
SEIHIN
  6
Continuous
 62
     3
100
AcDbLine
 10
27187.7254939873
 20
-4148.892393413956
 30
0.0
 11
27200.97213382316
 21
-4148.892393413956
 31
0.0
  0
LINE
  5
3959B
330
1F
100
AcDbEntity
  8
SEIHIN
  6
Continuous
 62
     3
100
AcDbLine
 10
27183.15102574835
 20
-4149.392393413957
 30
0.0
 11
27183.15102574835
 21
-4130.892393413956
 31
0.0
  0
ARC
  5
3959C
330
1F
100
AcDbEntity
  8
SEIHIN
  6
Continuous
 62
     3
100
AcDbCircle
 10
27238.83121251527
 20
-4432.39239341396
 30
0.0
 40
6.000000000000006
100
AcDbArc
 50
187.0017478380006
 51
270.0
  0
ARC
  5
3959D
330
1F
100
AcDbEntity
  8
SEIHIN
  6
Continuous
 62
     3
100
AcDbCircle
 10
27184.65102574835
 20
-4130.892393413957
 30
0.0
 40
1.500000000000056
100
AcDbArc
 50
90.0
 51
179.999999999987
  0
ARC
  5
3959E
330
1F
100
AcDbEntity
  8
SEIHIN
  6
Continuous
 62
     3
100
AcDbCircle
 10
27185.65214390344
 20
-4130.392393413957
 30
0.0
 40
1.000000000000227
100
AcDbArc
 50
0.0
 51
90.0
  0
LINE
  5
3959F
330
1F
100
AcDbEntity
  8
SEIHIN
  6
Continuous
 62
     3
100
AcDbLine
 10
27184.65102574835
 20
-4129.392393413956
 30
0.0
 11
27185.65214390344
 21
-4129.392393413956
 31
0.0
  0
LINE
  5
395A0
330
1F
100
AcDbEntity
  8
SEIHIN
  6
Continuous
 62
     3
100
AcDbLine
 10
27242.22928726088
 20
-4438.39239341396
 30
0.0
 11
27238.83121251527
 21
-4438.39239341396
 31
0.0
  0
LINE
  5
395A1
330
1F
100
AcDbEntity
  8
SEIHIN
  6
Continuous
 62
     3
100
AcDbLine
 10
27232.87595791432
 20
-4433.123791142917
 30
0.0
 11
27198.5595500517
 21
-4153.709543981718
 31
0.0
  0
LINE
  5
395A2
330
1F
100
AcDbEntity
  8
SEIHIN
  6
Continuous
 62
     3
100
AcDbLine
 10
27242.22928726088
 20
-4438.39239341396
 30
0.0
 11
27242.4379476728
 21
-4438.39239341396
 31
0.0
  0
ARC
  5
395A3
330
1F
100
AcDbEntity
  8
SEIHIN
  6
Continuous
 62
     3
100
AcDbCircle
 10
27242.28159509328
 20
-4428.89239341396
 30
0.0
 40
6.000000000000005
100
AcDbArc
 50
186.9999999999926
 51
270.0
  0
LINE
  5
395A4
330
1F
100
AcDbEntity
  8
SEIHIN
  6
Continuous
 62
     3
100
AcDbLine
 10
27385.32356309404
 20
-4438.39239341396
 30
0.0
 11
27238.83121251527
 21
-4438.39239341396
 31
0.0
  0
LINE
  5
395A5
330
1F
100
AcDbEntity
  8
SEIHIN
  6
Continuous
 62
     3
100
AcDbLine
 10
27242.33390292569
 20
-4434.89239341396
 30
0.0
 11
27385.32356309404
 21
-4434.89239341396
 31
0.0
  0
LINE
  5
395A6
330
1F
100
AcDbEntity
  8
SEIHIN
  6
Continuous
 62
     3
100
AcDbLine
 10
27581.8539969082
 20
-4202.392393413954
 30
0.0
 11
27570.7344889122
 21
-4202.392393413954
 31
0.0
  0
ARC
  5
395A7
330
1F
100
AcDbEntity
  8
SEIHIN
  6
Continuous
 62
     3
100
AcDbCircle
 10
27570.7344889122
 20
-4203.892393413954
 30
0.0
 40
1.500000000000052
100
AcDbArc
 50
90.0
 51
173.0000000000073
  0
LINE
  5
395A8
330
1F
100
AcDbEntity
  8
SEIHIN
  6
Continuous
 62
     3
100
AcDbLine
 10
27569.24566968474
 20
-4203.709589398846
 30
0.0
 11
27541.0771699648
 21
-4433.123609474391
 31
0.0
  0
LINE
  5
395A9
330
1F
100
AcDbEntity
  8
SEIHIN
  6
Continuous
 62
     3
100
AcDbLine
 10
27584.85399690821
 20
-4180.892393413954
 30
0.0
 11
27584.85399690821
 21
-4199.392393413955
 31
0.0
  0
ARC
  5
395AA
330
1F
100
AcDbEntity
  8
SEIHIN
  6
Continuous
 62
     3
100
AcDbCircle
 10
27583.35399690821
 20
-4180.892393413954
 30
0.0
 40
1.500000000000056
100
AcDbArc
 50
0.0
 51
90.0
  0
ARC
  5
395AB
330
1F
100
AcDbEntity
  8
SEIHIN
  6
Continuous
 62
     3
100
AcDbCircle
 10
27535.12189305495
 20
-4432.39239341396
 30
0.0
 40
6.000000000000219
100
AcDbArc
 50
270.0
 51
353.0000000000073
  0
LINE
  5
395AC
330
1F
100
AcDbEntity
  8
SEIHIN
  6
Continuous
 62
     3
100
AcDbLine
 10
27582.3539969082
 20
-4179.392393413954
 30
0.0
 11
27583.35399690821
 21
-4179.392393413954
 31
0.0
  0
ARC
  5
395AD
330
1F
100
AcDbEntity
  8
SEIHIN
  6
Continuous
 62
     3
100
AcDbCircle
 10
27581.8539969082
 20
-4199.392393413955
 30
0.0
 40
3.0
100
AcDbArc
 50
270.0
 51
0.0
  0
ARC
  5
395AE
330
1F
100
AcDbEntity
  8
SEIHIN
  6
Continuous
 62
     3
100
AcDbCircle
 10
27582.3539969082
 20
-4180.392393413955
 30
0.0
 40
1.0
100
AcDbArc
 50
90.0
 51
180.0
  0
LINE
  5
395AF
330
1F
100
AcDbEntity
  8
SEIHIN
  6
Continuous
 62
     3
100
AcDbLine
 10
27581.35399690821
 20
-4188.892393413783
 30
0.0
 11
27581.35399690821
 21
-4180.392393413955
 31
0.0
  0
LINE
  5
395B0
330
1F
100
AcDbEntity
  8
SEIHIN
  6
Continuous
 62
     3
100
AcDbLine
 10
27581.3551150633
 20
-4196.892393413957
 30
0.0
 11
27581.35399690821
 21
-4188.892393413783
 31
0.0
  0
ARC
  5
395B1
330
1F
100
AcDbEntity
  8
SEIHIN
  6
Continuous
 62
     3
100
AcDbCircle
 10
27578.7551150633
 20
-4196.892393413957
 30
0.0
 40
2.600000000000172
100
AcDbArc
 50
309.7151372318127
 51
0.0
  0
LINE
  5
395B2
330
1F
100
AcDbEntity
  8
SEIHIN
  6
Continuous
 62
     3
100
AcDbLine
 10
27566.83512514359
 20
-4198.892393413958
 30
0.0
 11
27580.41643983589
 21
-4198.892393413958
 31
0.0
  0
ARC
  5
395B3
330
1F
100
AcDbEntity
  8
SEIHIN
  6
Continuous
 62
     3
100
AcDbCircle
 10
27566.83512514359
 20
-4199.892393413956
 30
0.0
 40
1.000000000000406
100
AcDbArc
 50
90.0
 51
131.500000000033
  0
ARC
  5
395B4
330
1F
100
AcDbEntity
  8
SEIHIN
  6
Continuous
 62
     3
100
AcDbCircle
 10
27566.83512514359
 20
-4199.892393413954
 30
0.0
 40
1.000000000000057
100
AcDbArc
 50
131.5000000000893
 51
172.9999999999944
  0
LINE
  5
395B5
330
1F
100
AcDbEntity
  8
SEIHIN
  6
Continuous
 62
     3
100
AcDbLine
 10
27537.62016882846
 20
-4429.623609474391
 30
0.0
 11
27565.95039987903
 21
-4198.892393413958
 31
0.0
  0
ARC
  5
395B6
330
1F
100
AcDbEntity
  8
SEIHIN
  6
Continuous
 62
     3
100
AcDbCircle
 10
27531.66489191861
 20
-4428.89239341396
 30
0.0
 40
6.00000000000002
100
AcDbArc
 50
270.0
 51
353.0000000000073
  0
LINE
  5
395B7
330
1F
100
AcDbEntity
  8
SEIHIN
  6
Continuous
 62
     3
100
AcDbLine
 10
27385.32356309404
 20
-4434.89239341396
 30
0.0
 11
27531.66489191861
 21
-4434.89239341396
 31
0.0
  0
LINE
  5
395B8
330
1F
100
AcDbEntity
  8
SEIHIN
  6
Continuous
 62
     3
100
AcDbLine
 10
27535.12189305495
 20
-4438.39239341396
 30
0.0
 11
27385.32356309404
 21
-4438.39239341396
 31
0.0
  0
DIMENSION
  5
395B9
330
1F
100
AcDbEntity
  8
SUNPOU
  6
Continuous
100
AcDbDimension
  2
*D14
 10
27121.39973081995
 20
-4438.39239341396
 30
0.0
 11
27121.39973081995
 21
-4282.137076444989
 31
0.0
 70
   160
 71
     5
 42
309.0000000000036
  3
STANDARD
100
AcDbAlignedDimension
 13
27184.65102574835
 23
-4129.392393413956
 33
0.0
 14
27233.52302407589
 24
-4438.39239341396
 34
0.0
 50
90.0
100
AcDbRotatedDimension
1001
ACAD
1000
DSTYLE
1002
{
1070
    41
1040
14.0
1070
    42
1040
12.0
1070
    43
1040
28.0
1070
    44
1040
6.0
1070
    73
1070
     0
1070
    74
1070
     0
1070
    77
1070
     3
1070
   140
1040
12.0
1070
   141
1040
150.0
1070
   143
1040
0.03937
1070
   147
1040
4.0
1070
   172
1070
     1
1070
   173
1070
     1
1070
   176
1070
     4
1070
   177
1070
     4
1070
   178
1070
     4
1070
   271
1070
     0
1070
   272
1070
     2
1070
   343
1005
3729
1070
   344
1005
3729
1002
}
  0
DIMENSION
  5
395BA
330
1F
100
AcDbEntity
  8
SUNPOU
  6
Continuous
100
AcDbDimension
  2
*D13
 10
27641.72648415474
 20
-4438.39239341396
 30
0.0
 11
27641.72648415474
 21
-4308.392393413955
 31
0.0
 70
   160
 71
     5
 42
259.0000000000054
  3
STANDARD
100
AcDbAlignedDimension
 13
27583.35399690821
 23
-4179.392393413954
 33
0.0
 14
27540.43024464229
 24
-4438.39239341396
 34
0.0
 50
90.0
100
AcDbRotatedDimension
1001
ACAD
1000
DSTYLE
1002
{
1070
    41
1040
14.0
1070
    42
1040
12.0
1070
    43
1040
28.0
1070
    44
1040
6.0
1070
    73
1070
     0
1070
    74
1070
     0
1070
    77
1070
     3
1070
   140
1040
12.0
1070
   141
1040
150.0
1070
   143
1040
0.03937
1070
   147
1040
4.0
1070
   172
1070
     1
1070
   173
1070
     1
1070
   176
1070
     4
1070
   177
1070
     4
1070
   178
1070
     4
1070
   271
1070
     0
1070
   272
1070
     2
1070
   343
1005
3729
1070
   344
1005
3729
1002
}
  0
DIMENSION
  5
395BB
330
1F
100
AcDbEntity
  8
SUNPOU
  6
Continuous
100
AcDbDimension
  2
*D12
 10
27233.52302407589
 20
-4490.914114563926
 30
0.0
 11
27386.97663435909
 21
-4480.914114563925
 31
0.0
 70
    32
 71
     5
 42
306.9072205663979
  3
STANDARD
100
AcDbAlignedDimension
 13
27540.43024464229
 23
-4438.39239341396
 33
0.0
 14
27233.52302407589
 24
-4438.39239341396
 34
0.0
100
AcDbRotatedDimension
1001
ACAD
1000
DSTYLE
1002
{
1070
    41
1040
14.0
1070
    42
1040
12.0
1070
    43
1040
28.0
1070
    44
1040
6.0
1070
    73
1070
     0
1070
    74
1070
     0
1070
    77
1070
     3
1070
   140
1040
12.0
1070
   141
1040
150.0
1070
   143
1040
0.03937
1070
   147
1040
4.0
1070
   172
1070
     1
1070
   173
1070
     1
1070
   176
1070
     4
1070
   177
1070
     4
1070
   178
1070
     4
1070
   271
1070
     0
1070
   272
1070
     2
1070
   343
1005
3729
1070
   344
1005
3729
1002
}
  0
DIMENSION
  5
395BC
330
1F
100
AcDbEntity
  8
SUNPOU
  6
Continuous
100
AcDbDimension
  2
*D11
 10
27584.85399690821
 20
-4083.260252779531
 30
0.0
 11
27384.00251132828
 21
-4073.260252779531
 31
0.0
 70
    32
 71
     5
 42
401.7029711598552
  3
STANDARD
100
AcDbAlignedDimension
 13
27183.15102574835
 23
-4130.892393413957
 33
0.0
 14
27584.85399690821
 24
-4180.892393413954
 34
0.0
100
AcDbRotatedDimension
1001
ACAD
1000
DSTYLE
1002
{
1070
    41
1040
14.0
1070
    42
1040
12.0
1070
    43
1040
28.0
1070
    44
1040
6.0
1070
    73
1070
     0
1070
    74
1070
     0
1070
    77
1070
     3
1070
   140
1040
12.0
1070
   141
1040
150.0
1070
   143
1040
0.03937
1070
   147
1040
4.0
1070
   172
1070
     1
1070
   173
1070
     1
1070
   176
1070
     4
1070
   177
1070
     4
1070
   178
1070
     4
1070
   271
1070
     0
1070
   272
1070
     2
1070
   343
1005
3729
1070
   344
1005
3729
1002
}
  0
LINE
  5
3A209
330
1F
100
AcDbEntity
  8
SEIHIN
  6
Continuous
 62
     3
100
AcDbLine
 10
26780.69293049701
 20
-4180.892393413954
 30
0.0
 11
26780.69293049701
 21
-4180.392393413955
 31
0.0
  0
ARC
  5
3A20A
330
1F
100
AcDbEntity
  8
SEIHIN
  6
Continuous
 62
     3
100
AcDbCircle
 10
26781.69293049701
 20
-4180.392393413955
 30
0.0
 40
1.0
100
AcDbArc
 50
90.0
 51
180.0
  0
LINE
  5
3A20B
330
1F
100
AcDbEntity
  8
SEIHIN
  6
Continuous
 62
     3
100
AcDbLine
 10
26949.69293049701
 20
-4179.392393413954
 30
0.0
 11
26935.692930497
 21
-4179.392393413954
 31
0.0
  0
LINE
  5
3A20F
330
1F
100
AcDbEntity
  8
SEIHIN
  6
Continuous
 62
     3
100
AcDbLine
 10
26950.69293049701
 20
-4180.892393413954
 30
0.0
 11
26950.69293049701
 21
-4180.392393413955
 31
0.0
  0
ARC
  5
3A210
330
1F
100
AcDbEntity
  8
SEIHIN
  6
Continuous
 62
     3
100
AcDbCircle
 10
26949.69293049701
 20
-4180.392393413955
 30
0.0
 40
1.0
100
AcDbArc
 50
0.000000000000007
 51
90.0
  0
LINE
  5
3A213
330
1F
100
AcDbEntity
  8
SEIHIN
  6
Continuous
 62
     3
100
AcDbLine
 10
26780.69293049701
 20
-4435.89239341396
 30
0.0
 11
26780.69293049701
 21
-4180.892393413954
 31
0.0
  0
LINE
  5
3A214
330
1F
100
AcDbEntity
  8
SEIHIN
  6
Continuous
 62
     3
100
AcDbLine
 10
26950.69293049701
 20
-4435.892393413958
 30
0.0
 11
26950.69293049701
 21
-4180.892393413954
 31
0.0
  0
ARC
  5
3A215
330
1F
100
AcDbEntity
  8
SEIHIN
  6
Continuous
 62
     3
100
AcDbCircle
 10
26781.69293049701
 20
-4437.39239341396
 30
0.0
 40
1.0
100
AcDbArc
 50
180.0
 51
270.0
  0
LINE
  5
3A216
330
1F
100
AcDbEntity
  8
SEIHIN
  6
Continuous
 62
     3
100
AcDbLine
 10
26780.69293049701
 20
-4437.39239341396
 30
0.0
 11
26780.69293049701
 21
-4435.89239341396
 31
0.0
  0
LINE
  5
3A217
330
1F
100
AcDbEntity
  8
SEIHIN
  6
Continuous
 62
     3
100
AcDbLine
 10
26781.69293049701
 20
-4438.39239341396
 30
0.0
 11
26949.69293049701
 21
-4438.39239341396
 31
0.0
  0
ARC
  5
3A218
330
1F
100
AcDbEntity
  8
SEIHIN
  6
Continuous
 62
     3
100
AcDbCircle
 10
26949.69293049701
 20
-4437.39239341396
 30
0.0
 40
1.0
100
AcDbArc
 50
270.0
 51
0.000000000000007
  0
LINE
  5
3A219
330
1F
100
AcDbEntity
  8
SEIHIN
  6
Continuous
 62
     3
100
AcDbLine
 10
26950.69293049701
 20
-4437.39239341396
 30
0.0
 11
26950.69293049701
 21
-4435.89239341396
 31
0.0
  0
LINE
  5
3A21B
330
1F
100
AcDbEntity
  8
SEIHIN
  6
Continuous
 62
     3
100
AcDbLine
 10
26795.69293049701
 20
-4437.39239341396
 30
0.0
 11
26795.69293049701
 21
-4130.392393413958
 31
0.0
  0
LINE
  5
3A21D
330
1F
100
AcDbEntity
  8
SEIHIN
  6
Continuous
 62
     3
100
AcDbLine
 10
26935.69293049701
 20
-4437.39239341396
 30
0.0
 11
26935.69293049701
 21
-4130.392393413958
 31
0.0
  0
LINE
  5
3A233
330
1F
100
AcDbEntity
  8
SEIHIN
  6
Continuous
 62
     3
100
AcDbLine
 10
26895.69293049701
 20
-4129.392393413958
 30
0.0
 11
26835.69293049701
 21
-4129.392393413958
 31
0.0
  0
LINE
  5
3A234
330
1F
100
AcDbEntity
  8
SEIHIN
  6
Continuous
 62
     3
100
AcDbLine
 10
26895.69293049701
 20
-4129.643437693168
 30
0.0
 11
26895.69293049701
 21
-4129.392393413958
 31
0.0
  0
LINE
  5
3A235
330
1F
100
AcDbEntity
  8
SEIHIN
  6
Continuous
 62
     3
100
AcDbLine
 10
26835.69293049701
 20
-4129.643437693168
 30
0.0
 11
26835.69293049701
 21
-4129.392393413958
 31
0.0
  0
LINE
  5
3A239
330
1F
100
AcDbEntity
  8
SEIHIN
  6
Continuous
 62
     3
100
AcDbLine
 10
26796.69293049701
 20
-4129.392393413958
 30
0.0
 11
26835.69293049701
 21
-4129.392393413958
 31
0.0
  0
ARC
  5
3A23A
330
1F
100
AcDbEntity
  8
SEIHIN
  6
Continuous
 62
     3
100
AcDbCircle
 10
26796.69293049701
 20
-4130.392393413958
 30
0.0
 40
1.0
100
AcDbArc
 50
90.0
 51
180.0
  0
LINE
  5
3A23B
330
1F
100
AcDbEntity
  8
SEIHIN
  6
Continuous
 62
     3
100
AcDbLine
 10
26934.69293049701
 20
-4129.392393413958
 30
0.0
 11
26895.69293049701
 21
-4129.392393413958
 31
0.0
  0
ARC
  5
3A23D
330
1F
100
AcDbEntity
  8
SEIHIN
  6
Continuous
 62
     3
100
AcDbCircle
 10
26934.69293049701
 20
-4130.392393413958
 30
0.0
 40
1.0
100
AcDbArc
 50
0.000000000000007
 51
90.0
  0
LINE
  5
3A240
330
1F
100
AcDbEntity
  8
CENTER L
  6
CENTER
 62
     1
 48
5.0
100
AcDbLine
 10
26865.69293049701
 20
-4464.200926198544
 30
0.0
 11
26865.69293049701
 21
-4101.019612330921
 31
0.0
  0
ARC
  5
3A243
330
1F
100
AcDbEntity
  8
SEIHIN
  6
Continuous
 62
     3
100
AcDbCircle
 10
26796.69293049701
 20
-4151.392393413956
 30
0.0
 40
1.0
100
AcDbArc
 50
180.0
 51
270.0
  0
ARC
  5
3A245
330
1F
100
AcDbEntity
  8
SEIHIN
  6
Continuous
 62
     3
100
AcDbCircle
 10
26934.69293049701
 20
-4151.392393413956
 30
0.0
 40
1.0
100
AcDbArc
 50
270.0
 51
0.000000000000007
  0
LINE
  5
3A246
330
1F
100
AcDbEntity
  8
SEIHIN
  6
Continuous
 62
     3
100
AcDbLine
 10
26796.69293049701
 20
-4152.392393413957
 30
0.0
 11
26934.69293049701
 21
-4152.392393413957
 31
0.0
  0
ARC
  5
3A249
330
1F
100
AcDbEntity
  8
SEIHIN
  6
Continuous
 62
     3
100
AcDbCircle
 10
26949.692930497
 20
-4199.892393413957
 30
0.0
 40
1.000000000000102
100
AcDbArc
 50
0.0
 51
48.50000000003195
  0
ARC
  5
3A24A
330
1F
100
AcDbEntity
  8
SEIHIN
  6
Continuous
 62
     3
100
AcDbCircle
 10
26949.692930497
 20
-4199.892393413957
 30
0.0
 40
1.000000000000341
100
AcDbArc
 50
48.50000000003195
 51
90.0
  0
ARC
  5
3A24B
330
1F
100
AcDbEntity
  8
SEIHIN
  6
Continuous
 62
     3
100
AcDbCircle
 10
26781.69293049701
 20
-4199.892393413957
 30
0.0
 40
1.000000000000341
100
AcDbArc
 50
90.0
 51
131.499999999968
  0
ARC
  5
3A24C
330
1F
100
AcDbEntity
  8
SEIHIN
  6
Continuous
 62
     3
100
AcDbCircle
 10
26781.69293049701
 20
-4199.892393413957
 30
0.0
 40
1.000000000000102
100
AcDbArc
 50
131.499999999968
 51
180.0
  0
LINE
  5
3A24D
330
1F
100
AcDbEntity
  8
SEIHIN
  6
Continuous
 62
     3
100
AcDbLine
 10
26781.69293049701
 20
-4198.892393413958
 30
0.0
 11
26795.69293049701
 21
-4198.892393413958
 31
0.0
  0
LINE
  5
3A24E
330
1F
100
AcDbEntity
  8
SEIHIN
  6
Continuous
 62
     3
100
AcDbLine
 10
26949.692930497
 20
-4198.892393413958
 30
0.0
 11
26935.69293049701
 21
-4198.892393413958
 31
0.0
  0
LINE
  5
3A24F
330
1F
100
AcDbEntity
  8
SEIHIN
  6
Continuous
 62
     3
100
AcDbLine
 10
26795.69293049701
 20
-4179.392393413954
 30
0.0
 11
26781.69293049701
 21
-4179.392393413954
 31
0.0
  0
LINE
  5
3AF8B
330
1F
100
AcDbEntity
  8
SEIHIN
  6
Continuous
 62
     3
100
AcDbLine
 10
26949.69293049701
 20
-4434.892393413959
 30
0.0
 11
26935.692930497
 21
-4434.892393413959
 31
0.0
  0
LINE
  5
3AF8C
330
1F
100
AcDbEntity
  8
SEIHIN
  6
Continuous
 62
     3
100
AcDbLine
 10
26795.69293049701
 20
-4434.89239341396
 30
0.0
 11
26781.69293049701
 21
-4434.89239341396
 31
0.0
  0
ARC
  5
3AFA7
330
1F
100
AcDbEntity
  8
SEIHIN
  6
Continuous
 62
     3
100
AcDbCircle
 10
26949.69293049701
 20
-4435.89239341396
 30
0.0
 40
1.0
100
AcDbArc
 50
0.0
 51
90.0
  0
ARC
  5
3AFA8
330
1F
100
AcDbEntity
  8
SEIHIN
  6
Continuous
 62
     3
100
AcDbCircle
 10
26781.69293049701
 20
-4435.89239341396
 30
0.0
 40
1.0
100
AcDbArc
 50
89.99999999999651
 51
180.0
  0
ARC
  5
3AFCD
330
1F
100
AcDbEntity
  8
SEIHIN
  6
Continuous
 62
     3
100
AcDbCircle
 10
26796.69293049701
 20
-4437.39239341396
 30
0.0
 40
1.0
100
AcDbArc
 50
180.0
 51
270.0
  0
ARC
  5
3AFCE
330
1F
100
AcDbEntity
  8
SEIHIN
  6
Continuous
 62
     3
100
AcDbCircle
 10
26934.69293049701
 20
-4437.39239341396
 30
0.0
 40
1.0
100
AcDbArc
 50
270.0
 51
359.9999999999993
  0
VIEWPORT
  5
9C4C
102
{ACAD_XDICTIONARY
360
3B2CD
102
}
330
1B
100
AcDbEntity
 67
     1
  8
0
100
AcDbViewport
 10
143.5208229485413
 20
121.1614679204199
 30
0.0
 40
703.7903040400323
 41
331.6888215139915
 68
     1
 69
     1
 12
143.5208229485413
 22
121.1614679204199
 13
0.0
 23
0.0
 14
10.0
 24
10.0
 15
10.0
 25
10.0
 16
0.0
 26
0.0
 36
1.0
 17
0.0
 27
0.0
 37
0.0
 42
50.0
 43
0.0
 44
0.0
 45
331.6888215139915
 50
0.0
 51
0.0
 72
  2000
 90
    32800
  1

281
     0
 71
     1
 74
     0
110
0.0
120
0.0
130
0.0
111
1.0
121
0.0
131
0.0
112
0.0
122
1.0
132
0.0
 79
     0
146
0.0
  0
VIEWPORT
  5
9C4E
102
{ACAD_XDICTIONARY
360
3B2CF
102
}
330
1B
100
AcDbEntity
 67
     1
  8
0
100
AcDbViewport
 10
135.2920704389401
 20
124.8806473277914
 30
0.0
 40
418.2613698910962
 41
295.0483533347457
 68
     2
 69
     2
 12
27197.168316707
 22
-4181.730267164561
 13
0.0
 23
0.0
 14
10.0
 24
10.0
 15
10.0
 25
10.0
 16
0.0
 26
0.0
 36
1.0
 17
0.0
 27
0.0
 37
0.0
 42
50.0
 43
0.0
 44
0.0
 45
885.1450574642891
 50
0.0
 51
0.0
 72
  2000
 90
    32832
  1

281
     0
 71
     1
 74
     0
110
0.0
120
0.0
130
0.0
111
1.0
121
0.0
131
0.0
112
0.0
122
1.0
132
0.0
 79
     0
146
0.0
  0
ENDSEC
  0
SECTION
  2
OBJECTS
  0
DICTIONARY
  5
C
330
0
100
AcDbDictionary
281
     1
  3
ACAD_COLOR
350
C5F
  3
ACAD_GROUP
350
D
  3
ACAD_LAYOUT
350
1A
  3
ACAD_MATERIAL
350
C5E
  3
ACAD_MLINESTYLE
350
17
  3
ACAD_PLOTSETTINGS
350
19
  3
ACAD_PLOTSTYLENAME
350
E
  3
ACAD_SCALELIST
350
47
  3
ACDBHEADERROUNDTRIPXREC
350
3B2C6
  3
AcDbVariableDictionary
350
3AFDA
  3
DWGPROPS
350
3B2C5
  0
DICTIONARY
  5
1F218
330
2
100
AcDbDictionary
280
     1
281
     1
  3
ACAD_LAYERFILTERS
360
3A1CA
  3
ACAD_LAYERSTATES
360
1F219
  0
DICTIONARY
  5
1FBAB
330
1FBAA
100
AcDbDictionary
280
     1
281
     1
  0
DICTIONARY
  5
3B2CD
330
9C4C
100
AcDbDictionary
280
     1
281
     1
  3
ACAD_XREC_ROUNDTRIP
360
3B2CE
  0
DICTIONARY
  5
3B2CF
330
9C4E
100
AcDbDictionary
280
     1
281
     1
  3
ACAD_XREC_ROUNDTRIP
360
3B2D0
  0
DICTIONARY
  5
C5F
102
{ACAD_REACTORS
330
C
102
}
330
C
100
AcDbDictionary
281
     1
  0
DICTIONARY
  5
D
102
{ACAD_REACTORS
330
C
102
}
330
C
100
AcDbDictionary
281
     1
  3
*A1
350
36CF
  3
*A10
350
2F6A0
  3
*A100
350
1AB36
  3
*A101
350
16E23
  3
*A102
350
36D5
  3
*A103
350
15424
  3
*A104
350
1AAA2
  3
*A105
350
81BB
  3
*A106
350
11D39
  3
*A107
350
876D
  3
*A108
350
2B930
  3
*A109
350
1B17E
  3
*A11
350
300DE
  3
*A110
350
2E71A
  3
*A111
350
2E9E8
  3
*A112
350
2F6BB
  3
*A113
350
1A7D3
  3
*A114
350
2F6A1
  3
*A115
350
30BB4
  3
*A116
350
16EE2
  3
*A117
350
732C
  3
*A118
350
300E1
  3
*A119
350
E332
  3
*A12
350
2E646
  3
*A120
350
16B77
  3
*A121
350
2FC97
  3
*A122
350
3304A
  3
*A123
350
3304B
  3
*A124
350
76F0
  3
*A125
350
12663
  3
*A126
350
1D242
  3
*A127
350
876C
  3
*A128
350
2F6D8
  3
*A129
350
2E818
  3
*A13
350
98F4
  3
*A130
350
16E25
  3
*A131
350
E3CE
  3
*A132
350
E2E5
  3
*A133
350
1AAF9
  3
*A134
350
1B162
  3
*A135
350
1AB54
  3
*A136
350
2F6BC
  3
*A137
350
2E819
  3
*A138
350
2E719
  3
*A139
350
16CC8
  3
*A14
350
2E9EA
  3
*A140
350
1A381
  3
*A141
350
1A33E
  3
*A142
350
7B00
  3
*A143
350
2B9D6
  3
*A144
350
322E4
  3
*A145
350
7B01
  3
*A146
350
2CDA9
  3
*A147
350
2E334
  3
*A148
350
32210
  3
*A149
350
16BFD
  3
*A15
350
2B9CA
  3
*A150
350
1AAA1
  3
*A151
350
16E24
  3
*A152
350
2D527
  3
*A153
350
2B9D7
  3
*A154
350
16B76
  3
*A155
350
2BA2E
  3
*A156
350
2EB85
  3
*A157
350
1A72F
  3
*A158
350
99FD
  3
*A159
350
1A0E1
  3
*A16
350
2FC1E
  3
*A160
350
12142
  3
*A161
350
1EF06
  3
*A162
350
2B9CE
  3
*A163
350
36403
  3
*A164
350
36404
  3
*A165
350
2C757
  3
*A166
350
1A781
  3
*A167
350
2E9E9
  3
*A168
350
32629
  3
*A169
350
38F76
  3
*A17
350
3089D
  3
*A170
350
39315
  3
*A171
350
3934C
  3
*A172
350
39E38
  3
*A173
350
2CCD2
  3
*A174
350
2BB07
  3
*A175
350
876E
  3
*A176
350
39E39
  3
*A177
350
2C758
  3
*A178
350
D0B3
  3
*A179
350
2D52D
  3
*A18
350
3262B
  3
*A180
350
16EE1
  3
*A181
350
2D52A
  3
*A182
350
1A7AA
  3
*A183
350
2CCEC
  3
*A184
350
7AD8
  3
*A185
350
149D3
  3
*A186
350
2D52E
  3
*A187
350
1FA2F
  3
*A188
350
8802
  3
*A189
350
996B
  3
*A19
350
2F72B
  3
*A190
350
2F6D9
  3
*A191
350
2D915
  3
*A192
350
2E338
  3
*A193
350
2D52F
  3
*A194
350
2CDAA
  3
*A195
350
2FC95
  3
*A196
350
19E53
  3
*A197
350
19A57
  3
*A198
350
81AA
  3
*A199
350
1D241
  3
*A2
350
1A5A1
  3
*A20
350
3262C
  3
*A200
350
2D529
  3
*A201
350
2F72C
  3
*A202
350
1EC4E
  3
*A203
350
7AD9
  3
*A204
350
2C759
  3
*A205
350
16CCA
  3
*A206
350
2D530
  3
*A207
350
8813
  3
*A208
350
16E28
  3
*A209
350
2D531
  3
*A21
350
2E337
  3
*A210
350
1AAF8
  3
*A211
350
2CDA8
  3
*A212
350
1B197
  3
*A213
350
19E52
  3
*A214
350
1A5F5
  3
*A215
350
2F727
  3
*A216
350
2B7FE
  3
*A217
350
9527
  3
*A218
350
2CC76
  3
*A219
350
1EC28
  3
*A22
350
2F752
  3
*A220
350
2BA33
  3
*A221
350
E40A
  3
*A222
350
2D52B
  3
*A223
350
1A7FC
  3
*A224
350
33818
  3
*A225
350
33819
  3
*A226
350
33D7A
  3
*A227
350
33D7B
  3
*A228
350
1ABC9
  3
*A229
350
1AAC1
  3
*A23
350
2E642
  3
*A230
350
2E336
  3
*A231
350
11D38
  3
*A232
350
D2B7
  3
*A233
350
2F725
  3
*A234
350
81AB
  3
*A235
350
3108C
  3
*A236
350
3108D
  3
*A237
350
2F75A
  3
*A238
350
3089E
  3
*A239
350
16BFC
  3
*A24
350
2D52C
  3
*A240
350
16EE3
  3
*A241
350
19E51
  3
*A242
350
3109F
  3
*A243
350
1D274
  3
*A244
350
1006C
  3
*A245
350
2E645
  3
*A246
350
312E7
  3
*A247
350
2FA6A
  3
*A248
350
16A8C
  3
*A249
350
3262A
  3
*A25
350
2AF6D
  3
*A250
350
312E8
  3
*A251
350
312E9
  3
*A252
350
3022C
  3
*A253
350
31B42
  3
*A254
350
1A193
  3
*A255
350
17B62
  3
*A256
350
2B8FE
  3
*A257
350
2F6D6
  3
*A258
350
2FA6B
  3
*A259
350
2FAFF
  3
*A26
350
9529
  3
*A260
350
2EB83
  3
*A261
350
31B43
  3
*A262
350
3B235
  3
*A263
350
2F72A
  3
*A264
350
2FD83
  3
*A265
350
2B7FD
  3
*A27
350
2AF6E
  3
*A28
350
8178
  3
*A29
350
301FC
  3
*A3
350
2B917
  3
*A30
350
1EEB7
  3
*A31
350
2FC1C
  3
*A32
350
E3CD
  3
*A33
350
300DF
  3
*A34
350
1A4E1
  3
*A35
350
1A825
  3
*A36
350
1A2FB
  3
*A37
350
149D2
  3
*A38
350
9528
  3
*A39
350
32204
  3
*A4
350
2BB08
  3
*A40
350
16CC9
  3
*A41
350
12770
  3
*A42
350
2AF6F
  3
*A43
350
12141
  3
*A44
350
2FC1D
  3
*A45
350
1A68B
  3
*A46
350
1252B
  3
*A47
350
2F726
  3
*A48
350
2E814
  3
*A49
350
13067
  3
*A5
350
12771
  3
*A50
350
1A68A
  3
*A51
350
1AB72
  3
*A52
350
16B4C
  3
*A53
350
16E26
  3
*A54
350
2AF83
  3
*A55
350
2BB06
  3
*A56
350
98F3
  3
*A57
350
2F729
  3
*A58
350
1D240
  3
*A59
350
2F762
  3
*A6
350
2FDE3
  3
*A60
350
2B6E6
  3
*A61
350
2EB84
  3
*A62
350
1EC64
  3
*A63
350
15425
  3
*A64
350
1EEB8
  3
*A65
350
2FC96
  3
*A66
350
1B149
  3
*A67
350
301FB
  3
*A68
350
817B
  3
*A69
350
3491D
  3
*A7
350
2FDE4
  3
*A70
350
76F1
  3
*A71
350
2F6D7
  3
*A72
350
1D243
  3
*A73
350
1AB18
  3
*A74
350
16A60
  3
*A75
350
3220A
  3
*A76
350
2F728
  3
*A77
350
16BFE
  3
*A78
350
30B80
  3
*A79
350
2CDAB
  3
*A8
350
300DD
  3
*A80
350
2B7FC
  3
*A81
350
1A61E
  3
*A82
350
1252C
  3
*A83
350
30B81
  3
*A84
350
300E0
  3
*A85
350
2E335
  3
*A86
350
2B8E0
  3
*A87
350
1D244
  3
*A88
350
E31A
  3
*A89
350
2E644
  3
*A9
350
8179
  3
*A90
350
2B972
  3
*A91
350
7B15
  3
*A92
350
DED9
  3
*A93
350
1AAA3
  3
*A94
350
1A758
  3
*A95
350
16E27
  3
*A96
350
2E643
  3
*A97
350
2D528
  3
*A98
350
732B
  3
*A99
350
2CCB9
  0
DICTIONARY
  5
1A
102
{ACAD_REACTORS
330
C
102
}
330
C
100
AcDbDictionary
281
     1
  3
Model
350
22
  3
ジョイント
350
1E
  0
DICTIONARY
  5
C5E
102
{ACAD_REACTORS
330
C
102
}
330
C
100
AcDbDictionary
281
     1
  0
DICTIONARY
  5
17
102
{ACAD_REACTORS
330
C
102
}
330
C
100
AcDbDictionary
281
     1
  3
Standard
350
18
  0
DICTIONARY
  5
19
102
{ACAD_REACTORS
330
C
102
}
330
C
100
AcDbDictionary
281
     1
  0
ACDBDICTIONARYWDFLT
  5
E
102
{ACAD_REACTORS
330
C
102
}
330
C
100
AcDbDictionary
281
     1
  3
Normal
350
F
100
AcDbDictionaryWithDefault
340
F
  0
DICTIONARY
  5
47
102
{ACAD_REACTORS
330
C
102
}
330
C
100
AcDbDictionary
281
     1
  3
A0
350
48
  3
A1
350
49
  3
A2
350
4A
  3
A3
350
4B
  3
A4
350
4C
  3
A5
350
4D
  3
A6
350
4E
  3
A7
350
4F
  3
A8
350
50
  3
A9
350
51
  3
B0
350
52
  3
B1
350
53
  3
B2
350
54
  3
B3
350
55
  3
B4
350
56
  3
B5
350
57
  3
B6
350
58
  3
B7
350
59
  3
B8
350
5A
  3
B9
350
5B
  3
C0
350
5C
  3
C1
350
5D
  3
C2
350
5E
  3
C3
350
5F
  3
C4
350
60
  3
C5
350
61
  3
C6
350
62
  3
C7
350
63
  3
C8
350
64
  3
C9
350
65
  3
D0
350
66
  3
D1
350
67
  3
D2
350
68
  0
DICTIONARY
  5
3B2C6
102
{ACAD_REACTORS
330
C
102
}
330
C
100
AcDbDictionary
281
     1
  3
COLORDICT
350
3B2C8
  3
MATERIALDICT
350
3B2C7
  0
DICTIONARY
  5
3AFDA
102
{ACAD_REACTORS
330
C
102
}
330
C
100
AcDbDictionary
281
     1
  3
DIMASSOC
350
3AFDB
  3
PROJECTNAME
350
3AFDC
  0
XRECORD
  5
3B2C5
102
{ACAD_REACTORS
330
C
102
}
330
C
100
AcDbXrecord
280
     1
  1
DWGPROPS COOKIE
  2

  3

  4

  6

  7

  8
CAD1
  9

300
=
301
=
302
=
303
=
304
=
305
=
306
=
307
=
308
=
309
=
 40
11.12317991898148
 41
2459977.552915243
 42
2460199.701766701
  1

 90
        0
  0
DICTIONARY
  5
3A1CA
102
{ACAD_REACTORS
330
1F218
102
}
330
1F218
100
AcDbDictionary
281
     1
  0
DICTIONARY
  5
1F219
102
{ACAD_REACTORS
330
1F218
102
}
330
1F218
100
AcDbDictionary
281
     1
  0
XRECORD
  5
3B2CE
102
{ACAD_REACTORS
330
3B2CD
102
}
330
3B2CD
100
AcDbXrecord
280
     1
102
SHADEPLOT
 70
     0
  0
XRECORD
  5
3B2D0
102
{ACAD_REACTORS
330
3B2CF
102
}
330
3B2CF
100
AcDbXrecord
280
     1
102
SHADEPLOT
 70
     0
  0
GROUP
  5
36CF
102
{ACAD_REACTORS
330
D
102
}
330
D
100
AcDbGroup
300

 70
     1
 71
     1
  0
GROUP
  5
2F6A0
102
{ACAD_REACTORS
330
D
102
}
330
D
100
AcDbGroup
300

 70
     1
 71
     1
  0
GROUP
  5
1AB36
102
{ACAD_REACTORS
330
D
102
}
330
D
100
AcDbGroup
300

 70
     1
 71
     1
  0
GROUP
  5
16E23
102
{ACAD_REACTORS
330
D
102
}
330
D
100
AcDbGroup
300

 70
     1
 71
     1
  0
GROUP
  5
36D5
102
{ACAD_REACTORS
330
D
102
}
330
D
100
AcDbGroup
300

 70
     1
 71
     1
  0
GROUP
  5
15424
102
{ACAD_REACTORS
330
D
102
}
330
D
100
AcDbGroup
300

 70
     1
 71
     1
  0
GROUP
  5
1AAA2
102
{ACAD_REACTORS
330
D
102
}
330
D
100
AcDbGroup
300

 70
     1
 71
     1
  0
GROUP
  5
81BB
102
{ACAD_REACTORS
330
D
102
}
330
D
100
AcDbGroup
300

 70
     1
 71
     1
  0
GROUP
  5
11D39
102
{ACAD_REACTORS
330
D
102
}
330
D
100
AcDbGroup
300

 70
     1
 71
     1
  0
GROUP
  5
876D
102
{ACAD_REACTORS
330
D
102
}
330
D
100
AcDbGroup
300

 70
     1
 71
     1
  0
GROUP
  5
2B930
102
{ACAD_REACTORS
330
D
102
}
330
D
100
AcDbGroup
300

 70
     1
 71
     1
  0
GROUP
  5
1B17E
102
{ACAD_REACTORS
330
D
102
}
330
D
100
AcDbGroup
300

 70
     1
 71
     1
  0
GROUP
  5
300DE
102
{ACAD_REACTORS
330
D
102
}
330
D
100
AcDbGroup
300

 70
     1
 71
     1
  0
GROUP
  5
2E71A
102
{ACAD_REACTORS
330
D
102
}
330
D
100
AcDbGroup
300

 70
     1
 71
     1
  0
GROUP
  5
2E9E8
102
{ACAD_REACTORS
330
D
102
}
330
D
100
AcDbGroup
300

 70
     1
 71
     1
  0
GROUP
  5
2F6BB
102
{ACAD_REACTORS
330
D
102
}
330
D
100
AcDbGroup
300

 70
     1
 71
     1
  0
GROUP
  5
1A7D3
102
{ACAD_REACTORS
330
D
102
}
330
D
100
AcDbGroup
300

 70
     1
 71
     1
  0
GROUP
  5
2F6A1
102
{ACAD_REACTORS
330
D
102
}
330
D
100
AcDbGroup
300

 70
     1
 71
     1
  0
GROUP
  5
30BB4
102
{ACAD_REACTORS
330
D
102
}
330
D
100
AcDbGroup
300

 70
     1
 71
     1
  0
GROUP
  5
16EE2
102
{ACAD_REACTORS
330
D
102
}
330
D
100
AcDbGroup
300

 70
     1
 71
     1
  0
GROUP
  5
732C
102
{ACAD_REACTORS
330
D
102
}
330
D
100
AcDbGroup
300

 70
     1
 71
     1
  0
GROUP
  5
300E1
102
{ACAD_REACTORS
330
D
102
}
330
D
100
AcDbGroup
300

 70
     1
 71
     1
  0
GROUP
  5
E332
102
{ACAD_REACTORS
330
D
102
}
330
D
100
AcDbGroup
300

 70
     1
 71
     1
  0
GROUP
  5
2E646
102
{ACAD_REACTORS
330
D
102
}
330
D
100
AcDbGroup
300

 70
     1
 71
     1
  0
GROUP
  5
16B77
102
{ACAD_REACTORS
330
D
102
}
330
D
100
AcDbGroup
300

 70
     1
 71
     1
  0
GROUP
  5
2FC97
102
{ACAD_REACTORS
330
D
102
}
330
D
100
AcDbGroup
300

 70
     1
 71
     1
  0
GROUP
  5
3304A
102
{ACAD_REACTORS
330
D
102
}
330
D
100
AcDbGroup
300

 70
     1
 71
     1
  0
GROUP
  5
3304B
102
{ACAD_REACTORS
330
D
102
}
330
D
100
AcDbGroup
300

 70
     1
 71
     1
  0
GROUP
  5
76F0
102
{ACAD_REACTORS
330
D
102
}
330
D
100
AcDbGroup
300

 70
     1
 71
     1
  0
GROUP
  5
12663
102
{ACAD_REACTORS
330
D
102
}
330
D
100
AcDbGroup
300

 70
     1
 71
     1
  0
GROUP
  5
1D242
102
{ACAD_REACTORS
330
D
102
}
330
D
100
AcDbGroup
300

 70
     1
 71
     1
  0
GROUP
  5
876C
102
{ACAD_REACTORS
330
D
102
}
330
D
100
AcDbGroup
300

 70
     1
 71
     1
  0
GROUP
  5
2F6D8
102
{ACAD_REACTORS
330
D
102
}
330
D
100
AcDbGroup
300

 70
     1
 71
     1
  0
GROUP
  5
2E818
102
{ACAD_REACTORS
330
D
102
}
330
D
100
AcDbGroup
300

 70
     1
 71
     1
  0
GROUP
  5
98F4
102
{ACAD_REACTORS
330
D
102
}
330
D
100
AcDbGroup
300

 70
     1
 71
     1
  0
GROUP
  5
16E25
102
{ACAD_REACTORS
330
D
102
}
330
D
100
AcDbGroup
300

 70
     1
 71
     1
  0
GROUP
  5
E3CE
102
{ACAD_REACTORS
330
D
102
}
330
D
100
AcDbGroup
300

 70
     1
 71
     1
  0
GROUP
  5
E2E5
102
{ACAD_REACTORS
330
D
102
}
330
D
100
AcDbGroup
300

 70
     1
 71
     1
  0
GROUP
  5
1AAF9
102
{ACAD_REACTORS
330
D
102
}
330
D
100
AcDbGroup
300

 70
     1
 71
     1
  0
GROUP
  5
1B162
102
{ACAD_REACTORS
330
D
102
}
330
D
100
AcDbGroup
300

 70
     1
 71
     1
  0
GROUP
  5
1AB54
102
{ACAD_REACTORS
330
D
102
}
330
D
100
AcDbGroup
300

 70
     1
 71
     1
  0
GROUP
  5
2F6BC
102
{ACAD_REACTORS
330
D
102
}
330
D
100
AcDbGroup
300

 70
     1
 71
     1
  0
GROUP
  5
2E819
102
{ACAD_REACTORS
330
D
102
}
330
D
100
AcDbGroup
300

 70
     1
 71
     1
  0
GROUP
  5
2E719
102
{ACAD_REACTORS
330
D
102
}
330
D
100
AcDbGroup
300

 70
     1
 71
     1
  0
GROUP
  5
16CC8
102
{ACAD_REACTORS
330
D
102
}
330
D
100
AcDbGroup
300

 70
     1
 71
     1
  0
GROUP
  5
2E9EA
102
{ACAD_REACTORS
330
D
102
}
330
D
100
AcDbGroup
300

 70
     1
 71
     1
  0
GROUP
  5
1A381
102
{ACAD_REACTORS
330
D
102
}
330
D
100
AcDbGroup
300

 70
     1
 71
     1
  0
GROUP
  5
1A33E
102
{ACAD_REACTORS
330
D
102
}
330
D
100
AcDbGroup
300

 70
     1
 71
     1
  0
GROUP
  5
7B00
102
{ACAD_REACTORS
330
D
102
}
330
D
100
AcDbGroup
300

 70
     1
 71
     1
  0
GROUP
  5
2B9D6
102
{ACAD_REACTORS
330
D
102
}
330
D
100
AcDbGroup
300

 70
     1
 71
     1
  0
GROUP
  5
322E4
102
{ACAD_REACTORS
330
D
102
}
330
D
100
AcDbGroup
300

 70
     1
 71
     1
  0
GROUP
  5
7B01
102
{ACAD_REACTORS
330
D
102
}
330
D
100
AcDbGroup
300

 70
     1
 71
     1
  0
GROUP
  5
2CDA9
102
{ACAD_REACTORS
330
D
102
}
330
D
100
AcDbGroup
300

 70
     1
 71
     1
  0
GROUP
  5
2E334
102
{ACAD_REACTORS
330
D
102
}
330
D
100
AcDbGroup
300

 70
     1
 71
     1
  0
GROUP
  5
32210
102
{ACAD_REACTORS
330
D
102
}
330
D
100
AcDbGroup
300

 70
     1
 71
     1
  0
GROUP
  5
16BFD
102
{ACAD_REACTORS
330
D
102
}
330
D
100
AcDbGroup
300

 70
     1
 71
     1
  0
GROUP
  5
2B9CA
102
{ACAD_REACTORS
330
D
102
}
330
D
100
AcDbGroup
300

 70
     1
 71
     1
  0
GROUP
  5
1AAA1
102
{ACAD_REACTORS
330
D
102
}
330
D
100
AcDbGroup
300

 70
     1
 71
     1
  0
GROUP
  5
16E24
102
{ACAD_REACTORS
330
D
102
}
330
D
100
AcDbGroup
300

 70
     1
 71
     1
  0
GROUP
  5
2D527
102
{ACAD_REACTORS
330
D
102
}
330
D
100
AcDbGroup
300

 70
     1
 71
     1
  0
GROUP
  5
2B9D7
102
{ACAD_REACTORS
330
D
102
}
330
D
100
AcDbGroup
300

 70
     1
 71
     1
  0
GROUP
  5
16B76
102
{ACAD_REACTORS
330
D
102
}
330
D
100
AcDbGroup
300

 70
     1
 71
     1
  0
GROUP
  5
2BA2E
102
{ACAD_REACTORS
330
D
102
}
330
D
100
AcDbGroup
300

 70
     1
 71
     1
  0
GROUP
  5
2EB85
102
{ACAD_REACTORS
330
D
102
}
330
D
100
AcDbGroup
300

 70
     1
 71
     1
  0
GROUP
  5
1A72F
102
{ACAD_REACTORS
330
D
102
}
330
D
100
AcDbGroup
300

 70
     1
 71
     1
  0
GROUP
  5
99FD
102
{ACAD_REACTORS
330
D
102
}
330
D
100
AcDbGroup
300

 70
     1
 71
     1
  0
GROUP
  5
1A0E1
102
{ACAD_REACTORS
330
D
102
}
330
D
100
AcDbGroup
300

 70
     1
 71
     1
  0
GROUP
  5
2FC1E
102
{ACAD_REACTORS
330
D
102
}
330
D
100
AcDbGroup
300

 70
     1
 71
     1
  0
GROUP
  5
12142
102
{ACAD_REACTORS
330
D
102
}
330
D
100
AcDbGroup
300

 70
     1
 71
     1
  0
GROUP
  5
1EF06
102
{ACAD_REACTORS
330
D
102
}
330
D
100
AcDbGroup
300

 70
     1
 71
     1
  0
GROUP
  5
2B9CE
102
{ACAD_REACTORS
330
D
102
}
330
D
100
AcDbGroup
300

 70
     1
 71
     1
  0
GROUP
  5
36403
102
{ACAD_REACTORS
330
D
102
}
330
D
100
AcDbGroup
300

 70
     1
 71
     1
  0
GROUP
  5
36404
102
{ACAD_REACTORS
330
D
102
}
330
D
100
AcDbGroup
300

 70
     1
 71
     1
  0
GROUP
  5
2C757
102
{ACAD_REACTORS
330
D
102
}
330
D
100
AcDbGroup
300

 70
     1
 71
     1
  0
GROUP
  5
1A781
102
{ACAD_REACTORS
330
D
102
}
330
D
100
AcDbGroup
300

 70
     1
 71
     1
  0
GROUP
  5
2E9E9
102
{ACAD_REACTORS
330
D
102
}
330
D
100
AcDbGroup
300

 70
     1
 71
     1
  0
GROUP
  5
32629
102
{ACAD_REACTORS
330
D
102
}
330
D
100
AcDbGroup
300

 70
     1
 71
     1
  0
GROUP
  5
38F76
102
{ACAD_REACTORS
330
D
102
}
330
D
100
AcDbGroup
300

 70
     1
 71
     1
  0
GROUP
  5
3089D
102
{ACAD_REACTORS
330
D
102
}
330
D
100
AcDbGroup
300

 70
     1
 71
     1
  0
GROUP
  5
39315
102
{ACAD_REACTORS
330
D
102
}
330
D
100
AcDbGroup
300

 70
     1
 71
     1
  0
GROUP
  5
3934C
102
{ACAD_REACTORS
330
D
102
}
330
D
100
AcDbGroup
300

 70
     1
 71
     1
  0
GROUP
  5
39E38
102
{ACAD_REACTORS
330
D
102
}
330
D
100
AcDbGroup
300

 70
     1
 71
     1
  0
GROUP
  5
2CCD2
102
{ACAD_REACTORS
330
D
102
}
330
D
100
AcDbGroup
300

 70
     1
 71
     1
  0
GROUP
  5
2BB07
102
{ACAD_REACTORS
330
D
102
}
330
D
100
AcDbGroup
300

 70
     1
 71
     1
  0
GROUP
  5
876E
102
{ACAD_REACTORS
330
D
102
}
330
D
100
AcDbGroup
300

 70
     1
 71
     1
  0
GROUP
  5
39E39
102
{ACAD_REACTORS
330
D
102
}
330
D
100
AcDbGroup
300

 70
     1
 71
     1
  0
GROUP
  5
2C758
102
{ACAD_REACTORS
330
D
102
}
330
D
100
AcDbGroup
300

 70
     1
 71
     1
  0
GROUP
  5
D0B3
102
{ACAD_REACTORS
330
D
102
}
330
D
100
AcDbGroup
300

 70
     1
 71
     1
  0
GROUP
  5
2D52D
102
{ACAD_REACTORS
330
D
102
}
330
D
100
AcDbGroup
300

 70
     1
 71
     1
  0
GROUP
  5
3262B
102
{ACAD_REACTORS
330
D
102
}
330
D
100
AcDbGroup
300

 70
     1
 71
     1
  0
GROUP
  5
16EE1
102
{ACAD_REACTORS
330
D
102
}
330
D
100
AcDbGroup
300

 70
     1
 71
     1
  0
GROUP
  5
2D52A
102
{ACAD_REACTORS
330
D
102
}
330
D
100
AcDbGroup
300

 70
     1
 71
     1
  0
GROUP
  5
1A7AA
102
{ACAD_REACTORS
330
D
102
}
330
D
100
AcDbGroup
300

 70
     1
 71
     1
  0
GROUP
  5
2CCEC
102
{ACAD_REACTORS
330
D
102
}
330
D
100
AcDbGroup
300

 70
     1
 71
     1
  0
GROUP
  5
7AD8
102
{ACAD_REACTORS
330
D
102
}
330
D
100
AcDbGroup
300

 70
     1
 71
     1
  0
GROUP
  5
149D3
102
{ACAD_REACTORS
330
D
102
}
330
D
100
AcDbGroup
300

 70
     1
 71
     1
  0
GROUP
  5
2D52E
102
{ACAD_REACTORS
330
D
102
}
330
D
100
AcDbGroup
300

 70
     1
 71
     1
  0
GROUP
  5
1FA2F
102
{ACAD_REACTORS
330
D
102
}
330
D
100
AcDbGroup
300

 70
     1
 71
     1
  0
GROUP
  5
8802
102
{ACAD_REACTORS
330
D
102
}
330
D
100
AcDbGroup
300

 70
     1
 71
     1
  0
GROUP
  5
996B
102
{ACAD_REACTORS
330
D
102
}
330
D
100
AcDbGroup
300

 70
     1
 71
     1
  0
GROUP
  5
2F72B
102
{ACAD_REACTORS
330
D
102
}
330
D
100
AcDbGroup
300

 70
     1
 71
     1
  0
GROUP
  5
2F6D9
102
{ACAD_REACTORS
330
D
102
}
330
D
100
AcDbGroup
300

 70
     1
 71
     1
  0
GROUP
  5
2D915
102
{ACAD_REACTORS
330
D
102
}
330
D
100
AcDbGroup
300

 70
     1
 71
     1
  0
GROUP
  5
2E338
102
{ACAD_REACTORS
330
D
102
}
330
D
100
AcDbGroup
300

 70
     1
 71
     1
  0
GROUP
  5
2D52F
102
{ACAD_REACTORS
330
D
102
}
330
D
100
AcDbGroup
300

 70
     1
 71
     1
  0
GROUP
  5
2CDAA
102
{ACAD_REACTORS
330
D
102
}
330
D
100
AcDbGroup
300

 70
     1
 71
     1
  0
GROUP
  5
2FC95
102
{ACAD_REACTORS
330
D
102
}
330
D
100
AcDbGroup
300

 70
     1
 71
     1
  0
GROUP
  5
19E53
102
{ACAD_REACTORS
330
D
102
}
330
D
100
AcDbGroup
300

 70
     1
 71
     1
  0
GROUP
  5
19A57
102
{ACAD_REACTORS
330
D
102
}
330
D
100
AcDbGroup
300

 70
     1
 71
     1
  0
GROUP
  5
81AA
102
{ACAD_REACTORS
330
D
102
}
330
D
100
AcDbGroup
300

 70
     1
 71
     1
  0
GROUP
  5
1D241
102
{ACAD_REACTORS
330
D
102
}
330
D
100
AcDbGroup
300

 70
     1
 71
     1
  0
GROUP
  5
1A5A1
102
{ACAD_REACTORS
330
D
102
}
330
D
100
AcDbGroup
300

 70
     1
 71
     1
  0
GROUP
  5
3262C
102
{ACAD_REACTORS
330
D
102
}
330
D
100
AcDbGroup
300

 70
     1
 71
     1
  0
GROUP
  5
2D529
102
{ACAD_REACTORS
330
D
102
}
330
D
100
AcDbGroup
300

 70
     1
 71
     1
  0
GROUP
  5
2F72C
102
{ACAD_REACTORS
330
D
102
}
330
D
100
AcDbGroup
300

 70
     1
 71
     1
  0
GROUP
  5
1EC4E
102
{ACAD_REACTORS
330
D
102
}
330
D
100
AcDbGroup
300

 70
     1
 71
     1
  0
GROUP
  5
7AD9
102
{ACAD_REACTORS
330
D
102
}
330
D
100
AcDbGroup
300

 70
     1
 71
     1
  0
GROUP
  5
2C759
102
{ACAD_REACTORS
330
D
102
}
330
D
100
AcDbGroup
300

 70
     1
 71
     1
  0
GROUP
  5
16CCA
102
{ACAD_REACTORS
330
D
102
}
330
D
100
AcDbGroup
300

 70
     1
 71
     1
  0
GROUP
  5
2D530
102
{ACAD_REACTORS
330
D
102
}
330
D
100
AcDbGroup
300

 70
     1
 71
     1
  0
GROUP
  5
8813
102
{ACAD_REACTORS
330
D
102
}
330
D
100
AcDbGroup
300

 70
     1
 71
     1
  0
GROUP
  5
16E28
102
{ACAD_REACTORS
330
D
102
}
330
D
100
AcDbGroup
300

 70
     1
 71
     1
  0
GROUP
  5
2D531
102
{ACAD_REACTORS
330
D
102
}
330
D
100
AcDbGroup
300

 70
     1
 71
     1
  0
GROUP
  5
2E337
102
{ACAD_REACTORS
330
D
102
}
330
D
100
AcDbGroup
300

 70
     1
 71
     1
  0
GROUP
  5
1AAF8
102
{ACAD_REACTORS
330
D
102
}
330
D
100
AcDbGroup
300

 70
     1
 71
     1
  0
GROUP
  5
2CDA8
102
{ACAD_REACTORS
330
D
102
}
330
D
100
AcDbGroup
300

 70
     1
 71
     1
  0
GROUP
  5
1B197
102
{ACAD_REACTORS
330
D
102
}
330
D
100
AcDbGroup
300

 70
     1
 71
     1
  0
GROUP
  5
19E52
102
{ACAD_REACTORS
330
D
102
}
330
D
100
AcDbGroup
300

 70
     1
 71
     1
  0
GROUP
  5
1A5F5
102
{ACAD_REACTORS
330
D
102
}
330
D
100
AcDbGroup
300

 70
     1
 71
     1
  0
GROUP
  5
2F727
102
{ACAD_REACTORS
330
D
102
}
330
D
100
AcDbGroup
300

 70
     1
 71
     1
  0
GROUP
  5
2B7FE
102
{ACAD_REACTORS
330
D
102
}
330
D
100
AcDbGroup
300

 70
     1
 71
     1
  0
GROUP
  5
9527
102
{ACAD_REACTORS
330
D
102
}
330
D
100
AcDbGroup
300

 70
     1
 71
     1
  0
GROUP
  5
2CC76
102
{ACAD_REACTORS
330
D
102
}
330
D
100
AcDbGroup
300

 70
     1
 71
     1
  0
GROUP
  5
1EC28
102
{ACAD_REACTORS
330
D
102
}
330
D
100
AcDbGroup
300

 70
     1
 71
     1
  0
GROUP
  5
2F752
102
{ACAD_REACTORS
330
D
102
}
330
D
100
AcDbGroup
300

 70
     1
 71
     1
  0
GROUP
  5
2BA33
102
{ACAD_REACTORS
330
D
102
}
330
D
100
AcDbGroup
300

 70
     1
 71
     1
  0
GROUP
  5
E40A
102
{ACAD_REACTORS
330
D
102
}
330
D
100
AcDbGroup
300

 70
     1
 71
     1
  0
GROUP
  5
2D52B
102
{ACAD_REACTORS
330
D
102
}
330
D
100
AcDbGroup
300

 70
     1
 71
     1
  0
GROUP
  5
1A7FC
102
{ACAD_REACTORS
330
D
102
}
330
D
100
AcDbGroup
300

 70
     1
 71
     1
  0
GROUP
  5
33818
102
{ACAD_REACTORS
330
D
102
}
330
D
100
AcDbGroup
300

 70
     1
 71
     1
  0
GROUP
  5
33819
102
{ACAD_REACTORS
330
D
102
}
330
D
100
AcDbGroup
300

 70
     1
 71
     1
  0
GROUP
  5
33D7A
102
{ACAD_REACTORS
330
D
102
}
330
D
100
AcDbGroup
300

 70
     1
 71
     1
  0
GROUP
  5
33D7B
102
{ACAD_REACTORS
330
D
102
}
330
D
100
AcDbGroup
300

 70
     1
 71
     1
  0
GROUP
  5
1ABC9
102
{ACAD_REACTORS
330
D
102
}
330
D
100
AcDbGroup
300

 70
     1
 71
     1
  0
GROUP
  5
1AAC1
102
{ACAD_REACTORS
330
D
102
}
330
D
100
AcDbGroup
300

 70
     1
 71
     1
  0
GROUP
  5
2E642
102
{ACAD_REACTORS
330
D
102
}
330
D
100
AcDbGroup
300

 70
     1
 71
     1
  0
GROUP
  5
2E336
102
{ACAD_REACTORS
330
D
102
}
330
D
100
AcDbGroup
300

 70
     1
 71
     1
  0
GROUP
  5
11D38
102
{ACAD_REACTORS
330
D
102
}
330
D
100
AcDbGroup
300

 70
     1
 71
     1
  0
GROUP
  5
D2B7
102
{ACAD_REACTORS
330
D
102
}
330
D
100
AcDbGroup
300

 70
     1
 71
     1
  0
GROUP
  5
2F725
102
{ACAD_REACTORS
330
D
102
}
330
D
100
AcDbGroup
300

 70
     1
 71
     1
  0
GROUP
  5
81AB
102
{ACAD_REACTORS
330
D
102
}
330
D
100
AcDbGroup
300

 70
     1
 71
     1
  0
GROUP
  5
3108C
102
{ACAD_REACTORS
330
D
102
}
330
D
100
AcDbGroup
300

 70
     1
 71
     1
  0
GROUP
  5
3108D
102
{ACAD_REACTORS
330
D
102
}
330
D
100
AcDbGroup
300

 70
     1
 71
     1
  0
GROUP
  5
2F75A
102
{ACAD_REACTORS
330
D
102
}
330
D
100
AcDbGroup
300

 70
     1
 71
     1
  0
GROUP
  5
3089E
102
{ACAD_REACTORS
330
D
102
}
330
D
100
AcDbGroup
300

 70
     1
 71
     1
  0
GROUP
  5
16BFC
102
{ACAD_REACTORS
330
D
102
}
330
D
100
AcDbGroup
300

 70
     1
 71
     1
  0
GROUP
  5
2D52C
102
{ACAD_REACTORS
330
D
102
}
330
D
100
AcDbGroup
300

 70
     1
 71
     1
  0
GROUP
  5
16EE3
102
{ACAD_REACTORS
330
D
102
}
330
D
100
AcDbGroup
300

 70
     1
 71
     1
  0
GROUP
  5
19E51
102
{ACAD_REACTORS
330
D
102
}
330
D
100
AcDbGroup
300

 70
     1
 71
     1
  0
GROUP
  5
3109F
102
{ACAD_REACTORS
330
D
102
}
330
D
100
AcDbGroup
300

 70
     1
 71
     1
  0
GROUP
  5
1D274
102
{ACAD_REACTORS
330
D
102
}
330
D
100
AcDbGroup
300

 70
     1
 71
     1
  0
GROUP
  5
1006C
102
{ACAD_REACTORS
330
D
102
}
330
D
100
AcDbGroup
300

 70
     1
 71
     1
  0
GROUP
  5
2E645
102
{ACAD_REACTORS
330
D
102
}
330
D
100
AcDbGroup
300

 70
     1
 71
     1
  0
GROUP
  5
312E7
102
{ACAD_REACTORS
330
D
102
}
330
D
100
AcDbGroup
300

 70
     1
 71
     1
  0
GROUP
  5
2FA6A
102
{ACAD_REACTORS
330
D
102
}
330
D
100
AcDbGroup
300

 70
     1
 71
     1
  0
GROUP
  5
16A8C
102
{ACAD_REACTORS
330
D
102
}
330
D
100
AcDbGroup
300

 70
     1
 71
     1
  0
GROUP
  5
3262A
102
{ACAD_REACTORS
330
D
102
}
330
D
100
AcDbGroup
300

 70
     1
 71
     1
  0
GROUP
  5
2AF6D
102
{ACAD_REACTORS
330
D
102
}
330
D
100
AcDbGroup
300

 70
     1
 71
     1
  0
GROUP
  5
312E8
102
{ACAD_REACTORS
330
D
102
}
330
D
100
AcDbGroup
300

 70
     1
 71
     1
  0
GROUP
  5
312E9
102
{ACAD_REACTORS
330
D
102
}
330
D
100
AcDbGroup
300

 70
     1
 71
     1
  0
GROUP
  5
3022C
102
{ACAD_REACTORS
330
D
102
}
330
D
100
AcDbGroup
300

 70
     1
 71
     1
  0
GROUP
  5
31B42
102
{ACAD_REACTORS
330
D
102
}
330
D
100
AcDbGroup
300

 70
     1
 71
     1
  0
GROUP
  5
1A193
102
{ACAD_REACTORS
330
D
102
}
330
D
100
AcDbGroup
300

 70
     1
 71
     1
  0
GROUP
  5
17B62
102
{ACAD_REACTORS
330
D
102
}
330
D
100
AcDbGroup
300

 70
     1
 71
     1
  0
GROUP
  5
2B8FE
102
{ACAD_REACTORS
330
D
102
}
330
D
100
AcDbGroup
300

 70
     1
 71
     1
  0
GROUP
  5
2F6D6
102
{ACAD_REACTORS
330
D
102
}
330
D
100
AcDbGroup
300

 70
     1
 71
     1
  0
GROUP
  5
2FA6B
102
{ACAD_REACTORS
330
D
102
}
330
D
100
AcDbGroup
300

 70
     1
 71
     1
  0
GROUP
  5
2FAFF
102
{ACAD_REACTORS
330
D
102
}
330
D
100
AcDbGroup
300

 70
     1
 71
     1
  0
GROUP
  5
9529
102
{ACAD_REACTORS
330
D
102
}
330
D
100
AcDbGroup
300

 70
     1
 71
     1
  0
GROUP
  5
2EB83
102
{ACAD_REACTORS
330
D
102
}
330
D
100
AcDbGroup
300

 70
     1
 71
     1
  0
GROUP
  5
31B43
102
{ACAD_REACTORS
330
D
102
}
330
D
100
AcDbGroup
300

 70
     1
 71
     1
  0
GROUP
  5
3B235
102
{ACAD_REACTORS
330
D
102
}
330
D
100
AcDbGroup
300

 70
     1
 71
     1
  0
GROUP
  5
2F72A
102
{ACAD_REACTORS
330
D
102
}
330
D
100
AcDbGroup
300

 70
     1
 71
     1
  0
GROUP
  5
2FD83
102
{ACAD_REACTORS
330
D
102
}
330
D
100
AcDbGroup
300

 70
     1
 71
     1
  0
GROUP
  5
2B7FD
102
{ACAD_REACTORS
330
D
102
}
330
D
100
AcDbGroup
300

 70
     1
 71
     1
  0
GROUP
  5
2AF6E
102
{ACAD_REACTORS
330
D
102
}
330
D
100
AcDbGroup
300

 70
     1
 71
     1
  0
GROUP
  5
8178
102
{ACAD_REACTORS
330
D
102
}
330
D
100
AcDbGroup
300

 70
     1
 71
     1
  0
GROUP
  5
301FC
102
{ACAD_REACTORS
330
D
102
}
330
D
100
AcDbGroup
300

 70
     1
 71
     1
  0
GROUP
  5
2B917
102
{ACAD_REACTORS
330
D
102
}
330
D
100
AcDbGroup
300

 70
     1
 71
     1
  0
GROUP
  5
1EEB7
102
{ACAD_REACTORS
330
D
102
}
330
D
100
AcDbGroup
300

 70
     1
 71
     1
  0
GROUP
  5
2FC1C
102
{ACAD_REACTORS
330
D
102
}
330
D
100
AcDbGroup
300

 70
     1
 71
     1
  0
GROUP
  5
E3CD
102
{ACAD_REACTORS
330
D
102
}
330
D
100
AcDbGroup
300

 70
     1
 71
     1
  0
GROUP
  5
300DF
102
{ACAD_REACTORS
330
D
102
}
330
D
100
AcDbGroup
300

 70
     1
 71
     1
  0
GROUP
  5
1A4E1
102
{ACAD_REACTORS
330
D
102
}
330
D
100
AcDbGroup
300

 70
     1
 71
     1
  0
GROUP
  5
1A825
102
{ACAD_REACTORS
330
D
102
}
330
D
100
AcDbGroup
300

 70
     1
 71
     1
  0
GROUP
  5
1A2FB
102
{ACAD_REACTORS
330
D
102
}
330
D
100
AcDbGroup
300

 70
     1
 71
     1
  0
GROUP
  5
149D2
102
{ACAD_REACTORS
330
D
102
}
330
D
100
AcDbGroup
300

 70
     1
 71
     1
  0
GROUP
  5
9528
102
{ACAD_REACTORS
330
D
102
}
330
D
100
AcDbGroup
300

 70
     1
 71
     1
  0
GROUP
  5
32204
102
{ACAD_REACTORS
330
D
102
}
330
D
100
AcDbGroup
300

 70
     1
 71
     1
  0
GROUP
  5
2BB08
102
{ACAD_REACTORS
330
D
102
}
330
D
100
AcDbGroup
300

 70
     1
 71
     1
  0
GROUP
  5
16CC9
102
{ACAD_REACTORS
330
D
102
}
330
D
100
AcDbGroup
300

 70
     1
 71
     1
  0
GROUP
  5
12770
102
{ACAD_REACTORS
330
D
102
}
330
D
100
AcDbGroup
300

 70
     1
 71
     1
  0
GROUP
  5
2AF6F
102
{ACAD_REACTORS
330
D
102
}
330
D
100
AcDbGroup
300

 70
     1
 71
     1
  0
GROUP
  5
12141
102
{ACAD_REACTORS
330
D
102
}
330
D
100
AcDbGroup
300

 70
     1
 71
     1
  0
GROUP
  5
2FC1D
102
{ACAD_REACTORS
330
D
102
}
330
D
100
AcDbGroup
300

 70
     1
 71
     1
  0
GROUP
  5
1A68B
102
{ACAD_REACTORS
330
D
102
}
330
D
100
AcDbGroup
300

 70
     1
 71
     1
  0
GROUP
  5
1252B
102
{ACAD_REACTORS
330
D
102
}
330
D
100
AcDbGroup
300

 70
     1
 71
     1
  0
GROUP
  5
2F726
102
{ACAD_REACTORS
330
D
102
}
330
D
100
AcDbGroup
300

 70
     1
 71
     1
  0
GROUP
  5
2E814
102
{ACAD_REACTORS
330
D
102
}
330
D
100
AcDbGroup
300

 70
     1
 71
     1
  0
GROUP
  5
13067
102
{ACAD_REACTORS
330
D
102
}
330
D
100
AcDbGroup
300

 70
     1
 71
     1
  0
GROUP
  5
12771
102
{ACAD_REACTORS
330
D
102
}
330
D
100
AcDbGroup
300

 70
     1
 71
     1
  0
GROUP
  5
1A68A
102
{ACAD_REACTORS
330
D
102
}
330
D
100
AcDbGroup
300

 70
     1
 71
     1
  0
GROUP
  5
1AB72
102
{ACAD_REACTORS
330
D
102
}
330
D
100
AcDbGroup
300

 70
     1
 71
     1
  0
GROUP
  5
16B4C
102
{ACAD_REACTORS
330
D
102
}
330
D
100
AcDbGroup
300

 70
     1
 71
     1
  0
GROUP
  5
16E26
102
{ACAD_REACTORS
330
D
102
}
330
D
100
AcDbGroup
300

 70
     1
 71
     1
  0
GROUP
  5
2AF83
102
{ACAD_REACTORS
330
D
102
}
330
D
100
AcDbGroup
300

 70
     1
 71
     1
  0
GROUP
  5
2BB06
102
{ACAD_REACTORS
330
D
102
}
330
D
100
AcDbGroup
300

 70
     1
 71
     1
  0
GROUP
  5
98F3
102
{ACAD_REACTORS
330
D
102
}
330
D
100
AcDbGroup
300

 70
     1
 71
     1
  0
GROUP
  5
2F729
102
{ACAD_REACTORS
330
D
102
}
330
D
100
AcDbGroup
300

 70
     1
 71
     1
  0
GROUP
  5
1D240
102
{ACAD_REACTORS
330
D
102
}
330
D
100
AcDbGroup
300

 70
     1
 71
     1
  0
GROUP
  5
2F762
102
{ACAD_REACTORS
330
D
102
}
330
D
100
AcDbGroup
300

 70
     1
 71
     1
  0
GROUP
  5
2FDE3
102
{ACAD_REACTORS
330
D
102
}
330
D
100
AcDbGroup
300

 70
     1
 71
     1
  0
GROUP
  5
2B6E6
102
{ACAD_REACTORS
330
D
102
}
330
D
100
AcDbGroup
300

 70
     1
 71
     1
  0
GROUP
  5
2EB84
102
{ACAD_REACTORS
330
D
102
}
330
D
100
AcDbGroup
300

 70
     1
 71
     1
  0
GROUP
  5
1EC64
102
{ACAD_REACTORS
330
D
102
}
330
D
100
AcDbGroup
300

 70
     1
 71
     1
  0
GROUP
  5
15425
102
{ACAD_REACTORS
330
D
102
}
330
D
100
AcDbGroup
300

 70
     1
 71
     1
  0
GROUP
  5
1EEB8
102
{ACAD_REACTORS
330
D
102
}
330
D
100
AcDbGroup
300

 70
     1
 71
     1
  0
GROUP
  5
2FC96
102
{ACAD_REACTORS
330
D
102
}
330
D
100
AcDbGroup
300

 70
     1
 71
     1
  0
GROUP
  5
1B149
102
{ACAD_REACTORS
330
D
102
}
330
D
100
AcDbGroup
300

 70
     1
 71
     1
  0
GROUP
  5
301FB
102
{ACAD_REACTORS
330
D
102
}
330
D
100
AcDbGroup
300

 70
     1
 71
     1
  0
GROUP
  5
817B
102
{ACAD_REACTORS
330
D
102
}
330
D
100
AcDbGroup
300

 70
     1
 71
     1
  0
GROUP
  5
3491D
102
{ACAD_REACTORS
330
D
102
}
330
D
100
AcDbGroup
300

 70
     1
 71
     1
  0
GROUP
  5
2FDE4
102
{ACAD_REACTORS
330
D
102
}
330
D
100
AcDbGroup
300

 70
     1
 71
     1
  0
GROUP
  5
76F1
102
{ACAD_REACTORS
330
D
102
}
330
D
100
AcDbGroup
300

 70
     1
 71
     1
  0
GROUP
  5
2F6D7
102
{ACAD_REACTORS
330
D
102
}
330
D
100
AcDbGroup
300

 70
     1
 71
     1
  0
GROUP
  5
1D243
102
{ACAD_REACTORS
330
D
102
}
330
D
100
AcDbGroup
300

 70
     1
 71
     1
  0
GROUP
  5
1AB18
102
{ACAD_REACTORS
330
D
102
}
330
D
100
AcDbGroup
300

 70
     1
 71
     1
  0
GROUP
  5
16A60
102
{ACAD_REACTORS
330
D
102
}
330
D
100
AcDbGroup
300

 70
     1
 71
     1
  0
GROUP
  5
3220A
102
{ACAD_REACTORS
330
D
102
}
330
D
100
AcDbGroup
300

 70
     1
 71
     1
  0
GROUP
  5
2F728
102
{ACAD_REACTORS
330
D
102
}
330
D
100
AcDbGroup
300

 70
     1
 71
     1
  0
GROUP
  5
16BFE
102
{ACAD_REACTORS
330
D
102
}
330
D
100
AcDbGroup
300

 70
     1
 71
     1
  0
GROUP
  5
30B80
102
{ACAD_REACTORS
330
D
102
}
330
D
100
AcDbGroup
300

 70
     1
 71
     1
  0
GROUP
  5
2CDAB
102
{ACAD_REACTORS
330
D
102
}
330
D
100
AcDbGroup
300

 70
     1
 71
     1
  0
GROUP
  5
300DD
102
{ACAD_REACTORS
330
D
102
}
330
D
100
AcDbGroup
300

 70
     1
 71
     1
  0
GROUP
  5
2B7FC
102
{ACAD_REACTORS
330
D
102
}
330
D
100
AcDbGroup
300

 70
     1
 71
     1
  0
GROUP
  5
1A61E
102
{ACAD_REACTORS
330
D
102
}
330
D
100
AcDbGroup
300

 70
     1
 71
     1
  0
GROUP
  5
1252C
102
{ACAD_REACTORS
330
D
102
}
330
D
100
AcDbGroup
300

 70
     1
 71
     1
  0
GROUP
  5
30B81
102
{ACAD_REACTORS
330
D
102
}
330
D
100
AcDbGroup
300

 70
     1
 71
     1
  0
GROUP
  5
300E0
102
{ACAD_REACTORS
330
D
102
}
330
D
100
AcDbGroup
300

 70
     1
 71
     1
  0
GROUP
  5
2E335
102
{ACAD_REACTORS
330
D
102
}
330
D
100
AcDbGroup
300

 70
     1
 71
     1
  0
GROUP
  5
2B8E0
102
{ACAD_REACTORS
330
D
102
}
330
D
100
AcDbGroup
300

 70
     1
 71
     1
  0
GROUP
  5
1D244
102
{ACAD_REACTORS
330
D
102
}
330
D
100
AcDbGroup
300

 70
     1
 71
     1
  0
GROUP
  5
E31A
102
{ACAD_REACTORS
330
D
102
}
330
D
100
AcDbGroup
300

 70
     1
 71
     1
  0
GROUP
  5
2E644
102
{ACAD_REACTORS
330
D
102
}
330
D
100
AcDbGroup
300

 70
     1
 71
     1
  0
GROUP
  5
8179
102
{ACAD_REACTORS
330
D
102
}
330
D
100
AcDbGroup
300

 70
     1
 71
     1
  0
GROUP
  5
2B972
102
{ACAD_REACTORS
330
D
102
}
330
D
100
AcDbGroup
300

 70
     1
 71
     1
  0
GROUP
  5
7B15
102
{ACAD_REACTORS
330
D
102
}
330
D
100
AcDbGroup
300

 70
     1
 71
     1
  0
GROUP
  5
DED9
102
{ACAD_REACTORS
330
D
102
}
330
D
100
AcDbGroup
300

 70
     1
 71
     1
  0
GROUP
  5
1AAA3
102
{ACAD_REACTORS
330
D
102
}
330
D
100
AcDbGroup
300

 70
     1
 71
     1
  0
GROUP
  5
1A758
102
{ACAD_REACTORS
330
D
102
}
330
D
100
AcDbGroup
300

 70
     1
 71
     1
  0
GROUP
  5
16E27
102
{ACAD_REACTORS
330
D
102
}
330
D
100
AcDbGroup
300

 70
     1
 71
     1
  0
GROUP
  5
2E643
102
{ACAD_REACTORS
330
D
102
}
330
D
100
AcDbGroup
300

 70
     1
 71
     1
  0
GROUP
  5
2D528
102
{ACAD_REACTORS
330
D
102
}
330
D
100
AcDbGroup
300

 70
     1
 71
     1
  0
GROUP
  5
732B
102
{ACAD_REACTORS
330
D
102
}
330
D
100
AcDbGroup
300

 70
     1
 71
     1
  0
GROUP
  5
2CCB9
102
{ACAD_REACTORS
330
D
102
}
330
D
100
AcDbGroup
300

 70
     1
 71
     1
  0
LAYOUT
  5
22
102
{ACAD_XDICTIONARY
360
3B2CB
102
}
102
{ACAD_REACTORS
330
1A
102
}
330
1A
100
AcDbPlotSettings
  1

  2
none_device
  4
Letter_(8.50_x_11.00_Inches)
  6

 40
6.349999999999999
 41
6.349999999999999
 42
6.350005079999999
 43
6.350005079999999
 44
215.9
 45
279.4
 46
0.0
 47
0.0
 48
0.0
 49
0.0
140
0.0
141
0.0
142
1.0
143
1.0
 70
  1712
 72
     1
 73
     0
 74
     0
  7

 75
     0
147
1.0
148
0.0
149
0.0
100
AcDbLayout
  1
Model
 70
     1
 71
     0
 10
0.0
 20
0.0
 11
431.7999999999999
 21
279.4
 12
0.0
 22
0.0
 32
0.0
 14
0.0
 24
0.0
 34
0.0
 15
431.7999999999999
 25
279.4
 35
0.0
146
0.0
 13
0.0
 23
0.0
 33
0.0
 16
1.0
 26
0.0
 36
0.0
 17
0.0
 27
1.0
 37
0.0
 76
     0
330
1F
  0
LAYOUT
  5
1E
102
{ACAD_XDICTIONARY
360
3B2C9
102
}
102
{ACAD_REACTORS
330
1A
102
}
330
1A
100
AcDbPlotSettings
  1

  2
RICOH SP C840 JPN RPCS
  4
A3
  6

 40
5.873749732971191
 41
5.873747825622558
 42
5.873748779296875
 43
5.873748779296875
 44
296.9259948730469
 45
419.9466552734374
 46
0.0
 47
0.0
 48
0.0
 49
0.0
140
0.0
141
0.0
142
1.0
143
1.0
 70
   688
 72
     1
 73
     1
 74
     5
  7
monochrome.ctb
 75
    16
147
1.0
148
68.81595875097668
149
17.75511689065621
100
AcDbLayout
  1
ジョイント
 70
     1
 71
     1
 10
-74.68970753027355
 20
-23.6288666236274
 11
345.2569477431639
 21
273.2971282494195
 12
0.0
 22
0.0
 32
0.0
 14
-73.83861450660799
 24
-22.64352933958139
 34
0.0
 15
344.4227553844882
 25
272.4048239951644
 35
0.0
146
0.0
 13
0.0
 23
0.0
 33
0.0
 16
1.0
 26
0.0
 36
0.0
 17
0.0
 27
1.0
 37
0.0
 76
     0
330
1B
331
9C4C
  0
MLINESTYLE
  5
18
102
{ACAD_REACTORS
330
17
102
}
330
17
100
AcDbMlineStyle
  2
STANDARD
 70
     0
  3

 62
   256
 51
90.0
 52
90.0
 71
     2
 49
0.5
 62
   256
  6
BYLAYER
 49
-0.5
 62
   256
  6
BYLAYER
  0
ACDBPLACEHOLDER
  5
F
102
{ACAD_REACTORS
330
E
102
}
330
E
  0
ACAD_PROXY_OBJECT
  5
48
102
{ACAD_REACTORS
330
47
102
}
330
47
100
AcDbProxyObject
 90
      499
 91
      503
 95
   983063
 70
     0
 93
       41
310
903313A31580
 94
        0
1001
ACAD
1000
AcRTDxfName
1000
SCALE
1000
AcRTDxfName
1000
SCALE
  0
ACAD_PROXY_OBJECT
  5
49
102
{ACAD_REACTORS
330
47
102
}
330
47
100
AcDbProxyObject
 90
      499
 91
      503
 95
   983063
 70
     0
 93
      105
310
903313A324000000000000004000
 94
        0
1001
ACAD
1000
AcRTDxfName
1000
SCALE
1000
AcRTDxfName
1000
SCALE
  0
ACAD_PROXY_OBJECT
  5
4A
102
{ACAD_REACTORS
330
47
102
}
330
47
100
AcDbProxyObject
 90
      499
 91
      503
 95
   983063
 70
     0
 93
      105
310
903313A344000000000000104030
 94
        0
1001
ACAD
1000
AcRTDxfName
1000
SCALE
1000
AcRTDxfName
1000
SCALE
  0
ACAD_PROXY_OBJECT
  5
4B
102
{ACAD_REACTORS
330
47
102
}
330
47
100
AcDbProxyObject
 90
      499
 91
      503
 95
   983063
 70
     0
 93
      105
310
903313A354000000000000144000
 94
        0
1001
ACAD
1000
AcRTDxfName
1000
SCALE
1000
AcRTDxfName
1000
SCALE
  0
ACAD_PROXY_OBJECT
  5
4C
102
{ACAD_REACTORS
330
47
102
}
330
47
100
AcDbProxyObject
 90
      499
 91
      503
 95
   983063
 70
     0
 93
      105
310
903313A384000000000000204030
 94
        0
1001
ACAD
1000
AcRTDxfName
1000
SCALE
1000
AcRTDxfName
1000
SCALE
  0
ACAD_PROXY_OBJECT
  5
4D
102
{ACAD_REACTORS
330
47
102
}
330
47
100
AcDbProxyObject
 90
      499
 91
      503
 95
   983063
 70
     0
 93
      113
310
904313A3130400000000000024402C
 94
        0
1001
ACAD
1000
AcRTDxfName
1000
SCALE
1000
AcRTDxfName
1000
SCALE
  0
ACAD_PROXY_OBJECT
  5
4E
102
{ACAD_REACTORS
330
47
102
}
330
47
100
AcDbProxyObject
 90
      499
 91
      503
 95
   983063
 70
     0
 93
      113
310
904313A31364000000000000304002
 94
        0
1001
ACAD
1000
AcRTDxfName
1000
SCALE
1000
AcRTDxfName
1000
SCALE
  0
ACAD_PROXY_OBJECT
  5
4F
102
{ACAD_REACTORS
330
47
102
}
330
47
100
AcDbProxyObject
 90
      499
 91
      503
 95
   983063
 70
     0
 93
      113
310
904313A3230400000000000034402C
 94
        0
1001
ACAD
1000
AcRTDxfName
1000
SCALE
1000
AcRTDxfName
1000
SCALE
  0
ACAD_PROXY_OBJECT
  5
50
102
{ACAD_REACTORS
330
47
102
}
330
47
100
AcDbProxyObject
 90
      499
 91
      503
 95
   983063
 70
     0
 93
      113
310
904313A333040000000000003E4002
 94
        0
1001
ACAD
1000
AcRTDxfName
1000
SCALE
1000
AcRTDxfName
1000
SCALE
  0
ACAD_PROXY_OBJECT
  5
51
102
{ACAD_REACTORS
330
47
102
}
330
47
100
AcDbProxyObject
 90
      499
 91
      503
 95
   983063
 70
     0
 93
      113
310
904313A3430400000000000044402C
 94
        0
1001
ACAD
1000
AcRTDxfName
1000
SCALE
1000
AcRTDxfName
1000
SCALE
  0
ACAD_PROXY_OBJECT
  5
52
102
{ACAD_REACTORS
330
47
102
}
330
47
100
AcDbProxyObject
 90
      499
 91
      503
 95
   983063
 70
     0
 93
      113
310
904313A35304000000000000494002
 94
        0
1001
ACAD
1000
AcRTDxfName
1000
SCALE
1000
AcRTDxfName
1000
SCALE
  0
ACAD_PROXY_OBJECT
  5
53
102
{ACAD_REACTORS
330
47
102
}
330
47
100
AcDbProxyObject
 90
      499
 91
      503
 95
   983063
 70
     0
 93
      121
310
905313A3130304000000000000594000
 94
        0
1001
ACAD
1000
AcRTDxfName
1000
SCALE
1000
AcRTDxfName
1000
SCALE
  0
ACAD_PROXY_OBJECT
  5
54
102
{ACAD_REACTORS
330
47
102
}
330
47
100
AcDbProxyObject
 90
      499
 91
      503
 95
   983063
 70
     0
 93
      105
310
903323A310000000000000010140
 94
        0
1001
ACAD
1000
AcRTDxfName
1000
SCALE
1000
AcRTDxfName
1000
SCALE
  0
ACAD_PROXY_OBJECT
  5
55
102
{ACAD_REACTORS
330
47
102
}
330
47
100
AcDbProxyObject
 90
      499
 91
      503
 95
   983063
 70
     0
 93
      105
310
903343A310000000000000410100
 94
        0
1001
ACAD
1000
AcRTDxfName
1000
SCALE
1000
AcRTDxfName
1000
SCALE
  0
ACAD_PROXY_OBJECT
  5
56
102
{ACAD_REACTORS
330
47
102
}
330
47
100
AcDbProxyObject
 90
      499
 91
      503
 95
   983063
 70
     0
 93
      105
310
903383A310000000000000810100
 94
        0
1001
ACAD
1000
AcRTDxfName
1000
SCALE
1000
AcRTDxfName
1000
SCALE
  0
ACAD_PROXY_OBJECT
  5
57
102
{ACAD_REACTORS
330
47
102
}
330
47
100
AcDbProxyObject
 90
      499
 91
      503
 95
   983063
 70
     0
 93
      113
310
90431303A310000000000000910100
 94
        0
1001
ACAD
1000
AcRTDxfName
1000
SCALE
1000
AcRTDxfName
1000
SCALE
  0
ACAD_PROXY_OBJECT
  5
58
102
{ACAD_REACTORS
330
47
102
}
330
47
100
AcDbProxyObject
 90
      499
 91
      503
 95
   983063
 70
     0
 93
      121
310
9053130303A310000000000001650100
 94
        0
1001
ACAD
1000
AcRTDxfName
1000
SCALE
1000
AcRTDxfName
1000
SCALE
  0
ACAD_PROXY_OBJECT
  5
59
102
{ACAD_REACTORS
330
47
102
}
330
47
100
AcDbProxyObject
 90
      499
 91
      503
 95
   983063
 70
     0
 93
      257
310
90E312F31323822203D2031272D3022000000000000200FC000000000000284000
 94
        0
1001
ACAD
1000
AcRTDxfName
1000
SCALE
1000
AcRTDxfName
1000
SCALE
  0
ACAD_PROXY_OBJECT
  5
5A
102
{ACAD_REACTORS
330
47
102
}
330
47
100
AcDbProxyObject
 90
      499
 91
      503
 95
   983063
 70
     0
 93
      249
310
90D312F363422203D2031272D3022000000000000240FC000000000000284000
 94
        0
1001
ACAD
1000
AcRTDxfName
1000
SCALE
1000
AcRTDxfName
1000
SCALE
  0
ACAD_PROXY_OBJECT
  5
5B
102
{ACAD_REACTORS
330
47
102
}
330
47
100
AcDbProxyObject
 90
      499
 91
      503
 95
   983063
 70
     0
 93
      249
310
90D312F333222203D2031272D3022000000000000280FC000000000000284040
 94
        0
1001
ACAD
1000
AcRTDxfName
1000
SCALE
1000
AcRTDxfName
1000
SCALE
  0
ACAD_PROXY_OBJECT
  5
5C
102
{ACAD_REACTORS
330
47
102
}
330
47
100
AcDbProxyObject
 90
      499
 91
      503
 95
   983063
 70
     0
 93
      249
310
90D312F313622203D2031272D30220000000000002C0FC000000000000284000
 94
        0
1001
ACAD
1000
AcRTDxfName
1000
SCALE
1000
AcRTDxfName
1000
SCALE
  0
ACAD_PROXY_OBJECT
  5
5D
102
{ACAD_REACTORS
330
47
102
}
330
47
100
AcDbProxyObject
 90
      499
 91
      503
 95
   983063
 70
     0
 93
      249
310
90D332F333222203D2031272D30220000000000002E0FC000000000000284040
 94
        0
1001
ACAD
1000
AcRTDxfName
1000
SCALE
1000
AcRTDxfName
1000
SCALE
  0
ACAD_PROXY_OBJECT
  5
5E
102
{ACAD_REACTORS
330
47
102
}
330
47
100
AcDbProxyObject
 90
      499
 91
      503
 95
   983063
 70
     0
 93
      241
310
90C312F3822203D2031272D3022000000000000300FC000000000000284040
 94
        0
1001
ACAD
1000
AcRTDxfName
1000
SCALE
1000
AcRTDxfName
1000
SCALE
  0
ACAD_PROXY_OBJECT
  5
5F
102
{ACAD_REACTORS
330
47
102
}
330
47
100
AcDbProxyObject
 90
      499
 91
      503
 95
   983063
 70
     0
 93
      249
310
90D332F313622203D2031272D3022000000000000320FC000000000000284040
 94
        0
1001
ACAD
1000
AcRTDxfName
1000
SCALE
1000
AcRTDxfName
1000
SCALE
  0
ACAD_PROXY_OBJECT
  5
60
102
{ACAD_REACTORS
330
47
102
}
330
47
100
AcDbProxyObject
 90
      499
 91
      503
 95
   983063
 70
     0
 93
      241
310
90C312F3422203D2031272D3022000000000000340FC000000000000284040
 94
        0
1001
ACAD
1000
AcRTDxfName
1000
SCALE
1000
AcRTDxfName
1000
SCALE
  0
ACAD_PROXY_OBJECT
  5
61
102
{ACAD_REACTORS
330
47
102
}
330
47
100
AcDbProxyObject
 90
      499
 91
      503
 95
   983063
 70
     0
 93
      241
310
90C332F3822203D2031272D3022000000000000360FC000000000000284040
 94
        0
1001
ACAD
1000
AcRTDxfName
1000
SCALE
1000
AcRTDxfName
1000
SCALE
  0
ACAD_PROXY_OBJECT
  5
62
102
{ACAD_REACTORS
330
47
102
}
330
47
100
AcDbProxyObject
 90
      499
 91
      503
 95
   983063
 70
     0
 93
      241
310
90C312F3222203D2031272D3022000000000000380FC000000000000284040
 94
        0
1001
ACAD
1000
AcRTDxfName
1000
SCALE
1000
AcRTDxfName
1000
SCALE
  0
ACAD_PROXY_OBJECT
  5
63
102
{ACAD_REACTORS
330
47
102
}
330
47
100
AcDbProxyObject
 90
      499
 91
      503
 95
   983063
 70
     0
 93
      241
310
90C332F3422203D2031272D30220000000000003A0FC000000000000284040
 94
        0
1001
ACAD
1000
AcRTDxfName
1000
SCALE
1000
AcRTDxfName
1000
SCALE
  0
ACAD_PROXY_OBJECT
  5
64
102
{ACAD_REACTORS
330
47
102
}
330
47
100
AcDbProxyObject
 90
      499
 91
      503
 95
   983063
 70
     0
 93
      161
310
90A3122203D2031272D30224000000000000284000
 94
        0
1001
ACAD
1000
AcRTDxfName
1000
SCALE
1000
AcRTDxfName
1000
SCALE
  0
ACAD_PROXY_OBJECT
  5
65
102
{ACAD_REACTORS
330
47
102
}
330
47
100
AcDbProxyObject
 90
      499
 91
      503
 95
   983063
 70
     0
 93
      257
310
90E312D312F3222203D2031272D30220000000000003E0FC000000000000284000
 94
        0
1001
ACAD
1000
AcRTDxfName
1000
SCALE
1000
AcRTDxfName
1000
SCALE
  0
ACAD_PROXY_OBJECT
  5
66
102
{ACAD_REACTORS
330
47
102
}
330
47
100
AcDbProxyObject
 90
      499
 91
      503
 95
   983063
 70
     0
 93
      225
310
90A3322203D2031272D302200000000000002100000000000000284028
 94
        0
1001
ACAD
1000
AcRTDxfName
1000
SCALE
1000
AcRTDxfName
1000
SCALE
  0
ACAD_PROXY_OBJECT
  5
67
102
{ACAD_REACTORS
330
47
102
}
330
47
100
AcDbProxyObject
 90
      499
 91
      503
 95
   983063
 70
     0
 93
      225
310
90A3622203D2031272D302200000000000006100000000000000284000
 94
        0
1001
ACAD
1000
AcRTDxfName
1000
SCALE
1000
AcRTDxfName
1000
SCALE
  0
ACAD_PROXY_OBJECT
  5
68
102
{ACAD_REACTORS
330
47
102
}
330
47
100
AcDbProxyObject
 90
      499
 91
      503
 95
   983063
 70
     0
 93
      249
310
90D31272D3022203D2031272D30220000000000000A100000000000000284000
 94
        0
1001
ACAD
1000
AcRTDxfName
1000
SCALE
1000
AcRTDxfName
1000
SCALE
  0
XRECORD
  5
3B2C8
102
{ACAD_REACTORS
330
3B2C6
102
}
330
3B2C6
100
AcDbXrecord
280
     1
340
C5F
  0
XRECORD
  5
3B2C7
102
{ACAD_REACTORS
330
3B2C6
102
}
330
3B2C6
100
AcDbXrecord
280
     1
340
C5E
  0
DICTIONARYVAR
  5
3AFDB
102
{ACAD_REACTORS
330
3AFDA
102
}
330
3AFDA
100
DictionaryVariables
280
     0
  1
1
  0
DICTIONARYVAR
  5
3AFDC
102
{ACAD_REACTORS
330
3AFDA
102
}
330
3AFDA
100
DictionaryVariables
280
     0
  1

  0
DICTIONARY
  5
3B2CB
330
22
100
AcDbDictionary
280
     1
281
     1
  3
ACAD_XREC_ROUNDTRIP
360
3B2CC
  0
DICTIONARY
  5
3B2C9
330
1E
100
AcDbDictionary
280
     1
281
     1
  3
ACAD_XREC_ROUNDTRIP
360
3B2CA
  0
XRECORD
  5
3B2CC
102
{ACAD_REACTORS
330
3B2CB
102
}
330
3B2CB
100
AcDbXrecord
280
     1
102
SHADEPLOT
 70
     0
102
SHADEPLOTRESLEVEL
 70
     2
102
SHADEPLOTCUSTOMDPI
 70
   300
  0
XRECORD
  5
3B2CA
102
{ACAD_REACTORS
330
3B2C9
102
}
330
3B2C9
100
AcDbXrecord
280
     1
102
SHADEPLOT
 70
     1
102
SHADEPLOTRESLEVEL
 70
     2
102
SHADEPLOTCUSTOMDPI
 70
   300
  0
ENDSEC
  0
EOF
