  0
SECTION
  2
HEADER
  9
$ACADVER
  1
AC1015
  9
$ACADMAINTVER
 70
    20
  9
$DWGCODEPAGE
  3
ANSI_932
  9
$INSBASE
 10
0.0
 20
0.0
 30
0.0
  9
$EXTMIN
 10
5.819092781538074
 20
8.148285613102189
 30
-0.0015258207003583
  9
$EXTMAX
 10
404.6319589678105
 20
283.9799658863107
 30
0.0000000349246037
  9
$LIMMIN
 10
0.0
 20
0.0
  9
$LIMMAX
 10
420.0
 20
297.0
  9
$ORTHOMODE
 70
     0
  9
$REGENMODE
 70
     1
  9
$FILLMODE
 70
     1
  9
$QTEXTMODE
 70
     0
  9
$MIRRTEXT
 70
     1
  9
$LTSCALE
 40
1.0
  9
$ATTMODE
 70
     1
  9
$TEXTSIZE
 40
2.5
  9
$TRACEWID
 40
1.0
  9
$TEXTSTYLE
  7
STANDARD
  9
$CLAYER
  8
ZUWAKU
  9
$CELTYPE
  6
BYLAYER
  9
$CECOLOR
 62
   256
  9
$CELTSCALE
 40
1.0
  9
$DISPSILH
 70
     0
  9
$DIMSCALE
 40
1.0
  9
$DIMASZ
 40
3.0
  9
$DIMEXO
 40
3.0
  9
$DIMDLI
 40
7.0
  9
$DIMRND
 40
0.0
  9
$DIMDLE
 40
0.0
  9
$DIMEXE
 40
1.5
  9
$DIMTP
 40
0.0
  9
$DIMTM
 40
0.0
  9
$DIMTXT
 40
3.0
  9
$DIMCEN
 40
150.0
  9
$DIMTSZ
 40
0.0
  9
$DIMTOL
 70
     0
  9
$DIMLIM
 70
     0
  9
$DIMTIH
 70
     0
  9
$DIMTOH
 70
     0
  9
$DIMSE1
 70
     0
  9
$DIMSE2
 70
     0
  9
$DIMTAD
 70
     3
  9
$DIMZIN
 70
     0
  9
$DIMBLK
  1

  9
$DIMASO
 70
     1
  9
$DIMSHO
 70
     1
  9
$DIMPOST
  1

  9
$DIMAPOST
  1

  9
$DIMALT
 70
     0
  9
$DIMALTD
 70
     2
  9
$DIMALTF
 40
25.4
  9
$DIMLFAC
 40
1.0
  9
$DIMTOFL
 70
     1
  9
$DIMTVP
 40
0.0
  9
$DIMTIX
 70
     0
  9
$DIMSOXD
 70
     0
  9
$DIMSAH
 70
     1
  9
$DIMBLK1
  1
OPEN
  9
$DIMBLK2
  1
OPEN
  9
$DIMSTYLE
  2
STANDARD
  9
$DIMCLRD
 70
   256
  9
$DIMCLRE
 70
   256
  9
$DIMCLRT
 70
   256
  9
$DIMTFAC
 40
1.0
  9
$DIMGAP
 40
1.0
  9
$DIMJUST
 70
     0
  9
$DIMSD1
 70
     0
  9
$DIMSD2
 70
     0
  9
$DIMTOLJ
 70
     1
  9
$DIMTZIN
 70
     0
  9
$DIMALTZ
 70
     0
  9
$DIMALTTZ
 70
     0
  9
$DIMUPT
 70
     0
  9
$DIMDEC
 70
     0
  9
$DIMTDEC
 70
     0
  9
$DIMALTU
 70
     2
  9
$DIMALTTD
 70
     2
  9
$DIMTXSTY
  7
STANDARD
  9
$DIMAUNIT
 70
     0
  9
$DIMADEC
 70
     0
  9
$DIMALTRND
 40
0.0
  9
$DIMAZIN
 70
     0
  9
$DIMDSEP
 70
    46
  9
$DIMATFIT
 70
     3
  9
$DIMFRAC
 70
     0
  9
$DIMLDRBLK
  1
OPEN
  9
$DIMLUNIT
 70
     2
  9
$DIMLWD
 70
    -1
  9
$DIMLWE
 70
    -1
  9
$DIMTMOVE
 70
     0
  9
$LUNITS
 70
     2
  9
$LUPREC
 70
     4
  9
$SKETCHINC
 40
1.0
  9
$FILLETRAD
 40
1.75
  9
$AUNITS
 70
     0
  9
$AUPREC
 70
     0
  9
$MENU
  1
.
  9
$ELEVATION
 40
0.0
  9
$PELEVATION
 40
0.0
  9
$THICKNESS
 40
0.0
  9
$LIMCHECK
 70
     0
  9
$CHAMFERA
 40
0.0
  9
$CHAMFERB
 40
0.0
  9
$CHAMFERC
 40
20.0
  9
$CHAMFERD
 40
0.0
  9
$SKPOLY
 70
     0
  9
$TDCREATE
 40
2450994.350997107
  9
$TDUCREATE
 40
2450993.975997107
  9
$TDUPDATE
 40
2458306.576182859
  9
$TDUUPDATE
 40
2458306.201182859
  9
$TDINDWG
 40
0.0811429514
  9
$TDUSRTIMER
 40
0.0811429514
  9
$USRTIMER
 70
     1
  9
$ANGBASE
 50
0.0
  9
$ANGDIR
 70
     0
  9
$PDMODE
 70
     0
  9
$PDSIZE
 40
0.0
  9
$PLINEWID
 40
0.0
  9
$SPLFRAME
 70
     0
  9
$SPLINETYPE
 70
     6
  9
$SPLINESEGS
 70
     8
  9
$HANDSEED
  5
3414
  9
$SURFTAB1
 70
     6
  9
$SURFTAB2
 70
     6
  9
$SURFTYPE
 70
     6
  9
$SURFU
 70
     6
  9
$SURFV
 70
     6
  9
$UCSBASE
  2

  9
$UCSNAME
  2

  9
$UCSORG
 10
0.0
 20
0.0
 30
0.0
  9
$UCSXDIR
 10
1.0
 20
0.0
 30
0.0
  9
$UCSYDIR
 10
0.0
 20
1.0
 30
0.0
  9
$UCSORTHOREF
  2

  9
$UCSORTHOVIEW
 70
     0
  9
$UCSORGTOP
 10
0.0
 20
0.0
 30
0.0
  9
$UCSORGBOTTOM
 10
0.0
 20
0.0
 30
0.0
  9
$UCSORGLEFT
 10
0.0
 20
0.0
 30
0.0
  9
$UCSORGRIGHT
 10
0.0
 20
0.0
 30
0.0
  9
$UCSORGFRONT
 10
0.0
 20
0.0
 30
0.0
  9
$UCSORGBACK
 10
0.0
 20
0.0
 30
0.0
  9
$PUCSBASE
  2

  9
$PUCSNAME
  2

  9
$PUCSORG
 10
0.0
 20
0.0
 30
0.0
  9
$PUCSXDIR
 10
1.0
 20
0.0
 30
0.0
  9
$PUCSYDIR
 10
0.0
 20
1.0
 30
0.0
  9
$PUCSORTHOREF
  2

  9
$PUCSORTHOVIEW
 70
     0
  9
$PUCSORGTOP
 10
0.0
 20
0.0
 30
0.0
  9
$PUCSORGBOTTOM
 10
0.0
 20
0.0
 30
0.0
  9
$PUCSORGLEFT
 10
0.0
 20
0.0
 30
0.0
  9
$PUCSORGRIGHT
 10
0.0
 20
0.0
 30
0.0
  9
$PUCSORGFRONT
 10
0.0
 20
0.0
 30
0.0
  9
$PUCSORGBACK
 10
0.0
 20
0.0
 30
0.0
  9
$USERI1
 70
     0
  9
$USERI2
 70
     0
  9
$USERI3
 70
     0
  9
$USERI4
 70
     0
  9
$USERI5
 70
     0
  9
$USERR1
 40
0.0
  9
$USERR2
 40
0.0
  9
$USERR3
 40
0.0
  9
$USERR4
 40
0.0
  9
$USERR5
 40
0.0
  9
$WORLDVIEW
 70
     1
  9
$SHADEDGE
 70
     3
  9
$SHADEDIF
 70
    70
  9
$TILEMODE
 70
     1
  9
$MAXACTVP
 70
    16
  9
$PINSBASE
 10
0.0
 20
0.0
 30
0.0
  9
$PLIMCHECK
 70
     0
  9
$PEXTMIN
 10
0.0
 20
0.0
 30
0.0
  9
$PEXTMAX
 10
420.0
 20
297.0
 30
0.0
  9
$PLIMMIN
 10
0.0
 20
0.0
  9
$PLIMMAX
 10
420.0
 20
297.0
  9
$UNITMODE
 70
     0
  9
$VISRETAIN
 70
     0
  9
$PLINEGEN
 70
     0
  9
$PSLTSCALE
 70
     1
  9
$TREEDEPTH
 70
  3020
  9
$CMLSTYLE
  2
STANDARD
  9
$CMLJUST
 70
     0
  9
$CMLSCALE
 40
1.0
  9
$PROXYGRAPHICS
 70
     1
  9
$MEASUREMENT
 70
     1
  9
$CELWEIGHT
370
    -1
  9
$ENDCAPS
280
     0
  9
$JOINSTYLE
280
     0
  9
$LWDISPLAY
290
     1
  9
$INSUNITS
 70
     0
  9
$HYPERLINKBASE
  1

  9
$STYLESHEET
  1
print.ctb
  9
$XEDIT
290
     1
  9
$CEPSNTYPE
380
     0
  9
$PSTYLEMODE
290
     1
  9
$FINGERPRINTGUID
  2
{B4565D9B-6A16-43F4-BC10-4AF2DFFDD405}
  9
$VERSIONGUID
  2
{1BD2C578-7406-40DA-A61B-E626D428232F}
  9
$EXTNAMES
290
     1
  9
$PSVPSCALE
 40
0.0
  9
$OLESTARTUP
290
     0
  0
ENDSEC
  0
SECTION
  2
CLASSES
  0
CLASS
  1
ACDBDICTIONARYWDFLT
  2
AcDbDictionaryWithDefault
  3
ObjectDBX Classes
 90
        0
280
     0
281
     0
  0
CLASS
  1
ACDBPLACEHOLDER
  2
AcDbPlaceHolder
  3
ObjectDBX Classes
 90
        0
280
     0
281
     0
  0
CLASS
  1
LAYOUT
  2
AcDbLayout
  3
ObjectDBX Classes
 90
        0
280
     0
281
     0
  0
CLASS
  1
DICTIONARYVAR
  2
AcDbDictionaryVar
  3
ObjectDBX Classes
 90
        0
280
     0
281
     0
  0
CLASS
  1
MATERIAL
  2
AcDbMaterial
  3
ObjectDBX Classes
 90
     1153
280
     0
281
     0
  0
CLASS
  1
VISUALSTYLE
  2
AcDbVisualStyle
  3
ObjectDBX Classes
 90
     4095
280
     0
281
     0
  0
CLASS
  1
TABLESTYLE
  2
AcDbTableStyle
  3
ObjectDBX Classes
 90
     4095
280
     0
281
     0
  0
CLASS
  1
SCALE
  2
AcDbScale
  3
ObjectDBX Classes
 90
     1153
280
     0
281
     0
  0
CLASS
  1
MLEADERSTYLE
  2
AcDbMLeaderStyle
  3
ACDB_MLEADERSTYLE_CLASS
 90
     4095
280
     0
281
     0
  0
CLASS
  1
CELLSTYLEMAP
  2
AcDbCellStyleMap
  3
ObjectDBX Classes
 90
     1152
280
     0
281
     0
  0
ENDSEC
  0
SECTION
  2
TABLES
  0
TABLE
  2
VPORT
  5
8
102
{ACAD_XDICTIONARY
360
3338
102
}
330
0
100
AcDbSymbolTable
 70
     1
  0
VPORT
  5
3280
330
8
100
AcDbSymbolTableRecord
100
AcDbViewportTableRecord
  2
*Active
 70
     0
 10
0.0
 20
0.0
 11
1.0
 21
1.0
 12
205.2255258746743
 22
146.0641257497064
 13
0.0
 23
0.0
 14
5.0
 24
5.0
 15
0.0
 25
0.0
 16
0.0
 26
0.0
 36
1.0
 17
0.0
 27
0.0
 37
0.0
 40
277.6227950801773
 41
2.061755146262188
 42
50.0
 43
0.0
 44
0.0
 50
0.0
 51
0.0
 71
     0
 72
   100
 73
     1
 74
     0
 75
     0
 76
     0
 77
     0
 78
     0
281
     0
 65
     1
110
0.0
120
0.0
130
0.0
111
1.0
121
0.0
131
0.0
112
0.0
122
1.0
132
0.0
 79
     0
146
0.0
  0
ENDTAB
  0
TABLE
  2
LTYPE
  5
5
330
0
100
AcDbSymbolTable
 70
     2
  0
LTYPE
  5
14
330
5
100
AcDbSymbolTableRecord
100
AcDbLinetypeTableRecord
  2
BYBLOCK
 70
     0
  3

 72
    65
 73
     0
 40
0.0
  0
LTYPE
  5
15
330
5
100
AcDbSymbolTableRecord
100
AcDbLinetypeTableRecord
  2
BYLAYER
 70
     0
  3

 72
    65
 73
     0
 40
0.0
  0
LTYPE
  5
16
330
5
100
AcDbSymbolTableRecord
100
AcDbLinetypeTableRecord
  2
CONTINUOUS
 70
     0
  3
Solid line
 72
    65
 73
     0
 40
0.0
  0
LTYPE
  5
120
330
5
100
AcDbSymbolTableRecord
100
AcDbLinetypeTableRecord
  2
CENTER
 70
     0
  3
____ _ ____ _ ____ _ ____ _ ____ _ ____ _ ____ 
 72
    65
 73
     4
 40
2.0
 49
1.25
 74
     0
 49
-0.25
 74
     0
 49
0.25
 74
     0
 49
-0.25
 74
     0
  0
ENDTAB
  0
TABLE
  2
LAYER
  5
2
330
0
100
AcDbSymbolTable
 70
     9
  0
LAYER
  5
F
330
2
100
AcDbSymbolTableRecord
100
AcDbLayerTableRecord
  2
0
 70
     0
 62
     7
  6
CONTINUOUS
370
    -3
390
290
  0
LAYER
  5
62
330
2
100
AcDbSymbolTableRecord
100
AcDbLayerTableRecord
  2
VIEWPORT
 70
     0
 62
     7
  6
CONTINUOUS
370
    -3
390
290
  0
LAYER
  5
6B
330
2
100
AcDbSymbolTableRecord
100
AcDbLayerTableRecord
  2
ZUWAKU
 70
     0
 62
     7
  6
CONTINUOUS
370
    -3
390
290
  0
LAYER
  5
140
330
2
100
AcDbSymbolTableRecord
100
AcDbLayerTableRecord
  2
SEIHIN
 70
     0
 62
     3
  6
CONTINUOUS
370
    -3
390
290
  0
LAYER
  5
141
330
2
100
AcDbSymbolTableRecord
100
AcDbLayerTableRecord
  2
SUNPOU
 70
     0
 62
     4
  6
CONTINUOUS
370
    -3
390
290
  0
LAYER
  5
142
330
2
100
AcDbSymbolTableRecord
100
AcDbLayerTableRecord
  2
CENTER L
 70
     0
 62
     1
  6
CENTER
370
    -3
390
290
  0
LAYER
  5
1F5
330
2
100
AcDbSymbolTableRecord
100
AcDbLayerTableRecord
  2
DEFPOINTS
 70
     0
 62
     7
  6
CONTINUOUS
290
     0
370
    -3
390
290
  0
LAYER
  5
4EF
330
2
100
AcDbSymbolTableRecord
100
AcDbLayerTableRecord
  2
moji
 70
     0
 62
     2
  6
CONTINUOUS
370
    -3
390
290
  0
LAYER
  5
31FF
330
2
100
AcDbSymbolTableRecord
100
AcDbLayerTableRecord
  2
ﾊｯﾁﾝｸﾞ
 70
     0
 62
     7
  6
CONTINUOUS
370
    -3
390
290
  0
ENDTAB
  0
TABLE
  2
STYLE
  5
3
330
0
100
AcDbSymbolTable
 70
     2
  0
STYLE
  5
10
330
3
100
AcDbSymbolTableRecord
100
AcDbTextStyleTableRecord
  2
STANDARD
 70
     0
 40
0.0
 41
1.0
 50
0.0
 71
     0
 42
2.5
  3
TXT
  4
bigfont.shx
  0
STYLE
  5
4F0
330
3
100
AcDbSymbolTableRecord
100
AcDbTextStyleTableRecord
  2
ｽﾀｲﾙ1
 70
     0
 40
0.0
 41
1.0
 50
0.0
 71
     0
 42
2.5
  3

  4

1001
ACAD
1000
MS PGothic
1071
    32818
  0
ENDTAB
  0
TABLE
  2
VIEW
  5
6
330
0
100
AcDbSymbolTable
 70
     0
  0
ENDTAB
  0
TABLE
  2
UCS
  5
7
330
0
100
AcDbSymbolTable
 70
     0
  0
ENDTAB
  0
TABLE
  2
APPID
  5
9
330
0
100
AcDbSymbolTable
 70
     3
  0
APPID
  5
11
330
9
100
AcDbSymbolTableRecord
100
AcDbRegAppTableRecord
  2
ACAD
 70
     0
  0
APPID
  5
3330
330
9
100
AcDbSymbolTableRecord
100
AcDbRegAppTableRecord
  2
ACAD_EXEMPT_FROM_CAD_STANDARDS
 70
     0
  0
APPID
  5
3376
330
9
100
AcDbSymbolTableRecord
100
AcDbRegAppTableRecord
  2
ACAD_MLEADERVER
 70
     0
  0
ENDTAB
  0
TABLE
  2
DIMSTYLE
  5
A
330
0
100
AcDbSymbolTable
 70
     1
100
AcDbDimStyleTable
 71
     1
340
1D
  0
DIMSTYLE
105
1D
102
{ACAD_REACTORS
330
27EA
330
27EB
330
282D
330
2824
330
27EC
330
27F8
330
27F7
330
27ED
330
2FB1
102
}
330
A
100
AcDbSymbolTableRecord
100
AcDbDimStyleTableRecord
  2
STANDARD
 70
     0
340
10
  0
ENDTAB
  0
TABLE
  2
BLOCK_RECORD
  5
1
330
0
100
AcDbSymbolTable
 70
    14
  0
BLOCK_RECORD
  5
1A
102
{ACAD_XDICTIONARY
360
2D8
102
}
330
1
100
AcDbSymbolTableRecord
100
AcDbBlockTableRecord
  2
*MODEL_SPACE
340
293
  0
BLOCK_RECORD
  5
17
102
{ACAD_XDICTIONARY
360
2D6
102
}
330
1
100
AcDbSymbolTableRecord
100
AcDbBlockTableRecord
  2
*PAPER_SPACE
340
294
  0
BLOCK_RECORD
  5
B2
330
1
100
AcDbSymbolTableRecord
100
AcDbBlockTableRecord
  2
_OPEN
340
0
102
{BLKREFS
331
2D9A
331
2D9B
331
2D91
331
2D92
331
2DBE
331
2DBF
331
2DB5
331
2DB6
331
2DAC
331
2DAD
331
2DA3
331
2DA4
331
2DD0
331
2DD1
331
2DC7
331
2DC8
331
32D3
331
32D4
102
}
  0
BLOCK_RECORD
  5
1B01
330
1
100
AcDbSymbolTableRecord
100
AcDbBlockTableRecord
  2
*X1
340
0
102
{BLKREFS
331
1E05
102
}
  0
BLOCK_RECORD
  5
2849
330
1
100
AcDbSymbolTableRecord
100
AcDbBlockTableRecord
  2
*D2
340
0
  0
BLOCK_RECORD
  5
2855
330
1
100
AcDbSymbolTableRecord
100
AcDbBlockTableRecord
  2
*D3
340
0
  0
BLOCK_RECORD
  5
2861
330
1
100
AcDbSymbolTableRecord
100
AcDbBlockTableRecord
  2
*D4
340
0
  0
BLOCK_RECORD
  5
286D
330
1
100
AcDbSymbolTableRecord
100
AcDbBlockTableRecord
  2
*D5
340
0
  0
BLOCK_RECORD
  5
2879
330
1
100
AcDbSymbolTableRecord
100
AcDbBlockTableRecord
  2
*D6
340
0
  0
BLOCK_RECORD
  5
2885
330
1
100
AcDbSymbolTableRecord
100
AcDbBlockTableRecord
  2
*D7
340
0
  0
BLOCK_RECORD
  5
2891
330
1
100
AcDbSymbolTableRecord
100
AcDbBlockTableRecord
  2
*D8
340
0
  0
BLOCK_RECORD
  5
289D
330
1
100
AcDbSymbolTableRecord
100
AcDbBlockTableRecord
  2
*D9
340
0
  0
BLOCK_RECORD
  5
2FB2
330
1
100
AcDbSymbolTableRecord
100
AcDbBlockTableRecord
  2
*D10
340
0
  0
BLOCK_RECORD
  5
31AD
330
1
100
AcDbSymbolTableRecord
100
AcDbBlockTableRecord
  2
*X11
340
0
102
{BLKREFS
331
3154
102
}
  0
BLOCK_RECORD
  5
31BD
330
1
100
AcDbSymbolTableRecord
100
AcDbBlockTableRecord
  2
*X12
340
0
102
{BLKREFS
331
3155
102
}
  0
BLOCK_RECORD
  5
31CC
330
1
100
AcDbSymbolTableRecord
100
AcDbBlockTableRecord
  2
*X13
340
0
102
{BLKREFS
331
3156
102
}
  0
ENDTAB
  0
ENDSEC
  0
SECTION
  2
BLOCKS
  0
BLOCK
  5
1B
330
1A
100
AcDbEntity
  8
0
100
AcDbBlockBegin
  2
*MODEL_SPACE
 70
     0
 10
0.0
 20
0.0
 30
0.0
  3
*MODEL_SPACE
  1

  0
ENDBLK
  5
1C
330
1A
100
AcDbEntity
  8
0
100
AcDbBlockEnd
  0
BLOCK
  5
18
330
17
100
AcDbEntity
 67
     1
  8
0
100
AcDbBlockBegin
  2
*PAPER_SPACE
 70
     0
 10
0.0
 20
0.0
 30
0.0
  3
*PAPER_SPACE
  1

  0
ENDBLK
  5
19
330
17
100
AcDbEntity
 67
     1
  8
0
100
AcDbBlockEnd
  0
BLOCK
  5
B3
330
B2
100
AcDbEntity
  8
0
100
AcDbBlockBegin
  2
_OPEN
 70
     0
 10
0.0
 20
0.0
 30
0.0
  3
_OPEN
  1

  0
LINE
  5
B4
330
B2
100
AcDbEntity
  8
0
  6
ByBlock
 62
     0
100
AcDbLine
 10
-1.0
 20
0.1666666666666666
 30
0.0
 11
0.0
 21
0.0
 31
0.0
  0
LINE
  5
B5
330
B2
100
AcDbEntity
  8
0
  6
ByBlock
 62
     0
100
AcDbLine
 10
0.0
 20
0.0
 30
0.0
 11
-1.0
 21
-0.1666666666666666
 31
0.0
  0
LINE
  5
B6
330
B2
100
AcDbEntity
  8
0
  6
ByBlock
 62
     0
100
AcDbLine
 10
0.0
 20
0.0
 30
0.0
 11
-1.0
 21
0.0
 31
0.0
  0
ENDBLK
  5
B7
330
B2
100
AcDbEntity
  8
0
100
AcDbBlockEnd
  0
BLOCK
  5
1C95
330
1B01
100
AcDbEntity
  8
0
100
AcDbBlockBegin
  2
*X1
 70
     1
 10
0.0
 20
0.0
 30
0.0
  3
*X1
  1

  0
LINE
  5
1B02
330
1B01
100
AcDbEntity
  8
0
 62
     0
100
AcDbLine
 10
66.75047808566091
 20
28.71175535310772
 30
0.0
 11
66.10464715594599
 21
29.3575862828227
 31
0.0
  0
LINE
  5
1B03
330
1B01
100
AcDbEntity
  8
0
 62
     0
100
AcDbLine
 10
66.75047808566091
 20
27.81372974100083
 30
0.0
 11
65.20662154383905
 21
29.3575862828227
 31
0.0
  0
LINE
  5
1B04
330
1B01
100
AcDbEntity
  8
0
 62
     0
100
AcDbLine
 10
66.75047808566086
 20
26.91570412889388
 30
0.0
 11
64.32934413964591
 21
29.33683807490883
 31
0.0
  0
LINE
  5
1B05
330
1B01
100
AcDbEntity
  8
0
 62
     0
100
AcDbLine
 10
66.75047808566091
 20
26.01767851678705
 30
0.0
 11
63.95047808566085
 21
28.81767851678706
 31
0.0
  0
LINE
  5
1B06
330
1B01
100
AcDbEntity
  8
0
 62
     0
100
AcDbLine
 10
66.75047808566091
 20
25.1196529046801
 30
0.0
 11
63.95047808566085
 21
27.91965290468017
 31
0.0
  0
LINE
  5
1B07
330
1B01
100
AcDbEntity
  8
0
 62
     0
100
AcDbLine
 10
66.75047808566086
 20
24.22162729257315
 30
0.0
 11
63.95047808566079
 21
27.02162729257322
 31
0.0
  0
LINE
  5
1B08
330
1B01
100
AcDbEntity
  8
0
 62
     0
100
AcDbLine
 10
61.85047808566082
 20
28.22360168046635
 30
0.0
 11
60.71649348330453
 21
29.3575862828227
 31
0.0
  0
LINE
  5
1B09
330
1B01
100
AcDbEntity
  8
0
 62
     0
100
AcDbLine
 10
66.75047808566091
 20
23.32360168046631
 30
0.0
 11
63.95047808566085
 21
26.12360168046638
 31
0.0
  0
LINE
  5
1B0A
330
1B01
100
AcDbEntity
  8
0
 62
     0
100
AcDbLine
 10
61.85047808566082
 20
27.32557606835945
 30
0.0
 11
59.81846787119758
 21
29.35758628282264
 31
0.0
  0
LINE
  5
1B0B
330
1B01
100
AcDbEntity
  8
0
 62
     0
100
AcDbLine
 10
66.75047808566086
 20
22.42557606835936
 30
0.0
 11
63.95047808566085
 21
25.22557606835943
 31
0.0
  0
LINE
  5
1B0C
330
1B01
100
AcDbEntity
  8
0
 62
     0
100
AcDbLine
 10
61.85047808566082
 20
26.4275504562525
 30
0.0
 11
59.14496712052375
 21
29.13306142138959
 31
0.0
  0
LINE
  5
1B0D
330
1B01
100
AcDbEntity
  8
0
 62
     0
100
AcDbLine
 10
66.75047808566086
 20
21.52755045625247
 30
0.0
 11
63.95047808566079
 21
24.32755045625248
 31
0.0
  0
LINE
  5
1B0E
330
1B01
100
AcDbEntity
  8
0
 62
     0
100
AcDbLine
 10
61.85047808566094
 20
25.5295248441455
 30
0.0
 11
59.05047808566076
 21
28.32952484414562
 31
0.0
  0
LINE
  5
1B0F
330
1B01
100
AcDbEntity
  8
0
 62
     0
100
AcDbLine
 10
66.75047808566091
 20
20.62952484414552
 30
0.0
 11
63.95047808566085
 21
23.42952484414559
 31
0.0
  0
LINE
  5
1B10
330
1B01
100
AcDbEntity
  8
0
 62
     0
100
AcDbLine
 10
61.85047808566088
 20
24.63149923203861
 30
0.0
 11
59.05047808566076
 21
27.43149923203879
 31
0.0
  0
LINE
  5
1B11
330
1B01
100
AcDbEntity
  8
0
 62
     0
100
AcDbLine
 10
66.75047808566086
 20
19.73149923203863
 30
0.0
 11
63.95047808566079
 21
22.5314992320387
 31
0.0
  0
LINE
  5
1B12
330
1B01
100
AcDbEntity
  8
0
 62
     0
100
AcDbLine
 10
61.85047808566088
 20
23.73347361993172
 30
0.0
 11
59.05047808566076
 21
26.53347361993184
 31
0.0
  0
LINE
  5
1B13
330
1B01
100
AcDbEntity
  8
0
 62
     0
100
AcDbLine
 10
66.75047808566086
 20
18.83347361993173
 30
0.0
 11
63.95047808566079
 21
21.63347361993181
 31
0.0
  0
LINE
  5
1B14
330
1B01
100
AcDbEntity
  8
0
 62
     0
100
AcDbLine
 10
61.85047808566082
 20
22.83544800782477
 30
0.0
 11
59.0504780856607
 21
25.63544800782489
 31
0.0
  0
LINE
  5
1B15
330
1B01
100
AcDbEntity
  8
0
 62
     0
100
AcDbLine
 10
66.7504780856608
 20
17.93544800782479
 30
0.0
 11
63.95047808566079
 21
20.73544800782486
 31
0.0
  0
LINE
  5
1B16
330
1B01
100
AcDbEntity
  8
0
 62
     0
100
AcDbLine
 10
61.85047808566088
 20
21.93742239571793
 30
0.0
 11
59.05047808566076
 21
24.73742239571806
 31
0.0
  0
LINE
  5
1B17
330
1B01
100
AcDbEntity
  8
0
 62
     0
100
AcDbLine
 10
55.55047808566081
 20
28.237422395718
 30
0.0
 11
54.43031419855618
 21
29.35758628282264
 31
0.0
  0
LINE
  5
1B18
330
1B01
100
AcDbEntity
  8
0
 62
     0
100
AcDbLine
 10
66.75047808566086
 20
17.03742239571795
 30
0.0
 11
63.95047808566079
 21
19.83742239571796
 31
0.0
  0
LINE
  5
1B19
330
1B01
100
AcDbEntity
  8
0
 62
     0
100
AcDbLine
 10
61.85047808566088
 20
21.03939678361098
 30
0.0
 11
59.0504780856607
 21
23.83939678361111
 31
0.0
  0
LINE
  5
1B1A
330
1B01
100
AcDbEntity
  8
0
 62
     0
100
AcDbLine
 10
55.55047808566076
 20
27.33939678361105
 30
0.0
 11
53.53228858644922
 21
29.35758628282264
 31
0.0
  0
LINE
  5
1B1B
330
1B01
100
AcDbEntity
  8
0
 62
     0
100
AcDbLine
 10
66.75047808566086
 20
16.139396783611
 30
0.0
 11
63.95047808566079
 21
18.93939678361107
 31
0.0
  0
LINE
  5
1B1C
330
1B01
100
AcDbEntity
  8
0
 62
     0
100
AcDbLine
 10
61.85047808566082
 20
20.14137117150409
 30
0.0
 11
59.05047808566076
 21
22.9413711715041
 31
0.0
  0
LINE
  5
1B1D
330
1B01
100
AcDbEntity
  8
0
 62
     0
100
AcDbLine
 10
55.55047808566076
 20
26.44137117150416
 30
0.0
 11
52.85071536233676
 21
29.14113389482816
 31
0.0
  0
LINE
  5
1B1E
330
1B01
100
AcDbEntity
  8
0
 62
     0
100
AcDbLine
 10
66.7504780856608
 20
15.24137117150411
 30
0.0
 11
63.95047808566073
 21
18.04137117150412
 31
0.0
  0
LINE
  5
1B1F
330
1B01
100
AcDbEntity
  8
0
 62
     0
100
AcDbLine
 10
61.85047808566088
 20
19.24334555939714
 30
0.0
 11
59.05047808566081
 21
22.04334555939721
 31
0.0
  0
LINE
  5
1B20
330
1B01
100
AcDbEntity
  8
0
 62
     0
100
AcDbLine
 10
55.55047808566081
 20
25.54334555939721
 30
0.0
 11
52.7504780856608
 21
28.34334555939722
 31
0.0
  0
LINE
  5
1B21
330
1B01
100
AcDbEntity
  8
0
 62
     0
100
AcDbLine
 10
66.75047808566086
 20
14.34334555939716
 30
0.0
 11
63.95047808566079
 21
17.14334555939723
 31
0.0
  0
LINE
  5
1B22
330
1B01
100
AcDbEntity
  8
0
 62
     0
100
AcDbLine
 10
61.85047808566082
 20
18.34531994729025
 30
0.0
 11
59.05047808566081
 21
21.14531994729032
 31
0.0
  0
LINE
  5
1B23
330
1B01
100
AcDbEntity
  8
0
 62
     0
100
AcDbLine
 10
55.55047808566087
 20
24.64531994729026
 30
0.0
 11
52.7504780856608
 21
27.44531994729033
 31
0.0
  0
LINE
  5
1B24
330
1B01
100
AcDbEntity
  8
0
 62
     0
100
AcDbLine
 10
66.67851273077104
 20
13.51728530218008
 30
0.0
 11
63.95047808566079
 21
16.24531994729034
 31
0.0
  0
LINE
  5
1B25
330
1B01
100
AcDbEntity
  8
0
 62
     0
100
AcDbLine
 10
61.85047808566088
 20
17.44729433518324
 30
0.0
 11
59.05047808566076
 21
20.24729433518337
 31
0.0
  0
LINE
  5
1B26
330
1B01
100
AcDbEntity
  8
0
 62
     0
100
AcDbLine
 10
55.55047808566081
 20
23.74729433518337
 30
0.0
 11
52.75047808566075
 21
26.54729433518338
 31
0.0
  0
LINE
  5
1B27
330
1B01
100
AcDbEntity
  8
0
 62
     0
100
AcDbLine
 10
66.04018613802157
 20
13.25758628282261
 30
0.0
 11
63.95047808566073
 21
15.34729433518345
 31
0.0
  0
LINE
  5
1B28
330
1B01
100
AcDbEntity
  8
0
 62
     0
100
AcDbLine
 10
55.55047808566081
 20
22.84926872307642
 30
0.0
 11
52.75047808566075
 21
25.64926872307649
 31
0.0
  0
LINE
  5
1B29
330
1B01
100
AcDbEntity
  8
0
 62
     0
100
AcDbLine
 10
61.85047808566088
 20
16.54926872307635
 30
0.0
 11
59.05047808566076
 21
19.34926872307648
 31
0.0
  0
LINE
  5
1B2A
330
1B01
100
AcDbEntity
  8
0
 62
     0
100
AcDbLine
 10
50.1254780856608
 20
28.27426872307643
 30
0.0
 11
49.04216052591465
 21
29.35758628282253
 31
0.0
  0
LINE
  5
1B2B
330
1B01
100
AcDbEntity
  8
0
 62
     0
100
AcDbLine
 10
65.14216052591468
 20
13.2575862828225
 30
0.0
 11
63.95047808566073
 21
14.4492687230765
 31
0.0
  0
LINE
  5
1B2C
330
1B01
100
AcDbEntity
  8
0
 62
     0
100
AcDbLine
 10
55.55047808566081
 20
21.95124311096953
 30
0.0
 11
52.75047808566085
 21
24.75124311096954
 31
0.0
  0
LINE
  5
1B2D
330
1B01
100
AcDbEntity
  8
0
 62
     0
100
AcDbLine
 10
50.1254780856608
 20
27.37624311096954
 30
0.0
 11
48.14413491380782
 21
29.35758628282258
 31
0.0
  0
LINE
  5
1B2E
330
1B01
100
AcDbEntity
  8
0
 62
     0
100
AcDbLine
 10
61.82451978501529
 20
15.6772014116151
 30
0.0
 11
59.05047808566076
 21
18.45124311096958
 31
0.0
  0
LINE
  5
1B2F
330
1B01
100
AcDbEntity
  8
0
 62
     0
100
AcDbLine
 10
55.55047808566081
 20
21.05321749886264
 30
0.0
 11
52.75047808566085
 21
23.85321749886259
 31
0.0
  0
LINE
  5
1B30
330
1B01
100
AcDbEntity
  8
0
 62
     0
100
AcDbLine
 10
49.92989753954697
 20
26.67379804497648
 30
0.0
 11
47.24610930170081
 21
29.35758628282264
 31
0.0
  0
LINE
  5
1B31
330
1B01
100
AcDbEntity
  8
0
 62
     0
100
AcDbLine
 10
61.63153448975805
 20
14.97216109476534
 30
0.0
 11
59.05047808566076
 21
17.55321749886269
 31
0.0
  0
LINE
  5
1B32
330
1B01
100
AcDbEntity
  8
0
 62
     0
100
AcDbLine
 10
55.55047808566081
 20
20.15519188675569
 30
0.0
 11
52.7504780856608
 21
22.9551918867557
 31
0.0
  0
LINE
  5
1B33
330
1B01
100
AcDbEntity
  8
0
 62
     0
100
AcDbLine
 10
49.14808368959382
 20
26.55758628282263
 30
0.0
 11
46.34808368959392
 21
29.35758628282253
 31
0.0
  0
LINE
  5
1B34
330
1B01
100
AcDbEntity
  8
0
 62
     0
100
AcDbLine
 10
61.30650261383448
 20
14.39916735858196
 30
0.0
 11
58.97896234650125
 21
16.72670762591525
 31
0.0
  0
LINE
  5
1B35
330
1B01
100
AcDbEntity
  8
0
 62
     0
100
AcDbLine
 10
55.55047808566081
 20
19.25716627464885
 30
0.0
 11
52.75047808566085
 21
22.05716627464881
 31
0.0
  0
LINE
  5
1B36
330
1B01
100
AcDbEntity
  8
0
 62
     0
100
AcDbLine
 10
48.25005807748704
 20
26.55758628282257
 30
0.0
 11
45.5124913483096
 21
29.29515301200007
 31
0.0
  0
LINE
  5
1B37
330
1B01
100
AcDbEntity
  8
0
 62
     0
100
AcDbLine
 10
60.87446081650944
 20
13.93318354380017
 30
0.0
 11
58.57737670803373
 21
16.23026765227587
 31
0.0
  0
LINE
  5
1B38
330
1B01
100
AcDbEntity
  8
0
 62
     0
100
AcDbLine
 10
55.55047808566081
 20
18.3591406625419
 30
0.0
 11
52.7504780856608
 21
21.15914066254186
 31
0.0
  0
LINE
  5
1B39
330
1B01
100
AcDbEntity
  8
0
 62
     0
100
AcDbLine
 10
47.35203246538015
 20
26.55758628282257
 30
0.0
 11
44.8478509237762
 21
29.06176782442646
 31
0.0
  0
LINE
  5
1B3A
330
1B01
100
AcDbEntity
  8
0
 62
     0
100
AcDbLine
 10
60.33829847158341
 20
13.5713202766193
 30
0.0
 11
57.85203246538014
 21
16.05758628282257
 31
0.0
  0
LINE
  5
1B3B
330
1B01
100
AcDbEntity
  8
0
 62
     0
100
AcDbLine
 10
55.55047808566076
 20
17.46111505043495
 30
0.0
 11
52.7504780856608
 21
20.26111505043497
 31
0.0
  0
LINE
  5
1B3C
330
1B01
100
AcDbEntity
  8
0
 62
     0
100
AcDbLine
 10
46.47579668129123
 20
26.53579645480448
 30
0.0
 11
44.30524998656602
 21
28.70634314952969
 31
0.0
  0
LINE
  5
1B3D
330
1B01
100
AcDbEntity
  8
0
 62
     0
100
AcDbLine
 10
59.68188591167211
 20
13.32970722442366
 30
0.0
 11
56.95400685327314
 21
16.05758628282262
 31
0.0
  0
LINE
  5
1B3E
330
1B01
100
AcDbEntity
  8
0
 62
     0
100
AcDbLine
 10
46.10047808566088
 20
26.01308943832788
 30
0.0
 11
43.86713792752146
 21
28.24642959646729
 31
0.0
  0
LINE
  5
1B3F
330
1B01
100
AcDbEntity
  8
0
 62
     0
100
AcDbLine
 10
58.85598124116626
 20
13.25758628282256
 30
0.0
 11
52.7504780856608
 21
19.36308943832802
 31
0.0
  0
LINE
  5
1B40
330
1B01
100
AcDbEntity
  8
0
 62
     0
100
AcDbLine
 10
46.10047808566088
 20
25.11506382622111
 30
0.0
 11
43.53536701516844
 21
27.68017489671354
 31
0.0
  0
LINE
  5
1B41
330
1B01
100
AcDbEntity
  8
0
 62
     0
100
AcDbLine
 10
57.95795562905937
 20
13.25758628282256
 30
0.0
 11
52.7504780856608
 21
18.46506382622118
 31
0.0
  0
LINE
  5
1B42
330
1B01
100
AcDbEntity
  8
0
 62
     0
100
AcDbLine
 10
46.30702236676467
 20
24.01049393301037
 30
0.0
 11
43.33318849580433
 21
26.98432780397065
 31
0.0
  0
LINE
  5
1B43
330
1B01
100
AcDbEntity
  8
0
 62
     0
100
AcDbLine
 10
57.05993001695247
 20
13.25758628282256
 30
0.0
 11
52.7504780856608
 21
17.56703821411423
 31
0.0
  0
LINE
  5
1B44
330
1B01
100
AcDbEntity
  8
0
 62
     0
100
AcDbLine
 10
50.52408178835225
 20
18.89540889931584
 30
0.0
 11
43.30047808566075
 21
26.11901260200733
 31
0.0
  0
LINE
  5
1B45
330
1B01
100
AcDbEntity
  8
0
 62
     0
100
AcDbLine
 10
41.20047808566073
 20
28.2190126020073
 30
0.0
 11
40.06190440484544
 21
29.35758628282264
 31
0.0
  0
LINE
  5
1B46
330
1B01
100
AcDbEntity
  8
0
 62
     0
100
AcDbLine
 10
56.16190440484553
 20
13.25758628282256
 30
0.0
 11
52.75047808566075
 21
16.66901260200728
 31
0.0
  0
LINE
  5
1B47
330
1B01
100
AcDbEntity
  8
0
 62
     0
100
AcDbLine
 10
50.65047808566089
 20
17.87098698990036
 30
0.0
 11
43.30047808566081
 21
25.22098698990044
 31
0.0
  0
LINE
  5
1B48
330
1B01
100
AcDbEntity
  8
0
 62
     0
100
AcDbLine
 10
41.20047808566084
 20
27.32098698990035
 30
0.0
 11
39.16387879273856
 21
29.3575862828227
 31
0.0
  0
LINE
  5
1B49
330
1B01
100
AcDbEntity
  8
0
 62
     0
100
AcDbLine
 10
55.24743091399376
 20
13.2740341615675
 30
0.0
 11
52.76692596440574
 21
15.75453911115551
 31
0.0
  0
LINE
  5
1B4A
330
1B01
100
AcDbEntity
  8
0
 62
     0
100
AcDbLine
 10
41.20047808566084
 20
26.42296137779346
 30
0.0
 11
38.49308819788553
 21
29.13035126556872
 31
0.0
  0
LINE
  5
1B4B
330
1B01
100
AcDbEntity
  8
0
 62
     0
100
AcDbLine
 10
50.65047808566084
 20
16.97296137779341
 30
0.0
 11
43.3238887535432
 21
24.2995507099111
 31
0.0
  0
LINE
  5
1B4C
330
1B01
100
AcDbEntity
  8
0
 62
     0
100
AcDbLine
 10
41.20047808566084
 20
25.52493576568651
 30
0.0
 11
38.40047808566078
 21
28.32493576568658
 31
0.0
  0
LINE
  5
1B4D
330
1B01
100
AcDbEntity
  8
0
 62
     0
100
AcDbLine
 10
50.65047808566072
 20
16.07493576568657
 30
0.0
 11
43.64200817138322
 21
23.08340567996413
 31
0.0
  0
LINE
  5
1B4E
330
1B01
100
AcDbEntity
  8
0
 62
     0
100
AcDbLine
 10
41.20047808566084
 20
24.62691015357961
 30
0.0
 11
38.40047808566078
 21
27.42691015357963
 31
0.0
  0
LINE
  5
1B4F
330
1B01
100
AcDbEntity
  8
0
 62
     0
100
AcDbLine
 10
50.54191626807176
 20
15.2854719711687
 30
0.0
 11
47.84628147903345
 21
17.98110676020701
 31
0.0
  0
LINE
  5
1B50
330
1B01
100
AcDbEntity
  8
0
 62
     0
100
AcDbLine
 10
41.20047808566084
 20
23.72888454147272
 30
0.0
 11
38.40047808566078
 21
26.52888454147279
 31
0.0
  0
LINE
  5
1B51
330
1B01
100
AcDbEntity
  8
0
 62
     0
100
AcDbLine
 10
36.10899118508382
 20
28.82037144204969
 30
0.0
 11
35.57177634431094
 21
29.35758628282264
 31
0.0
  0
LINE
  5
1B52
330
1B01
100
AcDbEntity
  8
0
 62
     0
100
AcDbLine
 10
50.2740405603102
 20
14.65532206682337
 30
0.0
 11
47.85047808566088
 21
17.07888454147269
 31
0.0
  0
LINE
  5
1B53
330
1B01
100
AcDbEntity
  8
0
 62
     0
100
AcDbLine
 10
41.20047808566079
 20
22.83085892936577
 30
0.0
 11
38.40047808566078
 21
25.63085892936584
 31
0.0
  0
LINE
  5
1B54
330
1B01
100
AcDbEntity
  8
0
 62
     0
100
AcDbLine
 10
35.91006352083122
 20
28.12127349419535
 30
0.0
 11
34.67375073220399
 21
29.35758628282264
 31
0.0
  0
LINE
  5
1B55
330
1B01
100
AcDbEntity
  8
0
 62
     0
100
AcDbLine
 10
49.8910537621349
 20
14.14028325289172
 30
0.0
 11
47.75319290277439
 21
16.27814411225222
 31
0.0
  0
LINE
  5
1B56
330
1B01
100
AcDbEntity
  8
0
 62
     0
100
AcDbLine
 10
41.20047808566079
 20
21.93283331725888
 30
0.0
 11
38.40047808566072
 21
24.7328333172589
 31
0.0
  0
LINE
  5
1B57
330
1B01
100
AcDbEntity
  8
0
 62
     0
100
AcDbLine
 10
35.69453737392553
 20
27.43877402899409
 30
0.0
 11
33.78532181045495
 21
29.34798959246473
 31
0.0
  0
LINE
  5
1B58
330
1B01
100
AcDbEntity
  8
0
 62
     0
100
AcDbLine
 10
49.40473479701927
 20
13.72857660590034
 30
0.0
 11
47.07572512009704
 21
16.05758628282262
 31
0.0
  0
LINE
  5
1B59
330
1B01
100
AcDbEntity
  8
0
 62
     0
100
AcDbLine
 10
41.20047808566084
 20
21.03480770515199
 30
0.0
 11
38.40047808566078
 21
23.83480770515206
 31
0.0
  0
LINE
  5
1B5A
330
1B01
100
AcDbEntity
  8
0
 62
     0
100
AcDbLine
 10
35.47901122702001
 20
26.75627456379283
 30
0.0
 11
33.35101122701997
 21
28.88427456379287
 31
0.0
  0
LINE
  5
1B5B
330
1B01
100
AcDbEntity
  8
0
 62
     0
100
AcDbLine
 10
48.8086508485589
 20
13.42663494225388
 30
0.0
 11
46.17769950799015
 21
16.05758628282268
 31
0.0
  0
LINE
  5
1B5C
330
1B01
100
AcDbEntity
  8
0
 62
     0
100
AcDbLine
 10
41.20047808566079
 20
20.1367820930451
 30
0.0
 11
38.40047808566072
 21
22.93678209304511
 31
0.0
  0
LINE
  5
1B5D
330
1B01
100
AcDbEntity
  8
0
 62
     0
100
AcDbLine
 10
35.26348508011415
 20
26.07377509859174
 30
0.0
 11
33.13548508011417
 21
28.20177509859173
 31
0.0
  0
LINE
  5
1B5E
330
1B01
100
AcDbEntity
  8
0
 62
     0
100
AcDbLine
 10
48.07097819691143
 20
13.26628198179446
 30
0.0
 11
45.27967389588326
 21
16.05758628282262
 31
0.0
  0
LINE
  5
1B5F
330
1B01
100
AcDbEntity
  8
0
 62
     0
100
AcDbLine
 10
41.20047808566079
 20
19.23875648093815
 30
0.0
 11
38.40047808566078
 21
22.03875648093811
 31
0.0
  0
LINE
  5
1B60
330
1B01
100
AcDbEntity
  8
0
 62
     0
100
AcDbLine
 10
35.04795893320858
 20
25.39127563339036
 30
0.0
 11
32.91995893320848
 21
27.51927563339041
 31
0.0
  0
LINE
  5
1B61
330
1B01
100
AcDbEntity
  8
0
 62
     0
100
AcDbLine
 10
47.18164828377638
 20
13.25758628282256
 30
0.0
 11
44.38164828377631
 21
16.05758628282262
 31
0.0
  0
LINE
  5
1B62
330
1B01
100
AcDbEntity
  8
0
 62
     0
100
AcDbLine
 10
41.20047808566079
 20
18.34073086883126
 30
0.0
 11
38.40047808566083
 21
21.14073086883127
 31
0.0
  0
LINE
  5
1B63
330
1B01
100
AcDbEntity
  8
0
 62
     0
100
AcDbLine
 10
34.83243278630295
 20
24.70877616818916
 30
0.0
 11
32.70443278630285
 21
26.83677616818921
 31
0.0
  0
LINE
  5
1B64
330
1B01
100
AcDbEntity
  8
0
 62
     0
100
AcDbLine
 10
46.28362267166949
 20
13.25758628282261
 30
0.0
 11
43.8500109743731
 21
15.691197980119
 31
0.0
  0
LINE
  5
1B65
330
1B01
100
AcDbEntity
  8
0
 62
     0
100
AcDbLine
 10
34.61690663939732
 20
24.02627670298779
 30
0.0
 11
32.48890663939722
 21
26.15427670298795
 31
0.0
  0
LINE
  5
1B66
330
1B01
100
AcDbEntity
  8
0
 62
     0
100
AcDbLine
 10
41.20047808566079
 20
17.44270525672436
 30
0.0
 11
38.40047808566083
 21
20.24270525672432
 31
0.0
  0
LINE
  5
1B67
330
1B01
100
AcDbEntity
  8
0
 62
     0
100
AcDbLine
 10
30.35047808566083
 20
28.29270525672433
 30
0.0
 11
29.28559705956252
 21
29.35758628282258
 31
0.0
  0
LINE
  5
1B68
330
1B01
100
AcDbEntity
  8
0
 62
     0
100
AcDbLine
 10
45.38559705956259
 20
13.25758628282256
 30
0.0
 11
43.82547808566084
 21
14.81770525672431
 31
0.0
  0
LINE
  5
1B69
330
1B01
100
AcDbEntity
  8
0
 62
     0
100
AcDbLine
 10
34.40138049249152
 20
23.3437772377867
 30
0.0
 11
32.27338049249159
 21
25.47177723778663
 31
0.0
  0
LINE
  5
1B6A
330
1B01
100
AcDbEntity
  8
0
 62
     0
100
AcDbLine
 10
41.20047808566079
 20
16.54467964461742
 30
0.0
 11
38.40047808566078
 21
19.34467964461743
 31
0.0
  0
LINE
  5
1B6B
330
1B01
100
AcDbEntity
  8
0
 62
     0
100
AcDbLine
 10
30.35047808566083
 20
27.39467964461738
 30
0.0
 11
28.38757144745563
 21
29.35758628282258
 31
0.0
  0
LINE
  5
1B6C
330
1B01
100
AcDbEntity
  8
0
 62
     0
100
AcDbLine
 10
44.48757144745559
 20
13.25758628282261
 30
0.0
 11
43.82547808566079
 21
13.91967964461736
 31
0.0
  0
LINE
  5
1B6D
330
1B01
100
AcDbEntity
  8
0
 62
     0
100
AcDbLine
 10
34.18585434558588
 20
22.66127777258538
 30
0.0
 11
32.05785434558584
 21
24.78927777258542
 31
0.0
  0
LINE
  5
1B6E
330
1B01
100
AcDbEntity
  8
0
 62
     0
100
AcDbLine
 10
30.35047808566077
 20
26.49665403251044
 30
0.0
 11
27.67503315676317
 21
29.1720989614081
 31
0.0
  0
LINE
  5
1B6F
330
1B01
100
AcDbEntity
  8
0
 62
     0
100
AcDbLine
 10
41.20047808566073
 20
15.64665403251052
 30
0.0
 11
38.40047808566078
 21
18.44665403251048
 31
0.0
  0
LINE
  5
1B70
330
1B01
100
AcDbEntity
  8
0
 62
     0
100
AcDbLine
 10
33.97032819868025
 20
21.97877830738418
 30
0.0
 11
31.84232819868026
 21
24.10677830738416
 31
0.0
  0
LINE
  5
1B71
330
1B01
100
AcDbEntity
  8
0
 62
     0
100
AcDbLine
 10
30.35047808566083
 20
25.5986284204036
 30
0.0
 11
27.55047808566076
 21
28.39862842040361
 31
0.0
  0
LINE
  5
1B72
330
1B01
100
AcDbEntity
  8
0
 62
     0
100
AcDbLine
 10
41.20047808566079
 20
14.74862842040363
 30
0.0
 11
38.40047808566078
 21
17.54862842040359
 31
0.0
  0
LINE
  5
1B73
330
1B01
100
AcDbEntity
  8
0
 62
     0
100
AcDbLine
 10
33.7652396892882
 20
21.28584120466928
 30
0.0
 11
31.62680205177452
 21
23.42427884218296
 31
0.0
  0
LINE
  5
1B74
330
1B01
100
AcDbEntity
  8
0
 62
     0
100
AcDbLine
 10
30.35047808566083
 20
24.70060280829665
 30
0.0
 11
27.55047808566076
 21
27.50060280829672
 31
0.0
  0
LINE
  5
1B75
330
1B01
100
AcDbEntity
  8
0
 62
     0
100
AcDbLine
 10
41.20047808566073
 20
13.85060280829668
 30
0.0
 11
38.40047808566078
 21
16.65060280829669
 31
0.0
  0
LINE
  5
1B76
330
1B01
100
AcDbEntity
  8
0
 62
     0
100
AcDbLine
 10
34.1797130487222
 20
19.97334223312833
 30
0.0
 11
31.3362545560899
 21
22.81680072576063
 31
0.0
  0
LINE
  5
1B77
330
1B01
100
AcDbEntity
  8
0
 62
     0
100
AcDbLine
 10
30.35047808566088
 20
23.80257719618965
 30
0.0
 11
27.5504780856607
 21
26.60257719618977
 31
0.0
  0
LINE
  5
1B78
330
1B01
100
AcDbEntity
  8
0
 62
     0
100
AcDbLine
 10
40.8614330883284
 20
13.29162219352207
 30
0.0
 11
38.40047808566078
 21
15.75257719618974
 31
0.0
  0
LINE
  5
1B79
330
1B01
100
AcDbEntity
  8
0
 62
     0
100
AcDbLine
 10
34.59418640815619
 20
18.6608432615875
 30
0.0
 11
27.55047808566076
 21
25.70455158408293
 31
0.0
  0
LINE
  5
1B7A
330
1B01
100
AcDbEntity
  8
0
 62
     0
100
AcDbLine
 10
25.10047808566088
 20
28.15455158408281
 30
0.0
 11
23.89744338692111
 21
29.35758628282258
 31
0.0
  0
LINE
  5
1B7B
330
1B01
100
AcDbEntity
  8
0
 62
     0
100
AcDbLine
 10
39.99744338692114
 20
13.25758628282256
 30
0.0
 11
38.40047808566089
 21
14.8545515840828
 31
0.0
  0
LINE
  5
1B7C
330
1B01
100
AcDbEntity
  8
0
 62
     0
100
AcDbLine
 10
35.00865976759025
 20
17.34834429004649
 30
0.0
 11
27.55047808566076
 21
24.80652597197599
 31
0.0
  0
LINE
  5
1B7D
330
1B01
100
AcDbEntity
  8
0
 62
     0
100
AcDbLine
 10
25.10047808566088
 20
27.25652597197586
 30
0.0
 11
22.99941777481411
 21
29.35758628282264
 31
0.0
  0
LINE
  5
1B7E
330
1B01
100
AcDbEntity
  8
0
 62
     0
100
AcDbLine
 10
39.09941777481419
 20
13.2575862828225
 30
0.0
 11
38.40047808566083
 21
13.95652597197591
 31
0.0
  0
LINE
  5
1B7F
330
1B01
100
AcDbEntity
  8
0
 62
     0
100
AcDbLine
 10
24.83357139027078
 20
26.62540705525902
 30
0.0
 11
22.13334967205935
 21
29.32562877347038
 31
0.0
  0
LINE
  5
1B80
330
1B01
100
AcDbEntity
  8
0
 62
     0
100
AcDbLine
 10
35.42313312702419
 20
16.03584531850561
 30
0.0
 11
27.55047808566081
 21
23.90850035986898
 31
0.0
  0
LINE
  5
1B81
330
1B01
100
AcDbEntity
  8
0
 62
     0
100
AcDbLine
 10
30.68798700800244
 20
19.87296582542046
 30
0.0
 11
27.55047808566081
 21
23.01047474776209
 31
0.0
  0
LINE
  5
1B82
330
1B01
100
AcDbEntity
  8
0
 62
     0
100
AcDbLine
 10
24.00336655060034
 20
26.55758628282252
 30
0.0
 11
21.39530660247209
 21
29.16564623095081
 31
0.0
  0
LINE
  5
1B83
330
1B01
100
AcDbEntity
  8
0
 62
     0
100
AcDbLine
 10
35.83760648645824
 20
14.72334634696466
 30
0.0
 11
31.74529879415013
 21
18.81565403927277
 31
0.0
  0
LINE
  5
1B84
330
1B01
100
AcDbEntity
  8
0
 62
     0
100
AcDbLine
 10
30.35047808566088
 20
19.31244913565513
 30
0.0
 11
27.55047808566081
 21
22.1124491356552
 31
0.0
  0
LINE
  5
1B85
330
1B01
100
AcDbEntity
  8
0
 62
     0
100
AcDbLine
 10
23.10534093849333
 20
26.55758628282263
 30
0.0
 11
20.75658518664136
 21
28.9063420346746
 31
0.0
  0
LINE
  5
1B86
330
1B01
100
AcDbEntity
  8
0
 62
     0
100
AcDbLine
 10
36.07264534416885
 20
13.59028187714711
 30
0.0
 11
32.15977215358407
 21
17.50315506773194
 31
0.0
  0
LINE
  5
1B87
330
1B01
100
AcDbEntity
  8
0
 62
     0
100
AcDbLine
 10
30.35047808566083
 20
18.41442352354824
 30
0.0
 11
27.55047808566076
 21
21.21442352354825
 31
0.0
  0
LINE
  5
1B88
330
1B01
100
AcDbEntity
  8
0
 62
     0
100
AcDbLine
 10
22.2622274359498
 20
26.50267417325927
 30
0.0
 11
20.19783621130682
 21
28.56706539790224
 31
0.0
  0
LINE
  5
1B89
330
1B01
100
AcDbEntity
  8
0
 62
     0
100
AcDbLine
 10
35.5073153263865
 20
13.25758628282256
 30
0.0
 11
32.57424551301813
 21
16.19065609619088
 31
0.0
  0
LINE
  5
1B8A
330
1B01
100
AcDbEntity
  8
0
 62
     0
100
AcDbLine
 10
30.35047808566083
 20
17.51639791144128
 30
0.0
 11
27.55047808566076
 21
20.31639791144136
 31
0.0
  0
LINE
  5
1B8B
330
1B01
100
AcDbEntity
  8
0
 62
     0
100
AcDbLine
 10
21.6903712431108
 20
26.17650475399131
 30
0.0
 11
19.71018100269503
 21
28.15669499440708
 31
0.0
  0
LINE
  5
1B8C
330
1B01
100
AcDbEntity
  8
0
 62
     0
100
AcDbLine
 10
34.60928971427956
 20
13.25758628282256
 30
0.0
 11
32.98871887245207
 21
14.87815712465004
 31
0.0
  0
LINE
  5
1B8D
330
1B01
100
AcDbEntity
  8
0
 62
     0
100
AcDbLine
 10
25.43590721845857
 20
21.53294316653671
 30
0.0
 11
23.92583496937482
 21
23.04301541562046
 31
0.0
  0
LINE
  5
1B8E
330
1B01
100
AcDbEntity
  8
0
 62
     0
100
AcDbLine
 10
30.35047808566094
 20
16.61837229933434
 30
0.0
 11
27.55047808566081
 21
19.41837229933446
 31
0.0
  0
LINE
  5
1B8F
330
1B01
100
AcDbEntity
  8
0
 62
     0
100
AcDbLine
 10
21.33424967298186
 20
25.63460071201343
 30
0.0
 11
19.2908149766838
 21
27.67803540831148
 31
0.0
  0
LINE
  5
1B90
330
1B01
100
AcDbEntity
  8
0
 62
     0
100
AcDbLine
 10
33.66093109796805
 20
13.30791928702723
 30
0.0
 11
33.41057692637674
 21
13.55827345861854
 31
0.0
  0
LINE
  5
1B91
330
1B01
100
AcDbEntity
  8
0
 62
     0
100
AcDbLine
 10
25.34939355831665
 20
20.72143121457168
 30
0.0
 11
23.11432301740979
 21
22.95650175547854
 31
0.0
  0
LINE
  5
1B92
330
1B01
100
AcDbEntity
  8
0
 62
     0
100
AcDbLine
 10
21.25047808566092
 20
24.82034668722742
 30
0.0
 11
18.94187595572214
 21
27.12894881716619
 31
0.0
  0
LINE
  5
1B93
330
1B01
100
AcDbEntity
  8
0
 62
     0
100
AcDbLine
 10
30.35047808566088
 20
15.72034668722739
 30
0.0
 11
27.55047808566076
 21
18.52034668722757
 31
0.0
  0
LINE
  5
1B94
330
1B01
100
AcDbEntity
  8
0
 62
     0
100
AcDbLine
 10
25.0175379990186
 20
20.15526116176272
 30
0.0
 11
22.54815296460083
 21
22.62464619618049
 31
0.0
  0
LINE
  5
1B95
330
1B01
100
AcDbEntity
  8
0
 62
     0
100
AcDbLine
 10
21.25047808566092
 20
23.92232107512047
 30
0.0
 11
18.67129624851196
 21
26.50150291226942
 31
0.0
  0
LINE
  5
1B96
330
1B01
100
AcDbEntity
  8
0
 62
     0
100
AcDbLine
 10
30.35047808566088
 20
14.8223210751205
 30
0.0
 11
27.55047808566081
 21
17.62232107512057
 31
0.0
  0
LINE
  5
1B97
330
1B01
100
AcDbEntity
  8
0
 62
     0
100
AcDbLine
 10
21.25047808566092
 20
23.02429546301357
 30
0.0
 11
18.49658237558611
 21
25.77819117308843
 31
0.0
  0
LINE
  5
1B98
330
1B01
100
AcDbEntity
  8
0
 62
     0
100
AcDbLine
 10
24.51570455688216
 20
19.75906899179239
 30
0.0
 11
22.1519607946305
 21
22.12281275404405
 31
0.0
  0
LINE
  5
1B99
330
1B01
100
AcDbEntity
  8
0
 62
     0
100
AcDbLine
 10
15.82547808566073
 20
28.44929546301376
 30
0.0
 11
14.91718726585185
 21
29.3575862828227
 31
0.0
  0
LINE
  5
1B9A
330
1B01
100
AcDbEntity
  8
0
 62
     0
100
AcDbLine
 10
30.35047808566094
 20
13.9242954630136
 30
0.0
 11
27.55047808566087
 21
16.72429546301367
 31
0.0
  0
LINE
  5
1B9B
330
1B01
100
AcDbEntity
  8
0
 62
     0
100
AcDbLine
 10
21.25047808566092
 20
22.12626985090668
 30
0.0
 11
18.45047808566085
 21
24.92626985090675
 31
0.0
  0
LINE
  5
1B9C
330
1B01
100
AcDbEntity
  8
0
 62
     0
100
AcDbLine
 10
23.81538511445473
 20
19.56136282211287
 30
0.0
 11
21.95425462495098
 21
21.42249331161662
 31
0.0
  0
LINE
  5
1B9D
330
1B01
100
AcDbEntity
  8
0
 62
     0
100
AcDbLine
 10
15.82547808566073
 20
27.55126985090686
 30
0.0
 11
14.0191616537449
 21
29.35758628282264
 31
0.0
  0
LINE
  5
1B9E
330
1B01
100
AcDbEntity
  8
0
 62
     0
100
AcDbLine
 10
30.06257428439023
 20
13.31417365217737
 30
0.0
 11
27.55047808566081
 21
15.82626985090672
 31
0.0
  0
LINE
  5
1B9F
330
1B01
100
AcDbEntity
  8
0
 62
     0
100
AcDbLine
 10
21.25047808566092
 20
21.22824423879973
 30
0.0
 11
18.45047808566085
 21
24.0282442387998
 31
0.0
  0
LINE
  5
1BA0
330
1B01
100
AcDbEntity
  8
0
 62
     0
100
AcDbLine
 10
15.71644411539046
 20
26.76227820907019
 30
0.0
 11
13.12113604163789
 21
29.3575862828227
 31
0.0
  0
LINE
  5
1BA1
330
1B01
100
AcDbEntity
  8
0
 62
     0
100
AcDbLine
 10
29.22113604163809
 20
13.2575862828225
 30
0.0
 11
27.55047808566081
 21
14.92824423879983
 31
0.0
  0
LINE
  5
1BA2
330
1B01
100
AcDbEntity
  8
0
 62
     0
100
AcDbLine
 10
21.25047808566086
 20
20.33021862669284
 30
0.0
 11
18.45047808566079
 21
23.13021862669285
 31
0.0
  0
LINE
  5
1BA3
330
1B01
100
AcDbEntity
  8
0
 62
     0
100
AcDbLine
 10
15.02311042953113
 20
26.55758628282257
 30
0.0
 11
12.223110429531
 21
29.3575862828227
 31
0.0
  0
LINE
  5
1BA4
330
1B01
100
AcDbEntity
  8
0
 62
     0
100
AcDbLine
 10
28.32311042953108
 20
13.25758628282256
 30
0.0
 11
27.55047808566081
 21
14.03021862669288
 31
0.0
  0
LINE
  5
1BA5
330
1B01
100
AcDbEntity
  8
0
 62
     0
100
AcDbLine
 10
21.25047808566092
 20
19.43219301458595
 30
0.0
 11
18.45047808566085
 21
22.23219301458602
 31
0.0
  0
LINE
  5
1BA6
330
1B01
100
AcDbEntity
  8
0
 62
     0
100
AcDbLine
 10
14.12508481742424
 20
26.55758628282257
 30
0.0
 11
11.35995554531934
 21
29.32271555492753
 31
0.0
  0
LINE
  5
1BA7
330
1B01
100
AcDbEntity
  8
0
 62
     0
100
AcDbLine
 10
25.09787563682392
 20
15.58479546342289
 30
0.0
 11
24.62768726626121
 21
16.05498383398566
 31
0.0
  0
LINE
  5
1BA8
330
1B01
100
AcDbEntity
  8
0
 62
     0
100
AcDbLine
 10
21.25047808566086
 20
18.534167402479
 30
0.0
 11
18.45047808566085
 21
21.33416740247907
 31
0.0
  0
LINE
  5
1BA9
330
1B01
100
AcDbEntity
  8
0
 62
     0
100
AcDbLine
 10
13.22705920531734
 20
26.55758628282257
 30
0.0
 11
10.66682073684086
 21
29.11782475129906
 31
0.0
  0
LINE
  5
1BAA
330
1B01
100
AcDbEntity
  8
0
 62
     0
100
AcDbLine
 10
25.10047808566083
 20
14.68416740247903
 30
0.0
 11
23.72705920531729
 21
16.05758628282262
 31
0.0
  0
LINE
  5
1BAB
330
1B01
100
AcDbEntity
  8
0
 62
     0
100
AcDbLine
 10
21.25047808566086
 20
17.63614179037211
 30
0.0
 11
18.4504780856609
 21
20.43614179037206
 31
0.0
  0
LINE
  5
1BAC
330
1B01
100
AcDbEntity
  8
0
 62
     0
100
AcDbLine
 10
12.3290335932104
 20
26.55758628282252
 30
0.0
 11
10.10257407699362
 21
28.78404579903929
 31
0.0
  0
LINE
  5
1BAD
330
1B01
100
AcDbEntity
  8
0
 62
     0
100
AcDbLine
 10
25.10047808566083
 20
13.78614179037214
 30
0.0
 11
22.8290335932104
 21
16.05758628282251
 31
0.0
  0
LINE
  5
1BAE
330
1B01
100
AcDbEntity
  8
0
 62
     0
100
AcDbLine
 10
11.8187407655958
 20
26.16985349833033
 30
0.0
 11
9.644481264752869
 21
28.34411299917326
 31
0.0
  0
LINE
  5
1BAF
330
1B01
100
AcDbEntity
  8
0
 62
     0
100
AcDbLine
 10
24.71274530116853
 20
13.27584896275761
 30
0.0
 11
18.4504780856609
 21
19.53811617826523
 31
0.0
  0
LINE
  5
1BB0
330
1B01
100
AcDbEntity
  8
0
 62
     0
100
AcDbLine
 10
11.80047808566087
 20
25.29009056615831
 30
0.0
 11
9.291000062283785
 21
27.7995685895354
 31
0.0
  0
LINE
  5
1BB1
330
1B01
100
AcDbEntity
  8
0
 62
     0
100
AcDbLine
 10
23.83298236899662
 20
13.25758628282256
 30
0.0
 11
18.4504780856609
 21
18.64009056615828
 31
0.0
  0
LINE
  5
1BB2
330
1B01
100
AcDbEntity
  8
0
 62
     0
100
AcDbLine
 10
11.8626137937963
 20
24.32992924591588
 30
0.0
 11
9.060119959990061
 21
27.13242307972218
 31
0.0
  0
LINE
  5
1BB3
330
1B01
100
AcDbEntity
  8
0
 62
     0
100
AcDbLine
 10
22.93495675688962
 20
13.25758628282261
 30
0.0
 11
18.45047808566085
 21
17.74206495405133
 31
0.0
  0
LINE
  5
1BB4
330
1B01
100
AcDbEntity
  8
0
 62
     0
100
AcDbLine
 10
16.15485417688353
 20
19.13966325072181
 30
0.0
 11
9.000478085660915
 21
26.29403934194443
 31
0.0
  0
LINE
  5
1BB5
330
1B01
100
AcDbEntity
  8
0
 62
     0
100
AcDbLine
 10
21.98365905772607
 20
13.31085836987927
 30
0.0
 11
18.5037501727175
 21
16.79076725488784
 31
0.0
  0
LINE
  5
1BB6
330
1B01
100
AcDbEntity
  8
0
 62
     0
100
AcDbLine
 10
16.34674869096875
 20
18.04974312452969
 30
0.0
 11
9.000478085660802
 21
25.39601372983765
 31
0.0
  0
LINE
  5
1BB7
330
1B01
100
AcDbEntity
  8
0
 62
     0
100
AcDbLine
 10
20.60985114512448
 20
13.78664067037391
 30
0.0
 11
18.97953247321209
 21
15.41695934228636
 31
0.0
  0
LINE
  5
1BB8
330
1B01
100
AcDbEntity
  8
0
 62
     0
100
AcDbLine
 10
16.35047808566088
 20
17.14798811773062
 30
0.0
 11
9.008042533083198
 21
24.49042367030825
 31
0.0
  0
LINE
  5
1BB9
330
1B01
100
AcDbEntity
  8
0
 62
     0
100
AcDbLine
 10
16.35047808566082
 20
16.24996250562373
 30
0.0
 11
9.231333291407054
 21
23.36910729987744
 31
0.0
  0
LINE
  5
1BBA
330
1B01
100
AcDbEntity
  8
0
 62
     0
100
AcDbLine
 10
16.27795808952891
 20
15.42445688964881
 30
0.0
 11
13.51456644590985
 21
18.18784853326787
 31
0.0
  0
LINE
  5
1BBB
330
1B01
100
AcDbEntity
  8
0
 62
     0
100
AcDbLine
 10
16.03602015050006
 20
14.7683692165707
 30
0.0
 11
13.55047808566081
 21
17.25391128140995
 31
0.0
  0
LINE
  5
1BBC
330
1B01
100
AcDbEntity
  8
0
 62
     0
100
AcDbLine
 10
15.67390090311829
 20
14.23246285184552
 30
0.0
 11
13.51457905336014
 21
16.39178470160368
 31
0.0
  0
LINE
  5
1BBD
330
1B01
100
AcDbEntity
  8
0
 62
     0
100
AcDbLine
 10
15.20767453085142
 20
13.80066361200551
 30
0.0
 11
12.9507518600343
 21
16.05758628282268
 31
0.0
  0
LINE
  5
1BBE
330
1B01
100
AcDbEntity
  8
0
 62
     0
100
AcDbLine
 10
14.63441008311861
 20
13.47590244763142
 30
0.0
 11
12.05272624792735
 21
16.05758628282262
 31
0.0
  0
LINE
  5
1BBF
330
1B01
100
AcDbEntity
  8
0
 62
     0
100
AcDbLine
 10
13.92899749403267
 20
13.28328942461041
 30
0.0
 11
11.15470063582046
 21
16.05758628282262
 31
0.0
  0
LINE
  5
1BC0
330
1B01
100
AcDbEntity
  8
0
 62
     0
100
AcDbLine
 10
13.05667502371363
 20
13.25758628282244
 30
0.0
 11
10.25667502371351
 21
16.05758628282262
 31
0.0
  0
LINE
  5
1BC1
330
1B01
100
AcDbEntity
  8
0
 62
     0
100
AcDbLine
 10
12.15864941160669
 20
13.25758628282256
 30
0.0
 11
9.605325516788809
 21
15.81091017764049
 31
0.0
  0
LINE
  5
1BC2
330
1B01
100
AcDbEntity
  8
0
 62
     0
100
AcDbLine
 10
11.2606237994998
 20
13.25758628282256
 30
0.0
 11
9.525478085660836
 21
14.99273199666152
 31
0.0
  0
LINE
  5
1BC3
330
1B01
100
AcDbEntity
  8
0
 62
     0
100
AcDbLine
 10
10.36259818739285
 20
13.25758628282256
 30
0.0
 11
9.525478085660836
 21
14.09470638455457
 31
0.0
  0
LINE
  5
1BC4
330
1B01
100
AcDbEntity
  8
0
 62
     0
100
AcDbLine
 10
66.34216537032779
 20
13.27071805994012
 30
0.0
 11
66.73734630854358
 21
13.66589899815591
 31
0.0
  0
LINE
  5
1BC5
330
1B01
100
AcDbEntity
  8
0
 62
     0
100
AcDbLine
 10
65.43100798110334
 20
13.2575862828225
 30
0.0
 11
66.75047808566103
 21
14.57705638738019
 31
0.0
  0
LINE
  5
1BC6
330
1B01
100
AcDbEntity
  8
0
 62
     0
100
AcDbLine
 10
64.53298236899644
 20
13.2575862828225
 30
0.0
 11
66.75047808566103
 21
15.47508199948708
 31
0.0
  0
LINE
  5
1BC7
330
1B01
100
AcDbEntity
  8
0
 62
     0
100
AcDbLine
 10
63.9816756489127
 20
13.60430517484571
 30
0.0
 11
66.75047808566097
 21
16.37310761159404
 31
0.0
  0
LINE
  5
1BC8
330
1B01
100
AcDbEntity
  8
0
 62
     0
100
AcDbLine
 10
63.9504780856609
 20
14.47113322370086
 30
0.0
 11
66.75047808566097
 21
17.27113322370087
 31
0.0
  0
LINE
  5
1BC9
330
1B01
100
AcDbEntity
  8
0
 62
     0
100
AcDbLine
 10
63.95047808566096
 20
15.36915883580775
 30
0.0
 11
66.75047808566097
 21
18.16915883580782
 31
0.0
  0
LINE
  5
1BCA
330
1B01
100
AcDbEntity
  8
0
 62
     0
100
AcDbLine
 10
63.9504780856609
 20
16.2671844479147
 30
0.0
 11
66.75047808566097
 21
19.06718444791477
 31
0.0
  0
LINE
  5
1BCB
330
1B01
100
AcDbEntity
  8
0
 62
     0
100
AcDbLine
 10
63.9504780856609
 20
17.16521006002159
 30
0.0
 11
66.75047808566097
 21
19.96521006002166
 31
0.0
  0
LINE
  5
1BCC
330
1B01
100
AcDbEntity
  8
0
 62
     0
100
AcDbLine
 10
60.37704294772618
 20
13.59177492208687
 30
0.0
 11
61.51628944639674
 21
14.73102142075748
 31
0.0
  0
LINE
  5
1BCD
330
1B01
100
AcDbEntity
  8
0
 62
     0
100
AcDbLine
 10
63.9504780856609
 20
18.06323567212848
 30
0.0
 11
66.75047808566097
 21
20.86323567212855
 31
0.0
  0
LINE
  5
1BCE
330
1B01
100
AcDbEntity
  8
0
 62
     0
100
AcDbLine
 10
59.14647478120338
 20
13.25923236767096
 30
0.0
 11
61.8488320008127
 21
15.96158958728023
 31
0.0
  0
LINE
  5
1BCF
330
1B01
100
AcDbEntity
  8
0
 62
     0
100
AcDbLine
 10
63.9504780856609
 20
18.96126128423543
 30
0.0
 11
66.75047808566097
 21
21.76126128423545
 31
0.0
  0
LINE
  5
1BD0
330
1B01
100
AcDbEntity
  8
0
 62
     0
100
AcDbLine
 10
58.24680308424797
 20
13.2575862828225
 30
0.0
 11
61.850478085661
 21
16.86126128423547
 31
0.0
  0
LINE
  5
1BD1
330
1B01
100
AcDbEntity
  8
0
 62
     0
100
AcDbLine
 10
63.9504780856609
 20
19.85928689634232
 30
0.0
 11
66.75047808566091
 21
22.6592868963424
 31
0.0
  0
LINE
  5
1BD2
330
1B01
100
AcDbEntity
  8
0
 62
     0
100
AcDbLine
 10
57.34877747214108
 20
13.2575862828225
 30
0.0
 11
61.85047808566094
 21
17.75928689634241
 31
0.0
  0
LINE
  5
1BD3
330
1B01
100
AcDbEntity
  8
0
 62
     0
100
AcDbLine
 10
63.9504780856609
 20
20.75731250844922
 30
0.0
 11
66.75047808566097
 21
23.55731250844929
 31
0.0
  0
LINE
  5
1BD4
330
1B01
100
AcDbEntity
  8
0
 62
     0
100
AcDbLine
 10
56.45075186003424
 20
13.25758628282256
 30
0.0
 11
61.850478085661
 21
18.65731250844931
 31
0.0
  0
LINE
  5
1BD5
330
1B01
100
AcDbEntity
  8
0
 62
     0
100
AcDbLine
 10
58.94588688357988
 20
16.65074691847513
 30
0.0
 11
61.850478085661
 21
19.5553381205562
 31
0.0
  0
LINE
  5
1BD6
330
1B01
100
AcDbEntity
  8
0
 62
     0
100
AcDbLine
 10
63.9504780856609
 20
21.65533812055611
 30
0.0
 11
66.75047808566097
 21
24.45533812055618
 31
0.0
  0
LINE
  5
1BD7
330
1B01
100
AcDbEntity
  8
0
 62
     0
100
AcDbLine
 10
55.55272624792724
 20
13.2575862828225
 30
0.0
 11
58.45731745000836
 21
16.16217748490356
 31
0.0
  0
LINE
  5
1BD8
330
1B01
100
AcDbEntity
  8
0
 62
     0
100
AcDbLine
 10
59.05047808566087
 20
17.65336373266308
 30
0.0
 11
61.85047808566094
 21
20.45336373266315
 31
0.0
  0
LINE
  5
1BD9
330
1B01
100
AcDbEntity
  8
0
 62
     0
100
AcDbLine
 10
63.95047808566085
 20
22.55336373266306
 30
0.0
 11
66.75047808566091
 21
25.35336373266313
 31
0.0
  0
LINE
  5
1BDA
330
1B01
100
AcDbEntity
  8
0
 62
     0
100
AcDbLine
 10
54.76665038719755
 20
13.36953603419971
 30
0.0
 11
57.45470063582041
 21
16.05758628282257
 31
0.0
  0
LINE
  5
1BDB
330
1B01
100
AcDbEntity
  8
0
 62
     0
100
AcDbLine
 10
59.05047808566092
 20
18.55138934477009
 30
0.0
 11
61.85047808566094
 21
21.35138934477004
 31
0.0
  0
LINE
  5
1BDC
330
1B01
100
AcDbEntity
  8
0
 62
     0
100
AcDbLine
 10
63.95047808566085
 20
23.45138934477001
 30
0.0
 11
66.75047808566091
 21
26.25138934477002
 31
0.0
  0
LINE
  5
1BDD
330
1B01
100
AcDbEntity
  8
0
 62
     0
100
AcDbLine
 10
54.1386635199874
 20
13.63957477909656
 30
0.0
 11
56.55755280935784
 21
16.058464068467
 31
0.0
  0
LINE
  5
1BDE
330
1B01
100
AcDbEntity
  8
0
 62
     0
100
AcDbLine
 10
59.05047808566099
 20
19.44941495687698
 30
0.0
 11
61.85047808566094
 21
22.24941495687693
 31
0.0
  0
LINE
  5
1BDF
330
1B01
100
AcDbEntity
  8
0
 62
     0
100
AcDbLine
 10
63.9504780856609
 20
24.34941495687684
 30
0.0
 11
66.75047808566091
 21
27.14941495687691
 31
0.0
  0
LINE
  5
1BE0
330
1B01
100
AcDbEntity
  8
0
 62
     0
100
AcDbLine
 10
53.62540363862234
 20
14.02434050983828
 30
0.0
 11
55.91407422064515
 21
16.31301109186114
 31
0.0
  0
LINE
  5
1BE1
330
1B01
100
AcDbEntity
  8
0
 62
     0
100
AcDbLine
 10
59.05047808566099
 20
20.34744056898387
 30
0.0
 11
61.85047808566094
 21
23.14744056898388
 31
0.0
  0
LINE
  5
1BE2
330
1B01
100
AcDbEntity
  8
0
 62
     0
100
AcDbLine
 10
63.95047808566085
 20
25.24744056898379
 30
0.0
 11
66.75047808566091
 21
28.04744056898386
 31
0.0
  0
LINE
  5
1BE3
330
1B01
100
AcDbEntity
  8
0
 62
     0
100
AcDbLine
 10
53.21543946339722
 20
14.5124019467201
 30
0.0
 11
55.57683594223573
 21
16.87379842555867
 31
0.0
  0
LINE
  5
1BE4
330
1B01
100
AcDbEntity
  8
0
 62
     0
100
AcDbLine
 10
59.05047808566092
 20
21.24546618109082
 30
0.0
 11
61.850478085661
 21
24.04546618109089
 31
0.0
  0
LINE
  5
1BE5
330
1B01
100
AcDbEntity
  8
0
 62
     0
100
AcDbLine
 10
63.95047808566085
 20
26.14546618109069
 30
0.0
 11
66.74032893211045
 21
28.93531702754035
 31
0.0
  0
LINE
  5
1BE6
330
1B01
100
AcDbEntity
  8
0
 62
     0
100
AcDbLine
 10
52.91551458496321
 20
15.1105026803931
 30
0.0
 11
55.55047808566093
 21
17.74546618109076
 31
0.0
  0
LINE
  5
1BE7
330
1B01
100
AcDbEntity
  8
0
 62
     0
100
AcDbLine
 10
59.05047808566099
 20
22.14349179319766
 30
0.0
 11
61.85047808566105
 21
24.94349179319772
 31
0.0
  0
LINE
  5
1BE8
330
1B01
100
AcDbEntity
  8
0
 62
     0
100
AcDbLine
 10
63.95047808566085
 20
27.04349179319758
 30
0.0
 11
66.26321458703097
 21
29.3562282945677
 31
0.0
  0
LINE
  5
1BE9
330
1B01
100
AcDbEntity
  8
0
 62
     0
100
AcDbLine
 10
52.75810105000676
 20
15.85111475754348
 30
0.0
 11
55.55047808566093
 21
18.64349179319765
 31
0.0
  0
LINE
  5
1BEA
330
1B01
100
AcDbEntity
  8
0
 62
     0
100
AcDbLine
 10
59.05047808566092
 20
23.04151740530461
 30
0.0
 11
61.850478085661
 21
25.84151740530467
 31
0.0
  0
LINE
  5
1BEB
330
1B01
100
AcDbEntity
  8
0
 62
     0
100
AcDbLine
 10
63.9504780856609
 20
27.94151740530458
 30
0.0
 11
65.3665469631789
 21
29.35758628282258
 31
0.0
  0
LINE
  5
1BEC
330
1B01
100
AcDbEntity
  8
0
 62
     0
100
AcDbLine
 10
52.75047808566097
 20
16.74151740530459
 30
0.0
 11
55.55047808566098
 21
19.54151740530466
 31
0.0
  0
LINE
  5
1BED
330
1B01
100
AcDbEntity
  8
0
 62
     0
100
AcDbLine
 10
59.05047808566092
 20
23.93954301741155
 30
0.0
 11
61.850478085661
 21
26.73954301741157
 31
0.0
  0
LINE
  5
1BEE
330
1B01
100
AcDbEntity
  8
0
 62
     0
100
AcDbLine
 10
52.75047808566092
 20
17.63954301741154
 30
0.0
 11
55.55047808566098
 21
20.43954301741161
 31
0.0
  0
LINE
  5
1BEF
330
1B01
100
AcDbEntity
  8
0
 62
     0
100
AcDbLine
 10
63.95052480040835
 20
28.83958973215897
 30
0.0
 11
64.46847463632463
 21
29.3575395680752
 31
0.0
  0
LINE
  5
1BF0
330
1B01
100
AcDbEntity
  8
0
 62
     0
100
AcDbLine
 10
48.42892245494891
 20
13.31798738669948
 30
0.0
 11
50.59007698178408
 21
15.4791419135347
 31
0.0
  0
LINE
  5
1BF1
330
1B01
100
AcDbEntity
  8
0
 62
     0
100
AcDbLine
 10
52.75047808566092
 20
18.53756862951843
 30
0.0
 11
55.55047808566098
 21
21.3375686295185
 31
0.0
  0
LINE
  5
1BF2
330
1B01
100
AcDbEntity
  8
0
 62
     0
100
AcDbLine
 10
59.05047808566092
 20
24.83756862951845
 30
0.0
 11
61.85047808566094
 21
27.63756862951851
 31
0.0
  0
LINE
  5
1BF3
330
1B01
100
AcDbEntity
  8
0
 62
     0
100
AcDbLine
 10
47.47049573896504
 20
13.25758628282261
 30
0.0
 11
50.65047808566089
 21
16.43756862951846
 31
0.0
  0
LINE
  5
1BF4
330
1B01
100
AcDbEntity
  8
0
 62
     0
100
AcDbLine
 10
52.75047808566092
 20
19.43559424162532
 30
0.0
 11
55.55047808566098
 21
22.23559424162539
 31
0.0
  0
LINE
  5
1BF5
330
1B01
100
AcDbEntity
  8
0
 62
     0
100
AcDbLine
 10
59.05047808566092
 20
25.73559424162534
 30
0.0
 11
61.850478085661
 21
28.5355942416254
 31
0.0
  0
LINE
  5
1BF6
330
1B01
100
AcDbEntity
  8
0
 62
     0
100
AcDbLine
 10
46.57247012685814
 20
13.25758628282256
 30
0.0
 11
50.65047808566095
 21
17.3355942416253
 31
0.0
  0
LINE
  5
1BF7
330
1B01
100
AcDbEntity
  8
0
 62
     0
100
AcDbLine
 10
52.75047808566092
 20
20.33361985373227
 30
0.0
 11
55.55047808566098
 21
23.13361985373228
 31
0.0
  0
LINE
  5
1BF8
330
1B01
100
AcDbEntity
  8
0
 62
     0
100
AcDbLine
 10
59.05047808566092
 20
26.63361985373223
 30
0.0
 11
61.65674063082684
 21
29.23988239889821
 31
0.0
  0
LINE
  5
1BF9
330
1B01
100
AcDbEntity
  8
0
 62
     0
100
AcDbLine
 10
45.67444451475125
 20
13.25758628282261
 30
0.0
 11
50.63615948524807
 21
18.21930125331937
 31
0.0
  0
LINE
  5
1BFA
330
1B01
100
AcDbEntity
  8
0
 62
     0
100
AcDbLine
 10
52.75047808566092
 20
21.23164546583916
 30
0.0
 11
55.55047808566093
 21
24.03164546583923
 31
0.0
  0
LINE
  5
1BFB
330
1B01
100
AcDbEntity
  8
0
 62
     0
100
AcDbLine
 10
59.05047808566087
 20
27.53164546583918
 30
0.0
 11
60.87641890264433
 21
29.35758628282264
 31
0.0
  0
LINE
  5
1BFC
330
1B01
100
AcDbEntity
  8
0
 62
     0
100
AcDbLine
 10
44.77641890264431
 20
13.25758628282261
 30
0.0
 11
50.50124711461927
 21
18.98241449479758
 31
0.0
  0
LINE
  5
1BFD
330
1B01
100
AcDbEntity
  8
0
 62
     0
100
AcDbLine
 10
52.75047808566092
 20
22.12967107794606
 30
0.0
 11
55.55047808566098
 21
24.92967107794612
 31
0.0
  0
LINE
  5
1BFE
330
1B01
100
AcDbEntity
  8
0
 62
     0
100
AcDbLine
 10
47.85047808566105
 20
17.22967107794613
 30
0.0
 11
50.26065965770072
 21
19.63985264998587
 31
0.0
  0
LINE
  5
1BFF
330
1B01
100
AcDbEntity
  8
0
 62
     0
100
AcDbLine
 10
59.05047808566092
 20
28.42967107794607
 30
0.0
 11
59.9783932905375
 21
29.35758628282264
 31
0.0
  0
LINE
  5
1C00
330
1B01
100
AcDbEntity
  8
0
 62
     0
100
AcDbLine
 10
44.00664864366854
 20
13.38584163595368
 30
0.0
 11
46.67839329053743
 21
16.05758628282257
 31
0.0
  0
LINE
  5
1C01
330
1B01
100
AcDbEntity
  8
0
 62
     0
100
AcDbLine
 10
47.83060751053364
 20
18.10782611492567
 30
0.0
 11
49.93716035284013
 21
20.21437895723216
 31
0.0
  0
LINE
  5
1C02
330
1B01
100
AcDbEntity
  8
0
 62
     0
100
AcDbLine
 10
52.75047808566092
 20
23.02769669005295
 30
0.0
 11
55.55047808566093
 21
25.82769669005302
 31
0.0
  0
LINE
  5
1C03
330
1B01
100
AcDbEntity
  8
0
 62
     0
100
AcDbLine
 10
43.82547808566096
 20
14.10269669005299
 30
0.0
 11
45.78036767843047
 21
16.05758628282257
 31
0.0
  0
LINE
  5
1C04
330
1B01
100
AcDbEntity
  8
0
 62
     0
100
AcDbLine
 10
47.55622267339475
 20
18.73146688989379
 30
0.0
 11
49.54128923491231
 21
20.71653345141135
 31
0.0
  0
LINE
  5
1C05
330
1B01
100
AcDbEntity
  8
0
 62
     0
100
AcDbLine
 10
52.75047808566085
 20
23.9257223021599
 30
0.0
 11
55.55047808566093
 21
26.72572230215997
 31
0.0
  0
LINE
  5
1C06
330
1B01
100
AcDbEntity
  8
0
 62
     0
100
AcDbLine
 10
43.8254780856609
 20
15.00072230215994
 30
0.0
 11
44.88234206632358
 21
16.05758628282262
 31
0.0
  0
LINE
  5
1C07
330
1B01
100
AcDbEntity
  8
0
 62
     0
100
AcDbLine
 10
52.75047808566092
 20
24.82374791426679
 30
0.0
 11
55.55047808566098
 21
27.6237479142668
 31
0.0
  0
LINE
  5
1C08
330
1B01
100
AcDbEntity
  8
0
 62
     0
100
AcDbLine
 10
47.11494777627769
 20
19.1882176048835
 30
0.0
 11
49.09484676360006
 21
21.16811659220593
 31
0.0
  0
LINE
  5
1C09
330
1B01
100
AcDbEntity
  8
0
 62
     0
100
AcDbLine
 10
46.66593497022421
 20
19.63723041093698
 30
0.0
 11
48.64583395754658
 21
21.61712939825941
 31
0.0
  0
LINE
  5
1C0A
330
1B01
100
AcDbEntity
  8
0
 62
     0
100
AcDbLine
 10
52.75047808566085
 20
25.72177352637368
 30
0.0
 11
55.55047808566093
 21
28.52177352637375
 31
0.0
  0
LINE
  5
1C0B
330
1B01
100
AcDbEntity
  8
0
 62
     0
100
AcDbLine
 10
40.28629084210973
 20
13.25758628282256
 30
0.0
 11
41.2004780856609
 21
14.17177352637367
 31
0.0
  0
LINE
  5
1C0C
330
1B01
100
AcDbEntity
  8
0
 62
     0
100
AcDbLine
 10
46.21692216417073
 20
20.08624321699045
 30
0.0
 11
48.19682115149311
 21
22.06614220431288
 31
0.0
  0
LINE
  5
1C0D
330
1B01
100
AcDbEntity
  8
0
 62
     0
100
AcDbLine
 10
52.75047808566085
 20
26.61979913848063
 30
0.0
 11
55.36429717756226
 21
29.23361823038198
 31
0.0
  0
LINE
  5
1C0E
330
1B01
100
AcDbEntity
  8
0
 62
     0
100
AcDbLine
 10
39.38826523000279
 20
13.25758628282256
 30
0.0
 11
41.20047808566096
 21
15.06979913848067
 31
0.0
  0
LINE
  5
1C0F
330
1B01
100
AcDbEntity
  8
0
 62
     0
100
AcDbLine
 10
45.76790935811726
 20
20.53525602304393
 30
0.0
 11
47.74780834543963
 21
22.51515501036636
 31
0.0
  0
LINE
  5
1C10
330
1B01
100
AcDbEntity
  8
0
 62
     0
100
AcDbLine
 10
52.75047808566085
 20
27.51782475058752
 30
0.0
 11
54.59023961789597
 21
29.3575862828227
 31
0.0
  0
LINE
  5
1C11
330
1B01
100
AcDbEntity
  8
0
 62
     0
100
AcDbLine
 10
38.60185075575788
 20
13.36919742068454
 30
0.0
 11
41.2004780856609
 21
15.96782475058762
 31
0.0
  0
LINE
  5
1C12
330
1B01
100
AcDbEntity
  8
0
 62
     0
100
AcDbLine
 10
45.31889655206384
 20
20.98426882909735
 30
0.0
 11
47.29879553938622
 21
22.96416781641978
 31
0.0
  0
LINE
  5
1C13
330
1B01
100
AcDbEntity
  8
0
 62
     0
100
AcDbLine
 10
52.75047808566085
 20
28.41585036269441
 30
0.0
 11
53.69221400578914
 21
29.35758628282264
 31
0.0
  0
LINE
  5
1C14
330
1B01
100
AcDbEntity
  8
0
 62
     0
100
AcDbLine
 10
38.40047808566095
 20
14.0658503626945
 30
0.0
 11
41.20047808566096
 21
16.86585036269446
 31
0.0
  0
LINE
  5
1C15
330
1B01
100
AcDbEntity
  8
0
 62
     0
100
AcDbLine
 10
44.86988374601037
 20
21.43328163515082
 30
0.0
 11
46.84978273333274
 21
23.41318062247325
 31
0.0
  0
LINE
  5
1C16
330
1B01
100
AcDbEntity
  8
0
 62
     0
100
AcDbLine
 10
38.40047808566095
 20
14.96387597480145
 30
0.0
 11
41.2004780856609
 21
17.76387597480141
 31
0.0
  0
LINE
  5
1C17
330
1B01
100
AcDbEntity
  8
0
 62
     0
100
AcDbLine
 10
44.42289984496904
 20
21.88432334621649
 30
0.0
 11
46.40687337835106
 21
23.86829687959846
 31
0.0
  0
LINE
  5
1C18
330
1B01
100
AcDbEntity
  8
0
 62
     0
100
AcDbLine
 10
38.40047808566095
 20
15.86190158690834
 30
0.0
 11
41.2004780856609
 21
18.66190158690836
 31
0.0
  0
LINE
  5
1C19
330
1B01
100
AcDbEntity
  8
0
 62
     0
100
AcDbLine
 10
49.09616278157511
 20
26.55758628282257
 30
0.0
 11
50.12547808566097
 21
27.58690158690837
 31
0.0
  0
LINE
  5
1C1A
330
1B01
100
AcDbEntity
  8
0
 62
     0
100
AcDbLine
 10
35.90782186095072
 20
13.36924536219811
 30
0.0
 11
35.99747422240574
 21
13.45889772365319
 31
0.0
  0
LINE
  5
1C1B
330
1B01
100
AcDbEntity
  8
0
 62
     0
100
AcDbLine
 10
44.02489766614706
 20
22.38434677950136
 30
0.0
 11
46.12453194356567
 21
24.48398105691996
 31
0.0
  0
LINE
  5
1C1C
330
1B01
100
AcDbEntity
  8
0
 62
     0
100
AcDbLine
 10
38.40047808566095
 20
16.75992719901524
 30
0.0
 11
41.20047808566096
 21
19.55992719901519
 31
0.0
  0
LINE
  5
1C1D
330
1B01
100
AcDbEntity
  8
0
 62
     0
100
AcDbLine
 10
48.19813716946834
 20
26.55758628282263
 30
0.0
 11
50.12547808566097
 21
28.48492719901526
 31
0.0
  0
LINE
  5
1C1E
330
1B01
100
AcDbEntity
  8
0
 62
     0
100
AcDbLine
 10
34.89813716946827
 20
13.25758628282256
 30
0.0
 11
35.9639162657748
 21
14.32336537912908
 31
0.0
  0
LINE
  5
1C1F
330
1B01
100
AcDbEntity
  8
0
 62
     0
100
AcDbLine
 10
43.69906340175037
 20
22.95653812721162
 30
0.0
 11
46.10047808566105
 21
25.35795281112229
 31
0.0
  0
LINE
  5
1C20
330
1B01
100
AcDbEntity
  8
0
 62
     0
100
AcDbLine
 10
38.40047808566095
 20
17.65795281112213
 30
0.0
 11
41.2004780856609
 21
20.45795281112214
 31
0.0
  0
LINE
  5
1C21
330
1B01
100
AcDbEntity
  8
0
 62
     0
100
AcDbLine
 10
47.30011155736133
 20
26.55758628282257
 30
0.0
 11
49.95880915386305
 21
29.21628387932429
 31
0.0
  0
LINE
  5
1C22
330
1B01
100
AcDbEntity
  8
0
 62
     0
100
AcDbLine
 10
34.00011155736127
 20
13.2575862828225
 30
0.0
 11
35.74839011886911
 21
15.00586484433035
 31
0.0
  0
LINE
  5
1C23
330
1B01
100
AcDbEntity
  8
0
 62
     0
100
AcDbLine
 10
38.40047808566089
 20
18.55597842322907
 30
0.0
 11
41.2004780856609
 21
21.35597842322903
 31
0.0
  0
LINE
  5
1C24
330
1B01
100
AcDbEntity
  8
0
 62
     0
100
AcDbLine
 10
43.45568133908028
 20
23.61118167664847
 30
0.0
 11
49.20208594525445
 21
29.35758628282264
 31
0.0
  0
LINE
  5
1C25
330
1B01
100
AcDbEntity
  8
0
 62
     0
100
AcDbLine
 10
33.40809724670629
 20
13.56359758427447
 30
0.0
 11
35.53286397196342
 21
15.68836430953161
 31
0.0
  0
LINE
  5
1C26
330
1B01
100
AcDbEntity
  8
0
 62
     0
100
AcDbLine
 10
38.40047808566089
 20
19.45400403533603
 30
0.0
 11
41.20047808566084
 21
22.25400403533598
 31
0.0
  0
LINE
  5
1C27
330
1B01
100
AcDbEntity
  8
0
 62
     0
100
AcDbLine
 10
43.31697447999459
 20
24.37050042966973
 30
0.0
 11
48.30406033314756
 21
29.35758628282264
 31
0.0
  0
LINE
  5
1C28
330
1B01
100
AcDbEntity
  8
0
 62
     0
100
AcDbLine
 10
33.18933782505769
 20
14.24286377473282
 30
0.0
 11
35.31733782505773
 21
16.37086377473287
 31
0.0
  0
LINE
  5
1C29
330
1B01
100
AcDbEntity
  8
0
 62
     0
100
AcDbLine
 10
38.40047808566095
 20
20.35202964744286
 30
0.0
 11
41.2004780856609
 21
23.15202964744287
 31
0.0
  0
LINE
  5
1C2A
330
1B01
100
AcDbEntity
  8
0
 62
     0
100
AcDbLine
 10
43.30047808566092
 20
25.25202964744284
 30
0.0
 11
47.40603472104067
 21
29.35758628282264
 31
0.0
  0
LINE
  5
1C2B
330
1B01
100
AcDbEntity
  8
0
 62
     0
100
AcDbLine
 10
32.97381167815206
 20
14.92536323993403
 30
0.0
 11
35.10181167815216
 21
17.05336323993407
 31
0.0
  0
LINE
  5
1C2C
330
1B01
100
AcDbEntity
  8
0
 62
     0
100
AcDbLine
 10
38.40047808566089
 20
21.25005525954981
 30
0.0
 11
41.2004780856609
 21
24.05005525954976
 31
0.0
  0
LINE
  5
1C2D
330
1B01
100
AcDbEntity
  8
0
 62
     0
100
AcDbLine
 10
43.30047808566098
 20
26.15005525954984
 30
0.0
 11
46.50800910893377
 21
29.35758628282264
 31
0.0
  0
LINE
  5
1C2E
330
1B01
100
AcDbEntity
  8
0
 62
     0
100
AcDbLine
 10
32.75828553124632
 20
15.60786270513523
 30
0.0
 11
34.88628553124653
 21
17.73586270513544
 31
0.0
  0
LINE
  5
1C2F
330
1B01
100
AcDbEntity
  8
0
 62
     0
100
AcDbLine
 10
38.40047808566089
 20
22.1480808716567
 30
0.0
 11
41.20047808566096
 21
24.94808087165677
 31
0.0
  0
LINE
  5
1C30
330
1B01
100
AcDbEntity
  8
0
 62
     0
100
AcDbLine
 10
32.54275938434068
 20
16.29036217033655
 30
0.0
 11
34.67075938434078
 21
18.41836217033659
 31
0.0
  0
LINE
  5
1C31
330
1B01
100
AcDbEntity
  8
0
 62
     0
100
AcDbLine
 10
43.35379475578213
 20
27.101397541778
 30
0.0
 11
45.55666682670545
 21
29.30426961270132
 31
0.0
  0
LINE
  5
1C32
330
1B01
100
AcDbEntity
  8
0
 62
     0
100
AcDbLine
 10
29.50998349682669
 20
13.25758628282256
 30
0.0
 11
30.35047808566088
 21
14.09808087165675
 31
0.0
  0
LINE
  5
1C33
330
1B01
100
AcDbEntity
  8
0
 62
     0
100
AcDbLine
 10
32.32723323743511
 20
16.97286163553775
 30
0.0
 11
34.45523323743515
 21
19.10086163553785
 31
0.0
  0
LINE
  5
1C34
330
1B01
100
AcDbEntity
  8
0
 62
     0
100
AcDbLine
 10
38.40047808566089
 20
23.04610648376359
 30
0.0
 11
41.20047808566096
 21
25.84610648376366
 31
0.0
  0
LINE
  5
1C35
330
1B01
100
AcDbEntity
  8
0
 62
     0
100
AcDbLine
 10
28.61195788471986
 20
13.2575862828225
 30
0.0
 11
30.35047808566094
 21
14.99610648376364
 31
0.0
  0
LINE
  5
1C36
330
1B01
100
AcDbEntity
  8
0
 62
     0
100
AcDbLine
 10
32.11170709052942
 20
17.65536110073901
 30
0.0
 11
34.23970709052947
 21
19.78336110073911
 31
0.0
  0
LINE
  5
1C37
330
1B01
100
AcDbEntity
  8
0
 62
     0
100
AcDbLine
 10
38.40047808566089
 20
23.94413209587054
 30
0.0
 11
41.20047808566096
 21
26.74413209587056
 31
0.0
  0
LINE
  5
1C38
330
1B01
100
AcDbEntity
  8
0
 62
     0
100
AcDbLine
 10
27.7950820202642
 20
13.33873603047385
 30
0.0
 11
30.35047808566094
 21
15.89413209587053
 31
0.0
  0
LINE
  5
1C39
330
1B01
100
AcDbEntity
  8
0
 62
     0
100
AcDbLine
 10
31.89618094362373
 20
18.33786056594027
 30
0.0
 11
34.02418094362378
 21
20.46586056594037
 31
0.0
  0
LINE
  5
1C3A
330
1B01
100
AcDbEntity
  8
0
 62
     0
100
AcDbLine
 10
38.40047808566089
 20
24.84215770797744
 30
0.0
 11
41.2004780856609
 21
27.64215770797751
 31
0.0
  0
LINE
  5
1C3B
330
1B01
100
AcDbEntity
  8
0
 62
     0
100
AcDbLine
 10
27.55047808566093
 20
13.99215770797747
 30
0.0
 11
30.350478085661
 21
16.79215770797753
 31
0.0
  0
LINE
  5
1C3C
330
1B01
100
AcDbEntity
  8
0
 62
     0
100
AcDbLine
 10
31.6806547967181
 20
19.02036003114148
 30
0.0
 11
33.80865479671826
 21
21.14836003114163
 31
0.0
  0
LINE
  5
1C3D
330
1B01
100
AcDbEntity
  8
0
 62
     0
100
AcDbLine
 10
38.40047808566089
 20
25.74018332008433
 30
0.0
 11
41.20047808566096
 21
28.5401833200844
 31
0.0
  0
LINE
  5
1C3E
330
1B01
100
AcDbEntity
  8
0
 62
     0
100
AcDbLine
 10
27.55047808566093
 20
14.89018332008436
 30
0.0
 11
30.350478085661
 21
17.69018332008443
 31
0.0
  0
LINE
  5
1C3F
330
1B01
100
AcDbEntity
  8
0
 62
     0
100
AcDbLine
 10
31.44585600974636
 20
19.68358685627675
 30
0.0
 11
34.07615007767737
 21
22.3138809242077
 31
0.0
  0
LINE
  5
1C40
330
1B01
100
AcDbEntity
  8
0
 62
     0
100
AcDbLine
 10
38.40047808566095
 20
26.63820893219134
 30
0.0
 11
41.00420266316251
 21
29.24193350969284
 31
0.0
  0
LINE
  5
1C41
330
1B01
100
AcDbEntity
  8
0
 62
     0
100
AcDbLine
 10
27.55047808566093
 20
15.78820893219131
 30
0.0
 11
30.350478085661
 21
18.58820893219132
 31
0.0
  0
LINE
  5
1C42
330
1B01
100
AcDbEntity
  8
0
 62
     0
100
AcDbLine
 10
30.75867063987897
 20
19.8944270985163
 30
0.0
 11
34.49062343711125
 21
23.62637989574858
 31
0.0
  0
LINE
  5
1C43
330
1B01
100
AcDbEntity
  8
0
 62
     0
100
AcDbLine
 10
27.55047808566093
 20
16.6862345442982
 30
0.0
 11
30.36363726996723
 21
19.4993937286045
 31
0.0
  0
LINE
  5
1C44
330
1B01
100
AcDbEntity
  8
0
 62
     0
100
AcDbLine
 10
38.40047808566095
 20
27.53623454429823
 30
0.0
 11
40.2218298241853
 21
29.35758628282264
 31
0.0
  0
LINE
  5
1C45
330
1B01
100
AcDbEntity
  8
0
 62
     0
100
AcDbLine
 10
24.12182982418528
 20
13.25758628282256
 30
0.0
 11
25.10047808566094
 21
14.23623454429827
 31
0.0
  0
LINE
  5
1C46
330
1B01
100
AcDbEntity
  8
0
 62
     0
100
AcDbLine
 10
27.55047808566087
 20
17.58426015640515
 30
0.0
 11
34.9050967965452
 21
24.93887886728948
 31
0.0
  0
LINE
  5
1C47
330
1B01
100
AcDbEntity
  8
0
 62
     0
100
AcDbLine
 10
38.40047808566089
 20
28.43426015640517
 30
0.0
 11
39.3238042120783
 21
29.35758628282258
 31
0.0
  0
LINE
  5
1C48
330
1B01
100
AcDbEntity
  8
0
 62
     0
100
AcDbLine
 10
23.22380421207833
 20
13.25758628282261
 30
0.0
 11
25.10047808566099
 21
15.13426015640527
 31
0.0
  0
LINE
  5
1C49
330
1B01
100
AcDbEntity
  8
0
 62
     0
100
AcDbLine
 10
27.55047808566093
 20
18.48228576851198
 30
0.0
 11
35.31957015597931
 21
26.25137783883042
 31
0.0
  0
LINE
  5
1C4A
330
1B01
100
AcDbEntity
  8
0
 62
     0
100
AcDbLine
 10
22.33745922432155
 20
13.26926690717266
 30
0.0
 11
24.95914380205477
 21
15.89095148490583
 31
0.0
  0
LINE
  5
1C4B
330
1B01
100
AcDbEntity
  8
0
 62
     0
100
AcDbLine
 10
27.55047808566087
 20
19.38031138061893
 30
0.0
 11
30.87775298786454
 21
22.7075862828226
 31
0.0
  0
LINE
  5
1C4C
330
1B01
100
AcDbEntity
  8
0
 62
     0
100
AcDbLine
 10
31.64173582310542
 20
23.47156911806349
 30
0.0
 11
35.73404351541325
 21
27.56387681037131
 31
0.0
  0
LINE
  5
1C4D
330
1B01
100
AcDbEntity
  8
0
 62
     0
100
AcDbLine
 10
21.56929870687458
 20
13.39913200183258
 30
0.0
 11
24.22775298786451
 21
16.05758628282257
 31
0.0
  0
LINE
  5
1C4E
330
1B01
100
AcDbEntity
  8
0
 62
     0
100
AcDbLine
 10
27.55047808566087
 20
20.27833699272588
 30
0.0
 11
30.3684686563692
 21
23.09632756343416
 31
0.0
  0
LINE
  5
1C4F
330
1B01
100
AcDbEntity
  8
0
 62
     0
100
AcDbLine
 10
32.05620918253937
 20
24.78406808960432
 30
0.0
 11
36.10911496721457
 21
28.83697387427958
 31
0.0
  0
LINE
  5
1C50
330
1B01
100
AcDbEntity
  8
0
 62
     0
100
AcDbLine
 10
20.90816445004816
 20
13.63602335711317
 30
0.0
 11
23.32972737575762
 21
16.05758628282257
 31
0.0
  0
LINE
  5
1C51
330
1B01
100
AcDbEntity
  8
0
 62
     0
100
AcDbLine
 10
27.55047808566093
 20
21.17636260483272
 30
0.0
 11
30.35047808566094
 21
23.97636260483279
 31
0.0
  0
LINE
  5
1C52
330
1B01
100
AcDbEntity
  8
0
 62
     0
100
AcDbLine
 10
32.4706825419733
 20
26.09656706114515
 30
0.0
 11
35.71510309464537
 21
29.34098761381722
 31
0.0
  0
LINE
  5
1C53
330
1B01
100
AcDbEntity
  8
0
 62
     0
100
AcDbLine
 10
20.33056116588387
 20
13.95644568505565
 30
0.0
 11
22.44662302437672
 21
16.07250754354857
 31
0.0
  0
LINE
  5
1C54
330
1B01
100
AcDbEntity
  8
0
 62
     0
100
AcDbLine
 10
27.55047808566087
 20
22.07438821693967
 30
0.0
 11
30.35047808566094
 21
24.87438821693974
 31
0.0
  0
LINE
  5
1C55
330
1B01
100
AcDbEntity
  8
0
 62
     0
100
AcDbLine
 10
32.88515590140725
 20
27.40906603268598
 30
0.0
 11
34.83367615154378
 21
29.35758628282258
 31
0.0
  0
LINE
  5
1C56
330
1B01
100
AcDbEntity
  8
0
 62
     0
100
AcDbLine
 10
19.8256061995018
 20
14.34951633078054
 30
0.0
 11
21.81230688335842
 21
16.33621701463716
 31
0.0
  0
LINE
  5
1C57
330
1B01
100
AcDbEntity
  8
0
 62
     0
100
AcDbLine
 10
27.55047808566087
 20
22.97241382904656
 30
0.0
 11
30.35047808566094
 21
25.77241382904663
 31
0.0
  0
LINE
  5
1C58
330
1B01
100
AcDbEntity
  8
0
 62
     0
100
AcDbLine
 10
24.21211221743738
 20
19.63404796082312
 30
0.0
 11
25.37401640766046
 21
20.79595215104621
 31
0.0
  0
LINE
  5
1C59
330
1B01
100
AcDbEntity
  8
0
 62
     0
100
AcDbLine
 10
33.29962926084113
 20
28.72156500422688
 30
0.0
 11
33.93565053943684
 21
29.35758628282258
 31
0.0
  0
LINE
  5
1C5A
330
1B01
100
AcDbEntity
  8
0
 62
     0
100
AcDbLine
 10
19.38916912617196
 20
14.81110486955771
 30
0.0
 11
21.40205593208623
 21
16.82399167547197
 31
0.0
  0
LINE
  5
1C5B
330
1B01
100
AcDbEntity
  8
0
 62
     0
100
AcDbLine
 10
23.28713937580756
 20
19.60710073130025
 30
0.0
 11
25.40096363718334
 21
21.72092499267598
 31
0.0
  0
LINE
  5
1C5C
330
1B01
100
AcDbEntity
  8
0
 62
     0
100
AcDbLine
 10
27.55047808566093
 20
23.87043944115356
 30
0.0
 11
30.350478085661
 21
26.67043944115363
 31
0.0
  0
LINE
  5
1C5D
330
1B01
100
AcDbEntity
  8
0
 62
     0
100
AcDbLine
 10
19.022149901229
 20
15.34211125672164
 30
0.0
 11
21.25047808566092
 21
17.57043944115361
 31
0.0
  0
LINE
  5
1C5E
330
1B01
100
AcDbEntity
  8
0
 62
     0
100
AcDbLine
 10
22.67299280638736
 20
19.89097977398683
 30
0.0
 11
25.1170845944967
 21
22.33507156209623
 31
0.0
  0
LINE
  5
1C5F
330
1B01
100
AcDbEntity
  8
0
 62
     0
100
AcDbLine
 10
27.55047808566093
 20
24.76846505326046
 30
0.0
 11
30.350478085661
 21
27.56846505326052
 31
0.0
  0
LINE
  5
1C60
330
1B01
100
AcDbEntity
  8
0
 62
     0
100
AcDbLine
 10
18.73083239130426
 20
15.94881935890379
 30
0.0
 11
21.25047808566092
 21
18.46846505326044
 31
0.0
  0
LINE
  5
1C61
330
1B01
100
AcDbEntity
  8
0
 62
     0
100
AcDbLine
 10
22.23503287939764
 20
20.35104545910412
 30
0.0
 11
24.65701890937948
 21
22.7730314890859
 31
0.0
  0
LINE
  5
1C62
330
1B01
100
AcDbEntity
  8
0
 62
     0
100
AcDbLine
 10
27.55047808566093
 20
25.6664906653674
 30
0.0
 11
30.350478085661
 21
28.46649066536742
 31
0.0
  0
LINE
  5
1C63
330
1B01
100
AcDbEntity
  8
0
 62
     0
100
AcDbLine
 10
18.5296950271296
 20
16.64570760683608
 30
0.0
 11
21.25047808566092
 21
19.36649066536739
 31
0.0
  0
LINE
  5
1C64
330
1B01
100
AcDbEntity
  8
0
 62
     0
100
AcDbLine
 10
21.97898214698927
 20
20.99302033880264
 30
0.0
 11
24.0150440296809
 21
23.02908222149432
 31
0.0
  0
LINE
  5
1C65
330
1B01
100
AcDbEntity
  8
0
 62
     0
100
AcDbLine
 10
18.45047808566085
 20
17.46451627747427
 30
0.0
 11
21.25047808566092
 21
20.26451627747428
 31
0.0
  0
LINE
  5
1C66
330
1B01
100
AcDbEntity
  8
0
 62
     0
100
AcDbLine
 10
27.55047808566093
 20
26.5645162774743
 30
0.0
 11
30.19322797730581
 21
29.20726616911924
 31
0.0
  0
LINE
  5
1C67
330
1B01
100
AcDbEntity
  8
0
 62
     0
100
AcDbLine
 10
14.36448132778525
 20
13.37851951959868
 30
0.0
 11
16.22954484888498
 21
15.24358304069841
 31
0.0
  0
LINE
  5
1C68
330
1B01
100
AcDbEntity
  8
0
 62
     0
100
AcDbLine
 10
22.09739523047006
 20
22.00945903439032
 30
0.0
 11
22.99860533409327
 21
22.91066913801353
 31
0.0
  0
LINE
  5
1C69
330
1B01
100
AcDbEntity
  8
0
 62
     0
100
AcDbLine
 10
18.45047808566085
 20
18.36254188958111
 30
0.0
 11
21.25047808566092
 21
21.16254188958118
 31
0.0
  0
LINE
  5
1C6A
330
1B01
100
AcDbEntity
  8
0
 62
     0
100
AcDbLine
 10
27.55047808566093
 20
27.46254188958119
 30
0.0
 11
29.44552247890232
 21
29.35758628282258
 31
0.0
  0
LINE
  5
1C6B
330
1B01
100
AcDbEntity
  8
0
 62
     0
100
AcDbLine
 10
13.34552247890229
 20
13.25758628282256
 30
0.0
 11
16.35047808566105
 21
16.26254188958126
 31
0.0
  0
LINE
  5
1C6C
330
1B01
100
AcDbEntity
  8
0
 62
     0
100
AcDbLine
 10
18.45047808566085
 20
19.26056750168806
 30
0.0
 11
21.25047808566092
 21
22.06056750168813
 31
0.0
  0
LINE
  5
1C6D
330
1B01
100
AcDbEntity
  8
0
 62
     0
100
AcDbLine
 10
27.55047808566093
 20
28.36056750168808
 30
0.0
 11
28.54749686679543
 21
29.35758628282264
 31
0.0
  0
LINE
  5
1C6E
330
1B01
100
AcDbEntity
  8
0
 62
     0
100
AcDbLine
 10
12.44749686679529
 20
13.2575862828225
 30
0.0
 11
16.35047808566099
 21
17.1605675016882
 31
0.0
  0
LINE
  5
1C6F
330
1B01
100
AcDbEntity
  8
0
 62
     0
100
AcDbLine
 10
18.45047808566085
 20
20.15859311379495
 30
0.0
 11
21.25047808566086
 21
22.95859311379502
 31
0.0
  0
LINE
  5
1C70
330
1B01
100
AcDbEntity
  8
0
 62
     0
100
AcDbLine
 10
11.54947125468845
 20
13.25758628282261
 30
0.0
 11
16.34653873309975
 21
18.05465376123391
 31
0.0
  0
LINE
  5
1C71
330
1B01
100
AcDbEntity
  8
0
 62
     0
100
AcDbLine
 10
18.45047808566085
 20
21.0566187259019
 30
0.0
 11
21.25047808566092
 21
23.85661872590197
 31
0.0
  0
LINE
  5
1C72
330
1B01
100
AcDbEntity
  8
0
 62
     0
100
AcDbLine
 10
23.95144564258163
 20
26.55758628282268
 30
0.0
 11
25.10047808566105
 21
27.7066187259021
 31
0.0
  0
LINE
  5
1C73
330
1B01
100
AcDbEntity
  8
0
 62
     0
100
AcDbLine
 10
10.6514456425815
 20
13.25758628282256
 30
0.0
 11
16.23687689677842
 21
18.84301753701947
 31
0.0
  0
LINE
  5
1C74
330
1B01
100
AcDbEntity
  8
0
 62
     0
100
AcDbLine
 10
18.45047808566085
 20
21.95464433800879
 30
0.0
 11
21.25047808566092
 21
24.7546443380088
 31
0.0
  0
LINE
  5
1C75
330
1B01
100
AcDbEntity
  8
0
 62
     0
100
AcDbLine
 10
13.55047808566093
 20
17.05464433800887
 30
0.0
 11
16.0145381527343
 21
19.51870440508225
 31
0.0
  0
LINE
  5
1C76
330
1B01
100
AcDbEntity
  8
0
 62
     0
100
AcDbLine
 10
23.05342003047463
 20
26.55758628282257
 30
0.0
 11
25.10047808566105
 21
28.60464433800894
 31
0.0
  0
LINE
  5
1C77
330
1B01
100
AcDbEntity
  8
0
 62
     0
100
AcDbLine
 10
9.811145905734576
 20
13.31531215808252
 30
0.0
 11
12.55342003047462
 21
16.05758628282257
 31
0.0
  0
LINE
  5
1C78
330
1B01
100
AcDbEntity
  8
0
 62
     0
100
AcDbLine
 10
18.45047808566079
 20
22.85266995011568
 30
0.0
 11
21.41629279144058
 21
25.81848465589548
 31
0.0
  0
LINE
  5
1C79
330
1B01
100
AcDbEntity
  8
0
 62
     0
100
AcDbLine
 10
13.54831899405167
 20
17.9505108585065
 30
0.0
 11
15.70610661806228
 21
20.10829848251717
 31
0.0
  0
LINE
  5
1C7A
330
1B01
100
AcDbEntity
  8
0
 62
     0
100
AcDbLine
 10
21.98957971258812
 20
26.39177157704302
 30
0.0
 11
24.86701067074114
 21
29.26920253519597
 31
0.0
  0
LINE
  5
1C7B
330
1B01
100
AcDbEntity
  8
0
 62
     0
100
AcDbLine
 10
9.52547808566095
 20
13.92766995011578
 30
0.0
 11
11.65539441836773
 21
16.05758628282257
 31
0.0
  0
LINE
  5
1C7C
330
1B01
100
AcDbEntity
  8
0
 62
     0
100
AcDbLine
 10
13.32871597455096
 20
18.6289334511128
 30
0.0
 11
15.32386465322338
 21
20.62408212978522
 31
0.0
  0
LINE
  5
1C7D
330
1B01
100
AcDbEntity
  8
0
 62
     0
100
AcDbLine
 10
18.45047808566079
 20
23.75069556222263
 30
0.0
 11
24.05736880626085
 21
29.3575862828227
 31
0.0
  0
LINE
  5
1C7E
330
1B01
100
AcDbEntity
  8
0
 62
     0
100
AcDbLine
 10
9.525478085660893
 20
14.82569556222273
 30
0.0
 11
10.75736880626078
 21
16.05758628282262
 31
0.0
  0
LINE
  5
1C7F
330
1B01
100
AcDbEntity
  8
0
 62
     0
100
AcDbLine
 10
12.90246114624625
 20
19.10070423491493
 30
0.0
 11
14.88236013356862
 21
21.0806032222373
 31
0.0
  0
LINE
  5
1C80
330
1B01
100
AcDbEntity
  8
0
 62
     0
100
AcDbLine
 10
18.45047808566085
 20
24.64872117432947
 30
0.0
 11
23.15934319415379
 21
29.35758628282247
 31
0.0
  0
LINE
  5
1C81
330
1B01
100
AcDbEntity
  8
0
 62
     0
100
AcDbLine
 10
9.594430007680671
 20
15.79267309634935
 30
0.0
 11
9.790391272134286
 21
15.98863436080296
 31
0.0
  0
LINE
  5
1C82
330
1B01
100
AcDbEntity
  8
0
 62
     0
100
AcDbLine
 10
18.47045319981743
 20
25.566721900593
 30
0.0
 11
22.24134246789043
 21
29.33761116866606
 31
0.0
  0
LINE
  5
1C83
330
1B01
100
AcDbEntity
  8
0
 62
     0
100
AcDbLine
 10
12.45344834019278
 20
19.5497170409684
 30
0.0
 11
14.43334732751515
 21
21.52961602829078
 31
0.0
  0
LINE
  5
1C84
330
1B01
100
AcDbEntity
  8
0
 62
     0
100
AcDbLine
 10
18.76991663208321
 20
26.76421094496578
 30
0.0
 11
21.0438534235177
 21
29.03814773640028
 31
0.0
  0
LINE
  5
1C85
330
1B01
100
AcDbEntity
  8
0
 62
     0
100
AcDbLine
 10
12.0044355341393
 20
19.99872984702188
 30
0.0
 11
13.98433452146167
 21
21.97862883434425
 31
0.0
  0
LINE
  5
1C86
330
1B01
100
AcDbEntity
  8
0
 62
     0
100
AcDbLine
 10
11.55542272808588
 20
20.4477426530753
 30
0.0
 11
13.5353217154082
 21
22.42764164039755
 31
0.0
  0
LINE
  5
1C87
330
1B01
100
AcDbEntity
  8
0
 62
     0
100
AcDbLine
 10
11.10640992203241
 20
20.89675545912877
 30
0.0
 11
13.08630890935473
 21
22.87665444645103
 31
0.0
  0
LINE
  5
1C88
330
1B01
100
AcDbEntity
  8
0
 62
     0
100
AcDbLine
 10
10.65739711597894
 20
21.34576826518225
 30
0.0
 11
12.63729610330125
 21
23.3256672525045
 31
0.0
  0
LINE
  5
1C89
330
1B01
100
AcDbEntity
  8
0
 62
     0
100
AcDbLine
 10
14.97118952151237
 20
26.55758628282257
 30
0.0
 11
15.82547808566085
 21
27.4118748469711
 31
0.0
  0
LINE
  5
1C8A
330
1B01
100
AcDbEntity
  8
0
 62
     0
100
AcDbLine
 10
10.20846762395359
 20
21.79486438526385
 30
0.0
 11
12.18853326738605
 21
23.77493002869631
 31
0.0
  0
LINE
  5
1C8B
330
1B01
100
AcDbEntity
  8
0
 62
     0
100
AcDbLine
 10
14.07316390940548
 20
26.55758628282257
 30
0.0
 11
15.8254780856609
 21
28.309900459078
 31
0.0
  0
LINE
  5
1C8C
330
1B01
100
AcDbEntity
  8
0
 62
     0
100
AcDbLine
 10
9.796999699402022
 20
22.28142207281905
 30
0.0
 11
11.85863638609811
 21
24.3430587595152
 31
0.0
  0
LINE
  5
1C8D
330
1B01
100
AcDbEntity
  8
0
 62
     0
100
AcDbLine
 10
13.17513829729853
 20
26.55758628282257
 30
0.0
 11
15.73891918589976
 21
29.1213671714238
 31
0.0
  0
LINE
  5
1C8E
330
1B01
100
AcDbEntity
  8
0
 62
     0
100
AcDbLine
 10
9.456539093139554
 20
22.83898707866354
 30
0.0
 11
11.80047808566098
 21
25.18292607118497
 31
0.0
  0
LINE
  5
1C8F
330
1B01
100
AcDbEntity
  8
0
 62
     0
100
AcDbLine
 10
12.27464603602152
 20
26.55511963365245
 30
0.0
 11
15.07711268519171
 21
29.35758628282264
 31
0.0
  0
LINE
  5
1C90
330
1B01
100
AcDbEntity
  8
0
 62
     0
100
AcDbLine
 10
9.195845797407457
 20
23.47631939503839
 30
0.0
 11
11.80294473483104
 21
26.08341833246203
 31
0.0
  0
LINE
  5
1C91
330
1B01
100
AcDbEntity
  8
0
 62
     0
100
AcDbLine
 10
9.034033835159391
 20
24.21253304489721
 30
0.0
 11
14.17908707308481
 21
29.35758628282264
 31
0.0
  0
LINE
  5
1C92
330
1B01
100
AcDbEntity
  8
0
 62
     0
100
AcDbLine
 10
9.000478085660972
 20
25.07700290750574
 30
0.0
 11
13.28106146097781
 21
29.35758628282258
 31
0.0
  0
LINE
  5
1C93
330
1B01
100
AcDbEntity
  8
0
 62
     0
100
AcDbLine
 10
9.000478085660972
 20
25.97502851961264
 30
0.0
 11
12.38303584887086
 21
29.35758628282258
 31
0.0
  0
LINE
  5
1C94
330
1B01
100
AcDbEntity
  8
0
 62
     0
100
AcDbLine
 10
9.020670096099195
 20
26.89324614215781
 30
0.0
 11
11.4648182263258
 21
29.33739427238442
 31
0.0
  0
ENDBLK
  5
1C96
330
1B01
100
AcDbEntity
  8
0
100
AcDbBlockEnd
  0
BLOCK
  5
2853
330
2849
100
AcDbEntity
  8
0
100
AcDbBlockBegin
  2
*D2
 70
     1
 10
0.0
 20
0.0
 30
0.0
  3
*D2
  1

  0
LINE
  5
2D97
330
2849
100
AcDbEntity
  8
SUNPOU
  6
Continuous
100
AcDbLine
 10
236.4181670261705
 20
151.5379403913725
 30
0.0
 11
236.4181670261705
 21
46.75317345539929
 31
0.0
  0
LINE
  5
2D98
330
2849
100
AcDbEntity
  8
SUNPOU
  6
Continuous
100
AcDbLine
 10
96.85006702617057
 20
151.5380403913726
 30
0.0
 11
96.85006702617057
 21
46.75317345539929
 31
0.0
  0
LINE
  5
2D99
330
2849
100
AcDbEntity
  8
SUNPOU
  6
Continuous
100
AcDbLine
 10
233.4181670261705
 20
48.25317345539929
 30
0.0
 11
99.85006702617056
 21
48.25317345539929
 31
0.0
  0
INSERT
  5
2D9A
330
2849
100
AcDbEntity
  8
SUNPOU
  6
Continuous
100
AcDbBlockReference
  2
_OPEN
 10
236.4181670261705
 20
48.25317345539929
 30
0.0
 41
3.0
 42
3.0
 43
3.0
  0
INSERT
  5
2D9B
330
2849
100
AcDbEntity
  8
SUNPOU
  6
Continuous
100
AcDbBlockReference
  2
_OPEN
 10
96.85006702617057
 20
48.25317345539929
 30
0.0
 41
3.0
 42
3.0
 43
3.0
 50
180.0
  0
MTEXT
  5
2D9C
330
2849
100
AcDbEntity
  8
SUNPOU
  6
Continuous
100
AcDbMText
 10
166.6341170261705
 20
51.25317345539929
 30
0.0
 40
4.0
 41
0.0
 71
     5
 72
     5
  1
\A1;\U+03C6140
 73
     1
 44
1.0
1001
ACAD
1000
MTEXTBEGIN
1070
    73
1070
     1
1070
    44
1040
1.0
1070
    74
1070
     0
1000
MTEXTEND
  0
POINT
  5
2D9D
330
2849
100
AcDbEntity
  8
DEFPOINTS
  6
Continuous
 62
     0
100
AcDbPoint
 10
236.4181670261705
 20
154.5379403913725
 30
0.0
  0
POINT
  5
2D9E
330
2849
100
AcDbEntity
  8
DEFPOINTS
  6
Continuous
 62
     0
100
AcDbPoint
 10
96.85006702617057
 20
154.5380403913726
 30
0.0
  0
POINT
  5
2D9F
330
2849
100
AcDbEntity
  8
DEFPOINTS
  6
Continuous
 62
     0
100
AcDbPoint
 10
96.85006702617057
 20
48.25317345539929
 30
0.0
  0
ENDBLK
  5
2854
330
2849
100
AcDbEntity
  8
0
100
AcDbBlockEnd
  0
BLOCK
  5
285F
330
2855
100
AcDbEntity
  8
0
100
AcDbBlockBegin
  2
*D3
 70
     1
 10
0.0
 20
0.0
 30
0.0
  3
*D3
  1

  0
LINE
  5
2D8E
330
2855
100
AcDbEntity
  8
SUNPOU
  6
Continuous
100
AcDbLine
 10
223.6127670261705
 20
77.98054039137259
 30
0.0
 11
223.6127670261705
 21
61.60879103018962
 31
0.0
  0
LINE
  5
2D8F
330
2855
100
AcDbEntity
  8
SUNPOU
  6
Continuous
100
AcDbLine
 10
109.6552670261706
 20
77.98064039137258
 30
0.0
 11
109.6552670261706
 21
61.60879103018962
 31
0.0
  0
LINE
  5
2D90
330
2855
100
AcDbEntity
  8
SUNPOU
  6
Continuous
100
AcDbLine
 10
220.6127670261706
 20
63.10879103018962
 30
0.0
 11
112.6552670261705
 21
63.10879103018962
 31
0.0
  0
INSERT
  5
2D91
330
2855
100
AcDbEntity
  8
SUNPOU
  6
Continuous
100
AcDbBlockReference
  2
_OPEN
 10
223.6127670261705
 20
63.10879103018962
 30
0.0
 41
3.0
 42
3.0
 43
3.0
  0
INSERT
  5
2D92
330
2855
100
AcDbEntity
  8
SUNPOU
  6
Continuous
100
AcDbBlockReference
  2
_OPEN
 10
109.6552670261706
 20
63.10879103018962
 30
0.0
 41
3.0
 42
3.0
 43
3.0
 50
180.0
  0
MTEXT
  5
2D93
330
2855
100
AcDbEntity
  8
SUNPOU
  6
Continuous
100
AcDbMText
 10
166.6340170261705
 20
66.10879103018962
 30
0.0
 40
4.0
 41
0.0
 71
     5
 72
     5
  1
\A1;\U+03C6114
 73
     1
 44
1.0
1001
ACAD
1000
MTEXTBEGIN
1070
    73
1070
     1
1070
    44
1040
1.0
1070
    74
1070
     0
1000
MTEXTEND
  0
POINT
  5
2D94
330
2855
100
AcDbEntity
  8
DEFPOINTS
  6
Continuous
 62
     0
100
AcDbPoint
 10
223.6127670261705
 20
80.98054039137258
 30
0.0
  0
POINT
  5
2D95
330
2855
100
AcDbEntity
  8
DEFPOINTS
  6
Continuous
 62
     0
100
AcDbPoint
 10
109.6552670261706
 20
80.98064039137259
 30
0.0
  0
POINT
  5
2D96
330
2855
100
AcDbEntity
  8
DEFPOINTS
  6
Continuous
 62
     0
100
AcDbPoint
 10
109.6552670261706
 20
63.10879103018962
 30
0.0
  0
ENDBLK
  5
2860
330
2855
100
AcDbEntity
  8
0
100
AcDbBlockEnd
  0
BLOCK
  5
286B
330
2861
100
AcDbEntity
  8
0
100
AcDbBlockBegin
  2
*D4
 70
     1
 10
0.0
 20
0.0
 30
0.0
  3
*D4
  1

  0
LINE
  5
2DBB
330
2861
100
AcDbEntity
  8
SUNPOU
  6
Continuous
100
AcDbLine
 10
240.6076670261705
 20
214.1763403913726
 30
0.0
 11
240.6076670261705
 21
246.3261926400475
 31
0.0
  0
LINE
  5
2DBC
330
2861
100
AcDbEntity
  8
SUNPOU
  6
Continuous
100
AcDbLine
 10
92.66076702617056
 20
214.1766403913726
 30
0.0
 11
92.66076702617056
 21
246.3261926400475
 31
0.0
  0
LINE
  5
2DBD
330
2861
100
AcDbEntity
  8
SUNPOU
  6
Continuous
100
AcDbLine
 10
237.6076670261705
 20
244.8261926400475
 30
0.0
 11
95.66076702617056
 21
244.8261926400475
 31
0.0
  0
INSERT
  5
2DBE
330
2861
100
AcDbEntity
  8
SUNPOU
  6
Continuous
100
AcDbBlockReference
  2
_OPEN
 10
240.6076670261705
 20
244.8261926400475
 30
0.0
 41
3.0
 42
3.0
 43
3.0
  0
INSERT
  5
2DBF
330
2861
100
AcDbEntity
  8
SUNPOU
  6
Continuous
100
AcDbBlockReference
  2
_OPEN
 10
92.66076702617056
 20
244.8261926400475
 30
0.0
 41
3.0
 42
3.0
 43
3.0
 50
180.0
  0
MTEXT
  5
2DC0
330
2861
100
AcDbEntity
  8
SUNPOU
  6
Continuous
100
AcDbMText
 10
166.6342170261705
 20
247.8261926400474
 30
0.0
 40
4.0
 41
0.0
 71
     5
 72
     5
  1
\A1;\U+03C6148
 73
     1
 44
1.0
1001
ACAD
1000
MTEXTBEGIN
1070
    73
1070
     1
1070
    44
1040
1.0
1070
    74
1070
     0
1000
MTEXTEND
  0
POINT
  5
2DC1
330
2861
100
AcDbEntity
  8
DEFPOINTS
  6
Continuous
 62
     0
100
AcDbPoint
 10
240.6076670261705
 20
211.1763403913726
 30
0.0
  0
POINT
  5
2DC2
330
2861
100
AcDbEntity
  8
DEFPOINTS
  6
Continuous
 62
     0
100
AcDbPoint
 10
92.66076702617056
 20
211.1766403913726
 30
0.0
  0
POINT
  5
2DC3
330
2861
100
AcDbEntity
  8
DEFPOINTS
  6
Continuous
 62
     0
100
AcDbPoint
 10
92.66076702617056
 20
244.8261926400475
 30
0.0
  0
ENDBLK
  5
286C
330
2861
100
AcDbEntity
  8
0
100
AcDbBlockEnd
  0
BLOCK
  5
2877
330
286D
100
AcDbEntity
  8
0
100
AcDbBlockBegin
  2
*D5
 70
     1
 10
0.0
 20
0.0
 30
0.0
  3
*D5
  1

  0
LINE
  5
2DB2
330
286D
100
AcDbEntity
  8
SUNPOU
  6
Continuous
100
AcDbLine
 10
224.2581670261706
 20
217.6574403913726
 30
0.0
 11
224.2581670261706
 21
232.1975904986532
 31
0.0
  0
LINE
  5
2DB3
330
286D
100
AcDbEntity
  8
SUNPOU
  6
Continuous
100
AcDbLine
 10
109.0103670261705
 20
217.6576673707349
 30
0.0
 11
109.0103670261705
 21
232.1975904986532
 31
0.0
  0
LINE
  5
2DB4
330
286D
100
AcDbEntity
  8
SUNPOU
  6
Continuous
100
AcDbLine
 10
221.2581670261705
 20
230.6975904986532
 30
0.0
 11
112.0103670261705
 21
230.6975904986532
 31
0.0
  0
INSERT
  5
2DB5
330
286D
100
AcDbEntity
  8
SUNPOU
  6
Continuous
100
AcDbBlockReference
  2
_OPEN
 10
224.2581670261706
 20
230.6975904986532
 30
0.0
 41
3.0
 42
3.0
 43
3.0
  0
INSERT
  5
2DB6
330
286D
100
AcDbEntity
  8
SUNPOU
  6
Continuous
100
AcDbBlockReference
  2
_OPEN
 10
109.0103670261705
 20
230.6975904986532
 30
0.0
 41
3.0
 42
3.0
 43
3.0
 50
180.0
  0
MTEXT
  5
2DB7
330
286D
100
AcDbEntity
  8
SUNPOU
  6
Continuous
100
AcDbMText
 10
166.6342670261705
 20
233.6975904986532
 30
0.0
 40
4.0
 41
0.0
 71
     5
 72
     5
  1
\A1;\U+03C6115.2
 73
     1
 44
1.0
1001
ACAD
1000
MTEXTBEGIN
1070
    73
1070
     1
1070
    44
1040
1.0
1070
    74
1070
     0
1000
MTEXTEND
  0
POINT
  5
2DB8
330
286D
100
AcDbEntity
  8
DEFPOINTS
  6
Continuous
 62
     0
100
AcDbPoint
 10
224.2581670261706
 20
214.6574403913726
 30
0.0
  0
POINT
  5
2DB9
330
286D
100
AcDbEntity
  8
DEFPOINTS
  6
Continuous
 62
     0
100
AcDbPoint
 10
109.0103670261705
 20
214.6576673707349
 30
0.0
  0
POINT
  5
2DBA
330
286D
100
AcDbEntity
  8
DEFPOINTS
  6
Continuous
 62
     0
100
AcDbPoint
 10
109.0103670261705
 20
230.6975904986532
 30
0.0
  0
ENDBLK
  5
2878
330
286D
100
AcDbEntity
  8
0
100
AcDbBlockEnd
  0
BLOCK
  5
2883
330
2879
100
AcDbEntity
  8
0
100
AcDbBlockBegin
  2
*D6
 70
     1
 10
0.0
 20
0.0
 30
0.0
  3
*D6
  1

  0
LINE
  5
2DA9
330
2879
100
AcDbEntity
  8
SUNPOU
  6
Continuous
100
AcDbLine
 10
93.14186702617053
 20
214.6577403913726
 30
0.0
 11
60.71102821495221
 21
214.6577403913727
 31
0.0
  0
LINE
  5
2DAA
330
2879
100
AcDbEntity
  8
SUNPOU
  6
Continuous
100
AcDbLine
 10
106.0101670261706
 20
138.4138403913725
 30
0.0
 11
60.7110282149522
 21
138.4138403913726
 31
0.0
  0
LINE
  5
2DAB
330
2879
100
AcDbEntity
  8
SUNPOU
  6
Continuous
100
AcDbLine
 10
62.21102821495222
 20
211.6577403913726
 30
0.0
 11
62.21102821495219
 21
141.4138403913726
 31
0.0
  0
INSERT
  5
2DAC
330
2879
100
AcDbEntity
  8
SUNPOU
  6
Continuous
100
AcDbBlockReference
  2
_OPEN
 10
62.21102821495222
 20
214.6577403913727
 30
0.0
 41
3.0
 42
3.0
 43
3.0
 50
90.0
  0
INSERT
  5
2DAD
330
2879
100
AcDbEntity
  8
SUNPOU
  6
Continuous
100
AcDbBlockReference
  2
_OPEN
 10
62.21102821495219
 20
138.4138403913726
 30
0.0
 41
3.0
 42
3.0
 43
3.0
 50
270.0
  0
MTEXT
  5
2DAE
330
2879
100
AcDbEntity
  8
SUNPOU
  6
Continuous
100
AcDbMText
 10
59.21102821495217
 20
176.5357903913726
 30
0.0
 40
4.0
 41
0.0
 71
     5
 72
     5
  1
\A1;76
 11
0.0000000000000001
 21
1.0
 31
0.0
 73
     1
 44
1.0
1001
ACAD
1000
MTEXTBEGIN
1070
    73
1070
     1
1070
    44
1040
1.0
1070
    74
1070
     0
1000
MTEXTEND
  0
POINT
  5
2DAF
330
2879
100
AcDbEntity
  8
DEFPOINTS
  6
Continuous
 62
     0
100
AcDbPoint
 10
96.14186702617054
 20
214.6577403913726
 30
0.0
  0
POINT
  5
2DB0
330
2879
100
AcDbEntity
  8
DEFPOINTS
  6
Continuous
 62
     0
100
AcDbPoint
 10
109.0101670261706
 20
138.4138403913725
 30
0.0
  0
POINT
  5
2DB1
330
2879
100
AcDbEntity
  8
DEFPOINTS
  6
Continuous
 62
     0
100
AcDbPoint
 10
62.21102821495219
 20
138.4138403913726
 30
0.0
  0
ENDBLK
  5
2884
330
2879
100
AcDbEntity
  8
0
100
AcDbBlockEnd
  0
BLOCK
  5
288F
330
2885
100
AcDbEntity
  8
0
100
AcDbBlockBegin
  2
*D7
 70
     1
 10
0.0
 20
0.0
 30
0.0
  3
*D7
  1

  0
LINE
  5
2DA0
330
2885
100
AcDbEntity
  8
SUNPOU
  6
Continuous
100
AcDbLine
 10
106.0099670261705
 20
189.0627403913726
 30
0.0
 11
74.15780712828816
 21
189.0627403913726
 31
0.0
  0
LINE
  5
2DA1
330
2885
100
AcDbEntity
  8
SUNPOU
  6
Continuous
100
AcDbLine
 10
106.0101670261706
 20
138.4138403913725
 30
0.0
 11
74.15780712828814
 21
138.4138403913725
 31
0.0
  0
LINE
  5
2DA2
330
2885
100
AcDbEntity
  8
SUNPOU
  6
Continuous
100
AcDbLine
 10
75.65780712828815
 20
186.0627403913726
 30
0.0
 11
75.65780712828814
 21
141.4138403913725
 31
0.0
  0
INSERT
  5
2DA3
330
2885
100
AcDbEntity
  8
SUNPOU
  6
Continuous
100
AcDbBlockReference
  2
_OPEN
 10
75.65780712828815
 20
189.0627403913726
 30
0.0
 41
3.0
 42
3.0
 43
3.0
 50
90.0
  0
INSERT
  5
2DA4
330
2885
100
AcDbEntity
  8
SUNPOU
  6
Continuous
100
AcDbBlockReference
  2
_OPEN
 10
75.65780712828814
 20
138.4138403913725
 30
0.0
 41
3.0
 42
3.0
 43
3.0
 50
270.0
  0
MTEXT
  5
2DA5
330
2885
100
AcDbEntity
  8
SUNPOU
  6
Continuous
100
AcDbMText
 10
72.65780712828813
 20
163.7382903913726
 30
0.0
 40
4.0
 41
0.0
 71
     5
 72
     5
  1
\A1;51
 11
0.0000000000000001
 21
1.0
 31
0.0
 73
     1
 44
1.0
1001
ACAD
1000
MTEXTBEGIN
1070
    73
1070
     1
1070
    44
1040
1.0
1070
    74
1070
     0
1000
MTEXTEND
  0
POINT
  5
2DA6
330
2885
100
AcDbEntity
  8
DEFPOINTS
  6
Continuous
 62
     0
100
AcDbPoint
 10
109.0099670261705
 20
189.0627403913726
 30
0.0
  0
POINT
  5
2DA7
330
2885
100
AcDbEntity
  8
DEFPOINTS
  6
Continuous
 62
     0
100
AcDbPoint
 10
109.0101670261706
 20
138.4138403913725
 30
0.0
  0
POINT
  5
2DA8
330
2885
100
AcDbEntity
  8
DEFPOINTS
  6
Continuous
 62
     0
100
AcDbPoint
 10
75.65780712828814
 20
138.4138403913725
 30
0.0
  0
ENDBLK
  5
2890
330
2885
100
AcDbEntity
  8
0
100
AcDbBlockEnd
  0
BLOCK
  5
289B
330
2891
100
AcDbEntity
  8
0
100
AcDbBlockBegin
  2
*D8
 70
     1
 10
0.0
 20
0.0
 30
0.0
  3
*D8
  1

  0
LINE
  5
2DCD
330
2891
100
AcDbEntity
  8
SUNPOU
  6
Continuous
100
AcDbLine
 10
240.1265670261705
 20
214.6574403913726
 30
0.0
 11
272.976522962234
 21
214.6574403913726
 31
0.0
  0
LINE
  5
2DCE
330
2891
100
AcDbEntity
  8
SUNPOU
  6
Continuous
100
AcDbLine
 10
226.6127670261706
 20
80.98054039137258
 30
0.0
 11
272.976522962234
 21
80.98054039137258
 31
0.0
  0
LINE
  5
2DCF
330
2891
100
AcDbEntity
  8
SUNPOU
  6
Continuous
100
AcDbLine
 10
271.476522962234
 20
211.6574403913726
 30
0.0
 11
271.476522962234
 21
83.98054039137257
 31
0.0
  0
INSERT
  5
2DD0
330
2891
100
AcDbEntity
  8
SUNPOU
  6
Continuous
100
AcDbBlockReference
  2
_OPEN
 10
271.476522962234
 20
214.6574403913726
 30
0.0
 41
3.0
 42
3.0
 43
3.0
 50
90.0
  0
INSERT
  5
2DD1
330
2891
100
AcDbEntity
  8
SUNPOU
  6
Continuous
100
AcDbBlockReference
  2
_OPEN
 10
271.476522962234
 20
80.98054039137258
 30
0.0
 41
3.0
 42
3.0
 43
3.0
 50
270.0
  0
MTEXT
  5
2DD2
330
2891
100
AcDbEntity
  8
SUNPOU
  6
Continuous
100
AcDbMText
 10
268.4765229622339
 20
147.8189903913726
 30
0.0
 40
4.0
 41
0.0
 71
     5
 72
     5
  1
\A1;134
 11
0.0000000000000001
 21
1.0
 31
0.0
 73
     1
 44
1.0
1001
ACAD
1000
MTEXTBEGIN
1070
    73
1070
     1
1070
    44
1040
1.0
1070
    74
1070
     0
1000
MTEXTEND
  0
POINT
  5
2DD3
330
2891
100
AcDbEntity
  8
DEFPOINTS
  6
Continuous
 62
     0
100
AcDbPoint
 10
237.1265670261705
 20
214.6574403913726
 30
0.0
  0
POINT
  5
2DD4
330
2891
100
AcDbEntity
  8
DEFPOINTS
  6
Continuous
 62
     0
100
AcDbPoint
 10
223.6127670261705
 20
80.98054039137258
 30
0.0
  0
POINT
  5
2DD5
330
2891
100
AcDbEntity
  8
DEFPOINTS
  6
Continuous
 62
     0
100
AcDbPoint
 10
271.476522962234
 20
80.98054039137258
 30
0.0
  0
ENDBLK
  5
289C
330
2891
100
AcDbEntity
  8
0
100
AcDbBlockEnd
  0
BLOCK
  5
28A7
330
289D
100
AcDbEntity
  8
0
100
AcDbBlockBegin
  2
*D9
 70
     1
 10
0.0
 20
0.0
 30
0.0
  3
*D9
  1

  0
LINE
  5
2DC4
330
289D
100
AcDbEntity
  8
SUNPOU
  6
Continuous
100
AcDbLine
 10
226.6127670261706
 20
80.98054039137258
 30
0.0
 11
258.2691086208412
 21
80.98054039137258
 31
0.0
  0
LINE
  5
2DC5
330
289D
100
AcDbEntity
  8
SUNPOU
  6
Continuous
100
AcDbLine
 10
230.5535670261705
 20
131.5049403913726
 30
0.0
 11
258.2691086208413
 21
131.5049403913726
 31
0.0
  0
LINE
  5
2DC6
330
289D
100
AcDbEntity
  8
SUNPOU
  6
Continuous
100
AcDbLine
 10
256.7691086208412
 20
83.98054039137257
 30
0.0
 11
256.7691086208413
 21
128.5049403913726
 31
0.0
  0
INSERT
  5
2DC7
330
289D
100
AcDbEntity
  8
SUNPOU
  6
Continuous
100
AcDbBlockReference
  2
_OPEN
 10
256.7691086208412
 20
80.98054039137258
 30
0.0
 41
3.0
 42
3.0
 43
3.0
 50
270.0
  0
INSERT
  5
2DC8
330
289D
100
AcDbEntity
  8
SUNPOU
  6
Continuous
100
AcDbBlockReference
  2
_OPEN
 10
256.7691086208413
 20
131.5049403913726
 30
0.0
 41
3.0
 42
3.0
 43
3.0
 50
90.0
  0
MTEXT
  5
2DC9
330
289D
100
AcDbEntity
  8
SUNPOU
  6
Continuous
100
AcDbMText
 10
253.7691086208412
 20
106.2427403913726
 30
0.0
 40
4.0
 41
0.0
 71
     5
 72
     5
  1
\A1;51
 11
0.0000000000000001
 21
1.0
 31
0.0
 73
     1
 44
1.0
1001
ACAD
1000
MTEXTBEGIN
1070
    73
1070
     1
1070
    44
1040
1.0
1070
    74
1070
     0
1000
MTEXTEND
  0
POINT
  5
2DCA
330
289D
100
AcDbEntity
  8
DEFPOINTS
  6
Continuous
 62
     0
100
AcDbPoint
 10
223.6127670261705
 20
80.98054039137258
 30
0.0
  0
POINT
  5
2DCB
330
289D
100
AcDbEntity
  8
DEFPOINTS
  6
Continuous
 62
     0
100
AcDbPoint
 10
227.5535670261705
 20
131.5049403913726
 30
0.0
  0
POINT
  5
2DCC
330
289D
100
AcDbEntity
  8
DEFPOINTS
  6
Continuous
 62
     0
100
AcDbPoint
 10
256.7691086208413
 20
131.5049403913726
 30
0.0
  0
ENDBLK
  5
28A8
330
289D
100
AcDbEntity
  8
0
100
AcDbBlockEnd
  0
BLOCK
  5
2FBC
330
2FB2
100
AcDbEntity
  8
0
100
AcDbBlockBegin
  2
*D10
 70
     1
 10
0.0
 20
0.0
 30
0.0
  3
*D10
  1

  0
LINE
  5
32CF
330
2FB2
100
AcDbEntity
  8
SUNPOU
100
AcDbLine
 10
112.0103670261705
 20
214.6576673707349
 30
0.0
 11
131.8985835336725
 21
214.6576673707349
 31
0.0
  0
LINE
  5
32D0
330
2FB2
100
AcDbEntity
  8
SUNPOU
100
AcDbLine
 10
112.0101892264335
 20
149.6576403916158
 30
0.0
 11
131.8985835336725
 21
149.6576403916158
 31
0.0
  0
LINE
  5
32D1
330
2FB2
100
AcDbEntity
  8
SUNPOU
100
AcDbLine
 10
130.3985835336725
 20
211.6576673707349
 30
0.0
 11
130.3985835336725
 21
152.6576403916158
 31
0.0
  0
MTEXT
  5
32D2
330
2FB2
100
AcDbEntity
  8
SUNPOU
100
AcDbMText
 10
127.3269665014879
 20
172.713677605788
 30
0.0
 40
3.0
 41
0.0
 71
     5
 72
     5
  1
\A1;差し込み長さ65
 11
0.0000000000000001
 21
1.0
 31
0.0
 73
     1
 44
1.0
1001
ACAD
1000
MTEXTBEGIN
1070
    73
1070
     1
1070
    44
1040
1.0
1070
    74
1070
     0
1000
MTEXTEND
  0
INSERT
  5
32D3
330
2FB2
100
AcDbEntity
  8
SUNPOU
100
AcDbBlockReference
  2
_OPEN
 10
130.3985835336725
 20
214.6576673707349
 30
0.0
 41
3.0
 42
3.0
 43
3.0
 50
90.0
  0
INSERT
  5
32D4
330
2FB2
100
AcDbEntity
  8
SUNPOU
100
AcDbBlockReference
  2
_OPEN
 10
130.3985835336725
 20
149.6576403916158
 30
0.0
 41
3.0
 42
3.0
 43
3.0
 50
270.0
  0
POINT
  5
32D5
330
2FB2
100
AcDbEntity
  8
DEFPOINTS
 62
     0
100
AcDbPoint
 10
109.0103670261705
 20
214.6576673707349
 30
0.0
  0
POINT
  5
32D6
330
2FB2
100
AcDbEntity
  8
DEFPOINTS
 62
     0
100
AcDbPoint
 10
109.0101892264335
 20
149.6576403916158
 30
0.0
  0
POINT
  5
32D7
330
2FB2
100
AcDbEntity
  8
DEFPOINTS
 62
     0
100
AcDbPoint
 10
130.3985835336725
 20
149.6576403916158
 30
0.0
  0
ENDBLK
  5
2FBD
330
2FB2
100
AcDbEntity
  8
0
100
AcDbBlockEnd
  0
BLOCK
  5
31BB
330
31AD
100
AcDbEntity
  8
0
100
AcDbBlockBegin
  2
*X11
 70
     1
 10
0.0
 20
0.0
 30
0.0
  3
*X11
  1

  0
LINE
  5
31AE
330
31AD
100
AcDbEntity
  8
0
 62
     0
100
AcDbLine
 10
109.0103670261705
 20
213.2607943675862
 30
0.0
 11
107.6134860966017
 21
214.657675297155
 31
0.0
  0
LINE
  5
31AF
330
31AD
100
AcDbEntity
  8
0
 62
     0
100
AcDbLine
 10
108.5925803152648
 20
209.4359403913726
 30
0.0
 11
103.3708213350304
 21
214.657699371607
 31
0.0
  0
LINE
  5
31B0
330
31AD
100
AcDbEntity
  8
0
 62
     0
100
AcDbLine
 10
104.3499396281455
 20
209.4359403913726
 30
0.0
 11
99.12815657345911
 21
214.6577234460591
 31
0.0
  0
LINE
  5
31B1
330
31AD
100
AcDbEntity
  8
0
 62
     0
100
AcDbLine
 10
100.1072989410263
 20
209.4359403913727
 30
0.0
 11
95.05840217276588
 21
214.4848371596331
 31
0.0
  0
LINE
  5
31B2
330
31AD
100
AcDbEntity
  8
0
 62
     0
100
AcDbLine
 10
96.38815772031589
 20
208.9124409249637
 30
0.0
 11
92.88768608650949
 21
212.4129125587701
 31
0.0
  0
LINE
  5
31B3
330
31AD
100
AcDbEntity
  8
0
 62
     0
100
AcDbLine
 10
96.38815772031586
 20
204.6698002378445
 30
0.0
 11
92.66076702617056
 21
208.3971909319898
 31
0.0
  0
LINE
  5
31B4
330
31AD
100
AcDbEntity
  8
0
 62
     0
100
AcDbLine
 10
96.38815772031591
 20
200.4271595507252
 30
0.0
 11
92.66076702617061
 21
204.1545502448705
 31
0.0
  0
LINE
  5
31B5
330
31AD
100
AcDbEntity
  8
0
 62
     0
100
AcDbLine
 10
96.38815772031589
 20
196.1845188636059
 30
0.0
 11
92.66076702617059
 21
199.9119095577512
 31
0.0
  0
LINE
  5
31B6
330
31AD
100
AcDbEntity
  8
0
 62
     0
100
AcDbLine
 10
98.4427866481746
 20
194.1298899357472
 30
0.0
 11
97.90651140698038
 21
194.6661651769414
 31
0.0
  0
LINE
  5
31B7
330
31AD
100
AcDbEntity
  8
0
 62
     0
100
AcDbLine
 10
98.44278664817458
 20
189.8872492486279
 30
0.0
 11
92.66076702617059
 21
195.6692688706319
 31
0.0
  0
LINE
  5
31B8
330
31AD
100
AcDbEntity
  8
0
 62
     0
100
AcDbLine
 10
98.4427866481746
 20
185.6446085615086
 30
0.0
 11
92.66076702617059
 21
191.4266281835126
 31
0.0
  0
LINE
  5
31B9
330
31AD
100
AcDbEntity
  8
0
 62
     0
100
AcDbLine
 10
98.4427866481746
 20
181.4019678743893
 30
0.0
 11
92.66076702617056
 21
187.1839874963933
 31
0.0
  0
LINE
  5
31BA
330
31AD
100
AcDbEntity
  8
0
 62
     0
100
AcDbLine
 10
95.75557344407201
 20
179.8465403913726
 30
0.0
 11
92.66076702617054
 21
182.9413468092741
 31
0.0
  0
ENDBLK
  5
31BC
330
31AD
100
AcDbEntity
  8
0
100
AcDbBlockEnd
  0
BLOCK
  5
31CA
330
31BD
100
AcDbEntity
  8
0
100
AcDbBlockBegin
  2
*X12
 70
     1
 10
0.0
 20
0.0
 30
0.0
  3
*X12
  1

  0
LINE
  5
31BE
330
31BD
100
AcDbEntity
  8
0
 62
     0
100
AcDbLine
 10
112.1751502769903
 20
192.9054791684088
 30
0.0
 11
112.1751502769903
 21
193.0124630488051
 31
0.0
  0
LINE
  5
31BF
330
31BD
100
AcDbEntity
  8
0
 62
     0
100
AcDbLine
 10
111.1751502769903
 20
193.4340640390692
 30
0.0
 11
111.1751502769903
 21
195.3474972053944
 31
0.0
  0
LINE
  5
31C0
330
31BD
100
AcDbEntity
  8
0
 62
     0
100
AcDbLine
 10
110.1751502769903
 20
194.2030172754398
 30
0.0
 11
110.1751502769903
 21
198.0979773455678
 31
0.0
  0
LINE
  5
31C1
330
31BD
100
AcDbEntity
  8
0
 62
     0
100
AcDbLine
 10
109.1751502769903
 20
195.1019995065833
 30
0.0
 11
109.1751502769903
 21
201.5492177710028
 31
0.0
  0
LINE
  5
31C2
330
31BD
100
AcDbEntity
  8
0
 62
     0
100
AcDbLine
 10
108.1751502769903
 20
196.1625236547715
 30
0.0
 11
108.1751502769903
 21
206.7064609622347
 31
0.0
  0
LINE
  5
31C3
330
31BD
100
AcDbEntity
  8
0
 62
     0
100
AcDbLine
 10
107.1751502769903
 20
197.2077989091298
 30
0.0
 11
107.1751502769903
 21
210.3109403913726
 31
0.0
  0
LINE
  5
31C4
330
31BD
100
AcDbEntity
  8
0
 62
     0
100
AcDbLine
 10
106.1751502769903
 20
195.3906290001824
 30
0.0
 11
106.1751502769903
 21
210.3109403913726
 31
0.0
  0
LINE
  5
31C5
330
31BD
100
AcDbEntity
  8
0
 62
     0
100
AcDbLine
 10
105.1751502769903
 20
193.4400481025117
 30
0.0
 11
105.1751502769903
 21
210.3109403913726
 31
0.0
  0
LINE
  5
31C6
330
31BD
100
AcDbEntity
  8
0
 62
     0
100
AcDbLine
 10
104.1751502769903
 20
192.905528934663
 30
0.0
 11
104.1751502769903
 21
210.3109403913726
 31
0.0
  0
LINE
  5
31C7
330
31BD
100
AcDbEntity
  8
0
 62
     0
100
AcDbLine
 10
103.1751502769903
 20
192.9055351554448
 30
0.0
 11
103.1751502769903
 21
210.3109403913726
 31
0.0
  0
LINE
  5
31C8
330
31BD
100
AcDbEntity
  8
0
 62
     0
100
AcDbLine
 10
102.1751502769903
 20
192.912750743737
 30
0.0
 11
102.1751502769903
 21
210.3028850208154
 31
0.0
  0
LINE
  5
31C9
330
31BD
100
AcDbEntity
  8
0
 62
     0
100
AcDbLine
 10
101.1751502769903
 20
193.3468851315263
 30
0.0
 11
101.1751502769903
 21
209.8643733945162
 31
0.0
  0
ENDBLK
  5
31CB
330
31BD
100
AcDbEntity
  8
0
100
AcDbBlockEnd
  0
BLOCK
  5
31F8
330
31CC
100
AcDbEntity
  8
0
100
AcDbBlockBegin
  2
*X13
 70
     1
 10
0.0
 20
0.0
 30
0.0
  3
*X13
  1

  0
LINE
  5
31CD
330
31CC
100
AcDbEntity
  8
0
 62
     0
100
AcDbLine
 10
116.5814490390488
 20
80.98062823559102
 30
0.0
 11
119.5909918485184
 21
83.99017104506055
 31
0.0
  0
LINE
  5
31CE
330
31CC
100
AcDbEntity
  8
0
 62
     0
100
AcDbLine
 10
112.3388157979543
 20
80.98063568161581
 30
0.0
 11
118.3788038204868
 21
87.02062370414827
 31
0.0
  0
LINE
  5
31CF
330
31CC
100
AcDbEntity
  8
0
 62
     0
100
AcDbLine
 10
109.6552701119871
 20
82.53973068276787
 30
0.0
 11
117.1666157924552
 21
90.05107636323598
 31
0.0
  0
LINE
  5
31D0
330
31CC
100
AcDbEntity
  8
0
 62
     0
100
AcDbLine
 10
109.6552785092151
 20
86.78237976711519
 30
0.0
 11
116.6174727800977
 21
93.74457403799777
 31
0.0
  0
LINE
  5
31D1
330
31CC
100
AcDbEntity
  8
0
 62
     0
100
AcDbLine
 10
109.6552869064432
 20
91.0250288514625
 30
0.0
 11
116.617483299598
 21
97.9872252446173
 31
0.0
  0
LINE
  5
31D2
330
31CC
100
AcDbEntity
  8
0
 62
     0
100
AcDbLine
 10
109.6552953036712
 20
95.26767793580985
 30
0.0
 11
116.6174938190982
 21
102.2298764512368
 31
0.0
  0
LINE
  5
31D3
330
31CC
100
AcDbEntity
  8
0
 62
     0
100
AcDbLine
 10
109.6553037008992
 20
99.51032702015716
 30
0.0
 11
116.6175043385985
 21
106.4725276578563
 31
0.0
  0
LINE
  5
31D4
330
31CC
100
AcDbEntity
  8
0
 62
     0
100
AcDbLine
 10
109.6553120981273
 20
103.7529761045045
 30
0.0
 11
116.6175148580987
 21
110.7151788644759
 31
0.0
  0
LINE
  5
31D5
330
31CC
100
AcDbEntity
  8
0
 62
     0
100
AcDbLine
 10
109.6553204953553
 20
107.9956251888518
 30
0.0
 11
116.6175253775989
 21
114.9578300710954
 31
0.0
  0
LINE
  5
31D6
330
31CC
100
AcDbEntity
  8
0
 62
     0
100
AcDbLine
 10
109.6553288925834
 20
112.2382742731991
 30
0.0
 11
116.6175358970992
 21
119.2004812777149
 31
0.0
  0
LINE
  5
31D7
330
31CC
100
AcDbEntity
  8
0
 62
     0
100
AcDbLine
 10
109.6553372898114
 20
116.4809233575464
 30
0.0
 11
116.6175464165995
 21
123.4431324843345
 31
0.0
  0
LINE
  5
31D8
330
31CC
100
AcDbEntity
  8
0
 62
     0
100
AcDbLine
 10
109.6553456870394
 20
120.7235724418938
 30
0.0
 11
116.6175569360997
 21
127.685783690954
 31
0.0
  0
LINE
  5
31D9
330
31CC
100
AcDbEntity
  8
0
 62
     0
100
AcDbLine
 10
109.6553540842675
 20
124.9662215262411
 30
0.0
 11
116.5252073738883
 21
131.8360748158619
 31
0.0
  0
LINE
  5
31DA
330
31CC
100
AcDbEntity
  8
0
 62
     0
100
AcDbLine
 10
109.6553624814955
 20
129.2088706105884
 30
0.0
 11
114.2627234256782
 21
133.8162315547711
 31
0.0
  0
LINE
  5
31DB
330
31CC
100
AcDbEntity
  8
0
 62
     0
100
AcDbLine
 10
107.7088915751604
 20
131.5050403913726
 30
0.0
 11
112.0002394774681
 21
135.7963882936803
 31
0.0
  0
LINE
  5
31DC
330
31CC
100
AcDbEntity
  8
0
 62
     0
100
AcDbLine
 10
105.7145670261705
 20
133.7533565295019
 30
0.0
 11
109.737755529258
 21
137.7765450325895
 31
0.0
  0
LINE
  5
31DD
330
31CC
100
AcDbEntity
  8
0
 62
     0
100
AcDbLine
 10
105.6319438538965
 20
137.9133740443473
 30
0.0
 11
109.0101727088885
 21
141.2916028993392
 31
0.0
  0
LINE
  5
31DE
330
31CC
100
AcDbEntity
  8
0
 62
     0
100
AcDbLine
 10
103.7626263248688
 20
140.2866972024388
 30
0.0
 11
109.0101810853926
 21
145.5342519629626
 31
0.0
  0
LINE
  5
31DF
330
31CC
100
AcDbEntity
  8
0
 62
     0
100
AcDbLine
 10
99.87382882668331
 20
140.6405403913726
 30
0.0
 11
109.0101894618967
 21
149.776901026586
 31
0.0
  0
LINE
  5
31E0
330
31CC
100
AcDbEntity
  8
0
 62
     0
100
AcDbLine
 10
105.6937875612206
 20
150.7031398130291
 30
0.0
 11
109.0101978384008
 21
154.0195500902093
 31
0.0
  0
LINE
  5
31E1
330
31CC
100
AcDbEntity
  8
0
 62
     0
100
AcDbLine
 10
95.63118813956402
 20
140.6405403913726
 30
0.0
 11
102.6142676045139
 21
147.6236198563225
 31
0.0
  0
LINE
  5
31E2
330
31CC
100
AcDbEntity
  8
0
 62
     0
100
AcDbLine
 10
105.2860474524447
 20
154.5380403913726
 30
0.0
 11
109.0102062149048
 21
158.2621991538327
 31
0.0
  0
LINE
  5
31E3
330
31CC
100
AcDbEntity
  8
0
 62
     0
100
AcDbLine
 10
93.36889547045567
 20
142.6208884093835
 30
0.0
 11
98.35074745244469
 21
147.6027403913725
 31
0.0
  0
LINE
  5
31E4
330
31CC
100
AcDbEntity
  8
0
 62
     0
100
AcDbLine
 10
101.0434067653255
 20
154.5380403913726
 30
0.0
 11
109.0102145914089
 21
162.5048482174561
 31
0.0
  0
LINE
  5
31E5
330
31CC
100
AcDbEntity
  8
0
 62
     0
100
AcDbLine
 10
93.36895640954999
 20
146.8635900355971
 30
0.0
 11
94.10810676532539
 21
147.6027403913725
 31
0.0
  0
LINE
  5
31E6
330
31CC
100
AcDbEntity
  8
0
 62
     0
100
AcDbLine
 10
105.7147868587259
 20
163.4520611718923
 30
0.0
 11
109.010222967913
 21
166.7474972810795
 31
0.0
  0
LINE
  5
31E7
330
31CC
100
AcDbEntity
  8
0
 62
     0
100
AcDbLine
 10
96.85006702617057
 20
154.587341339337
 30
0.0
 11
102.0225660782062
 21
159.7598403913726
 31
0.0
  0
LINE
  5
31E8
330
31CC
100
AcDbEntity
  8
0
 62
     0
100
AcDbLine
 10
103.9422253910869
 20
165.9221403913726
 30
0.0
 11
109.0102313444171
 21
170.9901463447029
 31
0.0
  0
LINE
  5
31E9
330
31CC
100
AcDbEntity
  8
0
 62
     0
100
AcDbLine
 10
96.85006702617057
 20
158.8299820264563
 30
0.0
 11
97.77992539108689
 21
159.7598403913726
 31
0.0
  0
LINE
  5
31EA
330
31CC
100
AcDbEntity
  8
0
 62
     0
100
AcDbLine
 10
105.7148670261705
 20
171.9374227135755
 30
0.0
 11
109.0102397209212
 21
175.2327954083262
 31
0.0
  0
LINE
  5
31EB
330
31CC
100
AcDbEntity
  8
0
 62
     0
100
AcDbLine
 10
99.69958470396765
 20
165.9221403913726
 30
0.0
 11
104.9211847039676
 21
171.1437403913726
 31
0.0
  0
LINE
  5
31EC
330
31CC
100
AcDbEntity
  8
0
 62
     0
100
AcDbLine
 10
105.1458480783744
 20
175.6110444528987
 30
0.0
 11
109.0102480974253
 21
179.4754444719496
 31
0.0
  0
LINE
  5
31ED
330
31CC
100
AcDbEntity
  8
0
 62
     0
100
AcDbLine
 10
96.85016702617055
 20
167.3153634006948
 30
0.0
 11
100.6785440168483
 21
171.1437403913726
 31
0.0
  0
LINE
  5
31EE
330
31CC
100
AcDbEntity
  8
0
 62
     0
100
AcDbLine
 10
103.3681421624962
 20
178.0759792241398
 30
0.0
 11
109.0102564739294
 21
183.7180935355729
 31
0.0
  0
LINE
  5
31EF
330
31CC
100
AcDbEntity
  8
0
 62
     0
100
AcDbLine
 10
100.6292110200772
 20
179.5796887688401
 30
0.0
 11
109.0102648504335
 21
187.9607425991963
 31
0.0
  0
LINE
  5
31F0
330
31CC
100
AcDbEntity
  8
0
 62
     0
100
AcDbLine
 10
96.65342195549044
 20
179.8465403913726
 30
0.0
 11
107.8605209536524
 21
191.0536393895346
 31
0.0
  0
LINE
  5
31F1
330
31CC
100
AcDbEntity
  8
0
 62
     0
100
AcDbLine
 10
96.38815772031591
 20
183.8239168433173
 30
0.0
 11
104.5947672013163
 21
192.0305263243177
 31
0.0
  0
LINE
  5
31F2
330
31CC
100
AcDbEntity
  8
0
 62
     0
100
AcDbLine
 10
96.38815772031589
 20
188.0665575304366
 30
0.0
 11
100.9881983962008
 21
192.6665982063216
 31
0.0
  0
LINE
  5
31F3
330
31CC
100
AcDbEntity
  8
0
 62
     0
100
AcDbLine
 10
96.38815772031591
 20
192.3091982175559
 30
0.0
 11
100.5928670261705
 21
196.5139075234105
 31
0.0
  0
LINE
  5
31F4
330
31CC
100
AcDbEntity
  8
0
 62
     0
100
AcDbLine
 10
96.38815772031591
 20
196.5518389046752
 30
0.0
 11
100.5928670261705
 21
200.7565482105298
 31
0.0
  0
LINE
  5
31F5
330
31CC
100
AcDbEntity
  8
0
 62
     0
100
AcDbLine
 10
96.38815772031591
 20
200.7944795917945
 30
0.0
 11
100.5928670261705
 21
204.9991888976491
 31
0.0
  0
LINE
  5
31F6
330
31CC
100
AcDbEntity
  8
0
 62
     0
100
AcDbLine
 10
96.38815772031589
 20
205.0371202789138
 30
0.0
 11
100.5928670261705
 21
209.2418295847684
 31
0.0
  0
LINE
  5
31F7
330
31CC
100
AcDbEntity
  8
0
 62
     0
100
AcDbLine
 10
96.39456841343974
 20
209.2861716591569
 30
0.0
 11
96.53792645253171
 21
209.4295296982489
 31
0.0
  0
ENDBLK
  5
31F9
330
31CC
100
AcDbEntity
  8
0
100
AcDbBlockEnd
  0
ENDSEC
  0
SECTION
  2
ENTITIES
  0
LWPOLYLINE
  5
5EF
330
1A
100
AcDbEntity
  8
ZUWAKU
100
AcDbPolyline
 90
        4
 70
     1
 43
0.0
 10
5.928893922609404
 20
283.8625000000001
 10
5.928893922609404
 20
8.26250000000002
 10
404.5288939226093
 20
8.262500000000031
 10
404.5288939226096
 20
283.8625000000001
  0
LWPOLYLINE
  5
5F0
330
1A
100
AcDbEntity
  8
ZUWAKU
100
AcDbPolyline
 90
        4
 70
     1
 43
0.0
 10
6.128893922609393
 20
283.6625000000001
 10
6.128893922609393
 20
8.462500000000009
 10
404.3288939226095
 20
8.462500000000032
 10
404.3288939226095
 20
283.6625000000001
  0
LWPOLYLINE
  5
5F1
330
1A
100
AcDbEntity
  8
ZUWAKU
100
AcDbPolyline
 90
        4
 70
     1
 43
0.0
 10
5.828893922609438
 20
283.9625
 10
5.828893922609438
 20
8.162499999999997
 10
404.6288939226094
 20
8.162500000000031
 10
404.6288939226094
 20
283.9625000000001
  0
LWPOLYLINE
  5
5F2
330
1A
100
AcDbEntity
  8
ZUWAKU
100
AcDbPolyline
 90
        4
 70
     1
 43
0.0
 10
6.028893922609427
 20
283.7625
 10
6.028893922609427
 20
8.362500000000043
 10
404.4288939226095
 20
8.362500000000032
 10
404.4288939226095
 20
283.7625
  0
LWPOLYLINE
  5
5F3
330
1A
100
AcDbEntity
  8
ZUWAKU
100
AcDbPolyline
 90
        4
 70
     1
 43
0.0
 10
6.228893922609415
 20
283.5625000000001
 10
6.228893922609415
 20
8.562500000000031
 10
404.2288939226094
 20
8.562500000000031
 10
404.2288939226094
 20
283.5625000000001
  0
LINE
  5
1DF4
330
1A
100
AcDbEntity
  8
ZUWAKU
100
AcDbLine
 10
110.1521945676434
 20
15.76250000000001
 30
0.0
 11
229.5410759081051
 21
15.76250000000001
 31
0.0
  0
LINE
  5
1DF5
330
1A
100
AcDbEntity
  8
ZUWAKU
100
AcDbLine
 10
110.1521945676434
 20
15.96250000000001
 30
0.0
 11
229.5410759081051
 21
15.96250000000001
 31
0.0
  0
LINE
  5
1DF6
330
1A
100
AcDbEntity
  8
ZUWAKU
100
AcDbLine
 10
110.1521945676434
 20
15.86250000000001
 30
0.0
 11
229.5410759081051
 21
15.86250000000001
 31
0.0
  0
LINE
  5
1DF7
330
1A
100
AcDbEntity
  8
ZUWAKU
100
AcDbLine
 10
5.828893922609552
 20
23.5625
 30
0.0
 11
404.5288939226093
 21
23.5625
 31
0.0
  0
LINE
  5
1DF8
330
1A
100
AcDbEntity
  8
ZUWAKU
100
AcDbLine
 10
5.828893922609552
 20
23.4625
 30
0.0
 11
404.5288939226093
 21
23.4625
 31
0.0
  0
LINE
  5
1DF9
330
1A
100
AcDbEntity
  8
ZUWAKU
100
AcDbLine
 10
5.828893922609552
 20
23.3625
 30
0.0
 11
404.5288939226093
 21
23.3625
 31
0.0
  0
LINE
  5
1DFA
330
1A
100
AcDbEntity
  8
ZUWAKU
100
AcDbLine
 10
5.828893922609552
 20
23.26249999999999
 30
0.0
 11
404.5288939226093
 21
23.26249999999999
 31
0.0
  0
LINE
  5
1DFB
330
1A
100
AcDbEntity
  8
ZUWAKU
100
AcDbLine
 10
5.828893922609552
 20
23.1625
 30
0.0
 11
404.5288939226093
 21
23.1625
 31
0.0
  0
LINE
  5
1E03
330
1A
100
AcDbEntity
  8
ZUWAKU
100
AcDbLine
 10
14.62500000000005
 20
18.38749999999999
 30
0.0
 11
13.1375000000001
 21
18.38749999999999
 31
0.0
  0
ARC
  5
1E04
330
1A
100
AcDbEntity
  8
ZUWAKU
100
AcDbCircle
 10
13.75000000000005
 20
13.13749999999999
 30
0.0
 40
1.399999999999999
100
AcDbArc
 50
270.0
 51
0.0
  0
INSERT
  5
1E05
330
1A
100
AcDbEntity
  8
ZUWAKU
  6
Continuous
100
AcDbBlockReference
  2
*X1
 10
6.974760957169621
 20
5.108706858588671
 30
0.0
 41
0.5
 42
0.5
 43
0.5
1001
ACAD
1000
HATCH
1002
{
1070
    19
1000
ANSI37
1040
0.2
1040
0.0
1000
R14_HATCH_DATA
1000
4E4
1011
7.474760957169621
1021
5.108706858588671
1031
0.0
1011
6.974760957169621
1021
5.608706858588671
1031
0.0
1011
6.974760957169621
1021
5.108706858588671
1031
0.5
1040
0.0
1010
0.0
1020
0.0
1030
1.0
1000
ANSI37
1070
     0
1070
     0
1071
        8
1071
        7
1070
     1
1070
     1
1071
       24
1040
12.2105285919996
1040
23.75243476380623
1040
-0.1989123673796348
1040
11.80047808566087
1040
24.74238425746728
1040
0.0
1040
11.80047808566087
1040
26.03258628282266
1040
-0.4142135623730912
1040
12.32547808566085
1040
26.55758628282265
1040
0.0
1040
15.30047808566076
1040
26.55758628282265
1040
0.4142135623731546
1040
15.82547808566085
1040
27.08258628282264
1040
0.0
1040
15.82547808566085
1040
28.83258628282265
1040
0.4142135623731586
1040
15.30047808566076
1040
29.35758628282265
1040
0.0
1040
11.80047808566087
1040
29.35758628282265
1040
0.4142135623730928
1040
9.000478085660915
1040
26.55758628282268
1040
0.0
1040
9.000478085660915
1040
24.74238425746741
1040
0.1989123673796619
1040
10.23062960467735
1040
21.7725357764838
1040
0.0
1040
13.14042757932202
1040
18.86273780183914
1040
-0.1989123673796613
1040
13.55047808566087
1040
17.87278830817795
1040
0.0
1040
13.55047808566087
1040
16.58258628282264
1040
-0.4142135623730911
1040
13.02547808566089
1040
16.05758628282265
1040
0.0
1040
10.05047808566098
1040
16.05758628282265
1040
0.4142135623731526
1040
9.525478085660893
1040
15.53258628282266
1040
0.0
1040
9.525478085660893
1040
13.78258628282264
1040
0.4142135623731526
1040
10.05047808566098
1040
13.25758628282265
1040
0.0
1040
13.55047808566087
1040
13.25758628282265
1040
0.4142135623731044
1040
16.35047808566094
1040
16.05758628282262
1040
0.0
1040
16.35047808566094
1040
17.87278830817789
1040
0.1989123673796604
1040
15.12032656664439
1040
20.84263678916144
1040
0.0
1071
        0
1071
        7
1070
     1
1070
     1
1071
       16
1040
21.25047808566092
1040
25.15758628282266
1040
-0.4142135623730935
1040
22.65047808566089
1040
26.55758628282265
1040
0.0
1040
24.57547808566085
1040
26.55758628282265
1040
0.4142135623731546
1040
25.10047808566094
1040
27.08258628282264
1040
0.0
1040
25.10047808566094
1040
28.83258628282265
1040
0.4142135623730951
1040
24.57547808566096
1040
29.35758628282265
1040
0.0
1040
22.65047808566078
1040
29.35758628282261
1040
0.4142135623730892
1040
18.45047808566085
1040
25.15758628282259
1040
0.0
1040
18.45047808566085
1040
17.45758628282267
1040
0.4142135623730969
1040
22.65047808566089
1040
13.25758628282265
1040
0.0
1040
24.57547808566085
1040
13.25758628282265
1040
0.4142135623731526
1040
25.10047808566094
1040
13.78258628282264
1040
0.0
1040
25.10047808566094
1040
15.53258628282266
1040
0.4142135623730891
1040
24.57547808566096
1040
16.05758628282265
1040
0.0
1040
22.65047808566089
1040
16.05758628282265
1040
-0.4142135623730928
1040
21.25047808566092
1040
17.45758628282264
1040
0.0
1071
        0
1071
        7
1070
     1
1070
     1
1071
        2
1040
21.95047808566085
1040
21.30758628282265
1040
1.0
1040
25.45047808566085
1040
21.30758628282265
1040
1.0
1071
        0
1071
        7
1070
     1
1070
     1
1071
       26
1040
35.02312456783887
1040
25.31263347638608
1040
0.0
1040
36.08476420097668
1040
28.67449231465567
1040
0.5069206636600134
1040
35.58413330178132
1040
29.35758628282265
1040
0.0
1040
33.8852439221721
1040
29.35758628282265
1040
0.3272098845218764
1040
33.38461302297674
1040
28.99068025098962
1040
0.0
1040
31.51634314834496
1040
23.07449231465573
1040
-0.3272098845219541
1040
31.01571224914949
1040
22.70758628282265
1040
0.0
1040
30.87547808566103
1040
22.70758628282265
1040
-0.4142135623731526
1040
30.35047808566094
1040
23.23258628282263
1040
0.0
1040
30.35047808566094
1040
28.83258628282265
1040
0.4142135623730951
1040
29.82547808566096
1040
29.35758628282265
1040
0.0
1040
28.07547808566085
1040
29.35758628282265
1040
0.4142135623730871
1040
27.55047808566087
1040
28.83258628282267
1040
0.0
1040
27.55047808566087
1040
13.78258628282264
1040
0.4142135623730891
1040
28.07547808566085
1040
13.25758628282265
1040
0.0
1040
29.82547808566085
1040
13.25758628282265
1040
0.4142135623731526
1040
30.35047808566094
1040
13.78258628282264
1040
0.0
1040
30.35047808566094
1040
19.38258628282266
1040
-0.4142135623731526
1040
30.87547808566103
1040
19.90758628282265
1040
0.0
1040
31.0157122491496
1040
19.90758628282265
1040
-0.3272098845218915
1040
31.51634314834496
1040
19.54068025098957
1040
0.0
1040
33.38461302297674
1040
13.62449231465572
1040
0.3272098845218902
1040
33.8852439221721
1040
13.25758628282265
1040
0.0
1040
35.58413330178132
1040
13.25758628282265
1040
0.5069206636600335
1040
36.08476420097668
1040
13.94068025098966
1040
0.0
1040
33.75837282250302
1040
21.30758628282279
1040
0.0
1071
        0
1071
        7
1070
     1
1070
     1
1071
        8
1040
41.20047808566084
1040
28.83258628282266
1040
0.4142135623731546
1040
40.67547808566075
1040
29.35758628282265
1040
0.0
1040
38.92547808566098
1040
29.35758628282265
1040
0.4142135623731507
1040
38.40047808566089
1040
28.83258628282267
1040
0.0
1040
38.40047808566089
1040
13.78258628282264
1040
0.4142135623731526
1040
38.92547808566098
1040
13.25758628282265
1040
0.0
1040
40.67547808566075
1040
13.25758628282265
1040
0.4142135623731526
1040
41.20047808566084
1040
13.78258628282264
1040
0.0
1071
        0
1071
        7
1070
     1
1070
     1
1071
       24
1040
46.10047808566093
1040
26.03258628282266
1040
-0.4142135623731546
1040
46.62547808566102
1040
26.55758628282265
1040
0.0
1040
49.60047808566094
1040
26.55758628282265
1040
0.4142135623730911
1040
50.12547808566091
1040
27.08258628282264
1040
0.0
1040
50.12547808566091
1040
28.83258628282265
1040
0.4142135623730952
1040
49.60047808566094
1040
29.35758628282265
1040
0.0
1040
46.10047808566093
1040
29.35758628282265
1040
0.4142135623731048
1040
43.30047808566087
1040
26.55758628282268
1040
0.0
1040
43.30047808566087
1040
24.74238425746741
1040
0.1989123673796613
1040
44.53062960467741
1040
21.77253577648386
1040
0.0
1040
47.44042757932208
1040
18.86273780183919
1040
-0.1989123673796402
1040
47.85047808566093
1040
17.87278830817811
1040
0.0
1040
47.85047808566093
1040
16.58258628282264
1040
-0.4142135623730911
1040
47.32547808566096
1040
16.05758628282265
1040
0.0
1040
44.35047808566094
1040
16.05758628282265
1040
0.4142135623731526
1040
43.82547808566084
1040
15.53258628282266
1040
0.0
1040
43.82547808566084
1040
13.78258628282264
1040
0.4142135623730891
1040
44.35047808566082
1040
13.25758628282265
1040
0.0
1040
47.85047808566093
1040
13.25758628282265
1040
0.4142135623730925
1040
50.65047808566089
1040
16.05758628282262
1040
0.0
1040
50.65047808566089
1040
17.87278830817789
1040
0.1989123673796675
1040
49.42032656664435
1040
20.84263678916155
1040
0.0
1040
46.51052859199978
1040
23.75243476380607
1040
-0.1989123673796652
1040
46.10047808566093
1040
24.74238425746724
1040
0.0
1071
        0
1071
        7
1070
     1
1070
     1
1071
       16
1040
55.55047808566087
1040
28.83258628282264
1040
0.414213562373103
1040
55.02547808566089
1040
29.35758628282265
1040
0.0
1040
53.27547808566089
1040
29.35758628282265
1040
0.4142135623730871
1040
52.75047808566092
1040
28.83258628282267
1040
0.0
1040
52.75047808566092
1040
16.05758628282262
1040
0.4142135623730926
1040
55.55047808566087
1040
13.25758628282265
1040
0.0
1040
59.05047808566087
1040
13.25758628282265
1040
0.4142135623731044
1040
61.85047808566094
1040
16.05758628282262
1040
0.0
1040
61.85047808566094
1040
28.83258628282265
1040
0.4142135623730951
1040
61.32547808566096
1040
29.35758628282265
1040
0.0
1040
59.57547808566085
1040
29.35758628282265
1040
0.4142135623730871
1040
59.05047808566087
1040
28.83258628282267
1040
0.0
1040
59.05047808566087
1040
17.10758628282262
1040
-0.414213562373088
1040
58.00047808566091
1040
16.05758628282265
1040
0.0
1040
56.60047808566094
1040
16.05758628282265
1040
-0.4142135623731197
1040
55.55047808566087
1040
17.10758628282262
1040
0.0
1071
        0
1071
        7
1070
     1
1070
     1
1071
        8
1040
66.75047808566091
1040
28.83258628282267
1040
0.4142135623730871
1040
66.22547808566094
1040
29.35758628282265
1040
0.0
1040
64.47547808566094
1040
29.35758628282265
1040
0.4142135623731507
1040
63.95047808566085
1040
28.83258628282267
1040
0.0
1040
63.95047808566085
1040
13.78258628282264
1040
0.4142135623730891
1040
64.47547808566082
1040
13.25758628282265
1040
0.0
1040
66.22547808566094
1040
13.25758628282265
1040
0.4142135623730891
1040
66.75047808566091
1040
13.78258628282264
1040
0.0
1071
        0
1070
     0
1070
     1
1040
0.0
1040
0.2
1070
     0
1070
     2
1040
0.7853981633974483
1040
-903.2340384037992
1040
-7.092413717177286
1040
-0.4490128060534576
1040
0.4490128060534577
1070
     0
1040
2.356194490192344
1040
-903.2340384037992
1040
-7.092413717177286
1040
-0.4490128060534577
1040
-0.4490128060534576
1070
     0
1040
0.057451373970553
1071
        8
1040
13.78812089390305
1040
21.2747599287082
1040
0.0
1040
20.11278093731892
1040
24.95164846527366
1040
0.0
1040
22.87263381653941
1040
21.61946792889336
1040
0.0
1040
28.62232591251689
1040
22.30888392926415
1040
0.0
1040
39.54673794983648
1040
22.76849619680576
1040
0.0
1040
44.6064668260093
1040
25.52616259922986
1040
0.0
1040
54.2659519032801
1040
24.83674419791766
1040
0.0
1040
65.53534555050248
1040
25.29635646545928
1040
0.0
1002
}
  0
LINE
  5
1E06
330
1A
100
AcDbEntity
  8
ZUWAKU
100
AcDbLine
 10
12.87500000000006
 20
19.78749999999999
 30
0.0
 11
14.62500000000005
 21
19.78749999999999
 31
0.0
  0
LINE
  5
1E07
330
1A
100
AcDbEntity
  8
ZUWAKU
100
AcDbLine
 10
14.53492424049187
 20
15.53002525316941
 30
0.0
 11
13.08002525316948
 21
16.98492424049175
 31
0.0
  0
ARC
  5
1E08
330
1A
100
AcDbEntity
  8
ZUWAKU
100
AcDbCircle
 10
13.5750000000001
 20
17.47989898732235
 30
0.0
 40
2.099999999999999
100
AcDbArc
 50
180.0
 51
224.9999999999996
  0
ARC
  5
1E09
330
1A
100
AcDbEntity
  8
ZUWAKU
100
AcDbCircle
 10
13.05000000000001
 20
14.04510101267767
 30
0.0
 40
0.7
100
AcDbArc
 50
0.0
 51
44.99999999999956
  0
LINE
  5
1E0A
330
1A
100
AcDbEntity
  8
ZUWAKU
100
AcDbLine
 10
13.75000000000005
 20
13.4
 30
0.0
 11
13.75000000000005
 21
14.04510101267767
 31
0.0
  0
ARC
  5
1E0B
330
1A
100
AcDbEntity
  8
ZUWAKU
100
AcDbCircle
 10
13.48750000000001
 20
13.4
 30
0.0
 40
0.2625
100
AcDbArc
 50
270.0
 51
0.0
  0
LINE
  5
1E0C
330
1A
100
AcDbEntity
  8
ZUWAKU
100
AcDbLine
 10
11.73750000000001
 20
11.99999999999999
 30
0.0
 11
11.73750000000001
 21
12.87499999999999
 31
0.0
  0
ARC
  5
1E0D
330
1A
100
AcDbEntity
  8
ZUWAKU
100
AcDbCircle
 10
12.00000000000005
 20
11.99999999999999
 30
0.0
 40
0.2625
100
AcDbArc
 50
180.0
 51
270.0
  0
ARC
  5
1E0E
330
1A
100
AcDbEntity
  8
ZUWAKU
100
AcDbCircle
 10
12.00000000000005
 20
12.87499999999999
 30
0.0
 40
0.2625
100
AcDbArc
 50
90.0
 51
180.0
  0
LINE
  5
1E0F
330
1A
100
AcDbEntity
  8
ZUWAKU
100
AcDbLine
 10
12.00000000000005
 20
11.7375
 30
0.0
 11
13.75000000000005
 21
11.7375
 31
0.0
  0
LINE
  5
1E10
330
1A
100
AcDbEntity
  8
ZUWAKU
100
AcDbLine
 10
12.00000000000005
 20
13.13749999999999
 30
0.0
 11
13.48750000000001
 21
13.13749999999999
 31
0.0
  0
LINE
  5
1E11
330
1A
100
AcDbEntity
  8
ZUWAKU
100
AcDbLine
 10
12.09007575950824
 20
15.99497474683058
 30
0.0
 11
13.54497474683063
 21
14.54007575950825
 31
0.0
  0
LINE
  5
1E12
330
1A
100
AcDbEntity
  8
ZUWAKU
100
AcDbLine
 10
12.87500000000006
 20
18.125
 30
0.0
 11
12.87500000000006
 21
17.47989898732232
 31
0.0
  0
LINE
  5
1E13
330
1A
100
AcDbEntity
  8
ZUWAKU
100
AcDbLine
 10
11.47500000000008
 20
18.38749999999999
 30
0.0
 11
11.47500000000008
 21
17.47989898732232
 31
0.0
  0
ARC
  5
1E14
330
1A
100
AcDbEntity
  8
ZUWAKU
100
AcDbCircle
 10
12.87500000000006
 20
18.38749999999999
 30
0.0
 40
1.399999999999999
100
AcDbArc
 50
90.0
 51
180.0
  0
ARC
  5
1E15
330
1A
100
AcDbEntity
  8
ZUWAKU
100
AcDbCircle
 10
13.5750000000001
 20
17.47989898732235
 30
0.0
 40
0.7
100
AcDbArc
 50
180.0000000000016
 51
224.9999999999994
  0
ARC
  5
1E16
330
1A
100
AcDbEntity
  8
ZUWAKU
100
AcDbCircle
 10
13.1375000000001
 20
18.125
 30
0.0
 40
0.2625
100
AcDbArc
 50
90.0
 51
180.0
  0
LINE
  5
1E17
330
1A
100
AcDbEntity
  8
ZUWAKU
100
AcDbLine
 10
45.49220869660354
 20
23.1625
 30
0.0
 11
45.49220869660376
 21
8.562500000000028
 31
0.0
  0
LINE
  5
1E18
330
1A
100
AcDbEntity
  8
ZUWAKU
100
AcDbLine
 10
45.59220869660367
 20
23.1625
 30
0.0
 11
45.59220869660367
 21
8.562500000000028
 31
0.0
  0
LINE
  5
1E19
330
1A
100
AcDbEntity
  8
ZUWAKU
100
AcDbLine
 10
45.39220869660363
 20
23.1625
 30
0.0
 11
45.39220869660363
 21
8.562500000000028
 31
0.0
  0
LINE
  5
1E1A
330
1A
100
AcDbEntity
  8
ZUWAKU
100
AcDbLine
 10
30.02500000000015
 20
19.78749999999999
 30
0.0
 11
31.77500000000015
 21
19.78749999999999
 31
0.0
  0
LINE
  5
1E1B
330
1A
100
AcDbEntity
  8
ZUWAKU
100
AcDbLine
 10
31.77500000000015
 20
18.38749999999999
 30
0.0
 11
30.2875000000002
 21
18.38749999999999
 31
0.0
  0
LINE
  5
1E1C
330
1A
100
AcDbEntity
  8
ZUWAKU
100
AcDbLine
 10
31.68492424049174
 20
15.53002525316941
 30
0.0
 11
30.23002525316935
 21
16.98492424049175
 31
0.0
  0
LINE
  5
1E1D
330
1A
100
AcDbEntity
  8
ZUWAKU
100
AcDbLine
 10
29.15000000000015
 20
13.13749999999999
 30
0.0
 11
30.6375000000001
 21
13.13749999999999
 31
0.0
  0
LINE
  5
1E1E
330
1A
100
AcDbEntity
  8
ZUWAKU
100
AcDbLine
 10
29.15000000000015
 20
11.7375
 30
0.0
 11
30.90000000000015
 21
11.7375
 31
0.0
  0
LINE
  5
1E1F
330
1A
100
AcDbEntity
  8
ZUWAKU
100
AcDbLine
 10
29.24007575950833
 20
15.99497474683058
 30
0.0
 11
30.69497474683072
 21
14.54007575950825
 31
0.0
  0
ARC
  5
1E20
330
1A
100
AcDbEntity
  8
ZUWAKU
100
AcDbCircle
 10
21.8875000000001
 20
19.52499999999999
 30
0.0
 40
0.2625
100
AcDbArc
 50
0.0
 51
90.0
  0
ARC
  5
1E21
330
1A
100
AcDbEntity
  8
ZUWAKU
100
AcDbCircle
 10
22.41250000000019
 20
16.725
 30
0.0
 40
0.2625
100
AcDbArc
 50
180.0
 51
270.0
  0
ARC
  5
1E22
330
1A
100
AcDbEntity
  8
ZUWAKU
100
AcDbCircle
 10
21.8875000000001
 20
11.99999999999999
 30
0.0
 40
0.2625
100
AcDbArc
 50
270.0
 51
0.0
  0
ARC
  5
1E23
330
1A
100
AcDbEntity
  8
ZUWAKU
100
AcDbCircle
 10
22.41250000000019
 20
14.79999999999999
 30
0.0
 40
0.2625
100
AcDbArc
 50
90.0
 51
180.0
  0
CIRCLE
  5
1E24
330
1A
100
AcDbEntity
  8
ZUWAKU
100
AcDbCircle
 10
18.8250000000001
 20
15.76249999999999
 30
0.0
 40
0.875
  0
LINE
  5
1E25
330
1A
100
AcDbEntity
  8
ZUWAKU
100
AcDbLine
 10
17.60000000000008
 20
17.6875
 30
0.0
 11
17.60000000000008
 21
13.8375
 31
0.0
  0
LINE
  5
1E26
330
1A
100
AcDbEntity
  8
ZUWAKU
100
AcDbLine
 10
16.2000000000001
 20
13.8375
 30
0.0
 11
16.2000000000001
 21
17.68749999999997
 31
0.0
  0
LINE
  5
1E27
330
1A
100
AcDbEntity
  8
ZUWAKU
100
AcDbLine
 10
20.75000000000006
 20
19.52499999999999
 30
0.0
 11
20.75000000000006
 21
11.99999999999999
 31
0.0
  0
ARC
  5
1E28
330
1A
100
AcDbEntity
  8
ZUWAKU
100
AcDbCircle
 10
18.30000000000001
 20
13.8375
 30
0.0
 40
0.7
100
AcDbArc
 50
180.0
 51
270.0
  0
ARC
  5
1E29
330
1A
100
AcDbEntity
  8
ZUWAKU
100
AcDbCircle
 10
18.30000000000001
 20
13.8375
 30
0.0
 40
2.099999999999999
100
AcDbArc
 50
180.0
 51
270.0
  0
LINE
  5
1E2A
330
1A
100
AcDbEntity
  8
ZUWAKU
100
AcDbLine
 10
15.15000000000014
 20
13.13749999999999
 30
0.0
 11
15.15000000000014
 21
14.04510101267767
 31
0.0
  0
ARC
  5
1E2B
330
1A
100
AcDbEntity
  8
ZUWAKU
100
AcDbCircle
 10
13.05000000000001
 20
14.04510101267765
 30
0.0
 40
2.099999999999999
100
AcDbArc
 50
0.0
 51
44.99999999999956
  0
LINE
  5
1E2C
330
1A
100
AcDbEntity
  8
ZUWAKU
100
AcDbLine
 10
18.30000000000001
 20
13.13749999999999
 30
0.0
 11
19.2625000000001
 21
13.13749999999999
 31
0.0
  0
LINE
  5
1E2D
330
1A
100
AcDbEntity
  8
ZUWAKU
100
AcDbLine
 10
19.2625000000001
 20
11.7375
 30
0.0
 11
18.30000000000001
 21
11.7375
 31
0.0
  0
LINE
  5
1E2E
330
1A
100
AcDbEntity
  8
ZUWAKU
100
AcDbLine
 10
19.52500000000014
 20
12.87499999999999
 30
0.0
 11
19.52500000000014
 21
11.99999999999999
 31
0.0
  0
ARC
  5
1E2F
330
1A
100
AcDbEntity
  8
ZUWAKU
100
AcDbCircle
 10
19.2625000000001
 20
11.99999999999999
 30
0.0
 40
0.2625
100
AcDbArc
 50
270.0
 51
0.0
  0
ARC
  5
1E30
330
1A
100
AcDbEntity
  8
ZUWAKU
100
AcDbCircle
 10
19.2625000000001
 20
12.87499999999999
 30
0.0
 40
0.2625
100
AcDbArc
 50
0.0
 51
90.0
  0
ARC
  5
1E31
330
1A
100
AcDbEntity
  8
ZUWAKU
100
AcDbCircle
 10
21.0125000000001
 20
11.99999999999999
 30
0.0
 40
0.2625
100
AcDbArc
 50
180.0
 51
270.0
  0
LINE
  5
1E32
330
1A
100
AcDbEntity
  8
ZUWAKU
100
AcDbLine
 10
21.0125000000001
 20
11.7375
 30
0.0
 11
21.8875000000001
 21
11.7375
 31
0.0
  0
ARC
  5
1E33
330
1A
100
AcDbEntity
  8
ZUWAKU
100
AcDbCircle
 10
18.30000000000001
 20
17.6875
 30
0.0
 40
0.7
100
AcDbArc
 50
90.0
 51
180.0
  0
ARC
  5
1E34
330
1A
100
AcDbEntity
  8
ZUWAKU
100
AcDbCircle
 10
18.30000000000001
 20
17.68749999999997
 30
0.0
 40
2.099999999999999
100
AcDbArc
 50
90.0
 51
180.0
  0
ARC
  5
1E35
330
1A
100
AcDbEntity
  8
ZUWAKU
100
AcDbCircle
 10
14.62500000000005
 20
19.52499999999999
 30
0.0
 40
0.2625
100
AcDbArc
 50
0.0
 51
90.0
  0
ARC
  5
1E36
330
1A
100
AcDbEntity
  8
ZUWAKU
100
AcDbCircle
 10
14.62500000000005
 20
18.64999999999999
 30
0.0
 40
0.2625
100
AcDbArc
 50
270.0
 51
0.0
  0
LINE
  5
1E37
330
1A
100
AcDbEntity
  8
ZUWAKU
100
AcDbLine
 10
14.8875000000001
 20
19.52499999999999
 30
0.0
 11
14.8875000000001
 21
18.64999999999999
 31
0.0
  0
LINE
  5
1E38
330
1A
100
AcDbEntity
  8
ZUWAKU
100
AcDbLine
 10
18.30000000000001
 20
19.78749999999998
 30
0.0
 11
19.2625000000001
 21
19.78749999999999
 31
0.0
  0
LINE
  5
1E39
330
1A
100
AcDbEntity
  8
ZUWAKU
100
AcDbLine
 10
19.2625000000001
 20
18.38749999999999
 30
0.0
 11
18.30000000000001
 21
18.38749999999999
 31
0.0
  0
ARC
  5
1E3A
330
1A
100
AcDbEntity
  8
ZUWAKU
100
AcDbCircle
 10
19.2625000000001
 20
19.52499999999999
 30
0.0
 40
0.2625
100
AcDbArc
 50
0.0
 51
90.0
  0
ARC
  5
1E3B
330
1A
100
AcDbEntity
  8
ZUWAKU
100
AcDbCircle
 10
21.0125000000001
 20
19.52499999999999
 30
0.0
 40
0.2625
100
AcDbArc
 50
90.0
 51
180.0
  0
ARC
  5
1E3C
330
1A
100
AcDbEntity
  8
ZUWAKU
100
AcDbCircle
 10
19.2625000000001
 20
18.64999999999999
 30
0.0
 40
0.2625
100
AcDbArc
 50
270.0
 51
0.0
  0
LINE
  5
1E3D
330
1A
100
AcDbEntity
  8
ZUWAKU
100
AcDbLine
 10
19.52500000000014
 20
19.52499999999999
 30
0.0
 11
19.52500000000014
 21
18.64999999999999
 31
0.0
  0
LINE
  5
1E3E
330
1A
100
AcDbEntity
  8
ZUWAKU
100
AcDbLine
 10
21.8875000000001
 20
19.78749999999999
 30
0.0
 11
21.0125000000001
 21
19.78749999999999
 31
0.0
  0
ARC
  5
1E3F
330
1A
100
AcDbEntity
  8
ZUWAKU
100
AcDbCircle
 10
30.72500000000019
 20
17.47989898732235
 30
0.0
 40
2.099999999999999
100
AcDbArc
 50
180.0
 51
224.9999999999996
  0
LINE
  5
1E40
330
1A
100
AcDbEntity
  8
ZUWAKU
100
AcDbLine
 10
24.486323241089
 20
17.76502359678171
 30
0.0
 11
23.85394736842119
 21
15.7625
 31
0.0
  0
LINE
  5
1E41
330
1A
100
AcDbEntity
  8
ZUWAKU
100
AcDbLine
 10
26.17500000000001
 20
19.52499999999999
 30
0.0
 11
26.17500000000001
 21
11.99999999999999
 31
0.0
  0
LINE
  5
1E42
330
1A
100
AcDbEntity
  8
ZUWAKU
100
AcDbLine
 10
27.5750000000001
 20
11.99999999999999
 30
0.0
 11
27.5750000000001
 21
19.52499999999999
 31
0.0
  0
ARC
  5
1E43
330
1A
100
AcDbEntity
  8
ZUWAKU
100
AcDbCircle
 10
26.43750000000006
 20
11.99999999999999
 30
0.0
 40
0.2625
100
AcDbArc
 50
180.0
 51
270.0
  0
LINE
  5
1E44
330
1A
100
AcDbEntity
  8
ZUWAKU
100
AcDbLine
 10
22.15000000000015
 20
11.99999999999999
 30
0.0
 11
22.15000000000015
 21
14.79999999999999
 31
0.0
  0
LINE
  5
1E45
330
1A
100
AcDbEntity
  8
ZUWAKU
100
AcDbLine
 10
23.66706746865799
 20
11.92095301591651
 30
0.0
 11
22.73293253134199
 21
14.87904698408348
 31
0.0
  0
LINE
  5
1E46
330
1A
100
AcDbEntity
  8
ZUWAKU
100
AcDbLine
 10
23.91738291825578
 20
11.7375
 30
0.0
 11
24.76682760806017
 21
11.7375
 31
0.0
  0
ARC
  5
1E47
330
1A
100
AcDbEntity
  8
ZUWAKU
100
AcDbCircle
 10
24.76682760806017
 20
11.99999999999999
 30
0.0
 40
0.2625
100
AcDbArc
 50
270.0
 51
17.52556837372245
  0
ARC
  5
1E48
330
1A
100
AcDbEntity
  8
ZUWAKU
100
AcDbCircle
 10
23.91738291825578
 20
11.99999999999999
 30
0.0
 40
0.2625
100
AcDbArc
 50
197.5255683737224
 51
270.0
  0
LINE
  5
1E49
330
1A
100
AcDbEntity
  8
ZUWAKU
100
AcDbLine
 10
22.41250000000019
 20
15.06249999999999
 30
0.0
 11
22.48261708174442
 21
15.06249999999999
 31
0.0
  0
LINE
  5
1E4A
330
1A
100
AcDbEntity
  8
ZUWAKU
100
AcDbLine
 10
25.01714305765796
 20
12.07904698408348
 30
0.0
 11
23.85394736842119
 21
15.7625
 31
0.0
  0
ARC
  5
1E4B
330
1A
100
AcDbEntity
  8
ZUWAKU
100
AcDbCircle
 10
22.48261708174442
 20
14.79999999999999
 30
0.0
 40
0.2625
100
AcDbArc
 50
17.52556837372245
 51
90.0
  0
LINE
  5
1E4C
330
1A
100
AcDbEntity
  8
ZUWAKU
100
AcDbLine
 10
26.43750000000006
 20
11.7375
 30
0.0
 11
27.31250000000006
 21
11.7375
 31
0.0
  0
LINE
  5
1E4D
330
1A
100
AcDbEntity
  8
ZUWAKU
100
AcDbLine
 10
28.8875000000001
 20
11.99999999999999
 30
0.0
 11
28.8875000000001
 21
12.87499999999999
 31
0.0
  0
ARC
  5
1E4E
330
1A
100
AcDbEntity
  8
ZUWAKU
100
AcDbCircle
 10
29.15000000000015
 20
11.99999999999999
 30
0.0
 40
0.2625
100
AcDbArc
 50
180.0
 51
270.0
  0
ARC
  5
1E4F
330
1A
100
AcDbEntity
  8
ZUWAKU
100
AcDbCircle
 10
27.31250000000006
 20
11.99999999999999
 30
0.0
 40
0.2625
100
AcDbArc
 50
270.0
 51
0.0
  0
ARC
  5
1E50
330
1A
100
AcDbEntity
  8
ZUWAKU
100
AcDbCircle
 10
29.15000000000015
 20
12.87499999999999
 30
0.0
 40
0.2625
100
AcDbArc
 50
90.0
 51
180.0
  0
ARC
  5
1E51
330
1A
100
AcDbEntity
  8
ZUWAKU
100
AcDbCircle
 10
26.43750000000006
 20
19.52499999999999
 30
0.0
 40
0.2625
100
AcDbArc
 50
90.0
 51
180.0
  0
LINE
  5
1E52
330
1A
100
AcDbEntity
  8
ZUWAKU
100
AcDbLine
 10
23.66706746865799
 20
19.60404698408348
 30
0.0
 11
22.73293253134199
 21
16.64595301591651
 31
0.0
  0
ARC
  5
1E53
330
1A
100
AcDbEntity
  8
ZUWAKU
100
AcDbCircle
 10
22.48261708174442
 20
16.725
 30
0.0
 40
0.2625
100
AcDbArc
 50
270.0
 51
342.4744316262775
  0
LINE
  5
1E54
330
1A
100
AcDbEntity
  8
ZUWAKU
100
AcDbLine
 10
22.48261708174442
 20
16.46249999999999
 30
0.0
 11
22.41250000000019
 21
16.46249999999999
 31
0.0
  0
LINE
  5
1E55
330
1A
100
AcDbEntity
  8
ZUWAKU
100
AcDbLine
 10
22.15000000000015
 20
16.725
 30
0.0
 11
22.15000000000015
 21
19.52499999999999
 31
0.0
  0
LINE
  5
1E56
330
1A
100
AcDbEntity
  8
ZUWAKU
100
AcDbLine
 10
23.91738291825578
 20
19.78749999999999
 30
0.0
 11
24.76682760806017
 21
19.78749999999999
 31
0.0
  0
ARC
  5
1E57
330
1A
100
AcDbEntity
  8
ZUWAKU
100
AcDbCircle
 10
24.76682760806017
 20
19.52499999999999
 30
0.0
 40
0.2625
100
AcDbArc
 50
342.4744316262775
 51
90.0
  0
LINE
  5
1E58
330
1A
100
AcDbEntity
  8
ZUWAKU
100
AcDbLine
 10
25.01714305765796
 20
19.44595301591651
 30
0.0
 11
24.486323241089
 21
17.76502359678171
 31
0.0
  0
ARC
  5
1E59
330
1A
100
AcDbEntity
  8
ZUWAKU
100
AcDbCircle
 10
23.91738291825578
 20
19.52499999999999
 30
0.0
 40
0.2625
100
AcDbArc
 50
90.0
 51
162.4744316262773
  0
ARC
  5
1E5A
330
1A
100
AcDbEntity
  8
ZUWAKU
100
AcDbCircle
 10
30.2875000000002
 20
18.125
 30
0.0
 40
0.2625
100
AcDbArc
 50
90.0
 51
180.0
  0
LINE
  5
1E5B
330
1A
100
AcDbEntity
  8
ZUWAKU
100
AcDbLine
 10
30.02500000000015
 20
18.125
 30
0.0
 11
30.02500000000015
 21
17.47989898732232
 31
0.0
  0
ARC
  5
1E5C
330
1A
100
AcDbEntity
  8
ZUWAKU
100
AcDbCircle
 10
30.72500000000019
 20
17.47989898732235
 30
0.0
 40
0.7
100
AcDbArc
 50
180.0000000000016
 51
224.9999999999994
  0
LINE
  5
1E5D
330
1A
100
AcDbEntity
  8
ZUWAKU
100
AcDbLine
 10
27.31250000000006
 20
19.78749999999999
 30
0.0
 11
26.43750000000006
 21
19.78749999999999
 31
0.0
  0
ARC
  5
1E5E
330
1A
100
AcDbEntity
  8
ZUWAKU
100
AcDbCircle
 10
27.31250000000006
 20
19.52499999999999
 30
0.0
 40
0.2625
100
AcDbArc
 50
0.0
 51
90.0
  0
LINE
  5
1E5F
330
1A
100
AcDbEntity
  8
ZUWAKU
100
AcDbLine
 10
28.62500000000006
 20
18.38749999999999
 30
0.0
 11
28.62500000000006
 21
17.47989898732232
 31
0.0
  0
ARC
  5
1E60
330
1A
100
AcDbEntity
  8
ZUWAKU
100
AcDbCircle
 10
30.02500000000015
 20
18.38749999999999
 30
0.0
 40
1.399999999999999
100
AcDbArc
 50
90.0
 51
180.0
  0
LINE
  5
1E61
330
1A
100
AcDbEntity
  8
ZUWAKU
100
AcDbLine
 10
37.90000000000015
 20
13.13749999999999
 30
0.0
 11
37.90000000000015
 21
19.52499999999999
 31
0.0
  0
LINE
  5
1E62
330
1A
100
AcDbEntity
  8
ZUWAKU
100
AcDbLine
 10
36.50000000000006
 20
19.52499999999999
 30
0.0
 11
36.50000000000006
 21
13.66249999999999
 31
0.0
  0
LINE
  5
1E63
330
1A
100
AcDbEntity
  8
ZUWAKU
100
AcDbLine
 10
33.35000000000019
 20
19.52499999999999
 30
0.0
 11
33.35000000000019
 21
13.13749999999999
 31
0.0
  0
LINE
  5
1E64
330
1A
100
AcDbEntity
  8
ZUWAKU
100
AcDbLine
 10
34.75000000000006
 20
13.66249999999999
 30
0.0
 11
34.75000000000006
 21
19.52499999999999
 31
0.0
  0
ARC
  5
1E65
330
1A
100
AcDbEntity
  8
ZUWAKU
100
AcDbCircle
 10
34.75000000000006
 20
13.13749999999999
 30
0.0
 40
1.399999999999999
100
AcDbArc
 50
180.0
 51
270.0
  0
ARC
  5
1E66
330
1A
100
AcDbEntity
  8
ZUWAKU
100
AcDbCircle
 10
30.2000000000001
 20
14.04510101267767
 30
0.0
 40
0.7
100
AcDbArc
 50
0.0
 51
44.99999999999956
  0
ARC
  5
1E67
330
1A
100
AcDbEntity
  8
ZUWAKU
100
AcDbCircle
 10
30.90000000000015
 20
13.13749999999999
 30
0.0
 40
1.399999999999999
100
AcDbArc
 50
270.0
 51
0.0
  0
LINE
  5
1E68
330
1A
100
AcDbEntity
  8
ZUWAKU
100
AcDbLine
 10
30.90000000000015
 20
13.4
 30
0.0
 11
30.90000000000015
 21
14.04510101267767
 31
0.0
  0
ARC
  5
1E69
330
1A
100
AcDbEntity
  8
ZUWAKU
100
AcDbCircle
 10
30.6375000000001
 20
13.4
 30
0.0
 40
0.2625
100
AcDbArc
 50
270.0
 51
0.0
  0
LINE
  5
1E6A
330
1A
100
AcDbEntity
  8
ZUWAKU
100
AcDbLine
 10
32.30000000000001
 20
13.13749999999999
 30
0.0
 11
32.30000000000001
 21
14.04510101267767
 31
0.0
  0
ARC
  5
1E6B
330
1A
100
AcDbEntity
  8
ZUWAKU
100
AcDbCircle
 10
30.2000000000001
 20
14.04510101267765
 30
0.0
 40
2.099999999999999
100
AcDbArc
 50
0.0
 51
44.99999999999956
  0
LINE
  5
1E6C
330
1A
100
AcDbEntity
  8
ZUWAKU
100
AcDbLine
 10
35.9750000000002
 20
13.13749999999999
 30
0.0
 11
35.27500000000015
 21
13.13749999999999
 31
0.0
  0
LINE
  5
1E6D
330
1A
100
AcDbEntity
  8
ZUWAKU
100
AcDbLine
 10
34.75000000000006
 20
11.7375
 30
0.0
 11
36.50000000000006
 21
11.7375
 31
0.0
  0
ARC
  5
1E6E
330
1A
100
AcDbEntity
  8
ZUWAKU
100
AcDbCircle
 10
35.27500000000015
 20
13.66249999999999
 30
0.0
 40
0.525
100
AcDbArc
 50
180.0
 51
270.0
  0
ARC
  5
1E6F
330
1A
100
AcDbEntity
  8
ZUWAKU
100
AcDbCircle
 10
35.9750000000002
 20
13.66249999999999
 30
0.0
 40
0.525
100
AcDbArc
 50
270.0
 51
0.0
  0
ARC
  5
1E70
330
1A
100
AcDbEntity
  8
ZUWAKU
100
AcDbCircle
 10
36.50000000000006
 20
13.13749999999999
 30
0.0
 40
1.399999999999999
100
AcDbArc
 50
270.0
 51
0.0
  0
LINE
  5
1E71
330
1A
100
AcDbEntity
  8
ZUWAKU
100
AcDbLine
 10
34.48750000000001
 20
19.78749999999999
 30
0.0
 11
33.61250000000001
 21
19.78749999999999
 31
0.0
  0
ARC
  5
1E72
330
1A
100
AcDbEntity
  8
ZUWAKU
100
AcDbCircle
 10
33.61250000000001
 20
19.52499999999999
 30
0.0
 40
0.2625
100
AcDbArc
 50
90.0
 51
180.0
  0
ARC
  5
1E73
330
1A
100
AcDbEntity
  8
ZUWAKU
100
AcDbCircle
 10
31.77500000000015
 20
19.52499999999999
 30
0.0
 40
0.2625
100
AcDbArc
 50
0.0
 51
90.0
  0
ARC
  5
1E74
330
1A
100
AcDbEntity
  8
ZUWAKU
100
AcDbCircle
 10
31.77500000000015
 20
18.64999999999999
 30
0.0
 40
0.2625
100
AcDbArc
 50
270.0
 51
0.0
  0
LINE
  5
1E75
330
1A
100
AcDbEntity
  8
ZUWAKU
100
AcDbLine
 10
32.03750000000019
 20
19.52499999999999
 30
0.0
 11
32.03750000000019
 21
18.64999999999999
 31
0.0
  0
ARC
  5
1E76
330
1A
100
AcDbEntity
  8
ZUWAKU
100
AcDbCircle
 10
34.48750000000001
 20
19.52499999999999
 30
0.0
 40
0.2625
100
AcDbArc
 50
0.0
 51
90.0
  0
LINE
  5
1E77
330
1A
100
AcDbEntity
  8
ZUWAKU
100
AcDbLine
 10
37.63750000000011
 20
19.78749999999999
 30
0.0
 11
36.7625000000001
 21
19.78749999999999
 31
0.0
  0
ARC
  5
1E78
330
1A
100
AcDbEntity
  8
ZUWAKU
100
AcDbCircle
 10
36.7625000000001
 20
19.52499999999999
 30
0.0
 40
0.2625
100
AcDbArc
 50
90.0
 51
180.0
  0
ARC
  5
1E79
330
1A
100
AcDbEntity
  8
ZUWAKU
100
AcDbCircle
 10
37.63750000000011
 20
19.52499999999999
 30
0.0
 40
0.2625
100
AcDbArc
 50
0.0
 51
90.0
  0
LINE
  5
1E7A
330
1A
100
AcDbEntity
  8
ZUWAKU
100
AcDbLine
 10
40.35000000000019
 20
11.99999999999999
 30
0.0
 11
40.35000000000019
 21
19.52499999999999
 31
0.0
  0
LINE
  5
1E7B
330
1A
100
AcDbEntity
  8
ZUWAKU
100
AcDbLine
 10
38.9500000000001
 20
19.52499999999999
 30
0.0
 11
38.9500000000001
 21
11.99999999999999
 31
0.0
  0
LINE
  5
1E7C
330
1A
100
AcDbEntity
  8
ZUWAKU
100
AcDbLine
 10
39.21250000000015
 20
11.7375
 30
0.0
 11
40.08750000000015
 21
11.7375
 31
0.0
  0
ARC
  5
1E7D
330
1A
100
AcDbEntity
  8
ZUWAKU
100
AcDbCircle
 10
39.21250000000015
 20
11.99999999999999
 30
0.0
 40
0.2625
100
AcDbArc
 50
180.0
 51
270.0
  0
ARC
  5
1E7E
330
1A
100
AcDbEntity
  8
ZUWAKU
100
AcDbCircle
 10
40.08750000000015
 20
11.99999999999999
 30
0.0
 40
0.2625
100
AcDbArc
 50
270.0
 51
0.0
  0
LINE
  5
1E7F
330
1A
100
AcDbEntity
  8
ZUWAKU
100
AcDbLine
 10
40.08750000000015
 20
19.78749999999999
 30
0.0
 11
39.21250000000015
 21
19.78749999999999
 31
0.0
  0
ARC
  5
1E80
330
1A
100
AcDbEntity
  8
ZUWAKU
100
AcDbCircle
 10
39.21250000000015
 20
19.52499999999999
 30
0.0
 40
0.2625
100
AcDbArc
 50
90.0
 51
180.0
  0
ARC
  5
1E81
330
1A
100
AcDbEntity
  8
ZUWAKU
100
AcDbCircle
 10
40.08750000000015
 20
19.52499999999999
 30
0.0
 40
0.2625
100
AcDbArc
 50
0.0
 51
90.0
  0
TEXT
  5
1E82
330
1A
100
AcDbEntity
  8
moji
100
AcDbText
 10
52.307788716694
 20
14.53308906513737
 30
0.0
 40
3.0
  1
大型　たてとい
 41
0.9
  7
ｽﾀｲﾙ1
100
AcDbText
  0
TEXT
  5
1E83
330
1A
100
AcDbEntity
  8
moji
100
AcDbText
 10
125.742495263035
 20
17.16496052870368
 30
0.0
 40
2.799999999999999
  1
差込ソケット
 41
0.9
  7
ｽﾀｲﾙ1
100
AcDbText
  0
LINE
  5
1E84
330
1A
100
AcDbEntity
  8
ZUWAKU
100
AcDbLine
 10
109.9521945676434
 20
23.1625
 30
0.0
 11
109.9521945676434
 21
8.562500000000028
 31
0.0
  0
LINE
  5
1E85
330
1A
100
AcDbEntity
  8
ZUWAKU
100
AcDbLine
 10
110.1521945676434
 20
23.1625
 30
0.0
 11
110.1521945676434
 21
8.562500000000028
 31
0.0
  0
LINE
  5
1E86
330
1A
100
AcDbEntity
  8
ZUWAKU
100
AcDbLine
 10
110.0521945676433
 20
23.1625
 30
0.0
 11
110.0521945676435
 21
8.562500000000028
 31
0.0
  0
TEXT
  5
1E87
330
1A
100
AcDbEntity
  8
moji
100
AcDbText
 10
125.742495263035
 20
9.764960528703703
 30
0.0
 40
2.799999999999999
  1
ＥＳ１００
 41
0.9
  7
ｽﾀｲﾙ1
100
AcDbText
  0
TEXT
  5
1E88
330
1A
100
AcDbEntity
  8
ZUWAKU
100
AcDbText
 10
110.6909170787483
 20
12.9901782691928
 30
0.0
 40
2.0
  1
サイズ
 41
0.9
  7
ｽﾀｲﾙ1
100
AcDbText
  0
TEXT
  5
1E89
330
1A
100
AcDbEntity
  8
ZUWAKU
100
AcDbText
 10
110.6909170787481
 20
20.19017826919279
 30
0.0
 40
2.0
  1
品名
 41
0.9
  7
ｽﾀｲﾙ1
100
AcDbText
  0
LINE
  5
1EA3
330
1A
100
AcDbEntity
  8
ZUWAKU
100
AcDbLine
 10
330.2374951777115
 20
15.76250000000001
 30
0.0
 11
354.4533991968802
 21
15.76250000000001
 31
0.0
  0
LINE
  5
1EA4
330
1A
100
AcDbEntity
  8
ZUWAKU
100
AcDbLine
 10
330.2374951777118
 20
15.86250000000001
 30
0.0
 11
354.4533991968802
 21
15.86250000000001
 31
0.0
  0
LINE
  5
1EA5
330
1A
100
AcDbEntity
  8
ZUWAKU
100
AcDbLine
 10
330.2374951777115
 20
15.96250000000001
 30
0.0
 11
354.4533991968802
 21
15.96250000000001
 31
0.0
  0
TEXT
  5
1EA6
330
1A
100
AcDbEntity
  8
ZUWAKU
100
AcDbText
 10
334.9308627662606
 20
17.16496052870368
 30
0.0
 40
2.799999999999999
  1
　　．　　．　　
 41
0.9
  7
ｽﾀｲﾙ1
100
AcDbText
  0
LINE
  5
1EA7
330
1A
100
AcDbEntity
  8
ZUWAKU
100
AcDbLine
 10
321.7451031717877
 20
82.52784322650004
 30
0.0
 11
381.2478399266661
 21
82.52784322650004
 31
0.0
  0
LINE
  5
1EAC
330
1A
100
AcDbEntity
  8
ZUWAKU
370
    30
100
AcDbLine
 10
321.7451031717877
 20
90.64769486054411
 30
0.0
 11
381.2478399266661
 21
90.64769486054411
 31
0.0
  0
LINE
  5
1EAF
330
1A
100
AcDbEntity
  8
ZUWAKU
100
AcDbLine
 10
321.7451031717877
 20
74.40799159245599
 30
0.0
 11
381.2478399266661
 21
74.40799159245599
 31
0.0
  0
LINE
  5
1EB2
330
1A
100
AcDbEntity
  8
ZUWAKU
100
AcDbLine
 10
321.7451031717877
 20
57.96828832436789
 30
0.0
 11
381.2478399266661
 21
57.96828832436789
 31
0.0
  0
LINE
  5
1EB3
330
1A
100
AcDbEntity
  8
ZUWAKU
100
AcDbLine
 10
321.7451031717877
 20
66.08813995841194
 30
0.0
 11
381.2478399266661
 21
66.08813995841194
 31
0.0
  0
LINE
  5
1EB8
330
1A
100
AcDbEntity
  8
ZUWAKU
100
AcDbLine
 10
321.7451031717877
 20
50.04843669032384
 30
0.0
 11
381.2478399266661
 21
50.04843669032384
 31
0.0
  0
TEXT
  5
1EBC
330
1A
100
AcDbEntity
  8
moji
100
AcDbText
 10
269.8493479087659
 20
9.764960528703703
 30
0.0
 40
2.799999999999999
  1
１/１
 41
0.9
  7
ｽﾀｲﾙ1
100
AcDbText
  0
LINE
  5
1EBD
330
1A
100
AcDbEntity
  8
ZUWAKU
100
AcDbLine
 10
258.42848367168
 20
15.76250000000001
 30
0.0
 11
282.0923718056657
 21
15.76250000000001
 31
0.0
  0
LINE
  5
1EBE
330
1A
100
AcDbEntity
  8
ZUWAKU
100
AcDbLine
 10
258.42848367168
 20
15.86250000000001
 30
0.0
 11
282.0923718056657
 21
15.86250000000001
 31
0.0
  0
LINE
  5
1EBF
330
1A
100
AcDbEntity
  8
ZUWAKU
100
AcDbLine
 10
258.42848367168
 20
15.96250000000001
 30
0.0
 11
282.0923718056657
 21
15.96250000000001
 31
0.0
  0
LINE
  5
1EC0
330
1A
100
AcDbEntity
  8
ZUWAKU
100
AcDbLine
 10
229.6410759081051
 20
23.1625
 30
0.0
 11
229.6410759081053
 21
8.562500000000028
 31
0.0
  0
LINE
  5
1EC1
330
1A
100
AcDbEntity
  8
ZUWAKU
100
AcDbLine
 10
229.7410759081052
 20
23.1625
 30
0.0
 11
229.7410759081052
 21
8.562500000000028
 31
0.0
  0
LINE
  5
1EC2
330
1A
100
AcDbEntity
  8
ZUWAKU
100
AcDbLine
 10
229.5410759081051
 20
23.1625
 30
0.0
 11
229.5410759081051
 21
8.562500000000028
 31
0.0
  0
LINE
  5
1EC3
330
1A
100
AcDbEntity
  8
ZUWAKU
100
AcDbLine
 10
258.3284836716799
 20
23.1625
 30
0.0
 11
258.3284836716801
 21
8.562500000000028
 31
0.0
  0
LINE
  5
1EC4
330
1A
100
AcDbEntity
  8
ZUWAKU
100
AcDbLine
 10
258.42848367168
 20
23.1625
 30
0.0
 11
258.42848367168
 21
8.562500000000028
 31
0.0
  0
LINE
  5
1EC5
330
1A
100
AcDbEntity
  8
ZUWAKU
100
AcDbLine
 10
258.2284836716799
 20
23.1625
 30
0.0
 11
258.2284836716799
 21
8.562500000000028
 31
0.0
  0
TEXT
  5
1EC7
330
1A
100
AcDbEntity
  8
ZUWAKU
100
AcDbText
 10
230.4797984192099
 20
20.19017826919279
 30
0.0
 40
2.0
  1
品番
 41
0.9
  7
ｽﾀｲﾙ1
100
AcDbText
  0
TEXT
  5
1EC8
330
1A
100
AcDbEntity
  8
ZUWAKU
100
AcDbText
 10
259.1672061827849
 20
12.9901782691928
 30
0.0
 40
2.0
  1
縮尺
 41
0.9
  7
ｽﾀｲﾙ1
100
AcDbText
  0
TEXT
  5
1EC9
330
1A
100
AcDbEntity
  8
ZUWAKU
100
AcDbText
 10
259.1672061827847
 20
20.19017826919279
 30
0.0
 40
2.0
  1
用紙
 41
0.9
  7
ｽﾀｲﾙ1
100
AcDbText
  0
TEXT
  5
1ECA
330
1A
100
AcDbEntity
  8
moji
100
AcDbText
 10
269.8493479087659
 20
17.16496052870368
 30
0.0
 40
2.799999999999999
  1
Ａ３
 41
0.9
  7
ｽﾀｲﾙ1
100
AcDbText
  0
LINE
  5
1ECB
330
1A
100
AcDbEntity
  8
ZUWAKU
100
AcDbLine
 10
282.1923718056656
 20
23.1625
 30
0.0
 11
282.1923718056658
 21
8.562500000000028
 31
0.0
  0
LINE
  5
1ECC
330
1A
100
AcDbEntity
  8
ZUWAKU
100
AcDbLine
 10
282.0923718056657
 20
23.1625
 30
0.0
 11
282.0923718056657
 21
8.562500000000028
 31
0.0
  0
LINE
  5
1ECD
330
1A
100
AcDbEntity
  8
ZUWAKU
100
AcDbLine
 10
330.1374951777116
 20
23.1625
 30
0.0
 11
330.1374951777118
 21
8.562500000000028
 31
0.0
  0
LINE
  5
1ECE
330
1A
100
AcDbEntity
  8
ZUWAKU
100
AcDbLine
 10
330.2374951777118
 20
23.1625
 30
0.0
 11
330.2374951777118
 21
8.562500000000028
 31
0.0
  0
LINE
  5
1ECF
330
1A
100
AcDbEntity
  8
ZUWAKU
100
AcDbLine
 10
330.0374951777117
 20
23.1625
 30
0.0
 11
330.0374951777117
 21
8.562500000000028
 31
0.0
  0
LINE
  5
1ED0
330
1A
100
AcDbEntity
  8
ZUWAKU
100
AcDbLine
 10
282.2923718056657
 20
23.1625
 30
0.0
 11
282.2923718056657
 21
8.562500000000028
 31
0.0
  0
TEXT
  5
1ED1
330
1A
100
AcDbEntity
  8
ZUWAKU
100
AcDbText
 10
330.9762176888165
 20
20.19017826919279
 30
0.0
 40
2.0
  1
DATE
 41
0.9
  7
ｽﾀｲﾙ1
100
AcDbText
  0
TEXT
  5
1ED2
330
1A
100
AcDbEntity
  8
moji
100
AcDbText
 10
327.4094708886026
 20
52.77283147935616
 30
0.0
 40
2.799999999999999
  1
クリーム
 41
0.9
  7
ｽﾀｲﾙ1
100
AcDbText
  0
TEXT
  5
1ED3
330
1A
100
AcDbEntity
  8
moji
100
AcDbText
 10
327.4094708886026
 20
60.89268311340021
 30
0.0
 40
2.799999999999999
  1
ココア
 41
0.9
  7
ｽﾀｲﾙ1
100
AcDbText
  0
TEXT
  5
1ED4
330
1A
100
AcDbEntity
  8
moji
100
AcDbText
 10
331.372130193626
 20
84.86322154176363
 30
0.0
 40
2.799999999999999
  1
色
 41
0.9
  7
ｽﾀｲﾙ1
100
AcDbText
  0
TEXT
  5
1ED5
330
1A
100
AcDbEntity
  8
moji
100
AcDbText
 10
327.4094708886026
 20
69.01253474744426
 30
0.0
 40
2.799999999999999
  1
ホワイト
 41
0.9
  7
ｽﾀｲﾙ1
100
AcDbText
  0
TEXT
  5
1ED6
330
1A
100
AcDbEntity
  8
moji
100
AcDbText
 10
327.4094708886026
 20
77.13238638148832
 30
0.0
 40
2.799999999999999
  1
シルバー
 41
0.9
  7
ｽﾀｲﾙ1
100
AcDbText
  0
LINE
  5
1ED7
330
1A
100
AcDbEntity
  8
ZUWAKU
100
AcDbLine
 10
347.6571010835686
 20
34.20873342223574
 30
0.0
 11
347.6571010835685
 21
90.64769486054411
 31
0.0
  0
LINE
  5
1EDD
330
1A
100
AcDbEntity
  8
ZUWAKU
100
AcDbLine
 10
354.4533991968802
 20
23.1625
 30
0.0
 11
354.4533991968802
 21
8.562500000000028
 31
0.0
  0
LINE
  5
1EDE
330
1A
100
AcDbEntity
  8
ZUWAKU
100
AcDbLine
 10
354.5533991968801
 20
23.1625
 30
0.0
 11
354.5533991968801
 21
8.562500000000028
 31
0.0
  0
LINE
  5
1EDF
330
1A
100
AcDbEntity
  8
ZUWAKU
100
AcDbLine
 10
354.65339919688
 20
23.1625
 30
0.0
 11
354.6533991968802
 21
8.562500000000028
 31
0.0
  0
LINE
  5
1EE0
330
1A
100
AcDbEntity
  8
ZUWAKU
100
AcDbLine
 10
354.7533991968801
 20
23.1625
 30
0.0
 11
354.7533991968801
 21
8.562500000000028
 31
0.0
  0
TEXT
  5
1EE2
330
1A
100
AcDbEntity
  8
ZUWAKU
100
AcDbText
 10
358.9366283771588
 20
14.44533825523379
 30
0.0
 40
3.0
  1
積水化学工業株式会社
 41
0.9
  7
ｽﾀｲﾙ1
100
AcDbText
  0
TEXT
  5
1EE3
330
1A
100
AcDbEntity
  8
moji
100
AcDbText
 10
354.247348623766
 20
60.89268311340021
 30
0.0
 40
2.799999999999999
  1
ＳＳ１ＨＥ
 41
0.9
  7
ｽﾀｲﾙ1
100
AcDbText
  0
TEXT
  5
1EE4
330
1A
100
AcDbEntity
  8
moji
100
AcDbText
 10
354.0473486237659
 20
52.77283147935616
 30
0.0
 40
2.799999999999999
  1
ＣＳＳ１Ｈ
 41
0.9
  7
ｽﾀｲﾙ1
100
AcDbText
  0
TEXT
  5
1EE5
330
1A
100
AcDbEntity
  8
moji
100
AcDbText
 10
358.0100079287893
 20
84.86322154176363
 30
0.0
 40
2.799999999999999
  1
品番
 41
0.9
  7
ｽﾀｲﾙ1
100
AcDbText
  0
TEXT
  5
1EE6
330
1A
100
AcDbEntity
  8
moji
100
AcDbText
 10
354.0473486237659
 20
77.13238638148832
 30
0.0
 40
2.799999999999999
  1
ＪSS1H
 41
0.9
  7
ｽﾀｲﾙ1
100
AcDbText
  0
TEXT
  5
1EE7
330
1A
100
AcDbEntity
  8
moji
100
AcDbText
 10
354.247348623766
 20
69.01253474744426
 30
0.0
 40
2.799999999999999
  1
SS1HW
 41
0.9
  7
ｽﾀｲﾙ1
100
AcDbText
  0
DIMENSION
  5
27EA
330
1A
100
AcDbEntity
  8
SUNPOU
  6
Continuous
100
AcDbDimension
  2
*D2
 10
96.85006702617057
 20
48.25317345539929
 30
0.0
 11
166.6341170261705
 21
51.25317345539929
 31
0.0
 70
    32
  1
\U+03C6<>
 71
     5
 42
-1.0
  3
STANDARD
100
AcDbAlignedDimension
 13
236.4181670261705
 23
154.5379403913725
 33
0.0
 14
96.85006702617057
 24
154.5380403913726
 34
0.0
100
AcDbRotatedDimension
1001
ACAD
1000
DSTYLE
1002
{
1070
    41
1040
3.0
1070
    42
1040
3.0
1070
    43
1040
7.0
1070
    44
1040
1.5
1070
    73
1070
     0
1070
    74
1070
     0
1070
    77
1070
     3
1070
   140
1040
4.0
1070
   141
1040
150.0
1070
   147
1040
1.0
1070
   172
1070
     1
1070
   173
1070
     1
1070
   176
1070
   256
1070
   177
1070
   256
1070
   178
1070
   256
1070
   271
1070
     0
1070
   272
1070
     2
1070
     6
1000
OPEN
1070
     7
1000
OPEN
1070
   371
1070
    -1
1070
   372
1070
    -1
1002
}
  0
DIMENSION
  5
27EB
330
1A
100
AcDbEntity
  8
SUNPOU
  6
Continuous
100
AcDbDimension
  2
*D3
 10
109.6552670261706
 20
63.10879103018962
 30
0.0
 11
166.6340170261705
 21
66.10879103018962
 31
0.0
 70
    32
  1
\U+03C6<>
 71
     5
 42
-1.0
  3
STANDARD
100
AcDbAlignedDimension
 13
223.6127670261705
 23
80.98054039137258
 33
0.0
 14
109.6552670261706
 24
80.98064039137259
 34
0.0
100
AcDbRotatedDimension
1001
ACAD
1000
DSTYLE
1002
{
1070
    41
1040
3.0
1070
    42
1040
3.0
1070
    43
1040
7.0
1070
    44
1040
1.5
1070
    73
1070
     0
1070
    74
1070
     0
1070
    77
1070
     3
1070
   140
1040
4.0
1070
   141
1040
150.0
1070
   147
1040
1.0
1070
   172
1070
     1
1070
   173
1070
     1
1070
   176
1070
   256
1070
   177
1070
   256
1070
   178
1070
   256
1070
   271
1070
     0
1070
   272
1070
     2
1070
     6
1000
OPEN
1070
     7
1000
OPEN
1070
   371
1070
    -1
1070
   372
1070
    -1
1002
}
  0
DIMENSION
  5
27EC
330
1A
100
AcDbEntity
  8
SUNPOU
  6
Continuous
100
AcDbDimension
  2
*D4
 10
92.66076702617056
 20
244.8261926400475
 30
0.0
 11
166.6342170261705
 21
247.8261926400474
 31
0.0
 70
    32
  1
\U+03C6<>
 71
     5
 42
-1.0
  3
STANDARD
100
AcDbAlignedDimension
 13
240.6076670261705
 23
211.1763403913726
 33
0.0
 14
92.66076702617056
 24
211.1766403913726
 34
0.0
100
AcDbRotatedDimension
1001
ACAD
1000
DSTYLE
1002
{
1070
    41
1040
3.0
1070
    42
1040
3.0
1070
    43
1040
7.0
1070
    44
1040
1.5
1070
    73
1070
     0
1070
    74
1070
     0
1070
    77
1070
     3
1070
   140
1040
4.0
1070
   141
1040
150.0
1070
   147
1040
1.0
1070
   172
1070
     1
1070
   173
1070
     1
1070
   176
1070
   256
1070
   177
1070
   256
1070
   178
1070
   256
1070
   271
1070
     0
1070
   272
1070
     2
1070
     6
1000
OPEN
1070
     7
1000
OPEN
1070
   371
1070
    -1
1070
   372
1070
    -1
1002
}
  0
DIMENSION
  5
27ED
330
1A
100
AcDbEntity
  8
SUNPOU
  6
Continuous
100
AcDbDimension
  2
*D5
 10
109.0103670261705
 20
230.6975904986532
 30
0.0
 11
166.6342670261705
 21
233.6975904986532
 31
0.0
 70
    32
  1
\U+03C6<>
 71
     5
 42
-1.0
  3
STANDARD
100
AcDbAlignedDimension
 13
224.2581670261706
 23
214.6574403913726
 33
0.0
 14
109.0103670261705
 24
214.6576673707349
 34
0.0
100
AcDbRotatedDimension
1001
ACAD
1000
DSTYLE
1002
{
1070
    41
1040
3.0
1070
    42
1040
3.0
1070
    43
1040
7.0
1070
    44
1040
1.5
1070
    73
1070
     0
1070
    74
1070
     0
1070
    77
1070
     3
1070
   140
1040
4.0
1070
   141
1040
150.0
1070
   147
1040
1.0
1070
   172
1070
     1
1070
   173
1070
     1
1070
   176
1070
   256
1070
   177
1070
   256
1070
   178
1070
   256
1070
   271
1070
     1
1070
   272
1070
     2
1070
     6
1000
OPEN
1070
     7
1000
OPEN
1070
   371
1070
    -1
1070
   372
1070
    -1
1002
}
  0
LINE
  5
27EE
330
1A
100
AcDbEntity
  8
SEIHIN
  6
Continuous
 62
     3
100
AcDbLine
 10
116.6174670261705
 20
91.42394039137258
 30
0.0
 11
166.6338670261705
 21
91.42384039137258
 31
0.0
  0
LINE
  5
27EF
330
1A
100
AcDbEntity
  8
SEIHIN
  6
Continuous
 62
     3
100
AcDbLine
 10
120.0985670261704
 20
82.72114039137258
 30
0.0
 11
166.6337670261705
 21
82.72104039137259
 31
0.0
  0
LINE
  5
27F0
330
1A
100
AcDbEntity
  8
SEIHIN
  6
Continuous
 62
     3
100
AcDbLine
 10
96.58815772031593
 20
209.4359403913727
 30
0.0
 11
166.6342670261706
 21
209.4359403913726
 31
0.0
  0
LINE
  5
27F1
330
1A
100
AcDbEntity
  8
SEIHIN
  6
Continuous
 62
     3
100
AcDbLine
 10
166.6337670261705
 20
138.4132403913726
 30
0.0
 11
109.0101670261706
 21
138.4138403913725
 31
0.0
  0
LINE
  5
27F2
330
1A
100
AcDbEntity
  8
SEIHIN
  6
Continuous
 62
     3
100
AcDbLine
 10
166.6340670261705
 20
189.0625403913726
 30
0.0
 11
109.0099670261705
 21
189.0627403913726
 31
0.0
  0
LINE
  5
27F3
330
1A
100
AcDbEntity
  8
SEIHIN
  6
Continuous
 62
     3
100
AcDbLine
 10
166.6340670261705
 20
192.0301403913726
 30
0.0
 11
102.3334670261705
 21
192.0305403913726
 31
0.0
  0
LINE
  5
27F4
330
1A
100
AcDbEntity
  8
SEIHIN
  6
Continuous
 62
     3
100
AcDbLine
 10
166.6337670261705
 20
80.98054039137258
 30
0.0
 11
109.6552670261706
 21
80.98064039137259
 31
0.0
  0
LINE
  5
27F5
330
1A
100
AcDbEntity
  8
SEIHIN
  6
Continuous
 62
     3
100
AcDbLine
 10
166.6342670261706
 20
214.6573403913726
 30
0.0
 11
96.14186702617054
 21
214.6577403913726
 31
0.0
  0
LINE
  5
27F6
330
1A
100
AcDbEntity
  8
SEIHIN
  6
Continuous
 62
     3
100
AcDbLine
 10
116.6175670261705
 20
131.7551403913726
 30
0.0
 11
166.6342670261706
 21
131.7551403913726
 31
0.0
  0
DIMENSION
  5
27F7
330
1A
100
AcDbEntity
  8
SUNPOU
  6
Continuous
100
AcDbDimension
  2
*D6
 10
62.21102821495219
 20
138.4138403913726
 30
0.0
 11
59.21102821495217
 21
176.5357903913726
 31
0.0
 70
    32
 71
     5
 42
-1.0
  3
STANDARD
100
AcDbAlignedDimension
 13
96.14186702617054
 23
214.6577403913726
 33
0.0
 14
109.0101670261706
 24
138.4138403913725
 34
0.0
 50
90.0
100
AcDbRotatedDimension
1001
ACAD
1000
DSTYLE
1002
{
1070
    41
1040
3.0
1070
    42
1040
3.0
1070
    43
1040
7.0
1070
    44
1040
1.5
1070
    73
1070
     0
1070
    74
1070
     0
1070
    77
1070
     3
1070
   140
1040
4.0
1070
   141
1040
150.0
1070
   147
1040
1.0
1070
   172
1070
     1
1070
   173
1070
     1
1070
   176
1070
   256
1070
   177
1070
   256
1070
   178
1070
   256
1070
   271
1070
     0
1070
   272
1070
     2
1070
     6
1000
OPEN
1070
     7
1000
OPEN
1070
   371
1070
    -1
1070
   372
1070
    -1
1002
}
  0
DIMENSION
  5
27F8
330
1A
100
AcDbEntity
  8
SUNPOU
  6
Continuous
100
AcDbDimension
  2
*D7
 10
75.65780712828814
 20
138.4138403913725
 30
0.0
 11
72.65780712828813
 21
163.7382903913726
 31
0.0
 70
    32
 71
     5
 42
-1.0
  3
STANDARD
100
AcDbAlignedDimension
 13
109.0099670261705
 23
189.0627403913726
 33
0.0
 14
109.0101670261706
 24
138.4138403913725
 34
0.0
 50
90.0
100
AcDbRotatedDimension
1001
ACAD
1000
DSTYLE
1002
{
1070
    41
1040
3.0
1070
    42
1040
3.0
1070
    43
1040
7.0
1070
    44
1040
1.5
1070
    73
1070
     0
1070
    74
1070
     0
1070
    77
1070
     3
1070
   140
1040
4.0
1070
   141
1040
150.0
1070
   147
1040
1.0
1070
   172
1070
     1
1070
   173
1070
     1
1070
   176
1070
   256
1070
   177
1070
   256
1070
   178
1070
   256
1070
   271
1070
     0
1070
   272
1070
     2
1070
     6
1000
OPEN
1070
     7
1000
OPEN
1070
   371
1070
    -1
1070
   372
1070
    -1
1002
}
  0
LINE
  5
27F9
330
1A
100
AcDbEntity
  8
SEIHIN
  6
Continuous
 62
     3
100
AcDbLine
 10
109.0102670261706
 20
189.0627403913726
 30
0.0
 11
109.0101670261706
 21
138.4133403913725
 31
0.0
  0
LINE
  5
27FA
330
1A
100
AcDbEntity
  8
SEIHIN
  6
Continuous
 62
     3
100
AcDbLine
 10
96.38815772031591
 20
179.9993110770525
 30
0.0
 11
96.38815772031595
 21
194.6661651769414
 31
0.0
  0
LINE
  5
27FB
330
1A
100
AcDbEntity
  8
SEIHIN
  6
Continuous
 62
     3
100
AcDbLine
 10
98.44278664817458
 20
194.6661651769414
 30
0.0
 11
98.4427866481746
 21
179.8465403913726
 31
0.0
  0
LINE
  5
27FD
330
1A
100
AcDbEntity
  8
SEIHIN
  6
Continuous
 62
     3
100
AcDbLine
 10
116.6174670261705
 20
91.42394039137258
 30
0.0
 11
116.6175670261705
 21
131.7552403913726
 31
0.0
  0
LINE
  5
27FE
330
1A
100
AcDbEntity
  8
SEIHIN
  6
Continuous
 62
     3
100
AcDbLine
 10
109.6553670261705
 20
131.5050403913726
 30
0.0
 11
109.6552670261706
 21
80.98064039137259
 31
0.0
  0
LINE
  5
27FF
330
1A
100
AcDbEntity
  8
SEIHIN
  6
Continuous
 62
     3
100
AcDbLine
 10
120.0985670261704
 20
80.98064039137259
 30
0.0
 11
120.0985670261704
 21
82.72124039137258
 31
0.0
  0
LINE
  5
2800
330
1A
100
AcDbEntity
  8
SEIHIN
  6
Continuous
 62
     3
100
AcDbLine
 10
116.6174670261705
 20
91.42394039137258
 30
0.0
 11
120.0985670261704
 21
82.72124039137258
 31
0.0
  0
ARC
  5
2801
330
1A
100
AcDbEntity
  8
SEIHIN
  6
Continuous
 62
     3
100
AcDbCircle
 10
98.75262222745739
 20
172.8842955927342
 30
0.0
 40
6.962244798857271
100
AcDbArc
 50
0.0003686703052396
 51
90.00045427887959
  0
LINE
  5
2802
330
1A
100
AcDbEntity
  8
SEIHIN
  6
Continuous
 62
     3
100
AcDbLine
 10
105.7148670261705
 20
171.1437403913726
 30
0.0
 11
96.85016702617055
 21
171.1437403913726
 31
0.0
  0
LINE
  5
2803
330
1A
100
AcDbEntity
  8
SEIHIN
  6
Continuous
 62
     3
100
AcDbLine
 10
105.7146670261705
 20
159.7598403913726
 30
0.0
 11
96.85006702617057
 21
159.7598403913726
 31
0.0
  0
LINE
  5
2804
330
1A
100
AcDbEntity
  8
SEIHIN
  6
Continuous
 62
     3
100
AcDbLine
 10
96.85016702617055
 20
165.9221403913726
 30
0.0
 11
105.7148670261705
 21
165.9221403913726
 31
0.0
  0
LINE
  5
2805
330
1A
100
AcDbEntity
  8
SEIHIN
  6
Continuous
 62
     3
100
AcDbLine
 10
105.7147670261705
 20
154.5380403913726
 30
0.0
 11
96.85006702617057
 21
154.5380403913726
 31
0.0
  0
LINE
  5
2806
330
1A
100
AcDbEntity
  8
SEIHIN
  6
Continuous
 62
     3
100
AcDbLine
 10
102.2334670261705
 20
140.6405403913726
 30
0.0
 11
93.36886702617055
 21
140.6405403913726
 31
0.0
  0
LINE
  5
2807
330
1A
100
AcDbEntity
  8
SEIHIN
  6
Continuous
 62
     3
100
AcDbLine
 10
102.2335670261705
 20
147.6027403913725
 30
0.0
 11
93.36896702617053
 21
147.6027403913725
 31
0.0
  0
LINE
  5
2808
330
1A
100
AcDbEntity
  8
SEIHIN
  6
Continuous
 62
     3
100
AcDbLine
 10
93.36876702617052
 20
140.6405403913726
 30
0.0
 11
105.7145670261705
 21
131.5050403913726
 31
0.0
  0
LINE
  5
2809
330
1A
100
AcDbEntity
  8
SEIHIN
  6
Continuous
 62
     3
100
AcDbLine
 10
93.36896702617053
 20
147.6027403913725
 30
0.0
 11
93.36886702617055
 21
140.6405403913726
 31
0.0
  0
LINE
  5
280A
330
1A
100
AcDbEntity
  8
SEIHIN
  6
Continuous
 62
     3
100
AcDbLine
 10
96.85006702617057
 20
159.7598403913726
 30
0.0
 11
96.85006702617057
 21
154.5380403913726
 31
0.0
  0
LINE
  5
280B
330
1A
100
AcDbEntity
  8
SEIHIN
  6
Continuous
 62
     3
100
AcDbLine
 10
96.85016702617055
 20
171.1437403913726
 30
0.0
 11
96.85016702617055
 21
165.9221403913726
 31
0.0
  0
LINE
  5
280C
330
1A
100
AcDbEntity
  8
SEIHIN
  6
Continuous
 62
     3
100
AcDbLine
 10
98.75266702617052
 20
179.8465403913726
 30
0.0
 11
92.66076702617056
 21
179.8465403913726
 31
0.0
  0
ARC
  5
280D
330
1A
100
AcDbEntity
  8
SEIHIN
  6
Continuous
 62
     3
100
AcDbCircle
 10
102.233469626814
 20
137.159442992016
 30
0.0
 40
3.481097399357513
100
AcDbArc
 50
359.9999571957128
 51
90.00004280428555
  0
LINE
  5
280E
330
1A
100
AcDbEntity
  8
SEIHIN
  6
Continuous
 62
     3
100
AcDbLine
 10
109.0101670261706
 20
138.4133403913725
 30
0.0
 11
116.6175670261705
 21
131.7552403913726
 31
0.0
  0
LINE
  5
280F
330
1A
100
AcDbEntity
  8
SEIHIN
  6
Continuous
 62
     3
100
AcDbLine
 10
109.6553670261705
 20
131.5050403913726
 30
0.0
 11
105.7145670261705
 21
131.5050403913726
 31
0.0
  0
LINE
  5
2810
330
1A
100
AcDbEntity
  8
SEIHIN
  6
Continuous
 62
     3
100
AcDbLine
 10
105.7145670261705
 20
137.1594403913726
 30
0.0
 11
105.7145670261705
 21
131.5050403913726
 31
0.0
  0
LINE
  5
2811
330
1A
100
AcDbEntity
  8
SEIHIN
  6
Continuous
 62
     3
100
AcDbLine
 10
105.7148670261705
 20
165.9221403913726
 30
0.0
 11
105.7146670261705
 21
159.7598403913726
 31
0.0
  0
ARC
  5
2812
330
1A
100
AcDbEntity
  8
SEIHIN
  6
Continuous
 62
     3
100
AcDbCircle
 10
102.2335696268139
 20
151.0838377907291
 30
0.0
 40
3.481097399357577
100
AcDbArc
 50
269.9999571957144
 51
0.0000428042871804
  0
LINE
  5
2813
330
1A
100
AcDbEntity
  8
SEIHIN
  6
Continuous
 62
     3
100
AcDbLine
 10
105.7146670261705
 20
154.5380403913726
 30
0.0
 11
105.7146670261705
 21
151.0838403913726
 31
0.0
  0
LINE
  5
2814
330
1A
100
AcDbEntity
  8
SEIHIN
  6
Continuous
 62
     3
100
AcDbLine
 10
105.7148670261705
 20
172.8843403913726
 30
0.0
 11
105.7148670261705
 21
171.1437403913726
 31
0.0
  0
LINE
  5
2817
330
1A
100
AcDbEntity
  8
SEIHIN
  6
Continuous
 62
     3
100
AcDbLine
 10
92.66076702617056
 20
211.1766403913726
 30
0.0
 11
92.66076702617056
 21
179.8465403913726
 31
0.0
  0
ARC
  5
2818
330
1A
100
AcDbEntity
  8
SEIHIN
  6
Continuous
 62
     3
100
AcDbCircle
 10
96.14186442552711
 20
211.1766429920161
 30
0.0
 40
3.481097399357513
100
AcDbArc
 50
89.99995719571444
 51
180.0000428042872
  0
LINE
  5
2819
330
1A
100
AcDbEntity
  8
SEIHIN
  6
Continuous
 62
     3
100
AcDbLine
 10
100.5928670261705
 20
209.4359403913726
 30
0.0
 11
100.5928670261705
 21
193.7710403913726
 31
0.0
  0
ARC
  5
281C
330
1A
100
AcDbEntity
  8
SEIHIN
  6
Continuous
 62
     3
100
AcDbCircle
 10
156.6047051941578
 20
212.5464780685236
 30
0.0
 40
48.89287518864784
100
AcDbArc
 50
183.6475891930365
 51
204.809836339611
  0
ARC
  5
281D
330
1A
100
AcDbEntity
  8
SEIHIN
  6
Continuous
 62
     3
100
AcDbCircle
 10
121.0224926585341
 20
206.3999407244179
 30
0.0
 40
16.98646577126559
100
AcDbArc
 50
216.6476306190404
 51
237.7719638500237
  0
LINE
  5
281E
330
1A
100
AcDbEntity
  8
SEIHIN
  6
Continuous
 62
     3
100
AcDbLine
 10
107.0554462833798
 20
196.2327175745417
 30
0.0
 11
104.9011172007057
 21
192.0305244185812
 31
0.0
  0
ARC
  5
281F
330
1A
100
AcDbEntity
  8
SEIHIN
  6
Continuous
 62
     3
100
AcDbCircle
 10
102.3334157258862
 20
193.7710890910135
 30
0.0
 40
1.740548700396912
100
AcDbArc
 50
180.0016031058986
 51
270.0016887144747
  0
ARC
  5
2822
330
1A
100
AcDbEntity
  8
SEIHIN
  6
Continuous
 62
     3
100
AcDbCircle
 10
102.3334157258862
 20
207.6953916917318
 30
0.0
 40
1.740548700396927
100
AcDbArc
 50
89.99831128552528
 51
179.9983968941013
  0
LINE
  5
2823
330
1A
100
AcDbEntity
  8
SEIHIN
  6
Continuous
 62
     3
100
AcDbLine
 10
109.0103670261705
 20
214.6576403913726
 30
0.0
 11
109.0103670261705
 21
209.4359403913726
 31
0.0
  0
DIMENSION
  5
2824
330
1A
100
AcDbEntity
  8
SUNPOU
  6
Continuous
100
AcDbDimension
  2
*D8
 10
271.476522962234
 20
80.98054039137258
 30
0.0
 11
268.4765229622339
 21
147.8189903913726
 31
0.0
 70
    32
 71
     5
 42
-1.0
  3
STANDARD
100
AcDbAlignedDimension
 13
237.1265670261705
 23
214.6574403913726
 33
0.0
 14
223.6127670261705
 24
80.98054039137258
 34
0.0
 50
90.0
100
AcDbRotatedDimension
1001
ACAD
1000
DSTYLE
1002
{
1070
    41
1040
3.0
1070
    42
1040
3.0
1070
    43
1040
7.0
1070
    44
1040
1.5
1070
    73
1070
     0
1070
    74
1070
     0
1070
    77
1070
     3
1070
   140
1040
4.0
1070
   141
1040
150.0
1070
   147
1040
1.0
1070
   172
1070
     1
1070
   173
1070
     1
1070
   176
1070
   256
1070
   177
1070
   256
1070
   178
1070
   256
1070
   271
1070
     0
1070
   272
1070
     2
1070
     6
1000
OPEN
1070
     7
1000
OPEN
1070
   371
1070
    -1
1070
   372
1070
    -1
1002
}
  0
LINE
  5
2825
330
1A
100
AcDbEntity
  8
CENTER L
  6
CENTER
 62
     1
 48
5.0
100
AcDbLine
 10
166.6342558326369
 20
222.144690740643
 30
0.0
 11
166.63397860022
 21
73.50810144515427
 31
0.0
  0
LINE
  5
282C
330
1A
100
AcDbEntity
  8
SEIHIN
  6
Continuous
 62
     3
100
AcDbLine
 10
240.6076670261705
 20
211.1763403913726
 30
0.0
 11
240.6076670261705
 21
179.8464403913726
 31
0.0
  0
DIMENSION
  5
282D
330
1A
100
AcDbEntity
  8
SUNPOU
  6
Continuous
100
AcDbDimension
  2
*D9
 10
256.7691086208413
 20
131.5049403913726
 30
0.0
 11
253.7691086208412
 21
106.2427403913726
 31
0.0
 70
    32
 71
     5
 42
-1.0
  3
STANDARD
100
AcDbAlignedDimension
 13
223.6127670261705
 23
80.98054039137258
 33
0.0
 14
227.5535670261705
 24
131.5049403913726
 34
0.0
 50
90.0
100
AcDbRotatedDimension
1001
ACAD
1000
DSTYLE
1002
{
1070
    41
1040
3.0
1070
    42
1040
3.0
1070
    43
1040
7.0
1070
    44
1040
1.5
1070
    73
1070
     0
1070
    74
1070
     0
1070
    77
1070
     3
1070
   140
1040
4.0
1070
   141
1040
150.0
1070
   147
1040
1.0
1070
   172
1070
     1
1070
   173
1070
     1
1070
   176
1070
   256
1070
   177
1070
   256
1070
   178
1070
   256
1070
   271
1070
     0
1070
   272
1070
     2
1070
     6
1000
OPEN
1070
     7
1000
OPEN
1070
   371
1070
    -1
1070
   372
1070
    -1
1002
}
  0
LINE
  5
282E
330
1A
100
AcDbEntity
  8
SEIHIN
  6
Continuous
 62
     3
100
AcDbLine
 10
223.6127670261705
 20
131.5049403913726
 30
0.0
 11
223.6127670261705
 21
80.98054039137258
 31
0.0
  0
LINE
  5
282F
330
1A
100
AcDbEntity
  8
SEIHIN
  6
Continuous
 62
     3
100
AcDbLine
 10
166.6342670261706
 20
80.98054039137258
 30
0.0
 11
223.6127670261705
 21
80.98054039137258
 31
0.0
  0
LINE
  5
2830
330
1A
100
AcDbEntity
  8
SEIHIN
  6
Continuous
 62
     3
100
AcDbLine
 10
239.8993670261705
 20
140.6404403913726
 30
0.0
 11
227.5535670261705
 21
131.5049403913726
 31
0.0
  0
ARC
  5
2831
330
1A
100
AcDbEntity
  8
SEIHIN
  6
Continuous
 62
     3
100
AcDbCircle
 10
231.0347144255271
 20
151.0837877906545
 30
0.0
 40
3.481147399679252
100
AcDbArc
 50
180.0007801389864
 51
270.0008657475592
  0
LINE
  5
2832
330
1A
100
AcDbEntity
  8
SEIHIN
  6
Continuous
 62
     3
100
AcDbLine
 10
166.6342670261706
 20
140.6404403913726
 30
0.0
 11
239.8992670261705
 21
140.6404403913726
 31
0.0
  0
LINE
  5
2833
330
1A
100
AcDbEntity
  8
SEIHIN
  6
Continuous
 62
     3
100
AcDbLine
 10
166.6342670261706
 20
147.6026403913726
 30
0.0
 11
239.8992670261705
 21
147.6026403913726
 31
0.0
  0
ARC
  5
2834
330
1A
100
AcDbEntity
  8
SEIHIN
  6
Continuous
 62
     3
100
AcDbCircle
 10
231.0347144255271
 20
137.1592929920907
 30
0.0
 40
3.481147399679289
100
AcDbArc
 50
89.99913425244084
 51
179.9992198610135
  0
LINE
  5
2835
330
1A
100
AcDbEntity
  8
SEIHIN
  6
Continuous
 62
     3
100
AcDbLine
 10
166.6342670261706
 20
154.5379403913725
 30
0.0
 11
236.4181670261705
 21
154.5379403913725
 31
0.0
  0
LINE
  5
2836
330
1A
100
AcDbEntity
  8
SEIHIN
  6
Continuous
 62
     3
100
AcDbLine
 10
166.6342670261706
 20
159.7596403913726
 30
0.0
 11
236.4181670261705
 21
159.7596403913726
 31
0.0
  0
LINE
  5
2837
330
1A
100
AcDbEntity
  8
SEIHIN
  6
Continuous
 62
     3
100
AcDbLine
 10
236.4181670261705
 20
165.9220403913726
 30
0.0
 11
166.6342670261706
 21
165.9220403913726
 31
0.0
  0
LINE
  5
2838
330
1A
100
AcDbEntity
  8
SEIHIN
  6
Continuous
 62
     3
100
AcDbLine
 10
166.6342670261706
 20
171.1436403913726
 30
0.0
 11
236.4181670261705
 21
171.1436403913726
 31
0.0
  0
LINE
  5
2839
330
1A
100
AcDbEntity
  8
SEIHIN
  6
Continuous
 62
     3
100
AcDbLine
 10
166.6342670261706
 20
179.8464403913726
 30
0.0
 11
240.6076670261705
 21
179.8464403913726
 31
0.0
  0
ARC
  5
283A
330
1A
100
AcDbEntity
  8
SEIHIN
  6
Continuous
 62
     3
100
AcDbCircle
 10
234.5157618248836
 20
172.8842455926594
 30
0.0
 40
6.962194798715098
100
AcDbArc
 50
89.99995719571444
 51
180.0000428042872
  0
LINE
  5
283B
330
1A
100
AcDbEntity
  8
SEIHIN
  6
Continuous
 62
     3
100
AcDbLine
 10
166.6342670261706
 20
131.5049403913726
 30
0.0
 11
227.5535670261705
 21
131.5049403913726
 31
0.0
  0
LINE
  5
283C
330
1A
100
AcDbEntity
  8
SEIHIN
  6
Continuous
 62
     3
100
AcDbLine
 10
227.5535670261705
 20
137.1593403913725
 30
0.0
 11
227.5535670261705
 21
131.5049403913726
 31
0.0
  0
LINE
  5
283D
330
1A
100
AcDbEntity
  8
SEIHIN
  6
Continuous
 62
     3
100
AcDbLine
 10
227.5535670261705
 20
165.9220403913726
 30
0.0
 11
227.5535670261705
 21
159.7597403913726
 31
0.0
  0
LINE
  5
283E
330
1A
100
AcDbEntity
  8
SEIHIN
  6
Continuous
 62
     3
100
AcDbLine
 10
227.5535670261705
 20
154.5379403913725
 30
0.0
 11
227.5535670261705
 21
151.0837403913725
 31
0.0
  0
LINE
  5
283F
330
1A
100
AcDbEntity
  8
SEIHIN
  6
Continuous
 62
     3
100
AcDbLine
 10
227.5535670261705
 20
172.8842403913726
 30
0.0
 11
227.5535670261705
 21
171.1436403913726
 31
0.0
  0
LINE
  5
2840
330
1A
100
AcDbEntity
  8
SEIHIN
  6
Continuous
 62
     3
100
AcDbLine
 10
239.8992670261705
 20
147.6026403913726
 30
0.0
 11
239.8992670261705
 21
140.6404403913726
 31
0.0
  0
LINE
  5
2841
330
1A
100
AcDbEntity
  8
SEIHIN
  6
Continuous
 62
     3
100
AcDbLine
 10
236.4181670261705
 20
159.7596403913726
 30
0.0
 11
236.4181670261705
 21
154.5379403913725
 31
0.0
  0
LINE
  5
2842
330
1A
100
AcDbEntity
  8
SEIHIN
  6
Continuous
 62
     3
100
AcDbLine
 10
236.4181670261705
 20
171.1436403913726
 30
0.0
 11
236.4181670261705
 21
165.9220403913726
 31
0.0
  0
LINE
  5
2844
330
1A
100
AcDbEntity
  8
SEIHIN
  6
Continuous
 62
     3
100
AcDbLine
 10
166.6342670261706
 20
214.6574403913726
 30
0.0
 11
237.1265670261705
 21
214.6574403913726
 31
0.0
  0
ARC
  5
2848
330
1A
100
AcDbEntity
  8
SEIHIN
  6
Continuous
 62
     3
100
AcDbCircle
 10
237.126569626814
 20
211.1763429920161
 30
0.0
 40
3.481097399357542
100
AcDbArc
 50
359.9999571957128
 51
90.00004280428555
  0
LINE
  5
2BB6
330
1A
100
AcDbEntity
  8
SEIHIN
  6
Continuous
 62
     3
100
AcDbLine
 10
107.2965247224389
 20
192.0305095172738
 30
0.0
 11
109.0099670261705
 21
189.0627403913726
 31
0.0
  0
ARC
  5
2F88
330
1A
100
AcDbEntity
  8
SEIHIN
  6
Continuous
 62
     3
100
AcDbCircle
 10
107.2334208110083
 20
196.1414757666059
 30
0.0
 40
0.2
100
AcDbArc
 50
36.64763061904209
 51
152.8572470135514
  0
LINE
  5
2F89
330
1A
100
AcDbEntity
  8
SEIHIN
100
AcDbLine
 10
96.38815772031591
 20
187.1121955873327
 30
0.0
 11
98.4427866481746
 21
190.183974960311
 31
0.0
  0
LINE
  5
2F8A
330
1A
100
AcDbEntity
  8
SEIHIN
  6
Continuous
 62
     3
100
AcDbLine
 10
96.38815772031591
 20
194.6661651769414
 30
0.0
 11
98.44278664817458
 21
194.6661651769414
 31
0.0
  0
LINE
  5
2FA2
330
1A
100
AcDbEntity
  8
SEIHIN
  6
Continuous
 62
     3
100
AcDbLine
 10
96.38815772031591
 20
194.6661651769414
 30
0.0
 11
96.38815772031591
 21
209.2359403913727
 31
0.0
  0
ARC
  5
2FA3
330
1A
100
AcDbEntity
  8
SEIHIN
  6
Continuous
 62
     3
100
AcDbCircle
 10
96.58815772031593
 20
209.2359403913727
 30
0.0
 40
0.2
100
AcDbArc
 50
90.0
 51
180.0
  0
DIMENSION
  5
2FB1
330
1A
100
AcDbEntity
  8
SUNPOU
100
AcDbDimension
  2
*D10
 10
130.3985835336725
 20
149.6576403916158
 30
0.0
 11
127.3269665014879
 21
172.713677605788
 31
0.0
 70
   160
  1
差し込み長さ<>
 71
     5
 42
-1.0
  3
STANDARD
100
AcDbAlignedDimension
 13
109.0103670261705
 23
214.6576673707349
 33
0.0
 14
109.0101892264335
 24
149.6576403916158
 34
0.0
 50
90.0
100
AcDbRotatedDimension
1001
ACAD
1000
DSTYLE
1002
{
1070
   287
1070
     5
1070
   287
1070
     5
1070
   287
1070
     5
1070
    41
1040
3.0
1070
    42
1040
3.0
1070
    43
1040
7.0
1070
    44
1040
1.5
1070
    73
1070
     0
1070
    74
1070
     0
1070
    77
1070
     3
1070
   140
1040
3.0
1070
   141
1040
150.0
1070
   147
1040
1.0
1070
   172
1070
     1
1070
   173
1070
     1
1070
   176
1070
   256
1070
   177
1070
   256
1070
   178
1070
   256
1070
   271
1070
     0
1070
   272
1070
     0
1070
   279
1070
     2
1070
   341
1005
B2
1070
     6
1000
OPEN
1070
     7
1000
OPEN
1070
   371
1070
    -1
1070
   372
1070
    -1
1002
}
  0
INSERT
  5
3154
330
1A
100
AcDbEntity
  8
ﾊｯﾁﾝｸﾞ
  6
Continuous
100
AcDbBlockReference
  2
*X11
 10
0.0
 20
0.0
 30
0.0
1001
ACAD
1000
HATCH
1002
{
1070
    19
1000
_USER
1040
3.0
1040
2.356194490192344
1000
R14_HATCH_DATA
1000
3154
1011
1.0
1021
0.0
1031
0.0
1011
0.0
1021
1.0
1031
0.0
1011
0.0
1021
0.0
1031
1.0
1040
0.0
1010
0.0
1020
0.0
1030
1.0
1000
_USER
1070
     0
1070
     0
1071
        1
1071
       33
1071
       10
1070
     1
1040
109.0103670261706
1040
214.6576673707349
1040
96.14186702617054
1040
214.6577403913726
1070
     2
1040
96.14186442552714
1040
211.176642992016
1040
3.48109739935757
1040
1.570795579719161
1040
3.14159340066552
1070
     1
1070
     1
1040
92.66076702617056
1040
211.1766403913726
1040
92.66076702617056
1040
179.8465403913726
1070
     1
1040
92.66076702617056
1040
179.8465403913726
1040
98.4427866481746
1040
179.8465403913726
1070
     1
1040
98.4427866481746
1040
179.8465403913726
1040
98.4427866481746
1040
194.6661651769414
1070
     1
1040
98.4427866481746
1040
194.6661651769414
1040
96.38815772031591
1040
194.6661651769414
1070
     1
1040
96.38815772031591
1040
194.6661651769414
1040
96.38815772031591
1040
209.2359403913727
1070
     2
1040
96.58815772031591
1040
209.2359403913727
1040
0.1999999999999886
1040
3.141592653589793
1040
4.712388980384689
1070
     0
1070
     1
1040
96.58815772031591
1040
209.4359403913727
1040
109.0103670261705
1040
209.4359403913727
1070
     1
1040
109.0103670261705
1040
209.4359403913727
1040
109.0103670261705
1040
214.6576403913726
1071
        0
1070
     0
1070
     0
1040
2.356194490192344
1040
3.0
1070
     0
1070
     1
1040
2.356194490192344
1040
292.5726765839217
1040
0.0
1040
-2.121320343559642
1040
-2.121320343559642
1070
     0
1071
        1
1040
292.5726765839217
1040
0.0
1040
0.0
1002
}
  0
INSERT
  5
3155
330
1A
100
AcDbEntity
  8
ﾊｯﾁﾝｸﾞ
  6
Continuous
100
AcDbBlockReference
  2
*X12
 10
0.0
 20
-0.875
 30
0.0
1001
ACAD
1000
HATCH
1002
{
1070
    19
1000
_USER
1040
1.0
1040
1.570796326794896
1000
R14_HATCH_DATA
1000
3155
1011
1.0
1021
-0.875
1031
0.0
1011
0.0
1021
0.125
1031
0.0
1011
0.0
1021
-0.875
1031
1.0
1040
0.0
1010
0.0
1020
0.0
1030
1.0
1000
_USER
1070
     0
1070
     0
1071
        1
1071
       33
1071
       10
1070
     2
1040
121.022492658534
1040
207.274940724418
1040
16.98646577126561
1040
2.133281669063727
1040
2.501970836232837
1070
     0
1070
     2
1040
107.2334208110083
1040
197.0164757666058
1040
0.1999999999999749
1040
0.6396218173569137
1040
2.667862245920676
1070
     1
1070
     1
1040
107.0554462833798
1040
197.1077175745417
1040
104.9011172007057
1040
192.9055244185812
1070
     1
1040
104.9011172007057
1040
192.9055244185812
1040
102.3334670261706
1040
192.9055403913726
1070
     2
1040
102.3334157258861
1040
194.6460890910135
1040
1.740548700396899
1040
1.570766853167163
1040
3.141564674113578
1070
     0
1070
     1
1040
100.5928670261705
1040
194.6460403913725
1040
100.5928670261705
1040
208.5609403913726
1070
     2
1040
102.3428670261705
1040
208.5609403913726
1040
1.75
1040
3.141592653589793
1040
4.712388980384689
1070
     0
1070
     1
1040
102.3428670261705
1040
210.3109403913726
1040
107.8108756706236
1040
210.3109403913726
1070
     2
1040
156.6047051941577
1040
213.4214780685234
1040
48.89287518864772
1040
3.205255094768441
1040
3.574605984596941
1070
     1
1070
     1
1040
112.2244503418105
1040
192.9054788617239
1040
111.9638707014694
1040
192.905480482733
1071
        0
1070
     0
1070
     0
1040
1.570796326794896
1040
1.0
1070
     0
1070
     1
1040
1.570796326794896
1040
245.1751502769903
1040
0.8749999999999715
1040
-1.0
1040
0.0000000000000001
1070
     0
1071
        1
1040
245.1751502769903
1040
0.8749999999999715
1040
0.0
1002
}
  0
INSERT
  5
3156
330
1A
100
AcDbEntity
  8
ﾊｯﾁﾝｸﾞ
  6
Continuous
100
AcDbBlockReference
  2
*X13
 10
0.0
 20
0.0
 30
0.0
1001
ACAD
1000
HATCH
1002
{
1070
    19
1000
_USER
1040
3.0
1040
0.7853981633974483
1000
R14_HATCH_DATA
1000
3156
1011
1.0
1021
0.0
1031
0.0
1011
0.0
1021
1.0
1031
0.0
1011
0.0
1021
0.0
1031
1.0
1040
0.0
1010
0.0
1020
0.0
1030
1.0
1000
_USER
1070
     0
1070
     0
1071
        1
1071
       33
1071
       32
1070
     1
1040
109.0102670261706
1040
189.0627403913726
1040
109.0101670261706
1040
138.4133403913725
1070
     1
1040
109.0101670261706
1040
138.4133403913725
1040
116.6175670261705
1040
131.7552403913726
1070
     1
1040
116.6175670261705
1040
131.7552403913726
1040
116.6174670261705
1040
91.42394039137258
1070
     1
1040
116.6174670261705
1040
91.42394039137258
1040
120.0985670261704
1040
82.72124039137258
1070
     1
1040
120.0985670261704
1040
82.72124039137258
1040
120.0985670261704
1040
80.98062206288027
1070
     1
1040
120.0985670261704
1040
80.98062206288027
1040
109.6552670261706
1040
80.98064039137259
1070
     1
1040
109.6552670261706
1040
80.98064039137259
1040
109.6553670261705
1040
131.5050403913726
1070
     1
1040
109.6553670261705
1040
131.5050403913726
1040
105.7145670261705
1040
131.5050403913726
1070
     1
1040
105.7145670261705
1040
131.5050403913726
1040
105.7145670261705
1040
137.1594403913726
1070
     2
1040
102.2334696268138
1040
137.1594429920159
1040
3.481097399357613
1040
6.283184560103859
1040
7.853982381050213
1070
     1
1070
     1
1040
102.2334670261705
1040
140.6405403913726
1040
93.36886702617055
1040
140.6405403913726
1070
     1
1040
93.36886702617055
1040
140.6405403913726
1040
93.36896702617053
1040
147.6027403913725
1070
     1
1040
93.36896702617053
1040
147.6027403913725
1040
102.2335670261706
1040
147.6027403913725
1070
     2
1040
102.2335696268139
1040
151.0838377907291
1040
3.481097399357599
1040
4.71238823330898
1040
6.283186054255337
1070
     1
1070
     1
1040
105.7146670261705
1040
151.0838403913726
1040
105.7146670261705
1040
154.5380403913726
1070
     1
1040
105.7146670261705
1040
154.5380403913726
1040
96.85006702617057
1040
154.5380403913726
1070
     1
1040
96.85006702617057
1040
154.5380403913726
1040
96.85006702617057
1040
159.7598403913726
1070
     1
1040
96.85006702617057
1040
159.7598403913726
1040
105.7146670261705
1040
159.7598403913726
1070
     1
1040
105.7146670261705
1040
159.7598403913726
1040
105.7148670261705
1040
165.9221403913726
1070
     1
1040
105.7148670261705
1040
165.9221403913726
1040
96.85016702617055
1040
165.9221403913726
1070
     1
1040
96.85016702617055
1040
165.9221403913726
1040
96.85016702617055
1040
171.1437403913726
1070
     1
1040
96.85016702617055
1040
171.1437403913726
1040
105.7148670261705
1040
171.1437403913726
1070
     1
1040
105.7148670261705
1040
171.1437403913726
1040
105.7148670261705
1040
172.8465403913726
1070
     2
1040
98.71486702617051
1040
172.8465403913726
1040
7.0
1040
0.0
1040
1.570796326794908
1070
     1
1070
     1
1040
98.71486702617042
1040
179.8465403913726
1040
96.38815772031591
1040
179.8465403913726
1070
     1
1040
96.38815772031591
1040
179.8465403913726
1040
96.38815772031591
1040
209.2359403913727
1070
     2
1040
96.58815772031591
1040
209.2359403913727
1040
0.1999999999999957
1040
3.141592653589793
1040
4.712388980384725
1070
     0
1070
     1
1040
96.58815772031593
1040
209.4359403913727
1040
100.5928670261705
1040
209.4359403913727
1070
     1
1040
100.5928670261705
1040
209.4359403913727
1040
100.5928670261705
1040
193.7710403913726
1070
     2
1040
102.3334157258861
1040
193.7710890910135
1040
1.740548700396898
1040
3.141620633066007
1040
4.712418454012422
1070
     1
1070
     1
1040
102.3334670261706
1040
192.0305403913726
1040
107.2965247224389
1040
192.0305095172738
1070
     1
1040
107.2965247224389
1040
192.0305095172738
1040
109.0102670251447
1040
189.0622207779072
1071
        0
1070
     0
1070
     0
1040
0.7853981633974483
1040
3.0
1070
     0
1070
     1
1040
0.7853981633974483
1040
158.6374007299171
1040
0.0
1040
-2.121320343559642
1040
2.121320343559642
1070
     0
1071
        1
1040
158.6374007299171
1040
0.0
1040
0.0
1002
}
  0
LINE
  5
332D
330
1A
100
AcDbEntity
  8
ZUWAKU
370
    30
100
AcDbLine
 10
321.7451031717876
 20
34.20873342223574
 30
0.0
 11
381.2478399266661
 21
34.20873342223574
 31
0.0
  0
TEXT
  5
332E
330
1A
100
AcDbEntity
  8
moji
100
AcDbText
 10
327.4094708886026
 20
44.8529798453121
 30
0.0
 40
2.799999999999999
  1
タフグレー
 41
0.9
  7
ｽﾀｲﾙ1
100
AcDbText
  0
TEXT
  5
332F
330
1A
100
AcDbEntity
  8
moji
100
AcDbText
 10
354.0473486237659
 20
44.8529798453121
 30
0.0
 40
2.799999999999999
  1
ＧＳＳ１Ｈ
 41
0.9
  7
ｽﾀｲﾙ1
100
AcDbText
  0
LINE
  5
3332
330
1A
100
AcDbEntity
  8
ZUWAKU
370
    30
100
AcDbLine
 10
321.7451031717877
 20
90.64769486054411
 30
0.0
 11
321.7451031717877
 21
34.20873342223574
 31
0.0
  0
LINE
  5
3333
330
1A
100
AcDbEntity
  8
ZUWAKU
370
    30
100
AcDbLine
 10
381.2478399266661
 20
90.64769486054411
 30
0.0
 11
381.2478399266661
 21
34.20873342223574
 31
0.0
  0
LINE
  5
3389
330
1A
100
AcDbEntity
  8
ZUWAKU
100
AcDbLine
 10
321.7451031717877
 20
42.12858505627979
 30
0.0
 11
381.2478399266661
 21
42.12858505627979
 31
0.0
  0
TEXT
  5
338A
330
1A
100
AcDbEntity
  8
moji
100
AcDbText
 10
327.4094708886026
 20
36.93312821126806
 30
0.0
 40
2.799999999999999
  1
グレー
 41
0.9
  7
ｽﾀｲﾙ1
100
AcDbText
  0
TEXT
  5
338B
330
1A
100
AcDbEntity
  8
moji
100
AcDbText
 10
354.0473486237659
 20
36.93312821126806
 30
0.0
 40
2.799999999999999
  1
ＳＳ１Ｈ
 41
0.9
  7
ｽﾀｲﾙ1
100
AcDbText
  0
VIEWPORT
  5
22
102
{ACAD_XDICTIONARY
360
33D8
102
}
330
17
100
AcDbEntity
 67
     1
  8
0
100
AcDbViewport
 10
313.6808219178083
 20
148.5
 30
0.0
 40
627.3616438356165
 41
297.0
 68
     2
 69
     1
 12
313.6808219178083
 22
148.5
 13
0.0
 23
0.0
 14
1.0
 24
1.0
 15
10.0
 25
10.0
 16
0.0
 26
0.0
 36
1.0
 17
0.0
 27
0.0
 37
0.0
 42
50.0
 43
0.0
 44
0.0
 45
297.0
 50
0.0
 51
0.0
 72
   100
 90
    32768
  1

281
     0
 71
     1
 74
     0
110
0.0
120
0.0
130
0.0
111
1.0
121
0.0
131
0.0
112
0.0
122
1.0
132
0.0
 79
     0
146
0.0
  0
VIEWPORT
  5
64
102
{ACAD_XDICTIONARY
360
33DA
102
}
330
17
100
AcDbEntity
 67
     1
  8
VIEWPORT
100
AcDbViewport
 10
210.0
 20
148.5
 30
0.0
 40
420.0
 41
297.0
 68
     1
 69
     2
 12
210.0
 22
148.5
 13
0.0
 23
0.0
 14
5.0
 24
5.0
 15
0.0
 25
0.0
 16
0.0
 26
0.0
 36
1.0
 17
0.0
 27
0.0
 37
0.0
 42
50.0
 43
0.0
 44
0.0
 45
302.9399999999999
 50
0.0
 51
0.0
 72
   100
 90
    32768
  1

281
     0
 71
     1
 74
     0
110
0.0
120
0.0
130
0.0
111
1.0
121
0.0
131
0.0
112
0.0
122
1.0
132
0.0
 79
     0
146
0.0
  0
ENDSEC
  0
SECTION
  2
OBJECTS
  0
DICTIONARY
  5
C
330
0
100
AcDbDictionary
281
     1
  3
ACAD_COLOR
350
330B
  3
ACAD_GROUP
350
D
  3
ACAD_LAYOUT
350
291
  3
ACAD_MATERIAL
350
32D9
  3
ACAD_MLEADERSTYLE
350
3320
  3
ACAD_MLINESTYLE
350
E
  3
ACAD_PLOTSETTINGS
350
292
  3
ACAD_PLOTSTYLENAME
350
28F
  3
ACAD_SCALELIST
350
330E
  3
ACAD_TABLESTYLE
350
330C
  3
ACAD_VISUALSTYLE
350
32F2
  3
ACDB_RECOMPOSE_DATA
350
33D6
  3
AcDbVariableDictionary
350
2CA2
  3
DWGPROPS
350
33D7
  0
DICTIONARY
  5
3338
330
8
100
AcDbDictionary
280
     1
281
     1
  0
DICTIONARY
  5
2D8
330
1A
100
AcDbDictionary
280
     1
281
     1
  3
ACAD_LAYOUTSELFREF
360
32AD
  0
DICTIONARY
  5
2D6
330
17
100
AcDbDictionary
280
     1
281
     1
  3
ACAD_LAYOUTSELFREF
360
32AC
  0
DICTIONARY
  5
33D8
330
22
100
AcDbDictionary
280
     1
281
     1
  3
ACAD_XREC_ROUNDTRIP
360
33D9
  0
DICTIONARY
  5
33DA
330
64
100
AcDbDictionary
280
     1
281
     1
  3
ACAD_XREC_ROUNDTRIP
360
33DB
  0
DICTIONARY
  5
330B
102
{ACAD_REACTORS
330
C
102
}
330
C
100
AcDbDictionary
281
     1
  0
DICTIONARY
  5
D
102
{ACAD_REACTORS
330
C
102
}
330
C
100
AcDbDictionary
281
     1
  0
DICTIONARY
  5
291
102
{ACAD_REACTORS
330
C
102
}
330
C
100
AcDbDictionary
281
     1
  3
Model
350
293
  3
ﾚｲｱｳﾄ1
350
294
  0
DICTIONARY
  5
32D9
102
{ACAD_REACTORS
330
C
102
}
330
C
100
AcDbDictionary
281
     1
  3
ByBlock
350
32E2
  3
ByLayer
350
32DA
  3
Global
350
32EA
  0
DICTIONARY
  5
3320
102
{ACAD_REACTORS
330
C
102
}
330
C
100
AcDbDictionary
281
     1
  3
Standard
350
3321
  0
DICTIONARY
  5
E
102
{ACAD_REACTORS
330
C
102
}
330
C
100
AcDbDictionary
281
     1
  3
STANDARD
350
13
  0
DICTIONARY
  5
292
102
{ACAD_REACTORS
330
C
102
}
330
C
100
AcDbDictionary
281
     1
  0
ACDBDICTIONARYWDFLT
  5
28F
102
{ACAD_REACTORS
330
C
102
}
330
C
100
AcDbDictionary
281
     1
  3
Normal
350
290
100
AcDbDictionaryWithDefault
340
290
  0
DICTIONARY
  5
330E
102
{ACAD_REACTORS
330
C
102
}
330
C
100
AcDbDictionary
281
     1
  3
A0
350
330F
  3
A1
350
3310
  3
A2
350
3311
  3
A3
350
3312
  3
A4
350
3313
  3
A5
350
3314
  3
A6
350
3315
  3
A7
350
3316
  3
A8
350
3317
  3
A9
350
3318
  3
B0
350
3319
  3
B1
350
331A
  3
B2
350
331B
  3
B3
350
331C
  3
B4
350
331D
  3
B5
350
331E
  3
B6
350
331F
  0
DICTIONARY
  5
330C
102
{ACAD_REACTORS
330
C
102
}
330
C
100
AcDbDictionary
281
     1
  3
Standard
350
330D
  0
DICTIONARY
  5
32F2
102
{ACAD_REACTORS
330
C
102
}
330
C
100
AcDbDictionary
281
     1
  3
2dWireframe
350
32F8
  3
Basic
350
32F7
  3
Brighten
350
32FE
  3
ColorChange
350
3302
  3
Conceptual
350
32FB
  3
Dim
350
32FD
  3
EdgeColorOff
350
330A
  3
Facepattern
350
3301
  3
Flat
350
32F3
  3
FlatWithEdges
350
32F4
  3
Gouraud
350
32F5
  3
GouraudWithEdges
350
32F6
  3
Hidden
350
32FA
  3
JitterOff
350
3308
  3
Linepattern
350
3300
  3
OverhangOff
350
3309
  3
Realistic
350
32FC
  3
Shaded
350
3307
  3
Shaded with edges
350
3306
  3
Shades of Gray
350
3303
  3
Sketchy
350
3304
  3
Thicken
350
32FF
  3
Wireframe
350
32F9
  3
X-Ray
350
3305
  0
XRECORD
  5
33D6
102
{ACAD_REACTORS
330
C
102
}
330
C
100
AcDbXrecord
280
     1
 90
        1
330
2FB1
330
330D
  0
DICTIONARY
  5
2CA2
102
{ACAD_REACTORS
330
C
102
}
330
C
100
AcDbDictionary
281
     1
  3
CANNOSCALE
350
3379
  3
CMLEADERSTYLE
350
3378
  3
CTABLESTYLE
350
3377
  3
DIMASSOC
350
337B
  3
INDEXCTL
350
337A
  3
SORTENTS
350
2CA3
  3
XCLIPFRAME
350
33D4
  0
XRECORD
  5
33D7
102
{ACAD_REACTORS
330
C
102
}
330
C
100
AcDbXrecord
280
     1
  1
DWGPROPS COOKIE
  2

  3

  4

  6

  7

  8
furukawa011
  9

300
=
301
=
302
=
303
=
304
=
305
=
306
=
307
=
308
=
309
=
 40
0.0811427893518519
 41
2450994.350997107
 42
2458306.576182859
  1

 90
        0
  0
XRECORD
  5
32AD
102
{ACAD_REACTORS
330
2D8
102
}
330
2D8
100
AcDbXrecord
280
     1
340
1A
  0
XRECORD
  5
32AC
102
{ACAD_REACTORS
330
2D6
102
}
330
2D6
100
AcDbXrecord
280
     1
340
17
  0
XRECORD
  5
33D9
102
{ACAD_REACTORS
330
33D8
102
}
330
33D8
100
AcDbXrecord
280
     1
102
SHADEPLOT
 70
     0
  0
XRECORD
  5
33DB
102
{ACAD_REACTORS
330
33DA
102
}
330
33DA
100
AcDbXrecord
280
     1
102
SHADEPLOT
 70
     0
  0
LAYOUT
  5
293
102
{ACAD_XDICTIONARY
360
33DC
102
}
102
{ACAD_REACTORS
330
291
102
}
330
291
100
AcDbPlotSettings
  1

  2
Acrobat Distiller
  4
A3
  6

 40
3.174999952316284
 41
3.174999952316284
 42
3.17498779296875
 43
3.17498779296875
 44
297.0318298339844
 45
420.1583251953125
 46
0.0
 47
0.0
 48
0.0
 49
0.0
140
0.0
141
0.0
142
1.0
143
1.0
 70
 11952
 72
     1
 73
     1
 74
     2
  7
print.ctb
 75
    16
147
1.0
148
0.0
149
0.0
100
AcDbLayout
  1
Model
 70
     1
 71
     0
 10
0.0
 20
0.0
 11
12.0
 21
9.0
 12
0.0
 22
0.0
 32
0.0
 14
0.0
 24
0.0
 34
0.0
 15
0.0
 25
0.0
 35
0.0
146
0.0
 13
0.0
 23
0.0
 33
0.0
 16
1.0
 26
0.0
 36
0.0
 17
0.0
 27
1.0
 37
0.0
 76
     0
330
1A
331
3280
  0
LAYOUT
  5
294
102
{ACAD_XDICTIONARY
360
33DE
102
}
102
{ACAD_REACTORS
330
291
102
}
330
291
100
AcDbPlotSettings
  1

  2
Acrobat Distiller
  4

  6

 40
0.0
 41
0.0
 42
0.0
 43
0.0
 44
0.0
 45
0.0
 46
0.0
 47
0.0
 48
0.0
 49
0.0
140
0.0
141
0.0
142
1.0
143
1.0
 70
   688
 72
     0
 73
     0
 74
     5
  7
print.ctb
 75
    16
147
1.0
148
0.0
149
0.0
100
AcDbLayout
  1
ﾚｲｱｳﾄ1
 70
     1
 71
     1
 10
0.0
 20
0.0
 11
420.0
 21
297.0
 12
0.0
 22
0.0
 32
0.0
 14
0.0
 24
0.0
 34
0.0
 15
420.0
 25
297.0
 35
0.0
146
0.0
 13
0.0
 23
0.0
 33
0.0
 16
1.0
 26
0.0
 36
0.0
 17
0.0
 27
1.0
 37
0.0
 76
     0
330
17
331
64
  0
MATERIAL
  5
32E2
102
{ACAD_XDICTIONARY
360
32E3
102
}
102
{ACAD_REACTORS
330
32D9
102
}
330
32D9
100
AcDbMaterial
  1
ByBlock
 72
     0
 43
0.0208333333333333
 43
0.0
 43
0.0
 43
0.0
 43
0.0
 43
0.0208333333333333
 43
0.0
 43
0.0
 43
0.0
 43
0.0
 43
1.0
 43
0.0
 43
0.0
 43
0.0
 43
0.0
 43
1.0
 77
     0
 47
0.0208333333333333
 47
0.0
 47
0.0
 47
0.0
 47
0.0
 47
0.0208333333333333
 47
0.0
 47
0.0
 47
0.0
 47
0.0
 47
1.0
 47
0.0
 47
0.0
 47
0.0
 47
0.0
 47
1.0
171
     0
 49
0.0208333333333333
 49
0.0
 49
0.0
 49
0.0
 49
0.0
 49
0.0208333333333333
 49
0.0
 49
0.0
 49
0.0
 49
0.0
 49
1.0
 49
0.0
 49
0.0
 49
0.0
 49
0.0
 49
1.0
175
     0
142
0.0208333333333333
142
0.0
142
0.0
142
0.0
142
0.0
142
0.0208333333333333
142
0.0
142
0.0
142
0.0
142
0.0
142
1.0
142
0.0
142
0.0
142
0.0
142
0.0
142
1.0
179
     0
144
0.0208333333333333
144
0.0
144
0.0
144
0.0
144
0.0
144
0.0208333333333333
144
0.0
144
0.0
144
0.0
144
0.0
144
1.0
144
0.0
144
0.0
144
0.0
144
0.0
144
1.0
147
0.0208333333333333
147
0.0
147
0.0
147
0.0
147
0.0
147
0.0208333333333333
147
0.0
147
0.0
147
0.0
147
0.0
147
1.0
147
0.0
147
0.0
147
0.0
147
0.0
147
1.0
  0
MATERIAL
  5
32DA
102
{ACAD_XDICTIONARY
360
32DB
102
}
102
{ACAD_REACTORS
330
32D9
102
}
330
32D9
100
AcDbMaterial
  1
ByLayer
 72
     0
 43
0.0208333333333333
 43
0.0
 43
0.0
 43
0.0
 43
0.0
 43
0.0208333333333333
 43
0.0
 43
0.0
 43
0.0
 43
0.0
 43
1.0
 43
0.0
 43
0.0
 43
0.0
 43
0.0
 43
1.0
 77
     0
 47
0.0208333333333333
 47
0.0
 47
0.0
 47
0.0
 47
0.0
 47
0.0208333333333333
 47
0.0
 47
0.0
 47
0.0
 47
0.0
 47
1.0
 47
0.0
 47
0.0
 47
0.0
 47
0.0
 47
1.0
171
     0
 49
0.0208333333333333
 49
0.0
 49
0.0
 49
0.0
 49
0.0
 49
0.0208333333333333
 49
0.0
 49
0.0
 49
0.0
 49
0.0
 49
1.0
 49
0.0
 49
0.0
 49
0.0
 49
0.0
 49
1.0
175
     0
142
0.0208333333333333
142
0.0
142
0.0
142
0.0
142
0.0
142
0.0208333333333333
142
0.0
142
0.0
142
0.0
142
0.0
142
1.0
142
0.0
142
0.0
142
0.0
142
0.0
142
1.0
179
     0
144
0.0208333333333333
144
0.0
144
0.0
144
0.0
144
0.0
144
0.0208333333333333
144
0.0
144
0.0
144
0.0
144
0.0
144
1.0
144
0.0
144
0.0
144
0.0
144
0.0
144
1.0
147
0.0208333333333333
147
0.0
147
0.0
147
0.0
147
0.0
147
0.0208333333333333
147
0.0
147
0.0
147
0.0
147
0.0
147
1.0
147
0.0
147
0.0
147
0.0
147
0.0
147
1.0
  0
MATERIAL
  5
32EA
102
{ACAD_XDICTIONARY
360
32EB
102
}
102
{ACAD_REACTORS
330
32D9
102
}
330
32D9
100
AcDbMaterial
  1
Global
 72
     0
 43
0.0208333333333333
 43
0.0
 43
0.0
 43
0.0
 43
0.0
 43
0.0208333333333333
 43
0.0
 43
0.0
 43
0.0
 43
0.0
 43
1.0
 43
0.0
 43
0.0
 43
0.0
 43
0.0
 43
1.0
 77
     0
 47
0.0208333333333333
 47
0.0
 47
0.0
 47
0.0
 47
0.0
 47
0.0208333333333333
 47
0.0
 47
0.0
 47
0.0
 47
0.0
 47
1.0
 47
0.0
 47
0.0
 47
0.0
 47
0.0
 47
1.0
171
     0
 49
0.0208333333333333
 49
0.0
 49
0.0
 49
0.0
 49
0.0
 49
0.0208333333333333
 49
0.0
 49
0.0
 49
0.0
 49
0.0
 49
1.0
 49
0.0
 49
0.0
 49
0.0
 49
0.0
 49
1.0
175
     0
142
0.0208333333333333
142
0.0
142
0.0
142
0.0
142
0.0
142
0.0208333333333333
142
0.0
142
0.0
142
0.0
142
0.0
142
1.0
142
0.0
142
0.0
142
0.0
142
0.0
142
1.0
179
     0
144
0.0208333333333333
144
0.0
144
0.0
144
0.0
144
0.0
144
0.0208333333333333
144
0.0
144
0.0
144
0.0
144
0.0
144
1.0
144
0.0
144
0.0
144
0.0
144
0.0
144
1.0
147
0.0208333333333333
147
0.0
147
0.0
147
0.0
147
0.0
147
0.0208333333333333
147
0.0
147
0.0
147
0.0
147
0.0
147
1.0
147
0.0
147
0.0
147
0.0
147
0.0
147
1.0
  0
MLEADERSTYLE
  5
3321
102
{ACAD_REACTORS
330
3320
102
}
330
3320
100
AcDbMLeaderStyle
170
     2
171
     1
172
     0
 90
        2
 40
0.0
 41
0.0
173
     1
 91
-1056964608
340
14
 92
       -2
290
     1
 42
2.0
291
     1
 43
0.36
  3
Standard
 44
4.0
300

342
10
174
     1
178
     6
175
     1
176
     0
 93
-1056964608
 45
4.0
292
     0
297
     0
 46
4.0
 94
-1056964608
 47
1.0
 49
1.0
140
1.0
293
     1
141
0.0
294
     1
177
     0
142
1.0
295
     0
296
     0
143
0.125
1001
ACAD_MLEADERVER
1070
     2
  0
MLINESTYLE
  5
13
102
{ACAD_REACTORS
330
E
102
}
330
E
100
AcDbMlineStyle
  2
STANDARD
 70
     0
  3

 62
     0
 51
90.0
 52
90.0
 71
     2
 49
0.5
 62
   256
  6
BYLAYER
 49
-0.5
 62
   256
  6
BYLAYER
  0
ACDBPLACEHOLDER
  5
290
102
{ACAD_REACTORS
330
28F
102
}
330
28F
  0
SCALE
  5
330F
102
{ACAD_REACTORS
330
330E
102
}
330
330E
100
AcDbScale
 70
     0
300
1:1
140
1.0
141
1.0
290
     1
  0
SCALE
  5
3310
102
{ACAD_REACTORS
330
330E
102
}
330
330E
100
AcDbScale
 70
     0
300
1:2
140
1.0
141
2.0
290
     0
  0
SCALE
  5
3311
102
{ACAD_REACTORS
330
330E
102
}
330
330E
100
AcDbScale
 70
     0
300
1:4
140
1.0
141
4.0
290
     0
  0
SCALE
  5
3312
102
{ACAD_REACTORS
330
330E
102
}
330
330E
100
AcDbScale
 70
     0
300
1:5
140
1.0
141
5.0
290
     0
  0
SCALE
  5
3313
102
{ACAD_REACTORS
330
330E
102
}
330
330E
100
AcDbScale
 70
     0
300
1:8
140
1.0
141
8.0
290
     0
  0
SCALE
  5
3314
102
{ACAD_REACTORS
330
330E
102
}
330
330E
100
AcDbScale
 70
     0
300
1:10
140
1.0
141
10.0
290
     0
  0
SCALE
  5
3315
102
{ACAD_REACTORS
330
330E
102
}
330
330E
100
AcDbScale
 70
     0
300
1:16
140
1.0
141
16.0
290
     0
  0
SCALE
  5
3316
102
{ACAD_REACTORS
330
330E
102
}
330
330E
100
AcDbScale
 70
     0
300
1:20
140
1.0
141
20.0
290
     0
  0
SCALE
  5
3317
102
{ACAD_REACTORS
330
330E
102
}
330
330E
100
AcDbScale
 70
     0
300
1:30
140
1.0
141
30.0
290
     0
  0
SCALE
  5
3318
102
{ACAD_REACTORS
330
330E
102
}
330
330E
100
AcDbScale
 70
     0
300
1:40
140
1.0
141
40.0
290
     0
  0
SCALE
  5
3319
102
{ACAD_REACTORS
330
330E
102
}
330
330E
100
AcDbScale
 70
     0
300
1:50
140
1.0
141
50.0
290
     0
  0
SCALE
  5
331A
102
{ACAD_REACTORS
330
330E
102
}
330
330E
100
AcDbScale
 70
     0
300
1:100
140
1.0
141
100.0
290
     0
  0
SCALE
  5
331B
102
{ACAD_REACTORS
330
330E
102
}
330
330E
100
AcDbScale
 70
     0
300
2:1
140
2.0
141
1.0
290
     0
  0
SCALE
  5
331C
102
{ACAD_REACTORS
330
330E
102
}
330
330E
100
AcDbScale
 70
     0
300
4:1
140
4.0
141
1.0
290
     0
  0
SCALE
  5
331D
102
{ACAD_REACTORS
330
330E
102
}
330
330E
100
AcDbScale
 70
     0
300
8:1
140
8.0
141
1.0
290
     0
  0
SCALE
  5
331E
102
{ACAD_REACTORS
330
330E
102
}
330
330E
100
AcDbScale
 70
     0
300
10:1
140
10.0
141
1.0
290
     0
  0
SCALE
  5
331F
102
{ACAD_REACTORS
330
330E
102
}
330
330E
100
AcDbScale
 70
     0
300
100:1
140
100.0
141
1.0
290
     0
  0
TABLESTYLE
  5
330D
102
{ACAD_XDICTIONARY
360
3334
102
}
102
{ACAD_REACTORS
330
330C
102
}
330
330C
100
AcDbTableStyle
  3
Standard
 70
     0
 71
     0
 40
1.5
 41
1.5
280
     0
281
     0
  7
STANDARD
140
4.5
170
     2
 62
     0
 63
     7
283
     0
274
    -2
284
     1
 64
     0
275
    -2
285
     1
 65
     0
276
    -2
286
     1
 66
     0
277
    -2
287
     1
 67
     0
278
    -2
288
     1
 68
     0
279
    -2
289
     1
 69
     0
  7
STANDARD
140
6.0
170
     5
 62
     0
 63
     7
283
     0
274
    -2
284
     1
 64
     0
275
    -2
285
     1
 65
     0
276
    -2
286
     1
 66
     0
277
    -2
287
     1
 67
     0
278
    -2
288
     1
 68
     0
279
    -2
289
     1
 69
     0
  7
STANDARD
140
4.5
170
     5
 62
     0
 63
     7
283
     0
274
    -2
284
     1
 64
     0
275
    -2
285
     1
 65
     0
276
    -2
286
     1
 66
     0
277
    -2
287
     1
 67
     0
278
    -2
288
     1
 68
     0
279
    -2
289
     1
 69
     0
  0
VISUALSTYLE
  5
32F8
102
{ACAD_XDICTIONARY
360
33ED
102
}
102
{ACAD_REACTORS
330
32F2
102
}
330
32F2
100
AcDbVisualStyle
  2
2dWireframe
 70
     4
 71
     0
 72
     2
 73
     0
 90
        0
 40
-0.6
 41
-30.0
 62
     5
 63
     7
 74
     1
 91
        4
 64
     7
 65
   257
 75
     1
175
     1
 42
1.0
 92
        0
 66
   257
 43
1.0
 76
     1
 77
     6
 78
     2
 67
     7
 79
     5
170
     0
171
     0
290
     0
174
     0
 93
        1
 44
0.0
173
     0
291
     0
 45
0.0
1001
ACAD
1000
AcDbSavedByObjectVersion
1070
     0
  0
VISUALSTYLE
  5
32F7
102
{ACAD_XDICTIONARY
360
33EB
102
}
102
{ACAD_REACTORS
330
32F2
102
}
330
32F2
100
AcDbVisualStyle
  2
Basic
 70
     7
 71
     1
 72
     0
 73
     1
 90
        0
 40
-0.6
 41
-30.0
 62
     5
 63
     7
 74
     0
 91
        4
 64
     7
 65
   257
 75
     1
175
     1
 42
1.0
 92
        8
 66
     7
 43
1.0
 76
     1
 77
     6
 78
     2
 67
     7
 79
     5
170
     0
171
     0
290
     0
174
     0
 93
        1
 44
0.0
173
     0
291
     1
 45
0.0
1001
ACAD
1000
AcDbSavedByObjectVersion
1070
     0
  0
VISUALSTYLE
  5
32FE
102
{ACAD_XDICTIONARY
360
33F9
102
}
102
{ACAD_REACTORS
330
32F2
102
}
330
32F2
100
AcDbVisualStyle
  2
Brighten
 70
    12
 71
     2
 72
     2
 73
     0
 90
        0
 40
-0.6
 41
-30.0
 62
     5
 63
     7
 74
     1
 91
        4
 64
     7
 65
   257
 75
     1
175
     1
 42
1.0
 92
        8
 66
     7
 43
1.0
 76
     1
 77
     6
 78
     2
 67
     7
 79
     5
170
     0
171
     0
290
     0
174
     0
 93
        1
 44
50.0
173
     0
291
     1
 45
0.0
1001
ACAD
1000
AcDbSavedByObjectVersion
1070
     0
  0
VISUALSTYLE
  5
3302
102
{ACAD_XDICTIONARY
360
3401
102
}
102
{ACAD_REACTORS
330
32F2
102
}
330
32F2
100
AcDbVisualStyle
  2
ColorChange
 70
    16
 71
     2
 72
     2
 73
     3
 90
        0
 40
-0.6
 41
-30.0
 62
     5
 63
     8
 74
     1
 91
        4
 64
     7
 65
   257
 75
     1
175
     1
 42
1.0
 92
        8
 66
     8
 43
1.0
 76
     1
 77
     6
 78
     2
 67
     7
 79
     5
170
     0
171
     0
290
     0
174
     0
 93
        1
 44
0.0
173
     0
291
     1
 45
0.0
1001
ACAD
1000
AcDbSavedByObjectVersion
1070
     0
  0
VISUALSTYLE
  5
32FB
102
{ACAD_XDICTIONARY
360
33F3
102
}
102
{ACAD_REACTORS
330
32F2
102
}
330
32F2
100
AcDbVisualStyle
  2
Conceptual
 70
     9
 71
     3
 72
     2
 73
     0
 90
        0
 40
-0.6
 41
-30.0
 62
     5
 63
     7
 74
     2
 91
        2
 64
     7
 65
   257
 75
     1
175
     1
 42
179.0
 92
        8
 66
     7
 43
1.0
 76
     1
 77
     6
 78
     2
 67
     7
 79
     3
170
     0
171
     0
290
     0
174
     0
 93
        1
 44
0.0
173
     0
291
     0
 45
0.0
1001
ACAD
1000
AcDbSavedByObjectVersion
1070
     0
  0
VISUALSTYLE
  5
32FD
102
{ACAD_XDICTIONARY
360
33F7
102
}
102
{ACAD_REACTORS
330
32F2
102
}
330
32F2
100
AcDbVisualStyle
  2
Dim
 70
    11
 71
     2
 72
     2
 73
     0
 90
        0
 40
-0.6
 41
-30.0
 62
     5
 63
     7
 74
     1
 91
        4
 64
     7
 65
   257
 75
     1
175
     1
 42
1.0
 92
        8
 66
     7
 43
1.0
 76
     1
 77
     6
 78
     2
 67
     7
 79
     5
170
     0
171
     0
290
     0
174
     0
 93
        1
 44
-50.0
173
     0
291
     1
 45
0.0
1001
ACAD
1000
AcDbSavedByObjectVersion
1070
     0
  0
VISUALSTYLE
  5
330A
102
{ACAD_XDICTIONARY
360
3411
102
}
102
{ACAD_REACTORS
330
32F2
102
}
330
32F2
100
AcDbVisualStyle
  2
EdgeColorOff
 70
    22
 71
     2
 72
     2
 73
     0
 90
        0
 40
-0.6
 41
-30.0
 62
     5
 63
     7
 74
     1
 91
        4
 64
     7
 65
   257
 75
     1
175
     1
 42
1.0
 92
        8
 66
     7
 43
1.0
 76
     1
 77
     6
 78
     2
 67
     7
 79
     5
170
     0
171
     0
290
     0
174
     0
 93
        1
 44
0.0
173
     0
291
     1
 45
0.0
1001
ACAD
1000
AcDbSavedByObjectVersion
1070
     0
  0
VISUALSTYLE
  5
3301
102
{ACAD_XDICTIONARY
360
33FF
102
}
102
{ACAD_REACTORS
330
32F2
102
}
330
32F2
100
AcDbVisualStyle
  2
Facepattern
 70
    15
 71
     2
 72
     2
 73
     0
 90
        0
 40
-0.6
 41
-30.0
 62
     5
 63
     7
 74
     1
 91
        4
 64
     7
 65
   257
 75
     1
175
     1
 42
1.0
 92
        8
 66
     7
 43
1.0
 76
     1
 77
     6
 78
     2
 67
     7
 79
     5
170
     0
171
     0
290
     0
174
     0
 93
        1
 44
0.0
173
     0
291
     1
 45
0.0
1001
ACAD
1000
AcDbSavedByObjectVersion
1070
     0
  0
VISUALSTYLE
  5
32F3
102
{ACAD_XDICTIONARY
360
33E3
102
}
102
{ACAD_REACTORS
330
32F2
102
}
330
32F2
100
AcDbVisualStyle
  2
Flat
 70
     0
 71
     2
 72
     1
 73
     1
 90
        2
 40
-0.6
 41
30.0
 62
     5
 63
     7
 74
     0
 91
        0
 64
     7
 65
   257
 75
     1
175
     1
 42
1.0
 92
        8
 66
     7
 43
1.0
 76
     1
 77
     6
 78
     2
 67
     7
 79
     5
170
     0
171
     0
290
     0
174
     0
 93
       13
 44
0.0
173
     0
291
     1
 45
0.0
1001
ACAD
1000
AcDbSavedByObjectVersion
1070
     0
  0
VISUALSTYLE
  5
32F4
102
{ACAD_XDICTIONARY
360
33E5
102
}
102
{ACAD_REACTORS
330
32F2
102
}
330
32F2
100
AcDbVisualStyle
  2
FlatWithEdges
 70
     1
 71
     2
 72
     1
 73
     1
 90
        2
 40
-0.6
 41
30.0
 62
     5
 63
     7
 74
     1
 91
        0
 64
     7
 65
   257
 75
     1
175
     1
 42
1.0
 92
        0
 66
   257
 43
1.0
 76
     1
 77
     6
 78
     2
 67
     7
 79
     5
170
     0
171
     0
290
     0
174
     0
 93
       13
 44
0.0
173
     0
291
     1
 45
0.0
1001
ACAD
1000
AcDbSavedByObjectVersion
1070
     0
  0
VISUALSTYLE
  5
32F5
102
{ACAD_XDICTIONARY
360
33E7
102
}
102
{ACAD_REACTORS
330
32F2
102
}
330
32F2
100
AcDbVisualStyle
  2
Gouraud
 70
     2
 71
     2
 72
     2
 73
     1
 90
        2
 40
-0.6
 41
30.0
 62
     5
 63
     7
 74
     0
 91
        0
 64
     7
 65
   257
 75
     1
175
     1
 42
1.0
 92
        0
 66
     7
 43
1.0
 76
     1
 77
     6
 78
     2
 67
     7
 79
     5
170
     0
171
     0
290
     0
174
     0
 93
       13
 44
0.0
173
     0
291
     1
 45
0.0
1001
ACAD
1000
AcDbSavedByObjectVersion
1070
     0
  0
VISUALSTYLE
  5
32F6
102
{ACAD_XDICTIONARY
360
33E9
102
}
102
{ACAD_REACTORS
330
32F2
102
}
330
32F2
100
AcDbVisualStyle
  2
GouraudWithEdges
 70
     3
 71
     2
 72
     2
 73
     1
 90
        2
 40
-0.6
 41
30.0
 62
     5
 63
     7
 74
     1
 91
        0
 64
     7
 65
   257
 75
     1
175
     1
 42
1.0
 92
        0
 66
   257
 43
1.0
 76
     1
 77
     6
 78
     2
 67
     7
 79
     5
170
     0
171
     0
290
     0
174
     0
 93
       13
 44
0.0
173
     0
291
     1
 45
0.0
1001
ACAD
1000
AcDbSavedByObjectVersion
1070
     0
  0
VISUALSTYLE
  5
32FA
102
{ACAD_XDICTIONARY
360
33F1
102
}
102
{ACAD_REACTORS
330
32F2
102
}
330
32F2
100
AcDbVisualStyle
  2
Hidden
 70
     6
 71
     1
 72
     2
 73
     2
 90
        0
 40
-0.6
 41
-30.0
 62
     5
 63
     7
 74
     2
 91
        2
 64
     7
 65
   257
 75
     2
175
     1
 42
40.0
 92
        0
 66
   257
 43
1.0
 76
     1
 77
     6
 78
     2
 67
     7
 79
     3
170
     0
171
     0
290
     0
174
     0
 93
        1
 44
0.0
173
     0
291
     0
 45
0.0
1001
ACAD
1000
AcDbSavedByObjectVersion
1070
     0
  0
VISUALSTYLE
  5
3308
102
{ACAD_XDICTIONARY
360
340D
102
}
102
{ACAD_REACTORS
330
32F2
102
}
330
32F2
100
AcDbVisualStyle
  2
JitterOff
 70
    20
 71
     2
 72
     2
 73
     0
 90
        0
 40
-0.6
 41
-30.0
 62
     5
 63
     7
 74
     1
 91
        4
 64
     7
 65
   257
 75
     1
175
     1
 42
1.0
 92
       10
 66
     7
 43
1.0
 76
     1
 77
     6
 78
     2
 67
     7
 79
     5
170
     0
171
     0
290
     0
174
     0
 93
        1
 44
0.0
173
     0
291
     1
 45
0.0
1001
ACAD
1000
AcDbSavedByObjectVersion
1070
     0
  0
VISUALSTYLE
  5
3300
102
{ACAD_XDICTIONARY
360
33FD
102
}
102
{ACAD_REACTORS
330
32F2
102
}
330
32F2
100
AcDbVisualStyle
  2
Linepattern
 70
    14
 71
     2
 72
     2
 73
     0
 90
        0
 40
-0.6
 41
-30.0
 62
     5
 63
     7
 74
     1
 91
        4
 64
     7
 65
   257
 75
     7
175
     7
 42
1.0
 92
        8
 66
     7
 43
1.0
 76
     1
 77
     6
 78
     2
 67
     7
 79
     5
170
     0
171
     0
290
     0
174
     0
 93
        1
 44
0.0
173
     0
291
     1
 45
0.0
1001
ACAD
1000
AcDbSavedByObjectVersion
1070
     0
  0
VISUALSTYLE
  5
3309
102
{ACAD_XDICTIONARY
360
340F
102
}
102
{ACAD_REACTORS
330
32F2
102
}
330
32F2
100
AcDbVisualStyle
  2
OverhangOff
 70
    21
 71
     2
 72
     2
 73
     0
 90
        0
 40
-0.6
 41
-30.0
 62
     5
 63
     7
 74
     1
 91
        4
 64
     7
 65
   257
 75
     1
175
     1
 42
1.0
 92
        9
 66
     7
 43
1.0
 76
     1
 77
     6
 78
     2
 67
     7
 79
     5
170
     0
171
     0
290
     0
174
     0
 93
        1
 44
0.0
173
     0
291
     1
 45
0.0
1001
ACAD
1000
AcDbSavedByObjectVersion
1070
     0
  0
VISUALSTYLE
  5
32FC
102
{ACAD_XDICTIONARY
360
33F5
102
}
102
{ACAD_REACTORS
330
32F2
102
}
330
32F2
100
AcDbVisualStyle
  2
Realistic
 70
     8
 71
     2
 72
     2
 73
     0
 90
        2
 40
-0.6
 41
30.0
 62
     5
 63
     7
 74
     0
 91
        0
 64
     7
 65
   257
 75
     1
175
     1
 42
1.0
 92
        8
 66
   257
 43
1.0
 76
     1
 77
     6
 78
     2
 67
     7
 79
     3
170
     0
171
     0
290
     0
174
     0
 93
       13
 44
0.0
173
     0
291
     0
 45
0.0
1001
ACAD
1000
AcDbSavedByObjectVersion
1070
     0
  0
VISUALSTYLE
  5
3307
102
{ACAD_XDICTIONARY
360
340B
102
}
102
{ACAD_REACTORS
330
32F2
102
}
330
32F2
100
AcDbVisualStyle
  2
Shaded
 70
    27
 71
     2
 72
     2
 73
     1
 90
        2
 40
-0.6
 41
30.0
 62
     5
 63
     7
 74
     0
 91
        4
 64
     7
 65
   257
 75
     1
175
     1
 42
1.0
 92
        8
 66
   257
 43
1.0
 76
     1
 77
     6
 78
     2
 67
     8
 79
     3
170
     0
171
     0
290
     0
174
     0
 93
        5
 44
0.0
173
     0
291
     0
 45
0.0
1001
ACAD
1000
AcDbSavedByObjectVersion
1070
     0
  0
VISUALSTYLE
  5
3306
102
{ACAD_XDICTIONARY
360
3409
102
}
102
{ACAD_REACTORS
330
32F2
102
}
330
32F2
100
AcDbVisualStyle
  2
Shaded with edges
 70
    26
 71
     2
 72
     2
 73
     1
 90
        2
 40
-0.6
 41
30.0
 62
     5
 63
     7
 74
     1
 91
       10
 64
     7
 65
   257
 75
     2
175
     1
 42
1.0
 92
        8
 66
   257
 43
1.0
 76
     1
 77
     6
 78
     2
 67
     7
 79
     3
170
     0
171
     0
290
     0
174
     0
 93
        5
 44
0.0
173
     0
291
     0
 45
0.0
1001
ACAD
1000
AcDbSavedByObjectVersion
1070
     0
  0
VISUALSTYLE
  5
3303
102
{ACAD_XDICTIONARY
360
3403
102
}
102
{ACAD_REACTORS
330
32F2
102
}
330
32F2
100
AcDbVisualStyle
  2
Shades of Gray
 70
    23
 71
     2
 72
     2
 73
     3
 90
        0
 40
-0.6
 41
-30.0
 62
     5
 63
     7
 74
     2
 91
        2
 64
     7
 65
     7
 75
     1
175
     1
 42
40.0
 92
        8
 66
     7
 43
1.0
 76
     1
 77
     6
 78
     2
 67
     7
 79
     3
170
     0
171
     0
290
     0
174
     0
 93
        1
 44
0.0
173
     0
291
     0
 45
0.0
1001
ACAD
1000
AcDbSavedByObjectVersion
1070
     0
  0
VISUALSTYLE
  5
3304
102
{ACAD_XDICTIONARY
360
3405
102
}
102
{ACAD_REACTORS
330
32F2
102
}
330
32F2
100
AcDbVisualStyle
  2
Sketchy
 70
    24
 71
     1
 72
     2
 73
     2
 90
        0
 40
-0.6
 41
-30.0
 62
     5
 63
     7
 74
     2
 91
        2
 64
     7
 65
     7
 75
     1
175
     1
 42
40.0
 92
       11
 66
     7
 43
1.0
 76
     1
 77
     6
 78
     2
 67
     7
 79
     6
170
     0
171
     0
290
     0
174
     0
 93
        1
 44
0.0
173
     0
291
     0
 45
0.0
1001
ACAD
1000
AcDbSavedByObjectVersion
1070
     0
  0
VISUALSTYLE
  5
32FF
102
{ACAD_XDICTIONARY
360
33FB
102
}
102
{ACAD_REACTORS
330
32F2
102
}
330
32F2
100
AcDbVisualStyle
  2
Thicken
 70
    13
 71
     2
 72
     2
 73
     0
 90
        0
 40
-0.6
 41
-30.0
 62
     5
 63
     7
 74
     1
 91
        4
 64
     7
 65
   257
 75
     1
175
     1
 42
1.0
 92
       12
 66
     7
 43
1.0
 76
     1
 77
     6
 78
     2
 67
     7
 79
     5
170
     0
171
     0
290
     0
174
     0
 93
        1
 44
0.0
173
     0
291
     1
 45
0.0
1001
ACAD
1000
AcDbSavedByObjectVersion
1070
     0
  0
VISUALSTYLE
  5
32F9
102
{ACAD_XDICTIONARY
360
33EF
102
}
102
{ACAD_REACTORS
330
32F2
102
}
330
32F2
100
AcDbVisualStyle
  2
Wireframe
 70
     5
 71
     0
 72
     2
 73
     0
 90
        0
 40
-0.6
 41
-30.0
 62
     5
 63
     7
 74
     1
 91
        4
 64
     7
 65
   257
 75
     1
175
     1
 42
1.0
 92
        0
 66
   257
 43
1.0
 76
     1
 77
     6
 78
     2
 67
     7
 79
     3
170
     0
171
     0
290
     0
174
     0
 93
        1
 44
0.0
173
     0
291
     0
 45
0.0
1001
ACAD
1000
AcDbSavedByObjectVersion
1070
     0
  0
VISUALSTYLE
  5
3305
102
{ACAD_XDICTIONARY
360
3407
102
}
102
{ACAD_REACTORS
330
32F2
102
}
330
32F2
100
AcDbVisualStyle
  2
X-Ray
 70
    25
 71
     2
 72
     2
 73
     1
 90
        1
 40
0.5
 41
-30.0
 62
     5
 63
     7
 74
     1
 91
        0
 64
     7
 65
   257
 75
     1
175
     1
 42
1.0
 92
        8
 66
     7
 43
1.0
 76
     1
 77
     6
 78
     2
 67
     7
 79
     3
170
     0
171
     0
290
     0
174
     0
 93
       13
 44
0.0
173
     0
291
     0
 45
0.0
1001
ACAD
1000
AcDbSavedByObjectVersion
1070
     0
  0
DICTIONARYVAR
  5
3379
102
{ACAD_REACTORS
330
2CA2
102
}
330
2CA2
100
DictionaryVariables
280
     0
  1
1:1
  0
DICTIONARYVAR
  5
3378
102
{ACAD_REACTORS
330
2CA2
102
}
330
2CA2
100
DictionaryVariables
280
     0
  1
STANDARD
  0
DICTIONARYVAR
  5
3377
102
{ACAD_REACTORS
330
2CA2
102
}
330
2CA2
100
DictionaryVariables
280
     0
  1
STANDARD
  0
DICTIONARYVAR
  5
337B
102
{ACAD_REACTORS
330
2CA2
102
}
330
2CA2
100
DictionaryVariables
280
     0
  1
1
  0
DICTIONARYVAR
  5
337A
102
{ACAD_REACTORS
330
2CA2
102
}
330
2CA2
100
DictionaryVariables
280
     0
  1
0
  0
DICTIONARYVAR
  5
2CA3
102
{ACAD_REACTORS
330
2CA2
102
}
330
2CA2
100
DictionaryVariables
280
     0
  1
96
  0
DICTIONARYVAR
  5
33D4
102
{ACAD_REACTORS
330
2CA2
102
}
330
2CA2
100
DictionaryVariables
280
     0
  1
2
  0
DICTIONARY
  5
33DC
330
293
100
AcDbDictionary
280
     1
281
     1
  3
ACAD_XREC_ROUNDTRIP
360
33DD
  0
DICTIONARY
  5
33DE
330
294
100
AcDbDictionary
280
     1
281
     1
  3
ACAD_XREC_ROUNDTRIP
360
33DF
  0
DICTIONARY
  5
32E3
330
32E2
100
AcDbDictionary
280
     1
281
     1
  3
ACAD_XREC_ROUNDTRIP
360
33E1
  3
BUMPTILE
360
32E5
  3
DIFFUSETILE
360
32E4
  3
OPACITYTILE
360
32E8
  3
REFLECTIONTILE
360
32E7
  3
REFRACTIONTILE
360
32E9
  3
SPECULARTILE
360
32E6
  0
DICTIONARY
  5
32DB
330
32DA
100
AcDbDictionary
280
     1
281
     1
  3
ACAD_XREC_ROUNDTRIP
360
33E0
  3
BUMPTILE
360
32DD
  3
DIFFUSETILE
360
32DC
  3
OPACITYTILE
360
32E0
  3
REFLECTIONTILE
360
32DF
  3
REFRACTIONTILE
360
32E1
  3
SPECULARTILE
360
32DE
  0
DICTIONARY
  5
32EB
330
32EA
100
AcDbDictionary
280
     1
281
     1
  3
ACAD_XREC_ROUNDTRIP
360
33E2
  3
BUMPTILE
360
32ED
  3
DIFFUSETILE
360
32EC
  3
OPACITYTILE
360
32F0
  3
REFLECTIONTILE
360
32EF
  3
REFRACTIONTILE
360
32F1
  3
SPECULARTILE
360
32EE
  0
DICTIONARY
  5
3334
330
330D
100
AcDbDictionary
280
     1
281
     1
  3
ACAD_ROUNDTRIP_2008_TABLESTYLE_CELLSTYLEMAP
360
33D5
  3
ACAD_XREC_ROUNDTRIP
360
3413
  0
DICTIONARY
  5
33ED
330
32F8
100
AcDbDictionary
280
     1
281
     1
  3
ACAD_XREC_ROUNDTRIP
360
33EE
  0
DICTIONARY
  5
33EB
330
32F7
100
AcDbDictionary
280
     1
281
     1
  3
ACAD_XREC_ROUNDTRIP
360
33EC
  0
DICTIONARY
  5
33F9
330
32FE
100
AcDbDictionary
280
     1
281
     1
  3
ACAD_XREC_ROUNDTRIP
360
33FA
  0
DICTIONARY
  5
3401
330
3302
100
AcDbDictionary
280
     1
281
     1
  3
ACAD_XREC_ROUNDTRIP
360
3402
  0
DICTIONARY
  5
33F3
330
32FB
100
AcDbDictionary
280
     1
281
     1
  3
ACAD_XREC_ROUNDTRIP
360
33F4
  0
DICTIONARY
  5
33F7
330
32FD
100
AcDbDictionary
280
     1
281
     1
  3
ACAD_XREC_ROUNDTRIP
360
33F8
  0
DICTIONARY
  5
3411
330
330A
100
AcDbDictionary
280
     1
281
     1
  3
ACAD_XREC_ROUNDTRIP
360
3412
  0
DICTIONARY
  5
33FF
330
3301
100
AcDbDictionary
280
     1
281
     1
  3
ACAD_XREC_ROUNDTRIP
360
3400
  0
DICTIONARY
  5
33E3
330
32F3
100
AcDbDictionary
280
     1
281
     1
  3
ACAD_XREC_ROUNDTRIP
360
33E4
  0
DICTIONARY
  5
33E5
330
32F4
100
AcDbDictionary
280
     1
281
     1
  3
ACAD_XREC_ROUNDTRIP
360
33E6
  0
DICTIONARY
  5
33E7
330
32F5
100
AcDbDictionary
280
     1
281
     1
  3
ACAD_XREC_ROUNDTRIP
360
33E8
  0
DICTIONARY
  5
33E9
330
32F6
100
AcDbDictionary
280
     1
281
     1
  3
ACAD_XREC_ROUNDTRIP
360
33EA
  0
DICTIONARY
  5
33F1
330
32FA
100
AcDbDictionary
280
     1
281
     1
  3
ACAD_XREC_ROUNDTRIP
360
33F2
  0
DICTIONARY
  5
340D
330
3308
100
AcDbDictionary
280
     1
281
     1
  3
ACAD_XREC_ROUNDTRIP
360
340E
  0
DICTIONARY
  5
33FD
330
3300
100
AcDbDictionary
280
     1
281
     1
  3
ACAD_XREC_ROUNDTRIP
360
33FE
  0
DICTIONARY
  5
340F
330
3309
100
AcDbDictionary
280
     1
281
     1
  3
ACAD_XREC_ROUNDTRIP
360
3410
  0
DICTIONARY
  5
33F5
330
32FC
100
AcDbDictionary
280
     1
281
     1
  3
ACAD_XREC_ROUNDTRIP
360
33F6
  0
DICTIONARY
  5
340B
330
3307
100
AcDbDictionary
280
     1
281
     1
  3
ACAD_XREC_ROUNDTRIP
360
340C
  0
DICTIONARY
  5
3409
330
3306
100
AcDbDictionary
280
     1
281
     1
  3
ACAD_XREC_ROUNDTRIP
360
340A
  0
DICTIONARY
  5
3403
330
3303
100
AcDbDictionary
280
     1
281
     1
  3
ACAD_XREC_ROUNDTRIP
360
3404
  0
DICTIONARY
  5
3405
330
3304
100
AcDbDictionary
280
     1
281
     1
  3
ACAD_XREC_ROUNDTRIP
360
3406
  0
DICTIONARY
  5
33FB
330
32FF
100
AcDbDictionary
280
     1
281
     1
  3
ACAD_XREC_ROUNDTRIP
360
33FC
  0
DICTIONARY
  5
33EF
330
32F9
100
AcDbDictionary
280
     1
281
     1
  3
ACAD_XREC_ROUNDTRIP
360
33F0
  0
DICTIONARY
  5
3407
330
3305
100
AcDbDictionary
280
     1
281
     1
  3
ACAD_XREC_ROUNDTRIP
360
3408
  0
XRECORD
  5
33DD
102
{ACAD_REACTORS
330
33DC
102
}
330
33DC
100
AcDbXrecord
280
     1
102
SHADEPLOT
 70
     0
102
SHADEPLOTRESLEVEL
 70
     2
102
SHADEPLOTCUSTOMDPI
 70
   300
  0
XRECORD
  5
33DF
102
{ACAD_REACTORS
330
33DE
102
}
330
33DE
100
AcDbXrecord
280
     1
102
SHADEPLOT
 70
     0
102
SHADEPLOTRESLEVEL
 70
     2
102
SHADEPLOTCUSTOMDPI
 70
   300
  0
XRECORD
  5
33E1
102
{ACAD_REACTORS
330
32E3
102
}
330
32E3
100
AcDbXrecord
280
     1
102
MATERIAL
148
0.0
149
0.0
149
0.0
 93
        0
 94
      127
282
     0
 72
     0
 77
     0
171
     0
175
     0
179
     0
273
     0
  0
XRECORD
  5
32E5
102
{ACAD_REACTORS
330
32E3
102
}
330
32E3
100
AcDbXrecord
280
     1
270
     1
271
     1
  0
XRECORD
  5
32E4
102
{ACAD_REACTORS
330
32E3
102
}
330
32E3
100
AcDbXrecord
280
     1
270
     1
271
     1
  0
XRECORD
  5
32E8
102
{ACAD_REACTORS
330
32E3
102
}
330
32E3
100
AcDbXrecord
280
     1
270
     1
271
     1
  0
XRECORD
  5
32E7
102
{ACAD_REACTORS
330
32E3
102
}
330
32E3
100
AcDbXrecord
280
     1
270
     1
271
     1
  0
XRECORD
  5
32E9
102
{ACAD_REACTORS
330
32E3
102
}
330
32E3
100
AcDbXrecord
280
     1
270
     1
271
     1
  0
XRECORD
  5
32E6
102
{ACAD_REACTORS
330
32E3
102
}
330
32E3
100
AcDbXrecord
280
     1
270
     1
271
     1
  0
XRECORD
  5
33E0
102
{ACAD_REACTORS
330
32DB
102
}
330
32DB
100
AcDbXrecord
280
     1
102
MATERIAL
148
0.0
149
0.0
149
0.0
 93
        0
 94
      127
282
     0
 72
     0
 77
     0
171
     0
175
     0
179
     0
273
     0
  0
XRECORD
  5
32DD
102
{ACAD_REACTORS
330
32DB
102
}
330
32DB
100
AcDbXrecord
280
     1
270
     1
271
     1
  0
XRECORD
  5
32DC
102
{ACAD_REACTORS
330
32DB
102
}
330
32DB
100
AcDbXrecord
280
     1
270
     1
271
     1
  0
XRECORD
  5
32E0
102
{ACAD_REACTORS
330
32DB
102
}
330
32DB
100
AcDbXrecord
280
     1
270
     1
271
     1
  0
XRECORD
  5
32DF
102
{ACAD_REACTORS
330
32DB
102
}
330
32DB
100
AcDbXrecord
280
     1
270
     1
271
     1
  0
XRECORD
  5
32E1
102
{ACAD_REACTORS
330
32DB
102
}
330
32DB
100
AcDbXrecord
280
     1
270
     1
271
     1
  0
XRECORD
  5
32DE
102
{ACAD_REACTORS
330
32DB
102
}
330
32DB
100
AcDbXrecord
280
     1
270
     1
271
     1
  0
XRECORD
  5
33E2
102
{ACAD_REACTORS
330
32EB
102
}
330
32EB
100
AcDbXrecord
280
     1
102
MATERIAL
148
0.0
149
0.0
149
0.0
 93
        0
 94
      127
282
     0
 72
     0
 77
     0
171
     0
175
     0
179
     0
273
     0
  0
XRECORD
  5
32ED
102
{ACAD_REACTORS
330
32EB
102
}
330
32EB
100
AcDbXrecord
280
     1
270
     1
271
     1
  0
XRECORD
  5
32EC
102
{ACAD_REACTORS
330
32EB
102
}
330
32EB
100
AcDbXrecord
280
     1
270
     1
271
     1
  0
XRECORD
  5
32F0
102
{ACAD_REACTORS
330
32EB
102
}
330
32EB
100
AcDbXrecord
280
     1
270
     1
271
     1
  0
XRECORD
  5
32EF
102
{ACAD_REACTORS
330
32EB
102
}
330
32EB
100
AcDbXrecord
280
     1
270
     1
271
     1
  0
XRECORD
  5
32F1
102
{ACAD_REACTORS
330
32EB
102
}
330
32EB
100
AcDbXrecord
280
     1
270
     1
271
     1
  0
XRECORD
  5
32EE
102
{ACAD_REACTORS
330
32EB
102
}
330
32EB
100
AcDbXrecord
280
     1
270
     1
271
     1
  0
CELLSTYLEMAP
  5
33D5
102
{ACAD_REACTORS
330
3334
102
}
330
3334
100
AcDbCellStyleMap
 90
        3
300
CELLSTYLE
  1
TABLEFORMAT_BEGIN
 90
        5
170
     1
 91
        0
 92
    32768
 62
   257
 93
        1
300
CONTENTFORMAT
  1
CONTENTFORMAT_BEGIN
 90
        0
 91
        0
 92
      512
 93
        0
300

 40
0.0
140
1.0
 94
        5
 62
     0
340
10
144
6.0
309
CONTENTFORMAT_END
171
     1
301
MARGIN
  1
CELLMARGIN_BEGIN
 40
1.5
 40
1.5
 40
1.5
 40
1.5
 40
4.5
 40
4.5
309
CELLMARGIN_END
 94
        6
 95
        1
302
GRIDFORMAT
  1
GRIDFORMAT_BEGIN
 90
        0
 91
        1
 62
     0
 92
       -2
340
0
 93
        0
 40
1.125
309
GRIDFORMAT_END
 95
        2
302
GRIDFORMAT
  1
GRIDFORMAT_BEGIN
 90
        0
 91
        1
 62
     0
 92
       -2
340
0
 93
        0
 40
1.125
309
GRIDFORMAT_END
 95
        4
302
GRIDFORMAT
  1
GRIDFORMAT_BEGIN
 90
        0
 91
        1
 62
     0
 92
       -2
340
0
 93
        0
 40
1.125
309
GRIDFORMAT_END
 95
        8
302
GRIDFORMAT
  1
GRIDFORMAT_BEGIN
 90
        0
 91
        1
 62
     0
 92
       -2
340
0
 93
        0
 40
1.125
309
GRIDFORMAT_END
 95
       16
302
GRIDFORMAT
  1
GRIDFORMAT_BEGIN
 90
        0
 91
        1
 62
     0
 92
       -2
340
0
 93
        0
 40
1.125
309
GRIDFORMAT_END
 95
       32
302
GRIDFORMAT
  1
GRIDFORMAT_BEGIN
 90
        0
 91
        1
 62
     0
 92
       -2
340
0
 93
        0
 40
1.125
309
GRIDFORMAT_END
309
TABLEFORMAT_END
  1
CELLSTYLE_BEGIN
 90
        1
 91
        1
300
_TITLE
309
CELLSTYLE_END
300
CELLSTYLE
  1
TABLEFORMAT_BEGIN
 90
        5
170
     1
 91
        0
 92
        0
 62
   257
 93
        1
300
CONTENTFORMAT
  1
CONTENTFORMAT_BEGIN
 90
        0
 91
        0
 92
      512
 93
        0
300

 40
0.0
140
1.0
 94
        5
 62
     0
340
10
144
4.5
309
CONTENTFORMAT_END
171
     1
301
MARGIN
  1
CELLMARGIN_BEGIN
 40
1.5
 40
1.5
 40
1.5
 40
1.5
 40
4.5
 40
4.5
309
CELLMARGIN_END
 94
        6
 95
        1
302
GRIDFORMAT
  1
GRIDFORMAT_BEGIN
 90
        0
 91
        1
 62
     0
 92
       -2
340
0
 93
        0
 40
1.125
309
GRIDFORMAT_END
 95
        2
302
GRIDFORMAT
  1
GRIDFORMAT_BEGIN
 90
        0
 91
        1
 62
     0
 92
       -2
340
0
 93
        0
 40
1.125
309
GRIDFORMAT_END
 95
        4
302
GRIDFORMAT
  1
GRIDFORMAT_BEGIN
 90
        0
 91
        1
 62
     0
 92
       -2
340
0
 93
        0
 40
1.125
309
GRIDFORMAT_END
 95
        8
302
GRIDFORMAT
  1
GRIDFORMAT_BEGIN
 90
        0
 91
        1
 62
     0
 92
       -2
340
0
 93
        0
 40
1.125
309
GRIDFORMAT_END
 95
       16
302
GRIDFORMAT
  1
GRIDFORMAT_BEGIN
 90
        0
 91
        1
 62
     0
 92
       -2
340
0
 93
        0
 40
1.125
309
GRIDFORMAT_END
 95
       32
302
GRIDFORMAT
  1
GRIDFORMAT_BEGIN
 90
        0
 91
        1
 62
     0
 92
       -2
340
0
 93
        0
 40
1.125
309
GRIDFORMAT_END
309
TABLEFORMAT_END
  1
CELLSTYLE_BEGIN
 90
        2
 91
        1
300
_HEADER
309
CELLSTYLE_END
300
CELLSTYLE
  1
TABLEFORMAT_BEGIN
 90
        5
170
     1
 91
        0
 92
        0
 62
   257
 93
        1
300
CONTENTFORMAT
  1
CONTENTFORMAT_BEGIN
 90
        0
 91
        0
 92
      512
 93
        0
300

 40
0.0
140
1.0
 94
        2
 62
     0
340
10
144
4.5
309
CONTENTFORMAT_END
171
     1
301
MARGIN
  1
CELLMARGIN_BEGIN
 40
1.5
 40
1.5
 40
1.5
 40
1.5
 40
4.5
 40
4.5
309
CELLMARGIN_END
 94
        6
 95
        1
302
GRIDFORMAT
  1
GRIDFORMAT_BEGIN
 90
        0
 91
        1
 62
     0
 92
       -2
340
0
 93
        0
 40
1.125
309
GRIDFORMAT_END
 95
        2
302
GRIDFORMAT
  1
GRIDFORMAT_BEGIN
 90
        0
 91
        1
 62
     0
 92
       -2
340
0
 93
        0
 40
1.125
309
GRIDFORMAT_END
 95
        4
302
GRIDFORMAT
  1
GRIDFORMAT_BEGIN
 90
        0
 91
        1
 62
     0
 92
       -2
340
0
 93
        0
 40
1.125
309
GRIDFORMAT_END
 95
        8
302
GRIDFORMAT
  1
GRIDFORMAT_BEGIN
 90
        0
 91
        1
 62
     0
 92
       -2
340
0
 93
        0
 40
1.125
309
GRIDFORMAT_END
 95
       16
302
GRIDFORMAT
  1
GRIDFORMAT_BEGIN
 90
        0
 91
        1
 62
     0
 92
       -2
340
0
 93
        0
 40
1.125
309
GRIDFORMAT_END
 95
       32
302
GRIDFORMAT
  1
GRIDFORMAT_BEGIN
 90
        0
 91
        1
 62
     0
 92
       -2
340
0
 93
        0
 40
1.125
309
GRIDFORMAT_END
309
TABLEFORMAT_END
  1
CELLSTYLE_BEGIN
 90
        3
 91
        2
300
_DATA
309
CELLSTYLE_END
  0
XRECORD
  5
3413
102
{ACAD_REACTORS
330
3334
102
}
330
3334
100
AcDbXrecord
280
     1
102
ACAD_ROUNDTRIP_PRE2007_TABLESTYLE
 90
      512
 91
        0
  1

 92
      512
 93
        0
  2

 94
      512
 95
        0
  3

  0
XRECORD
  5
33EE
102
{ACAD_REACTORS
330
33ED
102
}
330
33ED
100
AcDbXrecord
280
     1
102
RTVSPropertyOp0
 70
     1
102
RTVSPropertyOp1
 70
     1
102
RTVSPropertyOp2
 70
     1
102
RTVSPropertyOp3
 70
     1
102
RTVSPropertyOp4
 70
     1
102
RTVSPropertyOp5
 70
     1
102
RTVSPropertyOp6
 70
     1
102
RTVSPropertyOp7
 70
     1
102
RTVSPropertyOp8
 70
     1
102
RTVSPropertyOp9
 70
     1
102
RTVSPropertyOp10
 70
     1
102
RTVSPropertyOp11
 70
     1
102
RTVSPropertyOp12
 70
     1
102
RTVSPropertyOp13
 70
     1
102
RTVSPropertyOp14
 70
     1
102
RTVSPropertyOp15
 70
     1
102
RTVSPropertyOp16
 70
     1
102
RTVSPropertyOp17
 70
     1
102
RTVSPropertyOp18
 70
     1
102
RTVSPropertyOp19
 70
     1
102
RTVSPropertyOp20
 70
     1
102
RTVSPropertyOp21
 70
     1
102
RTVSPropertyOp22
 70
     1
102
RTVSPropertyOp23
 70
     1
102
RTVSPropertyOp24
 70
     1
102
RTVSPropertyOp25
 70
     1
102
RTVSPropertyOp26
 70
     1
102
RTVSPropertyOp27
 70
     1
102
RTVSPropertyOp28
 70
     1
102
RTVSPropertyOp29
 70
     1
102
RTVSPropertyOp30
 70
     1
102
RTVSPropertyOp31
 70
     1
102
RTVSPropertyOp32
 70
     1
  0
XRECORD
  5
33EC
102
{ACAD_REACTORS
330
33EB
102
}
330
33EB
100
AcDbXrecord
280
     1
102
RTVSPropertyOp0
 70
     1
102
RTVSPropertyOp1
 70
     1
102
RTVSPropertyOp2
 70
     1
102
RTVSPropertyOp3
 70
     1
102
RTVSPropertyOp4
 70
     1
102
RTVSPropertyOp5
 70
     1
102
RTVSPropertyOp6
 70
     1
102
RTVSPropertyOp7
 70
     1
102
RTVSPropertyOp8
 70
     1
102
RTVSPropertyOp9
 70
     1
102
RTVSPropertyOp10
 70
     1
102
RTVSPropertyOp11
 70
     1
102
RTVSPropertyOp12
 70
     1
102
RTVSPropertyOp13
 70
     1
102
RTVSPropertyOp14
 70
     1
102
RTVSPropertyOp15
 70
     1
102
RTVSPropertyOp16
 70
     1
102
RTVSPropertyOp17
 70
     1
102
RTVSPropertyOp18
 70
     1
102
RTVSPropertyOp19
 70
     1
102
RTVSPropertyOp20
 70
     1
102
RTVSPropertyOp21
 70
     1
102
RTVSPropertyOp22
 70
     1
102
RTVSPropertyOp23
 70
     1
102
RTVSPropertyOp24
 70
     1
102
RTVSPropertyOp25
 70
     1
102
RTVSPropertyOp26
 70
     1
102
RTVSPropertyOp27
 70
     1
102
RTVSPropertyOp28
 70
     1
102
RTVSPropertyOp29
 70
     1
102
RTVSPropertyOp30
 70
     1
102
RTVSPropertyOp31
 70
     1
102
RTVSPropertyOp32
 70
     1
  0
XRECORD
  5
33FA
102
{ACAD_REACTORS
330
33F9
102
}
330
33F9
100
AcDbXrecord
280
     1
102
RTVSPropertyOp0
 70
     1
102
RTVSPropertyOp1
 70
     1
102
RTVSPropertyOp2
 70
     1
102
RTVSPropertyOp3
 70
     1
102
RTVSPropertyOp4
 70
     1
102
RTVSPropertyOp5
 70
     1
102
RTVSPropertyOp6
 70
     1
102
RTVSPropertyOp7
 70
     1
102
RTVSPropertyOp8
 70
     1
102
RTVSPropertyOp9
 70
     1
102
RTVSPropertyOp10
 70
     1
102
RTVSPropertyOp11
 70
     1
102
RTVSPropertyOp12
 70
     1
102
RTVSPropertyOp13
 70
     1
102
RTVSPropertyOp14
 70
     1
102
RTVSPropertyOp15
 70
     1
102
RTVSPropertyOp16
 70
     1
102
RTVSPropertyOp17
 70
     1
102
RTVSPropertyOp18
 70
     1
102
RTVSPropertyOp19
 70
     1
102
RTVSPropertyOp20
 70
     1
102
RTVSPropertyOp21
 70
     1
102
RTVSPropertyOp22
 70
     1
102
RTVSPropertyOp23
 70
     1
102
RTVSPropertyOp24
 70
     1
102
RTVSPropertyOp25
 70
     1
102
RTVSPropertyOp26
 70
     1
102
RTVSPropertyOp27
 70
     1
102
RTVSPropertyOp28
 70
     1
102
RTVSPropertyOp29
 70
     1
102
RTVSPropertyOp30
 70
     1
102
RTVSPropertyOp31
 70
     1
102
RTVSPropertyOp32
 70
     1
  0
XRECORD
  5
3402
102
{ACAD_REACTORS
330
3401
102
}
330
3401
100
AcDbXrecord
280
     1
102
RTVSPropertyOp0
 70
     1
102
RTVSPropertyOp1
 70
     1
102
RTVSPropertyOp2
 70
     1
102
RTVSPropertyOp3
 70
     1
102
RTVSPropertyOp4
 70
     1
102
RTVSPropertyOp5
 70
     1
102
RTVSPropertyOp6
 70
     1
102
RTVSPropertyOp7
 70
     1
102
RTVSPropertyOp8
 70
     1
102
RTVSPropertyOp9
 70
     1
102
RTVSPropertyOp10
 70
     1
102
RTVSPropertyOp11
 70
     1
102
RTVSPropertyOp12
 70
     1
102
RTVSPropertyOp13
 70
     1
102
RTVSPropertyOp14
 70
     1
102
RTVSPropertyOp15
 70
     1
102
RTVSPropertyOp16
 70
     1
102
RTVSPropertyOp17
 70
     1
102
RTVSPropertyOp18
 70
     1
102
RTVSPropertyOp19
 70
     1
102
RTVSPropertyOp20
 70
     1
102
RTVSPropertyOp21
 70
     1
102
RTVSPropertyOp22
 70
     1
102
RTVSPropertyOp23
 70
     1
102
RTVSPropertyOp24
 70
     1
102
RTVSPropertyOp25
 70
     1
102
RTVSPropertyOp26
 70
     1
102
RTVSPropertyOp27
 70
     1
102
RTVSPropertyOp28
 70
     1
102
RTVSPropertyOp29
 70
     1
102
RTVSPropertyOp30
 70
     1
102
RTVSPropertyOp31
 70
     1
102
RTVSPropertyOp32
 70
     1
  0
XRECORD
  5
33F4
102
{ACAD_REACTORS
330
33F3
102
}
330
33F3
100
AcDbXrecord
280
     1
102
RTVSPropertyOp0
 70
     1
102
RTVSPropertyOp1
 70
     1
102
RTVSPropertyOp2
 70
     1
102
RTVSPropertyOp3
 70
     1
102
RTVSPropertyOp4
 70
     1
102
RTVSPropertyOp5
 70
     1
102
RTVSPropertyOp6
 70
     1
102
RTVSPropertyOp7
 70
     1
102
RTVSPropertyOp8
 70
     1
102
RTVSPropertyOp9
 70
     1
102
RTVSPropertyOp10
 70
     1
102
RTVSPropertyOp11
 70
     1
102
RTVSPropertyOp12
 70
     1
102
RTVSPropertyOp13
 70
     1
102
RTVSPropertyOp14
 70
     1
102
RTVSPropertyOp15
 70
     1
102
RTVSPropertyOp16
 70
     1
102
RTVSPropertyOp17
 70
     1
102
RTVSPropertyOp18
 70
     1
102
RTVSPropertyOp19
 70
     1
102
RTVSPropertyOp20
 70
     1
102
RTVSPropertyOp21
 70
     1
102
RTVSPropertyOp22
 70
     1
102
RTVSPropertyOp23
 70
     1
102
RTVSPropertyOp24
 70
     1
102
RTVSPropertyOp25
 70
     1
102
RTVSPropertyOp26
 70
     1
102
RTVSPropertyOp27
 70
     1
102
RTVSPropertyOp28
 70
     1
102
RTVSPropertyOp29
 70
     1
102
RTVSPropertyOp30
 70
     1
102
RTVSPropertyOp31
 70
     1
102
RTVSPropertyOp32
 70
     1
  0
XRECORD
  5
33F8
102
{ACAD_REACTORS
330
33F7
102
}
330
33F7
100
AcDbXrecord
280
     1
102
RTVSPropertyOp0
 70
     1
102
RTVSPropertyOp1
 70
     1
102
RTVSPropertyOp2
 70
     1
102
RTVSPropertyOp3
 70
     1
102
RTVSPropertyOp4
 70
     1
102
RTVSPropertyOp5
 70
     1
102
RTVSPropertyOp6
 70
     1
102
RTVSPropertyOp7
 70
     1
102
RTVSPropertyOp8
 70
     1
102
RTVSPropertyOp9
 70
     1
102
RTVSPropertyOp10
 70
     1
102
RTVSPropertyOp11
 70
     1
102
RTVSPropertyOp12
 70
     1
102
RTVSPropertyOp13
 70
     1
102
RTVSPropertyOp14
 70
     1
102
RTVSPropertyOp15
 70
     1
102
RTVSPropertyOp16
 70
     1
102
RTVSPropertyOp17
 70
     1
102
RTVSPropertyOp18
 70
     1
102
RTVSPropertyOp19
 70
     1
102
RTVSPropertyOp20
 70
     1
102
RTVSPropertyOp21
 70
     1
102
RTVSPropertyOp22
 70
     1
102
RTVSPropertyOp23
 70
     1
102
RTVSPropertyOp24
 70
     1
102
RTVSPropertyOp25
 70
     1
102
RTVSPropertyOp26
 70
     1
102
RTVSPropertyOp27
 70
     1
102
RTVSPropertyOp28
 70
     1
102
RTVSPropertyOp29
 70
     1
102
RTVSPropertyOp30
 70
     1
102
RTVSPropertyOp31
 70
     1
102
RTVSPropertyOp32
 70
     1
  0
XRECORD
  5
3412
102
{ACAD_REACTORS
330
3411
102
}
330
3411
100
AcDbXrecord
280
     1
102
RTVSPropertyOp0
 70
     0
102
RTVSPropertyOp1
 70
     0
102
RTVSPropertyOp2
 70
     0
102
RTVSPropertyOp3
 70
     0
102
RTVSPropertyOp4
 70
     0
102
RTVSPropertyOp5
 70
     0
102
RTVSPropertyOp6
 70
     0
102
RTVSPropertyOp7
 70
     0
102
RTVSPropertyOp8
 70
     0
102
RTVSPropertyOp9
 70
     0
102
RTVSPropertyOp10
 70
     0
102
RTVSPropertyOp11
 70
     0
102
RTVSPropertyOp12
 70
     0
102
RTVSPropertyOp13
 70
     0
102
RTVSPropertyOp14
 70
     2
102
RTVSPropertyOp15
 70
     0
102
RTVSPropertyOp16
 70
     0
102
RTVSPropertyOp17
 70
     0
102
RTVSPropertyOp18
 70
     0
102
RTVSPropertyOp19
 70
     0
102
RTVSPropertyOp20
 70
     0
102
RTVSPropertyOp21
 70
     0
102
RTVSPropertyOp22
 70
     0
102
RTVSPropertyOp23
 70
     0
102
RTVSPropertyOp24
 70
     0
102
RTVSPropertyOp25
 70
     0
102
RTVSPropertyOp26
 70
     0
102
RTVSPropertyOp27
 70
     0
102
RTVSPropertyOp28
 70
     0
102
RTVSPropertyOp29
 70
     0
102
RTVSPropertyOp30
 70
     0
102
RTVSPropertyOp31
 70
     0
102
RTVSPropertyOp32
 70
     0
  0
XRECORD
  5
3400
102
{ACAD_REACTORS
330
33FF
102
}
330
33FF
100
AcDbXrecord
280
     1
102
RTVSPropertyOp0
 70
     1
102
RTVSPropertyOp1
 70
     1
102
RTVSPropertyOp2
 70
     1
102
RTVSPropertyOp3
 70
     1
102
RTVSPropertyOp4
 70
     1
102
RTVSPropertyOp5
 70
     1
102
RTVSPropertyOp6
 70
     1
102
RTVSPropertyOp7
 70
     1
102
RTVSPropertyOp8
 70
     1
102
RTVSPropertyOp9
 70
     1
102
RTVSPropertyOp10
 70
     1
102
RTVSPropertyOp11
 70
     1
102
RTVSPropertyOp12
 70
     1
102
RTVSPropertyOp13
 70
     1
102
RTVSPropertyOp14
 70
     1
102
RTVSPropertyOp15
 70
     1
102
RTVSPropertyOp16
 70
     1
102
RTVSPropertyOp17
 70
     1
102
RTVSPropertyOp18
 70
     1
102
RTVSPropertyOp19
 70
     1
102
RTVSPropertyOp20
 70
     1
102
RTVSPropertyOp21
 70
     1
102
RTVSPropertyOp22
 70
     1
102
RTVSPropertyOp23
 70
     1
102
RTVSPropertyOp24
 70
     1
102
RTVSPropertyOp25
 70
     1
102
RTVSPropertyOp26
 70
     1
102
RTVSPropertyOp27
 70
     1
102
RTVSPropertyOp28
 70
     1
102
RTVSPropertyOp29
 70
     1
102
RTVSPropertyOp30
 70
     1
102
RTVSPropertyOp31
 70
     1
102
RTVSPropertyOp32
 70
     1
  0
XRECORD
  5
33E4
102
{ACAD_REACTORS
330
33E3
102
}
330
33E3
100
AcDbXrecord
280
     1
102
RTVSPropertyOp0
 70
     1
102
RTVSPropertyOp1
 70
     1
102
RTVSPropertyOp2
 70
     1
102
RTVSPropertyOp3
 70
     1
102
RTVSPropertyOp4
 70
     1
102
RTVSPropertyOp5
 70
     1
102
RTVSPropertyOp6
 70
     1
102
RTVSPropertyOp7
 70
     1
102
RTVSPropertyOp8
 70
     1
102
RTVSPropertyOp9
 70
     1
102
RTVSPropertyOp10
 70
     1
102
RTVSPropertyOp11
 70
     1
102
RTVSPropertyOp12
 70
     1
102
RTVSPropertyOp13
 70
     1
102
RTVSPropertyOp14
 70
     1
102
RTVSPropertyOp15
 70
     1
102
RTVSPropertyOp16
 70
     1
102
RTVSPropertyOp17
 70
     1
102
RTVSPropertyOp18
 70
     1
102
RTVSPropertyOp19
 70
     1
102
RTVSPropertyOp20
 70
     1
102
RTVSPropertyOp21
 70
     1
102
RTVSPropertyOp22
 70
     1
102
RTVSPropertyOp23
 70
     1
102
RTVSPropertyOp24
 70
     1
102
RTVSPropertyOp25
 70
     1
102
RTVSPropertyOp26
 70
     1
102
RTVSPropertyOp27
 70
     1
102
RTVSPropertyOp28
 70
     1
102
RTVSPropertyOp29
 70
     1
102
RTVSPropertyOp30
 70
     1
102
RTVSPropertyOp31
 70
     1
102
RTVSPropertyOp32
 70
     1
  0
XRECORD
  5
33E6
102
{ACAD_REACTORS
330
33E5
102
}
330
33E5
100
AcDbXrecord
280
     1
102
RTVSPropertyOp0
 70
     1
102
RTVSPropertyOp1
 70
     1
102
RTVSPropertyOp2
 70
     1
102
RTVSPropertyOp3
 70
     1
102
RTVSPropertyOp4
 70
     1
102
RTVSPropertyOp5
 70
     1
102
RTVSPropertyOp6
 70
     1
102
RTVSPropertyOp7
 70
     1
102
RTVSPropertyOp8
 70
     1
102
RTVSPropertyOp9
 70
     1
102
RTVSPropertyOp10
 70
     1
102
RTVSPropertyOp11
 70
     1
102
RTVSPropertyOp12
 70
     1
102
RTVSPropertyOp13
 70
     1
102
RTVSPropertyOp14
 70
     1
102
RTVSPropertyOp15
 70
     1
102
RTVSPropertyOp16
 70
     1
102
RTVSPropertyOp17
 70
     1
102
RTVSPropertyOp18
 70
     1
102
RTVSPropertyOp19
 70
     1
102
RTVSPropertyOp20
 70
     1
102
RTVSPropertyOp21
 70
     1
102
RTVSPropertyOp22
 70
     1
102
RTVSPropertyOp23
 70
     1
102
RTVSPropertyOp24
 70
     1
102
RTVSPropertyOp25
 70
     1
102
RTVSPropertyOp26
 70
     1
102
RTVSPropertyOp27
 70
     1
102
RTVSPropertyOp28
 70
     1
102
RTVSPropertyOp29
 70
     1
102
RTVSPropertyOp30
 70
     1
102
RTVSPropertyOp31
 70
     1
102
RTVSPropertyOp32
 70
     1
  0
XRECORD
  5
33E8
102
{ACAD_REACTORS
330
33E7
102
}
330
33E7
100
AcDbXrecord
280
     1
102
RTVSPropertyOp0
 70
     1
102
RTVSPropertyOp1
 70
     1
102
RTVSPropertyOp2
 70
     1
102
RTVSPropertyOp3
 70
     1
102
RTVSPropertyOp4
 70
     1
102
RTVSPropertyOp5
 70
     1
102
RTVSPropertyOp6
 70
     1
102
RTVSPropertyOp7
 70
     1
102
RTVSPropertyOp8
 70
     1
102
RTVSPropertyOp9
 70
     1
102
RTVSPropertyOp10
 70
     1
102
RTVSPropertyOp11
 70
     1
102
RTVSPropertyOp12
 70
     1
102
RTVSPropertyOp13
 70
     1
102
RTVSPropertyOp14
 70
     1
102
RTVSPropertyOp15
 70
     1
102
RTVSPropertyOp16
 70
     1
102
RTVSPropertyOp17
 70
     1
102
RTVSPropertyOp18
 70
     1
102
RTVSPropertyOp19
 70
     1
102
RTVSPropertyOp20
 70
     1
102
RTVSPropertyOp21
 70
     1
102
RTVSPropertyOp22
 70
     1
102
RTVSPropertyOp23
 70
     1
102
RTVSPropertyOp24
 70
     1
102
RTVSPropertyOp25
 70
     1
102
RTVSPropertyOp26
 70
     1
102
RTVSPropertyOp27
 70
     1
102
RTVSPropertyOp28
 70
     1
102
RTVSPropertyOp29
 70
     1
102
RTVSPropertyOp30
 70
     1
102
RTVSPropertyOp31
 70
     1
102
RTVSPropertyOp32
 70
     1
  0
XRECORD
  5
33EA
102
{ACAD_REACTORS
330
33E9
102
}
330
33E9
100
AcDbXrecord
280
     1
102
RTVSPropertyOp0
 70
     1
102
RTVSPropertyOp1
 70
     1
102
RTVSPropertyOp2
 70
     1
102
RTVSPropertyOp3
 70
     1
102
RTVSPropertyOp4
 70
     1
102
RTVSPropertyOp5
 70
     1
102
RTVSPropertyOp6
 70
     1
102
RTVSPropertyOp7
 70
     1
102
RTVSPropertyOp8
 70
     1
102
RTVSPropertyOp9
 70
     1
102
RTVSPropertyOp10
 70
     1
102
RTVSPropertyOp11
 70
     1
102
RTVSPropertyOp12
 70
     1
102
RTVSPropertyOp13
 70
     1
102
RTVSPropertyOp14
 70
     1
102
RTVSPropertyOp15
 70
     1
102
RTVSPropertyOp16
 70
     1
102
RTVSPropertyOp17
 70
     1
102
RTVSPropertyOp18
 70
     1
102
RTVSPropertyOp19
 70
     1
102
RTVSPropertyOp20
 70
     1
102
RTVSPropertyOp21
 70
     1
102
RTVSPropertyOp22
 70
     1
102
RTVSPropertyOp23
 70
     1
102
RTVSPropertyOp24
 70
     1
102
RTVSPropertyOp25
 70
     1
102
RTVSPropertyOp26
 70
     1
102
RTVSPropertyOp27
 70
     1
102
RTVSPropertyOp28
 70
     1
102
RTVSPropertyOp29
 70
     1
102
RTVSPropertyOp30
 70
     1
102
RTVSPropertyOp31
 70
     1
102
RTVSPropertyOp32
 70
     1
  0
XRECORD
  5
33F2
102
{ACAD_REACTORS
330
33F1
102
}
330
33F1
100
AcDbXrecord
280
     1
102
RTVSPropertyOp0
 70
     1
102
RTVSPropertyOp1
 70
     1
102
RTVSPropertyOp2
 70
     1
102
RTVSPropertyOp3
 70
     1
102
RTVSPropertyOp4
 70
     1
102
RTVSPropertyOp5
 70
     1
102
RTVSPropertyOp6
 70
     1
102
RTVSPropertyOp7
 70
     1
102
RTVSPropertyOp8
 70
     1
102
RTVSPropertyOp9
 70
     1
102
RTVSPropertyOp10
 70
     1
102
RTVSPropertyOp11
 70
     1
102
RTVSPropertyOp12
 70
     1
102
RTVSPropertyOp13
 70
     1
102
RTVSPropertyOp14
 70
     1
102
RTVSPropertyOp15
 70
     1
102
RTVSPropertyOp16
 70
     1
102
RTVSPropertyOp17
 70
     1
102
RTVSPropertyOp18
 70
     1
102
RTVSPropertyOp19
 70
     1
102
RTVSPropertyOp20
 70
     1
102
RTVSPropertyOp21
 70
     1
102
RTVSPropertyOp22
 70
     1
102
RTVSPropertyOp23
 70
     1
102
RTVSPropertyOp24
 70
     1
102
RTVSPropertyOp25
 70
     1
102
RTVSPropertyOp26
 70
     1
102
RTVSPropertyOp27
 70
     1
102
RTVSPropertyOp28
 70
     1
102
RTVSPropertyOp29
 70
     1
102
RTVSPropertyOp30
 70
     1
102
RTVSPropertyOp31
 70
     1
102
RTVSPropertyOp32
 70
     1
  0
XRECORD
  5
340E
102
{ACAD_REACTORS
330
340D
102
}
330
340D
100
AcDbXrecord
280
     1
102
RTVSPropertyOp0
 70
     0
102
RTVSPropertyOp1
 70
     0
102
RTVSPropertyOp2
 70
     0
102
RTVSPropertyOp3
 70
     0
102
RTVSPropertyOp4
 70
     0
102
RTVSPropertyOp5
 70
     0
102
RTVSPropertyOp6
 70
     0
102
RTVSPropertyOp7
 70
     0
102
RTVSPropertyOp8
 70
     0
102
RTVSPropertyOp9
 70
     0
102
RTVSPropertyOp10
 70
     0
102
RTVSPropertyOp11
 70
     0
102
RTVSPropertyOp12
 70
     0
102
RTVSPropertyOp13
 70
     0
102
RTVSPropertyOp14
 70
     2
102
RTVSPropertyOp15
 70
     0
102
RTVSPropertyOp16
 70
     0
102
RTVSPropertyOp17
 70
     0
102
RTVSPropertyOp18
 70
     0
102
RTVSPropertyOp19
 70
     0
102
RTVSPropertyOp20
 70
     0
102
RTVSPropertyOp21
 70
     0
102
RTVSPropertyOp22
 70
     0
102
RTVSPropertyOp23
 70
     0
102
RTVSPropertyOp24
 70
     0
102
RTVSPropertyOp25
 70
     0
102
RTVSPropertyOp26
 70
     0
102
RTVSPropertyOp27
 70
     0
102
RTVSPropertyOp28
 70
     0
102
RTVSPropertyOp29
 70
     0
102
RTVSPropertyOp30
 70
     0
102
RTVSPropertyOp31
 70
     0
102
RTVSPropertyOp32
 70
     0
  0
XRECORD
  5
33FE
102
{ACAD_REACTORS
330
33FD
102
}
330
33FD
100
AcDbXrecord
280
     1
102
RTVSPropertyOp0
 70
     1
102
RTVSPropertyOp1
 70
     1
102
RTVSPropertyOp2
 70
     1
102
RTVSPropertyOp3
 70
     1
102
RTVSPropertyOp4
 70
     1
102
RTVSPropertyOp5
 70
     1
102
RTVSPropertyOp6
 70
     1
102
RTVSPropertyOp7
 70
     1
102
RTVSPropertyOp8
 70
     1
102
RTVSPropertyOp9
 70
     1
102
RTVSPropertyOp10
 70
     1
102
RTVSPropertyOp11
 70
     1
102
RTVSPropertyOp12
 70
     1
102
RTVSPropertyOp13
 70
     1
102
RTVSPropertyOp14
 70
     1
102
RTVSPropertyOp15
 70
     1
102
RTVSPropertyOp16
 70
     1
102
RTVSPropertyOp17
 70
     1
102
RTVSPropertyOp18
 70
     1
102
RTVSPropertyOp19
 70
     1
102
RTVSPropertyOp20
 70
     1
102
RTVSPropertyOp21
 70
     1
102
RTVSPropertyOp22
 70
     1
102
RTVSPropertyOp23
 70
     1
102
RTVSPropertyOp24
 70
     1
102
RTVSPropertyOp25
 70
     1
102
RTVSPropertyOp26
 70
     1
102
RTVSPropertyOp27
 70
     1
102
RTVSPropertyOp28
 70
     1
102
RTVSPropertyOp29
 70
     1
102
RTVSPropertyOp30
 70
     1
102
RTVSPropertyOp31
 70
     1
102
RTVSPropertyOp32
 70
     1
  0
XRECORD
  5
3410
102
{ACAD_REACTORS
330
340F
102
}
330
340F
100
AcDbXrecord
280
     1
102
RTVSPropertyOp0
 70
     0
102
RTVSPropertyOp1
 70
     0
102
RTVSPropertyOp2
 70
     0
102
RTVSPropertyOp3
 70
     0
102
RTVSPropertyOp4
 70
     0
102
RTVSPropertyOp5
 70
     0
102
RTVSPropertyOp6
 70
     0
102
RTVSPropertyOp7
 70
     0
102
RTVSPropertyOp8
 70
     0
102
RTVSPropertyOp9
 70
     0
102
RTVSPropertyOp10
 70
     0
102
RTVSPropertyOp11
 70
     0
102
RTVSPropertyOp12
 70
     0
102
RTVSPropertyOp13
 70
     0
102
RTVSPropertyOp14
 70
     2
102
RTVSPropertyOp15
 70
     0
102
RTVSPropertyOp16
 70
     0
102
RTVSPropertyOp17
 70
     0
102
RTVSPropertyOp18
 70
     0
102
RTVSPropertyOp19
 70
     0
102
RTVSPropertyOp20
 70
     0
102
RTVSPropertyOp21
 70
     0
102
RTVSPropertyOp22
 70
     0
102
RTVSPropertyOp23
 70
     0
102
RTVSPropertyOp24
 70
     0
102
RTVSPropertyOp25
 70
     0
102
RTVSPropertyOp26
 70
     0
102
RTVSPropertyOp27
 70
     0
102
RTVSPropertyOp28
 70
     0
102
RTVSPropertyOp29
 70
     0
102
RTVSPropertyOp30
 70
     0
102
RTVSPropertyOp31
 70
     0
102
RTVSPropertyOp32
 70
     0
  0
XRECORD
  5
33F6
102
{ACAD_REACTORS
330
33F5
102
}
330
33F5
100
AcDbXrecord
280
     1
102
RTVSPropertyOp0
 70
     1
102
RTVSPropertyOp1
 70
     1
102
RTVSPropertyOp2
 70
     1
102
RTVSPropertyOp3
 70
     1
102
RTVSPropertyOp4
 70
     1
102
RTVSPropertyOp5
 70
     1
102
RTVSPropertyOp6
 70
     1
102
RTVSPropertyOp7
 70
     1
102
RTVSPropertyOp8
 70
     1
102
RTVSPropertyOp9
 70
     1
102
RTVSPropertyOp10
 70
     1
102
RTVSPropertyOp11
 70
     1
102
RTVSPropertyOp12
 70
     1
102
RTVSPropertyOp13
 70
     1
102
RTVSPropertyOp14
 70
     1
102
RTVSPropertyOp15
 70
     1
102
RTVSPropertyOp16
 70
     1
102
RTVSPropertyOp17
 70
     1
102
RTVSPropertyOp18
 70
     1
102
RTVSPropertyOp19
 70
     1
102
RTVSPropertyOp20
 70
     1
102
RTVSPropertyOp21
 70
     1
102
RTVSPropertyOp22
 70
     1
102
RTVSPropertyOp23
 70
     1
102
RTVSPropertyOp24
 70
     1
102
RTVSPropertyOp25
 70
     1
102
RTVSPropertyOp26
 70
     1
102
RTVSPropertyOp27
 70
     1
102
RTVSPropertyOp28
 70
     1
102
RTVSPropertyOp29
 70
     1
102
RTVSPropertyOp30
 70
     1
102
RTVSPropertyOp31
 70
     1
102
RTVSPropertyOp32
 70
     1
  0
XRECORD
  5
340C
102
{ACAD_REACTORS
330
340B
102
}
330
340B
100
AcDbXrecord
280
     1
102
RTVSPropertyOp0
 70
     1
102
RTVSPropertyOp1
 70
     1
102
RTVSPropertyOp2
 70
     1
102
RTVSPropertyOp3
 70
     1
102
RTVSPropertyOp4
 70
     1
102
RTVSPropertyOp5
 70
     1
102
RTVSPropertyOp6
 70
     1
102
RTVSPropertyOp7
 70
     1
102
RTVSPropertyOp8
 70
     1
102
RTVSPropertyOp9
 70
     1
102
RTVSPropertyOp10
 70
     1
102
RTVSPropertyOp11
 70
     1
102
RTVSPropertyOp12
 70
     1
102
RTVSPropertyOp13
 70
     1
102
RTVSPropertyOp14
 70
     1
102
RTVSPropertyOp15
 70
     1
102
RTVSPropertyOp16
 70
     1
102
RTVSPropertyOp17
 70
     1
102
RTVSPropertyOp18
 70
     1
102
RTVSPropertyOp19
 70
     1
102
RTVSPropertyOp20
 70
     1
102
RTVSPropertyOp21
 70
     1
102
RTVSPropertyOp22
 70
     1
102
RTVSPropertyOp23
 70
     1
102
RTVSPropertyOp24
 70
     1
102
RTVSPropertyOp25
 70
     1
102
RTVSPropertyOp26
 70
     1
102
RTVSPropertyOp27
 70
     1
102
RTVSPropertyOp28
 70
     1
102
RTVSPropertyOp29
 70
     1
102
RTVSPropertyOp30
 70
     1
102
RTVSPropertyOp31
 70
     1
102
RTVSPropertyOp32
 70
     1
  0
XRECORD
  5
340A
102
{ACAD_REACTORS
330
3409
102
}
330
3409
100
AcDbXrecord
280
     1
102
RTVSPropertyOp0
 70
     1
102
RTVSPropertyOp1
 70
     1
102
RTVSPropertyOp2
 70
     1
102
RTVSPropertyOp3
 70
     1
102
RTVSPropertyOp4
 70
     1
102
RTVSPropertyOp5
 70
     1
102
RTVSPropertyOp6
 70
     1
102
RTVSPropertyOp7
 70
     1
102
RTVSPropertyOp8
 70
     1
102
RTVSPropertyOp9
 70
     1
102
RTVSPropertyOp10
 70
     1
102
RTVSPropertyOp11
 70
     1
102
RTVSPropertyOp12
 70
     1
102
RTVSPropertyOp13
 70
     1
102
RTVSPropertyOp14
 70
     1
102
RTVSPropertyOp15
 70
     1
102
RTVSPropertyOp16
 70
     1
102
RTVSPropertyOp17
 70
     1
102
RTVSPropertyOp18
 70
     1
102
RTVSPropertyOp19
 70
     1
102
RTVSPropertyOp20
 70
     1
102
RTVSPropertyOp21
 70
     1
102
RTVSPropertyOp22
 70
     1
102
RTVSPropertyOp23
 70
     1
102
RTVSPropertyOp24
 70
     1
102
RTVSPropertyOp25
 70
     1
102
RTVSPropertyOp26
 70
     1
102
RTVSPropertyOp27
 70
     1
102
RTVSPropertyOp28
 70
     1
102
RTVSPropertyOp29
 70
     1
102
RTVSPropertyOp30
 70
     1
102
RTVSPropertyOp31
 70
     1
102
RTVSPropertyOp32
 70
     1
  0
XRECORD
  5
3404
102
{ACAD_REACTORS
330
3403
102
}
330
3403
100
AcDbXrecord
280
     1
102
RTVSPropertyOp0
 70
     1
102
RTVSPropertyOp1
 70
     1
102
RTVSPropertyOp2
 70
     1
102
RTVSPropertyOp3
 70
     1
102
RTVSPropertyOp4
 70
     1
102
RTVSPropertyOp5
 70
     1
102
RTVSPropertyOp6
 70
     1
102
RTVSPropertyOp7
 70
     1
102
RTVSPropertyOp8
 70
     1
102
RTVSPropertyOp9
 70
     1
102
RTVSPropertyOp10
 70
     1
102
RTVSPropertyOp11
 70
     1
102
RTVSPropertyOp12
 70
     1
102
RTVSPropertyOp13
 70
     1
102
RTVSPropertyOp14
 70
     1
102
RTVSPropertyOp15
 70
     1
102
RTVSPropertyOp16
 70
     1
102
RTVSPropertyOp17
 70
     1
102
RTVSPropertyOp18
 70
     1
102
RTVSPropertyOp19
 70
     1
102
RTVSPropertyOp20
 70
     1
102
RTVSPropertyOp21
 70
     1
102
RTVSPropertyOp22
 70
     1
102
RTVSPropertyOp23
 70
     1
102
RTVSPropertyOp24
 70
     1
102
RTVSPropertyOp25
 70
     1
102
RTVSPropertyOp26
 70
     1
102
RTVSPropertyOp27
 70
     1
102
RTVSPropertyOp28
 70
     1
102
RTVSPropertyOp29
 70
     1
102
RTVSPropertyOp30
 70
     1
102
RTVSPropertyOp31
 70
     1
102
RTVSPropertyOp32
 70
     1
  0
XRECORD
  5
3406
102
{ACAD_REACTORS
330
3405
102
}
330
3405
100
AcDbXrecord
280
     1
102
RTVSPropertyOp0
 70
     1
102
RTVSPropertyOp1
 70
     1
102
RTVSPropertyOp2
 70
     1
102
RTVSPropertyOp3
 70
     1
102
RTVSPropertyOp4
 70
     1
102
RTVSPropertyOp5
 70
     1
102
RTVSPropertyOp6
 70
     1
102
RTVSPropertyOp7
 70
     1
102
RTVSPropertyOp8
 70
     1
102
RTVSPropertyOp9
 70
     1
102
RTVSPropertyOp10
 70
     1
102
RTVSPropertyOp11
 70
     1
102
RTVSPropertyOp12
 70
     1
102
RTVSPropertyOp13
 70
     1
102
RTVSPropertyOp14
 70
     1
102
RTVSPropertyOp15
 70
     1
102
RTVSPropertyOp16
 70
     1
102
RTVSPropertyOp17
 70
     1
102
RTVSPropertyOp18
 70
     1
102
RTVSPropertyOp19
 70
     1
102
RTVSPropertyOp20
 70
     1
102
RTVSPropertyOp21
 70
     1
102
RTVSPropertyOp22
 70
     1
102
RTVSPropertyOp23
 70
     1
102
RTVSPropertyOp24
 70
     1
102
RTVSPropertyOp25
 70
     1
102
RTVSPropertyOp26
 70
     1
102
RTVSPropertyOp27
 70
     1
102
RTVSPropertyOp28
 70
     1
102
RTVSPropertyOp29
 70
     1
102
RTVSPropertyOp30
 70
     1
102
RTVSPropertyOp31
 70
     1
102
RTVSPropertyOp32
 70
     1
  0
XRECORD
  5
33FC
102
{ACAD_REACTORS
330
33FB
102
}
330
33FB
100
AcDbXrecord
280
     1
102
RTVSPropertyOp0
 70
     1
102
RTVSPropertyOp1
 70
     1
102
RTVSPropertyOp2
 70
     1
102
RTVSPropertyOp3
 70
     1
102
RTVSPropertyOp4
 70
     1
102
RTVSPropertyOp5
 70
     1
102
RTVSPropertyOp6
 70
     1
102
RTVSPropertyOp7
 70
     1
102
RTVSPropertyOp8
 70
     1
102
RTVSPropertyOp9
 70
     1
102
RTVSPropertyOp10
 70
     1
102
RTVSPropertyOp11
 70
     1
102
RTVSPropertyOp12
 70
     1
102
RTVSPropertyOp13
 70
     1
102
RTVSPropertyOp14
 70
     1
102
RTVSPropertyOp15
 70
     1
102
RTVSPropertyOp16
 70
     1
102
RTVSPropertyOp17
 70
     1
102
RTVSPropertyOp18
 70
     1
102
RTVSPropertyOp19
 70
     1
102
RTVSPropertyOp20
 70
     1
102
RTVSPropertyOp21
 70
     1
102
RTVSPropertyOp22
 70
     1
102
RTVSPropertyOp23
 70
     1
102
RTVSPropertyOp24
 70
     1
102
RTVSPropertyOp25
 70
     1
102
RTVSPropertyOp26
 70
     1
102
RTVSPropertyOp27
 70
     1
102
RTVSPropertyOp28
 70
     1
102
RTVSPropertyOp29
 70
     1
102
RTVSPropertyOp30
 70
     1
102
RTVSPropertyOp31
 70
     1
102
RTVSPropertyOp32
 70
     1
  0
XRECORD
  5
33F0
102
{ACAD_REACTORS
330
33EF
102
}
330
33EF
100
AcDbXrecord
280
     1
102
RTVSPropertyOp0
 70
     1
102
RTVSPropertyOp1
 70
     1
102
RTVSPropertyOp2
 70
     1
102
RTVSPropertyOp3
 70
     1
102
RTVSPropertyOp4
 70
     1
102
RTVSPropertyOp5
 70
     1
102
RTVSPropertyOp6
 70
     1
102
RTVSPropertyOp7
 70
     1
102
RTVSPropertyOp8
 70
     1
102
RTVSPropertyOp9
 70
     1
102
RTVSPropertyOp10
 70
     1
102
RTVSPropertyOp11
 70
     1
102
RTVSPropertyOp12
 70
     1
102
RTVSPropertyOp13
 70
     1
102
RTVSPropertyOp14
 70
     1
102
RTVSPropertyOp15
 70
     1
102
RTVSPropertyOp16
 70
     1
102
RTVSPropertyOp17
 70
     1
102
RTVSPropertyOp18
 70
     1
102
RTVSPropertyOp19
 70
     1
102
RTVSPropertyOp20
 70
     1
102
RTVSPropertyOp21
 70
     1
102
RTVSPropertyOp22
 70
     1
102
RTVSPropertyOp23
 70
     1
102
RTVSPropertyOp24
 70
     1
102
RTVSPropertyOp25
 70
     1
102
RTVSPropertyOp26
 70
     1
102
RTVSPropertyOp27
 70
     1
102
RTVSPropertyOp28
 70
     1
102
RTVSPropertyOp29
 70
     1
102
RTVSPropertyOp30
 70
     1
102
RTVSPropertyOp31
 70
     1
102
RTVSPropertyOp32
 70
     1
  0
XRECORD
  5
3408
102
{ACAD_REACTORS
330
3407
102
}
330
3407
100
AcDbXrecord
280
     1
102
RTVSPropertyOp0
 70
     1
102
RTVSPropertyOp1
 70
     1
102
RTVSPropertyOp2
 70
     1
102
RTVSPropertyOp3
 70
     1
102
RTVSPropertyOp4
 70
     1
102
RTVSPropertyOp5
 70
     1
102
RTVSPropertyOp6
 70
     1
102
RTVSPropertyOp7
 70
     1
102
RTVSPropertyOp8
 70
     1
102
RTVSPropertyOp9
 70
     1
102
RTVSPropertyOp10
 70
     1
102
RTVSPropertyOp11
 70
     1
102
RTVSPropertyOp12
 70
     1
102
RTVSPropertyOp13
 70
     1
102
RTVSPropertyOp14
 70
     1
102
RTVSPropertyOp15
 70
     1
102
RTVSPropertyOp16
 70
     1
102
RTVSPropertyOp17
 70
     1
102
RTVSPropertyOp18
 70
     1
102
RTVSPropertyOp19
 70
     1
102
RTVSPropertyOp20
 70
     1
102
RTVSPropertyOp21
 70
     1
102
RTVSPropertyOp22
 70
     1
102
RTVSPropertyOp23
 70
     1
102
RTVSPropertyOp24
 70
     1
102
RTVSPropertyOp25
 70
     1
102
RTVSPropertyOp26
 70
     1
102
RTVSPropertyOp27
 70
     1
102
RTVSPropertyOp28
 70
     1
102
RTVSPropertyOp29
 70
     1
102
RTVSPropertyOp30
 70
     1
102
RTVSPropertyOp31
 70
     1
102
RTVSPropertyOp32
 70
     1
  0
ENDSEC
  0
EOF
