  0
SECTION
  2
HEADER
  9
$ACADVER
  1
AC1015
  9
$ACADMAINTVER
 70
    20
  9
$DWGCODEPAGE
  3
ANSI_932
  9
$INSBASE
 10
0.0
 20
0.0
 30
0.0
  9
$EXTMIN
 10
5.819092781538074
 20
8.148285613102189
 30
-0.0015258207003583
  9
$EXTMAX
 10
404.6319589678105
 20
283.9799658863107
 30
0.0000000349246037
  9
$LIMMIN
 10
0.0
 20
0.0
  9
$LIMMAX
 10
420.0
 20
297.0
  9
$ORTHOMODE
 70
     0
  9
$REGENMODE
 70
     1
  9
$FILLMODE
 70
     1
  9
$QTEXTMODE
 70
     0
  9
$MIRRTEXT
 70
     1
  9
$LTSCALE
 40
1.0
  9
$ATTMODE
 70
     1
  9
$TEXTSIZE
 40
2.5
  9
$TRACEWID
 40
1.0
  9
$TEXTSTYLE
  7
STANDARD
  9
$CLAYER
  8
ZUWAKU
  9
$CELTYPE
  6
BYLAYER
  9
$CECOLOR
 62
   256
  9
$CELTSCALE
 40
1.0
  9
$DISPSILH
 70
     0
  9
$DIMSCALE
 40
1.0
  9
$DIMASZ
 40
3.0
  9
$DIMEXO
 40
3.0
  9
$DIMDLI
 40
7.0
  9
$DIMRND
 40
0.0
  9
$DIMDLE
 40
0.0
  9
$DIMEXE
 40
1.5
  9
$DIMTP
 40
0.0
  9
$DIMTM
 40
0.0
  9
$DIMTXT
 40
3.0
  9
$DIMCEN
 40
150.0
  9
$DIMTSZ
 40
0.0
  9
$DIMTOL
 70
     0
  9
$DIMLIM
 70
     0
  9
$DIMTIH
 70
     0
  9
$DIMTOH
 70
     0
  9
$DIMSE1
 70
     0
  9
$DIMSE2
 70
     0
  9
$DIMTAD
 70
     3
  9
$DIMZIN
 70
     0
  9
$DIMBLK
  1

  9
$DIMASO
 70
     1
  9
$DIMSHO
 70
     1
  9
$DIMPOST
  1

  9
$DIMAPOST
  1

  9
$DIMALT
 70
     0
  9
$DIMALTD
 70
     2
  9
$DIMALTF
 40
25.4
  9
$DIMLFAC
 40
1.0
  9
$DIMTOFL
 70
     1
  9
$DIMTVP
 40
0.0
  9
$DIMTIX
 70
     0
  9
$DIMSOXD
 70
     0
  9
$DIMSAH
 70
     1
  9
$DIMBLK1
  1
OPEN
  9
$DIMBLK2
  1
OPEN
  9
$DIMSTYLE
  2
STANDARD
  9
$DIMCLRD
 70
   256
  9
$DIMCLRE
 70
   256
  9
$DIMCLRT
 70
   256
  9
$DIMTFAC
 40
1.0
  9
$DIMGAP
 40
1.0
  9
$DIMJUST
 70
     0
  9
$DIMSD1
 70
     0
  9
$DIMSD2
 70
     0
  9
$DIMTOLJ
 70
     1
  9
$DIMTZIN
 70
     0
  9
$DIMALTZ
 70
     0
  9
$DIMALTTZ
 70
     0
  9
$DIMUPT
 70
     0
  9
$DIMDEC
 70
     0
  9
$DIMTDEC
 70
     0
  9
$DIMALTU
 70
     2
  9
$DIMALTTD
 70
     2
  9
$DIMTXSTY
  7
STANDARD
  9
$DIMAUNIT
 70
     0
  9
$DIMADEC
 70
     0
  9
$DIMALTRND
 40
0.0
  9
$DIMAZIN
 70
     0
  9
$DIMDSEP
 70
    46
  9
$DIMATFIT
 70
     3
  9
$DIMFRAC
 70
     0
  9
$DIMLDRBLK
  1
OPEN
  9
$DIMLUNIT
 70
     2
  9
$DIMLWD
 70
    -1
  9
$DIMLWE
 70
    -1
  9
$DIMTMOVE
 70
     0
  9
$LUNITS
 70
     2
  9
$LUPREC
 70
     4
  9
$SKETCHINC
 40
1.0
  9
$FILLETRAD
 40
1.399999999999999
  9
$AUNITS
 70
     0
  9
$AUPREC
 70
     0
  9
$MENU
  1
.
  9
$ELEVATION
 40
0.0
  9
$PELEVATION
 40
0.0
  9
$THICKNESS
 40
0.0
  9
$LIMCHECK
 70
     0
  9
$CHAMFERA
 40
0.0
  9
$CHAMFERB
 40
0.0
  9
$CHAMFERC
 40
20.0
  9
$CHAMFERD
 40
0.0
  9
$SKPOLY
 70
     0
  9
$TDCREATE
 40
2450994.350997107
  9
$TDUCREATE
 40
2450993.975997107
  9
$TDUPDATE
 40
2458306.496745231
  9
$TDUUPDATE
 40
2458306.121745231
  9
$TDINDWG
 40
0.0950702778
  9
$TDUSRTIMER
 40
0.0950702778
  9
$USRTIMER
 70
     1
  9
$ANGBASE
 50
0.0
  9
$ANGDIR
 70
     0
  9
$PDMODE
 70
     0
  9
$PDSIZE
 40
0.0
  9
$PLINEWID
 40
0.0
  9
$SPLFRAME
 70
     0
  9
$SPLINETYPE
 70
     6
  9
$SPLINESEGS
 70
     8
  9
$HANDSEED
  5
293D
  9
$SURFTAB1
 70
     6
  9
$SURFTAB2
 70
     6
  9
$SURFTYPE
 70
     6
  9
$SURFU
 70
     6
  9
$SURFV
 70
     6
  9
$UCSBASE
  2

  9
$UCSNAME
  2

  9
$UCSORG
 10
0.0
 20
0.0
 30
0.0
  9
$UCSXDIR
 10
1.0
 20
0.0
 30
0.0
  9
$UCSYDIR
 10
0.0
 20
1.0
 30
0.0
  9
$UCSORTHOREF
  2

  9
$UCSORTHOVIEW
 70
     0
  9
$UCSORGTOP
 10
0.0
 20
0.0
 30
0.0
  9
$UCSORGBOTTOM
 10
0.0
 20
0.0
 30
0.0
  9
$UCSORGLEFT
 10
0.0
 20
0.0
 30
0.0
  9
$UCSORGRIGHT
 10
0.0
 20
0.0
 30
0.0
  9
$UCSORGFRONT
 10
0.0
 20
0.0
 30
0.0
  9
$UCSORGBACK
 10
0.0
 20
0.0
 30
0.0
  9
$PUCSBASE
  2

  9
$PUCSNAME
  2

  9
$PUCSORG
 10
0.0
 20
0.0
 30
0.0
  9
$PUCSXDIR
 10
1.0
 20
0.0
 30
0.0
  9
$PUCSYDIR
 10
0.0
 20
1.0
 30
0.0
  9
$PUCSORTHOREF
  2

  9
$PUCSORTHOVIEW
 70
     0
  9
$PUCSORGTOP
 10
0.0
 20
0.0
 30
0.0
  9
$PUCSORGBOTTOM
 10
0.0
 20
0.0
 30
0.0
  9
$PUCSORGLEFT
 10
0.0
 20
0.0
 30
0.0
  9
$PUCSORGRIGHT
 10
0.0
 20
0.0
 30
0.0
  9
$PUCSORGFRONT
 10
0.0
 20
0.0
 30
0.0
  9
$PUCSORGBACK
 10
0.0
 20
0.0
 30
0.0
  9
$USERI1
 70
     0
  9
$USERI2
 70
     0
  9
$USERI3
 70
     0
  9
$USERI4
 70
     0
  9
$USERI5
 70
     0
  9
$USERR1
 40
0.0
  9
$USERR2
 40
0.0
  9
$USERR3
 40
0.0
  9
$USERR4
 40
0.0
  9
$USERR5
 40
0.0
  9
$WORLDVIEW
 70
     1
  9
$SHADEDGE
 70
     3
  9
$SHADEDIF
 70
    70
  9
$TILEMODE
 70
     1
  9
$MAXACTVP
 70
    16
  9
$PINSBASE
 10
0.0
 20
0.0
 30
0.0
  9
$PLIMCHECK
 70
     0
  9
$PEXTMIN
 10
0.0
 20
0.0
 30
0.0
  9
$PEXTMAX
 10
420.0
 20
297.0
 30
0.0
  9
$PLIMMIN
 10
0.0
 20
0.0
  9
$PLIMMAX
 10
420.0
 20
297.0
  9
$UNITMODE
 70
     0
  9
$VISRETAIN
 70
     0
  9
$PLINEGEN
 70
     0
  9
$PSLTSCALE
 70
     1
  9
$TREEDEPTH
 70
  3020
  9
$CMLSTYLE
  2
STANDARD
  9
$CMLJUST
 70
     0
  9
$CMLSCALE
 40
1.0
  9
$PROXYGRAPHICS
 70
     1
  9
$MEASUREMENT
 70
     1
  9
$CELWEIGHT
370
    -1
  9
$ENDCAPS
280
     0
  9
$JOINSTYLE
280
     0
  9
$LWDISPLAY
290
     1
  9
$INSUNITS
 70
     0
  9
$HYPERLINKBASE
  1

  9
$STYLESHEET
  1
print.ctb
  9
$XEDIT
290
     1
  9
$CEPSNTYPE
380
     0
  9
$PSTYLEMODE
290
     1
  9
$FINGERPRINTGUID
  2
{B4565D9B-6A16-43F4-BC10-4AF2DFFDD405}
  9
$VERSIONGUID
  2
{33F6583D-2FBF-434A-AC5C-7703CB06F8BA}
  9
$EXTNAMES
290
     1
  9
$PSVPSCALE
 40
0.0
  9
$OLESTARTUP
290
     0
  0
ENDSEC
  0
SECTION
  2
CLASSES
  0
CLASS
  1
ACDBDICTIONARYWDFLT
  2
AcDbDictionaryWithDefault
  3
ObjectDBX Classes
 90
        0
280
     0
281
     0
  0
CLASS
  1
ACDBPLACEHOLDER
  2
AcDbPlaceHolder
  3
ObjectDBX Classes
 90
        0
280
     0
281
     0
  0
CLASS
  1
LAYOUT
  2
AcDbLayout
  3
ObjectDBX Classes
 90
        0
280
     0
281
     0
  0
CLASS
  1
DICTIONARYVAR
  2
AcDbDictionaryVar
  3
ObjectDBX Classes
 90
        0
280
     0
281
     0
  0
CLASS
  1
MATERIAL
  2
AcDbMaterial
  3
ObjectDBX Classes
 90
     1153
280
     0
281
     0
  0
CLASS
  1
VISUALSTYLE
  2
AcDbVisualStyle
  3
ObjectDBX Classes
 90
     4095
280
     0
281
     0
  0
CLASS
  1
TABLESTYLE
  2
AcDbTableStyle
  3
ObjectDBX Classes
 90
     4095
280
     0
281
     0
  0
CLASS
  1
SCALE
  2
AcDbScale
  3
ObjectDBX Classes
 90
     1153
280
     0
281
     0
  0
CLASS
  1
MLEADERSTYLE
  2
AcDbMLeaderStyle
  3
ACDB_MLEADERSTYLE_CLASS
 90
     4095
280
     0
281
     0
  0
CLASS
  1
CELLSTYLEMAP
  2
AcDbCellStyleMap
  3
ObjectDBX Classes
 90
     1152
280
     0
281
     0
  0
ENDSEC
  0
SECTION
  2
TABLES
  0
TABLE
  2
VPORT
  5
8
102
{ACAD_XDICTIONARY
360
281F
102
}
330
0
100
AcDbSymbolTable
 70
     1
  0
VPORT
  5
2763
330
8
100
AcDbSymbolTableRecord
100
AcDbViewportTableRecord
  2
*Active
 70
     0
 10
0.0
 20
0.0
 11
1.0
 21
1.0
 12
205.2255258746743
 22
146.0641257497064
 13
0.0
 23
0.0
 14
5.0
 24
5.0
 15
0.0
 25
0.0
 16
0.0
 26
0.0
 36
1.0
 17
0.0
 27
0.0
 37
0.0
 40
277.6227950801773
 41
2.061755146262188
 42
50.0
 43
0.0
 44
0.0
 50
0.0
 51
0.0
 71
     0
 72
   100
 73
     1
 74
     0
 75
     0
 76
     0
 77
     0
 78
     0
281
     0
 65
     1
110
0.0
120
0.0
130
0.0
111
1.0
121
0.0
131
0.0
112
0.0
122
1.0
132
0.0
 79
     0
146
0.0
  0
ENDTAB
  0
TABLE
  2
LTYPE
  5
5
330
0
100
AcDbSymbolTable
 70
     2
  0
LTYPE
  5
14
330
5
100
AcDbSymbolTableRecord
100
AcDbLinetypeTableRecord
  2
BYBLOCK
 70
     0
  3

 72
    65
 73
     0
 40
0.0
  0
LTYPE
  5
15
330
5
100
AcDbSymbolTableRecord
100
AcDbLinetypeTableRecord
  2
BYLAYER
 70
     0
  3

 72
    65
 73
     0
 40
0.0
  0
LTYPE
  5
16
330
5
100
AcDbSymbolTableRecord
100
AcDbLinetypeTableRecord
  2
CONTINUOUS
 70
     0
  3
Solid line
 72
    65
 73
     0
 40
0.0
  0
LTYPE
  5
120
330
5
100
AcDbSymbolTableRecord
100
AcDbLinetypeTableRecord
  2
CENTER
 70
     0
  3
____ _ ____ _ ____ _ ____ _ ____ _ ____ _ ____ 
 72
    65
 73
     4
 40
2.0
 49
1.25
 74
     0
 49
-0.25
 74
     0
 49
0.25
 74
     0
 49
-0.25
 74
     0
  0
ENDTAB
  0
TABLE
  2
LAYER
  5
2
330
0
100
AcDbSymbolTable
 70
     9
  0
LAYER
  5
F
330
2
100
AcDbSymbolTableRecord
100
AcDbLayerTableRecord
  2
0
 70
     0
 62
     7
  6
CONTINUOUS
370
    -3
390
290
  0
LAYER
  5
62
330
2
100
AcDbSymbolTableRecord
100
AcDbLayerTableRecord
  2
VIEWPORT
 70
     0
 62
     7
  6
CONTINUOUS
370
    -3
390
290
  0
LAYER
  5
6B
330
2
100
AcDbSymbolTableRecord
100
AcDbLayerTableRecord
  2
ZUWAKU
 70
     0
 62
     7
  6
CONTINUOUS
370
    -3
390
290
  0
LAYER
  5
140
330
2
100
AcDbSymbolTableRecord
100
AcDbLayerTableRecord
  2
SEIHIN
 70
     0
 62
     3
  6
CONTINUOUS
370
    -3
390
290
  0
LAYER
  5
141
330
2
100
AcDbSymbolTableRecord
100
AcDbLayerTableRecord
  2
SUNPOU
 70
     0
 62
     4
  6
CONTINUOUS
370
    -3
390
290
  0
LAYER
  5
142
330
2
100
AcDbSymbolTableRecord
100
AcDbLayerTableRecord
  2
CENTER L
 70
     0
 62
     1
  6
CENTER
370
    -3
390
290
  0
LAYER
  5
1F5
330
2
100
AcDbSymbolTableRecord
100
AcDbLayerTableRecord
  2
DEFPOINTS
 70
     0
 62
     7
  6
CONTINUOUS
290
     0
370
    -3
390
290
  0
LAYER
  5
4EF
330
2
100
AcDbSymbolTableRecord
100
AcDbLayerTableRecord
  2
moji
 70
     0
 62
     2
  6
CONTINUOUS
370
    -3
390
290
  0
LAYER
  5
256F
330
2
100
AcDbSymbolTableRecord
100
AcDbLayerTableRecord
  2
ﾊｯﾁﾝｸﾞ
 70
     0
 62
     7
  6
CONTINUOUS
370
    -3
390
290
  0
ENDTAB
  0
TABLE
  2
STYLE
  5
3
330
0
100
AcDbSymbolTable
 70
     2
  0
STYLE
  5
10
330
3
100
AcDbSymbolTableRecord
100
AcDbTextStyleTableRecord
  2
STANDARD
 70
     0
 40
0.0
 41
1.0
 50
0.0
 71
     0
 42
2.5
  3
TXT
  4
bigfont.shx
  0
STYLE
  5
4F0
330
3
100
AcDbSymbolTableRecord
100
AcDbTextStyleTableRecord
  2
ｽﾀｲﾙ1
 70
     0
 40
0.0
 41
1.0
 50
0.0
 71
     0
 42
2.5
  3

  4

1001
ACAD
1000
MS PGothic
1071
    32818
  0
ENDTAB
  0
TABLE
  2
VIEW
  5
6
330
0
100
AcDbSymbolTable
 70
     0
  0
ENDTAB
  0
TABLE
  2
UCS
  5
7
330
0
100
AcDbSymbolTable
 70
     0
  0
ENDTAB
  0
TABLE
  2
APPID
  5
9
330
0
100
AcDbSymbolTable
 70
     3
  0
APPID
  5
11
330
9
100
AcDbSymbolTableRecord
100
AcDbRegAppTableRecord
  2
ACAD
 70
     0
  0
APPID
  5
280B
330
9
100
AcDbSymbolTableRecord
100
AcDbRegAppTableRecord
  2
ACAD_EXEMPT_FROM_CAD_STANDARDS
 70
     0
  0
APPID
  5
285D
330
9
100
AcDbSymbolTableRecord
100
AcDbRegAppTableRecord
  2
ACAD_MLEADERVER
 70
     0
  0
ENDTAB
  0
TABLE
  2
DIMSTYLE
  5
A
330
0
100
AcDbSymbolTable
 70
     1
100
AcDbDimStyleTable
 71
     1
340
1D
  0
DIMSTYLE
105
1D
102
{ACAD_REACTORS
330
1BED
330
1BEE
330
1BF9
330
1BF8
330
1BEC
330
1BEB
330
1C25
330
1C28
330
244F
102
}
330
A
100
AcDbSymbolTableRecord
100
AcDbDimStyleTableRecord
  2
STANDARD
 70
     0
340
10
  0
ENDTAB
  0
TABLE
  2
BLOCK_RECORD
  5
1
330
0
100
AcDbSymbolTable
 70
    14
  0
BLOCK_RECORD
  5
1A
102
{ACAD_XDICTIONARY
360
2D8
102
}
330
1
100
AcDbSymbolTableRecord
100
AcDbBlockTableRecord
  2
*MODEL_SPACE
340
293
  0
BLOCK_RECORD
  5
17
102
{ACAD_XDICTIONARY
360
2D6
102
}
330
1
100
AcDbSymbolTableRecord
100
AcDbBlockTableRecord
  2
*PAPER_SPACE
340
294
  0
BLOCK_RECORD
  5
B2
330
1
100
AcDbSymbolTableRecord
100
AcDbBlockTableRecord
  2
_OPEN
340
0
102
{BLKREFS
331
23B5
331
23B6
331
23BE
331
23BF
331
239A
331
239B
331
23D0
331
23D1
331
23F5
331
23F6
331
23D9
331
23DA
331
23A3
331
23A4
331
23AC
331
23AD
331
27B6
331
27B7
102
}
  0
BLOCK_RECORD
  5
359
330
1
100
AcDbSymbolTableRecord
100
AcDbBlockTableRecord
  2
*X1
340
0
102
{BLKREFS
331
602
102
}
  0
BLOCK_RECORD
  5
1C4A
330
1
100
AcDbSymbolTableRecord
100
AcDbBlockTableRecord
  2
*D2
340
0
  0
BLOCK_RECORD
  5
1C56
330
1
100
AcDbSymbolTableRecord
100
AcDbBlockTableRecord
  2
*D3
340
0
  0
BLOCK_RECORD
  5
1C62
330
1
100
AcDbSymbolTableRecord
100
AcDbBlockTableRecord
  2
*D4
340
0
  0
BLOCK_RECORD
  5
1C6E
330
1
100
AcDbSymbolTableRecord
100
AcDbBlockTableRecord
  2
*D5
340
0
  0
BLOCK_RECORD
  5
1C7A
330
1
100
AcDbSymbolTableRecord
100
AcDbBlockTableRecord
  2
*D6
340
0
  0
BLOCK_RECORD
  5
1C86
330
1
100
AcDbSymbolTableRecord
100
AcDbBlockTableRecord
  2
*D7
340
0
  0
BLOCK_RECORD
  5
1C92
330
1
100
AcDbSymbolTableRecord
100
AcDbBlockTableRecord
  2
*D8
340
0
  0
BLOCK_RECORD
  5
1C9E
330
1
100
AcDbSymbolTableRecord
100
AcDbBlockTableRecord
  2
*D9
340
0
  0
BLOCK_RECORD
  5
2450
330
1
100
AcDbSymbolTableRecord
100
AcDbBlockTableRecord
  2
*D10
340
0
  0
BLOCK_RECORD
  5
271A
330
1
100
AcDbSymbolTableRecord
100
AcDbBlockTableRecord
  2
*X11
340
0
102
{BLKREFS
331
25BE
102
}
  0
BLOCK_RECORD
  5
2742
330
1
100
AcDbSymbolTableRecord
100
AcDbBlockTableRecord
  2
*X12
340
0
102
{BLKREFS
331
25BF
102
}
  0
BLOCK_RECORD
  5
2750
330
1
100
AcDbSymbolTableRecord
100
AcDbBlockTableRecord
  2
*X13
340
0
102
{BLKREFS
331
25C0
102
}
  0
ENDTAB
  0
ENDSEC
  0
SECTION
  2
BLOCKS
  0
BLOCK
  5
1B
330
1A
100
AcDbEntity
  8
0
100
AcDbBlockBegin
  2
*MODEL_SPACE
 70
     0
 10
0.0
 20
0.0
 30
0.0
  3
*MODEL_SPACE
  1

  0
ENDBLK
  5
1C
330
1A
100
AcDbEntity
  8
0
100
AcDbBlockEnd
  0
BLOCK
  5
18
330
17
100
AcDbEntity
 67
     1
  8
0
100
AcDbBlockBegin
  2
*PAPER_SPACE
 70
     0
 10
0.0
 20
0.0
 30
0.0
  3
*PAPER_SPACE
  1

  0
ENDBLK
  5
19
330
17
100
AcDbEntity
 67
     1
  8
0
100
AcDbBlockEnd
  0
BLOCK
  5
B3
330
B2
100
AcDbEntity
  8
0
100
AcDbBlockBegin
  2
_OPEN
 70
     0
 10
0.0
 20
0.0
 30
0.0
  3
_OPEN
  1

  0
LINE
  5
B4
330
B2
100
AcDbEntity
  8
0
  6
ByBlock
 62
     0
100
AcDbLine
 10
-1.0
 20
0.1666666666666666
 30
0.0
 11
0.0
 21
0.0
 31
0.0
  0
LINE
  5
B5
330
B2
100
AcDbEntity
  8
0
  6
ByBlock
 62
     0
100
AcDbLine
 10
0.0
 20
0.0
 30
0.0
 11
-1.0
 21
-0.1666666666666666
 31
0.0
  0
LINE
  5
B6
330
B2
100
AcDbEntity
  8
0
  6
ByBlock
 62
     0
100
AcDbLine
 10
0.0
 20
0.0
 30
0.0
 11
-1.0
 21
0.0
 31
0.0
  0
ENDBLK
  5
B7
330
B2
100
AcDbEntity
  8
0
100
AcDbBlockEnd
  0
BLOCK
  5
4ED
330
359
100
AcDbEntity
  8
0
100
AcDbBlockBegin
  2
*X1
 70
     1
 10
0.0
 20
0.0
 30
0.0
  3
*X1
  1

  0
LINE
  5
35A
330
359
100
AcDbEntity
  8
0
 62
     0
100
AcDbLine
 10
66.75047808566091
 20
28.71175535310772
 30
0.0
 11
66.10464715594599
 21
29.3575862828227
 31
0.0
  0
LINE
  5
35B
330
359
100
AcDbEntity
  8
0
 62
     0
100
AcDbLine
 10
66.75047808566091
 20
27.81372974100083
 30
0.0
 11
65.20662154383905
 21
29.3575862828227
 31
0.0
  0
LINE
  5
35C
330
359
100
AcDbEntity
  8
0
 62
     0
100
AcDbLine
 10
66.75047808566086
 20
26.91570412889388
 30
0.0
 11
64.32934413964591
 21
29.33683807490883
 31
0.0
  0
LINE
  5
35D
330
359
100
AcDbEntity
  8
0
 62
     0
100
AcDbLine
 10
66.75047808566091
 20
26.01767851678705
 30
0.0
 11
63.95047808566085
 21
28.81767851678706
 31
0.0
  0
LINE
  5
35E
330
359
100
AcDbEntity
  8
0
 62
     0
100
AcDbLine
 10
66.75047808566091
 20
25.1196529046801
 30
0.0
 11
63.95047808566085
 21
27.91965290468017
 31
0.0
  0
LINE
  5
35F
330
359
100
AcDbEntity
  8
0
 62
     0
100
AcDbLine
 10
66.75047808566086
 20
24.22162729257315
 30
0.0
 11
63.95047808566079
 21
27.02162729257322
 31
0.0
  0
LINE
  5
360
330
359
100
AcDbEntity
  8
0
 62
     0
100
AcDbLine
 10
61.85047808566082
 20
28.22360168046635
 30
0.0
 11
60.71649348330453
 21
29.3575862828227
 31
0.0
  0
LINE
  5
361
330
359
100
AcDbEntity
  8
0
 62
     0
100
AcDbLine
 10
66.75047808566091
 20
23.32360168046631
 30
0.0
 11
63.95047808566085
 21
26.12360168046638
 31
0.0
  0
LINE
  5
362
330
359
100
AcDbEntity
  8
0
 62
     0
100
AcDbLine
 10
61.85047808566082
 20
27.32557606835945
 30
0.0
 11
59.81846787119758
 21
29.35758628282264
 31
0.0
  0
LINE
  5
363
330
359
100
AcDbEntity
  8
0
 62
     0
100
AcDbLine
 10
66.75047808566086
 20
22.42557606835936
 30
0.0
 11
63.95047808566085
 21
25.22557606835943
 31
0.0
  0
LINE
  5
364
330
359
100
AcDbEntity
  8
0
 62
     0
100
AcDbLine
 10
61.85047808566082
 20
26.4275504562525
 30
0.0
 11
59.14496712052375
 21
29.13306142138959
 31
0.0
  0
LINE
  5
365
330
359
100
AcDbEntity
  8
0
 62
     0
100
AcDbLine
 10
66.75047808566086
 20
21.52755045625247
 30
0.0
 11
63.95047808566079
 21
24.32755045625248
 31
0.0
  0
LINE
  5
366
330
359
100
AcDbEntity
  8
0
 62
     0
100
AcDbLine
 10
61.85047808566094
 20
25.5295248441455
 30
0.0
 11
59.05047808566076
 21
28.32952484414562
 31
0.0
  0
LINE
  5
367
330
359
100
AcDbEntity
  8
0
 62
     0
100
AcDbLine
 10
66.75047808566091
 20
20.62952484414552
 30
0.0
 11
63.95047808566085
 21
23.42952484414559
 31
0.0
  0
LINE
  5
368
330
359
100
AcDbEntity
  8
0
 62
     0
100
AcDbLine
 10
61.85047808566088
 20
24.63149923203861
 30
0.0
 11
59.05047808566076
 21
27.43149923203879
 31
0.0
  0
LINE
  5
369
330
359
100
AcDbEntity
  8
0
 62
     0
100
AcDbLine
 10
66.75047808566086
 20
19.73149923203863
 30
0.0
 11
63.95047808566079
 21
22.5314992320387
 31
0.0
  0
LINE
  5
36A
330
359
100
AcDbEntity
  8
0
 62
     0
100
AcDbLine
 10
61.85047808566088
 20
23.73347361993172
 30
0.0
 11
59.05047808566076
 21
26.53347361993184
 31
0.0
  0
LINE
  5
36B
330
359
100
AcDbEntity
  8
0
 62
     0
100
AcDbLine
 10
66.75047808566086
 20
18.83347361993173
 30
0.0
 11
63.95047808566079
 21
21.63347361993181
 31
0.0
  0
LINE
  5
36C
330
359
100
AcDbEntity
  8
0
 62
     0
100
AcDbLine
 10
61.85047808566082
 20
22.83544800782477
 30
0.0
 11
59.0504780856607
 21
25.63544800782489
 31
0.0
  0
LINE
  5
36D
330
359
100
AcDbEntity
  8
0
 62
     0
100
AcDbLine
 10
66.7504780856608
 20
17.93544800782479
 30
0.0
 11
63.95047808566079
 21
20.73544800782486
 31
0.0
  0
LINE
  5
36E
330
359
100
AcDbEntity
  8
0
 62
     0
100
AcDbLine
 10
61.85047808566088
 20
21.93742239571793
 30
0.0
 11
59.05047808566076
 21
24.73742239571806
 31
0.0
  0
LINE
  5
36F
330
359
100
AcDbEntity
  8
0
 62
     0
100
AcDbLine
 10
55.55047808566081
 20
28.237422395718
 30
0.0
 11
54.43031419855618
 21
29.35758628282264
 31
0.0
  0
LINE
  5
370
330
359
100
AcDbEntity
  8
0
 62
     0
100
AcDbLine
 10
66.75047808566086
 20
17.03742239571795
 30
0.0
 11
63.95047808566079
 21
19.83742239571796
 31
0.0
  0
LINE
  5
371
330
359
100
AcDbEntity
  8
0
 62
     0
100
AcDbLine
 10
61.85047808566088
 20
21.03939678361098
 30
0.0
 11
59.0504780856607
 21
23.83939678361111
 31
0.0
  0
LINE
  5
372
330
359
100
AcDbEntity
  8
0
 62
     0
100
AcDbLine
 10
55.55047808566076
 20
27.33939678361105
 30
0.0
 11
53.53228858644922
 21
29.35758628282264
 31
0.0
  0
LINE
  5
373
330
359
100
AcDbEntity
  8
0
 62
     0
100
AcDbLine
 10
66.75047808566086
 20
16.139396783611
 30
0.0
 11
63.95047808566079
 21
18.93939678361107
 31
0.0
  0
LINE
  5
374
330
359
100
AcDbEntity
  8
0
 62
     0
100
AcDbLine
 10
61.85047808566082
 20
20.14137117150409
 30
0.0
 11
59.05047808566076
 21
22.9413711715041
 31
0.0
  0
LINE
  5
375
330
359
100
AcDbEntity
  8
0
 62
     0
100
AcDbLine
 10
55.55047808566076
 20
26.44137117150416
 30
0.0
 11
52.85071536233676
 21
29.14113389482816
 31
0.0
  0
LINE
  5
376
330
359
100
AcDbEntity
  8
0
 62
     0
100
AcDbLine
 10
66.7504780856608
 20
15.24137117150411
 30
0.0
 11
63.95047808566073
 21
18.04137117150412
 31
0.0
  0
LINE
  5
377
330
359
100
AcDbEntity
  8
0
 62
     0
100
AcDbLine
 10
61.85047808566088
 20
19.24334555939714
 30
0.0
 11
59.05047808566081
 21
22.04334555939721
 31
0.0
  0
LINE
  5
378
330
359
100
AcDbEntity
  8
0
 62
     0
100
AcDbLine
 10
55.55047808566081
 20
25.54334555939721
 30
0.0
 11
52.7504780856608
 21
28.34334555939722
 31
0.0
  0
LINE
  5
379
330
359
100
AcDbEntity
  8
0
 62
     0
100
AcDbLine
 10
66.75047808566086
 20
14.34334555939716
 30
0.0
 11
63.95047808566079
 21
17.14334555939723
 31
0.0
  0
LINE
  5
37A
330
359
100
AcDbEntity
  8
0
 62
     0
100
AcDbLine
 10
61.85047808566082
 20
18.34531994729025
 30
0.0
 11
59.05047808566081
 21
21.14531994729032
 31
0.0
  0
LINE
  5
37B
330
359
100
AcDbEntity
  8
0
 62
     0
100
AcDbLine
 10
55.55047808566087
 20
24.64531994729026
 30
0.0
 11
52.7504780856608
 21
27.44531994729033
 31
0.0
  0
LINE
  5
37C
330
359
100
AcDbEntity
  8
0
 62
     0
100
AcDbLine
 10
66.67851273077104
 20
13.51728530218008
 30
0.0
 11
63.95047808566079
 21
16.24531994729034
 31
0.0
  0
LINE
  5
37D
330
359
100
AcDbEntity
  8
0
 62
     0
100
AcDbLine
 10
61.85047808566088
 20
17.44729433518324
 30
0.0
 11
59.05047808566076
 21
20.24729433518337
 31
0.0
  0
LINE
  5
37E
330
359
100
AcDbEntity
  8
0
 62
     0
100
AcDbLine
 10
55.55047808566081
 20
23.74729433518337
 30
0.0
 11
52.75047808566075
 21
26.54729433518338
 31
0.0
  0
LINE
  5
37F
330
359
100
AcDbEntity
  8
0
 62
     0
100
AcDbLine
 10
66.04018613802157
 20
13.25758628282261
 30
0.0
 11
63.95047808566073
 21
15.34729433518345
 31
0.0
  0
LINE
  5
380
330
359
100
AcDbEntity
  8
0
 62
     0
100
AcDbLine
 10
55.55047808566081
 20
22.84926872307642
 30
0.0
 11
52.75047808566075
 21
25.64926872307649
 31
0.0
  0
LINE
  5
381
330
359
100
AcDbEntity
  8
0
 62
     0
100
AcDbLine
 10
61.85047808566088
 20
16.54926872307635
 30
0.0
 11
59.05047808566076
 21
19.34926872307648
 31
0.0
  0
LINE
  5
382
330
359
100
AcDbEntity
  8
0
 62
     0
100
AcDbLine
 10
50.1254780856608
 20
28.27426872307643
 30
0.0
 11
49.04216052591465
 21
29.35758628282253
 31
0.0
  0
LINE
  5
383
330
359
100
AcDbEntity
  8
0
 62
     0
100
AcDbLine
 10
65.14216052591468
 20
13.2575862828225
 30
0.0
 11
63.95047808566073
 21
14.4492687230765
 31
0.0
  0
LINE
  5
384
330
359
100
AcDbEntity
  8
0
 62
     0
100
AcDbLine
 10
55.55047808566081
 20
21.95124311096953
 30
0.0
 11
52.75047808566085
 21
24.75124311096954
 31
0.0
  0
LINE
  5
385
330
359
100
AcDbEntity
  8
0
 62
     0
100
AcDbLine
 10
50.1254780856608
 20
27.37624311096954
 30
0.0
 11
48.14413491380782
 21
29.35758628282258
 31
0.0
  0
LINE
  5
386
330
359
100
AcDbEntity
  8
0
 62
     0
100
AcDbLine
 10
61.82451978501529
 20
15.6772014116151
 30
0.0
 11
59.05047808566076
 21
18.45124311096958
 31
0.0
  0
LINE
  5
387
330
359
100
AcDbEntity
  8
0
 62
     0
100
AcDbLine
 10
55.55047808566081
 20
21.05321749886264
 30
0.0
 11
52.75047808566085
 21
23.85321749886259
 31
0.0
  0
LINE
  5
388
330
359
100
AcDbEntity
  8
0
 62
     0
100
AcDbLine
 10
49.92989753954697
 20
26.67379804497648
 30
0.0
 11
47.24610930170081
 21
29.35758628282264
 31
0.0
  0
LINE
  5
389
330
359
100
AcDbEntity
  8
0
 62
     0
100
AcDbLine
 10
61.63153448975805
 20
14.97216109476534
 30
0.0
 11
59.05047808566076
 21
17.55321749886269
 31
0.0
  0
LINE
  5
38A
330
359
100
AcDbEntity
  8
0
 62
     0
100
AcDbLine
 10
55.55047808566081
 20
20.15519188675569
 30
0.0
 11
52.7504780856608
 21
22.9551918867557
 31
0.0
  0
LINE
  5
38B
330
359
100
AcDbEntity
  8
0
 62
     0
100
AcDbLine
 10
49.14808368959382
 20
26.55758628282263
 30
0.0
 11
46.34808368959392
 21
29.35758628282253
 31
0.0
  0
LINE
  5
38C
330
359
100
AcDbEntity
  8
0
 62
     0
100
AcDbLine
 10
61.30650261383448
 20
14.39916735858196
 30
0.0
 11
58.97896234650125
 21
16.72670762591525
 31
0.0
  0
LINE
  5
38D
330
359
100
AcDbEntity
  8
0
 62
     0
100
AcDbLine
 10
55.55047808566081
 20
19.25716627464885
 30
0.0
 11
52.75047808566085
 21
22.05716627464881
 31
0.0
  0
LINE
  5
38E
330
359
100
AcDbEntity
  8
0
 62
     0
100
AcDbLine
 10
48.25005807748704
 20
26.55758628282257
 30
0.0
 11
45.5124913483096
 21
29.29515301200007
 31
0.0
  0
LINE
  5
38F
330
359
100
AcDbEntity
  8
0
 62
     0
100
AcDbLine
 10
60.87446081650944
 20
13.93318354380017
 30
0.0
 11
58.57737670803373
 21
16.23026765227587
 31
0.0
  0
LINE
  5
390
330
359
100
AcDbEntity
  8
0
 62
     0
100
AcDbLine
 10
55.55047808566081
 20
18.3591406625419
 30
0.0
 11
52.7504780856608
 21
21.15914066254186
 31
0.0
  0
LINE
  5
391
330
359
100
AcDbEntity
  8
0
 62
     0
100
AcDbLine
 10
47.35203246538015
 20
26.55758628282257
 30
0.0
 11
44.8478509237762
 21
29.06176782442646
 31
0.0
  0
LINE
  5
392
330
359
100
AcDbEntity
  8
0
 62
     0
100
AcDbLine
 10
60.33829847158341
 20
13.5713202766193
 30
0.0
 11
57.85203246538014
 21
16.05758628282257
 31
0.0
  0
LINE
  5
393
330
359
100
AcDbEntity
  8
0
 62
     0
100
AcDbLine
 10
55.55047808566076
 20
17.46111505043495
 30
0.0
 11
52.7504780856608
 21
20.26111505043497
 31
0.0
  0
LINE
  5
394
330
359
100
AcDbEntity
  8
0
 62
     0
100
AcDbLine
 10
46.47579668129123
 20
26.53579645480448
 30
0.0
 11
44.30524998656602
 21
28.70634314952969
 31
0.0
  0
LINE
  5
395
330
359
100
AcDbEntity
  8
0
 62
     0
100
AcDbLine
 10
59.68188591167211
 20
13.32970722442366
 30
0.0
 11
56.95400685327314
 21
16.05758628282262
 31
0.0
  0
LINE
  5
396
330
359
100
AcDbEntity
  8
0
 62
     0
100
AcDbLine
 10
46.10047808566088
 20
26.01308943832788
 30
0.0
 11
43.86713792752146
 21
28.24642959646729
 31
0.0
  0
LINE
  5
397
330
359
100
AcDbEntity
  8
0
 62
     0
100
AcDbLine
 10
58.85598124116626
 20
13.25758628282256
 30
0.0
 11
52.7504780856608
 21
19.36308943832802
 31
0.0
  0
LINE
  5
398
330
359
100
AcDbEntity
  8
0
 62
     0
100
AcDbLine
 10
46.10047808566088
 20
25.11506382622111
 30
0.0
 11
43.53536701516844
 21
27.68017489671354
 31
0.0
  0
LINE
  5
399
330
359
100
AcDbEntity
  8
0
 62
     0
100
AcDbLine
 10
57.95795562905937
 20
13.25758628282256
 30
0.0
 11
52.7504780856608
 21
18.46506382622118
 31
0.0
  0
LINE
  5
39A
330
359
100
AcDbEntity
  8
0
 62
     0
100
AcDbLine
 10
46.30702236676467
 20
24.01049393301037
 30
0.0
 11
43.33318849580433
 21
26.98432780397065
 31
0.0
  0
LINE
  5
39B
330
359
100
AcDbEntity
  8
0
 62
     0
100
AcDbLine
 10
57.05993001695247
 20
13.25758628282256
 30
0.0
 11
52.7504780856608
 21
17.56703821411423
 31
0.0
  0
LINE
  5
39C
330
359
100
AcDbEntity
  8
0
 62
     0
100
AcDbLine
 10
50.52408178835225
 20
18.89540889931584
 30
0.0
 11
43.30047808566075
 21
26.11901260200733
 31
0.0
  0
LINE
  5
39D
330
359
100
AcDbEntity
  8
0
 62
     0
100
AcDbLine
 10
41.20047808566073
 20
28.2190126020073
 30
0.0
 11
40.06190440484544
 21
29.35758628282264
 31
0.0
  0
LINE
  5
39E
330
359
100
AcDbEntity
  8
0
 62
     0
100
AcDbLine
 10
56.16190440484553
 20
13.25758628282256
 30
0.0
 11
52.75047808566075
 21
16.66901260200728
 31
0.0
  0
LINE
  5
39F
330
359
100
AcDbEntity
  8
0
 62
     0
100
AcDbLine
 10
50.65047808566089
 20
17.87098698990036
 30
0.0
 11
43.30047808566081
 21
25.22098698990044
 31
0.0
  0
LINE
  5
3A0
330
359
100
AcDbEntity
  8
0
 62
     0
100
AcDbLine
 10
41.20047808566084
 20
27.32098698990035
 30
0.0
 11
39.16387879273856
 21
29.3575862828227
 31
0.0
  0
LINE
  5
3A1
330
359
100
AcDbEntity
  8
0
 62
     0
100
AcDbLine
 10
55.24743091399376
 20
13.2740341615675
 30
0.0
 11
52.76692596440574
 21
15.75453911115551
 31
0.0
  0
LINE
  5
3A2
330
359
100
AcDbEntity
  8
0
 62
     0
100
AcDbLine
 10
41.20047808566084
 20
26.42296137779346
 30
0.0
 11
38.49308819788553
 21
29.13035126556872
 31
0.0
  0
LINE
  5
3A3
330
359
100
AcDbEntity
  8
0
 62
     0
100
AcDbLine
 10
50.65047808566084
 20
16.97296137779341
 30
0.0
 11
43.3238887535432
 21
24.2995507099111
 31
0.0
  0
LINE
  5
3A4
330
359
100
AcDbEntity
  8
0
 62
     0
100
AcDbLine
 10
41.20047808566084
 20
25.52493576568651
 30
0.0
 11
38.40047808566078
 21
28.32493576568658
 31
0.0
  0
LINE
  5
3A5
330
359
100
AcDbEntity
  8
0
 62
     0
100
AcDbLine
 10
50.65047808566072
 20
16.07493576568657
 30
0.0
 11
43.64200817138322
 21
23.08340567996413
 31
0.0
  0
LINE
  5
3A6
330
359
100
AcDbEntity
  8
0
 62
     0
100
AcDbLine
 10
41.20047808566084
 20
24.62691015357961
 30
0.0
 11
38.40047808566078
 21
27.42691015357963
 31
0.0
  0
LINE
  5
3A7
330
359
100
AcDbEntity
  8
0
 62
     0
100
AcDbLine
 10
50.54191626807176
 20
15.2854719711687
 30
0.0
 11
47.84628147903345
 21
17.98110676020701
 31
0.0
  0
LINE
  5
3A8
330
359
100
AcDbEntity
  8
0
 62
     0
100
AcDbLine
 10
41.20047808566084
 20
23.72888454147272
 30
0.0
 11
38.40047808566078
 21
26.52888454147279
 31
0.0
  0
LINE
  5
3A9
330
359
100
AcDbEntity
  8
0
 62
     0
100
AcDbLine
 10
36.10899118508382
 20
28.82037144204969
 30
0.0
 11
35.57177634431094
 21
29.35758628282264
 31
0.0
  0
LINE
  5
3AA
330
359
100
AcDbEntity
  8
0
 62
     0
100
AcDbLine
 10
50.2740405603102
 20
14.65532206682337
 30
0.0
 11
47.85047808566088
 21
17.07888454147269
 31
0.0
  0
LINE
  5
3AB
330
359
100
AcDbEntity
  8
0
 62
     0
100
AcDbLine
 10
41.20047808566079
 20
22.83085892936577
 30
0.0
 11
38.40047808566078
 21
25.63085892936584
 31
0.0
  0
LINE
  5
3AC
330
359
100
AcDbEntity
  8
0
 62
     0
100
AcDbLine
 10
35.91006352083122
 20
28.12127349419535
 30
0.0
 11
34.67375073220399
 21
29.35758628282264
 31
0.0
  0
LINE
  5
3AD
330
359
100
AcDbEntity
  8
0
 62
     0
100
AcDbLine
 10
49.8910537621349
 20
14.14028325289172
 30
0.0
 11
47.75319290277439
 21
16.27814411225222
 31
0.0
  0
LINE
  5
3AE
330
359
100
AcDbEntity
  8
0
 62
     0
100
AcDbLine
 10
41.20047808566079
 20
21.93283331725888
 30
0.0
 11
38.40047808566072
 21
24.7328333172589
 31
0.0
  0
LINE
  5
3AF
330
359
100
AcDbEntity
  8
0
 62
     0
100
AcDbLine
 10
35.69453737392553
 20
27.43877402899409
 30
0.0
 11
33.78532181045495
 21
29.34798959246473
 31
0.0
  0
LINE
  5
3B0
330
359
100
AcDbEntity
  8
0
 62
     0
100
AcDbLine
 10
49.40473479701927
 20
13.72857660590034
 30
0.0
 11
47.07572512009704
 21
16.05758628282262
 31
0.0
  0
LINE
  5
3B1
330
359
100
AcDbEntity
  8
0
 62
     0
100
AcDbLine
 10
41.20047808566084
 20
21.03480770515199
 30
0.0
 11
38.40047808566078
 21
23.83480770515206
 31
0.0
  0
LINE
  5
3B2
330
359
100
AcDbEntity
  8
0
 62
     0
100
AcDbLine
 10
35.47901122702001
 20
26.75627456379283
 30
0.0
 11
33.35101122701997
 21
28.88427456379287
 31
0.0
  0
LINE
  5
3B3
330
359
100
AcDbEntity
  8
0
 62
     0
100
AcDbLine
 10
48.8086508485589
 20
13.42663494225388
 30
0.0
 11
46.17769950799015
 21
16.05758628282268
 31
0.0
  0
LINE
  5
3B4
330
359
100
AcDbEntity
  8
0
 62
     0
100
AcDbLine
 10
41.20047808566079
 20
20.1367820930451
 30
0.0
 11
38.40047808566072
 21
22.93678209304511
 31
0.0
  0
LINE
  5
3B5
330
359
100
AcDbEntity
  8
0
 62
     0
100
AcDbLine
 10
35.26348508011415
 20
26.07377509859174
 30
0.0
 11
33.13548508011417
 21
28.20177509859173
 31
0.0
  0
LINE
  5
3B6
330
359
100
AcDbEntity
  8
0
 62
     0
100
AcDbLine
 10
48.07097819691143
 20
13.26628198179446
 30
0.0
 11
45.27967389588326
 21
16.05758628282262
 31
0.0
  0
LINE
  5
3B7
330
359
100
AcDbEntity
  8
0
 62
     0
100
AcDbLine
 10
41.20047808566079
 20
19.23875648093815
 30
0.0
 11
38.40047808566078
 21
22.03875648093811
 31
0.0
  0
LINE
  5
3B8
330
359
100
AcDbEntity
  8
0
 62
     0
100
AcDbLine
 10
35.04795893320858
 20
25.39127563339036
 30
0.0
 11
32.91995893320848
 21
27.51927563339041
 31
0.0
  0
LINE
  5
3B9
330
359
100
AcDbEntity
  8
0
 62
     0
100
AcDbLine
 10
47.18164828377638
 20
13.25758628282256
 30
0.0
 11
44.38164828377631
 21
16.05758628282262
 31
0.0
  0
LINE
  5
3BA
330
359
100
AcDbEntity
  8
0
 62
     0
100
AcDbLine
 10
41.20047808566079
 20
18.34073086883126
 30
0.0
 11
38.40047808566083
 21
21.14073086883127
 31
0.0
  0
LINE
  5
3BB
330
359
100
AcDbEntity
  8
0
 62
     0
100
AcDbLine
 10
34.83243278630295
 20
24.70877616818916
 30
0.0
 11
32.70443278630285
 21
26.83677616818921
 31
0.0
  0
LINE
  5
3BC
330
359
100
AcDbEntity
  8
0
 62
     0
100
AcDbLine
 10
46.28362267166949
 20
13.25758628282261
 30
0.0
 11
43.8500109743731
 21
15.691197980119
 31
0.0
  0
LINE
  5
3BD
330
359
100
AcDbEntity
  8
0
 62
     0
100
AcDbLine
 10
34.61690663939732
 20
24.02627670298779
 30
0.0
 11
32.48890663939722
 21
26.15427670298795
 31
0.0
  0
LINE
  5
3BE
330
359
100
AcDbEntity
  8
0
 62
     0
100
AcDbLine
 10
41.20047808566079
 20
17.44270525672436
 30
0.0
 11
38.40047808566083
 21
20.24270525672432
 31
0.0
  0
LINE
  5
3BF
330
359
100
AcDbEntity
  8
0
 62
     0
100
AcDbLine
 10
30.35047808566083
 20
28.29270525672433
 30
0.0
 11
29.28559705956252
 21
29.35758628282258
 31
0.0
  0
LINE
  5
3C0
330
359
100
AcDbEntity
  8
0
 62
     0
100
AcDbLine
 10
45.38559705956259
 20
13.25758628282256
 30
0.0
 11
43.82547808566084
 21
14.81770525672431
 31
0.0
  0
LINE
  5
3C1
330
359
100
AcDbEntity
  8
0
 62
     0
100
AcDbLine
 10
34.40138049249152
 20
23.3437772377867
 30
0.0
 11
32.27338049249159
 21
25.47177723778663
 31
0.0
  0
LINE
  5
3C2
330
359
100
AcDbEntity
  8
0
 62
     0
100
AcDbLine
 10
41.20047808566079
 20
16.54467964461742
 30
0.0
 11
38.40047808566078
 21
19.34467964461743
 31
0.0
  0
LINE
  5
3C3
330
359
100
AcDbEntity
  8
0
 62
     0
100
AcDbLine
 10
30.35047808566083
 20
27.39467964461738
 30
0.0
 11
28.38757144745563
 21
29.35758628282258
 31
0.0
  0
LINE
  5
3C4
330
359
100
AcDbEntity
  8
0
 62
     0
100
AcDbLine
 10
44.48757144745559
 20
13.25758628282261
 30
0.0
 11
43.82547808566079
 21
13.91967964461736
 31
0.0
  0
LINE
  5
3C5
330
359
100
AcDbEntity
  8
0
 62
     0
100
AcDbLine
 10
34.18585434558588
 20
22.66127777258538
 30
0.0
 11
32.05785434558584
 21
24.78927777258542
 31
0.0
  0
LINE
  5
3C6
330
359
100
AcDbEntity
  8
0
 62
     0
100
AcDbLine
 10
30.35047808566077
 20
26.49665403251044
 30
0.0
 11
27.67503315676317
 21
29.1720989614081
 31
0.0
  0
LINE
  5
3C7
330
359
100
AcDbEntity
  8
0
 62
     0
100
AcDbLine
 10
41.20047808566073
 20
15.64665403251052
 30
0.0
 11
38.40047808566078
 21
18.44665403251048
 31
0.0
  0
LINE
  5
3C8
330
359
100
AcDbEntity
  8
0
 62
     0
100
AcDbLine
 10
33.97032819868025
 20
21.97877830738418
 30
0.0
 11
31.84232819868026
 21
24.10677830738416
 31
0.0
  0
LINE
  5
3C9
330
359
100
AcDbEntity
  8
0
 62
     0
100
AcDbLine
 10
30.35047808566083
 20
25.5986284204036
 30
0.0
 11
27.55047808566076
 21
28.39862842040361
 31
0.0
  0
LINE
  5
3CA
330
359
100
AcDbEntity
  8
0
 62
     0
100
AcDbLine
 10
41.20047808566079
 20
14.74862842040363
 30
0.0
 11
38.40047808566078
 21
17.54862842040359
 31
0.0
  0
LINE
  5
3CB
330
359
100
AcDbEntity
  8
0
 62
     0
100
AcDbLine
 10
33.7652396892882
 20
21.28584120466928
 30
0.0
 11
31.62680205177452
 21
23.42427884218296
 31
0.0
  0
LINE
  5
3CC
330
359
100
AcDbEntity
  8
0
 62
     0
100
AcDbLine
 10
30.35047808566083
 20
24.70060280829665
 30
0.0
 11
27.55047808566076
 21
27.50060280829672
 31
0.0
  0
LINE
  5
3CD
330
359
100
AcDbEntity
  8
0
 62
     0
100
AcDbLine
 10
41.20047808566073
 20
13.85060280829668
 30
0.0
 11
38.40047808566078
 21
16.65060280829669
 31
0.0
  0
LINE
  5
3CE
330
359
100
AcDbEntity
  8
0
 62
     0
100
AcDbLine
 10
34.1797130487222
 20
19.97334223312833
 30
0.0
 11
31.3362545560899
 21
22.81680072576063
 31
0.0
  0
LINE
  5
3CF
330
359
100
AcDbEntity
  8
0
 62
     0
100
AcDbLine
 10
30.35047808566088
 20
23.80257719618965
 30
0.0
 11
27.5504780856607
 21
26.60257719618977
 31
0.0
  0
LINE
  5
3D0
330
359
100
AcDbEntity
  8
0
 62
     0
100
AcDbLine
 10
40.8614330883284
 20
13.29162219352207
 30
0.0
 11
38.40047808566078
 21
15.75257719618974
 31
0.0
  0
LINE
  5
3D1
330
359
100
AcDbEntity
  8
0
 62
     0
100
AcDbLine
 10
34.59418640815619
 20
18.6608432615875
 30
0.0
 11
27.55047808566076
 21
25.70455158408293
 31
0.0
  0
LINE
  5
3D2
330
359
100
AcDbEntity
  8
0
 62
     0
100
AcDbLine
 10
25.10047808566088
 20
28.15455158408281
 30
0.0
 11
23.89744338692111
 21
29.35758628282258
 31
0.0
  0
LINE
  5
3D3
330
359
100
AcDbEntity
  8
0
 62
     0
100
AcDbLine
 10
39.99744338692114
 20
13.25758628282256
 30
0.0
 11
38.40047808566089
 21
14.8545515840828
 31
0.0
  0
LINE
  5
3D4
330
359
100
AcDbEntity
  8
0
 62
     0
100
AcDbLine
 10
35.00865976759025
 20
17.34834429004649
 30
0.0
 11
27.55047808566076
 21
24.80652597197599
 31
0.0
  0
LINE
  5
3D5
330
359
100
AcDbEntity
  8
0
 62
     0
100
AcDbLine
 10
25.10047808566088
 20
27.25652597197586
 30
0.0
 11
22.99941777481411
 21
29.35758628282264
 31
0.0
  0
LINE
  5
3D6
330
359
100
AcDbEntity
  8
0
 62
     0
100
AcDbLine
 10
39.09941777481419
 20
13.2575862828225
 30
0.0
 11
38.40047808566083
 21
13.95652597197591
 31
0.0
  0
LINE
  5
3D7
330
359
100
AcDbEntity
  8
0
 62
     0
100
AcDbLine
 10
24.83357139027078
 20
26.62540705525902
 30
0.0
 11
22.13334967205935
 21
29.32562877347038
 31
0.0
  0
LINE
  5
3D8
330
359
100
AcDbEntity
  8
0
 62
     0
100
AcDbLine
 10
35.42313312702419
 20
16.03584531850561
 30
0.0
 11
27.55047808566081
 21
23.90850035986898
 31
0.0
  0
LINE
  5
3D9
330
359
100
AcDbEntity
  8
0
 62
     0
100
AcDbLine
 10
30.68798700800244
 20
19.87296582542046
 30
0.0
 11
27.55047808566081
 21
23.01047474776209
 31
0.0
  0
LINE
  5
3DA
330
359
100
AcDbEntity
  8
0
 62
     0
100
AcDbLine
 10
24.00336655060034
 20
26.55758628282252
 30
0.0
 11
21.39530660247209
 21
29.16564623095081
 31
0.0
  0
LINE
  5
3DB
330
359
100
AcDbEntity
  8
0
 62
     0
100
AcDbLine
 10
35.83760648645824
 20
14.72334634696466
 30
0.0
 11
31.74529879415013
 21
18.81565403927277
 31
0.0
  0
LINE
  5
3DC
330
359
100
AcDbEntity
  8
0
 62
     0
100
AcDbLine
 10
30.35047808566088
 20
19.31244913565513
 30
0.0
 11
27.55047808566081
 21
22.1124491356552
 31
0.0
  0
LINE
  5
3DD
330
359
100
AcDbEntity
  8
0
 62
     0
100
AcDbLine
 10
23.10534093849333
 20
26.55758628282263
 30
0.0
 11
20.75658518664136
 21
28.9063420346746
 31
0.0
  0
LINE
  5
3DE
330
359
100
AcDbEntity
  8
0
 62
     0
100
AcDbLine
 10
36.07264534416885
 20
13.59028187714711
 30
0.0
 11
32.15977215358407
 21
17.50315506773194
 31
0.0
  0
LINE
  5
3DF
330
359
100
AcDbEntity
  8
0
 62
     0
100
AcDbLine
 10
30.35047808566083
 20
18.41442352354824
 30
0.0
 11
27.55047808566076
 21
21.21442352354825
 31
0.0
  0
LINE
  5
3E0
330
359
100
AcDbEntity
  8
0
 62
     0
100
AcDbLine
 10
22.2622274359498
 20
26.50267417325927
 30
0.0
 11
20.19783621130682
 21
28.56706539790224
 31
0.0
  0
LINE
  5
3E1
330
359
100
AcDbEntity
  8
0
 62
     0
100
AcDbLine
 10
35.5073153263865
 20
13.25758628282256
 30
0.0
 11
32.57424551301813
 21
16.19065609619088
 31
0.0
  0
LINE
  5
3E2
330
359
100
AcDbEntity
  8
0
 62
     0
100
AcDbLine
 10
30.35047808566083
 20
17.51639791144128
 30
0.0
 11
27.55047808566076
 21
20.31639791144136
 31
0.0
  0
LINE
  5
3E3
330
359
100
AcDbEntity
  8
0
 62
     0
100
AcDbLine
 10
21.6903712431108
 20
26.17650475399131
 30
0.0
 11
19.71018100269503
 21
28.15669499440708
 31
0.0
  0
LINE
  5
3E4
330
359
100
AcDbEntity
  8
0
 62
     0
100
AcDbLine
 10
34.60928971427956
 20
13.25758628282256
 30
0.0
 11
32.98871887245207
 21
14.87815712465004
 31
0.0
  0
LINE
  5
3E5
330
359
100
AcDbEntity
  8
0
 62
     0
100
AcDbLine
 10
25.43590721845857
 20
21.53294316653671
 30
0.0
 11
23.92583496937482
 21
23.04301541562046
 31
0.0
  0
LINE
  5
3E6
330
359
100
AcDbEntity
  8
0
 62
     0
100
AcDbLine
 10
30.35047808566094
 20
16.61837229933434
 30
0.0
 11
27.55047808566081
 21
19.41837229933446
 31
0.0
  0
LINE
  5
3E7
330
359
100
AcDbEntity
  8
0
 62
     0
100
AcDbLine
 10
21.33424967298186
 20
25.63460071201343
 30
0.0
 11
19.2908149766838
 21
27.67803540831148
 31
0.0
  0
LINE
  5
3E8
330
359
100
AcDbEntity
  8
0
 62
     0
100
AcDbLine
 10
33.66093109796805
 20
13.30791928702723
 30
0.0
 11
33.41057692637674
 21
13.55827345861854
 31
0.0
  0
LINE
  5
3E9
330
359
100
AcDbEntity
  8
0
 62
     0
100
AcDbLine
 10
25.34939355831665
 20
20.72143121457168
 30
0.0
 11
23.11432301740979
 21
22.95650175547854
 31
0.0
  0
LINE
  5
3EA
330
359
100
AcDbEntity
  8
0
 62
     0
100
AcDbLine
 10
21.25047808566092
 20
24.82034668722742
 30
0.0
 11
18.94187595572214
 21
27.12894881716619
 31
0.0
  0
LINE
  5
3EB
330
359
100
AcDbEntity
  8
0
 62
     0
100
AcDbLine
 10
30.35047808566088
 20
15.72034668722739
 30
0.0
 11
27.55047808566076
 21
18.52034668722757
 31
0.0
  0
LINE
  5
3EC
330
359
100
AcDbEntity
  8
0
 62
     0
100
AcDbLine
 10
25.0175379990186
 20
20.15526116176272
 30
0.0
 11
22.54815296460083
 21
22.62464619618049
 31
0.0
  0
LINE
  5
3ED
330
359
100
AcDbEntity
  8
0
 62
     0
100
AcDbLine
 10
21.25047808566092
 20
23.92232107512047
 30
0.0
 11
18.67129624851196
 21
26.50150291226942
 31
0.0
  0
LINE
  5
3EE
330
359
100
AcDbEntity
  8
0
 62
     0
100
AcDbLine
 10
30.35047808566088
 20
14.8223210751205
 30
0.0
 11
27.55047808566081
 21
17.62232107512057
 31
0.0
  0
LINE
  5
3EF
330
359
100
AcDbEntity
  8
0
 62
     0
100
AcDbLine
 10
21.25047808566092
 20
23.02429546301357
 30
0.0
 11
18.49658237558611
 21
25.77819117308843
 31
0.0
  0
LINE
  5
3F0
330
359
100
AcDbEntity
  8
0
 62
     0
100
AcDbLine
 10
24.51570455688216
 20
19.75906899179239
 30
0.0
 11
22.1519607946305
 21
22.12281275404405
 31
0.0
  0
LINE
  5
3F1
330
359
100
AcDbEntity
  8
0
 62
     0
100
AcDbLine
 10
15.82547808566073
 20
28.44929546301376
 30
0.0
 11
14.91718726585185
 21
29.3575862828227
 31
0.0
  0
LINE
  5
3F2
330
359
100
AcDbEntity
  8
0
 62
     0
100
AcDbLine
 10
30.35047808566094
 20
13.9242954630136
 30
0.0
 11
27.55047808566087
 21
16.72429546301367
 31
0.0
  0
LINE
  5
3F3
330
359
100
AcDbEntity
  8
0
 62
     0
100
AcDbLine
 10
21.25047808566092
 20
22.12626985090668
 30
0.0
 11
18.45047808566085
 21
24.92626985090675
 31
0.0
  0
LINE
  5
3F4
330
359
100
AcDbEntity
  8
0
 62
     0
100
AcDbLine
 10
23.81538511445473
 20
19.56136282211287
 30
0.0
 11
21.95425462495098
 21
21.42249331161662
 31
0.0
  0
LINE
  5
3F5
330
359
100
AcDbEntity
  8
0
 62
     0
100
AcDbLine
 10
15.82547808566073
 20
27.55126985090686
 30
0.0
 11
14.0191616537449
 21
29.35758628282264
 31
0.0
  0
LINE
  5
3F6
330
359
100
AcDbEntity
  8
0
 62
     0
100
AcDbLine
 10
30.06257428439023
 20
13.31417365217737
 30
0.0
 11
27.55047808566081
 21
15.82626985090672
 31
0.0
  0
LINE
  5
3F7
330
359
100
AcDbEntity
  8
0
 62
     0
100
AcDbLine
 10
21.25047808566092
 20
21.22824423879973
 30
0.0
 11
18.45047808566085
 21
24.0282442387998
 31
0.0
  0
LINE
  5
3F8
330
359
100
AcDbEntity
  8
0
 62
     0
100
AcDbLine
 10
15.71644411539046
 20
26.76227820907019
 30
0.0
 11
13.12113604163789
 21
29.3575862828227
 31
0.0
  0
LINE
  5
3F9
330
359
100
AcDbEntity
  8
0
 62
     0
100
AcDbLine
 10
29.22113604163809
 20
13.2575862828225
 30
0.0
 11
27.55047808566081
 21
14.92824423879983
 31
0.0
  0
LINE
  5
3FA
330
359
100
AcDbEntity
  8
0
 62
     0
100
AcDbLine
 10
21.25047808566086
 20
20.33021862669284
 30
0.0
 11
18.45047808566079
 21
23.13021862669285
 31
0.0
  0
LINE
  5
3FB
330
359
100
AcDbEntity
  8
0
 62
     0
100
AcDbLine
 10
15.02311042953113
 20
26.55758628282257
 30
0.0
 11
12.223110429531
 21
29.3575862828227
 31
0.0
  0
LINE
  5
3FC
330
359
100
AcDbEntity
  8
0
 62
     0
100
AcDbLine
 10
28.32311042953108
 20
13.25758628282256
 30
0.0
 11
27.55047808566081
 21
14.03021862669288
 31
0.0
  0
LINE
  5
3FD
330
359
100
AcDbEntity
  8
0
 62
     0
100
AcDbLine
 10
21.25047808566092
 20
19.43219301458595
 30
0.0
 11
18.45047808566085
 21
22.23219301458602
 31
0.0
  0
LINE
  5
3FE
330
359
100
AcDbEntity
  8
0
 62
     0
100
AcDbLine
 10
14.12508481742424
 20
26.55758628282257
 30
0.0
 11
11.35995554531934
 21
29.32271555492753
 31
0.0
  0
LINE
  5
3FF
330
359
100
AcDbEntity
  8
0
 62
     0
100
AcDbLine
 10
25.09787563682392
 20
15.58479546342289
 30
0.0
 11
24.62768726626121
 21
16.05498383398566
 31
0.0
  0
LINE
  5
400
330
359
100
AcDbEntity
  8
0
 62
     0
100
AcDbLine
 10
21.25047808566086
 20
18.534167402479
 30
0.0
 11
18.45047808566085
 21
21.33416740247907
 31
0.0
  0
LINE
  5
401
330
359
100
AcDbEntity
  8
0
 62
     0
100
AcDbLine
 10
13.22705920531734
 20
26.55758628282257
 30
0.0
 11
10.66682073684086
 21
29.11782475129906
 31
0.0
  0
LINE
  5
402
330
359
100
AcDbEntity
  8
0
 62
     0
100
AcDbLine
 10
25.10047808566083
 20
14.68416740247903
 30
0.0
 11
23.72705920531729
 21
16.05758628282262
 31
0.0
  0
LINE
  5
403
330
359
100
AcDbEntity
  8
0
 62
     0
100
AcDbLine
 10
21.25047808566086
 20
17.63614179037211
 30
0.0
 11
18.4504780856609
 21
20.43614179037206
 31
0.0
  0
LINE
  5
404
330
359
100
AcDbEntity
  8
0
 62
     0
100
AcDbLine
 10
12.3290335932104
 20
26.55758628282252
 30
0.0
 11
10.10257407699362
 21
28.78404579903929
 31
0.0
  0
LINE
  5
405
330
359
100
AcDbEntity
  8
0
 62
     0
100
AcDbLine
 10
25.10047808566083
 20
13.78614179037214
 30
0.0
 11
22.8290335932104
 21
16.05758628282251
 31
0.0
  0
LINE
  5
406
330
359
100
AcDbEntity
  8
0
 62
     0
100
AcDbLine
 10
11.8187407655958
 20
26.16985349833033
 30
0.0
 11
9.644481264752869
 21
28.34411299917326
 31
0.0
  0
LINE
  5
407
330
359
100
AcDbEntity
  8
0
 62
     0
100
AcDbLine
 10
24.71274530116853
 20
13.27584896275761
 30
0.0
 11
18.4504780856609
 21
19.53811617826523
 31
0.0
  0
LINE
  5
408
330
359
100
AcDbEntity
  8
0
 62
     0
100
AcDbLine
 10
11.80047808566087
 20
25.29009056615831
 30
0.0
 11
9.291000062283785
 21
27.7995685895354
 31
0.0
  0
LINE
  5
409
330
359
100
AcDbEntity
  8
0
 62
     0
100
AcDbLine
 10
23.83298236899662
 20
13.25758628282256
 30
0.0
 11
18.4504780856609
 21
18.64009056615828
 31
0.0
  0
LINE
  5
40A
330
359
100
AcDbEntity
  8
0
 62
     0
100
AcDbLine
 10
11.8626137937963
 20
24.32992924591588
 30
0.0
 11
9.060119959990061
 21
27.13242307972218
 31
0.0
  0
LINE
  5
40B
330
359
100
AcDbEntity
  8
0
 62
     0
100
AcDbLine
 10
22.93495675688962
 20
13.25758628282261
 30
0.0
 11
18.45047808566085
 21
17.74206495405133
 31
0.0
  0
LINE
  5
40C
330
359
100
AcDbEntity
  8
0
 62
     0
100
AcDbLine
 10
16.15485417688353
 20
19.13966325072181
 30
0.0
 11
9.000478085660915
 21
26.29403934194443
 31
0.0
  0
LINE
  5
40D
330
359
100
AcDbEntity
  8
0
 62
     0
100
AcDbLine
 10
21.98365905772607
 20
13.31085836987927
 30
0.0
 11
18.5037501727175
 21
16.79076725488784
 31
0.0
  0
LINE
  5
40E
330
359
100
AcDbEntity
  8
0
 62
     0
100
AcDbLine
 10
16.34674869096875
 20
18.04974312452969
 30
0.0
 11
9.000478085660802
 21
25.39601372983765
 31
0.0
  0
LINE
  5
40F
330
359
100
AcDbEntity
  8
0
 62
     0
100
AcDbLine
 10
20.60985114512448
 20
13.78664067037391
 30
0.0
 11
18.97953247321209
 21
15.41695934228636
 31
0.0
  0
LINE
  5
410
330
359
100
AcDbEntity
  8
0
 62
     0
100
AcDbLine
 10
16.35047808566088
 20
17.14798811773062
 30
0.0
 11
9.008042533083198
 21
24.49042367030825
 31
0.0
  0
LINE
  5
411
330
359
100
AcDbEntity
  8
0
 62
     0
100
AcDbLine
 10
16.35047808566082
 20
16.24996250562373
 30
0.0
 11
9.231333291407054
 21
23.36910729987744
 31
0.0
  0
LINE
  5
412
330
359
100
AcDbEntity
  8
0
 62
     0
100
AcDbLine
 10
16.27795808952891
 20
15.42445688964881
 30
0.0
 11
13.51456644590985
 21
18.18784853326787
 31
0.0
  0
LINE
  5
413
330
359
100
AcDbEntity
  8
0
 62
     0
100
AcDbLine
 10
16.03602015050006
 20
14.7683692165707
 30
0.0
 11
13.55047808566081
 21
17.25391128140995
 31
0.0
  0
LINE
  5
414
330
359
100
AcDbEntity
  8
0
 62
     0
100
AcDbLine
 10
15.67390090311829
 20
14.23246285184552
 30
0.0
 11
13.51457905336014
 21
16.39178470160368
 31
0.0
  0
LINE
  5
415
330
359
100
AcDbEntity
  8
0
 62
     0
100
AcDbLine
 10
15.20767453085142
 20
13.80066361200551
 30
0.0
 11
12.9507518600343
 21
16.05758628282268
 31
0.0
  0
LINE
  5
416
330
359
100
AcDbEntity
  8
0
 62
     0
100
AcDbLine
 10
14.63441008311861
 20
13.47590244763142
 30
0.0
 11
12.05272624792735
 21
16.05758628282262
 31
0.0
  0
LINE
  5
417
330
359
100
AcDbEntity
  8
0
 62
     0
100
AcDbLine
 10
13.92899749403267
 20
13.28328942461041
 30
0.0
 11
11.15470063582046
 21
16.05758628282262
 31
0.0
  0
LINE
  5
418
330
359
100
AcDbEntity
  8
0
 62
     0
100
AcDbLine
 10
13.05667502371363
 20
13.25758628282244
 30
0.0
 11
10.25667502371351
 21
16.05758628282262
 31
0.0
  0
LINE
  5
419
330
359
100
AcDbEntity
  8
0
 62
     0
100
AcDbLine
 10
12.15864941160669
 20
13.25758628282256
 30
0.0
 11
9.605325516788809
 21
15.81091017764049
 31
0.0
  0
LINE
  5
41A
330
359
100
AcDbEntity
  8
0
 62
     0
100
AcDbLine
 10
11.2606237994998
 20
13.25758628282256
 30
0.0
 11
9.525478085660836
 21
14.99273199666152
 31
0.0
  0
LINE
  5
41B
330
359
100
AcDbEntity
  8
0
 62
     0
100
AcDbLine
 10
10.36259818739285
 20
13.25758628282256
 30
0.0
 11
9.525478085660836
 21
14.09470638455457
 31
0.0
  0
LINE
  5
41C
330
359
100
AcDbEntity
  8
0
 62
     0
100
AcDbLine
 10
66.34216537032779
 20
13.27071805994012
 30
0.0
 11
66.73734630854358
 21
13.66589899815591
 31
0.0
  0
LINE
  5
41D
330
359
100
AcDbEntity
  8
0
 62
     0
100
AcDbLine
 10
65.43100798110334
 20
13.2575862828225
 30
0.0
 11
66.75047808566103
 21
14.57705638738019
 31
0.0
  0
LINE
  5
41E
330
359
100
AcDbEntity
  8
0
 62
     0
100
AcDbLine
 10
64.53298236899644
 20
13.2575862828225
 30
0.0
 11
66.75047808566103
 21
15.47508199948708
 31
0.0
  0
LINE
  5
41F
330
359
100
AcDbEntity
  8
0
 62
     0
100
AcDbLine
 10
63.9816756489127
 20
13.60430517484571
 30
0.0
 11
66.75047808566097
 21
16.37310761159404
 31
0.0
  0
LINE
  5
420
330
359
100
AcDbEntity
  8
0
 62
     0
100
AcDbLine
 10
63.9504780856609
 20
14.47113322370086
 30
0.0
 11
66.75047808566097
 21
17.27113322370087
 31
0.0
  0
LINE
  5
421
330
359
100
AcDbEntity
  8
0
 62
     0
100
AcDbLine
 10
63.95047808566096
 20
15.36915883580775
 30
0.0
 11
66.75047808566097
 21
18.16915883580782
 31
0.0
  0
LINE
  5
422
330
359
100
AcDbEntity
  8
0
 62
     0
100
AcDbLine
 10
63.9504780856609
 20
16.2671844479147
 30
0.0
 11
66.75047808566097
 21
19.06718444791477
 31
0.0
  0
LINE
  5
423
330
359
100
AcDbEntity
  8
0
 62
     0
100
AcDbLine
 10
63.9504780856609
 20
17.16521006002159
 30
0.0
 11
66.75047808566097
 21
19.96521006002166
 31
0.0
  0
LINE
  5
424
330
359
100
AcDbEntity
  8
0
 62
     0
100
AcDbLine
 10
60.37704294772618
 20
13.59177492208687
 30
0.0
 11
61.51628944639674
 21
14.73102142075748
 31
0.0
  0
LINE
  5
425
330
359
100
AcDbEntity
  8
0
 62
     0
100
AcDbLine
 10
63.9504780856609
 20
18.06323567212848
 30
0.0
 11
66.75047808566097
 21
20.86323567212855
 31
0.0
  0
LINE
  5
426
330
359
100
AcDbEntity
  8
0
 62
     0
100
AcDbLine
 10
59.14647478120338
 20
13.25923236767096
 30
0.0
 11
61.8488320008127
 21
15.96158958728023
 31
0.0
  0
LINE
  5
427
330
359
100
AcDbEntity
  8
0
 62
     0
100
AcDbLine
 10
63.9504780856609
 20
18.96126128423543
 30
0.0
 11
66.75047808566097
 21
21.76126128423545
 31
0.0
  0
LINE
  5
428
330
359
100
AcDbEntity
  8
0
 62
     0
100
AcDbLine
 10
58.24680308424797
 20
13.2575862828225
 30
0.0
 11
61.850478085661
 21
16.86126128423547
 31
0.0
  0
LINE
  5
429
330
359
100
AcDbEntity
  8
0
 62
     0
100
AcDbLine
 10
63.9504780856609
 20
19.85928689634232
 30
0.0
 11
66.75047808566091
 21
22.6592868963424
 31
0.0
  0
LINE
  5
42A
330
359
100
AcDbEntity
  8
0
 62
     0
100
AcDbLine
 10
57.34877747214108
 20
13.2575862828225
 30
0.0
 11
61.85047808566094
 21
17.75928689634241
 31
0.0
  0
LINE
  5
42B
330
359
100
AcDbEntity
  8
0
 62
     0
100
AcDbLine
 10
63.9504780856609
 20
20.75731250844922
 30
0.0
 11
66.75047808566097
 21
23.55731250844929
 31
0.0
  0
LINE
  5
42C
330
359
100
AcDbEntity
  8
0
 62
     0
100
AcDbLine
 10
56.45075186003424
 20
13.25758628282256
 30
0.0
 11
61.850478085661
 21
18.65731250844931
 31
0.0
  0
LINE
  5
42D
330
359
100
AcDbEntity
  8
0
 62
     0
100
AcDbLine
 10
58.94588688357988
 20
16.65074691847513
 30
0.0
 11
61.850478085661
 21
19.5553381205562
 31
0.0
  0
LINE
  5
42E
330
359
100
AcDbEntity
  8
0
 62
     0
100
AcDbLine
 10
63.9504780856609
 20
21.65533812055611
 30
0.0
 11
66.75047808566097
 21
24.45533812055618
 31
0.0
  0
LINE
  5
42F
330
359
100
AcDbEntity
  8
0
 62
     0
100
AcDbLine
 10
55.55272624792724
 20
13.2575862828225
 30
0.0
 11
58.45731745000836
 21
16.16217748490356
 31
0.0
  0
LINE
  5
430
330
359
100
AcDbEntity
  8
0
 62
     0
100
AcDbLine
 10
59.05047808566087
 20
17.65336373266308
 30
0.0
 11
61.85047808566094
 21
20.45336373266315
 31
0.0
  0
LINE
  5
431
330
359
100
AcDbEntity
  8
0
 62
     0
100
AcDbLine
 10
63.95047808566085
 20
22.55336373266306
 30
0.0
 11
66.75047808566091
 21
25.35336373266313
 31
0.0
  0
LINE
  5
432
330
359
100
AcDbEntity
  8
0
 62
     0
100
AcDbLine
 10
54.76665038719755
 20
13.36953603419971
 30
0.0
 11
57.45470063582041
 21
16.05758628282257
 31
0.0
  0
LINE
  5
433
330
359
100
AcDbEntity
  8
0
 62
     0
100
AcDbLine
 10
59.05047808566092
 20
18.55138934477009
 30
0.0
 11
61.85047808566094
 21
21.35138934477004
 31
0.0
  0
LINE
  5
434
330
359
100
AcDbEntity
  8
0
 62
     0
100
AcDbLine
 10
63.95047808566085
 20
23.45138934477001
 30
0.0
 11
66.75047808566091
 21
26.25138934477002
 31
0.0
  0
LINE
  5
435
330
359
100
AcDbEntity
  8
0
 62
     0
100
AcDbLine
 10
54.1386635199874
 20
13.63957477909656
 30
0.0
 11
56.55755280935784
 21
16.058464068467
 31
0.0
  0
LINE
  5
436
330
359
100
AcDbEntity
  8
0
 62
     0
100
AcDbLine
 10
59.05047808566099
 20
19.44941495687698
 30
0.0
 11
61.85047808566094
 21
22.24941495687693
 31
0.0
  0
LINE
  5
437
330
359
100
AcDbEntity
  8
0
 62
     0
100
AcDbLine
 10
63.9504780856609
 20
24.34941495687684
 30
0.0
 11
66.75047808566091
 21
27.14941495687691
 31
0.0
  0
LINE
  5
438
330
359
100
AcDbEntity
  8
0
 62
     0
100
AcDbLine
 10
53.62540363862234
 20
14.02434050983828
 30
0.0
 11
55.91407422064515
 21
16.31301109186114
 31
0.0
  0
LINE
  5
439
330
359
100
AcDbEntity
  8
0
 62
     0
100
AcDbLine
 10
59.05047808566099
 20
20.34744056898387
 30
0.0
 11
61.85047808566094
 21
23.14744056898388
 31
0.0
  0
LINE
  5
43A
330
359
100
AcDbEntity
  8
0
 62
     0
100
AcDbLine
 10
63.95047808566085
 20
25.24744056898379
 30
0.0
 11
66.75047808566091
 21
28.04744056898386
 31
0.0
  0
LINE
  5
43B
330
359
100
AcDbEntity
  8
0
 62
     0
100
AcDbLine
 10
53.21543946339722
 20
14.5124019467201
 30
0.0
 11
55.57683594223573
 21
16.87379842555867
 31
0.0
  0
LINE
  5
43C
330
359
100
AcDbEntity
  8
0
 62
     0
100
AcDbLine
 10
59.05047808566092
 20
21.24546618109082
 30
0.0
 11
61.850478085661
 21
24.04546618109089
 31
0.0
  0
LINE
  5
43D
330
359
100
AcDbEntity
  8
0
 62
     0
100
AcDbLine
 10
63.95047808566085
 20
26.14546618109069
 30
0.0
 11
66.74032893211045
 21
28.93531702754035
 31
0.0
  0
LINE
  5
43E
330
359
100
AcDbEntity
  8
0
 62
     0
100
AcDbLine
 10
52.91551458496321
 20
15.1105026803931
 30
0.0
 11
55.55047808566093
 21
17.74546618109076
 31
0.0
  0
LINE
  5
43F
330
359
100
AcDbEntity
  8
0
 62
     0
100
AcDbLine
 10
59.05047808566099
 20
22.14349179319766
 30
0.0
 11
61.85047808566105
 21
24.94349179319772
 31
0.0
  0
LINE
  5
440
330
359
100
AcDbEntity
  8
0
 62
     0
100
AcDbLine
 10
63.95047808566085
 20
27.04349179319758
 30
0.0
 11
66.26321458703097
 21
29.3562282945677
 31
0.0
  0
LINE
  5
441
330
359
100
AcDbEntity
  8
0
 62
     0
100
AcDbLine
 10
52.75810105000676
 20
15.85111475754348
 30
0.0
 11
55.55047808566093
 21
18.64349179319765
 31
0.0
  0
LINE
  5
442
330
359
100
AcDbEntity
  8
0
 62
     0
100
AcDbLine
 10
59.05047808566092
 20
23.04151740530461
 30
0.0
 11
61.850478085661
 21
25.84151740530467
 31
0.0
  0
LINE
  5
443
330
359
100
AcDbEntity
  8
0
 62
     0
100
AcDbLine
 10
63.9504780856609
 20
27.94151740530458
 30
0.0
 11
65.3665469631789
 21
29.35758628282258
 31
0.0
  0
LINE
  5
444
330
359
100
AcDbEntity
  8
0
 62
     0
100
AcDbLine
 10
52.75047808566097
 20
16.74151740530459
 30
0.0
 11
55.55047808566098
 21
19.54151740530466
 31
0.0
  0
LINE
  5
445
330
359
100
AcDbEntity
  8
0
 62
     0
100
AcDbLine
 10
59.05047808566092
 20
23.93954301741155
 30
0.0
 11
61.850478085661
 21
26.73954301741157
 31
0.0
  0
LINE
  5
446
330
359
100
AcDbEntity
  8
0
 62
     0
100
AcDbLine
 10
52.75047808566092
 20
17.63954301741154
 30
0.0
 11
55.55047808566098
 21
20.43954301741161
 31
0.0
  0
LINE
  5
447
330
359
100
AcDbEntity
  8
0
 62
     0
100
AcDbLine
 10
63.95052480040835
 20
28.83958973215897
 30
0.0
 11
64.46847463632463
 21
29.3575395680752
 31
0.0
  0
LINE
  5
448
330
359
100
AcDbEntity
  8
0
 62
     0
100
AcDbLine
 10
48.42892245494891
 20
13.31798738669948
 30
0.0
 11
50.59007698178408
 21
15.4791419135347
 31
0.0
  0
LINE
  5
449
330
359
100
AcDbEntity
  8
0
 62
     0
100
AcDbLine
 10
52.75047808566092
 20
18.53756862951843
 30
0.0
 11
55.55047808566098
 21
21.3375686295185
 31
0.0
  0
LINE
  5
44A
330
359
100
AcDbEntity
  8
0
 62
     0
100
AcDbLine
 10
59.05047808566092
 20
24.83756862951845
 30
0.0
 11
61.85047808566094
 21
27.63756862951851
 31
0.0
  0
LINE
  5
44B
330
359
100
AcDbEntity
  8
0
 62
     0
100
AcDbLine
 10
47.47049573896504
 20
13.25758628282261
 30
0.0
 11
50.65047808566089
 21
16.43756862951846
 31
0.0
  0
LINE
  5
44C
330
359
100
AcDbEntity
  8
0
 62
     0
100
AcDbLine
 10
52.75047808566092
 20
19.43559424162532
 30
0.0
 11
55.55047808566098
 21
22.23559424162539
 31
0.0
  0
LINE
  5
44D
330
359
100
AcDbEntity
  8
0
 62
     0
100
AcDbLine
 10
59.05047808566092
 20
25.73559424162534
 30
0.0
 11
61.850478085661
 21
28.5355942416254
 31
0.0
  0
LINE
  5
44E
330
359
100
AcDbEntity
  8
0
 62
     0
100
AcDbLine
 10
46.57247012685814
 20
13.25758628282256
 30
0.0
 11
50.65047808566095
 21
17.3355942416253
 31
0.0
  0
LINE
  5
44F
330
359
100
AcDbEntity
  8
0
 62
     0
100
AcDbLine
 10
52.75047808566092
 20
20.33361985373227
 30
0.0
 11
55.55047808566098
 21
23.13361985373228
 31
0.0
  0
LINE
  5
450
330
359
100
AcDbEntity
  8
0
 62
     0
100
AcDbLine
 10
59.05047808566092
 20
26.63361985373223
 30
0.0
 11
61.65674063082684
 21
29.23988239889821
 31
0.0
  0
LINE
  5
451
330
359
100
AcDbEntity
  8
0
 62
     0
100
AcDbLine
 10
45.67444451475125
 20
13.25758628282261
 30
0.0
 11
50.63615948524807
 21
18.21930125331937
 31
0.0
  0
LINE
  5
452
330
359
100
AcDbEntity
  8
0
 62
     0
100
AcDbLine
 10
52.75047808566092
 20
21.23164546583916
 30
0.0
 11
55.55047808566093
 21
24.03164546583923
 31
0.0
  0
LINE
  5
453
330
359
100
AcDbEntity
  8
0
 62
     0
100
AcDbLine
 10
59.05047808566087
 20
27.53164546583918
 30
0.0
 11
60.87641890264433
 21
29.35758628282264
 31
0.0
  0
LINE
  5
454
330
359
100
AcDbEntity
  8
0
 62
     0
100
AcDbLine
 10
44.77641890264431
 20
13.25758628282261
 30
0.0
 11
50.50124711461927
 21
18.98241449479758
 31
0.0
  0
LINE
  5
455
330
359
100
AcDbEntity
  8
0
 62
     0
100
AcDbLine
 10
52.75047808566092
 20
22.12967107794606
 30
0.0
 11
55.55047808566098
 21
24.92967107794612
 31
0.0
  0
LINE
  5
456
330
359
100
AcDbEntity
  8
0
 62
     0
100
AcDbLine
 10
47.85047808566105
 20
17.22967107794613
 30
0.0
 11
50.26065965770072
 21
19.63985264998587
 31
0.0
  0
LINE
  5
457
330
359
100
AcDbEntity
  8
0
 62
     0
100
AcDbLine
 10
59.05047808566092
 20
28.42967107794607
 30
0.0
 11
59.9783932905375
 21
29.35758628282264
 31
0.0
  0
LINE
  5
458
330
359
100
AcDbEntity
  8
0
 62
     0
100
AcDbLine
 10
44.00664864366854
 20
13.38584163595368
 30
0.0
 11
46.67839329053743
 21
16.05758628282257
 31
0.0
  0
LINE
  5
459
330
359
100
AcDbEntity
  8
0
 62
     0
100
AcDbLine
 10
47.83060751053364
 20
18.10782611492567
 30
0.0
 11
49.93716035284013
 21
20.21437895723216
 31
0.0
  0
LINE
  5
45A
330
359
100
AcDbEntity
  8
0
 62
     0
100
AcDbLine
 10
52.75047808566092
 20
23.02769669005295
 30
0.0
 11
55.55047808566093
 21
25.82769669005302
 31
0.0
  0
LINE
  5
45B
330
359
100
AcDbEntity
  8
0
 62
     0
100
AcDbLine
 10
43.82547808566096
 20
14.10269669005299
 30
0.0
 11
45.78036767843047
 21
16.05758628282257
 31
0.0
  0
LINE
  5
45C
330
359
100
AcDbEntity
  8
0
 62
     0
100
AcDbLine
 10
47.55622267339475
 20
18.73146688989379
 30
0.0
 11
49.54128923491231
 21
20.71653345141135
 31
0.0
  0
LINE
  5
45D
330
359
100
AcDbEntity
  8
0
 62
     0
100
AcDbLine
 10
52.75047808566085
 20
23.9257223021599
 30
0.0
 11
55.55047808566093
 21
26.72572230215997
 31
0.0
  0
LINE
  5
45E
330
359
100
AcDbEntity
  8
0
 62
     0
100
AcDbLine
 10
43.8254780856609
 20
15.00072230215994
 30
0.0
 11
44.88234206632358
 21
16.05758628282262
 31
0.0
  0
LINE
  5
45F
330
359
100
AcDbEntity
  8
0
 62
     0
100
AcDbLine
 10
52.75047808566092
 20
24.82374791426679
 30
0.0
 11
55.55047808566098
 21
27.6237479142668
 31
0.0
  0
LINE
  5
460
330
359
100
AcDbEntity
  8
0
 62
     0
100
AcDbLine
 10
47.11494777627769
 20
19.1882176048835
 30
0.0
 11
49.09484676360006
 21
21.16811659220593
 31
0.0
  0
LINE
  5
461
330
359
100
AcDbEntity
  8
0
 62
     0
100
AcDbLine
 10
46.66593497022421
 20
19.63723041093698
 30
0.0
 11
48.64583395754658
 21
21.61712939825941
 31
0.0
  0
LINE
  5
462
330
359
100
AcDbEntity
  8
0
 62
     0
100
AcDbLine
 10
52.75047808566085
 20
25.72177352637368
 30
0.0
 11
55.55047808566093
 21
28.52177352637375
 31
0.0
  0
LINE
  5
463
330
359
100
AcDbEntity
  8
0
 62
     0
100
AcDbLine
 10
40.28629084210973
 20
13.25758628282256
 30
0.0
 11
41.2004780856609
 21
14.17177352637367
 31
0.0
  0
LINE
  5
464
330
359
100
AcDbEntity
  8
0
 62
     0
100
AcDbLine
 10
46.21692216417073
 20
20.08624321699045
 30
0.0
 11
48.19682115149311
 21
22.06614220431288
 31
0.0
  0
LINE
  5
465
330
359
100
AcDbEntity
  8
0
 62
     0
100
AcDbLine
 10
52.75047808566085
 20
26.61979913848063
 30
0.0
 11
55.36429717756226
 21
29.23361823038198
 31
0.0
  0
LINE
  5
466
330
359
100
AcDbEntity
  8
0
 62
     0
100
AcDbLine
 10
39.38826523000279
 20
13.25758628282256
 30
0.0
 11
41.20047808566096
 21
15.06979913848067
 31
0.0
  0
LINE
  5
467
330
359
100
AcDbEntity
  8
0
 62
     0
100
AcDbLine
 10
45.76790935811726
 20
20.53525602304393
 30
0.0
 11
47.74780834543963
 21
22.51515501036636
 31
0.0
  0
LINE
  5
468
330
359
100
AcDbEntity
  8
0
 62
     0
100
AcDbLine
 10
52.75047808566085
 20
27.51782475058752
 30
0.0
 11
54.59023961789597
 21
29.3575862828227
 31
0.0
  0
LINE
  5
469
330
359
100
AcDbEntity
  8
0
 62
     0
100
AcDbLine
 10
38.60185075575788
 20
13.36919742068454
 30
0.0
 11
41.2004780856609
 21
15.96782475058762
 31
0.0
  0
LINE
  5
46A
330
359
100
AcDbEntity
  8
0
 62
     0
100
AcDbLine
 10
45.31889655206384
 20
20.98426882909735
 30
0.0
 11
47.29879553938622
 21
22.96416781641978
 31
0.0
  0
LINE
  5
46B
330
359
100
AcDbEntity
  8
0
 62
     0
100
AcDbLine
 10
52.75047808566085
 20
28.41585036269441
 30
0.0
 11
53.69221400578914
 21
29.35758628282264
 31
0.0
  0
LINE
  5
46C
330
359
100
AcDbEntity
  8
0
 62
     0
100
AcDbLine
 10
38.40047808566095
 20
14.0658503626945
 30
0.0
 11
41.20047808566096
 21
16.86585036269446
 31
0.0
  0
LINE
  5
46D
330
359
100
AcDbEntity
  8
0
 62
     0
100
AcDbLine
 10
44.86988374601037
 20
21.43328163515082
 30
0.0
 11
46.84978273333274
 21
23.41318062247325
 31
0.0
  0
LINE
  5
46E
330
359
100
AcDbEntity
  8
0
 62
     0
100
AcDbLine
 10
38.40047808566095
 20
14.96387597480145
 30
0.0
 11
41.2004780856609
 21
17.76387597480141
 31
0.0
  0
LINE
  5
46F
330
359
100
AcDbEntity
  8
0
 62
     0
100
AcDbLine
 10
44.42289984496904
 20
21.88432334621649
 30
0.0
 11
46.40687337835106
 21
23.86829687959846
 31
0.0
  0
LINE
  5
470
330
359
100
AcDbEntity
  8
0
 62
     0
100
AcDbLine
 10
38.40047808566095
 20
15.86190158690834
 30
0.0
 11
41.2004780856609
 21
18.66190158690836
 31
0.0
  0
LINE
  5
471
330
359
100
AcDbEntity
  8
0
 62
     0
100
AcDbLine
 10
49.09616278157511
 20
26.55758628282257
 30
0.0
 11
50.12547808566097
 21
27.58690158690837
 31
0.0
  0
LINE
  5
472
330
359
100
AcDbEntity
  8
0
 62
     0
100
AcDbLine
 10
35.90782186095072
 20
13.36924536219811
 30
0.0
 11
35.99747422240574
 21
13.45889772365319
 31
0.0
  0
LINE
  5
473
330
359
100
AcDbEntity
  8
0
 62
     0
100
AcDbLine
 10
44.02489766614706
 20
22.38434677950136
 30
0.0
 11
46.12453194356567
 21
24.48398105691996
 31
0.0
  0
LINE
  5
474
330
359
100
AcDbEntity
  8
0
 62
     0
100
AcDbLine
 10
38.40047808566095
 20
16.75992719901524
 30
0.0
 11
41.20047808566096
 21
19.55992719901519
 31
0.0
  0
LINE
  5
475
330
359
100
AcDbEntity
  8
0
 62
     0
100
AcDbLine
 10
48.19813716946834
 20
26.55758628282263
 30
0.0
 11
50.12547808566097
 21
28.48492719901526
 31
0.0
  0
LINE
  5
476
330
359
100
AcDbEntity
  8
0
 62
     0
100
AcDbLine
 10
34.89813716946827
 20
13.25758628282256
 30
0.0
 11
35.9639162657748
 21
14.32336537912908
 31
0.0
  0
LINE
  5
477
330
359
100
AcDbEntity
  8
0
 62
     0
100
AcDbLine
 10
43.69906340175037
 20
22.95653812721162
 30
0.0
 11
46.10047808566105
 21
25.35795281112229
 31
0.0
  0
LINE
  5
478
330
359
100
AcDbEntity
  8
0
 62
     0
100
AcDbLine
 10
38.40047808566095
 20
17.65795281112213
 30
0.0
 11
41.2004780856609
 21
20.45795281112214
 31
0.0
  0
LINE
  5
479
330
359
100
AcDbEntity
  8
0
 62
     0
100
AcDbLine
 10
47.30011155736133
 20
26.55758628282257
 30
0.0
 11
49.95880915386305
 21
29.21628387932429
 31
0.0
  0
LINE
  5
47A
330
359
100
AcDbEntity
  8
0
 62
     0
100
AcDbLine
 10
34.00011155736127
 20
13.2575862828225
 30
0.0
 11
35.74839011886911
 21
15.00586484433035
 31
0.0
  0
LINE
  5
47B
330
359
100
AcDbEntity
  8
0
 62
     0
100
AcDbLine
 10
38.40047808566089
 20
18.55597842322907
 30
0.0
 11
41.2004780856609
 21
21.35597842322903
 31
0.0
  0
LINE
  5
47C
330
359
100
AcDbEntity
  8
0
 62
     0
100
AcDbLine
 10
43.45568133908028
 20
23.61118167664847
 30
0.0
 11
49.20208594525445
 21
29.35758628282264
 31
0.0
  0
LINE
  5
47D
330
359
100
AcDbEntity
  8
0
 62
     0
100
AcDbLine
 10
33.40809724670629
 20
13.56359758427447
 30
0.0
 11
35.53286397196342
 21
15.68836430953161
 31
0.0
  0
LINE
  5
47E
330
359
100
AcDbEntity
  8
0
 62
     0
100
AcDbLine
 10
38.40047808566089
 20
19.45400403533603
 30
0.0
 11
41.20047808566084
 21
22.25400403533598
 31
0.0
  0
LINE
  5
47F
330
359
100
AcDbEntity
  8
0
 62
     0
100
AcDbLine
 10
43.31697447999459
 20
24.37050042966973
 30
0.0
 11
48.30406033314756
 21
29.35758628282264
 31
0.0
  0
LINE
  5
480
330
359
100
AcDbEntity
  8
0
 62
     0
100
AcDbLine
 10
33.18933782505769
 20
14.24286377473282
 30
0.0
 11
35.31733782505773
 21
16.37086377473287
 31
0.0
  0
LINE
  5
481
330
359
100
AcDbEntity
  8
0
 62
     0
100
AcDbLine
 10
38.40047808566095
 20
20.35202964744286
 30
0.0
 11
41.2004780856609
 21
23.15202964744287
 31
0.0
  0
LINE
  5
482
330
359
100
AcDbEntity
  8
0
 62
     0
100
AcDbLine
 10
43.30047808566092
 20
25.25202964744284
 30
0.0
 11
47.40603472104067
 21
29.35758628282264
 31
0.0
  0
LINE
  5
483
330
359
100
AcDbEntity
  8
0
 62
     0
100
AcDbLine
 10
32.97381167815206
 20
14.92536323993403
 30
0.0
 11
35.10181167815216
 21
17.05336323993407
 31
0.0
  0
LINE
  5
484
330
359
100
AcDbEntity
  8
0
 62
     0
100
AcDbLine
 10
38.40047808566089
 20
21.25005525954981
 30
0.0
 11
41.2004780856609
 21
24.05005525954976
 31
0.0
  0
LINE
  5
485
330
359
100
AcDbEntity
  8
0
 62
     0
100
AcDbLine
 10
43.30047808566098
 20
26.15005525954984
 30
0.0
 11
46.50800910893377
 21
29.35758628282264
 31
0.0
  0
LINE
  5
486
330
359
100
AcDbEntity
  8
0
 62
     0
100
AcDbLine
 10
32.75828553124632
 20
15.60786270513523
 30
0.0
 11
34.88628553124653
 21
17.73586270513544
 31
0.0
  0
LINE
  5
487
330
359
100
AcDbEntity
  8
0
 62
     0
100
AcDbLine
 10
38.40047808566089
 20
22.1480808716567
 30
0.0
 11
41.20047808566096
 21
24.94808087165677
 31
0.0
  0
LINE
  5
488
330
359
100
AcDbEntity
  8
0
 62
     0
100
AcDbLine
 10
32.54275938434068
 20
16.29036217033655
 30
0.0
 11
34.67075938434078
 21
18.41836217033659
 31
0.0
  0
LINE
  5
489
330
359
100
AcDbEntity
  8
0
 62
     0
100
AcDbLine
 10
43.35379475578213
 20
27.101397541778
 30
0.0
 11
45.55666682670545
 21
29.30426961270132
 31
0.0
  0
LINE
  5
48A
330
359
100
AcDbEntity
  8
0
 62
     0
100
AcDbLine
 10
29.50998349682669
 20
13.25758628282256
 30
0.0
 11
30.35047808566088
 21
14.09808087165675
 31
0.0
  0
LINE
  5
48B
330
359
100
AcDbEntity
  8
0
 62
     0
100
AcDbLine
 10
32.32723323743511
 20
16.97286163553775
 30
0.0
 11
34.45523323743515
 21
19.10086163553785
 31
0.0
  0
LINE
  5
48C
330
359
100
AcDbEntity
  8
0
 62
     0
100
AcDbLine
 10
38.40047808566089
 20
23.04610648376359
 30
0.0
 11
41.20047808566096
 21
25.84610648376366
 31
0.0
  0
LINE
  5
48D
330
359
100
AcDbEntity
  8
0
 62
     0
100
AcDbLine
 10
28.61195788471986
 20
13.2575862828225
 30
0.0
 11
30.35047808566094
 21
14.99610648376364
 31
0.0
  0
LINE
  5
48E
330
359
100
AcDbEntity
  8
0
 62
     0
100
AcDbLine
 10
32.11170709052942
 20
17.65536110073901
 30
0.0
 11
34.23970709052947
 21
19.78336110073911
 31
0.0
  0
LINE
  5
48F
330
359
100
AcDbEntity
  8
0
 62
     0
100
AcDbLine
 10
38.40047808566089
 20
23.94413209587054
 30
0.0
 11
41.20047808566096
 21
26.74413209587056
 31
0.0
  0
LINE
  5
490
330
359
100
AcDbEntity
  8
0
 62
     0
100
AcDbLine
 10
27.7950820202642
 20
13.33873603047385
 30
0.0
 11
30.35047808566094
 21
15.89413209587053
 31
0.0
  0
LINE
  5
491
330
359
100
AcDbEntity
  8
0
 62
     0
100
AcDbLine
 10
31.89618094362373
 20
18.33786056594027
 30
0.0
 11
34.02418094362378
 21
20.46586056594037
 31
0.0
  0
LINE
  5
492
330
359
100
AcDbEntity
  8
0
 62
     0
100
AcDbLine
 10
38.40047808566089
 20
24.84215770797744
 30
0.0
 11
41.2004780856609
 21
27.64215770797751
 31
0.0
  0
LINE
  5
493
330
359
100
AcDbEntity
  8
0
 62
     0
100
AcDbLine
 10
27.55047808566093
 20
13.99215770797747
 30
0.0
 11
30.350478085661
 21
16.79215770797753
 31
0.0
  0
LINE
  5
494
330
359
100
AcDbEntity
  8
0
 62
     0
100
AcDbLine
 10
31.6806547967181
 20
19.02036003114148
 30
0.0
 11
33.80865479671826
 21
21.14836003114163
 31
0.0
  0
LINE
  5
495
330
359
100
AcDbEntity
  8
0
 62
     0
100
AcDbLine
 10
38.40047808566089
 20
25.74018332008433
 30
0.0
 11
41.20047808566096
 21
28.5401833200844
 31
0.0
  0
LINE
  5
496
330
359
100
AcDbEntity
  8
0
 62
     0
100
AcDbLine
 10
27.55047808566093
 20
14.89018332008436
 30
0.0
 11
30.350478085661
 21
17.69018332008443
 31
0.0
  0
LINE
  5
497
330
359
100
AcDbEntity
  8
0
 62
     0
100
AcDbLine
 10
31.44585600974636
 20
19.68358685627675
 30
0.0
 11
34.07615007767737
 21
22.3138809242077
 31
0.0
  0
LINE
  5
498
330
359
100
AcDbEntity
  8
0
 62
     0
100
AcDbLine
 10
38.40047808566095
 20
26.63820893219134
 30
0.0
 11
41.00420266316251
 21
29.24193350969284
 31
0.0
  0
LINE
  5
499
330
359
100
AcDbEntity
  8
0
 62
     0
100
AcDbLine
 10
27.55047808566093
 20
15.78820893219131
 30
0.0
 11
30.350478085661
 21
18.58820893219132
 31
0.0
  0
LINE
  5
49A
330
359
100
AcDbEntity
  8
0
 62
     0
100
AcDbLine
 10
30.75867063987897
 20
19.8944270985163
 30
0.0
 11
34.49062343711125
 21
23.62637989574858
 31
0.0
  0
LINE
  5
49B
330
359
100
AcDbEntity
  8
0
 62
     0
100
AcDbLine
 10
27.55047808566093
 20
16.6862345442982
 30
0.0
 11
30.36363726996723
 21
19.4993937286045
 31
0.0
  0
LINE
  5
49C
330
359
100
AcDbEntity
  8
0
 62
     0
100
AcDbLine
 10
38.40047808566095
 20
27.53623454429823
 30
0.0
 11
40.2218298241853
 21
29.35758628282264
 31
0.0
  0
LINE
  5
49D
330
359
100
AcDbEntity
  8
0
 62
     0
100
AcDbLine
 10
24.12182982418528
 20
13.25758628282256
 30
0.0
 11
25.10047808566094
 21
14.23623454429827
 31
0.0
  0
LINE
  5
49E
330
359
100
AcDbEntity
  8
0
 62
     0
100
AcDbLine
 10
27.55047808566087
 20
17.58426015640515
 30
0.0
 11
34.9050967965452
 21
24.93887886728948
 31
0.0
  0
LINE
  5
49F
330
359
100
AcDbEntity
  8
0
 62
     0
100
AcDbLine
 10
38.40047808566089
 20
28.43426015640517
 30
0.0
 11
39.3238042120783
 21
29.35758628282258
 31
0.0
  0
LINE
  5
4A0
330
359
100
AcDbEntity
  8
0
 62
     0
100
AcDbLine
 10
23.22380421207833
 20
13.25758628282261
 30
0.0
 11
25.10047808566099
 21
15.13426015640527
 31
0.0
  0
LINE
  5
4A1
330
359
100
AcDbEntity
  8
0
 62
     0
100
AcDbLine
 10
27.55047808566093
 20
18.48228576851198
 30
0.0
 11
35.31957015597931
 21
26.25137783883042
 31
0.0
  0
LINE
  5
4A2
330
359
100
AcDbEntity
  8
0
 62
     0
100
AcDbLine
 10
22.33745922432155
 20
13.26926690717266
 30
0.0
 11
24.95914380205477
 21
15.89095148490583
 31
0.0
  0
LINE
  5
4A3
330
359
100
AcDbEntity
  8
0
 62
     0
100
AcDbLine
 10
27.55047808566087
 20
19.38031138061893
 30
0.0
 11
30.87775298786454
 21
22.7075862828226
 31
0.0
  0
LINE
  5
4A4
330
359
100
AcDbEntity
  8
0
 62
     0
100
AcDbLine
 10
31.64173582310542
 20
23.47156911806349
 30
0.0
 11
35.73404351541325
 21
27.56387681037131
 31
0.0
  0
LINE
  5
4A5
330
359
100
AcDbEntity
  8
0
 62
     0
100
AcDbLine
 10
21.56929870687458
 20
13.39913200183258
 30
0.0
 11
24.22775298786451
 21
16.05758628282257
 31
0.0
  0
LINE
  5
4A6
330
359
100
AcDbEntity
  8
0
 62
     0
100
AcDbLine
 10
27.55047808566087
 20
20.27833699272588
 30
0.0
 11
30.3684686563692
 21
23.09632756343416
 31
0.0
  0
LINE
  5
4A7
330
359
100
AcDbEntity
  8
0
 62
     0
100
AcDbLine
 10
32.05620918253937
 20
24.78406808960432
 30
0.0
 11
36.10911496721457
 21
28.83697387427958
 31
0.0
  0
LINE
  5
4A8
330
359
100
AcDbEntity
  8
0
 62
     0
100
AcDbLine
 10
20.90816445004816
 20
13.63602335711317
 30
0.0
 11
23.32972737575762
 21
16.05758628282257
 31
0.0
  0
LINE
  5
4A9
330
359
100
AcDbEntity
  8
0
 62
     0
100
AcDbLine
 10
27.55047808566093
 20
21.17636260483272
 30
0.0
 11
30.35047808566094
 21
23.97636260483279
 31
0.0
  0
LINE
  5
4AA
330
359
100
AcDbEntity
  8
0
 62
     0
100
AcDbLine
 10
32.4706825419733
 20
26.09656706114515
 30
0.0
 11
35.71510309464537
 21
29.34098761381722
 31
0.0
  0
LINE
  5
4AB
330
359
100
AcDbEntity
  8
0
 62
     0
100
AcDbLine
 10
20.33056116588387
 20
13.95644568505565
 30
0.0
 11
22.44662302437672
 21
16.07250754354857
 31
0.0
  0
LINE
  5
4AC
330
359
100
AcDbEntity
  8
0
 62
     0
100
AcDbLine
 10
27.55047808566087
 20
22.07438821693967
 30
0.0
 11
30.35047808566094
 21
24.87438821693974
 31
0.0
  0
LINE
  5
4AD
330
359
100
AcDbEntity
  8
0
 62
     0
100
AcDbLine
 10
32.88515590140725
 20
27.40906603268598
 30
0.0
 11
34.83367615154378
 21
29.35758628282258
 31
0.0
  0
LINE
  5
4AE
330
359
100
AcDbEntity
  8
0
 62
     0
100
AcDbLine
 10
19.8256061995018
 20
14.34951633078054
 30
0.0
 11
21.81230688335842
 21
16.33621701463716
 31
0.0
  0
LINE
  5
4AF
330
359
100
AcDbEntity
  8
0
 62
     0
100
AcDbLine
 10
27.55047808566087
 20
22.97241382904656
 30
0.0
 11
30.35047808566094
 21
25.77241382904663
 31
0.0
  0
LINE
  5
4B0
330
359
100
AcDbEntity
  8
0
 62
     0
100
AcDbLine
 10
24.21211221743738
 20
19.63404796082312
 30
0.0
 11
25.37401640766046
 21
20.79595215104621
 31
0.0
  0
LINE
  5
4B1
330
359
100
AcDbEntity
  8
0
 62
     0
100
AcDbLine
 10
33.29962926084113
 20
28.72156500422688
 30
0.0
 11
33.93565053943684
 21
29.35758628282258
 31
0.0
  0
LINE
  5
4B2
330
359
100
AcDbEntity
  8
0
 62
     0
100
AcDbLine
 10
19.38916912617196
 20
14.81110486955771
 30
0.0
 11
21.40205593208623
 21
16.82399167547197
 31
0.0
  0
LINE
  5
4B3
330
359
100
AcDbEntity
  8
0
 62
     0
100
AcDbLine
 10
23.28713937580756
 20
19.60710073130025
 30
0.0
 11
25.40096363718334
 21
21.72092499267598
 31
0.0
  0
LINE
  5
4B4
330
359
100
AcDbEntity
  8
0
 62
     0
100
AcDbLine
 10
27.55047808566093
 20
23.87043944115356
 30
0.0
 11
30.350478085661
 21
26.67043944115363
 31
0.0
  0
LINE
  5
4B5
330
359
100
AcDbEntity
  8
0
 62
     0
100
AcDbLine
 10
19.022149901229
 20
15.34211125672164
 30
0.0
 11
21.25047808566092
 21
17.57043944115361
 31
0.0
  0
LINE
  5
4B6
330
359
100
AcDbEntity
  8
0
 62
     0
100
AcDbLine
 10
22.67299280638736
 20
19.89097977398683
 30
0.0
 11
25.1170845944967
 21
22.33507156209623
 31
0.0
  0
LINE
  5
4B7
330
359
100
AcDbEntity
  8
0
 62
     0
100
AcDbLine
 10
27.55047808566093
 20
24.76846505326046
 30
0.0
 11
30.350478085661
 21
27.56846505326052
 31
0.0
  0
LINE
  5
4B8
330
359
100
AcDbEntity
  8
0
 62
     0
100
AcDbLine
 10
18.73083239130426
 20
15.94881935890379
 30
0.0
 11
21.25047808566092
 21
18.46846505326044
 31
0.0
  0
LINE
  5
4B9
330
359
100
AcDbEntity
  8
0
 62
     0
100
AcDbLine
 10
22.23503287939764
 20
20.35104545910412
 30
0.0
 11
24.65701890937948
 21
22.7730314890859
 31
0.0
  0
LINE
  5
4BA
330
359
100
AcDbEntity
  8
0
 62
     0
100
AcDbLine
 10
27.55047808566093
 20
25.6664906653674
 30
0.0
 11
30.350478085661
 21
28.46649066536742
 31
0.0
  0
LINE
  5
4BB
330
359
100
AcDbEntity
  8
0
 62
     0
100
AcDbLine
 10
18.5296950271296
 20
16.64570760683608
 30
0.0
 11
21.25047808566092
 21
19.36649066536739
 31
0.0
  0
LINE
  5
4BC
330
359
100
AcDbEntity
  8
0
 62
     0
100
AcDbLine
 10
21.97898214698927
 20
20.99302033880264
 30
0.0
 11
24.0150440296809
 21
23.02908222149432
 31
0.0
  0
LINE
  5
4BD
330
359
100
AcDbEntity
  8
0
 62
     0
100
AcDbLine
 10
18.45047808566085
 20
17.46451627747427
 30
0.0
 11
21.25047808566092
 21
20.26451627747428
 31
0.0
  0
LINE
  5
4BE
330
359
100
AcDbEntity
  8
0
 62
     0
100
AcDbLine
 10
27.55047808566093
 20
26.5645162774743
 30
0.0
 11
30.19322797730581
 21
29.20726616911924
 31
0.0
  0
LINE
  5
4BF
330
359
100
AcDbEntity
  8
0
 62
     0
100
AcDbLine
 10
14.36448132778525
 20
13.37851951959868
 30
0.0
 11
16.22954484888498
 21
15.24358304069841
 31
0.0
  0
LINE
  5
4C0
330
359
100
AcDbEntity
  8
0
 62
     0
100
AcDbLine
 10
22.09739523047006
 20
22.00945903439032
 30
0.0
 11
22.99860533409327
 21
22.91066913801353
 31
0.0
  0
LINE
  5
4C1
330
359
100
AcDbEntity
  8
0
 62
     0
100
AcDbLine
 10
18.45047808566085
 20
18.36254188958111
 30
0.0
 11
21.25047808566092
 21
21.16254188958118
 31
0.0
  0
LINE
  5
4C2
330
359
100
AcDbEntity
  8
0
 62
     0
100
AcDbLine
 10
27.55047808566093
 20
27.46254188958119
 30
0.0
 11
29.44552247890232
 21
29.35758628282258
 31
0.0
  0
LINE
  5
4C3
330
359
100
AcDbEntity
  8
0
 62
     0
100
AcDbLine
 10
13.34552247890229
 20
13.25758628282256
 30
0.0
 11
16.35047808566105
 21
16.26254188958126
 31
0.0
  0
LINE
  5
4C4
330
359
100
AcDbEntity
  8
0
 62
     0
100
AcDbLine
 10
18.45047808566085
 20
19.26056750168806
 30
0.0
 11
21.25047808566092
 21
22.06056750168813
 31
0.0
  0
LINE
  5
4C5
330
359
100
AcDbEntity
  8
0
 62
     0
100
AcDbLine
 10
27.55047808566093
 20
28.36056750168808
 30
0.0
 11
28.54749686679543
 21
29.35758628282264
 31
0.0
  0
LINE
  5
4C6
330
359
100
AcDbEntity
  8
0
 62
     0
100
AcDbLine
 10
12.44749686679529
 20
13.2575862828225
 30
0.0
 11
16.35047808566099
 21
17.1605675016882
 31
0.0
  0
LINE
  5
4C7
330
359
100
AcDbEntity
  8
0
 62
     0
100
AcDbLine
 10
18.45047808566085
 20
20.15859311379495
 30
0.0
 11
21.25047808566086
 21
22.95859311379502
 31
0.0
  0
LINE
  5
4C8
330
359
100
AcDbEntity
  8
0
 62
     0
100
AcDbLine
 10
11.54947125468845
 20
13.25758628282261
 30
0.0
 11
16.34653873309975
 21
18.05465376123391
 31
0.0
  0
LINE
  5
4C9
330
359
100
AcDbEntity
  8
0
 62
     0
100
AcDbLine
 10
18.45047808566085
 20
21.0566187259019
 30
0.0
 11
21.25047808566092
 21
23.85661872590197
 31
0.0
  0
LINE
  5
4CA
330
359
100
AcDbEntity
  8
0
 62
     0
100
AcDbLine
 10
23.95144564258163
 20
26.55758628282268
 30
0.0
 11
25.10047808566105
 21
27.7066187259021
 31
0.0
  0
LINE
  5
4CB
330
359
100
AcDbEntity
  8
0
 62
     0
100
AcDbLine
 10
10.6514456425815
 20
13.25758628282256
 30
0.0
 11
16.23687689677842
 21
18.84301753701947
 31
0.0
  0
LINE
  5
4CC
330
359
100
AcDbEntity
  8
0
 62
     0
100
AcDbLine
 10
18.45047808566085
 20
21.95464433800879
 30
0.0
 11
21.25047808566092
 21
24.7546443380088
 31
0.0
  0
LINE
  5
4CD
330
359
100
AcDbEntity
  8
0
 62
     0
100
AcDbLine
 10
13.55047808566093
 20
17.05464433800887
 30
0.0
 11
16.0145381527343
 21
19.51870440508225
 31
0.0
  0
LINE
  5
4CE
330
359
100
AcDbEntity
  8
0
 62
     0
100
AcDbLine
 10
23.05342003047463
 20
26.55758628282257
 30
0.0
 11
25.10047808566105
 21
28.60464433800894
 31
0.0
  0
LINE
  5
4CF
330
359
100
AcDbEntity
  8
0
 62
     0
100
AcDbLine
 10
9.811145905734576
 20
13.31531215808252
 30
0.0
 11
12.55342003047462
 21
16.05758628282257
 31
0.0
  0
LINE
  5
4D0
330
359
100
AcDbEntity
  8
0
 62
     0
100
AcDbLine
 10
18.45047808566079
 20
22.85266995011568
 30
0.0
 11
21.41629279144058
 21
25.81848465589548
 31
0.0
  0
LINE
  5
4D1
330
359
100
AcDbEntity
  8
0
 62
     0
100
AcDbLine
 10
13.54831899405167
 20
17.9505108585065
 30
0.0
 11
15.70610661806228
 21
20.10829848251717
 31
0.0
  0
LINE
  5
4D2
330
359
100
AcDbEntity
  8
0
 62
     0
100
AcDbLine
 10
21.98957971258812
 20
26.39177157704302
 30
0.0
 11
24.86701067074114
 21
29.26920253519597
 31
0.0
  0
LINE
  5
4D3
330
359
100
AcDbEntity
  8
0
 62
     0
100
AcDbLine
 10
9.52547808566095
 20
13.92766995011578
 30
0.0
 11
11.65539441836773
 21
16.05758628282257
 31
0.0
  0
LINE
  5
4D4
330
359
100
AcDbEntity
  8
0
 62
     0
100
AcDbLine
 10
13.32871597455096
 20
18.6289334511128
 30
0.0
 11
15.32386465322338
 21
20.62408212978522
 31
0.0
  0
LINE
  5
4D5
330
359
100
AcDbEntity
  8
0
 62
     0
100
AcDbLine
 10
18.45047808566079
 20
23.75069556222263
 30
0.0
 11
24.05736880626085
 21
29.3575862828227
 31
0.0
  0
LINE
  5
4D6
330
359
100
AcDbEntity
  8
0
 62
     0
100
AcDbLine
 10
9.525478085660893
 20
14.82569556222273
 30
0.0
 11
10.75736880626078
 21
16.05758628282262
 31
0.0
  0
LINE
  5
4D7
330
359
100
AcDbEntity
  8
0
 62
     0
100
AcDbLine
 10
12.90246114624625
 20
19.10070423491493
 30
0.0
 11
14.88236013356862
 21
21.0806032222373
 31
0.0
  0
LINE
  5
4D8
330
359
100
AcDbEntity
  8
0
 62
     0
100
AcDbLine
 10
18.45047808566085
 20
24.64872117432947
 30
0.0
 11
23.15934319415379
 21
29.35758628282247
 31
0.0
  0
LINE
  5
4D9
330
359
100
AcDbEntity
  8
0
 62
     0
100
AcDbLine
 10
9.594430007680671
 20
15.79267309634935
 30
0.0
 11
9.790391272134286
 21
15.98863436080296
 31
0.0
  0
LINE
  5
4DA
330
359
100
AcDbEntity
  8
0
 62
     0
100
AcDbLine
 10
18.47045319981743
 20
25.566721900593
 30
0.0
 11
22.24134246789043
 21
29.33761116866606
 31
0.0
  0
LINE
  5
4DB
330
359
100
AcDbEntity
  8
0
 62
     0
100
AcDbLine
 10
12.45344834019278
 20
19.5497170409684
 30
0.0
 11
14.43334732751515
 21
21.52961602829078
 31
0.0
  0
LINE
  5
4DC
330
359
100
AcDbEntity
  8
0
 62
     0
100
AcDbLine
 10
18.76991663208321
 20
26.76421094496578
 30
0.0
 11
21.0438534235177
 21
29.03814773640028
 31
0.0
  0
LINE
  5
4DD
330
359
100
AcDbEntity
  8
0
 62
     0
100
AcDbLine
 10
12.0044355341393
 20
19.99872984702188
 30
0.0
 11
13.98433452146167
 21
21.97862883434425
 31
0.0
  0
LINE
  5
4DE
330
359
100
AcDbEntity
  8
0
 62
     0
100
AcDbLine
 10
11.55542272808588
 20
20.4477426530753
 30
0.0
 11
13.5353217154082
 21
22.42764164039755
 31
0.0
  0
LINE
  5
4DF
330
359
100
AcDbEntity
  8
0
 62
     0
100
AcDbLine
 10
11.10640992203241
 20
20.89675545912877
 30
0.0
 11
13.08630890935473
 21
22.87665444645103
 31
0.0
  0
LINE
  5
4E0
330
359
100
AcDbEntity
  8
0
 62
     0
100
AcDbLine
 10
10.65739711597894
 20
21.34576826518225
 30
0.0
 11
12.63729610330125
 21
23.3256672525045
 31
0.0
  0
LINE
  5
4E1
330
359
100
AcDbEntity
  8
0
 62
     0
100
AcDbLine
 10
14.97118952151237
 20
26.55758628282257
 30
0.0
 11
15.82547808566085
 21
27.4118748469711
 31
0.0
  0
LINE
  5
4E2
330
359
100
AcDbEntity
  8
0
 62
     0
100
AcDbLine
 10
10.20846762395359
 20
21.79486438526385
 30
0.0
 11
12.18853326738605
 21
23.77493002869631
 31
0.0
  0
LINE
  5
4E3
330
359
100
AcDbEntity
  8
0
 62
     0
100
AcDbLine
 10
14.07316390940548
 20
26.55758628282257
 30
0.0
 11
15.8254780856609
 21
28.309900459078
 31
0.0
  0
LINE
  5
4E4
330
359
100
AcDbEntity
  8
0
 62
     0
100
AcDbLine
 10
9.796999699402022
 20
22.28142207281905
 30
0.0
 11
11.85863638609811
 21
24.3430587595152
 31
0.0
  0
LINE
  5
4E5
330
359
100
AcDbEntity
  8
0
 62
     0
100
AcDbLine
 10
13.17513829729853
 20
26.55758628282257
 30
0.0
 11
15.73891918589976
 21
29.1213671714238
 31
0.0
  0
LINE
  5
4E6
330
359
100
AcDbEntity
  8
0
 62
     0
100
AcDbLine
 10
9.456539093139554
 20
22.83898707866354
 30
0.0
 11
11.80047808566098
 21
25.18292607118497
 31
0.0
  0
LINE
  5
4E7
330
359
100
AcDbEntity
  8
0
 62
     0
100
AcDbLine
 10
12.27464603602152
 20
26.55511963365245
 30
0.0
 11
15.07711268519171
 21
29.35758628282264
 31
0.0
  0
LINE
  5
4E8
330
359
100
AcDbEntity
  8
0
 62
     0
100
AcDbLine
 10
9.195845797407457
 20
23.47631939503839
 30
0.0
 11
11.80294473483104
 21
26.08341833246203
 31
0.0
  0
LINE
  5
4E9
330
359
100
AcDbEntity
  8
0
 62
     0
100
AcDbLine
 10
9.034033835159391
 20
24.21253304489721
 30
0.0
 11
14.17908707308481
 21
29.35758628282264
 31
0.0
  0
LINE
  5
4EA
330
359
100
AcDbEntity
  8
0
 62
     0
100
AcDbLine
 10
9.000478085660972
 20
25.07700290750574
 30
0.0
 11
13.28106146097781
 21
29.35758628282258
 31
0.0
  0
LINE
  5
4EB
330
359
100
AcDbEntity
  8
0
 62
     0
100
AcDbLine
 10
9.000478085660972
 20
25.97502851961264
 30
0.0
 11
12.38303584887086
 21
29.35758628282258
 31
0.0
  0
LINE
  5
4EC
330
359
100
AcDbEntity
  8
0
 62
     0
100
AcDbLine
 10
9.020670096099195
 20
26.89324614215781
 30
0.0
 11
11.4648182263258
 21
29.33739427238442
 31
0.0
  0
ENDBLK
  5
4EE
330
359
100
AcDbEntity
  8
0
100
AcDbBlockEnd
  0
BLOCK
  5
1C54
330
1C4A
100
AcDbEntity
  8
0
100
AcDbBlockBegin
  2
*D2
 70
     1
 10
0.0
 20
0.0
 30
0.0
  3
*D2
  1

  0
LINE
  5
23B2
330
1C4A
100
AcDbEntity
  8
SUNPOU
  6
Continuous
 62
     4
370
    -2
100
AcDbLine
 10
236.6651687472328
 20
159.9091186699654
 30
0.0
 11
236.6651687472328
 21
77.15407062540998
 31
0.0
  0
LINE
  5
23B3
330
1C4A
100
AcDbEntity
  8
SUNPOU
  6
Continuous
 62
     4
370
    -2
100
AcDbLine
 10
122.1769687472327
 20
159.9092186699654
 30
0.0
 11
122.1769687472327
 21
77.15407062540998
 31
0.0
  0
LINE
  5
23B4
330
1C4A
100
AcDbEntity
  8
SUNPOU
  6
Continuous
 62
     4
370
    -2
100
AcDbLine
 10
233.6651687472328
 20
78.65407062540999
 30
0.0
 11
125.1769687472327
 21
78.65407062540999
 31
0.0
  0
INSERT
  5
23B5
330
1C4A
100
AcDbEntity
  8
SUNPOU
  6
Continuous
 62
     4
370
    -2
100
AcDbBlockReference
  2
_OPEN
 10
236.6651687472328
 20
78.65407062540999
 30
0.0
 41
3.0
 42
3.0
 43
3.0
  0
INSERT
  5
23B6
330
1C4A
100
AcDbEntity
  8
SUNPOU
  6
Continuous
 62
     4
370
    -2
100
AcDbBlockReference
  2
_OPEN
 10
122.1769687472327
 20
78.65407062540999
 30
0.0
 41
3.0
 42
3.0
 43
3.0
 50
180.0
  0
MTEXT
  5
23B7
330
1C4A
100
AcDbEntity
  8
SUNPOU
  6
Continuous
 62
     4
100
AcDbMText
 10
179.4210687472327
 20
81.15407062540999
 30
0.0
 40
3.0
 41
0.0
 71
     5
 72
     5
  1
\A1;\U+03C6114
 73
     1
 44
1.0
1001
ACAD
1000
MTEXTBEGIN
1070
    73
1070
     1
1070
    44
1040
1.0
1070
    74
1070
     0
1000
MTEXTEND
  0
POINT
  5
23B8
330
1C4A
100
AcDbEntity
  8
DEFPOINTS
  6
Continuous
 62
     0
100
AcDbPoint
 10
236.6651687472328
 20
162.9091186699654
 30
0.0
  0
POINT
  5
23B9
330
1C4A
100
AcDbEntity
  8
DEFPOINTS
  6
Continuous
 62
     0
100
AcDbPoint
 10
122.1769687472327
 20
162.9092186699654
 30
0.0
  0
POINT
  5
23BA
330
1C4A
100
AcDbEntity
  8
DEFPOINTS
  6
Continuous
 62
     0
100
AcDbPoint
 10
122.1769687472327
 20
78.65407062540999
 30
0.0
  0
ENDBLK
  5
1C55
330
1C4A
100
AcDbEntity
  8
0
100
AcDbBlockEnd
  0
BLOCK
  5
1C60
330
1C56
100
AcDbEntity
  8
0
100
AcDbBlockBegin
  2
*D3
 70
     1
 10
0.0
 20
0.0
 30
0.0
  3
*D3
  1

  0
LINE
  5
23BB
330
1C56
100
AcDbEntity
  8
SUNPOU
  6
Continuous
 62
     4
370
    -2
100
AcDbLine
 10
224.0611687472328
 20
98.06111866996545
 30
0.0
 11
224.0611687472328
 21
86.26705783011155
 31
0.0
  0
LINE
  5
23BC
330
1C56
100
AcDbEntity
  8
SUNPOU
  6
Continuous
 62
     4
370
    -2
100
AcDbLine
 10
134.7807687472328
 20
98.06121866996544
 30
0.0
 11
134.7807687472328
 21
86.26705783011155
 31
0.0
  0
LINE
  5
23BD
330
1C56
100
AcDbEntity
  8
SUNPOU
  6
Continuous
 62
     4
370
    -2
100
AcDbLine
 10
221.0611687472328
 20
87.76705783011156
 30
0.0
 11
137.7807687472328
 21
87.76705783011156
 31
0.0
  0
INSERT
  5
23BE
330
1C56
100
AcDbEntity
  8
SUNPOU
  6
Continuous
 62
     4
370
    -2
100
AcDbBlockReference
  2
_OPEN
 10
224.0611687472328
 20
87.76705783011156
 30
0.0
 41
3.0
 42
3.0
 43
3.0
  0
INSERT
  5
23BF
330
1C56
100
AcDbEntity
  8
SUNPOU
  6
Continuous
 62
     4
370
    -2
100
AcDbBlockReference
  2
_OPEN
 10
134.7807687472328
 20
87.76705783011156
 30
0.0
 41
3.0
 42
3.0
 43
3.0
 50
180.0
  0
MTEXT
  5
23C0
330
1C56
100
AcDbEntity
  8
SUNPOU
  6
Continuous
 62
     4
100
AcDbMText
 10
179.4209687472328
 20
90.26705783011156
 30
0.0
 40
3.0
 41
0.0
 71
     5
 72
     5
  1
\A1;\U+03C689
 73
     1
 44
1.0
1001
ACAD
1000
MTEXTBEGIN
1070
    73
1070
     1
1070
    44
1040
1.0
1070
    74
1070
     0
1000
MTEXTEND
  0
POINT
  5
23C1
330
1C56
100
AcDbEntity
  8
DEFPOINTS
  6
Continuous
 62
     0
100
AcDbPoint
 10
224.0611687472328
 20
101.0611186699654
 30
0.0
  0
POINT
  5
23C2
330
1C56
100
AcDbEntity
  8
DEFPOINTS
  6
Continuous
 62
     0
100
AcDbPoint
 10
134.7807687472328
 20
101.0612186699654
 30
0.0
  0
POINT
  5
23C3
330
1C56
100
AcDbEntity
  8
DEFPOINTS
  6
Continuous
 62
     0
100
AcDbPoint
 10
134.7807687472328
 20
87.76705783011156
 30
0.0
  0
ENDBLK
  5
1C61
330
1C56
100
AcDbEntity
  8
0
100
AcDbBlockEnd
  0
BLOCK
  5
1C6C
330
1C62
100
AcDbEntity
  8
0
100
AcDbBlockBegin
  2
*D4
 70
     1
 10
0.0
 20
0.0
 30
0.0
  3
*D4
  1

  0
LINE
  5
2397
330
1C62
100
AcDbEntity
  8
SUNPOU
  6
Continuous
 62
     4
370
    -2
100
AcDbLine
 10
238.4111687472327
 20
214.2651186699654
 30
0.0
 11
238.4111687472327
 21
237.4153039361583
 31
0.0
  0
LINE
  5
2398
330
1C62
100
AcDbEntity
  8
SUNPOU
  6
Continuous
 62
     4
370
    -2
100
AcDbLine
 10
120.4311687472328
 20
214.2653186699654
 30
0.0
 11
120.4311687472328
 21
237.4153039361583
 31
0.0
  0
LINE
  5
2399
330
1C62
100
AcDbEntity
  8
SUNPOU
  6
Continuous
 62
     4
370
    -2
100
AcDbLine
 10
235.4111687472328
 20
235.9153039361582
 30
0.0
 11
123.4311687472328
 21
235.9153039361582
 31
0.0
  0
INSERT
  5
239A
330
1C62
100
AcDbEntity
  8
SUNPOU
  6
Continuous
 62
     4
370
    -2
100
AcDbBlockReference
  2
_OPEN
 10
238.4111687472327
 20
235.9153039361582
 30
0.0
 41
3.0
 42
3.0
 43
3.0
  0
INSERT
  5
239B
330
1C62
100
AcDbEntity
  8
SUNPOU
  6
Continuous
 62
     4
370
    -2
100
AcDbBlockReference
  2
_OPEN
 10
120.4311687472328
 20
235.9153039361582
 30
0.0
 41
3.0
 42
3.0
 43
3.0
 50
180.0
  0
MTEXT
  5
239C
330
1C62
100
AcDbEntity
  8
SUNPOU
  6
Continuous
 62
     4
100
AcDbMText
 10
179.4211687472327
 20
238.4153039361582
 30
0.0
 40
3.0
 41
0.0
 71
     5
 72
     5
  1
\A1;\U+03C6118
 73
     1
 44
1.0
1001
ACAD
1000
MTEXTBEGIN
1070
    73
1070
     1
1070
    44
1040
1.0
1070
    74
1070
     0
1000
MTEXTEND
  0
POINT
  5
239D
330
1C62
100
AcDbEntity
  8
DEFPOINTS
  6
Continuous
 62
     0
100
AcDbPoint
 10
238.4111687472327
 20
211.2651186699654
 30
0.0
  0
POINT
  5
239E
330
1C62
100
AcDbEntity
  8
DEFPOINTS
  6
Continuous
 62
     0
100
AcDbPoint
 10
120.4311687472328
 20
211.2653186699654
 30
0.0
  0
POINT
  5
239F
330
1C62
100
AcDbEntity
  8
DEFPOINTS
  6
Continuous
 62
     0
100
AcDbPoint
 10
120.4311687472328
 20
235.9153039361582
 30
0.0
  0
ENDBLK
  5
1C6D
330
1C62
100
AcDbEntity
  8
0
100
AcDbBlockEnd
  0
BLOCK
  5
1C78
330
1C6E
100
AcDbEntity
  8
0
100
AcDbBlockBegin
  2
*D5
 70
     1
 10
0.0
 20
0.0
 30
0.0
  3
*D5
  1

  0
LINE
  5
23CD
330
1C6E
100
AcDbEntity
  8
SUNPOU
  6
Continuous
 62
     4
370
    -2
100
AcDbLine
 10
224.4162687472329
 20
217.0411186699654
 30
0.0
 11
224.4162687472329
 21
227.7744512822903
 31
0.0
  0
LINE
  5
23CE
330
1C6E
100
AcDbEntity
  8
SUNPOU
  6
Continuous
 62
     4
370
    -2
100
AcDbLine
 10
134.4260687472327
 20
217.0412587975137
 30
0.0
 11
134.4260687472327
 21
227.7744512822903
 31
0.0
  0
LINE
  5
23CF
330
1C6E
100
AcDbEntity
  8
SUNPOU
  6
Continuous
 62
     4
370
    -2
100
AcDbLine
 10
221.4162687472328
 20
226.2744512822902
 30
0.0
 11
137.4260687472327
 21
226.2744512822902
 31
0.0
  0
INSERT
  5
23D0
330
1C6E
100
AcDbEntity
  8
SUNPOU
  6
Continuous
 62
     4
370
    -2
100
AcDbBlockReference
  2
_OPEN
 10
224.4162687472329
 20
226.2744512822902
 30
0.0
 41
3.0
 42
3.0
 43
3.0
  0
INSERT
  5
23D1
330
1C6E
100
AcDbEntity
  8
SUNPOU
  6
Continuous
 62
     4
370
    -2
100
AcDbBlockReference
  2
_OPEN
 10
134.4260687472327
 20
226.2744512822902
 30
0.0
 41
3.0
 42
3.0
 43
3.0
 50
180.0
  0
MTEXT
  5
23D2
330
1C6E
100
AcDbEntity
  8
SUNPOU
  6
Continuous
 62
     4
100
AcDbMText
 10
179.4211687472328
 20
228.7744512822902
 30
0.0
 40
3.0
 41
0.0
 71
     5
 72
     5
  1
\A1;\U+03C690.0
 73
     1
 44
1.0
1001
ACAD
1000
MTEXTBEGIN
1070
    73
1070
     1
1070
    44
1040
1.0
1070
    74
1070
     0
1000
MTEXTEND
  0
POINT
  5
23D3
330
1C6E
100
AcDbEntity
  8
DEFPOINTS
  6
Continuous
 62
     0
100
AcDbPoint
 10
224.4162687472329
 20
214.0411186699655
 30
0.0
  0
POINT
  5
23D4
330
1C6E
100
AcDbEntity
  8
DEFPOINTS
  6
Continuous
 62
     0
100
AcDbPoint
 10
134.4260687472327
 20
214.0412587975137
 30
0.0
  0
POINT
  5
23D5
330
1C6E
100
AcDbEntity
  8
DEFPOINTS
  6
Continuous
 62
     0
100
AcDbPoint
 10
134.4260687472327
 20
226.2744512822902
 30
0.0
  0
ENDBLK
  5
1C79
330
1C6E
100
AcDbEntity
  8
0
100
AcDbBlockEnd
  0
BLOCK
  5
1C84
330
1C7A
100
AcDbEntity
  8
0
100
AcDbBlockBegin
  2
*D6
 70
     1
 10
0.0
 20
0.0
 30
0.0
  3
*D6
  1

  0
LINE
  5
23F2
330
1C7A
100
AcDbEntity
  8
SUNPOU
  6
Continuous
 62
     4
370
    -2
100
AcDbLine
 10
131.4258687472327
 20
149.2535186699654
 30
0.0
 11
94.8959912366017
 21
149.2535186699654
 31
0.0
  0
LINE
  5
23F3
330
1C7A
100
AcDbEntity
  8
SUNPOU
  6
Continuous
 62
     4
370
    -2
100
AcDbLine
 10
120.2071687472328
 20
214.0413186699654
 30
0.0
 11
94.89599123660171
 21
214.0413186699654
 31
0.0
  0
LINE
  5
23F4
330
1C7A
100
AcDbEntity
  8
SUNPOU
  6
Continuous
 62
     4
370
    -2
100
AcDbLine
 10
96.3959912366017
 20
152.2535186699654
 30
0.0
 11
96.39599123660172
 21
211.0413186699655
 31
0.0
  0
INSERT
  5
23F5
330
1C7A
100
AcDbEntity
  8
SUNPOU
  6
Continuous
 62
     4
370
    -2
100
AcDbBlockReference
  2
_OPEN
 10
96.3959912366017
 20
149.2535186699654
 30
0.0
 41
3.0
 42
3.0
 43
3.0
 50
270.0
  0
INSERT
  5
23F6
330
1C7A
100
AcDbEntity
  8
SUNPOU
  6
Continuous
 62
     4
370
    -2
100
AcDbBlockReference
  2
_OPEN
 10
96.39599123660172
 20
214.0413186699654
 30
0.0
 41
3.0
 42
3.0
 43
3.0
 50
90.0
  0
MTEXT
  5
23F7
330
1C7A
100
AcDbEntity
  8
SUNPOU
  6
Continuous
 62
     4
100
AcDbMText
 10
93.89599123660168
 20
181.6474186699655
 30
0.0
 40
3.0
 41
0.0
 71
     5
 72
     5
  1
\A1;65
 11
0.0000000000000001
 21
1.0
 31
0.0
 73
     1
 44
1.0
1001
ACAD
1000
MTEXTBEGIN
1070
    73
1070
     1
1070
    44
1040
1.0
1070
    74
1070
     0
1000
MTEXTEND
  0
POINT
  5
23F8
330
1C7A
100
AcDbEntity
  8
DEFPOINTS
  6
Continuous
 62
     0
100
AcDbPoint
 10
134.4258687472327
 20
149.2535186699654
 30
0.0
  0
POINT
  5
23F9
330
1C7A
100
AcDbEntity
  8
DEFPOINTS
  6
Continuous
 62
     0
100
AcDbPoint
 10
123.2071687472328
 20
214.0413186699654
 30
0.0
  0
POINT
  5
23FA
330
1C7A
100
AcDbEntity
  8
DEFPOINTS
  6
Continuous
 62
     0
100
AcDbPoint
 10
96.39599123660172
 20
214.0413186699654
 30
0.0
  0
ENDBLK
  5
1C85
330
1C7A
100
AcDbEntity
  8
0
100
AcDbBlockEnd
  0
BLOCK
  5
1C90
330
1C86
100
AcDbEntity
  8
0
100
AcDbBlockBegin
  2
*D7
 70
     1
 10
0.0
 20
0.0
 30
0.0
  3
*D7
  1

  0
LINE
  5
23D6
330
1C86
100
AcDbEntity
  8
SUNPOU
  6
Continuous
 62
     4
370
    -2
100
AcDbLine
 10
131.4258687472327
 20
149.2535186699654
 30
0.0
 11
105.9839450063946
 21
149.2535186699654
 31
0.0
  0
LINE
  5
23D7
330
1C86
100
AcDbEntity
  8
SUNPOU
  6
Continuous
 62
     4
370
    -2
100
AcDbLine
 10
131.4257687472327
 20
192.8332186699654
 30
0.0
 11
105.9839450063946
 21
192.8332186699654
 31
0.0
  0
LINE
  5
23D8
330
1C86
100
AcDbEntity
  8
SUNPOU
  6
Continuous
 62
     4
370
    -2
100
AcDbLine
 10
107.4839450063946
 20
152.2535186699654
 30
0.0
 11
107.4839450063946
 21
189.8332186699654
 31
0.0
  0
INSERT
  5
23D9
330
1C86
100
AcDbEntity
  8
SUNPOU
  6
Continuous
 62
     4
370
    -2
100
AcDbBlockReference
  2
_OPEN
 10
107.4839450063946
 20
149.2535186699654
 30
0.0
 41
3.0
 42
3.0
 43
3.0
 50
270.0
  0
INSERT
  5
23DA
330
1C86
100
AcDbEntity
  8
SUNPOU
  6
Continuous
 62
     4
370
    -2
100
AcDbBlockReference
  2
_OPEN
 10
107.4839450063946
 20
192.8332186699654
 30
0.0
 41
3.0
 42
3.0
 43
3.0
 50
90.0
  0
MTEXT
  5
23DB
330
1C86
100
AcDbEntity
  8
SUNPOU
  6
Continuous
 62
     4
100
AcDbMText
 10
104.9839450063946
 20
171.0433686699654
 30
0.0
 40
3.0
 41
0.0
 71
     5
 72
     5
  1
\A1;44
 11
0.0000000000000001
 21
1.0
 31
0.0
 73
     1
 44
1.0
1001
ACAD
1000
MTEXTBEGIN
1070
    73
1070
     1
1070
    44
1040
1.0
1070
    74
1070
     0
1000
MTEXTEND
  0
POINT
  5
23DC
330
1C86
100
AcDbEntity
  8
DEFPOINTS
  6
Continuous
 62
     0
100
AcDbPoint
 10
134.4258687472327
 20
149.2535186699654
 30
0.0
  0
POINT
  5
23DD
330
1C86
100
AcDbEntity
  8
DEFPOINTS
  6
Continuous
 62
     0
100
AcDbPoint
 10
134.4257687472327
 20
192.8332186699654
 30
0.0
  0
POINT
  5
23DE
330
1C86
100
AcDbEntity
  8
DEFPOINTS
  6
Continuous
 62
     0
100
AcDbPoint
 10
107.4839450063946
 20
192.8332186699654
 30
0.0
  0
ENDBLK
  5
1C91
330
1C86
100
AcDbEntity
  8
0
100
AcDbBlockEnd
  0
BLOCK
  5
1C9C
330
1C92
100
AcDbEntity
  8
0
100
AcDbBlockBegin
  2
*D8
 70
     1
 10
0.0
 20
0.0
 30
0.0
  3
*D8
  1

  0
LINE
  5
23A0
330
1C92
100
AcDbEntity
  8
SUNPOU
  6
Continuous
 62
     4
370
    -2
100
AcDbLine
 10
238.6350687472327
 20
214.0411186699655
 30
0.0
 11
265.0569089519787
 21
214.0411186699655
 31
0.0
  0
LINE
  5
23A1
330
1C92
100
AcDbEntity
  8
SUNPOU
  6
Continuous
 62
     4
370
    -2
100
AcDbLine
 10
227.0611687472328
 20
101.0611186699654
 30
0.0
 11
265.0569089519786
 21
101.0611186699654
 31
0.0
  0
LINE
  5
23A2
330
1C92
100
AcDbEntity
  8
SUNPOU
  6
Continuous
 62
     4
370
    -2
100
AcDbLine
 10
263.5569089519786
 20
211.0411186699654
 30
0.0
 11
263.5569089519786
 21
104.0611186699654
 31
0.0
  0
INSERT
  5
23A3
330
1C92
100
AcDbEntity
  8
SUNPOU
  6
Continuous
 62
     4
370
    -2
100
AcDbBlockReference
  2
_OPEN
 10
263.5569089519786
 20
214.0411186699655
 30
0.0
 41
3.0
 42
3.0
 43
3.0
 50
90.0
  0
INSERT
  5
23A4
330
1C92
100
AcDbEntity
  8
SUNPOU
  6
Continuous
 62
     4
370
    -2
100
AcDbBlockReference
  2
_OPEN
 10
263.5569089519786
 20
101.0611186699654
 30
0.0
 41
3.0
 42
3.0
 43
3.0
 50
270.0
  0
MTEXT
  5
23A5
330
1C92
100
AcDbEntity
  8
SUNPOU
  6
Continuous
 62
     4
100
AcDbMText
 10
261.0569089519786
 20
157.5511186699654
 30
0.0
 40
3.0
 41
0.0
 71
     5
 72
     5
  1
\A1;113
 11
0.0000000000000001
 21
1.0
 31
0.0
 73
     1
 44
1.0
1001
ACAD
1000
MTEXTBEGIN
1070
    73
1070
     1
1070
    44
1040
1.0
1070
    74
1070
     0
1000
MTEXTEND
  0
POINT
  5
23A6
330
1C92
100
AcDbEntity
  8
DEFPOINTS
  6
Continuous
 62
     0
100
AcDbPoint
 10
235.6350687472327
 20
214.0411186699655
 30
0.0
  0
POINT
  5
23A7
330
1C92
100
AcDbEntity
  8
DEFPOINTS
  6
Continuous
 62
     0
100
AcDbPoint
 10
224.0611687472328
 20
101.0611186699654
 30
0.0
  0
POINT
  5
23A8
330
1C92
100
AcDbEntity
  8
DEFPOINTS
  6
Continuous
 62
     0
100
AcDbPoint
 10
263.5569089519786
 20
101.0611186699654
 30
0.0
  0
ENDBLK
  5
1C9D
330
1C92
100
AcDbEntity
  8
0
100
AcDbBlockEnd
  0
BLOCK
  5
1CA8
330
1C9E
100
AcDbEntity
  8
0
100
AcDbBlockBegin
  2
*D9
 70
     1
 10
0.0
 20
0.0
 30
0.0
  3
*D9
  1

  0
LINE
  5
23A9
330
1C9E
100
AcDbEntity
  8
SUNPOU
  6
Continuous
 62
     4
370
    -2
100
AcDbLine
 10
231.0011687472328
 20
142.1491186699654
 30
0.0
 11
253.8699972438112
 21
142.1491186699654
 31
0.0
  0
LINE
  5
23AA
330
1C9E
100
AcDbEntity
  8
SUNPOU
  6
Continuous
 62
     4
370
    -2
100
AcDbLine
 10
227.0611687472328
 20
101.0611186699654
 30
0.0
 11
253.8699972438112
 21
101.0611186699654
 31
0.0
  0
LINE
  5
23AB
330
1C9E
100
AcDbEntity
  8
SUNPOU
  6
Continuous
 62
     4
370
    -2
100
AcDbLine
 10
252.3699972438112
 20
139.1491186699654
 30
0.0
 11
252.3699972438112
 21
104.0611186699654
 31
0.0
  0
INSERT
  5
23AC
330
1C9E
100
AcDbEntity
  8
SUNPOU
  6
Continuous
 62
     4
370
    -2
100
AcDbBlockReference
  2
_OPEN
 10
252.3699972438112
 20
142.1491186699654
 30
0.0
 41
3.0
 42
3.0
 43
3.0
 50
90.0
  0
INSERT
  5
23AD
330
1C9E
100
AcDbEntity
  8
SUNPOU
  6
Continuous
 62
     4
370
    -2
100
AcDbBlockReference
  2
_OPEN
 10
252.3699972438112
 20
101.0611186699654
 30
0.0
 41
3.0
 42
3.0
 43
3.0
 50
270.0
  0
MTEXT
  5
23AE
330
1C9E
100
AcDbEntity
  8
SUNPOU
  6
Continuous
 62
     4
100
AcDbMText
 10
249.8699972438112
 20
121.6051186699655
 30
0.0
 40
3.0
 41
0.0
 71
     5
 72
     5
  1
\A1;41
 11
0.0000000000000001
 21
1.0
 31
0.0
 73
     1
 44
1.0
1001
ACAD
1000
MTEXTBEGIN
1070
    73
1070
     1
1070
    44
1040
1.0
1070
    74
1070
     0
1000
MTEXTEND
  0
POINT
  5
23AF
330
1C9E
100
AcDbEntity
  8
DEFPOINTS
  6
Continuous
 62
     0
100
AcDbPoint
 10
228.0011687472328
 20
142.1491186699654
 30
0.0
  0
POINT
  5
23B0
330
1C9E
100
AcDbEntity
  8
DEFPOINTS
  6
Continuous
 62
     0
100
AcDbPoint
 10
224.0611687472328
 20
101.0611186699654
 30
0.0
  0
POINT
  5
23B1
330
1C9E
100
AcDbEntity
  8
DEFPOINTS
  6
Continuous
 62
     0
100
AcDbPoint
 10
252.3699972438112
 20
101.0611186699654
 30
0.0
  0
ENDBLK
  5
1CA9
330
1C9E
100
AcDbEntity
  8
0
100
AcDbBlockEnd
  0
BLOCK
  5
245A
330
2450
100
AcDbEntity
  8
0
100
AcDbBlockBegin
  2
*D10
 70
     1
 10
0.0
 20
0.0
 30
0.0
  3
*D10
  1

  0
LINE
  5
27B2
330
2450
100
AcDbEntity
  8
SUNPOU
100
AcDbLine
 10
137.4260687472327
 20
214.0412186699654
 30
0.0
 11
148.0611024207932
 21
214.0412186699654
 31
0.0
  0
LINE
  5
27B3
330
2450
100
AcDbEntity
  8
SUNPOU
100
AcDbLine
 10
137.4260687472327
 20
159.0412186699654
 30
0.0
 11
148.0611024207932
 21
159.0412186699654
 31
0.0
  0
LINE
  5
27B4
330
2450
100
AcDbEntity
  8
SUNPOU
100
AcDbLine
 10
146.5611024207932
 20
211.0412186699654
 30
0.0
 11
146.5611024207932
 21
162.0412186699654
 31
0.0
  0
MTEXT
  5
27B5
330
2450
100
AcDbEntity
  8
SUNPOU
100
AcDbMText
 10
143.507417289141
 20
178.4714784246954
 30
0.0
 40
3.0
 41
0.0
 71
     5
 72
     5
  1
\A1;差し込み長さ55
 11
0.0000000000000001
 21
1.0
 31
0.0
 73
     1
 44
1.0
1001
ACAD
1000
MTEXTBEGIN
1070
    73
1070
     1
1070
    44
1040
1.0
1070
    74
1070
     0
1000
MTEXTEND
  0
INSERT
  5
27B6
330
2450
100
AcDbEntity
  8
SUNPOU
100
AcDbBlockReference
  2
_OPEN
 10
146.5611024207932
 20
214.0412186699654
 30
0.0
 41
3.0
 42
3.0
 43
3.0
 50
90.0
  0
INSERT
  5
27B7
330
2450
100
AcDbEntity
  8
SUNPOU
100
AcDbBlockReference
  2
_OPEN
 10
146.5611024207932
 20
159.0412186699654
 30
0.0
 41
3.0
 42
3.0
 43
3.0
 50
270.0
  0
POINT
  5
27B8
330
2450
100
AcDbEntity
  8
DEFPOINTS
 62
     0
100
AcDbPoint
 10
134.4260687472327
 20
214.0412186699654
 30
0.0
  0
POINT
  5
27B9
330
2450
100
AcDbEntity
  8
DEFPOINTS
 62
     0
100
AcDbPoint
 10
134.4260687472327
 20
159.0412186699654
 30
0.0
  0
POINT
  5
27BA
330
2450
100
AcDbEntity
  8
DEFPOINTS
 62
     0
100
AcDbPoint
 10
146.5611024207932
 20
159.0412186699654
 30
0.0
  0
ENDBLK
  5
245B
330
2450
100
AcDbEntity
  8
0
100
AcDbBlockEnd
  0
BLOCK
  5
2740
330
271A
100
AcDbEntity
  8
0
100
AcDbBlockBegin
  2
*X11
 70
     1
 10
0.0
 20
0.0
 30
0.0
  3
*X11
  1

  0
LINE
  5
271B
330
271A
100
AcDbEntity
  8
0
 62
     0
100
AcDbLine
 10
140.7286175664988
 20
101.0611783568256
 30
0.0
 11
142.8253157930695
 21
103.1578765833963
 31
0.0
  0
LINE
  5
271C
330
271A
100
AcDbEntity
  8
0
 62
     0
100
AcDbLine
 10
136.4860056348192
 20
101.0612071122653
 30
0.0
 11
141.6131639303111
 21
106.1883654077572
 31
0.0
  0
LINE
  5
271D
330
271A
100
AcDbEntity
  8
0
 62
     0
100
AcDbLine
 10
134.7807749227396
 20
103.598617087305
 30
0.0
 11
140.4010120675527
 21
109.2188542321181
 31
0.0
  0
LINE
  5
271E
330
271A
100
AcDbEntity
  8
0
 62
     0
100
AcDbLine
 10
134.7807852484811
 20
107.8412681001658
 30
0.0
 11
140.3328687472327
 21
113.3933515989174
 31
0.0
  0
LINE
  5
271F
330
271A
100
AcDbEntity
  8
0
 62
     0
100
AcDbLine
 10
134.7807955742227
 20
112.0839191130266
 30
0.0
 11
140.3328687472327
 21
117.6359922860366
 31
0.0
  0
LINE
  5
2720
330
271A
100
AcDbEntity
  8
0
 62
     0
100
AcDbLine
 10
134.7808058999642
 20
116.3265701258875
 30
0.0
 11
140.3328687472327
 21
121.878632973156
 31
0.0
  0
LINE
  5
2721
330
271A
100
AcDbEntity
  8
0
 62
     0
100
AcDbLine
 10
134.7808162257058
 20
120.5692211387483
 30
0.0
 11
140.3328687472327
 21
126.1212736602752
 31
0.0
  0
LINE
  5
2722
330
271A
100
AcDbEntity
  8
0
 62
     0
100
AcDbLine
 10
134.7808265514473
 20
124.8118721516091
 30
0.0
 11
140.3328687472327
 21
130.3639143473945
 31
0.0
  0
LINE
  5
2723
330
271A
100
AcDbEntity
  8
0
 62
     0
100
AcDbLine
 10
134.7808368771889
 20
129.0545231644699
 30
0.0
 11
140.3328687472327
 21
134.6065550345138
 31
0.0
  0
LINE
  5
2724
330
271A
100
AcDbEntity
  8
0
 62
     0
100
AcDbLine
 10
134.7808472029304
 20
133.2971741773308
 30
0.0
 11
140.3328687472327
 21
138.8491957216331
 31
0.0
  0
LINE
  5
2725
330
271A
100
AcDbEntity
  8
0
 62
     0
100
AcDbLine
 10
134.7808575286719
 20
137.5398251901916
 30
0.0
 11
140.3328687472327
 21
143.0918364087523
 31
0.0
  0
LINE
  5
2726
330
271A
100
AcDbEntity
  8
0
 62
     0
100
AcDbLine
 10
134.7808678544135
 20
141.7824762030524
 30
0.0
 11
138.2735838753903
 21
145.2751922240292
 31
0.0
  0
LINE
  5
2727
330
271A
100
AcDbEntity
  8
0
 62
     0
100
AcDbLine
 10
130.9049696342072
 20
142.1492186699654
 30
0.0
 11
136.1875603077882
 21
147.4318093435465
 31
0.0
  0
LINE
  5
2728
330
271A
100
AcDbEntity
  8
0
 62
     0
100
AcDbLine
 10
130.8408687472327
 20
146.3277584701103
 30
0.0
 11
134.4258702608624
 21
149.9127599837398
 31
0.0
  0
LINE
  5
2729
330
271A
100
AcDbEntity
  8
0
 62
     0
100
AcDbLine
 10
130.243755739312
 20
149.9732861493088
 30
0.0
 11
134.4258799961554
 21
154.1554104061522
 31
0.0
  0
LINE
  5
272A
330
271A
100
AcDbEntity
  8
0
 62
     0
100
AcDbLine
 10
127.0570475728493
 20
151.0292186699654
 30
0.0
 11
134.4258897314484
 21
158.3980608285644
 31
0.0
  0
LINE
  5
272B
330
271A
100
AcDbEntity
  8
0
 62
     0
100
AcDbLine
 10
130.8224709190379
 20
159.0372827032733
 30
0.0
 11
134.4258994667413
 21
162.6407112509767
 31
0.0
  0
LINE
  5
272C
330
271A
100
AcDbEntity
  8
0
 62
     0
100
AcDbLine
 10
122.8144068857301
 20
151.0292186699654
 30
0.0
 11
128.3849047139248
 21
156.5997164981602
 31
0.0
  0
LINE
  5
272D
330
271A
100
AcDbEntity
  8
0
 62
     0
100
AcDbLine
 10
130.4517661986107
 20
162.9092186699654
 30
0.0
 11
134.4259092020344
 21
166.883361673389
 31
0.0
  0
LINE
  5
272E
330
271A
100
AcDbEntity
  8
0
 62
     0
100
AcDbLine
 10
119.400883680905
 20
151.8583361522596
 30
0.0
 11
124.1237661986108
 21
156.5812186699654
 31
0.0
  0
LINE
  5
272F
330
271A
100
AcDbEntity
  8
0
 62
     0
100
AcDbLine
 10
126.2091255114914
 20
162.9092186699654
 30
0.0
 11
130.3732255114915
 21
167.0733186699654
 31
0.0
  0
LINE
  5
2730
330
271A
100
AcDbEntity
  8
0
 62
     0
100
AcDbLine
 10
130.8409745191327
 20
167.5410676776067
 30
0.0
 11
134.4259189373273
 21
171.1260120958013
 31
0.0
  0
LINE
  5
2731
330
271A
100
AcDbEntity
  8
0
 62
     0
100
AcDbLine
 10
119.4009600987202
 20
156.1010532571942
 30
0.0
 11
119.8811255114915
 21
156.5812186699654
 31
0.0
  0
LINE
  5
2732
330
271A
100
AcDbEntity
  8
0
 62
     0
100
AcDbLine
 10
130.8410268728519
 20
171.7837607184451
 30
0.0
 11
134.4259286726203
 21
175.3686625182136
 31
0.0
  0
LINE
  5
2733
330
271A
100
AcDbEntity
  8
0
 62
     0
100
AcDbLine
 10
122.1769687472328
 20
163.119702592826
 30
0.0
 11
126.1305848243722
 21
167.0733186699654
 31
0.0
  0
LINE
  5
2734
330
271A
100
AcDbEntity
  8
0
 62
     0
100
AcDbLine
 10
129.9918441372529
 20
175.1772186699654
 30
0.0
 11
134.4259384079133
 21
179.6113129406258
 31
0.0
  0
LINE
  5
2735
330
271A
100
AcDbEntity
  8
0
 62
     0
100
AcDbLine
 10
130.8410687472327
 20
180.2690839670645
 30
0.0
 11
134.4259481432063
 21
183.8539633630381
 31
0.0
  0
LINE
  5
2736
330
271A
100
AcDbEntity
  8
0
 62
     0
100
AcDbLine
 10
125.7492034501336
 20
175.1772186699654
 30
0.0
 11
129.9132034501336
 21
179.3412186699654
 31
0.0
  0
LINE
  5
2737
330
271A
100
AcDbEntity
  8
0
 62
     0
100
AcDbLine
 10
129.9986796001384
 20
183.6693355070895
 30
0.0
 11
134.4259578784993
 21
188.0966137854504
 31
0.0
  0
LINE
  5
2738
330
271A
100
AcDbEntity
  8
0
 62
     0
100
AcDbLine
 10
122.1770687472328
 20
175.8477246541839
 30
0.0
 11
125.6705627630143
 21
179.3412186699654
 31
0.0
  0
LINE
  5
2739
330
271A
100
AcDbEntity
  8
0
 62
     0
100
AcDbLine
 10
127.7785182599169
 20
185.6918148539873
 30
0.0
 11
134.4259676137923
 21
192.3392642078627
 31
0.0
  0
LINE
  5
273A
330
271A
100
AcDbEntity
  8
0
 62
     0
100
AcDbLine
 10
124.1252966333673
 20
186.2812339145569
 30
0.0
 11
133.0538807379907
 21
195.2098180191804
 31
0.0
  0
LINE
  5
273B
330
271A
100
AcDbEntity
  8
0
 62
     0
100
AcDbLine
 10
123.2387298170032
 20
189.6373077853121
 30
0.0
 11
129.5987102588539
 21
195.9972882271628
 31
0.0
  0
LINE
  5
273C
330
271A
100
AcDbEntity
  8
0
 62
     0
100
AcDbLine
 10
123.2387298170032
 20
193.8799484724314
 30
0.0
 11
126.111637847896
 21
196.7528565033242
 31
0.0
  0
LINE
  5
273D
330
271A
100
AcDbEntity
  8
0
 62
     0
100
AcDbLine
 10
123.2387298170032
 20
198.1225891595507
 30
0.0
 11
125.9591687472327
 21
200.8430280897802
 31
0.0
  0
LINE
  5
273E
330
271A
100
AcDbEntity
  8
0
 62
     0
100
AcDbLine
 10
123.2387298170032
 20
202.36522984667
 30
0.0
 11
125.9591687472327
 21
205.0856687768995
 31
0.0
  0
LINE
  5
273F
330
271A
100
AcDbEntity
  8
0
 62
     0
100
AcDbLine
 10
123.2387298170032
 20
206.6078705337893
 30
0.0
 11
125.9591687472327
 21
209.3283094640189
 31
0.0
  0
ENDBLK
  5
2741
330
271A
100
AcDbEntity
  8
0
100
AcDbBlockEnd
  0
BLOCK
  5
274E
330
2742
100
AcDbEntity
  8
0
100
AcDbBlockBegin
  2
*X12
 70
     1
 10
0.0
 20
0.0
 30
0.0
  3
*X12
  1

  0
LINE
  5
2743
330
2742
100
AcDbEntity
  8
0
 62
     0
100
AcDbLine
 10
134.4260687472328
 20
213.6906760601088
 30
0.0
 11
134.0755888508839
 21
214.0411559564577
 31
0.0
  0
LINE
  5
2744
330
2742
100
AcDbEntity
  8
0
 62
     0
100
AcDbLine
 10
133.9968854502569
 20
209.8772186699654
 30
0.0
 11
129.8328846453068
 21
214.0412194749155
 31
0.0
  0
LINE
  5
2745
330
2742
100
AcDbEntity
  8
0
 62
     0
100
AcDbLine
 10
129.7542447631376
 20
209.8772186699654
 30
0.0
 11
125.5901804397298
 21
214.0412829933733
 31
0.0
  0
LINE
  5
2746
330
2742
100
AcDbEntity
  8
0
 62
     0
100
AcDbLine
 10
125.5116040760183
 20
209.8772186699654
 30
0.0
 11
121.763179218184
 21
213.6256435277997
 31
0.0
  0
LINE
  5
2747
330
2742
100
AcDbEntity
  8
0
 62
     0
100
AcDbLine
 10
123.2387298170032
 20
207.9074522418613
 30
0.0
 11
120.4311687472328
 21
210.7150133116317
 31
0.0
  0
LINE
  5
2748
330
2742
100
AcDbEntity
  8
0
 62
     0
100
AcDbLine
 10
123.2387298170032
 20
203.664811554742
 30
0.0
 11
120.4311687472328
 21
206.4723726245124
 31
0.0
  0
LINE
  5
2749
330
2742
100
AcDbEntity
  8
0
 62
     0
100
AcDbLine
 10
123.2387298170032
 20
199.4221708676227
 30
0.0
 11
120.4311687472327
 21
202.2297319373931
 31
0.0
  0
LINE
  5
274A
330
2742
100
AcDbEntity
  8
0
 62
     0
100
AcDbLine
 10
124.5951687472327
 20
198.0657319373931
 30
0.0
 11
124.5816820146604
 21
198.0792186699654
 31
0.0
  0
LINE
  5
274B
330
2742
100
AcDbEntity
  8
0
 62
     0
100
AcDbLine
 10
124.5951687472327
 20
193.8230912502738
 30
0.0
 11
120.4311687472328
 21
197.9870912502738
 31
0.0
  0
LINE
  5
274C
330
2742
100
AcDbEntity
  8
0
 62
     0
100
AcDbLine
 10
124.5951687472327
 20
189.5804505631545
 30
0.0
 11
120.4311687472328
 21
193.7444505631545
 31
0.0
  0
LINE
  5
274D
330
2742
100
AcDbEntity
  8
0
 62
     0
100
AcDbLine
 10
123.6517385054346
 20
186.2812401178334
 30
0.0
 11
120.4311687472328
 21
189.5018098760352
 31
0.0
  0
ENDBLK
  5
274F
330
2742
100
AcDbEntity
  8
0
100
AcDbBlockEnd
  0
BLOCK
  5
275C
330
2750
100
AcDbEntity
  8
0
100
AcDbBlockBegin
  2
*X13
 70
     1
 10
0.0
 20
0.0
 30
0.0
  3
*X13
  1

  0
LINE
  5
2751
330
2750
100
AcDbEntity
  8
0
 62
     0
100
AcDbLine
 10
136.4543997454731
 20
196.0054884333048
 30
0.0
 11
136.4543997454731
 21
196.1913472440233
 31
0.0
  0
LINE
  5
2752
330
2750
100
AcDbEntity
  8
0
 62
     0
100
AcDbLine
 10
135.4543997454731
 20
196.6455213273216
 30
0.0
 11
135.4543997454731
 21
198.2806700458215
 31
0.0
  0
LINE
  5
2753
330
2750
100
AcDbEntity
  8
0
 62
     0
100
AcDbLine
 10
134.4543997454731
 20
197.412875190821
 30
0.0
 11
134.4543997454731
 21
200.9452005824995
 31
0.0
  0
LINE
  5
2754
330
2750
100
AcDbEntity
  8
0
 62
     0
100
AcDbLine
 10
133.4543997454731
 20
198.3365735871057
 30
0.0
 11
133.4543997454731
 21
205.0408133330942
 31
0.0
  0
LINE
  5
2755
330
2750
100
AcDbEntity
  8
0
 62
     0
100
AcDbLine
 10
132.4543997454731
 20
199.4648619211772
 30
0.0
 11
132.4543997454731
 21
209.8772186699654
 31
0.0
  0
LINE
  5
2756
330
2750
100
AcDbEntity
  8
0
 62
     0
100
AcDbLine
 10
131.4543997454731
 20
200.3904449586489
 30
0.0
 11
131.4543997454731
 21
209.8772186699654
 31
0.0
  0
LINE
  5
2757
330
2750
100
AcDbEntity
  8
0
 62
     0
100
AcDbLine
 10
130.4543997454731
 20
197.5446593376813
 30
0.0
 11
130.4543997454731
 21
209.8772186699654
 31
0.0
  0
LINE
  5
2758
330
2750
100
AcDbEntity
  8
0
 62
     0
100
AcDbLine
 10
129.4543997454731
 20
195.9972789065064
 30
0.0
 11
129.4543997454731
 21
209.8772186699654
 31
0.0
  0
LINE
  5
2759
330
2750
100
AcDbEntity
  8
0
 62
     0
100
AcDbLine
 10
128.4543997454731
 20
195.9972977765111
 30
0.0
 11
128.4543997454731
 21
209.8772186699654
 31
0.0
  0
LINE
  5
275A
330
2750
100
AcDbEntity
  8
0
 62
     0
100
AcDbLine
 10
127.4543997454731
 20
195.9973166465158
 30
0.0
 11
127.4543997454731
 21
209.8772186699654
 31
0.0
  0
LINE
  5
275B
330
2750
100
AcDbEntity
  8
0
 62
     0
100
AcDbLine
 10
126.4543997454731
 20
196.3289584606907
 30
0.0
 11
126.4543997454731
 21
209.5455786530493
 31
0.0
  0
ENDBLK
  5
275D
330
2750
100
AcDbEntity
  8
0
100
AcDbBlockEnd
  0
ENDSEC
  0
SECTION
  2
ENTITIES
  0
LINE
  5
5E7
330
1A
100
AcDbEntity
  8
ZUWAKU
100
AcDbLine
 10
110.1521945676434
 20
15.76250000000001
 30
0.0
 11
229.5410759081051
 21
15.76250000000001
 31
0.0
  0
LINE
  5
5E8
330
1A
100
AcDbEntity
  8
ZUWAKU
100
AcDbLine
 10
110.1521945676434
 20
15.96250000000001
 30
0.0
 11
229.5410759081051
 21
15.96250000000001
 31
0.0
  0
LINE
  5
5E9
330
1A
100
AcDbEntity
  8
ZUWAKU
100
AcDbLine
 10
110.1521945676434
 20
15.86250000000001
 30
0.0
 11
229.5410759081051
 21
15.86250000000001
 31
0.0
  0
LINE
  5
5EA
330
1A
100
AcDbEntity
  8
ZUWAKU
100
AcDbLine
 10
5.828893922609438
 20
23.56250000000001
 30
0.0
 11
404.5288939226093
 21
23.56250000000001
 31
0.0
  0
LINE
  5
5EB
330
1A
100
AcDbEntity
  8
ZUWAKU
100
AcDbLine
 10
5.828893922609438
 20
23.4625
 30
0.0
 11
404.5288939226093
 21
23.4625
 31
0.0
  0
LINE
  5
5EC
330
1A
100
AcDbEntity
  8
ZUWAKU
100
AcDbLine
 10
5.828893922609438
 20
23.3625
 30
0.0
 11
404.5288939226093
 21
23.3625
 31
0.0
  0
LINE
  5
5ED
330
1A
100
AcDbEntity
  8
ZUWAKU
100
AcDbLine
 10
5.828893922609438
 20
23.2625
 30
0.0
 11
404.5288939226093
 21
23.2625
 31
0.0
  0
LINE
  5
5EE
330
1A
100
AcDbEntity
  8
ZUWAKU
100
AcDbLine
 10
5.828893922609438
 20
23.1625
 30
0.0
 11
404.5288939226093
 21
23.1625
 31
0.0
  0
LWPOLYLINE
  5
5EF
330
1A
100
AcDbEntity
  8
ZUWAKU
100
AcDbPolyline
 90
        4
 70
     1
 43
0.0
 10
5.928893922609404
 20
283.8625000000001
 10
5.928893922609404
 20
8.26250000000002
 10
404.5288939226093
 20
8.262500000000031
 10
404.5288939226096
 20
283.8625000000001
  0
LWPOLYLINE
  5
5F0
330
1A
100
AcDbEntity
  8
ZUWAKU
100
AcDbPolyline
 90
        4
 70
     1
 43
0.0
 10
6.128893922609393
 20
283.6625000000001
 10
6.128893922609393
 20
8.462500000000009
 10
404.3288939226095
 20
8.462500000000032
 10
404.3288939226095
 20
283.6625000000001
  0
LWPOLYLINE
  5
5F1
330
1A
100
AcDbEntity
  8
ZUWAKU
100
AcDbPolyline
 90
        4
 70
     1
 43
0.0
 10
5.828893922609438
 20
283.9625
 10
5.828893922609438
 20
8.162499999999997
 10
404.6288939226094
 20
8.162500000000031
 10
404.6288939226094
 20
283.9625000000001
  0
LWPOLYLINE
  5
5F2
330
1A
100
AcDbEntity
  8
ZUWAKU
100
AcDbPolyline
 90
        4
 70
     1
 43
0.0
 10
6.028893922609427
 20
283.7625
 10
6.028893922609427
 20
8.362500000000043
 10
404.4288939226095
 20
8.362500000000032
 10
404.4288939226095
 20
283.7625
  0
LWPOLYLINE
  5
5F3
330
1A
100
AcDbEntity
  8
ZUWAKU
100
AcDbPolyline
 90
        4
 70
     1
 43
0.0
 10
6.228893922609415
 20
283.5625000000001
 10
6.228893922609415
 20
8.562500000000031
 10
404.2288939226094
 20
8.562500000000031
 10
404.2288939226094
 20
283.5625000000001
  0
INSERT
  5
602
330
1A
100
AcDbEntity
  8
ZUWAKU
  6
Continuous
100
AcDbBlockReference
  2
*X1
 10
6.974760957169564
 20
5.108706858588675
 30
0.0
 41
0.5
 42
0.5
 43
0.5
1001
ACAD
1000
HATCH
1002
{
1070
    19
1000
ANSI37
1040
0.2
1040
0.0
1000
R14_HATCH_DATA
1000
4E4
1011
7.474760957169564
1021
5.108706858588675
1031
0.0
1011
6.974760957169564
1021
5.608706858588675
1031
0.0
1011
6.974760957169564
1021
5.108706858588675
1031
0.5
1040
0.0
1010
0.0
1020
0.0
1030
1.0
1000
ANSI37
1070
     0
1070
     0
1071
        8
1071
        7
1070
     1
1070
     1
1071
       24
1040
12.2105285919996
1040
23.75243476380623
1040
-0.1989123673796348
1040
11.80047808566087
1040
24.74238425746728
1040
0.0
1040
11.80047808566087
1040
26.03258628282266
1040
-0.4142135623730912
1040
12.32547808566085
1040
26.55758628282265
1040
0.0
1040
15.30047808566076
1040
26.55758628282265
1040
0.4142135623731546
1040
15.82547808566085
1040
27.08258628282264
1040
0.0
1040
15.82547808566085
1040
28.83258628282265
1040
0.4142135623731586
1040
15.30047808566076
1040
29.35758628282265
1040
0.0
1040
11.80047808566087
1040
29.35758628282265
1040
0.4142135623730928
1040
9.000478085660915
1040
26.55758628282268
1040
0.0
1040
9.000478085660915
1040
24.74238425746741
1040
0.1989123673796619
1040
10.23062960467735
1040
21.7725357764838
1040
0.0
1040
13.14042757932202
1040
18.86273780183914
1040
-0.1989123673796613
1040
13.55047808566087
1040
17.87278830817795
1040
0.0
1040
13.55047808566087
1040
16.58258628282264
1040
-0.4142135623730911
1040
13.02547808566089
1040
16.05758628282265
1040
0.0
1040
10.05047808566098
1040
16.05758628282265
1040
0.4142135623731526
1040
9.525478085660893
1040
15.53258628282266
1040
0.0
1040
9.525478085660893
1040
13.78258628282264
1040
0.4142135623731526
1040
10.05047808566098
1040
13.25758628282265
1040
0.0
1040
13.55047808566087
1040
13.25758628282265
1040
0.4142135623731044
1040
16.35047808566094
1040
16.05758628282262
1040
0.0
1040
16.35047808566094
1040
17.87278830817789
1040
0.1989123673796604
1040
15.12032656664439
1040
20.84263678916144
1040
0.0
1071
        0
1071
        7
1070
     1
1070
     1
1071
       16
1040
21.25047808566092
1040
25.15758628282266
1040
-0.4142135623730935
1040
22.65047808566089
1040
26.55758628282265
1040
0.0
1040
24.57547808566085
1040
26.55758628282265
1040
0.4142135623731546
1040
25.10047808566094
1040
27.08258628282264
1040
0.0
1040
25.10047808566094
1040
28.83258628282265
1040
0.4142135623730951
1040
24.57547808566096
1040
29.35758628282265
1040
0.0
1040
22.65047808566078
1040
29.35758628282261
1040
0.4142135623730892
1040
18.45047808566085
1040
25.15758628282259
1040
0.0
1040
18.45047808566085
1040
17.45758628282267
1040
0.4142135623730969
1040
22.65047808566089
1040
13.25758628282265
1040
0.0
1040
24.57547808566085
1040
13.25758628282265
1040
0.4142135623731526
1040
25.10047808566094
1040
13.78258628282264
1040
0.0
1040
25.10047808566094
1040
15.53258628282266
1040
0.4142135623730891
1040
24.57547808566096
1040
16.05758628282265
1040
0.0
1040
22.65047808566089
1040
16.05758628282265
1040
-0.4142135623730928
1040
21.25047808566092
1040
17.45758628282264
1040
0.0
1071
        0
1071
        7
1070
     1
1070
     1
1071
        2
1040
21.95047808566085
1040
21.30758628282265
1040
1.0
1040
25.45047808566085
1040
21.30758628282265
1040
1.0
1071
        0
1071
        7
1070
     1
1070
     1
1071
       26
1040
35.02312456783887
1040
25.31263347638608
1040
0.0
1040
36.08476420097668
1040
28.67449231465567
1040
0.5069206636600134
1040
35.58413330178132
1040
29.35758628282265
1040
0.0
1040
33.8852439221721
1040
29.35758628282265
1040
0.3272098845218764
1040
33.38461302297674
1040
28.99068025098962
1040
0.0
1040
31.51634314834496
1040
23.07449231465573
1040
-0.3272098845219541
1040
31.01571224914949
1040
22.70758628282265
1040
0.0
1040
30.87547808566103
1040
22.70758628282265
1040
-0.4142135623731526
1040
30.35047808566094
1040
23.23258628282263
1040
0.0
1040
30.35047808566094
1040
28.83258628282265
1040
0.4142135623730951
1040
29.82547808566096
1040
29.35758628282265
1040
0.0
1040
28.07547808566085
1040
29.35758628282265
1040
0.4142135623730871
1040
27.55047808566087
1040
28.83258628282267
1040
0.0
1040
27.55047808566087
1040
13.78258628282264
1040
0.4142135623730891
1040
28.07547808566085
1040
13.25758628282265
1040
0.0
1040
29.82547808566085
1040
13.25758628282265
1040
0.4142135623731526
1040
30.35047808566094
1040
13.78258628282264
1040
0.0
1040
30.35047808566094
1040
19.38258628282266
1040
-0.4142135623731526
1040
30.87547808566103
1040
19.90758628282265
1040
0.0
1040
31.0157122491496
1040
19.90758628282265
1040
-0.3272098845218915
1040
31.51634314834496
1040
19.54068025098957
1040
0.0
1040
33.38461302297674
1040
13.62449231465572
1040
0.3272098845218902
1040
33.8852439221721
1040
13.25758628282265
1040
0.0
1040
35.58413330178132
1040
13.25758628282265
1040
0.5069206636600335
1040
36.08476420097668
1040
13.94068025098966
1040
0.0
1040
33.75837282250302
1040
21.30758628282279
1040
0.0
1071
        0
1071
        7
1070
     1
1070
     1
1071
        8
1040
41.20047808566084
1040
28.83258628282266
1040
0.4142135623731546
1040
40.67547808566075
1040
29.35758628282265
1040
0.0
1040
38.92547808566098
1040
29.35758628282265
1040
0.4142135623731507
1040
38.40047808566089
1040
28.83258628282267
1040
0.0
1040
38.40047808566089
1040
13.78258628282264
1040
0.4142135623731526
1040
38.92547808566098
1040
13.25758628282265
1040
0.0
1040
40.67547808566075
1040
13.25758628282265
1040
0.4142135623731526
1040
41.20047808566084
1040
13.78258628282264
1040
0.0
1071
        0
1071
        7
1070
     1
1070
     1
1071
       24
1040
46.10047808566093
1040
26.03258628282266
1040
-0.4142135623731546
1040
46.62547808566102
1040
26.55758628282265
1040
0.0
1040
49.60047808566094
1040
26.55758628282265
1040
0.4142135623730911
1040
50.12547808566091
1040
27.08258628282264
1040
0.0
1040
50.12547808566091
1040
28.83258628282265
1040
0.4142135623730952
1040
49.60047808566094
1040
29.35758628282265
1040
0.0
1040
46.10047808566093
1040
29.35758628282265
1040
0.4142135623731048
1040
43.30047808566087
1040
26.55758628282268
1040
0.0
1040
43.30047808566087
1040
24.74238425746741
1040
0.1989123673796613
1040
44.53062960467741
1040
21.77253577648386
1040
0.0
1040
47.44042757932208
1040
18.86273780183919
1040
-0.1989123673796402
1040
47.85047808566093
1040
17.87278830817811
1040
0.0
1040
47.85047808566093
1040
16.58258628282264
1040
-0.4142135623730911
1040
47.32547808566096
1040
16.05758628282265
1040
0.0
1040
44.35047808566094
1040
16.05758628282265
1040
0.4142135623731526
1040
43.82547808566084
1040
15.53258628282266
1040
0.0
1040
43.82547808566084
1040
13.78258628282264
1040
0.4142135623730891
1040
44.35047808566082
1040
13.25758628282265
1040
0.0
1040
47.85047808566093
1040
13.25758628282265
1040
0.4142135623730925
1040
50.65047808566089
1040
16.05758628282262
1040
0.0
1040
50.65047808566089
1040
17.87278830817789
1040
0.1989123673796675
1040
49.42032656664435
1040
20.84263678916155
1040
0.0
1040
46.51052859199978
1040
23.75243476380607
1040
-0.1989123673796652
1040
46.10047808566093
1040
24.74238425746724
1040
0.0
1071
        0
1071
        7
1070
     1
1070
     1
1071
       16
1040
55.55047808566087
1040
28.83258628282264
1040
0.414213562373103
1040
55.02547808566089
1040
29.35758628282265
1040
0.0
1040
53.27547808566089
1040
29.35758628282265
1040
0.4142135623730871
1040
52.75047808566092
1040
28.83258628282267
1040
0.0
1040
52.75047808566092
1040
16.05758628282262
1040
0.4142135623730926
1040
55.55047808566087
1040
13.25758628282265
1040
0.0
1040
59.05047808566087
1040
13.25758628282265
1040
0.4142135623731044
1040
61.85047808566094
1040
16.05758628282262
1040
0.0
1040
61.85047808566094
1040
28.83258628282265
1040
0.4142135623730951
1040
61.32547808566096
1040
29.35758628282265
1040
0.0
1040
59.57547808566085
1040
29.35758628282265
1040
0.4142135623730871
1040
59.05047808566087
1040
28.83258628282267
1040
0.0
1040
59.05047808566087
1040
17.10758628282262
1040
-0.414213562373088
1040
58.00047808566091
1040
16.05758628282265
1040
0.0
1040
56.60047808566094
1040
16.05758628282265
1040
-0.4142135623731197
1040
55.55047808566087
1040
17.10758628282262
1040
0.0
1071
        0
1071
        7
1070
     1
1070
     1
1071
        8
1040
66.75047808566091
1040
28.83258628282267
1040
0.4142135623730871
1040
66.22547808566094
1040
29.35758628282265
1040
0.0
1040
64.47547808566094
1040
29.35758628282265
1040
0.4142135623731507
1040
63.95047808566085
1040
28.83258628282267
1040
0.0
1040
63.95047808566085
1040
13.78258628282264
1040
0.4142135623730891
1040
64.47547808566082
1040
13.25758628282265
1040
0.0
1040
66.22547808566094
1040
13.25758628282265
1040
0.4142135623730891
1040
66.75047808566091
1040
13.78258628282264
1040
0.0
1071
        0
1070
     0
1070
     1
1040
0.0
1040
0.2
1070
     0
1070
     2
1040
0.7853981633974483
1040
-903.2340384037992
1040
-7.092413717177286
1040
-0.4490128060534576
1040
0.4490128060534577
1070
     0
1040
2.356194490192344
1040
-903.2340384037992
1040
-7.092413717177286
1040
-0.4490128060534577
1040
-0.4490128060534576
1070
     0
1040
0.057451373970553
1071
        8
1040
13.78812089390305
1040
21.2747599287082
1040
0.0
1040
20.11278093731892
1040
24.95164846527366
1040
0.0
1040
22.87263381653941
1040
21.61946792889336
1040
0.0
1040
28.62232591251689
1040
22.30888392926415
1040
0.0
1040
39.54673794983648
1040
22.76849619680576
1040
0.0
1040
44.6064668260093
1040
25.52616259922986
1040
0.0
1040
54.2659519032801
1040
24.83674419791766
1040
0.0
1040
65.53534555050248
1040
25.29635646545928
1040
0.0
1002
}
  0
LINE
  5
603
330
1A
100
AcDbEntity
  8
ZUWAKU
100
AcDbLine
 10
18.30000000000001
 20
19.78749999999998
 30
0.0
 11
19.26249999999999
 21
19.7875
 31
0.0
  0
LINE
  5
604
330
1A
100
AcDbEntity
  8
ZUWAKU
100
AcDbLine
 10
19.26249999999999
 20
18.3875
 30
0.0
 11
18.30000000000001
 21
18.3875
 31
0.0
  0
LINE
  5
605
330
1A
100
AcDbEntity
  8
ZUWAKU
100
AcDbLine
 10
18.30000000000001
 20
13.1375
 30
0.0
 11
19.26249999999999
 21
13.1375
 31
0.0
  0
LINE
  5
606
330
1A
100
AcDbEntity
  8
ZUWAKU
100
AcDbLine
 10
19.26249999999999
 20
11.7375
 30
0.0
 11
18.30000000000001
 21
11.7375
 31
0.0
  0
CIRCLE
  5
607
330
1A
100
AcDbEntity
  8
ZUWAKU
100
AcDbCircle
 10
18.82499999999999
 20
15.7625
 30
0.0
 40
0.875
  0
ARC
  5
608
330
1A
100
AcDbEntity
  8
ZUWAKU
100
AcDbCircle
 10
13.05000000000001
 20
14.04510101267767
 30
0.0
 40
0.7
100
AcDbArc
 50
0.0
 51
44.99999999999964
  0
ARC
  5
609
330
1A
100
AcDbEntity
  8
ZUWAKU
100
AcDbCircle
 10
13.05000000000001
 20
14.04510101267765
 30
0.0
 40
2.099999999999999
100
AcDbArc
 50
0.0
 51
44.99999999999964
  0
LINE
  5
60A
330
1A
100
AcDbEntity
  8
ZUWAKU
100
AcDbLine
 10
17.60000000000002
 20
17.6875
 30
0.0
 11
17.60000000000002
 21
13.8375
 31
0.0
  0
LINE
  5
60B
330
1A
100
AcDbEntity
  8
ZUWAKU
100
AcDbLine
 10
16.19999999999999
 20
13.8375
 30
0.0
 11
16.19999999999999
 21
17.68749999999998
 31
0.0
  0
ARC
  5
60C
330
1A
100
AcDbEntity
  8
ZUWAKU
100
AcDbCircle
 10
13.75
 20
13.1375
 30
0.0
 40
1.399999999999999
100
AcDbArc
 50
270.0
 51
0.0
  0
LINE
  5
60D
330
1A
100
AcDbEntity
  8
ZUWAKU
100
AcDbLine
 10
13.75
 20
13.4
 30
0.0
 11
13.75
 21
14.04510101267767
 31
0.0
  0
ARC
  5
60E
330
1A
100
AcDbEntity
  8
ZUWAKU
100
AcDbCircle
 10
13.48750000000001
 20
13.4
 30
0.0
 40
0.2625
100
AcDbArc
 50
270.0
 51
0.0
  0
LINE
  5
60F
330
1A
100
AcDbEntity
  8
ZUWAKU
100
AcDbLine
 10
11.73750000000001
 20
12.0
 30
0.0
 11
11.73750000000001
 21
12.875
 31
0.0
  0
ARC
  5
610
330
1A
100
AcDbEntity
  8
ZUWAKU
100
AcDbCircle
 10
12.0
 20
12.0
 30
0.0
 40
0.2625
100
AcDbArc
 50
180.0
 51
270.0
  0
ARC
  5
611
330
1A
100
AcDbEntity
  8
ZUWAKU
100
AcDbCircle
 10
12.0
 20
12.875
 30
0.0
 40
0.2625
100
AcDbArc
 50
90.0
 51
180.0
  0
LINE
  5
612
330
1A
100
AcDbEntity
  8
ZUWAKU
100
AcDbLine
 10
12.0
 20
11.7375
 30
0.0
 11
13.75
 21
11.7375
 31
0.0
  0
LINE
  5
613
330
1A
100
AcDbEntity
  8
ZUWAKU
100
AcDbLine
 10
12.0
 20
13.1375
 30
0.0
 11
13.48750000000001
 21
13.1375
 31
0.0
  0
LINE
  5
614
330
1A
100
AcDbEntity
  8
ZUWAKU
100
AcDbLine
 10
15.15000000000003
 20
13.1375
 30
0.0
 11
15.15000000000003
 21
14.04510101267767
 31
0.0
  0
ARC
  5
615
330
1A
100
AcDbEntity
  8
ZUWAKU
100
AcDbCircle
 10
18.30000000000001
 20
13.8375
 30
0.0
 40
0.7
100
AcDbArc
 50
180.0
 51
270.0
  0
ARC
  5
616
330
1A
100
AcDbEntity
  8
ZUWAKU
100
AcDbCircle
 10
18.30000000000001
 20
13.8375
 30
0.0
 40
2.099999999999999
100
AcDbArc
 50
180.0
 51
270.0
  0
ARC
  5
617
330
1A
100
AcDbEntity
  8
ZUWAKU
100
AcDbCircle
 10
18.30000000000001
 20
17.68749999999998
 30
0.0
 40
2.099999999999999
100
AcDbArc
 50
90.0
 51
180.0
  0
ARC
  5
618
330
1A
100
AcDbEntity
  8
ZUWAKU
100
AcDbCircle
 10
14.625
 20
19.525
 30
0.0
 40
0.2625
100
AcDbArc
 50
0.0
 51
90.0
  0
ARC
  5
619
330
1A
100
AcDbEntity
  8
ZUWAKU
100
AcDbCircle
 10
14.625
 20
18.65
 30
0.0
 40
0.2625
100
AcDbArc
 50
270.0
 51
0.0
  0
LINE
  5
61A
330
1A
100
AcDbEntity
  8
ZUWAKU
100
AcDbLine
 10
12.875
 20
19.7875
 30
0.0
 11
14.625
 21
19.7875
 31
0.0
  0
ARC
  5
61B
330
1A
100
AcDbEntity
  8
ZUWAKU
100
AcDbCircle
 10
13.13749999999999
 20
18.125
 30
0.0
 40
0.2625
100
AcDbArc
 50
90.0
 51
180.0
  0
LINE
  5
61C
330
1A
100
AcDbEntity
  8
ZUWAKU
100
AcDbLine
 10
12.875
 20
18.125
 30
0.0
 11
12.875
 21
17.47989898732233
 31
0.0
  0
LINE
  5
61D
330
1A
100
AcDbEntity
  8
ZUWAKU
100
AcDbLine
 10
14.625
 20
18.3875
 30
0.0
 11
13.13749999999999
 21
18.3875
 31
0.0
  0
LINE
  5
61E
330
1A
100
AcDbEntity
  8
ZUWAKU
100
AcDbLine
 10
11.47500000000002
 20
18.3875
 30
0.0
 11
11.47500000000002
 21
17.47989898732233
 31
0.0
  0
ARC
  5
61F
330
1A
100
AcDbEntity
  8
ZUWAKU
100
AcDbCircle
 10
12.875
 20
18.3875
 30
0.0
 40
1.399999999999999
100
AcDbArc
 50
90.0
 51
180.0
  0
LINE
  5
620
330
1A
100
AcDbEntity
  8
ZUWAKU
100
AcDbLine
 10
14.53492424049176
 20
15.53002525316941
 30
0.0
 11
13.08002525316942
 21
16.98492424049175
 31
0.0
  0
LINE
  5
621
330
1A
100
AcDbEntity
  8
ZUWAKU
100
AcDbLine
 10
12.09007575950824
 20
15.99497474683059
 30
0.0
 11
13.54497474683057
 21
14.54007575950826
 31
0.0
  0
ARC
  5
622
330
1A
100
AcDbEntity
  8
ZUWAKU
100
AcDbCircle
 10
13.57499999999999
 20
17.47989898732235
 30
0.0
 40
0.7
100
AcDbArc
 50
180.0000000000016
 51
224.9999999999993
  0
ARC
  5
623
330
1A
100
AcDbEntity
  8
ZUWAKU
100
AcDbCircle
 10
13.57499999999999
 20
17.47989898732235
 30
0.0
 40
2.099999999999999
100
AcDbArc
 50
180.0
 51
224.9999999999996
  0
LINE
  5
624
330
1A
100
AcDbEntity
  8
ZUWAKU
100
AcDbLine
 10
14.88749999999999
 20
19.525
 30
0.0
 11
14.88749999999999
 21
18.65
 31
0.0
  0
ARC
  5
625
330
1A
100
AcDbEntity
  8
ZUWAKU
100
AcDbCircle
 10
18.30000000000001
 20
17.6875
 30
0.0
 40
0.7
100
AcDbArc
 50
90.0
 51
180.0
  0
ARC
  5
626
330
1A
100
AcDbEntity
  8
ZUWAKU
100
AcDbCircle
 10
30.19999999999999
 20
14.04510101267765
 30
0.0
 40
2.099999999999999
100
AcDbArc
 50
0.0
 51
44.99999999999964
  0
ARC
  5
627
330
1A
100
AcDbEntity
  8
ZUWAKU
100
AcDbCircle
 10
30.19999999999999
 20
14.04510101267767
 30
0.0
 40
0.7
100
AcDbArc
 50
0.0
 51
44.99999999999964
  0
LINE
  5
628
330
1A
100
AcDbEntity
  8
ZUWAKU
100
AcDbLine
 10
25.01714305765791
 20
12.07904698408349
 30
0.0
 11
23.85394736842108
 21
15.76250000000001
 31
0.0
  0
LINE
  5
629
330
1A
100
AcDbEntity
  8
ZUWAKU
100
AcDbLine
 10
22.15000000000003
 20
12.0
 30
0.0
 11
22.15000000000003
 21
14.8
 31
0.0
  0
LINE
  5
62A
330
1A
100
AcDbEntity
  8
ZUWAKU
100
AcDbLine
 10
23.66706746865793
 20
11.92095301591651
 30
0.0
 11
22.73293253134204
 21
14.87904698408348
 31
0.0
  0
TEXT
  5
62B
330
1A
100
AcDbEntity
  8
moji
100
AcDbText
 10
52.307788716694
 20
14.53308906513738
 30
0.0
 40
3.0
  1
大型　たてとい
 41
0.9
  7
ｽﾀｲﾙ1
100
AcDbText
  0
LINE
  5
62C
330
1A
100
AcDbEntity
  8
ZUWAKU
100
AcDbLine
 10
45.49220869660354
 20
23.1625
 30
0.0
 11
45.49220869660365
 21
8.562500000000031
 31
0.0
  0
LINE
  5
62D
330
1A
100
AcDbEntity
  8
ZUWAKU
100
AcDbLine
 10
45.59220869660356
 20
23.1625
 30
0.0
 11
45.59220869660367
 21
8.562500000000031
 31
0.0
  0
LINE
  5
62E
330
1A
100
AcDbEntity
  8
ZUWAKU
100
AcDbLine
 10
45.39220869660363
 20
23.1625
 30
0.0
 11
45.39220869660363
 21
8.562500000000031
 31
0.0
  0
LINE
  5
62F
330
1A
100
AcDbEntity
  8
ZUWAKU
100
AcDbLine
 10
37.90000000000004
 20
13.1375
 30
0.0
 11
37.90000000000004
 21
19.525
 31
0.0
  0
LINE
  5
630
330
1A
100
AcDbEntity
  8
ZUWAKU
100
AcDbLine
 10
36.5
 20
19.525
 30
0.0
 11
36.5
 21
13.6625
 31
0.0
  0
LINE
  5
631
330
1A
100
AcDbEntity
  8
ZUWAKU
100
AcDbLine
 10
40.35000000000002
 20
12.0
 30
0.0
 11
40.35000000000002
 21
19.525
 31
0.0
  0
LINE
  5
632
330
1A
100
AcDbEntity
  8
ZUWAKU
100
AcDbLine
 10
38.94999999999999
 20
19.525
 30
0.0
 11
38.94999999999999
 21
12.0
 31
0.0
  0
LINE
  5
633
330
1A
100
AcDbEntity
  8
ZUWAKU
100
AcDbLine
 10
26.17500000000001
 20
19.525
 30
0.0
 11
26.17500000000001
 21
12.0
 31
0.0
  0
LINE
  5
634
330
1A
100
AcDbEntity
  8
ZUWAKU
100
AcDbLine
 10
27.57499999999999
 20
12.0
 30
0.0
 11
27.57499999999999
 21
19.525
 31
0.0
  0
LINE
  5
635
330
1A
100
AcDbEntity
  8
ZUWAKU
100
AcDbLine
 10
33.35000000000003
 20
19.525
 30
0.0
 11
33.35000000000003
 21
13.1375
 31
0.0
  0
LINE
  5
636
330
1A
100
AcDbEntity
  8
ZUWAKU
100
AcDbLine
 10
34.75
 20
13.6625
 30
0.0
 11
34.75
 21
19.525
 31
0.0
  0
LINE
  5
637
330
1A
100
AcDbEntity
  8
ZUWAKU
100
AcDbLine
 10
20.75
 20
19.525
 30
0.0
 11
20.75
 21
12.0
 31
0.0
  0
LINE
  5
638
330
1A
100
AcDbEntity
  8
ZUWAKU
100
AcDbLine
 10
35.97500000000002
 20
13.1375
 30
0.0
 11
35.27500000000003
 21
13.1375
 31
0.0
  0
LINE
  5
639
330
1A
100
AcDbEntity
  8
ZUWAKU
100
AcDbLine
 10
34.75
 20
11.7375
 30
0.0
 11
36.5
 21
11.7375
 31
0.0
  0
LINE
  5
63A
330
1A
100
AcDbEntity
  8
ZUWAKU
100
AcDbLine
 10
26.4375
 20
11.7375
 30
0.0
 11
27.3125
 21
11.7375
 31
0.0
  0
LINE
  5
63B
330
1A
100
AcDbEntity
  8
ZUWAKU
100
AcDbLine
 10
21.01249999999999
 20
11.7375
 30
0.0
 11
21.88749999999999
 21
11.7375
 31
0.0
  0
ARC
  5
63C
330
1A
100
AcDbEntity
  8
ZUWAKU
100
AcDbCircle
 10
21.88749999999999
 20
12.0
 30
0.0
 40
0.2625
100
AcDbArc
 50
270.0
 51
0.0
  0
LINE
  5
63D
330
1A
100
AcDbEntity
  8
ZUWAKU
100
AcDbLine
 10
19.52500000000003
 20
12.875
 30
0.0
 11
19.52500000000003
 21
12.0
 31
0.0
  0
ARC
  5
63E
330
1A
100
AcDbEntity
  8
ZUWAKU
100
AcDbCircle
 10
19.26249999999999
 20
12.0
 30
0.0
 40
0.2625
100
AcDbArc
 50
270.0
 51
0.0
  0
ARC
  5
63F
330
1A
100
AcDbEntity
  8
ZUWAKU
100
AcDbCircle
 10
19.26249999999999
 20
12.875
 30
0.0
 40
0.2625
100
AcDbArc
 50
0.0
 51
90.0
  0
ARC
  5
640
330
1A
100
AcDbEntity
  8
ZUWAKU
100
AcDbCircle
 10
21.01249999999999
 20
12.0
 30
0.0
 40
0.2625
100
AcDbArc
 50
180.0
 51
270.0
  0
ARC
  5
641
330
1A
100
AcDbEntity
  8
ZUWAKU
100
AcDbCircle
 10
26.4375
 20
12.0
 30
0.0
 40
0.2625
100
AcDbArc
 50
180.0
 51
270.0
  0
LINE
  5
642
330
1A
100
AcDbEntity
  8
ZUWAKU
100
AcDbLine
 10
23.91738291825567
 20
11.7375
 30
0.0
 11
24.76682760806017
 21
11.7375
 31
0.0
  0
ARC
  5
643
330
1A
100
AcDbEntity
  8
ZUWAKU
100
AcDbCircle
 10
24.76682760806017
 20
12.0
 30
0.0
 40
0.2625
100
AcDbArc
 50
270.0
 51
17.52556837372269
  0
ARC
  5
644
330
1A
100
AcDbEntity
  8
ZUWAKU
100
AcDbCircle
 10
23.91738291825567
 20
12.0
 30
0.0
 40
0.2625
100
AcDbArc
 50
197.5255683737227
 51
270.0
  0
ARC
  5
645
330
1A
100
AcDbEntity
  8
ZUWAKU
100
AcDbCircle
 10
30.90000000000003
 20
13.1375
 30
0.0
 40
1.399999999999999
100
AcDbArc
 50
270.0
 51
0.0
  0
LINE
  5
646
330
1A
100
AcDbEntity
  8
ZUWAKU
100
AcDbLine
 10
30.90000000000003
 20
13.4
 30
0.0
 11
30.90000000000003
 21
14.04510101267767
 31
0.0
  0
ARC
  5
647
330
1A
100
AcDbEntity
  8
ZUWAKU
100
AcDbCircle
 10
30.63749999999999
 20
13.4
 30
0.0
 40
0.2625
100
AcDbArc
 50
270.0
 51
0.0
  0
LINE
  5
648
330
1A
100
AcDbEntity
  8
ZUWAKU
100
AcDbLine
 10
28.88749999999999
 20
12.0
 30
0.0
 11
28.88749999999999
 21
12.875
 31
0.0
  0
ARC
  5
649
330
1A
100
AcDbEntity
  8
ZUWAKU
100
AcDbCircle
 10
29.15000000000004
 20
12.0
 30
0.0
 40
0.2625
100
AcDbArc
 50
180.0
 51
270.0
  0
ARC
  5
64A
330
1A
100
AcDbEntity
  8
ZUWAKU
100
AcDbCircle
 10
27.3125
 20
12.0
 30
0.0
 40
0.2625
100
AcDbArc
 50
270.0
 51
0.0
  0
ARC
  5
64B
330
1A
100
AcDbEntity
  8
ZUWAKU
100
AcDbCircle
 10
29.15000000000004
 20
12.875
 30
0.0
 40
0.2625
100
AcDbArc
 50
90.0
 51
180.0
  0
LINE
  5
64C
330
1A
100
AcDbEntity
  8
ZUWAKU
100
AcDbLine
 10
29.15000000000004
 20
13.1375
 30
0.0
 11
30.63749999999999
 21
13.1375
 31
0.0
  0
LINE
  5
64D
330
1A
100
AcDbEntity
  8
ZUWAKU
100
AcDbLine
 10
29.15000000000004
 20
11.7375
 30
0.0
 11
30.90000000000003
 21
11.7375
 31
0.0
  0
LINE
  5
64E
330
1A
100
AcDbEntity
  8
ZUWAKU
100
AcDbLine
 10
32.30000000000001
 20
13.1375
 30
0.0
 11
32.30000000000001
 21
14.04510101267767
 31
0.0
  0
ARC
  5
64F
330
1A
100
AcDbEntity
  8
ZUWAKU
100
AcDbCircle
 10
35.27500000000003
 20
13.6625
 30
0.0
 40
0.525
100
AcDbArc
 50
180.0
 51
270.0
  0
ARC
  5
650
330
1A
100
AcDbEntity
  8
ZUWAKU
100
AcDbCircle
 10
34.75
 20
13.1375
 30
0.0
 40
1.399999999999999
100
AcDbArc
 50
180.0
 51
270.0
  0
LINE
  5
651
330
1A
100
AcDbEntity
  8
ZUWAKU
100
AcDbLine
 10
39.21250000000004
 20
11.7375
 30
0.0
 11
40.08750000000003
 21
11.7375
 31
0.0
  0
ARC
  5
652
330
1A
100
AcDbEntity
  8
ZUWAKU
100
AcDbCircle
 10
39.21250000000004
 20
12.0
 30
0.0
 40
0.2625
100
AcDbArc
 50
180.0
 51
270.0
  0
ARC
  5
653
330
1A
100
AcDbEntity
  8
ZUWAKU
100
AcDbCircle
 10
35.97500000000002
 20
13.6625
 30
0.0
 40
0.525
100
AcDbArc
 50
270.0
 51
0.0
  0
ARC
  5
654
330
1A
100
AcDbEntity
  8
ZUWAKU
100
AcDbCircle
 10
36.5
 20
13.1375
 30
0.0
 40
1.399999999999999
100
AcDbArc
 50
270.0
 51
0.0
  0
ARC
  5
655
330
1A
100
AcDbEntity
  8
ZUWAKU
100
AcDbCircle
 10
40.08750000000003
 20
12.0
 30
0.0
 40
0.2625
100
AcDbArc
 50
270.0
 51
0.0
  0
LINE
  5
656
330
1A
100
AcDbEntity
  8
ZUWAKU
100
AcDbLine
 10
27.3125
 20
19.7875
 30
0.0
 11
26.4375
 21
19.7875
 31
0.0
  0
LINE
  5
657
330
1A
100
AcDbEntity
  8
ZUWAKU
100
AcDbLine
 10
23.66706746865793
 20
19.60404698408348
 30
0.0
 11
22.73293253134204
 21
16.64595301591651
 31
0.0
  0
ARC
  5
658
330
1A
100
AcDbEntity
  8
ZUWAKU
100
AcDbCircle
 10
21.88749999999999
 20
19.525
 30
0.0
 40
0.2625
100
AcDbArc
 50
0.0
 51
90.0
  0
LINE
  5
659
330
1A
100
AcDbEntity
  8
ZUWAKU
100
AcDbLine
 10
21.88749999999999
 20
19.7875
 30
0.0
 11
21.01249999999999
 21
19.7875
 31
0.0
  0
ARC
  5
65A
330
1A
100
AcDbEntity
  8
ZUWAKU
100
AcDbCircle
 10
19.26249999999999
 20
19.525
 30
0.0
 40
0.2625
100
AcDbArc
 50
0.0
 51
90.0
  0
ARC
  5
65B
330
1A
100
AcDbEntity
  8
ZUWAKU
100
AcDbCircle
 10
21.01249999999999
 20
19.525
 30
0.0
 40
0.2625
100
AcDbArc
 50
90.0
 51
180.0
  0
ARC
  5
65C
330
1A
100
AcDbEntity
  8
ZUWAKU
100
AcDbCircle
 10
19.26249999999999
 20
18.65
 30
0.0
 40
0.2625
100
AcDbArc
 50
270.0
 51
0.0
  0
LINE
  5
65D
330
1A
100
AcDbEntity
  8
ZUWAKU
100
AcDbLine
 10
19.52500000000003
 20
19.525
 30
0.0
 11
19.52500000000003
 21
18.65
 31
0.0
  0
ARC
  5
65E
330
1A
100
AcDbEntity
  8
ZUWAKU
100
AcDbCircle
 10
22.48261708174437
 20
16.725
 30
0.0
 40
0.2625
100
AcDbArc
 50
270.0
 51
342.4744316262774
  0
LINE
  5
65F
330
1A
100
AcDbEntity
  8
ZUWAKU
100
AcDbLine
 10
22.48261708174437
 20
16.4625
 30
0.0
 11
22.41250000000002
 21
16.4625
 31
0.0
  0
LINE
  5
660
330
1A
100
AcDbEntity
  8
ZUWAKU
100
AcDbLine
 10
22.41250000000002
 20
15.0625
 30
0.0
 11
22.48261708174437
 21
15.0625
 31
0.0
  0
ARC
  5
661
330
1A
100
AcDbEntity
  8
ZUWAKU
100
AcDbCircle
 10
22.41250000000002
 20
16.725
 30
0.0
 40
0.2625
100
AcDbArc
 50
180.0
 51
270.0
  0
ARC
  5
662
330
1A
100
AcDbEntity
  8
ZUWAKU
100
AcDbCircle
 10
22.48261708174437
 20
14.8
 30
0.0
 40
0.2625
100
AcDbArc
 50
17.52556837372269
 51
90.0
  0
ARC
  5
663
330
1A
100
AcDbEntity
  8
ZUWAKU
100
AcDbCircle
 10
22.41250000000002
 20
14.8
 30
0.0
 40
0.2625
100
AcDbArc
 50
90.0
 51
180.0
  0
LINE
  5
664
330
1A
100
AcDbEntity
  8
ZUWAKU
100
AcDbLine
 10
22.15000000000003
 20
16.725
 30
0.0
 11
22.15000000000003
 21
19.525
 31
0.0
  0
ARC
  5
665
330
1A
100
AcDbEntity
  8
ZUWAKU
100
AcDbCircle
 10
26.4375
 20
19.525
 30
0.0
 40
0.2625
100
AcDbArc
 50
90.0
 51
180.0
  0
LINE
  5
666
330
1A
100
AcDbEntity
  8
ZUWAKU
100
AcDbLine
 10
23.91738291825567
 20
19.7875
 30
0.0
 11
24.76682760806017
 21
19.7875
 31
0.0
  0
ARC
  5
667
330
1A
100
AcDbEntity
  8
ZUWAKU
100
AcDbCircle
 10
24.76682760806017
 20
19.525
 30
0.0
 40
0.2625
100
AcDbArc
 50
342.4744316262774
 51
90.0
  0
LINE
  5
668
330
1A
100
AcDbEntity
  8
ZUWAKU
100
AcDbLine
 10
25.01714305765791
 20
19.44595301591651
 30
0.0
 11
24.486323241089
 21
17.76502359678171
 31
0.0
  0
ARC
  5
669
330
1A
100
AcDbEntity
  8
ZUWAKU
100
AcDbCircle
 10
23.91738291825567
 20
19.525
 30
0.0
 40
0.2625
100
AcDbArc
 50
90.0
 51
162.4744316262772
  0
LINE
  5
66A
330
1A
100
AcDbEntity
  8
ZUWAKU
100
AcDbLine
 10
24.486323241089
 20
17.76502359678171
 30
0.0
 11
23.85394736842108
 21
15.76250000000001
 31
0.0
  0
LINE
  5
66B
330
1A
100
AcDbEntity
  8
ZUWAKU
100
AcDbLine
 10
30.02500000000003
 20
19.7875
 30
0.0
 11
31.77500000000004
 21
19.7875
 31
0.0
  0
LINE
  5
66C
330
1A
100
AcDbEntity
  8
ZUWAKU
100
AcDbLine
 10
31.77500000000004
 20
18.3875
 30
0.0
 11
30.28750000000002
 21
18.3875
 31
0.0
  0
LINE
  5
66D
330
1A
100
AcDbEntity
  8
ZUWAKU
100
AcDbLine
 10
31.6849242404918
 20
15.53002525316941
 30
0.0
 11
30.2300252531694
 21
16.98492424049175
 31
0.0
  0
ARC
  5
66E
330
1A
100
AcDbEntity
  8
ZUWAKU
100
AcDbCircle
 10
30.28750000000002
 20
18.125
 30
0.0
 40
0.2625
100
AcDbArc
 50
90.0
 51
180.0
  0
LINE
  5
66F
330
1A
100
AcDbEntity
  8
ZUWAKU
100
AcDbLine
 10
30.02500000000003
 20
18.125
 30
0.0
 11
30.02500000000003
 21
17.47989898732233
 31
0.0
  0
ARC
  5
670
330
1A
100
AcDbEntity
  8
ZUWAKU
100
AcDbCircle
 10
27.3125
 20
19.525
 30
0.0
 40
0.2625
100
AcDbArc
 50
0.0
 51
90.0
  0
LINE
  5
671
330
1A
100
AcDbEntity
  8
ZUWAKU
100
AcDbLine
 10
28.625
 20
18.3875
 30
0.0
 11
28.625
 21
17.47989898732233
 31
0.0
  0
ARC
  5
672
330
1A
100
AcDbEntity
  8
ZUWAKU
100
AcDbCircle
 10
30.02500000000003
 20
18.3875
 30
0.0
 40
1.399999999999999
100
AcDbArc
 50
90.0
 51
180.0
  0
LINE
  5
673
330
1A
100
AcDbEntity
  8
ZUWAKU
100
AcDbLine
 10
29.24007575950827
 20
15.99497474683059
 30
0.0
 11
30.69497474683061
 21
14.54007575950826
 31
0.0
  0
ARC
  5
674
330
1A
100
AcDbEntity
  8
ZUWAKU
100
AcDbCircle
 10
30.72500000000002
 20
17.47989898732235
 30
0.0
 40
0.7
100
AcDbArc
 50
180.0000000000016
 51
224.9999999999993
  0
ARC
  5
675
330
1A
100
AcDbEntity
  8
ZUWAKU
100
AcDbCircle
 10
30.72500000000002
 20
17.47989898732235
 30
0.0
 40
2.099999999999999
100
AcDbArc
 50
180.0
 51
224.9999999999996
  0
ARC
  5
676
330
1A
100
AcDbEntity
  8
ZUWAKU
100
AcDbCircle
 10
34.48750000000001
 20
19.525
 30
0.0
 40
0.2625
100
AcDbArc
 50
0.0
 51
90.0
  0
ARC
  5
677
330
1A
100
AcDbEntity
  8
ZUWAKU
100
AcDbCircle
 10
33.61250000000001
 20
19.525
 30
0.0
 40
0.2625
100
AcDbArc
 50
90.0
 51
180.0
  0
LINE
  5
678
330
1A
100
AcDbEntity
  8
ZUWAKU
100
AcDbLine
 10
34.48750000000001
 20
19.7875
 30
0.0
 11
33.61250000000001
 21
19.7875
 31
0.0
  0
ARC
  5
679
330
1A
100
AcDbEntity
  8
ZUWAKU
100
AcDbCircle
 10
31.77500000000004
 20
19.525
 30
0.0
 40
0.2625
100
AcDbArc
 50
0.0
 51
90.0
  0
ARC
  5
67A
330
1A
100
AcDbEntity
  8
ZUWAKU
100
AcDbCircle
 10
31.77500000000004
 20
18.65
 30
0.0
 40
0.2625
100
AcDbArc
 50
270.0
 51
0.0
  0
LINE
  5
67B
330
1A
100
AcDbEntity
  8
ZUWAKU
100
AcDbLine
 10
32.03750000000002
 20
19.525
 30
0.0
 11
32.03750000000002
 21
18.65
 31
0.0
  0
LINE
  5
67C
330
1A
100
AcDbEntity
  8
ZUWAKU
100
AcDbLine
 10
40.08750000000003
 20
19.7875
 30
0.0
 11
39.21250000000004
 21
19.7875
 31
0.0
  0
ARC
  5
67D
330
1A
100
AcDbEntity
  8
ZUWAKU
100
AcDbCircle
 10
39.21250000000004
 20
19.525
 30
0.0
 40
0.2625
100
AcDbArc
 50
90.0
 51
180.0
  0
ARC
  5
67E
330
1A
100
AcDbEntity
  8
ZUWAKU
100
AcDbCircle
 10
37.63749999999999
 20
19.525
 30
0.0
 40
0.2625
100
AcDbArc
 50
0.0
 51
90.0
  0
LINE
  5
67F
330
1A
100
AcDbEntity
  8
ZUWAKU
100
AcDbLine
 10
37.63749999999999
 20
19.7875
 30
0.0
 11
36.76249999999999
 21
19.7875
 31
0.0
  0
ARC
  5
680
330
1A
100
AcDbEntity
  8
ZUWAKU
100
AcDbCircle
 10
36.76249999999999
 20
19.525
 30
0.0
 40
0.2625
100
AcDbArc
 50
90.0
 51
180.0
  0
ARC
  5
681
330
1A
100
AcDbEntity
  8
ZUWAKU
100
AcDbCircle
 10
40.08750000000003
 20
19.525
 30
0.0
 40
0.2625
100
AcDbArc
 50
0.0
 51
90.0
  0
TEXT
  5
682
330
1A
100
AcDbEntity
  8
ZUWAKU
100
AcDbText
 10
110.6909170787482
 20
12.9901782691928
 30
0.0
 40
2.0
  1
サイズ
 41
0.9
  7
ｽﾀｲﾙ1
100
AcDbText
  0
LINE
  5
683
330
1A
100
AcDbEntity
  8
ZUWAKU
100
AcDbLine
 10
109.9521945676434
 20
23.1625
 30
0.0
 11
109.9521945676434
 21
8.562500000000031
 31
0.0
  0
LINE
  5
684
330
1A
100
AcDbEntity
  8
ZUWAKU
100
AcDbLine
 10
110.1521945676433
 20
23.1625
 30
0.0
 11
110.1521945676434
 21
8.562500000000031
 31
0.0
  0
LINE
  5
685
330
1A
100
AcDbEntity
  8
ZUWAKU
100
AcDbLine
 10
110.0521945676433
 20
23.1625
 30
0.0
 11
110.0521945676434
 21
8.562500000000031
 31
0.0
  0
TEXT
  5
686
330
1A
100
AcDbEntity
  8
moji
100
AcDbText
 10
125.742495263035
 20
9.764960528703708
 30
0.0
 40
2.799999999999999
  1
ＥＳ７５
 41
0.9
  7
ｽﾀｲﾙ1
100
AcDbText
  0
TEXT
  5
687
330
1A
100
AcDbEntity
  8
ZUWAKU
100
AcDbText
 10
110.6909170787481
 20
20.19017826919279
 30
0.0
 40
2.0
  1
品名
 41
0.9
  7
ｽﾀｲﾙ1
100
AcDbText
  0
TEXT
  5
688
330
1A
100
AcDbEntity
  8
moji
100
AcDbText
 10
125.742495263035
 20
17.16496052870369
 30
0.0
 40
2.799999999999999
  1
差込ソケット
 41
0.9
  7
ｽﾀｲﾙ1
100
AcDbText
  0
LINE
  5
697
330
1A
100
AcDbEntity
  8
ZUWAKU
100
AcDbLine
 10
330.2374951777115
 20
15.76250000000001
 30
0.0
 11
354.4533991968802
 21
15.76250000000001
 31
0.0
  0
LINE
  5
698
330
1A
100
AcDbEntity
  8
ZUWAKU
100
AcDbLine
 10
330.2374951777118
 20
15.86250000000001
 30
0.0
 11
354.4533991968802
 21
15.86250000000001
 31
0.0
  0
LINE
  5
699
330
1A
100
AcDbEntity
  8
ZUWAKU
100
AcDbLine
 10
330.2374951777115
 20
15.96250000000001
 30
0.0
 11
354.4533991968802
 21
15.96250000000001
 31
0.0
  0
TEXT
  5
69A
330
1A
100
AcDbEntity
  8
ZUWAKU
100
AcDbText
 10
334.9308627662606
 20
17.16496052870369
 30
0.0
 40
2.799999999999999
  1
　　．　　．　　
 41
0.9
  7
ｽﾀｲﾙ1
100
AcDbText
  0
LINE
  5
69B
330
1A
100
AcDbEntity
  8
ZUWAKU
100
AcDbLine
 10
282.1923718056656
 20
23.1625
 30
0.0
 11
282.1923718056657
 21
8.562500000000031
 31
0.0
  0
LINE
  5
69C
330
1A
100
AcDbEntity
  8
ZUWAKU
100
AcDbLine
 10
282.0923718056657
 20
23.1625
 30
0.0
 11
282.0923718056657
 21
8.562500000000031
 31
0.0
  0
TEXT
  5
69D
330
1A
100
AcDbEntity
  8
ZUWAKU
100
AcDbText
 10
259.1672061827848
 20
12.9901782691928
 30
0.0
 40
2.0
  1
縮尺
 41
0.9
  7
ｽﾀｲﾙ1
100
AcDbText
  0
LINE
  5
69F
330
1A
100
AcDbEntity
  8
ZUWAKU
100
AcDbLine
 10
229.6410759081051
 20
23.1625
 30
0.0
 11
229.6410759081052
 21
8.562500000000031
 31
0.0
  0
LINE
  5
6A0
330
1A
100
AcDbEntity
  8
ZUWAKU
100
AcDbLine
 10
229.7410759081051
 20
23.1625
 30
0.0
 11
229.7410759081052
 21
8.562500000000031
 31
0.0
  0
LINE
  5
6A1
330
1A
100
AcDbEntity
  8
ZUWAKU
100
AcDbLine
 10
229.5410759081051
 20
23.1625
 30
0.0
 11
229.5410759081051
 21
8.562500000000031
 31
0.0
  0
LINE
  5
6A2
330
1A
100
AcDbEntity
  8
ZUWAKU
100
AcDbLine
 10
258.3284836716799
 20
23.1625
 30
0.0
 11
258.32848367168
 21
8.562500000000031
 31
0.0
  0
LINE
  5
6A3
330
1A
100
AcDbEntity
  8
ZUWAKU
100
AcDbLine
 10
258.4284836716799
 20
23.1625
 30
0.0
 11
258.42848367168
 21
8.562500000000031
 31
0.0
  0
LINE
  5
6A4
330
1A
100
AcDbEntity
  8
ZUWAKU
100
AcDbLine
 10
258.2284836716799
 20
23.1625
 30
0.0
 11
258.2284836716799
 21
8.562500000000031
 31
0.0
  0
TEXT
  5
6A6
330
1A
100
AcDbEntity
  8
moji
100
AcDbText
 10
269.8493479087659
 20
9.764960528703708
 30
0.0
 40
2.799999999999999
  1
１/１
 41
0.9
  7
ｽﾀｲﾙ1
100
AcDbText
  0
TEXT
  5
6A7
330
1A
100
AcDbEntity
  8
ZUWAKU
100
AcDbText
 10
230.4797984192099
 20
20.19017826919279
 30
0.0
 40
2.0
  1
品番
 41
0.9
  7
ｽﾀｲﾙ1
100
AcDbText
  0
LINE
  5
6A8
330
1A
100
AcDbEntity
  8
ZUWAKU
100
AcDbLine
 10
258.4284836716799
 20
15.76250000000001
 30
0.0
 11
282.0923718056657
 21
15.76250000000001
 31
0.0
  0
LINE
  5
6A9
330
1A
100
AcDbEntity
  8
ZUWAKU
100
AcDbLine
 10
258.4284836716799
 20
15.86250000000001
 30
0.0
 11
282.0923718056657
 21
15.86250000000001
 31
0.0
  0
LINE
  5
6AA
330
1A
100
AcDbEntity
  8
ZUWAKU
100
AcDbLine
 10
258.4284836716799
 20
15.96250000000001
 30
0.0
 11
282.0923718056657
 21
15.96250000000001
 31
0.0
  0
TEXT
  5
6AB
330
1A
100
AcDbEntity
  8
ZUWAKU
100
AcDbText
 10
259.1672061827847
 20
20.19017826919279
 30
0.0
 40
2.0
  1
用紙
 41
0.9
  7
ｽﾀｲﾙ1
100
AcDbText
  0
TEXT
  5
6AC
330
1A
100
AcDbEntity
  8
moji
100
AcDbText
 10
269.8493479087659
 20
17.16496052870369
 30
0.0
 40
2.799999999999999
  1
Ａ３
 41
0.9
  7
ｽﾀｲﾙ1
100
AcDbText
  0
LINE
  5
6AD
330
1A
100
AcDbEntity
  8
ZUWAKU
100
AcDbLine
 10
330.1374951777116
 20
23.1625
 30
0.0
 11
330.1374951777118
 21
8.562500000000031
 31
0.0
  0
LINE
  5
6AE
330
1A
100
AcDbEntity
  8
ZUWAKU
100
AcDbLine
 10
330.2374951777118
 20
23.1625
 30
0.0
 11
330.2374951777118
 21
8.562500000000031
 31
0.0
  0
LINE
  5
6AF
330
1A
100
AcDbEntity
  8
ZUWAKU
100
AcDbLine
 10
330.0374951777117
 20
23.1625
 30
0.0
 11
330.0374951777117
 21
8.562500000000031
 31
0.0
  0
LINE
  5
6B0
330
1A
100
AcDbEntity
  8
ZUWAKU
100
AcDbLine
 10
282.2923718056656
 20
23.1625
 30
0.0
 11
282.2923718056657
 21
8.562500000000031
 31
0.0
  0
TEXT
  5
6B1
330
1A
100
AcDbEntity
  8
ZUWAKU
100
AcDbText
 10
330.9762176888165
 20
20.19017826919279
 30
0.0
 40
2.0
  1
DATE
 41
0.9
  7
ｽﾀｲﾙ1
100
AcDbText
  0
LINE
  5
6C8
330
1A
100
AcDbEntity
  8
ZUWAKU
100
AcDbLine
 10
354.4533991968802
 20
23.1625
 30
0.0
 11
354.4533991968802
 21
8.562500000000031
 31
0.0
  0
LINE
  5
6C9
330
1A
100
AcDbEntity
  8
ZUWAKU
100
AcDbLine
 10
354.5533991968801
 20
23.1625
 30
0.0
 11
354.5533991968801
 21
8.562500000000031
 31
0.0
  0
LINE
  5
6CA
330
1A
100
AcDbEntity
  8
ZUWAKU
100
AcDbLine
 10
354.65339919688
 20
23.1625
 30
0.0
 11
354.6533991968802
 21
8.562500000000031
 31
0.0
  0
LINE
  5
6CB
330
1A
100
AcDbEntity
  8
ZUWAKU
100
AcDbLine
 10
354.7533991968801
 20
23.1625
 30
0.0
 11
354.7533991968801
 21
8.562500000000031
 31
0.0
  0
TEXT
  5
6CC
330
1A
100
AcDbEntity
  8
ZUWAKU
100
AcDbText
 10
359.2412896851268
 20
14.56803150215925
 30
0.0
 40
3.0
  1
積水化学工業株式会社
 41
0.9
  7
ｽﾀｲﾙ1
100
AcDbText
  0
TEXT
  5
7F7
330
1A
100
AcDbEntity
  8
moji
100
AcDbText
 10
327.5094708886026
 20
77.53238638148832
 30
0.0
 40
2.799999999999999
  1
シルバー
 41
0.9
  7
ｽﾀｲﾙ1
100
AcDbText
  0
TEXT
  5
7F8
330
1A
100
AcDbEntity
  8
moji
100
AcDbText
 10
354.1473486237659
 20
77.53238638148832
 30
0.0
 40
2.799999999999999
  1
ＪＳＳ７５
 41
0.9
  7
ｽﾀｲﾙ1
100
AcDbText
  0
TEXT
  5
7F9
330
1A
100
AcDbEntity
  8
moji
100
AcDbText
 10
331.472130193626
 20
85.26322154176364
 30
0.0
 40
2.799999999999999
  1
色
 41
0.9
  7
ｽﾀｲﾙ1
100
AcDbText
  0
TEXT
  5
7FA
330
1A
100
AcDbEntity
  8
moji
100
AcDbText
 10
358.1100079287893
 20
85.26322154176364
 30
0.0
 40
2.799999999999999
  1
品番
 41
0.9
  7
ｽﾀｲﾙ1
100
AcDbText
  0
LINE
  5
7FB
330
1A
100
AcDbEntity
  8
ZUWAKU
100
AcDbLine
 10
321.8451031717877
 20
82.92784322650005
 30
0.0
 11
381.347839926666
 21
82.92784322650005
 31
0.0
  0
LINE
  5
803
330
1A
100
AcDbEntity
  8
ZUWAKU
370
    30
100
AcDbLine
 10
321.8451031717877
 20
91.04769486054411
 30
0.0
 11
381.347839926666
 21
91.04769486054411
 31
0.0
  0
LINE
  5
806
330
1A
100
AcDbEntity
  8
ZUWAKU
100
AcDbLine
 10
321.8451031717877
 20
74.807991592456
 30
0.0
 11
381.347839926666
 21
74.807991592456
 31
0.0
  0
LINE
  5
80B
330
1A
100
AcDbEntity
  8
ZUWAKU
100
AcDbLine
 10
321.8451031717877
 20
58.3682883243679
 30
0.0
 11
381.347839926666
 21
58.3682883243679
 31
0.0
  0
LINE
  5
80E
330
1A
100
AcDbEntity
  8
ZUWAKU
100
AcDbLine
 10
321.8451031717877
 20
66.68813995841195
 30
0.0
 11
381.347839926666
 21
66.68813995841195
 31
0.0
  0
LINE
  5
811
330
1A
100
AcDbEntity
  8
ZUWAKU
100
AcDbLine
 10
321.8451031717877
 20
50.44843669032385
 30
0.0
 11
381.347839926666
 21
50.44843669032385
 31
0.0
  0
LINE
  5
814
330
1A
100
AcDbEntity
  8
ZUWAKU
100
AcDbLine
 10
347.9571010835686
 20
33.80873342223573
 30
0.0
 11
347.9571010835686
 21
91.04769486054411
 31
0.0
  0
TEXT
  5
819
330
1A
100
AcDbEntity
  8
moji
100
AcDbText
 10
327.5094708886026
 20
61.29268311340021
 30
0.0
 40
2.799999999999999
  1
ココア
 41
0.9
  7
ｽﾀｲﾙ1
100
AcDbText
  0
TEXT
  5
81A
330
1A
100
AcDbEntity
  8
moji
100
AcDbText
 10
327.5094708886026
 20
69.41253474744427
 30
0.0
 40
2.799999999999999
  1
ホワイト
 41
0.9
  7
ｽﾀｲﾙ1
100
AcDbText
  0
TEXT
  5
81D
330
1A
100
AcDbEntity
  8
moji
100
AcDbText
 10
327.5094708886026
 20
53.17283147935616
 30
0.0
 40
2.799999999999999
  1
クリーム
 41
0.9
  7
ｽﾀｲﾙ1
100
AcDbText
  0
TEXT
  5
1984
330
1A
100
AcDbEntity
  8
moji
100
AcDbText
 10
354.1473486237659
 20
61.29268311340021
 30
0.0
 40
2.799999999999999
  1
ＳＳ７５Ｅ
 41
0.9
  7
ｽﾀｲﾙ1
100
AcDbText
  0
DIMENSION
  5
1BEB
330
1A
100
AcDbEntity
  8
SUNPOU
  6
Continuous
100
AcDbDimension
  2
*D2
 10
122.1769687472327
 20
78.65407062540999
 30
0.0
 11
179.4210687472327
 21
81.15407062540999
 31
0.0
 70
    32
  1
\U+03C6<>
 71
     5
 42
-1.0
  3
STANDARD
100
AcDbAlignedDimension
 13
236.6651687472328
 23
162.9091186699654
 33
0.0
 14
122.1769687472327
 24
162.9092186699654
 34
0.0
100
AcDbRotatedDimension
1001
ACAD
1000
DSTYLE
1002
{
1070
    41
1040
3.0
1070
    42
1040
3.0
1070
    43
1040
7.0
1070
    44
1040
1.5
1070
    73
1070
     0
1070
    74
1070
     0
1070
    77
1070
     3
1070
   140
1040
3.0
1070
   141
1040
150.0
1070
   147
1040
1.0
1070
   172
1070
     1
1070
   173
1070
     1
1070
   176
1070
     4
1070
   177
1070
     4
1070
   178
1070
     4
1070
   271
1070
     0
1070
   272
1070
     2
1070
     6
1000
OPEN
1070
     7
1000
OPEN
1002
}
  0
DIMENSION
  5
1BEC
330
1A
100
AcDbEntity
  8
SUNPOU
  6
Continuous
100
AcDbDimension
  2
*D3
 10
134.7807687472328
 20
87.76705783011156
 30
0.0
 11
179.4209687472328
 21
90.26705783011156
 31
0.0
 70
    32
  1
\U+03C6<>
 71
     5
 42
-1.0
  3
STANDARD
100
AcDbAlignedDimension
 13
224.0611687472328
 23
101.0611186699654
 33
0.0
 14
134.7807687472328
 24
101.0612186699654
 34
0.0
100
AcDbRotatedDimension
1001
ACAD
1000
DSTYLE
1002
{
1070
    41
1040
3.0
1070
    42
1040
3.0
1070
    43
1040
7.0
1070
    44
1040
1.5
1070
    73
1070
     0
1070
    74
1070
     0
1070
    77
1070
     3
1070
   140
1040
3.0
1070
   141
1040
150.0
1070
   147
1040
1.0
1070
   172
1070
     1
1070
   173
1070
     1
1070
   176
1070
     4
1070
   177
1070
     4
1070
   178
1070
     4
1070
   271
1070
     0
1070
   272
1070
     2
1070
     6
1000
OPEN
1070
     7
1000
OPEN
1002
}
  0
DIMENSION
  5
1BED
330
1A
100
AcDbEntity
  8
SUNPOU
  6
Continuous
100
AcDbDimension
  2
*D4
 10
120.4311687472328
 20
235.9153039361582
 30
0.0
 11
179.4211687472327
 21
238.4153039361582
 31
0.0
 70
    32
  1
\U+03C6<>
 71
     5
 42
-1.0
  3
STANDARD
100
AcDbAlignedDimension
 13
238.4111687472327
 23
211.2651186699654
 33
0.0
 14
120.4311687472328
 24
211.2653186699654
 34
0.0
100
AcDbRotatedDimension
1001
ACAD
1000
DSTYLE
1002
{
1070
    41
1040
3.0
1070
    42
1040
3.0
1070
    43
1040
7.0
1070
    44
1040
1.5
1070
    73
1070
     0
1070
    74
1070
     0
1070
    77
1070
     3
1070
   140
1040
3.0
1070
   141
1040
150.0
1070
   147
1040
1.0
1070
   172
1070
     1
1070
   173
1070
     1
1070
   176
1070
     4
1070
   177
1070
     4
1070
   178
1070
     4
1070
   271
1070
     0
1070
   272
1070
     2
1070
     6
1000
OPEN
1070
     7
1000
OPEN
1002
}
  0
DIMENSION
  5
1BEE
330
1A
100
AcDbEntity
  8
SUNPOU
  6
Continuous
100
AcDbDimension
  2
*D5
 10
134.4260687472327
 20
226.2744512822902
 30
0.0
 11
179.4211687472328
 21
228.7744512822902
 31
0.0
 70
    32
  1
\U+03C6<>
 71
     5
 42
-1.0
  3
STANDARD
100
AcDbAlignedDimension
 13
224.4162687472329
 23
214.0411186699655
 33
0.0
 14
134.4260687472327
 24
214.0412587975137
 34
0.0
100
AcDbRotatedDimension
1001
ACAD
1000
DSTYLE
1002
{
1070
    41
1040
3.0
1070
    42
1040
3.0
1070
    43
1040
7.0
1070
    44
1040
1.5
1070
    73
1070
     0
1070
    74
1070
     0
1070
    77
1070
     3
1070
   140
1040
3.0
1070
   141
1040
150.0
1070
   147
1040
1.0
1070
   172
1070
     1
1070
   173
1070
     1
1070
   176
1070
     4
1070
   177
1070
     4
1070
   178
1070
     4
1070
   271
1070
     1
1070
   272
1070
     2
1070
     6
1000
OPEN
1070
     7
1000
OPEN
1002
}
  0
LINE
  5
1BEF
330
1A
100
AcDbEntity
  8
SEIHIN
  6
Continuous
 62
     3
100
AcDbLine
 10
123.7387298170032
 20
209.8772186699654
 30
0.0
 11
179.4211687472327
 21
209.8772186699654
 31
0.0
  0
LINE
  5
1BF0
330
1A
100
AcDbEntity
  8
SEIHIN
  6
Continuous
 62
     3
100
AcDbLine
 10
179.4211687472327
 20
214.0410186699654
 30
0.0
 11
123.2071687472328
 21
214.0413186699654
 31
0.0
  0
LINE
  5
1BF1
330
1A
100
AcDbEntity
  8
SEIHIN
  6
Continuous
 62
     3
100
AcDbLine
 10
179.4209687472328
 20
192.8331186699654
 30
0.0
 11
134.4257687472327
 21
192.8332186699654
 31
0.0
  0
LINE
  5
1BF2
330
1A
100
AcDbEntity
  8
SEIHIN
  6
Continuous
 62
     3
100
AcDbLine
 10
179.4209687472328
 20
195.9970186699654
 30
0.0
 11
127.3471687472328
 21
195.9973186699654
 31
0.0
  0
LINE
  5
1BF3
330
1A
100
AcDbEntity
  8
SEIHIN
  6
Continuous
 62
     3
100
AcDbLine
 10
179.4207687472328
 20
149.2530186699654
 30
0.0
 11
134.4258687472327
 21
149.2535186699654
 31
0.0
  0
LINE
  5
1BF4
330
1A
100
AcDbEntity
  8
SEIHIN
  6
Continuous
 62
     3
100
AcDbLine
 10
140.3328687472327
 20
143.1462186699654
 30
0.0
 11
179.4211687472327
 21
143.1462186699654
 31
0.0
  0
LINE
  5
1BF5
330
1A
100
AcDbEntity
  8
SEIHIN
  6
Continuous
 62
     3
100
AcDbLine
 10
140.3328687472327
 20
109.3892186699654
 30
0.0
 11
179.4208687472328
 21
109.3891186699654
 31
0.0
  0
LINE
  5
1BF6
330
1A
100
AcDbEntity
  8
SEIHIN
  6
Continuous
 62
     3
100
AcDbLine
 10
143.1087687472327
 20
102.4492186699654
 30
0.0
 11
179.4207687472328
 21
102.4491186699654
 31
0.0
  0
LINE
  5
1BF7
330
1A
100
AcDbEntity
  8
SEIHIN
  6
Continuous
 62
     3
100
AcDbLine
 10
179.4207687472328
 20
101.0611186699654
 30
0.0
 11
134.7807687472328
 21
101.0612186699654
 31
0.0
  0
DIMENSION
  5
1BF8
330
1A
100
AcDbEntity
  8
SUNPOU
  6
Continuous
100
AcDbDimension
  2
*D6
 10
96.39599123660172
 20
214.0413186699654
 30
0.0
 11
93.89599123660168
 21
181.6474186699655
 31
0.0
 70
    32
 71
     5
 42
-1.0
  3
STANDARD
100
AcDbAlignedDimension
 13
134.4258687472327
 23
149.2535186699654
 33
0.0
 14
123.2071687472328
 24
214.0413186699654
 34
0.0
 50
90.0
100
AcDbRotatedDimension
1001
ACAD
1000
DSTYLE
1002
{
1070
    41
1040
3.0
1070
    42
1040
3.0
1070
    43
1040
7.0
1070
    44
1040
1.5
1070
    73
1070
     0
1070
    74
1070
     0
1070
    77
1070
     3
1070
   140
1040
3.0
1070
   141
1040
150.0
1070
   147
1040
1.0
1070
   172
1070
     1
1070
   173
1070
     1
1070
   176
1070
     4
1070
   177
1070
     4
1070
   178
1070
     4
1070
   271
1070
     0
1070
   272
1070
     2
1070
     6
1000
OPEN
1070
     7
1000
OPEN
1002
}
  0
DIMENSION
  5
1BF9
330
1A
100
AcDbEntity
  8
SUNPOU
  6
Continuous
100
AcDbDimension
  2
*D7
 10
107.4839450063946
 20
192.8332186699654
 30
0.0
 11
104.9839450063946
 21
171.0433686699654
 31
0.0
 70
    32
 71
     5
 42
-1.0
  3
STANDARD
100
AcDbAlignedDimension
 13
134.4258687472327
 23
149.2535186699654
 33
0.0
 14
134.4257687472327
 24
192.8332186699654
 34
0.0
 50
90.0
100
AcDbRotatedDimension
1001
ACAD
1000
DSTYLE
1002
{
1070
    41
1040
3.0
1070
    42
1040
3.0
1070
    43
1040
7.0
1070
    44
1040
1.5
1070
    73
1070
     0
1070
    74
1070
     0
1070
    77
1070
     3
1070
   140
1040
3.0
1070
   141
1040
150.0
1070
   147
1040
1.0
1070
   172
1070
     1
1070
   173
1070
     1
1070
   176
1070
     4
1070
   177
1070
     4
1070
   178
1070
     4
1070
   271
1070
     0
1070
   272
1070
     2
1070
     6
1000
OPEN
1070
     7
1000
OPEN
1002
}
  0
LINE
  5
1BFA
330
1A
100
AcDbEntity
  8
SEIHIN
  6
Continuous
 62
     3
100
AcDbLine
 10
122.1769687472327
 20
167.0733186699654
 30
0.0
 11
122.1769687472327
 21
162.9092186699654
 31
0.0
  0
LINE
  5
1BFB
330
1A
100
AcDbEntity
  8
SEIHIN
  6
Continuous
 62
     3
100
AcDbLine
 10
134.4259687472328
 20
192.8332186699654
 30
0.0
 11
134.4258687472327
 21
149.2531186699654
 31
0.0
  0
LINE
  5
1BFC
330
1A
100
AcDbEntity
  8
SEIHIN
  6
Continuous
 62
     3
100
AcDbLine
 10
134.7808687472328
 20
142.1493186699654
 30
0.0
 11
134.7807687472328
 21
101.0612186699654
 31
0.0
  0
LINE
  5
1BFD
330
1A
100
AcDbEntity
  8
SEIHIN
  6
Continuous
 62
     3
100
AcDbLine
 10
140.3328687472327
 20
109.3892186699654
 30
0.0
 11
140.3328687472327
 21
143.1462186699654
 31
0.0
  0
LINE
  5
1BFE
330
1A
100
AcDbEntity
  8
SEIHIN
  6
Continuous
 62
     3
100
AcDbLine
 10
140.3328687472327
 20
109.3892186699654
 30
0.0
 11
143.1087687472327
 21
102.4492186699654
 31
0.0
  0
LINE
  5
1BFF
330
1A
100
AcDbEntity
  8
SEIHIN
  6
Continuous
 62
     3
100
AcDbLine
 10
143.1087687472327
 20
101.0612186699654
 30
0.0
 11
143.1087687472327
 21
102.4492186699654
 31
0.0
  0
LINE
  5
1C00
330
1A
100
AcDbEntity
  8
SEIHIN
  6
Continuous
 62
     3
100
AcDbLine
 10
130.8409687472327
 20
162.9092186699654
 30
0.0
 11
122.1769687472327
 21
162.9092186699654
 31
0.0
  0
LINE
  5
1C01
330
1A
100
AcDbEntity
  8
SEIHIN
  6
Continuous
 62
     3
100
AcDbLine
 10
119.4008687472328
 20
151.0292186699654
 30
0.0
 11
130.8408687472327
 21
142.1493186699654
 31
0.0
  0
ARC
  5
1C02
330
1A
100
AcDbEntity
  8
SEIHIN
  6
Continuous
 62
     3
100
AcDbCircle
 10
128.0648708211134
 20
148.2532207438461
 30
0.0
 40
2.775997926120091
100
AcDbArc
 50
359.9999571957128
 51
90.00004280428555
  0
ARC
  5
1C03
330
1A
100
AcDbEntity
  8
SEIHIN
  6
Continuous
 62
     3
100
AcDbCircle
 10
128.0649708211135
 20
159.3572165960847
 30
0.0
 40
2.775997926120048
100
AcDbArc
 50
269.9999571957144
 51
0.0000428042879946
  0
LINE
  5
1C04
330
1A
100
AcDbEntity
  8
SEIHIN
  6
Continuous
 62
     3
100
AcDbLine
 10
119.4009687472327
 20
156.5812186699654
 30
0.0
 11
119.4008687472328
 21
151.0292186699654
 31
0.0
  0
LINE
  5
1C05
330
1A
100
AcDbEntity
  8
SEIHIN
  6
Continuous
 62
     3
100
AcDbLine
 10
128.0648687472327
 20
151.0292186699654
 30
0.0
 11
119.4008687472328
 21
151.0292186699654
 31
0.0
  0
LINE
  5
1C06
330
1A
100
AcDbEntity
  8
SEIHIN
  6
Continuous
 62
     3
100
AcDbLine
 10
128.0649687472328
 20
156.5812186699654
 30
0.0
 11
119.4009687472327
 21
156.5812186699654
 31
0.0
  0
LINE
  5
1C07
330
1A
100
AcDbEntity
  8
SEIHIN
  6
Continuous
 62
     3
100
AcDbLine
 10
134.4258687472327
 20
149.2531186699654
 30
0.0
 11
140.3328687472327
 21
143.1462186699654
 31
0.0
  0
LINE
  5
1C08
330
1A
100
AcDbEntity
  8
SEIHIN
  6
Continuous
 62
     3
100
AcDbLine
 10
130.8408687472327
 20
148.2532186699654
 30
0.0
 11
130.8408687472327
 21
142.1492186699654
 31
0.0
  0
LINE
  5
1C09
330
1A
100
AcDbEntity
  8
SEIHIN
  6
Continuous
 62
     3
100
AcDbLine
 10
134.7808687472328
 20
142.1492186699654
 30
0.0
 11
130.8408687472327
 21
142.1492186699654
 31
0.0
  0
LINE
  5
1C0A
330
1A
100
AcDbEntity
  8
SEIHIN
  6
Continuous
 62
     3
100
AcDbLine
 10
130.8409687472327
 20
162.9092186699654
 30
0.0
 11
130.8409687472327
 21
159.3572186699654
 31
0.0
  0
LINE
  5
1C0B
330
1A
100
AcDbEntity
  8
SEIHIN
  6
Continuous
 62
     3
100
AcDbLine
 10
134.4260687472327
 20
214.0412186699654
 30
0.0
 11
134.4260687472327
 21
209.8772186699654
 31
0.0
  0
LINE
  5
1C0D
330
1A
100
AcDbEntity
  8
SEIHIN
  6
Continuous
 62
     3
100
AcDbLine
 10
122.8684064973457
 20
186.2812503789286
 30
0.0
 11
122.8684064973457
 21
191.2888702655274
 31
0.0
  0
LINE
  5
1C0E
330
1A
100
AcDbEntity
  8
SEIHIN
  6
Continuous
 62
     3
100
AcDbLine
 10
124.5951687472327
 20
198.0792186699654
 30
0.0
 11
124.5951687472327
 21
186.2812186699654
 31
0.0
  0
ARC
  5
1C10
330
1A
100
AcDbEntity
  8
SEIHIN
  6
Continuous
 62
     3
100
AcDbCircle
 10
125.2890728949941
 20
180.7292228177268
 30
0.0
 40
5.551995852240153
100
AcDbArc
 50
359.9999571957128
 51
90.00004280428555
  0
LINE
  5
1C11
330
1A
100
AcDbEntity
  8
SEIHIN
  6
Continuous
 62
     3
100
AcDbLine
 10
130.8409687472327
 20
167.0733186699654
 30
0.0
 11
122.1769687472327
 21
167.0733186699654
 31
0.0
  0
LINE
  5
1C12
330
1A
100
AcDbEntity
  8
SEIHIN
  6
Continuous
 62
     3
100
AcDbLine
 10
122.1770687472328
 20
175.1772186699654
 30
0.0
 11
130.8410687472328
 21
175.1772186699654
 31
0.0
  0
LINE
  5
1C13
330
1A
100
AcDbEntity
  8
SEIHIN
  6
Continuous
 62
     3
100
AcDbLine
 10
130.8410687472328
 20
179.3412186699654
 30
0.0
 11
122.1770687472328
 21
179.3412186699654
 31
0.0
  0
LINE
  5
1C14
330
1A
100
AcDbEntity
  8
SEIHIN
  6
Continuous
 62
     3
100
AcDbLine
 10
122.1770687472328
 20
179.3412186699654
 30
0.0
 11
122.1770687472328
 21
175.1772186699654
 31
0.0
  0
LINE
  5
1C15
330
1A
100
AcDbEntity
  8
SEIHIN
  6
Continuous
 62
     3
100
AcDbLine
 10
125.2890687472327
 20
186.2812186699654
 30
0.0
 11
120.4311687472328
 21
186.2812823050191
 31
0.0
  0
LINE
  5
1C16
330
1A
100
AcDbEntity
  8
SEIHIN
  6
Continuous
 62
     3
100
AcDbLine
 10
130.8410687472328
 20
175.1772186699654
 30
0.0
 11
130.8409687472327
 21
167.0733186699654
 31
0.0
  0
LINE
  5
1C17
330
1A
100
AcDbEntity
  8
SEIHIN
  6
Continuous
 62
     3
100
AcDbLine
 10
130.8410687472328
 20
180.7292186699654
 30
0.0
 11
130.8410687472328
 21
179.3412186699654
 31
0.0
  0
LINE
  5
1C19
330
1A
100
AcDbEntity
  8
SEIHIN
  6
Continuous
 62
     3
100
AcDbLine
 10
125.9591687472327
 20
209.8772186699654
 30
0.0
 11
125.9591687472327
 21
197.3853186699654
 31
0.0
  0
ARC
  5
1C1A
330
1A
100
AcDbEntity
  8
SEIHIN
  6
Continuous
 62
     3
100
AcDbCircle
 10
127.3471677102924
 20
197.3853176330251
 30
0.0
 40
1.387998963060045
100
AcDbArc
 50
179.9999571957128
 51
270.0000428042888
  0
LINE
  5
1C1C
330
1A
100
AcDbEntity
  8
SEIHIN
  6
Continuous
 62
     3
100
AcDbLine
 10
131.02310210849
 20
200.0061317919676
 30
0.0
 11
130.0968961294601
 21
195.9973028286361
 31
0.0
  0
LINE
  5
1C1E
330
1A
100
AcDbEntity
  8
SEIHIN
  6
Continuous
 62
     3
100
AcDbLine
 10
123.2387298170032
 20
198.0792186699654
 30
0.0
 11
124.5951687472327
 21
198.0792186699654
 31
0.0
  0
ARC
  5
1C1F
330
1A
100
AcDbEntity
  8
SEIHIN
  6
Continuous
 62
     3
100
AcDbCircle
 10
127.3471677102924
 20
208.4892197069058
 30
0.0
 40
1.387998963060038
100
AcDbArc
 50
89.99995719571119
 51
180.0000428042855
  0
ARC
  5
1C20
330
1A
100
AcDbEntity
  8
SEIHIN
  6
Continuous
 62
     3
100
AcDbCircle
 10
162.591431429107
 20
209.9851308297318
 30
0.0
 40
29.55355969829425
100
AcDbArc
 50
180.2092108400884
 51
208.2487479851371
  0
ARC
  5
1C21
330
1A
100
AcDbEntity
  8
SEIHIN
  6
Continuous
 62
     3
100
AcDbCircle
 10
143.6957720681616
 20
208.4207774749823
 30
0.0
 40
14.37278244127403
100
AcDbArc
 50
214.9836535440253
 51
239.8128813815206
  0
ARC
  5
1C24
330
1A
100
AcDbEntity
  8
SEIHIN
  6
Continuous
 62
     3
100
AcDbCircle
 10
123.2071666733521
 20
211.2653207438462
 30
0.0
 40
2.775997926120076
100
AcDbArc
 50
89.99995719571444
 51
180.0000428042863
  0
DIMENSION
  5
1C25
330
1A
100
AcDbEntity
  8
SUNPOU
  6
Continuous
100
AcDbDimension
  2
*D8
 10
263.5569089519786
 20
101.0611186699654
 30
0.0
 11
261.0569089519786
 21
157.5511186699654
 31
0.0
 70
    32
 71
     5
 42
-1.0
  3
STANDARD
100
AcDbAlignedDimension
 13
235.6350687472327
 23
214.0411186699655
 33
0.0
 14
224.0611687472328
 24
101.0611186699654
 34
0.0
 50
90.0
100
AcDbRotatedDimension
1001
ACAD
1000
DSTYLE
1002
{
1070
    41
1040
3.0
1070
    42
1040
3.0
1070
    43
1040
7.0
1070
    44
1040
1.5
1070
    73
1070
     0
1070
    74
1070
     0
1070
    77
1070
     3
1070
   140
1040
3.0
1070
   141
1040
150.0
1070
   147
1040
1.0
1070
   172
1070
     1
1070
   173
1070
     1
1070
   176
1070
     4
1070
   177
1070
     4
1070
   178
1070
     4
1070
   271
1070
     0
1070
   272
1070
     2
1070
     6
1000
OPEN
1070
     7
1000
OPEN
1002
}
  0
LINE
  5
1C26
330
1A
100
AcDbEntity
  8
SEIHIN
  6
Continuous
 62
     3
100
AcDbLine
 10
236.6651687472328
 20
167.0731186699654
 30
0.0
 11
236.6651687472328
 21
162.9091186699654
 31
0.0
  0
LINE
  5
1C27
330
1A
100
AcDbEntity
  8
CENTER L
  6
CENTER
 62
     1
 48
5.0
100
AcDbLine
 10
179.4211623827658
 20
220.5128417764041
 30
0.0
 11
179.4209793690336
 21
97.30461145322079
 31
0.0
  0
DIMENSION
  5
1C28
330
1A
100
AcDbEntity
  8
SUNPOU
  6
Continuous
100
AcDbDimension
  2
*D9
 10
252.3699972438112
 20
101.0611186699654
 30
0.0
 11
249.8699972438112
 21
121.6051186699655
 31
0.0
 70
    32
 71
     5
 42
-1.0
  3
STANDARD
100
AcDbAlignedDimension
 13
228.0011687472328
 23
142.1491186699654
 33
0.0
 14
224.0611687472328
 24
101.0611186699654
 34
0.0
 50
90.0
100
AcDbRotatedDimension
1001
ACAD
1000
DSTYLE
1002
{
1070
    41
1040
3.0
1070
    42
1040
3.0
1070
    43
1040
7.0
1070
    44
1040
1.5
1070
    73
1070
     0
1070
    74
1070
     0
1070
    77
1070
     3
1070
   140
1040
3.0
1070
   141
1040
150.0
1070
   147
1040
1.0
1070
   172
1070
     1
1070
   173
1070
     1
1070
   176
1070
     4
1070
   177
1070
     4
1070
   178
1070
     4
1070
   271
1070
     0
1070
   272
1070
     2
1070
     6
1000
OPEN
1070
     7
1000
OPEN
1002
}
  0
LINE
  5
1C29
330
1A
100
AcDbEntity
  8
SEIHIN
  6
Continuous
 62
     3
100
AcDbLine
 10
224.0611687472328
 20
142.1491186699654
 30
0.0
 11
224.0611687472328
 21
101.0611186699654
 31
0.0
  0
LINE
  5
1C2A
330
1A
100
AcDbEntity
  8
SEIHIN
  6
Continuous
 62
     3
100
AcDbLine
 10
179.4211687472327
 20
101.0611186699654
 30
0.0
 11
224.0611687472328
 21
101.0611186699654
 31
0.0
  0
LINE
  5
1C2B
330
1A
100
AcDbEntity
  8
SEIHIN
  6
Continuous
 62
     3
100
AcDbLine
 10
179.4211687472327
 20
142.1491186699654
 30
0.0
 11
228.0011687472328
 21
142.1491186699654
 31
0.0
  0
LINE
  5
1C2C
330
1A
100
AcDbEntity
  8
SEIHIN
  6
Continuous
 62
     3
100
AcDbLine
 10
179.4211687472327
 20
151.0291186699654
 30
0.0
 11
239.4411687472327
 21
151.0291186699654
 31
0.0
  0
LINE
  5
1C2D
330
1A
100
AcDbEntity
  8
SEIHIN
  6
Continuous
 62
     3
100
AcDbLine
 10
179.4211687472327
 20
156.5811186699654
 30
0.0
 11
239.4411687472327
 21
156.5811186699654
 31
0.0
  0
LINE
  5
1C2E
330
1A
100
AcDbEntity
  8
SEIHIN
  6
Continuous
 62
     3
100
AcDbLine
 10
179.4211687472327
 20
162.9091186699654
 30
0.0
 11
236.6651687472328
 21
162.9091186699654
 31
0.0
  0
ARC
  5
1C2F
330
1A
100
AcDbEntity
  8
SEIHIN
  6
Continuous
 62
     3
100
AcDbCircle
 10
230.7771666733521
 20
148.2531207438461
 30
0.0
 40
2.775997926120076
100
AcDbArc
 50
89.99995719571119
 51
180.0000428042863
  0
ARC
  5
1C30
330
1A
100
AcDbEntity
  8
SEIHIN
  6
Continuous
 62
     3
100
AcDbCircle
 10
230.7771666733521
 20
159.3571165960847
 30
0.0
 40
2.775997926120076
100
AcDbArc
 50
179.9999571957128
 51
270.0000428042856
  0
LINE
  5
1C31
330
1A
100
AcDbEntity
  8
SEIHIN
  6
Continuous
 62
     3
100
AcDbLine
 10
239.4411687472327
 20
156.5811186699654
 30
0.0
 11
239.4411687472327
 21
151.0291186699654
 31
0.0
  0
LINE
  5
1C32
330
1A
100
AcDbEntity
  8
SEIHIN
  6
Continuous
 62
     3
100
AcDbLine
 10
239.4411687472327
 20
151.0291186699654
 30
0.0
 11
228.0011687472328
 21
142.1491186699654
 31
0.0
  0
LINE
  5
1C33
330
1A
100
AcDbEntity
  8
SEIHIN
  6
Continuous
 62
     3
100
AcDbLine
 10
228.0011687472328
 20
148.2531186699654
 30
0.0
 11
228.0011687472328
 21
142.1491186699654
 31
0.0
  0
LINE
  5
1C34
330
1A
100
AcDbEntity
  8
SEIHIN
  6
Continuous
 62
     3
100
AcDbLine
 10
228.0011687472328
 20
162.9091186699654
 30
0.0
 11
228.0011687472328
 21
159.3571186699654
 31
0.0
  0
LINE
  5
1C35
330
1A
100
AcDbEntity
  8
SEIHIN
  6
Continuous
 62
     3
100
AcDbLine
 10
238.4111687472327
 20
211.2651186699654
 30
0.0
 11
238.4111687472327
 21
186.2811186699654
 31
0.0
  0
LINE
  5
1C37
330
1A
100
AcDbEntity
  8
SEIHIN
  6
Continuous
 62
     3
100
AcDbLine
 10
179.4211687472327
 20
186.2811186699654
 30
0.0
 11
238.4111687472327
 21
186.2811186699654
 31
0.0
  0
LINE
  5
1C38
330
1A
100
AcDbEntity
  8
SEIHIN
  6
Continuous
 62
     3
100
AcDbLine
 10
179.4211687472327
 20
167.0731186699654
 30
0.0
 11
236.6651687472328
 21
167.0731186699654
 31
0.0
  0
LINE
  5
1C39
330
1A
100
AcDbEntity
  8
SEIHIN
  6
Continuous
 62
     3
100
AcDbLine
 10
236.6651687472328
 20
175.1771186699654
 30
0.0
 11
179.4211687472327
 21
175.1771186699654
 31
0.0
  0
LINE
  5
1C3A
330
1A
100
AcDbEntity
  8
SEIHIN
  6
Continuous
 62
     3
100
AcDbLine
 10
179.4211687472327
 20
179.3411186699654
 30
0.0
 11
236.6651687472328
 21
179.3411186699654
 31
0.0
  0
ARC
  5
1C42
330
1A
100
AcDbEntity
  8
SEIHIN
  6
Continuous
 62
     3
100
AcDbCircle
 10
233.5531645994713
 20
180.7291228177269
 30
0.0
 40
5.551995852240123
100
AcDbArc
 50
89.99995719571444
 51
180.0000428042872
  0
LINE
  5
1C43
330
1A
100
AcDbEntity
  8
SEIHIN
  6
Continuous
 62
     3
100
AcDbLine
 10
236.6651687472328
 20
179.3411186699654
 30
0.0
 11
236.6651687472328
 21
175.1771186699654
 31
0.0
  0
LINE
  5
1C44
330
1A
100
AcDbEntity
  8
SEIHIN
  6
Continuous
 62
     3
100
AcDbLine
 10
228.0011687472328
 20
175.1771186699654
 30
0.0
 11
228.0011687472328
 21
167.0732186699654
 31
0.0
  0
LINE
  5
1C45
330
1A
100
AcDbEntity
  8
SEIHIN
  6
Continuous
 62
     3
100
AcDbLine
 10
228.0011687472328
 20
180.7291186699654
 30
0.0
 11
228.0011687472328
 21
179.3411186699654
 31
0.0
  0
LINE
  5
1C48
330
1A
100
AcDbEntity
  8
SEIHIN
  6
Continuous
 62
     3
100
AcDbLine
 10
179.4211687472327
 20
214.0411186699655
 30
0.0
 11
235.6350687472327
 21
214.0411186699655
 31
0.0
  0
ARC
  5
1C49
330
1A
100
AcDbEntity
  8
SEIHIN
  6
Continuous
 62
     3
100
AcDbCircle
 10
235.6351208211135
 20
211.2650707439208
 30
0.0
 40
2.77604792653299
100
AcDbArc
 50
0.0009891616268991
 51
90.00107477020128
  0
LINE
  5
1ED3
330
1A
100
AcDbEntity
  8
SEIHIN
  6
Continuous
 62
     3
100
AcDbLine
 10
132.5992344944124
 20
195.9972884125284
 30
0.0
 11
134.4260687472327
 21
192.8331186696365
 31
0.0
  0
TEXT
  5
1F5B
330
1A
100
AcDbEntity
  8
moji
100
AcDbText
 10
354.1473486237659
 20
69.21917823575731
 30
0.0
 40
2.799999999999999
  1
ＳＳ７５Ｗ
 41
0.9
  7
ｽﾀｲﾙ1
100
AcDbText
  0
LINE
  5
22ED
330
1A
100
AcDbEntity
  8
SEIHIN
  6
Continuous
 62
     3
100
AcDbLine
 10
120.4311687472328
 20
186.2812823050191
 30
0.0
 11
120.4311687472328
 21
211.2653207438462
 31
0.0
  0
ARC
  5
23E0
330
1A
100
AcDbEntity
  8
SEIHIN
  6
Continuous
 62
     3
100
AcDbCircle
 10
131.5102686251343
 20
199.8935760943745
 30
0.0
 40
0.5
100
AcDbArc
 50
34.9836535440239
 51
166.9905713153136
  0
LINE
  5
23E1
330
1A
100
AcDbEntity
  8
SEIHIN
100
AcDbLine
 10
124.5951687472327
 20
194.3752838809069
 30
0.0
 11
122.8684064973457
 21
191.2888702655274
 31
0.0
  0
LINE
  5
23E2
330
1A
100
AcDbEntity
  8
SEIHIN
  6
Continuous
 62
     3
100
AcDbLine
 10
123.2387298170032
 20
198.0792186699654
 30
0.0
 11
123.2387298170032
 21
209.3772186699654
 31
0.0
  0
ARC
  5
23E5
330
1A
100
AcDbEntity
  8
SEIHIN
  6
Continuous
 62
     3
100
AcDbCircle
 10
123.7387298170032
 20
209.3772186699654
 30
0.0
 40
0.5
100
AcDbArc
 50
90.0
 51
180.0
  0
DIMENSION
  5
244F
330
1A
100
AcDbEntity
  8
SUNPOU
100
AcDbDimension
  2
*D10
 10
146.5611024207932
 20
159.0412186699654
 30
0.0
 11
143.507417289141
 21
178.4714784246954
 31
0.0
 70
   160
  1
差し込み長さ<>
 71
     5
 42
-1.0
  3
STANDARD
100
AcDbAlignedDimension
 13
134.4260687472327
 23
214.0412186699654
 33
0.0
 14
134.4260687472327
 24
159.0412186699654
 34
0.0
 50
90.0
100
AcDbRotatedDimension
1001
ACAD
1000
DSTYLE
1002
{
1070
   287
1070
     5
1070
   287
1070
     5
1070
    41
1040
3.0
1070
    42
1040
3.0
1070
    43
1040
7.0
1070
    44
1040
1.5
1070
    73
1070
     0
1070
    74
1070
     0
1070
    77
1070
     3
1070
   140
1040
3.0
1070
   141
1040
150.0
1070
   147
1040
1.0
1070
   172
1070
     1
1070
   173
1070
     1
1070
   176
1070
   256
1070
   177
1070
   256
1070
   178
1070
   256
1070
   271
1070
     0
1070
   272
1070
     0
1070
   279
1070
     2
1070
   341
1005
B2
1070
     6
1000
OPEN
1070
     7
1000
OPEN
1070
   371
1070
    -1
1070
   372
1070
    -1
1002
}
  0
INSERT
  5
25BE
330
1A
100
AcDbEntity
  8
ﾊｯﾁﾝｸﾞ
  6
Continuous
100
AcDbBlockReference
  2
*X11
 10
0.0
 20
0.0
 30
0.0
1001
ACAD
1000
HATCH
1002
{
1070
    19
1000
_USER
1040
3.0
1040
0.7853981633974483
1000
R14_HATCH_DATA
1000
25BE
1011
1.0
1021
0.0
1031
0.0
1011
0.0
1021
1.0
1031
0.0
1011
0.0
1021
0.0
1031
1.0
1040
0.0
1010
0.0
1020
0.0
1030
1.0
1000
_USER
1070
     0
1070
     0
1071
        1
1071
        1
1071
       32
1070
     1
1040
128.0648687472327
1040
151.0292186699654
1040
119.4008687472328
1040
151.0292186699654
1070
     1
1040
119.4008687472328
1040
151.0292186699654
1040
119.4009687472327
1040
156.5812186699654
1070
     1
1040
119.4009687472327
1040
156.5812186699654
1040
128.0649687472328
1040
156.5812186699654
1070
     2
1040
128.0649708211135
1040
159.3572165960847
1040
2.775997926120034
1040
4.71238823330897
1040
6.283186054255343
1070
     1
1070
     1
1040
130.8409687472327
1040
159.3572186699654
1040
130.8409687472327
1040
162.9092186699654
1070
     1
1040
130.8409687472327
1040
162.9092186699654
1040
122.1769687472327
1040
162.9092186699654
1070
     1
1040
122.1769687472327
1040
162.9092186699654
1040
122.1769687472327
1040
167.0733186699654
1070
     1
1040
122.1769687472327
1040
167.0733186699654
1040
130.8409687472327
1040
167.0733186699654
1070
     1
1040
130.8409687472327
1040
167.0733186699654
1040
130.8410687472328
1040
175.1772186699654
1070
     1
1040
130.8410687472328
1040
175.1772186699654
1040
122.1770687472328
1040
175.1772186699654
1070
     1
1040
122.1770687472328
1040
175.1772186699654
1040
122.1770687472328
1040
179.3412186699654
1070
     1
1040
122.1770687472328
1040
179.3412186699654
1040
130.8410687472328
1040
179.3412186699654
1070
     1
1040
130.8410687472328
1040
179.3412186699654
1040
130.8410687472327
1040
180.7292186699654
1070
     2
1040
125.2890728949941
1040
180.7292228177267
1040
5.55199585224021
1040
6.283184560103849
1040
7.853982381050208
1070
     1
1070
     1
1040
125.2890687472327
1040
186.2812186699654
1040
123.2387298170032
1040
186.2812455279551
1070
     1
1040
123.2387298170032
1040
186.2812455279551
1040
123.2387298170032
1040
209.3772186699654
1070
     2
1040
123.7387298170032
1040
209.3772186699654
1040
0.5
1040
3.141592653589793
1040
4.712388980384689
1070
     0
1070
     1
1040
123.7387298170032
1040
209.8772186699654
1040
125.9591687472327
1040
209.8772186699654
1070
     1
1040
125.9591687472327
1040
209.8772186699654
1040
125.9591687472327
1040
197.3853186699654
1070
     2
1040
127.3471677102924
1040
197.3853176330251
1040
1.387998963060045
1040
3.141591906514057
1040
4.712389727460464
1070
     1
1070
     1
1040
127.3471687472328
1040
195.9973186699654
1040
132.599258024545
1040
195.9972476571432
1070
     1
1040
132.599258024545
1040
195.9972476571432
1040
134.4259687474007
1040
192.8332918744262
1070
     1
1040
134.4259687474007
1040
192.8332918744262
1040
134.4258687472327
1040
149.2531186699654
1070
     1
1040
134.4258687472327
1040
149.2531186699654
1040
140.3328687472327
1040
143.1462186699654
1070
     1
1040
140.3328687472327
1040
143.1462186699654
1040
140.3328687472327
1040
109.3892186699654
1070
     1
1040
140.3328687472327
1040
109.3892186699654
1040
143.1087687472327
1040
102.4492186699654
1070
     1
1040
143.1087687472327
1040
102.4492186699654
1040
143.1087687472327
1040
101.0611622247129
1070
     1
1040
143.1087687472327
1040
101.0611622247129
1040
134.7807687472328
1040
101.0612186699654
1070
     1
1040
134.7807687472328
1040
101.0612186699654
1040
134.7808687469894
1040
142.1492186699654
1070
     1
1040
134.7808687469894
1040
142.1492186699654
1040
130.8408687472327
1040
142.1492186699654
1070
     1
1040
130.8408687472327
1040
142.1492186699654
1040
130.8408687472327
1040
148.2532186699654
1070
     2
1040
128.0648708211134
1040
148.2532207438461
1040
2.775997926120115
1040
6.28318456010386
1040
7.85398238105021
1070
     1
1071
        0
1070
     0
1070
     0
1040
0.7853981633974483
1040
3.0
1070
     0
1070
     1
1040
0.7853981633974483
1040
96.85238800843036
1040
-2.212020820912812
1040
-2.121320343559642
1040
2.121320343559642
1070
     0
1071
        1
1040
96.85238800843036
1040
-2.212020820912812
1040
0.0
1002
}
  0
INSERT
  5
25BF
330
1A
100
AcDbEntity
  8
ﾊｯﾁﾝｸﾞ
  6
Continuous
100
AcDbBlockReference
  2
*X12
 10
0.0
 20
0.0
 30
0.0
1001
ACAD
1000
HATCH
1002
{
1070
    19
1000
_USER
1040
3.0
1040
2.356194490192344
1000
R14_HATCH_DATA
1000
25BF
1011
1.0
1021
0.0
1031
0.0
1011
0.0
1021
1.0
1031
0.0
1011
0.0
1021
0.0
1031
1.0
1040
0.0
1010
0.0
1020
0.0
1030
1.0
1000
_USER
1070
     0
1070
     0
1071
        1
1071
        1
1071
       10
1070
     1
1040
123.2387298170032
1040
209.3772186699654
1040
123.2387298170032
1040
198.0792186699654
1070
     1
1040
123.2387298170032
1040
198.0792186699654
1040
124.5951687472327
1040
198.0792186699654
1070
     1
1040
124.5951687472327
1040
198.0792186699654
1040
124.5951687472327
1040
186.2812277595646
1070
     1
1040
124.5951687472327
1040
186.2812277595646
1040
120.4311687472328
1040
186.2812823050191
1070
     1
1040
120.4311687472328
1040
186.2812823050191
1040
120.4311687472328
1040
211.2413183103424
1070
     2
1040
123.2311687472328
1040
211.2413183103424
1040
2.799999999999997
1040
3.141592653589793
1040
4.712403951604628
1070
     0
1070
     1
1040
123.2312106666486
1040
214.0413183100286
1040
134.4260687472327
1040
214.0411507093461
1070
     1
1040
134.4260687472327
1040
214.0411507093461
1040
134.4260687472327
1040
209.8772186699654
1070
     1
1040
134.4260687472327
1040
209.8772186699654
1040
123.7387298170032
1040
209.8772186699654
1070
     2
1040
123.7387298170032
1040
209.3772186699654
1040
0.5
1040
1.570796326794896
1040
3.141592653589793
1070
     1
1071
        0
1070
     0
1070
     0
1040
2.356194490192344
1040
3.0
1070
     0
1070
     1
1040
2.356194490192344
1040
172.1378567692444
1040
-2.212020820912812
1040
-2.121320343559642
1040
-2.121320343559642
1070
     0
1071
        1
1040
172.1378567692444
1040
-2.212020820912812
1040
0.0
1002
}
  0
INSERT
  5
25C0
330
1A
100
AcDbEntity
  8
ﾊｯﾁﾝｸﾞ
  6
Continuous
100
AcDbBlockReference
  2
*X13
 10
0.0
 20
0.0
 30
0.0
1001
ACAD
1000
HATCH
1002
{
1070
    19
1000
_USER
1040
1.0
1040
1.570796326794896
1000
R14_HATCH_DATA
1000
25C0
1011
1.0
1021
0.0
1031
0.0
1011
0.0
1021
1.0
1031
0.0
1011
0.0
1021
0.0
1031
1.0
1040
0.0
1010
0.0
1020
0.0
1030
1.0
1000
_USER
1070
     0
1070
     0
1071
        1
1071
       33
1071
       10
1070
     2
1040
162.591431429107
1040
209.9851308297317
1040
29.55355969829422
1040
2.648558991683037
1040
3.137941235599387
1070
     0
1070
     1
1040
133.0380687472324
1040
209.8772186699654
1040
127.3591687472327
1040
209.8772186699654
1070
     2
1040
127.3591687472327
1040
208.4772186699654
1040
1.400000000000005
1040
1.570796326794894
1040
3.141592653589793
1070
     1
1070
     1
1040
125.9591687472327
1040
208.4772186699654
1040
125.9591687472327
1040
197.3973184437745
1070
     2
1040
127.3591687472327
1040
197.3973184437745
1040
1.400000000000002
1040
3.141592653589793
1040
4.71237011037993
1070
     1
1070
     1
1040
127.3591423292261
1040
195.9973184440237
1040
130.0968878013643
1040
195.9972667827537
1070
     1
1040
130.0968878013643
1040
195.9972667827537
1040
131.02310210849
1040
200.0061317919676
1070
     2
1040
131.5102686251343
1040
199.8935760943744
1040
0.5000000000000011
1040
3.368650017940967
1040
5.672605368459404
1070
     0
1070
     2
1040
143.6957720681616
1040
208.4207774749822
1040
14.372782441274
1040
3.752172592310016
1040
4.185524368802141
1070
     1
1070
     1
1040
136.5578158620867
1040
195.9971448650104
1040
136.4687208264414
1040
195.9971465462342
1071
        0
1070
     0
1070
     0
1040
1.570796326794896
1040
1.0
1070
     0
1070
     1
1040
1.570796326794896
1040
145.4543997454731
1040
-2.212020820912869
1040
-1.0
1040
0.0000000000000001
1070
     0
1071
        1
1040
145.4543997454731
1040
-2.212020820912869
1040
0.0
1002
}
  0
TEXT
  5
280A
330
1A
100
AcDbEntity
  8
moji
100
AcDbText
 10
354.3473486237659
 20
53.37283147935616
 30
0.0
 40
2.799999999999999
  1
ＣＳＳ７５
 41
0.9
  7
ｽﾀｲﾙ1
100
AcDbText
  0
TEXT
  5
2814
330
1A
100
AcDbEntity
  8
moji
100
AcDbText
 10
327.4094708886026
 20
45.0529798453121
 30
0.0
 40
2.799999999999999
  1
タフグレー
 41
0.9
  7
ｽﾀｲﾙ1
100
AcDbText
  0
TEXT
  5
2815
330
1A
100
AcDbEntity
  8
moji
100
AcDbText
 10
354.2473486237659
 20
45.25297984531211
 30
0.0
 40
2.799999999999999
  1
ＧＳＳ７５
 41
0.9
  7
ｽﾀｲﾙ1
100
AcDbText
  0
LINE
  5
2819
330
1A
100
AcDbEntity
  8
ZUWAKU
370
    30
100
AcDbLine
 10
321.8451031717877
 20
91.04769486054411
 30
0.0
 11
321.8451031717877
 21
33.80873342223573
 31
0.0
  0
LINE
  5
281A
330
1A
100
AcDbEntity
  8
ZUWAKU
370
    30
100
AcDbLine
 10
381.347839926666
 20
91.04769486054411
 30
0.0
 11
381.347839926666
 21
33.80873342223573
 31
0.0
  0
LINE
  5
2870
330
1A
100
AcDbEntity
  8
ZUWAKU
100
AcDbLine
 10
321.8451031717877
 20
42.12858505627979
 30
0.0
 11
381.347839926666
 21
42.12858505627979
 31
0.0
  0
TEXT
  5
2871
330
1A
100
AcDbEntity
  8
moji
100
AcDbText
 10
327.4094708886026
 20
36.73312821126805
 30
0.0
 40
2.799999999999999
  1
グレー
 41
0.9
  7
ｽﾀｲﾙ1
100
AcDbText
  0
TEXT
  5
2872
330
1A
100
AcDbEntity
  8
moji
100
AcDbText
 10
354.2473486237659
 20
36.93312821126806
 30
0.0
 40
2.799999999999999
  1
ＳＳ７５
 41
0.9
  7
ｽﾀｲﾙ1
100
AcDbText
  0
LINE
  5
2873
330
1A
100
AcDbEntity
  8
ZUWAKU
370
    30
100
AcDbLine
 10
321.8451031717877
 20
33.80873342223573
 30
0.0
 11
381.347839926666
 21
33.80873342223572
 31
0.0
  0
VIEWPORT
  5
22
102
{ACAD_XDICTIONARY
360
2901
102
}
330
17
100
AcDbEntity
 67
     1
  8
0
100
AcDbViewport
 10
313.6808219178083
 20
148.5
 30
0.0
 40
627.3616438356165
 41
297.0
 68
     2
 69
     1
 12
313.6808219178083
 22
148.5
 13
0.0
 23
0.0
 14
1.0
 24
1.0
 15
10.0
 25
10.0
 16
0.0
 26
0.0
 36
1.0
 17
0.0
 27
0.0
 37
0.0
 42
50.0
 43
0.0
 44
0.0
 45
297.0
 50
0.0
 51
0.0
 72
   100
 90
    32768
  1

281
     0
 71
     1
 74
     0
110
0.0
120
0.0
130
0.0
111
1.0
121
0.0
131
0.0
112
0.0
122
1.0
132
0.0
 79
     0
146
0.0
  0
VIEWPORT
  5
64
102
{ACAD_XDICTIONARY
360
2903
102
}
330
17
100
AcDbEntity
 67
     1
  8
VIEWPORT
100
AcDbViewport
 10
210.0
 20
148.5
 30
0.0
 40
420.0
 41
297.0
 68
     1
 69
     2
 12
210.0
 22
148.5
 13
0.0
 23
0.0
 14
5.0
 24
5.0
 15
0.0
 25
0.0
 16
0.0
 26
0.0
 36
1.0
 17
0.0
 27
0.0
 37
0.0
 42
50.0
 43
0.0
 44
0.0
 45
302.9399999999999
 50
0.0
 51
0.0
 72
   100
 90
    32768
  1

281
     0
 71
     1
 74
     0
110
0.0
120
0.0
130
0.0
111
1.0
121
0.0
131
0.0
112
0.0
122
1.0
132
0.0
 79
     0
146
0.0
  0
ENDSEC
  0
SECTION
  2
OBJECTS
  0
DICTIONARY
  5
C
330
0
100
AcDbDictionary
281
     1
  3
ACAD_COLOR
350
27EE
  3
ACAD_GROUP
350
D
  3
ACAD_LAYOUT
350
291
  3
ACAD_MATERIAL
350
27BC
  3
ACAD_MLEADERSTYLE
350
2803
  3
ACAD_MLINESTYLE
350
E
  3
ACAD_PLOTSETTINGS
350
292
  3
ACAD_PLOTSTYLENAME
350
28F
  3
ACAD_SCALELIST
350
27F1
  3
ACAD_TABLESTYLE
350
27EF
  3
ACAD_VISUALSTYLE
350
27D5
  3
ACDB_RECOMPOSE_DATA
350
28FF
  3
AcDbVariableDictionary
350
168E
  3
DWGPROPS
350
2900
  0
DICTIONARY
  5
281F
330
8
100
AcDbDictionary
280
     1
281
     1
  0
DICTIONARY
  5
2D8
330
1A
100
AcDbDictionary
280
     1
281
     1
  3
ACAD_LAYOUTSELFREF
360
2790
  0
DICTIONARY
  5
2D6
330
17
100
AcDbDictionary
280
     1
281
     1
  3
ACAD_LAYOUTSELFREF
360
278F
  0
DICTIONARY
  5
2901
330
22
100
AcDbDictionary
280
     1
281
     1
  3
ACAD_XREC_ROUNDTRIP
360
2902
  0
DICTIONARY
  5
2903
330
64
100
AcDbDictionary
280
     1
281
     1
  3
ACAD_XREC_ROUNDTRIP
360
2904
  0
DICTIONARY
  5
27EE
102
{ACAD_REACTORS
330
C
102
}
330
C
100
AcDbDictionary
281
     1
  0
DICTIONARY
  5
D
102
{ACAD_REACTORS
330
C
102
}
330
C
100
AcDbDictionary
281
     1
  0
DICTIONARY
  5
291
102
{ACAD_REACTORS
330
C
102
}
330
C
100
AcDbDictionary
281
     1
  3
Model
350
293
  3
ﾚｲｱｳﾄ1
350
294
  0
DICTIONARY
  5
27BC
102
{ACAD_REACTORS
330
C
102
}
330
C
100
AcDbDictionary
281
     1
  3
ByBlock
350
27C5
  3
ByLayer
350
27BD
  3
Global
350
27CD
  0
DICTIONARY
  5
2803
102
{ACAD_REACTORS
330
C
102
}
330
C
100
AcDbDictionary
281
     1
  3
Standard
350
2804
  0
DICTIONARY
  5
E
102
{ACAD_REACTORS
330
C
102
}
330
C
100
AcDbDictionary
281
     1
  3
STANDARD
350
13
  0
DICTIONARY
  5
292
102
{ACAD_REACTORS
330
C
102
}
330
C
100
AcDbDictionary
281
     1
  0
ACDBDICTIONARYWDFLT
  5
28F
102
{ACAD_REACTORS
330
C
102
}
330
C
100
AcDbDictionary
281
     1
  3
Normal
350
290
100
AcDbDictionaryWithDefault
340
290
  0
DICTIONARY
  5
27F1
102
{ACAD_REACTORS
330
C
102
}
330
C
100
AcDbDictionary
281
     1
  3
A0
350
27F2
  3
A1
350
27F3
  3
A2
350
27F4
  3
A3
350
27F5
  3
A4
350
27F6
  3
A5
350
27F7
  3
A6
350
27F8
  3
A7
350
27F9
  3
A8
350
27FA
  3
A9
350
27FB
  3
B0
350
27FC
  3
B1
350
27FD
  3
B2
350
27FE
  3
B3
350
27FF
  3
B4
350
2800
  3
B5
350
2801
  3
B6
350
2802
  0
DICTIONARY
  5
27EF
102
{ACAD_REACTORS
330
C
102
}
330
C
100
AcDbDictionary
281
     1
  3
Standard
350
27F0
  0
DICTIONARY
  5
27D5
102
{ACAD_REACTORS
330
C
102
}
330
C
100
AcDbDictionary
281
     1
  3
2dWireframe
350
27DB
  3
Basic
350
27DA
  3
Brighten
350
27E1
  3
ColorChange
350
27E5
  3
Conceptual
350
27DE
  3
Dim
350
27E0
  3
EdgeColorOff
350
27ED
  3
Facepattern
350
27E4
  3
Flat
350
27D6
  3
FlatWithEdges
350
27D7
  3
Gouraud
350
27D8
  3
GouraudWithEdges
350
27D9
  3
Hidden
350
27DD
  3
JitterOff
350
27EB
  3
Linepattern
350
27E3
  3
OverhangOff
350
27EC
  3
Realistic
350
27DF
  3
Shaded
350
27EA
  3
Shaded with edges
350
27E9
  3
Shades of Gray
350
27E6
  3
Sketchy
350
27E7
  3
Thicken
350
27E2
  3
Wireframe
350
27DC
  3
X-Ray
350
27E8
  0
XRECORD
  5
28FF
102
{ACAD_REACTORS
330
C
102
}
330
C
100
AcDbXrecord
280
     1
 90
        1
330
244F
330
27F0
  0
DICTIONARY
  5
168E
102
{ACAD_REACTORS
330
C
102
}
330
C
100
AcDbDictionary
281
     1
  3
CANNOSCALE
350
2860
  3
CMLEADERSTYLE
350
285F
  3
CTABLESTYLE
350
285E
  3
DIMASSOC
350
2862
  3
INDEXCTL
350
2861
  3
SORTENTS
350
168F
  3
XCLIPFRAME
350
28FD
  0
XRECORD
  5
2900
102
{ACAD_REACTORS
330
C
102
}
330
C
100
AcDbXrecord
280
     1
  1
DWGPROPS COOKIE
  2

  3

  4

  6

  7

  8
furukawa011
  9

300
=
301
=
302
=
303
=
304
=
305
=
306
=
307
=
308
=
309
=
 40
0.0950700925925926
 41
2450994.350997107
 42
2458306.496745231
  1

 90
        0
  0
XRECORD
  5
2790
102
{ACAD_REACTORS
330
2D8
102
}
330
2D8
100
AcDbXrecord
280
     1
340
1A
  0
XRECORD
  5
278F
102
{ACAD_REACTORS
330
2D6
102
}
330
2D6
100
AcDbXrecord
280
     1
340
17
  0
XRECORD
  5
2902
102
{ACAD_REACTORS
330
2901
102
}
330
2901
100
AcDbXrecord
280
     1
102
SHADEPLOT
 70
     0
  0
XRECORD
  5
2904
102
{ACAD_REACTORS
330
2903
102
}
330
2903
100
AcDbXrecord
280
     1
102
SHADEPLOT
 70
     0
  0
LAYOUT
  5
293
102
{ACAD_XDICTIONARY
360
2905
102
}
102
{ACAD_REACTORS
330
291
102
}
330
291
100
AcDbPlotSettings
  1

  2
Acrobat Distiller
  4
A3
  6

 40
3.174999952316284
 41
3.174999952316284
 42
3.17498779296875
 43
3.17498779296875
 44
297.0318298339844
 45
420.1583251953125
 46
0.0
 47
0.0
 48
0.0
 49
0.0
140
0.0
141
0.0
142
1.0
143
1.0
 70
 11952
 72
     1
 73
     1
 74
     2
  7
print.ctb
 75
    16
147
1.0
148
0.0
149
0.0
100
AcDbLayout
  1
Model
 70
     1
 71
     0
 10
0.0
 20
0.0
 11
12.0
 21
9.0
 12
0.0
 22
0.0
 32
0.0
 14
0.0
 24
0.0
 34
0.0
 15
0.0
 25
0.0
 35
0.0
146
0.0
 13
0.0
 23
0.0
 33
0.0
 16
1.0
 26
0.0
 36
0.0
 17
0.0
 27
1.0
 37
0.0
 76
     0
330
1A
331
2763
  0
LAYOUT
  5
294
102
{ACAD_XDICTIONARY
360
2907
102
}
102
{ACAD_REACTORS
330
291
102
}
330
291
100
AcDbPlotSettings
  1

  2
Acrobat Distiller
  4

  6

 40
0.0
 41
0.0
 42
0.0
 43
0.0
 44
0.0
 45
0.0
 46
0.0
 47
0.0
 48
0.0
 49
0.0
140
0.0
141
0.0
142
1.0
143
1.0
 70
   688
 72
     0
 73
     0
 74
     5
  7
print.ctb
 75
    16
147
1.0
148
0.0
149
0.0
100
AcDbLayout
  1
ﾚｲｱｳﾄ1
 70
     1
 71
     1
 10
0.0
 20
0.0
 11
420.0
 21
297.0
 12
0.0
 22
0.0
 32
0.0
 14
0.0
 24
0.0
 34
0.0
 15
420.0
 25
297.0
 35
0.0
146
0.0
 13
0.0
 23
0.0
 33
0.0
 16
1.0
 26
0.0
 36
0.0
 17
0.0
 27
1.0
 37
0.0
 76
     0
330
17
331
64
  0
MATERIAL
  5
27C5
102
{ACAD_XDICTIONARY
360
27C6
102
}
102
{ACAD_REACTORS
330
27BC
102
}
330
27BC
100
AcDbMaterial
  1
ByBlock
 72
     0
 43
0.0208333333333333
 43
0.0
 43
0.0
 43
0.0
 43
0.0
 43
0.0208333333333333
 43
0.0
 43
0.0
 43
0.0
 43
0.0
 43
1.0
 43
0.0
 43
0.0
 43
0.0
 43
0.0
 43
1.0
 77
     0
 47
0.0208333333333333
 47
0.0
 47
0.0
 47
0.0
 47
0.0
 47
0.0208333333333333
 47
0.0
 47
0.0
 47
0.0
 47
0.0
 47
1.0
 47
0.0
 47
0.0
 47
0.0
 47
0.0
 47
1.0
171
     0
 49
0.0208333333333333
 49
0.0
 49
0.0
 49
0.0
 49
0.0
 49
0.0208333333333333
 49
0.0
 49
0.0
 49
0.0
 49
0.0
 49
1.0
 49
0.0
 49
0.0
 49
0.0
 49
0.0
 49
1.0
175
     0
142
0.0208333333333333
142
0.0
142
0.0
142
0.0
142
0.0
142
0.0208333333333333
142
0.0
142
0.0
142
0.0
142
0.0
142
1.0
142
0.0
142
0.0
142
0.0
142
0.0
142
1.0
179
     0
144
0.0208333333333333
144
0.0
144
0.0
144
0.0
144
0.0
144
0.0208333333333333
144
0.0
144
0.0
144
0.0
144
0.0
144
1.0
144
0.0
144
0.0
144
0.0
144
0.0
144
1.0
147
0.0208333333333333
147
0.0
147
0.0
147
0.0
147
0.0
147
0.0208333333333333
147
0.0
147
0.0
147
0.0
147
0.0
147
1.0
147
0.0
147
0.0
147
0.0
147
0.0
147
1.0
  0
MATERIAL
  5
27BD
102
{ACAD_XDICTIONARY
360
27BE
102
}
102
{ACAD_REACTORS
330
27BC
102
}
330
27BC
100
AcDbMaterial
  1
ByLayer
 72
     0
 43
0.0208333333333333
 43
0.0
 43
0.0
 43
0.0
 43
0.0
 43
0.0208333333333333
 43
0.0
 43
0.0
 43
0.0
 43
0.0
 43
1.0
 43
0.0
 43
0.0
 43
0.0
 43
0.0
 43
1.0
 77
     0
 47
0.0208333333333333
 47
0.0
 47
0.0
 47
0.0
 47
0.0
 47
0.0208333333333333
 47
0.0
 47
0.0
 47
0.0
 47
0.0
 47
1.0
 47
0.0
 47
0.0
 47
0.0
 47
0.0
 47
1.0
171
     0
 49
0.0208333333333333
 49
0.0
 49
0.0
 49
0.0
 49
0.0
 49
0.0208333333333333
 49
0.0
 49
0.0
 49
0.0
 49
0.0
 49
1.0
 49
0.0
 49
0.0
 49
0.0
 49
0.0
 49
1.0
175
     0
142
0.0208333333333333
142
0.0
142
0.0
142
0.0
142
0.0
142
0.0208333333333333
142
0.0
142
0.0
142
0.0
142
0.0
142
1.0
142
0.0
142
0.0
142
0.0
142
0.0
142
1.0
179
     0
144
0.0208333333333333
144
0.0
144
0.0
144
0.0
144
0.0
144
0.0208333333333333
144
0.0
144
0.0
144
0.0
144
0.0
144
1.0
144
0.0
144
0.0
144
0.0
144
0.0
144
1.0
147
0.0208333333333333
147
0.0
147
0.0
147
0.0
147
0.0
147
0.0208333333333333
147
0.0
147
0.0
147
0.0
147
0.0
147
1.0
147
0.0
147
0.0
147
0.0
147
0.0
147
1.0
  0
MATERIAL
  5
27CD
102
{ACAD_XDICTIONARY
360
27CE
102
}
102
{ACAD_REACTORS
330
27BC
102
}
330
27BC
100
AcDbMaterial
  1
Global
 72
     0
 43
0.0208333333333333
 43
0.0
 43
0.0
 43
0.0
 43
0.0
 43
0.0208333333333333
 43
0.0
 43
0.0
 43
0.0
 43
0.0
 43
1.0
 43
0.0
 43
0.0
 43
0.0
 43
0.0
 43
1.0
 77
     0
 47
0.0208333333333333
 47
0.0
 47
0.0
 47
0.0
 47
0.0
 47
0.0208333333333333
 47
0.0
 47
0.0
 47
0.0
 47
0.0
 47
1.0
 47
0.0
 47
0.0
 47
0.0
 47
0.0
 47
1.0
171
     0
 49
0.0208333333333333
 49
0.0
 49
0.0
 49
0.0
 49
0.0
 49
0.0208333333333333
 49
0.0
 49
0.0
 49
0.0
 49
0.0
 49
1.0
 49
0.0
 49
0.0
 49
0.0
 49
0.0
 49
1.0
175
     0
142
0.0208333333333333
142
0.0
142
0.0
142
0.0
142
0.0
142
0.0208333333333333
142
0.0
142
0.0
142
0.0
142
0.0
142
1.0
142
0.0
142
0.0
142
0.0
142
0.0
142
1.0
179
     0
144
0.0208333333333333
144
0.0
144
0.0
144
0.0
144
0.0
144
0.0208333333333333
144
0.0
144
0.0
144
0.0
144
0.0
144
1.0
144
0.0
144
0.0
144
0.0
144
0.0
144
1.0
147
0.0208333333333333
147
0.0
147
0.0
147
0.0
147
0.0
147
0.0208333333333333
147
0.0
147
0.0
147
0.0
147
0.0
147
1.0
147
0.0
147
0.0
147
0.0
147
0.0
147
1.0
  0
MLEADERSTYLE
  5
2804
102
{ACAD_REACTORS
330
2803
102
}
330
2803
100
AcDbMLeaderStyle
170
     2
171
     1
172
     0
 90
        2
 40
0.0
 41
0.0
173
     1
 91
-1056964608
340
14
 92
       -2
290
     1
 42
2.0
291
     1
 43
0.36
  3
Standard
 44
4.0
300

342
10
174
     1
178
     6
175
     1
176
     0
 93
-1056964608
 45
4.0
292
     0
297
     0
 46
4.0
 94
-1056964608
 47
1.0
 49
1.0
140
1.0
293
     1
141
0.0
294
     1
177
     0
142
1.0
295
     0
296
     0
143
0.125
1001
ACAD_MLEADERVER
1070
     2
  0
MLINESTYLE
  5
13
102
{ACAD_REACTORS
330
E
102
}
330
E
100
AcDbMlineStyle
  2
STANDARD
 70
     0
  3

 62
     0
 51
90.0
 52
90.0
 71
     2
 49
0.5
 62
   256
  6
BYLAYER
 49
-0.5
 62
   256
  6
BYLAYER
  0
ACDBPLACEHOLDER
  5
290
102
{ACAD_REACTORS
330
28F
102
}
330
28F
  0
SCALE
  5
27F2
102
{ACAD_REACTORS
330
27F1
102
}
330
27F1
100
AcDbScale
 70
     0
300
1:1
140
1.0
141
1.0
290
     1
  0
SCALE
  5
27F3
102
{ACAD_REACTORS
330
27F1
102
}
330
27F1
100
AcDbScale
 70
     0
300
1:2
140
1.0
141
2.0
290
     0
  0
SCALE
  5
27F4
102
{ACAD_REACTORS
330
27F1
102
}
330
27F1
100
AcDbScale
 70
     0
300
1:4
140
1.0
141
4.0
290
     0
  0
SCALE
  5
27F5
102
{ACAD_REACTORS
330
27F1
102
}
330
27F1
100
AcDbScale
 70
     0
300
1:5
140
1.0
141
5.0
290
     0
  0
SCALE
  5
27F6
102
{ACAD_REACTORS
330
27F1
102
}
330
27F1
100
AcDbScale
 70
     0
300
1:8
140
1.0
141
8.0
290
     0
  0
SCALE
  5
27F7
102
{ACAD_REACTORS
330
27F1
102
}
330
27F1
100
AcDbScale
 70
     0
300
1:10
140
1.0
141
10.0
290
     0
  0
SCALE
  5
27F8
102
{ACAD_REACTORS
330
27F1
102
}
330
27F1
100
AcDbScale
 70
     0
300
1:16
140
1.0
141
16.0
290
     0
  0
SCALE
  5
27F9
102
{ACAD_REACTORS
330
27F1
102
}
330
27F1
100
AcDbScale
 70
     0
300
1:20
140
1.0
141
20.0
290
     0
  0
SCALE
  5
27FA
102
{ACAD_REACTORS
330
27F1
102
}
330
27F1
100
AcDbScale
 70
     0
300
1:30
140
1.0
141
30.0
290
     0
  0
SCALE
  5
27FB
102
{ACAD_REACTORS
330
27F1
102
}
330
27F1
100
AcDbScale
 70
     0
300
1:40
140
1.0
141
40.0
290
     0
  0
SCALE
  5
27FC
102
{ACAD_REACTORS
330
27F1
102
}
330
27F1
100
AcDbScale
 70
     0
300
1:50
140
1.0
141
50.0
290
     0
  0
SCALE
  5
27FD
102
{ACAD_REACTORS
330
27F1
102
}
330
27F1
100
AcDbScale
 70
     0
300
1:100
140
1.0
141
100.0
290
     0
  0
SCALE
  5
27FE
102
{ACAD_REACTORS
330
27F1
102
}
330
27F1
100
AcDbScale
 70
     0
300
2:1
140
2.0
141
1.0
290
     0
  0
SCALE
  5
27FF
102
{ACAD_REACTORS
330
27F1
102
}
330
27F1
100
AcDbScale
 70
     0
300
4:1
140
4.0
141
1.0
290
     0
  0
SCALE
  5
2800
102
{ACAD_REACTORS
330
27F1
102
}
330
27F1
100
AcDbScale
 70
     0
300
8:1
140
8.0
141
1.0
290
     0
  0
SCALE
  5
2801
102
{ACAD_REACTORS
330
27F1
102
}
330
27F1
100
AcDbScale
 70
     0
300
10:1
140
10.0
141
1.0
290
     0
  0
SCALE
  5
2802
102
{ACAD_REACTORS
330
27F1
102
}
330
27F1
100
AcDbScale
 70
     0
300
100:1
140
100.0
141
1.0
290
     0
  0
TABLESTYLE
  5
27F0
102
{ACAD_XDICTIONARY
360
281B
102
}
102
{ACAD_REACTORS
330
27EF
102
}
330
27EF
100
AcDbTableStyle
  3
Standard
 70
     0
 71
     0
 40
1.5
 41
1.5
280
     0
281
     0
  7
STANDARD
140
4.5
170
     2
 62
     0
 63
     7
283
     0
274
    -2
284
     1
 64
     0
275
    -2
285
     1
 65
     0
276
    -2
286
     1
 66
     0
277
    -2
287
     1
 67
     0
278
    -2
288
     1
 68
     0
279
    -2
289
     1
 69
     0
  7
STANDARD
140
6.0
170
     5
 62
     0
 63
     7
283
     0
274
    -2
284
     1
 64
     0
275
    -2
285
     1
 65
     0
276
    -2
286
     1
 66
     0
277
    -2
287
     1
 67
     0
278
    -2
288
     1
 68
     0
279
    -2
289
     1
 69
     0
  7
STANDARD
140
4.5
170
     5
 62
     0
 63
     7
283
     0
274
    -2
284
     1
 64
     0
275
    -2
285
     1
 65
     0
276
    -2
286
     1
 66
     0
277
    -2
287
     1
 67
     0
278
    -2
288
     1
 68
     0
279
    -2
289
     1
 69
     0
  0
VISUALSTYLE
  5
27DB
102
{ACAD_XDICTIONARY
360
2916
102
}
102
{ACAD_REACTORS
330
27D5
102
}
330
27D5
100
AcDbVisualStyle
  2
2dWireframe
 70
     4
 71
     0
 72
     2
 73
     0
 90
        0
 40
-0.6
 41
-30.0
 62
     5
 63
     7
 74
     1
 91
        4
 64
     7
 65
   257
 75
     1
175
     1
 42
1.0
 92
        0
 66
   257
 43
1.0
 76
     1
 77
     6
 78
     2
 67
     7
 79
     5
170
     0
171
     0
290
     0
174
     0
 93
        1
 44
0.0
173
     0
291
     0
 45
0.0
1001
ACAD
1000
AcDbSavedByObjectVersion
1070
     0
  0
VISUALSTYLE
  5
27DA
102
{ACAD_XDICTIONARY
360
2914
102
}
102
{ACAD_REACTORS
330
27D5
102
}
330
27D5
100
AcDbVisualStyle
  2
Basic
 70
     7
 71
     1
 72
     0
 73
     1
 90
        0
 40
-0.6
 41
-30.0
 62
     5
 63
     7
 74
     0
 91
        4
 64
     7
 65
   257
 75
     1
175
     1
 42
1.0
 92
        8
 66
     7
 43
1.0
 76
     1
 77
     6
 78
     2
 67
     7
 79
     5
170
     0
171
     0
290
     0
174
     0
 93
        1
 44
0.0
173
     0
291
     1
 45
0.0
1001
ACAD
1000
AcDbSavedByObjectVersion
1070
     0
  0
VISUALSTYLE
  5
27E1
102
{ACAD_XDICTIONARY
360
2922
102
}
102
{ACAD_REACTORS
330
27D5
102
}
330
27D5
100
AcDbVisualStyle
  2
Brighten
 70
    12
 71
     2
 72
     2
 73
     0
 90
        0
 40
-0.6
 41
-30.0
 62
     5
 63
     7
 74
     1
 91
        4
 64
     7
 65
   257
 75
     1
175
     1
 42
1.0
 92
        8
 66
     7
 43
1.0
 76
     1
 77
     6
 78
     2
 67
     7
 79
     5
170
     0
171
     0
290
     0
174
     0
 93
        1
 44
50.0
173
     0
291
     1
 45
0.0
1001
ACAD
1000
AcDbSavedByObjectVersion
1070
     0
  0
VISUALSTYLE
  5
27E5
102
{ACAD_XDICTIONARY
360
292A
102
}
102
{ACAD_REACTORS
330
27D5
102
}
330
27D5
100
AcDbVisualStyle
  2
ColorChange
 70
    16
 71
     2
 72
     2
 73
     3
 90
        0
 40
-0.6
 41
-30.0
 62
     5
 63
     8
 74
     1
 91
        4
 64
     7
 65
   257
 75
     1
175
     1
 42
1.0
 92
        8
 66
     8
 43
1.0
 76
     1
 77
     6
 78
     2
 67
     7
 79
     5
170
     0
171
     0
290
     0
174
     0
 93
        1
 44
0.0
173
     0
291
     1
 45
0.0
1001
ACAD
1000
AcDbSavedByObjectVersion
1070
     0
  0
VISUALSTYLE
  5
27DE
102
{ACAD_XDICTIONARY
360
291C
102
}
102
{ACAD_REACTORS
330
27D5
102
}
330
27D5
100
AcDbVisualStyle
  2
Conceptual
 70
     9
 71
     3
 72
     2
 73
     0
 90
        0
 40
-0.6
 41
-30.0
 62
     5
 63
     7
 74
     2
 91
        2
 64
     7
 65
   257
 75
     1
175
     1
 42
179.0
 92
        8
 66
     7
 43
1.0
 76
     1
 77
     6
 78
     2
 67
     7
 79
     3
170
     0
171
     0
290
     0
174
     0
 93
        1
 44
0.0
173
     0
291
     0
 45
0.0
1001
ACAD
1000
AcDbSavedByObjectVersion
1070
     0
  0
VISUALSTYLE
  5
27E0
102
{ACAD_XDICTIONARY
360
2920
102
}
102
{ACAD_REACTORS
330
27D5
102
}
330
27D5
100
AcDbVisualStyle
  2
Dim
 70
    11
 71
     2
 72
     2
 73
     0
 90
        0
 40
-0.6
 41
-30.0
 62
     5
 63
     7
 74
     1
 91
        4
 64
     7
 65
   257
 75
     1
175
     1
 42
1.0
 92
        8
 66
     7
 43
1.0
 76
     1
 77
     6
 78
     2
 67
     7
 79
     5
170
     0
171
     0
290
     0
174
     0
 93
        1
 44
-50.0
173
     0
291
     1
 45
0.0
1001
ACAD
1000
AcDbSavedByObjectVersion
1070
     0
  0
VISUALSTYLE
  5
27ED
102
{ACAD_XDICTIONARY
360
293A
102
}
102
{ACAD_REACTORS
330
27D5
102
}
330
27D5
100
AcDbVisualStyle
  2
EdgeColorOff
 70
    22
 71
     2
 72
     2
 73
     0
 90
        0
 40
-0.6
 41
-30.0
 62
     5
 63
     7
 74
     1
 91
        4
 64
     7
 65
   257
 75
     1
175
     1
 42
1.0
 92
        8
 66
     7
 43
1.0
 76
     1
 77
     6
 78
     2
 67
     7
 79
     5
170
     0
171
     0
290
     0
174
     0
 93
        1
 44
0.0
173
     0
291
     1
 45
0.0
1001
ACAD
1000
AcDbSavedByObjectVersion
1070
     0
  0
VISUALSTYLE
  5
27E4
102
{ACAD_XDICTIONARY
360
2928
102
}
102
{ACAD_REACTORS
330
27D5
102
}
330
27D5
100
AcDbVisualStyle
  2
Facepattern
 70
    15
 71
     2
 72
     2
 73
     0
 90
        0
 40
-0.6
 41
-30.0
 62
     5
 63
     7
 74
     1
 91
        4
 64
     7
 65
   257
 75
     1
175
     1
 42
1.0
 92
        8
 66
     7
 43
1.0
 76
     1
 77
     6
 78
     2
 67
     7
 79
     5
170
     0
171
     0
290
     0
174
     0
 93
        1
 44
0.0
173
     0
291
     1
 45
0.0
1001
ACAD
1000
AcDbSavedByObjectVersion
1070
     0
  0
VISUALSTYLE
  5
27D6
102
{ACAD_XDICTIONARY
360
290C
102
}
102
{ACAD_REACTORS
330
27D5
102
}
330
27D5
100
AcDbVisualStyle
  2
Flat
 70
     0
 71
     2
 72
     1
 73
     1
 90
        2
 40
-0.6
 41
30.0
 62
     5
 63
     7
 74
     0
 91
        0
 64
     7
 65
   257
 75
     1
175
     1
 42
1.0
 92
        8
 66
     7
 43
1.0
 76
     1
 77
     6
 78
     2
 67
     7
 79
     5
170
     0
171
     0
290
     0
174
     0
 93
       13
 44
0.0
173
     0
291
     1
 45
0.0
1001
ACAD
1000
AcDbSavedByObjectVersion
1070
     0
  0
VISUALSTYLE
  5
27D7
102
{ACAD_XDICTIONARY
360
290E
102
}
102
{ACAD_REACTORS
330
27D5
102
}
330
27D5
100
AcDbVisualStyle
  2
FlatWithEdges
 70
     1
 71
     2
 72
     1
 73
     1
 90
        2
 40
-0.6
 41
30.0
 62
     5
 63
     7
 74
     1
 91
        0
 64
     7
 65
   257
 75
     1
175
     1
 42
1.0
 92
        0
 66
   257
 43
1.0
 76
     1
 77
     6
 78
     2
 67
     7
 79
     5
170
     0
171
     0
290
     0
174
     0
 93
       13
 44
0.0
173
     0
291
     1
 45
0.0
1001
ACAD
1000
AcDbSavedByObjectVersion
1070
     0
  0
VISUALSTYLE
  5
27D8
102
{ACAD_XDICTIONARY
360
2910
102
}
102
{ACAD_REACTORS
330
27D5
102
}
330
27D5
100
AcDbVisualStyle
  2
Gouraud
 70
     2
 71
     2
 72
     2
 73
     1
 90
        2
 40
-0.6
 41
30.0
 62
     5
 63
     7
 74
     0
 91
        0
 64
     7
 65
   257
 75
     1
175
     1
 42
1.0
 92
        0
 66
     7
 43
1.0
 76
     1
 77
     6
 78
     2
 67
     7
 79
     5
170
     0
171
     0
290
     0
174
     0
 93
       13
 44
0.0
173
     0
291
     1
 45
0.0
1001
ACAD
1000
AcDbSavedByObjectVersion
1070
     0
  0
VISUALSTYLE
  5
27D9
102
{ACAD_XDICTIONARY
360
2912
102
}
102
{ACAD_REACTORS
330
27D5
102
}
330
27D5
100
AcDbVisualStyle
  2
GouraudWithEdges
 70
     3
 71
     2
 72
     2
 73
     1
 90
        2
 40
-0.6
 41
30.0
 62
     5
 63
     7
 74
     1
 91
        0
 64
     7
 65
   257
 75
     1
175
     1
 42
1.0
 92
        0
 66
   257
 43
1.0
 76
     1
 77
     6
 78
     2
 67
     7
 79
     5
170
     0
171
     0
290
     0
174
     0
 93
       13
 44
0.0
173
     0
291
     1
 45
0.0
1001
ACAD
1000
AcDbSavedByObjectVersion
1070
     0
  0
VISUALSTYLE
  5
27DD
102
{ACAD_XDICTIONARY
360
291A
102
}
102
{ACAD_REACTORS
330
27D5
102
}
330
27D5
100
AcDbVisualStyle
  2
Hidden
 70
     6
 71
     1
 72
     2
 73
     2
 90
        0
 40
-0.6
 41
-30.0
 62
     5
 63
     7
 74
     2
 91
        2
 64
     7
 65
   257
 75
     2
175
     1
 42
40.0
 92
        0
 66
   257
 43
1.0
 76
     1
 77
     6
 78
     2
 67
     7
 79
     3
170
     0
171
     0
290
     0
174
     0
 93
        1
 44
0.0
173
     0
291
     0
 45
0.0
1001
ACAD
1000
AcDbSavedByObjectVersion
1070
     0
  0
VISUALSTYLE
  5
27EB
102
{ACAD_XDICTIONARY
360
2936
102
}
102
{ACAD_REACTORS
330
27D5
102
}
330
27D5
100
AcDbVisualStyle
  2
JitterOff
 70
    20
 71
     2
 72
     2
 73
     0
 90
        0
 40
-0.6
 41
-30.0
 62
     5
 63
     7
 74
     1
 91
        4
 64
     7
 65
   257
 75
     1
175
     1
 42
1.0
 92
       10
 66
     7
 43
1.0
 76
     1
 77
     6
 78
     2
 67
     7
 79
     5
170
     0
171
     0
290
     0
174
     0
 93
        1
 44
0.0
173
     0
291
     1
 45
0.0
1001
ACAD
1000
AcDbSavedByObjectVersion
1070
     0
  0
VISUALSTYLE
  5
27E3
102
{ACAD_XDICTIONARY
360
2926
102
}
102
{ACAD_REACTORS
330
27D5
102
}
330
27D5
100
AcDbVisualStyle
  2
Linepattern
 70
    14
 71
     2
 72
     2
 73
     0
 90
        0
 40
-0.6
 41
-30.0
 62
     5
 63
     7
 74
     1
 91
        4
 64
     7
 65
   257
 75
     7
175
     7
 42
1.0
 92
        8
 66
     7
 43
1.0
 76
     1
 77
     6
 78
     2
 67
     7
 79
     5
170
     0
171
     0
290
     0
174
     0
 93
        1
 44
0.0
173
     0
291
     1
 45
0.0
1001
ACAD
1000
AcDbSavedByObjectVersion
1070
     0
  0
VISUALSTYLE
  5
27EC
102
{ACAD_XDICTIONARY
360
2938
102
}
102
{ACAD_REACTORS
330
27D5
102
}
330
27D5
100
AcDbVisualStyle
  2
OverhangOff
 70
    21
 71
     2
 72
     2
 73
     0
 90
        0
 40
-0.6
 41
-30.0
 62
     5
 63
     7
 74
     1
 91
        4
 64
     7
 65
   257
 75
     1
175
     1
 42
1.0
 92
        9
 66
     7
 43
1.0
 76
     1
 77
     6
 78
     2
 67
     7
 79
     5
170
     0
171
     0
290
     0
174
     0
 93
        1
 44
0.0
173
     0
291
     1
 45
0.0
1001
ACAD
1000
AcDbSavedByObjectVersion
1070
     0
  0
VISUALSTYLE
  5
27DF
102
{ACAD_XDICTIONARY
360
291E
102
}
102
{ACAD_REACTORS
330
27D5
102
}
330
27D5
100
AcDbVisualStyle
  2
Realistic
 70
     8
 71
     2
 72
     2
 73
     0
 90
        2
 40
-0.6
 41
30.0
 62
     5
 63
     7
 74
     0
 91
        0
 64
     7
 65
   257
 75
     1
175
     1
 42
1.0
 92
        8
 66
   257
 43
1.0
 76
     1
 77
     6
 78
     2
 67
     7
 79
     3
170
     0
171
     0
290
     0
174
     0
 93
       13
 44
0.0
173
     0
291
     0
 45
0.0
1001
ACAD
1000
AcDbSavedByObjectVersion
1070
     0
  0
VISUALSTYLE
  5
27EA
102
{ACAD_XDICTIONARY
360
2934
102
}
102
{ACAD_REACTORS
330
27D5
102
}
330
27D5
100
AcDbVisualStyle
  2
Shaded
 70
    27
 71
     2
 72
     2
 73
     1
 90
        2
 40
-0.6
 41
30.0
 62
     5
 63
     7
 74
     0
 91
        4
 64
     7
 65
   257
 75
     1
175
     1
 42
1.0
 92
        8
 66
   257
 43
1.0
 76
     1
 77
     6
 78
     2
 67
     8
 79
     3
170
     0
171
     0
290
     0
174
     0
 93
        5
 44
0.0
173
     0
291
     0
 45
0.0
1001
ACAD
1000
AcDbSavedByObjectVersion
1070
     0
  0
VISUALSTYLE
  5
27E9
102
{ACAD_XDICTIONARY
360
2932
102
}
102
{ACAD_REACTORS
330
27D5
102
}
330
27D5
100
AcDbVisualStyle
  2
Shaded with edges
 70
    26
 71
     2
 72
     2
 73
     1
 90
        2
 40
-0.6
 41
30.0
 62
     5
 63
     7
 74
     1
 91
       10
 64
     7
 65
   257
 75
     2
175
     1
 42
1.0
 92
        8
 66
   257
 43
1.0
 76
     1
 77
     6
 78
     2
 67
     7
 79
     3
170
     0
171
     0
290
     0
174
     0
 93
        5
 44
0.0
173
     0
291
     0
 45
0.0
1001
ACAD
1000
AcDbSavedByObjectVersion
1070
     0
  0
VISUALSTYLE
  5
27E6
102
{ACAD_XDICTIONARY
360
292C
102
}
102
{ACAD_REACTORS
330
27D5
102
}
330
27D5
100
AcDbVisualStyle
  2
Shades of Gray
 70
    23
 71
     2
 72
     2
 73
     3
 90
        0
 40
-0.6
 41
-30.0
 62
     5
 63
     7
 74
     2
 91
        2
 64
     7
 65
     7
 75
     1
175
     1
 42
40.0
 92
        8
 66
     7
 43
1.0
 76
     1
 77
     6
 78
     2
 67
     7
 79
     3
170
     0
171
     0
290
     0
174
     0
 93
        1
 44
0.0
173
     0
291
     0
 45
0.0
1001
ACAD
1000
AcDbSavedByObjectVersion
1070
     0
  0
VISUALSTYLE
  5
27E7
102
{ACAD_XDICTIONARY
360
292E
102
}
102
{ACAD_REACTORS
330
27D5
102
}
330
27D5
100
AcDbVisualStyle
  2
Sketchy
 70
    24
 71
     1
 72
     2
 73
     2
 90
        0
 40
-0.6
 41
-30.0
 62
     5
 63
     7
 74
     2
 91
        2
 64
     7
 65
     7
 75
     1
175
     1
 42
40.0
 92
       11
 66
     7
 43
1.0
 76
     1
 77
     6
 78
     2
 67
     7
 79
     6
170
     0
171
     0
290
     0
174
     0
 93
        1
 44
0.0
173
     0
291
     0
 45
0.0
1001
ACAD
1000
AcDbSavedByObjectVersion
1070
     0
  0
VISUALSTYLE
  5
27E2
102
{ACAD_XDICTIONARY
360
2924
102
}
102
{ACAD_REACTORS
330
27D5
102
}
330
27D5
100
AcDbVisualStyle
  2
Thicken
 70
    13
 71
     2
 72
     2
 73
     0
 90
        0
 40
-0.6
 41
-30.0
 62
     5
 63
     7
 74
     1
 91
        4
 64
     7
 65
   257
 75
     1
175
     1
 42
1.0
 92
       12
 66
     7
 43
1.0
 76
     1
 77
     6
 78
     2
 67
     7
 79
     5
170
     0
171
     0
290
     0
174
     0
 93
        1
 44
0.0
173
     0
291
     1
 45
0.0
1001
ACAD
1000
AcDbSavedByObjectVersion
1070
     0
  0
VISUALSTYLE
  5
27DC
102
{ACAD_XDICTIONARY
360
2918
102
}
102
{ACAD_REACTORS
330
27D5
102
}
330
27D5
100
AcDbVisualStyle
  2
Wireframe
 70
     5
 71
     0
 72
     2
 73
     0
 90
        0
 40
-0.6
 41
-30.0
 62
     5
 63
     7
 74
     1
 91
        4
 64
     7
 65
   257
 75
     1
175
     1
 42
1.0
 92
        0
 66
   257
 43
1.0
 76
     1
 77
     6
 78
     2
 67
     7
 79
     3
170
     0
171
     0
290
     0
174
     0
 93
        1
 44
0.0
173
     0
291
     0
 45
0.0
1001
ACAD
1000
AcDbSavedByObjectVersion
1070
     0
  0
VISUALSTYLE
  5
27E8
102
{ACAD_XDICTIONARY
360
2930
102
}
102
{ACAD_REACTORS
330
27D5
102
}
330
27D5
100
AcDbVisualStyle
  2
X-Ray
 70
    25
 71
     2
 72
     2
 73
     1
 90
        1
 40
0.5
 41
-30.0
 62
     5
 63
     7
 74
     1
 91
        0
 64
     7
 65
   257
 75
     1
175
     1
 42
1.0
 92
        8
 66
     7
 43
1.0
 76
     1
 77
     6
 78
     2
 67
     7
 79
     3
170
     0
171
     0
290
     0
174
     0
 93
       13
 44
0.0
173
     0
291
     0
 45
0.0
1001
ACAD
1000
AcDbSavedByObjectVersion
1070
     0
  0
DICTIONARYVAR
  5
2860
102
{ACAD_REACTORS
330
168E
102
}
330
168E
100
DictionaryVariables
280
     0
  1
1:1
  0
DICTIONARYVAR
  5
285F
102
{ACAD_REACTORS
330
168E
102
}
330
168E
100
DictionaryVariables
280
     0
  1
STANDARD
  0
DICTIONARYVAR
  5
285E
102
{ACAD_REACTORS
330
168E
102
}
330
168E
100
DictionaryVariables
280
     0
  1
STANDARD
  0
DICTIONARYVAR
  5
2862
102
{ACAD_REACTORS
330
168E
102
}
330
168E
100
DictionaryVariables
280
     0
  1
1
  0
DICTIONARYVAR
  5
2861
102
{ACAD_REACTORS
330
168E
102
}
330
168E
100
DictionaryVariables
280
     0
  1
0
  0
DICTIONARYVAR
  5
168F
102
{ACAD_REACTORS
330
168E
102
}
330
168E
100
DictionaryVariables
280
     0
  1
96
  0
DICTIONARYVAR
  5
28FD
102
{ACAD_REACTORS
330
168E
102
}
330
168E
100
DictionaryVariables
280
     0
  1
2
  0
DICTIONARY
  5
2905
330
293
100
AcDbDictionary
280
     1
281
     1
  3
ACAD_XREC_ROUNDTRIP
360
2906
  0
DICTIONARY
  5
2907
330
294
100
AcDbDictionary
280
     1
281
     1
  3
ACAD_XREC_ROUNDTRIP
360
2908
  0
DICTIONARY
  5
27C6
330
27C5
100
AcDbDictionary
280
     1
281
     1
  3
ACAD_XREC_ROUNDTRIP
360
290A
  3
BUMPTILE
360
27C8
  3
DIFFUSETILE
360
27C7
  3
OPACITYTILE
360
27CB
  3
REFLECTIONTILE
360
27CA
  3
REFRACTIONTILE
360
27CC
  3
SPECULARTILE
360
27C9
  0
DICTIONARY
  5
27BE
330
27BD
100
AcDbDictionary
280
     1
281
     1
  3
ACAD_XREC_ROUNDTRIP
360
2909
  3
BUMPTILE
360
27C0
  3
DIFFUSETILE
360
27BF
  3
OPACITYTILE
360
27C3
  3
REFLECTIONTILE
360
27C2
  3
REFRACTIONTILE
360
27C4
  3
SPECULARTILE
360
27C1
  0
DICTIONARY
  5
27CE
330
27CD
100
AcDbDictionary
280
     1
281
     1
  3
ACAD_XREC_ROUNDTRIP
360
290B
  3
BUMPTILE
360
27D0
  3
DIFFUSETILE
360
27CF
  3
OPACITYTILE
360
27D3
  3
REFLECTIONTILE
360
27D2
  3
REFRACTIONTILE
360
27D4
  3
SPECULARTILE
360
27D1
  0
DICTIONARY
  5
281B
330
27F0
100
AcDbDictionary
280
     1
281
     1
  3
ACAD_ROUNDTRIP_2008_TABLESTYLE_CELLSTYLEMAP
360
28FE
  3
ACAD_XREC_ROUNDTRIP
360
293C
  0
DICTIONARY
  5
2916
330
27DB
100
AcDbDictionary
280
     1
281
     1
  3
ACAD_XREC_ROUNDTRIP
360
2917
  0
DICTIONARY
  5
2914
330
27DA
100
AcDbDictionary
280
     1
281
     1
  3
ACAD_XREC_ROUNDTRIP
360
2915
  0
DICTIONARY
  5
2922
330
27E1
100
AcDbDictionary
280
     1
281
     1
  3
ACAD_XREC_ROUNDTRIP
360
2923
  0
DICTIONARY
  5
292A
330
27E5
100
AcDbDictionary
280
     1
281
     1
  3
ACAD_XREC_ROUNDTRIP
360
292B
  0
DICTIONARY
  5
291C
330
27DE
100
AcDbDictionary
280
     1
281
     1
  3
ACAD_XREC_ROUNDTRIP
360
291D
  0
DICTIONARY
  5
2920
330
27E0
100
AcDbDictionary
280
     1
281
     1
  3
ACAD_XREC_ROUNDTRIP
360
2921
  0
DICTIONARY
  5
293A
330
27ED
100
AcDbDictionary
280
     1
281
     1
  3
ACAD_XREC_ROUNDTRIP
360
293B
  0
DICTIONARY
  5
2928
330
27E4
100
AcDbDictionary
280
     1
281
     1
  3
ACAD_XREC_ROUNDTRIP
360
2929
  0
DICTIONARY
  5
290C
330
27D6
100
AcDbDictionary
280
     1
281
     1
  3
ACAD_XREC_ROUNDTRIP
360
290D
  0
DICTIONARY
  5
290E
330
27D7
100
AcDbDictionary
280
     1
281
     1
  3
ACAD_XREC_ROUNDTRIP
360
290F
  0
DICTIONARY
  5
2910
330
27D8
100
AcDbDictionary
280
     1
281
     1
  3
ACAD_XREC_ROUNDTRIP
360
2911
  0
DICTIONARY
  5
2912
330
27D9
100
AcDbDictionary
280
     1
281
     1
  3
ACAD_XREC_ROUNDTRIP
360
2913
  0
DICTIONARY
  5
291A
330
27DD
100
AcDbDictionary
280
     1
281
     1
  3
ACAD_XREC_ROUNDTRIP
360
291B
  0
DICTIONARY
  5
2936
330
27EB
100
AcDbDictionary
280
     1
281
     1
  3
ACAD_XREC_ROUNDTRIP
360
2937
  0
DICTIONARY
  5
2926
330
27E3
100
AcDbDictionary
280
     1
281
     1
  3
ACAD_XREC_ROUNDTRIP
360
2927
  0
DICTIONARY
  5
2938
330
27EC
100
AcDbDictionary
280
     1
281
     1
  3
ACAD_XREC_ROUNDTRIP
360
2939
  0
DICTIONARY
  5
291E
330
27DF
100
AcDbDictionary
280
     1
281
     1
  3
ACAD_XREC_ROUNDTRIP
360
291F
  0
DICTIONARY
  5
2934
330
27EA
100
AcDbDictionary
280
     1
281
     1
  3
ACAD_XREC_ROUNDTRIP
360
2935
  0
DICTIONARY
  5
2932
330
27E9
100
AcDbDictionary
280
     1
281
     1
  3
ACAD_XREC_ROUNDTRIP
360
2933
  0
DICTIONARY
  5
292C
330
27E6
100
AcDbDictionary
280
     1
281
     1
  3
ACAD_XREC_ROUNDTRIP
360
292D
  0
DICTIONARY
  5
292E
330
27E7
100
AcDbDictionary
280
     1
281
     1
  3
ACAD_XREC_ROUNDTRIP
360
292F
  0
DICTIONARY
  5
2924
330
27E2
100
AcDbDictionary
280
     1
281
     1
  3
ACAD_XREC_ROUNDTRIP
360
2925
  0
DICTIONARY
  5
2918
330
27DC
100
AcDbDictionary
280
     1
281
     1
  3
ACAD_XREC_ROUNDTRIP
360
2919
  0
DICTIONARY
  5
2930
330
27E8
100
AcDbDictionary
280
     1
281
     1
  3
ACAD_XREC_ROUNDTRIP
360
2931
  0
XRECORD
  5
2906
102
{ACAD_REACTORS
330
2905
102
}
330
2905
100
AcDbXrecord
280
     1
102
SHADEPLOT
 70
     0
102
SHADEPLOTRESLEVEL
 70
     2
102
SHADEPLOTCUSTOMDPI
 70
   300
  0
XRECORD
  5
2908
102
{ACAD_REACTORS
330
2907
102
}
330
2907
100
AcDbXrecord
280
     1
102
SHADEPLOT
 70
     0
102
SHADEPLOTRESLEVEL
 70
     2
102
SHADEPLOTCUSTOMDPI
 70
   300
  0
XRECORD
  5
290A
102
{ACAD_REACTORS
330
27C6
102
}
330
27C6
100
AcDbXrecord
280
     1
102
MATERIAL
148
0.0
149
0.0
149
0.0
 93
        0
 94
      127
282
     0
 72
     0
 77
     0
171
     0
175
     0
179
     0
273
     0
  0
XRECORD
  5
27C8
102
{ACAD_REACTORS
330
27C6
102
}
330
27C6
100
AcDbXrecord
280
     1
270
     1
271
     1
  0
XRECORD
  5
27C7
102
{ACAD_REACTORS
330
27C6
102
}
330
27C6
100
AcDbXrecord
280
     1
270
     1
271
     1
  0
XRECORD
  5
27CB
102
{ACAD_REACTORS
330
27C6
102
}
330
27C6
100
AcDbXrecord
280
     1
270
     1
271
     1
  0
XRECORD
  5
27CA
102
{ACAD_REACTORS
330
27C6
102
}
330
27C6
100
AcDbXrecord
280
     1
270
     1
271
     1
  0
XRECORD
  5
27CC
102
{ACAD_REACTORS
330
27C6
102
}
330
27C6
100
AcDbXrecord
280
     1
270
     1
271
     1
  0
XRECORD
  5
27C9
102
{ACAD_REACTORS
330
27C6
102
}
330
27C6
100
AcDbXrecord
280
     1
270
     1
271
     1
  0
XRECORD
  5
2909
102
{ACAD_REACTORS
330
27BE
102
}
330
27BE
100
AcDbXrecord
280
     1
102
MATERIAL
148
0.0
149
0.0
149
0.0
 93
        0
 94
      127
282
     0
 72
     0
 77
     0
171
     0
175
     0
179
     0
273
     0
  0
XRECORD
  5
27C0
102
{ACAD_REACTORS
330
27BE
102
}
330
27BE
100
AcDbXrecord
280
     1
270
     1
271
     1
  0
XRECORD
  5
27BF
102
{ACAD_REACTORS
330
27BE
102
}
330
27BE
100
AcDbXrecord
280
     1
270
     1
271
     1
  0
XRECORD
  5
27C3
102
{ACAD_REACTORS
330
27BE
102
}
330
27BE
100
AcDbXrecord
280
     1
270
     1
271
     1
  0
XRECORD
  5
27C2
102
{ACAD_REACTORS
330
27BE
102
}
330
27BE
100
AcDbXrecord
280
     1
270
     1
271
     1
  0
XRECORD
  5
27C4
102
{ACAD_REACTORS
330
27BE
102
}
330
27BE
100
AcDbXrecord
280
     1
270
     1
271
     1
  0
XRECORD
  5
27C1
102
{ACAD_REACTORS
330
27BE
102
}
330
27BE
100
AcDbXrecord
280
     1
270
     1
271
     1
  0
XRECORD
  5
290B
102
{ACAD_REACTORS
330
27CE
102
}
330
27CE
100
AcDbXrecord
280
     1
102
MATERIAL
148
0.0
149
0.0
149
0.0
 93
        0
 94
      127
282
     0
 72
     0
 77
     0
171
     0
175
     0
179
     0
273
     0
  0
XRECORD
  5
27D0
102
{ACAD_REACTORS
330
27CE
102
}
330
27CE
100
AcDbXrecord
280
     1
270
     1
271
     1
  0
XRECORD
  5
27CF
102
{ACAD_REACTORS
330
27CE
102
}
330
27CE
100
AcDbXrecord
280
     1
270
     1
271
     1
  0
XRECORD
  5
27D3
102
{ACAD_REACTORS
330
27CE
102
}
330
27CE
100
AcDbXrecord
280
     1
270
     1
271
     1
  0
XRECORD
  5
27D2
102
{ACAD_REACTORS
330
27CE
102
}
330
27CE
100
AcDbXrecord
280
     1
270
     1
271
     1
  0
XRECORD
  5
27D4
102
{ACAD_REACTORS
330
27CE
102
}
330
27CE
100
AcDbXrecord
280
     1
270
     1
271
     1
  0
XRECORD
  5
27D1
102
{ACAD_REACTORS
330
27CE
102
}
330
27CE
100
AcDbXrecord
280
     1
270
     1
271
     1
  0
CELLSTYLEMAP
  5
28FE
102
{ACAD_REACTORS
330
281B
102
}
330
281B
100
AcDbCellStyleMap
 90
        3
300
CELLSTYLE
  1
TABLEFORMAT_BEGIN
 90
        5
170
     1
 91
        0
 92
    32768
 62
   257
 93
        1
300
CONTENTFORMAT
  1
CONTENTFORMAT_BEGIN
 90
        0
 91
        0
 92
      512
 93
        0
300

 40
0.0
140
1.0
 94
        5
 62
     0
340
10
144
6.0
309
CONTENTFORMAT_END
171
     1
301
MARGIN
  1
CELLMARGIN_BEGIN
 40
1.5
 40
1.5
 40
1.5
 40
1.5
 40
4.5
 40
4.5
309
CELLMARGIN_END
 94
        6
 95
        1
302
GRIDFORMAT
  1
GRIDFORMAT_BEGIN
 90
        0
 91
        1
 62
     0
 92
       -2
340
0
 93
        0
 40
1.125
309
GRIDFORMAT_END
 95
        2
302
GRIDFORMAT
  1
GRIDFORMAT_BEGIN
 90
        0
 91
        1
 62
     0
 92
       -2
340
0
 93
        0
 40
1.125
309
GRIDFORMAT_END
 95
        4
302
GRIDFORMAT
  1
GRIDFORMAT_BEGIN
 90
        0
 91
        1
 62
     0
 92
       -2
340
0
 93
        0
 40
1.125
309
GRIDFORMAT_END
 95
        8
302
GRIDFORMAT
  1
GRIDFORMAT_BEGIN
 90
        0
 91
        1
 62
     0
 92
       -2
340
0
 93
        0
 40
1.125
309
GRIDFORMAT_END
 95
       16
302
GRIDFORMAT
  1
GRIDFORMAT_BEGIN
 90
        0
 91
        1
 62
     0
 92
       -2
340
0
 93
        0
 40
1.125
309
GRIDFORMAT_END
 95
       32
302
GRIDFORMAT
  1
GRIDFORMAT_BEGIN
 90
        0
 91
        1
 62
     0
 92
       -2
340
0
 93
        0
 40
1.125
309
GRIDFORMAT_END
309
TABLEFORMAT_END
  1
CELLSTYLE_BEGIN
 90
        1
 91
        1
300
_TITLE
309
CELLSTYLE_END
300
CELLSTYLE
  1
TABLEFORMAT_BEGIN
 90
        5
170
     1
 91
        0
 92
        0
 62
   257
 93
        1
300
CONTENTFORMAT
  1
CONTENTFORMAT_BEGIN
 90
        0
 91
        0
 92
      512
 93
        0
300

 40
0.0
140
1.0
 94
        5
 62
     0
340
10
144
4.5
309
CONTENTFORMAT_END
171
     1
301
MARGIN
  1
CELLMARGIN_BEGIN
 40
1.5
 40
1.5
 40
1.5
 40
1.5
 40
4.5
 40
4.5
309
CELLMARGIN_END
 94
        6
 95
        1
302
GRIDFORMAT
  1
GRIDFORMAT_BEGIN
 90
        0
 91
        1
 62
     0
 92
       -2
340
0
 93
        0
 40
1.125
309
GRIDFORMAT_END
 95
        2
302
GRIDFORMAT
  1
GRIDFORMAT_BEGIN
 90
        0
 91
        1
 62
     0
 92
       -2
340
0
 93
        0
 40
1.125
309
GRIDFORMAT_END
 95
        4
302
GRIDFORMAT
  1
GRIDFORMAT_BEGIN
 90
        0
 91
        1
 62
     0
 92
       -2
340
0
 93
        0
 40
1.125
309
GRIDFORMAT_END
 95
        8
302
GRIDFORMAT
  1
GRIDFORMAT_BEGIN
 90
        0
 91
        1
 62
     0
 92
       -2
340
0
 93
        0
 40
1.125
309
GRIDFORMAT_END
 95
       16
302
GRIDFORMAT
  1
GRIDFORMAT_BEGIN
 90
        0
 91
        1
 62
     0
 92
       -2
340
0
 93
        0
 40
1.125
309
GRIDFORMAT_END
 95
       32
302
GRIDFORMAT
  1
GRIDFORMAT_BEGIN
 90
        0
 91
        1
 62
     0
 92
       -2
340
0
 93
        0
 40
1.125
309
GRIDFORMAT_END
309
TABLEFORMAT_END
  1
CELLSTYLE_BEGIN
 90
        2
 91
        1
300
_HEADER
309
CELLSTYLE_END
300
CELLSTYLE
  1
TABLEFORMAT_BEGIN
 90
        5
170
     1
 91
        0
 92
        0
 62
   257
 93
        1
300
CONTENTFORMAT
  1
CONTENTFORMAT_BEGIN
 90
        0
 91
        0
 92
      512
 93
        0
300

 40
0.0
140
1.0
 94
        2
 62
     0
340
10
144
4.5
309
CONTENTFORMAT_END
171
     1
301
MARGIN
  1
CELLMARGIN_BEGIN
 40
1.5
 40
1.5
 40
1.5
 40
1.5
 40
4.5
 40
4.5
309
CELLMARGIN_END
 94
        6
 95
        1
302
GRIDFORMAT
  1
GRIDFORMAT_BEGIN
 90
        0
 91
        1
 62
     0
 92
       -2
340
0
 93
        0
 40
1.125
309
GRIDFORMAT_END
 95
        2
302
GRIDFORMAT
  1
GRIDFORMAT_BEGIN
 90
        0
 91
        1
 62
     0
 92
       -2
340
0
 93
        0
 40
1.125
309
GRIDFORMAT_END
 95
        4
302
GRIDFORMAT
  1
GRIDFORMAT_BEGIN
 90
        0
 91
        1
 62
     0
 92
       -2
340
0
 93
        0
 40
1.125
309
GRIDFORMAT_END
 95
        8
302
GRIDFORMAT
  1
GRIDFORMAT_BEGIN
 90
        0
 91
        1
 62
     0
 92
       -2
340
0
 93
        0
 40
1.125
309
GRIDFORMAT_END
 95
       16
302
GRIDFORMAT
  1
GRIDFORMAT_BEGIN
 90
        0
 91
        1
 62
     0
 92
       -2
340
0
 93
        0
 40
1.125
309
GRIDFORMAT_END
 95
       32
302
GRIDFORMAT
  1
GRIDFORMAT_BEGIN
 90
        0
 91
        1
 62
     0
 92
       -2
340
0
 93
        0
 40
1.125
309
GRIDFORMAT_END
309
TABLEFORMAT_END
  1
CELLSTYLE_BEGIN
 90
        3
 91
        2
300
_DATA
309
CELLSTYLE_END
  0
XRECORD
  5
293C
102
{ACAD_REACTORS
330
281B
102
}
330
281B
100
AcDbXrecord
280
     1
102
ACAD_ROUNDTRIP_PRE2007_TABLESTYLE
 90
      512
 91
        0
  1

 92
      512
 93
        0
  2

 94
      512
 95
        0
  3

  0
XRECORD
  5
2917
102
{ACAD_REACTORS
330
2916
102
}
330
2916
100
AcDbXrecord
280
     1
102
RTVSPropertyOp0
 70
     1
102
RTVSPropertyOp1
 70
     1
102
RTVSPropertyOp2
 70
     1
102
RTVSPropertyOp3
 70
     1
102
RTVSPropertyOp4
 70
     1
102
RTVSPropertyOp5
 70
     1
102
RTVSPropertyOp6
 70
     1
102
RTVSPropertyOp7
 70
     1
102
RTVSPropertyOp8
 70
     1
102
RTVSPropertyOp9
 70
     1
102
RTVSPropertyOp10
 70
     1
102
RTVSPropertyOp11
 70
     1
102
RTVSPropertyOp12
 70
     1
102
RTVSPropertyOp13
 70
     1
102
RTVSPropertyOp14
 70
     1
102
RTVSPropertyOp15
 70
     1
102
RTVSPropertyOp16
 70
     1
102
RTVSPropertyOp17
 70
     1
102
RTVSPropertyOp18
 70
     1
102
RTVSPropertyOp19
 70
     1
102
RTVSPropertyOp20
 70
     1
102
RTVSPropertyOp21
 70
     1
102
RTVSPropertyOp22
 70
     1
102
RTVSPropertyOp23
 70
     1
102
RTVSPropertyOp24
 70
     1
102
RTVSPropertyOp25
 70
     1
102
RTVSPropertyOp26
 70
     1
102
RTVSPropertyOp27
 70
     1
102
RTVSPropertyOp28
 70
     1
102
RTVSPropertyOp29
 70
     1
102
RTVSPropertyOp30
 70
     1
102
RTVSPropertyOp31
 70
     1
102
RTVSPropertyOp32
 70
     1
  0
XRECORD
  5
2915
102
{ACAD_REACTORS
330
2914
102
}
330
2914
100
AcDbXrecord
280
     1
102
RTVSPropertyOp0
 70
     1
102
RTVSPropertyOp1
 70
     1
102
RTVSPropertyOp2
 70
     1
102
RTVSPropertyOp3
 70
     1
102
RTVSPropertyOp4
 70
     1
102
RTVSPropertyOp5
 70
     1
102
RTVSPropertyOp6
 70
     1
102
RTVSPropertyOp7
 70
     1
102
RTVSPropertyOp8
 70
     1
102
RTVSPropertyOp9
 70
     1
102
RTVSPropertyOp10
 70
     1
102
RTVSPropertyOp11
 70
     1
102
RTVSPropertyOp12
 70
     1
102
RTVSPropertyOp13
 70
     1
102
RTVSPropertyOp14
 70
     1
102
RTVSPropertyOp15
 70
     1
102
RTVSPropertyOp16
 70
     1
102
RTVSPropertyOp17
 70
     1
102
RTVSPropertyOp18
 70
     1
102
RTVSPropertyOp19
 70
     1
102
RTVSPropertyOp20
 70
     1
102
RTVSPropertyOp21
 70
     1
102
RTVSPropertyOp22
 70
     1
102
RTVSPropertyOp23
 70
     1
102
RTVSPropertyOp24
 70
     1
102
RTVSPropertyOp25
 70
     1
102
RTVSPropertyOp26
 70
     1
102
RTVSPropertyOp27
 70
     1
102
RTVSPropertyOp28
 70
     1
102
RTVSPropertyOp29
 70
     1
102
RTVSPropertyOp30
 70
     1
102
RTVSPropertyOp31
 70
     1
102
RTVSPropertyOp32
 70
     1
  0
XRECORD
  5
2923
102
{ACAD_REACTORS
330
2922
102
}
330
2922
100
AcDbXrecord
280
     1
102
RTVSPropertyOp0
 70
     1
102
RTVSPropertyOp1
 70
     1
102
RTVSPropertyOp2
 70
     1
102
RTVSPropertyOp3
 70
     1
102
RTVSPropertyOp4
 70
     1
102
RTVSPropertyOp5
 70
     1
102
RTVSPropertyOp6
 70
     1
102
RTVSPropertyOp7
 70
     1
102
RTVSPropertyOp8
 70
     1
102
RTVSPropertyOp9
 70
     1
102
RTVSPropertyOp10
 70
     1
102
RTVSPropertyOp11
 70
     1
102
RTVSPropertyOp12
 70
     1
102
RTVSPropertyOp13
 70
     1
102
RTVSPropertyOp14
 70
     1
102
RTVSPropertyOp15
 70
     1
102
RTVSPropertyOp16
 70
     1
102
RTVSPropertyOp17
 70
     1
102
RTVSPropertyOp18
 70
     1
102
RTVSPropertyOp19
 70
     1
102
RTVSPropertyOp20
 70
     1
102
RTVSPropertyOp21
 70
     1
102
RTVSPropertyOp22
 70
     1
102
RTVSPropertyOp23
 70
     1
102
RTVSPropertyOp24
 70
     1
102
RTVSPropertyOp25
 70
     1
102
RTVSPropertyOp26
 70
     1
102
RTVSPropertyOp27
 70
     1
102
RTVSPropertyOp28
 70
     1
102
RTVSPropertyOp29
 70
     1
102
RTVSPropertyOp30
 70
     1
102
RTVSPropertyOp31
 70
     1
102
RTVSPropertyOp32
 70
     1
  0
XRECORD
  5
292B
102
{ACAD_REACTORS
330
292A
102
}
330
292A
100
AcDbXrecord
280
     1
102
RTVSPropertyOp0
 70
     1
102
RTVSPropertyOp1
 70
     1
102
RTVSPropertyOp2
 70
     1
102
RTVSPropertyOp3
 70
     1
102
RTVSPropertyOp4
 70
     1
102
RTVSPropertyOp5
 70
     1
102
RTVSPropertyOp6
 70
     1
102
RTVSPropertyOp7
 70
     1
102
RTVSPropertyOp8
 70
     1
102
RTVSPropertyOp9
 70
     1
102
RTVSPropertyOp10
 70
     1
102
RTVSPropertyOp11
 70
     1
102
RTVSPropertyOp12
 70
     1
102
RTVSPropertyOp13
 70
     1
102
RTVSPropertyOp14
 70
     1
102
RTVSPropertyOp15
 70
     1
102
RTVSPropertyOp16
 70
     1
102
RTVSPropertyOp17
 70
     1
102
RTVSPropertyOp18
 70
     1
102
RTVSPropertyOp19
 70
     1
102
RTVSPropertyOp20
 70
     1
102
RTVSPropertyOp21
 70
     1
102
RTVSPropertyOp22
 70
     1
102
RTVSPropertyOp23
 70
     1
102
RTVSPropertyOp24
 70
     1
102
RTVSPropertyOp25
 70
     1
102
RTVSPropertyOp26
 70
     1
102
RTVSPropertyOp27
 70
     1
102
RTVSPropertyOp28
 70
     1
102
RTVSPropertyOp29
 70
     1
102
RTVSPropertyOp30
 70
     1
102
RTVSPropertyOp31
 70
     1
102
RTVSPropertyOp32
 70
     1
  0
XRECORD
  5
291D
102
{ACAD_REACTORS
330
291C
102
}
330
291C
100
AcDbXrecord
280
     1
102
RTVSPropertyOp0
 70
     1
102
RTVSPropertyOp1
 70
     1
102
RTVSPropertyOp2
 70
     1
102
RTVSPropertyOp3
 70
     1
102
RTVSPropertyOp4
 70
     1
102
RTVSPropertyOp5
 70
     1
102
RTVSPropertyOp6
 70
     1
102
RTVSPropertyOp7
 70
     1
102
RTVSPropertyOp8
 70
     1
102
RTVSPropertyOp9
 70
     1
102
RTVSPropertyOp10
 70
     1
102
RTVSPropertyOp11
 70
     1
102
RTVSPropertyOp12
 70
     1
102
RTVSPropertyOp13
 70
     1
102
RTVSPropertyOp14
 70
     1
102
RTVSPropertyOp15
 70
     1
102
RTVSPropertyOp16
 70
     1
102
RTVSPropertyOp17
 70
     1
102
RTVSPropertyOp18
 70
     1
102
RTVSPropertyOp19
 70
     1
102
RTVSPropertyOp20
 70
     1
102
RTVSPropertyOp21
 70
     1
102
RTVSPropertyOp22
 70
     1
102
RTVSPropertyOp23
 70
     1
102
RTVSPropertyOp24
 70
     1
102
RTVSPropertyOp25
 70
     1
102
RTVSPropertyOp26
 70
     1
102
RTVSPropertyOp27
 70
     1
102
RTVSPropertyOp28
 70
     1
102
RTVSPropertyOp29
 70
     1
102
RTVSPropertyOp30
 70
     1
102
RTVSPropertyOp31
 70
     1
102
RTVSPropertyOp32
 70
     1
  0
XRECORD
  5
2921
102
{ACAD_REACTORS
330
2920
102
}
330
2920
100
AcDbXrecord
280
     1
102
RTVSPropertyOp0
 70
     1
102
RTVSPropertyOp1
 70
     1
102
RTVSPropertyOp2
 70
     1
102
RTVSPropertyOp3
 70
     1
102
RTVSPropertyOp4
 70
     1
102
RTVSPropertyOp5
 70
     1
102
RTVSPropertyOp6
 70
     1
102
RTVSPropertyOp7
 70
     1
102
RTVSPropertyOp8
 70
     1
102
RTVSPropertyOp9
 70
     1
102
RTVSPropertyOp10
 70
     1
102
RTVSPropertyOp11
 70
     1
102
RTVSPropertyOp12
 70
     1
102
RTVSPropertyOp13
 70
     1
102
RTVSPropertyOp14
 70
     1
102
RTVSPropertyOp15
 70
     1
102
RTVSPropertyOp16
 70
     1
102
RTVSPropertyOp17
 70
     1
102
RTVSPropertyOp18
 70
     1
102
RTVSPropertyOp19
 70
     1
102
RTVSPropertyOp20
 70
     1
102
RTVSPropertyOp21
 70
     1
102
RTVSPropertyOp22
 70
     1
102
RTVSPropertyOp23
 70
     1
102
RTVSPropertyOp24
 70
     1
102
RTVSPropertyOp25
 70
     1
102
RTVSPropertyOp26
 70
     1
102
RTVSPropertyOp27
 70
     1
102
RTVSPropertyOp28
 70
     1
102
RTVSPropertyOp29
 70
     1
102
RTVSPropertyOp30
 70
     1
102
RTVSPropertyOp31
 70
     1
102
RTVSPropertyOp32
 70
     1
  0
XRECORD
  5
293B
102
{ACAD_REACTORS
330
293A
102
}
330
293A
100
AcDbXrecord
280
     1
102
RTVSPropertyOp0
 70
     0
102
RTVSPropertyOp1
 70
     0
102
RTVSPropertyOp2
 70
     0
102
RTVSPropertyOp3
 70
     0
102
RTVSPropertyOp4
 70
     0
102
RTVSPropertyOp5
 70
     0
102
RTVSPropertyOp6
 70
     0
102
RTVSPropertyOp7
 70
     0
102
RTVSPropertyOp8
 70
     0
102
RTVSPropertyOp9
 70
     0
102
RTVSPropertyOp10
 70
     0
102
RTVSPropertyOp11
 70
     0
102
RTVSPropertyOp12
 70
     0
102
RTVSPropertyOp13
 70
     0
102
RTVSPropertyOp14
 70
     2
102
RTVSPropertyOp15
 70
     0
102
RTVSPropertyOp16
 70
     0
102
RTVSPropertyOp17
 70
     0
102
RTVSPropertyOp18
 70
     0
102
RTVSPropertyOp19
 70
     0
102
RTVSPropertyOp20
 70
     0
102
RTVSPropertyOp21
 70
     0
102
RTVSPropertyOp22
 70
     0
102
RTVSPropertyOp23
 70
     0
102
RTVSPropertyOp24
 70
     0
102
RTVSPropertyOp25
 70
     0
102
RTVSPropertyOp26
 70
     0
102
RTVSPropertyOp27
 70
     0
102
RTVSPropertyOp28
 70
     0
102
RTVSPropertyOp29
 70
     0
102
RTVSPropertyOp30
 70
     0
102
RTVSPropertyOp31
 70
     0
102
RTVSPropertyOp32
 70
     0
  0
XRECORD
  5
2929
102
{ACAD_REACTORS
330
2928
102
}
330
2928
100
AcDbXrecord
280
     1
102
RTVSPropertyOp0
 70
     1
102
RTVSPropertyOp1
 70
     1
102
RTVSPropertyOp2
 70
     1
102
RTVSPropertyOp3
 70
     1
102
RTVSPropertyOp4
 70
     1
102
RTVSPropertyOp5
 70
     1
102
RTVSPropertyOp6
 70
     1
102
RTVSPropertyOp7
 70
     1
102
RTVSPropertyOp8
 70
     1
102
RTVSPropertyOp9
 70
     1
102
RTVSPropertyOp10
 70
     1
102
RTVSPropertyOp11
 70
     1
102
RTVSPropertyOp12
 70
     1
102
RTVSPropertyOp13
 70
     1
102
RTVSPropertyOp14
 70
     1
102
RTVSPropertyOp15
 70
     1
102
RTVSPropertyOp16
 70
     1
102
RTVSPropertyOp17
 70
     1
102
RTVSPropertyOp18
 70
     1
102
RTVSPropertyOp19
 70
     1
102
RTVSPropertyOp20
 70
     1
102
RTVSPropertyOp21
 70
     1
102
RTVSPropertyOp22
 70
     1
102
RTVSPropertyOp23
 70
     1
102
RTVSPropertyOp24
 70
     1
102
RTVSPropertyOp25
 70
     1
102
RTVSPropertyOp26
 70
     1
102
RTVSPropertyOp27
 70
     1
102
RTVSPropertyOp28
 70
     1
102
RTVSPropertyOp29
 70
     1
102
RTVSPropertyOp30
 70
     1
102
RTVSPropertyOp31
 70
     1
102
RTVSPropertyOp32
 70
     1
  0
XRECORD
  5
290D
102
{ACAD_REACTORS
330
290C
102
}
330
290C
100
AcDbXrecord
280
     1
102
RTVSPropertyOp0
 70
     1
102
RTVSPropertyOp1
 70
     1
102
RTVSPropertyOp2
 70
     1
102
RTVSPropertyOp3
 70
     1
102
RTVSPropertyOp4
 70
     1
102
RTVSPropertyOp5
 70
     1
102
RTVSPropertyOp6
 70
     1
102
RTVSPropertyOp7
 70
     1
102
RTVSPropertyOp8
 70
     1
102
RTVSPropertyOp9
 70
     1
102
RTVSPropertyOp10
 70
     1
102
RTVSPropertyOp11
 70
     1
102
RTVSPropertyOp12
 70
     1
102
RTVSPropertyOp13
 70
     1
102
RTVSPropertyOp14
 70
     1
102
RTVSPropertyOp15
 70
     1
102
RTVSPropertyOp16
 70
     1
102
RTVSPropertyOp17
 70
     1
102
RTVSPropertyOp18
 70
     1
102
RTVSPropertyOp19
 70
     1
102
RTVSPropertyOp20
 70
     1
102
RTVSPropertyOp21
 70
     1
102
RTVSPropertyOp22
 70
     1
102
RTVSPropertyOp23
 70
     1
102
RTVSPropertyOp24
 70
     1
102
RTVSPropertyOp25
 70
     1
102
RTVSPropertyOp26
 70
     1
102
RTVSPropertyOp27
 70
     1
102
RTVSPropertyOp28
 70
     1
102
RTVSPropertyOp29
 70
     1
102
RTVSPropertyOp30
 70
     1
102
RTVSPropertyOp31
 70
     1
102
RTVSPropertyOp32
 70
     1
  0
XRECORD
  5
290F
102
{ACAD_REACTORS
330
290E
102
}
330
290E
100
AcDbXrecord
280
     1
102
RTVSPropertyOp0
 70
     1
102
RTVSPropertyOp1
 70
     1
102
RTVSPropertyOp2
 70
     1
102
RTVSPropertyOp3
 70
     1
102
RTVSPropertyOp4
 70
     1
102
RTVSPropertyOp5
 70
     1
102
RTVSPropertyOp6
 70
     1
102
RTVSPropertyOp7
 70
     1
102
RTVSPropertyOp8
 70
     1
102
RTVSPropertyOp9
 70
     1
102
RTVSPropertyOp10
 70
     1
102
RTVSPropertyOp11
 70
     1
102
RTVSPropertyOp12
 70
     1
102
RTVSPropertyOp13
 70
     1
102
RTVSPropertyOp14
 70
     1
102
RTVSPropertyOp15
 70
     1
102
RTVSPropertyOp16
 70
     1
102
RTVSPropertyOp17
 70
     1
102
RTVSPropertyOp18
 70
     1
102
RTVSPropertyOp19
 70
     1
102
RTVSPropertyOp20
 70
     1
102
RTVSPropertyOp21
 70
     1
102
RTVSPropertyOp22
 70
     1
102
RTVSPropertyOp23
 70
     1
102
RTVSPropertyOp24
 70
     1
102
RTVSPropertyOp25
 70
     1
102
RTVSPropertyOp26
 70
     1
102
RTVSPropertyOp27
 70
     1
102
RTVSPropertyOp28
 70
     1
102
RTVSPropertyOp29
 70
     1
102
RTVSPropertyOp30
 70
     1
102
RTVSPropertyOp31
 70
     1
102
RTVSPropertyOp32
 70
     1
  0
XRECORD
  5
2911
102
{ACAD_REACTORS
330
2910
102
}
330
2910
100
AcDbXrecord
280
     1
102
RTVSPropertyOp0
 70
     1
102
RTVSPropertyOp1
 70
     1
102
RTVSPropertyOp2
 70
     1
102
RTVSPropertyOp3
 70
     1
102
RTVSPropertyOp4
 70
     1
102
RTVSPropertyOp5
 70
     1
102
RTVSPropertyOp6
 70
     1
102
RTVSPropertyOp7
 70
     1
102
RTVSPropertyOp8
 70
     1
102
RTVSPropertyOp9
 70
     1
102
RTVSPropertyOp10
 70
     1
102
RTVSPropertyOp11
 70
     1
102
RTVSPropertyOp12
 70
     1
102
RTVSPropertyOp13
 70
     1
102
RTVSPropertyOp14
 70
     1
102
RTVSPropertyOp15
 70
     1
102
RTVSPropertyOp16
 70
     1
102
RTVSPropertyOp17
 70
     1
102
RTVSPropertyOp18
 70
     1
102
RTVSPropertyOp19
 70
     1
102
RTVSPropertyOp20
 70
     1
102
RTVSPropertyOp21
 70
     1
102
RTVSPropertyOp22
 70
     1
102
RTVSPropertyOp23
 70
     1
102
RTVSPropertyOp24
 70
     1
102
RTVSPropertyOp25
 70
     1
102
RTVSPropertyOp26
 70
     1
102
RTVSPropertyOp27
 70
     1
102
RTVSPropertyOp28
 70
     1
102
RTVSPropertyOp29
 70
     1
102
RTVSPropertyOp30
 70
     1
102
RTVSPropertyOp31
 70
     1
102
RTVSPropertyOp32
 70
     1
  0
XRECORD
  5
2913
102
{ACAD_REACTORS
330
2912
102
}
330
2912
100
AcDbXrecord
280
     1
102
RTVSPropertyOp0
 70
     1
102
RTVSPropertyOp1
 70
     1
102
RTVSPropertyOp2
 70
     1
102
RTVSPropertyOp3
 70
     1
102
RTVSPropertyOp4
 70
     1
102
RTVSPropertyOp5
 70
     1
102
RTVSPropertyOp6
 70
     1
102
RTVSPropertyOp7
 70
     1
102
RTVSPropertyOp8
 70
     1
102
RTVSPropertyOp9
 70
     1
102
RTVSPropertyOp10
 70
     1
102
RTVSPropertyOp11
 70
     1
102
RTVSPropertyOp12
 70
     1
102
RTVSPropertyOp13
 70
     1
102
RTVSPropertyOp14
 70
     1
102
RTVSPropertyOp15
 70
     1
102
RTVSPropertyOp16
 70
     1
102
RTVSPropertyOp17
 70
     1
102
RTVSPropertyOp18
 70
     1
102
RTVSPropertyOp19
 70
     1
102
RTVSPropertyOp20
 70
     1
102
RTVSPropertyOp21
 70
     1
102
RTVSPropertyOp22
 70
     1
102
RTVSPropertyOp23
 70
     1
102
RTVSPropertyOp24
 70
     1
102
RTVSPropertyOp25
 70
     1
102
RTVSPropertyOp26
 70
     1
102
RTVSPropertyOp27
 70
     1
102
RTVSPropertyOp28
 70
     1
102
RTVSPropertyOp29
 70
     1
102
RTVSPropertyOp30
 70
     1
102
RTVSPropertyOp31
 70
     1
102
RTVSPropertyOp32
 70
     1
  0
XRECORD
  5
291B
102
{ACAD_REACTORS
330
291A
102
}
330
291A
100
AcDbXrecord
280
     1
102
RTVSPropertyOp0
 70
     1
102
RTVSPropertyOp1
 70
     1
102
RTVSPropertyOp2
 70
     1
102
RTVSPropertyOp3
 70
     1
102
RTVSPropertyOp4
 70
     1
102
RTVSPropertyOp5
 70
     1
102
RTVSPropertyOp6
 70
     1
102
RTVSPropertyOp7
 70
     1
102
RTVSPropertyOp8
 70
     1
102
RTVSPropertyOp9
 70
     1
102
RTVSPropertyOp10
 70
     1
102
RTVSPropertyOp11
 70
     1
102
RTVSPropertyOp12
 70
     1
102
RTVSPropertyOp13
 70
     1
102
RTVSPropertyOp14
 70
     1
102
RTVSPropertyOp15
 70
     1
102
RTVSPropertyOp16
 70
     1
102
RTVSPropertyOp17
 70
     1
102
RTVSPropertyOp18
 70
     1
102
RTVSPropertyOp19
 70
     1
102
RTVSPropertyOp20
 70
     1
102
RTVSPropertyOp21
 70
     1
102
RTVSPropertyOp22
 70
     1
102
RTVSPropertyOp23
 70
     1
102
RTVSPropertyOp24
 70
     1
102
RTVSPropertyOp25
 70
     1
102
RTVSPropertyOp26
 70
     1
102
RTVSPropertyOp27
 70
     1
102
RTVSPropertyOp28
 70
     1
102
RTVSPropertyOp29
 70
     1
102
RTVSPropertyOp30
 70
     1
102
RTVSPropertyOp31
 70
     1
102
RTVSPropertyOp32
 70
     1
  0
XRECORD
  5
2937
102
{ACAD_REACTORS
330
2936
102
}
330
2936
100
AcDbXrecord
280
     1
102
RTVSPropertyOp0
 70
     0
102
RTVSPropertyOp1
 70
     0
102
RTVSPropertyOp2
 70
     0
102
RTVSPropertyOp3
 70
     0
102
RTVSPropertyOp4
 70
     0
102
RTVSPropertyOp5
 70
     0
102
RTVSPropertyOp6
 70
     0
102
RTVSPropertyOp7
 70
     0
102
RTVSPropertyOp8
 70
     0
102
RTVSPropertyOp9
 70
     0
102
RTVSPropertyOp10
 70
     0
102
RTVSPropertyOp11
 70
     0
102
RTVSPropertyOp12
 70
     0
102
RTVSPropertyOp13
 70
     0
102
RTVSPropertyOp14
 70
     2
102
RTVSPropertyOp15
 70
     0
102
RTVSPropertyOp16
 70
     0
102
RTVSPropertyOp17
 70
     0
102
RTVSPropertyOp18
 70
     0
102
RTVSPropertyOp19
 70
     0
102
RTVSPropertyOp20
 70
     0
102
RTVSPropertyOp21
 70
     0
102
RTVSPropertyOp22
 70
     0
102
RTVSPropertyOp23
 70
     0
102
RTVSPropertyOp24
 70
     0
102
RTVSPropertyOp25
 70
     0
102
RTVSPropertyOp26
 70
     0
102
RTVSPropertyOp27
 70
     0
102
RTVSPropertyOp28
 70
     0
102
RTVSPropertyOp29
 70
     0
102
RTVSPropertyOp30
 70
     0
102
RTVSPropertyOp31
 70
     0
102
RTVSPropertyOp32
 70
     0
  0
XRECORD
  5
2927
102
{ACAD_REACTORS
330
2926
102
}
330
2926
100
AcDbXrecord
280
     1
102
RTVSPropertyOp0
 70
     1
102
RTVSPropertyOp1
 70
     1
102
RTVSPropertyOp2
 70
     1
102
RTVSPropertyOp3
 70
     1
102
RTVSPropertyOp4
 70
     1
102
RTVSPropertyOp5
 70
     1
102
RTVSPropertyOp6
 70
     1
102
RTVSPropertyOp7
 70
     1
102
RTVSPropertyOp8
 70
     1
102
RTVSPropertyOp9
 70
     1
102
RTVSPropertyOp10
 70
     1
102
RTVSPropertyOp11
 70
     1
102
RTVSPropertyOp12
 70
     1
102
RTVSPropertyOp13
 70
     1
102
RTVSPropertyOp14
 70
     1
102
RTVSPropertyOp15
 70
     1
102
RTVSPropertyOp16
 70
     1
102
RTVSPropertyOp17
 70
     1
102
RTVSPropertyOp18
 70
     1
102
RTVSPropertyOp19
 70
     1
102
RTVSPropertyOp20
 70
     1
102
RTVSPropertyOp21
 70
     1
102
RTVSPropertyOp22
 70
     1
102
RTVSPropertyOp23
 70
     1
102
RTVSPropertyOp24
 70
     1
102
RTVSPropertyOp25
 70
     1
102
RTVSPropertyOp26
 70
     1
102
RTVSPropertyOp27
 70
     1
102
RTVSPropertyOp28
 70
     1
102
RTVSPropertyOp29
 70
     1
102
RTVSPropertyOp30
 70
     1
102
RTVSPropertyOp31
 70
     1
102
RTVSPropertyOp32
 70
     1
  0
XRECORD
  5
2939
102
{ACAD_REACTORS
330
2938
102
}
330
2938
100
AcDbXrecord
280
     1
102
RTVSPropertyOp0
 70
     0
102
RTVSPropertyOp1
 70
     0
102
RTVSPropertyOp2
 70
     0
102
RTVSPropertyOp3
 70
     0
102
RTVSPropertyOp4
 70
     0
102
RTVSPropertyOp5
 70
     0
102
RTVSPropertyOp6
 70
     0
102
RTVSPropertyOp7
 70
     0
102
RTVSPropertyOp8
 70
     0
102
RTVSPropertyOp9
 70
     0
102
RTVSPropertyOp10
 70
     0
102
RTVSPropertyOp11
 70
     0
102
RTVSPropertyOp12
 70
     0
102
RTVSPropertyOp13
 70
     0
102
RTVSPropertyOp14
 70
     2
102
RTVSPropertyOp15
 70
     0
102
RTVSPropertyOp16
 70
     0
102
RTVSPropertyOp17
 70
     0
102
RTVSPropertyOp18
 70
     0
102
RTVSPropertyOp19
 70
     0
102
RTVSPropertyOp20
 70
     0
102
RTVSPropertyOp21
 70
     0
102
RTVSPropertyOp22
 70
     0
102
RTVSPropertyOp23
 70
     0
102
RTVSPropertyOp24
 70
     0
102
RTVSPropertyOp25
 70
     0
102
RTVSPropertyOp26
 70
     0
102
RTVSPropertyOp27
 70
     0
102
RTVSPropertyOp28
 70
     0
102
RTVSPropertyOp29
 70
     0
102
RTVSPropertyOp30
 70
     0
102
RTVSPropertyOp31
 70
     0
102
RTVSPropertyOp32
 70
     0
  0
XRECORD
  5
291F
102
{ACAD_REACTORS
330
291E
102
}
330
291E
100
AcDbXrecord
280
     1
102
RTVSPropertyOp0
 70
     1
102
RTVSPropertyOp1
 70
     1
102
RTVSPropertyOp2
 70
     1
102
RTVSPropertyOp3
 70
     1
102
RTVSPropertyOp4
 70
     1
102
RTVSPropertyOp5
 70
     1
102
RTVSPropertyOp6
 70
     1
102
RTVSPropertyOp7
 70
     1
102
RTVSPropertyOp8
 70
     1
102
RTVSPropertyOp9
 70
     1
102
RTVSPropertyOp10
 70
     1
102
RTVSPropertyOp11
 70
     1
102
RTVSPropertyOp12
 70
     1
102
RTVSPropertyOp13
 70
     1
102
RTVSPropertyOp14
 70
     1
102
RTVSPropertyOp15
 70
     1
102
RTVSPropertyOp16
 70
     1
102
RTVSPropertyOp17
 70
     1
102
RTVSPropertyOp18
 70
     1
102
RTVSPropertyOp19
 70
     1
102
RTVSPropertyOp20
 70
     1
102
RTVSPropertyOp21
 70
     1
102
RTVSPropertyOp22
 70
     1
102
RTVSPropertyOp23
 70
     1
102
RTVSPropertyOp24
 70
     1
102
RTVSPropertyOp25
 70
     1
102
RTVSPropertyOp26
 70
     1
102
RTVSPropertyOp27
 70
     1
102
RTVSPropertyOp28
 70
     1
102
RTVSPropertyOp29
 70
     1
102
RTVSPropertyOp30
 70
     1
102
RTVSPropertyOp31
 70
     1
102
RTVSPropertyOp32
 70
     1
  0
XRECORD
  5
2935
102
{ACAD_REACTORS
330
2934
102
}
330
2934
100
AcDbXrecord
280
     1
102
RTVSPropertyOp0
 70
     1
102
RTVSPropertyOp1
 70
     1
102
RTVSPropertyOp2
 70
     1
102
RTVSPropertyOp3
 70
     1
102
RTVSPropertyOp4
 70
     1
102
RTVSPropertyOp5
 70
     1
102
RTVSPropertyOp6
 70
     1
102
RTVSPropertyOp7
 70
     1
102
RTVSPropertyOp8
 70
     1
102
RTVSPropertyOp9
 70
     1
102
RTVSPropertyOp10
 70
     1
102
RTVSPropertyOp11
 70
     1
102
RTVSPropertyOp12
 70
     1
102
RTVSPropertyOp13
 70
     1
102
RTVSPropertyOp14
 70
     1
102
RTVSPropertyOp15
 70
     1
102
RTVSPropertyOp16
 70
     1
102
RTVSPropertyOp17
 70
     1
102
RTVSPropertyOp18
 70
     1
102
RTVSPropertyOp19
 70
     1
102
RTVSPropertyOp20
 70
     1
102
RTVSPropertyOp21
 70
     1
102
RTVSPropertyOp22
 70
     1
102
RTVSPropertyOp23
 70
     1
102
RTVSPropertyOp24
 70
     1
102
RTVSPropertyOp25
 70
     1
102
RTVSPropertyOp26
 70
     1
102
RTVSPropertyOp27
 70
     1
102
RTVSPropertyOp28
 70
     1
102
RTVSPropertyOp29
 70
     1
102
RTVSPropertyOp30
 70
     1
102
RTVSPropertyOp31
 70
     1
102
RTVSPropertyOp32
 70
     1
  0
XRECORD
  5
2933
102
{ACAD_REACTORS
330
2932
102
}
330
2932
100
AcDbXrecord
280
     1
102
RTVSPropertyOp0
 70
     1
102
RTVSPropertyOp1
 70
     1
102
RTVSPropertyOp2
 70
     1
102
RTVSPropertyOp3
 70
     1
102
RTVSPropertyOp4
 70
     1
102
RTVSPropertyOp5
 70
     1
102
RTVSPropertyOp6
 70
     1
102
RTVSPropertyOp7
 70
     1
102
RTVSPropertyOp8
 70
     1
102
RTVSPropertyOp9
 70
     1
102
RTVSPropertyOp10
 70
     1
102
RTVSPropertyOp11
 70
     1
102
RTVSPropertyOp12
 70
     1
102
RTVSPropertyOp13
 70
     1
102
RTVSPropertyOp14
 70
     1
102
RTVSPropertyOp15
 70
     1
102
RTVSPropertyOp16
 70
     1
102
RTVSPropertyOp17
 70
     1
102
RTVSPropertyOp18
 70
     1
102
RTVSPropertyOp19
 70
     1
102
RTVSPropertyOp20
 70
     1
102
RTVSPropertyOp21
 70
     1
102
RTVSPropertyOp22
 70
     1
102
RTVSPropertyOp23
 70
     1
102
RTVSPropertyOp24
 70
     1
102
RTVSPropertyOp25
 70
     1
102
RTVSPropertyOp26
 70
     1
102
RTVSPropertyOp27
 70
     1
102
RTVSPropertyOp28
 70
     1
102
RTVSPropertyOp29
 70
     1
102
RTVSPropertyOp30
 70
     1
102
RTVSPropertyOp31
 70
     1
102
RTVSPropertyOp32
 70
     1
  0
XRECORD
  5
292D
102
{ACAD_REACTORS
330
292C
102
}
330
292C
100
AcDbXrecord
280
     1
102
RTVSPropertyOp0
 70
     1
102
RTVSPropertyOp1
 70
     1
102
RTVSPropertyOp2
 70
     1
102
RTVSPropertyOp3
 70
     1
102
RTVSPropertyOp4
 70
     1
102
RTVSPropertyOp5
 70
     1
102
RTVSPropertyOp6
 70
     1
102
RTVSPropertyOp7
 70
     1
102
RTVSPropertyOp8
 70
     1
102
RTVSPropertyOp9
 70
     1
102
RTVSPropertyOp10
 70
     1
102
RTVSPropertyOp11
 70
     1
102
RTVSPropertyOp12
 70
     1
102
RTVSPropertyOp13
 70
     1
102
RTVSPropertyOp14
 70
     1
102
RTVSPropertyOp15
 70
     1
102
RTVSPropertyOp16
 70
     1
102
RTVSPropertyOp17
 70
     1
102
RTVSPropertyOp18
 70
     1
102
RTVSPropertyOp19
 70
     1
102
RTVSPropertyOp20
 70
     1
102
RTVSPropertyOp21
 70
     1
102
RTVSPropertyOp22
 70
     1
102
RTVSPropertyOp23
 70
     1
102
RTVSPropertyOp24
 70
     1
102
RTVSPropertyOp25
 70
     1
102
RTVSPropertyOp26
 70
     1
102
RTVSPropertyOp27
 70
     1
102
RTVSPropertyOp28
 70
     1
102
RTVSPropertyOp29
 70
     1
102
RTVSPropertyOp30
 70
     1
102
RTVSPropertyOp31
 70
     1
102
RTVSPropertyOp32
 70
     1
  0
XRECORD
  5
292F
102
{ACAD_REACTORS
330
292E
102
}
330
292E
100
AcDbXrecord
280
     1
102
RTVSPropertyOp0
 70
     1
102
RTVSPropertyOp1
 70
     1
102
RTVSPropertyOp2
 70
     1
102
RTVSPropertyOp3
 70
     1
102
RTVSPropertyOp4
 70
     1
102
RTVSPropertyOp5
 70
     1
102
RTVSPropertyOp6
 70
     1
102
RTVSPropertyOp7
 70
     1
102
RTVSPropertyOp8
 70
     1
102
RTVSPropertyOp9
 70
     1
102
RTVSPropertyOp10
 70
     1
102
RTVSPropertyOp11
 70
     1
102
RTVSPropertyOp12
 70
     1
102
RTVSPropertyOp13
 70
     1
102
RTVSPropertyOp14
 70
     1
102
RTVSPropertyOp15
 70
     1
102
RTVSPropertyOp16
 70
     1
102
RTVSPropertyOp17
 70
     1
102
RTVSPropertyOp18
 70
     1
102
RTVSPropertyOp19
 70
     1
102
RTVSPropertyOp20
 70
     1
102
RTVSPropertyOp21
 70
     1
102
RTVSPropertyOp22
 70
     1
102
RTVSPropertyOp23
 70
     1
102
RTVSPropertyOp24
 70
     1
102
RTVSPropertyOp25
 70
     1
102
RTVSPropertyOp26
 70
     1
102
RTVSPropertyOp27
 70
     1
102
RTVSPropertyOp28
 70
     1
102
RTVSPropertyOp29
 70
     1
102
RTVSPropertyOp30
 70
     1
102
RTVSPropertyOp31
 70
     1
102
RTVSPropertyOp32
 70
     1
  0
XRECORD
  5
2925
102
{ACAD_REACTORS
330
2924
102
}
330
2924
100
AcDbXrecord
280
     1
102
RTVSPropertyOp0
 70
     1
102
RTVSPropertyOp1
 70
     1
102
RTVSPropertyOp2
 70
     1
102
RTVSPropertyOp3
 70
     1
102
RTVSPropertyOp4
 70
     1
102
RTVSPropertyOp5
 70
     1
102
RTVSPropertyOp6
 70
     1
102
RTVSPropertyOp7
 70
     1
102
RTVSPropertyOp8
 70
     1
102
RTVSPropertyOp9
 70
     1
102
RTVSPropertyOp10
 70
     1
102
RTVSPropertyOp11
 70
     1
102
RTVSPropertyOp12
 70
     1
102
RTVSPropertyOp13
 70
     1
102
RTVSPropertyOp14
 70
     1
102
RTVSPropertyOp15
 70
     1
102
RTVSPropertyOp16
 70
     1
102
RTVSPropertyOp17
 70
     1
102
RTVSPropertyOp18
 70
     1
102
RTVSPropertyOp19
 70
     1
102
RTVSPropertyOp20
 70
     1
102
RTVSPropertyOp21
 70
     1
102
RTVSPropertyOp22
 70
     1
102
RTVSPropertyOp23
 70
     1
102
RTVSPropertyOp24
 70
     1
102
RTVSPropertyOp25
 70
     1
102
RTVSPropertyOp26
 70
     1
102
RTVSPropertyOp27
 70
     1
102
RTVSPropertyOp28
 70
     1
102
RTVSPropertyOp29
 70
     1
102
RTVSPropertyOp30
 70
     1
102
RTVSPropertyOp31
 70
     1
102
RTVSPropertyOp32
 70
     1
  0
XRECORD
  5
2919
102
{ACAD_REACTORS
330
2918
102
}
330
2918
100
AcDbXrecord
280
     1
102
RTVSPropertyOp0
 70
     1
102
RTVSPropertyOp1
 70
     1
102
RTVSPropertyOp2
 70
     1
102
RTVSPropertyOp3
 70
     1
102
RTVSPropertyOp4
 70
     1
102
RTVSPropertyOp5
 70
     1
102
RTVSPropertyOp6
 70
     1
102
RTVSPropertyOp7
 70
     1
102
RTVSPropertyOp8
 70
     1
102
RTVSPropertyOp9
 70
     1
102
RTVSPropertyOp10
 70
     1
102
RTVSPropertyOp11
 70
     1
102
RTVSPropertyOp12
 70
     1
102
RTVSPropertyOp13
 70
     1
102
RTVSPropertyOp14
 70
     1
102
RTVSPropertyOp15
 70
     1
102
RTVSPropertyOp16
 70
     1
102
RTVSPropertyOp17
 70
     1
102
RTVSPropertyOp18
 70
     1
102
RTVSPropertyOp19
 70
     1
102
RTVSPropertyOp20
 70
     1
102
RTVSPropertyOp21
 70
     1
102
RTVSPropertyOp22
 70
     1
102
RTVSPropertyOp23
 70
     1
102
RTVSPropertyOp24
 70
     1
102
RTVSPropertyOp25
 70
     1
102
RTVSPropertyOp26
 70
     1
102
RTVSPropertyOp27
 70
     1
102
RTVSPropertyOp28
 70
     1
102
RTVSPropertyOp29
 70
     1
102
RTVSPropertyOp30
 70
     1
102
RTVSPropertyOp31
 70
     1
102
RTVSPropertyOp32
 70
     1
  0
XRECORD
  5
2931
102
{ACAD_REACTORS
330
2930
102
}
330
2930
100
AcDbXrecord
280
     1
102
RTVSPropertyOp0
 70
     1
102
RTVSPropertyOp1
 70
     1
102
RTVSPropertyOp2
 70
     1
102
RTVSPropertyOp3
 70
     1
102
RTVSPropertyOp4
 70
     1
102
RTVSPropertyOp5
 70
     1
102
RTVSPropertyOp6
 70
     1
102
RTVSPropertyOp7
 70
     1
102
RTVSPropertyOp8
 70
     1
102
RTVSPropertyOp9
 70
     1
102
RTVSPropertyOp10
 70
     1
102
RTVSPropertyOp11
 70
     1
102
RTVSPropertyOp12
 70
     1
102
RTVSPropertyOp13
 70
     1
102
RTVSPropertyOp14
 70
     1
102
RTVSPropertyOp15
 70
     1
102
RTVSPropertyOp16
 70
     1
102
RTVSPropertyOp17
 70
     1
102
RTVSPropertyOp18
 70
     1
102
RTVSPropertyOp19
 70
     1
102
RTVSPropertyOp20
 70
     1
102
RTVSPropertyOp21
 70
     1
102
RTVSPropertyOp22
 70
     1
102
RTVSPropertyOp23
 70
     1
102
RTVSPropertyOp24
 70
     1
102
RTVSPropertyOp25
 70
     1
102
RTVSPropertyOp26
 70
     1
102
RTVSPropertyOp27
 70
     1
102
RTVSPropertyOp28
 70
     1
102
RTVSPropertyOp29
 70
     1
102
RTVSPropertyOp30
 70
     1
102
RTVSPropertyOp31
 70
     1
102
RTVSPropertyOp32
 70
     1
  0
ENDSEC
  0
EOF
