  0
SECTION
  2
HEADER
  9
$ACADVER
  1
AC1012
  9
$DWGCODEPAGE
  3
dos932
  9
$INSBASE
 10
0.0
 20
0.0
 30
0.0
  9
$EXTMIN
 10
5.0
 20
2.449000558492456
 30
0.0
  9
$EXTMAX
 10
403.0
 20
282.0
 30
0.0
  9
$LIMMIN
 10
0.0
 20
0.0
  9
$LIMMAX
 10
420.0
 20
297.0
  9
$ORTHOMODE
 70
     0
  9
$REGENMODE
 70
     1
  9
$FILLMODE
 70
     1
  9
$QTEXTMODE
 70
     0
  9
$MIRRTEXT
 70
     1
  9
$DRAGMODE
 70
     2
  9
$LTSCALE
 40
1.0
  9
$OSMODE
 70
    37
  9
$ATTMODE
 70
     1
  9
$TEXTSIZE
 40
2.5
  9
$TRACEWID
 40
1.0
  9
$TEXTSTYLE
  7
STANDARD
  9
$CLAYER
  8
ZUWAKU
  9
$CELTYPE
  6
BYLAYER
  9
$CECOLOR
 62
   256
  9
$CELTSCALE
 40
1.0
  9
$DELOBJ
 70
     1
  9
$DISPSILH
 70
     0
  9
$DIMSCALE
 40
1.0
  9
$DIMASZ
 40
3.0
  9
$DIMEXO
 40
3.0
  9
$DIMDLI
 40
7.0
  9
$DIMRND
 40
0.0
  9
$DIMDLE
 40
0.0
  9
$DIMEXE
 40
1.5
  9
$DIMTP
 40
0.0
  9
$DIMTM
 40
0.0
  9
$DIMTXT
 40
3.0
  9
$DIMCEN
 40
150.0
  9
$DIMTSZ
 40
0.0
  9
$DIMTOL
 70
     0
  9
$DIMLIM
 70
     0
  9
$DIMTIH
 70
     0
  9
$DIMTOH
 70
     0
  9
$DIMSE1
 70
     0
  9
$DIMSE2
 70
     0
  9
$DIMTAD
 70
     3
  9
$DIMZIN
 70
     0
  9
$DIMBLK
  1

  9
$DIMASO
 70
     1
  9
$DIMSHO
 70
     1
  9
$DIMPOST
  1

  9
$DIMAPOST
  1

  9
$DIMALT
 70
     0
  9
$DIMALTD
 70
     2
  9
$DIMALTF
 40
25.4
  9
$DIMLFAC
 40
1.0
  9
$DIMTOFL
 70
     1
  9
$DIMTVP
 40
0.0
  9
$DIMTIX
 70
     0
  9
$DIMSOXD
 70
     0
  9
$DIMSAH
 70
     1
  9
$DIMBLK1
  1
OPEN
  9
$DIMBLK2
  1
OPEN
  9
$DIMSTYLE
  2
STANDARD
  9
$DIMCLRD
 70
   256
  9
$DIMCLRE
 70
   256
  9
$DIMCLRT
 70
   256
  9
$DIMTFAC
 40
1.0
  9
$DIMGAP
 40
1.0
  9
$DIMJUST
 70
     0
  9
$DIMSD1
 70
     0
  9
$DIMSD2
 70
     0
  9
$DIMTOLJ
 70
     1
  9
$DIMTZIN
 70
     0
  9
$DIMALTZ
 70
     0
  9
$DIMALTTZ
 70
     0
  9
$DIMFIT
 70
     3
  9
$DIMUPT
 70
     0
  9
$DIMUNIT
 70
     2
  9
$DIMDEC
 70
     0
  9
$DIMTDEC
 70
     0
  9
$DIMALTU
 70
     2
  9
$DIMALTTD
 70
     2
  9
$DIMTXSTY
  7
STANDARD
  9
$DIMAUNIT
 70
     0
  9
$LUNITS
 70
     2
  9
$LUPREC
 70
     4
  9
$SKETCHINC
 40
1.0
  9
$FILLETRAD
 40
10.0
  9
$AUNITS
 70
     0
  9
$AUPREC
 70
     0
  9
$MENU
  1
.
  9
$ELEVATION
 40
0.0
  9
$PELEVATION
 40
0.0
  9
$THICKNESS
 40
0.0
  9
$LIMCHECK
 70
     0
  9
$BLIPMODE
 70
     0
  9
$CHAMFERA
 40
10.0
  9
$CHAMFERB
 40
10.0
  9
$CHAMFERC
 40
20.0
  9
$CHAMFERD
 40
0.0
  9
$SKPOLY
 70
     0
  9
$TDCREATE
 40
2451074.886709143
  9
$TDUPDATE
 40
2452395.838456539
  9
$TDINDWG
 40
0.0091334144
  9
$TDUSRTIMER
 40
0.0091334144
  9
$USRTIMER
 70
     1
  9
$ANGBASE
 50
0.0
  9
$ANGDIR
 70
     0
  9
$PDMODE
 70
     0
  9
$PDSIZE
 40
0.0
  9
$PLINEWID
 40
0.0
  9
$COORDS
 70
     1
  9
$SPLFRAME
 70
     0
  9
$SPLINETYPE
 70
     6
  9
$SPLINESEGS
 70
     8
  9
$ATTDIA
 70
     0
  9
$ATTREQ
 70
     1
  9
$HANDLING
 70
 10241
  9
$HANDSEED
  5
456
  9
$SURFTAB1
 70
     6
  9
$SURFTAB2
 70
     6
  9
$SURFTYPE
 70
     6
  9
$SURFU
 70
     6
  9
$SURFV
 70
     6
  9
$UCSNAME
  2

  9
$UCSORG
 10
0.0
 20
0.0
 30
0.0
  9
$UCSXDIR
 10
1.0
 20
0.0
 30
0.0
  9
$UCSYDIR
 10
0.0
 20
1.0
 30
0.0
  9
$PUCSNAME
  2

  9
$PUCSORG
 10
0.0
 20
0.0
 30
0.0
  9
$PUCSXDIR
 10
1.0
 20
0.0
 30
0.0
  9
$PUCSYDIR
 10
0.0
 20
1.0
 30
0.0
  9
$USERI1
 70
     0
  9
$USERI2
 70
     0
  9
$USERI3
 70
     0
  9
$USERI4
 70
     0
  9
$USERI5
 70
     0
  9
$USERR1
 40
0.0
  9
$USERR2
 40
0.0
  9
$USERR3
 40
0.0
  9
$USERR4
 40
0.0
  9
$USERR5
 40
0.0
  9
$WORLDVIEW
 70
     1
  9
$SHADEDGE
 70
     3
  9
$SHADEDIF
 70
    70
  9
$TILEMODE
 70
     1
  9
$MAXACTVP
 70
    16
  9
$PINSBASE
 10
0.0
 20
0.0
 30
0.0
  9
$PLIMCHECK
 70
     0
  9
$PEXTMIN
 10
0.0
 20
0.0
 30
0.0
  9
$PEXTMAX
 10
420.0
 20
297.0
 30
0.0
  9
$PLIMMIN
 10
0.0
 20
0.0
  9
$PLIMMAX
 10
420.0
 20
297.0
  9
$UNITMODE
 70
     0
  9
$VISRETAIN
 70
     0
  9
$PLINEGEN
 70
     0
  9
$PSLTSCALE
 70
     1
  9
$TREEDEPTH
 70
  3020
  9
$PICKSTYLE
 70
     1
  9
$CMLSTYLE
  2
STANDARD
  9
$CMLJUST
 70
     0
  9
$CMLSCALE
 40
1.0
  9
$SAVEIMAGES
 70
     1
  0
ENDSEC
  0
SECTION
  2
CLASSES
  0
CLASS
  1
ACDBDICTIONARYWDFLT
  2
AcDbDictionaryWithDefault
  3
AutoCAD 2000
 90
    32768
280
     0
281
     0
  0
CLASS
  1
ACDBPLACEHOLDER
  2
AcDbPlaceHolder
  3
AutoCAD 2000
 90
    32768
280
     0
281
     0
  0
CLASS
  1
LAYOUT
  2
AcDbLayout
  3
AutoCAD 2000
 90
    32768
280
     0
281
     0
  0
CLASS
  1
LONG_TRANSACTION
  2
AcDbLongTransaction
  3
AutoCAD 2000
 90
    32768
280
     0
281
     0
  0
CLASS
  1
LWPOLYLINE
  2
AcDbPolyline
  3
AutoCAD 2000
 90
    32768
280
     0
281
     1
  0
CLASS
  1
HATCH
  2
AcDbHatch
  3
AutoCAD 2000
 90
    32768
280
     0
281
     1
  0
CLASS
  1
XRECORD
  2
AcDbXrecord
  3
AutoCAD 2000
 90
    32768
280
     0
281
     0
  0
CLASS
  1
LONG_TRANSACTION
  2
AcDbLongTransaction
  3
AutoCAD 2000
 90
    32768
280
     0
281
     0
  0
CLASS
  1
LWPOLYLINE
  2
AcDbPolyline
  3
AutoCAD 2000
 90
    32768
280
     0
281
     1
  0
CLASS
  1
HATCH
  2
AcDbHatch
  3
AutoCAD 2000
 90
    32768
280
     0
281
     1
  0
CLASS
  1
XRECORD
  2
AcDbXrecord
  3
AutoCAD 2000
 90
    32768
280
     0
281
     0
  0
CLASS
  1
LONG_TRANSACTION
  2
AcDbLongTransaction
  3
AutoCAD 2000
 90
    32768
280
     0
281
     0
  0
CLASS
  1
LWPOLYLINE
  2
AcDbPolyline
  3
AutoCAD 2000
 90
    32768
280
     0
281
     1
  0
CLASS
  1
HATCH
  2
AcDbHatch
  3
AutoCAD 2000
 90
    32768
280
     0
281
     1
  0
CLASS
  1
XRECORD
  2
AcDbXrecord
  3
AutoCAD 2000
 90
    32768
280
     0
281
     0
  0
ENDSEC
  0
SECTION
  2
TABLES
  0
TABLE
  2
VPORT
  5
8
330
0
100
AcDbSymbolTable
 70
     2
  0
VPORT
  5
453
330
8
100
AcDbSymbolTableRecord
100
AcDbViewportTableRecord
  2
*ACTIVE
 70
     0
 10
0.0
 20
0.0
 11
1.0
 21
1.0
 12
269.5242079883453
 22
153.0025987647935
 13
0.0
 23
0.0
 14
5.0
 24
5.0
 15
0.0
 25
0.0
 16
0.0
 26
0.0
 36
1.0
 17
0.0
 27
0.0
 37
0.0
 40
310.5476810219774
 41
2.169459962756052
 42
50.0
 43
0.0
 44
0.0
 50
0.0
 51
0.0
 71
     0
 72
   100
 73
     1
 74
     0
 75
     0
 76
     0
 77
     0
 78
     0
  0
ENDTAB
  0
TABLE
  2
LTYPE
  5
5
330
0
100
AcDbSymbolTable
 70
     2
  0
LTYPE
  5
14
330
5
100
AcDbSymbolTableRecord
100
AcDbLinetypeTableRecord
  2
BYBLOCK
 70
     0
  3

 72
    65
 73
     0
 40
0.0
  0
LTYPE
  5
15
330
5
100
AcDbSymbolTableRecord
100
AcDbLinetypeTableRecord
  2
BYLAYER
 70
     0
  3

 72
    65
 73
     0
 40
0.0
  0
LTYPE
  5
16
330
5
100
AcDbSymbolTableRecord
100
AcDbLinetypeTableRecord
  2
CONTINUOUS
 70
     0
  3
Solid line
 72
    65
 73
     0
 40
0.0
  0
LTYPE
  5
120
330
5
100
AcDbSymbolTableRecord
100
AcDbLinetypeTableRecord
  2
CENTER
 70
     0
  3
____ _ ____ _ ____ _ ____ _ ____ _ ____ _ ____ 
 72
    65
 73
     4
 40
2.0
 49
1.25
 74
     0
 49
-0.25
 74
     0
 49
0.25
 74
     0
 49
-0.25
 74
     0
  0
ENDTAB
  0
TABLE
  2
LAYER
  5
2
330
0
100
AcDbSymbolTable
 70
     7
  0
LAYER
  5
F
330
2
100
AcDbSymbolTableRecord
100
AcDbLayerTableRecord
  2
0
 70
     0
 62
     7
  6
CONTINUOUS
  0
LAYER
  5
62
330
2
100
AcDbSymbolTableRecord
100
AcDbLayerTableRecord
  2
VIEWPORT
 70
     0
 62
     7
  6
CONTINUOUS
  0
LAYER
  5
6B
330
2
100
AcDbSymbolTableRecord
100
AcDbLayerTableRecord
  2
ZUWAKU
 70
     0
 62
     7
  6
CONTINUOUS
  0
LAYER
  5
134
330
2
100
AcDbSymbolTableRecord
100
AcDbLayerTableRecord
  2
SUNPOU
 70
     0
 62
     4
  6
CONTINUOUS
  0
LAYER
  5
135
330
2
100
AcDbSymbolTableRecord
100
AcDbLayerTableRecord
  2
CENTER_L
 70
     0
 62
     1
  6
CENTER
  0
LAYER
  5
136
330
2
100
AcDbSymbolTableRecord
100
AcDbLayerTableRecord
  2
SEIHIN
 70
     0
 62
     3
  6
CONTINUOUS
  0
LAYER
  5
190
330
2
100
AcDbSymbolTableRecord
100
AcDbLayerTableRecord
  2
DEFPOINTS
 70
     0
 62
     7
  6
CONTINUOUS
  0
ENDTAB
  0
TABLE
  2
STYLE
  5
3
330
0
100
AcDbSymbolTable
 70
     1
  0
STYLE
  5
10
330
3
100
AcDbSymbolTableRecord
100
AcDbTextStyleTableRecord
  2
STANDARD
 70
     0
 40
0.0
 41
1.0
 50
0.0
 71
     0
 42
2.5
  3
TXT
  4
bigfont.shx
  0
ENDTAB
  0
TABLE
  2
VIEW
  5
6
330
0
100
AcDbSymbolTable
 70
     0
  0
ENDTAB
  0
TABLE
  2
UCS
  5
7
330
0
100
AcDbSymbolTable
 70
     0
  0
ENDTAB
  0
TABLE
  2
APPID
  5
9
330
0
100
AcDbSymbolTable
 70
     1
  0
APPID
  5
11
330
9
100
AcDbSymbolTableRecord
100
AcDbRegAppTableRecord
  2
ACAD
 70
     0
  0
ENDTAB
  0
TABLE
  2
DIMSTYLE
  5
A
330
0
100
AcDbSymbolTable
 70
     1
  0
DIMSTYLE
105
1D
102
{ACAD_REACTORS
330
360
330
36A
330
379
330
393
330
3D3
102
}
330
A
100
AcDbSymbolTableRecord
100
AcDbDimStyleTableRecord
  2
STANDARD
 70
     0
  3

  4

  5

  6

  7

 40
1.0
 41
0.18
 42
0.0625
 43
0.38
 44
0.18
 45
0.0
 46
0.0
 47
0.0
 48
0.0
140
0.18
141
0.09
142
0.0
143
25.4
144
1.0
145
0.0
146
1.0
147
0.09
 71
     0
 72
     0
 73
     1
 74
     1
 75
     0
 76
     0
 77
     0
 78
     0
170
     0
171
     2
172
     0
173
     0
174
     0
175
     0
176
     0
177
     0
178
     0
270
     2
271
     4
272
     4
273
     2
274
     2
340
10
275
     0
280
     0
281
     0
282
     0
283
     1
284
     0
285
     0
286
     0
287
     3
288
     0
  0
ENDTAB
  0
TABLE
  2
BLOCK_RECORD
  5
1
330
0
100
AcDbSymbolTable
 70
     6
  0
BLOCK_RECORD
  5
1A
102
{ACAD_XDICTIONARY
360
411
102
}
330
1
100
AcDbSymbolTableRecord
100
AcDbBlockTableRecord
  2
*MODEL_SPACE
  0
BLOCK_RECORD
  5
17
102
{ACAD_XDICTIONARY
360
40F
102
}
330
1
100
AcDbSymbolTableRecord
100
AcDbBlockTableRecord
  2
*PAPER_SPACE
  0
BLOCK_RECORD
  5
B2
330
1
100
AcDbSymbolTableRecord
100
AcDbBlockTableRecord
  2
_OPEN
  0
BLOCK_RECORD
  5
354
330
1
100
AcDbSymbolTableRecord
100
AcDbBlockTableRecord
  2
*D1
  0
BLOCK_RECORD
  5
361
330
1
100
AcDbSymbolTableRecord
100
AcDbBlockTableRecord
  2
*D2
  0
BLOCK_RECORD
  5
36B
330
1
100
AcDbSymbolTableRecord
100
AcDbBlockTableRecord
  2
*D3
  0
BLOCK_RECORD
  5
387
330
1
100
AcDbSymbolTableRecord
100
AcDbBlockTableRecord
  2
*D4
  0
BLOCK_RECORD
  5
3C7
330
1
100
AcDbSymbolTableRecord
100
AcDbBlockTableRecord
  2
*D5
  0
ENDTAB
  0
ENDSEC
  0
SECTION
  2
BLOCKS
  0
BLOCK
  5
1B
330
1A
100
AcDbEntity
  8
0
100
AcDbBlockBegin
  2
*MODEL_SPACE
 70
     0
 10
0.0
 20
0.0
 30
0.0
  3
*MODEL_SPACE
  1

  0
ENDBLK
  5
1C
330
1A
100
AcDbEntity
  8
0
100
AcDbBlockEnd
  0
BLOCK
  5
18
330
17
100
AcDbEntity
 67
     1
  8
0
100
AcDbBlockBegin
  2
*PAPER_SPACE
 70
     0
 10
0.0
 20
0.0
 30
0.0
  3
*PAPER_SPACE
  1

  0
ENDBLK
  5
19
330
17
100
AcDbEntity
 67
     1
  8
0
100
AcDbBlockEnd
  0
BLOCK
  5
B3
330
B2
100
AcDbEntity
  8
0
100
AcDbBlockBegin
  2
_OPEN
 70
     0
 10
0.0
 20
0.0
 30
0.0
  3
_OPEN
  1

  0
LINE
  5
B4
330
B2
100
AcDbEntity
  8
0
  6
BYBLOCK
 62
     0
100
AcDbLine
 10
-1.0
 20
0.1666666666666666
 30
0.0
 11
0.0
 21
0.0
 31
0.0
  0
LINE
  5
B5
330
B2
100
AcDbEntity
  8
0
  6
BYBLOCK
 62
     0
100
AcDbLine
 10
0.0
 20
0.0
 30
0.0
 11
-1.0
 21
-0.1666666666666666
 31
0.0
  0
LINE
  5
B6
330
B2
100
AcDbEntity
  8
0
  6
BYBLOCK
 62
     0
100
AcDbLine
 10
0.0
 20
0.0
 30
0.0
 11
-1.0
 21
0.0
 31
0.0
  0
ENDBLK
  5
B7
330
B2
100
AcDbEntity
  8
0
100
AcDbBlockEnd
  0
BLOCK
  5
355
330
354
100
AcDbEntity
  8
0
100
AcDbBlockBegin
  2
*D1
 70
     1
 10
0.0
 20
0.0
 30
0.0
  3
*D1
  1

  0
LINE
  5
356
330
354
100
AcDbEntity
  8
0
  6
BYBLOCK
 62
     4
100
AcDbLine
 10
142.7167605614907
 20
224.09168164194
 30
0.0
 11
103.5484808409996
 21
224.09168164194
 31
0.0
  0
LINE
  5
357
330
354
100
AcDbEntity
  8
0
  6
BYBLOCK
 62
     4
100
AcDbLine
 10
142.7166605614907
 20
211.09168164194
 30
0.0
 11
103.5484808409996
 21
211.09168164194
 31
0.0
  0
LINE
  5
358
330
354
100
AcDbEntity
  8
0
  6
BYBLOCK
 62
     4
100
AcDbLine
 10
105.0484808409996
 20
221.0916816419401
 30
0.0
 11
105.0484808409996
 21
214.09168164194
 31
0.0
  0
INSERT
  5
359
330
354
100
AcDbEntity
  8
0
  6
BYBLOCK
 62
     4
100
AcDbBlockReference
  2
_OPEN
 10
105.0484808409996
 20
224.09168164194
 30
0.0
 41
3.0
 42
3.0
 43
3.0
 50
90.0
  0
INSERT
  5
35A
330
354
100
AcDbEntity
  8
0
  6
BYBLOCK
 62
     4
100
AcDbBlockReference
  2
_OPEN
 10
105.0484808409996
 20
211.09168164194
 30
0.0
 41
3.0
 42
3.0
 43
3.0
 50
270.0
  0
MTEXT
  5
35B
330
354
100
AcDbEntity
  8
0
  6
BYBLOCK
 62
     4
100
AcDbMText
 10
102.5484808409996
 20
217.59168164194
 30
0.0
 40
3.0
 41
0.0
 71
     5
 72
     1
  1
\A1;13
 11
0.0
 21
1.0
 31
0.0
1001
ACAD
1000
MTEXTBEGIN
1070
    73
1070
     1
1070
    44
1040
1.0
1070
    74
1070
     0
1000
MTEXTEND
1000
MTEXTBEGIN
1070
    73
1070
     1
1070
    44
1040
1.0
1070
    74
1070
     0
1000
MTEXTEND
1000
MTEXTBEGIN
1070
    73
1070
     1
1070
    44
1040
1.0
1070
    74
1070
     0
1000
MTEXTEND
  0
POINT
  5
35C
330
354
100
AcDbEntity
  8
DEFPOINTS
  6
BYBLOCK
 62
     0
100
AcDbPoint
 10
145.7167605614907
 20
224.09168164194
 30
0.0
  0
POINT
  5
35D
330
354
100
AcDbEntity
  8
DEFPOINTS
  6
BYBLOCK
 62
     0
100
AcDbPoint
 10
145.7166605614907
 20
211.09168164194
 30
0.0
  0
POINT
  5
35E
330
354
100
AcDbEntity
  8
DEFPOINTS
  6
BYBLOCK
 62
     0
100
AcDbPoint
 10
105.0484808409996
 20
211.09168164194
 30
0.0
  0
ENDBLK
  5
35F
330
354
100
AcDbEntity
  8
0
100
AcDbBlockEnd
  0
BLOCK
  5
362
330
361
100
AcDbEntity
  8
0
100
AcDbBlockBegin
  2
*D2
 70
     1
 10
0.0
 20
0.0
 30
0.0
  3
*D2
  1

  0
LINE
  5
363
330
361
100
AcDbEntity
  8
0
  6
BYBLOCK
 62
     4
100
AcDbLine
 10
146.990336004366
 20
84.99466787475913
 30
0.0
 11
178.2748841074012
 21
132.2827733245053
 31
0.0
  0
INSERT
  5
364
330
361
100
AcDbEntity
  8
0
  6
BYBLOCK
 62
     4
100
AcDbBlockReference
  2
_OPEN
 10
145.3350683598622
 20
82.49265088339813
 30
0.0
 41
3.0
 42
3.0
 43
3.0
 50
236.5124426367793
  0
INSERT
  5
365
330
361
100
AcDbEntity
  8
0
  6
BYBLOCK
 62
     4
100
AcDbBlockReference
  2
_OPEN
 10
179.9301517519025
 20
134.7847903158679
 30
0.0
 41
3.0
 42
3.0
 43
3.0
 50
56.51244263677934
  0
MTEXT
  5
366
330
361
100
AcDbEntity
  8
0
  6
BYBLOCK
 62
     4
100
AcDbMText
 10
168.4230175509553
 20
121.9221905040812
 30
0.0
 40
3.0
 41
0.0
 71
     5
 72
     1
  1
\A1;\U+220563
 11
0.5517558815012384
 21
0.8340056637869981
 31
0.0
1001
ACAD
1000
MTEXTBEGIN
1070
    73
1070
     1
1070
    44
1040
1.0
1070
    74
1070
     0
1000
MTEXTEND
1000
MTEXTBEGIN
1070
    73
1070
     1
1070
    44
1040
1.0
1070
    74
1070
     0
1000
MTEXTEND
1000
MTEXTBEGIN
1070
    73
1070
     1
1070
    44
1040
1.0
1070
    74
1070
     0
1000
MTEXTEND
  0
POINT
  5
367
330
361
100
AcDbEntity
  8
DEFPOINTS
  6
BYBLOCK
 62
     0
100
AcDbPoint
 10
179.9301517519025
 20
134.7847903158679
 30
0.0
  0
POINT
  5
368
330
361
100
AcDbEntity
  8
DEFPOINTS
  6
BYBLOCK
 62
     0
100
AcDbPoint
 10
145.3350683598622
 20
82.49265088339813
 30
0.0
  0
ENDBLK
  5
369
330
361
100
AcDbEntity
  8
0
100
AcDbBlockEnd
  0
BLOCK
  5
3B6
330
36B
100
AcDbEntity
  8
0
100
AcDbBlockBegin
  2
*D3
 70
     1
 10
0.0
 20
0.0
 30
0.0
  3
*D3
  1

  0
LINE
  5
3B7
330
36B
100
AcDbEntity
  8
0
  6
BYBLOCK
 62
     4
100
AcDbLine
 10
273.1707605614906
 20
124.1498637423265
 30
0.0
 11
315.6146130101069
 21
124.1498637423265
 31
0.0
  0
LINE
  5
3B8
330
36B
100
AcDbEntity
  8
0
  6
BYBLOCK
 62
     4
100
AcDbLine
 10
273.1707605614906
 20
118.6498637423265
 30
0.0
 11
315.6146130101069
 21
118.6498637423265
 31
0.0
  0
LINE
  5
3B9
330
36B
100
AcDbEntity
  8
0
  6
BYBLOCK
 62
     4
100
AcDbLine
 10
314.1146130101069
 20
127.1498637423265
 30
0.0
 11
314.1146130101069
 21
130.1498637423265
 31
0.0
  0
LINE
  5
3BA
330
36B
100
AcDbEntity
  8
0
  6
BYBLOCK
 62
     4
100
AcDbLine
 10
314.1146130101069
 20
115.6498637423265
 30
0.0
 11
314.1146130101069
 21
99.24986374232652
 31
0.0
  0
LINE
  5
3BB
330
36B
100
AcDbEntity
  8
0
  6
BYBLOCK
 62
     4
100
AcDbLine
 10
314.1146130101069
 20
124.1498637423265
 30
0.0
 11
314.1146130101069
 21
118.6498637423265
 31
0.0
  0
INSERT
  5
3BC
330
36B
100
AcDbEntity
  8
0
  6
BYBLOCK
 62
     4
100
AcDbBlockReference
  2
_OPEN
 10
314.1146130101069
 20
124.1498637423265
 30
0.0
 41
3.0
 42
3.0
 43
3.0
 50
270.0
  0
INSERT
  5
3BD
330
36B
100
AcDbEntity
  8
0
  6
BYBLOCK
 62
     4
100
AcDbBlockReference
  2
_OPEN
 10
314.1146130101069
 20
118.6498637423265
 30
0.0
 41
3.0
 42
3.0
 43
3.0
 50
90.0
  0
MTEXT
  5
3BE
330
36B
100
AcDbEntity
  8
0
  6
BYBLOCK
 62
     4
100
AcDbMText
 10
311.6146130101069
 20
105.9498637423265
 30
0.0
 40
3.0
 41
0.0
 71
     5
 72
     1
  1
\A1;φ 5.5
 11
0.0
 21
1.0
 31
0.0
1001
ACAD
1000
MTEXTBEGIN
1070
    73
1070
     1
1070
    44
1040
1.0
1070
    74
1070
     0
1000
MTEXTEND
1000
MTEXTBEGIN
1070
    73
1070
     1
1070
    44
1040
1.0
1070
    74
1070
     0
1000
MTEXTEND
1000
MTEXTBEGIN
1070
    73
1070
     1
1070
    44
1040
1.0
1070
    74
1070
     0
1000
MTEXTEND
  0
POINT
  5
3BF
330
36B
100
AcDbEntity
  8
DEFPOINTS
  6
BYBLOCK
 62
     0
100
AcDbPoint
 10
270.1707605614906
 20
124.1498637423265
 30
0.0
  0
POINT
  5
3C0
330
36B
100
AcDbEntity
  8
DEFPOINTS
  6
BYBLOCK
 62
     0
100
AcDbPoint
 10
270.1707605614906
 20
118.6498637423265
 30
0.0
  0
POINT
  5
3C1
330
36B
100
AcDbEntity
  8
DEFPOINTS
  6
BYBLOCK
 62
     0
100
AcDbPoint
 10
314.1146130101069
 20
118.6498637423265
 30
0.0
  0
ENDBLK
  5
3C2
330
36B
100
AcDbEntity
  8
0
100
AcDbBlockEnd
  0
BLOCK
  5
388
330
387
100
AcDbEntity
  8
0
100
AcDbBlockBegin
  2
*D4
 70
     1
 10
0.0
 20
0.0
 30
0.0
  3
*D4
  1

  0
LINE
  5
389
330
387
100
AcDbEntity
  8
0
  6
BYBLOCK
 62
     4
100
AcDbLine
 10
129.7826605614897
 20
111.6386780763159
 30
0.0
 11
129.7826605614897
 21
164.6158665569499
 31
0.0
  0
LINE
  5
38A
330
387
100
AcDbEntity
  8
0
  6
BYBLOCK
 62
     4
100
AcDbLine
 10
285.1707498891905
 20
111.6385835985285
 30
0.0
 11
285.1707498891905
 21
164.6158665569499
 31
0.0
  0
LINE
  5
38B
330
387
100
AcDbEntity
  8
0
  6
BYBLOCK
 62
     4
100
AcDbLine
 10
132.7826605614897
 20
163.1158665569499
 30
0.0
 11
282.1707498891905
 21
163.1158665569499
 31
0.0
  0
INSERT
  5
38C
330
387
100
AcDbEntity
  8
0
  6
BYBLOCK
 62
     4
100
AcDbBlockReference
  2
_OPEN
 10
129.7826605614897
 20
163.1158665569499
 30
0.0
 41
3.0
 42
3.0
 43
3.0
 50
180.0
  0
INSERT
  5
38D
330
387
100
AcDbEntity
  8
0
  6
BYBLOCK
 62
     4
100
AcDbBlockReference
  2
_OPEN
 10
285.1707498891905
 20
163.1158665569499
 30
0.0
 41
3.0
 42
3.0
 43
3.0
  0
MTEXT
  5
38E
330
387
100
AcDbEntity
  8
0
  6
BYBLOCK
 62
     4
100
AcDbMText
 10
207.4767052253401
 20
165.6158665569499
 30
0.0
 40
3.0
 41
0.0
 71
     5
 72
     1
  1
\A1;155
1001
ACAD
1000
MTEXTBEGIN
1070
    73
1070
     1
1070
    44
1040
1.0
1070
    74
1070
     0
1000
MTEXTEND
1000
MTEXTBEGIN
1070
    73
1070
     1
1070
    44
1040
1.0
1070
    74
1070
     0
1000
MTEXTEND
1000
MTEXTBEGIN
1070
    73
1070
     1
1070
    44
1040
1.0
1070
    74
1070
     0
1000
MTEXTEND
  0
POINT
  5
38F
330
387
100
AcDbEntity
  8
DEFPOINTS
  6
BYBLOCK
 62
     0
100
AcDbPoint
 10
129.7826605614897
 20
108.6386780763159
 30
0.0
  0
POINT
  5
390
330
387
100
AcDbEntity
  8
DEFPOINTS
  6
BYBLOCK
 62
     0
100
AcDbPoint
 10
285.1707498891905
 20
108.6385835985285
 30
0.0
  0
POINT
  5
391
330
387
100
AcDbEntity
  8
DEFPOINTS
  6
BYBLOCK
 62
     0
100
AcDbPoint
 10
285.1707498891905
 20
163.1158665569499
 30
0.0
  0
ENDBLK
  5
392
330
387
100
AcDbEntity
  8
0
100
AcDbBlockEnd
  0
BLOCK
  5
3C8
330
3C7
100
AcDbEntity
  8
0
100
AcDbBlockBegin
  2
*D5
 70
     1
 10
0.0
 20
0.0
 30
0.0
  3
*D5
  1

  0
LINE
  5
3C9
330
3C7
100
AcDbEntity
  8
0
  6
BYBLOCK
 62
     4
100
AcDbLine
 10
195.1707605614907
 20
132.8999637423264
 30
0.0
 11
195.1707605614907
 21
158.7207300929027
 31
0.0
  0
LINE
  5
3CA
330
3C7
100
AcDbEntity
  8
0
  6
BYBLOCK
 62
     4
100
AcDbLine
 10
285.1707605614907
 20
124.3998637423265
 30
0.0
 11
285.1707605614907
 21
158.7207300929027
 31
0.0
  0
LINE
  5
3CB
330
3C7
100
AcDbEntity
  8
0
  6
BYBLOCK
 62
     4
100
AcDbLine
 10
198.1707605614907
 20
157.2207300929027
 30
0.0
 11
282.1707605614907
 21
157.2207300929027
 31
0.0
  0
INSERT
  5
3CC
330
3C7
100
AcDbEntity
  8
0
  6
BYBLOCK
 62
     4
100
AcDbBlockReference
  2
_OPEN
 10
195.1707605614907
 20
157.2207300929027
 30
0.0
 41
3.0
 42
3.0
 43
3.0
 50
180.0
  0
INSERT
  5
3CD
330
3C7
100
AcDbEntity
  8
0
  6
BYBLOCK
 62
     4
100
AcDbBlockReference
  2
_OPEN
 10
285.1707605614907
 20
157.2207300929027
 30
0.0
 41
3.0
 42
3.0
 43
3.0
  0
MTEXT
  5
3CE
330
3C7
100
AcDbEntity
  8
0
  6
BYBLOCK
 62
     4
100
AcDbMText
 10
240.1707605614907
 20
159.7207300929027
 30
0.0
 40
3.0
 41
0.0
 71
     5
 72
     1
  1
\A1;90
1001
ACAD
1000
MTEXTBEGIN
1070
    73
1070
     1
1070
    44
1040
1.0
1070
    74
1070
     0
1000
MTEXTEND
1000
MTEXTBEGIN
1070
    73
1070
     1
1070
    44
1040
1.0
1070
    74
1070
     0
1000
MTEXTEND
1000
MTEXTBEGIN
1070
    73
1070
     1
1070
    44
1040
1.0
1070
    74
1070
     0
1000
MTEXTEND
  0
POINT
  5
3CF
330
3C7
100
AcDbEntity
  8
DEFPOINTS
  6
BYBLOCK
 62
     0
100
AcDbPoint
 10
195.1707605614907
 20
129.8999637423264
 30
0.0
  0
POINT
  5
3D0
330
3C7
100
AcDbEntity
  8
DEFPOINTS
  6
BYBLOCK
 62
     0
100
AcDbPoint
 10
285.1707605614907
 20
121.3998637423265
 30
0.0
  0
POINT
  5
3D1
330
3C7
100
AcDbEntity
  8
DEFPOINTS
  6
BYBLOCK
 62
     0
100
AcDbPoint
 10
285.1707605614907
 20
157.2207300929027
 30
0.0
  0
ENDBLK
  5
3D2
330
3C7
100
AcDbEntity
  8
0
100
AcDbBlockEnd
  0
ENDSEC
  0
SECTION
  2
ENTITIES
  0
LINE
  5
6C
330
1A
100
AcDbEntity
  8
ZUWAKU
  6
CONTINUOUS
 62
     7
100
AcDbLine
 10
403.0
 20
7.0
 30
0.0
 11
5.0
 21
7.0
 31
0.0
  0
LINE
  5
6D
330
1A
100
AcDbEntity
  8
ZUWAKU
  6
CONTINUOUS
 62
     7
100
AcDbLine
 10
5.0
 20
282.0
 30
0.0
 11
5.0
 21
7.0
 31
0.0
  0
LINE
  5
6E
330
1A
100
AcDbEntity
  8
ZUWAKU
  6
CONTINUOUS
 62
     7
100
AcDbLine
 10
403.0
 20
282.0
 30
0.0
 11
403.0
 21
7.0
 31
0.0
  0
LINE
  5
6F
330
1A
100
AcDbEntity
  8
ZUWAKU
  6
CONTINUOUS
 62
     7
100
AcDbLine
 10
403.0
 20
282.0
 30
0.0
 11
5.0
 21
282.0
 31
0.0
  0
LINE
  5
8E
330
1A
100
AcDbEntity
  8
ZUWAKU
 62
     7
 48
10.0
100
AcDbLine
 10
5.0
 20
13.0
 30
0.0
 11
403.0
 21
12.99999999999994
 31
0.0
  0
TEXT
  5
93
330
1A
100
AcDbEntity
  8
ZUWAKU
 62
     7
100
AcDbText
 10
8.003143713074223
 20
7.870178177610682
 30
0.0
 40
4.0
  1
品 種
100
AcDbText
  0
TEXT
  5
97
330
1A
100
AcDbEntity
  8
ZUWAKU
 62
     7
100
AcDbText
 10
107.7028028167073
 20
8.200497435100942
 30
0.0
 40
4.0
  1
品名・ｻ ｲ ｽﾞ
100
AcDbText
  0
LINE
  5
9A
330
1A
100
AcDbEntity
  8
ZUWAKU
 62
     7
 48
10.0
100
AcDbLine
 10
324.3551403257206
 20
6.999999999999836
 30
0.0
 11
324.3551403257206
 21
12.99999999999995
 31
0.0
  0
LINE
  5
9B
330
1A
100
AcDbEntity
  8
ZUWAKU
 62
     7
 48
10.0
100
AcDbLine
 10
307.142312366876
 20
6.999999999999836
 30
0.0
 11
307.142312366876
 21
12.99999999999995
 31
0.0
  0
TEXT
  5
9C
330
1A
100
AcDbEntity
  8
ZUWAKU
 62
     7
100
AcDbText
 10
310.1429253763237
 20
7.934661405801826
 30
0.0
 40
4.0
  1
品 番
100
AcDbText
  0
TEXT
  5
9E
330
1A
100
AcDbEntity
  8
ZUWAKU
 62
     7
 48
10.0
100
AcDbText
 10
322.9513761015196
 20
2.449000558492457
 30
0.0
 40
4.0
  1
積水化学工業株式会社  建材
100
AcDbText
  0
TEXT
  5
A1
330
1A
100
AcDbEntity
  8
ZUWAKU
 62
     7
100
AcDbText
 10
389.843492473331
 20
7.886151458996323
 30
0.0
 40
4.0
  1
1/1
100
AcDbText
  0
TEXT
  5
A2
330
1A
100
AcDbEntity
  8
ZUWAKU
 62
     7
100
AcDbText
 10
369.8225424558458
 20
7.729845637642938
 30
0.0
 40
4.0
  1
尺 度
100
AcDbText
  0
LINE
  5
A3
330
1A
100
AcDbEntity
  8
ZUWAKU
 62
     7
 48
10.0
100
AcDbLine
 10
366.8807110760169
 20
6.999999999999886
 30
0.0
 11
366.8807110760169
 21
12.99999999999994
 31
0.0
  0
TEXT
  5
A6
330
1A
100
AcDbEntity
  8
ZUWAKU
 62
     7
 48
10.0
100
AcDbText
 10
396.1622424237184
 20
2.480970960763784
 30
0.0
 40
4.0
  1
A3
100
AcDbText
  0
LINE
  5
F5
330
1A
100
AcDbEntity
  8
ZUWAKU
 62
     7
 48
10.0
100
AcDbLine
 10
22.25374857290876
 20
7.0
 30
0.0
 11
22.25374857290876
 21
13.0
 31
0.0
  0
LINE
  5
F6
330
1A
100
AcDbEntity
  8
ZUWAKU
 62
     7
 48
10.0
100
AcDbLine
 10
104.7316872784438
 20
7.0
 30
0.0
 11
104.7316872784438
 21
12.99999999999998
 31
0.0
  0
LINE
  5
F8
330
1A
100
AcDbEntity
  8
ZUWAKU
 62
     7
 48
10.0
100
AcDbLine
 10
138.0261803105822
 20
7.0
 30
0.0
 11
138.0261803105822
 21
12.99999999999998
 31
0.0
  0
LINE
  5
100
330
1A
100
AcDbEntity
  8
ZUWAKU
 62
     7
 48
10.0
100
AcDbLine
 10
384.3363149538092
 20
6.999999999999862
 30
0.0
 11
384.3363149538092
 21
12.99999999999994
 31
0.0
  0
LINE
  5
223
330
1A
100
AcDbEntity
  8
CENTER_L
  6
CENTER
 62
     1
 48
5.0
100
AcDbLine
 10
287.1887420613355
 20
106.4120410255942
 30
0.0
 11
122.7182420613357
 21
106.4121410255942
 31
0.0
  0
LINE
  5
224
330
1A
100
AcDbEntity
  8
SEIHIN
  6
CONTINUOUS
 62
     3
 48
5.0
100
AcDbLine
 10
268.9707420613355
 20
103.6620410255942
 30
0.0
 11
197.4707420613357
 21
103.6621410255943
 31
0.0
  0
LINE
  5
225
330
1A
100
AcDbEntity
  8
SEIHIN
  6
CONTINUOUS
 62
     3
 48
5.0
100
AcDbLine
 10
268.9707420613355
 20
109.1620410255942
 30
0.0
 11
197.4707420613357
 21
109.1621410255942
 31
0.0
  0
LINE
  5
226
330
1A
100
AcDbEntity
  8
CENTER_L
  6
CENTER
 62
     1
 48
5.0
100
AcDbLine
 10
292.2812420613356
 20
202.6037589252079
 30
0.0
 11
126.6890420613357
 21
202.6039589252079
 31
0.0
  0
LINE
  5
227
330
1A
100
AcDbEntity
  8
SEIHIN
  6
CONTINUOUS
 62
     3
 48
5.0
100
AcDbLine
 10
268.9709420613358
 20
199.8538589252078
 30
0.0
 11
197.4709420613357
 21
199.8538589252078
 31
0.0
  0
LINE
  5
228
330
1A
100
AcDbEntity
  8
SEIHIN
  6
CONTINUOUS
 62
     3
 48
5.0
100
AcDbLine
 10
268.9709420613358
 20
205.3538589252078
 30
0.0
 11
197.4709420613357
 21
205.3538589252078
 31
0.0
  0
TEXT
  5
229
330
1A
100
AcDbEntity
  8
ZUWAKU
 62
     7
100
AcDbText
 10
141.1313324528735
 20
7.9299153608506
 30
0.0
 40
4.0
  1
ステンレス金具デンデン　ＵＴ６０（打込Ｌ９０）
100
AcDbText
  0
TEXT
  5
22D
330
1A
100
AcDbEntity
  8
ZUWAKU
 62
     7
100
AcDbText
 10
25.15073007242387
 20
8.160237806787449
 30
0.0
 40
4.0
  1
丸トップ　たてとい
100
AcDbText
  0
ARC
  5
233
330
1A
100
AcDbEntity
  8
SEIHIN
  6
CONTINUOUS
 62
     3
 48
5.0
100
AcDbCircle
 10
146.8393561259402
 20
134.1584362839721
 30
0.0
 40
1.500012409944997
100
AcDbArc
 50
24.99882432683479
 51
117.7407857890265
  0
ARC
  5
234
330
1A
100
AcDbEntity
  8
SEIHIN
  6
CONTINUOUS
 62
     3
 48
5.0
100
AcDbCircle
 10
146.8393256560924
 20
78.6658354954076
 30
0.0
 40
1.500035684570635
100
AcDbArc
 50
242.2566810425442
 51
335.0020230979528
  0
ARC
  5
235
330
1A
100
AcDbEntity
  8
SEIHIN
  6
CONTINUOUS
 62
     3
 48
5.0
100
AcDbCircle
 10
161.4326401829463
 20
106.4121438113184
 30
0.0
 40
31.3499981216107
100
AcDbArc
 50
180.0000050912359
 51
247.9828852194497
  0
ARC
  5
236
330
1A
100
AcDbEntity
  8
SEIHIN
  6
CONTINUOUS
 62
     3
 48
5.0
100
AcDbCircle
 10
161.4326495433914
 20
106.4121492618292
 30
0.0
 40
31.35000748205673
100
AcDbArc
 50
95.49401889457445
 51
180.0000150526758
  0
ARC
  5
237
330
1A
100
AcDbEntity
  8
SEIHIN
  6
CONTINUOUS
 62
     3
 48
5.0
100
AcDbCircle
 10
161.432659494575
 20
106.412144131581
 30
0.0
 40
29.8500174332395
100
AcDbArc
 50
20.20417162351336
 51
180.0000059618033
  0
ARC
  5
238
330
1A
100
AcDbEntity
  8
SEIHIN
  6
CONTINUOUS
 62
     3
 48
5.0
100
AcDbCircle
 10
161.4326485747344
 20
106.4121313659634
 30
0.0
 40
29.85000651340041
100
AcDbArc
 50
179.9999814587618
 51
247.982821970261
  0
ARC
  5
239
330
1A
100
AcDbEntity
  8
SEIHIN
  6
CONTINUOUS
 62
     3
 48
5.0
100
AcDbCircle
 10
161.4326354666616
 20
106.4121301059234
 30
0.0
 40
32.84999340532765
100
AcDbArc
 50
117.7422341707118
 51
179.9999809543021
  0
ARC
  5
23A
330
1A
100
AcDbEntity
  8
SEIHIN
  6
CONTINUOUS
 62
     3
 48
5.0
100
AcDbCircle
 10
161.4326587414641
 20
106.4121134060237
 30
0.0
 40
32.85001668014006
100
AcDbArc
 50
179.9999518269705
 51
242.2575442434022
  0
LINE
  5
23B
330
1A
100
AcDbEntity
  8
SEIHIN
  6
CONTINUOUS
 62
     3
 48
5.0
100
AcDbLine
 10
193.9707420613357
 20
106.4120410255942
 30
0.0
 11
193.9707420613357
 21
114.9121410255942
 31
0.0
  0
LINE
  5
23C
330
1A
100
AcDbEntity
  8
SEIHIN
  6
CONTINUOUS
 62
     3
 48
5.0
100
AcDbLine
 10
192.4707420613357
 20
106.4120410255942
 30
0.0
 11
192.4707420613357
 21
114.9121410255942
 31
0.0
  0
LINE
  5
23D
330
1A
100
AcDbEntity
  8
CENTER_L
  6
CENTER
 62
     1
 48
5.0
100
AcDbLine
 10
161.4326420613356
 20
71.28974102559431
 30
0.0
 11
161.4326420613356
 21
146.6718410255942
 31
0.0
  0
ARC
  5
23E
330
1A
100
AcDbEntity
  8
SEIHIN
  6
CONTINUOUS
 62
     3
 48
5.0
100
AcDbCircle
 10
161.4326411506135
 20
106.4121404932169
 30
0.0
 40
31.34999186012659
100
AcDbArc
 50
260.8227253257253
 51
339.7955136431481
  0
ARC
  5
23F
330
1A
100
AcDbEntity
  8
SEIHIN
  6
CONTINUOUS
 62
     3
 48
5.0
100
AcDbCircle
 10
161.4326223463471
 20
106.4121296080891
 30
0.0
 40
29.85002465233656
100
AcDbArc
 50
260.3573075898015
 51
339.7954414136239
  0
LINE
  5
240
330
1A
100
AcDbEntity
  8
SEIHIN
  6
CONTINUOUS
 62
     3
 48
5.0
100
AcDbLine
 10
165.0874420613357
 20
73.73624102559424
 30
0.0
 11
153.2524420613357
 21
71.22074102559432
 31
0.0
  0
LINE
  5
241
330
1A
100
AcDbEntity
  8
SEIHIN
  6
CONTINUOUS
 62
     3
 48
5.0
100
AcDbLine
 10
152.9405420613356
 20
72.68804102559432
 30
0.0
 11
164.9940420613357
 21
75.24994102559432
 31
0.0
  0
LINE
  5
242
330
1A
100
AcDbEntity
  8
SEIHIN
  6
CONTINUOUS
 62
     3
 48
5.0
100
AcDbLine
 10
152.3475420613357
 20
73.07314102559423
 30
0.0
 11
151.4489420613356
 21
77.30064102559424
 31
0.0
  0
ARC
  5
243
330
1A
100
AcDbEntity
  8
SEIHIN
  6
CONTINUOUS
 62
     3
 48
5.0
100
AcDbCircle
 10
149.4926359610789
 20
76.88484829631895
 30
0.0
 40
0.5000392635087994
100
AcDbArc
 50
12.00336441221657
 51
67.98911266757213
  0
ARC
  5
244
330
1A
100
AcDbEntity
  8
SEIHIN
  6
CONTINUOUS
 62
     3
 48
5.0
100
AcDbCircle
 10
152.8366420613356
 20
73.17704102559438
 30
0.0
 40
1.999999832500063
100
AcDbArc
 50
191.9993162217508
 51
281.9993162217516
  0
LINE
  5
245
330
1A
100
AcDbEntity
  8
SEIHIN
  6
CONTINUOUS
 62
     3
 48
5.0
100
AcDbLine
 10
149.9817420613356
 20
76.98884102559432
 30
0.0
 11
150.8803420613356
 21
72.7612410255943
 31
0.0
  0
ARC
  5
246
330
1A
100
AcDbEntity
  8
SEIHIN
  6
CONTINUOUS
 62
     3
 48
5.0
100
AcDbCircle
 10
152.8365840580069
 20
73.17707870159035
 30
0.0
 40
0.4999651137826157
100
AcDbArc
 50
191.9987210681257
 51
282.0011026130896
  0
LINE
  5
247
330
1A
100
AcDbEntity
  8
SEIHIN
  6
CONTINUOUS
 62
     3
 48
5.0
100
AcDbLine
 10
156.4326420613356
 20
75.4634410255943
 30
0.0
 11
156.4326420613356
 21
76.98384102559424
 31
0.0
  0
ARC
  5
248
330
1A
100
AcDbEntity
  8
SEIHIN
  6
CONTINUOUS
 62
     3
 48
5.0
100
AcDbCircle
 10
149.4925978425152
 20
76.88489374041163
 30
0.0
 40
2.00003212665414
100
AcDbArc
 50
11.99757571575339
 51
67.98087340185492
  0
LINE
  5
249
330
1A
100
AcDbEntity
  8
SEIHIN
  6
CONTINUOUS
 62
     3
 48
5.0
100
AcDbLine
 10
172.8167420613357
 20
71.97444102559424
 30
0.0
 11
165.3054420613357
 21
73.73404102559431
 31
0.0
  0
LINE
  5
24A
330
1A
100
AcDbEntity
  8
SEIHIN
  6
CONTINUOUS
 62
     3
 48
5.0
100
AcDbLine
 10
173.1588420613356
 20
73.43494102559424
 30
0.0
 11
165.4300420613357
 21
75.24544102559431
 31
0.0
  0
ARC
  5
24B
330
1A
100
AcDbEntity
  8
SEIHIN
  6
CONTINUOUS
 62
     3
 48
5.0
100
AcDbCircle
 10
165.2019702119987
 20
74.27184073427492
 30
0.0
 40
0.9999571469404237
100
AcDbArc
 50
76.8158448420532
 51
102.0014861064119
  0
ARC
  5
24C
330
1A
100
AcDbEntity
  8
SEIHIN
  6
CONTINUOUS
 62
     3
 48
5.0
100
AcDbCircle
 10
165.1915182813093
 20
73.24723918659961
 30
0.0
 40
0.4999546560480449
100
AcDbArc
 50
76.82840234576507
 51
102.0152083327056
  0
LINE
  5
24D
330
1A
100
AcDbEntity
  8
SEIHIN
  6
CONTINUOUS
 62
     3
 48
5.0
100
AcDbLine
 10
173.1588420613356
 20
73.43494102559424
 30
0.0
 11
172.8167420613357
 21
71.97444102559424
 31
0.0
  0
LINE
  5
24E
330
1A
100
AcDbEntity
  8
SEIHIN
  6
CONTINUOUS
 62
     3
 48
5.0
100
AcDbLine
 10
195.4707420613357
 20
101.4121410255943
 30
0.0
 11
197.4707420613357
 21
103.6621410255943
 31
0.0
  0
LINE
  5
24F
330
1A
100
AcDbEntity
  8
SEIHIN
  6
CONTINUOUS
 62
     3
 48
5.0
100
AcDbLine
 10
195.4707420613357
 20
111.4120410255942
 30
0.0
 11
197.4707420613357
 21
109.1620410255942
 31
0.0
  0
LINE
  5
250
330
1A
100
AcDbEntity
  8
SEIHIN
  6
CONTINUOUS
 62
     3
 48
5.0
100
AcDbLine
 10
193.9707420613357
 20
106.4121410255942
 30
0.0
 11
193.9707420613357
 21
97.91204102559426
 31
0.0
  0
LINE
  5
251
330
1A
100
AcDbEntity
  8
SEIHIN
  6
CONTINUOUS
 62
     3
 48
5.0
100
AcDbLine
 10
192.4707420613357
 20
106.4121410255942
 30
0.0
 11
192.4707420613357
 21
97.91204102559426
 31
0.0
  0
ARC
  5
252
330
1A
100
AcDbEntity
  8
SEIHIN
  6
CONTINUOUS
 62
     3
 48
5.0
100
AcDbCircle
 10
191.9707420613357
 20
97.91204102559426
 30
0.0
 40
2.0
100
AcDbArc
 50
270.0
 51
0.0
  0
LINE
  5
253
330
1A
100
AcDbEntity
  8
SEIHIN
  6
CONTINUOUS
 62
     3
 48
5.0
100
AcDbLine
 10
191.9707420613357
 20
95.91204102559425
 30
0.0
 11
191.3228420613357
 21
95.91204102559425
 31
0.0
  0
LINE
  5
254
330
1A
100
AcDbEntity
  8
SEIHIN
  6
CONTINUOUS
 62
     3
 48
5.0
100
AcDbLine
 10
191.9707420613357
 20
97.41204102559425
 30
0.0
 11
191.3228420613357
 21
97.41204102559425
 31
0.0
  0
ARC
  5
255
330
1A
100
AcDbEntity
  8
SEIHIN
  6
CONTINUOUS
 62
     3
 48
5.0
100
AcDbCircle
 10
191.3228495431378
 20
95.41204624435776
 30
0.0
 40
1.999994781250489
100
AcDbArc
 50
90.00021433840146
 51
159.7938891257118
  0
ARC
  5
256
330
1A
100
AcDbEntity
  8
SEIHIN
  6
CONTINUOUS
 62
     3
 48
5.0
100
AcDbCircle
 10
191.3227934814193
 20
95.412007137891
 30
0.0
 40
0.5000338900630875
100
AcDbArc
 50
89.99443352893187
 51
159.791076423741
  0
ARC
  5
257
330
1A
100
AcDbEntity
  8
SEIHIN
  6
CONTINUOUS
 62
     3
 48
5.0
100
AcDbCircle
 10
191.9707420613357
 20
97.91204102559426
 30
0.0
 40
0.5
100
AcDbArc
 50
270.0
 51
0.0
  0
LINE
  5
258
330
1A
100
AcDbEntity
  8
SEIHIN
  6
CONTINUOUS
 62
     3
 48
5.0
100
AcDbLine
 10
195.4707420613357
 20
106.4121410255942
 30
0.0
 11
195.4707420613357
 21
101.4121410255943
 31
0.0
  0
LINE
  5
259
330
1A
100
AcDbEntity
  8
SEIHIN
  6
CONTINUOUS
 62
     3
 48
5.0
100
AcDbLine
 10
191.4707420613357
 20
106.4121410255942
 30
0.0
 11
191.4707420613357
 21
101.9121410255943
 31
0.0
  0
LINE
  5
25A
330
1A
100
AcDbEntity
  8
SEIHIN
  6
CONTINUOUS
 62
     3
 48
5.0
100
AcDbLine
 10
192.4707420613357
 20
101.9121410255943
 30
0.0
 11
191.4707420613357
 21
101.9121410255943
 31
0.0
  0
LINE
  5
25B
330
1A
100
AcDbEntity
  8
SEIHIN
  6
CONTINUOUS
 62
     3
 48
5.0
100
AcDbLine
 10
195.4707420613357
 20
101.4121410255943
 30
0.0
 11
193.9707420613357
 21
101.4121410255943
 31
0.0
  0
LINE
  5
25C
330
1A
100
AcDbEntity
  8
SEIHIN
  6
CONTINUOUS
 62
     3
 48
5.0
100
AcDbLine
 10
192.4707420613357
 20
110.9121410255942
 30
0.0
 11
191.4707420613357
 21
110.9121410255942
 31
0.0
  0
LINE
  5
25D
330
1A
100
AcDbEntity
  8
SEIHIN
  6
CONTINUOUS
 62
     3
 48
5.0
100
AcDbLine
 10
191.4707420613357
 20
106.4120410255942
 30
0.0
 11
191.4707420613357
 21
110.9121410255942
 31
0.0
  0
LINE
  5
25E
330
1A
100
AcDbEntity
  8
SEIHIN
  6
CONTINUOUS
 62
     3
 48
5.0
100
AcDbLine
 10
195.4707420613357
 20
111.4121410255942
 30
0.0
 11
193.9707420613357
 21
111.4121410255942
 31
0.0
  0
LINE
  5
25F
330
1A
100
AcDbEntity
  8
SEIHIN
  6
CONTINUOUS
 62
     3
 48
5.0
100
AcDbLine
 10
195.4707420613357
 20
106.4120410255942
 30
0.0
 11
195.4707420613357
 21
111.4120410255942
 31
0.0
  0
LINE
  5
260
330
1A
100
AcDbEntity
  8
SEIHIN
  6
CONTINUOUS
 62
     3
 48
5.0
100
AcDbLine
 10
197.4707420613357
 20
106.4121410255942
 30
0.0
 11
197.4707420613357
 21
103.6621410255943
 31
0.0
  0
LINE
  5
261
330
1A
100
AcDbEntity
  8
SEIHIN
  6
CONTINUOUS
 62
     3
 48
5.0
100
AcDbLine
 10
197.4707420613357
 20
106.4120410255942
 30
0.0
 11
197.4707420613357
 21
109.1621410255942
 31
0.0
  0
ARC
  5
262
330
1A
100
AcDbEntity
  8
SEIHIN
  6
CONTINUOUS
 62
     3
 48
5.0
100
AcDbCircle
 10
161.4325915557261
 20
106.4121799832878
 30
0.0
 40
31.34999059540165
100
AcDbArc
 50
20.2042176311214
 51
84.50571553829117
  0
LINE
  5
263
330
1A
100
AcDbEntity
  8
CENTER_L
  6
CENTER
 62
     1
 48
5.0
100
AcDbLine
 10
161.4326420613356
 20
140.2621410255943
 30
0.0
 11
167.4326420613356
 21
140.2621410255943
 31
0.0
  0
ARC
  5
264
330
1A
100
AcDbEntity
  8
SEIHIN
  6
CONTINUOUS
 62
     3
 48
5.0
100
AcDbCircle
 10
161.4326420613356
 20
140.2621410255943
 30
0.0
 40
4.0
100
AcDbArc
 50
180.0
 51
0.0
  0
ARC
  5
265
330
1A
100
AcDbEntity
  8
SEIHIN
  6
CONTINUOUS
 62
     3
 48
5.0
100
AcDbCircle
 10
161.4326420613356
 20
140.2621410255943
 30
0.0
 40
4.0
100
AcDbArc
 50
0.0
 51
180.0
  0
LINE
  5
266
330
1A
100
AcDbEntity
  8
CENTER_L
  6
CENTER
 62
     1
 48
5.0
100
AcDbLine
 10
161.4326420613356
 20
140.2621410255943
 30
0.0
 11
155.4326420613356
 21
140.2621410255943
 31
0.0
  0
ARC
  5
267
330
1A
100
AcDbEntity
  8
SEIHIN
  6
CONTINUOUS
 62
     3
 48
5.0
100
AcDbCircle
 10
191.9707420613357
 20
114.9121410255942
 30
0.0
 40
2.0
100
AcDbArc
 50
0.0
 51
90.0
  0
LINE
  5
268
330
1A
100
AcDbEntity
  8
SEIHIN
  6
CONTINUOUS
 62
     3
 48
5.0
100
AcDbLine
 10
191.9707420613357
 20
116.9121410255942
 30
0.0
 11
191.3228420613357
 21
116.9121410255942
 31
0.0
  0
ARC
  5
269
330
1A
100
AcDbEntity
  8
SEIHIN
  6
CONTINUOUS
 62
     3
 48
5.0
100
AcDbCircle
 10
191.3227934814194
 20
117.4121749132975
 30
0.0
 40
0.5000338900631057
100
AcDbArc
 50
200.2089235762547
 51
270.0055664710648
  0
LINE
  5
26A
330
1A
100
AcDbEntity
  8
SEIHIN
  6
CONTINUOUS
 62
     3
 48
5.0
100
AcDbLine
 10
191.9707420613357
 20
115.4121410255942
 30
0.0
 11
191.3228420613357
 21
115.4121410255942
 31
0.0
  0
ARC
  5
26B
330
1A
100
AcDbEntity
  8
SEIHIN
  6
CONTINUOUS
 62
     3
 48
5.0
100
AcDbCircle
 10
191.3228742989536
 20
117.4121185378415
 30
0.0
 40
1.999977512507131
100
AcDbArc
 50
200.2027131268762
 51
269.9990764498917
  0
ARC
  5
26C
330
1A
100
AcDbEntity
  8
SEIHIN
  6
CONTINUOUS
 62
     3
 48
5.0
100
AcDbCircle
 10
191.9707420613357
 20
114.9121410255942
 30
0.0
 40
0.5
100
AcDbArc
 50
0.0
 51
90.0
  0
LINE
  5
26D
330
1A
100
AcDbEntity
  8
SEIHIN
  6
CONTINUOUS
 62
     3
 48
5.0
100
AcDbLine
 10
193.9708420613357
 20
196.1037589252079
 30
0.0
 11
144.5166420613357
 21
196.1038589252078
 31
0.0
  0
LINE
  5
26E
330
1A
100
AcDbEntity
  8
SEIHIN
  6
CONTINUOUS
 62
     3
 48
5.0
100
AcDbLine
 10
193.9708420613357
 20
209.103758925208
 30
0.0
 11
144.5158420613357
 21
209.1038589252078
 31
0.0
  0
LINE
  5
270
330
1A
100
AcDbEntity
  8
SEIHIN
  6
CONTINUOUS
 62
     3
 48
5.0
100
AcDbLine
 10
130.0828420613357
 20
208.6037589252079
 30
0.0
 11
144.5167420613357
 21
209.1038589252078
 31
0.0
  0
LINE
  5
271
330
1A
100
AcDbEntity
  8
SEIHIN
  6
CONTINUOUS
 62
     3
 48
5.0
100
AcDbLine
 10
129.6565420613356
 20
199.183158925208
 30
0.0
 11
142.2010420613357
 21
200.110658925208
 31
0.0
  0
LINE
  5
272
330
1A
100
AcDbEntity
  8
SEIHIN
  6
CONTINUOUS
 62
     3
 48
5.0
100
AcDbLine
 10
129.6565420613356
 20
206.0244589252079
 30
0.0
 11
142.2010420613357
 21
205.0970589252078
 31
0.0
  0
LINE
  5
273
330
1A
100
AcDbEntity
  8
SEIHIN
  6
CONTINUOUS
 62
     3
 48
5.0
100
AcDbLine
 10
132.5827420613356
 20
201.6038589252078
 30
0.0
 11
128.5827420613356
 21
201.6038589252078
 31
0.0
  0
LINE
  5
274
330
1A
100
AcDbEntity
  8
SEIHIN
  6
CONTINUOUS
 62
     3
 48
5.0
100
AcDbLine
 10
132.5828420613357
 20
203.6038589252078
 30
0.0
 11
128.5828420613357
 21
203.6038589252078
 31
0.0
  0
LINE
  5
275
330
1A
100
AcDbEntity
  8
SEIHIN
  6
CONTINUOUS
 62
     3
 48
5.0
100
AcDbLine
 10
144.5166420613357
 20
196.1038589252078
 30
0.0
 11
130.0827420613356
 21
196.6037589252079
 31
0.0
  0
LINE
  5
276
330
1A
100
AcDbEntity
  8
SEIHIN
  6
CONTINUOUS
 62
     3
 48
5.0
100
AcDbLine
 10
128.5828420613357
 20
203.6038589252078
 30
0.0
 11
128.5828420613357
 21
205.0271589252079
 31
0.0
  0
LINE
  5
277
330
1A
100
AcDbEntity
  8
SEIHIN
  6
CONTINUOUS
 62
     3
 48
5.0
100
AcDbLine
 10
130.0827420613356
 20
196.6037589252079
 30
0.0
 11
130.0827420613356
 21
199.2146589252079
 31
0.0
  0
LINE
  5
278
330
1A
100
AcDbEntity
  8
SEIHIN
  6
CONTINUOUS
 62
     3
 48
5.0
100
AcDbLine
 10
128.5827420613356
 20
200.1804589252079
 30
0.0
 11
128.5827420613356
 21
201.6038589252078
 31
0.0
  0
ARC
  5
279
330
1A
100
AcDbEntity
  8
SEIHIN
  6
CONTINUOUS
 62
     3
 48
5.0
100
AcDbCircle
 10
129.5827554936551
 20
200.1804464501501
 30
0.0
 40
1.000013432397389
100
AcDbArc
 50
179.999285241434
 51
274.2314476183862
  0
LINE
  5
27A
330
1A
100
AcDbEntity
  8
SEIHIN
  6
CONTINUOUS
 62
     3
 48
5.0
100
AcDbLine
 10
129.5828420613357
 20
203.6038589252078
 30
0.0
 11
129.5827420613357
 21
201.6038589252078
 31
0.0
  0
LINE
  5
27B
330
1A
100
AcDbEntity
  8
SEIHIN
  6
CONTINUOUS
 62
     3
 48
5.0
100
AcDbLine
 10
130.0828420613357
 20
205.9929589252078
 30
0.0
 11
130.0828420613357
 21
208.6037589252079
 31
0.0
  0
ARC
  5
27C
330
1A
100
AcDbEntity
  8
SEIHIN
  6
CONTINUOUS
 62
     3
 48
5.0
100
AcDbCircle
 10
129.5828518062407
 20
205.0271679765421
 30
0.0
 40
1.000009744945937
100
AcDbArc
 50
85.77407006447366
 51
180.0005185981902
  0
ARC
  5
27D
330
1A
100
AcDbEntity
  8
SEIHIN
  6
CONTINUOUS
 62
     3
 48
5.0
100
AcDbCircle
 10
142.0166420613356
 20
202.6038589252078
 30
0.0
 40
2.500000000000056
100
AcDbArc
 50
0.0000000000013028
 51
90.00000000000129
  0
LINE
  5
27E
330
1A
100
AcDbEntity
  8
SEIHIN
  6
CONTINUOUS
 62
     3
 48
5.0
100
AcDbLine
 10
132.5828420613357
 20
203.6038589252078
 30
0.0
 11
132.5827420613356
 21
201.6038589252078
 31
0.0
  0
ARC
  5
27F
330
1A
100
AcDbEntity
  8
SEIHIN
  6
CONTINUOUS
 62
     3
 48
5.0
100
AcDbCircle
 10
142.0166420613356
 20
202.6038589252078
 30
0.0
 40
2.500000000000056
100
AcDbArc
 50
269.9999999999986
 51
359.9999999999987
  0
LINE
  5
280
330
1A
100
AcDbEntity
  8
CENTER_L
  6
CENTER
 62
     1
 48
5.0
100
AcDbLine
 10
161.4327420613357
 20
190.0379589252078
 30
0.0
 11
161.4327420613357
 21
214.1142589252078
 31
0.0
  0
LINE
  5
281
330
1A
100
AcDbEntity
  8
SEIHIN
  6
CONTINUOUS
 62
     3
 48
5.0
100
AcDbLine
 10
165.9327420613357
 20
199.8537589252078
 30
0.0
 11
157.9327420613357
 21
199.8538589252078
 31
0.0
  0
LINE
  5
282
330
1A
100
AcDbEntity
  8
SEIHIN
  6
CONTINUOUS
 62
     3
 48
5.0
100
AcDbLine
 10
164.9327420613357
 20
198.8538589252078
 30
0.0
 11
156.9327420613356
 21
198.8538589252078
 31
0.0
  0
LINE
  5
283
330
1A
100
AcDbEntity
  8
SEIHIN
  6
CONTINUOUS
 62
     3
 48
5.0
100
AcDbLine
 10
164.9327420613357
 20
206.3540589252078
 30
0.0
 11
156.9327420613356
 21
206.3540589252078
 31
0.0
  0
LINE
  5
284
330
1A
100
AcDbEntity
  8
SEIHIN
  6
CONTINUOUS
 62
     3
 48
5.0
100
AcDbLine
 10
165.9327420613357
 20
205.3539589252079
 30
0.0
 11
157.9327420613357
 21
205.3540589252079
 31
0.0
  0
LINE
  5
285
330
1A
100
AcDbEntity
  8
SEIHIN
  6
CONTINUOUS
 62
     3
 48
5.0
100
AcDbLine
 10
157.4327420613357
 20
194.6038589252078
 30
0.0
 11
165.4327420613356
 21
194.6038589252078
 31
0.0
  0
LINE
  5
286
330
1A
100
AcDbEntity
  8
SEIHIN
  6
CONTINUOUS
 62
     3
 48
5.0
100
AcDbLine
 10
156.9327420613356
 20
202.6039589252079
 30
0.0
 11
156.9327420613356
 21
206.353958925208
 31
0.0
  0
LINE
  5
287
330
1A
100
AcDbEntity
  8
SEIHIN
  6
CONTINUOUS
 62
     3
 48
5.0
100
AcDbLine
 10
157.9327420613357
 20
202.6039589252079
 30
0.0
 11
157.9327420613357
 21
205.3539589252079
 31
0.0
  0
LINE
  5
288
330
1A
100
AcDbEntity
  8
SEIHIN
  6
CONTINUOUS
 62
     3
 48
5.0
100
AcDbLine
 10
157.4327420613357
 20
194.6038589252078
 30
0.0
 11
157.4327420613357
 21
198.8538589252078
 31
0.0
  0
LINE
  5
289
330
1A
100
AcDbEntity
  8
SEIHIN
  6
CONTINUOUS
 62
     3
 48
5.0
100
AcDbLine
 10
157.9327420613357
 20
202.6038589252078
 30
0.0
 11
157.9327420613357
 21
199.8538589252078
 31
0.0
  0
LINE
  5
28A
330
1A
100
AcDbEntity
  8
SEIHIN
  6
CONTINUOUS
 62
     3
 48
5.0
100
AcDbLine
 10
156.9327420613356
 20
202.6038589252078
 30
0.0
 11
156.9327420613356
 21
198.8538589252078
 31
0.0
  0
LINE
  5
28B
330
1A
100
AcDbEntity
  8
SEIHIN
  6
CONTINUOUS
 62
     3
 48
5.0
100
AcDbLine
 10
163.9327420613357
 20
209.1038589252078
 30
0.0
 11
163.9327420613357
 21
209.6038589252078
 31
0.0
  0
LINE
  5
28C
330
1A
100
AcDbEntity
  8
SEIHIN
  6
CONTINUOUS
 62
     3
 48
5.0
100
AcDbLine
 10
158.9327420613356
 20
209.1038589252078
 30
0.0
 11
158.9327420613356
 21
209.6038589252078
 31
0.0
  0
LINE
  5
28D
330
1A
100
AcDbEntity
  8
SEIHIN
  6
CONTINUOUS
 62
     3
 48
5.0
100
AcDbLine
 10
157.4327420613357
 20
209.1039589252078
 30
0.0
 11
157.4327420613357
 21
206.353958925208
 31
0.0
  0
LINE
  5
28E
330
1A
100
AcDbEntity
  8
SEIHIN
  6
CONTINUOUS
 62
     3
 48
5.0
100
AcDbLine
 10
158.9327420613356
 20
209.6038589252078
 30
0.0
 11
163.9327420613357
 21
209.6038589252078
 31
0.0
  0
LINE
  5
28F
330
1A
100
AcDbEntity
  8
SEIHIN
  6
CONTINUOUS
 62
     3
 48
5.0
100
AcDbLine
 10
165.4327420613356
 20
205.3540589252079
 30
0.0
 11
165.4327420613356
 21
202.6039589252079
 31
0.0
  0
LINE
  5
290
330
1A
100
AcDbEntity
  8
SEIHIN
  6
CONTINUOUS
 62
     3
 48
5.0
100
AcDbLine
 10
165.9327420613357
 20
199.8538589252078
 30
0.0
 11
165.9327420613357
 21
196.1038589252078
 31
0.0
  0
LINE
  5
291
330
1A
100
AcDbEntity
  8
SEIHIN
  6
CONTINUOUS
 62
     3
 48
5.0
100
AcDbLine
 10
164.9327420613357
 20
198.8538589252078
 30
0.0
 11
164.9327420613357
 21
196.1038589252078
 31
0.0
  0
LINE
  5
292
330
1A
100
AcDbEntity
  8
SEIHIN
  6
CONTINUOUS
 62
     3
 48
5.0
100
AcDbLine
 10
165.4327420613356
 20
194.6038589252078
 30
0.0
 11
165.4327420613356
 21
196.1038589252078
 31
0.0
  0
LINE
  5
293
330
1A
100
AcDbEntity
  8
SEIHIN
  6
CONTINUOUS
 62
     3
 48
5.0
100
AcDbLine
 10
165.4327420613356
 20
199.8538589252078
 30
0.0
 11
165.4327420613356
 21
202.6038589252078
 31
0.0
  0
LINE
  5
294
330
1A
100
AcDbEntity
  8
SEIHIN
  6
CONTINUOUS
 62
     3
 48
5.0
100
AcDbLine
 10
164.9327420613357
 20
206.3540589252078
 30
0.0
 11
164.9327420613357
 21
209.1039589252078
 31
0.0
  0
LINE
  5
295
330
1A
100
AcDbEntity
  8
SEIHIN
  6
CONTINUOUS
 62
     3
 48
5.0
100
AcDbLine
 10
165.9327420613357
 20
205.3539589252079
 30
0.0
 11
165.9327420613357
 21
209.1039589252078
 31
0.0
  0
LINE
  5
296
330
1A
100
AcDbEntity
  8
SEIHIN
  6
CONTINUOUS
 62
     3
 48
5.0
100
AcDbLine
 10
195.4709420613357
 20
207.6038589252078
 30
0.0
 11
197.4709420613357
 21
205.3538589252078
 31
0.0
  0
LINE
  5
297
330
1A
100
AcDbEntity
  8
SEIHIN
  6
CONTINUOUS
 62
     3
 48
5.0
100
AcDbLine
 10
195.4709420613357
 20
197.6038589252078
 30
0.0
 11
197.4709420613357
 21
199.8538589252078
 31
0.0
  0
LINE
  5
298
330
1A
100
AcDbEntity
  8
SEIHIN
  6
CONTINUOUS
 62
     3
 48
5.0
100
AcDbLine
 10
195.4709420613357
 20
202.6038589252078
 30
0.0
 11
195.4709420613357
 21
207.6038589252078
 31
0.0
  0
LINE
  5
299
330
1A
100
AcDbEntity
  8
SEIHIN
  6
CONTINUOUS
 62
     3
 48
5.0
100
AcDbLine
 10
190.4708420613355
 20
196.1037589252079
 30
0.0
 11
190.4708420613355
 21
209.103758925208
 31
0.0
  0
LINE
  5
29A
330
1A
100
AcDbEntity
  8
SEIHIN
  6
CONTINUOUS
 62
     3
 48
5.0
100
AcDbLine
 10
193.9708420613357
 20
196.1037589252079
 30
0.0
 11
193.9708420613357
 21
209.103758925208
 31
0.0
  0
LINE
  5
29B
330
1A
100
AcDbEntity
  8
SEIHIN
  6
CONTINUOUS
 62
     3
 48
5.0
100
AcDbLine
 10
195.4709420613357
 20
202.6039589252079
 30
0.0
 11
195.4709420613357
 21
197.6038589252078
 31
0.0
  0
LINE
  5
29C
330
1A
100
AcDbEntity
  8
SEIHIN
  6
CONTINUOUS
 62
     3
 48
5.0
100
AcDbLine
 10
195.4709420613357
 20
197.6038589252078
 30
0.0
 11
193.9709420613357
 21
197.6038589252078
 31
0.0
  0
LINE
  5
29D
330
1A
100
AcDbEntity
  8
SEIHIN
  6
CONTINUOUS
 62
     3
 48
5.0
100
AcDbLine
 10
195.4709420613357
 20
207.6038589252078
 30
0.0
 11
193.9709420613357
 21
207.6038589252078
 31
0.0
  0
LINE
  5
29E
330
1A
100
AcDbEntity
  8
SEIHIN
  6
CONTINUOUS
 62
     3
 48
5.0
100
AcDbLine
 10
197.4709420613357
 20
202.6038589252078
 30
0.0
 11
197.4709420613357
 21
205.3538589252078
 31
0.0
  0
LINE
  5
29F
330
1A
100
AcDbEntity
  8
SEIHIN
  6
CONTINUOUS
 62
     3
 48
5.0
100
AcDbLine
 10
197.4709420613357
 20
202.6039589252079
 30
0.0
 11
197.4709420613357
 21
199.8538589252078
 31
0.0
  0
TEXT
  5
2A0
330
1A
100
AcDbEntity
  8
ZUWAKU
 62
     7
100
AcDbText
 10
327.1013476411085
 20
8.060146781246267
 30
0.0
 40
4.0
  1
ＬＣ３１
100
AcDbText
  0
LINE
  5
2A5
330
1A
100
AcDbEntity
  8
SEIHIN
  6
CONTINUOUS
 62
     3
 48
5.0
100
AcDbLine
 10
268.9707420613355
 20
103.6620410255942
 30
0.0
 11
283.9707420613357
 21
106.4120410255942
 31
0.0
  0
LINE
  5
2A6
330
1A
100
AcDbEntity
  8
SEIHIN
  6
CONTINUOUS
 62
     3
 48
5.0
100
AcDbLine
 10
268.9707420613355
 20
109.1620410255942
 30
0.0
 11
283.9707420613357
 21
106.4120410255942
 31
0.0
  0
LINE
  5
2A7
330
1A
100
AcDbEntity
  8
SEIHIN
  6
CONTINUOUS
 62
     3
 48
5.0
100
AcDbLine
 10
273.9707420613357
 20
104.5787410255943
 30
0.0
 11
268.9707420613355
 21
106.4120410255942
 31
0.0
  0
LINE
  5
2A8
330
1A
100
AcDbEntity
  8
SEIHIN
  6
CONTINUOUS
 62
     3
 48
5.0
100
AcDbLine
 10
273.9707420613357
 20
108.2454410255943
 30
0.0
 11
268.9707420613355
 21
106.4120410255942
 31
0.0
  0
LINE
  5
2A9
330
1A
100
AcDbEntity
  8
SEIHIN
  6
CONTINUOUS
 62
     3
 48
5.0
100
AcDbLine
 10
268.9709420613358
 20
199.8538589252078
 30
0.0
 11
283.9709420613358
 21
202.6037589252079
 31
0.0
  0
LINE
  5
2AA
330
1A
100
AcDbEntity
  8
SEIHIN
  6
CONTINUOUS
 62
     3
 48
5.0
100
AcDbLine
 10
268.9709420613358
 20
205.3538589252078
 30
0.0
 11
283.9709420613358
 21
202.6037589252079
 31
0.0
  0
LINE
  5
2AB
330
1A
100
AcDbEntity
  8
SEIHIN
  6
CONTINUOUS
 62
     3
 48
5.0
100
AcDbLine
 10
273.9709420613357
 20
204.4371589252079
 30
0.0
 11
268.9709420613358
 21
202.6038589252078
 31
0.0
  0
LINE
  5
2AC
330
1A
100
AcDbEntity
  8
SEIHIN
  6
CONTINUOUS
 62
     3
 48
5.0
100
AcDbLine
 10
273.9709420613357
 20
200.7704589252079
 30
0.0
 11
268.9709420613358
 21
202.6038589252078
 31
0.0
  0
DIMENSION
  5
360
330
1A
100
AcDbEntity
  8
SUNPOU
  6
CONTINUOUS
 48
5.0
100
AcDbDimension
  2
*D1
 10
103.8484623408446
 20
196.1038589252078
 30
0.0
 11
101.3484623408446
 21
202.6038589252078
 31
0.0
 12
-1.20001850015501
 22
-14.98782271673223
 32
0.0
 70
    32
  3
STANDARD
100
AcDbAlignedDimension
 13
144.5167420613357
 23
209.1038589252078
 33
0.0
 14
144.5166420613357
 24
196.1038589252078
 34
0.0
 50
90.0
100
AcDbRotatedDimension
1001
ACAD
1000
DSTYLE
1002
{
1070
   140
1040
3.0
1070
    74
1070
     0
1070
   172
1070
     1
1070
    73
1070
     0
1070
   272
1070
     2
1070
    77
1070
     3
1070
   173
1070
     1
1070
   147
1040
1.0
1070
    42
1040
3.0
1070
    44
1040
1.5
1070
    43
1040
7.0
1070
   271
1070
     0
1070
   178
1070
     4
1070
   177
1070
     4
1070
   176
1070
     4
1070
   141
1040
150.0
1070
     7
1000
_OPEN
1070
     6
1000
_OPEN
1070
    41
1040
3.0
1002
}
  0
DIMENSION
  5
36A
330
1A
100
AcDbEntity
  8
SUNPOU
  6
CONTINUOUS
 48
5.0
100
AcDbDimension
  2
*D2
 10
144.1350498597072
 20
80.26611026705221
 30
0.0
 11
169.3080132102677
 21
118.3162601839822
 31
0.0
 12
-1.20001850015501
 22
-2.226540616345914
 32
0.0
 70
   163
  3
STANDARD
100
AcDbDiametricDimension
 15
178.7301332517475
 25
132.558249699522
 35
0.0
 40
0.0
1001
ACAD
1000
DSTYLE
1002
{
1070
   288
1070
     1
1070
   140
1040
3.0
1070
    74
1070
     0
1070
   172
1070
     1
1070
    73
1070
     0
1070
   272
1070
     2
1070
    77
1070
     3
1070
   173
1070
     1
1070
   147
1040
1.0
1070
    42
1040
3.0
1070
    44
1040
1.5
1070
    43
1040
7.0
1070
   271
1070
     0
1070
   178
1070
     4
1070
   177
1070
     4
1070
   176
1070
     4
1070
   141
1040
150.0
1070
     7
1000
_OPEN
1070
     6
1000
_OPEN
1070
    41
1040
3.0
1002
}
  0
DIMENSION
  5
379
330
1A
100
AcDbEntity
  8
SUNPOU
  6
CONTINUOUS
 48
5.0
100
AcDbDimension
  2
*D3
 10
312.9145945099519
 20
103.6620410255942
 30
0.0
 11
310.4145945099519
 21
90.96204102559427
 31
0.0
 12
-1.20001850015501
 22
-14.98782271673223
 32
0.0
 70
    32
  1
φ <>
  3
STANDARD
100
AcDbAlignedDimension
 13
268.9707420613355
 23
109.1620410255942
 33
0.0
 14
268.9707420613355
 24
103.6620410255942
 34
0.0
 50
90.0
100
AcDbRotatedDimension
1001
ACAD
1000
DSTYLE
1002
{
1070
   140
1040
3.0
1070
    74
1070
     0
1070
   172
1070
     1
1070
    73
1070
     0
1070
   272
1070
     2
1070
    77
1070
     3
1070
   173
1070
     1
1070
   147
1040
1.0
1070
    42
1040
3.0
1070
    44
1040
1.5
1070
    43
1040
7.0
1070
   271
1070
     1
1070
   178
1070
     4
1070
   177
1070
     4
1070
   176
1070
     4
1070
   141
1040
150.0
1070
     7
1000
_OPEN
1070
     6
1000
_OPEN
1070
    41
1040
3.0
1002
}
  0
DIMENSION
  5
393
330
1A
100
AcDbEntity
  8
SUNPOU
  6
CONTINUOUS
 48
5.0
100
AcDbDimension
  2
*D4
 10
283.9707313890355
 20
160.889325940604
 30
0.0
 11
206.2766867251851
 21
163.389325940604
 31
0.0
 12
-1.20001850015501
 22
-2.226540616345914
 32
0.0
 70
    32
  3
STANDARD
100
AcDbAlignedDimension
 13
128.5826420613347
 23
106.41213745997
 33
0.0
 14
283.9707313890355
 24
106.4120429821826
 34
0.0
100
AcDbRotatedDimension
1001
ACAD
1000
DSTYLE
1002
{
1070
   140
1040
3.0
1070
    74
1070
     0
1070
   172
1070
     1
1070
    73
1070
     0
1070
   272
1070
     2
1070
    77
1070
     3
1070
   173
1070
     1
1070
   147
1040
1.0
1070
    42
1040
3.0
1070
    44
1040
1.5
1070
    43
1040
7.0
1070
   271
1070
     0
1070
   178
1070
     4
1070
   177
1070
     4
1070
   176
1070
     4
1070
   141
1040
150.0
1070
     7
1000
_OPEN
1070
     6
1000
_OPEN
1070
    41
1040
3.0
1002
}
  0
DIMENSION
  5
3D3
330
1A
100
AcDbEntity
  8
SUNPOU
  6
CONTINUOUS
 48
5.0
100
AcDbDimension
  2
*D5
 10
283.9707420613357
 20
142.2329073761704
 30
0.0
 11
238.9707420613357
 21
144.7329073761704
 31
0.0
 12
-1.20001850015501
 22
-14.98782271673223
 32
0.0
 70
    32
  3
STANDARD
100
AcDbAlignedDimension
 13
193.9707420613357
 23
114.9121410255942
 33
0.0
 14
283.9707420613357
 24
106.4120410255942
 34
0.0
100
AcDbRotatedDimension
1001
ACAD
1000
DSTYLE
1002
{
1070
   140
1040
3.0
1070
    74
1070
     0
1070
   172
1070
     1
1070
    73
1070
     0
1070
   272
1070
     2
1070
    77
1070
     3
1070
   173
1070
     1
1070
   147
1040
1.0
1070
    42
1040
3.0
1070
    44
1040
1.5
1070
    43
1040
7.0
1070
   271
1070
     0
1070
   178
1070
     4
1070
   177
1070
     4
1070
   176
1070
     4
1070
   141
1040
150.0
1070
     7
1000
_OPEN
1070
     6
1000
_OPEN
1070
    41
1040
3.0
1002
}
  0
VIEWPORT
  5
22
330
17
100
AcDbEntity
 67
     1
  8
0
100
AcDbViewport
 10
313.6808219178082
 20
148.5
 30
0.0
 40
627.3616438356165
 41
297.0
 68
     2
 69
     1
1001
ACAD
1000
MVIEW
1002
{
1070
    16
1010
0.0
1020
0.0
1030
0.0
1010
0.0
1020
0.0
1030
1.0
1040
0.0
1040
297.0
1040
313.6808219178082
1040
148.5
1040
50.0
1040
0.0
1040
0.0
1070
     0
1070
   100
1070
     1
1070
     0
1070
     0
1070
     0
1070
     0
1070
     0
1040
0.0
1040
0.0
1040
0.0
1040
1.0
1040
1.0
1040
10.0
1040
10.0
1070
     0
1002
{
1002
}
1002
}
  0
VIEWPORT
  5
64
330
17
100
AcDbEntity
 67
     1
  8
VIEWPORT
100
AcDbViewport
 10
210.0
 20
148.5
 30
0.0
 40
420.0
 41
297.0
 68
     1
 69
     2
1001
ACAD
1000
MVIEW
1002
{
1070
    16
1010
0.0
1020
0.0
1030
0.0
1010
0.0
1020
0.0
1030
1.0
1040
0.0
1040
302.9399999999998
1040
210.0
1040
148.5
1040
50.0
1040
0.0
1040
0.0
1070
     0
1070
   100
1070
     1
1070
     0
1070
     0
1070
     0
1070
     0
1070
     0
1040
0.0
1040
0.0
1040
0.0
1040
5.0
1040
5.0
1040
0.0
1040
0.0
1070
     0
1002
{
1002
}
1002
}
  0
ENDSEC
  0
SECTION
  2
OBJECTS
  0
DICTIONARY
  5
C
330
0
100
AcDbDictionary
  3
ACAD_GROUP
350
D
  3
ACAD_LAYOUT
350
3E2
  3
ACAD_MLINESTYLE
350
E
  3
ACAD_PLOTSETTINGS
350
3E3
1001
ACAD
1000
TREAT_AS_HARD
1070
     0
  0
DICTIONARY
  5
411
330
1A
100
AcDbDictionary
  3
ACAD_LAYOUTSELFREF
350
455
1001
ACAD
1000
TREAT_AS_HARD
1070
     1
  0
DICTIONARY
  5
40F
330
17
100
AcDbDictionary
  3
ACAD_LAYOUTSELFREF
350
454
1001
ACAD
1000
TREAT_AS_HARD
1070
     1
  0
DICTIONARY
  5
D
102
{ACAD_REACTORS
330
C
102
}
330
C
100
AcDbDictionary
1001
ACAD
1000
TREAT_AS_HARD
1070
     0
  0
DICTIONARY
  5
3E2
102
{ACAD_REACTORS
330
C
102
}
330
C
100
AcDbDictionary
1001
ACAD
1000
TREAT_AS_HARD
1070
     0
  0
DICTIONARY
  5
E
102
{ACAD_REACTORS
330
C
102
}
330
C
100
AcDbDictionary
  3
STANDARD
350
13
1001
ACAD
1000
TREAT_AS_HARD
1070
     0
  0
DICTIONARY
  5
3E3
102
{ACAD_REACTORS
330
C
102
}
330
C
100
AcDbDictionary
1001
ACAD
1000
TREAT_AS_HARD
1070
     0
  0
XRECORD
  5
455
102
{ACAD_REACTORS
330
411
102
}
330
411
100
AcDbXrecord
340
1A
  0
XRECORD
  5
454
102
{ACAD_REACTORS
330
40F
102
}
330
40F
100
AcDbXrecord
340
17
  0
MLINESTYLE
  5
13
102
{ACAD_REACTORS
330
E
102
}
330
E
100
AcDbMlineStyle
  2
STANDARD
 70
     0
  3

 62
     0
 51
90.0
 52
90.0
 71
     2
 49
0.5
 62
   256
  6
BYLAYER
 49
-0.5
 62
   256
  6
BYLAYER
  0
ENDSEC
  0
EOF
