  0
SECTION
  2
HEADER
  9
$ACADVER
  1
AC1014
  9
$ACADMAINTVER
 70
     9
  9
$DWGCODEPAGE
  3
ANSI_932
  9
$INSBASE
 10
0.0
 20
0.0
 30
0.0
  9
$EXTMIN
 10
-0.0256331696125471
 20
-0.018126632348185
 30
-0.0015258207003583
  9
$EXTMAX
 10
797.6000995445101
 20
551.6452344470808
 30
0.0000000349246037
  9
$LIMMIN
 10
0.0
 20
0.0
  9
$LIMMAX
 10
840.0
 20
594.0
  9
$ORTHOMODE
 70
     0
  9
$REGENMODE
 70
     1
  9
$FILLMODE
 70
     1
  9
$QTEXTMODE
 70
     0
  9
$MIRRTEXT
 70
     1
  9
$DRAGMODE
 70
     2
  9
$LTSCALE
 40
2.0
  9
$OSMODE
 70
    37
  9
$ATTMODE
 70
     1
  9
$TEXTSIZE
 40
5.0
  9
$TRACEWID
 40
1.0
  9
$TEXTSTYLE
  7
STANDARD
  9
$CLAYER
  8
SUNPOU
  9
$CELTYPE
  6
BYLAYER
  9
$CECOLOR
 62
   256
  9
$CELTSCALE
 40
1.0
  9
$DELOBJ
 70
     1
  9
$DISPSILH
 70
     0
  9
$DIMSCALE
 40
1.0
  9
$DIMASZ
 40
7.0
  9
$DIMEXO
 40
6.0
  9
$DIMDLI
 40
14.0
  9
$DIMRND
 40
0.0
  9
$DIMDLE
 40
0.0
  9
$DIMEXE
 40
3.0
  9
$DIMTP
 40
0.0
  9
$DIMTM
 40
0.0
  9
$DIMTXT
 40
6.0
  9
$DIMCEN
 40
150.0
  9
$DIMTSZ
 40
0.0
  9
$DIMTOL
 70
     0
  9
$DIMLIM
 70
     0
  9
$DIMTIH
 70
     0
  9
$DIMTOH
 70
     0
  9
$DIMSE1
 70
     0
  9
$DIMSE2
 70
     0
  9
$DIMTAD
 70
     3
  9
$DIMZIN
 70
     0
  9
$DIMBLK
  1

  9
$DIMASO
 70
     1
  9
$DIMSHO
 70
     1
  9
$DIMPOST
  1

  9
$DIMAPOST
  1

  9
$DIMALT
 70
     0
  9
$DIMALTD
 70
     2
  9
$DIMALTF
 40
25.4
  9
$DIMLFAC
 40
1.0
  9
$DIMTOFL
 70
     1
  9
$DIMTVP
 40
0.0
  9
$DIMTIX
 70
     0
  9
$DIMSOXD
 70
     0
  9
$DIMSAH
 70
     1
  9
$DIMBLK1
  1
OPEN
  9
$DIMBLK2
  1
OPEN
  9
$DIMSTYLE
  2
STANDARD
  9
$DIMCLRD
 70
   256
  9
$DIMCLRE
 70
   256
  9
$DIMCLRT
 70
   256
  9
$DIMTFAC
 40
1.0
  9
$DIMGAP
 40
2.0
  9
$DIMJUST
 70
     0
  9
$DIMSD1
 70
     0
  9
$DIMSD2
 70
     0
  9
$DIMTOLJ
 70
     1
  9
$DIMTZIN
 70
     0
  9
$DIMALTZ
 70
     0
  9
$DIMALTTZ
 70
     0
  9
$DIMFIT
 70
     3
  9
$DIMUPT
 70
     0
  9
$DIMUNIT
 70
     2
  9
$DIMDEC
 70
     0
  9
$DIMTDEC
 70
     0
  9
$DIMALTU
 70
     2
  9
$DIMALTTD
 70
     2
  9
$DIMTXSTY
  7
STANDARD
  9
$DIMAUNIT
 70
     0
  9
$LUNITS
 70
     2
  9
$LUPREC
 70
     4
  9
$SKETCHINC
 40
1.0
  9
$FILLETRAD
 40
2.0
  9
$AUNITS
 70
     0
  9
$AUPREC
 70
     0
  9
$MENU
  1
.
  9
$ELEVATION
 40
0.0
  9
$PELEVATION
 40
0.0
  9
$THICKNESS
 40
0.0
  9
$LIMCHECK
 70
     0
  9
$BLIPMODE
 70
     0
  9
$CHAMFERA
 40
20.0
  9
$CHAMFERB
 40
20.0
  9
$CHAMFERC
 40
40.0
  9
$CHAMFERD
 40
0.0
  9
$SKPOLY
 70
     0
  9
$TDCREATE
 40
2450994.354346065
  9
$TDUPDATE
 40
2454515.373821655
  9
$TDINDWG
 40
0.1187233218
  9
$TDUSRTIMER
 40
0.1187233218
  9
$USRTIMER
 70
     1
  9
$ANGBASE
 50
0.0
  9
$ANGDIR
 70
     0
  9
$PDMODE
 70
     1
  9
$PDSIZE
 40
0.0
  9
$PLINEWID
 40
0.0
  9
$COORDS
 70
     2
  9
$SPLFRAME
 70
     0
  9
$SPLINETYPE
 70
     6
  9
$SPLINESEGS
 70
     8
  9
$ATTDIA
 70
     0
  9
$ATTREQ
 70
     1
  9
$HANDLING
 70
 10241
  9
$HANDSEED
  5
BC8
  9
$SURFTAB1
 70
     6
  9
$SURFTAB2
 70
     6
  9
$SURFTYPE
 70
     6
  9
$SURFU
 70
     6
  9
$SURFV
 70
     6
  9
$UCSNAME
  2

  9
$UCSORG
 10
0.0
 20
0.0
 30
0.0
  9
$UCSXDIR
 10
1.0
 20
0.0
 30
0.0
  9
$UCSYDIR
 10
0.0
 20
1.0
 30
0.0
  9
$PUCSNAME
  2

  9
$PUCSORG
 10
0.0
 20
0.0
 30
0.0
  9
$PUCSXDIR
 10
1.0
 20
0.0
 30
0.0
  9
$PUCSYDIR
 10
0.0
 20
1.0
 30
0.0
  9
$USERI1
 70
     0
  9
$USERI2
 70
     0
  9
$USERI3
 70
     0
  9
$USERI4
 70
     0
  9
$USERI5
 70
     0
  9
$USERR1
 40
0.0
  9
$USERR2
 40
0.0
  9
$USERR3
 40
0.0
  9
$USERR4
 40
0.0
  9
$USERR5
 40
0.0
  9
$WORLDVIEW
 70
     1
  9
$SHADEDGE
 70
     3
  9
$SHADEDIF
 70
    70
  9
$TILEMODE
 70
     1
  9
$MAXACTVP
 70
    16
  9
$PINSBASE
 10
0.0
 20
0.0
 30
0.0
  9
$PLIMCHECK
 70
     0
  9
$PEXTMIN
 10
0.0
 20
0.0
 30
0.0
  9
$PEXTMAX
 10
420.0
 20
297.0
 30
0.0
  9
$PLIMMIN
 10
0.0
 20
0.0
  9
$PLIMMAX
 10
420.0
 20
297.0
  9
$UNITMODE
 70
     0
  9
$VISRETAIN
 70
     0
  9
$PLINEGEN
 70
     0
  9
$PSLTSCALE
 70
     1
  9
$TREEDEPTH
 70
  3020
  9
$PICKSTYLE
 70
     1
  9
$CMLSTYLE
  2
STANDARD
  9
$CMLJUST
 70
     0
  9
$CMLSCALE
 40
1.0
  9
$PROXYGRAPHICS
 70
     1
  9
$MEASUREMENT
 70
     1
  0
ENDSEC
  0
SECTION
  2
CLASSES
  0
CLASS
  1
ACDBDICTIONARYWDFLT
  2
AcDbDictionaryWithDefault
  3
AutoCAD 2000
 90
        0
280
     0
281
     0
  0
CLASS
  1
ACDBPLACEHOLDER
  2
AcDbPlaceHolder
  3
AutoCAD 2000
 90
        0
280
     0
281
     0
  0
CLASS
  1
LAYOUT
  2
AcDbLayout
  3
AutoCAD 2000
 90
        0
280
     0
281
     0
  0
CLASS
  1
LONG_TRANSACTION
  2
AcDbLongTransaction
  3
AutoCAD 2000
 90
        0
280
     0
281
     0
  0
CLASS
  1
LWPOLYLINE
  2
AcDbPolyline
  3
AutoCAD 2000
 90
        0
280
     0
281
     1
  0
CLASS
  1
HATCH
  2
AcDbHatch
  3
AutoCAD 2000
 90
        0
280
     0
281
     1
  0
CLASS
  1
XRECORD
  2
AcDbXrecord
  3
AutoCAD 2000
 90
        0
280
     0
281
     0
  0
CLASS
  1
LONG_TRANSACTION
  2
AcDbLongTransaction
  3
AutoCAD 2000
 90
        0
280
     0
281
     0
  0
CLASS
  1
LWPOLYLINE
  2
AcDbPolyline
  3
AutoCAD 2000
 90
        0
280
     0
281
     1
  0
CLASS
  1
HATCH
  2
AcDbHatch
  3
AutoCAD 2000
 90
        0
280
     0
281
     1
  0
CLASS
  1
XRECORD
  2
AcDbXrecord
  3
AutoCAD 2000
 90
        0
280
     0
281
     0
  0
CLASS
  1
LONG_TRANSACTION
  2
AcDbLongTransaction
  3
AutoCAD 2000
 90
        0
280
     0
281
     0
  0
CLASS
  1
LWPOLYLINE
  2
AcDbPolyline
  3
AutoCAD 2000
 90
        0
280
     0
281
     1
  0
CLASS
  1
HATCH
  2
AcDbHatch
  3
AutoCAD 2000
 90
        0
280
     0
281
     1
  0
CLASS
  1
XRECORD
  2
AcDbXrecord
  3
AutoCAD 2000
 90
        0
280
     0
281
     0
  0
ENDSEC
  0
SECTION
  2
TABLES
  0
TABLE
  2
VPORT
  5
8
330
0
100
AcDbSymbolTable
 70
     2
  0
VPORT
  5
BA4
330
8
100
AcDbSymbolTableRecord
100
AcDbViewportTableRecord
  2
*ACTIVE
 70
     0
 10
0.0
 20
0.0
 11
1.0
 21
1.0
 12
391.3243248751987
 22
292.7126337035726
 13
0.0
 23
0.0
 14
5.0
 24
5.0
 15
0.0
 25
0.0
 16
0.0
 26
0.0
 36
1.0
 17
0.0
 27
0.0
 37
0.0
 40
650.8760340965754
 41
1.570153061224489
 42
50.0
 43
0.0
 44
0.0
 50
0.0
 51
0.0
 71
     0
 72
   100
 73
     1
 74
     0
 75
     0
 76
     0
 77
     0
 78
     0
  0
ENDTAB
  0
TABLE
  2
LTYPE
  5
5
330
0
100
AcDbSymbolTable
 70
     3
  0
LTYPE
  5
14
330
5
100
AcDbSymbolTableRecord
100
AcDbLinetypeTableRecord
  2
BYBLOCK
 70
     0
  3

 72
    65
 73
     0
 40
0.0
  0
LTYPE
  5
15
330
5
100
AcDbSymbolTableRecord
100
AcDbLinetypeTableRecord
  2
BYLAYER
 70
     0
  3

 72
    65
 73
     0
 40
0.0
  0
LTYPE
  5
16
330
5
100
AcDbSymbolTableRecord
100
AcDbLinetypeTableRecord
  2
CONTINUOUS
 70
     0
  3
Solid line
 72
    65
 73
     0
 40
0.0
  0
LTYPE
  5
115
330
5
100
AcDbSymbolTableRecord
100
AcDbLinetypeTableRecord
  2
PHANTOM
 70
     0
  3
______  __  __  ______  __  __  ______  __  __ 
 72
    65
 73
     6
 40
2.5
 49
1.25
 74
     0
 49
-0.25
 74
     0
 49
0.25
 74
     0
 49
-0.25
 74
     0
 49
0.25
 74
     0
 49
-0.25
 74
     0
  0
LTYPE
  5
135
330
5
100
AcDbSymbolTableRecord
100
AcDbLinetypeTableRecord
  2
CENTER
 70
     0
  3
____ _ ____ _ ____ _ ____ _ ____ _ ____ _ ____ 
 72
    65
 73
     4
 40
2.0
 49
1.25
 74
     0
 49
-0.25
 74
     0
 49
0.25
 74
     0
 49
-0.25
 74
     0
  0
ENDTAB
  0
TABLE
  2
LAYER
  5
2
330
0
100
AcDbSymbolTable
 70
     9
  0
LAYER
  5
F
330
2
100
AcDbSymbolTableRecord
100
AcDbLayerTableRecord
  2
0
 70
     0
 62
     7
  6
CONTINUOUS
  0
LAYER
  5
62
330
2
100
AcDbSymbolTableRecord
100
AcDbLayerTableRecord
  2
VIEWPORT
 70
     0
 62
     7
  6
CONTINUOUS
  0
LAYER
  5
65
330
2
100
AcDbSymbolTableRecord
100
AcDbLayerTableRecord
  2
ZUWAKU
 70
     0
 62
     7
  6
CONTINUOUS
  0
LAYER
  5
154
330
2
100
AcDbSymbolTableRecord
100
AcDbLayerTableRecord
  2
NOKITOI
 70
     0
 62
     8
  6
PHANTOM
  0
LAYER
  5
155
330
2
100
AcDbSymbolTableRecord
100
AcDbLayerTableRecord
  2
SUNPOU
 70
     0
 62
     4
  6
CONTINUOUS
  0
LAYER
  5
156
330
2
100
AcDbSymbolTableRecord
100
AcDbLayerTableRecord
  2
SEIHIN
 70
     0
 62
     3
  6
CONTINUOUS
  0
LAYER
  5
157
330
2
100
AcDbSymbolTableRecord
100
AcDbLayerTableRecord
  2
CENTER_L
 70
     0
 62
     1
  6
CENTER
  0
LAYER
  5
4B5
330
2
100
AcDbSymbolTableRecord
100
AcDbLayerTableRecord
  2
DEFPOINTS
 70
     0
 62
     7
  6
CONTINUOUS
  0
LAYER
  5
A2D
330
2
100
AcDbSymbolTableRecord
100
AcDbLayerTableRecord
  2
MOJI
 70
     0
 62
     2
  6
CONTINUOUS
  0
ENDTAB
  0
TABLE
  2
STYLE
  5
3
330
0
100
AcDbSymbolTable
 70
     2
  0
STYLE
  5
10
330
3
100
AcDbSymbolTableRecord
100
AcDbTextStyleTableRecord
  2
STANDARD
 70
     0
 40
0.0
 41
1.0
 50
0.0
 71
     0
 42
5.0
  3
TXT
  4
bigfont.shx
  0
STYLE
  5
A2E
330
3
100
AcDbSymbolTableRecord
100
AcDbTextStyleTableRecord
  2
ｽﾀｲﾙ1
 70
     0
 40
0.0
 41
1.0
 50
0.0
 71
     0
 42
2.5
  3
MS PGothic.ttf
  4

1001
ACAD
1000
MS PGothic
1071
    32818
  0
ENDTAB
  0
TABLE
  2
VIEW
  5
6
330
0
100
AcDbSymbolTable
 70
     0
  0
ENDTAB
  0
TABLE
  2
UCS
  5
7
330
0
100
AcDbSymbolTable
 70
     0
  0
ENDTAB
  0
TABLE
  2
APPID
  5
9
330
0
100
AcDbSymbolTable
 70
     1
  0
APPID
  5
11
330
9
100
AcDbSymbolTableRecord
100
AcDbRegAppTableRecord
  2
ACAD
 70
     0
  0
ENDTAB
  0
TABLE
  2
DIMSTYLE
  5
A
330
0
100
AcDbSymbolTable
 70
     1
  0
DIMSTYLE
105
1D
102
{ACAD_REACTORS
330
61C
330
62B
330
649
330
656
330
663
330
6FB
330
715
330
737
330
744
330
865
330
895
330
8D0
330
97A
102
}
330
A
100
AcDbSymbolTableRecord
100
AcDbDimStyleTableRecord
  2
STANDARD
 70
     0
  3

  4

  5

  6

  7

 40
1.0
 41
0.18
 42
0.0625
 43
0.38
 44
0.18
 45
0.0
 46
0.0
 47
0.0
 48
0.0
140
0.18
141
0.09
142
0.0
143
25.4
144
1.0
145
0.0
146
1.0
147
0.09
 71
     0
 72
     0
 73
     1
 74
     1
 75
     0
 76
     0
 77
     0
 78
     0
170
     0
171
     2
172
     0
173
     0
174
     0
175
     0
176
     0
177
     0
178
     0
270
     2
271
     4
272
     4
273
     2
274
     2
340
10
275
     0
280
     0
281
     0
282
     0
283
     1
284
     0
285
     0
286
     0
287
     3
288
     0
  0
ENDTAB
  0
TABLE
  2
BLOCK_RECORD
  5
1
330
0
100
AcDbSymbolTable
 70
    15
  0
BLOCK_RECORD
  5
1A
102
{ACAD_XDICTIONARY
360
9EB
102
}
330
1
100
AcDbSymbolTableRecord
100
AcDbBlockTableRecord
  2
*MODEL_SPACE
  0
BLOCK_RECORD
  5
17
102
{ACAD_XDICTIONARY
360
9E9
102
}
330
1
100
AcDbSymbolTableRecord
100
AcDbBlockTableRecord
  2
*PAPER_SPACE
  0
BLOCK_RECORD
  5
6D
330
1
100
AcDbSymbolTableRecord
100
AcDbBlockTableRecord
  2
_OPEN
  0
BLOCK_RECORD
  5
163
330
1
100
AcDbSymbolTableRecord
100
AcDbBlockTableRecord
  2
A$C1305
  0
BLOCK_RECORD
  5
610
330
1
100
AcDbSymbolTableRecord
100
AcDbBlockTableRecord
  2
*D2
  0
BLOCK_RECORD
  5
61D
330
1
100
AcDbSymbolTableRecord
100
AcDbBlockTableRecord
  2
*D3
  0
BLOCK_RECORD
  5
63B
330
1
100
AcDbSymbolTableRecord
100
AcDbBlockTableRecord
  2
*D4
  0
BLOCK_RECORD
  5
64A
330
1
100
AcDbSymbolTableRecord
100
AcDbBlockTableRecord
  2
*D5
  0
BLOCK_RECORD
  5
657
330
1
100
AcDbSymbolTableRecord
100
AcDbBlockTableRecord
  2
*D6
  0
BLOCK_RECORD
  5
6EF
330
1
100
AcDbSymbolTableRecord
100
AcDbBlockTableRecord
  2
*D7
  0
BLOCK_RECORD
  5
709
330
1
100
AcDbSymbolTableRecord
100
AcDbBlockTableRecord
  2
*D8
  0
BLOCK_RECORD
  5
729
330
1
100
AcDbSymbolTableRecord
100
AcDbBlockTableRecord
  2
*D9
  0
BLOCK_RECORD
  5
738
330
1
100
AcDbSymbolTableRecord
100
AcDbBlockTableRecord
  2
*D10
  0
BLOCK_RECORD
  5
859
330
1
100
AcDbSymbolTableRecord
100
AcDbBlockTableRecord
  2
*D11
  0
BLOCK_RECORD
  5
889
330
1
100
AcDbSymbolTableRecord
100
AcDbBlockTableRecord
  2
*D12
  0
BLOCK_RECORD
  5
8C4
330
1
100
AcDbSymbolTableRecord
100
AcDbBlockTableRecord
  2
*D13
  0
BLOCK_RECORD
  5
96C
330
1
100
AcDbSymbolTableRecord
100
AcDbBlockTableRecord
  2
*D14
  0
ENDTAB
  0
ENDSEC
  0
SECTION
  2
BLOCKS
  0
BLOCK
  5
1B
330
1A
100
AcDbEntity
  8
0
100
AcDbBlockBegin
  2
*MODEL_SPACE
 70
     0
 10
0.0
 20
0.0
 30
0.0
  3
*MODEL_SPACE
  1

  0
ENDBLK
  5
1C
330
1A
100
AcDbEntity
  8
0
100
AcDbBlockEnd
  0
BLOCK
  5
18
330
17
100
AcDbEntity
 67
     1
  8
0
100
AcDbBlockBegin
  2
*PAPER_SPACE
 70
     0
 10
0.0
 20
0.0
 30
0.0
  3
*PAPER_SPACE
  1

  0
ENDBLK
  5
19
330
17
100
AcDbEntity
 67
     1
  8
0
100
AcDbBlockEnd
  0
BLOCK
  5
6E
330
6D
100
AcDbEntity
  8
0
100
AcDbBlockBegin
  2
_OPEN
 70
     0
 10
0.0
 20
0.0
 30
0.0
  3
_OPEN
  1

  0
LINE
  5
6F
330
6D
100
AcDbEntity
  8
0
  6
BYBLOCK
 62
     0
100
AcDbLine
 10
-1.0
 20
0.1666666666666666
 30
0.0
 11
0.0
 21
0.0
 31
0.0
  0
LINE
  5
70
330
6D
100
AcDbEntity
  8
0
  6
BYBLOCK
 62
     0
100
AcDbLine
 10
0.0
 20
0.0
 30
0.0
 11
-1.0
 21
-0.1666666666666666
 31
0.0
  0
LINE
  5
71
330
6D
100
AcDbEntity
  8
0
  6
BYBLOCK
 62
     0
100
AcDbLine
 10
0.0
 20
0.0
 30
0.0
 11
-1.0
 21
0.0
 31
0.0
  0
ENDBLK
  5
72
330
6D
100
AcDbEntity
  8
0
100
AcDbBlockEnd
  0
BLOCK
  5
1AB
330
163
100
AcDbEntity
  8
0
100
AcDbBlockBegin
  2
A$C1305
 70
     0
 10
0.0
 20
0.0
 30
0.0
  3
A$C1305
  1

  0
LINE
  5
164
330
163
100
AcDbEntity
  8
NOKITOI
  6
PHANTOM
 62
     8
 48
5.0
100
AcDbLine
 10
29.18435908443393
 20
10.10187063730222
 30
0.0
 11
19.27365908443391
 21
10.10187063730222
 31
0.0
  0
LINE
  5
165
330
163
100
AcDbEntity
  8
NOKITOI
  6
PHANTOM
 62
     8
 48
5.0
100
AcDbLine
 10
90.2981590844339
 20
0.1120706373022813
 30
0.0
 11
24.06755908443392
 21
0.1121706373021425
 31
0.0
  0
LINE
  5
166
330
163
100
AcDbEntity
  8
NOKITOI
  6
PHANTOM
 62
     8
 48
5.0
100
AcDbLine
 10
24.06755908443392
 20
0.1121706373021425
 30
0.0
 11
90.2981590844339
 21
0.1120706373022813
 31
0.0
  0
LINE
  5
167
330
163
100
AcDbEntity
  8
NOKITOI
  6
PHANTOM
 62
     8
 48
5.0
100
AcDbLine
 10
13.05735908443387
 20
12.22087063730214
 30
0.0
 11
7.218759084433713
 21
39.95217063730228
 31
0.0
  0
LINE
  5
168
330
163
100
AcDbEntity
  8
NOKITOI
  6
PHANTOM
 62
     8
 48
5.0
100
AcDbLine
 10
14.16595908443378
 20
13.23377063730208
 30
0.0
 11
8.234959084433853
 21
41.4036706373023
 31
0.0
  0
ARC
  5
169
330
163
100
AcDbEntity
  8
NOKITOI
  6
PHANTOM
 62
     8
 48
5.0
100
AcDbCircle
 10
15.13957896620524
 20
13.43874830022218
 30
0.0
 40
0.995060928010462
100
AcDbArc
 50
191.8877567214145
 51
251.4524867922934
  0
ARC
  5
16A
330
163
100
AcDbEntity
  8
NOKITOI
  6
PHANTOM
 62
     8
 48
5.0
100
AcDbCircle
 10
10.29733292322475
 20
-0.9941694721817384
 30
0.0
 40
14.22848866365036
100
AcDbArc
 50
51.52529185494254
 51
71.45345265407107
  0
ARC
  5
16B
330
163
100
AcDbEntity
  8
NOKITOI
  6
PHANTOM
 62
     8
 48
5.0
100
AcDbCircle
 10
10.29726615422066
 20
-0.9941373355915743
 30
0.0
 40
12.93471022655885
100
AcDbArc
 50
8.676219579622015
 51
74.45245455808978
  0
ARC
  5
16C
330
163
100
AcDbEntity
  8
NOKITOI
  6
PHANTOM
 62
     8
 48
5.0
100
AcDbCircle
 10
24.06756669845151
 20
1.107164097058216
 30
0.0
 40
0.9949934597852239
100
AcDbArc
 50
188.67611256506
 51
269.9995615538235
  0
ARC
  5
16D
330
163
100
AcDbEntity
  8
NOKITOI
  6
PHANTOM
 62
     8
 48
5.0
100
AcDbCircle
 10
19.27366239679292
 20
10.30086948151677
 30
0.0
 40
0.1989988442421132
100
AcDbArc
 50
231.5280949042412
 51
269.9990463050557
  0
ARC
  5
16E
330
163
100
AcDbEntity
  8
NOKITOI
  6
PHANTOM
 62
     8
 48
5.0
100
AcDbCircle
 10
14.03099910882133
 20
12.42582797307631
 30
0.0
 40
0.9949785960395137
100
AcDbArc
 50
191.8875585738773
 51
254.4495841050105
  0
LINE
  5
16F
330
163
100
AcDbEntity
  8
NOKITOI
  6
PHANTOM
 62
     8
 48
5.0
100
AcDbLine
 10
27.88425908443378
 20
1.91217063730221
 30
0.0
 11
27.88425908443378
 21
8.439470637302292
 31
0.0
  0
LINE
  5
170
330
163
100
AcDbEntity
  8
NOKITOI
  6
PHANTOM
 62
     8
 48
5.0
100
AcDbLine
 10
28.37925908443378
 20
9.296770637302074
 30
0.0
 11
27.88425908443378
 21
8.439470637302292
 31
0.0
  0
LINE
  5
171
330
163
100
AcDbEntity
  8
NOKITOI
  6
PHANTOM
 62
     8
 48
5.0
100
AcDbLine
 10
28.37925908443378
 20
9.296770637302074
 30
0.0
 11
27.52195908443377
 21
8.801870637302272
 31
0.0
  0
ARC
  5
172
330
163
100
AcDbEntity
  8
NOKITOI
  6
PHANTOM
 62
     8
 48
5.0
100
AcDbCircle
 10
21.30106274373702
 20
8.501878629181817
 30
0.0
 40
0.2999920081427447
100
AcDbArc
 50
90.00069889403098
 51
220.79672841758
  0
ARC
  5
173
330
163
100
AcDbEntity
  8
NOKITOI
  6
PHANTOM
 62
     8
 48
5.0
100
AcDbCircle
 10
10.29726428144715
 20
-0.9941399784659097
 30
0.0
 40
14.23472333170272
100
AcDbArc
 50
11.37541821407357
 51
40.79334907830751
  0
LINE
  5
174
330
163
100
AcDbEntity
  8
NOKITOI
  6
PHANTOM
 62
     8
 48
5.0
100
AcDbLine
 10
27.52195908443377
 20
8.801870637302272
 30
0.0
 11
21.30105908443386
 21
8.801870637302272
 31
0.0
  0
LINE
  5
175
330
163
100
AcDbEntity
  8
NOKITOI
  6
PHANTOM
 62
     8
 48
5.0
100
AcDbLine
 10
24.74245908443378
 20
1.412170637302097
 30
0.0
 11
27.38425908443378
 21
1.412170637302097
 31
0.0
  0
ARC
  5
176
330
163
100
AcDbEntity
  8
NOKITOI
  6
PHANTOM
 62
     8
 48
5.0
100
AcDbCircle
 10
24.74253604330567
 20
1.912189501590432
 30
0.0
 40
0.5000188648192144
100
AcDbArc
 50
191.3867288554411
 51
270.0026402191985
  0
ARC
  5
177
330
163
100
AcDbEntity
  8
NOKITOI
  6
PHANTOM
 62
     8
 48
5.0
100
AcDbCircle
 10
27.38425908443366
 20
1.91217063730221
 30
0.0
 40
0.5000000000000569
100
AcDbArc
 50
270.0000000000065
 51
0.0000000000065138
  0
LINE
  5
178
330
163
100
AcDbEntity
  8
NOKITOI
  6
PHANTOM
 62
     8
 48
5.0
100
AcDbLine
 10
0.1808590844339051
 20
41.10517063730208
 30
0.0
 11
0.1808590844339051
 21
49.11467063730208
 31
0.0
  0
ARC
  5
179
330
163
100
AcDbEntity
  8
NOKITOI
  6
PHANTOM
 62
     8
 48
5.0
100
AcDbCircle
 10
3.6160590844338
 20
47.32377063730223
 30
0.0
 40
1.492399999999918
100
AcDbArc
 50
0.0000000000021823
 51
90.00000000000218
  0
ARC
  5
17A
330
163
100
AcDbEntity
  8
NOKITOI
  6
PHANTOM
 62
     8
 48
5.0
100
AcDbCircle
 10
2.966809084433748
 20
47.32372063730212
 30
0.0
 40
1.49245000083754
100
AcDbArc
 50
89.99808047909008
 51
179.99808047909
  0
LINE
  5
17B
330
163
100
AcDbEntity
  8
NOKITOI
  6
PHANTOM
 62
     8
 48
5.0
100
AcDbLine
 10
6.401959084433769
 20
49.11467063730208
 30
0.0
 11
6.401959084433769
 21
44.90987063730222
 31
0.0
  0
LINE
  5
17C
330
163
100
AcDbEntity
  8
NOKITOI
  6
PHANTOM
 62
     8
 48
5.0
100
AcDbLine
 10
3.464359084433908
 20
41.4036706373023
 30
0.0
 11
8.234959084433853
 21
41.4036706373023
 31
0.0
  0
LINE
  5
17D
330
163
100
AcDbEntity
  8
NOKITOI
  6
PHANTOM
 62
     8
 48
5.0
100
AcDbLine
 10
7.024059084433929
 20
40.11017063730207
 30
0.0
 11
1.175859084433909
 21
40.11017063730207
 31
0.0
  0
ARC
  5
17E
330
163
100
AcDbEntity
  8
NOKITOI
  6
PHANTOM
 62
     8
 48
5.0
100
AcDbCircle
 10
3.464309084433807
 20
43.39362063730232
 30
0.0
 40
1.989950000628206
100
AcDbArc
 50
180.0014396286234
 51
270.0014396286234
  0
LINE
  5
17F
330
163
100
AcDbEntity
  8
NOKITOI
  6
PHANTOM
 62
     8
 48
5.0
100
AcDbLine
 10
1.474359084433785
 20
47.32377063730223
 30
0.0
 11
1.474359084433785
 21
43.39357063730221
 31
0.0
  0
ARC
  5
180
330
163
100
AcDbEntity
  8
NOKITOI
  6
PHANTOM
 62
     8
 48
5.0
100
AcDbCircle
 10
1.175859084433909
 20
41.10517063730208
 30
0.0
 40
0.9950000000000045
100
AcDbArc
 50
180.0
 51
270.0
  0
LINE
  5
181
330
163
100
AcDbEntity
  8
NOKITOI
  6
PHANTOM
 62
     8
 48
5.0
100
AcDbLine
 10
5.108559084433863
 20
44.90987063730222
 30
0.0
 11
5.108559084433863
 21
47.32377063730223
 31
0.0
  0
LINE
  5
182
330
163
100
AcDbEntity
  8
NOKITOI
  6
PHANTOM
 62
     8
 48
5.0
100
AcDbLine
 10
6.401959084433769
 20
44.90987063730222
 30
0.0
 11
5.108559084433863
 21
44.90987063730222
 31
0.0
  0
ARC
  5
183
330
163
100
AcDbEntity
  8
NOKITOI
  6
PHANTOM
 62
     8
 48
5.0
100
AcDbCircle
 10
7.024040641819624
 20
39.91118560073897
 30
0.0
 40
0.1989850374177657
100
AcDbArc
 50
11.88631382809314
 51
89.99468963106556
  0
LINE
  5
184
330
163
100
AcDbEntity
  8
NOKITOI
  6
PHANTOM
 62
     8
 48
5.0
100
AcDbLine
 10
1.175859084433909
 20
50.1096706373022
 30
0.0
 11
5.407059084433853
 21
50.1096706373022
 31
0.0
  0
ARC
  5
185
330
163
100
AcDbEntity
  8
NOKITOI
  6
PHANTOM
 62
     8
 48
5.0
100
AcDbCircle
 10
1.175859084433909
 20
49.1146706373022
 30
0.0
 40
0.9950000000000613
100
AcDbArc
 50
90.00000000000328
 51
180.0000000000032
  0
LINE
  5
186
330
163
100
AcDbEntity
  8
NOKITOI
  6
PHANTOM
 62
     8
 48
5.0
100
AcDbLine
 10
3.6160590844338
 20
48.81617063730209
 30
0.0
 11
2.966859084433849
 21
48.81617063730209
 31
0.0
  0
ARC
  5
187
330
163
100
AcDbEntity
  8
NOKITOI
  6
PHANTOM
 62
     8
 48
5.0
100
AcDbCircle
 10
5.407009084433752
 20
49.11472063730224
 30
0.0
 40
0.9949500012563332
100
AcDbArc
 50
359.9971206704048
 51
89.99712067040489
  0
LINE
  5
188
330
163
100
AcDbEntity
  8
NOKITOI
  6
PHANTOM
 62
     8
 48
5.0
100
AcDbLine
 10
85.18155908443374
 20
10.10157063730207
 30
0.0
 11
95.16205908443373
 21
10.10147063730221
 31
0.0
  0
ARC
  5
189
330
163
100
AcDbEntity
  8
NOKITOI
  6
PHANTOM
 62
     8
 48
5.0
100
AcDbCircle
 10
104.068453551022
 20
-0.9942356029631582
 30
0.0
 40
12.93461262833301
100
AcDbArc
 50
105.5476727870198
 51
171.3237222126366
  0
ARC
  5
18A
330
163
100
AcDbEntity
  8
NOKITOI
  6
PHANTOM
 62
     8
 48
5.0
100
AcDbCircle
 10
104.0683479281129
 20
-0.994141944171929
 30
0.0
 40
12.93449408578155
100
AcDbArc
 50
105.5473332353544
 51
171.3240617643019
  0
LINE
  5
18B
330
163
100
AcDbEntity
  8
NOKITOI
  6
PHANTOM
 62
     8
 48
5.0
100
AcDbLine
 10
29.38325908443392
 20
1.405570637302162
 30
0.0
 11
84.98245908443392
 21
1.405470637302073
 31
0.0
  0
ARC
  5
18C
330
163
100
AcDbEntity
  8
NOKITOI
  6
PHANTOM
 62
     8
 48
5.0
100
AcDbCircle
 10
29.38325908443392
 20
1.604570637302231
 30
0.0
 40
0.1990000000000691
100
AcDbArc
 50
179.9999999999836
 51
269.9999999999836
  0
LINE
  5
18D
330
163
100
AcDbEntity
  8
NOKITOI
  6
PHANTOM
 62
     8
 48
5.0
100
AcDbLine
 10
29.18425908443385
 20
1.604570637302231
 30
0.0
 11
29.18435908443393
 21
10.10187063730222
 31
0.0
  0
LINE
  5
18E
330
163
100
AcDbEntity
  8
NOKITOI
  6
PHANTOM
 62
     8
 48
5.0
100
AcDbLine
 10
80.98245908443391
 20
1.405470637302073
 30
0.0
 11
66.22805908443377
 21
1.405470637302073
 31
0.0
  0
ARC
  5
18F
330
163
100
AcDbEntity
  8
NOKITOI
  6
PHANTOM
 62
     8
 48
5.0
100
AcDbCircle
 10
90.2982090125298
 20
1.107113524900853
 30
0.0
 40
0.9950428888512103
100
AcDbArc
 50
269.9971250795227
 51
351.3214426795068
  0
LINE
  5
190
330
163
100
AcDbEntity
  8
NOKITOI
  6
PHANTOM
 62
     8
 48
5.0
100
AcDbLine
 10
85.98655908443367
 20
9.296470637302149
 30
0.0
 11
86.4815590844339
 21
8.43917063730214
 31
0.0
  0
LINE
  5
191
330
163
100
AcDbEntity
  8
NOKITOI
  6
PHANTOM
 62
     8
 48
5.0
100
AcDbLine
 10
85.98655908443367
 20
9.296470637302149
 30
0.0
 11
86.84385908443392
 21
8.801470637302145
 31
0.0
  0
ARC
  5
192
330
163
100
AcDbEntity
  8
NOKITOI
  6
PHANTOM
 62
     8
 48
5.0
100
AcDbCircle
 10
84.98240908443381
 20
1.604520637302186
 30
0.0
 40
0.1990500062799141
100
AcDbArc
 50
270.0143923080611
 51
0.014392308061115
  0
LINE
  5
193
330
163
100
AcDbEntity
  8
NOKITOI
  6
PHANTOM
 62
     8
 48
5.0
100
AcDbLine
 10
85.18145908443386
 20
1.604570637302231
 30
0.0
 11
85.18155908443374
 21
10.10157063730207
 31
0.0
  0
LINE
  5
194
330
163
100
AcDbEntity
  8
NOKITOI
  6
PHANTOM
 62
     8
 48
5.0
100
AcDbLine
 10
86.4815590844339
 20
8.43917063730214
 30
0.0
 11
86.4815590844339
 21
1.912070637302122
 31
0.0
  0
ARC
  5
195
330
163
100
AcDbEntity
  8
NOKITOI
  6
PHANTOM
 62
     8
 48
5.0
100
AcDbCircle
 10
104.0684175391246
 20
-0.9943142272541081
 30
0.0
 40
14.23462403148678
100
AcDbArc
 50
139.2075062369005
 51
168.6237859483839
  0
LINE
  5
196
330
163
100
AcDbEntity
  8
NOKITOI
  6
PHANTOM
 62
     8
 48
5.0
100
AcDbLine
 10
93.06445908443368
 20
8.801470637302145
 30
0.0
 11
86.84385908443392
 21
8.801470637302145
 31
0.0
  0
ARC
  5
197
330
163
100
AcDbEntity
  8
NOKITOI
  6
PHANTOM
 62
     8
 48
5.0
100
AcDbCircle
 10
93.06447276228515
 20
8.501440773608294
 30
0.0
 40
0.3000298640056128
100
AcDbArc
 50
319.2190584222776
 51
90.00261201719956
  0
LINE
  5
198
330
163
100
AcDbEntity
  8
NOKITOI
  6
PHANTOM
 62
     8
 48
5.0
100
AcDbLine
 10
89.62325908443393
 20
1.412070637302235
 30
0.0
 11
86.98155908443391
 21
1.412070637302235
 31
0.0
  0
ARC
  5
199
330
163
100
AcDbEntity
  8
NOKITOI
  6
PHANTOM
 62
     8
 48
5.0
100
AcDbCircle
 10
86.9815590844338
 20
1.912070637302235
 30
0.0
 40
0.4999999999999432
100
AcDbArc
 50
180.0000000000065
 51
270.0000000000065
  0
ARC
  5
19A
330
163
100
AcDbEntity
  8
NOKITOI
  6
PHANTOM
 62
     8
 48
5.0
100
AcDbCircle
 10
89.62328212556213
 20
1.912089501590457
 30
0.0
 40
0.5000188648190603
100
AcDbArc
 50
269.9973597808039
 51
348.6132711445602
  0
LINE
  5
19B
330
163
100
AcDbEntity
  8
NOKITOI
  6
PHANTOM
 62
     8
 48
5.0
100
AcDbLine
 10
100.1997590844339
 20
13.23317063730223
 30
0.0
 11
105.6547590844337
 21
39.14207063730214
 31
0.0
  0
LINE
  5
19C
330
163
100
AcDbEntity
  8
NOKITOI
  6
PHANTOM
 62
     8
 48
5.0
100
AcDbLine
 10
101.3084590844339
 20
12.22067063730207
 30
0.0
 11
107.1471590844337
 21
39.95207063730208
 31
0.0
  0
ARC
  5
19D
330
163
100
AcDbEntity
  8
NOKITOI
  6
PHANTOM
 62
     8
 48
5.0
100
AcDbCircle
 10
99.22620265398496
 20
13.43821958907108
 30
0.0
 40
0.9950135261271753
100
AcDbArc
 50
288.5445751594487
 51
348.1074736523478
  0
ARC
  5
19E
330
163
100
AcDbEntity
  8
NOKITOI
  6
PHANTOM
 62
     8
 48
5.0
100
AcDbCircle
 10
104.0684735879824
 20
-0.9942214385093848
 30
0.0
 40
14.22809199964113
100
AcDbArc
 50
108.5474584936555
 51
128.7537062451648
  0
ARC
  5
19F
330
163
100
AcDbEntity
  8
NOKITOI
  6
PHANTOM
 62
     8
 48
5.0
100
AcDbCircle
 10
100.334833421286
 20
12.42574988868966
 30
0.0
 40
0.9949690575286499
100
AcDbArc
 50
285.5437330810338
 51
348.1110361155302
  0
LINE
  5
1A0
330
163
100
AcDbEntity
  8
NOKITOI
  6
PHANTOM
 62
     8
 48
5.0
100
AcDbLine
 10
112.8850590844339
 20
41.40997063730208
 30
0.0
 11
107.4607590844339
 21
41.41007063730216
 31
0.0
  0
LINE
  5
1A1
330
163
100
AcDbEntity
  8
NOKITOI
  6
PHANTOM
 62
     8
 48
5.0
100
AcDbLine
 10
113.1900590844338
 20
50.10957063730223
 30
0.0
 11
107.9863590844338
 21
50.10947063730213
 31
0.0
  0
LINE
  5
1A2
330
163
100
AcDbEntity
  8
NOKITOI
  6
PHANTOM
 62
     8
 48
5.0
100
AcDbLine
 10
112.8850590844339
 20
48.80947063730229
 30
0.0
 11
109.0186590844336
 21
48.80947063730229
 31
0.0
  0
LINE
  5
1A3
330
163
100
AcDbEntity
  8
NOKITOI
  6
PHANTOM
 62
     8
 48
5.0
100
AcDbLine
 10
107.3418590844337
 20
40.10997063730224
 30
0.0
 11
113.1900590844338
 21
40.10997063730224
 31
0.0
  0
LINE
  5
1A4
330
163
100
AcDbEntity
  8
NOKITOI
  6
PHANTOM
 62
     8
 48
5.0
100
AcDbLine
 10
109.0186590844336
 20
48.80947063730229
 30
0.0
 11
107.4607590844339
 21
41.41007063730216
 31
0.0
  0
LINE
  5
1A5
330
163
100
AcDbEntity
  8
NOKITOI
  6
PHANTOM
 62
     8
 48
5.0
100
AcDbLine
 10
105.6547590844337
 20
39.14207063730214
 30
0.0
 11
107.9638590844336
 21
50.10947063730213
 31
0.0
  0
ARC
  5
1A6
330
163
100
AcDbEntity
  8
NOKITOI
  6
PHANTOM
 62
     8
 48
5.0
100
AcDbCircle
 10
107.341877527048
 20
39.91108560073894
 30
0.0
 40
0.1989850374179911
100
AcDbArc
 50
90.00531036897127
 51
168.1136861719432
  0
LINE
  5
1A7
330
163
100
AcDbEntity
  8
NOKITOI
  6
PHANTOM
 62
     8
 48
5.0
100
AcDbLine
 10
114.1850590844338
 20
41.10497063730213
 30
0.0
 11
114.1850590844338
 21
49.1145706373021
 31
0.0
  0
LINE
  5
1A8
330
163
100
AcDbEntity
  8
NOKITOI
  6
PHANTOM
 62
     8
 48
5.0
100
AcDbLine
 10
112.8850590844339
 20
41.40997063730208
 30
0.0
 11
112.8850590844339
 21
48.80947063730229
 31
0.0
  0
ARC
  5
1A9
330
163
100
AcDbEntity
  8
NOKITOI
  6
PHANTOM
 62
     8
 48
5.0
100
AcDbCircle
 10
113.1900590844339
 20
41.10497063730218
 30
0.0
 40
0.9949999999999192
100
AcDbArc
 50
269.9999999999951
 51
359.9999999999951
  0
ARC
  5
1AA
330
163
100
AcDbEntity
  8
NOKITOI
  6
PHANTOM
 62
     8
 48
5.0
100
AcDbCircle
 10
113.1900590844338
 20
49.11457063730222
 30
0.0
 40
0.9950000000000613
100
AcDbArc
 50
359.9999999999967
 51
89.99999999999673
  0
ENDBLK
  5
1AC
330
163
100
AcDbEntity
  8
0
100
AcDbBlockEnd
  0
BLOCK
  5
611
330
610
100
AcDbEntity
  8
0
100
AcDbBlockBegin
  2
*D2
 70
     1
 10
0.0
 20
0.0
 30
0.0
  3
*D2
  1

  0
LINE
  5
612
330
610
100
AcDbEntity
  8
0
  6
BYBLOCK
 62
     4
100
AcDbLine
 10
477.8698367702769
 20
387.5048060372368
 30
0.0
 11
498.7606097611251
 21
387.5048060372368
 31
0.0
  0
LINE
  5
613
330
610
100
AcDbEntity
  8
0
  6
BYBLOCK
 62
     4
100
AcDbLine
 10
477.8698367702769
 20
330.0048060372369
 30
0.0
 11
498.7606097611251
 21
330.0048060372369
 31
0.0
  0
LINE
  5
614
330
610
100
AcDbEntity
  8
0
  6
BYBLOCK
 62
     4
100
AcDbLine
 10
495.7606097611251
 20
380.5048060372369
 30
0.0
 11
495.7606097611251
 21
337.0048060372369
 31
0.0
  0
INSERT
  5
615
330
610
100
AcDbEntity
  8
0
  6
BYBLOCK
 62
     4
100
AcDbBlockReference
  2
_OPEN
 10
495.7606097611251
 20
387.5048060372368
 30
0.0
 41
7.0
 42
7.0
 43
7.0
 50
90.0
  0
INSERT
  5
616
330
610
100
AcDbEntity
  8
0
  6
BYBLOCK
 62
     4
100
AcDbBlockReference
  2
_OPEN
 10
495.7606097611251
 20
330.0048060372369
 30
0.0
 41
7.0
 42
7.0
 43
7.0
 50
270.0
  0
MTEXT
  5
617
330
610
100
AcDbEntity
  8
0
  6
BYBLOCK
 62
     4
100
AcDbMText
 10
490.760609761125
 20
358.7548060372369
 30
0.0
 40
6.0
 41
0.0
 71
     5
 72
     5
  1
\A1;58
 11
0.0
 21
1.0
 31
0.0
1001
ACAD
1000
MTEXTBEGIN
1070
    73
1070
     1
1070
    44
1040
1.0
1070
    74
1070
     0
1000
MTEXTEND
1000
MTEXTBEGIN
1070
    73
1070
     1
1070
    44
1040
1.0
1070
    74
1070
     0
1000
MTEXTEND
1000
MTEXTBEGIN
1070
    73
1070
     1
1070
    44
1040
1.0
1070
    74
1070
     0
1000
MTEXTEND
  0
POINT
  5
618
330
610
100
AcDbEntity
  8
DEFPOINTS
  6
BYBLOCK
 62
     0
100
AcDbPoint
 10
471.8698367702769
 20
387.5048060372368
 30
0.0
  0
POINT
  5
619
330
610
100
AcDbEntity
  8
DEFPOINTS
  6
BYBLOCK
 62
     0
100
AcDbPoint
 10
471.8698367702769
 20
330.0048060372369
 30
0.0
  0
POINT
  5
61A
330
610
100
AcDbEntity
  8
DEFPOINTS
  6
BYBLOCK
 62
     0
100
AcDbPoint
 10
495.7606097611251
 20
330.0048060372369
 30
0.0
  0
ENDBLK
  5
61B
330
610
100
AcDbEntity
  8
0
100
AcDbBlockEnd
  0
BLOCK
  5
8A1
330
61D
100
AcDbEntity
  8
0
100
AcDbBlockBegin
  2
*D3
 70
     1
 10
0.0
 20
0.0
 30
0.0
  3
*D3
  1

  0
LINE
  5
8A2
330
61D
100
AcDbEntity
  8
0
  6
BYBLOCK
 62
     4
100
AcDbLine
 10
307.0363031962493
 20
355.9266779560061
 30
0.0
 11
284.3547628478359
 21
355.9266779560061
 31
0.0
  0
LINE
  5
8A3
330
61D
100
AcDbEntity
  8
0
  6
BYBLOCK
 62
     4
100
AcDbLine
 10
307.0363031962493
 20
330.9266779560061
 30
0.0
 11
284.3547628478359
 21
330.9266779560061
 31
0.0
  0
LINE
  5
8A4
330
61D
100
AcDbEntity
  8
0
  6
BYBLOCK
 62
     4
100
AcDbLine
 10
287.3547628478359
 20
362.9266779560062
 30
0.0
 11
287.3547628478359
 21
369.9266779560062
 31
0.0
  0
LINE
  5
8A5
330
61D
100
AcDbEntity
  8
0
  6
BYBLOCK
 62
     4
100
AcDbLine
 10
287.3547628478359
 20
323.9266779560062
 30
0.0
 11
287.3547628478359
 21
316.9266779560061
 31
0.0
  0
LINE
  5
8A6
330
61D
100
AcDbEntity
  8
0
  6
BYBLOCK
 62
     4
100
AcDbLine
 10
287.3547628478359
 20
355.9266779560061
 30
0.0
 11
287.3547628478359
 21
330.9266779560061
 31
0.0
  0
INSERT
  5
8A7
330
61D
100
AcDbEntity
  8
0
  6
BYBLOCK
 62
     4
100
AcDbBlockReference
  2
_OPEN
 10
287.3547628478359
 20
355.9266779560061
 30
0.0
 41
7.0
 42
7.0
 43
7.0
 50
270.0
  0
INSERT
  5
8A8
330
61D
100
AcDbEntity
  8
0
  6
BYBLOCK
 62
     4
100
AcDbBlockReference
  2
_OPEN
 10
287.3547628478359
 20
330.9266779560061
 30
0.0
 41
7.0
 42
7.0
 43
7.0
 50
90.0
  0
MTEXT
  5
8A9
330
61D
100
AcDbEntity
  8
0
  6
BYBLOCK
 62
     4
100
AcDbMText
 10
282.3547628478359
 20
343.4266779560061
 30
0.0
 40
6.0
 41
0.0
 71
     5
 72
     5
  1
\A1;25
 11
0.0
 21
1.0
 31
0.0
1001
ACAD
1000
MTEXTBEGIN
1070
    73
1070
     1
1070
    44
1040
1.0
1070
    74
1070
     0
1000
MTEXTEND
1000
MTEXTBEGIN
1070
    73
1070
     1
1070
    44
1040
1.0
1070
    74
1070
     0
1000
MTEXTEND
1000
MTEXTBEGIN
1070
    73
1070
     1
1070
    44
1040
1.0
1070
    74
1070
     0
1000
MTEXTEND
  0
POINT
  5
8AA
330
61D
100
AcDbEntity
  8
DEFPOINTS
  6
BYBLOCK
 62
     0
100
AcDbPoint
 10
313.0363031962493
 20
355.9266779560061
 30
0.0
  0
POINT
  5
8AB
330
61D
100
AcDbEntity
  8
DEFPOINTS
  6
BYBLOCK
 62
     0
100
AcDbPoint
 10
313.0363031962493
 20
330.9266779560061
 30
0.0
  0
POINT
  5
8AC
330
61D
100
AcDbEntity
  8
DEFPOINTS
  6
BYBLOCK
 62
     0
100
AcDbPoint
 10
287.3547628478359
 20
330.9266779560061
 30
0.0
  0
ENDBLK
  5
8AD
330
61D
100
AcDbEntity
  8
0
100
AcDbBlockEnd
  0
BLOCK
  5
84E
330
63B
100
AcDbEntity
  8
0
100
AcDbBlockBegin
  2
*D4
 70
     1
 10
0.0
 20
0.0
 30
0.0
  3
*D4
  1

  0
LINE
  5
84F
330
63B
100
AcDbEntity
  8
0
  6
BYBLOCK
 62
     4
100
AcDbLine
 10
487.6362031962492
 20
221.6120779560061
 30
0.0
 11
487.6362031962492
 21
264.5926332299664
 31
0.0
  0
LINE
  5
850
330
63B
100
AcDbEntity
  8
0
  6
BYBLOCK
 62
     4
100
AcDbLine
 10
427.8384031962493
 20
238.429227956006
 30
0.0
 11
427.8384031962493
 21
264.5926332299664
 31
0.0
  0
LINE
  5
851
330
63B
100
AcDbEntity
  8
0
  6
BYBLOCK
 62
     4
100
AcDbLine
 10
480.6362031962492
 20
261.5926332299664
 30
0.0
 11
434.8384031962493
 21
261.5926332299664
 31
0.0
  0
INSERT
  5
852
330
63B
100
AcDbEntity
  8
0
  6
BYBLOCK
 62
     4
100
AcDbBlockReference
  2
_OPEN
 10
487.6362031962492
 20
261.5926332299664
 30
0.0
 41
7.0
 42
7.0
 43
7.0
  0
INSERT
  5
853
330
63B
100
AcDbEntity
  8
0
  6
BYBLOCK
 62
     4
100
AcDbBlockReference
  2
_OPEN
 10
427.8384031962493
 20
261.5926332299664
 30
0.0
 41
7.0
 42
7.0
 43
7.0
 50
180.0
  0
MTEXT
  5
854
330
63B
100
AcDbEntity
  8
0
  6
BYBLOCK
 62
     4
100
AcDbMText
 10
457.7373031962492
 20
266.5926332299664
 30
0.0
 40
6.0
 41
0.0
 71
     5
 72
     5
  1
\A1;60
1001
ACAD
1000
MTEXTBEGIN
1070
    73
1070
     1
1070
    44
1040
1.0
1070
    74
1070
     0
1000
MTEXTEND
1000
MTEXTBEGIN
1070
    73
1070
     1
1070
    44
1040
1.0
1070
    74
1070
     0
1000
MTEXTEND
1000
MTEXTBEGIN
1070
    73
1070
     1
1070
    44
1040
1.0
1070
    74
1070
     0
1000
MTEXTEND
  0
POINT
  5
855
330
63B
100
AcDbEntity
  8
DEFPOINTS
  6
BYBLOCK
 62
     0
100
AcDbPoint
 10
487.6362031962492
 20
215.612077956006
 30
0.0
  0
POINT
  5
856
330
63B
100
AcDbEntity
  8
DEFPOINTS
  6
BYBLOCK
 62
     0
100
AcDbPoint
 10
427.8384031962493
 20
232.429227956006
 30
0.0
  0
POINT
  5
857
330
63B
100
AcDbEntity
  8
DEFPOINTS
  6
BYBLOCK
 62
     0
100
AcDbPoint
 10
427.8384031962493
 20
261.5926332299664
 30
0.0
  0
ENDBLK
  5
858
330
63B
100
AcDbEntity
  8
0
100
AcDbBlockEnd
  0
BLOCK
  5
694
330
64A
100
AcDbEntity
  8
0
100
AcDbBlockBegin
  2
*D5
 70
     1
 10
0.0
 20
0.0
 30
0.0
  3
*D5
  1

  0
LINE
  5
695
330
64A
100
AcDbEntity
  8
0
  6
BYBLOCK
 62
     4
100
AcDbLine
 10
605.6247367702767
 20
266.0516060372368
 30
0.0
 11
605.6247367702767
 21
295.8951546338685
 31
0.0
  0
LINE
  5
696
330
64A
100
AcDbEntity
  8
0
  6
BYBLOCK
 62
     4
100
AcDbLine
 10
558.114736770277
 20
266.0516060372368
 30
0.0
 11
558.114736770277
 21
295.8951546338685
 31
0.0
  0
LINE
  5
697
330
64A
100
AcDbEntity
  8
0
  6
BYBLOCK
 62
     4
100
AcDbLine
 10
598.6247367702767
 20
292.8951546338685
 30
0.0
 11
565.1147367702769
 21
292.8951546338685
 31
0.0
  0
INSERT
  5
698
330
64A
100
AcDbEntity
  8
0
  6
BYBLOCK
 62
     4
100
AcDbBlockReference
  2
_OPEN
 10
605.6247367702767
 20
292.8951546338685
 30
0.0
 41
7.0
 42
7.0
 43
7.0
  0
INSERT
  5
699
330
64A
100
AcDbEntity
  8
0
  6
BYBLOCK
 62
     4
100
AcDbBlockReference
  2
_OPEN
 10
558.114736770277
 20
292.8951546338685
 30
0.0
 41
7.0
 42
7.0
 43
7.0
 50
180.0
  0
MTEXT
  5
69A
330
64A
100
AcDbEntity
  8
0
  6
BYBLOCK
 62
     4
100
AcDbMText
 10
581.8697367702768
 20
297.8951546338685
 30
0.0
 40
6.0
 41
0.0
 71
     5
 72
     5
  1
\A1;48
1001
ACAD
1000
MTEXTBEGIN
1070
    73
1070
     1
1070
    44
1040
1.0
1070
    74
1070
     0
1000
MTEXTEND
1000
MTEXTBEGIN
1070
    73
1070
     1
1070
    44
1040
1.0
1070
    74
1070
     0
1000
MTEXTEND
1000
MTEXTBEGIN
1070
    73
1070
     1
1070
    44
1040
1.0
1070
    74
1070
     0
1000
MTEXTEND
  0
POINT
  5
69B
330
64A
100
AcDbEntity
  8
DEFPOINTS
  6
BYBLOCK
 62
     0
100
AcDbPoint
 10
605.6247367702767
 20
260.0516060372368
 30
0.0
  0
POINT
  5
69C
330
64A
100
AcDbEntity
  8
DEFPOINTS
  6
BYBLOCK
 62
     0
100
AcDbPoint
 10
558.114736770277
 20
260.0516060372368
 30
0.0
  0
POINT
  5
69D
330
64A
100
AcDbEntity
  8
DEFPOINTS
  6
BYBLOCK
 62
     0
100
AcDbPoint
 10
558.114736770277
 20
292.8951546338685
 30
0.0
  0
ENDBLK
  5
69E
330
64A
100
AcDbEntity
  8
0
100
AcDbBlockEnd
  0
BLOCK
  5
69F
330
657
100
AcDbEntity
  8
0
100
AcDbBlockBegin
  2
*D6
 70
     1
 10
0.0
 20
0.0
 30
0.0
  3
*D6
  1

  0
LINE
  5
6A0
330
657
100
AcDbEntity
  8
0
  6
BYBLOCK
 62
     4
100
AcDbLine
 10
610.6247367702767
 20
266.0516060372368
 30
0.0
 11
610.6247367702767
 21
311.265549389712
 31
0.0
  0
LINE
  5
6A1
330
657
100
AcDbEntity
  8
0
  6
BYBLOCK
 62
     4
100
AcDbLine
 10
553.114736770277
 20
266.0516060372368
 30
0.0
 11
553.114736770277
 21
311.265549389712
 31
0.0
  0
LINE
  5
6A2
330
657
100
AcDbEntity
  8
0
  6
BYBLOCK
 62
     4
100
AcDbLine
 10
603.6247367702767
 20
308.265549389712
 30
0.0
 11
560.1147367702769
 21
308.265549389712
 31
0.0
  0
INSERT
  5
6A3
330
657
100
AcDbEntity
  8
0
  6
BYBLOCK
 62
     4
100
AcDbBlockReference
  2
_OPEN
 10
610.6247367702767
 20
308.265549389712
 30
0.0
 41
7.0
 42
7.0
 43
7.0
  0
INSERT
  5
6A4
330
657
100
AcDbEntity
  8
0
  6
BYBLOCK
 62
     4
100
AcDbBlockReference
  2
_OPEN
 10
553.114736770277
 20
308.265549389712
 30
0.0
 41
7.0
 42
7.0
 43
7.0
 50
180.0
  0
MTEXT
  5
6A5
330
657
100
AcDbEntity
  8
0
  6
BYBLOCK
 62
     4
100
AcDbMText
 10
581.8697367702768
 20
313.265549389712
 30
0.0
 40
6.0
 41
0.0
 71
     5
 72
     5
  1
\A1;58
1001
ACAD
1000
MTEXTBEGIN
1070
    73
1070
     1
1070
    44
1040
1.0
1070
    74
1070
     0
1000
MTEXTEND
1000
MTEXTBEGIN
1070
    73
1070
     1
1070
    44
1040
1.0
1070
    74
1070
     0
1000
MTEXTEND
1000
MTEXTBEGIN
1070
    73
1070
     1
1070
    44
1040
1.0
1070
    74
1070
     0
1000
MTEXTEND
  0
POINT
  5
6A6
330
657
100
AcDbEntity
  8
DEFPOINTS
  6
BYBLOCK
 62
     0
100
AcDbPoint
 10
610.6247367702767
 20
260.0516060372368
 30
0.0
  0
POINT
  5
6A7
330
657
100
AcDbEntity
  8
DEFPOINTS
  6
BYBLOCK
 62
     0
100
AcDbPoint
 10
553.114736770277
 20
260.0516060372368
 30
0.0
  0
POINT
  5
6A8
330
657
100
AcDbEntity
  8
DEFPOINTS
  6
BYBLOCK
 62
     0
100
AcDbPoint
 10
553.114736770277
 20
308.265549389712
 30
0.0
  0
ENDBLK
  5
6A9
330
657
100
AcDbEntity
  8
0
100
AcDbBlockEnd
  0
BLOCK
  5
8E7
330
6EF
100
AcDbEntity
  8
0
100
AcDbBlockBegin
  2
*D7
 70
     1
 10
0.0
 20
0.0
 30
0.0
  3
*D7
  1

  0
LINE
  5
8E8
330
6EF
100
AcDbEntity
  8
0
  6
BYBLOCK
 62
     4
100
AcDbLine
 10
473.6362031962491
 20
220.6929505864282
 30
0.0
 11
507.6187347795857
 21
220.6929505864282
 31
0.0
  0
LINE
  5
8E9
330
6EF
100
AcDbEntity
  8
0
  6
BYBLOCK
 62
     4
100
AcDbLine
 10
473.6362031962491
 20
184.7234779560061
 30
0.0
 11
507.6187347795857
 21
184.7234779560061
 31
0.0
  0
LINE
  5
8EA
330
6EF
100
AcDbEntity
  8
0
  6
BYBLOCK
 62
     4
100
AcDbLine
 10
504.6187347795857
 20
213.6929505864281
 30
0.0
 11
504.6187347795857
 21
191.7234779560061
 31
0.0
  0
INSERT
  5
8EB
330
6EF
100
AcDbEntity
  8
0
  6
BYBLOCK
 62
     4
100
AcDbBlockReference
  2
_OPEN
 10
504.6187347795857
 20
220.6929505864282
 30
0.0
 41
7.0
 42
7.0
 43
7.0
 50
90.0
  0
INSERT
  5
8EC
330
6EF
100
AcDbEntity
  8
0
  6
BYBLOCK
 62
     4
100
AcDbBlockReference
  2
_OPEN
 10
504.6187347795857
 20
184.7234779560061
 30
0.0
 41
7.0
 42
7.0
 43
7.0
 50
270.0
  0
MTEXT
  5
8ED
330
6EF
100
AcDbEntity
  8
0
  6
BYBLOCK
 62
     4
100
AcDbMText
 10
499.6187347795857
 20
202.7082142712171
 30
0.0
 40
6.0
 41
0.0
 71
     5
 72
     5
  1
\A1;36
 11
0.0
 21
1.0
 31
0.0
1001
ACAD
1000
MTEXTBEGIN
1070
    73
1070
     1
1070
    44
1040
1.0
1070
    74
1070
     0
1000
MTEXTEND
1000
MTEXTBEGIN
1070
    73
1070
     1
1070
    44
1040
1.0
1070
    74
1070
     0
1000
MTEXTEND
1000
MTEXTBEGIN
1070
    73
1070
     1
1070
    44
1040
1.0
1070
    74
1070
     0
1000
MTEXTEND
  0
POINT
  5
8EE
330
6EF
100
AcDbEntity
  8
DEFPOINTS
  6
BYBLOCK
 62
     0
100
AcDbPoint
 10
467.6362031962492
 20
220.6929505864282
 30
0.0
  0
POINT
  5
8EF
330
6EF
100
AcDbEntity
  8
DEFPOINTS
  6
BYBLOCK
 62
     0
100
AcDbPoint
 10
467.6362031962492
 20
184.7234779560061
 30
0.0
  0
POINT
  5
8F0
330
6EF
100
AcDbEntity
  8
DEFPOINTS
  6
BYBLOCK
 62
     0
100
AcDbPoint
 10
504.6187347795857
 20
184.7234779560061
 30
0.0
  0
ENDBLK
  5
8F1
330
6EF
100
AcDbEntity
  8
0
100
AcDbBlockEnd
  0
BLOCK
  5
843
330
709
100
AcDbEntity
  8
0
100
AcDbBlockBegin
  2
*D8
 70
     1
 10
0.0
 20
0.0
 30
0.0
  3
*D8
  1

  0
LINE
  5
844
330
709
100
AcDbEntity
  8
0
  6
BYBLOCK
 62
     4
100
AcDbLine
 10
487.6362031962492
 20
221.6120779560061
 30
0.0
 11
487.6362031962492
 21
287.0019028963802
 31
0.0
  0
LINE
  5
845
330
709
100
AcDbEntity
  8
0
  6
BYBLOCK
 62
     4
100
AcDbLine
 10
313.0362031962492
 20
262.426777956006
 30
0.0
 11
313.0362031962492
 21
287.0019028963802
 31
0.0
  0
LINE
  5
846
330
709
100
AcDbEntity
  8
0
  6
BYBLOCK
 62
     4
100
AcDbLine
 10
480.6362031962492
 20
284.0019028963802
 30
0.0
 11
320.0362031962492
 21
284.0019028963802
 31
0.0
  0
INSERT
  5
847
330
709
100
AcDbEntity
  8
0
  6
BYBLOCK
 62
     4
100
AcDbBlockReference
  2
_OPEN
 10
487.6362031962492
 20
284.0019028963802
 30
0.0
 41
7.0
 42
7.0
 43
7.0
  0
INSERT
  5
848
330
709
100
AcDbEntity
  8
0
  6
BYBLOCK
 62
     4
100
AcDbBlockReference
  2
_OPEN
 10
313.0362031962492
 20
284.0019028963802
 30
0.0
 41
7.0
 42
7.0
 43
7.0
 50
180.0
  0
MTEXT
  5
849
330
709
100
AcDbEntity
  8
0
  6
BYBLOCK
 62
     4
100
AcDbMText
 10
400.3362031962492
 20
289.0019028963802
 30
0.0
 40
6.0
 41
0.0
 71
     5
 72
     5
  1
\A1;175
1001
ACAD
1000
MTEXTBEGIN
1070
    73
1070
     1
1070
    44
1040
1.0
1070
    74
1070
     0
1000
MTEXTEND
1000
MTEXTBEGIN
1070
    73
1070
     1
1070
    44
1040
1.0
1070
    74
1070
     0
1000
MTEXTEND
1000
MTEXTBEGIN
1070
    73
1070
     1
1070
    44
1040
1.0
1070
    74
1070
     0
1000
MTEXTEND
  0
POINT
  5
84A
330
709
100
AcDbEntity
  8
DEFPOINTS
  6
BYBLOCK
 62
     0
100
AcDbPoint
 10
487.6362031962492
 20
215.612077956006
 30
0.0
  0
POINT
  5
84B
330
709
100
AcDbEntity
  8
DEFPOINTS
  6
BYBLOCK
 62
     0
100
AcDbPoint
 10
313.0362031962492
 20
256.426777956006
 30
0.0
  0
POINT
  5
84C
330
709
100
AcDbEntity
  8
DEFPOINTS
  6
BYBLOCK
 62
     0
100
AcDbPoint
 10
313.0362031962492
 20
284.0019028963802
 30
0.0
  0
ENDBLK
  5
84D
330
709
100
AcDbEntity
  8
0
100
AcDbBlockEnd
  0
BLOCK
  5
72A
330
729
100
AcDbEntity
  8
0
100
AcDbBlockBegin
  2
*D9
 70
     1
 10
0.0
 20
0.0
 30
0.0
  3
*D9
  1

  0
LINE
  5
72B
330
729
100
AcDbEntity
  8
0
  6
BYBLOCK
 62
     4
100
AcDbLine
 10
558.7096569274471
 20
218.7608235492404
 30
0.0
 11
546.3930006657797
 21
218.7608235492404
 31
0.0
  0
LINE
  5
72C
330
729
100
AcDbEntity
  8
0
  6
BYBLOCK
 62
     4
100
AcDbLine
 10
558.7096569274471
 20
198.7608235492404
 30
0.0
 11
546.3930006657797
 21
198.7608235492404
 31
0.0
  0
LINE
  5
72D
330
729
100
AcDbEntity
  8
0
  6
BYBLOCK
 62
     4
100
AcDbLine
 10
549.3930006657797
 20
225.7608235492404
 30
0.0
 11
549.3930006657797
 21
232.7608235492403
 31
0.0
  0
LINE
  5
72E
330
729
100
AcDbEntity
  8
0
  6
BYBLOCK
 62
     4
100
AcDbLine
 10
549.3930006657797
 20
191.7608235492404
 30
0.0
 11
549.3930006657797
 21
184.7608235492404
 31
0.0
  0
LINE
  5
72F
330
729
100
AcDbEntity
  8
0
  6
BYBLOCK
 62
     4
100
AcDbLine
 10
549.3930006657797
 20
218.7608235492404
 30
0.0
 11
549.3930006657797
 21
198.7608235492404
 31
0.0
  0
INSERT
  5
730
330
729
100
AcDbEntity
  8
0
  6
BYBLOCK
 62
     4
100
AcDbBlockReference
  2
_OPEN
 10
549.3930006657797
 20
218.7608235492404
 30
0.0
 41
7.0
 42
7.0
 43
7.0
 50
270.0
  0
INSERT
  5
731
330
729
100
AcDbEntity
  8
0
  6
BYBLOCK
 62
     4
100
AcDbBlockReference
  2
_OPEN
 10
549.3930006657797
 20
198.7608235492404
 30
0.0
 41
7.0
 42
7.0
 43
7.0
 50
90.0
  0
MTEXT
  5
732
330
729
100
AcDbEntity
  8
0
  6
BYBLOCK
 62
     4
100
AcDbMText
 10
544.3930006657796
 20
208.7608235492404
 30
0.0
 40
6.0
 41
0.0
 71
     5
 72
     5
  1
\A1;20
 11
0.0
 21
1.0
 31
0.0
1001
ACAD
1000
MTEXTBEGIN
1070
    73
1070
     1
1070
    44
1040
1.0
1070
    74
1070
     0
1000
MTEXTEND
1000
MTEXTBEGIN
1070
    73
1070
     1
1070
    44
1040
1.0
1070
    74
1070
     0
1000
MTEXTEND
1000
MTEXTBEGIN
1070
    73
1070
     1
1070
    44
1040
1.0
1070
    74
1070
     0
1000
MTEXTEND
  0
POINT
  5
733
330
729
100
AcDbEntity
  8
DEFPOINTS
  6
BYBLOCK
 62
     0
100
AcDbPoint
 10
564.7096569274472
 20
218.7608235492404
 30
0.0
  0
POINT
  5
734
330
729
100
AcDbEntity
  8
DEFPOINTS
  6
BYBLOCK
 62
     0
100
AcDbPoint
 10
564.7096569274472
 20
198.7608235492404
 30
0.0
  0
POINT
  5
735
330
729
100
AcDbEntity
  8
DEFPOINTS
  6
BYBLOCK
 62
     0
100
AcDbPoint
 10
549.3930006657797
 20
198.7608235492404
 30
0.0
  0
ENDBLK
  5
736
330
729
100
AcDbEntity
  8
0
100
AcDbBlockEnd
  0
BLOCK
  5
739
330
738
100
AcDbEntity
  8
0
100
AcDbBlockBegin
  2
*D10
 70
     1
 10
0.0
 20
0.0
 30
0.0
  3
*D10
  1

  0
LINE
  5
73A
330
738
100
AcDbEntity
  8
0
  6
BYBLOCK
 62
     4
100
AcDbLine
 10
560.7096569274472
 20
223.7608235492403
 30
0.0
 11
527.4941529418247
 21
223.7608235492403
 31
0.0
  0
LINE
  5
73B
330
738
100
AcDbEntity
  8
0
  6
BYBLOCK
 62
     4
100
AcDbLine
 10
560.7096569274472
 20
193.7608235492404
 30
0.0
 11
527.4941529418247
 21
193.7608235492404
 31
0.0
  0
LINE
  5
73C
330
738
100
AcDbEntity
  8
0
  6
BYBLOCK
 62
     4
100
AcDbLine
 10
530.4941529418247
 20
216.7608235492403
 30
0.0
 11
530.4941529418247
 21
200.7608235492404
 31
0.0
  0
INSERT
  5
73D
330
738
100
AcDbEntity
  8
0
  6
BYBLOCK
 62
     4
100
AcDbBlockReference
  2
_OPEN
 10
530.4941529418247
 20
223.7608235492403
 30
0.0
 41
7.0
 42
7.0
 43
7.0
 50
90.0
  0
INSERT
  5
73E
330
738
100
AcDbEntity
  8
0
  6
BYBLOCK
 62
     4
100
AcDbBlockReference
  2
_OPEN
 10
530.4941529418247
 20
193.7608235492404
 30
0.0
 41
7.0
 42
7.0
 43
7.0
 50
270.0
  0
MTEXT
  5
73F
330
738
100
AcDbEntity
  8
0
  6
BYBLOCK
 62
     4
100
AcDbMText
 10
525.4941529418247
 20
208.7608235492404
 30
0.0
 40
6.0
 41
0.0
 71
     5
 72
     5
  1
\A1;30
 11
0.0
 21
1.0
 31
0.0
1001
ACAD
1000
MTEXTBEGIN
1070
    73
1070
     1
1070
    44
1040
1.0
1070
    74
1070
     0
1000
MTEXTEND
1000
MTEXTBEGIN
1070
    73
1070
     1
1070
    44
1040
1.0
1070
    74
1070
     0
1000
MTEXTEND
1000
MTEXTBEGIN
1070
    73
1070
     1
1070
    44
1040
1.0
1070
    74
1070
     0
1000
MTEXTEND
  0
POINT
  5
740
330
738
100
AcDbEntity
  8
DEFPOINTS
  6
BYBLOCK
 62
     0
100
AcDbPoint
 10
566.7096569274471
 20
223.7608235492403
 30
0.0
  0
POINT
  5
741
330
738
100
AcDbEntity
  8
DEFPOINTS
  6
BYBLOCK
 62
     0
100
AcDbPoint
 10
566.7096569274471
 20
193.7608235492404
 30
0.0
  0
POINT
  5
742
330
738
100
AcDbEntity
  8
DEFPOINTS
  6
BYBLOCK
 62
     0
100
AcDbPoint
 10
530.4941529418247
 20
193.7608235492404
 30
0.0
  0
ENDBLK
  5
743
330
738
100
AcDbEntity
  8
0
100
AcDbBlockEnd
  0
BLOCK
  5
8D1
330
859
100
AcDbEntity
  8
0
100
AcDbBlockBegin
  2
*D11
 70
     1
 10
0.0
 20
0.0
 30
0.0
  3
*D11
  1

  0
LINE
  5
8D2
330
859
100
AcDbEntity
  8
0
  6
BYBLOCK
 62
     4
100
AcDbLine
 10
412.8434031962493
 20
233.4242279560061
 30
0.0
 11
522.6616764454811
 21
233.4242279560061
 31
0.0
  0
LINE
  5
8D3
330
859
100
AcDbEntity
  8
0
  6
BYBLOCK
 62
     4
100
AcDbLine
 10
473.6362031962491
 20
184.7234779560061
 30
0.0
 11
522.6616764454811
 21
184.7234779560061
 31
0.0
  0
LINE
  5
8D4
330
859
100
AcDbEntity
  8
0
  6
BYBLOCK
 62
     4
100
AcDbLine
 10
519.6616764454811
 20
226.4242279560061
 30
0.0
 11
519.6616764454811
 21
191.7234779560061
 31
0.0
  0
INSERT
  5
8D5
330
859
100
AcDbEntity
  8
0
  6
BYBLOCK
 62
     4
100
AcDbBlockReference
  2
_OPEN
 10
519.6616764454811
 20
233.4242279560061
 30
0.0
 41
7.0
 42
7.0
 43
7.0
 50
90.0
  0
INSERT
  5
8D6
330
859
100
AcDbEntity
  8
0
  6
BYBLOCK
 62
     4
100
AcDbBlockReference
  2
_OPEN
 10
519.6616764454811
 20
184.7234779560061
 30
0.0
 41
7.0
 42
7.0
 43
7.0
 50
270.0
  0
MTEXT
  5
8D7
330
859
100
AcDbEntity
  8
0
  6
BYBLOCK
 62
     4
100
AcDbMText
 10
514.6616764454811
 20
209.0738529560061
 30
0.0
 40
6.0
 41
0.0
 71
     5
 72
     5
  1
\A1;49
 11
0.0
 21
1.0
 31
0.0
1001
ACAD
1000
MTEXTBEGIN
1070
    73
1070
     1
1070
    44
1040
1.0
1070
    74
1070
     0
1000
MTEXTEND
1000
MTEXTBEGIN
1070
    73
1070
     1
1070
    44
1040
1.0
1070
    74
1070
     0
1000
MTEXTEND
1000
MTEXTBEGIN
1070
    73
1070
     1
1070
    44
1040
1.0
1070
    74
1070
     0
1000
MTEXTEND
  0
POINT
  5
8D8
330
859
100
AcDbEntity
  8
DEFPOINTS
  6
BYBLOCK
 62
     0
100
AcDbPoint
 10
406.8434031962492
 20
233.4242279560061
 30
0.0
  0
POINT
  5
8D9
330
859
100
AcDbEntity
  8
DEFPOINTS
  6
BYBLOCK
 62
     0
100
AcDbPoint
 10
467.6362031962492
 20
184.7234779560061
 30
0.0
  0
POINT
  5
8DA
330
859
100
AcDbEntity
  8
DEFPOINTS
  6
BYBLOCK
 62
     0
100
AcDbPoint
 10
519.6616764454811
 20
184.7234779560061
 30
0.0
  0
ENDBLK
  5
8DB
330
859
100
AcDbEntity
  8
0
100
AcDbBlockEnd
  0
BLOCK
  5
896
330
889
100
AcDbEntity
  8
0
100
AcDbBlockBegin
  2
*D12
 70
     1
 10
0.0
 20
0.0
 30
0.0
  3
*D12
  1

  0
LINE
  5
897
330
889
100
AcDbEntity
  8
0
  6
BYBLOCK
 62
     4
100
AcDbLine
 10
307.0362031962492
 20
256.426777956006
 30
0.0
 11
284.3522617130902
 21
256.426777956006
 31
0.0
  0
LINE
  5
898
330
889
100
AcDbEntity
  8
0
  6
BYBLOCK
 62
     4
100
AcDbLine
 10
331.7157031962492
 20
183.4267779560061
 30
0.0
 11
284.3522617130902
 21
183.4267779560061
 31
0.0
  0
LINE
  5
899
330
889
100
AcDbEntity
  8
0
  6
BYBLOCK
 62
     4
100
AcDbLine
 10
287.3522617130902
 20
249.426777956006
 30
0.0
 11
287.3522617130902
 21
190.4267779560061
 31
0.0
  0
INSERT
  5
89A
330
889
100
AcDbEntity
  8
0
  6
BYBLOCK
 62
     4
100
AcDbBlockReference
  2
_OPEN
 10
287.3522617130902
 20
256.426777956006
 30
0.0
 41
7.0
 42
7.0
 43
7.0
 50
90.0
  0
INSERT
  5
89B
330
889
100
AcDbEntity
  8
0
  6
BYBLOCK
 62
     4
100
AcDbBlockReference
  2
_OPEN
 10
287.3522617130902
 20
183.4267779560061
 30
0.0
 41
7.0
 42
7.0
 43
7.0
 50
270.0
  0
MTEXT
  5
89C
330
889
100
AcDbEntity
  8
0
  6
BYBLOCK
 62
     4
100
AcDbMText
 10
282.3522617130902
 20
219.926777956006
 30
0.0
 40
6.0
 41
0.0
 71
     5
 72
     5
  1
\A1;73
 11
0.0
 21
1.0
 31
0.0
1001
ACAD
1000
MTEXTBEGIN
1070
    73
1070
     1
1070
    44
1040
1.0
1070
    74
1070
     0
1000
MTEXTEND
1000
MTEXTBEGIN
1070
    73
1070
     1
1070
    44
1040
1.0
1070
    74
1070
     0
1000
MTEXTEND
1000
MTEXTBEGIN
1070
    73
1070
     1
1070
    44
1040
1.0
1070
    74
1070
     0
1000
MTEXTEND
  0
POINT
  5
89D
330
889
100
AcDbEntity
  8
DEFPOINTS
  6
BYBLOCK
 62
     0
100
AcDbPoint
 10
313.0362031962492
 20
256.426777956006
 30
0.0
  0
POINT
  5
89E
330
889
100
AcDbEntity
  8
DEFPOINTS
  6
BYBLOCK
 62
     0
100
AcDbPoint
 10
337.7157031962492
 20
183.4267779560061
 30
0.0
  0
POINT
  5
89F
330
889
100
AcDbEntity
  8
DEFPOINTS
  6
BYBLOCK
 62
     0
100
AcDbPoint
 10
287.3522617130902
 20
183.4267779560061
 30
0.0
  0
ENDBLK
  5
8A0
330
889
100
AcDbEntity
  8
0
100
AcDbBlockEnd
  0
BLOCK
  5
8DC
330
8C4
100
AcDbEntity
  8
0
100
AcDbBlockBegin
  2
*D13
 70
     1
 10
0.0
 20
0.0
 30
0.0
  3
*D13
  1

  0
LINE
  5
8DD
330
8C4
100
AcDbEntity
  8
0
  6
BYBLOCK
 62
     4
100
AcDbLine
 10
473.6362031962491
 20
214.7234779560061
 30
0.0
 11
491.8328650082626
 21
214.7234779560061
 31
0.0
  0
LINE
  5
8DE
330
8C4
100
AcDbEntity
  8
0
  6
BYBLOCK
 62
     4
100
AcDbLine
 10
473.6362031962491
 20
184.7234779560061
 30
0.0
 11
491.8328650082626
 21
184.7234779560061
 31
0.0
  0
LINE
  5
8DF
330
8C4
100
AcDbEntity
  8
0
  6
BYBLOCK
 62
     4
100
AcDbLine
 10
488.8328650082626
 20
207.723477956006
 30
0.0
 11
488.8328650082626
 21
191.7234779560061
 31
0.0
  0
INSERT
  5
8E0
330
8C4
100
AcDbEntity
  8
0
  6
BYBLOCK
 62
     4
100
AcDbBlockReference
  2
_OPEN
 10
488.8328650082626
 20
214.7234779560061
 30
0.0
 41
7.0
 42
7.0
 43
7.0
 50
90.0
  0
INSERT
  5
8E1
330
8C4
100
AcDbEntity
  8
0
  6
BYBLOCK
 62
     4
100
AcDbBlockReference
  2
_OPEN
 10
488.8328650082626
 20
184.7234779560061
 30
0.0
 41
7.0
 42
7.0
 43
7.0
 50
270.0
  0
MTEXT
  5
8E2
330
8C4
100
AcDbEntity
  8
0
  6
BYBLOCK
 62
     4
100
AcDbMText
 10
483.8328650082626
 20
199.7234779560061
 30
0.0
 40
6.0
 41
0.0
 71
     5
 72
     5
  1
\A1;30
 11
0.0
 21
1.0
 31
0.0
1001
ACAD
1000
MTEXTBEGIN
1070
    73
1070
     1
1070
    44
1040
1.0
1070
    74
1070
     0
1000
MTEXTEND
1000
MTEXTBEGIN
1070
    73
1070
     1
1070
    44
1040
1.0
1070
    74
1070
     0
1000
MTEXTEND
1000
MTEXTBEGIN
1070
    73
1070
     1
1070
    44
1040
1.0
1070
    74
1070
     0
1000
MTEXTEND
  0
POINT
  5
8E3
330
8C4
100
AcDbEntity
  8
DEFPOINTS
  6
BYBLOCK
 62
     0
100
AcDbPoint
 10
467.6362031962492
 20
214.7234779560061
 30
0.0
  0
POINT
  5
8E4
330
8C4
100
AcDbEntity
  8
DEFPOINTS
  6
BYBLOCK
 62
     0
100
AcDbPoint
 10
467.6362031962492
 20
184.7234779560061
 30
0.0
  0
POINT
  5
8E5
330
8C4
100
AcDbEntity
  8
DEFPOINTS
  6
BYBLOCK
 62
     0
100
AcDbPoint
 10
488.8328650082626
 20
184.7234779560061
 30
0.0
  0
ENDBLK
  5
8E6
330
8C4
100
AcDbEntity
  8
0
100
AcDbBlockEnd
  0
BLOCK
  5
9A2
330
96C
100
AcDbEntity
  8
0
100
AcDbBlockBegin
  2
*D14
 70
     1
 10
0.0
 20
0.0
 30
0.0
  3
*D14
  1

  0
LINE
  5
9A3
330
96C
100
AcDbEntity
  8
0
  6
BYBLOCK
 62
     4
100
AcDbLine
 10
471.0999031962491
 20
178.7234779560061
 30
0.0
 11
471.0999031962491
 21
157.3478329632284
 31
0.0
  0
LINE
  5
9A4
330
96C
100
AcDbEntity
  8
0
  6
BYBLOCK
 62
     4
100
AcDbLine
 10
472.6362031962492
 20
178.7234779560061
 30
0.0
 11
472.6362031962492
 21
157.3478329632284
 31
0.0
  0
LINE
  5
9A5
330
96C
100
AcDbEntity
  8
0
  6
BYBLOCK
 62
     4
100
AcDbLine
 10
464.0999031962492
 20
160.3478329632284
 30
0.0
 11
457.0999031962491
 21
160.3478329632284
 31
0.0
  0
LINE
  5
9A6
330
96C
100
AcDbEntity
  8
0
  6
BYBLOCK
 62
     4
100
AcDbLine
 10
479.6362031962492
 20
160.3478329632284
 30
0.0
 11
506.6362031962492
 21
160.3478329632284
 31
0.0
  0
LINE
  5
9A7
330
96C
100
AcDbEntity
  8
0
  6
BYBLOCK
 62
     4
100
AcDbLine
 10
471.0999031962491
 20
160.3478329632284
 30
0.0
 11
472.6362031962492
 21
160.3478329632284
 31
0.0
  0
INSERT
  5
9A8
330
96C
100
AcDbEntity
  8
0
  6
BYBLOCK
 62
     4
100
AcDbBlockReference
  2
_OPEN
 10
471.0999031962491
 20
160.3478329632284
 30
0.0
 41
7.0
 42
7.0
 43
7.0
  0
INSERT
  5
9A9
330
96C
100
AcDbEntity
  8
0
  6
BYBLOCK
 62
     4
100
AcDbBlockReference
  2
_OPEN
 10
472.6362031962492
 20
160.3478329632284
 30
0.0
 41
7.0
 42
7.0
 43
7.0
 50
180.0
  0
MTEXT
  5
9AA
330
96C
100
AcDbEntity
  8
0
  6
BYBLOCK
 62
     4
100
AcDbMText
 10
496.6362031962492
 20
165.3478329632284
 30
0.0
 40
6.0
 41
0.0
 71
     5
 72
     5
  1
\A1;t1.5
1001
ACAD
1000
MTEXTBEGIN
1070
    73
1070
     1
1070
    44
1040
1.0
1070
    74
1070
     0
1000
MTEXTEND
1000
MTEXTBEGIN
1070
    73
1070
     1
1070
    44
1040
1.0
1070
    74
1070
     0
1000
MTEXTEND
1000
MTEXTBEGIN
1070
    73
1070
     1
1070
    44
1040
1.0
1070
    74
1070
     0
1000
MTEXTEND
  0
POINT
  5
9AB
330
96C
100
AcDbEntity
  8
DEFPOINTS
  6
BYBLOCK
 62
     0
100
AcDbPoint
 10
471.0999031962491
 20
184.7234779560061
 30
0.0
  0
POINT
  5
9AC
330
96C
100
AcDbEntity
  8
DEFPOINTS
  6
BYBLOCK
 62
     0
100
AcDbPoint
 10
472.6362031962492
 20
184.7234779560061
 30
0.0
  0
POINT
  5
9AD
330
96C
100
AcDbEntity
  8
DEFPOINTS
  6
BYBLOCK
 62
     0
100
AcDbPoint
 10
472.6362031962492
 20
160.3478329632284
 30
0.0
  0
ENDBLK
  5
9AE
330
96C
100
AcDbEntity
  8
0
100
AcDbBlockEnd
  0
ENDSEC
  0
SECTION
  2
ENTITIES
  0
INSERT
  5
32C
330
1A
100
AcDbEntity
  8
0
100
AcDbBlockReference
  2
A$C1305
 10
298.6533441118154
 20
183.3146573187038
 30
0.0
  0
ARC
  5
32D
330
1A
100
AcDbEntity
  8
SEIHIN
  6
CONTINUOUS
 62
     3
 48
16.0
100
AcDbCircle
 10
371.0281375601483
 20
167.0380478918253
 30
0.0
 40
4.999969935937294
100
AcDbArc
 50
187.6357469676554
 51
269.9996062163565
  0
LINE
  5
32E
330
1A
100
AcDbEntity
  8
SEIHIN
  6
CONTINUOUS
 62
     3
 48
16.0
100
AcDbLine
 10
362.3746031962493
 20
350.9266779560062
 30
0.0
 11
402.6363031962492
 21
350.9266779560062
 31
0.0
  0
LINE
  5
32F
330
1A
100
AcDbEntity
  8
SEIHIN
  6
CONTINUOUS
 62
     3
 48
16.0
100
AcDbLine
 10
355.8362031962493
 20
182.6267779560062
 30
0.0
 11
389.3917031962492
 21
182.6267779560062
 31
0.0
  0
LINE
  5
330
330
1A
100
AcDbEntity
  8
SEIHIN
  6
CONTINUOUS
 62
     3
 48
16.0
100
AcDbLine
 10
355.8362031962493
 20
183.4267779560061
 30
0.0
 11
388.9567031962492
 21
183.4267779560061
 31
0.0
  0
LINE
  5
331
330
1A
100
AcDbEntity
  8
SEIHIN
  6
CONTINUOUS
 62
     3
 48
16.0
100
AcDbLine
 10
388.9567031962492
 20
179.4267779560061
 30
0.0
 11
368.2283031962493
 21
179.4267779560061
 31
0.0
  0
LINE
  5
332
330
1A
100
AcDbEntity
  8
SEIHIN
  6
CONTINUOUS
 62
     3
 48
16.0
100
AcDbLine
 10
355.8363031962493
 20
345.9266779560061
 30
0.0
 11
402.6363031962492
 21
345.9266779560061
 31
0.0
  0
LINE
  5
333
330
1A
100
AcDbEntity
  8
CENTER_L
  6
CENTER
 62
     1
 48
5.0
100
AcDbLine
 10
355.8363031962493
 20
353.4266779560061
 30
0.0
 11
475.8590031962493
 21
353.4266779560061
 31
0.0
  0
LINE
  5
334
330
1A
100
AcDbEntity
  8
SEIHIN
  6
CONTINUOUS
 62
     3
 48
16.0
100
AcDbLine
 10
355.8363031962493
 20
342.4266779560062
 30
0.0
 11
388.9568031962494
 21
342.4266779560062
 31
0.0
  0
LINE
  5
335
330
1A
100
AcDbEntity
  8
SEIHIN
  6
CONTINUOUS
 62
     3
 48
16.0
100
AcDbLine
 10
355.8363031962493
 20
364.4267779560061
 30
0.0
 11
388.9568031962494
 21
364.4267779560061
 31
0.0
  0
LINE
  5
336
330
1A
100
AcDbEntity
  8
SEIHIN
  6
CONTINUOUS
 62
     3
 48
16.0
100
AcDbLine
 10
362.3746031962493
 20
355.9267779560061
 30
0.0
 11
402.6363031962492
 21
355.9266779560061
 31
0.0
  0
LINE
  5
337
330
1A
100
AcDbEntity
  8
SEIHIN
  6
CONTINUOUS
 62
     3
 48
16.0
100
AcDbLine
 10
355.8363031962493
 20
360.926777956006
 30
0.0
 11
402.6363031962492
 21
360.9266779560062
 31
0.0
  0
ARC
  5
338
330
1A
100
AcDbEntity
  8
SEIHIN
  6
CONTINUOUS
 62
     3
 48
16.0
100
AcDbCircle
 10
374.8116706509038
 20
171.8940059178497
 30
0.0
 40
5.000027961949482
100
AcDbArc
 50
188.6642925967974
 51
270.0003729401007
  0
LINE
  5
33B
330
1A
100
AcDbEntity
  8
SEIHIN
  6
CONTINUOUS
 62
     3
 48
16.0
100
AcDbLine
 10
202.7777854802006
 20
233.8268779560061
 30
0.0
 11
196.2777854802006
 21
233.826977956006
 31
0.0
  0
LINE
  5
33C
330
1A
100
AcDbEntity
  8
SEIHIN
  6
CONTINUOUS
 62
     3
 48
16.0
100
AcDbLine
 10
195.5308854802006
 20
232.413877956006
 30
0.0
 11
199.5901854802005
 21
229.4934779560061
 31
0.0
  0
LINE
  5
33D
330
1A
100
AcDbEntity
  8
SEIHIN
  6
CONTINUOUS
 62
     3
 48
16.0
100
AcDbLine
 10
191.2777854802005
 20
220.3268779560061
 30
0.0
 11
202.7777854802006
 21
220.3268779560061
 31
0.0
  0
LINE
  5
33E
330
1A
100
AcDbEntity
  8
SEIHIN
  6
CONTINUOUS
 62
     3
 48
16.0
100
AcDbLine
 10
195.5308854802006
 20
221.7399779560061
 30
0.0
 11
199.5901854802005
 21
224.6603779560061
 31
0.0
  0
LINE
  5
33F
330
1A
100
AcDbEntity
  8
SEIHIN
  6
CONTINUOUS
 62
     3
 48
16.0
100
AcDbLine
 10
194.5323854802006
 20
223.469377956006
 30
0.0
 11
199.0911854802005
 21
225.5246779560061
 31
0.0
  0
LINE
  5
340
330
1A
100
AcDbEntity
  8
SEIHIN
  6
CONTINUOUS
 62
     3
 48
16.0
100
AcDbLine
 10
194.5323854802006
 20
230.6844779560061
 30
0.0
 11
199.0911854802005
 21
228.6291779560061
 31
0.0
  0
LINE
  5
341
330
1A
100
AcDbEntity
  8
SEIHIN
  6
CONTINUOUS
 62
     3
 48
16.0
100
AcDbLine
 10
202.7776854802005
 20
194.0868779560061
 30
0.0
 11
200.7777162454201
 21
194.0868961375445
 31
0.0
  0
ARC
  5
342
330
1A
100
AcDbEntity
  8
SEIHIN
  6
CONTINUOUS
 62
     3
 48
16.0
100
AcDbCircle
 10
197.7776854802005
 20
182.4268779560061
 30
0.0
 40
3.0
100
AcDbArc
 50
180.0
 51
0.0
  0
LINE
  5
343
330
1A
100
AcDbEntity
  8
SEIHIN
  6
CONTINUOUS
 62
     3
 48
16.0
100
AcDbLine
 10
202.7776854802005
 20
162.0380779560061
 30
0.0
 11
194.7776854802005
 21
162.0380779560061
 31
0.0
  0
LINE
  5
344
330
1A
100
AcDbEntity
  8
SEIHIN
  6
CONTINUOUS
 62
     3
 48
16.0
100
AcDbLine
 10
211.7775854802005
 20
238.2233779560061
 30
0.0
 11
193.7777854802005
 21
238.223477956006
 31
0.0
  0
LINE
  5
345
330
1A
100
AcDbEntity
  8
SEIHIN
  6
CONTINUOUS
 62
     3
 48
16.0
100
AcDbLine
 10
192.7776854802005
 20
182.9268779560061
 30
0.0
 11
192.7776854802005
 21
164.0380779560061
 31
0.0
  0
ARC
  5
346
330
1A
100
AcDbEntity
  8
SEIHIN
  6
CONTINUOUS
 62
     3
 48
16.0
100
AcDbCircle
 10
194.7776854802005
 20
164.0380779560061
 30
0.0
 40
2.0
100
AcDbArc
 50
180.0
 51
270.0
  0
ARC
  5
347
330
1A
100
AcDbEntity
  8
SEIHIN
  6
CONTINUOUS
 62
     3
 48
16.0
100
AcDbCircle
 10
194.9834769279445
 20
222.5769492525667
 30
0.0
 40
0.9999562415177035
100
AcDbArc
 50
116.8149989746452
 51
209.9995484959487
  0
LINE
  5
348
330
1A
100
AcDbEntity
  8
SEIHIN
  6
CONTINUOUS
 62
     3
 48
16.0
100
AcDbLine
 10
190.2777854802006
 20
221.3268779560061
 30
0.0
 11
190.2777854802006
 21
255.8268779560061
 31
0.0
  0
LINE
  5
349
330
1A
100
AcDbEntity
  8
SEIHIN
  6
CONTINUOUS
 62
     3
 48
16.0
100
AcDbLine
 10
194.7776854802005
 20
182.4268779560061
 30
0.0
 11
194.7777854802006
 21
220.3268779560061
 31
0.0
  0
LINE
  5
34A
330
1A
100
AcDbEntity
  8
SEIHIN
  6
CONTINUOUS
 62
     3
 48
16.0
100
AcDbLine
 10
191.7776854802005
 20
194.086977956006
 30
0.0
 11
191.7777854802006
 21
220.3268779560061
 31
0.0
  0
LINE
  5
34B
330
1A
100
AcDbEntity
  8
SEIHIN
  6
CONTINUOUS
 62
     3
 48
16.0
100
AcDbLine
 10
174.0276854802005
 20
186.7237779560061
 30
0.0
 11
174.0277854802005
 21
212.7237779560061
 31
0.0
  0
ARC
  5
34C
330
1A
100
AcDbEntity
  8
SEIHIN
  6
CONTINUOUS
 62
     3
 48
16.0
100
AcDbCircle
 10
179.0276854802006
 20
189.7237779560061
 30
0.0
 40
2.0
100
AcDbArc
 50
0.0
 51
180.0
  0
ARC
  5
34D
330
1A
100
AcDbEntity
  8
SEIHIN
  6
CONTINUOUS
 62
     3
 48
16.0
100
AcDbCircle
 10
179.0276854802006
 20
189.7237779560061
 30
0.0
 40
2.0
100
AcDbArc
 50
180.0
 51
0.0
  0
LINE
  5
34E
330
1A
100
AcDbEntity
  8
CENTER_L
  6
CENTER
 62
     1
 48
5.0
100
AcDbLine
 10
183.0592854802005
 20
189.7237779560061
 30
0.0
 11
175.5399854802005
 21
189.7237779560061
 31
0.0
  0
LINE
  5
34F
330
1A
100
AcDbEntity
  8
SEIHIN
  6
CONTINUOUS
 62
     3
 48
16.0
100
AcDbLine
 10
192.2333854802006
 20
184.7237779560061
 30
0.0
 11
176.0276854802005
 21
184.7237779560061
 31
0.0
  0
LINE
  5
350
330
1A
100
AcDbEntity
  8
CENTER_L
  6
CENTER
 62
     1
 48
5.0
100
AcDbLine
 10
179.0276854802006
 20
185.6019779560061
 30
0.0
 11
179.0276854802006
 21
194.004077956006
 31
0.0
  0
ARC
  5
351
330
1A
100
AcDbEntity
  8
SEIHIN
  6
CONTINUOUS
 62
     3
 48
16.0
100
AcDbCircle
 10
176.0276854802005
 20
186.7237779560061
 30
0.0
 40
2.0
100
AcDbArc
 50
180.0
 51
270.0
  0
ARC
  5
352
330
1A
100
AcDbEntity
  8
SEIHIN
  6
CONTINUOUS
 62
     3
 48
16.0
100
AcDbCircle
 10
173.5473854796991
 20
188.5068779560061
 30
0.0
 40
19.06515769953877
100
AcDbArc
 50
342.9814976594928
 51
17.01850234050715
  0
LINE
  5
353
330
1A
100
AcDbEntity
  8
SEIHIN
  6
CONTINUOUS
 62
     3
 48
16.0
100
AcDbLine
 10
191.7776854802005
 20
182.9268779560061
 30
0.0
 11
194.7776854802005
 21
182.9268779560061
 31
0.0
  0
LINE
  5
354
330
1A
100
AcDbEntity
  8
SEIHIN
  6
CONTINUOUS
 62
     3
 48
16.0
100
AcDbLine
 10
188.3255854802005
 20
189.7237779560061
 30
0.0
 11
192.5995854802005
 21
187.8037779560061
 31
0.0
  0
LINE
  5
355
330
1A
100
AcDbEntity
  8
SEIHIN
  6
CONTINUOUS
 62
     3
 48
16.0
100
AcDbLine
 10
192.3696854802006
 20
191.5404779560061
 30
0.0
 11
188.3255854802005
 21
189.7237779560061
 31
0.0
  0
ARC
  5
356
330
1A
100
AcDbEntity
  8
SEIHIN
  6
CONTINUOUS
 62
     3
 48
16.0
100
AcDbCircle
 10
179.0276854802006
 20
209.7237779560062
 30
0.0
 40
2.0
100
AcDbArc
 50
0.0
 51
180.0
  0
ARC
  5
357
330
1A
100
AcDbEntity
  8
SEIHIN
  6
CONTINUOUS
 62
     3
 48
16.0
100
AcDbCircle
 10
179.0276854802006
 20
209.7237779560062
 30
0.0
 40
2.0
100
AcDbArc
 50
180.0
 51
0.0
  0
LINE
  5
358
330
1A
100
AcDbEntity
  8
CENTER_L
  6
CENTER
 62
     1
 48
5.0
100
AcDbLine
 10
183.8734854802005
 20
209.7237779560062
 30
0.0
 11
175.6914854802005
 21
209.7237779560062
 31
0.0
  0
LINE
  5
359
330
1A
100
AcDbEntity
  8
SEIHIN
  6
CONTINUOUS
 62
     3
 48
16.0
100
AcDbLine
 10
190.7777854802005
 20
214.7237779560061
 30
0.0
 11
176.0277854802006
 21
214.7237779560061
 31
0.0
  0
LINE
  5
35A
330
1A
100
AcDbEntity
  8
CENTER_L
  6
CENTER
 62
     1
 48
5.0
100
AcDbLine
 10
179.0276854802006
 20
203.8536779560061
 30
0.0
 11
179.0277854802005
 21
212.9486779560061
 31
0.0
  0
ARC
  5
35B
330
1A
100
AcDbEntity
  8
SEIHIN
  6
CONTINUOUS
 62
     3
 48
16.0
100
AcDbCircle
 10
176.0277854802005
 20
212.7237779560061
 30
0.0
 40
2.000000000000028
100
AcDbArc
 50
89.9999999999992
 51
179.9999999999991
  0
LINE
  5
35C
330
1A
100
AcDbEntity
  8
SEIHIN
  6
CONTINUOUS
 62
     3
 48
16.0
100
AcDbLine
 10
191.7777854802006
 20
211.2745779560061
 30
0.0
 11
188.3255854802005
 21
209.7237779560062
 31
0.0
  0
LINE
  5
35D
330
1A
100
AcDbEntity
  8
SEIHIN
  6
CONTINUOUS
 62
     3
 48
16.0
100
AcDbLine
 10
188.3255854802005
 20
209.7237779560062
 30
0.0
 11
191.7777854802006
 21
208.1729779560061
 31
0.0
  0
ARC
  5
35E
330
1A
100
AcDbEntity
  8
SEIHIN
  6
CONTINUOUS
 62
     3
 48
16.0
100
AcDbCircle
 10
191.2777854802005
 20
221.3268779560061
 30
0.0
 40
0.9999999999999715
100
AcDbArc
 50
179.9999999999983
 51
269.9999999999983
  0
ARC
  5
35F
330
1A
100
AcDbEntity
  8
SEIHIN
  6
CONTINUOUS
 62
     3
 48
16.0
100
AcDbCircle
 10
194.9835724303327
 20
222.5769572299434
 30
0.0
 40
1.000042938856267
100
AcDbArc
 50
209.9972085279262
 51
303.1812627458654
  0
ARC
  5
360
330
1A
100
AcDbEntity
  8
SEIHIN
  6
CONTINUOUS
 62
     3
 48
16.0
100
AcDbCircle
 10
190.7777033762654
 20
216.7237559557643
 30
0.0
 40
1.999978001443396
100
AcDbArc
 50
270.0023521303528
 51
300.0030799111798
  0
LINE
  5
362
330
1A
100
AcDbEntity
  8
SEIHIN
  6
CONTINUOUS
 62
     3
 48
16.0
100
AcDbLine
 10
193.7778854802004
 20
255.8268779560061
 30
0.0
 11
193.7777854802005
 21
236.326977956006
 31
0.0
  0
ARC
  5
367
330
1A
100
AcDbEntity
  8
SEIHIN
  6
CONTINUOUS
 62
     3
 48
16.0
100
AcDbCircle
 10
196.2777854802005
 20
236.326977956006
 30
0.0
 40
2.500000000000028
100
AcDbArc
 50
180.0000000000006
 51
270.0000000000006
  0
ARC
  5
368
330
1A
100
AcDbEntity
  8
SEIHIN
  6
CONTINUOUS
 62
     3
 48
16.0
100
AcDbCircle
 10
194.9835164001431
 20
231.576985325413
 30
0.0
 40
1.00000109247136
100
AcDbArc
 50
56.8133335179751
 51
150.0005236927466
  0
ARC
  5
369
330
1A
100
AcDbEntity
  8
SEIHIN
  6
CONTINUOUS
 62
     3
 48
16.0
100
AcDbCircle
 10
194.9834944678709
 20
231.5769477936969
 30
0.0
 40
1.000000864972062
100
AcDbArc
 50
149.9980330729464
 51
243.1851673148768
  0
LINE
  5
36D
330
1A
100
AcDbEntity
  8
SEIHIN
  6
CONTINUOUS
 62
     3
 48
16.0
100
AcDbLine
 10
190.2777854802006
 20
255.8268779560061
 30
0.0
 11
193.7778854802004
 21
255.8268779560061
 31
0.0
  0
LINE
  5
36E
330
1A
100
AcDbEntity
  8
SEIHIN
  6
CONTINUOUS
 62
     3
 48
16.0
100
AcDbLine
 10
359.8439031962493
 20
175.0238779560061
 30
0.0
 11
359.8439031962493
 21
177.8267779560061
 31
0.0
  0
LINE
  5
36F
330
1A
100
AcDbEntity
  8
SEIHIN
  6
CONTINUOUS
 62
     3
 48
16.0
100
AcDbLine
 10
351.8285031962491
 20
177.8267779560061
 30
0.0
 11
351.8285031962491
 21
175.0238779560061
 31
0.0
  0
LINE
  5
370
330
1A
100
AcDbEntity
  8
SEIHIN
  6
CONTINUOUS
 62
     3
 48
16.0
100
AcDbLine
 10
369.8687031962493
 20
171.1407779560061
 30
0.0
 11
368.8832031962494
 21
177.6083779560061
 31
0.0
  0
LINE
  5
371
330
1A
100
AcDbEntity
  8
CENTER_L
  6
CENTER
 62
     1
 48
5.0
100
AcDbLine
 10
355.8362031962493
 20
193.2476779560061
 30
0.0
 11
355.8362031962493
 21
171.1423779560061
 31
0.0
  0
LINE
  5
373
330
1A
100
AcDbEntity
  8
SEIHIN
  6
CONTINUOUS
 62
     3
 48
16.0
100
AcDbLine
 10
212.7776854802005
 20
182.9268779560061
 30
0.0
 11
212.7776854802009
 21
164.0380779560062
 31
0.0
  0
LINE
  5
374
330
1A
100
AcDbEntity
  8
CENTER_L
  6
CENTER
 62
     1
 48
5.0
100
AcDbLine
 10
202.7776854802005
 20
157.883177956006
 30
0.0
 11
202.7777854802006
 21
259.699877956006
 31
0.0
  0
ARC
  5
375
330
1A
100
AcDbEntity
  8
SEIHIN
  6
CONTINUOUS
 62
     3
 48
16.0
100
AcDbCircle
 10
210.7776854802005
 20
164.0380779560061
 30
0.0
 40
2.0
100
AcDbArc
 50
270.0
 51
0.0
  0
LINE
  5
376
330
1A
100
AcDbEntity
  8
SEIHIN
  6
CONTINUOUS
 62
     3
 48
16.0
100
AcDbLine
 10
202.7776854802005
 20
162.0380779560061
 30
0.0
 11
210.7776854802005
 21
162.0380779560061
 31
0.0
  0
LINE
  5
377
330
1A
100
AcDbEntity
  8
SEIHIN
  6
CONTINUOUS
 62
     3
 48
16.0
100
AcDbLine
 10
351.8285031962491
 20
175.0238779560061
 30
0.0
 11
359.8439031962493
 21
175.0238779560061
 31
0.0
  0
LINE
  5
378
330
1A
100
AcDbEntity
  8
SEIHIN
  6
CONTINUOUS
 62
     3
 48
16.0
100
AcDbLine
 10
366.0725031962493
 20
166.3736779560061
 30
0.0
 11
365.1183166246562
 21
173.4911473434737
 31
0.0
  0
ARC
  5
379
330
1A
100
AcDbEntity
  8
SEIHIN
  6
CONTINUOUS
 62
     3
 48
16.0
100
AcDbCircle
 10
305.0971322889287
 20
220.6268354893215
 30
0.0
 40
1.299942468618431
100
AcDbArc
 50
11.88598677715723
 51
89.99687471537598
  0
ARC
  5
37A
330
1A
100
AcDbEntity
  8
SEIHIN
  6
CONTINUOUS
 62
     3
 48
16.0
100
AcDbCircle
 10
305.0972176706914
 20
220.6267662112819
 30
0.0
 40
0.5000117449336635
100
AcDbArc
 50
11.8891363518915
 51
90.00165860992394
  0
LINE
  5
37B
330
1A
100
AcDbEntity
  8
SEIHIN
  6
CONTINUOUS
 62
     3
 48
16.0
100
AcDbLine
 10
307.6846031962493
 20
194.745177956006
 30
0.0
 11
302.1306031962492
 21
221.1267779560061
 31
0.0
  0
LINE
  5
37C
330
1A
100
AcDbEntity
  8
SEIHIN
  6
CONTINUOUS
 62
     3
 48
16.0
100
AcDbLine
 10
210.0245854802006
 20
221.7399779560061
 30
0.0
 11
205.9652854802005
 21
224.6603779560061
 31
0.0
  0
ARC
  5
37D
330
1A
100
AcDbEntity
  8
SEIHIN
  6
CONTINUOUS
 62
     3
 48
16.0
100
AcDbCircle
 10
210.5719940324567
 20
222.5769492525667
 30
0.0
 40
0.9999562415176802
100
AcDbArc
 50
330.0004515040474
 51
63.18500102535178
  0
LINE
  5
37E
330
1A
100
AcDbEntity
  8
SEIHIN
  6
CONTINUOUS
 62
     3
 48
16.0
100
AcDbLine
 10
298.8362031962492
 20
256.426777956006
 30
0.0
 11
298.8362031962492
 21
222.4267779560061
 31
0.0
  0
LINE
  5
37F
330
1A
100
AcDbEntity
  8
SEIHIN
  6
CONTINUOUS
 62
     3
 48
16.0
100
AcDbLine
 10
298.0362031962492
 20
256.426777956006
 30
0.0
 11
298.0362031962492
 21
222.4267779560061
 31
0.0
  0
LINE
  5
380
330
1A
100
AcDbEntity
  8
SEIHIN
  6
CONTINUOUS
 62
     3
 48
16.0
100
AcDbLine
 10
215.2776854802005
 20
221.3268779560061
 30
0.0
 11
215.2776854802005
 21
255.8268779560061
 31
0.0
  0
LINE
  5
381
330
1A
100
AcDbEntity
  8
CENTER_L
  6
CENTER
 62
     1
 48
5.0
100
AcDbLine
 10
221.6818854802006
 20
209.7237779560062
 30
0.0
 11
229.8639854802005
 21
209.7237779560062
 31
0.0
  0
LINE
  5
382
330
1A
100
AcDbEntity
  8
SEIHIN
  6
CONTINUOUS
 62
     3
 48
16.0
100
AcDbLine
 10
214.7776854802005
 20
214.7237779560061
 30
0.0
 11
229.5276854802005
 21
214.7237779560061
 31
0.0
  0
LINE
  5
383
330
1A
100
AcDbEntity
  8
CENTER_L
  6
CENTER
 62
     1
 48
5.0
100
AcDbLine
 10
222.4961854802006
 20
189.7237779560061
 30
0.0
 11
230.0154854802005
 21
189.7237779560061
 31
0.0
  0
LINE
  5
384
330
1A
100
AcDbEntity
  8
SEIHIN
  6
CONTINUOUS
 62
     3
 48
16.0
100
AcDbLine
 10
213.3219854802006
 20
184.7237779560061
 30
0.0
 11
229.5276854802005
 21
184.7237779560061
 31
0.0
  0
LINE
  5
385
330
1A
100
AcDbEntity
  8
SEIHIN
  6
CONTINUOUS
 62
     3
 48
16.0
100
AcDbLine
 10
210.7776854802005
 20
182.4268779560061
 30
0.0
 11
210.7776854802005
 21
220.3268779560061
 31
0.0
  0
LINE
  5
386
330
1A
100
AcDbEntity
  8
SEIHIN
  6
CONTINUOUS
 62
     3
 48
16.0
100
AcDbLine
 10
213.7776854802005
 20
194.0868779560061
 30
0.0
 11
213.7776854802005
 21
220.3268779560061
 31
0.0
  0
LINE
  5
388
330
1A
100
AcDbEntity
  8
SEIHIN
  6
CONTINUOUS
 62
     3
 48
16.0
100
AcDbLine
 10
204.7776854802005
 20
182.4268779560061
 30
0.0
 11
204.7776854802005
 21
220.3268779560061
 31
0.0
  0
LINE
  5
38A
330
1A
100
AcDbEntity
  8
SEIHIN
  6
CONTINUOUS
 62
     3
 48
16.0
100
AcDbLine
 10
200.7776854802005
 20
182.4268779560061
 30
0.0
 11
200.7777854802006
 21
220.3268779560061
 31
0.0
  0
LINE
  5
38B
330
1A
100
AcDbEntity
  8
SEIHIN
  6
CONTINUOUS
 62
     3
 48
16.0
100
AcDbLine
 10
217.2297854802006
 20
189.7237779560061
 30
0.0
 11
212.9557854802005
 21
187.8037779560061
 31
0.0
  0
LINE
  5
38C
330
1A
100
AcDbEntity
  8
SEIHIN
  6
CONTINUOUS
 62
     3
 48
16.0
100
AcDbLine
 10
213.7776854802005
 20
182.9268779560061
 30
0.0
 11
210.7776854802005
 21
182.9268779560061
 31
0.0
  0
ARC
  5
38D
330
1A
100
AcDbEntity
  8
SEIHIN
  6
CONTINUOUS
 62
     3
 48
16.0
100
AcDbCircle
 10
232.0080854798291
 20
188.5067646030791
 30
0.0
 40
19.06522014403829
100
AcDbArc
 50
162.9808845565924
 51
197.0180886465237
  0
LINE
  5
38E
330
1A
100
AcDbEntity
  8
SEIHIN
  6
CONTINUOUS
 62
     3
 48
16.0
100
AcDbLine
 10
202.7776854802005
 20
194.0868779560061
 30
0.0
 11
204.7776854802005
 21
194.086877956006
 31
0.0
  0
LINE
  5
38F
330
1A
100
AcDbEntity
  8
SEIHIN
  6
CONTINUOUS
 62
     3
 48
16.0
100
AcDbLine
 10
202.7776854802005
 20
179.426877956006
 30
0.0
 11
207.7776854802005
 21
179.426877956006
 31
0.0
  0
ARC
  5
390
330
1A
100
AcDbEntity
  8
SEIHIN
  6
CONTINUOUS
 62
     3
 48
16.0
100
AcDbCircle
 10
207.7776854802005
 20
182.4268779560061
 30
0.0
 40
3.000000000000028
100
AcDbArc
 50
180.0
 51
0.0
  0
LINE
  5
391
330
1A
100
AcDbEntity
  8
SEIHIN
  6
CONTINUOUS
 62
     3
 48
16.0
100
AcDbLine
 10
204.7776854802005
 20
182.9268779560061
 30
0.0
 11
202.7776854802005
 21
182.9268779560061
 31
0.0
  0
LINE
  5
392
330
1A
100
AcDbEntity
  8
SEIHIN
  6
CONTINUOUS
 62
     3
 48
16.0
100
AcDbLine
 10
202.7776854802005
 20
179.426877956006
 30
0.0
 11
197.7776854802005
 21
179.426877956006
 31
0.0
  0
LINE
  5
393
330
1A
100
AcDbEntity
  8
SEIHIN
  6
CONTINUOUS
 62
     3
 48
16.0
100
AcDbLine
 10
200.7776854802005
 20
182.9268779560061
 30
0.0
 11
202.7776854802005
 21
182.9268779560061
 31
0.0
  0
LINE
  5
394
330
1A
100
AcDbEntity
  8
CENTER_L
  6
CENTER
 62
     1
 48
5.0
100
AcDbLine
 10
226.5276854802005
 20
185.6019779560061
 30
0.0
 11
226.5276854802005
 21
194.004077956006
 31
0.0
  0
ARC
  5
395
330
1A
100
AcDbEntity
  8
SEIHIN
  6
CONTINUOUS
 62
     3
 48
16.0
100
AcDbCircle
 10
226.5276854802005
 20
189.7237779560061
 30
0.0
 40
2.0
100
AcDbArc
 50
180.0
 51
0.0
  0
LINE
  5
396
330
1A
100
AcDbEntity
  8
SEIHIN
  6
CONTINUOUS
 62
     3
 48
16.0
100
AcDbLine
 10
213.1857854802006
 20
191.5404779560061
 30
0.0
 11
217.2297854802006
 21
189.7237779560061
 31
0.0
  0
ARC
  5
397
330
1A
100
AcDbEntity
  8
SEIHIN
  6
CONTINUOUS
 62
     3
 48
16.0
100
AcDbCircle
 10
226.5276854802005
 20
189.7237779560061
 30
0.0
 40
2.0
100
AcDbArc
 50
0.0
 51
180.0
  0
LINE
  5
398
330
1A
100
AcDbEntity
  8
SEIHIN
  6
CONTINUOUS
 62
     3
 48
16.0
100
AcDbLine
 10
214.2776854802006
 20
220.3268779560061
 30
0.0
 11
202.7776854802005
 21
220.3268779560061
 31
0.0
  0
ARC
  5
399
330
1A
100
AcDbEntity
  8
SEIHIN
  6
CONTINUOUS
 62
     3
 48
16.0
100
AcDbCircle
 10
210.5718985300684
 20
222.5769572299434
 30
0.0
 40
1.000042938856214
100
AcDbArc
 50
236.8187372541356
 51
330.0027914720744
  0
ARC
  5
39A
330
1A
100
AcDbEntity
  8
SEIHIN
  6
CONTINUOUS
 62
     3
 48
16.0
100
AcDbCircle
 10
226.5276854802005
 20
209.7237779560062
 30
0.0
 40
2.0
100
AcDbArc
 50
0.0
 51
180.0
  0
LINE
  5
39B
330
1A
100
AcDbEntity
  8
CENTER_L
  6
CENTER
 62
     1
 48
5.0
100
AcDbLine
 10
226.5276854802005
 20
203.8536779560061
 30
0.0
 11
226.5276854802005
 21
212.9486779560061
 31
0.0
  0
LINE
  5
39C
330
1A
100
AcDbEntity
  8
SEIHIN
  6
CONTINUOUS
 62
     3
 48
16.0
100
AcDbLine
 10
213.7776854802005
 20
211.2745779560061
 30
0.0
 11
217.2297854802006
 21
209.7237779560062
 31
0.0
  0
LINE
  5
39D
330
1A
100
AcDbEntity
  8
SEIHIN
  6
CONTINUOUS
 62
     3
 48
16.0
100
AcDbLine
 10
217.2297854802006
 20
209.7237779560062
 30
0.0
 11
213.7776854802005
 21
208.1729779560061
 31
0.0
  0
ARC
  5
39E
330
1A
100
AcDbEntity
  8
SEIHIN
  6
CONTINUOUS
 62
     3
 48
16.0
100
AcDbCircle
 10
226.5276854802005
 20
209.7237779560062
 30
0.0
 40
2.0
100
AcDbArc
 50
180.0
 51
0.0
  0
ARC
  5
39F
330
1A
100
AcDbEntity
  8
SEIHIN
  6
CONTINUOUS
 62
     3
 48
16.0
100
AcDbCircle
 10
214.2776854802005
 20
221.3268779560061
 30
0.0
 40
0.9999999999999715
100
AcDbArc
 50
270.0000000000016
 51
0.0000000000016284
  0
ARC
  5
3A0
330
1A
100
AcDbEntity
  8
SEIHIN
  6
CONTINUOUS
 62
     3
 48
16.0
100
AcDbCircle
 10
214.7777675841357
 20
216.7237559557643
 30
0.0
 40
1.999978001443396
100
AcDbArc
 50
239.9969200888202
 51
269.9976478696471
  0
LINE
  5
3A1
330
1A
100
AcDbEntity
  8
SEIHIN
  6
CONTINUOUS
 62
     3
 48
16.0
100
AcDbLine
 10
231.5276854802005
 20
186.7237779560061
 30
0.0
 11
231.5276854802005
 21
212.7237779560061
 31
0.0
  0
ARC
  5
3A2
330
1A
100
AcDbEntity
  8
SEIHIN
  6
CONTINUOUS
 62
     3
 48
16.0
100
AcDbCircle
 10
229.5276854802005
 20
186.7237779560061
 30
0.0
 40
2.0
100
AcDbArc
 50
270.0
 51
0.0
  0
ARC
  5
3A3
330
1A
100
AcDbEntity
  8
SEIHIN
  6
CONTINUOUS
 62
     3
 48
16.0
100
AcDbCircle
 10
229.5276854802005
 20
212.7237779560061
 30
0.0
 40
2.0
100
AcDbArc
 50
0.0
 51
90.0
  0
ARC
  5
3A4
330
1A
100
AcDbEntity
  8
SEIHIN
  6
CONTINUOUS
 62
     3
 48
16.0
100
AcDbCircle
 10
299.3362031962492
 20
222.4267779560061
 30
0.0
 40
0.5000000000000285
100
AcDbArc
 50
180.0000000000097
 51
270.0000000000097
  0
ARC
  5
3A5
330
1A
100
AcDbEntity
  8
SEIHIN
  6
CONTINUOUS
 62
     3
 48
16.0
100
AcDbCircle
 10
299.3362031962492
 20
222.4267779560061
 30
0.0
 40
1.300000000000039
100
AcDbArc
 50
180.0000000000037
 51
270.0000000000037
  0
LINE
  5
3A6
330
1A
100
AcDbEntity
  8
SEIHIN
  6
CONTINUOUS
 62
     3
 48
16.0
100
AcDbLine
 10
305.0972031962493
 20
221.1267779560061
 30
0.0
 11
299.3362031962493
 21
221.1267779560061
 31
0.0
  0
LINE
  5
3A7
330
1A
100
AcDbEntity
  8
SEIHIN
  6
CONTINUOUS
 62
     3
 48
16.0
100
AcDbLine
 10
305.0972031962493
 20
221.9267779560061
 30
0.0
 11
299.3362031962493
 21
221.9267779560061
 31
0.0
  0
LINE
  5
3A8
330
1A
100
AcDbEntity
  8
SEIHIN
  6
CONTINUOUS
 62
     3
 48
16.0
100
AcDbLine
 10
211.7776854802005
 20
255.8268779560061
 30
0.0
 11
211.7775854802005
 21
236.326877956006
 31
0.0
  0
ARC
  5
3A9
330
1A
100
AcDbEntity
  8
SEIHIN
  6
CONTINUOUS
 62
     3
 48
16.0
100
AcDbCircle
 10
209.2775854802006
 20
236.3268779560061
 30
0.0
 40
2.499999999999971
100
AcDbArc
 50
269.999999999998
 51
359.999999999998
  0
LINE
  5
3AA
330
1A
100
AcDbEntity
  8
SEIHIN
  6
CONTINUOUS
 62
     3
 48
16.0
100
AcDbLine
 10
202.7776854802005
 20
233.8268779560061
 30
0.0
 11
209.2775854802005
 21
233.8268779560061
 31
0.0
  0
ARC
  5
3AB
330
1A
100
AcDbEntity
  8
SEIHIN
  6
CONTINUOUS
 62
     3
 48
16.0
100
AcDbCircle
 10
202.7776854802005
 20
227.076977956006
 30
0.0
 40
1.0
100
AcDbArc
 50
0.0
 51
180.0
  0
ARC
  5
3AC
330
1A
100
AcDbEntity
  8
SEIHIN
  6
CONTINUOUS
 62
     3
 48
16.0
100
AcDbCircle
 10
202.7776854802005
 20
227.076977956006
 30
0.0
 40
1.0
100
AcDbArc
 50
180.0
 51
0.0
  0
ARC
  5
3AD
330
1A
100
AcDbEntity
  8
SEIHIN
  6
CONTINUOUS
 62
     3
 48
16.0
100
AcDbCircle
 10
199.313656053933
 20
229.0769690779392
 30
0.0
 40
0.5000100449581179
100
AcDbArc
 50
243.5809984124371
 51
330.0018392514274
  0
ARC
  5
3AE
330
1A
100
AcDbEntity
  8
SEIHIN
  6
CONTINUOUS
 62
     3
 48
16.0
100
AcDbCircle
 10
199.3135731126051
 20
225.0769252621746
 30
0.0
 40
0.5000260595038509
100
AcDbArc
 50
303.5865427614119
 51
30.005248174011
  0
ARC
  5
3AF
330
1A
100
AcDbEntity
  8
SEIHIN
  6
CONTINUOUS
 62
     3
 48
16.0
100
AcDbCircle
 10
199.313656053933
 20
225.0768868340729
 30
0.0
 40
0.5000100449581183
100
AcDbArc
 50
29.99816074857253
 51
116.4190015875627
  0
ARC
  5
3B0
330
1A
100
AcDbEntity
  8
SEIHIN
  6
CONTINUOUS
 62
     3
 48
16.0
100
AcDbCircle
 10
199.3136962450669
 20
229.0769320965936
 30
0.0
 40
0.4999567482678377
100
AcDbArc
 50
330.0032067826358
 51
56.42512083846401
  0
LINE
  5
3B1
330
1A
100
AcDbEntity
  8
SEIHIN
  6
CONTINUOUS
 62
     3
 48
16.0
100
AcDbLine
 10
210.0245854802006
 20
232.4137779560061
 30
0.0
 11
205.9652854802005
 21
229.4934779560061
 31
0.0
  0
ARC
  5
3B2
330
1A
100
AcDbEntity
  8
SEIHIN
  6
CONTINUOUS
 62
     3
 48
16.0
100
AcDbCircle
 10
210.5719545602581
 20
231.576985325413
 30
0.0
 40
1.000001092471308
100
AcDbArc
 50
29.99947630725291
 51
123.1866664820237
  0
ARC
  5
3B3
330
1A
100
AcDbEntity
  8
SEIHIN
  6
CONTINUOUS
 62
     3
 48
16.0
100
AcDbCircle
 10
210.5719764925302
 20
231.5769477936969
 30
0.0
 40
1.000000864972037
100
AcDbArc
 50
296.8148326851259
 51
30.00196692705718
  0
LINE
  5
3B4
330
1A
100
AcDbEntity
  8
SEIHIN
  6
CONTINUOUS
 62
     3
 48
16.0
100
AcDbLine
 10
211.0230854802006
 20
223.469377956006
 30
0.0
 11
206.4642854802005
 21
225.5246779560061
 31
0.0
  0
ARC
  5
3B5
330
1A
100
AcDbEntity
  8
SEIHIN
  6
CONTINUOUS
 62
     3
 48
16.0
100
AcDbCircle
 10
206.2417886198292
 20
225.0769645841967
 30
0.0
 40
0.4999984050091399
100
AcDbArc
 50
149.9981251089928
 51
236.42637693614
  0
ARC
  5
3B6
330
1A
100
AcDbEntity
  8
SEIHIN
  6
CONTINUOUS
 62
     3
 48
16.0
100
AcDbCircle
 10
206.241814906468
 20
229.0769690779392
 30
0.0
 40
0.5000100449580081
100
AcDbArc
 50
209.9981607485694
 51
296.4190015875577
  0
ARC
  5
3B7
330
1A
100
AcDbEntity
  8
SEIHIN
  6
CONTINUOUS
 62
     3
 48
16.0
100
AcDbCircle
 10
206.241814906468
 20
225.076886834073
 30
0.0
 40
0.5000100449580084
100
AcDbArc
 50
63.58099841244232
 51
150.0018392514305
  0
LINE
  5
3B8
330
1A
100
AcDbEntity
  8
SEIHIN
  6
CONTINUOUS
 62
     3
 48
16.0
100
AcDbLine
 10
211.0230854802006
 20
230.6844779560061
 30
0.0
 11
206.4642854802005
 21
228.6291779560061
 31
0.0
  0
ARC
  5
3B9
330
1A
100
AcDbEntity
  8
SEIHIN
  6
CONTINUOUS
 62
     3
 48
16.0
100
AcDbCircle
 10
206.2417747153342
 20
229.0769320965936
 30
0.0
 40
0.4999567482678169
100
AcDbArc
 50
123.5748791615419
 51
209.9967932173717
  0
LINE
  5
3BA
330
1A
100
AcDbEntity
  8
SEIHIN
  6
CONTINUOUS
 62
     3
 48
16.0
100
AcDbLine
 10
215.2776854802005
 20
255.8268779560061
 30
0.0
 11
211.7776854802005
 21
255.8268779560061
 31
0.0
  0
LINE
  5
3BB
330
1A
100
AcDbEntity
  8
SEIHIN
  6
CONTINUOUS
 62
     3
 48
16.0
100
AcDbLine
 10
298.8362031962492
 20
256.426777956006
 30
0.0
 11
298.0362031962492
 21
256.426777956006
 31
0.0
  0
LINE
  5
3BC
330
1A
100
AcDbEntity
  8
SEIHIN
  6
CONTINUOUS
 62
     3
 48
16.0
100
AcDbLine
 10
355.8362031962493
 20
183.4267779560061
 30
0.0
 11
322.7157031962492
 21
183.4267779560061
 31
0.0
  0
LINE
  5
3BD
330
1A
100
AcDbEntity
  8
SEIHIN
  6
CONTINUOUS
 62
     3
 48
16.0
100
AcDbLine
 10
322.7157031962492
 20
179.4267779560061
 30
0.0
 11
348.1265031962492
 21
179.4267779560061
 31
0.0
  0
LINE
  5
3BE
330
1A
100
AcDbEntity
  8
SEIHIN
  6
CONTINUOUS
 62
     3
 48
16.0
100
AcDbLine
 10
355.8362031962493
 20
182.6267779560062
 30
0.0
 11
322.2807031962493
 21
182.6267779560062
 31
0.0
  0
LINE
  5
3BF
330
1A
100
AcDbEntity
  8
SEIHIN
  6
CONTINUOUS
 62
     3
 48
16.0
100
AcDbLine
 10
311.7073031962493
 20
195.5389779560061
 30
0.0
 11
306.3692031962493
 21
220.8945779560061
 31
0.0
  0
LINE
  5
3C0
330
1A
100
AcDbEntity
  8
SEIHIN
  6
CONTINUOUS
 62
     3
 48
16.0
100
AcDbLine
 10
310.9876031962493
 20
195.0744779560061
 30
0.0
 11
305.5865031962493
 21
220.7297779560061
 31
0.0
  0
ARC
  5
3C1
330
1A
100
AcDbEntity
  8
SEIHIN
  6
CONTINUOUS
 62
     3
 48
16.0
100
AcDbCircle
 10
322.715686375421
 20
184.4267923582986
 30
0.0
 40
1.000014402433989
100
AcDbArc
 50
188.8595106762549
 51
270.0009637485855
  0
ARC
  5
3C2
330
1A
100
AcDbEntity
  8
SEIHIN
  6
CONTINUOUS
 62
     3
 48
16.0
100
AcDbCircle
 10
322.2806978885659
 20
183.9267826482968
 30
0.0
 40
1.300004692301531
100
AcDbArc
 50
187.04325083954
 51
270.0002339282799
  0
ARC
  5
3C3
330
1A
100
AcDbEntity
  8
SEIHIN
  6
CONTINUOUS
 62
     3
 48
16.0
100
AcDbCircle
 10
322.7157037655814
 20
184.426777468506
 30
0.0
 40
4.999999512499991
100
AcDbArc
 50
188.8553201291488
 51
269.9999934759336
  0
ARC
  5
3C4
330
1A
100
AcDbEntity
  8
SEIHIN
  6
CONTINUOUS
 62
     3
 48
16.0
100
AcDbCircle
 10
308.8825829922054
 20
182.2715009714747
 30
0.0
 40
12.19997457457788
100
AcDbArc
 50
7.042937452311937
 51
75.51314301765884
  0
ARC
  5
3C5
330
1A
100
AcDbEntity
  8
SEIHIN
  6
CONTINUOUS
 62
     3
 48
16.0
100
AcDbCircle
 10
308.8825985958263
 20
182.2714831473456
 30
0.0
 40
12.99998939865037
100
AcDbArc
 50
8.85611193388512
 51
74.23680372393802
  0
ARC
  5
3C6
330
1A
100
AcDbEntity
  8
SEIHIN
  6
CONTINUOUS
 62
     3
 48
16.0
100
AcDbCircle
 10
308.882607408075
 20
182.2714732414701
 30
0.0
 40
8.999981205258936
100
AcDbArc
 50
8.855631650214338
 51
74.69773417452515
  0
ARC
  5
3C7
330
1A
100
AcDbEntity
  8
SEIHIN
  6
CONTINUOUS
 62
     3
 48
16.0
100
AcDbCircle
 10
312.2597348227011
 20
195.3422448619372
 30
0.0
 40
1.300006919570292
100
AcDbArc
 50
191.8864896219361
 51
255.5120229390784
  0
ARC
  5
3C8
330
1A
100
AcDbEntity
  8
SEIHIN
  6
CONTINUOUS
 62
     3
 48
16.0
100
AcDbCircle
 10
312.6858836388507
 20
195.7449988839211
 30
0.0
 40
1.000032152173499
100
AcDbArc
 50
191.8888818863373
 51
254.2362325537057
  0
ARC
  5
3C9
330
1A
100
AcDbEntity
  8
SEIHIN
  6
CONTINUOUS
 62
     3
 48
16.0
100
AcDbCircle
 10
312.5773099242231
 20
195.77517081476
 30
0.0
 40
4.999946441217532
100
AcDbArc
 50
191.8880899322046
 51
254.6981512804594
  0
LINE
  5
3CA
330
1A
100
AcDbEntity
  8
SEIHIN
  6
CONTINUOUS
 62
     3
 48
16.0
100
AcDbLine
 10
350.0207031962493
 20
177.8267779560061
 30
0.0
 11
360.1626518542146
 21
177.8267779560061
 31
0.0
  0
LINE
  5
3CB
330
1A
100
AcDbEntity
  8
SEIHIN
  6
CONTINUOUS
 62
     3
 48
16.0
100
AcDbLine
 10
348.1265031962492
 20
181.8551779560061
 30
0.0
 11
363.9403031962491
 21
181.8551779560061
 31
0.0
  0
LINE
  5
3CC
330
1A
100
AcDbEntity
  8
SEIHIN
  6
CONTINUOUS
 62
     3
 48
16.0
100
AcDbLine
 10
348.1265031962492
 20
179.0574779560061
 30
0.0
 11
348.1265031962492
 21
181.8551779560061
 31
0.0
  0
LINE
  5
3CD
330
1A
100
AcDbEntity
  8
SEIHIN
  6
CONTINUOUS
 62
     3
 48
16.0
100
AcDbLine
 10
350.0207031962493
 20
177.8267779560061
 30
0.0
 11
348.1265031962492
 21
179.0574779560061
 31
0.0
  0
ARC
  5
3CE
330
1A
100
AcDbEntity
  8
SEIHIN
  6
CONTINUOUS
 62
     3
 48
16.0
100
AcDbCircle
 10
363.9402782096159
 20
176.8551994235982
 30
0.0
 40
4.999978532470367
100
AcDbArc
 50
8.663805950017948
 51
89.99971367304558
  0
ARC
  5
3D2
330
1A
100
AcDbEntity
  8
SEIHIN
  6
CONTINUOUS
 62
     3
 48
16.0
100
AcDbCircle
 10
305.6694031962493
 20
358.4266779560061
 30
0.0
 40
2.5
100
AcDbArc
 50
90.0
 51
270.0
  0
ARC
  5
3D3
330
1A
100
AcDbEntity
  8
SEIHIN
  6
CONTINUOUS
 62
     3
 48
16.0
100
AcDbCircle
 10
305.6694031962493
 20
348.426777956006
 30
0.0
 40
2.500000000000085
100
AcDbArc
 50
90.0
 51
270.0
  0
LINE
  5
3D4
330
1A
100
AcDbEntity
  8
CENTER_L
  6
CENTER
 62
     1
 48
5.0
100
AcDbLine
 10
355.8363031962493
 20
353.4266779560061
 30
0.0
 11
292.0026031962493
 21
353.4267779560061
 31
0.0
  0
LINE
  5
3D5
330
1A
100
AcDbEntity
  8
SEIHIN
  6
CONTINUOUS
 62
     3
 48
16.0
100
AcDbLine
 10
311.7074031962492
 20
342.4266779560062
 30
0.0
 11
298.8363031962494
 21
342.426777956006
 31
0.0
  0
LINE
  5
3D6
330
1A
100
AcDbEntity
  8
SEIHIN
  6
CONTINUOUS
 62
     3
 48
16.0
100
AcDbLine
 10
311.7074031962492
 20
364.4266779560061
 30
0.0
 11
298.8363031962494
 21
364.4266779560061
 31
0.0
  0
LINE
  5
3D7
330
1A
100
AcDbEntity
  8
SEIHIN
  6
CONTINUOUS
 62
     3
 48
16.0
100
AcDbLine
 10
298.8363031962494
 20
353.4267779560061
 30
0.0
 11
298.8363031962494
 21
365.9266779560061
 31
0.0
  0
LINE
  5
3D8
330
1A
100
AcDbEntity
  8
SEIHIN
  6
CONTINUOUS
 62
     3
 48
16.0
100
AcDbLine
 10
298.0363031962493
 20
365.9266779560061
 30
0.0
 11
298.0363031962493
 21
353.4267779560061
 31
0.0
  0
LINE
  5
3DC
330
1A
100
AcDbEntity
  8
SEIHIN
  6
CONTINUOUS
 62
     3
 48
16.0
100
AcDbLine
 10
298.0363031962493
 20
340.9266779560061
 30
0.0
 11
298.0363031962493
 21
353.426577956006
 31
0.0
  0
LINE
  5
3DD
330
1A
100
AcDbEntity
  8
SEIHIN
  6
CONTINUOUS
 62
     3
 48
16.0
100
AcDbLine
 10
298.8363031962494
 20
353.4266779560061
 30
0.0
 11
298.8363031962494
 21
340.9266779560061
 31
0.0
  0
LINE
  5
3DE
330
1A
100
AcDbEntity
  8
SEIHIN
  6
CONTINUOUS
 62
     3
 48
16.0
100
AcDbLine
 10
298.8363031962494
 20
340.9267779560061
 30
0.0
 11
298.0363031962493
 21
340.9267779560061
 31
0.0
  0
LINE
  5
3DF
330
1A
100
AcDbEntity
  8
SEIHIN
  6
CONTINUOUS
 62
     3
 48
16.0
100
AcDbLine
 10
298.8363031962494
 20
365.9266779560061
 30
0.0
 11
298.0363031962493
 21
365.9266779560061
 31
0.0
  0
ARC
  5
3E0
330
1A
100
AcDbEntity
  8
SEIHIN
  6
CONTINUOUS
 62
     3
 48
16.0
100
AcDbCircle
 10
355.8363031962493
 20
353.4266779560061
 30
0.0
 40
5.0
100
AcDbArc
 50
0.0
 51
180.0
  0
LINE
  5
3E1
330
1A
100
AcDbEntity
  8
SEIHIN
  6
CONTINUOUS
 62
     3
 48
16.0
100
AcDbLine
 10
322.7158031962492
 20
355.9266779560061
 30
0.0
 11
322.7158031962492
 21
353.4266779560061
 31
0.0
  0
LINE
  5
3E2
330
1A
100
AcDbEntity
  8
SEIHIN
  6
CONTINUOUS
 62
     3
 48
16.0
100
AcDbLine
 10
311.7074031962492
 20
355.9266779560061
 30
0.0
 11
311.7074031962492
 21
353.4266779560061
 31
0.0
  0
LINE
  5
3E3
330
1A
100
AcDbEntity
  8
SEIHIN
  6
CONTINUOUS
 62
     3
 48
16.0
100
AcDbLine
 10
306.3694031962493
 20
355.9266779560061
 30
0.0
 11
306.3694031962493
 21
353.4266779560061
 31
0.0
  0
LINE
  5
3E4
330
1A
100
AcDbEntity
  8
CENTER_L
  6
CENTER
 62
     1
 48
5.0
100
AcDbLine
 10
355.8363031962493
 20
335.9482779560061
 30
0.0
 11
355.8363031962493
 21
370.1066779560061
 31
0.0
  0
LINE
  5
3E5
330
1A
100
AcDbEntity
  8
SEIHIN
  6
CONTINUOUS
 62
     3
 48
16.0
100
AcDbLine
 10
355.8363031962493
 20
342.4266779560062
 30
0.0
 11
322.7158031962492
 21
342.4266779560062
 31
0.0
  0
LINE
  5
3E6
330
1A
100
AcDbEntity
  8
SEIHIN
  6
CONTINUOUS
 62
     3
 48
16.0
100
AcDbLine
 10
349.2980031962492
 20
350.9266779560062
 30
0.0
 11
305.6694031962493
 21
350.9267779560061
 31
0.0
  0
LINE
  5
3E7
330
1A
100
AcDbEntity
  8
SEIHIN
  6
CONTINUOUS
 62
     3
 48
16.0
100
AcDbLine
 10
355.8363031962493
 20
345.9266779560061
 30
0.0
 11
305.6694031962493
 21
345.926777956006
 31
0.0
  0
ARC
  5
3E8
330
1A
100
AcDbEntity
  8
SEIHIN
  6
CONTINUOUS
 62
     3
 48
16.0
100
AcDbCircle
 10
317.2116031962492
 20
313.0536779560062
 30
0.0
 40
29.88426587085582
100
AcDbArc
 50
79.38644552492009
 51
100.6135544750799
  0
LINE
  5
3E9
330
1A
100
AcDbEntity
  8
SEIHIN
  6
CONTINUOUS
 62
     3
 48
16.0
100
AcDbLine
 10
311.7074031962492
 20
342.4266779560062
 30
0.0
 11
311.7074031962492
 21
345.9266779560061
 31
0.0
  0
LINE
  5
3EA
330
1A
100
AcDbEntity
  8
SEIHIN
  6
CONTINUOUS
 62
     3
 48
16.0
100
AcDbLine
 10
306.3694031962493
 20
342.4266779560062
 30
0.0
 11
306.3694031962493
 21
345.9266779560061
 31
0.0
  0
LINE
  5
3EB
330
1A
100
AcDbEntity
  8
SEIHIN
  6
CONTINUOUS
 62
     3
 48
16.0
100
AcDbLine
 10
311.7074031962492
 20
350.9266779560062
 30
0.0
 11
311.7074031962492
 21
353.4266779560061
 31
0.0
  0
LINE
  5
3EC
330
1A
100
AcDbEntity
  8
SEIHIN
  6
CONTINUOUS
 62
     3
 48
16.0
100
AcDbLine
 10
306.3694031962493
 20
350.9266779560062
 30
0.0
 11
306.3694031962493
 21
353.4266779560061
 31
0.0
  0
LINE
  5
3ED
330
1A
100
AcDbEntity
  8
SEIHIN
  6
CONTINUOUS
 62
     3
 48
16.0
100
AcDbLine
 10
322.7158031962492
 20
342.4266779560062
 30
0.0
 11
322.7158031962492
 21
345.9266779560061
 31
0.0
  0
LINE
  5
3EE
330
1A
100
AcDbEntity
  8
SEIHIN
  6
CONTINUOUS
 62
     3
 48
16.0
100
AcDbLine
 10
322.7158031962492
 20
350.9266779560062
 30
0.0
 11
322.7158031962492
 21
353.4266779560061
 31
0.0
  0
ARC
  5
3EF
330
1A
100
AcDbEntity
  8
SEIHIN
  6
CONTINUOUS
 62
     3
 48
16.0
100
AcDbCircle
 10
355.8363031962493
 20
353.4266779560061
 30
0.0
 40
5.0
100
AcDbArc
 50
180.0
 51
0.0
  0
ARC
  5
3F0
330
1A
100
AcDbEntity
  8
SEIHIN
  6
CONTINUOUS
 62
     3
 48
16.0
100
AcDbCircle
 10
355.8363031962493
 20
353.4266779560061
 30
0.0
 40
6.999954777711145
100
AcDbArc
 50
200.9249739588067
 51
339.0750260411932
  0
LINE
  5
3F1
330
1A
100
AcDbEntity
  8
SEIHIN
  6
CONTINUOUS
 62
     3
 48
16.0
100
AcDbLine
 10
355.8363031962493
 20
364.4267779560061
 30
0.0
 11
322.7158031962492
 21
364.4266779560061
 31
0.0
  0
LINE
  5
3F2
330
1A
100
AcDbEntity
  8
SEIHIN
  6
CONTINUOUS
 62
     3
 48
16.0
100
AcDbLine
 10
349.2980031962492
 20
355.9266779560061
 30
0.0
 11
305.6694031962493
 21
355.9266779560061
 31
0.0
  0
LINE
  5
3F3
330
1A
100
AcDbEntity
  8
SEIHIN
  6
CONTINUOUS
 62
     3
 48
16.0
100
AcDbLine
 10
355.8363031962493
 20
360.926777956006
 30
0.0
 11
305.6694031962493
 21
360.9266779560062
 31
0.0
  0
ARC
  5
3F4
330
1A
100
AcDbEntity
  8
SEIHIN
  6
CONTINUOUS
 62
     3
 48
16.0
100
AcDbCircle
 10
317.2115531962492
 20
393.7997779560883
 30
0.0
 40
29.88425666178313
100
AcDbArc
 50
259.3865397477245
 51
280.6134602522754
  0
LINE
  5
3F5
330
1A
100
AcDbEntity
  8
SEIHIN
  6
CONTINUOUS
 62
     3
 48
16.0
100
AcDbLine
 10
311.7074031962492
 20
364.4266779560061
 30
0.0
 11
311.7074031962492
 21
360.9266779560062
 31
0.0
  0
LINE
  5
3F6
330
1A
100
AcDbEntity
  8
SEIHIN
  6
CONTINUOUS
 62
     3
 48
16.0
100
AcDbLine
 10
306.3694031962493
 20
364.4266779560061
 30
0.0
 11
306.3694031962493
 21
360.9266779560062
 31
0.0
  0
LINE
  5
3F7
330
1A
100
AcDbEntity
  8
SEIHIN
  6
CONTINUOUS
 62
     3
 48
16.0
100
AcDbLine
 10
322.7158031962492
 20
364.4266779560061
 30
0.0
 11
322.7158031962492
 21
360.9266779560062
 31
0.0
  0
ARC
  5
3F8
330
1A
100
AcDbEntity
  8
SEIHIN
  6
CONTINUOUS
 62
     3
 48
16.0
100
AcDbCircle
 10
355.8363031962493
 20
353.4266779560061
 30
0.0
 40
6.999990492850755
100
AcDbArc
 50
20.92573848926407
 51
159.0742615107359
  0
LINE
  5
3FA
330
1A
100
AcDbEntity
  8
SEIHIN
  6
CONTINUOUS
 62
     3
 48
16.0
100
AcDbLine
 10
620.2752932700544
 20
211.7234779560061
 30
0.0
 11
615.8231932700543
 21
209.7234779560061
 31
0.0
  0
LINE
  5
3FB
330
1A
100
AcDbEntity
  8
SEIHIN
  6
CONTINUOUS
 62
     3
 48
16.0
100
AcDbLine
 10
615.8231932700543
 20
209.7234779560061
 30
0.0
 11
620.2752932700544
 21
207.7234779560061
 31
0.0
  0
LINE
  5
3FD
330
1A
100
AcDbEntity
  8
SEIHIN
  6
CONTINUOUS
 62
     3
 48
16.0
100
AcDbLine
 10
620.2752932700544
 20
191.7234779560061
 30
0.0
 11
615.8231932700543
 21
189.7234779560061
 31
0.0
  0
LINE
  5
3FE
330
1A
100
AcDbEntity
  8
SEIHIN
  6
CONTINUOUS
 62
     3
 48
16.0
100
AcDbLine
 10
615.8231932700543
 20
189.7234779560061
 30
0.0
 11
620.2752932700544
 21
187.7234779560061
 31
0.0
  0
LINE
  5
3FF
330
1A
100
AcDbEntity
  8
SEIHIN
  6
CONTINUOUS
 62
     3
 48
16.0
100
AcDbLine
 10
630.3802932700545
 20
184.7234779560061
 30
0.0
 11
603.6252932700545
 21
184.7234779560061
 31
0.0
  0
LINE
  5
403
330
1A
100
AcDbEntity
  8
SEIHIN
  6
CONTINUOUS
 62
     3
 48
16.0
100
AcDbLine
 10
410.5738031962492
 20
215.5084779560061
 30
0.0
 11
400.8035031962493
 21
166.0686779560061
 31
0.0
  0
LINE
  5
404
330
1A
100
AcDbEntity
  8
SEIHIN
  6
CONTINUOUS
 62
     3
 48
16.0
100
AcDbLine
 10
406.1792031962493
 20
216.476177956006
 30
0.0
 11
397.1441031962493
 21
170.756577956006
 31
0.0
  0
LINE
  5
405
330
1A
100
AcDbEntity
  8
SEIHIN
  6
CONTINUOUS
 62
     3
 48
16.0
100
AcDbLine
 10
392.2752031962494
 20
166.8939779560061
 30
0.0
 11
374.8117031962491
 21
166.8939779560061
 31
0.0
  0
LINE
  5
406
330
1A
100
AcDbEntity
  8
SEIHIN
  6
CONTINUOUS
 62
     3
 48
16.0
100
AcDbLine
 10
395.8984031962494
 20
162.0380779560061
 30
0.0
 11
371.0281031962494
 21
162.0380779560061
 31
0.0
  0
ARC
  5
407
330
1A
100
AcDbEntity
  8
SEIHIN
  6
CONTINUOUS
 62
     3
 48
16.0
100
AcDbCircle
 10
395.8983875197714
 20
167.0380650744729
 30
0.0
 40
4.999987118491366
100
AcDbArc
 50
270.0001796396678
 51
348.8208175552967
  0
ARC
  5
408
330
1A
100
AcDbEntity
  8
SEIHIN
  6
CONTINUOUS
 62
     3
 48
16.0
100
AcDbCircle
 10
392.2751947488072
 20
171.8939712544971
 30
0.0
 40
4.999993298498113
100
AcDbArc
 50
270.0000968006863
 51
346.8513068508602
  0
LINE
  5
40A
330
1A
100
AcDbEntity
  8
SEIHIN
  6
CONTINUOUS
 62
     3
 48
16.0
100
AcDbLine
 10
412.8362031962492
 20
236.2751779560062
 30
0.0
 11
412.8362031962492
 21
222.4267779560061
 31
0.0
  0
LINE
  5
40B
330
1A
100
AcDbEntity
  8
SEIHIN
  6
CONTINUOUS
 62
     3
 48
16.0
100
AcDbLine
 10
413.6362031962492
 20
236.2751779560062
 30
0.0
 11
413.6362031962492
 21
222.4267779560061
 31
0.0
  0
LINE
  5
40D
330
1A
100
AcDbEntity
  8
SEIHIN
  6
CONTINUOUS
 62
     3
 48
16.0
100
AcDbLine
 10
399.9651031962492
 20
195.5389779560061
 30
0.0
 11
405.3031031962493
 21
220.8945779560061
 31
0.0
  0
LINE
  5
40E
330
1A
100
AcDbEntity
  8
SEIHIN
  6
CONTINUOUS
 62
     3
 48
16.0
100
AcDbLine
 10
400.6849031962493
 20
195.0744779560061
 30
0.0
 11
406.0859031962493
 21
220.7297779560061
 31
0.0
  0
ARC
  5
40F
330
1A
100
AcDbEntity
  8
SEIHIN
  6
CONTINUOUS
 62
     3
 48
16.0
100
AcDbCircle
 10
402.7898895482346
 20
182.2714626791753
 30
0.0
 40
8.999988902780431
100
AcDbArc
 50
105.3021901366663
 51
171.1436636300561
  0
ARC
  5
410
330
1A
100
AcDbEntity
  8
SEIHIN
  6
CONTINUOUS
 62
     3
 48
16.0
100
AcDbCircle
 10
402.7898652107847
 20
182.2714346847596
 30
0.0
 40
12.20002419736196
100
AcDbArc
 50
104.4865145161784
 51
172.9567776659507
  0
ARC
  5
411
330
1A
100
AcDbEntity
  8
SEIHIN
  6
CONTINUOUS
 62
     3
 48
16.0
100
AcDbCircle
 10
402.7898471300038
 20
182.2714146880707
 30
0.0
 40
13.00003880274885
100
AcDbArc
 50
105.762856984912
 51
171.1436166277192
  0
ARC
  5
412
330
1A
100
AcDbEntity
  8
SEIHIN
  6
CONTINUOUS
 62
     3
 48
16.0
100
AcDbCircle
 10
389.3917085039327
 20
183.9267826482969
 30
0.0
 40
1.300004692301633
100
AcDbArc
 50
269.9997660717162
 51
352.9567491604564
  0
ARC
  5
413
330
1A
100
AcDbEntity
  8
SEIHIN
  6
CONTINUOUS
 62
     3
 48
16.0
100
AcDbCircle
 10
388.9567200170775
 20
184.4267923582988
 30
0.0
 40
1.000014402434152
100
AcDbArc
 50
269.9990362514071
 51
351.1404893237372
  0
ARC
  5
414
330
1A
100
AcDbEntity
  8
SEIHIN
  6
CONTINUOUS
 62
     3
 48
16.0
100
AcDbCircle
 10
388.9567116166812
 20
184.4267851659957
 30
0.0
 40
5.000007209996794
100
AcDbArc
 50
269.9999035090963
 51
351.1434446026492
  0
ARC
  5
415
330
1A
100
AcDbEntity
  8
SEIHIN
  6
CONTINUOUS
 62
     3
 48
16.0
100
AcDbCircle
 10
398.9865761320772
 20
195.7449489986597
 30
0.0
 40
0.9999696424036439
100
AcDbArc
 50
285.7616005428545
 51
348.1132850171158
  0
ARC
  5
416
330
1A
100
AcDbEntity
  8
SEIHIN
  6
CONTINUOUS
 62
     3
 48
16.0
100
AcDbCircle
 10
399.4127356953853
 20
195.3423119637952
 30
0.0
 40
1.300055847255394
100
AcDbArc
 50
284.484500954752
 51
348.1109421453334
  0
ARC
  5
417
330
1A
100
AcDbEntity
  8
SEIHIN
  6
CONTINUOUS
 62
     3
 48
16.0
100
AcDbCircle
 10
399.0951078106192
 20
195.7751796395286
 30
0.0
 40
4.999978350955865
100
AcDbArc
 50
285.3028019621686
 51
294.7854089329347
  0
LINE
  5
418
330
1A
100
AcDbEntity
  8
SEIHIN
  6
CONTINUOUS
 62
     3
 48
16.0
100
AcDbLine
 10
472.6362031962492
 20
184.7234779560061
 30
0.0
 11
472.6362031962492
 21
215.612077956006
 31
0.0
  0
LINE
  5
419
330
1A
100
AcDbEntity
  8
SEIHIN
  6
CONTINUOUS
 62
     3
 48
16.0
100
AcDbLine
 10
467.7843031962492
 20
184.7234779560061
 30
0.0
 11
467.7843031962492
 21
215.1207779560061
 31
0.0
  0
LINE
  5
41A
330
1A
100
AcDbEntity
  8
SEIHIN
  6
CONTINUOUS
 62
     3
 48
16.0
100
AcDbLine
 10
471.0999031962491
 20
215.5857779560061
 30
0.0
 11
471.0999031962491
 21
184.7234779560061
 31
0.0
  0
LINE
  5
41B
330
1A
100
AcDbEntity
  8
SEIHIN
  6
CONTINUOUS
 62
     3
 48
16.0
100
AcDbLine
 10
472.6362031962492
 20
184.7234779560061
 30
0.0
 11
467.7843031962492
 21
184.7234779560061
 31
0.0
  0
LINE
  5
41C
330
1A
100
AcDbEntity
  8
CENTER_L
  6
CENTER
 62
     1
 48
5.0
100
AcDbLine
 10
479.6362031962492
 20
189.7234779560062
 30
0.0
 11
464.5975031962492
 21
189.7234779560061
 31
0.0
  0
LINE
  5
41D
330
1A
100
AcDbEntity
  8
SEIHIN
  6
CONTINUOUS
 62
     3
 48
16.0
100
AcDbLine
 10
469.0999031962493
 20
189.7234779560061
 30
0.0
 11
471.0999031962491
 21
187.7234779560061
 31
0.0
  0
LINE
  5
41E
330
1A
100
AcDbEntity
  8
SEIHIN
  6
CONTINUOUS
 62
     3
 48
16.0
100
AcDbLine
 10
469.0999031962493
 20
189.7234779560061
 30
0.0
 11
471.0999031962491
 21
191.7234779560061
 31
0.0
  0
LINE
  5
41F
330
1A
100
AcDbEntity
  8
CENTER_L
  6
CENTER
 62
     1
 48
5.0
100
AcDbLine
 10
479.6362031962492
 20
209.7236779560061
 30
0.0
 11
464.5975031962492
 21
209.7236779560061
 31
0.0
  0
LINE
  5
420
330
1A
100
AcDbEntity
  8
SEIHIN
  6
CONTINUOUS
 62
     3
 48
16.0
100
AcDbLine
 10
469.0999031962493
 20
209.7236779560061
 30
0.0
 11
471.0999031962491
 21
207.7236779560061
 31
0.0
  0
LINE
  5
421
330
1A
100
AcDbEntity
  8
SEIHIN
  6
CONTINUOUS
 62
     3
 48
16.0
100
AcDbLine
 10
469.0999031962493
 20
209.7236779560061
 30
0.0
 11
471.0999031962491
 21
211.7236779560061
 31
0.0
  0
ARC
  5
422
330
1A
100
AcDbEntity
  8
SEIHIN
  6
CONTINUOUS
 62
     3
 48
16.0
100
AcDbCircle
 10
467.6362307674012
 20
215.6120508241524
 30
0.0
 40
4.999972428921553
100
AcDbArc
 50
0.0003109098558062
 51
90.92053083851263
  0
ARC
  5
423
330
1A
100
AcDbEntity
  8
SEIHIN
  6
CONTINUOUS
 62
     3
 48
16.0
100
AcDbCircle
 10
466.0999307674011
 20
215.5857508241524
 30
0.0
 40
4.999972428921582
100
AcDbArc
 50
0.0003109098554805
 51
90.92053083851231
  0
LINE
  5
424
330
1A
100
AcDbEntity
  8
SEIHIN
  6
CONTINUOUS
 62
     3
 48
16.0
100
AcDbLine
 10
467.5559031962492
 20
220.6113779560061
 30
0.0
 11
411.0041031962493
 21
220.5061779560061
 31
0.0
  0
LINE
  5
425
330
1A
100
AcDbEntity
  8
SEIHIN
  6
CONTINUOUS
 62
     3
 48
16.0
100
AcDbLine
 10
406.5752031962493
 20
221.9267779560061
 30
0.0
 11
412.3362031962491
 21
221.9267779560061
 31
0.0
  0
LINE
  5
426
330
1A
100
AcDbEntity
  8
SEIHIN
  6
CONTINUOUS
 62
     3
 48
16.0
100
AcDbLine
 10
406.5752031962493
 20
221.1267779560061
 30
0.0
 11
412.3362031962491
 21
221.1267779560061
 31
0.0
  0
ARC
  5
427
330
1A
100
AcDbEntity
  8
SEIHIN
  6
CONTINUOUS
 62
     3
 48
16.0
100
AcDbCircle
 10
412.5358807289
 20
215.1207594936765
 30
0.0
 40
2.000018462455843
100
AcDbArc
 50
89.99935636379374
 51
168.8220137568857
  0
LINE
  5
428
330
1A
100
AcDbEntity
  8
SEIHIN
  6
CONTINUOUS
 62
     3
 48
16.0
100
AcDbLine
 10
409.3457031962492
 20
220.1947779560061
 30
0.0
 11
409.5419031962493
 21
221.1267779560061
 31
0.0
  0
ARC
  5
429
330
1A
100
AcDbEntity
  8
SEIHIN
  6
CONTINUOUS
 62
     3
 48
16.0
100
AcDbCircle
 10
406.5751887218072
 20
220.6267662112819
 30
0.0
 40
0.5000117449336631
100
AcDbArc
 50
89.99834139007605
 51
168.1108636481084
  0
ARC
  5
42A
330
1A
100
AcDbEntity
  8
SEIHIN
  6
CONTINUOUS
 62
     3
 48
16.0
100
AcDbCircle
 10
406.5752138023858
 20
220.6267865618323
 30
0.0
 40
1.299991394217085
100
AcDbArc
 50
90.00046745452271
 51
168.1122634028694
  0
ARC
  5
42B
330
1A
100
AcDbEntity
  8
SEIHIN
  6
CONTINUOUS
 62
     3
 48
16.0
100
AcDbCircle
 10
411.0844462979009
 20
215.5068139567879
 30
0.0
 40
5.000009541057125
100
AcDbArc
 50
90.92070199441675
 51
168.8211383848316
  0
ARC
  5
42C
330
1A
100
AcDbEntity
  8
SEIHIN
  6
CONTINUOUS
 62
     3
 48
16.0
100
AcDbCircle
 10
412.3362031962491
 20
222.4267779560061
 30
0.0
 40
1.299999999999982
100
AcDbArc
 50
269.9999999999987
 51
359.9999999999987
  0
ARC
  5
42D
330
1A
100
AcDbEntity
  8
SEIHIN
  6
CONTINUOUS
 62
     3
 48
16.0
100
AcDbCircle
 10
412.3362031962491
 20
222.4267779560061
 30
0.0
 40
0.4999999999999716
100
AcDbArc
 50
269.9999999999967
 51
359.9999999999967
  0
LINE
  5
42E
330
1A
100
AcDbEntity
  8
SEIHIN
  6
CONTINUOUS
 62
     3
 48
16.0
100
AcDbLine
 10
465.7843031962493
 20
217.1207779560061
 30
0.0
 11
412.5359031962493
 21
217.1207779560061
 31
0.0
  0
ARC
  5
42F
330
1A
100
AcDbEntity
  8
SEIHIN
  6
CONTINUOUS
 62
     3
 48
16.0
100
AcDbCircle
 10
465.7843031962492
 20
215.1207779560062
 30
0.0
 40
1.999999999999914
100
AcDbArc
 50
359.9999999999975
 51
89.99999999999756
  0
LINE
  5
430
330
1A
100
AcDbEntity
  8
SEIHIN
  6
CONTINUOUS
 62
     3
 48
16.0
100
AcDbLine
 10
471.0999031962491
 20
214.7234779560061
 30
0.0
 11
472.6362031962493
 21
214.723477956006
 31
0.0
  0
LINE
  5
431
330
1A
100
AcDbEntity
  8
SEIHIN
  6
CONTINUOUS
 62
     3
 48
16.0
100
AcDbLine
 10
403.6333031962493
 20
232.635477956006
 30
0.0
 11
412.8362031962492
 21
236.9267779560061
 31
0.0
  0
LINE
  5
432
330
1A
100
AcDbEntity
  8
SEIHIN
  6
CONTINUOUS
 62
     3
 48
16.0
100
AcDbLine
 10
411.9998031962493
 20
237.5308779560061
 30
0.0
 11
402.9699031962493
 21
235.1113779560061
 31
0.0
  0
LINE
  5
433
330
1A
100
AcDbEntity
  8
SEIHIN
  6
CONTINUOUS
 62
     3
 48
16.0
100
AcDbLine
 10
403.1770031962492
 20
234.3385779560061
 30
0.0
 11
412.2068031962493
 21
236.758077956006
 31
0.0
  0
LINE
  5
434
330
1A
100
AcDbEntity
  8
SEIHIN
  6
CONTINUOUS
 62
     3
 48
16.0
100
AcDbLine
 10
402.9699031962493
 20
235.1113779560061
 30
0.0
 11
403.6333031962493
 21
232.635477956006
 31
0.0
  0
ARC
  5
436
330
1A
100
AcDbEntity
  8
SEIHIN
  6
CONTINUOUS
 62
     3
 48
16.0
100
AcDbCircle
 10
412.336213302097
 20
236.2751702011359
 30
0.0
 40
1.299989894175263
100
AcDbArc
 50
0.0003417883011339
 51
104.9976256188562
  0
ARC
  5
437
330
1A
100
AcDbEntity
  8
SEIHIN
  6
CONTINUOUS
 62
     3
 48
16.0
100
AcDbCircle
 10
412.3361865168057
 20
236.2751907550915
 30
0.0
 40
0.5000166796073015
100
AcDbArc
 50
359.9985333817786
 51
104.9963795636715
  0
LINE
  5
44D
330
1A
100
AcDbEntity
  8
SEIHIN
  6
CONTINUOUS
 62
     3
 48
16.0
100
AcDbLine
 10
601.6252932700544
 20
186.7234779560061
 30
0.0
 11
601.6252932700544
 21
212.7234779560061
 31
0.0
  0
LINE
  5
44F
330
1A
100
AcDbEntity
  8
CENTER_L
  6
CENTER
 62
     1
 48
5.0
100
AcDbLine
 10
610.6568932700545
 20
189.7234779560061
 30
0.0
 11
602.8154932700545
 21
189.7234779560061
 31
0.0
  0
ARC
  5
450
330
1A
100
AcDbEntity
  8
SEIHIN
  6
CONTINUOUS
 62
     3
 48
16.0
100
AcDbCircle
 10
603.6252932700545
 20
186.7234779560061
 30
0.0
 40
2.0
100
AcDbArc
 50
180.0
 51
270.0
  0
LINE
  5
452
330
1A
100
AcDbEntity
  8
CENTER_L
  6
CENTER
 62
     1
 48
5.0
100
AcDbLine
 10
606.6252932700544
 20
185.6017779560061
 30
0.0
 11
606.6252932700544
 21
194.0037779560061
 31
0.0
  0
ARC
  5
453
330
1A
100
AcDbEntity
  8
SEIHIN
  6
CONTINUOUS
 62
     3
 48
16.0
100
AcDbCircle
 10
606.6252932700542
 20
189.7234779560061
 30
0.0
 40
2.0
100
AcDbArc
 50
180.0
 51
0.0
  0
ARC
  5
456
330
1A
100
AcDbEntity
  8
SEIHIN
  6
CONTINUOUS
 62
     3
 48
16.0
100
AcDbCircle
 10
606.6252932700542
 20
189.7234779560061
 30
0.0
 40
2.0
100
AcDbArc
 50
0.0
 51
180.0
  0
ARC
  5
457
330
1A
100
AcDbEntity
  8
SEIHIN
  6
CONTINUOUS
 62
     3
 48
16.0
100
AcDbCircle
 10
603.6252932700545
 20
212.7234779560061
 30
0.0
 40
2.0
100
AcDbArc
 50
90.0
 51
180.0
  0
LINE
  5
458
330
1A
100
AcDbEntity
  8
CENTER_L
  6
CENTER
 62
     1
 48
5.0
100
AcDbLine
 10
611.4710932700545
 20
209.7234779560061
 30
0.0
 11
603.1231932700543
 21
209.7234779560061
 31
0.0
  0
ARC
  5
45A
330
1A
100
AcDbEntity
  8
SEIHIN
  6
CONTINUOUS
 62
     3
 48
16.0
100
AcDbCircle
 10
606.6252932700542
 20
209.7234779560061
 30
0.0
 40
2.0
100
AcDbArc
 50
0.0
 51
180.0
  0
LINE
  5
45B
330
1A
100
AcDbEntity
  8
CENTER_L
  6
CENTER
 62
     1
 48
5.0
100
AcDbLine
 10
606.6252932700544
 20
203.8533779560061
 30
0.0
 11
606.6252932700544
 21
212.9483779560061
 31
0.0
  0
ARC
  5
45C
330
1A
100
AcDbEntity
  8
SEIHIN
  6
CONTINUOUS
 62
     3
 48
16.0
100
AcDbCircle
 10
606.6252932700542
 20
209.7234779560061
 30
0.0
 40
2.0
100
AcDbArc
 50
180.0
 51
0.0
  0
LINE
  5
45D
330
1A
100
AcDbEntity
  8
SEIHIN
  6
CONTINUOUS
 62
     3
 48
16.0
100
AcDbLine
 10
618.275384698617
 20
214.723477956006
 30
0.0
 11
603.6252932700545
 21
214.7234779560061
 31
0.0
  0
LINE
  5
463
330
1A
100
AcDbEntity
  8
CENTER_L
  6
CENTER
 62
     1
 48
5.0
100
AcDbLine
 10
630.3802932700545
 20
180.0149779560061
 30
0.0
 11
630.3802932700545
 21
224.156877956006
 31
0.0
  0
LINE
  5
465
330
1A
100
AcDbEntity
  8
CENTER_L
  6
CENTER
 62
     1
 48
5.0
100
AcDbLine
 10
649.2894932700544
 20
209.7234779560061
 30
0.0
 11
657.4715932700544
 21
209.7234779560061
 31
0.0
  0
ARC
  5
466
330
1A
100
AcDbEntity
  8
SEIHIN
  6
CONTINUOUS
 62
     3
 48
16.0
100
AcDbCircle
 10
654.1352932700542
 20
209.7234779560061
 30
0.0
 40
2.0
100
AcDbArc
 50
0.0
 51
180.0
  0
ARC
  5
467
330
1A
100
AcDbEntity
  8
SEIHIN
  6
CONTINUOUS
 62
     3
 48
16.0
100
AcDbCircle
 10
654.1352932700542
 20
209.7234779560061
 30
0.0
 40
2.0
100
AcDbArc
 50
180.0
 51
0.0
  0
LINE
  5
468
330
1A
100
AcDbEntity
  8
SEIHIN
  6
CONTINUOUS
 62
     3
 48
16.0
100
AcDbLine
 10
640.8852932700547
 20
214.7234779560061
 30
0.0
 11
657.1352932700542
 21
214.7234779560061
 31
0.0
  0
LINE
  5
469
330
1A
100
AcDbEntity
  8
CENTER_L
  6
CENTER
 62
     1
 48
5.0
100
AcDbLine
 10
650.1037932700544
 20
189.7234779560061
 30
0.0
 11
657.6230932700545
 21
189.7234779560061
 31
0.0
  0
ARC
  5
46A
330
1A
100
AcDbEntity
  8
SEIHIN
  6
CONTINUOUS
 62
     3
 48
16.0
100
AcDbCircle
 10
654.1352932700542
 20
189.7234779560061
 30
0.0
 40
2.0
100
AcDbArc
 50
0.0
 51
180.0
  0
ARC
  5
46B
330
1A
100
AcDbEntity
  8
SEIHIN
  6
CONTINUOUS
 62
     3
 48
16.0
100
AcDbCircle
 10
654.1352932700542
 20
189.7234779560061
 30
0.0
 40
2.0
100
AcDbArc
 50
180.0
 51
0.0
  0
LINE
  5
46C
330
1A
100
AcDbEntity
  8
SEIHIN
  6
CONTINUOUS
 62
     3
 48
16.0
100
AcDbLine
 10
630.3802932700545
 20
184.7234779560061
 30
0.0
 11
657.1352932700542
 21
184.7234779560061
 31
0.0
  0
LINE
  5
46D
330
1A
100
AcDbEntity
  8
SEIHIN
  6
CONTINUOUS
 62
     3
 48
16.0
100
AcDbLine
 10
638.8852932700586
 20
184.7234779560062
 30
0.0
 11
638.8852932700542
 21
220.6113779560061
 31
0.0
  0
LINE
  5
46E
330
1A
100
AcDbEntity
  8
SEIHIN
  6
CONTINUOUS
 62
     3
 48
16.0
100
AcDbLine
 10
620.2752932700482
 20
184.7234779560061
 30
0.0
 11
620.2753958069116
 21
220.6113779560061
 31
0.0
  0
LINE
  5
46F
330
1A
100
AcDbEntity
  8
SEIHIN
  6
CONTINUOUS
 62
     3
 48
16.0
100
AcDbLine
 10
643.3374932700544
 20
189.7234779560061
 30
0.0
 11
638.8852932700542
 21
187.7234779560061
 31
0.0
  0
LINE
  5
470
330
1A
100
AcDbEntity
  8
SEIHIN
  6
CONTINUOUS
 62
     3
 48
16.0
100
AcDbLine
 10
638.8852932700542
 20
191.7234779560061
 30
0.0
 11
643.3374932700544
 21
189.7234779560061
 31
0.0
  0
LINE
  5
473
330
1A
100
AcDbEntity
  8
SEIHIN
  6
CONTINUOUS
 62
     3
 48
16.0
100
AcDbLine
 10
638.8852932700542
 20
211.7234779560061
 30
0.0
 11
643.3374932700544
 21
209.7234779560061
 31
0.0
  0
LINE
  5
474
330
1A
100
AcDbEntity
  8
SEIHIN
  6
CONTINUOUS
 62
     3
 48
16.0
100
AcDbLine
 10
643.3374932700544
 20
209.7234779560061
 30
0.0
 11
638.8852932700542
 21
207.7234779560061
 31
0.0
  0
LINE
  5
476
330
1A
100
AcDbEntity
  8
SEIHIN
  6
CONTINUOUS
 62
     3
 48
16.0
100
AcDbLine
 10
659.1352932700543
 20
186.7234779560061
 30
0.0
 11
659.1352932700543
 21
212.7234779560061
 31
0.0
  0
LINE
  5
477
330
1A
100
AcDbEntity
  8
CENTER_L
  6
CENTER
 62
     1
 48
5.0
100
AcDbLine
 10
654.1352932700542
 20
185.6016779560061
 30
0.0
 11
654.1352932700542
 21
194.0037779560061
 31
0.0
  0
ARC
  5
478
330
1A
100
AcDbEntity
  8
SEIHIN
  6
CONTINUOUS
 62
     3
 48
16.0
100
AcDbCircle
 10
657.1352932700542
 20
186.7234779560061
 30
0.0
 40
2.0
100
AcDbArc
 50
270.0
 51
0.0
  0
LINE
  5
479
330
1A
100
AcDbEntity
  8
CENTER_L
  6
CENTER
 62
     1
 48
5.0
100
AcDbLine
 10
654.1352932700542
 20
203.8533779560061
 30
0.0
 11
654.1352932700542
 21
212.9483779560061
 31
0.0
  0
ARC
  5
47A
330
1A
100
AcDbEntity
  8
SEIHIN
  6
CONTINUOUS
 62
     3
 48
16.0
100
AcDbCircle
 10
657.1352932700542
 20
212.7234779560061
 30
0.0
 40
2.0
100
AcDbArc
 50
0.0
 51
90.0
  0
LINE
  5
481
330
1A
100
AcDbEntity
  8
SEIHIN
  6
CONTINUOUS
 62
     3
 48
16.0
100
AcDbLine
 10
413.6363031962493
 20
365.9267779560061
 30
0.0
 11
413.6363031962493
 21
353.4267779560061
 31
0.0
  0
LINE
  5
482
330
1A
100
AcDbEntity
  8
SEIHIN
  6
CONTINUOUS
 62
     3
 48
16.0
100
AcDbLine
 10
399.9652031962492
 20
355.9267779560061
 30
0.0
 11
399.9652031962492
 21
353.4267779560061
 31
0.0
  0
LINE
  5
483
330
1A
100
AcDbEntity
  8
SEIHIN
  6
CONTINUOUS
 62
     3
 48
16.0
100
AcDbLine
 10
388.9568031962494
 20
355.9267779560061
 30
0.0
 11
388.9568031962494
 21
353.4267779560061
 31
0.0
  0
LINE
  5
484
330
1A
100
AcDbEntity
  8
SEIHIN
  6
CONTINUOUS
 62
     3
 48
16.0
100
AcDbLine
 10
402.6363031962492
 20
353.4266779560061
 30
0.0
 11
402.6363031962492
 21
362.4266779560061
 31
0.0
  0
LINE
  5
485
330
1A
100
AcDbEntity
  8
SEIHIN
  6
CONTINUOUS
 62
     3
 48
16.0
100
AcDbLine
 10
472.6363031962491
 20
362.426677956006
 30
0.0
 11
472.6363031962493
 21
382.1766779560062
 31
0.0
  0
LINE
  5
486
330
1A
100
AcDbEntity
  8
SEIHIN
  6
CONTINUOUS
 62
     3
 48
16.0
100
AcDbLine
 10
413.6363031962493
 20
344.4266779560062
 30
0.0
 11
402.6363031962492
 21
344.4266779560062
 31
0.0
  0
LINE
  5
487
330
1A
100
AcDbEntity
  8
SEIHIN
  6
CONTINUOUS
 62
     3
 48
16.0
100
AcDbLine
 10
399.9652031962492
 20
342.4266779560062
 30
0.0
 11
412.8363031962494
 21
342.4266779560062
 31
0.0
  0
LINE
  5
488
330
1A
100
AcDbEntity
  8
SEIHIN
  6
CONTINUOUS
 62
     3
 48
16.0
100
AcDbLine
 10
399.9652031962492
 20
342.4266779560062
 30
0.0
 11
399.9652031962492
 21
345.9266779560061
 31
0.0
  0
LINE
  5
489
330
1A
100
AcDbEntity
  8
SEIHIN
  6
CONTINUOUS
 62
     3
 48
16.0
100
AcDbLine
 10
388.9568031962494
 20
342.4266779560062
 30
0.0
 11
388.9568031962494
 21
345.9266779560061
 31
0.0
  0
ARC
  5
48A
330
1A
100
AcDbEntity
  8
SEIHIN
  6
CONTINUOUS
 62
     3
 48
16.0
100
AcDbCircle
 10
394.4610031962493
 20
313.0535779556776
 30
0.0
 40
29.88426587117864
100
AcDbArc
 50
79.38644552503624
 51
100.6135544749637
  0
LINE
  5
48B
330
1A
100
AcDbEntity
  8
SEIHIN
  6
CONTINUOUS
 62
     3
 48
16.0
100
AcDbLine
 10
388.9568031962494
 20
350.9266779560062
 30
0.0
 11
388.9568031962494
 21
353.4266779560061
 31
0.0
  0
LINE
  5
48C
330
1A
100
AcDbEntity
  8
SEIHIN
  6
CONTINUOUS
 62
     3
 48
16.0
100
AcDbLine
 10
399.9652031962492
 20
350.9266779560062
 30
0.0
 11
399.9652031962492
 21
353.4266779560061
 31
0.0
  0
LINE
  5
48D
330
1A
100
AcDbEntity
  8
SEIHIN
  6
CONTINUOUS
 62
     3
 48
16.0
100
AcDbLine
 10
402.6363031962492
 20
353.4266779560061
 30
0.0
 11
402.6363031962492
 21
344.4266779560062
 31
0.0
  0
LINE
  5
48F
330
1A
100
AcDbEntity
  8
SEIHIN
  6
CONTINUOUS
 62
     3
 48
16.0
100
AcDbLine
 10
472.6363031962492
 20
344.4266779560062
 30
0.0
 11
472.6363031962493
 21
324.6766779560061
 31
0.0
  0
LINE
  5
490
330
1A
100
AcDbEntity
  8
CENTER_L
  6
CENTER
 62
     1
 48
5.0
100
AcDbLine
 10
479.6363031962492
 20
329.6766779560062
 30
0.0
 11
467.7468031962492
 21
329.6766779560062
 31
0.0
  0
LINE
  5
491
330
1A
100
AcDbEntity
  8
SEIHIN
  6
CONTINUOUS
 62
     3
 48
16.0
100
AcDbLine
 10
472.6363031962492
 20
324.6766779560061
 30
0.0
 11
471.136303196249
 21
324.6766779560061
 31
0.0
  0
LINE
  5
492
330
1A
100
AcDbEntity
  8
SEIHIN
  6
CONTINUOUS
 62
     3
 48
16.0
100
AcDbLine
 10
470.6363031962492
 20
343.4266779560061
 30
0.0
 11
413.6363031962493
 21
343.4266779560062
 31
0.0
  0
LINE
  5
493
330
1A
100
AcDbEntity
  8
SEIHIN
  6
CONTINUOUS
 62
     3
 48
16.0
100
AcDbLine
 10
471.1363031962492
 20
341.6933446226728
 30
0.0
 11
468.5363031962493
 21
343.4266779560061
 31
0.0
  0
LINE
  5
494
330
1A
100
AcDbEntity
  8
SEIHIN
  6
CONTINUOUS
 62
     3
 48
16.0
100
AcDbLine
 10
412.8363031962494
 20
344.4266779560062
 30
0.0
 11
412.8363031962494
 21
340.9266779560061
 31
0.0
  0
LINE
  5
495
330
1A
100
AcDbEntity
  8
SEIHIN
  6
CONTINUOUS
 62
     3
 48
16.0
100
AcDbLine
 10
405.3032031962492
 20
342.4266779560062
 30
0.0
 11
405.3032031962492
 21
344.4266779560062
 31
0.0
  0
LINE
  5
496
330
1A
100
AcDbEntity
  8
SEIHIN
  6
CONTINUOUS
 62
     3
 48
16.0
100
AcDbLine
 10
413.6363031962493
 20
340.9266779560061
 30
0.0
 11
413.6363031962493
 21
353.4266779560061
 31
0.0
  0
LINE
  5
497
330
1A
100
AcDbEntity
  8
SEIHIN
  6
CONTINUOUS
 62
     3
 48
16.0
100
AcDbLine
 10
412.8363031962494
 20
340.9266779560061
 30
0.0
 11
413.6362031962492
 21
340.9266779560061
 31
0.0
  0
LINE
  5
498
330
1A
100
AcDbEntity
  8
SEIHIN
  6
CONTINUOUS
 62
     3
 48
16.0
100
AcDbLine
 10
413.6363031962493
 20
362.4266779560061
 30
0.0
 11
402.6363031962492
 21
362.4266779560061
 31
0.0
  0
LINE
  5
499
330
1A
100
AcDbEntity
  8
SEIHIN
  6
CONTINUOUS
 62
     3
 48
16.0
100
AcDbLine
 10
399.9652031962492
 20
364.4267779560061
 30
0.0
 11
412.8363031962494
 21
364.4267779560061
 31
0.0
  0
ARC
  5
49A
330
1A
100
AcDbEntity
  8
SEIHIN
  6
CONTINUOUS
 62
     3
 48
16.0
100
AcDbCircle
 10
394.4609031962492
 20
393.7997779560061
 30
0.0
 40
29.88426587085578
100
AcDbArc
 50
259.38644552492
 51
280.6135544750799
  0
LINE
  5
49B
330
1A
100
AcDbEntity
  8
SEIHIN
  6
CONTINUOUS
 62
     3
 48
16.0
100
AcDbLine
 10
388.9568031962494
 20
364.4267779560061
 30
0.0
 11
388.9568031962494
 21
360.926777956006
 31
0.0
  0
LINE
  5
49C
330
1A
100
AcDbEntity
  8
SEIHIN
  6
CONTINUOUS
 62
     3
 48
16.0
100
AcDbLine
 10
399.9652031962492
 20
364.4267779560061
 30
0.0
 11
399.9652031962492
 21
360.926777956006
 31
0.0
  0
LINE
  5
49E
330
1A
100
AcDbEntity
  8
CENTER_L
  6
CENTER
 62
     1
 48
5.0
100
AcDbLine
 10
479.6363031962492
 20
377.1766779560061
 30
0.0
 11
467.7468031962492
 21
377.1766779560061
 31
0.0
  0
LINE
  5
49F
330
1A
100
AcDbEntity
  8
SEIHIN
  6
CONTINUOUS
 62
     3
 48
16.0
100
AcDbLine
 10
470.636303196249
 20
363.4266779560062
 30
0.0
 11
413.6363031962493
 21
363.4266779560062
 31
0.0
  0
LINE
  5
4A0
330
1A
100
AcDbEntity
  8
SEIHIN
  6
CONTINUOUS
 62
     3
 48
16.0
100
AcDbLine
 10
471.136303196249
 20
365.1600112893394
 30
0.0
 11
468.5363031962493
 21
363.4266779560062
 31
0.0
  0
LINE
  5
4A1
330
1A
100
AcDbEntity
  8
SEIHIN
  6
CONTINUOUS
 62
     3
 48
16.0
100
AcDbLine
 10
405.3032031962492
 20
364.4267779560061
 30
0.0
 11
405.3032031962492
 21
362.4266779560061
 31
0.0
  0
LINE
  5
4A2
330
1A
100
AcDbEntity
  8
SEIHIN
  6
CONTINUOUS
 62
     3
 48
16.0
100
AcDbLine
 10
412.8363031962494
 20
362.4266779560061
 30
0.0
 11
412.8363031962494
 21
365.9266779560061
 31
0.0
  0
LINE
  5
4A3
330
1A
100
AcDbEntity
  8
SEIHIN
  6
CONTINUOUS
 62
     3
 48
16.0
100
AcDbLine
 10
412.8363031962494
 20
365.9266779560061
 30
0.0
 11
413.6362031962492
 21
365.9266779560061
 31
0.0
  0
LINE
  5
4A4
330
1A
100
AcDbEntity
  8
SEIHIN
  6
CONTINUOUS
 62
     3
 48
16.0
100
AcDbLine
 10
472.6363031962492
 20
382.1766779560062
 30
0.0
 11
471.1363031962492
 21
382.1766779560062
 31
0.0
  0
ARC
  5
4FF
330
1A
100
AcDbEntity
  8
SEIHIN
  6
CONTINUOUS
 62
     3
 48
16.0
100
AcDbCircle
 10
360.1626518542146
 20
172.8267779560061
 30
0.0
 40
5.0
100
AcDbArc
 50
7.635694441725362
 51
90.0
  0
LINE
  5
501
330
1A
100
AcDbEntity
  8
SEIHIN
  6
CONTINUOUS
 62
     3
100
AcDbLine
 10
210.7776854802006
 20
177.8267779560061
 30
0.0
 11
194.7776854802005
 21
177.8267779560061
 31
0.0
  0
LINE
  5
502
330
1A
100
AcDbEntity
  8
SEIHIN
  6
CONTINUOUS
 62
     3
100
AcDbLine
 10
210.1776854802005
 20
179.4267779560061
 30
0.0
 11
195.3776854802006
 21
179.4267779560061
 31
0.0
  0
LINE
  5
503
330
1A
100
AcDbEntity
  8
SEIHIN
  6
CONTINUOUS
 62
     3
 48
16.0
100
AcDbLine
 10
198.7700050679497
 20
175.0238779560061
 30
0.0
 11
206.7854050679499
 21
175.0238779560061
 31
0.0
  0
LINE
  5
504
330
1A
100
AcDbEntity
  8
SEIHIN
  6
CONTINUOUS
 62
     3
 48
16.0
100
AcDbLine
 10
206.7854050679499
 20
175.0238779560061
 30
0.0
 11
206.7854050679499
 21
177.8267779560061
 31
0.0
  0
LINE
  5
505
330
1A
100
AcDbEntity
  8
SEIHIN
  6
CONTINUOUS
 62
     3
 48
16.0
100
AcDbLine
 10
198.7700050679497
 20
177.8267779560061
 30
0.0
 11
198.7700050679497
 21
175.0238779560061
 31
0.0
  0
LINE
  5
506
330
1A
100
AcDbEntity
  8
SEIHIN
  6
CONTINUOUS
 62
     3
 48
16.0
100
AcDbLine
 10
194.3776854802005
 20
182.9268779560061
 30
0.0
 11
194.3776854802006
 21
180.4267779560061
 31
0.0
  0
LINE
  5
507
330
1A
100
AcDbEntity
  8
SEIHIN
  6
CONTINUOUS
 62
     3
 48
16.0
100
AcDbLine
 10
211.1776854802005
 20
182.9268779560061
 30
0.0
 11
211.1776854802005
 21
180.4267779560061
 31
0.0
  0
ARC
  5
508
330
1A
100
AcDbEntity
  8
SEIHIN
  6
CONTINUOUS
 62
     3
 48
16.0
100
AcDbCircle
 10
210.7776854802006
 20
179.8267779560061
 30
0.0
 40
2.0
100
AcDbArc
 50
270.0
 51
0.0
  0
ARC
  5
509
330
1A
100
AcDbEntity
  8
SEIHIN
  6
CONTINUOUS
 62
     3
100
AcDbCircle
 10
194.7776854802005
 20
179.8267779560061
 30
0.0
 40
2.0
100
AcDbArc
 50
180.0
 51
270.0
  0
ARC
  5
50A
330
1A
100
AcDbEntity
  8
SEIHIN
  6
CONTINUOUS
 62
     3
100
AcDbCircle
 10
210.1776854802005
 20
180.4267779560061
 30
0.0
 40
1.0
100
AcDbArc
 50
270.0
 51
0.0
  0
ARC
  5
50B
330
1A
100
AcDbEntity
  8
SEIHIN
  6
CONTINUOUS
 62
     3
 48
16.0
100
AcDbCircle
 10
195.3776854802006
 20
180.4267779560061
 30
0.0
 40
1.0
100
AcDbArc
 50
180.0
 51
270.0
  0
LINE
  5
50C
330
1A
100
AcDbEntity
  8
SEIHIN
  6
CONTINUOUS
 62
     3
 48
16.0
100
AcDbLine
 10
210.7776854802005
 20
194.086877956006
 30
0.0
 11
213.7776854802005
 21
194.0868779560061
 31
0.0
  0
LINE
  5
50D
330
1A
100
AcDbEntity
  8
SEIHIN
  6
CONTINUOUS
 62
     3
 48
16.0
100
AcDbLine
 10
194.7777162455638
 20
194.086950682999
 30
0.0
 11
191.7776854802005
 21
194.086977956006
 31
0.0
  0
ARC
  5
608
330
1A
100
AcDbEntity
  8
SEIHIN
  6
CONTINUOUS
100
AcDbCircle
 10
207.777685480201
 20
195.336877956002
 30
0.0
 40
3.249999999998867
100
AcDbArc
 50
202.6198649479713
 51
337.3801350520229
  0
ARC
  5
609
330
1A
100
AcDbEntity
  8
SEIHIN
  6
CONTINUOUS
100
AcDbCircle
 10
197.7777590510484
 20
195.3368877775012
 30
0.0
 40
3.249999999998867
100
AcDbArc
 50
202.6197524010574
 51
337.3800225051098
  0
LINE
  5
60A
330
1A
100
AcDbEntity
  8
SEIHIN
  6
CONTINUOUS
100
AcDbLine
 10
211.4622043828927
 20
235.1113779560061
 30
0.0
 11
194.0932222195004
 21
235.1113779560062
 31
0.0
  0
DIMENSION
  5
61C
330
1A
100
AcDbEntity
  8
SUNPOU
  6
CONTINUOUS
100
AcDbDimension
  2
*D2
 10
496.5270761870974
 20
324.6766779560061
 30
0.0
 11
471.5270761870974
 21
353.4266779560061
 31
0.0
 12
0.7664664259723395
 22
-5.328128081230715
 32
0.0
 70
    32
  3
STANDARD
100
AcDbAlignedDimension
 13
472.6363031962492
 23
382.1766779560062
 33
0.0
 14
472.6363031962492
 24
324.6766779560061
 34
0.0
 50
90.0
100
AcDbRotatedDimension
1001
ACAD
1000
DSTYLE
1002
{
1070
   140
1040
6.0
1070
    74
1070
     0
1070
   172
1070
     1
1070
    73
1070
     0
1070
   272
1070
     2
1070
    77
1070
     3
1070
   173
1070
     1
1070
   147
1040
2.0
1070
    42
1040
6.0
1070
    44
1040
3.0
1070
    43
1040
14.0
1070
   271
1070
     0
1070
   178
1070
     4
1070
   177
1070
     4
1070
   176
1070
     4
1070
   141
1040
150.0
1070
     7
1000
_OPEN
1070
     6
1000
_OPEN
1070
    41
1040
7.0
1002
}
  0
DIMENSION
  5
62B
330
1A
100
AcDbEntity
  8
SUNPOU
  6
CONTINUOUS
100
AcDbDimension
  2
*D3
 10
272.3547628478359
 20
340.9266779560061
 30
0.0
 11
267.3547628478359
 21
353.4266779560061
 31
0.0
 12
-15.0
 22
10.0
 32
0.0
 70
    32
  3
STANDARD
100
AcDbAlignedDimension
 13
298.0363031962493
 23
365.9266779560061
 33
0.0
 14
298.0363031962493
 24
340.9266779560061
 34
0.0
 50
90.0
100
AcDbRotatedDimension
1001
ACAD
1000
DSTYLE
1002
{
1070
   140
1040
6.0
1070
    74
1070
     0
1070
   172
1070
     1
1070
    73
1070
     0
1070
   272
1070
     2
1070
    77
1070
     3
1070
   173
1070
     1
1070
   147
1040
2.0
1070
    42
1040
6.0
1070
    44
1040
3.0
1070
    43
1040
14.0
1070
   271
1070
     0
1070
   178
1070
     4
1070
   177
1070
     4
1070
   176
1070
     4
1070
   141
1040
150.0
1070
     7
1000
_OPEN
1070
     6
1000
_OPEN
1070
    41
1040
7.0
1002
}
  0
DIMENSION
  5
649
330
1A
100
AcDbEntity
  8
SUNPOU
  6
CONTINUOUS
100
AcDbDimension
  2
*D4
 10
412.8384031962493
 20
261.5926332299664
 30
0.0
 11
442.7373031962493
 21
261.5926332299664
 31
0.0
 12
-15.0
 22
0.0
 32
0.0
 70
   160
  3
STANDARD
100
AcDbAlignedDimension
 13
472.6362031962492
 23
215.612077956006
 33
0.0
 14
412.8384031962493
 24
232.429227956006
 34
0.0
100
AcDbRotatedDimension
1001
ACAD
1000
DSTYLE
1002
{
1070
   140
1040
6.0
1070
    74
1070
     0
1070
   172
1070
     1
1070
    73
1070
     0
1070
   272
1070
     2
1070
    77
1070
     3
1070
   173
1070
     1
1070
   147
1040
2.0
1070
    42
1040
6.0
1070
    44
1040
3.0
1070
    43
1040
14.0
1070
   271
1070
     0
1070
   178
1070
     4
1070
   177
1070
     4
1070
   176
1070
     4
1070
   141
1040
150.0
1070
     7
1000
_OPEN
1070
     6
1000
_OPEN
1070
    41
1040
7.0
1002
}
  0
DIMENSION
  5
656
330
1A
100
AcDbEntity
  8
SUNPOU
  6
CONTINUOUS
100
AcDbDimension
  2
*D5
 10
606.6252932700544
 20
247.5670265526378
 30
0.0
 11
620.3802932700543
 21
252.5670265526378
 31
0.0
 12
48.51055649977752
 22
-45.32812808123071
 32
0.0
 70
    32
  3
STANDARD
100
AcDbAlignedDimension
 13
654.1352932700542
 23
214.7234779560061
 33
0.0
 14
606.6252932700544
 24
214.7234779560061
 34
0.0
100
AcDbRotatedDimension
1001
ACAD
1000
DSTYLE
1002
{
1070
   140
1040
6.0
1070
    74
1070
     0
1070
   172
1070
     1
1070
    73
1070
     0
1070
   272
1070
     2
1070
    77
1070
     3
1070
   173
1070
     1
1070
   147
1040
2.0
1070
    42
1040
6.0
1070
    44
1040
3.0
1070
    43
1040
14.0
1070
   271
1070
     0
1070
   178
1070
     4
1070
   177
1070
     4
1070
   176
1070
     4
1070
   141
1040
150.0
1070
     7
1000
_OPEN
1070
     6
1000
_OPEN
1070
    41
1040
7.0
1002
}
  0
DIMENSION
  5
663
330
1A
100
AcDbEntity
  8
SUNPOU
  6
CONTINUOUS
100
AcDbDimension
  2
*D6
 10
601.6252932700544
 20
262.9374213084813
 30
0.0
 11
620.3802932700543
 21
267.9374213084813
 31
0.0
 12
48.51055649977752
 22
-45.32812808123071
 32
0.0
 70
    32
  3
STANDARD
100
AcDbAlignedDimension
 13
659.1352932700543
 23
214.7234779560061
 33
0.0
 14
601.6252932700544
 24
214.7234779560061
 34
0.0
100
AcDbRotatedDimension
1001
ACAD
1000
DSTYLE
1002
{
1070
   140
1040
6.0
1070
    74
1070
     0
1070
   172
1070
     1
1070
    73
1070
     0
1070
   272
1070
     2
1070
    77
1070
     3
1070
   173
1070
     1
1070
   147
1040
2.0
1070
    42
1040
6.0
1070
    44
1040
3.0
1070
    43
1040
14.0
1070
   271
1070
     0
1070
   178
1070
     4
1070
   177
1070
     4
1070
   176
1070
     4
1070
   141
1040
150.0
1070
     7
1000
_OPEN
1070
     6
1000
_OPEN
1070
    41
1040
7.0
1002
}
  0
LEADER
  5
6AA
330
1A
100
AcDbEntity
  8
SUNPOU
  6
CONTINUOUS
 62
     4
100
AcDbLeader
  3
STANDARD
 73
     0
 40
6.0
 41
30.19999999999999
 76
     3
 10
605.2534854146166
 20
211.1788621691126
 30
0.0
 10
593.8573938709692
 20
233.3610244011281
 30
0.0
 10
591.6526375384005
 20
233.3610244011281
 30
0.0
1001
ACAD
1000
DSTYLE
1002
{
1070
     6
1000
OPEN
1070
    41
1040
7.0
1070
    42
1040
6.0
1070
    43
1040
14.0
1070
    44
1040
3.0
1070
    73
1070
     0
1070
    74
1070
     0
1070
    77
1070
     3
1070
   140
1040
6.0
1070
   141
1040
150.0
1070
   147
1040
2.0
1070
   172
1070
     1
1070
   173
1070
     1
1070
   176
1070
     4
1070
   177
1070
     4
1070
   178
1070
     4
1070
   271
1070
     0
1070
   272
1070
     2
1070
   341
1005
6D
1070
   343
1005
6D
1070
   344
1005
6D
1002
}
  0
MTEXT
  5
6AB
330
1A
100
AcDbEntity
  8
SUNPOU
  6
CONTINUOUS
 62
     4
100
AcDbMText
 10
589.6526375384005
 20
235.3610244011281
 30
0.0
 40
6.0
 41
0.0
 71
     9
 72
     5
  1
4-φ4.0
1001
ACAD
1000
MTEXTBEGIN
1070
    73
1070
     1
1070
    44
1040
1.0
1070
    74
1070
     0
1000
MTEXTEND
1000
MTEXTBEGIN
1070
    73
1070
     1
1070
    44
1040
1.0
1070
    74
1070
     0
1000
MTEXTEND
1000
MTEXTBEGIN
1070
    73
1070
     1
1070
    44
1040
1.0
1070
    74
1070
     0
1000
MTEXTEND
  0
DIMENSION
  5
6FB
330
1A
100
AcDbEntity
  8
SUNPOU
  6
CONTINUOUS
100
AcDbDimension
  2
*D7
 10
509.6187347795858
 20
184.7234779560061
 30
0.0
 11
504.6187347795857
 21
202.7082142712171
 31
0.0
 12
5.0
 22
0.0
 32
0.0
 70
    32
  3
STANDARD
100
AcDbAlignedDimension
 13
472.6362031962492
 23
220.6929505864282
 33
0.0
 14
472.6362031962492
 24
184.7234779560061
 34
0.0
 50
90.0
100
AcDbRotatedDimension
1001
ACAD
1000
DSTYLE
1002
{
1070
   140
1040
6.0
1070
    74
1070
     0
1070
   172
1070
     1
1070
    73
1070
     0
1070
   272
1070
     2
1070
    77
1070
     3
1070
   173
1070
     1
1070
   147
1040
2.0
1070
    42
1040
6.0
1070
    44
1040
3.0
1070
    43
1040
14.0
1070
   271
1070
     0
1070
   178
1070
     4
1070
   177
1070
     4
1070
   176
1070
     4
1070
   141
1040
150.0
1070
     7
1000
_OPEN
1070
     6
1000
_OPEN
1070
    41
1040
7.0
1002
}
  0
DIMENSION
  5
715
330
1A
100
AcDbEntity
  8
SUNPOU
  6
CONTINUOUS
100
AcDbDimension
  2
*D8
 10
298.0362031962492
 20
284.0019028963802
 30
0.0
 11
385.3362031962492
 21
289.0019028963802
 31
0.0
 12
-15.0
 22
0.0
 32
0.0
 70
    32
  3
STANDARD
100
AcDbAlignedDimension
 13
472.6362031962492
 23
215.612077956006
 33
0.0
 14
298.0362031962492
 24
256.426777956006
 34
0.0
100
AcDbRotatedDimension
1001
ACAD
1000
DSTYLE
1002
{
1070
   140
1040
6.0
1070
    74
1070
     0
1070
   172
1070
     1
1070
    73
1070
     0
1070
   272
1070
     2
1070
    77
1070
     3
1070
   173
1070
     1
1070
   147
1040
2.0
1070
    42
1040
6.0
1070
    44
1040
3.0
1070
    43
1040
14.0
1070
   271
1070
     0
1070
   178
1070
     4
1070
   177
1070
     4
1070
   176
1070
     4
1070
   141
1040
150.0
1070
     7
1000
_OPEN
1070
     6
1000
_OPEN
1070
    41
1040
7.0
1002
}
  0
DIMENSION
  5
737
330
1A
100
AcDbEntity
  8
SUNPOU
  6
CONTINUOUS
100
AcDbDimension
  2
*D9
 10
586.308637008387
 20
189.7234779560061
 30
0.0
 11
571.3086370083869
 21
199.7234779560061
 31
0.0
 12
36.91563634260728
 22
-9.037345593234249
 32
0.0
 70
    32
  3
STANDARD
100
AcDbAlignedDimension
 13
601.6252932700544
 23
209.7234779560061
 33
0.0
 14
601.6252932700544
 24
189.7234779560061
 34
0.0
 50
90.0
100
AcDbRotatedDimension
1001
ACAD
1000
DSTYLE
1002
{
1070
   140
1040
6.0
1070
    74
1070
     0
1070
   172
1070
     1
1070
    73
1070
     0
1070
   272
1070
     2
1070
    77
1070
     3
1070
   173
1070
     1
1070
   147
1040
2.0
1070
    42
1040
6.0
1070
    44
1040
3.0
1070
    43
1040
14.0
1070
   271
1070
     0
1070
   178
1070
     4
1070
   177
1070
     4
1070
   176
1070
     4
1070
   141
1040
150.0
1070
     7
1000
_OPEN
1070
     6
1000
_OPEN
1070
    41
1040
7.0
1002
}
  0
DIMENSION
  5
744
330
1A
100
AcDbEntity
  8
SUNPOU
  6
CONTINUOUS
100
AcDbDimension
  2
*D10
 10
567.4097892844319
 20
184.7234779560061
 30
0.0
 11
552.409789284432
 21
199.7234779560061
 31
0.0
 12
36.91563634260728
 22
-9.037345593234249
 32
0.0
 70
    32
  3
STANDARD
100
AcDbAlignedDimension
 13
603.6252932700545
 23
214.7234779560061
 33
0.0
 14
603.6252932700545
 24
184.7234779560061
 34
0.0
 50
90.0
100
AcDbRotatedDimension
1001
ACAD
1000
DSTYLE
1002
{
1070
   140
1040
6.0
1070
    74
1070
     0
1070
   172
1070
     1
1070
    73
1070
     0
1070
   272
1070
     2
1070
    77
1070
     3
1070
   173
1070
     1
1070
   147
1040
2.0
1070
    42
1040
6.0
1070
    44
1040
3.0
1070
    43
1040
14.0
1070
   271
1070
     0
1070
   178
1070
     4
1070
   177
1070
     4
1070
   176
1070
     4
1070
   141
1040
150.0
1070
     7
1000
_OPEN
1070
     6
1000
_OPEN
1070
    41
1040
7.0
1002
}
  0
LINE
  5
804
330
1A
100
AcDbEntity
  8
SEIHIN
100
AcDbLine
 10
469.3843031962492
 20
345.4266779560062
 30
0.0
 11
469.3843031962492
 21
361.426677956006
 31
0.0
  0
LINE
  5
805
330
1A
100
AcDbEntity
  8
SEIHIN
100
AcDbLine
 10
620.7753918337705
 20
218.7207779560062
 30
0.0
 11
638.3852932700543
 21
218.7207779560061
 31
0.0
  0
LINE
  5
806
330
1A
100
AcDbEntity
  8
SEIHIN
  6
CONTINUOUS
 62
     3
 48
16.0
100
AcDbLine
 10
640.3852932700541
 20
216.723477956006
 30
0.0
 11
640.3852932700543
 21
220.6113779560061
 31
0.0
  0
LINE
  5
807
330
1A
100
AcDbEntity
  8
SEIHIN
  6
CONTINUOUS
 62
     3
 48
16.0
100
AcDbLine
 10
618.7753846818864
 20
216.7176214161222
 30
0.0
 11
618.7753958069052
 21
220.6113779560061
 31
0.0
  0
LINE
  5
808
330
1A
100
AcDbEntity
  8
SEIHIN
100
AcDbLine
 10
618.7753958069052
 20
220.6113779560061
 30
0.0
 11
620.2753958069116
 21
220.6113779560061
 31
0.0
  0
LINE
  5
80B
330
1A
100
AcDbEntity
  8
SEIHIN
100
AcDbLine
 10
638.8852932700544
 20
220.6113779560062
 30
0.0
 11
640.3852932700543
 21
220.6113779560061
 31
0.0
  0
ARC
  5
80C
330
1A
100
AcDbEntity
  8
SEIHIN
  6
CONTINUOUS
 62
     3
 48
16.0
100
AcDbCircle
 10
642.3852932700542
 20
216.723477956006
 30
0.0
 40
2.0
100
AcDbArc
 50
180.0
 51
270.0
  0
ARC
  5
80D
330
1A
100
AcDbEntity
  8
SEIHIN
  6
CONTINUOUS
 62
     3
 48
16.0
100
AcDbCircle
 10
616.7753932700613
 20
216.7234825274346
 30
0.0
 40
1.999999999999943
100
AcDbArc
 50
270.0000000000016
 51
0.0000000000016284
  0
LINE
  5
80E
330
1A
100
AcDbEntity
  8
SEIHIN
  6
CONTINUOUS
 62
     3
 48
16.0
100
AcDbLine
 10
472.1363031962491
 20
361.926677956006
 30
0.0
 11
413.6363031962493
 21
361.926677956006
 31
0.0
  0
LINE
  5
80F
330
1A
100
AcDbEntity
  8
SEIHIN
  6
CONTINUOUS
 62
     3
 48
16.0
100
AcDbLine
 10
472.1363031962492
 20
344.9266779560062
 30
0.0
 11
413.6363031962494
 21
344.9266779560062
 31
0.0
  0
LINE
  5
810
330
1A
100
AcDbEntity
  8
SEIHIN
  6
CONTINUOUS
 62
     3
 48
16.0
100
AcDbLine
 10
471.136303196249
 20
363.9266779560061
 30
0.0
 11
471.1363031962491
 21
382.1766779560062
 31
0.0
  0
LINE
  5
811
330
1A
100
AcDbEntity
  8
SEIHIN
  6
CONTINUOUS
 62
     3
 48
16.0
100
AcDbLine
 10
471.1363031962492
 20
342.9266779560061
 30
0.0
 11
471.1363031962491
 21
324.6766779560061
 31
0.0
  0
ARC
  5
812
330
1A
100
AcDbEntity
  8
SEIHIN
  6
CONTINUOUS
 62
     3
 48
16.0
100
AcDbCircle
 10
472.1363031962491
 20
362.426677956006
 30
0.0
 40
0.5
100
AcDbArc
 50
270.0
 51
0.0
  0
ARC
  5
813
330
1A
100
AcDbEntity
  8
SEIHIN
  6
CONTINUOUS
 62
     3
 48
16.0
100
AcDbCircle
 10
472.1363031962492
 20
344.4266779560062
 30
0.0
 40
0.5
100
AcDbArc
 50
0.0
 51
90.0
  0
ARC
  5
815
330
1A
100
AcDbEntity
  8
SEIHIN
100
AcDbCircle
 10
469.8843031962491
 20
345.4266779560062
 30
0.0
 40
0.5
100
AcDbArc
 50
180.0
 51
270.0000000000065
  0
ARC
  5
816
330
1A
100
AcDbEntity
  8
SEIHIN
100
AcDbCircle
 10
469.8843031962491
 20
361.426677956006
 30
0.0
 40
0.5
100
AcDbArc
 50
89.99999999999349
 51
179.9999999999934
  0
ARC
  5
817
330
1A
100
AcDbEntity
  8
SEIHIN
  6
CONTINUOUS
 62
     3
 48
16.0
100
AcDbCircle
 10
470.636303196249
 20
363.9266779560061
 30
0.0
 40
0.5
100
AcDbArc
 50
270.0
 51
0.0
  0
ARC
  5
818
330
1A
100
AcDbEntity
  8
SEIHIN
  6
CONTINUOUS
 62
     3
 48
16.0
100
AcDbCircle
 10
470.6363031962492
 20
342.9266779560061
 30
0.0
 40
0.5
100
AcDbArc
 50
0.0
 51
90.0
  0
LINE
  5
824
330
1A
100
AcDbEntity
  8
SEIHIN
  6
CONTINUOUS
 62
     3
 48
16.0
100
AcDbLine
 10
298.8363031962494
 20
361.9266779560061
 30
0.0
 11
298.0363031962493
 21
361.9266779560061
 31
0.0
  0
LINE
  5
825
330
1A
100
AcDbEntity
  8
SEIHIN
  6
CONTINUOUS
 62
     3
 48
16.0
100
AcDbLine
 10
298.8363031962494
 20
344.9267779560061
 30
0.0
 11
298.0363031962493
 21
344.9267779560061
 31
0.0
  0
DIMENSION
  5
865
330
1A
100
AcDbEntity
  8
SUNPOU
100
AcDbDimension
  2
*D11
 10
524.6616764454811
 20
184.7234779560061
 30
0.0
 11
519.6616764454811
 21
209.0738529560061
 31
0.0
 12
5.0
 22
0.0
 32
0.0
 70
    32
  3
STANDARD
100
AcDbAlignedDimension
 13
411.8434031962492
 23
233.4242279560061
 33
0.0
 14
472.6362031962492
 24
184.7234779560061
 34
0.0
 50
90.0
100
AcDbRotatedDimension
1001
ACAD
1000
DSTYLE
1002
{
1070
   140
1040
6.0
1070
    74
1070
     0
1070
   172
1070
     1
1070
    73
1070
     0
1070
   272
1070
     2
1070
    77
1070
     3
1070
   173
1070
     1
1070
   147
1040
2.0
1070
    42
1040
6.0
1070
    44
1040
3.0
1070
    43
1040
14.0
1070
   271
1070
     0
1070
   178
1070
     4
1070
   177
1070
     4
1070
   176
1070
     4
1070
   141
1040
150.0
1070
     7
1000
_OPEN
1070
     6
1000
_OPEN
1070
    41
1040
7.0
1002
}
  0
ARC
  5
87A
330
1A
100
AcDbEntity
  8
SEIHIN
  6
CONTINUOUS
 62
     3
 48
16.0
100
AcDbCircle
 10
305.6694031962493
 20
358.4266779560061
 30
0.0
 40
2.5
100
AcDbArc
 50
90.0
 51
270.0
  0
ARC
  5
87B
330
1A
100
AcDbEntity
  8
SEIHIN
  6
CONTINUOUS
 62
     3
 48
16.0
100
AcDbCircle
 10
305.6694031962493
 20
348.426777956006
 30
0.0
 40
2.500000000000085
100
AcDbArc
 50
90.0
 51
270.0
  0
ARC
  5
87D
330
1A
100
AcDbEntity
  8
SEIHIN
  6
CONTINUOUS
100
AcDbCircle
 10
325.3408031962492
 20
358.4266779560061
 30
0.0
 40
3.625000000000041
100
AcDbArc
 50
136.3971810272969
 51
223.602818972703
  0
ARC
  5
87E
330
1A
100
AcDbEntity
  8
SEIHIN
  6
CONTINUOUS
100
AcDbCircle
 10
312.6181174819635
 20
358.4266779560061
 30
0.0
 40
2.660714285714282
100
AcDbArc
 50
110.0159596028825
 51
249.9840403971174
  0
ARC
  5
87F
330
1A
100
AcDbEntity
  8
SEIHIN
  6
CONTINUOUS
100
AcDbCircle
 10
312.6181174819635
 20
348.4266779560062
 30
0.0
 40
2.660714285714282
100
AcDbArc
 50
110.0159596028825
 51
249.9840403971174
  0
ARC
  5
880
330
1A
100
AcDbEntity
  8
SEIHIN
  6
CONTINUOUS
100
AcDbCircle
 10
325.3408031962492
 20
348.4266779560062
 30
0.0
 40
3.625000000000041
100
AcDbArc
 50
136.3971810272969
 51
223.602818972703
  0
ARC
  5
881
330
1A
100
AcDbEntity
  8
SEIHIN
  6
CONTINUOUS
100
AcDbCircle
 10
386.3318031962494
 20
358.4266779560061
 30
0.0
 40
3.625000000000041
100
AcDbArc
 50
316.397181027297
 51
43.60281897270302
  0
ARC
  5
882
330
1A
100
AcDbEntity
  8
SEIHIN
  6
CONTINUOUS
100
AcDbCircle
 10
386.3318031962494
 20
348.4266779560062
 30
0.0
 40
3.625000000000041
100
AcDbArc
 50
316.397181027297
 51
43.60281897270302
  0
ARC
  5
883
330
1A
100
AcDbEntity
  8
SEIHIN
  6
CONTINUOUS
100
AcDbCircle
 10
399.0544889105352
 20
358.4266779560061
 30
0.0
 40
2.660714285714282
100
AcDbArc
 50
290.0159596028825
 51
69.98404039711745
  0
ARC
  5
884
330
1A
100
AcDbEntity
  8
SEIHIN
  6
CONTINUOUS
100
AcDbCircle
 10
399.0544889105352
 20
348.4266779560062
 30
0.0
 40
2.660714285714282
100
AcDbArc
 50
290.0159596028825
 51
69.98404039711745
  0
DIMENSION
  5
895
330
1A
100
AcDbEntity
  8
SUNPOU
  6
CONTINUOUS
100
AcDbDimension
  2
*D12
 10
272.3522617130902
 20
183.4267779560061
 30
0.0
 11
267.3522617130902
 21
219.926777956006
 31
0.0
 12
-15.0
 22
0.0
 32
0.0
 70
    32
  3
STANDARD
100
AcDbAlignedDimension
 13
298.0362031962492
 23
256.426777956006
 33
0.0
 14
322.7157031962492
 24
183.4267779560061
 34
0.0
 50
90.0
100
AcDbRotatedDimension
1001
ACAD
1000
DSTYLE
1002
{
1070
   140
1040
6.0
1070
    74
1070
     0
1070
   172
1070
     1
1070
    73
1070
     0
1070
   272
1070
     2
1070
    77
1070
     3
1070
   173
1070
     1
1070
   147
1040
2.0
1070
    42
1040
6.0
1070
    44
1040
3.0
1070
    43
1040
14.0
1070
   271
1070
     0
1070
   178
1070
     4
1070
   177
1070
     4
1070
   176
1070
     4
1070
   141
1040
150.0
1070
     7
1000
_OPEN
1070
     6
1000
_OPEN
1070
    41
1040
7.0
1002
}
  0
DIMENSION
  5
8D0
330
1A
100
AcDbEntity
  8
SUNPOU
  6
CONTINUOUS
100
AcDbDimension
  2
*D13
 10
493.8328650082626
 20
184.7234779560061
 30
0.0
 11
488.8328650082626
 21
199.7234779560061
 31
0.0
 12
5.0
 22
0.0
 32
0.0
 70
    32
  3
STANDARD
100
AcDbAlignedDimension
 13
472.6362031962492
 23
214.7234779560061
 33
0.0
 14
472.6362031962492
 24
184.7234779560061
 34
0.0
 50
90.0
100
AcDbRotatedDimension
1001
ACAD
1000
DSTYLE
1002
{
1070
   140
1040
6.0
1070
    74
1070
     0
1070
   172
1070
     1
1070
    73
1070
     0
1070
   272
1070
     2
1070
    77
1070
     3
1070
   173
1070
     1
1070
   147
1040
2.0
1070
    42
1040
6.0
1070
    44
1040
3.0
1070
    43
1040
14.0
1070
   271
1070
     0
1070
   178
1070
     4
1070
   177
1070
     4
1070
   176
1070
     4
1070
   141
1040
150.0
1070
     7
1000
_OPEN
1070
     6
1000
_OPEN
1070
    41
1040
7.0
1002
}
  0
DIMENSION
  5
97A
330
1A
100
AcDbEntity
  8
SUNPOU
  6
CONTINUOUS
100
AcDbDimension
  2
*D14
 10
472.6362031962492
 20
160.3478329632284
 30
0.0
 11
496.6362031962492
 21
165.3478329632284
 31
0.0
 70
    32
  1
t<>
  3
STANDARD
100
AcDbAlignedDimension
 13
471.0999031962491
 23
184.7234779560061
 33
0.0
 14
472.6362031962492
 24
184.7234779560061
 34
0.0
100
AcDbRotatedDimension
1001
ACAD
1000
DSTYLE
1002
{
1070
   140
1040
6.0
1070
    74
1070
     0
1070
   172
1070
     1
1070
    73
1070
     0
1070
   272
1070
     2
1070
    77
1070
     3
1070
   173
1070
     1
1070
   147
1040
2.0
1070
    42
1040
6.0
1070
    44
1040
3.0
1070
    43
1040
14.0
1070
   271
1070
     1
1070
   178
1070
     4
1070
   177
1070
     4
1070
   176
1070
     4
1070
   141
1040
150.0
1070
     7
1000
_OPEN
1070
     6
1000
_OPEN
1070
    41
1040
7.0
1002
}
  0
ARC
  5
9AF
330
1A
100
AcDbEntity
  8
SEIHIN
  6
CONTINUOUS
100
AcDbCircle
 10
620.7753918337705
 20
219.2207779560062
 30
0.0
 40
0.5
100
AcDbArc
 50
179.9998362977645
 51
270.0
  0
ARC
  5
9B0
330
1A
100
AcDbEntity
  8
SEIHIN
  6
CONTINUOUS
100
AcDbCircle
 10
638.3852932700543
 20
219.2207779560061
 30
0.0
 40
0.5
100
AcDbArc
 50
269.9999999999998
 51
0.0
  0
ARC
  5
9B2
330
1A
100
AcDbEntity
  8
SEIHIN
  6
CONTINUOUS
 62
     3
 48
16.0
100
AcDbCircle
 10
618.275384698617
 20
216.723477956006
 30
0.0
 40
2.0
100
AcDbArc
 50
270.0
 51
359.9998362977646
  0
ARC
  5
9B3
330
1A
100
AcDbEntity
  8
SEIHIN
  6
CONTINUOUS
 62
     3
 48
16.0
100
AcDbCircle
 10
640.8852932700547
 20
216.7234779560061
 30
0.0
 40
2.0
100
AcDbArc
 50
180.0000000000046
 51
270.0
  0
LWPOLYLINE
  5
AE9
330
1A
100
AcDbEntity
  8
ZUWAKU
100
AcDbPolyline
 90
        4
 70
     1
 43
0.0
 10
0.1999996402756778
 20
551.3999994260826
 10
0.1999996402756778
 20
0.199999426082627
 10
797.3999996402755
 20
0.1999994260826501
 10
797.3999996402758
 20
551.3999994260826
  0
LWPOLYLINE
  5
AEA
330
1A
100
AcDbEntity
  8
ZUWAKU
100
AcDbPolyline
 90
        4
 70
     1
 43
0.0
 10
0.5999996402756551
 20
550.9999994260827
 10
0.5999996402756551
 20
0.5999994260826043
 10
796.9999996402759
 20
0.5999994260826505
 10
796.9999996402757
 20
550.9999994260827
  0
LWPOLYLINE
  5
AEB
330
1A
100
AcDbEntity
  8
ZUWAKU
100
AcDbPolyline
 90
        4
 70
     1
 43
0.0
 10
-0.0000003597242539
 20
551.5999994260826
 10
-0.0000003597242539
 20
-0.0000005739174185
 10
797.5999996402759
 20
-0.000000573917351
 10
797.5999996402759
 20
551.5999994260827
  0
LWPOLYLINE
  5
AEC
330
1A
100
AcDbEntity
  8
ZUWAKU
100
AcDbPolyline
 90
        4
 70
     1
 43
0.0
 10
0.3999996402757233
 20
551.1999994260825
 10
0.3999996402757233
 20
0.3999994260826725
 10
797.1999996402757
 20
0.3999994260826494
 10
797.1999996402757
 20
551.1999994260825
  0
LWPOLYLINE
  5
AED
330
1A
100
AcDbEntity
  8
ZUWAKU
100
AcDbPolyline
 90
        4
 70
     1
 43
0.0
 10
0.7999996402757006
 20
550.7999994260826
 10
0.7999996402757006
 20
0.7999994260826498
 10
796.7999996402757
 20
0.7999994260826498
 10
796.7999996402757
 20
550.7999994260826
  0
LINE
  5
AEE
330
1A
100
AcDbEntity
  8
ZUWAKU
100
AcDbLine
 10
208.6466009303437
 20
15.19999942608261
 30
0.0
 11
447.4243636112671
 21
15.19999942608261
 31
0.0
  0
LINE
  5
AEF
330
1A
100
AcDbEntity
  8
ZUWAKU
100
AcDbLine
 10
208.6466009303437
 20
15.59999942608261
 30
0.0
 11
447.4243636112671
 21
15.59999942608262
 31
0.0
  0
LINE
  5
AF0
330
1A
100
AcDbEntity
  8
ZUWAKU
100
AcDbLine
 10
208.6466009303437
 20
15.39999942608261
 30
0.0
 11
447.4243636112671
 21
15.39999942608261
 31
0.0
  0
LINE
  5
AF1
330
1A
100
AcDbEntity
  8
ZUWAKU
100
AcDbLine
 10
-0.0000003597242539
 20
30.79999942608259
 30
0.0
 11
797.3999996402755
 21
30.79999942608259
 31
0.0
  0
LINE
  5
AF2
330
1A
100
AcDbEntity
  8
ZUWAKU
100
AcDbLine
 10
-0.0000003597242539
 20
30.59999942608259
 30
0.0
 11
797.3999996402755
 21
30.59999942608259
 31
0.0
  0
LINE
  5
AF3
330
1A
100
AcDbEntity
  8
ZUWAKU
100
AcDbLine
 10
-0.0000003597242539
 20
30.39999942608258
 30
0.0
 11
797.3999996402755
 21
30.39999942608258
 31
0.0
  0
LINE
  5
AF4
330
1A
100
AcDbEntity
  8
ZUWAKU
100
AcDbLine
 10
-0.0000003597242539
 20
30.19999942608258
 30
0.0
 11
797.3999996402755
 21
30.19999942608258
 31
0.0
  0
LINE
  5
AF5
330
1A
100
AcDbEntity
  8
ZUWAKU
100
AcDbLine
 10
-0.0000003597242539
 20
29.99999942608258
 30
0.0
 11
797.3999996402755
 21
29.99999942608258
 31
0.0
  0
TEXT
  5
AF6
330
1A
100
AcDbEntity
  8
MOJI
100
AcDbText
 10
92.95778922844489
 20
12.74117755635734
 30
0.0
 40
6.0
  1
ライナートップＸ７０Ｕ
 41
0.9
  7
ｽﾀｲﾙ1
100
AcDbText
  0
HATCH
  5
AF7
330
1A
100
AcDbEntity
  8
ZUWAKU
100
AcDbHatch
 10
0.0
 20
0.0
 30
0.0
210
0.0
220
0.0
230
1.0
  2
ANSI37
 70
     0
 71
     0
 91
        8
 92
        7
 72
     1
 73
     1
 93
       24
 10
14.5022623013956
 20
17.64484790706616
 42
-0.1989123673796348
 10
14.09221179505687
 20
18.63479740072721
 42
0.0
 10
14.09221179505687
 20
19.92499942608259
 42
-0.4142135623730912
 10
14.61721179505684
 20
20.44999942608258
 42
0.0
 10
17.59221179505675
 20
20.44999942608258
 42
0.4142135623731546
 10
18.11721179505684
 20
20.97499942608257
 42
0.0
 10
18.11721179505684
 20
22.72499942608259
 42
0.4142135623731586
 10
17.59221179505675
 20
23.24999942608259
 42
0.0
 10
14.09221179505687
 20
23.24999942608259
 42
0.4142135623730928
 10
11.29221179505691
 20
20.44999942608261
 42
0.0
 10
11.29221179505691
 20
18.63479740072734
 42
0.1989123673796619
 10
12.52236331407334
 20
15.66494891974373
 42
0.0
 10
15.43216128871802
 20
12.75515094509907
 42
-0.1989123673796613
 10
15.84221179505687
 20
11.76520145143789
 42
0.0
 10
15.84221179505687
 20
10.47499942608257
 42
-0.4142135623730911
 10
15.31721179505689
 20
9.949999426082584
 42
0.0
 10
12.34221179505698
 20
9.949999426082584
 42
0.4142135623731526
 10
11.81721179505689
 20
9.424999426082596
 42
0.0
 10
11.81721179505689
 20
7.674999426082575
 42
0.4142135623731526
 10
12.34221179505698
 20
7.149999426082587
 42
0.0
 10
15.84221179505687
 20
7.149999426082587
 42
0.4142135623731044
 10
18.64221179505693
 20
9.949999426082563
 42
0.0
 10
18.64221179505693
 20
11.76520145143783
 42
0.1989123673796604
 10
17.41206027604039
 20
14.73504993242137
 42
0.0
 97
        0
 92
        7
 72
     1
 73
     1
 93
       16
 10
23.54221179505691
 20
19.04999942608259
 42
-0.4142135623730935
 10
24.94221179505689
 20
20.44999942608258
 42
0.0
 10
26.86721179505684
 20
20.44999942608258
 42
0.4142135623731546
 10
27.39221179505693
 20
20.97499942608257
 42
0.0
 10
27.39221179505693
 20
22.72499942608259
 42
0.4142135623730951
 10
26.86721179505695
 20
23.24999942608259
 42
0.0
 10
24.94221179505677
 20
23.24999942608254
 42
0.4142135623730892
 10
20.74221179505684
 20
19.04999942608252
 42
0.0
 10
20.74221179505684
 20
11.34999942608261
 42
0.4142135623730969
 10
24.94221179505689
 20
7.149999426082587
 42
0.0
 10
26.86721179505684
 20
7.149999426082587
 42
0.4142135623731526
 10
27.39221179505693
 20
7.674999426082575
 42
0.0
 10
27.39221179505693
 20
9.424999426082596
 42
0.4142135623730891
 10
26.86721179505695
 20
9.949999426082584
 42
0.0
 10
24.94221179505689
 20
9.949999426082584
 42
-0.4142135623730928
 10
23.54221179505691
 20
11.34999942608257
 42
0.0
 97
        0
 92
        7
 72
     1
 73
     1
 93
        2
 10
24.24221179505684
 20
15.19999942608258
 42
1.0
 10
27.74221179505684
 20
15.19999942608258
 42
1.0
 97
        0
 92
        7
 72
     1
 73
     1
 93
       26
 10
37.31485827723486
 20
19.20504661964601
 42
0.0
 10
38.37649791037268
 20
22.5669054579156
 42
0.5069206636600134
 10
37.87586701117731
 20
23.24999942608259
 42
0.0
 10
36.17697763156809
 20
23.24999942608259
 42
0.3272098845218764
 10
35.67634673237273
 20
22.88309339424955
 42
0.0
 10
33.80807685774096
 20
16.96690545791566
 42
-0.3272098845219541
 10
33.30744595854548
 20
16.59999942608258
 42
0.0
 10
33.16721179505702
 20
16.59999942608258
 42
-0.4142135623731526
 10
32.64221179505693
 20
17.12499942608257
 42
0.0
 10
32.64221179505693
 20
22.72499942608259
 42
0.4142135623730951
 10
32.11721179505696
 20
23.24999942608259
 42
0.0
 10
30.36721179505684
 20
23.24999942608259
 42
0.4142135623730871
 10
29.84221179505686
 20
22.7249994260826
 42
0.0
 10
29.84221179505686
 20
7.674999426082575
 42
0.4142135623730891
 10
30.36721179505684
 20
7.149999426082587
 42
0.0
 10
32.11721179505684
 20
7.149999426082587
 42
0.4142135623731526
 10
32.64221179505693
 20
7.674999426082575
 42
0.0
 10
32.64221179505693
 20
13.27499942608259
 42
-0.4142135623731526
 10
33.16721179505702
 20
13.79999942608258
 42
0.0
 10
33.3074459585456
 20
13.79999942608258
 42
-0.3272098845218915
 10
33.80807685774096
 20
13.43309339424951
 42
0.0
 10
35.67634673237273
 20
7.516905457915658
 42
0.3272098845218902
 10
36.17697763156809
 20
7.149999426082587
 42
0.0
 10
37.87586701117731
 20
7.149999426082587
 42
0.5069206636600335
 10
38.37649791037268
 20
7.833093394249594
 42
0.0
 10
36.05010653189902
 20
15.19999942608272
 42
0.0
 97
        0
 92
        7
 72
     1
 73
     1
 93
        8
 10
43.49221179505684
 20
22.72499942608259
 42
0.4142135623731546
 10
42.96721179505675
 20
23.24999942608259
 42
0.0
 10
41.21721179505698
 20
23.24999942608259
 42
0.4142135623731507
 10
40.69221179505689
 20
22.7249994260826
 42
0.0
 10
40.69221179505689
 20
7.674999426082575
 42
0.4142135623731526
 10
41.21721179505698
 20
7.149999426082587
 42
0.0
 10
42.96721179505675
 20
7.149999426082587
 42
0.4142135623731526
 10
43.49221179505684
 20
7.674999426082575
 42
0.0
 97
        0
 92
        7
 72
     1
 73
     1
 93
       24
 10
48.39221179505694
 20
19.92499942608259
 42
-0.4142135623731546
 10
48.91721179505703
 20
20.44999942608258
 42
0.0
 10
51.89221179505693
 20
20.44999942608258
 42
0.4142135623730911
 10
52.41721179505692
 20
20.97499942608257
 42
0.0
 10
52.41721179505692
 20
22.72499942608259
 42
0.4142135623730952
 10
51.89221179505693
 20
23.24999942608259
 42
0.0
 10
48.39221179505694
 20
23.24999942608259
 42
0.4142135623731048
 10
45.59221179505686
 20
20.44999942608261
 42
0.0
 10
45.59221179505686
 20
18.63479740072734
 42
0.1989123673796613
 10
46.82236331407341
 20
15.66494891974379
 42
0.0
 10
49.73216128871809
 20
12.75515094509912
 42
-0.1989123673796402
 10
50.14221179505693
 20
11.76520145143805
 42
0.0
 10
50.14221179505693
 20
10.47499942608257
 42
-0.4142135623730911
 10
49.61721179505696
 20
9.949999426082584
 42
0.0
 10
46.64221179505694
 20
9.949999426082584
 42
0.4142135623731526
 10
46.11721179505685
 20
9.424999426082596
 42
0.0
 10
46.11721179505685
 20
7.674999426082575
 42
0.4142135623730891
 10
46.64221179505682
 20
7.149999426082587
 42
0.0
 10
50.14221179505693
 20
7.149999426082587
 42
0.4142135623730925
 10
52.94221179505689
 20
9.949999426082563
 42
0.0
 10
52.94221179505689
 20
11.76520145143783
 42
0.1989123673796675
 10
51.71206027604035
 20
14.73504993242149
 42
0.0
 10
48.80226230139578
 20
17.644847907066
 42
-0.1989123673796652
 10
48.39221179505694
 20
18.63479740072717
 42
0.0
 97
        0
 92
        7
 72
     1
 73
     1
 93
       16
 10
57.84221179505687
 20
22.72499942608257
 42
0.414213562373103
 10
57.31721179505689
 20
23.24999942608259
 42
0.0
 10
55.56721179505689
 20
23.24999942608259
 42
0.4142135623730871
 10
55.04221179505691
 20
22.7249994260826
 42
0.0
 10
55.04221179505691
 20
9.949999426082563
 42
0.4142135623730926
 10
57.84221179505687
 20
7.149999426082587
 42
0.0
 10
61.34221179505686
 20
7.149999426082587
 42
0.4142135623731044
 10
64.14221179505694
 20
9.949999426082563
 42
0.0
 10
64.14221179505694
 20
22.72499942608259
 42
0.4142135623730951
 10
63.61721179505696
 20
23.24999942608259
 42
0.0
 10
61.86721179505685
 20
23.24999942608259
 42
0.4142135623730871
 10
61.34221179505686
 20
22.7249994260826
 42
0.0
 10
61.34221179505686
 20
10.99999942608256
 42
-0.414213562373088
 10
60.29221179505691
 20
9.949999426082584
 42
0.0
 10
58.89221179505693
 20
9.949999426082584
 42
-0.4142135623731197
 10
57.84221179505687
 20
10.99999942608256
 42
0.0
 97
        0
 92
        7
 72
     1
 73
     1
 93
        8
 10
69.04221179505691
 20
22.7249994260826
 42
0.4142135623730871
 10
68.51721179505694
 20
23.24999942608259
 42
0.0
 10
66.76721179505694
 20
23.24999942608259
 42
0.4142135623731507
 10
66.24221179505685
 20
22.7249994260826
 42
0.0
 10
66.24221179505685
 20
7.674999426082575
 42
0.4142135623730891
 10
66.76721179505682
 20
7.149999426082587
 42
0.0
 10
68.51721179505694
 20
7.149999426082587
 42
0.4142135623730891
 10
69.04221179505691
 20
7.674999426082575
 42
0.0
 97
        0
 75
     0
 76
     1
 52
0.0
 41
0.2
 77
     0
 78
     2
 53
45.0
 43
-900.9423046944032
 44
-13.20000057391735
 45
-0.4490128060534576
 46
0.4490128060534577
 79
     0
 53
135.0
 43
-900.9423046944032
 44
-13.20000057391735
 45
-0.4490128060534577
 46
-0.4490128060534576
 79
     0
 47
0.057451373970553
 98
        8
 10
16.07985460329905
 20
15.16717307196813
 10
22.40451464671491
 20
18.84406160853359
 10
25.1643675259354
 20
15.5118810721533
 10
30.91405962191288
 20
16.20129707252408
 10
41.83847165923248
 20
16.6609093400657
 10
46.89820053540529
 20
19.41857574248979
 10
56.5576856126761
 20
18.72915734117759
 10
67.82707925989848
 20
19.18876960871921
  0
LINE
  5
AF8
330
1A
100
AcDbEntity
  8
ZUWAKU
100
AcDbLine
 10
24.94221179505689
 20
23.24999942608254
 30
0.0
 11
26.86721179505684
 21
23.24999942608259
 31
0.0
  0
LINE
  5
AF9
330
1A
100
AcDbEntity
  8
ZUWAKU
100
AcDbLine
 10
26.86721179505684
 20
20.44999942608258
 30
0.0
 11
24.94221179505689
 21
20.44999942608258
 31
0.0
  0
LINE
  5
AFA
330
1A
100
AcDbEntity
  8
ZUWAKU
100
AcDbLine
 10
24.94221179505689
 20
9.949999426082584
 30
0.0
 11
26.86721179505684
 21
9.949999426082584
 31
0.0
  0
LINE
  5
AFB
330
1A
100
AcDbEntity
  8
ZUWAKU
100
AcDbLine
 10
26.86721179505684
 20
7.149999426082587
 30
0.0
 11
24.94221179505689
 21
7.149999426082587
 31
0.0
  0
CIRCLE
  5
AFC
330
1A
100
AcDbEntity
  8
ZUWAKU
100
AcDbCircle
 10
25.99221179505684
 20
15.19999942608258
 30
0.0
 40
1.75
  0
ARC
  5
AFD
330
1A
100
AcDbEntity
  8
ZUWAKU
100
AcDbCircle
 10
15.49221179505684
 20
18.63479740072728
 30
0.0
 40
1.399999999999999
100
AcDbArc
 50
180.0000000000016
 51
224.9999999999988
  0
LINE
  5
AFE
330
1A
100
AcDbEntity
  8
ZUWAKU
100
AcDbLine
 10
23.54221179505691
 20
19.04999942608258
 30
0.0
 11
23.54221179505691
 21
11.34999942608259
 31
0.0
  0
LINE
  5
AFF
330
1A
100
AcDbEntity
  8
ZUWAKU
100
AcDbLine
 10
20.74221179505684
 20
11.34999942608259
 30
0.0
 11
20.74221179505684
 21
19.04999942608254
 31
0.0
  0
ARC
  5
B00
330
1A
100
AcDbEntity
  8
ZUWAKU
100
AcDbCircle
 10
15.49221179505684
 20
18.63479740072728
 30
0.0
 40
4.199999999999999
100
AcDbArc
 50
180.0
 51
225.0
  0
ARC
  5
B01
330
1A
100
AcDbEntity
  8
ZUWAKU
100
AcDbCircle
 10
15.84221179505687
 20
9.949999426082584
 30
0.0
 40
2.799999999999999
100
AcDbArc
 50
270.0
 51
0.0
  0
ARC
  5
B02
330
1A
100
AcDbEntity
  8
ZUWAKU
100
AcDbCircle
 10
24.94221179505689
 20
11.34999942608259
 30
0.0
 40
4.199999999999999
100
AcDbArc
 50
180.0
 51
270.0
  0
ARC
  5
B03
330
1A
100
AcDbEntity
  8
ZUWAKU
100
AcDbCircle
 10
14.44221179505689
 20
11.76520145143788
 30
0.0
 40
4.199999999999999
100
AcDbArc
 50
0.0
 51
45.0
  0
LINE
  5
B04
330
1A
100
AcDbEntity
  8
ZUWAKU
100
AcDbLine
 10
17.41206027604039
 20
14.73504993242141
 30
0.0
 11
14.50226230139571
 21
17.64484790706608
 31
0.0
  0
LINE
  5
B05
330
1A
100
AcDbEntity
  8
ZUWAKU
100
AcDbLine
 10
15.84221179505687
 20
10.47499942608258
 30
0.0
 11
15.84221179505687
 21
11.76520145143793
 31
0.0
  0
ARC
  5
B06
330
1A
100
AcDbEntity
  8
ZUWAKU
100
AcDbCircle
 10
15.31721179505689
 20
10.47499942608258
 30
0.0
 40
0.525
100
AcDbArc
 50
270.0
 51
0.0
  0
ARC
  5
B07
330
1A
100
AcDbEntity
  8
ZUWAKU
100
AcDbCircle
 10
14.44221179505689
 20
11.76520145143793
 30
0.0
 40
1.399999999999999
100
AcDbArc
 50
0.0
 51
45.0
  0
LINE
  5
B08
330
1A
100
AcDbEntity
  8
ZUWAKU
100
AcDbLine
 10
11.81721179505689
 20
7.674999426082585
 30
0.0
 11
11.81721179505689
 21
9.424999426082585
 31
0.0
  0
ARC
  5
B09
330
1A
100
AcDbEntity
  8
ZUWAKU
100
AcDbCircle
 10
12.34221179505686
 20
7.674999426082585
 30
0.0
 40
0.525
100
AcDbArc
 50
180.0
 51
270.0
  0
ARC
  5
B0A
330
1A
100
AcDbEntity
  8
ZUWAKU
100
AcDbCircle
 10
12.34221179505686
 20
9.424999426082585
 30
0.0
 40
0.525
100
AcDbArc
 50
90.0
 51
180.0
  0
LINE
  5
B0B
330
1A
100
AcDbEntity
  8
ZUWAKU
100
AcDbLine
 10
12.34221179505686
 20
7.149999426082587
 30
0.0
 11
15.84221179505687
 21
7.149999426082587
 31
0.0
  0
LINE
  5
B0C
330
1A
100
AcDbEntity
  8
ZUWAKU
100
AcDbLine
 10
12.34221179505686
 20
9.949999426082584
 30
0.0
 11
15.31721179505689
 21
9.949999426082584
 31
0.0
  0
LINE
  5
B0D
330
1A
100
AcDbEntity
  8
ZUWAKU
100
AcDbLine
 10
12.52236331407334
 20
15.66494891974376
 30
0.0
 11
15.43216128871802
 21
12.7551509450991
 31
0.0
  0
LINE
  5
B0E
330
1A
100
AcDbEntity
  8
ZUWAKU
100
AcDbLine
 10
18.64221179505693
 20
9.949999426082584
 30
0.0
 11
18.64221179505693
 21
11.76520145143793
 31
0.0
  0
ARC
  5
B0F
330
1A
100
AcDbEntity
  8
ZUWAKU
100
AcDbCircle
 10
24.94221179505689
 20
11.34999942608259
 30
0.0
 40
1.399999999999999
100
AcDbArc
 50
180.0
 51
270.0
  0
ARC
  5
B10
330
1A
100
AcDbEntity
  8
ZUWAKU
100
AcDbCircle
 10
17.59221179505686
 20
22.72499942608258
 30
0.0
 40
0.525
100
AcDbArc
 50
0.0
 51
90.0
  0
ARC
  5
B11
330
1A
100
AcDbEntity
  8
ZUWAKU
100
AcDbCircle
 10
17.59221179505686
 20
20.97499942608258
 30
0.0
 40
0.525
100
AcDbArc
 50
270.0
 51
0.0
  0
LINE
  5
B12
330
1A
100
AcDbEntity
  8
ZUWAKU
100
AcDbLine
 10
14.09221179505687
 20
23.24999942608259
 30
0.0
 11
17.59221179505686
 21
23.24999942608259
 31
0.0
  0
ARC
  5
B13
330
1A
100
AcDbEntity
  8
ZUWAKU
100
AcDbCircle
 10
14.61721179505684
 20
19.92499942608258
 30
0.0
 40
0.525
100
AcDbArc
 50
90.0
 51
180.0
  0
LINE
  5
B14
330
1A
100
AcDbEntity
  8
ZUWAKU
100
AcDbLine
 10
14.09221179505687
 20
19.92499942608258
 30
0.0
 11
14.09221179505687
 21
18.63479740072724
 31
0.0
  0
LINE
  5
B15
330
1A
100
AcDbEntity
  8
ZUWAKU
100
AcDbLine
 10
17.59221179505686
 20
20.44999942608258
 30
0.0
 11
14.61721179505684
 21
20.44999942608258
 31
0.0
  0
LINE
  5
B16
330
1A
100
AcDbEntity
  8
ZUWAKU
100
AcDbLine
 10
11.29221179505691
 20
20.44999942608258
 30
0.0
 11
11.29221179505691
 21
18.63479740072724
 31
0.0
  0
ARC
  5
B17
330
1A
100
AcDbEntity
  8
ZUWAKU
100
AcDbCircle
 10
14.09221179505687
 20
20.44999942608258
 30
0.0
 40
2.799999999999999
100
AcDbArc
 50
90.0
 51
180.0
  0
LINE
  5
B18
330
1A
100
AcDbEntity
  8
ZUWAKU
100
AcDbLine
 10
18.11721179505684
 20
22.72499942608258
 30
0.0
 11
18.11721179505684
 21
20.97499942608258
 31
0.0
  0
ARC
  5
B19
330
1A
100
AcDbEntity
  8
ZUWAKU
100
AcDbCircle
 10
24.94221179505689
 20
19.04999942608258
 30
0.0
 40
1.399999999999999
100
AcDbArc
 50
90.0
 51
180.0
  0
ARC
  5
B1A
330
1A
100
AcDbEntity
  8
ZUWAKU
100
AcDbCircle
 10
24.94221179505689
 20
19.04999942608254
 30
0.0
 40
4.199999999999999
100
AcDbArc
 50
90.0
 51
180.0
  0
LINE
  5
B1B
330
1A
100
AcDbEntity
  8
ZUWAKU
100
AcDbLine
 10
79.32662918826395
 20
29.99999942608258
 30
0.0
 11
79.32662918826418
 21
0.7999994260826498
 31
0.0
  0
LINE
  5
B1C
330
1A
100
AcDbEntity
  8
ZUWAKU
100
AcDbLine
 10
79.52662918826399
 20
29.99999942608258
 30
0.0
 11
79.52662918826423
 21
0.7999994260826498
 31
0.0
  0
LINE
  5
B1D
330
1A
100
AcDbEntity
  8
ZUWAKU
100
AcDbLine
 10
79.12662918826413
 20
29.99999942608258
 30
0.0
 11
79.12662918826413
 21
0.7999994260826498
 31
0.0
  0
LINE
  5
B1E
330
1A
100
AcDbEntity
  8
ZUWAKU
100
AcDbLine
 10
64.14221179505694
 20
9.949999426082584
 30
0.0
 11
64.14221179505694
 21
22.72499942608258
 31
0.0
  0
LINE
  5
B1F
330
1A
100
AcDbEntity
  8
ZUWAKU
100
AcDbLine
 10
61.34221179505686
 20
22.72499942608258
 30
0.0
 11
61.34221179505686
 21
10.99999942608258
 31
0.0
  0
LINE
  5
B20
330
1A
100
AcDbEntity
  8
ZUWAKU
100
AcDbLine
 10
69.04221179505691
 20
7.674999426082585
 30
0.0
 11
69.04221179505691
 21
22.72499942608258
 31
0.0
  0
LINE
  5
B21
330
1A
100
AcDbEntity
  8
ZUWAKU
100
AcDbLine
 10
66.24221179505685
 20
22.72499942608258
 30
0.0
 11
66.24221179505685
 21
7.674999426082585
 31
0.0
  0
ARC
  5
B22
330
1A
100
AcDbEntity
  8
ZUWAKU
100
AcDbCircle
 10
49.79221179505691
 20
18.63479740072728
 30
0.0
 40
1.399999999999999
100
AcDbArc
 50
180.0000000000016
 51
224.9999999999988
  0
ARC
  5
B23
330
1A
100
AcDbEntity
  8
ZUWAKU
100
AcDbCircle
 10
49.79221179505691
 20
18.63479740072728
 30
0.0
 40
4.199999999999999
100
AcDbArc
 50
180.0
 51
225.0
  0
LINE
  5
B24
330
1A
100
AcDbEntity
  8
ZUWAKU
100
AcDbLine
 10
37.31485827723486
 20
19.20504661964601
 30
0.0
 11
36.05010653189902
 21
15.1999994260826
 31
0.0
  0
LINE
  5
B25
330
1A
100
AcDbEntity
  8
ZUWAKU
100
AcDbLine
 10
40.69221179505689
 20
22.72499942608258
 30
0.0
 11
40.69221179505689
 21
7.674999426082585
 31
0.0
  0
LINE
  5
B26
330
1A
100
AcDbEntity
  8
ZUWAKU
100
AcDbLine
 10
43.49221179505684
 20
7.674999426082585
 30
0.0
 11
43.49221179505684
 21
22.72499942608258
 31
0.0
  0
LINE
  5
B27
330
1A
100
AcDbEntity
  8
ZUWAKU
100
AcDbLine
 10
55.04221179505691
 20
22.72499942608258
 30
0.0
 11
55.04221179505691
 21
9.949999426082584
 31
0.0
  0
LINE
  5
B28
330
1A
100
AcDbEntity
  8
ZUWAKU
100
AcDbLine
 10
57.84221179505687
 20
10.99999942608258
 30
0.0
 11
57.84221179505687
 21
22.72499942608258
 31
0.0
  0
LINE
  5
B29
330
1A
100
AcDbEntity
  8
ZUWAKU
100
AcDbLine
 10
32.64221179505693
 20
17.12499942608259
 30
0.0
 11
32.64221179505693
 21
22.72499942608258
 31
0.0
  0
LINE
  5
B2A
330
1A
100
AcDbEntity
  8
ZUWAKU
100
AcDbLine
 10
29.84221179505686
 20
22.72499942608258
 30
0.0
 11
29.84221179505686
 21
7.674999426082585
 31
0.0
  0
LINE
  5
B2B
330
1A
100
AcDbEntity
  8
ZUWAKU
100
AcDbLine
 10
35.67634673237273
 20
22.88309339424955
 30
0.0
 11
33.80807685774096
 21
16.96690545791561
 31
0.0
  0
LINE
  5
B2C
330
1A
100
AcDbEntity
  8
ZUWAKU
100
AcDbLine
 10
60.29221179505691
 20
9.949999426082584
 30
0.0
 11
58.89221179505693
 21
9.949999426082584
 31
0.0
  0
LINE
  5
B2D
330
1A
100
AcDbEntity
  8
ZUWAKU
100
AcDbLine
 10
57.84221179505687
 20
7.149999426082587
 30
0.0
 11
61.34221179505686
 21
7.149999426082587
 31
0.0
  0
LINE
  5
B2E
330
1A
100
AcDbEntity
  8
ZUWAKU
100
AcDbLine
 10
41.21721179505686
 20
7.149999426082587
 30
0.0
 11
42.96721179505687
 21
7.149999426082587
 31
0.0
  0
LINE
  5
B2F
330
1A
100
AcDbEntity
  8
ZUWAKU
100
AcDbLine
 10
35.67634673237273
 20
7.516905457915612
 30
0.0
 11
33.80807685774096
 21
13.43309339424955
 31
0.0
  0
ARC
  5
B30
330
1A
100
AcDbEntity
  8
ZUWAKU
100
AcDbCircle
 10
33.3074459585456
 20
17.12499942608259
 30
0.0
 40
0.525
100
AcDbArc
 50
270.0
 51
342.4744316262769
  0
LINE
  5
B31
330
1A
100
AcDbEntity
  8
ZUWAKU
100
AcDbLine
 10
33.3074459585456
 20
16.59999942608258
 30
0.0
 11
33.16721179505691
 21
16.59999942608258
 31
0.0
  0
LINE
  5
B32
330
1A
100
AcDbEntity
  8
ZUWAKU
100
AcDbLine
 10
33.16721179505691
 20
13.79999942608258
 30
0.0
 11
33.3074459585456
 21
13.79999942608258
 31
0.0
  0
ARC
  5
B33
330
1A
100
AcDbEntity
  8
ZUWAKU
100
AcDbCircle
 10
33.16721179505691
 20
17.12499942608259
 30
0.0
 40
0.525
100
AcDbArc
 50
180.0
 51
270.0
  0
LINE
  5
B34
330
1A
100
AcDbEntity
  8
ZUWAKU
100
AcDbLine
 10
30.36721179505684
 20
7.149999426082587
 30
0.0
 11
32.11721179505684
 21
7.149999426082587
 31
0.0
  0
ARC
  5
B35
330
1A
100
AcDbEntity
  8
ZUWAKU
100
AcDbCircle
 10
32.11721179505684
 20
7.674999426082585
 30
0.0
 40
0.525
100
AcDbArc
 50
270.0
 51
0.0
  0
LINE
  5
B36
330
1A
100
AcDbEntity
  8
ZUWAKU
100
AcDbLine
 10
32.64221179505693
 20
7.674999426082585
 30
0.0
 11
32.64221179505693
 21
13.27499942608258
 31
0.0
  0
LINE
  5
B37
330
1A
100
AcDbEntity
  8
ZUWAKU
100
AcDbLine
 10
27.39221179505693
 20
9.424999426082585
 30
0.0
 11
27.39221179505693
 21
7.674999426082585
 31
0.0
  0
ARC
  5
B38
330
1A
100
AcDbEntity
  8
ZUWAKU
100
AcDbCircle
 10
26.86721179505684
 20
7.674999426082585
 30
0.0
 40
0.525
100
AcDbArc
 50
270.0
 51
0.0
  0
ARC
  5
B39
330
1A
100
AcDbEntity
  8
ZUWAKU
100
AcDbCircle
 10
26.86721179505684
 20
9.424999426082585
 30
0.0
 40
0.525
100
AcDbArc
 50
0.0
 51
90.0
  0
ARC
  5
B3A
330
1A
100
AcDbEntity
  8
ZUWAKU
100
AcDbCircle
 10
30.36721179505684
 20
7.674999426082585
 30
0.0
 40
0.525
100
AcDbArc
 50
180.0
 51
270.0
  0
ARC
  5
B3B
330
1A
100
AcDbEntity
  8
ZUWAKU
100
AcDbCircle
 10
33.3074459585456
 20
13.27499942608258
 30
0.0
 40
0.525
100
AcDbArc
 50
17.52556837372303
 51
90.0
  0
ARC
  5
B3C
330
1A
100
AcDbEntity
  8
ZUWAKU
100
AcDbCircle
 10
33.16721179505691
 20
13.27499942608258
 30
0.0
 40
0.525
100
AcDbArc
 50
90.0
 51
180.0
  0
ARC
  5
B3D
330
1A
100
AcDbEntity
  8
ZUWAKU
100
AcDbCircle
 10
41.21721179505686
 20
7.674999426082585
 30
0.0
 40
0.525
100
AcDbArc
 50
180.0
 51
270.0
  0
LINE
  5
B3E
330
1A
100
AcDbEntity
  8
ZUWAKU
100
AcDbLine
 10
36.17697763156821
 20
7.149999426082587
 30
0.0
 11
37.8758670111772
 21
7.149999426082587
 31
0.0
  0
ARC
  5
B3F
330
1A
100
AcDbEntity
  8
ZUWAKU
100
AcDbCircle
 10
37.8758670111772
 20
7.674999426082585
 30
0.0
 40
0.525
100
AcDbArc
 50
270.0
 51
17.52556837372303
  0
LINE
  5
B40
330
1A
100
AcDbEntity
  8
ZUWAKU
100
AcDbLine
 10
38.37649791037268
 20
7.833093394249559
 30
0.0
 11
36.05010653189902
 21
15.1999994260826
 31
0.0
  0
ARC
  5
B41
330
1A
100
AcDbEntity
  8
ZUWAKU
100
AcDbCircle
 10
36.17697763156821
 20
7.674999426082585
 30
0.0
 40
0.525
100
AcDbArc
 50
197.525568373723
 51
270.0
  0
ARC
  5
B42
330
1A
100
AcDbEntity
  8
ZUWAKU
100
AcDbCircle
 10
57.84221179505687
 20
9.949999426082584
 30
0.0
 40
2.799999999999999
100
AcDbArc
 50
180.0
 51
270.0
  0
ARC
  5
B43
330
1A
100
AcDbEntity
  8
ZUWAKU
100
AcDbCircle
 10
50.14221179505693
 20
9.949999426082584
 30
0.0
 40
2.799999999999999
100
AcDbArc
 50
270.0
 51
0.0
  0
LINE
  5
B44
330
1A
100
AcDbEntity
  8
ZUWAKU
100
AcDbLine
 10
51.71206027604046
 20
14.73504993242141
 30
0.0
 11
48.80226230139567
 21
17.64484790706608
 31
0.0
  0
LINE
  5
B45
330
1A
100
AcDbEntity
  8
ZUWAKU
100
AcDbLine
 10
50.14221179505693
 20
10.47499942608258
 30
0.0
 11
50.14221179505693
 21
11.76520145143793
 31
0.0
  0
ARC
  5
B46
330
1A
100
AcDbEntity
  8
ZUWAKU
100
AcDbCircle
 10
48.74221179505685
 20
11.76520145143793
 30
0.0
 40
1.399999999999999
100
AcDbArc
 50
0.0
 51
45.0
  0
ARC
  5
B47
330
1A
100
AcDbEntity
  8
ZUWAKU
100
AcDbCircle
 10
49.61721179505684
 20
10.47499942608258
 30
0.0
 40
0.525
100
AcDbArc
 50
270.0
 51
0.0
  0
LINE
  5
B48
330
1A
100
AcDbEntity
  8
ZUWAKU
100
AcDbLine
 10
46.11721179505685
 20
7.674999426082585
 30
0.0
 11
46.11721179505685
 21
9.424999426082585
 31
0.0
  0
ARC
  5
B49
330
1A
100
AcDbEntity
  8
ZUWAKU
100
AcDbCircle
 10
46.64221179505694
 20
7.674999426082585
 30
0.0
 40
0.525
100
AcDbArc
 50
180.0
 51
270.0
  0
ARC
  5
B4A
330
1A
100
AcDbEntity
  8
ZUWAKU
100
AcDbCircle
 10
42.96721179505687
 20
7.674999426082585
 30
0.0
 40
0.525
100
AcDbArc
 50
270.0
 51
0.0
  0
ARC
  5
B4B
330
1A
100
AcDbEntity
  8
ZUWAKU
100
AcDbCircle
 10
46.64221179505694
 20
9.424999426082585
 30
0.0
 40
0.525
100
AcDbArc
 50
90.0
 51
180.0
  0
LINE
  5
B4C
330
1A
100
AcDbEntity
  8
ZUWAKU
100
AcDbLine
 10
46.64221179505694
 20
9.949999426082584
 30
0.0
 11
49.61721179505684
 21
9.949999426082584
 31
0.0
  0
LINE
  5
B4D
330
1A
100
AcDbEntity
  8
ZUWAKU
100
AcDbLine
 10
46.64221179505694
 20
7.149999426082587
 30
0.0
 11
50.14221179505693
 21
7.149999426082587
 31
0.0
  0
LINE
  5
B4E
330
1A
100
AcDbEntity
  8
ZUWAKU
100
AcDbLine
 10
46.82236331407341
 20
15.66494891974376
 30
0.0
 11
49.73216128871809
 21
12.7551509450991
 31
0.0
  0
LINE
  5
B4F
330
1A
100
AcDbEntity
  8
ZUWAKU
100
AcDbLine
 10
52.94221179505689
 20
9.949999426082584
 30
0.0
 11
52.94221179505689
 21
11.76520145143793
 31
0.0
  0
ARC
  5
B50
330
1A
100
AcDbEntity
  8
ZUWAKU
100
AcDbCircle
 10
48.74221179505685
 20
11.76520145143788
 30
0.0
 40
4.199999999999999
100
AcDbArc
 50
0.0
 51
45.0
  0
ARC
  5
B51
330
1A
100
AcDbEntity
  8
ZUWAKU
100
AcDbCircle
 10
58.89221179505693
 20
10.99999942608258
 30
0.0
 40
1.049999999999999
100
AcDbArc
 50
180.0
 51
270.0
  0
ARC
  5
B52
330
1A
100
AcDbEntity
  8
ZUWAKU
100
AcDbCircle
 10
61.34221179505686
 20
9.949999426082584
 30
0.0
 40
2.799999999999999
100
AcDbArc
 50
270.0
 51
0.0
  0
LINE
  5
B53
330
1A
100
AcDbEntity
  8
ZUWAKU
100
AcDbLine
 10
66.76721179505694
 20
7.149999426082587
 30
0.0
 11
68.51721179505694
 21
7.149999426082587
 31
0.0
  0
ARC
  5
B54
330
1A
100
AcDbEntity
  8
ZUWAKU
100
AcDbCircle
 10
66.76721179505694
 20
7.674999426082585
 30
0.0
 40
0.525
100
AcDbArc
 50
180.0
 51
270.0
  0
ARC
  5
B55
330
1A
100
AcDbEntity
  8
ZUWAKU
100
AcDbCircle
 10
60.29221179505691
 20
10.99999942608258
 30
0.0
 40
1.049999999999999
100
AcDbArc
 50
270.0
 51
0.0
  0
ARC
  5
B56
330
1A
100
AcDbEntity
  8
ZUWAKU
100
AcDbCircle
 10
68.51721179505694
 20
7.674999426082585
 30
0.0
 40
0.525
100
AcDbArc
 50
270.0
 51
0.0
  0
LINE
  5
B57
330
1A
100
AcDbEntity
  8
ZUWAKU
100
AcDbLine
 10
42.96721179505687
 20
23.24999942608259
 30
0.0
 11
41.21721179505686
 21
23.24999942608259
 31
0.0
  0
ARC
  5
B58
330
1A
100
AcDbEntity
  8
ZUWAKU
100
AcDbCircle
 10
32.11721179505684
 20
22.72499942608258
 30
0.0
 40
0.525
100
AcDbArc
 50
0.0
 51
90.0
  0
LINE
  5
B59
330
1A
100
AcDbEntity
  8
ZUWAKU
100
AcDbLine
 10
32.11721179505684
 20
23.24999942608259
 30
0.0
 11
30.36721179505684
 21
23.24999942608259
 31
0.0
  0
ARC
  5
B5A
330
1A
100
AcDbEntity
  8
ZUWAKU
100
AcDbCircle
 10
26.86721179505684
 20
22.72499942608258
 30
0.0
 40
0.525
100
AcDbArc
 50
0.0
 51
90.0
  0
ARC
  5
B5B
330
1A
100
AcDbEntity
  8
ZUWAKU
100
AcDbCircle
 10
30.36721179505684
 20
22.72499942608258
 30
0.0
 40
0.525
100
AcDbArc
 50
90.0
 51
180.0
  0
ARC
  5
B5C
330
1A
100
AcDbEntity
  8
ZUWAKU
100
AcDbCircle
 10
26.86721179505684
 20
20.97499942608258
 30
0.0
 40
0.525
100
AcDbArc
 50
270.0
 51
0.0
  0
LINE
  5
B5D
330
1A
100
AcDbEntity
  8
ZUWAKU
100
AcDbLine
 10
27.39221179505693
 20
22.72499942608258
 30
0.0
 11
27.39221179505693
 21
20.97499942608258
 31
0.0
  0
ARC
  5
B5E
330
1A
100
AcDbEntity
  8
ZUWAKU
100
AcDbCircle
 10
41.21721179505686
 20
22.72499942608258
 30
0.0
 40
0.525
100
AcDbArc
 50
90.0
 51
180.0
  0
LINE
  5
B5F
330
1A
100
AcDbEntity
  8
ZUWAKU
100
AcDbLine
 10
36.17697763156821
 20
23.24999942608259
 30
0.0
 11
37.8758670111772
 21
23.24999942608259
 31
0.0
  0
ARC
  5
B60
330
1A
100
AcDbEntity
  8
ZUWAKU
100
AcDbCircle
 10
37.8758670111772
 20
22.72499942608258
 30
0.0
 40
0.525
100
AcDbArc
 50
342.4744316262769
 51
90.0
  0
LINE
  5
B61
330
1A
100
AcDbEntity
  8
ZUWAKU
100
AcDbLine
 10
38.37649791037268
 20
22.56690545791561
 30
0.0
 11
37.31485827723486
 21
19.20504661964601
 31
0.0
  0
ARC
  5
B62
330
1A
100
AcDbEntity
  8
ZUWAKU
100
AcDbCircle
 10
36.17697763156821
 20
22.72499942608258
 30
0.0
 40
0.525
100
AcDbArc
 50
90.0
 51
162.4744316262769
  0
LINE
  5
B63
330
1A
100
AcDbEntity
  8
ZUWAKU
100
AcDbLine
 10
48.39221179505694
 20
23.24999942608259
 30
0.0
 11
51.89221179505693
 21
23.24999942608259
 31
0.0
  0
LINE
  5
B64
330
1A
100
AcDbEntity
  8
ZUWAKU
100
AcDbLine
 10
51.89221179505693
 20
20.44999942608258
 30
0.0
 11
48.91721179505691
 21
20.44999942608258
 31
0.0
  0
ARC
  5
B65
330
1A
100
AcDbEntity
  8
ZUWAKU
100
AcDbCircle
 10
48.91721179505691
 20
19.92499942608258
 30
0.0
 40
0.525
100
AcDbArc
 50
90.0
 51
180.0
  0
LINE
  5
B66
330
1A
100
AcDbEntity
  8
ZUWAKU
100
AcDbLine
 10
48.39221179505694
 20
19.92499942608258
 30
0.0
 11
48.39221179505694
 21
18.63479740072724
 31
0.0
  0
ARC
  5
B67
330
1A
100
AcDbEntity
  8
ZUWAKU
100
AcDbCircle
 10
42.96721179505687
 20
22.72499942608258
 30
0.0
 40
0.525
100
AcDbArc
 50
0.0
 51
90.0
  0
LINE
  5
B68
330
1A
100
AcDbEntity
  8
ZUWAKU
100
AcDbLine
 10
45.59221179505686
 20
20.44999942608258
 30
0.0
 11
45.59221179505686
 21
18.63479740072724
 31
0.0
  0
ARC
  5
B69
330
1A
100
AcDbEntity
  8
ZUWAKU
100
AcDbCircle
 10
48.39221179505694
 20
20.44999942608258
 30
0.0
 40
2.799999999999999
100
AcDbArc
 50
90.0
 51
180.0
  0
ARC
  5
B6A
330
1A
100
AcDbEntity
  8
ZUWAKU
100
AcDbCircle
 10
57.31721179505689
 20
22.72499942608258
 30
0.0
 40
0.525
100
AcDbArc
 50
0.0
 51
90.0
  0
ARC
  5
B6B
330
1A
100
AcDbEntity
  8
ZUWAKU
100
AcDbCircle
 10
55.56721179505689
 20
22.72499942608258
 30
0.0
 40
0.525
100
AcDbArc
 50
90.0
 51
180.0
  0
LINE
  5
B6C
330
1A
100
AcDbEntity
  8
ZUWAKU
100
AcDbLine
 10
57.31721179505689
 20
23.24999942608259
 30
0.0
 11
55.56721179505689
 21
23.24999942608259
 31
0.0
  0
ARC
  5
B6D
330
1A
100
AcDbEntity
  8
ZUWAKU
100
AcDbCircle
 10
51.89221179505693
 20
22.72499942608258
 30
0.0
 40
0.525
100
AcDbArc
 50
0.0
 51
90.0
  0
ARC
  5
B6E
330
1A
100
AcDbEntity
  8
ZUWAKU
100
AcDbCircle
 10
51.89221179505693
 20
20.97499942608258
 30
0.0
 40
0.525
100
AcDbArc
 50
270.0
 51
0.0
  0
LINE
  5
B6F
330
1A
100
AcDbEntity
  8
ZUWAKU
100
AcDbLine
 10
52.41721179505692
 20
22.72499942608258
 30
0.0
 11
52.41721179505692
 21
20.97499942608258
 31
0.0
  0
LINE
  5
B70
330
1A
100
AcDbEntity
  8
ZUWAKU
100
AcDbLine
 10
68.51721179505694
 20
23.24999942608259
 30
0.0
 11
66.76721179505694
 21
23.24999942608259
 31
0.0
  0
ARC
  5
B71
330
1A
100
AcDbEntity
  8
ZUWAKU
100
AcDbCircle
 10
66.76721179505694
 20
22.72499942608258
 30
0.0
 40
0.525
100
AcDbArc
 50
90.0
 51
180.0
  0
ARC
  5
B72
330
1A
100
AcDbEntity
  8
ZUWAKU
100
AcDbCircle
 10
63.61721179505685
 20
22.72499942608258
 30
0.0
 40
0.525
100
AcDbArc
 50
0.0
 51
90.0
  0
LINE
  5
B73
330
1A
100
AcDbEntity
  8
ZUWAKU
100
AcDbLine
 10
63.61721179505685
 20
23.24999942608259
 30
0.0
 11
61.86721179505685
 21
23.24999942608259
 31
0.0
  0
ARC
  5
B74
330
1A
100
AcDbEntity
  8
ZUWAKU
100
AcDbCircle
 10
61.86721179505685
 20
22.72499942608258
 30
0.0
 40
0.525
100
AcDbArc
 50
90.0
 51
180.0
  0
ARC
  5
B75
330
1A
100
AcDbEntity
  8
ZUWAKU
100
AcDbCircle
 10
68.51721179505694
 20
22.72499942608258
 30
0.0
 40
0.525
100
AcDbArc
 50
0.0
 51
90.0
  0
TEXT
  5
B76
330
1A
100
AcDbEntity
  8
MOJI
100
AcDbText
 10
239.8272023211268
 20
3.204920483490003
 30
0.0
 40
5.599999999999999
  1
Ｘ７０Ｕ－０寸－６０m/m（2寸）
 41
0.9
  7
ｽﾀｲﾙ1
100
AcDbText
  0
TEXT
  5
B77
330
1A
100
AcDbEntity
  8
MOJI
100
AcDbText
 10
239.8272023211268
 20
18.00492048348997
 30
0.0
 40
5.599999999999999
  1
ステンレス金具正面打（受）固定式
 41
0.9
  7
ｽﾀｲﾙ1
100
AcDbText
  0
LINE
  5
B78
330
1A
100
AcDbEntity
  8
ZUWAKU
100
AcDbLine
 10
208.2466009303436
 20
29.99999942608258
 30
0.0
 11
208.2466009303436
 21
0.7999994260826498
 31
0.0
  0
LINE
  5
B79
330
1A
100
AcDbEntity
  8
ZUWAKU
100
AcDbLine
 10
208.6466009303435
 20
29.99999942608258
 30
0.0
 11
208.6466009303437
 21
0.7999994260826498
 31
0.0
  0
LINE
  5
B7A
330
1A
100
AcDbEntity
  8
ZUWAKU
100
AcDbLine
 10
208.4466009303434
 20
29.99999942608258
 30
0.0
 11
208.4466009303437
 21
0.7999994260826498
 31
0.0
  0
TEXT
  5
B7B
330
1A
100
AcDbEntity
  8
ZUWAKU
100
AcDbText
 10
209.7240459525532
 20
9.655355964468199
 30
0.0
 40
4.0
  1
サイズ
 41
0.9
  7
ｽﾀｲﾙ1
100
AcDbText
  0
TEXT
  5
B7C
330
1A
100
AcDbEntity
  8
ZUWAKU
100
AcDbText
 10
209.724045952553
 20
24.05535596446816
 30
0.0
 40
4.0
  1
品名
 41
0.9
  7
ｽﾀｲﾙ1
100
AcDbText
  0
LINE
  5
B7D
330
1A
100
AcDbEntity
  8
ZUWAKU
100
AcDbLine
 10
648.8172021504799
 20
15.19999942608261
 30
0.0
 11
697.249010188817
 21
15.19999942608261
 31
0.0
  0
LINE
  5
B7E
330
1A
100
AcDbEntity
  8
ZUWAKU
100
AcDbLine
 10
648.8172021504801
 20
15.39999942608262
 30
0.0
 11
697.249010188817
 21
15.39999942608261
 31
0.0
  0
LINE
  5
B7F
330
1A
100
AcDbEntity
  8
ZUWAKU
100
AcDbLine
 10
648.8172021504799
 20
15.59999942608261
 30
0.0
 11
697.249010188817
 21
15.59999942608261
 31
0.0
  0
TEXT
  5
B80
330
1A
100
AcDbEntity
  8
ZUWAKU
100
AcDbText
 10
658.2039373275781
 20
18.00492048348997
 30
0.0
 40
5.599999999999999
  1
　　．　　．　　
 41
0.9
  7
ｽﾀｲﾙ1
100
AcDbText
  0
LINE
  5
B81
330
1A
100
AcDbEntity
  8
ZUWAKU
100
AcDbLine
 10
505.1991791384166
 20
15.19999942608261
 30
0.0
 11
552.5269554063881
 21
15.19999942608261
 31
0.0
  0
LINE
  5
B82
330
1A
100
AcDbEntity
  8
ZUWAKU
100
AcDbLine
 10
505.1991791384166
 20
15.39999942608261
 30
0.0
 11
552.5269554063881
 21
15.39999942608261
 31
0.0
  0
LINE
  5
B83
330
1A
100
AcDbEntity
  8
ZUWAKU
100
AcDbLine
 10
505.1991791384166
 20
15.59999942608261
 30
0.0
 11
552.5269554063881
 21
15.59999942608261
 31
0.0
  0
TEXT
  5
B84
330
1A
100
AcDbEntity
  8
MOJI
100
AcDbText
 10
463.2464316312778
 20
11.94261714774256
 30
0.0
 40
5.599999999999999
  1
ＬＣ７６□
 41
0.9
  7
ｽﾀｲﾙ1
100
AcDbText
  0
LINE
  5
B85
330
1A
100
AcDbEntity
  8
ZUWAKU
100
AcDbLine
 10
447.6243636112669
 20
29.99999942608258
 30
0.0
 11
447.6243636112672
 21
0.7999994260826498
 31
0.0
  0
LINE
  5
B86
330
1A
100
AcDbEntity
  8
ZUWAKU
100
AcDbLine
 10
447.824363611267
 20
29.99999942608258
 30
0.0
 11
447.8243636112672
 21
0.7999994260826498
 31
0.0
  0
LINE
  5
B87
330
1A
100
AcDbEntity
  8
ZUWAKU
100
AcDbLine
 10
447.4243636112671
 20
29.99999942608258
 30
0.0
 11
447.4243636112671
 21
0.7999994260826498
 31
0.0
  0
TEXT
  5
B88
330
1A
100
AcDbEntity
  8
MOJI
100
AcDbText
 10
528.0409076125886
 20
18.00492048348997
 30
0.0
 40
5.599999999999999
  1
Ａ３
 41
0.9
  7
ｽﾀｲﾙ1
100
AcDbText
  0
LINE
  5
B89
330
1A
100
AcDbEntity
  8
ZUWAKU
100
AcDbLine
 10
504.9991791384165
 20
29.99999942608258
 30
0.0
 11
504.9991791384168
 21
0.7999994260826498
 31
0.0
  0
LINE
  5
B8A
330
1A
100
AcDbEntity
  8
ZUWAKU
100
AcDbLine
 10
505.1991791384166
 20
29.99999942608258
 30
0.0
 11
505.1991791384168
 21
0.7999994260826498
 31
0.0
  0
LINE
  5
B8B
330
1A
100
AcDbEntity
  8
ZUWAKU
100
AcDbLine
 10
504.7991791384167
 20
29.99999942608258
 30
0.0
 11
504.7991791384167
 21
0.7999994260826498
 31
0.0
  0
TEXT
  5
B8C
330
1A
100
AcDbEntity
  8
ZUWAKU
100
AcDbText
 10
461.6981348681881
 20
2.908328665971794
 30
0.0
 40
3.0
  1
□には色品番が入ります
 41
0.9
  7
ｽﾀｲﾙ1
100
AcDbText
  0
TEXT
  5
B8D
330
1A
100
AcDbEntity
  8
ZUWAKU
100
AcDbText
 10
506.6766241606265
 20
9.655355964468199
 30
0.0
 40
4.0
  1
縮尺
 41
0.9
  7
ｽﾀｲﾙ1
100
AcDbText
  0
TEXT
  5
B8E
330
1A
100
AcDbEntity
  8
MOJI
100
AcDbText
 10
528.0409076125886
 20
3.204920483490003
 30
0.0
 40
5.599999999999999
  1
１/２
 41
0.9
  7
ｽﾀｲﾙ1
100
AcDbText
  0
TEXT
  5
B8F
330
1A
100
AcDbEntity
  8
ZUWAKU
100
AcDbText
 10
449.3018086334766
 20
24.05535596446816
 30
0.0
 40
4.0
  1
品番
 41
0.9
  7
ｽﾀｲﾙ1
100
AcDbText
  0
TEXT
  5
B90
330
1A
100
AcDbEntity
  8
ZUWAKU
100
AcDbText
 10
506.6766241606262
 20
24.05535596446816
 30
0.0
 40
4.0
  1
用紙
 41
0.9
  7
ｽﾀｲﾙ1
100
AcDbText
  0
LINE
  5
B91
330
1A
100
AcDbEntity
  8
ZUWAKU
100
AcDbLine
 10
648.6172021504801
 20
29.99999942608258
 30
0.0
 11
648.6172021504803
 21
0.7999994260826498
 31
0.0
  0
LINE
  5
B92
330
1A
100
AcDbEntity
  8
ZUWAKU
100
AcDbLine
 10
648.8172021504801
 20
29.99999942608258
 30
0.0
 11
648.8172021504803
 21
0.7999994260826498
 31
0.0
  0
LINE
  5
B93
330
1A
100
AcDbEntity
  8
ZUWAKU
100
AcDbLine
 10
648.4172021504803
 20
29.99999942608258
 30
0.0
 11
648.4172021504803
 21
0.7999994260826498
 31
0.0
  0
LINE
  5
B94
330
1A
100
AcDbEntity
  8
ZUWAKU
100
AcDbLine
 10
552.726955406388
 20
29.99999942608258
 30
0.0
 11
552.7269554063882
 21
0.7999994260826498
 31
0.0
  0
LINE
  5
B95
330
1A
100
AcDbEntity
  8
ZUWAKU
100
AcDbLine
 10
552.926955406388
 20
29.99999942608258
 30
0.0
 11
552.9269554063882
 21
0.7999994260826498
 31
0.0
  0
LINE
  5
B96
330
1A
100
AcDbEntity
  8
ZUWAKU
100
AcDbLine
 10
552.5269554063881
 20
29.99999942608258
 30
0.0
 11
552.5269554063881
 21
0.7999994260826498
 31
0.0
  0
TEXT
  5
B97
330
1A
100
AcDbEntity
  8
ZUWAKU
100
AcDbText
 10
650.2946471726898
 20
24.05535596446816
 30
0.0
 40
4.0
  1
DATE
 41
0.9
  7
ｽﾀｲﾙ1
100
AcDbText
  0
LINE
  5
B98
330
1A
100
AcDbEntity
  8
ZUWAKU
100
AcDbLine
 10
697.249010188817
 20
29.99999942608258
 30
0.0
 11
697.249010188817
 21
0.7999994260826498
 31
0.0
  0
LINE
  5
B99
330
1A
100
AcDbEntity
  8
ZUWAKU
100
AcDbLine
 10
697.4490101888171
 20
29.99999942608258
 30
0.0
 11
697.4490101888171
 21
0.7999994260826498
 31
0.0
  0
LINE
  5
B9A
330
1A
100
AcDbEntity
  8
ZUWAKU
100
AcDbLine
 10
697.6490101888169
 20
29.99999942608258
 30
0.0
 11
697.649010188817
 21
0.7999994260826498
 31
0.0
  0
LINE
  5
B9B
330
1A
100
AcDbEntity
  8
ZUWAKU
100
AcDbLine
 10
697.8490101888169
 20
29.99999942608258
 30
0.0
 11
697.8490101888171
 21
0.7999994260826498
 31
0.0
  0
TEXT
  5
B9C
330
1A
100
AcDbEntity
  8
ZUWAKU
100
AcDbText
 10
708.5280838325195
 20
17.55383876176938
 30
0.0
 40
6.0
  1
積水化学工業株式会社
 41
0.9
  7
ｽﾀｲﾙ1
100
AcDbText
  0
TEXT
  5
B9D
330
1A
100
AcDbEntity
  8
ZUWAKU
100
AcDbText
 10
708.5280838325195
 20
6.648839739936647
 30
0.0
 40
6.0
  1
建材事業部
 41
0.9
  7
ｽﾀｲﾙ1
100
AcDbText
  0
VIEWPORT
  5
22
330
17
100
AcDbEntity
 67
     1
  8
0
100
AcDbViewport
 10
313.6808219178082
 20
148.5
 30
0.0
 40
627.3616438356165
 41
297.0
 68
     2
 69
     1
1001
ACAD
1000
MVIEW
1002
{
1070
    16
1010
0.0
1020
0.0
1030
0.0
1010
0.0
1020
0.0
1030
1.0
1040
0.0
1040
297.0
1040
313.6808219178082
1040
148.5
1040
50.0
1040
0.0
1040
0.0
1070
     0
1070
   100
1070
     1
1070
     0
1070
     0
1070
     0
1070
     0
1070
     0
1040
0.0
1040
0.0
1040
0.0
1040
1.0
1040
1.0
1040
10.0
1040
10.0
1070
     0
1002
{
1002
}
1002
}
  0
VIEWPORT
  5
64
330
17
100
AcDbEntity
 67
     1
  8
VIEWPORT
100
AcDbViewport
 10
210.0
 20
148.5
 30
0.0
 40
420.0
 41
297.0
 68
     1
 69
     2
1001
ACAD
1000
MVIEW
1002
{
1070
    16
1010
0.0
1020
0.0
1030
0.0
1010
0.0
1020
0.0
1030
1.0
1040
0.0
1040
605.8799999999998
1040
420.0
1040
297.0
1040
50.0
1040
0.0
1040
0.0
1070
     0
1070
   100
1070
     1
1070
     0
1070
     0
1070
     0
1070
     0
1070
     0
1040
0.0
1040
0.0
1040
0.0
1040
10.0
1040
10.0
1040
0.0
1040
0.0
1070
     0
1002
{
1002
}
1002
}
  0
ENDSEC
  0
SECTION
  2
OBJECTS
  0
DICTIONARY
  5
C
330
0
100
AcDbDictionary
  3
ACAD_GROUP
350
D
  3
ACAD_LAYOUT
350
9BC
  3
ACAD_MLINESTYLE
350
E
  3
ACAD_PLOTSETTINGS
350
9BD
  3
ACAD_PLOTSTYLENAME
350
9BA
  3
ACDBHEADERROUNDTRIPXREC
350
BA5
  0
DICTIONARY
  5
9EB
330
1A
100
AcDbDictionary
280
     1
  3
ACAD_LAYOUTSELFREF
360
BC7
  0
DICTIONARY
  5
9E9
330
17
100
AcDbDictionary
280
     1
  3
ACAD_LAYOUTSELFREF
360
BC6
  0
DICTIONARY
  5
D
102
{ACAD_REACTORS
330
C
102
}
330
C
100
AcDbDictionary
  0
DICTIONARY
  5
9BC
102
{ACAD_REACTORS
330
C
102
}
330
C
100
AcDbDictionary
  0
DICTIONARY
  5
E
102
{ACAD_REACTORS
330
C
102
}
330
C
100
AcDbDictionary
  3
STANDARD
350
13
  0
DICTIONARY
  5
9BD
102
{ACAD_REACTORS
330
C
102
}
330
C
100
AcDbDictionary
  0
ACDBDICTIONARYWDFLT
  5
9BA
102
{ACAD_REACTORS
330
C
102
}
330
C
100
AcDbDictionary
281
     1
  3
Normal
350
9BB
100
AcDbDictionaryWithDefault
340
9BB
1001
ACAD
1000
TREAT_AS_HARD
1070
     0
1000
TREAT_AS_HARD
1070
     0
  0
DICTIONARY
  5
BA5
102
{ACAD_REACTORS
330
C
102
}
330
C
100
AcDbDictionary
  3
TSTACKALIGN
350
BA6
  3
TSTACKSIZE
350
BA7
  3
HYPERLINKBASE
350
BA8
  3
STYLESHEET
350
BA9
  3
LAYOUTDICT
350
BAA
  3
PLOTSETDICT
350
BAB
  3
PLOTSTYLNAMDICT
350
BAC
  3
LWETCUNION
350
BAD
  3
INSUNITS
350
BAE
  3
CEPSNTYPE
350
BAF
  3
FINGERPRINTGUID
350
BB0
  3
VERSIONGUID
350
BB1
  3
PSVPSCALE
350
BB2
  3
DIMSTYLEDATA
350
BB3
  3
PUCSORTHOREF
350
BB4
  3
PUCSORTHOVIEW
350
BB5
  3
PUCSBASE
350
BB6
  3
PUCSORGTOP
350
BB7
  3
PUCSORGBOTTOM
350
BB8
  3
PUCSORGLEFT
350
BB9
  3
PUCSORGRIGHT
350
BBA
  3
PUCSORGFRONT
350
BBB
  3
PUCSORGBACK
350
BBC
  3
UCSORTHOREF
350
BBD
  3
UCSORTHOVIEW
350
BBE
  3
UCSBASE
350
BBF
  3
UCSORGTOP
350
BC0
  3
UCSORGBOTTOM
350
BC1
  3
UCSORGLEFT
350
BC2
  3
UCSORGRIGHT
350
BC3
  3
UCSORGFRONT
350
BC4
  3
UCSORGBACK
350
BC5
  0
XRECORD
  5
BC7
102
{ACAD_REACTORS
330
9EB
102
}
330
9EB
100
AcDbXrecord
340
1A
  0
XRECORD
  5
BC6
102
{ACAD_REACTORS
330
9E9
102
}
330
9E9
100
AcDbXrecord
340
17
  0
MLINESTYLE
  5
13
102
{ACAD_REACTORS
330
E
102
}
330
E
100
AcDbMlineStyle
  2
STANDARD
 70
     0
  3

 62
     0
 51
90.0
 52
90.0
 71
     2
 49
0.5
 62
   256
  6
BYLAYER
 49
-0.5
 62
   256
  6
BYLAYER
  0
ACDBPLACEHOLDER
  5
9BB
102
{ACAD_REACTORS
330
9BA
102
}
330
9BA
100
AcDbPlaceHolder
280
     0
  0
XRECORD
  5
BA6
102
{ACAD_REACTORS
330
BA5
102
}
330
BA5
100
AcDbXrecord
 90
        1
  0
XRECORD
  5
BA7
102
{ACAD_REACTORS
330
BA5
102
}
330
BA5
100
AcDbXrecord
 90
       70
  0
XRECORD
  5
BA8
102
{ACAD_REACTORS
330
BA5
102
}
330
BA5
100
AcDbXrecord
  1

  0
XRECORD
  5
BA9
102
{ACAD_REACTORS
330
BA5
102
}
330
BA5
100
AcDbXrecord
  1
systemprinter.ctb
  0
XRECORD
  5
BAA
102
{ACAD_REACTORS
330
BA5
102
}
330
BA5
100
AcDbXrecord
340
9BC
  0
XRECORD
  5
BAB
102
{ACAD_REACTORS
330
BA5
102
}
330
BA5
100
AcDbXrecord
340
9BD
  0
XRECORD
  5
BAC
102
{ACAD_REACTORS
330
BA5
102
}
330
BA5
100
AcDbXrecord
340
9BA
  0
XRECORD
  5
BAD
102
{ACAD_REACTORS
330
BA5
102
}
330
BA5
100
AcDbXrecord
 90
    10781
  0
XRECORD
  5
BAE
102
{ACAD_REACTORS
330
BA5
102
}
330
BA5
100
AcDbXrecord
 90
        0
  0
XRECORD
  5
BAF
102
{ACAD_REACTORS
330
BA5
102
}
330
BA5
100
AcDbXrecord
 90
        0
  0
XRECORD
  5
BB0
102
{ACAD_REACTORS
330
BA5
102
}
330
BA5
100
AcDbXrecord
  1
{2B1AD2B8-4D1B-4CE3-897E-AFFF4DDD65D7}
  0
XRECORD
  5
BB1
102
{ACAD_REACTORS
330
BA5
102
}
330
BA5
100
AcDbXrecord
  1
{CE305EE7-EED2-47C4-A1F9-DD83B71F3A18}
  0
XRECORD
  5
BB2
102
{ACAD_REACTORS
330
BA5
102
}
330
BA5
100
AcDbXrecord
 40
0.0
  0
XRECORD
  5
BB3
102
{ACAD_REACTORS
330
BA5
102
}
330
BA5
100
AcDbXrecord
1000
DSTYLE
1002
{
1070
   341
340
6D
1070
   343
340
6D
1070
   344
340
6D
1070
   371
 70
    -1
1070
   372
 70
    -1
1002
}
  0
XRECORD
  5
BB4
102
{ACAD_REACTORS
330
BA5
102
}
330
BA5
100
AcDbXrecord
340
0
  0
XRECORD
  5
BB5
102
{ACAD_REACTORS
330
BA5
102
}
330
BA5
100
AcDbXrecord
 70
     0
  0
XRECORD
  5
BB6
102
{ACAD_REACTORS
330
BA5
102
}
330
BA5
100
AcDbXrecord
340
0
  0
XRECORD
  5
BB7
102
{ACAD_REACTORS
330
BA5
102
}
330
BA5
100
AcDbXrecord
 10
0.0
 20
0.0
 30
0.0
  0
XRECORD
  5
BB8
102
{ACAD_REACTORS
330
BA5
102
}
330
BA5
100
AcDbXrecord
 10
0.0
 20
0.0
 30
0.0
  0
XRECORD
  5
BB9
102
{ACAD_REACTORS
330
BA5
102
}
330
BA5
100
AcDbXrecord
 10
0.0
 20
0.0
 30
0.0
  0
XRECORD
  5
BBA
102
{ACAD_REACTORS
330
BA5
102
}
330
BA5
100
AcDbXrecord
 10
0.0
 20
0.0
 30
0.0
  0
XRECORD
  5
BBB
102
{ACAD_REACTORS
330
BA5
102
}
330
BA5
100
AcDbXrecord
 10
0.0
 20
0.0
 30
0.0
  0
XRECORD
  5
BBC
102
{ACAD_REACTORS
330
BA5
102
}
330
BA5
100
AcDbXrecord
 10
0.0
 20
0.0
 30
0.0
  0
XRECORD
  5
BBD
102
{ACAD_REACTORS
330
BA5
102
}
330
BA5
100
AcDbXrecord
340
0
  0
XRECORD
  5
BBE
102
{ACAD_REACTORS
330
BA5
102
}
330
BA5
100
AcDbXrecord
 70
     0
  0
XRECORD
  5
BBF
102
{ACAD_REACTORS
330
BA5
102
}
330
BA5
100
AcDbXrecord
340
0
  0
XRECORD
  5
BC0
102
{ACAD_REACTORS
330
BA5
102
}
330
BA5
100
AcDbXrecord
 10
0.0
 20
0.0
 30
0.0
  0
XRECORD
  5
BC1
102
{ACAD_REACTORS
330
BA5
102
}
330
BA5
100
AcDbXrecord
 10
0.0
 20
0.0
 30
0.0
  0
XRECORD
  5
BC2
102
{ACAD_REACTORS
330
BA5
102
}
330
BA5
100
AcDbXrecord
 10
0.0
 20
0.0
 30
0.0
  0
XRECORD
  5
BC3
102
{ACAD_REACTORS
330
BA5
102
}
330
BA5
100
AcDbXrecord
 10
0.0
 20
0.0
 30
0.0
  0
XRECORD
  5
BC4
102
{ACAD_REACTORS
330
BA5
102
}
330
BA5
100
AcDbXrecord
 10
0.0
 20
0.0
 30
0.0
  0
XRECORD
  5
BC5
102
{ACAD_REACTORS
330
BA5
102
}
330
BA5
100
AcDbXrecord
 10
0.0
 20
0.0
 30
0.0
  0
ENDSEC
  0
EOF
