  0
SECTION
  2
HEADER
  9
$ACADVER
  1
AC1014
  9
$ACADMAINTVER
 70
     9
  9
$DWGCODEPAGE
  3
ANSI_932
  9
$INSBASE
 10
0.0
 20
0.0
 30
0.0
  9
$EXTMIN
 10
-0.0256331696125471
 20
-0.018126632348185
 30
-0.0000000100021362
  9
$EXTMAX
 10
797.6000995445101
 20
551.6452344470808
 30
0.0000000100021363
  9
$LIMMIN
 10
0.0
 20
0.0
  9
$LIMMAX
 10
840.0
 20
594.0
  9
$ORTHOMODE
 70
     0
  9
$REGENMODE
 70
     1
  9
$FILLMODE
 70
     1
  9
$QTEXTMODE
 70
     0
  9
$MIRRTEXT
 70
     1
  9
$DRAGMODE
 70
     2
  9
$LTSCALE
 40
2.0
  9
$OSMODE
 70
    37
  9
$ATTMODE
 70
     1
  9
$TEXTSIZE
 40
5.0
  9
$TRACEWID
 40
1.0
  9
$TEXTSTYLE
  7
STANDARD
  9
$CLAYER
  8
SUNPOU
  9
$CELTYPE
  6
CONTINUOUS
  9
$CECOLOR
 62
   256
  9
$CELTSCALE
 40
1.0
  9
$DELOBJ
 70
     1
  9
$DISPSILH
 70
     0
  9
$DIMSCALE
 40
1.0
  9
$DIMASZ
 40
7.0
  9
$DIMEXO
 40
6.0
  9
$DIMDLI
 40
14.0
  9
$DIMRND
 40
0.0
  9
$DIMDLE
 40
0.0
  9
$DIMEXE
 40
3.0
  9
$DIMTP
 40
0.0
  9
$DIMTM
 40
0.0
  9
$DIMTXT
 40
6.0
  9
$DIMCEN
 40
150.0
  9
$DIMTSZ
 40
0.0
  9
$DIMTOL
 70
     0
  9
$DIMLIM
 70
     0
  9
$DIMTIH
 70
     0
  9
$DIMTOH
 70
     0
  9
$DIMSE1
 70
     0
  9
$DIMSE2
 70
     0
  9
$DIMTAD
 70
     3
  9
$DIMZIN
 70
     0
  9
$DIMBLK
  1

  9
$DIMASO
 70
     1
  9
$DIMSHO
 70
     1
  9
$DIMPOST
  1

  9
$DIMAPOST
  1

  9
$DIMALT
 70
     0
  9
$DIMALTD
 70
     2
  9
$DIMALTF
 40
25.4
  9
$DIMLFAC
 40
1.0
  9
$DIMTOFL
 70
     1
  9
$DIMTVP
 40
0.0
  9
$DIMTIX
 70
     0
  9
$DIMSOXD
 70
     0
  9
$DIMSAH
 70
     1
  9
$DIMBLK1
  1
OPEN
  9
$DIMBLK2
  1
OPEN
  9
$DIMSTYLE
  2
STANDARD
  9
$DIMCLRD
 70
   256
  9
$DIMCLRE
 70
   256
  9
$DIMCLRT
 70
   256
  9
$DIMTFAC
 40
1.0
  9
$DIMGAP
 40
2.0
  9
$DIMJUST
 70
     0
  9
$DIMSD1
 70
     0
  9
$DIMSD2
 70
     0
  9
$DIMTOLJ
 70
     1
  9
$DIMTZIN
 70
     0
  9
$DIMALTZ
 70
     0
  9
$DIMALTTZ
 70
     0
  9
$DIMFIT
 70
     3
  9
$DIMUPT
 70
     0
  9
$DIMUNIT
 70
     2
  9
$DIMDEC
 70
     0
  9
$DIMTDEC
 70
     0
  9
$DIMALTU
 70
     2
  9
$DIMALTTD
 70
     2
  9
$DIMTXSTY
  7
STANDARD
  9
$DIMAUNIT
 70
     0
  9
$LUNITS
 70
     2
  9
$LUPREC
 70
     4
  9
$SKETCHINC
 40
1.0
  9
$FILLETRAD
 40
2.0
  9
$AUNITS
 70
     0
  9
$AUPREC
 70
     0
  9
$MENU
  1
.
  9
$ELEVATION
 40
0.0
  9
$PELEVATION
 40
0.0
  9
$THICKNESS
 40
0.0
  9
$LIMCHECK
 70
     0
  9
$BLIPMODE
 70
     0
  9
$CHAMFERA
 40
20.0
  9
$CHAMFERB
 40
20.0
  9
$CHAMFERC
 40
40.0
  9
$CHAMFERD
 40
0.0
  9
$SKPOLY
 70
     0
  9
$TDCREATE
 40
2450994.354346065
  9
$TDUPDATE
 40
2454515.375215867
  9
$TDINDWG
 40
0.0494426157
  9
$TDUSRTIMER
 40
0.0494426157
  9
$USRTIMER
 70
     1
  9
$ANGBASE
 50
0.0
  9
$ANGDIR
 70
     0
  9
$PDMODE
 70
     1
  9
$PDSIZE
 40
0.0
  9
$PLINEWID
 40
0.0
  9
$COORDS
 70
     2
  9
$SPLFRAME
 70
     0
  9
$SPLINETYPE
 70
     6
  9
$SPLINESEGS
 70
     8
  9
$ATTDIA
 70
     0
  9
$ATTREQ
 70
     1
  9
$HANDLING
 70
 10241
  9
$HANDSEED
  5
F8E
  9
$SURFTAB1
 70
     6
  9
$SURFTAB2
 70
     6
  9
$SURFTYPE
 70
     6
  9
$SURFU
 70
     6
  9
$SURFV
 70
     6
  9
$UCSNAME
  2

  9
$UCSORG
 10
0.0
 20
0.0
 30
0.0
  9
$UCSXDIR
 10
1.0
 20
0.0
 30
0.0
  9
$UCSYDIR
 10
0.0
 20
1.0
 30
0.0
  9
$PUCSNAME
  2

  9
$PUCSORG
 10
0.0
 20
0.0
 30
0.0
  9
$PUCSXDIR
 10
1.0
 20
0.0
 30
0.0
  9
$PUCSYDIR
 10
0.0
 20
1.0
 30
0.0
  9
$USERI1
 70
     0
  9
$USERI2
 70
     0
  9
$USERI3
 70
     0
  9
$USERI4
 70
     0
  9
$USERI5
 70
     0
  9
$USERR1
 40
0.0
  9
$USERR2
 40
0.0
  9
$USERR3
 40
0.0
  9
$USERR4
 40
0.0
  9
$USERR5
 40
0.0
  9
$WORLDVIEW
 70
     1
  9
$SHADEDGE
 70
     3
  9
$SHADEDIF
 70
    70
  9
$TILEMODE
 70
     1
  9
$MAXACTVP
 70
    16
  9
$PINSBASE
 10
0.0
 20
0.0
 30
0.0
  9
$PLIMCHECK
 70
     0
  9
$PEXTMIN
 10
0.0
 20
0.0
 30
0.0
  9
$PEXTMAX
 10
420.0
 20
297.0
 30
0.0
  9
$PLIMMIN
 10
0.0
 20
0.0
  9
$PLIMMAX
 10
420.0
 20
297.0
  9
$UNITMODE
 70
     0
  9
$VISRETAIN
 70
     0
  9
$PLINEGEN
 70
     0
  9
$PSLTSCALE
 70
     1
  9
$TREEDEPTH
 70
  3020
  9
$PICKSTYLE
 70
     1
  9
$CMLSTYLE
  2
STANDARD
  9
$CMLJUST
 70
     0
  9
$CMLSCALE
 40
1.0
  9
$PROXYGRAPHICS
 70
     1
  9
$MEASUREMENT
 70
     1
  0
ENDSEC
  0
SECTION
  2
CLASSES
  0
CLASS
  1
ACDBDICTIONARYWDFLT
  2
AcDbDictionaryWithDefault
  3
AutoCAD 2000
 90
        0
280
     0
281
     0
  0
CLASS
  1
ACDBPLACEHOLDER
  2
AcDbPlaceHolder
  3
AutoCAD 2000
 90
        0
280
     0
281
     0
  0
CLASS
  1
LAYOUT
  2
AcDbLayout
  3
AutoCAD 2000
 90
        0
280
     0
281
     0
  0
CLASS
  1
LONG_TRANSACTION
  2
AcDbLongTransaction
  3
AutoCAD 2000
 90
        0
280
     0
281
     0
  0
CLASS
  1
LWPOLYLINE
  2
AcDbPolyline
  3
AutoCAD 2000
 90
        0
280
     0
281
     1
  0
CLASS
  1
HATCH
  2
AcDbHatch
  3
AutoCAD 2000
 90
        0
280
     0
281
     1
  0
CLASS
  1
XRECORD
  2
AcDbXrecord
  3
AutoCAD 2000
 90
        0
280
     0
281
     0
  0
CLASS
  1
LONG_TRANSACTION
  2
AcDbLongTransaction
  3
AutoCAD 2000
 90
        0
280
     0
281
     0
  0
CLASS
  1
LWPOLYLINE
  2
AcDbPolyline
  3
AutoCAD 2000
 90
        0
280
     0
281
     1
  0
CLASS
  1
HATCH
  2
AcDbHatch
  3
AutoCAD 2000
 90
        0
280
     0
281
     1
  0
CLASS
  1
XRECORD
  2
AcDbXrecord
  3
AutoCAD 2000
 90
        0
280
     0
281
     0
  0
CLASS
  1
LONG_TRANSACTION
  2
AcDbLongTransaction
  3
AutoCAD 2000
 90
        0
280
     0
281
     0
  0
CLASS
  1
LWPOLYLINE
  2
AcDbPolyline
  3
AutoCAD 2000
 90
        0
280
     0
281
     1
  0
CLASS
  1
HATCH
  2
AcDbHatch
  3
AutoCAD 2000
 90
        0
280
     0
281
     1
  0
CLASS
  1
XRECORD
  2
AcDbXrecord
  3
AutoCAD 2000
 90
        0
280
     0
281
     0
  0
ENDSEC
  0
SECTION
  2
TABLES
  0
TABLE
  2
VPORT
  5
8
330
0
100
AcDbSymbolTable
 70
     2
  0
VPORT
  5
F6A
330
8
100
AcDbSymbolTableRecord
100
AcDbViewportTableRecord
  2
*ACTIVE
 70
     0
 10
0.0
 20
0.0
 11
1.0
 21
1.0
 12
438.6591626060516
 22
306.4313281666342
 13
0.0
 23
0.0
 14
5.0
 24
5.0
 15
0.0
 25
0.0
 16
0.0
 26
0.0
 36
1.0
 17
0.0
 27
0.0
 37
0.0
 40
725.3618872382324
 41
1.570153061224489
 42
50.0
 43
0.0
 44
0.0
 50
0.0
 51
0.0
 71
     0
 72
   100
 73
     1
 74
     0
 75
     0
 76
     0
 77
     0
 78
     0
  0
ENDTAB
  0
TABLE
  2
LTYPE
  5
5
330
0
100
AcDbSymbolTable
 70
     3
  0
LTYPE
  5
14
330
5
100
AcDbSymbolTableRecord
100
AcDbLinetypeTableRecord
  2
BYBLOCK
 70
     0
  3

 72
    65
 73
     0
 40
0.0
  0
LTYPE
  5
15
330
5
100
AcDbSymbolTableRecord
100
AcDbLinetypeTableRecord
  2
BYLAYER
 70
     0
  3

 72
    65
 73
     0
 40
0.0
  0
LTYPE
  5
16
330
5
100
AcDbSymbolTableRecord
100
AcDbLinetypeTableRecord
  2
CONTINUOUS
 70
     0
  3
Solid line
 72
    65
 73
     0
 40
0.0
  0
LTYPE
  5
115
330
5
100
AcDbSymbolTableRecord
100
AcDbLinetypeTableRecord
  2
PHANTOM
 70
     0
  3
______  __  __  ______  __  __  ______  __  __ 
 72
    65
 73
     6
 40
2.5
 49
1.25
 74
     0
 49
-0.25
 74
     0
 49
0.25
 74
     0
 49
-0.25
 74
     0
 49
0.25
 74
     0
 49
-0.25
 74
     0
  0
LTYPE
  5
135
330
5
100
AcDbSymbolTableRecord
100
AcDbLinetypeTableRecord
  2
CENTER
 70
     0
  3
____ _ ____ _ ____ _ ____ _ ____ _ ____ _ ____ 
 72
    65
 73
     4
 40
2.0
 49
1.25
 74
     0
 49
-0.25
 74
     0
 49
0.25
 74
     0
 49
-0.25
 74
     0
  0
ENDTAB
  0
TABLE
  2
LAYER
  5
2
330
0
100
AcDbSymbolTable
 70
     9
  0
LAYER
  5
F
330
2
100
AcDbSymbolTableRecord
100
AcDbLayerTableRecord
  2
0
 70
     0
 62
     7
  6
CONTINUOUS
  0
LAYER
  5
62
330
2
100
AcDbSymbolTableRecord
100
AcDbLayerTableRecord
  2
VIEWPORT
 70
     0
 62
     7
  6
CONTINUOUS
  0
LAYER
  5
65
330
2
100
AcDbSymbolTableRecord
100
AcDbLayerTableRecord
  2
ZUWAKU
 70
     0
 62
     7
  6
CONTINUOUS
  0
LAYER
  5
154
330
2
100
AcDbSymbolTableRecord
100
AcDbLayerTableRecord
  2
NOKITOI
 70
     0
 62
     8
  6
PHANTOM
  0
LAYER
  5
155
330
2
100
AcDbSymbolTableRecord
100
AcDbLayerTableRecord
  2
SUNPOU
 70
     0
 62
     4
  6
CONTINUOUS
  0
LAYER
  5
156
330
2
100
AcDbSymbolTableRecord
100
AcDbLayerTableRecord
  2
SEIHIN
 70
     0
 62
     3
  6
CONTINUOUS
  0
LAYER
  5
157
330
2
100
AcDbSymbolTableRecord
100
AcDbLayerTableRecord
  2
CENTER_L
 70
     0
 62
     1
  6
CENTER
  0
LAYER
  5
66A
330
2
100
AcDbSymbolTableRecord
100
AcDbLayerTableRecord
  2
DEFPOINTS
 70
     0
 62
     7
  6
CONTINUOUS
  0
LAYER
  5
DF3
330
2
100
AcDbSymbolTableRecord
100
AcDbLayerTableRecord
  2
MOJI
 70
     0
 62
     2
  6
CONTINUOUS
  0
ENDTAB
  0
TABLE
  2
STYLE
  5
3
330
0
100
AcDbSymbolTable
 70
     2
  0
STYLE
  5
10
330
3
100
AcDbSymbolTableRecord
100
AcDbTextStyleTableRecord
  2
STANDARD
 70
     0
 40
0.0
 41
1.0
 50
0.0
 71
     0
 42
5.0
  3
TXT
  4
bigfont.shx
  0
STYLE
  5
DF4
330
3
100
AcDbSymbolTableRecord
100
AcDbTextStyleTableRecord
  2
ｽﾀｲﾙ1
 70
     0
 40
0.0
 41
1.0
 50
0.0
 71
     0
 42
2.5
  3
MS PGothic.ttf
  4

1001
ACAD
1000
MS PGothic
1071
    32818
  0
ENDTAB
  0
TABLE
  2
VIEW
  5
6
330
0
100
AcDbSymbolTable
 70
     0
  0
ENDTAB
  0
TABLE
  2
UCS
  5
7
330
0
100
AcDbSymbolTable
 70
     0
  0
ENDTAB
  0
TABLE
  2
APPID
  5
9
330
0
100
AcDbSymbolTable
 70
     1
  0
APPID
  5
11
330
9
100
AcDbSymbolTableRecord
100
AcDbRegAppTableRecord
  2
ACAD
 70
     0
  0
ENDTAB
  0
TABLE
  2
DIMSTYLE
  5
A
330
0
100
AcDbSymbolTable
 70
     1
  0
DIMSTYLE
105
1D
102
{ACAD_REACTORS
330
79F
330
7AC
330
7BB
330
7C8
330
7D7
330
7E6
330
7F5
330
802
330
879
330
8D6
330
CE9
330
CF6
330
D2C
102
}
330
A
100
AcDbSymbolTableRecord
100
AcDbDimStyleTableRecord
  2
STANDARD
 70
     0
  3

  4

  5

  6

  7

 40
1.0
 41
0.18
 42
0.0625
 43
0.38
 44
0.18
 45
0.0
 46
0.0
 47
0.0
 48
0.0
140
0.18
141
0.09
142
0.0
143
25.4
144
1.0
145
0.0
146
1.0
147
0.09
 71
     0
 72
     0
 73
     1
 74
     1
 75
     0
 76
     0
 77
     0
 78
     0
170
     0
171
     2
172
     0
173
     0
174
     0
175
     0
176
     0
177
     0
178
     0
270
     2
271
     4
272
     4
273
     2
274
     2
340
10
275
     0
280
     0
281
     0
282
     0
283
     1
284
     0
285
     0
286
     0
287
     3
288
     0
  0
ENDTAB
  0
TABLE
  2
BLOCK_RECORD
  5
1
330
0
100
AcDbSymbolTable
 70
    15
  0
BLOCK_RECORD
  5
1A
102
{ACAD_XDICTIONARY
360
DB1
102
}
330
1
100
AcDbSymbolTableRecord
100
AcDbBlockTableRecord
  2
*MODEL_SPACE
  0
BLOCK_RECORD
  5
17
102
{ACAD_XDICTIONARY
360
DAF
102
}
330
1
100
AcDbSymbolTableRecord
100
AcDbBlockTableRecord
  2
*PAPER_SPACE
  0
BLOCK_RECORD
  5
6D
330
1
100
AcDbSymbolTableRecord
100
AcDbBlockTableRecord
  2
_OPEN
  0
BLOCK_RECORD
  5
163
330
1
100
AcDbSymbolTableRecord
100
AcDbBlockTableRecord
  2
A$C1305
  0
BLOCK_RECORD
  5
793
330
1
100
AcDbSymbolTableRecord
100
AcDbBlockTableRecord
  2
*D2
  0
BLOCK_RECORD
  5
7A0
330
1
100
AcDbSymbolTableRecord
100
AcDbBlockTableRecord
  2
*D3
  0
BLOCK_RECORD
  5
7AD
330
1
100
AcDbSymbolTableRecord
100
AcDbBlockTableRecord
  2
*D4
  0
BLOCK_RECORD
  5
7BC
330
1
100
AcDbSymbolTableRecord
100
AcDbBlockTableRecord
  2
*D5
  0
BLOCK_RECORD
  5
7CB
330
1
100
AcDbSymbolTableRecord
100
AcDbBlockTableRecord
  2
*D6
  0
BLOCK_RECORD
  5
7D8
330
1
100
AcDbSymbolTableRecord
100
AcDbBlockTableRecord
  2
*D7
  0
BLOCK_RECORD
  5
7E7
330
1
100
AcDbSymbolTableRecord
100
AcDbBlockTableRecord
  2
*D8
  0
BLOCK_RECORD
  5
7F6
330
1
100
AcDbSymbolTableRecord
100
AcDbBlockTableRecord
  2
*D9
  0
BLOCK_RECORD
  5
86D
330
1
100
AcDbSymbolTableRecord
100
AcDbBlockTableRecord
  2
*D10
  0
BLOCK_RECORD
  5
8CA
330
1
100
AcDbSymbolTableRecord
100
AcDbBlockTableRecord
  2
*D11
  0
BLOCK_RECORD
  5
CDD
330
1
100
AcDbSymbolTableRecord
100
AcDbBlockTableRecord
  2
*D12
  0
BLOCK_RECORD
  5
CEA
330
1
100
AcDbSymbolTableRecord
100
AcDbBlockTableRecord
  2
*D13
  0
BLOCK_RECORD
  5
D1E
330
1
100
AcDbSymbolTableRecord
100
AcDbBlockTableRecord
  2
*D14
  0
ENDTAB
  0
ENDSEC
  0
SECTION
  2
BLOCKS
  0
BLOCK
  5
1B
330
1A
100
AcDbEntity
  8
0
100
AcDbBlockBegin
  2
*MODEL_SPACE
 70
     0
 10
0.0
 20
0.0
 30
0.0
  3
*MODEL_SPACE
  1

  0
ENDBLK
  5
1C
330
1A
100
AcDbEntity
  8
0
100
AcDbBlockEnd
  0
BLOCK
  5
18
330
17
100
AcDbEntity
 67
     1
  8
0
100
AcDbBlockBegin
  2
*PAPER_SPACE
 70
     0
 10
0.0
 20
0.0
 30
0.0
  3
*PAPER_SPACE
  1

  0
ENDBLK
  5
19
330
17
100
AcDbEntity
 67
     1
  8
0
100
AcDbBlockEnd
  0
BLOCK
  5
6E
330
6D
100
AcDbEntity
  8
0
100
AcDbBlockBegin
  2
_OPEN
 70
     0
 10
0.0
 20
0.0
 30
0.0
  3
_OPEN
  1

  0
LINE
  5
6F
330
6D
100
AcDbEntity
  8
0
  6
BYBLOCK
 62
     0
100
AcDbLine
 10
-1.0
 20
0.1666666666666666
 30
0.0
 11
0.0
 21
0.0
 31
0.0
  0
LINE
  5
70
330
6D
100
AcDbEntity
  8
0
  6
BYBLOCK
 62
     0
100
AcDbLine
 10
0.0
 20
0.0
 30
0.0
 11
-1.0
 21
-0.1666666666666666
 31
0.0
  0
LINE
  5
71
330
6D
100
AcDbEntity
  8
0
  6
BYBLOCK
 62
     0
100
AcDbLine
 10
0.0
 20
0.0
 30
0.0
 11
-1.0
 21
0.0
 31
0.0
  0
ENDBLK
  5
72
330
6D
100
AcDbEntity
  8
0
100
AcDbBlockEnd
  0
BLOCK
  5
1AB
330
163
100
AcDbEntity
  8
0
100
AcDbBlockBegin
  2
A$C1305
 70
     0
 10
0.0
 20
0.0
 30
0.0
  3
A$C1305
  1

  0
LINE
  5
164
330
163
100
AcDbEntity
  8
NOKITOI
  6
PHANTOM
 62
     8
 48
5.0
100
AcDbLine
 10
29.18435908443393
 20
10.10187063730222
 30
0.0
 11
19.27365908443391
 21
10.10187063730222
 31
0.0
  0
LINE
  5
165
330
163
100
AcDbEntity
  8
NOKITOI
  6
PHANTOM
 62
     8
 48
5.0
100
AcDbLine
 10
90.2981590844339
 20
0.1120706373022813
 30
0.0
 11
24.06755908443392
 21
0.1121706373021425
 31
0.0
  0
LINE
  5
166
330
163
100
AcDbEntity
  8
NOKITOI
  6
PHANTOM
 62
     8
 48
5.0
100
AcDbLine
 10
24.06755908443392
 20
0.1121706373021425
 30
0.0
 11
90.2981590844339
 21
0.1120706373022813
 31
0.0
  0
LINE
  5
167
330
163
100
AcDbEntity
  8
NOKITOI
  6
PHANTOM
 62
     8
 48
5.0
100
AcDbLine
 10
13.05735908443387
 20
12.22087063730214
 30
0.0
 11
7.218759084433713
 21
39.95217063730228
 31
0.0
  0
LINE
  5
168
330
163
100
AcDbEntity
  8
NOKITOI
  6
PHANTOM
 62
     8
 48
5.0
100
AcDbLine
 10
14.16595908443378
 20
13.23377063730208
 30
0.0
 11
8.234959084433853
 21
41.4036706373023
 31
0.0
  0
ARC
  5
169
330
163
100
AcDbEntity
  8
NOKITOI
  6
PHANTOM
 62
     8
 48
5.0
100
AcDbCircle
 10
15.13957896620524
 20
13.43874830022218
 30
0.0
 40
0.995060928010462
100
AcDbArc
 50
191.8877567214145
 51
251.4524867922934
  0
ARC
  5
16A
330
163
100
AcDbEntity
  8
NOKITOI
  6
PHANTOM
 62
     8
 48
5.0
100
AcDbCircle
 10
10.29733292322475
 20
-0.9941694721817384
 30
0.0
 40
14.22848866365036
100
AcDbArc
 50
51.52529185494254
 51
71.45345265407107
  0
ARC
  5
16B
330
163
100
AcDbEntity
  8
NOKITOI
  6
PHANTOM
 62
     8
 48
5.0
100
AcDbCircle
 10
10.29726615422066
 20
-0.9941373355915743
 30
0.0
 40
12.93471022655885
100
AcDbArc
 50
8.676219579622015
 51
74.45245455808978
  0
ARC
  5
16C
330
163
100
AcDbEntity
  8
NOKITOI
  6
PHANTOM
 62
     8
 48
5.0
100
AcDbCircle
 10
24.06756669845151
 20
1.107164097058216
 30
0.0
 40
0.9949934597852239
100
AcDbArc
 50
188.67611256506
 51
269.9995615538235
  0
ARC
  5
16D
330
163
100
AcDbEntity
  8
NOKITOI
  6
PHANTOM
 62
     8
 48
5.0
100
AcDbCircle
 10
19.27366239679292
 20
10.30086948151677
 30
0.0
 40
0.1989988442421132
100
AcDbArc
 50
231.5280949042412
 51
269.9990463050557
  0
ARC
  5
16E
330
163
100
AcDbEntity
  8
NOKITOI
  6
PHANTOM
 62
     8
 48
5.0
100
AcDbCircle
 10
14.03099910882133
 20
12.42582797307631
 30
0.0
 40
0.9949785960395137
100
AcDbArc
 50
191.8875585738773
 51
254.4495841050105
  0
LINE
  5
16F
330
163
100
AcDbEntity
  8
NOKITOI
  6
PHANTOM
 62
     8
 48
5.0
100
AcDbLine
 10
27.88425908443378
 20
1.91217063730221
 30
0.0
 11
27.88425908443378
 21
8.439470637302292
 31
0.0
  0
LINE
  5
170
330
163
100
AcDbEntity
  8
NOKITOI
  6
PHANTOM
 62
     8
 48
5.0
100
AcDbLine
 10
28.37925908443378
 20
9.296770637302074
 30
0.0
 11
27.88425908443378
 21
8.439470637302292
 31
0.0
  0
LINE
  5
171
330
163
100
AcDbEntity
  8
NOKITOI
  6
PHANTOM
 62
     8
 48
5.0
100
AcDbLine
 10
28.37925908443378
 20
9.296770637302074
 30
0.0
 11
27.52195908443377
 21
8.801870637302272
 31
0.0
  0
ARC
  5
172
330
163
100
AcDbEntity
  8
NOKITOI
  6
PHANTOM
 62
     8
 48
5.0
100
AcDbCircle
 10
21.30106274373702
 20
8.501878629181817
 30
0.0
 40
0.2999920081427447
100
AcDbArc
 50
90.00069889403098
 51
220.79672841758
  0
ARC
  5
173
330
163
100
AcDbEntity
  8
NOKITOI
  6
PHANTOM
 62
     8
 48
5.0
100
AcDbCircle
 10
10.29726428144715
 20
-0.9941399784659097
 30
0.0
 40
14.23472333170272
100
AcDbArc
 50
11.37541821407357
 51
40.79334907830751
  0
LINE
  5
174
330
163
100
AcDbEntity
  8
NOKITOI
  6
PHANTOM
 62
     8
 48
5.0
100
AcDbLine
 10
27.52195908443377
 20
8.801870637302272
 30
0.0
 11
21.30105908443386
 21
8.801870637302272
 31
0.0
  0
LINE
  5
175
330
163
100
AcDbEntity
  8
NOKITOI
  6
PHANTOM
 62
     8
 48
5.0
100
AcDbLine
 10
24.74245908443378
 20
1.412170637302097
 30
0.0
 11
27.38425908443378
 21
1.412170637302097
 31
0.0
  0
ARC
  5
176
330
163
100
AcDbEntity
  8
NOKITOI
  6
PHANTOM
 62
     8
 48
5.0
100
AcDbCircle
 10
24.74253604330567
 20
1.912189501590432
 30
0.0
 40
0.5000188648192144
100
AcDbArc
 50
191.3867288554411
 51
270.0026402191985
  0
ARC
  5
177
330
163
100
AcDbEntity
  8
NOKITOI
  6
PHANTOM
 62
     8
 48
5.0
100
AcDbCircle
 10
27.38425908443366
 20
1.91217063730221
 30
0.0
 40
0.5000000000000569
100
AcDbArc
 50
270.0000000000065
 51
0.0000000000065138
  0
LINE
  5
178
330
163
100
AcDbEntity
  8
NOKITOI
  6
PHANTOM
 62
     8
 48
5.0
100
AcDbLine
 10
0.1808590844339051
 20
41.10517063730208
 30
0.0
 11
0.1808590844339051
 21
49.11467063730208
 31
0.0
  0
ARC
  5
179
330
163
100
AcDbEntity
  8
NOKITOI
  6
PHANTOM
 62
     8
 48
5.0
100
AcDbCircle
 10
3.6160590844338
 20
47.32377063730223
 30
0.0
 40
1.492399999999918
100
AcDbArc
 50
0.0000000000021823
 51
90.00000000000218
  0
ARC
  5
17A
330
163
100
AcDbEntity
  8
NOKITOI
  6
PHANTOM
 62
     8
 48
5.0
100
AcDbCircle
 10
2.966809084433748
 20
47.32372063730212
 30
0.0
 40
1.49245000083754
100
AcDbArc
 50
89.99808047909008
 51
179.99808047909
  0
LINE
  5
17B
330
163
100
AcDbEntity
  8
NOKITOI
  6
PHANTOM
 62
     8
 48
5.0
100
AcDbLine
 10
6.401959084433769
 20
49.11467063730208
 30
0.0
 11
6.401959084433769
 21
44.90987063730222
 31
0.0
  0
LINE
  5
17C
330
163
100
AcDbEntity
  8
NOKITOI
  6
PHANTOM
 62
     8
 48
5.0
100
AcDbLine
 10
3.464359084433908
 20
41.4036706373023
 30
0.0
 11
8.234959084433853
 21
41.4036706373023
 31
0.0
  0
LINE
  5
17D
330
163
100
AcDbEntity
  8
NOKITOI
  6
PHANTOM
 62
     8
 48
5.0
100
AcDbLine
 10
7.024059084433929
 20
40.11017063730207
 30
0.0
 11
1.175859084433909
 21
40.11017063730207
 31
0.0
  0
ARC
  5
17E
330
163
100
AcDbEntity
  8
NOKITOI
  6
PHANTOM
 62
     8
 48
5.0
100
AcDbCircle
 10
3.464309084433807
 20
43.39362063730232
 30
0.0
 40
1.989950000628206
100
AcDbArc
 50
180.0014396286234
 51
270.0014396286234
  0
LINE
  5
17F
330
163
100
AcDbEntity
  8
NOKITOI
  6
PHANTOM
 62
     8
 48
5.0
100
AcDbLine
 10
1.474359084433785
 20
47.32377063730223
 30
0.0
 11
1.474359084433785
 21
43.39357063730221
 31
0.0
  0
ARC
  5
180
330
163
100
AcDbEntity
  8
NOKITOI
  6
PHANTOM
 62
     8
 48
5.0
100
AcDbCircle
 10
1.175859084433909
 20
41.10517063730208
 30
0.0
 40
0.9950000000000045
100
AcDbArc
 50
180.0
 51
270.0
  0
LINE
  5
181
330
163
100
AcDbEntity
  8
NOKITOI
  6
PHANTOM
 62
     8
 48
5.0
100
AcDbLine
 10
5.108559084433863
 20
44.90987063730222
 30
0.0
 11
5.108559084433863
 21
47.32377063730223
 31
0.0
  0
LINE
  5
182
330
163
100
AcDbEntity
  8
NOKITOI
  6
PHANTOM
 62
     8
 48
5.0
100
AcDbLine
 10
6.401959084433769
 20
44.90987063730222
 30
0.0
 11
5.108559084433863
 21
44.90987063730222
 31
0.0
  0
ARC
  5
183
330
163
100
AcDbEntity
  8
NOKITOI
  6
PHANTOM
 62
     8
 48
5.0
100
AcDbCircle
 10
7.024040641819624
 20
39.91118560073897
 30
0.0
 40
0.1989850374177657
100
AcDbArc
 50
11.88631382809314
 51
89.99468963106556
  0
LINE
  5
184
330
163
100
AcDbEntity
  8
NOKITOI
  6
PHANTOM
 62
     8
 48
5.0
100
AcDbLine
 10
1.175859084433909
 20
50.1096706373022
 30
0.0
 11
5.407059084433853
 21
50.1096706373022
 31
0.0
  0
ARC
  5
185
330
163
100
AcDbEntity
  8
NOKITOI
  6
PHANTOM
 62
     8
 48
5.0
100
AcDbCircle
 10
1.175859084433909
 20
49.1146706373022
 30
0.0
 40
0.9950000000000613
100
AcDbArc
 50
90.00000000000328
 51
180.0000000000032
  0
LINE
  5
186
330
163
100
AcDbEntity
  8
NOKITOI
  6
PHANTOM
 62
     8
 48
5.0
100
AcDbLine
 10
3.6160590844338
 20
48.81617063730209
 30
0.0
 11
2.966859084433849
 21
48.81617063730209
 31
0.0
  0
ARC
  5
187
330
163
100
AcDbEntity
  8
NOKITOI
  6
PHANTOM
 62
     8
 48
5.0
100
AcDbCircle
 10
5.407009084433752
 20
49.11472063730224
 30
0.0
 40
0.9949500012563332
100
AcDbArc
 50
359.9971206704048
 51
89.99712067040489
  0
LINE
  5
188
330
163
100
AcDbEntity
  8
NOKITOI
  6
PHANTOM
 62
     8
 48
5.0
100
AcDbLine
 10
85.18155908443374
 20
10.10157063730207
 30
0.0
 11
95.16205908443373
 21
10.10147063730221
 31
0.0
  0
ARC
  5
189
330
163
100
AcDbEntity
  8
NOKITOI
  6
PHANTOM
 62
     8
 48
5.0
100
AcDbCircle
 10
104.068453551022
 20
-0.9942356029631582
 30
0.0
 40
12.93461262833301
100
AcDbArc
 50
105.5476727870198
 51
171.3237222126366
  0
ARC
  5
18A
330
163
100
AcDbEntity
  8
NOKITOI
  6
PHANTOM
 62
     8
 48
5.0
100
AcDbCircle
 10
104.0683479281129
 20
-0.994141944171929
 30
0.0
 40
12.93449408578155
100
AcDbArc
 50
105.5473332353544
 51
171.3240617643019
  0
LINE
  5
18B
330
163
100
AcDbEntity
  8
NOKITOI
  6
PHANTOM
 62
     8
 48
5.0
100
AcDbLine
 10
29.38325908443392
 20
1.405570637302162
 30
0.0
 11
84.98245908443392
 21
1.405470637302073
 31
0.0
  0
ARC
  5
18C
330
163
100
AcDbEntity
  8
NOKITOI
  6
PHANTOM
 62
     8
 48
5.0
100
AcDbCircle
 10
29.38325908443392
 20
1.604570637302231
 30
0.0
 40
0.1990000000000691
100
AcDbArc
 50
179.9999999999836
 51
269.9999999999836
  0
LINE
  5
18D
330
163
100
AcDbEntity
  8
NOKITOI
  6
PHANTOM
 62
     8
 48
5.0
100
AcDbLine
 10
29.18425908443385
 20
1.604570637302231
 30
0.0
 11
29.18435908443393
 21
10.10187063730222
 31
0.0
  0
LINE
  5
18E
330
163
100
AcDbEntity
  8
NOKITOI
  6
PHANTOM
 62
     8
 48
5.0
100
AcDbLine
 10
80.98245908443391
 20
1.405470637302073
 30
0.0
 11
66.22805908443377
 21
1.405470637302073
 31
0.0
  0
ARC
  5
18F
330
163
100
AcDbEntity
  8
NOKITOI
  6
PHANTOM
 62
     8
 48
5.0
100
AcDbCircle
 10
90.2982090125298
 20
1.107113524900853
 30
0.0
 40
0.9950428888512103
100
AcDbArc
 50
269.9971250795227
 51
351.3214426795068
  0
LINE
  5
190
330
163
100
AcDbEntity
  8
NOKITOI
  6
PHANTOM
 62
     8
 48
5.0
100
AcDbLine
 10
85.98655908443367
 20
9.296470637302149
 30
0.0
 11
86.4815590844339
 21
8.43917063730214
 31
0.0
  0
LINE
  5
191
330
163
100
AcDbEntity
  8
NOKITOI
  6
PHANTOM
 62
     8
 48
5.0
100
AcDbLine
 10
85.98655908443367
 20
9.296470637302149
 30
0.0
 11
86.84385908443392
 21
8.801470637302145
 31
0.0
  0
ARC
  5
192
330
163
100
AcDbEntity
  8
NOKITOI
  6
PHANTOM
 62
     8
 48
5.0
100
AcDbCircle
 10
84.98240908443381
 20
1.604520637302186
 30
0.0
 40
0.1990500062799141
100
AcDbArc
 50
270.0143923080611
 51
0.014392308061115
  0
LINE
  5
193
330
163
100
AcDbEntity
  8
NOKITOI
  6
PHANTOM
 62
     8
 48
5.0
100
AcDbLine
 10
85.18145908443386
 20
1.604570637302231
 30
0.0
 11
85.18155908443374
 21
10.10157063730207
 31
0.0
  0
LINE
  5
194
330
163
100
AcDbEntity
  8
NOKITOI
  6
PHANTOM
 62
     8
 48
5.0
100
AcDbLine
 10
86.4815590844339
 20
8.43917063730214
 30
0.0
 11
86.4815590844339
 21
1.912070637302122
 31
0.0
  0
ARC
  5
195
330
163
100
AcDbEntity
  8
NOKITOI
  6
PHANTOM
 62
     8
 48
5.0
100
AcDbCircle
 10
104.0684175391246
 20
-0.9943142272541081
 30
0.0
 40
14.23462403148678
100
AcDbArc
 50
139.2075062369005
 51
168.6237859483839
  0
LINE
  5
196
330
163
100
AcDbEntity
  8
NOKITOI
  6
PHANTOM
 62
     8
 48
5.0
100
AcDbLine
 10
93.06445908443368
 20
8.801470637302145
 30
0.0
 11
86.84385908443392
 21
8.801470637302145
 31
0.0
  0
ARC
  5
197
330
163
100
AcDbEntity
  8
NOKITOI
  6
PHANTOM
 62
     8
 48
5.0
100
AcDbCircle
 10
93.06447276228515
 20
8.501440773608294
 30
0.0
 40
0.3000298640056128
100
AcDbArc
 50
319.2190584222776
 51
90.00261201719956
  0
LINE
  5
198
330
163
100
AcDbEntity
  8
NOKITOI
  6
PHANTOM
 62
     8
 48
5.0
100
AcDbLine
 10
89.62325908443393
 20
1.412070637302235
 30
0.0
 11
86.98155908443391
 21
1.412070637302235
 31
0.0
  0
ARC
  5
199
330
163
100
AcDbEntity
  8
NOKITOI
  6
PHANTOM
 62
     8
 48
5.0
100
AcDbCircle
 10
86.9815590844338
 20
1.912070637302235
 30
0.0
 40
0.4999999999999432
100
AcDbArc
 50
180.0000000000065
 51
270.0000000000065
  0
ARC
  5
19A
330
163
100
AcDbEntity
  8
NOKITOI
  6
PHANTOM
 62
     8
 48
5.0
100
AcDbCircle
 10
89.62328212556213
 20
1.912089501590457
 30
0.0
 40
0.5000188648190603
100
AcDbArc
 50
269.9973597808039
 51
348.6132711445602
  0
LINE
  5
19B
330
163
100
AcDbEntity
  8
NOKITOI
  6
PHANTOM
 62
     8
 48
5.0
100
AcDbLine
 10
100.1997590844339
 20
13.23317063730223
 30
0.0
 11
105.6547590844337
 21
39.14207063730214
 31
0.0
  0
LINE
  5
19C
330
163
100
AcDbEntity
  8
NOKITOI
  6
PHANTOM
 62
     8
 48
5.0
100
AcDbLine
 10
101.3084590844339
 20
12.22067063730207
 30
0.0
 11
107.1471590844337
 21
39.95207063730208
 31
0.0
  0
ARC
  5
19D
330
163
100
AcDbEntity
  8
NOKITOI
  6
PHANTOM
 62
     8
 48
5.0
100
AcDbCircle
 10
99.22620265398496
 20
13.43821958907108
 30
0.0
 40
0.9950135261271753
100
AcDbArc
 50
288.5445751594487
 51
348.1074736523478
  0
ARC
  5
19E
330
163
100
AcDbEntity
  8
NOKITOI
  6
PHANTOM
 62
     8
 48
5.0
100
AcDbCircle
 10
104.0684735879824
 20
-0.9942214385093848
 30
0.0
 40
14.22809199964113
100
AcDbArc
 50
108.5474584936555
 51
128.7537062451648
  0
ARC
  5
19F
330
163
100
AcDbEntity
  8
NOKITOI
  6
PHANTOM
 62
     8
 48
5.0
100
AcDbCircle
 10
100.334833421286
 20
12.42574988868966
 30
0.0
 40
0.9949690575286499
100
AcDbArc
 50
285.5437330810338
 51
348.1110361155302
  0
LINE
  5
1A0
330
163
100
AcDbEntity
  8
NOKITOI
  6
PHANTOM
 62
     8
 48
5.0
100
AcDbLine
 10
112.8850590844339
 20
41.40997063730208
 30
0.0
 11
107.4607590844339
 21
41.41007063730216
 31
0.0
  0
LINE
  5
1A1
330
163
100
AcDbEntity
  8
NOKITOI
  6
PHANTOM
 62
     8
 48
5.0
100
AcDbLine
 10
113.1900590844338
 20
50.10957063730223
 30
0.0
 11
107.9863590844338
 21
50.10947063730213
 31
0.0
  0
LINE
  5
1A2
330
163
100
AcDbEntity
  8
NOKITOI
  6
PHANTOM
 62
     8
 48
5.0
100
AcDbLine
 10
112.8850590844339
 20
48.80947063730229
 30
0.0
 11
109.0186590844336
 21
48.80947063730229
 31
0.0
  0
LINE
  5
1A3
330
163
100
AcDbEntity
  8
NOKITOI
  6
PHANTOM
 62
     8
 48
5.0
100
AcDbLine
 10
107.3418590844337
 20
40.10997063730224
 30
0.0
 11
113.1900590844338
 21
40.10997063730224
 31
0.0
  0
LINE
  5
1A4
330
163
100
AcDbEntity
  8
NOKITOI
  6
PHANTOM
 62
     8
 48
5.0
100
AcDbLine
 10
109.0186590844336
 20
48.80947063730229
 30
0.0
 11
107.4607590844339
 21
41.41007063730216
 31
0.0
  0
LINE
  5
1A5
330
163
100
AcDbEntity
  8
NOKITOI
  6
PHANTOM
 62
     8
 48
5.0
100
AcDbLine
 10
105.6547590844337
 20
39.14207063730214
 30
0.0
 11
107.9638590844336
 21
50.10947063730213
 31
0.0
  0
ARC
  5
1A6
330
163
100
AcDbEntity
  8
NOKITOI
  6
PHANTOM
 62
     8
 48
5.0
100
AcDbCircle
 10
107.341877527048
 20
39.91108560073894
 30
0.0
 40
0.1989850374179911
100
AcDbArc
 50
90.00531036897127
 51
168.1136861719432
  0
LINE
  5
1A7
330
163
100
AcDbEntity
  8
NOKITOI
  6
PHANTOM
 62
     8
 48
5.0
100
AcDbLine
 10
114.1850590844338
 20
41.10497063730213
 30
0.0
 11
114.1850590844338
 21
49.1145706373021
 31
0.0
  0
LINE
  5
1A8
330
163
100
AcDbEntity
  8
NOKITOI
  6
PHANTOM
 62
     8
 48
5.0
100
AcDbLine
 10
112.8850590844339
 20
41.40997063730208
 30
0.0
 11
112.8850590844339
 21
48.80947063730229
 31
0.0
  0
ARC
  5
1A9
330
163
100
AcDbEntity
  8
NOKITOI
  6
PHANTOM
 62
     8
 48
5.0
100
AcDbCircle
 10
113.1900590844339
 20
41.10497063730218
 30
0.0
 40
0.9949999999999192
100
AcDbArc
 50
269.9999999999951
 51
359.9999999999951
  0
ARC
  5
1AA
330
163
100
AcDbEntity
  8
NOKITOI
  6
PHANTOM
 62
     8
 48
5.0
100
AcDbCircle
 10
113.1900590844338
 20
49.11457063730222
 30
0.0
 40
0.9950000000000613
100
AcDbArc
 50
359.9999999999967
 51
89.99999999999673
  0
ENDBLK
  5
1AC
330
163
100
AcDbEntity
  8
0
100
AcDbBlockEnd
  0
BLOCK
  5
C6D
330
793
100
AcDbEntity
  8
0
100
AcDbBlockBegin
  2
*D2
 70
     1
 10
0.0
 20
0.0
 30
0.0
  3
*D2
  1

  0
LINE
  5
C6E
330
793
100
AcDbEntity
  8
0
  6
BYBLOCK
 62
     4
100
AcDbLine
 10
621.5865755039847
 20
292.3126674152874
 30
0.0
 11
614.7873686849832
 21
309.3119832303197
 31
0.0
  0
LINE
  5
C6F
330
793
100
AcDbEntity
  8
0
  6
BYBLOCK
 62
     4
100
AcDbLine
 10
577.4741830748986
 20
274.6690585389179
 30
0.0
 11
570.6749762558971
 21
291.6683743539503
 31
0.0
  0
LINE
  5
C70
330
793
100
AcDbEntity
  8
0
  6
BYBLOCK
 62
     4
100
AcDbLine
 10
609.4020620048212
 20
303.9269602999504
 30
0.0
 11
578.2884802262763
 21
291.4824784340877
 31
0.0
  0
INSERT
  5
C71
330
793
100
AcDbEntity
  8
0
  6
BYBLOCK
 62
     4
100
AcDbBlockReference
  2
_OPEN
 10
615.9014673300918
 20
306.5265238052037
 30
0.0
 41
7.0
 42
7.0
 43
7.0
 50
21.79989999999969
  0
INSERT
  5
C72
330
793
100
AcDbEntity
  8
0
  6
BYBLOCK
 62
     4
100
AcDbBlockReference
  2
_OPEN
 10
571.7890749010057
 20
288.8829149288344
 30
0.0
 41
7.0
 42
7.0
 43
7.0
 50
201.7998999999997
  0
MTEXT
  5
C73
330
793
100
AcDbEntity
  8
0
  6
BYBLOCK
 62
     4
100
AcDbMText
 10
591.9884400403677
 20
302.3471517422123
 30
0.0
 40
6.0
 41
0.0
 71
     5
 72
     5
  1
\A1;48
 11
0.9284864750386477
 21
0.371366215036191
 31
0.0
1001
ACAD
1000
MTEXTBEGIN
1070
    73
1070
     1
1070
    44
1040
1.0
1070
    74
1070
     0
1000
MTEXTEND
1000
MTEXTBEGIN
1070
    73
1070
     1
1070
    44
1040
1.0
1070
    74
1070
     0
1000
MTEXTEND
1000
MTEXTBEGIN
1070
    73
1070
     1
1070
    44
1040
1.0
1070
    74
1070
     0
1000
MTEXTEND
  0
POINT
  5
C74
330
793
100
AcDbEntity
  8
DEFPOINTS
  6
BYBLOCK
 62
     0
100
AcDbPoint
 10
623.8147727942017
 20
286.7417485650555
 30
0.0
  0
POINT
  5
C75
330
793
100
AcDbEntity
  8
DEFPOINTS
  6
BYBLOCK
 62
     0
100
AcDbPoint
 10
579.7023803651158
 20
269.098139688686
 30
0.0
  0
POINT
  5
C76
330
793
100
AcDbEntity
  8
DEFPOINTS
  6
BYBLOCK
 62
     0
100
AcDbPoint
 10
571.7890749010057
 20
288.8829149288344
 30
0.0
  0
ENDBLK
  5
C77
330
793
100
AcDbEntity
  8
0
100
AcDbBlockEnd
  0
BLOCK
  5
C78
330
7A0
100
AcDbEntity
  8
0
100
AcDbBlockBegin
  2
*D3
 70
     1
 10
0.0
 20
0.0
 30
0.0
  3
*D3
  1

  0
LINE
  5
C79
330
7A0
100
AcDbEntity
  8
0
  6
BYBLOCK
 62
     4
100
AcDbLine
 10
626.2290078791782
 20
294.1694984904681
 30
0.0
 11
613.1958435614603
 21
326.7548988473048
 31
0.0
  0
LINE
  5
C7A
330
7A0
100
AcDbEntity
  8
0
  6
BYBLOCK
 62
     4
100
AcDbLine
 10
572.8317506997058
 20
272.8122274637369
 30
0.0
 11
559.7985863819879
 21
305.3976278205737
 31
0.0
  0
LINE
  5
C7B
330
7A0
100
AcDbEntity
  8
0
  6
BYBLOCK
 62
     4
100
AcDbLine
 10
607.8105368812984
 20
321.3698759169356
 30
0.0
 11
567.412090352367
 21
305.2117319007111
 31
0.0
  0
INSERT
  5
C7C
330
7A0
100
AcDbEntity
  8
0
  6
BYBLOCK
 62
     4
100
AcDbBlockReference
  2
_OPEN
 10
614.3099422065689
 20
323.9694394221888
 30
0.0
 41
7.0
 42
7.0
 43
7.0
 50
21.79989999999961
  0
INSERT
  5
C7D
330
7A0
100
AcDbEntity
  8
0
  6
BYBLOCK
 62
     4
100
AcDbBlockReference
  2
_OPEN
 10
560.9126850270964
 20
302.6121683954578
 30
0.0
 41
7.0
 42
7.0
 43
7.0
 50
201.7998999999995
  0
MTEXT
  5
C7E
330
7A0
100
AcDbEntity
  8
0
  6
BYBLOCK
 62
     4
100
AcDbMText
 10
585.7544825416518
 20
317.9332362840165
 30
0.0
 40
6.0
 41
0.0
 71
     5
 72
     5
  1
\A1;58
 11
0.9284864750386487
 21
0.3713662150361885
 31
0.0
1001
ACAD
1000
MTEXTBEGIN
1070
    73
1070
     1
1070
    44
1040
1.0
1070
    74
1070
     0
1000
MTEXTEND
1000
MTEXTBEGIN
1070
    73
1070
     1
1070
    44
1040
1.0
1070
    74
1070
     0
1000
MTEXTEND
1000
MTEXTBEGIN
1070
    73
1070
     1
1070
    44
1040
1.0
1070
    74
1070
     0
1000
MTEXTEND
  0
POINT
  5
C7F
330
7A0
100
AcDbEntity
  8
DEFPOINTS
  6
BYBLOCK
 62
     0
100
AcDbPoint
 10
628.4572051693953
 20
288.5985796402363
 30
0.0
  0
POINT
  5
C80
330
7A0
100
AcDbEntity
  8
DEFPOINTS
  6
BYBLOCK
 62
     0
100
AcDbPoint
 10
575.0599479899229
 20
267.2413086135051
 30
0.0
  0
POINT
  5
C81
330
7A0
100
AcDbEntity
  8
DEFPOINTS
  6
BYBLOCK
 62
     0
100
AcDbPoint
 10
560.9126850270964
 20
302.6121683954578
 30
0.0
  0
ENDBLK
  5
C82
330
7A0
100
AcDbEntity
  8
0
100
AcDbBlockEnd
  0
BLOCK
  5
C8E
330
7AD
100
AcDbEntity
  8
0
100
AcDbBlockBegin
  2
*D4
 70
     1
 10
0.0
 20
0.0
 30
0.0
  3
*D4
  1

  0
LINE
  5
C8F
330
7AD
100
AcDbEntity
  8
0
  6
BYBLOCK
 62
     4
100
AcDbLine
 10
571.3458602148717
 20
260.3706789480948
 30
0.0
 11
553.859168463105
 21
253.3765366488351
 31
0.0
  0
LINE
  5
C90
330
7AD
100
AcDbEntity
  8
0
  6
BYBLOCK
 62
     4
100
AcDbLine
 10
578.7731845155954
 20
241.8009494473219
 30
0.0
 11
561.2864927638289
 21
234.8068071480623
 31
0.0
  0
LINE
  5
C91
330
7AD
100
AcDbEntity
  8
0
  6
BYBLOCK
 62
     4
100
AcDbLine
 10
554.0450643829678
 20
260.9900406192142
 30
0.0
 11
551.4455008777144
 21
267.4894459444847
 31
0.0
  0
LINE
  5
C92
330
7AD
100
AcDbEntity
  8
0
  6
BYBLOCK
 62
     4
100
AcDbLine
 10
566.6715156941982
 20
229.4215004679004
 30
0.0
 11
569.2710791994516
 21
222.9220951426298
 31
0.0
  0
LINE
  5
C93
330
7AD
100
AcDbEntity
  8
0
  6
BYBLOCK
 62
     4
100
AcDbLine
 10
556.644627888221
 20
254.4906352939437
 30
0.0
 11
564.0719521889449
 21
235.9209057931709
 31
0.0
  0
INSERT
  5
C94
330
7AD
100
AcDbEntity
  8
0
  6
BYBLOCK
 62
     4
100
AcDbBlockReference
  2
_OPEN
 10
556.644627888221
 20
254.4906352939437
 30
0.0
 41
7.0
 42
7.0
 43
7.0
 50
291.7998999999999
  0
INSERT
  5
C95
330
7AD
100
AcDbEntity
  8
0
  6
BYBLOCK
 62
     4
100
AcDbBlockReference
  2
_OPEN
 10
564.0719521889449
 20
235.9209057931709
 30
0.0
 41
7.0
 42
7.0
 43
7.0
 50
111.7998999999999
  0
MTEXT
  5
C96
330
7AD
100
AcDbEntity
  8
0
  6
BYBLOCK
 62
     4
100
AcDbMText
 10
565.0007224137762
 20
247.0626016187383
 30
0.0
 40
6.0
 41
0.0
 71
     5
 72
     5
  1
\A1;20
 11
0.3713662150361943
 21
-0.9284864750386464
 31
0.0
1001
ACAD
1000
MTEXTBEGIN
1070
    73
1070
     1
1070
    44
1040
1.0
1070
    74
1070
     0
1000
MTEXTEND
1000
MTEXTBEGIN
1070
    73
1070
     1
1070
    44
1040
1.0
1070
    74
1070
     0
1000
MTEXTEND
1000
MTEXTBEGIN
1070
    73
1070
     1
1070
    44
1040
1.0
1070
    74
1070
     0
1000
MTEXTEND
  0
POINT
  5
C97
330
7AD
100
AcDbEntity
  8
DEFPOINTS
  6
BYBLOCK
 62
     0
100
AcDbPoint
 10
576.9167790651037
 20
262.5988762383119
 30
0.0
  0
POINT
  5
C98
330
7AD
100
AcDbEntity
  8
DEFPOINTS
  6
BYBLOCK
 62
     0
100
AcDbPoint
 10
584.3441033658274
 20
244.0291467375391
 30
0.0
  0
POINT
  5
C99
330
7AD
100
AcDbEntity
  8
DEFPOINTS
  6
BYBLOCK
 62
     0
100
AcDbPoint
 10
564.0719521889449
 20
235.9209057931709
 30
0.0
  0
ENDBLK
  5
C9A
330
7AD
100
AcDbEntity
  8
0
100
AcDbBlockEnd
  0
BLOCK
  5
C83
330
7BC
100
AcDbEntity
  8
0
100
AcDbBlockBegin
  2
*D5
 70
     1
 10
0.0
 20
0.0
 30
0.0
  3
*D5
  1

  0
LINE
  5
C84
330
7BC
100
AcDbEntity
  8
0
  6
BYBLOCK
 62
     4
100
AcDbLine
 10
569.4890291396908
 20
265.0131113232879
 30
0.0
 11
535.5163013168708
 21
251.4250584165505
 31
0.0
  0
LINE
  5
C85
330
7BC
100
AcDbEntity
  8
0
  6
BYBLOCK
 62
     4
100
AcDbLine
 10
580.6300155907766
 20
237.1585170721286
 30
0.0
 11
546.6572877679565
 21
223.5704641653911
 31
0.0
  0
LINE
  5
C86
330
7BC
100
AcDbEntity
  8
0
  6
BYBLOCK
 62
     4
100
AcDbLine
 10
540.9013242472402
 20
246.0397517363885
 30
0.0
 11
546.8431836878192
 21
231.1839681357702
 31
0.0
  0
INSERT
  5
C87
330
7BC
100
AcDbEntity
  8
0
  6
BYBLOCK
 62
     4
100
AcDbBlockReference
  2
_OPEN
 10
538.3017607419868
 20
252.539157061659
 30
0.0
 41
7.0
 42
7.0
 43
7.0
 50
111.7998999999995
  0
INSERT
  5
C88
330
7BC
100
AcDbEntity
  8
0
  6
BYBLOCK
 62
     4
100
AcDbBlockReference
  2
_OPEN
 10
549.4427471930724
 20
224.6845628104997
 30
0.0
 41
7.0
 42
7.0
 43
7.0
 50
291.7998999999996
  0
MTEXT
  5
C89
330
7BC
100
AcDbEntity
  8
0
  6
BYBLOCK
 62
     4
100
AcDbMText
 10
548.5146863427228
 20
240.4686910112603
 30
0.0
 40
6.0
 41
0.0
 71
     5
 72
     5
  1
\A1;30
 11
0.3713662150361885
 21
-0.9284864750386487
 31
0.0
1001
ACAD
1000
MTEXTBEGIN
1070
    73
1070
     1
1070
    44
1040
1.0
1070
    74
1070
     0
1000
MTEXTEND
1000
MTEXTBEGIN
1070
    73
1070
     1
1070
    44
1040
1.0
1070
    74
1070
     0
1000
MTEXTEND
1000
MTEXTBEGIN
1070
    73
1070
     1
1070
    44
1040
1.0
1070
    74
1070
     0
1000
MTEXTEND
  0
POINT
  5
C8A
330
7BC
100
AcDbEntity
  8
DEFPOINTS
  6
BYBLOCK
 62
     0
100
AcDbPoint
 10
575.0599479899228
 20
267.241308613505
 30
0.0
  0
POINT
  5
C8B
330
7BC
100
AcDbEntity
  8
DEFPOINTS
  6
BYBLOCK
 62
     0
100
AcDbPoint
 10
586.2009344410084
 20
239.3867143623457
 30
0.0
  0
POINT
  5
C8C
330
7BC
100
AcDbEntity
  8
DEFPOINTS
  6
BYBLOCK
 62
     0
100
AcDbPoint
 10
549.4427471930724
 20
224.6845628104997
 30
0.0
  0
ENDBLK
  5
C8D
330
7BC
100
AcDbEntity
  8
0
100
AcDbBlockEnd
  0
BLOCK
  5
7CC
330
7CB
100
AcDbEntity
  8
0
100
AcDbBlockBegin
  2
*D6
 70
     1
 10
0.0
 20
0.0
 30
0.0
  3
*D6
  1

  0
LINE
  5
7CD
330
7CB
100
AcDbEntity
  8
0
  6
BYBLOCK
 62
     4
100
AcDbLine
 10
484.1835606587025
 20
409.4988312292629
 30
0.0
 11
509.1121558572718
 21
409.4988312292629
 31
0.0
  0
LINE
  5
7CE
330
7CB
100
AcDbEntity
  8
0
  6
BYBLOCK
 62
     4
100
AcDbLine
 10
484.1835606587025
 20
351.9988312292629
 30
0.0
 11
509.1121558572718
 21
351.9988312292629
 31
0.0
  0
LINE
  5
7CF
330
7CB
100
AcDbEntity
  8
0
  6
BYBLOCK
 62
     4
100
AcDbLine
 10
506.1121558572717
 20
402.4988312292629
 30
0.0
 11
506.1121558572717
 21
358.9988312292629
 31
0.0
  0
INSERT
  5
7D0
330
7CB
100
AcDbEntity
  8
0
  6
BYBLOCK
 62
     4
100
AcDbBlockReference
  2
_OPEN
 10
506.1121558572717
 20
409.4988312292629
 30
0.0
 41
7.0
 42
7.0
 43
7.0
 50
90.0
  0
INSERT
  5
7D1
330
7CB
100
AcDbEntity
  8
0
  6
BYBLOCK
 62
     4
100
AcDbBlockReference
  2
_OPEN
 10
506.1121558572717
 20
351.9988312292629
 30
0.0
 41
7.0
 42
7.0
 43
7.0
 50
270.0
  0
MTEXT
  5
7D2
330
7CB
100
AcDbEntity
  8
0
  6
BYBLOCK
 62
     4
100
AcDbMText
 10
501.1121558572718
 20
380.7488312292629
 30
0.0
 40
6.0
 41
0.0
 71
     5
 72
     5
  1
\A1;58
 11
0.0
 21
1.0
 31
0.0
1001
ACAD
1000
MTEXTBEGIN
1070
    73
1070
     1
1070
    44
1040
1.0
1070
    74
1070
     0
1000
MTEXTEND
1000
MTEXTBEGIN
1070
    73
1070
     1
1070
    44
1040
1.0
1070
    74
1070
     0
1000
MTEXTEND
1000
MTEXTBEGIN
1070
    73
1070
     1
1070
    44
1040
1.0
1070
    74
1070
     0
1000
MTEXTEND
  0
POINT
  5
7D3
330
7CB
100
AcDbEntity
  8
DEFPOINTS
  6
BYBLOCK
 62
     0
100
AcDbPoint
 10
478.1835606587025
 20
409.4988312292629
 30
0.0
  0
POINT
  5
7D4
330
7CB
100
AcDbEntity
  8
DEFPOINTS
  6
BYBLOCK
 62
     0
100
AcDbPoint
 10
478.1835606587025
 20
351.9988312292629
 30
0.0
  0
POINT
  5
7D5
330
7CB
100
AcDbEntity
  8
DEFPOINTS
  6
BYBLOCK
 62
     0
100
AcDbPoint
 10
506.1121558572717
 20
351.9988312292629
 30
0.0
  0
ENDBLK
  5
7D6
330
7CB
100
AcDbEntity
  8
0
100
AcDbBlockEnd
  0
BLOCK
  5
D02
330
7D8
100
AcDbEntity
  8
0
100
AcDbBlockBegin
  2
*D7
 70
     1
 10
0.0
 20
0.0
 30
0.0
  3
*D7
  1

  0
LINE
  5
D03
330
7D8
100
AcDbEntity
  8
0
  6
BYBLOCK
 62
     4
100
AcDbLine
 10
321.9761961805085
 20
368.9140354147552
 30
0.0
 11
300.9225259624613
 21
368.9140354147552
 31
0.0
  0
LINE
  5
D04
330
7D8
100
AcDbEntity
  8
0
  6
BYBLOCK
 62
     4
100
AcDbLine
 10
321.9761961805085
 20
343.9140354147551
 30
0.0
 11
300.9225259624613
 21
343.9140354147551
 31
0.0
  0
LINE
  5
D05
330
7D8
100
AcDbEntity
  8
0
  6
BYBLOCK
 62
     4
100
AcDbLine
 10
303.9225259624613
 20
375.9140354147552
 30
0.0
 11
303.9225259624613
 21
382.9140354147552
 31
0.0
  0
LINE
  5
D06
330
7D8
100
AcDbEntity
  8
0
  6
BYBLOCK
 62
     4
100
AcDbLine
 10
303.9225259624613
 20
336.9140354147551
 30
0.0
 11
303.9225259624613
 21
329.9140354147551
 31
0.0
  0
LINE
  5
D07
330
7D8
100
AcDbEntity
  8
0
  6
BYBLOCK
 62
     4
100
AcDbLine
 10
303.9225259624613
 20
368.9140354147552
 30
0.0
 11
303.9225259624613
 21
343.9140354147551
 31
0.0
  0
INSERT
  5
D08
330
7D8
100
AcDbEntity
  8
0
  6
BYBLOCK
 62
     4
100
AcDbBlockReference
  2
_OPEN
 10
303.9225259624613
 20
368.9140354147552
 30
0.0
 41
7.0
 42
7.0
 43
7.0
 50
270.0
  0
INSERT
  5
D09
330
7D8
100
AcDbEntity
  8
0
  6
BYBLOCK
 62
     4
100
AcDbBlockReference
  2
_OPEN
 10
303.9225259624613
 20
343.9140354147551
 30
0.0
 41
7.0
 42
7.0
 43
7.0
 50
90.0
  0
MTEXT
  5
D0A
330
7D8
100
AcDbEntity
  8
0
  6
BYBLOCK
 62
     4
100
AcDbMText
 10
298.9225259624613
 20
356.4140354147551
 30
0.0
 40
6.0
 41
0.0
 71
     5
 72
     5
  1
\A1;25
 11
0.0
 21
1.0
 31
0.0
1001
ACAD
1000
MTEXTBEGIN
1070
    73
1070
     1
1070
    44
1040
1.0
1070
    74
1070
     0
1000
MTEXTEND
1000
MTEXTBEGIN
1070
    73
1070
     1
1070
    44
1040
1.0
1070
    74
1070
     0
1000
MTEXTEND
1000
MTEXTBEGIN
1070
    73
1070
     1
1070
    44
1040
1.0
1070
    74
1070
     0
1000
MTEXTEND
  0
POINT
  5
D0B
330
7D8
100
AcDbEntity
  8
DEFPOINTS
  6
BYBLOCK
 62
     0
100
AcDbPoint
 10
327.9761961805085
 20
368.9140354147552
 30
0.0
  0
POINT
  5
D0C
330
7D8
100
AcDbEntity
  8
DEFPOINTS
  6
BYBLOCK
 62
     0
100
AcDbPoint
 10
327.9761961805085
 20
343.9140354147551
 30
0.0
  0
POINT
  5
D0D
330
7D8
100
AcDbEntity
  8
DEFPOINTS
  6
BYBLOCK
 62
     0
100
AcDbPoint
 10
303.9225259624613
 20
343.9140354147551
 30
0.0
  0
ENDBLK
  5
D0E
330
7D8
100
AcDbEntity
  8
0
100
AcDbBlockEnd
  0
BLOCK
  5
C9C
330
7E7
100
AcDbEntity
  8
0
100
AcDbBlockBegin
  2
*D8
 70
     1
 10
0.0
 20
0.0
 30
0.0
  3
*D8
  1

  0
LINE
  5
C9D
330
7E7
100
AcDbEntity
  8
0
  6
BYBLOCK
 62
     4
100
AcDbLine
 10
462.5760660697495
 20
234.6802383543323
 30
0.0
 11
462.5760660697495
 21
270.0112422153065
 31
0.0
  0
LINE
  5
C9E
330
7E7
100
AcDbEntity
  8
0
  6
BYBLOCK
 62
     4
100
AcDbLine
 10
442.7782961805085
 20
246.4164854147549
 30
0.0
 11
442.7782961805085
 21
270.0112422153065
 31
0.0
  0
LINE
  5
C9F
330
7E7
100
AcDbEntity
  8
0
  6
BYBLOCK
 62
     4
100
AcDbLine
 10
469.5760660697494
 20
267.0112422153065
 30
0.0
 11
476.5760660697495
 21
267.0112422153065
 31
0.0
  0
LINE
  5
CA0
330
7E7
100
AcDbEntity
  8
0
  6
BYBLOCK
 62
     4
100
AcDbLine
 10
435.7782961805086
 20
267.0112422153065
 30
0.0
 11
428.7782961805086
 21
267.0112422153065
 31
0.0
  0
LINE
  5
CA1
330
7E7
100
AcDbEntity
  8
0
  6
BYBLOCK
 62
     4
100
AcDbLine
 10
462.5760660697495
 20
267.0112422153065
 30
0.0
 11
442.7782961805085
 21
267.0112422153065
 31
0.0
  0
INSERT
  5
CA2
330
7E7
100
AcDbEntity
  8
0
  6
BYBLOCK
 62
     4
100
AcDbBlockReference
  2
_OPEN
 10
462.5760660697495
 20
267.0112422153065
 30
0.0
 41
7.0
 42
7.0
 43
7.0
 50
180.0
  0
INSERT
  5
CA3
330
7E7
100
AcDbEntity
  8
0
  6
BYBLOCK
 62
     4
100
AcDbBlockReference
  2
_OPEN
 10
442.7782961805085
 20
267.0112422153065
 30
0.0
 41
7.0
 42
7.0
 43
7.0
  0
MTEXT
  5
CA4
330
7E7
100
AcDbEntity
  8
0
  6
BYBLOCK
 62
     4
100
AcDbMText
 10
452.6771811251291
 20
272.0112422153065
 30
0.0
 40
6.0
 41
0.0
 71
     5
 72
     5
  1
\A1;20
1001
ACAD
1000
MTEXTBEGIN
1070
    73
1070
     1
1070
    44
1040
1.0
1070
    74
1070
     0
1000
MTEXTEND
1000
MTEXTBEGIN
1070
    73
1070
     1
1070
    44
1040
1.0
1070
    74
1070
     0
1000
MTEXTEND
1000
MTEXTBEGIN
1070
    73
1070
     1
1070
    44
1040
1.0
1070
    74
1070
     0
1000
MTEXTEND
  0
POINT
  5
CA5
330
7E7
100
AcDbEntity
  8
DEFPOINTS
  6
BYBLOCK
 62
     0
100
AcDbPoint
 10
462.5760660697495
 20
228.6802383543323
 30
0.0
  0
POINT
  5
CA6
330
7E7
100
AcDbEntity
  8
DEFPOINTS
  6
BYBLOCK
 62
     0
100
AcDbPoint
 10
442.7782961805085
 20
240.4164854147549
 30
0.0
  0
POINT
  5
CA7
330
7E7
100
AcDbEntity
  8
DEFPOINTS
  6
BYBLOCK
 62
     0
100
AcDbPoint
 10
442.7782961805085
 20
267.0112422153065
 30
0.0
  0
ENDBLK
  5
CA8
330
7E7
100
AcDbEntity
  8
0
100
AcDbBlockEnd
  0
BLOCK
  5
BFD
330
7F6
100
AcDbEntity
  8
0
100
AcDbBlockBegin
  2
*D9
 70
     1
 10
0.0
 20
0.0
 30
0.0
  3
*D9
  1

  0
LINE
  5
BFE
330
7F6
100
AcDbEntity
  8
0
  6
BYBLOCK
 62
     4
100
AcDbLine
 10
462.5760660697495
 20
234.6802383543323
 30
0.0
 11
462.5760660697495
 21
295.1395522077007
 31
0.0
  0
LINE
  5
BFF
330
7F6
100
AcDbEntity
  8
0
  6
BYBLOCK
 62
     4
100
AcDbLine
 10
327.9760961805085
 20
270.4141354147551
 30
0.0
 11
327.9760961805085
 21
295.1395522077007
 31
0.0
  0
LINE
  5
C00
330
7F6
100
AcDbEntity
  8
0
  6
BYBLOCK
 62
     4
100
AcDbLine
 10
455.5760660697495
 20
292.1395522077007
 30
0.0
 11
334.9760961805085
 21
292.1395522077007
 31
0.0
  0
INSERT
  5
C01
330
7F6
100
AcDbEntity
  8
0
  6
BYBLOCK
 62
     4
100
AcDbBlockReference
  2
_OPEN
 10
462.5760660697495
 20
292.1395522077007
 30
0.0
 41
7.0
 42
7.0
 43
7.0
  0
INSERT
  5
C02
330
7F6
100
AcDbEntity
  8
0
  6
BYBLOCK
 62
     4
100
AcDbBlockReference
  2
_OPEN
 10
327.9760961805085
 20
292.1395522077007
 30
0.0
 41
7.0
 42
7.0
 43
7.0
 50
180.0
  0
MTEXT
  5
C03
330
7F6
100
AcDbEntity
  8
0
  6
BYBLOCK
 62
     4
100
AcDbMText
 10
395.8115014199287
 20
297.1395522077007
 30
0.0
 40
6.0
 41
0.0
 71
     5
 72
     5
  1
\A1;135
1001
ACAD
1000
MTEXTBEGIN
1070
    73
1070
     1
1070
    44
1040
1.0
1070
    74
1070
     0
1000
MTEXTEND
1000
MTEXTBEGIN
1070
    73
1070
     1
1070
    44
1040
1.0
1070
    74
1070
     0
1000
MTEXTEND
1000
MTEXTBEGIN
1070
    73
1070
     1
1070
    44
1040
1.0
1070
    74
1070
     0
1000
MTEXTEND
  0
POINT
  5
C04
330
7F6
100
AcDbEntity
  8
DEFPOINTS
  6
BYBLOCK
 62
     0
100
AcDbPoint
 10
462.5760660697495
 20
228.6802383543323
 30
0.0
  0
POINT
  5
C05
330
7F6
100
AcDbEntity
  8
DEFPOINTS
  6
BYBLOCK
 62
     0
100
AcDbPoint
 10
327.9760961805085
 20
264.4141354147551
 30
0.0
  0
POINT
  5
C06
330
7F6
100
AcDbEntity
  8
DEFPOINTS
  6
BYBLOCK
 62
     0
100
AcDbPoint
 10
327.9760961805085
 20
292.1395522077007
 30
0.0
  0
ENDBLK
  5
C07
330
7F6
100
AcDbEntity
  8
0
100
AcDbBlockEnd
  0
BLOCK
  5
8D7
330
86D
100
AcDbEntity
  8
0
100
AcDbBlockBegin
  2
*D10
 70
     1
 10
0.0
 20
0.0
 30
0.0
  3
*D10
  1

  0
LINE
  5
8D8
330
86D
100
AcDbEntity
  8
0
  6
BYBLOCK
 62
     4
100
AcDbLine
 10
468.1469809185885
 20
230.9084456487701
 30
0.0
 11
489.6067423623237
 21
239.4917391083333
 31
0.0
  0
LINE
  5
8D9
330
86D
100
AcDbEntity
  8
0
  6
BYBLOCK
 62
     4
100
AcDbLine
 10
481.5049110293476
 20
197.5112427091927
 30
0.0
 11
502.9646724730829
 21
206.0945361687559
 31
0.0
  0
LINE
  5
8DA
330
86D
100
AcDbEntity
  8
0
  6
BYBLOCK
 62
     4
100
AcDbLine
 10
489.4208601147481
 20
231.8782348041356
 30
0.0
 11
497.5796398718194
 21
211.4798331785159
 31
0.0
  0
INSERT
  5
8DB
330
86D
100
AcDbEntity
  8
0
  6
BYBLOCK
 62
     4
100
AcDbBlockReference
  2
_OPEN
 10
486.8212849379041
 20
238.3776354611145
 30
0.0
 41
7.0
 42
7.0
 43
7.0
 50
111.800002891432
  0
INSERT
  5
8DC
330
86D
100
AcDbEntity
  8
0
  6
BYBLOCK
 62
     4
100
AcDbBlockReference
  2
_OPEN
 10
500.1792150486634
 20
204.9804325215371
 30
0.0
 41
7.0
 42
7.0
 43
7.0
 50
291.800002891432
  0
MTEXT
  5
8DD
330
86D
100
AcDbEntity
  8
0
  6
BYBLOCK
 62
     4
100
AcDbMText
 10
498.0893875158831
 20
223.6691116843021
 30
0.0
 40
6.0
 41
0.0
 71
     5
 72
     5
  1
\A1;36
 11
0.3713678824062807
 21
-0.9284858081398308
 31
0.0
1001
ACAD
1000
MTEXTBEGIN
1070
    73
1070
     1
1070
    44
1040
1.0
1070
    74
1070
     0
1000
MTEXTEND
1000
MTEXTBEGIN
1070
    73
1070
     1
1070
    44
1040
1.0
1070
    74
1070
     0
1000
MTEXTEND
1000
MTEXTBEGIN
1070
    73
1070
     1
1070
    44
1040
1.0
1070
    74
1070
     0
1000
MTEXTEND
  0
POINT
  5
8DE
330
86D
100
AcDbEntity
  8
DEFPOINTS
  6
BYBLOCK
 62
     0
100
AcDbPoint
 10
462.5760660697495
 20
228.6802383543323
 30
0.0
  0
POINT
  5
8DF
330
86D
100
AcDbEntity
  8
DEFPOINTS
  6
BYBLOCK
 62
     0
100
AcDbPoint
 10
475.9339961805086
 20
195.283035414755
 30
0.0
  0
POINT
  5
8E0
330
86D
100
AcDbEntity
  8
DEFPOINTS
  6
BYBLOCK
 62
     0
100
AcDbPoint
 10
500.1792150486634
 20
204.9804325215371
 30
0.0
  0
ENDBLK
  5
8E1
330
86D
100
AcDbEntity
  8
0
100
AcDbBlockEnd
  0
BLOCK
  5
8CB
330
8CA
100
AcDbEntity
  8
0
100
AcDbBlockBegin
  2
*D11
 70
     1
 10
0.0
 20
0.0
 30
0.0
  3
*D11
  1

  0
LINE
  5
8CC
330
8CA
100
AcDbEntity
  8
0
  6
BYBLOCK
 62
     4
100
AcDbLine
 10
447.7832961805086
 20
241.4114854147551
 30
0.0
 11
523.6186956488604
 21
241.4114854147551
 31
0.0
  0
LINE
  5
8CD
330
8CA
100
AcDbEntity
  8
0
  6
BYBLOCK
 62
     4
100
AcDbLine
 10
481.9339961805089
 20
195.2830354147551
 30
0.0
 11
523.6186956488604
 21
195.2830354147551
 31
0.0
  0
LINE
  5
8CE
330
8CA
100
AcDbEntity
  8
0
  6
BYBLOCK
 62
     4
100
AcDbLine
 10
520.6186956488604
 20
234.4114854147551
 30
0.0
 11
520.6186956488604
 21
202.2830354147552
 31
0.0
  0
INSERT
  5
8CF
330
8CA
100
AcDbEntity
  8
0
  6
BYBLOCK
 62
     4
100
AcDbBlockReference
  2
_OPEN
 10
520.6186956488604
 20
241.4114854147551
 30
0.0
 41
7.0
 42
7.0
 43
7.0
 50
90.0
  0
INSERT
  5
8D0
330
8CA
100
AcDbEntity
  8
0
  6
BYBLOCK
 62
     4
100
AcDbBlockReference
  2
_OPEN
 10
520.6186956488604
 20
195.2830354147551
 30
0.0
 41
7.0
 42
7.0
 43
7.0
 50
270.0
  0
MTEXT
  5
8D1
330
8CA
100
AcDbEntity
  8
0
  6
BYBLOCK
 62
     4
100
AcDbMText
 10
515.6186956488604
 20
218.3472604147551
 30
0.0
 40
6.0
 41
0.0
 71
     5
 72
     5
  1
\A1;46
 11
0.0
 21
1.0
 31
0.0
1001
ACAD
1000
MTEXTBEGIN
1070
    73
1070
     1
1070
    44
1040
1.0
1070
    74
1070
     0
1000
MTEXTEND
1000
MTEXTBEGIN
1070
    73
1070
     1
1070
    44
1040
1.0
1070
    74
1070
     0
1000
MTEXTEND
1000
MTEXTBEGIN
1070
    73
1070
     1
1070
    44
1040
1.0
1070
    74
1070
     0
1000
MTEXTEND
  0
POINT
  5
8D2
330
8CA
100
AcDbEntity
  8
DEFPOINTS
  6
BYBLOCK
 62
     0
100
AcDbPoint
 10
441.7832961805086
 20
241.4114854147551
 30
0.0
  0
POINT
  5
8D3
330
8CA
100
AcDbEntity
  8
DEFPOINTS
  6
BYBLOCK
 62
     0
100
AcDbPoint
 10
475.9339961805089
 20
195.2830354147551
 30
0.0
  0
POINT
  5
8D4
330
8CA
100
AcDbEntity
  8
DEFPOINTS
  6
BYBLOCK
 62
     0
100
AcDbPoint
 10
520.6186956488604
 20
195.2830354147551
 30
0.0
  0
ENDBLK
  5
8D5
330
8CA
100
AcDbEntity
  8
0
100
AcDbBlockEnd
  0
BLOCK
  5
CF7
330
CDD
100
AcDbEntity
  8
0
100
AcDbBlockBegin
  2
*D12
 70
     1
 10
0.0
 20
0.0
 30
0.0
  3
*D12
  1

  0
LINE
  5
CF8
330
CDD
100
AcDbEntity
  8
0
  6
BYBLOCK
 62
     4
100
AcDbLine
 10
321.9760961805085
 20
264.4141354147551
 30
0.0
 11
300.4470842773325
 21
264.4141354147551
 31
0.0
  0
LINE
  5
CF9
330
CDD
100
AcDbEntity
  8
0
  6
BYBLOCK
 62
     4
100
AcDbLine
 10
346.6555961805085
 20
191.414035414755
 30
0.0
 11
300.4470842773325
 21
191.414035414755
 31
0.0
  0
LINE
  5
CFA
330
CDD
100
AcDbEntity
  8
0
  6
BYBLOCK
 62
     4
100
AcDbLine
 10
303.4470842773326
 20
257.4141354147551
 30
0.0
 11
303.4470842773326
 21
198.414035414755
 31
0.0
  0
INSERT
  5
CFB
330
CDD
100
AcDbEntity
  8
0
  6
BYBLOCK
 62
     4
100
AcDbBlockReference
  2
_OPEN
 10
303.4470842773326
 20
264.4141354147551
 30
0.0
 41
7.0
 42
7.0
 43
7.0
 50
90.0
  0
INSERT
  5
CFC
330
CDD
100
AcDbEntity
  8
0
  6
BYBLOCK
 62
     4
100
AcDbBlockReference
  2
_OPEN
 10
303.4470842773326
 20
191.414035414755
 30
0.0
 41
7.0
 42
7.0
 43
7.0
 50
270.0
  0
MTEXT
  5
CFD
330
CDD
100
AcDbEntity
  8
0
  6
BYBLOCK
 62
     4
100
AcDbMText
 10
298.4470842773325
 20
227.9140854147551
 30
0.0
 40
6.0
 41
0.0
 71
     5
 72
     5
  1
\A1;73
 11
0.0
 21
1.0
 31
0.0
1001
ACAD
1000
MTEXTBEGIN
1070
    73
1070
     1
1070
    44
1040
1.0
1070
    74
1070
     0
1000
MTEXTEND
1000
MTEXTBEGIN
1070
    73
1070
     1
1070
    44
1040
1.0
1070
    74
1070
     0
1000
MTEXTEND
1000
MTEXTBEGIN
1070
    73
1070
     1
1070
    44
1040
1.0
1070
    74
1070
     0
1000
MTEXTEND
  0
POINT
  5
CFE
330
CDD
100
AcDbEntity
  8
DEFPOINTS
  6
BYBLOCK
 62
     0
100
AcDbPoint
 10
327.9760961805085
 20
264.4141354147551
 30
0.0
  0
POINT
  5
CFF
330
CDD
100
AcDbEntity
  8
DEFPOINTS
  6
BYBLOCK
 62
     0
100
AcDbPoint
 10
352.6555961805085
 20
191.414035414755
 30
0.0
  0
POINT
  5
D00
330
CDD
100
AcDbEntity
  8
DEFPOINTS
  6
BYBLOCK
 62
     0
100
AcDbPoint
 10
303.4470842773326
 20
191.414035414755
 30
0.0
  0
ENDBLK
  5
D01
330
CDD
100
AcDbEntity
  8
0
100
AcDbBlockEnd
  0
BLOCK
  5
CEB
330
CEA
100
AcDbEntity
  8
0
100
AcDbBlockBegin
  2
*D13
 70
     1
 10
0.0
 20
0.0
 30
0.0
  3
*D13
  1

  0
LINE
  5
CEC
330
CEA
100
AcDbEntity
  8
0
  6
BYBLOCK
 62
     4
100
AcDbLine
 10
470.3638707064214
 20
225.3658265809174
 30
0.0
 11
479.8060928107134
 21
229.1424465328216
 31
0.0
  0
LINE
  5
CED
330
CEA
100
AcDbEntity
  8
0
  6
BYBLOCK
 62
     4
100
AcDbLine
 10
481.5049110293477
 20
197.5112427091927
 30
0.0
 11
490.9471331336397
 21
201.2878626610968
 31
0.0
  0
LINE
  5
CEE
330
CEA
100
AcDbEntity
  8
0
  6
BYBLOCK
 62
     4
100
AcDbLine
 10
479.6202105631379
 20
221.5289422286239
 30
0.0
 11
485.5621005323762
 21
206.6731596708567
 31
0.0
  0
INSERT
  5
CEF
330
CEA
100
AcDbEntity
  8
0
  6
BYBLOCK
 62
     4
100
AcDbBlockReference
  2
_OPEN
 10
477.0206353862939
 20
228.0283428856027
 30
0.0
 41
7.0
 42
7.0
 43
7.0
 50
111.8000028914321
  0
INSERT
  5
CF0
330
CEA
100
AcDbEntity
  8
0
  6
BYBLOCK
 62
     4
100
AcDbBlockReference
  2
_OPEN
 10
488.1616757092202
 20
200.1737590138779
 30
0.0
 41
7.0
 42
7.0
 43
7.0
 50
291.8000028914321
  0
MTEXT
  5
CF1
330
CEA
100
AcDbEntity
  8
0
  6
BYBLOCK
 62
     4
100
AcDbMText
 10
487.2335845884562
 20
215.9578903617718
 30
0.0
 40
6.0
 41
0.0
 71
     5
 72
     5
  1
\A1;30
 11
0.3713678824062823
 21
-0.9284858081398301
 31
0.0
1001
ACAD
1000
MTEXTBEGIN
1070
    73
1070
     1
1070
    44
1040
1.0
1070
    74
1070
     0
1000
MTEXTEND
1000
MTEXTBEGIN
1070
    73
1070
     1
1070
    44
1040
1.0
1070
    74
1070
     0
1000
MTEXTEND
1000
MTEXTBEGIN
1070
    73
1070
     1
1070
    44
1040
1.0
1070
    74
1070
     0
1000
MTEXTEND
  0
POINT
  5
CF2
330
CEA
100
AcDbEntity
  8
DEFPOINTS
  6
BYBLOCK
 62
     0
100
AcDbPoint
 10
464.7929558575825
 20
223.1376192864797
 30
0.0
  0
POINT
  5
CF3
330
CEA
100
AcDbEntity
  8
DEFPOINTS
  6
BYBLOCK
 62
     0
100
AcDbPoint
 10
475.9339961805087
 20
195.283035414755
 30
0.0
  0
POINT
  5
CF4
330
CEA
100
AcDbEntity
  8
DEFPOINTS
  6
BYBLOCK
 62
     0
100
AcDbPoint
 10
488.1616757092202
 20
200.1737590138779
 30
0.0
  0
ENDBLK
  5
CF5
330
CEA
100
AcDbEntity
  8
0
100
AcDbBlockEnd
  0
BLOCK
  5
D54
330
D1E
100
AcDbEntity
  8
0
100
AcDbBlockBegin
  2
*D14
 70
     1
 10
0.0
 20
0.0
 30
0.0
  3
*D14
  1

  0
LINE
  5
D55
330
D1E
100
AcDbEntity
  8
0
  6
BYBLOCK
 62
     4
100
AcDbLine
 10
477.0479379426214
 20
189.2664638203258
 30
0.0
 11
485.9434581563874
 21
167.0251947765811
 31
0.0
  0
LINE
  5
D56
330
D1E
100
AcDbEntity
  8
0
  6
BYBLOCK
 62
     4
100
AcDbLine
 10
478.1621270277155
 20
189.7120899898092
 30
0.0
 11
487.0576472414815
 21
167.4708209460645
 31
0.0
  0
LINE
  5
D57
330
D1E
100
AcDbEntity
  8
0
  6
BYBLOCK
 62
     4
100
AcDbLine
 10
478.3299564036805
 20
167.2111815006461
 30
0.0
 11
471.8305200745769
 21
164.6116955122382
 31
0.0
  0
LINE
  5
D58
330
D1E
100
AcDbEntity
  8
0
  6
BYBLOCK
 62
     4
100
AcDbLine
 10
492.4430181469817
 20
172.8557796469453
 30
0.0
 11
517.5122725592382
 21
182.8823684593759
 31
0.0
  0
LINE
  5
D59
330
D1E
100
AcDbEntity
  8
0
  6
BYBLOCK
 62
     4
100
AcDbLine
 10
484.8293927327841
 20
169.8106674890541
 30
0.0
 11
485.9435818178782
 21
170.2562936585374
 31
0.0
  0
INSERT
  5
D5A
330
D1E
100
AcDbEntity
  8
0
  6
BYBLOCK
 62
     4
100
AcDbBlockReference
  2
_OPEN
 10
484.8293927327841
 20
169.8106674890541
 30
0.0
 41
7.0
 42
7.0
 43
7.0
 50
21.79921664863635
  0
INSERT
  5
D5B
330
D1E
100
AcDbEntity
  8
0
  6
BYBLOCK
 62
     4
100
AcDbBlockReference
  2
_OPEN
 10
485.9435818178782
 20
170.2562936585374
 30
0.0
 41
7.0
 42
7.0
 43
7.0
 50
201.7992166486363
  0
MTEXT
  5
D5C
330
D1E
100
AcDbEntity
  8
0
  6
BYBLOCK
 62
     4
100
AcDbMText
 10
506.3705878116561
 20
183.8112715681528
 30
0.0
 40
6.0
 41
0.0
 71
     5
 72
     5
  1
\A1;t1.2
 11
0.9284909041576485
 21
0.3713551412011315
 31
0.0
1001
ACAD
1000
MTEXTBEGIN
1070
    73
1070
     1
1070
    44
1040
1.0
1070
    74
1070
     0
1000
MTEXTEND
1000
MTEXTBEGIN
1070
    73
1070
     1
1070
    44
1040
1.0
1070
    74
1070
     0
1000
MTEXTEND
1000
MTEXTBEGIN
1070
    73
1070
     1
1070
    44
1040
1.0
1070
    74
1070
     0
1000
MTEXTEND
  0
POINT
  5
D5D
330
D1E
100
AcDbEntity
  8
DEFPOINTS
  6
BYBLOCK
 62
     0
100
AcDbPoint
 10
474.8198070954146
 20
194.8374092452717
 30
0.0
  0
POINT
  5
D5E
330
D1E
100
AcDbEntity
  8
DEFPOINTS
  6
BYBLOCK
 62
     0
100
AcDbPoint
 10
475.9339961805088
 20
195.283035414755
 30
0.0
  0
POINT
  5
D5F
330
D1E
100
AcDbEntity
  8
DEFPOINTS
  6
BYBLOCK
 62
     0
100
AcDbPoint
 10
485.9435818178782
 20
170.2562936585374
 30
0.0
  0
ENDBLK
  5
D60
330
D1E
100
AcDbEntity
  8
0
100
AcDbBlockEnd
  0
ENDSEC
  0
SECTION
  2
ENTITIES
  0
INSERT
  5
33E
330
1A
100
AcDbEntity
  8
0
100
AcDbBlockReference
  2
A$C1305
 10
328.5932370960747
 20
191.3019147774528
 30
0.0
  0
LINE
  5
33F
330
1A
100
AcDbEntity
  8
SEIHIN
  6
CONTINUOUS
 62
     3
 48
16.0
100
AcDbLine
 10
422.2150961805087
 20
174.881235414755
 30
0.0
 11
404.7514961805086
 21
174.881235414755
 31
0.0
  0
LINE
  5
340
330
1A
100
AcDbEntity
  8
SEIHIN
  6
CONTINUOUS
 62
     3
 48
16.0
100
AcDbLine
 10
392.3144961805085
 20
353.9139354147551
 30
0.0
 11
432.5761961805086
 21
353.9139354147551
 31
0.0
  0
LINE
  5
341
330
1A
100
AcDbEntity
  8
SEIHIN
  6
CONTINUOUS
 62
     3
 48
16.0
100
AcDbLine
 10
385.7760961805086
 20
190.6140354147551
 30
0.0
 11
419.3315961805085
 21
190.6140354147551
 31
0.0
  0
LINE
  5
342
330
1A
100
AcDbEntity
  8
SEIHIN
  6
CONTINUOUS
 62
     3
 48
16.0
100
AcDbLine
 10
425.8381961805086
 20
170.025335414755
 30
0.0
 11
400.9679961805087
 21
170.025335414755
 31
0.0
  0
LINE
  5
343
330
1A
100
AcDbEntity
  8
SEIHIN
  6
CONTINUOUS
 62
     3
 48
16.0
100
AcDbLine
 10
385.7760961805086
 20
191.414035414755
 30
0.0
 11
418.8965961805085
 21
191.414035414755
 31
0.0
  0
LINE
  5
344
330
1A
100
AcDbEntity
  8
SEIHIN
  6
CONTINUOUS
 62
     3
 48
16.0
100
AcDbLine
 10
418.8965961805085
 20
187.414035414755
 30
0.0
 11
398.1681508086616
 21
187.414035414755
 31
0.0
  0
LINE
  5
345
330
1A
100
AcDbEntity
  8
SEIHIN
  6
CONTINUOUS
 62
     3
 48
16.0
100
AcDbLine
 10
385.7761961805087
 20
348.913935414755
 30
0.0
 11
432.5761961805086
 21
348.913935414755
 31
0.0
  0
LINE
  5
346
330
1A
100
AcDbEntity
  8
CENTER_L
  6
CENTER
 62
     1
 48
5.0
100
AcDbLine
 10
385.7761961805087
 20
356.4140354147551
 30
0.0
 11
482.5559961805085
 21
356.4140354147551
 31
0.0
  0
LINE
  5
347
330
1A
100
AcDbEntity
  8
SEIHIN
  6
CONTINUOUS
 62
     3
 48
16.0
100
AcDbLine
 10
385.7761961805087
 20
345.4139354147551
 30
0.0
 11
418.8966961805086
 21
345.4139354147551
 31
0.0
  0
LINE
  5
348
330
1A
100
AcDbEntity
  8
SEIHIN
  6
CONTINUOUS
 62
     3
 48
16.0
100
AcDbLine
 10
385.7761961805087
 20
367.4140354147552
 30
0.0
 11
418.8966961805086
 21
367.4140354147552
 31
0.0
  0
LINE
  5
349
330
1A
100
AcDbEntity
  8
SEIHIN
  6
CONTINUOUS
 62
     3
 48
16.0
100
AcDbLine
 10
392.3144961805085
 20
358.9140354147551
 30
0.0
 11
432.5761961805086
 21
358.9140354147551
 31
0.0
  0
LINE
  5
34A
330
1A
100
AcDbEntity
  8
SEIHIN
  6
CONTINUOUS
 62
     3
 48
16.0
100
AcDbLine
 10
385.7761961805087
 20
363.9140354147552
 30
0.0
 11
432.5761961805086
 21
363.9140354147552
 31
0.0
  0
ARC
  5
354
330
1A
100
AcDbEntity
  8
SEIHIN
  6
CONTINUOUS
 62
     3
 48
16.0
100
AcDbCircle
 10
245.1758944029408
 20
172.025335414755
 30
0.0
 40
2.000000000000042
100
AcDbArc
 50
270.0000000000012
 51
0.0000000000012213
  0
LINE
  5
355
330
1A
100
AcDbEntity
  8
SEIHIN
  6
CONTINUOUS
 62
     3
 48
16.0
100
AcDbLine
 10
227.1758944029409
 20
190.914235414755
 30
0.0
 11
227.1758944029409
 21
172.0253354147551
 31
0.0
  0
LINE
  5
356
330
1A
100
AcDbEntity
  8
CENTER_L
  6
CENTER
 62
     1
 48
5.0
100
AcDbLine
 10
237.1758944029409
 20
165.870435414755
 30
0.0
 11
237.1759944029409
 21
267.6872354147551
 31
0.0
  0
LINE
  5
357
330
1A
100
AcDbEntity
  8
SEIHIN
  6
CONTINUOUS
 62
     3
 48
16.0
100
AcDbLine
 10
237.1758944029409
 20
170.025335414755
 30
0.0
 11
229.1758944029409
 21
170.025335414755
 31
0.0
  0
ARC
  5
358
330
1A
100
AcDbEntity
  8
SEIHIN
  6
CONTINUOUS
 62
     3
 48
16.0
100
AcDbCircle
 10
229.1758944029409
 20
172.025335414755
 30
0.0
 40
2.000000000000042
100
AcDbArc
 50
179.9999999999987
 51
269.9999999999987
  0
LINE
  5
359
330
1A
100
AcDbEntity
  8
SEIHIN
  6
CONTINUOUS
 62
     3
 48
16.0
100
AcDbLine
 10
237.1758944029409
 20
170.025335414755
 30
0.0
 11
245.1758944029409
 21
170.025335414755
 31
0.0
  0
ELLIPSE
  5
35F
330
1A
100
AcDbEntity
  8
SEIHIN
  6
CONTINUOUS
100
AcDbEllipse
 10
213.4853047981323
 20
199.9255094740491
 30
0.0
 11
-2.000000000000002
 21
0.0000000000002505
 31
0.0
210
0.0
220
0.0
230
1.0
 40
0.9284861787512983
 41
0.1643544353233412
 42
2.977238218266597
  0
ELLIPSE
  5
360
330
1A
100
AcDbEntity
  8
SEIHIN
  6
CONTINUOUS
100
AcDbEllipse
 10
213.4853047981323
 20
218.4954118540064
 30
0.0
 11
-2.000000000000002
 21
0.0000000000002505
 31
0.0
210
0.0
220
0.0
230
1.0
 40
0.9284861787512983
 41
0.1643544353233412
 42
2.977238218266597
  0
ELLIPSE
  5
361
330
1A
100
AcDbEntity
  8
SEIHIN
  6
CONTINUOUS
100
AcDbEllipse
 10
213.4853681536213
 20
199.3178972050302
 30
0.0
 11
1.999999999996141
 21
-0.0000039286247469
 31
0.0
210
0.0
220
0.0
230
-1.0
 40
0.9284861787512994
 41
0.000000000000017
 42
6.283185307179603
  0
ELLIPSE
  5
362
330
1A
100
AcDbEntity
  8
SEIHIN
  6
CONTINUOUS
100
AcDbEllipse
 10
213.4854046307103
 20
217.8877995849516
 30
0.0
 11
1.999999999996141
 21
-0.0000039286247469
 31
0.0
210
0.0
220
0.0
230
-1.0
 40
0.9284861787512994
 41
0.0000000000000017
 42
6.283185307179588
  0
LINE
  5
363
330
1A
100
AcDbEntity
  8
CENTER_L
  6
CENTER
 62
     1
 48
5.0
100
AcDbLine
 10
217.2947579362855
 20
199.3178505526735
 30
0.0
 11
209.7330365413015
 21
199.3178505526735
 31
0.0
  0
LINE
  5
364
330
1A
100
AcDbEntity
  8
CENTER_L
  6
CENTER
 62
     1
 48
5.0
100
AcDbLine
 10
217.2947579362855
 20
217.8877529326307
 30
0.0
 11
209.7330365413015
 21
217.8877529326308
 31
0.0
  0
LINE
  5
366
330
1A
100
AcDbEntity
  8
SEIHIN
  6
CONTINUOUS
 62
     3
 48
16.0
100
AcDbLine
 10
226.6315944029409
 20
192.7110354147551
 30
0.0
 11
210.4258944029409
 21
192.7110354147551
 31
0.0
  0
LINE
  5
367
330
1A
100
AcDbEntity
  8
SEIHIN
  6
CONTINUOUS
 62
     3
 48
16.0
100
AcDbLine
 10
208.4258944029409
 20
194.7110354147551
 30
0.0
 11
208.4258944029409
 21
221.1376354147551
 31
0.0
  0
LINE
  5
368
330
1A
100
AcDbEntity
  8
CENTER_L
  6
CENTER
 62
     1
 48
5.0
100
AcDbLine
 10
213.4853047981323
 20
194.7835080752869
 30
0.0
 11
213.4853047981323
 21
203.185508075287
 31
0.0
  0
ARC
  5
369
330
1A
100
AcDbEntity
  8
SEIHIN
  6
CONTINUOUS
 62
     3
 48
16.0
100
AcDbCircle
 10
210.4258944029409
 20
194.7110354147551
 30
0.0
 40
2.0
100
AcDbArc
 50
180.0
 51
270.0
  0
LINE
  5
36A
330
1A
100
AcDbEntity
  8
CENTER_L
  6
CENTER
 62
     1
 48
5.0
100
AcDbLine
 10
213.4853047981323
 20
213.0351080752869
 30
0.0
 11
213.4853047981323
 21
222.130108075287
 31
0.0
  0
LINE
  5
3A8
330
1A
100
AcDbEntity
  8
SEIHIN
  6
CONTINUOUS
 62
     3
 48
16.0
100
AcDbLine
 10
399.8085961805086
 20
179.1280354147551
 30
0.0
 11
398.8230961805086
 21
185.595635414755
 31
0.0
  0
LINE
  5
3A9
330
1A
100
AcDbEntity
  8
SEIHIN
  6
CONTINUOUS
 62
     3
 48
16.0
100
AcDbLine
 10
381.7683961805085
 20
186.183435414755
 30
0.0
 11
381.7683961805085
 21
183.380435414755
 31
0.0
  0
LINE
  5
3AA
330
1A
100
AcDbEntity
  8
SEIHIN
  6
CONTINUOUS
 62
     3
 48
16.0
100
AcDbLine
 10
389.7837961805085
 20
183.380435414755
 30
0.0
 11
389.7837961805085
 21
186.183435414755
 31
0.0
  0
LINE
  5
3AB
330
1A
100
AcDbEntity
  8
CENTER_L
  6
CENTER
 62
     1
 48
5.0
100
AcDbLine
 10
385.7760961805086
 20
201.2349354147551
 30
0.0
 11
385.7760961805086
 21
179.129635414755
 31
0.0
  0
ARC
  5
3AC
330
1A
100
AcDbEntity
  8
SEIHIN
  6
CONTINUOUS
 62
     3
 48
16.0
100
AcDbCircle
 10
390.0530542237074
 20
181.1834721225245
 30
0.0
 40
4.999963292406514
100
AcDbArc
 50
7.634524188049387
 51
89.99951920694511
  0
LINE
  5
3AD
330
1A
100
AcDbEntity
  8
SEIHIN
  6
CONTINUOUS
 62
     3
 48
16.0
100
AcDbLine
 10
247.1758944029409
 20
190.9141354147551
 30
0.0
 11
247.1758944029409
 21
172.0253354147551
 31
0.0
  0
LINE
  5
3AE
330
1A
100
AcDbEntity
  8
SEIHIN
  6
CONTINUOUS
 62
     3
 48
16.0
100
AcDbLine
 10
381.7683961805085
 20
183.380435414755
 30
0.0
 11
389.7837961805085
 21
183.380435414755
 31
0.0
  0
ARC
  5
3AF
330
1A
100
AcDbEntity
  8
SEIHIN
  6
CONTINUOUS
 62
     3
 48
16.0
100
AcDbCircle
 10
400.9680381373098
 20
175.0252987069856
 30
0.0
 40
4.999963292406585
100
AcDbArc
 50
187.634524188048
 51
269.9995192069441
  0
LINE
  5
3B0
330
1A
100
AcDbEntity
  8
SEIHIN
  6
CONTINUOUS
 62
     3
 48
16.0
100
AcDbLine
 10
396.0123961805086
 20
174.3610354147551
 30
0.0
 11
395.0086961805085
 21
181.8477354147551
 31
0.0
  0
ARC
  5
3B1
330
1A
100
AcDbEntity
  8
SEIHIN
  6
CONTINUOUS
 62
     3
 48
16.0
100
AcDbCircle
 10
404.7515211671419
 20
179.8812139471629
 30
0.0
 40
4.999978532470326
100
AcDbArc
 50
188.6638059500169
 51
269.9997136730445
  0
LINE
  5
3B2
330
1A
100
AcDbEntity
  8
SEIHIN
  6
CONTINUOUS
 62
     3
 48
16.0
100
AcDbLine
 10
341.6471961805086
 20
203.5263354147551
 30
0.0
 11
336.3091961805086
 21
228.8818354147551
 31
0.0
  0
LINE
  5
3B3
330
1A
100
AcDbEntity
  8
SEIHIN
  6
CONTINUOUS
 62
     3
 48
16.0
100
AcDbLine
 10
340.9274961805087
 20
203.0617354147551
 30
0.0
 11
335.5263961805087
 21
228.717035414755
 31
0.0
  0
ARC
  5
3B4
330
1A
100
AcDbEntity
  8
SEIHIN
  6
CONTINUOUS
 62
     3
 48
16.0
100
AcDbCircle
 10
342.5172029084823
 20
203.7624282735089
 30
0.0
 40
4.999946441217435
100
AcDbArc
 50
191.8880899322041
 51
254.6981512804587
  0
ARC
  5
3B5
330
1A
100
AcDbEntity
  8
SEIHIN
  6
CONTINUOUS
 62
     3
 48
16.0
100
AcDbCircle
 10
342.1995002340244
 20
203.3296358171365
 30
0.0
 40
1.30000744173545
100
AcDbArc
 50
191.8924974139157
 51
255.5178360550781
  0
LINE
  5
3B6
330
1A
100
AcDbEntity
  8
SEIHIN
  6
CONTINUOUS
 62
     3
 48
16.0
100
AcDbLine
 10
328.7760961805085
 20
264.4141354147551
 30
0.0
 11
328.7760961805085
 21
230.4140354147551
 31
0.0
  0
LINE
  5
3B7
330
1A
100
AcDbEntity
  8
SEIHIN
  6
CONTINUOUS
 62
     3
 48
16.0
100
AcDbLine
 10
327.9760961805085
 20
264.4141354147551
 30
0.0
 11
327.9760961805085
 21
230.4140354147551
 31
0.0
  0
LINE
  5
3B9
330
1A
100
AcDbEntity
  8
SEIHIN
  6
CONTINUOUS
 62
     3
 48
16.0
100
AcDbLine
 10
265.9258944029409
 20
194.7110354147551
 30
0.0
 11
265.9258944029409
 21
221.158421203851
 31
0.0
  0
LINE
  5
3BB
330
1A
100
AcDbEntity
  8
CENTER_L
  6
CENTER
 62
     1
 48
5.0
100
AcDbLine
 10
264.9336071886821
 20
199.3178505526735
 30
0.0
 11
256.9181816171997
 21
199.3178505526735
 31
0.0
  0
LINE
  5
3BC
330
1A
100
AcDbEntity
  8
SEIHIN
  6
CONTINUOUS
 62
     3
 48
16.0
100
AcDbLine
 10
247.7201944029409
 20
192.7110354147551
 30
0.0
 11
263.9258944029409
 21
192.7110354147551
 31
0.0
  0
LINE
  5
3BD
330
1A
100
AcDbEntity
  8
CENTER_L
  6
CENTER
 62
     1
 48
5.0
100
AcDbLine
 10
260.9853047981322
 20
194.7834080752869
 30
0.0
 11
260.9853047981322
 21
203.185508075287
 31
0.0
  0
ELLIPSE
  5
3C1
330
1A
100
AcDbEntity
  8
SEIHIN
  6
CONTINUOUS
100
AcDbEllipse
 10
260.9853047981322
 20
199.9255094740491
 30
0.0
 11
2.000000000000016
 21
0.000000000000334
 31
0.0
210
0.0
220
0.0
230
1.0
 40
0.9284861787512916
 41
-2.977238218266766
 42
-0.1643544353235103
  0
ELLIPSE
  5
3C2
330
1A
100
AcDbEntity
  8
SEIHIN
  6
CONTINUOUS
100
AcDbEllipse
 10
260.9853047981322
 20
199.3178505526735
 30
0.0
 11
-2.0
 21
0.0
 31
0.0
210
0.0
220
0.0
230
1.0
 40
0.9284861787512994
 41
0.0000000000000153
 42
6.283185307179601
  0
ARC
  5
3C3
330
1A
100
AcDbEntity
  8
SEIHIN
  6
CONTINUOUS
 62
     3
 48
16.0
100
AcDbCircle
 10
263.9258944029409
 20
194.7110354147551
 30
0.0
 40
2.0
100
AcDbArc
 50
270.0
 51
0.0
  0
LINE
  5
3C4
330
1A
100
AcDbEntity
  8
CENTER_L
  6
CENTER
 62
     1
 48
5.0
100
AcDbLine
 10
264.9336071886821
 20
217.8877529326308
 30
0.0
 11
256.9181816171997
 21
217.8877529326308
 31
0.0
  0
ELLIPSE
  5
3C6
330
1A
100
AcDbEntity
  8
SEIHIN
  6
CONTINUOUS
100
AcDbEllipse
 10
260.9853047981322
 20
217.8877529326308
 30
0.0
 11
-2.0
 21
0.0
 31
0.0
210
0.0
220
0.0
230
1.0
 40
0.9284861787512994
 41
0.0000000000000153
 42
6.283185307179601
  0
LINE
  5
3C7
330
1A
100
AcDbEntity
  8
CENTER_L
  6
CENTER
 62
     1
 48
5.0
100
AcDbLine
 10
260.9853047981322
 20
213.0351080752869
 30
0.0
 11
260.9853047981322
 21
222.130108075287
 31
0.0
  0
ELLIPSE
  5
3CA
330
1A
100
AcDbEntity
  8
SEIHIN
  6
CONTINUOUS
100
AcDbEllipse
 10
260.9853047981322
 20
218.4954118540064
 30
0.0
 11
2.000000000000016
 21
0.000000000000334
 31
0.0
210
0.0
220
0.0
230
1.0
 40
0.9284861787512916
 41
-2.977238218266766
 42
-0.1643544353235103
  0
LINE
  5
3CE
330
1A
100
AcDbEntity
  8
SEIHIN
  6
CONTINUOUS
 62
     3
 48
16.0
100
AcDbLine
 10
337.6244961805086
 20
202.732435414755
 30
0.0
 11
332.0704961805085
 21
229.1140354147551
 31
0.0
  0
LINE
  5
3CF
330
1A
100
AcDbEntity
  8
SEIHIN
  6
CONTINUOUS
 62
     3
 48
16.0
100
AcDbLine
 10
335.0370961805086
 20
229.1140354147551
 30
0.0
 11
329.2760961805086
 21
229.1140354147551
 31
0.0
  0
LINE
  5
3D0
330
1A
100
AcDbEntity
  8
SEIHIN
  6
CONTINUOUS
 62
     3
 48
16.0
100
AcDbLine
 10
335.0370961805086
 20
229.9140354147551
 30
0.0
 11
329.2760961805086
 21
229.9140354147551
 31
0.0
  0
ARC
  5
3D1
330
1A
100
AcDbEntity
  8
SEIHIN
  6
CONTINUOUS
 62
     3
 48
16.0
100
AcDbCircle
 10
329.2760961805086
 20
230.4140354147552
 30
0.0
 40
0.5000000000000569
100
AcDbArc
 50
180.0000000000065
 51
270.0000000000065
  0
ARC
  5
3D2
330
1A
100
AcDbEntity
  8
SEIHIN
  6
CONTINUOUS
 62
     3
 48
16.0
100
AcDbCircle
 10
329.2760961805086
 20
230.4140354147552
 30
0.0
 40
1.300000000000054
100
AcDbArc
 50
180.0000000000031
 51
270.0000000000031
  0
ARC
  5
3D3
330
1A
100
AcDbEntity
  8
SEIHIN
  6
CONTINUOUS
 62
     3
 48
16.0
100
AcDbCircle
 10
335.0371106549507
 20
228.6140236700309
 30
0.0
 40
0.500011744933657
100
AcDbArc
 50
11.88913635188792
 51
90.00165860992394
  0
ARC
  5
3D4
330
1A
100
AcDbEntity
  8
SEIHIN
  6
CONTINUOUS
 62
     3
 48
16.0
100
AcDbCircle
 10
335.0370855743722
 20
228.6140440205813
 30
0.0
 40
1.299991394217035
100
AcDbArc
 50
11.88773659712914
 51
89.9995325454773
  0
LINE
  5
3D5
330
1A
100
AcDbEntity
  8
SEIHIN
  6
CONTINUOUS
 62
     3
 48
16.0
100
AcDbLine
 10
328.7760961805085
 20
264.4141354147551
 30
0.0
 11
327.9760961805085
 21
264.4141354147551
 31
0.0
  0
LINE
  5
3D6
330
1A
100
AcDbEntity
  8
SEIHIN
  6
CONTINUOUS
 62
     3
 48
16.0
100
AcDbLine
 10
385.7760961805086
 20
191.414035414755
 30
0.0
 11
352.6555961805085
 21
191.414035414755
 31
0.0
  0
LINE
  5
3D7
330
1A
100
AcDbEntity
  8
SEIHIN
  6
CONTINUOUS
 62
     3
 48
16.0
100
AcDbLine
 10
352.6555961805085
 20
187.414035414755
 30
0.0
 11
378.0663961805085
 21
187.414035414755
 31
0.0
  0
LINE
  5
3D8
330
1A
100
AcDbEntity
  8
SEIHIN
  6
CONTINUOUS
 62
     3
 48
16.0
100
AcDbLine
 10
385.7760961805086
 20
190.6140354147551
 30
0.0
 11
352.2205961805085
 21
190.6140354147551
 31
0.0
  0
ARC
  5
3D9
330
1A
100
AcDbEntity
  8
SEIHIN
  6
CONTINUOUS
 62
     3
 48
16.0
100
AcDbCircle
 10
338.8224192086713
 20
190.2588230971646
 30
0.0
 40
12.2000229852242
100
AcDbArc
 50
7.04260335525976
 51
75.5129264023566
  0
ARC
  5
3DA
330
1A
100
AcDbEntity
  8
SEIHIN
  6
CONTINUOUS
 62
     3
 48
16.0
100
AcDbCircle
 10
338.8224507081697
 20
190.2587863138191
 30
0.0
 40
9.000037130307168
100
AcDbArc
 50
8.855862160644395
 51
74.69750366409496
  0
ARC
  5
3DB
330
1A
100
AcDbEntity
  8
SEIHIN
  6
CONTINUOUS
 62
     3
 48
16.0
100
AcDbCircle
 10
338.8224915800857
 20
190.2587406060946
 30
0.0
 40
12.99998939865032
100
AcDbArc
 50
8.856111933885406
 51
74.23680372393824
  0
ARC
  5
3DC
330
1A
100
AcDbEntity
  8
SEIHIN
  6
CONTINUOUS
 62
     3
 48
16.0
100
AcDbCircle
 10
352.6555967498406
 20
192.4140349272549
 30
0.0
 40
4.999999512499991
100
AcDbArc
 50
188.8553201291488
 51
269.9999934759336
  0
ARC
  5
3DD
330
1A
100
AcDbEntity
  8
SEIHIN
  6
CONTINUOUS
 62
     3
 48
16.0
100
AcDbCircle
 10
352.6555883503927
 20
192.41404211971
 30
0.0
 40
1.000006704985651
100
AcDbArc
 50
188.8533344002516
 51
270.0004486295807
  0
ARC
  5
3DE
330
1A
100
AcDbEntity
  8
SEIHIN
  6
CONTINUOUS
 62
     3
 48
16.0
100
AcDbCircle
 10
352.2205908728251
 20
191.9140401070458
 30
0.0
 40
1.300004692301466
100
AcDbArc
 50
187.0432508395375
 51
270.0002339282774
  0
ARC
  5
3DF
330
1A
100
AcDbEntity
  8
SEIHIN
  6
CONTINUOUS
 62
     3
 48
16.0
100
AcDbCircle
 10
342.6257232446808
 20
203.7323064574087
 30
0.0
 40
0.9999696424037496
100
AcDbArc
 50
191.8867149828855
 51
254.2383994571513
  0
LINE
  5
3E0
330
1A
100
AcDbEntity
  8
SEIHIN
  6
CONTINUOUS
 62
     3
 48
16.0
100
AcDbLine
 10
379.9605961805085
 20
186.183435414755
 30
0.0
 11
390.0530961805085
 21
186.183435414755
 31
0.0
  0
LINE
  5
3E1
330
1A
100
AcDbEntity
  8
SEIHIN
  6
CONTINUOUS
 62
     3
 48
16.0
100
AcDbLine
 10
378.0663961805085
 20
189.8424354147551
 30
0.0
 11
393.8801961805085
 21
189.8424354147551
 31
0.0
  0
LINE
  5
3E2
330
1A
100
AcDbEntity
  8
SEIHIN
  6
CONTINUOUS
 62
     3
 48
16.0
100
AcDbLine
 10
378.0663961805085
 20
187.414035414755
 30
0.0
 11
378.0663961805085
 21
189.8424354147551
 31
0.0
  0
LINE
  5
3E3
330
1A
100
AcDbEntity
  8
SEIHIN
  6
CONTINUOUS
 62
     3
 48
16.0
100
AcDbLine
 10
379.9605961805085
 20
186.183435414755
 30
0.0
 11
378.0663961805085
 21
187.414035414755
 31
0.0
  0
ARC
  5
3E4
330
1A
100
AcDbEntity
  8
SEIHIN
  6
CONTINUOUS
 62
     3
 48
16.0
100
AcDbCircle
 10
393.8801711938752
 20
184.8424568823471
 30
0.0
 40
4.999978532470417
100
AcDbArc
 50
8.663805950017367
 51
89.99971367304492
  0
LINE
  5
3E9
330
1A
100
AcDbEntity
  8
CENTER_L
  6
CENTER
 62
     1
 48
5.0
100
AcDbLine
 10
385.7760961805086
 20
356.4139354147551
 30
0.0
 11
321.9424961805085
 21
356.4140354147551
 31
0.0
  0
LINE
  5
3EA
330
1A
100
AcDbEntity
  8
SEIHIN
  6
CONTINUOUS
 62
     3
 48
16.0
100
AcDbLine
 10
379.2378961805086
 20
353.9139354147551
 30
0.0
 11
335.6092961805086
 21
353.9140354147551
 31
0.0
  0
LINE
  5
3EB
330
1A
100
AcDbEntity
  8
SEIHIN
  6
CONTINUOUS
 62
     3
 48
16.0
100
AcDbLine
 10
385.7760961805086
 20
348.913935414755
 30
0.0
 11
335.6092961805086
 21
348.9140354147551
 31
0.0
  0
LINE
  5
3EC
330
1A
100
AcDbEntity
  8
SEIHIN
  6
CONTINUOUS
 62
     3
 48
16.0
100
AcDbLine
 10
341.6472961805085
 20
345.4140354147551
 30
0.0
 11
328.7761961805086
 21
345.4140354147551
 31
0.0
  0
LINE
  5
3ED
330
1A
100
AcDbEntity
  8
SEIHIN
  6
CONTINUOUS
 62
     3
 48
16.0
100
AcDbLine
 10
379.2378961805086
 20
358.9140354147551
 30
0.0
 11
335.6092961805086
 21
358.913935414755
 31
0.0
  0
LINE
  5
3EE
330
1A
100
AcDbEntity
  8
SEIHIN
  6
CONTINUOUS
 62
     3
 48
16.0
100
AcDbLine
 10
385.7760961805086
 20
363.9140354147552
 30
0.0
 11
335.6092961805086
 21
363.913935414755
 31
0.0
  0
LINE
  5
3EF
330
1A
100
AcDbEntity
  8
SEIHIN
  6
CONTINUOUS
 62
     3
 48
16.0
100
AcDbLine
 10
341.6472961805085
 20
367.413935414755
 30
0.0
 11
328.7761961805086
 21
367.413935414755
 31
0.0
  0
ARC
  5
3F0
330
1A
100
AcDbEntity
  8
SEIHIN
  6
CONTINUOUS
 62
     3
 48
16.0
100
AcDbCircle
 10
335.6092961805086
 20
361.413935414755
 30
0.0
 40
2.5
100
AcDbArc
 50
90.0
 51
270.0
  0
LINE
  5
3F1
330
1A
100
AcDbEntity
  8
SEIHIN
  6
CONTINUOUS
 62
     3
 48
16.0
100
AcDbLine
 10
328.7761961805086
 20
356.4140354147551
 30
0.0
 11
328.7761961805086
 21
368.9139354147551
 31
0.0
  0
LINE
  5
3F2
330
1A
100
AcDbEntity
  8
SEIHIN
  6
CONTINUOUS
 62
     3
 48
16.0
100
AcDbLine
 10
327.9761961805085
 20
368.9140354147552
 30
0.0
 11
327.9761961805085
 21
356.414135414755
 31
0.0
  0
LINE
  5
3F3
330
1A
100
AcDbEntity
  8
SEIHIN
  6
CONTINUOUS
 62
     3
 48
16.0
100
AcDbLine
 10
336.3092961805087
 20
345.4140354147551
 30
0.0
 11
336.3092961805087
 21
348.9140354147551
 31
0.0
  0
LINE
  5
3F4
330
1A
100
AcDbEntity
  8
SEIHIN
  6
CONTINUOUS
 62
     3
 48
16.0
100
AcDbLine
 10
327.9761961805085
 20
343.9140354147551
 30
0.0
 11
327.9761961805085
 21
356.4139354147551
 31
0.0
  0
LINE
  5
3F5
330
1A
100
AcDbEntity
  8
SEIHIN
  6
CONTINUOUS
 62
     3
 48
16.0
100
AcDbLine
 10
328.7761961805086
 20
356.4139354147551
 30
0.0
 11
328.7761961805086
 21
343.9140354147551
 31
0.0
  0
LINE
  5
3F6
330
1A
100
AcDbEntity
  8
SEIHIN
  6
CONTINUOUS
 62
     3
 48
16.0
100
AcDbLine
 10
328.7761961805086
 20
343.9140354147551
 30
0.0
 11
327.9761961805085
 21
343.9140354147551
 31
0.0
  0
LINE
  5
3F7
330
1A
100
AcDbEntity
  8
SEIHIN
  6
CONTINUOUS
 62
     3
 48
16.0
100
AcDbLine
 10
336.3092961805087
 20
353.9140354147551
 30
0.0
 11
336.3092961805087
 21
356.4140354147551
 31
0.0
  0
LINE
  5
3F8
330
1A
100
AcDbEntity
  8
SEIHIN
  6
CONTINUOUS
 62
     3
 48
16.0
100
AcDbLine
 10
336.3092961805087
 20
358.9140354147551
 30
0.0
 11
336.3092961805087
 21
356.4140354147551
 31
0.0
  0
ARC
  5
3F9
330
1A
100
AcDbEntity
  8
SEIHIN
  6
CONTINUOUS
 62
     3
 48
16.0
100
AcDbCircle
 10
335.6092961805086
 20
351.4140354147551
 30
0.0
 40
2.5
100
AcDbArc
 50
90.0
 51
270.0
  0
LINE
  5
3FA
330
1A
100
AcDbEntity
  8
SEIHIN
  6
CONTINUOUS
 62
     3
 48
16.0
100
AcDbLine
 10
328.7761961805086
 20
368.9139354147551
 30
0.0
 11
327.9761961805085
 21
368.9139354147551
 31
0.0
  0
LINE
  5
3FB
330
1A
100
AcDbEntity
  8
SEIHIN
  6
CONTINUOUS
 62
     3
 48
16.0
100
AcDbLine
 10
336.3092961805087
 20
367.4140354147552
 30
0.0
 11
336.3092961805087
 21
363.913935414755
 31
0.0
  0
ARC
  5
3FC
330
1A
100
AcDbEntity
  8
SEIHIN
  6
CONTINUOUS
 62
     3
 48
16.0
100
AcDbCircle
 10
385.7761961805087
 20
356.4140354147551
 30
0.0
 40
5.0
100
AcDbArc
 50
0.0
 51
180.0
  0
ARC
  5
3FD
330
1A
100
AcDbEntity
  8
SEIHIN
  6
CONTINUOUS
 62
     3
 48
16.0
100
AcDbCircle
 10
385.7761961805086
 20
356.4140354147552
 30
0.0
 40
6.999954777710965
100
AcDbArc
 50
20.92497395880684
 51
159.0750260411931
  0
LINE
  5
3FE
330
1A
100
AcDbEntity
  8
CENTER_L
  6
CENTER
 62
     1
 48
5.0
100
AcDbLine
 10
385.7761961805087
 20
338.935635414755
 30
0.0
 11
385.7761961805087
 21
373.0939354147549
 31
0.0
  0
LINE
  5
3FF
330
1A
100
AcDbEntity
  8
SEIHIN
  6
CONTINUOUS
 62
     3
 48
16.0
100
AcDbLine
 10
385.7760961805086
 20
345.4139354147551
 30
0.0
 11
352.6556961805086
 21
345.4140354147551
 31
0.0
  0
LINE
  5
400
330
1A
100
AcDbEntity
  8
SEIHIN
  6
CONTINUOUS
 62
     3
 48
16.0
100
AcDbLine
 10
352.6556961805086
 20
345.4139354147551
 30
0.0
 11
352.6556961805086
 21
348.9140354147551
 31
0.0
  0
LINE
  5
401
330
1A
100
AcDbEntity
  8
SEIHIN
  6
CONTINUOUS
 62
     3
 48
16.0
100
AcDbLine
 10
341.6472961805085
 20
345.4140354147551
 30
0.0
 11
341.6472961805085
 21
348.9140354147551
 31
0.0
  0
ARC
  5
402
330
1A
100
AcDbEntity
  8
SEIHIN
  6
CONTINUOUS
 62
     3
 48
16.0
100
AcDbCircle
 10
347.1514961805086
 20
316.0409354147548
 30
0.0
 40
29.88426587085612
100
AcDbArc
 50
79.38644552492004
 51
100.6135544750799
  0
LINE
  5
403
330
1A
100
AcDbEntity
  8
SEIHIN
  6
CONTINUOUS
 62
     3
 48
16.0
100
AcDbLine
 10
341.6472961805085
 20
353.9140354147551
 30
0.0
 11
341.6472961805085
 21
356.4140354147551
 31
0.0
  0
LINE
  5
404
330
1A
100
AcDbEntity
  8
SEIHIN
  6
CONTINUOUS
 62
     3
 48
16.0
100
AcDbLine
 10
341.6472961805085
 20
358.9140354147551
 30
0.0
 11
341.6472961805085
 21
356.4140354147551
 31
0.0
  0
LINE
  5
405
330
1A
100
AcDbEntity
  8
SEIHIN
  6
CONTINUOUS
 62
     3
 48
16.0
100
AcDbLine
 10
352.6556961805086
 20
353.9140354147551
 30
0.0
 11
352.6556961805086
 21
356.4139354147551
 31
0.0
  0
LINE
  5
406
330
1A
100
AcDbEntity
  8
SEIHIN
  6
CONTINUOUS
 62
     3
 48
16.0
100
AcDbLine
 10
352.6556961805086
 20
358.9140354147551
 30
0.0
 11
352.6556961805086
 21
356.4140354147551
 31
0.0
  0
ARC
  5
407
330
1A
100
AcDbEntity
  8
SEIHIN
  6
CONTINUOUS
 62
     3
 48
16.0
100
AcDbCircle
 10
385.7761961805087
 20
356.4140354147551
 30
0.0
 40
5.0
100
AcDbArc
 50
180.0
 51
0.0
  0
ARC
  5
408
330
1A
100
AcDbEntity
  8
SEIHIN
  6
CONTINUOUS
 62
     3
 48
16.0
100
AcDbCircle
 10
385.7761961805086
 20
356.4140354147551
 30
0.0
 40
6.999990492850596
100
AcDbArc
 50
200.9257384892645
 51
339.0742615107354
  0
LINE
  5
409
330
1A
100
AcDbEntity
  8
SEIHIN
  6
CONTINUOUS
 62
     3
 48
16.0
100
AcDbLine
 10
387.7761961805087
 20
354.4140354147551
 30
0.0
 11
387.7761961805087
 21
358.4140354147551
 31
0.0
  0
LINE
  5
40B
330
1A
100
AcDbEntity
  8
SEIHIN
  6
CONTINUOUS
 62
     3
 48
16.0
100
AcDbLine
 10
383.7761961805087
 20
354.4140354147551
 30
0.0
 11
383.7761961805087
 21
358.4140354147551
 31
0.0
  0
LINE
  5
40D
330
1A
100
AcDbEntity
  8
SEIHIN
  6
CONTINUOUS
 62
     3
 48
16.0
100
AcDbLine
 10
383.7761961805087
 20
354.4140354147551
 30
0.0
 11
387.7761961805087
 21
354.4140354147551
 31
0.0
  0
LINE
  5
40E
330
1A
100
AcDbEntity
  8
SEIHIN
  6
CONTINUOUS
 62
     3
 48
16.0
100
AcDbLine
 10
383.7761961805087
 20
358.4140354147551
 30
0.0
 11
387.7761961805087
 21
358.4140354147551
 31
0.0
  0
LINE
  5
40F
330
1A
100
AcDbEntity
  8
SEIHIN
  6
CONTINUOUS
 62
     3
 48
16.0
100
AcDbLine
 10
385.7760961805086
 20
367.4140354147552
 30
0.0
 11
352.6556961805086
 21
367.4140354147552
 31
0.0
  0
ARC
  5
410
330
1A
100
AcDbEntity
  8
SEIHIN
  6
CONTINUOUS
 62
     3
 48
16.0
100
AcDbCircle
 10
347.1514461805085
 20
396.7870354148373
 30
0.0
 40
29.88425666178313
100
AcDbArc
 50
259.3865397477245
 51
280.6134602522754
  0
LINE
  5
411
330
1A
100
AcDbEntity
  8
SEIHIN
  6
CONTINUOUS
 62
     3
 48
16.0
100
AcDbLine
 10
341.6472961805085
 20
367.4140354147552
 30
0.0
 11
341.6472961805085
 21
363.913935414755
 31
0.0
  0
LINE
  5
412
330
1A
100
AcDbEntity
  8
SEIHIN
  6
CONTINUOUS
 62
     3
 48
16.0
100
AcDbLine
 10
352.6556961805086
 20
367.4140354147552
 30
0.0
 11
352.6556961805086
 21
363.9140354147552
 31
0.0
  0
LINE
  5
41A
330
1A
100
AcDbEntity
  8
SEIHIN
  6
CONTINUOUS
 62
     3
 48
16.0
100
AcDbLine
 10
440.5136961805085
 20
223.4957354147551
 30
0.0
 11
430.7433961805084
 21
174.055935414755
 31
0.0
  0
LINE
  5
41B
330
1A
100
AcDbEntity
  8
SEIHIN
  6
CONTINUOUS
 62
     3
 48
16.0
100
AcDbLine
 10
436.1190961805085
 20
224.463435414755
 30
0.0
 11
427.0839961805084
 21
178.7438354147551
 31
0.0
  0
ARC
  5
41C
330
1A
100
AcDbEntity
  8
SEIHIN
  6
CONTINUOUS
 62
     3
 48
16.0
100
AcDbCircle
 10
422.2150877330663
 20
179.881228713246
 30
0.0
 40
4.99999329849807
100
AcDbArc
 50
270.0000968006883
 51
346.8513068508626
  0
ARC
  5
41D
330
1A
100
AcDbEntity
  8
SEIHIN
  6
CONTINUOUS
 62
     3
 48
16.0
100
AcDbCircle
 10
425.8382401979294
 20
175.0253715844933
 30
0.0
 40
5.000036169932031
100
AcDbArc
 50
269.999495601162
 51
348.8203556848361
  0
LINE
  5
41E
330
1A
100
AcDbEntity
  8
SEIHIN
  6
CONTINUOUS
 62
     3
 48
16.0
100
AcDbLine
 10
442.7760961805086
 20
244.2624354147551
 30
0.0
 11
442.7760961805086
 21
230.4140354147551
 31
0.0
  0
LINE
  5
41F
330
1A
100
AcDbEntity
  8
SEIHIN
  6
CONTINUOUS
 62
     3
 48
16.0
100
AcDbLine
 10
443.5760961805086
 20
244.2624354147551
 30
0.0
 11
443.5760961805086
 21
230.4140354147551
 31
0.0
  0
LINE
  5
420
330
1A
100
AcDbEntity
  8
SEIHIN
  6
CONTINUOUS
 62
     3
 48
16.0
100
AcDbLine
 10
436.5150961805086
 20
229.9140354147551
 30
0.0
 11
442.2760961805085
 21
229.9140354147551
 31
0.0
  0
LINE
  5
421
330
1A
100
AcDbEntity
  8
SEIHIN
  6
CONTINUOUS
 62
     3
 48
16.0
100
AcDbLine
 10
436.5150961805086
 20
229.1140354147551
 30
0.0
 11
442.2760961805085
 21
229.1140354147551
 31
0.0
  0
ARC
  5
422
330
1A
100
AcDbEntity
  8
SEIHIN
  6
CONTINUOUS
 62
     3
 48
16.0
100
AcDbCircle
 10
441.0243392821603
 20
223.494071415537
 30
0.0
 40
5.000009541057022
100
AcDbArc
 50
90.92070199441677
 51
168.8211383848322
  0
LINE
  5
423
330
1A
100
AcDbEntity
  8
SEIHIN
  6
CONTINUOUS
 62
     3
 48
16.0
100
AcDbLine
 10
439.2855783611095
 20
228.1820140207837
 30
0.0
 11
439.4817961805085
 21
229.1140354147551
 31
0.0
  0
LINE
  5
424
330
1A
100
AcDbEntity
  8
SEIHIN
  6
CONTINUOUS
 62
     3
 48
16.0
100
AcDbLine
 10
429.9049961805085
 20
203.5263354147551
 30
0.0
 11
435.2429961805087
 21
228.8818354147551
 31
0.0
  0
LINE
  5
425
330
1A
100
AcDbEntity
  8
SEIHIN
  6
CONTINUOUS
 62
     3
 48
16.0
100
AcDbLine
 10
430.6246961805086
 20
203.0617354147551
 30
0.0
 11
436.0257961805086
 21
228.717035414755
 31
0.0
  0
ARC
  5
426
330
1A
100
AcDbEntity
  8
SEIHIN
  6
CONTINUOUS
 62
     3
 48
16.0
100
AcDbCircle
 10
432.7298416528473
 20
190.2587863138191
 30
0.0
 40
9.000037130307161
100
AcDbArc
 50
105.3024963359049
 51
171.1441378393556
  0
ARC
  5
427
330
1A
100
AcDbEntity
  8
SEIHIN
  6
CONTINUOUS
 62
     3
 48
16.0
100
AcDbCircle
 10
432.7298296300457
 20
190.2587735191135
 30
0.0
 40
12.20008511552039
100
AcDbArc
 50
104.4872721562738
 51
172.9571980861119
  0
ARC
  5
428
330
1A
100
AcDbEntity
  8
SEIHIN
  6
CONTINUOUS
 62
     3
 48
16.0
100
AcDbCircle
 10
432.7297567940795
 20
190.2586909688214
 30
0.0
 40
13.0000523859124
100
AcDbArc
 50
105.763374430302
 51
171.1437099118754
  0
ARC
  5
429
330
1A
100
AcDbEntity
  8
SEIHIN
  6
CONTINUOUS
 62
     3
 48
16.0
100
AcDbCircle
 10
418.8965956111763
 20
192.4140349272549
 30
0.0
 40
4.999999512499957
100
AcDbArc
 50
270.0000065240667
 51
351.1446798708515
  0
ARC
  5
42A
330
1A
100
AcDbEntity
  8
SEIHIN
  6
CONTINUOUS
 62
     3
 48
16.0
100
AcDbCircle
 10
419.331601488192
 20
191.9140401070459
 30
0.0
 40
1.300004692301633
100
AcDbArc
 50
269.9997660717162
 51
352.9567491604564
  0
ARC
  5
42B
330
1A
100
AcDbEntity
  8
SEIHIN
  6
CONTINUOUS
 62
     3
 48
16.0
100
AcDbCircle
 10
418.8966040106244
 20
192.4140421197102
 30
0.0
 40
1.000006704985824
100
AcDbArc
 50
269.9995513704111
 51
351.1466655997403
  0
ARC
  5
42C
330
1A
100
AcDbEntity
  8
SEIHIN
  6
CONTINUOUS
 62
     3
 48
16.0
100
AcDbCircle
 10
429.0349894525349
 20
203.762428273509
 30
0.0
 40
4.999946441217565
100
AcDbArc
 50
285.3018487195384
 51
294.7857549401506
  0
ARC
  5
42D
330
1A
100
AcDbEntity
  8
SEIHIN
  6
CONTINUOUS
 62
     3
 48
16.0
100
AcDbCircle
 10
428.9264157379071
 20
203.73235634267
 30
0.0
 40
1.000032152173577
100
AcDbArc
 50
285.763767446298
 51
348.111118113665
  0
ARC
  5
42E
330
1A
100
AcDbEntity
  8
SEIHIN
  6
CONTINUOUS
 62
     3
 48
16.0
100
AcDbCircle
 10
429.3526280023923
 20
203.3295687139663
 30
0.0
 40
1.299958509315886
100
AcDbArc
 50
284.4856400648897
 51
348.1100708326136
  0
ARC
  5
42F
330
1A
100
AcDbEntity
  8
SEIHIN
  6
CONTINUOUS
 62
     3
 48
16.0
100
AcDbCircle
 10
436.5150817060666
 20
228.6140236700309
 30
0.0
 40
0.5000117449336595
100
AcDbArc
 50
89.99834139007605
 51
168.110863648112
  0
ARC
  5
430
330
1A
100
AcDbEntity
  8
SEIHIN
  6
CONTINUOUS
 62
     3
 48
16.0
100
AcDbCircle
 10
436.5151067866452
 20
228.6140440205813
 30
0.0
 40
1.299991394217067
100
AcDbArc
 50
90.00046745452145
 51
168.1122634028699
  0
LINE
  5
431
330
1A
100
AcDbEntity
  8
SEIHIN
  6
CONTINUOUS
 62
     3
 48
16.0
100
AcDbLine
 10
471.4289961805085
 20
193.4812354147551
 30
0.0
 11
459.282082616861
 21
223.8507693263867
 31
0.0
  0
LINE
  5
432
330
1A
100
AcDbEntity
  8
SEIHIN
  6
CONTINUOUS
 62
     3
 48
16.0
100
AcDbLine
 10
474.8197987497889
 20
194.8374674501793
 30
0.0
 11
462.5030243451667
 21
225.6315545225979
 31
0.0
  0
LINE
  5
433
330
1A
100
AcDbEntity
  8
SEIHIN
  6
CONTINUOUS
 62
     3
 48
16.0
100
AcDbLine
 10
475.9339961805086
 20
195.283035414755
 30
0.0
 11
463.8550961805086
 21
225.482435414755
 31
0.0
  0
LINE
  5
434
330
1A
100
AcDbEntity
  8
SEIHIN
  6
CONTINUOUS
 62
     3
 48
16.0
100
AcDbLine
 10
475.9339961805086
 20
195.283035414755
 30
0.0
 11
471.4289961805085
 21
193.4812354147551
 31
0.0
  0
LINE
  5
435
330
1A
100
AcDbEntity
  8
CENTER_L
  6
CENTER
 62
     1
 48
5.0
100
AcDbLine
 10
480.5765505044247
 20
202.5250569361082
 30
0.0
 11
466.6132961805085
 21
196.9402354147551
 31
0.0
  0
LINE
  5
436
330
1A
100
AcDbEntity
  8
CENTER_L
  6
CENTER
 62
     1
 48
5.0
100
AcDbLine
 10
473.1491128335176
 20
221.0949731701027
 30
0.0
 11
459.1858961805085
 21
215.510135414755
 31
0.0
  0
LINE
  5
438
330
1A
100
AcDbEntity
  8
SEIHIN
  6
CONTINUOUS
 62
     3
 48
16.0
100
AcDbLine
 10
459.1323961804062
 20
228.6249354147542
 30
0.0
 11
440.9439961805087
 21
228.4934354147551
 31
0.0
  0
LINE
  5
43A
330
1A
100
AcDbEntity
  8
SEIHIN
  6
CONTINUOUS
 62
     3
 48
16.0
100
AcDbLine
 10
457.4251102593628
 20
225.1080354147551
 30
0.0
 11
442.4757961805084
 21
225.1080354147551
 31
0.0
  0
ARC
  5
43B
330
1A
100
AcDbEntity
  8
SEIHIN
  6
CONTINUOUS
 62
     3
 48
16.0
100
AcDbCircle
 10
442.4757737131592
 20
223.1080169524255
 30
0.0
 40
2.00001846245574
100
AcDbArc
 50
89.99935636379699
 51
168.8220137568882
  0
ARC
  5
43C
330
1A
100
AcDbEntity
  8
SEIHIN
  6
CONTINUOUS
 62
     3
 48
16.0
100
AcDbCircle
 10
442.2760961805086
 20
230.4140354147552
 30
0.0
 40
1.300000000000054
100
AcDbArc
 50
269.9999999999974
 51
359.9999999999968
  0
ARC
  5
43D
330
1A
100
AcDbEntity
  8
SEIHIN
  6
CONTINUOUS
 62
     3
 48
16.0
100
AcDbCircle
 10
442.2760961805086
 20
230.4140354147552
 30
0.0
 40
0.5000000000000569
100
AcDbArc
 50
269.9999999999934
 51
359.9999999999934
  0
LINE
  5
43E
330
1A
100
AcDbEntity
  8
SEIHIN
  6
CONTINUOUS
 62
     3
 48
16.0
100
AcDbLine
 10
463.6787753004017
 20
222.6919717956952
 30
0.0
 11
464.7929961805086
 21
223.1376354147551
 31
0.0
  0
ARC
  5
43F
330
1A
100
AcDbEntity
  8
SEIHIN
  6
CONTINUOUS
 62
     3
 48
16.0
100
AcDbCircle
 10
459.2127061177844
 20
223.6256288024311
 30
0.0
 40
4.999951628771082
100
AcDbArc
 50
21.79981978501242
 51
90.92033257094545
  0
LINE
  5
440
330
1A
100
AcDbEntity
  8
SEIHIN
  6
CONTINUOUS
 62
     3
 48
16.0
100
AcDbLine
 10
433.5731961805087
 20
240.6227354147551
 30
0.0
 11
442.7760961805086
 21
244.9140354147551
 31
0.0
  0
LINE
  5
441
330
1A
100
AcDbEntity
  8
SEIHIN
  6
CONTINUOUS
 62
     3
 48
16.0
100
AcDbLine
 10
441.9396961805087
 20
245.518135414755
 30
0.0
 11
432.9097961805087
 21
243.0986354147551
 31
0.0
  0
LINE
  5
442
330
1A
100
AcDbEntity
  8
SEIHIN
  6
CONTINUOUS
 62
     3
 48
16.0
100
AcDbLine
 10
433.1167961805085
 20
242.3259354147552
 30
0.0
 11
442.1466961805085
 21
244.7454354147551
 31
0.0
  0
LINE
  5
443
330
1A
100
AcDbEntity
  8
SEIHIN
  6
CONTINUOUS
 62
     3
 48
16.0
100
AcDbLine
 10
432.9097961805087
 20
243.0986354147551
 30
0.0
 11
433.5731961805087
 21
240.6227354147551
 31
0.0
  0
ARC
  5
446
330
1A
100
AcDbEntity
  8
SEIHIN
  6
CONTINUOUS
 62
     3
 48
16.0
100
AcDbCircle
 10
442.2761062863564
 20
244.2624276598847
 30
0.0
 40
1.29998989417532
100
AcDbArc
 50
0.0003417883053617
 51
104.9976256188607
  0
ARC
  5
447
330
1A
100
AcDbEntity
  8
SEIHIN
  6
CONTINUOUS
 62
     3
 48
16.0
100
AcDbCircle
 10
442.276079501065
 20
244.2624482138404
 30
0.0
 40
0.500016679607472
100
AcDbArc
 50
359.9985333817932
 51
104.9963795636866
  0
LINE
  5
483
330
1A
100
AcDbEntity
  8
SEIHIN
  6
CONTINUOUS
 62
     3
 48
16.0
100
AcDbLine
 10
474.4147961805087
 20
365.113935414755
 30
0.0
 11
474.4147961805087
 21
356.8140354147551
 31
0.0
  0
LINE
  5
484
330
1A
100
AcDbEntity
  8
SEIHIN
  6
CONTINUOUS
 62
     3
 48
16.0
100
AcDbLine
 10
443.5761961805085
 20
368.9140354147552
 30
0.0
 11
443.5761961805085
 21
356.4140354147551
 31
0.0
  0
LINE
  5
485
330
1A
100
AcDbEntity
  8
SEIHIN
  6
CONTINUOUS
 62
     3
 48
16.0
100
AcDbLine
 10
432.5761961805086
 20
356.4140354147551
 30
0.0
 11
432.5761961805086
 21
365.4140354147552
 31
0.0
  0
LINE
  5
486
330
1A
100
AcDbEntity
  8
SEIHIN
  6
CONTINUOUS
 62
     3
 48
16.0
100
AcDbLine
 10
443.5761961805085
 20
347.4140354147551
 30
0.0
 11
432.5761961805086
 21
347.4140354147551
 31
0.0
  0
LINE
  5
487
330
1A
100
AcDbEntity
  8
SEIHIN
  6
CONTINUOUS
 62
     3
 48
16.0
100
AcDbLine
 10
429.9049961805085
 20
345.4139354147551
 30
0.0
 11
442.7761961805087
 21
345.4139354147551
 31
0.0
  0
ARC
  5
488
330
1A
100
AcDbEntity
  8
SEIHIN
  6
CONTINUOUS
 62
     3
 48
16.0
100
AcDbCircle
 10
424.4008461805085
 20
316.0409354146732
 30
0.0
 40
29.88425666178281
100
AcDbArc
 50
79.38653974772461
 51
100.6134602522753
  0
LINE
  5
489
330
1A
100
AcDbEntity
  8
SEIHIN
  6
CONTINUOUS
 62
     3
 48
16.0
100
AcDbLine
 10
418.8966961805086
 20
345.4139354147551
 30
0.0
 11
418.8966961805086
 21
348.913935414755
 31
0.0
  0
LINE
  5
48A
330
1A
100
AcDbEntity
  8
SEIHIN
  6
CONTINUOUS
 62
     3
 48
16.0
100
AcDbLine
 10
418.8966961805086
 20
353.9139354147551
 30
0.0
 11
418.8966961805086
 21
356.4139354147551
 31
0.0
  0
LINE
  5
48B
330
1A
100
AcDbEntity
  8
SEIHIN
  6
CONTINUOUS
 62
     3
 48
16.0
100
AcDbLine
 10
418.8966961805086
 20
358.9140354147551
 30
0.0
 11
418.8966961805086
 21
356.4140354147551
 31
0.0
  0
LINE
  5
48C
330
1A
100
AcDbEntity
  8
SEIHIN
  6
CONTINUOUS
 62
     3
 48
16.0
100
AcDbLine
 10
429.9049961805085
 20
345.4139354147551
 30
0.0
 11
429.9049961805085
 21
348.913935414755
 31
0.0
  0
LINE
  5
48D
330
1A
100
AcDbEntity
  8
SEIHIN
  6
CONTINUOUS
 62
     3
 48
16.0
100
AcDbLine
 10
432.5761961805086
 20
356.4140354147551
 30
0.0
 11
432.5761961805086
 21
347.4140354147551
 31
0.0
  0
LINE
  5
48E
330
1A
100
AcDbEntity
  8
SEIHIN
  6
CONTINUOUS
 62
     3
 48
16.0
100
AcDbLine
 10
435.2430961805087
 20
345.4139354147551
 30
0.0
 11
435.2430961805087
 21
347.4140354147551
 31
0.0
  0
LINE
  5
48F
330
1A
100
AcDbEntity
  8
SEIHIN
  6
CONTINUOUS
 62
     3
 48
16.0
100
AcDbLine
 10
429.9049961805085
 20
353.9139354147551
 30
0.0
 11
429.9049961805085
 21
356.4139354147551
 31
0.0
  0
LINE
  5
490
330
1A
100
AcDbEntity
  8
SEIHIN
  6
CONTINUOUS
 62
     3
 48
16.0
100
AcDbLine
 10
429.9049961805085
 20
358.9140354147551
 30
0.0
 11
429.9049961805085
 21
356.4140354147551
 31
0.0
  0
LINE
  5
491
330
1A
100
AcDbEntity
  8
SEIHIN
  6
CONTINUOUS
 62
     3
 48
16.0
100
AcDbLine
 10
475.9340961805087
 20
329.6640354147551
 30
0.0
 11
475.9340961805086
 21
346.2140595832277
 31
0.0
  0
LINE
  5
492
330
1A
100
AcDbEntity
  8
CENTER_L
  6
CENTER
 62
     1
 48
5.0
100
AcDbLine
 10
474.0772961805086
 20
328.9643354147551
 30
0.0
 11
474.0772961805086
 21
335.8891354147552
 31
0.0
  0
LINE
  5
493
330
1A
100
AcDbEntity
  8
SEIHIN
  6
CONTINUOUS
 62
     3
 48
16.0
100
AcDbLine
 10
464.7930067347096
 20
329.6640459689005
 30
0.0
 11
464.7930940804944
 21
346.2159848107798
 31
0.0
  0
LINE
  5
494
330
1A
100
AcDbEntity
  8
SEIHIN
  6
CONTINUOUS
 62
     3
 48
16.0
100
AcDbLine
 10
463.6787753004017
 20
329.6640354147551
 30
0.0
 11
463.6787753004017
 21
345.4140354147551
 31
0.0
  0
LINE
  5
496
330
1A
100
AcDbEntity
  8
CENTER_L
  6
CENTER
 62
     1
 48
5.0
100
AcDbLine
 10
466.6498961805086
 20
328.9643354147551
 30
0.0
 11
466.6498961805086
 21
335.8891354147552
 31
0.0
  0
LINE
  5
497
330
1A
100
AcDbEntity
  8
CENTER_L
  6
CENTER
 62
     1
 48
5.0
100
AcDbLine
 10
468.8069961805086
 20
332.6640354147551
 30
0.0
 11
464.0049961805086
 21
332.6640354147551
 31
0.0
  0
LINE
  5
498
330
1A
100
AcDbEntity
  8
SEIHIN
  6
CONTINUOUS
 62
     3
 48
16.0
100
AcDbLine
 10
473.9340961805087
 20
327.6640354147551
 30
0.0
 11
465.6787753004017
 21
327.6640354147551
 31
0.0
  0
ARC
  5
499
330
1A
100
AcDbEntity
  8
SEIHIN
  6
CONTINUOUS
100
AcDbCircle
 10
476.3978831029691
 20
332.6640354147564
 30
0.0
 40
3.063514919939104
100
AcDbArc
 50
139.2435621123428
 51
220.7564378876942
  0
LINE
  5
49A
330
1A
100
AcDbEntity
  8
CENTER_L
  6
CENTER
 62
     1
 48
5.0
100
AcDbLine
 10
477.5492961805086
 20
332.6640354147551
 30
0.0
 11
471.1315961805085
 21
332.6640354147551
 31
0.0
  0
ARC
  5
49B
330
1A
100
AcDbEntity
  8
SEIHIN
  6
CONTINUOUS
100
AcDbCircle
 10
468.9704831029692
 20
332.6640354147564
 30
0.0
 40
3.063514919939104
100
AcDbArc
 50
139.2435621123428
 51
220.7564378876942
  0
ARC
  5
49C
330
1A
100
AcDbEntity
  8
SEIHIN
  6
CONTINUOUS
100
AcDbCircle
 10
464.3293092580481
 20
332.6640354147564
 30
0.0
 40
3.063514919939104
100
AcDbArc
 50
319.2435621123057
 51
40.75643788765717
  0
ARC
  5
49D
330
1A
100
AcDbEntity
  8
SEIHIN
  6
CONTINUOUS
100
AcDbCircle
 10
471.7567092580481
 20
332.6640354147564
 30
0.0
 40
3.063514919939104
100
AcDbArc
 50
319.2435621123057
 51
40.75643788765717
  0
LINE
  5
49E
330
1A
100
AcDbEntity
  8
SEIHIN
  6
CONTINUOUS
 62
     3
 48
16.0
100
AcDbLine
 10
474.4147961805087
 20
347.2139354147551
 30
0.0
 11
443.5761961805085
 21
347.2139354147551
 31
0.0
  0
ARC
  5
49F
330
1A
100
AcDbEntity
  8
SEIHIN
  6
CONTINUOUS
 62
     3
 48
16.0
100
AcDbCircle
 10
463.7930961805085
 20
346.213935414755
 30
0.0
 40
1.000000000000113
100
AcDbArc
 50
0.0
 51
90.0
  0
LINE
  5
4A1
330
1A
100
AcDbEntity
  8
SEIHIN
  6
CONTINUOUS
 62
     3
 48
16.0
100
AcDbLine
 10
443.5761961805085
 20
343.9139354147551
 30
0.0
 11
443.5761961805085
 21
356.4139354147551
 31
0.0
  0
LINE
  5
4A2
330
1A
100
AcDbEntity
  8
SEIHIN
  6
CONTINUOUS
 62
     3
 48
16.0
100
AcDbLine
 10
462.6787753004016
 20
346.4140354147551
 30
0.0
 11
443.5761961805085
 21
346.4140354147551
 31
0.0
  0
LINE
  5
4A3
330
1A
100
AcDbEntity
  8
SEIHIN
  6
CONTINUOUS
 62
     3
 48
16.0
100
AcDbLine
 10
442.7761961805087
 20
343.9140354147551
 30
0.0
 11
443.5760961805086
 21
343.9140354147551
 31
0.0
  0
LINE
  5
4A4
330
1A
100
AcDbEntity
  8
SEIHIN
  6
CONTINUOUS
 62
     3
 48
16.0
100
AcDbLine
 10
442.7761961805087
 20
347.4140354147551
 30
0.0
 11
442.7761961805087
 21
343.9139354147551
 31
0.0
  0
LINE
  5
4A7
330
1A
100
AcDbEntity
  8
SEIHIN
  6
CONTINUOUS
 62
     3
 48
16.0
100
AcDbLine
 10
474.9340961805085
 20
347.6139354147551
 30
0.0
 11
474.9147961805086
 21
347.6139354147551
 31
0.0
  0
ARC
  5
4A8
330
1A
100
AcDbEntity
  8
SEIHIN
  6
CONTINUOUS
 62
     3
 48
16.0
100
AcDbCircle
 10
474.9147961805086
 20
347.7139354147551
 30
0.0
 40
0.4999999999999432
100
AcDbArc
 50
180.0000000000065
 51
270.7372260387892
  0
LINE
  5
4A9
330
1A
100
AcDbEntity
  8
SEIHIN
  6
CONTINUOUS
 62
     3
 48
16.0
100
AcDbLine
 10
474.4147961805087
 20
347.7139354147551
 30
0.0
 11
474.4147961805087
 21
356.4139354147551
 31
0.0
  0
LINE
  5
4AA
330
1A
100
AcDbEntity
  8
SEIHIN
  6
CONTINUOUS
 62
     3
 48
16.0
100
AcDbLine
 10
443.5761961805085
 20
365.4140354147552
 30
0.0
 11
432.5761961805086
 21
365.4140354147552
 31
0.0
  0
LINE
  5
4AB
330
1A
100
AcDbEntity
  8
SEIHIN
  6
CONTINUOUS
 62
     3
 48
16.0
100
AcDbLine
 10
429.9049961805085
 20
367.4140354147552
 30
0.0
 11
442.7761961805087
 21
367.4140354147552
 31
0.0
  0
ARC
  5
4AC
330
1A
100
AcDbEntity
  8
SEIHIN
  6
CONTINUOUS
 62
     3
 48
16.0
100
AcDbCircle
 10
424.4007961805085
 20
396.7871354147551
 30
0.0
 40
29.88426587085578
100
AcDbArc
 50
259.38644552492
 51
280.6135544750799
  0
LINE
  5
4AD
330
1A
100
AcDbEntity
  8
SEIHIN
  6
CONTINUOUS
 62
     3
 48
16.0
100
AcDbLine
 10
418.8966961805086
 20
367.4140354147552
 30
0.0
 11
418.8966961805086
 21
363.9140354147552
 31
0.0
  0
LINE
  5
4AE
330
1A
100
AcDbEntity
  8
SEIHIN
  6
CONTINUOUS
 62
     3
 48
16.0
100
AcDbLine
 10
429.9049961805085
 20
367.4140354147552
 30
0.0
 11
429.9049961805085
 21
363.9140354147552
 31
0.0
  0
LINE
  5
4AF
330
1A
100
AcDbEntity
  8
SEIHIN
  6
CONTINUOUS
 62
     3
 48
16.0
100
AcDbLine
 10
435.2430961805087
 20
367.4140354147552
 30
0.0
 11
435.2430961805087
 21
365.4140354147552
 31
0.0
  0
LINE
  5
4B0
330
1A
100
AcDbEntity
  8
CENTER_L
  6
CENTER
 62
     1
 48
5.0
100
AcDbLine
 10
474.0772961805086
 20
383.8636354147551
 30
0.0
 11
474.0772961805086
 21
376.9389354147551
 31
0.0
  0
LINE
  5
4B1
330
1A
100
AcDbEntity
  8
CENTER_L
  6
CENTER
 62
     1
 48
5.0
100
AcDbLine
 10
466.6498961805086
 20
383.8636354147551
 30
0.0
 11
466.6498961805086
 21
376.9389354147551
 31
0.0
  0
LINE
  5
4B2
330
1A
100
AcDbEntity
  8
SEIHIN
  6
CONTINUOUS
 62
     3
 48
16.0
100
AcDbLine
 10
475.9340961805087
 20
383.1640354147552
 30
0.0
 11
475.9340961805087
 21
366.6138112462824
 31
0.0
  0
LINE
  5
4B4
330
1A
100
AcDbEntity
  8
SEIHIN
  6
CONTINUOUS
 62
     3
 48
16.0
100
AcDbLine
 10
464.7930067345985
 20
383.1640248607211
 30
0.0
 11
464.7930940805165
 21
366.6118860295118
 31
0.0
  0
LINE
  5
4B5
330
1A
100
AcDbEntity
  8
SEIHIN
  6
CONTINUOUS
 62
     3
 48
16.0
100
AcDbLine
 10
463.6787753004017
 20
383.1640354147551
 30
0.0
 11
463.6787753004017
 21
367.4140354147552
 31
0.0
  0
LINE
  5
4B6
330
1A
100
AcDbEntity
  8
CENTER_L
  6
CENTER
 62
     1
 48
5.0
100
AcDbLine
 10
468.8069961805086
 20
380.1640354147552
 30
0.0
 11
464.0049961805086
 21
380.1640354147552
 31
0.0
  0
LINE
  5
4B7
330
1A
100
AcDbEntity
  8
SEIHIN
  6
CONTINUOUS
 62
     3
 48
16.0
100
AcDbLine
 10
474.4147961805087
 20
365.613935414755
 30
0.0
 11
443.5761961805085
 21
365.613935414755
 31
0.0
  0
LINE
  5
4B8
330
1A
100
AcDbEntity
  8
SEIHIN
  6
CONTINUOUS
 62
     3
 48
16.0
100
AcDbLine
 10
462.6787753004016
 20
366.4140354147552
 30
0.0
 11
443.5761961805085
 21
366.4140354147552
 31
0.0
  0
LINE
  5
4B9
330
1A
100
AcDbEntity
  8
SEIHIN
  6
CONTINUOUS
 62
     3
 48
16.0
100
AcDbLine
 10
442.7761961805087
 20
365.4140354147552
 30
0.0
 11
442.7761961805087
 21
368.9140354147552
 31
0.0
  0
LINE
  5
4BA
330
1A
100
AcDbEntity
  8
SEIHIN
  6
CONTINUOUS
 62
     3
 48
16.0
100
AcDbLine
 10
442.7761961805087
 20
368.9140354147552
 30
0.0
 11
443.5760961805086
 21
368.9140354147552
 31
0.0
  0
ARC
  5
4BB
330
1A
100
AcDbEntity
  8
SEIHIN
  6
CONTINUOUS
 62
     3
 48
16.0
100
AcDbCircle
 10
463.7930961805087
 20
366.613935414755
 30
0.0
 40
1.0
100
AcDbArc
 50
269.9999999999934
 51
359.9999999999934
  0
LINE
  5
4BE
330
1A
100
AcDbEntity
  8
SEIHIN
  6
CONTINUOUS
 62
     3
 48
16.0
100
AcDbLine
 10
474.9340961805085
 20
365.613935414755
 30
0.0
 11
474.9147961805086
 21
365.613935414755
 31
0.0
  0
ARC
  5
4BF
330
1A
100
AcDbEntity
  8
SEIHIN
  6
CONTINUOUS
 62
     3
 48
16.0
100
AcDbCircle
 10
474.9147961805086
 20
365.113935414755
 30
0.0
 40
0.5
100
AcDbArc
 50
89.26277396121077
 51
180.0
  0
ARC
  5
4C1
330
1A
100
AcDbEntity
  8
SEIHIN
  6
CONTINUOUS
100
AcDbCircle
 10
476.3978831029691
 20
380.1640354147565
 30
0.0
 40
3.063514919939104
100
AcDbArc
 50
139.2435621123428
 51
220.7564378876942
  0
LINE
  5
4C2
330
1A
100
AcDbEntity
  8
CENTER_L
  6
CENTER
 62
     1
 48
5.0
100
AcDbLine
 10
477.5492961805086
 20
380.1640354147552
 30
0.0
 11
471.1315961805085
 21
380.1640354147552
 31
0.0
  0
ARC
  5
4C3
330
1A
100
AcDbEntity
  8
SEIHIN
  6
CONTINUOUS
100
AcDbCircle
 10
464.3293092580481
 20
380.1640354147565
 30
0.0
 40
3.063514919939104
100
AcDbArc
 50
319.2435621123057
 51
40.75643788765717
  0
ARC
  5
4C4
330
1A
100
AcDbEntity
  8
SEIHIN
  6
CONTINUOUS
100
AcDbCircle
 10
468.9704831029692
 20
380.1640354147565
 30
0.0
 40
3.063514919939104
100
AcDbArc
 50
139.2435621123428
 51
220.7564378876942
  0
ARC
  5
4C5
330
1A
100
AcDbEntity
  8
SEIHIN
  6
CONTINUOUS
100
AcDbCircle
 10
471.7567092580481
 20
380.1640354147565
 30
0.0
 40
3.063514919939104
100
AcDbArc
 50
319.2435621123057
 51
40.75643788765717
  0
LINE
  5
4C6
330
1A
100
AcDbEntity
  8
SEIHIN
  6
CONTINUOUS
 62
     3
 48
16.0
100
AcDbLine
 10
473.9340961805086
 20
385.1640354147552
 30
0.0
 11
465.6787753004016
 21
385.1640354147551
 31
0.0
  0
LINE
  5
5DF
330
1A
100
AcDbEntity
  8
SEIHIN
  6
CONTINUOUS
 62
     3
 48
16.0
100
AcDbLine
 10
246.1758944029369
 20
263.814135414755
 30
0.0
 11
246.1757944029369
 21
244.3141354147548
 31
0.0
  0
LINE
  5
5E0
330
1A
100
AcDbEntity
  8
SEIHIN
  6
CONTINUOUS
 62
     3
 48
16.0
100
AcDbLine
 10
249.6758944029369
 20
229.314135414755
 30
0.0
 11
249.6758944029369
 21
263.814135414755
 31
0.0
  0
LINE
  5
5E1
330
1A
100
AcDbEntity
  8
SEIHIN
  6
CONTINUOUS
 62
     3
 48
16.0
100
AcDbLine
 10
228.1760944029368
 20
263.814135414755
 30
0.0
 11
228.1759944029368
 21
244.3142354147548
 31
0.0
  0
LINE
  5
5E2
330
1A
100
AcDbEntity
  8
SEIHIN
  6
CONTINUOUS
 62
     3
 48
16.0
100
AcDbLine
 10
224.675994402937
 20
229.314135414755
 30
0.0
 11
224.675994402937
 21
263.814135414755
 31
0.0
  0
LINE
  5
5E3
330
1A
100
AcDbEntity
  8
SEIHIN
  6
CONTINUOUS
 62
     3
 48
16.0
100
AcDbLine
 10
235.1758944029369
 20
190.414135414755
 30
0.0
 11
235.175994402937
 21
228.314135414755
 31
0.0
  0
LINE
  5
5E4
330
1A
100
AcDbEntity
  8
SEIHIN
  6
CONTINUOUS
 62
     3
 48
16.0
100
AcDbLine
 10
239.1758944029369
 20
190.414135414755
 30
0.0
 11
239.1758944029369
 21
228.314135414755
 31
0.0
  0
LINE
  5
5E5
330
1A
100
AcDbEntity
  8
SEIHIN
  6
CONTINUOUS
 62
     3
 48
16.0
100
AcDbLine
 10
226.1758944029369
 20
202.0742354147549
 30
0.0
 11
226.175994402937
 21
228.314135414755
 31
0.0
  0
LINE
  5
5E6
330
1A
100
AcDbEntity
  8
SEIHIN
  6
CONTINUOUS
 62
     3
 48
16.0
100
AcDbLine
 10
229.1758944029369
 20
190.414135414755
 30
0.0
 11
229.175994402937
 21
228.314135414755
 31
0.0
  0
LINE
  5
5E7
330
1A
100
AcDbEntity
  8
SEIHIN
  6
CONTINUOUS
 62
     3
 48
16.0
100
AcDbLine
 10
248.1758944029369
 20
202.0741354147549
 30
0.0
 11
248.1758944029369
 21
228.314135414755
 31
0.0
  0
LINE
  5
5E8
330
1A
100
AcDbEntity
  8
SEIHIN
  6
CONTINUOUS
 62
     3
 48
16.0
100
AcDbLine
 10
245.1758944029369
 20
190.414135414755
 30
0.0
 11
245.1758944029369
 21
228.314135414755
 31
0.0
  0
LINE
  5
5E9
330
1A
100
AcDbEntity
  8
SEIHIN
  6
CONTINUOUS
 62
     3
100
AcDbLine
 10
245.175894402937
 20
185.814035414755
 30
0.0
 11
229.1758944029369
 21
185.814035414755
 31
0.0
  0
LINE
  5
5EA
330
1A
100
AcDbEntity
  8
SEIHIN
  6
CONTINUOUS
 62
     3
100
AcDbLine
 10
244.5758944029368
 20
187.414035414755
 30
0.0
 11
229.7758944029369
 21
187.414035414755
 31
0.0
  0
ARC
  5
5EB
330
1A
100
AcDbEntity
  8
SEIHIN
  6
CONTINUOUS
 62
     3
 48
16.0
100
AcDbCircle
 10
232.1758944029369
 20
190.414135414755
 30
0.0
 40
3.0
100
AcDbArc
 50
180.0
 51
0.0
  0
ARC
  5
5EC
330
1A
100
AcDbEntity
  8
SEIHIN
  6
CONTINUOUS
100
AcDbCircle
 10
232.1759679737847
 20
203.3241452362501
 30
0.0
 40
3.249999999998867
100
AcDbArc
 50
202.6197524010574
 51
337.3800225051098
  0
LINE
  5
5ED
330
1A
100
AcDbEntity
  8
SEIHIN
  6
CONTINUOUS
 62
     3
 48
16.0
100
AcDbLine
 10
228.7758944029369
 20
190.914135414755
 30
0.0
 11
228.7758944029369
 21
188.414035414755
 31
0.0
  0
ARC
  5
5EE
330
1A
100
AcDbEntity
  8
SEIHIN
  6
CONTINUOUS
 62
     3
100
AcDbCircle
 10
229.1758944029369
 20
187.814035414755
 30
0.0
 40
2.0
100
AcDbArc
 50
180.0
 51
270.0
  0
ARC
  5
5EF
330
1A
100
AcDbEntity
  8
SEIHIN
  6
CONTINUOUS
 62
     3
 48
16.0
100
AcDbCircle
 10
229.7758944029369
 20
188.414035414755
 30
0.0
 40
1.0
100
AcDbArc
 50
180.0
 51
270.0
  0
ARC
  5
5F0
330
1A
100
AcDbEntity
  8
SEIHIN
  6
CONTINUOUS
 62
     3
 48
16.0
100
AcDbCircle
 10
207.9455944024355
 20
196.494135414755
 30
0.0
 40
19.06515769953877
100
AcDbArc
 50
342.9814976594928
 51
17.01850234050715
  0
LINE
  5
5F1
330
1A
100
AcDbEntity
  8
SEIHIN
  6
CONTINUOUS
 62
     3
 48
16.0
100
AcDbLine
 10
226.1758944029369
 20
190.914135414755
 30
0.0
 11
229.1758944029369
 21
190.914135414755
 31
0.0
  0
LINE
  5
5F2
330
1A
100
AcDbEntity
  8
SEIHIN
  6
CONTINUOUS
 62
     3
 48
16.0
100
AcDbLine
 10
226.767894402937
 20
199.5277354147549
 30
0.0
 11
222.7237944029369
 21
197.7110354147549
 31
0.0
  0
LINE
  5
5F3
330
1A
100
AcDbEntity
  8
SEIHIN
  6
CONTINUOUS
 62
     3
 48
16.0
100
AcDbLine
 10
222.7237944029369
 20
197.7110354147549
 30
0.0
 11
226.9977944029369
 21
195.791035414755
 31
0.0
  0
LINE
  5
5F4
330
1A
100
AcDbEntity
  8
SEIHIN
  6
CONTINUOUS
 62
     3
 48
16.0
100
AcDbLine
 10
229.1759251683003
 20
202.0742081417479
 30
0.0
 11
226.1758944029369
 21
202.0742354147549
 31
0.0
  0
ARC
  5
5F5
330
1A
100
AcDbEntity
  8
SEIHIN
  6
CONTINUOUS
 62
     3
 48
16.0
100
AcDbCircle
 10
242.1758944029369
 20
190.414135414755
 30
0.0
 40
3.000000000000028
100
AcDbArc
 50
180.0
 51
0.0
  0
LINE
  5
5F6
330
1A
100
AcDbEntity
  8
SEIHIN
  6
CONTINUOUS
 62
     3
 48
16.0
100
AcDbLine
 10
245.5758944029369
 20
190.914135414755
 30
0.0
 11
245.5758944029369
 21
188.414035414755
 31
0.0
  0
ARC
  5
5F7
330
1A
100
AcDbEntity
  8
SEIHIN
  6
CONTINUOUS
 62
     3
 48
16.0
100
AcDbCircle
 10
245.175894402937
 20
187.814035414755
 30
0.0
 40
2.0
100
AcDbArc
 50
270.0
 51
0.0
  0
LINE
  5
5F8
330
1A
100
AcDbEntity
  8
SEIHIN
  6
CONTINUOUS
 62
     3
 48
16.0
100
AcDbLine
 10
237.1758944029369
 20
187.4141354147549
 30
0.0
 11
242.1758944029369
 21
187.4141354147549
 31
0.0
  0
LINE
  5
5F9
330
1A
100
AcDbEntity
  8
SEIHIN
  6
CONTINUOUS
 62
     3
 48
16.0
100
AcDbLine
 10
233.1682139906861
 20
183.0111354147549
 30
0.0
 11
241.1836139906862
 21
183.0111354147549
 31
0.0
  0
LINE
  5
5FA
330
1A
100
AcDbEntity
  8
SEIHIN
  6
CONTINUOUS
 62
     3
 48
16.0
100
AcDbLine
 10
237.1758944029369
 20
187.4141354147549
 30
0.0
 11
232.1758944029369
 21
187.4141354147549
 31
0.0
  0
LINE
  5
5FB
330
1A
100
AcDbEntity
  8
SEIHIN
  6
CONTINUOUS
 62
     3
 48
16.0
100
AcDbLine
 10
233.1682139906861
 20
185.8140354147549
 30
0.0
 11
233.1682139906861
 21
183.0111354147549
 31
0.0
  0
LINE
  5
5FC
330
1A
100
AcDbEntity
  8
SEIHIN
  6
CONTINUOUS
 62
     3
 48
16.0
100
AcDbLine
 10
241.1836139906862
 20
183.0111354147549
 30
0.0
 11
241.1836139906862
 21
185.8140354147549
 31
0.0
  0
ARC
  5
5FD
330
1A
100
AcDbEntity
  8
SEIHIN
  6
CONTINUOUS
 62
     3
100
AcDbCircle
 10
244.5758944029368
 20
188.414035414755
 30
0.0
 40
1.0
100
AcDbArc
 50
270.0
 51
0.0
  0
LINE
  5
5FE
330
1A
100
AcDbEntity
  8
SEIHIN
  6
CONTINUOUS
 62
     3
 48
16.0
100
AcDbLine
 10
248.1758944029369
 20
190.914135414755
 30
0.0
 11
245.1758944029369
 21
190.914135414755
 31
0.0
  0
LINE
  5
5FF
330
1A
100
AcDbEntity
  8
SEIHIN
  6
CONTINUOUS
 62
     3
 48
16.0
100
AcDbLine
 10
245.1758944029369
 20
202.0741354147549
 30
0.0
 11
248.1758944029369
 21
202.0741354147549
 31
0.0
  0
ARC
  5
600
330
1A
100
AcDbEntity
  8
SEIHIN
  6
CONTINUOUS
100
AcDbCircle
 10
242.1758944029373
 20
203.3241354147508
 30
0.0
 40
3.249999999998867
100
AcDbArc
 50
202.6198649479713
 51
337.3801350520229
  0
LINE
  5
601
330
1A
100
AcDbEntity
  8
SEIHIN
  6
CONTINUOUS
 62
     3
 48
16.0
100
AcDbLine
 10
239.1758944029369
 20
190.914135414755
 30
0.0
 11
237.1758944029369
 21
190.914135414755
 31
0.0
  0
LINE
  5
602
330
1A
100
AcDbEntity
  8
SEIHIN
  6
CONTINUOUS
 62
     3
 48
16.0
100
AcDbLine
 10
235.1758944029369
 20
190.914135414755
 30
0.0
 11
237.1758944029369
 21
190.914135414755
 31
0.0
  0
LINE
  5
603
330
1A
100
AcDbEntity
  8
SEIHIN
  6
CONTINUOUS
 62
     3
 48
16.0
100
AcDbLine
 10
237.1758944029369
 20
202.0741354147549
 30
0.0
 11
239.1758944029369
 21
202.0741354147549
 31
0.0
  0
LINE
  5
604
330
1A
100
AcDbEntity
  8
SEIHIN
  6
CONTINUOUS
 62
     3
 48
16.0
100
AcDbLine
 10
237.1758944029369
 20
202.0741354147549
 30
0.0
 11
235.1759251681564
 21
202.0741535962934
 31
0.0
  0
ARC
  5
605
330
1A
100
AcDbEntity
  8
SEIHIN
  6
CONTINUOUS
 62
     3
 48
16.0
100
AcDbCircle
 10
266.4062944025655
 20
196.494022061828
 30
0.0
 40
19.06522014403829
100
AcDbArc
 50
162.9808845565924
 51
197.0180886465237
  0
LINE
  5
606
330
1A
100
AcDbEntity
  8
SEIHIN
  6
CONTINUOUS
 62
     3
 48
16.0
100
AcDbLine
 10
247.583994402937
 20
199.5277354147549
 30
0.0
 11
251.627994402937
 21
197.7110354147549
 31
0.0
  0
LINE
  5
607
330
1A
100
AcDbEntity
  8
SEIHIN
  6
CONTINUOUS
 62
     3
 48
16.0
100
AcDbLine
 10
251.627994402937
 20
197.7110354147549
 30
0.0
 11
247.3539944029369
 21
195.791035414755
 31
0.0
  0
LINE
  5
608
330
1A
100
AcDbEntity
  8
SEIHIN
  6
CONTINUOUS
100
AcDbLine
 10
245.8604133056291
 20
243.0986354147549
 30
0.0
 11
228.4914311422368
 21
243.0986354147551
 31
0.0
  0
LINE
  5
609
330
1A
100
AcDbEntity
  8
SEIHIN
  6
CONTINUOUS
 62
     3
 48
16.0
100
AcDbLine
 10
246.1757944029369
 20
246.210635414755
 30
0.0
 11
228.1759944029368
 21
246.2107354147549
 31
0.0
  0
LINE
  5
60A
330
1A
100
AcDbEntity
  8
SEIHIN
  6
CONTINUOUS
 62
     3
 48
16.0
100
AcDbLine
 10
228.9305944029369
 20
231.4566354147549
 30
0.0
 11
233.4893944029369
 21
233.5119354147549
 31
0.0
  0
LINE
  5
60B
330
1A
100
AcDbEntity
  8
SEIHIN
  6
CONTINUOUS
 62
     3
 48
16.0
100
AcDbLine
 10
225.6759944029369
 20
228.314135414755
 30
0.0
 11
237.175994402937
 21
228.314135414755
 31
0.0
  0
LINE
  5
60C
330
1A
100
AcDbEntity
  8
SEIHIN
  6
CONTINUOUS
 62
     3
 48
16.0
100
AcDbLine
 10
229.929094402937
 20
229.7272354147549
 30
0.0
 11
233.9883944029369
 21
232.647635414755
 31
0.0
  0
ARC
  5
60D
330
1A
100
AcDbEntity
  8
SEIHIN
  6
CONTINUOUS
 62
     3
 48
16.0
100
AcDbCircle
 10
230.6759944029369
 20
244.3142354147548
 30
0.0
 40
2.500000000000028
100
AcDbArc
 50
180.0000000000006
 51
270.0000000000006
  0
LINE
  5
60E
330
1A
100
AcDbEntity
  8
SEIHIN
  6
CONTINUOUS
 62
     3
 48
16.0
100
AcDbLine
 10
228.9305944029369
 20
238.671735414755
 30
0.0
 11
233.4893944029369
 21
236.616435414755
 31
0.0
  0
LINE
  5
60F
330
1A
100
AcDbEntity
  8
SEIHIN
  6
CONTINUOUS
 62
     3
 48
16.0
100
AcDbLine
 10
229.929094402937
 20
240.4011354147548
 30
0.0
 11
233.9883944029369
 21
237.480735414755
 31
0.0
  0
LINE
  5
611
330
1A
100
AcDbEntity
  8
SEIHIN
  6
CONTINUOUS
 62
     3
 48
16.0
100
AcDbLine
 10
222.7237944029369
 20
217.711035414755
 30
0.0
 11
226.175994402937
 21
216.1602354147549
 31
0.0
  0
LINE
  5
612
330
1A
100
AcDbEntity
  8
SEIHIN
  6
CONTINUOUS
 62
     3
 48
16.0
100
AcDbLine
 10
226.175994402937
 20
219.261835414755
 30
0.0
 11
222.7237944029369
 21
217.711035414755
 31
0.0
  0
ARC
  5
613
330
1A
100
AcDbEntity
  8
SEIHIN
  6
CONTINUOUS
 62
     3
 48
16.0
100
AcDbCircle
 10
229.381781353069
 20
230.5642146886923
 30
0.0
 40
1.000042938856267
100
AcDbArc
 50
209.9972085279262
 51
303.1812627458654
  0
ARC
  5
614
330
1A
100
AcDbEntity
  8
SEIHIN
  6
CONTINUOUS
 62
     3
 48
16.0
100
AcDbCircle
 10
229.3816858506809
 20
230.5642067113156
 30
0.0
 40
0.9999562415177035
100
AcDbArc
 50
116.8149989746452
 51
209.9995484959487
  0
ARC
  5
615
330
1A
100
AcDbEntity
  8
SEIHIN
  6
CONTINUOUS
 62
     3
 48
16.0
100
AcDbCircle
 10
225.6759944029369
 20
229.314135414755
 30
0.0
 40
0.9999999999999715
100
AcDbArc
 50
179.9999999999983
 51
269.9999999999983
  0
ARC
  5
616
330
1A
100
AcDbEntity
  8
SEIHIN
  6
CONTINUOUS
 62
     3
 48
16.0
100
AcDbCircle
 10
229.3817253228794
 20
239.5642427841619
 30
0.0
 40
1.00000109247136
100
AcDbArc
 50
56.8133335179751
 51
150.0005236927466
  0
ARC
  5
617
330
1A
100
AcDbEntity
  8
SEIHIN
  6
CONTINUOUS
 62
     3
 48
16.0
100
AcDbCircle
 10
229.3817033906072
 20
239.5642052524458
 30
0.0
 40
1.000000864972062
100
AcDbArc
 50
149.9980330729464
 51
243.1851673148768
  0
ARC
  5
618
330
1A
100
AcDbEntity
  8
SEIHIN
  6
CONTINUOUS
 62
     3
 48
16.0
100
AcDbCircle
 10
237.1758944029369
 20
235.064235414755
 30
0.0
 40
1.0
100
AcDbArc
 50
0.0
 51
180.0
  0
LINE
  5
619
330
1A
100
AcDbEntity
  8
SEIHIN
  6
CONTINUOUS
 62
     3
 48
16.0
100
AcDbLine
 10
248.6758944029369
 20
228.314135414755
 30
0.0
 11
237.1758944029369
 21
228.314135414755
 31
0.0
  0
ARC
  5
61A
330
1A
100
AcDbEntity
  8
SEIHIN
  6
CONTINUOUS
 62
     3
 48
16.0
100
AcDbCircle
 10
237.1758944029369
 20
235.064235414755
 30
0.0
 40
1.0
100
AcDbArc
 50
180.0
 51
0.0
  0
ARC
  5
61B
330
1A
100
AcDbEntity
  8
SEIHIN
  6
CONTINUOUS
 62
     3
 48
16.0
100
AcDbCircle
 10
233.7117820353415
 20
233.0641827209235
 30
0.0
 40
0.5000260595038509
100
AcDbArc
 50
303.5865427614119
 51
30.005248174011
  0
ARC
  5
61C
330
1A
100
AcDbEntity
  8
SEIHIN
  6
CONTINUOUS
 62
     3
 48
16.0
100
AcDbCircle
 10
233.7118649766694
 20
233.0641442928218
 30
0.0
 40
0.5000100449581183
100
AcDbArc
 50
29.99816074857253
 51
116.4190015875627
  0
LINE
  5
61D
330
1A
100
AcDbEntity
  8
SEIHIN
  6
CONTINUOUS
 62
     3
 48
16.0
100
AcDbLine
 10
244.422794402937
 20
229.7272354147549
 30
0.0
 11
240.3634944029369
 21
232.647635414755
 31
0.0
  0
ARC
  5
61E
330
1A
100
AcDbEntity
  8
SEIHIN
  6
CONTINUOUS
 62
     3
 48
16.0
100
AcDbCircle
 10
240.6400238292044
 20
233.0641442928218
 30
0.0
 40
0.5000100449580084
100
AcDbArc
 50
63.58099841244232
 51
150.0018392514305
  0
ARC
  5
61F
330
1A
100
AcDbEntity
  8
SEIHIN
  6
CONTINUOUS
 62
     3
 48
16.0
100
AcDbCircle
 10
240.6399975425655
 20
233.0642220429456
 30
0.0
 40
0.4999984050091399
100
AcDbArc
 50
149.9981251089928
 51
236.42637693614
  0
ARC
  5
620
330
1A
100
AcDbEntity
  8
SEIHIN
  6
CONTINUOUS
 62
     3
 48
16.0
100
AcDbCircle
 10
244.970202955193
 20
230.5642067113156
 30
0.0
 40
0.9999562415176802
100
AcDbArc
 50
330.0004515040474
 51
63.18500102535178
  0
ARC
  5
621
330
1A
100
AcDbEntity
  8
SEIHIN
  6
CONTINUOUS
 62
     3
 48
16.0
100
AcDbCircle
 10
244.9701074528047
 20
230.5642146886923
 30
0.0
 40
1.000042938856214
100
AcDbArc
 50
236.8187372541356
 51
330.0027914720744
  0
LINE
  5
622
330
1A
100
AcDbEntity
  8
SEIHIN
  6
CONTINUOUS
 62
     3
 48
16.0
100
AcDbLine
 10
245.4212944029369
 20
231.4566354147549
 30
0.0
 11
240.8624944029369
 21
233.5119354147549
 31
0.0
  0
LINE
  5
624
330
1A
100
AcDbEntity
  8
SEIHIN
  6
CONTINUOUS
 62
     3
 48
16.0
100
AcDbLine
 10
251.627994402937
 20
217.711035414755
 30
0.0
 11
248.1758944029369
 21
216.1602354147549
 31
0.0
  0
LINE
  5
625
330
1A
100
AcDbEntity
  8
SEIHIN
  6
CONTINUOUS
 62
     3
 48
16.0
100
AcDbLine
 10
248.1758944029369
 20
219.261835414755
 30
0.0
 11
251.627994402937
 21
217.711035414755
 31
0.0
  0
ARC
  5
626
330
1A
100
AcDbEntity
  8
SEIHIN
  6
CONTINUOUS
 62
     3
 48
16.0
100
AcDbCircle
 10
248.6758944029369
 20
229.314135414755
 30
0.0
 40
0.9999999999999715
100
AcDbArc
 50
270.0000000000016
 51
0.0000000000016284
  0
ARC
  5
627
330
1A
100
AcDbEntity
  8
SEIHIN
  6
CONTINUOUS
 62
     3
 48
16.0
100
AcDbCircle
 10
243.6757944029369
 20
244.314135414755
 30
0.0
 40
2.499999999999971
100
AcDbArc
 50
269.999999999998
 51
359.999999999998
  0
LINE
  5
628
330
1A
100
AcDbEntity
  8
SEIHIN
  6
CONTINUOUS
 62
     3
 48
16.0
100
AcDbLine
 10
237.1758944029369
 20
241.814135414755
 30
0.0
 11
243.6757944029369
 21
241.814135414755
 31
0.0
  0
ARC
  5
629
330
1A
100
AcDbEntity
  8
SEIHIN
  6
CONTINUOUS
 62
     3
 48
16.0
100
AcDbCircle
 10
233.7119051678032
 20
237.0641895553425
 30
0.0
 40
0.4999567482678377
100
AcDbArc
 50
330.0032067826358
 51
56.42512083846401
  0
ARC
  5
62A
330
1A
100
AcDbEntity
  8
SEIHIN
  6
CONTINUOUS
 62
     3
 48
16.0
100
AcDbCircle
 10
233.7118649766694
 20
237.0642265366881
 30
0.0
 40
0.5000100449581179
100
AcDbArc
 50
243.5809984124371
 51
330.0018392514274
  0
LINE
  5
62B
330
1A
100
AcDbEntity
  8
SEIHIN
  6
CONTINUOUS
 62
     3
 48
16.0
100
AcDbLine
 10
237.175994402937
 20
241.814135414755
 30
0.0
 11
230.675994402937
 21
241.8142354147548
 31
0.0
  0
ARC
  5
62C
330
1A
100
AcDbEntity
  8
SEIHIN
  6
CONTINUOUS
 62
     3
 48
16.0
100
AcDbCircle
 10
240.6400238292044
 20
237.0642265366881
 30
0.0
 40
0.5000100449580081
100
AcDbArc
 50
209.9981607485694
 51
296.4190015875577
  0
LINE
  5
62D
330
1A
100
AcDbEntity
  8
SEIHIN
  6
CONTINUOUS
 62
     3
 48
16.0
100
AcDbLine
 10
244.422794402937
 20
240.401035414755
 30
0.0
 11
240.3634944029369
 21
237.480735414755
 31
0.0
  0
ARC
  5
62E
330
1A
100
AcDbEntity
  8
SEIHIN
  6
CONTINUOUS
 62
     3
 48
16.0
100
AcDbCircle
 10
240.6399836380705
 20
237.0641895553425
 30
0.0
 40
0.4999567482678169
100
AcDbArc
 50
123.5748791615419
 51
209.9967932173717
  0
LINE
  5
62F
330
1A
100
AcDbEntity
  8
SEIHIN
  6
CONTINUOUS
 62
     3
 48
16.0
100
AcDbLine
 10
245.4212944029369
 20
238.671735414755
 30
0.0
 11
240.8624944029369
 21
236.616435414755
 31
0.0
  0
ARC
  5
630
330
1A
100
AcDbEntity
  8
SEIHIN
  6
CONTINUOUS
 62
     3
 48
16.0
100
AcDbCircle
 10
244.9701854152665
 20
239.5642052524458
 30
0.0
 40
1.000000864972037
100
AcDbArc
 50
296.8148326851259
 51
30.00196692705718
  0
ARC
  5
631
330
1A
100
AcDbEntity
  8
SEIHIN
  6
CONTINUOUS
 62
     3
 48
16.0
100
AcDbCircle
 10
244.9701634829945
 20
239.5642427841619
 30
0.0
 40
1.000001092471308
100
AcDbArc
 50
29.99947630725291
 51
123.1866664820237
  0
LINE
  5
632
330
1A
100
AcDbEntity
  8
SEIHIN
  6
CONTINUOUS
 62
     3
 48
16.0
100
AcDbLine
 10
224.675994402937
 20
263.814135414755
 30
0.0
 11
228.1760944029368
 21
263.814135414755
 31
0.0
  0
LINE
  5
633
330
1A
100
AcDbEntity
  8
SEIHIN
  6
CONTINUOUS
 62
     3
 48
16.0
100
AcDbLine
 10
249.6758944029369
 20
263.814135414755
 30
0.0
 11
246.1758944029369
 21
263.814135414755
 31
0.0
  0
LINE
  5
708
330
1A
100
AcDbEntity
  8
SEIHIN
  6
CONTINUOUS
 62
     3
 48
16.0
100
AcDbLine
 10
652.7364106285323
 20
268.1529174561557
 30
0.0
 11
643.0808890375913
 21
292.2935658071605
 31
0.0
  0
LINE
  5
70B
330
1A
100
AcDbEntity
  8
CENTER_L
  6
CENTER
 62
     1
 48
5.0
100
AcDbLine
 10
628.5290922923666
 20
251.2455304249933
 30
0.0
 11
612.1362819648604
 21
292.2306875575017
 31
0.0
  0
LINE
  5
70C
330
1A
100
AcDbEntity
  8
SEIHIN
  6
CONTINUOUS
 62
     3
 48
16.0
100
AcDbLine
 10
599.3391534490599
 20
246.7956464294243
 30
0.0
 11
589.6836318581188
 21
270.9362947804291
 31
0.0
  0
LINE
  5
70D
330
1A
100
AcDbEntity
  8
SEIHIN
  6
CONTINUOUS
 62
     3
 48
16.0
100
AcDbLine
 10
626.7805144688685
 20
255.6173089927128
 30
0.0
 11
651.6221701085274
 21
265.5532120760061
 31
0.0
  0
ARC
  5
70E
330
1A
100
AcDbEntity
  8
SEIHIN
  6
CONTINUOUS
 62
     3
 48
16.0
100
AcDbCircle
 10
646.9798796082305
 20
269.0815458060908
 30
0.0
 40
2.0
100
AcDbArc
 50
201.7998999999996
 51
21.79989999999961
  0
ARC
  5
70F
330
1A
100
AcDbEntity
  8
SEIHIN
  6
CONTINUOUS
 62
     3
 48
16.0
100
AcDbCircle
 10
646.9798796082305
 20
269.0815458060908
 30
0.0
 40
2.0
100
AcDbArc
 50
21.79989999999961
 51
201.7998999999996
  0
LINE
  5
710
330
1A
100
AcDbEntity
  8
CENTER_L
  6
CENTER
 62
     1
 48
5.0
100
AcDbLine
 10
643.2366863841124
 20
267.5843829101724
 30
0.0
 11
650.2182547358704
 21
270.3767968908941
 31
0.0
  0
LINE
  5
711
330
1A
100
AcDbEntity
  8
SEIHIN
  6
CONTINUOUS
 62
     3
 48
16.0
100
AcDbLine
 10
626.7805144688685
 20
255.6173089927128
 30
0.0
 11
601.9388588292095
 21
245.6814059094194
 31
0.0
  0
LINE
  5
712
330
1A
100
AcDbEntity
  8
CENTER_L
  6
CENTER
 62
     1
 48
5.0
100
AcDbLine
 10
606.6107732519103
 20
252.9351369622613
 30
0.0
 11
599.3301394065424
 21
250.0231059236765
 31
0.0
  0
ARC
  5
713
330
1A
100
AcDbEntity
  8
SEIHIN
  6
CONTINUOUS
 62
     3
 48
16.0
100
AcDbCircle
 10
601.1961263991373
 20
247.5383788594968
 30
0.0
 40
2.0
100
AcDbArc
 50
201.7998999999996
 51
291.7998999999996
  0
ARC
  5
714
330
1A
100
AcDbEntity
  8
SEIHIN
  6
CONTINUOUS
 62
     3
 48
16.0
100
AcDbCircle
 10
602.8674871791443
 20
251.4379369297212
 30
0.0
 40
2.0
100
AcDbArc
 50
21.79989999999961
 51
201.7998999999996
  0
ARC
  5
715
330
1A
100
AcDbEntity
  8
SEIHIN
  6
CONTINUOUS
 62
     3
 48
16.0
100
AcDbCircle
 10
602.8674871791443
 20
251.4379369297212
 30
0.0
 40
2.0
100
AcDbArc
 50
201.7998999999996
 51
21.79989999999961
  0
LINE
  5
716
330
1A
100
AcDbEntity
  8
CENTER_L
  6
CENTER
 62
     1
 48
5.0
100
AcDbLine
 10
604.3981473076591
 20
247.6109942255545
 30
0.0
 11
601.2779283689251
 21
255.4121375888292
 31
0.0
  0
LINE
  5
717
330
1A
100
AcDbEntity
  8
SEIHIN
  6
CONTINUOUS
 62
     3
 48
16.0
100
AcDbLine
 10
612.6146438839832
 20
255.3365059725002
 30
0.0
 11
617.4910909495752
 21
255.1328925483855
 31
0.0
  0
LINE
  5
718
330
1A
100
AcDbEntity
  8
SEIHIN
  6
CONTINUOUS
 62
     3
 48
16.0
100
AcDbLine
 10
616.0056260894305
 20
258.8468384485401
 30
0.0
 11
612.6146438839832
 21
255.3365059725002
 31
0.0
  0
LINE
  5
719
330
1A
100
AcDbEntity
  8
SEIHIN
  6
CONTINUOUS
 62
     3
 48
16.0
100
AcDbLine
 10
632.3562754133826
 20
265.3865912485545
 30
0.0
 11
637.2328153276222
 21
265.1830149610614
 31
0.0
  0
LINE
  5
71A
330
1A
100
AcDbEntity
  8
SEIHIN
  6
CONTINUOUS
 62
     3
 48
16.0
100
AcDbLine
 10
637.2328153276222
 20
265.1830149610614
 30
0.0
 11
633.8417402735274
 21
261.6726453483999
 31
0.0
  0
ARC
  5
71B
330
1A
100
AcDbEntity
  8
SEIHIN
  6
CONTINUOUS
 62
     3
 48
16.0
100
AcDbCircle
 10
650.879437678455
 20
267.4101850260834
 30
0.0
 40
2.0
100
AcDbArc
 50
291.7998999999996
 51
21.79989999999961
  0
LINE
  5
71C
330
1A
100
AcDbEntity
  8
CENTER_L
  6
CENTER
 62
     1
 48
5.0
100
AcDbLine
 10
648.5105768733667
 20
265.2545102532764
 30
0.0
 11
645.390320798011
 21
273.0557464651986
 31
0.0
  0
LINE
  5
71F
330
1A
100
AcDbEntity
  8
SEIHIN
  6
CONTINUOUS
 62
     3
 48
16.0
100
AcDbLine
 10
625.6718257094213
 20
287.484512794805
 30
0.0
 11
640.4811836574415
 21
293.4078063271654
 31
0.0
  0
ARC
  5
720
330
1A
100
AcDbEntity
  8
SEIHIN
  6
CONTINUOUS
 62
     3
 48
16.0
100
AcDbCircle
 10
639.5525553075067
 20
287.6512753068637
 30
0.0
 40
2.0
100
AcDbArc
 50
201.7998999999996
 51
21.79989999999961
  0
ARC
  5
721
330
1A
100
AcDbEntity
  8
SEIHIN
  6
CONTINUOUS
 62
     3
 48
16.0
100
AcDbCircle
 10
639.5525553075067
 20
287.6512753068637
 30
0.0
 40
2.0
100
AcDbArc
 50
21.79989999999961
 51
201.7998999999996
  0
LINE
  5
722
330
1A
100
AcDbEntity
  8
CENTER_L
  6
CENTER
 62
     1
 48
5.0
100
AcDbLine
 10
635.0532955467644
 20
285.8517089020413
 30
0.0
 11
642.6502647341782
 21
288.8902644100889
 31
0.0
  0
LINE
  5
724
330
1A
100
AcDbEntity
  8
SEIHIN
  6
CONTINUOUS
 62
     3
 48
16.0
100
AcDbLine
 10
605.607315850651
 20
279.4593279001452
 30
0.0
 11
590.7978723781239
 21
273.5360001605789
 31
0.0
  0
LINE
  5
725
330
1A
100
AcDbEntity
  8
CENTER_L
  6
CENTER
 62
     1
 48
5.0
100
AcDbLine
 10
599.939422639163
 20
271.8072328353167
 30
0.0
 11
592.1885103941876
 21
268.7071048088159
 31
0.0
  0
ARC
  5
726
330
1A
100
AcDbEntity
  8
SEIHIN
  6
CONTINUOUS
 62
     3
 48
16.0
100
AcDbCircle
 10
591.5406048081963
 20
271.6790272105015
 30
0.0
 40
2.0
100
AcDbArc
 50
111.7998999999996
 51
201.7998999999996
  0
LINE
  5
727
330
1A
100
AcDbEntity
  8
CENTER_L
  6
CENTER
 62
     1
 48
5.0
100
AcDbLine
 10
597.6201196973047
 20
264.5573579733698
 30
0.0
 11
594.2425439715504
 21
273.0019424638464
 31
0.0
  0
ARC
  5
728
330
1A
100
AcDbEntity
  8
SEIHIN
  6
CONTINUOUS
 62
     3
 48
16.0
100
AcDbCircle
 10
595.4401628784205
 20
270.0076664304942
 30
0.0
 40
2.0
100
AcDbArc
 50
201.7998999999996
 51
21.79989999999961
  0
ARC
  5
729
330
1A
100
AcDbEntity
  8
SEIHIN
  6
CONTINUOUS
 62
     3
 48
16.0
100
AcDbCircle
 10
595.4401628784205
 20
270.0076664304942
 30
0.0
 40
2.0
100
AcDbArc
 50
21.79989999999961
 51
201.7998999999996
  0
LINE
  5
72B
330
1A
100
AcDbEntity
  8
SEIHIN
  6
CONTINUOUS
 62
     3
 48
16.0
100
AcDbLine
 10
605.1873195832594
 20
273.906235473273
 30
0.0
 11
610.0637666488514
 21
273.7026220491585
 31
0.0
  0
LINE
  5
72C
330
1A
100
AcDbEntity
  8
SEIHIN
  6
CONTINUOUS
 62
     3
 48
16.0
100
AcDbLine
 10
608.5783017887067
 20
277.416567949313
 30
0.0
 11
605.1873195832594
 21
273.906235473273
 31
0.0
  0
LINE
  5
72E
330
1A
100
AcDbEntity
  8
SEIHIN
  6
CONTINUOUS
 62
     3
 48
16.0
100
AcDbLine
 10
629.8054910268985
 20
283.7527444618344
 30
0.0
 11
626.4144159728036
 21
280.2423748491728
 31
0.0
  0
LINE
  5
72F
330
1A
100
AcDbEntity
  8
SEIHIN
  6
CONTINUOUS
 62
     3
 48
16.0
100
AcDbLine
 10
624.9289511126589
 20
283.9563207493275
 30
0.0
 11
629.8054910268985
 21
283.7527444618344
 31
0.0
  0
LINE
  5
731
330
1A
100
AcDbEntity
  8
CENTER_L
  6
CENTER
 62
     1
 48
5.0
100
AcDbLine
 10
641.7325121263906
 20
282.2009668497392
 30
0.0
 11
638.3549364006362
 21
290.6455513402158
 31
0.0
  0
ARC
  5
732
330
1A
100
AcDbEntity
  8
SEIHIN
  6
CONTINUOUS
 62
     3
 48
16.0
100
AcDbCircle
 10
641.223916087514
 20
291.5508333770881
 30
0.0
 40
2.0
100
AcDbArc
 50
21.79989999999961
 51
111.7998999999996
  0
DIMENSION
  5
79F
330
1A
100
AcDbEntity
  8
SUNPOU
  6
CONTINUOUS
100
AcDbDimension
  2
*D2
 10
585.6700263391294
 20
294.4348740458357
 30
0.0
 11
605.8693914784915
 21
307.8991108592136
 31
0.0
 12
13.8809514381237
 22
5.551959117001331
 32
0.0
 70
    33
  3
STANDARD
100
AcDbAlignedDimension
 13
637.6957242323255
 23
292.2937076820569
 33
0.0
 14
593.5833318032396
 24
274.6500988056873
 34
0.0
1001
ACAD
1000
DSTYLE
1002
{
1070
   140
1040
6.0
1070
    74
1070
     0
1070
   172
1070
     1
1070
    73
1070
     0
1070
   272
1070
     2
1070
    77
1070
     3
1070
   173
1070
     1
1070
   147
1040
2.0
1070
    42
1040
6.0
1070
    44
1040
3.0
1070
    43
1040
14.0
1070
   271
1070
     0
1070
   178
1070
     4
1070
   177
1070
     4
1070
   176
1070
     4
1070
   141
1040
150.0
1070
     7
1000
_OPEN
1070
     6
1000
_OPEN
1070
    41
1040
7.0
1002
}
  0
DIMENSION
  5
7AC
330
1A
100
AcDbEntity
  8
SUNPOU
  6
CONTINUOUS
100
AcDbDimension
  2
*D3
 10
574.7936364652201
 20
308.1641275124591
 30
0.0
 11
599.6354339797754
 21
323.4851954010179
 31
0.0
 12
13.8809514381237
 22
5.551959117001331
 32
0.0
 70
    33
  3
STANDARD
100
AcDbAlignedDimension
 13
642.3381566075191
 23
294.1505387572377
 33
0.0
 14
588.9408994280467
 24
272.7932677305064
 34
0.0
1001
ACAD
1000
DSTYLE
1002
{
1070
   140
1040
6.0
1070
    74
1070
     0
1070
   172
1070
     1
1070
    73
1070
     0
1070
   272
1070
     2
1070
    77
1070
     3
1070
   173
1070
     1
1070
   147
1040
2.0
1070
    42
1040
6.0
1070
    44
1040
3.0
1070
    43
1040
14.0
1070
   271
1070
     0
1070
   178
1070
     4
1070
   177
1070
     4
1070
   176
1070
     4
1070
   141
1040
150.0
1070
     7
1000
_OPEN
1070
     6
1000
_OPEN
1070
    41
1040
7.0
1002
}
  0
DIMENSION
  5
7BB
330
1A
100
AcDbEntity
  8
SUNPOU
  6
CONTINUOUS
100
AcDbDimension
  2
*D4
 10
577.9529036270686
 20
241.4728649101722
 30
0.0
 11
578.8816738518999
 21
252.6145607357396
 31
0.0
 12
13.8809514381237
 22
5.551959117001331
 32
0.0
 70
    33
  3
STANDARD
100
AcDbAlignedDimension
 13
590.7977305032273
 23
268.1508353553132
 33
0.0
 14
598.2250548039512
 24
249.5811058545404
 34
0.0
1001
ACAD
1000
DSTYLE
1002
{
1070
   140
1040
6.0
1070
    74
1070
     0
1070
   172
1070
     1
1070
    73
1070
     0
1070
   272
1070
     2
1070
    77
1070
     3
1070
   173
1070
     1
1070
   147
1040
2.0
1070
    42
1040
6.0
1070
    44
1040
3.0
1070
    43
1040
14.0
1070
   271
1070
     0
1070
   178
1070
     4
1070
   177
1070
     4
1070
   176
1070
     4
1070
   141
1040
150.0
1070
     7
1000
_OPEN
1070
     6
1000
_OPEN
1070
    41
1040
7.0
1002
}
  0
DIMENSION
  5
7C8
330
1A
100
AcDbEntity
  8
SUNPOU
  6
CONTINUOUS
100
AcDbDimension
  2
*D5
 10
563.3236986311962
 20
230.2365219275011
 30
0.0
 11
562.3956377808465
 21
246.0206501282617
 31
0.0
 12
13.8809514381237
 22
5.551959117001331
 32
0.0
 70
    33
  3
STANDARD
100
AcDbAlignedDimension
 13
588.9408994280465
 23
272.7932677305064
 33
0.0
 14
600.0818858791322
 24
244.938673479347
 34
0.0
1001
ACAD
1000
DSTYLE
1002
{
1070
   140
1040
6.0
1070
    74
1070
     0
1070
   172
1070
     1
1070
    73
1070
     0
1070
   272
1070
     2
1070
    77
1070
     3
1070
   173
1070
     1
1070
   147
1040
2.0
1070
    42
1040
6.0
1070
    44
1040
3.0
1070
    43
1040
14.0
1070
   271
1070
     0
1070
   178
1070
     4
1070
   177
1070
     4
1070
   176
1070
     4
1070
   141
1040
150.0
1070
     7
1000
_OPEN
1070
     6
1000
_OPEN
1070
    41
1040
7.0
1002
}
  0
LEADER
  5
7C9
330
1A
100
AcDbEntity
  8
SUNPOU
  6
CONTINUOUS
 62
     4
100
AcDbLeader
  3
STANDARD
 73
     0
 40
6.0
 41
30.19999999999999
 76
     3
 10
593.8079195175484
 20
271.1634266179417
 30
0.0
 10
574.4204145831323
 20
282.4495006147307
 30
0.0
 10
572.4240523483898
 20
282.4495006147306
 30
0.0
211
1.0
221
-0.0000000000000003
231
0.0
1001
ACAD
1000
DSTYLE
1002
{
1070
     6
1000
OPEN
1070
    41
1040
7.0
1070
    42
1040
6.0
1070
    43
1040
14.0
1070
    44
1040
3.0
1070
    73
1070
     0
1070
    74
1070
     0
1070
    77
1070
     3
1070
   140
1040
6.0
1070
   141
1040
150.0
1070
   147
1040
2.0
1070
   172
1070
     1
1070
   173
1070
     1
1070
   176
1070
     4
1070
   177
1070
     4
1070
   178
1070
     4
1070
   271
1070
     0
1070
   272
1070
     2
1070
   341
1005
6D
1070
   343
1005
6D
1070
   344
1005
6D
1002
}
  0
MTEXT
  5
7CA
330
1A
100
AcDbEntity
  8
SUNPOU
  6
CONTINUOUS
 62
     4
100
AcDbMText
 10
570.42405234839
 20
284.4495006147306
 30
0.0
 40
6.0
 41
0.0
 71
     9
 72
     5
  1
4-φ4.0
1001
ACAD
1000
MTEXTBEGIN
1070
    73
1070
     1
1070
    44
1040
1.0
1070
    74
1070
     0
1000
MTEXTEND
1000
MTEXTBEGIN
1070
    73
1070
     1
1070
    44
1040
1.0
1070
    74
1070
     0
1000
MTEXTEND
1000
MTEXTBEGIN
1070
    73
1070
     1
1070
    44
1040
1.0
1070
    74
1070
     0
1000
MTEXTEND
  0
DIMENSION
  5
7D7
330
1A
100
AcDbEntity
  8
SUNPOU
  6
CONTINUOUS
100
AcDbDimension
  2
*D6
 10
503.8625913790779
 20
327.6640354147551
 30
0.0
 11
498.8625913790778
 21
356.4140354147551
 31
0.0
 12
-2.24956447819386
 22
-24.33479581450774
 32
0.0
 70
    32
  3
STANDARD
100
AcDbAlignedDimension
 13
475.9339961805086
 23
385.1640354147552
 33
0.0
 14
475.9339961805086
 24
327.6640354147551
 34
0.0
 50
90.0
100
AcDbRotatedDimension
1001
ACAD
1000
DSTYLE
1002
{
1070
   140
1040
6.0
1070
    74
1070
     0
1070
   172
1070
     1
1070
    73
1070
     0
1070
   272
1070
     2
1070
    77
1070
     3
1070
   173
1070
     1
1070
   147
1040
2.0
1070
    42
1040
6.0
1070
    44
1040
3.0
1070
    43
1040
14.0
1070
   271
1070
     0
1070
   178
1070
     4
1070
   177
1070
     4
1070
   176
1070
     4
1070
   141
1040
150.0
1070
     7
1000
_OPEN
1070
     6
1000
_OPEN
1070
    41
1040
7.0
1002
}
  0
DIMENSION
  5
7E6
330
1A
100
AcDbEntity
  8
SUNPOU
  6
CONTINUOUS
100
AcDbDimension
  2
*D7
 10
303.9225259624613
 20
343.9140354147551
 30
0.0
 11
298.9225259624613
 21
356.4140354147551
 31
0.0
 70
    32
  3
STANDARD
100
AcDbAlignedDimension
 13
327.9761961805085
 23
368.9140354147552
 33
0.0
 14
327.9761961805085
 24
343.9140354147551
 34
0.0
 50
90.0
100
AcDbRotatedDimension
1001
ACAD
1000
DSTYLE
1002
{
1070
   140
1040
6.0
1070
    74
1070
     0
1070
   172
1070
     1
1070
    73
1070
     0
1070
   272
1070
     2
1070
    77
1070
     3
1070
   173
1070
     1
1070
   147
1040
2.0
1070
    42
1040
6.0
1070
    44
1040
3.0
1070
    43
1040
14.0
1070
   271
1070
     0
1070
   178
1070
     4
1070
   177
1070
     4
1070
   176
1070
     4
1070
   141
1040
150.0
1070
     7
1000
_OPEN
1070
     6
1000
_OPEN
1070
    41
1040
7.0
1002
}
  0
DIMENSION
  5
7F5
330
1A
100
AcDbEntity
  8
SUNPOU
  6
CONTINUOUS
100
AcDbDimension
  2
*D8
 10
442.7782961805085
 20
267.0112422153065
 30
0.0
 11
452.6771811251291
 21
272.0112422153065
 31
0.0
 70
    32
  3
STANDARD
100
AcDbAlignedDimension
 13
462.5760660697495
 23
228.6802383543323
 33
0.0
 14
442.7782961805085
 24
240.4164854147549
 34
0.0
100
AcDbRotatedDimension
1001
ACAD
1000
DSTYLE
1002
{
1070
   140
1040
6.0
1070
    74
1070
     0
1070
   172
1070
     1
1070
    73
1070
     0
1070
   272
1070
     2
1070
    77
1070
     3
1070
   173
1070
     1
1070
   147
1040
2.0
1070
    42
1040
6.0
1070
    44
1040
3.0
1070
    43
1040
14.0
1070
   271
1070
     0
1070
   178
1070
     4
1070
   177
1070
     4
1070
   176
1070
     4
1070
   141
1040
150.0
1070
     7
1000
_OPEN
1070
     6
1000
_OPEN
1070
    41
1040
7.0
1002
}
  0
DIMENSION
  5
802
330
1A
100
AcDbEntity
  8
SUNPOU
  6
CONTINUOUS
100
AcDbDimension
  2
*D9
 10
327.9760961805085
 20
292.1395522077007
 30
0.0
 11
395.8115014199287
 21
292.1395522077007
 31
0.0
 70
   160
  3
STANDARD
100
AcDbAlignedDimension
 13
462.5760660697495
 23
228.6802383543323
 33
0.0
 14
327.9760961805085
 24
264.4141354147551
 34
0.0
100
AcDbRotatedDimension
1001
ACAD
1000
DSTYLE
1002
{
1070
   140
1040
6.0
1070
    74
1070
     0
1070
   172
1070
     1
1070
    73
1070
     0
1070
   272
1070
     2
1070
    77
1070
     3
1070
   173
1070
     1
1070
   147
1040
2.0
1070
    42
1040
6.0
1070
    44
1040
3.0
1070
    43
1040
14.0
1070
   271
1070
     0
1070
   178
1070
     4
1070
   177
1070
     4
1070
   176
1070
     4
1070
   141
1040
150.0
1070
     7
1000
_OPEN
1070
     6
1000
_OPEN
1070
    41
1040
7.0
1002
}
  0
DIMENSION
  5
879
330
1A
100
AcDbEntity
  8
SUNPOU
  6
CONTINUOUS
100
AcDbDimension
  2
*D10
 10
500.1792150486634
 20
204.9804325215371
 30
0.0
 11
493.4469584751838
 21
221.8122722722707
 31
0.0
 70
   161
  3
STANDARD
100
AcDbAlignedDimension
 13
462.5760660697494
 23
228.6802383543323
 33
0.0
 14
475.9339961805086
 24
195.283035414755
 34
0.0
1001
ACAD
1000
DSTYLE
1002
{
1070
   140
1040
6.0
1070
    74
1070
     0
1070
   172
1070
     1
1070
    73
1070
     0
1070
   272
1070
     2
1070
    77
1070
     3
1070
   173
1070
     1
1070
   147
1040
2.0
1070
    42
1040
6.0
1070
    44
1040
3.0
1070
    43
1040
14.0
1070
   271
1070
     0
1070
   178
1070
     4
1070
   177
1070
     4
1070
   176
1070
     4
1070
   141
1040
150.0
1070
     7
1000
_OPEN
1070
     6
1000
_OPEN
1070
    41
1040
7.0
1002
}
  0
DIMENSION
  5
8D6
330
1A
100
AcDbEntity
  8
SUNPOU
  6
CONTINUOUS
100
AcDbDimension
  2
*D11
 10
520.6186956488604
 20
195.2830354147551
 30
0.0
 11
515.6186956488604
 21
218.3472604147551
 31
0.0
 70
    32
  3
STANDARD
100
AcDbAlignedDimension
 13
441.7832961805086
 23
241.4114854147551
 33
0.0
 14
475.9339961805089
 24
195.2830354147551
 34
0.0
 50
90.0
100
AcDbRotatedDimension
1001
ACAD
1000
DSTYLE
1002
{
1070
   140
1040
6.0
1070
    74
1070
     0
1070
   172
1070
     1
1070
    73
1070
     0
1070
   272
1070
     2
1070
    77
1070
     3
1070
   173
1070
     1
1070
   147
1040
2.0
1070
    42
1040
6.0
1070
    44
1040
3.0
1070
    43
1040
14.0
1070
   271
1070
     0
1070
   178
1070
     4
1070
   177
1070
     4
1070
   176
1070
     4
1070
   141
1040
150.0
1070
     7
1000
_OPEN
1070
     6
1000
_OPEN
1070
    41
1040
7.0
1002
}
  0
LINE
  5
A5B
330
1A
100
AcDbEntity
  8
SUNPOU
  6
CONTINUOUS
 62
     4
 48
16.0
100
AcDbLine
 10
499.1321437255186
 20
137.2835373668553
 30
0.0
 11
477.7908557660112
 21
190.6405559367872
 31
0.0
  0
LINE
  5
A69
330
1A
100
AcDbEntity
  8
SEIHIN
  6
CONTINUOUS
100
AcDbLine
 10
471.5702288273343
 20
198.9228429398828
 30
0.0
 11
473.7056248933483
 21
197.6230966759748
 31
0.0
  0
LINE
  5
A6C
330
1A
100
AcDbEntity
  8
SEIHIN
  6
CONTINUOUS
100
AcDbLine
 10
472.220151647052
 20
201.337039221925
 30
0.0
 11
471.5702288273343
 21
198.9228429398828
 31
0.0
  0
LINE
  5
A89
330
1A
100
AcDbEntity
  8
SEIHIN
  6
CONTINUOUS
100
AcDbLine
 10
464.1427898475941
 20
217.4927375529857
 30
0.0
 11
466.2782586618668
 21
216.192809405726
 31
0.0
  0
LINE
  5
A8A
330
1A
100
AcDbEntity
  8
SEIHIN
  6
CONTINUOUS
100
AcDbLine
 10
464.7927854155704
 20
219.9067519516762
 30
0.0
 11
464.1427898475941
 21
217.4927375529857
 31
0.0
  0
LINE
  5
ADA
330
1A
100
AcDbEntity
  8
SEIHIN
  6
CONTINUOUS
100
AcDbLine
 10
474.8502690663864
 20
366.6141354147553
 30
0.0
 11
474.0772961805086
 21
369.6141354147552
 31
0.0
  0
LINE
  5
ADB
330
1A
100
AcDbEntity
  8
SEIHIN
  6
CONTINUOUS
100
AcDbLine
 10
473.3343690663863
 20
366.6141354147553
 30
0.0
 11
474.0772961805086
 21
369.6141354147552
 31
0.0
  0
LINE
  5
ADC
330
1A
100
AcDbEntity
  8
SEIHIN
  6
CONTINUOUS
100
AcDbLine
 10
465.9069690663862
 20
366.6141354147553
 30
0.0
 11
466.6498961805087
 21
369.6141354147552
 31
0.0
  0
LINE
  5
ADD
330
1A
100
AcDbEntity
  8
SEIHIN
  6
CONTINUOUS
100
AcDbLine
 10
467.4228690663864
 20
366.6141354147553
 30
0.0
 11
466.6498961805087
 21
369.6141354147552
 31
0.0
  0
LINE
  5
AE8
330
1A
100
AcDbEntity
  8
SEIHIN
  6
CONTINUOUS
100
AcDbLine
 10
467.4228690663864
 20
346.213935414755
 30
0.0
 11
466.6498961805087
 21
343.2139354147551
 31
0.0
  0
LINE
  5
AE9
330
1A
100
AcDbEntity
  8
SEIHIN
  6
CONTINUOUS
100
AcDbLine
 10
465.9069690663862
 20
346.213935414755
 30
0.0
 11
466.6498961805087
 21
343.2139354147551
 31
0.0
  0
ARC
  5
AEA
330
1A
100
AcDbEntity
  8
SEIHIN
  6
CONTINUOUS
 62
     3
 48
16.0
100
AcDbCircle
 10
464.9069690663862
 20
346.2139354147551
 30
0.0
 40
1.000000000000056
100
AcDbArc
 50
359.9999999999967
 51
89.99999999999674
  0
ARC
  5
AEB
330
1A
100
AcDbEntity
  8
SEIHIN
  6
CONTINUOUS
 62
     3
 48
16.0
100
AcDbCircle
 10
466.4228690663864
 20
346.213935414755
 30
0.0
 40
1.000000000000113
100
AcDbArc
 50
0.0
 51
90.0
  0
ARC
  5
AEF
330
1A
100
AcDbEntity
  8
SEIHIN
  6
CONTINUOUS
 62
     3
 48
16.0
100
AcDbCircle
 10
466.4228690663864
 20
366.6141354147553
 30
0.0
 40
1.000000000000113
100
AcDbArc
 50
270.0
 51
0.0
  0
ARC
  5
AF0
330
1A
100
AcDbEntity
  8
SEIHIN
  6
CONTINUOUS
 62
     3
 48
16.0
100
AcDbCircle
 10
464.9069690663862
 20
366.6141354147553
 30
0.0
 40
1.000000000000056
100
AcDbArc
 50
270.0000000000032
 51
0.0000000000032569
  0
ARC
  5
AF4
330
1A
100
AcDbEntity
  8
SEIHIN
  6
CONTINUOUS
 62
     3
 48
16.0
100
AcDbCircle
 10
473.8502690663863
 20
346.213935414755
 30
0.0
 40
1.000000000000113
100
AcDbArc
 50
0.0
 51
90.0
  0
ARC
  5
AF5
330
1A
100
AcDbEntity
  8
SEIHIN
  6
CONTINUOUS
 62
     3
 48
16.0
100
AcDbCircle
 10
472.3343690663861
 20
346.2139354147551
 30
0.0
 40
1.000000000000056
100
AcDbArc
 50
359.9999999999967
 51
89.99999999999674
  0
LINE
  5
AF6
330
1A
100
AcDbEntity
  8
SEIHIN
  6
CONTINUOUS
100
AcDbLine
 10
473.3343690663863
 20
346.213935414755
 30
0.0
 11
474.0772961805086
 21
343.2139354147551
 31
0.0
  0
LINE
  5
AF7
330
1A
100
AcDbEntity
  8
SEIHIN
  6
CONTINUOUS
100
AcDbLine
 10
474.8502690663864
 20
346.213935414755
 30
0.0
 11
474.0772961805086
 21
343.2139354147551
 31
0.0
  0
ARC
  5
AFB
330
1A
100
AcDbEntity
  8
SEIHIN
  6
CONTINUOUS
 62
     3
 48
16.0
100
AcDbCircle
 10
472.3343690663861
 20
366.6141354147553
 30
0.0
 40
1.000000000000056
100
AcDbArc
 50
270.0000000000032
 51
0.0000000000032569
  0
ARC
  5
AFC
330
1A
100
AcDbEntity
  8
SEIHIN
  6
CONTINUOUS
 62
     3
 48
16.0
100
AcDbCircle
 10
473.8502690663863
 20
366.6141354147553
 30
0.0
 40
1.000000000000113
100
AcDbArc
 50
270.0
 51
0.0
  0
ARC
  5
C19
330
1A
100
AcDbEntity
  8
SEIHIN
  6
CONTINUOUS
 62
     3
 48
16.0
100
AcDbCircle
 10
457.4251102593628
 20
223.1080354147551
 30
0.0
 40
2.0
100
AcDbArc
 50
21.79994571262127
 51
90.0
  0
LINE
  5
C1B
330
1A
100
AcDbEntity
  8
SEIHIN
100
AcDbLine
 10
458.7792134405887
 20
349.1139354147552
 30
0.0
 11
458.7792134405886
 21
363.7139354147551
 31
0.0
  0
LINE
  5
C1C
330
1A
100
AcDbEntity
  8
SEIHIN
100
AcDbLine
 10
462.9897715015164
 20
346.3644465694099
 30
0.0
 11
462.9897715015164
 21
347.2139354147551
 31
0.0
  0
LINE
  5
C1F
330
1A
100
AcDbEntity
  8
SEIHIN
100
AcDbLine
 10
462.9897715015163
 20
365.6139354147551
 30
0.0
 11
462.9897715015164
 21
366.4636242601004
 31
0.0
  0
ARC
  5
C20
330
1A
100
AcDbEntity
  8
SEIHIN
  6
CONTINUOUS
 62
     3
 48
16.0
100
AcDbCircle
 10
462.6787753004016
 20
367.4140354147552
 30
0.0
 40
1.0
100
AcDbArc
 50
270.0
 51
0.0
  0
ARC
  5
C21
330
1A
100
AcDbEntity
  8
SEIHIN
  6
CONTINUOUS
 62
     3
 48
16.0
100
AcDbCircle
 10
462.6787753004016
 20
345.4140354147551
 30
0.0
 40
1.0
100
AcDbArc
 50
0.0
 51
90.0
  0
ARC
  5
C22
330
1A
100
AcDbEntity
  8
SEIHIN
  6
CONTINUOUS
 62
     3
 48
16.0
100
AcDbCircle
 10
473.9340961805087
 20
329.6640354147551
 30
0.0
 40
2.0
100
AcDbArc
 50
270.0
 51
0.0
  0
ARC
  5
C23
330
1A
100
AcDbEntity
  8
SEIHIN
  6
CONTINUOUS
 62
     3
 48
16.0
100
AcDbCircle
 10
466.7930067346817
 20
329.6640354147551
 30
0.0
 40
2.0
100
AcDbArc
 50
179.999697646006
 51
270.0
  0
ARC
  5
C24
330
1A
100
AcDbEntity
  8
SEIHIN
  6
CONTINUOUS
 62
     3
 48
16.0
100
AcDbCircle
 10
465.6787753004017
 20
329.6640354147551
 30
0.0
 40
2.0
100
AcDbArc
 50
180.0000000000001
 51
270.0
  0
ARC
  5
C25
330
1A
100
AcDbEntity
  8
SEIHIN
  6
CONTINUOUS
 62
     3
 48
16.0
100
AcDbCircle
 10
473.9340961805086
 20
383.1640354147552
 30
0.0
 40
2.0
100
AcDbArc
 50
0.0
 51
90.00000000000026
  0
ARC
  5
C26
330
1A
100
AcDbEntity
  8
SEIHIN
  6
CONTINUOUS
 62
     3
 48
16.0
100
AcDbCircle
 10
466.7930067345706
 20
383.1640354147551
 30
0.0
 40
2.0
100
AcDbArc
 50
90.0000000000003
 51
180.0003023508028
  0
ARC
  5
C27
330
1A
100
AcDbEntity
  8
SEIHIN
  6
CONTINUOUS
 62
     3
 48
16.0
100
AcDbCircle
 10
465.6787753004016
 20
383.1640354147551
 30
0.0
 40
2.0
100
AcDbArc
 50
90.0000000000009
 51
180.0
  0
LINE
  5
C28
330
1A
100
AcDbEntity
  8
SEIHIN
  6
CONTINUOUS
 62
     3
 48
16.0
100
AcDbLine
 10
624.1863038075242
 20
289.0443925825639
 30
0.0
 11
623.0722051624156
 21
291.8298520076799
 31
0.0
  0
LINE
  5
C29
330
1A
100
AcDbEntity
  8
SEIHIN
  6
CONTINUOUS
 62
     3
 48
16.0
100
AcDbLine
 10
605.6095471635667
 20
281.6079560346015
 30
0.0
 11
604.4932798737672
 21
284.3988606115843
 31
0.0
  0
LINE
  5
C2A
330
1A
100
AcDbEntity
  8
SEIHIN
100
AcDbLine
 10
226.1759723594244
 20
222.529939760271
 30
0.0
 11
210.4258944029409
 21
222.529939760271
 31
0.0
  0
LINE
  5
C2B
330
1A
100
AcDbEntity
  8
SEIHIN
100
AcDbLine
 10
226.1759746753466
 20
223.1376354147551
 30
0.0
 11
210.4258944029409
 21
223.1376354147551
 31
0.0
  0
ARC
  5
C2C
330
1A
100
AcDbEntity
  8
SEIHIN
100
AcDbCircle
 10
210.4258944029409
 20
220.5299397602711
 30
0.0
 40
2.0
100
AcDbArc
 50
89.9999999999992
 51
180.0000000000016
  0
ARC
  5
C2D
330
1A
100
AcDbEntity
  8
SEIHIN
100
AcDbCircle
 10
210.4258944029408
 20
221.1376354147551
 30
0.0
 40
2.0
100
AcDbArc
 50
89.99999999999836
 51
180.0000000000007
  0
LINE
  5
C2E
330
1A
100
AcDbEntity
  8
SEIHIN
100
AcDbLine
 10
248.1759277434015
 20
222.5299181528788
 30
0.0
 11
263.9260056998547
 21
222.5298872148057
 31
0.0
  0
LINE
  5
C2F
330
1A
100
AcDbEntity
  8
SEIHIN
100
AcDbLine
 10
248.1759266211834
 20
223.1376138073662
 30
0.0
 11
263.9260068935588
 21
223.1375828692886
 31
0.0
  0
ARC
  5
C30
330
1A
100
AcDbEntity
  8
SEIHIN
100
AcDbCircle
 10
263.9260029649341
 20
221.1375828692925
 30
0.0
 40
2.0
100
AcDbArc
 50
359.9998874531905
 51
89.99988745319294
  0
ARC
  5
C31
330
1A
100
AcDbEntity
  8
SEIHIN
100
AcDbCircle
 10
263.9260017712299
 20
220.5298872148096
 30
0.0
 40
2.0
100
AcDbArc
 50
359.9998874531896
 51
89.99988745319212
  0
LINE
  5
C3B
330
1A
100
AcDbEntity
  8
SEIHIN
  6
CONTINUOUS
 62
     3
 48
16.0
100
AcDbLine
 10
328.7761961805086
 20
364.9139354147551
 30
0.0
 11
327.9761961805085
 21
364.9139354147551
 31
0.0
  0
LINE
  5
C3C
330
1A
100
AcDbEntity
  8
SEIHIN
  6
CONTINUOUS
 62
     3
 48
16.0
100
AcDbLine
 10
328.7761961805086
 20
347.9140354147551
 30
0.0
 11
327.9761961805085
 21
347.9140354147551
 31
0.0
  0
ARC
  5
C6B
330
1A
100
AcDbEntity
  8
SEIHIN
  6
CONTINUOUS
 62
     3
 48
16.0
100
AcDbCircle
 10
626.0432767576015
 20
289.7871250126364
 30
0.0
 40
2.0
100
AcDbArc
 50
201.7998999999996
 51
291.7998999999996
  0
ARC
  5
C6C
330
1A
100
AcDbEntity
  8
SEIHIN
  6
CONTINUOUS
 62
     3
 48
16.0
100
AcDbCircle
 10
603.7504055687987
 20
280.870668756396
 30
0.0
 40
1.999999999999943
100
AcDbArc
 50
291.7999000000012
 51
21.79990000000129
  0
ARC
  5
C9B
330
1A
100
AcDbEntity
  8
SEIHIN
  6
CONTINUOUS
 62
     3
 48
16.0
100
AcDbCircle
 10
457.8605961627407
 20
223.7747129647323
 30
0.0
 40
5.0
100
AcDbArc
 50
21.8000293748219
 51
75.92168569494508
  0
ARC
  5
CC1
330
1A
100
AcDbEntity
  8
SEIHIN
  6
CONTINUOUS
 62
     3
 48
16.0
100
AcDbCircle
 10
335.6092961805086
 20
361.4139354145984
 30
0.0
 40
2.5
100
AcDbArc
 50
90.0
 51
270.0
  0
ARC
  5
CC2
330
1A
100
AcDbEntity
  8
SEIHIN
  6
CONTINUOUS
 62
     3
 48
16.0
100
AcDbCircle
 10
335.6092961805086
 20
351.4140354145983
 30
0.0
 40
2.500000000000085
100
AcDbArc
 50
90.0
 51
270.0
  0
ARC
  5
CC4
330
1A
100
AcDbEntity
  8
SEIHIN
  6
CONTINUOUS
100
AcDbCircle
 10
355.2806961805085
 20
361.4139354145984
 30
0.0
 40
3.625000000000041
100
AcDbArc
 50
136.3971810272969
 51
223.602818972703
  0
ARC
  5
CC5
330
1A
100
AcDbEntity
  8
SEIHIN
  6
CONTINUOUS
100
AcDbCircle
 10
342.5580104662228
 20
361.4139354145984
 30
0.0
 40
2.660714285714282
100
AcDbArc
 50
110.0159596028825
 51
249.9840403971174
  0
ARC
  5
CC6
330
1A
100
AcDbEntity
  8
SEIHIN
  6
CONTINUOUS
100
AcDbCircle
 10
342.5580104662228
 20
351.4139354145985
 30
0.0
 40
2.660714285714282
100
AcDbArc
 50
110.0159596028825
 51
249.9840403971174
  0
ARC
  5
CC7
330
1A
100
AcDbEntity
  8
SEIHIN
  6
CONTINUOUS
100
AcDbCircle
 10
355.2806961805085
 20
351.4139354145985
 30
0.0
 40
3.625000000000041
100
AcDbArc
 50
136.3971810272969
 51
223.602818972703
  0
ARC
  5
CC8
330
1A
100
AcDbEntity
  8
SEIHIN
  6
CONTINUOUS
100
AcDbCircle
 10
416.2716961805087
 20
361.4139354145984
 30
0.0
 40
3.625000000000041
100
AcDbArc
 50
316.397181027297
 51
43.60281897270302
  0
ARC
  5
CC9
330
1A
100
AcDbEntity
  8
SEIHIN
  6
CONTINUOUS
100
AcDbCircle
 10
416.2716961805087
 20
351.4139354145985
 30
0.0
 40
3.625000000000041
100
AcDbArc
 50
316.397181027297
 51
43.60281897270302
  0
ARC
  5
CCA
330
1A
100
AcDbEntity
  8
SEIHIN
  6
CONTINUOUS
100
AcDbCircle
 10
428.9943818947945
 20
361.4139354145984
 30
0.0
 40
2.660714285714282
100
AcDbArc
 50
290.0159596028825
 51
69.98404039711745
  0
ARC
  5
CCB
330
1A
100
AcDbEntity
  8
SEIHIN
  6
CONTINUOUS
100
AcDbCircle
 10
428.9943818947945
 20
351.4139354145985
 30
0.0
 40
2.660714285714282
100
AcDbArc
 50
290.0159596028825
 51
69.98404039711745
  0
DIMENSION
  5
CE9
330
1A
100
AcDbEntity
  8
SUNPOU
  6
CONTINUOUS
100
AcDbDimension
  2
*D12
 10
303.4470842773326
 20
191.414035414755
 30
0.0
 11
298.4470842773325
 21
227.9140854147551
 31
0.0
 70
    32
  3
STANDARD
100
AcDbAlignedDimension
 13
327.9760961805085
 23
264.4141354147551
 33
0.0
 14
352.6555961805085
 24
191.414035414755
 34
0.0
 50
90.0
100
AcDbRotatedDimension
1001
ACAD
1000
DSTYLE
1002
{
1070
   140
1040
6.0
1070
    74
1070
     0
1070
   172
1070
     1
1070
    73
1070
     0
1070
   272
1070
     2
1070
    77
1070
     3
1070
   173
1070
     1
1070
   147
1040
2.0
1070
    42
1040
6.0
1070
    44
1040
3.0
1070
    43
1040
14.0
1070
   271
1070
     0
1070
   178
1070
     4
1070
   177
1070
     4
1070
   176
1070
     4
1070
   141
1040
150.0
1070
     7
1000
_OPEN
1070
     6
1000
_OPEN
1070
    41
1040
7.0
1002
}
  0
DIMENSION
  5
CF6
330
1A
100
AcDbEntity
  8
SUNPOU
  6
CONTINUOUS
100
AcDbDimension
  2
*D13
 10
488.1616757092202
 20
200.1737590138779
 30
0.0
 11
487.2335845884562
 21
215.9578903617718
 31
0.0
 70
    33
  3
STANDARD
100
AcDbAlignedDimension
 13
464.7929558575825
 23
223.1376192864797
 33
0.0
 14
475.9339961805087
 24
195.283035414755
 34
0.0
1001
ACAD
1000
DSTYLE
1002
{
1070
   140
1040
6.0
1070
    74
1070
     0
1070
   172
1070
     1
1070
    73
1070
     0
1070
   272
1070
     2
1070
    77
1070
     3
1070
   173
1070
     1
1070
   147
1040
2.0
1070
    42
1040
6.0
1070
    44
1040
3.0
1070
    43
1040
14.0
1070
   271
1070
     0
1070
   178
1070
     4
1070
   177
1070
     4
1070
   176
1070
     4
1070
   141
1040
150.0
1070
     7
1000
_OPEN
1070
     6
1000
_OPEN
1070
    41
1040
7.0
1002
}
  0
LINE
  5
D13
330
1A
100
AcDbEntity
  8
SEIHIN
  6
CONTINUOUS
 62
     3
 48
16.0
100
AcDbLine
 10
614.154063157638
 20
287.1858491440267
 30
0.0
 11
622.3293865703554
 21
290.4557286674214
 31
0.0
  0
LINE
  5
D14
330
1A
100
AcDbEntity
  8
SEIHIN
  6
CONTINUOUS
 62
     3
 48
16.0
100
AcDbLine
 10
614.154063157638
 20
287.1858491440267
 30
0.0
 11
605.9788299407407
 21
283.9160056962039
 31
0.0
  0
LINE
  5
D15
330
1A
100
AcDbEntity
  8
SEIHIN
  6
CONTINUOUS
100
AcDbLine
 10
623.0722051624156
 20
291.8298520076799
 30
0.0
 11
621.9580213923694
 21
291.3842125496365
 31
0.0
  0
LINE
  5
D16
330
1A
100
AcDbEntity
  8
SEIHIN
  6
CONTINUOUS
100
AcDbLine
 10
605.6074649170646
 20
284.8444968862438
 30
0.0
 11
604.4932798737672
 21
284.3988606115843
 31
0.0
  0
DIMENSION
  5
D2C
330
1A
100
AcDbEntity
  8
SUNPOU
  6
CONTINUOUS
100
AcDbDimension
  2
*D14
 10
485.9435818178782
 20
170.2562936585374
 30
0.0
 11
506.3705878116561
 21
183.8112715681528
 31
0.0
 70
    33
  1
t<>
  3
STANDARD
100
AcDbAlignedDimension
 13
474.8198070954146
 23
194.8374092452717
 33
0.0
 14
475.9339961805088
 24
195.283035414755
 34
0.0
1001
ACAD
1000
DSTYLE
1002
{
1070
   140
1040
6.0
1070
    74
1070
     0
1070
   172
1070
     1
1070
    73
1070
     0
1070
   272
1070
     2
1070
    77
1070
     3
1070
   173
1070
     1
1070
   147
1040
2.0
1070
    42
1040
6.0
1070
    44
1040
3.0
1070
    43
1040
14.0
1070
   271
1070
     1
1070
   178
1070
     4
1070
   177
1070
     4
1070
   176
1070
     4
1070
   141
1040
150.0
1070
     7
1000
_OPEN
1070
     6
1000
_OPEN
1070
    41
1040
7.0
1002
}
  0
ARC
  5
D69
330
1A
100
AcDbEntity
  8
SEIHIN
  6
CONTINUOUS
 62
     3
 48
16.0
100
AcDbCircle
 10
474.9340961805087
 20
366.6138112462824
 30
0.0
 40
1.0
100
AcDbArc
 50
269.2627739612141
 51
0.0
  0
ARC
  5
D6A
330
1A
100
AcDbEntity
  8
SEIHIN
  6
CONTINUOUS
 62
     3
 48
16.0
100
AcDbCircle
 10
474.9340961805087
 20
346.2140595832277
 30
0.0
 40
1.0
100
AcDbArc
 50
0.0
 51
90.73722603878914
  0
LINE
  5
D6B
330
1A
100
AcDbEntity
  8
SEIHIN
  6
CONTINUOUS
 62
     3
 48
16.0
100
AcDbLine
 10
618.6051910561424
 20
252.3474294693148
 30
0.0
 11
605.6074649170648
 21
284.8444968862438
 31
0.0
  0
LINE
  5
D6C
330
1A
100
AcDbEntity
  8
SEIHIN
  6
CONTINUOUS
 62
     3
 48
16.0
100
AcDbLine
 10
634.9558378815861
 20
258.8871885161073
 30
0.0
 11
621.9580213923696
 21
291.3842125496366
 31
0.0
  0
ARC
  5
D6E
330
1A
100
AcDbEntity
  8
SEIHIN
  6
CONTINUOUS
 62
     3
 48
16.0
100
AcDbCircle
 10
604.8645831034137
 20
281.3163007233662
 30
0.0
 40
2.0
100
AcDbArc
 50
291.7999097859323
 51
21.79973629777273
  0
ARC
  5
D6F
330
1A
100
AcDbEntity
  8
SEIHIN
  6
CONTINUOUS
 62
     3
 48
16.0
100
AcDbCircle
 10
624.929092962184
 20
289.341485618026
 30
0.0
 40
2.0
100
AcDbArc
 50
201.7998999999996
 51
291.7999097859324
  0
TEXT
  5
D78
330
1A
100
AcDbEntity
  8
SUNPOU
  6
CONTINUOUS
100
AcDbText
 10
481.1229059259654
 20
143.453816190263
 30
0.0
 40
6.0
  1
10
100
AcDbText
  0
TEXT
  5
D79
330
1A
100
AcDbEntity
  8
SUNPOU
  6
CONTINUOUS
100
AcDbText
 10
492.479699742561
 20
129.3514499563295
 30
0.0
 40
6.0
  1
4
100
AcDbText
  0
LINE
  5
D7A
330
1A
100
AcDbEntity
  8
SUNPOU
  6
CONTINUOUS
100
AcDbLine
 10
499.1321437255187
 20
137.2835373668552
 30
0.0
 11
491.1321437255187
 21
137.2835373668552
 31
0.0
  0
LINE
  5
D7C
330
1A
100
AcDbEntity
  8
SUNPOU
  6
CONTINUOUS
100
AcDbLine
 10
491.1321437255187
 20
137.2835373668552
 30
0.0
 11
491.1321437255187
 21
157.2849613375808
 31
0.0
  0
LWPOLYLINE
  5
EAF
330
1A
100
AcDbEntity
  8
ZUWAKU
100
AcDbPolyline
 90
        4
 70
     1
 43
0.0
 10
0.1999996402756778
 20
551.3999994260826
 10
0.1999996402756778
 20
0.199999426082627
 10
797.3999996402755
 20
0.1999994260826501
 10
797.3999996402758
 20
551.3999994260826
  0
LWPOLYLINE
  5
EB0
330
1A
100
AcDbEntity
  8
ZUWAKU
100
AcDbPolyline
 90
        4
 70
     1
 43
0.0
 10
0.5999996402756551
 20
550.9999994260827
 10
0.5999996402756551
 20
0.5999994260826043
 10
796.9999996402759
 20
0.5999994260826505
 10
796.9999996402757
 20
550.9999994260827
  0
LWPOLYLINE
  5
EB1
330
1A
100
AcDbEntity
  8
ZUWAKU
100
AcDbPolyline
 90
        4
 70
     1
 43
0.0
 10
-0.0000003597242539
 20
551.5999994260826
 10
-0.0000003597242539
 20
-0.0000005739174185
 10
797.5999996402759
 20
-0.000000573917351
 10
797.5999996402759
 20
551.5999994260827
  0
LWPOLYLINE
  5
EB2
330
1A
100
AcDbEntity
  8
ZUWAKU
100
AcDbPolyline
 90
        4
 70
     1
 43
0.0
 10
0.3999996402757233
 20
551.1999994260825
 10
0.3999996402757233
 20
0.3999994260826725
 10
797.1999996402757
 20
0.3999994260826494
 10
797.1999996402757
 20
551.1999994260825
  0
LWPOLYLINE
  5
EB3
330
1A
100
AcDbEntity
  8
ZUWAKU
100
AcDbPolyline
 90
        4
 70
     1
 43
0.0
 10
0.7999996402757006
 20
550.7999994260826
 10
0.7999996402757006
 20
0.7999994260826498
 10
796.7999996402757
 20
0.7999994260826498
 10
796.7999996402757
 20
550.7999994260826
  0
LINE
  5
EB4
330
1A
100
AcDbEntity
  8
ZUWAKU
100
AcDbLine
 10
208.6466009303437
 20
15.19999942608261
 30
0.0
 11
447.4243636112671
 21
15.19999942608261
 31
0.0
  0
LINE
  5
EB5
330
1A
100
AcDbEntity
  8
ZUWAKU
100
AcDbLine
 10
208.6466009303437
 20
15.59999942608261
 30
0.0
 11
447.4243636112671
 21
15.59999942608262
 31
0.0
  0
LINE
  5
EB6
330
1A
100
AcDbEntity
  8
ZUWAKU
100
AcDbLine
 10
208.6466009303437
 20
15.39999942608261
 30
0.0
 11
447.4243636112671
 21
15.39999942608261
 31
0.0
  0
LINE
  5
EB7
330
1A
100
AcDbEntity
  8
ZUWAKU
100
AcDbLine
 10
-0.0000003597242539
 20
30.79999942608259
 30
0.0
 11
797.3999996402755
 21
30.79999942608259
 31
0.0
  0
LINE
  5
EB8
330
1A
100
AcDbEntity
  8
ZUWAKU
100
AcDbLine
 10
-0.0000003597242539
 20
30.59999942608259
 30
0.0
 11
797.3999996402755
 21
30.59999942608259
 31
0.0
  0
LINE
  5
EB9
330
1A
100
AcDbEntity
  8
ZUWAKU
100
AcDbLine
 10
-0.0000003597242539
 20
30.39999942608258
 30
0.0
 11
797.3999996402755
 21
30.39999942608258
 31
0.0
  0
LINE
  5
EBA
330
1A
100
AcDbEntity
  8
ZUWAKU
100
AcDbLine
 10
-0.0000003597242539
 20
30.19999942608258
 30
0.0
 11
797.3999996402755
 21
30.19999942608258
 31
0.0
  0
LINE
  5
EBB
330
1A
100
AcDbEntity
  8
ZUWAKU
100
AcDbLine
 10
-0.0000003597242539
 20
29.99999942608258
 30
0.0
 11
797.3999996402755
 21
29.99999942608258
 31
0.0
  0
TEXT
  5
EBC
330
1A
100
AcDbEntity
  8
MOJI
100
AcDbText
 10
92.95778922844489
 20
12.74117755635734
 30
0.0
 40
6.0
  1
ライナートップＸ７０Ｕ
 41
0.9
  7
ｽﾀｲﾙ1
100
AcDbText
  0
HATCH
  5
EBD
330
1A
100
AcDbEntity
  8
ZUWAKU
100
AcDbHatch
 10
0.0
 20
0.0
 30
0.0
210
0.0
220
0.0
230
1.0
  2
ANSI37
 70
     0
 71
     0
 91
        8
 92
        7
 72
     1
 73
     1
 93
       24
 10
14.5022623013956
 20
17.64484790706616
 42
-0.1989123673796348
 10
14.09221179505687
 20
18.63479740072721
 42
0.0
 10
14.09221179505687
 20
19.92499942608259
 42
-0.4142135623730912
 10
14.61721179505684
 20
20.44999942608258
 42
0.0
 10
17.59221179505675
 20
20.44999942608258
 42
0.4142135623731546
 10
18.11721179505684
 20
20.97499942608257
 42
0.0
 10
18.11721179505684
 20
22.72499942608259
 42
0.4142135623731586
 10
17.59221179505675
 20
23.24999942608259
 42
0.0
 10
14.09221179505687
 20
23.24999942608259
 42
0.4142135623730928
 10
11.29221179505691
 20
20.44999942608261
 42
0.0
 10
11.29221179505691
 20
18.63479740072734
 42
0.1989123673796619
 10
12.52236331407334
 20
15.66494891974373
 42
0.0
 10
15.43216128871802
 20
12.75515094509907
 42
-0.1989123673796613
 10
15.84221179505687
 20
11.76520145143789
 42
0.0
 10
15.84221179505687
 20
10.47499942608257
 42
-0.4142135623730911
 10
15.31721179505689
 20
9.949999426082584
 42
0.0
 10
12.34221179505698
 20
9.949999426082584
 42
0.4142135623731526
 10
11.81721179505689
 20
9.424999426082596
 42
0.0
 10
11.81721179505689
 20
7.674999426082575
 42
0.4142135623731526
 10
12.34221179505698
 20
7.149999426082587
 42
0.0
 10
15.84221179505687
 20
7.149999426082587
 42
0.4142135623731044
 10
18.64221179505693
 20
9.949999426082563
 42
0.0
 10
18.64221179505693
 20
11.76520145143783
 42
0.1989123673796604
 10
17.41206027604039
 20
14.73504993242137
 42
0.0
 97
        0
 92
        7
 72
     1
 73
     1
 93
       16
 10
23.54221179505691
 20
19.04999942608259
 42
-0.4142135623730935
 10
24.94221179505689
 20
20.44999942608258
 42
0.0
 10
26.86721179505684
 20
20.44999942608258
 42
0.4142135623731546
 10
27.39221179505693
 20
20.97499942608257
 42
0.0
 10
27.39221179505693
 20
22.72499942608259
 42
0.4142135623730951
 10
26.86721179505695
 20
23.24999942608259
 42
0.0
 10
24.94221179505677
 20
23.24999942608254
 42
0.4142135623730892
 10
20.74221179505684
 20
19.04999942608252
 42
0.0
 10
20.74221179505684
 20
11.34999942608261
 42
0.4142135623730969
 10
24.94221179505689
 20
7.149999426082587
 42
0.0
 10
26.86721179505684
 20
7.149999426082587
 42
0.4142135623731526
 10
27.39221179505693
 20
7.674999426082575
 42
0.0
 10
27.39221179505693
 20
9.424999426082596
 42
0.4142135623730891
 10
26.86721179505695
 20
9.949999426082584
 42
0.0
 10
24.94221179505689
 20
9.949999426082584
 42
-0.4142135623730928
 10
23.54221179505691
 20
11.34999942608257
 42
0.0
 97
        0
 92
        7
 72
     1
 73
     1
 93
        2
 10
24.24221179505684
 20
15.19999942608258
 42
1.0
 10
27.74221179505684
 20
15.19999942608258
 42
1.0
 97
        0
 92
        7
 72
     1
 73
     1
 93
       26
 10
37.31485827723486
 20
19.20504661964601
 42
0.0
 10
38.37649791037268
 20
22.5669054579156
 42
0.5069206636600134
 10
37.87586701117731
 20
23.24999942608259
 42
0.0
 10
36.17697763156809
 20
23.24999942608259
 42
0.3272098845218764
 10
35.67634673237273
 20
22.88309339424955
 42
0.0
 10
33.80807685774096
 20
16.96690545791566
 42
-0.3272098845219541
 10
33.30744595854548
 20
16.59999942608258
 42
0.0
 10
33.16721179505702
 20
16.59999942608258
 42
-0.4142135623731526
 10
32.64221179505693
 20
17.12499942608257
 42
0.0
 10
32.64221179505693
 20
22.72499942608259
 42
0.4142135623730951
 10
32.11721179505696
 20
23.24999942608259
 42
0.0
 10
30.36721179505684
 20
23.24999942608259
 42
0.4142135623730871
 10
29.84221179505686
 20
22.7249994260826
 42
0.0
 10
29.84221179505686
 20
7.674999426082575
 42
0.4142135623730891
 10
30.36721179505684
 20
7.149999426082587
 42
0.0
 10
32.11721179505684
 20
7.149999426082587
 42
0.4142135623731526
 10
32.64221179505693
 20
7.674999426082575
 42
0.0
 10
32.64221179505693
 20
13.27499942608259
 42
-0.4142135623731526
 10
33.16721179505702
 20
13.79999942608258
 42
0.0
 10
33.3074459585456
 20
13.79999942608258
 42
-0.3272098845218915
 10
33.80807685774096
 20
13.43309339424951
 42
0.0
 10
35.67634673237273
 20
7.516905457915658
 42
0.3272098845218902
 10
36.17697763156809
 20
7.149999426082587
 42
0.0
 10
37.87586701117731
 20
7.149999426082587
 42
0.5069206636600335
 10
38.37649791037268
 20
7.833093394249594
 42
0.0
 10
36.05010653189902
 20
15.19999942608272
 42
0.0
 97
        0
 92
        7
 72
     1
 73
     1
 93
        8
 10
43.49221179505684
 20
22.72499942608259
 42
0.4142135623731546
 10
42.96721179505675
 20
23.24999942608259
 42
0.0
 10
41.21721179505698
 20
23.24999942608259
 42
0.4142135623731507
 10
40.69221179505689
 20
22.7249994260826
 42
0.0
 10
40.69221179505689
 20
7.674999426082575
 42
0.4142135623731526
 10
41.21721179505698
 20
7.149999426082587
 42
0.0
 10
42.96721179505675
 20
7.149999426082587
 42
0.4142135623731526
 10
43.49221179505684
 20
7.674999426082575
 42
0.0
 97
        0
 92
        7
 72
     1
 73
     1
 93
       24
 10
48.39221179505694
 20
19.92499942608259
 42
-0.4142135623731546
 10
48.91721179505703
 20
20.44999942608258
 42
0.0
 10
51.89221179505693
 20
20.44999942608258
 42
0.4142135623730911
 10
52.41721179505692
 20
20.97499942608257
 42
0.0
 10
52.41721179505692
 20
22.72499942608259
 42
0.4142135623730952
 10
51.89221179505693
 20
23.24999942608259
 42
0.0
 10
48.39221179505694
 20
23.24999942608259
 42
0.4142135623731048
 10
45.59221179505686
 20
20.44999942608261
 42
0.0
 10
45.59221179505686
 20
18.63479740072734
 42
0.1989123673796613
 10
46.82236331407341
 20
15.66494891974379
 42
0.0
 10
49.73216128871809
 20
12.75515094509912
 42
-0.1989123673796402
 10
50.14221179505693
 20
11.76520145143805
 42
0.0
 10
50.14221179505693
 20
10.47499942608257
 42
-0.4142135623730911
 10
49.61721179505696
 20
9.949999426082584
 42
0.0
 10
46.64221179505694
 20
9.949999426082584
 42
0.4142135623731526
 10
46.11721179505685
 20
9.424999426082596
 42
0.0
 10
46.11721179505685
 20
7.674999426082575
 42
0.4142135623730891
 10
46.64221179505682
 20
7.149999426082587
 42
0.0
 10
50.14221179505693
 20
7.149999426082587
 42
0.4142135623730925
 10
52.94221179505689
 20
9.949999426082563
 42
0.0
 10
52.94221179505689
 20
11.76520145143783
 42
0.1989123673796675
 10
51.71206027604035
 20
14.73504993242149
 42
0.0
 10
48.80226230139578
 20
17.644847907066
 42
-0.1989123673796652
 10
48.39221179505694
 20
18.63479740072717
 42
0.0
 97
        0
 92
        7
 72
     1
 73
     1
 93
       16
 10
57.84221179505687
 20
22.72499942608257
 42
0.414213562373103
 10
57.31721179505689
 20
23.24999942608259
 42
0.0
 10
55.56721179505689
 20
23.24999942608259
 42
0.4142135623730871
 10
55.04221179505691
 20
22.7249994260826
 42
0.0
 10
55.04221179505691
 20
9.949999426082563
 42
0.4142135623730926
 10
57.84221179505687
 20
7.149999426082587
 42
0.0
 10
61.34221179505686
 20
7.149999426082587
 42
0.4142135623731044
 10
64.14221179505694
 20
9.949999426082563
 42
0.0
 10
64.14221179505694
 20
22.72499942608259
 42
0.4142135623730951
 10
63.61721179505696
 20
23.24999942608259
 42
0.0
 10
61.86721179505685
 20
23.24999942608259
 42
0.4142135623730871
 10
61.34221179505686
 20
22.7249994260826
 42
0.0
 10
61.34221179505686
 20
10.99999942608256
 42
-0.414213562373088
 10
60.29221179505691
 20
9.949999426082584
 42
0.0
 10
58.89221179505693
 20
9.949999426082584
 42
-0.4142135623731197
 10
57.84221179505687
 20
10.99999942608256
 42
0.0
 97
        0
 92
        7
 72
     1
 73
     1
 93
        8
 10
69.04221179505691
 20
22.7249994260826
 42
0.4142135623730871
 10
68.51721179505694
 20
23.24999942608259
 42
0.0
 10
66.76721179505694
 20
23.24999942608259
 42
0.4142135623731507
 10
66.24221179505685
 20
22.7249994260826
 42
0.0
 10
66.24221179505685
 20
7.674999426082575
 42
0.4142135623730891
 10
66.76721179505682
 20
7.149999426082587
 42
0.0
 10
68.51721179505694
 20
7.149999426082587
 42
0.4142135623730891
 10
69.04221179505691
 20
7.674999426082575
 42
0.0
 97
        0
 75
     0
 76
     1
 52
0.0
 41
0.2
 77
     0
 78
     2
 53
45.0
 43
-900.9423046944032
 44
-13.20000057391735
 45
-0.4490128060534576
 46
0.4490128060534577
 79
     0
 53
135.0
 43
-900.9423046944032
 44
-13.20000057391735
 45
-0.4490128060534577
 46
-0.4490128060534576
 79
     0
 47
0.057451373970553
 98
        8
 10
16.07985460329905
 20
15.16717307196813
 10
22.40451464671491
 20
18.84406160853359
 10
25.1643675259354
 20
15.5118810721533
 10
30.91405962191288
 20
16.20129707252408
 10
41.83847165923248
 20
16.6609093400657
 10
46.89820053540529
 20
19.41857574248979
 10
56.5576856126761
 20
18.72915734117759
 10
67.82707925989848
 20
19.18876960871921
  0
LINE
  5
EBE
330
1A
100
AcDbEntity
  8
ZUWAKU
100
AcDbLine
 10
24.94221179505689
 20
23.24999942608254
 30
0.0
 11
26.86721179505684
 21
23.24999942608259
 31
0.0
  0
LINE
  5
EBF
330
1A
100
AcDbEntity
  8
ZUWAKU
100
AcDbLine
 10
26.86721179505684
 20
20.44999942608258
 30
0.0
 11
24.94221179505689
 21
20.44999942608258
 31
0.0
  0
LINE
  5
EC0
330
1A
100
AcDbEntity
  8
ZUWAKU
100
AcDbLine
 10
24.94221179505689
 20
9.949999426082584
 30
0.0
 11
26.86721179505684
 21
9.949999426082584
 31
0.0
  0
LINE
  5
EC1
330
1A
100
AcDbEntity
  8
ZUWAKU
100
AcDbLine
 10
26.86721179505684
 20
7.149999426082587
 30
0.0
 11
24.94221179505689
 21
7.149999426082587
 31
0.0
  0
CIRCLE
  5
EC2
330
1A
100
AcDbEntity
  8
ZUWAKU
100
AcDbCircle
 10
25.99221179505684
 20
15.19999942608258
 30
0.0
 40
1.75
  0
ARC
  5
EC3
330
1A
100
AcDbEntity
  8
ZUWAKU
100
AcDbCircle
 10
15.49221179505684
 20
18.63479740072728
 30
0.0
 40
1.399999999999999
100
AcDbArc
 50
180.0000000000016
 51
224.9999999999988
  0
LINE
  5
EC4
330
1A
100
AcDbEntity
  8
ZUWAKU
100
AcDbLine
 10
23.54221179505691
 20
19.04999942608258
 30
0.0
 11
23.54221179505691
 21
11.34999942608259
 31
0.0
  0
LINE
  5
EC5
330
1A
100
AcDbEntity
  8
ZUWAKU
100
AcDbLine
 10
20.74221179505684
 20
11.34999942608259
 30
0.0
 11
20.74221179505684
 21
19.04999942608254
 31
0.0
  0
ARC
  5
EC6
330
1A
100
AcDbEntity
  8
ZUWAKU
100
AcDbCircle
 10
15.49221179505684
 20
18.63479740072728
 30
0.0
 40
4.199999999999999
100
AcDbArc
 50
180.0
 51
225.0
  0
ARC
  5
EC7
330
1A
100
AcDbEntity
  8
ZUWAKU
100
AcDbCircle
 10
15.84221179505687
 20
9.949999426082584
 30
0.0
 40
2.799999999999999
100
AcDbArc
 50
270.0
 51
0.0
  0
ARC
  5
EC8
330
1A
100
AcDbEntity
  8
ZUWAKU
100
AcDbCircle
 10
24.94221179505689
 20
11.34999942608259
 30
0.0
 40
4.199999999999999
100
AcDbArc
 50
180.0
 51
270.0
  0
ARC
  5
EC9
330
1A
100
AcDbEntity
  8
ZUWAKU
100
AcDbCircle
 10
14.44221179505689
 20
11.76520145143788
 30
0.0
 40
4.199999999999999
100
AcDbArc
 50
0.0
 51
45.0
  0
LINE
  5
ECA
330
1A
100
AcDbEntity
  8
ZUWAKU
100
AcDbLine
 10
17.41206027604039
 20
14.73504993242141
 30
0.0
 11
14.50226230139571
 21
17.64484790706608
 31
0.0
  0
LINE
  5
ECB
330
1A
100
AcDbEntity
  8
ZUWAKU
100
AcDbLine
 10
15.84221179505687
 20
10.47499942608258
 30
0.0
 11
15.84221179505687
 21
11.76520145143793
 31
0.0
  0
ARC
  5
ECC
330
1A
100
AcDbEntity
  8
ZUWAKU
100
AcDbCircle
 10
15.31721179505689
 20
10.47499942608258
 30
0.0
 40
0.525
100
AcDbArc
 50
270.0
 51
0.0
  0
ARC
  5
ECD
330
1A
100
AcDbEntity
  8
ZUWAKU
100
AcDbCircle
 10
14.44221179505689
 20
11.76520145143793
 30
0.0
 40
1.399999999999999
100
AcDbArc
 50
0.0
 51
45.0
  0
LINE
  5
ECE
330
1A
100
AcDbEntity
  8
ZUWAKU
100
AcDbLine
 10
11.81721179505689
 20
7.674999426082585
 30
0.0
 11
11.81721179505689
 21
9.424999426082585
 31
0.0
  0
ARC
  5
ECF
330
1A
100
AcDbEntity
  8
ZUWAKU
100
AcDbCircle
 10
12.34221179505686
 20
7.674999426082585
 30
0.0
 40
0.525
100
AcDbArc
 50
180.0
 51
270.0
  0
ARC
  5
ED0
330
1A
100
AcDbEntity
  8
ZUWAKU
100
AcDbCircle
 10
12.34221179505686
 20
9.424999426082585
 30
0.0
 40
0.525
100
AcDbArc
 50
90.0
 51
180.0
  0
LINE
  5
ED1
330
1A
100
AcDbEntity
  8
ZUWAKU
100
AcDbLine
 10
12.34221179505686
 20
7.149999426082587
 30
0.0
 11
15.84221179505687
 21
7.149999426082587
 31
0.0
  0
LINE
  5
ED2
330
1A
100
AcDbEntity
  8
ZUWAKU
100
AcDbLine
 10
12.34221179505686
 20
9.949999426082584
 30
0.0
 11
15.31721179505689
 21
9.949999426082584
 31
0.0
  0
LINE
  5
ED3
330
1A
100
AcDbEntity
  8
ZUWAKU
100
AcDbLine
 10
12.52236331407334
 20
15.66494891974376
 30
0.0
 11
15.43216128871802
 21
12.7551509450991
 31
0.0
  0
LINE
  5
ED4
330
1A
100
AcDbEntity
  8
ZUWAKU
100
AcDbLine
 10
18.64221179505693
 20
9.949999426082584
 30
0.0
 11
18.64221179505693
 21
11.76520145143793
 31
0.0
  0
ARC
  5
ED5
330
1A
100
AcDbEntity
  8
ZUWAKU
100
AcDbCircle
 10
24.94221179505689
 20
11.34999942608259
 30
0.0
 40
1.399999999999999
100
AcDbArc
 50
180.0
 51
270.0
  0
ARC
  5
ED6
330
1A
100
AcDbEntity
  8
ZUWAKU
100
AcDbCircle
 10
17.59221179505686
 20
22.72499942608258
 30
0.0
 40
0.525
100
AcDbArc
 50
0.0
 51
90.0
  0
ARC
  5
ED7
330
1A
100
AcDbEntity
  8
ZUWAKU
100
AcDbCircle
 10
17.59221179505686
 20
20.97499942608258
 30
0.0
 40
0.525
100
AcDbArc
 50
270.0
 51
0.0
  0
LINE
  5
ED8
330
1A
100
AcDbEntity
  8
ZUWAKU
100
AcDbLine
 10
14.09221179505687
 20
23.24999942608259
 30
0.0
 11
17.59221179505686
 21
23.24999942608259
 31
0.0
  0
ARC
  5
ED9
330
1A
100
AcDbEntity
  8
ZUWAKU
100
AcDbCircle
 10
14.61721179505684
 20
19.92499942608258
 30
0.0
 40
0.525
100
AcDbArc
 50
90.0
 51
180.0
  0
LINE
  5
EDA
330
1A
100
AcDbEntity
  8
ZUWAKU
100
AcDbLine
 10
14.09221179505687
 20
19.92499942608258
 30
0.0
 11
14.09221179505687
 21
18.63479740072724
 31
0.0
  0
LINE
  5
EDB
330
1A
100
AcDbEntity
  8
ZUWAKU
100
AcDbLine
 10
17.59221179505686
 20
20.44999942608258
 30
0.0
 11
14.61721179505684
 21
20.44999942608258
 31
0.0
  0
LINE
  5
EDC
330
1A
100
AcDbEntity
  8
ZUWAKU
100
AcDbLine
 10
11.29221179505691
 20
20.44999942608258
 30
0.0
 11
11.29221179505691
 21
18.63479740072724
 31
0.0
  0
ARC
  5
EDD
330
1A
100
AcDbEntity
  8
ZUWAKU
100
AcDbCircle
 10
14.09221179505687
 20
20.44999942608258
 30
0.0
 40
2.799999999999999
100
AcDbArc
 50
90.0
 51
180.0
  0
LINE
  5
EDE
330
1A
100
AcDbEntity
  8
ZUWAKU
100
AcDbLine
 10
18.11721179505684
 20
22.72499942608258
 30
0.0
 11
18.11721179505684
 21
20.97499942608258
 31
0.0
  0
ARC
  5
EDF
330
1A
100
AcDbEntity
  8
ZUWAKU
100
AcDbCircle
 10
24.94221179505689
 20
19.04999942608258
 30
0.0
 40
1.399999999999999
100
AcDbArc
 50
90.0
 51
180.0
  0
ARC
  5
EE0
330
1A
100
AcDbEntity
  8
ZUWAKU
100
AcDbCircle
 10
24.94221179505689
 20
19.04999942608254
 30
0.0
 40
4.199999999999999
100
AcDbArc
 50
90.0
 51
180.0
  0
LINE
  5
EE1
330
1A
100
AcDbEntity
  8
ZUWAKU
100
AcDbLine
 10
79.32662918826395
 20
29.99999942608258
 30
0.0
 11
79.32662918826418
 21
0.7999994260826498
 31
0.0
  0
LINE
  5
EE2
330
1A
100
AcDbEntity
  8
ZUWAKU
100
AcDbLine
 10
79.52662918826399
 20
29.99999942608258
 30
0.0
 11
79.52662918826423
 21
0.7999994260826498
 31
0.0
  0
LINE
  5
EE3
330
1A
100
AcDbEntity
  8
ZUWAKU
100
AcDbLine
 10
79.12662918826413
 20
29.99999942608258
 30
0.0
 11
79.12662918826413
 21
0.7999994260826498
 31
0.0
  0
LINE
  5
EE4
330
1A
100
AcDbEntity
  8
ZUWAKU
100
AcDbLine
 10
64.14221179505694
 20
9.949999426082584
 30
0.0
 11
64.14221179505694
 21
22.72499942608258
 31
0.0
  0
LINE
  5
EE5
330
1A
100
AcDbEntity
  8
ZUWAKU
100
AcDbLine
 10
61.34221179505686
 20
22.72499942608258
 30
0.0
 11
61.34221179505686
 21
10.99999942608258
 31
0.0
  0
LINE
  5
EE6
330
1A
100
AcDbEntity
  8
ZUWAKU
100
AcDbLine
 10
69.04221179505691
 20
7.674999426082585
 30
0.0
 11
69.04221179505691
 21
22.72499942608258
 31
0.0
  0
LINE
  5
EE7
330
1A
100
AcDbEntity
  8
ZUWAKU
100
AcDbLine
 10
66.24221179505685
 20
22.72499942608258
 30
0.0
 11
66.24221179505685
 21
7.674999426082585
 31
0.0
  0
ARC
  5
EE8
330
1A
100
AcDbEntity
  8
ZUWAKU
100
AcDbCircle
 10
49.79221179505691
 20
18.63479740072728
 30
0.0
 40
1.399999999999999
100
AcDbArc
 50
180.0000000000016
 51
224.9999999999988
  0
ARC
  5
EE9
330
1A
100
AcDbEntity
  8
ZUWAKU
100
AcDbCircle
 10
49.79221179505691
 20
18.63479740072728
 30
0.0
 40
4.199999999999999
100
AcDbArc
 50
180.0
 51
225.0
  0
LINE
  5
EEA
330
1A
100
AcDbEntity
  8
ZUWAKU
100
AcDbLine
 10
37.31485827723486
 20
19.20504661964601
 30
0.0
 11
36.05010653189902
 21
15.1999994260826
 31
0.0
  0
LINE
  5
EEB
330
1A
100
AcDbEntity
  8
ZUWAKU
100
AcDbLine
 10
40.69221179505689
 20
22.72499942608258
 30
0.0
 11
40.69221179505689
 21
7.674999426082585
 31
0.0
  0
LINE
  5
EEC
330
1A
100
AcDbEntity
  8
ZUWAKU
100
AcDbLine
 10
43.49221179505684
 20
7.674999426082585
 30
0.0
 11
43.49221179505684
 21
22.72499942608258
 31
0.0
  0
LINE
  5
EED
330
1A
100
AcDbEntity
  8
ZUWAKU
100
AcDbLine
 10
55.04221179505691
 20
22.72499942608258
 30
0.0
 11
55.04221179505691
 21
9.949999426082584
 31
0.0
  0
LINE
  5
EEE
330
1A
100
AcDbEntity
  8
ZUWAKU
100
AcDbLine
 10
57.84221179505687
 20
10.99999942608258
 30
0.0
 11
57.84221179505687
 21
22.72499942608258
 31
0.0
  0
LINE
  5
EEF
330
1A
100
AcDbEntity
  8
ZUWAKU
100
AcDbLine
 10
32.64221179505693
 20
17.12499942608259
 30
0.0
 11
32.64221179505693
 21
22.72499942608258
 31
0.0
  0
LINE
  5
EF0
330
1A
100
AcDbEntity
  8
ZUWAKU
100
AcDbLine
 10
29.84221179505686
 20
22.72499942608258
 30
0.0
 11
29.84221179505686
 21
7.674999426082585
 31
0.0
  0
LINE
  5
EF1
330
1A
100
AcDbEntity
  8
ZUWAKU
100
AcDbLine
 10
35.67634673237273
 20
22.88309339424955
 30
0.0
 11
33.80807685774096
 21
16.96690545791561
 31
0.0
  0
LINE
  5
EF2
330
1A
100
AcDbEntity
  8
ZUWAKU
100
AcDbLine
 10
60.29221179505691
 20
9.949999426082584
 30
0.0
 11
58.89221179505693
 21
9.949999426082584
 31
0.0
  0
LINE
  5
EF3
330
1A
100
AcDbEntity
  8
ZUWAKU
100
AcDbLine
 10
57.84221179505687
 20
7.149999426082587
 30
0.0
 11
61.34221179505686
 21
7.149999426082587
 31
0.0
  0
LINE
  5
EF4
330
1A
100
AcDbEntity
  8
ZUWAKU
100
AcDbLine
 10
41.21721179505686
 20
7.149999426082587
 30
0.0
 11
42.96721179505687
 21
7.149999426082587
 31
0.0
  0
LINE
  5
EF5
330
1A
100
AcDbEntity
  8
ZUWAKU
100
AcDbLine
 10
35.67634673237273
 20
7.516905457915612
 30
0.0
 11
33.80807685774096
 21
13.43309339424955
 31
0.0
  0
ARC
  5
EF6
330
1A
100
AcDbEntity
  8
ZUWAKU
100
AcDbCircle
 10
33.3074459585456
 20
17.12499942608259
 30
0.0
 40
0.525
100
AcDbArc
 50
270.0
 51
342.4744316262769
  0
LINE
  5
EF7
330
1A
100
AcDbEntity
  8
ZUWAKU
100
AcDbLine
 10
33.3074459585456
 20
16.59999942608258
 30
0.0
 11
33.16721179505691
 21
16.59999942608258
 31
0.0
  0
LINE
  5
EF8
330
1A
100
AcDbEntity
  8
ZUWAKU
100
AcDbLine
 10
33.16721179505691
 20
13.79999942608258
 30
0.0
 11
33.3074459585456
 21
13.79999942608258
 31
0.0
  0
ARC
  5
EF9
330
1A
100
AcDbEntity
  8
ZUWAKU
100
AcDbCircle
 10
33.16721179505691
 20
17.12499942608259
 30
0.0
 40
0.525
100
AcDbArc
 50
180.0
 51
270.0
  0
LINE
  5
EFA
330
1A
100
AcDbEntity
  8
ZUWAKU
100
AcDbLine
 10
30.36721179505684
 20
7.149999426082587
 30
0.0
 11
32.11721179505684
 21
7.149999426082587
 31
0.0
  0
ARC
  5
EFB
330
1A
100
AcDbEntity
  8
ZUWAKU
100
AcDbCircle
 10
32.11721179505684
 20
7.674999426082585
 30
0.0
 40
0.525
100
AcDbArc
 50
270.0
 51
0.0
  0
LINE
  5
EFC
330
1A
100
AcDbEntity
  8
ZUWAKU
100
AcDbLine
 10
32.64221179505693
 20
7.674999426082585
 30
0.0
 11
32.64221179505693
 21
13.27499942608258
 31
0.0
  0
LINE
  5
EFD
330
1A
100
AcDbEntity
  8
ZUWAKU
100
AcDbLine
 10
27.39221179505693
 20
9.424999426082585
 30
0.0
 11
27.39221179505693
 21
7.674999426082585
 31
0.0
  0
ARC
  5
EFE
330
1A
100
AcDbEntity
  8
ZUWAKU
100
AcDbCircle
 10
26.86721179505684
 20
7.674999426082585
 30
0.0
 40
0.525
100
AcDbArc
 50
270.0
 51
0.0
  0
ARC
  5
EFF
330
1A
100
AcDbEntity
  8
ZUWAKU
100
AcDbCircle
 10
26.86721179505684
 20
9.424999426082585
 30
0.0
 40
0.525
100
AcDbArc
 50
0.0
 51
90.0
  0
ARC
  5
F00
330
1A
100
AcDbEntity
  8
ZUWAKU
100
AcDbCircle
 10
30.36721179505684
 20
7.674999426082585
 30
0.0
 40
0.525
100
AcDbArc
 50
180.0
 51
270.0
  0
ARC
  5
F01
330
1A
100
AcDbEntity
  8
ZUWAKU
100
AcDbCircle
 10
33.3074459585456
 20
13.27499942608258
 30
0.0
 40
0.525
100
AcDbArc
 50
17.52556837372303
 51
90.0
  0
ARC
  5
F02
330
1A
100
AcDbEntity
  8
ZUWAKU
100
AcDbCircle
 10
33.16721179505691
 20
13.27499942608258
 30
0.0
 40
0.525
100
AcDbArc
 50
90.0
 51
180.0
  0
ARC
  5
F03
330
1A
100
AcDbEntity
  8
ZUWAKU
100
AcDbCircle
 10
41.21721179505686
 20
7.674999426082585
 30
0.0
 40
0.525
100
AcDbArc
 50
180.0
 51
270.0
  0
LINE
  5
F04
330
1A
100
AcDbEntity
  8
ZUWAKU
100
AcDbLine
 10
36.17697763156821
 20
7.149999426082587
 30
0.0
 11
37.8758670111772
 21
7.149999426082587
 31
0.0
  0
ARC
  5
F05
330
1A
100
AcDbEntity
  8
ZUWAKU
100
AcDbCircle
 10
37.8758670111772
 20
7.674999426082585
 30
0.0
 40
0.525
100
AcDbArc
 50
270.0
 51
17.52556837372303
  0
LINE
  5
F06
330
1A
100
AcDbEntity
  8
ZUWAKU
100
AcDbLine
 10
38.37649791037268
 20
7.833093394249559
 30
0.0
 11
36.05010653189902
 21
15.1999994260826
 31
0.0
  0
ARC
  5
F07
330
1A
100
AcDbEntity
  8
ZUWAKU
100
AcDbCircle
 10
36.17697763156821
 20
7.674999426082585
 30
0.0
 40
0.525
100
AcDbArc
 50
197.525568373723
 51
270.0
  0
ARC
  5
F08
330
1A
100
AcDbEntity
  8
ZUWAKU
100
AcDbCircle
 10
57.84221179505687
 20
9.949999426082584
 30
0.0
 40
2.799999999999999
100
AcDbArc
 50
180.0
 51
270.0
  0
ARC
  5
F09
330
1A
100
AcDbEntity
  8
ZUWAKU
100
AcDbCircle
 10
50.14221179505693
 20
9.949999426082584
 30
0.0
 40
2.799999999999999
100
AcDbArc
 50
270.0
 51
0.0
  0
LINE
  5
F0A
330
1A
100
AcDbEntity
  8
ZUWAKU
100
AcDbLine
 10
51.71206027604046
 20
14.73504993242141
 30
0.0
 11
48.80226230139567
 21
17.64484790706608
 31
0.0
  0
LINE
  5
F0B
330
1A
100
AcDbEntity
  8
ZUWAKU
100
AcDbLine
 10
50.14221179505693
 20
10.47499942608258
 30
0.0
 11
50.14221179505693
 21
11.76520145143793
 31
0.0
  0
ARC
  5
F0C
330
1A
100
AcDbEntity
  8
ZUWAKU
100
AcDbCircle
 10
48.74221179505685
 20
11.76520145143793
 30
0.0
 40
1.399999999999999
100
AcDbArc
 50
0.0
 51
45.0
  0
ARC
  5
F0D
330
1A
100
AcDbEntity
  8
ZUWAKU
100
AcDbCircle
 10
49.61721179505684
 20
10.47499942608258
 30
0.0
 40
0.525
100
AcDbArc
 50
270.0
 51
0.0
  0
LINE
  5
F0E
330
1A
100
AcDbEntity
  8
ZUWAKU
100
AcDbLine
 10
46.11721179505685
 20
7.674999426082585
 30
0.0
 11
46.11721179505685
 21
9.424999426082585
 31
0.0
  0
ARC
  5
F0F
330
1A
100
AcDbEntity
  8
ZUWAKU
100
AcDbCircle
 10
46.64221179505694
 20
7.674999426082585
 30
0.0
 40
0.525
100
AcDbArc
 50
180.0
 51
270.0
  0
ARC
  5
F10
330
1A
100
AcDbEntity
  8
ZUWAKU
100
AcDbCircle
 10
42.96721179505687
 20
7.674999426082585
 30
0.0
 40
0.525
100
AcDbArc
 50
270.0
 51
0.0
  0
ARC
  5
F11
330
1A
100
AcDbEntity
  8
ZUWAKU
100
AcDbCircle
 10
46.64221179505694
 20
9.424999426082585
 30
0.0
 40
0.525
100
AcDbArc
 50
90.0
 51
180.0
  0
LINE
  5
F12
330
1A
100
AcDbEntity
  8
ZUWAKU
100
AcDbLine
 10
46.64221179505694
 20
9.949999426082584
 30
0.0
 11
49.61721179505684
 21
9.949999426082584
 31
0.0
  0
LINE
  5
F13
330
1A
100
AcDbEntity
  8
ZUWAKU
100
AcDbLine
 10
46.64221179505694
 20
7.149999426082587
 30
0.0
 11
50.14221179505693
 21
7.149999426082587
 31
0.0
  0
LINE
  5
F14
330
1A
100
AcDbEntity
  8
ZUWAKU
100
AcDbLine
 10
46.82236331407341
 20
15.66494891974376
 30
0.0
 11
49.73216128871809
 21
12.7551509450991
 31
0.0
  0
LINE
  5
F15
330
1A
100
AcDbEntity
  8
ZUWAKU
100
AcDbLine
 10
52.94221179505689
 20
9.949999426082584
 30
0.0
 11
52.94221179505689
 21
11.76520145143793
 31
0.0
  0
ARC
  5
F16
330
1A
100
AcDbEntity
  8
ZUWAKU
100
AcDbCircle
 10
48.74221179505685
 20
11.76520145143788
 30
0.0
 40
4.199999999999999
100
AcDbArc
 50
0.0
 51
45.0
  0
ARC
  5
F17
330
1A
100
AcDbEntity
  8
ZUWAKU
100
AcDbCircle
 10
58.89221179505693
 20
10.99999942608258
 30
0.0
 40
1.049999999999999
100
AcDbArc
 50
180.0
 51
270.0
  0
ARC
  5
F18
330
1A
100
AcDbEntity
  8
ZUWAKU
100
AcDbCircle
 10
61.34221179505686
 20
9.949999426082584
 30
0.0
 40
2.799999999999999
100
AcDbArc
 50
270.0
 51
0.0
  0
LINE
  5
F19
330
1A
100
AcDbEntity
  8
ZUWAKU
100
AcDbLine
 10
66.76721179505694
 20
7.149999426082587
 30
0.0
 11
68.51721179505694
 21
7.149999426082587
 31
0.0
  0
ARC
  5
F1A
330
1A
100
AcDbEntity
  8
ZUWAKU
100
AcDbCircle
 10
66.76721179505694
 20
7.674999426082585
 30
0.0
 40
0.525
100
AcDbArc
 50
180.0
 51
270.0
  0
ARC
  5
F1B
330
1A
100
AcDbEntity
  8
ZUWAKU
100
AcDbCircle
 10
60.29221179505691
 20
10.99999942608258
 30
0.0
 40
1.049999999999999
100
AcDbArc
 50
270.0
 51
0.0
  0
ARC
  5
F1C
330
1A
100
AcDbEntity
  8
ZUWAKU
100
AcDbCircle
 10
68.51721179505694
 20
7.674999426082585
 30
0.0
 40
0.525
100
AcDbArc
 50
270.0
 51
0.0
  0
LINE
  5
F1D
330
1A
100
AcDbEntity
  8
ZUWAKU
100
AcDbLine
 10
42.96721179505687
 20
23.24999942608259
 30
0.0
 11
41.21721179505686
 21
23.24999942608259
 31
0.0
  0
ARC
  5
F1E
330
1A
100
AcDbEntity
  8
ZUWAKU
100
AcDbCircle
 10
32.11721179505684
 20
22.72499942608258
 30
0.0
 40
0.525
100
AcDbArc
 50
0.0
 51
90.0
  0
LINE
  5
F1F
330
1A
100
AcDbEntity
  8
ZUWAKU
100
AcDbLine
 10
32.11721179505684
 20
23.24999942608259
 30
0.0
 11
30.36721179505684
 21
23.24999942608259
 31
0.0
  0
ARC
  5
F20
330
1A
100
AcDbEntity
  8
ZUWAKU
100
AcDbCircle
 10
26.86721179505684
 20
22.72499942608258
 30
0.0
 40
0.525
100
AcDbArc
 50
0.0
 51
90.0
  0
ARC
  5
F21
330
1A
100
AcDbEntity
  8
ZUWAKU
100
AcDbCircle
 10
30.36721179505684
 20
22.72499942608258
 30
0.0
 40
0.525
100
AcDbArc
 50
90.0
 51
180.0
  0
ARC
  5
F22
330
1A
100
AcDbEntity
  8
ZUWAKU
100
AcDbCircle
 10
26.86721179505684
 20
20.97499942608258
 30
0.0
 40
0.525
100
AcDbArc
 50
270.0
 51
0.0
  0
LINE
  5
F23
330
1A
100
AcDbEntity
  8
ZUWAKU
100
AcDbLine
 10
27.39221179505693
 20
22.72499942608258
 30
0.0
 11
27.39221179505693
 21
20.97499942608258
 31
0.0
  0
ARC
  5
F24
330
1A
100
AcDbEntity
  8
ZUWAKU
100
AcDbCircle
 10
41.21721179505686
 20
22.72499942608258
 30
0.0
 40
0.525
100
AcDbArc
 50
90.0
 51
180.0
  0
LINE
  5
F25
330
1A
100
AcDbEntity
  8
ZUWAKU
100
AcDbLine
 10
36.17697763156821
 20
23.24999942608259
 30
0.0
 11
37.8758670111772
 21
23.24999942608259
 31
0.0
  0
ARC
  5
F26
330
1A
100
AcDbEntity
  8
ZUWAKU
100
AcDbCircle
 10
37.8758670111772
 20
22.72499942608258
 30
0.0
 40
0.525
100
AcDbArc
 50
342.4744316262769
 51
90.0
  0
LINE
  5
F27
330
1A
100
AcDbEntity
  8
ZUWAKU
100
AcDbLine
 10
38.37649791037268
 20
22.56690545791561
 30
0.0
 11
37.31485827723486
 21
19.20504661964601
 31
0.0
  0
ARC
  5
F28
330
1A
100
AcDbEntity
  8
ZUWAKU
100
AcDbCircle
 10
36.17697763156821
 20
22.72499942608258
 30
0.0
 40
0.525
100
AcDbArc
 50
90.0
 51
162.4744316262769
  0
LINE
  5
F29
330
1A
100
AcDbEntity
  8
ZUWAKU
100
AcDbLine
 10
48.39221179505694
 20
23.24999942608259
 30
0.0
 11
51.89221179505693
 21
23.24999942608259
 31
0.0
  0
LINE
  5
F2A
330
1A
100
AcDbEntity
  8
ZUWAKU
100
AcDbLine
 10
51.89221179505693
 20
20.44999942608258
 30
0.0
 11
48.91721179505691
 21
20.44999942608258
 31
0.0
  0
ARC
  5
F2B
330
1A
100
AcDbEntity
  8
ZUWAKU
100
AcDbCircle
 10
48.91721179505691
 20
19.92499942608258
 30
0.0
 40
0.525
100
AcDbArc
 50
90.0
 51
180.0
  0
LINE
  5
F2C
330
1A
100
AcDbEntity
  8
ZUWAKU
100
AcDbLine
 10
48.39221179505694
 20
19.92499942608258
 30
0.0
 11
48.39221179505694
 21
18.63479740072724
 31
0.0
  0
ARC
  5
F2D
330
1A
100
AcDbEntity
  8
ZUWAKU
100
AcDbCircle
 10
42.96721179505687
 20
22.72499942608258
 30
0.0
 40
0.525
100
AcDbArc
 50
0.0
 51
90.0
  0
LINE
  5
F2E
330
1A
100
AcDbEntity
  8
ZUWAKU
100
AcDbLine
 10
45.59221179505686
 20
20.44999942608258
 30
0.0
 11
45.59221179505686
 21
18.63479740072724
 31
0.0
  0
ARC
  5
F2F
330
1A
100
AcDbEntity
  8
ZUWAKU
100
AcDbCircle
 10
48.39221179505694
 20
20.44999942608258
 30
0.0
 40
2.799999999999999
100
AcDbArc
 50
90.0
 51
180.0
  0
ARC
  5
F30
330
1A
100
AcDbEntity
  8
ZUWAKU
100
AcDbCircle
 10
57.31721179505689
 20
22.72499942608258
 30
0.0
 40
0.525
100
AcDbArc
 50
0.0
 51
90.0
  0
ARC
  5
F31
330
1A
100
AcDbEntity
  8
ZUWAKU
100
AcDbCircle
 10
55.56721179505689
 20
22.72499942608258
 30
0.0
 40
0.525
100
AcDbArc
 50
90.0
 51
180.0
  0
LINE
  5
F32
330
1A
100
AcDbEntity
  8
ZUWAKU
100
AcDbLine
 10
57.31721179505689
 20
23.24999942608259
 30
0.0
 11
55.56721179505689
 21
23.24999942608259
 31
0.0
  0
ARC
  5
F33
330
1A
100
AcDbEntity
  8
ZUWAKU
100
AcDbCircle
 10
51.89221179505693
 20
22.72499942608258
 30
0.0
 40
0.525
100
AcDbArc
 50
0.0
 51
90.0
  0
ARC
  5
F34
330
1A
100
AcDbEntity
  8
ZUWAKU
100
AcDbCircle
 10
51.89221179505693
 20
20.97499942608258
 30
0.0
 40
0.525
100
AcDbArc
 50
270.0
 51
0.0
  0
LINE
  5
F35
330
1A
100
AcDbEntity
  8
ZUWAKU
100
AcDbLine
 10
52.41721179505692
 20
22.72499942608258
 30
0.0
 11
52.41721179505692
 21
20.97499942608258
 31
0.0
  0
LINE
  5
F36
330
1A
100
AcDbEntity
  8
ZUWAKU
100
AcDbLine
 10
68.51721179505694
 20
23.24999942608259
 30
0.0
 11
66.76721179505694
 21
23.24999942608259
 31
0.0
  0
ARC
  5
F37
330
1A
100
AcDbEntity
  8
ZUWAKU
100
AcDbCircle
 10
66.76721179505694
 20
22.72499942608258
 30
0.0
 40
0.525
100
AcDbArc
 50
90.0
 51
180.0
  0
ARC
  5
F38
330
1A
100
AcDbEntity
  8
ZUWAKU
100
AcDbCircle
 10
63.61721179505685
 20
22.72499942608258
 30
0.0
 40
0.525
100
AcDbArc
 50
0.0
 51
90.0
  0
LINE
  5
F39
330
1A
100
AcDbEntity
  8
ZUWAKU
100
AcDbLine
 10
63.61721179505685
 20
23.24999942608259
 30
0.0
 11
61.86721179505685
 21
23.24999942608259
 31
0.0
  0
ARC
  5
F3A
330
1A
100
AcDbEntity
  8
ZUWAKU
100
AcDbCircle
 10
61.86721179505685
 20
22.72499942608258
 30
0.0
 40
0.525
100
AcDbArc
 50
90.0
 51
180.0
  0
ARC
  5
F3B
330
1A
100
AcDbEntity
  8
ZUWAKU
100
AcDbCircle
 10
68.51721179505694
 20
22.72499942608258
 30
0.0
 40
0.525
100
AcDbArc
 50
0.0
 51
90.0
  0
TEXT
  5
F3C
330
1A
100
AcDbEntity
  8
MOJI
100
AcDbText
 10
239.8272023211268
 20
3.204920483490003
 30
0.0
 40
5.599999999999999
  1
Ｘ７０Ｕ－４寸－２０m/m（6分）
 41
0.9
  7
ｽﾀｲﾙ1
100
AcDbText
  0
TEXT
  5
F3D
330
1A
100
AcDbEntity
  8
MOJI
100
AcDbText
 10
239.8272023211268
 20
18.00492048348997
 30
0.0
 40
5.599999999999999
  1
ステンレス金具正面打（受）固定式
 41
0.9
  7
ｽﾀｲﾙ1
100
AcDbText
  0
LINE
  5
F3E
330
1A
100
AcDbEntity
  8
ZUWAKU
100
AcDbLine
 10
208.2466009303436
 20
29.99999942608258
 30
0.0
 11
208.2466009303436
 21
0.7999994260826498
 31
0.0
  0
LINE
  5
F3F
330
1A
100
AcDbEntity
  8
ZUWAKU
100
AcDbLine
 10
208.6466009303435
 20
29.99999942608258
 30
0.0
 11
208.6466009303437
 21
0.7999994260826498
 31
0.0
  0
LINE
  5
F40
330
1A
100
AcDbEntity
  8
ZUWAKU
100
AcDbLine
 10
208.4466009303434
 20
29.99999942608258
 30
0.0
 11
208.4466009303437
 21
0.7999994260826498
 31
0.0
  0
TEXT
  5
F41
330
1A
100
AcDbEntity
  8
ZUWAKU
100
AcDbText
 10
209.7240459525532
 20
9.655355964468199
 30
0.0
 40
4.0
  1
サイズ
 41
0.9
  7
ｽﾀｲﾙ1
100
AcDbText
  0
TEXT
  5
F42
330
1A
100
AcDbEntity
  8
ZUWAKU
100
AcDbText
 10
209.724045952553
 20
24.05535596446816
 30
0.0
 40
4.0
  1
品名
 41
0.9
  7
ｽﾀｲﾙ1
100
AcDbText
  0
LINE
  5
F43
330
1A
100
AcDbEntity
  8
ZUWAKU
100
AcDbLine
 10
648.8172021504799
 20
15.19999942608261
 30
0.0
 11
697.249010188817
 21
15.19999942608261
 31
0.0
  0
LINE
  5
F44
330
1A
100
AcDbEntity
  8
ZUWAKU
100
AcDbLine
 10
648.8172021504801
 20
15.39999942608262
 30
0.0
 11
697.249010188817
 21
15.39999942608261
 31
0.0
  0
LINE
  5
F45
330
1A
100
AcDbEntity
  8
ZUWAKU
100
AcDbLine
 10
648.8172021504799
 20
15.59999942608261
 30
0.0
 11
697.249010188817
 21
15.59999942608261
 31
0.0
  0
TEXT
  5
F46
330
1A
100
AcDbEntity
  8
ZUWAKU
100
AcDbText
 10
658.2039373275781
 20
18.00492048348997
 30
0.0
 40
5.599999999999999
  1
　　．　　．　　
 41
0.9
  7
ｽﾀｲﾙ1
100
AcDbText
  0
LINE
  5
F47
330
1A
100
AcDbEntity
  8
ZUWAKU
100
AcDbLine
 10
505.1991791384166
 20
15.19999942608261
 30
0.0
 11
552.5269554063881
 21
15.19999942608261
 31
0.0
  0
LINE
  5
F48
330
1A
100
AcDbEntity
  8
ZUWAKU
100
AcDbLine
 10
505.1991791384166
 20
15.39999942608261
 30
0.0
 11
552.5269554063881
 21
15.39999942608261
 31
0.0
  0
LINE
  5
F49
330
1A
100
AcDbEntity
  8
ZUWAKU
100
AcDbLine
 10
505.1991791384166
 20
15.59999942608261
 30
0.0
 11
552.5269554063881
 21
15.59999942608261
 31
0.0
  0
TEXT
  5
F4A
330
1A
100
AcDbEntity
  8
MOJI
100
AcDbText
 10
463.2464316312778
 20
11.94261714774256
 30
0.0
 40
5.599999999999999
  1
ＬＣ７８□
 41
0.9
  7
ｽﾀｲﾙ1
100
AcDbText
  0
LINE
  5
F4B
330
1A
100
AcDbEntity
  8
ZUWAKU
100
AcDbLine
 10
447.6243636112669
 20
29.99999942608258
 30
0.0
 11
447.6243636112672
 21
0.7999994260826498
 31
0.0
  0
LINE
  5
F4C
330
1A
100
AcDbEntity
  8
ZUWAKU
100
AcDbLine
 10
447.824363611267
 20
29.99999942608258
 30
0.0
 11
447.8243636112672
 21
0.7999994260826498
 31
0.0
  0
LINE
  5
F4D
330
1A
100
AcDbEntity
  8
ZUWAKU
100
AcDbLine
 10
447.4243636112671
 20
29.99999942608258
 30
0.0
 11
447.4243636112671
 21
0.7999994260826498
 31
0.0
  0
TEXT
  5
F4E
330
1A
100
AcDbEntity
  8
MOJI
100
AcDbText
 10
528.0409076125886
 20
18.00492048348997
 30
0.0
 40
5.599999999999999
  1
Ａ３
 41
0.9
  7
ｽﾀｲﾙ1
100
AcDbText
  0
LINE
  5
F4F
330
1A
100
AcDbEntity
  8
ZUWAKU
100
AcDbLine
 10
504.9991791384165
 20
29.99999942608258
 30
0.0
 11
504.9991791384168
 21
0.7999994260826498
 31
0.0
  0
LINE
  5
F50
330
1A
100
AcDbEntity
  8
ZUWAKU
100
AcDbLine
 10
505.1991791384166
 20
29.99999942608258
 30
0.0
 11
505.1991791384168
 21
0.7999994260826498
 31
0.0
  0
LINE
  5
F51
330
1A
100
AcDbEntity
  8
ZUWAKU
100
AcDbLine
 10
504.7991791384167
 20
29.99999942608258
 30
0.0
 11
504.7991791384167
 21
0.7999994260826498
 31
0.0
  0
TEXT
  5
F52
330
1A
100
AcDbEntity
  8
ZUWAKU
100
AcDbText
 10
461.6981348681881
 20
2.908328665971794
 30
0.0
 40
3.0
  1
□には色品番が入ります
 41
0.9
  7
ｽﾀｲﾙ1
100
AcDbText
  0
TEXT
  5
F53
330
1A
100
AcDbEntity
  8
ZUWAKU
100
AcDbText
 10
506.6766241606265
 20
9.655355964468199
 30
0.0
 40
4.0
  1
縮尺
 41
0.9
  7
ｽﾀｲﾙ1
100
AcDbText
  0
TEXT
  5
F54
330
1A
100
AcDbEntity
  8
MOJI
100
AcDbText
 10
528.0409076125886
 20
3.204920483490003
 30
0.0
 40
5.599999999999999
  1
１/２
 41
0.9
  7
ｽﾀｲﾙ1
100
AcDbText
  0
TEXT
  5
F55
330
1A
100
AcDbEntity
  8
ZUWAKU
100
AcDbText
 10
449.3018086334766
 20
24.05535596446816
 30
0.0
 40
4.0
  1
品番
 41
0.9
  7
ｽﾀｲﾙ1
100
AcDbText
  0
TEXT
  5
F56
330
1A
100
AcDbEntity
  8
ZUWAKU
100
AcDbText
 10
506.6766241606262
 20
24.05535596446816
 30
0.0
 40
4.0
  1
用紙
 41
0.9
  7
ｽﾀｲﾙ1
100
AcDbText
  0
LINE
  5
F57
330
1A
100
AcDbEntity
  8
ZUWAKU
100
AcDbLine
 10
648.6172021504801
 20
29.99999942608258
 30
0.0
 11
648.6172021504803
 21
0.7999994260826498
 31
0.0
  0
LINE
  5
F58
330
1A
100
AcDbEntity
  8
ZUWAKU
100
AcDbLine
 10
648.8172021504801
 20
29.99999942608258
 30
0.0
 11
648.8172021504803
 21
0.7999994260826498
 31
0.0
  0
LINE
  5
F59
330
1A
100
AcDbEntity
  8
ZUWAKU
100
AcDbLine
 10
648.4172021504803
 20
29.99999942608258
 30
0.0
 11
648.4172021504803
 21
0.7999994260826498
 31
0.0
  0
LINE
  5
F5A
330
1A
100
AcDbEntity
  8
ZUWAKU
100
AcDbLine
 10
552.726955406388
 20
29.99999942608258
 30
0.0
 11
552.7269554063882
 21
0.7999994260826498
 31
0.0
  0
LINE
  5
F5B
330
1A
100
AcDbEntity
  8
ZUWAKU
100
AcDbLine
 10
552.926955406388
 20
29.99999942608258
 30
0.0
 11
552.9269554063882
 21
0.7999994260826498
 31
0.0
  0
LINE
  5
F5C
330
1A
100
AcDbEntity
  8
ZUWAKU
100
AcDbLine
 10
552.5269554063881
 20
29.99999942608258
 30
0.0
 11
552.5269554063881
 21
0.7999994260826498
 31
0.0
  0
TEXT
  5
F5D
330
1A
100
AcDbEntity
  8
ZUWAKU
100
AcDbText
 10
650.2946471726898
 20
24.05535596446816
 30
0.0
 40
4.0
  1
DATE
 41
0.9
  7
ｽﾀｲﾙ1
100
AcDbText
  0
LINE
  5
F5E
330
1A
100
AcDbEntity
  8
ZUWAKU
100
AcDbLine
 10
697.249010188817
 20
29.99999942608258
 30
0.0
 11
697.249010188817
 21
0.7999994260826498
 31
0.0
  0
LINE
  5
F5F
330
1A
100
AcDbEntity
  8
ZUWAKU
100
AcDbLine
 10
697.4490101888171
 20
29.99999942608258
 30
0.0
 11
697.4490101888171
 21
0.7999994260826498
 31
0.0
  0
LINE
  5
F60
330
1A
100
AcDbEntity
  8
ZUWAKU
100
AcDbLine
 10
697.6490101888169
 20
29.99999942608258
 30
0.0
 11
697.649010188817
 21
0.7999994260826498
 31
0.0
  0
LINE
  5
F61
330
1A
100
AcDbEntity
  8
ZUWAKU
100
AcDbLine
 10
697.8490101888169
 20
29.99999942608258
 30
0.0
 11
697.8490101888171
 21
0.7999994260826498
 31
0.0
  0
TEXT
  5
F62
330
1A
100
AcDbEntity
  8
ZUWAKU
100
AcDbText
 10
708.5280838325195
 20
17.55383876176938
 30
0.0
 40
6.0
  1
積水化学工業株式会社
 41
0.9
  7
ｽﾀｲﾙ1
100
AcDbText
  0
TEXT
  5
F63
330
1A
100
AcDbEntity
  8
ZUWAKU
100
AcDbText
 10
708.5280838325195
 20
6.648839739936647
 30
0.0
 40
6.0
  1
建材事業部
 41
0.9
  7
ｽﾀｲﾙ1
100
AcDbText
  0
VIEWPORT
  5
22
330
17
100
AcDbEntity
 67
     1
  8
0
100
AcDbViewport
 10
313.6808219178082
 20
148.5
 30
0.0
 40
627.3616438356165
 41
297.0
 68
     2
 69
     1
1001
ACAD
1000
MVIEW
1002
{
1070
    16
1010
0.0
1020
0.0
1030
0.0
1010
0.0
1020
0.0
1030
1.0
1040
0.0
1040
297.0
1040
313.6808219178082
1040
148.5
1040
50.0
1040
0.0
1040
0.0
1070
     0
1070
   100
1070
     1
1070
     0
1070
     0
1070
     0
1070
     0
1070
     0
1040
0.0
1040
0.0
1040
0.0
1040
1.0
1040
1.0
1040
10.0
1040
10.0
1070
     0
1002
{
1002
}
1002
}
  0
VIEWPORT
  5
64
330
17
100
AcDbEntity
 67
     1
  8
VIEWPORT
100
AcDbViewport
 10
210.0
 20
148.5
 30
0.0
 40
420.0
 41
297.0
 68
     1
 69
     2
1001
ACAD
1000
MVIEW
1002
{
1070
    16
1010
0.0
1020
0.0
1030
0.0
1010
0.0
1020
0.0
1030
1.0
1040
0.0
1040
605.8799999999998
1040
420.0
1040
297.0
1040
50.0
1040
0.0
1040
0.0
1070
     0
1070
   100
1070
     1
1070
     0
1070
     0
1070
     0
1070
     0
1070
     0
1040
0.0
1040
0.0
1040
0.0
1040
10.0
1040
10.0
1040
0.0
1040
0.0
1070
     0
1002
{
1002
}
1002
}
  0
ENDSEC
  0
SECTION
  2
OBJECTS
  0
DICTIONARY
  5
C
330
0
100
AcDbDictionary
  3
ACAD_GROUP
350
D
  3
ACAD_LAYOUT
350
D82
  3
ACAD_MLINESTYLE
350
E
  3
ACAD_PLOTSETTINGS
350
D83
  3
ACAD_PLOTSTYLENAME
350
D80
  3
ACDBHEADERROUNDTRIPXREC
350
F6B
  0
DICTIONARY
  5
DB1
330
1A
100
AcDbDictionary
280
     1
  3
ACAD_LAYOUTSELFREF
360
F8D
  0
DICTIONARY
  5
DAF
330
17
100
AcDbDictionary
280
     1
  3
ACAD_LAYOUTSELFREF
360
F8C
  0
DICTIONARY
  5
D
102
{ACAD_REACTORS
330
C
102
}
330
C
100
AcDbDictionary
  0
DICTIONARY
  5
D82
102
{ACAD_REACTORS
330
C
102
}
330
C
100
AcDbDictionary
  0
DICTIONARY
  5
E
102
{ACAD_REACTORS
330
C
102
}
330
C
100
AcDbDictionary
  3
STANDARD
350
13
  0
DICTIONARY
  5
D83
102
{ACAD_REACTORS
330
C
102
}
330
C
100
AcDbDictionary
  0
ACDBDICTIONARYWDFLT
  5
D80
102
{ACAD_REACTORS
330
C
102
}
330
C
100
AcDbDictionary
281
     1
  3
Normal
350
D81
100
AcDbDictionaryWithDefault
340
D81
1001
ACAD
1000
TREAT_AS_HARD
1070
     0
1000
TREAT_AS_HARD
1070
     0
  0
DICTIONARY
  5
F6B
102
{ACAD_REACTORS
330
C
102
}
330
C
100
AcDbDictionary
  3
TSTACKALIGN
350
F6C
  3
TSTACKSIZE
350
F6D
  3
HYPERLINKBASE
350
F6E
  3
STYLESHEET
350
F6F
  3
LAYOUTDICT
350
F70
  3
PLOTSETDICT
350
F71
  3
PLOTSTYLNAMDICT
350
F72
  3
LWETCUNION
350
F73
  3
INSUNITS
350
F74
  3
CEPSNTYPE
350
F75
  3
FINGERPRINTGUID
350
F76
  3
VERSIONGUID
350
F77
  3
PSVPSCALE
350
F78
  3
DIMSTYLEDATA
350
F79
  3
PUCSORTHOREF
350
F7A
  3
PUCSORTHOVIEW
350
F7B
  3
PUCSBASE
350
F7C
  3
PUCSORGTOP
350
F7D
  3
PUCSORGBOTTOM
350
F7E
  3
PUCSORGLEFT
350
F7F
  3
PUCSORGRIGHT
350
F80
  3
PUCSORGFRONT
350
F81
  3
PUCSORGBACK
350
F82
  3
UCSORTHOREF
350
F83
  3
UCSORTHOVIEW
350
F84
  3
UCSBASE
350
F85
  3
UCSORGTOP
350
F86
  3
UCSORGBOTTOM
350
F87
  3
UCSORGLEFT
350
F88
  3
UCSORGRIGHT
350
F89
  3
UCSORGFRONT
350
F8A
  3
UCSORGBACK
350
F8B
  0
XRECORD
  5
F8D
102
{ACAD_REACTORS
330
DB1
102
}
330
DB1
100
AcDbXrecord
340
1A
  0
XRECORD
  5
F8C
102
{ACAD_REACTORS
330
DAF
102
}
330
DAF
100
AcDbXrecord
340
17
  0
MLINESTYLE
  5
13
102
{ACAD_REACTORS
330
E
102
}
330
E
100
AcDbMlineStyle
  2
STANDARD
 70
     0
  3

 62
     0
 51
90.0
 52
90.0
 71
     2
 49
0.5
 62
   256
  6
BYLAYER
 49
-0.5
 62
   256
  6
BYLAYER
  0
ACDBPLACEHOLDER
  5
D81
102
{ACAD_REACTORS
330
D80
102
}
330
D80
100
AcDbPlaceHolder
280
     0
  0
XRECORD
  5
F6C
102
{ACAD_REACTORS
330
F6B
102
}
330
F6B
100
AcDbXrecord
 90
        1
  0
XRECORD
  5
F6D
102
{ACAD_REACTORS
330
F6B
102
}
330
F6B
100
AcDbXrecord
 90
       70
  0
XRECORD
  5
F6E
102
{ACAD_REACTORS
330
F6B
102
}
330
F6B
100
AcDbXrecord
  1

  0
XRECORD
  5
F6F
102
{ACAD_REACTORS
330
F6B
102
}
330
F6B
100
AcDbXrecord
  1
systemprinter.ctb
  0
XRECORD
  5
F70
102
{ACAD_REACTORS
330
F6B
102
}
330
F6B
100
AcDbXrecord
340
D82
  0
XRECORD
  5
F71
102
{ACAD_REACTORS
330
F6B
102
}
330
F6B
100
AcDbXrecord
340
D83
  0
XRECORD
  5
F72
102
{ACAD_REACTORS
330
F6B
102
}
330
F6B
100
AcDbXrecord
340
D80
  0
XRECORD
  5
F73
102
{ACAD_REACTORS
330
F6B
102
}
330
F6B
100
AcDbXrecord
 90
    10781
  0
XRECORD
  5
F74
102
{ACAD_REACTORS
330
F6B
102
}
330
F6B
100
AcDbXrecord
 90
        0
  0
XRECORD
  5
F75
102
{ACAD_REACTORS
330
F6B
102
}
330
F6B
100
AcDbXrecord
 90
        0
  0
XRECORD
  5
F76
102
{ACAD_REACTORS
330
F6B
102
}
330
F6B
100
AcDbXrecord
  1
{5A132CE5-284D-4A8C-B171-4998B56D303D}
  0
XRECORD
  5
F77
102
{ACAD_REACTORS
330
F6B
102
}
330
F6B
100
AcDbXrecord
  1
{B260DD64-7A59-46BA-AAF4-F248B7057175}
  0
XRECORD
  5
F78
102
{ACAD_REACTORS
330
F6B
102
}
330
F6B
100
AcDbXrecord
 40
0.0
  0
XRECORD
  5
F79
102
{ACAD_REACTORS
330
F6B
102
}
330
F6B
100
AcDbXrecord
1000
DSTYLE
1002
{
1070
   341
340
6D
1070
   343
340
6D
1070
   344
340
6D
1070
   371
 70
    -1
1070
   372
 70
    -1
1002
}
  0
XRECORD
  5
F7A
102
{ACAD_REACTORS
330
F6B
102
}
330
F6B
100
AcDbXrecord
340
0
  0
XRECORD
  5
F7B
102
{ACAD_REACTORS
330
F6B
102
}
330
F6B
100
AcDbXrecord
 70
     0
  0
XRECORD
  5
F7C
102
{ACAD_REACTORS
330
F6B
102
}
330
F6B
100
AcDbXrecord
340
0
  0
XRECORD
  5
F7D
102
{ACAD_REACTORS
330
F6B
102
}
330
F6B
100
AcDbXrecord
 10
0.0
 20
0.0
 30
0.0
  0
XRECORD
  5
F7E
102
{ACAD_REACTORS
330
F6B
102
}
330
F6B
100
AcDbXrecord
 10
0.0
 20
0.0
 30
0.0
  0
XRECORD
  5
F7F
102
{ACAD_REACTORS
330
F6B
102
}
330
F6B
100
AcDbXrecord
 10
0.0
 20
0.0
 30
0.0
  0
XRECORD
  5
F80
102
{ACAD_REACTORS
330
F6B
102
}
330
F6B
100
AcDbXrecord
 10
0.0
 20
0.0
 30
0.0
  0
XRECORD
  5
F81
102
{ACAD_REACTORS
330
F6B
102
}
330
F6B
100
AcDbXrecord
 10
0.0
 20
0.0
 30
0.0
  0
XRECORD
  5
F82
102
{ACAD_REACTORS
330
F6B
102
}
330
F6B
100
AcDbXrecord
 10
0.0
 20
0.0
 30
0.0
  0
XRECORD
  5
F83
102
{ACAD_REACTORS
330
F6B
102
}
330
F6B
100
AcDbXrecord
340
0
  0
XRECORD
  5
F84
102
{ACAD_REACTORS
330
F6B
102
}
330
F6B
100
AcDbXrecord
 70
     0
  0
XRECORD
  5
F85
102
{ACAD_REACTORS
330
F6B
102
}
330
F6B
100
AcDbXrecord
340
0
  0
XRECORD
  5
F86
102
{ACAD_REACTORS
330
F6B
102
}
330
F6B
100
AcDbXrecord
 10
0.0
 20
0.0
 30
0.0
  0
XRECORD
  5
F87
102
{ACAD_REACTORS
330
F6B
102
}
330
F6B
100
AcDbXrecord
 10
0.0
 20
0.0
 30
0.0
  0
XRECORD
  5
F88
102
{ACAD_REACTORS
330
F6B
102
}
330
F6B
100
AcDbXrecord
 10
0.0
 20
0.0
 30
0.0
  0
XRECORD
  5
F89
102
{ACAD_REACTORS
330
F6B
102
}
330
F6B
100
AcDbXrecord
 10
0.0
 20
0.0
 30
0.0
  0
XRECORD
  5
F8A
102
{ACAD_REACTORS
330
F6B
102
}
330
F6B
100
AcDbXrecord
 10
0.0
 20
0.0
 30
0.0
  0
XRECORD
  5
F8B
102
{ACAD_REACTORS
330
F6B
102
}
330
F6B
100
AcDbXrecord
 10
0.0
 20
0.0
 30
0.0
  0
ENDSEC
  0
EOF
