  0
SECTION
  2
HEADER
  9
$ACADVER
  1
AC1014
  9
$ACADMAINTVER
 70
     9
  9
$DWGCODEPAGE
  3
ANSI_932
  9
$INSBASE
 10
0.0
 20
0.0
 30
0.0
  9
$EXTMIN
 10
-0.0256331696125471
 20
-0.018126632348185
 30
-0.0000000100021362
  9
$EXTMAX
 10
797.6000995445101
 20
551.6452344470808
 30
0.0000000100021363
  9
$LIMMIN
 10
0.0
 20
0.0
  9
$LIMMAX
 10
840.0
 20
594.0
  9
$ORTHOMODE
 70
     0
  9
$REGENMODE
 70
     1
  9
$FILLMODE
 70
     1
  9
$QTEXTMODE
 70
     0
  9
$MIRRTEXT
 70
     1
  9
$DRAGMODE
 70
     2
  9
$LTSCALE
 40
2.0
  9
$OSMODE
 70
    37
  9
$ATTMODE
 70
     1
  9
$TEXTSIZE
 40
6.0
  9
$TRACEWID
 40
1.0
  9
$TEXTSTYLE
  7
STANDARD
  9
$CLAYER
  8
SUNPOU
  9
$CELTYPE
  6
BYLAYER
  9
$CECOLOR
 62
   256
  9
$CELTSCALE
 40
1.0
  9
$DELOBJ
 70
     1
  9
$DISPSILH
 70
     0
  9
$DIMSCALE
 40
1.0
  9
$DIMASZ
 40
7.0
  9
$DIMEXO
 40
6.0
  9
$DIMDLI
 40
14.0
  9
$DIMRND
 40
0.0
  9
$DIMDLE
 40
0.0
  9
$DIMEXE
 40
3.0
  9
$DIMTP
 40
0.0
  9
$DIMTM
 40
0.0
  9
$DIMTXT
 40
6.0
  9
$DIMCEN
 40
150.0
  9
$DIMTSZ
 40
0.0
  9
$DIMTOL
 70
     0
  9
$DIMLIM
 70
     0
  9
$DIMTIH
 70
     0
  9
$DIMTOH
 70
     0
  9
$DIMSE1
 70
     0
  9
$DIMSE2
 70
     0
  9
$DIMTAD
 70
     3
  9
$DIMZIN
 70
     0
  9
$DIMBLK
  1

  9
$DIMASO
 70
     1
  9
$DIMSHO
 70
     1
  9
$DIMPOST
  1

  9
$DIMAPOST
  1

  9
$DIMALT
 70
     0
  9
$DIMALTD
 70
     2
  9
$DIMALTF
 40
25.4
  9
$DIMLFAC
 40
1.0
  9
$DIMTOFL
 70
     1
  9
$DIMTVP
 40
0.0
  9
$DIMTIX
 70
     0
  9
$DIMSOXD
 70
     0
  9
$DIMSAH
 70
     1
  9
$DIMBLK1
  1
OPEN
  9
$DIMBLK2
  1
OPEN
  9
$DIMSTYLE
  2
STANDARD
  9
$DIMCLRD
 70
   256
  9
$DIMCLRE
 70
   256
  9
$DIMCLRT
 70
   256
  9
$DIMTFAC
 40
1.0
  9
$DIMGAP
 40
2.0
  9
$DIMJUST
 70
     0
  9
$DIMSD1
 70
     0
  9
$DIMSD2
 70
     0
  9
$DIMTOLJ
 70
     1
  9
$DIMTZIN
 70
     0
  9
$DIMALTZ
 70
     0
  9
$DIMALTTZ
 70
     0
  9
$DIMFIT
 70
     3
  9
$DIMUPT
 70
     0
  9
$DIMUNIT
 70
     2
  9
$DIMDEC
 70
     0
  9
$DIMTDEC
 70
     0
  9
$DIMALTU
 70
     2
  9
$DIMALTTD
 70
     2
  9
$DIMTXSTY
  7
STANDARD
  9
$DIMAUNIT
 70
     0
  9
$LUNITS
 70
     2
  9
$LUPREC
 70
     4
  9
$SKETCHINC
 40
1.0
  9
$FILLETRAD
 40
2.0
  9
$AUNITS
 70
     0
  9
$AUPREC
 70
     0
  9
$MENU
  1
.
  9
$ELEVATION
 40
0.0
  9
$PELEVATION
 40
0.0
  9
$THICKNESS
 40
0.0
  9
$LIMCHECK
 70
     0
  9
$BLIPMODE
 70
     0
  9
$CHAMFERA
 40
20.0
  9
$CHAMFERB
 40
20.0
  9
$CHAMFERC
 40
40.0
  9
$CHAMFERD
 40
0.0
  9
$SKPOLY
 70
     0
  9
$TDCREATE
 40
2450994.354346065
  9
$TDUPDATE
 40
2454515.376829919
  9
$TDINDWG
 40
0.0636203125
  9
$TDUSRTIMER
 40
0.0636203125
  9
$USRTIMER
 70
     1
  9
$ANGBASE
 50
0.0
  9
$ANGDIR
 70
     0
  9
$PDMODE
 70
     1
  9
$PDSIZE
 40
0.0
  9
$PLINEWID
 40
0.0
  9
$COORDS
 70
     2
  9
$SPLFRAME
 70
     0
  9
$SPLINETYPE
 70
     6
  9
$SPLINESEGS
 70
     8
  9
$ATTDIA
 70
     0
  9
$ATTREQ
 70
     1
  9
$HANDLING
 70
 10241
  9
$HANDSEED
  5
FDF
  9
$SURFTAB1
 70
     6
  9
$SURFTAB2
 70
     6
  9
$SURFTYPE
 70
     6
  9
$SURFU
 70
     6
  9
$SURFV
 70
     6
  9
$UCSNAME
  2

  9
$UCSORG
 10
0.0
 20
0.0
 30
0.0
  9
$UCSXDIR
 10
1.0
 20
0.0
 30
0.0
  9
$UCSYDIR
 10
0.0
 20
1.0
 30
0.0
  9
$PUCSNAME
  2

  9
$PUCSORG
 10
0.0
 20
0.0
 30
0.0
  9
$PUCSXDIR
 10
1.0
 20
0.0
 30
0.0
  9
$PUCSYDIR
 10
0.0
 20
1.0
 30
0.0
  9
$USERI1
 70
     0
  9
$USERI2
 70
     0
  9
$USERI3
 70
     0
  9
$USERI4
 70
     0
  9
$USERI5
 70
     0
  9
$USERR1
 40
0.0
  9
$USERR2
 40
0.0
  9
$USERR3
 40
0.0
  9
$USERR4
 40
0.0
  9
$USERR5
 40
0.0
  9
$WORLDVIEW
 70
     1
  9
$SHADEDGE
 70
     3
  9
$SHADEDIF
 70
    70
  9
$TILEMODE
 70
     1
  9
$MAXACTVP
 70
    16
  9
$PINSBASE
 10
0.0
 20
0.0
 30
0.0
  9
$PLIMCHECK
 70
     0
  9
$PEXTMIN
 10
0.0
 20
0.0
 30
0.0
  9
$PEXTMAX
 10
420.0
 20
297.0
 30
0.0
  9
$PLIMMIN
 10
0.0
 20
0.0
  9
$PLIMMAX
 10
420.0
 20
297.0
  9
$UNITMODE
 70
     0
  9
$VISRETAIN
 70
     0
  9
$PLINEGEN
 70
     0
  9
$PSLTSCALE
 70
     1
  9
$TREEDEPTH
 70
  3020
  9
$PICKSTYLE
 70
     1
  9
$CMLSTYLE
  2
STANDARD
  9
$CMLJUST
 70
     0
  9
$CMLSCALE
 40
1.0
  9
$PROXYGRAPHICS
 70
     1
  9
$MEASUREMENT
 70
     1
  0
ENDSEC
  0
SECTION
  2
CLASSES
  0
CLASS
  1
ACDBDICTIONARYWDFLT
  2
AcDbDictionaryWithDefault
  3
AutoCAD 2000
 90
        0
280
     0
281
     0
  0
CLASS
  1
ACDBPLACEHOLDER
  2
AcDbPlaceHolder
  3
AutoCAD 2000
 90
        0
280
     0
281
     0
  0
CLASS
  1
LAYOUT
  2
AcDbLayout
  3
AutoCAD 2000
 90
        0
280
     0
281
     0
  0
CLASS
  1
LONG_TRANSACTION
  2
AcDbLongTransaction
  3
AutoCAD 2000
 90
        0
280
     0
281
     0
  0
CLASS
  1
LWPOLYLINE
  2
AcDbPolyline
  3
AutoCAD 2000
 90
        0
280
     0
281
     1
  0
CLASS
  1
HATCH
  2
AcDbHatch
  3
AutoCAD 2000
 90
        0
280
     0
281
     1
  0
CLASS
  1
XRECORD
  2
AcDbXrecord
  3
AutoCAD 2000
 90
        0
280
     0
281
     0
  0
CLASS
  1
LONG_TRANSACTION
  2
AcDbLongTransaction
  3
AutoCAD 2000
 90
        0
280
     0
281
     0
  0
CLASS
  1
LWPOLYLINE
  2
AcDbPolyline
  3
AutoCAD 2000
 90
        0
280
     0
281
     1
  0
CLASS
  1
HATCH
  2
AcDbHatch
  3
AutoCAD 2000
 90
        0
280
     0
281
     1
  0
CLASS
  1
XRECORD
  2
AcDbXrecord
  3
AutoCAD 2000
 90
        0
280
     0
281
     0
  0
CLASS
  1
LONG_TRANSACTION
  2
AcDbLongTransaction
  3
AutoCAD 2000
 90
        0
280
     0
281
     0
  0
CLASS
  1
LWPOLYLINE
  2
AcDbPolyline
  3
AutoCAD 2000
 90
        0
280
     0
281
     1
  0
CLASS
  1
HATCH
  2
AcDbHatch
  3
AutoCAD 2000
 90
        0
280
     0
281
     1
  0
CLASS
  1
XRECORD
  2
AcDbXrecord
  3
AutoCAD 2000
 90
        0
280
     0
281
     0
  0
ENDSEC
  0
SECTION
  2
TABLES
  0
TABLE
  2
VPORT
  5
8
330
0
100
AcDbSymbolTable
 70
     2
  0
VPORT
  5
FBB
330
8
100
AcDbSymbolTableRecord
100
AcDbViewportTableRecord
  2
*ACTIVE
 70
     0
 10
0.0
 20
0.0
 11
1.0
 21
1.0
 12
401.3107495058338
 22
290.553008636836
 13
0.0
 23
0.0
 14
5.0
 24
5.0
 15
0.0
 25
0.0
 16
0.0
 26
0.0
 36
1.0
 17
0.0
 27
0.0
 37
0.0
 40
664.7161695981208
 41
1.570153061224489
 42
50.0
 43
0.0
 44
0.0
 50
0.0
 51
0.0
 71
     0
 72
   100
 73
     1
 74
     0
 75
     0
 76
     0
 77
     0
 78
     0
  0
ENDTAB
  0
TABLE
  2
LTYPE
  5
5
330
0
100
AcDbSymbolTable
 70
     3
  0
LTYPE
  5
14
330
5
100
AcDbSymbolTableRecord
100
AcDbLinetypeTableRecord
  2
BYBLOCK
 70
     0
  3

 72
    65
 73
     0
 40
0.0
  0
LTYPE
  5
15
330
5
100
AcDbSymbolTableRecord
100
AcDbLinetypeTableRecord
  2
BYLAYER
 70
     0
  3

 72
    65
 73
     0
 40
0.0
  0
LTYPE
  5
16
330
5
100
AcDbSymbolTableRecord
100
AcDbLinetypeTableRecord
  2
CONTINUOUS
 70
     0
  3
Solid line
 72
    65
 73
     0
 40
0.0
  0
LTYPE
  5
115
330
5
100
AcDbSymbolTableRecord
100
AcDbLinetypeTableRecord
  2
PHANTOM
 70
     0
  3
______  __  __  ______  __  __  ______  __  __ 
 72
    65
 73
     6
 40
2.5
 49
1.25
 74
     0
 49
-0.25
 74
     0
 49
0.25
 74
     0
 49
-0.25
 74
     0
 49
0.25
 74
     0
 49
-0.25
 74
     0
  0
LTYPE
  5
135
330
5
100
AcDbSymbolTableRecord
100
AcDbLinetypeTableRecord
  2
CENTER
 70
     0
  3
____ _ ____ _ ____ _ ____ _ ____ _ ____ _ ____ 
 72
    65
 73
     4
 40
2.0
 49
1.25
 74
     0
 49
-0.25
 74
     0
 49
0.25
 74
     0
 49
-0.25
 74
     0
  0
ENDTAB
  0
TABLE
  2
LAYER
  5
2
330
0
100
AcDbSymbolTable
 70
     9
  0
LAYER
  5
F
330
2
100
AcDbSymbolTableRecord
100
AcDbLayerTableRecord
  2
0
 70
     0
 62
     7
  6
CONTINUOUS
  0
LAYER
  5
62
330
2
100
AcDbSymbolTableRecord
100
AcDbLayerTableRecord
  2
VIEWPORT
 70
     0
 62
     7
  6
CONTINUOUS
  0
LAYER
  5
65
330
2
100
AcDbSymbolTableRecord
100
AcDbLayerTableRecord
  2
ZUWAKU
 70
     0
 62
     7
  6
CONTINUOUS
  0
LAYER
  5
154
330
2
100
AcDbSymbolTableRecord
100
AcDbLayerTableRecord
  2
NOKITOI
 70
     0
 62
     8
  6
PHANTOM
  0
LAYER
  5
155
330
2
100
AcDbSymbolTableRecord
100
AcDbLayerTableRecord
  2
SUNPOU
 70
     0
 62
     4
  6
CONTINUOUS
  0
LAYER
  5
156
330
2
100
AcDbSymbolTableRecord
100
AcDbLayerTableRecord
  2
SEIHIN
 70
     0
 62
     3
  6
CONTINUOUS
  0
LAYER
  5
157
330
2
100
AcDbSymbolTableRecord
100
AcDbLayerTableRecord
  2
CENTER_L
 70
     0
 62
     1
  6
CENTER
  0
LAYER
  5
66A
330
2
100
AcDbSymbolTableRecord
100
AcDbLayerTableRecord
  2
DEFPOINTS
 70
     0
 62
     7
  6
CONTINUOUS
  0
LAYER
  5
E44
330
2
100
AcDbSymbolTableRecord
100
AcDbLayerTableRecord
  2
MOJI
 70
     0
 62
     2
  6
CONTINUOUS
  0
ENDTAB
  0
TABLE
  2
STYLE
  5
3
330
0
100
AcDbSymbolTable
 70
     2
  0
STYLE
  5
10
330
3
100
AcDbSymbolTableRecord
100
AcDbTextStyleTableRecord
  2
STANDARD
 70
     0
 40
0.0
 41
1.0
 50
0.0
 71
     0
 42
6.0
  3
TXT
  4
bigfont.shx
  0
STYLE
  5
E45
330
3
100
AcDbSymbolTableRecord
100
AcDbTextStyleTableRecord
  2
ｽﾀｲﾙ1
 70
     0
 40
0.0
 41
1.0
 50
0.0
 71
     0
 42
2.5
  3
MS PGothic.ttf
  4

1001
ACAD
1000
MS PGothic
1071
    32818
  0
ENDTAB
  0
TABLE
  2
VIEW
  5
6
330
0
100
AcDbSymbolTable
 70
     0
  0
ENDTAB
  0
TABLE
  2
UCS
  5
7
330
0
100
AcDbSymbolTable
 70
     0
  0
ENDTAB
  0
TABLE
  2
APPID
  5
9
330
0
100
AcDbSymbolTable
 70
     1
  0
APPID
  5
11
330
9
100
AcDbSymbolTableRecord
100
AcDbRegAppTableRecord
  2
ACAD
 70
     0
  0
ENDTAB
  0
TABLE
  2
DIMSTYLE
  5
A
330
0
100
AcDbSymbolTable
 70
     1
  0
DIMSTYLE
105
1D
102
{ACAD_REACTORS
330
79F
330
7AC
330
7BB
330
7C8
330
7D7
330
7E6
330
7F5
330
802
330
C46
330
C92
330
D46
330
D6B
330
D89
102
}
330
A
100
AcDbSymbolTableRecord
100
AcDbDimStyleTableRecord
  2
STANDARD
 70
     0
  3

  4

  5

  6

  7

 40
1.0
 41
0.18
 42
0.0625
 43
0.38
 44
0.18
 45
0.0
 46
0.0
 47
0.0
 48
0.0
140
0.18
141
0.09
142
0.0
143
25.4
144
1.0
145
0.0
146
1.0
147
0.09
 71
     0
 72
     0
 73
     1
 74
     1
 75
     0
 76
     0
 77
     0
 78
     0
170
     0
171
     2
172
     0
173
     0
174
     0
175
     0
176
     0
177
     0
178
     0
270
     2
271
     4
272
     4
273
     2
274
     2
340
10
275
     0
280
     0
281
     0
282
     0
283
     1
284
     0
285
     0
286
     0
287
     3
288
     0
  0
ENDTAB
  0
TABLE
  2
BLOCK_RECORD
  5
1
330
0
100
AcDbSymbolTable
 70
    15
  0
BLOCK_RECORD
  5
1A
102
{ACAD_XDICTIONARY
360
E02
102
}
330
1
100
AcDbSymbolTableRecord
100
AcDbBlockTableRecord
  2
*MODEL_SPACE
  0
BLOCK_RECORD
  5
17
102
{ACAD_XDICTIONARY
360
E00
102
}
330
1
100
AcDbSymbolTableRecord
100
AcDbBlockTableRecord
  2
*PAPER_SPACE
  0
BLOCK_RECORD
  5
6D
330
1
100
AcDbSymbolTableRecord
100
AcDbBlockTableRecord
  2
_OPEN
  0
BLOCK_RECORD
  5
163
330
1
100
AcDbSymbolTableRecord
100
AcDbBlockTableRecord
  2
A$C1305
  0
BLOCK_RECORD
  5
793
330
1
100
AcDbSymbolTableRecord
100
AcDbBlockTableRecord
  2
*D2
  0
BLOCK_RECORD
  5
7A0
330
1
100
AcDbSymbolTableRecord
100
AcDbBlockTableRecord
  2
*D3
  0
BLOCK_RECORD
  5
7AD
330
1
100
AcDbSymbolTableRecord
100
AcDbBlockTableRecord
  2
*D4
  0
BLOCK_RECORD
  5
7BC
330
1
100
AcDbSymbolTableRecord
100
AcDbBlockTableRecord
  2
*D5
  0
BLOCK_RECORD
  5
7CB
330
1
100
AcDbSymbolTableRecord
100
AcDbBlockTableRecord
  2
*D6
  0
BLOCK_RECORD
  5
7D8
330
1
100
AcDbSymbolTableRecord
100
AcDbBlockTableRecord
  2
*D7
  0
BLOCK_RECORD
  5
7E7
330
1
100
AcDbSymbolTableRecord
100
AcDbBlockTableRecord
  2
*D8
  0
BLOCK_RECORD
  5
7F6
330
1
100
AcDbSymbolTableRecord
100
AcDbBlockTableRecord
  2
*D9
  0
BLOCK_RECORD
  5
C3A
330
1
100
AcDbSymbolTableRecord
100
AcDbBlockTableRecord
  2
*D10
  0
BLOCK_RECORD
  5
C86
330
1
100
AcDbSymbolTableRecord
100
AcDbBlockTableRecord
  2
*D11
  0
BLOCK_RECORD
  5
D3A
330
1
100
AcDbSymbolTableRecord
100
AcDbBlockTableRecord
  2
*D12
  0
BLOCK_RECORD
  5
D5F
330
1
100
AcDbSymbolTableRecord
100
AcDbBlockTableRecord
  2
*D13
  0
BLOCK_RECORD
  5
D7B
330
1
100
AcDbSymbolTableRecord
100
AcDbBlockTableRecord
  2
*D14
  0
ENDTAB
  0
ENDSEC
  0
SECTION
  2
BLOCKS
  0
BLOCK
  5
1B
330
1A
100
AcDbEntity
  8
0
100
AcDbBlockBegin
  2
*MODEL_SPACE
 70
     0
 10
0.0
 20
0.0
 30
0.0
  3
*MODEL_SPACE
  1

  0
ENDBLK
  5
1C
330
1A
100
AcDbEntity
  8
0
100
AcDbBlockEnd
  0
BLOCK
  5
18
330
17
100
AcDbEntity
 67
     1
  8
0
100
AcDbBlockBegin
  2
*PAPER_SPACE
 70
     0
 10
0.0
 20
0.0
 30
0.0
  3
*PAPER_SPACE
  1

  0
ENDBLK
  5
19
330
17
100
AcDbEntity
 67
     1
  8
0
100
AcDbBlockEnd
  0
BLOCK
  5
6E
330
6D
100
AcDbEntity
  8
0
100
AcDbBlockBegin
  2
_OPEN
 70
     0
 10
0.0
 20
0.0
 30
0.0
  3
_OPEN
  1

  0
LINE
  5
6F
330
6D
100
AcDbEntity
  8
0
  6
BYBLOCK
 62
     0
100
AcDbLine
 10
-1.0
 20
0.1666666666666666
 30
0.0
 11
0.0
 21
0.0
 31
0.0
  0
LINE
  5
70
330
6D
100
AcDbEntity
  8
0
  6
BYBLOCK
 62
     0
100
AcDbLine
 10
0.0
 20
0.0
 30
0.0
 11
-1.0
 21
-0.1666666666666666
 31
0.0
  0
LINE
  5
71
330
6D
100
AcDbEntity
  8
0
  6
BYBLOCK
 62
     0
100
AcDbLine
 10
0.0
 20
0.0
 30
0.0
 11
-1.0
 21
0.0
 31
0.0
  0
ENDBLK
  5
72
330
6D
100
AcDbEntity
  8
0
100
AcDbBlockEnd
  0
BLOCK
  5
1AB
330
163
100
AcDbEntity
  8
0
100
AcDbBlockBegin
  2
A$C1305
 70
     0
 10
0.0
 20
0.0
 30
0.0
  3
A$C1305
  1

  0
LINE
  5
164
330
163
100
AcDbEntity
  8
NOKITOI
  6
PHANTOM
 62
     8
 48
5.0
100
AcDbLine
 10
29.18435908443393
 20
10.10187063730222
 30
0.0
 11
19.27365908443391
 21
10.10187063730222
 31
0.0
  0
LINE
  5
165
330
163
100
AcDbEntity
  8
NOKITOI
  6
PHANTOM
 62
     8
 48
5.0
100
AcDbLine
 10
90.2981590844339
 20
0.1120706373022813
 30
0.0
 11
24.06755908443392
 21
0.1121706373021425
 31
0.0
  0
LINE
  5
166
330
163
100
AcDbEntity
  8
NOKITOI
  6
PHANTOM
 62
     8
 48
5.0
100
AcDbLine
 10
24.06755908443392
 20
0.1121706373021425
 30
0.0
 11
90.2981590844339
 21
0.1120706373022813
 31
0.0
  0
LINE
  5
167
330
163
100
AcDbEntity
  8
NOKITOI
  6
PHANTOM
 62
     8
 48
5.0
100
AcDbLine
 10
13.05735908443387
 20
12.22087063730214
 30
0.0
 11
7.218759084433713
 21
39.95217063730228
 31
0.0
  0
LINE
  5
168
330
163
100
AcDbEntity
  8
NOKITOI
  6
PHANTOM
 62
     8
 48
5.0
100
AcDbLine
 10
14.16595908443378
 20
13.23377063730208
 30
0.0
 11
8.234959084433853
 21
41.4036706373023
 31
0.0
  0
ARC
  5
169
330
163
100
AcDbEntity
  8
NOKITOI
  6
PHANTOM
 62
     8
 48
5.0
100
AcDbCircle
 10
15.13957896620524
 20
13.43874830022218
 30
0.0
 40
0.995060928010462
100
AcDbArc
 50
191.8877567214145
 51
251.4524867922934
  0
ARC
  5
16A
330
163
100
AcDbEntity
  8
NOKITOI
  6
PHANTOM
 62
     8
 48
5.0
100
AcDbCircle
 10
10.29733292322475
 20
-0.9941694721817384
 30
0.0
 40
14.22848866365036
100
AcDbArc
 50
51.52529185494254
 51
71.45345265407107
  0
ARC
  5
16B
330
163
100
AcDbEntity
  8
NOKITOI
  6
PHANTOM
 62
     8
 48
5.0
100
AcDbCircle
 10
10.29726615422066
 20
-0.9941373355915743
 30
0.0
 40
12.93471022655885
100
AcDbArc
 50
8.676219579622015
 51
74.45245455808978
  0
ARC
  5
16C
330
163
100
AcDbEntity
  8
NOKITOI
  6
PHANTOM
 62
     8
 48
5.0
100
AcDbCircle
 10
24.06756669845151
 20
1.107164097058216
 30
0.0
 40
0.9949934597852239
100
AcDbArc
 50
188.67611256506
 51
269.9995615538235
  0
ARC
  5
16D
330
163
100
AcDbEntity
  8
NOKITOI
  6
PHANTOM
 62
     8
 48
5.0
100
AcDbCircle
 10
19.27366239679292
 20
10.30086948151677
 30
0.0
 40
0.1989988442421132
100
AcDbArc
 50
231.5280949042412
 51
269.9990463050557
  0
ARC
  5
16E
330
163
100
AcDbEntity
  8
NOKITOI
  6
PHANTOM
 62
     8
 48
5.0
100
AcDbCircle
 10
14.03099910882133
 20
12.42582797307631
 30
0.0
 40
0.9949785960395137
100
AcDbArc
 50
191.8875585738773
 51
254.4495841050105
  0
LINE
  5
16F
330
163
100
AcDbEntity
  8
NOKITOI
  6
PHANTOM
 62
     8
 48
5.0
100
AcDbLine
 10
27.88425908443378
 20
1.91217063730221
 30
0.0
 11
27.88425908443378
 21
8.439470637302292
 31
0.0
  0
LINE
  5
170
330
163
100
AcDbEntity
  8
NOKITOI
  6
PHANTOM
 62
     8
 48
5.0
100
AcDbLine
 10
28.37925908443378
 20
9.296770637302074
 30
0.0
 11
27.88425908443378
 21
8.439470637302292
 31
0.0
  0
LINE
  5
171
330
163
100
AcDbEntity
  8
NOKITOI
  6
PHANTOM
 62
     8
 48
5.0
100
AcDbLine
 10
28.37925908443378
 20
9.296770637302074
 30
0.0
 11
27.52195908443377
 21
8.801870637302272
 31
0.0
  0
ARC
  5
172
330
163
100
AcDbEntity
  8
NOKITOI
  6
PHANTOM
 62
     8
 48
5.0
100
AcDbCircle
 10
21.30106274373702
 20
8.501878629181817
 30
0.0
 40
0.2999920081427447
100
AcDbArc
 50
90.00069889403098
 51
220.79672841758
  0
ARC
  5
173
330
163
100
AcDbEntity
  8
NOKITOI
  6
PHANTOM
 62
     8
 48
5.0
100
AcDbCircle
 10
10.29726428144715
 20
-0.9941399784659097
 30
0.0
 40
14.23472333170272
100
AcDbArc
 50
11.37541821407357
 51
40.79334907830751
  0
LINE
  5
174
330
163
100
AcDbEntity
  8
NOKITOI
  6
PHANTOM
 62
     8
 48
5.0
100
AcDbLine
 10
27.52195908443377
 20
8.801870637302272
 30
0.0
 11
21.30105908443386
 21
8.801870637302272
 31
0.0
  0
LINE
  5
175
330
163
100
AcDbEntity
  8
NOKITOI
  6
PHANTOM
 62
     8
 48
5.0
100
AcDbLine
 10
24.74245908443378
 20
1.412170637302097
 30
0.0
 11
27.38425908443378
 21
1.412170637302097
 31
0.0
  0
ARC
  5
176
330
163
100
AcDbEntity
  8
NOKITOI
  6
PHANTOM
 62
     8
 48
5.0
100
AcDbCircle
 10
24.74253604330567
 20
1.912189501590432
 30
0.0
 40
0.5000188648192144
100
AcDbArc
 50
191.3867288554411
 51
270.0026402191985
  0
ARC
  5
177
330
163
100
AcDbEntity
  8
NOKITOI
  6
PHANTOM
 62
     8
 48
5.0
100
AcDbCircle
 10
27.38425908443366
 20
1.91217063730221
 30
0.0
 40
0.5000000000000569
100
AcDbArc
 50
270.0000000000065
 51
0.0000000000065138
  0
LINE
  5
178
330
163
100
AcDbEntity
  8
NOKITOI
  6
PHANTOM
 62
     8
 48
5.0
100
AcDbLine
 10
0.1808590844339051
 20
41.10517063730208
 30
0.0
 11
0.1808590844339051
 21
49.11467063730208
 31
0.0
  0
ARC
  5
179
330
163
100
AcDbEntity
  8
NOKITOI
  6
PHANTOM
 62
     8
 48
5.0
100
AcDbCircle
 10
3.6160590844338
 20
47.32377063730223
 30
0.0
 40
1.492399999999918
100
AcDbArc
 50
0.0000000000021823
 51
90.00000000000218
  0
ARC
  5
17A
330
163
100
AcDbEntity
  8
NOKITOI
  6
PHANTOM
 62
     8
 48
5.0
100
AcDbCircle
 10
2.966809084433748
 20
47.32372063730212
 30
0.0
 40
1.49245000083754
100
AcDbArc
 50
89.99808047909008
 51
179.99808047909
  0
LINE
  5
17B
330
163
100
AcDbEntity
  8
NOKITOI
  6
PHANTOM
 62
     8
 48
5.0
100
AcDbLine
 10
6.401959084433769
 20
49.11467063730208
 30
0.0
 11
6.401959084433769
 21
44.90987063730222
 31
0.0
  0
LINE
  5
17C
330
163
100
AcDbEntity
  8
NOKITOI
  6
PHANTOM
 62
     8
 48
5.0
100
AcDbLine
 10
3.464359084433908
 20
41.4036706373023
 30
0.0
 11
8.234959084433853
 21
41.4036706373023
 31
0.0
  0
LINE
  5
17D
330
163
100
AcDbEntity
  8
NOKITOI
  6
PHANTOM
 62
     8
 48
5.0
100
AcDbLine
 10
7.024059084433929
 20
40.11017063730207
 30
0.0
 11
1.175859084433909
 21
40.11017063730207
 31
0.0
  0
ARC
  5
17E
330
163
100
AcDbEntity
  8
NOKITOI
  6
PHANTOM
 62
     8
 48
5.0
100
AcDbCircle
 10
3.464309084433807
 20
43.39362063730232
 30
0.0
 40
1.989950000628206
100
AcDbArc
 50
180.0014396286234
 51
270.0014396286234
  0
LINE
  5
17F
330
163
100
AcDbEntity
  8
NOKITOI
  6
PHANTOM
 62
     8
 48
5.0
100
AcDbLine
 10
1.474359084433785
 20
47.32377063730223
 30
0.0
 11
1.474359084433785
 21
43.39357063730221
 31
0.0
  0
ARC
  5
180
330
163
100
AcDbEntity
  8
NOKITOI
  6
PHANTOM
 62
     8
 48
5.0
100
AcDbCircle
 10
1.175859084433909
 20
41.10517063730208
 30
0.0
 40
0.9950000000000045
100
AcDbArc
 50
180.0
 51
270.0
  0
LINE
  5
181
330
163
100
AcDbEntity
  8
NOKITOI
  6
PHANTOM
 62
     8
 48
5.0
100
AcDbLine
 10
5.108559084433863
 20
44.90987063730222
 30
0.0
 11
5.108559084433863
 21
47.32377063730223
 31
0.0
  0
LINE
  5
182
330
163
100
AcDbEntity
  8
NOKITOI
  6
PHANTOM
 62
     8
 48
5.0
100
AcDbLine
 10
6.401959084433769
 20
44.90987063730222
 30
0.0
 11
5.108559084433863
 21
44.90987063730222
 31
0.0
  0
ARC
  5
183
330
163
100
AcDbEntity
  8
NOKITOI
  6
PHANTOM
 62
     8
 48
5.0
100
AcDbCircle
 10
7.024040641819624
 20
39.91118560073897
 30
0.0
 40
0.1989850374177657
100
AcDbArc
 50
11.88631382809314
 51
89.99468963106556
  0
LINE
  5
184
330
163
100
AcDbEntity
  8
NOKITOI
  6
PHANTOM
 62
     8
 48
5.0
100
AcDbLine
 10
1.175859084433909
 20
50.1096706373022
 30
0.0
 11
5.407059084433853
 21
50.1096706373022
 31
0.0
  0
ARC
  5
185
330
163
100
AcDbEntity
  8
NOKITOI
  6
PHANTOM
 62
     8
 48
5.0
100
AcDbCircle
 10
1.175859084433909
 20
49.1146706373022
 30
0.0
 40
0.9950000000000613
100
AcDbArc
 50
90.00000000000328
 51
180.0000000000032
  0
LINE
  5
186
330
163
100
AcDbEntity
  8
NOKITOI
  6
PHANTOM
 62
     8
 48
5.0
100
AcDbLine
 10
3.6160590844338
 20
48.81617063730209
 30
0.0
 11
2.966859084433849
 21
48.81617063730209
 31
0.0
  0
ARC
  5
187
330
163
100
AcDbEntity
  8
NOKITOI
  6
PHANTOM
 62
     8
 48
5.0
100
AcDbCircle
 10
5.407009084433752
 20
49.11472063730224
 30
0.0
 40
0.9949500012563332
100
AcDbArc
 50
359.9971206704048
 51
89.99712067040489
  0
LINE
  5
188
330
163
100
AcDbEntity
  8
NOKITOI
  6
PHANTOM
 62
     8
 48
5.0
100
AcDbLine
 10
85.18155908443374
 20
10.10157063730207
 30
0.0
 11
95.16205908443373
 21
10.10147063730221
 31
0.0
  0
ARC
  5
189
330
163
100
AcDbEntity
  8
NOKITOI
  6
PHANTOM
 62
     8
 48
5.0
100
AcDbCircle
 10
104.068453551022
 20
-0.9942356029631582
 30
0.0
 40
12.93461262833301
100
AcDbArc
 50
105.5476727870198
 51
171.3237222126366
  0
ARC
  5
18A
330
163
100
AcDbEntity
  8
NOKITOI
  6
PHANTOM
 62
     8
 48
5.0
100
AcDbCircle
 10
104.0683479281129
 20
-0.994141944171929
 30
0.0
 40
12.93449408578155
100
AcDbArc
 50
105.5473332353544
 51
171.3240617643019
  0
LINE
  5
18B
330
163
100
AcDbEntity
  8
NOKITOI
  6
PHANTOM
 62
     8
 48
5.0
100
AcDbLine
 10
29.38325908443392
 20
1.405570637302162
 30
0.0
 11
84.98245908443392
 21
1.405470637302073
 31
0.0
  0
ARC
  5
18C
330
163
100
AcDbEntity
  8
NOKITOI
  6
PHANTOM
 62
     8
 48
5.0
100
AcDbCircle
 10
29.38325908443392
 20
1.604570637302231
 30
0.0
 40
0.1990000000000691
100
AcDbArc
 50
179.9999999999836
 51
269.9999999999836
  0
LINE
  5
18D
330
163
100
AcDbEntity
  8
NOKITOI
  6
PHANTOM
 62
     8
 48
5.0
100
AcDbLine
 10
29.18425908443385
 20
1.604570637302231
 30
0.0
 11
29.18435908443393
 21
10.10187063730222
 31
0.0
  0
LINE
  5
18E
330
163
100
AcDbEntity
  8
NOKITOI
  6
PHANTOM
 62
     8
 48
5.0
100
AcDbLine
 10
80.98245908443391
 20
1.405470637302073
 30
0.0
 11
66.22805908443377
 21
1.405470637302073
 31
0.0
  0
ARC
  5
18F
330
163
100
AcDbEntity
  8
NOKITOI
  6
PHANTOM
 62
     8
 48
5.0
100
AcDbCircle
 10
90.2982090125298
 20
1.107113524900853
 30
0.0
 40
0.9950428888512103
100
AcDbArc
 50
269.9971250795227
 51
351.3214426795068
  0
LINE
  5
190
330
163
100
AcDbEntity
  8
NOKITOI
  6
PHANTOM
 62
     8
 48
5.0
100
AcDbLine
 10
85.98655908443367
 20
9.296470637302149
 30
0.0
 11
86.4815590844339
 21
8.43917063730214
 31
0.0
  0
LINE
  5
191
330
163
100
AcDbEntity
  8
NOKITOI
  6
PHANTOM
 62
     8
 48
5.0
100
AcDbLine
 10
85.98655908443367
 20
9.296470637302149
 30
0.0
 11
86.84385908443392
 21
8.801470637302145
 31
0.0
  0
ARC
  5
192
330
163
100
AcDbEntity
  8
NOKITOI
  6
PHANTOM
 62
     8
 48
5.0
100
AcDbCircle
 10
84.98240908443381
 20
1.604520637302186
 30
0.0
 40
0.1990500062799141
100
AcDbArc
 50
270.0143923080611
 51
0.014392308061115
  0
LINE
  5
193
330
163
100
AcDbEntity
  8
NOKITOI
  6
PHANTOM
 62
     8
 48
5.0
100
AcDbLine
 10
85.18145908443386
 20
1.604570637302231
 30
0.0
 11
85.18155908443374
 21
10.10157063730207
 31
0.0
  0
LINE
  5
194
330
163
100
AcDbEntity
  8
NOKITOI
  6
PHANTOM
 62
     8
 48
5.0
100
AcDbLine
 10
86.4815590844339
 20
8.43917063730214
 30
0.0
 11
86.4815590844339
 21
1.912070637302122
 31
0.0
  0
ARC
  5
195
330
163
100
AcDbEntity
  8
NOKITOI
  6
PHANTOM
 62
     8
 48
5.0
100
AcDbCircle
 10
104.0684175391246
 20
-0.9943142272541081
 30
0.0
 40
14.23462403148678
100
AcDbArc
 50
139.2075062369005
 51
168.6237859483839
  0
LINE
  5
196
330
163
100
AcDbEntity
  8
NOKITOI
  6
PHANTOM
 62
     8
 48
5.0
100
AcDbLine
 10
93.06445908443368
 20
8.801470637302145
 30
0.0
 11
86.84385908443392
 21
8.801470637302145
 31
0.0
  0
ARC
  5
197
330
163
100
AcDbEntity
  8
NOKITOI
  6
PHANTOM
 62
     8
 48
5.0
100
AcDbCircle
 10
93.06447276228515
 20
8.501440773608294
 30
0.0
 40
0.3000298640056128
100
AcDbArc
 50
319.2190584222776
 51
90.00261201719956
  0
LINE
  5
198
330
163
100
AcDbEntity
  8
NOKITOI
  6
PHANTOM
 62
     8
 48
5.0
100
AcDbLine
 10
89.62325908443393
 20
1.412070637302235
 30
0.0
 11
86.98155908443391
 21
1.412070637302235
 31
0.0
  0
ARC
  5
199
330
163
100
AcDbEntity
  8
NOKITOI
  6
PHANTOM
 62
     8
 48
5.0
100
AcDbCircle
 10
86.9815590844338
 20
1.912070637302235
 30
0.0
 40
0.4999999999999432
100
AcDbArc
 50
180.0000000000065
 51
270.0000000000065
  0
ARC
  5
19A
330
163
100
AcDbEntity
  8
NOKITOI
  6
PHANTOM
 62
     8
 48
5.0
100
AcDbCircle
 10
89.62328212556213
 20
1.912089501590457
 30
0.0
 40
0.5000188648190603
100
AcDbArc
 50
269.9973597808039
 51
348.6132711445602
  0
LINE
  5
19B
330
163
100
AcDbEntity
  8
NOKITOI
  6
PHANTOM
 62
     8
 48
5.0
100
AcDbLine
 10
100.1997590844339
 20
13.23317063730223
 30
0.0
 11
105.6547590844337
 21
39.14207063730214
 31
0.0
  0
LINE
  5
19C
330
163
100
AcDbEntity
  8
NOKITOI
  6
PHANTOM
 62
     8
 48
5.0
100
AcDbLine
 10
101.3084590844339
 20
12.22067063730207
 30
0.0
 11
107.1471590844337
 21
39.95207063730208
 31
0.0
  0
ARC
  5
19D
330
163
100
AcDbEntity
  8
NOKITOI
  6
PHANTOM
 62
     8
 48
5.0
100
AcDbCircle
 10
99.22620265398496
 20
13.43821958907108
 30
0.0
 40
0.9950135261271753
100
AcDbArc
 50
288.5445751594487
 51
348.1074736523478
  0
ARC
  5
19E
330
163
100
AcDbEntity
  8
NOKITOI
  6
PHANTOM
 62
     8
 48
5.0
100
AcDbCircle
 10
104.0684735879824
 20
-0.9942214385093848
 30
0.0
 40
14.22809199964113
100
AcDbArc
 50
108.5474584936555
 51
128.7537062451648
  0
ARC
  5
19F
330
163
100
AcDbEntity
  8
NOKITOI
  6
PHANTOM
 62
     8
 48
5.0
100
AcDbCircle
 10
100.334833421286
 20
12.42574988868966
 30
0.0
 40
0.9949690575286499
100
AcDbArc
 50
285.5437330810338
 51
348.1110361155302
  0
LINE
  5
1A0
330
163
100
AcDbEntity
  8
NOKITOI
  6
PHANTOM
 62
     8
 48
5.0
100
AcDbLine
 10
112.8850590844339
 20
41.40997063730208
 30
0.0
 11
107.4607590844339
 21
41.41007063730216
 31
0.0
  0
LINE
  5
1A1
330
163
100
AcDbEntity
  8
NOKITOI
  6
PHANTOM
 62
     8
 48
5.0
100
AcDbLine
 10
113.1900590844338
 20
50.10957063730223
 30
0.0
 11
107.9863590844338
 21
50.10947063730213
 31
0.0
  0
LINE
  5
1A2
330
163
100
AcDbEntity
  8
NOKITOI
  6
PHANTOM
 62
     8
 48
5.0
100
AcDbLine
 10
112.8850590844339
 20
48.80947063730229
 30
0.0
 11
109.0186590844336
 21
48.80947063730229
 31
0.0
  0
LINE
  5
1A3
330
163
100
AcDbEntity
  8
NOKITOI
  6
PHANTOM
 62
     8
 48
5.0
100
AcDbLine
 10
107.3418590844337
 20
40.10997063730224
 30
0.0
 11
113.1900590844338
 21
40.10997063730224
 31
0.0
  0
LINE
  5
1A4
330
163
100
AcDbEntity
  8
NOKITOI
  6
PHANTOM
 62
     8
 48
5.0
100
AcDbLine
 10
109.0186590844336
 20
48.80947063730229
 30
0.0
 11
107.4607590844339
 21
41.41007063730216
 31
0.0
  0
LINE
  5
1A5
330
163
100
AcDbEntity
  8
NOKITOI
  6
PHANTOM
 62
     8
 48
5.0
100
AcDbLine
 10
105.6547590844337
 20
39.14207063730214
 30
0.0
 11
107.9638590844336
 21
50.10947063730213
 31
0.0
  0
ARC
  5
1A6
330
163
100
AcDbEntity
  8
NOKITOI
  6
PHANTOM
 62
     8
 48
5.0
100
AcDbCircle
 10
107.341877527048
 20
39.91108560073894
 30
0.0
 40
0.1989850374179911
100
AcDbArc
 50
90.00531036897127
 51
168.1136861719432
  0
LINE
  5
1A7
330
163
100
AcDbEntity
  8
NOKITOI
  6
PHANTOM
 62
     8
 48
5.0
100
AcDbLine
 10
114.1850590844338
 20
41.10497063730213
 30
0.0
 11
114.1850590844338
 21
49.1145706373021
 31
0.0
  0
LINE
  5
1A8
330
163
100
AcDbEntity
  8
NOKITOI
  6
PHANTOM
 62
     8
 48
5.0
100
AcDbLine
 10
112.8850590844339
 20
41.40997063730208
 30
0.0
 11
112.8850590844339
 21
48.80947063730229
 31
0.0
  0
ARC
  5
1A9
330
163
100
AcDbEntity
  8
NOKITOI
  6
PHANTOM
 62
     8
 48
5.0
100
AcDbCircle
 10
113.1900590844339
 20
41.10497063730218
 30
0.0
 40
0.9949999999999192
100
AcDbArc
 50
269.9999999999951
 51
359.9999999999951
  0
ARC
  5
1AA
330
163
100
AcDbEntity
  8
NOKITOI
  6
PHANTOM
 62
     8
 48
5.0
100
AcDbCircle
 10
113.1900590844338
 20
49.11457063730222
 30
0.0
 40
0.9950000000000613
100
AcDbArc
 50
359.9999999999967
 51
89.99999999999673
  0
ENDBLK
  5
1AC
330
163
100
AcDbEntity
  8
0
100
AcDbBlockEnd
  0
BLOCK
  5
CE5
330
793
100
AcDbEntity
  8
0
100
AcDbBlockBegin
  2
*D2
 70
     1
 10
0.0
 20
0.0
 30
0.0
  3
*D2
  1

  0
LINE
  5
CE6
330
793
100
AcDbEntity
  8
0
  6
BYBLOCK
 62
     4
100
AcDbLine
 10
621.5865755039847
 20
292.3126674152874
 30
0.0
 11
614.7873686849832
 21
309.3119832303197
 31
0.0
  0
LINE
  5
CE7
330
793
100
AcDbEntity
  8
0
  6
BYBLOCK
 62
     4
100
AcDbLine
 10
577.4741830748986
 20
274.6690585389179
 30
0.0
 11
570.6749762558971
 21
291.6683743539503
 31
0.0
  0
LINE
  5
CE8
330
793
100
AcDbEntity
  8
0
  6
BYBLOCK
 62
     4
100
AcDbLine
 10
609.4020620048212
 20
303.9269602999504
 30
0.0
 11
578.2884802262763
 21
291.4824784340877
 31
0.0
  0
INSERT
  5
CE9
330
793
100
AcDbEntity
  8
0
  6
BYBLOCK
 62
     4
100
AcDbBlockReference
  2
_OPEN
 10
615.9014673300918
 20
306.5265238052037
 30
0.0
 41
7.0
 42
7.0
 43
7.0
 50
21.79989999999969
  0
INSERT
  5
CEA
330
793
100
AcDbEntity
  8
0
  6
BYBLOCK
 62
     4
100
AcDbBlockReference
  2
_OPEN
 10
571.7890749010057
 20
288.8829149288344
 30
0.0
 41
7.0
 42
7.0
 43
7.0
 50
201.7998999999997
  0
MTEXT
  5
CEB
330
793
100
AcDbEntity
  8
0
  6
BYBLOCK
 62
     4
100
AcDbMText
 10
591.9884400403677
 20
302.3471517422123
 30
0.0
 40
6.0
 41
0.0
 71
     5
 72
     5
  1
\A1;48
 11
0.9284864750386477
 21
0.371366215036191
 31
0.0
1001
ACAD
1000
MTEXTBEGIN
1070
    73
1070
     1
1070
    44
1040
1.0
1070
    74
1070
     0
1000
MTEXTEND
1000
MTEXTBEGIN
1070
    73
1070
     1
1070
    44
1040
1.0
1070
    74
1070
     0
1000
MTEXTEND
1000
MTEXTBEGIN
1070
    73
1070
     1
1070
    44
1040
1.0
1070
    74
1070
     0
1000
MTEXTEND
  0
POINT
  5
CEC
330
793
100
AcDbEntity
  8
DEFPOINTS
  6
BYBLOCK
 62
     0
100
AcDbPoint
 10
623.8147727942017
 20
286.7417485650555
 30
0.0
  0
POINT
  5
CED
330
793
100
AcDbEntity
  8
DEFPOINTS
  6
BYBLOCK
 62
     0
100
AcDbPoint
 10
579.7023803651158
 20
269.098139688686
 30
0.0
  0
POINT
  5
CEE
330
793
100
AcDbEntity
  8
DEFPOINTS
  6
BYBLOCK
 62
     0
100
AcDbPoint
 10
571.7890749010057
 20
288.8829149288344
 30
0.0
  0
ENDBLK
  5
CEF
330
793
100
AcDbEntity
  8
0
100
AcDbBlockEnd
  0
BLOCK
  5
CF0
330
7A0
100
AcDbEntity
  8
0
100
AcDbBlockBegin
  2
*D3
 70
     1
 10
0.0
 20
0.0
 30
0.0
  3
*D3
  1

  0
LINE
  5
CF1
330
7A0
100
AcDbEntity
  8
0
  6
BYBLOCK
 62
     4
100
AcDbLine
 10
626.2290078791782
 20
294.1694984904681
 30
0.0
 11
613.1958435614603
 21
326.7548988473048
 31
0.0
  0
LINE
  5
CF2
330
7A0
100
AcDbEntity
  8
0
  6
BYBLOCK
 62
     4
100
AcDbLine
 10
572.8317506997058
 20
272.8122274637369
 30
0.0
 11
559.7985863819879
 21
305.3976278205737
 31
0.0
  0
LINE
  5
CF3
330
7A0
100
AcDbEntity
  8
0
  6
BYBLOCK
 62
     4
100
AcDbLine
 10
607.8105368812984
 20
321.3698759169356
 30
0.0
 11
567.412090352367
 21
305.2117319007111
 31
0.0
  0
INSERT
  5
CF4
330
7A0
100
AcDbEntity
  8
0
  6
BYBLOCK
 62
     4
100
AcDbBlockReference
  2
_OPEN
 10
614.3099422065689
 20
323.9694394221888
 30
0.0
 41
7.0
 42
7.0
 43
7.0
 50
21.79989999999961
  0
INSERT
  5
CF5
330
7A0
100
AcDbEntity
  8
0
  6
BYBLOCK
 62
     4
100
AcDbBlockReference
  2
_OPEN
 10
560.9126850270964
 20
302.6121683954578
 30
0.0
 41
7.0
 42
7.0
 43
7.0
 50
201.7998999999995
  0
MTEXT
  5
CF6
330
7A0
100
AcDbEntity
  8
0
  6
BYBLOCK
 62
     4
100
AcDbMText
 10
585.7544825416518
 20
317.9332362840165
 30
0.0
 40
6.0
 41
0.0
 71
     5
 72
     5
  1
\A1;58
 11
0.9284864750386487
 21
0.3713662150361885
 31
0.0
1001
ACAD
1000
MTEXTBEGIN
1070
    73
1070
     1
1070
    44
1040
1.0
1070
    74
1070
     0
1000
MTEXTEND
1000
MTEXTBEGIN
1070
    73
1070
     1
1070
    44
1040
1.0
1070
    74
1070
     0
1000
MTEXTEND
1000
MTEXTBEGIN
1070
    73
1070
     1
1070
    44
1040
1.0
1070
    74
1070
     0
1000
MTEXTEND
  0
POINT
  5
CF7
330
7A0
100
AcDbEntity
  8
DEFPOINTS
  6
BYBLOCK
 62
     0
100
AcDbPoint
 10
628.4572051693953
 20
288.5985796402363
 30
0.0
  0
POINT
  5
CF8
330
7A0
100
AcDbEntity
  8
DEFPOINTS
  6
BYBLOCK
 62
     0
100
AcDbPoint
 10
575.0599479899229
 20
267.2413086135051
 30
0.0
  0
POINT
  5
CF9
330
7A0
100
AcDbEntity
  8
DEFPOINTS
  6
BYBLOCK
 62
     0
100
AcDbPoint
 10
560.9126850270964
 20
302.6121683954578
 30
0.0
  0
ENDBLK
  5
CFA
330
7A0
100
AcDbEntity
  8
0
100
AcDbBlockEnd
  0
BLOCK
  5
CFB
330
7AD
100
AcDbEntity
  8
0
100
AcDbBlockBegin
  2
*D4
 70
     1
 10
0.0
 20
0.0
 30
0.0
  3
*D4
  1

  0
LINE
  5
CFC
330
7AD
100
AcDbEntity
  8
0
  6
BYBLOCK
 62
     4
100
AcDbLine
 10
571.3458602148717
 20
260.3706789480948
 30
0.0
 11
553.859168463105
 21
253.3765366488351
 31
0.0
  0
LINE
  5
CFD
330
7AD
100
AcDbEntity
  8
0
  6
BYBLOCK
 62
     4
100
AcDbLine
 10
578.7731845155954
 20
241.8009494473219
 30
0.0
 11
561.2864927638289
 21
234.8068071480623
 31
0.0
  0
LINE
  5
CFE
330
7AD
100
AcDbEntity
  8
0
  6
BYBLOCK
 62
     4
100
AcDbLine
 10
554.0450643829678
 20
260.9900406192142
 30
0.0
 11
551.4455008777144
 21
267.4894459444847
 31
0.0
  0
LINE
  5
CFF
330
7AD
100
AcDbEntity
  8
0
  6
BYBLOCK
 62
     4
100
AcDbLine
 10
566.6715156941982
 20
229.4215004679004
 30
0.0
 11
569.2710791994516
 21
222.9220951426298
 31
0.0
  0
LINE
  5
D00
330
7AD
100
AcDbEntity
  8
0
  6
BYBLOCK
 62
     4
100
AcDbLine
 10
556.644627888221
 20
254.4906352939437
 30
0.0
 11
564.0719521889449
 21
235.9209057931709
 31
0.0
  0
INSERT
  5
D01
330
7AD
100
AcDbEntity
  8
0
  6
BYBLOCK
 62
     4
100
AcDbBlockReference
  2
_OPEN
 10
556.644627888221
 20
254.4906352939437
 30
0.0
 41
7.0
 42
7.0
 43
7.0
 50
291.7998999999999
  0
INSERT
  5
D02
330
7AD
100
AcDbEntity
  8
0
  6
BYBLOCK
 62
     4
100
AcDbBlockReference
  2
_OPEN
 10
564.0719521889449
 20
235.9209057931709
 30
0.0
 41
7.0
 42
7.0
 43
7.0
 50
111.7998999999999
  0
MTEXT
  5
D03
330
7AD
100
AcDbEntity
  8
0
  6
BYBLOCK
 62
     4
100
AcDbMText
 10
565.0007224137762
 20
247.0626016187383
 30
0.0
 40
6.0
 41
0.0
 71
     5
 72
     5
  1
\A1;20
 11
0.3713662150361943
 21
-0.9284864750386464
 31
0.0
1001
ACAD
1000
MTEXTBEGIN
1070
    73
1070
     1
1070
    44
1040
1.0
1070
    74
1070
     0
1000
MTEXTEND
1000
MTEXTBEGIN
1070
    73
1070
     1
1070
    44
1040
1.0
1070
    74
1070
     0
1000
MTEXTEND
1000
MTEXTBEGIN
1070
    73
1070
     1
1070
    44
1040
1.0
1070
    74
1070
     0
1000
MTEXTEND
  0
POINT
  5
D04
330
7AD
100
AcDbEntity
  8
DEFPOINTS
  6
BYBLOCK
 62
     0
100
AcDbPoint
 10
576.9167790651037
 20
262.5988762383119
 30
0.0
  0
POINT
  5
D05
330
7AD
100
AcDbEntity
  8
DEFPOINTS
  6
BYBLOCK
 62
     0
100
AcDbPoint
 10
584.3441033658274
 20
244.0291467375391
 30
0.0
  0
POINT
  5
D06
330
7AD
100
AcDbEntity
  8
DEFPOINTS
  6
BYBLOCK
 62
     0
100
AcDbPoint
 10
564.0719521889449
 20
235.9209057931709
 30
0.0
  0
ENDBLK
  5
D07
330
7AD
100
AcDbEntity
  8
0
100
AcDbBlockEnd
  0
BLOCK
  5
D08
330
7BC
100
AcDbEntity
  8
0
100
AcDbBlockBegin
  2
*D5
 70
     1
 10
0.0
 20
0.0
 30
0.0
  3
*D5
  1

  0
LINE
  5
D09
330
7BC
100
AcDbEntity
  8
0
  6
BYBLOCK
 62
     4
100
AcDbLine
 10
569.4890291396908
 20
265.0131113232879
 30
0.0
 11
535.5163013168708
 21
251.4250584165505
 31
0.0
  0
LINE
  5
D0A
330
7BC
100
AcDbEntity
  8
0
  6
BYBLOCK
 62
     4
100
AcDbLine
 10
580.6300155907766
 20
237.1585170721286
 30
0.0
 11
546.6572877679565
 21
223.5704641653911
 31
0.0
  0
LINE
  5
D0B
330
7BC
100
AcDbEntity
  8
0
  6
BYBLOCK
 62
     4
100
AcDbLine
 10
540.9013242472402
 20
246.0397517363885
 30
0.0
 11
546.8431836878192
 21
231.1839681357702
 31
0.0
  0
INSERT
  5
D0C
330
7BC
100
AcDbEntity
  8
0
  6
BYBLOCK
 62
     4
100
AcDbBlockReference
  2
_OPEN
 10
538.3017607419868
 20
252.539157061659
 30
0.0
 41
7.0
 42
7.0
 43
7.0
 50
111.7998999999995
  0
INSERT
  5
D0D
330
7BC
100
AcDbEntity
  8
0
  6
BYBLOCK
 62
     4
100
AcDbBlockReference
  2
_OPEN
 10
549.4427471930724
 20
224.6845628104997
 30
0.0
 41
7.0
 42
7.0
 43
7.0
 50
291.7998999999996
  0
MTEXT
  5
D0E
330
7BC
100
AcDbEntity
  8
0
  6
BYBLOCK
 62
     4
100
AcDbMText
 10
548.5146863427228
 20
240.4686910112603
 30
0.0
 40
6.0
 41
0.0
 71
     5
 72
     5
  1
\A1;30
 11
0.3713662150361885
 21
-0.9284864750386487
 31
0.0
1001
ACAD
1000
MTEXTBEGIN
1070
    73
1070
     1
1070
    44
1040
1.0
1070
    74
1070
     0
1000
MTEXTEND
1000
MTEXTBEGIN
1070
    73
1070
     1
1070
    44
1040
1.0
1070
    74
1070
     0
1000
MTEXTEND
1000
MTEXTBEGIN
1070
    73
1070
     1
1070
    44
1040
1.0
1070
    74
1070
     0
1000
MTEXTEND
  0
POINT
  5
D0F
330
7BC
100
AcDbEntity
  8
DEFPOINTS
  6
BYBLOCK
 62
     0
100
AcDbPoint
 10
575.0599479899228
 20
267.241308613505
 30
0.0
  0
POINT
  5
D10
330
7BC
100
AcDbEntity
  8
DEFPOINTS
  6
BYBLOCK
 62
     0
100
AcDbPoint
 10
586.2009344410084
 20
239.3867143623457
 30
0.0
  0
POINT
  5
D11
330
7BC
100
AcDbEntity
  8
DEFPOINTS
  6
BYBLOCK
 62
     0
100
AcDbPoint
 10
549.4427471930724
 20
224.6845628104997
 30
0.0
  0
ENDBLK
  5
D12
330
7BC
100
AcDbEntity
  8
0
100
AcDbBlockEnd
  0
BLOCK
  5
7CC
330
7CB
100
AcDbEntity
  8
0
100
AcDbBlockBegin
  2
*D6
 70
     1
 10
0.0
 20
0.0
 30
0.0
  3
*D6
  1

  0
LINE
  5
7CD
330
7CB
100
AcDbEntity
  8
0
  6
BYBLOCK
 62
     4
100
AcDbLine
 10
484.1835606587025
 20
409.4988312292629
 30
0.0
 11
509.1121558572718
 21
409.4988312292629
 31
0.0
  0
LINE
  5
7CE
330
7CB
100
AcDbEntity
  8
0
  6
BYBLOCK
 62
     4
100
AcDbLine
 10
484.1835606587025
 20
351.9988312292629
 30
0.0
 11
509.1121558572718
 21
351.9988312292629
 31
0.0
  0
LINE
  5
7CF
330
7CB
100
AcDbEntity
  8
0
  6
BYBLOCK
 62
     4
100
AcDbLine
 10
506.1121558572717
 20
402.4988312292629
 30
0.0
 11
506.1121558572717
 21
358.9988312292629
 31
0.0
  0
INSERT
  5
7D0
330
7CB
100
AcDbEntity
  8
0
  6
BYBLOCK
 62
     4
100
AcDbBlockReference
  2
_OPEN
 10
506.1121558572717
 20
409.4988312292629
 30
0.0
 41
7.0
 42
7.0
 43
7.0
 50
90.0
  0
INSERT
  5
7D1
330
7CB
100
AcDbEntity
  8
0
  6
BYBLOCK
 62
     4
100
AcDbBlockReference
  2
_OPEN
 10
506.1121558572717
 20
351.9988312292629
 30
0.0
 41
7.0
 42
7.0
 43
7.0
 50
270.0
  0
MTEXT
  5
7D2
330
7CB
100
AcDbEntity
  8
0
  6
BYBLOCK
 62
     4
100
AcDbMText
 10
501.1121558572718
 20
380.7488312292629
 30
0.0
 40
6.0
 41
0.0
 71
     5
 72
     5
  1
\A1;58
 11
0.0
 21
1.0
 31
0.0
1001
ACAD
1000
MTEXTBEGIN
1070
    73
1070
     1
1070
    44
1040
1.0
1070
    74
1070
     0
1000
MTEXTEND
1000
MTEXTBEGIN
1070
    73
1070
     1
1070
    44
1040
1.0
1070
    74
1070
     0
1000
MTEXTEND
1000
MTEXTBEGIN
1070
    73
1070
     1
1070
    44
1040
1.0
1070
    74
1070
     0
1000
MTEXTEND
  0
POINT
  5
7D3
330
7CB
100
AcDbEntity
  8
DEFPOINTS
  6
BYBLOCK
 62
     0
100
AcDbPoint
 10
478.1835606587025
 20
409.4988312292629
 30
0.0
  0
POINT
  5
7D4
330
7CB
100
AcDbEntity
  8
DEFPOINTS
  6
BYBLOCK
 62
     0
100
AcDbPoint
 10
478.1835606587025
 20
351.9988312292629
 30
0.0
  0
POINT
  5
7D5
330
7CB
100
AcDbEntity
  8
DEFPOINTS
  6
BYBLOCK
 62
     0
100
AcDbPoint
 10
506.1121558572717
 20
351.9988312292629
 30
0.0
  0
ENDBLK
  5
7D6
330
7CB
100
AcDbEntity
  8
0
100
AcDbBlockEnd
  0
BLOCK
  5
D52
330
7D8
100
AcDbEntity
  8
0
100
AcDbBlockBegin
  2
*D7
 70
     1
 10
0.0
 20
0.0
 30
0.0
  3
*D7
  1

  0
LINE
  5
D53
330
7D8
100
AcDbEntity
  8
0
  6
BYBLOCK
 62
     4
100
AcDbLine
 10
296.9761961805085
 20
368.9140354147552
 30
0.0
 11
280.9303240938443
 21
368.9140354147552
 31
0.0
  0
LINE
  5
D54
330
7D8
100
AcDbEntity
  8
0
  6
BYBLOCK
 62
     4
100
AcDbLine
 10
296.9761961805085
 20
343.9140354147551
 30
0.0
 11
280.9303240938443
 21
343.9140354147551
 31
0.0
  0
LINE
  5
D55
330
7D8
100
AcDbEntity
  8
0
  6
BYBLOCK
 62
     4
100
AcDbLine
 10
283.9303240938443
 20
375.9140354147552
 30
0.0
 11
283.9303240938443
 21
382.9140354147552
 31
0.0
  0
LINE
  5
D56
330
7D8
100
AcDbEntity
  8
0
  6
BYBLOCK
 62
     4
100
AcDbLine
 10
283.9303240938443
 20
336.9140354147551
 30
0.0
 11
283.9303240938443
 21
329.9140354147551
 31
0.0
  0
LINE
  5
D57
330
7D8
100
AcDbEntity
  8
0
  6
BYBLOCK
 62
     4
100
AcDbLine
 10
283.9303240938443
 20
368.9140354147552
 30
0.0
 11
283.9303240938443
 21
343.9140354147551
 31
0.0
  0
INSERT
  5
D58
330
7D8
100
AcDbEntity
  8
0
  6
BYBLOCK
 62
     4
100
AcDbBlockReference
  2
_OPEN
 10
283.9303240938443
 20
368.9140354147552
 30
0.0
 41
7.0
 42
7.0
 43
7.0
 50
270.0
  0
INSERT
  5
D59
330
7D8
100
AcDbEntity
  8
0
  6
BYBLOCK
 62
     4
100
AcDbBlockReference
  2
_OPEN
 10
283.9303240938443
 20
343.9140354147551
 30
0.0
 41
7.0
 42
7.0
 43
7.0
 50
90.0
  0
MTEXT
  5
D5A
330
7D8
100
AcDbEntity
  8
0
  6
BYBLOCK
 62
     4
100
AcDbMText
 10
278.9303240938443
 20
356.4140354147551
 30
0.0
 40
6.0
 41
0.0
 71
     5
 72
     5
  1
\A1;25
 11
0.0
 21
1.0
 31
0.0
1001
ACAD
1000
MTEXTBEGIN
1070
    73
1070
     1
1070
    44
1040
1.0
1070
    74
1070
     0
1000
MTEXTEND
1000
MTEXTBEGIN
1070
    73
1070
     1
1070
    44
1040
1.0
1070
    74
1070
     0
1000
MTEXTEND
1000
MTEXTBEGIN
1070
    73
1070
     1
1070
    44
1040
1.0
1070
    74
1070
     0
1000
MTEXTEND
  0
POINT
  5
D5B
330
7D8
100
AcDbEntity
  8
DEFPOINTS
  6
BYBLOCK
 62
     0
100
AcDbPoint
 10
302.9761961805085
 20
368.9140354147552
 30
0.0
  0
POINT
  5
D5C
330
7D8
100
AcDbEntity
  8
DEFPOINTS
  6
BYBLOCK
 62
     0
100
AcDbPoint
 10
302.9761961805085
 20
343.9140354147551
 30
0.0
  0
POINT
  5
D5D
330
7D8
100
AcDbEntity
  8
DEFPOINTS
  6
BYBLOCK
 62
     0
100
AcDbPoint
 10
283.9303240938443
 20
343.9140354147551
 30
0.0
  0
ENDBLK
  5
D5E
330
7D8
100
AcDbEntity
  8
0
100
AcDbBlockEnd
  0
BLOCK
  5
8FB
330
7E7
100
AcDbEntity
  8
0
100
AcDbBlockBegin
  2
*D8
 70
     1
 10
0.0
 20
0.0
 30
0.0
  3
*D8
  1

  0
LINE
  5
8FC
330
7E7
100
AcDbEntity
  8
0
  6
BYBLOCK
 62
     4
100
AcDbLine
 10
462.5760660697495
 20
234.6802383543323
 30
0.0
 11
462.5760660697495
 21
262.492608626376
 31
0.0
  0
LINE
  5
8FD
330
7E7
100
AcDbEntity
  8
0
  6
BYBLOCK
 62
     4
100
AcDbLine
 10
417.7782961805085
 20
246.4164854147549
 30
0.0
 11
417.7782961805085
 21
262.492608626376
 31
0.0
  0
LINE
  5
8FE
330
7E7
100
AcDbEntity
  8
0
  6
BYBLOCK
 62
     4
100
AcDbLine
 10
455.5760660697495
 20
259.492608626376
 30
0.0
 11
424.7782961805086
 21
259.492608626376
 31
0.0
  0
INSERT
  5
8FF
330
7E7
100
AcDbEntity
  8
0
  6
BYBLOCK
 62
     4
100
AcDbBlockReference
  2
_OPEN
 10
462.5760660697495
 20
259.492608626376
 30
0.0
 41
7.0
 42
7.0
 43
7.0
  0
INSERT
  5
900
330
7E7
100
AcDbEntity
  8
0
  6
BYBLOCK
 62
     4
100
AcDbBlockReference
  2
_OPEN
 10
417.7782961805085
 20
259.492608626376
 30
0.0
 41
7.0
 42
7.0
 43
7.0
 50
180.0
  0
MTEXT
  5
901
330
7E7
100
AcDbEntity
  8
0
  6
BYBLOCK
 62
     4
100
AcDbMText
 10
440.1771811251291
 20
264.492608626376
 30
0.0
 40
6.0
 41
0.0
 71
     5
 72
     5
  1
\A1;45
1001
ACAD
1000
MTEXTBEGIN
1070
    73
1070
     1
1070
    44
1040
1.0
1070
    74
1070
     0
1000
MTEXTEND
1000
MTEXTBEGIN
1070
    73
1070
     1
1070
    44
1040
1.0
1070
    74
1070
     0
1000
MTEXTEND
1000
MTEXTBEGIN
1070
    73
1070
     1
1070
    44
1040
1.0
1070
    74
1070
     0
1000
MTEXTEND
  0
POINT
  5
902
330
7E7
100
AcDbEntity
  8
DEFPOINTS
  6
BYBLOCK
 62
     0
100
AcDbPoint
 10
462.5760660697495
 20
228.6802383543323
 30
0.0
  0
POINT
  5
903
330
7E7
100
AcDbEntity
  8
DEFPOINTS
  6
BYBLOCK
 62
     0
100
AcDbPoint
 10
417.7782961805085
 20
240.4164854147549
 30
0.0
  0
POINT
  5
904
330
7E7
100
AcDbEntity
  8
DEFPOINTS
  6
BYBLOCK
 62
     0
100
AcDbPoint
 10
417.7782961805085
 20
259.492608626376
 30
0.0
  0
ENDBLK
  5
905
330
7E7
100
AcDbEntity
  8
0
100
AcDbBlockEnd
  0
BLOCK
  5
C7B
330
7F6
100
AcDbEntity
  8
0
100
AcDbBlockBegin
  2
*D9
 70
     1
 10
0.0
 20
0.0
 30
0.0
  3
*D9
  1

  0
LINE
  5
C7C
330
7F6
100
AcDbEntity
  8
0
  6
BYBLOCK
 62
     4
100
AcDbLine
 10
462.5760660697495
 20
234.6802383543323
 30
0.0
 11
462.5760660697495
 21
297.4182312723055
 31
0.0
  0
LINE
  5
C7D
330
7F6
100
AcDbEntity
  8
0
  6
BYBLOCK
 62
     4
100
AcDbLine
 10
302.9760961805085
 20
270.4141354147551
 30
0.0
 11
302.9760961805085
 21
297.4182312723055
 31
0.0
  0
LINE
  5
C7E
330
7F6
100
AcDbEntity
  8
0
  6
BYBLOCK
 62
     4
100
AcDbLine
 10
455.5760660697495
 20
294.4182312723055
 30
0.0
 11
309.9760961805085
 21
294.4182312723055
 31
0.0
  0
INSERT
  5
C7F
330
7F6
100
AcDbEntity
  8
0
  6
BYBLOCK
 62
     4
100
AcDbBlockReference
  2
_OPEN
 10
462.5760660697495
 20
294.4182312723055
 30
0.0
 41
7.0
 42
7.0
 43
7.0
  0
INSERT
  5
C80
330
7F6
100
AcDbEntity
  8
0
  6
BYBLOCK
 62
     4
100
AcDbBlockReference
  2
_OPEN
 10
302.9760961805085
 20
294.4182312723055
 30
0.0
 41
7.0
 42
7.0
 43
7.0
 50
180.0
  0
MTEXT
  5
C81
330
7F6
100
AcDbEntity
  8
0
  6
BYBLOCK
 62
     4
100
AcDbMText
 10
382.776081125129
 20
299.4182312723055
 30
0.0
 40
6.0
 41
0.0
 71
     5
 72
     5
  1
\A1;160
1001
ACAD
1000
MTEXTBEGIN
1070
    73
1070
     1
1070
    44
1040
1.0
1070
    74
1070
     0
1000
MTEXTEND
1000
MTEXTBEGIN
1070
    73
1070
     1
1070
    44
1040
1.0
1070
    74
1070
     0
1000
MTEXTEND
1000
MTEXTBEGIN
1070
    73
1070
     1
1070
    44
1040
1.0
1070
    74
1070
     0
1000
MTEXTEND
  0
POINT
  5
C82
330
7F6
100
AcDbEntity
  8
DEFPOINTS
  6
BYBLOCK
 62
     0
100
AcDbPoint
 10
462.5760660697495
 20
228.6802383543323
 30
0.0
  0
POINT
  5
C83
330
7F6
100
AcDbEntity
  8
DEFPOINTS
  6
BYBLOCK
 62
     0
100
AcDbPoint
 10
302.9760961805085
 20
264.4141354147551
 30
0.0
  0
POINT
  5
C84
330
7F6
100
AcDbEntity
  8
DEFPOINTS
  6
BYBLOCK
 62
     0
100
AcDbPoint
 10
302.9760961805085
 20
294.4182312723055
 30
0.0
  0
ENDBLK
  5
C85
330
7F6
100
AcDbEntity
  8
0
100
AcDbBlockEnd
  0
BLOCK
  5
C3B
330
C3A
100
AcDbEntity
  8
0
100
AcDbBlockBegin
  2
*D10
 70
     1
 10
0.0
 20
0.0
 30
0.0
  3
*D10
  1

  0
LINE
  5
C3C
330
C3A
100
AcDbEntity
  8
0
  6
BYBLOCK
 62
     4
100
AcDbLine
 10
468.1469809185884
 20
230.9084456487699
 30
0.0
 11
487.5757303251572
 21
238.6793921313822
 31
0.0
  0
LINE
  5
C3D
330
C3A
100
AcDbEntity
  8
0
  6
BYBLOCK
 62
     4
100
AcDbLine
 10
481.5049110293474
 20
197.5112427091926
 30
0.0
 11
500.9336604359162
 21
205.2821891918049
 31
0.0
  0
LINE
  5
C3E
330
C3A
100
AcDbEntity
  8
0
  6
BYBLOCK
 62
     4
100
AcDbLine
 10
487.3898480775816
 20
231.0658878271846
 30
0.0
 11
495.5486278346528
 21
210.6674862015649
 31
0.0
  0
INSERT
  5
C3F
330
C3A
100
AcDbEntity
  8
0
  6
BYBLOCK
 62
     4
100
AcDbBlockReference
  2
_OPEN
 10
484.7902729007377
 20
237.5652884841634
 30
0.0
 41
7.0
 42
7.0
 43
7.0
 50
111.8000028914318
  0
INSERT
  5
C40
330
C3A
100
AcDbEntity
  8
0
  6
BYBLOCK
 62
     4
100
AcDbBlockReference
  2
_OPEN
 10
498.1482030114968
 20
204.1680855445861
 30
0.0
 41
7.0
 42
7.0
 43
7.0
 50
291.8000028914318
  0
MTEXT
  5
C41
330
C3A
100
AcDbEntity
  8
0
  6
BYBLOCK
 62
     4
100
AcDbMText
 10
496.1116669968164
 20
222.7235264264061
 30
0.0
 40
6.0
 41
0.0
 71
     5
 72
     5
  1
\A1;36
 11
0.3713678824062774
 21
-0.9284858081398324
 31
0.0
1001
ACAD
1000
MTEXTBEGIN
1070
    73
1070
     1
1070
    44
1040
1.0
1070
    74
1070
     0
1000
MTEXTEND
1000
MTEXTBEGIN
1070
    73
1070
     1
1070
    44
1040
1.0
1070
    74
1070
     0
1000
MTEXTEND
1000
MTEXTBEGIN
1070
    73
1070
     1
1070
    44
1040
1.0
1070
    74
1070
     0
1000
MTEXTEND
  0
POINT
  5
C42
330
C3A
100
AcDbEntity
  8
DEFPOINTS
  6
BYBLOCK
 62
     0
100
AcDbPoint
 10
462.5760660697494
 20
228.6802383543323
 30
0.0
  0
POINT
  5
C43
330
C3A
100
AcDbEntity
  8
DEFPOINTS
  6
BYBLOCK
 62
     0
100
AcDbPoint
 10
475.9339961805085
 20
195.2830354147549
 30
0.0
  0
POINT
  5
C44
330
C3A
100
AcDbEntity
  8
DEFPOINTS
  6
BYBLOCK
 62
     0
100
AcDbPoint
 10
498.1482030114968
 20
204.1680855445861
 30
0.0
  0
ENDBLK
  5
C45
330
C3A
100
AcDbEntity
  8
0
100
AcDbBlockEnd
  0
BLOCK
  5
C87
330
C86
100
AcDbEntity
  8
0
100
AcDbBlockBegin
  2
*D11
 70
     1
 10
0.0
 20
0.0
 30
0.0
  3
*D11
  1

  0
LINE
  5
C88
330
C86
100
AcDbEntity
  8
0
  6
BYBLOCK
 62
     4
100
AcDbLine
 10
422.7832961805086
 20
241.4114854147551
 30
0.0
 11
523.2378856260493
 21
241.4114854147551
 31
0.0
  0
LINE
  5
C89
330
C86
100
AcDbEntity
  8
0
  6
BYBLOCK
 62
     4
100
AcDbLine
 10
481.9339961805087
 20
195.283035414755
 30
0.0
 11
523.2378856260493
 21
195.283035414755
 31
0.0
  0
LINE
  5
C8A
330
C86
100
AcDbEntity
  8
0
  6
BYBLOCK
 62
     4
100
AcDbLine
 10
520.2378856260493
 20
234.411485414755
 30
0.0
 11
520.2378856260493
 21
202.283035414755
 31
0.0
  0
INSERT
  5
C8B
330
C86
100
AcDbEntity
  8
0
  6
BYBLOCK
 62
     4
100
AcDbBlockReference
  2
_OPEN
 10
520.2378856260493
 20
241.4114854147551
 30
0.0
 41
7.0
 42
7.0
 43
7.0
 50
90.0
  0
INSERT
  5
C8C
330
C86
100
AcDbEntity
  8
0
  6
BYBLOCK
 62
     4
100
AcDbBlockReference
  2
_OPEN
 10
520.2378856260493
 20
195.283035414755
 30
0.0
 41
7.0
 42
7.0
 43
7.0
 50
270.0
  0
MTEXT
  5
C8D
330
C86
100
AcDbEntity
  8
0
  6
BYBLOCK
 62
     4
100
AcDbMText
 10
515.2378856260493
 20
218.347260414755
 30
0.0
 40
6.0
 41
0.0
 71
     5
 72
     5
  1
\A1;46
 11
0.0
 21
1.0
 31
0.0
1001
ACAD
1000
MTEXTBEGIN
1070
    73
1070
     1
1070
    44
1040
1.0
1070
    74
1070
     0
1000
MTEXTEND
1000
MTEXTBEGIN
1070
    73
1070
     1
1070
    44
1040
1.0
1070
    74
1070
     0
1000
MTEXTEND
1000
MTEXTBEGIN
1070
    73
1070
     1
1070
    44
1040
1.0
1070
    74
1070
     0
1000
MTEXTEND
  0
POINT
  5
C8E
330
C86
100
AcDbEntity
  8
DEFPOINTS
  6
BYBLOCK
 62
     0
100
AcDbPoint
 10
416.7832961805086
 20
241.4114854147551
 30
0.0
  0
POINT
  5
C8F
330
C86
100
AcDbEntity
  8
DEFPOINTS
  6
BYBLOCK
 62
     0
100
AcDbPoint
 10
475.9339961805086
 20
195.283035414755
 30
0.0
  0
POINT
  5
C90
330
C86
100
AcDbEntity
  8
DEFPOINTS
  6
BYBLOCK
 62
     0
100
AcDbPoint
 10
520.2378856260493
 20
195.283035414755
 30
0.0
  0
ENDBLK
  5
C91
330
C86
100
AcDbEntity
  8
0
100
AcDbBlockEnd
  0
BLOCK
  5
D47
330
D3A
100
AcDbEntity
  8
0
100
AcDbBlockBegin
  2
*D12
 70
     1
 10
0.0
 20
0.0
 30
0.0
  3
*D12
  1

  0
LINE
  5
D48
330
D3A
100
AcDbEntity
  8
0
  6
BYBLOCK
 62
     4
100
AcDbLine
 10
296.9760961805085
 20
264.4141354147551
 30
0.0
 11
281.0551017528059
 21
264.4141354147551
 31
0.0
  0
LINE
  5
D49
330
D3A
100
AcDbEntity
  8
0
  6
BYBLOCK
 62
     4
100
AcDbLine
 10
321.6555961805085
 20
191.414035414755
 30
0.0
 11
281.0551017528059
 21
191.414035414755
 31
0.0
  0
LINE
  5
D4A
330
D3A
100
AcDbEntity
  8
0
  6
BYBLOCK
 62
     4
100
AcDbLine
 10
284.055101752806
 20
257.4141354147551
 30
0.0
 11
284.055101752806
 21
198.414035414755
 31
0.0
  0
INSERT
  5
D4B
330
D3A
100
AcDbEntity
  8
0
  6
BYBLOCK
 62
     4
100
AcDbBlockReference
  2
_OPEN
 10
284.055101752806
 20
264.4141354147551
 30
0.0
 41
7.0
 42
7.0
 43
7.0
 50
90.0
  0
INSERT
  5
D4C
330
D3A
100
AcDbEntity
  8
0
  6
BYBLOCK
 62
     4
100
AcDbBlockReference
  2
_OPEN
 10
284.055101752806
 20
191.414035414755
 30
0.0
 41
7.0
 42
7.0
 43
7.0
 50
270.0
  0
MTEXT
  5
D4D
330
D3A
100
AcDbEntity
  8
0
  6
BYBLOCK
 62
     4
100
AcDbMText
 10
279.0551017528059
 20
227.9140854147551
 30
0.0
 40
6.0
 41
0.0
 71
     5
 72
     5
  1
\A1;73
 11
0.0
 21
1.0
 31
0.0
1001
ACAD
1000
MTEXTBEGIN
1070
    73
1070
     1
1070
    44
1040
1.0
1070
    74
1070
     0
1000
MTEXTEND
1000
MTEXTBEGIN
1070
    73
1070
     1
1070
    44
1040
1.0
1070
    74
1070
     0
1000
MTEXTEND
1000
MTEXTBEGIN
1070
    73
1070
     1
1070
    44
1040
1.0
1070
    74
1070
     0
1000
MTEXTEND
  0
POINT
  5
D4E
330
D3A
100
AcDbEntity
  8
DEFPOINTS
  6
BYBLOCK
 62
     0
100
AcDbPoint
 10
302.9760961805085
 20
264.4141354147551
 30
0.0
  0
POINT
  5
D4F
330
D3A
100
AcDbEntity
  8
DEFPOINTS
  6
BYBLOCK
 62
     0
100
AcDbPoint
 10
327.6555961805085
 20
191.414035414755
 30
0.0
  0
POINT
  5
D50
330
D3A
100
AcDbEntity
  8
DEFPOINTS
  6
BYBLOCK
 62
     0
100
AcDbPoint
 10
284.055101752806
 20
191.414035414755
 30
0.0
  0
ENDBLK
  5
D51
330
D3A
100
AcDbEntity
  8
0
100
AcDbBlockEnd
  0
BLOCK
  5
D60
330
D5F
100
AcDbEntity
  8
0
100
AcDbBlockBegin
  2
*D13
 70
     1
 10
0.0
 20
0.0
 30
0.0
  3
*D13
  1

  0
LINE
  5
D61
330
D5F
100
AcDbEntity
  8
0
  6
BYBLOCK
 62
     4
100
AcDbLine
 10
470.3638707064214
 20
225.3658265809174
 30
0.0
 11
478.1539733582779
 21
228.4816457998923
 31
0.0
  0
LINE
  5
D62
330
D5F
100
AcDbEntity
  8
0
  6
BYBLOCK
 62
     4
100
AcDbLine
 10
481.5049110293477
 20
197.5112427091927
 30
0.0
 11
489.2950136812042
 21
200.6270619281676
 31
0.0
  0
LINE
  5
D63
330
D5F
100
AcDbEntity
  8
0
  6
BYBLOCK
 62
     4
100
AcDbLine
 10
477.9680911107025
 20
220.8681414956947
 30
0.0
 11
483.9099810799408
 21
206.0123589379275
 31
0.0
  0
INSERT
  5
D64
330
D5F
100
AcDbEntity
  8
0
  6
BYBLOCK
 62
     4
100
AcDbBlockReference
  2
_OPEN
 10
475.3685159338585
 20
227.3675421526735
 30
0.0
 41
7.0
 42
7.0
 43
7.0
 50
111.8000028914321
  0
INSERT
  5
D65
330
D5F
100
AcDbEntity
  8
0
  6
BYBLOCK
 62
     4
100
AcDbBlockReference
  2
_OPEN
 10
486.5095562567847
 20
199.5129582809487
 30
0.0
 41
7.0
 42
7.0
 43
7.0
 50
291.8000028914321
  0
MTEXT
  5
D66
330
D5F
100
AcDbEntity
  8
0
  6
BYBLOCK
 62
     4
100
AcDbMText
 10
485.5814651360208
 20
215.2970896288425
 30
0.0
 40
6.0
 41
0.0
 71
     5
 72
     5
  1
\A1;30
 11
0.3713678824062823
 21
-0.9284858081398301
 31
0.0
1001
ACAD
1000
MTEXTBEGIN
1070
    73
1070
     1
1070
    44
1040
1.0
1070
    74
1070
     0
1000
MTEXTEND
1000
MTEXTBEGIN
1070
    73
1070
     1
1070
    44
1040
1.0
1070
    74
1070
     0
1000
MTEXTEND
1000
MTEXTBEGIN
1070
    73
1070
     1
1070
    44
1040
1.0
1070
    74
1070
     0
1000
MTEXTEND
  0
POINT
  5
D67
330
D5F
100
AcDbEntity
  8
DEFPOINTS
  6
BYBLOCK
 62
     0
100
AcDbPoint
 10
464.7929558575825
 20
223.1376192864797
 30
0.0
  0
POINT
  5
D68
330
D5F
100
AcDbEntity
  8
DEFPOINTS
  6
BYBLOCK
 62
     0
100
AcDbPoint
 10
475.9339961805087
 20
195.283035414755
 30
0.0
  0
POINT
  5
D69
330
D5F
100
AcDbEntity
  8
DEFPOINTS
  6
BYBLOCK
 62
     0
100
AcDbPoint
 10
486.5095562567847
 20
199.5129582809487
 30
0.0
  0
ENDBLK
  5
D6A
330
D5F
100
AcDbEntity
  8
0
100
AcDbBlockEnd
  0
BLOCK
  5
DB1
330
D7B
100
AcDbEntity
  8
0
100
AcDbBlockBegin
  2
*D14
 70
     1
 10
0.0
 20
0.0
 30
0.0
  3
*D14
  1

  0
LINE
  5
DB2
330
D7B
100
AcDbEntity
  8
0
  6
BYBLOCK
 62
     4
100
AcDbLine
 10
476.7356942381884
 20
189.1415802006483
 30
0.0
 11
486.1902934315175
 21
165.5024585634236
 31
0.0
  0
LINE
  5
DB3
330
D7B
100
AcDbEntity
  8
0
  6
BYBLOCK
 62
     4
100
AcDbLine
 10
478.1621270277153
 20
189.7120899898091
 30
0.0
 11
487.6167262210444
 21
166.0729683525843
 31
0.0
  0
LINE
  5
DB4
330
D7B
100
AcDbEntity
  8
0
  6
BYBLOCK
 62
     4
100
AcDbLine
 10
478.5767916788106
 20
165.6884452874886
 30
0.0
 11
472.077355349707
 21
163.0889592990806
 31
0.0
  0
LINE
  5
DB5
330
D7B
100
AcDbEntity
  8
0
  6
BYBLOCK
 62
     4
100
AcDbLine
 10
493.0020971265445
 20
171.4579270534652
 30
0.0
 11
518.0713515388011
 21
181.4845158658957
 31
0.0
  0
LINE
  5
DB6
330
D7B
100
AcDbEntity
  8
0
  6
BYBLOCK
 62
     4
100
AcDbLine
 10
485.0762280079141
 20
168.2879312758965
 30
0.0
 11
486.502660797441
 21
168.8584410650572
 31
0.0
  0
INSERT
  5
DB7
330
D7B
100
AcDbEntity
  8
0
  6
BYBLOCK
 62
     4
100
AcDbBlockReference
  2
_OPEN
 10
485.0762280079141
 20
168.2879312758965
 30
0.0
 41
7.0
 42
7.0
 43
7.0
 50
21.79921664863627
  0
INSERT
  5
DB8
330
D7B
100
AcDbEntity
  8
0
  6
BYBLOCK
 62
     4
100
AcDbBlockReference
  2
_OPEN
 10
486.502660797441
 20
168.8584410650572
 30
0.0
 41
7.0
 42
7.0
 43
7.0
 50
201.7992166486362
  0
MTEXT
  5
DB9
330
D7B
100
AcDbEntity
  8
0
  6
BYBLOCK
 62
     4
100
AcDbMText
 10
506.929666791219
 20
182.4134189746726
 30
0.0
 40
6.0
 41
0.0
 71
     5
 72
     5
  1
\A1;t1.5
 11
0.928490904157649
 21
0.3713551412011303
 31
0.0
1001
ACAD
1000
MTEXTBEGIN
1070
    73
1070
     1
1070
    44
1040
1.0
1070
    74
1070
     0
1000
MTEXTEND
1000
MTEXTBEGIN
1070
    73
1070
     1
1070
    44
1040
1.0
1070
    74
1070
     0
1000
MTEXTEND
1000
MTEXTBEGIN
1070
    73
1070
     1
1070
    44
1040
1.0
1070
    74
1070
     0
1000
MTEXTEND
  0
POINT
  5
DBA
330
D7B
100
AcDbEntity
  8
DEFPOINTS
  6
BYBLOCK
 62
     0
100
AcDbPoint
 10
474.5075633909817
 20
194.7125256255942
 30
0.0
  0
POINT
  5
DBB
330
D7B
100
AcDbEntity
  8
DEFPOINTS
  6
BYBLOCK
 62
     0
100
AcDbPoint
 10
475.9339961805086
 20
195.2830354147549
 30
0.0
  0
POINT
  5
DBC
330
D7B
100
AcDbEntity
  8
DEFPOINTS
  6
BYBLOCK
 62
     0
100
AcDbPoint
 10
486.502660797441
 20
168.8584410650572
 30
0.0
  0
ENDBLK
  5
DBD
330
D7B
100
AcDbEntity
  8
0
100
AcDbBlockEnd
  0
ENDSEC
  0
SECTION
  2
ENTITIES
  0
INSERT
  5
33E
330
1A
100
AcDbEntity
  8
0
100
AcDbBlockReference
  2
A$C1305
 10
303.5932370960747
 20
191.3019147774528
 30
0.0
  0
LINE
  5
33F
330
1A
100
AcDbEntity
  8
SEIHIN
  6
CONTINUOUS
 62
     3
 48
16.0
100
AcDbLine
 10
397.2150961805086
 20
174.881235414755
 30
0.0
 11
379.7514961805087
 21
174.881235414755
 31
0.0
  0
LINE
  5
340
330
1A
100
AcDbEntity
  8
SEIHIN
  6
CONTINUOUS
 62
     3
 48
16.0
100
AcDbLine
 10
367.3144961805085
 20
363.9139354147551
 30
0.0
 11
407.5761961805086
 21
363.9139354147551
 31
0.0
  0
LINE
  5
341
330
1A
100
AcDbEntity
  8
SEIHIN
  6
CONTINUOUS
 62
     3
 48
16.0
100
AcDbLine
 10
360.7760961805086
 20
190.6140354147551
 30
0.0
 11
394.3315961805085
 21
190.6140354147551
 31
0.0
  0
LINE
  5
342
330
1A
100
AcDbEntity
  8
SEIHIN
  6
CONTINUOUS
 62
     3
 48
16.0
100
AcDbLine
 10
400.8381961805086
 20
170.025335414755
 30
0.0
 11
375.9679961805086
 21
170.025335414755
 31
0.0
  0
LINE
  5
343
330
1A
100
AcDbEntity
  8
SEIHIN
  6
CONTINUOUS
 62
     3
 48
16.0
100
AcDbLine
 10
360.7760961805086
 20
191.414035414755
 30
0.0
 11
393.8965961805085
 21
191.414035414755
 31
0.0
  0
LINE
  5
344
330
1A
100
AcDbEntity
  8
SEIHIN
  6
CONTINUOUS
 62
     3
 48
16.0
100
AcDbLine
 10
393.8965961805085
 20
187.414035414755
 30
0.0
 11
373.1681508086616
 21
187.414035414755
 31
0.0
  0
LINE
  5
345
330
1A
100
AcDbEntity
  8
SEIHIN
  6
CONTINUOUS
 62
     3
 48
16.0
100
AcDbLine
 10
360.7761961805087
 20
358.913935414755
 30
0.0
 11
407.5761961805086
 21
358.913935414755
 31
0.0
  0
LINE
  5
346
330
1A
100
AcDbEntity
  8
CENTER_L
  6
CENTER
 62
     1
 48
5.0
100
AcDbLine
 10
360.7761961805087
 20
366.4140354147551
 30
0.0
 11
482.5559961805085
 21
366.4140354147551
 31
0.0
  0
LINE
  5
347
330
1A
100
AcDbEntity
  8
SEIHIN
  6
CONTINUOUS
 62
     3
 48
16.0
100
AcDbLine
 10
360.7761961805087
 20
355.4139354147551
 30
0.0
 11
393.8966961805086
 21
355.4139354147551
 31
0.0
  0
LINE
  5
348
330
1A
100
AcDbEntity
  8
SEIHIN
  6
CONTINUOUS
 62
     3
 48
16.0
100
AcDbLine
 10
360.7761961805087
 20
377.4140354147552
 30
0.0
 11
393.8966961805086
 21
377.4140354147552
 31
0.0
  0
LINE
  5
349
330
1A
100
AcDbEntity
  8
SEIHIN
  6
CONTINUOUS
 62
     3
 48
16.0
100
AcDbLine
 10
367.3144961805085
 20
368.9140354147551
 30
0.0
 11
407.5761961805086
 21
368.9140354147551
 31
0.0
  0
LINE
  5
34A
330
1A
100
AcDbEntity
  8
SEIHIN
  6
CONTINUOUS
 62
     3
 48
16.0
100
AcDbLine
 10
360.7761961805087
 20
373.9140354147552
 30
0.0
 11
407.5761961805086
 21
373.9140354147552
 31
0.0
  0
ARC
  5
354
330
1A
100
AcDbEntity
  8
SEIHIN
  6
CONTINUOUS
 62
     3
 48
16.0
100
AcDbCircle
 10
218.7760961805085
 20
172.025335414755
 30
0.0
 40
2.000000000000042
100
AcDbArc
 50
270.0000000000012
 51
0.0000000000012213
  0
LINE
  5
355
330
1A
100
AcDbEntity
  8
SEIHIN
  6
CONTINUOUS
 62
     3
 48
16.0
100
AcDbLine
 10
200.7760961805086
 20
190.914235414755
 30
0.0
 11
200.7760961805086
 21
172.0253354147551
 31
0.0
  0
LINE
  5
356
330
1A
100
AcDbEntity
  8
CENTER_L
  6
CENTER
 62
     1
 48
5.0
100
AcDbLine
 10
210.7760961805086
 20
165.870435414755
 30
0.0
 11
210.7761961805086
 21
267.6872354147551
 31
0.0
  0
LINE
  5
357
330
1A
100
AcDbEntity
  8
SEIHIN
  6
CONTINUOUS
 62
     3
 48
16.0
100
AcDbLine
 10
210.7760961805086
 20
170.025335414755
 30
0.0
 11
202.7760961805086
 21
170.025335414755
 31
0.0
  0
ARC
  5
358
330
1A
100
AcDbEntity
  8
SEIHIN
  6
CONTINUOUS
 62
     3
 48
16.0
100
AcDbCircle
 10
202.7760961805086
 20
172.025335414755
 30
0.0
 40
2.000000000000042
100
AcDbArc
 50
179.9999999999987
 51
269.9999999999987
  0
LINE
  5
359
330
1A
100
AcDbEntity
  8
SEIHIN
  6
CONTINUOUS
 62
     3
 48
16.0
100
AcDbLine
 10
210.7760961805086
 20
170.025335414755
 30
0.0
 11
218.7760961805086
 21
170.025335414755
 31
0.0
  0
ELLIPSE
  5
35F
330
1A
100
AcDbEntity
  8
SEIHIN
  6
CONTINUOUS
100
AcDbEllipse
 10
187.0855065756999
 20
199.9255094740491
 30
0.0
 11
-2.000000000000004
 21
0.0000000000003535
 31
0.0
210
0.0
220
0.0
230
1.0
 40
0.9284861787512969
 41
0.1643544353233967
 42
2.977238218266637
  0
ELLIPSE
  5
360
330
1A
100
AcDbEntity
  8
SEIHIN
  6
CONTINUOUS
100
AcDbEllipse
 10
187.0855065756999
 20
218.4954118540064
 30
0.0
 11
-2.000000000000004
 21
0.0000000000003535
 31
0.0
210
0.0
220
0.0
230
1.0
 40
0.9284861787512969
 41
0.1643544353233967
 42
2.977238218266637
  0
ELLIPSE
  5
361
330
1A
100
AcDbEntity
  8
SEIHIN
  6
CONTINUOUS
100
AcDbEllipse
 10
187.085569931189
 20
199.3178972050302
 30
0.0
 11
1.999999999996141
 21
-0.0000039286247469
 31
0.0
210
0.0
220
0.0
230
-1.0
 40
0.9284861787512994
 41
0.0000000000000476
 42
6.283185307179634
  0
ELLIPSE
  5
362
330
1A
100
AcDbEntity
  8
SEIHIN
  6
CONTINUOUS
100
AcDbEllipse
 10
187.085606408278
 20
217.8877995849516
 30
0.0
 11
1.999999999996141
 21
-0.0000039286247469
 31
0.0
210
0.0
220
0.0
230
-1.0
 40
0.9284861787512994
 41
0.0000000000000323
 42
6.283185307179618
  0
LINE
  5
363
330
1A
100
AcDbEntity
  8
CENTER_L
  6
CENTER
 62
     1
 48
5.0
100
AcDbLine
 10
190.8949597138532
 20
199.3178505526735
 30
0.0
 11
183.3332383188692
 21
199.3178505526735
 31
0.0
  0
LINE
  5
364
330
1A
100
AcDbEntity
  8
CENTER_L
  6
CENTER
 62
     1
 48
5.0
100
AcDbLine
 10
190.8949597138532
 20
217.8877529326307
 30
0.0
 11
183.3332383188692
 21
217.8877529326308
 31
0.0
  0
LINE
  5
366
330
1A
100
AcDbEntity
  8
SEIHIN
  6
CONTINUOUS
 62
     3
 48
16.0
100
AcDbLine
 10
200.2317961805086
 20
192.7110354147551
 30
0.0
 11
184.0260961805086
 21
192.7110354147551
 31
0.0
  0
LINE
  5
367
330
1A
100
AcDbEntity
  8
SEIHIN
  6
CONTINUOUS
 62
     3
 48
16.0
100
AcDbLine
 10
182.0260961805086
 20
194.7110354147551
 30
0.0
 11
182.0260961805086
 21
221.1376354147551
 31
0.0
  0
LINE
  5
368
330
1A
100
AcDbEntity
  8
CENTER_L
  6
CENTER
 62
     1
 48
5.0
100
AcDbLine
 10
187.0855065756999
 20
194.7835080752869
 30
0.0
 11
187.0855065756999
 21
203.185508075287
 31
0.0
  0
ARC
  5
369
330
1A
100
AcDbEntity
  8
SEIHIN
  6
CONTINUOUS
 62
     3
 48
16.0
100
AcDbCircle
 10
184.0260961805086
 20
194.7110354147551
 30
0.0
 40
2.0
100
AcDbArc
 50
180.0
 51
270.0
  0
LINE
  5
36A
330
1A
100
AcDbEntity
  8
CENTER_L
  6
CENTER
 62
     1
 48
5.0
100
AcDbLine
 10
187.0855065756999
 20
213.0351080752869
 30
0.0
 11
187.0855065756999
 21
222.130108075287
 31
0.0
  0
LINE
  5
3A8
330
1A
100
AcDbEntity
  8
SEIHIN
  6
CONTINUOUS
 62
     3
 48
16.0
100
AcDbLine
 10
374.8085961805086
 20
179.1280354147551
 30
0.0
 11
373.8230961805086
 21
185.595635414755
 31
0.0
  0
LINE
  5
3A9
330
1A
100
AcDbEntity
  8
SEIHIN
  6
CONTINUOUS
 62
     3
 48
16.0
100
AcDbLine
 10
356.7683961805085
 20
186.183435414755
 30
0.0
 11
356.7683961805085
 21
183.380435414755
 31
0.0
  0
LINE
  5
3AA
330
1A
100
AcDbEntity
  8
SEIHIN
  6
CONTINUOUS
 62
     3
 48
16.0
100
AcDbLine
 10
364.7837961805085
 20
183.380435414755
 30
0.0
 11
364.7837961805085
 21
186.183435414755
 31
0.0
  0
LINE
  5
3AB
330
1A
100
AcDbEntity
  8
CENTER_L
  6
CENTER
 62
     1
 48
5.0
100
AcDbLine
 10
360.7760961805086
 20
201.2349354147551
 30
0.0
 11
360.7760961805086
 21
179.129635414755
 31
0.0
  0
ARC
  5
3AC
330
1A
100
AcDbEntity
  8
SEIHIN
  6
CONTINUOUS
 62
     3
 48
16.0
100
AcDbCircle
 10
365.0530542237074
 20
181.1834721225245
 30
0.0
 40
4.999963292406514
100
AcDbArc
 50
7.634524188049387
 51
89.99951920694511
  0
LINE
  5
3AD
330
1A
100
AcDbEntity
  8
SEIHIN
  6
CONTINUOUS
 62
     3
 48
16.0
100
AcDbLine
 10
220.7760961805086
 20
190.9141354147551
 30
0.0
 11
220.7760961805086
 21
172.0253354147551
 31
0.0
  0
LINE
  5
3AE
330
1A
100
AcDbEntity
  8
SEIHIN
  6
CONTINUOUS
 62
     3
 48
16.0
100
AcDbLine
 10
356.7683961805085
 20
183.380435414755
 30
0.0
 11
364.7837961805085
 21
183.380435414755
 31
0.0
  0
ARC
  5
3AF
330
1A
100
AcDbEntity
  8
SEIHIN
  6
CONTINUOUS
 62
     3
 48
16.0
100
AcDbCircle
 10
375.9680381373098
 20
175.0252987069856
 30
0.0
 40
4.999963292406585
100
AcDbArc
 50
187.634524188048
 51
269.9995192069441
  0
LINE
  5
3B0
330
1A
100
AcDbEntity
  8
SEIHIN
  6
CONTINUOUS
 62
     3
 48
16.0
100
AcDbLine
 10
371.0123961805086
 20
174.3610354147551
 30
0.0
 11
370.0086961805085
 21
181.8477354147551
 31
0.0
  0
ARC
  5
3B1
330
1A
100
AcDbEntity
  8
SEIHIN
  6
CONTINUOUS
 62
     3
 48
16.0
100
AcDbCircle
 10
379.7515211671419
 20
179.8812139471629
 30
0.0
 40
4.999978532470326
100
AcDbArc
 50
188.6638059500169
 51
269.9997136730445
  0
LINE
  5
3B2
330
1A
100
AcDbEntity
  8
SEIHIN
  6
CONTINUOUS
 62
     3
 48
16.0
100
AcDbLine
 10
316.6471961805086
 20
203.5263354147551
 30
0.0
 11
311.3091961805086
 21
228.8818354147551
 31
0.0
  0
LINE
  5
3B3
330
1A
100
AcDbEntity
  8
SEIHIN
  6
CONTINUOUS
 62
     3
 48
16.0
100
AcDbLine
 10
315.9274961805087
 20
203.0617354147551
 30
0.0
 11
310.5263961805087
 21
228.717035414755
 31
0.0
  0
ARC
  5
3B4
330
1A
100
AcDbEntity
  8
SEIHIN
  6
CONTINUOUS
 62
     3
 48
16.0
100
AcDbCircle
 10
317.5172029084823
 20
203.7624282735089
 30
0.0
 40
4.999946441217435
100
AcDbArc
 50
191.8880899322041
 51
254.6981512804587
  0
ARC
  5
3B5
330
1A
100
AcDbEntity
  8
SEIHIN
  6
CONTINUOUS
 62
     3
 48
16.0
100
AcDbCircle
 10
317.1995002340244
 20
203.3296358171365
 30
0.0
 40
1.30000744173545
100
AcDbArc
 50
191.8924974139157
 51
255.5178360550781
  0
LINE
  5
3B6
330
1A
100
AcDbEntity
  8
SEIHIN
  6
CONTINUOUS
 62
     3
 48
16.0
100
AcDbLine
 10
303.7760961805085
 20
264.4141354147551
 30
0.0
 11
303.7760961805085
 21
230.4140354147551
 31
0.0
  0
LINE
  5
3B7
330
1A
100
AcDbEntity
  8
SEIHIN
  6
CONTINUOUS
 62
     3
 48
16.0
100
AcDbLine
 10
302.9760961805085
 20
264.4141354147551
 30
0.0
 11
302.9760961805085
 21
230.4140354147551
 31
0.0
  0
LINE
  5
3B9
330
1A
100
AcDbEntity
  8
SEIHIN
  6
CONTINUOUS
 62
     3
 48
16.0
100
AcDbLine
 10
239.5260961805086
 20
194.7110354147551
 30
0.0
 11
239.5260961805086
 21
221.1376354147551
 31
0.0
  0
LINE
  5
3BB
330
1A
100
AcDbEntity
  8
CENTER_L
  6
CENTER
 62
     1
 48
5.0
100
AcDbLine
 10
238.5338089662498
 20
199.3178505526735
 30
0.0
 11
230.5183833947674
 21
199.3178505526735
 31
0.0
  0
LINE
  5
3BC
330
1A
100
AcDbEntity
  8
SEIHIN
  6
CONTINUOUS
 62
     3
 48
16.0
100
AcDbLine
 10
221.3203961805086
 20
192.7110354147551
 30
0.0
 11
237.5260961805086
 21
192.7110354147551
 31
0.0
  0
LINE
  5
3BD
330
1A
100
AcDbEntity
  8
CENTER_L
  6
CENTER
 62
     1
 48
5.0
100
AcDbLine
 10
234.5855065756999
 20
194.7834080752869
 30
0.0
 11
234.5855065756999
 21
203.185508075287
 31
0.0
  0
ELLIPSE
  5
3C1
330
1A
100
AcDbEntity
  8
SEIHIN
  6
CONTINUOUS
100
AcDbEllipse
 10
234.5855065756999
 20
199.9255094740491
 30
0.0
 11
2.000000000000016
 21
0.0000000000003348
 31
0.0
210
0.0
220
0.0
230
1.0
 40
0.9284861787512914
 41
-2.977238218266767
 42
-0.1643544353235109
  0
ELLIPSE
  5
3C2
330
1A
100
AcDbEntity
  8
SEIHIN
  6
CONTINUOUS
100
AcDbEllipse
 10
234.5855065756999
 20
199.3178505526735
 30
0.0
 11
-2.0
 21
0.0
 31
0.0
210
0.0
220
0.0
230
1.0
 40
0.9284861787512994
 41
0.0000000000000459
 42
6.283185307179632
  0
ARC
  5
3C3
330
1A
100
AcDbEntity
  8
SEIHIN
  6
CONTINUOUS
 62
     3
 48
16.0
100
AcDbCircle
 10
237.5260961805086
 20
194.7110354147551
 30
0.0
 40
2.0
100
AcDbArc
 50
270.0
 51
0.0
  0
LINE
  5
3C4
330
1A
100
AcDbEntity
  8
CENTER_L
  6
CENTER
 62
     1
 48
5.0
100
AcDbLine
 10
238.5338089662498
 20
217.8877529326308
 30
0.0
 11
230.5183833947674
 21
217.8877529326308
 31
0.0
  0
ELLIPSE
  5
3C6
330
1A
100
AcDbEntity
  8
SEIHIN
  6
CONTINUOUS
100
AcDbEllipse
 10
234.5855065756999
 20
217.8877529326308
 30
0.0
 11
-2.0
 21
0.0
 31
0.0
210
0.0
220
0.0
230
1.0
 40
0.9284861787512994
 41
0.0000000000000459
 42
6.283185307179632
  0
LINE
  5
3C7
330
1A
100
AcDbEntity
  8
CENTER_L
  6
CENTER
 62
     1
 48
5.0
100
AcDbLine
 10
234.5855065756999
 20
213.0351080752869
 30
0.0
 11
234.5855065756999
 21
222.130108075287
 31
0.0
  0
ELLIPSE
  5
3CA
330
1A
100
AcDbEntity
  8
SEIHIN
  6
CONTINUOUS
100
AcDbEllipse
 10
234.5855065756999
 20
218.4954118540064
 30
0.0
 11
2.000000000000016
 21
0.0000000000003348
 31
0.0
210
0.0
220
0.0
230
1.0
 40
0.9284861787512914
 41
-2.977238218266767
 42
-0.1643544353235109
  0
LINE
  5
3CE
330
1A
100
AcDbEntity
  8
SEIHIN
  6
CONTINUOUS
 62
     3
 48
16.0
100
AcDbLine
 10
312.6244961805086
 20
202.732435414755
 30
0.0
 11
307.0704961805085
 21
229.1140354147551
 31
0.0
  0
LINE
  5
3CF
330
1A
100
AcDbEntity
  8
SEIHIN
  6
CONTINUOUS
 62
     3
 48
16.0
100
AcDbLine
 10
310.0370961805086
 20
229.1140354147551
 30
0.0
 11
304.2760961805086
 21
229.1140354147551
 31
0.0
  0
LINE
  5
3D0
330
1A
100
AcDbEntity
  8
SEIHIN
  6
CONTINUOUS
 62
     3
 48
16.0
100
AcDbLine
 10
310.0370961805086
 20
229.9140354147551
 30
0.0
 11
304.2760961805086
 21
229.9140354147551
 31
0.0
  0
ARC
  5
3D1
330
1A
100
AcDbEntity
  8
SEIHIN
  6
CONTINUOUS
 62
     3
 48
16.0
100
AcDbCircle
 10
304.2760961805086
 20
230.4140354147552
 30
0.0
 40
0.5000000000000569
100
AcDbArc
 50
180.0000000000065
 51
270.0000000000065
  0
ARC
  5
3D2
330
1A
100
AcDbEntity
  8
SEIHIN
  6
CONTINUOUS
 62
     3
 48
16.0
100
AcDbCircle
 10
304.2760961805086
 20
230.4140354147552
 30
0.0
 40
1.300000000000054
100
AcDbArc
 50
180.0000000000031
 51
270.0000000000031
  0
ARC
  5
3D3
330
1A
100
AcDbEntity
  8
SEIHIN
  6
CONTINUOUS
 62
     3
 48
16.0
100
AcDbCircle
 10
310.0371106549507
 20
228.6140236700309
 30
0.0
 40
0.500011744933657
100
AcDbArc
 50
11.88913635188792
 51
90.00165860992394
  0
ARC
  5
3D4
330
1A
100
AcDbEntity
  8
SEIHIN
  6
CONTINUOUS
 62
     3
 48
16.0
100
AcDbCircle
 10
310.0370855743722
 20
228.6140440205813
 30
0.0
 40
1.299991394217035
100
AcDbArc
 50
11.88773659712914
 51
89.9995325454773
  0
LINE
  5
3D5
330
1A
100
AcDbEntity
  8
SEIHIN
  6
CONTINUOUS
 62
     3
 48
16.0
100
AcDbLine
 10
303.7760961805085
 20
264.4141354147551
 30
0.0
 11
302.9760961805085
 21
264.4141354147551
 31
0.0
  0
LINE
  5
3D6
330
1A
100
AcDbEntity
  8
SEIHIN
  6
CONTINUOUS
 62
     3
 48
16.0
100
AcDbLine
 10
360.7760961805086
 20
191.414035414755
 30
0.0
 11
327.6555961805085
 21
191.414035414755
 31
0.0
  0
LINE
  5
3D7
330
1A
100
AcDbEntity
  8
SEIHIN
  6
CONTINUOUS
 62
     3
 48
16.0
100
AcDbLine
 10
327.6555961805085
 20
187.414035414755
 30
0.0
 11
353.0663961805085
 21
187.414035414755
 31
0.0
  0
LINE
  5
3D8
330
1A
100
AcDbEntity
  8
SEIHIN
  6
CONTINUOUS
 62
     3
 48
16.0
100
AcDbLine
 10
360.7760961805086
 20
190.6140354147551
 30
0.0
 11
327.2205961805085
 21
190.6140354147551
 31
0.0
  0
ARC
  5
3D9
330
1A
100
AcDbEntity
  8
SEIHIN
  6
CONTINUOUS
 62
     3
 48
16.0
100
AcDbCircle
 10
313.8224192086713
 20
190.2588230971646
 30
0.0
 40
12.2000229852242
100
AcDbArc
 50
7.04260335525976
 51
75.5129264023566
  0
ARC
  5
3DA
330
1A
100
AcDbEntity
  8
SEIHIN
  6
CONTINUOUS
 62
     3
 48
16.0
100
AcDbCircle
 10
313.8224507081697
 20
190.2587863138191
 30
0.0
 40
9.000037130307168
100
AcDbArc
 50
8.855862160644395
 51
74.69750366409496
  0
ARC
  5
3DB
330
1A
100
AcDbEntity
  8
SEIHIN
  6
CONTINUOUS
 62
     3
 48
16.0
100
AcDbCircle
 10
313.8224915800857
 20
190.2587406060946
 30
0.0
 40
12.99998939865032
100
AcDbArc
 50
8.856111933885406
 51
74.23680372393824
  0
ARC
  5
3DC
330
1A
100
AcDbEntity
  8
SEIHIN
  6
CONTINUOUS
 62
     3
 48
16.0
100
AcDbCircle
 10
327.6555967498406
 20
192.4140349272549
 30
0.0
 40
4.999999512499991
100
AcDbArc
 50
188.8553201291488
 51
269.9999934759336
  0
ARC
  5
3DD
330
1A
100
AcDbEntity
  8
SEIHIN
  6
CONTINUOUS
 62
     3
 48
16.0
100
AcDbCircle
 10
327.6555883503927
 20
192.41404211971
 30
0.0
 40
1.000006704985651
100
AcDbArc
 50
188.8533344002516
 51
270.0004486295807
  0
ARC
  5
3DE
330
1A
100
AcDbEntity
  8
SEIHIN
  6
CONTINUOUS
 62
     3
 48
16.0
100
AcDbCircle
 10
327.2205908728251
 20
191.9140401070458
 30
0.0
 40
1.300004692301466
100
AcDbArc
 50
187.0432508395375
 51
270.0002339282774
  0
ARC
  5
3DF
330
1A
100
AcDbEntity
  8
SEIHIN
  6
CONTINUOUS
 62
     3
 48
16.0
100
AcDbCircle
 10
317.6257232446808
 20
203.7323064574087
 30
0.0
 40
0.9999696424037496
100
AcDbArc
 50
191.8867149828855
 51
254.2383994571513
  0
LINE
  5
3E0
330
1A
100
AcDbEntity
  8
SEIHIN
  6
CONTINUOUS
 62
     3
 48
16.0
100
AcDbLine
 10
354.9605961805085
 20
186.183435414755
 30
0.0
 11
365.0530961805085
 21
186.183435414755
 31
0.0
  0
LINE
  5
3E1
330
1A
100
AcDbEntity
  8
SEIHIN
  6
CONTINUOUS
 62
     3
 48
16.0
100
AcDbLine
 10
353.0663961805085
 20
189.8424354147551
 30
0.0
 11
368.8801961805085
 21
189.8424354147551
 31
0.0
  0
LINE
  5
3E2
330
1A
100
AcDbEntity
  8
SEIHIN
  6
CONTINUOUS
 62
     3
 48
16.0
100
AcDbLine
 10
353.0663961805085
 20
187.414035414755
 30
0.0
 11
353.0663961805085
 21
189.8424354147551
 31
0.0
  0
LINE
  5
3E3
330
1A
100
AcDbEntity
  8
SEIHIN
  6
CONTINUOUS
 62
     3
 48
16.0
100
AcDbLine
 10
354.9605961805085
 20
186.183435414755
 30
0.0
 11
353.0663961805085
 21
187.414035414755
 31
0.0
  0
ARC
  5
3E4
330
1A
100
AcDbEntity
  8
SEIHIN
  6
CONTINUOUS
 62
     3
 48
16.0
100
AcDbCircle
 10
368.8801711938752
 20
184.8424568823471
 30
0.0
 40
4.999978532470417
100
AcDbArc
 50
8.663805950017367
 51
89.99971367304492
  0
LINE
  5
3E9
330
1A
100
AcDbEntity
  8
CENTER_L
  6
CENTER
 62
     1
 48
5.0
100
AcDbLine
 10
360.7760961805086
 20
366.4139354147551
 30
0.0
 11
296.9424961805085
 21
366.4140354147551
 31
0.0
  0
LINE
  5
3EA
330
1A
100
AcDbEntity
  8
SEIHIN
  6
CONTINUOUS
 62
     3
 48
16.0
100
AcDbLine
 10
354.2378961805086
 20
363.9139354147551
 30
0.0
 11
310.6092961805086
 21
363.9140354147551
 31
0.0
  0
LINE
  5
3EB
330
1A
100
AcDbEntity
  8
SEIHIN
  6
CONTINUOUS
 62
     3
 48
16.0
100
AcDbLine
 10
360.7760961805086
 20
358.913935414755
 30
0.0
 11
310.6092961805086
 21
358.9140354147551
 31
0.0
  0
LINE
  5
3EC
330
1A
100
AcDbEntity
  8
SEIHIN
  6
CONTINUOUS
 62
     3
 48
16.0
100
AcDbLine
 10
316.6472961805085
 20
355.4140354147552
 30
0.0
 11
303.7761961805086
 21
355.4140354147552
 31
0.0
  0
LINE
  5
3ED
330
1A
100
AcDbEntity
  8
SEIHIN
  6
CONTINUOUS
 62
     3
 48
16.0
100
AcDbLine
 10
354.2378961805086
 20
368.9140354147551
 30
0.0
 11
310.6092961805086
 21
368.913935414755
 31
0.0
  0
LINE
  5
3EE
330
1A
100
AcDbEntity
  8
SEIHIN
  6
CONTINUOUS
 62
     3
 48
16.0
100
AcDbLine
 10
360.7760961805086
 20
373.9140354147552
 30
0.0
 11
310.6092961805086
 21
373.913935414755
 31
0.0
  0
LINE
  5
3EF
330
1A
100
AcDbEntity
  8
SEIHIN
  6
CONTINUOUS
 62
     3
 48
16.0
100
AcDbLine
 10
316.6472961805085
 20
377.413935414755
 30
0.0
 11
303.7761961805086
 21
377.413935414755
 31
0.0
  0
ARC
  5
3F0
330
1A
100
AcDbEntity
  8
SEIHIN
  6
CONTINUOUS
 62
     3
 48
16.0
100
AcDbCircle
 10
310.6092961805086
 20
371.413935414755
 30
0.0
 40
2.5
100
AcDbArc
 50
90.0
 51
270.0
  0
LINE
  5
3F1
330
1A
100
AcDbEntity
  8
SEIHIN
  6
CONTINUOUS
 62
     3
 48
16.0
100
AcDbLine
 10
303.7761961805086
 20
366.4140354147551
 30
0.0
 11
303.7761961805086
 21
378.9139354147551
 31
0.0
  0
LINE
  5
3F2
330
1A
100
AcDbEntity
  8
SEIHIN
  6
CONTINUOUS
 62
     3
 48
16.0
100
AcDbLine
 10
302.9761961805085
 20
378.9140354147552
 30
0.0
 11
302.9761961805085
 21
366.414135414755
 31
0.0
  0
LINE
  5
3F3
330
1A
100
AcDbEntity
  8
SEIHIN
  6
CONTINUOUS
 62
     3
 48
16.0
100
AcDbLine
 10
311.3092961805087
 20
355.4140354147552
 30
0.0
 11
311.3092961805087
 21
358.9140354147551
 31
0.0
  0
LINE
  5
3F4
330
1A
100
AcDbEntity
  8
SEIHIN
  6
CONTINUOUS
 62
     3
 48
16.0
100
AcDbLine
 10
302.9761961805085
 20
353.9140354147551
 30
0.0
 11
302.9761961805085
 21
366.4139354147551
 31
0.0
  0
LINE
  5
3F5
330
1A
100
AcDbEntity
  8
SEIHIN
  6
CONTINUOUS
 62
     3
 48
16.0
100
AcDbLine
 10
303.7761961805086
 20
366.4139354147551
 30
0.0
 11
303.7761961805086
 21
353.9140354147551
 31
0.0
  0
LINE
  5
3F6
330
1A
100
AcDbEntity
  8
SEIHIN
  6
CONTINUOUS
 62
     3
 48
16.0
100
AcDbLine
 10
303.7761961805086
 20
353.9140354147551
 30
0.0
 11
302.9761961805085
 21
353.9140354147551
 31
0.0
  0
LINE
  5
3F7
330
1A
100
AcDbEntity
  8
SEIHIN
  6
CONTINUOUS
 62
     3
 48
16.0
100
AcDbLine
 10
311.3092961805087
 20
363.9140354147551
 30
0.0
 11
311.3092961805087
 21
366.4140354147551
 31
0.0
  0
LINE
  5
3F8
330
1A
100
AcDbEntity
  8
SEIHIN
  6
CONTINUOUS
 62
     3
 48
16.0
100
AcDbLine
 10
311.3092961805087
 20
368.9140354147551
 30
0.0
 11
311.3092961805087
 21
366.4140354147551
 31
0.0
  0
ARC
  5
3F9
330
1A
100
AcDbEntity
  8
SEIHIN
  6
CONTINUOUS
 62
     3
 48
16.0
100
AcDbCircle
 10
310.6092961805086
 20
361.4140354147551
 30
0.0
 40
2.5
100
AcDbArc
 50
90.0
 51
270.0
  0
LINE
  5
3FA
330
1A
100
AcDbEntity
  8
SEIHIN
  6
CONTINUOUS
 62
     3
 48
16.0
100
AcDbLine
 10
303.7761961805086
 20
378.9139354147551
 30
0.0
 11
302.9761961805085
 21
378.9139354147551
 31
0.0
  0
LINE
  5
3FB
330
1A
100
AcDbEntity
  8
SEIHIN
  6
CONTINUOUS
 62
     3
 48
16.0
100
AcDbLine
 10
311.3092961805087
 20
377.4140354147552
 30
0.0
 11
311.3092961805087
 21
373.913935414755
 31
0.0
  0
ARC
  5
3FC
330
1A
100
AcDbEntity
  8
SEIHIN
  6
CONTINUOUS
 62
     3
 48
16.0
100
AcDbCircle
 10
360.7761961805087
 20
366.4140354147551
 30
0.0
 40
5.0
100
AcDbArc
 50
0.0
 51
180.0
  0
ARC
  5
3FD
330
1A
100
AcDbEntity
  8
SEIHIN
  6
CONTINUOUS
 62
     3
 48
16.0
100
AcDbCircle
 10
360.7761961805086
 20
366.4140354147552
 30
0.0
 40
6.999954777710965
100
AcDbArc
 50
20.92497395880684
 51
159.0750260411931
  0
LINE
  5
3FE
330
1A
100
AcDbEntity
  8
CENTER_L
  6
CENTER
 62
     1
 48
5.0
100
AcDbLine
 10
360.7761961805087
 20
348.935635414755
 30
0.0
 11
360.7761961805087
 21
383.0939354147549
 31
0.0
  0
LINE
  5
3FF
330
1A
100
AcDbEntity
  8
SEIHIN
  6
CONTINUOUS
 62
     3
 48
16.0
100
AcDbLine
 10
360.7760961805086
 20
355.4139354147551
 30
0.0
 11
327.6556961805086
 21
355.4140354147552
 31
0.0
  0
LINE
  5
400
330
1A
100
AcDbEntity
  8
SEIHIN
  6
CONTINUOUS
 62
     3
 48
16.0
100
AcDbLine
 10
327.6556961805086
 20
355.4139354147551
 30
0.0
 11
327.6556961805086
 21
358.9140354147551
 31
0.0
  0
LINE
  5
401
330
1A
100
AcDbEntity
  8
SEIHIN
  6
CONTINUOUS
 62
     3
 48
16.0
100
AcDbLine
 10
316.6472961805085
 20
355.4140354147552
 30
0.0
 11
316.6472961805085
 21
358.9140354147551
 31
0.0
  0
ARC
  5
402
330
1A
100
AcDbEntity
  8
SEIHIN
  6
CONTINUOUS
 62
     3
 48
16.0
100
AcDbCircle
 10
322.1514961805086
 20
326.0409354147548
 30
0.0
 40
29.88426587085612
100
AcDbArc
 50
79.38644552492004
 51
100.6135544750799
  0
LINE
  5
403
330
1A
100
AcDbEntity
  8
SEIHIN
  6
CONTINUOUS
 62
     3
 48
16.0
100
AcDbLine
 10
316.6472961805085
 20
363.9140354147551
 30
0.0
 11
316.6472961805085
 21
366.4140354147551
 31
0.0
  0
LINE
  5
404
330
1A
100
AcDbEntity
  8
SEIHIN
  6
CONTINUOUS
 62
     3
 48
16.0
100
AcDbLine
 10
316.6472961805085
 20
368.9140354147551
 30
0.0
 11
316.6472961805085
 21
366.4140354147551
 31
0.0
  0
LINE
  5
405
330
1A
100
AcDbEntity
  8
SEIHIN
  6
CONTINUOUS
 62
     3
 48
16.0
100
AcDbLine
 10
327.6556961805086
 20
363.9140354147551
 30
0.0
 11
327.6556961805086
 21
366.4139354147551
 31
0.0
  0
LINE
  5
406
330
1A
100
AcDbEntity
  8
SEIHIN
  6
CONTINUOUS
 62
     3
 48
16.0
100
AcDbLine
 10
327.6556961805086
 20
368.9140354147551
 30
0.0
 11
327.6556961805086
 21
366.4140354147551
 31
0.0
  0
ARC
  5
407
330
1A
100
AcDbEntity
  8
SEIHIN
  6
CONTINUOUS
 62
     3
 48
16.0
100
AcDbCircle
 10
360.7761961805087
 20
366.4140354147551
 30
0.0
 40
5.0
100
AcDbArc
 50
180.0
 51
0.0
  0
ARC
  5
408
330
1A
100
AcDbEntity
  8
SEIHIN
  6
CONTINUOUS
 62
     3
 48
16.0
100
AcDbCircle
 10
360.7761961805086
 20
366.4140354147551
 30
0.0
 40
6.999990492850596
100
AcDbArc
 50
200.9257384892645
 51
339.0742615107354
  0
LINE
  5
409
330
1A
100
AcDbEntity
  8
SEIHIN
  6
CONTINUOUS
 62
     3
 48
16.0
100
AcDbLine
 10
362.7761961805087
 20
364.4140354147551
 30
0.0
 11
362.7761961805087
 21
368.4140354147551
 31
0.0
  0
LINE
  5
40B
330
1A
100
AcDbEntity
  8
SEIHIN
  6
CONTINUOUS
 62
     3
 48
16.0
100
AcDbLine
 10
358.7761961805087
 20
364.4140354147551
 30
0.0
 11
358.7761961805087
 21
368.4140354147551
 31
0.0
  0
LINE
  5
40D
330
1A
100
AcDbEntity
  8
SEIHIN
  6
CONTINUOUS
 62
     3
 48
16.0
100
AcDbLine
 10
358.7761961805087
 20
364.4140354147551
 30
0.0
 11
362.7761961805087
 21
364.4140354147551
 31
0.0
  0
LINE
  5
40E
330
1A
100
AcDbEntity
  8
SEIHIN
  6
CONTINUOUS
 62
     3
 48
16.0
100
AcDbLine
 10
358.7761961805087
 20
368.4140354147551
 30
0.0
 11
362.7761961805087
 21
368.4140354147551
 31
0.0
  0
LINE
  5
40F
330
1A
100
AcDbEntity
  8
SEIHIN
  6
CONTINUOUS
 62
     3
 48
16.0
100
AcDbLine
 10
360.7760961805086
 20
377.4140354147552
 30
0.0
 11
327.6556961805086
 21
377.4140354147552
 31
0.0
  0
ARC
  5
410
330
1A
100
AcDbEntity
  8
SEIHIN
  6
CONTINUOUS
 62
     3
 48
16.0
100
AcDbCircle
 10
322.1514461805085
 20
406.7870354148373
 30
0.0
 40
29.88425666178313
100
AcDbArc
 50
259.3865397477245
 51
280.6134602522754
  0
LINE
  5
411
330
1A
100
AcDbEntity
  8
SEIHIN
  6
CONTINUOUS
 62
     3
 48
16.0
100
AcDbLine
 10
316.6472961805085
 20
377.4140354147552
 30
0.0
 11
316.6472961805085
 21
373.913935414755
 31
0.0
  0
LINE
  5
412
330
1A
100
AcDbEntity
  8
SEIHIN
  6
CONTINUOUS
 62
     3
 48
16.0
100
AcDbLine
 10
327.6556961805086
 20
377.4140354147552
 30
0.0
 11
327.6556961805086
 21
373.9140354147552
 31
0.0
  0
LINE
  5
41A
330
1A
100
AcDbEntity
  8
SEIHIN
  6
CONTINUOUS
 62
     3
 48
16.0
100
AcDbLine
 10
415.1953506051883
 20
221.8848389658525
 30
0.0
 11
405.7433961805084
 21
174.055935414755
 31
0.0
  0
LINE
  5
41B
330
1A
100
AcDbEntity
  8
SEIHIN
  6
CONTINUOUS
 62
     3
 48
16.0
100
AcDbLine
 10
411.1190961805085
 20
224.463435414755
 30
0.0
 11
402.0839961805084
 21
178.7438354147551
 31
0.0
  0
ARC
  5
41C
330
1A
100
AcDbEntity
  8
SEIHIN
  6
CONTINUOUS
 62
     3
 48
16.0
100
AcDbCircle
 10
397.2150877330663
 20
179.881228713246
 30
0.0
 40
4.99999329849807
100
AcDbArc
 50
270.0000968006883
 51
346.8513068508626
  0
ARC
  5
41D
330
1A
100
AcDbEntity
  8
SEIHIN
  6
CONTINUOUS
 62
     3
 48
16.0
100
AcDbCircle
 10
400.8382401979294
 20
175.0253715844933
 30
0.0
 40
5.000036169932031
100
AcDbArc
 50
269.999495601162
 51
348.8203556848361
  0
LINE
  5
41E
330
1A
100
AcDbEntity
  8
SEIHIN
  6
CONTINUOUS
 62
     3
 48
16.0
100
AcDbLine
 10
417.7760961805086
 20
244.2624354147551
 30
0.0
 11
417.7760961805086
 21
230.4140354147551
 31
0.0
  0
LINE
  5
41F
330
1A
100
AcDbEntity
  8
SEIHIN
  6
CONTINUOUS
 62
     3
 48
16.0
100
AcDbLine
 10
418.5760961805086
 20
244.2624354147551
 30
0.0
 11
418.5760961805086
 21
230.4140354147551
 31
0.0
  0
LINE
  5
420
330
1A
100
AcDbEntity
  8
SEIHIN
  6
CONTINUOUS
 62
     3
 48
16.0
100
AcDbLine
 10
411.5150961805086
 20
229.9140354147551
 30
0.0
 11
417.2760961805085
 21
229.9140354147551
 31
0.0
  0
LINE
  5
421
330
1A
100
AcDbEntity
  8
SEIHIN
  6
CONTINUOUS
 62
     3
 48
16.0
100
AcDbLine
 10
411.5150961805086
 20
229.1140354147551
 30
0.0
 11
417.2760961805085
 21
229.1140354147551
 31
0.0
  0
ARC
  5
422
330
1A
100
AcDbEntity
  8
SEIHIN
  6
CONTINUOUS
 62
     3
 48
16.0
100
AcDbCircle
 10
416.0243392821603
 20
223.494071415537
 30
0.0
 40
5.000009541057022
100
AcDbArc
 50
90.92070199441677
 51
168.8211383848322
  0
LINE
  5
423
330
1A
100
AcDbEntity
  8
SEIHIN
  6
CONTINUOUS
 62
     3
 48
16.0
100
AcDbLine
 10
414.2855783611095
 20
228.1820140207837
 30
0.0
 11
414.4817961805085
 21
229.1140354147551
 31
0.0
  0
LINE
  5
424
330
1A
100
AcDbEntity
  8
SEIHIN
  6
CONTINUOUS
 62
     3
 48
16.0
100
AcDbLine
 10
404.9049961805085
 20
203.5263354147551
 30
0.0
 11
410.2429961805087
 21
228.8818354147551
 31
0.0
  0
LINE
  5
425
330
1A
100
AcDbEntity
  8
SEIHIN
  6
CONTINUOUS
 62
     3
 48
16.0
100
AcDbLine
 10
405.6246961805086
 20
203.0617354147551
 30
0.0
 11
411.0257961805086
 21
228.717035414755
 31
0.0
  0
ARC
  5
426
330
1A
100
AcDbEntity
  8
SEIHIN
  6
CONTINUOUS
 62
     3
 48
16.0
100
AcDbCircle
 10
407.7298416528473
 20
190.2587863138191
 30
0.0
 40
9.000037130307161
100
AcDbArc
 50
105.3024963359049
 51
171.1441378393556
  0
ARC
  5
427
330
1A
100
AcDbEntity
  8
SEIHIN
  6
CONTINUOUS
 62
     3
 48
16.0
100
AcDbCircle
 10
407.7298296300457
 20
190.2587735191135
 30
0.0
 40
12.20008511552039
100
AcDbArc
 50
104.4872721562738
 51
172.9571980861119
  0
ARC
  5
428
330
1A
100
AcDbEntity
  8
SEIHIN
  6
CONTINUOUS
 62
     3
 48
16.0
100
AcDbCircle
 10
407.7297567940794
 20
190.2586909688214
 30
0.0
 40
13.0000523859124
100
AcDbArc
 50
105.763374430302
 51
171.1437099118754
  0
ARC
  5
429
330
1A
100
AcDbEntity
  8
SEIHIN
  6
CONTINUOUS
 62
     3
 48
16.0
100
AcDbCircle
 10
393.8965956111763
 20
192.4140349272549
 30
0.0
 40
4.999999512499957
100
AcDbArc
 50
270.0000065240667
 51
351.1446798708515
  0
ARC
  5
42A
330
1A
100
AcDbEntity
  8
SEIHIN
  6
CONTINUOUS
 62
     3
 48
16.0
100
AcDbCircle
 10
394.3316014881921
 20
191.9140401070459
 30
0.0
 40
1.300004692301633
100
AcDbArc
 50
269.9997660717162
 51
352.9567491604564
  0
ARC
  5
42B
330
1A
100
AcDbEntity
  8
SEIHIN
  6
CONTINUOUS
 62
     3
 48
16.0
100
AcDbCircle
 10
393.8966040106244
 20
192.4140421197102
 30
0.0
 40
1.000006704985824
100
AcDbArc
 50
269.9995513704111
 51
351.1466655997403
  0
ARC
  5
42C
330
1A
100
AcDbEntity
  8
SEIHIN
  6
CONTINUOUS
 62
     3
 48
16.0
100
AcDbCircle
 10
404.0349894525349
 20
203.762428273509
 30
0.0
 40
4.999946441217565
100
AcDbArc
 50
285.3018487195384
 51
294.7857549401506
  0
ARC
  5
42D
330
1A
100
AcDbEntity
  8
SEIHIN
  6
CONTINUOUS
 62
     3
 48
16.0
100
AcDbCircle
 10
403.926415737907
 20
203.73235634267
 30
0.0
 40
1.000032152173577
100
AcDbArc
 50
285.763767446298
 51
348.111118113665
  0
ARC
  5
42E
330
1A
100
AcDbEntity
  8
SEIHIN
  6
CONTINUOUS
 62
     3
 48
16.0
100
AcDbCircle
 10
404.3526280023923
 20
203.3295687139663
 30
0.0
 40
1.299958509315886
100
AcDbArc
 50
284.4856400648897
 51
348.1100708326136
  0
ARC
  5
42F
330
1A
100
AcDbEntity
  8
SEIHIN
  6
CONTINUOUS
 62
     3
 48
16.0
100
AcDbCircle
 10
411.5150817060666
 20
228.6140236700309
 30
0.0
 40
0.5000117449336595
100
AcDbArc
 50
89.99834139007605
 51
168.110863648112
  0
ARC
  5
430
330
1A
100
AcDbEntity
  8
SEIHIN
  6
CONTINUOUS
 62
     3
 48
16.0
100
AcDbCircle
 10
411.5151067866452
 20
228.6140440205813
 30
0.0
 40
1.299991394217067
100
AcDbArc
 50
90.00046745452145
 51
168.1122634028699
  0
LINE
  5
431
330
1A
100
AcDbEntity
  8
SEIHIN
  6
CONTINUOUS
 62
     3
 48
16.0
100
AcDbLine
 10
471.4289961805085
 20
193.4812354147551
 30
0.0
 11
459.8766467486317
 21
222.3642488643915
 31
0.0
  0
LINE
  5
433
330
1A
100
AcDbEntity
  8
SEIHIN
  6
CONTINUOUS
 62
     3
 48
16.0
100
AcDbLine
 10
475.9339961805086
 20
195.283035414755
 30
0.0
 11
463.8550961805086
 21
225.482435414755
 31
0.0
  0
LINE
  5
434
330
1A
100
AcDbEntity
  8
SEIHIN
  6
CONTINUOUS
 62
     3
 48
16.0
100
AcDbLine
 10
475.9339961805086
 20
195.283035414755
 30
0.0
 11
471.4289961805085
 21
193.4812354147551
 31
0.0
  0
LINE
  5
435
330
1A
100
AcDbEntity
  8
CENTER_L
  6
CENTER
 62
     1
 48
5.0
100
AcDbLine
 10
480.5765505044247
 20
202.5250569361082
 30
0.0
 11
466.6132961805085
 21
196.9402354147551
 31
0.0
  0
LINE
  5
436
330
1A
100
AcDbEntity
  8
CENTER_L
  6
CENTER
 62
     1
 48
5.0
100
AcDbLine
 10
473.1491128335176
 20
221.0949731701027
 30
0.0
 11
459.1858961805085
 21
215.510135414755
 31
0.0
  0
LINE
  5
438
330
1A
100
AcDbEntity
  8
SEIHIN
  6
CONTINUOUS
 62
     3
 48
16.0
100
AcDbLine
 10
459.1323961804414
 20
228.6249354147548
 30
0.0
 11
415.9439961805087
 21
228.4934354147551
 31
0.0
  0
ARC
  5
43C
330
1A
100
AcDbEntity
  8
SEIHIN
  6
CONTINUOUS
 62
     3
 48
16.0
100
AcDbCircle
 10
417.2760961805086
 20
230.4140354147552
 30
0.0
 40
1.300000000000054
100
AcDbArc
 50
269.9999999999974
 51
359.9999999999968
  0
ARC
  5
43D
330
1A
100
AcDbEntity
  8
SEIHIN
  6
CONTINUOUS
 62
     3
 48
16.0
100
AcDbCircle
 10
417.2760961805086
 20
230.4140354147552
 30
0.0
 40
0.5000000000000569
100
AcDbArc
 50
269.9999999999934
 51
359.9999999999934
  0
LINE
  5
43E
330
1A
100
AcDbEntity
  8
SEIHIN
  6
CONTINUOUS
 62
     3
 48
16.0
100
AcDbLine
 10
463.3665211108865
 20
222.5670770511697
 30
0.0
 11
464.7929961805086
 21
223.1376354147551
 31
0.0
  0
ARC
  5
43F
330
1A
100
AcDbEntity
  8
SEIHIN
  6
CONTINUOUS
 62
     3
 48
16.0
100
AcDbCircle
 10
459.2127061177844
 20
223.6256288024311
 30
0.0
 40
4.999951628771082
100
AcDbArc
 50
21.79981978501242
 51
90.92033257094545
  0
LINE
  5
440
330
1A
100
AcDbEntity
  8
SEIHIN
  6
CONTINUOUS
 62
     3
 48
16.0
100
AcDbLine
 10
408.5731961805086
 20
240.6227354147551
 30
0.0
 11
417.7760961805086
 21
244.9140354147551
 31
0.0
  0
LINE
  5
441
330
1A
100
AcDbEntity
  8
SEIHIN
  6
CONTINUOUS
 62
     3
 48
16.0
100
AcDbLine
 10
416.9396961805087
 20
245.518135414755
 30
0.0
 11
407.9097961805087
 21
243.0986354147551
 31
0.0
  0
LINE
  5
442
330
1A
100
AcDbEntity
  8
SEIHIN
  6
CONTINUOUS
 62
     3
 48
16.0
100
AcDbLine
 10
408.1167961805085
 20
242.3259354147552
 30
0.0
 11
417.1466961805085
 21
244.7454354147551
 31
0.0
  0
LINE
  5
443
330
1A
100
AcDbEntity
  8
SEIHIN
  6
CONTINUOUS
 62
     3
 48
16.0
100
AcDbLine
 10
407.9097961805087
 20
243.0986354147551
 30
0.0
 11
408.5731961805086
 21
240.6227354147551
 31
0.0
  0
ARC
  5
446
330
1A
100
AcDbEntity
  8
SEIHIN
  6
CONTINUOUS
 62
     3
 48
16.0
100
AcDbCircle
 10
417.2761062863564
 20
244.2624276598847
 30
0.0
 40
1.29998989417532
100
AcDbArc
 50
0.0003417883053617
 51
104.9976256188607
  0
ARC
  5
447
330
1A
100
AcDbEntity
  8
SEIHIN
  6
CONTINUOUS
 62
     3
 48
16.0
100
AcDbCircle
 10
417.276079501065
 20
244.2624482138404
 30
0.0
 40
0.500016679607472
100
AcDbArc
 50
359.9985333817932
 51
104.9963795636866
  0
LINE
  5
483
330
1A
100
AcDbEntity
  8
SEIHIN
  6
CONTINUOUS
 62
     3
 48
16.0
100
AcDbLine
 10
474.4147961805087
 20
374.8139354147551
 30
0.0
 11
474.4147961805087
 21
366.5140354147552
 31
0.0
  0
LINE
  5
484
330
1A
100
AcDbEntity
  8
SEIHIN
  6
CONTINUOUS
 62
     3
 48
16.0
100
AcDbLine
 10
418.5761961805085
 20
378.9140354147552
 30
0.0
 11
418.5761961805085
 21
366.4140354147551
 31
0.0
  0
LINE
  5
485
330
1A
100
AcDbEntity
  8
SEIHIN
  6
CONTINUOUS
 62
     3
 48
16.0
100
AcDbLine
 10
407.5761961805086
 20
366.4140354147551
 30
0.0
 11
407.5761961805086
 21
375.4140354147552
 31
0.0
  0
LINE
  5
486
330
1A
100
AcDbEntity
  8
SEIHIN
  6
CONTINUOUS
 62
     3
 48
16.0
100
AcDbLine
 10
418.5761961805085
 20
357.4140354147552
 30
0.0
 11
407.5761961805086
 21
357.4140354147552
 31
0.0
  0
LINE
  5
487
330
1A
100
AcDbEntity
  8
SEIHIN
  6
CONTINUOUS
 62
     3
 48
16.0
100
AcDbLine
 10
404.9049961805085
 20
355.4139354147551
 30
0.0
 11
417.7761961805087
 21
355.4139354147551
 31
0.0
  0
ARC
  5
488
330
1A
100
AcDbEntity
  8
SEIHIN
  6
CONTINUOUS
 62
     3
 48
16.0
100
AcDbCircle
 10
399.4008461805086
 20
326.0409354146732
 30
0.0
 40
29.88425666178281
100
AcDbArc
 50
79.38653974772461
 51
100.6134602522753
  0
LINE
  5
489
330
1A
100
AcDbEntity
  8
SEIHIN
  6
CONTINUOUS
 62
     3
 48
16.0
100
AcDbLine
 10
393.8966961805086
 20
355.4139354147551
 30
0.0
 11
393.8966961805086
 21
358.913935414755
 31
0.0
  0
LINE
  5
48A
330
1A
100
AcDbEntity
  8
SEIHIN
  6
CONTINUOUS
 62
     3
 48
16.0
100
AcDbLine
 10
393.8966961805086
 20
363.9139354147551
 30
0.0
 11
393.8966961805086
 21
366.4139354147551
 31
0.0
  0
LINE
  5
48B
330
1A
100
AcDbEntity
  8
SEIHIN
  6
CONTINUOUS
 62
     3
 48
16.0
100
AcDbLine
 10
393.8966961805086
 20
368.9140354147551
 30
0.0
 11
393.8966961805086
 21
366.4140354147551
 31
0.0
  0
LINE
  5
48C
330
1A
100
AcDbEntity
  8
SEIHIN
  6
CONTINUOUS
 62
     3
 48
16.0
100
AcDbLine
 10
404.9049961805085
 20
355.4139354147551
 30
0.0
 11
404.9049961805085
 21
358.913935414755
 31
0.0
  0
LINE
  5
48D
330
1A
100
AcDbEntity
  8
SEIHIN
  6
CONTINUOUS
 62
     3
 48
16.0
100
AcDbLine
 10
407.5761961805086
 20
366.4140354147551
 30
0.0
 11
407.5761961805086
 21
357.4140354147552
 31
0.0
  0
LINE
  5
48E
330
1A
100
AcDbEntity
  8
SEIHIN
  6
CONTINUOUS
 62
     3
 48
16.0
100
AcDbLine
 10
410.2430961805087
 20
355.4139354147551
 30
0.0
 11
410.2430961805087
 21
357.4140354147552
 31
0.0
  0
LINE
  5
48F
330
1A
100
AcDbEntity
  8
SEIHIN
  6
CONTINUOUS
 62
     3
 48
16.0
100
AcDbLine
 10
404.9049961805085
 20
363.9139354147551
 30
0.0
 11
404.9049961805085
 21
366.4139354147551
 31
0.0
  0
LINE
  5
490
330
1A
100
AcDbEntity
  8
SEIHIN
  6
CONTINUOUS
 62
     3
 48
16.0
100
AcDbLine
 10
404.9049961805085
 20
368.9140354147551
 30
0.0
 11
404.9049961805085
 21
366.4140354147551
 31
0.0
  0
LINE
  5
491
330
1A
100
AcDbEntity
  8
SEIHIN
  6
CONTINUOUS
 62
     3
 48
16.0
100
AcDbLine
 10
475.9340961805087
 20
339.6640354147552
 30
0.0
 11
475.9340961805087
 21
356.5139354147549
 31
0.0
  0
LINE
  5
492
330
1A
100
AcDbEntity
  8
CENTER_L
  6
CENTER
 62
     1
 48
5.0
100
AcDbLine
 10
474.0772961805086
 20
338.9643354147551
 30
0.0
 11
474.0772961805086
 21
345.8891354147551
 31
0.0
  0
LINE
  5
493
330
1A
100
AcDbEntity
  8
SEIHIN
  6
CONTINUOUS
 62
     3
 48
16.0
100
AcDbLine
 10
464.7930067347096
 20
339.6640459689005
 30
0.0
 11
464.7930961805086
 21
356.613935414755
 31
0.0
  0
LINE
  5
494
330
1A
100
AcDbEntity
  8
SEIHIN
  6
CONTINUOUS
 62
     3
 48
16.0
100
AcDbLine
 10
463.3665211108865
 20
339.6640354147551
 30
0.0
 11
463.3665211108865
 21
355.4140354147552
 31
0.0
  0
LINE
  5
496
330
1A
100
AcDbEntity
  8
CENTER_L
  6
CENTER
 62
     1
 48
5.0
100
AcDbLine
 10
466.6498961805086
 20
338.9643354147551
 30
0.0
 11
466.6498961805086
 21
345.8891354147551
 31
0.0
  0
LINE
  5
497
330
1A
100
AcDbEntity
  8
CENTER_L
  6
CENTER
 62
     1
 48
5.0
100
AcDbLine
 10
468.8069961805086
 20
342.6640354147551
 30
0.0
 11
464.0049961805086
 21
342.6640354147551
 31
0.0
  0
LINE
  5
498
330
1A
100
AcDbEntity
  8
SEIHIN
  6
CONTINUOUS
 62
     3
 48
16.0
100
AcDbLine
 10
473.9340961805087
 20
337.6640354147552
 30
0.0
 11
465.2771961805085
 21
337.6640354147551
 31
0.0
  0
ARC
  5
499
330
1A
100
AcDbEntity
  8
SEIHIN
  6
CONTINUOUS
100
AcDbCircle
 10
476.3978831029691
 20
342.6640354147564
 30
0.0
 40
3.063514919939104
100
AcDbArc
 50
139.2435621123428
 51
220.7564378876942
  0
LINE
  5
49A
330
1A
100
AcDbEntity
  8
CENTER_L
  6
CENTER
 62
     1
 48
5.0
100
AcDbLine
 10
477.5492961805086
 20
342.6640354147551
 30
0.0
 11
471.1315961805085
 21
342.6640354147551
 31
0.0
  0
ARC
  5
49B
330
1A
100
AcDbEntity
  8
SEIHIN
  6
CONTINUOUS
100
AcDbCircle
 10
468.9704831029692
 20
342.6640354147564
 30
0.0
 40
3.063514919939104
100
AcDbArc
 50
139.2435621123428
 51
220.7564378876942
  0
ARC
  5
49C
330
1A
100
AcDbEntity
  8
SEIHIN
  6
CONTINUOUS
100
AcDbCircle
 10
464.3293092580481
 20
342.6640354147564
 30
0.0
 40
3.063514919939104
100
AcDbArc
 50
319.2435621123057
 51
40.75643788765717
  0
ARC
  5
49D
330
1A
100
AcDbEntity
  8
SEIHIN
  6
CONTINUOUS
100
AcDbCircle
 10
471.7567092580481
 20
342.6640354147564
 30
0.0
 40
3.063514919939104
100
AcDbArc
 50
319.2435621123057
 51
40.75643788765717
  0
LINE
  5
49E
330
1A
100
AcDbEntity
  8
SEIHIN
  6
CONTINUOUS
 62
     3
 48
16.0
100
AcDbLine
 10
474.4147961805087
 20
357.5139354147551
 30
0.0
 11
418.5761961805085
 21
357.5139354147551
 31
0.0
  0
ARC
  5
49F
330
1A
100
AcDbEntity
  8
SEIHIN
  6
CONTINUOUS
 62
     3
 48
16.0
100
AcDbCircle
 10
463.7930961805085
 20
356.513935414755
 30
0.0
 40
1.000000000000113
100
AcDbArc
 50
0.0
 51
90.0
  0
LINE
  5
4A1
330
1A
100
AcDbEntity
  8
SEIHIN
  6
CONTINUOUS
 62
     3
 48
16.0
100
AcDbLine
 10
418.5761961805085
 20
353.9139354147551
 30
0.0
 11
418.5761961805085
 21
366.4139354147551
 31
0.0
  0
LINE
  5
4A2
330
1A
100
AcDbEntity
  8
SEIHIN
  6
CONTINUOUS
 62
     3
 48
16.0
100
AcDbLine
 10
462.3665211108864
 20
356.4140354147551
 30
0.0
 11
418.5761961805085
 21
356.4140354147551
 31
0.0
  0
LINE
  5
4A3
330
1A
100
AcDbEntity
  8
SEIHIN
  6
CONTINUOUS
 62
     3
 48
16.0
100
AcDbLine
 10
417.7761961805087
 20
353.9140354147551
 30
0.0
 11
418.5760961805086
 21
353.9140354147551
 31
0.0
  0
LINE
  5
4A4
330
1A
100
AcDbEntity
  8
SEIHIN
  6
CONTINUOUS
 62
     3
 48
16.0
100
AcDbLine
 10
417.7761961805087
 20
357.4140354147552
 30
0.0
 11
417.7761961805087
 21
353.9139354147551
 31
0.0
  0
ARC
  5
4A6
330
1A
100
AcDbEntity
  8
SEIHIN
  6
CONTINUOUS
 62
     3
 48
16.0
100
AcDbCircle
 10
474.9340961805085
 20
356.5139354147549
 30
0.0
 40
1.000000000000142
100
AcDbArc
 50
0.0000000000016284
 51
90.00000000000161
  0
LINE
  5
4A7
330
1A
100
AcDbEntity
  8
SEIHIN
  6
CONTINUOUS
 62
     3
 48
16.0
100
AcDbLine
 10
474.9340961805085
 20
357.5139354147551
 30
0.0
 11
474.9147961805086
 21
357.5139354147551
 31
0.0
  0
ARC
  5
4A8
330
1A
100
AcDbEntity
  8
SEIHIN
  6
CONTINUOUS
 62
     3
 48
16.0
100
AcDbCircle
 10
474.9147961805086
 20
358.013935414755
 30
0.0
 40
0.4999999999999432
100
AcDbArc
 50
180.0000000000065
 51
270.0000000000065
  0
LINE
  5
4A9
330
1A
100
AcDbEntity
  8
SEIHIN
  6
CONTINUOUS
 62
     3
 48
16.0
100
AcDbLine
 10
474.4147961805087
 20
358.0139354147549
 30
0.0
 11
474.4147961805087
 21
366.3139354147551
 31
0.0
  0
LINE
  5
4AA
330
1A
100
AcDbEntity
  8
SEIHIN
  6
CONTINUOUS
 62
     3
 48
16.0
100
AcDbLine
 10
418.5761961805085
 20
375.4140354147552
 30
0.0
 11
407.5761961805086
 21
375.4140354147552
 31
0.0
  0
LINE
  5
4AB
330
1A
100
AcDbEntity
  8
SEIHIN
  6
CONTINUOUS
 62
     3
 48
16.0
100
AcDbLine
 10
404.9049961805085
 20
377.4140354147552
 30
0.0
 11
417.7761961805087
 21
377.4140354147552
 31
0.0
  0
ARC
  5
4AC
330
1A
100
AcDbEntity
  8
SEIHIN
  6
CONTINUOUS
 62
     3
 48
16.0
100
AcDbCircle
 10
399.4007961805085
 20
406.7871354147551
 30
0.0
 40
29.88426587085578
100
AcDbArc
 50
259.38644552492
 51
280.6135544750799
  0
LINE
  5
4AD
330
1A
100
AcDbEntity
  8
SEIHIN
  6
CONTINUOUS
 62
     3
 48
16.0
100
AcDbLine
 10
393.8966961805086
 20
377.4140354147552
 30
0.0
 11
393.8966961805086
 21
373.9140354147552
 31
0.0
  0
LINE
  5
4AE
330
1A
100
AcDbEntity
  8
SEIHIN
  6
CONTINUOUS
 62
     3
 48
16.0
100
AcDbLine
 10
404.9049961805085
 20
377.4140354147552
 30
0.0
 11
404.9049961805085
 21
373.9140354147552
 31
0.0
  0
LINE
  5
4AF
330
1A
100
AcDbEntity
  8
SEIHIN
  6
CONTINUOUS
 62
     3
 48
16.0
100
AcDbLine
 10
410.2430961805087
 20
377.4140354147552
 30
0.0
 11
410.2430961805087
 21
375.4140354147552
 31
0.0
  0
LINE
  5
4B0
330
1A
100
AcDbEntity
  8
CENTER_L
  6
CENTER
 62
     1
 48
5.0
100
AcDbLine
 10
474.0772961805086
 20
393.8636354147551
 30
0.0
 11
474.0772961805086
 21
386.9389354147551
 31
0.0
  0
LINE
  5
4B1
330
1A
100
AcDbEntity
  8
CENTER_L
  6
CENTER
 62
     1
 48
5.0
100
AcDbLine
 10
466.6498961805086
 20
393.8636354147551
 30
0.0
 11
466.6498961805086
 21
386.9389354147551
 31
0.0
  0
LINE
  5
4B2
330
1A
100
AcDbEntity
  8
SEIHIN
  6
CONTINUOUS
 62
     3
 48
16.0
100
AcDbLine
 10
475.9340961805086
 20
393.1640354147552
 30
0.0
 11
475.9340961805087
 21
376.2139354147549
 31
0.0
  0
LINE
  5
4B4
330
1A
100
AcDbEntity
  8
SEIHIN
  6
CONTINUOUS
 62
     3
 48
16.0
100
AcDbLine
 10
464.7930067345985
 20
393.1640248607212
 30
0.0
 11
464.7930956582004
 21
376.3129133500538
 31
0.0
  0
LINE
  5
4B5
330
1A
100
AcDbEntity
  8
SEIHIN
  6
CONTINUOUS
 62
     3
 48
16.0
100
AcDbLine
 10
463.3665211108865
 20
393.1640354147552
 30
0.0
 11
463.3665211108865
 21
377.4140354147552
 31
0.0
  0
LINE
  5
4B6
330
1A
100
AcDbEntity
  8
CENTER_L
  6
CENTER
 62
     1
 48
5.0
100
AcDbLine
 10
468.8069961805086
 20
390.1640354147552
 30
0.0
 11
464.0049961805086
 21
390.1640354147552
 31
0.0
  0
LINE
  5
4B7
330
1A
100
AcDbEntity
  8
SEIHIN
  6
CONTINUOUS
 62
     3
 48
16.0
100
AcDbLine
 10
474.4147961805087
 20
375.3139354147551
 30
0.0
 11
418.5761961805085
 21
375.3139354147551
 31
0.0
  0
LINE
  5
4B8
330
1A
100
AcDbEntity
  8
SEIHIN
  6
CONTINUOUS
 62
     3
 48
16.0
100
AcDbLine
 10
462.3665211108864
 20
376.4140354147552
 30
0.0
 11
418.5761961805084
 21
376.4140354147552
 31
0.0
  0
LINE
  5
4B9
330
1A
100
AcDbEntity
  8
SEIHIN
  6
CONTINUOUS
 62
     3
 48
16.0
100
AcDbLine
 10
417.7761961805087
 20
375.4140354147552
 30
0.0
 11
417.7761961805087
 21
378.9140354147552
 31
0.0
  0
LINE
  5
4BA
330
1A
100
AcDbEntity
  8
SEIHIN
  6
CONTINUOUS
 62
     3
 48
16.0
100
AcDbLine
 10
417.7761961805087
 20
378.9140354147552
 30
0.0
 11
418.5760961805086
 21
378.9140354147552
 31
0.0
  0
ARC
  5
4BB
330
1A
100
AcDbEntity
  8
SEIHIN
  6
CONTINUOUS
 62
     3
 48
16.0
100
AcDbCircle
 10
463.7930961805087
 20
376.3139354147551
 30
0.0
 40
1.0
100
AcDbArc
 50
269.9999999999934
 51
359.9999999999934
  0
LINE
  5
4BE
330
1A
100
AcDbEntity
  8
SEIHIN
  6
CONTINUOUS
 62
     3
 48
16.0
100
AcDbLine
 10
474.9340961805085
 20
375.3139354147551
 30
0.0
 11
474.9147961805086
 21
375.3139354147551
 31
0.0
  0
ARC
  5
4BF
330
1A
100
AcDbEntity
  8
SEIHIN
  6
CONTINUOUS
 62
     3
 48
16.0
100
AcDbCircle
 10
474.9147961805086
 20
374.8139354147551
 30
0.0
 40
0.5
100
AcDbArc
 50
90.0
 51
180.0
  0
ARC
  5
4C0
330
1A
100
AcDbEntity
  8
SEIHIN
  6
CONTINUOUS
 62
     3
 48
16.0
100
AcDbCircle
 10
474.9340961805087
 20
376.3139354147551
 30
0.0
 40
1.000000000000028
100
AcDbArc
 50
269.9999999999918
 51
359.9999999999918
  0
ARC
  5
4C1
330
1A
100
AcDbEntity
  8
SEIHIN
  6
CONTINUOUS
100
AcDbCircle
 10
476.3978831029691
 20
390.1640354147565
 30
0.0
 40
3.063514919939104
100
AcDbArc
 50
139.2435621123428
 51
220.7564378876942
  0
LINE
  5
4C2
330
1A
100
AcDbEntity
  8
CENTER_L
  6
CENTER
 62
     1
 48
5.0
100
AcDbLine
 10
477.5492961805086
 20
390.1640354147552
 30
0.0
 11
471.1315961805085
 21
390.1640354147552
 31
0.0
  0
ARC
  5
4C3
330
1A
100
AcDbEntity
  8
SEIHIN
  6
CONTINUOUS
100
AcDbCircle
 10
464.3293092580481
 20
390.1640354147565
 30
0.0
 40
3.063514919939104
100
AcDbArc
 50
319.2435621123057
 51
40.75643788765717
  0
ARC
  5
4C4
330
1A
100
AcDbEntity
  8
SEIHIN
  6
CONTINUOUS
100
AcDbCircle
 10
468.9704831029692
 20
390.1640354147565
 30
0.0
 40
3.063514919939104
100
AcDbArc
 50
139.2435621123428
 51
220.7564378876942
  0
ARC
  5
4C5
330
1A
100
AcDbEntity
  8
SEIHIN
  6
CONTINUOUS
100
AcDbCircle
 10
471.7567092580481
 20
390.1640354147565
 30
0.0
 40
3.063514919939104
100
AcDbArc
 50
319.2435621123057
 51
40.75643788765717
  0
LINE
  5
4C6
330
1A
100
AcDbEntity
  8
SEIHIN
  6
CONTINUOUS
 62
     3
 48
16.0
100
AcDbLine
 10
473.9340961805086
 20
395.1640354147552
 30
0.0
 11
465.2771961805084
 21
395.1640354147552
 31
0.0
  0
LINE
  5
5DF
330
1A
100
AcDbEntity
  8
SEIHIN
  6
CONTINUOUS
 62
     3
 48
16.0
100
AcDbLine
 10
219.7760961805046
 20
263.814135414755
 30
0.0
 11
219.7759961805046
 21
244.3141354147548
 31
0.0
  0
LINE
  5
5E0
330
1A
100
AcDbEntity
  8
SEIHIN
  6
CONTINUOUS
 62
     3
 48
16.0
100
AcDbLine
 10
223.2760961805046
 20
229.314135414755
 30
0.0
 11
223.2760961805046
 21
263.814135414755
 31
0.0
  0
LINE
  5
5E1
330
1A
100
AcDbEntity
  8
SEIHIN
  6
CONTINUOUS
 62
     3
 48
16.0
100
AcDbLine
 10
201.7762961805045
 20
263.814135414755
 30
0.0
 11
201.7761961805045
 21
244.3142354147548
 31
0.0
  0
LINE
  5
5E2
330
1A
100
AcDbEntity
  8
SEIHIN
  6
CONTINUOUS
 62
     3
 48
16.0
100
AcDbLine
 10
198.2761961805047
 20
229.314135414755
 30
0.0
 11
198.2761961805047
 21
263.814135414755
 31
0.0
  0
LINE
  5
5E3
330
1A
100
AcDbEntity
  8
SEIHIN
  6
CONTINUOUS
 62
     3
 48
16.0
100
AcDbLine
 10
208.7760961805046
 20
190.414135414755
 30
0.0
 11
208.7761961805047
 21
228.314135414755
 31
0.0
  0
LINE
  5
5E4
330
1A
100
AcDbEntity
  8
SEIHIN
  6
CONTINUOUS
 62
     3
 48
16.0
100
AcDbLine
 10
212.7760961805046
 20
190.414135414755
 30
0.0
 11
212.7760961805046
 21
228.314135414755
 31
0.0
  0
LINE
  5
5E5
330
1A
100
AcDbEntity
  8
SEIHIN
  6
CONTINUOUS
 62
     3
 48
16.0
100
AcDbLine
 10
199.7760961805046
 20
202.0742354147549
 30
0.0
 11
199.7761961805047
 21
228.314135414755
 31
0.0
  0
LINE
  5
5E6
330
1A
100
AcDbEntity
  8
SEIHIN
  6
CONTINUOUS
 62
     3
 48
16.0
100
AcDbLine
 10
202.7760961805046
 20
190.414135414755
 30
0.0
 11
202.7761961805047
 21
228.314135414755
 31
0.0
  0
LINE
  5
5E7
330
1A
100
AcDbEntity
  8
SEIHIN
  6
CONTINUOUS
 62
     3
 48
16.0
100
AcDbLine
 10
221.7760961805046
 20
202.0741354147549
 30
0.0
 11
221.7760961805046
 21
228.314135414755
 31
0.0
  0
LINE
  5
5E8
330
1A
100
AcDbEntity
  8
SEIHIN
  6
CONTINUOUS
 62
     3
 48
16.0
100
AcDbLine
 10
218.7760961805046
 20
190.414135414755
 30
0.0
 11
218.7760961805046
 21
228.314135414755
 31
0.0
  0
LINE
  5
5E9
330
1A
100
AcDbEntity
  8
SEIHIN
  6
CONTINUOUS
 62
     3
100
AcDbLine
 10
218.7760961805047
 20
185.814035414755
 30
0.0
 11
202.7760961805046
 21
185.814035414755
 31
0.0
  0
LINE
  5
5EA
330
1A
100
AcDbEntity
  8
SEIHIN
  6
CONTINUOUS
 62
     3
100
AcDbLine
 10
218.1760961805045
 20
187.414035414755
 30
0.0
 11
203.3760961805046
 21
187.414035414755
 31
0.0
  0
ARC
  5
5EB
330
1A
100
AcDbEntity
  8
SEIHIN
  6
CONTINUOUS
 62
     3
 48
16.0
100
AcDbCircle
 10
205.7760961805046
 20
190.414135414755
 30
0.0
 40
3.0
100
AcDbArc
 50
180.0
 51
0.0
  0
ARC
  5
5EC
330
1A
100
AcDbEntity
  8
SEIHIN
  6
CONTINUOUS
100
AcDbCircle
 10
205.7761697513524
 20
203.3241452362501
 30
0.0
 40
3.249999999998867
100
AcDbArc
 50
202.6197524010574
 51
337.3800225051098
  0
LINE
  5
5ED
330
1A
100
AcDbEntity
  8
SEIHIN
  6
CONTINUOUS
 62
     3
 48
16.0
100
AcDbLine
 10
202.3760961805046
 20
190.914135414755
 30
0.0
 11
202.3760961805046
 21
188.414035414755
 31
0.0
  0
ARC
  5
5EE
330
1A
100
AcDbEntity
  8
SEIHIN
  6
CONTINUOUS
 62
     3
100
AcDbCircle
 10
202.7760961805046
 20
187.814035414755
 30
0.0
 40
2.0
100
AcDbArc
 50
180.0
 51
270.0
  0
ARC
  5
5EF
330
1A
100
AcDbEntity
  8
SEIHIN
  6
CONTINUOUS
 62
     3
 48
16.0
100
AcDbCircle
 10
203.3760961805046
 20
188.414035414755
 30
0.0
 40
1.0
100
AcDbArc
 50
180.0
 51
270.0
  0
ARC
  5
5F0
330
1A
100
AcDbEntity
  8
SEIHIN
  6
CONTINUOUS
 62
     3
 48
16.0
100
AcDbCircle
 10
181.5457961800032
 20
196.494135414755
 30
0.0
 40
19.06515769953877
100
AcDbArc
 50
342.9814976594928
 51
17.01850234050715
  0
LINE
  5
5F1
330
1A
100
AcDbEntity
  8
SEIHIN
  6
CONTINUOUS
 62
     3
 48
16.0
100
AcDbLine
 10
199.7760961805046
 20
190.914135414755
 30
0.0
 11
202.7760961805046
 21
190.914135414755
 31
0.0
  0
LINE
  5
5F2
330
1A
100
AcDbEntity
  8
SEIHIN
  6
CONTINUOUS
 62
     3
 48
16.0
100
AcDbLine
 10
200.3680961805047
 20
199.5277354147549
 30
0.0
 11
196.3239961805046
 21
197.7110354147549
 31
0.0
  0
LINE
  5
5F3
330
1A
100
AcDbEntity
  8
SEIHIN
  6
CONTINUOUS
 62
     3
 48
16.0
100
AcDbLine
 10
196.3239961805046
 20
197.7110354147549
 30
0.0
 11
200.5979961805046
 21
195.791035414755
 31
0.0
  0
LINE
  5
5F4
330
1A
100
AcDbEntity
  8
SEIHIN
  6
CONTINUOUS
 62
     3
 48
16.0
100
AcDbLine
 10
202.7761269458679
 20
202.0742081417479
 30
0.0
 11
199.7760961805046
 21
202.0742354147549
 31
0.0
  0
ARC
  5
5F5
330
1A
100
AcDbEntity
  8
SEIHIN
  6
CONTINUOUS
 62
     3
 48
16.0
100
AcDbCircle
 10
215.7760961805046
 20
190.414135414755
 30
0.0
 40
3.000000000000028
100
AcDbArc
 50
180.0
 51
0.0
  0
LINE
  5
5F6
330
1A
100
AcDbEntity
  8
SEIHIN
  6
CONTINUOUS
 62
     3
 48
16.0
100
AcDbLine
 10
219.1760961805046
 20
190.914135414755
 30
0.0
 11
219.1760961805046
 21
188.414035414755
 31
0.0
  0
ARC
  5
5F7
330
1A
100
AcDbEntity
  8
SEIHIN
  6
CONTINUOUS
 62
     3
 48
16.0
100
AcDbCircle
 10
218.7760961805047
 20
187.814035414755
 30
0.0
 40
2.0
100
AcDbArc
 50
270.0
 51
0.0
  0
LINE
  5
5F8
330
1A
100
AcDbEntity
  8
SEIHIN
  6
CONTINUOUS
 62
     3
 48
16.0
100
AcDbLine
 10
210.7760961805046
 20
187.4141354147549
 30
0.0
 11
215.7760961805046
 21
187.4141354147549
 31
0.0
  0
LINE
  5
5F9
330
1A
100
AcDbEntity
  8
SEIHIN
  6
CONTINUOUS
 62
     3
 48
16.0
100
AcDbLine
 10
206.7684157682537
 20
183.0111354147549
 30
0.0
 11
214.7838157682539
 21
183.0111354147549
 31
0.0
  0
LINE
  5
5FA
330
1A
100
AcDbEntity
  8
SEIHIN
  6
CONTINUOUS
 62
     3
 48
16.0
100
AcDbLine
 10
210.7760961805046
 20
187.4141354147549
 30
0.0
 11
205.7760961805046
 21
187.4141354147549
 31
0.0
  0
LINE
  5
5FB
330
1A
100
AcDbEntity
  8
SEIHIN
  6
CONTINUOUS
 62
     3
 48
16.0
100
AcDbLine
 10
206.7684157682537
 20
185.8140354147549
 30
0.0
 11
206.7684157682537
 21
183.0111354147549
 31
0.0
  0
LINE
  5
5FC
330
1A
100
AcDbEntity
  8
SEIHIN
  6
CONTINUOUS
 62
     3
 48
16.0
100
AcDbLine
 10
214.7838157682539
 20
183.0111354147549
 30
0.0
 11
214.7838157682539
 21
185.8140354147549
 31
0.0
  0
ARC
  5
5FD
330
1A
100
AcDbEntity
  8
SEIHIN
  6
CONTINUOUS
 62
     3
100
AcDbCircle
 10
218.1760961805045
 20
188.414035414755
 30
0.0
 40
1.0
100
AcDbArc
 50
270.0
 51
0.0
  0
LINE
  5
5FE
330
1A
100
AcDbEntity
  8
SEIHIN
  6
CONTINUOUS
 62
     3
 48
16.0
100
AcDbLine
 10
221.7760961805046
 20
190.914135414755
 30
0.0
 11
218.7760961805046
 21
190.914135414755
 31
0.0
  0
LINE
  5
5FF
330
1A
100
AcDbEntity
  8
SEIHIN
  6
CONTINUOUS
 62
     3
 48
16.0
100
AcDbLine
 10
218.7760961805046
 20
202.0741354147549
 30
0.0
 11
221.7760961805046
 21
202.0741354147549
 31
0.0
  0
ARC
  5
600
330
1A
100
AcDbEntity
  8
SEIHIN
  6
CONTINUOUS
100
AcDbCircle
 10
215.776096180505
 20
203.3241354147508
 30
0.0
 40
3.249999999998867
100
AcDbArc
 50
202.6198649479713
 51
337.3801350520229
  0
LINE
  5
601
330
1A
100
AcDbEntity
  8
SEIHIN
  6
CONTINUOUS
 62
     3
 48
16.0
100
AcDbLine
 10
212.7760961805046
 20
190.914135414755
 30
0.0
 11
210.7760961805046
 21
190.914135414755
 31
0.0
  0
LINE
  5
602
330
1A
100
AcDbEntity
  8
SEIHIN
  6
CONTINUOUS
 62
     3
 48
16.0
100
AcDbLine
 10
208.7760961805046
 20
190.914135414755
 30
0.0
 11
210.7760961805046
 21
190.914135414755
 31
0.0
  0
LINE
  5
603
330
1A
100
AcDbEntity
  8
SEIHIN
  6
CONTINUOUS
 62
     3
 48
16.0
100
AcDbLine
 10
210.7760961805046
 20
202.0741354147549
 30
0.0
 11
212.7760961805046
 21
202.0741354147549
 31
0.0
  0
LINE
  5
604
330
1A
100
AcDbEntity
  8
SEIHIN
  6
CONTINUOUS
 62
     3
 48
16.0
100
AcDbLine
 10
210.7760961805046
 20
202.0741354147549
 30
0.0
 11
208.7761269457241
 21
202.0741535962934
 31
0.0
  0
ARC
  5
605
330
1A
100
AcDbEntity
  8
SEIHIN
  6
CONTINUOUS
 62
     3
 48
16.0
100
AcDbCircle
 10
240.0064961801332
 20
196.494022061828
 30
0.0
 40
19.06522014403829
100
AcDbArc
 50
162.9808845565924
 51
197.0180886465237
  0
LINE
  5
606
330
1A
100
AcDbEntity
  8
SEIHIN
  6
CONTINUOUS
 62
     3
 48
16.0
100
AcDbLine
 10
221.1841961805047
 20
199.5277354147549
 30
0.0
 11
225.2281961805047
 21
197.7110354147549
 31
0.0
  0
LINE
  5
607
330
1A
100
AcDbEntity
  8
SEIHIN
  6
CONTINUOUS
 62
     3
 48
16.0
100
AcDbLine
 10
225.2281961805047
 20
197.7110354147549
 30
0.0
 11
220.9541961805046
 21
195.791035414755
 31
0.0
  0
LINE
  5
608
330
1A
100
AcDbEntity
  8
SEIHIN
  6
CONTINUOUS
100
AcDbLine
 10
219.4606150831968
 20
243.0986354147549
 30
0.0
 11
202.0916329198044
 21
243.0986354147551
 31
0.0
  0
LINE
  5
609
330
1A
100
AcDbEntity
  8
SEIHIN
  6
CONTINUOUS
 62
     3
 48
16.0
100
AcDbLine
 10
219.7759961805046
 20
246.210635414755
 30
0.0
 11
201.7761961805045
 21
246.2107354147549
 31
0.0
  0
LINE
  5
60A
330
1A
100
AcDbEntity
  8
SEIHIN
  6
CONTINUOUS
 62
     3
 48
16.0
100
AcDbLine
 10
202.5307961805046
 20
231.4566354147549
 30
0.0
 11
207.0895961805045
 21
233.5119354147549
 31
0.0
  0
LINE
  5
60B
330
1A
100
AcDbEntity
  8
SEIHIN
  6
CONTINUOUS
 62
     3
 48
16.0
100
AcDbLine
 10
199.2761961805046
 20
228.314135414755
 30
0.0
 11
210.7761961805047
 21
228.314135414755
 31
0.0
  0
LINE
  5
60C
330
1A
100
AcDbEntity
  8
SEIHIN
  6
CONTINUOUS
 62
     3
 48
16.0
100
AcDbLine
 10
203.5292961805047
 20
229.7272354147549
 30
0.0
 11
207.5885961805046
 21
232.647635414755
 31
0.0
  0
ARC
  5
60D
330
1A
100
AcDbEntity
  8
SEIHIN
  6
CONTINUOUS
 62
     3
 48
16.0
100
AcDbCircle
 10
204.2761961805045
 20
244.3142354147548
 30
0.0
 40
2.500000000000028
100
AcDbArc
 50
180.0000000000006
 51
270.0000000000006
  0
LINE
  5
60E
330
1A
100
AcDbEntity
  8
SEIHIN
  6
CONTINUOUS
 62
     3
 48
16.0
100
AcDbLine
 10
202.5307961805046
 20
238.671735414755
 30
0.0
 11
207.0895961805045
 21
236.616435414755
 31
0.0
  0
LINE
  5
60F
330
1A
100
AcDbEntity
  8
SEIHIN
  6
CONTINUOUS
 62
     3
 48
16.0
100
AcDbLine
 10
203.5292961805047
 20
240.4011354147548
 30
0.0
 11
207.5885961805046
 21
237.480735414755
 31
0.0
  0
LINE
  5
611
330
1A
100
AcDbEntity
  8
SEIHIN
  6
CONTINUOUS
 62
     3
 48
16.0
100
AcDbLine
 10
196.3239961805046
 20
217.711035414755
 30
0.0
 11
199.7761961805047
 21
216.1602354147549
 31
0.0
  0
LINE
  5
612
330
1A
100
AcDbEntity
  8
SEIHIN
  6
CONTINUOUS
 62
     3
 48
16.0
100
AcDbLine
 10
199.7761961805047
 20
219.261835414755
 30
0.0
 11
196.3239961805046
 21
217.711035414755
 31
0.0
  0
ARC
  5
613
330
1A
100
AcDbEntity
  8
SEIHIN
  6
CONTINUOUS
 62
     3
 48
16.0
100
AcDbCircle
 10
202.9819831306367
 20
230.5642146886923
 30
0.0
 40
1.000042938856267
100
AcDbArc
 50
209.9972085279262
 51
303.1812627458654
  0
ARC
  5
614
330
1A
100
AcDbEntity
  8
SEIHIN
  6
CONTINUOUS
 62
     3
 48
16.0
100
AcDbCircle
 10
202.9818876282486
 20
230.5642067113156
 30
0.0
 40
0.9999562415177035
100
AcDbArc
 50
116.8149989746452
 51
209.9995484959487
  0
ARC
  5
615
330
1A
100
AcDbEntity
  8
SEIHIN
  6
CONTINUOUS
 62
     3
 48
16.0
100
AcDbCircle
 10
199.2761961805046
 20
229.314135414755
 30
0.0
 40
0.9999999999999715
100
AcDbArc
 50
179.9999999999983
 51
269.9999999999983
  0
ARC
  5
616
330
1A
100
AcDbEntity
  8
SEIHIN
  6
CONTINUOUS
 62
     3
 48
16.0
100
AcDbCircle
 10
202.9819271004471
 20
239.5642427841619
 30
0.0
 40
1.00000109247136
100
AcDbArc
 50
56.8133335179751
 51
150.0005236927466
  0
ARC
  5
617
330
1A
100
AcDbEntity
  8
SEIHIN
  6
CONTINUOUS
 62
     3
 48
16.0
100
AcDbCircle
 10
202.9819051681749
 20
239.5642052524458
 30
0.0
 40
1.000000864972062
100
AcDbArc
 50
149.9980330729464
 51
243.1851673148768
  0
ARC
  5
618
330
1A
100
AcDbEntity
  8
SEIHIN
  6
CONTINUOUS
 62
     3
 48
16.0
100
AcDbCircle
 10
210.7760961805046
 20
235.064235414755
 30
0.0
 40
1.0
100
AcDbArc
 50
0.0
 51
180.0
  0
LINE
  5
619
330
1A
100
AcDbEntity
  8
SEIHIN
  6
CONTINUOUS
 62
     3
 48
16.0
100
AcDbLine
 10
222.2760961805046
 20
228.314135414755
 30
0.0
 11
210.7760961805046
 21
228.314135414755
 31
0.0
  0
ARC
  5
61A
330
1A
100
AcDbEntity
  8
SEIHIN
  6
CONTINUOUS
 62
     3
 48
16.0
100
AcDbCircle
 10
210.7760961805046
 20
235.064235414755
 30
0.0
 40
1.0
100
AcDbArc
 50
180.0
 51
0.0
  0
ARC
  5
61B
330
1A
100
AcDbEntity
  8
SEIHIN
  6
CONTINUOUS
 62
     3
 48
16.0
100
AcDbCircle
 10
207.3119838129092
 20
233.0641827209235
 30
0.0
 40
0.5000260595038509
100
AcDbArc
 50
303.5865427614119
 51
30.005248174011
  0
ARC
  5
61C
330
1A
100
AcDbEntity
  8
SEIHIN
  6
CONTINUOUS
 62
     3
 48
16.0
100
AcDbCircle
 10
207.3120667542371
 20
233.0641442928218
 30
0.0
 40
0.5000100449581183
100
AcDbArc
 50
29.99816074857253
 51
116.4190015875627
  0
LINE
  5
61D
330
1A
100
AcDbEntity
  8
SEIHIN
  6
CONTINUOUS
 62
     3
 48
16.0
100
AcDbLine
 10
218.0229961805047
 20
229.7272354147549
 30
0.0
 11
213.9636961805046
 21
232.647635414755
 31
0.0
  0
ARC
  5
61E
330
1A
100
AcDbEntity
  8
SEIHIN
  6
CONTINUOUS
 62
     3
 48
16.0
100
AcDbCircle
 10
214.2402256067721
 20
233.0641442928218
 30
0.0
 40
0.5000100449580084
100
AcDbArc
 50
63.58099841244232
 51
150.0018392514305
  0
ARC
  5
61F
330
1A
100
AcDbEntity
  8
SEIHIN
  6
CONTINUOUS
 62
     3
 48
16.0
100
AcDbCircle
 10
214.2401993201332
 20
233.0642220429456
 30
0.0
 40
0.4999984050091399
100
AcDbArc
 50
149.9981251089928
 51
236.42637693614
  0
ARC
  5
620
330
1A
100
AcDbEntity
  8
SEIHIN
  6
CONTINUOUS
 62
     3
 48
16.0
100
AcDbCircle
 10
218.5704047327607
 20
230.5642067113156
 30
0.0
 40
0.9999562415176802
100
AcDbArc
 50
330.0004515040474
 51
63.18500102535178
  0
ARC
  5
621
330
1A
100
AcDbEntity
  8
SEIHIN
  6
CONTINUOUS
 62
     3
 48
16.0
100
AcDbCircle
 10
218.5703092303724
 20
230.5642146886923
 30
0.0
 40
1.000042938856214
100
AcDbArc
 50
236.8187372541356
 51
330.0027914720744
  0
LINE
  5
622
330
1A
100
AcDbEntity
  8
SEIHIN
  6
CONTINUOUS
 62
     3
 48
16.0
100
AcDbLine
 10
219.0214961805046
 20
231.4566354147549
 30
0.0
 11
214.4626961805046
 21
233.5119354147549
 31
0.0
  0
LINE
  5
624
330
1A
100
AcDbEntity
  8
SEIHIN
  6
CONTINUOUS
 62
     3
 48
16.0
100
AcDbLine
 10
225.2281961805047
 20
217.711035414755
 30
0.0
 11
221.7760961805046
 21
216.1602354147549
 31
0.0
  0
LINE
  5
625
330
1A
100
AcDbEntity
  8
SEIHIN
  6
CONTINUOUS
 62
     3
 48
16.0
100
AcDbLine
 10
221.7760961805046
 20
219.261835414755
 30
0.0
 11
225.2281961805047
 21
217.711035414755
 31
0.0
  0
ARC
  5
626
330
1A
100
AcDbEntity
  8
SEIHIN
  6
CONTINUOUS
 62
     3
 48
16.0
100
AcDbCircle
 10
222.2760961805046
 20
229.314135414755
 30
0.0
 40
0.9999999999999715
100
AcDbArc
 50
270.0000000000016
 51
0.0000000000016284
  0
ARC
  5
627
330
1A
100
AcDbEntity
  8
SEIHIN
  6
CONTINUOUS
 62
     3
 48
16.0
100
AcDbCircle
 10
217.2759961805046
 20
244.314135414755
 30
0.0
 40
2.499999999999971
100
AcDbArc
 50
269.999999999998
 51
359.999999999998
  0
LINE
  5
628
330
1A
100
AcDbEntity
  8
SEIHIN
  6
CONTINUOUS
 62
     3
 48
16.0
100
AcDbLine
 10
210.7760961805046
 20
241.814135414755
 30
0.0
 11
217.2759961805046
 21
241.814135414755
 31
0.0
  0
ARC
  5
629
330
1A
100
AcDbEntity
  8
SEIHIN
  6
CONTINUOUS
 62
     3
 48
16.0
100
AcDbCircle
 10
207.3121069453709
 20
237.0641895553425
 30
0.0
 40
0.4999567482678377
100
AcDbArc
 50
330.0032067826358
 51
56.42512083846401
  0
ARC
  5
62A
330
1A
100
AcDbEntity
  8
SEIHIN
  6
CONTINUOUS
 62
     3
 48
16.0
100
AcDbCircle
 10
207.3120667542371
 20
237.0642265366881
 30
0.0
 40
0.5000100449581179
100
AcDbArc
 50
243.5809984124371
 51
330.0018392514274
  0
LINE
  5
62B
330
1A
100
AcDbEntity
  8
SEIHIN
  6
CONTINUOUS
 62
     3
 48
16.0
100
AcDbLine
 10
210.7761961805047
 20
241.814135414755
 30
0.0
 11
204.2761961805047
 21
241.8142354147548
 31
0.0
  0
ARC
  5
62C
330
1A
100
AcDbEntity
  8
SEIHIN
  6
CONTINUOUS
 62
     3
 48
16.0
100
AcDbCircle
 10
214.2402256067721
 20
237.0642265366881
 30
0.0
 40
0.5000100449580081
100
AcDbArc
 50
209.9981607485694
 51
296.4190015875577
  0
LINE
  5
62D
330
1A
100
AcDbEntity
  8
SEIHIN
  6
CONTINUOUS
 62
     3
 48
16.0
100
AcDbLine
 10
218.0229961805047
 20
240.401035414755
 30
0.0
 11
213.9636961805046
 21
237.480735414755
 31
0.0
  0
ARC
  5
62E
330
1A
100
AcDbEntity
  8
SEIHIN
  6
CONTINUOUS
 62
     3
 48
16.0
100
AcDbCircle
 10
214.2401854156382
 20
237.0641895553425
 30
0.0
 40
0.4999567482678169
100
AcDbArc
 50
123.5748791615419
 51
209.9967932173717
  0
LINE
  5
62F
330
1A
100
AcDbEntity
  8
SEIHIN
  6
CONTINUOUS
 62
     3
 48
16.0
100
AcDbLine
 10
219.0214961805046
 20
238.671735414755
 30
0.0
 11
214.4626961805046
 21
236.616435414755
 31
0.0
  0
ARC
  5
630
330
1A
100
AcDbEntity
  8
SEIHIN
  6
CONTINUOUS
 62
     3
 48
16.0
100
AcDbCircle
 10
218.5703871928342
 20
239.5642052524458
 30
0.0
 40
1.000000864972037
100
AcDbArc
 50
296.8148326851259
 51
30.00196692705718
  0
ARC
  5
631
330
1A
100
AcDbEntity
  8
SEIHIN
  6
CONTINUOUS
 62
     3
 48
16.0
100
AcDbCircle
 10
218.5703652605622
 20
239.5642427841619
 30
0.0
 40
1.000001092471308
100
AcDbArc
 50
29.99947630725291
 51
123.1866664820237
  0
LINE
  5
632
330
1A
100
AcDbEntity
  8
SEIHIN
  6
CONTINUOUS
 62
     3
 48
16.0
100
AcDbLine
 10
198.2761961805047
 20
263.814135414755
 30
0.0
 11
201.7762961805045
 21
263.814135414755
 31
0.0
  0
LINE
  5
633
330
1A
100
AcDbEntity
  8
SEIHIN
  6
CONTINUOUS
 62
     3
 48
16.0
100
AcDbLine
 10
223.2760961805046
 20
263.814135414755
 30
0.0
 11
219.7760961805046
 21
263.814135414755
 31
0.0
  0
LINE
  5
708
330
1A
100
AcDbEntity
  8
SEIHIN
  6
CONTINUOUS
 62
     3
 48
16.0
100
AcDbLine
 10
653.0149565520166
 20
268.2643273682417
 30
0.0
 11
643.3594349610756
 21
292.4049757192464
 31
0.0
  0
LINE
  5
70B
330
1A
100
AcDbEntity
  8
CENTER_L
  6
CENTER
 62
     1
 48
5.0
100
AcDbLine
 10
628.8076382158509
 20
251.3569403370793
 30
0.0
 11
612.4148278883447
 21
292.3420974695877
 31
0.0
  0
LINE
  5
70C
330
1A
100
AcDbEntity
  8
SEIHIN
  6
CONTINUOUS
 62
     3
 48
16.0
100
AcDbLine
 10
599.6176993725442
 20
246.9070563415103
 30
0.0
 11
589.9621777816031
 21
271.047704692515
 31
0.0
  0
LINE
  5
70D
330
1A
100
AcDbEntity
  8
SEIHIN
  6
CONTINUOUS
 62
     3
 48
16.0
100
AcDbLine
 10
627.0590603923529
 20
255.7287189047987
 30
0.0
 11
651.9007160320117
 21
265.664621988092
 31
0.0
  0
ARC
  5
70E
330
1A
100
AcDbEntity
  8
SEIHIN
  6
CONTINUOUS
 62
     3
 48
16.0
100
AcDbCircle
 10
647.2584255317149
 20
269.1929557181767
 30
0.0
 40
2.0
100
AcDbArc
 50
201.7998999999996
 51
21.79989999999961
  0
ARC
  5
70F
330
1A
100
AcDbEntity
  8
SEIHIN
  6
CONTINUOUS
 62
     3
 48
16.0
100
AcDbCircle
 10
647.2584255317149
 20
269.1929557181767
 30
0.0
 40
2.0
100
AcDbArc
 50
21.79989999999961
 51
201.7998999999996
  0
LINE
  5
710
330
1A
100
AcDbEntity
  8
CENTER_L
  6
CENTER
 62
     1
 48
5.0
100
AcDbLine
 10
643.5152323075968
 20
267.6957928222583
 30
0.0
 11
650.4968006593547
 21
270.48820680298
 31
0.0
  0
LINE
  5
711
330
1A
100
AcDbEntity
  8
SEIHIN
  6
CONTINUOUS
 62
     3
 48
16.0
100
AcDbLine
 10
627.0590603923529
 20
255.7287189047987
 30
0.0
 11
602.2174047526938
 21
245.7928158215054
 31
0.0
  0
LINE
  5
712
330
1A
100
AcDbEntity
  8
CENTER_L
  6
CENTER
 62
     1
 48
5.0
100
AcDbLine
 10
606.8893191753947
 20
253.0465468743472
 30
0.0
 11
599.6086853300267
 21
250.1345158357624
 31
0.0
  0
ARC
  5
713
330
1A
100
AcDbEntity
  8
SEIHIN
  6
CONTINUOUS
 62
     3
 48
16.0
100
AcDbCircle
 10
601.4746723226217
 20
247.6497887715828
 30
0.0
 40
2.0
100
AcDbArc
 50
201.7998999999996
 51
291.7998999999996
  0
ARC
  5
714
330
1A
100
AcDbEntity
  8
SEIHIN
  6
CONTINUOUS
 62
     3
 48
16.0
100
AcDbCircle
 10
603.1460331026286
 20
251.5493468418072
 30
0.0
 40
2.0
100
AcDbArc
 50
21.79989999999961
 51
201.7998999999996
  0
ARC
  5
715
330
1A
100
AcDbEntity
  8
SEIHIN
  6
CONTINUOUS
 62
     3
 48
16.0
100
AcDbCircle
 10
603.1460331026286
 20
251.5493468418072
 30
0.0
 40
2.0
100
AcDbArc
 50
201.7998999999996
 51
21.79989999999961
  0
LINE
  5
716
330
1A
100
AcDbEntity
  8
CENTER_L
  6
CENTER
 62
     1
 48
5.0
100
AcDbLine
 10
604.6766932311435
 20
247.7224041376404
 30
0.0
 11
601.5564742924095
 21
255.5235475009152
 31
0.0
  0
LINE
  5
717
330
1A
100
AcDbEntity
  8
SEIHIN
  6
CONTINUOUS
 62
     3
 48
16.0
100
AcDbLine
 10
613.1717361743958
 20
255.5593246879688
 30
0.0
 11
618.0481832399878
 21
255.3557112638542
 31
0.0
  0
LINE
  5
718
330
1A
100
AcDbEntity
  8
SEIHIN
  6
CONTINUOUS
 62
     3
 48
16.0
100
AcDbLine
 10
616.5627183798431
 20
259.0696571640088
 30
0.0
 11
613.1717361743958
 21
255.5593246879688
 31
0.0
  0
LINE
  5
719
330
1A
100
AcDbEntity
  8
SEIHIN
  6
CONTINUOUS
 62
     3
 48
16.0
100
AcDbLine
 10
632.3562753943552
 20
265.3865912961295
 30
0.0
 11
637.2328153085949
 21
265.1830150086364
 31
0.0
  0
LINE
  5
71A
330
1A
100
AcDbEntity
  8
SEIHIN
  6
CONTINUOUS
 62
     3
 48
16.0
100
AcDbLine
 10
637.2328153085949
 20
265.1830150086364
 30
0.0
 11
633.8417402545001
 21
261.6726453959749
 31
0.0
  0
ARC
  5
71B
330
1A
100
AcDbEntity
  8
SEIHIN
  6
CONTINUOUS
 62
     3
 48
16.0
100
AcDbCircle
 10
651.1579836019393
 20
267.5215949381693
 30
0.0
 40
2.0
100
AcDbArc
 50
291.7998999999996
 51
21.79989999999961
  0
LINE
  5
71C
330
1A
100
AcDbEntity
  8
CENTER_L
  6
CENTER
 62
     1
 48
5.0
100
AcDbLine
 10
648.7891227968511
 20
265.3659201653624
 30
0.0
 11
645.6688667214954
 21
273.1671563772845
 31
0.0
  0
LINE
  5
71F
330
1A
100
AcDbEntity
  8
SEIHIN
  6
CONTINUOUS
 62
     3
 48
16.0
100
AcDbLine
 10
625.6718257094223
 20
287.4845127948053
 30
0.0
 11
640.7597295809258
 21
293.5192162392513
 31
0.0
  0
ARC
  5
720
330
1A
100
AcDbEntity
  8
SEIHIN
  6
CONTINUOUS
 62
     3
 48
16.0
100
AcDbCircle
 10
639.831101230991
 20
287.7626852189496
 30
0.0
 40
2.0
100
AcDbArc
 50
201.7998999999996
 51
21.79989999999961
  0
ARC
  5
721
330
1A
100
AcDbEntity
  8
SEIHIN
  6
CONTINUOUS
 62
     3
 48
16.0
100
AcDbCircle
 10
639.831101230991
 20
287.7626852189496
 30
0.0
 40
2.0
100
AcDbArc
 50
21.79989999999961
 51
201.7998999999996
  0
LINE
  5
722
330
1A
100
AcDbEntity
  8
CENTER_L
  6
CENTER
 62
     1
 48
5.0
100
AcDbLine
 10
635.3318414702488
 20
285.9631188141273
 30
0.0
 11
642.9288106576625
 21
289.0016743221749
 31
0.0
  0
LINE
  5
724
330
1A
100
AcDbEntity
  8
SEIHIN
  6
CONTINUOUS
 62
     3
 48
16.0
100
AcDbLine
 10
606.1644076976197
 20
279.6821477243172
 30
0.0
 11
591.0764183016082
 21
273.6474100726648
 31
0.0
  0
LINE
  5
725
330
1A
100
AcDbEntity
  8
CENTER_L
  6
CENTER
 62
     1
 48
5.0
100
AcDbLine
 10
600.2179685626473
 20
271.9186427474026
 30
0.0
 11
592.467056317672
 21
268.8185147209018
 31
0.0
  0
ARC
  5
726
330
1A
100
AcDbEntity
  8
SEIHIN
  6
CONTINUOUS
 62
     3
 48
16.0
100
AcDbCircle
 10
591.8191507316806
 20
271.7904371225875
 30
0.0
 40
2.0
100
AcDbArc
 50
111.7998999999996
 51
201.7998999999996
  0
LINE
  5
727
330
1A
100
AcDbEntity
  8
CENTER_L
  6
CENTER
 62
     1
 48
5.0
100
AcDbLine
 10
597.898665620789
 20
264.6687678854557
 30
0.0
 11
594.5210898950348
 21
273.1133523759323
 31
0.0
  0
ARC
  5
728
330
1A
100
AcDbEntity
  8
SEIHIN
  6
CONTINUOUS
 62
     3
 48
16.0
100
AcDbCircle
 10
595.7187088019049
 20
270.1190763425801
 30
0.0
 40
2.0
100
AcDbArc
 50
201.7998999999996
 51
21.79989999999961
  0
ARC
  5
729
330
1A
100
AcDbEntity
  8
SEIHIN
  6
CONTINUOUS
 62
     3
 48
16.0
100
AcDbCircle
 10
595.7187088019049
 20
270.1190763425801
 30
0.0
 40
2.0
100
AcDbArc
 50
21.79989999999961
 51
201.7998999999996
  0
LINE
  5
72B
330
1A
100
AcDbEntity
  8
SEIHIN
  6
CONTINUOUS
 62
     3
 48
16.0
100
AcDbLine
 10
605.744411873672
 20
274.1290541887416
 30
0.0
 11
610.620858939264
 21
273.9254407646272
 31
0.0
  0
LINE
  5
72C
330
1A
100
AcDbEntity
  8
SEIHIN
  6
CONTINUOUS
 62
     3
 48
16.0
100
AcDbLine
 10
609.1353940791194
 20
277.6393866647817
 30
0.0
 11
605.744411873672
 21
274.1290541887416
 31
0.0
  0
LINE
  5
72E
330
1A
100
AcDbEntity
  8
SEIHIN
  6
CONTINUOUS
 62
     3
 48
16.0
100
AcDbLine
 10
629.8054910078711
 20
283.7527445094094
 30
0.0
 11
626.4144159537762
 21
280.2423748967478
 31
0.0
  0
LINE
  5
72F
330
1A
100
AcDbEntity
  8
SEIHIN
  6
CONTINUOUS
 62
     3
 48
16.0
100
AcDbLine
 10
624.9289510936315
 20
283.9563207969025
 30
0.0
 11
629.8054910078711
 21
283.7527445094094
 31
0.0
  0
LINE
  5
731
330
1A
100
AcDbEntity
  8
CENTER_L
  6
CENTER
 62
     1
 48
5.0
100
AcDbLine
 10
642.0110580498749
 20
282.3123767618251
 30
0.0
 11
638.6334823241205
 21
290.7569612523017
 31
0.0
  0
ARC
  5
732
330
1A
100
AcDbEntity
  8
SEIHIN
  6
CONTINUOUS
 62
     3
 48
16.0
100
AcDbCircle
 10
641.5024620109983
 20
291.662243289174
 30
0.0
 40
2.0
100
AcDbArc
 50
21.79989999999961
 51
111.7998999999996
  0
DIMENSION
  5
79F
330
1A
100
AcDbEntity
  8
SUNPOU
  6
CONTINUOUS
100
AcDbDimension
  2
*D2
 10
585.9485722626137
 20
294.5462839579216
 30
0.0
 11
606.1479374019758
 21
308.0105207712995
 31
0.0
 12
14.15949736160803
 22
5.663369029087277
 32
0.0
 70
    33
  3
STANDARD
100
AcDbAlignedDimension
 13
637.9742701558098
 23
292.4051175941428
 33
0.0
 14
593.8618777267239
 24
274.7615087177733
 34
0.0
1001
ACAD
1000
DSTYLE
1002
{
1070
   140
1040
6.0
1070
    74
1070
     0
1070
   172
1070
     1
1070
    73
1070
     0
1070
   272
1070
     2
1070
    77
1070
     3
1070
   173
1070
     1
1070
   147
1040
2.0
1070
    42
1040
6.0
1070
    44
1040
3.0
1070
    43
1040
14.0
1070
   271
1070
     0
1070
   178
1070
     4
1070
   177
1070
     4
1070
   176
1070
     4
1070
   141
1040
150.0
1070
     7
1000
_OPEN
1070
     6
1000
_OPEN
1070
    41
1040
7.0
1002
}
  0
DIMENSION
  5
7AC
330
1A
100
AcDbEntity
  8
SUNPOU
  6
CONTINUOUS
100
AcDbDimension
  2
*D3
 10
575.0721823887045
 20
308.275537424545
 30
0.0
 11
599.9139799032597
 21
323.5966053131038
 31
0.0
 12
14.15949736160803
 22
5.663369029087277
 32
0.0
 70
    33
  3
STANDARD
100
AcDbAlignedDimension
 13
642.6167025310034
 23
294.2619486693236
 33
0.0
 14
589.219445351531
 24
272.9046776425923
 34
0.0
1001
ACAD
1000
DSTYLE
1002
{
1070
   140
1040
6.0
1070
    74
1070
     0
1070
   172
1070
     1
1070
    73
1070
     0
1070
   272
1070
     2
1070
    77
1070
     3
1070
   173
1070
     1
1070
   147
1040
2.0
1070
    42
1040
6.0
1070
    44
1040
3.0
1070
    43
1040
14.0
1070
   271
1070
     0
1070
   178
1070
     4
1070
   177
1070
     4
1070
   176
1070
     4
1070
   141
1040
150.0
1070
     7
1000
_OPEN
1070
     6
1000
_OPEN
1070
    41
1040
7.0
1002
}
  0
DIMENSION
  5
7BB
330
1A
100
AcDbEntity
  8
SUNPOU
  6
CONTINUOUS
100
AcDbDimension
  2
*D4
 10
578.2314495505529
 20
241.5842748222582
 30
0.0
 11
579.1602197753842
 21
252.7259706478255
 31
0.0
 12
14.15949736160803
 22
5.663369029087277
 32
0.0
 70
    33
  3
STANDARD
100
AcDbAlignedDimension
 13
591.0762764267117
 23
268.2622452673992
 33
0.0
 14
598.5036007274356
 24
249.6925157666264
 34
0.0
1001
ACAD
1000
DSTYLE
1002
{
1070
   140
1040
6.0
1070
    74
1070
     0
1070
   172
1070
     1
1070
    73
1070
     0
1070
   272
1070
     2
1070
    77
1070
     3
1070
   173
1070
     1
1070
   147
1040
2.0
1070
    42
1040
6.0
1070
    44
1040
3.0
1070
    43
1040
14.0
1070
   271
1070
     0
1070
   178
1070
     4
1070
   177
1070
     4
1070
   176
1070
     4
1070
   141
1040
150.0
1070
     7
1000
_OPEN
1070
     6
1000
_OPEN
1070
    41
1040
7.0
1002
}
  0
DIMENSION
  5
7C8
330
1A
100
AcDbEntity
  8
SUNPOU
  6
CONTINUOUS
100
AcDbDimension
  2
*D5
 10
563.6022445546805
 20
230.347931839587
 30
0.0
 11
562.6741837043308
 21
246.1320600403476
 31
0.0
 12
14.15949736160803
 22
5.663369029087277
 32
0.0
 70
    33
  3
STANDARD
100
AcDbAlignedDimension
 13
589.2194453515308
 23
272.9046776425923
 33
0.0
 14
600.3604318026165
 24
245.050083391433
 34
0.0
1001
ACAD
1000
DSTYLE
1002
{
1070
   140
1040
6.0
1070
    74
1070
     0
1070
   172
1070
     1
1070
    73
1070
     0
1070
   272
1070
     2
1070
    77
1070
     3
1070
   173
1070
     1
1070
   147
1040
2.0
1070
    42
1040
6.0
1070
    44
1040
3.0
1070
    43
1040
14.0
1070
   271
1070
     0
1070
   178
1070
     4
1070
   177
1070
     4
1070
   176
1070
     4
1070
   141
1040
150.0
1070
     7
1000
_OPEN
1070
     6
1000
_OPEN
1070
    41
1040
7.0
1002
}
  0
LEADER
  5
7C9
330
1A
100
AcDbEntity
  8
SUNPOU
  6
CONTINUOUS
 62
     4
100
AcDbLeader
  3
STANDARD
 73
     0
 40
6.0
 41
30.19999999999999
 76
     3
 10
594.0864654410328
 20
271.2748365300277
 30
0.0
 10
574.6989605066167
 20
282.5609105268167
 30
0.0
 10
572.7025982718741
 20
282.5609105268166
 30
0.0
211
1.0
221
-0.0000000000000003
231
0.0
1001
ACAD
1000
DSTYLE
1002
{
1070
     6
1000
OPEN
1070
    41
1040
7.0
1070
    42
1040
6.0
1070
    43
1040
14.0
1070
    44
1040
3.0
1070
    73
1070
     0
1070
    74
1070
     0
1070
    77
1070
     3
1070
   140
1040
6.0
1070
   141
1040
150.0
1070
   147
1040
2.0
1070
   172
1070
     1
1070
   173
1070
     1
1070
   176
1070
     4
1070
   177
1070
     4
1070
   178
1070
     4
1070
   271
1070
     0
1070
   272
1070
     2
1070
   341
1005
6D
1070
   343
1005
6D
1070
   344
1005
6D
1002
}
  0
MTEXT
  5
7CA
330
1A
100
AcDbEntity
  8
SUNPOU
  6
CONTINUOUS
 62
     4
100
AcDbMText
 10
570.7025982718743
 20
284.5609105268166
 30
0.0
 40
6.0
 41
0.0
 71
     9
 72
     5
  1
4-φ4.0
1001
ACAD
1000
MTEXTBEGIN
1070
    73
1070
     1
1070
    44
1040
1.0
1070
    74
1070
     0
1000
MTEXTEND
1000
MTEXTBEGIN
1070
    73
1070
     1
1070
    44
1040
1.0
1070
    74
1070
     0
1000
MTEXTEND
1000
MTEXTBEGIN
1070
    73
1070
     1
1070
    44
1040
1.0
1070
    74
1070
     0
1000
MTEXTEND
  0
DIMENSION
  5
7D7
330
1A
100
AcDbEntity
  8
SUNPOU
  6
CONTINUOUS
100
AcDbDimension
  2
*D6
 10
503.8625913790779
 20
337.6640354147551
 30
0.0
 11
498.8625913790778
 21
366.4140354147551
 31
0.0
 12
-2.24956447819386
 22
-14.33479581450774
 32
0.0
 70
    32
  3
STANDARD
100
AcDbAlignedDimension
 13
475.9339961805086
 23
395.1640354147552
 33
0.0
 14
475.9339961805086
 24
337.6640354147551
 34
0.0
 50
90.0
100
AcDbRotatedDimension
1001
ACAD
1000
DSTYLE
1002
{
1070
   140
1040
6.0
1070
    74
1070
     0
1070
   172
1070
     1
1070
    73
1070
     0
1070
   272
1070
     2
1070
    77
1070
     3
1070
   173
1070
     1
1070
   147
1040
2.0
1070
    42
1040
6.0
1070
    44
1040
3.0
1070
    43
1040
14.0
1070
   271
1070
     0
1070
   178
1070
     4
1070
   177
1070
     4
1070
   176
1070
     4
1070
   141
1040
150.0
1070
     7
1000
_OPEN
1070
     6
1000
_OPEN
1070
    41
1040
7.0
1002
}
  0
DIMENSION
  5
7E6
330
1A
100
AcDbEntity
  8
SUNPOU
  6
CONTINUOUS
100
AcDbDimension
  2
*D7
 10
283.9303240938443
 20
353.9140354147551
 30
0.0
 11
278.9303240938443
 21
366.4140354147551
 31
0.0
 12
0.0
 22
10.0
 32
0.0
 70
    32
  3
STANDARD
100
AcDbAlignedDimension
 13
302.9761961805085
 23
378.9140354147552
 33
0.0
 14
302.9761961805085
 24
353.9140354147551
 34
0.0
 50
90.0
100
AcDbRotatedDimension
1001
ACAD
1000
DSTYLE
1002
{
1070
   140
1040
6.0
1070
    74
1070
     0
1070
   172
1070
     1
1070
    73
1070
     0
1070
   272
1070
     2
1070
    77
1070
     3
1070
   173
1070
     1
1070
   147
1040
2.0
1070
    42
1040
6.0
1070
    44
1040
3.0
1070
    43
1040
14.0
1070
   271
1070
     0
1070
   178
1070
     4
1070
   177
1070
     4
1070
   176
1070
     4
1070
   141
1040
150.0
1070
     7
1000
_OPEN
1070
     6
1000
_OPEN
1070
    41
1040
7.0
1002
}
  0
DIMENSION
  5
7F5
330
1A
100
AcDbEntity
  8
SUNPOU
  6
CONTINUOUS
100
AcDbDimension
  2
*D8
 10
417.7782961805085
 20
259.492608626376
 30
0.0
 11
440.1771811251291
 21
264.492608626376
 31
0.0
 70
    32
  3
STANDARD
100
AcDbAlignedDimension
 13
462.5760660697495
 23
228.6802383543323
 33
0.0
 14
417.7782961805085
 24
240.4164854147549
 34
0.0
100
AcDbRotatedDimension
1001
ACAD
1000
DSTYLE
1002
{
1070
   140
1040
6.0
1070
    74
1070
     0
1070
   172
1070
     1
1070
    73
1070
     0
1070
   272
1070
     2
1070
    77
1070
     3
1070
   173
1070
     1
1070
   147
1040
2.0
1070
    42
1040
6.0
1070
    44
1040
3.0
1070
    43
1040
14.0
1070
   271
1070
     0
1070
   178
1070
     4
1070
   177
1070
     4
1070
   176
1070
     4
1070
   141
1040
150.0
1070
     7
1000
_OPEN
1070
     6
1000
_OPEN
1070
    41
1040
7.0
1002
}
  0
DIMENSION
  5
802
330
1A
100
AcDbEntity
  8
SUNPOU
  6
CONTINUOUS
100
AcDbDimension
  2
*D9
 10
302.9760961805085
 20
294.4182312723055
 30
0.0
 11
382.776081125129
 21
299.4182312723055
 31
0.0
 70
    32
  3
STANDARD
100
AcDbAlignedDimension
 13
462.5760660697495
 23
228.6802383543323
 33
0.0
 14
302.9760961805085
 24
264.4141354147551
 34
0.0
100
AcDbRotatedDimension
1001
ACAD
1000
DSTYLE
1002
{
1070
   140
1040
6.0
1070
    74
1070
     0
1070
   172
1070
     1
1070
    73
1070
     0
1070
   272
1070
     2
1070
    77
1070
     3
1070
   173
1070
     1
1070
   147
1040
2.0
1070
    42
1040
6.0
1070
    44
1040
3.0
1070
    43
1040
14.0
1070
   271
1070
     0
1070
   178
1070
     4
1070
   177
1070
     4
1070
   176
1070
     4
1070
   141
1040
150.0
1070
     7
1000
_OPEN
1070
     6
1000
_OPEN
1070
    41
1040
7.0
1002
}
  0
LINE
  5
A77
330
1A
100
AcDbEntity
  8
SUNPOU
  6
CONTINUOUS
 62
     4
 48
16.0
100
AcDbLine
 10
497.9848279088601
 20
140.1520311265187
 30
0.0
 11
477.7908557660112
 21
190.6405559367872
 31
0.0
  0
ARC
  5
C19
330
1A
100
AcDbEntity
  8
SEIHIN
  6
CONTINUOUS
 62
     3
 48
16.0
100
AcDbCircle
 10
473.8502690663863
 20
376.3141354147553
 30
0.0
 40
1.000000000000113
100
AcDbArc
 50
270.0
 51
0.0
  0
LINE
  5
C1A
330
1A
100
AcDbEntity
  8
SEIHIN
  6
CONTINUOUS
100
AcDbLine
 10
474.8502690663864
 20
376.3141354147553
 30
0.0
 11
474.0772961805086
 21
379.3141354147552
 31
0.0
  0
ARC
  5
C1B
330
1A
100
AcDbEntity
  8
SEIHIN
  6
CONTINUOUS
 62
     3
 48
16.0
100
AcDbCircle
 10
464.9069690663862
 20
376.3141354147553
 30
0.0
 40
1.000000000000056
100
AcDbArc
 50
270.0000000000032
 51
0.0000000000032569
  0
LINE
  5
C1C
330
1A
100
AcDbEntity
  8
SEIHIN
  6
CONTINUOUS
100
AcDbLine
 10
465.9069690663862
 20
376.3141354147553
 30
0.0
 11
466.6498961805087
 21
379.3141354147552
 31
0.0
  0
ARC
  5
C1D
330
1A
100
AcDbEntity
  8
SEIHIN
  6
CONTINUOUS
 62
     3
 48
16.0
100
AcDbCircle
 10
472.3343690663861
 20
376.3141354147553
 30
0.0
 40
1.000000000000056
100
AcDbArc
 50
270.0000000000032
 51
0.0000000000032569
  0
ARC
  5
C1E
330
1A
100
AcDbEntity
  8
SEIHIN
  6
CONTINUOUS
 62
     3
 48
16.0
100
AcDbCircle
 10
466.4228690663864
 20
376.3141354147553
 30
0.0
 40
1.000000000000113
100
AcDbArc
 50
270.0
 51
0.0
  0
LINE
  5
C1F
330
1A
100
AcDbEntity
  8
SEIHIN
  6
CONTINUOUS
100
AcDbLine
 10
467.4228690663864
 20
376.3141354147553
 30
0.0
 11
466.6498961805087
 21
379.3141354147552
 31
0.0
  0
LINE
  5
C20
330
1A
100
AcDbEntity
  8
SEIHIN
  6
CONTINUOUS
100
AcDbLine
 10
473.3343690663863
 20
376.3141354147553
 30
0.0
 11
474.0772961805086
 21
379.3141354147552
 31
0.0
  0
LINE
  5
C21
330
1A
100
AcDbEntity
  8
SEIHIN
  6
CONTINUOUS
100
AcDbLine
 10
474.8502690663864
 20
356.513935414755
 30
0.0
 11
474.0772961805086
 21
353.5139354147551
 31
0.0
  0
LINE
  5
C22
330
1A
100
AcDbEntity
  8
SEIHIN
  6
CONTINUOUS
100
AcDbLine
 10
473.3343690663863
 20
356.513935414755
 30
0.0
 11
474.0772961805086
 21
353.5139354147551
 31
0.0
  0
LINE
  5
C23
330
1A
100
AcDbEntity
  8
SEIHIN
  6
CONTINUOUS
100
AcDbLine
 10
465.9069690663862
 20
356.513935414755
 30
0.0
 11
466.6498961805087
 21
353.5139354147551
 31
0.0
  0
LINE
  5
C24
330
1A
100
AcDbEntity
  8
SEIHIN
  6
CONTINUOUS
100
AcDbLine
 10
467.4228690663864
 20
356.513935414755
 30
0.0
 11
466.6498961805087
 21
353.5139354147551
 31
0.0
  0
ARC
  5
C25
330
1A
100
AcDbEntity
  8
SEIHIN
  6
CONTINUOUS
 62
     3
 48
16.0
100
AcDbCircle
 10
473.8502690663863
 20
356.513935414755
 30
0.0
 40
1.000000000000113
100
AcDbArc
 50
0.0
 51
90.0
  0
ARC
  5
C26
330
1A
100
AcDbEntity
  8
SEIHIN
  6
CONTINUOUS
 62
     3
 48
16.0
100
AcDbCircle
 10
464.9069690663862
 20
356.5139354147551
 30
0.0
 40
1.000000000000056
100
AcDbArc
 50
359.9999999999967
 51
89.99999999999674
  0
ARC
  5
C27
330
1A
100
AcDbEntity
  8
SEIHIN
  6
CONTINUOUS
 62
     3
 48
16.0
100
AcDbCircle
 10
472.3343690663861
 20
356.5139354147551
 30
0.0
 40
1.000000000000056
100
AcDbArc
 50
359.9999999999967
 51
89.99999999999674
  0
ARC
  5
C28
330
1A
100
AcDbEntity
  8
SEIHIN
  6
CONTINUOUS
 62
     3
 48
16.0
100
AcDbCircle
 10
466.4228690663864
 20
356.513935414755
 30
0.0
 40
1.000000000000113
100
AcDbArc
 50
0.0
 51
90.0
  0
LINE
  5
C29
330
1A
100
AcDbEntity
  8
SEIHIN
  6
CONTINUOUS
100
AcDbLine
 10
471.2579746378189
 20
198.7979481953572
 30
0.0
 11
473.3933707038328
 21
197.4982019314492
 31
0.0
  0
LINE
  5
C2A
330
1A
100
AcDbEntity
  8
SEIHIN
  6
CONTINUOUS
100
AcDbLine
 10
471.9078974575366
 20
201.2121444773995
 30
0.0
 11
471.2579746378189
 21
198.7979481953573
 31
0.0
  0
LINE
  5
C2B
330
1A
100
AcDbEntity
  8
SEIHIN
  6
CONTINUOUS
100
AcDbLine
 10
463.8305356580787
 20
217.3678428084601
 30
0.0
 11
465.9660044723513
 21
216.0679146612004
 31
0.0
  0
LINE
  5
C2C
330
1A
100
AcDbEntity
  8
SEIHIN
  6
CONTINUOUS
100
AcDbLine
 10
464.480531226055
 20
219.7818572071507
 30
0.0
 11
463.8305356580787
 21
217.3678428084601
 31
0.0
  0
DIMENSION
  5
C46
330
1A
100
AcDbEntity
  8
SUNPOU
  6
CONTINUOUS
100
AcDbDimension
  2
*D10
 10
498.1482030114968
 20
204.1680855445861
 30
0.0
 11
496.1116669968164
 21
222.7235264264061
 31
0.0
 70
    33
  3
STANDARD
100
AcDbAlignedDimension
 13
462.5760660697495
 23
228.6802383543323
 33
0.0
 14
475.9339961805086
 24
195.283035414755
 34
0.0
1001
ACAD
1000
DSTYLE
1002
{
1070
   140
1040
6.0
1070
    74
1070
     0
1070
   172
1070
     1
1070
    73
1070
     0
1070
   272
1070
     2
1070
    77
1070
     3
1070
   173
1070
     1
1070
   147
1040
2.0
1070
    42
1040
6.0
1070
    44
1040
3.0
1070
    43
1040
14.0
1070
   271
1070
     0
1070
   178
1070
     4
1070
   177
1070
     4
1070
   176
1070
     4
1070
   141
1040
150.0
1070
     7
1000
_OPEN
1070
     6
1000
_OPEN
1070
    41
1040
7.0
1002
}
  0
LINE
  5
C47
330
1A
100
AcDbEntity
  8
SEIHIN
  6
CONTINUOUS
 62
     3
 48
16.0
100
AcDbLine
 10
458.0135848212282
 20
223.6215056820231
 30
0.0
 11
417.1513152130003
 21
223.4970882816684
 31
0.0
  0
ARC
  5
C48
330
1A
100
AcDbEntity
  8
SEIHIN
  6
CONTINUOUS
 62
     3
 48
16.0
100
AcDbCircle
 10
417.1574047829056
 20
221.4970975524053
 30
0.0
 40
2.0
100
AcDbArc
 50
90.174453596864
 51
168.8212390246706
  0
ARC
  5
C49
330
1A
100
AcDbEntity
  8
SEIHIN
  6
CONTINUOUS
 62
     3
 48
16.0
100
AcDbCircle
 10
458.0196743911336
 20
221.62151495276
 30
0.0
 40
2.0
100
AcDbArc
 50
21.79994571262129
 51
90.17445359686403
  0
LINE
  5
C4C
330
1A
100
AcDbEntity
  8
SEIHIN
  6
CONTINUOUS
100
AcDbLine
 10
462.6832949824641
 20
356.3625365029388
 30
0.0
 11
462.683294982464
 21
357.5139354147551
 31
0.0
  0
LINE
  5
C4D
330
1A
100
AcDbEntity
  8
SEIHIN
  6
CONTINUOUS
100
AcDbLine
 10
459.3721268080149
 20
359.1139354147551
 30
0.0
 11
459.372126808015
 21
373.7139354147551
 31
0.0
  0
ARC
  5
C4E
330
1A
100
AcDbEntity
  8
SEIHIN
  6
CONTINUOUS
 62
     3
 48
16.0
100
AcDbCircle
 10
473.9340961805086
 20
393.1640354147552
 30
0.0
 40
2.0
100
AcDbArc
 50
0.0
 51
90.0
  0
ARC
  5
C4F
330
1A
100
AcDbEntity
  8
SEIHIN
  6
CONTINUOUS
 62
     3
 48
16.0
100
AcDbCircle
 10
466.7930067345706
 20
393.1640354147552
 30
0.0
 40
2.0
100
AcDbArc
 50
90.0
 51
180.0003023508028
  0
ARC
  5
C50
330
1A
100
AcDbEntity
  8
SEIHIN
  6
CONTINUOUS
 62
     3
 48
16.0
100
AcDbCircle
 10
465.3665211108864
 20
393.1640354147552
 30
0.0
 40
2.0
100
AcDbArc
 50
90.0
 51
180.0
  0
ARC
  5
C51
330
1A
100
AcDbEntity
  8
SEIHIN
  6
CONTINUOUS
 62
     3
 48
16.0
100
AcDbCircle
 10
473.9340961805087
 20
339.6640354147552
 30
0.0
 40
2.0
100
AcDbArc
 50
270.0
 51
0.0
  0
ARC
  5
C52
330
1A
100
AcDbEntity
  8
SEIHIN
  6
CONTINUOUS
 62
     3
 48
16.0
100
AcDbCircle
 10
466.7930067346818
 20
339.6640354147551
 30
0.0
 40
2.0
100
AcDbArc
 50
179.999697646006
 51
270.0000000000002
  0
ARC
  5
C53
330
1A
100
AcDbEntity
  8
SEIHIN
  6
CONTINUOUS
 62
     3
 48
16.0
100
AcDbCircle
 10
465.3665211108865
 20
339.6640354147551
 30
0.0
 40
2.0
100
AcDbArc
 50
180.0
 51
270.0000000000009
  0
ARC
  5
C54
330
1A
100
AcDbEntity
  8
SEIHIN
  6
CONTINUOUS
 62
     3
 48
16.0
100
AcDbCircle
 10
462.3665211108864
 20
355.4140354147552
 30
0.0
 40
1.0
100
AcDbArc
 50
0.0
 51
90.0
  0
ARC
  5
C55
330
1A
100
AcDbEntity
  8
SEIHIN
  6
CONTINUOUS
 62
     3
 48
16.0
100
AcDbCircle
 10
462.3665211108864
 20
377.4140354147552
 30
0.0
 40
1.0
100
AcDbArc
 50
270.0
 51
0.0
  0
LINE
  5
C58
330
1A
100
AcDbEntity
  8
SEIHIN
  6
CONTINUOUS
100
AcDbLine
 10
462.683294982464
 20
375.3139354147551
 30
0.0
 11
462.683294982464
 21
376.4655343265715
 31
0.0
  0
LINE
  5
C59
330
1A
100
AcDbEntity
  8
SEIHIN
  6
CONTINUOUS
 62
     3
 48
16.0
100
AcDbLine
 10
624.4648497310085
 20
289.1558024946499
 30
0.0
 11
623.3507510858999
 21
291.9412619197658
 31
0.0
  0
LINE
  5
C5A
330
1A
100
AcDbEntity
  8
SEIHIN
  6
CONTINUOUS
 62
     3
 48
16.0
100
AcDbLine
 10
605.888093087051
 20
281.7193659466874
 30
0.0
 11
604.7718257972515
 21
284.5102705236702
 31
0.0
  0
LINE
  5
C5B
330
1A
100
AcDbEntity
  8
SEIHIN
  6
CONTINUOUS
100
AcDbLine
 10
237.5260961805086
 20
223.1376354147551
 30
0.0
 11
221.7760961805046
 21
223.1376354147551
 31
0.0
  0
LINE
  5
C5C
330
1A
100
AcDbEntity
  8
SEIHIN
  6
CONTINUOUS
100
AcDbLine
 10
237.5260961805086
 20
222.529939760271
 30
0.0
 11
221.7760961805046
 21
222.529939760271
 31
0.0
  0
ARC
  5
C5D
330
1A
100
AcDbEntity
  8
SEIHIN
  6
CONTINUOUS
100
AcDbCircle
 10
237.5260961805086
 20
220.5299397602711
 30
0.0
 40
2.0
100
AcDbArc
 50
359.9999999999983
 51
90.00000000000081
  0
ARC
  5
C5E
330
1A
100
AcDbEntity
  8
SEIHIN
  6
CONTINUOUS
100
AcDbCircle
 10
237.5260961805086
 20
221.1376354147551
 30
0.0
 40
2.0
100
AcDbArc
 50
359.9999999999992
 51
90.00000000000081
  0
ARC
  5
C5F
330
1A
100
AcDbEntity
  8
SEIHIN
  6
CONTINUOUS
100
AcDbCircle
 10
184.0260961805085
 20
220.5299397602711
 30
0.0
 40
2.0
100
AcDbArc
 50
89.9999999999992
 51
180.0000000000016
  0
ARC
  5
C60
330
1A
100
AcDbEntity
  8
SEIHIN
  6
CONTINUOUS
100
AcDbCircle
 10
184.0260961805085
 20
221.1376354147551
 30
0.0
 40
2.0
100
AcDbArc
 50
89.99999999999836
 51
180.0000000000007
  0
LINE
  5
C61
330
1A
100
AcDbEntity
  8
SEIHIN
  6
CONTINUOUS
100
AcDbLine
 10
199.7761764529142
 20
223.1376354147551
 30
0.0
 11
184.0260961805086
 21
223.1376354147551
 31
0.0
  0
LINE
  5
C62
330
1A
100
AcDbEntity
  8
SEIHIN
  6
CONTINUOUS
100
AcDbLine
 10
199.776174136992
 20
222.529939760271
 30
0.0
 11
184.0260961805086
 21
222.529939760271
 31
0.0
  0
DIMENSION
  5
C92
330
1A
100
AcDbEntity
  8
SUNPOU
  6
CONTINUOUS
100
AcDbDimension
  2
*D11
 10
520.2378856260493
 20
195.283035414755
 30
0.0
 11
515.2378856260493
 21
218.347260414755
 31
0.0
 70
    32
  3
STANDARD
100
AcDbAlignedDimension
 13
416.7832961805086
 23
241.4114854147551
 33
0.0
 14
475.9339961805086
 24
195.283035414755
 34
0.0
 50
90.0
100
AcDbRotatedDimension
1001
ACAD
1000
DSTYLE
1002
{
1070
   140
1040
6.0
1070
    74
1070
     0
1070
   172
1070
     1
1070
    73
1070
     0
1070
   272
1070
     2
1070
    77
1070
     3
1070
   173
1070
     1
1070
   147
1040
2.0
1070
    42
1040
6.0
1070
    44
1040
3.0
1070
    43
1040
14.0
1070
   271
1070
     0
1070
   178
1070
     4
1070
   177
1070
     4
1070
   176
1070
     4
1070
   141
1040
150.0
1070
     7
1000
_OPEN
1070
     6
1000
_OPEN
1070
    41
1040
7.0
1002
}
  0
LINE
  5
CB1
330
1A
100
AcDbEntity
  8
SEIHIN
  6
CONTINUOUS
 62
     3
 48
16.0
100
AcDbLine
 10
303.7761961805086
 20
357.9140354147551
 30
0.0
 11
302.9761961805085
 21
357.9140354147551
 31
0.0
  0
LINE
  5
CB2
330
1A
100
AcDbEntity
  8
SEIHIN
  6
CONTINUOUS
 62
     3
 48
16.0
100
AcDbLine
 10
303.7761961805086
 20
374.9139354147551
 30
0.0
 11
302.9761961805085
 21
374.9139354147551
 31
0.0
  0
ARC
  5
CE1
330
1A
100
AcDbEntity
  8
SEIHIN
  6
CONTINUOUS
 62
     3
 48
16.0
100
AcDbCircle
 10
626.3218226810859
 20
289.8985349247223
 30
0.0
 40
2.0
100
AcDbArc
 50
201.7998999999996
 51
291.7998999999996
  0
ARC
  5
CE2
330
1A
100
AcDbEntity
  8
SEIHIN
  6
CONTINUOUS
 62
     3
 48
16.0
100
AcDbCircle
 10
604.0289514922831
 20
280.982078668482
 30
0.0
 40
1.999999999999943
100
AcDbArc
 50
291.7999000000012
 51
21.79990000000129
  0
ARC
  5
CE3
330
1A
100
AcDbEntity
  8
SEIHIN
  6
CONTINUOUS
 62
     3
 48
16.0
100
AcDbCircle
 10
457.5454954480904
 20
223.6569350301754
 30
0.0
 40
5.0
100
AcDbArc
 50
21.8000293748219
 51
83.21356771703287
  0
ARC
  5
D2B
330
1A
100
AcDbEntity
  8
SEIHIN
  6
CONTINUOUS
 62
     3
 48
16.0
100
AcDbCircle
 10
310.6092961805086
 20
371.4139354145984
 30
0.0
 40
2.5
100
AcDbArc
 50
90.0
 51
270.0
  0
ARC
  5
D2C
330
1A
100
AcDbEntity
  8
SEIHIN
  6
CONTINUOUS
 62
     3
 48
16.0
100
AcDbCircle
 10
310.6092961805086
 20
361.4140354145984
 30
0.0
 40
2.500000000000085
100
AcDbArc
 50
90.0
 51
270.0
  0
ARC
  5
D2E
330
1A
100
AcDbEntity
  8
SEIHIN
  6
CONTINUOUS
100
AcDbCircle
 10
330.2806961805085
 20
371.4139354145984
 30
0.0
 40
3.625000000000041
100
AcDbArc
 50
136.3971810272969
 51
223.602818972703
  0
ARC
  5
D2F
330
1A
100
AcDbEntity
  8
SEIHIN
  6
CONTINUOUS
100
AcDbCircle
 10
317.5580104662228
 20
371.4139354145984
 30
0.0
 40
2.660714285714282
100
AcDbArc
 50
110.0159596028825
 51
249.9840403971174
  0
ARC
  5
D30
330
1A
100
AcDbEntity
  8
SEIHIN
  6
CONTINUOUS
100
AcDbCircle
 10
317.5580104662228
 20
361.4139354145984
 30
0.0
 40
2.660714285714282
100
AcDbArc
 50
110.0159596028825
 51
249.9840403971174
  0
ARC
  5
D31
330
1A
100
AcDbEntity
  8
SEIHIN
  6
CONTINUOUS
100
AcDbCircle
 10
330.2806961805085
 20
361.4139354145984
 30
0.0
 40
3.625000000000041
100
AcDbArc
 50
136.3971810272969
 51
223.602818972703
  0
ARC
  5
D32
330
1A
100
AcDbEntity
  8
SEIHIN
  6
CONTINUOUS
100
AcDbCircle
 10
391.2716961805088
 20
371.4139354145984
 30
0.0
 40
3.625000000000041
100
AcDbArc
 50
316.397181027297
 51
43.60281897270302
  0
ARC
  5
D33
330
1A
100
AcDbEntity
  8
SEIHIN
  6
CONTINUOUS
100
AcDbCircle
 10
391.2716961805088
 20
361.4139354145984
 30
0.0
 40
3.625000000000041
100
AcDbArc
 50
316.397181027297
 51
43.60281897270302
  0
ARC
  5
D34
330
1A
100
AcDbEntity
  8
SEIHIN
  6
CONTINUOUS
100
AcDbCircle
 10
403.9943818947945
 20
371.4139354145984
 30
0.0
 40
2.660714285714282
100
AcDbArc
 50
290.0159596028825
 51
69.98404039711745
  0
ARC
  5
D35
330
1A
100
AcDbEntity
  8
SEIHIN
  6
CONTINUOUS
100
AcDbCircle
 10
403.9943818947945
 20
361.4139354145984
 30
0.0
 40
2.660714285714282
100
AcDbArc
 50
290.0159596028825
 51
69.98404039711745
  0
DIMENSION
  5
D46
330
1A
100
AcDbEntity
  8
SUNPOU
  6
CONTINUOUS
100
AcDbDimension
  2
*D12
 10
284.055101752806
 20
191.414035414755
 30
0.0
 11
279.0551017528059
 21
227.9140854147551
 31
0.0
 70
    32
  3
STANDARD
100
AcDbAlignedDimension
 13
302.9760961805085
 23
264.4141354147551
 33
0.0
 14
327.6555961805085
 24
191.414035414755
 34
0.0
 50
90.0
100
AcDbRotatedDimension
1001
ACAD
1000
DSTYLE
1002
{
1070
   140
1040
6.0
1070
    74
1070
     0
1070
   172
1070
     1
1070
    73
1070
     0
1070
   272
1070
     2
1070
    77
1070
     3
1070
   173
1070
     1
1070
   147
1040
2.0
1070
    42
1040
6.0
1070
    44
1040
3.0
1070
    43
1040
14.0
1070
   271
1070
     0
1070
   178
1070
     4
1070
   177
1070
     4
1070
   176
1070
     4
1070
   141
1040
150.0
1070
     7
1000
_OPEN
1070
     6
1000
_OPEN
1070
    41
1040
7.0
1002
}
  0
DIMENSION
  5
D6B
330
1A
100
AcDbEntity
  8
SUNPOU
  6
CONTINUOUS
100
AcDbDimension
  2
*D13
 10
486.5095562567847
 20
199.5129582809487
 30
0.0
 11
485.5814651360208
 21
215.2970896288425
 31
0.0
 70
    33
  3
STANDARD
100
AcDbAlignedDimension
 13
464.7929558575825
 23
223.1376192864797
 33
0.0
 14
475.9339961805087
 24
195.283035414755
 34
0.0
1001
ACAD
1000
DSTYLE
1002
{
1070
   140
1040
6.0
1070
    74
1070
     0
1070
   172
1070
     1
1070
    73
1070
     0
1070
   272
1070
     2
1070
    77
1070
     3
1070
   173
1070
     1
1070
   147
1040
2.0
1070
    42
1040
6.0
1070
    44
1040
3.0
1070
    43
1040
14.0
1070
   271
1070
     0
1070
   178
1070
     4
1070
   177
1070
     4
1070
   176
1070
     4
1070
   141
1040
150.0
1070
     7
1000
_OPEN
1070
     6
1000
_OPEN
1070
    41
1040
7.0
1002
}
  0
LINE
  5
D70
330
1A
100
AcDbEntity
  8
SEIHIN
  6
CONTINUOUS
 62
     3
 48
16.0
100
AcDbLine
 10
614.4326090811223
 20
287.2972590561127
 30
0.0
 11
622.3293865513279
 21
290.4557287149963
 31
0.0
  0
LINE
  5
D71
330
1A
100
AcDbEntity
  8
SEIHIN
  6
CONTINUOUS
 62
     3
 48
16.0
100
AcDbLine
 10
614.4326090811223
 20
287.2972590561127
 30
0.0
 11
606.5359218067377
 21
284.1388254728011
 31
0.0
  0
LINE
  5
D72
330
1A
100
AcDbEntity
  8
SEIHIN
  6
CONTINUOUS
100
AcDbLine
 10
623.3507510858999
 20
291.9412619197658
 30
0.0
 11
621.9580213733418
 21
291.3842125972116
 31
0.0
  0
LINE
  5
D73
330
1A
100
AcDbEntity
  8
SEIHIN
  6
CONTINUOUS
100
AcDbLine
 10
606.1645571013734
 20
285.0673158669946
 30
0.0
 11
604.7718257972515
 21
284.5102705236702
 31
0.0
  0
LINE
  5
D78
330
1A
100
AcDbEntity
  8
SEIHIN
  6
CONTINUOUS
 62
     3
 48
16.0
100
AcDbLine
 10
474.5075447441571
 20
194.7125722459124
 30
0.0
 11
462.1879238144001
 21
225.5137761282997
 31
0.0
  0
DIMENSION
  5
D89
330
1A
100
AcDbEntity
  8
SUNPOU
  6
CONTINUOUS
100
AcDbDimension
  2
*D14
 10
486.502660797441
 20
168.8584410650572
 30
0.0
 11
506.929666791219
 21
182.4134189746726
 31
0.0
 70
    33
  1
t<>
  3
STANDARD
100
AcDbAlignedDimension
 13
474.5075633909818
 23
194.7125256255942
 33
0.0
 14
475.9339961805086
 24
195.283035414755
 34
0.0
1001
ACAD
1000
DSTYLE
1002
{
1070
   140
1040
6.0
1070
    74
1070
     0
1070
   172
1070
     1
1070
    73
1070
     0
1070
   272
1070
     2
1070
    77
1070
     3
1070
   173
1070
     1
1070
   147
1040
2.0
1070
    42
1040
6.0
1070
    44
1040
3.0
1070
    43
1040
14.0
1070
   271
1070
     1
1070
   178
1070
     4
1070
   177
1070
     4
1070
   176
1070
     4
1070
   141
1040
150.0
1070
     7
1000
_OPEN
1070
     6
1000
_OPEN
1070
    41
1040
7.0
1002
}
  0
LINE
  5
DBE
330
1A
100
AcDbEntity
  8
SEIHIN
  6
CONTINUOUS
 62
     3
 48
16.0
100
AcDbLine
 10
619.1622829221398
 20
252.5702492459122
 30
0.0
 11
606.1645571013733
 21
285.0673158669946
 31
0.0
  0
LINE
  5
DBF
330
1A
100
AcDbEntity
  8
SEIHIN
  6
CONTINUOUS
 62
     3
 48
16.0
100
AcDbLine
 10
634.9558378625581
 20
258.8871885636822
 30
0.0
 11
621.9580213733419
 21
291.3842125972116
 31
0.0
  0
ARC
  5
DC0
330
1A
100
AcDbEntity
  8
SEIHIN
  6
CONTINUOUS
 62
     3
 48
16.0
100
AcDbCircle
 10
605.4216749503824
 20
281.5391205475382
 30
0.0
 40
2.0
100
AcDbArc
 50
291.7999097859323
 51
21.79973629777264
  0
ARC
  5
DC1
330
1A
100
AcDbEntity
  8
SEIHIN
  6
CONTINUOUS
 62
     3
 48
16.0
100
AcDbCircle
 10
624.9290929621849
 20
289.3414856180262
 30
0.0
 40
2.0
100
AcDbArc
 50
201.7998999999996
 51
291.7999097859324
  0
LINE
  5
DCB
330
1A
100
AcDbEntity
  8
SUNPOU
  6
CONTINUOUS
100
AcDbLine
 10
497.9848279088601
 20
140.1520311265187
 30
0.0
 11
489.9848279088601
 21
140.1520311265187
 31
0.0
  0
LINE
  5
DCC
330
1A
100
AcDbEntity
  8
SUNPOU
  6
CONTINUOUS
100
AcDbLine
 10
489.9848279088601
 20
140.1520311265187
 30
0.0
 11
489.826822415375
 21
160.548496955357
 31
0.0
  0
TEXT
  5
DCD
330
1A
100
AcDbEntity
  8
SUNPOU
  6
CONTINUOUS
100
AcDbText
 10
480.6861529304442
 20
145.7302804073465
 30
0.0
 40
6.0
  1
10
100
AcDbText
  0
TEXT
  5
DCE
330
1A
100
AcDbEntity
  8
SUNPOU
  6
CONTINUOUS
100
AcDbText
 10
491.6432802431336
 20
131.1321736187574
 30
0.0
 40
6.0
  1
4
100
AcDbText
  0
LWPOLYLINE
  5
F00
330
1A
100
AcDbEntity
  8
ZUWAKU
100
AcDbPolyline
 90
        4
 70
     1
 43
0.0
 10
0.1999996402756778
 20
551.3999994260826
 10
0.1999996402756778
 20
0.199999426082627
 10
797.3999996402755
 20
0.1999994260826501
 10
797.3999996402758
 20
551.3999994260826
  0
LWPOLYLINE
  5
F01
330
1A
100
AcDbEntity
  8
ZUWAKU
100
AcDbPolyline
 90
        4
 70
     1
 43
0.0
 10
0.5999996402756551
 20
550.9999994260827
 10
0.5999996402756551
 20
0.5999994260826043
 10
796.9999996402759
 20
0.5999994260826505
 10
796.9999996402757
 20
550.9999994260827
  0
LWPOLYLINE
  5
F02
330
1A
100
AcDbEntity
  8
ZUWAKU
100
AcDbPolyline
 90
        4
 70
     1
 43
0.0
 10
-0.0000003597242539
 20
551.5999994260826
 10
-0.0000003597242539
 20
-0.0000005739174185
 10
797.5999996402759
 20
-0.000000573917351
 10
797.5999996402759
 20
551.5999994260827
  0
LWPOLYLINE
  5
F03
330
1A
100
AcDbEntity
  8
ZUWAKU
100
AcDbPolyline
 90
        4
 70
     1
 43
0.0
 10
0.3999996402757233
 20
551.1999994260825
 10
0.3999996402757233
 20
0.3999994260826725
 10
797.1999996402757
 20
0.3999994260826494
 10
797.1999996402757
 20
551.1999994260825
  0
LWPOLYLINE
  5
F04
330
1A
100
AcDbEntity
  8
ZUWAKU
100
AcDbPolyline
 90
        4
 70
     1
 43
0.0
 10
0.7999996402757006
 20
550.7999994260826
 10
0.7999996402757006
 20
0.7999994260826498
 10
796.7999996402757
 20
0.7999994260826498
 10
796.7999996402757
 20
550.7999994260826
  0
LINE
  5
F05
330
1A
100
AcDbEntity
  8
ZUWAKU
100
AcDbLine
 10
208.6466009303437
 20
15.19999942608261
 30
0.0
 11
447.4243636112671
 21
15.19999942608261
 31
0.0
  0
LINE
  5
F06
330
1A
100
AcDbEntity
  8
ZUWAKU
100
AcDbLine
 10
208.6466009303437
 20
15.59999942608261
 30
0.0
 11
447.4243636112671
 21
15.59999942608262
 31
0.0
  0
LINE
  5
F07
330
1A
100
AcDbEntity
  8
ZUWAKU
100
AcDbLine
 10
208.6466009303437
 20
15.39999942608261
 30
0.0
 11
447.4243636112671
 21
15.39999942608261
 31
0.0
  0
LINE
  5
F08
330
1A
100
AcDbEntity
  8
ZUWAKU
100
AcDbLine
 10
-0.0000003597242539
 20
30.79999942608259
 30
0.0
 11
797.3999996402755
 21
30.79999942608259
 31
0.0
  0
LINE
  5
F09
330
1A
100
AcDbEntity
  8
ZUWAKU
100
AcDbLine
 10
-0.0000003597242539
 20
30.59999942608259
 30
0.0
 11
797.3999996402755
 21
30.59999942608259
 31
0.0
  0
LINE
  5
F0A
330
1A
100
AcDbEntity
  8
ZUWAKU
100
AcDbLine
 10
-0.0000003597242539
 20
30.39999942608258
 30
0.0
 11
797.3999996402755
 21
30.39999942608258
 31
0.0
  0
LINE
  5
F0B
330
1A
100
AcDbEntity
  8
ZUWAKU
100
AcDbLine
 10
-0.0000003597242539
 20
30.19999942608258
 30
0.0
 11
797.3999996402755
 21
30.19999942608258
 31
0.0
  0
LINE
  5
F0C
330
1A
100
AcDbEntity
  8
ZUWAKU
100
AcDbLine
 10
-0.0000003597242539
 20
29.99999942608258
 30
0.0
 11
797.3999996402755
 21
29.99999942608258
 31
0.0
  0
TEXT
  5
F0D
330
1A
100
AcDbEntity
  8
MOJI
100
AcDbText
 10
92.95778922844489
 20
12.74117755635734
 30
0.0
 40
6.0
  1
ライナートップＸ７０Ｕ
 41
0.9
  7
ｽﾀｲﾙ1
100
AcDbText
  0
HATCH
  5
F0E
330
1A
100
AcDbEntity
  8
ZUWAKU
100
AcDbHatch
 10
0.0
 20
0.0
 30
0.0
210
0.0
220
0.0
230
1.0
  2
ANSI37
 70
     0
 71
     0
 91
        8
 92
        7
 72
     1
 73
     1
 93
       24
 10
14.5022623013956
 20
17.64484790706616
 42
-0.1989123673796348
 10
14.09221179505687
 20
18.63479740072721
 42
0.0
 10
14.09221179505687
 20
19.92499942608259
 42
-0.4142135623730912
 10
14.61721179505684
 20
20.44999942608258
 42
0.0
 10
17.59221179505675
 20
20.44999942608258
 42
0.4142135623731546
 10
18.11721179505684
 20
20.97499942608257
 42
0.0
 10
18.11721179505684
 20
22.72499942608259
 42
0.4142135623731586
 10
17.59221179505675
 20
23.24999942608259
 42
0.0
 10
14.09221179505687
 20
23.24999942608259
 42
0.4142135623730928
 10
11.29221179505691
 20
20.44999942608261
 42
0.0
 10
11.29221179505691
 20
18.63479740072734
 42
0.1989123673796619
 10
12.52236331407334
 20
15.66494891974373
 42
0.0
 10
15.43216128871802
 20
12.75515094509907
 42
-0.1989123673796613
 10
15.84221179505687
 20
11.76520145143789
 42
0.0
 10
15.84221179505687
 20
10.47499942608257
 42
-0.4142135623730911
 10
15.31721179505689
 20
9.949999426082584
 42
0.0
 10
12.34221179505698
 20
9.949999426082584
 42
0.4142135623731526
 10
11.81721179505689
 20
9.424999426082596
 42
0.0
 10
11.81721179505689
 20
7.674999426082575
 42
0.4142135623731526
 10
12.34221179505698
 20
7.149999426082587
 42
0.0
 10
15.84221179505687
 20
7.149999426082587
 42
0.4142135623731044
 10
18.64221179505693
 20
9.949999426082563
 42
0.0
 10
18.64221179505693
 20
11.76520145143783
 42
0.1989123673796604
 10
17.41206027604039
 20
14.73504993242137
 42
0.0
 97
        0
 92
        7
 72
     1
 73
     1
 93
       16
 10
23.54221179505691
 20
19.04999942608259
 42
-0.4142135623730935
 10
24.94221179505689
 20
20.44999942608258
 42
0.0
 10
26.86721179505684
 20
20.44999942608258
 42
0.4142135623731546
 10
27.39221179505693
 20
20.97499942608257
 42
0.0
 10
27.39221179505693
 20
22.72499942608259
 42
0.4142135623730951
 10
26.86721179505695
 20
23.24999942608259
 42
0.0
 10
24.94221179505677
 20
23.24999942608254
 42
0.4142135623730892
 10
20.74221179505684
 20
19.04999942608252
 42
0.0
 10
20.74221179505684
 20
11.34999942608261
 42
0.4142135623730969
 10
24.94221179505689
 20
7.149999426082587
 42
0.0
 10
26.86721179505684
 20
7.149999426082587
 42
0.4142135623731526
 10
27.39221179505693
 20
7.674999426082575
 42
0.0
 10
27.39221179505693
 20
9.424999426082596
 42
0.4142135623730891
 10
26.86721179505695
 20
9.949999426082584
 42
0.0
 10
24.94221179505689
 20
9.949999426082584
 42
-0.4142135623730928
 10
23.54221179505691
 20
11.34999942608257
 42
0.0
 97
        0
 92
        7
 72
     1
 73
     1
 93
        2
 10
24.24221179505684
 20
15.19999942608258
 42
1.0
 10
27.74221179505684
 20
15.19999942608258
 42
1.0
 97
        0
 92
        7
 72
     1
 73
     1
 93
       26
 10
37.31485827723486
 20
19.20504661964601
 42
0.0
 10
38.37649791037268
 20
22.5669054579156
 42
0.5069206636600134
 10
37.87586701117731
 20
23.24999942608259
 42
0.0
 10
36.17697763156809
 20
23.24999942608259
 42
0.3272098845218764
 10
35.67634673237273
 20
22.88309339424955
 42
0.0
 10
33.80807685774096
 20
16.96690545791566
 42
-0.3272098845219541
 10
33.30744595854548
 20
16.59999942608258
 42
0.0
 10
33.16721179505702
 20
16.59999942608258
 42
-0.4142135623731526
 10
32.64221179505693
 20
17.12499942608257
 42
0.0
 10
32.64221179505693
 20
22.72499942608259
 42
0.4142135623730951
 10
32.11721179505696
 20
23.24999942608259
 42
0.0
 10
30.36721179505684
 20
23.24999942608259
 42
0.4142135623730871
 10
29.84221179505686
 20
22.7249994260826
 42
0.0
 10
29.84221179505686
 20
7.674999426082575
 42
0.4142135623730891
 10
30.36721179505684
 20
7.149999426082587
 42
0.0
 10
32.11721179505684
 20
7.149999426082587
 42
0.4142135623731526
 10
32.64221179505693
 20
7.674999426082575
 42
0.0
 10
32.64221179505693
 20
13.27499942608259
 42
-0.4142135623731526
 10
33.16721179505702
 20
13.79999942608258
 42
0.0
 10
33.3074459585456
 20
13.79999942608258
 42
-0.3272098845218915
 10
33.80807685774096
 20
13.43309339424951
 42
0.0
 10
35.67634673237273
 20
7.516905457915658
 42
0.3272098845218902
 10
36.17697763156809
 20
7.149999426082587
 42
0.0
 10
37.87586701117731
 20
7.149999426082587
 42
0.5069206636600335
 10
38.37649791037268
 20
7.833093394249594
 42
0.0
 10
36.05010653189902
 20
15.19999942608272
 42
0.0
 97
        0
 92
        7
 72
     1
 73
     1
 93
        8
 10
43.49221179505684
 20
22.72499942608259
 42
0.4142135623731546
 10
42.96721179505675
 20
23.24999942608259
 42
0.0
 10
41.21721179505698
 20
23.24999942608259
 42
0.4142135623731507
 10
40.69221179505689
 20
22.7249994260826
 42
0.0
 10
40.69221179505689
 20
7.674999426082575
 42
0.4142135623731526
 10
41.21721179505698
 20
7.149999426082587
 42
0.0
 10
42.96721179505675
 20
7.149999426082587
 42
0.4142135623731526
 10
43.49221179505684
 20
7.674999426082575
 42
0.0
 97
        0
 92
        7
 72
     1
 73
     1
 93
       24
 10
48.39221179505694
 20
19.92499942608259
 42
-0.4142135623731546
 10
48.91721179505703
 20
20.44999942608258
 42
0.0
 10
51.89221179505693
 20
20.44999942608258
 42
0.4142135623730911
 10
52.41721179505692
 20
20.97499942608257
 42
0.0
 10
52.41721179505692
 20
22.72499942608259
 42
0.4142135623730952
 10
51.89221179505693
 20
23.24999942608259
 42
0.0
 10
48.39221179505694
 20
23.24999942608259
 42
0.4142135623731048
 10
45.59221179505686
 20
20.44999942608261
 42
0.0
 10
45.59221179505686
 20
18.63479740072734
 42
0.1989123673796613
 10
46.82236331407341
 20
15.66494891974379
 42
0.0
 10
49.73216128871809
 20
12.75515094509912
 42
-0.1989123673796402
 10
50.14221179505693
 20
11.76520145143805
 42
0.0
 10
50.14221179505693
 20
10.47499942608257
 42
-0.4142135623730911
 10
49.61721179505696
 20
9.949999426082584
 42
0.0
 10
46.64221179505694
 20
9.949999426082584
 42
0.4142135623731526
 10
46.11721179505685
 20
9.424999426082596
 42
0.0
 10
46.11721179505685
 20
7.674999426082575
 42
0.4142135623730891
 10
46.64221179505682
 20
7.149999426082587
 42
0.0
 10
50.14221179505693
 20
7.149999426082587
 42
0.4142135623730925
 10
52.94221179505689
 20
9.949999426082563
 42
0.0
 10
52.94221179505689
 20
11.76520145143783
 42
0.1989123673796675
 10
51.71206027604035
 20
14.73504993242149
 42
0.0
 10
48.80226230139578
 20
17.644847907066
 42
-0.1989123673796652
 10
48.39221179505694
 20
18.63479740072717
 42
0.0
 97
        0
 92
        7
 72
     1
 73
     1
 93
       16
 10
57.84221179505687
 20
22.72499942608257
 42
0.414213562373103
 10
57.31721179505689
 20
23.24999942608259
 42
0.0
 10
55.56721179505689
 20
23.24999942608259
 42
0.4142135623730871
 10
55.04221179505691
 20
22.7249994260826
 42
0.0
 10
55.04221179505691
 20
9.949999426082563
 42
0.4142135623730926
 10
57.84221179505687
 20
7.149999426082587
 42
0.0
 10
61.34221179505686
 20
7.149999426082587
 42
0.4142135623731044
 10
64.14221179505694
 20
9.949999426082563
 42
0.0
 10
64.14221179505694
 20
22.72499942608259
 42
0.4142135623730951
 10
63.61721179505696
 20
23.24999942608259
 42
0.0
 10
61.86721179505685
 20
23.24999942608259
 42
0.4142135623730871
 10
61.34221179505686
 20
22.7249994260826
 42
0.0
 10
61.34221179505686
 20
10.99999942608256
 42
-0.414213562373088
 10
60.29221179505691
 20
9.949999426082584
 42
0.0
 10
58.89221179505693
 20
9.949999426082584
 42
-0.4142135623731197
 10
57.84221179505687
 20
10.99999942608256
 42
0.0
 97
        0
 92
        7
 72
     1
 73
     1
 93
        8
 10
69.04221179505691
 20
22.7249994260826
 42
0.4142135623730871
 10
68.51721179505694
 20
23.24999942608259
 42
0.0
 10
66.76721179505694
 20
23.24999942608259
 42
0.4142135623731507
 10
66.24221179505685
 20
22.7249994260826
 42
0.0
 10
66.24221179505685
 20
7.674999426082575
 42
0.4142135623730891
 10
66.76721179505682
 20
7.149999426082587
 42
0.0
 10
68.51721179505694
 20
7.149999426082587
 42
0.4142135623730891
 10
69.04221179505691
 20
7.674999426082575
 42
0.0
 97
        0
 75
     0
 76
     1
 52
0.0
 41
0.2
 77
     0
 78
     2
 53
45.0
 43
-900.9423046944032
 44
-13.20000057391735
 45
-0.4490128060534576
 46
0.4490128060534577
 79
     0
 53
135.0
 43
-900.9423046944032
 44
-13.20000057391735
 45
-0.4490128060534577
 46
-0.4490128060534576
 79
     0
 47
0.057451373970553
 98
        8
 10
16.07985460329905
 20
15.16717307196813
 10
22.40451464671491
 20
18.84406160853359
 10
25.1643675259354
 20
15.5118810721533
 10
30.91405962191288
 20
16.20129707252408
 10
41.83847165923248
 20
16.6609093400657
 10
46.89820053540529
 20
19.41857574248979
 10
56.5576856126761
 20
18.72915734117759
 10
67.82707925989848
 20
19.18876960871921
  0
LINE
  5
F0F
330
1A
100
AcDbEntity
  8
ZUWAKU
100
AcDbLine
 10
24.94221179505689
 20
23.24999942608254
 30
0.0
 11
26.86721179505684
 21
23.24999942608259
 31
0.0
  0
LINE
  5
F10
330
1A
100
AcDbEntity
  8
ZUWAKU
100
AcDbLine
 10
26.86721179505684
 20
20.44999942608258
 30
0.0
 11
24.94221179505689
 21
20.44999942608258
 31
0.0
  0
LINE
  5
F11
330
1A
100
AcDbEntity
  8
ZUWAKU
100
AcDbLine
 10
24.94221179505689
 20
9.949999426082584
 30
0.0
 11
26.86721179505684
 21
9.949999426082584
 31
0.0
  0
LINE
  5
F12
330
1A
100
AcDbEntity
  8
ZUWAKU
100
AcDbLine
 10
26.86721179505684
 20
7.149999426082587
 30
0.0
 11
24.94221179505689
 21
7.149999426082587
 31
0.0
  0
CIRCLE
  5
F13
330
1A
100
AcDbEntity
  8
ZUWAKU
100
AcDbCircle
 10
25.99221179505684
 20
15.19999942608258
 30
0.0
 40
1.75
  0
ARC
  5
F14
330
1A
100
AcDbEntity
  8
ZUWAKU
100
AcDbCircle
 10
15.49221179505684
 20
18.63479740072728
 30
0.0
 40
1.399999999999999
100
AcDbArc
 50
180.0000000000016
 51
224.9999999999988
  0
LINE
  5
F15
330
1A
100
AcDbEntity
  8
ZUWAKU
100
AcDbLine
 10
23.54221179505691
 20
19.04999942608258
 30
0.0
 11
23.54221179505691
 21
11.34999942608259
 31
0.0
  0
LINE
  5
F16
330
1A
100
AcDbEntity
  8
ZUWAKU
100
AcDbLine
 10
20.74221179505684
 20
11.34999942608259
 30
0.0
 11
20.74221179505684
 21
19.04999942608254
 31
0.0
  0
ARC
  5
F17
330
1A
100
AcDbEntity
  8
ZUWAKU
100
AcDbCircle
 10
15.49221179505684
 20
18.63479740072728
 30
0.0
 40
4.199999999999999
100
AcDbArc
 50
180.0
 51
225.0
  0
ARC
  5
F18
330
1A
100
AcDbEntity
  8
ZUWAKU
100
AcDbCircle
 10
15.84221179505687
 20
9.949999426082584
 30
0.0
 40
2.799999999999999
100
AcDbArc
 50
270.0
 51
0.0
  0
ARC
  5
F19
330
1A
100
AcDbEntity
  8
ZUWAKU
100
AcDbCircle
 10
24.94221179505689
 20
11.34999942608259
 30
0.0
 40
4.199999999999999
100
AcDbArc
 50
180.0
 51
270.0
  0
ARC
  5
F1A
330
1A
100
AcDbEntity
  8
ZUWAKU
100
AcDbCircle
 10
14.44221179505689
 20
11.76520145143788
 30
0.0
 40
4.199999999999999
100
AcDbArc
 50
0.0
 51
45.0
  0
LINE
  5
F1B
330
1A
100
AcDbEntity
  8
ZUWAKU
100
AcDbLine
 10
17.41206027604039
 20
14.73504993242141
 30
0.0
 11
14.50226230139571
 21
17.64484790706608
 31
0.0
  0
LINE
  5
F1C
330
1A
100
AcDbEntity
  8
ZUWAKU
100
AcDbLine
 10
15.84221179505687
 20
10.47499942608258
 30
0.0
 11
15.84221179505687
 21
11.76520145143793
 31
0.0
  0
ARC
  5
F1D
330
1A
100
AcDbEntity
  8
ZUWAKU
100
AcDbCircle
 10
15.31721179505689
 20
10.47499942608258
 30
0.0
 40
0.525
100
AcDbArc
 50
270.0
 51
0.0
  0
ARC
  5
F1E
330
1A
100
AcDbEntity
  8
ZUWAKU
100
AcDbCircle
 10
14.44221179505689
 20
11.76520145143793
 30
0.0
 40
1.399999999999999
100
AcDbArc
 50
0.0
 51
45.0
  0
LINE
  5
F1F
330
1A
100
AcDbEntity
  8
ZUWAKU
100
AcDbLine
 10
11.81721179505689
 20
7.674999426082585
 30
0.0
 11
11.81721179505689
 21
9.424999426082585
 31
0.0
  0
ARC
  5
F20
330
1A
100
AcDbEntity
  8
ZUWAKU
100
AcDbCircle
 10
12.34221179505686
 20
7.674999426082585
 30
0.0
 40
0.525
100
AcDbArc
 50
180.0
 51
270.0
  0
ARC
  5
F21
330
1A
100
AcDbEntity
  8
ZUWAKU
100
AcDbCircle
 10
12.34221179505686
 20
9.424999426082585
 30
0.0
 40
0.525
100
AcDbArc
 50
90.0
 51
180.0
  0
LINE
  5
F22
330
1A
100
AcDbEntity
  8
ZUWAKU
100
AcDbLine
 10
12.34221179505686
 20
7.149999426082587
 30
0.0
 11
15.84221179505687
 21
7.149999426082587
 31
0.0
  0
LINE
  5
F23
330
1A
100
AcDbEntity
  8
ZUWAKU
100
AcDbLine
 10
12.34221179505686
 20
9.949999426082584
 30
0.0
 11
15.31721179505689
 21
9.949999426082584
 31
0.0
  0
LINE
  5
F24
330
1A
100
AcDbEntity
  8
ZUWAKU
100
AcDbLine
 10
12.52236331407334
 20
15.66494891974376
 30
0.0
 11
15.43216128871802
 21
12.7551509450991
 31
0.0
  0
LINE
  5
F25
330
1A
100
AcDbEntity
  8
ZUWAKU
100
AcDbLine
 10
18.64221179505693
 20
9.949999426082584
 30
0.0
 11
18.64221179505693
 21
11.76520145143793
 31
0.0
  0
ARC
  5
F26
330
1A
100
AcDbEntity
  8
ZUWAKU
100
AcDbCircle
 10
24.94221179505689
 20
11.34999942608259
 30
0.0
 40
1.399999999999999
100
AcDbArc
 50
180.0
 51
270.0
  0
ARC
  5
F27
330
1A
100
AcDbEntity
  8
ZUWAKU
100
AcDbCircle
 10
17.59221179505686
 20
22.72499942608258
 30
0.0
 40
0.525
100
AcDbArc
 50
0.0
 51
90.0
  0
ARC
  5
F28
330
1A
100
AcDbEntity
  8
ZUWAKU
100
AcDbCircle
 10
17.59221179505686
 20
20.97499942608258
 30
0.0
 40
0.525
100
AcDbArc
 50
270.0
 51
0.0
  0
LINE
  5
F29
330
1A
100
AcDbEntity
  8
ZUWAKU
100
AcDbLine
 10
14.09221179505687
 20
23.24999942608259
 30
0.0
 11
17.59221179505686
 21
23.24999942608259
 31
0.0
  0
ARC
  5
F2A
330
1A
100
AcDbEntity
  8
ZUWAKU
100
AcDbCircle
 10
14.61721179505684
 20
19.92499942608258
 30
0.0
 40
0.525
100
AcDbArc
 50
90.0
 51
180.0
  0
LINE
  5
F2B
330
1A
100
AcDbEntity
  8
ZUWAKU
100
AcDbLine
 10
14.09221179505687
 20
19.92499942608258
 30
0.0
 11
14.09221179505687
 21
18.63479740072724
 31
0.0
  0
LINE
  5
F2C
330
1A
100
AcDbEntity
  8
ZUWAKU
100
AcDbLine
 10
17.59221179505686
 20
20.44999942608258
 30
0.0
 11
14.61721179505684
 21
20.44999942608258
 31
0.0
  0
LINE
  5
F2D
330
1A
100
AcDbEntity
  8
ZUWAKU
100
AcDbLine
 10
11.29221179505691
 20
20.44999942608258
 30
0.0
 11
11.29221179505691
 21
18.63479740072724
 31
0.0
  0
ARC
  5
F2E
330
1A
100
AcDbEntity
  8
ZUWAKU
100
AcDbCircle
 10
14.09221179505687
 20
20.44999942608258
 30
0.0
 40
2.799999999999999
100
AcDbArc
 50
90.0
 51
180.0
  0
LINE
  5
F2F
330
1A
100
AcDbEntity
  8
ZUWAKU
100
AcDbLine
 10
18.11721179505684
 20
22.72499942608258
 30
0.0
 11
18.11721179505684
 21
20.97499942608258
 31
0.0
  0
ARC
  5
F30
330
1A
100
AcDbEntity
  8
ZUWAKU
100
AcDbCircle
 10
24.94221179505689
 20
19.04999942608258
 30
0.0
 40
1.399999999999999
100
AcDbArc
 50
90.0
 51
180.0
  0
ARC
  5
F31
330
1A
100
AcDbEntity
  8
ZUWAKU
100
AcDbCircle
 10
24.94221179505689
 20
19.04999942608254
 30
0.0
 40
4.199999999999999
100
AcDbArc
 50
90.0
 51
180.0
  0
LINE
  5
F32
330
1A
100
AcDbEntity
  8
ZUWAKU
100
AcDbLine
 10
79.32662918826395
 20
29.99999942608258
 30
0.0
 11
79.32662918826418
 21
0.7999994260826498
 31
0.0
  0
LINE
  5
F33
330
1A
100
AcDbEntity
  8
ZUWAKU
100
AcDbLine
 10
79.52662918826399
 20
29.99999942608258
 30
0.0
 11
79.52662918826423
 21
0.7999994260826498
 31
0.0
  0
LINE
  5
F34
330
1A
100
AcDbEntity
  8
ZUWAKU
100
AcDbLine
 10
79.12662918826413
 20
29.99999942608258
 30
0.0
 11
79.12662918826413
 21
0.7999994260826498
 31
0.0
  0
LINE
  5
F35
330
1A
100
AcDbEntity
  8
ZUWAKU
100
AcDbLine
 10
64.14221179505694
 20
9.949999426082584
 30
0.0
 11
64.14221179505694
 21
22.72499942608258
 31
0.0
  0
LINE
  5
F36
330
1A
100
AcDbEntity
  8
ZUWAKU
100
AcDbLine
 10
61.34221179505686
 20
22.72499942608258
 30
0.0
 11
61.34221179505686
 21
10.99999942608258
 31
0.0
  0
LINE
  5
F37
330
1A
100
AcDbEntity
  8
ZUWAKU
100
AcDbLine
 10
69.04221179505691
 20
7.674999426082585
 30
0.0
 11
69.04221179505691
 21
22.72499942608258
 31
0.0
  0
LINE
  5
F38
330
1A
100
AcDbEntity
  8
ZUWAKU
100
AcDbLine
 10
66.24221179505685
 20
22.72499942608258
 30
0.0
 11
66.24221179505685
 21
7.674999426082585
 31
0.0
  0
ARC
  5
F39
330
1A
100
AcDbEntity
  8
ZUWAKU
100
AcDbCircle
 10
49.79221179505691
 20
18.63479740072728
 30
0.0
 40
1.399999999999999
100
AcDbArc
 50
180.0000000000016
 51
224.9999999999988
  0
ARC
  5
F3A
330
1A
100
AcDbEntity
  8
ZUWAKU
100
AcDbCircle
 10
49.79221179505691
 20
18.63479740072728
 30
0.0
 40
4.199999999999999
100
AcDbArc
 50
180.0
 51
225.0
  0
LINE
  5
F3B
330
1A
100
AcDbEntity
  8
ZUWAKU
100
AcDbLine
 10
37.31485827723486
 20
19.20504661964601
 30
0.0
 11
36.05010653189902
 21
15.1999994260826
 31
0.0
  0
LINE
  5
F3C
330
1A
100
AcDbEntity
  8
ZUWAKU
100
AcDbLine
 10
40.69221179505689
 20
22.72499942608258
 30
0.0
 11
40.69221179505689
 21
7.674999426082585
 31
0.0
  0
LINE
  5
F3D
330
1A
100
AcDbEntity
  8
ZUWAKU
100
AcDbLine
 10
43.49221179505684
 20
7.674999426082585
 30
0.0
 11
43.49221179505684
 21
22.72499942608258
 31
0.0
  0
LINE
  5
F3E
330
1A
100
AcDbEntity
  8
ZUWAKU
100
AcDbLine
 10
55.04221179505691
 20
22.72499942608258
 30
0.0
 11
55.04221179505691
 21
9.949999426082584
 31
0.0
  0
LINE
  5
F3F
330
1A
100
AcDbEntity
  8
ZUWAKU
100
AcDbLine
 10
57.84221179505687
 20
10.99999942608258
 30
0.0
 11
57.84221179505687
 21
22.72499942608258
 31
0.0
  0
LINE
  5
F40
330
1A
100
AcDbEntity
  8
ZUWAKU
100
AcDbLine
 10
32.64221179505693
 20
17.12499942608259
 30
0.0
 11
32.64221179505693
 21
22.72499942608258
 31
0.0
  0
LINE
  5
F41
330
1A
100
AcDbEntity
  8
ZUWAKU
100
AcDbLine
 10
29.84221179505686
 20
22.72499942608258
 30
0.0
 11
29.84221179505686
 21
7.674999426082585
 31
0.0
  0
LINE
  5
F42
330
1A
100
AcDbEntity
  8
ZUWAKU
100
AcDbLine
 10
35.67634673237273
 20
22.88309339424955
 30
0.0
 11
33.80807685774096
 21
16.96690545791561
 31
0.0
  0
LINE
  5
F43
330
1A
100
AcDbEntity
  8
ZUWAKU
100
AcDbLine
 10
60.29221179505691
 20
9.949999426082584
 30
0.0
 11
58.89221179505693
 21
9.949999426082584
 31
0.0
  0
LINE
  5
F44
330
1A
100
AcDbEntity
  8
ZUWAKU
100
AcDbLine
 10
57.84221179505687
 20
7.149999426082587
 30
0.0
 11
61.34221179505686
 21
7.149999426082587
 31
0.0
  0
LINE
  5
F45
330
1A
100
AcDbEntity
  8
ZUWAKU
100
AcDbLine
 10
41.21721179505686
 20
7.149999426082587
 30
0.0
 11
42.96721179505687
 21
7.149999426082587
 31
0.0
  0
LINE
  5
F46
330
1A
100
AcDbEntity
  8
ZUWAKU
100
AcDbLine
 10
35.67634673237273
 20
7.516905457915612
 30
0.0
 11
33.80807685774096
 21
13.43309339424955
 31
0.0
  0
ARC
  5
F47
330
1A
100
AcDbEntity
  8
ZUWAKU
100
AcDbCircle
 10
33.3074459585456
 20
17.12499942608259
 30
0.0
 40
0.525
100
AcDbArc
 50
270.0
 51
342.4744316262769
  0
LINE
  5
F48
330
1A
100
AcDbEntity
  8
ZUWAKU
100
AcDbLine
 10
33.3074459585456
 20
16.59999942608258
 30
0.0
 11
33.16721179505691
 21
16.59999942608258
 31
0.0
  0
LINE
  5
F49
330
1A
100
AcDbEntity
  8
ZUWAKU
100
AcDbLine
 10
33.16721179505691
 20
13.79999942608258
 30
0.0
 11
33.3074459585456
 21
13.79999942608258
 31
0.0
  0
ARC
  5
F4A
330
1A
100
AcDbEntity
  8
ZUWAKU
100
AcDbCircle
 10
33.16721179505691
 20
17.12499942608259
 30
0.0
 40
0.525
100
AcDbArc
 50
180.0
 51
270.0
  0
LINE
  5
F4B
330
1A
100
AcDbEntity
  8
ZUWAKU
100
AcDbLine
 10
30.36721179505684
 20
7.149999426082587
 30
0.0
 11
32.11721179505684
 21
7.149999426082587
 31
0.0
  0
ARC
  5
F4C
330
1A
100
AcDbEntity
  8
ZUWAKU
100
AcDbCircle
 10
32.11721179505684
 20
7.674999426082585
 30
0.0
 40
0.525
100
AcDbArc
 50
270.0
 51
0.0
  0
LINE
  5
F4D
330
1A
100
AcDbEntity
  8
ZUWAKU
100
AcDbLine
 10
32.64221179505693
 20
7.674999426082585
 30
0.0
 11
32.64221179505693
 21
13.27499942608258
 31
0.0
  0
LINE
  5
F4E
330
1A
100
AcDbEntity
  8
ZUWAKU
100
AcDbLine
 10
27.39221179505693
 20
9.424999426082585
 30
0.0
 11
27.39221179505693
 21
7.674999426082585
 31
0.0
  0
ARC
  5
F4F
330
1A
100
AcDbEntity
  8
ZUWAKU
100
AcDbCircle
 10
26.86721179505684
 20
7.674999426082585
 30
0.0
 40
0.525
100
AcDbArc
 50
270.0
 51
0.0
  0
ARC
  5
F50
330
1A
100
AcDbEntity
  8
ZUWAKU
100
AcDbCircle
 10
26.86721179505684
 20
9.424999426082585
 30
0.0
 40
0.525
100
AcDbArc
 50
0.0
 51
90.0
  0
ARC
  5
F51
330
1A
100
AcDbEntity
  8
ZUWAKU
100
AcDbCircle
 10
30.36721179505684
 20
7.674999426082585
 30
0.0
 40
0.525
100
AcDbArc
 50
180.0
 51
270.0
  0
ARC
  5
F52
330
1A
100
AcDbEntity
  8
ZUWAKU
100
AcDbCircle
 10
33.3074459585456
 20
13.27499942608258
 30
0.0
 40
0.525
100
AcDbArc
 50
17.52556837372303
 51
90.0
  0
ARC
  5
F53
330
1A
100
AcDbEntity
  8
ZUWAKU
100
AcDbCircle
 10
33.16721179505691
 20
13.27499942608258
 30
0.0
 40
0.525
100
AcDbArc
 50
90.0
 51
180.0
  0
ARC
  5
F54
330
1A
100
AcDbEntity
  8
ZUWAKU
100
AcDbCircle
 10
41.21721179505686
 20
7.674999426082585
 30
0.0
 40
0.525
100
AcDbArc
 50
180.0
 51
270.0
  0
LINE
  5
F55
330
1A
100
AcDbEntity
  8
ZUWAKU
100
AcDbLine
 10
36.17697763156821
 20
7.149999426082587
 30
0.0
 11
37.8758670111772
 21
7.149999426082587
 31
0.0
  0
ARC
  5
F56
330
1A
100
AcDbEntity
  8
ZUWAKU
100
AcDbCircle
 10
37.8758670111772
 20
7.674999426082585
 30
0.0
 40
0.525
100
AcDbArc
 50
270.0
 51
17.52556837372303
  0
LINE
  5
F57
330
1A
100
AcDbEntity
  8
ZUWAKU
100
AcDbLine
 10
38.37649791037268
 20
7.833093394249559
 30
0.0
 11
36.05010653189902
 21
15.1999994260826
 31
0.0
  0
ARC
  5
F58
330
1A
100
AcDbEntity
  8
ZUWAKU
100
AcDbCircle
 10
36.17697763156821
 20
7.674999426082585
 30
0.0
 40
0.525
100
AcDbArc
 50
197.525568373723
 51
270.0
  0
ARC
  5
F59
330
1A
100
AcDbEntity
  8
ZUWAKU
100
AcDbCircle
 10
57.84221179505687
 20
9.949999426082584
 30
0.0
 40
2.799999999999999
100
AcDbArc
 50
180.0
 51
270.0
  0
ARC
  5
F5A
330
1A
100
AcDbEntity
  8
ZUWAKU
100
AcDbCircle
 10
50.14221179505693
 20
9.949999426082584
 30
0.0
 40
2.799999999999999
100
AcDbArc
 50
270.0
 51
0.0
  0
LINE
  5
F5B
330
1A
100
AcDbEntity
  8
ZUWAKU
100
AcDbLine
 10
51.71206027604046
 20
14.73504993242141
 30
0.0
 11
48.80226230139567
 21
17.64484790706608
 31
0.0
  0
LINE
  5
F5C
330
1A
100
AcDbEntity
  8
ZUWAKU
100
AcDbLine
 10
50.14221179505693
 20
10.47499942608258
 30
0.0
 11
50.14221179505693
 21
11.76520145143793
 31
0.0
  0
ARC
  5
F5D
330
1A
100
AcDbEntity
  8
ZUWAKU
100
AcDbCircle
 10
48.74221179505685
 20
11.76520145143793
 30
0.0
 40
1.399999999999999
100
AcDbArc
 50
0.0
 51
45.0
  0
ARC
  5
F5E
330
1A
100
AcDbEntity
  8
ZUWAKU
100
AcDbCircle
 10
49.61721179505684
 20
10.47499942608258
 30
0.0
 40
0.525
100
AcDbArc
 50
270.0
 51
0.0
  0
LINE
  5
F5F
330
1A
100
AcDbEntity
  8
ZUWAKU
100
AcDbLine
 10
46.11721179505685
 20
7.674999426082585
 30
0.0
 11
46.11721179505685
 21
9.424999426082585
 31
0.0
  0
ARC
  5
F60
330
1A
100
AcDbEntity
  8
ZUWAKU
100
AcDbCircle
 10
46.64221179505694
 20
7.674999426082585
 30
0.0
 40
0.525
100
AcDbArc
 50
180.0
 51
270.0
  0
ARC
  5
F61
330
1A
100
AcDbEntity
  8
ZUWAKU
100
AcDbCircle
 10
42.96721179505687
 20
7.674999426082585
 30
0.0
 40
0.525
100
AcDbArc
 50
270.0
 51
0.0
  0
ARC
  5
F62
330
1A
100
AcDbEntity
  8
ZUWAKU
100
AcDbCircle
 10
46.64221179505694
 20
9.424999426082585
 30
0.0
 40
0.525
100
AcDbArc
 50
90.0
 51
180.0
  0
LINE
  5
F63
330
1A
100
AcDbEntity
  8
ZUWAKU
100
AcDbLine
 10
46.64221179505694
 20
9.949999426082584
 30
0.0
 11
49.61721179505684
 21
9.949999426082584
 31
0.0
  0
LINE
  5
F64
330
1A
100
AcDbEntity
  8
ZUWAKU
100
AcDbLine
 10
46.64221179505694
 20
7.149999426082587
 30
0.0
 11
50.14221179505693
 21
7.149999426082587
 31
0.0
  0
LINE
  5
F65
330
1A
100
AcDbEntity
  8
ZUWAKU
100
AcDbLine
 10
46.82236331407341
 20
15.66494891974376
 30
0.0
 11
49.73216128871809
 21
12.7551509450991
 31
0.0
  0
LINE
  5
F66
330
1A
100
AcDbEntity
  8
ZUWAKU
100
AcDbLine
 10
52.94221179505689
 20
9.949999426082584
 30
0.0
 11
52.94221179505689
 21
11.76520145143793
 31
0.0
  0
ARC
  5
F67
330
1A
100
AcDbEntity
  8
ZUWAKU
100
AcDbCircle
 10
48.74221179505685
 20
11.76520145143788
 30
0.0
 40
4.199999999999999
100
AcDbArc
 50
0.0
 51
45.0
  0
ARC
  5
F68
330
1A
100
AcDbEntity
  8
ZUWAKU
100
AcDbCircle
 10
58.89221179505693
 20
10.99999942608258
 30
0.0
 40
1.049999999999999
100
AcDbArc
 50
180.0
 51
270.0
  0
ARC
  5
F69
330
1A
100
AcDbEntity
  8
ZUWAKU
100
AcDbCircle
 10
61.34221179505686
 20
9.949999426082584
 30
0.0
 40
2.799999999999999
100
AcDbArc
 50
270.0
 51
0.0
  0
LINE
  5
F6A
330
1A
100
AcDbEntity
  8
ZUWAKU
100
AcDbLine
 10
66.76721179505694
 20
7.149999426082587
 30
0.0
 11
68.51721179505694
 21
7.149999426082587
 31
0.0
  0
ARC
  5
F6B
330
1A
100
AcDbEntity
  8
ZUWAKU
100
AcDbCircle
 10
66.76721179505694
 20
7.674999426082585
 30
0.0
 40
0.525
100
AcDbArc
 50
180.0
 51
270.0
  0
ARC
  5
F6C
330
1A
100
AcDbEntity
  8
ZUWAKU
100
AcDbCircle
 10
60.29221179505691
 20
10.99999942608258
 30
0.0
 40
1.049999999999999
100
AcDbArc
 50
270.0
 51
0.0
  0
ARC
  5
F6D
330
1A
100
AcDbEntity
  8
ZUWAKU
100
AcDbCircle
 10
68.51721179505694
 20
7.674999426082585
 30
0.0
 40
0.525
100
AcDbArc
 50
270.0
 51
0.0
  0
LINE
  5
F6E
330
1A
100
AcDbEntity
  8
ZUWAKU
100
AcDbLine
 10
42.96721179505687
 20
23.24999942608259
 30
0.0
 11
41.21721179505686
 21
23.24999942608259
 31
0.0
  0
ARC
  5
F6F
330
1A
100
AcDbEntity
  8
ZUWAKU
100
AcDbCircle
 10
32.11721179505684
 20
22.72499942608258
 30
0.0
 40
0.525
100
AcDbArc
 50
0.0
 51
90.0
  0
LINE
  5
F70
330
1A
100
AcDbEntity
  8
ZUWAKU
100
AcDbLine
 10
32.11721179505684
 20
23.24999942608259
 30
0.0
 11
30.36721179505684
 21
23.24999942608259
 31
0.0
  0
ARC
  5
F71
330
1A
100
AcDbEntity
  8
ZUWAKU
100
AcDbCircle
 10
26.86721179505684
 20
22.72499942608258
 30
0.0
 40
0.525
100
AcDbArc
 50
0.0
 51
90.0
  0
ARC
  5
F72
330
1A
100
AcDbEntity
  8
ZUWAKU
100
AcDbCircle
 10
30.36721179505684
 20
22.72499942608258
 30
0.0
 40
0.525
100
AcDbArc
 50
90.0
 51
180.0
  0
ARC
  5
F73
330
1A
100
AcDbEntity
  8
ZUWAKU
100
AcDbCircle
 10
26.86721179505684
 20
20.97499942608258
 30
0.0
 40
0.525
100
AcDbArc
 50
270.0
 51
0.0
  0
LINE
  5
F74
330
1A
100
AcDbEntity
  8
ZUWAKU
100
AcDbLine
 10
27.39221179505693
 20
22.72499942608258
 30
0.0
 11
27.39221179505693
 21
20.97499942608258
 31
0.0
  0
ARC
  5
F75
330
1A
100
AcDbEntity
  8
ZUWAKU
100
AcDbCircle
 10
41.21721179505686
 20
22.72499942608258
 30
0.0
 40
0.525
100
AcDbArc
 50
90.0
 51
180.0
  0
LINE
  5
F76
330
1A
100
AcDbEntity
  8
ZUWAKU
100
AcDbLine
 10
36.17697763156821
 20
23.24999942608259
 30
0.0
 11
37.8758670111772
 21
23.24999942608259
 31
0.0
  0
ARC
  5
F77
330
1A
100
AcDbEntity
  8
ZUWAKU
100
AcDbCircle
 10
37.8758670111772
 20
22.72499942608258
 30
0.0
 40
0.525
100
AcDbArc
 50
342.4744316262769
 51
90.0
  0
LINE
  5
F78
330
1A
100
AcDbEntity
  8
ZUWAKU
100
AcDbLine
 10
38.37649791037268
 20
22.56690545791561
 30
0.0
 11
37.31485827723486
 21
19.20504661964601
 31
0.0
  0
ARC
  5
F79
330
1A
100
AcDbEntity
  8
ZUWAKU
100
AcDbCircle
 10
36.17697763156821
 20
22.72499942608258
 30
0.0
 40
0.525
100
AcDbArc
 50
90.0
 51
162.4744316262769
  0
LINE
  5
F7A
330
1A
100
AcDbEntity
  8
ZUWAKU
100
AcDbLine
 10
48.39221179505694
 20
23.24999942608259
 30
0.0
 11
51.89221179505693
 21
23.24999942608259
 31
0.0
  0
LINE
  5
F7B
330
1A
100
AcDbEntity
  8
ZUWAKU
100
AcDbLine
 10
51.89221179505693
 20
20.44999942608258
 30
0.0
 11
48.91721179505691
 21
20.44999942608258
 31
0.0
  0
ARC
  5
F7C
330
1A
100
AcDbEntity
  8
ZUWAKU
100
AcDbCircle
 10
48.91721179505691
 20
19.92499942608258
 30
0.0
 40
0.525
100
AcDbArc
 50
90.0
 51
180.0
  0
LINE
  5
F7D
330
1A
100
AcDbEntity
  8
ZUWAKU
100
AcDbLine
 10
48.39221179505694
 20
19.92499942608258
 30
0.0
 11
48.39221179505694
 21
18.63479740072724
 31
0.0
  0
ARC
  5
F7E
330
1A
100
AcDbEntity
  8
ZUWAKU
100
AcDbCircle
 10
42.96721179505687
 20
22.72499942608258
 30
0.0
 40
0.525
100
AcDbArc
 50
0.0
 51
90.0
  0
LINE
  5
F7F
330
1A
100
AcDbEntity
  8
ZUWAKU
100
AcDbLine
 10
45.59221179505686
 20
20.44999942608258
 30
0.0
 11
45.59221179505686
 21
18.63479740072724
 31
0.0
  0
ARC
  5
F80
330
1A
100
AcDbEntity
  8
ZUWAKU
100
AcDbCircle
 10
48.39221179505694
 20
20.44999942608258
 30
0.0
 40
2.799999999999999
100
AcDbArc
 50
90.0
 51
180.0
  0
ARC
  5
F81
330
1A
100
AcDbEntity
  8
ZUWAKU
100
AcDbCircle
 10
57.31721179505689
 20
22.72499942608258
 30
0.0
 40
0.525
100
AcDbArc
 50
0.0
 51
90.0
  0
ARC
  5
F82
330
1A
100
AcDbEntity
  8
ZUWAKU
100
AcDbCircle
 10
55.56721179505689
 20
22.72499942608258
 30
0.0
 40
0.525
100
AcDbArc
 50
90.0
 51
180.0
  0
LINE
  5
F83
330
1A
100
AcDbEntity
  8
ZUWAKU
100
AcDbLine
 10
57.31721179505689
 20
23.24999942608259
 30
0.0
 11
55.56721179505689
 21
23.24999942608259
 31
0.0
  0
ARC
  5
F84
330
1A
100
AcDbEntity
  8
ZUWAKU
100
AcDbCircle
 10
51.89221179505693
 20
22.72499942608258
 30
0.0
 40
0.525
100
AcDbArc
 50
0.0
 51
90.0
  0
ARC
  5
F85
330
1A
100
AcDbEntity
  8
ZUWAKU
100
AcDbCircle
 10
51.89221179505693
 20
20.97499942608258
 30
0.0
 40
0.525
100
AcDbArc
 50
270.0
 51
0.0
  0
LINE
  5
F86
330
1A
100
AcDbEntity
  8
ZUWAKU
100
AcDbLine
 10
52.41721179505692
 20
22.72499942608258
 30
0.0
 11
52.41721179505692
 21
20.97499942608258
 31
0.0
  0
LINE
  5
F87
330
1A
100
AcDbEntity
  8
ZUWAKU
100
AcDbLine
 10
68.51721179505694
 20
23.24999942608259
 30
0.0
 11
66.76721179505694
 21
23.24999942608259
 31
0.0
  0
ARC
  5
F88
330
1A
100
AcDbEntity
  8
ZUWAKU
100
AcDbCircle
 10
66.76721179505694
 20
22.72499942608258
 30
0.0
 40
0.525
100
AcDbArc
 50
90.0
 51
180.0
  0
ARC
  5
F89
330
1A
100
AcDbEntity
  8
ZUWAKU
100
AcDbCircle
 10
63.61721179505685
 20
22.72499942608258
 30
0.0
 40
0.525
100
AcDbArc
 50
0.0
 51
90.0
  0
LINE
  5
F8A
330
1A
100
AcDbEntity
  8
ZUWAKU
100
AcDbLine
 10
63.61721179505685
 20
23.24999942608259
 30
0.0
 11
61.86721179505685
 21
23.24999942608259
 31
0.0
  0
ARC
  5
F8B
330
1A
100
AcDbEntity
  8
ZUWAKU
100
AcDbCircle
 10
61.86721179505685
 20
22.72499942608258
 30
0.0
 40
0.525
100
AcDbArc
 50
90.0
 51
180.0
  0
ARC
  5
F8C
330
1A
100
AcDbEntity
  8
ZUWAKU
100
AcDbCircle
 10
68.51721179505694
 20
22.72499942608258
 30
0.0
 40
0.525
100
AcDbArc
 50
0.0
 51
90.0
  0
TEXT
  5
F8D
330
1A
100
AcDbEntity
  8
MOJI
100
AcDbText
 10
239.8272023211268
 20
3.204920483490003
 30
0.0
 40
5.599999999999999
  1
Ｘ７０Ｕ－４寸－４５m/m（1.5寸）
 41
0.9
  7
ｽﾀｲﾙ1
100
AcDbText
  0
TEXT
  5
F8E
330
1A
100
AcDbEntity
  8
MOJI
100
AcDbText
 10
239.8272023211268
 20
18.00492048348997
 30
0.0
 40
5.599999999999999
  1
ステンレス金具正面打（受）固定式
 41
0.9
  7
ｽﾀｲﾙ1
100
AcDbText
  0
LINE
  5
F8F
330
1A
100
AcDbEntity
  8
ZUWAKU
100
AcDbLine
 10
208.2466009303436
 20
29.99999942608258
 30
0.0
 11
208.2466009303436
 21
0.7999994260826498
 31
0.0
  0
LINE
  5
F90
330
1A
100
AcDbEntity
  8
ZUWAKU
100
AcDbLine
 10
208.6466009303435
 20
29.99999942608258
 30
0.0
 11
208.6466009303437
 21
0.7999994260826498
 31
0.0
  0
LINE
  5
F91
330
1A
100
AcDbEntity
  8
ZUWAKU
100
AcDbLine
 10
208.4466009303434
 20
29.99999942608258
 30
0.0
 11
208.4466009303437
 21
0.7999994260826498
 31
0.0
  0
TEXT
  5
F92
330
1A
100
AcDbEntity
  8
ZUWAKU
100
AcDbText
 10
209.7240459525532
 20
9.655355964468199
 30
0.0
 40
4.0
  1
サイズ
 41
0.9
  7
ｽﾀｲﾙ1
100
AcDbText
  0
TEXT
  5
F93
330
1A
100
AcDbEntity
  8
ZUWAKU
100
AcDbText
 10
209.724045952553
 20
24.05535596446816
 30
0.0
 40
4.0
  1
品名
 41
0.9
  7
ｽﾀｲﾙ1
100
AcDbText
  0
LINE
  5
F94
330
1A
100
AcDbEntity
  8
ZUWAKU
100
AcDbLine
 10
648.8172021504799
 20
15.19999942608261
 30
0.0
 11
697.249010188817
 21
15.19999942608261
 31
0.0
  0
LINE
  5
F95
330
1A
100
AcDbEntity
  8
ZUWAKU
100
AcDbLine
 10
648.8172021504801
 20
15.39999942608262
 30
0.0
 11
697.249010188817
 21
15.39999942608261
 31
0.0
  0
LINE
  5
F96
330
1A
100
AcDbEntity
  8
ZUWAKU
100
AcDbLine
 10
648.8172021504799
 20
15.59999942608261
 30
0.0
 11
697.249010188817
 21
15.59999942608261
 31
0.0
  0
TEXT
  5
F97
330
1A
100
AcDbEntity
  8
ZUWAKU
100
AcDbText
 10
658.2039373275781
 20
18.00492048348997
 30
0.0
 40
5.599999999999999
  1
　　．　　．　　
 41
0.9
  7
ｽﾀｲﾙ1
100
AcDbText
  0
LINE
  5
F98
330
1A
100
AcDbEntity
  8
ZUWAKU
100
AcDbLine
 10
505.1991791384166
 20
15.19999942608261
 30
0.0
 11
552.5269554063881
 21
15.19999942608261
 31
0.0
  0
LINE
  5
F99
330
1A
100
AcDbEntity
  8
ZUWAKU
100
AcDbLine
 10
505.1991791384166
 20
15.39999942608261
 30
0.0
 11
552.5269554063881
 21
15.39999942608261
 31
0.0
  0
LINE
  5
F9A
330
1A
100
AcDbEntity
  8
ZUWAKU
100
AcDbLine
 10
505.1991791384166
 20
15.59999942608261
 30
0.0
 11
552.5269554063881
 21
15.59999942608261
 31
0.0
  0
TEXT
  5
F9B
330
1A
100
AcDbEntity
  8
MOJI
100
AcDbText
 10
463.2464316312778
 20
11.94261714774256
 30
0.0
 40
5.599999999999999
  1
ＬＣ８０□
 41
0.9
  7
ｽﾀｲﾙ1
100
AcDbText
  0
LINE
  5
F9C
330
1A
100
AcDbEntity
  8
ZUWAKU
100
AcDbLine
 10
447.6243636112669
 20
29.99999942608258
 30
0.0
 11
447.6243636112672
 21
0.7999994260826498
 31
0.0
  0
LINE
  5
F9D
330
1A
100
AcDbEntity
  8
ZUWAKU
100
AcDbLine
 10
447.824363611267
 20
29.99999942608258
 30
0.0
 11
447.8243636112672
 21
0.7999994260826498
 31
0.0
  0
LINE
  5
F9E
330
1A
100
AcDbEntity
  8
ZUWAKU
100
AcDbLine
 10
447.4243636112671
 20
29.99999942608258
 30
0.0
 11
447.4243636112671
 21
0.7999994260826498
 31
0.0
  0
TEXT
  5
F9F
330
1A
100
AcDbEntity
  8
MOJI
100
AcDbText
 10
528.0409076125886
 20
18.00492048348997
 30
0.0
 40
5.599999999999999
  1
Ａ３
 41
0.9
  7
ｽﾀｲﾙ1
100
AcDbText
  0
LINE
  5
FA0
330
1A
100
AcDbEntity
  8
ZUWAKU
100
AcDbLine
 10
504.9991791384165
 20
29.99999942608258
 30
0.0
 11
504.9991791384168
 21
0.7999994260826498
 31
0.0
  0
LINE
  5
FA1
330
1A
100
AcDbEntity
  8
ZUWAKU
100
AcDbLine
 10
505.1991791384166
 20
29.99999942608258
 30
0.0
 11
505.1991791384168
 21
0.7999994260826498
 31
0.0
  0
LINE
  5
FA2
330
1A
100
AcDbEntity
  8
ZUWAKU
100
AcDbLine
 10
504.7991791384167
 20
29.99999942608258
 30
0.0
 11
504.7991791384167
 21
0.7999994260826498
 31
0.0
  0
TEXT
  5
FA3
330
1A
100
AcDbEntity
  8
ZUWAKU
100
AcDbText
 10
461.6981348681881
 20
2.908328665971794
 30
0.0
 40
3.0
  1
□には色品番が入ります
 41
0.9
  7
ｽﾀｲﾙ1
100
AcDbText
  0
TEXT
  5
FA4
330
1A
100
AcDbEntity
  8
ZUWAKU
100
AcDbText
 10
506.6766241606265
 20
9.655355964468199
 30
0.0
 40
4.0
  1
縮尺
 41
0.9
  7
ｽﾀｲﾙ1
100
AcDbText
  0
TEXT
  5
FA5
330
1A
100
AcDbEntity
  8
MOJI
100
AcDbText
 10
528.0409076125886
 20
3.204920483490003
 30
0.0
 40
5.599999999999999
  1
１/２
 41
0.9
  7
ｽﾀｲﾙ1
100
AcDbText
  0
TEXT
  5
FA6
330
1A
100
AcDbEntity
  8
ZUWAKU
100
AcDbText
 10
449.3018086334766
 20
24.05535596446816
 30
0.0
 40
4.0
  1
品番
 41
0.9
  7
ｽﾀｲﾙ1
100
AcDbText
  0
TEXT
  5
FA7
330
1A
100
AcDbEntity
  8
ZUWAKU
100
AcDbText
 10
506.6766241606262
 20
24.05535596446816
 30
0.0
 40
4.0
  1
用紙
 41
0.9
  7
ｽﾀｲﾙ1
100
AcDbText
  0
LINE
  5
FA8
330
1A
100
AcDbEntity
  8
ZUWAKU
100
AcDbLine
 10
648.6172021504801
 20
29.99999942608258
 30
0.0
 11
648.6172021504803
 21
0.7999994260826498
 31
0.0
  0
LINE
  5
FA9
330
1A
100
AcDbEntity
  8
ZUWAKU
100
AcDbLine
 10
648.8172021504801
 20
29.99999942608258
 30
0.0
 11
648.8172021504803
 21
0.7999994260826498
 31
0.0
  0
LINE
  5
FAA
330
1A
100
AcDbEntity
  8
ZUWAKU
100
AcDbLine
 10
648.4172021504803
 20
29.99999942608258
 30
0.0
 11
648.4172021504803
 21
0.7999994260826498
 31
0.0
  0
LINE
  5
FAB
330
1A
100
AcDbEntity
  8
ZUWAKU
100
AcDbLine
 10
552.726955406388
 20
29.99999942608258
 30
0.0
 11
552.7269554063882
 21
0.7999994260826498
 31
0.0
  0
LINE
  5
FAC
330
1A
100
AcDbEntity
  8
ZUWAKU
100
AcDbLine
 10
552.926955406388
 20
29.99999942608258
 30
0.0
 11
552.9269554063882
 21
0.7999994260826498
 31
0.0
  0
LINE
  5
FAD
330
1A
100
AcDbEntity
  8
ZUWAKU
100
AcDbLine
 10
552.5269554063881
 20
29.99999942608258
 30
0.0
 11
552.5269554063881
 21
0.7999994260826498
 31
0.0
  0
TEXT
  5
FAE
330
1A
100
AcDbEntity
  8
ZUWAKU
100
AcDbText
 10
650.2946471726898
 20
24.05535596446816
 30
0.0
 40
4.0
  1
DATE
 41
0.9
  7
ｽﾀｲﾙ1
100
AcDbText
  0
LINE
  5
FAF
330
1A
100
AcDbEntity
  8
ZUWAKU
100
AcDbLine
 10
697.249010188817
 20
29.99999942608258
 30
0.0
 11
697.249010188817
 21
0.7999994260826498
 31
0.0
  0
LINE
  5
FB0
330
1A
100
AcDbEntity
  8
ZUWAKU
100
AcDbLine
 10
697.4490101888171
 20
29.99999942608258
 30
0.0
 11
697.4490101888171
 21
0.7999994260826498
 31
0.0
  0
LINE
  5
FB1
330
1A
100
AcDbEntity
  8
ZUWAKU
100
AcDbLine
 10
697.6490101888169
 20
29.99999942608258
 30
0.0
 11
697.649010188817
 21
0.7999994260826498
 31
0.0
  0
LINE
  5
FB2
330
1A
100
AcDbEntity
  8
ZUWAKU
100
AcDbLine
 10
697.8490101888169
 20
29.99999942608258
 30
0.0
 11
697.8490101888171
 21
0.7999994260826498
 31
0.0
  0
TEXT
  5
FB3
330
1A
100
AcDbEntity
  8
ZUWAKU
100
AcDbText
 10
708.5280838325195
 20
17.55383876176938
 30
0.0
 40
6.0
  1
積水化学工業株式会社
 41
0.9
  7
ｽﾀｲﾙ1
100
AcDbText
  0
TEXT
  5
FB4
330
1A
100
AcDbEntity
  8
ZUWAKU
100
AcDbText
 10
708.5280838325195
 20
6.648839739936647
 30
0.0
 40
6.0
  1
建材事業部
 41
0.9
  7
ｽﾀｲﾙ1
100
AcDbText
  0
VIEWPORT
  5
22
330
17
100
AcDbEntity
 67
     1
  8
0
100
AcDbViewport
 10
313.6808219178082
 20
148.5
 30
0.0
 40
627.3616438356165
 41
297.0
 68
     2
 69
     1
1001
ACAD
1000
MVIEW
1002
{
1070
    16
1010
0.0
1020
0.0
1030
0.0
1010
0.0
1020
0.0
1030
1.0
1040
0.0
1040
297.0
1040
313.6808219178082
1040
148.5
1040
50.0
1040
0.0
1040
0.0
1070
     0
1070
   100
1070
     1
1070
     0
1070
     0
1070
     0
1070
     0
1070
     0
1040
0.0
1040
0.0
1040
0.0
1040
1.0
1040
1.0
1040
10.0
1040
10.0
1070
     0
1002
{
1002
}
1002
}
  0
VIEWPORT
  5
64
330
17
100
AcDbEntity
 67
     1
  8
VIEWPORT
100
AcDbViewport
 10
210.0
 20
148.5
 30
0.0
 40
420.0
 41
297.0
 68
     1
 69
     2
1001
ACAD
1000
MVIEW
1002
{
1070
    16
1010
0.0
1020
0.0
1030
0.0
1010
0.0
1020
0.0
1030
1.0
1040
0.0
1040
605.8799999999998
1040
420.0
1040
297.0
1040
50.0
1040
0.0
1040
0.0
1070
     0
1070
   100
1070
     1
1070
     0
1070
     0
1070
     0
1070
     0
1070
     0
1040
0.0
1040
0.0
1040
0.0
1040
10.0
1040
10.0
1040
0.0
1040
0.0
1070
     0
1002
{
1002
}
1002
}
  0
ENDSEC
  0
SECTION
  2
OBJECTS
  0
DICTIONARY
  5
C
330
0
100
AcDbDictionary
  3
ACAD_GROUP
350
D
  3
ACAD_LAYOUT
350
DD3
  3
ACAD_MLINESTYLE
350
E
  3
ACAD_PLOTSETTINGS
350
DD4
  3
ACAD_PLOTSTYLENAME
350
DD1
  3
ACDBHEADERROUNDTRIPXREC
350
FBC
  0
DICTIONARY
  5
E02
330
1A
100
AcDbDictionary
280
     1
  3
ACAD_LAYOUTSELFREF
360
FDE
  0
DICTIONARY
  5
E00
330
17
100
AcDbDictionary
280
     1
  3
ACAD_LAYOUTSELFREF
360
FDD
  0
DICTIONARY
  5
D
102
{ACAD_REACTORS
330
C
102
}
330
C
100
AcDbDictionary
  0
DICTIONARY
  5
DD3
102
{ACAD_REACTORS
330
C
102
}
330
C
100
AcDbDictionary
  0
DICTIONARY
  5
E
102
{ACAD_REACTORS
330
C
102
}
330
C
100
AcDbDictionary
  3
STANDARD
350
13
  0
DICTIONARY
  5
DD4
102
{ACAD_REACTORS
330
C
102
}
330
C
100
AcDbDictionary
  0
ACDBDICTIONARYWDFLT
  5
DD1
102
{ACAD_REACTORS
330
C
102
}
330
C
100
AcDbDictionary
281
     1
  3
Normal
350
DD2
100
AcDbDictionaryWithDefault
340
DD2
1001
ACAD
1000
TREAT_AS_HARD
1070
     0
1000
TREAT_AS_HARD
1070
     0
  0
DICTIONARY
  5
FBC
102
{ACAD_REACTORS
330
C
102
}
330
C
100
AcDbDictionary
  3
TSTACKALIGN
350
FBD
  3
TSTACKSIZE
350
FBE
  3
HYPERLINKBASE
350
FBF
  3
STYLESHEET
350
FC0
  3
LAYOUTDICT
350
FC1
  3
PLOTSETDICT
350
FC2
  3
PLOTSTYLNAMDICT
350
FC3
  3
LWETCUNION
350
FC4
  3
INSUNITS
350
FC5
  3
CEPSNTYPE
350
FC6
  3
FINGERPRINTGUID
350
FC7
  3
VERSIONGUID
350
FC8
  3
PSVPSCALE
350
FC9
  3
DIMSTYLEDATA
350
FCA
  3
PUCSORTHOREF
350
FCB
  3
PUCSORTHOVIEW
350
FCC
  3
PUCSBASE
350
FCD
  3
PUCSORGTOP
350
FCE
  3
PUCSORGBOTTOM
350
FCF
  3
PUCSORGLEFT
350
FD0
  3
PUCSORGRIGHT
350
FD1
  3
PUCSORGFRONT
350
FD2
  3
PUCSORGBACK
350
FD3
  3
UCSORTHOREF
350
FD4
  3
UCSORTHOVIEW
350
FD5
  3
UCSBASE
350
FD6
  3
UCSORGTOP
350
FD7
  3
UCSORGBOTTOM
350
FD8
  3
UCSORGLEFT
350
FD9
  3
UCSORGRIGHT
350
FDA
  3
UCSORGFRONT
350
FDB
  3
UCSORGBACK
350
FDC
  0
XRECORD
  5
FDE
102
{ACAD_REACTORS
330
E02
102
}
330
E02
100
AcDbXrecord
340
1A
  0
XRECORD
  5
FDD
102
{ACAD_REACTORS
330
E00
102
}
330
E00
100
AcDbXrecord
340
17
  0
MLINESTYLE
  5
13
102
{ACAD_REACTORS
330
E
102
}
330
E
100
AcDbMlineStyle
  2
STANDARD
 70
     0
  3

 62
     0
 51
90.0
 52
90.0
 71
     2
 49
0.5
 62
   256
  6
BYLAYER
 49
-0.5
 62
   256
  6
BYLAYER
  0
ACDBPLACEHOLDER
  5
DD2
102
{ACAD_REACTORS
330
DD1
102
}
330
DD1
100
AcDbPlaceHolder
280
     0
  0
XRECORD
  5
FBD
102
{ACAD_REACTORS
330
FBC
102
}
330
FBC
100
AcDbXrecord
 90
        1
  0
XRECORD
  5
FBE
102
{ACAD_REACTORS
330
FBC
102
}
330
FBC
100
AcDbXrecord
 90
       70
  0
XRECORD
  5
FBF
102
{ACAD_REACTORS
330
FBC
102
}
330
FBC
100
AcDbXrecord
  1

  0
XRECORD
  5
FC0
102
{ACAD_REACTORS
330
FBC
102
}
330
FBC
100
AcDbXrecord
  1
systemprinter.ctb
  0
XRECORD
  5
FC1
102
{ACAD_REACTORS
330
FBC
102
}
330
FBC
100
AcDbXrecord
340
DD3
  0
XRECORD
  5
FC2
102
{ACAD_REACTORS
330
FBC
102
}
330
FBC
100
AcDbXrecord
340
DD4
  0
XRECORD
  5
FC3
102
{ACAD_REACTORS
330
FBC
102
}
330
FBC
100
AcDbXrecord
340
DD1
  0
XRECORD
  5
FC4
102
{ACAD_REACTORS
330
FBC
102
}
330
FBC
100
AcDbXrecord
 90
    10781
  0
XRECORD
  5
FC5
102
{ACAD_REACTORS
330
FBC
102
}
330
FBC
100
AcDbXrecord
 90
        0
  0
XRECORD
  5
FC6
102
{ACAD_REACTORS
330
FBC
102
}
330
FBC
100
AcDbXrecord
 90
        0
  0
XRECORD
  5
FC7
102
{ACAD_REACTORS
330
FBC
102
}
330
FBC
100
AcDbXrecord
  1
{1B3F47E7-6560-476A-BD9C-86B5D18F591E}
  0
XRECORD
  5
FC8
102
{ACAD_REACTORS
330
FBC
102
}
330
FBC
100
AcDbXrecord
  1
{444D9EFA-38FA-4541-9778-0B4DD6987B01}
  0
XRECORD
  5
FC9
102
{ACAD_REACTORS
330
FBC
102
}
330
FBC
100
AcDbXrecord
 40
0.0
  0
XRECORD
  5
FCA
102
{ACAD_REACTORS
330
FBC
102
}
330
FBC
100
AcDbXrecord
1000
DSTYLE
1002
{
1070
   341
340
6D
1070
   343
340
6D
1070
   344
340
6D
1070
   371
 70
    -1
1070
   372
 70
    -1
1002
}
  0
XRECORD
  5
FCB
102
{ACAD_REACTORS
330
FBC
102
}
330
FBC
100
AcDbXrecord
340
0
  0
XRECORD
  5
FCC
102
{ACAD_REACTORS
330
FBC
102
}
330
FBC
100
AcDbXrecord
 70
     0
  0
XRECORD
  5
FCD
102
{ACAD_REACTORS
330
FBC
102
}
330
FBC
100
AcDbXrecord
340
0
  0
XRECORD
  5
FCE
102
{ACAD_REACTORS
330
FBC
102
}
330
FBC
100
AcDbXrecord
 10
0.0
 20
0.0
 30
0.0
  0
XRECORD
  5
FCF
102
{ACAD_REACTORS
330
FBC
102
}
330
FBC
100
AcDbXrecord
 10
0.0
 20
0.0
 30
0.0
  0
XRECORD
  5
FD0
102
{ACAD_REACTORS
330
FBC
102
}
330
FBC
100
AcDbXrecord
 10
0.0
 20
0.0
 30
0.0
  0
XRECORD
  5
FD1
102
{ACAD_REACTORS
330
FBC
102
}
330
FBC
100
AcDbXrecord
 10
0.0
 20
0.0
 30
0.0
  0
XRECORD
  5
FD2
102
{ACAD_REACTORS
330
FBC
102
}
330
FBC
100
AcDbXrecord
 10
0.0
 20
0.0
 30
0.0
  0
XRECORD
  5
FD3
102
{ACAD_REACTORS
330
FBC
102
}
330
FBC
100
AcDbXrecord
 10
0.0
 20
0.0
 30
0.0
  0
XRECORD
  5
FD4
102
{ACAD_REACTORS
330
FBC
102
}
330
FBC
100
AcDbXrecord
340
0
  0
XRECORD
  5
FD5
102
{ACAD_REACTORS
330
FBC
102
}
330
FBC
100
AcDbXrecord
 70
     0
  0
XRECORD
  5
FD6
102
{ACAD_REACTORS
330
FBC
102
}
330
FBC
100
AcDbXrecord
340
0
  0
XRECORD
  5
FD7
102
{ACAD_REACTORS
330
FBC
102
}
330
FBC
100
AcDbXrecord
 10
0.0
 20
0.0
 30
0.0
  0
XRECORD
  5
FD8
102
{ACAD_REACTORS
330
FBC
102
}
330
FBC
100
AcDbXrecord
 10
0.0
 20
0.0
 30
0.0
  0
XRECORD
  5
FD9
102
{ACAD_REACTORS
330
FBC
102
}
330
FBC
100
AcDbXrecord
 10
0.0
 20
0.0
 30
0.0
  0
XRECORD
  5
FDA
102
{ACAD_REACTORS
330
FBC
102
}
330
FBC
100
AcDbXrecord
 10
0.0
 20
0.0
 30
0.0
  0
XRECORD
  5
FDB
102
{ACAD_REACTORS
330
FBC
102
}
330
FBC
100
AcDbXrecord
 10
0.0
 20
0.0
 30
0.0
  0
XRECORD
  5
FDC
102
{ACAD_REACTORS
330
FBC
102
}
330
FBC
100
AcDbXrecord
 10
0.0
 20
0.0
 30
0.0
  0
ENDSEC
  0
EOF
