  0
SECTION
  2
HEADER
  9
$ACADVER
  1
AC1014
  9
$ACADMAINTVER
 70
     9
  9
$DWGCODEPAGE
  3
ANSI_932
  9
$INSBASE
 10
0.0
 20
0.0
 30
0.0
  9
$EXTMIN
 10
-0.025632904581471
 20
-0.0181260584133725
 30
-0.0015258207003583
  9
$EXTMAX
 10
797.6000995578869
 20
551.6452344880035
 30
0.0000000349246037
  9
$LIMMIN
 10
0.0
 20
0.0
  9
$LIMMAX
 10
840.0
 20
594.0
  9
$ORTHOMODE
 70
     1
  9
$REGENMODE
 70
     1
  9
$FILLMODE
 70
     1
  9
$QTEXTMODE
 70
     0
  9
$MIRRTEXT
 70
     1
  9
$DRAGMODE
 70
     2
  9
$LTSCALE
 40
2.0
  9
$OSMODE
 70
    37
  9
$ATTMODE
 70
     1
  9
$TEXTSIZE
 40
5.0
  9
$TRACEWID
 40
1.0
  9
$TEXTSTYLE
  7
STANDARD
  9
$CLAYER
  8
SEIHIN
  9
$CELTYPE
  6
BYLAYER
  9
$CECOLOR
 62
   256
  9
$CELTSCALE
 40
1.0
  9
$DELOBJ
 70
     1
  9
$DISPSILH
 70
     0
  9
$DIMSCALE
 40
1.0
  9
$DIMASZ
 40
7.0
  9
$DIMEXO
 40
6.0
  9
$DIMDLI
 40
14.0
  9
$DIMRND
 40
0.0
  9
$DIMDLE
 40
0.0
  9
$DIMEXE
 40
3.0
  9
$DIMTP
 40
0.0
  9
$DIMTM
 40
0.0
  9
$DIMTXT
 40
6.0
  9
$DIMCEN
 40
150.0
  9
$DIMTSZ
 40
0.0
  9
$DIMTOL
 70
     0
  9
$DIMLIM
 70
     0
  9
$DIMTIH
 70
     0
  9
$DIMTOH
 70
     0
  9
$DIMSE1
 70
     0
  9
$DIMSE2
 70
     0
  9
$DIMTAD
 70
     3
  9
$DIMZIN
 70
     0
  9
$DIMBLK
  1

  9
$DIMASO
 70
     1
  9
$DIMSHO
 70
     1
  9
$DIMPOST
  1

  9
$DIMAPOST
  1

  9
$DIMALT
 70
     0
  9
$DIMALTD
 70
     2
  9
$DIMALTF
 40
25.4
  9
$DIMLFAC
 40
1.0
  9
$DIMTOFL
 70
     1
  9
$DIMTVP
 40
0.0
  9
$DIMTIX
 70
     0
  9
$DIMSOXD
 70
     0
  9
$DIMSAH
 70
     1
  9
$DIMBLK1
  1
OPEN
  9
$DIMBLK2
  1
OPEN
  9
$DIMSTYLE
  2
STANDARD
  9
$DIMCLRD
 70
   256
  9
$DIMCLRE
 70
   256
  9
$DIMCLRT
 70
   256
  9
$DIMTFAC
 40
1.0
  9
$DIMGAP
 40
2.0
  9
$DIMJUST
 70
     0
  9
$DIMSD1
 70
     0
  9
$DIMSD2
 70
     0
  9
$DIMTOLJ
 70
     1
  9
$DIMTZIN
 70
     0
  9
$DIMALTZ
 70
     0
  9
$DIMALTTZ
 70
     0
  9
$DIMFIT
 70
     3
  9
$DIMUPT
 70
     0
  9
$DIMUNIT
 70
     2
  9
$DIMDEC
 70
     0
  9
$DIMTDEC
 70
     0
  9
$DIMALTU
 70
     2
  9
$DIMALTTD
 70
     2
  9
$DIMTXSTY
  7
STANDARD
  9
$DIMAUNIT
 70
     0
  9
$LUNITS
 70
     2
  9
$LUPREC
 70
     4
  9
$SKETCHINC
 40
1.0
  9
$FILLETRAD
 40
20.0
  9
$AUNITS
 70
     0
  9
$AUPREC
 70
     0
  9
$MENU
  1
.
  9
$ELEVATION
 40
0.0
  9
$PELEVATION
 40
0.0
  9
$THICKNESS
 40
0.0
  9
$LIMCHECK
 70
     0
  9
$BLIPMODE
 70
     0
  9
$CHAMFERA
 40
20.0
  9
$CHAMFERB
 40
20.0
  9
$CHAMFERC
 40
40.0
  9
$CHAMFERD
 40
0.0
  9
$SKPOLY
 70
     0
  9
$TDCREATE
 40
2450994.354346065
  9
$TDUPDATE
 40
2454515.378166608
  9
$TDINDWG
 40
0.0354548958
  9
$TDUSRTIMER
 40
0.0354548958
  9
$USRTIMER
 70
     1
  9
$ANGBASE
 50
0.0
  9
$ANGDIR
 70
     0
  9
$PDMODE
 70
     1
  9
$PDSIZE
 40
0.0
  9
$PLINEWID
 40
0.0
  9
$COORDS
 70
     2
  9
$SPLFRAME
 70
     0
  9
$SPLINETYPE
 70
     6
  9
$SPLINESEGS
 70
     8
  9
$ATTDIA
 70
     0
  9
$ATTREQ
 70
     1
  9
$HANDLING
 70
 10241
  9
$HANDSEED
  5
8DD
  9
$SURFTAB1
 70
     6
  9
$SURFTAB2
 70
     6
  9
$SURFTYPE
 70
     6
  9
$SURFU
 70
     6
  9
$SURFV
 70
     6
  9
$UCSNAME
  2

  9
$UCSORG
 10
0.0
 20
0.0
 30
0.0
  9
$UCSXDIR
 10
1.0
 20
0.0
 30
0.0
  9
$UCSYDIR
 10
0.0
 20
1.0
 30
0.0
  9
$PUCSNAME
  2

  9
$PUCSORG
 10
0.0
 20
0.0
 30
0.0
  9
$PUCSXDIR
 10
1.0
 20
0.0
 30
0.0
  9
$PUCSYDIR
 10
0.0
 20
1.0
 30
0.0
  9
$USERI1
 70
     0
  9
$USERI2
 70
     0
  9
$USERI3
 70
     0
  9
$USERI4
 70
     0
  9
$USERI5
 70
     0
  9
$USERR1
 40
0.0
  9
$USERR2
 40
0.0
  9
$USERR3
 40
0.0
  9
$USERR4
 40
0.0
  9
$USERR5
 40
0.0
  9
$WORLDVIEW
 70
     1
  9
$SHADEDGE
 70
     3
  9
$SHADEDIF
 70
    70
  9
$TILEMODE
 70
     1
  9
$MAXACTVP
 70
    16
  9
$PINSBASE
 10
0.0
 20
0.0
 30
0.0
  9
$PLIMCHECK
 70
     0
  9
$PEXTMIN
 10
0.0
 20
0.0
 30
0.0
  9
$PEXTMAX
 10
420.0
 20
297.0
 30
0.0
  9
$PLIMMIN
 10
0.0
 20
0.0
  9
$PLIMMAX
 10
420.0
 20
297.0
  9
$UNITMODE
 70
     0
  9
$VISRETAIN
 70
     0
  9
$PLINEGEN
 70
     0
  9
$PSLTSCALE
 70
     1
  9
$TREEDEPTH
 70
  3020
  9
$PICKSTYLE
 70
     1
  9
$CMLSTYLE
  2
STANDARD
  9
$CMLJUST
 70
     0
  9
$CMLSCALE
 40
1.0
  9
$PROXYGRAPHICS
 70
     1
  9
$MEASUREMENT
 70
     1
  0
ENDSEC
  0
SECTION
  2
CLASSES
  0
CLASS
  1
ACDBDICTIONARYWDFLT
  2
AcDbDictionaryWithDefault
  3
AutoCAD 2000
 90
        0
280
     0
281
     0
  0
CLASS
  1
ACDBPLACEHOLDER
  2
AcDbPlaceHolder
  3
AutoCAD 2000
 90
        0
280
     0
281
     0
  0
CLASS
  1
LAYOUT
  2
AcDbLayout
  3
AutoCAD 2000
 90
        0
280
     0
281
     0
  0
CLASS
  1
LONG_TRANSACTION
  2
AcDbLongTransaction
  3
AutoCAD 2000
 90
        0
280
     0
281
     0
  0
CLASS
  1
LWPOLYLINE
  2
AcDbPolyline
  3
AutoCAD 2000
 90
        0
280
     0
281
     1
  0
CLASS
  1
HATCH
  2
AcDbHatch
  3
AutoCAD 2000
 90
        0
280
     0
281
     1
  0
CLASS
  1
XRECORD
  2
AcDbXrecord
  3
AutoCAD 2000
 90
        0
280
     0
281
     0
  0
CLASS
  1
LONG_TRANSACTION
  2
AcDbLongTransaction
  3
AutoCAD 2000
 90
        0
280
     0
281
     0
  0
CLASS
  1
LWPOLYLINE
  2
AcDbPolyline
  3
AutoCAD 2000
 90
        0
280
     0
281
     1
  0
CLASS
  1
HATCH
  2
AcDbHatch
  3
AutoCAD 2000
 90
        0
280
     0
281
     1
  0
CLASS
  1
XRECORD
  2
AcDbXrecord
  3
AutoCAD 2000
 90
        0
280
     0
281
     0
  0
ENDSEC
  0
SECTION
  2
TABLES
  0
TABLE
  2
VPORT
  5
8
330
0
100
AcDbSymbolTable
 70
     2
  0
VPORT
  5
8B1
330
8
100
AcDbSymbolTableRecord
100
AcDbViewportTableRecord
  2
*ACTIVE
 70
     0
 10
0.0
 20
0.0
 11
1.0
 21
1.0
 12
395.5103807836849
 22
286.8694541443708
 13
0.0
 23
0.0
 14
5.0
 24
5.0
 15
0.0
 25
0.0
 16
0.0
 26
0.0
 36
1.0
 17
0.0
 27
0.0
 37
0.0
 40
642.2582862837181
 41
1.570153061224489
 42
50.0
 43
0.0
 44
0.0
 50
0.0
 51
0.0
 71
     0
 72
   100
 73
     1
 74
     0
 75
     0
 76
     0
 77
     0
 78
     0
  0
ENDTAB
  0
TABLE
  2
LTYPE
  5
5
330
0
100
AcDbSymbolTable
 70
     3
  0
LTYPE
  5
14
330
5
100
AcDbSymbolTableRecord
100
AcDbLinetypeTableRecord
  2
BYBLOCK
 70
     0
  3

 72
    65
 73
     0
 40
0.0
  0
LTYPE
  5
15
330
5
100
AcDbSymbolTableRecord
100
AcDbLinetypeTableRecord
  2
BYLAYER
 70
     0
  3

 72
    65
 73
     0
 40
0.0
  0
LTYPE
  5
16
330
5
100
AcDbSymbolTableRecord
100
AcDbLinetypeTableRecord
  2
CONTINUOUS
 70
     0
  3
Solid line
 72
    65
 73
     0
 40
0.0
  0
LTYPE
  5
115
330
5
100
AcDbSymbolTableRecord
100
AcDbLinetypeTableRecord
  2
PHANTOM
 70
     0
  3
______  __  __  ______  __  __  ______  __  __ 
 72
    65
 73
     6
 40
2.5
 49
1.25
 74
     0
 49
-0.25
 74
     0
 49
0.25
 74
     0
 49
-0.25
 74
     0
 49
0.25
 74
     0
 49
-0.25
 74
     0
  0
LTYPE
  5
135
330
5
100
AcDbSymbolTableRecord
100
AcDbLinetypeTableRecord
  2
CENTER
 70
     0
  3
____ _ ____ _ ____ _ ____ _ ____ _ ____ _ ____ 
 72
    65
 73
     4
 40
2.0
 49
1.25
 74
     0
 49
-0.25
 74
     0
 49
0.25
 74
     0
 49
-0.25
 74
     0
  0
ENDTAB
  0
TABLE
  2
LAYER
  5
2
330
0
100
AcDbSymbolTable
 70
     9
  0
LAYER
  5
F
330
2
100
AcDbSymbolTableRecord
100
AcDbLayerTableRecord
  2
0
 70
     0
 62
     7
  6
CONTINUOUS
  0
LAYER
  5
62
330
2
100
AcDbSymbolTableRecord
100
AcDbLayerTableRecord
  2
VIEWPORT
 70
     0
 62
     7
  6
CONTINUOUS
  0
LAYER
  5
65
330
2
100
AcDbSymbolTableRecord
100
AcDbLayerTableRecord
  2
ZUWAKU
 70
     0
 62
     7
  6
CONTINUOUS
  0
LAYER
  5
154
330
2
100
AcDbSymbolTableRecord
100
AcDbLayerTableRecord
  2
NOKITOI
 70
     0
 62
     8
  6
PHANTOM
  0
LAYER
  5
155
330
2
100
AcDbSymbolTableRecord
100
AcDbLayerTableRecord
  2
SUNPOU
 70
     0
 62
     4
  6
CONTINUOUS
  0
LAYER
  5
156
330
2
100
AcDbSymbolTableRecord
100
AcDbLayerTableRecord
  2
SEIHIN
 70
     0
 62
     3
  6
CONTINUOUS
  0
LAYER
  5
157
330
2
100
AcDbSymbolTableRecord
100
AcDbLayerTableRecord
  2
CENTER_L
 70
     0
 62
     1
  6
CENTER
  0
LAYER
  5
452
330
2
100
AcDbSymbolTableRecord
100
AcDbLayerTableRecord
  2
DEFPOINTS
 70
     0
 62
     7
  6
CONTINUOUS
  0
LAYER
  5
5CB
330
2
100
AcDbSymbolTableRecord
100
AcDbLayerTableRecord
  2
MOJI
 70
     0
 62
     2
  6
CONTINUOUS
  0
ENDTAB
  0
TABLE
  2
STYLE
  5
3
330
0
100
AcDbSymbolTable
 70
     2
  0
STYLE
  5
10
330
3
100
AcDbSymbolTableRecord
100
AcDbTextStyleTableRecord
  2
STANDARD
 70
     0
 40
0.0
 41
1.0
 50
0.0
 71
     0
 42
5.0
  3
TXT
  4
bigfont.shx
  0
STYLE
  5
5CC
330
3
100
AcDbSymbolTableRecord
100
AcDbTextStyleTableRecord
  2
ｽﾀｲﾙ1
 70
     0
 40
0.0
 41
1.0
 50
0.0
 71
     0
 42
2.5
  3
MS PGothic.ttf
  4

1001
ACAD
1000
MS PGothic
1071
    32818
  0
ENDTAB
  0
TABLE
  2
VIEW
  5
6
330
0
100
AcDbSymbolTable
 70
     0
  0
ENDTAB
  0
TABLE
  2
UCS
  5
7
330
0
100
AcDbSymbolTable
 70
     0
  0
ENDTAB
  0
TABLE
  2
APPID
  5
9
330
0
100
AcDbSymbolTable
 70
     1
  0
APPID
  5
11
330
9
100
AcDbSymbolTableRecord
100
AcDbRegAppTableRecord
  2
ACAD
 70
     0
  0
ENDTAB
  0
TABLE
  2
DIMSTYLE
  5
A
330
0
100
AcDbSymbolTable
 70
     1
  0
DIMSTYLE
105
1D
102
{ACAD_REACTORS
330
457
330
49A
330
4A7
330
4B6
330
4C3
330
4D3
330
508
330
515
330
521
102
}
330
A
100
AcDbSymbolTableRecord
100
AcDbDimStyleTableRecord
  2
STANDARD
 70
     0
  3

  4

  5

  6

  7

 40
1.0
 41
0.18
 42
0.0625
 43
0.38
 44
0.18
 45
0.0
 46
0.0
 47
0.0
 48
0.0
140
0.18
141
0.09
142
0.0
143
25.4
144
1.0
145
0.0
146
1.0
147
0.09
 71
     0
 72
     0
 73
     1
 74
     1
 75
     0
 76
     0
 77
     0
 78
     0
170
     0
171
     2
172
     0
173
     0
174
     0
175
     0
176
     0
177
     0
178
     0
270
     2
271
     4
272
     4
273
     2
274
     2
340
10
275
     0
280
     0
281
     0
282
     0
283
     1
284
     0
285
     0
286
     0
287
     3
288
     0
  0
ENDTAB
  0
TABLE
  2
BLOCK_RECORD
  5
1
330
0
100
AcDbSymbolTable
 70
    11
  0
BLOCK_RECORD
  5
1A
102
{ACAD_XDICTIONARY
360
5B5
102
}
330
1
100
AcDbSymbolTableRecord
100
AcDbBlockTableRecord
  2
*MODEL_SPACE
  0
BLOCK_RECORD
  5
17
102
{ACAD_XDICTIONARY
360
5B3
102
}
330
1
100
AcDbSymbolTableRecord
100
AcDbBlockTableRecord
  2
*PAPER_SPACE
  0
BLOCK_RECORD
  5
6D
330
1
100
AcDbSymbolTableRecord
100
AcDbBlockTableRecord
  2
_OPEN
  0
BLOCK_RECORD
  5
163
330
1
100
AcDbSymbolTableRecord
100
AcDbBlockTableRecord
  2
A$C1305
  0
BLOCK_RECORD
  5
448
330
1
100
AcDbSymbolTableRecord
100
AcDbBlockTableRecord
  2
*D2
  0
BLOCK_RECORD
  5
48C
330
1
100
AcDbSymbolTableRecord
100
AcDbBlockTableRecord
  2
*D3
  0
BLOCK_RECORD
  5
49B
330
1
100
AcDbSymbolTableRecord
100
AcDbBlockTableRecord
  2
*D4
  0
BLOCK_RECORD
  5
4A8
330
1
100
AcDbSymbolTableRecord
100
AcDbBlockTableRecord
  2
*D5
  0
BLOCK_RECORD
  5
4B7
330
1
100
AcDbSymbolTableRecord
100
AcDbBlockTableRecord
  2
*D6
  0
BLOCK_RECORD
  5
4C4
330
1
100
AcDbSymbolTableRecord
100
AcDbBlockTableRecord
  2
*D7
  0
BLOCK_RECORD
  5
4FC
330
1
100
AcDbSymbolTableRecord
100
AcDbBlockTableRecord
  2
*D8
  0
BLOCK_RECORD
  5
509
330
1
100
AcDbSymbolTableRecord
100
AcDbBlockTableRecord
  2
*D9
  0
BLOCK_RECORD
  5
516
330
1
100
AcDbSymbolTableRecord
100
AcDbBlockTableRecord
  2
*D10
  0
ENDTAB
  0
ENDSEC
  0
SECTION
  2
BLOCKS
  0
BLOCK
  5
1B
330
1A
100
AcDbEntity
  8
0
100
AcDbBlockBegin
  2
*MODEL_SPACE
 70
     0
 10
0.0
 20
0.0
 30
0.0
  3
*MODEL_SPACE
  1

  0
ENDBLK
  5
1C
330
1A
100
AcDbEntity
  8
0
100
AcDbBlockEnd
  0
BLOCK
  5
18
330
17
100
AcDbEntity
 67
     1
  8
0
100
AcDbBlockBegin
  2
*PAPER_SPACE
 70
     0
 10
0.0
 20
0.0
 30
0.0
  3
*PAPER_SPACE
  1

  0
ENDBLK
  5
19
330
17
100
AcDbEntity
 67
     1
  8
0
100
AcDbBlockEnd
  0
BLOCK
  5
6E
330
6D
100
AcDbEntity
  8
0
100
AcDbBlockBegin
  2
_OPEN
 70
     0
 10
0.0
 20
0.0
 30
0.0
  3
_OPEN
  1

  0
LINE
  5
6F
330
6D
100
AcDbEntity
  8
0
  6
BYBLOCK
 62
     0
100
AcDbLine
 10
-1.0
 20
0.1666666666666666
 30
0.0
 11
0.0
 21
0.0
 31
0.0
  0
LINE
  5
70
330
6D
100
AcDbEntity
  8
0
  6
BYBLOCK
 62
     0
100
AcDbLine
 10
0.0
 20
0.0
 30
0.0
 11
-1.0
 21
-0.1666666666666666
 31
0.0
  0
LINE
  5
71
330
6D
100
AcDbEntity
  8
0
  6
BYBLOCK
 62
     0
100
AcDbLine
 10
0.0
 20
0.0
 30
0.0
 11
-1.0
 21
0.0
 31
0.0
  0
ENDBLK
  5
72
330
6D
100
AcDbEntity
  8
0
100
AcDbBlockEnd
  0
BLOCK
  5
1AB
330
163
100
AcDbEntity
  8
0
100
AcDbBlockBegin
  2
A$C1305
 70
     0
 10
0.0
 20
0.0
 30
0.0
  3
A$C1305
  1

  0
LINE
  5
164
330
163
100
AcDbEntity
  8
NOKITOI
  6
PHANTOM
 62
     8
 48
5.0
100
AcDbLine
 10
29.18435908443393
 20
10.10187063730222
 30
0.0
 11
19.27365908443391
 21
10.10187063730222
 31
0.0
  0
LINE
  5
165
330
163
100
AcDbEntity
  8
NOKITOI
  6
PHANTOM
 62
     8
 48
5.0
100
AcDbLine
 10
90.2981590844339
 20
0.1120706373022813
 30
0.0
 11
24.06755908443392
 21
0.1121706373021425
 31
0.0
  0
LINE
  5
166
330
163
100
AcDbEntity
  8
NOKITOI
  6
PHANTOM
 62
     8
 48
5.0
100
AcDbLine
 10
24.06755908443392
 20
0.1121706373021425
 30
0.0
 11
90.2981590844339
 21
0.1120706373022813
 31
0.0
  0
LINE
  5
167
330
163
100
AcDbEntity
  8
NOKITOI
  6
PHANTOM
 62
     8
 48
5.0
100
AcDbLine
 10
13.05735908443387
 20
12.22087063730214
 30
0.0
 11
7.218759084433713
 21
39.95217063730228
 31
0.0
  0
LINE
  5
168
330
163
100
AcDbEntity
  8
NOKITOI
  6
PHANTOM
 62
     8
 48
5.0
100
AcDbLine
 10
14.16595908443378
 20
13.23377063730208
 30
0.0
 11
8.234959084433853
 21
41.4036706373023
 31
0.0
  0
ARC
  5
169
330
163
100
AcDbEntity
  8
NOKITOI
  6
PHANTOM
 62
     8
 48
5.0
100
AcDbCircle
 10
15.13957896620524
 20
13.43874830022218
 30
0.0
 40
0.995060928010462
100
AcDbArc
 50
191.8877567214145
 51
251.4524867922934
  0
ARC
  5
16A
330
163
100
AcDbEntity
  8
NOKITOI
  6
PHANTOM
 62
     8
 48
5.0
100
AcDbCircle
 10
10.29733292322475
 20
-0.9941694721817384
 30
0.0
 40
14.22848866365036
100
AcDbArc
 50
51.52529185494254
 51
71.45345265407107
  0
ARC
  5
16B
330
163
100
AcDbEntity
  8
NOKITOI
  6
PHANTOM
 62
     8
 48
5.0
100
AcDbCircle
 10
10.29726615422066
 20
-0.9941373355915743
 30
0.0
 40
12.93471022655885
100
AcDbArc
 50
8.676219579622015
 51
74.45245455808978
  0
ARC
  5
16C
330
163
100
AcDbEntity
  8
NOKITOI
  6
PHANTOM
 62
     8
 48
5.0
100
AcDbCircle
 10
24.06756669845151
 20
1.107164097058216
 30
0.0
 40
0.9949934597852239
100
AcDbArc
 50
188.67611256506
 51
269.9995615538235
  0
ARC
  5
16D
330
163
100
AcDbEntity
  8
NOKITOI
  6
PHANTOM
 62
     8
 48
5.0
100
AcDbCircle
 10
19.27366239679292
 20
10.30086948151677
 30
0.0
 40
0.1989988442421132
100
AcDbArc
 50
231.5280949042412
 51
269.9990463050557
  0
ARC
  5
16E
330
163
100
AcDbEntity
  8
NOKITOI
  6
PHANTOM
 62
     8
 48
5.0
100
AcDbCircle
 10
14.03099910882133
 20
12.42582797307631
 30
0.0
 40
0.9949785960395137
100
AcDbArc
 50
191.8875585738773
 51
254.4495841050105
  0
LINE
  5
16F
330
163
100
AcDbEntity
  8
NOKITOI
  6
PHANTOM
 62
     8
 48
5.0
100
AcDbLine
 10
27.88425908443378
 20
1.91217063730221
 30
0.0
 11
27.88425908443378
 21
8.439470637302292
 31
0.0
  0
LINE
  5
170
330
163
100
AcDbEntity
  8
NOKITOI
  6
PHANTOM
 62
     8
 48
5.0
100
AcDbLine
 10
28.37925908443378
 20
9.296770637302074
 30
0.0
 11
27.88425908443378
 21
8.439470637302292
 31
0.0
  0
LINE
  5
171
330
163
100
AcDbEntity
  8
NOKITOI
  6
PHANTOM
 62
     8
 48
5.0
100
AcDbLine
 10
28.37925908443378
 20
9.296770637302074
 30
0.0
 11
27.52195908443377
 21
8.801870637302272
 31
0.0
  0
ARC
  5
172
330
163
100
AcDbEntity
  8
NOKITOI
  6
PHANTOM
 62
     8
 48
5.0
100
AcDbCircle
 10
21.30106274373702
 20
8.501878629181817
 30
0.0
 40
0.2999920081427447
100
AcDbArc
 50
90.00069889403098
 51
220.79672841758
  0
ARC
  5
173
330
163
100
AcDbEntity
  8
NOKITOI
  6
PHANTOM
 62
     8
 48
5.0
100
AcDbCircle
 10
10.29726428144715
 20
-0.9941399784659097
 30
0.0
 40
14.23472333170272
100
AcDbArc
 50
11.37541821407357
 51
40.79334907830751
  0
LINE
  5
174
330
163
100
AcDbEntity
  8
NOKITOI
  6
PHANTOM
 62
     8
 48
5.0
100
AcDbLine
 10
27.52195908443377
 20
8.801870637302272
 30
0.0
 11
21.30105908443386
 21
8.801870637302272
 31
0.0
  0
LINE
  5
175
330
163
100
AcDbEntity
  8
NOKITOI
  6
PHANTOM
 62
     8
 48
5.0
100
AcDbLine
 10
24.74245908443378
 20
1.412170637302097
 30
0.0
 11
27.38425908443378
 21
1.412170637302097
 31
0.0
  0
ARC
  5
176
330
163
100
AcDbEntity
  8
NOKITOI
  6
PHANTOM
 62
     8
 48
5.0
100
AcDbCircle
 10
24.74253604330567
 20
1.912189501590432
 30
0.0
 40
0.5000188648192144
100
AcDbArc
 50
191.3867288554411
 51
270.0026402191985
  0
ARC
  5
177
330
163
100
AcDbEntity
  8
NOKITOI
  6
PHANTOM
 62
     8
 48
5.0
100
AcDbCircle
 10
27.38425908443366
 20
1.91217063730221
 30
0.0
 40
0.5000000000000569
100
AcDbArc
 50
270.0000000000065
 51
0.0000000000065138
  0
LINE
  5
178
330
163
100
AcDbEntity
  8
NOKITOI
  6
PHANTOM
 62
     8
 48
5.0
100
AcDbLine
 10
0.1808590844339051
 20
41.10517063730208
 30
0.0
 11
0.1808590844339051
 21
49.11467063730208
 31
0.0
  0
ARC
  5
179
330
163
100
AcDbEntity
  8
NOKITOI
  6
PHANTOM
 62
     8
 48
5.0
100
AcDbCircle
 10
3.6160590844338
 20
47.32377063730223
 30
0.0
 40
1.492399999999918
100
AcDbArc
 50
0.0000000000021823
 51
90.00000000000218
  0
ARC
  5
17A
330
163
100
AcDbEntity
  8
NOKITOI
  6
PHANTOM
 62
     8
 48
5.0
100
AcDbCircle
 10
2.966809084433748
 20
47.32372063730212
 30
0.0
 40
1.49245000083754
100
AcDbArc
 50
89.99808047909008
 51
179.99808047909
  0
LINE
  5
17B
330
163
100
AcDbEntity
  8
NOKITOI
  6
PHANTOM
 62
     8
 48
5.0
100
AcDbLine
 10
6.401959084433769
 20
49.11467063730208
 30
0.0
 11
6.401959084433769
 21
44.90987063730222
 31
0.0
  0
LINE
  5
17C
330
163
100
AcDbEntity
  8
NOKITOI
  6
PHANTOM
 62
     8
 48
5.0
100
AcDbLine
 10
3.464359084433908
 20
41.4036706373023
 30
0.0
 11
8.234959084433853
 21
41.4036706373023
 31
0.0
  0
LINE
  5
17D
330
163
100
AcDbEntity
  8
NOKITOI
  6
PHANTOM
 62
     8
 48
5.0
100
AcDbLine
 10
7.024059084433929
 20
40.11017063730207
 30
0.0
 11
1.175859084433909
 21
40.11017063730207
 31
0.0
  0
ARC
  5
17E
330
163
100
AcDbEntity
  8
NOKITOI
  6
PHANTOM
 62
     8
 48
5.0
100
AcDbCircle
 10
3.464309084433807
 20
43.39362063730232
 30
0.0
 40
1.989950000628206
100
AcDbArc
 50
180.0014396286234
 51
270.0014396286234
  0
LINE
  5
17F
330
163
100
AcDbEntity
  8
NOKITOI
  6
PHANTOM
 62
     8
 48
5.0
100
AcDbLine
 10
1.474359084433785
 20
47.32377063730223
 30
0.0
 11
1.474359084433785
 21
43.39357063730221
 31
0.0
  0
ARC
  5
180
330
163
100
AcDbEntity
  8
NOKITOI
  6
PHANTOM
 62
     8
 48
5.0
100
AcDbCircle
 10
1.175859084433909
 20
41.10517063730208
 30
0.0
 40
0.9950000000000045
100
AcDbArc
 50
180.0
 51
270.0
  0
LINE
  5
181
330
163
100
AcDbEntity
  8
NOKITOI
  6
PHANTOM
 62
     8
 48
5.0
100
AcDbLine
 10
5.108559084433863
 20
44.90987063730222
 30
0.0
 11
5.108559084433863
 21
47.32377063730223
 31
0.0
  0
LINE
  5
182
330
163
100
AcDbEntity
  8
NOKITOI
  6
PHANTOM
 62
     8
 48
5.0
100
AcDbLine
 10
6.401959084433769
 20
44.90987063730222
 30
0.0
 11
5.108559084433863
 21
44.90987063730222
 31
0.0
  0
ARC
  5
183
330
163
100
AcDbEntity
  8
NOKITOI
  6
PHANTOM
 62
     8
 48
5.0
100
AcDbCircle
 10
7.024040641819624
 20
39.91118560073897
 30
0.0
 40
0.1989850374177657
100
AcDbArc
 50
11.88631382809314
 51
89.99468963106556
  0
LINE
  5
184
330
163
100
AcDbEntity
  8
NOKITOI
  6
PHANTOM
 62
     8
 48
5.0
100
AcDbLine
 10
1.175859084433909
 20
50.1096706373022
 30
0.0
 11
5.407059084433853
 21
50.1096706373022
 31
0.0
  0
ARC
  5
185
330
163
100
AcDbEntity
  8
NOKITOI
  6
PHANTOM
 62
     8
 48
5.0
100
AcDbCircle
 10
1.175859084433909
 20
49.1146706373022
 30
0.0
 40
0.9950000000000613
100
AcDbArc
 50
90.00000000000328
 51
180.0000000000032
  0
LINE
  5
186
330
163
100
AcDbEntity
  8
NOKITOI
  6
PHANTOM
 62
     8
 48
5.0
100
AcDbLine
 10
3.6160590844338
 20
48.81617063730209
 30
0.0
 11
2.966859084433849
 21
48.81617063730209
 31
0.0
  0
ARC
  5
187
330
163
100
AcDbEntity
  8
NOKITOI
  6
PHANTOM
 62
     8
 48
5.0
100
AcDbCircle
 10
5.407009084433752
 20
49.11472063730224
 30
0.0
 40
0.9949500012563332
100
AcDbArc
 50
359.9971206704048
 51
89.99712067040489
  0
LINE
  5
188
330
163
100
AcDbEntity
  8
NOKITOI
  6
PHANTOM
 62
     8
 48
5.0
100
AcDbLine
 10
85.18155908443374
 20
10.10157063730207
 30
0.0
 11
95.16205908443373
 21
10.10147063730221
 31
0.0
  0
ARC
  5
189
330
163
100
AcDbEntity
  8
NOKITOI
  6
PHANTOM
 62
     8
 48
5.0
100
AcDbCircle
 10
104.068453551022
 20
-0.9942356029631582
 30
0.0
 40
12.93461262833301
100
AcDbArc
 50
105.5476727870198
 51
171.3237222126366
  0
ARC
  5
18A
330
163
100
AcDbEntity
  8
NOKITOI
  6
PHANTOM
 62
     8
 48
5.0
100
AcDbCircle
 10
104.0683479281129
 20
-0.994141944171929
 30
0.0
 40
12.93449408578155
100
AcDbArc
 50
105.5473332353544
 51
171.3240617643019
  0
LINE
  5
18B
330
163
100
AcDbEntity
  8
NOKITOI
  6
PHANTOM
 62
     8
 48
5.0
100
AcDbLine
 10
29.38325908443392
 20
1.405570637302162
 30
0.0
 11
84.98245908443392
 21
1.405470637302073
 31
0.0
  0
ARC
  5
18C
330
163
100
AcDbEntity
  8
NOKITOI
  6
PHANTOM
 62
     8
 48
5.0
100
AcDbCircle
 10
29.38325908443392
 20
1.604570637302231
 30
0.0
 40
0.1990000000000691
100
AcDbArc
 50
179.9999999999836
 51
269.9999999999836
  0
LINE
  5
18D
330
163
100
AcDbEntity
  8
NOKITOI
  6
PHANTOM
 62
     8
 48
5.0
100
AcDbLine
 10
29.18425908443385
 20
1.604570637302231
 30
0.0
 11
29.18435908443393
 21
10.10187063730222
 31
0.0
  0
LINE
  5
18E
330
163
100
AcDbEntity
  8
NOKITOI
  6
PHANTOM
 62
     8
 48
5.0
100
AcDbLine
 10
80.98245908443391
 20
1.405470637302073
 30
0.0
 11
66.22805908443377
 21
1.405470637302073
 31
0.0
  0
ARC
  5
18F
330
163
100
AcDbEntity
  8
NOKITOI
  6
PHANTOM
 62
     8
 48
5.0
100
AcDbCircle
 10
90.2982090125298
 20
1.107113524900853
 30
0.0
 40
0.9950428888512103
100
AcDbArc
 50
269.9971250795227
 51
351.3214426795068
  0
LINE
  5
190
330
163
100
AcDbEntity
  8
NOKITOI
  6
PHANTOM
 62
     8
 48
5.0
100
AcDbLine
 10
85.98655908443367
 20
9.296470637302149
 30
0.0
 11
86.4815590844339
 21
8.43917063730214
 31
0.0
  0
LINE
  5
191
330
163
100
AcDbEntity
  8
NOKITOI
  6
PHANTOM
 62
     8
 48
5.0
100
AcDbLine
 10
85.98655908443367
 20
9.296470637302149
 30
0.0
 11
86.84385908443392
 21
8.801470637302145
 31
0.0
  0
ARC
  5
192
330
163
100
AcDbEntity
  8
NOKITOI
  6
PHANTOM
 62
     8
 48
5.0
100
AcDbCircle
 10
84.98240908443381
 20
1.604520637302186
 30
0.0
 40
0.1990500062799141
100
AcDbArc
 50
270.0143923080611
 51
0.014392308061115
  0
LINE
  5
193
330
163
100
AcDbEntity
  8
NOKITOI
  6
PHANTOM
 62
     8
 48
5.0
100
AcDbLine
 10
85.18145908443386
 20
1.604570637302231
 30
0.0
 11
85.18155908443374
 21
10.10157063730207
 31
0.0
  0
LINE
  5
194
330
163
100
AcDbEntity
  8
NOKITOI
  6
PHANTOM
 62
     8
 48
5.0
100
AcDbLine
 10
86.4815590844339
 20
8.43917063730214
 30
0.0
 11
86.4815590844339
 21
1.912070637302122
 31
0.0
  0
ARC
  5
195
330
163
100
AcDbEntity
  8
NOKITOI
  6
PHANTOM
 62
     8
 48
5.0
100
AcDbCircle
 10
104.0684175391246
 20
-0.9943142272541081
 30
0.0
 40
14.23462403148678
100
AcDbArc
 50
139.2075062369005
 51
168.6237859483839
  0
LINE
  5
196
330
163
100
AcDbEntity
  8
NOKITOI
  6
PHANTOM
 62
     8
 48
5.0
100
AcDbLine
 10
93.06445908443368
 20
8.801470637302145
 30
0.0
 11
86.84385908443392
 21
8.801470637302145
 31
0.0
  0
ARC
  5
197
330
163
100
AcDbEntity
  8
NOKITOI
  6
PHANTOM
 62
     8
 48
5.0
100
AcDbCircle
 10
93.06447276228515
 20
8.501440773608294
 30
0.0
 40
0.3000298640056128
100
AcDbArc
 50
319.2190584222776
 51
90.00261201719956
  0
LINE
  5
198
330
163
100
AcDbEntity
  8
NOKITOI
  6
PHANTOM
 62
     8
 48
5.0
100
AcDbLine
 10
89.62325908443393
 20
1.412070637302235
 30
0.0
 11
86.98155908443391
 21
1.412070637302235
 31
0.0
  0
ARC
  5
199
330
163
100
AcDbEntity
  8
NOKITOI
  6
PHANTOM
 62
     8
 48
5.0
100
AcDbCircle
 10
86.9815590844338
 20
1.912070637302235
 30
0.0
 40
0.4999999999999432
100
AcDbArc
 50
180.0000000000065
 51
270.0000000000065
  0
ARC
  5
19A
330
163
100
AcDbEntity
  8
NOKITOI
  6
PHANTOM
 62
     8
 48
5.0
100
AcDbCircle
 10
89.62328212556213
 20
1.912089501590457
 30
0.0
 40
0.5000188648190603
100
AcDbArc
 50
269.9973597808039
 51
348.6132711445602
  0
LINE
  5
19B
330
163
100
AcDbEntity
  8
NOKITOI
  6
PHANTOM
 62
     8
 48
5.0
100
AcDbLine
 10
100.1997590844339
 20
13.23317063730223
 30
0.0
 11
105.6547590844337
 21
39.14207063730214
 31
0.0
  0
LINE
  5
19C
330
163
100
AcDbEntity
  8
NOKITOI
  6
PHANTOM
 62
     8
 48
5.0
100
AcDbLine
 10
101.3084590844339
 20
12.22067063730207
 30
0.0
 11
107.1471590844337
 21
39.95207063730208
 31
0.0
  0
ARC
  5
19D
330
163
100
AcDbEntity
  8
NOKITOI
  6
PHANTOM
 62
     8
 48
5.0
100
AcDbCircle
 10
99.22620265398496
 20
13.43821958907108
 30
0.0
 40
0.9950135261271753
100
AcDbArc
 50
288.5445751594487
 51
348.1074736523478
  0
ARC
  5
19E
330
163
100
AcDbEntity
  8
NOKITOI
  6
PHANTOM
 62
     8
 48
5.0
100
AcDbCircle
 10
104.0684735879824
 20
-0.9942214385093848
 30
0.0
 40
14.22809199964113
100
AcDbArc
 50
108.5474584936555
 51
128.7537062451648
  0
ARC
  5
19F
330
163
100
AcDbEntity
  8
NOKITOI
  6
PHANTOM
 62
     8
 48
5.0
100
AcDbCircle
 10
100.334833421286
 20
12.42574988868966
 30
0.0
 40
0.9949690575286499
100
AcDbArc
 50
285.5437330810338
 51
348.1110361155302
  0
LINE
  5
1A0
330
163
100
AcDbEntity
  8
NOKITOI
  6
PHANTOM
 62
     8
 48
5.0
100
AcDbLine
 10
112.8850590844339
 20
41.40997063730208
 30
0.0
 11
107.4607590844339
 21
41.41007063730216
 31
0.0
  0
LINE
  5
1A1
330
163
100
AcDbEntity
  8
NOKITOI
  6
PHANTOM
 62
     8
 48
5.0
100
AcDbLine
 10
113.1900590844338
 20
50.10957063730223
 30
0.0
 11
107.9863590844338
 21
50.10947063730213
 31
0.0
  0
LINE
  5
1A2
330
163
100
AcDbEntity
  8
NOKITOI
  6
PHANTOM
 62
     8
 48
5.0
100
AcDbLine
 10
112.8850590844339
 20
48.80947063730229
 30
0.0
 11
109.0186590844336
 21
48.80947063730229
 31
0.0
  0
LINE
  5
1A3
330
163
100
AcDbEntity
  8
NOKITOI
  6
PHANTOM
 62
     8
 48
5.0
100
AcDbLine
 10
107.3418590844337
 20
40.10997063730224
 30
0.0
 11
113.1900590844338
 21
40.10997063730224
 31
0.0
  0
LINE
  5
1A4
330
163
100
AcDbEntity
  8
NOKITOI
  6
PHANTOM
 62
     8
 48
5.0
100
AcDbLine
 10
109.0186590844336
 20
48.80947063730229
 30
0.0
 11
107.4607590844339
 21
41.41007063730216
 31
0.0
  0
LINE
  5
1A5
330
163
100
AcDbEntity
  8
NOKITOI
  6
PHANTOM
 62
     8
 48
5.0
100
AcDbLine
 10
105.6547590844337
 20
39.14207063730214
 30
0.0
 11
107.9638590844336
 21
50.10947063730213
 31
0.0
  0
ARC
  5
1A6
330
163
100
AcDbEntity
  8
NOKITOI
  6
PHANTOM
 62
     8
 48
5.0
100
AcDbCircle
 10
107.341877527048
 20
39.91108560073894
 30
0.0
 40
0.1989850374179911
100
AcDbArc
 50
90.00531036897127
 51
168.1136861719432
  0
LINE
  5
1A7
330
163
100
AcDbEntity
  8
NOKITOI
  6
PHANTOM
 62
     8
 48
5.0
100
AcDbLine
 10
114.1850590844338
 20
41.10497063730213
 30
0.0
 11
114.1850590844338
 21
49.1145706373021
 31
0.0
  0
LINE
  5
1A8
330
163
100
AcDbEntity
  8
NOKITOI
  6
PHANTOM
 62
     8
 48
5.0
100
AcDbLine
 10
112.8850590844339
 20
41.40997063730208
 30
0.0
 11
112.8850590844339
 21
48.80947063730229
 31
0.0
  0
ARC
  5
1A9
330
163
100
AcDbEntity
  8
NOKITOI
  6
PHANTOM
 62
     8
 48
5.0
100
AcDbCircle
 10
113.1900590844339
 20
41.10497063730218
 30
0.0
 40
0.9949999999999192
100
AcDbArc
 50
269.9999999999951
 51
359.9999999999951
  0
ARC
  5
1AA
330
163
100
AcDbEntity
  8
NOKITOI
  6
PHANTOM
 62
     8
 48
5.0
100
AcDbCircle
 10
113.1900590844338
 20
49.11457063730222
 30
0.0
 40
0.9950000000000613
100
AcDbArc
 50
359.9999999999967
 51
89.99999999999673
  0
ENDBLK
  5
1AC
330
163
100
AcDbEntity
  8
0
100
AcDbBlockEnd
  0
BLOCK
  5
47F
330
448
100
AcDbEntity
  8
0
100
AcDbBlockBegin
  2
*D2
 70
     1
 10
0.0
 20
0.0
 30
0.0
  3
*D2
  1

  0
LINE
  5
480
330
448
100
AcDbEntity
  8
0
  6
BYBLOCK
 62
     4
100
AcDbLine
 10
578.4628976960991
 20
410.8182839583727
 30
0.0
 11
600.8943863604131
 21
410.8182839583727
 31
0.0
  0
LINE
  5
481
330
448
100
AcDbEntity
  8
0
  6
BYBLOCK
 62
     4
100
AcDbLine
 10
578.4628976960991
 20
407.8182839583726
 30
0.0
 11
600.8943863604131
 21
407.8182839583726
 31
0.0
  0
LINE
  5
482
330
448
100
AcDbEntity
  8
0
  6
BYBLOCK
 62
     4
100
AcDbLine
 10
597.8943863604131
 20
417.8182839583727
 30
0.0
 11
597.8943863604131
 21
424.8182839583726
 31
0.0
  0
LINE
  5
483
330
448
100
AcDbEntity
  8
0
  6
BYBLOCK
 62
     4
100
AcDbLine
 10
597.8943863604131
 20
400.8182839583727
 30
0.0
 11
597.8943863604131
 21
372.8182839583727
 31
0.0
  0
LINE
  5
484
330
448
100
AcDbEntity
  8
0
  6
BYBLOCK
 62
     4
100
AcDbLine
 10
597.8943863604131
 20
410.8182839583727
 30
0.0
 11
597.8943863604131
 21
407.8182839583726
 31
0.0
  0
INSERT
  5
485
330
448
100
AcDbEntity
  8
0
  6
BYBLOCK
 62
     4
100
AcDbBlockReference
  2
_OPEN
 10
597.8943863604131
 20
410.8182839583727
 30
0.0
 41
7.0
 42
7.0
 43
7.0
 50
270.0
  0
INSERT
  5
486
330
448
100
AcDbEntity
  8
0
  6
BYBLOCK
 62
     4
100
AcDbBlockReference
  2
_OPEN
 10
597.8943863604131
 20
407.8182839583726
 30
0.0
 41
7.0
 42
7.0
 43
7.0
 50
90.0
  0
MTEXT
  5
487
330
448
100
AcDbEntity
  8
0
  6
BYBLOCK
 62
     4
100
AcDbMText
 10
592.8943863604131
 20
383.3182839583727
 30
0.0
 40
6.0
 41
0.0
 71
     5
 72
     5
  1
\A1;t3.0
 11
0.0
 21
1.0
 31
0.0
1001
ACAD
1000
MTEXTBEGIN
1070
    73
1070
     1
1070
    44
1040
1.0
1070
    74
1070
     0
1000
MTEXTEND
1000
MTEXTBEGIN
1070
    73
1070
     1
1070
    44
1040
1.0
1070
    74
1070
     0
1000
MTEXTEND
  0
POINT
  5
488
330
448
100
AcDbEntity
  8
DEFPOINTS
  6
BYBLOCK
 62
     0
100
AcDbPoint
 10
572.4628976960992
 20
410.8182839583727
 30
0.0
  0
POINT
  5
489
330
448
100
AcDbEntity
  8
DEFPOINTS
  6
BYBLOCK
 62
     0
100
AcDbPoint
 10
572.4628976960992
 20
407.8182839583726
 30
0.0
  0
POINT
  5
48A
330
448
100
AcDbEntity
  8
DEFPOINTS
  6
BYBLOCK
 62
     0
100
AcDbPoint
 10
597.8943863604131
 20
407.8182839583726
 30
0.0
  0
ENDBLK
  5
48B
330
448
100
AcDbEntity
  8
0
100
AcDbBlockEnd
  0
BLOCK
  5
560
330
48C
100
AcDbEntity
  8
0
100
AcDbBlockBegin
  2
*D3
 70
     1
 10
0.0
 20
0.0
 30
0.0
  3
*D3
  1

  0
LINE
  5
561
330
48C
100
AcDbEntity
  8
0
  6
BYBLOCK
 62
     4
100
AcDbLine
 10
280.202697696099
 20
421.7439839583727
 30
0.0
 11
250.6487450606723
 21
421.7439839583727
 31
0.0
  0
LINE
  5
562
330
48C
100
AcDbEntity
  8
0
  6
BYBLOCK
 62
     4
100
AcDbLine
 10
280.202697696099
 20
396.7439839583727
 30
0.0
 11
250.6487450606723
 21
396.7439839583727
 31
0.0
  0
LINE
  5
563
330
48C
100
AcDbEntity
  8
0
  6
BYBLOCK
 62
     4
100
AcDbLine
 10
253.6487450606723
 20
428.7439839583726
 30
0.0
 11
253.6487450606723
 21
435.7439839583727
 31
0.0
  0
LINE
  5
564
330
48C
100
AcDbEntity
  8
0
  6
BYBLOCK
 62
     4
100
AcDbLine
 10
253.6487450606723
 20
389.7439839583727
 30
0.0
 11
253.6487450606723
 21
382.7439839583727
 31
0.0
  0
LINE
  5
565
330
48C
100
AcDbEntity
  8
0
  6
BYBLOCK
 62
     4
100
AcDbLine
 10
253.6487450606723
 20
421.7439839583727
 30
0.0
 11
253.6487450606723
 21
396.7439839583727
 31
0.0
  0
INSERT
  5
566
330
48C
100
AcDbEntity
  8
0
  6
BYBLOCK
 62
     4
100
AcDbBlockReference
  2
_OPEN
 10
253.6487450606723
 20
421.7439839583727
 30
0.0
 41
7.0
 42
7.0
 43
7.0
 50
270.0
  0
INSERT
  5
567
330
48C
100
AcDbEntity
  8
0
  6
BYBLOCK
 62
     4
100
AcDbBlockReference
  2
_OPEN
 10
253.6487450606723
 20
396.7439839583727
 30
0.0
 41
7.0
 42
7.0
 43
7.0
 50
90.0
  0
MTEXT
  5
568
330
48C
100
AcDbEntity
  8
0
  6
BYBLOCK
 62
     4
100
AcDbMText
 10
248.6487450606723
 20
409.2439839583727
 30
0.0
 40
6.0
 41
0.0
 71
     5
 72
     5
  1
\A1;25
 11
0.0
 21
1.0
 31
0.0
1001
ACAD
1000
MTEXTBEGIN
1070
    73
1070
     1
1070
    44
1040
1.0
1070
    74
1070
     0
1000
MTEXTEND
1000
MTEXTBEGIN
1070
    73
1070
     1
1070
    44
1040
1.0
1070
    74
1070
     0
1000
MTEXTEND
  0
POINT
  5
569
330
48C
100
AcDbEntity
  8
DEFPOINTS
  6
BYBLOCK
 62
     0
100
AcDbPoint
 10
286.202697696099
 20
421.7439839583727
 30
0.0
  0
POINT
  5
56A
330
48C
100
AcDbEntity
  8
DEFPOINTS
  6
BYBLOCK
 62
     0
100
AcDbPoint
 10
286.202697696099
 20
396.7439839583727
 30
0.0
  0
POINT
  5
56B
330
48C
100
AcDbEntity
  8
DEFPOINTS
  6
BYBLOCK
 62
     0
100
AcDbPoint
 10
253.6487450606723
 20
396.7439839583727
 30
0.0
  0
ENDBLK
  5
56C
330
48C
100
AcDbEntity
  8
0
100
AcDbBlockEnd
  0
BLOCK
  5
49C
330
49B
100
AcDbEntity
  8
0
100
AcDbBlockBegin
  2
*D4
 70
     1
 10
0.0
 20
0.0
 30
0.0
  3
*D4
  1

  0
LINE
  5
49D
330
49B
100
AcDbEntity
  8
0
  6
BYBLOCK
 62
     4
100
AcDbLine
 10
574.6911067627364
 20
233.4711698183634
 30
0.0
 11
587.1600981631637
 21
202.2965006437464
 31
0.0
  0
LINE
  5
49E
330
49B
100
AcDbEntity
  8
0
  6
BYBLOCK
 62
     4
100
AcDbLine
 10
361.1393811289111
 20
148.0564821576938
 30
0.0
 11
373.6083725293381
 21
116.8818129830776
 31
0.0
  0
LINE
  5
49F
330
49B
100
AcDbEntity
  8
0
  6
BYBLOCK
 62
     4
100
AcDbLine
 10
579.5465937998342
 20
202.4823804693411
 30
0.0
 11
378.9936678260304
 21
122.2668472974923
 31
0.0
  0
INSERT
  5
4A0
330
49B
100
AcDbEntity
  8
0
  6
BYBLOCK
 62
     4
100
AcDbBlockReference
  2
_OPEN
 10
586.0459936298451
 20
205.0819577137511
 30
0.0
 41
7.0
 42
7.0
 43
7.0
 50
21.80002111816135
  0
INSERT
  5
4A1
330
49B
100
AcDbEntity
  8
0
  6
BYBLOCK
 62
     4
100
AcDbBlockReference
  2
_OPEN
 10
372.4942679960195
 20
119.6672700530822
 30
0.0
 41
7.0
 42
7.0
 43
7.0
 50
201.8000211181613
  0
MTEXT
  5
4A2
330
49B
100
AcDbEntity
  8
0
  6
BYBLOCK
 62
     4
100
AcDbMText
 10
477.4132899240679
 20
167.0170423334244
 30
0.0
 40
6.0
 41
0.0
 71
     5
 72
     5
  1
\A1;230
 11
0.9284856900015562
 21
0.3713681777728596
 31
0.0
1001
ACAD
1000
MTEXTBEGIN
1070
    73
1070
     1
1070
    44
1040
1.0
1070
    74
1070
     0
1000
MTEXTEND
1000
MTEXTBEGIN
1070
    73
1070
     1
1070
    44
1040
1.0
1070
    74
1070
     0
1000
MTEXTEND
  0
POINT
  5
4A3
330
49B
100
AcDbEntity
  8
DEFPOINTS
  6
BYBLOCK
 62
     0
100
AcDbPoint
 10
572.4628976960993
 20
239.0420839583727
 30
0.0
  0
POINT
  5
4A4
330
49B
100
AcDbEntity
  8
DEFPOINTS
  6
BYBLOCK
 62
     0
100
AcDbPoint
 10
358.9111720622739
 20
153.6273962977032
 30
0.0
  0
POINT
  5
4A5
330
49B
100
AcDbEntity
  8
DEFPOINTS
  6
BYBLOCK
 62
     0
100
AcDbPoint
 10
372.4942679960195
 20
119.6672700530822
 30
0.0
  0
ENDBLK
  5
4A6
330
49B
100
AcDbEntity
  8
0
100
AcDbBlockEnd
  0
BLOCK
  5
4A9
330
4A8
100
AcDbEntity
  8
0
100
AcDbBlockBegin
  2
*D5
 70
     1
 10
0.0
 20
0.0
 30
0.0
  3
*D5
  1

  0
LINE
  5
4AA
330
4A8
100
AcDbEntity
  8
0
  6
BYBLOCK
 62
     4
100
AcDbLine
 10
573.2060087683684
 20
253.3406006948831
 30
0.0
 11
593.5155166730736
 21
261.4638654242052
 31
0.0
  0
LINE
  5
4AB
330
4A8
100
AcDbEntity
  8
0
  6
BYBLOCK
 62
     4
100
AcDbLine
 10
578.0338087683684
 20
241.2703006948831
 30
0.0
 11
598.3433166730736
 21
249.3935654242053
 31
0.0
  0
LINE
  5
4AC
330
4A8
100
AcDbEntity
  8
0
  6
BYBLOCK
 62
     4
100
AcDbLine
 10
588.1304749443434
 20
266.849153306931
 30
0.0
 11
585.5308887517477
 21
273.348549557912
 31
0.0
  0
LINE
  5
4AD
330
4A8
100
AcDbEntity
  8
0
  6
BYBLOCK
 62
     4
100
AcDbLine
 10
598.1574473295345
 20
241.780060804969
 30
0.0
 11
600.7570335221302
 21
235.2806645539879
 31
0.0
  0
LINE
  5
4AE
330
4A8
100
AcDbEntity
  8
0
  6
BYBLOCK
 62
     4
100
AcDbLine
 10
590.7300611369389
 20
260.34975705595
 30
0.0
 11
595.5578611369389
 21
248.27945705595
 31
0.0
  0
INSERT
  5
4AF
330
4A8
100
AcDbEntity
  8
0
  6
BYBLOCK
 62
     4
100
AcDbBlockReference
  2
_OPEN
 10
590.7300611369389
 20
260.34975705595
 30
0.0
 41
7.0
 42
7.0
 43
7.0
 50
291.800100001354
  0
INSERT
  5
4B0
330
4A8
100
AcDbEntity
  8
0
  6
BYBLOCK
 62
     4
100
AcDbBlockReference
  2
_OPEN
 10
595.5578611369389
 20
248.27945705595
 30
0.0
 41
7.0
 42
7.0
 43
7.0
 50
111.800100001354
  0
MTEXT
  5
4B1
330
4A8
100
AcDbEntity
  8
0
  6
BYBLOCK
 62
     4
100
AcDbMText
 10
597.7863870304968
 20
256.1714543363754
 30
0.0
 40
6.0
 41
0.0
 71
     5
 72
     5
  1
\A1;13
 11
0.3713694560850848
 21
-0.9284851787115767
 31
0.0
1001
ACAD
1000
MTEXTBEGIN
1070
    73
1070
     1
1070
    44
1040
1.0
1070
    74
1070
     0
1000
MTEXTEND
1000
MTEXTBEGIN
1070
    73
1070
     1
1070
    44
1040
1.0
1070
    74
1070
     0
1000
MTEXTEND
  0
POINT
  5
4B2
330
4A8
100
AcDbEntity
  8
DEFPOINTS
  6
BYBLOCK
 62
     0
100
AcDbPoint
 10
567.6350976960988
 20
251.1123839583726
 30
0.0
  0
POINT
  5
4B3
330
4A8
100
AcDbEntity
  8
DEFPOINTS
  6
BYBLOCK
 62
     0
100
AcDbPoint
 10
572.4628976960989
 20
239.0420839583726
 30
0.0
  0
POINT
  5
4B4
330
4A8
100
AcDbEntity
  8
DEFPOINTS
  6
BYBLOCK
 62
     0
100
AcDbPoint
 10
595.5578611369389
 20
248.27945705595
 30
0.0
  0
ENDBLK
  5
4B5
330
4A8
100
AcDbEntity
  8
0
100
AcDbBlockEnd
  0
BLOCK
  5
4B8
330
4B7
100
AcDbEntity
  8
0
100
AcDbBlockBegin
  2
*D6
 70
     1
 10
0.0
 20
0.0
 30
0.0
  3
*D6
  1

  0
LINE
  5
4B9
330
4B7
100
AcDbEntity
  8
0
  6
BYBLOCK
 62
     4
100
AcDbLine
 10
500.4129151047958
 20
230.6875456575125
 30
0.0
 11
491.2162553383264
 21
253.6808197601524
 31
0.0
  0
LINE
  5
4BA
330
4B7
100
AcDbEntity
  8
0
  6
BYBLOCK
 62
     4
100
AcDbLine
 10
556.1221021489453
 20
252.9696459284275
 30
0.0
 11
546.9254423824759
 21
275.9629200310672
 31
0.0
  0
LINE
  5
4BB
330
4B7
100
AcDbEntity
  8
0
  6
BYBLOCK
 62
     4
100
AcDbLine
 10
498.8297596767693
 20
253.4949389152284
 30
0.0
 11
541.5401463648116
 21
270.5778864376595
 31
0.0
  0
INSERT
  5
4BC
330
4B7
100
AcDbEntity
  8
0
  6
BYBLOCK
 62
     4
100
AcDbBlockReference
  2
_OPEN
 10
492.3303594987157
 20
250.8953625409865
 30
0.0
 41
7.0
 42
7.0
 43
7.0
 50
201.8000134471514
  0
INSERT
  5
4BD
330
4B7
100
AcDbEntity
  8
0
  6
BYBLOCK
 62
     4
100
AcDbBlockReference
  2
_OPEN
 10
548.0395465428653
 20
273.1774628119014
 30
0.0
 41
7.0
 42
7.0
 43
7.0
 50
21.80001344715142
  0
MTEXT
  5
4BE
330
4B7
100
AcDbEntity
  8
0
  6
BYBLOCK
 62
     4
100
AcDbMText
 10
518.3281127534749
 20
266.6788413750537
 30
0.0
 40
6.0
 41
0.0
 71
     5
 72
     5
  1
\A1;60
 11
0.9284857397219459
 21
0.3713680534631253
 31
0.0
1001
ACAD
1000
MTEXTBEGIN
1070
    73
1070
     1
1070
    44
1040
1.0
1070
    74
1070
     0
1000
MTEXTEND
1000
MTEXTBEGIN
1070
    73
1070
     1
1070
    44
1040
1.0
1070
    74
1070
     0
1000
MTEXTEND
  0
POINT
  5
4BF
330
4B7
100
AcDbEntity
  8
DEFPOINTS
  6
BYBLOCK
 62
     0
100
AcDbPoint
 10
502.6411234255745
 20
225.1166312191808
 30
0.0
  0
POINT
  5
4C0
330
4B7
100
AcDbEntity
  8
DEFPOINTS
  6
BYBLOCK
 62
     0
100
AcDbPoint
 10
558.3503104697241
 20
247.3987314900958
 30
0.0
  0
POINT
  5
4C1
330
4B7
100
AcDbEntity
  8
DEFPOINTS
  6
BYBLOCK
 62
     0
100
AcDbPoint
 10
548.0395465428653
 20
273.1774628119014
 30
0.0
  0
ENDBLK
  5
4C2
330
4B7
100
AcDbEntity
  8
0
100
AcDbBlockEnd
  0
BLOCK
  5
4E0
330
4C4
100
AcDbEntity
  8
0
100
AcDbBlockBegin
  2
*D7
 70
     1
 10
0.0
 20
0.0
 30
0.0
  3
*D7
  1

  0
LINE
  5
4E1
330
4C4
100
AcDbEntity
  8
0
  6
BYBLOCK
 62
     4
100
AcDbLine
 10
565.4068893753203
 20
256.6832983967043
 30
0.0
 11
556.2102296088509
 21
279.6765724993441
 31
0.0
  0
LINE
  5
4E2
330
4C4
100
AcDbEntity
  8
0
  6
BYBLOCK
 62
     4
100
AcDbLine
 10
541.5401463648116
 20
270.5778864376596
 30
0.0
 11
535.040746186758
 21
267.9783100634177
 31
0.0
  0
LINE
  5
4E3
330
4C4
100
AcDbEntity
  8
0
  6
BYBLOCK
 62
     4
100
AcDbLine
 10
563.8237339472939
 20
279.4906916544201
 30
0.0
 11
580.5364772622889
 21
286.1753166167564
 31
0.0
  0
LINE
  5
4E4
330
4C4
100
AcDbEntity
  8
0
  6
BYBLOCK
 62
     4
100
AcDbLine
 10
548.0395465428653
 20
273.1774628119015
 30
0.0
 11
557.3243337692402
 21
276.8911152801783
 31
0.0
  0
INSERT
  5
4E5
330
4C4
100
AcDbEntity
  8
0
  6
BYBLOCK
 62
     4
100
AcDbBlockReference
  2
_OPEN
 10
548.0395465428653
 20
273.1774628119015
 30
0.0
 41
7.0
 42
7.0
 43
7.0
 50
21.80001344715144
  0
INSERT
  5
4E6
330
4C4
100
AcDbEntity
  8
0
  6
BYBLOCK
 62
     4
100
AcDbBlockReference
  2
_OPEN
 10
557.3243337692402
 20
276.8911152801783
 30
0.0
 41
7.0
 42
7.0
 43
7.0
 50
201.8000134471514
  0
MTEXT
  5
4E7
330
4C4
100
AcDbEntity
  8
0
  6
BYBLOCK
 62
     4
100
AcDbMText
 10
573.5729654265026
 20
288.7752210213189
 30
0.0
 40
6.0
 41
0.0
 71
     5
 72
     5
  1
\A1;10
 11
0.9284857397219459
 21
0.3713680534631253
 31
0.0
1001
ACAD
1000
MTEXTBEGIN
1070
    73
1070
     1
1070
    44
1040
1.0
1070
    74
1070
     0
1000
MTEXTEND
1000
MTEXTBEGIN
1070
    73
1070
     1
1070
    44
1040
1.0
1070
    74
1070
     0
1000
MTEXTEND
  0
POINT
  5
4E8
330
4C4
100
AcDbEntity
  8
DEFPOINTS
  6
BYBLOCK
 62
     0
100
AcDbPoint
 10
558.3503104697241
 20
247.3987314900958
 30
0.0
  0
POINT
  5
4E9
330
4C4
100
AcDbEntity
  8
DEFPOINTS
  6
BYBLOCK
 62
     0
100
AcDbPoint
 10
567.6350976960991
 20
251.1123839583726
 30
0.0
  0
POINT
  5
4EA
330
4C4
100
AcDbEntity
  8
DEFPOINTS
  6
BYBLOCK
 62
     0
100
AcDbPoint
 10
557.3243337692402
 20
276.8911152801783
 30
0.0
  0
ENDBLK
  5
4EB
330
4C4
100
AcDbEntity
  8
0
100
AcDbBlockEnd
  0
BLOCK
  5
4FD
330
4FC
100
AcDbEntity
  8
0
100
AcDbBlockBegin
  2
*D8
 70
     1
 10
0.0
 20
0.0
 30
0.0
  3
*D8
  1

  0
LINE
  5
4FE
330
4FC
100
AcDbEntity
  8
0
  6
BYBLOCK
 62
     4
100
AcDbLine
 10
401.802597696099
 20
262.4924839583727
 30
0.0
 11
401.802597696099
 21
305.0412262767629
 31
0.0
  0
LINE
  5
4FF
330
4FC
100
AcDbEntity
  8
0
  6
BYBLOCK
 62
     4
100
AcDbLine
 10
286.202597696099
 20
283.2440839583726
 30
0.0
 11
286.202597696099
 21
305.0412262767629
 31
0.0
  0
LINE
  5
500
330
4FC
100
AcDbEntity
  8
0
  6
BYBLOCK
 62
     4
100
AcDbLine
 10
394.8025976960989
 20
302.0412262767629
 30
0.0
 11
293.202597696099
 21
302.0412262767629
 31
0.0
  0
INSERT
  5
501
330
4FC
100
AcDbEntity
  8
0
  6
BYBLOCK
 62
     4
100
AcDbBlockReference
  2
_OPEN
 10
401.802597696099
 20
302.0412262767629
 30
0.0
 41
7.0
 42
7.0
 43
7.0
  0
INSERT
  5
502
330
4FC
100
AcDbEntity
  8
0
  6
BYBLOCK
 62
     4
100
AcDbBlockReference
  2
_OPEN
 10
286.202597696099
 20
302.0412262767629
 30
0.0
 41
7.0
 42
7.0
 43
7.0
 50
180.0
  0
MTEXT
  5
503
330
4FC
100
AcDbEntity
  8
0
  6
BYBLOCK
 62
     4
100
AcDbMText
 10
344.002597696099
 20
307.0412262767629
 30
0.0
 40
6.0
 41
0.0
 71
     5
 72
     5
  1
\A1;116
1001
ACAD
1000
MTEXTBEGIN
1070
    73
1070
     1
1070
    44
1040
1.0
1070
    74
1070
     0
1000
MTEXTEND
1000
MTEXTBEGIN
1070
    73
1070
     1
1070
    44
1040
1.0
1070
    74
1070
     0
1000
MTEXTEND
  0
POINT
  5
504
330
4FC
100
AcDbEntity
  8
DEFPOINTS
  6
BYBLOCK
 62
     0
100
AcDbPoint
 10
401.802597696099
 20
256.4924839583726
 30
0.0
  0
POINT
  5
505
330
4FC
100
AcDbEntity
  8
DEFPOINTS
  6
BYBLOCK
 62
     0
100
AcDbPoint
 10
286.202597696099
 20
277.2440839583726
 30
0.0
  0
POINT
  5
506
330
4FC
100
AcDbEntity
  8
DEFPOINTS
  6
BYBLOCK
 62
     0
100
AcDbPoint
 10
286.202597696099
 20
302.0412262767629
 30
0.0
  0
ENDBLK
  5
507
330
4FC
100
AcDbEntity
  8
0
100
AcDbBlockEnd
  0
BLOCK
  5
54B
330
509
100
AcDbEntity
  8
0
100
AcDbBlockBegin
  2
*D9
 70
     1
 10
0.0
 20
0.0
 30
0.0
  3
*D9
  1

  0
LINE
  5
54C
330
509
100
AcDbEntity
  8
0
  6
BYBLOCK
 62
     4
100
AcDbLine
 10
280.202597696099
 20
292.2440839583726
 30
0.0
 11
250.6772116538177
 21
292.2440839583726
 31
0.0
  0
LINE
  5
54D
330
509
100
AcDbEntity
  8
0
  6
BYBLOCK
 62
     4
100
AcDbLine
 10
304.447097696099
 20
218.4440839583727
 30
0.0
 11
250.6772116538177
 21
218.4440839583727
 31
0.0
  0
LINE
  5
54E
330
509
100
AcDbEntity
  8
0
  6
BYBLOCK
 62
     4
100
AcDbLine
 10
253.6772116538177
 20
285.2440839583726
 30
0.0
 11
253.6772116538177
 21
225.4440839583727
 31
0.0
  0
INSERT
  5
54F
330
509
100
AcDbEntity
  8
0
  6
BYBLOCK
 62
     4
100
AcDbBlockReference
  2
_OPEN
 10
253.6772116538177
 20
292.2440839583726
 30
0.0
 41
7.0
 42
7.0
 43
7.0
 50
90.0
  0
INSERT
  5
550
330
509
100
AcDbEntity
  8
0
  6
BYBLOCK
 62
     4
100
AcDbBlockReference
  2
_OPEN
 10
253.6772116538177
 20
218.4440839583727
 30
0.0
 41
7.0
 42
7.0
 43
7.0
 50
270.0
  0
MTEXT
  5
551
330
509
100
AcDbEntity
  8
0
  6
BYBLOCK
 62
     4
100
AcDbMText
 10
248.6772116538177
 20
255.3440839583727
 30
0.0
 40
6.0
 41
0.0
 71
     5
 72
     5
  1
\A1;74
 11
0.0
 21
1.0
 31
0.0
1001
ACAD
1000
MTEXTBEGIN
1070
    73
1070
     1
1070
    44
1040
1.0
1070
    74
1070
     0
1000
MTEXTEND
1000
MTEXTBEGIN
1070
    73
1070
     1
1070
    44
1040
1.0
1070
    74
1070
     0
1000
MTEXTEND
  0
POINT
  5
552
330
509
100
AcDbEntity
  8
DEFPOINTS
  6
BYBLOCK
 62
     0
100
AcDbPoint
 10
286.202597696099
 20
292.2440839583726
 30
0.0
  0
POINT
  5
553
330
509
100
AcDbEntity
  8
DEFPOINTS
  6
BYBLOCK
 62
     0
100
AcDbPoint
 10
310.447097696099
 20
218.4440839583727
 30
0.0
  0
POINT
  5
554
330
509
100
AcDbEntity
  8
DEFPOINTS
  6
BYBLOCK
 62
     0
100
AcDbPoint
 10
253.6772116538177
 20
218.4440839583727
 30
0.0
  0
ENDBLK
  5
555
330
509
100
AcDbEntity
  8
0
100
AcDbBlockEnd
  0
BLOCK
  5
556
330
516
100
AcDbEntity
  8
0
100
AcDbBlockBegin
  2
*D10
 70
     1
 10
0.0
 20
0.0
 30
0.0
  3
*D10
  1

  0
LINE
  5
8D5
330
516
100
AcDbEntity
  8
SUNPOU
  6
CONTINUOUS
 62
     4
100
AcDbLine
 10
368.0026076732381
 20
166.4440741715578
 30
0.0
 11
250.6772116538177
 21
166.4440741715579
 31
0.0
  0
LINE
  5
8D6
330
516
100
AcDbEntity
  8
SUNPOU
  6
CONTINUOUS
 62
     4
100
AcDbLine
 10
253.6772116538177
 20
211.4440839583727
 30
0.0
 11
253.6772116538177
 21
173.4440741715578
 31
0.0
  0
INSERT
  5
8D7
330
516
100
AcDbEntity
  8
SUNPOU
  6
CONTINUOUS
 62
     4
100
AcDbBlockReference
  2
_OPEN
 10
253.6772116538177
 20
218.4440839583727
 30
0.0
 41
7.0
 42
7.0
 43
7.0
 50
90.0
  0
INSERT
  5
8D8
330
516
100
AcDbEntity
  8
SUNPOU
  6
CONTINUOUS
 62
     4
100
AcDbBlockReference
  2
_OPEN
 10
253.6772116538177
 20
166.4440741715579
 30
0.0
 41
7.0
 42
7.0
 43
7.0
 50
270.0
  0
MTEXT
  5
8D9
330
516
100
AcDbEntity
  8
SUNPOU
  6
CONTINUOUS
 62
     4
100
AcDbMText
 10
248.6772116538177
 20
192.4440790649653
 30
0.0
 40
6.0
 41
0.0
 71
     5
 72
     1
  1
\A1;52
 11
0.0000000000000001
 21
1.0
 31
0.0
  0
POINT
  5
8DA
330
516
100
AcDbEntity
  8
DEFPOINTS
  6
CONTINUOUS
 62
     0
100
AcDbPoint
 10
310.447097696099
 20
218.4440839583727
 30
0.0
  0
POINT
  5
8DB
330
516
100
AcDbEntity
  8
DEFPOINTS
  6
CONTINUOUS
 62
     0
100
AcDbPoint
 10
374.0026076732381
 20
166.4440741715578
 30
0.0
  0
POINT
  5
8DC
330
516
100
AcDbEntity
  8
DEFPOINTS
  6
CONTINUOUS
 62
     0
100
AcDbPoint
 10
253.6772116538177
 20
166.4440741715579
 30
0.0
  0
ENDBLK
  5
55F
330
516
100
AcDbEntity
  8
0
100
AcDbBlockEnd
  0
ENDSEC
  0
SECTION
  2
ENTITIES
  0
LINE
  5
2F2
330
1A
100
AcDbEntity
  8
CENTER_L
  6
CENTER
 62
     1
 48
5.0
100
AcDbLine
 10
355.3812976960991
 20
409.2439839583727
 30
0.0
 11
580.084497696099
 21
409.2439839583727
 31
0.0
  0
LINE
  5
2F3
330
1A
100
AcDbEntity
  8
SEIHIN
  6
CONTINUOUS
 62
     3
 48
16.0
100
AcDbLine
 10
572.4628976960992
 20
410.8182839583727
 30
0.0
 11
401.802597696099
 21
410.8182839583727
 31
0.0
  0
LINE
  5
2F4
330
1A
100
AcDbEntity
  8
CENTER_L
  6
CENTER
 62
     1
 48
5.0
100
AcDbLine
 10
386.6878976960991
 20
186.7381839583727
 30
0.0
 11
573.8472976960991
 21
261.5965839583727
 31
0.0
  0
LINE
  5
2F5
330
1A
100
AcDbEntity
  8
SEIHIN
  6
CONTINUOUS
 62
     3
 48
16.0
100
AcDbLine
 10
567.6350976960991
 20
266.1123839583726
 30
0.0
 11
402.7591976960992
 21
200.1666839583727
 31
0.0
  0
LINE
  5
2F6
330
1A
100
AcDbEntity
  8
SEIHIN
  6
CONTINUOUS
 62
     3
 48
16.0
100
AcDbLine
 10
572.4628976960992
 20
254.0420839583727
 30
0.0
 11
408.0990976960992
 21
188.3011839583727
 31
0.0
  0
LINE
  5
2F7
330
1A
100
AcDbEntity
  8
SEIHIN
  6
CONTINUOUS
 62
     3
 48
16.0
100
AcDbLine
 10
572.4628976960992
 20
407.8182839583726
 30
0.0
 11
401.802597696099
 21
407.8182839583726
 31
0.0
  0
INSERT
  5
2F9
330
1A
100
AcDbEntity
  8
0
100
AcDbBlockReference
  2
A$C1305
 10
286.8197386116651
 20
219.1319633210704
 30
0.0
  0
LINE
  5
2FA
330
1A
100
AcDbEntity
  8
SEIHIN
  6
CONTINUOUS
 62
     3
 48
16.0
100
AcDbLine
 10
391.1362976960991
 20
270.3286839583727
 30
0.0
 11
391.799697696099
 21
267.8527839583726
 31
0.0
  0
LINE
  5
2FB
330
1A
100
AcDbEntity
  8
SEIHIN
  6
CONTINUOUS
 62
     3
 48
16.0
100
AcDbLine
 10
391.799697696099
 20
267.8527839583726
 30
0.0
 11
401.002597696099
 21
272.1440839583726
 31
0.0
  0
LINE
  5
2FC
330
1A
100
AcDbEntity
  8
SEIHIN
  6
CONTINUOUS
 62
     3
 48
16.0
100
AcDbLine
 10
401.802597696099
 20
271.4924839583726
 30
0.0
 11
401.802597696099
 21
258.2440839583727
 31
0.0
  0
LINE
  5
2FD
330
1A
100
AcDbEntity
  8
SEIHIN
  6
CONTINUOUS
 62
     3
 48
16.0
100
AcDbLine
 10
401.002597696099
 20
271.4924839583726
 30
0.0
 11
401.002597696099
 21
258.2440839583727
 31
0.0
  0
LINE
  5
2FE
330
1A
100
AcDbEntity
  8
SEIHIN
  6
CONTINUOUS
 62
     3
 48
16.0
100
AcDbLine
 10
287.0025976960991
 20
292.2440839583726
 30
0.0
 11
287.0025976960991
 21
258.2440839583727
 31
0.0
  0
ARC
  5
2FF
330
1A
100
AcDbEntity
  8
SEIHIN
  6
CONTINUOUS
 62
     3
 48
16.0
100
AcDbCircle
 10
182.8565610070003
 20
267.3942825937799
 30
0.0
 40
0.9999737246538973
100
AcDbArc
 50
30.00095949202673
 51
123.1833545524768
  0
LINE
  5
301
330
1A
100
AcDbEntity
  8
SEIHIN
  6
CONTINUOUS
 62
     3
 48
16.0
100
AcDbLine
 10
286.202597696099
 20
292.2440839583726
 30
0.0
 11
286.202597696099
 21
258.2440839583727
 31
0.0
  0
LINE
  5
302
330
1A
100
AcDbEntity
  8
SEIHIN
  6
CONTINUOUS
 62
     3
 48
16.0
100
AcDbLine
 10
187.5623552826186
 20
257.1442839583726
 30
0.0
 11
187.5623552826186
 21
291.6442839583726
 31
0.0
  0
ARC
  5
304
330
1A
100
AcDbEntity
  8
SEIHIN
  6
CONTINUOUS
 62
     3
 48
16.0
100
AcDbCircle
 10
167.2680915792462
 20
267.394268770918
 30
0.0
 40
1.000017027235947
100
AcDbArc
 50
56.81429874166861
 51
149.9995584690569
  0
LINE
  5
305
330
1A
100
AcDbEntity
  8
SEIHIN
  6
CONTINUOUS
 62
     3
 48
16.0
100
AcDbLine
 10
162.5623552826186
 20
257.1442839583726
 30
0.0
 11
162.5624552826186
 21
291.6442839583726
 31
0.0
  0
LINE
  5
306
330
1A
100
AcDbEntity
  8
CENTER_L
  6
CENTER
 62
     1
 48
5.0
100
AcDbLine
 10
175.0623552826186
 20
163.9668839583727
 30
0.0
 11
175.0623552826186
 21
285.1586839583727
 31
0.0
  0
LINE
  5
309
330
1A
100
AcDbEntity
  8
SEIHIN
  6
CONTINUOUS
 62
     3
 48
16.0
100
AcDbLine
 10
181.5621552826186
 20
166.4443839583726
 30
0.0
 11
181.5623552826186
 21
215.2441839583727
 31
0.0
  0
LINE
  5
30A
330
1A
100
AcDbEntity
  8
SEIHIN
  6
CONTINUOUS
 62
     3
 48
16.0
100
AcDbLine
 10
168.5623552826185
 20
166.4440839583727
 30
0.0
 11
168.5623552826185
 21
215.2441839583727
 31
0.0
  0
ARC
  5
314
330
1A
100
AcDbEntity
  8
SEIHIN
  6
CONTINUOUS
 62
     3
 48
16.0
100
AcDbCircle
 10
163.5623552826186
 20
257.1442839583727
 30
0.0
 40
0.9999999999999715
100
AcDbArc
 50
180.0000000000016
 51
270.0000000000016
  0
ARC
  5
315
330
1A
100
AcDbEntity
  8
SEIHIN
  6
CONTINUOUS
 62
     3
 48
16.0
100
AcDbCircle
 10
204.2926552826187
 20
224.3242839583726
 30
0.0
 40
19.06515769905943
100
AcDbArc
 50
162.9814976590516
 51
197.0185023409482
  0
ARC
  5
316
330
1A
100
AcDbEntity
  8
SEIHIN
  6
CONTINUOUS
 62
     3
 48
16.0
100
AcDbCircle
 10
145.8319552826185
 20
224.3242839583726
 30
0.0
 40
19.06525332011104
100
AcDbArc
 50
342.9815856167485
 51
17.01841438325137
  0
LINE
  5
317
330
1A
100
AcDbEntity
  8
SEIHIN
  6
CONTINUOUS
 62
     3
 48
16.0
100
AcDbLine
 10
177.0623552826186
 20
218.2442839583727
 30
0.0
 11
177.0623552826186
 21
256.1442839583727
 31
0.0
  0
LINE
  5
318
330
1A
100
AcDbEntity
  8
SEIHIN
  6
CONTINUOUS
 62
     3
 48
16.0
100
AcDbLine
 10
183.0623552826186
 20
218.2442839583727
 30
0.0
 11
183.0623552826186
 21
256.1442839583727
 31
0.0
  0
LINE
  5
31B
330
1A
100
AcDbEntity
  8
SEIHIN
  6
CONTINUOUS
 62
     3
 48
16.0
100
AcDbLine
 10
167.0623552826186
 20
218.2442839583727
 30
0.0
 11
167.0623552826186
 21
256.1442839583727
 31
0.0
  0
LINE
  5
31C
330
1A
100
AcDbEntity
  8
SEIHIN
  6
CONTINUOUS
 62
     3
 48
16.0
100
AcDbLine
 10
173.0623552826186
 20
218.2442839583727
 30
0.0
 11
173.0623552826186
 21
256.1442839583727
 31
0.0
  0
LINE
  5
31D
330
1A
100
AcDbEntity
  8
SEIHIN
  6
CONTINUOUS
 62
     3
 48
16.0
100
AcDbLine
 10
175.0623552826186
 20
215.2442839583727
 30
0.0
 11
181.5623552826186
 21
215.2442839583727
 31
0.0
  0
LINE
  5
31E
330
1A
100
AcDbEntity
  8
SEIHIN
  6
CONTINUOUS
 62
     3
 48
16.0
100
AcDbLine
 10
179.0623552826186
 20
210.7442839583727
 30
0.0
 11
175.0623552826186
 21
210.7441839583727
 31
0.0
  0
LINE
  5
31F
330
1A
100
AcDbEntity
  8
SEIHIN
  6
CONTINUOUS
 62
     3
 48
16.0
100
AcDbLine
 10
175.0623552826186
 20
212.2441839583727
 30
0.0
 11
181.5623552826186
 21
212.2441839583727
 31
0.0
  0
ARC
  5
320
330
1A
100
AcDbEntity
  8
SEIHIN
  6
CONTINUOUS
 62
     3
 48
16.0
100
AcDbCircle
 10
180.0623552834519
 20
218.2442839583726
 30
0.0
 40
3.000000000833331
100
AcDbArc
 50
179.9999999999988
 51
359.9980901406824
  0
LINE
  5
321
330
1A
100
AcDbEntity
  8
SEIHIN
  6
CONTINUOUS
 62
     3
 48
16.0
100
AcDbLine
 10
175.0623552826186
 20
215.2441839583727
 30
0.0
 11
168.5623552826185
 21
215.2442839583727
 31
0.0
  0
LINE
  5
322
330
1A
100
AcDbEntity
  8
SEIHIN
  6
CONTINUOUS
 62
     3
 48
16.0
100
AcDbLine
 10
175.0623552826186
 20
212.2441839583727
 30
0.0
 11
168.5623552826185
 21
212.2442839583726
 31
0.0
  0
ARC
  5
323
330
1A
100
AcDbEntity
  8
SEIHIN
  6
CONTINUOUS
 62
     3
 48
16.0
100
AcDbCircle
 10
170.0623552834519
 20
218.2442839583726
 30
0.0
 40
3.000000000833331
100
AcDbArc
 50
179.9999999999988
 51
359.9980901406824
  0
LINE
  5
324
330
1A
100
AcDbEntity
  8
SEIHIN
  6
CONTINUOUS
 62
     3
 48
16.0
100
AcDbLine
 10
164.0623552826186
 20
218.7442839583726
 30
0.0
 11
167.0623552826186
 21
218.7442839583726
 31
0.0
  0
LINE
  5
325
330
1A
100
AcDbEntity
  8
SEIHIN
  6
CONTINUOUS
 62
     3
 48
16.0
100
AcDbLine
 10
177.0623552826186
 20
218.7442839583726
 30
0.0
 11
175.0623552826186
 21
218.7442839583726
 31
0.0
  0
LINE
  5
326
330
1A
100
AcDbEntity
  8
SEIHIN
  6
CONTINUOUS
 62
     3
 48
16.0
100
AcDbLine
 10
173.0623552826186
 20
218.7442839583726
 30
0.0
 11
175.0623552826186
 21
218.7442839583726
 31
0.0
  0
LINE
  5
327
330
1A
100
AcDbEntity
  8
SEIHIN
  6
CONTINUOUS
 62
     3
 48
16.0
100
AcDbLine
 10
171.0623552826186
 20
210.7442839583727
 30
0.0
 11
171.0623552826186
 21
212.2441839583727
 31
0.0
  0
LINE
  5
328
330
1A
100
AcDbEntity
  8
SEIHIN
  6
CONTINUOUS
 62
     3
 48
16.0
100
AcDbLine
 10
171.0623552826186
 20
210.7442839583727
 30
0.0
 11
175.0623552826186
 21
210.7441839583727
 31
0.0
  0
LINE
  5
329
330
1A
100
AcDbEntity
  8
SEIHIN
  6
CONTINUOUS
 62
     3
 48
16.0
100
AcDbLine
 10
186.0623552826186
 20
218.7442839583726
 30
0.0
 11
183.0623552826186
 21
218.7442839583726
 31
0.0
  0
LINE
  5
32A
330
1A
100
AcDbEntity
  8
SEIHIN
  6
CONTINUOUS
 62
     3
 48
16.0
100
AcDbLine
 10
179.0623552826186
 20
210.7442839583727
 30
0.0
 11
179.0623552826186
 21
212.2441839583727
 31
0.0
  0
LINE
  5
32B
330
1A
100
AcDbEntity
  8
SEIHIN
  6
CONTINUOUS
 62
     3
 48
16.0
100
AcDbLine
 10
186.0623552826186
 20
229.9042839583727
 30
0.0
 11
186.0623552826186
 21
256.1442839583727
 31
0.0
  0
LINE
  5
32C
330
1A
100
AcDbEntity
  8
SEIHIN
  6
CONTINUOUS
 62
     3
 48
16.0
100
AcDbLine
 10
164.0623552826186
 20
229.9042839583727
 30
0.0
 11
164.0623552826186
 21
256.1442839583727
 31
0.0
  0
LINE
  5
32D
330
1A
100
AcDbEntity
  8
SEIHIN
  6
CONTINUOUS
 62
     3
 48
16.0
100
AcDbLine
 10
175.0623552826186
 20
229.9042839583727
 30
0.0
 11
177.0623552826186
 21
229.9042839583727
 31
0.0
  0
LINE
  5
32E
330
1A
100
AcDbEntity
  8
SEIHIN
  6
CONTINUOUS
 62
     3
 48
16.0
100
AcDbLine
 10
175.0623552826186
 20
229.9042839583727
 30
0.0
 11
173.0623552826186
 21
229.9042839583727
 31
0.0
  0
LINE
  5
32F
330
1A
100
AcDbEntity
  8
SEIHIN
  6
CONTINUOUS
 62
     3
 48
16.0
100
AcDbLine
 10
182.3092552826185
 20
268.2311839583726
 30
0.0
 11
178.2498552826186
 21
265.3107839583727
 31
0.0
  0
LINE
  5
330
330
1A
100
AcDbEntity
  8
SEIHIN
  6
CONTINUOUS
 62
     3
 48
16.0
100
AcDbLine
 10
183.3076552826185
 20
266.5017839583727
 30
0.0
 11
178.7488552826186
 21
264.4464839583727
 31
0.0
  0
LINE
  5
331
330
1A
100
AcDbEntity
  8
SEIHIN
  6
CONTINUOUS
 62
     3
 48
16.0
100
AcDbLine
 10
186.5623552826185
 20
256.1442839583727
 30
0.0
 11
175.0623552826186
 21
256.1442839583727
 31
0.0
  0
LINE
  5
332
330
1A
100
AcDbEntity
  8
SEIHIN
  6
CONTINUOUS
 62
     3
 48
16.0
100
AcDbLine
 10
182.3092552826185
 20
257.5573839583727
 30
0.0
 11
178.2498552826186
 21
260.4776839583727
 31
0.0
  0
LINE
  5
333
330
1A
100
AcDbEntity
  8
SEIHIN
  6
CONTINUOUS
 62
     3
 48
16.0
100
AcDbLine
 10
183.3076552826185
 20
259.2866839583726
 30
0.0
 11
178.7488552826186
 21
261.3419839583726
 31
0.0
  0
LINE
  5
334
330
1A
100
AcDbEntity
  8
SEIHIN
  6
CONTINUOUS
 62
     3
 48
16.0
100
AcDbLine
 10
163.5623552826186
 20
256.1442839583727
 30
0.0
 11
175.0623552826186
 21
256.1442839583727
 31
0.0
  0
LINE
  5
335
330
1A
100
AcDbEntity
  8
SEIHIN
  6
CONTINUOUS
 62
     3
 48
16.0
100
AcDbLine
 10
167.8154552826186
 20
268.2311839583726
 30
0.0
 11
171.8748552826186
 21
265.3107839583727
 31
0.0
  0
LINE
  5
336
330
1A
100
AcDbEntity
  8
SEIHIN
  6
CONTINUOUS
 62
     3
 48
16.0
100
AcDbLine
 10
166.8170552826186
 20
266.5017839583727
 30
0.0
 11
171.3758552826186
 21
264.4464839583727
 31
0.0
  0
LINE
  5
337
330
1A
100
AcDbEntity
  8
SEIHIN
  6
CONTINUOUS
 62
     3
 48
16.0
100
AcDbLine
 10
167.8154552826186
 20
257.5573839583727
 30
0.0
 11
171.8748552826186
 21
260.4776839583727
 31
0.0
  0
LINE
  5
338
330
1A
100
AcDbEntity
  8
SEIHIN
  6
CONTINUOUS
 62
     3
 48
16.0
100
AcDbLine
 10
166.8170552826186
 20
259.2866839583726
 30
0.0
 11
171.3758552826186
 21
261.3419839583726
 31
0.0
  0
ARC
  5
339
330
1A
100
AcDbEntity
  8
SEIHIN
  6
CONTINUOUS
 62
     3
 48
16.0
100
AcDbCircle
 10
167.2681472486227
 20
267.3943109177205
 30
0.0
 40
1.000044166502643
100
AcDbArc
 50
150.0032444359103
 51
243.1875140109031
  0
ARC
  5
33A
330
1A
100
AcDbEntity
  8
SEIHIN
  6
CONTINUOUS
 62
     3
 48
16.0
100
AcDbCircle
 10
167.2680915792461
 20
258.3942991458273
 30
0.0
 40
1.000017027235908
100
AcDbArc
 50
210.0004415309467
 51
303.1857012583363
  0
ARC
  5
33B
330
1A
100
AcDbEntity
  8
SEIHIN
  6
CONTINUOUS
 62
     3
 48
16.0
100
AcDbCircle
 10
167.2681297077351
 20
258.3941981307201
 30
0.0
 40
0.9999995447773352
100
AcDbArc
 50
116.8126520514884
 51
209.9943369058543
  0
ARC
  5
33C
330
1A
100
AcDbEntity
  8
SEIHIN
  6
CONTINUOUS
 62
     3
 48
16.0
100
AcDbCircle
 10
178.5264536045237
 20
264.8942844648271
 30
0.0
 40
0.4999877998513301
100
AcDbArc
 50
210.0008741940319
 51
296.4114525759852
  0
ARC
  5
33D
330
1A
100
AcDbEntity
  8
SEIHIN
  6
CONTINUOUS
 62
     3
 48
16.0
100
AcDbCircle
 10
178.5263909870359
 20
260.89426455688
 30
0.0
 40
0.4999430220354947
100
AcDbArc
 50
63.57798565785117
 51
149.9936622587926
  0
ARC
  5
33E
330
1A
100
AcDbEntity
  8
SEIHIN
  6
CONTINUOUS
 62
     3
 48
16.0
100
AcDbCircle
 10
175.0623552826186
 20
262.8942839583726
 30
0.0
 40
1.0
100
AcDbArc
 50
0.0
 51
180.0
  0
ARC
  5
33F
330
1A
100
AcDbEntity
  8
SEIHIN
  6
CONTINUOUS
 62
     3
 48
16.0
100
AcDbCircle
 10
175.0623552826186
 20
262.8942839583726
 30
0.0
 40
1.0
100
AcDbArc
 50
180.0
 51
0.0
  0
ARC
  5
340
330
1A
100
AcDbEntity
  8
SEIHIN
  6
CONTINUOUS
 62
     3
 48
16.0
100
AcDbCircle
 10
171.5982568159101
 20
264.8942774239493
 30
0.0
 40
0.4999844047596521
100
AcDbArc
 50
329.9998328497797
 51
56.41219960147592
  0
ARC
  5
341
330
1A
100
AcDbEntity
  8
SEIHIN
  6
CONTINUOUS
 62
     3
 48
16.0
100
AcDbCircle
 10
171.5982569607134
 20
264.894284464827
 30
0.0
 40
0.4999877998512564
100
AcDbArc
 50
243.5885474240183
 51
329.9991258059708
  0
ARC
  5
342
330
1A
100
AcDbEntity
  8
SEIHIN
  6
CONTINUOUS
 62
     3
 48
16.0
100
AcDbCircle
 10
171.5982568159102
 20
260.894290492796
 30
0.0
 40
0.499984404759582
100
AcDbArc
 50
303.5878003985235
 51
30.00016715021701
  0
ARC
  5
343
330
1A
100
AcDbEntity
  8
SEIHIN
  6
CONTINUOUS
 62
     3
 48
16.0
100
AcDbCircle
 10
171.5983195782013
 20
260.8942645568802
 30
0.0
 40
0.4999430220354169
100
AcDbArc
 50
30.00633774120499
 51
116.4220143421458
  0
ARC
  5
344
330
1A
100
AcDbEntity
  8
SEIHIN
  6
CONTINUOUS
 62
     3
 48
16.0
100
AcDbCircle
 10
178.526453749327
 20
260.8942904927961
 30
0.0
 40
0.4999844047596129
100
AcDbArc
 50
149.9998328497941
 51
236.4121996014849
  0
ARC
  5
345
330
1A
100
AcDbEntity
  8
SEIHIN
  6
CONTINUOUS
 62
     3
 48
16.0
100
AcDbCircle
 10
178.526453749327
 20
264.8942774239493
 30
0.0
 40
0.4999844047596687
100
AcDbArc
 50
123.587800398515
 51
210.0001671502113
  0
ARC
  5
346
330
1A
100
AcDbEntity
  8
SEIHIN
  6
CONTINUOUS
 62
     3
 48
16.0
100
AcDbCircle
 10
186.5623552826186
 20
257.1442839583727
 30
0.0
 40
1.000000000000014
100
AcDbArc
 50
269.9999999999959
 51
359.9999999999959
  0
ARC
  5
347
330
1A
100
AcDbEntity
  8
SEIHIN
  6
CONTINUOUS
 62
     3
 48
16.0
100
AcDbCircle
 10
182.8565462949482
 20
267.3942537960635
 30
0.0
 40
1.000000864972061
100
AcDbArc
 50
296.8148326851233
 51
30.00196692705349
  0
ARC
  5
348
330
1A
100
AcDbEntity
  8
SEIHIN
  6
CONTINUOUS
 62
     3
 48
16.0
100
AcDbCircle
 10
182.8565610070004
 20
258.3942853229654
 30
0.0
 40
0.999973724653859
100
AcDbArc
 50
236.8166454475179
 51
329.9990405079698
  0
ARC
  5
349
330
1A
100
AcDbEntity
  8
SEIHIN
  6
CONTINUOUS
 62
     3
 48
16.0
100
AcDbCircle
 10
182.8565638348747
 20
258.3942552549333
 30
0.0
 40
0.9999562415177065
100
AcDbArc
 50
330.0004515040512
 51
63.18500102535443
  0
ARC
  5
34C
330
1A
100
AcDbEntity
  8
SEIHIN
  6
CONTINUOUS
 62
     3
 48
16.0
100
AcDbCircle
 10
374.0025871816461
 20
187.4440835494432
 30
0.0
 40
17.99998948582717
100
AcDbArc
 50
179.9996803882645
 51
4.454781371660859
  0
ARC
  5
34D
330
1A
100
AcDbEntity
  8
SEIHIN
  6
CONTINUOUS
 62
     3
 48
16.0
100
AcDbCircle
 10
374.0026115593682
 20
187.4440842249487
 30
0.0
 40
16.00001386326923
100
AcDbArc
 50
180.0000009546043
 51
2.203204680635431
  0
ARC
  5
34E
330
1A
100
AcDbEntity
  8
SEIHIN
  6
CONTINUOUS
 62
     3
 48
16.0
100
AcDbCircle
 10
374.0026076732381
 20
187.4440841489341
 30
0.0
 40
21.00000997737629
100
AcDbArc
 50
179.9997276830064
 51
2.188683800138332
  0
LINE
  5
356
330
1A
100
AcDbEntity
  8
SEIHIN
  6
CONTINUOUS
 62
     3
 48
16.0
100
AcDbLine
 10
340.0025976960991
 20
210.7440839583726
 30
0.0
 11
348.002597696099
 21
210.7440839583726
 31
0.0
  0
LINE
  5
357
330
1A
100
AcDbEntity
  8
SEIHIN
  6
CONTINUOUS
 62
     3
 48
16.0
100
AcDbLine
 10
344.002597696099
 20
218.4440839583727
 30
0.0
 11
377.558097696099
 21
218.4440839583727
 31
0.0
  0
LINE
  5
358
330
1A
100
AcDbEntity
  8
SEIHIN
  6
CONTINUOUS
 62
     3
 48
16.0
100
AcDbLine
 10
377.1230976960992
 20
215.2440839583726
 30
0.0
 11
344.002597696099
 21
215.2440839583726
 31
0.0
  0
LINE
  5
359
330
1A
100
AcDbEntity
  8
SEIHIN
  6
CONTINUOUS
 62
     3
 48
16.0
100
AcDbLine
 10
344.002597696099
 20
219.2440839583726
 30
0.0
 11
377.1230976960992
 21
219.2440839583726
 31
0.0
  0
LINE
  5
35A
330
1A
100
AcDbEntity
  8
SEIHIN
  6
CONTINUOUS
 62
     3
 48
16.0
100
AcDbLine
 10
337.002597696099
 20
212.2440839583727
 30
0.0
 11
352.002597696099
 21
212.2440839583727
 31
0.0
  0
LINE
  5
35B
330
1A
100
AcDbEntity
  8
CENTER_L
  6
CENTER
 62
     1
 48
5.0
100
AcDbLine
 10
342.0025976960991
 20
229.0649839583727
 30
0.0
 11
342.0025976960991
 21
206.9596839583726
 31
0.0
  0
ARC
  5
35C
330
1A
100
AcDbEntity
  8
SEIHIN
  6
CONTINUOUS
 62
     3
 48
16.0
100
AcDbCircle
 10
297.0489867189501
 20
218.0887834988372
 30
0.0
 40
12.9999965693267
100
AcDbArc
 50
8.856132215652987
 51
74.23678344217062
  0
ARC
  5
35D
330
1A
100
AcDbEntity
  8
SEIHIN
  6
CONTINUOUS
 62
     3
 48
16.0
100
AcDbCircle
 10
297.0488857317669
 20
218.0888973508749
 30
0.0
 40
8.999994401116795
100
AcDbArc
 50
8.855501897892184
 51
74.69699037290547
  0
ARC
  5
35E
330
1A
100
AcDbEntity
  8
SEIHIN
  6
CONTINUOUS
 62
     3
 48
16.0
100
AcDbCircle
 10
297.0489138252074
 20
218.0888655845568
 30
0.0
 40
12.20003057476578
100
AcDbArc
 50
7.04262761037167
 51
75.51290214724478
  0
LINE
  5
35F
330
1A
100
AcDbEntity
  8
SEIHIN
  6
CONTINUOUS
 62
     3
 48
16.0
100
AcDbLine
 10
344.002597696099
 20
218.4440839583727
 30
0.0
 11
310.447097696099
 21
218.4440839583727
 31
0.0
  0
LINE
  5
360
330
1A
100
AcDbEntity
  8
SEIHIN
  6
CONTINUOUS
 62
     3
 48
16.0
100
AcDbLine
 10
310.8819976960991
 20
215.2440839583726
 30
0.0
 11
344.002597696099
 21
215.2440839583726
 31
0.0
  0
LINE
  5
361
330
1A
100
AcDbEntity
  8
SEIHIN
  6
CONTINUOUS
 62
     3
 48
16.0
100
AcDbLine
 10
344.002597696099
 20
219.2440839583726
 30
0.0
 11
310.8819976960991
 21
219.2440839583726
 31
0.0
  0
ARC
  5
366
330
1A
100
AcDbEntity
  8
SEIHIN
  6
CONTINUOUS
 62
     3
 48
16.0
100
AcDbCircle
 10
310.8819982654313
 20
220.2440834708726
 30
0.0
 40
4.999999512499991
100
AcDbArc
 50
188.8553201291488
 51
269.9999934759336
  0
ARC
  5
367
330
1A
100
AcDbEntity
  8
SEIHIN
  6
CONTINUOUS
 62
     3
 48
16.0
100
AcDbCircle
 10
310.8820475615877
 20
220.2440412590494
 30
0.0
 40
0.9999573019201484
100
AcDbArc
 50
188.8509104121679
 51
269.9971427959656
  0
ARC
  5
368
330
1A
100
AcDbEntity
  8
SEIHIN
  6
CONTINUOUS
 62
     3
 48
16.0
100
AcDbCircle
 10
310.4470923884156
 20
219.7440886506634
 30
0.0
 40
1.300004692301505
100
AcDbArc
 50
187.0432508395386
 51
270.0002339282784
  0
LINE
  5
369
330
1A
100
AcDbEntity
  8
SEIHIN
  6
CONTINUOUS
 62
     3
 48
16.0
100
AcDbLine
 10
337.002597696099
 20
212.2440839583727
 30
0.0
 11
337.002597696099
 21
215.2440839583726
 31
0.0
  0
LINE
  5
36A
330
1A
100
AcDbEntity
  8
SEIHIN
  6
CONTINUOUS
 62
     3
 48
16.0
100
AcDbLine
 10
340.0025976960991
 20
210.7440839583726
 30
0.0
 11
340.0025976960991
 21
212.2440839583727
 31
0.0
  0
LINE
  5
36B
330
1A
100
AcDbEntity
  8
SEIHIN
  6
CONTINUOUS
 62
     3
 48
16.0
100
AcDbLine
 10
295.850897696099
 20
230.5624839583726
 30
0.0
 11
290.2968976960991
 21
256.9440839583726
 31
0.0
  0
LINE
  5
36C
330
1A
100
AcDbEntity
  8
SEIHIN
  6
CONTINUOUS
 62
     3
 48
16.0
100
AcDbLine
 10
299.1538976960992
 20
230.8917839583727
 30
0.0
 11
293.7527976960991
 21
256.5471839583727
 31
0.0
  0
LINE
  5
36D
330
1A
100
AcDbEntity
  8
SEIHIN
  6
CONTINUOUS
 62
     3
 48
16.0
100
AcDbLine
 10
299.8736976960991
 20
231.3562839583727
 30
0.0
 11
294.5356976960992
 21
256.7118839583727
 31
0.0
  0
ARC
  5
36E
330
1A
100
AcDbEntity
  8
SEIHIN
  6
CONTINUOUS
 62
     3
 48
16.0
100
AcDbCircle
 10
300.743640037097
 20
231.5925451593873
 30
0.0
 40
4.999995369320889
100
AcDbArc
 50
191.8887722125086
 51
254.6990696202951
  0
ARC
  5
36F
330
1A
100
AcDbEntity
  8
SEIHIN
  6
CONTINUOUS
 62
     3
 48
16.0
100
AcDbCircle
 10
300.8522111721319
 20
231.562369541088
 30
0.0
 40
0.9999799448893494
100
AcDbArc
 50
191.8932974145493
 51
254.239375041812
  0
ARC
  5
370
330
1A
100
AcDbEntity
  8
SEIHIN
  6
CONTINUOUS
 62
     3
 48
16.0
100
AcDbCircle
 10
300.4259658742156
 20
231.1596172575838
 30
0.0
 40
1.299958509315807
100
AcDbArc
 50
191.889929167377
 51
255.5143599351
  0
ARC
  5
371
330
1A
100
AcDbEntity
  8
SEIHIN
  6
CONTINUOUS
 62
     3
 48
16.0
100
AcDbCircle
 10
293.2636121705413
 20
256.4440722136485
 30
0.0
 40
0.5000117449336355
100
AcDbArc
 50
11.88913635189593
 51
90.00165860992801
  0
ARC
  5
372
330
1A
100
AcDbEntity
  8
SEIHIN
  6
CONTINUOUS
 62
     3
 48
16.0
100
AcDbCircle
 10
293.263547389395
 20
256.4440436365464
 30
0.0
 40
1.300040322776024
100
AcDbArc
 50
11.88948627652859
 51
90.00219009831486
  0
ARC
  5
373
330
1A
100
AcDbEntity
  8
SEIHIN
  6
CONTINUOUS
 62
     3
 48
16.0
100
AcDbCircle
 10
287.502547696099
 20
258.2441339583728
 30
0.0
 40
1.299950000961613
100
AcDbArc
 50
180.0022037685892
 51
270.0022037685892
  0
LINE
  5
374
330
1A
100
AcDbEntity
  8
SEIHIN
  6
CONTINUOUS
 62
     3
 48
16.0
100
AcDbLine
 10
293.2634976960991
 20
257.7440839583727
 30
0.0
 11
287.5025976960991
 21
257.7440839583727
 31
0.0
  0
LINE
  5
375
330
1A
100
AcDbEntity
  8
SEIHIN
  6
CONTINUOUS
 62
     3
 48
16.0
100
AcDbLine
 10
293.2635976960991
 20
256.9440839583726
 30
0.0
 11
287.5025976960991
 21
256.9440839583726
 31
0.0
  0
ARC
  5
376
330
1A
100
AcDbEntity
  8
SEIHIN
  6
CONTINUOUS
 62
     3
 48
16.0
100
AcDbCircle
 10
287.5025976960991
 20
258.2440839583727
 30
0.0
 40
0.5
100
AcDbArc
 50
180.0
 51
270.0
  0
ARC
  5
377
330
1A
100
AcDbEntity
  8
SEIHIN
  6
CONTINUOUS
 62
     3
 48
16.0
100
AcDbCircle
 10
390.9562378706365
 20
218.0889289274564
 30
0.0
 40
8.999918606103443
100
AcDbArc
 50
105.3020078017701
 51
171.144626373492
  0
ARC
  5
37A
330
1A
100
AcDbEntity
  8
SEIHIN
  6
CONTINUOUS
 62
     3
 48
16.0
100
AcDbCircle
 10
390.9562250887858
 20
218.0889151630515
 30
0.0
 40
12.19996844404247
100
AcDbArc
 50
104.4868992905756
 51
172.9575709518086
  0
ARC
  5
37B
330
1A
100
AcDbEntity
  8
SEIHIN
  6
CONTINUOUS
 62
     3
 48
16.0
100
AcDbCircle
 10
390.9561526596191
 20
218.0888331365371
 30
0.0
 40
12.99993358163487
100
AcDbArc
 50
105.7630384005303
 51
171.144045941647
  0
ARC
  5
37C
330
1A
100
AcDbEntity
  8
SEIHIN
  6
CONTINUOUS
 62
     3
 48
16.0
100
AcDbCircle
 10
377.1230971267669
 20
220.2440834708724
 30
0.0
 40
4.999999512499893
100
AcDbArc
 50
270.0000065240673
 51
351.1446798708521
  0
LINE
  5
37D
330
1A
100
AcDbEntity
  8
SEIHIN
  6
CONTINUOUS
 62
     3
 48
16.0
100
AcDbLine
 10
353.002597696099
 20
187.4440839583727
 30
0.0
 11
353.002597696099
 21
211.2440839583726
 31
0.0
  0
LINE
  5
37E
330
1A
100
AcDbEntity
  8
SEIHIN
  6
CONTINUOUS
 62
     3
 48
16.0
100
AcDbLine
 10
356.002597696099
 20
187.4440839583727
 30
0.0
 11
356.002597696099
 21
213.2440839583726
 31
0.0
  0
LINE
  5
37F
330
1A
100
AcDbEntity
  8
SEIHIN
  6
CONTINUOUS
 62
     3
 48
16.0
100
AcDbLine
 10
358.002597696099
 20
187.4440839583727
 30
0.0
 11
358.002597696099
 21
212.2440839583727
 31
0.0
  0
LINE
  5
380
330
1A
100
AcDbEntity
  8
SEIHIN
  6
CONTINUOUS
 62
     3
 48
16.0
100
AcDbLine
 10
373.1230976960992
 20
219.2440839583726
 30
0.0
 11
360.0052976960991
 21
219.2440839583726
 31
0.0
  0
ARC
  5
381
330
1A
100
AcDbEntity
  8
SEIHIN
  6
CONTINUOUS
 62
     3
 48
16.0
100
AcDbCircle
 10
354.002597696099
 20
213.2440839583726
 30
0.0
 40
2.0
100
AcDbArc
 50
0.0
 51
90.0
  0
ARC
  5
382
330
1A
100
AcDbEntity
  8
SEIHIN
  6
CONTINUOUS
 62
     3
 48
16.0
100
AcDbCircle
 10
355.002597696099
 20
212.2440839583727
 30
0.0
 40
2.999999999999957
100
AcDbArc
 50
0.0000000000008142
 51
90.00000000000081
  0
ARC
  5
383
330
1A
100
AcDbEntity
  8
SEIHIN
  6
CONTINUOUS
 62
     3
 48
16.0
100
AcDbCircle
 10
352.0025976960989
 20
211.2440839583726
 30
0.0
 40
1.000000000000042
100
AcDbArc
 50
359.9999999999975
 51
89.99999999999756
  0
LINE
  5
384
330
1A
100
AcDbEntity
  8
SEIHIN
  6
CONTINUOUS
 62
     3
 48
16.0
100
AcDbLine
 10
348.002597696099
 20
210.7440839583726
 30
0.0
 11
348.002597696099
 21
212.2440839583727
 31
0.0
  0
ARC
  5
385
330
1A
100
AcDbEntity
  8
SEIHIN
  6
CONTINUOUS
 62
     3
 48
16.0
100
AcDbCircle
 10
377.5581030037824
 20
219.7440886506634
 30
0.0
 40
1.300004692301567
100
AcDbArc
 50
269.9997660717187
 51
352.956749160459
  0
ARC
  5
386
330
1A
100
AcDbEntity
  8
SEIHIN
  6
CONTINUOUS
 62
     3
 48
16.0
100
AcDbCircle
 10
377.123105526215
 20
220.2440906633277
 30
0.0
 40
1.000006704985728
100
AcDbArc
 50
269.999551370416
 51
351.146665599745
  0
ARC
  5
387
330
1A
100
AcDbEntity
  8
SEIHIN
  6
CONTINUOUS
 62
     3
 48
16.0
100
AcDbCircle
 10
408.5793468080955
 20
182.4977546856234
 30
0.0
 40
18.60282354248791
100
AcDbArc
 50
104.251280110619
 51
135.5667300669068
  0
ARC
  5
388
330
1A
100
AcDbEntity
  8
SEIHIN
  6
CONTINUOUS
 62
     3
 48
16.0
100
AcDbCircle
 10
395.465792166033
 20
189.5256802967932
 30
0.0
 40
3.12092755602684
100
AcDbArc
 50
55.30166629444233
 51
191.7170965584668
  0
ARC
  5
389
330
1A
100
AcDbEntity
  8
SEIHIN
  6
CONTINUOUS
 62
     3
 48
16.0
100
AcDbCircle
 10
396.474828988638
 20
188.2983962722838
 30
0.0
 40
1.106497270407002
100
AcDbArc
 50
50.99817347853505
 51
171.9637597880932
  0
ARC
  5
38A
330
1A
100
AcDbEntity
  8
SEIHIN
  6
CONTINUOUS
 62
     3
 48
16.0
100
AcDbCircle
 10
398.6528582786496
 20
187.9010355553704
 30
0.0
 40
8.326817049401901
100
AcDbArc
 50
81.83688268886211
 51
179.0046424896492
  0
ARC
  5
38B
330
1A
100
AcDbEntity
  8
SEIHIN
  6
CONTINUOUS
 62
     3
 48
16.0
100
AcDbCircle
 10
404.138939631315
 20
207.5596757928359
 30
0.0
 40
19.66144649133562
100
AcDbArc
 50
249.4655923794984
 51
283.9484195634394
  0
ARC
  5
38C
330
1A
100
AcDbEntity
  8
SEIHIN
  6
CONTINUOUS
 62
     3
 48
16.0
100
AcDbCircle
 10
416.0671866358636
 20
274.0882121092653
 30
0.0
 40
84.12970386489289
100
AcDbArc
 50
257.0700091304883
 51
267.7359104080019
  0
LINE
  5
38E
330
1A
100
AcDbEntity
  8
SEIHIN
  6
CONTINUOUS
 62
     3
 48
16.0
100
AcDbLine
 10
388.8511976960991
 20
230.8917839583727
 30
0.0
 11
394.2522976960991
 21
256.5471839583727
 31
0.0
  0
LINE
  5
38F
330
1A
100
AcDbEntity
  8
SEIHIN
  6
CONTINUOUS
 62
     3
 48
16.0
100
AcDbLine
 10
392.1541976960991
 20
230.5624839583726
 30
0.0
 11
397.708197696099
 21
256.9440839583726
 31
0.0
  0
LINE
  5
390
330
1A
100
AcDbEntity
  8
SEIHIN
  6
CONTINUOUS
 62
     3
 48
16.0
100
AcDbLine
 10
388.1314976960991
 20
231.3562839583727
 30
0.0
 11
393.4694976960991
 21
256.7118839583727
 31
0.0
  0
ARC
  5
391
330
1A
100
AcDbEntity
  8
SEIHIN
  6
CONTINUOUS
 62
     3
 48
16.0
100
AcDbCircle
 10
387.5791295179827
 20
231.1596172575839
 30
0.0
 40
1.299958509315911
100
AcDbArc
 50
284.4856400648946
 51
348.1100708326179
  0
ARC
  5
392
330
1A
100
AcDbEntity
  8
SEIHIN
  6
CONTINUOUS
 62
     3
 48
16.0
100
AcDbCircle
 10
387.2615553551011
 20
231.5925451593872
 30
0.0
 40
4.999995369320788
100
AcDbArc
 50
285.3009303797063
 51
348.1112277874925
  0
ARC
  5
393
330
1A
100
AcDbEntity
  8
SEIHIN
  6
CONTINUOUS
 62
     3
 48
16.0
100
AcDbCircle
 10
387.1529308465185
 20
231.5624194283827
 30
0.0
 40
1.000042454646043
100
AcDbArc
 50
285.7627915994836
 51
348.104535944146
  0
LINE
  5
394
330
1A
100
AcDbEntity
  8
SEIHIN
  6
CONTINUOUS
 62
     3
 48
16.0
100
AcDbLine
 10
394.7415976960991
 20
256.9440839583726
 30
0.0
 11
400.5025976960991
 21
256.9440839583726
 31
0.0
  0
LINE
  5
395
330
1A
100
AcDbEntity
  8
SEIHIN
  6
CONTINUOUS
 62
     3
 48
16.0
100
AcDbLine
 10
394.7415976960991
 20
257.7440839583727
 30
0.0
 11
400.5025976960991
 21
257.7440839583727
 31
0.0
  0
ARC
  5
396
330
1A
100
AcDbEntity
  8
SEIHIN
  6
CONTINUOUS
 62
     3
 48
16.0
100
AcDbCircle
 10
394.7416083022356
 20
256.4440925641989
 30
0.0
 40
1.299991394217081
100
AcDbArc
 50
90.00046745452207
 51
168.1122634028694
  0
ARC
  5
397
330
1A
100
AcDbEntity
  8
SEIHIN
  6
CONTINUOUS
 62
     3
 48
16.0
100
AcDbCircle
 10
394.7415832216571
 20
256.4440722136485
 30
0.0
 40
0.5000117449336382
100
AcDbArc
 50
89.9983413900728
 51
168.1108636481042
  0
ARC
  5
398
330
1A
100
AcDbEntity
  8
SEIHIN
  6
CONTINUOUS
 62
     3
 48
16.0
100
AcDbCircle
 10
400.5026476960991
 20
258.2441339583727
 30
0.0
 40
1.299950000961457
100
AcDbArc
 50
269.9977962314176
 51
359.9977962314176
  0
ARC
  5
399
330
1A
100
AcDbEntity
  8
SEIHIN
  6
CONTINUOUS
 62
     3
 48
16.0
100
AcDbCircle
 10
400.5025976960991
 20
258.2440839583727
 30
0.0
 40
0.4999999999999148
100
AcDbArc
 50
270.0000000000097
 51
0.0000000000097707
  0
LINE
  5
39B
330
1A
100
AcDbEntity
  8
CENTER_L
  6
CENTER
 62
     1
 48
5.0
100
AcDbLine
 10
344.002597696099
 20
409.2439839583727
 30
0.0
 11
280.168997696099
 21
409.2440839583725
 31
0.0
  0
LINE
  5
39E
330
1A
100
AcDbEntity
  8
SEIHIN
  6
CONTINUOUS
 62
     3
 48
16.0
100
AcDbLine
 10
162.5624552826186
 20
291.6442839583726
 30
0.0
 11
166.0624552826186
 21
291.6442839583726
 31
0.0
  0
LINE
  5
3A2
330
1A
100
AcDbEntity
  8
SEIHIN
  6
CONTINUOUS
 62
     3
 48
16.0
100
AcDbLine
 10
184.0622552826185
 20
291.6442839583726
 30
0.0
 11
184.0622552826185
 21
272.1442839583726
 31
0.0
  0
LINE
  5
3A3
330
1A
100
AcDbEntity
  8
SEIHIN
  6
CONTINUOUS
 62
     3
 48
16.0
100
AcDbLine
 10
166.0624552826186
 20
291.6442839583726
 30
0.0
 11
166.0624552826186
 21
272.1442839583726
 31
0.0
  0
LINE
  5
3A4
330
1A
100
AcDbEntity
  8
SEIHIN
  6
CONTINUOUS
 62
     3
 48
16.0
100
AcDbLine
 10
175.0623552826186
 20
269.6442839583726
 30
0.0
 11
181.5622552826185
 21
269.6442839583726
 31
0.0
  0
LINE
  5
3A5
330
1A
100
AcDbEntity
  8
SEIHIN
  6
CONTINUOUS
 62
     3
 48
16.0
100
AcDbLine
 10
184.0622552826185
 20
274.0407839583726
 30
0.0
 11
166.0624552826186
 21
274.0407839583726
 31
0.0
  0
LINE
  5
3A6
330
1A
100
AcDbEntity
  8
SEIHIN
  6
CONTINUOUS
 62
     3
 48
16.0
100
AcDbLine
 10
175.0623552826186
 20
269.6442839583726
 30
0.0
 11
168.5624552826186
 21
269.6442839583726
 31
0.0
  0
ARC
  5
3A7
330
1A
100
AcDbEntity
  8
SEIHIN
  6
CONTINUOUS
 62
     3
 48
16.0
100
AcDbCircle
 10
168.5624552826186
 20
272.1442839583726
 30
0.0
 40
2.5
100
AcDbArc
 50
180.0
 51
270.0
  0
ARC
  5
3A8
330
1A
100
AcDbEntity
  8
SEIHIN
  6
CONTINUOUS
 62
     3
 48
16.0
100
AcDbCircle
 10
181.5622552826185
 20
272.1442839583726
 30
0.0
 40
2.5
100
AcDbArc
 50
270.0
 51
0.0
  0
LINE
  5
3AA
330
1A
100
AcDbEntity
  8
SEIHIN
  6
CONTINUOUS
 62
     3
 48
16.0
100
AcDbLine
 10
187.5623552826186
 20
291.6442839583726
 30
0.0
 11
184.0622552826185
 21
291.6442839583726
 31
0.0
  0
LINE
  5
3AF
330
1A
100
AcDbEntity
  8
SEIHIN
  6
CONTINUOUS
 62
     3
 48
16.0
100
AcDbLine
 10
342.0026976960991
 20
407.2439870915188
 30
0.0
 11
346.0026976960991
 21
407.2439870915188
 31
0.0
  0
LINE
  5
3B0
330
1A
100
AcDbEntity
  8
SEIHIN
  6
CONTINUOUS
 62
     3
 48
16.0
100
AcDbLine
 10
342.0026976960991
 20
411.2439870915189
 30
0.0
 11
346.0026976960991
 21
411.2439870915189
 31
0.0
  0
ARC
  5
3B1
330
1A
100
AcDbEntity
  8
SEIHIN
  6
CONTINUOUS
 62
     3
 48
16.0
100
AcDbCircle
 10
344.0026976960991
 20
409.2439839583727
 30
0.0
 40
5.000000000000056
100
AcDbArc
 50
180.0
 51
0.0
  0
ARC
  5
3B2
330
1A
100
AcDbEntity
  8
SEIHIN
  6
CONTINUOUS
 62
     3
 48
16.0
100
AcDbCircle
 10
344.0026976960991
 20
409.2439839583727
 30
0.0
 40
5.000000000000056
100
AcDbArc
 50
0.0
 51
180.0
  0
LINE
  5
3B3
330
1A
100
AcDbEntity
  8
SEIHIN
  6
CONTINUOUS
 62
     3
 48
16.0
100
AcDbLine
 10
344.0026976960991
 20
401.7439839583727
 30
0.0
 11
390.8026976960992
 21
401.7439839583727
 31
0.0
  0
LINE
  5
3B4
330
1A
100
AcDbEntity
  8
SEIHIN
  6
CONTINUOUS
 62
     3
 48
16.0
100
AcDbLine
 10
344.0026976960991
 20
398.2439839583727
 30
0.0
 11
377.123197696099
 21
398.2439839583727
 31
0.0
  0
LINE
  5
3B5
330
1A
100
AcDbEntity
  8
SEIHIN
  6
CONTINUOUS
 62
     3
 48
16.0
100
AcDbLine
 10
344.0026976960991
 20
420.2440839583726
 30
0.0
 11
377.123197696099
 21
420.2440839583726
 31
0.0
  0
LINE
  5
3B6
330
1A
100
AcDbEntity
  8
SEIHIN
  6
CONTINUOUS
 62
     3
 48
16.0
100
AcDbLine
 10
344.0026976960991
 20
416.7440839583727
 30
0.0
 11
390.8026976960992
 21
416.7440839583727
 31
0.0
  0
ARC
  5
3B7
330
1A
100
AcDbEntity
  8
SEIHIN
  6
CONTINUOUS
 62
     3
 48
16.0
100
AcDbCircle
 10
344.002647696099
 20
409.243983958245
 30
0.0
 40
7.000037195125297
100
AcDbArc
 50
20.92559232226795
 51
159.074407677732
  0
ARC
  5
3B8
330
1A
100
AcDbEntity
  8
SEIHIN
  6
CONTINUOUS
 62
     3
 48
16.0
100
AcDbCircle
 10
344.002647696099
 20
409.2439839585003
 30
0.0
 40
7.000001480223968
100
AcDbArc
 50
200.9248277961656
 51
339.0751722038343
  0
LINE
  5
3BE
330
1A
100
AcDbEntity
  8
SEIHIN
  6
CONTINUOUS
 62
     3
 48
16.0
100
AcDbLine
 10
287.0025976960991
 20
292.2440839583726
 30
0.0
 11
286.202597696099
 21
292.2440839583726
 31
0.0
  0
LINE
  5
3BF
330
1A
100
AcDbEntity
  8
SEIHIN
  6
CONTINUOUS
 62
     3
 48
16.0
100
AcDbLine
 10
337.464297696099
 20
406.7439839583727
 30
0.0
 11
293.835697696099
 21
406.7440839583727
 31
0.0
  0
LINE
  5
3C0
330
1A
100
AcDbEntity
  8
SEIHIN
  6
CONTINUOUS
 62
     3
 48
16.0
100
AcDbLine
 10
344.002597696099
 20
401.7439839583727
 30
0.0
 11
293.835697696099
 21
401.7440839583726
 31
0.0
  0
LINE
  5
3C1
330
1A
100
AcDbEntity
  8
SEIHIN
  6
CONTINUOUS
 62
     3
 48
16.0
100
AcDbLine
 10
344.002597696099
 20
398.2439839583727
 30
0.0
 11
310.882097696099
 21
398.2439839583727
 31
0.0
  0
LINE
  5
3C2
330
1A
100
AcDbEntity
  8
SEIHIN
  6
CONTINUOUS
 62
     3
 48
16.0
100
AcDbLine
 10
337.464297696099
 20
411.7440839583726
 30
0.0
 11
293.835697696099
 21
411.7439839583727
 31
0.0
  0
LINE
  5
3C3
330
1A
100
AcDbEntity
  8
SEIHIN
  6
CONTINUOUS
 62
     3
 48
16.0
100
AcDbLine
 10
344.002597696099
 20
416.7440839583727
 30
0.0
 11
293.835697696099
 21
416.7439839583726
 31
0.0
  0
LINE
  5
3C4
330
1A
100
AcDbEntity
  8
SEIHIN
  6
CONTINUOUS
 62
     3
 48
16.0
100
AcDbLine
 10
344.002597696099
 20
420.2440839583726
 30
0.0
 11
310.882097696099
 21
420.2439839583727
 31
0.0
  0
LINE
  5
3C5
330
1A
100
AcDbEntity
  8
SEIHIN
  6
CONTINUOUS
 62
     3
 48
16.0
100
AcDbLine
 10
287.0025976960991
 20
409.2439839583727
 30
0.0
 11
287.0025976960991
 21
396.7440839583725
 31
0.0
  0
LINE
  5
3C7
330
1A
100
AcDbEntity
  8
SEIHIN
  6
CONTINUOUS
 62
     3
 48
16.0
100
AcDbLine
 10
286.202697696099
 20
396.7439839583727
 30
0.0
 11
286.202597696099
 21
409.2438839583727
 31
0.0
  0
LINE
  5
3C8
330
1A
100
AcDbEntity
  8
SEIHIN
  6
CONTINUOUS
 62
     3
 48
16.0
100
AcDbLine
 10
299.8737976960991
 20
398.2440839583727
 30
0.0
 11
287.0025976960991
 21
398.2440839583727
 31
0.0
  0
LINE
  5
3C9
330
1A
100
AcDbEntity
  8
SEIHIN
  6
CONTINUOUS
 62
     3
 48
16.0
100
AcDbLine
 10
287.0025976960991
 20
396.7440839583725
 30
0.0
 11
286.202697696099
 21
396.7440839583725
 31
0.0
  0
LINE
  5
3CA
330
1A
100
AcDbEntity
  8
SEIHIN
  6
CONTINUOUS
 62
     3
 48
16.0
100
AcDbLine
 10
294.5356976960992
 20
398.2439839583727
 30
0.0
 11
294.5356976960992
 21
401.7440839583726
 31
0.0
  0
ARC
  5
3CB
330
1A
100
AcDbEntity
  8
SEIHIN
  6
CONTINUOUS
 62
     3
 48
16.0
100
AcDbCircle
 10
305.3779976960991
 20
368.8709839580439
 30
0.0
 40
29.88426587117915
100
AcDbArc
 50
79.38644552503626
 51
100.6135544749637
  0
LINE
  5
3CC
330
1A
100
AcDbEntity
  8
SEIHIN
  6
CONTINUOUS
 62
     3
 48
16.0
100
AcDbLine
 10
299.8737976960991
 20
398.2439839583727
 30
0.0
 11
299.8737976960991
 21
401.7440839583726
 31
0.0
  0
LINE
  5
3CD
330
1A
100
AcDbEntity
  8
SEIHIN
  6
CONTINUOUS
 62
     3
 48
16.0
100
AcDbLine
 10
310.882097696099
 20
398.2439839583727
 30
0.0
 11
310.882097696099
 21
401.7439839583727
 31
0.0
  0
LINE
  5
3CE
330
1A
100
AcDbEntity
  8
SEIHIN
  6
CONTINUOUS
 62
     3
 48
16.0
100
AcDbLine
 10
299.8737976960991
 20
420.2439839583727
 30
0.0
 11
287.0025976960991
 21
420.2439839583727
 31
0.0
  0
LINE
  5
3CF
330
1A
100
AcDbEntity
  8
SEIHIN
  6
CONTINUOUS
 62
     3
 48
16.0
100
AcDbLine
 10
287.0025976960991
 20
409.2440839583725
 30
0.0
 11
287.0025976960991
 21
421.7439839583727
 31
0.0
  0
LINE
  5
3D1
330
1A
100
AcDbEntity
  8
SEIHIN
  6
CONTINUOUS
 62
     3
 48
16.0
100
AcDbLine
 10
286.202697696099
 20
421.7439839583727
 30
0.0
 11
286.202597696099
 21
409.2440839583725
 31
0.0
  0
LINE
  5
3D2
330
1A
100
AcDbEntity
  8
SEIHIN
  6
CONTINUOUS
 62
     3
 48
16.0
100
AcDbLine
 10
294.5356976960992
 20
406.7439839583727
 30
0.0
 11
294.5356976960992
 21
409.2439839583727
 31
0.0
  0
LINE
  5
3D3
330
1A
100
AcDbEntity
  8
SEIHIN
  6
CONTINUOUS
 62
     3
 48
16.0
100
AcDbLine
 10
294.5356976960992
 20
411.7439839583727
 30
0.0
 11
294.5356976960992
 21
409.2439839583727
 31
0.0
  0
LINE
  5
3D4
330
1A
100
AcDbEntity
  8
SEIHIN
  6
CONTINUOUS
 62
     3
 48
16.0
100
AcDbLine
 10
287.0025976960991
 20
421.7439839583727
 30
0.0
 11
286.202697696099
 21
421.7439839583727
 31
0.0
  0
LINE
  5
3D5
330
1A
100
AcDbEntity
  8
SEIHIN
  6
CONTINUOUS
 62
     3
 48
16.0
100
AcDbLine
 10
294.5356976960992
 20
420.2439839583727
 30
0.0
 11
294.5356976960992
 21
416.7439839583726
 31
0.0
  0
LINE
  5
3D6
330
1A
100
AcDbEntity
  8
SEIHIN
  6
CONTINUOUS
 62
     3
 48
16.0
100
AcDbLine
 10
299.8737976960991
 20
406.7439839583727
 30
0.0
 11
299.8737976960991
 21
409.2439839583727
 31
0.0
  0
LINE
  5
3D7
330
1A
100
AcDbEntity
  8
SEIHIN
  6
CONTINUOUS
 62
     3
 48
16.0
100
AcDbLine
 10
299.8737976960991
 20
411.7439839583727
 30
0.0
 11
299.8737976960991
 21
409.2439839583727
 31
0.0
  0
LINE
  5
3D8
330
1A
100
AcDbEntity
  8
SEIHIN
  6
CONTINUOUS
 62
     3
 48
16.0
100
AcDbLine
 10
310.882097696099
 20
406.7439839583727
 30
0.0
 11
310.882097696099
 21
409.2439839583727
 31
0.0
  0
LINE
  5
3D9
330
1A
100
AcDbEntity
  8
SEIHIN
  6
CONTINUOUS
 62
     3
 48
16.0
100
AcDbLine
 10
310.882097696099
 20
411.7439839583727
 30
0.0
 11
310.882097696099
 21
409.2440839583725
 31
0.0
  0
ARC
  5
3DA
330
1A
100
AcDbEntity
  8
SEIHIN
  6
CONTINUOUS
 62
     3
 48
16.0
100
AcDbCircle
 10
305.377897696099
 20
449.6170839583725
 30
0.0
 40
29.88426587085578
100
AcDbArc
 50
259.38644552492
 51
280.6135544750799
  0
LINE
  5
3DB
330
1A
100
AcDbEntity
  8
SEIHIN
  6
CONTINUOUS
 62
     3
 48
16.0
100
AcDbLine
 10
299.8737976960991
 20
420.2439839583727
 30
0.0
 11
299.8737976960991
 21
416.7439839583726
 31
0.0
  0
LINE
  5
3DC
330
1A
100
AcDbEntity
  8
SEIHIN
  6
CONTINUOUS
 62
     3
 48
16.0
100
AcDbLine
 10
310.882097696099
 20
420.2440839583726
 30
0.0
 11
310.882097696099
 21
416.7439839583726
 31
0.0
  0
LINE
  5
3DD
330
1A
100
AcDbEntity
  8
CENTER_L
  6
CENTER
 62
     1
 48
5.0
100
AcDbLine
 10
344.0026976960991
 20
391.7656839583726
 30
0.0
 11
344.0026976960991
 21
425.9239839583727
 31
0.0
  0
LINE
  5
3DE
330
1A
100
AcDbEntity
  8
SEIHIN
  6
CONTINUOUS
 62
     3
 48
16.0
100
AcDbLine
 10
342.0026976960991
 20
407.2439870915188
 30
0.0
 11
342.0026976960991
 21
411.2439870915189
 31
0.0
  0
LINE
  5
3E4
330
1A
100
AcDbEntity
  8
SEIHIN
  6
CONTINUOUS
 62
     3
 48
16.0
100
AcDbLine
 10
400.166097696099
 20
272.7481839583727
 30
0.0
 11
391.1362976960991
 21
270.3286839583727
 31
0.0
  0
LINE
  5
3E5
330
1A
100
AcDbEntity
  8
SEIHIN
  6
CONTINUOUS
 62
     3
 48
16.0
100
AcDbLine
 10
391.343297696099
 20
269.5559839583726
 30
0.0
 11
400.373197696099
 21
271.9754839583727
 31
0.0
  0
ARC
  5
3E6
330
1A
100
AcDbEntity
  8
SEIHIN
  6
CONTINUOUS
 62
     3
 48
16.0
100
AcDbCircle
 10
400.5025810166554
 20
271.492496757458
 30
0.0
 40
0.5000166796074436
100
AcDbArc
 50
359.998533381785
 51
104.9963795636776
  0
ARC
  5
3E7
330
1A
100
AcDbEntity
  8
SEIHIN
  6
CONTINUOUS
 62
     3
 48
16.0
100
AcDbCircle
 10
400.5025948614898
 20
271.4924861333843
 30
0.0
 40
1.300002834610993
100
AcDbArc
 50
359.9999041394518
 51
105.0014451957627
  0
LINE
  5
3EA
330
1A
100
AcDbEntity
  8
SEIHIN
  6
CONTINUOUS
 62
     3
 48
16.0
100
AcDbLine
 10
350.540997696099
 20
406.7439839583727
 30
0.0
 11
390.8026976960992
 21
406.7439839583727
 31
0.0
  0
LINE
  5
3EB
330
1A
100
AcDbEntity
  8
SEIHIN
  6
CONTINUOUS
 62
     3
 48
16.0
100
AcDbLine
 10
350.540997696099
 20
411.7440839583726
 30
0.0
 11
390.8026976960992
 21
411.7440839583726
 31
0.0
  0
ARC
  5
3EC
330
1A
100
AcDbEntity
  8
SEIHIN
  6
CONTINUOUS
 62
     3
 48
16.0
100
AcDbCircle
 10
382.6273476960991
 20
368.8708839582902
 30
0.0
 40
29.88435495099986
100
AcDbArc
 50
79.3865750600688
 51
100.6134249399311
  0
ARC
  5
3ED
330
1A
100
AcDbEntity
  8
SEIHIN
  6
CONTINUOUS
 62
     3
 48
16.0
100
AcDbCircle
 10
382.6272976960992
 20
449.6171839583726
 30
0.0
 40
29.884364160042
100
AcDbArc
 50
259.3864808375633
 51
280.6135191624365
  0
LINE
  5
3EE
330
1A
100
AcDbEntity
  8
SEIHIN
  6
CONTINUOUS
 62
     3
 48
16.0
100
AcDbLine
 10
377.123197696099
 20
398.2439839583727
 30
0.0
 11
377.123197696099
 21
401.7439839583727
 31
0.0
  0
LINE
  5
3EF
330
1A
100
AcDbEntity
  8
SEIHIN
  6
CONTINUOUS
 62
     3
 48
16.0
100
AcDbLine
 10
346.0026976960991
 20
407.2439870915188
 30
0.0
 11
346.0026976960991
 21
411.2439870915189
 31
0.0
  0
LINE
  5
3F1
330
1A
100
AcDbEntity
  8
SEIHIN
  6
CONTINUOUS
 62
     3
 48
16.0
100
AcDbLine
 10
377.123197696099
 20
406.7439839583727
 30
0.0
 11
377.123197696099
 21
409.2439839583727
 31
0.0
  0
LINE
  5
3F2
330
1A
100
AcDbEntity
  8
SEIHIN
  6
CONTINUOUS
 62
     3
 48
16.0
100
AcDbLine
 10
377.123197696099
 20
411.7440839583726
 30
0.0
 11
377.123197696099
 21
409.2440839583725
 31
0.0
  0
LINE
  5
3F3
330
1A
100
AcDbEntity
  8
SEIHIN
  6
CONTINUOUS
 62
     3
 48
16.0
100
AcDbLine
 10
377.123197696099
 20
420.2440839583726
 30
0.0
 11
377.123197696099
 21
416.7440839583727
 31
0.0
  0
LINE
  5
3F4
330
1A
100
AcDbEntity
  8
SEIHIN
  6
CONTINUOUS
 62
     3
 48
16.0
100
AcDbLine
 10
401.802597696099
 20
396.7439839583727
 30
0.0
 11
401.8026976960991
 21
409.2439839583727
 31
0.0
  0
LINE
  5
3F5
330
1A
100
AcDbEntity
  8
SEIHIN
  6
CONTINUOUS
 62
     3
 48
16.0
100
AcDbLine
 10
390.8026976960992
 20
409.2439839583727
 30
0.0
 11
390.8026976960992
 21
400.2439839583727
 31
0.0
  0
LINE
  5
3F6
330
1A
100
AcDbEntity
  8
SEIHIN
  6
CONTINUOUS
 62
     3
 48
16.0
100
AcDbLine
 10
401.802597696099
 20
400.2439839583727
 30
0.0
 11
390.8026976960992
 21
400.2439839583727
 31
0.0
  0
LINE
  5
3F7
330
1A
100
AcDbEntity
  8
SEIHIN
  6
CONTINUOUS
 62
     3
 48
16.0
100
AcDbLine
 10
388.1314976960991
 20
398.2439839583727
 30
0.0
 11
401.002597696099
 21
398.2439839583727
 31
0.0
  0
LINE
  5
3F8
330
1A
100
AcDbEntity
  8
SEIHIN
  6
CONTINUOUS
 62
     3
 48
16.0
100
AcDbLine
 10
388.1314976960991
 20
398.2439839583727
 30
0.0
 11
388.1314976960991
 21
401.7439839583727
 31
0.0
  0
LINE
  5
3F9
330
1A
100
AcDbEntity
  8
SEIHIN
  6
CONTINUOUS
 62
     3
 48
16.0
100
AcDbLine
 10
393.4695976960991
 20
398.2439839583727
 30
0.0
 11
393.4695976960991
 21
400.2439839583727
 31
0.0
  0
LINE
  5
3FA
330
1A
100
AcDbEntity
  8
SEIHIN
  6
CONTINUOUS
 62
     3
 48
16.0
100
AcDbLine
 10
401.002597696099
 20
396.7439839583727
 30
0.0
 11
401.802597696099
 21
396.7439839583727
 31
0.0
  0
LINE
  5
3FB
330
1A
100
AcDbEntity
  8
SEIHIN
  6
CONTINUOUS
 62
     3
 48
16.0
100
AcDbLine
 10
401.002597696099
 20
400.2439839583727
 30
0.0
 11
401.002597696099
 21
396.7439839583727
 31
0.0
  0
LINE
  5
3FC
330
1A
100
AcDbEntity
  8
SEIHIN
  6
CONTINUOUS
 62
     3
 48
16.0
100
AcDbLine
 10
401.802597696099
 20
418.2439839583727
 30
0.0
 11
390.8026976960992
 21
418.2439839583727
 31
0.0
  0
LINE
  5
3FD
330
1A
100
AcDbEntity
  8
SEIHIN
  6
CONTINUOUS
 62
     3
 48
16.0
100
AcDbLine
 10
388.1314976960991
 20
420.2440839583726
 30
0.0
 11
401.002597696099
 21
420.2440839583726
 31
0.0
  0
LINE
  5
3FE
330
1A
100
AcDbEntity
  8
SEIHIN
  6
CONTINUOUS
 62
     3
 48
16.0
100
AcDbLine
 10
390.8026976960992
 20
409.2439839583727
 30
0.0
 11
390.8026976960992
 21
418.2439839583727
 31
0.0
  0
LINE
  5
3FF
330
1A
100
AcDbEntity
  8
SEIHIN
  6
CONTINUOUS
 62
     3
 48
16.0
100
AcDbLine
 10
388.1314976960991
 20
406.7439839583727
 30
0.0
 11
388.1314976960991
 21
409.2439839583727
 31
0.0
  0
LINE
  5
400
330
1A
100
AcDbEntity
  8
SEIHIN
  6
CONTINUOUS
 62
     3
 48
16.0
100
AcDbLine
 10
388.1314976960991
 20
411.7440839583726
 30
0.0
 11
388.1314976960991
 21
409.2440839583725
 31
0.0
  0
LINE
  5
401
330
1A
100
AcDbEntity
  8
SEIHIN
  6
CONTINUOUS
 62
     3
 48
16.0
100
AcDbLine
 10
388.1314976960991
 20
420.2440839583726
 30
0.0
 11
388.1314976960991
 21
416.7440839583727
 31
0.0
  0
LINE
  5
402
330
1A
100
AcDbEntity
  8
SEIHIN
  6
CONTINUOUS
 62
     3
 48
16.0
100
AcDbLine
 10
393.4695976960991
 20
420.2440839583726
 30
0.0
 11
393.4695976960991
 21
418.2439839583727
 31
0.0
  0
LINE
  5
403
330
1A
100
AcDbEntity
  8
SEIHIN
  6
CONTINUOUS
 62
     3
 48
16.0
100
AcDbLine
 10
401.802597696099
 20
421.7440839583725
 30
0.0
 11
401.8026976960991
 21
409.2440839583725
 31
0.0
  0
LINE
  5
404
330
1A
100
AcDbEntity
  8
SEIHIN
  6
CONTINUOUS
 62
     3
 48
16.0
100
AcDbLine
 10
401.002597696099
 20
418.2439839583727
 30
0.0
 11
401.002597696099
 21
421.7440839583725
 31
0.0
  0
LINE
  5
405
330
1A
100
AcDbEntity
  8
SEIHIN
  6
CONTINUOUS
 62
     3
 48
16.0
100
AcDbLine
 10
401.002597696099
 20
421.7439839583727
 30
0.0
 11
401.802597696099
 21
421.7439839583727
 31
0.0
  0
LINE
  5
408
330
1A
100
AcDbEntity
  8
CENTER_L
  6
CENTER
 62
     1
 48
5.0
100
AcDbLine
 10
555.7915976960989
 20
268.7959839583726
 30
0.0
 11
565.5797976960991
 21
244.3236839583727
 31
0.0
  0
LINE
  5
411
330
1A
100
AcDbEntity
  8
CENTER_L
  6
CENTER
 62
     1
 48
5.0
100
AcDbLine
 10
500.0823976960991
 20
246.5138839583727
 30
0.0
 11
509.712297696099
 21
222.4374839583727
 31
0.0
  0
ARC
  5
412
330
1A
100
AcDbEntity
  8
SEIHIN
  6
CONTINUOUS
 62
     3
 48
16.0
100
AcDbCircle
 10
505.0549976960992
 20
234.0813839583727
 30
0.0
 40
1.75
100
AcDbArc
 50
180.0
 51
0.0
  0
ARC
  5
413
330
1A
100
AcDbEntity
  8
SEIHIN
  6
CONTINUOUS
 62
     3
 48
16.0
100
AcDbCircle
 10
505.0549976960992
 20
234.0813839583727
 30
0.0
 40
1.75
100
AcDbArc
 50
0.0
 51
180.0
  0
ARC
  5
420
330
1A
100
AcDbEntity
  8
SEIHIN
  6
CONTINUOUS
 62
     3
 48
16.0
100
AcDbCircle
 10
560.7641976960992
 20
256.3633839583727
 30
0.0
 40
1.75
100
AcDbArc
 50
0.0
 51
180.0
  0
ARC
  5
421
330
1A
100
AcDbEntity
  8
SEIHIN
  6
CONTINUOUS
 62
     3
 48
16.0
100
AcDbCircle
 10
560.7641976960992
 20
256.3633839583727
 30
0.0
 40
1.75
100
AcDbArc
 50
180.0
 51
0.0
  0
LINE
  5
424
330
1A
100
AcDbEntity
  8
SEIHIN
  6
CONTINUOUS
 62
     3
 48
16.0
100
AcDbLine
 10
572.4628976960992
 20
254.0420839583727
 30
0.0
 11
570.0489976960991
 21
260.0772839583726
 31
0.0
  0
LINE
  5
425
330
1A
100
AcDbEntity
  8
SEIHIN
  6
CONTINUOUS
 62
     3
 48
16.0
100
AcDbLine
 10
572.4628976960992
 20
254.0420839583727
 30
0.0
 11
567.6350976960991
 21
266.1123839583726
 31
0.0
  0
LINE
  5
42F
330
1A
100
AcDbEntity
  8
SEIHIN
  6
CONTINUOUS
 62
     3
 48
16.0
100
AcDbLine
 10
567.3319976960993
 20
407.8182839583726
 30
0.0
 11
567.3319976960993
 21
410.8182839583727
 31
0.0
  0
LINE
  5
430
330
1A
100
AcDbEntity
  8
SEIHIN
  6
CONTINUOUS
 62
     3
 48
16.0
100
AcDbLine
 10
572.4628976960992
 20
407.8182839583726
 30
0.0
 11
572.4628976960992
 21
410.8182839583727
 31
0.0
  0
LINE
  5
440
330
1A
100
AcDbEntity
  8
SUNPOU
  6
CONTINUOUS
 62
     4
 48
16.0
100
AcDbLine
 10
628.2804267026079
 20
290.3688015006849
 30
0.0
 11
648.2804267026077
 21
290.3688015006849
 31
0.0
  0
LINE
  5
441
330
1A
100
AcDbEntity
  8
SUNPOU
  6
CONTINUOUS
 62
     4
 48
16.0
100
AcDbLine
 10
648.2804267026077
 20
298.3688015006849
 30
0.0
 11
628.2804267026079
 21
290.3688015006849
 31
0.0
  0
TEXT
  5
442
330
1A
100
AcDbEntity
  8
SUNPOU
  6
CONTINUOUS
 62
     4
 48
16.0
100
AcDbText
 10
636.4159925195111
 20
280.4833383820638
 30
0.0
 40
6.0
  1
10
100
AcDbText
  0
LINE
  5
443
330
1A
100
AcDbEntity
  8
SUNPOU
  6
CONTINUOUS
 62
     4
 48
16.0
100
AcDbLine
 10
648.2804267026077
 20
290.3688015006849
 30
0.0
 11
648.2804267026077
 21
298.3688015006849
 31
0.0
  0
TEXT
  5
444
330
1A
100
AcDbEntity
  8
SUNPOU
  6
CONTINUOUS
 62
     4
 48
16.0
100
AcDbText
 10
653.0462267026079
 20
292.0767015006849
 30
0.0
 40
6.0
  1
4
100
AcDbText
  0
DIMENSION
  5
457
330
1A
100
AcDbEntity
  8
SUNPOU
  6
CONTINUOUS
100
AcDbDimension
  2
*D2
 10
597.8943863604131
 20
407.8182839583726
 30
0.0
 11
592.8943863604131
 21
383.3182839583727
 31
0.0
 70
    32
  1
t<>
  3
STANDARD
100
AcDbAlignedDimension
 13
572.4628976960992
 23
410.8182839583727
 33
0.0
 14
572.4628976960992
 24
407.8182839583726
 34
0.0
 50
90.0
100
AcDbRotatedDimension
1001
ACAD
1000
DSTYLE
1002
{
1070
   140
1040
6.0
1070
    74
1070
     0
1070
   172
1070
     1
1070
    73
1070
     0
1070
   272
1070
     2
1070
    77
1070
     3
1070
   173
1070
     1
1070
   147
1040
2.0
1070
    42
1040
6.0
1070
    44
1040
3.0
1070
    43
1040
14.0
1070
   271
1070
     1
1070
   178
1070
     4
1070
   177
1070
     4
1070
   176
1070
     4
1070
   141
1040
150.0
1070
     7
1000
_OPEN
1070
     6
1000
_OPEN
1070
    41
1040
7.0
1002
}
  0
DIMENSION
  5
49A
330
1A
100
AcDbEntity
  8
SUNPOU
  6
CONTINUOUS
100
AcDbDimension
  2
*D3
 10
253.6487450606723
 20
396.7439839583727
 30
0.0
 11
248.6487450606723
 21
409.2439839583727
 31
0.0
 70
    32
  3
STANDARD
100
AcDbAlignedDimension
 13
286.202697696099
 23
421.7439839583727
 33
0.0
 14
286.202697696099
 24
396.7439839583727
 34
0.0
 50
90.0
100
AcDbRotatedDimension
1001
ACAD
1000
DSTYLE
1002
{
1070
   140
1040
6.0
1070
    74
1070
     0
1070
   172
1070
     1
1070
    73
1070
     0
1070
   272
1070
     2
1070
    77
1070
     3
1070
   173
1070
     1
1070
   147
1040
2.0
1070
    42
1040
6.0
1070
    44
1040
3.0
1070
    43
1040
14.0
1070
   271
1070
     0
1070
   178
1070
     4
1070
   177
1070
     4
1070
   176
1070
     4
1070
   141
1040
150.0
1070
     7
1000
_OPEN
1070
     6
1000
_OPEN
1070
    41
1040
7.0
1002
}
  0
DIMENSION
  5
4A7
330
1A
100
AcDbEntity
  8
SUNPOU
  6
CONTINUOUS
100
AcDbDimension
  2
*D4
 10
372.4942679960195
 20
134.6672700530822
 30
0.0
 11
477.4132899240679
 21
182.0170423334244
 31
0.0
 12
0.0
 22
15.0
 32
0.0
 70
    33
  3
STANDARD
100
AcDbAlignedDimension
 13
572.4628976960992
 23
254.0420839583727
 33
0.0
 14
358.9111720622738
 24
168.6273962977032
 34
0.0
1001
ACAD
1000
DSTYLE
1002
{
1070
   140
1040
6.0
1070
    74
1070
     0
1070
   172
1070
     1
1070
    73
1070
     0
1070
   272
1070
     2
1070
    77
1070
     3
1070
   173
1070
     1
1070
   147
1040
2.0
1070
    42
1040
6.0
1070
    44
1040
3.0
1070
    43
1040
14.0
1070
   271
1070
     0
1070
   178
1070
     4
1070
   177
1070
     4
1070
   176
1070
     4
1070
   141
1040
150.0
1070
     7
1000
_OPEN
1070
     6
1000
_OPEN
1070
    41
1040
7.0
1002
}
  0
DIMENSION
  5
4B6
330
1A
100
AcDbEntity
  8
SUNPOU
  6
CONTINUOUS
100
AcDbDimension
  2
*D5
 10
595.5578611369389
 20
263.27945705595
 30
0.0
 11
597.7863870304968
 21
271.1714543363754
 31
0.0
 12
0.0
 22
15.0
 32
0.0
 70
    33
  3
STANDARD
100
AcDbAlignedDimension
 13
567.635097696099
 23
266.1123839583726
 33
0.0
 14
572.462897696099
 24
254.0420839583727
 34
0.0
1001
ACAD
1000
DSTYLE
1002
{
1070
   140
1040
6.0
1070
    74
1070
     0
1070
   172
1070
     1
1070
    73
1070
     0
1070
   272
1070
     2
1070
    77
1070
     3
1070
   173
1070
     1
1070
   147
1040
2.0
1070
    42
1040
6.0
1070
    44
1040
3.0
1070
    43
1040
14.0
1070
   271
1070
     0
1070
   178
1070
     4
1070
   177
1070
     4
1070
   176
1070
     4
1070
   141
1040
150.0
1070
     7
1000
_OPEN
1070
     6
1000
_OPEN
1070
    41
1040
7.0
1002
}
  0
DIMENSION
  5
4C3
330
1A
100
AcDbEntity
  8
SUNPOU
  6
CONTINUOUS
100
AcDbDimension
  2
*D6
 10
548.0395465428653
 20
288.1774628119014
 30
0.0
 11
518.3281127534749
 21
281.6788413750537
 31
0.0
 12
0.0
 22
15.0
 32
0.0
 70
    33
  3
STANDARD
100
AcDbAlignedDimension
 13
502.6411234255745
 23
240.1166312191807
 33
0.0
 14
558.350310469724
 24
262.3987314900958
 34
0.0
1001
ACAD
1000
DSTYLE
1002
{
1070
   140
1040
6.0
1070
    74
1070
     0
1070
   172
1070
     1
1070
    73
1070
     0
1070
   272
1070
     2
1070
    77
1070
     3
1070
   173
1070
     1
1070
   147
1040
2.0
1070
    42
1040
6.0
1070
    44
1040
3.0
1070
    43
1040
14.0
1070
   271
1070
     0
1070
   178
1070
     4
1070
   177
1070
     4
1070
   176
1070
     4
1070
   141
1040
150.0
1070
     7
1000
_OPEN
1070
     6
1000
_OPEN
1070
    41
1040
7.0
1002
}
  0
DIMENSION
  5
4D3
330
1A
100
AcDbEntity
  8
SUNPOU
  6
CONTINUOUS
100
AcDbDimension
  2
*D7
 10
557.3243337692402
 20
291.8911152801783
 30
0.0
 11
573.5729654265026
 21
303.775221021319
 31
0.0
 12
0.0
 22
15.0
 32
0.0
 70
    32
  3
STANDARD
100
AcDbAlignedDimension
 13
558.3503104697241
 23
262.3987314900958
 33
0.0
 14
567.6350976960991
 24
266.1123839583726
 34
0.0
 50
21.80001344715142
100
AcDbRotatedDimension
1001
ACAD
1000
DSTYLE
1002
{
1070
   140
1040
6.0
1070
    74
1070
     0
1070
   172
1070
     1
1070
    73
1070
     0
1070
   272
1070
     2
1070
    77
1070
     3
1070
    75
1070
     1
1070
   173
1070
     1
1070
   147
1040
2.0
1070
    42
1040
6.0
1070
    44
1040
3.0
1070
    43
1040
14.0
1070
   271
1070
     0
1070
   178
1070
     4
1070
   177
1070
     4
1070
   176
1070
     4
1070
   141
1040
150.0
1070
     7
1000
_OPEN
1070
     6
1000
_OPEN
1070
    41
1040
7.0
1002
}
  0
LEADER
  5
4EC
330
1A
100
AcDbEntity
  8
SUNPOU
  6
CONTINUOUS
 62
     4
100
AcDbLeader
  3
STANDARD
 73
     0
 74
     0
 40
6.0
 41
31.19999999999999
 76
     3
 10
561.7723405525771
 20
257.7938202487864
 30
0.0
 10
586.1772587232016
 20
300.6894094157717
 30
0.0
 10
591.1480245677749
 20
300.6894094157717
 30
0.0
1001
ACAD
1000
DSTYLE
1002
{
1070
     6
1000
OPEN
1070
    41
1040
7.0
1070
    42
1040
6.0
1070
    43
1040
14.0
1070
    44
1040
3.0
1070
    73
1070
     0
1070
    74
1070
     0
1070
    77
1070
     3
1070
   140
1040
6.0
1070
   141
1040
150.0
1070
   147
1040
2.0
1070
   172
1070
     1
1070
   173
1070
     1
1070
   176
1070
     4
1070
   177
1070
     4
1070
   178
1070
     4
1070
   271
1070
     0
1070
   272
1070
     2
1070
   341
1005
6D
1070
   343
1005
6D
1070
   344
1005
6D
1002
}
  0
MTEXT
  5
4ED
330
1A
100
AcDbEntity
  8
SUNPOU
  6
CONTINUOUS
 62
     4
100
AcDbMText
 10
593.1480245677748
 20
302.6894094157717
 30
0.0
 40
6.0
 41
0.0
 71
     7
 72
     5
  1
2-φ3.5
1001
ACAD
1000
MTEXTBEGIN
1070
    73
1070
     1
1070
    44
1040
1.0
1070
    74
1070
     0
1000
MTEXTEND
1000
MTEXTBEGIN
1070
    73
1070
     1
1070
    44
1040
1.0
1070
    74
1070
     0
1000
MTEXTEND
  0
DIMENSION
  5
508
330
1A
100
AcDbEntity
  8
SUNPOU
  6
CONTINUOUS
100
AcDbDimension
  2
*D8
 10
286.202597696099
 20
317.0412262767629
 30
0.0
 11
344.002597696099
 21
322.0412262767629
 31
0.0
 12
0.0
 22
15.0
 32
0.0
 70
    32
  3
STANDARD
100
AcDbAlignedDimension
 13
401.802597696099
 23
271.4924839583726
 33
0.0
 14
286.202597696099
 24
292.2440839583726
 34
0.0
100
AcDbRotatedDimension
1001
ACAD
1000
DSTYLE
1002
{
1070
   140
1040
6.0
1070
    74
1070
     0
1070
   172
1070
     1
1070
    73
1070
     0
1070
   272
1070
     2
1070
    77
1070
     3
1070
   173
1070
     1
1070
   147
1040
2.0
1070
    42
1040
6.0
1070
    44
1040
3.0
1070
    43
1040
14.0
1070
   271
1070
     0
1070
   178
1070
     4
1070
   177
1070
     4
1070
   176
1070
     4
1070
   141
1040
150.0
1070
     7
1000
_OPEN
1070
     6
1000
_OPEN
1070
    41
1040
7.0
1002
}
  0
DIMENSION
  5
515
330
1A
100
AcDbEntity
  8
SUNPOU
  6
CONTINUOUS
100
AcDbDimension
  2
*D9
 10
253.6772116538177
 20
218.4440839583727
 30
0.0
 11
248.6772116538177
 21
255.3440839583727
 31
0.0
 70
    32
  3
STANDARD
100
AcDbAlignedDimension
 13
286.202597696099
 23
292.2440839583726
 33
0.0
 14
310.447097696099
 24
218.4440839583727
 34
0.0
 50
90.0
100
AcDbRotatedDimension
1001
ACAD
1000
DSTYLE
1002
{
1070
   140
1040
6.0
1070
    74
1070
     0
1070
   172
1070
     1
1070
    73
1070
     0
1070
   272
1070
     2
1070
    77
1070
     3
1070
   173
1070
     1
1070
   147
1040
2.0
1070
    42
1040
6.0
1070
    44
1040
3.0
1070
    43
1040
14.0
1070
   271
1070
     0
1070
   178
1070
     4
1070
   177
1070
     4
1070
   176
1070
     4
1070
   141
1040
150.0
1070
     7
1000
_OPEN
1070
     6
1000
_OPEN
1070
    41
1040
7.0
1002
}
  0
DIMENSION
  5
521
330
1A
100
AcDbEntity
  8
SUNPOU
  6
CONTINUOUS
100
AcDbDimension
  2
*D10
 10
253.6772116538177
 20
166.4440741715579
 30
0.0
 11
248.6772116538177
 21
192.4440790649653
 31
0.0
 70
    32
  3
STANDARD
100
AcDbAlignedDimension
 13
310.447097696099
 23
218.4440839583727
 33
0.0
 14
374.0026076732381
 24
166.4440741715578
 34
0.0
 50
90.0
100
AcDbRotatedDimension
1001
ACAD
1000
DSTYLE
1002
{
1070
   287
1070
     4
1070
   287
1070
     4
1070
    41
1040
7.0
1070
    42
1040
6.0
1070
    43
1040
14.0
1070
    44
1040
3.0
1070
    73
1070
     0
1070
    74
1070
     0
1070
    75
1070
     1
1070
    77
1070
     3
1070
   140
1040
6.0
1070
   141
1040
150.0
1070
   147
1040
2.0
1070
   172
1070
     1
1070
   173
1070
     1
1070
   176
1070
     4
1070
   177
1070
     4
1070
   178
1070
     4
1070
   271
1070
     0
1070
   272
1070
     2
1070
   279
1070
     1
1070
     6
1000
OPEN
1070
     7
1000
OPEN
1002
}
  0
LINE
  5
526
330
1A
100
AcDbEntity
  8
SEIHIN
  6
CONTINUOUS
 62
     3
 48
16.0
100
AcDbLine
 10
167.0623552826186
 20
229.9042839583727
 30
0.0
 11
164.0623552826186
 21
229.9042839583727
 31
0.0
  0
LINE
  5
527
330
1A
100
AcDbEntity
  8
SEIHIN
  6
CONTINUOUS
 62
     3
 48
16.0
100
AcDbLine
 10
183.0623552826186
 20
229.9042839583727
 30
0.0
 11
186.0623552826186
 21
229.9042839583727
 31
0.0
  0
ARC
  5
53B
330
1A
100
AcDbEntity
  8
SEIHIN
  6
CONTINUOUS
 62
     3
100
AcDbCircle
 10
170.0623860477901
 20
230.0822729490133
 30
0.0
 40
3.00527537520096
100
AcDbArc
 50
183.3953591556151
 51
356.6046408443849
  0
ARC
  5
53C
330
1A
100
AcDbEntity
  8
SEIHIN
  6
CONTINUOUS
 62
     3
100
AcDbCircle
 10
180.0623552826186
 20
230.0822729490133
 30
0.0
 40
3.00527537520096
100
AcDbArc
 50
183.3953591556151
 51
356.6046408443849
  0
ARC
  5
53D
330
1A
100
AcDbEntity
  8
SEIHIN
  6
CONTINUOUS
 62
     3
 48
16.0
100
AcDbCircle
 10
293.8357976960991
 20
404.244083958216
 30
0.0
 40
2.500000000000085
100
AcDbArc
 50
90.0
 51
270.0
  0
ARC
  5
53E
330
1A
100
AcDbEntity
  8
SEIHIN
  6
CONTINUOUS
 62
     3
 48
16.0
100
AcDbCircle
 10
293.835797696099
 20
404.2440839582162
 30
0.0
 40
2.5
100
AcDbArc
 50
90.0
 51
270.0
  0
ARC
  5
53F
330
1A
100
AcDbEntity
  8
SEIHIN
  6
CONTINUOUS
 62
     3
 48
16.0
100
AcDbCircle
 10
293.8357976960991
 20
414.243983958216
 30
0.0
 40
2.5
100
AcDbArc
 50
90.0
 51
270.0
  0
ARC
  5
540
330
1A
100
AcDbEntity
  8
SEIHIN
  6
CONTINUOUS
 62
     3
 48
16.0
100
AcDbCircle
 10
293.835797696099
 20
414.2439839582162
 30
0.0
 40
2.5
100
AcDbArc
 50
90.0
 51
270.0
  0
ARC
  5
542
330
1A
100
AcDbEntity
  8
SEIHIN
  6
CONTINUOUS
100
AcDbCircle
 10
313.507197696099
 20
404.2439839582161
 30
0.0
 40
3.625000000000041
100
AcDbArc
 50
136.3971810272969
 51
223.602818972703
  0
ARC
  5
543
330
1A
100
AcDbEntity
  8
SEIHIN
  6
CONTINUOUS
100
AcDbCircle
 10
300.7845119818132
 20
404.2439839582161
 30
0.0
 40
2.660714285714282
100
AcDbArc
 50
110.0159596028825
 51
249.9840403971174
  0
ARC
  5
544
330
1A
100
AcDbEntity
  8
SEIHIN
  6
CONTINUOUS
100
AcDbCircle
 10
313.507197696099
 20
414.243983958216
 30
0.0
 40
3.625000000000041
100
AcDbArc
 50
136.3971810272969
 51
223.602818972703
  0
ARC
  5
545
330
1A
100
AcDbEntity
  8
SEIHIN
  6
CONTINUOUS
100
AcDbCircle
 10
300.7845119818132
 20
414.243983958216
 30
0.0
 40
2.660714285714282
100
AcDbArc
 50
110.0159596028825
 51
249.9840403971174
  0
ARC
  5
546
330
1A
100
AcDbEntity
  8
SEIHIN
  6
CONTINUOUS
100
AcDbCircle
 10
374.4981976960993
 20
404.2439839582161
 30
0.0
 40
3.625000000000041
100
AcDbArc
 50
316.397181027297
 51
43.60281897270302
  0
ARC
  5
547
330
1A
100
AcDbEntity
  8
SEIHIN
  6
CONTINUOUS
100
AcDbCircle
 10
387.220883410385
 20
404.2439839582161
 30
0.0
 40
2.660714285714282
100
AcDbArc
 50
290.0159596028825
 51
69.98404039711745
  0
ARC
  5
548
330
1A
100
AcDbEntity
  8
SEIHIN
  6
CONTINUOUS
100
AcDbCircle
 10
374.4981976960993
 20
414.243983958216
 30
0.0
 40
3.625000000000041
100
AcDbArc
 50
316.397181027297
 51
43.60281897270302
  0
ARC
  5
549
330
1A
100
AcDbEntity
  8
SEIHIN
  6
CONTINUOUS
100
AcDbCircle
 10
387.220883410385
 20
414.243983958216
 30
0.0
 40
2.660714285714282
100
AcDbArc
 50
290.0159596028825
 51
69.98404039711745
  0
LINE
  5
56D
330
1A
100
AcDbEntity
  8
CENTER_L
 48
5.0
100
AcDbLine
 10
560.7641976960992
 20
400.8182839583727
 30
0.0
 11
560.7641976960992
 21
417.8182839583727
 31
0.0
  0
LINE
  5
56E
330
1A
100
AcDbEntity
  8
CENTER_L
 48
5.0
100
AcDbLine
 10
505.0549976960992
 20
400.8182839583727
 30
0.0
 11
505.0549976960992
 21
417.8182839583727
 31
0.0
  0
LINE
  5
571
330
1A
100
AcDbEntity
  8
SEIHIN
  6
CONTINUOUS
 62
     3
 48
16.0
100
AcDbLine
 10
287.0025976960991
 20
400.7440839583725
 30
0.0
 11
286.202697696099
 21
400.7440839583725
 31
0.0
  0
LINE
  5
572
330
1A
100
AcDbEntity
  8
SEIHIN
  6
CONTINUOUS
 62
     3
 48
16.0
100
AcDbLine
 10
287.0025976960991
 20
417.7439839583727
 30
0.0
 11
286.202697696099
 21
417.7439839583727
 31
0.0
  0
ARC
  5
579
330
1A
100
AcDbEntity
  8
SEIHIN
100
AcDbCircle
 10
175.0622491356464
 20
156.8820519560238
 30
0.0
 40
11.56230830079321
100
AcDbArc
 50
55.79445869765776
 51
124.2055413023422
  0
LWPOLYLINE
  5
687
330
1A
100
AcDbEntity
  8
ZUWAKU
100
AcDbPolyline
 90
        4
 70
     1
 43
0.0
 10
0.199999905298796
 20
551.4000006499594
 10
0.199999905298796
 20
0.2000006499594065
 10
797.3999999052987
 20
0.2000006499594296
 10
797.3999999052989
 20
551.4000006499594
  0
LWPOLYLINE
  5
688
330
1A
100
AcDbEntity
  8
ZUWAKU
100
AcDbPolyline
 90
        4
 70
     1
 43
0.0
 10
0.5999999052987733
 20
551.0000006499594
 10
0.5999999052987733
 20
0.6000006499593838
 10
796.9999999052991
 20
0.60000064995943
 10
796.9999999052988
 20
551.0000006499594
  0
LWPOLYLINE
  5
689
330
1A
100
AcDbEntity
  8
ZUWAKU
100
AcDbPolyline
 90
        4
 70
     1
 43
0.0
 10
-0.0000000947011358
 20
551.6000006499593
 10
-0.0000000947011358
 20
0.000000649959361
 10
797.599999905299
 20
0.0000006499594285
 10
797.599999905299
 20
551.6000006499594
  0
LWPOLYLINE
  5
68A
330
1A
100
AcDbEntity
  8
ZUWAKU
100
AcDbPolyline
 90
        4
 70
     1
 43
0.0
 10
0.3999999052988414
 20
551.2000006499594
 10
0.3999999052988414
 20
0.400000649959452
 10
797.1999999052989
 20
0.4000006499594289
 10
797.1999999052989
 20
551.2000006499594
  0
LWPOLYLINE
  5
68B
330
1A
100
AcDbEntity
  8
ZUWAKU
100
AcDbPolyline
 90
        4
 70
     1
 43
0.0
 10
0.7999999052988187
 20
550.8000006499594
 10
0.7999999052988187
 20
0.8000006499594292
 10
796.7999999052988
 20
0.8000006499594292
 10
796.7999999052988
 20
550.8000006499594
  0
LINE
  5
68C
330
1A
100
AcDbEntity
  8
ZUWAKU
100
AcDbLine
 10
208.6466011953668
 20
15.20000064995939
 30
0.0
 11
447.4243638762902
 21
15.20000064995939
 31
0.0
  0
LINE
  5
68D
330
1A
100
AcDbEntity
  8
ZUWAKU
100
AcDbLine
 10
208.6466011953668
 20
15.60000064995939
 30
0.0
 11
447.4243638762902
 21
15.6000006499594
 31
0.0
  0
LINE
  5
68E
330
1A
100
AcDbEntity
  8
ZUWAKU
100
AcDbLine
 10
208.6466011953668
 20
15.40000064995939
 30
0.0
 11
447.4243638762902
 21
15.40000064995939
 31
0.0
  0
LINE
  5
68F
330
1A
100
AcDbEntity
  8
ZUWAKU
100
AcDbLine
 10
-0.0000000947011358
 20
30.80000064995937
 30
0.0
 11
797.3999999052987
 21
30.80000064995937
 31
0.0
  0
LINE
  5
690
330
1A
100
AcDbEntity
  8
ZUWAKU
100
AcDbLine
 10
-0.0000000947011358
 20
30.60000064995937
 30
0.0
 11
797.3999999052987
 21
30.60000064995937
 31
0.0
  0
LINE
  5
691
330
1A
100
AcDbEntity
  8
ZUWAKU
100
AcDbLine
 10
-0.0000000947011358
 20
30.40000064995936
 30
0.0
 11
797.3999999052987
 21
30.40000064995936
 31
0.0
  0
LINE
  5
692
330
1A
100
AcDbEntity
  8
ZUWAKU
100
AcDbLine
 10
-0.0000000947011358
 20
30.20000064995936
 30
0.0
 11
797.3999999052987
 21
30.20000064995936
 31
0.0
  0
LINE
  5
693
330
1A
100
AcDbEntity
  8
ZUWAKU
100
AcDbLine
 10
-0.0000000947011358
 20
30.00000064995936
 30
0.0
 11
797.3999999052987
 21
30.00000064995936
 31
0.0
  0
TEXT
  5
694
330
1A
100
AcDbEntity
  8
MOJI
100
AcDbText
 10
92.957789493468
 20
12.74117878023412
 30
0.0
 40
6.0
  1
ライナートップＸ７０Ｕ
 41
0.9
  7
ｽﾀｲﾙ1
100
AcDbText
  0
HATCH
  5
695
330
1A
100
AcDbEntity
  8
ZUWAKU
100
AcDbHatch
 10
0.0
 20
0.0
 30
0.0
210
0.0
220
0.0
230
1.0
  2
ANSI37
 70
     0
 71
     0
 91
        8
 92
        7
 72
     1
 73
     1
 93
       24
 10
14.50226256641872
 20
17.64484913094294
 42
-0.1989123673796348
 10
14.09221206007998
 20
18.63479862460399
 42
0.0
 10
14.09221206007998
 20
19.92500064995937
 42
-0.4142135623730912
 10
14.61721206007996
 20
20.45000064995936
 42
0.0
 10
17.59221206007987
 20
20.45000064995936
 42
0.4142135623731546
 10
18.11721206007996
 20
20.97500064995935
 42
0.0
 10
18.11721206007996
 20
22.72500064995937
 42
0.4142135623731586
 10
17.59221206007987
 20
23.25000064995936
 42
0.0
 10
14.09221206007998
 20
23.25000064995936
 42
0.4142135623730928
 10
11.29221206008003
 20
20.45000064995939
 42
0.0
 10
11.29221206008003
 20
18.63479862460412
 42
0.1989123673796619
 10
12.52236357909646
 20
15.66495014362051
 42
0.0
 10
15.43216155374113
 20
12.75515216897585
 42
-0.1989123673796613
 10
15.84221206007998
 20
11.76520267531467
 42
0.0
 10
15.84221206007998
 20
10.47500064995935
 42
-0.4142135623730911
 10
15.31721206008
 20
9.950000649959363
 42
0.0
 10
12.3422120600801
 20
9.950000649959363
 42
0.4142135623731526
 10
11.81721206008001
 20
9.425000649959375
 42
0.0
 10
11.81721206008001
 20
7.675000649959354
 42
0.4142135623731526
 10
12.3422120600801
 20
7.150000649959366
 42
0.0
 10
15.84221206007998
 20
7.150000649959366
 42
0.4142135623731044
 10
18.64221206008005
 20
9.950000649959342
 42
0.0
 10
18.64221206008005
 20
11.76520267531461
 42
0.1989123673796604
 10
17.41206054106351
 20
14.73505115629815
 42
0.0
 97
        0
 92
        7
 72
     1
 73
     1
 93
       16
 10
23.54221206008003
 20
19.05000064995937
 42
-0.4142135623730935
 10
24.94221206008001
 20
20.45000064995936
 42
0.0
 10
26.86721206007996
 20
20.45000064995936
 42
0.4142135623731546
 10
27.39221206008005
 20
20.97500064995935
 42
0.0
 10
27.39221206008005
 20
22.72500064995937
 42
0.4142135623730951
 10
26.86721206008007
 20
23.25000064995936
 42
0.0
 10
24.94221206007989
 20
23.25000064995932
 42
0.4142135623730892
 10
20.74221206007996
 20
19.0500006499593
 42
0.0
 10
20.74221206007996
 20
11.35000064995939
 42
0.4142135623730969
 10
24.94221206008001
 20
7.150000649959366
 42
0.0
 10
26.86721206007996
 20
7.150000649959366
 42
0.4142135623731526
 10
27.39221206008005
 20
7.675000649959354
 42
0.0
 10
27.39221206008005
 20
9.425000649959375
 42
0.4142135623730891
 10
26.86721206008007
 20
9.950000649959363
 42
0.0
 10
24.94221206008001
 20
9.950000649959363
 42
-0.4142135623730928
 10
23.54221206008003
 20
11.35000064995935
 42
0.0
 97
        0
 92
        7
 72
     1
 73
     1
 93
        2
 10
24.24221206007996
 20
15.20000064995936
 42
1.0
 10
27.74221206007996
 20
15.20000064995936
 42
1.0
 97
        0
 92
        7
 72
     1
 73
     1
 93
       26
 10
37.31485854225798
 20
19.20504784352279
 42
0.0
 10
38.37649817539579
 20
22.56690668179238
 42
0.5069206636600134
 10
37.87586727620043
 20
23.25000064995936
 42
0.0
 10
36.17697789659121
 20
23.25000064995936
 42
0.3272098845218764
 10
35.67634699739585
 20
22.88309461812633
 42
0.0
 10
33.80807712276407
 20
16.96690668179244
 42
-0.3272098845219541
 10
33.3074462235686
 20
16.60000064995936
 42
0.0
 10
33.16721206008014
 20
16.60000064995936
 42
-0.4142135623731526
 10
32.64221206008005
 20
17.12500064995935
 42
0.0
 10
32.64221206008005
 20
22.72500064995937
 42
0.4142135623730951
 10
32.11721206008007
 20
23.25000064995936
 42
0.0
 10
30.36721206007996
 20
23.25000064995936
 42
0.4142135623730871
 10
29.84221206007998
 20
22.72500064995938
 42
0.0
 10
29.84221206007998
 20
7.675000649959354
 42
0.4142135623730891
 10
30.36721206007996
 20
7.150000649959366
 42
0.0
 10
32.11721206007996
 20
7.150000649959366
 42
0.4142135623731526
 10
32.64221206008005
 20
7.675000649959354
 42
0.0
 10
32.64221206008005
 20
13.27500064995937
 42
-0.4142135623731526
 10
33.16721206008014
 20
13.80000064995936
 42
0.0
 10
33.30744622356871
 20
13.80000064995936
 42
-0.3272098845218915
 10
33.80807712276407
 20
13.43309461812629
 42
0.0
 10
35.67634699739585
 20
7.516906681792438
 42
0.3272098845218902
 10
36.17697789659121
 20
7.150000649959366
 42
0.0
 10
37.87586727620043
 20
7.150000649959366
 42
0.5069206636600335
 10
38.37649817539579
 20
7.833094618126374
 42
0.0
 10
36.05010679692213
 20
15.2000006499595
 42
0.0
 97
        0
 92
        7
 72
     1
 73
     1
 93
        8
 10
43.49221206007996
 20
22.72500064995937
 42
0.4142135623731546
 10
42.96721206007987
 20
23.25000064995936
 42
0.0
 10
41.2172120600801
 20
23.25000064995936
 42
0.4142135623731507
 10
40.69221206008001
 20
22.72500064995938
 42
0.0
 10
40.69221206008001
 20
7.675000649959354
 42
0.4142135623731526
 10
41.2172120600801
 20
7.150000649959366
 42
0.0
 10
42.96721206007987
 20
7.150000649959366
 42
0.4142135623731526
 10
43.49221206007996
 20
7.675000649959354
 42
0.0
 97
        0
 92
        7
 72
     1
 73
     1
 93
       24
 10
48.39221206008005
 20
19.92500064995937
 42
-0.4142135623731546
 10
48.91721206008014
 20
20.45000064995936
 42
0.0
 10
51.89221206008006
 20
20.45000064995936
 42
0.4142135623730911
 10
52.41721206008003
 20
20.97500064995935
 42
0.0
 10
52.41721206008003
 20
22.72500064995937
 42
0.4142135623730952
 10
51.89221206008006
 20
23.25000064995936
 42
0.0
 10
48.39221206008005
 20
23.25000064995936
 42
0.4142135623731048
 10
45.59221206007999
 20
20.45000064995939
 42
0.0
 10
45.59221206007999
 20
18.63479862460412
 42
0.1989123673796613
 10
46.82236357909653
 20
15.66495014362057
 42
0.0
 10
49.73216155374121
 20
12.7551521689759
 42
-0.1989123673796402
 10
50.14221206008006
 20
11.76520267531483
 42
0.0
 10
50.14221206008006
 20
10.47500064995935
 42
-0.4142135623730911
 10
49.61721206008007
 20
9.950000649959363
 42
0.0
 10
46.64221206008005
 20
9.950000649959363
 42
0.4142135623731526
 10
46.11721206007996
 20
9.425000649959375
 42
0.0
 10
46.11721206007996
 20
7.675000649959354
 42
0.4142135623730891
 10
46.64221206007994
 20
7.150000649959366
 42
0.0
 10
50.14221206008006
 20
7.150000649959366
 42
0.4142135623730925
 10
52.94221206008001
 20
9.950000649959342
 42
0.0
 10
52.94221206008001
 20
11.76520267531461
 42
0.1989123673796675
 10
51.71206054106346
 20
14.73505115629826
 42
0.0
 10
48.8022625664189
 20
17.64484913094278
 42
-0.1989123673796652
 10
48.39221206008005
 20
18.63479862460395
 42
0.0
 97
        0
 92
        7
 72
     1
 73
     1
 93
       16
 10
57.84221206007998
 20
22.72500064995935
 42
0.414213562373103
 10
57.31721206008001
 20
23.25000064995936
 42
0.0
 10
55.56721206008001
 20
23.25000064995936
 42
0.4142135623730871
 10
55.04221206008003
 20
22.72500064995938
 42
0.0
 10
55.04221206008003
 20
9.950000649959342
 42
0.4142135623730926
 10
57.84221206007998
 20
7.150000649959366
 42
0.0
 10
61.34221206007999
 20
7.150000649959366
 42
0.4142135623731044
 10
64.14221206008005
 20
9.950000649959342
 42
0.0
 10
64.14221206008005
 20
22.72500064995937
 42
0.4142135623730951
 10
63.61721206008008
 20
23.25000064995936
 42
0.0
 10
61.86721206007996
 20
23.25000064995936
 42
0.4142135623730871
 10
61.34221206007999
 20
22.72500064995938
 42
0.0
 10
61.34221206007999
 20
11.00000064995934
 42
-0.414213562373088
 10
60.29221206008003
 20
9.950000649959363
 42
0.0
 10
58.89221206008006
 20
9.950000649959363
 42
-0.4142135623731197
 10
57.84221206007998
 20
11.00000064995934
 42
0.0
 97
        0
 92
        7
 72
     1
 73
     1
 93
        8
 10
69.04221206008003
 20
22.72500064995938
 42
0.4142135623730871
 10
68.51721206008005
 20
23.25000064995936
 42
0.0
 10
66.76721206008005
 20
23.25000064995936
 42
0.4142135623731507
 10
66.24221206007996
 20
22.72500064995938
 42
0.0
 10
66.24221206007996
 20
7.675000649959354
 42
0.4142135623730891
 10
66.76721206007994
 20
7.150000649959366
 42
0.0
 10
68.51721206008005
 20
7.150000649959366
 42
0.4142135623730891
 10
69.04221206008003
 20
7.675000649959354
 42
0.0
 97
        0
 75
     0
 76
     1
 52
0.0
 41
0.2
 77
     0
 78
     2
 53
45.0
 43
-900.94230442938
 44
-13.19999935004057
 45
-0.4490128060534576
 46
0.4490128060534577
 79
     0
 53
135.0
 43
-900.94230442938
 44
-13.19999935004057
 45
-0.4490128060534577
 46
-0.4490128060534576
 79
     0
 47
0.057451373970553
 98
        8
 10
16.07985486832217
 20
15.16717429584491
 10
22.40451491173803
 20
18.84406283241037
 10
25.16436779095852
 20
15.51188229603008
 10
30.914059886936
 20
16.20129829640086
 10
41.8384719242556
 20
16.66091056394248
 10
46.89820080042841
 20
19.41857696636657
 10
56.55768587769921
 20
18.72915856505437
 10
67.8270795249216
 20
19.18877083259599
  0
LINE
  5
696
330
1A
100
AcDbEntity
  8
ZUWAKU
100
AcDbLine
 10
24.94221206008001
 20
23.25000064995932
 30
0.0
 11
26.86721206007996
 21
23.25000064995936
 31
0.0
  0
LINE
  5
697
330
1A
100
AcDbEntity
  8
ZUWAKU
100
AcDbLine
 10
26.86721206007996
 20
20.45000064995936
 30
0.0
 11
24.94221206008001
 21
20.45000064995936
 31
0.0
  0
LINE
  5
698
330
1A
100
AcDbEntity
  8
ZUWAKU
100
AcDbLine
 10
24.94221206008001
 20
9.950000649959363
 30
0.0
 11
26.86721206007996
 21
9.950000649959363
 31
0.0
  0
LINE
  5
699
330
1A
100
AcDbEntity
  8
ZUWAKU
100
AcDbLine
 10
26.86721206007996
 20
7.150000649959366
 30
0.0
 11
24.94221206008001
 21
7.150000649959366
 31
0.0
  0
CIRCLE
  5
69A
330
1A
100
AcDbEntity
  8
ZUWAKU
100
AcDbCircle
 10
25.99221206007996
 20
15.20000064995936
 30
0.0
 40
1.75
  0
ARC
  5
69B
330
1A
100
AcDbEntity
  8
ZUWAKU
100
AcDbCircle
 10
15.49221206007996
 20
18.63479862460406
 30
0.0
 40
1.399999999999999
100
AcDbArc
 50
180.0000000000016
 51
224.9999999999988
  0
LINE
  5
69C
330
1A
100
AcDbEntity
  8
ZUWAKU
100
AcDbLine
 10
23.54221206008003
 20
19.05000064995936
 30
0.0
 11
23.54221206008003
 21
11.35000064995937
 31
0.0
  0
LINE
  5
69D
330
1A
100
AcDbEntity
  8
ZUWAKU
100
AcDbLine
 10
20.74221206007996
 20
11.35000064995937
 30
0.0
 11
20.74221206007996
 21
19.05000064995932
 31
0.0
  0
ARC
  5
69E
330
1A
100
AcDbEntity
  8
ZUWAKU
100
AcDbCircle
 10
15.49221206007996
 20
18.63479862460406
 30
0.0
 40
4.199999999999999
100
AcDbArc
 50
180.0
 51
225.0
  0
ARC
  5
69F
330
1A
100
AcDbEntity
  8
ZUWAKU
100
AcDbCircle
 10
15.84221206007998
 20
9.950000649959363
 30
0.0
 40
2.799999999999999
100
AcDbArc
 50
270.0
 51
0.0
  0
ARC
  5
6A0
330
1A
100
AcDbEntity
  8
ZUWAKU
100
AcDbCircle
 10
24.94221206008001
 20
11.35000064995937
 30
0.0
 40
4.199999999999999
100
AcDbArc
 50
180.0
 51
270.0
  0
ARC
  5
6A1
330
1A
100
AcDbEntity
  8
ZUWAKU
100
AcDbCircle
 10
14.44221206008001
 20
11.76520267531466
 30
0.0
 40
4.199999999999999
100
AcDbArc
 50
0.0
 51
45.0
  0
LINE
  5
6A2
330
1A
100
AcDbEntity
  8
ZUWAKU
100
AcDbLine
 10
17.41206054106351
 20
14.73505115629819
 30
0.0
 11
14.50226256641883
 21
17.64484913094286
 31
0.0
  0
LINE
  5
6A3
330
1A
100
AcDbEntity
  8
ZUWAKU
100
AcDbLine
 10
15.84221206007998
 20
10.47500064995936
 30
0.0
 11
15.84221206007998
 21
11.76520267531471
 31
0.0
  0
ARC
  5
6A4
330
1A
100
AcDbEntity
  8
ZUWAKU
100
AcDbCircle
 10
15.31721206008
 20
10.47500064995936
 30
0.0
 40
0.525
100
AcDbArc
 50
270.0
 51
0.0
  0
ARC
  5
6A5
330
1A
100
AcDbEntity
  8
ZUWAKU
100
AcDbCircle
 10
14.44221206008001
 20
11.76520267531471
 30
0.0
 40
1.399999999999999
100
AcDbArc
 50
0.0
 51
45.0
  0
LINE
  5
6A6
330
1A
100
AcDbEntity
  8
ZUWAKU
100
AcDbLine
 10
11.81721206008001
 20
7.675000649959365
 30
0.0
 11
11.81721206008001
 21
9.425000649959365
 31
0.0
  0
ARC
  5
6A7
330
1A
100
AcDbEntity
  8
ZUWAKU
100
AcDbCircle
 10
12.34221206007998
 20
7.675000649959365
 30
0.0
 40
0.525
100
AcDbArc
 50
180.0
 51
270.0
  0
ARC
  5
6A8
330
1A
100
AcDbEntity
  8
ZUWAKU
100
AcDbCircle
 10
12.34221206007998
 20
9.425000649959365
 30
0.0
 40
0.525
100
AcDbArc
 50
90.0
 51
180.0
  0
LINE
  5
6A9
330
1A
100
AcDbEntity
  8
ZUWAKU
100
AcDbLine
 10
12.34221206007998
 20
7.150000649959366
 30
0.0
 11
15.84221206007998
 21
7.150000649959366
 31
0.0
  0
LINE
  5
6AA
330
1A
100
AcDbEntity
  8
ZUWAKU
100
AcDbLine
 10
12.34221206007998
 20
9.950000649959363
 30
0.0
 11
15.31721206008
 21
9.950000649959363
 31
0.0
  0
LINE
  5
6AB
330
1A
100
AcDbEntity
  8
ZUWAKU
100
AcDbLine
 10
12.52236357909646
 20
15.66495014362054
 30
0.0
 11
15.43216155374113
 21
12.75515216897588
 31
0.0
  0
LINE
  5
6AC
330
1A
100
AcDbEntity
  8
ZUWAKU
100
AcDbLine
 10
18.64221206008005
 20
9.950000649959363
 30
0.0
 11
18.64221206008005
 21
11.76520267531471
 31
0.0
  0
ARC
  5
6AD
330
1A
100
AcDbEntity
  8
ZUWAKU
100
AcDbCircle
 10
24.94221206008001
 20
11.35000064995937
 30
0.0
 40
1.399999999999999
100
AcDbArc
 50
180.0
 51
270.0
  0
ARC
  5
6AE
330
1A
100
AcDbEntity
  8
ZUWAKU
100
AcDbCircle
 10
17.59221206007998
 20
22.72500064995936
 30
0.0
 40
0.525
100
AcDbArc
 50
0.0
 51
90.0
  0
ARC
  5
6AF
330
1A
100
AcDbEntity
  8
ZUWAKU
100
AcDbCircle
 10
17.59221206007998
 20
20.97500064995936
 30
0.0
 40
0.525
100
AcDbArc
 50
270.0
 51
0.0
  0
LINE
  5
6B0
330
1A
100
AcDbEntity
  8
ZUWAKU
100
AcDbLine
 10
14.09221206007998
 20
23.25000064995936
 30
0.0
 11
17.59221206007998
 21
23.25000064995936
 31
0.0
  0
ARC
  5
6B1
330
1A
100
AcDbEntity
  8
ZUWAKU
100
AcDbCircle
 10
14.61721206007996
 20
19.92500064995936
 30
0.0
 40
0.525
100
AcDbArc
 50
90.0
 51
180.0
  0
LINE
  5
6B2
330
1A
100
AcDbEntity
  8
ZUWAKU
100
AcDbLine
 10
14.09221206007998
 20
19.92500064995936
 30
0.0
 11
14.09221206007998
 21
18.63479862460402
 31
0.0
  0
LINE
  5
6B3
330
1A
100
AcDbEntity
  8
ZUWAKU
100
AcDbLine
 10
17.59221206007998
 20
20.45000064995936
 30
0.0
 11
14.61721206007996
 21
20.45000064995936
 31
0.0
  0
LINE
  5
6B4
330
1A
100
AcDbEntity
  8
ZUWAKU
100
AcDbLine
 10
11.29221206008003
 20
20.45000064995936
 30
0.0
 11
11.29221206008003
 21
18.63479862460402
 31
0.0
  0
ARC
  5
6B5
330
1A
100
AcDbEntity
  8
ZUWAKU
100
AcDbCircle
 10
14.09221206007998
 20
20.45000064995936
 30
0.0
 40
2.799999999999999
100
AcDbArc
 50
90.0
 51
180.0
  0
LINE
  5
6B6
330
1A
100
AcDbEntity
  8
ZUWAKU
100
AcDbLine
 10
18.11721206007996
 20
22.72500064995936
 30
0.0
 11
18.11721206007996
 21
20.97500064995936
 31
0.0
  0
ARC
  5
6B7
330
1A
100
AcDbEntity
  8
ZUWAKU
100
AcDbCircle
 10
24.94221206008001
 20
19.05000064995936
 30
0.0
 40
1.399999999999999
100
AcDbArc
 50
90.0
 51
180.0
  0
ARC
  5
6B8
330
1A
100
AcDbEntity
  8
ZUWAKU
100
AcDbCircle
 10
24.94221206008001
 20
19.05000064995932
 30
0.0
 40
4.199999999999999
100
AcDbArc
 50
90.0
 51
180.0
  0
LINE
  5
6B9
330
1A
100
AcDbEntity
  8
ZUWAKU
100
AcDbLine
 10
79.32662945328707
 20
30.00000064995936
 30
0.0
 11
79.32662945328729
 21
0.8000006499594292
 31
0.0
  0
LINE
  5
6BA
330
1A
100
AcDbEntity
  8
ZUWAKU
100
AcDbLine
 10
79.52662945328711
 20
30.00000064995936
 30
0.0
 11
79.52662945328734
 21
0.8000006499594292
 31
0.0
  0
LINE
  5
6BB
330
1A
100
AcDbEntity
  8
ZUWAKU
100
AcDbLine
 10
79.12662945328725
 20
30.00000064995936
 30
0.0
 11
79.12662945328725
 21
0.8000006499594292
 31
0.0
  0
LINE
  5
6BC
330
1A
100
AcDbEntity
  8
ZUWAKU
100
AcDbLine
 10
64.14221206008005
 20
9.950000649959363
 30
0.0
 11
64.14221206008005
 21
22.72500064995936
 31
0.0
  0
LINE
  5
6BD
330
1A
100
AcDbEntity
  8
ZUWAKU
100
AcDbLine
 10
61.34221206007999
 20
22.72500064995936
 30
0.0
 11
61.34221206007999
 21
11.00000064995936
 31
0.0
  0
LINE
  5
6BE
330
1A
100
AcDbEntity
  8
ZUWAKU
100
AcDbLine
 10
69.04221206008003
 20
7.675000649959365
 30
0.0
 11
69.04221206008003
 21
22.72500064995936
 31
0.0
  0
LINE
  5
6BF
330
1A
100
AcDbEntity
  8
ZUWAKU
100
AcDbLine
 10
66.24221206007996
 20
22.72500064995936
 30
0.0
 11
66.24221206007996
 21
7.675000649959365
 31
0.0
  0
ARC
  5
6C0
330
1A
100
AcDbEntity
  8
ZUWAKU
100
AcDbCircle
 10
49.79221206008003
 20
18.63479862460406
 30
0.0
 40
1.399999999999999
100
AcDbArc
 50
180.0000000000016
 51
224.9999999999988
  0
ARC
  5
6C1
330
1A
100
AcDbEntity
  8
ZUWAKU
100
AcDbCircle
 10
49.79221206008003
 20
18.63479862460406
 30
0.0
 40
4.199999999999999
100
AcDbArc
 50
180.0
 51
225.0
  0
LINE
  5
6C2
330
1A
100
AcDbEntity
  8
ZUWAKU
100
AcDbLine
 10
37.31485854225798
 20
19.20504784352279
 30
0.0
 11
36.05010679692213
 21
15.20000064995938
 31
0.0
  0
LINE
  5
6C3
330
1A
100
AcDbEntity
  8
ZUWAKU
100
AcDbLine
 10
40.69221206008001
 20
22.72500064995936
 30
0.0
 11
40.69221206008001
 21
7.675000649959365
 31
0.0
  0
LINE
  5
6C4
330
1A
100
AcDbEntity
  8
ZUWAKU
100
AcDbLine
 10
43.49221206007996
 20
7.675000649959365
 30
0.0
 11
43.49221206007996
 21
22.72500064995936
 31
0.0
  0
LINE
  5
6C5
330
1A
100
AcDbEntity
  8
ZUWAKU
100
AcDbLine
 10
55.04221206008003
 20
22.72500064995936
 30
0.0
 11
55.04221206008003
 21
9.950000649959363
 31
0.0
  0
LINE
  5
6C6
330
1A
100
AcDbEntity
  8
ZUWAKU
100
AcDbLine
 10
57.84221206007998
 20
11.00000064995936
 30
0.0
 11
57.84221206007998
 21
22.72500064995936
 31
0.0
  0
LINE
  5
6C7
330
1A
100
AcDbEntity
  8
ZUWAKU
100
AcDbLine
 10
32.64221206008005
 20
17.12500064995936
 30
0.0
 11
32.64221206008005
 21
22.72500064995936
 31
0.0
  0
LINE
  5
6C8
330
1A
100
AcDbEntity
  8
ZUWAKU
100
AcDbLine
 10
29.84221206007998
 20
22.72500064995936
 30
0.0
 11
29.84221206007998
 21
7.675000649959365
 31
0.0
  0
LINE
  5
6C9
330
1A
100
AcDbEntity
  8
ZUWAKU
100
AcDbLine
 10
35.67634699739585
 20
22.88309461812633
 30
0.0
 11
33.80807712276407
 21
16.96690668179239
 31
0.0
  0
LINE
  5
6CA
330
1A
100
AcDbEntity
  8
ZUWAKU
100
AcDbLine
 10
60.29221206008003
 20
9.950000649959363
 30
0.0
 11
58.89221206008006
 21
9.950000649959363
 31
0.0
  0
LINE
  5
6CB
330
1A
100
AcDbEntity
  8
ZUWAKU
100
AcDbLine
 10
57.84221206007998
 20
7.150000649959366
 30
0.0
 11
61.34221206007999
 21
7.150000649959366
 31
0.0
  0
LINE
  5
6CC
330
1A
100
AcDbEntity
  8
ZUWAKU
100
AcDbLine
 10
41.21721206007999
 20
7.150000649959366
 30
0.0
 11
42.96721206007998
 21
7.150000649959366
 31
0.0
  0
LINE
  5
6CD
330
1A
100
AcDbEntity
  8
ZUWAKU
100
AcDbLine
 10
35.67634699739585
 20
7.516906681792391
 30
0.0
 11
33.80807712276407
 21
13.43309461812633
 31
0.0
  0
ARC
  5
6CE
330
1A
100
AcDbEntity
  8
ZUWAKU
100
AcDbCircle
 10
33.30744622356871
 20
17.12500064995936
 30
0.0
 40
0.525
100
AcDbArc
 50
270.0
 51
342.4744316262769
  0
LINE
  5
6CF
330
1A
100
AcDbEntity
  8
ZUWAKU
100
AcDbLine
 10
33.30744622356871
 20
16.60000064995936
 30
0.0
 11
33.16721206008003
 21
16.60000064995936
 31
0.0
  0
LINE
  5
6D0
330
1A
100
AcDbEntity
  8
ZUWAKU
100
AcDbLine
 10
33.16721206008003
 20
13.80000064995936
 30
0.0
 11
33.30744622356871
 21
13.80000064995936
 31
0.0
  0
ARC
  5
6D1
330
1A
100
AcDbEntity
  8
ZUWAKU
100
AcDbCircle
 10
33.16721206008003
 20
17.12500064995936
 30
0.0
 40
0.525
100
AcDbArc
 50
180.0
 51
270.0
  0
LINE
  5
6D2
330
1A
100
AcDbEntity
  8
ZUWAKU
100
AcDbLine
 10
30.36721206007996
 20
7.150000649959366
 30
0.0
 11
32.11721206007996
 21
7.150000649959366
 31
0.0
  0
ARC
  5
6D3
330
1A
100
AcDbEntity
  8
ZUWAKU
100
AcDbCircle
 10
32.11721206007996
 20
7.675000649959365
 30
0.0
 40
0.525
100
AcDbArc
 50
270.0
 51
0.0
  0
LINE
  5
6D4
330
1A
100
AcDbEntity
  8
ZUWAKU
100
AcDbLine
 10
32.64221206008005
 20
7.675000649959365
 30
0.0
 11
32.64221206008005
 21
13.27500064995936
 31
0.0
  0
LINE
  5
6D5
330
1A
100
AcDbEntity
  8
ZUWAKU
100
AcDbLine
 10
27.39221206008005
 20
9.425000649959365
 30
0.0
 11
27.39221206008005
 21
7.675000649959365
 31
0.0
  0
ARC
  5
6D6
330
1A
100
AcDbEntity
  8
ZUWAKU
100
AcDbCircle
 10
26.86721206007996
 20
7.675000649959365
 30
0.0
 40
0.525
100
AcDbArc
 50
270.0
 51
0.0
  0
ARC
  5
6D7
330
1A
100
AcDbEntity
  8
ZUWAKU
100
AcDbCircle
 10
26.86721206007996
 20
9.425000649959365
 30
0.0
 40
0.525
100
AcDbArc
 50
0.0
 51
90.0
  0
ARC
  5
6D8
330
1A
100
AcDbEntity
  8
ZUWAKU
100
AcDbCircle
 10
30.36721206007996
 20
7.675000649959365
 30
0.0
 40
0.525
100
AcDbArc
 50
180.0
 51
270.0
  0
ARC
  5
6D9
330
1A
100
AcDbEntity
  8
ZUWAKU
100
AcDbCircle
 10
33.30744622356871
 20
13.27500064995936
 30
0.0
 40
0.525
100
AcDbArc
 50
17.52556837372303
 51
90.0
  0
ARC
  5
6DA
330
1A
100
AcDbEntity
  8
ZUWAKU
100
AcDbCircle
 10
33.16721206008003
 20
13.27500064995936
 30
0.0
 40
0.525
100
AcDbArc
 50
90.0
 51
180.0
  0
ARC
  5
6DB
330
1A
100
AcDbEntity
  8
ZUWAKU
100
AcDbCircle
 10
41.21721206007999
 20
7.675000649959365
 30
0.0
 40
0.525
100
AcDbArc
 50
180.0
 51
270.0
  0
LINE
  5
6DC
330
1A
100
AcDbEntity
  8
ZUWAKU
100
AcDbLine
 10
36.17697789659132
 20
7.150000649959366
 30
0.0
 11
37.87586727620032
 21
7.150000649959366
 31
0.0
  0
ARC
  5
6DD
330
1A
100
AcDbEntity
  8
ZUWAKU
100
AcDbCircle
 10
37.87586727620032
 20
7.675000649959365
 30
0.0
 40
0.525
100
AcDbArc
 50
270.0
 51
17.52556837372303
  0
LINE
  5
6DE
330
1A
100
AcDbEntity
  8
ZUWAKU
100
AcDbLine
 10
38.37649817539579
 20
7.833094618126338
 30
0.0
 11
36.05010679692213
 21
15.20000064995938
 31
0.0
  0
ARC
  5
6DF
330
1A
100
AcDbEntity
  8
ZUWAKU
100
AcDbCircle
 10
36.17697789659132
 20
7.675000649959365
 30
0.0
 40
0.525
100
AcDbArc
 50
197.525568373723
 51
270.0
  0
ARC
  5
6E0
330
1A
100
AcDbEntity
  8
ZUWAKU
100
AcDbCircle
 10
57.84221206007998
 20
9.950000649959363
 30
0.0
 40
2.799999999999999
100
AcDbArc
 50
180.0
 51
270.0
  0
ARC
  5
6E1
330
1A
100
AcDbEntity
  8
ZUWAKU
100
AcDbCircle
 10
50.14221206008006
 20
9.950000649959363
 30
0.0
 40
2.799999999999999
100
AcDbArc
 50
270.0
 51
0.0
  0
LINE
  5
6E2
330
1A
100
AcDbEntity
  8
ZUWAKU
100
AcDbLine
 10
51.71206054106358
 20
14.73505115629819
 30
0.0
 11
48.80226256641879
 21
17.64484913094286
 31
0.0
  0
LINE
  5
6E3
330
1A
100
AcDbEntity
  8
ZUWAKU
100
AcDbLine
 10
50.14221206008006
 20
10.47500064995936
 30
0.0
 11
50.14221206008006
 21
11.76520267531471
 31
0.0
  0
ARC
  5
6E4
330
1A
100
AcDbEntity
  8
ZUWAKU
100
AcDbCircle
 10
48.74221206007996
 20
11.76520267531471
 30
0.0
 40
1.399999999999999
100
AcDbArc
 50
0.0
 51
45.0
  0
ARC
  5
6E5
330
1A
100
AcDbEntity
  8
ZUWAKU
100
AcDbCircle
 10
49.61721206007997
 20
10.47500064995936
 30
0.0
 40
0.525
100
AcDbArc
 50
270.0
 51
0.0
  0
LINE
  5
6E6
330
1A
100
AcDbEntity
  8
ZUWAKU
100
AcDbLine
 10
46.11721206007996
 20
7.675000649959365
 30
0.0
 11
46.11721206007996
 21
9.425000649959365
 31
0.0
  0
ARC
  5
6E7
330
1A
100
AcDbEntity
  8
ZUWAKU
100
AcDbCircle
 10
46.64221206008005
 20
7.675000649959365
 30
0.0
 40
0.525
100
AcDbArc
 50
180.0
 51
270.0
  0
ARC
  5
6E8
330
1A
100
AcDbEntity
  8
ZUWAKU
100
AcDbCircle
 10
42.96721206007998
 20
7.675000649959365
 30
0.0
 40
0.525
100
AcDbArc
 50
270.0
 51
0.0
  0
ARC
  5
6E9
330
1A
100
AcDbEntity
  8
ZUWAKU
100
AcDbCircle
 10
46.64221206008005
 20
9.425000649959365
 30
0.0
 40
0.525
100
AcDbArc
 50
90.0
 51
180.0
  0
LINE
  5
6EA
330
1A
100
AcDbEntity
  8
ZUWAKU
100
AcDbLine
 10
46.64221206008005
 20
9.950000649959363
 30
0.0
 11
49.61721206007997
 21
9.950000649959363
 31
0.0
  0
LINE
  5
6EB
330
1A
100
AcDbEntity
  8
ZUWAKU
100
AcDbLine
 10
46.64221206008005
 20
7.150000649959366
 30
0.0
 11
50.14221206008006
 21
7.150000649959366
 31
0.0
  0
LINE
  5
6EC
330
1A
100
AcDbEntity
  8
ZUWAKU
100
AcDbLine
 10
46.82236357909653
 20
15.66495014362054
 30
0.0
 11
49.73216155374121
 21
12.75515216897588
 31
0.0
  0
LINE
  5
6ED
330
1A
100
AcDbEntity
  8
ZUWAKU
100
AcDbLine
 10
52.94221206008001
 20
9.950000649959363
 30
0.0
 11
52.94221206008001
 21
11.76520267531471
 31
0.0
  0
ARC
  5
6EE
330
1A
100
AcDbEntity
  8
ZUWAKU
100
AcDbCircle
 10
48.74221206007996
 20
11.76520267531466
 30
0.0
 40
4.199999999999999
100
AcDbArc
 50
0.0
 51
45.0
  0
ARC
  5
6EF
330
1A
100
AcDbEntity
  8
ZUWAKU
100
AcDbCircle
 10
58.89221206008006
 20
11.00000064995936
 30
0.0
 40
1.049999999999999
100
AcDbArc
 50
180.0
 51
270.0
  0
ARC
  5
6F0
330
1A
100
AcDbEntity
  8
ZUWAKU
100
AcDbCircle
 10
61.34221206007999
 20
9.950000649959363
 30
0.0
 40
2.799999999999999
100
AcDbArc
 50
270.0
 51
0.0
  0
LINE
  5
6F1
330
1A
100
AcDbEntity
  8
ZUWAKU
100
AcDbLine
 10
66.76721206008005
 20
7.150000649959366
 30
0.0
 11
68.51721206008005
 21
7.150000649959366
 31
0.0
  0
ARC
  5
6F2
330
1A
100
AcDbEntity
  8
ZUWAKU
100
AcDbCircle
 10
66.76721206008005
 20
7.675000649959365
 30
0.0
 40
0.525
100
AcDbArc
 50
180.0
 51
270.0
  0
ARC
  5
6F3
330
1A
100
AcDbEntity
  8
ZUWAKU
100
AcDbCircle
 10
60.29221206008003
 20
11.00000064995936
 30
0.0
 40
1.049999999999999
100
AcDbArc
 50
270.0
 51
0.0
  0
ARC
  5
6F4
330
1A
100
AcDbEntity
  8
ZUWAKU
100
AcDbCircle
 10
68.51721206008005
 20
7.675000649959365
 30
0.0
 40
0.525
100
AcDbArc
 50
270.0
 51
0.0
  0
LINE
  5
6F5
330
1A
100
AcDbEntity
  8
ZUWAKU
100
AcDbLine
 10
42.96721206007998
 20
23.25000064995936
 30
0.0
 11
41.21721206007999
 21
23.25000064995936
 31
0.0
  0
ARC
  5
6F6
330
1A
100
AcDbEntity
  8
ZUWAKU
100
AcDbCircle
 10
32.11721206007996
 20
22.72500064995936
 30
0.0
 40
0.525
100
AcDbArc
 50
0.0
 51
90.0
  0
LINE
  5
6F7
330
1A
100
AcDbEntity
  8
ZUWAKU
100
AcDbLine
 10
32.11721206007996
 20
23.25000064995936
 30
0.0
 11
30.36721206007996
 21
23.25000064995936
 31
0.0
  0
ARC
  5
6F8
330
1A
100
AcDbEntity
  8
ZUWAKU
100
AcDbCircle
 10
26.86721206007996
 20
22.72500064995936
 30
0.0
 40
0.525
100
AcDbArc
 50
0.0
 51
90.0
  0
ARC
  5
6F9
330
1A
100
AcDbEntity
  8
ZUWAKU
100
AcDbCircle
 10
30.36721206007996
 20
22.72500064995936
 30
0.0
 40
0.525
100
AcDbArc
 50
90.0
 51
180.0
  0
ARC
  5
6FA
330
1A
100
AcDbEntity
  8
ZUWAKU
100
AcDbCircle
 10
26.86721206007996
 20
20.97500064995936
 30
0.0
 40
0.525
100
AcDbArc
 50
270.0
 51
0.0
  0
LINE
  5
6FB
330
1A
100
AcDbEntity
  8
ZUWAKU
100
AcDbLine
 10
27.39221206008005
 20
22.72500064995936
 30
0.0
 11
27.39221206008005
 21
20.97500064995936
 31
0.0
  0
ARC
  5
6FC
330
1A
100
AcDbEntity
  8
ZUWAKU
100
AcDbCircle
 10
41.21721206007999
 20
22.72500064995936
 30
0.0
 40
0.525
100
AcDbArc
 50
90.0
 51
180.0
  0
LINE
  5
6FD
330
1A
100
AcDbEntity
  8
ZUWAKU
100
AcDbLine
 10
36.17697789659132
 20
23.25000064995936
 30
0.0
 11
37.87586727620032
 21
23.25000064995936
 31
0.0
  0
ARC
  5
6FE
330
1A
100
AcDbEntity
  8
ZUWAKU
100
AcDbCircle
 10
37.87586727620032
 20
22.72500064995936
 30
0.0
 40
0.525
100
AcDbArc
 50
342.4744316262769
 51
90.0
  0
LINE
  5
6FF
330
1A
100
AcDbEntity
  8
ZUWAKU
100
AcDbLine
 10
38.37649817539579
 20
22.56690668179239
 30
0.0
 11
37.31485854225798
 21
19.20504784352279
 31
0.0
  0
ARC
  5
700
330
1A
100
AcDbEntity
  8
ZUWAKU
100
AcDbCircle
 10
36.17697789659132
 20
22.72500064995936
 30
0.0
 40
0.525
100
AcDbArc
 50
90.0
 51
162.4744316262769
  0
LINE
  5
701
330
1A
100
AcDbEntity
  8
ZUWAKU
100
AcDbLine
 10
48.39221206008005
 20
23.25000064995936
 30
0.0
 11
51.89221206008006
 21
23.25000064995936
 31
0.0
  0
LINE
  5
702
330
1A
100
AcDbEntity
  8
ZUWAKU
100
AcDbLine
 10
51.89221206008006
 20
20.45000064995936
 30
0.0
 11
48.91721206008003
 21
20.45000064995936
 31
0.0
  0
ARC
  5
703
330
1A
100
AcDbEntity
  8
ZUWAKU
100
AcDbCircle
 10
48.91721206008003
 20
19.92500064995936
 30
0.0
 40
0.525
100
AcDbArc
 50
90.0
 51
180.0
  0
LINE
  5
704
330
1A
100
AcDbEntity
  8
ZUWAKU
100
AcDbLine
 10
48.39221206008005
 20
19.92500064995936
 30
0.0
 11
48.39221206008005
 21
18.63479862460402
 31
0.0
  0
ARC
  5
705
330
1A
100
AcDbEntity
  8
ZUWAKU
100
AcDbCircle
 10
42.96721206007998
 20
22.72500064995936
 30
0.0
 40
0.525
100
AcDbArc
 50
0.0
 51
90.0
  0
LINE
  5
706
330
1A
100
AcDbEntity
  8
ZUWAKU
100
AcDbLine
 10
45.59221206007999
 20
20.45000064995936
 30
0.0
 11
45.59221206007999
 21
18.63479862460402
 31
0.0
  0
ARC
  5
707
330
1A
100
AcDbEntity
  8
ZUWAKU
100
AcDbCircle
 10
48.39221206008005
 20
20.45000064995936
 30
0.0
 40
2.799999999999999
100
AcDbArc
 50
90.0
 51
180.0
  0
ARC
  5
708
330
1A
100
AcDbEntity
  8
ZUWAKU
100
AcDbCircle
 10
57.31721206008001
 20
22.72500064995936
 30
0.0
 40
0.525
100
AcDbArc
 50
0.0
 51
90.0
  0
ARC
  5
709
330
1A
100
AcDbEntity
  8
ZUWAKU
100
AcDbCircle
 10
55.56721206008001
 20
22.72500064995936
 30
0.0
 40
0.525
100
AcDbArc
 50
90.0
 51
180.0
  0
LINE
  5
70A
330
1A
100
AcDbEntity
  8
ZUWAKU
100
AcDbLine
 10
57.31721206008001
 20
23.25000064995936
 30
0.0
 11
55.56721206008001
 21
23.25000064995936
 31
0.0
  0
ARC
  5
70B
330
1A
100
AcDbEntity
  8
ZUWAKU
100
AcDbCircle
 10
51.89221206008006
 20
22.72500064995936
 30
0.0
 40
0.525
100
AcDbArc
 50
0.0
 51
90.0
  0
ARC
  5
70C
330
1A
100
AcDbEntity
  8
ZUWAKU
100
AcDbCircle
 10
51.89221206008006
 20
20.97500064995936
 30
0.0
 40
0.525
100
AcDbArc
 50
270.0
 51
0.0
  0
LINE
  5
70D
330
1A
100
AcDbEntity
  8
ZUWAKU
100
AcDbLine
 10
52.41721206008003
 20
22.72500064995936
 30
0.0
 11
52.41721206008003
 21
20.97500064995936
 31
0.0
  0
LINE
  5
70E
330
1A
100
AcDbEntity
  8
ZUWAKU
100
AcDbLine
 10
68.51721206008005
 20
23.25000064995936
 30
0.0
 11
66.76721206008005
 21
23.25000064995936
 31
0.0
  0
ARC
  5
70F
330
1A
100
AcDbEntity
  8
ZUWAKU
100
AcDbCircle
 10
66.76721206008005
 20
22.72500064995936
 30
0.0
 40
0.525
100
AcDbArc
 50
90.0
 51
180.0
  0
ARC
  5
710
330
1A
100
AcDbEntity
  8
ZUWAKU
100
AcDbCircle
 10
63.61721206007996
 20
22.72500064995936
 30
0.0
 40
0.525
100
AcDbArc
 50
0.0
 51
90.0
  0
LINE
  5
711
330
1A
100
AcDbEntity
  8
ZUWAKU
100
AcDbLine
 10
63.61721206007996
 20
23.25000064995936
 30
0.0
 11
61.86721206007996
 21
23.25000064995936
 31
0.0
  0
ARC
  5
712
330
1A
100
AcDbEntity
  8
ZUWAKU
100
AcDbCircle
 10
61.86721206007996
 20
22.72500064995936
 30
0.0
 40
0.525
100
AcDbArc
 50
90.0
 51
180.0
  0
ARC
  5
713
330
1A
100
AcDbEntity
  8
ZUWAKU
100
AcDbCircle
 10
68.51721206008005
 20
22.72500064995936
 30
0.0
 40
0.525
100
AcDbArc
 50
0.0
 51
90.0
  0
TEXT
  5
714
330
1A
100
AcDbEntity
  8
MOJI
100
AcDbText
 10
239.8272025861499
 20
18.00492170736674
 30
0.0
 40
5.599999999999999
  1
ステンレス金具横打瓦下
 41
0.9
  7
ｽﾀｲﾙ1
100
AcDbText
  0
LINE
  5
715
330
1A
100
AcDbEntity
  8
ZUWAKU
100
AcDbLine
 10
208.2466011953667
 20
30.00000064995936
 30
0.0
 11
208.2466011953667
 21
0.8000006499594292
 31
0.0
  0
LINE
  5
716
330
1A
100
AcDbEntity
  8
ZUWAKU
100
AcDbLine
 10
208.6466011953666
 20
30.00000064995936
 30
0.0
 11
208.6466011953668
 21
0.8000006499594292
 31
0.0
  0
LINE
  5
717
330
1A
100
AcDbEntity
  8
ZUWAKU
100
AcDbLine
 10
208.4466011953665
 20
30.00000064995936
 30
0.0
 11
208.4466011953668
 21
0.8000006499594292
 31
0.0
  0
TEXT
  5
718
330
1A
100
AcDbEntity
  8
ZUWAKU
100
AcDbText
 10
209.7240462175764
 20
9.655357188344979
 30
0.0
 40
4.0
  1
サイズ
 41
0.9
  7
ｽﾀｲﾙ1
100
AcDbText
  0
TEXT
  5
719
330
1A
100
AcDbEntity
  8
MOJI
100
AcDbText
 10
239.8272025861499
 20
3.204921707366782
 30
0.0
 40
5.599999999999999
  1
Ｘ７０Ｕ－Ｌ２３０
 41
0.9
  7
ｽﾀｲﾙ1
100
AcDbText
  0
TEXT
  5
71A
330
1A
100
AcDbEntity
  8
ZUWAKU
100
AcDbText
 10
209.7240462175761
 20
24.05535718834494
 30
0.0
 40
4.0
  1
品名
 41
0.9
  7
ｽﾀｲﾙ1
100
AcDbText
  0
LINE
  5
71B
330
1A
100
AcDbEntity
  8
ZUWAKU
100
AcDbLine
 10
648.817202415503
 20
15.20000064995939
 30
0.0
 11
697.2490104538401
 21
15.20000064995939
 31
0.0
  0
LINE
  5
71C
330
1A
100
AcDbEntity
  8
ZUWAKU
100
AcDbLine
 10
648.8172024155033
 20
15.4000006499594
 30
0.0
 11
697.2490104538401
 21
15.40000064995939
 31
0.0
  0
LINE
  5
71D
330
1A
100
AcDbEntity
  8
ZUWAKU
100
AcDbLine
 10
648.817202415503
 20
15.60000064995939
 30
0.0
 11
697.2490104538401
 21
15.60000064995939
 31
0.0
  0
TEXT
  5
71E
330
1A
100
AcDbEntity
  8
ZUWAKU
100
AcDbText
 10
658.2039375926012
 20
18.00492170736674
 30
0.0
 40
5.599999999999999
  1
　　．　　．　　
 41
0.9
  7
ｽﾀｲﾙ1
100
AcDbText
  0
LINE
  5
71F
330
1A
100
AcDbEntity
  8
ZUWAKU
100
AcDbLine
 10
505.1991794034397
 20
15.20000064995939
 30
0.0
 11
552.5269556714113
 21
15.20000064995939
 31
0.0
  0
LINE
  5
720
330
1A
100
AcDbEntity
  8
ZUWAKU
100
AcDbLine
 10
505.1991794034397
 20
15.40000064995939
 30
0.0
 11
552.5269556714113
 21
15.40000064995939
 31
0.0
  0
LINE
  5
721
330
1A
100
AcDbEntity
  8
ZUWAKU
100
AcDbLine
 10
505.1991794034397
 20
15.60000064995939
 30
0.0
 11
552.5269556714113
 21
15.60000064995939
 31
0.0
  0
TEXT
  5
722
330
1A
100
AcDbEntity
  8
MOJI
100
AcDbText
 10
463.2464318963009
 20
11.94261837161934
 30
0.0
 40
5.599999999999999
  1
ＬＣ８２□
 41
0.9
  7
ｽﾀｲﾙ1
100
AcDbText
  0
LINE
  5
723
330
1A
100
AcDbEntity
  8
ZUWAKU
100
AcDbLine
 10
447.6243638762901
 20
30.00000064995936
 30
0.0
 11
447.6243638762903
 21
0.8000006499594292
 31
0.0
  0
LINE
  5
724
330
1A
100
AcDbEntity
  8
ZUWAKU
100
AcDbLine
 10
447.8243638762901
 20
30.00000064995936
 30
0.0
 11
447.8243638762903
 21
0.8000006499594292
 31
0.0
  0
LINE
  5
725
330
1A
100
AcDbEntity
  8
ZUWAKU
100
AcDbLine
 10
447.4243638762902
 20
30.00000064995936
 30
0.0
 11
447.4243638762902
 21
0.8000006499594292
 31
0.0
  0
TEXT
  5
726
330
1A
100
AcDbEntity
  8
MOJI
100
AcDbText
 10
528.0409078776117
 20
18.00492170736674
 30
0.0
 40
5.599999999999999
  1
Ａ３
 41
0.9
  7
ｽﾀｲﾙ1
100
AcDbText
  0
LINE
  5
727
330
1A
100
AcDbEntity
  8
ZUWAKU
100
AcDbLine
 10
504.9991794034396
 20
30.00000064995936
 30
0.0
 11
504.9991794034399
 21
0.8000006499594292
 31
0.0
  0
LINE
  5
728
330
1A
100
AcDbEntity
  8
ZUWAKU
100
AcDbLine
 10
505.1991794034397
 20
30.00000064995936
 30
0.0
 11
505.19917940344
 21
0.8000006499594292
 31
0.0
  0
LINE
  5
729
330
1A
100
AcDbEntity
  8
ZUWAKU
100
AcDbLine
 10
504.7991794034398
 20
30.00000064995936
 30
0.0
 11
504.7991794034398
 21
0.8000006499594292
 31
0.0
  0
TEXT
  5
72A
330
1A
100
AcDbEntity
  8
ZUWAKU
100
AcDbText
 10
461.6981351332112
 20
2.908329889848573
 30
0.0
 40
3.0
  1
□には色品番が入ります
 41
0.9
  7
ｽﾀｲﾙ1
100
AcDbText
  0
TEXT
  5
72B
330
1A
100
AcDbEntity
  8
ZUWAKU
100
AcDbText
 10
506.6766244256496
 20
9.655357188344979
 30
0.0
 40
4.0
  1
縮尺
 41
0.9
  7
ｽﾀｲﾙ1
100
AcDbText
  0
TEXT
  5
72C
330
1A
100
AcDbEntity
  8
MOJI
100
AcDbText
 10
528.0409078776117
 20
3.204921707366782
 30
0.0
 40
5.599999999999999
  1
１/２
 41
0.9
  7
ｽﾀｲﾙ1
100
AcDbText
  0
TEXT
  5
72D
330
1A
100
AcDbEntity
  8
ZUWAKU
100
AcDbText
 10
449.3018088984997
 20
24.05535718834494
 30
0.0
 40
4.0
  1
品番
 41
0.9
  7
ｽﾀｲﾙ1
100
AcDbText
  0
TEXT
  5
72E
330
1A
100
AcDbEntity
  8
ZUWAKU
100
AcDbText
 10
506.6766244256493
 20
24.05535718834494
 30
0.0
 40
4.0
  1
用紙
 41
0.9
  7
ｽﾀｲﾙ1
100
AcDbText
  0
LINE
  5
72F
330
1A
100
AcDbEntity
  8
ZUWAKU
100
AcDbLine
 10
648.6172024155032
 20
30.00000064995936
 30
0.0
 11
648.6172024155035
 21
0.8000006499594292
 31
0.0
  0
LINE
  5
730
330
1A
100
AcDbEntity
  8
ZUWAKU
100
AcDbLine
 10
648.8172024155033
 20
30.00000064995936
 30
0.0
 11
648.8172024155034
 21
0.8000006499594292
 31
0.0
  0
LINE
  5
731
330
1A
100
AcDbEntity
  8
ZUWAKU
100
AcDbLine
 10
648.4172024155034
 20
30.00000064995936
 30
0.0
 11
648.4172024155034
 21
0.8000006499594292
 31
0.0
  0
LINE
  5
732
330
1A
100
AcDbEntity
  8
ZUWAKU
100
AcDbLine
 10
552.7269556714111
 20
30.00000064995936
 30
0.0
 11
552.7269556714113
 21
0.8000006499594292
 31
0.0
  0
LINE
  5
733
330
1A
100
AcDbEntity
  8
ZUWAKU
100
AcDbLine
 10
552.9269556714111
 20
30.00000064995936
 30
0.0
 11
552.9269556714114
 21
0.8000006499594292
 31
0.0
  0
LINE
  5
734
330
1A
100
AcDbEntity
  8
ZUWAKU
100
AcDbLine
 10
552.5269556714113
 20
30.00000064995936
 30
0.0
 11
552.5269556714113
 21
0.8000006499594292
 31
0.0
  0
TEXT
  5
735
330
1A
100
AcDbEntity
  8
ZUWAKU
100
AcDbText
 10
650.2946474377129
 20
24.05535718834494
 30
0.0
 40
4.0
  1
DATE
 41
0.9
  7
ｽﾀｲﾙ1
100
AcDbText
  0
LINE
  5
736
330
1A
100
AcDbEntity
  8
ZUWAKU
100
AcDbLine
 10
697.2490104538401
 20
30.00000064995936
 30
0.0
 11
697.2490104538401
 21
0.8000006499594292
 31
0.0
  0
LINE
  5
737
330
1A
100
AcDbEntity
  8
ZUWAKU
100
AcDbLine
 10
697.4490104538402
 20
30.00000064995936
 30
0.0
 11
697.4490104538402
 21
0.8000006499594292
 31
0.0
  0
LINE
  5
738
330
1A
100
AcDbEntity
  8
ZUWAKU
100
AcDbLine
 10
697.64901045384
 20
30.00000064995936
 30
0.0
 11
697.6490104538402
 21
0.8000006499594292
 31
0.0
  0
LINE
  5
739
330
1A
100
AcDbEntity
  8
ZUWAKU
100
AcDbLine
 10
697.84901045384
 20
30.00000064995936
 30
0.0
 11
697.8490104538402
 21
0.8000006499594292
 31
0.0
  0
TEXT
  5
73A
330
1A
100
AcDbEntity
  8
ZUWAKU
100
AcDbText
 10
708.5280840975427
 20
17.55383998564616
 30
0.0
 40
6.0
  1
積水化学工業株式会社
 41
0.9
  7
ｽﾀｲﾙ1
100
AcDbText
  0
TEXT
  5
73B
330
1A
100
AcDbEntity
  8
ZUWAKU
100
AcDbText
 10
708.5280840975427
 20
6.648840963813427
 30
0.0
 40
6.0
  1
建材事業部
 41
0.9
  7
ｽﾀｲﾙ1
100
AcDbText
  0
VIEWPORT
  5
22
330
17
100
AcDbEntity
 67
     1
  8
0
100
AcDbViewport
 10
313.6808219178082
 20
148.5
 30
0.0
 40
627.3616438356165
 41
297.0
 68
     2
 69
     1
1001
ACAD
1000
MVIEW
1002
{
1070
    16
1010
0.0
1020
0.0
1030
0.0
1010
0.0
1020
0.0
1030
1.0
1040
0.0
1040
297.0
1040
313.6808219178082
1040
148.5
1040
50.0
1040
0.0
1040
0.0
1070
     0
1070
   100
1070
     1
1070
     0
1070
     0
1070
     0
1070
     0
1070
     0
1040
0.0
1040
0.0
1040
0.0
1040
1.0
1040
1.0
1040
10.0
1040
10.0
1070
     0
1002
{
1002
}
1002
}
  0
VIEWPORT
  5
64
330
17
100
AcDbEntity
 67
     1
  8
VIEWPORT
100
AcDbViewport
 10
210.0
 20
148.5
 30
0.0
 40
420.0
 41
297.0
 68
     1
 69
     2
1001
ACAD
1000
MVIEW
1002
{
1070
    16
1010
0.0
1020
0.0
1030
0.0
1010
0.0
1020
0.0
1030
1.0
1040
0.0
1040
605.8799999999998
1040
420.0
1040
297.0
1040
50.0
1040
0.0
1040
0.0
1070
     0
1070
   100
1070
     1
1070
     0
1070
     0
1070
     0
1070
     0
1070
     0
1040
0.0
1040
0.0
1040
0.0
1040
10.0
1040
10.0
1040
0.0
1040
0.0
1070
     0
1002
{
1002
}
1002
}
  0
ENDSEC
  0
SECTION
  2
OBJECTS
  0
DICTIONARY
  5
C
330
0
100
AcDbDictionary
  3
ACAD_GROUP
350
D
  3
ACAD_LAYOUT
350
586
  3
ACAD_MLINESTYLE
350
E
  3
ACAD_PLOTSETTINGS
350
587
  3
ACAD_PLOTSTYLENAME
350
584
  3
ACDBHEADERROUNDTRIPXREC
350
8B2
  0
DICTIONARY
  5
5B5
330
1A
100
AcDbDictionary
280
     1
  3
ACAD_LAYOUTSELFREF
360
8D4
  0
DICTIONARY
  5
5B3
330
17
100
AcDbDictionary
280
     1
  3
ACAD_LAYOUTSELFREF
360
8D3
  0
DICTIONARY
  5
D
102
{ACAD_REACTORS
330
C
102
}
330
C
100
AcDbDictionary
  0
DICTIONARY
  5
586
102
{ACAD_REACTORS
330
C
102
}
330
C
100
AcDbDictionary
  0
DICTIONARY
  5
E
102
{ACAD_REACTORS
330
C
102
}
330
C
100
AcDbDictionary
  3
STANDARD
350
13
  0
DICTIONARY
  5
587
102
{ACAD_REACTORS
330
C
102
}
330
C
100
AcDbDictionary
  0
ACDBDICTIONARYWDFLT
  5
584
102
{ACAD_REACTORS
330
C
102
}
330
C
100
AcDbDictionary
281
     1
  3
Normal
350
585
100
AcDbDictionaryWithDefault
340
585
1001
ACAD
1000
TREAT_AS_HARD
1070
     0
  0
DICTIONARY
  5
8B2
102
{ACAD_REACTORS
330
C
102
}
330
C
100
AcDbDictionary
  3
TSTACKALIGN
350
8B3
  3
TSTACKSIZE
350
8B4
  3
HYPERLINKBASE
350
8B5
  3
STYLESHEET
350
8B6
  3
LAYOUTDICT
350
8B7
  3
PLOTSETDICT
350
8B8
  3
PLOTSTYLNAMDICT
350
8B9
  3
LWETCUNION
350
8BA
  3
INSUNITS
350
8BB
  3
CEPSNTYPE
350
8BC
  3
FINGERPRINTGUID
350
8BD
  3
VERSIONGUID
350
8BE
  3
PSVPSCALE
350
8BF
  3
DIMSTYLEDATA
350
8C0
  3
PUCSORTHOREF
350
8C1
  3
PUCSORTHOVIEW
350
8C2
  3
PUCSBASE
350
8C3
  3
PUCSORGTOP
350
8C4
  3
PUCSORGBOTTOM
350
8C5
  3
PUCSORGLEFT
350
8C6
  3
PUCSORGRIGHT
350
8C7
  3
PUCSORGFRONT
350
8C8
  3
PUCSORGBACK
350
8C9
  3
UCSORTHOREF
350
8CA
  3
UCSORTHOVIEW
350
8CB
  3
UCSBASE
350
8CC
  3
UCSORGTOP
350
8CD
  3
UCSORGBOTTOM
350
8CE
  3
UCSORGLEFT
350
8CF
  3
UCSORGRIGHT
350
8D0
  3
UCSORGFRONT
350
8D1
  3
UCSORGBACK
350
8D2
  0
XRECORD
  5
8D4
102
{ACAD_REACTORS
330
5B5
102
}
330
5B5
100
AcDbXrecord
340
1A
  0
XRECORD
  5
8D3
102
{ACAD_REACTORS
330
5B3
102
}
330
5B3
100
AcDbXrecord
340
17
  0
MLINESTYLE
  5
13
102
{ACAD_REACTORS
330
E
102
}
330
E
100
AcDbMlineStyle
  2
STANDARD
 70
     0
  3

 62
     0
 51
90.0
 52
90.0
 71
     2
 49
0.5
 62
   256
  6
BYLAYER
 49
-0.5
 62
   256
  6
BYLAYER
  0
ACDBPLACEHOLDER
  5
585
102
{ACAD_REACTORS
330
584
102
}
330
584
100
AcDbPlaceHolder
280
     0
  0
XRECORD
  5
8B3
102
{ACAD_REACTORS
330
8B2
102
}
330
8B2
100
AcDbXrecord
 90
        1
  0
XRECORD
  5
8B4
102
{ACAD_REACTORS
330
8B2
102
}
330
8B2
100
AcDbXrecord
 90
       70
  0
XRECORD
  5
8B5
102
{ACAD_REACTORS
330
8B2
102
}
330
8B2
100
AcDbXrecord
  1

  0
XRECORD
  5
8B6
102
{ACAD_REACTORS
330
8B2
102
}
330
8B2
100
AcDbXrecord
  1
systemprinter.ctb
  0
XRECORD
  5
8B7
102
{ACAD_REACTORS
330
8B2
102
}
330
8B2
100
AcDbXrecord
340
586
  0
XRECORD
  5
8B8
102
{ACAD_REACTORS
330
8B2
102
}
330
8B2
100
AcDbXrecord
340
587
  0
XRECORD
  5
8B9
102
{ACAD_REACTORS
330
8B2
102
}
330
8B2
100
AcDbXrecord
340
584
  0
XRECORD
  5
8BA
102
{ACAD_REACTORS
330
8B2
102
}
330
8B2
100
AcDbXrecord
 90
    10781
  0
XRECORD
  5
8BB
102
{ACAD_REACTORS
330
8B2
102
}
330
8B2
100
AcDbXrecord
 90
        0
  0
XRECORD
  5
8BC
102
{ACAD_REACTORS
330
8B2
102
}
330
8B2
100
AcDbXrecord
 90
        0
  0
XRECORD
  5
8BD
102
{ACAD_REACTORS
330
8B2
102
}
330
8B2
100
AcDbXrecord
  1
{71CFFEE5-47CE-11D6-9330-0050DA99388B}
  0
XRECORD
  5
8BE
102
{ACAD_REACTORS
330
8B2
102
}
330
8B2
100
AcDbXrecord
  1
{4C12FA4B-9346-4F2F-BDB5-9315F666CCFA}
  0
XRECORD
  5
8BF
102
{ACAD_REACTORS
330
8B2
102
}
330
8B2
100
AcDbXrecord
 40
0.0
  0
XRECORD
  5
8C0
102
{ACAD_REACTORS
330
8B2
102
}
330
8B2
100
AcDbXrecord
1000
DSTYLE
1002
{
1070
   341
340
6D
1070
   343
340
6D
1070
   344
340
6D
1070
   371
 70
    -1
1070
   372
 70
    -1
1002
}
  0
XRECORD
  5
8C1
102
{ACAD_REACTORS
330
8B2
102
}
330
8B2
100
AcDbXrecord
340
0
  0
XRECORD
  5
8C2
102
{ACAD_REACTORS
330
8B2
102
}
330
8B2
100
AcDbXrecord
 70
     0
  0
XRECORD
  5
8C3
102
{ACAD_REACTORS
330
8B2
102
}
330
8B2
100
AcDbXrecord
340
0
  0
XRECORD
  5
8C4
102
{ACAD_REACTORS
330
8B2
102
}
330
8B2
100
AcDbXrecord
 10
0.0
 20
0.0
 30
0.0
  0
XRECORD
  5
8C5
102
{ACAD_REACTORS
330
8B2
102
}
330
8B2
100
AcDbXrecord
 10
0.0
 20
0.0
 30
0.0
  0
XRECORD
  5
8C6
102
{ACAD_REACTORS
330
8B2
102
}
330
8B2
100
AcDbXrecord
 10
0.0
 20
0.0
 30
0.0
  0
XRECORD
  5
8C7
102
{ACAD_REACTORS
330
8B2
102
}
330
8B2
100
AcDbXrecord
 10
0.0
 20
0.0
 30
0.0
  0
XRECORD
  5
8C8
102
{ACAD_REACTORS
330
8B2
102
}
330
8B2
100
AcDbXrecord
 10
0.0
 20
0.0
 30
0.0
  0
XRECORD
  5
8C9
102
{ACAD_REACTORS
330
8B2
102
}
330
8B2
100
AcDbXrecord
 10
0.0
 20
0.0
 30
0.0
  0
XRECORD
  5
8CA
102
{ACAD_REACTORS
330
8B2
102
}
330
8B2
100
AcDbXrecord
340
0
  0
XRECORD
  5
8CB
102
{ACAD_REACTORS
330
8B2
102
}
330
8B2
100
AcDbXrecord
 70
     0
  0
XRECORD
  5
8CC
102
{ACAD_REACTORS
330
8B2
102
}
330
8B2
100
AcDbXrecord
340
0
  0
XRECORD
  5
8CD
102
{ACAD_REACTORS
330
8B2
102
}
330
8B2
100
AcDbXrecord
 10
0.0
 20
0.0
 30
0.0
  0
XRECORD
  5
8CE
102
{ACAD_REACTORS
330
8B2
102
}
330
8B2
100
AcDbXrecord
 10
0.0
 20
0.0
 30
0.0
  0
XRECORD
  5
8CF
102
{ACAD_REACTORS
330
8B2
102
}
330
8B2
100
AcDbXrecord
 10
0.0
 20
0.0
 30
0.0
  0
XRECORD
  5
8D0
102
{ACAD_REACTORS
330
8B2
102
}
330
8B2
100
AcDbXrecord
 10
0.0
 20
0.0
 30
0.0
  0
XRECORD
  5
8D1
102
{ACAD_REACTORS
330
8B2
102
}
330
8B2
100
AcDbXrecord
 10
0.0
 20
0.0
 30
0.0
  0
XRECORD
  5
8D2
102
{ACAD_REACTORS
330
8B2
102
}
330
8B2
100
AcDbXrecord
 10
0.0
 20
0.0
 30
0.0
  0
ENDSEC
  0
EOF
