  0
SECTION
  2
HEADER
  9
$ACADVER
  1
AC1014
  9
$ACADMAINTVER
 70
     9
  9
$DWGCODEPAGE
  3
ANSI_932
  9
$INSBASE
 10
0.0
 20
0.0
 30
0.0
  9
$EXTMIN
 10
-0.0256333571728646
 20
-0.0181262487631102
 30
-0.0015258207003583
  9
$EXTMAX
 10
797.6000995350432
 20
551.6452344744309
 30
0.0000000349246037
  9
$LIMMIN
 10
0.0
 20
0.0
  9
$LIMMAX
 10
840.0
 20
594.0
  9
$ORTHOMODE
 70
     0
  9
$REGENMODE
 70
     1
  9
$FILLMODE
 70
     1
  9
$QTEXTMODE
 70
     0
  9
$MIRRTEXT
 70
     1
  9
$DRAGMODE
 70
     2
  9
$LTSCALE
 40
2.0
  9
$OSMODE
 70
    37
  9
$ATTMODE
 70
     1
  9
$TEXTSIZE
 40
5.0
  9
$TRACEWID
 40
1.0
  9
$TEXTSTYLE
  7
STANDARD
  9
$CLAYER
  8
SUNPOU
  9
$CELTYPE
  6
BYLAYER
  9
$CECOLOR
 62
   256
  9
$CELTSCALE
 40
1.0
  9
$DELOBJ
 70
     1
  9
$DISPSILH
 70
     0
  9
$DIMSCALE
 40
1.0
  9
$DIMASZ
 40
7.0
  9
$DIMEXO
 40
6.0
  9
$DIMDLI
 40
14.0
  9
$DIMRND
 40
0.0
  9
$DIMDLE
 40
0.0
  9
$DIMEXE
 40
3.0
  9
$DIMTP
 40
0.0
  9
$DIMTM
 40
0.0
  9
$DIMTXT
 40
6.0
  9
$DIMCEN
 40
150.0
  9
$DIMTSZ
 40
0.0
  9
$DIMTOL
 70
     0
  9
$DIMLIM
 70
     0
  9
$DIMTIH
 70
     0
  9
$DIMTOH
 70
     0
  9
$DIMSE1
 70
     0
  9
$DIMSE2
 70
     0
  9
$DIMTAD
 70
     3
  9
$DIMZIN
 70
     0
  9
$DIMBLK
  1

  9
$DIMASO
 70
     1
  9
$DIMSHO
 70
     1
  9
$DIMPOST
  1

  9
$DIMAPOST
  1

  9
$DIMALT
 70
     0
  9
$DIMALTD
 70
     2
  9
$DIMALTF
 40
25.4
  9
$DIMLFAC
 40
1.0
  9
$DIMTOFL
 70
     1
  9
$DIMTVP
 40
0.0
  9
$DIMTIX
 70
     0
  9
$DIMSOXD
 70
     0
  9
$DIMSAH
 70
     1
  9
$DIMBLK1
  1
OPEN
  9
$DIMBLK2
  1
OPEN
  9
$DIMSTYLE
  2
STANDARD
  9
$DIMCLRD
 70
   256
  9
$DIMCLRE
 70
   256
  9
$DIMCLRT
 70
   256
  9
$DIMTFAC
 40
1.0
  9
$DIMGAP
 40
2.0
  9
$DIMJUST
 70
     0
  9
$DIMSD1
 70
     0
  9
$DIMSD2
 70
     0
  9
$DIMTOLJ
 70
     1
  9
$DIMTZIN
 70
     0
  9
$DIMALTZ
 70
     0
  9
$DIMALTTZ
 70
     0
  9
$DIMFIT
 70
     3
  9
$DIMUPT
 70
     0
  9
$DIMUNIT
 70
     2
  9
$DIMDEC
 70
     0
  9
$DIMTDEC
 70
     0
  9
$DIMALTU
 70
     2
  9
$DIMALTTD
 70
     2
  9
$DIMTXSTY
  7
STANDARD
  9
$DIMAUNIT
 70
     0
  9
$LUNITS
 70
     2
  9
$LUPREC
 70
     4
  9
$SKETCHINC
 40
1.0
  9
$FILLETRAD
 40
0.5
  9
$AUNITS
 70
     0
  9
$AUPREC
 70
     0
  9
$MENU
  1
.
  9
$ELEVATION
 40
0.0
  9
$PELEVATION
 40
0.0
  9
$THICKNESS
 40
0.0
  9
$LIMCHECK
 70
     0
  9
$BLIPMODE
 70
     0
  9
$CHAMFERA
 40
20.0
  9
$CHAMFERB
 40
20.0
  9
$CHAMFERC
 40
40.0
  9
$CHAMFERD
 40
0.0
  9
$SKPOLY
 70
     0
  9
$TDCREATE
 40
2450994.354346065
  9
$TDUPDATE
 40
2454515.380635428
  9
$TDINDWG
 40
0.0362890741
  9
$TDUSRTIMER
 40
0.0362890741
  9
$USRTIMER
 70
     1
  9
$ANGBASE
 50
0.0
  9
$ANGDIR
 70
     0
  9
$PDMODE
 70
     1
  9
$PDSIZE
 40
0.0
  9
$PLINEWID
 40
0.0
  9
$COORDS
 70
     2
  9
$SPLFRAME
 70
     0
  9
$SPLINETYPE
 70
     6
  9
$SPLINESEGS
 70
     8
  9
$ATTDIA
 70
     0
  9
$ATTREQ
 70
     1
  9
$HANDLING
 70
 10241
  9
$HANDSEED
  5
990
  9
$SURFTAB1
 70
     6
  9
$SURFTAB2
 70
     6
  9
$SURFTYPE
 70
     6
  9
$SURFU
 70
     6
  9
$SURFV
 70
     6
  9
$UCSNAME
  2

  9
$UCSORG
 10
0.0
 20
0.0
 30
0.0
  9
$UCSXDIR
 10
1.0
 20
0.0
 30
0.0
  9
$UCSYDIR
 10
0.0
 20
1.0
 30
0.0
  9
$PUCSNAME
  2

  9
$PUCSORG
 10
0.0
 20
0.0
 30
0.0
  9
$PUCSXDIR
 10
1.0
 20
0.0
 30
0.0
  9
$PUCSYDIR
 10
0.0
 20
1.0
 30
0.0
  9
$USERI1
 70
     0
  9
$USERI2
 70
     0
  9
$USERI3
 70
     0
  9
$USERI4
 70
     0
  9
$USERI5
 70
     0
  9
$USERR1
 40
0.0
  9
$USERR2
 40
0.0
  9
$USERR3
 40
0.0
  9
$USERR4
 40
0.0
  9
$USERR5
 40
0.0
  9
$WORLDVIEW
 70
     1
  9
$SHADEDGE
 70
     3
  9
$SHADEDIF
 70
    70
  9
$TILEMODE
 70
     1
  9
$MAXACTVP
 70
    16
  9
$PINSBASE
 10
0.0
 20
0.0
 30
0.0
  9
$PLIMCHECK
 70
     0
  9
$PEXTMIN
 10
0.0
 20
0.0
 30
0.0
  9
$PEXTMAX
 10
420.0
 20
297.0
 30
0.0
  9
$PLIMMIN
 10
0.0
 20
0.0
  9
$PLIMMAX
 10
420.0
 20
297.0
  9
$UNITMODE
 70
     0
  9
$VISRETAIN
 70
     0
  9
$PLINEGEN
 70
     0
  9
$PSLTSCALE
 70
     1
  9
$TREEDEPTH
 70
  3020
  9
$PICKSTYLE
 70
     1
  9
$CMLSTYLE
  2
STANDARD
  9
$CMLJUST
 70
     0
  9
$CMLSCALE
 40
1.0
  9
$PROXYGRAPHICS
 70
     1
  9
$MEASUREMENT
 70
     1
  0
ENDSEC
  0
SECTION
  2
CLASSES
  0
CLASS
  1
ACDBDICTIONARYWDFLT
  2
AcDbDictionaryWithDefault
  3
AutoCAD 2000
 90
        0
280
     0
281
     0
  0
CLASS
  1
ACDBPLACEHOLDER
  2
AcDbPlaceHolder
  3
AutoCAD 2000
 90
        0
280
     0
281
     0
  0
CLASS
  1
LAYOUT
  2
AcDbLayout
  3
AutoCAD 2000
 90
        0
280
     0
281
     0
  0
CLASS
  1
LONG_TRANSACTION
  2
AcDbLongTransaction
  3
AutoCAD 2000
 90
        0
280
     0
281
     0
  0
CLASS
  1
LWPOLYLINE
  2
AcDbPolyline
  3
AutoCAD 2000
 90
        0
280
     0
281
     1
  0
CLASS
  1
HATCH
  2
AcDbHatch
  3
AutoCAD 2000
 90
        0
280
     0
281
     1
  0
CLASS
  1
XRECORD
  2
AcDbXrecord
  3
AutoCAD 2000
 90
        0
280
     0
281
     0
  0
CLASS
  1
LONG_TRANSACTION
  2
AcDbLongTransaction
  3
AutoCAD 2000
 90
        0
280
     0
281
     0
  0
CLASS
  1
LWPOLYLINE
  2
AcDbPolyline
  3
AutoCAD 2000
 90
        0
280
     0
281
     1
  0
CLASS
  1
HATCH
  2
AcDbHatch
  3
AutoCAD 2000
 90
        0
280
     0
281
     1
  0
CLASS
  1
XRECORD
  2
AcDbXrecord
  3
AutoCAD 2000
 90
        0
280
     0
281
     0
  0
ENDSEC
  0
SECTION
  2
TABLES
  0
TABLE
  2
VPORT
  5
8
330
0
100
AcDbSymbolTable
 70
     2
  0
VPORT
  5
96C
330
8
100
AcDbSymbolTableRecord
100
AcDbViewportTableRecord
  2
*ACTIVE
 70
     0
 10
0.0
 20
0.0
 11
1.0
 21
1.0
 12
419.1894521848682
 22
282.116527189812
 13
0.0
 23
0.0
 14
5.0
 24
5.0
 15
0.0
 25
0.0
 16
0.0
 26
0.0
 36
1.0
 17
0.0
 27
0.0
 37
0.0
 40
630.2785381478013
 41
1.570153061224489
 42
50.0
 43
0.0
 44
0.0
 50
0.0
 51
0.0
 71
     0
 72
   100
 73
     1
 74
     0
 75
     0
 76
     0
 77
     0
 78
     0
  0
ENDTAB
  0
TABLE
  2
LTYPE
  5
5
330
0
100
AcDbSymbolTable
 70
     5
  0
LTYPE
  5
14
330
5
100
AcDbSymbolTableRecord
100
AcDbLinetypeTableRecord
  2
BYBLOCK
 70
     0
  3

 72
    65
 73
     0
 40
0.0
  0
LTYPE
  5
15
330
5
100
AcDbSymbolTableRecord
100
AcDbLinetypeTableRecord
  2
BYLAYER
 70
     0
  3

 72
    65
 73
     0
 40
0.0
  0
LTYPE
  5
16
330
5
100
AcDbSymbolTableRecord
100
AcDbLinetypeTableRecord
  2
CONTINUOUS
 70
     0
  3
Solid line
 72
    65
 73
     0
 40
0.0
  0
LTYPE
  5
115
330
5
100
AcDbSymbolTableRecord
100
AcDbLinetypeTableRecord
  2
PHANTOM
 70
     0
  3
______  __  __  ______  __  __  ______  __  __ 
 72
    65
 73
     6
 40
2.5
 49
1.25
 74
     0
 49
-0.25
 74
     0
 49
0.25
 74
     0
 49
-0.25
 74
     0
 49
0.25
 74
     0
 49
-0.25
 74
     0
  0
LTYPE
  5
135
330
5
100
AcDbSymbolTableRecord
100
AcDbLinetypeTableRecord
  2
CENTER
 70
     0
  3
____ _ ____ _ ____ _ ____ _ ____ _ ____ _ ____ 
 72
    65
 73
     4
 40
2.0
 49
1.25
 74
     0
 49
-0.25
 74
     0
 49
0.25
 74
     0
 49
-0.25
 74
     0
  0
LTYPE
  5
1AD
330
5
100
AcDbSymbolTableRecord
100
AcDbLinetypeTableRecord
  2
CENTER2
 70
     0
  3
___ _ ___ _ ___ _ ___ _ ___ _ ___ _ ___ _ ___ _
 72
    65
 73
     4
 40
1.125
 49
0.75
 74
     0
 49
-0.125
 74
     0
 49
0.125
 74
     0
 49
-0.125
 74
     0
  0
LTYPE
  5
1AF
330
5
100
AcDbSymbolTableRecord
100
AcDbLinetypeTableRecord
  2
ACAD_ISO04W100
 70
     0
  3
____ . ____ . ____ . ____ . ____ . ____ . ____ 
 72
    65
 73
     4
 40
30.5
 49
24.0
 74
     0
 49
-3.0
 74
     0
 49
0.5
 74
     0
 49
-3.0
 74
     0
  0
ENDTAB
  0
TABLE
  2
LAYER
  5
2
330
0
100
AcDbSymbolTable
 70
     9
  0
LAYER
  5
F
330
2
100
AcDbSymbolTableRecord
100
AcDbLayerTableRecord
  2
0
 70
     0
 62
     7
  6
CONTINUOUS
  0
LAYER
  5
62
330
2
100
AcDbSymbolTableRecord
100
AcDbLayerTableRecord
  2
VIEWPORT
 70
     0
 62
     7
  6
CONTINUOUS
  0
LAYER
  5
65
330
2
100
AcDbSymbolTableRecord
100
AcDbLayerTableRecord
  2
ZUWAKU
 70
     0
 62
     7
  6
CONTINUOUS
  0
LAYER
  5
154
330
2
100
AcDbSymbolTableRecord
100
AcDbLayerTableRecord
  2
NOKITOI
 70
     0
 62
     8
  6
PHANTOM
  0
LAYER
  5
155
330
2
100
AcDbSymbolTableRecord
100
AcDbLayerTableRecord
  2
SUNPOU
 70
     0
 62
     4
  6
CONTINUOUS
  0
LAYER
  5
156
330
2
100
AcDbSymbolTableRecord
100
AcDbLayerTableRecord
  2
SEIHIN
 70
     0
 62
     3
  6
CONTINUOUS
  0
LAYER
  5
157
330
2
100
AcDbSymbolTableRecord
100
AcDbLayerTableRecord
  2
CENTER_L
 70
     0
 62
     1
  6
CENTER
  0
LAYER
  5
4B6
330
2
100
AcDbSymbolTableRecord
100
AcDbLayerTableRecord
  2
DEFPOINTS
 70
     0
 62
     7
  6
CONTINUOUS
  0
LAYER
  5
687
330
2
100
AcDbSymbolTableRecord
100
AcDbLayerTableRecord
  2
MOJI
 70
     0
 62
     2
  6
CONTINUOUS
  0
ENDTAB
  0
TABLE
  2
STYLE
  5
3
330
0
100
AcDbSymbolTable
 70
     2
  0
STYLE
  5
10
330
3
100
AcDbSymbolTableRecord
100
AcDbTextStyleTableRecord
  2
STANDARD
 70
     0
 40
0.0
 41
1.0
 50
0.0
 71
     0
 42
5.0
  3
TXT
  4
bigfont.shx
  0
STYLE
  5
688
330
3
100
AcDbSymbolTableRecord
100
AcDbTextStyleTableRecord
  2
ｽﾀｲﾙ1
 70
     0
 40
0.0
 41
1.0
 50
0.0
 71
     0
 42
2.5
  3
MS PGothic.ttf
  4

1001
ACAD
1000
MS PGothic
1071
    32818
  0
ENDTAB
  0
TABLE
  2
VIEW
  5
6
330
0
100
AcDbSymbolTable
 70
     0
  0
ENDTAB
  0
TABLE
  2
UCS
  5
7
330
0
100
AcDbSymbolTable
 70
     0
  0
ENDTAB
  0
TABLE
  2
APPID
  5
9
330
0
100
AcDbSymbolTable
 70
     1
  0
APPID
  5
11
330
9
100
AcDbSymbolTableRecord
100
AcDbRegAppTableRecord
  2
ACAD
 70
     0
  0
ENDTAB
  0
TABLE
  2
DIMSTYLE
  5
A
330
0
100
AcDbSymbolTable
 70
     1
  0
DIMSTYLE
105
1D
102
{ACAD_REACTORS
330
4E4
330
4F3
330
51D
330
544
330
551
330
597
330
5B9
102
}
330
A
100
AcDbSymbolTableRecord
100
AcDbDimStyleTableRecord
  2
STANDARD
 70
     0
  3

  4

  5

  6

  7

 40
1.0
 41
0.18
 42
0.0625
 43
0.38
 44
0.18
 45
0.0
 46
0.0
 47
0.0
 48
0.0
140
0.18
141
0.09
142
0.0
143
25.4
144
1.0
145
0.0
146
1.0
147
0.09
 71
     0
 72
     0
 73
     1
 74
     1
 75
     0
 76
     0
 77
     0
 78
     0
170
     0
171
     2
172
     0
173
     0
174
     0
175
     0
176
     0
177
     0
178
     0
270
     2
271
     4
272
     4
273
     2
274
     2
340
10
275
     0
280
     0
281
     0
282
     0
283
     1
284
     0
285
     0
286
     0
287
     3
288
     0
  0
ENDTAB
  0
TABLE
  2
BLOCK_RECORD
  5
1
330
0
100
AcDbSymbolTable
 70
     9
  0
BLOCK_RECORD
  5
1A
102
{ACAD_XDICTIONARY
360
679
102
}
330
1
100
AcDbSymbolTableRecord
100
AcDbBlockTableRecord
  2
*MODEL_SPACE
  0
BLOCK_RECORD
  5
17
102
{ACAD_XDICTIONARY
360
677
102
}
330
1
100
AcDbSymbolTableRecord
100
AcDbBlockTableRecord
  2
*PAPER_SPACE
  0
BLOCK_RECORD
  5
6D
330
1
100
AcDbSymbolTableRecord
100
AcDbBlockTableRecord
  2
_OPEN
  0
BLOCK_RECORD
  5
163
330
1
100
AcDbSymbolTableRecord
100
AcDbBlockTableRecord
  2
A$C1305
  0
BLOCK_RECORD
  5
4D6
330
1
100
AcDbSymbolTableRecord
100
AcDbBlockTableRecord
  2
*D2
  0
BLOCK_RECORD
  5
4E5
330
1
100
AcDbSymbolTableRecord
100
AcDbBlockTableRecord
  2
*D3
  0
BLOCK_RECORD
  5
511
330
1
100
AcDbSymbolTableRecord
100
AcDbBlockTableRecord
  2
*D4
  0
BLOCK_RECORD
  5
538
330
1
100
AcDbSymbolTableRecord
100
AcDbBlockTableRecord
  2
*D5
  0
BLOCK_RECORD
  5
545
330
1
100
AcDbSymbolTableRecord
100
AcDbBlockTableRecord
  2
*D6
  0
BLOCK_RECORD
  5
58B
330
1
100
AcDbSymbolTableRecord
100
AcDbBlockTableRecord
  2
*D7
  0
BLOCK_RECORD
  5
5AB
330
1
100
AcDbSymbolTableRecord
100
AcDbBlockTableRecord
  2
*D8
  0
ENDTAB
  0
ENDSEC
  0
SECTION
  2
BLOCKS
  0
BLOCK
  5
1B
330
1A
100
AcDbEntity
  8
0
100
AcDbBlockBegin
  2
*MODEL_SPACE
 70
     0
 10
0.0
 20
0.0
 30
0.0
  3
*MODEL_SPACE
  1

  0
ENDBLK
  5
1C
330
1A
100
AcDbEntity
  8
0
100
AcDbBlockEnd
  0
BLOCK
  5
18
330
17
100
AcDbEntity
 67
     1
  8
0
100
AcDbBlockBegin
  2
*PAPER_SPACE
 70
     0
 10
0.0
 20
0.0
 30
0.0
  3
*PAPER_SPACE
  1

  0
ENDBLK
  5
19
330
17
100
AcDbEntity
 67
     1
  8
0
100
AcDbBlockEnd
  0
BLOCK
  5
6E
330
6D
100
AcDbEntity
  8
0
100
AcDbBlockBegin
  2
_OPEN
 70
     0
 10
0.0
 20
0.0
 30
0.0
  3
_OPEN
  1

  0
LINE
  5
6F
330
6D
100
AcDbEntity
  8
0
  6
BYBLOCK
 62
     0
100
AcDbLine
 10
-1.0
 20
0.1666666666666666
 30
0.0
 11
0.0
 21
0.0
 31
0.0
  0
LINE
  5
70
330
6D
100
AcDbEntity
  8
0
  6
BYBLOCK
 62
     0
100
AcDbLine
 10
0.0
 20
0.0
 30
0.0
 11
-1.0
 21
-0.1666666666666666
 31
0.0
  0
LINE
  5
71
330
6D
100
AcDbEntity
  8
0
  6
BYBLOCK
 62
     0
100
AcDbLine
 10
0.0
 20
0.0
 30
0.0
 11
-1.0
 21
0.0
 31
0.0
  0
ENDBLK
  5
72
330
6D
100
AcDbEntity
  8
0
100
AcDbBlockEnd
  0
BLOCK
  5
1AB
330
163
100
AcDbEntity
  8
0
100
AcDbBlockBegin
  2
A$C1305
 70
     0
 10
0.0
 20
0.0
 30
0.0
  3
A$C1305
  1

  0
LINE
  5
164
330
163
100
AcDbEntity
  8
NOKITOI
  6
PHANTOM
 62
     8
 48
5.0
100
AcDbLine
 10
29.18435908443393
 20
10.10187063730222
 30
0.0
 11
19.27365908443391
 21
10.10187063730222
 31
0.0
  0
LINE
  5
165
330
163
100
AcDbEntity
  8
NOKITOI
  6
PHANTOM
 62
     8
 48
5.0
100
AcDbLine
 10
90.2981590844339
 20
0.1120706373022813
 30
0.0
 11
24.06755908443392
 21
0.1121706373021425
 31
0.0
  0
LINE
  5
166
330
163
100
AcDbEntity
  8
NOKITOI
  6
PHANTOM
 62
     8
 48
5.0
100
AcDbLine
 10
24.06755908443392
 20
0.1121706373021425
 30
0.0
 11
90.2981590844339
 21
0.1120706373022813
 31
0.0
  0
LINE
  5
167
330
163
100
AcDbEntity
  8
NOKITOI
  6
PHANTOM
 62
     8
 48
5.0
100
AcDbLine
 10
13.05735908443387
 20
12.22087063730214
 30
0.0
 11
7.218759084433713
 21
39.95217063730228
 31
0.0
  0
LINE
  5
168
330
163
100
AcDbEntity
  8
NOKITOI
  6
PHANTOM
 62
     8
 48
5.0
100
AcDbLine
 10
14.16595908443378
 20
13.23377063730208
 30
0.0
 11
8.234959084433853
 21
41.4036706373023
 31
0.0
  0
ARC
  5
169
330
163
100
AcDbEntity
  8
NOKITOI
  6
PHANTOM
 62
     8
 48
5.0
100
AcDbCircle
 10
15.13957896620524
 20
13.43874830022218
 30
0.0
 40
0.995060928010462
100
AcDbArc
 50
191.8877567214145
 51
251.4524867922934
  0
ARC
  5
16A
330
163
100
AcDbEntity
  8
NOKITOI
  6
PHANTOM
 62
     8
 48
5.0
100
AcDbCircle
 10
10.29733292322475
 20
-0.9941694721817384
 30
0.0
 40
14.22848866365036
100
AcDbArc
 50
51.52529185494254
 51
71.45345265407107
  0
ARC
  5
16B
330
163
100
AcDbEntity
  8
NOKITOI
  6
PHANTOM
 62
     8
 48
5.0
100
AcDbCircle
 10
10.29726615422066
 20
-0.9941373355915743
 30
0.0
 40
12.93471022655885
100
AcDbArc
 50
8.676219579622015
 51
74.45245455808978
  0
ARC
  5
16C
330
163
100
AcDbEntity
  8
NOKITOI
  6
PHANTOM
 62
     8
 48
5.0
100
AcDbCircle
 10
24.06756669845151
 20
1.107164097058216
 30
0.0
 40
0.9949934597852239
100
AcDbArc
 50
188.67611256506
 51
269.9995615538235
  0
ARC
  5
16D
330
163
100
AcDbEntity
  8
NOKITOI
  6
PHANTOM
 62
     8
 48
5.0
100
AcDbCircle
 10
19.27366239679292
 20
10.30086948151677
 30
0.0
 40
0.1989988442421132
100
AcDbArc
 50
231.5280949042412
 51
269.9990463050557
  0
ARC
  5
16E
330
163
100
AcDbEntity
  8
NOKITOI
  6
PHANTOM
 62
     8
 48
5.0
100
AcDbCircle
 10
14.03099910882133
 20
12.42582797307631
 30
0.0
 40
0.9949785960395137
100
AcDbArc
 50
191.8875585738773
 51
254.4495841050105
  0
LINE
  5
16F
330
163
100
AcDbEntity
  8
NOKITOI
  6
PHANTOM
 62
     8
 48
5.0
100
AcDbLine
 10
27.88425908443378
 20
1.91217063730221
 30
0.0
 11
27.88425908443378
 21
8.439470637302292
 31
0.0
  0
LINE
  5
170
330
163
100
AcDbEntity
  8
NOKITOI
  6
PHANTOM
 62
     8
 48
5.0
100
AcDbLine
 10
28.37925908443378
 20
9.296770637302074
 30
0.0
 11
27.88425908443378
 21
8.439470637302292
 31
0.0
  0
LINE
  5
171
330
163
100
AcDbEntity
  8
NOKITOI
  6
PHANTOM
 62
     8
 48
5.0
100
AcDbLine
 10
28.37925908443378
 20
9.296770637302074
 30
0.0
 11
27.52195908443377
 21
8.801870637302272
 31
0.0
  0
ARC
  5
172
330
163
100
AcDbEntity
  8
NOKITOI
  6
PHANTOM
 62
     8
 48
5.0
100
AcDbCircle
 10
21.30106274373702
 20
8.501878629181817
 30
0.0
 40
0.2999920081427447
100
AcDbArc
 50
90.00069889403098
 51
220.79672841758
  0
ARC
  5
173
330
163
100
AcDbEntity
  8
NOKITOI
  6
PHANTOM
 62
     8
 48
5.0
100
AcDbCircle
 10
10.29726428144715
 20
-0.9941399784659097
 30
0.0
 40
14.23472333170272
100
AcDbArc
 50
11.37541821407357
 51
40.79334907830751
  0
LINE
  5
174
330
163
100
AcDbEntity
  8
NOKITOI
  6
PHANTOM
 62
     8
 48
5.0
100
AcDbLine
 10
27.52195908443377
 20
8.801870637302272
 30
0.0
 11
21.30105908443386
 21
8.801870637302272
 31
0.0
  0
LINE
  5
175
330
163
100
AcDbEntity
  8
NOKITOI
  6
PHANTOM
 62
     8
 48
5.0
100
AcDbLine
 10
24.74245908443378
 20
1.412170637302097
 30
0.0
 11
27.38425908443378
 21
1.412170637302097
 31
0.0
  0
ARC
  5
176
330
163
100
AcDbEntity
  8
NOKITOI
  6
PHANTOM
 62
     8
 48
5.0
100
AcDbCircle
 10
24.74253604330567
 20
1.912189501590432
 30
0.0
 40
0.5000188648192144
100
AcDbArc
 50
191.3867288554411
 51
270.0026402191985
  0
ARC
  5
177
330
163
100
AcDbEntity
  8
NOKITOI
  6
PHANTOM
 62
     8
 48
5.0
100
AcDbCircle
 10
27.38425908443366
 20
1.91217063730221
 30
0.0
 40
0.5000000000000569
100
AcDbArc
 50
270.0000000000065
 51
0.0000000000065138
  0
LINE
  5
178
330
163
100
AcDbEntity
  8
NOKITOI
  6
PHANTOM
 62
     8
 48
5.0
100
AcDbLine
 10
0.1808590844339051
 20
41.10517063730208
 30
0.0
 11
0.1808590844339051
 21
49.11467063730208
 31
0.0
  0
ARC
  5
179
330
163
100
AcDbEntity
  8
NOKITOI
  6
PHANTOM
 62
     8
 48
5.0
100
AcDbCircle
 10
3.6160590844338
 20
47.32377063730223
 30
0.0
 40
1.492399999999918
100
AcDbArc
 50
0.0000000000021823
 51
90.00000000000218
  0
ARC
  5
17A
330
163
100
AcDbEntity
  8
NOKITOI
  6
PHANTOM
 62
     8
 48
5.0
100
AcDbCircle
 10
2.966809084433748
 20
47.32372063730212
 30
0.0
 40
1.49245000083754
100
AcDbArc
 50
89.99808047909008
 51
179.99808047909
  0
LINE
  5
17B
330
163
100
AcDbEntity
  8
NOKITOI
  6
PHANTOM
 62
     8
 48
5.0
100
AcDbLine
 10
6.401959084433769
 20
49.11467063730208
 30
0.0
 11
6.401959084433769
 21
44.90987063730222
 31
0.0
  0
LINE
  5
17C
330
163
100
AcDbEntity
  8
NOKITOI
  6
PHANTOM
 62
     8
 48
5.0
100
AcDbLine
 10
3.464359084433908
 20
41.4036706373023
 30
0.0
 11
8.234959084433853
 21
41.4036706373023
 31
0.0
  0
LINE
  5
17D
330
163
100
AcDbEntity
  8
NOKITOI
  6
PHANTOM
 62
     8
 48
5.0
100
AcDbLine
 10
7.024059084433929
 20
40.11017063730207
 30
0.0
 11
1.175859084433909
 21
40.11017063730207
 31
0.0
  0
ARC
  5
17E
330
163
100
AcDbEntity
  8
NOKITOI
  6
PHANTOM
 62
     8
 48
5.0
100
AcDbCircle
 10
3.464309084433807
 20
43.39362063730232
 30
0.0
 40
1.989950000628206
100
AcDbArc
 50
180.0014396286234
 51
270.0014396286234
  0
LINE
  5
17F
330
163
100
AcDbEntity
  8
NOKITOI
  6
PHANTOM
 62
     8
 48
5.0
100
AcDbLine
 10
1.474359084433785
 20
47.32377063730223
 30
0.0
 11
1.474359084433785
 21
43.39357063730221
 31
0.0
  0
ARC
  5
180
330
163
100
AcDbEntity
  8
NOKITOI
  6
PHANTOM
 62
     8
 48
5.0
100
AcDbCircle
 10
1.175859084433909
 20
41.10517063730208
 30
0.0
 40
0.9950000000000045
100
AcDbArc
 50
180.0
 51
270.0
  0
LINE
  5
181
330
163
100
AcDbEntity
  8
NOKITOI
  6
PHANTOM
 62
     8
 48
5.0
100
AcDbLine
 10
5.108559084433863
 20
44.90987063730222
 30
0.0
 11
5.108559084433863
 21
47.32377063730223
 31
0.0
  0
LINE
  5
182
330
163
100
AcDbEntity
  8
NOKITOI
  6
PHANTOM
 62
     8
 48
5.0
100
AcDbLine
 10
6.401959084433769
 20
44.90987063730222
 30
0.0
 11
5.108559084433863
 21
44.90987063730222
 31
0.0
  0
ARC
  5
183
330
163
100
AcDbEntity
  8
NOKITOI
  6
PHANTOM
 62
     8
 48
5.0
100
AcDbCircle
 10
7.024040641819624
 20
39.91118560073897
 30
0.0
 40
0.1989850374177657
100
AcDbArc
 50
11.88631382809314
 51
89.99468963106556
  0
LINE
  5
184
330
163
100
AcDbEntity
  8
NOKITOI
  6
PHANTOM
 62
     8
 48
5.0
100
AcDbLine
 10
1.175859084433909
 20
50.1096706373022
 30
0.0
 11
5.407059084433853
 21
50.1096706373022
 31
0.0
  0
ARC
  5
185
330
163
100
AcDbEntity
  8
NOKITOI
  6
PHANTOM
 62
     8
 48
5.0
100
AcDbCircle
 10
1.175859084433909
 20
49.1146706373022
 30
0.0
 40
0.9950000000000613
100
AcDbArc
 50
90.00000000000328
 51
180.0000000000032
  0
LINE
  5
186
330
163
100
AcDbEntity
  8
NOKITOI
  6
PHANTOM
 62
     8
 48
5.0
100
AcDbLine
 10
3.6160590844338
 20
48.81617063730209
 30
0.0
 11
2.966859084433849
 21
48.81617063730209
 31
0.0
  0
ARC
  5
187
330
163
100
AcDbEntity
  8
NOKITOI
  6
PHANTOM
 62
     8
 48
5.0
100
AcDbCircle
 10
5.407009084433752
 20
49.11472063730224
 30
0.0
 40
0.9949500012563332
100
AcDbArc
 50
359.9971206704048
 51
89.99712067040489
  0
LINE
  5
188
330
163
100
AcDbEntity
  8
NOKITOI
  6
PHANTOM
 62
     8
 48
5.0
100
AcDbLine
 10
85.18155908443374
 20
10.10157063730207
 30
0.0
 11
95.16205908443373
 21
10.10147063730221
 31
0.0
  0
ARC
  5
189
330
163
100
AcDbEntity
  8
NOKITOI
  6
PHANTOM
 62
     8
 48
5.0
100
AcDbCircle
 10
104.068453551022
 20
-0.9942356029631582
 30
0.0
 40
12.93461262833301
100
AcDbArc
 50
105.5476727870198
 51
171.3237222126366
  0
ARC
  5
18A
330
163
100
AcDbEntity
  8
NOKITOI
  6
PHANTOM
 62
     8
 48
5.0
100
AcDbCircle
 10
104.0683479281129
 20
-0.994141944171929
 30
0.0
 40
12.93449408578155
100
AcDbArc
 50
105.5473332353544
 51
171.3240617643019
  0
LINE
  5
18B
330
163
100
AcDbEntity
  8
NOKITOI
  6
PHANTOM
 62
     8
 48
5.0
100
AcDbLine
 10
29.38325908443392
 20
1.405570637302162
 30
0.0
 11
84.98245908443392
 21
1.405470637302073
 31
0.0
  0
ARC
  5
18C
330
163
100
AcDbEntity
  8
NOKITOI
  6
PHANTOM
 62
     8
 48
5.0
100
AcDbCircle
 10
29.38325908443392
 20
1.604570637302231
 30
0.0
 40
0.1990000000000691
100
AcDbArc
 50
179.9999999999836
 51
269.9999999999836
  0
LINE
  5
18D
330
163
100
AcDbEntity
  8
NOKITOI
  6
PHANTOM
 62
     8
 48
5.0
100
AcDbLine
 10
29.18425908443385
 20
1.604570637302231
 30
0.0
 11
29.18435908443393
 21
10.10187063730222
 31
0.0
  0
LINE
  5
18E
330
163
100
AcDbEntity
  8
NOKITOI
  6
PHANTOM
 62
     8
 48
5.0
100
AcDbLine
 10
80.98245908443391
 20
1.405470637302073
 30
0.0
 11
66.22805908443377
 21
1.405470637302073
 31
0.0
  0
ARC
  5
18F
330
163
100
AcDbEntity
  8
NOKITOI
  6
PHANTOM
 62
     8
 48
5.0
100
AcDbCircle
 10
90.2982090125298
 20
1.107113524900853
 30
0.0
 40
0.9950428888512103
100
AcDbArc
 50
269.9971250795227
 51
351.3214426795068
  0
LINE
  5
190
330
163
100
AcDbEntity
  8
NOKITOI
  6
PHANTOM
 62
     8
 48
5.0
100
AcDbLine
 10
85.98655908443367
 20
9.296470637302149
 30
0.0
 11
86.4815590844339
 21
8.43917063730214
 31
0.0
  0
LINE
  5
191
330
163
100
AcDbEntity
  8
NOKITOI
  6
PHANTOM
 62
     8
 48
5.0
100
AcDbLine
 10
85.98655908443367
 20
9.296470637302149
 30
0.0
 11
86.84385908443392
 21
8.801470637302145
 31
0.0
  0
ARC
  5
192
330
163
100
AcDbEntity
  8
NOKITOI
  6
PHANTOM
 62
     8
 48
5.0
100
AcDbCircle
 10
84.98240908443381
 20
1.604520637302186
 30
0.0
 40
0.1990500062799141
100
AcDbArc
 50
270.0143923080611
 51
0.014392308061115
  0
LINE
  5
193
330
163
100
AcDbEntity
  8
NOKITOI
  6
PHANTOM
 62
     8
 48
5.0
100
AcDbLine
 10
85.18145908443386
 20
1.604570637302231
 30
0.0
 11
85.18155908443374
 21
10.10157063730207
 31
0.0
  0
LINE
  5
194
330
163
100
AcDbEntity
  8
NOKITOI
  6
PHANTOM
 62
     8
 48
5.0
100
AcDbLine
 10
86.4815590844339
 20
8.43917063730214
 30
0.0
 11
86.4815590844339
 21
1.912070637302122
 31
0.0
  0
ARC
  5
195
330
163
100
AcDbEntity
  8
NOKITOI
  6
PHANTOM
 62
     8
 48
5.0
100
AcDbCircle
 10
104.0684175391246
 20
-0.9943142272541081
 30
0.0
 40
14.23462403148678
100
AcDbArc
 50
139.2075062369005
 51
168.6237859483839
  0
LINE
  5
196
330
163
100
AcDbEntity
  8
NOKITOI
  6
PHANTOM
 62
     8
 48
5.0
100
AcDbLine
 10
93.06445908443368
 20
8.801470637302145
 30
0.0
 11
86.84385908443392
 21
8.801470637302145
 31
0.0
  0
ARC
  5
197
330
163
100
AcDbEntity
  8
NOKITOI
  6
PHANTOM
 62
     8
 48
5.0
100
AcDbCircle
 10
93.06447276228515
 20
8.501440773608294
 30
0.0
 40
0.3000298640056128
100
AcDbArc
 50
319.2190584222776
 51
90.00261201719956
  0
LINE
  5
198
330
163
100
AcDbEntity
  8
NOKITOI
  6
PHANTOM
 62
     8
 48
5.0
100
AcDbLine
 10
89.62325908443393
 20
1.412070637302235
 30
0.0
 11
86.98155908443391
 21
1.412070637302235
 31
0.0
  0
ARC
  5
199
330
163
100
AcDbEntity
  8
NOKITOI
  6
PHANTOM
 62
     8
 48
5.0
100
AcDbCircle
 10
86.9815590844338
 20
1.912070637302235
 30
0.0
 40
0.4999999999999432
100
AcDbArc
 50
180.0000000000065
 51
270.0000000000065
  0
ARC
  5
19A
330
163
100
AcDbEntity
  8
NOKITOI
  6
PHANTOM
 62
     8
 48
5.0
100
AcDbCircle
 10
89.62328212556213
 20
1.912089501590457
 30
0.0
 40
0.5000188648190603
100
AcDbArc
 50
269.9973597808039
 51
348.6132711445602
  0
LINE
  5
19B
330
163
100
AcDbEntity
  8
NOKITOI
  6
PHANTOM
 62
     8
 48
5.0
100
AcDbLine
 10
100.1997590844339
 20
13.23317063730223
 30
0.0
 11
105.6547590844337
 21
39.14207063730214
 31
0.0
  0
LINE
  5
19C
330
163
100
AcDbEntity
  8
NOKITOI
  6
PHANTOM
 62
     8
 48
5.0
100
AcDbLine
 10
101.3084590844339
 20
12.22067063730207
 30
0.0
 11
107.1471590844337
 21
39.95207063730208
 31
0.0
  0
ARC
  5
19D
330
163
100
AcDbEntity
  8
NOKITOI
  6
PHANTOM
 62
     8
 48
5.0
100
AcDbCircle
 10
99.22620265398496
 20
13.43821958907108
 30
0.0
 40
0.9950135261271753
100
AcDbArc
 50
288.5445751594487
 51
348.1074736523478
  0
ARC
  5
19E
330
163
100
AcDbEntity
  8
NOKITOI
  6
PHANTOM
 62
     8
 48
5.0
100
AcDbCircle
 10
104.0684735879824
 20
-0.9942214385093848
 30
0.0
 40
14.22809199964113
100
AcDbArc
 50
108.5474584936555
 51
128.7537062451648
  0
ARC
  5
19F
330
163
100
AcDbEntity
  8
NOKITOI
  6
PHANTOM
 62
     8
 48
5.0
100
AcDbCircle
 10
100.334833421286
 20
12.42574988868966
 30
0.0
 40
0.9949690575286499
100
AcDbArc
 50
285.5437330810338
 51
348.1110361155302
  0
LINE
  5
1A0
330
163
100
AcDbEntity
  8
NOKITOI
  6
PHANTOM
 62
     8
 48
5.0
100
AcDbLine
 10
112.8850590844339
 20
41.40997063730208
 30
0.0
 11
107.4607590844339
 21
41.41007063730216
 31
0.0
  0
LINE
  5
1A1
330
163
100
AcDbEntity
  8
NOKITOI
  6
PHANTOM
 62
     8
 48
5.0
100
AcDbLine
 10
113.1900590844338
 20
50.10957063730223
 30
0.0
 11
107.9863590844338
 21
50.10947063730213
 31
0.0
  0
LINE
  5
1A2
330
163
100
AcDbEntity
  8
NOKITOI
  6
PHANTOM
 62
     8
 48
5.0
100
AcDbLine
 10
112.8850590844339
 20
48.80947063730229
 30
0.0
 11
109.0186590844336
 21
48.80947063730229
 31
0.0
  0
LINE
  5
1A3
330
163
100
AcDbEntity
  8
NOKITOI
  6
PHANTOM
 62
     8
 48
5.0
100
AcDbLine
 10
107.3418590844337
 20
40.10997063730224
 30
0.0
 11
113.1900590844338
 21
40.10997063730224
 31
0.0
  0
LINE
  5
1A4
330
163
100
AcDbEntity
  8
NOKITOI
  6
PHANTOM
 62
     8
 48
5.0
100
AcDbLine
 10
109.0186590844336
 20
48.80947063730229
 30
0.0
 11
107.4607590844339
 21
41.41007063730216
 31
0.0
  0
LINE
  5
1A5
330
163
100
AcDbEntity
  8
NOKITOI
  6
PHANTOM
 62
     8
 48
5.0
100
AcDbLine
 10
105.6547590844337
 20
39.14207063730214
 30
0.0
 11
107.9638590844336
 21
50.10947063730213
 31
0.0
  0
ARC
  5
1A6
330
163
100
AcDbEntity
  8
NOKITOI
  6
PHANTOM
 62
     8
 48
5.0
100
AcDbCircle
 10
107.341877527048
 20
39.91108560073894
 30
0.0
 40
0.1989850374179911
100
AcDbArc
 50
90.00531036897127
 51
168.1136861719432
  0
LINE
  5
1A7
330
163
100
AcDbEntity
  8
NOKITOI
  6
PHANTOM
 62
     8
 48
5.0
100
AcDbLine
 10
114.1850590844338
 20
41.10497063730213
 30
0.0
 11
114.1850590844338
 21
49.1145706373021
 31
0.0
  0
LINE
  5
1A8
330
163
100
AcDbEntity
  8
NOKITOI
  6
PHANTOM
 62
     8
 48
5.0
100
AcDbLine
 10
112.8850590844339
 20
41.40997063730208
 30
0.0
 11
112.8850590844339
 21
48.80947063730229
 31
0.0
  0
ARC
  5
1A9
330
163
100
AcDbEntity
  8
NOKITOI
  6
PHANTOM
 62
     8
 48
5.0
100
AcDbCircle
 10
113.1900590844339
 20
41.10497063730218
 30
0.0
 40
0.9949999999999192
100
AcDbArc
 50
269.9999999999951
 51
359.9999999999951
  0
ARC
  5
1AA
330
163
100
AcDbEntity
  8
NOKITOI
  6
PHANTOM
 62
     8
 48
5.0
100
AcDbCircle
 10
113.1900590844338
 20
49.11457063730222
 30
0.0
 40
0.9950000000000613
100
AcDbArc
 50
359.9999999999967
 51
89.99999999999673
  0
ENDBLK
  5
1AC
330
163
100
AcDbEntity
  8
0
100
AcDbBlockEnd
  0
BLOCK
  5
62D
330
4D6
100
AcDbEntity
  8
0
100
AcDbBlockBegin
  2
*D2
 70
     1
 10
0.0
 20
0.0
 30
0.0
  3
*D2
  1

  0
LINE
  5
62E
330
4D6
100
AcDbEntity
  8
0
  6
BYBLOCK
 62
     4
100
AcDbLine
 10
308.2247889203824
 20
413.2904957109996
 30
0.0
 11
274.4853025633542
 21
413.2904957109996
 31
0.0
  0
LINE
  5
62F
330
4D6
100
AcDbEntity
  8
0
  6
BYBLOCK
 62
     4
100
AcDbLine
 10
308.2247889203824
 20
388.2904957109996
 30
0.0
 11
274.4853025633542
 21
388.2904957109996
 31
0.0
  0
LINE
  5
630
330
4D6
100
AcDbEntity
  8
0
  6
BYBLOCK
 62
     4
100
AcDbLine
 10
277.4853025633542
 20
420.2904957109996
 30
0.0
 11
277.4853025633542
 21
427.2904957109997
 31
0.0
  0
LINE
  5
631
330
4D6
100
AcDbEntity
  8
0
  6
BYBLOCK
 62
     4
100
AcDbLine
 10
277.4853025633542
 20
381.2904957109996
 30
0.0
 11
277.4853025633542
 21
374.2904957109996
 31
0.0
  0
LINE
  5
632
330
4D6
100
AcDbEntity
  8
0
  6
BYBLOCK
 62
     4
100
AcDbLine
 10
277.4853025633542
 20
413.2904957109996
 30
0.0
 11
277.4853025633542
 21
388.2904957109996
 31
0.0
  0
INSERT
  5
633
330
4D6
100
AcDbEntity
  8
0
  6
BYBLOCK
 62
     4
100
AcDbBlockReference
  2
_OPEN
 10
277.4853025633542
 20
413.2904957109996
 30
0.0
 41
7.0
 42
7.0
 43
7.0
 50
270.0
  0
INSERT
  5
634
330
4D6
100
AcDbEntity
  8
0
  6
BYBLOCK
 62
     4
100
AcDbBlockReference
  2
_OPEN
 10
277.4853025633542
 20
388.2904957109996
 30
0.0
 41
7.0
 42
7.0
 43
7.0
 50
90.0
  0
MTEXT
  5
635
330
4D6
100
AcDbEntity
  8
0
  6
BYBLOCK
 62
     4
100
AcDbMText
 10
272.4853025633542
 20
400.7904957109996
 30
0.0
 40
6.0
 41
0.0
 71
     5
 72
     5
  1
\A1;25
 11
0.0
 21
1.0
 31
0.0
1001
ACAD
1000
MTEXTBEGIN
1070
    73
1070
     1
1070
    44
1040
1.0
1070
    74
1070
     0
1000
MTEXTEND
1000
MTEXTBEGIN
1070
    73
1070
     1
1070
    44
1040
1.0
1070
    74
1070
     0
1000
MTEXTEND
  0
POINT
  5
636
330
4D6
100
AcDbEntity
  8
DEFPOINTS
  6
BYBLOCK
 62
     0
100
AcDbPoint
 10
314.2247889203825
 20
413.2904957109996
 30
0.0
  0
POINT
  5
637
330
4D6
100
AcDbEntity
  8
DEFPOINTS
  6
BYBLOCK
 62
     0
100
AcDbPoint
 10
314.2247889203825
 20
388.2904957109996
 30
0.0
  0
POINT
  5
638
330
4D6
100
AcDbEntity
  8
DEFPOINTS
  6
BYBLOCK
 62
     0
100
AcDbPoint
 10
277.4853025633542
 20
388.2904957109996
 30
0.0
  0
ENDBLK
  5
639
330
4D6
100
AcDbEntity
  8
0
100
AcDbBlockEnd
  0
BLOCK
  5
501
330
4E5
100
AcDbEntity
  8
0
100
AcDbBlockBegin
  2
*D3
 70
     1
 10
0.0
 20
0.0
 30
0.0
  3
*D3
  1

  0
LINE
  5
502
330
4E5
100
AcDbEntity
  8
0
  6
BYBLOCK
 62
     4
100
AcDbLine
 10
515.0542702791303
 20
296.3606533147187
 30
0.0
 11
545.5779738272318
 21
308.5688621618072
 31
0.0
  0
LINE
  5
503
330
4E5
100
AcDbEntity
  8
0
  6
BYBLOCK
 62
     4
100
AcDbLine
 10
517.3566702791303
 20
290.6040533147187
 30
0.0
 11
547.8803738272318
 21
302.8122621618071
 31
0.0
  0
LINE
  5
504
330
4E5
100
AcDbEntity
  8
0
  6
BYBLOCK
 62
     4
100
AcDbLine
 10
540.1930025732483
 20
313.9542205151363
 30
0.0
 11
537.5935014348812
 21
320.4536507849082
 31
0.0
  0
LINE
  5
505
330
4E5
100
AcDbEntity
  8
0
  6
BYBLOCK
 62
     4
100
AcDbLine
 10
547.6944048499822
 20
295.1987599755921
 30
0.0
 11
556.235622876045
 21
273.8434890891983
 31
0.0
  0
LINE
  5
506
330
4E5
100
AcDbEntity
  8
0
  6
BYBLOCK
 62
     4
100
AcDbLine
 10
542.7925037116152
 20
307.4547902453642
 30
0.0
 11
545.0949037116153
 21
301.6981902453641
 31
0.0
  0
INSERT
  5
507
330
4E5
100
AcDbEntity
  8
0
  6
BYBLOCK
 62
     4
100
AcDbBlockReference
  2
_OPEN
 10
542.7925037116152
 20
307.4547902453642
 30
0.0
 41
7.0
 42
7.0
 43
7.0
 50
291.799350203159
  0
INSERT
  5
508
330
4E5
100
AcDbEntity
  8
0
  6
BYBLOCK
 62
     4
100
AcDbBlockReference
  2
_OPEN
 10
545.0949037116153
 20
301.6981902453641
 30
0.0
 41
7.0
 42
7.0
 43
7.0
 50
111.799350203159
  0
MTEXT
  5
509
330
4E5
100
AcDbEntity
  8
0
  6
BYBLOCK
 62
     4
100
AcDbMText
 10
557.9072146248913
 20
283.1281959249142
 30
0.0
 40
6.0
 41
0.0
 71
     5
 72
     5
  1
\A1;6.2
 11
0.3713573054809932
 21
-0.9284900385388613
 31
0.0
1001
ACAD
1000
MTEXTBEGIN
1070
    73
1070
     1
1070
    44
1040
1.0
1070
    74
1070
     0
1000
MTEXTEND
1000
MTEXTBEGIN
1070
    73
1070
     1
1070
    44
1040
1.0
1070
    74
1070
     0
1000
MTEXTEND
  0
POINT
  5
50A
330
4E5
100
AcDbEntity
  8
DEFPOINTS
  6
BYBLOCK
 62
     0
100
AcDbPoint
 10
509.483330047897
 20
294.1325094818328
 30
0.0
  0
POINT
  5
50B
330
4E5
100
AcDbEntity
  8
DEFPOINTS
  6
BYBLOCK
 62
     0
100
AcDbPoint
 10
511.7857300478971
 20
288.3759094818327
 30
0.0
  0
POINT
  5
50C
330
4E5
100
AcDbEntity
  8
DEFPOINTS
  6
BYBLOCK
 62
     0
100
AcDbPoint
 10
545.0949037116153
 20
301.6981902453641
 30
0.0
  0
ENDBLK
  5
50D
330
4E5
100
AcDbEntity
  8
0
100
AcDbBlockEnd
  0
BLOCK
  5
512
330
511
100
AcDbEntity
  8
0
100
AcDbBlockBegin
  2
*D4
 70
     1
 10
0.0
 20
0.0
 30
0.0
  3
*D4
  1

  0
LINE
  5
513
330
511
100
AcDbEntity
  8
0
  6
BYBLOCK
 62
     4
100
AcDbLine
 10
430.9762300478969
 20
341.181834194778
 30
0.0
 11
430.9762300478969
 21
383.1970626743457
 31
0.0
  0
LINE
  5
514
330
511
100
AcDbEntity
  8
0
  6
BYBLOCK
 62
     4
100
AcDbLine
 10
315.376230047897
 20
362.3199094818327
 30
0.0
 11
315.376230047897
 21
383.1970626743457
 31
0.0
  0
LINE
  5
515
330
511
100
AcDbEntity
  8
0
  6
BYBLOCK
 62
     4
100
AcDbLine
 10
423.976230047897
 20
380.1970626743457
 30
0.0
 11
322.376230047897
 21
380.1970626743457
 31
0.0
  0
INSERT
  5
516
330
511
100
AcDbEntity
  8
0
  6
BYBLOCK
 62
     4
100
AcDbBlockReference
  2
_OPEN
 10
430.9762300478969
 20
380.1970626743457
 30
0.0
 41
7.0
 42
7.0
 43
7.0
  0
INSERT
  5
517
330
511
100
AcDbEntity
  8
0
  6
BYBLOCK
 62
     4
100
AcDbBlockReference
  2
_OPEN
 10
315.376230047897
 20
380.1970626743457
 30
0.0
 41
7.0
 42
7.0
 43
7.0
 50
180.0
  0
MTEXT
  5
518
330
511
100
AcDbEntity
  8
0
  6
BYBLOCK
 62
     4
100
AcDbMText
 10
373.1762300478969
 20
385.1970626743457
 30
0.0
 40
6.0
 41
0.0
 71
     5
 72
     5
  1
\A1;116
1001
ACAD
1000
MTEXTBEGIN
1070
    73
1070
     1
1070
    44
1040
1.0
1070
    74
1070
     0
1000
MTEXTEND
1000
MTEXTBEGIN
1070
    73
1070
     1
1070
    44
1040
1.0
1070
    74
1070
     0
1000
MTEXTEND
  0
POINT
  5
519
330
511
100
AcDbEntity
  8
DEFPOINTS
  6
BYBLOCK
 62
     0
100
AcDbPoint
 10
430.9762300478969
 20
335.181834194778
 30
0.0
  0
POINT
  5
51A
330
511
100
AcDbEntity
  8
DEFPOINTS
  6
BYBLOCK
 62
     0
100
AcDbPoint
 10
315.376230047897
 20
356.3199094818327
 30
0.0
  0
POINT
  5
51B
330
511
100
AcDbEntity
  8
DEFPOINTS
  6
BYBLOCK
 62
     0
100
AcDbPoint
 10
315.376230047897
 20
380.1970626743457
 30
0.0
  0
ENDBLK
  5
51C
330
511
100
AcDbEntity
  8
0
100
AcDbBlockEnd
  0
BLOCK
  5
622
330
538
100
AcDbEntity
  8
0
100
AcDbBlockBegin
  2
*D5
 70
     1
 10
0.0
 20
0.0
 30
0.0
  3
*D5
  1

  0
LINE
  5
623
330
538
100
AcDbEntity
  8
0
  6
BYBLOCK
 62
     4
100
AcDbLine
 10
308.2246889203825
 20
298.7904957109996
 30
0.0
 11
270.5531809985509
 21
298.7904957109996
 31
0.0
  0
LINE
  5
624
330
538
100
AcDbEntity
  8
0
  6
BYBLOCK
 62
     4
100
AcDbLine
 10
332.9093889203825
 20
225.7905457109997
 30
0.0
 11
270.5531809985509
 21
225.7905457109997
 31
0.0
  0
LINE
  5
625
330
538
100
AcDbEntity
  8
0
  6
BYBLOCK
 62
     4
100
AcDbLine
 10
273.5531809985509
 20
291.7904957109996
 30
0.0
 11
273.5531809985509
 21
232.7905457109997
 31
0.0
  0
INSERT
  5
626
330
538
100
AcDbEntity
  8
0
  6
BYBLOCK
 62
     4
100
AcDbBlockReference
  2
_OPEN
 10
273.5531809985509
 20
298.7904957109996
 30
0.0
 41
7.0
 42
7.0
 43
7.0
 50
90.0
  0
INSERT
  5
627
330
538
100
AcDbEntity
  8
0
  6
BYBLOCK
 62
     4
100
AcDbBlockReference
  2
_OPEN
 10
273.5531809985509
 20
225.7905457109997
 30
0.0
 41
7.0
 42
7.0
 43
7.0
 50
270.0
  0
MTEXT
  5
628
330
538
100
AcDbEntity
  8
0
  6
BYBLOCK
 62
     4
100
AcDbMText
 10
268.5531809985509
 20
262.2905207109996
 30
0.0
 40
6.0
 41
0.0
 71
     5
 72
     5
  1
\A1;73
 11
0.0
 21
1.0
 31
0.0
1001
ACAD
1000
MTEXTBEGIN
1070
    73
1070
     1
1070
    44
1040
1.0
1070
    74
1070
     0
1000
MTEXTEND
1000
MTEXTBEGIN
1070
    73
1070
     1
1070
    44
1040
1.0
1070
    74
1070
     0
1000
MTEXTEND
  0
POINT
  5
629
330
538
100
AcDbEntity
  8
DEFPOINTS
  6
BYBLOCK
 62
     0
100
AcDbPoint
 10
314.2246889203825
 20
298.7904957109996
 30
0.0
  0
POINT
  5
62A
330
538
100
AcDbEntity
  8
DEFPOINTS
  6
BYBLOCK
 62
     0
100
AcDbPoint
 10
338.9093889203825
 20
225.7905457109997
 30
0.0
  0
POINT
  5
62B
330
538
100
AcDbEntity
  8
DEFPOINTS
  6
BYBLOCK
 62
     0
100
AcDbPoint
 10
273.5531809985509
 20
225.7905457109997
 30
0.0
  0
ENDBLK
  5
62C
330
538
100
AcDbEntity
  8
0
100
AcDbBlockEnd
  0
BLOCK
  5
568
330
545
100
AcDbEntity
  8
0
100
AcDbBlockBegin
  2
*D6
 70
     1
 10
0.0
 20
0.0
 30
0.0
  3
*D6
  1

  0
LINE
  5
569
330
545
100
AcDbEntity
  8
0
  6
BYBLOCK
 62
     4
100
AcDbLine
 10
346.060930047897
 20
283.3199594818328
 30
0.0
 11
352.4543761125187
 21
283.3199594818328
 31
0.0
  0
LINE
  5
56A
330
545
100
AcDbEntity
  8
0
  6
BYBLOCK
 62
     4
100
AcDbLine
 10
363.1762300478969
 20
234.1081094818328
 30
0.0
 11
346.4543761125187
 21
234.1081094818328
 31
0.0
  0
LINE
  5
56B
330
545
100
AcDbEntity
  8
0
  6
BYBLOCK
 62
     4
100
AcDbLine
 10
349.4543761125187
 20
276.3199594818328
 30
0.0
 11
349.4543761125187
 21
241.1081094818328
 31
0.0
  0
INSERT
  5
56C
330
545
100
AcDbEntity
  8
0
  6
BYBLOCK
 62
     4
100
AcDbBlockReference
  2
_OPEN
 10
349.4543761125187
 20
283.3199594818328
 30
0.0
 41
7.0
 42
7.0
 43
7.0
 50
90.0
  0
INSERT
  5
56D
330
545
100
AcDbEntity
  8
0
  6
BYBLOCK
 62
     4
100
AcDbBlockReference
  2
_OPEN
 10
349.4543761125187
 20
234.1081094818328
 30
0.0
 41
7.0
 42
7.0
 43
7.0
 50
270.0
  0
MTEXT
  5
56E
330
545
100
AcDbEntity
  8
0
  6
BYBLOCK
 62
     4
100
AcDbMText
 10
344.4543761125187
 20
258.7140344818328
 30
0.0
 40
6.0
 41
0.0
 71
     5
 72
     5
  1
\A1;H
 11
0.0
 21
1.0
 31
0.0
1001
ACAD
1000
MTEXTBEGIN
1070
    73
1070
     1
1070
    44
1040
1.0
1070
    74
1070
     0
1000
MTEXTEND
1000
MTEXTBEGIN
1070
    73
1070
     1
1070
    44
1040
1.0
1070
    74
1070
     0
1000
MTEXTEND
  0
POINT
  5
56F
330
545
100
AcDbEntity
  8
DEFPOINTS
  6
BYBLOCK
 62
     0
100
AcDbPoint
 10
340.060930047897
 20
283.3199594818328
 30
0.0
  0
POINT
  5
570
330
545
100
AcDbEntity
  8
DEFPOINTS
  6
BYBLOCK
 62
     0
100
AcDbPoint
 10
369.1762300478969
 20
234.1081094818328
 30
0.0
  0
POINT
  5
571
330
545
100
AcDbEntity
  8
DEFPOINTS
  6
BYBLOCK
 62
     0
100
AcDbPoint
 10
349.4543761125187
 20
234.1081094818328
 30
0.0
  0
ENDBLK
  5
572
330
545
100
AcDbEntity
  8
0
100
AcDbBlockEnd
  0
BLOCK
  5
58C
330
58B
100
AcDbEntity
  8
0
100
AcDbBlockBegin
  2
*D7
 70
     1
 10
0.0
 20
0.0
 30
0.0
  3
*D7
  1

  0
LINE
  5
58D
330
58B
100
AcDbEntity
  8
0
  6
BYBLOCK
 62
     4
100
AcDbLine
 10
527.8666280143138
 20
228.1534512973703
 30
0.0
 11
538.7039670042672
 21
201.0581354262976
 31
0.0
  0
LINE
  5
58E
330
58B
100
AcDbEntity
  8
0
  6
BYBLOCK
 62
     4
100
AcDbLine
 10
374.6663308824874
 20
166.8777842677145
 30
0.0
 11
385.5036698724407
 21
139.7824683966421
 31
0.0
  0
LINE
  5
58F
330
58B
100
AcDbEntity
  8
0
  6
BYBLOCK
 62
     4
100
AcDbLine
 10
531.0904627932465
 20
201.2440214902442
 30
0.0
 11
390.8889695815199
 21
145.1674982984525
 31
0.0
  0
INSERT
  5
590
330
58B
100
AcDbEntity
  8
0
  6
BYBLOCK
 62
     4
100
AcDbBlockReference
  2
_OPEN
 10
537.5898647532965
 20
203.8435934091761
 30
0.0
 41
7.0
 42
7.0
 43
7.0
 50
21.7999741711537
  0
INSERT
  5
591
330
58B
100
AcDbEntity
  8
0
  6
BYBLOCK
 62
     4
100
AcDbBlockReference
  2
_OPEN
 10
384.3895676214699
 20
142.5679263795206
 30
0.0
 41
7.0
 42
7.0
 43
7.0
 50
201.7999741711537
  0
MTEXT
  5
592
330
58B
100
AcDbEntity
  8
0
  6
BYBLOCK
 62
     4
100
AcDbMText
 10
459.132879102432
 20
177.8481898658126
 30
0.0
 40
6.0
 41
0.0
 71
     5
 72
     5
  1
\A1;165
 11
0.9284859942928489
 21
0.3713674169902628
 31
0.0
1001
ACAD
1000
MTEXTBEGIN
1070
    73
1070
     1
1070
    44
1040
1.0
1070
    74
1070
     0
1000
MTEXTEND
1000
MTEXTBEGIN
1070
    73
1070
     1
1070
    44
1040
1.0
1070
    74
1070
     0
1000
MTEXTEND
  0
POINT
  5
593
330
58B
100
AcDbEntity
  8
DEFPOINTS
  6
BYBLOCK
 62
     0
100
AcDbPoint
 10
525.6384235123722
 20
233.7243672631274
 30
0.0
  0
POINT
  5
594
330
58B
100
AcDbEntity
  8
DEFPOINTS
  6
BYBLOCK
 62
     0
100
AcDbPoint
 10
372.4381263805458
 20
172.4487002334716
 30
0.0
  0
POINT
  5
595
330
58B
100
AcDbEntity
  8
DEFPOINTS
  6
BYBLOCK
 62
     0
100
AcDbPoint
 10
384.3895676214699
 20
142.5679263795206
 30
0.0
  0
ENDBLK
  5
596
330
58B
100
AcDbEntity
  8
0
100
AcDbBlockEnd
  0
BLOCK
  5
5C7
330
5AB
100
AcDbEntity
  8
0
100
AcDbBlockBegin
  2
*D8
 70
     1
 10
0.0
 20
0.0
 30
0.0
  3
*D8
  1

  0
LINE
  5
5C8
330
5AB
100
AcDbEntity
  8
0
  6
BYBLOCK
 62
     4
100
AcDbLine
 10
513.6714889203825
 20
403.5404957109996
 30
0.0
 11
558.7530060046756
 21
403.5404957109996
 31
0.0
  0
LINE
  5
5C9
330
5AB
100
AcDbEntity
  8
0
  6
BYBLOCK
 62
     4
100
AcDbLine
 10
513.6715889203825
 20
398.0404957109996
 30
0.0
 11
558.7530060046756
 21
398.0404957109996
 31
0.0
  0
LINE
  5
5CA
330
5AB
100
AcDbEntity
  8
0
  6
BYBLOCK
 62
     4
100
AcDbLine
 10
555.7530060046756
 20
410.5404957109996
 30
0.0
 11
555.7530060046756
 21
417.5404957109996
 31
0.0
  0
LINE
  5
5CB
330
5AB
100
AcDbEntity
  8
0
  6
BYBLOCK
 62
     4
100
AcDbLine
 10
555.7530060046756
 20
391.0404957109996
 30
0.0
 11
555.7530060046756
 21
368.0404957109996
 31
0.0
  0
LINE
  5
5CC
330
5AB
100
AcDbEntity
  8
0
  6
BYBLOCK
 62
     4
100
AcDbLine
 10
555.7530060046756
 20
403.5404957109996
 30
0.0
 11
555.7530060046756
 21
398.0404957109996
 31
0.0
  0
INSERT
  5
5CD
330
5AB
100
AcDbEntity
  8
0
  6
BYBLOCK
 62
     4
100
AcDbBlockReference
  2
_OPEN
 10
555.7530060046756
 20
403.5404957109996
 30
0.0
 41
7.0
 42
7.0
 43
7.0
 50
270.0
  0
INSERT
  5
5CE
330
5AB
100
AcDbEntity
  8
0
  6
BYBLOCK
 62
     4
100
AcDbBlockReference
  2
_OPEN
 10
555.7530060046756
 20
398.0404957109996
 30
0.0
 41
7.0
 42
7.0
 43
7.0
 50
90.0
  0
MTEXT
  5
5CF
330
5AB
100
AcDbEntity
  8
0
  6
BYBLOCK
 62
     4
100
AcDbMText
 10
550.7530060046756
 20
376.0404957109996
 30
0.0
 40
6.0
 41
0.0
 71
     5
 72
     5
  1
\A1;5.5
 11
0.0
 21
1.0
 31
0.0
1001
ACAD
1000
MTEXTBEGIN
1070
    73
1070
     1
1070
    44
1040
1.0
1070
    74
1070
     0
1000
MTEXTEND
1000
MTEXTBEGIN
1070
    73
1070
     1
1070
    44
1040
1.0
1070
    74
1070
     0
1000
MTEXTEND
  0
POINT
  5
5D0
330
5AB
100
AcDbEntity
  8
DEFPOINTS
  6
BYBLOCK
 62
     0
100
AcDbPoint
 10
507.6714889203826
 20
403.5404957109996
 30
0.0
  0
POINT
  5
5D1
330
5AB
100
AcDbEntity
  8
DEFPOINTS
  6
BYBLOCK
 62
     0
100
AcDbPoint
 10
507.6715889203825
 20
398.0404957109996
 30
0.0
  0
POINT
  5
5D2
330
5AB
100
AcDbEntity
  8
DEFPOINTS
  6
BYBLOCK
 62
     0
100
AcDbPoint
 10
555.7530060046756
 20
398.0404957109996
 30
0.0
  0
ENDBLK
  5
5D3
330
5AB
100
AcDbEntity
  8
0
100
AcDbBlockEnd
  0
ENDSEC
  0
SECTION
  2
ENTITIES
  0
INSERT
  5
30F
330
1A
100
AcDbEntity
  8
0
100
AcDbBlockReference
  2
A$C1305
 10
314.8418298359485
 20
225.6783750736975
 30
0.0
  0
LINE
  5
310
330
1A
100
AcDbEntity
  8
SEIHIN
  6
CONTINUOUS
 62
     3
 48
16.0
100
AcDbLine
 10
416.1536889203825
 20
411.7904957109996
 30
0.0
 11
429.0247889203825
 21
411.7904957109996
 31
0.0
  0
LINE
  5
311
330
1A
100
AcDbEntity
  8
SEIHIN
  6
CONTINUOUS
 62
     3
 48
16.0
100
AcDbLine
 10
416.1536889203825
 20
389.7903957109996
 30
0.0
 11
429.0247889203825
 21
389.7903957109996
 31
0.0
  0
ARC
  5
312
330
1A
100
AcDbEntity
  8
SEIHIN
  6
CONTINUOUS
 62
     3
 48
16.0
100
AcDbCircle
 10
415.2835889203824
 20
238.1388957109996
 30
0.0
 40
5.000008999999999
100
AcDbArc
 50
285.302858
 51
348.11205
  0
LINE
  5
313
330
1A
100
AcDbEntity
  8
SEIHIN
  6
CONTINUOUS
 62
     3
 48
16.0
100
AcDbLine
 10
416.8733889203824
 20
237.4381957109997
 30
0.0
 11
422.2744889203824
 21
263.0935957109997
 31
0.0
  0
LINE
  5
314
330
1A
100
AcDbEntity
  8
SEIHIN
  6
CONTINUOUS
 62
     3
 48
16.0
100
AcDbLine
 10
416.1535889203825
 20
237.9027957109997
 30
0.0
 11
421.4915889203824
 21
263.2582957109996
 31
0.0
  0
LINE
  5
318
330
1A
100
AcDbEntity
  8
SEIHIN
  6
CONTINUOUS
 62
     3
 48
16.0
100
AcDbLine
 10
376.4677889203825
 20
177.1838957109997
 30
0.0
 11
510.6341889203825
 21
230.8464957109996
 31
0.0
  0
LINE
  5
319
330
1A
100
AcDbEntity
  8
SEIHIN
  6
CONTINUOUS
 62
     3
 48
16.0
100
AcDbLine
 10
375.8109889203824
 20
183.5986957109997
 30
0.0
 11
508.3317889203825
 21
236.6030957109996
 31
0.0
  0
LINE
  5
31A
330
1A
100
AcDbEntity
  8
CENTER_L
  6
CENTER
 62
     1
 48
5.0
100
AcDbLine
 10
369.0847889203825
 20
177.5695957109997
 30
0.0
 11
527.3842889203826
 21
240.8847957109997
 31
0.0
  0
LINE
  5
31B
330
1A
100
AcDbEntity
  8
SEIHIN
  6
CONTINUOUS
 62
     3
 48
16.0
100
AcDbLine
 10
378.5630889203825
 20
403.2904957109996
 30
0.0
 11
418.8247889203824
 21
403.2904957109996
 31
0.0
  0
LINE
  5
31C
330
1A
100
AcDbEntity
  8
SEIHIN
  6
CONTINUOUS
 62
     3
 48
16.0
100
AcDbLine
 10
372.0247889203825
 20
408.2904957109996
 30
0.0
 11
418.8247889203824
 21
408.2904957109996
 31
0.0
  0
LINE
  5
31D
330
1A
100
AcDbEntity
  8
CENTER_L
  6
CENTER
 62
     1
 48
5.0
100
AcDbLine
 10
372.0247889203825
 20
400.7904957109996
 30
0.0
 11
535.0976889203825
 21
400.7904957109996
 31
0.0
  0
LINE
  5
31E
330
1A
100
AcDbEntity
  8
SEIHIN
  6
CONTINUOUS
 62
     3
 48
16.0
100
AcDbLine
 10
378.5630889203825
 20
398.2903957109996
 30
0.0
 11
418.8247889203824
 21
398.2903957109996
 31
0.0
  0
LINE
  5
31F
330
1A
100
AcDbEntity
  8
SEIHIN
  6
CONTINUOUS
 62
     3
 48
16.0
100
AcDbLine
 10
372.0247889203825
 20
393.2903957109997
 30
0.0
 11
418.8247889203824
 21
393.2903957109997
 31
0.0
  0
LINE
  5
323
330
1A
100
AcDbEntity
  8
SEIHIN
  6
CONTINUOUS
 62
     3
 48
16.0
100
AcDbLine
 10
314.2246889203825
 20
298.7904957109996
 30
0.0
 11
314.2246889203825
 21
264.7904957109996
 31
0.0
  0
LINE
  5
324
330
1A
100
AcDbEntity
  8
SEIHIN
  6
CONTINUOUS
 62
     3
 48
16.0
100
AcDbLine
 10
315.0246889203824
 20
298.7904957109996
 30
0.0
 11
315.0246889203824
 21
264.7904957109996
 31
0.0
  0
ARC
  5
325
330
1A
100
AcDbEntity
  8
SEIHIN
  6
CONTINUOUS
 62
     3
 48
16.0
100
AcDbCircle
 10
212.5516490544748
 20
264.9406957109996
 30
0.0
 40
0.9999559999999998
100
AcDbArc
 50
329.999272
 51
63.183822
  0
LINE
  5
326
330
1A
100
AcDbEntity
  8
SEIHIN
  6
CONTINUOUS
 62
     3
 48
16.0
100
AcDbLine
 10
212.0042490544749
 20
264.1037957109996
 30
0.0
 11
207.9449490544749
 21
267.0240957109996
 31
0.0
  0
ARC
  5
327
330
1A
100
AcDbEntity
  8
SEIHIN
  6
CONTINUOUS
 62
     3
 48
16.0
100
AcDbCircle
 10
196.9631490544749
 20
264.9406957109996
 30
0.0
 40
0.9999559999999998
100
AcDbArc
 50
116.816178
 51
210.0007279999999
  0
LINE
  5
328
330
1A
100
AcDbEntity
  8
SEIHIN
  6
CONTINUOUS
 62
     3
 48
16.0
100
AcDbLine
 10
197.5105490544749
 20
264.1037957109996
 30
0.0
 11
201.5698490544749
 21
267.0240957109996
 31
0.0
  0
LINE
  5
329
330
1A
100
AcDbEntity
  8
SEIHIN
  6
CONTINUOUS
 62
     3
 48
16.0
100
AcDbLine
 10
192.2574490544749
 20
263.6906957109997
 30
0.0
 11
192.2574490544749
 21
298.1906957109996
 31
0.0
  0
LINE
  5
32A
330
1A
100
AcDbEntity
  8
SEIHIN
  6
CONTINUOUS
 62
     3
 48
16.0
100
AcDbLine
 10
217.2573490544748
 20
263.6906957109997
 30
0.0
 11
217.2573490544748
 21
298.1906957109996
 31
0.0
  0
LINE
  5
32C
330
1A
100
AcDbEntity
  8
CENTER_L
  6
CENTER
 62
     1
 48
5.0
100
AcDbLine
 10
204.7573490544749
 20
172.5155957109997
 30
0.0
 11
204.7574490544749
 21
302.0636957109997
 31
0.0
  0
LINE
  5
34D
330
1A
100
AcDbEntity
  8
SEIHIN
  6
CONTINUOUS
 62
     3
 48
16.0
100
AcDbLine
 10
207.8579490544749
 20
215.7893957109997
 30
0.0
 11
209.7579490544749
 21
220.7893957109997
 31
0.0
  0
LINE
  5
34E
330
1A
100
AcDbEntity
  8
SEIHIN
  6
CONTINUOUS
 62
     3
 48
16.0
100
AcDbLine
 10
201.6579490544748
 20
215.7893957109997
 30
0.0
 11
199.7579490544749
 21
220.7893957109997
 31
0.0
  0
LINE
  5
34F
330
1A
100
AcDbEntity
  8
SEIHIN
  6
CONTINUOUS
 62
     3
 48
16.0
100
AcDbLine
 10
204.7579490544749
 20
215.7893957109997
 30
0.0
 11
207.8579490544749
 21
215.7893957109997
 31
0.0
  0
ARC
  5
350
330
1A
100
AcDbEntity
  8
SEIHIN
  6
CONTINUOUS
 62
     3
 48
16.0
100
AcDbCircle
 10
204.7573490544749
 20
178.9417957109997
 30
0.0
 40
2.149999999999999
100
AcDbArc
 50
270.0
 51
0.0
  0
LINE
  5
351
330
1A
100
AcDbEntity
  8
SEIHIN
  6
CONTINUOUS
 62
     3
 48
16.0
100
AcDbLine
 10
202.6073490544749
 20
178.9417957109997
 30
0.0
 11
202.6073490544749
 21
215.7893957109997
 31
0.0
  0
ARC
  5
352
330
1A
100
AcDbEntity
  8
SEIHIN
  6
CONTINUOUS
 62
     3
 48
16.0
100
AcDbCircle
 10
204.7573490544749
 20
178.9417957109997
 30
0.0
 40
2.149999999999999
100
AcDbArc
 50
180.0
 51
270.0
  0
LINE
  5
353
330
1A
100
AcDbEntity
  8
SEIHIN
  6
CONTINUOUS
 62
     3
 48
16.0
100
AcDbLine
 10
204.7579490544749
 20
215.7893957109997
 30
0.0
 11
201.6579490544748
 21
215.7893957109997
 31
0.0
  0
LINE
  5
354
330
1A
100
AcDbEntity
  8
SEIHIN
  6
CONTINUOUS
 62
     3
 48
16.0
100
AcDbLine
 10
206.9073490544749
 20
178.9417957109997
 30
0.0
 11
206.9073490544749
 21
215.7893957109997
 31
0.0
  0
LINE
  5
355
330
1A
100
AcDbEntity
  8
SEIHIN
  6
CONTINUOUS
 62
     3
 48
16.0
100
AcDbLine
 10
216.2573490544748
 20
262.6906957109996
 30
0.0
 11
204.7573490544749
 21
262.6906957109996
 31
0.0
  0
LINE
  5
356
330
1A
100
AcDbEntity
  8
SEIHIN
  6
CONTINUOUS
 62
     3
 48
16.0
100
AcDbLine
 10
204.7573490544749
 20
236.4505957109996
 30
0.0
 11
206.7573490544749
 21
236.4505957109996
 31
0.0
  0
LINE
  5
357
330
1A
100
AcDbEntity
  8
SEIHIN
  6
CONTINUOUS
 62
     3
 48
16.0
100
AcDbLine
 10
206.7573490544748
 20
225.2905957109997
 30
0.0
 11
204.7573490544749
 21
225.2905957109997
 31
0.0
  0
LINE
  5
358
330
1A
100
AcDbEntity
  8
SEIHIN
  6
CONTINUOUS
 62
     3
 48
16.0
100
AcDbLine
 10
204.7573490544749
 20
221.7905957109997
 30
0.0
 11
209.7573490544748
 21
221.7905957109997
 31
0.0
  0
LINE
  5
359
330
1A
100
AcDbEntity
  8
SEIHIN
  6
CONTINUOUS
 62
     3
 48
16.0
100
AcDbLine
 10
204.7579490544749
 20
220.7893957109997
 30
0.0
 11
209.7579490544749
 21
220.7893957109997
 31
0.0
  0
LINE
  5
35A
330
1A
100
AcDbEntity
  8
SEIHIN
  6
CONTINUOUS
 62
     3
 48
16.0
100
AcDbLine
 10
199.6740490544749
 20
221.7901957109996
 30
0.0
 11
209.7573490544748
 21
221.7889957109997
 31
0.0
  0
LINE
  5
35B
330
1A
100
AcDbEntity
  8
SEIHIN
  6
CONTINUOUS
 62
     3
 48
16.0
100
AcDbLine
 10
193.7574490544749
 20
236.4506957109996
 30
0.0
 11
193.7574490544749
 21
262.6906957109996
 31
0.0
  0
LINE
  5
35C
330
1A
100
AcDbEntity
  8
SEIHIN
  6
CONTINUOUS
 62
     3
 48
16.0
100
AcDbLine
 10
202.7573490544749
 20
224.7905957109996
 30
0.0
 11
202.7574490544749
 21
262.6906957109996
 31
0.0
  0
LINE
  5
35E
330
1A
100
AcDbEntity
  8
SEIHIN
  6
CONTINUOUS
 62
     3
 48
16.0
100
AcDbLine
 10
196.7573490544749
 20
224.7905957109996
 30
0.0
 11
196.7574490544748
 21
262.6906957109996
 31
0.0
  0
ARC
  5
35F
330
1A
100
AcDbEntity
  8
SEIHIN
  6
CONTINUOUS
 62
     3
 48
16.0
100
AcDbCircle
 10
175.5270490544749
 20
230.8706957109996
 30
0.0
 40
19.065158
100
AcDbArc
 50
342.9814979999999
 51
17.01850199999999
  0
ARC
  5
360
330
1A
100
AcDbEntity
  8
SEIHIN
  6
CONTINUOUS
 62
     3
 48
16.0
100
AcDbCircle
 10
199.7573490544749
 20
224.7905957109996
 30
0.0
 40
3.0
100
AcDbArc
 50
180.0
 51
0.0
  0
LINE
  5
361
330
1A
100
AcDbEntity
  8
SEIHIN
  6
CONTINUOUS
 62
     3
 48
16.0
100
AcDbLine
 10
193.7573490544749
 20
225.2906957109996
 30
0.0
 11
196.7573490544749
 21
225.2906957109996
 31
0.0
  0
LINE
  5
362
330
1A
100
AcDbEntity
  8
SEIHIN
  6
CONTINUOUS
 62
     3
 48
16.0
100
AcDbLine
 10
202.7573490544749
 20
225.2906957109996
 30
0.0
 11
204.7573490544749
 21
225.2905957109997
 31
0.0
  0
LINE
  5
363
330
1A
100
AcDbEntity
  8
SEIHIN
  6
CONTINUOUS
 62
     3
 48
16.0
100
AcDbLine
 10
199.7579490544749
 20
220.7893957109997
 30
0.0
 11
199.7579490544749
 21
221.7892957109997
 31
0.0
  0
LINE
  5
364
330
1A
100
AcDbEntity
  8
SEIHIN
  6
CONTINUOUS
 62
     3
 48
16.0
100
AcDbLine
 10
204.7573490544749
 20
221.7905957109997
 30
0.0
 11
199.7573490544749
 21
221.7905957109997
 31
0.0
  0
LINE
  5
365
330
1A
100
AcDbEntity
  8
SEIHIN
  6
CONTINUOUS
 62
     3
 48
16.0
100
AcDbLine
 10
204.7579490544749
 20
220.7893957109997
 30
0.0
 11
199.7579490544749
 21
220.7893957109997
 31
0.0
  0
LINE
  5
366
330
1A
100
AcDbEntity
  8
SEIHIN
  6
CONTINUOUS
 62
     3
 48
16.0
100
AcDbLine
 10
204.7574490544749
 20
236.4505957109996
 30
0.0
 11
202.7573798196132
 21
236.4506138934472
 31
0.0
  0
LINE
  5
367
330
1A
100
AcDbEntity
  8
SEIHIN
  6
CONTINUOUS
 62
     3
 48
16.0
100
AcDbLine
 10
193.2574490544748
 20
262.6906957109996
 30
0.0
 11
204.7574490544749
 21
262.6906957109996
 31
0.0
  0
ARC
  5
368
330
1A
100
AcDbEntity
  8
SEIHIN
  6
CONTINUOUS
 62
     3
 48
16.0
100
AcDbCircle
 10
196.9631490544749
 20
264.9406957109996
 30
0.0
 40
1.000000999999999
100
AcDbArc
 50
210.0007279999999
 51
303.187918
  0
ARC
  5
369
330
1A
100
AcDbEntity
  8
SEIHIN
  6
CONTINUOUS
 62
     3
 48
16.0
100
AcDbCircle
 10
193.2574490544748
 20
263.6906957109997
 30
0.0
 40
1.0
100
AcDbArc
 50
180.0
 51
270.0
  0
LINE
  5
36A
330
1A
100
AcDbEntity
  8
SEIHIN
  6
CONTINUOUS
 62
     3
 48
16.0
100
AcDbLine
 10
206.7573490544748
 20
224.7905957109996
 30
0.0
 11
206.7573490544748
 21
262.6906957109996
 31
0.0
  0
LINE
  5
36B
330
1A
100
AcDbEntity
  8
SEIHIN
  6
CONTINUOUS
 62
     3
 48
16.0
100
AcDbLine
 10
212.7573490544748
 20
224.7905957109996
 30
0.0
 11
212.7573490544748
 21
262.6906957109996
 31
0.0
  0
LINE
  5
36C
330
1A
100
AcDbEntity
  8
SEIHIN
  6
CONTINUOUS
 62
     3
 48
16.0
100
AcDbLine
 10
215.7573490544748
 20
236.4505957109996
 30
0.0
 11
215.7573490544748
 21
262.6906957109996
 31
0.0
  0
ARC
  5
36E
330
1A
100
AcDbEntity
  8
SEIHIN
  6
CONTINUOUS
 62
     3
 48
16.0
100
AcDbCircle
 10
233.9877490544748
 20
230.8706957109996
 30
0.0
 40
19.065158
100
AcDbArc
 50
162.9814979999999
 51
197.018502
  0
LINE
  5
36F
330
1A
100
AcDbEntity
  8
SEIHIN
  6
CONTINUOUS
 62
     3
 48
16.0
100
AcDbLine
 10
215.7573490544748
 20
225.2905957109997
 30
0.0
 11
212.7573490544748
 21
225.2905957109997
 31
0.0
  0
LINE
  5
370
330
1A
100
AcDbEntity
  8
SEIHIN
  6
CONTINUOUS
 62
     3
 48
16.0
100
AcDbLine
 10
209.7579490544749
 20
220.7893957109997
 30
0.0
 11
209.7579490544749
 21
221.7892957109997
 31
0.0
  0
ARC
  5
371
330
1A
100
AcDbEntity
  8
SEIHIN
  6
CONTINUOUS
 62
     3
 48
16.0
100
AcDbCircle
 10
209.7573490544748
 20
224.7905957109996
 30
0.0
 40
3.0
100
AcDbArc
 50
180.0
 51
0.0
  0
ARC
  5
372
330
1A
100
AcDbEntity
  8
SEIHIN
  6
CONTINUOUS
 62
     3
 48
16.0
100
AcDbCircle
 10
212.5516490544748
 20
264.9406957109996
 30
0.0
 40
1.000000999999999
100
AcDbArc
 50
236.8120819999999
 51
329.999272
  0
ARC
  5
373
330
1A
100
AcDbEntity
  8
SEIHIN
  6
CONTINUOUS
 62
     3
 48
16.0
100
AcDbCircle
 10
216.2573490544748
 20
263.6906957109997
 30
0.0
 40
1.0
100
AcDbArc
 50
270.0
 51
0.0
  0
LINE
  5
374
330
1A
100
AcDbEntity
  8
CENTER_L
  6
CENTER
 62
     1
 48
5.0
100
AcDbLine
 10
372.0246889203824
 20
235.6113957109996
 30
0.0
 11
372.0246889203824
 21
171.1171957109996
 31
0.0
  0
LINE
  5
37A
330
1A
100
AcDbEntity
  8
SEIHIN
  6
CONTINUOUS
 62
     3
 48
16.0
100
AcDbLine
 10
372.0246889203824
 20
224.9904957109996
 30
0.0
 11
338.4691889203825
 21
224.9904957109996
 31
0.0
  0
LINE
  5
37B
330
1A
100
AcDbEntity
  8
SEIHIN
  6
CONTINUOUS
 62
     3
 48
16.0
100
AcDbLine
 10
338.9041889203824
 20
221.7904957109997
 30
0.0
 11
372.0246889203824
 21
221.7904957109997
 31
0.0
  0
LINE
  5
37C
330
1A
100
AcDbEntity
  8
SEIHIN
  6
CONTINUOUS
 62
     3
 48
16.0
100
AcDbLine
 10
372.0246889203824
 20
225.7904957109997
 30
0.0
 11
338.9041889203824
 21
225.7904957109997
 31
0.0
  0
LINE
  5
387
330
1A
100
AcDbEntity
  8
SEIHIN
  6
CONTINUOUS
 62
     3
 48
16.0
100
AcDbLine
 10
321.2856889203825
 20
264.2904957109996
 30
0.0
 11
315.5246889203824
 21
264.2904957109996
 31
0.0
  0
LINE
  5
388
330
1A
100
AcDbEntity
  8
SEIHIN
  6
CONTINUOUS
 62
     3
 48
16.0
100
AcDbLine
 10
321.2856889203825
 20
263.4904957109996
 30
0.0
 11
315.5246889203824
 21
263.4904957109996
 31
0.0
  0
LINE
  5
389
330
1A
100
AcDbEntity
  8
SEIHIN
  6
CONTINUOUS
 62
     3
 48
16.0
100
AcDbLine
 10
323.8730889203825
 20
237.1088957109997
 30
0.0
 11
318.3190889203824
 21
263.4904957109996
 31
0.0
  0
ARC
  5
38B
330
1A
100
AcDbEntity
  8
SEIHIN
  6
CONTINUOUS
 62
     3
 48
16.0
100
AcDbCircle
 10
315.5246889203824
 20
264.7904957109996
 30
0.0
 40
0.5
100
AcDbArc
 50
180.0
 51
270.0
  0
ARC
  5
38C
330
1A
100
AcDbEntity
  8
SEIHIN
  6
CONTINUOUS
 62
     3
 48
16.0
100
AcDbCircle
 10
315.5246889203824
 20
264.7904957109996
 30
0.0
 40
1.299949999999999
100
AcDbArc
 50
180.0
 51
270.0
  0
LINE
  5
38D
330
1A
100
AcDbEntity
  8
SEIHIN
  6
CONTINUOUS
 62
     3
 48
16.0
100
AcDbLine
 10
327.1760889203825
 20
237.4381957109997
 30
0.0
 11
321.7749889203825
 21
263.0935957109997
 31
0.0
  0
LINE
  5
38E
330
1A
100
AcDbEntity
  8
SEIHIN
  6
CONTINUOUS
 62
     3
 48
16.0
100
AcDbLine
 10
327.8957889203825
 20
237.9027957109997
 30
0.0
 11
322.5577889203824
 21
263.2582957109996
 31
0.0
  0
ARC
  5
38F
330
1A
100
AcDbEntity
  8
SEIHIN
  6
CONTINUOUS
 62
     3
 48
16.0
100
AcDbCircle
 10
338.9041889203824
 20
226.7904957109997
 30
0.0
 40
5.0
100
AcDbArc
 50
188.855327
 51
270.0
  0
ARC
  5
390
330
1A
100
AcDbEntity
  8
SEIHIN
  6
CONTINUOUS
 62
     3
 48
16.0
100
AcDbCircle
 10
325.0710889203825
 20
224.6352957109996
 30
0.0
 40
12.999982
100
AcDbArc
 50
8.855702
 51
74.236829
  0
ARC
  5
391
330
1A
100
AcDbEntity
  8
SEIHIN
  6
CONTINUOUS
 62
     3
 48
16.0
100
AcDbCircle
 10
325.0710889203825
 20
224.6352957109996
 30
0.0
 40
12.199968
100
AcDbArc
 50
7.042589999999999
 51
75.513262
  0
ARC
  5
392
330
1A
100
AcDbEntity
  8
SEIHIN
  6
CONTINUOUS
 62
     3
 48
16.0
100
AcDbCircle
 10
325.0710889203825
 20
224.6352957109996
 30
0.0
 40
8.999981
100
AcDbArc
 50
8.855597999999998
 51
74.6977
  0
ARC
  5
396
330
1A
100
AcDbEntity
  8
SEIHIN
  6
CONTINUOUS
 62
     3
 48
16.0
100
AcDbCircle
 10
328.4481889203824
 20
237.7059957109996
 30
0.0
 40
1.299959
100
AcDbArc
 50
191.8882039999999
 51
255.512635
  0
ARC
  5
397
330
1A
100
AcDbEntity
  8
SEIHIN
  6
CONTINUOUS
 62
     3
 48
16.0
100
AcDbCircle
 10
328.7657889203825
 20
238.1388957109996
 30
0.0
 40
4.999945999999999
100
AcDbArc
 50
191.888186
 51
254.698247
  0
ARC
  5
398
330
1A
100
AcDbEntity
  8
SEIHIN
  6
CONTINUOUS
 62
     3
 48
16.0
100
AcDbCircle
 10
328.8743889203824
 20
238.1087957109997
 30
0.0
 40
1.000042
100
AcDbArc
 50
191.893084
 51
254.234828
  0
ARC
  5
399
330
1A
100
AcDbEntity
  8
SEIHIN
  6
CONTINUOUS
 62
     3
 48
16.0
100
AcDbCircle
 10
338.9041889203824
 20
226.7904957109997
 30
0.0
 40
1.000006999999999
100
AcDbArc
 50
188.8528859999999
 51
270.0
  0
ARC
  5
39A
330
1A
100
AcDbEntity
  8
SEIHIN
  6
CONTINUOUS
 62
     3
 48
16.0
100
AcDbCircle
 10
338.4691889203825
 20
226.2904957109997
 30
0.0
 40
1.300004999999999
100
AcDbArc
 50
187.0430169999999
 51
270.0
  0
ARC
  5
39B
330
1A
100
AcDbEntity
  8
SEIHIN
  6
CONTINUOUS
 62
     3
 48
16.0
100
AcDbCircle
 10
321.2856889203825
 20
262.9904957109996
 30
0.0
 40
0.500012
100
AcDbArc
 50
11.887478
 51
90.0
  0
ARC
  5
39C
330
1A
100
AcDbEntity
  8
SEIHIN
  6
CONTINUOUS
 62
     3
 48
16.0
100
AcDbCircle
 10
321.2856889203825
 20
262.9904957109996
 30
0.0
 40
1.299990999999999
100
AcDbArc
 50
11.88820399999999
 51
90.0
  0
LINE
  5
39D
330
1A
100
AcDbEntity
  8
SEIHIN
  6
CONTINUOUS
 62
     3
 48
16.0
100
AcDbLine
 10
375.1253889203825
 20
215.7904957109997
 30
0.0
 11
377.0252889203825
 21
220.7904957109997
 31
0.0
  0
LINE
  5
39E
330
1A
100
AcDbEntity
  8
SEIHIN
  6
CONTINUOUS
 62
     3
 48
16.0
100
AcDbLine
 10
368.9252889203824
 20
215.7904957109997
 30
0.0
 11
367.0253889203825
 21
220.7904957109997
 31
0.0
  0
LINE
  5
39F
330
1A
100
AcDbEntity
  8
CENTER_L
  6
CENTER2
 62
     1
 48
16.0
100
AcDbLine
 10
372.0246889203824
 20
235.6113957109996
 30
0.0
 11
372.0246889203824
 21
173.1171957109997
 31
0.0
  0
LINE
  5
3A0
330
1A
100
AcDbEntity
  8
CENTER_L
  6
CENTER2
 62
     1
 48
16.0
100
AcDbLine
 10
372.0252889203825
 20
175.8200957109997
 30
0.0
 11
372.0253889203825
 21
239.6763957109996
 31
0.0
  0
LINE
  5
3A1
330
1A
100
AcDbEntity
  8
CENTER_L
  6
ACAD_ISO04W100
 62
     1
 48
16.0
100
AcDbLine
 10
372.0252889203825
 20
173.8200957109997
 30
0.0
 11
372.0253889203825
 21
239.6763957109996
 31
0.0
  0
LINE
  5
3A2
330
1A
100
AcDbEntity
  8
SEIHIN
  6
CONTINUOUS
 62
     3
 48
16.0
100
AcDbLine
 10
368.9252889203824
 20
182.2904957109997
 30
0.0
 11
368.9252889203824
 21
215.7904957109997
 31
0.0
  0
LINE
  5
3A3
330
1A
100
AcDbEntity
  8
SEIHIN
  6
CONTINUOUS
 62
     3
 48
16.0
100
AcDbLine
 10
375.1252889203824
 20
215.7904957109997
 30
0.0
 11
375.1252889203824
 21
184.0628957109997
 31
0.0
  0
ARC
  5
3A4
330
1A
100
AcDbEntity
  8
SEIHIN
  6
CONTINUOUS
 62
     3
 48
16.0
100
AcDbCircle
 10
374.4252889203825
 20
182.2904957109997
 30
0.0
 40
5.500008999999999
100
AcDbArc
 50
180.0
 51
291.799668
  0
ARC
  5
3A5
330
1A
100
AcDbEntity
  8
SEIHIN
  6
CONTINUOUS
 62
     3
 48
16.0
100
AcDbCircle
 10
375.6252889203824
 20
184.0628957109997
 30
0.0
 40
0.4999830000000001
100
AcDbArc
 50
180.0
 51
291.803538
  0
LINE
  5
3A6
330
1A
100
AcDbEntity
  8
SEIHIN
  6
CONTINUOUS
 62
     3
 48
16.0
100
AcDbLine
 10
372.0253889203825
 20
215.7904957109997
 30
0.0
 11
368.9255889203825
 21
215.7904957109997
 31
0.0
  0
LINE
  5
3A7
330
1A
100
AcDbEntity
  8
SEIHIN
  6
CONTINUOUS
 62
     3
 48
16.0
100
AcDbLine
 10
372.0252889203825
 20
215.7904957109997
 30
0.0
 11
375.1253889203825
 21
215.7904957109997
 31
0.0
  0
LINE
  5
3A9
330
1A
100
AcDbEntity
  8
SEIHIN
  6
CONTINUOUS
 62
     3
 48
16.0
100
AcDbLine
 10
372.0246889203824
 20
224.9904957109996
 30
0.0
 11
405.5801889203825
 21
224.9904957109996
 31
0.0
  0
LINE
  5
3AA
330
1A
100
AcDbEntity
  8
SEIHIN
  6
CONTINUOUS
 62
     3
 48
16.0
100
AcDbLine
 10
405.1452889203825
 20
221.7904957109997
 30
0.0
 11
372.0246889203824
 21
221.7904957109997
 31
0.0
  0
LINE
  5
3AB
330
1A
100
AcDbEntity
  8
SEIHIN
  6
CONTINUOUS
 62
     3
 48
16.0
100
AcDbLine
 10
372.0246889203824
 20
225.7904957109997
 30
0.0
 11
405.1452889203825
 21
225.7904957109997
 31
0.0
  0
LINE
  5
3AC
330
1A
100
AcDbEntity
  8
SEIHIN
  6
CONTINUOUS
 62
     3
 48
16.0
100
AcDbLine
 10
372.0253889203825
 20
220.7904957109997
 30
0.0
 11
367.0253889203825
 21
220.7904957109997
 31
0.0
  0
LINE
  5
3AD
330
1A
100
AcDbEntity
  8
SEIHIN
  6
CONTINUOUS
 62
     3
 48
16.0
100
AcDbLine
 10
367.0252889203825
 20
220.7904957109997
 30
0.0
 11
367.0252889203825
 21
221.7904957109997
 31
0.0
  0
LINE
  5
3AE
330
1A
100
AcDbEntity
  8
SEIHIN
  6
CONTINUOUS
 62
     3
 48
16.0
100
AcDbLine
 10
372.0252889203825
 20
220.7904957109997
 30
0.0
 11
377.0252889203825
 21
220.7904957109997
 31
0.0
  0
LINE
  5
3AF
330
1A
100
AcDbEntity
  8
SEIHIN
  6
CONTINUOUS
 62
     3
 48
16.0
100
AcDbLine
 10
377.0252889203825
 20
220.7904957109997
 30
0.0
 11
377.0252889203825
 21
221.7904957109997
 31
0.0
  0
LINE
  5
3B0
330
1A
100
AcDbEntity
  8
SEIHIN
  6
CONTINUOUS
 62
     3
 48
16.0
100
AcDbLine
 10
401.1452889203825
 20
225.7904957109997
 30
0.0
 11
387.5162889203825
 21
225.7904957109997
 31
0.0
  0
ARC
  5
3B3
330
1A
100
AcDbEntity
  8
SEIHIN
  6
CONTINUOUS
 62
     3
 48
16.0
100
AcDbCircle
 10
418.9783889203824
 20
224.6352957109996
 30
0.0
 40
8.999981
100
AcDbArc
 50
105.3023
 51
171.144402
  0
ARC
  5
3B4
330
1A
100
AcDbEntity
  8
SEIHIN
  6
CONTINUOUS
 62
     3
 48
16.0
100
AcDbCircle
 10
418.9783889203824
 20
224.6352957109996
 30
0.0
 40
12.200024
100
AcDbArc
 50
104.486738
 51
172.9570009999999
  0
ARC
  5
3B5
330
1A
100
AcDbEntity
  8
SEIHIN
  6
CONTINUOUS
 62
     3
 48
16.0
100
AcDbCircle
 10
418.9783889203824
 20
224.6352957109996
 30
0.0
 40
13.000031
100
AcDbArc
 50
105.763171
 51
171.144366
  0
ARC
  5
3B6
330
1A
100
AcDbEntity
  8
SEIHIN
  6
CONTINUOUS
 62
     3
 48
16.0
100
AcDbCircle
 10
405.1452889203825
 20
226.7904957109997
 30
0.0
 40
5.0
100
AcDbArc
 50
270.0
 51
351.144673
  0
ARC
  5
3B7
330
1A
100
AcDbEntity
  8
SEIHIN
  6
CONTINUOUS
 62
     3
 48
16.0
100
AcDbCircle
 10
405.5801889203825
 20
226.2904957109997
 30
0.0
 40
1.300004999999999
100
AcDbArc
 50
270.0
 51
352.9569829999999
  0
ARC
  5
3B8
330
1A
100
AcDbEntity
  8
SEIHIN
  6
CONTINUOUS
 62
     3
 48
16.0
100
AcDbCircle
 10
405.1452889203825
 20
226.7904957109997
 30
0.0
 40
0.999957
100
AcDbArc
 50
270.0
 51
351.146232
  0
ARC
  5
3B9
330
1A
100
AcDbEntity
  8
SEIHIN
  6
CONTINUOUS
 62
     3
 48
16.0
100
AcDbCircle
 10
415.6012889203824
 20
237.7059957109996
 30
0.0
 40
1.299959
100
AcDbArc
 50
284.487365
 51
348.1117959999999
  0
ARC
  5
3BA
330
1A
100
AcDbEntity
  8
SEIHIN
  6
CONTINUOUS
 62
     3
 48
16.0
100
AcDbCircle
 10
415.1750889203824
 20
238.1087957109997
 30
0.0
 40
0.999994
100
AcDbArc
 50
285.765172
 51
348.1057349999999
  0
LINE
  5
3BF
330
1A
100
AcDbEntity
  8
SEIHIN
  6
CONTINUOUS
 62
     3
 48
16.0
100
AcDbLine
 10
204.7573490544749
 20
276.1906957109997
 30
0.0
 11
211.2573490544748
 21
276.1906957109997
 31
0.0
  0
LINE
  5
3C0
330
1A
100
AcDbEntity
  8
SEIHIN
  6
CONTINUOUS
 62
     3
 48
16.0
100
AcDbLine
 10
213.7573490544748
 20
280.5871957109997
 30
0.0
 11
195.7574490544749
 21
280.5871957109997
 31
0.0
  0
LINE
  5
3C1
330
1A
100
AcDbEntity
  8
SEIHIN
  6
CONTINUOUS
 62
     3
 48
16.0
100
AcDbLine
 10
195.7575490544749
 20
298.1906957109996
 30
0.0
 11
195.7574490544749
 21
278.6906957109997
 31
0.0
  0
ARC
  5
3C2
330
1A
100
AcDbEntity
  8
SEIHIN
  6
CONTINUOUS
 62
     3
 48
16.0
100
AcDbCircle
 10
198.2574490544749
 20
278.6906957109997
 30
0.0
 40
2.5
100
AcDbArc
 50
180.0
 51
270.0
  0
LINE
  5
3C3
330
1A
100
AcDbEntity
  8
SEIHIN
  6
CONTINUOUS
 62
     3
 48
16.0
100
AcDbLine
 10
196.5120490544749
 20
265.8330957109996
 30
0.0
 11
201.0708490544749
 21
267.8883957109996
 31
0.0
  0
LINE
  5
3C4
330
1A
100
AcDbEntity
  8
SEIHIN
  6
CONTINUOUS
 62
     3
 48
16.0
100
AcDbLine
 10
196.5120490544749
 20
273.0481957109996
 30
0.0
 11
201.0708490544749
 21
270.9928957109996
 31
0.0
  0
LINE
  5
3C5
330
1A
100
AcDbEntity
  8
SEIHIN
  6
CONTINUOUS
 62
     3
 48
16.0
100
AcDbLine
 10
197.5105490544749
 20
274.7775957109996
 30
0.0
 11
201.5698490544749
 21
271.8571957109996
 31
0.0
  0
ARC
  5
3C6
330
1A
100
AcDbEntity
  8
SEIHIN
  6
CONTINUOUS
 62
     3
 48
16.0
100
AcDbCircle
 10
196.9631490544749
 20
273.9406957109997
 30
0.0
 40
1.000000999999999
100
AcDbArc
 50
149.9992719999999
 51
243.186406
  0
ARC
  5
3C7
330
1A
100
AcDbEntity
  8
SEIHIN
  6
CONTINUOUS
 62
     3
 48
16.0
100
AcDbCircle
 10
196.9631490544749
 20
273.9406957109997
 30
0.0
 40
1.000000999999999
100
AcDbArc
 50
56.812082
 51
149.9992719999999
  0
ARC
  5
3C8
330
1A
100
AcDbEntity
  8
SEIHIN
  6
CONTINUOUS
 62
     3
 48
16.0
100
AcDbCircle
 10
201.2933490544749
 20
267.4406957109997
 30
0.0
 40
0.4999649999999999
100
AcDbArc
 50
30.000728
 51
116.4266679999999
  0
ARC
  5
3C9
330
1A
100
AcDbEntity
  8
SEIHIN
  6
CONTINUOUS
 62
     3
 48
16.0
100
AcDbCircle
 10
201.2932490544749
 20
267.4406957109997
 30
0.0
 40
0.500028
100
AcDbArc
 50
303.5883609999999
 51
29.99499899999999
  0
ARC
  5
3CA
330
1A
100
AcDbEntity
  8
SEIHIN
  6
CONTINUOUS
 62
     3
 48
16.0
100
AcDbCircle
 10
201.2933490544749
 20
271.4406957109996
 30
0.0
 40
0.5000100000000001
100
AcDbArc
 50
243.5784309999999
 51
329.999272
  0
ARC
  5
3CB
330
1A
100
AcDbEntity
  8
SEIHIN
  6
CONTINUOUS
 62
     3
 48
16.0
100
AcDbCircle
 10
201.2933490544749
 20
271.4406957109996
 30
0.0
 40
0.4999840000000001
100
AcDbArc
 50
329.999272
 51
56.411639
  0
CIRCLE
  5
3CC
330
1A
100
AcDbEntity
  8
SEIHIN
  6
CONTINUOUS
 62
     3
 48
16.0
100
AcDbCircle
 10
204.7574490544749
 20
269.4406957109996
 30
0.0
 40
1.0
  0
LINE
  5
3CD
330
1A
100
AcDbEntity
  8
SEIHIN
  6
CONTINUOUS
 62
     3
 48
16.0
100
AcDbLine
 10
204.7574490544749
 20
276.1906957109997
 30
0.0
 11
198.2574490544749
 21
276.1906957109997
 31
0.0
  0
LINE
  5
3CE
330
1A
100
AcDbEntity
  8
SEIHIN
  6
CONTINUOUS
 62
     3
 48
16.0
100
AcDbLine
 10
192.2574490544749
 20
298.1906957109996
 30
0.0
 11
195.7575490544749
 21
298.1906957109996
 31
0.0
  0
LINE
  5
3CF
330
1A
100
AcDbEntity
  8
SEIHIN
  6
CONTINUOUS
 62
     3
 48
16.0
100
AcDbLine
 10
213.7573490544748
 20
298.1906957109996
 30
0.0
 11
213.7573490544748
 21
278.6906957109997
 31
0.0
  0
ARC
  5
3D0
330
1A
100
AcDbEntity
  8
SEIHIN
  6
CONTINUOUS
 62
     3
 48
16.0
100
AcDbCircle
 10
211.2573490544748
 20
278.6906957109997
 30
0.0
 40
2.5
100
AcDbArc
 50
270.0
 51
0.0
  0
ARC
  5
3D1
330
1A
100
AcDbEntity
  8
SEIHIN
  6
CONTINUOUS
 62
     3
 48
16.0
100
AcDbCircle
 10
208.2215490544748
 20
267.4406957109997
 30
0.0
 40
0.4999430000000001
100
AcDbArc
 50
63.583596
 51
149.9992719999999
  0
ARC
  5
3D2
330
1A
100
AcDbEntity
  8
SEIHIN
  6
CONTINUOUS
 62
     3
 48
16.0
100
AcDbCircle
 10
208.2215490544748
 20
271.4406957109996
 30
0.0
 40
0.499988
100
AcDbArc
 50
210.0007279999999
 51
296.411306
  0
ARC
  5
3D3
330
1A
100
AcDbEntity
  8
SEIHIN
  6
CONTINUOUS
 62
     3
 48
16.0
100
AcDbCircle
 10
212.5516490544748
 20
273.9406957109997
 30
0.0
 40
1.000000999999999
100
AcDbArc
 50
296.8135939999999
 51
30.000728
  0
LINE
  5
3D4
330
1A
100
AcDbEntity
  8
SEIHIN
  6
CONTINUOUS
 62
     3
 48
16.0
100
AcDbLine
 10
213.0027490544748
 20
273.0481957109996
 30
0.0
 11
208.4439490544748
 21
270.9928957109996
 31
0.0
  0
LINE
  5
3D5
330
1A
100
AcDbEntity
  8
SEIHIN
  6
CONTINUOUS
 62
     3
 48
16.0
100
AcDbLine
 10
213.0027490544748
 20
265.8330957109996
 30
0.0
 11
208.4439490544748
 21
267.8883957109996
 31
0.0
  0
ARC
  5
3D6
330
1A
100
AcDbEntity
  8
SEIHIN
  6
CONTINUOUS
 62
     3
 48
16.0
100
AcDbCircle
 10
208.2215490544748
 20
271.4406957109996
 30
0.0
 40
0.4999840000000001
100
AcDbArc
 50
123.588361
 51
210.0007279999999
  0
ARC
  5
3D7
330
1A
100
AcDbEntity
  8
SEIHIN
  6
CONTINUOUS
 62
     3
 48
16.0
100
AcDbCircle
 10
208.2215490544748
 20
267.4406957109997
 30
0.0
 40
0.4999840000000001
100
AcDbArc
 50
149.9992719999999
 51
236.4116389999999
  0
ARC
  5
3D8
330
1A
100
AcDbEntity
  8
SEIHIN
  6
CONTINUOUS
 62
     3
 48
16.0
100
AcDbCircle
 10
212.5516490544748
 20
273.9406957109997
 30
0.0
 40
1.000000999999999
100
AcDbArc
 50
30.000728
 51
123.187918
  0
LINE
  5
3D9
330
1A
100
AcDbEntity
  8
SEIHIN
  6
CONTINUOUS
 62
     3
 48
16.0
100
AcDbLine
 10
212.0042490544749
 20
274.7775957109996
 30
0.0
 11
207.9449490544749
 21
271.8571957109996
 31
0.0
  0
LINE
  5
3DA
330
1A
100
AcDbEntity
  8
SEIHIN
  6
CONTINUOUS
 62
     3
 48
16.0
100
AcDbLine
 10
217.2573490544748
 20
298.1906957109996
 30
0.0
 11
213.7573490544748
 21
298.1906957109996
 31
0.0
  0
LINE
  5
3DF
330
1A
100
AcDbEntity
  8
CENTER_L
  6
CENTER
 62
     1
 48
5.0
100
AcDbLine
 10
372.0247889203825
 20
383.3120957109997
 30
0.0
 11
372.0247889203825
 21
417.4703957109996
 31
0.0
  0
CIRCLE
  5
3E0
330
1A
100
AcDbEntity
  8
SEIHIN
  6
CONTINUOUS
 62
     3
 48
16.0
100
AcDbCircle
 10
372.0247889203825
 20
400.7904957109996
 30
0.0
 40
5.0
  0
ARC
  5
3E1
330
1A
100
AcDbEntity
  8
SEIHIN
  6
CONTINUOUS
 62
     3
 48
16.0
100
AcDbCircle
 10
372.0247889203825
 20
400.7904957109996
 30
0.0
 40
6.999989999999999
100
AcDbArc
 50
200.925738
 51
339.074262
  0
LINE
  5
3E3
330
1A
100
AcDbEntity
  8
SEIHIN
  6
CONTINUOUS
 62
     3
 48
16.0
100
AcDbLine
 10
314.2247889203825
 20
388.2904957109996
 30
0.0
 11
314.2247889203825
 21
400.7903957109997
 31
0.0
  0
LINE
  5
3E4
330
1A
100
AcDbEntity
  8
SEIHIN
  6
CONTINUOUS
 62
     3
 48
16.0
100
AcDbLine
 10
315.0247889203825
 20
400.7903957109997
 30
0.0
 11
315.0247889203825
 21
388.2904957109996
 31
0.0
  0
LINE
  5
3E5
330
1A
100
AcDbEntity
  8
SEIHIN
  6
CONTINUOUS
 62
     3
 48
16.0
100
AcDbLine
 10
372.0247889203825
 20
393.2903957109997
 30
0.0
 11
321.8578889203825
 21
393.2904957109996
 31
0.0
  0
LINE
  5
3E6
330
1A
100
AcDbEntity
  8
SEIHIN
  6
CONTINUOUS
 62
     3
 48
16.0
100
AcDbLine
 10
372.0247889203825
 20
389.7903957109996
 30
0.0
 11
338.9042889203824
 21
389.7904957109996
 31
0.0
  0
LINE
  5
3F1
330
1A
100
AcDbEntity
  8
SEIHIN
  6
CONTINUOUS
 62
     3
 48
16.0
100
AcDbLine
 10
315.0246889203824
 20
298.7904957109996
 30
0.0
 11
314.2246889203825
 21
298.7904957109996
 31
0.0
  0
LINE
  5
3F2
330
1A
100
AcDbEntity
  8
SEIHIN
  6
CONTINUOUS
 62
     3
 48
16.0
100
AcDbLine
 10
327.8958889203825
 20
389.7904957109996
 30
0.0
 11
315.0247889203825
 21
389.7904957109996
 31
0.0
  0
LINE
  5
3F8
330
1A
100
AcDbEntity
  8
SEIHIN
  6
CONTINUOUS
 62
     3
 48
16.0
100
AcDbLine
 10
315.0247889203825
 20
388.2904957109996
 30
0.0
 11
314.2248889203824
 21
388.2904957109996
 31
0.0
  0
ARC
  5
3F9
330
1A
100
AcDbEntity
  8
SEIHIN
  6
CONTINUOUS
 62
     3
 48
16.0
100
AcDbCircle
 10
333.4000889203824
 20
360.4173957109996
 30
0.0
 40
29.884266
100
AcDbArc
 50
79.38644599999999
 51
100.613554
  0
LINE
  5
3FA
330
1A
100
AcDbEntity
  8
SEIHIN
  6
CONTINUOUS
 62
     3
 48
16.0
100
AcDbLine
 10
322.5578889203825
 20
389.7904957109996
 30
0.0
 11
322.5578889203825
 21
393.2904957109996
 31
0.0
  0
LINE
  5
3FB
330
1A
100
AcDbEntity
  8
SEIHIN
  6
CONTINUOUS
 62
     3
 48
16.0
100
AcDbLine
 10
327.8958889203825
 20
389.7904957109996
 30
0.0
 11
327.8958889203825
 21
393.2904957109996
 31
0.0
  0
LINE
  5
3FC
330
1A
100
AcDbEntity
  8
SEIHIN
  6
CONTINUOUS
 62
     3
 48
16.0
100
AcDbLine
 10
338.9042889203824
 20
389.7903957109996
 30
0.0
 11
338.9042889203824
 21
393.2904957109996
 31
0.0
  0
LINE
  5
3FF
330
1A
100
AcDbEntity
  8
SEIHIN
  6
CONTINUOUS
 62
     3
 48
16.0
100
AcDbLine
 10
372.0247889203825
 20
389.7903957109996
 30
0.0
 11
405.1452889203825
 21
389.7903957109996
 31
0.0
  0
ARC
  5
401
330
1A
100
AcDbEntity
  8
SEIHIN
  6
CONTINUOUS
 62
     3
 48
16.0
100
AcDbCircle
 10
410.6493889203825
 20
360.4172957109996
 30
0.0
 40
29.884364
100
AcDbArc
 50
79.386292
 51
100.613331
  0
LINE
  5
402
330
1A
100
AcDbEntity
  8
SEIHIN
  6
CONTINUOUS
 62
     3
 48
16.0
100
AcDbLine
 10
405.1452889203825
 20
389.7903957109996
 30
0.0
 11
405.1452889203825
 21
393.2903957109997
 31
0.0
  0
LINE
  5
403
330
1A
100
AcDbEntity
  8
SEIHIN
  6
CONTINUOUS
 62
     3
 48
16.0
100
AcDbLine
 10
416.1536889203825
 20
389.7903957109996
 30
0.0
 11
416.1536889203825
 21
393.2903957109997
 31
0.0
  0
LINE
  5
404
330
1A
100
AcDbEntity
  8
SEIHIN
  6
CONTINUOUS
 62
     3
 48
16.0
100
AcDbLine
 10
372.0247889203825
 20
408.2904957109996
 30
0.0
 11
321.8578889203825
 21
408.2903957109996
 31
0.0
  0
LINE
  5
405
330
1A
100
AcDbEntity
  8
SEIHIN
  6
CONTINUOUS
 62
     3
 48
16.0
100
AcDbLine
 10
372.0247889203825
 20
411.7904957109996
 30
0.0
 11
338.9042889203824
 21
411.7904957109996
 31
0.0
  0
LINE
  5
406
330
1A
100
AcDbEntity
  8
SEIHIN
  6
CONTINUOUS
 62
     3
 48
16.0
100
AcDbLine
 10
365.4864889203825
 20
403.2904957109996
 30
0.0
 11
321.8578889203825
 21
403.2903957109996
 31
0.0
  0
LINE
  5
407
330
1A
100
AcDbEntity
  8
SEIHIN
  6
CONTINUOUS
 62
     3
 48
16.0
100
AcDbLine
 10
365.4864889203825
 20
398.2903957109996
 30
0.0
 11
321.8578889203825
 21
398.2904957109996
 31
0.0
  0
LINE
  5
408
330
1A
100
AcDbEntity
  8
CENTER_L
  6
CENTER
 62
     1
 48
5.0
100
AcDbLine
 10
372.0247889203825
 20
400.7903957109997
 30
0.0
 11
308.1910889203825
 21
400.7904957109996
 31
0.0
  0
LINE
  5
409
330
1A
100
AcDbEntity
  8
SEIHIN
  6
CONTINUOUS
 62
     3
 48
16.0
100
AcDbLine
 10
327.8958889203825
 20
411.7903957109996
 30
0.0
 11
315.0247889203825
 21
411.7903957109996
 31
0.0
  0
LINE
  5
40A
330
1A
100
AcDbEntity
  8
SEIHIN
  6
CONTINUOUS
 62
     3
 48
16.0
100
AcDbLine
 10
314.2247889203825
 20
413.2904957109996
 30
0.0
 11
314.2247889203825
 21
400.7904957109996
 31
0.0
  0
LINE
  5
40B
330
1A
100
AcDbEntity
  8
SEIHIN
  6
CONTINUOUS
 62
     3
 48
16.0
100
AcDbLine
 10
315.0247889203825
 20
400.7904957109996
 30
0.0
 11
315.0247889203825
 21
413.2903957109997
 31
0.0
  0
LINE
  5
40C
330
1A
100
AcDbEntity
  8
SEIHIN
  6
CONTINUOUS
 62
     3
 48
16.0
100
AcDbLine
 10
315.0247889203825
 20
413.2903957109997
 30
0.0
 11
314.2248889203824
 21
413.2903957109997
 31
0.0
  0
ARC
  5
40D
330
1A
100
AcDbEntity
  8
SEIHIN
  6
CONTINUOUS
 62
     3
 48
16.0
100
AcDbCircle
 10
333.4000889203824
 20
441.1634957109996
 30
0.0
 40
29.884257
100
AcDbArc
 50
259.3864459999999
 51
280.613366
  0
LINE
  5
40E
330
1A
100
AcDbEntity
  8
SEIHIN
  6
CONTINUOUS
 62
     3
 48
16.0
100
AcDbLine
 10
327.8958889203825
 20
411.7904957109996
 30
0.0
 11
327.8958889203825
 21
408.2903957109996
 31
0.0
  0
LINE
  5
40F
330
1A
100
AcDbEntity
  8
SEIHIN
  6
CONTINUOUS
 62
     3
 48
16.0
100
AcDbLine
 10
322.5578889203825
 20
411.7904957109996
 30
0.0
 11
322.5578889203825
 21
408.2903957109996
 31
0.0
  0
LINE
  5
411
330
1A
100
AcDbEntity
  8
SEIHIN
  6
CONTINUOUS
 62
     3
 48
16.0
100
AcDbLine
 10
322.5578889203825
 20
398.2904957109996
 30
0.0
 11
322.5578889203825
 21
400.7904957109996
 31
0.0
  0
LINE
  5
412
330
1A
100
AcDbEntity
  8
SEIHIN
  6
CONTINUOUS
 62
     3
 48
16.0
100
AcDbLine
 10
322.5578889203825
 20
403.2904957109996
 30
0.0
 11
322.5578889203825
 21
400.7904957109996
 31
0.0
  0
LINE
  5
413
330
1A
100
AcDbEntity
  8
SEIHIN
  6
CONTINUOUS
 62
     3
 48
16.0
100
AcDbLine
 10
327.8958889203825
 20
398.2904957109996
 30
0.0
 11
327.8958889203825
 21
400.7904957109996
 31
0.0
  0
LINE
  5
414
330
1A
100
AcDbEntity
  8
SEIHIN
  6
CONTINUOUS
 62
     3
 48
16.0
100
AcDbLine
 10
327.8958889203825
 20
403.2904957109996
 30
0.0
 11
327.8958889203825
 21
400.7904957109996
 31
0.0
  0
LINE
  5
415
330
1A
100
AcDbEntity
  8
SEIHIN
  6
CONTINUOUS
 62
     3
 48
16.0
100
AcDbLine
 10
338.9042889203824
 20
411.7904957109996
 30
0.0
 11
338.9042889203824
 21
408.2904957109996
 31
0.0
  0
LINE
  5
416
330
1A
100
AcDbEntity
  8
SEIHIN
  6
CONTINUOUS
 62
     3
 48
16.0
100
AcDbLine
 10
338.9042889203824
 20
398.2904957109996
 30
0.0
 11
338.9042889203824
 21
400.7903957109997
 31
0.0
  0
LINE
  5
417
330
1A
100
AcDbEntity
  8
SEIHIN
  6
CONTINUOUS
 62
     3
 48
16.0
100
AcDbLine
 10
338.9042889203824
 20
403.2904957109996
 30
0.0
 11
338.9042889203824
 21
400.7904957109996
 31
0.0
  0
LINE
  5
418
330
1A
100
AcDbEntity
  8
SEIHIN
  6
CONTINUOUS
 62
     3
 48
16.0
100
AcDbLine
 10
372.0247889203825
 20
411.7904957109996
 30
0.0
 11
405.1452889203825
 21
411.7904957109996
 31
0.0
  0
ARC
  5
419
330
1A
100
AcDbEntity
  8
SEIHIN
  6
CONTINUOUS
 62
     3
 48
16.0
100
AcDbCircle
 10
372.0247889203825
 20
400.7904957109996
 30
0.0
 40
6.999954999999999
100
AcDbArc
 50
20.924974
 51
159.075026
  0
LINE
  5
41A
330
1A
100
AcDbEntity
  8
SEIHIN
  6
CONTINUOUS
 62
     3
 48
16.0
100
AcDbLine
 10
374.0247889203825
 20
398.7904957109996
 30
0.0
 11
374.0247889203825
 21
402.7904957109996
 31
0.0
  0
LINE
  5
41C
330
1A
100
AcDbEntity
  8
SEIHIN
  6
CONTINUOUS
 62
     3
 48
16.0
100
AcDbLine
 10
370.0247889203825
 20
398.7904957109996
 30
0.0
 11
370.0247889203825
 21
402.7904957109996
 31
0.0
  0
LINE
  5
41E
330
1A
100
AcDbEntity
  8
SEIHIN
  6
CONTINUOUS
 62
     3
 48
16.0
100
AcDbLine
 10
370.0247889203825
 20
402.7904957109996
 30
0.0
 11
374.0247889203825
 21
402.7904957109996
 31
0.0
  0
LINE
  5
41F
330
1A
100
AcDbEntity
  8
SEIHIN
  6
CONTINUOUS
 62
     3
 48
16.0
100
AcDbLine
 10
370.0247889203825
 20
398.7904957109996
 30
0.0
 11
374.0247889203825
 21
398.7904957109996
 31
0.0
  0
LINE
  5
420
330
1A
100
AcDbEntity
  8
SEIHIN
  6
CONTINUOUS
 62
     3
 48
16.0
100
AcDbLine
 10
416.1536889203825
 20
411.7904957109996
 30
0.0
 11
416.1536889203825
 21
408.2904957109996
 31
0.0
  0
LINE
  5
421
330
1A
100
AcDbEntity
  8
SEIHIN
  6
CONTINUOUS
 62
     3
 48
16.0
100
AcDbLine
 10
405.1452889203825
 20
411.7904957109996
 30
0.0
 11
405.1452889203825
 21
408.2904957109996
 31
0.0
  0
LINE
  5
422
330
1A
100
AcDbEntity
  8
SEIHIN
  6
CONTINUOUS
 62
     3
 48
16.0
100
AcDbLine
 10
405.1452889203825
 20
398.2903957109996
 30
0.0
 11
405.1452889203825
 21
400.7903957109997
 31
0.0
  0
LINE
  5
423
330
1A
100
AcDbEntity
  8
SEIHIN
  6
CONTINUOUS
 62
     3
 48
16.0
100
AcDbLine
 10
405.1452889203825
 20
403.2904957109996
 30
0.0
 11
405.1452889203825
 21
400.7904957109996
 31
0.0
  0
LINE
  5
424
330
1A
100
AcDbEntity
  8
SEIHIN
  6
CONTINUOUS
 62
     3
 48
16.0
100
AcDbLine
 10
416.1536889203825
 20
398.2903957109996
 30
0.0
 11
416.1536889203825
 21
400.7903957109997
 31
0.0
  0
LINE
  5
425
330
1A
100
AcDbEntity
  8
SEIHIN
  6
CONTINUOUS
 62
     3
 48
16.0
100
AcDbLine
 10
416.1536889203825
 20
403.2904957109996
 30
0.0
 11
416.1536889203825
 21
400.7904957109996
 31
0.0
  0
ARC
  5
426
330
1A
100
AcDbEntity
  8
SEIHIN
  6
CONTINUOUS
 62
     3
 48
16.0
100
AcDbCircle
 10
410.6493889203825
 20
441.1635957109997
 30
0.0
 40
29.884364
100
AcDbArc
 50
259.3864809999999
 51
280.613519
  0
LINE
  5
427
330
1A
100
AcDbEntity
  8
SEIHIN
  6
CONTINUOUS
 62
     3
 48
16.0
100
AcDbLine
 10
429.8246889203825
 20
277.652420423945
 30
0.0
 11
429.8246889203825
 21
264.7904957109996
 31
0.0
  0
LINE
  5
428
330
1A
100
AcDbEntity
  8
SEIHIN
  6
CONTINUOUS
 62
     3
 48
16.0
100
AcDbLine
 10
429.0246889203825
 20
277.6524753423988
 30
0.0
 11
429.0246889203825
 21
264.7904957109996
 31
0.0
  0
LINE
  5
42E
330
1A
100
AcDbEntity
  8
SEIHIN
  6
CONTINUOUS
 62
     3
 48
16.0
100
AcDbLine
 10
420.1763889203824
 20
237.1088957109997
 30
0.0
 11
425.7303889203825
 21
263.4904957109996
 31
0.0
  0
LINE
  5
42F
330
1A
100
AcDbEntity
  8
SEIHIN
  6
CONTINUOUS
 62
     3
 48
16.0
100
AcDbLine
 10
422.7637889203824
 20
264.2904957109996
 30
0.0
 11
428.5246889203825
 21
264.2904957109996
 31
0.0
  0
LINE
  5
430
330
1A
100
AcDbEntity
  8
SEIHIN
  6
CONTINUOUS
 62
     3
 48
16.0
100
AcDbLine
 10
422.7636889203824
 20
263.4904957109996
 30
0.0
 11
428.5246889203825
 21
263.4904957109996
 31
0.0
  0
ARC
  5
431
330
1A
100
AcDbEntity
  8
SEIHIN
  6
CONTINUOUS
 62
     3
 48
16.0
100
AcDbCircle
 10
422.7637889203824
 20
262.9904957109996
 30
0.0
 40
1.300039999999999
100
AcDbArc
 50
90.0
 51
168.1127039999999
  0
ARC
  5
432
330
1A
100
AcDbEntity
  8
SEIHIN
  6
CONTINUOUS
 62
     3
 48
16.0
100
AcDbCircle
 10
422.7636889203824
 20
262.9904957109996
 30
0.0
 40
0.500012
100
AcDbArc
 50
90.0
 51
168.112522
  0
ARC
  5
433
330
1A
100
AcDbEntity
  8
SEIHIN
  6
CONTINUOUS
 62
     3
 48
16.0
100
AcDbCircle
 10
428.5246889203825
 20
264.7904957109996
 30
0.0
 40
0.5
100
AcDbArc
 50
270.0
 51
0.0
  0
ARC
  5
434
330
1A
100
AcDbEntity
  8
SEIHIN
  6
CONTINUOUS
 62
     3
 48
16.0
100
AcDbCircle
 10
428.5246889203825
 20
264.7904957109996
 30
0.0
 40
1.299949999999999
100
AcDbArc
 50
270.0
 51
0.0
  0
LINE
  5
43F
330
1A
100
AcDbEntity
  8
SEIHIN
  6
CONTINUOUS
 62
     3
 48
16.0
100
AcDbLine
 10
508.3317889203825
 20
236.6030957109996
 30
0.0
 11
523.4102889203825
 21
239.2952957109996
 31
0.0
  0
LINE
  5
440
330
1A
100
AcDbEntity
  8
SEIHIN
  6
CONTINUOUS
 62
     3
 48
16.0
100
AcDbLine
 10
523.4102889203825
 20
239.2952957109996
 30
0.0
 11
510.6341889203825
 21
230.8464957109996
 31
0.0
  0
LINE
  5
444
330
1A
100
AcDbEntity
  8
SEIHIN
  6
CONTINUOUS
 62
     3
 48
16.0
100
AcDbLine
 10
513.3578889203826
 20
237.5004957109996
 30
0.0
 11
509.4828889203825
 21
233.7246957109996
 31
0.0
  0
LINE
  5
445
330
1A
100
AcDbEntity
  8
SEIHIN
  6
CONTINUOUS
 62
     3
 48
16.0
100
AcDbLine
 10
509.4828889203825
 20
233.7246957109996
 30
0.0
 11
514.8928889203824
 21
233.6626957109997
 31
0.0
  0
LINE
  5
44D
330
1A
100
AcDbEntity
  8
SEIHIN
  6
CONTINUOUS
 62
     3
 48
16.0
100
AcDbLine
 10
507.6715889203825
 20
398.0404957109996
 30
0.0
 11
522.6715889203825
 21
400.7903957109997
 31
0.0
  0
LINE
  5
44E
330
1A
100
AcDbEntity
  8
SEIHIN
  6
CONTINUOUS
 62
     3
 48
16.0
100
AcDbLine
 10
429.8247889203825
 20
388.2903957109996
 30
0.0
 11
429.8247889203825
 21
400.7903957109997
 31
0.0
  0
LINE
  5
44F
330
1A
100
AcDbEntity
  8
SEIHIN
  6
CONTINUOUS
 62
     3
 48
16.0
100
AcDbLine
 10
418.8247889203824
 20
400.7904957109996
 30
0.0
 11
418.8247889203824
 21
391.7904957109996
 31
0.0
  0
LINE
  5
450
330
1A
100
AcDbEntity
  8
SEIHIN
  6
CONTINUOUS
 62
     3
 48
16.0
100
AcDbLine
 10
429.8246889203825
 20
398.0405957109997
 30
0.0
 11
507.6715889203825
 21
398.0404957109996
 31
0.0
  0
LINE
  5
453
330
1A
100
AcDbEntity
  8
SEIHIN
  6
CONTINUOUS
 62
     3
 48
16.0
100
AcDbLine
 10
428.2737731559191
 20
278.9279757066136
 30
0.0
 11
418.9897792367028
 21
277.101711911414
 31
0.0
  0
LINE
  5
454
330
1A
100
AcDbEntity
  8
SEIHIN
  6
CONTINUOUS
 62
     3
 48
16.0
100
AcDbLine
 10
419.1442407579581
 20
276.3167932287141
 30
0.0
 11
428.4281814988799
 21
278.1430732608564
 31
0.0
  0
LINE
  5
455
330
1A
100
AcDbEntity
  8
SEIHIN
  6
CONTINUOUS
 62
     3
 48
16.0
100
AcDbLine
 10
419.484514466466
 20
274.5866736567485
 30
0.0
 11
428.6620467591798
 21
278.1332380948256
 31
0.0
  0
LINE
  5
456
330
1A
100
AcDbEntity
  8
SEIHIN
  6
CONTINUOUS
 62
     3
 48
16.0
100
AcDbLine
 10
418.9897792367028
 20
277.101711911414
 30
0.0
 11
419.484514466466
 21
274.5866736567485
 31
0.0
  0
LINE
  5
45A
330
1A
100
AcDbEntity
  8
SEIHIN
  6
CONTINUOUS
 62
     3
 48
16.0
100
AcDbLine
 10
429.8247889203825
 20
391.7904957109996
 30
0.0
 11
418.8247889203824
 21
391.7904957109996
 31
0.0
  0
LINE
  5
45B
330
1A
100
AcDbEntity
  8
SEIHIN
  6
CONTINUOUS
 62
     3
 48
16.0
100
AcDbLine
 10
421.4916889203824
 20
389.7903957109996
 30
0.0
 11
421.4916889203824
 21
391.7904957109996
 31
0.0
  0
LINE
  5
45C
330
1A
100
AcDbEntity
  8
SEIHIN
  6
CONTINUOUS
 62
     3
 48
16.0
100
AcDbLine
 10
429.0247889203825
 20
388.2904957109996
 30
0.0
 11
429.8246889203825
 21
388.2904957109996
 31
0.0
  0
LINE
  5
45D
330
1A
100
AcDbEntity
  8
SEIHIN
  6
CONTINUOUS
 62
     3
 48
16.0
100
AcDbLine
 10
429.0247889203825
 20
391.7904957109996
 30
0.0
 11
429.0247889203825
 21
388.2903957109996
 31
0.0
  0
LINE
  5
45E
330
1A
100
AcDbEntity
  8
SEIHIN
  6
CONTINUOUS
 62
     3
 48
16.0
100
AcDbLine
 10
429.8247889203825
 20
403.5405957109997
 30
0.0
 11
507.6714889203826
 21
403.5404957109996
 31
0.0
  0
LINE
  5
45F
330
1A
100
AcDbEntity
  8
SEIHIN
  6
CONTINUOUS
 62
     3
 48
16.0
100
AcDbLine
 10
429.8247889203825
 20
413.2904957109996
 30
0.0
 11
429.8247889203825
 21
400.7904957109996
 31
0.0
  0
LINE
  5
460
330
1A
100
AcDbEntity
  8
SEIHIN
  6
CONTINUOUS
 62
     3
 48
16.0
100
AcDbLine
 10
418.8247889203824
 20
400.7904957109996
 30
0.0
 11
418.8247889203824
 21
409.7904957109996
 31
0.0
  0
LINE
  5
461
330
1A
100
AcDbEntity
  8
SEIHIN
  6
CONTINUOUS
 62
     3
 48
16.0
100
AcDbLine
 10
429.8247889203825
 20
409.7904957109996
 30
0.0
 11
418.8247889203824
 21
409.7904957109996
 31
0.0
  0
LINE
  5
462
330
1A
100
AcDbEntity
  8
SEIHIN
  6
CONTINUOUS
 62
     3
 48
16.0
100
AcDbLine
 10
421.4916889203824
 20
411.7904957109996
 30
0.0
 11
421.4916889203824
 21
409.7904957109996
 31
0.0
  0
LINE
  5
463
330
1A
100
AcDbEntity
  8
SEIHIN
  6
CONTINUOUS
 62
     3
 48
16.0
100
AcDbLine
 10
429.0247889203825
 20
409.7904957109996
 30
0.0
 11
429.0247889203825
 21
413.2904957109996
 31
0.0
  0
LINE
  5
464
330
1A
100
AcDbEntity
  8
SEIHIN
  6
CONTINUOUS
 62
     3
 48
16.0
100
AcDbLine
 10
429.0247889203825
 20
413.2904957109996
 30
0.0
 11
429.8246889203825
 21
413.2904957109996
 31
0.0
  0
LINE
  5
465
330
1A
100
AcDbEntity
  8
SEIHIN
  6
CONTINUOUS
 62
     3
 48
16.0
100
AcDbLine
 10
507.6714889203826
 20
403.5403957109997
 30
0.0
 11
522.6715889203825
 21
400.7904957109996
 31
0.0
  0
TEXT
  5
48F
330
1A
100
AcDbEntity
  8
SUNPOU
 62
     4
 48
16.0
100
AcDbText
 10
704.2039473241867
 20
139.5178552329294
 30
0.0
 40
6.0
  1
Ｈ　寸　法
 72
     4
 11
721.8039473241868
 21
142.5178552329295
 31
0.0
100
AcDbText
  0
LINE
  5
490
330
1A
100
AcDbEntity
  8
SUNPOU
 62
     4
 48
16.0
100
AcDbLine
 10
662.1622706284097
 20
45.0245345647927
 30
0.0
 11
782.1623406284097
 21
45.0245345647927
 31
0.0
  0
LINE
  5
491
330
1A
100
AcDbEntity
  8
SUNPOU
 62
     4
 48
16.0
100
AcDbLine
 10
662.1622706284097
 20
60.02453456479265
 30
0.0
 11
782.1623406284097
 21
60.02453456479265
 31
0.0
  0
LINE
  5
492
330
1A
100
AcDbEntity
  8
SUNPOU
 62
     4
 48
16.0
100
AcDbLine
 10
662.1622706284097
 20
75.0245345647927
 30
0.0
 11
782.1623406284097
 21
75.0245345647927
 31
0.0
  0
LINE
  5
493
330
1A
100
AcDbEntity
  8
SUNPOU
 62
     4
 48
16.0
100
AcDbLine
 10
662.1622706284097
 20
90.02453456479271
 30
0.0
 11
782.1623406284097
 21
90.02453456479271
 31
0.0
  0
LINE
  5
494
330
1A
100
AcDbEntity
  8
SUNPOU
 62
     4
 48
16.0
100
AcDbLine
 10
662.1622706284097
 20
105.0245345647927
 30
0.0
 11
782.1623406284097
 21
105.0245345647927
 31
0.0
  0
LINE
  5
495
330
1A
100
AcDbEntity
  8
SUNPOU
 62
     4
 48
16.0
100
AcDbLine
 10
662.1622706284097
 20
120.0245945647926
 30
0.0
 11
782.1623406284097
 21
120.0245945647926
 31
0.0
  0
LINE
  5
496
330
1A
100
AcDbEntity
  8
SUNPOU
 62
     4
 48
16.0
100
AcDbLine
 10
662.1622706284097
 20
135.0245945647925
 30
0.0
 11
782.1623406284097
 21
135.0245945647925
 31
0.0
  0
LINE
  5
497
330
1A
100
AcDbEntity
  8
SUNPOU
 62
     4
 48
16.0
100
AcDbLine
 10
662.1622706284097
 20
150.0245945647925
 30
0.0
 11
782.1622406284095
 21
150.0245945647925
 31
0.0
  0
LINE
  5
498
330
1A
100
AcDbEntity
  8
SUNPOU
 62
     4
 48
16.0
100
AcDbLine
 10
722.1622806284097
 20
45.0245345647927
 30
0.0
 11
722.1623306284097
 21
135.0245945647925
 31
0.0
  0
LINE
  5
499
330
1A
100
AcDbEntity
  8
SUNPOU
 62
     4
 48
16.0
100
AcDbLine
 10
662.1622706284097
 20
150.0245945647925
 30
0.0
 11
662.1622606284097
 21
45.0245345647927
 31
0.0
  0
TEXT
  5
49A
330
1A
100
AcDbEntity
  8
SUNPOU
 62
     4
 48
16.0
100
AcDbText
 10
680.9121606284097
 20
93.77452456479273
 30
0.0
 40
6.0
  1
H 4
 41
1.323529411764705
 72
     5
 11
698.9121606284097
 21
93.77452456479273
 31
0.0
100
AcDbText
  0
TEXT
  5
49B
330
1A
100
AcDbEntity
  8
SUNPOU
 62
     4
 48
16.0
100
AcDbText
 10
680.9121606284097
 20
78.77452456479272
 30
0.0
 40
6.0
  1
H 3
 41
1.323529411764705
 72
     5
 11
698.9121606284097
 21
78.77452456479272
 31
0.0
100
AcDbText
  0
TEXT
  5
49C
330
1A
100
AcDbEntity
  8
SUNPOU
 62
     4
 48
16.0
100
AcDbText
 10
680.9121106284096
 20
48.7745245647925
 30
0.0
 40
6.0
  1
H 1
 41
1.551724137931034
 72
     5
 11
698.9121106284096
 21
48.7745245647925
 31
0.0
100
AcDbText
  0
TEXT
  5
49D
330
1A
100
AcDbEntity
  8
SUNPOU
 62
     4
 48
16.0
100
AcDbText
 10
680.9121106284096
 20
63.77452456479267
 30
0.0
 40
6.0
  1
H 2
 41
1.323529411764705
 72
     5
 11
698.9121106284096
 21
63.77452456479267
 31
0.0
100
AcDbText
  0
TEXT
  5
49E
330
1A
100
AcDbEntity
  8
SUNPOU
 62
     4
 48
16.0
100
AcDbText
 10
680.9121634855566
 20
123.7745845647926
 30
0.0
 40
6.0
  1
呼び
 41
1.40625
 72
     5
 11
698.9121634855567
 21
123.7745845647926
 31
0.0
100
AcDbText
  0
TEXT
  5
49F
330
1A
100
AcDbEntity
  8
SUNPOU
 62
     4
 48
16.0
100
AcDbText
 10
680.9122106284096
 20
108.7745245647926
 30
0.0
 40
6.0
  1
H 5
 41
1.323529411764705
 72
     5
 11
698.9122106284096
 21
108.7745245647926
 31
0.0
100
AcDbText
  0
TEXT
  5
4A0
330
1A
100
AcDbEntity
  8
SUNPOU
 62
     4
 48
16.0
100
AcDbText
 10
740.9122406284097
 20
93.56513223921126
 30
0.0
 40
6.0
  1
3 4
 41
1.125
100
AcDbText
  0
LINE
  5
4A1
330
1A
100
AcDbEntity
  8
SUNPOU
 62
     4
 48
16.0
100
AcDbLine
 10
782.1622406284095
 20
150.0245945647925
 30
0.0
 11
782.1623406284097
 21
45.0245345647927
 31
0.0
  0
TEXT
  5
4A2
330
1A
100
AcDbEntity
  8
SUNPOU
 62
     4
 48
16.0
100
AcDbText
 10
740.9123406284098
 20
48.5652522392113
 30
0.0
 40
6.0
  1
4 9
 41
1.125
100
AcDbText
  0
TEXT
  5
4A3
330
1A
100
AcDbEntity
  8
SUNPOU
 62
     4
 48
16.0
100
AcDbText
 10
740.9122406284097
 20
78.56513223921126
 30
0.0
 40
6.0
  1
3 9
 41
1.125
100
AcDbText
  0
TEXT
  5
4A4
330
1A
100
AcDbEntity
  8
SUNPOU
 62
     4
 48
16.0
100
AcDbText
 10
740.9122406284097
 20
63.56513223921126
 30
0.0
 40
6.0
  1
4 4
 41
1.125
100
AcDbText
  0
TEXT
  5
4A5
330
1A
100
AcDbEntity
  8
SUNPOU
 62
     4
 48
16.0
100
AcDbText
 10
740.9122434855564
 20
123.7744945647927
 30
0.0
 40
6.0
  1
寸法
 41
1.406250000000017
 72
     5
 11
758.9122434855567
 21
123.7744945647927
 31
0.0
100
AcDbText
  0
TEXT
  5
4A6
330
1A
100
AcDbEntity
  8
SUNPOU
 62
     4
 48
16.0
100
AcDbText
 10
740.9122406284097
 20
108.5651322392112
 30
0.0
 40
6.0
  1
2 9
 41
1.125
100
AcDbText
  0
TEXT
  5
4A7
330
1A
100
AcDbEntity
  8
SUNPOU
  6
CONTINUOUS
 62
     4
 48
16.0
100
AcDbText
 10
575.2878328870727
 20
250.2440839271317
 30
0.0
 40
6.0
  1
10
100
AcDbText
  0
LINE
  5
4A8
330
1A
100
AcDbEntity
  8
SUNPOU
  6
CONTINUOUS
 62
     4
 48
16.0
100
AcDbLine
 10
587.1522670701692
 20
268.1295470457529
 30
0.0
 11
567.1522670701695
 21
260.1295470457529
 31
0.0
  0
LINE
  5
4A9
330
1A
100
AcDbEntity
  8
SUNPOU
  6
CONTINUOUS
 62
     4
 48
16.0
100
AcDbLine
 10
567.1522670701695
 20
260.1295470457529
 30
0.0
 11
587.1522670701692
 21
260.1295470457529
 31
0.0
  0
LINE
  5
4AA
330
1A
100
AcDbEntity
  8
SUNPOU
  6
CONTINUOUS
 62
     4
 48
16.0
100
AcDbLine
 10
587.1522670701692
 20
260.1295470457529
 30
0.0
 11
587.1522670701692
 21
268.1295470457529
 31
0.0
  0
TEXT
  5
4AB
330
1A
100
AcDbEntity
  8
SUNPOU
  6
CONTINUOUS
 62
     4
 48
16.0
100
AcDbText
 10
591.9180670701694
 20
261.8374470457529
 30
0.0
 40
6.0
  1
4
100
AcDbText
  0
DIMENSION
  5
4E4
330
1A
100
AcDbEntity
  8
SUNPOU
  6
CONTINUOUS
100
AcDbDimension
  2
*D2
 10
277.4853025633542
 20
388.2904957109996
 30
0.0
 11
272.4853025633542
 21
400.7904957109996
 31
0.0
 70
    32
  3
STANDARD
100
AcDbAlignedDimension
 13
314.2247889203825
 23
413.2904957109996
 33
0.0
 14
314.2247889203825
 24
388.2904957109996
 34
0.0
 50
90.0
100
AcDbRotatedDimension
1001
ACAD
1000
DSTYLE
1002
{
1070
   140
1040
6.0
1070
    74
1070
     0
1070
   172
1070
     1
1070
    73
1070
     0
1070
   272
1070
     2
1070
    77
1070
     3
1070
   173
1070
     1
1070
   147
1040
2.0
1070
    42
1040
6.0
1070
    44
1040
3.0
1070
    43
1040
14.0
1070
   271
1070
     0
1070
   178
1070
     4
1070
   177
1070
     4
1070
   176
1070
     4
1070
   141
1040
150.0
1070
     7
1000
_OPEN
1070
     6
1000
_OPEN
1070
    41
1040
7.0
1002
}
  0
DIMENSION
  5
4F3
330
1A
100
AcDbEntity
  8
SUNPOU
  6
CONTINUOUS
100
AcDbDimension
  2
*D3
 10
543.9433625841007
 20
244.168776474531
 30
0.0
 11
556.7556734973768
 21
225.5987821540811
 31
0.0
 12
-1.151541127514519
 22
-57.52941377083311
 32
0.0
 70
    33
  3
STANDARD
100
AcDbAlignedDimension
 13
508.3317889203825
 23
236.6030957109996
 33
0.0
 14
510.6341889203825
 24
230.8464957109996
 34
0.0
1001
ACAD
1000
DSTYLE
1002
{
1070
   140
1040
6.0
1070
    74
1070
     0
1070
   172
1070
     1
1070
    73
1070
     0
1070
   272
1070
     2
1070
    77
1070
     3
1070
   173
1070
     1
1070
   147
1040
2.0
1070
    42
1040
6.0
1070
    44
1040
3.0
1070
    43
1040
14.0
1070
   271
1070
     1
1070
   178
1070
     4
1070
   177
1070
     4
1070
   176
1070
     4
1070
   141
1040
150.0
1070
     7
1000
_OPEN
1070
     6
1000
_OPEN
1070
    41
1040
7.0
1002
}
  0
ARC
  5
50F
330
1A
100
AcDbEntity
  8
SEIHIN
  6
CONTINUOUS
 62
     3
 48
16.0
100
AcDbCircle
 10
428.5246889203825
 20
277.652420423945
 30
0.0
 40
1.3
100
AcDbArc
 50
0.0
 51
101.1286208965257
  0
ARC
  5
510
330
1A
100
AcDbEntity
  8
SEIHIN
  6
CONTINUOUS
 62
     3
 48
16.0
100
AcDbCircle
 10
428.5246889203825
 20
277.6524753423988
 30
0.0
 40
0.5
100
AcDbArc
 50
0.0
 51
101.1287795230213
  0
DIMENSION
  5
51D
330
1A
100
AcDbEntity
  8
SUNPOU
  6
CONTINUOUS
100
AcDbDimension
  2
*D4
 10
314.2246889203825
 20
322.6676489035126
 30
0.0
 11
372.0246889203824
 21
327.6676489035125
 31
0.0
 12
-1.151541127514519
 22
-57.52941377083311
 32
0.0
 70
    32
  3
STANDARD
100
AcDbAlignedDimension
 13
429.8246889203825
 23
277.652420423945
 33
0.0
 14
314.2246889203825
 24
298.7904957109996
 34
0.0
100
AcDbRotatedDimension
1001
ACAD
1000
DSTYLE
1002
{
1070
   140
1040
6.0
1070
    74
1070
     0
1070
   172
1070
     1
1070
    73
1070
     0
1070
   272
1070
     2
1070
    77
1070
     3
1070
   173
1070
     1
1070
   147
1040
2.0
1070
    42
1040
6.0
1070
    44
1040
3.0
1070
    43
1040
14.0
1070
   271
1070
     0
1070
   178
1070
     4
1070
   177
1070
     4
1070
   176
1070
     4
1070
   141
1040
150.0
1070
     7
1000
_OPEN
1070
     6
1000
_OPEN
1070
    41
1040
7.0
1002
}
  0
DIMENSION
  5
544
330
1A
100
AcDbEntity
  8
SUNPOU
  6
CONTINUOUS
100
AcDbDimension
  2
*D5
 10
273.5531809985509
 20
225.7905457109997
 30
0.0
 11
268.5531809985509
 21
262.2905207109996
 31
0.0
 70
    32
  3
STANDARD
100
AcDbAlignedDimension
 13
314.2246889203825
 23
298.7904957109996
 33
0.0
 14
338.9093889203825
 24
225.7905457109997
 34
0.0
 50
90.0
100
AcDbRotatedDimension
1001
ACAD
1000
DSTYLE
1002
{
1070
   140
1040
6.0
1070
    74
1070
     0
1070
   172
1070
     1
1070
    73
1070
     0
1070
   272
1070
     2
1070
    77
1070
     3
1070
   173
1070
     1
1070
   147
1040
2.0
1070
    42
1040
6.0
1070
    44
1040
3.0
1070
    43
1040
14.0
1070
   271
1070
     0
1070
   178
1070
     4
1070
   177
1070
     4
1070
   176
1070
     4
1070
   141
1040
150.0
1070
     7
1000
_OPEN
1070
     6
1000
_OPEN
1070
    41
1040
7.0
1002
}
  0
DIMENSION
  5
551
330
1A
100
AcDbEntity
  8
SUNPOU
  6
CONTINUOUS
100
AcDbDimension
  2
*D6
 10
348.3028349850042
 20
176.5786957109997
 30
0.0
 11
343.3028349850042
 21
201.1846207109996
 31
0.0
 12
-1.151541127514519
 22
-57.52941377083311
 32
0.0
 70
    32
  1
H
  3
STANDARD
100
AcDbAlignedDimension
 13
338.9093889203825
 23
225.7905457109997
 33
0.0
 14
368.0246889203824
 24
176.5786957109997
 34
0.0
 50
90.0
100
AcDbRotatedDimension
1001
ACAD
1000
DSTYLE
1002
{
1070
   140
1040
6.0
1070
    74
1070
     0
1070
   172
1070
     1
1070
    73
1070
     0
1070
   272
1070
     2
1070
    77
1070
     3
1070
   173
1070
     1
1070
   147
1040
2.0
1070
    42
1040
6.0
1070
    44
1040
3.0
1070
    43
1040
14.0
1070
   271
1070
     0
1070
   178
1070
     4
1070
   177
1070
     4
1070
   176
1070
     4
1070
   141
1040
150.0
1070
     7
1000
_OPEN
1070
     6
1000
_OPEN
1070
    41
1040
7.0
1002
}
  0
POINT
  5
587
330
1A
100
AcDbEntity
  8
DEFPOINTS
  6
BYBLOCK
 62
     0
100
AcDbPoint
 10
523.4102190104307
 20
239.2952832288845
 30
0.0
  0
POINT
  5
588
330
1A
100
AcDbEntity
  8
DEFPOINTS
  6
BYBLOCK
 62
     0
100
AcDbPoint
 10
370.2099218786043
 20
178.0196161992287
 30
0.0
  0
POINT
  5
589
330
1A
100
AcDbEntity
  8
DEFPOINTS
  6
BYBLOCK
 62
     0
100
AcDbPoint
 10
382.7817720592015
 20
146.587707310629
 30
0.0
  0
DIMENSION
  5
597
330
1A
100
AcDbEntity
  8
SUNPOU
  6
CONTINUOUS
100
AcDbDimension
  2
*D7
 10
384.3895676214699
 20
142.5679263795206
 30
0.0
 11
459.132879102432
 21
177.8481898658126
 31
0.0
 70
    33
  3
STANDARD
100
AcDbAlignedDimension
 13
525.6384235123723
 23
233.7243672631274
 33
0.0
 14
372.4381263805458
 24
172.4487002334716
 34
0.0
1001
ACAD
1000
DSTYLE
1002
{
1070
   140
1040
6.0
1070
    74
1070
     0
1070
   172
1070
     1
1070
    73
1070
     0
1070
   272
1070
     2
1070
    77
1070
     3
1070
   173
1070
     1
1070
   147
1040
2.0
1070
    42
1040
6.0
1070
    44
1040
3.0
1070
    43
1040
14.0
1070
   271
1070
     0
1070
   178
1070
     4
1070
   177
1070
     4
1070
   176
1070
     4
1070
   141
1040
150.0
1070
     7
1000
_OPEN
1070
     6
1000
_OPEN
1070
    41
1040
7.0
1002
}
  0
DIMENSION
  5
5B9
330
1A
100
AcDbEntity
  8
SUNPOU
  6
CONTINUOUS
100
AcDbDimension
  2
*D8
 10
555.7530060046756
 20
398.0404957109996
 30
0.0
 11
550.7530060046756
 21
376.0404957109996
 31
0.0
 70
    32
  3
STANDARD
100
AcDbAlignedDimension
 13
507.6714889203826
 23
403.5404957109996
 33
0.0
 14
507.6715889203825
 24
398.0404957109996
 34
0.0
 50
90.0
100
AcDbRotatedDimension
1001
ACAD
1000
DSTYLE
1002
{
1070
   140
1040
6.0
1070
    74
1070
     0
1070
   172
1070
     1
1070
    73
1070
     0
1070
   272
1070
     2
1070
    77
1070
     3
1070
   173
1070
     1
1070
   147
1040
2.0
1070
    42
1040
6.0
1070
    44
1040
3.0
1070
    43
1040
14.0
1070
   271
1070
     1
1070
   178
1070
     4
1070
   177
1070
     4
1070
   176
1070
     4
1070
   141
1040
150.0
1070
     7
1000
_OPEN
1070
     6
1000
_OPEN
1070
    41
1040
7.0
1002
}
  0
LINE
  5
5D9
330
1A
100
AcDbEntity
  8
SEIHIN
  6
CONTINUOUS
 62
     3
 48
16.0
100
AcDbLine
 10
196.7573798197571
 20
236.4506684389017
 30
0.0
 11
193.7574490544749
 21
236.4506957109996
 31
0.0
  0
LINE
  5
5DA
330
1A
100
AcDbEntity
  8
SEIHIN
  6
CONTINUOUS
 62
     3
 48
16.0
100
AcDbLine
 10
212.7573490544748
 20
236.4505957109996
 30
0.0
 11
215.7573490544748
 21
236.4505957109996
 31
0.0
  0
ARC
  5
5FF
330
1A
100
AcDbEntity
  8
SEIHIN
  6
CONTINUOUS
 62
     3
100
AcDbCircle
 10
199.7573798196463
 20
236.6285847016403
 30
0.0
 40
3.00527537520096
100
AcDbArc
 50
183.3953591556151
 51
356.6046408443849
  0
ARC
  5
600
330
1A
100
AcDbEntity
  8
SEIHIN
  6
CONTINUOUS
 62
     3
100
AcDbCircle
 10
209.7573490544748
 20
236.6285847016403
 30
0.0
 40
3.00527537520096
100
AcDbArc
 50
183.3953591556151
 51
356.6046408443849
  0
ARC
  5
601
330
1A
100
AcDbEntity
  8
SEIHIN
  6
CONTINUOUS
 62
     3
 48
16.0
100
AcDbCircle
 10
321.8578889203825
 20
395.7904957109996
 30
0.0
 40
2.500000000000085
100
AcDbArc
 50
90.0
 51
270.0
  0
ARC
  5
602
330
1A
100
AcDbEntity
  8
SEIHIN
  6
CONTINUOUS
 62
     3
 48
16.0
100
AcDbCircle
 10
321.8578889203823
 20
395.7904957109998
 30
0.0
 40
2.5
100
AcDbArc
 50
90.0
 51
270.0
  0
ARC
  5
603
330
1A
100
AcDbEntity
  8
SEIHIN
  6
CONTINUOUS
 62
     3
 48
16.0
100
AcDbCircle
 10
321.8578889203825
 20
405.7903957109997
 30
0.0
 40
2.5
100
AcDbArc
 50
90.0
 51
270.0
  0
ARC
  5
604
330
1A
100
AcDbEntity
  8
SEIHIN
  6
CONTINUOUS
 62
     3
 48
16.0
100
AcDbCircle
 10
321.8578889203823
 20
405.7903957109998
 30
0.0
 40
2.5
100
AcDbArc
 50
90.0
 51
270.0
  0
ARC
  5
606
330
1A
100
AcDbEntity
  8
SEIHIN
  6
CONTINUOUS
100
AcDbCircle
 10
341.5292889203824
 20
395.7903957109996
 30
0.0
 40
3.625000000000041
100
AcDbArc
 50
136.3971810272969
 51
223.602818972703
  0
ARC
  5
607
330
1A
100
AcDbEntity
  8
SEIHIN
  6
CONTINUOUS
100
AcDbCircle
 10
328.8066032060966
 20
395.7903957109996
 30
0.0
 40
2.660714285714282
100
AcDbArc
 50
110.0159596028825
 51
249.9840403971174
  0
ARC
  5
608
330
1A
100
AcDbEntity
  8
SEIHIN
  6
CONTINUOUS
100
AcDbCircle
 10
341.5292889203824
 20
405.7903957109997
 30
0.0
 40
3.625000000000041
100
AcDbArc
 50
136.3971810272969
 51
223.602818972703
  0
ARC
  5
609
330
1A
100
AcDbEntity
  8
SEIHIN
  6
CONTINUOUS
100
AcDbCircle
 10
328.8066032060966
 20
405.7903957109997
 30
0.0
 40
2.660714285714282
100
AcDbArc
 50
110.0159596028825
 51
249.9840403971174
  0
ARC
  5
60B
330
1A
100
AcDbEntity
  8
SEIHIN
  6
CONTINUOUS
100
AcDbCircle
 10
402.5202889203826
 20
395.7903957109996
 30
0.0
 40
3.625000000000041
100
AcDbArc
 50
316.397181027297
 51
43.60281897270302
  0
ARC
  5
60C
330
1A
100
AcDbEntity
  8
SEIHIN
  6
CONTINUOUS
100
AcDbCircle
 10
415.2429746346684
 20
395.7903957109996
 30
0.0
 40
2.660714285714282
100
AcDbArc
 50
290.0159596028825
 51
69.98404039711745
  0
ARC
  5
615
330
1A
100
AcDbEntity
  8
SEIHIN
  6
CONTINUOUS
100
AcDbCircle
 10
402.5202889203826
 20
405.7903957109997
 30
0.0
 40
3.625000000000041
100
AcDbArc
 50
316.397181027297
 51
43.60281897270302
  0
ARC
  5
616
330
1A
100
AcDbEntity
  8
SEIHIN
  6
CONTINUOUS
100
AcDbCircle
 10
415.2429746346684
 20
405.7903957109997
 30
0.0
 40
2.660714285714282
100
AcDbArc
 50
290.0159596028825
 51
69.98404039711745
  0
LINE
  5
620
330
1A
100
AcDbEntity
  8
SEIHIN
  6
CONTINUOUS
 62
     3
 48
16.0
100
AcDbLine
 10
315.0247889203825
 20
409.2903957109997
 30
0.0
 11
314.2248889203824
 21
409.2903957109997
 31
0.0
  0
LINE
  5
621
330
1A
100
AcDbEntity
  8
SEIHIN
  6
CONTINUOUS
 62
     3
 48
16.0
100
AcDbLine
 10
315.0247889203825
 20
392.2904957109996
 30
0.0
 11
314.2248889203824
 21
392.2904957109996
 31
0.0
  0
LWPOLYLINE
  5
743
330
1A
100
AcDbEntity
  8
ZUWAKU
100
AcDbPolyline
 90
        4
 70
     1
 43
0.0
 10
0.7999994527210675
 20
550.7999998096563
 10
0.7999994527210675
 20
0.7999998096563559
 10
796.799999452721
 20
0.7999998096563559
 10
796.799999452721
 20
550.7999998096563
  0
LWPOLYLINE
  5
744
330
1A
100
AcDbEntity
  8
ZUWAKU
100
AcDbPolyline
 90
        4
 70
     1
 43
0.0
 10
0.3999994527210902
 20
551.1999998096563
 10
0.3999994527210902
 20
0.3999998096563786
 10
797.1999994527211
 20
0.3999998096563555
 10
797.1999994527211
 20
551.1999998096563
  0
LWPOLYLINE
  5
745
330
1A
100
AcDbEntity
  8
ZUWAKU
100
AcDbPolyline
 90
        4
 70
     1
 43
0.0
 10
-0.0000005472788871
 20
551.5999998096563
 10
-0.0000005472788871
 20
-0.0000001903437123
 10
797.5999994527212
 20
-0.0000001903436448
 10
797.5999994527212
 20
551.5999998096564
  0
LWPOLYLINE
  5
746
330
1A
100
AcDbEntity
  8
ZUWAKU
100
AcDbPolyline
 90
        4
 70
     1
 43
0.0
 10
0.599999452721022
 20
550.9999998096564
 10
0.599999452721022
 20
0.5999998096563104
 10
796.9999994527213
 20
0.5999998096563566
 10
796.9999994527211
 20
550.9999998096564
  0
LWPOLYLINE
  5
747
330
1A
100
AcDbEntity
  8
ZUWAKU
100
AcDbPolyline
 90
        4
 70
     1
 43
0.0
 10
0.1999994527210447
 20
551.3999998096563
 10
0.1999994527210447
 20
0.1999998096563331
 10
797.3999994527209
 20
0.1999998096563562
 10
797.3999994527212
 20
551.3999998096563
  0
LINE
  5
748
330
1A
100
AcDbEntity
  8
ZUWAKU
100
AcDbLine
 10
-0.0000005472788871
 20
29.99999980965629
 30
0.0
 11
797.3999994527209
 21
29.99999980965629
 31
0.0
  0
LINE
  5
749
330
1A
100
AcDbEntity
  8
ZUWAKU
100
AcDbLine
 10
-0.0000005472788871
 20
30.19999980965629
 30
0.0
 11
797.3999994527209
 21
30.19999980965629
 31
0.0
  0
LINE
  5
74A
330
1A
100
AcDbEntity
  8
ZUWAKU
100
AcDbLine
 10
-0.0000005472788871
 20
30.39999980965629
 30
0.0
 11
797.3999994527209
 21
30.39999980965629
 31
0.0
  0
LINE
  5
74B
330
1A
100
AcDbEntity
  8
ZUWAKU
100
AcDbLine
 10
-0.0000005472788871
 20
30.59999980965629
 30
0.0
 11
797.3999994527209
 21
30.59999980965629
 31
0.0
  0
LINE
  5
74C
330
1A
100
AcDbEntity
  8
ZUWAKU
100
AcDbLine
 10
-0.0000005472788871
 20
30.79999980965629
 30
0.0
 11
797.3999994527209
 21
30.79999980965629
 31
0.0
  0
LINE
  5
74D
330
1A
100
AcDbEntity
  8
ZUWAKU
100
AcDbLine
 10
208.6466007427891
 20
15.39999980965632
 30
0.0
 11
447.4243634237125
 21
15.39999980965632
 31
0.0
  0
LINE
  5
74E
330
1A
100
AcDbEntity
  8
ZUWAKU
100
AcDbLine
 10
208.6466007427891
 20
15.59999980965632
 30
0.0
 11
447.4243634237125
 21
15.59999980965632
 31
0.0
  0
LINE
  5
74F
330
1A
100
AcDbEntity
  8
ZUWAKU
100
AcDbLine
 10
208.6466007427891
 20
15.19999980965632
 30
0.0
 11
447.4243634237125
 21
15.19999980965631
 31
0.0
  0
TEXT
  5
750
330
1A
100
AcDbEntity
  8
MOJI
100
AcDbText
 10
92.95778904089024
 20
12.74117793993104
 30
0.0
 40
6.0
  1
ライナートップＸ７０Ｕ
 41
0.9
  7
ｽﾀｲﾙ1
100
AcDbText
  0
CIRCLE
  5
751
330
1A
100
AcDbEntity
  8
ZUWAKU
100
AcDbCircle
 10
25.99221160750221
 20
15.19999980965629
 30
0.0
 40
1.75
  0
LINE
  5
752
330
1A
100
AcDbEntity
  8
ZUWAKU
100
AcDbLine
 10
26.86721160750221
 20
7.149999809656293
 30
0.0
 11
24.94221160750226
 21
7.149999809656293
 31
0.0
  0
LINE
  5
753
330
1A
100
AcDbEntity
  8
ZUWAKU
100
AcDbLine
 10
24.94221160750226
 20
9.94999980965629
 30
0.0
 11
26.86721160750221
 21
9.94999980965629
 31
0.0
  0
LINE
  5
754
330
1A
100
AcDbEntity
  8
ZUWAKU
100
AcDbLine
 10
26.86721160750221
 20
20.44999980965628
 30
0.0
 11
24.94221160750226
 21
20.44999980965628
 31
0.0
  0
LINE
  5
755
330
1A
100
AcDbEntity
  8
ZUWAKU
100
AcDbLine
 10
24.94221160750226
 20
23.24999980965625
 30
0.0
 11
26.86721160750221
 21
23.24999980965629
 31
0.0
  0
HATCH
  5
756
330
1A
100
AcDbEntity
  8
ZUWAKU
100
AcDbHatch
 10
0.0
 20
0.0
 30
0.0
210
0.0
220
0.0
230
1.0
  2
ANSI37
 70
     0
 71
     0
 91
        8
 92
        7
 72
     1
 73
     1
 93
       24
 10
14.50226211384097
 20
17.64484829063987
 42
-0.1989123673796348
 10
14.09221160750223
 20
18.63479778430092
 42
0.0
 10
14.09221160750223
 20
19.9249998096563
 42
-0.4142135623730912
 10
14.61721160750221
 20
20.44999980965628
 42
0.0
 10
17.59221160750212
 20
20.44999980965628
 42
0.4142135623731546
 10
18.11721160750221
 20
20.97499980965628
 42
0.0
 10
18.11721160750221
 20
22.72499980965629
 42
0.4142135623731586
 10
17.59221160750212
 20
23.24999980965629
 42
0.0
 10
14.09221160750223
 20
23.24999980965629
 42
0.4142135623730928
 10
11.29221160750228
 20
20.44999980965632
 42
0.0
 10
11.29221160750228
 20
18.63479778430105
 42
0.1989123673796619
 10
12.52236312651871
 20
15.66494930331744
 42
0.0
 10
15.43216110116338
 20
12.75515132867278
 42
-0.1989123673796613
 10
15.84221160750223
 20
11.76520183501159
 42
0.0
 10
15.84221160750223
 20
10.47499980965628
 42
-0.4142135623730911
 10
15.31721160750225
 20
9.94999980965629
 42
0.0
 10
12.34221160750235
 20
9.94999980965629
 42
0.4142135623731526
 10
11.81721160750225
 20
9.424999809656302
 42
0.0
 10
11.81721160750225
 20
7.674999809656281
 42
0.4142135623731526
 10
12.34221160750235
 20
7.149999809656293
 42
0.0
 10
15.84221160750223
 20
7.149999809656293
 42
0.4142135623731044
 10
18.6422116075023
 20
9.949999809656269
 42
0.0
 10
18.6422116075023
 20
11.76520183501154
 42
0.1989123673796604
 10
17.41206008848576
 20
14.73505031599508
 42
0.0
 97
        0
 92
        7
 72
     1
 73
     1
 93
       16
 10
23.54221160750228
 20
19.04999980965629
 42
-0.4142135623730935
 10
24.94221160750226
 20
20.44999980965628
 42
0.0
 10
26.86721160750221
 20
20.44999980965628
 42
0.4142135623731546
 10
27.3922116075023
 20
20.97499980965628
 42
0.0
 10
27.3922116075023
 20
22.72499980965629
 42
0.4142135623730951
 10
26.86721160750233
 20
23.24999980965629
 42
0.0
 10
24.94221160750214
 20
23.24999980965625
 42
0.4142135623730892
 10
20.74221160750221
 20
19.04999980965622
 42
0.0
 10
20.74221160750221
 20
11.34999980965631
 42
0.4142135623730969
 10
24.94221160750226
 20
7.149999809656293
 42
0.0
 10
26.86721160750221
 20
7.149999809656293
 42
0.4142135623731526
 10
27.3922116075023
 20
7.674999809656281
 42
0.0
 10
27.3922116075023
 20
9.424999809656302
 42
0.4142135623730891
 10
26.86721160750233
 20
9.94999980965629
 42
0.0
 10
24.94221160750226
 20
9.94999980965629
 42
-0.4142135623730928
 10
23.54221160750228
 20
11.34999980965627
 42
0.0
 97
        0
 92
        7
 72
     1
 73
     1
 93
        2
 10
24.24221160750221
 20
15.19999980965629
 42
1.0
 10
27.74221160750221
 20
15.19999980965629
 42
1.0
 97
        0
 92
        7
 72
     1
 73
     1
 93
       26
 10
37.31485808968022
 20
19.20504700321972
 42
0.0
 10
38.37649772281804
 20
22.5669058414893
 42
0.5069206636600134
 10
37.87586682362269
 20
23.24999980965629
 42
0.0
 10
36.17697744401346
 20
23.24999980965629
 42
0.3272098845218764
 10
35.6763465448181
 20
22.88309377782326
 42
0.0
 10
33.80807667018632
 20
16.96690584148937
 42
-0.3272098845219541
 10
33.30744577099085
 20
16.59999980965628
 42
0.0
 10
33.16721160750239
 20
16.59999980965628
 42
-0.4142135623731526
 10
32.6422116075023
 20
17.12499980965627
 42
0.0
 10
32.6422116075023
 20
22.72499980965629
 42
0.4142135623730951
 10
32.11721160750232
 20
23.24999980965629
 42
0.0
 10
30.36721160750221
 20
23.24999980965629
 42
0.4142135623730871
 10
29.84221160750223
 20
22.72499980965631
 42
0.0
 10
29.84221160750223
 20
7.674999809656281
 42
0.4142135623730891
 10
30.36721160750221
 20
7.149999809656293
 42
0.0
 10
32.11721160750221
 20
7.149999809656293
 42
0.4142135623731526
 10
32.6422116075023
 20
7.674999809656281
 42
0.0
 10
32.6422116075023
 20
13.2749998096563
 42
-0.4142135623731526
 10
33.16721160750239
 20
13.79999980965629
 42
0.0
 10
33.30744577099096
 20
13.79999980965629
 42
-0.3272098845218915
 10
33.80807667018632
 20
13.43309377782321
 42
0.0
 10
35.6763465448181
 20
7.516905841489364
 42
0.3272098845218902
 10
36.17697744401346
 20
7.149999809656293
 42
0.0
 10
37.87586682362269
 20
7.149999809656293
 42
0.5069206636600335
 10
38.37649772281804
 20
7.8330937778233
 42
0.0
 10
36.05010634434438
 20
15.19999980965643
 42
0.0
 97
        0
 92
        7
 72
     1
 73
     1
 93
        8
 10
43.49221160750221
 20
22.7249998096563
 42
0.4142135623731546
 10
42.96721160750212
 20
23.24999980965629
 42
0.0
 10
41.21721160750235
 20
23.24999980965629
 42
0.4142135623731507
 10
40.69221160750226
 20
22.72499980965631
 42
0.0
 10
40.69221160750226
 20
7.674999809656281
 42
0.4142135623731526
 10
41.21721160750235
 20
7.149999809656293
 42
0.0
 10
42.96721160750212
 20
7.149999809656293
 42
0.4142135623731526
 10
43.49221160750221
 20
7.674999809656281
 42
0.0
 97
        0
 92
        7
 72
     1
 73
     1
 93
       24
 10
48.39221160750231
 20
19.9249998096563
 42
-0.4142135623731546
 10
48.9172116075024
 20
20.44999980965628
 42
0.0
 10
51.8922116075023
 20
20.44999980965628
 42
0.4142135623730911
 10
52.41721160750228
 20
20.97499980965628
 42
0.0
 10
52.41721160750228
 20
22.72499980965629
 42
0.4142135623730952
 10
51.8922116075023
 20
23.24999980965629
 42
0.0
 10
48.39221160750231
 20
23.24999980965629
 42
0.4142135623731048
 10
45.59221160750223
 20
20.44999980965632
 42
0.0
 10
45.59221160750223
 20
18.63479778430105
 42
0.1989123673796613
 10
46.82236312651878
 20
15.66494930331749
 42
0.0
 10
49.73216110116346
 20
12.75515132867283
 42
-0.1989123673796402
 10
50.1422116075023
 20
11.76520183501175
 42
0.0
 10
50.1422116075023
 20
10.47499980965628
 42
-0.4142135623730911
 10
49.61721160750233
 20
9.94999980965629
 42
0.0
 10
46.6422116075023
 20
9.94999980965629
 42
0.4142135623731526
 10
46.11721160750221
 20
9.424999809656302
 42
0.0
 10
46.11721160750221
 20
7.674999809656281
 42
0.4142135623730891
 10
46.64221160750218
 20
7.149999809656293
 42
0.0
 10
50.1422116075023
 20
7.149999809656293
 42
0.4142135623730925
 10
52.94221160750225
 20
9.949999809656269
 42
0.0
 10
52.94221160750225
 20
11.76520183501154
 42
0.1989123673796675
 10
51.71206008848571
 20
14.73505031599519
 42
0.0
 10
48.80226211384115
 20
17.64484829063971
 42
-0.1989123673796652
 10
48.39221160750231
 20
18.63479778430088
 42
0.0
 97
        0
 92
        7
 72
     1
 73
     1
 93
       16
 10
57.84221160750224
 20
22.72499980965628
 42
0.414213562373103
 10
57.31721160750225
 20
23.24999980965629
 42
0.0
 10
55.56721160750226
 20
23.24999980965629
 42
0.4142135623730871
 10
55.04221160750228
 20
22.72499980965631
 42
0.0
 10
55.04221160750228
 20
9.949999809656269
 42
0.4142135623730926
 10
57.84221160750224
 20
7.149999809656293
 42
0.0
 10
61.34221160750223
 20
7.149999809656293
 42
0.4142135623731044
 10
64.1422116075023
 20
9.949999809656269
 42
0.0
 10
64.1422116075023
 20
22.72499980965629
 42
0.4142135623730951
 10
63.61721160750232
 20
23.24999980965629
 42
0.0
 10
61.86721160750221
 20
23.24999980965629
 42
0.4142135623730871
 10
61.34221160750223
 20
22.72499980965631
 42
0.0
 10
61.34221160750223
 20
10.99999980965626
 42
-0.414213562373088
 10
60.29221160750228
 20
9.94999980965629
 42
0.0
 10
58.8922116075023
 20
9.94999980965629
 42
-0.4142135623731197
 10
57.84221160750224
 20
10.99999980965626
 42
0.0
 97
        0
 92
        7
 72
     1
 73
     1
 93
        8
 10
69.04221160750228
 20
22.72499980965631
 42
0.4142135623730871
 10
68.5172116075023
 20
23.24999980965629
 42
0.0
 10
66.7672116075023
 20
23.24999980965629
 42
0.4142135623731507
 10
66.24221160750221
 20
22.72499980965631
 42
0.0
 10
66.24221160750221
 20
7.674999809656281
 42
0.4142135623730891
 10
66.76721160750219
 20
7.149999809656293
 42
0.0
 10
68.5172116075023
 20
7.149999809656293
 42
0.4142135623730891
 10
69.04221160750228
 20
7.674999809656281
 42
0.0
 97
        0
 75
     0
 76
     1
 52
0.0
 41
0.2
 77
     0
 78
     2
 53
45.0
 43
-900.9423048819579
 44
-13.20000019034364
 45
-0.4490128060534576
 46
0.4490128060534577
 79
     0
 53
135.0
 43
-900.9423048819579
 44
-13.20000019034364
 45
-0.4490128060534577
 46
-0.4490128060534576
 79
     0
 47
0.057451373970553
 98
        8
 10
16.07985441574442
 20
15.16717345554184
 10
22.40451445916028
 20
18.84406199210729
 10
25.16436733838077
 20
15.511881455727
 10
30.91405943435825
 20
16.20129745609779
 10
41.83847147167784
 20
16.6609097236394
 10
46.89820034785066
 20
19.4185761260635
 10
56.55768542512146
 20
18.7291577247513
 10
67.82707907234385
 20
19.18876999229292
  0
ARC
  5
757
330
1A
100
AcDbEntity
  8
ZUWAKU
100
AcDbCircle
 10
15.49221160750221
 20
18.63479778430099
 30
0.0
 40
4.199999999999999
100
AcDbArc
 50
180.0
 51
225.0
  0
LINE
  5
758
330
1A
100
AcDbEntity
  8
ZUWAKU
100
AcDbLine
 10
20.74221160750221
 20
11.34999980965629
 30
0.0
 11
20.74221160750221
 21
19.04999980965625
 31
0.0
  0
LINE
  5
759
330
1A
100
AcDbEntity
  8
ZUWAKU
100
AcDbLine
 10
23.54221160750228
 20
19.04999980965629
 30
0.0
 11
23.54221160750228
 21
11.34999980965629
 31
0.0
  0
ARC
  5
75A
330
1A
100
AcDbEntity
  8
ZUWAKU
100
AcDbCircle
 10
15.49221160750221
 20
18.63479778430099
 30
0.0
 40
1.399999999999999
100
AcDbArc
 50
180.0000000000016
 51
224.9999999999988
  0
ARC
  5
75B
330
1A
100
AcDbEntity
  8
ZUWAKU
100
AcDbCircle
 10
24.94221160750226
 20
11.34999980965629
 30
0.0
 40
4.199999999999999
100
AcDbArc
 50
180.0
 51
270.0
  0
ARC
  5
75C
330
1A
100
AcDbEntity
  8
ZUWAKU
100
AcDbCircle
 10
15.84221160750223
 20
9.94999980965629
 30
0.0
 40
2.799999999999999
100
AcDbArc
 50
270.0
 51
0.0
  0
ARC
  5
75D
330
1A
100
AcDbEntity
  8
ZUWAKU
100
AcDbCircle
 10
14.44221160750226
 20
11.76520183501159
 30
0.0
 40
4.199999999999999
100
AcDbArc
 50
0.0
 51
45.0
  0
LINE
  5
75E
330
1A
100
AcDbEntity
  8
ZUWAKU
100
AcDbLine
 10
12.52236312651871
 20
15.66494930331747
 30
0.0
 11
15.43216110116338
 21
12.75515132867281
 31
0.0
  0
LINE
  5
75F
330
1A
100
AcDbEntity
  8
ZUWAKU
100
AcDbLine
 10
12.34221160750223
 20
9.94999980965629
 30
0.0
 11
15.31721160750225
 21
9.94999980965629
 31
0.0
  0
LINE
  5
760
330
1A
100
AcDbEntity
  8
ZUWAKU
100
AcDbLine
 10
12.34221160750223
 20
7.149999809656293
 30
0.0
 11
15.84221160750223
 21
7.149999809656293
 31
0.0
  0
ARC
  5
761
330
1A
100
AcDbEntity
  8
ZUWAKU
100
AcDbCircle
 10
12.34221160750223
 20
9.424999809656291
 30
0.0
 40
0.525
100
AcDbArc
 50
90.0
 51
180.0
  0
ARC
  5
762
330
1A
100
AcDbEntity
  8
ZUWAKU
100
AcDbCircle
 10
12.34221160750223
 20
7.674999809656291
 30
0.0
 40
0.525
100
AcDbArc
 50
180.0
 51
270.0
  0
LINE
  5
763
330
1A
100
AcDbEntity
  8
ZUWAKU
100
AcDbLine
 10
11.81721160750225
 20
7.674999809656291
 30
0.0
 11
11.81721160750225
 21
9.424999809656291
 31
0.0
  0
ARC
  5
764
330
1A
100
AcDbEntity
  8
ZUWAKU
100
AcDbCircle
 10
14.44221160750226
 20
11.76520183501163
 30
0.0
 40
1.399999999999999
100
AcDbArc
 50
0.0
 51
45.0
  0
ARC
  5
765
330
1A
100
AcDbEntity
  8
ZUWAKU
100
AcDbCircle
 10
15.31721160750225
 20
10.47499980965629
 30
0.0
 40
0.525
100
AcDbArc
 50
270.0
 51
0.0
  0
LINE
  5
766
330
1A
100
AcDbEntity
  8
ZUWAKU
100
AcDbLine
 10
15.84221160750223
 20
10.47499980965629
 30
0.0
 11
15.84221160750223
 21
11.76520183501163
 31
0.0
  0
LINE
  5
767
330
1A
100
AcDbEntity
  8
ZUWAKU
100
AcDbLine
 10
17.41206008848576
 20
14.73505031599511
 30
0.0
 11
14.50226211384108
 21
17.64484829063979
 31
0.0
  0
ARC
  5
768
330
1A
100
AcDbEntity
  8
ZUWAKU
100
AcDbCircle
 10
24.94221160750226
 20
11.34999980965629
 30
0.0
 40
1.399999999999999
100
AcDbArc
 50
180.0
 51
270.0
  0
LINE
  5
769
330
1A
100
AcDbEntity
  8
ZUWAKU
100
AcDbLine
 10
18.6422116075023
 20
9.94999980965629
 30
0.0
 11
18.6422116075023
 21
11.76520183501163
 31
0.0
  0
ARC
  5
76A
330
1A
100
AcDbEntity
  8
ZUWAKU
100
AcDbCircle
 10
17.59221160750223
 20
20.97499980965629
 30
0.0
 40
0.525
100
AcDbArc
 50
270.0
 51
0.0
  0
ARC
  5
76B
330
1A
100
AcDbEntity
  8
ZUWAKU
100
AcDbCircle
 10
17.59221160750223
 20
22.72499980965628
 30
0.0
 40
0.525
100
AcDbArc
 50
0.0
 51
90.0
  0
ARC
  5
76C
330
1A
100
AcDbEntity
  8
ZUWAKU
100
AcDbCircle
 10
14.09221160750223
 20
20.44999980965628
 30
0.0
 40
2.799999999999999
100
AcDbArc
 50
90.0
 51
180.0
  0
LINE
  5
76D
330
1A
100
AcDbEntity
  8
ZUWAKU
100
AcDbLine
 10
11.29221160750228
 20
20.44999980965628
 30
0.0
 11
11.29221160750228
 21
18.63479778430095
 31
0.0
  0
LINE
  5
76E
330
1A
100
AcDbEntity
  8
ZUWAKU
100
AcDbLine
 10
17.59221160750223
 20
20.44999980965628
 30
0.0
 11
14.61721160750221
 21
20.44999980965628
 31
0.0
  0
LINE
  5
76F
330
1A
100
AcDbEntity
  8
ZUWAKU
100
AcDbLine
 10
14.09221160750223
 20
19.92499980965629
 30
0.0
 11
14.09221160750223
 21
18.63479778430095
 31
0.0
  0
ARC
  5
770
330
1A
100
AcDbEntity
  8
ZUWAKU
100
AcDbCircle
 10
14.61721160750221
 20
19.92499980965629
 30
0.0
 40
0.525
100
AcDbArc
 50
90.0
 51
180.0
  0
LINE
  5
771
330
1A
100
AcDbEntity
  8
ZUWAKU
100
AcDbLine
 10
14.09221160750223
 20
23.24999980965629
 30
0.0
 11
17.59221160750223
 21
23.24999980965629
 31
0.0
  0
ARC
  5
772
330
1A
100
AcDbEntity
  8
ZUWAKU
100
AcDbCircle
 10
24.94221160750226
 20
19.04999980965625
 30
0.0
 40
4.199999999999999
100
AcDbArc
 50
90.0
 51
180.0
  0
ARC
  5
773
330
1A
100
AcDbEntity
  8
ZUWAKU
100
AcDbCircle
 10
24.94221160750226
 20
19.04999980965629
 30
0.0
 40
1.399999999999999
100
AcDbArc
 50
90.0
 51
180.0
  0
LINE
  5
774
330
1A
100
AcDbEntity
  8
ZUWAKU
100
AcDbLine
 10
18.11721160750221
 20
22.72499980965628
 30
0.0
 11
18.11721160750221
 21
20.97499980965629
 31
0.0
  0
LINE
  5
775
330
1A
100
AcDbEntity
  8
ZUWAKU
100
AcDbLine
 10
35.6763465448181
 20
22.88309377782326
 30
0.0
 11
33.80807667018632
 21
16.96690584148932
 31
0.0
  0
LINE
  5
776
330
1A
100
AcDbEntity
  8
ZUWAKU
100
AcDbLine
 10
29.84221160750223
 20
22.72499980965628
 30
0.0
 11
29.84221160750223
 21
7.674999809656291
 31
0.0
  0
LINE
  5
777
330
1A
100
AcDbEntity
  8
ZUWAKU
100
AcDbLine
 10
32.6422116075023
 20
17.12499980965629
 30
0.0
 11
32.6422116075023
 21
22.72499980965628
 31
0.0
  0
LINE
  5
778
330
1A
100
AcDbEntity
  8
ZUWAKU
100
AcDbLine
 10
57.84221160750224
 20
10.99999980965628
 30
0.0
 11
57.84221160750224
 21
22.72499980965628
 31
0.0
  0
LINE
  5
779
330
1A
100
AcDbEntity
  8
ZUWAKU
100
AcDbLine
 10
55.04221160750228
 20
22.72499980965628
 30
0.0
 11
55.04221160750228
 21
9.94999980965629
 31
0.0
  0
LINE
  5
77A
330
1A
100
AcDbEntity
  8
ZUWAKU
100
AcDbLine
 10
43.49221160750221
 20
7.674999809656291
 30
0.0
 11
43.49221160750221
 21
22.72499980965628
 31
0.0
  0
LINE
  5
77B
330
1A
100
AcDbEntity
  8
ZUWAKU
100
AcDbLine
 10
40.69221160750226
 20
22.72499980965628
 30
0.0
 11
40.69221160750226
 21
7.674999809656291
 31
0.0
  0
LINE
  5
77C
330
1A
100
AcDbEntity
  8
ZUWAKU
100
AcDbLine
 10
37.31485808968022
 20
19.20504700321972
 30
0.0
 11
36.05010634434438
 21
15.19999980965631
 31
0.0
  0
ARC
  5
77D
330
1A
100
AcDbEntity
  8
ZUWAKU
100
AcDbCircle
 10
49.79221160750228
 20
18.63479778430099
 30
0.0
 40
4.199999999999999
100
AcDbArc
 50
180.0
 51
225.0
  0
ARC
  5
77E
330
1A
100
AcDbEntity
  8
ZUWAKU
100
AcDbCircle
 10
49.79221160750228
 20
18.63479778430099
 30
0.0
 40
1.399999999999999
100
AcDbArc
 50
180.0000000000016
 51
224.9999999999988
  0
LINE
  5
77F
330
1A
100
AcDbEntity
  8
ZUWAKU
100
AcDbLine
 10
66.24221160750221
 20
22.72499980965628
 30
0.0
 11
66.24221160750221
 21
7.674999809656291
 31
0.0
  0
LINE
  5
780
330
1A
100
AcDbEntity
  8
ZUWAKU
100
AcDbLine
 10
69.04221160750228
 20
7.674999809656291
 30
0.0
 11
69.04221160750228
 21
22.72499980965628
 31
0.0
  0
LINE
  5
781
330
1A
100
AcDbEntity
  8
ZUWAKU
100
AcDbLine
 10
61.34221160750223
 20
22.72499980965628
 30
0.0
 11
61.34221160750223
 21
10.99999980965628
 31
0.0
  0
LINE
  5
782
330
1A
100
AcDbEntity
  8
ZUWAKU
100
AcDbLine
 10
64.1422116075023
 20
9.94999980965629
 30
0.0
 11
64.1422116075023
 21
22.72499980965628
 31
0.0
  0
LINE
  5
783
330
1A
100
AcDbEntity
  8
ZUWAKU
100
AcDbLine
 10
79.1266290007095
 20
29.99999980965629
 30
0.0
 11
79.1266290007095
 21
0.7999998096563559
 31
0.0
  0
LINE
  5
784
330
1A
100
AcDbEntity
  8
ZUWAKU
100
AcDbLine
 10
79.52662900070937
 20
29.99999980965629
 30
0.0
 11
79.52662900070959
 21
0.7999998096563559
 31
0.0
  0
LINE
  5
785
330
1A
100
AcDbEntity
  8
ZUWAKU
100
AcDbLine
 10
79.32662900070932
 20
29.99999980965629
 30
0.0
 11
79.32662900070955
 21
0.7999998096563559
 31
0.0
  0
LINE
  5
786
330
1A
100
AcDbEntity
  8
ZUWAKU
100
AcDbLine
 10
57.84221160750224
 20
7.149999809656293
 30
0.0
 11
61.34221160750223
 21
7.149999809656293
 31
0.0
  0
LINE
  5
787
330
1A
100
AcDbEntity
  8
ZUWAKU
100
AcDbLine
 10
60.29221160750228
 20
9.94999980965629
 30
0.0
 11
58.8922116075023
 21
9.94999980965629
 31
0.0
  0
LINE
  5
788
330
1A
100
AcDbEntity
  8
ZUWAKU
100
AcDbLine
 10
41.21721160750223
 20
7.149999809656293
 30
0.0
 11
42.96721160750223
 21
7.149999809656293
 31
0.0
  0
LINE
  5
789
330
1A
100
AcDbEntity
  8
ZUWAKU
100
AcDbLine
 10
35.6763465448181
 20
7.516905841489318
 30
0.0
 11
33.80807667018632
 21
13.43309377782325
 31
0.0
  0
ARC
  5
78A
330
1A
100
AcDbEntity
  8
ZUWAKU
100
AcDbCircle
 10
33.16721160750228
 20
13.27499980965629
 30
0.0
 40
0.525
100
AcDbArc
 50
90.0
 51
180.0
  0
ARC
  5
78B
330
1A
100
AcDbEntity
  8
ZUWAKU
100
AcDbCircle
 10
33.30744577099096
 20
13.27499980965629
 30
0.0
 40
0.525
100
AcDbArc
 50
17.52556837372303
 51
90.0
  0
ARC
  5
78C
330
1A
100
AcDbEntity
  8
ZUWAKU
100
AcDbCircle
 10
30.36721160750221
 20
7.674999809656291
 30
0.0
 40
0.525
100
AcDbArc
 50
180.0
 51
270.0
  0
ARC
  5
78D
330
1A
100
AcDbEntity
  8
ZUWAKU
100
AcDbCircle
 10
26.86721160750221
 20
9.424999809656291
 30
0.0
 40
0.525
100
AcDbArc
 50
0.0
 51
90.0
  0
ARC
  5
78E
330
1A
100
AcDbEntity
  8
ZUWAKU
100
AcDbCircle
 10
26.86721160750221
 20
7.674999809656291
 30
0.0
 40
0.525
100
AcDbArc
 50
270.0
 51
0.0
  0
LINE
  5
78F
330
1A
100
AcDbEntity
  8
ZUWAKU
100
AcDbLine
 10
27.3922116075023
 20
9.424999809656291
 30
0.0
 11
27.3922116075023
 21
7.674999809656291
 31
0.0
  0
LINE
  5
790
330
1A
100
AcDbEntity
  8
ZUWAKU
100
AcDbLine
 10
32.6422116075023
 20
7.674999809656291
 30
0.0
 11
32.6422116075023
 21
13.27499980965629
 31
0.0
  0
ARC
  5
791
330
1A
100
AcDbEntity
  8
ZUWAKU
100
AcDbCircle
 10
32.11721160750221
 20
7.674999809656291
 30
0.0
 40
0.525
100
AcDbArc
 50
270.0
 51
0.0
  0
LINE
  5
792
330
1A
100
AcDbEntity
  8
ZUWAKU
100
AcDbLine
 10
30.36721160750221
 20
7.149999809656293
 30
0.0
 11
32.11721160750221
 21
7.149999809656293
 31
0.0
  0
ARC
  5
793
330
1A
100
AcDbEntity
  8
ZUWAKU
100
AcDbCircle
 10
33.16721160750228
 20
17.12499980965629
 30
0.0
 40
0.525
100
AcDbArc
 50
180.0
 51
270.0
  0
LINE
  5
794
330
1A
100
AcDbEntity
  8
ZUWAKU
100
AcDbLine
 10
33.16721160750228
 20
13.79999980965629
 30
0.0
 11
33.30744577099096
 21
13.79999980965629
 31
0.0
  0
LINE
  5
795
330
1A
100
AcDbEntity
  8
ZUWAKU
100
AcDbLine
 10
33.30744577099096
 20
16.59999980965628
 30
0.0
 11
33.16721160750228
 21
16.59999980965628
 31
0.0
  0
ARC
  5
796
330
1A
100
AcDbEntity
  8
ZUWAKU
100
AcDbCircle
 10
33.30744577099096
 20
17.12499980965629
 30
0.0
 40
0.525
100
AcDbArc
 50
270.0
 51
342.4744316262769
  0
ARC
  5
797
330
1A
100
AcDbEntity
  8
ZUWAKU
100
AcDbCircle
 10
36.17697744401357
 20
7.674999809656291
 30
0.0
 40
0.525
100
AcDbArc
 50
197.525568373723
 51
270.0
  0
LINE
  5
798
330
1A
100
AcDbEntity
  8
ZUWAKU
100
AcDbLine
 10
38.37649772281804
 20
7.833093777823265
 30
0.0
 11
36.05010634434438
 21
15.19999980965631
 31
0.0
  0
ARC
  5
799
330
1A
100
AcDbEntity
  8
ZUWAKU
100
AcDbCircle
 10
37.87586682362257
 20
7.674999809656291
 30
0.0
 40
0.525
100
AcDbArc
 50
270.0
 51
17.52556837372303
  0
LINE
  5
79A
330
1A
100
AcDbEntity
  8
ZUWAKU
100
AcDbLine
 10
36.17697744401357
 20
7.149999809656293
 30
0.0
 11
37.87586682362257
 21
7.149999809656293
 31
0.0
  0
ARC
  5
79B
330
1A
100
AcDbEntity
  8
ZUWAKU
100
AcDbCircle
 10
41.21721160750223
 20
7.674999809656291
 30
0.0
 40
0.525
100
AcDbArc
 50
180.0
 51
270.0
  0
ARC
  5
79C
330
1A
100
AcDbEntity
  8
ZUWAKU
100
AcDbCircle
 10
50.1422116075023
 20
9.94999980965629
 30
0.0
 40
2.799999999999999
100
AcDbArc
 50
270.0
 51
0.0
  0
ARC
  5
79D
330
1A
100
AcDbEntity
  8
ZUWAKU
100
AcDbCircle
 10
57.84221160750224
 20
9.94999980965629
 30
0.0
 40
2.799999999999999
100
AcDbArc
 50
180.0
 51
270.0
  0
LINE
  5
79E
330
1A
100
AcDbEntity
  8
ZUWAKU
100
AcDbLine
 10
51.71206008848582
 20
14.73505031599511
 30
0.0
 11
48.80226211384104
 21
17.64484829063979
 31
0.0
  0
LINE
  5
79F
330
1A
100
AcDbEntity
  8
ZUWAKU
100
AcDbLine
 10
46.82236312651878
 20
15.66494930331747
 30
0.0
 11
49.73216110116346
 21
12.75515132867281
 31
0.0
  0
LINE
  5
7A0
330
1A
100
AcDbEntity
  8
ZUWAKU
100
AcDbLine
 10
46.6422116075023
 20
7.149999809656293
 30
0.0
 11
50.1422116075023
 21
7.149999809656293
 31
0.0
  0
LINE
  5
7A1
330
1A
100
AcDbEntity
  8
ZUWAKU
100
AcDbLine
 10
46.6422116075023
 20
9.94999980965629
 30
0.0
 11
49.61721160750221
 21
9.94999980965629
 31
0.0
  0
ARC
  5
7A2
330
1A
100
AcDbEntity
  8
ZUWAKU
100
AcDbCircle
 10
46.6422116075023
 20
9.424999809656291
 30
0.0
 40
0.525
100
AcDbArc
 50
90.0
 51
180.0
  0
ARC
  5
7A3
330
1A
100
AcDbEntity
  8
ZUWAKU
100
AcDbCircle
 10
42.96721160750223
 20
7.674999809656291
 30
0.0
 40
0.525
100
AcDbArc
 50
270.0
 51
0.0
  0
ARC
  5
7A4
330
1A
100
AcDbEntity
  8
ZUWAKU
100
AcDbCircle
 10
46.6422116075023
 20
7.674999809656291
 30
0.0
 40
0.525
100
AcDbArc
 50
180.0
 51
270.0
  0
LINE
  5
7A5
330
1A
100
AcDbEntity
  8
ZUWAKU
100
AcDbLine
 10
46.11721160750221
 20
7.674999809656291
 30
0.0
 11
46.11721160750221
 21
9.424999809656291
 31
0.0
  0
ARC
  5
7A6
330
1A
100
AcDbEntity
  8
ZUWAKU
100
AcDbCircle
 10
49.61721160750221
 20
10.47499980965629
 30
0.0
 40
0.525
100
AcDbArc
 50
270.0
 51
0.0
  0
ARC
  5
7A7
330
1A
100
AcDbEntity
  8
ZUWAKU
100
AcDbCircle
 10
48.74221160750221
 20
11.76520183501163
 30
0.0
 40
1.399999999999999
100
AcDbArc
 50
0.0
 51
45.0
  0
LINE
  5
7A8
330
1A
100
AcDbEntity
  8
ZUWAKU
100
AcDbLine
 10
50.1422116075023
 20
10.47499980965629
 30
0.0
 11
50.1422116075023
 21
11.76520183501163
 31
0.0
  0
ARC
  5
7A9
330
1A
100
AcDbEntity
  8
ZUWAKU
100
AcDbCircle
 10
58.8922116075023
 20
10.99999980965628
 30
0.0
 40
1.049999999999999
100
AcDbArc
 50
180.0
 51
270.0
  0
ARC
  5
7AA
330
1A
100
AcDbEntity
  8
ZUWAKU
100
AcDbCircle
 10
48.74221160750221
 20
11.76520183501159
 30
0.0
 40
4.199999999999999
100
AcDbArc
 50
0.0
 51
45.0
  0
LINE
  5
7AB
330
1A
100
AcDbEntity
  8
ZUWAKU
100
AcDbLine
 10
52.94221160750225
 20
9.94999980965629
 30
0.0
 11
52.94221160750225
 21
11.76520183501163
 31
0.0
  0
ARC
  5
7AC
330
1A
100
AcDbEntity
  8
ZUWAKU
100
AcDbCircle
 10
61.34221160750223
 20
9.94999980965629
 30
0.0
 40
2.799999999999999
100
AcDbArc
 50
270.0
 51
0.0
  0
LINE
  5
7AD
330
1A
100
AcDbEntity
  8
ZUWAKU
100
AcDbLine
 10
66.7672116075023
 20
7.149999809656293
 30
0.0
 11
68.5172116075023
 21
7.149999809656293
 31
0.0
  0
ARC
  5
7AE
330
1A
100
AcDbEntity
  8
ZUWAKU
100
AcDbCircle
 10
60.29221160750228
 20
10.99999980965628
 30
0.0
 40
1.049999999999999
100
AcDbArc
 50
270.0
 51
0.0
  0
ARC
  5
7AF
330
1A
100
AcDbEntity
  8
ZUWAKU
100
AcDbCircle
 10
66.7672116075023
 20
7.674999809656291
 30
0.0
 40
0.525
100
AcDbArc
 50
180.0
 51
270.0
  0
ARC
  5
7B0
330
1A
100
AcDbEntity
  8
ZUWAKU
100
AcDbCircle
 10
68.5172116075023
 20
7.674999809656291
 30
0.0
 40
0.525
100
AcDbArc
 50
270.0
 51
0.0
  0
LINE
  5
7B1
330
1A
100
AcDbEntity
  8
ZUWAKU
100
AcDbLine
 10
42.96721160750223
 20
23.24999980965629
 30
0.0
 11
41.21721160750223
 21
23.24999980965629
 31
0.0
  0
LINE
  5
7B2
330
1A
100
AcDbEntity
  8
ZUWAKU
100
AcDbLine
 10
27.3922116075023
 20
22.72499980965628
 30
0.0
 11
27.3922116075023
 21
20.97499980965629
 31
0.0
  0
ARC
  5
7B3
330
1A
100
AcDbEntity
  8
ZUWAKU
100
AcDbCircle
 10
26.86721160750221
 20
20.97499980965629
 30
0.0
 40
0.525
100
AcDbArc
 50
270.0
 51
0.0
  0
ARC
  5
7B4
330
1A
100
AcDbEntity
  8
ZUWAKU
100
AcDbCircle
 10
30.36721160750221
 20
22.72499980965628
 30
0.0
 40
0.525
100
AcDbArc
 50
90.0
 51
180.0
  0
ARC
  5
7B5
330
1A
100
AcDbEntity
  8
ZUWAKU
100
AcDbCircle
 10
26.86721160750221
 20
22.72499980965628
 30
0.0
 40
0.525
100
AcDbArc
 50
0.0
 51
90.0
  0
LINE
  5
7B6
330
1A
100
AcDbEntity
  8
ZUWAKU
100
AcDbLine
 10
32.11721160750221
 20
23.24999980965629
 30
0.0
 11
30.36721160750221
 21
23.24999980965629
 31
0.0
  0
ARC
  5
7B7
330
1A
100
AcDbEntity
  8
ZUWAKU
100
AcDbCircle
 10
32.11721160750221
 20
22.72499980965628
 30
0.0
 40
0.525
100
AcDbArc
 50
0.0
 51
90.0
  0
ARC
  5
7B8
330
1A
100
AcDbEntity
  8
ZUWAKU
100
AcDbCircle
 10
36.17697744401357
 20
22.72499980965628
 30
0.0
 40
0.525
100
AcDbArc
 50
90.0
 51
162.4744316262769
  0
LINE
  5
7B9
330
1A
100
AcDbEntity
  8
ZUWAKU
100
AcDbLine
 10
38.37649772281804
 20
22.56690584148932
 30
0.0
 11
37.31485808968022
 21
19.20504700321972
 31
0.0
  0
ARC
  5
7BA
330
1A
100
AcDbEntity
  8
ZUWAKU
100
AcDbCircle
 10
37.87586682362257
 20
22.72499980965628
 30
0.0
 40
0.525
100
AcDbArc
 50
342.4744316262769
 51
90.0
  0
LINE
  5
7BB
330
1A
100
AcDbEntity
  8
ZUWAKU
100
AcDbLine
 10
36.17697744401357
 20
23.24999980965629
 30
0.0
 11
37.87586682362257
 21
23.24999980965629
 31
0.0
  0
ARC
  5
7BC
330
1A
100
AcDbEntity
  8
ZUWAKU
100
AcDbCircle
 10
41.21721160750223
 20
22.72499980965628
 30
0.0
 40
0.525
100
AcDbArc
 50
90.0
 51
180.0
  0
LINE
  5
7BD
330
1A
100
AcDbEntity
  8
ZUWAKU
100
AcDbLine
 10
51.8922116075023
 20
20.44999980965628
 30
0.0
 11
48.91721160750228
 21
20.44999980965628
 31
0.0
  0
LINE
  5
7BE
330
1A
100
AcDbEntity
  8
ZUWAKU
100
AcDbLine
 10
48.39221160750231
 20
23.24999980965629
 30
0.0
 11
51.8922116075023
 21
23.24999980965629
 31
0.0
  0
ARC
  5
7BF
330
1A
100
AcDbEntity
  8
ZUWAKU
100
AcDbCircle
 10
48.39221160750231
 20
20.44999980965628
 30
0.0
 40
2.799999999999999
100
AcDbArc
 50
90.0
 51
180.0
  0
LINE
  5
7C0
330
1A
100
AcDbEntity
  8
ZUWAKU
100
AcDbLine
 10
45.59221160750223
 20
20.44999980965628
 30
0.0
 11
45.59221160750223
 21
18.63479778430095
 31
0.0
  0
ARC
  5
7C1
330
1A
100
AcDbEntity
  8
ZUWAKU
100
AcDbCircle
 10
42.96721160750223
 20
22.72499980965628
 30
0.0
 40
0.525
100
AcDbArc
 50
0.0
 51
90.0
  0
LINE
  5
7C2
330
1A
100
AcDbEntity
  8
ZUWAKU
100
AcDbLine
 10
48.39221160750231
 20
19.92499980965629
 30
0.0
 11
48.39221160750231
 21
18.63479778430095
 31
0.0
  0
ARC
  5
7C3
330
1A
100
AcDbEntity
  8
ZUWAKU
100
AcDbCircle
 10
48.91721160750228
 20
19.92499980965629
 30
0.0
 40
0.525
100
AcDbArc
 50
90.0
 51
180.0
  0
LINE
  5
7C4
330
1A
100
AcDbEntity
  8
ZUWAKU
100
AcDbLine
 10
52.41721160750228
 20
22.72499980965628
 30
0.0
 11
52.41721160750228
 21
20.97499980965629
 31
0.0
  0
ARC
  5
7C5
330
1A
100
AcDbEntity
  8
ZUWAKU
100
AcDbCircle
 10
51.8922116075023
 20
20.97499980965629
 30
0.0
 40
0.525
100
AcDbArc
 50
270.0
 51
0.0
  0
ARC
  5
7C6
330
1A
100
AcDbEntity
  8
ZUWAKU
100
AcDbCircle
 10
51.8922116075023
 20
22.72499980965628
 30
0.0
 40
0.525
100
AcDbArc
 50
0.0
 51
90.0
  0
LINE
  5
7C7
330
1A
100
AcDbEntity
  8
ZUWAKU
100
AcDbLine
 10
57.31721160750225
 20
23.24999980965629
 30
0.0
 11
55.56721160750226
 21
23.24999980965629
 31
0.0
  0
ARC
  5
7C8
330
1A
100
AcDbEntity
  8
ZUWAKU
100
AcDbCircle
 10
55.56721160750226
 20
22.72499980965628
 30
0.0
 40
0.525
100
AcDbArc
 50
90.0
 51
180.0
  0
ARC
  5
7C9
330
1A
100
AcDbEntity
  8
ZUWAKU
100
AcDbCircle
 10
57.31721160750225
 20
22.72499980965628
 30
0.0
 40
0.525
100
AcDbArc
 50
0.0
 51
90.0
  0
LINE
  5
7CA
330
1A
100
AcDbEntity
  8
ZUWAKU
100
AcDbLine
 10
68.5172116075023
 20
23.24999980965629
 30
0.0
 11
66.7672116075023
 21
23.24999980965629
 31
0.0
  0
ARC
  5
7CB
330
1A
100
AcDbEntity
  8
ZUWAKU
100
AcDbCircle
 10
61.86721160750221
 20
22.72499980965628
 30
0.0
 40
0.525
100
AcDbArc
 50
90.0
 51
180.0
  0
LINE
  5
7CC
330
1A
100
AcDbEntity
  8
ZUWAKU
100
AcDbLine
 10
63.61721160750221
 20
23.24999980965629
 30
0.0
 11
61.86721160750221
 21
23.24999980965629
 31
0.0
  0
ARC
  5
7CD
330
1A
100
AcDbEntity
  8
ZUWAKU
100
AcDbCircle
 10
63.61721160750221
 20
22.72499980965628
 30
0.0
 40
0.525
100
AcDbArc
 50
0.0
 51
90.0
  0
ARC
  5
7CE
330
1A
100
AcDbEntity
  8
ZUWAKU
100
AcDbCircle
 10
66.7672116075023
 20
22.72499980965628
 30
0.0
 40
0.525
100
AcDbArc
 50
90.0
 51
180.0
  0
ARC
  5
7CF
330
1A
100
AcDbEntity
  8
ZUWAKU
100
AcDbCircle
 10
68.5172116075023
 20
22.72499980965628
 30
0.0
 40
0.525
100
AcDbArc
 50
0.0
 51
90.0
  0
TEXT
  5
7D0
330
1A
100
AcDbEntity
  8
MOJI
100
AcDbText
 10
239.8272021335722
 20
18.00492086706367
 30
0.0
 40
5.599999999999999
  1
ステンレス金具打込丸足
 41
0.9
  7
ｽﾀｲﾙ1
100
AcDbText
  0
TEXT
  5
7D1
330
1A
100
AcDbEntity
  8
MOJI
100
AcDbText
 10
239.8272021335722
 20
3.204920867063709
 30
0.0
 40
5.599999999999999
  1
Ｘ７０Ｕ－Ｌ１６５
 41
0.9
  7
ｽﾀｲﾙ1
100
AcDbText
  0
LINE
  5
7D2
330
1A
100
AcDbEntity
  8
ZUWAKU
100
AcDbLine
 10
208.4466007427888
 20
29.99999980965629
 30
0.0
 11
208.4466007427891
 21
0.7999998096563559
 31
0.0
  0
LINE
  5
7D3
330
1A
100
AcDbEntity
  8
ZUWAKU
100
AcDbLine
 10
208.6466007427889
 20
29.99999980965629
 30
0.0
 11
208.6466007427891
 21
0.7999998096563559
 31
0.0
  0
LINE
  5
7D4
330
1A
100
AcDbEntity
  8
ZUWAKU
100
AcDbLine
 10
208.246600742789
 20
29.99999980965629
 30
0.0
 11
208.246600742789
 21
0.7999998096563559
 31
0.0
  0
TEXT
  5
7D5
330
1A
100
AcDbEntity
  8
ZUWAKU
100
AcDbText
 10
209.7240457649986
 20
9.655356348041905
 30
0.0
 40
4.0
  1
サイズ
 41
0.9
  7
ｽﾀｲﾙ1
100
AcDbText
  0
TEXT
  5
7D6
330
1A
100
AcDbEntity
  8
ZUWAKU
100
AcDbText
 10
209.7240457649984
 20
24.05535634804186
 30
0.0
 40
4.0
  1
品名
 41
0.9
  7
ｽﾀｲﾙ1
100
AcDbText
  0
TEXT
  5
7D7
330
1A
100
AcDbEntity
  8
ZUWAKU
100
AcDbText
 10
658.2039371400234
 20
18.00492086706367
 30
0.0
 40
5.599999999999999
  1
　　．　　．　　
 41
0.9
  7
ｽﾀｲﾙ1
100
AcDbText
  0
LINE
  5
7D8
330
1A
100
AcDbEntity
  8
ZUWAKU
100
AcDbLine
 10
648.8172019629253
 20
15.59999980965632
 30
0.0
 11
697.2490100012623
 21
15.59999980965632
 31
0.0
  0
LINE
  5
7D9
330
1A
100
AcDbEntity
  8
ZUWAKU
100
AcDbLine
 10
648.8172019629255
 20
15.39999980965632
 30
0.0
 11
697.2490100012623
 21
15.39999980965632
 31
0.0
  0
LINE
  5
7DA
330
1A
100
AcDbEntity
  8
ZUWAKU
100
AcDbLine
 10
648.8172019629253
 20
15.19999980965631
 30
0.0
 11
697.2490100012623
 21
15.19999980965632
 31
0.0
  0
LINE
  5
7DB
330
1A
100
AcDbEntity
  8
ZUWAKU
100
AcDbLine
 10
505.199178950862
 20
15.59999980965632
 30
0.0
 11
552.5269552188335
 21
15.59999980965632
 31
0.0
  0
LINE
  5
7DC
330
1A
100
AcDbEntity
  8
ZUWAKU
100
AcDbLine
 10
505.199178950862
 20
15.39999980965632
 30
0.0
 11
552.5269552188335
 21
15.39999980965632
 31
0.0
  0
LINE
  5
7DD
330
1A
100
AcDbEntity
  8
ZUWAKU
100
AcDbLine
 10
505.199178950862
 20
15.19999980965632
 30
0.0
 11
552.5269552188335
 21
15.19999980965632
 31
0.0
  0
LINE
  5
7DE
330
1A
100
AcDbEntity
  8
ZUWAKU
100
AcDbLine
 10
504.7991789508621
 20
29.99999980965629
 30
0.0
 11
504.7991789508621
 21
0.7999998096563559
 31
0.0
  0
LINE
  5
7DF
330
1A
100
AcDbEntity
  8
ZUWAKU
100
AcDbLine
 10
505.199178950862
 20
29.99999980965629
 30
0.0
 11
505.1991789508622
 21
0.7999998096563559
 31
0.0
  0
LINE
  5
7E0
330
1A
100
AcDbEntity
  8
ZUWAKU
100
AcDbLine
 10
504.9991789508619
 20
29.99999980965629
 30
0.0
 11
504.9991789508622
 21
0.7999998096563559
 31
0.0
  0
TEXT
  5
7E1
330
1A
100
AcDbEntity
  8
MOJI
100
AcDbText
 10
528.0409074250339
 20
18.00492086706367
 30
0.0
 40
5.599999999999999
  1
Ａ３
 41
0.9
  7
ｽﾀｲﾙ1
100
AcDbText
  0
LINE
  5
7E2
330
1A
100
AcDbEntity
  8
ZUWAKU
100
AcDbLine
 10
447.4243634237125
 20
29.99999980965629
 30
0.0
 11
447.4243634237125
 21
0.7999998096563559
 31
0.0
  0
LINE
  5
7E3
330
1A
100
AcDbEntity
  8
ZUWAKU
100
AcDbLine
 10
447.8243634237124
 20
29.99999980965629
 30
0.0
 11
447.8243634237125
 21
0.7999998096563559
 31
0.0
  0
LINE
  5
7E4
330
1A
100
AcDbEntity
  8
ZUWAKU
100
AcDbLine
 10
447.6243634237123
 20
29.99999980965629
 30
0.0
 11
447.6243634237126
 21
0.7999998096563559
 31
0.0
  0
TEXT
  5
7E5
330
1A
100
AcDbEntity
  8
MOJI
100
AcDbText
 10
463.2464314437231
 20
11.94261753131627
 30
0.0
 40
5.599999999999999
  1
ＬＣ８４□
 41
0.9
  7
ｽﾀｲﾙ1
100
AcDbText
  0
TEXT
  5
7E6
330
1A
100
AcDbEntity
  8
ZUWAKU
100
AcDbText
 10
461.6981346806335
 20
2.9083290495455
 30
0.0
 40
3.0
  1
□には色品番が入ります
 41
0.9
  7
ｽﾀｲﾙ1
100
AcDbText
  0
TEXT
  5
7E7
330
1A
100
AcDbEntity
  8
ZUWAKU
100
AcDbText
 10
506.6766239730718
 20
9.655356348041905
 30
0.0
 40
4.0
  1
縮尺
 41
0.9
  7
ｽﾀｲﾙ1
100
AcDbText
  0
TEXT
  5
7E8
330
1A
100
AcDbEntity
  8
MOJI
100
AcDbText
 10
528.0409074250339
 20
3.204920867063709
 30
0.0
 40
5.599999999999999
  1
１/２
 41
0.9
  7
ｽﾀｲﾙ1
100
AcDbText
  0
TEXT
  5
7E9
330
1A
100
AcDbEntity
  8
ZUWAKU
100
AcDbText
 10
449.301808445922
 20
24.05535634804186
 30
0.0
 40
4.0
  1
品番
 41
0.9
  7
ｽﾀｲﾙ1
100
AcDbText
  0
TEXT
  5
7EA
330
1A
100
AcDbEntity
  8
ZUWAKU
100
AcDbText
 10
506.6766239730716
 20
24.05535634804186
 30
0.0
 40
4.0
  1
用紙
 41
0.9
  7
ｽﾀｲﾙ1
100
AcDbText
  0
LINE
  5
7EB
330
1A
100
AcDbEntity
  8
ZUWAKU
100
AcDbLine
 10
552.5269552188335
 20
29.99999980965629
 30
0.0
 11
552.5269552188335
 21
0.7999998096563559
 31
0.0
  0
LINE
  5
7EC
330
1A
100
AcDbEntity
  8
ZUWAKU
100
AcDbLine
 10
552.9269552188334
 20
29.99999980965629
 30
0.0
 11
552.9269552188337
 21
0.7999998096563559
 31
0.0
  0
LINE
  5
7ED
330
1A
100
AcDbEntity
  8
ZUWAKU
100
AcDbLine
 10
552.7269552188333
 20
29.99999980965629
 30
0.0
 11
552.7269552188336
 21
0.7999998096563559
 31
0.0
  0
LINE
  5
7EE
330
1A
100
AcDbEntity
  8
ZUWAKU
100
AcDbLine
 10
648.4172019629256
 20
29.99999980965629
 30
0.0
 11
648.4172019629256
 21
0.7999998096563559
 31
0.0
  0
LINE
  5
7EF
330
1A
100
AcDbEntity
  8
ZUWAKU
100
AcDbLine
 10
648.8172019629255
 20
29.99999980965629
 30
0.0
 11
648.8172019629257
 21
0.7999998096563559
 31
0.0
  0
LINE
  5
7F0
330
1A
100
AcDbEntity
  8
ZUWAKU
100
AcDbLine
 10
648.6172019629255
 20
29.99999980965629
 30
0.0
 11
648.6172019629257
 21
0.7999998096563559
 31
0.0
  0
TEXT
  5
7F1
330
1A
100
AcDbEntity
  8
ZUWAKU
100
AcDbText
 10
650.2946469851352
 20
24.05535634804186
 30
0.0
 40
4.0
  1
DATE
 41
0.9
  7
ｽﾀｲﾙ1
100
AcDbText
  0
TEXT
  5
7F2
330
1A
100
AcDbEntity
  8
ZUWAKU
100
AcDbText
 10
708.5280836449649
 20
17.55383914534309
 30
0.0
 40
6.0
  1
積水化学工業株式会社
 41
0.9
  7
ｽﾀｲﾙ1
100
AcDbText
  0
LINE
  5
7F3
330
1A
100
AcDbEntity
  8
ZUWAKU
100
AcDbLine
 10
697.8490100012622
 20
29.99999980965629
 30
0.0
 11
697.8490100012625
 21
0.7999998096563559
 31
0.0
  0
LINE
  5
7F4
330
1A
100
AcDbEntity
  8
ZUWAKU
100
AcDbLine
 10
697.6490100012622
 20
29.99999980965629
 30
0.0
 11
697.6490100012624
 21
0.7999998096563559
 31
0.0
  0
LINE
  5
7F5
330
1A
100
AcDbEntity
  8
ZUWAKU
100
AcDbLine
 10
697.4490100012624
 20
29.99999980965629
 30
0.0
 11
697.4490100012624
 21
0.7999998096563559
 31
0.0
  0
LINE
  5
7F6
330
1A
100
AcDbEntity
  8
ZUWAKU
100
AcDbLine
 10
697.2490100012623
 20
29.99999980965629
 30
0.0
 11
697.2490100012623
 21
0.7999998096563559
 31
0.0
  0
TEXT
  5
7F7
330
1A
100
AcDbEntity
  8
ZUWAKU
100
AcDbText
 10
708.5280836449649
 20
6.648840123510353
 30
0.0
 40
6.0
  1
建材事業部
 41
0.9
  7
ｽﾀｲﾙ1
100
AcDbText
  0
VIEWPORT
  5
22
330
17
100
AcDbEntity
 67
     1
  8
0
100
AcDbViewport
 10
313.6808219178082
 20
148.5
 30
0.0
 40
627.3616438356165
 41
297.0
 68
     2
 69
     1
1001
ACAD
1000
MVIEW
1002
{
1070
    16
1010
0.0
1020
0.0
1030
0.0
1010
0.0
1020
0.0
1030
1.0
1040
0.0
1040
297.0
1040
313.6808219178082
1040
148.5
1040
50.0
1040
0.0
1040
0.0
1070
     0
1070
   100
1070
     1
1070
     0
1070
     0
1070
     0
1070
     0
1070
     0
1040
0.0
1040
0.0
1040
0.0
1040
1.0
1040
1.0
1040
10.0
1040
10.0
1070
     0
1002
{
1002
}
1002
}
  0
VIEWPORT
  5
64
330
17
100
AcDbEntity
 67
     1
  8
VIEWPORT
100
AcDbViewport
 10
210.0
 20
148.5
 30
0.0
 40
420.0
 41
297.0
 68
     1
 69
     2
1001
ACAD
1000
MVIEW
1002
{
1070
    16
1010
0.0
1020
0.0
1030
0.0
1010
0.0
1020
0.0
1030
1.0
1040
0.0
1040
605.8799999999998
1040
420.0
1040
297.0
1040
50.0
1040
0.0
1040
0.0
1070
     0
1070
   100
1070
     1
1070
     0
1070
     0
1070
     0
1070
     0
1070
     0
1040
0.0
1040
0.0
1040
0.0
1040
10.0
1040
10.0
1040
0.0
1040
0.0
1070
     0
1002
{
1002
}
1002
}
  0
ENDSEC
  0
SECTION
  2
OBJECTS
  0
DICTIONARY
  5
C
330
0
100
AcDbDictionary
  3
ACAD_GROUP
350
D
  3
ACAD_LAYOUT
350
64A
  3
ACAD_MLINESTYLE
350
E
  3
ACAD_PLOTSETTINGS
350
64B
  3
ACAD_PLOTSTYLENAME
350
648
  3
ACDBHEADERROUNDTRIPXREC
350
96D
  0
DICTIONARY
  5
679
330
1A
100
AcDbDictionary
280
     1
  3
ACAD_LAYOUTSELFREF
360
98F
  0
DICTIONARY
  5
677
330
17
100
AcDbDictionary
280
     1
  3
ACAD_LAYOUTSELFREF
360
98E
  0
DICTIONARY
  5
D
102
{ACAD_REACTORS
330
C
102
}
330
C
100
AcDbDictionary
  0
DICTIONARY
  5
64A
102
{ACAD_REACTORS
330
C
102
}
330
C
100
AcDbDictionary
  0
DICTIONARY
  5
E
102
{ACAD_REACTORS
330
C
102
}
330
C
100
AcDbDictionary
  3
STANDARD
350
13
  0
DICTIONARY
  5
64B
102
{ACAD_REACTORS
330
C
102
}
330
C
100
AcDbDictionary
  0
ACDBDICTIONARYWDFLT
  5
648
102
{ACAD_REACTORS
330
C
102
}
330
C
100
AcDbDictionary
281
     1
  3
Normal
350
649
100
AcDbDictionaryWithDefault
340
649
1001
ACAD
1000
TREAT_AS_HARD
1070
     0
  0
DICTIONARY
  5
96D
102
{ACAD_REACTORS
330
C
102
}
330
C
100
AcDbDictionary
  3
TSTACKALIGN
350
96E
  3
TSTACKSIZE
350
96F
  3
HYPERLINKBASE
350
970
  3
STYLESHEET
350
971
  3
LAYOUTDICT
350
972
  3
PLOTSETDICT
350
973
  3
PLOTSTYLNAMDICT
350
974
  3
LWETCUNION
350
975
  3
INSUNITS
350
976
  3
CEPSNTYPE
350
977
  3
FINGERPRINTGUID
350
978
  3
VERSIONGUID
350
979
  3
PSVPSCALE
350
97A
  3
DIMSTYLEDATA
350
97B
  3
PUCSORTHOREF
350
97C
  3
PUCSORTHOVIEW
350
97D
  3
PUCSBASE
350
97E
  3
PUCSORGTOP
350
97F
  3
PUCSORGBOTTOM
350
980
  3
PUCSORGLEFT
350
981
  3
PUCSORGRIGHT
350
982
  3
PUCSORGFRONT
350
983
  3
PUCSORGBACK
350
984
  3
UCSORTHOREF
350
985
  3
UCSORTHOVIEW
350
986
  3
UCSBASE
350
987
  3
UCSORGTOP
350
988
  3
UCSORGBOTTOM
350
989
  3
UCSORGLEFT
350
98A
  3
UCSORGRIGHT
350
98B
  3
UCSORGFRONT
350
98C
  3
UCSORGBACK
350
98D
  0
XRECORD
  5
98F
102
{ACAD_REACTORS
330
679
102
}
330
679
100
AcDbXrecord
340
1A
  0
XRECORD
  5
98E
102
{ACAD_REACTORS
330
677
102
}
330
677
100
AcDbXrecord
340
17
  0
MLINESTYLE
  5
13
102
{ACAD_REACTORS
330
E
102
}
330
E
100
AcDbMlineStyle
  2
STANDARD
 70
     0
  3

 62
     0
 51
90.0
 52
90.0
 71
     2
 49
0.5
 62
   256
  6
BYLAYER
 49
-0.5
 62
   256
  6
BYLAYER
  0
ACDBPLACEHOLDER
  5
649
102
{ACAD_REACTORS
330
648
102
}
330
648
100
AcDbPlaceHolder
280
     0
  0
XRECORD
  5
96E
102
{ACAD_REACTORS
330
96D
102
}
330
96D
100
AcDbXrecord
 90
        1
  0
XRECORD
  5
96F
102
{ACAD_REACTORS
330
96D
102
}
330
96D
100
AcDbXrecord
 90
       70
  0
XRECORD
  5
970
102
{ACAD_REACTORS
330
96D
102
}
330
96D
100
AcDbXrecord
  1

  0
XRECORD
  5
971
102
{ACAD_REACTORS
330
96D
102
}
330
96D
100
AcDbXrecord
  1
systemprinter.ctb
  0
XRECORD
  5
972
102
{ACAD_REACTORS
330
96D
102
}
330
96D
100
AcDbXrecord
340
64A
  0
XRECORD
  5
973
102
{ACAD_REACTORS
330
96D
102
}
330
96D
100
AcDbXrecord
340
64B
  0
XRECORD
  5
974
102
{ACAD_REACTORS
330
96D
102
}
330
96D
100
AcDbXrecord
340
648
  0
XRECORD
  5
975
102
{ACAD_REACTORS
330
96D
102
}
330
96D
100
AcDbXrecord
 90
    10781
  0
XRECORD
  5
976
102
{ACAD_REACTORS
330
96D
102
}
330
96D
100
AcDbXrecord
 90
        0
  0
XRECORD
  5
977
102
{ACAD_REACTORS
330
96D
102
}
330
96D
100
AcDbXrecord
 90
        0
  0
XRECORD
  5
978
102
{ACAD_REACTORS
330
96D
102
}
330
96D
100
AcDbXrecord
  1
{71CFFEFD-47CE-11D6-9330-0050DA99388B}
  0
XRECORD
  5
979
102
{ACAD_REACTORS
330
96D
102
}
330
96D
100
AcDbXrecord
  1
{09E5BC21-BCF4-4994-968D-EA5E74C59FBA}
  0
XRECORD
  5
97A
102
{ACAD_REACTORS
330
96D
102
}
330
96D
100
AcDbXrecord
 40
0.0
  0
XRECORD
  5
97B
102
{ACAD_REACTORS
330
96D
102
}
330
96D
100
AcDbXrecord
1000
DSTYLE
1002
{
1070
   341
340
6D
1070
   343
340
6D
1070
   344
340
6D
1070
   371
 70
    -1
1070
   372
 70
    -1
1002
}
  0
XRECORD
  5
97C
102
{ACAD_REACTORS
330
96D
102
}
330
96D
100
AcDbXrecord
340
0
  0
XRECORD
  5
97D
102
{ACAD_REACTORS
330
96D
102
}
330
96D
100
AcDbXrecord
 70
     0
  0
XRECORD
  5
97E
102
{ACAD_REACTORS
330
96D
102
}
330
96D
100
AcDbXrecord
340
0
  0
XRECORD
  5
97F
102
{ACAD_REACTORS
330
96D
102
}
330
96D
100
AcDbXrecord
 10
0.0
 20
0.0
 30
0.0
  0
XRECORD
  5
980
102
{ACAD_REACTORS
330
96D
102
}
330
96D
100
AcDbXrecord
 10
0.0
 20
0.0
 30
0.0
  0
XRECORD
  5
981
102
{ACAD_REACTORS
330
96D
102
}
330
96D
100
AcDbXrecord
 10
0.0
 20
0.0
 30
0.0
  0
XRECORD
  5
982
102
{ACAD_REACTORS
330
96D
102
}
330
96D
100
AcDbXrecord
 10
0.0
 20
0.0
 30
0.0
  0
XRECORD
  5
983
102
{ACAD_REACTORS
330
96D
102
}
330
96D
100
AcDbXrecord
 10
0.0
 20
0.0
 30
0.0
  0
XRECORD
  5
984
102
{ACAD_REACTORS
330
96D
102
}
330
96D
100
AcDbXrecord
 10
0.0
 20
0.0
 30
0.0
  0
XRECORD
  5
985
102
{ACAD_REACTORS
330
96D
102
}
330
96D
100
AcDbXrecord
340
0
  0
XRECORD
  5
986
102
{ACAD_REACTORS
330
96D
102
}
330
96D
100
AcDbXrecord
 70
     0
  0
XRECORD
  5
987
102
{ACAD_REACTORS
330
96D
102
}
330
96D
100
AcDbXrecord
340
0
  0
XRECORD
  5
988
102
{ACAD_REACTORS
330
96D
102
}
330
96D
100
AcDbXrecord
 10
0.0
 20
0.0
 30
0.0
  0
XRECORD
  5
989
102
{ACAD_REACTORS
330
96D
102
}
330
96D
100
AcDbXrecord
 10
0.0
 20
0.0
 30
0.0
  0
XRECORD
  5
98A
102
{ACAD_REACTORS
330
96D
102
}
330
96D
100
AcDbXrecord
 10
0.0
 20
0.0
 30
0.0
  0
XRECORD
  5
98B
102
{ACAD_REACTORS
330
96D
102
}
330
96D
100
AcDbXrecord
 10
0.0
 20
0.0
 30
0.0
  0
XRECORD
  5
98C
102
{ACAD_REACTORS
330
96D
102
}
330
96D
100
AcDbXrecord
 10
0.0
 20
0.0
 30
0.0
  0
XRECORD
  5
98D
102
{ACAD_REACTORS
330
96D
102
}
330
96D
100
AcDbXrecord
 10
0.0
 20
0.0
 30
0.0
  0
ENDSEC
  0
EOF
