  0
SECTION
  2
HEADER
  9
$ACADVER
  1
AC1014
  9
$ACADMAINTVER
 70
     9
  9
$DWGCODEPAGE
  3
ANSI_932
  9
$INSBASE
 10
0.0
 20
0.0
 30
0.0
  9
$EXTMIN
 10
-0.025632904581471
 20
-0.0181260584133725
 30
-0.0015258207003583
  9
$EXTMAX
 10
797.6000995578869
 20
551.6452344880035
 30
0.0000000349246037
  9
$LIMMIN
 10
0.0
 20
0.0
  9
$LIMMAX
 10
840.0
 20
594.0
  9
$ORTHOMODE
 70
     0
  9
$REGENMODE
 70
     1
  9
$FILLMODE
 70
     1
  9
$QTEXTMODE
 70
     0
  9
$MIRRTEXT
 70
     1
  9
$DRAGMODE
 70
     2
  9
$LTSCALE
 40
2.0
  9
$OSMODE
 70
    37
  9
$ATTMODE
 70
     1
  9
$TEXTSIZE
 40
5.0
  9
$TRACEWID
 40
1.0
  9
$TEXTSTYLE
  7
STANDARD
  9
$CLAYER
  8
SUNPOU
  9
$CELTYPE
  6
CONTINUOUS
  9
$CECOLOR
 62
   256
  9
$CELTSCALE
 40
1.0
  9
$DELOBJ
 70
     1
  9
$DISPSILH
 70
     0
  9
$DIMSCALE
 40
1.0
  9
$DIMASZ
 40
7.0
  9
$DIMEXO
 40
6.0
  9
$DIMDLI
 40
14.0
  9
$DIMRND
 40
0.0
  9
$DIMDLE
 40
0.0
  9
$DIMEXE
 40
3.0
  9
$DIMTP
 40
0.0
  9
$DIMTM
 40
0.0
  9
$DIMTXT
 40
6.0
  9
$DIMCEN
 40
150.0
  9
$DIMTSZ
 40
0.0
  9
$DIMTOL
 70
     0
  9
$DIMLIM
 70
     0
  9
$DIMTIH
 70
     0
  9
$DIMTOH
 70
     0
  9
$DIMSE1
 70
     0
  9
$DIMSE2
 70
     0
  9
$DIMTAD
 70
     3
  9
$DIMZIN
 70
     0
  9
$DIMBLK
  1

  9
$DIMASO
 70
     1
  9
$DIMSHO
 70
     1
  9
$DIMPOST
  1

  9
$DIMAPOST
  1

  9
$DIMALT
 70
     0
  9
$DIMALTD
 70
     2
  9
$DIMALTF
 40
25.4
  9
$DIMLFAC
 40
1.0
  9
$DIMTOFL
 70
     1
  9
$DIMTVP
 40
0.0
  9
$DIMTIX
 70
     0
  9
$DIMSOXD
 70
     0
  9
$DIMSAH
 70
     1
  9
$DIMBLK1
  1
OPEN
  9
$DIMBLK2
  1
OPEN
  9
$DIMSTYLE
  2
STANDARD
  9
$DIMCLRD
 70
   256
  9
$DIMCLRE
 70
   256
  9
$DIMCLRT
 70
   256
  9
$DIMTFAC
 40
1.0
  9
$DIMGAP
 40
2.0
  9
$DIMJUST
 70
     0
  9
$DIMSD1
 70
     0
  9
$DIMSD2
 70
     0
  9
$DIMTOLJ
 70
     1
  9
$DIMTZIN
 70
     0
  9
$DIMALTZ
 70
     0
  9
$DIMALTTZ
 70
     0
  9
$DIMFIT
 70
     3
  9
$DIMUPT
 70
     0
  9
$DIMUNIT
 70
     2
  9
$DIMDEC
 70
     0
  9
$DIMTDEC
 70
     0
  9
$DIMALTU
 70
     2
  9
$DIMALTTD
 70
     2
  9
$DIMTXSTY
  7
STANDARD
  9
$DIMAUNIT
 70
     0
  9
$LUNITS
 70
     2
  9
$LUPREC
 70
     4
  9
$SKETCHINC
 40
1.0
  9
$FILLETRAD
 40
0.5
  9
$AUNITS
 70
     0
  9
$AUPREC
 70
     0
  9
$MENU
  1
.
  9
$ELEVATION
 40
0.0
  9
$PELEVATION
 40
0.0
  9
$THICKNESS
 40
0.0
  9
$LIMCHECK
 70
     0
  9
$BLIPMODE
 70
     0
  9
$CHAMFERA
 40
20.0
  9
$CHAMFERB
 40
20.0
  9
$CHAMFERC
 40
40.0
  9
$CHAMFERD
 40
0.0
  9
$SKPOLY
 70
     0
  9
$TDCREATE
 40
2450994.354346065
  9
$TDUPDATE
 40
2454515.379932650
  9
$TDINDWG
 40
0.0203958565
  9
$TDUSRTIMER
 40
0.0203958565
  9
$USRTIMER
 70
     1
  9
$ANGBASE
 50
0.0
  9
$ANGDIR
 70
     0
  9
$PDMODE
 70
     1
  9
$PDSIZE
 40
0.0
  9
$PLINEWID
 40
0.0
  9
$COORDS
 70
     2
  9
$SPLFRAME
 70
     0
  9
$SPLINETYPE
 70
     6
  9
$SPLINESEGS
 70
     8
  9
$ATTDIA
 70
     0
  9
$ATTREQ
 70
     1
  9
$HANDLING
 70
 10241
  9
$HANDSEED
  5
83E
  9
$SURFTAB1
 70
     6
  9
$SURFTAB2
 70
     6
  9
$SURFTYPE
 70
     6
  9
$SURFU
 70
     6
  9
$SURFV
 70
     6
  9
$UCSNAME
  2

  9
$UCSORG
 10
0.0
 20
0.0
 30
0.0
  9
$UCSXDIR
 10
1.0
 20
0.0
 30
0.0
  9
$UCSYDIR
 10
0.0
 20
1.0
 30
0.0
  9
$PUCSNAME
  2

  9
$PUCSORG
 10
0.0
 20
0.0
 30
0.0
  9
$PUCSXDIR
 10
1.0
 20
0.0
 30
0.0
  9
$PUCSYDIR
 10
0.0
 20
1.0
 30
0.0
  9
$USERI1
 70
     0
  9
$USERI2
 70
     0
  9
$USERI3
 70
     0
  9
$USERI4
 70
     0
  9
$USERI5
 70
     0
  9
$USERR1
 40
0.0
  9
$USERR2
 40
0.0
  9
$USERR3
 40
0.0
  9
$USERR4
 40
0.0
  9
$USERR5
 40
0.0
  9
$WORLDVIEW
 70
     1
  9
$SHADEDGE
 70
     3
  9
$SHADEDIF
 70
    70
  9
$TILEMODE
 70
     1
  9
$MAXACTVP
 70
    16
  9
$PINSBASE
 10
0.0
 20
0.0
 30
0.0
  9
$PLIMCHECK
 70
     0
  9
$PEXTMIN
 10
0.0
 20
0.0
 30
0.0
  9
$PEXTMAX
 10
420.0
 20
297.0
 30
0.0
  9
$PLIMMIN
 10
0.0
 20
0.0
  9
$PLIMMAX
 10
420.0
 20
297.0
  9
$UNITMODE
 70
     0
  9
$VISRETAIN
 70
     0
  9
$PLINEGEN
 70
     0
  9
$PSLTSCALE
 70
     1
  9
$TREEDEPTH
 70
  3020
  9
$PICKSTYLE
 70
     1
  9
$CMLSTYLE
  2
STANDARD
  9
$CMLJUST
 70
     0
  9
$CMLSCALE
 40
1.0
  9
$PROXYGRAPHICS
 70
     1
  9
$MEASUREMENT
 70
     1
  0
ENDSEC
  0
SECTION
  2
CLASSES
  0
CLASS
  1
ACDBDICTIONARYWDFLT
  2
AcDbDictionaryWithDefault
  3
AutoCAD 2000
 90
        0
280
     0
281
     0
  0
CLASS
  1
ACDBPLACEHOLDER
  2
AcDbPlaceHolder
  3
AutoCAD 2000
 90
        0
280
     0
281
     0
  0
CLASS
  1
LAYOUT
  2
AcDbLayout
  3
AutoCAD 2000
 90
        0
280
     0
281
     0
  0
CLASS
  1
LONG_TRANSACTION
  2
AcDbLongTransaction
  3
AutoCAD 2000
 90
        0
280
     0
281
     0
  0
CLASS
  1
LWPOLYLINE
  2
AcDbPolyline
  3
AutoCAD 2000
 90
        0
280
     0
281
     1
  0
CLASS
  1
HATCH
  2
AcDbHatch
  3
AutoCAD 2000
 90
        0
280
     0
281
     1
  0
CLASS
  1
XRECORD
  2
AcDbXrecord
  3
AutoCAD 2000
 90
        0
280
     0
281
     0
  0
CLASS
  1
LONG_TRANSACTION
  2
AcDbLongTransaction
  3
AutoCAD 2000
 90
        0
280
     0
281
     0
  0
CLASS
  1
LWPOLYLINE
  2
AcDbPolyline
  3
AutoCAD 2000
 90
        0
280
     0
281
     1
  0
CLASS
  1
HATCH
  2
AcDbHatch
  3
AutoCAD 2000
 90
        0
280
     0
281
     1
  0
CLASS
  1
XRECORD
  2
AcDbXrecord
  3
AutoCAD 2000
 90
        0
280
     0
281
     0
  0
ENDSEC
  0
SECTION
  2
TABLES
  0
TABLE
  2
VPORT
  5
8
330
0
100
AcDbSymbolTable
 70
     2
  0
VPORT
  5
81A
330
8
100
AcDbSymbolTableRecord
100
AcDbViewportTableRecord
  2
*ACTIVE
 70
     0
 10
0.0
 20
0.0
 11
1.0
 21
1.0
 12
391.408742584875
 22
284.882994858442
 13
0.0
 23
0.0
 14
5.0
 24
5.0
 15
0.0
 25
0.0
 16
0.0
 26
0.0
 36
1.0
 17
0.0
 27
0.0
 37
0.0
 40
661.3402342137723
 41
1.570153061224489
 42
50.0
 43
0.0
 44
0.0
 50
0.0
 51
0.0
 71
     0
 72
   100
 73
     1
 74
     0
 75
     0
 76
     0
 77
     0
 78
     0
  0
ENDTAB
  0
TABLE
  2
LTYPE
  5
5
330
0
100
AcDbSymbolTable
 70
     3
  0
LTYPE
  5
14
330
5
100
AcDbSymbolTableRecord
100
AcDbLinetypeTableRecord
  2
BYBLOCK
 70
     0
  3

 72
    65
 73
     0
 40
0.0
  0
LTYPE
  5
15
330
5
100
AcDbSymbolTableRecord
100
AcDbLinetypeTableRecord
  2
BYLAYER
 70
     0
  3

 72
    65
 73
     0
 40
0.0
  0
LTYPE
  5
16
330
5
100
AcDbSymbolTableRecord
100
AcDbLinetypeTableRecord
  2
CONTINUOUS
 70
     0
  3
Solid line
 72
    65
 73
     0
 40
0.0
  0
LTYPE
  5
115
330
5
100
AcDbSymbolTableRecord
100
AcDbLinetypeTableRecord
  2
PHANTOM
 70
     0
  3
______  __  __  ______  __  __  ______  __  __ 
 72
    65
 73
     6
 40
2.5
 49
1.25
 74
     0
 49
-0.25
 74
     0
 49
0.25
 74
     0
 49
-0.25
 74
     0
 49
0.25
 74
     0
 49
-0.25
 74
     0
  0
LTYPE
  5
135
330
5
100
AcDbSymbolTableRecord
100
AcDbLinetypeTableRecord
  2
CENTER
 70
     0
  3
____ _ ____ _ ____ _ ____ _ ____ _ ____ _ ____ 
 72
    65
 73
     4
 40
2.0
 49
1.25
 74
     0
 49
-0.25
 74
     0
 49
0.25
 74
     0
 49
-0.25
 74
     0
  0
ENDTAB
  0
TABLE
  2
LAYER
  5
2
330
0
100
AcDbSymbolTable
 70
     9
  0
LAYER
  5
F
330
2
100
AcDbSymbolTableRecord
100
AcDbLayerTableRecord
  2
0
 70
     0
 62
     7
  6
CONTINUOUS
  0
LAYER
  5
62
330
2
100
AcDbSymbolTableRecord
100
AcDbLayerTableRecord
  2
VIEWPORT
 70
     0
 62
     7
  6
CONTINUOUS
  0
LAYER
  5
65
330
2
100
AcDbSymbolTableRecord
100
AcDbLayerTableRecord
  2
ZUWAKU
 70
     0
 62
     7
  6
CONTINUOUS
  0
LAYER
  5
154
330
2
100
AcDbSymbolTableRecord
100
AcDbLayerTableRecord
  2
NOKITOI
 70
     0
 62
     8
  6
PHANTOM
  0
LAYER
  5
155
330
2
100
AcDbSymbolTableRecord
100
AcDbLayerTableRecord
  2
SUNPOU
 70
     0
 62
     4
  6
CONTINUOUS
  0
LAYER
  5
156
330
2
100
AcDbSymbolTableRecord
100
AcDbLayerTableRecord
  2
SEIHIN
 70
     0
 62
     3
  6
CONTINUOUS
  0
LAYER
  5
157
330
2
100
AcDbSymbolTableRecord
100
AcDbLayerTableRecord
  2
CENTER_L
 70
     0
 62
     1
  6
CENTER
  0
LAYER
  5
4AF
330
2
100
AcDbSymbolTableRecord
100
AcDbLayerTableRecord
  2
DEFPOINTS
 70
     0
 62
     7
  6
CONTINUOUS
  0
LAYER
  5
6A3
330
2
100
AcDbSymbolTableRecord
100
AcDbLayerTableRecord
  2
MOJI
 70
     0
 62
     2
  6
CONTINUOUS
  0
ENDTAB
  0
TABLE
  2
STYLE
  5
3
330
0
100
AcDbSymbolTable
 70
     2
  0
STYLE
  5
10
330
3
100
AcDbSymbolTableRecord
100
AcDbTextStyleTableRecord
  2
STANDARD
 70
     0
 40
0.0
 41
1.0
 50
0.0
 71
     0
 42
5.0
  3
TXT
  4
bigfont.shx
  0
STYLE
  5
6A4
330
3
100
AcDbSymbolTableRecord
100
AcDbTextStyleTableRecord
  2
ｽﾀｲﾙ1
 70
     0
 40
0.0
 41
1.0
 50
0.0
 71
     0
 42
2.5
  3
MS PGothic.ttf
  4

1001
ACAD
1000
MS PGothic
1071
    32818
  0
ENDTAB
  0
TABLE
  2
VIEW
  5
6
330
0
100
AcDbSymbolTable
 70
     0
  0
ENDTAB
  0
TABLE
  2
UCS
  5
7
330
0
100
AcDbSymbolTable
 70
     0
  0
ENDTAB
  0
TABLE
  2
APPID
  5
9
330
0
100
AcDbSymbolTable
 70
     1
  0
APPID
  5
11
330
9
100
AcDbSymbolTableRecord
100
AcDbRegAppTableRecord
  2
ACAD
 70
     0
  0
ENDTAB
  0
TABLE
  2
DIMSTYLE
  5
A
330
0
100
AcDbSymbolTable
 70
     1
  0
DIMSTYLE
105
1D
102
{ACAD_REACTORS
330
4B4
330
4D0
330
4F9
330
571
330
594
330
5A1
330
5EB
102
}
330
A
100
AcDbSymbolTableRecord
100
AcDbDimStyleTableRecord
  2
STANDARD
 70
     0
  3

  4

  5

  6

  7

 40
1.0
 41
0.18
 42
0.0625
 43
0.38
 44
0.18
 45
0.0
 46
0.0
 47
0.0
 48
0.0
140
0.18
141
0.09
142
0.0
143
25.4
144
1.0
145
0.0
146
1.0
147
0.09
 71
     0
 72
     0
 73
     1
 74
     1
 75
     0
 76
     0
 77
     0
 78
     0
170
     0
171
     2
172
     0
173
     0
174
     0
175
     0
176
     0
177
     0
178
     0
270
     2
271
     4
272
     4
273
     2
274
     2
340
10
275
     0
280
     0
281
     0
282
     0
283
     1
284
     0
285
     0
286
     0
287
     3
288
     0
  0
ENDTAB
  0
TABLE
  2
BLOCK_RECORD
  5
1
330
0
100
AcDbSymbolTable
 70
     9
  0
BLOCK_RECORD
  5
1A
102
{ACAD_XDICTIONARY
360
695
102
}
330
1
100
AcDbSymbolTableRecord
100
AcDbBlockTableRecord
  2
*MODEL_SPACE
  0
BLOCK_RECORD
  5
17
102
{ACAD_XDICTIONARY
360
693
102
}
330
1
100
AcDbSymbolTableRecord
100
AcDbBlockTableRecord
  2
*PAPER_SPACE
  0
BLOCK_RECORD
  5
6D
330
1
100
AcDbSymbolTableRecord
100
AcDbBlockTableRecord
  2
_OPEN
  0
BLOCK_RECORD
  5
163
330
1
100
AcDbSymbolTableRecord
100
AcDbBlockTableRecord
  2
A$C1305
  0
BLOCK_RECORD
  5
4A7
330
1
100
AcDbSymbolTableRecord
100
AcDbBlockTableRecord
  2
*D2
  0
BLOCK_RECORD
  5
4C2
330
1
100
AcDbSymbolTableRecord
100
AcDbBlockTableRecord
  2
*D3
  0
BLOCK_RECORD
  5
4EB
330
1
100
AcDbSymbolTableRecord
100
AcDbBlockTableRecord
  2
*D4
  0
BLOCK_RECORD
  5
565
330
1
100
AcDbSymbolTableRecord
100
AcDbBlockTableRecord
  2
*D5
  0
BLOCK_RECORD
  5
588
330
1
100
AcDbSymbolTableRecord
100
AcDbBlockTableRecord
  2
*D6
  0
BLOCK_RECORD
  5
595
330
1
100
AcDbSymbolTableRecord
100
AcDbBlockTableRecord
  2
*D7
  0
BLOCK_RECORD
  5
5DD
330
1
100
AcDbSymbolTableRecord
100
AcDbBlockTableRecord
  2
*D8
  0
ENDTAB
  0
ENDSEC
  0
SECTION
  2
BLOCKS
  0
BLOCK
  5
1B
330
1A
100
AcDbEntity
  8
0
100
AcDbBlockBegin
  2
*MODEL_SPACE
 70
     0
 10
0.0
 20
0.0
 30
0.0
  3
*MODEL_SPACE
  1

  0
ENDBLK
  5
1C
330
1A
100
AcDbEntity
  8
0
100
AcDbBlockEnd
  0
BLOCK
  5
18
330
17
100
AcDbEntity
 67
     1
  8
0
100
AcDbBlockBegin
  2
*PAPER_SPACE
 70
     0
 10
0.0
 20
0.0
 30
0.0
  3
*PAPER_SPACE
  1

  0
ENDBLK
  5
19
330
17
100
AcDbEntity
 67
     1
  8
0
100
AcDbBlockEnd
  0
BLOCK
  5
6E
330
6D
100
AcDbEntity
  8
0
100
AcDbBlockBegin
  2
_OPEN
 70
     0
 10
0.0
 20
0.0
 30
0.0
  3
_OPEN
  1

  0
LINE
  5
6F
330
6D
100
AcDbEntity
  8
0
  6
BYBLOCK
 62
     0
100
AcDbLine
 10
-1.0
 20
0.1666666666666666
 30
0.0
 11
0.0
 21
0.0
 31
0.0
  0
LINE
  5
70
330
6D
100
AcDbEntity
  8
0
  6
BYBLOCK
 62
     0
100
AcDbLine
 10
0.0
 20
0.0
 30
0.0
 11
-1.0
 21
-0.1666666666666666
 31
0.0
  0
LINE
  5
71
330
6D
100
AcDbEntity
  8
0
  6
BYBLOCK
 62
     0
100
AcDbLine
 10
0.0
 20
0.0
 30
0.0
 11
-1.0
 21
0.0
 31
0.0
  0
ENDBLK
  5
72
330
6D
100
AcDbEntity
  8
0
100
AcDbBlockEnd
  0
BLOCK
  5
1AB
330
163
100
AcDbEntity
  8
0
100
AcDbBlockBegin
  2
A$C1305
 70
     0
 10
0.0
 20
0.0
 30
0.0
  3
A$C1305
  1

  0
LINE
  5
164
330
163
100
AcDbEntity
  8
NOKITOI
  6
PHANTOM
 62
     8
 48
5.0
100
AcDbLine
 10
29.18435908443393
 20
10.10187063730222
 30
0.0
 11
19.27365908443391
 21
10.10187063730222
 31
0.0
  0
LINE
  5
165
330
163
100
AcDbEntity
  8
NOKITOI
  6
PHANTOM
 62
     8
 48
5.0
100
AcDbLine
 10
90.2981590844339
 20
0.1120706373022813
 30
0.0
 11
24.06755908443392
 21
0.1121706373021425
 31
0.0
  0
LINE
  5
166
330
163
100
AcDbEntity
  8
NOKITOI
  6
PHANTOM
 62
     8
 48
5.0
100
AcDbLine
 10
24.06755908443392
 20
0.1121706373021425
 30
0.0
 11
90.2981590844339
 21
0.1120706373022813
 31
0.0
  0
LINE
  5
167
330
163
100
AcDbEntity
  8
NOKITOI
  6
PHANTOM
 62
     8
 48
5.0
100
AcDbLine
 10
13.05735908443387
 20
12.22087063730214
 30
0.0
 11
7.218759084433713
 21
39.95217063730228
 31
0.0
  0
LINE
  5
168
330
163
100
AcDbEntity
  8
NOKITOI
  6
PHANTOM
 62
     8
 48
5.0
100
AcDbLine
 10
14.16595908443378
 20
13.23377063730208
 30
0.0
 11
8.234959084433853
 21
41.4036706373023
 31
0.0
  0
ARC
  5
169
330
163
100
AcDbEntity
  8
NOKITOI
  6
PHANTOM
 62
     8
 48
5.0
100
AcDbCircle
 10
15.13957896620524
 20
13.43874830022218
 30
0.0
 40
0.995060928010462
100
AcDbArc
 50
191.8877567214145
 51
251.4524867922934
  0
ARC
  5
16A
330
163
100
AcDbEntity
  8
NOKITOI
  6
PHANTOM
 62
     8
 48
5.0
100
AcDbCircle
 10
10.29733292322475
 20
-0.9941694721817384
 30
0.0
 40
14.22848866365036
100
AcDbArc
 50
51.52529185494254
 51
71.45345265407107
  0
ARC
  5
16B
330
163
100
AcDbEntity
  8
NOKITOI
  6
PHANTOM
 62
     8
 48
5.0
100
AcDbCircle
 10
10.29726615422066
 20
-0.9941373355915743
 30
0.0
 40
12.93471022655885
100
AcDbArc
 50
8.676219579622015
 51
74.45245455808978
  0
ARC
  5
16C
330
163
100
AcDbEntity
  8
NOKITOI
  6
PHANTOM
 62
     8
 48
5.0
100
AcDbCircle
 10
24.06756669845151
 20
1.107164097058216
 30
0.0
 40
0.9949934597852239
100
AcDbArc
 50
188.67611256506
 51
269.9995615538235
  0
ARC
  5
16D
330
163
100
AcDbEntity
  8
NOKITOI
  6
PHANTOM
 62
     8
 48
5.0
100
AcDbCircle
 10
19.27366239679292
 20
10.30086948151677
 30
0.0
 40
0.1989988442421132
100
AcDbArc
 50
231.5280949042412
 51
269.9990463050557
  0
ARC
  5
16E
330
163
100
AcDbEntity
  8
NOKITOI
  6
PHANTOM
 62
     8
 48
5.0
100
AcDbCircle
 10
14.03099910882133
 20
12.42582797307631
 30
0.0
 40
0.9949785960395137
100
AcDbArc
 50
191.8875585738773
 51
254.4495841050105
  0
LINE
  5
16F
330
163
100
AcDbEntity
  8
NOKITOI
  6
PHANTOM
 62
     8
 48
5.0
100
AcDbLine
 10
27.88425908443378
 20
1.91217063730221
 30
0.0
 11
27.88425908443378
 21
8.439470637302292
 31
0.0
  0
LINE
  5
170
330
163
100
AcDbEntity
  8
NOKITOI
  6
PHANTOM
 62
     8
 48
5.0
100
AcDbLine
 10
28.37925908443378
 20
9.296770637302074
 30
0.0
 11
27.88425908443378
 21
8.439470637302292
 31
0.0
  0
LINE
  5
171
330
163
100
AcDbEntity
  8
NOKITOI
  6
PHANTOM
 62
     8
 48
5.0
100
AcDbLine
 10
28.37925908443378
 20
9.296770637302074
 30
0.0
 11
27.52195908443377
 21
8.801870637302272
 31
0.0
  0
ARC
  5
172
330
163
100
AcDbEntity
  8
NOKITOI
  6
PHANTOM
 62
     8
 48
5.0
100
AcDbCircle
 10
21.30106274373702
 20
8.501878629181817
 30
0.0
 40
0.2999920081427447
100
AcDbArc
 50
90.00069889403098
 51
220.79672841758
  0
ARC
  5
173
330
163
100
AcDbEntity
  8
NOKITOI
  6
PHANTOM
 62
     8
 48
5.0
100
AcDbCircle
 10
10.29726428144715
 20
-0.9941399784659097
 30
0.0
 40
14.23472333170272
100
AcDbArc
 50
11.37541821407357
 51
40.79334907830751
  0
LINE
  5
174
330
163
100
AcDbEntity
  8
NOKITOI
  6
PHANTOM
 62
     8
 48
5.0
100
AcDbLine
 10
27.52195908443377
 20
8.801870637302272
 30
0.0
 11
21.30105908443386
 21
8.801870637302272
 31
0.0
  0
LINE
  5
175
330
163
100
AcDbEntity
  8
NOKITOI
  6
PHANTOM
 62
     8
 48
5.0
100
AcDbLine
 10
24.74245908443378
 20
1.412170637302097
 30
0.0
 11
27.38425908443378
 21
1.412170637302097
 31
0.0
  0
ARC
  5
176
330
163
100
AcDbEntity
  8
NOKITOI
  6
PHANTOM
 62
     8
 48
5.0
100
AcDbCircle
 10
24.74253604330567
 20
1.912189501590432
 30
0.0
 40
0.5000188648192144
100
AcDbArc
 50
191.3867288554411
 51
270.0026402191985
  0
ARC
  5
177
330
163
100
AcDbEntity
  8
NOKITOI
  6
PHANTOM
 62
     8
 48
5.0
100
AcDbCircle
 10
27.38425908443366
 20
1.91217063730221
 30
0.0
 40
0.5000000000000569
100
AcDbArc
 50
270.0000000000065
 51
0.0000000000065138
  0
LINE
  5
178
330
163
100
AcDbEntity
  8
NOKITOI
  6
PHANTOM
 62
     8
 48
5.0
100
AcDbLine
 10
0.1808590844339051
 20
41.10517063730208
 30
0.0
 11
0.1808590844339051
 21
49.11467063730208
 31
0.0
  0
ARC
  5
179
330
163
100
AcDbEntity
  8
NOKITOI
  6
PHANTOM
 62
     8
 48
5.0
100
AcDbCircle
 10
3.6160590844338
 20
47.32377063730223
 30
0.0
 40
1.492399999999918
100
AcDbArc
 50
0.0000000000021823
 51
90.00000000000218
  0
ARC
  5
17A
330
163
100
AcDbEntity
  8
NOKITOI
  6
PHANTOM
 62
     8
 48
5.0
100
AcDbCircle
 10
2.966809084433748
 20
47.32372063730212
 30
0.0
 40
1.49245000083754
100
AcDbArc
 50
89.99808047909008
 51
179.99808047909
  0
LINE
  5
17B
330
163
100
AcDbEntity
  8
NOKITOI
  6
PHANTOM
 62
     8
 48
5.0
100
AcDbLine
 10
6.401959084433769
 20
49.11467063730208
 30
0.0
 11
6.401959084433769
 21
44.90987063730222
 31
0.0
  0
LINE
  5
17C
330
163
100
AcDbEntity
  8
NOKITOI
  6
PHANTOM
 62
     8
 48
5.0
100
AcDbLine
 10
3.464359084433908
 20
41.4036706373023
 30
0.0
 11
8.234959084433853
 21
41.4036706373023
 31
0.0
  0
LINE
  5
17D
330
163
100
AcDbEntity
  8
NOKITOI
  6
PHANTOM
 62
     8
 48
5.0
100
AcDbLine
 10
7.024059084433929
 20
40.11017063730207
 30
0.0
 11
1.175859084433909
 21
40.11017063730207
 31
0.0
  0
ARC
  5
17E
330
163
100
AcDbEntity
  8
NOKITOI
  6
PHANTOM
 62
     8
 48
5.0
100
AcDbCircle
 10
3.464309084433807
 20
43.39362063730232
 30
0.0
 40
1.989950000628206
100
AcDbArc
 50
180.0014396286234
 51
270.0014396286234
  0
LINE
  5
17F
330
163
100
AcDbEntity
  8
NOKITOI
  6
PHANTOM
 62
     8
 48
5.0
100
AcDbLine
 10
1.474359084433785
 20
47.32377063730223
 30
0.0
 11
1.474359084433785
 21
43.39357063730221
 31
0.0
  0
ARC
  5
180
330
163
100
AcDbEntity
  8
NOKITOI
  6
PHANTOM
 62
     8
 48
5.0
100
AcDbCircle
 10
1.175859084433909
 20
41.10517063730208
 30
0.0
 40
0.9950000000000045
100
AcDbArc
 50
180.0
 51
270.0
  0
LINE
  5
181
330
163
100
AcDbEntity
  8
NOKITOI
  6
PHANTOM
 62
     8
 48
5.0
100
AcDbLine
 10
5.108559084433863
 20
44.90987063730222
 30
0.0
 11
5.108559084433863
 21
47.32377063730223
 31
0.0
  0
LINE
  5
182
330
163
100
AcDbEntity
  8
NOKITOI
  6
PHANTOM
 62
     8
 48
5.0
100
AcDbLine
 10
6.401959084433769
 20
44.90987063730222
 30
0.0
 11
5.108559084433863
 21
44.90987063730222
 31
0.0
  0
ARC
  5
183
330
163
100
AcDbEntity
  8
NOKITOI
  6
PHANTOM
 62
     8
 48
5.0
100
AcDbCircle
 10
7.024040641819624
 20
39.91118560073897
 30
0.0
 40
0.1989850374177657
100
AcDbArc
 50
11.88631382809314
 51
89.99468963106556
  0
LINE
  5
184
330
163
100
AcDbEntity
  8
NOKITOI
  6
PHANTOM
 62
     8
 48
5.0
100
AcDbLine
 10
1.175859084433909
 20
50.1096706373022
 30
0.0
 11
5.407059084433853
 21
50.1096706373022
 31
0.0
  0
ARC
  5
185
330
163
100
AcDbEntity
  8
NOKITOI
  6
PHANTOM
 62
     8
 48
5.0
100
AcDbCircle
 10
1.175859084433909
 20
49.1146706373022
 30
0.0
 40
0.9950000000000613
100
AcDbArc
 50
90.00000000000328
 51
180.0000000000032
  0
LINE
  5
186
330
163
100
AcDbEntity
  8
NOKITOI
  6
PHANTOM
 62
     8
 48
5.0
100
AcDbLine
 10
3.6160590844338
 20
48.81617063730209
 30
0.0
 11
2.966859084433849
 21
48.81617063730209
 31
0.0
  0
ARC
  5
187
330
163
100
AcDbEntity
  8
NOKITOI
  6
PHANTOM
 62
     8
 48
5.0
100
AcDbCircle
 10
5.407009084433752
 20
49.11472063730224
 30
0.0
 40
0.9949500012563332
100
AcDbArc
 50
359.9971206704048
 51
89.99712067040489
  0
LINE
  5
188
330
163
100
AcDbEntity
  8
NOKITOI
  6
PHANTOM
 62
     8
 48
5.0
100
AcDbLine
 10
85.18155908443374
 20
10.10157063730207
 30
0.0
 11
95.16205908443373
 21
10.10147063730221
 31
0.0
  0
ARC
  5
189
330
163
100
AcDbEntity
  8
NOKITOI
  6
PHANTOM
 62
     8
 48
5.0
100
AcDbCircle
 10
104.068453551022
 20
-0.9942356029631582
 30
0.0
 40
12.93461262833301
100
AcDbArc
 50
105.5476727870198
 51
171.3237222126366
  0
ARC
  5
18A
330
163
100
AcDbEntity
  8
NOKITOI
  6
PHANTOM
 62
     8
 48
5.0
100
AcDbCircle
 10
104.0683479281129
 20
-0.994141944171929
 30
0.0
 40
12.93449408578155
100
AcDbArc
 50
105.5473332353544
 51
171.3240617643019
  0
LINE
  5
18B
330
163
100
AcDbEntity
  8
NOKITOI
  6
PHANTOM
 62
     8
 48
5.0
100
AcDbLine
 10
29.38325908443392
 20
1.405570637302162
 30
0.0
 11
84.98245908443392
 21
1.405470637302073
 31
0.0
  0
ARC
  5
18C
330
163
100
AcDbEntity
  8
NOKITOI
  6
PHANTOM
 62
     8
 48
5.0
100
AcDbCircle
 10
29.38325908443392
 20
1.604570637302231
 30
0.0
 40
0.1990000000000691
100
AcDbArc
 50
179.9999999999836
 51
269.9999999999836
  0
LINE
  5
18D
330
163
100
AcDbEntity
  8
NOKITOI
  6
PHANTOM
 62
     8
 48
5.0
100
AcDbLine
 10
29.18425908443385
 20
1.604570637302231
 30
0.0
 11
29.18435908443393
 21
10.10187063730222
 31
0.0
  0
LINE
  5
18E
330
163
100
AcDbEntity
  8
NOKITOI
  6
PHANTOM
 62
     8
 48
5.0
100
AcDbLine
 10
80.98245908443391
 20
1.405470637302073
 30
0.0
 11
66.22805908443377
 21
1.405470637302073
 31
0.0
  0
ARC
  5
18F
330
163
100
AcDbEntity
  8
NOKITOI
  6
PHANTOM
 62
     8
 48
5.0
100
AcDbCircle
 10
90.2982090125298
 20
1.107113524900853
 30
0.0
 40
0.9950428888512103
100
AcDbArc
 50
269.9971250795227
 51
351.3214426795068
  0
LINE
  5
190
330
163
100
AcDbEntity
  8
NOKITOI
  6
PHANTOM
 62
     8
 48
5.0
100
AcDbLine
 10
85.98655908443367
 20
9.296470637302149
 30
0.0
 11
86.4815590844339
 21
8.43917063730214
 31
0.0
  0
LINE
  5
191
330
163
100
AcDbEntity
  8
NOKITOI
  6
PHANTOM
 62
     8
 48
5.0
100
AcDbLine
 10
85.98655908443367
 20
9.296470637302149
 30
0.0
 11
86.84385908443392
 21
8.801470637302145
 31
0.0
  0
ARC
  5
192
330
163
100
AcDbEntity
  8
NOKITOI
  6
PHANTOM
 62
     8
 48
5.0
100
AcDbCircle
 10
84.98240908443381
 20
1.604520637302186
 30
0.0
 40
0.1990500062799141
100
AcDbArc
 50
270.0143923080611
 51
0.014392308061115
  0
LINE
  5
193
330
163
100
AcDbEntity
  8
NOKITOI
  6
PHANTOM
 62
     8
 48
5.0
100
AcDbLine
 10
85.18145908443386
 20
1.604570637302231
 30
0.0
 11
85.18155908443374
 21
10.10157063730207
 31
0.0
  0
LINE
  5
194
330
163
100
AcDbEntity
  8
NOKITOI
  6
PHANTOM
 62
     8
 48
5.0
100
AcDbLine
 10
86.4815590844339
 20
8.43917063730214
 30
0.0
 11
86.4815590844339
 21
1.912070637302122
 31
0.0
  0
ARC
  5
195
330
163
100
AcDbEntity
  8
NOKITOI
  6
PHANTOM
 62
     8
 48
5.0
100
AcDbCircle
 10
104.0684175391246
 20
-0.9943142272541081
 30
0.0
 40
14.23462403148678
100
AcDbArc
 50
139.2075062369005
 51
168.6237859483839
  0
LINE
  5
196
330
163
100
AcDbEntity
  8
NOKITOI
  6
PHANTOM
 62
     8
 48
5.0
100
AcDbLine
 10
93.06445908443368
 20
8.801470637302145
 30
0.0
 11
86.84385908443392
 21
8.801470637302145
 31
0.0
  0
ARC
  5
197
330
163
100
AcDbEntity
  8
NOKITOI
  6
PHANTOM
 62
     8
 48
5.0
100
AcDbCircle
 10
93.06447276228515
 20
8.501440773608294
 30
0.0
 40
0.3000298640056128
100
AcDbArc
 50
319.2190584222776
 51
90.00261201719956
  0
LINE
  5
198
330
163
100
AcDbEntity
  8
NOKITOI
  6
PHANTOM
 62
     8
 48
5.0
100
AcDbLine
 10
89.62325908443393
 20
1.412070637302235
 30
0.0
 11
86.98155908443391
 21
1.412070637302235
 31
0.0
  0
ARC
  5
199
330
163
100
AcDbEntity
  8
NOKITOI
  6
PHANTOM
 62
     8
 48
5.0
100
AcDbCircle
 10
86.9815590844338
 20
1.912070637302235
 30
0.0
 40
0.4999999999999432
100
AcDbArc
 50
180.0000000000065
 51
270.0000000000065
  0
ARC
  5
19A
330
163
100
AcDbEntity
  8
NOKITOI
  6
PHANTOM
 62
     8
 48
5.0
100
AcDbCircle
 10
89.62328212556213
 20
1.912089501590457
 30
0.0
 40
0.5000188648190603
100
AcDbArc
 50
269.9973597808039
 51
348.6132711445602
  0
LINE
  5
19B
330
163
100
AcDbEntity
  8
NOKITOI
  6
PHANTOM
 62
     8
 48
5.0
100
AcDbLine
 10
100.1997590844339
 20
13.23317063730223
 30
0.0
 11
105.6547590844337
 21
39.14207063730214
 31
0.0
  0
LINE
  5
19C
330
163
100
AcDbEntity
  8
NOKITOI
  6
PHANTOM
 62
     8
 48
5.0
100
AcDbLine
 10
101.3084590844339
 20
12.22067063730207
 30
0.0
 11
107.1471590844337
 21
39.95207063730208
 31
0.0
  0
ARC
  5
19D
330
163
100
AcDbEntity
  8
NOKITOI
  6
PHANTOM
 62
     8
 48
5.0
100
AcDbCircle
 10
99.22620265398496
 20
13.43821958907108
 30
0.0
 40
0.9950135261271753
100
AcDbArc
 50
288.5445751594487
 51
348.1074736523478
  0
ARC
  5
19E
330
163
100
AcDbEntity
  8
NOKITOI
  6
PHANTOM
 62
     8
 48
5.0
100
AcDbCircle
 10
104.0684735879824
 20
-0.9942214385093848
 30
0.0
 40
14.22809199964113
100
AcDbArc
 50
108.5474584936555
 51
128.7537062451648
  0
ARC
  5
19F
330
163
100
AcDbEntity
  8
NOKITOI
  6
PHANTOM
 62
     8
 48
5.0
100
AcDbCircle
 10
100.334833421286
 20
12.42574988868966
 30
0.0
 40
0.9949690575286499
100
AcDbArc
 50
285.5437330810338
 51
348.1110361155302
  0
LINE
  5
1A0
330
163
100
AcDbEntity
  8
NOKITOI
  6
PHANTOM
 62
     8
 48
5.0
100
AcDbLine
 10
112.8850590844339
 20
41.40997063730208
 30
0.0
 11
107.4607590844339
 21
41.41007063730216
 31
0.0
  0
LINE
  5
1A1
330
163
100
AcDbEntity
  8
NOKITOI
  6
PHANTOM
 62
     8
 48
5.0
100
AcDbLine
 10
113.1900590844338
 20
50.10957063730223
 30
0.0
 11
107.9863590844338
 21
50.10947063730213
 31
0.0
  0
LINE
  5
1A2
330
163
100
AcDbEntity
  8
NOKITOI
  6
PHANTOM
 62
     8
 48
5.0
100
AcDbLine
 10
112.8850590844339
 20
48.80947063730229
 30
0.0
 11
109.0186590844336
 21
48.80947063730229
 31
0.0
  0
LINE
  5
1A3
330
163
100
AcDbEntity
  8
NOKITOI
  6
PHANTOM
 62
     8
 48
5.0
100
AcDbLine
 10
107.3418590844337
 20
40.10997063730224
 30
0.0
 11
113.1900590844338
 21
40.10997063730224
 31
0.0
  0
LINE
  5
1A4
330
163
100
AcDbEntity
  8
NOKITOI
  6
PHANTOM
 62
     8
 48
5.0
100
AcDbLine
 10
109.0186590844336
 20
48.80947063730229
 30
0.0
 11
107.4607590844339
 21
41.41007063730216
 31
0.0
  0
LINE
  5
1A5
330
163
100
AcDbEntity
  8
NOKITOI
  6
PHANTOM
 62
     8
 48
5.0
100
AcDbLine
 10
105.6547590844337
 20
39.14207063730214
 30
0.0
 11
107.9638590844336
 21
50.10947063730213
 31
0.0
  0
ARC
  5
1A6
330
163
100
AcDbEntity
  8
NOKITOI
  6
PHANTOM
 62
     8
 48
5.0
100
AcDbCircle
 10
107.341877527048
 20
39.91108560073894
 30
0.0
 40
0.1989850374179911
100
AcDbArc
 50
90.00531036897127
 51
168.1136861719432
  0
LINE
  5
1A7
330
163
100
AcDbEntity
  8
NOKITOI
  6
PHANTOM
 62
     8
 48
5.0
100
AcDbLine
 10
114.1850590844338
 20
41.10497063730213
 30
0.0
 11
114.1850590844338
 21
49.1145706373021
 31
0.0
  0
LINE
  5
1A8
330
163
100
AcDbEntity
  8
NOKITOI
  6
PHANTOM
 62
     8
 48
5.0
100
AcDbLine
 10
112.8850590844339
 20
41.40997063730208
 30
0.0
 11
112.8850590844339
 21
48.80947063730229
 31
0.0
  0
ARC
  5
1A9
330
163
100
AcDbEntity
  8
NOKITOI
  6
PHANTOM
 62
     8
 48
5.0
100
AcDbCircle
 10
113.1900590844339
 20
41.10497063730218
 30
0.0
 40
0.9949999999999192
100
AcDbArc
 50
269.9999999999951
 51
359.9999999999951
  0
ARC
  5
1AA
330
163
100
AcDbEntity
  8
NOKITOI
  6
PHANTOM
 62
     8
 48
5.0
100
AcDbCircle
 10
113.1900590844338
 20
49.11457063730222
 30
0.0
 40
0.9950000000000613
100
AcDbArc
 50
359.9999999999967
 51
89.99999999999673
  0
ENDBLK
  5
1AC
330
163
100
AcDbEntity
  8
0
100
AcDbBlockEnd
  0
BLOCK
  5
4A8
330
4A7
100
AcDbEntity
  8
0
100
AcDbBlockBegin
  2
*D2
 70
     1
 10
0.0
 20
0.0
 30
0.0
  3
*D2
  1

  0
LINE
  5
4A9
330
4A7
100
AcDbEntity
  8
0
  6
BYBLOCK
 62
     4
100
AcDbLine
 10
427.1393358641852
 20
328.7581596256117
 30
0.0
 11
427.1393358641852
 21
368.7106597654087
 31
0.0
  0
LINE
  5
4AA
330
4A7
100
AcDbEntity
  8
0
  6
BYBLOCK
 62
     4
100
AcDbLine
 10
311.5393358641852
 20
349.900473975001
 30
0.0
 11
311.5393358641852
 21
368.7106597654087
 31
0.0
  0
LINE
  5
4AB
330
4A7
100
AcDbEntity
  8
0
  6
BYBLOCK
 62
     4
100
AcDbLine
 10
420.1393358641852
 20
365.7106597654087
 30
0.0
 11
318.5393358641852
 21
365.7106597654087
 31
0.0
  0
INSERT
  5
4AC
330
4A7
100
AcDbEntity
  8
0
  6
BYBLOCK
 62
     4
100
AcDbBlockReference
  2
_OPEN
 10
427.1393358641852
 20
365.7106597654087
 30
0.0
 41
7.0
 42
7.0
 43
7.0
  0
INSERT
  5
4AD
330
4A7
100
AcDbEntity
  8
0
  6
BYBLOCK
 62
     4
100
AcDbBlockReference
  2
_OPEN
 10
311.5393358641852
 20
365.7106597654087
 30
0.0
 41
7.0
 42
7.0
 43
7.0
 50
180.0
  0
MTEXT
  5
4AE
330
4A7
100
AcDbEntity
  8
0
  6
BYBLOCK
 62
     4
100
AcDbMText
 10
369.3393358641852
 20
370.7106597654087
 30
0.0
 40
6.0
 41
0.0
 71
     5
 72
     5
  1
\A1;116
1001
ACAD
1000
MTEXTBEGIN
1070
    73
1070
     1
1070
    44
1040
1.0
1070
    74
1070
     0
1000
MTEXTEND
1000
MTEXTBEGIN
1070
    73
1070
     1
1070
    44
1040
1.0
1070
    74
1070
     0
1000
MTEXTEND
  0
POINT
  5
4B0
330
4A7
100
AcDbEntity
  8
DEFPOINTS
  6
BYBLOCK
 62
     0
100
AcDbPoint
 10
427.1393358641852
 20
322.7581596256117
 30
0.0
  0
POINT
  5
4B1
330
4A7
100
AcDbEntity
  8
DEFPOINTS
  6
BYBLOCK
 62
     0
100
AcDbPoint
 10
311.5393358641852
 20
343.9004739750011
 30
0.0
  0
POINT
  5
4B2
330
4A7
100
AcDbEntity
  8
DEFPOINTS
  6
BYBLOCK
 62
     0
100
AcDbPoint
 10
311.5393358641852
 20
365.7106597654087
 30
0.0
  0
ENDBLK
  5
4B3
330
4A7
100
AcDbEntity
  8
0
100
AcDbBlockEnd
  0
BLOCK
  5
4DE
330
4C2
100
AcDbEntity
  8
0
100
AcDbBlockBegin
  2
*D3
 70
     1
 10
0.0
 20
0.0
 30
0.0
  3
*D3
  1

  0
LINE
  5
4DF
330
4C2
100
AcDbEntity
  8
0
  6
BYBLOCK
 62
     4
100
AcDbLine
 10
530.6581517109862
 20
290.4399787743543
 30
0.0
 11
561.879273507247
 21
302.9275221766781
 31
0.0
  0
LINE
  5
4E0
330
4C2
100
AcDbEntity
  8
0
  6
BYBLOCK
 62
     4
100
AcDbLine
 10
532.5892517109863
 20
285.6118787743543
 30
0.0
 11
563.810373507247
 21
298.0994221766781
 31
0.0
  0
LINE
  5
4E1
330
4C2
100
AcDbEntity
  8
0
  6
BYBLOCK
 62
     4
100
AcDbLine
 10
556.4942433179344
 20
308.3128215982693
 30
0.0
 11
553.8946710520222
 21
314.8122234195372
 31
0.0
  0
LINE
  5
4E2
330
4C2
100
AcDbEntity
  8
0
  6
BYBLOCK
 62
     4
100
AcDbLine
 10
563.6244878497587
 20
290.4859179557336
 30
0.0
 11
572.1659395806129
 21
269.1307405429962
 31
0.0
  0
LINE
  5
4E3
330
4C2
100
AcDbEntity
  8
0
  6
BYBLOCK
 62
     4
100
AcDbLine
 10
559.0938155838465
 20
301.8134197770014
 30
0.0
 11
561.0249155838466
 21
296.9853197770014
 31
0.0
  0
INSERT
  5
4E4
330
4C2
100
AcDbEntity
  8
0
  6
BYBLOCK
 62
     4
100
AcDbBlockReference
  2
_OPEN
 10
559.0938155838465
 20
301.8134197770014
 30
0.0
 41
7.0
 42
7.0
 43
7.0
 50
291.7999772299748
  0
INSERT
  5
4E5
330
4C2
100
AcDbEntity
  8
0
  6
BYBLOCK
 62
     4
100
AcDbBlockReference
  2
_OPEN
 10
561.0249155838466
 20
296.9853197770014
 30
0.0
 41
7.0
 42
7.0
 43
7.0
 50
111.7999772299748
  0
MTEXT
  5
4E6
330
4C2
100
AcDbEntity
  8
0
  6
BYBLOCK
 62
     4
100
AcDbMText
 10
573.8374297204761
 20
278.4154656715254
 30
0.0
 40
6.0
 41
0.0
 71
     5
 72
     5
  1
\A1;5.2
 11
0.3713674665588795
 21
-0.9284859744668411
 31
0.0
1001
ACAD
1000
MTEXTBEGIN
1070
    73
1070
     1
1070
    44
1040
1.0
1070
    74
1070
     0
1000
MTEXTEND
1000
MTEXTBEGIN
1070
    73
1070
     1
1070
    44
1040
1.0
1070
    74
1070
     0
1000
MTEXTEND
  0
POINT
  5
4E7
330
4C2
100
AcDbEntity
  8
DEFPOINTS
  6
BYBLOCK
 62
     0
100
AcDbPoint
 10
525.0872358641852
 20
288.211773975001
 30
0.0
  0
POINT
  5
4E8
330
4C2
100
AcDbEntity
  8
DEFPOINTS
  6
BYBLOCK
 62
     0
100
AcDbPoint
 10
527.0183358641852
 20
283.383673975001
 30
0.0
  0
POINT
  5
4E9
330
4C2
100
AcDbEntity
  8
DEFPOINTS
  6
BYBLOCK
 62
     0
100
AcDbPoint
 10
561.0249155838466
 20
296.9853197770014
 30
0.0
  0
ENDBLK
  5
4EA
330
4C2
100
AcDbEntity
  8
0
100
AcDbBlockEnd
  0
BLOCK
  5
507
330
4EB
100
AcDbEntity
  8
0
100
AcDbBlockBegin
  2
*D4
 70
     1
 10
0.0
 20
0.0
 30
0.0
  3
*D4
  1

  0
LINE
  5
508
330
4EB
100
AcDbEntity
  8
0
  6
BYBLOCK
 62
     4
100
AcDbLine
 10
530.9800358641853
 20
448.6503739750011
 30
0.0
 11
568.846613243425
 21
448.6503739750011
 31
0.0
  0
LINE
  5
509
330
4EB
100
AcDbEntity
  8
0
  6
BYBLOCK
 62
     4
100
AcDbLine
 10
530.9801358641853
 20
443.1503739750011
 30
0.0
 11
568.846613243425
 21
443.1503739750011
 31
0.0
  0
LINE
  5
50A
330
4EB
100
AcDbEntity
  8
0
  6
BYBLOCK
 62
     4
100
AcDbLine
 10
565.846613243425
 20
455.6503739750011
 30
0.0
 11
565.846613243425
 21
462.6503739750011
 31
0.0
  0
LINE
  5
50B
330
4EB
100
AcDbEntity
  8
0
  6
BYBLOCK
 62
     4
100
AcDbLine
 10
565.846613243425
 20
436.1503739750011
 30
0.0
 11
565.846613243425
 21
413.150373975001
 31
0.0
  0
LINE
  5
50C
330
4EB
100
AcDbEntity
  8
0
  6
BYBLOCK
 62
     4
100
AcDbLine
 10
565.846613243425
 20
448.6503739750011
 30
0.0
 11
565.846613243425
 21
443.1503739750011
 31
0.0
  0
INSERT
  5
50D
330
4EB
100
AcDbEntity
  8
0
  6
BYBLOCK
 62
     4
100
AcDbBlockReference
  2
_OPEN
 10
565.846613243425
 20
448.6503739750011
 30
0.0
 41
7.0
 42
7.0
 43
7.0
 50
270.0
  0
INSERT
  5
50E
330
4EB
100
AcDbEntity
  8
0
  6
BYBLOCK
 62
     4
100
AcDbBlockReference
  2
_OPEN
 10
565.846613243425
 20
443.1503739750011
 30
0.0
 41
7.0
 42
7.0
 43
7.0
 50
90.0
  0
MTEXT
  5
50F
330
4EB
100
AcDbEntity
  8
0
  6
BYBLOCK
 62
     4
100
AcDbMText
 10
560.8466132434251
 20
421.1503739750011
 30
0.0
 40
6.0
 41
0.0
 71
     5
 72
     5
  1
\A1;5.5
 11
0.0
 21
1.0
 31
0.0
1001
ACAD
1000
MTEXTBEGIN
1070
    73
1070
     1
1070
    44
1040
1.0
1070
    74
1070
     0
1000
MTEXTEND
1000
MTEXTBEGIN
1070
    73
1070
     1
1070
    44
1040
1.0
1070
    74
1070
     0
1000
MTEXTEND
  0
POINT
  5
510
330
4EB
100
AcDbEntity
  8
DEFPOINTS
  6
BYBLOCK
 62
     0
100
AcDbPoint
 10
524.9800358641853
 20
448.6503739750011
 30
0.0
  0
POINT
  5
511
330
4EB
100
AcDbEntity
  8
DEFPOINTS
  6
BYBLOCK
 62
     0
100
AcDbPoint
 10
524.9801358641852
 20
443.1503739750011
 30
0.0
  0
POINT
  5
512
330
4EB
100
AcDbEntity
  8
DEFPOINTS
  6
BYBLOCK
 62
     0
100
AcDbPoint
 10
565.846613243425
 20
443.1503739750011
 30
0.0
  0
ENDBLK
  5
513
330
4EB
100
AcDbEntity
  8
0
100
AcDbBlockEnd
  0
BLOCK
  5
566
330
565
100
AcDbEntity
  8
0
100
AcDbBlockBegin
  2
*D5
 70
     1
 10
0.0
 20
0.0
 30
0.0
  3
*D5
  1

  0
LINE
  5
567
330
565
100
AcDbEntity
  8
0
  6
BYBLOCK
 62
     4
100
AcDbLine
 10
542.2081522994897
 20
285.7973395281311
 30
0.0
 11
554.4342830574321
 21
255.229807548736
 31
0.0
  0
LINE
  5
568
330
565
100
AcDbEntity
  8
0
  6
BYBLOCK
 62
     4
100
AcDbLine
 10
370.4383347669079
 20
217.094368976341
 30
0.0
 11
382.6644655248502
 21
186.5268369969464
 31
0.0
  0
LINE
  5
569
330
565
100
AcDbEntity
  8
0
  6
BYBLOCK
 62
     4
100
AcDbLine
 10
546.8207788137863
 20
255.4156922764221
 30
0.0
 11
388.0497642887924
 21
191.9118678439409
 31
0.0
  0
INSERT
  5
56A
330
565
100
AcDbEntity
  8
0
  6
BYBLOCK
 62
     4
100
AcDbBlockReference
  2
_OPEN
 10
553.3201803175804
 20
258.0152653360763
 30
0.0
 41
7.0
 42
7.0
 43
7.0
 50
21.79998422724502
  0
INSERT
  5
56B
330
565
100
AcDbEntity
  8
0
  6
BYBLOCK
 62
     4
100
AcDbBlockReference
  2
_OPEN
 10
381.5503627849984
 20
189.3122947842867
 30
0.0
 41
7.0
 42
7.0
 43
7.0
 50
201.7999842272449
  0
MTEXT
  5
56C
330
565
100
AcDbEntity
  8
0
  6
BYBLOCK
 62
     4
100
AcDbMText
 10
465.5784336515363
 20
228.3062097057487
 30
0.0
 40
6.0
 41
0.0
 71
     5
 72
     5
  1
\A1;185
 11
0.9284859291134326
 21
0.3713675799506006
 31
0.0
1001
ACAD
1000
MTEXTBEGIN
1070
    73
1070
     1
1070
    44
1040
1.0
1070
    74
1070
     0
1000
MTEXTEND
1000
MTEXTBEGIN
1070
    73
1070
     1
1070
    44
1040
1.0
1070
    74
1070
     0
1000
MTEXTEND
  0
POINT
  5
56D
330
565
100
AcDbEntity
  8
DEFPOINTS
  6
BYBLOCK
 62
     0
100
AcDbPoint
 10
539.979946819786
 20
291.3682551028116
 30
0.0
  0
POINT
  5
56E
330
565
100
AcDbEntity
  8
DEFPOINTS
  6
BYBLOCK
 62
     0
100
AcDbPoint
 10
368.2101292872043
 20
222.6652845510216
 30
0.0
  0
POINT
  5
56F
330
565
100
AcDbEntity
  8
DEFPOINTS
  6
BYBLOCK
 62
     0
100
AcDbPoint
 10
381.5503627849984
 20
189.3122947842867
 30
0.0
  0
ENDBLK
  5
570
330
565
100
AcDbEntity
  8
0
100
AcDbBlockEnd
  0
BLOCK
  5
639
330
588
100
AcDbEntity
  8
0
100
AcDbBlockBegin
  2
*D6
 70
     1
 10
0.0
 20
0.0
 30
0.0
  3
*D6
  1

  0
LINE
  5
63A
330
588
100
AcDbEntity
  8
0
  6
BYBLOCK
 62
     4
100
AcDbLine
 10
303.2656153329078
 20
299.5996170210691
 30
0.0
 11
269.3847178191926
 21
299.5996170210691
 31
0.0
  0
LINE
  5
63B
330
588
100
AcDbEntity
  8
0
  6
BYBLOCK
 62
     4
100
AcDbLine
 10
327.9503153329079
 20
226.5995670210689
 30
0.0
 11
269.3847178191926
 21
226.5995670210689
 31
0.0
  0
LINE
  5
63C
330
588
100
AcDbEntity
  8
0
  6
BYBLOCK
 62
     4
100
AcDbLine
 10
272.3847178191927
 20
292.5996170210691
 30
0.0
 11
272.3847178191927
 21
233.599567021069
 31
0.0
  0
INSERT
  5
63D
330
588
100
AcDbEntity
  8
0
  6
BYBLOCK
 62
     4
100
AcDbBlockReference
  2
_OPEN
 10
272.3847178191927
 20
299.5996170210691
 30
0.0
 41
7.0
 42
7.0
 43
7.0
 50
90.0
  0
INSERT
  5
63E
330
588
100
AcDbEntity
  8
0
  6
BYBLOCK
 62
     4
100
AcDbBlockReference
  2
_OPEN
 10
272.3847178191927
 20
226.5995670210689
 30
0.0
 41
7.0
 42
7.0
 43
7.0
 50
270.0
  0
MTEXT
  5
63F
330
588
100
AcDbEntity
  8
0
  6
BYBLOCK
 62
     4
100
AcDbMText
 10
267.3847178191926
 20
263.099592021069
 30
0.0
 40
6.0
 41
0.0
 71
     5
 72
     5
  1
\A1;73
 11
0.0
 21
1.0
 31
0.0
1001
ACAD
1000
MTEXTBEGIN
1070
    73
1070
     1
1070
    44
1040
1.0
1070
    74
1070
     0
1000
MTEXTEND
1000
MTEXTBEGIN
1070
    73
1070
     1
1070
    44
1040
1.0
1070
    74
1070
     0
1000
MTEXTEND
  0
POINT
  5
640
330
588
100
AcDbEntity
  8
DEFPOINTS
  6
BYBLOCK
 62
     0
100
AcDbPoint
 10
309.2656153329078
 20
299.5996170210691
 30
0.0
  0
POINT
  5
641
330
588
100
AcDbEntity
  8
DEFPOINTS
  6
BYBLOCK
 62
     0
100
AcDbPoint
 10
333.9503153329079
 20
226.5995670210689
 30
0.0
  0
POINT
  5
642
330
588
100
AcDbEntity
  8
DEFPOINTS
  6
BYBLOCK
 62
     0
100
AcDbPoint
 10
272.3847178191927
 20
226.5995670210689
 30
0.0
  0
ENDBLK
  5
643
330
588
100
AcDbEntity
  8
0
100
AcDbBlockEnd
  0
BLOCK
  5
5CE
330
595
100
AcDbEntity
  8
0
100
AcDbBlockBegin
  2
*D7
 70
     1
 10
0.0
 20
0.0
 30
0.0
  3
*D7
  1

  0
LINE
  5
5CF
330
595
100
AcDbEntity
  8
0
  6
BYBLOCK
 62
     4
100
AcDbLine
 10
339.9503153329078
 20
226.5995670210689
 30
0.0
 11
349.4926685774125
 21
226.5995670210689
 31
0.0
  0
LINE
  5
5D0
330
595
100
AcDbEntity
  8
0
  6
BYBLOCK
 62
     4
100
AcDbLine
 10
361.0656153329078
 20
177.387717021069
 30
0.0
 11
343.4926685774125
 21
177.387717021069
 31
0.0
  0
LINE
  5
5D1
330
595
100
AcDbEntity
  8
0
  6
BYBLOCK
 62
     4
100
AcDbLine
 10
346.4926685774126
 20
219.5995670210689
 30
0.0
 11
346.4926685774126
 21
184.387717021069
 31
0.0
  0
INSERT
  5
5D2
330
595
100
AcDbEntity
  8
0
  6
BYBLOCK
 62
     4
100
AcDbBlockReference
  2
_OPEN
 10
346.4926685774126
 20
226.5995670210689
 30
0.0
 41
7.0
 42
7.0
 43
7.0
 50
90.0
  0
INSERT
  5
5D3
330
595
100
AcDbEntity
  8
0
  6
BYBLOCK
 62
     4
100
AcDbBlockReference
  2
_OPEN
 10
346.4926685774126
 20
177.387717021069
 30
0.0
 41
7.0
 42
7.0
 43
7.0
 50
270.0
  0
MTEXT
  5
5D4
330
595
100
AcDbEntity
  8
0
  6
BYBLOCK
 62
     4
100
AcDbMText
 10
341.4926685774125
 20
201.993642021069
 30
0.0
 40
6.0
 41
0.0
 71
     5
 72
     5
  1
\A1;H
 11
0.0
 21
1.0
 31
0.0
1001
ACAD
1000
MTEXTBEGIN
1070
    73
1070
     1
1070
    44
1040
1.0
1070
    74
1070
     0
1000
MTEXTEND
1000
MTEXTBEGIN
1070
    73
1070
     1
1070
    44
1040
1.0
1070
    74
1070
     0
1000
MTEXTEND
  0
POINT
  5
5D5
330
595
100
AcDbEntity
  8
DEFPOINTS
  6
BYBLOCK
 62
     0
100
AcDbPoint
 10
333.9503153329079
 20
226.5995670210689
 30
0.0
  0
POINT
  5
5D6
330
595
100
AcDbEntity
  8
DEFPOINTS
  6
BYBLOCK
 62
     0
100
AcDbPoint
 10
367.0656153329078
 20
177.387717021069
 30
0.0
  0
POINT
  5
5D7
330
595
100
AcDbEntity
  8
DEFPOINTS
  6
BYBLOCK
 62
     0
100
AcDbPoint
 10
346.4926685774126
 20
177.387717021069
 30
0.0
  0
ENDBLK
  5
5D8
330
595
100
AcDbEntity
  8
0
100
AcDbBlockEnd
  0
BLOCK
  5
644
330
5DD
100
AcDbEntity
  8
0
100
AcDbBlockBegin
  2
*D8
 70
     1
 10
0.0
 20
0.0
 30
0.0
  3
*D8
  1

  0
LINE
  5
645
330
5DD
100
AcDbEntity
  8
0
  6
BYBLOCK
 62
     4
100
AcDbLine
 10
303.2656153329078
 20
414.099417021069
 30
0.0
 11
269.5000987048219
 21
414.099417021069
 31
0.0
  0
LINE
  5
646
330
5DD
100
AcDbEntity
  8
0
  6
BYBLOCK
 62
     4
100
AcDbLine
 10
303.2656153329078
 20
389.099417021069
 30
0.0
 11
269.5000987048219
 21
389.099417021069
 31
0.0
  0
LINE
  5
647
330
5DD
100
AcDbEntity
  8
0
  6
BYBLOCK
 62
     4
100
AcDbLine
 10
272.500098704822
 20
421.0994170210691
 30
0.0
 11
272.500098704822
 21
428.099417021069
 31
0.0
  0
LINE
  5
648
330
5DD
100
AcDbEntity
  8
0
  6
BYBLOCK
 62
     4
100
AcDbLine
 10
272.500098704822
 20
382.0994170210691
 30
0.0
 11
272.500098704822
 21
375.099417021069
 31
0.0
  0
LINE
  5
649
330
5DD
100
AcDbEntity
  8
0
  6
BYBLOCK
 62
     4
100
AcDbLine
 10
272.500098704822
 20
414.099417021069
 30
0.0
 11
272.500098704822
 21
389.099417021069
 31
0.0
  0
INSERT
  5
64A
330
5DD
100
AcDbEntity
  8
0
  6
BYBLOCK
 62
     4
100
AcDbBlockReference
  2
_OPEN
 10
272.500098704822
 20
414.099417021069
 30
0.0
 41
7.0
 42
7.0
 43
7.0
 50
270.0
  0
INSERT
  5
64B
330
5DD
100
AcDbEntity
  8
0
  6
BYBLOCK
 62
     4
100
AcDbBlockReference
  2
_OPEN
 10
272.500098704822
 20
389.099417021069
 30
0.0
 41
7.0
 42
7.0
 43
7.0
 50
90.0
  0
MTEXT
  5
64C
330
5DD
100
AcDbEntity
  8
0
  6
BYBLOCK
 62
     4
100
AcDbMText
 10
267.5000987048219
 20
401.599417021069
 30
0.0
 40
6.0
 41
0.0
 71
     5
 72
     5
  1
\A1;25
 11
0.0
 21
1.0
 31
0.0
1001
ACAD
1000
MTEXTBEGIN
1070
    73
1070
     1
1070
    44
1040
1.0
1070
    74
1070
     0
1000
MTEXTEND
1000
MTEXTBEGIN
1070
    73
1070
     1
1070
    44
1040
1.0
1070
    74
1070
     0
1000
MTEXTEND
  0
POINT
  5
64D
330
5DD
100
AcDbEntity
  8
DEFPOINTS
  6
BYBLOCK
 62
     0
100
AcDbPoint
 10
309.2656153329078
 20
414.099417021069
 30
0.0
  0
POINT
  5
64E
330
5DD
100
AcDbEntity
  8
DEFPOINTS
  6
BYBLOCK
 62
     0
100
AcDbPoint
 10
309.2656153329078
 20
389.099417021069
 30
0.0
  0
POINT
  5
64F
330
5DD
100
AcDbEntity
  8
DEFPOINTS
  6
BYBLOCK
 62
     0
100
AcDbPoint
 10
272.500098704822
 20
389.099417021069
 30
0.0
  0
ENDBLK
  5
650
330
5DD
100
AcDbEntity
  8
0
100
AcDbBlockEnd
  0
ENDSEC
  0
SECTION
  2
ENTITIES
  0
INSERT
  5
30A
330
1A
100
AcDbEntity
  8
0
100
AcDbBlockReference
  2
A$C1305
 10
309.8827562484739
 20
226.4873963837668
 30
0.0
  0
LINE
  5
30B
330
1A
100
AcDbEntity
  8
SEIHIN
  6
CONTINUOUS
 62
     3
 48
16.0
100
AcDbLine
 10
411.1945153329078
 20
412.5995170210691
 30
0.0
 11
424.0656153329078
 21
412.5995170210691
 31
0.0
  0
LINE
  5
30C
330
1A
100
AcDbEntity
  8
SEIHIN
  6
CONTINUOUS
 62
     3
 48
16.0
100
AcDbLine
 10
411.1945153329078
 20
390.5994170210691
 30
0.0
 11
424.0656153329078
 21
390.5994170210691
 31
0.0
  0
ARC
  5
30D
330
1A
100
AcDbEntity
  8
SEIHIN
  6
CONTINUOUS
 62
     3
 48
16.0
100
AcDbCircle
 10
410.3245153329078
 20
238.9479170210691
 30
0.0
 40
4.999945999999999
100
AcDbArc
 50
285.3017529999999
 51
348.111814
  0
LINE
  5
30E
330
1A
100
AcDbEntity
  8
SEIHIN
  6
CONTINUOUS
 62
     3
 48
16.0
100
AcDbLine
 10
411.1945153329078
 20
238.711717021069
 30
0.0
 11
416.5325153329077
 21
264.0674170210691
 31
0.0
  0
LINE
  5
30F
330
1A
100
AcDbEntity
  8
SEIHIN
  6
CONTINUOUS
 62
     3
 48
16.0
100
AcDbLine
 10
411.9142153329078
 20
238.247317021069
 30
0.0
 11
417.3153153329078
 21
263.9025170210691
 31
0.0
  0
LINE
  5
313
330
1A
100
AcDbEntity
  8
SEIHIN
  6
CONTINUOUS
 62
     3
 48
16.0
100
AcDbLine
 10
373.6040153329078
 20
404.0995170210691
 30
0.0
 11
413.8656153329078
 21
404.0995170210691
 31
0.0
  0
LINE
  5
314
330
1A
100
AcDbEntity
  8
SEIHIN
  6
CONTINUOUS
 62
     3
 48
16.0
100
AcDbLine
 10
367.0657153329078
 20
409.0995170210691
 30
0.0
 11
413.8656153329078
 21
409.0995170210691
 31
0.0
  0
LINE
  5
315
330
1A
100
AcDbEntity
  8
CENTER_L
  6
CENTER
 62
     1
 48
5.0
100
AcDbLine
 10
541.0590153329078
 20
248.4084170210691
 30
0.0
 11
367.0872153329078
 21
178.8247170210691
 31
0.0
  0
LINE
  5
316
330
1A
100
AcDbEntity
  8
SEIHIN
  6
CONTINUOUS
 62
     3
 48
16.0
100
AcDbLine
 10
522.8135153329078
 20
243.910917021069
 30
0.0
 11
370.3519153329078
 21
182.930717021069
 31
0.0
  0
LINE
  5
317
330
1A
100
AcDbEntity
  8
SEIHIN
  6
CONTINUOUS
 62
     3
 48
16.0
100
AcDbLine
 10
372.0087153329078
 20
177.992917021069
 30
0.0
 11
524.7446153329078
 21
239.0828170210691
 31
0.0
  0
LINE
  5
318
330
1A
100
AcDbEntity
  8
CENTER_L
  6
CENTER
 62
     1
 48
5.0
100
AcDbLine
 10
367.0657153329078
 20
401.599417021069
 30
0.0
 11
544.6810153329079
 21
401.599417021069
 31
0.0
  0
LINE
  5
319
330
1A
100
AcDbEntity
  8
SEIHIN
  6
CONTINUOUS
 62
     3
 48
16.0
100
AcDbLine
 10
373.6040153329078
 20
399.099417021069
 30
0.0
 11
413.8656153329078
 21
399.099417021069
 31
0.0
  0
LINE
  5
31A
330
1A
100
AcDbEntity
  8
SEIHIN
  6
CONTINUOUS
 62
     3
 48
16.0
100
AcDbLine
 10
367.0657153329078
 20
394.099417021069
 30
0.0
 11
413.8656153329078
 21
394.099417021069
 31
0.0
  0
LINE
  5
31E
330
1A
100
AcDbEntity
  8
SEIHIN
  6
CONTINUOUS
 62
     3
 48
16.0
100
AcDbLine
 10
310.0656153329079
 20
299.5996170210691
 30
0.0
 11
310.0656153329079
 21
265.599617021069
 31
0.0
  0
LINE
  5
31F
330
1A
100
AcDbEntity
  8
SEIHIN
  6
CONTINUOUS
 62
     3
 48
16.0
100
AcDbLine
 10
309.2656153329078
 20
299.5996170210691
 30
0.0
 11
309.2656153329078
 21
265.599617021069
 31
0.0
  0
ARC
  5
321
330
1A
100
AcDbEntity
  8
SEIHIN
  6
CONTINUOUS
 62
     3
 48
16.0
100
AcDbCircle
 10
222.9510997224567
 20
279.4997170210691
 30
0.0
 40
2.5
100
AcDbArc
 50
270.0
 51
0.0
  0
ARC
  5
322
330
1A
100
AcDbEntity
  8
SEIHIN
  6
CONTINUOUS
 62
     3
 48
16.0
100
AcDbCircle
 10
209.9512997224568
 20
279.4997170210691
 30
0.0
 40
2.5
100
AcDbArc
 50
180.0
 51
270.0
  0
LINE
  5
323
330
1A
100
AcDbEntity
  8
SEIHIN
  6
CONTINUOUS
 62
     3
 48
16.0
100
AcDbLine
 10
203.9511997224568
 20
264.499717021069
 30
0.0
 11
203.9512997224568
 21
298.9997170210691
 31
0.0
  0
LINE
  5
324
330
1A
100
AcDbEntity
  8
SEIHIN
  6
CONTINUOUS
 62
     3
 48
16.0
100
AcDbLine
 10
228.9511997224568
 20
264.499717021069
 30
0.0
 11
228.9511997224568
 21
298.9997170210691
 31
0.0
  0
LINE
  5
326
330
1A
100
AcDbEntity
  8
CENTER_L
  6
CENTER
 62
     1
 48
5.0
100
AcDbLine
 10
216.4511997224568
 20
173.324617021069
 30
0.0
 11
216.4511997224568
 21
302.872717021069
 31
0.0
  0
LINE
  5
33F
330
1A
100
AcDbEntity
  8
SEIHIN
  6
CONTINUOUS
 62
     3
 48
16.0
100
AcDbLine
 10
218.8510997224568
 20
177.600617021069
 30
0.0
 11
218.8510997224568
 21
216.598217021069
 31
0.0
  0
LINE
  5
340
330
1A
100
AcDbEntity
  8
SEIHIN
  6
CONTINUOUS
 62
     3
 48
16.0
100
AcDbLine
 10
214.0510997224568
 20
177.600617021069
 30
0.0
 11
214.0510997224568
 21
216.598217021069
 31
0.0
  0
LINE
  5
349
330
1A
100
AcDbEntity
  8
SEIHIN
  6
CONTINUOUS
 62
     3
 48
16.0
100
AcDbLine
 10
218.8510997224568
 20
177.600617021069
 30
0.0
 11
214.0510997224568
 21
177.600617021069
 31
0.0
  0
ARC
  5
34A
330
1A
100
AcDbEntity
  8
SEIHIN
  6
CONTINUOUS
 62
     3
 48
16.0
100
AcDbCircle
 10
187.2208997224568
 20
231.679817021069
 30
0.0
 40
19.065158
100
AcDbArc
 50
342.98121
 51
17.01821499999999
  0
ARC
  5
34B
330
1A
100
AcDbEntity
  8
SEIHIN
  6
CONTINUOUS
 62
     3
 48
16.0
100
AcDbCircle
 10
245.6814997224568
 20
231.6797170210691
 30
0.0
 40
19.065158
100
AcDbArc
 50
162.9814979999999
 51
197.018502
  0
LINE
  5
34C
330
1A
100
AcDbEntity
  8
SEIHIN
  6
CONTINUOUS
 62
     3
 48
16.0
100
AcDbLine
 10
218.4511997224568
 20
225.599717021069
 30
0.0
 11
218.4511997224568
 21
263.4997170210691
 31
0.0
  0
LINE
  5
34D
330
1A
100
AcDbEntity
  8
SEIHIN
  6
CONTINUOUS
 62
     3
 48
16.0
100
AcDbLine
 10
224.4511997224568
 20
225.599717021069
 30
0.0
 11
224.4511997224568
 21
263.4997170210691
 31
0.0
  0
LINE
  5
350
330
1A
100
AcDbEntity
  8
SEIHIN
  6
CONTINUOUS
 62
     3
 48
16.0
100
AcDbLine
 10
208.4511997224568
 20
225.599717021069
 30
0.0
 11
208.4511997224568
 21
263.4997170210691
 31
0.0
  0
LINE
  5
351
330
1A
100
AcDbEntity
  8
SEIHIN
  6
CONTINUOUS
 62
     3
 48
16.0
100
AcDbLine
 10
214.4511997224568
 20
225.599717021069
 30
0.0
 11
214.4511997224568
 21
263.4996170210691
 31
0.0
  0
ARC
  5
352
330
1A
100
AcDbEntity
  8
SEIHIN
  6
CONTINUOUS
 62
     3
 48
16.0
100
AcDbCircle
 10
211.4511997224568
 20
225.599717021069
 30
0.0
 40
3.0
100
AcDbArc
 50
180.0
 51
0.0
  0
LINE
  5
353
330
1A
100
AcDbEntity
  8
SEIHIN
  6
CONTINUOUS
 62
     3
 48
16.0
100
AcDbLine
 10
216.4511997224568
 20
222.599717021069
 30
0.0
 11
211.4511997224568
 21
222.599717021069
 31
0.0
  0
LINE
  5
354
330
1A
100
AcDbEntity
  8
SEIHIN
  6
CONTINUOUS
 62
     3
 48
16.0
100
AcDbLine
 10
216.4516997224568
 20
221.5982170210691
 30
0.0
 11
211.4516997224568
 21
221.5982170210691
 31
0.0
  0
LINE
  5
355
330
1A
100
AcDbEntity
  8
SEIHIN
  6
CONTINUOUS
 62
     3
 48
16.0
100
AcDbLine
 10
211.4516997224568
 20
221.5982170210691
 30
0.0
 11
213.8516997224568
 21
216.598217021069
 31
0.0
  0
LINE
  5
356
330
1A
100
AcDbEntity
  8
SEIHIN
  6
CONTINUOUS
 62
     3
 48
16.0
100
AcDbLine
 10
211.3677997224567
 20
222.599017021069
 30
0.0
 11
221.4510997224568
 21
222.597817021069
 31
0.0
  0
LINE
  5
357
330
1A
100
AcDbEntity
  8
SEIHIN
  6
CONTINUOUS
 62
     3
 48
16.0
100
AcDbLine
 10
205.4511997224568
 20
226.099717021069
 30
0.0
 11
208.4511997224568
 21
226.099717021069
 31
0.0
  0
LINE
  5
358
330
1A
100
AcDbEntity
  8
SEIHIN
  6
CONTINUOUS
 62
     3
 48
16.0
100
AcDbLine
 10
211.4516997224568
 20
221.5982170210691
 30
0.0
 11
211.4516997224568
 21
222.598117021069
 31
0.0
  0
LINE
  5
359
330
1A
100
AcDbEntity
  8
SEIHIN
  6
CONTINUOUS
 62
     3
 48
16.0
100
AcDbLine
 10
221.4516997224568
 20
221.5982170210691
 30
0.0
 11
219.0516997224568
 21
216.598217021069
 31
0.0
  0
LINE
  5
35A
330
1A
100
AcDbEntity
  8
SEIHIN
  6
CONTINUOUS
 62
     3
 48
16.0
100
AcDbLine
 10
216.4516997224568
 20
216.598217021069
 30
0.0
 11
219.0516997224568
 21
216.598217021069
 31
0.0
  0
LINE
  5
35B
330
1A
100
AcDbEntity
  8
SEIHIN
  6
CONTINUOUS
 62
     3
 48
16.0
100
AcDbLine
 10
216.4516997224568
 20
216.598217021069
 30
0.0
 11
213.8516997224568
 21
216.598217021069
 31
0.0
  0
ARC
  5
35C
330
1A
100
AcDbEntity
  8
SEIHIN
  6
CONTINUOUS
 62
     3
 48
16.0
100
AcDbCircle
 10
221.4511997224568
 20
225.599717021069
 30
0.0
 40
3.0
100
AcDbArc
 50
180.0
 51
0.0
  0
LINE
  5
35D
330
1A
100
AcDbEntity
  8
SEIHIN
  6
CONTINUOUS
 62
     3
 48
16.0
100
AcDbLine
 10
216.4511997224568
 20
222.599717021069
 30
0.0
 11
221.4511997224568
 21
222.599717021069
 31
0.0
  0
LINE
  5
35E
330
1A
100
AcDbEntity
  8
SEIHIN
  6
CONTINUOUS
 62
     3
 48
16.0
100
AcDbLine
 10
216.4516997224568
 20
221.5982170210691
 30
0.0
 11
221.4516997224568
 21
221.5982170210691
 31
0.0
  0
LINE
  5
35F
330
1A
100
AcDbEntity
  8
SEIHIN
  6
CONTINUOUS
 62
     3
 48
16.0
100
AcDbLine
 10
214.4511997224568
 20
226.099717021069
 30
0.0
 11
216.4511997224568
 21
226.099717021069
 31
0.0
  0
LINE
  5
360
330
1A
100
AcDbEntity
  8
SEIHIN
  6
CONTINUOUS
 62
     3
 48
16.0
100
AcDbLine
 10
218.4511997224568
 20
226.099717021069
 30
0.0
 11
216.4511997224568
 21
226.099717021069
 31
0.0
  0
LINE
  5
361
330
1A
100
AcDbEntity
  8
SEIHIN
  6
CONTINUOUS
 62
     3
 48
16.0
100
AcDbLine
 10
227.4511997224568
 20
226.099717021069
 30
0.0
 11
224.4511997224568
 21
226.099717021069
 31
0.0
  0
LINE
  5
362
330
1A
100
AcDbEntity
  8
SEIHIN
  6
CONTINUOUS
 62
     3
 48
16.0
100
AcDbLine
 10
221.4516997224568
 20
221.5982170210691
 30
0.0
 11
221.4516997224568
 21
222.598117021069
 31
0.0
  0
ARC
  5
363
330
1A
100
AcDbEntity
  8
SEIHIN
  6
CONTINUOUS
 62
     3
 48
16.0
100
AcDbCircle
 10
212.9870997224568
 20
272.2497170210691
 30
0.0
 40
0.499988
100
AcDbArc
 50
243.5886939999999
 51
329.999272
  0
LINE
  5
364
330
1A
100
AcDbEntity
  8
SEIHIN
  6
CONTINUOUS
 62
     3
 48
16.0
100
AcDbLine
 10
209.2042997224567
 20
275.5866170210691
 30
0.0
 11
213.2636997224568
 21
272.6662170210691
 31
0.0
  0
LINE
  5
365
330
1A
100
AcDbEntity
  8
SEIHIN
  6
CONTINUOUS
 62
     3
 48
16.0
100
AcDbLine
 10
216.4511997224568
 20
276.9996170210691
 30
0.0
 11
209.9512997224568
 21
276.999717021069
 31
0.0
  0
ARC
  5
366
330
1A
100
AcDbEntity
  8
SEIHIN
  6
CONTINUOUS
 62
     3
 48
16.0
100
AcDbCircle
 10
212.9870997224568
 20
268.2496170210691
 30
0.0
 40
0.499988
100
AcDbArc
 50
30.000728
 51
116.411306
  0
LINE
  5
367
330
1A
100
AcDbEntity
  8
SEIHIN
  6
CONTINUOUS
 62
     3
 48
16.0
100
AcDbLine
 10
209.2042997224567
 20
264.9128170210691
 30
0.0
 11
213.2636997224568
 21
267.833117021069
 31
0.0
  0
LINE
  5
368
330
1A
100
AcDbEntity
  8
SEIHIN
  6
CONTINUOUS
 62
     3
 48
16.0
100
AcDbLine
 10
204.9511997224568
 20
263.4997170210691
 30
0.0
 11
216.4511997224568
 21
263.4996170210691
 31
0.0
  0
LINE
  5
369
330
1A
100
AcDbEntity
  8
SEIHIN
  6
CONTINUOUS
 62
     3
 48
16.0
100
AcDbLine
 10
216.4511997224568
 20
237.259717021069
 30
0.0
 11
214.4511997224568
 21
237.259717021069
 31
0.0
  0
LINE
  5
36A
330
1A
100
AcDbEntity
  8
SEIHIN
  6
CONTINUOUS
 62
     3
 48
16.0
100
AcDbLine
 10
205.4511997224568
 20
237.259717021069
 30
0.0
 11
205.4511997224568
 21
263.4997170210691
 31
0.0
  0
ARC
  5
36B
330
1A
100
AcDbEntity
  8
SEIHIN
  6
CONTINUOUS
 62
     3
 48
16.0
100
AcDbCircle
 10
208.6569997224567
 20
265.7497170210691
 30
0.0
 40
1.000000999999999
100
AcDbArc
 50
116.8135939999999
 51
210.0007279999999
  0
ARC
  5
36C
330
1A
100
AcDbEntity
  8
SEIHIN
  6
CONTINUOUS
 62
     3
 48
16.0
100
AcDbCircle
 10
204.9511997224568
 20
264.499717021069
 30
0.0
 40
1.0
100
AcDbArc
 50
180.0
 51
270.0
  0
ARC
  5
36D
330
1A
100
AcDbEntity
  8
SEIHIN
  6
CONTINUOUS
 62
     3
 48
16.0
100
AcDbCircle
 10
208.6569997224567
 20
265.7497170210691
 30
0.0
 40
0.999974
100
AcDbArc
 50
210.0007279999999
 51
303.183123
  0
ARC
  5
36E
330
1A
100
AcDbEntity
  8
SEIHIN
  6
CONTINUOUS
 62
     3
 48
16.0
100
AcDbCircle
 10
208.6569997224567
 20
274.749717021069
 30
0.0
 40
1.000000999999999
100
AcDbArc
 50
149.9992719999999
 51
243.186406
  0
ARC
  5
36F
330
1A
100
AcDbEntity
  8
SEIHIN
  6
CONTINUOUS
 62
     3
 48
16.0
100
AcDbCircle
 10
208.6569997224567
 20
274.749717021069
 30
0.0
 40
0.999974
100
AcDbArc
 50
56.81687700000001
 51
149.9992719999999
  0
LINE
  5
370
330
1A
100
AcDbEntity
  8
SEIHIN
  6
CONTINUOUS
 62
     3
 48
16.0
100
AcDbLine
 10
208.2058997224567
 20
273.8572170210691
 30
0.0
 11
212.7646997224568
 21
271.8019170210691
 31
0.0
  0
LINE
  5
371
330
1A
100
AcDbEntity
  8
SEIHIN
  6
CONTINUOUS
 62
     3
 48
16.0
100
AcDbLine
 10
208.2058997224567
 20
266.642217021069
 30
0.0
 11
212.7646997224568
 21
268.6975170210691
 31
0.0
  0
LINE
  5
372
330
1A
100
AcDbEntity
  8
SEIHIN
  6
CONTINUOUS
 62
     3
 48
16.0
100
AcDbLine
 10
227.4511997224568
 20
237.259717021069
 30
0.0
 11
227.4511997224568
 21
263.4997170210691
 31
0.0
  0
LINE
  5
373
330
1A
100
AcDbEntity
  8
SEIHIN
  6
CONTINUOUS
 62
     3
 48
16.0
100
AcDbLine
 10
216.4511997224568
 20
237.259717021069
 30
0.0
 11
218.4511997224568
 21
237.259717021069
 31
0.0
  0
ARC
  5
374
330
1A
100
AcDbEntity
  8
SEIHIN
  6
CONTINUOUS
 62
     3
 48
16.0
100
AcDbCircle
 10
224.2453997224568
 20
265.7497170210691
 30
0.0
 40
1.000000999999999
100
AcDbArc
 50
329.999272
 51
63.186406
  0
LINE
  5
375
330
1A
100
AcDbEntity
  8
SEIHIN
  6
CONTINUOUS
 62
     3
 48
16.0
100
AcDbLine
 10
223.6980997224568
 20
264.9128170210691
 30
0.0
 11
219.6386997224568
 21
267.833117021069
 31
0.0
  0
LINE
  5
376
330
1A
100
AcDbEntity
  8
SEIHIN
  6
CONTINUOUS
 62
     3
 48
16.0
100
AcDbLine
 10
227.9511997224568
 20
263.4997170210691
 30
0.0
 11
216.4511997224568
 21
263.4997170210691
 31
0.0
  0
ARC
  5
377
330
1A
100
AcDbEntity
  8
SEIHIN
  6
CONTINUOUS
 62
     3
 48
16.0
100
AcDbCircle
 10
227.9511997224568
 20
264.499717021069
 30
0.0
 40
1.0
100
AcDbArc
 50
270.0
 51
0.0
  0
ARC
  5
378
330
1A
100
AcDbEntity
  8
SEIHIN
  6
CONTINUOUS
 62
     3
 48
16.0
100
AcDbCircle
 10
224.2453997224568
 20
265.7497170210691
 30
0.0
 40
0.999974
100
AcDbArc
 50
236.816877
 51
329.999272
  0
LINE
  5
379
330
1A
100
AcDbEntity
  8
SEIHIN
  6
CONTINUOUS
 62
     3
 48
16.0
100
AcDbLine
 10
224.6964997224567
 20
273.8572170210691
 30
0.0
 11
220.1377997224568
 21
271.8019170210691
 31
0.0
  0
LINE
  5
37A
330
1A
100
AcDbEntity
  8
SEIHIN
  6
CONTINUOUS
 62
     3
 48
16.0
100
AcDbLine
 10
216.4511997224568
 20
276.999717021069
 30
0.0
 11
222.9510997224567
 21
276.999717021069
 31
0.0
  0
LINE
  5
37B
330
1A
100
AcDbEntity
  8
SEIHIN
  6
CONTINUOUS
 62
     3
 48
16.0
100
AcDbLine
 10
223.6980997224568
 20
275.5866170210691
 30
0.0
 11
219.6386997224568
 21
272.6662170210691
 31
0.0
  0
LINE
  5
37C
330
1A
100
AcDbEntity
  8
SEIHIN
  6
CONTINUOUS
 62
     3
 48
16.0
100
AcDbLine
 10
224.6964997224567
 20
266.642217021069
 30
0.0
 11
220.1377997224568
 21
268.6975170210691
 31
0.0
  0
ARC
  5
37D
330
1A
100
AcDbEntity
  8
SEIHIN
  6
CONTINUOUS
 62
     3
 48
16.0
100
AcDbCircle
 10
212.9870997224568
 20
272.2497170210691
 30
0.0
 40
0.4999840000000001
100
AcDbArc
 50
329.999272
 51
56.411639
  0
ARC
  5
37E
330
1A
100
AcDbEntity
  8
SEIHIN
  6
CONTINUOUS
 62
     3
 48
16.0
100
AcDbCircle
 10
219.9152997224568
 20
272.2497170210691
 30
0.0
 40
0.4999840000000001
100
AcDbArc
 50
123.588361
 51
210.0007279999999
  0
ARC
  5
37F
330
1A
100
AcDbEntity
  8
SEIHIN
  6
CONTINUOUS
 62
     3
 48
16.0
100
AcDbCircle
 10
219.9152997224568
 20
272.2497170210691
 30
0.0
 40
0.5000100000000001
100
AcDbArc
 50
210.0007279999999
 51
296.4215689999999
  0
ARC
  5
380
330
1A
100
AcDbEntity
  8
SEIHIN
  6
CONTINUOUS
 62
     3
 48
16.0
100
AcDbCircle
 10
212.9870997224568
 20
268.2497170210691
 30
0.0
 40
0.4999840000000001
100
AcDbArc
 50
303.5883609999999
 51
30.000728
  0
ARC
  5
381
330
1A
100
AcDbEntity
  8
SEIHIN
  6
CONTINUOUS
 62
     3
 48
16.0
100
AcDbCircle
 10
219.9152997224568
 20
268.2497170210691
 30
0.0
 40
0.4999840000000001
100
AcDbArc
 50
149.9992719999999
 51
236.4116389999999
  0
ARC
  5
382
330
1A
100
AcDbEntity
  8
SEIHIN
  6
CONTINUOUS
 62
     3
 48
16.0
100
AcDbCircle
 10
219.9152997224568
 20
268.2497170210691
 30
0.0
 40
0.5000100000000001
100
AcDbArc
 50
63.57843100000001
 51
149.9992719999999
  0
CIRCLE
  5
383
330
1A
100
AcDbEntity
  8
SEIHIN
  6
CONTINUOUS
 62
     3
 48
16.0
100
AcDbCircle
 10
216.4511997224568
 20
270.2497170210691
 30
0.0
 40
1.0
  0
ARC
  5
384
330
1A
100
AcDbEntity
  8
SEIHIN
  6
CONTINUOUS
 62
     3
 48
16.0
100
AcDbCircle
 10
224.2453997224568
 20
274.749717021069
 30
0.0
 40
1.000000999999999
100
AcDbArc
 50
296.8135939999999
 51
30.000728
  0
ARC
  5
385
330
1A
100
AcDbEntity
  8
SEIHIN
  6
CONTINUOUS
 62
     3
 48
16.0
100
AcDbCircle
 10
224.2453997224568
 20
274.749717021069
 30
0.0
 40
0.999974
100
AcDbArc
 50
30.000728
 51
123.183123
  0
LINE
  5
387
330
1A
100
AcDbEntity
  8
SEIHIN
  6
CONTINUOUS
 62
     3
 48
16.0
100
AcDbLine
 10
369.6662153329079
 20
216.5995170210691
 30
0.0
 11
369.6662153329079
 21
183.3950170210691
 31
0.0
  0
LINE
  5
388
330
1A
100
AcDbEntity
  8
SEIHIN
  6
CONTINUOUS
 62
     3
 48
16.0
100
AcDbLine
 10
364.4662153329078
 20
216.5995170210691
 30
0.0
 11
364.4662153329078
 21
183.0995170210691
 31
0.0
  0
LINE
  5
389
330
1A
100
AcDbEntity
  8
CENTER_L
  6
CENTER
 62
     1
 48
5.0
100
AcDbLine
 10
367.0656153329078
 20
236.420417021069
 30
0.0
 11
367.0656153329078
 21
171.926217021069
 31
0.0
  0
ARC
  5
394
330
1A
100
AcDbEntity
  8
SEIHIN
  6
CONTINUOUS
 62
     3
 48
16.0
100
AcDbCircle
 10
369.9662153329078
 20
183.0995170210691
 30
0.0
 40
5.499962
100
AcDbArc
 50
180.0
 51
291.800055
  0
ARC
  5
395
330
1A
100
AcDbEntity
  8
SEIHIN
  6
CONTINUOUS
 62
     3
 48
16.0
100
AcDbCircle
 10
370.1662153329078
 20
183.3950170210691
 30
0.0
 40
0.500029
100
AcDbArc
 50
180.0
 51
291.799282
  0
LINE
  5
396
330
1A
100
AcDbEntity
  8
SEIHIN
  6
CONTINUOUS
 62
     3
 48
16.0
100
AcDbLine
 10
367.0656153329078
 20
226.5995170210691
 30
0.0
 11
333.9451153329077
 21
226.5995170210691
 31
0.0
  0
LINE
  5
397
330
1A
100
AcDbEntity
  8
SEIHIN
  6
CONTINUOUS
 62
     3
 48
16.0
100
AcDbLine
 10
333.9451153329077
 20
222.5995170210691
 30
0.0
 11
367.0656153329078
 21
222.5995170210691
 31
0.0
  0
LINE
  5
398
330
1A
100
AcDbEntity
  8
SEIHIN
  6
CONTINUOUS
 62
     3
 48
16.0
100
AcDbLine
 10
363.0656153329078
 20
222.5995170210691
 30
0.0
 11
331.5606153329078
 21
222.5995170210691
 31
0.0
  0
LINE
  5
399
330
1A
100
AcDbEntity
  8
SEIHIN
  6
CONTINUOUS
 62
     3
 48
16.0
100
AcDbLine
 10
367.0656153329078
 20
225.799517021069
 30
0.0
 11
333.5101153329078
 21
225.799517021069
 31
0.0
  0
ARC
  5
39A
330
1A
100
AcDbEntity
  8
SEIHIN
  6
CONTINUOUS
 62
     3
 48
16.0
100
AcDbCircle
 10
320.1119153329078
 20
225.4443170210691
 30
0.0
 40
8.999981
100
AcDbArc
 50
8.855597999999998
 51
74.6977
  0
ARC
  5
39B
330
1A
100
AcDbEntity
  8
SEIHIN
  6
CONTINUOUS
 62
     3
 48
16.0
100
AcDbCircle
 10
320.1119153329078
 20
225.4443170210691
 30
0.0
 40
12.200031
100
AcDbArc
 50
7.042533000000001
 51
75.51280700000001
  0
ARC
  5
39C
330
1A
100
AcDbEntity
  8
SEIHIN
  6
CONTINUOUS
 62
     3
 48
16.0
100
AcDbCircle
 10
320.1119153329078
 20
225.4443170210691
 30
0.0
 40
13.000031
100
AcDbArc
 50
8.855634
 51
74.236829
  0
ARC
  5
39F
330
1A
100
AcDbEntity
  8
SEIHIN
  6
CONTINUOUS
 62
     3
 48
16.0
100
AcDbCircle
 10
333.9451153329077
 20
227.5995170210691
 30
0.0
 40
5.0
100
AcDbArc
 50
188.855327
 51
270.0
  0
ARC
  5
3A5
330
1A
100
AcDbEntity
  8
SEIHIN
  6
CONTINUOUS
 62
     3
 48
16.0
100
AcDbCircle
 10
333.5101153329078
 20
227.0995170210691
 30
0.0
 40
1.300004999999999
100
AcDbArc
 50
187.0430169999999
 51
270.0
  0
ARC
  5
3A6
330
1A
100
AcDbEntity
  8
SEIHIN
  6
CONTINUOUS
 62
     3
 48
16.0
100
AcDbCircle
 10
333.9451153329077
 20
227.5995170210691
 30
0.0
 40
1.000006999999999
100
AcDbArc
 50
188.8528859999999
 51
270.0
  0
LINE
  5
3A7
330
1A
100
AcDbEntity
  8
SEIHIN
  6
CONTINUOUS
 62
     3
 48
16.0
100
AcDbLine
 10
316.3265153329078
 20
265.0996170210691
 30
0.0
 11
310.5656153329078
 21
265.0996170210691
 31
0.0
  0
LINE
  5
3A8
330
1A
100
AcDbEntity
  8
SEIHIN
  6
CONTINUOUS
 62
     3
 48
16.0
100
AcDbLine
 10
316.3266153329078
 20
264.2996170210691
 30
0.0
 11
310.5655153329077
 21
264.2996170210691
 31
0.0
  0
LINE
  5
3A9
330
1A
100
AcDbEntity
  8
SEIHIN
  6
CONTINUOUS
 62
     3
 48
16.0
100
AcDbLine
 10
318.9139153329079
 20
237.9179170210691
 30
0.0
 11
313.3599153329078
 21
264.2996170210691
 31
0.0
  0
ARC
  5
3AD
330
1A
100
AcDbEntity
  8
SEIHIN
  6
CONTINUOUS
 62
     3
 48
16.0
100
AcDbCircle
 10
310.5656153329078
 20
265.599617021069
 30
0.0
 40
0.5
100
AcDbArc
 50
180.0
 51
270.0
  0
ARC
  5
3AE
330
1A
100
AcDbEntity
  8
SEIHIN
  6
CONTINUOUS
 62
     3
 48
16.0
100
AcDbCircle
 10
310.5655153329077
 20
265.599617021069
 30
0.0
 40
1.299949999999999
100
AcDbArc
 50
180.0
 51
270.0
  0
LINE
  5
3AF
330
1A
100
AcDbEntity
  8
SEIHIN
  6
CONTINUOUS
 62
     3
 48
16.0
100
AcDbLine
 10
322.2169153329078
 20
238.247317021069
 30
0.0
 11
316.8158153329078
 21
263.9025170210691
 31
0.0
  0
LINE
  5
3B0
330
1A
100
AcDbEntity
  8
SEIHIN
  6
CONTINUOUS
 62
     3
 48
16.0
100
AcDbLine
 10
322.9367153329078
 20
238.711717021069
 30
0.0
 11
317.5987153329078
 21
264.0674170210691
 31
0.0
  0
ARC
  5
3B1
330
1A
100
AcDbEntity
  8
SEIHIN
  6
CONTINUOUS
 62
     3
 48
16.0
100
AcDbCircle
 10
323.4890153329077
 20
238.515017021069
 30
0.0
 40
1.299959
100
AcDbArc
 50
191.8882039999999
 51
255.512635
  0
ARC
  5
3B2
330
1A
100
AcDbEntity
  8
SEIHIN
  6
CONTINUOUS
 62
     3
 48
16.0
100
AcDbCircle
 10
323.8067153329078
 20
238.9479170210691
 30
0.0
 40
5.000008999999999
100
AcDbArc
 50
191.88795
 51
254.6971419999999
  0
ARC
  5
3B3
330
1A
100
AcDbEntity
  8
SEIHIN
  6
CONTINUOUS
 62
     3
 48
16.0
100
AcDbCircle
 10
323.9152153329078
 20
238.917817021069
 30
0.0
 40
0.9999829999999999
100
AcDbArc
 50
191.888658
 51
254.234828
  0
ARC
  5
3B4
330
1A
100
AcDbEntity
  8
SEIHIN
  6
CONTINUOUS
 62
     3
 48
16.0
100
AcDbCircle
 10
316.3266153329078
 20
263.7996170210691
 30
0.0
 40
0.499963
100
AcDbArc
 50
11.88983899999999
 51
90.0
  0
ARC
  5
3B5
330
1A
100
AcDbEntity
  8
SEIHIN
  6
CONTINUOUS
 62
     3
 48
16.0
100
AcDbCircle
 10
316.3265153329078
 20
263.7996170210691
 30
0.0
 40
1.300039999999999
100
AcDbArc
 50
11.887296
 51
90.0
  0
ARC
  5
3B6
330
1A
100
AcDbEntity
  8
SEIHIN
  6
CONTINUOUS
 62
     3
 48
16.0
100
AcDbCircle
 10
414.0192153329078
 20
225.4443170210691
 30
0.0
 40
8.999981
100
AcDbArc
 50
105.3023
 51
171.144402
  0
ARC
  5
3B7
330
1A
100
AcDbEntity
  8
SEIHIN
  6
CONTINUOUS
 62
     3
 48
16.0
100
AcDbCircle
 10
414.0192153329078
 20
225.4443170210691
 30
0.0
 40
12.199975
100
AcDbArc
 50
104.486738
 51
172.956944
  0
ARC
  5
3B8
330
1A
100
AcDbEntity
  8
SEIHIN
  6
CONTINUOUS
 62
     3
 48
16.0
100
AcDbCircle
 10
414.0192153329078
 20
225.4443170210691
 30
0.0
 40
12.999982
100
AcDbArc
 50
105.763171
 51
171.1442979999999
  0
LINE
  5
3BB
330
1A
100
AcDbEntity
  8
SEIHIN
  6
CONTINUOUS
 62
     3
 48
16.0
100
AcDbLine
 10
367.0656153329078
 20
226.5995170210691
 30
0.0
 11
400.1861153329079
 21
226.5995170210691
 31
0.0
  0
LINE
  5
3BC
330
1A
100
AcDbEntity
  8
SEIHIN
  6
CONTINUOUS
 62
     3
 48
16.0
100
AcDbLine
 10
367.0656153329078
 20
225.799517021069
 30
0.0
 11
400.6211153329078
 21
225.799517021069
 31
0.0
  0
LINE
  5
3BD
330
1A
100
AcDbEntity
  8
SEIHIN
  6
CONTINUOUS
 62
     3
 48
16.0
100
AcDbLine
 10
400.1861153329079
 20
222.5995170210691
 30
0.0
 11
367.0656153329078
 21
222.5995170210691
 31
0.0
  0
LINE
  5
3BE
330
1A
100
AcDbEntity
  8
SEIHIN
  6
CONTINUOUS
 62
     3
 48
16.0
100
AcDbLine
 10
362.0662153329078
 20
221.599617021069
 30
0.0
 11
364.4662153329078
 21
216.5995170210691
 31
0.0
  0
LINE
  5
3BF
330
1A
100
AcDbEntity
  8
SEIHIN
  6
CONTINUOUS
 62
     3
 48
16.0
100
AcDbLine
 10
367.0662153329078
 20
221.5995170210691
 30
0.0
 11
362.0662153329078
 21
221.599617021069
 31
0.0
  0
LINE
  5
3C0
330
1A
100
AcDbEntity
  8
SEIHIN
  6
CONTINUOUS
 62
     3
 48
16.0
100
AcDbLine
 10
362.0662153329078
 20
221.599617021069
 30
0.0
 11
362.0662153329078
 21
222.5995170210691
 31
0.0
  0
LINE
  5
3C1
330
1A
100
AcDbEntity
  8
SEIHIN
  6
CONTINUOUS
 62
     3
 48
16.0
100
AcDbLine
 10
372.0661153329078
 20
221.599617021069
 30
0.0
 11
369.6662153329079
 21
216.5995170210691
 31
0.0
  0
LINE
  5
3C2
330
1A
100
AcDbEntity
  8
SEIHIN
  6
CONTINUOUS
 62
     3
 48
16.0
100
AcDbLine
 10
367.0661153329078
 20
216.5995170210691
 30
0.0
 11
369.6662153329079
 21
216.5995170210691
 31
0.0
  0
LINE
  5
3C3
330
1A
100
AcDbEntity
  8
SEIHIN
  6
CONTINUOUS
 62
     3
 48
16.0
100
AcDbLine
 10
367.0662153329078
 20
216.5995170210691
 30
0.0
 11
364.4661153329078
 21
216.5996170210691
 31
0.0
  0
LINE
  5
3C4
330
1A
100
AcDbEntity
  8
SEIHIN
  6
CONTINUOUS
 62
     3
 48
16.0
100
AcDbLine
 10
367.0661153329078
 20
221.5995170210691
 30
0.0
 11
372.0661153329078
 21
221.599617021069
 31
0.0
  0
LINE
  5
3C5
330
1A
100
AcDbEntity
  8
SEIHIN
  6
CONTINUOUS
 62
     3
 48
16.0
100
AcDbLine
 10
372.0661153329078
 20
221.599617021069
 30
0.0
 11
372.0661153329078
 21
222.5995170210691
 31
0.0
  0
LINE
  5
3C6
330
1A
100
AcDbEntity
  8
SEIHIN
  6
CONTINUOUS
 62
     3
 48
16.0
100
AcDbLine
 10
396.1861153329079
 20
226.5995170210691
 30
0.0
 11
382.5571153329078
 21
226.5995170210691
 31
0.0
  0
ARC
  5
3C7
330
1A
100
AcDbEntity
  8
SEIHIN
  6
CONTINUOUS
 62
     3
 48
16.0
100
AcDbCircle
 10
400.1861153329079
 20
227.5995170210691
 30
0.0
 40
5.0
100
AcDbArc
 50
270.0
 51
351.144673
  0
ARC
  5
3C8
330
1A
100
AcDbEntity
  8
SEIHIN
  6
CONTINUOUS
 62
     3
 48
16.0
100
AcDbCircle
 10
400.1861153329079
 20
227.5995170210691
 30
0.0
 40
1.000006999999999
100
AcDbArc
 50
270.0
 51
351.1471139999999
  0
ARC
  5
3C9
330
1A
100
AcDbEntity
  8
SEIHIN
  6
CONTINUOUS
 62
     3
 48
16.0
100
AcDbCircle
 10
400.6211153329078
 20
227.0995170210691
 30
0.0
 40
1.300004999999999
100
AcDbArc
 50
270.0
 51
352.9569829999999
  0
ARC
  5
3CB
330
1A
100
AcDbEntity
  8
SEIHIN
  6
CONTINUOUS
 62
     3
 48
16.0
100
AcDbCircle
 10
410.2159153329077
 20
238.917817021069
 30
0.0
 40
1.000032
100
AcDbArc
 50
285.765172
 51
348.112522
  0
ARC
  5
3CC
330
1A
100
AcDbEntity
  8
SEIHIN
  6
CONTINUOUS
 62
     3
 48
16.0
100
AcDbCircle
 10
410.6421153329078
 20
238.515017021069
 30
0.0
 40
1.299959
100
AcDbArc
 50
284.487365
 51
348.1117959999999
  0
LINE
  5
3CF
330
1A
100
AcDbEntity
  8
SEIHIN
  6
CONTINUOUS
 62
     3
 48
16.0
100
AcDbLine
 10
225.4510997224567
 20
281.396217021069
 30
0.0
 11
207.4512997224568
 21
281.396217021069
 31
0.0
  0
LINE
  5
3D0
330
1A
100
AcDbEntity
  8
SEIHIN
  6
CONTINUOUS
 62
     3
 48
16.0
100
AcDbLine
 10
207.4512997224568
 20
298.9997170210691
 30
0.0
 11
207.4512997224568
 21
279.4997170210691
 31
0.0
  0
LINE
  5
3D1
330
1A
100
AcDbEntity
  8
SEIHIN
  6
CONTINUOUS
 62
     3
 48
16.0
100
AcDbLine
 10
203.9512997224568
 20
298.9997170210691
 30
0.0
 11
207.4512997224568
 21
298.9997170210691
 31
0.0
  0
LINE
  5
3D5
330
1A
100
AcDbEntity
  8
SEIHIN
  6
CONTINUOUS
 62
     3
 48
16.0
100
AcDbLine
 10
225.4510997224567
 20
298.9997170210691
 30
0.0
 11
225.4510997224567
 21
279.4997170210691
 31
0.0
  0
LINE
  5
3D6
330
1A
100
AcDbEntity
  8
SEIHIN
  6
CONTINUOUS
 62
     3
 48
16.0
100
AcDbLine
 10
228.9511997224568
 20
298.9997170210691
 30
0.0
 11
225.4510997224567
 21
298.9997170210691
 31
0.0
  0
LINE
  5
3DA
330
1A
100
AcDbEntity
  8
SEIHIN
  6
CONTINUOUS
 62
     3
 48
16.0
100
AcDbLine
 10
400.1861153329079
 20
412.5995170210691
 30
0.0
 11
400.1861153329079
 21
409.0995170210691
 31
0.0
  0
LINE
  5
3DB
330
1A
100
AcDbEntity
  8
SEIHIN
  6
CONTINUOUS
 62
     3
 48
16.0
100
AcDbLine
 10
411.1945153329078
 20
412.5995170210691
 30
0.0
 11
411.1945153329078
 21
409.0995170210691
 31
0.0
  0
LINE
  5
3DC
330
1A
100
AcDbEntity
  8
CENTER_L
  6
CENTER
 62
     1
 48
5.0
100
AcDbLine
 10
367.0657153329078
 20
384.1211170210691
 30
0.0
 11
367.0657153329078
 21
418.2794170210691
 31
0.0
  0
LINE
  5
3DD
330
1A
100
AcDbEntity
  8
SEIHIN
  6
CONTINUOUS
 62
     3
 48
16.0
100
AcDbLine
 10
333.9451153329077
 20
412.5995170210691
 30
0.0
 11
333.9451153329077
 21
409.0994170210691
 31
0.0
  0
LINE
  5
3DE
330
1A
100
AcDbEntity
  8
SEIHIN
  6
CONTINUOUS
 62
     3
 48
16.0
100
AcDbLine
 10
322.9368153329078
 20
412.5994170210691
 30
0.0
 11
322.9368153329078
 21
409.0994170210691
 31
0.0
  0
LINE
  5
3DF
330
1A
100
AcDbEntity
  8
SEIHIN
  6
CONTINUOUS
 62
     3
 48
16.0
100
AcDbLine
 10
317.5987153329078
 20
412.5994170210691
 30
0.0
 11
317.5987153329078
 21
409.0994170210691
 31
0.0
  0
LINE
  5
3E0
330
1A
100
AcDbEntity
  8
SEIHIN
  6
CONTINUOUS
 62
     3
 48
16.0
100
AcDbLine
 10
310.0656153329079
 20
401.5995170210691
 30
0.0
 11
310.0656153329079
 21
414.099417021069
 31
0.0
  0
LINE
  5
3E1
330
1A
100
AcDbEntity
  8
SEIHIN
  6
CONTINUOUS
 62
     3
 48
16.0
100
AcDbLine
 10
309.2656153329078
 20
414.099417021069
 30
0.0
 11
309.2656153329078
 21
401.5996170210691
 31
0.0
  0
LINE
  5
3E2
330
1A
100
AcDbEntity
  8
SEIHIN
  6
CONTINUOUS
 62
     3
 48
16.0
100
AcDbLine
 10
367.0656153329078
 20
390.5994170210691
 30
0.0
 11
333.9451153329077
 21
390.5994170210691
 31
0.0
  0
LINE
  5
3E3
330
1A
100
AcDbEntity
  8
SEIHIN
  6
CONTINUOUS
 62
     3
 48
16.0
100
AcDbLine
 10
360.5273153329078
 20
404.0995170210691
 30
0.0
 11
316.8987153329078
 21
404.0994170210691
 31
0.0
  0
LINE
  5
3E4
330
1A
100
AcDbEntity
  8
SEIHIN
  6
CONTINUOUS
 62
     3
 48
16.0
100
AcDbLine
 10
367.0656153329078
 20
409.0995170210691
 30
0.0
 11
316.8987153329078
 21
409.0994170210691
 31
0.0
  0
LINE
  5
3E5
330
1A
100
AcDbEntity
  8
CENTER_L
  6
CENTER
 62
     1
 48
5.0
100
AcDbLine
 10
367.0656153329078
 20
401.599417021069
 30
0.0
 11
303.2320153329078
 21
401.5995170210691
 31
0.0
  0
LINE
  5
3E6
330
1A
100
AcDbEntity
  8
SEIHIN
  6
CONTINUOUS
 62
     3
 48
16.0
100
AcDbLine
 10
360.5273153329078
 20
399.099417021069
 30
0.0
 11
316.8987153329078
 21
399.0995170210691
 31
0.0
  0
LINE
  5
3E7
330
1A
100
AcDbEntity
  8
SEIHIN
  6
CONTINUOUS
 62
     3
 48
16.0
100
AcDbLine
 10
367.0656153329078
 20
394.099417021069
 30
0.0
 11
316.8987153329078
 21
394.0995170210691
 31
0.0
  0
LINE
  5
3F1
330
1A
100
AcDbEntity
  8
SEIHIN
  6
CONTINUOUS
 62
     3
 48
16.0
100
AcDbLine
 10
310.0656153329079
 20
299.5996170210691
 30
0.0
 11
309.2656153329078
 21
299.5996170210691
 31
0.0
  0
ARC
  5
3F7
330
1A
100
AcDbEntity
  8
SEIHIN
  6
CONTINUOUS
 62
     3
 48
16.0
100
AcDbCircle
 10
316.8987153329078
 20
406.599417021069
 30
0.0
 40
2.5
100
AcDbArc
 50
90.0
 51
270.0
  0
LINE
  5
3F8
330
1A
100
AcDbEntity
  8
SEIHIN
  6
CONTINUOUS
 62
     3
 48
16.0
100
AcDbLine
 10
322.9368153329078
 20
390.5995170210691
 30
0.0
 11
310.0656153329079
 21
390.5995170210691
 31
0.0
  0
ARC
  5
3F9
330
1A
100
AcDbEntity
  8
SEIHIN
  6
CONTINUOUS
 62
     3
 48
16.0
100
AcDbCircle
 10
316.8987153329078
 20
396.5995170210691
 30
0.0
 40
2.5
100
AcDbArc
 50
90.0
 51
270.0
  0
LINE
  5
3FA
330
1A
100
AcDbEntity
  8
SEIHIN
  6
CONTINUOUS
 62
     3
 48
16.0
100
AcDbLine
 10
309.2656153329078
 20
389.099417021069
 30
0.0
 11
309.2656153329078
 21
401.599417021069
 31
0.0
  0
LINE
  5
3FB
330
1A
100
AcDbEntity
  8
SEIHIN
  6
CONTINUOUS
 62
     3
 48
16.0
100
AcDbLine
 10
310.0656153329079
 20
401.599417021069
 30
0.0
 11
310.0656153329079
 21
389.0995170210691
 31
0.0
  0
LINE
  5
3FC
330
1A
100
AcDbEntity
  8
SEIHIN
  6
CONTINUOUS
 62
     3
 48
16.0
100
AcDbLine
 10
310.0656153329079
 20
389.0995170210691
 30
0.0
 11
309.2657153329078
 21
389.0995170210691
 31
0.0
  0
ARC
  5
3FD
330
1A
100
AcDbEntity
  8
SEIHIN
  6
CONTINUOUS
 62
     3
 48
16.0
100
AcDbCircle
 10
328.4409153329078
 20
361.2264170210691
 30
0.0
 40
29.88435499999999
100
AcDbArc
 50
79.386481
 51
100.613331
  0
LINE
  5
3FE
330
1A
100
AcDbEntity
  8
SEIHIN
  6
CONTINUOUS
 62
     3
 48
16.0
100
AcDbLine
 10
317.5987153329078
 20
390.5994170210691
 30
0.0
 11
317.5987153329078
 21
394.0995170210691
 31
0.0
  0
LINE
  5
3FF
330
1A
100
AcDbEntity
  8
SEIHIN
  6
CONTINUOUS
 62
     3
 48
16.0
100
AcDbLine
 10
322.9368153329078
 20
390.5994170210691
 30
0.0
 11
322.9368153329078
 21
394.0995170210691
 31
0.0
  0
LINE
  5
400
330
1A
100
AcDbEntity
  8
SEIHIN
  6
CONTINUOUS
 62
     3
 48
16.0
100
AcDbLine
 10
317.5987153329078
 20
404.0994170210691
 30
0.0
 11
317.5987153329078
 21
401.599417021069
 31
0.0
  0
LINE
  5
401
330
1A
100
AcDbEntity
  8
SEIHIN
  6
CONTINUOUS
 62
     3
 48
16.0
100
AcDbLine
 10
317.5987153329078
 20
399.099417021069
 30
0.0
 11
317.5987153329078
 21
401.599417021069
 31
0.0
  0
LINE
  5
402
330
1A
100
AcDbEntity
  8
SEIHIN
  6
CONTINUOUS
 62
     3
 48
16.0
100
AcDbLine
 10
322.9368153329078
 20
404.0994170210691
 30
0.0
 11
322.9368153329078
 21
401.599417021069
 31
0.0
  0
LINE
  5
403
330
1A
100
AcDbEntity
  8
SEIHIN
  6
CONTINUOUS
 62
     3
 48
16.0
100
AcDbLine
 10
322.9368153329078
 20
399.099417021069
 30
0.0
 11
322.9368153329078
 21
401.599417021069
 31
0.0
  0
LINE
  5
404
330
1A
100
AcDbEntity
  8
SEIHIN
  6
CONTINUOUS
 62
     3
 48
16.0
100
AcDbLine
 10
333.9451153329077
 20
390.5994170210691
 30
0.0
 11
333.9451153329077
 21
394.099417021069
 31
0.0
  0
LINE
  5
405
330
1A
100
AcDbEntity
  8
SEIHIN
  6
CONTINUOUS
 62
     3
 48
16.0
100
AcDbLine
 10
333.9451153329077
 20
404.0994170210691
 30
0.0
 11
333.9451153329077
 21
401.5995170210691
 31
0.0
  0
LINE
  5
406
330
1A
100
AcDbEntity
  8
SEIHIN
  6
CONTINUOUS
 62
     3
 48
16.0
100
AcDbLine
 10
333.9451153329077
 20
399.099417021069
 30
0.0
 11
333.9451153329077
 21
401.599417021069
 31
0.0
  0
LINE
  5
408
330
1A
100
AcDbEntity
  8
SEIHIN
  6
CONTINUOUS
 62
     3
 48
16.0
100
AcDbLine
 10
367.0657153329078
 20
390.5994170210691
 30
0.0
 11
400.1861153329079
 21
390.5994170210691
 31
0.0
  0
CIRCLE
  5
409
330
1A
100
AcDbEntity
  8
SEIHIN
  6
CONTINUOUS
 62
     3
 48
16.0
100
AcDbCircle
 10
367.0657153329078
 20
401.599417021069
 30
0.0
 40
5.0
  0
ARC
  5
40A
330
1A
100
AcDbEntity
  8
SEIHIN
  6
CONTINUOUS
 62
     3
 48
16.0
100
AcDbCircle
 10
367.0657153329078
 20
401.599417021069
 30
0.0
 40
7.000036999999999
100
AcDbArc
 50
20.92573799999999
 51
159.074554
  0
ARC
  5
40B
330
1A
100
AcDbEntity
  8
SEIHIN
  6
CONTINUOUS
 62
     3
 48
16.0
100
AcDbCircle
 10
367.0657153329078
 20
401.599417021069
 30
0.0
 40
7.000000999999999
100
AcDbArc
 50
200.924682
 51
339.0750259999999
  0
LINE
  5
40E
330
1A
100
AcDbEntity
  8
SEIHIN
  6
CONTINUOUS
 62
     3
 48
16.0
100
AcDbLine
 10
365.0657153329078
 20
399.5994170210691
 30
0.0
 11
369.0657153329078
 21
399.5994170210691
 31
0.0
  0
LINE
  5
40F
330
1A
100
AcDbEntity
  8
SEIHIN
  6
CONTINUOUS
 62
     3
 48
16.0
100
AcDbLine
 10
365.0657153329078
 20
403.599417021069
 30
0.0
 11
369.0657153329078
 21
403.599417021069
 31
0.0
  0
LINE
  5
410
330
1A
100
AcDbEntity
  8
SEIHIN
  6
CONTINUOUS
 62
     3
 48
16.0
100
AcDbLine
 10
369.0657153329078
 20
399.5994170210691
 30
0.0
 11
369.0657153329078
 21
403.599417021069
 31
0.0
  0
LINE
  5
411
330
1A
100
AcDbEntity
  8
SEIHIN
  6
CONTINUOUS
 62
     3
 48
16.0
100
AcDbLine
 10
365.0657153329078
 20
399.5994170210691
 30
0.0
 11
365.0657153329078
 21
403.599417021069
 31
0.0
  0
ARC
  5
412
330
1A
100
AcDbEntity
  8
SEIHIN
  6
CONTINUOUS
 62
     3
 48
16.0
100
AcDbCircle
 10
405.6903153329078
 20
361.2264170210691
 30
0.0
 40
29.88416799999999
100
AcDbArc
 50
79.38641
 51
100.61359
  0
LINE
  5
413
330
1A
100
AcDbEntity
  8
SEIHIN
  6
CONTINUOUS
 62
     3
 48
16.0
100
AcDbLine
 10
400.1861153329079
 20
390.5994170210691
 30
0.0
 11
400.1861153329079
 21
394.099417021069
 31
0.0
  0
LINE
  5
414
330
1A
100
AcDbEntity
  8
SEIHIN
  6
CONTINUOUS
 62
     3
 48
16.0
100
AcDbLine
 10
411.1945153329078
 20
390.5994170210691
 30
0.0
 11
411.1945153329078
 21
394.099417021069
 31
0.0
  0
LINE
  5
415
330
1A
100
AcDbEntity
  8
SEIHIN
  6
CONTINUOUS
 62
     3
 48
16.0
100
AcDbLine
 10
400.1861153329079
 20
404.0995170210691
 30
0.0
 11
400.1861153329079
 21
401.5995170210691
 31
0.0
  0
LINE
  5
416
330
1A
100
AcDbEntity
  8
SEIHIN
  6
CONTINUOUS
 62
     3
 48
16.0
100
AcDbLine
 10
400.1861153329079
 20
399.099417021069
 30
0.0
 11
400.1861153329079
 21
401.599417021069
 31
0.0
  0
LINE
  5
417
330
1A
100
AcDbEntity
  8
SEIHIN
  6
CONTINUOUS
 62
     3
 48
16.0
100
AcDbLine
 10
411.1945153329078
 20
404.0995170210691
 30
0.0
 11
411.1945153329078
 21
401.5995170210691
 31
0.0
  0
LINE
  5
418
330
1A
100
AcDbEntity
  8
SEIHIN
  6
CONTINUOUS
 62
     3
 48
16.0
100
AcDbLine
 10
411.1945153329078
 20
399.099417021069
 30
0.0
 11
411.1945153329078
 21
401.599417021069
 31
0.0
  0
LINE
  5
419
330
1A
100
AcDbEntity
  8
SEIHIN
  6
CONTINUOUS
 62
     3
 48
16.0
100
AcDbLine
 10
367.0656153329078
 20
412.5995170210691
 30
0.0
 11
333.9451153329077
 21
412.5994170210691
 31
0.0
  0
LINE
  5
41A
330
1A
100
AcDbEntity
  8
SEIHIN
  6
CONTINUOUS
 62
     3
 48
16.0
100
AcDbLine
 10
322.9368153329078
 20
412.5994170210691
 30
0.0
 11
310.0656153329079
 21
412.5994170210691
 31
0.0
  0
LINE
  5
41B
330
1A
100
AcDbEntity
  8
SEIHIN
  6
CONTINUOUS
 62
     3
 48
16.0
100
AcDbLine
 10
310.0656153329079
 20
414.099417021069
 30
0.0
 11
309.2657153329078
 21
414.099417021069
 31
0.0
  0
ARC
  5
41C
330
1A
100
AcDbEntity
  8
SEIHIN
  6
CONTINUOUS
 62
     3
 48
16.0
100
AcDbCircle
 10
328.4409153329078
 20
441.9725170210691
 30
0.0
 40
29.884266
100
AcDbArc
 50
259.3864459999999
 51
280.613554
  0
LINE
  5
41D
330
1A
100
AcDbEntity
  8
SEIHIN
  6
CONTINUOUS
 62
     3
 48
16.0
100
AcDbLine
 10
367.0657153329078
 20
412.5995170210691
 30
0.0
 11
400.1861153329079
 21
412.5995170210691
 31
0.0
  0
ARC
  5
41E
330
1A
100
AcDbEntity
  8
SEIHIN
  6
CONTINUOUS
 62
     3
 48
16.0
100
AcDbCircle
 10
405.6903153329078
 20
441.972617021069
 30
0.0
 40
29.884257
100
AcDbArc
 50
259.3864459999999
 51
280.613366
  0
LINE
  5
420
330
1A
100
AcDbEntity
  8
SEIHIN
  6
CONTINUOUS
 62
     3
 48
16.0
100
AcDbLine
 10
423.3114031750573
 20
279.7322050910048
 30
0.0
 11
414.0362432126468
 21
277.882762817845
 31
0.0
  0
LINE
  5
421
330
1A
100
AcDbEntity
  8
SEIHIN
  6
CONTINUOUS
 62
     3
 48
16.0
100
AcDbLine
 10
414.1926312232781
 20
277.0982520912575
 30
0.0
 11
423.4678427835953
 21
278.9476779530114
 31
0.0
  0
LINE
  5
422
330
1A
100
AcDbEntity
  8
SEIHIN
  6
CONTINUOUS
 62
     3
 48
16.0
100
AcDbLine
 10
414.5374710487373
 20
275.3690104381687
 30
0.0
 11
423.7028827386796
 21
278.9381191786456
 31
0.0
  0
LINE
  5
423
330
1A
100
AcDbEntity
  8
SEIHIN
  6
CONTINUOUS
 62
     3
 48
16.0
100
AcDbLine
 10
424.8656153329078
 20
278.4573026716797
 30
0.0
 11
424.8656153329078
 21
265.599617021069
 31
0.0
  0
LINE
  5
424
330
1A
100
AcDbEntity
  8
SEIHIN
  6
CONTINUOUS
 62
     3
 48
16.0
100
AcDbLine
 10
424.0656153329078
 20
278.4573305979651
 30
0.0
 11
424.0656153329078
 21
265.599617021069
 31
0.0
  0
LINE
  5
430
330
1A
100
AcDbEntity
  8
SEIHIN
  6
CONTINUOUS
 62
     3
 48
16.0
100
AcDbLine
 10
415.2172153329078
 20
237.9179170210691
 30
0.0
 11
420.7712153329078
 21
264.2996170210691
 31
0.0
  0
LINE
  5
431
330
1A
100
AcDbEntity
  8
SEIHIN
  6
CONTINUOUS
 62
     3
 48
16.0
100
AcDbLine
 10
417.8046153329078
 20
265.0996170210691
 30
0.0
 11
423.5656153329078
 21
265.0996170210691
 31
0.0
  0
LINE
  5
432
330
1A
100
AcDbEntity
  8
SEIHIN
  6
CONTINUOUS
 62
     3
 48
16.0
100
AcDbLine
 10
417.8046153329078
 20
264.2996170210691
 30
0.0
 11
423.5656153329078
 21
264.2996170210691
 31
0.0
  0
ARC
  5
433
330
1A
100
AcDbEntity
  8
SEIHIN
  6
CONTINUOUS
 62
     3
 48
16.0
100
AcDbCircle
 10
417.8046153329078
 20
263.7996170210691
 30
0.0
 40
1.299990999999999
100
AcDbArc
 50
90.0
 51
168.1117959999999
  0
ARC
  5
434
330
1A
100
AcDbEntity
  8
SEIHIN
  6
CONTINUOUS
 62
     3
 48
16.0
100
AcDbCircle
 10
417.8046153329078
 20
263.7996170210691
 30
0.0
 40
0.500012
100
AcDbArc
 50
90.0
 51
168.112522
  0
ARC
  5
435
330
1A
100
AcDbEntity
  8
SEIHIN
  6
CONTINUOUS
 62
     3
 48
16.0
100
AcDbCircle
 10
423.5656153329078
 20
265.599617021069
 30
0.0
 40
1.3
100
AcDbArc
 50
270.0
 51
0.0
  0
ARC
  5
436
330
1A
100
AcDbEntity
  8
SEIHIN
  6
CONTINUOUS
 62
     3
 48
16.0
100
AcDbCircle
 10
423.5656153329078
 20
265.599617021069
 30
0.0
 40
0.5
100
AcDbArc
 50
270.0
 51
0.0
  0
LINE
  5
437
330
1A
100
AcDbEntity
  8
SEIHIN
  6
CONTINUOUS
 62
     3
 48
16.0
100
AcDbLine
 10
414.0362432126468
 20
277.882762817845
 30
0.0
 11
414.5374710487373
 21
275.3690104381687
 31
0.0
  0
LINE
  5
43F
330
1A
100
AcDbEntity
  8
SEIHIN
  6
CONTINUOUS
 62
     3
 48
16.0
100
AcDbLine
 10
527.7778153329079
 20
244.963117021069
 30
0.0
 11
523.7790153329078
 21
241.496917021069
 31
0.0
  0
LINE
  5
440
330
1A
100
AcDbEntity
  8
SEIHIN
  6
CONTINUOUS
 62
     3
 48
16.0
100
AcDbLine
 10
523.7790153329078
 20
241.496917021069
 30
0.0
 11
529.0652153329078
 21
241.744417021069
 31
0.0
  0
LINE
  5
441
330
1A
100
AcDbEntity
  8
SEIHIN
  6
CONTINUOUS
 62
     3
 48
16.0
100
AcDbLine
 10
537.7063153329079
 20
247.0674170210691
 30
0.0
 11
524.7446153329078
 21
239.082917021069
 31
0.0
  0
LINE
  5
442
330
1A
100
AcDbEntity
  8
SEIHIN
  6
CONTINUOUS
 62
     3
 48
16.0
100
AcDbLine
 10
522.8135153329078
 20
243.911017021069
 30
0.0
 11
537.7063153329079
 21
247.0674170210691
 31
0.0
  0
LINE
  5
449
330
1A
100
AcDbEntity
  8
SEIHIN
  6
CONTINUOUS
 62
     3
 48
16.0
100
AcDbLine
 10
424.0656153329078
 20
410.599417021069
 30
0.0
 11
424.0656153329078
 21
414.0995170210691
 31
0.0
  0
LINE
  5
44A
330
1A
100
AcDbEntity
  8
SEIHIN
  6
CONTINUOUS
 62
     3
 48
16.0
100
AcDbLine
 10
416.5325153329077
 20
412.5995170210691
 30
0.0
 11
416.5325153329077
 21
410.599417021069
 31
0.0
  0
LINE
  5
44B
330
1A
100
AcDbEntity
  8
SEIHIN
  6
CONTINUOUS
 62
     3
 48
16.0
100
AcDbLine
 10
424.8656153329078
 20
414.0995170210691
 30
0.0
 11
424.8656153329078
 21
401.5995170210691
 31
0.0
  0
LINE
  5
44C
330
1A
100
AcDbEntity
  8
SEIHIN
  6
CONTINUOUS
 62
     3
 48
16.0
100
AcDbLine
 10
424.8656153329078
 20
398.8496170210691
 30
0.0
 11
522.7064153329079
 21
398.8495170210691
 31
0.0
  0
LINE
  5
44D
330
1A
100
AcDbEntity
  8
SEIHIN
  6
CONTINUOUS
 62
     3
 48
16.0
100
AcDbLine
 10
424.8656153329078
 20
404.3496170210691
 30
0.0
 11
522.7063153329079
 21
404.349517021069
 31
0.0
  0
LINE
  5
453
330
1A
100
AcDbEntity
  8
SEIHIN
  6
CONTINUOUS
 62
     3
 48
16.0
100
AcDbLine
 10
424.8656153329078
 20
389.099417021069
 30
0.0
 11
424.8656153329078
 21
401.599417021069
 31
0.0
  0
LINE
  5
454
330
1A
100
AcDbEntity
  8
SEIHIN
  6
CONTINUOUS
 62
     3
 48
16.0
100
AcDbLine
 10
413.8656153329078
 20
401.599417021069
 30
0.0
 11
413.8656153329078
 21
392.5994170210691
 31
0.0
  0
LINE
  5
455
330
1A
100
AcDbEntity
  8
SEIHIN
  6
CONTINUOUS
 62
     3
 48
16.0
100
AcDbLine
 10
424.8656153329078
 20
392.5994170210691
 30
0.0
 11
413.8656153329078
 21
392.5994170210691
 31
0.0
  0
LINE
  5
456
330
1A
100
AcDbEntity
  8
SEIHIN
  6
CONTINUOUS
 62
     3
 48
16.0
100
AcDbLine
 10
416.5325153329077
 20
390.5994170210691
 30
0.0
 11
416.5325153329077
 21
392.5994170210691
 31
0.0
  0
LINE
  5
457
330
1A
100
AcDbEntity
  8
SEIHIN
  6
CONTINUOUS
 62
     3
 48
16.0
100
AcDbLine
 10
424.0656153329078
 20
389.099417021069
 30
0.0
 11
424.8656153329078
 21
389.099417021069
 31
0.0
  0
LINE
  5
458
330
1A
100
AcDbEntity
  8
SEIHIN
  6
CONTINUOUS
 62
     3
 48
16.0
100
AcDbLine
 10
424.0656153329078
 20
392.5994170210691
 30
0.0
 11
424.0656153329078
 21
389.099417021069
 31
0.0
  0
LINE
  5
459
330
1A
100
AcDbEntity
  8
SEIHIN
  6
CONTINUOUS
 62
     3
 48
16.0
100
AcDbLine
 10
424.8656153329078
 20
410.599417021069
 30
0.0
 11
413.8656153329078
 21
410.599417021069
 31
0.0
  0
LINE
  5
45A
330
1A
100
AcDbEntity
  8
SEIHIN
  6
CONTINUOUS
 62
     3
 48
16.0
100
AcDbLine
 10
413.8656153329078
 20
401.599417021069
 30
0.0
 11
413.8656153329078
 21
410.599417021069
 31
0.0
  0
LINE
  5
45B
330
1A
100
AcDbEntity
  8
SEIHIN
  6
CONTINUOUS
 62
     3
 48
16.0
100
AcDbLine
 10
522.7064153329079
 20
398.8496170210691
 30
0.0
 11
537.7064153329079
 21
401.599417021069
 31
0.0
  0
LINE
  5
45C
330
1A
100
AcDbEntity
  8
SEIHIN
  6
CONTINUOUS
 62
     3
 48
16.0
100
AcDbLine
 10
522.7063153329079
 20
404.349417021069
 30
0.0
 11
537.7063153329079
 21
401.599417021069
 31
0.0
  0
LINE
  5
45D
330
1A
100
AcDbEntity
  8
SEIHIN
  6
CONTINUOUS
 62
     3
 48
16.0
100
AcDbLine
 10
424.0656153329078
 20
414.099417021069
 30
0.0
 11
424.8656153329078
 21
414.099417021069
 31
0.0
  0
TEXT
  5
487
330
1A
100
AcDbEntity
  8
SUNPOU
 62
     4
 48
16.0
100
AcDbText
 10
704.2039473241867
 20
139.5178552329294
 30
0.0
 40
6.0
  1
Ｈ　寸　法
 72
     4
 11
721.8039473241868
 21
142.5178552329295
 31
0.0
100
AcDbText
  0
LINE
  5
488
330
1A
100
AcDbEntity
  8
SUNPOU
 62
     4
 48
16.0
100
AcDbLine
 10
662.1622706284097
 20
45.02453456479258
 30
0.0
 11
782.1623406284097
 21
45.02453456479258
 31
0.0
  0
LINE
  5
489
330
1A
100
AcDbEntity
  8
SUNPOU
 62
     4
 48
16.0
100
AcDbLine
 10
662.1622706284097
 20
60.02453456479265
 30
0.0
 11
782.1623406284097
 21
60.02453456479265
 31
0.0
  0
LINE
  5
48A
330
1A
100
AcDbEntity
  8
SUNPOU
 62
     4
 48
16.0
100
AcDbLine
 10
662.1622706284097
 20
75.0245345647927
 30
0.0
 11
782.1623406284097
 21
75.0245345647927
 31
0.0
  0
LINE
  5
48B
330
1A
100
AcDbEntity
  8
SUNPOU
 62
     4
 48
16.0
100
AcDbLine
 10
662.1622706284097
 20
90.02453456479271
 30
0.0
 11
782.1623406284097
 21
90.02453456479271
 31
0.0
  0
LINE
  5
48C
330
1A
100
AcDbEntity
  8
SUNPOU
 62
     4
 48
16.0
100
AcDbLine
 10
662.1622706284097
 20
105.0245345647927
 30
0.0
 11
782.1623406284097
 21
105.0245345647927
 31
0.0
  0
LINE
  5
48D
330
1A
100
AcDbEntity
  8
SUNPOU
 62
     4
 48
16.0
100
AcDbLine
 10
662.1622706284097
 20
120.0245945647926
 30
0.0
 11
782.1623406284097
 21
120.0245945647926
 31
0.0
  0
LINE
  5
48E
330
1A
100
AcDbEntity
  8
SUNPOU
 62
     4
 48
16.0
100
AcDbLine
 10
662.1622706284097
 20
135.0245945647925
 30
0.0
 11
782.1623406284097
 21
135.0245945647925
 31
0.0
  0
LINE
  5
48F
330
1A
100
AcDbEntity
  8
SUNPOU
 62
     4
 48
16.0
100
AcDbLine
 10
662.1622706284097
 20
150.0245945647925
 30
0.0
 11
782.1622406284095
 21
150.0245945647925
 31
0.0
  0
LINE
  5
490
330
1A
100
AcDbEntity
  8
SUNPOU
 62
     4
 48
16.0
100
AcDbLine
 10
722.1622806284097
 20
45.02453456479258
 30
0.0
 11
722.1623306284097
 21
135.0245945647925
 31
0.0
  0
LINE
  5
491
330
1A
100
AcDbEntity
  8
SUNPOU
 62
     4
 48
16.0
100
AcDbLine
 10
662.1622706284097
 20
150.0245945647925
 30
0.0
 11
662.1622606284097
 21
45.02453456479258
 31
0.0
  0
TEXT
  5
492
330
1A
100
AcDbEntity
  8
SUNPOU
 62
     4
 48
16.0
100
AcDbText
 10
680.9121606284097
 20
93.77452456479273
 30
0.0
 40
6.0
  1
H 4
 41
1.323529411764705
 72
     5
 11
698.9121606284097
 21
93.77452456479273
 31
0.0
100
AcDbText
  0
TEXT
  5
493
330
1A
100
AcDbEntity
  8
SUNPOU
 62
     4
 48
16.0
100
AcDbText
 10
680.9121606284097
 20
78.77452456479272
 30
0.0
 40
6.0
  1
H 3
 41
1.323529411764705
 72
     5
 11
698.9121606284097
 21
78.77452456479272
 31
0.0
100
AcDbText
  0
TEXT
  5
494
330
1A
100
AcDbEntity
  8
SUNPOU
 62
     4
 48
16.0
100
AcDbText
 10
680.9121106284096
 20
48.7745245647925
 30
0.0
 40
6.0
  1
H 1
 41
1.551724137931034
 72
     5
 11
698.9121106284096
 21
48.7745245647925
 31
0.0
100
AcDbText
  0
TEXT
  5
495
330
1A
100
AcDbEntity
  8
SUNPOU
 62
     4
 48
16.0
100
AcDbText
 10
680.9121106284096
 20
63.77452456479267
 30
0.0
 40
6.0
  1
H 2
 41
1.323529411764705
 72
     5
 11
698.9121106284096
 21
63.77452456479267
 31
0.0
100
AcDbText
  0
TEXT
  5
496
330
1A
100
AcDbEntity
  8
SUNPOU
 62
     4
 48
16.0
100
AcDbText
 10
680.9121634855566
 20
123.7745845647926
 30
0.0
 40
6.0
  1
呼び
 41
1.40625
 72
     5
 11
698.9121634855567
 21
123.7745845647926
 31
0.0
100
AcDbText
  0
TEXT
  5
497
330
1A
100
AcDbEntity
  8
SUNPOU
 62
     4
 48
16.0
100
AcDbText
 10
680.9122106284096
 20
108.7745245647926
 30
0.0
 40
6.0
  1
H 5
 41
1.323529411764705
 72
     5
 11
698.9122106284096
 21
108.7745245647926
 31
0.0
100
AcDbText
  0
TEXT
  5
498
330
1A
100
AcDbEntity
  8
SUNPOU
 62
     4
 48
16.0
100
AcDbText
 10
740.9122406284097
 20
93.56513223921126
 30
0.0
 40
6.0
  1
3 4
 41
1.125
100
AcDbText
  0
LINE
  5
499
330
1A
100
AcDbEntity
  8
SUNPOU
 62
     4
 48
16.0
100
AcDbLine
 10
782.1622406284095
 20
150.0245945647925
 30
0.0
 11
782.1623406284097
 21
45.02453456479258
 31
0.0
  0
TEXT
  5
49A
330
1A
100
AcDbEntity
  8
SUNPOU
 62
     4
 48
16.0
100
AcDbText
 10
740.9123406284098
 20
48.56525223921119
 30
0.0
 40
6.0
  1
4 9
 41
1.125
100
AcDbText
  0
TEXT
  5
49B
330
1A
100
AcDbEntity
  8
SUNPOU
 62
     4
 48
16.0
100
AcDbText
 10
740.9122406284097
 20
78.56513223921126
 30
0.0
 40
6.0
  1
3 9
 41
1.125
100
AcDbText
  0
TEXT
  5
49C
330
1A
100
AcDbEntity
  8
SUNPOU
 62
     4
 48
16.0
100
AcDbText
 10
740.9122406284097
 20
63.56513223921121
 30
0.0
 40
6.0
  1
4 4
 41
1.125
100
AcDbText
  0
TEXT
  5
49D
330
1A
100
AcDbEntity
  8
SUNPOU
 62
     4
 48
16.0
100
AcDbText
 10
740.9122434855564
 20
123.7744945647927
 30
0.0
 40
6.0
  1
寸法
 41
1.406250000000017
 72
     5
 11
758.9122434855567
 21
123.7744945647927
 31
0.0
100
AcDbText
  0
TEXT
  5
49E
330
1A
100
AcDbEntity
  8
SUNPOU
 62
     4
 48
16.0
100
AcDbText
 10
740.9122406284097
 20
108.5651322392112
 30
0.0
 40
6.0
  1
2 9
 41
1.125
100
AcDbText
  0
TEXT
  5
49F
330
1A
100
AcDbEntity
  8
SUNPOU
  6
CONTINUOUS
 62
     4
 48
16.0
100
AcDbText
 10
587.7495372070774
 20
256.7439821775238
 30
0.0
 40
6.0
  1
10
100
AcDbText
  0
LINE
  5
4A0
330
1A
100
AcDbEntity
  8
SUNPOU
  6
CONTINUOUS
 62
     4
 48
16.0
100
AcDbLine
 10
599.613971390174
 20
274.6294452961449
 30
0.0
 11
579.6139713901742
 21
266.6294452961449
 31
0.0
  0
LINE
  5
4A1
330
1A
100
AcDbEntity
  8
SUNPOU
  6
CONTINUOUS
 62
     4
 48
16.0
100
AcDbLine
 10
579.6139713901742
 20
266.6294452961449
 30
0.0
 11
599.613971390174
 21
266.6294452961449
 31
0.0
  0
LINE
  5
4A2
330
1A
100
AcDbEntity
  8
SUNPOU
  6
CONTINUOUS
 62
     4
 48
16.0
100
AcDbLine
 10
599.613971390174
 20
266.6294452961449
 30
0.0
 11
599.613971390174
 21
274.6294452961449
 31
0.0
  0
TEXT
  5
4A3
330
1A
100
AcDbEntity
  8
SUNPOU
  6
CONTINUOUS
 62
     4
 48
16.0
100
AcDbText
 10
604.3797713901741
 20
268.3373452961449
 30
0.0
 40
6.0
  1
4
100
AcDbText
  0
ARC
  5
4A5
330
1A
100
AcDbEntity
  8
SEIHIN
  6
CONTINUOUS
 62
     3
 48
16.0
100
AcDbCircle
 10
423.5656153329078
 20
278.4573026716797
 30
0.0
 40
1.3
100
AcDbArc
 50
0.0
 51
101.2767271155682
  0
ARC
  5
4A6
330
1A
100
AcDbEntity
  8
SEIHIN
  6
CONTINUOUS
 62
     3
 48
16.0
100
AcDbCircle
 10
423.5656153329078
 20
278.4573305979651
 30
0.0
 40
0.5
100
AcDbArc
 50
0.0
 51
101.2765684890726
  0
DIMENSION
  5
4B4
330
1A
100
AcDbEntity
  8
SUNPOU
  6
CONTINUOUS
 62
     4
100
AcDbDimension
  2
*D2
 10
309.2656153329078
 20
321.4098028114767
 30
0.0
 11
367.0656153329078
 21
326.4098028114767
 31
0.0
 12
-2.273720531277376
 22
-44.30085695393199
 32
0.0
 70
    32
  3
STANDARD
100
AcDbAlignedDimension
 13
424.8656153329078
 23
278.4573026716797
 33
0.0
 14
309.2656153329078
 24
299.5996170210691
 34
0.0
100
AcDbRotatedDimension
1001
ACAD
1000
DSTYLE
1002
{
1070
   140
1040
6.0
1070
    74
1070
     0
1070
   172
1070
     1
1070
    73
1070
     0
1070
   272
1070
     2
1070
    77
1070
     3
1070
   173
1070
     1
1070
   147
1040
2.0
1070
    42
1040
6.0
1070
    44
1040
3.0
1070
    43
1040
14.0
1070
   271
1070
     0
1070
   178
1070
     4
1070
   177
1070
     4
1070
   176
1070
     4
1070
   141
1040
150.0
1070
     7
1000
_OPEN
1070
     6
1000
_OPEN
1070
    41
1040
7.0
1002
}
  0
DIMENSION
  5
4D0
330
1A
100
AcDbEntity
  8
SUNPOU
  6
CONTINUOUS
 62
     4
100
AcDbDimension
  2
*D3
 10
558.7511950525692
 20
252.6844628230694
 30
0.0
 11
571.5637091891988
 21
234.1146087175934
 31
0.0
 12
-2.273720531277376
 22
-44.30085695393199
 32
0.0
 70
    33
  3
STANDARD
100
AcDbAlignedDimension
 13
522.8135153329078
 23
243.910917021069
 33
0.0
 14
524.7446153329078
 24
239.082817021069
 34
0.0
1001
ACAD
1000
DSTYLE
1002
{
1070
   140
1040
6.0
1070
    74
1070
     0
1070
   172
1070
     1
1070
    73
1070
     0
1070
   272
1070
     2
1070
    77
1070
     3
1070
   173
1070
     1
1070
   147
1040
2.0
1070
    42
1040
6.0
1070
    44
1040
3.0
1070
    43
1040
14.0
1070
   271
1070
     1
1070
   178
1070
     4
1070
   177
1070
     4
1070
   176
1070
     4
1070
   141
1040
150.0
1070
     7
1000
_OPEN
1070
     6
1000
_OPEN
1070
    41
1040
7.0
1002
}
  0
DIMENSION
  5
4F9
330
1A
100
AcDbEntity
  8
SUNPOU
  6
CONTINUOUS
 62
     4
100
AcDbDimension
  2
*D4
 10
563.5728927121476
 20
398.8495170210691
 30
0.0
 11
558.5728927121476
 21
376.8495170210691
 31
0.0
 12
-2.273720531277376
 22
-44.30085695393199
 32
0.0
 70
    32
  3
STANDARD
100
AcDbAlignedDimension
 13
522.7063153329079
 23
404.349517021069
 33
0.0
 14
522.7064153329079
 24
398.8495170210691
 34
0.0
 50
90.0
100
AcDbRotatedDimension
1001
ACAD
1000
DSTYLE
1002
{
1070
   140
1040
6.0
1070
    74
1070
     0
1070
   172
1070
     1
1070
    73
1070
     0
1070
   272
1070
     2
1070
    77
1070
     3
1070
   173
1070
     1
1070
   147
1040
2.0
1070
    42
1040
6.0
1070
    44
1040
3.0
1070
    43
1040
14.0
1070
   271
1070
     1
1070
   178
1070
     4
1070
   177
1070
     4
1070
   176
1070
     4
1070
   141
1040
150.0
1070
     7
1000
_OPEN
1070
     6
1000
_OPEN
1070
    41
1040
7.0
1002
}
  0
DIMENSION
  5
571
330
1A
100
AcDbEntity
  8
SUNPOU
  6
CONTINUOUS
100
AcDbDimension
  2
*D5
 10
379.276642253721
 20
145.0114378303547
 30
0.0
 11
463.304713120259
 21
184.0053527518167
 31
0.0
 12
-2.273720531277376
 22
-44.30085695393199
 32
0.0
 70
    33
  3
STANDARD
100
AcDbAlignedDimension
 13
537.7062262885086
 23
247.0673981488797
 33
0.0
 14
365.936408755927
 24
178.3644275970896
 34
0.0
1001
ACAD
1000
DSTYLE
1002
{
1070
   140
1040
6.0
1070
    74
1070
     0
1070
   172
1070
     1
1070
    73
1070
     0
1070
   272
1070
     2
1070
    77
1070
     3
1070
   173
1070
     1
1070
   147
1040
2.0
1070
    42
1040
6.0
1070
    44
1040
3.0
1070
    43
1040
14.0
1070
   271
1070
     0
1070
   178
1070
     4
1070
   177
1070
     4
1070
   176
1070
     4
1070
   141
1040
150.0
1070
     7
1000
_OPEN
1070
     6
1000
_OPEN
1070
    41
1040
7.0
1002
}
  0
POINT
  5
585
330
1A
100
AcDbEntity
  8
DEFPOINTS
  6
BYBLOCK
 62
     0
100
AcDbPoint
 10
333.5101153329078
 20
225.799517021069
 30
0.0
  0
POINT
  5
586
330
1A
100
AcDbEntity
  8
DEFPOINTS
  6
BYBLOCK
 62
     0
100
AcDbPoint
 10
363.0656153329078
 20
177.387717021069
 30
0.0
  0
DIMENSION
  5
594
330
1A
100
AcDbEntity
  8
SUNPOU
  6
CONTINUOUS
100
AcDbDimension
  2
*D6
 10
272.3847178191927
 20
226.5995670210689
 30
0.0
 11
267.3847178191926
 21
263.099592021069
 31
0.0
 70
    32
  3
STANDARD
100
AcDbAlignedDimension
 13
309.2656153329078
 23
299.5996170210691
 33
0.0
 14
333.9503153329079
 24
226.5995670210689
 34
0.0
 50
90.0
100
AcDbRotatedDimension
1001
ACAD
1000
DSTYLE
1002
{
1070
   140
1040
6.0
1070
    74
1070
     0
1070
   172
1070
     1
1070
    73
1070
     0
1070
   272
1070
     2
1070
    77
1070
     3
1070
   173
1070
     1
1070
   147
1040
2.0
1070
    42
1040
6.0
1070
    44
1040
3.0
1070
    43
1040
14.0
1070
   271
1070
     0
1070
   178
1070
     4
1070
   177
1070
     4
1070
   176
1070
     4
1070
   141
1040
150.0
1070
     7
1000
_OPEN
1070
     6
1000
_OPEN
1070
    41
1040
7.0
1002
}
  0
DIMENSION
  5
5A1
330
1A
100
AcDbEntity
  8
SUNPOU
  6
CONTINUOUS
100
AcDbDimension
  2
*D7
 10
346.4926685774126
 20
177.387717021069
 30
0.0
 11
341.4926685774125
 21
201.993642021069
 31
0.0
 70
    32
  1
H
  3
STANDARD
100
AcDbAlignedDimension
 13
333.9503153329079
 23
226.5995670210689
 33
0.0
 14
367.0656153329078
 24
177.387717021069
 34
0.0
 50
90.0
100
AcDbRotatedDimension
1001
ACAD
1000
DSTYLE
1002
{
1070
   140
1040
6.0
1070
    74
1070
     0
1070
   172
1070
     1
1070
    73
1070
     0
1070
   272
1070
     2
1070
    77
1070
     3
1070
   173
1070
     1
1070
   147
1040
2.0
1070
    42
1040
6.0
1070
    44
1040
3.0
1070
    43
1040
14.0
1070
   271
1070
     0
1070
   178
1070
     4
1070
   177
1070
     4
1070
   176
1070
     4
1070
   141
1040
150.0
1070
     7
1000
_OPEN
1070
     6
1000
_OPEN
1070
    41
1040
7.0
1002
}
  0
DIMENSION
  5
5EB
330
1A
100
AcDbEntity
  8
SUNPOU
  6
CONTINUOUS
100
AcDbDimension
  2
*D8
 10
272.500098704822
 20
389.099417021069
 30
0.0
 11
267.5000987048219
 21
401.599417021069
 31
0.0
 70
    32
  3
STANDARD
100
AcDbAlignedDimension
 13
309.2656153329078
 23
414.099417021069
 33
0.0
 14
309.2656153329078
 24
389.099417021069
 34
0.0
 50
90.0
100
AcDbRotatedDimension
1001
ACAD
1000
DSTYLE
1002
{
1070
   140
1040
6.0
1070
    74
1070
     0
1070
   172
1070
     1
1070
    73
1070
     0
1070
   272
1070
     2
1070
    77
1070
     3
1070
   173
1070
     1
1070
   147
1040
2.0
1070
    42
1040
6.0
1070
    44
1040
3.0
1070
    43
1040
14.0
1070
   271
1070
     0
1070
   178
1070
     4
1070
   177
1070
     4
1070
   176
1070
     4
1070
   141
1040
150.0
1070
     7
1000
_OPEN
1070
     6
1000
_OPEN
1070
    41
1040
7.0
1002
}
  0
LINE
  5
5F0
330
1A
100
AcDbEntity
  8
SEIHIN
  6
CONTINUOUS
 62
     3
 48
16.0
100
AcDbLine
 10
310.0656153329079
 20
393.0995170210691
 30
0.0
 11
309.2657153329078
 21
393.0995170210691
 31
0.0
  0
LINE
  5
5F2
330
1A
100
AcDbEntity
  8
SEIHIN
  6
CONTINUOUS
 62
     3
 48
16.0
100
AcDbLine
 10
310.0656153329079
 20
410.099417021069
 30
0.0
 11
309.2657153329078
 21
410.099417021069
 31
0.0
  0
ARC
  5
617
330
1A
100
AcDbEntity
  8
SEIHIN
  6
CONTINUOUS
 62
     3
100
AcDbCircle
 10
211.4512304876283
 20
237.4377060117097
 30
0.0
 40
3.00527537520096
100
AcDbArc
 50
183.3953591556151
 51
356.6046408443849
  0
ARC
  5
618
330
1A
100
AcDbEntity
  8
SEIHIN
  6
CONTINUOUS
 62
     3
100
AcDbCircle
 10
221.4511997224568
 20
237.4377060117097
 30
0.0
 40
3.00527537520096
100
AcDbArc
 50
183.3953591556151
 51
356.6046408443849
  0
ARC
  5
619
330
1A
100
AcDbEntity
  8
SEIHIN
  6
CONTINUOUS
 62
     3
 48
16.0
100
AcDbCircle
 10
316.8988153329078
 20
396.5995170209123
 30
0.0
 40
2.500000000000085
100
AcDbArc
 50
90.0
 51
270.0
  0
ARC
  5
61A
330
1A
100
AcDbEntity
  8
SEIHIN
  6
CONTINUOUS
 62
     3
 48
16.0
100
AcDbCircle
 10
316.8988153329077
 20
396.5995170209126
 30
0.0
 40
2.5
100
AcDbArc
 50
90.0
 51
270.0
  0
ARC
  5
61B
330
1A
100
AcDbEntity
  8
SEIHIN
  6
CONTINUOUS
 62
     3
 48
16.0
100
AcDbCircle
 10
316.8988153329078
 20
406.5994170209124
 30
0.0
 40
2.5
100
AcDbArc
 50
90.0
 51
270.0
  0
ARC
  5
61C
330
1A
100
AcDbEntity
  8
SEIHIN
  6
CONTINUOUS
 62
     3
 48
16.0
100
AcDbCircle
 10
316.8988153329077
 20
406.5994170209125
 30
0.0
 40
2.5
100
AcDbArc
 50
90.0
 51
270.0
  0
ARC
  5
61E
330
1A
100
AcDbEntity
  8
SEIHIN
  6
CONTINUOUS
100
AcDbCircle
 10
336.5702153329077
 20
396.5994170209124
 30
0.0
 40
3.625000000000041
100
AcDbArc
 50
136.3971810272969
 51
223.602818972703
  0
ARC
  5
61F
330
1A
100
AcDbEntity
  8
SEIHIN
  6
CONTINUOUS
100
AcDbCircle
 10
323.8475296186219
 20
396.5994170209124
 30
0.0
 40
2.660714285714282
100
AcDbArc
 50
110.0159596028825
 51
249.9840403971174
  0
ARC
  5
620
330
1A
100
AcDbEntity
  8
SEIHIN
  6
CONTINUOUS
100
AcDbCircle
 10
336.5702153329077
 20
406.5994170209124
 30
0.0
 40
3.625000000000041
100
AcDbArc
 50
136.3971810272969
 51
223.602818972703
  0
ARC
  5
621
330
1A
100
AcDbEntity
  8
SEIHIN
  6
CONTINUOUS
100
AcDbCircle
 10
323.8475296186219
 20
406.5994170209124
 30
0.0
 40
2.660714285714282
100
AcDbArc
 50
110.0159596028825
 51
249.9840403971174
  0
ARC
  5
623
330
1A
100
AcDbEntity
  8
SEIHIN
  6
CONTINUOUS
100
AcDbCircle
 10
397.561215332908
 20
396.5994170209124
 30
0.0
 40
3.625000000000041
100
AcDbArc
 50
316.397181027297
 51
43.60281897270302
  0
ARC
  5
624
330
1A
100
AcDbEntity
  8
SEIHIN
  6
CONTINUOUS
100
AcDbCircle
 10
410.2839010471937
 20
396.5994170209124
 30
0.0
 40
2.660714285714282
100
AcDbArc
 50
290.0159596028825
 51
69.98404039711745
  0
ARC
  5
62D
330
1A
100
AcDbEntity
  8
SEIHIN
  6
CONTINUOUS
100
AcDbCircle
 10
397.561215332908
 20
406.5994170209124
 30
0.0
 40
3.625000000000041
100
AcDbArc
 50
316.397181027297
 51
43.60281897270302
  0
ARC
  5
62E
330
1A
100
AcDbEntity
  8
SEIHIN
  6
CONTINUOUS
100
AcDbCircle
 10
410.2839010471937
 20
406.5994170209124
 30
0.0
 40
2.660714285714282
100
AcDbArc
 50
290.0159596028825
 51
69.98404039711745
  0
LINE
  5
637
330
1A
100
AcDbEntity
  8
SEIHIN
  6
CONTINUOUS
 62
     3
 48
16.0
100
AcDbLine
 10
208.4511997224568
 20
237.259717021069
 30
0.0
 11
205.4511997224568
 21
237.259717021069
 31
0.0
  0
LINE
  5
638
330
1A
100
AcDbEntity
  8
SEIHIN
  6
CONTINUOUS
 62
     3
 48
16.0
100
AcDbLine
 10
224.4511997224568
 20
237.259717021069
 30
0.0
 11
227.4511997224568
 21
237.259717021069
 31
0.0
  0
LWPOLYLINE
  5
75F
330
1A
100
AcDbEntity
  8
ZUWAKU
100
AcDbPolyline
 90
        4
 70
     1
 43
0.0
 10
0.199999905298796
 20
551.4000006499594
 10
0.199999905298796
 20
0.2000006499594065
 10
797.3999999052987
 20
0.2000006499594296
 10
797.3999999052989
 20
551.4000006499594
  0
LWPOLYLINE
  5
760
330
1A
100
AcDbEntity
  8
ZUWAKU
100
AcDbPolyline
 90
        4
 70
     1
 43
0.0
 10
0.5999999052987733
 20
551.0000006499594
 10
0.5999999052987733
 20
0.6000006499593838
 10
796.9999999052991
 20
0.60000064995943
 10
796.9999999052988
 20
551.0000006499594
  0
LWPOLYLINE
  5
761
330
1A
100
AcDbEntity
  8
ZUWAKU
100
AcDbPolyline
 90
        4
 70
     1
 43
0.0
 10
-0.0000000947011358
 20
551.6000006499593
 10
-0.0000000947011358
 20
0.000000649959361
 10
797.599999905299
 20
0.0000006499594285
 10
797.599999905299
 20
551.6000006499594
  0
LWPOLYLINE
  5
762
330
1A
100
AcDbEntity
  8
ZUWAKU
100
AcDbPolyline
 90
        4
 70
     1
 43
0.0
 10
0.3999999052988414
 20
551.2000006499594
 10
0.3999999052988414
 20
0.400000649959452
 10
797.1999999052989
 20
0.4000006499594289
 10
797.1999999052989
 20
551.2000006499594
  0
LWPOLYLINE
  5
763
330
1A
100
AcDbEntity
  8
ZUWAKU
100
AcDbPolyline
 90
        4
 70
     1
 43
0.0
 10
0.7999999052988187
 20
550.8000006499594
 10
0.7999999052988187
 20
0.8000006499594292
 10
796.7999999052988
 20
0.8000006499594292
 10
796.7999999052988
 20
550.8000006499594
  0
LINE
  5
764
330
1A
100
AcDbEntity
  8
ZUWAKU
100
AcDbLine
 10
208.6466011953668
 20
15.20000064995939
 30
0.0
 11
447.4243638762902
 21
15.20000064995939
 31
0.0
  0
LINE
  5
765
330
1A
100
AcDbEntity
  8
ZUWAKU
100
AcDbLine
 10
208.6466011953668
 20
15.60000064995939
 30
0.0
 11
447.4243638762902
 21
15.6000006499594
 31
0.0
  0
LINE
  5
766
330
1A
100
AcDbEntity
  8
ZUWAKU
100
AcDbLine
 10
208.6466011953668
 20
15.40000064995939
 30
0.0
 11
447.4243638762902
 21
15.40000064995939
 31
0.0
  0
LINE
  5
767
330
1A
100
AcDbEntity
  8
ZUWAKU
100
AcDbLine
 10
-0.0000000947011358
 20
30.80000064995937
 30
0.0
 11
797.3999999052987
 21
30.80000064995937
 31
0.0
  0
LINE
  5
768
330
1A
100
AcDbEntity
  8
ZUWAKU
100
AcDbLine
 10
-0.0000000947011358
 20
30.60000064995937
 30
0.0
 11
797.3999999052987
 21
30.60000064995937
 31
0.0
  0
LINE
  5
769
330
1A
100
AcDbEntity
  8
ZUWAKU
100
AcDbLine
 10
-0.0000000947011358
 20
30.40000064995936
 30
0.0
 11
797.3999999052987
 21
30.40000064995936
 31
0.0
  0
LINE
  5
76A
330
1A
100
AcDbEntity
  8
ZUWAKU
100
AcDbLine
 10
-0.0000000947011358
 20
30.20000064995936
 30
0.0
 11
797.3999999052987
 21
30.20000064995936
 31
0.0
  0
LINE
  5
76B
330
1A
100
AcDbEntity
  8
ZUWAKU
100
AcDbLine
 10
-0.0000000947011358
 20
30.00000064995936
 30
0.0
 11
797.3999999052987
 21
30.00000064995936
 31
0.0
  0
TEXT
  5
76C
330
1A
100
AcDbEntity
  8
MOJI
100
AcDbText
 10
92.957789493468
 20
12.74117878023412
 30
0.0
 40
6.0
  1
ライナートップＸ７０Ｕ
 41
0.9
  7
ｽﾀｲﾙ1
100
AcDbText
  0
HATCH
  5
76D
330
1A
100
AcDbEntity
  8
ZUWAKU
100
AcDbHatch
 10
0.0
 20
0.0
 30
0.0
210
0.0
220
0.0
230
1.0
  2
ANSI37
 70
     0
 71
     0
 91
        8
 92
        7
 72
     1
 73
     1
 93
       24
 10
14.50226256641872
 20
17.64484913094294
 42
-0.1989123673796348
 10
14.09221206007998
 20
18.63479862460399
 42
0.0
 10
14.09221206007998
 20
19.92500064995937
 42
-0.4142135623730912
 10
14.61721206007996
 20
20.45000064995936
 42
0.0
 10
17.59221206007987
 20
20.45000064995936
 42
0.4142135623731546
 10
18.11721206007996
 20
20.97500064995935
 42
0.0
 10
18.11721206007996
 20
22.72500064995937
 42
0.4142135623731586
 10
17.59221206007987
 20
23.25000064995936
 42
0.0
 10
14.09221206007998
 20
23.25000064995936
 42
0.4142135623730928
 10
11.29221206008003
 20
20.45000064995939
 42
0.0
 10
11.29221206008003
 20
18.63479862460412
 42
0.1989123673796619
 10
12.52236357909646
 20
15.66495014362051
 42
0.0
 10
15.43216155374113
 20
12.75515216897585
 42
-0.1989123673796613
 10
15.84221206007998
 20
11.76520267531467
 42
0.0
 10
15.84221206007998
 20
10.47500064995935
 42
-0.4142135623730911
 10
15.31721206008
 20
9.950000649959363
 42
0.0
 10
12.3422120600801
 20
9.950000649959363
 42
0.4142135623731526
 10
11.81721206008001
 20
9.425000649959375
 42
0.0
 10
11.81721206008001
 20
7.675000649959354
 42
0.4142135623731526
 10
12.3422120600801
 20
7.150000649959366
 42
0.0
 10
15.84221206007998
 20
7.150000649959366
 42
0.4142135623731044
 10
18.64221206008005
 20
9.950000649959342
 42
0.0
 10
18.64221206008005
 20
11.76520267531461
 42
0.1989123673796604
 10
17.41206054106351
 20
14.73505115629815
 42
0.0
 97
        0
 92
        7
 72
     1
 73
     1
 93
       16
 10
23.54221206008003
 20
19.05000064995937
 42
-0.4142135623730935
 10
24.94221206008001
 20
20.45000064995936
 42
0.0
 10
26.86721206007996
 20
20.45000064995936
 42
0.4142135623731546
 10
27.39221206008005
 20
20.97500064995935
 42
0.0
 10
27.39221206008005
 20
22.72500064995937
 42
0.4142135623730951
 10
26.86721206008007
 20
23.25000064995936
 42
0.0
 10
24.94221206007989
 20
23.25000064995932
 42
0.4142135623730892
 10
20.74221206007996
 20
19.0500006499593
 42
0.0
 10
20.74221206007996
 20
11.35000064995939
 42
0.4142135623730969
 10
24.94221206008001
 20
7.150000649959366
 42
0.0
 10
26.86721206007996
 20
7.150000649959366
 42
0.4142135623731526
 10
27.39221206008005
 20
7.675000649959354
 42
0.0
 10
27.39221206008005
 20
9.425000649959375
 42
0.4142135623730891
 10
26.86721206008007
 20
9.950000649959363
 42
0.0
 10
24.94221206008001
 20
9.950000649959363
 42
-0.4142135623730928
 10
23.54221206008003
 20
11.35000064995935
 42
0.0
 97
        0
 92
        7
 72
     1
 73
     1
 93
        2
 10
24.24221206007996
 20
15.20000064995936
 42
1.0
 10
27.74221206007996
 20
15.20000064995936
 42
1.0
 97
        0
 92
        7
 72
     1
 73
     1
 93
       26
 10
37.31485854225798
 20
19.20504784352279
 42
0.0
 10
38.37649817539579
 20
22.56690668179238
 42
0.5069206636600134
 10
37.87586727620043
 20
23.25000064995936
 42
0.0
 10
36.17697789659121
 20
23.25000064995936
 42
0.3272098845218764
 10
35.67634699739585
 20
22.88309461812633
 42
0.0
 10
33.80807712276407
 20
16.96690668179244
 42
-0.3272098845219541
 10
33.3074462235686
 20
16.60000064995936
 42
0.0
 10
33.16721206008014
 20
16.60000064995936
 42
-0.4142135623731526
 10
32.64221206008005
 20
17.12500064995935
 42
0.0
 10
32.64221206008005
 20
22.72500064995937
 42
0.4142135623730951
 10
32.11721206008007
 20
23.25000064995936
 42
0.0
 10
30.36721206007996
 20
23.25000064995936
 42
0.4142135623730871
 10
29.84221206007998
 20
22.72500064995938
 42
0.0
 10
29.84221206007998
 20
7.675000649959354
 42
0.4142135623730891
 10
30.36721206007996
 20
7.150000649959366
 42
0.0
 10
32.11721206007996
 20
7.150000649959366
 42
0.4142135623731526
 10
32.64221206008005
 20
7.675000649959354
 42
0.0
 10
32.64221206008005
 20
13.27500064995937
 42
-0.4142135623731526
 10
33.16721206008014
 20
13.80000064995936
 42
0.0
 10
33.30744622356871
 20
13.80000064995936
 42
-0.3272098845218915
 10
33.80807712276407
 20
13.43309461812629
 42
0.0
 10
35.67634699739585
 20
7.516906681792438
 42
0.3272098845218902
 10
36.17697789659121
 20
7.150000649959366
 42
0.0
 10
37.87586727620043
 20
7.150000649959366
 42
0.5069206636600335
 10
38.37649817539579
 20
7.833094618126374
 42
0.0
 10
36.05010679692213
 20
15.2000006499595
 42
0.0
 97
        0
 92
        7
 72
     1
 73
     1
 93
        8
 10
43.49221206007996
 20
22.72500064995937
 42
0.4142135623731546
 10
42.96721206007987
 20
23.25000064995936
 42
0.0
 10
41.2172120600801
 20
23.25000064995936
 42
0.4142135623731507
 10
40.69221206008001
 20
22.72500064995938
 42
0.0
 10
40.69221206008001
 20
7.675000649959354
 42
0.4142135623731526
 10
41.2172120600801
 20
7.150000649959366
 42
0.0
 10
42.96721206007987
 20
7.150000649959366
 42
0.4142135623731526
 10
43.49221206007996
 20
7.675000649959354
 42
0.0
 97
        0
 92
        7
 72
     1
 73
     1
 93
       24
 10
48.39221206008005
 20
19.92500064995937
 42
-0.4142135623731546
 10
48.91721206008014
 20
20.45000064995936
 42
0.0
 10
51.89221206008006
 20
20.45000064995936
 42
0.4142135623730911
 10
52.41721206008003
 20
20.97500064995935
 42
0.0
 10
52.41721206008003
 20
22.72500064995937
 42
0.4142135623730952
 10
51.89221206008006
 20
23.25000064995936
 42
0.0
 10
48.39221206008005
 20
23.25000064995936
 42
0.4142135623731048
 10
45.59221206007999
 20
20.45000064995939
 42
0.0
 10
45.59221206007999
 20
18.63479862460412
 42
0.1989123673796613
 10
46.82236357909653
 20
15.66495014362057
 42
0.0
 10
49.73216155374121
 20
12.7551521689759
 42
-0.1989123673796402
 10
50.14221206008006
 20
11.76520267531483
 42
0.0
 10
50.14221206008006
 20
10.47500064995935
 42
-0.4142135623730911
 10
49.61721206008007
 20
9.950000649959363
 42
0.0
 10
46.64221206008005
 20
9.950000649959363
 42
0.4142135623731526
 10
46.11721206007996
 20
9.425000649959375
 42
0.0
 10
46.11721206007996
 20
7.675000649959354
 42
0.4142135623730891
 10
46.64221206007994
 20
7.150000649959366
 42
0.0
 10
50.14221206008006
 20
7.150000649959366
 42
0.4142135623730925
 10
52.94221206008001
 20
9.950000649959342
 42
0.0
 10
52.94221206008001
 20
11.76520267531461
 42
0.1989123673796675
 10
51.71206054106346
 20
14.73505115629826
 42
0.0
 10
48.8022625664189
 20
17.64484913094278
 42
-0.1989123673796652
 10
48.39221206008005
 20
18.63479862460395
 42
0.0
 97
        0
 92
        7
 72
     1
 73
     1
 93
       16
 10
57.84221206007998
 20
22.72500064995935
 42
0.414213562373103
 10
57.31721206008001
 20
23.25000064995936
 42
0.0
 10
55.56721206008001
 20
23.25000064995936
 42
0.4142135623730871
 10
55.04221206008003
 20
22.72500064995938
 42
0.0
 10
55.04221206008003
 20
9.950000649959342
 42
0.4142135623730926
 10
57.84221206007998
 20
7.150000649959366
 42
0.0
 10
61.34221206007999
 20
7.150000649959366
 42
0.4142135623731044
 10
64.14221206008005
 20
9.950000649959342
 42
0.0
 10
64.14221206008005
 20
22.72500064995937
 42
0.4142135623730951
 10
63.61721206008008
 20
23.25000064995936
 42
0.0
 10
61.86721206007996
 20
23.25000064995936
 42
0.4142135623730871
 10
61.34221206007999
 20
22.72500064995938
 42
0.0
 10
61.34221206007999
 20
11.00000064995934
 42
-0.414213562373088
 10
60.29221206008003
 20
9.950000649959363
 42
0.0
 10
58.89221206008006
 20
9.950000649959363
 42
-0.4142135623731197
 10
57.84221206007998
 20
11.00000064995934
 42
0.0
 97
        0
 92
        7
 72
     1
 73
     1
 93
        8
 10
69.04221206008003
 20
22.72500064995938
 42
0.4142135623730871
 10
68.51721206008005
 20
23.25000064995936
 42
0.0
 10
66.76721206008005
 20
23.25000064995936
 42
0.4142135623731507
 10
66.24221206007996
 20
22.72500064995938
 42
0.0
 10
66.24221206007996
 20
7.675000649959354
 42
0.4142135623730891
 10
66.76721206007994
 20
7.150000649959366
 42
0.0
 10
68.51721206008005
 20
7.150000649959366
 42
0.4142135623730891
 10
69.04221206008003
 20
7.675000649959354
 42
0.0
 97
        0
 75
     0
 76
     1
 52
0.0
 41
0.2
 77
     0
 78
     2
 53
45.0
 43
-900.94230442938
 44
-13.19999935004057
 45
-0.4490128060534576
 46
0.4490128060534577
 79
     0
 53
135.0
 43
-900.94230442938
 44
-13.19999935004057
 45
-0.4490128060534577
 46
-0.4490128060534576
 79
     0
 47
0.057451373970553
 98
        8
 10
16.07985486832217
 20
15.16717429584491
 10
22.40451491173803
 20
18.84406283241037
 10
25.16436779095852
 20
15.51188229603008
 10
30.914059886936
 20
16.20129829640086
 10
41.8384719242556
 20
16.66091056394248
 10
46.89820080042841
 20
19.41857696636657
 10
56.55768587769921
 20
18.72915856505437
 10
67.8270795249216
 20
19.18877083259599
  0
LINE
  5
76E
330
1A
100
AcDbEntity
  8
ZUWAKU
100
AcDbLine
 10
24.94221206008001
 20
23.25000064995932
 30
0.0
 11
26.86721206007996
 21
23.25000064995936
 31
0.0
  0
LINE
  5
76F
330
1A
100
AcDbEntity
  8
ZUWAKU
100
AcDbLine
 10
26.86721206007996
 20
20.45000064995936
 30
0.0
 11
24.94221206008001
 21
20.45000064995936
 31
0.0
  0
LINE
  5
770
330
1A
100
AcDbEntity
  8
ZUWAKU
100
AcDbLine
 10
24.94221206008001
 20
9.950000649959363
 30
0.0
 11
26.86721206007996
 21
9.950000649959363
 31
0.0
  0
LINE
  5
771
330
1A
100
AcDbEntity
  8
ZUWAKU
100
AcDbLine
 10
26.86721206007996
 20
7.150000649959366
 30
0.0
 11
24.94221206008001
 21
7.150000649959366
 31
0.0
  0
CIRCLE
  5
772
330
1A
100
AcDbEntity
  8
ZUWAKU
100
AcDbCircle
 10
25.99221206007996
 20
15.20000064995936
 30
0.0
 40
1.75
  0
ARC
  5
773
330
1A
100
AcDbEntity
  8
ZUWAKU
100
AcDbCircle
 10
15.49221206007996
 20
18.63479862460406
 30
0.0
 40
1.399999999999999
100
AcDbArc
 50
180.0000000000016
 51
224.9999999999988
  0
LINE
  5
774
330
1A
100
AcDbEntity
  8
ZUWAKU
100
AcDbLine
 10
23.54221206008003
 20
19.05000064995936
 30
0.0
 11
23.54221206008003
 21
11.35000064995937
 31
0.0
  0
LINE
  5
775
330
1A
100
AcDbEntity
  8
ZUWAKU
100
AcDbLine
 10
20.74221206007996
 20
11.35000064995937
 30
0.0
 11
20.74221206007996
 21
19.05000064995932
 31
0.0
  0
ARC
  5
776
330
1A
100
AcDbEntity
  8
ZUWAKU
100
AcDbCircle
 10
15.49221206007996
 20
18.63479862460406
 30
0.0
 40
4.199999999999999
100
AcDbArc
 50
180.0
 51
225.0
  0
ARC
  5
777
330
1A
100
AcDbEntity
  8
ZUWAKU
100
AcDbCircle
 10
15.84221206007998
 20
9.950000649959363
 30
0.0
 40
2.799999999999999
100
AcDbArc
 50
270.0
 51
0.0
  0
ARC
  5
778
330
1A
100
AcDbEntity
  8
ZUWAKU
100
AcDbCircle
 10
24.94221206008001
 20
11.35000064995937
 30
0.0
 40
4.199999999999999
100
AcDbArc
 50
180.0
 51
270.0
  0
ARC
  5
779
330
1A
100
AcDbEntity
  8
ZUWAKU
100
AcDbCircle
 10
14.44221206008001
 20
11.76520267531466
 30
0.0
 40
4.199999999999999
100
AcDbArc
 50
0.0
 51
45.0
  0
LINE
  5
77A
330
1A
100
AcDbEntity
  8
ZUWAKU
100
AcDbLine
 10
17.41206054106351
 20
14.73505115629819
 30
0.0
 11
14.50226256641883
 21
17.64484913094286
 31
0.0
  0
LINE
  5
77B
330
1A
100
AcDbEntity
  8
ZUWAKU
100
AcDbLine
 10
15.84221206007998
 20
10.47500064995936
 30
0.0
 11
15.84221206007998
 21
11.76520267531471
 31
0.0
  0
ARC
  5
77C
330
1A
100
AcDbEntity
  8
ZUWAKU
100
AcDbCircle
 10
15.31721206008
 20
10.47500064995936
 30
0.0
 40
0.525
100
AcDbArc
 50
270.0
 51
0.0
  0
ARC
  5
77D
330
1A
100
AcDbEntity
  8
ZUWAKU
100
AcDbCircle
 10
14.44221206008001
 20
11.76520267531471
 30
0.0
 40
1.399999999999999
100
AcDbArc
 50
0.0
 51
45.0
  0
LINE
  5
77E
330
1A
100
AcDbEntity
  8
ZUWAKU
100
AcDbLine
 10
11.81721206008001
 20
7.675000649959365
 30
0.0
 11
11.81721206008001
 21
9.425000649959365
 31
0.0
  0
ARC
  5
77F
330
1A
100
AcDbEntity
  8
ZUWAKU
100
AcDbCircle
 10
12.34221206007998
 20
7.675000649959365
 30
0.0
 40
0.525
100
AcDbArc
 50
180.0
 51
270.0
  0
ARC
  5
780
330
1A
100
AcDbEntity
  8
ZUWAKU
100
AcDbCircle
 10
12.34221206007998
 20
9.425000649959365
 30
0.0
 40
0.525
100
AcDbArc
 50
90.0
 51
180.0
  0
LINE
  5
781
330
1A
100
AcDbEntity
  8
ZUWAKU
100
AcDbLine
 10
12.34221206007998
 20
7.150000649959366
 30
0.0
 11
15.84221206007998
 21
7.150000649959366
 31
0.0
  0
LINE
  5
782
330
1A
100
AcDbEntity
  8
ZUWAKU
100
AcDbLine
 10
12.34221206007998
 20
9.950000649959363
 30
0.0
 11
15.31721206008
 21
9.950000649959363
 31
0.0
  0
LINE
  5
783
330
1A
100
AcDbEntity
  8
ZUWAKU
100
AcDbLine
 10
12.52236357909646
 20
15.66495014362054
 30
0.0
 11
15.43216155374113
 21
12.75515216897588
 31
0.0
  0
LINE
  5
784
330
1A
100
AcDbEntity
  8
ZUWAKU
100
AcDbLine
 10
18.64221206008005
 20
9.950000649959363
 30
0.0
 11
18.64221206008005
 21
11.76520267531471
 31
0.0
  0
ARC
  5
785
330
1A
100
AcDbEntity
  8
ZUWAKU
100
AcDbCircle
 10
24.94221206008001
 20
11.35000064995937
 30
0.0
 40
1.399999999999999
100
AcDbArc
 50
180.0
 51
270.0
  0
ARC
  5
786
330
1A
100
AcDbEntity
  8
ZUWAKU
100
AcDbCircle
 10
17.59221206007998
 20
22.72500064995936
 30
0.0
 40
0.525
100
AcDbArc
 50
0.0
 51
90.0
  0
ARC
  5
787
330
1A
100
AcDbEntity
  8
ZUWAKU
100
AcDbCircle
 10
17.59221206007998
 20
20.97500064995936
 30
0.0
 40
0.525
100
AcDbArc
 50
270.0
 51
0.0
  0
LINE
  5
788
330
1A
100
AcDbEntity
  8
ZUWAKU
100
AcDbLine
 10
14.09221206007998
 20
23.25000064995936
 30
0.0
 11
17.59221206007998
 21
23.25000064995936
 31
0.0
  0
ARC
  5
789
330
1A
100
AcDbEntity
  8
ZUWAKU
100
AcDbCircle
 10
14.61721206007996
 20
19.92500064995936
 30
0.0
 40
0.525
100
AcDbArc
 50
90.0
 51
180.0
  0
LINE
  5
78A
330
1A
100
AcDbEntity
  8
ZUWAKU
100
AcDbLine
 10
14.09221206007998
 20
19.92500064995936
 30
0.0
 11
14.09221206007998
 21
18.63479862460402
 31
0.0
  0
LINE
  5
78B
330
1A
100
AcDbEntity
  8
ZUWAKU
100
AcDbLine
 10
17.59221206007998
 20
20.45000064995936
 30
0.0
 11
14.61721206007996
 21
20.45000064995936
 31
0.0
  0
LINE
  5
78C
330
1A
100
AcDbEntity
  8
ZUWAKU
100
AcDbLine
 10
11.29221206008003
 20
20.45000064995936
 30
0.0
 11
11.29221206008003
 21
18.63479862460402
 31
0.0
  0
ARC
  5
78D
330
1A
100
AcDbEntity
  8
ZUWAKU
100
AcDbCircle
 10
14.09221206007998
 20
20.45000064995936
 30
0.0
 40
2.799999999999999
100
AcDbArc
 50
90.0
 51
180.0
  0
LINE
  5
78E
330
1A
100
AcDbEntity
  8
ZUWAKU
100
AcDbLine
 10
18.11721206007996
 20
22.72500064995936
 30
0.0
 11
18.11721206007996
 21
20.97500064995936
 31
0.0
  0
ARC
  5
78F
330
1A
100
AcDbEntity
  8
ZUWAKU
100
AcDbCircle
 10
24.94221206008001
 20
19.05000064995936
 30
0.0
 40
1.399999999999999
100
AcDbArc
 50
90.0
 51
180.0
  0
ARC
  5
790
330
1A
100
AcDbEntity
  8
ZUWAKU
100
AcDbCircle
 10
24.94221206008001
 20
19.05000064995932
 30
0.0
 40
4.199999999999999
100
AcDbArc
 50
90.0
 51
180.0
  0
LINE
  5
791
330
1A
100
AcDbEntity
  8
ZUWAKU
100
AcDbLine
 10
79.32662945328707
 20
30.00000064995936
 30
0.0
 11
79.32662945328729
 21
0.8000006499594292
 31
0.0
  0
LINE
  5
792
330
1A
100
AcDbEntity
  8
ZUWAKU
100
AcDbLine
 10
79.52662945328711
 20
30.00000064995936
 30
0.0
 11
79.52662945328734
 21
0.8000006499594292
 31
0.0
  0
LINE
  5
793
330
1A
100
AcDbEntity
  8
ZUWAKU
100
AcDbLine
 10
79.12662945328725
 20
30.00000064995936
 30
0.0
 11
79.12662945328725
 21
0.8000006499594292
 31
0.0
  0
LINE
  5
794
330
1A
100
AcDbEntity
  8
ZUWAKU
100
AcDbLine
 10
64.14221206008005
 20
9.950000649959363
 30
0.0
 11
64.14221206008005
 21
22.72500064995936
 31
0.0
  0
LINE
  5
795
330
1A
100
AcDbEntity
  8
ZUWAKU
100
AcDbLine
 10
61.34221206007999
 20
22.72500064995936
 30
0.0
 11
61.34221206007999
 21
11.00000064995936
 31
0.0
  0
LINE
  5
796
330
1A
100
AcDbEntity
  8
ZUWAKU
100
AcDbLine
 10
69.04221206008003
 20
7.675000649959365
 30
0.0
 11
69.04221206008003
 21
22.72500064995936
 31
0.0
  0
LINE
  5
797
330
1A
100
AcDbEntity
  8
ZUWAKU
100
AcDbLine
 10
66.24221206007996
 20
22.72500064995936
 30
0.0
 11
66.24221206007996
 21
7.675000649959365
 31
0.0
  0
ARC
  5
798
330
1A
100
AcDbEntity
  8
ZUWAKU
100
AcDbCircle
 10
49.79221206008003
 20
18.63479862460406
 30
0.0
 40
1.399999999999999
100
AcDbArc
 50
180.0000000000016
 51
224.9999999999988
  0
ARC
  5
799
330
1A
100
AcDbEntity
  8
ZUWAKU
100
AcDbCircle
 10
49.79221206008003
 20
18.63479862460406
 30
0.0
 40
4.199999999999999
100
AcDbArc
 50
180.0
 51
225.0
  0
LINE
  5
79A
330
1A
100
AcDbEntity
  8
ZUWAKU
100
AcDbLine
 10
37.31485854225798
 20
19.20504784352279
 30
0.0
 11
36.05010679692213
 21
15.20000064995938
 31
0.0
  0
LINE
  5
79B
330
1A
100
AcDbEntity
  8
ZUWAKU
100
AcDbLine
 10
40.69221206008001
 20
22.72500064995936
 30
0.0
 11
40.69221206008001
 21
7.675000649959365
 31
0.0
  0
LINE
  5
79C
330
1A
100
AcDbEntity
  8
ZUWAKU
100
AcDbLine
 10
43.49221206007996
 20
7.675000649959365
 30
0.0
 11
43.49221206007996
 21
22.72500064995936
 31
0.0
  0
LINE
  5
79D
330
1A
100
AcDbEntity
  8
ZUWAKU
100
AcDbLine
 10
55.04221206008003
 20
22.72500064995936
 30
0.0
 11
55.04221206008003
 21
9.950000649959363
 31
0.0
  0
LINE
  5
79E
330
1A
100
AcDbEntity
  8
ZUWAKU
100
AcDbLine
 10
57.84221206007998
 20
11.00000064995936
 30
0.0
 11
57.84221206007998
 21
22.72500064995936
 31
0.0
  0
LINE
  5
79F
330
1A
100
AcDbEntity
  8
ZUWAKU
100
AcDbLine
 10
32.64221206008005
 20
17.12500064995936
 30
0.0
 11
32.64221206008005
 21
22.72500064995936
 31
0.0
  0
LINE
  5
7A0
330
1A
100
AcDbEntity
  8
ZUWAKU
100
AcDbLine
 10
29.84221206007998
 20
22.72500064995936
 30
0.0
 11
29.84221206007998
 21
7.675000649959365
 31
0.0
  0
LINE
  5
7A1
330
1A
100
AcDbEntity
  8
ZUWAKU
100
AcDbLine
 10
35.67634699739585
 20
22.88309461812633
 30
0.0
 11
33.80807712276407
 21
16.96690668179239
 31
0.0
  0
LINE
  5
7A2
330
1A
100
AcDbEntity
  8
ZUWAKU
100
AcDbLine
 10
60.29221206008003
 20
9.950000649959363
 30
0.0
 11
58.89221206008006
 21
9.950000649959363
 31
0.0
  0
LINE
  5
7A3
330
1A
100
AcDbEntity
  8
ZUWAKU
100
AcDbLine
 10
57.84221206007998
 20
7.150000649959366
 30
0.0
 11
61.34221206007999
 21
7.150000649959366
 31
0.0
  0
LINE
  5
7A4
330
1A
100
AcDbEntity
  8
ZUWAKU
100
AcDbLine
 10
41.21721206007999
 20
7.150000649959366
 30
0.0
 11
42.96721206007998
 21
7.150000649959366
 31
0.0
  0
LINE
  5
7A5
330
1A
100
AcDbEntity
  8
ZUWAKU
100
AcDbLine
 10
35.67634699739585
 20
7.516906681792391
 30
0.0
 11
33.80807712276407
 21
13.43309461812633
 31
0.0
  0
ARC
  5
7A6
330
1A
100
AcDbEntity
  8
ZUWAKU
100
AcDbCircle
 10
33.30744622356871
 20
17.12500064995936
 30
0.0
 40
0.525
100
AcDbArc
 50
270.0
 51
342.4744316262769
  0
LINE
  5
7A7
330
1A
100
AcDbEntity
  8
ZUWAKU
100
AcDbLine
 10
33.30744622356871
 20
16.60000064995936
 30
0.0
 11
33.16721206008003
 21
16.60000064995936
 31
0.0
  0
LINE
  5
7A8
330
1A
100
AcDbEntity
  8
ZUWAKU
100
AcDbLine
 10
33.16721206008003
 20
13.80000064995936
 30
0.0
 11
33.30744622356871
 21
13.80000064995936
 31
0.0
  0
ARC
  5
7A9
330
1A
100
AcDbEntity
  8
ZUWAKU
100
AcDbCircle
 10
33.16721206008003
 20
17.12500064995936
 30
0.0
 40
0.525
100
AcDbArc
 50
180.0
 51
270.0
  0
LINE
  5
7AA
330
1A
100
AcDbEntity
  8
ZUWAKU
100
AcDbLine
 10
30.36721206007996
 20
7.150000649959366
 30
0.0
 11
32.11721206007996
 21
7.150000649959366
 31
0.0
  0
ARC
  5
7AB
330
1A
100
AcDbEntity
  8
ZUWAKU
100
AcDbCircle
 10
32.11721206007996
 20
7.675000649959365
 30
0.0
 40
0.525
100
AcDbArc
 50
270.0
 51
0.0
  0
LINE
  5
7AC
330
1A
100
AcDbEntity
  8
ZUWAKU
100
AcDbLine
 10
32.64221206008005
 20
7.675000649959365
 30
0.0
 11
32.64221206008005
 21
13.27500064995936
 31
0.0
  0
LINE
  5
7AD
330
1A
100
AcDbEntity
  8
ZUWAKU
100
AcDbLine
 10
27.39221206008005
 20
9.425000649959365
 30
0.0
 11
27.39221206008005
 21
7.675000649959365
 31
0.0
  0
ARC
  5
7AE
330
1A
100
AcDbEntity
  8
ZUWAKU
100
AcDbCircle
 10
26.86721206007996
 20
7.675000649959365
 30
0.0
 40
0.525
100
AcDbArc
 50
270.0
 51
0.0
  0
ARC
  5
7AF
330
1A
100
AcDbEntity
  8
ZUWAKU
100
AcDbCircle
 10
26.86721206007996
 20
9.425000649959365
 30
0.0
 40
0.525
100
AcDbArc
 50
0.0
 51
90.0
  0
ARC
  5
7B0
330
1A
100
AcDbEntity
  8
ZUWAKU
100
AcDbCircle
 10
30.36721206007996
 20
7.675000649959365
 30
0.0
 40
0.525
100
AcDbArc
 50
180.0
 51
270.0
  0
ARC
  5
7B1
330
1A
100
AcDbEntity
  8
ZUWAKU
100
AcDbCircle
 10
33.30744622356871
 20
13.27500064995936
 30
0.0
 40
0.525
100
AcDbArc
 50
17.52556837372303
 51
90.0
  0
ARC
  5
7B2
330
1A
100
AcDbEntity
  8
ZUWAKU
100
AcDbCircle
 10
33.16721206008003
 20
13.27500064995936
 30
0.0
 40
0.525
100
AcDbArc
 50
90.0
 51
180.0
  0
ARC
  5
7B3
330
1A
100
AcDbEntity
  8
ZUWAKU
100
AcDbCircle
 10
41.21721206007999
 20
7.675000649959365
 30
0.0
 40
0.525
100
AcDbArc
 50
180.0
 51
270.0
  0
LINE
  5
7B4
330
1A
100
AcDbEntity
  8
ZUWAKU
100
AcDbLine
 10
36.17697789659132
 20
7.150000649959366
 30
0.0
 11
37.87586727620032
 21
7.150000649959366
 31
0.0
  0
ARC
  5
7B5
330
1A
100
AcDbEntity
  8
ZUWAKU
100
AcDbCircle
 10
37.87586727620032
 20
7.675000649959365
 30
0.0
 40
0.525
100
AcDbArc
 50
270.0
 51
17.52556837372303
  0
LINE
  5
7B6
330
1A
100
AcDbEntity
  8
ZUWAKU
100
AcDbLine
 10
38.37649817539579
 20
7.833094618126338
 30
0.0
 11
36.05010679692213
 21
15.20000064995938
 31
0.0
  0
ARC
  5
7B7
330
1A
100
AcDbEntity
  8
ZUWAKU
100
AcDbCircle
 10
36.17697789659132
 20
7.675000649959365
 30
0.0
 40
0.525
100
AcDbArc
 50
197.525568373723
 51
270.0
  0
ARC
  5
7B8
330
1A
100
AcDbEntity
  8
ZUWAKU
100
AcDbCircle
 10
57.84221206007998
 20
9.950000649959363
 30
0.0
 40
2.799999999999999
100
AcDbArc
 50
180.0
 51
270.0
  0
ARC
  5
7B9
330
1A
100
AcDbEntity
  8
ZUWAKU
100
AcDbCircle
 10
50.14221206008006
 20
9.950000649959363
 30
0.0
 40
2.799999999999999
100
AcDbArc
 50
270.0
 51
0.0
  0
LINE
  5
7BA
330
1A
100
AcDbEntity
  8
ZUWAKU
100
AcDbLine
 10
51.71206054106358
 20
14.73505115629819
 30
0.0
 11
48.80226256641879
 21
17.64484913094286
 31
0.0
  0
LINE
  5
7BB
330
1A
100
AcDbEntity
  8
ZUWAKU
100
AcDbLine
 10
50.14221206008006
 20
10.47500064995936
 30
0.0
 11
50.14221206008006
 21
11.76520267531471
 31
0.0
  0
ARC
  5
7BC
330
1A
100
AcDbEntity
  8
ZUWAKU
100
AcDbCircle
 10
48.74221206007996
 20
11.76520267531471
 30
0.0
 40
1.399999999999999
100
AcDbArc
 50
0.0
 51
45.0
  0
ARC
  5
7BD
330
1A
100
AcDbEntity
  8
ZUWAKU
100
AcDbCircle
 10
49.61721206007997
 20
10.47500064995936
 30
0.0
 40
0.525
100
AcDbArc
 50
270.0
 51
0.0
  0
LINE
  5
7BE
330
1A
100
AcDbEntity
  8
ZUWAKU
100
AcDbLine
 10
46.11721206007996
 20
7.675000649959365
 30
0.0
 11
46.11721206007996
 21
9.425000649959365
 31
0.0
  0
ARC
  5
7BF
330
1A
100
AcDbEntity
  8
ZUWAKU
100
AcDbCircle
 10
46.64221206008005
 20
7.675000649959365
 30
0.0
 40
0.525
100
AcDbArc
 50
180.0
 51
270.0
  0
ARC
  5
7C0
330
1A
100
AcDbEntity
  8
ZUWAKU
100
AcDbCircle
 10
42.96721206007998
 20
7.675000649959365
 30
0.0
 40
0.525
100
AcDbArc
 50
270.0
 51
0.0
  0
ARC
  5
7C1
330
1A
100
AcDbEntity
  8
ZUWAKU
100
AcDbCircle
 10
46.64221206008005
 20
9.425000649959365
 30
0.0
 40
0.525
100
AcDbArc
 50
90.0
 51
180.0
  0
LINE
  5
7C2
330
1A
100
AcDbEntity
  8
ZUWAKU
100
AcDbLine
 10
46.64221206008005
 20
9.950000649959363
 30
0.0
 11
49.61721206007997
 21
9.950000649959363
 31
0.0
  0
LINE
  5
7C3
330
1A
100
AcDbEntity
  8
ZUWAKU
100
AcDbLine
 10
46.64221206008005
 20
7.150000649959366
 30
0.0
 11
50.14221206008006
 21
7.150000649959366
 31
0.0
  0
LINE
  5
7C4
330
1A
100
AcDbEntity
  8
ZUWAKU
100
AcDbLine
 10
46.82236357909653
 20
15.66495014362054
 30
0.0
 11
49.73216155374121
 21
12.75515216897588
 31
0.0
  0
LINE
  5
7C5
330
1A
100
AcDbEntity
  8
ZUWAKU
100
AcDbLine
 10
52.94221206008001
 20
9.950000649959363
 30
0.0
 11
52.94221206008001
 21
11.76520267531471
 31
0.0
  0
ARC
  5
7C6
330
1A
100
AcDbEntity
  8
ZUWAKU
100
AcDbCircle
 10
48.74221206007996
 20
11.76520267531466
 30
0.0
 40
4.199999999999999
100
AcDbArc
 50
0.0
 51
45.0
  0
ARC
  5
7C7
330
1A
100
AcDbEntity
  8
ZUWAKU
100
AcDbCircle
 10
58.89221206008006
 20
11.00000064995936
 30
0.0
 40
1.049999999999999
100
AcDbArc
 50
180.0
 51
270.0
  0
ARC
  5
7C8
330
1A
100
AcDbEntity
  8
ZUWAKU
100
AcDbCircle
 10
61.34221206007999
 20
9.950000649959363
 30
0.0
 40
2.799999999999999
100
AcDbArc
 50
270.0
 51
0.0
  0
LINE
  5
7C9
330
1A
100
AcDbEntity
  8
ZUWAKU
100
AcDbLine
 10
66.76721206008005
 20
7.150000649959366
 30
0.0
 11
68.51721206008005
 21
7.150000649959366
 31
0.0
  0
ARC
  5
7CA
330
1A
100
AcDbEntity
  8
ZUWAKU
100
AcDbCircle
 10
66.76721206008005
 20
7.675000649959365
 30
0.0
 40
0.525
100
AcDbArc
 50
180.0
 51
270.0
  0
ARC
  5
7CB
330
1A
100
AcDbEntity
  8
ZUWAKU
100
AcDbCircle
 10
60.29221206008003
 20
11.00000064995936
 30
0.0
 40
1.049999999999999
100
AcDbArc
 50
270.0
 51
0.0
  0
ARC
  5
7CC
330
1A
100
AcDbEntity
  8
ZUWAKU
100
AcDbCircle
 10
68.51721206008005
 20
7.675000649959365
 30
0.0
 40
0.525
100
AcDbArc
 50
270.0
 51
0.0
  0
LINE
  5
7CD
330
1A
100
AcDbEntity
  8
ZUWAKU
100
AcDbLine
 10
42.96721206007998
 20
23.25000064995936
 30
0.0
 11
41.21721206007999
 21
23.25000064995936
 31
0.0
  0
ARC
  5
7CE
330
1A
100
AcDbEntity
  8
ZUWAKU
100
AcDbCircle
 10
32.11721206007996
 20
22.72500064995936
 30
0.0
 40
0.525
100
AcDbArc
 50
0.0
 51
90.0
  0
LINE
  5
7CF
330
1A
100
AcDbEntity
  8
ZUWAKU
100
AcDbLine
 10
32.11721206007996
 20
23.25000064995936
 30
0.0
 11
30.36721206007996
 21
23.25000064995936
 31
0.0
  0
ARC
  5
7D0
330
1A
100
AcDbEntity
  8
ZUWAKU
100
AcDbCircle
 10
26.86721206007996
 20
22.72500064995936
 30
0.0
 40
0.525
100
AcDbArc
 50
0.0
 51
90.0
  0
ARC
  5
7D1
330
1A
100
AcDbEntity
  8
ZUWAKU
100
AcDbCircle
 10
30.36721206007996
 20
22.72500064995936
 30
0.0
 40
0.525
100
AcDbArc
 50
90.0
 51
180.0
  0
ARC
  5
7D2
330
1A
100
AcDbEntity
  8
ZUWAKU
100
AcDbCircle
 10
26.86721206007996
 20
20.97500064995936
 30
0.0
 40
0.525
100
AcDbArc
 50
270.0
 51
0.0
  0
LINE
  5
7D3
330
1A
100
AcDbEntity
  8
ZUWAKU
100
AcDbLine
 10
27.39221206008005
 20
22.72500064995936
 30
0.0
 11
27.39221206008005
 21
20.97500064995936
 31
0.0
  0
ARC
  5
7D4
330
1A
100
AcDbEntity
  8
ZUWAKU
100
AcDbCircle
 10
41.21721206007999
 20
22.72500064995936
 30
0.0
 40
0.525
100
AcDbArc
 50
90.0
 51
180.0
  0
LINE
  5
7D5
330
1A
100
AcDbEntity
  8
ZUWAKU
100
AcDbLine
 10
36.17697789659132
 20
23.25000064995936
 30
0.0
 11
37.87586727620032
 21
23.25000064995936
 31
0.0
  0
ARC
  5
7D6
330
1A
100
AcDbEntity
  8
ZUWAKU
100
AcDbCircle
 10
37.87586727620032
 20
22.72500064995936
 30
0.0
 40
0.525
100
AcDbArc
 50
342.4744316262769
 51
90.0
  0
LINE
  5
7D7
330
1A
100
AcDbEntity
  8
ZUWAKU
100
AcDbLine
 10
38.37649817539579
 20
22.56690668179239
 30
0.0
 11
37.31485854225798
 21
19.20504784352279
 31
0.0
  0
ARC
  5
7D8
330
1A
100
AcDbEntity
  8
ZUWAKU
100
AcDbCircle
 10
36.17697789659132
 20
22.72500064995936
 30
0.0
 40
0.525
100
AcDbArc
 50
90.0
 51
162.4744316262769
  0
LINE
  5
7D9
330
1A
100
AcDbEntity
  8
ZUWAKU
100
AcDbLine
 10
48.39221206008005
 20
23.25000064995936
 30
0.0
 11
51.89221206008006
 21
23.25000064995936
 31
0.0
  0
LINE
  5
7DA
330
1A
100
AcDbEntity
  8
ZUWAKU
100
AcDbLine
 10
51.89221206008006
 20
20.45000064995936
 30
0.0
 11
48.91721206008003
 21
20.45000064995936
 31
0.0
  0
ARC
  5
7DB
330
1A
100
AcDbEntity
  8
ZUWAKU
100
AcDbCircle
 10
48.91721206008003
 20
19.92500064995936
 30
0.0
 40
0.525
100
AcDbArc
 50
90.0
 51
180.0
  0
LINE
  5
7DC
330
1A
100
AcDbEntity
  8
ZUWAKU
100
AcDbLine
 10
48.39221206008005
 20
19.92500064995936
 30
0.0
 11
48.39221206008005
 21
18.63479862460402
 31
0.0
  0
ARC
  5
7DD
330
1A
100
AcDbEntity
  8
ZUWAKU
100
AcDbCircle
 10
42.96721206007998
 20
22.72500064995936
 30
0.0
 40
0.525
100
AcDbArc
 50
0.0
 51
90.0
  0
LINE
  5
7DE
330
1A
100
AcDbEntity
  8
ZUWAKU
100
AcDbLine
 10
45.59221206007999
 20
20.45000064995936
 30
0.0
 11
45.59221206007999
 21
18.63479862460402
 31
0.0
  0
ARC
  5
7DF
330
1A
100
AcDbEntity
  8
ZUWAKU
100
AcDbCircle
 10
48.39221206008005
 20
20.45000064995936
 30
0.0
 40
2.799999999999999
100
AcDbArc
 50
90.0
 51
180.0
  0
ARC
  5
7E0
330
1A
100
AcDbEntity
  8
ZUWAKU
100
AcDbCircle
 10
57.31721206008001
 20
22.72500064995936
 30
0.0
 40
0.525
100
AcDbArc
 50
0.0
 51
90.0
  0
ARC
  5
7E1
330
1A
100
AcDbEntity
  8
ZUWAKU
100
AcDbCircle
 10
55.56721206008001
 20
22.72500064995936
 30
0.0
 40
0.525
100
AcDbArc
 50
90.0
 51
180.0
  0
LINE
  5
7E2
330
1A
100
AcDbEntity
  8
ZUWAKU
100
AcDbLine
 10
57.31721206008001
 20
23.25000064995936
 30
0.0
 11
55.56721206008001
 21
23.25000064995936
 31
0.0
  0
ARC
  5
7E3
330
1A
100
AcDbEntity
  8
ZUWAKU
100
AcDbCircle
 10
51.89221206008006
 20
22.72500064995936
 30
0.0
 40
0.525
100
AcDbArc
 50
0.0
 51
90.0
  0
ARC
  5
7E4
330
1A
100
AcDbEntity
  8
ZUWAKU
100
AcDbCircle
 10
51.89221206008006
 20
20.97500064995936
 30
0.0
 40
0.525
100
AcDbArc
 50
270.0
 51
0.0
  0
LINE
  5
7E5
330
1A
100
AcDbEntity
  8
ZUWAKU
100
AcDbLine
 10
52.41721206008003
 20
22.72500064995936
 30
0.0
 11
52.41721206008003
 21
20.97500064995936
 31
0.0
  0
LINE
  5
7E6
330
1A
100
AcDbEntity
  8
ZUWAKU
100
AcDbLine
 10
68.51721206008005
 20
23.25000064995936
 30
0.0
 11
66.76721206008005
 21
23.25000064995936
 31
0.0
  0
ARC
  5
7E7
330
1A
100
AcDbEntity
  8
ZUWAKU
100
AcDbCircle
 10
66.76721206008005
 20
22.72500064995936
 30
0.0
 40
0.525
100
AcDbArc
 50
90.0
 51
180.0
  0
ARC
  5
7E8
330
1A
100
AcDbEntity
  8
ZUWAKU
100
AcDbCircle
 10
63.61721206007996
 20
22.72500064995936
 30
0.0
 40
0.525
100
AcDbArc
 50
0.0
 51
90.0
  0
LINE
  5
7E9
330
1A
100
AcDbEntity
  8
ZUWAKU
100
AcDbLine
 10
63.61721206007996
 20
23.25000064995936
 30
0.0
 11
61.86721206007996
 21
23.25000064995936
 31
0.0
  0
ARC
  5
7EA
330
1A
100
AcDbEntity
  8
ZUWAKU
100
AcDbCircle
 10
61.86721206007996
 20
22.72500064995936
 30
0.0
 40
0.525
100
AcDbArc
 50
90.0
 51
180.0
  0
ARC
  5
7EB
330
1A
100
AcDbEntity
  8
ZUWAKU
100
AcDbCircle
 10
68.51721206008005
 20
22.72500064995936
 30
0.0
 40
0.525
100
AcDbArc
 50
0.0
 51
90.0
  0
TEXT
  5
7EC
330
1A
100
AcDbEntity
  8
MOJI
100
AcDbText
 10
239.8272025861499
 20
18.00492170736674
 30
0.0
 40
5.599999999999999
  1
ステンレス金具打込角足
 41
0.9
  7
ｽﾀｲﾙ1
100
AcDbText
  0
LINE
  5
7ED
330
1A
100
AcDbEntity
  8
ZUWAKU
100
AcDbLine
 10
208.2466011953667
 20
30.00000064995936
 30
0.0
 11
208.2466011953667
 21
0.8000006499594292
 31
0.0
  0
LINE
  5
7EE
330
1A
100
AcDbEntity
  8
ZUWAKU
100
AcDbLine
 10
208.6466011953666
 20
30.00000064995936
 30
0.0
 11
208.6466011953668
 21
0.8000006499594292
 31
0.0
  0
LINE
  5
7EF
330
1A
100
AcDbEntity
  8
ZUWAKU
100
AcDbLine
 10
208.4466011953665
 20
30.00000064995936
 30
0.0
 11
208.4466011953668
 21
0.8000006499594292
 31
0.0
  0
TEXT
  5
7F0
330
1A
100
AcDbEntity
  8
ZUWAKU
100
AcDbText
 10
209.7240462175764
 20
9.655357188344979
 30
0.0
 40
4.0
  1
サイズ
 41
0.9
  7
ｽﾀｲﾙ1
100
AcDbText
  0
TEXT
  5
7F1
330
1A
100
AcDbEntity
  8
MOJI
100
AcDbText
 10
239.8272025861499
 20
3.204921707366782
 30
0.0
 40
5.599999999999999
  1
Ｘ７０Ｕ－Ｌ１８５
 41
0.9
  7
ｽﾀｲﾙ1
100
AcDbText
  0
TEXT
  5
7F2
330
1A
100
AcDbEntity
  8
ZUWAKU
100
AcDbText
 10
209.7240462175761
 20
24.05535718834494
 30
0.0
 40
4.0
  1
品名
 41
0.9
  7
ｽﾀｲﾙ1
100
AcDbText
  0
LINE
  5
7F3
330
1A
100
AcDbEntity
  8
ZUWAKU
100
AcDbLine
 10
648.817202415503
 20
15.20000064995939
 30
0.0
 11
697.2490104538401
 21
15.20000064995939
 31
0.0
  0
LINE
  5
7F4
330
1A
100
AcDbEntity
  8
ZUWAKU
100
AcDbLine
 10
648.8172024155033
 20
15.4000006499594
 30
0.0
 11
697.2490104538401
 21
15.40000064995939
 31
0.0
  0
LINE
  5
7F5
330
1A
100
AcDbEntity
  8
ZUWAKU
100
AcDbLine
 10
648.817202415503
 20
15.60000064995939
 30
0.0
 11
697.2490104538401
 21
15.60000064995939
 31
0.0
  0
TEXT
  5
7F6
330
1A
100
AcDbEntity
  8
ZUWAKU
100
AcDbText
 10
658.2039375926012
 20
18.00492170736674
 30
0.0
 40
5.599999999999999
  1
　　．　　．　　
 41
0.9
  7
ｽﾀｲﾙ1
100
AcDbText
  0
LINE
  5
7F7
330
1A
100
AcDbEntity
  8
ZUWAKU
100
AcDbLine
 10
505.1991794034397
 20
15.20000064995939
 30
0.0
 11
552.5269556714113
 21
15.20000064995939
 31
0.0
  0
LINE
  5
7F8
330
1A
100
AcDbEntity
  8
ZUWAKU
100
AcDbLine
 10
505.1991794034397
 20
15.40000064995939
 30
0.0
 11
552.5269556714113
 21
15.40000064995939
 31
0.0
  0
LINE
  5
7F9
330
1A
100
AcDbEntity
  8
ZUWAKU
100
AcDbLine
 10
505.1991794034397
 20
15.60000064995939
 30
0.0
 11
552.5269556714113
 21
15.60000064995939
 31
0.0
  0
TEXT
  5
7FA
330
1A
100
AcDbEntity
  8
MOJI
100
AcDbText
 10
463.2464318963009
 20
11.94261837161934
 30
0.0
 40
5.599999999999999
  1
ＬＣ８７□
 41
0.9
  7
ｽﾀｲﾙ1
100
AcDbText
  0
LINE
  5
7FB
330
1A
100
AcDbEntity
  8
ZUWAKU
100
AcDbLine
 10
447.6243638762901
 20
30.00000064995936
 30
0.0
 11
447.6243638762903
 21
0.8000006499594292
 31
0.0
  0
LINE
  5
7FC
330
1A
100
AcDbEntity
  8
ZUWAKU
100
AcDbLine
 10
447.8243638762901
 20
30.00000064995936
 30
0.0
 11
447.8243638762903
 21
0.8000006499594292
 31
0.0
  0
LINE
  5
7FD
330
1A
100
AcDbEntity
  8
ZUWAKU
100
AcDbLine
 10
447.4243638762902
 20
30.00000064995936
 30
0.0
 11
447.4243638762902
 21
0.8000006499594292
 31
0.0
  0
TEXT
  5
7FE
330
1A
100
AcDbEntity
  8
MOJI
100
AcDbText
 10
528.0409078776117
 20
18.00492170736674
 30
0.0
 40
5.599999999999999
  1
Ａ３
 41
0.9
  7
ｽﾀｲﾙ1
100
AcDbText
  0
LINE
  5
7FF
330
1A
100
AcDbEntity
  8
ZUWAKU
100
AcDbLine
 10
504.9991794034396
 20
30.00000064995936
 30
0.0
 11
504.9991794034399
 21
0.8000006499594292
 31
0.0
  0
LINE
  5
800
330
1A
100
AcDbEntity
  8
ZUWAKU
100
AcDbLine
 10
505.1991794034397
 20
30.00000064995936
 30
0.0
 11
505.19917940344
 21
0.8000006499594292
 31
0.0
  0
LINE
  5
801
330
1A
100
AcDbEntity
  8
ZUWAKU
100
AcDbLine
 10
504.7991794034398
 20
30.00000064995936
 30
0.0
 11
504.7991794034398
 21
0.8000006499594292
 31
0.0
  0
TEXT
  5
802
330
1A
100
AcDbEntity
  8
ZUWAKU
100
AcDbText
 10
461.6981351332112
 20
2.908329889848573
 30
0.0
 40
3.0
  1
□には色品番が入ります
 41
0.9
  7
ｽﾀｲﾙ1
100
AcDbText
  0
TEXT
  5
803
330
1A
100
AcDbEntity
  8
ZUWAKU
100
AcDbText
 10
506.6766244256496
 20
9.655357188344979
 30
0.0
 40
4.0
  1
縮尺
 41
0.9
  7
ｽﾀｲﾙ1
100
AcDbText
  0
TEXT
  5
804
330
1A
100
AcDbEntity
  8
MOJI
100
AcDbText
 10
528.0409078776117
 20
3.204921707366782
 30
0.0
 40
5.599999999999999
  1
１/２
 41
0.9
  7
ｽﾀｲﾙ1
100
AcDbText
  0
TEXT
  5
805
330
1A
100
AcDbEntity
  8
ZUWAKU
100
AcDbText
 10
449.3018088984997
 20
24.05535718834494
 30
0.0
 40
4.0
  1
品番
 41
0.9
  7
ｽﾀｲﾙ1
100
AcDbText
  0
TEXT
  5
806
330
1A
100
AcDbEntity
  8
ZUWAKU
100
AcDbText
 10
506.6766244256493
 20
24.05535718834494
 30
0.0
 40
4.0
  1
用紙
 41
0.9
  7
ｽﾀｲﾙ1
100
AcDbText
  0
LINE
  5
807
330
1A
100
AcDbEntity
  8
ZUWAKU
100
AcDbLine
 10
648.6172024155032
 20
30.00000064995936
 30
0.0
 11
648.6172024155035
 21
0.8000006499594292
 31
0.0
  0
LINE
  5
808
330
1A
100
AcDbEntity
  8
ZUWAKU
100
AcDbLine
 10
648.8172024155033
 20
30.00000064995936
 30
0.0
 11
648.8172024155034
 21
0.8000006499594292
 31
0.0
  0
LINE
  5
809
330
1A
100
AcDbEntity
  8
ZUWAKU
100
AcDbLine
 10
648.4172024155034
 20
30.00000064995936
 30
0.0
 11
648.4172024155034
 21
0.8000006499594292
 31
0.0
  0
LINE
  5
80A
330
1A
100
AcDbEntity
  8
ZUWAKU
100
AcDbLine
 10
552.7269556714111
 20
30.00000064995936
 30
0.0
 11
552.7269556714113
 21
0.8000006499594292
 31
0.0
  0
LINE
  5
80B
330
1A
100
AcDbEntity
  8
ZUWAKU
100
AcDbLine
 10
552.9269556714111
 20
30.00000064995936
 30
0.0
 11
552.9269556714114
 21
0.8000006499594292
 31
0.0
  0
LINE
  5
80C
330
1A
100
AcDbEntity
  8
ZUWAKU
100
AcDbLine
 10
552.5269556714113
 20
30.00000064995936
 30
0.0
 11
552.5269556714113
 21
0.8000006499594292
 31
0.0
  0
TEXT
  5
80D
330
1A
100
AcDbEntity
  8
ZUWAKU
100
AcDbText
 10
650.2946474377129
 20
24.05535718834494
 30
0.0
 40
4.0
  1
DATE
 41
0.9
  7
ｽﾀｲﾙ1
100
AcDbText
  0
LINE
  5
80E
330
1A
100
AcDbEntity
  8
ZUWAKU
100
AcDbLine
 10
697.2490104538401
 20
30.00000064995936
 30
0.0
 11
697.2490104538401
 21
0.8000006499594292
 31
0.0
  0
LINE
  5
80F
330
1A
100
AcDbEntity
  8
ZUWAKU
100
AcDbLine
 10
697.4490104538402
 20
30.00000064995936
 30
0.0
 11
697.4490104538402
 21
0.8000006499594292
 31
0.0
  0
LINE
  5
810
330
1A
100
AcDbEntity
  8
ZUWAKU
100
AcDbLine
 10
697.64901045384
 20
30.00000064995936
 30
0.0
 11
697.6490104538402
 21
0.8000006499594292
 31
0.0
  0
LINE
  5
811
330
1A
100
AcDbEntity
  8
ZUWAKU
100
AcDbLine
 10
697.84901045384
 20
30.00000064995936
 30
0.0
 11
697.8490104538402
 21
0.8000006499594292
 31
0.0
  0
TEXT
  5
812
330
1A
100
AcDbEntity
  8
ZUWAKU
100
AcDbText
 10
708.5280840975427
 20
17.55383998564616
 30
0.0
 40
6.0
  1
積水化学工業株式会社
 41
0.9
  7
ｽﾀｲﾙ1
100
AcDbText
  0
TEXT
  5
813
330
1A
100
AcDbEntity
  8
ZUWAKU
100
AcDbText
 10
708.5280840975427
 20
6.648840963813427
 30
0.0
 40
6.0
  1
建材事業部
 41
0.9
  7
ｽﾀｲﾙ1
100
AcDbText
  0
VIEWPORT
  5
22
330
17
100
AcDbEntity
 67
     1
  8
0
100
AcDbViewport
 10
313.6808219178082
 20
148.5
 30
0.0
 40
627.3616438356165
 41
297.0
 68
     2
 69
     1
1001
ACAD
1000
MVIEW
1002
{
1070
    16
1010
0.0
1020
0.0
1030
0.0
1010
0.0
1020
0.0
1030
1.0
1040
0.0
1040
297.0
1040
313.6808219178082
1040
148.5
1040
50.0
1040
0.0
1040
0.0
1070
     0
1070
   100
1070
     1
1070
     0
1070
     0
1070
     0
1070
     0
1070
     0
1040
0.0
1040
0.0
1040
0.0
1040
1.0
1040
1.0
1040
10.0
1040
10.0
1070
     0
1002
{
1002
}
1002
}
  0
VIEWPORT
  5
64
330
17
100
AcDbEntity
 67
     1
  8
VIEWPORT
100
AcDbViewport
 10
210.0
 20
148.5
 30
0.0
 40
420.0
 41
297.0
 68
     1
 69
     2
1001
ACAD
1000
MVIEW
1002
{
1070
    16
1010
0.0
1020
0.0
1030
0.0
1010
0.0
1020
0.0
1030
1.0
1040
0.0
1040
605.8799999999998
1040
420.0
1040
297.0
1040
50.0
1040
0.0
1040
0.0
1070
     0
1070
   100
1070
     1
1070
     0
1070
     0
1070
     0
1070
     0
1070
     0
1040
0.0
1040
0.0
1040
0.0
1040
10.0
1040
10.0
1040
0.0
1040
0.0
1070
     0
1002
{
1002
}
1002
}
  0
ENDSEC
  0
SECTION
  2
OBJECTS
  0
DICTIONARY
  5
C
330
0
100
AcDbDictionary
  3
ACAD_GROUP
350
D
  3
ACAD_LAYOUT
350
666
  3
ACAD_MLINESTYLE
350
E
  3
ACAD_PLOTSETTINGS
350
667
  3
ACAD_PLOTSTYLENAME
350
664
  3
ACDBHEADERROUNDTRIPXREC
350
81B
  0
DICTIONARY
  5
695
330
1A
100
AcDbDictionary
280
     1
  3
ACAD_LAYOUTSELFREF
360
83D
  0
DICTIONARY
  5
693
330
17
100
AcDbDictionary
280
     1
  3
ACAD_LAYOUTSELFREF
360
83C
  0
DICTIONARY
  5
D
102
{ACAD_REACTORS
330
C
102
}
330
C
100
AcDbDictionary
  0
DICTIONARY
  5
666
102
{ACAD_REACTORS
330
C
102
}
330
C
100
AcDbDictionary
  0
DICTIONARY
  5
E
102
{ACAD_REACTORS
330
C
102
}
330
C
100
AcDbDictionary
  3
STANDARD
350
13
  0
DICTIONARY
  5
667
102
{ACAD_REACTORS
330
C
102
}
330
C
100
AcDbDictionary
  0
ACDBDICTIONARYWDFLT
  5
664
102
{ACAD_REACTORS
330
C
102
}
330
C
100
AcDbDictionary
281
     1
  3
Normal
350
665
100
AcDbDictionaryWithDefault
340
665
1001
ACAD
1000
TREAT_AS_HARD
1070
     0
  0
DICTIONARY
  5
81B
102
{ACAD_REACTORS
330
C
102
}
330
C
100
AcDbDictionary
  3
TSTACKALIGN
350
81C
  3
TSTACKSIZE
350
81D
  3
HYPERLINKBASE
350
81E
  3
STYLESHEET
350
81F
  3
LAYOUTDICT
350
820
  3
PLOTSETDICT
350
821
  3
PLOTSTYLNAMDICT
350
822
  3
LWETCUNION
350
823
  3
INSUNITS
350
824
  3
CEPSNTYPE
350
825
  3
FINGERPRINTGUID
350
826
  3
VERSIONGUID
350
827
  3
PSVPSCALE
350
828
  3
DIMSTYLEDATA
350
829
  3
PUCSORTHOREF
350
82A
  3
PUCSORTHOVIEW
350
82B
  3
PUCSBASE
350
82C
  3
PUCSORGTOP
350
82D
  3
PUCSORGBOTTOM
350
82E
  3
PUCSORGLEFT
350
82F
  3
PUCSORGRIGHT
350
830
  3
PUCSORGFRONT
350
831
  3
PUCSORGBACK
350
832
  3
UCSORTHOREF
350
833
  3
UCSORTHOVIEW
350
834
  3
UCSBASE
350
835
  3
UCSORGTOP
350
836
  3
UCSORGBOTTOM
350
837
  3
UCSORGLEFT
350
838
  3
UCSORGRIGHT
350
839
  3
UCSORGFRONT
350
83A
  3
UCSORGBACK
350
83B
  0
XRECORD
  5
83D
102
{ACAD_REACTORS
330
695
102
}
330
695
100
AcDbXrecord
340
1A
  0
XRECORD
  5
83C
102
{ACAD_REACTORS
330
693
102
}
330
693
100
AcDbXrecord
340
17
  0
MLINESTYLE
  5
13
102
{ACAD_REACTORS
330
E
102
}
330
E
100
AcDbMlineStyle
  2
STANDARD
 70
     0
  3

 62
     0
 51
90.0
 52
90.0
 71
     2
 49
0.5
 62
   256
  6
BYLAYER
 49
-0.5
 62
   256
  6
BYLAYER
  0
ACDBPLACEHOLDER
  5
665
102
{ACAD_REACTORS
330
664
102
}
330
664
100
AcDbPlaceHolder
280
     0
  0
XRECORD
  5
81C
102
{ACAD_REACTORS
330
81B
102
}
330
81B
100
AcDbXrecord
 90
        1
  0
XRECORD
  5
81D
102
{ACAD_REACTORS
330
81B
102
}
330
81B
100
AcDbXrecord
 90
       70
  0
XRECORD
  5
81E
102
{ACAD_REACTORS
330
81B
102
}
330
81B
100
AcDbXrecord
  1

  0
XRECORD
  5
81F
102
{ACAD_REACTORS
330
81B
102
}
330
81B
100
AcDbXrecord
  1
systemprinter.ctb
  0
XRECORD
  5
820
102
{ACAD_REACTORS
330
81B
102
}
330
81B
100
AcDbXrecord
340
666
  0
XRECORD
  5
821
102
{ACAD_REACTORS
330
81B
102
}
330
81B
100
AcDbXrecord
340
667
  0
XRECORD
  5
822
102
{ACAD_REACTORS
330
81B
102
}
330
81B
100
AcDbXrecord
340
664
  0
XRECORD
  5
823
102
{ACAD_REACTORS
330
81B
102
}
330
81B
100
AcDbXrecord
 90
    10781
  0
XRECORD
  5
824
102
{ACAD_REACTORS
330
81B
102
}
330
81B
100
AcDbXrecord
 90
        0
  0
XRECORD
  5
825
102
{ACAD_REACTORS
330
81B
102
}
330
81B
100
AcDbXrecord
 90
        0
  0
XRECORD
  5
826
102
{ACAD_REACTORS
330
81B
102
}
330
81B
100
AcDbXrecord
  1
{71CFFEF8-47CE-11D6-9330-0050DA99388B}
  0
XRECORD
  5
827
102
{ACAD_REACTORS
330
81B
102
}
330
81B
100
AcDbXrecord
  1
{E0CF5F99-8447-44A8-9CC9-DF50F396F7E5}
  0
XRECORD
  5
828
102
{ACAD_REACTORS
330
81B
102
}
330
81B
100
AcDbXrecord
 40
0.0
  0
XRECORD
  5
829
102
{ACAD_REACTORS
330
81B
102
}
330
81B
100
AcDbXrecord
1000
DSTYLE
1002
{
1070
   341
340
6D
1070
   343
340
6D
1070
   344
340
6D
1070
   371
 70
    -1
1070
   372
 70
    -1
1002
}
  0
XRECORD
  5
82A
102
{ACAD_REACTORS
330
81B
102
}
330
81B
100
AcDbXrecord
340
0
  0
XRECORD
  5
82B
102
{ACAD_REACTORS
330
81B
102
}
330
81B
100
AcDbXrecord
 70
     0
  0
XRECORD
  5
82C
102
{ACAD_REACTORS
330
81B
102
}
330
81B
100
AcDbXrecord
340
0
  0
XRECORD
  5
82D
102
{ACAD_REACTORS
330
81B
102
}
330
81B
100
AcDbXrecord
 10
0.0
 20
0.0
 30
0.0
  0
XRECORD
  5
82E
102
{ACAD_REACTORS
330
81B
102
}
330
81B
100
AcDbXrecord
 10
0.0
 20
0.0
 30
0.0
  0
XRECORD
  5
82F
102
{ACAD_REACTORS
330
81B
102
}
330
81B
100
AcDbXrecord
 10
0.0
 20
0.0
 30
0.0
  0
XRECORD
  5
830
102
{ACAD_REACTORS
330
81B
102
}
330
81B
100
AcDbXrecord
 10
0.0
 20
0.0
 30
0.0
  0
XRECORD
  5
831
102
{ACAD_REACTORS
330
81B
102
}
330
81B
100
AcDbXrecord
 10
0.0
 20
0.0
 30
0.0
  0
XRECORD
  5
832
102
{ACAD_REACTORS
330
81B
102
}
330
81B
100
AcDbXrecord
 10
0.0
 20
0.0
 30
0.0
  0
XRECORD
  5
833
102
{ACAD_REACTORS
330
81B
102
}
330
81B
100
AcDbXrecord
340
0
  0
XRECORD
  5
834
102
{ACAD_REACTORS
330
81B
102
}
330
81B
100
AcDbXrecord
 70
     0
  0
XRECORD
  5
835
102
{ACAD_REACTORS
330
81B
102
}
330
81B
100
AcDbXrecord
340
0
  0
XRECORD
  5
836
102
{ACAD_REACTORS
330
81B
102
}
330
81B
100
AcDbXrecord
 10
0.0
 20
0.0
 30
0.0
  0
XRECORD
  5
837
102
{ACAD_REACTORS
330
81B
102
}
330
81B
100
AcDbXrecord
 10
0.0
 20
0.0
 30
0.0
  0
XRECORD
  5
838
102
{ACAD_REACTORS
330
81B
102
}
330
81B
100
AcDbXrecord
 10
0.0
 20
0.0
 30
0.0
  0
XRECORD
  5
839
102
{ACAD_REACTORS
330
81B
102
}
330
81B
100
AcDbXrecord
 10
0.0
 20
0.0
 30
0.0
  0
XRECORD
  5
83A
102
{ACAD_REACTORS
330
81B
102
}
330
81B
100
AcDbXrecord
 10
0.0
 20
0.0
 30
0.0
  0
XRECORD
  5
83B
102
{ACAD_REACTORS
330
81B
102
}
330
81B
100
AcDbXrecord
 10
0.0
 20
0.0
 30
0.0
  0
ENDSEC
  0
EOF
