  0
SECTION
  2
HEADER
  9
$ACADVER
  1
AC1014
  9
$ACADMAINTVER
 70
     9
  9
$DWGCODEPAGE
  3
ANSI_932
  9
$INSBASE
 10
0.0
 20
0.0
 30
0.0
  9
$EXTMIN
 10
-0.0128166614595102
 20
-0.0090630292066862
 30
-0.0015258207003583
  9
$EXTMAX
 10
398.8000497683858
 20
275.8226172440017
 30
0.0000000349246037
  9
$LIMMIN
 10
0.0
 20
0.0
  9
$LIMMAX
 10
420.0
 20
297.0
  9
$ORTHOMODE
 70
     0
  9
$REGENMODE
 70
     1
  9
$FILLMODE
 70
     1
  9
$QTEXTMODE
 70
     0
  9
$MIRRTEXT
 70
     1
  9
$DRAGMODE
 70
     2
  9
$LTSCALE
 40
1.0
  9
$OSMODE
 70
    37
  9
$ATTMODE
 70
     1
  9
$TEXTSIZE
 40
2.5
  9
$TRACEWID
 40
1.0
  9
$TEXTSTYLE
  7
STANDARD
  9
$CLAYER
  8
SUNPOU
  9
$CELTYPE
  6
BYLAYER
  9
$CECOLOR
 62
   256
  9
$CELTSCALE
 40
1.0
  9
$DELOBJ
 70
     1
  9
$DISPSILH
 70
     0
  9
$DIMSCALE
 40
1.0
  9
$DIMASZ
 40
3.0
  9
$DIMEXO
 40
3.0
  9
$DIMDLI
 40
7.0
  9
$DIMRND
 40
0.0
  9
$DIMDLE
 40
0.0
  9
$DIMEXE
 40
1.5
  9
$DIMTP
 40
0.0
  9
$DIMTM
 40
0.0
  9
$DIMTXT
 40
3.0
  9
$DIMCEN
 40
150.0
  9
$DIMTSZ
 40
0.0
  9
$DIMTOL
 70
     0
  9
$DIMLIM
 70
     0
  9
$DIMTIH
 70
     0
  9
$DIMTOH
 70
     0
  9
$DIMSE1
 70
     0
  9
$DIMSE2
 70
     0
  9
$DIMTAD
 70
     3
  9
$DIMZIN
 70
     0
  9
$DIMBLK
  1

  9
$DIMASO
 70
     1
  9
$DIMSHO
 70
     1
  9
$DIMPOST
  1

  9
$DIMAPOST
  1

  9
$DIMALT
 70
     0
  9
$DIMALTD
 70
     2
  9
$DIMALTF
 40
25.4
  9
$DIMLFAC
 40
1.0
  9
$DIMTOFL
 70
     1
  9
$DIMTVP
 40
0.0
  9
$DIMTIX
 70
     0
  9
$DIMSOXD
 70
     0
  9
$DIMSAH
 70
     1
  9
$DIMBLK1
  1
OPEN
  9
$DIMBLK2
  1
OPEN
  9
$DIMSTYLE
  2
STANDARD
  9
$DIMCLRD
 70
   256
  9
$DIMCLRE
 70
   256
  9
$DIMCLRT
 70
   256
  9
$DIMTFAC
 40
1.0
  9
$DIMGAP
 40
1.0
  9
$DIMJUST
 70
     0
  9
$DIMSD1
 70
     0
  9
$DIMSD2
 70
     0
  9
$DIMTOLJ
 70
     1
  9
$DIMTZIN
 70
     0
  9
$DIMALTZ
 70
     0
  9
$DIMALTTZ
 70
     0
  9
$DIMFIT
 70
     3
  9
$DIMUPT
 70
     0
  9
$DIMUNIT
 70
     2
  9
$DIMDEC
 70
     0
  9
$DIMTDEC
 70
     0
  9
$DIMALTU
 70
     2
  9
$DIMALTTD
 70
     2
  9
$DIMTXSTY
  7
STANDARD
  9
$DIMAUNIT
 70
     0
  9
$LUNITS
 70
     2
  9
$LUPREC
 70
     4
  9
$SKETCHINC
 40
1.0
  9
$FILLETRAD
 40
10.0
  9
$AUNITS
 70
     0
  9
$AUPREC
 70
     0
  9
$MENU
  1
.
  9
$ELEVATION
 40
0.0
  9
$PELEVATION
 40
0.0
  9
$THICKNESS
 40
0.0
  9
$LIMCHECK
 70
     0
  9
$BLIPMODE
 70
     0
  9
$CHAMFERA
 40
10.0
  9
$CHAMFERB
 40
10.0
  9
$CHAMFERC
 40
20.0
  9
$CHAMFERD
 40
0.0
  9
$SKPOLY
 70
     0
  9
$TDCREATE
 40
2451204.541313194
  9
$TDUPDATE
 40
2454635.373914768
  9
$TDINDWG
 40
0.0177574653
  9
$TDUSRTIMER
 40
0.0177574653
  9
$USRTIMER
 70
     1
  9
$ANGBASE
 50
0.0
  9
$ANGDIR
 70
     0
  9
$PDMODE
 70
     0
  9
$PDSIZE
 40
0.0
  9
$PLINEWID
 40
0.0
  9
$COORDS
 70
     0
  9
$SPLFRAME
 70
     0
  9
$SPLINETYPE
 70
     6
  9
$SPLINESEGS
 70
     8
  9
$ATTDIA
 70
     0
  9
$ATTREQ
 70
     1
  9
$HANDLING
 70
 10241
  9
$HANDSEED
  5
8DC
  9
$SURFTAB1
 70
     6
  9
$SURFTAB2
 70
     6
  9
$SURFTYPE
 70
     6
  9
$SURFU
 70
     6
  9
$SURFV
 70
     6
  9
$UCSNAME
  2

  9
$UCSORG
 10
0.0
 20
0.0
 30
0.0
  9
$UCSXDIR
 10
1.0
 20
0.0
 30
0.0
  9
$UCSYDIR
 10
0.0
 20
1.0
 30
0.0
  9
$PUCSNAME
  2

  9
$PUCSORG
 10
0.0
 20
0.0
 30
0.0
  9
$PUCSXDIR
 10
1.0
 20
0.0
 30
0.0
  9
$PUCSYDIR
 10
0.0
 20
1.0
 30
0.0
  9
$USERI1
 70
     0
  9
$USERI2
 70
     0
  9
$USERI3
 70
     0
  9
$USERI4
 70
     0
  9
$USERI5
 70
     0
  9
$USERR1
 40
0.0
  9
$USERR2
 40
0.0
  9
$USERR3
 40
0.0
  9
$USERR4
 40
0.0
  9
$USERR5
 40
0.0
  9
$WORLDVIEW
 70
     1
  9
$SHADEDGE
 70
     3
  9
$SHADEDIF
 70
    70
  9
$TILEMODE
 70
     1
  9
$MAXACTVP
 70
    16
  9
$PINSBASE
 10
0.0
 20
0.0
 30
0.0
  9
$PLIMCHECK
 70
     0
  9
$PEXTMIN
 10
0.0
 20
0.0
 30
0.0
  9
$PEXTMAX
 10
420.0
 20
297.0
 30
0.0
  9
$PLIMMIN
 10
0.0
 20
0.0
  9
$PLIMMAX
 10
420.0
 20
297.0
  9
$UNITMODE
 70
     0
  9
$VISRETAIN
 70
     0
  9
$PLINEGEN
 70
     0
  9
$PSLTSCALE
 70
     1
  9
$TREEDEPTH
 70
  3020
  9
$PICKSTYLE
 70
     1
  9
$CMLSTYLE
  2
STANDARD
  9
$CMLJUST
 70
     0
  9
$CMLSCALE
 40
1.0
  9
$PROXYGRAPHICS
 70
     1
  9
$MEASUREMENT
 70
     1
  0
ENDSEC
  0
SECTION
  2
CLASSES
  0
CLASS
  1
ACDBDICTIONARYWDFLT
  2
AcDbDictionaryWithDefault
  3
AutoCAD 2000
 90
        0
280
     0
281
     0
  0
CLASS
  1
ACDBPLACEHOLDER
  2
AcDbPlaceHolder
  3
AutoCAD 2000
 90
        0
280
     0
281
     0
  0
CLASS
  1
LAYOUT
  2
AcDbLayout
  3
AutoCAD 2000
 90
        0
280
     0
281
     0
  0
CLASS
  1
LONG_TRANSACTION
  2
AcDbLongTransaction
  3
AutoCAD 2000
 90
        0
280
     0
281
     0
  0
CLASS
  1
LWPOLYLINE
  2
AcDbPolyline
  3
AutoCAD 2000
 90
        0
280
     0
281
     1
  0
CLASS
  1
HATCH
  2
AcDbHatch
  3
AutoCAD 2000
 90
        0
280
     0
281
     1
  0
CLASS
  1
XRECORD
  2
AcDbXrecord
  3
AutoCAD 2000
 90
        0
280
     0
281
     0
  0
CLASS
  1
LONG_TRANSACTION
  2
AcDbLongTransaction
  3
AutoCAD 2000
 90
        0
280
     0
281
     0
  0
CLASS
  1
LWPOLYLINE
  2
AcDbPolyline
  3
AutoCAD 2000
 90
        0
280
     0
281
     1
  0
CLASS
  1
HATCH
  2
AcDbHatch
  3
AutoCAD 2000
 90
        0
280
     0
281
     1
  0
CLASS
  1
XRECORD
  2
AcDbXrecord
  3
AutoCAD 2000
 90
        0
280
     0
281
     0
  0
CLASS
  1
LONG_TRANSACTION
  2
AcDbLongTransaction
  3
AutoCAD 2000
 90
        0
280
     0
281
     0
  0
CLASS
  1
LWPOLYLINE
  2
AcDbPolyline
  3
AutoCAD 2000
 90
        0
280
     0
281
     1
  0
CLASS
  1
HATCH
  2
AcDbHatch
  3
AutoCAD 2000
 90
        0
280
     0
281
     1
  0
CLASS
  1
XRECORD
  2
AcDbXrecord
  3
AutoCAD 2000
 90
        0
280
     0
281
     0
  0
CLASS
  1
LONG_TRANSACTION
  2
AcDbLongTransaction
  3
AutoCAD 2000
 90
        0
280
     0
281
     0
  0
CLASS
  1
LWPOLYLINE
  2
AcDbPolyline
  3
AutoCAD 2000
 90
        0
280
     0
281
     1
  0
CLASS
  1
HATCH
  2
AcDbHatch
  3
AutoCAD 2000
 90
        0
280
     0
281
     1
  0
CLASS
  1
XRECORD
  2
AcDbXrecord
  3
AutoCAD 2000
 90
        0
280
     0
281
     0
  0
ENDSEC
  0
SECTION
  2
TABLES
  0
TABLE
  2
VPORT
  5
8
330
0
100
AcDbSymbolTable
 70
     3
  0
VPORT
  5
8B8
330
8
100
AcDbSymbolTableRecord
100
AcDbViewportTableRecord
  2
*ACTIVE
 70
     0
 10
0.0
 20
0.0
 11
1.0
 21
1.0
 12
198.8667994714307
 22
134.2604246446011
 13
0.0
 23
0.0
 14
5.0
 24
5.0
 15
0.0
 25
0.0
 16
0.0
 26
0.0
 36
1.0
 17
0.0
 27
0.0
 37
0.0
 40
325.0982893251909
 41
1.570153061224489
 42
50.0
 43
0.0
 44
0.0
 50
0.0
 51
0.0
 71
     0
 72
   100
 73
     1
 74
     0
 75
     0
 76
     0
 77
     0
 78
     0
  0
ENDTAB
  0
TABLE
  2
LTYPE
  5
5
330
0
100
AcDbSymbolTable
 70
     2
  0
LTYPE
  5
14
330
5
100
AcDbSymbolTableRecord
100
AcDbLinetypeTableRecord
  2
BYBLOCK
 70
     0
  3

 72
    65
 73
     0
 40
0.0
  0
LTYPE
  5
15
330
5
100
AcDbSymbolTableRecord
100
AcDbLinetypeTableRecord
  2
BYLAYER
 70
     0
  3

 72
    65
 73
     0
 40
0.0
  0
LTYPE
  5
16
330
5
100
AcDbSymbolTableRecord
100
AcDbLinetypeTableRecord
  2
CONTINUOUS
 70
     0
  3
Solid line
 72
    65
 73
     0
 40
0.0
  0
LTYPE
  5
120
330
5
100
AcDbSymbolTableRecord
100
AcDbLinetypeTableRecord
  2
CENTER
 70
     0
  3
____ _ ____ _ ____ _ ____ _ ____ _ ____ _ ____ 
 72
    65
 73
     4
 40
2.0
 49
1.25
 74
     0
 49
-0.25
 74
     0
 49
0.25
 74
     0
 49
-0.25
 74
     0
  0
ENDTAB
  0
TABLE
  2
LAYER
  5
2
330
0
100
AcDbSymbolTable
 70
     8
  0
LAYER
  5
F
330
2
100
AcDbSymbolTableRecord
100
AcDbLayerTableRecord
  2
0
 70
     0
 62
     7
  6
CONTINUOUS
  0
LAYER
  5
62
330
2
100
AcDbSymbolTableRecord
100
AcDbLayerTableRecord
  2
VIEWPORT
 70
     0
 62
     7
  6
CONTINUOUS
  0
LAYER
  5
6B
330
2
100
AcDbSymbolTableRecord
100
AcDbLayerTableRecord
  2
ZUWAKU
 70
     0
 62
     7
  6
CONTINUOUS
  0
LAYER
  5
13D
330
2
100
AcDbSymbolTableRecord
100
AcDbLayerTableRecord
  2
SEIHIN
 70
     0
 62
     3
  6
CONTINUOUS
  0
LAYER
  5
13E
330
2
100
AcDbSymbolTableRecord
100
AcDbLayerTableRecord
  2
SUNPOU
 70
     0
 62
     4
  6
CONTINUOUS
  0
LAYER
  5
13F
330
2
100
AcDbSymbolTableRecord
100
AcDbLayerTableRecord
  2
CENTER_L
 70
     0
 62
     1
  6
CENTER
  0
LAYER
  5
140
330
2
100
AcDbSymbolTableRecord
100
AcDbLayerTableRecord
  2
DEFPOINTS
 70
     0
 62
     7
  6
CONTINUOUS
  0
LAYER
  5
4BA
330
2
100
AcDbSymbolTableRecord
100
AcDbLayerTableRecord
  2
MOJI
 70
     0
 62
     2
  6
CONTINUOUS
  0
ENDTAB
  0
TABLE
  2
STYLE
  5
3
330
0
100
AcDbSymbolTable
 70
     2
  0
STYLE
  5
10
330
3
100
AcDbSymbolTableRecord
100
AcDbTextStyleTableRecord
  2
STANDARD
 70
     0
 40
0.0
 41
1.0
 50
0.0
 71
     0
 42
2.5
  3
TXT
  4
bigfont.shx
  0
STYLE
  5
4BB
330
3
100
AcDbSymbolTableRecord
100
AcDbTextStyleTableRecord
  2
ｽﾀｲﾙ1
 70
     0
 40
0.0
 41
1.0
 50
0.0
 71
     0
 42
2.5
  3
MS PGothic.ttf
  4

1001
ACAD
1000
MS PGothic
1071
    32818
  0
ENDTAB
  0
TABLE
  2
VIEW
  5
6
330
0
100
AcDbSymbolTable
 70
     0
  0
ENDTAB
  0
TABLE
  2
UCS
  5
7
330
0
100
AcDbSymbolTable
 70
     0
  0
ENDTAB
  0
TABLE
  2
APPID
  5
9
330
0
100
AcDbSymbolTable
 70
     1
  0
APPID
  5
11
330
9
100
AcDbSymbolTableRecord
100
AcDbRegAppTableRecord
  2
ACAD
 70
     0
  0
ENDTAB
  0
TABLE
  2
DIMSTYLE
  5
A
330
0
100
AcDbSymbolTable
 70
     1
  0
DIMSTYLE
105
1D
102
{ACAD_REACTORS
330
33B
330
317
330
2FA
330
36F
330
362
330
321
330
75F
330
760
330
763
330
764
330
7DE
330
82C
102
}
330
A
100
AcDbSymbolTableRecord
100
AcDbDimStyleTableRecord
  2
STANDARD
 70
     0
  3

  4

  5

  6

  7

 40
1.0
 41
0.18
 42
0.0625
 43
0.38
 44
0.18
 45
0.0
 46
0.0
 47
0.0
 48
0.0
140
0.18
141
0.09
142
0.0
143
25.4
144
1.0
145
0.0
146
1.0
147
0.09
 71
     0
 72
     0
 73
     1
 74
     1
 75
     0
 76
     0
 77
     0
 78
     0
170
     0
171
     2
172
     0
173
     0
174
     0
175
     0
176
     0
177
     0
178
     0
270
     2
271
     4
272
     4
273
     2
274
     2
340
10
275
     0
280
     0
281
     0
282
     0
283
     1
284
     0
285
     0
286
     0
287
     3
288
     0
  0
ENDTAB
  0
TABLE
  2
BLOCK_RECORD
  5
1
330
0
100
AcDbSymbolTable
 70
    20
  0
BLOCK_RECORD
  5
1A
102
{ACAD_XDICTIONARY
360
444
102
}
330
1
100
AcDbSymbolTableRecord
100
AcDbBlockTableRecord
  2
*MODEL_SPACE
  0
BLOCK_RECORD
  5
17
102
{ACAD_XDICTIONARY
360
442
102
}
330
1
100
AcDbSymbolTableRecord
100
AcDbBlockTableRecord
  2
*PAPER_SPACE
  0
BLOCK_RECORD
  5
B2
330
1
100
AcDbSymbolTableRecord
100
AcDbBlockTableRecord
  2
_OPEN
  0
BLOCK_RECORD
  5
835
330
1
100
AcDbSymbolTableRecord
100
AcDbBlockTableRecord
  2
*D14
  0
BLOCK_RECORD
  5
841
330
1
100
AcDbSymbolTableRecord
100
AcDbBlockTableRecord
  2
*D15
  0
BLOCK_RECORD
  5
84D
330
1
100
AcDbSymbolTableRecord
100
AcDbBlockTableRecord
  2
*D16
  0
BLOCK_RECORD
  5
859
330
1
100
AcDbSymbolTableRecord
100
AcDbBlockTableRecord
  2
*D17
  0
BLOCK_RECORD
  5
865
330
1
100
AcDbSymbolTableRecord
100
AcDbBlockTableRecord
  2
*D18
  0
BLOCK_RECORD
  5
871
330
1
100
AcDbSymbolTableRecord
100
AcDbBlockTableRecord
  2
*D19
  0
ENDTAB
  0
ENDSEC
  0
SECTION
  2
BLOCKS
  0
BLOCK
  5
1B
330
1A
100
AcDbEntity
  8
0
100
AcDbBlockBegin
  2
*MODEL_SPACE
 70
     0
 10
0.0
 20
0.0
 30
0.0
  3
*MODEL_SPACE
  1

  0
ENDBLK
  5
1C
330
1A
100
AcDbEntity
  8
0
100
AcDbBlockEnd
  0
BLOCK
  5
18
330
17
100
AcDbEntity
 67
     1
  8
0
100
AcDbBlockBegin
  2
*PAPER_SPACE
 70
     0
 10
0.0
 20
0.0
 30
0.0
  3
*PAPER_SPACE
  1

  0
ENDBLK
  5
19
330
17
100
AcDbEntity
 67
     1
  8
0
100
AcDbBlockEnd
  0
BLOCK
  5
B3
330
B2
100
AcDbEntity
  8
0
100
AcDbBlockBegin
  2
_OPEN
 70
     0
 10
0.0
 20
0.0
 30
0.0
  3
_OPEN
  1

  0
LINE
  5
B4
330
B2
100
AcDbEntity
  8
0
  6
BYBLOCK
 62
     0
100
AcDbLine
 10
-1.0
 20
0.1666666666666666
 30
0.0
 11
0.0
 21
0.0
 31
0.0
  0
LINE
  5
B5
330
B2
100
AcDbEntity
  8
0
  6
BYBLOCK
 62
     0
100
AcDbLine
 10
0.0
 20
0.0
 30
0.0
 11
-1.0
 21
-0.1666666666666666
 31
0.0
  0
LINE
  5
B6
330
B2
100
AcDbEntity
  8
0
  6
BYBLOCK
 62
     0
100
AcDbLine
 10
0.0
 20
0.0
 30
0.0
 11
-1.0
 21
0.0
 31
0.0
  0
ENDBLK
  5
B7
330
B2
100
AcDbEntity
  8
0
100
AcDbBlockEnd
  0
BLOCK
  5
83F
330
835
100
AcDbEntity
  8
0
100
AcDbBlockBegin
  2
*D14
 70
     1
 10
0.0
 20
0.0
 30
0.0
  3
*D14
  1

  0
LINE
  5
87F
330
835
100
AcDbEntity
  8
SUNPOU
 62
     4
100
AcDbLine
 10
197.8497512891512
 20
112.807618534646
 30
0.0
 11
197.8497512891512
 21
137.5097713537456
 31
0.0
  0
LINE
  5
880
330
835
100
AcDbEntity
  8
SUNPOU
 62
     4
100
AcDbLine
 10
287.8497512891512
 20
102.106018534646
 30
0.0
 11
287.8497512891512
 21
137.5097713537456
 31
0.0
  0
LINE
  5
881
330
835
100
AcDbEntity
  8
SUNPOU
 62
     4
100
AcDbLine
 10
200.8497512891512
 20
136.0097713537457
 30
0.0
 11
284.8497512891512
 21
136.0097713537457
 31
0.0
  0
INSERT
  5
882
330
835
100
AcDbEntity
  8
SUNPOU
 62
     4
100
AcDbBlockReference
  2
_OPEN
 10
197.8497512891512
 20
136.0097713537457
 30
0.0
 41
3.0
 42
3.0
 43
3.0
 50
180.0
  0
INSERT
  5
883
330
835
100
AcDbEntity
  8
SUNPOU
 62
     4
100
AcDbBlockReference
  2
_OPEN
 10
287.8497512891512
 20
136.0097713537457
 30
0.0
 41
3.0
 42
3.0
 43
3.0
  0
MTEXT
  5
884
330
835
100
AcDbEntity
  8
SUNPOU
 62
     4
100
AcDbMText
 10
242.8497512891512
 20
138.5097713537456
 30
0.0
 40
3.0
 41
0.0
 71
     5
 72
     1
  1
\A1;90
1001
ACAD
1000
MTEXTBEGIN
1070
    73
1070
     1
1070
    44
1040
1.0
1070
    74
1070
     0
1000
MTEXTEND
  0
POINT
  5
885
330
835
100
AcDbEntity
  8
DEFPOINTS
 62
     0
100
AcDbPoint
 10
197.8497512891512
 20
109.807618534646
 30
0.0
  0
POINT
  5
886
330
835
100
AcDbEntity
  8
DEFPOINTS
 62
     0
100
AcDbPoint
 10
287.8497512891512
 20
99.10601853464603
 30
0.0
  0
POINT
  5
887
330
835
100
AcDbEntity
  8
DEFPOINTS
 62
     0
100
AcDbPoint
 10
287.8497512891512
 20
136.0097713537457
 30
0.0
  0
ENDBLK
  5
840
330
835
100
AcDbEntity
  8
0
100
AcDbBlockEnd
  0
BLOCK
  5
84B
330
841
100
AcDbEntity
  8
0
100
AcDbBlockBegin
  2
*D15
 70
     1
 10
0.0
 20
0.0
 30
0.0
  3
*D15
  1

  0
LINE
  5
888
330
841
100
AcDbEntity
  8
SUNPOU
 62
     4
100
AcDbLine
 10
287.8497151410572
 20
102.1060241978474
 30
0.0
 11
287.8497151410572
 21
167.8777706553562
 31
0.0
  0
LINE
  5
889
330
841
100
AcDbEntity
  8
SUNPOU
 62
     4
100
AcDbLine
 10
129.2498512891513
 20
124.0058185346459
 30
0.0
 11
129.2498512891513
 21
167.8777706553562
 31
0.0
  0
LINE
  5
88A
330
841
100
AcDbEntity
  8
SUNPOU
 62
     4
100
AcDbLine
 10
284.8497151410571
 20
166.3777706553562
 30
0.0
 11
132.2498512891513
 21
166.3777706553562
 31
0.0
  0
INSERT
  5
88B
330
841
100
AcDbEntity
  8
SUNPOU
 62
     4
100
AcDbBlockReference
  2
_OPEN
 10
287.8497151410572
 20
166.3777706553562
 30
0.0
 41
3.0
 42
3.0
 43
3.0
  0
INSERT
  5
88C
330
841
100
AcDbEntity
  8
SUNPOU
 62
     4
100
AcDbBlockReference
  2
_OPEN
 10
129.2498512891513
 20
166.3777706553562
 30
0.0
 41
3.0
 42
3.0
 43
3.0
 50
180.0
  0
MTEXT
  5
88D
330
841
100
AcDbEntity
  8
SUNPOU
 62
     4
100
AcDbMText
 10
208.5497832151042
 20
168.8777706553562
 30
0.0
 40
3.0
 41
0.0
 71
     5
 72
     1
  1
\A1;159
1001
ACAD
1000
MTEXTBEGIN
1070
    73
1070
     1
1070
    44
1040
1.0
1070
    74
1070
     0
1000
MTEXTEND
  0
POINT
  5
88E
330
841
100
AcDbEntity
  8
DEFPOINTS
 62
     0
100
AcDbPoint
 10
287.8497151410572
 20
99.10602419784744
 30
0.0
  0
POINT
  5
88F
330
841
100
AcDbEntity
  8
DEFPOINTS
 62
     0
100
AcDbPoint
 10
129.2498512891513
 20
121.0058185346459
 30
0.0
  0
POINT
  5
890
330
841
100
AcDbEntity
  8
DEFPOINTS
 62
     0
100
AcDbPoint
 10
129.2498512891513
 20
166.3777706553562
 30
0.0
  0
ENDBLK
  5
84C
330
841
100
AcDbEntity
  8
0
100
AcDbBlockEnd
  0
BLOCK
  5
857
330
84D
100
AcDbEntity
  8
0
100
AcDbBlockBegin
  2
*D16
 70
     1
 10
0.0
 20
0.0
 30
0.0
  3
*D16
  1

  0
LINE
  5
891
330
84D
100
AcDbEntity
  8
SUNPOU
 62
     4
100
AcDbLine
 10
129.2498512891513
 20
124.0058185346459
 30
0.0
 11
129.2498512891513
 21
154.5377997240411
 31
0.0
  0
LINE
  5
892
330
84D
100
AcDbEntity
  8
SUNPOU
 62
     4
100
AcDbLine
 10
195.8497512891512
 20
124.0058185346459
 30
0.0
 11
195.8497512891512
 21
154.5377997240411
 31
0.0
  0
LINE
  5
893
330
84D
100
AcDbEntity
  8
SUNPOU
 62
     4
100
AcDbLine
 10
132.2498512891513
 20
153.0377997240411
 30
0.0
 11
192.8497512891512
 21
153.0377997240411
 31
0.0
  0
INSERT
  5
894
330
84D
100
AcDbEntity
  8
SUNPOU
 62
     4
100
AcDbBlockReference
  2
_OPEN
 10
129.2498512891513
 20
153.0377997240411
 30
0.0
 41
3.0
 42
3.0
 43
3.0
 50
180.0
  0
INSERT
  5
895
330
84D
100
AcDbEntity
  8
SUNPOU
 62
     4
100
AcDbBlockReference
  2
_OPEN
 10
195.8497512891512
 20
153.0377997240411
 30
0.0
 41
3.0
 42
3.0
 43
3.0
  0
MTEXT
  5
896
330
84D
100
AcDbEntity
  8
SUNPOU
 62
     4
100
AcDbMText
 10
162.5498012891513
 20
155.5377997240411
 30
0.0
 40
3.0
 41
0.0
 71
     5
 72
     1
  1
\A1;67
1001
ACAD
1000
MTEXTBEGIN
1070
    73
1070
     1
1070
    44
1040
1.0
1070
    74
1070
     0
1000
MTEXTEND
  0
POINT
  5
897
330
84D
100
AcDbEntity
  8
DEFPOINTS
 62
     0
100
AcDbPoint
 10
129.2498512891513
 20
121.0058185346459
 30
0.0
  0
POINT
  5
898
330
84D
100
AcDbEntity
  8
DEFPOINTS
 62
     0
100
AcDbPoint
 10
195.8497512891512
 20
121.0058185346459
 30
0.0
  0
POINT
  5
899
330
84D
100
AcDbEntity
  8
DEFPOINTS
 62
     0
100
AcDbPoint
 10
195.8497512891512
 20
153.0377997240411
 30
0.0
  0
ENDBLK
  5
858
330
84D
100
AcDbEntity
  8
0
100
AcDbBlockEnd
  0
BLOCK
  5
863
330
859
100
AcDbEntity
  8
0
100
AcDbBlockBegin
  2
*D17
 70
     1
 10
0.0
 20
0.0
 30
0.0
  3
*D17
  1

  0
LINE
  5
89A
330
859
100
AcDbEntity
  8
SUNPOU
 62
     4
100
AcDbLine
 10
150.5498512891513
 20
132.605218534646
 30
0.0
 11
111.4465125362601
 21
132.605218534646
 31
0.0
  0
LINE
  5
89B
330
859
100
AcDbEntity
  8
SUNPOU
 62
     4
100
AcDbLine
 10
139.8497512891512
 20
65.60571853464593
 30
0.0
 11
111.4465125362601
 21
65.60571853464593
 31
0.0
  0
LINE
  5
89C
330
859
100
AcDbEntity
  8
SUNPOU
 62
     4
100
AcDbLine
 10
112.9465125362601
 20
129.605218534646
 30
0.0
 11
112.9465125362601
 21
68.60571853464593
 31
0.0
  0
INSERT
  5
89D
330
859
100
AcDbEntity
  8
SUNPOU
 62
     4
100
AcDbBlockReference
  2
_OPEN
 10
112.9465125362601
 20
132.605218534646
 30
0.0
 41
3.0
 42
3.0
 43
3.0
 50
90.0
  0
INSERT
  5
89E
330
859
100
AcDbEntity
  8
SUNPOU
 62
     4
100
AcDbBlockReference
  2
_OPEN
 10
112.9465125362601
 20
65.60571853464593
 30
0.0
 41
3.0
 42
3.0
 43
3.0
 50
270.0
  0
MTEXT
  5
89F
330
859
100
AcDbEntity
  8
SUNPOU
 62
     4
100
AcDbMText
 10
110.44651253626
 20
99.10546853464602
 30
0.0
 40
3.0
 41
0.0
 71
     5
 72
     1
  1
\A1;67
 11
0.0000000000000001
 21
1.0
 31
0.0
1001
ACAD
1000
MTEXTBEGIN
1070
    73
1070
     1
1070
    44
1040
1.0
1070
    74
1070
     0
1000
MTEXTEND
  0
POINT
  5
8A0
330
859
100
AcDbEntity
  8
DEFPOINTS
 62
     0
100
AcDbPoint
 10
153.5498512891513
 20
132.605218534646
 30
0.0
  0
POINT
  5
8A1
330
859
100
AcDbEntity
  8
DEFPOINTS
 62
     0
100
AcDbPoint
 10
142.8497512891512
 20
65.60571853464593
 30
0.0
  0
POINT
  5
8A2
330
859
100
AcDbEntity
  8
DEFPOINTS
 62
     0
100
AcDbPoint
 10
112.9465125362601
 20
65.60571853464593
 30
0.0
  0
ENDBLK
  5
864
330
859
100
AcDbEntity
  8
0
100
AcDbBlockEnd
  0
BLOCK
  5
86F
330
865
100
AcDbEntity
  8
0
100
AcDbBlockBegin
  2
*D18
 70
     1
 10
0.0
 20
0.0
 30
0.0
  3
*D18
  1

  0
LINE
  5
8A3
330
865
100
AcDbEntity
  8
SUNPOU
 62
     4
100
AcDbLine
 10
128.7498512891513
 20
209.344715662135
 30
0.0
 11
111.4465125362601
 21
209.344715662135
 31
0.0
  0
LINE
  5
8A4
330
865
100
AcDbEntity
  8
SUNPOU
 62
     4
100
AcDbLine
 10
128.7498512891513
 20
195.344715662135
 30
0.0
 11
111.4465125362601
 21
195.344715662135
 31
0.0
  0
LINE
  5
8A5
330
865
100
AcDbEntity
  8
SUNPOU
 62
     4
100
AcDbLine
 10
112.9465125362601
 20
206.3447156621351
 30
0.0
 11
112.9465125362601
 21
198.344715662135
 31
0.0
  0
INSERT
  5
8A6
330
865
100
AcDbEntity
  8
SUNPOU
 62
     4
100
AcDbBlockReference
  2
_OPEN
 10
112.9465125362601
 20
209.344715662135
 30
0.0
 41
3.0
 42
3.0
 43
3.0
 50
90.0
  0
INSERT
  5
8A7
330
865
100
AcDbEntity
  8
SUNPOU
 62
     4
100
AcDbBlockReference
  2
_OPEN
 10
112.9465125362601
 20
195.344715662135
 30
0.0
 41
3.0
 42
3.0
 43
3.0
 50
270.0
  0
MTEXT
  5
8A8
330
865
100
AcDbEntity
  8
SUNPOU
 62
     4
100
AcDbMText
 10
110.44651253626
 20
202.344715662135
 30
0.0
 40
3.0
 41
0.0
 71
     5
 72
     1
  1
\A1;14
 11
0.0000000000000001
 21
1.0
 31
0.0
1001
ACAD
1000
MTEXTBEGIN
1070
    73
1070
     1
1070
    44
1040
1.0
1070
    74
1070
     0
1000
MTEXTEND
  0
POINT
  5
8A9
330
865
100
AcDbEntity
  8
DEFPOINTS
 62
     0
100
AcDbPoint
 10
131.7498512891513
 20
209.344715662135
 30
0.0
  0
POINT
  5
8AA
330
865
100
AcDbEntity
  8
DEFPOINTS
 62
     0
100
AcDbPoint
 10
131.7498512891513
 20
195.344715662135
 30
0.0
  0
POINT
  5
8AB
330
865
100
AcDbEntity
  8
DEFPOINTS
 62
     0
100
AcDbPoint
 10
112.9465125362601
 20
195.344715662135
 30
0.0
  0
ENDBLK
  5
870
330
865
100
AcDbEntity
  8
0
100
AcDbBlockEnd
  0
BLOCK
  5
87D
330
871
100
AcDbEntity
  8
0
100
AcDbBlockBegin
  2
*D19
 70
     1
 10
0.0
 20
0.0
 30
0.0
  3
*D19
  1

  0
LINE
  5
8AC
330
871
100
AcDbEntity
  8
SUNPOU
 62
     4
100
AcDbLine
 10
275.8497512891512
 20
101.8560326503365
 30
0.0
 11
313.7189395195055
 21
101.8560326503365
 31
0.0
  0
LINE
  5
8AD
330
871
100
AcDbEntity
  8
SUNPOU
 62
     4
100
AcDbLine
 10
275.8497512891512
 20
96.35603265033564
 30
0.0
 11
313.7189395195055
 21
96.35603265033562
 31
0.0
  0
LINE
  5
8AE
330
871
100
AcDbEntity
  8
SUNPOU
 62
     4
100
AcDbLine
 10
312.2189395195055
 20
104.8560326503364
 30
0.0
 11
312.2189395195055
 21
107.8560326503364
 31
0.0
  0
LINE
  5
8AF
330
871
100
AcDbEntity
  8
SUNPOU
 62
     4
100
AcDbLine
 10
312.2189395195055
 20
93.35603265033562
 30
0.0
 11
312.2189395195055
 21
77.55603265033562
 31
0.0
  0
LINE
  5
8B0
330
871
100
AcDbEntity
  8
SUNPOU
 62
     4
100
AcDbLine
 10
312.2189395195055
 20
101.8560326503365
 30
0.0
 11
312.2189395195055
 21
96.35603265033562
 31
0.0
  0
INSERT
  5
8B1
330
871
100
AcDbEntity
  8
SUNPOU
 62
     4
100
AcDbBlockReference
  2
_OPEN
 10
312.2189395195055
 20
101.8560326503365
 30
0.0
 41
3.0
 42
3.0
 43
3.0
 50
270.0
  0
INSERT
  5
8B2
330
871
100
AcDbEntity
  8
SUNPOU
 62
     4
100
AcDbBlockReference
  2
_OPEN
 10
312.2189395195055
 20
96.35603265033562
 30
0.0
 41
3.0
 42
3.0
 43
3.0
 50
90.0
  0
MTEXT
  5
8B3
330
871
100
AcDbEntity
  8
SUNPOU
 62
     4
100
AcDbMText
 10
309.7189395195055
 20
83.95603265033567
 30
0.0
 40
3.0
 41
0.0
 71
     5
 72
     1
  1
\A1;φ 5.5
 11
0.0000000000000001
 21
1.0
 31
0.0
1001
ACAD
1000
MTEXTBEGIN
1070
    73
1070
     1
1070
    44
1040
1.0
1070
    74
1070
     0
1000
MTEXTEND
  0
POINT
  5
8B4
330
871
100
AcDbEntity
  8
DEFPOINTS
 62
     0
100
AcDbPoint
 10
272.8497512891512
 20
101.8560326503365
 30
0.0
  0
POINT
  5
8B5
330
871
100
AcDbEntity
  8
DEFPOINTS
 62
     0
100
AcDbPoint
 10
272.8497512891512
 20
96.35603265033564
 30
0.0
  0
POINT
  5
8B6
330
871
100
AcDbEntity
  8
DEFPOINTS
 62
     0
100
AcDbPoint
 10
312.2189395195055
 20
96.35603265033562
 30
0.0
  0
ENDBLK
  5
87E
330
871
100
AcDbEntity
  8
0
100
AcDbBlockEnd
  0
ENDSEC
  0
SECTION
  2
ENTITIES
  0
LINE
  5
577
330
1A
100
AcDbEntity
  8
ZUWAKU
100
AcDbLine
 10
104.323300388521
 20
7.600000339449703
 30
0.0
 11
223.7121817289827
 21
7.600000339449699
 31
0.0
  0
LINE
  5
578
330
1A
100
AcDbEntity
  8
ZUWAKU
100
AcDbLine
 10
104.323300388521
 20
7.800000339449701
 30
0.0
 11
223.7121817289827
 21
7.800000339449704
 31
0.0
  0
LINE
  5
579
330
1A
100
AcDbEntity
  8
ZUWAKU
100
AcDbLine
 10
104.323300388521
 20
7.700000339449701
 30
0.0
 11
223.7121817289827
 21
7.700000339449701
 31
0.0
  0
LINE
  5
57A
330
1A
100
AcDbEntity
  8
ZUWAKU
100
AcDbLine
 10
-0.0000002565129762
 20
15.40000033944969
 30
0.0
 11
398.6999997434869
 21
15.40000033944969
 31
0.0
  0
LINE
  5
57B
330
1A
100
AcDbEntity
  8
ZUWAKU
100
AcDbLine
 10
-0.0000002565129762
 20
15.30000033944968
 30
0.0
 11
398.6999997434869
 21
15.30000033944968
 31
0.0
  0
LINE
  5
57C
330
1A
100
AcDbEntity
  8
ZUWAKU
100
AcDbLine
 10
-0.0000002565129762
 20
15.20000033944968
 30
0.0
 11
398.6999997434869
 21
15.20000033944968
 31
0.0
  0
LINE
  5
57D
330
1A
100
AcDbEntity
  8
ZUWAKU
100
AcDbLine
 10
-0.0000002565129762
 20
15.10000033944968
 30
0.0
 11
398.6999997434869
 21
15.10000033944968
 31
0.0
  0
LINE
  5
57E
330
1A
100
AcDbEntity
  8
ZUWAKU
100
AcDbLine
 10
-0.0000002565129762
 20
15.00000033944968
 30
0.0
 11
398.6999997434869
 21
15.00000033944968
 31
0.0
  0
LWPOLYLINE
  5
57F
330
1A
100
AcDbEntity
  8
ZUWAKU
100
AcDbPolyline
 90
        4
 70
     1
 43
0.0
 10
0.0999997434869897
 20
275.7000003394497
 10
0.0999997434869897
 20
0.1000003394497071
 10
398.6999997434869
 20
0.1000003394497186
 10
398.699999743487
 20
275.7000003394497
  0
LWPOLYLINE
  5
580
330
1A
100
AcDbEntity
  8
ZUWAKU
100
AcDbPolyline
 90
        4
 70
     1
 43
0.0
 10
0.2999997434869783
 20
275.5000003394497
 10
0.2999997434869783
 20
0.3000003394496957
 10
398.4999997434871
 20
0.3000003394497188
 10
398.499999743487
 20
275.5000003394497
  0
LWPOLYLINE
  5
581
330
1A
100
AcDbEntity
  8
ZUWAKU
100
AcDbPolyline
 90
        4
 70
     1
 43
0.0
 10
-0.0000002565129762
 20
275.8000003394497
 10
-0.0000002565129762
 20
0.0000003394496844
 10
398.799999743487
 20
0.0000003394497181
 10
398.799999743487
 20
275.8000003394497
  0
LWPOLYLINE
  5
582
330
1A
100
AcDbEntity
  8
ZUWAKU
100
AcDbPolyline
 90
        4
 70
     1
 43
0.0
 10
0.1999997434870124
 20
275.6000003394496
 10
0.1999997434870124
 20
0.2000003394497298
 10
398.599999743487
 20
0.2000003394497183
 10
398.599999743487
 20
275.6000003394496
  0
LWPOLYLINE
  5
583
330
1A
100
AcDbEntity
  8
ZUWAKU
100
AcDbPolyline
 90
        4
 70
     1
 43
0.0
 10
0.3999997434870011
 20
275.4000003394497
 10
0.3999997434870011
 20
0.4000003394497185
 10
398.399999743487
 20
0.4000003394497185
 10
398.399999743487
 20
275.4000003394497
  0
TEXT
  5
584
330
1A
100
AcDbEntity
  8
MOJI
100
AcDbText
 10
46.47889453757159
 20
6.370589404587065
 30
0.0
 40
3.0
  1
たてといアートフェイスＹ６０Ｈ
 41
0.9
  7
ｽﾀｲﾙ1
100
AcDbText
  0
HATCH
  5
585
330
1A
100
AcDbEntity
  8
ZUWAKU
100
AcDbHatch
 10
0.0
 20
0.0
 30
0.0
210
0.0
220
0.0
230
1.0
  2
ANSI37
 70
     0
 71
     0
 91
        8
 92
        7
 72
     1
 73
     1
 93
       24
 10
7.251131074046952
 20
8.822424579941475
 42
-0.1989123673796348
 10
7.046105820877585
 20
9.317399326772001
 42
0.0
 10
7.046105820877585
 20
9.96250033944969
 42
-0.4142135623730912
 10
7.308605820877573
 20
10.22500033944968
 42
0.0
 10
8.796105820877528
 20
10.22500033944968
 42
0.4142135623731546
 10
9.058605820877573
 20
10.48750033944968
 42
0.0
 10
9.058605820877573
 20
11.36250033944968
 42
0.4142135623731586
 10
8.796105820877528
 20
11.62500033944968
 42
0.0
 10
7.046105820877585
 20
11.62500033944968
 42
0.4142135623730928
 10
5.646105820877608
 20
10.2250003394497
 42
0.0
 10
5.646105820877608
 20
9.317399326772065
 42
0.1989123673796619
 10
6.261181580385823
 20
7.832475086280261
 42
0.0
 10
7.716080567708161
 20
6.377576098957932
 42
-0.1989123673796613
 10
7.921105820877585
 20
5.882601352127339
 42
0.0
 10
7.921105820877585
 20
5.237500339449681
 42
-0.4142135623730911
 10
7.658605820877596
 20
4.975000339449685
 42
0.0
 10
6.171105820877642
 20
4.975000339449685
 42
0.4142135623731526
 10
5.908605820877596
 20
4.712500339449691
 42
0.0
 10
5.908605820877596
 20
3.837500339449681
 42
0.4142135623731526
 10
6.171105820877642
 20
3.575000339449687
 42
0.0
 10
7.921105820877585
 20
3.575000339449687
 42
0.4142135623731044
 10
9.321105820877619
 20
4.975000339449675
 42
0.0
 10
9.321105820877619
 20
5.882601352127311
 42
0.1989123673796604
 10
8.706030061369347
 20
7.367525592619081
 42
0.0
 97
        0
 92
        7
 72
     1
 73
     1
 93
       16
 10
11.7711058208776
 20
9.52500033944969
 42
-0.4142135623730935
 10
12.47110582087759
 20
10.22500033944968
 42
0.0
 10
13.43360582087757
 20
10.22500033944968
 42
0.4142135623731546
 10
13.69610582087761
 20
10.48750033944968
 42
0.0
 10
13.69610582087761
 20
11.36250033944968
 42
0.4142135623730951
 10
13.43360582087763
 20
11.62500033944968
 42
0.0
 10
12.47110582087754
 20
11.62500033944966
 42
0.4142135623730892
 10
10.37110582087757
 20
9.525000339449654
 42
0.0
 10
10.37110582087757
 20
5.675000339449699
 42
0.4142135623730969
 10
12.47110582087759
 20
3.575000339449687
 42
0.0
 10
13.43360582087757
 20
3.575000339449687
 42
0.4142135623731526
 10
13.69610582087761
 20
3.837500339449681
 42
0.0
 10
13.69610582087761
 20
4.712500339449691
 42
0.4142135623730891
 10
13.43360582087763
 20
4.975000339449685
 42
0.0
 10
12.47110582087759
 20
4.975000339449685
 42
-0.4142135623730928
 10
11.7711058208776
 20
5.675000339449679
 42
0.0
 97
        0
 92
        7
 72
     1
 73
     1
 93
        2
 10
12.12110582087757
 20
7.600000339449685
 42
1.0
 10
13.87110582087757
 20
7.600000339449685
 42
1.0
 97
        0
 92
        7
 72
     1
 73
     1
 93
       26
 10
18.65742906196658
 20
9.602523936231399
 42
0.0
 10
19.18824887853548
 20
11.28345335536619
 42
0.5069206636600134
 10
18.93793342893781
 20
11.62500033944968
 42
0.0
 10
18.08848873913319
 20
11.62500033944968
 42
0.3272098845218764
 10
17.83817328953551
 20
11.44154732353317
 42
0.0
 10
16.90403835221963
 20
8.483453355366226
 42
-0.3272098845219541
 10
16.65372290262189
 20
8.300000339449685
 42
0.0
 10
16.58360582087766
 20
8.300000339449685
 42
-0.4142135623731526
 10
16.32110582087761
 20
8.562500339449679
 42
0.0
 10
16.32110582087761
 20
11.36250033944968
 42
0.4142135623730951
 10
16.05860582087763
 20
11.62500033944968
 42
0.0
 10
15.18360582087757
 20
11.62500033944968
 42
0.4142135623730871
 10
14.92110582087758
 20
11.36250033944969
 42
0.0
 10
14.92110582087758
 20
3.837500339449681
 42
0.4142135623730891
 10
15.18360582087757
 20
3.575000339449687
 42
0.0
 10
16.05860582087757
 20
3.575000339449687
 42
0.4142135623731526
 10
16.32110582087761
 20
3.837500339449681
 42
0.0
 10
16.32110582087761
 20
6.637500339449692
 42
-0.4142135623731526
 10
16.58360582087766
 20
6.900000339449686
 42
0.0
 10
16.65372290262195
 20
6.900000339449686
 42
-0.3272098845218915
 10
16.90403835221963
 20
6.716547323533148
 42
0.0
 10
17.83817328953551
 20
3.758453355366222
 42
0.3272098845218902
 10
18.08848873913319
 20
3.575000339449687
 42
0.0
 10
18.93793342893781
 20
3.575000339449687
 42
0.5069206636600335
 10
19.18824887853548
 20
3.91654732353319
 42
0.0
 10
18.02505318929866
 20
7.600000339449755
 42
0.0
 97
        0
 92
        7
 72
     1
 73
     1
 93
        8
 10
21.74610582087757
 20
11.36250033944969
 42
0.4142135623731546
 10
21.48360582087752
 20
11.62500033944968
 42
0.0
 10
20.60860582087764
 20
11.62500033944968
 42
0.4142135623731507
 10
20.34610582087759
 20
11.36250033944969
 42
0.0
 10
20.34610582087759
 20
3.837500339449681
 42
0.4142135623731526
 10
20.60860582087764
 20
3.575000339449687
 42
0.0
 10
21.48360582087752
 20
3.575000339449687
 42
0.4142135623731526
 10
21.74610582087757
 20
3.837500339449681
 42
0.0
 97
        0
 92
        7
 72
     1
 73
     1
 93
       24
 10
24.19610582087762
 20
9.96250033944969
 42
-0.4142135623731546
 10
24.45860582087766
 20
10.22500033944968
 42
0.0
 10
25.94610582087762
 20
10.22500033944968
 42
0.4142135623730911
 10
26.20860582087761
 20
10.48750033944968
 42
0.0
 10
26.20860582087761
 20
11.36250033944968
 42
0.4142135623730952
 10
25.94610582087762
 20
11.62500033944968
 42
0.0
 10
24.19610582087762
 20
11.62500033944968
 42
0.4142135623731048
 10
22.79610582087758
 20
10.2250003394497
 42
0.0
 10
22.79610582087758
 20
9.317399326772065
 42
0.1989123673796613
 10
23.41118158038586
 20
7.83247508628029
 42
0.0
 10
24.86608056770819
 20
6.377576098957955
 42
-0.1989123673796402
 10
25.07110582087761
 20
5.882601352127419
 42
0.0
 10
25.07110582087761
 20
5.237500339449681
 42
-0.4142135623730911
 10
24.80860582087763
 20
4.975000339449685
 42
0.0
 10
23.32110582087762
 20
4.975000339449685
 42
0.4142135623731526
 10
23.05860582087757
 20
4.712500339449691
 42
0.0
 10
23.05860582087757
 20
3.837500339449681
 42
0.4142135623730891
 10
23.32110582087756
 20
3.575000339449687
 42
0.0
 10
25.07110582087761
 20
3.575000339449687
 42
0.4142135623730925
 10
26.47110582087759
 20
4.975000339449675
 42
0.0
 10
26.47110582087759
 20
5.882601352127311
 42
0.1989123673796675
 10
25.85603006136932
 20
7.367525592619138
 42
0.0
 10
24.40113107404704
 20
8.822424579941396
 42
-0.1989123673796652
 10
24.19610582087762
 20
9.31739932677198
 42
0.0
 97
        0
 92
        7
 72
     1
 73
     1
 93
       16
 10
28.92110582087758
 20
11.36250033944968
 42
0.414213562373103
 10
28.65860582087759
 20
11.62500033944968
 42
0.0
 10
27.78360582087759
 20
11.62500033944968
 42
0.4142135623730871
 10
27.52110582087761
 20
11.36250033944969
 42
0.0
 10
27.52110582087761
 20
4.975000339449675
 42
0.4142135623730926
 10
28.92110582087758
 20
3.575000339449687
 42
0.0
 10
30.67110582087758
 20
3.575000339449687
 42
0.4142135623731044
 10
32.07110582087762
 20
4.975000339449675
 42
0.0
 10
32.07110582087762
 20
11.36250033944968
 42
0.4142135623730951
 10
31.80860582087763
 20
11.62500033944968
 42
0.0
 10
30.93360582087757
 20
11.62500033944968
 42
0.4142135623730871
 10
30.67110582087758
 20
11.36250033944969
 42
0.0
 10
30.67110582087758
 20
5.500000339449673
 42
-0.414213562373088
 10
30.1461058208776
 20
4.975000339449685
 42
0.0
 10
29.44610582087761
 20
4.975000339449685
 42
-0.4142135623731197
 10
28.92110582087758
 20
5.500000339449673
 42
0.0
 97
        0
 92
        7
 72
     1
 73
     1
 93
        8
 10
34.5211058208776
 20
11.36250033944969
 42
0.4142135623730871
 10
34.25860582087762
 20
11.62500033944968
 42
0.0
 10
33.38360582087762
 20
11.62500033944968
 42
0.4142135623731507
 10
33.12110582087757
 20
11.36250033944969
 42
0.0
 10
33.12110582087757
 20
3.837500339449681
 42
0.4142135623730891
 10
33.38360582087756
 20
3.575000339449687
 42
0.0
 10
34.25860582087762
 20
3.575000339449687
 42
0.4142135623730891
 10
34.5211058208776
 20
3.837500339449681
 42
0.0
 97
        0
 75
     0
 76
     1
 52
0.0
 41
0.1
 77
     0
 78
     2
 53
45.0
 43
-450.4711524238524
 44
-6.599999660550281
 45
-0.2245064030267288
 46
0.2245064030267288
 79
     0
 53
135.0
 43
-450.4711524238524
 44
-6.599999660550281
 45
-0.2245064030267288
 46
-0.2245064030267288
 79
     0
 47
0.057451373970553
 98
        8
 10
8.039927224998677
 20
7.583587162392461
 10
11.2022572467066
 20
9.42203143067519
 10
12.58218368631685
 20
7.755941162485044
 10
15.45702973430559
 20
8.100649162670435
 10
20.91923575296539
 20
8.330455296441243
 10
23.44910019105179
 20
9.70928849765329
 10
28.2788427296872
 20
9.364579296997192
 10
33.91353955329839
 20
9.594385430767999
  0
LINE
  5
586
330
1A
100
AcDbEntity
  8
ZUWAKU
100
AcDbLine
 10
12.47110582087759
 20
11.62500033944966
 30
0.0
 11
13.43360582087757
 21
11.62500033944968
 31
0.0
  0
LINE
  5
587
330
1A
100
AcDbEntity
  8
ZUWAKU
100
AcDbLine
 10
13.43360582087757
 20
10.22500033944968
 30
0.0
 11
12.47110582087759
 21
10.22500033944968
 31
0.0
  0
LINE
  5
588
330
1A
100
AcDbEntity
  8
ZUWAKU
100
AcDbLine
 10
12.47110582087759
 20
4.975000339449685
 30
0.0
 11
13.43360582087757
 21
4.975000339449685
 31
0.0
  0
LINE
  5
589
330
1A
100
AcDbEntity
  8
ZUWAKU
100
AcDbLine
 10
13.43360582087757
 20
3.575000339449687
 30
0.0
 11
12.47110582087759
 21
3.575000339449687
 31
0.0
  0
CIRCLE
  5
58A
330
1A
100
AcDbEntity
  8
ZUWAKU
100
AcDbCircle
 10
12.99610582087757
 20
7.600000339449685
 30
0.0
 40
0.875
  0
ARC
  5
58B
330
1A
100
AcDbEntity
  8
ZUWAKU
100
AcDbCircle
 10
7.746105820877573
 20
9.317399326772036
 30
0.0
 40
0.7
100
AcDbArc
 50
180.0000000000016
 51
224.9999999999988
  0
LINE
  5
58C
330
1A
100
AcDbEntity
  8
ZUWAKU
100
AcDbLine
 10
11.7711058208776
 20
9.525000339449686
 30
0.0
 11
11.7711058208776
 21
5.675000339449688
 31
0.0
  0
LINE
  5
58D
330
1A
100
AcDbEntity
  8
ZUWAKU
100
AcDbLine
 10
10.37110582087757
 20
5.675000339449688
 30
0.0
 11
10.37110582087757
 21
9.525000339449665
 31
0.0
  0
ARC
  5
58E
330
1A
100
AcDbEntity
  8
ZUWAKU
100
AcDbCircle
 10
7.746105820877573
 20
9.317399326772036
 30
0.0
 40
2.099999999999999
100
AcDbArc
 50
180.0
 51
225.0
  0
ARC
  5
58F
330
1A
100
AcDbEntity
  8
ZUWAKU
100
AcDbCircle
 10
7.921105820877585
 20
4.975000339449685
 30
0.0
 40
1.399999999999999
100
AcDbArc
 50
270.0
 51
0.0
  0
ARC
  5
590
330
1A
100
AcDbEntity
  8
ZUWAKU
100
AcDbCircle
 10
12.47110582087759
 20
5.675000339449688
 30
0.0
 40
2.099999999999999
100
AcDbArc
 50
180.0
 51
270.0
  0
ARC
  5
591
330
1A
100
AcDbEntity
  8
ZUWAKU
100
AcDbCircle
 10
7.221105820877596
 20
5.882601352127338
 30
0.0
 40
2.099999999999999
100
AcDbArc
 50
0.0
 51
45.0
  0
LINE
  5
592
330
1A
100
AcDbEntity
  8
ZUWAKU
100
AcDbLine
 10
8.706030061369347
 20
7.367525592619099
 30
0.0
 11
7.251131074047009
 21
8.822424579941436
 31
0.0
  0
LINE
  5
593
330
1A
100
AcDbEntity
  8
ZUWAKU
100
AcDbLine
 10
7.921105820877585
 20
5.237500339449688
 30
0.0
 11
7.921105820877585
 21
5.882601352127359
 31
0.0
  0
ARC
  5
594
330
1A
100
AcDbEntity
  8
ZUWAKU
100
AcDbCircle
 10
7.658605820877596
 20
5.237500339449688
 30
0.0
 40
0.2625
100
AcDbArc
 50
270.0
 51
0.0
  0
ARC
  5
595
330
1A
100
AcDbEntity
  8
ZUWAKU
100
AcDbCircle
 10
7.221105820877596
 20
5.882601352127359
 30
0.0
 40
0.7
100
AcDbArc
 50
0.0
 51
45.0
  0
LINE
  5
596
330
1A
100
AcDbEntity
  8
ZUWAKU
100
AcDbLine
 10
5.908605820877596
 20
3.837500339449686
 30
0.0
 11
5.908605820877596
 21
4.712500339449686
 31
0.0
  0
ARC
  5
597
330
1A
100
AcDbEntity
  8
ZUWAKU
100
AcDbCircle
 10
6.171105820877585
 20
3.837500339449686
 30
0.0
 40
0.2625
100
AcDbArc
 50
180.0
 51
270.0
  0
ARC
  5
598
330
1A
100
AcDbEntity
  8
ZUWAKU
100
AcDbCircle
 10
6.171105820877585
 20
4.712500339449686
 30
0.0
 40
0.2625
100
AcDbArc
 50
90.0
 51
180.0
  0
LINE
  5
599
330
1A
100
AcDbEntity
  8
ZUWAKU
100
AcDbLine
 10
6.171105820877585
 20
3.575000339449687
 30
0.0
 11
7.921105820877585
 21
3.575000339449687
 31
0.0
  0
LINE
  5
59A
330
1A
100
AcDbEntity
  8
ZUWAKU
100
AcDbLine
 10
6.171105820877585
 20
4.975000339449685
 30
0.0
 11
7.658605820877596
 21
4.975000339449685
 31
0.0
  0
LINE
  5
59B
330
1A
100
AcDbEntity
  8
ZUWAKU
100
AcDbLine
 10
6.261181580385823
 20
7.832475086280275
 30
0.0
 11
7.716080567708161
 21
6.377576098957945
 31
0.0
  0
LINE
  5
59C
330
1A
100
AcDbEntity
  8
ZUWAKU
100
AcDbLine
 10
9.321105820877619
 20
4.975000339449685
 30
0.0
 11
9.321105820877619
 21
5.882601352127359
 31
0.0
  0
ARC
  5
59D
330
1A
100
AcDbEntity
  8
ZUWAKU
100
AcDbCircle
 10
12.47110582087759
 20
5.675000339449688
 30
0.0
 40
0.7
100
AcDbArc
 50
180.0
 51
270.0
  0
ARC
  5
59E
330
1A
100
AcDbEntity
  8
ZUWAKU
100
AcDbCircle
 10
8.796105820877585
 20
11.36250033944968
 30
0.0
 40
0.2625
100
AcDbArc
 50
0.0
 51
90.0
  0
ARC
  5
59F
330
1A
100
AcDbEntity
  8
ZUWAKU
100
AcDbCircle
 10
8.796105820877585
 20
10.48750033944968
 30
0.0
 40
0.2625
100
AcDbArc
 50
270.0
 51
0.0
  0
LINE
  5
5A0
330
1A
100
AcDbEntity
  8
ZUWAKU
100
AcDbLine
 10
7.046105820877585
 20
11.62500033944968
 30
0.0
 11
8.796105820877585
 21
11.62500033944968
 31
0.0
  0
ARC
  5
5A1
330
1A
100
AcDbEntity
  8
ZUWAKU
100
AcDbCircle
 10
7.308605820877573
 20
9.962500339449686
 30
0.0
 40
0.2625
100
AcDbArc
 50
90.0
 51
180.0
  0
LINE
  5
5A2
330
1A
100
AcDbEntity
  8
ZUWAKU
100
AcDbLine
 10
7.046105820877585
 20
9.962500339449686
 30
0.0
 11
7.046105820877585
 21
9.317399326772015
 31
0.0
  0
LINE
  5
5A3
330
1A
100
AcDbEntity
  8
ZUWAKU
100
AcDbLine
 10
8.796105820877585
 20
10.22500033944968
 30
0.0
 11
7.308605820877573
 21
10.22500033944968
 31
0.0
  0
LINE
  5
5A4
330
1A
100
AcDbEntity
  8
ZUWAKU
100
AcDbLine
 10
5.646105820877608
 20
10.22500033944968
 30
0.0
 11
5.646105820877608
 21
9.317399326772015
 31
0.0
  0
ARC
  5
5A5
330
1A
100
AcDbEntity
  8
ZUWAKU
100
AcDbCircle
 10
7.046105820877585
 20
10.22500033944968
 30
0.0
 40
1.399999999999999
100
AcDbArc
 50
90.0
 51
180.0
  0
LINE
  5
5A6
330
1A
100
AcDbEntity
  8
ZUWAKU
100
AcDbLine
 10
9.058605820877573
 20
11.36250033944968
 30
0.0
 11
9.058605820877573
 21
10.48750033944968
 31
0.0
  0
ARC
  5
5A7
330
1A
100
AcDbEntity
  8
ZUWAKU
100
AcDbCircle
 10
12.47110582087759
 20
9.525000339449686
 30
0.0
 40
0.7
100
AcDbArc
 50
90.0
 51
180.0
  0
ARC
  5
5A8
330
1A
100
AcDbEntity
  8
ZUWAKU
100
AcDbCircle
 10
12.47110582087759
 20
9.525000339449665
 30
0.0
 40
2.099999999999999
100
AcDbArc
 50
90.0
 51
180.0
  0
LINE
  5
5A9
330
1A
100
AcDbEntity
  8
ZUWAKU
100
AcDbLine
 10
39.66331451748112
 20
15.00000033944968
 30
0.0
 11
39.66331451748123
 21
0.4000003394497185
 31
0.0
  0
LINE
  5
5AA
330
1A
100
AcDbEntity
  8
ZUWAKU
100
AcDbLine
 10
39.76331451748114
 20
15.00000033944968
 30
0.0
 11
39.76331451748126
 21
0.4000003394497185
 31
0.0
  0
LINE
  5
5AB
330
1A
100
AcDbEntity
  8
ZUWAKU
100
AcDbLine
 10
39.56331451748122
 20
15.00000033944968
 30
0.0
 11
39.56331451748122
 21
0.4000003394497185
 31
0.0
  0
LINE
  5
5AC
330
1A
100
AcDbEntity
  8
ZUWAKU
100
AcDbLine
 10
32.07110582087762
 20
4.975000339449685
 30
0.0
 11
32.07110582087762
 21
11.36250033944968
 31
0.0
  0
LINE
  5
5AD
330
1A
100
AcDbEntity
  8
ZUWAKU
100
AcDbLine
 10
30.67110582087758
 20
11.36250033944968
 30
0.0
 11
30.67110582087758
 21
5.500000339449684
 31
0.0
  0
LINE
  5
5AE
330
1A
100
AcDbEntity
  8
ZUWAKU
100
AcDbLine
 10
34.5211058208776
 20
3.837500339449686
 30
0.0
 11
34.5211058208776
 21
11.36250033944968
 31
0.0
  0
LINE
  5
5AF
330
1A
100
AcDbEntity
  8
ZUWAKU
100
AcDbLine
 10
33.12110582087757
 20
11.36250033944968
 30
0.0
 11
33.12110582087757
 21
3.837500339449686
 31
0.0
  0
ARC
  5
5B0
330
1A
100
AcDbEntity
  8
ZUWAKU
100
AcDbCircle
 10
24.8961058208776
 20
9.317399326772036
 30
0.0
 40
0.7
100
AcDbArc
 50
180.0000000000016
 51
224.9999999999988
  0
ARC
  5
5B1
330
1A
100
AcDbEntity
  8
ZUWAKU
100
AcDbCircle
 10
24.8961058208776
 20
9.317399326772036
 30
0.0
 40
2.099999999999999
100
AcDbArc
 50
180.0
 51
225.0
  0
LINE
  5
5B2
330
1A
100
AcDbEntity
  8
ZUWAKU
100
AcDbLine
 10
18.65742906196658
 20
9.602523936231399
 30
0.0
 11
18.02505318929866
 21
7.600000339449696
 31
0.0
  0
LINE
  5
5B3
330
1A
100
AcDbEntity
  8
ZUWAKU
100
AcDbLine
 10
20.34610582087759
 20
11.36250033944968
 30
0.0
 11
20.34610582087759
 21
3.837500339449686
 31
0.0
  0
LINE
  5
5B4
330
1A
100
AcDbEntity
  8
ZUWAKU
100
AcDbLine
 10
21.74610582087757
 20
3.837500339449686
 30
0.0
 11
21.74610582087757
 21
11.36250033944968
 31
0.0
  0
LINE
  5
5B5
330
1A
100
AcDbEntity
  8
ZUWAKU
100
AcDbLine
 10
27.52110582087761
 20
11.36250033944968
 30
0.0
 11
27.52110582087761
 21
4.975000339449685
 31
0.0
  0
LINE
  5
5B6
330
1A
100
AcDbEntity
  8
ZUWAKU
100
AcDbLine
 10
28.92110582087758
 20
5.500000339449684
 30
0.0
 11
28.92110582087758
 21
11.36250033944968
 31
0.0
  0
LINE
  5
5B7
330
1A
100
AcDbEntity
  8
ZUWAKU
100
AcDbLine
 10
16.32110582087761
 20
8.562500339449687
 30
0.0
 11
16.32110582087761
 21
11.36250033944968
 31
0.0
  0
LINE
  5
5B8
330
1A
100
AcDbEntity
  8
ZUWAKU
100
AcDbLine
 10
14.92110582087758
 20
11.36250033944968
 30
0.0
 11
14.92110582087758
 21
3.837500339449686
 31
0.0
  0
LINE
  5
5B9
330
1A
100
AcDbEntity
  8
ZUWAKU
100
AcDbLine
 10
17.83817328953551
 20
11.44154732353317
 30
0.0
 11
16.90403835221963
 21
8.483453355366201
 31
0.0
  0
LINE
  5
5BA
330
1A
100
AcDbEntity
  8
ZUWAKU
100
AcDbLine
 10
30.1461058208776
 20
4.975000339449685
 30
0.0
 11
29.44610582087761
 21
4.975000339449685
 31
0.0
  0
LINE
  5
5BB
330
1A
100
AcDbEntity
  8
ZUWAKU
100
AcDbLine
 10
28.92110582087758
 20
3.575000339449687
 30
0.0
 11
30.67110582087758
 21
3.575000339449687
 31
0.0
  0
LINE
  5
5BC
330
1A
100
AcDbEntity
  8
ZUWAKU
100
AcDbLine
 10
20.60860582087758
 20
3.575000339449687
 30
0.0
 11
21.48360582087758
 21
3.575000339449687
 31
0.0
  0
LINE
  5
5BD
330
1A
100
AcDbEntity
  8
ZUWAKU
100
AcDbLine
 10
17.83817328953551
 20
3.758453355366199
 30
0.0
 11
16.90403835221963
 21
6.71654732353317
 31
0.0
  0
ARC
  5
5BE
330
1A
100
AcDbEntity
  8
ZUWAKU
100
AcDbCircle
 10
16.65372290262195
 20
8.562500339449687
 30
0.0
 40
0.2625
100
AcDbArc
 50
270.0
 51
342.4744316262769
  0
LINE
  5
5BF
330
1A
100
AcDbEntity
  8
ZUWAKU
100
AcDbLine
 10
16.65372290262195
 20
8.300000339449685
 30
0.0
 11
16.5836058208776
 21
8.300000339449685
 31
0.0
  0
LINE
  5
5C0
330
1A
100
AcDbEntity
  8
ZUWAKU
100
AcDbLine
 10
16.5836058208776
 20
6.900000339449686
 30
0.0
 11
16.65372290262195
 21
6.900000339449686
 31
0.0
  0
ARC
  5
5C1
330
1A
100
AcDbEntity
  8
ZUWAKU
100
AcDbCircle
 10
16.5836058208776
 20
8.562500339449687
 30
0.0
 40
0.2625
100
AcDbArc
 50
180.0
 51
270.0
  0
LINE
  5
5C2
330
1A
100
AcDbEntity
  8
ZUWAKU
100
AcDbLine
 10
15.18360582087757
 20
3.575000339449687
 30
0.0
 11
16.05860582087757
 21
3.575000339449687
 31
0.0
  0
ARC
  5
5C3
330
1A
100
AcDbEntity
  8
ZUWAKU
100
AcDbCircle
 10
16.05860582087757
 20
3.837500339449686
 30
0.0
 40
0.2625
100
AcDbArc
 50
270.0
 51
0.0
  0
LINE
  5
5C4
330
1A
100
AcDbEntity
  8
ZUWAKU
100
AcDbLine
 10
16.32110582087761
 20
3.837500339449686
 30
0.0
 11
16.32110582087761
 21
6.637500339449687
 31
0.0
  0
LINE
  5
5C5
330
1A
100
AcDbEntity
  8
ZUWAKU
100
AcDbLine
 10
13.69610582087761
 20
4.712500339449686
 30
0.0
 11
13.69610582087761
 21
3.837500339449686
 31
0.0
  0
ARC
  5
5C6
330
1A
100
AcDbEntity
  8
ZUWAKU
100
AcDbCircle
 10
13.43360582087757
 20
3.837500339449686
 30
0.0
 40
0.2625
100
AcDbArc
 50
270.0
 51
0.0
  0
ARC
  5
5C7
330
1A
100
AcDbEntity
  8
ZUWAKU
100
AcDbCircle
 10
13.43360582087757
 20
4.712500339449686
 30
0.0
 40
0.2625
100
AcDbArc
 50
0.0
 51
90.0
  0
ARC
  5
5C8
330
1A
100
AcDbEntity
  8
ZUWAKU
100
AcDbCircle
 10
15.18360582087757
 20
3.837500339449686
 30
0.0
 40
0.2625
100
AcDbArc
 50
180.0
 51
270.0
  0
ARC
  5
5C9
330
1A
100
AcDbEntity
  8
ZUWAKU
100
AcDbCircle
 10
16.65372290262195
 20
6.637500339449687
 30
0.0
 40
0.2625
100
AcDbArc
 50
17.52556837372303
 51
90.0
  0
ARC
  5
5CA
330
1A
100
AcDbEntity
  8
ZUWAKU
100
AcDbCircle
 10
16.5836058208776
 20
6.637500339449687
 30
0.0
 40
0.2625
100
AcDbArc
 50
90.0
 51
180.0
  0
ARC
  5
5CB
330
1A
100
AcDbEntity
  8
ZUWAKU
100
AcDbCircle
 10
20.60860582087758
 20
3.837500339449686
 30
0.0
 40
0.2625
100
AcDbArc
 50
180.0
 51
270.0
  0
LINE
  5
5CC
330
1A
100
AcDbEntity
  8
ZUWAKU
100
AcDbLine
 10
18.08848873913325
 20
3.575000339449687
 30
0.0
 11
18.93793342893775
 21
3.575000339449687
 31
0.0
  0
ARC
  5
5CD
330
1A
100
AcDbEntity
  8
ZUWAKU
100
AcDbCircle
 10
18.93793342893775
 20
3.837500339449686
 30
0.0
 40
0.2625
100
AcDbArc
 50
270.0
 51
17.52556837372303
  0
LINE
  5
5CE
330
1A
100
AcDbEntity
  8
ZUWAKU
100
AcDbLine
 10
19.18824887853548
 20
3.916547323533173
 30
0.0
 11
18.02505318929866
 21
7.600000339449696
 31
0.0
  0
ARC
  5
5CF
330
1A
100
AcDbEntity
  8
ZUWAKU
100
AcDbCircle
 10
18.08848873913325
 20
3.837500339449686
 30
0.0
 40
0.2625
100
AcDbArc
 50
197.525568373723
 51
270.0
  0
ARC
  5
5D0
330
1A
100
AcDbEntity
  8
ZUWAKU
100
AcDbCircle
 10
28.92110582087758
 20
4.975000339449685
 30
0.0
 40
1.399999999999999
100
AcDbArc
 50
180.0
 51
270.0
  0
ARC
  5
5D1
330
1A
100
AcDbEntity
  8
ZUWAKU
100
AcDbCircle
 10
25.07110582087761
 20
4.975000339449685
 30
0.0
 40
1.399999999999999
100
AcDbArc
 50
270.0
 51
0.0
  0
LINE
  5
5D2
330
1A
100
AcDbEntity
  8
ZUWAKU
100
AcDbLine
 10
25.85603006136938
 20
7.367525592619099
 30
0.0
 11
24.40113107404698
 21
8.822424579941436
 31
0.0
  0
LINE
  5
5D3
330
1A
100
AcDbEntity
  8
ZUWAKU
100
AcDbLine
 10
25.07110582087761
 20
5.237500339449688
 30
0.0
 11
25.07110582087761
 21
5.882601352127359
 31
0.0
  0
ARC
  5
5D4
330
1A
100
AcDbEntity
  8
ZUWAKU
100
AcDbCircle
 10
24.37110582087757
 20
5.882601352127359
 30
0.0
 40
0.7
100
AcDbArc
 50
0.0
 51
45.0
  0
ARC
  5
5D5
330
1A
100
AcDbEntity
  8
ZUWAKU
100
AcDbCircle
 10
24.80860582087757
 20
5.237500339449688
 30
0.0
 40
0.2625
100
AcDbArc
 50
270.0
 51
0.0
  0
LINE
  5
5D6
330
1A
100
AcDbEntity
  8
ZUWAKU
100
AcDbLine
 10
23.05860582087757
 20
3.837500339449686
 30
0.0
 11
23.05860582087757
 21
4.712500339449686
 31
0.0
  0
ARC
  5
5D7
330
1A
100
AcDbEntity
  8
ZUWAKU
100
AcDbCircle
 10
23.32110582087762
 20
3.837500339449686
 30
0.0
 40
0.2625
100
AcDbArc
 50
180.0
 51
270.0
  0
ARC
  5
5D8
330
1A
100
AcDbEntity
  8
ZUWAKU
100
AcDbCircle
 10
21.48360582087758
 20
3.837500339449686
 30
0.0
 40
0.2625
100
AcDbArc
 50
270.0
 51
0.0
  0
ARC
  5
5D9
330
1A
100
AcDbEntity
  8
ZUWAKU
100
AcDbCircle
 10
23.32110582087762
 20
4.712500339449686
 30
0.0
 40
0.2625
100
AcDbArc
 50
90.0
 51
180.0
  0
LINE
  5
5DA
330
1A
100
AcDbEntity
  8
ZUWAKU
100
AcDbLine
 10
23.32110582087762
 20
4.975000339449685
 30
0.0
 11
24.80860582087757
 21
4.975000339449685
 31
0.0
  0
LINE
  5
5DB
330
1A
100
AcDbEntity
  8
ZUWAKU
100
AcDbLine
 10
23.32110582087762
 20
3.575000339449687
 30
0.0
 11
25.07110582087761
 21
3.575000339449687
 31
0.0
  0
LINE
  5
5DC
330
1A
100
AcDbEntity
  8
ZUWAKU
100
AcDbLine
 10
23.41118158038586
 20
7.832475086280275
 30
0.0
 11
24.86608056770819
 21
6.377576098957945
 31
0.0
  0
LINE
  5
5DD
330
1A
100
AcDbEntity
  8
ZUWAKU
100
AcDbLine
 10
26.47110582087759
 20
4.975000339449685
 30
0.0
 11
26.47110582087759
 21
5.882601352127359
 31
0.0
  0
ARC
  5
5DE
330
1A
100
AcDbEntity
  8
ZUWAKU
100
AcDbCircle
 10
24.37110582087757
 20
5.882601352127338
 30
0.0
 40
2.099999999999999
100
AcDbArc
 50
0.0
 51
45.0
  0
ARC
  5
5DF
330
1A
100
AcDbEntity
  8
ZUWAKU
100
AcDbCircle
 10
29.44610582087761
 20
5.500000339449684
 30
0.0
 40
0.525
100
AcDbArc
 50
180.0
 51
270.0
  0
ARC
  5
5E0
330
1A
100
AcDbEntity
  8
ZUWAKU
100
AcDbCircle
 10
30.67110582087758
 20
4.975000339449685
 30
0.0
 40
1.399999999999999
100
AcDbArc
 50
270.0
 51
0.0
  0
LINE
  5
5E1
330
1A
100
AcDbEntity
  8
ZUWAKU
100
AcDbLine
 10
33.38360582087762
 20
3.575000339449687
 30
0.0
 11
34.25860582087762
 21
3.575000339449687
 31
0.0
  0
ARC
  5
5E2
330
1A
100
AcDbEntity
  8
ZUWAKU
100
AcDbCircle
 10
33.38360582087762
 20
3.837500339449686
 30
0.0
 40
0.2625
100
AcDbArc
 50
180.0
 51
270.0
  0
ARC
  5
5E3
330
1A
100
AcDbEntity
  8
ZUWAKU
100
AcDbCircle
 10
30.1461058208776
 20
5.500000339449684
 30
0.0
 40
0.525
100
AcDbArc
 50
270.0
 51
0.0
  0
ARC
  5
5E4
330
1A
100
AcDbEntity
  8
ZUWAKU
100
AcDbCircle
 10
34.25860582087762
 20
3.837500339449686
 30
0.0
 40
0.2625
100
AcDbArc
 50
270.0
 51
0.0
  0
LINE
  5
5E5
330
1A
100
AcDbEntity
  8
ZUWAKU
100
AcDbLine
 10
21.48360582087758
 20
11.62500033944968
 30
0.0
 11
20.60860582087758
 21
11.62500033944968
 31
0.0
  0
ARC
  5
5E6
330
1A
100
AcDbEntity
  8
ZUWAKU
100
AcDbCircle
 10
16.05860582087757
 20
11.36250033944968
 30
0.0
 40
0.2625
100
AcDbArc
 50
0.0
 51
90.0
  0
LINE
  5
5E7
330
1A
100
AcDbEntity
  8
ZUWAKU
100
AcDbLine
 10
16.05860582087757
 20
11.62500033944968
 30
0.0
 11
15.18360582087757
 21
11.62500033944968
 31
0.0
  0
ARC
  5
5E8
330
1A
100
AcDbEntity
  8
ZUWAKU
100
AcDbCircle
 10
13.43360582087757
 20
11.36250033944968
 30
0.0
 40
0.2625
100
AcDbArc
 50
0.0
 51
90.0
  0
ARC
  5
5E9
330
1A
100
AcDbEntity
  8
ZUWAKU
100
AcDbCircle
 10
15.18360582087757
 20
11.36250033944968
 30
0.0
 40
0.2625
100
AcDbArc
 50
90.0
 51
180.0
  0
ARC
  5
5EA
330
1A
100
AcDbEntity
  8
ZUWAKU
100
AcDbCircle
 10
13.43360582087757
 20
10.48750033944968
 30
0.0
 40
0.2625
100
AcDbArc
 50
270.0
 51
0.0
  0
LINE
  5
5EB
330
1A
100
AcDbEntity
  8
ZUWAKU
100
AcDbLine
 10
13.69610582087761
 20
11.36250033944968
 30
0.0
 11
13.69610582087761
 21
10.48750033944968
 31
0.0
  0
ARC
  5
5EC
330
1A
100
AcDbEntity
  8
ZUWAKU
100
AcDbCircle
 10
20.60860582087758
 20
11.36250033944968
 30
0.0
 40
0.2625
100
AcDbArc
 50
90.0
 51
180.0
  0
LINE
  5
5ED
330
1A
100
AcDbEntity
  8
ZUWAKU
100
AcDbLine
 10
18.08848873913325
 20
11.62500033944968
 30
0.0
 11
18.93793342893775
 21
11.62500033944968
 31
0.0
  0
ARC
  5
5EE
330
1A
100
AcDbEntity
  8
ZUWAKU
100
AcDbCircle
 10
18.93793342893775
 20
11.36250033944968
 30
0.0
 40
0.2625
100
AcDbArc
 50
342.4744316262769
 51
90.0
  0
LINE
  5
5EF
330
1A
100
AcDbEntity
  8
ZUWAKU
100
AcDbLine
 10
19.18824887853548
 20
11.2834533553662
 30
0.0
 11
18.65742906196658
 21
9.602523936231399
 31
0.0
  0
ARC
  5
5F0
330
1A
100
AcDbEntity
  8
ZUWAKU
100
AcDbCircle
 10
18.08848873913325
 20
11.36250033944968
 30
0.0
 40
0.2625
100
AcDbArc
 50
90.0
 51
162.4744316262769
  0
LINE
  5
5F1
330
1A
100
AcDbEntity
  8
ZUWAKU
100
AcDbLine
 10
24.19610582087762
 20
11.62500033944968
 30
0.0
 11
25.94610582087762
 21
11.62500033944968
 31
0.0
  0
LINE
  5
5F2
330
1A
100
AcDbEntity
  8
ZUWAKU
100
AcDbLine
 10
25.94610582087762
 20
10.22500033944968
 30
0.0
 11
24.4586058208776
 21
10.22500033944968
 31
0.0
  0
ARC
  5
5F3
330
1A
100
AcDbEntity
  8
ZUWAKU
100
AcDbCircle
 10
24.4586058208776
 20
9.962500339449686
 30
0.0
 40
0.2625
100
AcDbArc
 50
90.0
 51
180.0
  0
LINE
  5
5F4
330
1A
100
AcDbEntity
  8
ZUWAKU
100
AcDbLine
 10
24.19610582087762
 20
9.962500339449686
 30
0.0
 11
24.19610582087762
 21
9.317399326772015
 31
0.0
  0
ARC
  5
5F5
330
1A
100
AcDbEntity
  8
ZUWAKU
100
AcDbCircle
 10
21.48360582087758
 20
11.36250033944968
 30
0.0
 40
0.2625
100
AcDbArc
 50
0.0
 51
90.0
  0
LINE
  5
5F6
330
1A
100
AcDbEntity
  8
ZUWAKU
100
AcDbLine
 10
22.79610582087758
 20
10.22500033944968
 30
0.0
 11
22.79610582087758
 21
9.317399326772015
 31
0.0
  0
ARC
  5
5F7
330
1A
100
AcDbEntity
  8
ZUWAKU
100
AcDbCircle
 10
24.19610582087762
 20
10.22500033944968
 30
0.0
 40
1.399999999999999
100
AcDbArc
 50
90.0
 51
180.0
  0
ARC
  5
5F8
330
1A
100
AcDbEntity
  8
ZUWAKU
100
AcDbCircle
 10
28.65860582087759
 20
11.36250033944968
 30
0.0
 40
0.2625
100
AcDbArc
 50
0.0
 51
90.0
  0
ARC
  5
5F9
330
1A
100
AcDbEntity
  8
ZUWAKU
100
AcDbCircle
 10
27.78360582087759
 20
11.36250033944968
 30
0.0
 40
0.2625
100
AcDbArc
 50
90.0
 51
180.0
  0
LINE
  5
5FA
330
1A
100
AcDbEntity
  8
ZUWAKU
100
AcDbLine
 10
28.65860582087759
 20
11.62500033944968
 30
0.0
 11
27.78360582087759
 21
11.62500033944968
 31
0.0
  0
ARC
  5
5FB
330
1A
100
AcDbEntity
  8
ZUWAKU
100
AcDbCircle
 10
25.94610582087762
 20
11.36250033944968
 30
0.0
 40
0.2625
100
AcDbArc
 50
0.0
 51
90.0
  0
ARC
  5
5FC
330
1A
100
AcDbEntity
  8
ZUWAKU
100
AcDbCircle
 10
25.94610582087762
 20
10.48750033944968
 30
0.0
 40
0.2625
100
AcDbArc
 50
270.0
 51
0.0
  0
LINE
  5
5FD
330
1A
100
AcDbEntity
  8
ZUWAKU
100
AcDbLine
 10
26.20860582087761
 20
11.36250033944968
 30
0.0
 11
26.20860582087761
 21
10.48750033944968
 31
0.0
  0
LINE
  5
5FE
330
1A
100
AcDbEntity
  8
ZUWAKU
100
AcDbLine
 10
34.25860582087762
 20
11.62500033944968
 30
0.0
 11
33.38360582087762
 21
11.62500033944968
 31
0.0
  0
ARC
  5
5FF
330
1A
100
AcDbEntity
  8
ZUWAKU
100
AcDbCircle
 10
33.38360582087762
 20
11.36250033944968
 30
0.0
 40
0.2625
100
AcDbArc
 50
90.0
 51
180.0
  0
ARC
  5
600
330
1A
100
AcDbEntity
  8
ZUWAKU
100
AcDbCircle
 10
31.80860582087757
 20
11.36250033944968
 30
0.0
 40
0.2625
100
AcDbArc
 50
0.0
 51
90.0
  0
LINE
  5
601
330
1A
100
AcDbEntity
  8
ZUWAKU
100
AcDbLine
 10
31.80860582087757
 20
11.62500033944968
 30
0.0
 11
30.93360582087757
 21
11.62500033944968
 31
0.0
  0
ARC
  5
602
330
1A
100
AcDbEntity
  8
ZUWAKU
100
AcDbCircle
 10
30.93360582087757
 20
11.36250033944968
 30
0.0
 40
0.2625
100
AcDbArc
 50
90.0
 51
180.0
  0
ARC
  5
603
330
1A
100
AcDbEntity
  8
ZUWAKU
100
AcDbCircle
 10
34.25860582087762
 20
11.36250033944968
 30
0.0
 40
0.2625
100
AcDbArc
 50
0.0
 51
90.0
  0
TEXT
  5
604
330
1A
100
AcDbEntity
  8
MOJI
100
AcDbText
 10
119.9136010839125
 20
1.602460868153395
 30
0.0
 40
2.799999999999999
  1
Ｙ６０－打込Ｌ９０
 41
0.9
  7
ｽﾀｲﾙ1
100
AcDbText
  0
TEXT
  5
605
330
1A
100
AcDbEntity
  8
MOJI
100
AcDbText
 10
119.9136010839125
 20
9.002460868153377
 30
0.0
 40
2.799999999999999
  1
ステンレス金具　デンデン
 41
0.9
  7
ｽﾀｲﾙ1
100
AcDbText
  0
LINE
  5
606
330
1A
100
AcDbEntity
  8
ZUWAKU
100
AcDbLine
 10
104.123300388521
 20
15.00000033944968
 30
0.0
 11
104.123300388521
 21
0.4000003394497185
 31
0.0
  0
LINE
  5
607
330
1A
100
AcDbEntity
  8
ZUWAKU
100
AcDbLine
 10
104.3233003885209
 20
15.00000033944968
 30
0.0
 11
104.323300388521
 21
0.4000003394497185
 31
0.0
  0
LINE
  5
608
330
1A
100
AcDbEntity
  8
ZUWAKU
100
AcDbLine
 10
104.2233003885209
 20
15.00000033944968
 30
0.0
 11
104.223300388521
 21
0.4000003394497185
 31
0.0
  0
TEXT
  5
609
330
1A
100
AcDbEntity
  8
ZUWAKU
100
AcDbText
 10
104.8620228996258
 20
4.827678608642493
 30
0.0
 40
2.0
  1
サイズ
 41
0.9
  7
ｽﾀｲﾙ1
100
AcDbText
  0
TEXT
  5
60A
330
1A
100
AcDbEntity
  8
ZUWAKU
100
AcDbText
 10
104.8620228996256
 20
12.02767860864247
 30
0.0
 40
2.0
  1
品名
 41
0.9
  7
ｽﾀｲﾙ1
100
AcDbText
  0
LINE
  5
60C
330
1A
100
AcDbEntity
  8
ZUWAKU
100
AcDbLine
 10
324.4086009985891
 20
7.600000339449699
 30
0.0
 11
348.6245050177576
 21
7.600000339449701
 31
0.0
  0
LINE
  5
60D
330
1A
100
AcDbEntity
  8
ZUWAKU
100
AcDbLine
 10
324.4086009985892
 20
7.700000339449703
 30
0.0
 11
348.6245050177576
 21
7.700000339449701
 31
0.0
  0
LINE
  5
60E
330
1A
100
AcDbEntity
  8
ZUWAKU
100
AcDbLine
 10
324.4086009985891
 20
7.800000339449701
 30
0.0
 11
348.6245050177576
 21
7.800000339449701
 31
0.0
  0
TEXT
  5
60F
330
1A
100
AcDbEntity
  8
ZUWAKU
100
AcDbText
 10
329.1019685871382
 20
9.002460868153377
 30
0.0
 40
2.799999999999999
  1
　　．　　．　　
 41
0.9
  7
ｽﾀｲﾙ1
100
AcDbText
  0
LINE
  5
610
330
1A
100
AcDbEntity
  8
ZUWAKU
100
AcDbLine
 10
252.5995894925574
 20
7.600000339449703
 30
0.0
 11
276.2634776265432
 21
7.600000339449703
 31
0.0
  0
LINE
  5
611
330
1A
100
AcDbEntity
  8
ZUWAKU
100
AcDbLine
 10
252.5995894925574
 20
7.700000339449701
 30
0.0
 11
276.2634776265432
 21
7.700000339449701
 31
0.0
  0
LINE
  5
612
330
1A
100
AcDbEntity
  8
ZUWAKU
100
AcDbLine
 10
252.5995894925574
 20
7.800000339449701
 30
0.0
 11
276.2634776265432
 21
7.800000339449701
 31
0.0
  0
TEXT
  5
613
330
1A
100
AcDbEntity
  8
MOJI
100
AcDbText
 10
231.7841524247672
 20
5.971309200279677
 30
0.0
 40
2.799999999999999
  1
ＬＣ９８□
 41
0.9
  7
ｽﾀｲﾙ1
100
AcDbText
  0
LINE
  5
614
330
1A
100
AcDbEntity
  8
ZUWAKU
100
AcDbLine
 10
223.8121817289826
 20
15.00000033944968
 30
0.0
 11
223.8121817289827
 21
0.4000003394497185
 31
0.0
  0
LINE
  5
615
330
1A
100
AcDbEntity
  8
ZUWAKU
100
AcDbLine
 10
223.9121817289826
 20
15.00000033944968
 30
0.0
 11
223.9121817289827
 21
0.4000003394497185
 31
0.0
  0
LINE
  5
616
330
1A
100
AcDbEntity
  8
ZUWAKU
100
AcDbLine
 10
223.7121817289827
 20
15.00000033944968
 30
0.0
 11
223.7121817289827
 21
0.4000003394497185
 31
0.0
  0
TEXT
  5
617
330
1A
100
AcDbEntity
  8
MOJI
100
AcDbText
 10
264.0204537296434
 20
9.002460868153377
 30
0.0
 40
2.799999999999999
  1
Ａ３
 41
0.9
  7
ｽﾀｲﾙ1
100
AcDbText
  0
LINE
  5
618
330
1A
100
AcDbEntity
  8
ZUWAKU
100
AcDbLine
 10
252.4995894925574
 20
15.00000033944968
 30
0.0
 11
252.4995894925575
 21
0.4000003394497185
 31
0.0
  0
LINE
  5
619
330
1A
100
AcDbEntity
  8
ZUWAKU
100
AcDbLine
 10
252.5995894925574
 20
15.00000033944968
 30
0.0
 11
252.5995894925575
 21
0.4000003394497185
 31
0.0
  0
LINE
  5
61A
330
1A
100
AcDbEntity
  8
ZUWAKU
100
AcDbLine
 10
252.3995894925575
 20
15.00000033944968
 30
0.0
 11
252.3995894925575
 21
0.4000003394497185
 31
0.0
  0
TEXT
  5
61B
330
1A
100
AcDbEntity
  8
ZUWAKU
100
AcDbText
 10
231.3468805712405
 20
1.30703579501943
 30
0.0
 40
1.5
  1
□には色品番が入ります
 41
0.9
  7
ｽﾀｲﾙ1
100
AcDbText
  0
TEXT
  5
61C
330
1A
100
AcDbEntity
  8
ZUWAKU
100
AcDbText
 10
253.3383120036623
 20
4.827678608642493
 30
0.0
 40
2.0
  1
縮尺
 41
0.9
  7
ｽﾀｲﾙ1
100
AcDbText
  0
TEXT
  5
61D
330
1A
100
AcDbEntity
  8
MOJI
100
AcDbText
 10
264.0204537296434
 20
1.602460868153395
 30
0.0
 40
2.799999999999999
  1
１/１
 41
0.9
  7
ｽﾀｲﾙ1
100
AcDbText
  0
TEXT
  5
61E
330
1A
100
AcDbEntity
  8
ZUWAKU
100
AcDbText
 10
224.6509042400874
 20
12.02767860864247
 30
0.0
 40
2.0
  1
品番
 41
0.9
  7
ｽﾀｲﾙ1
100
AcDbText
  0
TEXT
  5
61F
330
1A
100
AcDbEntity
  8
ZUWAKU
100
AcDbText
 10
253.3383120036623
 20
12.02767860864247
 30
0.0
 40
2.0
  1
用紙
 41
0.9
  7
ｽﾀｲﾙ1
100
AcDbText
  0
LINE
  5
620
330
1A
100
AcDbEntity
  8
ZUWAKU
100
AcDbLine
 10
324.3086009985892
 20
15.00000033944968
 30
0.0
 11
324.3086009985893
 21
0.4000003394497185
 31
0.0
  0
LINE
  5
621
330
1A
100
AcDbEntity
  8
ZUWAKU
100
AcDbLine
 10
324.4086009985892
 20
15.00000033944968
 30
0.0
 11
324.4086009985893
 21
0.4000003394497185
 31
0.0
  0
LINE
  5
622
330
1A
100
AcDbEntity
  8
ZUWAKU
100
AcDbLine
 10
324.2086009985893
 20
15.00000033944968
 30
0.0
 11
324.2086009985893
 21
0.4000003394497185
 31
0.0
  0
LINE
  5
623
330
1A
100
AcDbEntity
  8
ZUWAKU
100
AcDbLine
 10
276.3634776265431
 20
15.00000033944968
 30
0.0
 11
276.3634776265432
 21
0.4000003394497185
 31
0.0
  0
LINE
  5
624
330
1A
100
AcDbEntity
  8
ZUWAKU
100
AcDbLine
 10
276.4634776265431
 20
15.00000033944968
 30
0.0
 11
276.4634776265432
 21
0.4000003394497185
 31
0.0
  0
LINE
  5
625
330
1A
100
AcDbEntity
  8
ZUWAKU
100
AcDbLine
 10
276.2634776265432
 20
15.00000033944968
 30
0.0
 11
276.2634776265432
 21
0.4000003394497185
 31
0.0
  0
TEXT
  5
626
330
1A
100
AcDbEntity
  8
ZUWAKU
100
AcDbText
 10
325.147323509694
 20
12.02767860864247
 30
0.0
 40
2.0
  1
DATE
 41
0.9
  7
ｽﾀｲﾙ1
100
AcDbText
  0
LINE
  5
627
330
1A
100
AcDbEntity
  8
ZUWAKU
100
AcDbLine
 10
348.6245050177576
 20
15.00000033944968
 30
0.0
 11
348.6245050177576
 21
0.4000003394497185
 31
0.0
  0
LINE
  5
628
330
1A
100
AcDbEntity
  8
ZUWAKU
100
AcDbLine
 10
348.7245050177576
 20
15.00000033944968
 30
0.0
 11
348.7245050177576
 21
0.4000003394497185
 31
0.0
  0
LINE
  5
629
330
1A
100
AcDbEntity
  8
ZUWAKU
100
AcDbLine
 10
348.8245050177575
 20
15.00000033944968
 30
0.0
 11
348.8245050177577
 21
0.4000003394497185
 31
0.0
  0
LINE
  5
62A
330
1A
100
AcDbEntity
  8
ZUWAKU
100
AcDbLine
 10
348.9245050177576
 20
15.00000033944968
 30
0.0
 11
348.9245050177577
 21
0.4000003394497185
 31
0.0
  0
TEXT
  5
62B
330
1A
100
AcDbEntity
  8
ZUWAKU
100
AcDbText
 10
354.2640418396089
 20
8.776920007293085
 30
0.0
 40
3.0
  1
積水化学工業株式会社
 41
0.9
  7
ｽﾀｲﾙ1
100
AcDbText
  0
TEXT
  5
62C
330
1A
100
AcDbEntity
  8
ZUWAKU
100
AcDbText
 10
354.2640418396089
 20
3.324420496376717
 30
0.0
 40
3.0
  1
建材事業部
 41
0.9
  7
ｽﾀｲﾙ1
100
AcDbText
  0
LINE
  5
75B
330
1A
100
AcDbEntity
  8
SEIHIN
  6
CONTINUOUS
 62
     3
 48
5.0
100
AcDbLine
 10
200.8496512891514
 20
199.5945346248215
 30
0.0
 11
272.8496512891513
 21
199.5943659019423
 31
0.0
  0
LINE
  5
75C
330
1A
100
AcDbEntity
  8
SEIHIN
  6
CONTINUOUS
 62
     3
 48
5.0
100
AcDbLine
 10
200.8496512891513
 20
205.0945346248366
 30
0.0
 11
272.8496512891513
 21
205.0943659019574
 31
0.0
  0
LINE
  5
75D
330
1A
100
AcDbEntity
  8
SEIHIN
  6
CONTINUOUS
 62
     3
 48
5.0
100
AcDbLine
 10
272.8497512891513
 20
96.35603265033566
 30
0.0
 11
200.8497512891512
 21
96.35607322237888
 31
0.0
  0
LINE
  5
75E
330
1A
100
AcDbEntity
  8
SEIHIN
  6
CONTINUOUS
 62
     3
 48
5.0
100
AcDbLine
 10
272.8497512891512
 20
101.8560326503365
 30
0.0
 11
200.8497512891512
 21
101.8560732223797
 31
0.0
  0
DIMENSION
  5
75F
330
1A
100
AcDbEntity
  8
SUNPOU
 62
     4
100
AcDbDimension
  2
*D14
 10
287.8497512891512
 20
136.0097713537457
 30
0.0
 11
242.8497512891512
 21
138.5097713537456
 31
0.0
 70
    32
  3
STANDARD
100
AcDbAlignedDimension
 13
197.8497512891512
 23
109.807618534646
 33
0.0
 14
287.8497512891512
 24
99.10601853464603
 34
0.0
100
AcDbRotatedDimension
1001
ACAD
1000
DSTYLE
1002
{
1070
   140
1040
3.0
1070
    74
1070
     0
1070
   172
1070
     1
1070
    73
1070
     0
1070
   272
1070
     2
1070
    77
1070
     3
1070
   173
1070
     1
1070
   147
1040
1.0
1070
    42
1040
3.0
1070
    44
1040
1.5
1070
    43
1040
7.0
1070
   271
1070
     0
1070
   178
1070
     4
1070
   177
1070
     4
1070
   176
1070
     4
1070
   141
1040
150.0
1070
     7
1000
_OPEN
1070
     6
1000
_OPEN
1070
    41
1040
3.0
1002
}
  0
DIMENSION
  5
760
330
1A
100
AcDbEntity
  8
SUNPOU
 62
     4
100
AcDbDimension
  2
*D15
 10
129.2498512891513
 20
166.3777706553562
 30
0.0
 11
208.5497832151042
 21
168.8777706553562
 31
0.0
 70
    32
  3
STANDARD
100
AcDbAlignedDimension
 13
287.8497151410572
 23
99.10602419784744
 33
0.0
 14
129.2498512891513
 24
121.0058185346459
 34
0.0
100
AcDbRotatedDimension
1001
ACAD
1000
DSTYLE
1002
{
1070
   140
1040
3.0
1070
    74
1070
     0
1070
   172
1070
     1
1070
    73
1070
     0
1070
   272
1070
     2
1070
    77
1070
     3
1070
   173
1070
     1
1070
   147
1040
1.0
1070
    42
1040
3.0
1070
    44
1040
1.5
1070
    43
1040
7.0
1070
   271
1070
     0
1070
   178
1070
     4
1070
   177
1070
     4
1070
   176
1070
     4
1070
   141
1040
150.0
1070
     7
1000
_OPEN
1070
     6
1000
_OPEN
1070
    41
1040
3.0
1002
}
  0
LINE
  5
761
330
1A
100
AcDbEntity
  8
CENTER_L
  6
CENTER
 62
     1
 48
5.0
100
AcDbLine
 10
123.5946512891513
 20
202.344715662135
 30
0.0
 11
294.2887512891514
 21
202.3443156621349
 31
0.0
  0
LINE
  5
762
330
1A
100
AcDbEntity
  8
CENTER_L
  6
CENTER
 62
     1
 48
5.0
100
AcDbLine
 10
297.8997512891514
 20
99.10601853464603
 30
0.0
 11
120.4376512891512
 21
99.10611853464601
 31
0.0
  0
DIMENSION
  5
763
330
1A
100
AcDbEntity
  8
SUNPOU
 62
     4
100
AcDbDimension
  2
*D16
 10
195.8497512891512
 20
153.0377997240411
 30
0.0
 11
162.5498012891513
 21
155.5377997240411
 31
0.0
 70
    32
  3
STANDARD
100
AcDbAlignedDimension
 13
129.2498512891513
 23
121.0058185346459
 33
0.0
 14
195.8497512891512
 24
121.0058185346459
 34
0.0
100
AcDbRotatedDimension
1001
ACAD
1000
DSTYLE
1002
{
1070
   140
1040
3.0
1070
    74
1070
     0
1070
   172
1070
     1
1070
    73
1070
     0
1070
   272
1070
     2
1070
    77
1070
     3
1070
   173
1070
     1
1070
   147
1040
1.0
1070
    42
1040
3.0
1070
    44
1040
1.5
1070
    43
1040
7.0
1070
   271
1070
     0
1070
   178
1070
     4
1070
   177
1070
     4
1070
   176
1070
     4
1070
   141
1040
150.0
1070
     7
1000
_OPEN
1070
     6
1000
_OPEN
1070
    41
1040
3.0
1002
}
  0
DIMENSION
  5
764
330
1A
100
AcDbEntity
  8
SUNPOU
 62
     4
100
AcDbDimension
  2
*D17
 10
112.9465125362601
 20
65.60571853464593
 30
0.0
 11
110.44651253626
 21
99.10546853464602
 31
0.0
 70
    32
  3
STANDARD
100
AcDbAlignedDimension
 13
153.5498512891513
 23
132.605218534646
 33
0.0
 14
142.8497512891512
 24
65.60571853464593
 34
0.0
 50
90.0
100
AcDbRotatedDimension
1001
ACAD
1000
DSTYLE
1002
{
1070
   140
1040
3.0
1070
    74
1070
     0
1070
   172
1070
     1
1070
    73
1070
     0
1070
   272
1070
     2
1070
    77
1070
     3
1070
   173
1070
     1
1070
   147
1040
1.0
1070
    42
1040
3.0
1070
    44
1040
1.5
1070
    43
1040
7.0
1070
   271
1070
     0
1070
   178
1070
     4
1070
   177
1070
     4
1070
   176
1070
     4
1070
   141
1040
150.0
1070
     7
1000
_OPEN
1070
     6
1000
_OPEN
1070
    41
1040
3.0
1002
}
  0
ARC
  5
765
330
1A
100
AcDbEntity
  8
SEIHIN
  6
CONTINUOUS
 62
     3
 48
5.0
100
AcDbCircle
 10
139.2492512891513
 20
131.106418534646
 30
0.0
 40
1.5
100
AcDbArc
 50
90.0
 51
180.0
  0
ARC
  5
766
330
1A
100
AcDbEntity
  8
SEIHIN
  6
CONTINUOUS
 62
     3
 48
5.0
100
AcDbCircle
 10
132.2498012886915
 20
129.6064685351056
 30
0.0
 40
5.500021793603695
100
AcDbArc
 50
270.66620603112
 51
359.3337939688808
  0
ARC
  5
767
330
1A
100
AcDbEntity
  8
SEIHIN
  6
CONTINUOUS
 62
     3
 48
5.0
100
AcDbCircle
 10
132.2498518771016
 20
129.6052191225879
 30
0.0
 40
6.999972719589709
100
AcDbArc
 50
270.6654622957854
 51
359.3337095091126
  0
ARC
  5
768
330
1A
100
AcDbEntity
  8
SEIHIN
  6
CONTINUOUS
 62
     3
 48
5.0
100
AcDbCircle
 10
139.2492512891514
 20
67.10571853464597
 30
0.0
 40
1.500000000000056
100
AcDbArc
 50
179.9999999999983
 51
269.9999999999975
  0
ARC
  5
769
330
1A
100
AcDbEntity
  8
SEIHIN
  6
CONTINUOUS
 62
     3
 48
5.0
100
AcDbCircle
 10
132.249801877852
 20
68.60566794593463
 30
0.0
 40
5.500022374965237
100
AcDbArc
 50
0.6672538968909658
 51
89.33380017722125
  0
ARC
  5
76A
330
1A
100
AcDbEntity
  8
SEIHIN
  6
CONTINUOUS
 62
     3
 48
5.0
100
AcDbCircle
 10
132.2497512891513
 20
68.60571853464598
 30
0.0
 40
6.999973300663408
100
AcDbArc
 50
0.666285622861878
 51
89.33371437713853
  0
LINE
  5
76B
330
1A
100
AcDbEntity
  8
CENTER_L
  6
CENTER
 62
     1
 48
5.0
100
AcDbLine
 10
137.5896512891513
 20
133.6052185346459
 30
0.0
 11
149.5845512891513
 21
133.6052185346459
 31
0.0
  0
ARC
  5
76C
330
1A
100
AcDbEntity
  8
SEIHIN
  6
CONTINUOUS
 62
     3
 48
5.0
100
AcDbCircle
 10
142.4991512891513
 20
64.85571853464591
 30
0.0
 40
3.25
100
AcDbArc
 50
179.9999999999983
 51
269.9999999999975
  0
ARC
  5
76D
330
1A
100
AcDbEntity
  8
SEIHIN
  6
CONTINUOUS
 62
     3
 48
5.0
100
AcDbCircle
 10
132.2497507008004
 20
68.60571912300385
 30
0.0
 40
8.499974804962638
100
AcDbArc
 50
0.6659921835690898
 51
89.33332576847549
  0
ARC
  5
76E
330
1A
100
AcDbEntity
  8
SEIHIN
  6
CONTINUOUS
 62
     3
 48
5.0
100
AcDbCircle
 10
132.2498512891513
 20
129.605218534646
 30
0.0
 40
8.499974223490363
100
AcDbArc
 50
270.6659961953417
 51
359.3340038046574
  0
LINE
  5
76F
330
1A
100
AcDbEntity
  8
SEIHIN
  6
CONTINUOUS
 62
     3
 48
5.0
100
AcDbLine
 10
129.2498512891513
 20
121.0058185346459
 30
0.0
 11
129.2497512891513
 21
77.20511853464602
 31
0.0
  0
LINE
  5
770
330
1A
100
AcDbEntity
  8
SEIHIN
  6
CONTINUOUS
 62
     3
 48
5.0
100
AcDbLine
 10
130.7498512891513
 20
121.0058185346459
 30
0.0
 11
130.7497512891513
 21
77.20511853464602
 31
0.0
  0
LINE
  5
771
330
1A
100
AcDbEntity
  8
SEIHIN
  6
CONTINUOUS
 62
     3
 48
5.0
100
AcDbLine
 10
132.2498512891513
 20
121.0058185346459
 30
0.0
 11
132.2497512891513
 21
77.20511853464602
 31
0.0
  0
ARC
  5
772
330
1A
100
AcDbEntity
  8
SEIHIN
  6
CONTINUOUS
 62
     3
 48
5.0
100
AcDbCircle
 10
132.3497558084996
 20
77.20511396250682
 30
0.0
 40
3.100004519351632
100
AcDbArc
 50
179.9999154955167
 51
269.3345321367737
  0
LINE
  5
773
330
1A
100
AcDbEntity
  8
SEIHIN
  6
CONTINUOUS
 62
     3
 48
5.0
100
AcDbLine
 10
137.7492512891514
 20
68.68711853464602
 30
0.0
 11
137.7492512891514
 21
67.10571853464601
 31
0.0
  0
ARC
  5
774
330
1A
100
AcDbEntity
  8
SEIHIN
  6
CONTINUOUS
 62
     3
 48
5.0
100
AcDbCircle
 10
132.3497553469535
 20
77.20511442939465
 30
0.0
 40
1.600004057807419
100
AcDbArc
 50
179.9998529918871
 51
269.3337779307506
  0
ARC
  5
775
330
1A
100
AcDbEntity
  8
SEIHIN
  6
CONTINUOUS
 62
     3
 48
5.0
100
AcDbCircle
 10
132.3497543140598
 20
77.20511547628048
 30
0.0
 40
0.1000030249552268
100
AcDbArc
 50
179.9982477386306
 51
269.3680195823584
  0
ARC
  5
776
330
1A
100
AcDbEntity
  8
SEIHIN
  6
CONTINUOUS
 62
     3
 48
5.0
100
AcDbCircle
 10
132.3498563899493
 20
121.0070236951933
 30
0.0
 40
3.100005100802316
100
AcDbArc
 50
90.66732685869174
 51
180.0000953797085
  0
ARC
  5
777
330
1A
100
AcDbEntity
  8
SEIHIN
  6
CONTINUOUS
 62
     3
 48
5.0
100
AcDbCircle
 10
132.3498559297628
 20
121.0058232298149
 30
0.0
 40
1.600004640618435
100
AcDbArc
 50
90.66982391748229
 51
180.0001681328684
  0
ARC
  5
778
330
1A
100
AcDbEntity
  8
SEIHIN
  6
CONTINUOUS
 62
     3
 48
5.0
100
AcDbCircle
 10
132.3498548890217
 20
121.0058221779739
 30
0.0
 40
0.100003599936828
100
AcDbArc
 50
90.68960375273263
 51
180.00208739807
  0
LINE
  5
779
330
1A
100
AcDbEntity
  8
SEIHIN
  6
CONTINUOUS
 62
     3
 48
5.0
100
AcDbLine
 10
137.7493512891513
 20
129.5250185346459
 30
0.0
 11
137.7492512891514
 21
131.106418534646
 31
0.0
  0
LINE
  5
77A
330
1A
100
AcDbEntity
  8
SEIHIN
  6
CONTINUOUS
 62
     3
 48
5.0
100
AcDbLine
 10
200.8497512891512
 20
99.10601853464603
 30
0.0
 11
200.8497512891512
 21
96.35607322237888
 31
0.0
  0
LINE
  5
77B
330
1A
100
AcDbEntity
  8
SEIHIN
  6
CONTINUOUS
 62
     3
 48
5.0
100
AcDbLine
 10
193.3497512891513
 20
99.10601853464603
 30
0.0
 11
193.3497512891513
 21
94.10601853464603
 31
0.0
  0
LINE
  5
77C
330
1A
100
AcDbEntity
  8
SEIHIN
  6
CONTINUOUS
 62
     3
 48
5.0
100
AcDbLine
 10
198.8497512891512
 20
99.10601853464603
 30
0.0
 11
198.8497512891512
 21
94.10621853464595
 31
0.0
  0
LINE
  5
77D
330
1A
100
AcDbEntity
  8
SEIHIN
  6
CONTINUOUS
 62
     3
 48
5.0
100
AcDbLine
 10
197.8497512891512
 20
88.40451853464601
 30
0.0
 11
197.8497512891512
 21
99.10601853464603
 31
0.0
  0
LINE
  5
77E
330
1A
100
AcDbEntity
  8
SEIHIN
  6
CONTINUOUS
 62
     3
 48
5.0
100
AcDbLine
 10
194.8497512891512
 20
89.14111853464602
 30
0.0
 11
194.8497512891512
 21
99.10601853464603
 31
0.0
  0
LINE
  5
77F
330
1A
100
AcDbEntity
  8
SEIHIN
  6
CONTINUOUS
 62
     3
 48
5.0
100
AcDbLine
 10
196.3497512891512
 20
88.61491853464595
 30
0.0
 11
196.3497512891512
 21
99.10601853464603
 31
0.0
  0
LINE
  5
780
330
1A
100
AcDbEntity
  8
CENTER_L
  6
CENTER
 62
     1
 48
5.0
100
AcDbLine
 10
162.5497512891514
 20
56.42211853464594
 30
0.0
 11
162.5498512891512
 21
140.453818534646
 31
0.0
  0
LINE
  5
781
330
1A
100
AcDbEntity
  8
SEIHIN
  6
CONTINUOUS
 62
     3
 48
5.0
100
AcDbLine
 10
184.2503512891512
 20
67.10571853464601
 30
0.0
 11
142.8497512891512
 21
67.10571853464601
 31
0.0
  0
LINE
  5
782
330
1A
100
AcDbEntity
  8
SEIHIN
  6
CONTINUOUS
 62
     3
 48
5.0
100
AcDbLine
 10
142.8497512891512
 20
68.60571853464602
 30
0.0
 11
184.2503512891512
 21
68.60571853464602
 31
0.0
  0
LINE
  5
783
330
1A
100
AcDbEntity
  8
SEIHIN
  6
CONTINUOUS
 62
     3
 48
5.0
100
AcDbLine
 10
150.7762512891513
 20
65.60571853464593
 30
0.0
 11
184.2503512891512
 21
65.60571853464593
 31
0.0
  0
LINE
  5
784
330
1A
100
AcDbEntity
  8
SEIHIN
  6
CONTINUOUS
 62
     3
 48
5.0
100
AcDbLine
 10
154.4845512891513
 20
61.50911853464593
 30
0.0
 11
155.3449512891513
 21
62.73781853464602
 31
0.0
  0
LINE
  5
785
330
1A
100
AcDbEntity
  8
SEIHIN
  6
CONTINUOUS
 62
     3
 48
5.0
100
AcDbLine
 10
151.6365512891512
 20
65.33441853464593
 30
0.0
 11
155.3449512891513
 21
62.73781853464602
 31
0.0
  0
LINE
  5
786
330
1A
100
AcDbEntity
  8
SEIHIN
  6
CONTINUOUS
 62
     3
 48
5.0
100
AcDbLine
 10
150.7762512891513
 20
64.10571853464602
 30
0.0
 11
154.4845512891513
 21
61.50911853464593
 31
0.0
  0
ARC
  5
787
330
1A
100
AcDbEntity
  8
SEIHIN
  6
CONTINUOUS
 62
     3
 48
5.0
100
AcDbCircle
 10
142.499182680224
 20
64.8557427536963
 30
0.0
 40
3.250024219201972
100
AcDbArc
 50
269.9994465961278
 51
345.3017359506651
  0
LINE
  5
788
330
1A
100
AcDbEntity
  8
SEIHIN
  6
CONTINUOUS
 62
     3
 48
5.0
100
AcDbLine
 10
150.7762512891513
 20
64.10571853464602
 30
0.0
 11
145.7395512891513
 21
64.10571853464602
 31
0.0
  0
LINE
  5
789
330
1A
100
AcDbEntity
  8
SEIHIN
  6
CONTINUOUS
 62
     3
 48
5.0
100
AcDbLine
 10
144.7491512891512
 20
65.60571853464593
 30
0.0
 11
150.7762512891513
 21
65.60571853464593
 31
0.0
  0
LINE
  5
78A
330
1A
100
AcDbEntity
  8
SEIHIN
  6
CONTINUOUS
 62
     3
 48
5.0
100
AcDbLine
 10
142.8497512891512
 20
68.60571853464602
 30
0.0
 11
142.8497512891512
 21
65.60571853464593
 31
0.0
  0
LINE
  5
78B
330
1A
100
AcDbEntity
  8
SEIHIN
  6
CONTINUOUS
 62
     3
 48
5.0
100
AcDbLine
 10
139.2492512891513
 20
68.68711853464602
 30
0.0
 11
139.2491512891513
 21
64.85571853464602
 31
0.0
  0
LINE
  5
78C
330
1A
100
AcDbEntity
  8
SEIHIN
  6
CONTINUOUS
 62
     3
 48
5.0
100
AcDbLine
 10
140.7491512891512
 20
68.70451853464603
 30
0.0
 11
140.7491512891512
 21
64.85571853464602
 31
0.0
  0
LINE
  5
78D
330
1A
100
AcDbEntity
  8
SEIHIN
  6
CONTINUOUS
 62
     3
 48
5.0
100
AcDbLine
 10
142.8497512891512
 20
65.60571853464593
 30
0.0
 11
144.7491512891512
 21
65.60571853464593
 31
0.0
  0
ARC
  5
78E
330
1A
100
AcDbEntity
  8
SEIHIN
  6
CONTINUOUS
 62
     3
 48
5.0
100
AcDbCircle
 10
142.4991512891512
 20
64.85571853464602
 30
0.0
 40
1.75
100
AcDbArc
 50
270.0
 51
0.0
  0
ARC
  5
78F
330
1A
100
AcDbEntity
  8
SEIHIN
  6
CONTINUOUS
 62
     3
 48
5.0
100
AcDbCircle
 10
142.4991512891512
 20
64.85571853464602
 30
0.0
 40
1.75
100
AcDbArc
 50
180.0
 51
270.0
  0
ARC
  5
790
330
1A
100
AcDbEntity
  8
SEIHIN
  6
CONTINUOUS
 62
     3
 48
5.0
100
AcDbCircle
 10
145.7395640942418
 20
64.00572841062133
 30
0.0
 40
0.0999901248446183
100
AcDbArc
 50
90.00733750098406
 51
165.2900263561951
  0
ARC
  5
791
330
1A
100
AcDbEntity
  8
SEIHIN
  6
CONTINUOUS
 62
     3
 48
5.0
100
AcDbCircle
 10
144.7491512891511
 20
65.10571853464597
 30
0.0
 40
0.4999999999999574
100
AcDbArc
 50
89.99999999999349
 51
179.9999999999951
  0
LINE
  5
792
330
1A
100
AcDbEntity
  8
SEIHIN
  6
CONTINUOUS
 62
     3
 48
5.0
100
AcDbLine
 10
144.2491512891512
 20
65.10571853464601
 30
0.0
 11
144.2491512891512
 21
64.85571853464602
 31
0.0
  0
ARC
  5
793
330
1A
100
AcDbEntity
  8
SEIHIN
  6
CONTINUOUS
 62
     3
 48
5.0
100
AcDbCircle
 10
150.7762469812901
 20
64.1057198929805
 30
0.0
 40
1.499998641671606
100
AcDbArc
 50
54.99811460565742
 51
89.99983545167141
  0
LINE
  5
794
330
1A
100
AcDbEntity
  8
SEIHIN
  6
CONTINUOUS
 62
     3
 48
5.0
100
AcDbLine
 10
160.0497512891513
 20
70.10571853464593
 30
0.0
 11
165.0497512891513
 21
70.10571853464593
 31
0.0
  0
ARC
  5
795
330
1A
100
AcDbEntity
  8
SEIHIN
  6
CONTINUOUS
 62
     3
 48
5.0
100
AcDbCircle
 10
160.0497512891513
 20
68.60571853464597
 30
0.0
 40
1.499999999999957
100
AcDbArc
 50
89.99999999999756
 51
179.9999999999983
  0
ARC
  5
796
330
1A
100
AcDbEntity
  8
SEIHIN
  6
CONTINUOUS
 62
     3
 48
5.0
100
AcDbCircle
 10
165.0497512891514
 20
68.60571853464597
 30
0.0
 40
1.499999999999957
100
AcDbArc
 50
0.0000000000016284
 51
90.00000000000161
  0
ARC
  5
797
330
1A
100
AcDbEntity
  8
SEIHIN
  6
CONTINUOUS
 62
     3
 48
5.0
100
AcDbCircle
 10
192.7497461883532
 20
77.2051133740985
 30
0.0
 40
3.10000510080231
100
AcDbArc
 50
270.6673268586941
 51
0.0000953797118123
  0
ARC
  5
798
330
1A
100
AcDbEntity
  8
SEIHIN
  6
CONTINUOUS
 62
     3
 48
5.0
100
AcDbCircle
 10
192.8497518773921
 20
68.60571912289742
 30
0.0
 40
5.499971796745854
100
AcDbArc
 50
90.66673911970031
 51
179.3343149544124
  0
ARC
  5
799
330
1A
100
AcDbEntity
  8
SEIHIN
  6
CONTINUOUS
 62
     3
 48
5.0
100
AcDbCircle
 10
192.8497512891513
 20
68.60571853464604
 30
0.0
 40
6.99997330066335
100
AcDbArc
 50
90.66628562286146
 51
179.3337143771385
  0
ARC
  5
79A
330
1A
100
AcDbEntity
  8
SEIHIN
  6
CONTINUOUS
 62
     3
 48
5.0
100
AcDbCircle
 10
192.8497512891513
 20
68.60571853464603
 30
0.0
 40
8.499974223490323
100
AcDbArc
 50
90.66599619534253
 51
179.3340038046574
  0
ARC
  5
79B
330
1A
100
AcDbEntity
  8
SEIHIN
  6
CONTINUOUS
 62
     3
 48
5.0
100
AcDbCircle
 10
184.2503553944026
 20
68.70572259244831
 30
0.0
 40
1.600004057807561
100
AcDbArc
 50
269.9998529918859
 51
359.333777930749
  0
ARC
  5
79C
330
1A
100
AcDbEntity
  8
SEIHIN
  6
CONTINUOUS
 62
     3
 48
5.0
100
AcDbCircle
 10
184.2503564496986
 20
68.70572363544408
 30
0.0
 40
3.100005100802437
100
AcDbArc
 50
269.9999046202893
 51
359.3326731413062
  0
ARC
  5
79D
330
1A
100
AcDbEntity
  8
SEIHIN
  6
CONTINUOUS
 62
     3
 48
5.0
100
AcDbCircle
 10
184.2503549324793
 20
68.70572213451649
 30
0.0
 40
0.1000035999368428
100
AcDbArc
 50
269.9979126019018
 51
359.3103962472758
  0
LINE
  5
79E
330
1A
100
AcDbEntity
  8
SEIHIN
  6
CONTINUOUS
 62
     3
 48
5.0
100
AcDbLine
 10
195.8497512891512
 20
85.51861853464602
 30
0.0
 11
195.8497512891512
 21
77.20511853464602
 31
0.0
  0
LINE
  5
79F
330
1A
100
AcDbEntity
  8
SEIHIN
  6
CONTINUOUS
 62
     3
 48
5.0
100
AcDbLine
 10
194.3497512891512
 20
86.04481853464603
 30
0.0
 11
194.3497512891512
 21
77.20511853464602
 31
0.0
  0
LINE
  5
7A0
330
1A
100
AcDbEntity
  8
SEIHIN
  6
CONTINUOUS
 62
     3
 48
5.0
100
AcDbLine
 10
192.8497512891512
 20
86.25521853464595
 30
0.0
 11
192.8497512891512
 21
77.20511853464602
 31
0.0
  0
ARC
  5
7A1
330
1A
100
AcDbEntity
  8
SEIHIN
  6
CONTINUOUS
 62
     3
 48
5.0
100
AcDbCircle
 10
192.7497472313491
 20
77.20511442939463
 30
0.0
 40
1.600004057807395
100
AcDbArc
 50
270.6662220692501
 51
0.0001470081136166
  0
ARC
  5
7A2
330
1A
100
AcDbEntity
  8
SEIHIN
  6
CONTINUOUS
 62
     3
 48
5.0
100
AcDbCircle
 10
192.7497476892809
 20
77.20511489131791
 30
0.0
 40
0.1000035999366928
100
AcDbArc
 50
270.6896037527253
 51
0.0020873980985658
  0
LINE
  5
7A3
330
1A
100
AcDbEntity
  8
SEIHIN
  6
CONTINUOUS
 62
     3
 48
5.0
100
AcDbLine
 10
197.6306512891513
 20
87.77981853464602
 30
0.0
 11
195.8716512891512
 21
85.58111853464593
 31
0.0
  0
LINE
  5
7A4
330
1A
100
AcDbEntity
  8
SEIHIN
  6
CONTINUOUS
 62
     3
 48
5.0
100
AcDbLine
 10
194.3716512891513
 20
86.10721853464594
 30
0.0
 11
196.3278512891514
 21
88.55251853464601
 31
0.0
  0
LINE
  5
7A5
330
1A
100
AcDbEntity
  8
SEIHIN
  6
CONTINUOUS
 62
     3
 48
5.0
100
AcDbLine
 10
193.0688512891512
 20
86.87991853464593
 30
0.0
 11
194.8278512891514
 21
89.07861853464602
 31
0.0
  0
ARC
  5
7A6
330
1A
100
AcDbEntity
  8
SEIHIN
  6
CONTINUOUS
 62
     3
 48
5.0
100
AcDbCircle
 10
194.7497366412969
 20
89.14107678725398
 30
0.0
 40
0.1000146565672735
100
AcDbArc
 50
321.3551622582092
 51
0.023915989122987
  0
ARC
  5
7A7
330
1A
100
AcDbEntity
  8
SEIHIN
  6
CONTINUOUS
 62
     3
 48
5.0
100
AcDbCircle
 10
195.9497659370055
 20
85.51866028203777
 30
0.0
 40
0.1000146565672423
100
AcDbArc
 50
141.355162258049
 51
180.0239159889601
  0
ARC
  5
7A8
330
1A
100
AcDbEntity
  8
SEIHIN
  6
CONTINUOUS
 62
     3
 48
5.0
100
AcDbCircle
 10
194.4497347114029
 20
86.04477122779782
 30
0.0
 40
0.0999834334432827
100
AcDbArc
 50
141.3488866894948
 51
179.9728906804589
  0
ARC
  5
7A9
330
1A
100
AcDbEntity
  8
SEIHIN
  6
CONTINUOUS
 62
     3
 48
5.0
100
AcDbCircle
 10
193.8497259710102
 20
86.255146363582
 30
0.0
 40
0.999974684463447
100
AcDbArc
 50
141.3333719786882
 51
179.9958647979442
  0
LINE
  5
7AA
330
1A
100
AcDbEntity
  8
SEIHIN
  6
CONTINUOUS
 62
     3
 48
5.0
100
AcDbLine
 10
193.3497512891513
 20
94.10601853464603
 30
0.0
 11
194.8497512891512
 21
94.10601853464603
 31
0.0
  0
ARC
  5
7AB
330
1A
100
AcDbEntity
  8
SEIHIN
  6
CONTINUOUS
 62
     3
 48
5.0
100
AcDbCircle
 10
196.2497678668996
 20
88.61496584149374
 30
0.0
 40
0.0999834334431673
100
AcDbArc
 50
321.3488866897335
 51
359.9728906807032
  0
ARC
  5
7AC
330
1A
100
AcDbEntity
  8
SEIHIN
  6
CONTINUOUS
 62
     3
 48
5.0
100
AcDbCircle
 10
196.8497375643396
 20
88.40447940723462
 30
0.0
 40
1.000013725577045
100
AcDbArc
 50
321.3433283358583
 51
0.0022418047658716
  0
LINE
  5
7AD
330
1A
100
AcDbEntity
  8
SEIHIN
  6
CONTINUOUS
 62
     3
 48
5.0
100
AcDbLine
 10
198.8497512891512
 20
94.10621853464595
 30
0.0
 11
200.8497512891512
 21
96.35607322237888
 31
0.0
  0
LINE
  5
7AE
330
1A
100
AcDbEntity
  8
SEIHIN
  6
CONTINUOUS
 62
     3
 48
5.0
100
AcDbLine
 10
198.8497512891512
 20
94.10621853464595
 30
0.0
 11
197.8497512891512
 21
94.10621853464595
 31
0.0
  0
LINE
  5
7AF
330
1A
100
AcDbEntity
  8
SEIHIN
  6
CONTINUOUS
 62
     3
 48
5.0
100
AcDbLine
 10
184.2503512891512
 20
129.6052185346459
 30
0.0
 11
143.2493512891513
 21
129.6052185346459
 31
0.0
  0
LINE
  5
7B0
330
1A
100
AcDbEntity
  8
SEIHIN
  6
CONTINUOUS
 62
     3
 48
5.0
100
AcDbLine
 10
184.2503512891512
 20
132.605218534646
 30
0.0
 11
153.5498512891513
 21
132.605218534646
 31
0.0
  0
LINE
  5
7B1
330
1A
100
AcDbEntity
  8
SEIHIN
  6
CONTINUOUS
 62
     3
 48
5.0
100
AcDbLine
 10
146.3718512891512
 20
131.1052185346459
 30
0.0
 11
184.2503512891512
 21
131.1052185346459
 31
0.0
  0
LINE
  5
7B2
330
1A
100
AcDbEntity
  8
SEIHIN
  6
CONTINUOUS
 62
     3
 48
5.0
100
AcDbLine
 10
147.7493512891513
 20
131.1052185346459
 30
0.0
 11
153.5498512891513
 21
132.605218534646
 31
0.0
  0
LINE
  5
7B3
330
1A
100
AcDbEntity
  8
CENTER_L
  6
CENTER
 62
     1
 48
5.0
100
AcDbLine
 10
143.2493512891513
 20
127.2243185346459
 30
0.0
 11
143.2493512891513
 21
140.322918534646
 31
0.0
  0
LINE
  5
7B4
330
1A
100
AcDbEntity
  8
SEIHIN
  6
CONTINUOUS
 62
     3
 48
5.0
100
AcDbLine
 10
139.2493512891512
 20
129.523818534646
 30
0.0
 11
139.2493512891512
 21
133.6052185346459
 31
0.0
  0
ARC
  5
7B5
330
1A
100
AcDbEntity
  8
SEIHIN
  6
CONTINUOUS
 62
     3
 48
5.0
100
AcDbCircle
 10
143.2493512891512
 20
133.6052185346459
 30
0.0
 40
4.0
100
AcDbArc
 50
180.0
 51
0.0
  0
LINE
  5
7B6
330
1A
100
AcDbEntity
  8
SEIHIN
  6
CONTINUOUS
 62
     3
 48
5.0
100
AcDbLine
 10
140.7493512891513
 20
129.6052185346459
 30
0.0
 11
139.2493512891512
 21
129.6052185346459
 31
0.0
  0
LINE
  5
7B7
330
1A
100
AcDbEntity
  8
SEIHIN
  6
CONTINUOUS
 62
     3
 48
5.0
100
AcDbLine
 10
140.7493512891513
 20
129.523818534646
 30
0.0
 11
140.7493512891513
 21
130.4827185346459
 31
0.0
  0
ARC
  5
7B8
330
1A
100
AcDbEntity
  8
SEIHIN
  6
CONTINUOUS
 62
     3
 48
5.0
100
AcDbCircle
 10
143.2493512891512
 20
133.6052185346459
 30
0.0
 40
4.0
100
AcDbArc
 50
0.0
 51
180.0
  0
LINE
  5
7B9
330
1A
100
AcDbEntity
  8
SEIHIN
  6
CONTINUOUS
 62
     3
 48
5.0
100
AcDbLine
 10
160.0497512891513
 20
128.1057185346459
 30
0.0
 11
165.0497512891513
 21
128.1057185346459
 31
0.0
  0
ARC
  5
7BA
330
1A
100
AcDbEntity
  8
SEIHIN
  6
CONTINUOUS
 62
     3
 48
5.0
100
AcDbCircle
 10
160.0497512891513
 20
129.6057185346459
 30
0.0
 40
1.5
100
AcDbArc
 50
180.0
 51
270.0
  0
ARC
  5
7BB
330
1A
100
AcDbEntity
  8
SEIHIN
  6
CONTINUOUS
 62
     3
 48
5.0
100
AcDbCircle
 10
165.0497512891513
 20
129.6057185346459
 30
0.0
 40
1.5
100
AcDbArc
 50
270.0
 51
0.0
  0
LINE
  5
7BC
330
1A
100
AcDbEntity
  8
SEIHIN
  6
CONTINUOUS
 62
     3
 48
5.0
100
AcDbLine
 10
192.8497512891512
 20
111.956918534646
 30
0.0
 11
192.8497512891512
 21
121.007018534646
 31
0.0
  0
LINE
  5
7BD
330
1A
100
AcDbEntity
  8
SEIHIN
  6
CONTINUOUS
 62
     3
 48
5.0
100
AcDbLine
 10
194.3497512891512
 20
112.167318534646
 30
0.0
 11
194.3497512891512
 21
121.007018534646
 31
0.0
  0
LINE
  5
7BE
330
1A
100
AcDbEntity
  8
SEIHIN
  6
CONTINUOUS
 62
     3
 48
5.0
100
AcDbLine
 10
195.8497512891512
 20
112.6935185346459
 30
0.0
 11
195.8497512891512
 21
121.007018534646
 31
0.0
  0
ARC
  5
7BF
330
1A
100
AcDbEntity
  8
SEIHIN
  6
CONTINUOUS
 62
     3
 48
5.0
100
AcDbCircle
 10
192.8497524640396
 20
129.6049173597301
 30
0.0
 40
8.499973062310239
100
AcDbArc
 50
180.66464013488
 51
269.3339957935657
  0
LINE
  5
7C0
330
1A
100
AcDbEntity
  8
SEIHIN
  6
CONTINUOUS
 62
     3
 48
5.0
100
AcDbLine
 10
197.8497512891512
 20
109.807618534646
 30
0.0
 11
197.8497512891512
 21
99.10601853464603
 31
0.0
  0
LINE
  5
7C1
330
1A
100
AcDbEntity
  8
SEIHIN
  6
CONTINUOUS
 62
     3
 48
5.0
100
AcDbLine
 10
196.3497512891512
 20
109.5972185346459
 30
0.0
 11
196.3497512891512
 21
99.10601853464603
 31
0.0
  0
LINE
  5
7C2
330
1A
100
AcDbEntity
  8
SEIHIN
  6
CONTINUOUS
 62
     3
 48
5.0
100
AcDbLine
 10
194.8497512891512
 20
109.0710185346459
 30
0.0
 11
194.8497512891512
 21
99.10601853464603
 31
0.0
  0
LINE
  5
7C3
330
1A
100
AcDbEntity
  8
SEIHIN
  6
CONTINUOUS
 62
     3
 48
5.0
100
AcDbLine
 10
193.3497512891513
 20
99.10601853464603
 30
0.0
 11
193.3497512891513
 21
104.106018534646
 31
0.0
  0
LINE
  5
7C4
330
1A
100
AcDbEntity
  8
SEIHIN
  6
CONTINUOUS
 62
     3
 48
5.0
100
AcDbLine
 10
193.3497512891513
 20
104.106018534646
 30
0.0
 11
194.8497512891512
 21
104.106018534646
 31
0.0
  0
LINE
  5
7C5
330
1A
100
AcDbEntity
  8
SEIHIN
  6
CONTINUOUS
 62
     3
 48
5.0
100
AcDbLine
 10
198.8497512891512
 20
104.105918534646
 30
0.0
 11
200.8497512891512
 21
101.8560732223797
 31
0.0
  0
LINE
  5
7C6
330
1A
100
AcDbEntity
  8
SEIHIN
  6
CONTINUOUS
 62
     3
 48
5.0
100
AcDbLine
 10
198.8497512891512
 20
99.10601853464603
 30
0.0
 11
198.8497512891512
 21
104.105918534646
 31
0.0
  0
LINE
  5
7C7
330
1A
100
AcDbEntity
  8
SEIHIN
  6
CONTINUOUS
 62
     3
 48
5.0
100
AcDbLine
 10
200.8497512891512
 20
99.10601853464603
 30
0.0
 11
200.8497512891512
 21
101.8560732223797
 31
0.0
  0
LINE
  5
7C8
330
1A
100
AcDbEntity
  8
SEIHIN
  6
CONTINUOUS
 62
     3
 48
5.0
100
AcDbLine
 10
198.8497512891512
 20
104.105918534646
 30
0.0
 11
197.8497512891512
 21
104.105918534646
 31
0.0
  0
LINE
  5
7C9
330
1A
100
AcDbEntity
  8
SEIHIN
  6
CONTINUOUS
 62
     3
 48
5.0
100
AcDbLine
 10
197.6306512891513
 20
110.4323185346459
 30
0.0
 11
195.8716512891512
 21
112.6310185346459
 31
0.0
  0
LINE
  5
7CA
330
1A
100
AcDbEntity
  8
SEIHIN
  6
CONTINUOUS
 62
     3
 48
5.0
100
AcDbLine
 10
194.3716512891513
 20
112.1048185346459
 30
0.0
 11
196.3278512891514
 21
109.659618534646
 31
0.0
  0
ARC
  5
7CB
330
1A
100
AcDbEntity
  8
SEIHIN
  6
CONTINUOUS
 62
     3
 48
5.0
100
AcDbCircle
 10
195.9497659370056
 20
112.6934767872541
 30
0.0
 40
0.1000146565673551
100
AcDbArc
 50
179.9760840110154
 51
218.6448377419288
  0
ARC
  5
7CC
330
1A
100
AcDbEntity
  8
SEIHIN
  6
CONTINUOUS
 62
     3
 48
5.0
100
AcDbCircle
 10
193.8497650139629
 20
111.9568794072347
 30
0.0
 40
1.000013725577175
100
AcDbArc
 50
179.9977581952439
 51
218.6566716641546
  0
ARC
  5
7CD
330
1A
100
AcDbEntity
  8
SEIHIN
  6
CONTINUOUS
 62
     3
 48
5.0
100
AcDbCircle
 10
194.4497659370058
 20
112.1672767872543
 30
0.0
 40
0.1000146565675398
100
AcDbArc
 50
179.9760840110809
 51
218.6448377419925
  0
ARC
  5
7CE
330
1A
100
AcDbEntity
  8
SEIHIN
  6
CONTINUOUS
 62
     3
 48
5.0
100
AcDbCircle
 10
194.7498256700955
 20
109.071091477729
 30
0.0
 40
0.0999256456789196
100
AcDbArc
 50
359.9581755899707
 51
38.66274616268534
  0
LINE
  5
7CF
330
1A
100
AcDbEntity
  8
SEIHIN
  6
CONTINUOUS
 62
     3
 48
5.0
100
AcDbLine
 10
193.0689512891514
 20
111.3322185346459
 30
0.0
 11
194.8278512891514
 21
109.1335185346459
 31
0.0
  0
ARC
  5
7D0
330
1A
100
AcDbEntity
  8
SEIHIN
  6
CONTINUOUS
 62
     3
 48
5.0
100
AcDbCircle
 10
196.8497375643397
 20
109.8076576620573
 30
0.0
 40
1.000013725576976
100
AcDbArc
 50
359.9977581952353
 51
38.65667166414275
  0
ARC
  5
7D1
330
1A
100
AcDbEntity
  8
SEIHIN
  6
CONTINUOUS
 62
     3
 48
5.0
100
AcDbCircle
 10
196.2499069200992
 20
109.597059942993
 30
0.0
 40
0.0999444948785916
100
AcDbArc
 50
0.090916825397537
 51
38.75072507947814
  0
ARC
  5
7D2
330
1A
100
AcDbEntity
  8
SEIHIN
  6
CONTINUOUS
 62
     3
 48
5.0
100
AcDbCircle
 10
192.8497518764614
 20
129.6049179473252
 30
0.0
 40
5.499970634921575
100
AcDbArc
 50
180.6646433786978
 51
269.3343025665817
  0
ARC
  5
7D3
330
1A
100
AcDbEntity
  8
SEIHIN
  6
CONTINUOUS
 62
     3
 48
5.0
100
AcDbCircle
 10
192.8497524642957
 20
129.6049173594679
 30
0.0
 40
6.99997213923028
100
AcDbArc
 50
180.664638974558
 51
269.3337046472068
  0
ARC
  5
7D4
330
1A
100
AcDbEntity
  8
SEIHIN
  6
CONTINUOUS
 62
     3
 48
5.0
100
AcDbCircle
 10
184.2503552745516
 20
129.5052145951348
 30
0.0
 40
3.100003939513769
100
AcDbArc
 50
0.6636088972253638
 51
90.00007366010672
  0
ARC
  5
7D5
330
1A
100
AcDbEntity
  8
SEIHIN
  6
CONTINUOUS
 62
     3
 48
5.0
100
AcDbCircle
 10
184.2503548077195
 20
129.5052150565284
 30
0.0
 40
1.60000347812134
100
AcDbArc
 50
0.6626203316285859
 51
90.00012599917289
  0
ARC
  5
7D6
330
1A
100
AcDbEntity
  8
SEIHIN
  6
CONTINUOUS
 62
     3
 48
5.0
100
AcDbCircle
 10
184.2503549324793
 20
129.5052149347754
 30
0.0
 40
0.100003599936807
100
AcDbArc
 50
0.68960375274853
 51
90.00208739811444
  0
ARC
  5
7D7
330
1A
100
AcDbEntity
  8
SEIHIN
  6
CONTINUOUS
 62
     3
 48
5.0
100
AcDbCircle
 10
192.749796769803
 20
121.0055736908396
 30
0.0
 40
3.099954519838902
100
AcDbArc
 50
359.9989805601687
 51
89.33359720142545
  0
ARC
  5
7D8
330
1A
100
AcDbEntity
  8
SEIHIN
  6
CONTINUOUS
 62
     3
 48
5.0
100
AcDbCircle
 10
192.7497982642427
 20
121.0055721460364
 30
0.0
 40
0.0999530392861317
100
AcDbArc
 50
359.9692685026985
 51
89.33904034643607
  0
ARC
  5
7D9
330
1A
100
AcDbEntity
  8
SEIHIN
  6
CONTINUOUS
 62
     3
 48
5.0
100
AcDbCircle
 10
192.7498472313491
 20
121.0055226398972
 30
0.0
 40
1.600004057807533
100
AcDbArc
 50
359.9998529918912
 51
89.3337779307547
  0
LINE
  5
7DA
330
1A
100
AcDbEntity
  8
SEIHIN
  6
CONTINUOUS
 62
     3
 48
5.0
100
AcDbLine
 10
130.2498512891513
 20
207.344715662135
 30
0.0
 11
139.2494512891512
 21
207.344715662135
 31
0.0
  0
LINE
  5
7DB
330
1A
100
AcDbEntity
  8
SEIHIN
  6
CONTINUOUS
 62
     3
 48
5.0
100
AcDbLine
 10
130.2498512891513
 20
197.344715662135
 30
0.0
 11
139.2494512891512
 21
197.3446156621349
 31
0.0
  0
LINE
  5
7DC
330
1A
100
AcDbEntity
  8
SEIHIN
  6
CONTINUOUS
 62
     3
 48
5.0
100
AcDbLine
 10
131.7498512891513
 20
195.344715662135
 30
0.0
 11
195.3498512891513
 21
195.344515662135
 31
0.0
  0
LINE
  5
7DD
330
1A
100
AcDbEntity
  8
SEIHIN
  6
CONTINUOUS
 62
     3
 48
5.0
100
AcDbLine
 10
131.7498512891513
 20
209.344715662135
 30
0.0
 11
195.3498512891513
 21
209.3446156621349
 31
0.0
  0
DIMENSION
  5
7DE
330
1A
100
AcDbEntity
  8
SUNPOU
 62
     4
100
AcDbDimension
  2
*D18
 10
112.9465125362601
 20
195.344715662135
 30
0.0
 11
110.44651253626
 21
202.344715662135
 31
0.0
 70
    32
  3
STANDARD
100
AcDbAlignedDimension
 13
131.7498512891513
 23
209.344715662135
 33
0.0
 14
131.7498512891513
 24
195.344715662135
 34
0.0
 50
90.0
100
AcDbRotatedDimension
1001
ACAD
1000
DSTYLE
1002
{
1070
   140
1040
3.0
1070
    74
1070
     0
1070
   172
1070
     1
1070
    73
1070
     0
1070
   272
1070
     2
1070
    77
1070
     3
1070
   173
1070
     1
1070
   147
1040
1.0
1070
    42
1040
3.0
1070
    44
1040
1.5
1070
    43
1040
7.0
1070
   271
1070
     0
1070
   178
1070
     4
1070
   177
1070
     4
1070
   176
1070
     4
1070
   141
1040
150.0
1070
     7
1000
_OPEN
1070
     6
1000
_OPEN
1070
    41
1040
3.0
1002
}
  0
LINE
  5
7DF
330
1A
100
AcDbEntity
  8
SEIHIN
  6
CONTINUOUS
 62
     3
 48
5.0
100
AcDbLine
 10
130.7498512891513
 20
202.344715662135
 30
0.0
 11
130.7498512891513
 21
196.344715662135
 31
0.0
  0
LINE
  5
7E0
330
1A
100
AcDbEntity
  8
SEIHIN
  6
CONTINUOUS
 62
     3
 48
5.0
100
AcDbLine
 10
129.2498512891513
 20
202.344715662135
 30
0.0
 11
129.2498512891513
 21
198.344715662135
 31
0.0
  0
ARC
  5
7E1
330
1A
100
AcDbEntity
  8
SEIHIN
  6
CONTINUOUS
 62
     3
 48
5.0
100
AcDbCircle
 10
131.7498512891513
 20
196.344715662135
 30
0.0
 40
1.000000000000028
100
AcDbArc
 50
180.0000000000016
 51
270.0000000000016
  0
ARC
  5
7E2
330
1A
100
AcDbEntity
  8
SEIHIN
  6
CONTINUOUS
 62
     3
 48
5.0
100
AcDbCircle
 10
130.2498512891513
 20
198.344715662135
 30
0.0
 40
0.9999999999999715
100
AcDbArc
 50
179.9999999999983
 51
269.9999999999983
  0
ARC
  5
7E3
330
1A
100
AcDbEntity
  8
SEIHIN
  6
CONTINUOUS
 62
     3
 48
5.0
100
AcDbCircle
 10
131.7498512891513
 20
208.344715662135
 30
0.0
 40
1.000000000000028
100
AcDbArc
 50
89.99999999999836
 51
179.9999999999983
  0
ARC
  5
7E4
330
1A
100
AcDbEntity
  8
SEIHIN
  6
CONTINUOUS
 62
     3
 48
5.0
100
AcDbCircle
 10
130.2498512891514
 20
206.344715662135
 30
0.0
 40
1.000000000000056
100
AcDbArc
 50
90.00000000000651
 51
180.0000000000065
  0
LINE
  5
7E5
330
1A
100
AcDbEntity
  8
SEIHIN
  6
CONTINUOUS
 62
     3
 48
5.0
100
AcDbLine
 10
129.2498512891513
 20
202.344715662135
 30
0.0
 11
129.2498512891513
 21
206.3447156621349
 31
0.0
  0
LINE
  5
7E6
330
1A
100
AcDbEntity
  8
SEIHIN
  6
CONTINUOUS
 62
     3
 48
5.0
100
AcDbLine
 10
130.7498512891513
 20
202.344715662135
 30
0.0
 11
130.7498512891513
 21
208.3447156621351
 31
0.0
  0
LINE
  5
7E7
330
1A
100
AcDbEntity
  8
CENTER_L
  6
CENTER
 62
     1
 48
5.0
100
AcDbLine
 10
162.5497512891514
 20
188.2613810102738
 30
0.0
 11
162.549784709059
 21
216.3446975810116
 31
0.0
  0
LINE
  5
7E8
330
1A
100
AcDbEntity
  8
CENTER_L
  6
CENTER
 62
     1
 48
5.0
100
AcDbLine
 10
143.2494512891512
 20
188.3446794998363
 30
0.0
 11
143.2494512891512
 21
216.3446975810116
 31
0.0
  0
LINE
  5
7E9
330
1A
100
AcDbEntity
  8
SEIHIN
  6
CONTINUOUS
 62
     3
 48
5.0
100
AcDbLine
 10
153.5498512891513
 20
197.344515662135
 30
0.0
 11
186.6002512891514
 21
197.344515662135
 31
0.0
  0
LINE
  5
7EA
330
1A
100
AcDbEntity
  8
SEIHIN
  6
CONTINUOUS
 62
     3
 48
5.0
100
AcDbLine
 10
153.5498512891513
 20
207.344715662135
 30
0.0
 11
186.6002512891514
 21
207.344615662135
 31
0.0
  0
LINE
  5
7EB
330
1A
100
AcDbEntity
  8
SEIHIN
  6
CONTINUOUS
 62
     3
 48
5.0
100
AcDbLine
 10
147.2494512891512
 20
202.3446156621349
 30
0.0
 11
147.2494512891512
 21
200.3446156621349
 31
0.0
  0
LINE
  5
7EC
330
1A
100
AcDbEntity
  8
SEIHIN
  6
CONTINUOUS
 62
     3
 48
5.0
100
AcDbLine
 10
139.2494512891512
 20
202.3446156621349
 30
0.0
 11
139.2494512891512
 21
200.3446156621349
 31
0.0
  0
LINE
  5
7ED
330
1A
100
AcDbEntity
  8
SEIHIN
  6
CONTINUOUS
 62
     3
 48
5.0
100
AcDbLine
 10
139.2494512891512
 20
193.8447156621349
 30
0.0
 11
147.2493512891512
 21
193.8447156621349
 31
0.0
  0
LINE
  5
7EE
330
1A
100
AcDbEntity
  8
SEIHIN
  6
CONTINUOUS
 62
     3
 48
5.0
100
AcDbLine
 10
139.2494512891512
 20
199.344615662135
 30
0.0
 11
147.7493512891513
 21
199.344615662135
 31
0.0
  0
LINE
  5
7EF
330
1A
100
AcDbEntity
  8
SEIHIN
  6
CONTINUOUS
 62
     3
 48
5.0
100
AcDbLine
 10
139.2494512891512
 20
200.3446156621349
 30
0.0
 11
147.2494512891512
 21
200.3446156621349
 31
0.0
  0
LINE
  5
7F0
330
1A
100
AcDbEntity
  8
SEIHIN
  6
CONTINUOUS
 62
     3
 48
5.0
100
AcDbLine
 10
139.2494512891512
 20
199.344615662135
 30
0.0
 11
139.2493512891512
 21
193.8446156621349
 31
0.0
  0
LINE
  5
7F1
330
1A
100
AcDbEntity
  8
SEIHIN
  6
CONTINUOUS
 62
     3
 48
5.0
100
AcDbLine
 10
141.2494512891512
 20
200.3446156621349
 30
0.0
 11
141.2494512891512
 21
199.344615662135
 31
0.0
  0
LINE
  5
7F2
330
1A
100
AcDbEntity
  8
SEIHIN
  6
CONTINUOUS
 62
     3
 48
5.0
100
AcDbLine
 10
145.2494512891512
 20
200.3446156621349
 30
0.0
 11
145.2494512891512
 21
199.344615662135
 31
0.0
  0
LINE
  5
7F3
330
1A
100
AcDbEntity
  8
SEIHIN
  6
CONTINUOUS
 62
     3
 48
5.0
100
AcDbLine
 10
147.2494512891512
 20
199.344615662135
 30
0.0
 11
147.2493512891512
 21
193.844515662135
 31
0.0
  0
LINE
  5
7F4
330
1A
100
AcDbEntity
  8
SEIHIN
  6
CONTINUOUS
 62
     3
 48
5.0
100
AcDbLine
 10
153.5498512891513
 20
197.344515662135
 30
0.0
 11
147.7493512891513
 21
199.344615662135
 31
0.0
  0
LINE
  5
7F5
330
1A
100
AcDbEntity
  8
SEIHIN
  6
CONTINUOUS
 62
     3
 48
5.0
100
AcDbLine
 10
139.2494512891512
 20
204.3447156621349
 30
0.0
 11
147.2494512891512
 21
204.3447156621349
 31
0.0
  0
LINE
  5
7F6
330
1A
100
AcDbEntity
  8
SEIHIN
  6
CONTINUOUS
 62
     3
 48
5.0
100
AcDbLine
 10
139.2494512891512
 20
205.344715662135
 30
0.0
 11
147.7493512891513
 21
205.344715662135
 31
0.0
  0
LINE
  5
7F7
330
1A
100
AcDbEntity
  8
SEIHIN
  6
CONTINUOUS
 62
     3
 48
5.0
100
AcDbLine
 10
139.2494512891512
 20
205.344715662135
 30
0.0
 11
139.2494512891512
 21
209.344715662135
 31
0.0
  0
LINE
  5
7F8
330
1A
100
AcDbEntity
  8
SEIHIN
  6
CONTINUOUS
 62
     3
 48
5.0
100
AcDbLine
 10
139.2494512891512
 20
202.344715662135
 30
0.0
 11
139.2494512891512
 21
204.3447156621349
 31
0.0
  0
LINE
  5
7F9
330
1A
100
AcDbEntity
  8
SEIHIN
  6
CONTINUOUS
 62
     3
 48
5.0
100
AcDbLine
 10
141.2494512891512
 20
205.344715662135
 30
0.0
 11
141.2494512891512
 21
204.3447156621349
 31
0.0
  0
LINE
  5
7FA
330
1A
100
AcDbEntity
  8
SEIHIN
  6
CONTINUOUS
 62
     3
 48
5.0
100
AcDbLine
 10
145.2494512891512
 20
205.344715662135
 30
0.0
 11
145.2494512891512
 21
204.3447156621349
 31
0.0
  0
LINE
  5
7FB
330
1A
100
AcDbEntity
  8
SEIHIN
  6
CONTINUOUS
 62
     3
 48
5.0
100
AcDbLine
 10
141.2494512891512
 20
210.3447156621351
 30
0.0
 11
145.2494512891512
 21
210.3447156621351
 31
0.0
  0
LINE
  5
7FC
330
1A
100
AcDbEntity
  8
SEIHIN
  6
CONTINUOUS
 62
     3
 48
5.0
100
AcDbLine
 10
141.2494512891512
 20
210.3447156621351
 30
0.0
 11
141.2494512891512
 21
209.344715662135
 31
0.0
  0
LINE
  5
7FD
330
1A
100
AcDbEntity
  8
SEIHIN
  6
CONTINUOUS
 62
     3
 48
5.0
100
AcDbLine
 10
145.2494512891512
 20
210.3447156621351
 30
0.0
 11
145.2494512891512
 21
209.344715662135
 31
0.0
  0
LINE
  5
7FE
330
1A
100
AcDbEntity
  8
SEIHIN
  6
CONTINUOUS
 62
     3
 48
5.0
100
AcDbLine
 10
147.2494512891512
 20
205.344715662135
 30
0.0
 11
147.2494512891512
 21
209.344715662135
 31
0.0
  0
LINE
  5
7FF
330
1A
100
AcDbEntity
  8
SEIHIN
  6
CONTINUOUS
 62
     3
 48
5.0
100
AcDbLine
 10
153.5498512891513
 20
207.344715662135
 30
0.0
 11
147.7493512891513
 21
205.344715662135
 31
0.0
  0
LINE
  5
800
330
1A
100
AcDbEntity
  8
SEIHIN
  6
CONTINUOUS
 62
     3
 48
5.0
100
AcDbLine
 10
147.2494512891512
 20
202.344715662135
 30
0.0
 11
147.2494512891512
 21
204.3447156621349
 31
0.0
  0
ARC
  5
801
330
1A
100
AcDbEntity
  8
SEIHIN
  6
CONTINUOUS
 62
     3
 48
5.0
100
AcDbCircle
 10
163.5498512891513
 20
202.3446156621349
 30
0.0
 40
1.5
100
AcDbArc
 50
270.0
 51
0.0
  0
ARC
  5
802
330
1A
100
AcDbEntity
  8
SEIHIN
  6
CONTINUOUS
 62
     3
 48
5.0
100
AcDbCircle
 10
161.5498512891513
 20
202.3446156621349
 30
0.0
 40
1.500000000000056
100
AcDbArc
 50
180.000000000002
 51
270.0000000000024
  0
LINE
  5
803
330
1A
100
AcDbEntity
  8
SEIHIN
  6
CONTINUOUS
 62
     3
 48
5.0
100
AcDbLine
 10
161.5498512891513
 20
200.8446156621349
 30
0.0
 11
163.5498512891513
 21
200.8446156621349
 31
0.0
  0
LINE
  5
804
330
1A
100
AcDbEntity
  8
SEIHIN
  6
CONTINUOUS
 62
     3
 48
5.0
100
AcDbLine
 10
161.5498512891513
 20
203.8446156621349
 30
0.0
 11
163.5498512891513
 21
203.8446156621349
 31
0.0
  0
ARC
  5
805
330
1A
100
AcDbEntity
  8
SEIHIN
  6
CONTINUOUS
 62
     3
 48
5.0
100
AcDbCircle
 10
161.5498512891513
 20
202.3446156621349
 30
0.0
 40
1.500000000000056
100
AcDbArc
 50
89.99999999999756
 51
179.9999999999979
  0
ARC
  5
806
330
1A
100
AcDbEntity
  8
SEIHIN
  6
CONTINUOUS
 62
     3
 48
5.0
100
AcDbCircle
 10
163.5498512891513
 20
202.3446156621349
 30
0.0
 40
1.5
100
AcDbArc
 50
0.0
 51
90.0
  0
LINE
  5
807
330
1A
100
AcDbEntity
  8
SEIHIN
  6
CONTINUOUS
 62
     3
 48
5.0
100
AcDbLine
 10
186.6002512891514
 20
207.344615662135
 30
0.0
 11
195.0998512891514
 21
207.344615662135
 31
0.0
  0
LINE
  5
808
330
1A
100
AcDbEntity
  8
SEIHIN
  6
CONTINUOUS
 62
     3
 48
5.0
100
AcDbLine
 10
186.6002512891514
 20
197.344515662135
 30
0.0
 11
195.0998512891514
 21
197.344515662135
 31
0.0
  0
LINE
  5
809
330
1A
100
AcDbEntity
  8
SEIHIN
  6
CONTINUOUS
 62
     3
 48
5.0
100
AcDbLine
 10
187.3502512891514
 20
202.344515662135
 30
0.0
 11
187.3501512891513
 21
198.094515662135
 31
0.0
  0
LINE
  5
80A
330
1A
100
AcDbEntity
  8
SEIHIN
  6
CONTINUOUS
 62
     3
 48
5.0
100
AcDbLine
 10
185.8502512891513
 20
196.594515662135
 30
0.0
 11
185.8502512891513
 21
195.344515662135
 31
0.0
  0
ARC
  5
80B
330
1A
100
AcDbEntity
  8
SEIHIN
  6
CONTINUOUS
 62
     3
 48
5.0
100
AcDbCircle
 10
186.6002512891514
 20
196.594515662135
 30
0.0
 40
0.75
100
AcDbArc
 50
90.0
 51
180.0
  0
ARC
  5
80C
330
1A
100
AcDbEntity
  8
SEIHIN
  6
CONTINUOUS
 62
     3
 48
5.0
100
AcDbCircle
 10
186.6002512891514
 20
198.094515662135
 30
0.0
 40
0.75
100
AcDbArc
 50
270.0
 51
0.0
  0
ARC
  5
80D
330
1A
100
AcDbEntity
  8
SEIHIN
  6
CONTINUOUS
 62
     3
 48
5.0
100
AcDbCircle
 10
186.6002512891513
 20
206.5946156621349
 30
0.0
 40
0.7500000000000569
100
AcDbArc
 50
359.9999999999955
 51
89.99999999999593
  0
LINE
  5
80E
330
1A
100
AcDbEntity
  8
SEIHIN
  6
CONTINUOUS
 62
     3
 48
5.0
100
AcDbLine
 10
187.3502512891514
 20
202.3446156621349
 30
0.0
 11
187.3502512891514
 21
206.5946156621349
 31
0.0
  0
LINE
  5
80F
330
1A
100
AcDbEntity
  8
SEIHIN
  6
CONTINUOUS
 62
     3
 48
5.0
100
AcDbLine
 10
185.8502512891513
 20
208.0946156621349
 30
0.0
 11
185.8502512891513
 21
209.3446156621349
 31
0.0
  0
ARC
  5
810
330
1A
100
AcDbEntity
  8
SEIHIN
  6
CONTINUOUS
 62
     3
 48
5.0
100
AcDbCircle
 10
186.6002512891513
 20
208.094615662135
 30
0.0
 40
0.7499999999999432
100
AcDbArc
 50
180.0000000000044
 51
270.0000000000041
  0
LINE
  5
811
330
1A
100
AcDbEntity
  8
SEIHIN
  6
CONTINUOUS
 62
     3
 48
5.0
100
AcDbLine
 10
200.8496512891514
 20
199.5945346248215
 30
0.0
 11
200.8496512891513
 21
205.0945346248366
 31
0.0
  0
LINE
  5
812
330
1A
100
AcDbEntity
  8
SEIHIN
  6
CONTINUOUS
 62
     3
 48
5.0
100
AcDbLine
 10
197.8498512891514
 20
202.344515662135
 30
0.0
 11
197.8497512891512
 21
198.094515662135
 31
0.0
  0
LINE
  5
813
330
1A
100
AcDbEntity
  8
SEIHIN
  6
CONTINUOUS
 62
     3
 48
5.0
100
AcDbLine
 10
195.8498512891513
 20
202.344515662135
 30
0.0
 11
195.8497512891512
 21
198.094515662135
 31
0.0
  0
LINE
  5
814
330
1A
100
AcDbEntity
  8
SEIHIN
  6
CONTINUOUS
 62
     3
 48
5.0
100
AcDbLine
 10
198.8496512891513
 20
202.344515662135
 30
0.0
 11
198.8496512891513
 21
198.3446156621349
 31
0.0
  0
ARC
  5
815
330
1A
100
AcDbEntity
  8
SEIHIN
  6
CONTINUOUS
 62
     3
 48
5.0
100
AcDbCircle
 10
195.3498512891513
 20
196.344515662135
 30
0.0
 40
1.0
100
AcDbArc
 50
270.0
 51
0.0
  0
ARC
  5
816
330
1A
100
AcDbEntity
  8
SEIHIN
  6
CONTINUOUS
 62
     3
 48
5.0
100
AcDbCircle
 10
197.0998512891513
 20
196.594515662135
 30
0.0
 40
0.75
100
AcDbArc
 50
90.0
 51
180.0
  0
LINE
  5
817
330
1A
100
AcDbEntity
  8
SEIHIN
  6
CONTINUOUS
 62
     3
 48
5.0
100
AcDbLine
 10
195.0998512891514
 20
197.344515662135
 30
0.0
 11
197.0998512891513
 21
197.344515662135
 31
0.0
  0
LINE
  5
818
330
1A
100
AcDbEntity
  8
SEIHIN
  6
CONTINUOUS
 62
     3
 48
5.0
100
AcDbLine
 10
194.3498512891513
 20
196.594515662135
 30
0.0
 11
194.3498512891513
 21
195.344515662135
 31
0.0
  0
ARC
  5
819
330
1A
100
AcDbEntity
  8
SEIHIN
  6
CONTINUOUS
 62
     3
 48
5.0
100
AcDbCircle
 10
195.0998512891514
 20
198.094515662135
 30
0.0
 40
0.75
100
AcDbArc
 50
270.0
 51
0.0
  0
ARC
  5
81A
330
1A
100
AcDbEntity
  8
SEIHIN
  6
CONTINUOUS
 62
     3
 48
5.0
100
AcDbCircle
 10
195.0998512891514
 20
196.594515662135
 30
0.0
 40
0.75
100
AcDbArc
 50
90.0
 51
180.0
  0
LINE
  5
81B
330
1A
100
AcDbEntity
  8
SEIHIN
  6
CONTINUOUS
 62
     3
 48
5.0
100
AcDbLine
 10
198.8496512891513
 20
198.3446156621349
 30
0.0
 11
200.8496512891513
 21
199.5945346248215
 31
0.0
  0
ARC
  5
81C
330
1A
100
AcDbEntity
  8
SEIHIN
  6
CONTINUOUS
 62
     3
 48
5.0
100
AcDbCircle
 10
197.0998012891513
 20
198.0944656621349
 30
0.0
 40
0.7499500016667051
100
AcDbArc
 50
270.0038199732989
 51
0.0038199732989341
  0
LINE
  5
81D
330
1A
100
AcDbEntity
  8
SEIHIN
  6
CONTINUOUS
 62
     3
 48
5.0
100
AcDbLine
 10
196.3498512891513
 20
196.594515662135
 30
0.0
 11
196.3498512891513
 21
196.344515662135
 31
0.0
  0
LINE
  5
81E
330
1A
100
AcDbEntity
  8
SEIHIN
  6
CONTINUOUS
 62
     3
 48
5.0
100
AcDbLine
 10
197.8498512891514
 20
198.3446156621349
 30
0.0
 11
198.8496512891513
 21
198.3446156621349
 31
0.0
  0
ARC
  5
81F
330
1A
100
AcDbEntity
  8
SEIHIN
  6
CONTINUOUS
 62
     3
 48
5.0
100
AcDbCircle
 10
195.3498512891513
 20
208.3446156621349
 30
0.0
 40
1.0
100
AcDbArc
 50
0.0
 51
90.0
  0
ARC
  5
820
330
1A
100
AcDbEntity
  8
SEIHIN
  6
CONTINUOUS
 62
     3
 48
5.0
100
AcDbCircle
 10
197.0998512891513
 20
208.094615662135
 30
0.0
 40
0.7499999999999432
100
AcDbArc
 50
180.0000000000044
 51
270.0000000000041
  0
LINE
  5
821
330
1A
100
AcDbEntity
  8
SEIHIN
  6
CONTINUOUS
 62
     3
 48
5.0
100
AcDbLine
 10
195.0998512891514
 20
207.344615662135
 30
0.0
 11
197.0998512891513
 21
207.344615662135
 31
0.0
  0
ARC
  5
822
330
1A
100
AcDbEntity
  8
SEIHIN
  6
CONTINUOUS
 62
     3
 48
5.0
100
AcDbCircle
 10
195.0998512891513
 20
206.5946156621349
 30
0.0
 40
0.7500000000000569
100
AcDbArc
 50
359.9999999999955
 51
89.99999999999593
  0
LINE
  5
823
330
1A
100
AcDbEntity
  8
SEIHIN
  6
CONTINUOUS
 62
     3
 48
5.0
100
AcDbLine
 10
195.8498512891513
 20
202.3446156621349
 30
0.0
 11
195.8498512891513
 21
206.5946156621349
 31
0.0
  0
LINE
  5
824
330
1A
100
AcDbEntity
  8
SEIHIN
  6
CONTINUOUS
 62
     3
 48
5.0
100
AcDbLine
 10
194.3498512891513
 20
208.0946156621349
 30
0.0
 11
194.3498512891513
 21
209.3446156621349
 31
0.0
  0
ARC
  5
825
330
1A
100
AcDbEntity
  8
SEIHIN
  6
CONTINUOUS
 62
     3
 48
5.0
100
AcDbCircle
 10
195.0998512891513
 20
208.094615662135
 30
0.0
 40
0.7499999999999432
100
AcDbArc
 50
180.0000000000044
 51
270.0000000000041
  0
ARC
  5
826
330
1A
100
AcDbEntity
  8
SEIHIN
  6
CONTINUOUS
 62
     3
 48
5.0
100
AcDbCircle
 10
197.0998512891513
 20
206.5946156621349
 30
0.0
 40
0.7500000000000569
100
AcDbArc
 50
359.9999999999955
 51
89.99999999999593
  0
LINE
  5
827
330
1A
100
AcDbEntity
  8
SEIHIN
  6
CONTINUOUS
 62
     3
 48
5.0
100
AcDbLine
 10
198.8496512891513
 20
206.344415662135
 30
0.0
 11
200.8496512891513
 21
205.0945346248366
 31
0.0
  0
LINE
  5
828
330
1A
100
AcDbEntity
  8
SEIHIN
  6
CONTINUOUS
 62
     3
 48
5.0
100
AcDbLine
 10
197.8498512891514
 20
206.344415662135
 30
0.0
 11
198.8496512891513
 21
206.344415662135
 31
0.0
  0
LINE
  5
829
330
1A
100
AcDbEntity
  8
SEIHIN
  6
CONTINUOUS
 62
     3
 48
5.0
100
AcDbLine
 10
197.8498512891514
 20
202.3446156621349
 30
0.0
 11
197.8498512891514
 21
206.5946156621349
 31
0.0
  0
LINE
  5
82A
330
1A
100
AcDbEntity
  8
SEIHIN
  6
CONTINUOUS
 62
     3
 48
5.0
100
AcDbLine
 10
198.8496512891513
 20
202.344515662135
 30
0.0
 11
198.8496512891513
 21
206.344415662135
 31
0.0
  0
LINE
  5
82B
330
1A
100
AcDbEntity
  8
SEIHIN
  6
CONTINUOUS
 62
     3
 48
5.0
100
AcDbLine
 10
196.3498512891513
 20
208.0946156621349
 30
0.0
 11
196.3498512891513
 21
208.3446156621349
 31
0.0
  0
DIMENSION
  5
82C
330
1A
100
AcDbEntity
  8
SUNPOU
 62
     4
100
AcDbDimension
  2
*D19
 10
312.2189395195055
 20
96.35603265033562
 30
0.0
 11
309.7189395195055
 21
83.95603265033567
 31
0.0
 70
    32
  1
φ <>
  3
STANDARD
100
AcDbAlignedDimension
 13
272.8497512891512
 23
101.8560326503365
 33
0.0
 14
272.8497512891512
 24
96.35603265033564
 34
0.0
 50
90.0
100
AcDbRotatedDimension
1001
ACAD
1000
DSTYLE
1002
{
1070
   140
1040
3.0
1070
    74
1070
     0
1070
   172
1070
     1
1070
    73
1070
     0
1070
   272
1070
     2
1070
    77
1070
     3
1070
   173
1070
     1
1070
   147
1040
1.0
1070
    42
1040
3.0
1070
    44
1040
1.5
1070
    43
1040
7.0
1070
   271
1070
     1
1070
   178
1070
     4
1070
   177
1070
     4
1070
   176
1070
     4
1070
   141
1040
150.0
1070
     7
1000
_OPEN
1070
     6
1000
_OPEN
1070
    41
1040
3.0
1002
}
  0
LINE
  5
82D
330
1A
100
AcDbEntity
  8
SEIHIN
  6
CONTINUOUS
 62
     3
 48
5.0
100
AcDbLine
 10
272.8497512891512
 20
96.35603265033564
 30
0.0
 11
287.8497512891512
 21
99.10601853464603
 31
0.0
  0
LINE
  5
82E
330
1A
100
AcDbEntity
  8
SEIHIN
  6
CONTINUOUS
 62
     3
 48
5.0
100
AcDbLine
 10
272.8497512891512
 20
101.8560326503365
 30
0.0
 11
287.8497512891512
 21
99.10601853464603
 31
0.0
  0
LINE
  5
82F
330
1A
100
AcDbEntity
  8
SEIHIN
  6
CONTINUOUS
 62
     3
 48
5.0
100
AcDbLine
 10
272.8497512891512
 20
99.10601853464603
 30
0.0
 11
277.6033512891512
 21
97.50071853464604
 31
0.0
  0
LINE
  5
830
330
1A
100
AcDbEntity
  8
SEIHIN
  6
CONTINUOUS
 62
     3
 48
5.0
100
AcDbLine
 10
272.8497512891512
 20
99.10601853464603
 30
0.0
 11
277.6033512891512
 21
100.711318534646
 31
0.0
  0
LINE
  5
831
330
1A
100
AcDbEntity
  8
SEIHIN
  6
CONTINUOUS
 62
     3
 48
5.0
100
AcDbLine
 10
287.8496512891513
 20
202.3442156621351
 30
0.0
 11
272.8496512891513
 21
205.0943659019574
 31
0.0
  0
LINE
  5
832
330
1A
100
AcDbEntity
  8
SEIHIN
  6
CONTINUOUS
 62
     3
 48
5.0
100
AcDbLine
 10
287.8496512891513
 20
202.344515662135
 30
0.0
 11
272.8496512891513
 21
199.5943659019423
 31
0.0
  0
LINE
  5
833
330
1A
100
AcDbEntity
  8
SEIHIN
  6
CONTINUOUS
 62
     3
 48
5.0
100
AcDbLine
 10
277.3661544196742
 20
200.4224365686968
 30
0.0
 11
272.8496512891513
 21
202.344515662135
 31
0.0
  0
LINE
  5
834
330
1A
100
AcDbEntity
  8
SEIHIN
  6
CONTINUOUS
 62
     3
 48
5.0
100
AcDbLine
 10
277.3661549701862
 20
204.2662949898536
 30
0.0
 11
272.8496512891513
 21
202.3442156621351
 31
0.0
  0
VIEWPORT
  5
22
330
17
100
AcDbEntity
 67
     1
  8
0
100
AcDbViewport
 10
313.6808219178082
 20
148.5
 30
0.0
 40
627.3616438356165
 41
297.0
 68
     2
 69
     1
1001
ACAD
1000
MVIEW
1002
{
1070
    16
1010
0.0
1020
0.0
1030
0.0
1010
0.0
1020
0.0
1030
1.0
1040
0.0
1040
297.0
1040
313.6808219178082
1040
148.5
1040
50.0
1040
0.0
1040
0.0
1070
     0
1070
   100
1070
     1
1070
     0
1070
     0
1070
     0
1070
     0
1070
     0
1040
0.0
1040
0.0
1040
0.0
1040
1.0
1040
1.0
1040
10.0
1040
10.0
1070
     0
1002
{
1002
}
1002
}
  0
VIEWPORT
  5
64
330
17
100
AcDbEntity
 67
     1
  8
VIEWPORT
100
AcDbViewport
 10
210.0
 20
148.5
 30
0.0
 40
420.0
 41
297.0
 68
     1
 69
     2
1001
ACAD
1000
MVIEW
1002
{
1070
    16
1010
0.0
1020
0.0
1030
0.0
1010
0.0
1020
0.0
1030
1.0
1040
0.0
1040
302.9399999999998
1040
210.0
1040
148.5
1040
50.0
1040
0.0
1040
0.0
1070
     0
1070
   100
1070
     1
1070
     0
1070
     0
1070
     0
1070
     0
1070
     0
1040
0.0
1040
0.0
1040
0.0
1040
5.0
1040
5.0
1040
0.0
1040
0.0
1070
     0
1002
{
1002
}
1002
}
  0
ENDSEC
  0
SECTION
  2
OBJECTS
  0
DICTIONARY
  5
C
330
0
100
AcDbDictionary
  3
ACAD_GROUP
350
D
  3
ACAD_LAYOUT
350
415
  3
ACAD_MLINESTYLE
350
E
  3
ACAD_PLOTSETTINGS
350
416
  3
ACAD_PLOTSTYLENAME
350
413
  3
ACDBHEADERROUNDTRIPXREC
350
8B9
  0
DICTIONARY
  5
444
330
1A
100
AcDbDictionary
280
     1
  3
ACAD_LAYOUTSELFREF
360
8DB
  0
DICTIONARY
  5
442
330
17
100
AcDbDictionary
280
     1
  3
ACAD_LAYOUTSELFREF
360
8DA
  0
DICTIONARY
  5
D
102
{ACAD_REACTORS
330
C
102
}
330
C
100
AcDbDictionary
  0
DICTIONARY
  5
415
102
{ACAD_REACTORS
330
C
102
}
330
C
100
AcDbDictionary
  0
DICTIONARY
  5
E
102
{ACAD_REACTORS
330
C
102
}
330
C
100
AcDbDictionary
  3
STANDARD
350
13
  0
DICTIONARY
  5
416
102
{ACAD_REACTORS
330
C
102
}
330
C
100
AcDbDictionary
  0
ACDBDICTIONARYWDFLT
  5
413
102
{ACAD_REACTORS
330
C
102
}
330
C
100
AcDbDictionary
281
     1
  3
Normal
350
414
100
AcDbDictionaryWithDefault
340
414
1001
ACAD
1000
TREAT_AS_HARD
1070
     0
1000
TREAT_AS_HARD
1070
     0
1000
TREAT_AS_HARD
1070
     0
  0
DICTIONARY
  5
8B9
102
{ACAD_REACTORS
330
C
102
}
330
C
100
AcDbDictionary
  3
TSTACKALIGN
350
8BA
  3
TSTACKSIZE
350
8BB
  3
HYPERLINKBASE
350
8BC
  3
STYLESHEET
350
8BD
  3
LAYOUTDICT
350
8BE
  3
PLOTSETDICT
350
8BF
  3
PLOTSTYLNAMDICT
350
8C0
  3
LWETCUNION
350
8C1
  3
INSUNITS
350
8C2
  3
CEPSNTYPE
350
8C3
  3
FINGERPRINTGUID
350
8C4
  3
VERSIONGUID
350
8C5
  3
PSVPSCALE
350
8C6
  3
DIMSTYLEDATA
350
8C7
  3
PUCSORTHOREF
350
8C8
  3
PUCSORTHOVIEW
350
8C9
  3
PUCSBASE
350
8CA
  3
PUCSORGTOP
350
8CB
  3
PUCSORGBOTTOM
350
8CC
  3
PUCSORGLEFT
350
8CD
  3
PUCSORGRIGHT
350
8CE
  3
PUCSORGFRONT
350
8CF
  3
PUCSORGBACK
350
8D0
  3
UCSORTHOREF
350
8D1
  3
UCSORTHOVIEW
350
8D2
  3
UCSBASE
350
8D3
  3
UCSORGTOP
350
8D4
  3
UCSORGBOTTOM
350
8D5
  3
UCSORGLEFT
350
8D6
  3
UCSORGRIGHT
350
8D7
  3
UCSORGFRONT
350
8D8
  3
UCSORGBACK
350
8D9
  0
XRECORD
  5
8DB
102
{ACAD_REACTORS
330
444
102
}
330
444
100
AcDbXrecord
340
1A
  0
XRECORD
  5
8DA
102
{ACAD_REACTORS
330
442
102
}
330
442
100
AcDbXrecord
340
17
  0
MLINESTYLE
  5
13
102
{ACAD_REACTORS
330
E
102
}
330
E
100
AcDbMlineStyle
  2
STANDARD
 70
     0
  3

 62
     0
 51
90.0
 52
90.0
 71
     2
 49
0.5
 62
   256
  6
BYLAYER
 49
-0.5
 62
   256
  6
BYLAYER
  0
ACDBPLACEHOLDER
  5
414
102
{ACAD_REACTORS
330
413
102
}
330
413
100
AcDbPlaceHolder
280
     0
  0
XRECORD
  5
8BA
102
{ACAD_REACTORS
330
8B9
102
}
330
8B9
100
AcDbXrecord
 90
        1
  0
XRECORD
  5
8BB
102
{ACAD_REACTORS
330
8B9
102
}
330
8B9
100
AcDbXrecord
 90
       70
  0
XRECORD
  5
8BC
102
{ACAD_REACTORS
330
8B9
102
}
330
8B9
100
AcDbXrecord
  1

  0
XRECORD
  5
8BD
102
{ACAD_REACTORS
330
8B9
102
}
330
8B9
100
AcDbXrecord
  1
systemprinter.ctb
  0
XRECORD
  5
8BE
102
{ACAD_REACTORS
330
8B9
102
}
330
8B9
100
AcDbXrecord
340
415
  0
XRECORD
  5
8BF
102
{ACAD_REACTORS
330
8B9
102
}
330
8B9
100
AcDbXrecord
340
416
  0
XRECORD
  5
8C0
102
{ACAD_REACTORS
330
8B9
102
}
330
8B9
100
AcDbXrecord
340
413
  0
XRECORD
  5
8C1
102
{ACAD_REACTORS
330
8B9
102
}
330
8B9
100
AcDbXrecord
 90
    10781
  0
XRECORD
  5
8C2
102
{ACAD_REACTORS
330
8B9
102
}
330
8B9
100
AcDbXrecord
 90
        0
  0
XRECORD
  5
8C3
102
{ACAD_REACTORS
330
8B9
102
}
330
8B9
100
AcDbXrecord
 90
        0
  0
XRECORD
  5
8C4
102
{ACAD_REACTORS
330
8B9
102
}
330
8B9
100
AcDbXrecord
  1
{9394C761-BB80-44D4-BF2A-30FF33226E18}
  0
XRECORD
  5
8C5
102
{ACAD_REACTORS
330
8B9
102
}
330
8B9
100
AcDbXrecord
  1
{2D6AA5F6-F49C-4F29-931A-8D2120F9E799}
  0
XRECORD
  5
8C6
102
{ACAD_REACTORS
330
8B9
102
}
330
8B9
100
AcDbXrecord
 40
0.0
  0
XRECORD
  5
8C7
102
{ACAD_REACTORS
330
8B9
102
}
330
8B9
100
AcDbXrecord
1000
DSTYLE
1002
{
1070
   341
340
B2
1070
   343
340
B2
1070
   344
340
B2
1070
   371
 70
    -1
1070
   372
 70
    -1
1002
}
  0
XRECORD
  5
8C8
102
{ACAD_REACTORS
330
8B9
102
}
330
8B9
100
AcDbXrecord
340
0
  0
XRECORD
  5
8C9
102
{ACAD_REACTORS
330
8B9
102
}
330
8B9
100
AcDbXrecord
 70
     0
  0
XRECORD
  5
8CA
102
{ACAD_REACTORS
330
8B9
102
}
330
8B9
100
AcDbXrecord
340
0
  0
XRECORD
  5
8CB
102
{ACAD_REACTORS
330
8B9
102
}
330
8B9
100
AcDbXrecord
 10
0.0
 20
0.0
 30
0.0
  0
XRECORD
  5
8CC
102
{ACAD_REACTORS
330
8B9
102
}
330
8B9
100
AcDbXrecord
 10
0.0
 20
0.0
 30
0.0
  0
XRECORD
  5
8CD
102
{ACAD_REACTORS
330
8B9
102
}
330
8B9
100
AcDbXrecord
 10
0.0
 20
0.0
 30
0.0
  0
XRECORD
  5
8CE
102
{ACAD_REACTORS
330
8B9
102
}
330
8B9
100
AcDbXrecord
 10
0.0
 20
0.0
 30
0.0
  0
XRECORD
  5
8CF
102
{ACAD_REACTORS
330
8B9
102
}
330
8B9
100
AcDbXrecord
 10
0.0
 20
0.0
 30
0.0
  0
XRECORD
  5
8D0
102
{ACAD_REACTORS
330
8B9
102
}
330
8B9
100
AcDbXrecord
 10
0.0
 20
0.0
 30
0.0
  0
XRECORD
  5
8D1
102
{ACAD_REACTORS
330
8B9
102
}
330
8B9
100
AcDbXrecord
340
0
  0
XRECORD
  5
8D2
102
{ACAD_REACTORS
330
8B9
102
}
330
8B9
100
AcDbXrecord
 70
     0
  0
XRECORD
  5
8D3
102
{ACAD_REACTORS
330
8B9
102
}
330
8B9
100
AcDbXrecord
340
0
  0
XRECORD
  5
8D4
102
{ACAD_REACTORS
330
8B9
102
}
330
8B9
100
AcDbXrecord
 10
0.0
 20
0.0
 30
0.0
  0
XRECORD
  5
8D5
102
{ACAD_REACTORS
330
8B9
102
}
330
8B9
100
AcDbXrecord
 10
0.0
 20
0.0
 30
0.0
  0
XRECORD
  5
8D6
102
{ACAD_REACTORS
330
8B9
102
}
330
8B9
100
AcDbXrecord
 10
0.0
 20
0.0
 30
0.0
  0
XRECORD
  5
8D7
102
{ACAD_REACTORS
330
8B9
102
}
330
8B9
100
AcDbXrecord
 10
0.0
 20
0.0
 30
0.0
  0
XRECORD
  5
8D8
102
{ACAD_REACTORS
330
8B9
102
}
330
8B9
100
AcDbXrecord
 10
0.0
 20
0.0
 30
0.0
  0
XRECORD
  5
8D9
102
{ACAD_REACTORS
330
8B9
102
}
330
8B9
100
AcDbXrecord
 10
0.0
 20
0.0
 30
0.0
  0
ENDSEC
  0
EOF
