  0
SECTION
  2
HEADER
  9
$ACADVER
  1
AC1015
  9
$ACADMAINTVER
 70
    20
  9
$DWGCODEPAGE
  3
ANSI_932
  9
$INSBASE
 10
0.0
 20
0.0
 30
0.0
  9
$EXTMIN
 10
-0.0128164049386896
 20
-0.0215666932926979
 30
-0.0015258207003583
  9
$EXTMAX
 10
398.8000497813339
 20
275.8024383723127
 30
0.0000000349246037
  9
$LIMMIN
 10
0.0
 20
0.0
  9
$LIMMAX
 10
420.0
 20
297.0
  9
$ORTHOMODE
 70
     0
  9
$REGENMODE
 70
     1
  9
$FILLMODE
 70
     1
  9
$QTEXTMODE
 70
     0
  9
$MIRRTEXT
 70
     1
  9
$LTSCALE
 40
1.0
  9
$ATTMODE
 70
     1
  9
$TEXTSIZE
 40
2.5
  9
$TRACEWID
 40
1.0
  9
$TEXTSTYLE
  7
STANDARD
  9
$CLAYER
  8
SUNPOU
  9
$CELTYPE
  6
BYLAYER
  9
$CECOLOR
 62
   256
  9
$CELTSCALE
 40
1.0
  9
$DISPSILH
 70
     0
  9
$DIMSCALE
 40
1.0
  9
$DIMASZ
 40
3.0
  9
$DIMEXO
 40
3.0
  9
$DIMDLI
 40
7.0
  9
$DIMRND
 40
0.0
  9
$DIMDLE
 40
0.0
  9
$DIMEXE
 40
1.5
  9
$DIMTP
 40
0.0
  9
$DIMTM
 40
0.0
  9
$DIMTXT
 40
3.0
  9
$DIMCEN
 40
150.0
  9
$DIMTSZ
 40
0.0
  9
$DIMTOL
 70
     0
  9
$DIMLIM
 70
     0
  9
$DIMTIH
 70
     0
  9
$DIMTOH
 70
     0
  9
$DIMSE1
 70
     0
  9
$DIMSE2
 70
     0
  9
$DIMTAD
 70
     3
  9
$DIMZIN
 70
     0
  9
$DIMBLK
  1

  9
$DIMASO
 70
     1
  9
$DIMSHO
 70
     1
  9
$DIMPOST
  1

  9
$DIMAPOST
  1

  9
$DIMALT
 70
     0
  9
$DIMALTD
 70
     2
  9
$DIMALTF
 40
25.4
  9
$DIMLFAC
 40
1.0
  9
$DIMTOFL
 70
     1
  9
$DIMTVP
 40
0.0
  9
$DIMTIX
 70
     0
  9
$DIMSOXD
 70
     0
  9
$DIMSAH
 70
     1
  9
$DIMBLK1
  1
OPEN
  9
$DIMBLK2
  1
OPEN
  9
$DIMSTYLE
  2
STANDARD
  9
$DIMCLRD
 70
   256
  9
$DIMCLRE
 70
   256
  9
$DIMCLRT
 70
   256
  9
$DIMTFAC
 40
1.0
  9
$DIMGAP
 40
1.0
  9
$DIMJUST
 70
     0
  9
$DIMSD1
 70
     0
  9
$DIMSD2
 70
     0
  9
$DIMTOLJ
 70
     1
  9
$DIMTZIN
 70
     0
  9
$DIMALTZ
 70
     0
  9
$DIMALTTZ
 70
     0
  9
$DIMUPT
 70
     0
  9
$DIMDEC
 70
     0
  9
$DIMTDEC
 70
     0
  9
$DIMALTU
 70
     2
  9
$DIMALTTD
 70
     2
  9
$DIMTXSTY
  7
STANDARD
  9
$DIMAUNIT
 70
     0
  9
$DIMADEC
 70
     0
  9
$DIMALTRND
 40
0.0
  9
$DIMAZIN
 70
     0
  9
$DIMDSEP
 70
    46
  9
$DIMATFIT
 70
     3
  9
$DIMFRAC
 70
     0
  9
$DIMLDRBLK
  1
OPEN
  9
$DIMLUNIT
 70
     2
  9
$DIMLWD
 70
    -1
  9
$DIMLWE
 70
    -1
  9
$DIMTMOVE
 70
     0
  9
$LUNITS
 70
     2
  9
$LUPREC
 70
     4
  9
$SKETCHINC
 40
1.0
  9
$FILLETRAD
 40
10.0
  9
$AUNITS
 70
     0
  9
$AUPREC
 70
     0
  9
$MENU
  1
.
  9
$ELEVATION
 40
0.0
  9
$PELEVATION
 40
0.0
  9
$THICKNESS
 40
0.0
  9
$LIMCHECK
 70
     0
  9
$CHAMFERA
 40
10.0
  9
$CHAMFERB
 40
10.0
  9
$CHAMFERC
 40
20.0
  9
$CHAMFERD
 40
0.0
  9
$SKPOLY
 70
     0
  9
$TDCREATE
 40
2450994.350997107
  9
$TDUCREATE
 40
2450993.975997107
  9
$TDUPDATE
 40
2458319.683899341
  9
$TDUUPDATE
 40
2458319.308899340
  9
$TDINDWG
 40
0.2370506481
  9
$TDUSRTIMER
 40
0.2370506481
  9
$USRTIMER
 70
     1
  9
$ANGBASE
 50
0.0
  9
$ANGDIR
 70
     0
  9
$PDMODE
 70
     1
  9
$PDSIZE
 40
0.0
  9
$PLINEWID
 40
0.0
  9
$SPLFRAME
 70
     0
  9
$SPLINETYPE
 70
     6
  9
$SPLINESEGS
 70
     8
  9
$HANDSEED
  5
117B
  9
$SURFTAB1
 70
     6
  9
$SURFTAB2
 70
     6
  9
$SURFTYPE
 70
     6
  9
$SURFU
 70
     6
  9
$SURFV
 70
     6
  9
$UCSBASE
  2

  9
$UCSNAME
  2

  9
$UCSORG
 10
0.0
 20
0.0
 30
0.0
  9
$UCSXDIR
 10
1.0
 20
0.0
 30
0.0
  9
$UCSYDIR
 10
0.0
 20
1.0
 30
0.0
  9
$UCSORTHOREF
  2

  9
$UCSORTHOVIEW
 70
     0
  9
$UCSORGTOP
 10
0.0
 20
0.0
 30
0.0
  9
$UCSORGBOTTOM
 10
0.0
 20
0.0
 30
0.0
  9
$UCSORGLEFT
 10
0.0
 20
0.0
 30
0.0
  9
$UCSORGRIGHT
 10
0.0
 20
0.0
 30
0.0
  9
$UCSORGFRONT
 10
0.0
 20
0.0
 30
0.0
  9
$UCSORGBACK
 10
0.0
 20
0.0
 30
0.0
  9
$PUCSBASE
  2

  9
$PUCSNAME
  2

  9
$PUCSORG
 10
0.0
 20
0.0
 30
0.0
  9
$PUCSXDIR
 10
1.0
 20
0.0
 30
0.0
  9
$PUCSYDIR
 10
0.0
 20
1.0
 30
0.0
  9
$PUCSORTHOREF
  2

  9
$PUCSORTHOVIEW
 70
     0
  9
$PUCSORGTOP
 10
0.0
 20
0.0
 30
0.0
  9
$PUCSORGBOTTOM
 10
0.0
 20
0.0
 30
0.0
  9
$PUCSORGLEFT
 10
0.0
 20
0.0
 30
0.0
  9
$PUCSORGRIGHT
 10
0.0
 20
0.0
 30
0.0
  9
$PUCSORGFRONT
 10
0.0
 20
0.0
 30
0.0
  9
$PUCSORGBACK
 10
0.0
 20
0.0
 30
0.0
  9
$USERI1
 70
     0
  9
$USERI2
 70
     0
  9
$USERI3
 70
     0
  9
$USERI4
 70
     0
  9
$USERI5
 70
     0
  9
$USERR1
 40
0.0
  9
$USERR2
 40
0.0
  9
$USERR3
 40
0.0
  9
$USERR4
 40
0.0
  9
$USERR5
 40
0.0
  9
$WORLDVIEW
 70
     1
  9
$SHADEDGE
 70
     3
  9
$SHADEDIF
 70
    70
  9
$TILEMODE
 70
     1
  9
$MAXACTVP
 70
    16
  9
$PINSBASE
 10
0.0
 20
0.0
 30
0.0
  9
$PLIMCHECK
 70
     0
  9
$PEXTMIN
 10
0.0
 20
0.0
 30
0.0
  9
$PEXTMAX
 10
420.0
 20
297.0
 30
0.0
  9
$PLIMMIN
 10
0.0
 20
0.0
  9
$PLIMMAX
 10
420.0
 20
297.0
  9
$UNITMODE
 70
     0
  9
$VISRETAIN
 70
     0
  9
$PLINEGEN
 70
     0
  9
$PSLTSCALE
 70
     1
  9
$TREEDEPTH
 70
  3020
  9
$CMLSTYLE
  2
STANDARD
  9
$CMLJUST
 70
     0
  9
$CMLSCALE
 40
1.0
  9
$PROXYGRAPHICS
 70
     1
  9
$MEASUREMENT
 70
     1
  9
$CELWEIGHT
370
    -1
  9
$ENDCAPS
280
     0
  9
$JOINSTYLE
280
     0
  9
$LWDISPLAY
290
     0
  9
$INSUNITS
 70
     0
  9
$HYPERLINKBASE
  1

  9
$STYLESHEET
  1
monochrome.ctb
  9
$XEDIT
290
     1
  9
$CEPSNTYPE
380
     0
  9
$PSTYLEMODE
290
     1
  9
$FINGERPRINTGUID
  2
{C84F7C27-E909-4B9A-BBB0-4413AEAD8D89}
  9
$VERSIONGUID
  2
{6A81CBD3-C859-407B-8ECB-D8BA1F210D41}
  9
$EXTNAMES
290
     1
  9
$PSVPSCALE
 40
0.0
  9
$OLESTARTUP
290
     0
  0
ENDSEC
  0
SECTION
  2
CLASSES
  0
CLASS
  1
ACDBDICTIONARYWDFLT
  2
AcDbDictionaryWithDefault
  3
ObjectDBX Classes
 90
        0
280
     0
281
     0
  0
CLASS
  1
ACDBPLACEHOLDER
  2
AcDbPlaceHolder
  3
ObjectDBX Classes
 90
        0
280
     0
281
     0
  0
CLASS
  1
LAYOUT
  2
AcDbLayout
  3
ObjectDBX Classes
 90
        0
280
     0
281
     0
  0
CLASS
  1
DICTIONARYVAR
  2
AcDbDictionaryVar
  3
ObjectDBX Classes
 90
        0
280
     0
281
     0
  0
ENDSEC
  0
SECTION
  2
TABLES
  0
TABLE
  2
VPORT
  5
8
330
0
100
AcDbSymbolTable
 70
     5
  0
VPORT
  5
116F
330
8
100
AcDbSymbolTableRecord
100
AcDbViewportTableRecord
  2
*Active
 70
     0
 10
0.0
 20
0.0
 11
1.0
 21
1.0
 12
239.1231715314783
 22
-21.18825027813739
 13
0.0
 23
0.0
 14
5.0
 24
5.0
 15
0.0
 25
0.0
 16
0.0
 26
0.0
 36
1.0
 17
0.0
 27
0.0
 37
0.0
 40
110.0717956739092
 41
2.083424807903402
 42
50.0
 43
0.0
 44
0.0
 50
0.0
 51
0.0
 71
     0
 72
   100
 73
     1
 74
     0
 75
     0
 76
     0
 77
     0
 78
     0
281
     0
 65
     1
110
0.0
120
0.0
130
0.0
111
1.0
121
0.0
131
0.0
112
0.0
122
1.0
132
0.0
 79
     0
146
0.0
  0
ENDTAB
  0
TABLE
  2
LTYPE
  5
5
330
0
100
AcDbSymbolTable
 70
     3
  0
LTYPE
  5
14
330
5
100
AcDbSymbolTableRecord
100
AcDbLinetypeTableRecord
  2
BYBLOCK
 70
     0
  3

 72
    65
 73
     0
 40
0.0
  0
LTYPE
  5
15
330
5
100
AcDbSymbolTableRecord
100
AcDbLinetypeTableRecord
  2
BYLAYER
 70
     0
  3

 72
    65
 73
     0
 40
0.0
  0
LTYPE
  5
16
330
5
100
AcDbSymbolTableRecord
100
AcDbLinetypeTableRecord
  2
CONTINUOUS
 70
     0
  3
Solid line
 72
    65
 73
     0
 40
0.0
  0
LTYPE
  5
120
330
5
100
AcDbSymbolTableRecord
100
AcDbLinetypeTableRecord
  2
CENTER
 70
     0
  3
____ _ ____ _ ____ _ ____ _ ____ _ ____ _ ____ 
 72
    65
 73
     4
 40
2.0
 49
1.25
 74
     0
 49
-0.25
 74
     0
 49
0.25
 74
     0
 49
-0.25
 74
     0
  0
LTYPE
  5
122
330
5
100
AcDbSymbolTableRecord
100
AcDbLinetypeTableRecord
  2
PHANTOM
 70
     0
  3
______  __  __  ______  __  __  ______  __  __ 
 72
    65
 73
     6
 40
2.5
 49
1.25
 74
     0
 49
-0.25
 74
     0
 49
0.25
 74
     0
 49
-0.25
 74
     0
 49
0.25
 74
     0
 49
-0.25
 74
     0
  0
ENDTAB
  0
TABLE
  2
LAYER
  5
2
330
0
100
AcDbSymbolTable
 70
    10
  0
LAYER
  5
F
330
2
100
AcDbSymbolTableRecord
100
AcDbLayerTableRecord
  2
0
 70
     0
 62
     7
  6
CONTINUOUS
370
    -3
390
C89
  0
LAYER
  5
62
330
2
100
AcDbSymbolTableRecord
100
AcDbLayerTableRecord
  2
VIEWPORT
 70
     0
 62
     7
  6
CONTINUOUS
370
    -3
390
C89
  0
LAYER
  5
6B
330
2
100
AcDbSymbolTableRecord
100
AcDbLayerTableRecord
  2
ZUWAKU
 70
     0
 62
     7
  6
CONTINUOUS
370
    -3
390
C89
  0
LAYER
  5
146
330
2
100
AcDbSymbolTableRecord
100
AcDbLayerTableRecord
  2
SUNPOU L
 70
     0
 62
     4
  6
CONTINUOUS
370
    -3
390
C89
  0
LAYER
  5
185
330
2
100
AcDbSymbolTableRecord
100
AcDbLayerTableRecord
  2
CENTER L
 70
     0
 62
     1
  6
CENTER
370
    -3
390
C89
  0
LAYER
  5
18C
330
2
100
AcDbSymbolTableRecord
100
AcDbLayerTableRecord
  2
DEFPOINTS
 70
     0
 62
     7
  6
CONTINUOUS
290
     0
370
    -3
390
C89
  0
LAYER
  5
7FE
330
2
100
AcDbSymbolTableRecord
100
AcDbLayerTableRecord
  2
SUNPOU
 70
     0
 62
     4
  6
CONTINUOUS
370
    -3
390
C89
  0
LAYER
  5
7FF
330
2
100
AcDbSymbolTableRecord
100
AcDbLayerTableRecord
  2
SEIHIN
 70
     0
 62
     3
  6
CONTINUOUS
370
    -3
390
C89
  0
LAYER
  5
800
330
2
100
AcDbSymbolTableRecord
100
AcDbLayerTableRecord
  2
NOKITOI
 70
     0
 62
     8
  6
PHANTOM
370
    -3
390
C89
  0
LAYER
  5
D33
330
2
100
AcDbSymbolTableRecord
100
AcDbLayerTableRecord
  2
moji
 70
     0
 62
     2
  6
CONTINUOUS
370
    -3
390
C89
  0
ENDTAB
  0
TABLE
  2
STYLE
  5
3
330
0
100
AcDbSymbolTable
 70
     2
  0
STYLE
  5
10
330
3
100
AcDbSymbolTableRecord
100
AcDbTextStyleTableRecord
  2
STANDARD
 70
     0
 40
0.0
 41
1.0
 50
0.0
 71
     0
 42
2.5
  3
TXT
  4
bigfont.shx
  0
STYLE
  5
D34
330
3
100
AcDbSymbolTableRecord
100
AcDbTextStyleTableRecord
  2
ｽﾀｲﾙ1
 70
     0
 40
0.0
 41
1.0
 50
0.0
 71
     0
 42
2.5
  3

  4

1001
ACAD
1000
MS PGothic
1071
    32818
  0
ENDTAB
  0
TABLE
  2
VIEW
  5
6
330
0
100
AcDbSymbolTable
 70
     0
  0
ENDTAB
  0
TABLE
  2
UCS
  5
7
330
0
100
AcDbSymbolTable
 70
     0
  0
ENDTAB
  0
TABLE
  2
APPID
  5
9
330
0
100
AcDbSymbolTable
 70
     1
  0
APPID
  5
11
330
9
100
AcDbSymbolTableRecord
100
AcDbRegAppTableRecord
  2
ACAD
 70
     0
  0
ENDTAB
  0
TABLE
  2
DIMSTYLE
  5
A
330
0
100
AcDbSymbolTable
 70
     1
100
AcDbDimStyleTable
 71
     1
340
1D
  0
DIMSTYLE
105
1D
102
{ACAD_REACTORS
330
9B9
330
A1C
330
A83
330
AAE
330
AAF
330
AB2
330
AB3
330
ABD
330
ABF
330
AC0
330
AEB
330
AEC
330
B1E
102
}
330
A
100
AcDbSymbolTableRecord
100
AcDbDimStyleTableRecord
  2
STANDARD
 70
     0
340
10
  0
ENDTAB
  0
TABLE
  2
BLOCK_RECORD
  5
1
330
0
100
AcDbSymbolTable
 70
    16
  0
BLOCK_RECORD
  5
1A
102
{ACAD_XDICTIONARY
360
CB9
102
}
330
1
100
AcDbSymbolTableRecord
100
AcDbBlockTableRecord
  2
*MODEL_SPACE
340
C8C
  0
BLOCK_RECORD
  5
17
102
{ACAD_XDICTIONARY
360
CB7
102
}
330
1
100
AcDbSymbolTableRecord
100
AcDbBlockTableRecord
  2
*PAPER_SPACE
340
C8D
  0
BLOCK_RECORD
  5
B2
330
1
100
AcDbSymbolTableRecord
100
AcDbBlockTableRecord
  2
_OPEN
340
0
102
{BLKREFS
331
BF3
331
BF4
331
BFE
331
BFF
331
C09
331
C0A
331
C16
331
C17
331
C21
331
C22
331
C2C
331
C2D
331
C37
331
C38
331
C42
331
C43
331
C4D
331
C4E
331
C5A
331
C5B
331
C65
331
C66
331
C70
331
C71
331
C7B
331
C7C
102
}
  0
BLOCK_RECORD
  5
B4F
330
1
100
AcDbSymbolTableRecord
100
AcDbBlockTableRecord
  2
*D1
340
0
  0
BLOCK_RECORD
  5
B5B
330
1
100
AcDbSymbolTableRecord
100
AcDbBlockTableRecord
  2
*D2
340
0
  0
BLOCK_RECORD
  5
B67
330
1
100
AcDbSymbolTableRecord
100
AcDbBlockTableRecord
  2
*D3
340
0
  0
BLOCK_RECORD
  5
B73
330
1
100
AcDbSymbolTableRecord
100
AcDbBlockTableRecord
  2
*D4
340
0
  0
BLOCK_RECORD
  5
B81
330
1
100
AcDbSymbolTableRecord
100
AcDbBlockTableRecord
  2
*D5
340
0
  0
BLOCK_RECORD
  5
B8D
330
1
100
AcDbSymbolTableRecord
100
AcDbBlockTableRecord
  2
*D6
340
0
  0
BLOCK_RECORD
  5
B99
330
1
100
AcDbSymbolTableRecord
100
AcDbBlockTableRecord
  2
*D7
340
0
  0
BLOCK_RECORD
  5
BA5
330
1
100
AcDbSymbolTableRecord
100
AcDbBlockTableRecord
  2
*D8
340
0
  0
BLOCK_RECORD
  5
BB1
330
1
100
AcDbSymbolTableRecord
100
AcDbBlockTableRecord
  2
*D9
340
0
  0
BLOCK_RECORD
  5
BBD
330
1
100
AcDbSymbolTableRecord
100
AcDbBlockTableRecord
  2
*D10
340
0
  0
BLOCK_RECORD
  5
BCB
330
1
100
AcDbSymbolTableRecord
100
AcDbBlockTableRecord
  2
*D11
340
0
  0
BLOCK_RECORD
  5
BD7
330
1
100
AcDbSymbolTableRecord
100
AcDbBlockTableRecord
  2
*D12
340
0
  0
BLOCK_RECORD
  5
BE3
330
1
100
AcDbSymbolTableRecord
100
AcDbBlockTableRecord
  2
*D13
340
0
  0
BLOCK_RECORD
  5
F06
330
1
100
AcDbSymbolTableRecord
100
AcDbBlockTableRecord
  2
*X14
340
0
102
{BLKREFS
331
E00
102
}
  0
ENDTAB
  0
ENDSEC
  0
SECTION
  2
BLOCKS
  0
BLOCK
  5
1B
330
1A
100
AcDbEntity
  8
0
100
AcDbBlockBegin
  2
*MODEL_SPACE
 70
     0
 10
0.0
 20
0.0
 30
0.0
  3
*MODEL_SPACE
  1

  0
ENDBLK
  5
1C
330
1A
100
AcDbEntity
  8
0
100
AcDbBlockEnd
  0
BLOCK
  5
18
330
17
100
AcDbEntity
 67
     1
  8
0
100
AcDbBlockBegin
  2
*PAPER_SPACE
 70
     0
 10
0.0
 20
0.0
 30
0.0
  3
*PAPER_SPACE
  1

  0
ENDBLK
  5
19
330
17
100
AcDbEntity
 67
     1
  8
0
100
AcDbBlockEnd
  0
BLOCK
  5
B3
330
B2
100
AcDbEntity
  8
0
100
AcDbBlockBegin
  2
_OPEN
 70
     0
 10
0.0
 20
0.0
 30
0.0
  3
_OPEN
  1

  0
LINE
  5
B4
330
B2
100
AcDbEntity
  8
0
  6
ByBlock
 62
     0
380
     1
100
AcDbLine
 10
-1.0
 20
0.1666666666666666
 30
0.0
 11
0.0
 21
0.0
 31
0.0
  0
LINE
  5
B5
330
B2
100
AcDbEntity
  8
0
  6
ByBlock
 62
     0
380
     1
100
AcDbLine
 10
0.0
 20
0.0
 30
0.0
 11
-1.0
 21
-0.1666666666666666
 31
0.0
  0
LINE
  5
B6
330
B2
100
AcDbEntity
  8
0
  6
ByBlock
 62
     0
380
     1
100
AcDbLine
 10
0.0
 20
0.0
 30
0.0
 11
-1.0
 21
0.0
 31
0.0
  0
ENDBLK
  5
B7
330
B2
100
AcDbEntity
  8
0
100
AcDbBlockEnd
  0
BLOCK
  5
BEF
330
B4F
100
AcDbEntity
  8
0
100
AcDbBlockBegin
  2
*D1
 70
     1
 10
0.0
 20
0.0
 30
0.0
  3
*D1
  1

  0
LINE
  5
BF0
330
B4F
100
AcDbEntity
  8
0
  6
ByBlock
 62
     4
100
AcDbLine
 10
233.8274168235814
 20
126.5043763463721
 30
0.0
 11
233.8274168235814
 21
181.2620787843224
 31
0.0
  0
LINE
  5
BF1
330
B4F
100
AcDbEntity
  8
0
  6
ByBlock
 62
     4
100
AcDbLine
 10
137.6274168235813
 20
161.3044763463722
 30
0.0
 11
137.6274168235813
 21
181.2620787843224
 31
0.0
  0
LINE
  5
BF2
330
B4F
100
AcDbEntity
  8
0
  6
ByBlock
 62
     4
100
AcDbLine
 10
230.8274168235814
 20
179.7620787843224
 30
0.0
 11
140.6274168235813
 21
179.7620787843224
 31
0.0
  0
INSERT
  5
BF3
330
B4F
100
AcDbEntity
  8
0
  6
ByBlock
 62
     4
100
AcDbBlockReference
  2
_OPEN
 10
233.8274168235814
 20
179.7620787843224
 30
0.0
 41
3.0
 42
3.0
 43
3.0
  0
INSERT
  5
BF4
330
B4F
100
AcDbEntity
  8
0
  6
ByBlock
 62
     4
100
AcDbBlockReference
  2
_OPEN
 10
137.6274168235813
 20
179.7620787843224
 30
0.0
 41
3.0
 42
3.0
 43
3.0
 50
180.0
  0
MTEXT
  5
BF5
330
B4F
100
AcDbEntity
  8
0
  6
ByBlock
 62
     4
100
AcDbMText
 10
185.7274168235814
 20
182.2620787843224
 30
0.0
 40
3.0
 41
0.0
 71
     5
 72
     5
  1
\A1;96
 73
     1
 44
1.0
1001
ACAD
1000
MTEXTBEGIN
1070
    73
1070
     1
1070
    44
1040
1.0
1070
    74
1070
     0
1000
MTEXTEND
  0
POINT
  5
BF6
330
B4F
100
AcDbEntity
  8
DEFPOINTS
  6
ByBlock
 62
     0
380
     1
100
AcDbPoint
 10
233.8274168235814
 20
123.5043763463721
 30
0.0
  0
POINT
  5
BF7
330
B4F
100
AcDbEntity
  8
DEFPOINTS
  6
ByBlock
 62
     0
380
     1
100
AcDbPoint
 10
137.6274168235813
 20
158.3044763463722
 30
0.0
  0
POINT
  5
BF8
330
B4F
100
AcDbEntity
  8
DEFPOINTS
  6
ByBlock
 62
     0
380
     1
100
AcDbPoint
 10
137.6274168235813
 20
179.7620787843224
 30
0.0
  0
ENDBLK
  5
BF9
330
B4F
100
AcDbEntity
  8
0
100
AcDbBlockEnd
  0
BLOCK
  5
BFA
330
B5B
100
AcDbEntity
  8
0
100
AcDbBlockBegin
  2
*D2
 70
     1
 10
0.0
 20
0.0
 30
0.0
  3
*D2
  1

  0
LINE
  5
BFB
330
B5B
100
AcDbEntity
  8
0
  6
ByBlock
 62
     4
100
AcDbLine
 10
134.6274168235813
 20
158.3044763463722
 30
0.0
 11
117.5874619463311
 21
158.3044763463722
 31
0.0
  0
LINE
  5
BFC
330
B5B
100
AcDbEntity
  8
0
  6
ByBlock
 62
     4
100
AcDbLine
 10
152.9986168235813
 20
98.80447634637221
 30
0.0
 11
117.5874619463311
 21
98.80447634637221
 31
0.0
  0
LINE
  5
BFD
330
B5B
100
AcDbEntity
  8
0
  6
ByBlock
 62
     4
100
AcDbLine
 10
119.0874619463311
 20
155.3044763463722
 30
0.0
 11
119.0874619463311
 21
101.8044763463722
 31
0.0
  0
INSERT
  5
BFE
330
B5B
100
AcDbEntity
  8
0
  6
ByBlock
 62
     4
100
AcDbBlockReference
  2
_OPEN
 10
119.0874619463311
 20
158.3044763463722
 30
0.0
 41
3.0
 42
3.0
 43
3.0
 50
90.0
  0
INSERT
  5
BFF
330
B5B
100
AcDbEntity
  8
0
  6
ByBlock
 62
     4
100
AcDbBlockReference
  2
_OPEN
 10
119.0874619463311
 20
98.80447634637221
 30
0.0
 41
3.0
 42
3.0
 43
3.0
 50
270.0
  0
MTEXT
  5
C00
330
B5B
100
AcDbEntity
  8
0
  6
ByBlock
 62
     4
100
AcDbMText
 10
116.5874619463311
 20
128.5544763463722
 30
0.0
 40
3.0
 41
0.0
 71
     5
 72
     5
  1
\A1;60
 11
0.0
 21
1.0
 31
0.0
 73
     1
 44
1.0
1001
ACAD
1000
MTEXTBEGIN
1070
    73
1070
     1
1070
    44
1040
1.0
1070
    74
1070
     0
1000
MTEXTEND
  0
POINT
  5
C01
330
B5B
100
AcDbEntity
  8
DEFPOINTS
  6
ByBlock
 62
     0
380
     1
100
AcDbPoint
 10
137.6274168235813
 20
158.3044763463722
 30
0.0
  0
POINT
  5
C02
330
B5B
100
AcDbEntity
  8
DEFPOINTS
  6
ByBlock
 62
     0
380
     1
100
AcDbPoint
 10
155.9986168235813
 20
98.80447634637221
 30
0.0
  0
POINT
  5
C03
330
B5B
100
AcDbEntity
  8
DEFPOINTS
  6
ByBlock
 62
     0
380
     1
100
AcDbPoint
 10
119.0874619463311
 20
98.80447634637221
 30
0.0
  0
ENDBLK
  5
C04
330
B5B
100
AcDbEntity
  8
0
100
AcDbBlockEnd
  0
BLOCK
  5
C05
330
B67
100
AcDbEntity
  8
0
100
AcDbBlockBegin
  2
*D3
 70
     1
 10
0.0
 20
0.0
 30
0.0
  3
*D3
  1

  0
LINE
  5
C06
330
B67
100
AcDbEntity
  8
0
  6
ByBlock
 62
     4
100
AcDbLine
 10
134.6275168235814
 20
228.8044763463722
 30
0.0
 11
117.5874619463311
 21
228.8044763463722
 31
0.0
  0
LINE
  5
C07
330
B67
100
AcDbEntity
  8
0
  6
ByBlock
 62
     4
100
AcDbLine
 10
134.6274168235813
 20
208.8044763463722
 30
0.0
 11
117.5874619463311
 21
208.8044763463722
 31
0.0
  0
LINE
  5
C08
330
B67
100
AcDbEntity
  8
0
  6
ByBlock
 62
     4
100
AcDbLine
 10
119.0874619463311
 20
225.8044763463722
 30
0.0
 11
119.0874619463311
 21
211.8044763463722
 31
0.0
  0
INSERT
  5
C09
330
B67
100
AcDbEntity
  8
0
  6
ByBlock
 62
     4
100
AcDbBlockReference
  2
_OPEN
 10
119.0874619463311
 20
228.8044763463722
 30
0.0
 41
3.0
 42
3.0
 43
3.0
 50
90.0
  0
INSERT
  5
C0A
330
B67
100
AcDbEntity
  8
0
  6
ByBlock
 62
     4
100
AcDbBlockReference
  2
_OPEN
 10
119.0874619463311
 20
208.8044763463722
 30
0.0
 41
3.0
 42
3.0
 43
3.0
 50
270.0
  0
MTEXT
  5
C0B
330
B67
100
AcDbEntity
  8
0
  6
ByBlock
 62
     4
100
AcDbMText
 10
116.5874619463311
 20
218.8044763463722
 30
0.0
 40
3.0
 41
0.0
 71
     5
 72
     5
  1
\A1;20
 11
0.0
 21
1.0
 31
0.0
 73
     1
 44
1.0
1001
ACAD
1000
MTEXTBEGIN
1070
    73
1070
     1
1070
    44
1040
1.0
1070
    74
1070
     0
1000
MTEXTEND
  0
POINT
  5
C0C
330
B67
100
AcDbEntity
  8
DEFPOINTS
  6
ByBlock
 62
     0
380
     1
100
AcDbPoint
 10
137.6275168235814
 20
228.8044763463722
 30
0.0
  0
POINT
  5
C0D
330
B67
100
AcDbEntity
  8
DEFPOINTS
  6
ByBlock
 62
     0
380
     1
100
AcDbPoint
 10
137.6274168235813
 20
208.8044763463722
 30
0.0
  0
POINT
  5
C0E
330
B67
100
AcDbEntity
  8
DEFPOINTS
  6
ByBlock
 62
     0
380
     1
100
AcDbPoint
 10
119.0874619463311
 20
208.8044763463722
 30
0.0
  0
ENDBLK
  5
C0F
330
B67
100
AcDbEntity
  8
0
100
AcDbBlockEnd
  0
BLOCK
  5
C10
330
B73
100
AcDbEntity
  8
0
100
AcDbBlockBegin
  2
*D4
 70
     1
 10
0.0
 20
0.0
 30
0.0
  3
*D4
  1

  0
LINE
  5
C11
330
B73
100
AcDbEntity
  8
0
  6
ByBlock
 62
     4
100
AcDbLine
 10
233.8274168235814
 20
126.5043763463721
 30
0.0
 11
233.8274168235814
 21
159.6258942293884
 31
0.0
  0
LINE
  5
C12
330
B73
100
AcDbEntity
  8
0
  6
ByBlock
 62
     4
100
AcDbLine
 10
223.4274168235812
 20
141.8042763463721
 30
0.0
 11
223.4274168235812
 21
159.6258942293884
 31
0.0
  0
LINE
  5
C13
330
B73
100
AcDbEntity
  8
0
  6
ByBlock
 62
     4
100
AcDbLine
 10
236.8274168235814
 20
158.1258942293884
 30
0.0
 11
239.8274168235814
 21
158.1258942293884
 31
0.0
  0
LINE
  5
C14
330
B73
100
AcDbEntity
  8
0
  6
ByBlock
 62
     4
100
AcDbLine
 10
220.4274168235812
 20
158.1258942293884
 30
0.0
 11
217.4274168235812
 21
158.1258942293884
 31
0.0
  0
LINE
  5
C15
330
B73
100
AcDbEntity
  8
0
  6
ByBlock
 62
     4
100
AcDbLine
 10
233.8274168235814
 20
158.1258942293884
 30
0.0
 11
223.4274168235812
 21
158.1258942293884
 31
0.0
  0
INSERT
  5
C16
330
B73
100
AcDbEntity
  8
0
  6
ByBlock
 62
     4
100
AcDbBlockReference
  2
_OPEN
 10
233.8274168235814
 20
158.1258942293884
 30
0.0
 41
3.0
 42
3.0
 43
3.0
 50
180.0
  0
INSERT
  5
C17
330
B73
100
AcDbEntity
  8
0
  6
ByBlock
 62
     4
100
AcDbBlockReference
  2
_OPEN
 10
223.4274168235812
 20
158.1258942293884
 30
0.0
 41
3.0
 42
3.0
 43
3.0
  0
MTEXT
  5
C18
330
B73
100
AcDbEntity
  8
0
  6
ByBlock
 62
     4
100
AcDbMText
 10
228.6274168235813
 20
160.6258942293884
 30
0.0
 40
3.0
 41
0.0
 71
     5
 72
     5
  1
\A1;10
 73
     1
 44
1.0
1001
ACAD
1000
MTEXTBEGIN
1070
    73
1070
     1
1070
    44
1040
1.0
1070
    74
1070
     0
1000
MTEXTEND
  0
POINT
  5
C19
330
B73
100
AcDbEntity
  8
DEFPOINTS
  6
ByBlock
 62
     0
380
     1
100
AcDbPoint
 10
233.8274168235814
 20
123.5043763463721
 30
0.0
  0
POINT
  5
C1A
330
B73
100
AcDbEntity
  8
DEFPOINTS
  6
ByBlock
 62
     0
380
     1
100
AcDbPoint
 10
223.4274168235812
 20
138.8042763463721
 30
0.0
  0
POINT
  5
C1B
330
B73
100
AcDbEntity
  8
DEFPOINTS
  6
ByBlock
 62
     0
380
     1
100
AcDbPoint
 10
223.4274168235812
 20
158.1258942293884
 30
0.0
  0
ENDBLK
  5
C1C
330
B73
100
AcDbEntity
  8
0
100
AcDbBlockEnd
  0
BLOCK
  5
C1D
330
B81
100
AcDbEntity
  8
0
100
AcDbBlockBegin
  2
*D5
 70
     1
 10
0.0
 20
0.0
 30
0.0
  3
*D5
  1

  0
LINE
  5
C1E
330
B81
100
AcDbEntity
  8
0
  6
ByBlock
 62
     4
100
AcDbLine
 10
370.4225194573936
 20
126.5043763463721
 30
0.0
 11
370.4225194573936
 21
159.5933777389343
 31
0.0
  0
LINE
  5
C1F
330
B81
100
AcDbEntity
  8
0
  6
ByBlock
 62
     4
100
AcDbLine
 10
321.4225194573934
 20
126.5044763463722
 30
0.0
 11
321.4225194573934
 21
159.5933777389343
 31
0.0
  0
LINE
  5
C20
330
B81
100
AcDbEntity
  8
0
  6
ByBlock
 62
     4
100
AcDbLine
 10
367.4225194573936
 20
158.0933777389343
 30
0.0
 11
324.4225194573934
 21
158.0933777389343
 31
0.0
  0
INSERT
  5
C21
330
B81
100
AcDbEntity
  8
0
  6
ByBlock
 62
     4
100
AcDbBlockReference
  2
_OPEN
 10
370.4225194573936
 20
158.0933777389343
 30
0.0
 41
3.0
 42
3.0
 43
3.0
  0
INSERT
  5
C22
330
B81
100
AcDbEntity
  8
0
  6
ByBlock
 62
     4
100
AcDbBlockReference
  2
_OPEN
 10
321.4225194573934
 20
158.0933777389343
 30
0.0
 41
3.0
 42
3.0
 43
3.0
 50
180.0
  0
MTEXT
  5
C23
330
B81
100
AcDbEntity
  8
0
  6
ByBlock
 62
     4
100
AcDbMText
 10
345.9225194573935
 20
160.5933777389343
 30
0.0
 40
3.0
 41
0.0
 71
     5
 72
     5
  1
\A1;49
 73
     1
 44
1.0
1001
ACAD
1000
MTEXTBEGIN
1070
    73
1070
     1
1070
    44
1040
1.0
1070
    74
1070
     0
1000
MTEXTEND
  0
POINT
  5
C24
330
B81
100
AcDbEntity
  8
DEFPOINTS
  6
ByBlock
 62
     0
380
     1
100
AcDbPoint
 10
370.4225194573936
 20
123.5043763463721
 30
0.0
  0
POINT
  5
C25
330
B81
100
AcDbEntity
  8
DEFPOINTS
  6
ByBlock
 62
     0
380
     1
100
AcDbPoint
 10
321.4225194573934
 20
123.5044763463722
 30
0.0
  0
POINT
  5
C26
330
B81
100
AcDbEntity
  8
DEFPOINTS
  6
ByBlock
 62
     0
380
     1
100
AcDbPoint
 10
321.4225194573934
 20
158.0933777389343
 30
0.0
  0
ENDBLK
  5
C27
330
B81
100
AcDbEntity
  8
0
100
AcDbBlockEnd
  0
BLOCK
  5
C28
330
B8D
100
AcDbEntity
  8
0
100
AcDbBlockBegin
  2
*D6
 70
     1
 10
0.0
 20
0.0
 30
0.0
  3
*D6
  1

  0
LINE
  5
C29
330
B8D
100
AcDbEntity
  8
0
  6
ByBlock
 62
     4
100
AcDbLine
 10
366.4225194573936
 20
126.5043763463721
 30
0.0
 11
366.4225194573936
 21
150.0814566456048
 31
0.0
  0
LINE
  5
C2A
330
B8D
100
AcDbEntity
  8
0
  6
ByBlock
 62
     4
100
AcDbLine
 10
325.4225194573934
 20
126.5044763463722
 30
0.0
 11
325.4225194573934
 21
150.0814566456048
 31
0.0
  0
LINE
  5
C2B
330
B8D
100
AcDbEntity
  8
0
  6
ByBlock
 62
     4
100
AcDbLine
 10
363.4225194573936
 20
148.5814566456047
 30
0.0
 11
328.4225194573934
 21
148.5814566456047
 31
0.0
  0
INSERT
  5
C2C
330
B8D
100
AcDbEntity
  8
0
  6
ByBlock
 62
     4
100
AcDbBlockReference
  2
_OPEN
 10
366.4225194573936
 20
148.5814566456047
 30
0.0
 41
3.0
 42
3.0
 43
3.0
  0
INSERT
  5
C2D
330
B8D
100
AcDbEntity
  8
0
  6
ByBlock
 62
     4
100
AcDbBlockReference
  2
_OPEN
 10
325.4225194573934
 20
148.5814566456047
 30
0.0
 41
3.0
 42
3.0
 43
3.0
 50
180.0
  0
MTEXT
  5
C2E
330
B8D
100
AcDbEntity
  8
0
  6
ByBlock
 62
     4
100
AcDbMText
 10
345.9225194573935
 20
151.0814566456048
 30
0.0
 40
3.0
 41
0.0
 71
     5
 72
     5
  1
\A1;41
 73
     1
 44
1.0
1001
ACAD
1000
MTEXTBEGIN
1070
    73
1070
     1
1070
    44
1040
1.0
1070
    74
1070
     0
1000
MTEXTEND
  0
POINT
  5
C2F
330
B8D
100
AcDbEntity
  8
DEFPOINTS
  6
ByBlock
 62
     0
380
     1
100
AcDbPoint
 10
366.4225194573936
 20
123.5043763463721
 30
0.0
  0
POINT
  5
C30
330
B8D
100
AcDbEntity
  8
DEFPOINTS
  6
ByBlock
 62
     0
380
     1
100
AcDbPoint
 10
325.4225194573934
 20
123.5044763463722
 30
0.0
  0
POINT
  5
C31
330
B8D
100
AcDbEntity
  8
DEFPOINTS
  6
ByBlock
 62
     0
380
     1
100
AcDbPoint
 10
325.4225194573934
 20
148.5814566456047
 30
0.0
  0
ENDBLK
  5
C32
330
B8D
100
AcDbEntity
  8
0
100
AcDbBlockEnd
  0
BLOCK
  5
C33
330
B99
100
AcDbEntity
  8
0
100
AcDbBlockBegin
  2
*D7
 70
     1
 10
0.0
 20
0.0
 30
0.0
  3
*D7
  1

  0
LINE
  5
C34
330
B99
100
AcDbEntity
  8
0
  6
ByBlock
 62
     4
100
AcDbLine
 10
236.8274168235814
 20
123.5043763463721
 30
0.0
 11
254.0019554070811
 21
123.5043763463721
 31
0.0
  0
LINE
  5
C35
330
B99
100
AcDbEntity
  8
0
  6
ByBlock
 62
     4
100
AcDbLine
 10
236.8274168235814
 20
93.50437634637222
 30
0.0
 11
254.0019554070811
 21
93.50437634637222
 31
0.0
  0
LINE
  5
C36
330
B99
100
AcDbEntity
  8
0
  6
ByBlock
 62
     4
100
AcDbLine
 10
252.5019554070811
 20
120.5043763463721
 30
0.0
 11
252.5019554070811
 21
96.50437634637222
 31
0.0
  0
INSERT
  5
C37
330
B99
100
AcDbEntity
  8
0
  6
ByBlock
 62
     4
100
AcDbBlockReference
  2
_OPEN
 10
252.5019554070811
 20
123.5043763463721
 30
0.0
 41
3.0
 42
3.0
 43
3.0
 50
90.0
  0
INSERT
  5
C38
330
B99
100
AcDbEntity
  8
0
  6
ByBlock
 62
     4
100
AcDbBlockReference
  2
_OPEN
 10
252.5019554070811
 20
93.50437634637222
 30
0.0
 41
3.0
 42
3.0
 43
3.0
 50
270.0
  0
MTEXT
  5
C39
330
B99
100
AcDbEntity
  8
0
  6
ByBlock
 62
     4
100
AcDbMText
 10
250.0019554070811
 20
108.5043763463722
 30
0.0
 40
3.0
 41
0.0
 71
     5
 72
     5
  1
\A1;30
 11
0.0
 21
1.0
 31
0.0
 73
     1
 44
1.0
1001
ACAD
1000
MTEXTBEGIN
1070
    73
1070
     1
1070
    44
1040
1.0
1070
    74
1070
     0
1000
MTEXTEND
  0
POINT
  5
C3A
330
B99
100
AcDbEntity
  8
DEFPOINTS
  6
ByBlock
 62
     0
380
     1
100
AcDbPoint
 10
233.8274168235814
 20
123.5043763463721
 30
0.0
  0
POINT
  5
C3B
330
B99
100
AcDbEntity
  8
DEFPOINTS
  6
ByBlock
 62
     0
380
     1
100
AcDbPoint
 10
233.8274168235814
 20
93.50437634637222
 30
0.0
  0
POINT
  5
C3C
330
B99
100
AcDbEntity
  8
DEFPOINTS
  6
ByBlock
 62
     0
380
     1
100
AcDbPoint
 10
252.5019554070811
 20
93.50437634637222
 30
0.0
  0
ENDBLK
  5
C3D
330
B99
100
AcDbEntity
  8
0
100
AcDbBlockEnd
  0
BLOCK
  5
C3E
330
BA5
100
AcDbEntity
  8
0
100
AcDbBlockBegin
  2
*D8
 70
     1
 10
0.0
 20
0.0
 30
0.0
  3
*D8
  1

  0
LINE
  5
C3F
330
BA5
100
AcDbEntity
  8
0
  6
ByBlock
 62
     4
100
AcDbLine
 10
231.827408270596
 20
128.504394336918
 30
0.0
 11
261.8140597018116
 21
128.504394336918
 31
0.0
  0
LINE
  5
C40
330
BA5
100
AcDbEntity
  8
0
  6
ByBlock
 62
     4
100
AcDbLine
 10
236.8274168235814
 20
93.50437634637222
 30
0.0
 11
261.8140597018116
 21
93.50437634637222
 31
0.0
  0
LINE
  5
C41
330
BA5
100
AcDbEntity
  8
0
  6
ByBlock
 62
     4
100
AcDbLine
 10
260.3140597018116
 20
125.504394336918
 30
0.0
 11
260.3140597018116
 21
96.50437634637222
 31
0.0
  0
INSERT
  5
C42
330
BA5
100
AcDbEntity
  8
0
  6
ByBlock
 62
     4
100
AcDbBlockReference
  2
_OPEN
 10
260.3140597018116
 20
128.504394336918
 30
0.0
 41
3.0
 42
3.0
 43
3.0
 50
90.0
  0
INSERT
  5
C43
330
BA5
100
AcDbEntity
  8
0
  6
ByBlock
 62
     4
100
AcDbBlockReference
  2
_OPEN
 10
260.3140597018116
 20
93.50437634637222
 30
0.0
 41
3.0
 42
3.0
 43
3.0
 50
270.0
  0
MTEXT
  5
C44
330
BA5
100
AcDbEntity
  8
0
  6
ByBlock
 62
     4
100
AcDbMText
 10
257.8140597018116
 20
111.0043853416451
 30
0.0
 40
3.0
 41
0.0
 71
     5
 72
     5
  1
\A1;35
 11
0.0
 21
1.0
 31
0.0
 73
     1
 44
1.0
1001
ACAD
1000
MTEXTBEGIN
1070
    73
1070
     1
1070
    44
1040
1.0
1070
    74
1070
     0
1000
MTEXTEND
  0
POINT
  5
C45
330
BA5
100
AcDbEntity
  8
DEFPOINTS
  6
ByBlock
 62
     0
380
     1
100
AcDbPoint
 10
228.827408270596
 20
128.504394336918
 30
0.0
  0
POINT
  5
C46
330
BA5
100
AcDbEntity
  8
DEFPOINTS
  6
ByBlock
 62
     0
380
     1
100
AcDbPoint
 10
233.8274168235814
 20
93.50437634637222
 30
0.0
  0
POINT
  5
C47
330
BA5
100
AcDbEntity
  8
DEFPOINTS
  6
ByBlock
 62
     0
380
     1
100
AcDbPoint
 10
260.3140597018116
 20
93.50437634637222
 30
0.0
  0
ENDBLK
  5
C48
330
BA5
100
AcDbEntity
  8
0
100
AcDbBlockEnd
  0
BLOCK
  5
C49
330
BB1
100
AcDbEntity
  8
0
100
AcDbBlockBegin
  2
*D9
 70
     1
 10
0.0
 20
0.0
 30
0.0
  3
*D9
  1

  0
LINE
  5
C4A
330
BB1
100
AcDbEntity
  8
0
  6
ByBlock
 62
     4
100
AcDbLine
 10
226.4274168235812
 20
138.8042763463721
 30
0.0
 11
270.0711598484004
 21
138.8042763463721
 31
0.0
  0
LINE
  5
C4B
330
BB1
100
AcDbEntity
  8
0
  6
ByBlock
 62
     4
100
AcDbLine
 10
236.8274168235814
 20
93.50437634637222
 30
0.0
 11
270.0711598484004
 21
93.50437634637222
 31
0.0
  0
LINE
  5
C4C
330
BB1
100
AcDbEntity
  8
0
  6
ByBlock
 62
     4
100
AcDbLine
 10
268.5711598484004
 20
135.8042763463721
 30
0.0
 11
268.5711598484004
 21
96.50437634637222
 31
0.0
  0
INSERT
  5
C4D
330
BB1
100
AcDbEntity
  8
0
  6
ByBlock
 62
     4
100
AcDbBlockReference
  2
_OPEN
 10
268.5711598484004
 20
138.8042763463721
 30
0.0
 41
3.0
 42
3.0
 43
3.0
 50
90.0
  0
INSERT
  5
C4E
330
BB1
100
AcDbEntity
  8
0
  6
ByBlock
 62
     4
100
AcDbBlockReference
  2
_OPEN
 10
268.5711598484004
 20
93.50437634637222
 30
0.0
 41
3.0
 42
3.0
 43
3.0
 50
270.0
  0
MTEXT
  5
C4F
330
BB1
100
AcDbEntity
  8
0
  6
ByBlock
 62
     4
100
AcDbMText
 10
266.0711598484004
 20
116.1543263463721
 30
0.0
 40
3.0
 41
0.0
 71
     5
 72
     5
  1
\A1;45
 11
0.0
 21
1.0
 31
0.0
 73
     1
 44
1.0
1001
ACAD
1000
MTEXTBEGIN
1070
    73
1070
     1
1070
    44
1040
1.0
1070
    74
1070
     0
1000
MTEXTEND
  0
POINT
  5
C50
330
BB1
100
AcDbEntity
  8
DEFPOINTS
  6
ByBlock
 62
     0
380
     1
100
AcDbPoint
 10
223.4274168235812
 20
138.8042763463721
 30
0.0
  0
POINT
  5
C51
330
BB1
100
AcDbEntity
  8
DEFPOINTS
  6
ByBlock
 62
     0
380
     1
100
AcDbPoint
 10
233.8274168235814
 20
93.50437634637222
 30
0.0
  0
POINT
  5
C52
330
BB1
100
AcDbEntity
  8
DEFPOINTS
  6
ByBlock
 62
     0
380
     1
100
AcDbPoint
 10
268.5711598484004
 20
93.50437634637222
 30
0.0
  0
ENDBLK
  5
C53
330
BB1
100
AcDbEntity
  8
0
100
AcDbBlockEnd
  0
BLOCK
  5
C54
330
BBD
100
AcDbEntity
  8
0
100
AcDbBlockBegin
  2
*D10
 70
     1
 10
0.0
 20
0.0
 30
0.0
  3
*D10
  1

  0
LINE
  5
C55
330
BBD
100
AcDbEntity
  8
0
  6
ByBlock
 62
     4
100
AcDbLine
 10
232.6274168235812
 20
90.50437634637223
 30
0.0
 11
232.6274168235812
 21
73.20804892170355
 31
0.0
  0
LINE
  5
C56
330
BBD
100
AcDbEntity
  8
0
  6
ByBlock
 62
     4
100
AcDbLine
 10
233.8274168235814
 20
90.50437634637223
 30
0.0
 11
233.8274168235814
 21
73.20804892170355
 31
0.0
  0
LINE
  5
C57
330
BBD
100
AcDbEntity
  8
0
  6
ByBlock
 62
     4
100
AcDbLine
 10
229.6274168235812
 20
74.70804892170355
 30
0.0
 11
226.6274168235812
 21
74.70804892170355
 31
0.0
  0
LINE
  5
C58
330
BBD
100
AcDbEntity
  8
0
  6
ByBlock
 62
     4
100
AcDbLine
 10
236.8274168235814
 20
74.70804892170355
 30
0.0
 11
249.8274168235814
 21
74.70804892170355
 31
0.0
  0
LINE
  5
C59
330
BBD
100
AcDbEntity
  8
0
  6
ByBlock
 62
     4
100
AcDbLine
 10
232.6274168235812
 20
74.70804892170355
 30
0.0
 11
233.8274168235814
 21
74.70804892170355
 31
0.0
  0
INSERT
  5
C5A
330
BBD
100
AcDbEntity
  8
0
  6
ByBlock
 62
     4
100
AcDbBlockReference
  2
_OPEN
 10
232.6274168235812
 20
74.70804892170355
 30
0.0
 41
3.0
 42
3.0
 43
3.0
  0
INSERT
  5
C5B
330
BBD
100
AcDbEntity
  8
0
  6
ByBlock
 62
     4
100
AcDbBlockReference
  2
_OPEN
 10
233.8274168235814
 20
74.70804892170355
 30
0.0
 41
3.0
 42
3.0
 43
3.0
 50
180.0
  0
MTEXT
  5
C5C
330
BBD
100
AcDbEntity
  8
0
  6
ByBlock
 62
     4
100
AcDbMText
 10
244.8274168235814
 20
77.20804892170355
 30
0.0
 40
3.0
 41
0.0
 71
     5
 72
     5
  1
\A1;t1.2
 73
     1
 44
1.0
1001
ACAD
1000
MTEXTBEGIN
1070
    73
1070
     1
1070
    44
1040
1.0
1070
    74
1070
     0
1000
MTEXTEND
  0
POINT
  5
C5D
330
BBD
100
AcDbEntity
  8
DEFPOINTS
  6
ByBlock
 62
     0
380
     1
100
AcDbPoint
 10
232.6274168235812
 20
93.50437634637222
 30
0.0
  0
POINT
  5
C5E
330
BBD
100
AcDbEntity
  8
DEFPOINTS
  6
ByBlock
 62
     0
380
     1
100
AcDbPoint
 10
233.8274168235814
 20
93.50437634637222
 30
0.0
  0
POINT
  5
C5F
330
BBD
100
AcDbEntity
  8
DEFPOINTS
  6
ByBlock
 62
     0
380
     1
100
AcDbPoint
 10
233.8274168235814
 20
74.70804892170355
 30
0.0
  0
ENDBLK
  5
C60
330
BBD
100
AcDbEntity
  8
0
100
AcDbBlockEnd
  0
BLOCK
  5
C61
330
BCB
100
AcDbEntity
  8
0
100
AcDbBlockBegin
  2
*D11
 70
     1
 10
0.0
 20
0.0
 30
0.0
  3
*D11
  1

  0
LINE
  5
C62
330
BCB
100
AcDbEntity
  8
0
  6
ByBlock
 62
     4
100
AcDbLine
 10
318.4225194573934
 20
119.5044763463721
 30
0.0
 11
303.8928197937494
 21
119.5044763463721
 31
0.0
  0
LINE
  5
C63
330
BCB
100
AcDbEntity
  8
0
  6
ByBlock
 62
     4
100
AcDbLine
 10
318.4225194573934
 20
97.50447634637223
 30
0.0
 11
303.8928197937494
 21
97.50447634637223
 31
0.0
  0
LINE
  5
C64
330
BCB
100
AcDbEntity
  8
0
  6
ByBlock
 62
     4
100
AcDbLine
 10
305.3928197937494
 20
116.5044763463721
 30
0.0
 11
305.3928197937494
 21
100.5044763463722
 31
0.0
  0
INSERT
  5
C65
330
BCB
100
AcDbEntity
  8
0
  6
ByBlock
 62
     4
100
AcDbBlockReference
  2
_OPEN
 10
305.3928197937494
 20
119.5044763463721
 30
0.0
 41
3.0
 42
3.0
 43
3.0
 50
90.0
  0
INSERT
  5
C66
330
BCB
100
AcDbEntity
  8
0
  6
ByBlock
 62
     4
100
AcDbBlockReference
  2
_OPEN
 10
305.3928197937494
 20
97.50447634637223
 30
0.0
 41
3.0
 42
3.0
 43
3.0
 50
270.0
  0
MTEXT
  5
C67
330
BCB
100
AcDbEntity
  8
0
  6
ByBlock
 62
     4
100
AcDbMText
 10
302.8928197937494
 20
108.5044763463722
 30
0.0
 40
3.0
 41
0.0
 71
     5
 72
     5
  1
\A1;22
 11
0.0
 21
1.0
 31
0.0
 73
     1
 44
1.0
1001
ACAD
1000
MTEXTBEGIN
1070
    73
1070
     1
1070
    44
1040
1.0
1070
    74
1070
     0
1000
MTEXTEND
  0
POINT
  5
C68
330
BCB
100
AcDbEntity
  8
DEFPOINTS
  6
ByBlock
 62
     0
380
     1
100
AcDbPoint
 10
321.4225194573934
 20
119.5044763463721
 30
0.0
  0
POINT
  5
C69
330
BCB
100
AcDbEntity
  8
DEFPOINTS
  6
ByBlock
 62
     0
380
     1
100
AcDbPoint
 10
321.4225194573934
 20
97.50447634637223
 30
0.0
  0
POINT
  5
C6A
330
BCB
100
AcDbEntity
  8
DEFPOINTS
  6
ByBlock
 62
     0
380
     1
100
AcDbPoint
 10
305.3928197937494
 20
97.50447634637223
 30
0.0
  0
ENDBLK
  5
C6B
330
BCB
100
AcDbEntity
  8
0
100
AcDbBlockEnd
  0
BLOCK
  5
C6C
330
BD7
100
AcDbEntity
  8
0
100
AcDbBlockBegin
  2
*D12
 70
     1
 10
0.0
 20
0.0
 30
0.0
  3
*D12
  1

  0
LINE
  5
C6D
330
BD7
100
AcDbEntity
  8
0
  6
ByBlock
 62
     4
100
AcDbLine
 10
318.4225194573934
 20
123.5044763463722
 30
0.0
 11
294.3730197876446
 21
123.5044763463722
 31
0.0
  0
LINE
  5
C6E
330
BD7
100
AcDbEntity
  8
0
  6
ByBlock
 62
     4
100
AcDbLine
 10
318.4225194573934
 20
93.50448523526111
 30
0.0
 11
294.3730197876446
 21
93.50448523526111
 31
0.0
  0
LINE
  5
C6F
330
BD7
100
AcDbEntity
  8
0
  6
ByBlock
 62
     4
100
AcDbLine
 10
295.8730197876446
 20
120.5044763463722
 30
0.0
 11
295.8730197876446
 21
96.50448523526112
 31
0.0
  0
INSERT
  5
C70
330
BD7
100
AcDbEntity
  8
0
  6
ByBlock
 62
     4
100
AcDbBlockReference
  2
_OPEN
 10
295.8730197876446
 20
123.5044763463722
 30
0.0
 41
3.0
 42
3.0
 43
3.0
 50
90.0
  0
INSERT
  5
C71
330
BD7
100
AcDbEntity
  8
0
  6
ByBlock
 62
     4
100
AcDbBlockReference
  2
_OPEN
 10
295.8730197876446
 20
93.50448523526111
 30
0.0
 41
3.0
 42
3.0
 43
3.0
 50
270.0
  0
MTEXT
  5
C72
330
BD7
100
AcDbEntity
  8
0
  6
ByBlock
 62
     4
100
AcDbMText
 10
293.3730197876446
 20
108.5044807908166
 30
0.0
 40
3.0
 41
0.0
 71
     5
 72
     5
  1
\A1;30
 11
0.0
 21
1.0
 31
0.0
 73
     1
 44
1.0
1001
ACAD
1000
MTEXTBEGIN
1070
    73
1070
     1
1070
    44
1040
1.0
1070
    74
1070
     0
1000
MTEXTEND
  0
POINT
  5
C73
330
BD7
100
AcDbEntity
  8
DEFPOINTS
  6
ByBlock
 62
     0
380
     1
100
AcDbPoint
 10
321.4225194573934
 20
123.5044763463722
 30
0.0
  0
POINT
  5
C74
330
BD7
100
AcDbEntity
  8
DEFPOINTS
  6
ByBlock
 62
     0
380
     1
100
AcDbPoint
 10
321.4225194573934
 20
93.50448523526111
 30
0.0
  0
POINT
  5
C75
330
BD7
100
AcDbEntity
  8
DEFPOINTS
  6
ByBlock
 62
     0
380
     1
100
AcDbPoint
 10
295.8730197876446
 20
93.50448523526111
 30
0.0
  0
ENDBLK
  5
C76
330
BD7
100
AcDbEntity
  8
0
100
AcDbBlockEnd
  0
BLOCK
  5
C77
330
BE3
100
AcDbEntity
  8
0
100
AcDbBlockBegin
  2
*D13
 70
     1
 10
0.0
 20
0.0
 30
0.0
  3
*D13
  1

  0
LINE
  5
C78
330
BE3
100
AcDbEntity
  8
0
  6
ByBlock
 62
     4
100
AcDbLine
 10
236.8274168235814
 20
243.3043763463721
 30
0.0
 11
253.354434497959
 21
243.3043763463721
 31
0.0
  0
LINE
  5
C79
330
BE3
100
AcDbEntity
  8
0
  6
ByBlock
 62
     4
100
AcDbLine
 10
236.8274168235814
 20
194.3043763463722
 30
0.0
 11
253.354434497959
 21
194.3043763463722
 31
0.0
  0
LINE
  5
C7A
330
BE3
100
AcDbEntity
  8
0
  6
ByBlock
 62
     4
100
AcDbLine
 10
251.854434497959
 20
240.304376346372
 30
0.0
 11
251.854434497959
 21
197.3043763463722
 31
0.0
  0
INSERT
  5
C7B
330
BE3
100
AcDbEntity
  8
0
  6
ByBlock
 62
     4
100
AcDbBlockReference
  2
_OPEN
 10
251.854434497959
 20
243.3043763463721
 30
0.0
 41
3.0
 42
3.0
 43
3.0
 50
90.0
  0
INSERT
  5
C7C
330
BE3
100
AcDbEntity
  8
0
  6
ByBlock
 62
     4
100
AcDbBlockReference
  2
_OPEN
 10
251.854434497959
 20
194.3043763463722
 30
0.0
 41
3.0
 42
3.0
 43
3.0
 50
270.0
  0
MTEXT
  5
C7D
330
BE3
100
AcDbEntity
  8
0
  6
ByBlock
 62
     4
100
AcDbMText
 10
249.354434497959
 20
218.8043763463721
 30
0.0
 40
3.0
 41
0.0
 71
     5
 72
     5
  1
\A1;49
 11
0.0
 21
1.0
 31
0.0
 73
     1
 44
1.0
1001
ACAD
1000
MTEXTBEGIN
1070
    73
1070
     1
1070
    44
1040
1.0
1070
    74
1070
     0
1000
MTEXTEND
  0
POINT
  5
C7E
330
BE3
100
AcDbEntity
  8
DEFPOINTS
  6
ByBlock
 62
     0
380
     1
100
AcDbPoint
 10
233.8274168235814
 20
243.3043763463721
 30
0.0
  0
POINT
  5
C7F
330
BE3
100
AcDbEntity
  8
DEFPOINTS
  6
ByBlock
 62
     0
380
     1
100
AcDbPoint
 10
233.8274168235814
 20
194.3043763463722
 30
0.0
  0
POINT
  5
C80
330
BE3
100
AcDbEntity
  8
DEFPOINTS
  6
ByBlock
 62
     0
380
     1
100
AcDbPoint
 10
251.854434497959
 20
194.3043763463722
 30
0.0
  0
ENDBLK
  5
C81
330
BE3
100
AcDbEntity
  8
0
100
AcDbBlockEnd
  0
BLOCK
  5
109A
330
F06
100
AcDbEntity
  8
0
100
AcDbBlockBegin
  2
*X14
 70
     1
 10
0.0
 20
0.0
 30
0.0
  3
*X14
  1

  0
LINE
  5
F07
330
F06
100
AcDbEntity
  8
0
 62
     0
380
     1
100
AcDbLine
 10
34.52110616483123
 20
11.30208428975393
 30
0.0
 11
34.19819069997377
 21
11.62499975461142
 31
0.0
  0
LINE
  5
F08
330
F06
100
AcDbEntity
  8
0
 62
     0
380
     1
100
AcDbLine
 10
34.52110616483123
 20
10.85307148370049
 30
0.0
 11
33.74917789392029
 21
11.62499975461142
 31
0.0
  0
LINE
  5
F09
330
F06
100
AcDbEntity
  8
0
 62
     0
380
     1
100
AcDbLine
 10
34.5211061648312
 20
10.40405867764701
 30
0.0
 11
33.31053919182372
 21
11.61462565065449
 31
0.0
  0
LINE
  5
F0A
330
F06
100
AcDbEntity
  8
0
 62
     0
380
     1
100
AcDbLine
 10
34.52110616483123
 20
9.955045871593597
 30
0.0
 11
33.12110616483119
 21
11.3550458715936
 31
0.0
  0
LINE
  5
F0B
330
F06
100
AcDbEntity
  8
0
 62
     0
380
     1
100
AcDbLine
 10
34.52110616483123
 20
9.506033065540123
 30
0.0
 11
33.12110616483119
 21
10.90603306554015
 31
0.0
  0
LINE
  5
F0C
330
F06
100
AcDbEntity
  8
0
 62
     0
380
     1
100
AcDbLine
 10
34.5211061648312
 20
9.057020259486648
 30
0.0
 11
33.12110616483116
 21
10.45702025948668
 31
0.0
  0
LINE
  5
F0D
330
F06
100
AcDbEntity
  8
0
 62
     0
380
     1
100
AcDbLine
 10
32.07110616483118
 20
11.05800745343325
 30
0.0
 11
31.50411386365306
 21
11.62499975461136
 31
0.0
  0
LINE
  5
F0E
330
F06
100
AcDbEntity
  8
0
 62
     0
380
     1
100
AcDbLine
 10
34.52110616483123
 20
8.608007453433231
 30
0.0
 11
33.12110616483119
 21
10.00800745343326
 31
0.0
  0
LINE
  5
F0F
330
F06
100
AcDbEntity
  8
0
 62
     0
380
     1
100
AcDbLine
 10
32.07110616483118
 20
10.6089946473798
 30
0.0
 11
31.05510105759961
 21
11.62499975461136
 31
0.0
  0
LINE
  5
F10
330
F06
100
AcDbEntity
  8
0
 62
     0
380
     1
100
AcDbLine
 10
34.5211061648312
 20
8.158994647379756
 30
0.0
 11
33.12110616483119
 21
9.55899464737979
 31
0.0
  0
LINE
  5
F11
330
F06
100
AcDbEntity
  8
0
 62
     0
380
     1
100
AcDbLine
 10
32.07110616483118
 20
10.15998184132633
 30
0.0
 11
30.71835068226264
 21
11.51273732389487
 31
0.0
  0
LINE
  5
F12
330
F06
100
AcDbEntity
  8
0
 62
     0
380
     1
100
AcDbLine
 10
34.5211061648312
 20
7.70998184132631
 30
0.0
 11
33.12110616483116
 21
9.109981841326316
 31
0.0
  0
LINE
  5
F13
330
F06
100
AcDbEntity
  8
0
 62
     0
380
     1
100
AcDbLine
 10
32.07110616483124
 20
9.710969035272825
 30
0.0
 11
30.67110616483115
 21
11.11096903527289
 31
0.0
  0
LINE
  5
F14
330
F06
100
AcDbEntity
  8
0
 62
     0
380
     1
100
AcDbLine
 10
34.52110616483123
 20
7.260969035272836
 30
0.0
 11
33.12110616483119
 21
8.66096903527287
 31
0.0
  0
LINE
  5
F15
330
F06
100
AcDbEntity
  8
0
 62
     0
380
     1
100
AcDbLine
 10
32.07110616483121
 20
9.261956229219379
 30
0.0
 11
30.67110616483115
 21
10.66195622921947
 31
0.0
  0
LINE
  5
F16
330
F06
100
AcDbEntity
  8
0
 62
     0
380
     1
100
AcDbLine
 10
34.5211061648312
 20
6.81195622921939
 30
0.0
 11
33.12110616483116
 21
8.211956229219424
 31
0.0
  0
LINE
  5
F17
330
F06
100
AcDbEntity
  8
0
 62
     0
380
     1
100
AcDbLine
 10
32.07110616483121
 20
8.812943423165933
 30
0.0
 11
30.67110616483115
 21
10.21294342316599
 31
0.0
  0
LINE
  5
F18
330
F06
100
AcDbEntity
  8
0
 62
     0
380
     1
100
AcDbLine
 10
34.5211061648312
 20
6.362943423165944
 30
0.0
 11
33.12110616483116
 21
7.762943423165978
 31
0.0
  0
LINE
  5
F19
330
F06
100
AcDbEntity
  8
0
 62
     0
380
     1
100
AcDbLine
 10
32.07110616483118
 20
8.363930617112458
 30
0.0
 11
30.67110616483112
 21
9.763930617112521
 31
0.0
  0
LINE
  5
F1A
330
F06
100
AcDbEntity
  8
0
 62
     0
380
     1
100
AcDbLine
 10
34.52110616483117
 20
5.91393061711247
 30
0.0
 11
33.12110616483116
 21
7.313930617112504
 31
0.0
  0
LINE
  5
F1B
330
F06
100
AcDbEntity
  8
0
 62
     0
380
     1
100
AcDbLine
 10
32.07110616483121
 20
7.914917811059041
 30
0.0
 11
30.67110616483115
 21
9.314917811059103
 31
0.0
  0
LINE
  5
F1C
330
F06
100
AcDbEntity
  8
0
 62
     0
380
     1
100
AcDbLine
 10
28.92110616483117
 20
11.06491781105907
 30
0.0
 11
28.36102422127885
 21
11.62499975461139
 31
0.0
  0
LINE
  5
F1D
330
F06
100
AcDbEntity
  8
0
 62
     0
380
     1
100
AcDbLine
 10
34.5211061648312
 20
5.464917811059052
 30
0.0
 11
33.12110616483116
 21
6.864917811059058
 31
0.0
  0
LINE
  5
F1E
330
F06
100
AcDbEntity
  8
0
 62
     0
380
     1
100
AcDbLine
 10
32.07110616483121
 20
7.465905005005566
 30
0.0
 11
30.67110616483112
 21
8.865905005005629
 31
0.0
  0
LINE
  5
F1F
330
F06
100
AcDbEntity
  8
0
 62
     0
380
     1
100
AcDbLine
 10
28.92110616483114
 20
10.6159050050056
 30
0.0
 11
27.91201141522538
 21
11.62499975461139
 31
0.0
  0
LINE
  5
F20
330
F06
100
AcDbEntity
  8
0
 62
     0
380
     1
100
AcDbLine
 10
34.5211061648312
 20
5.015905005005578
 30
0.0
 11
33.12110616483116
 21
6.415905005005612
 31
0.0
  0
LINE
  5
F21
330
F06
100
AcDbEntity
  8
0
 62
     0
380
     1
100
AcDbLine
 10
32.07110616483118
 20
7.01689219895212
 30
0.0
 11
30.67110616483115
 21
8.416892198952126
 31
0.0
  0
LINE
  5
F22
330
F06
100
AcDbEntity
  8
0
 62
     0
380
     1
100
AcDbLine
 10
28.92110616483114
 20
10.16689219895215
 30
0.0
 11
27.57122480316914
 21
11.51677356061415
 31
0.0
  0
LINE
  5
F23
330
F06
100
AcDbEntity
  8
0
 62
     0
380
     1
100
AcDbLine
 10
34.52110616483117
 20
4.566892198952132
 30
0.0
 11
33.12110616483114
 21
5.966892198952137
 31
0.0
  0
LINE
  5
F24
330
F06
100
AcDbEntity
  8
0
 62
     0
380
     1
100
AcDbLine
 10
32.07110616483121
 20
6.567879392898646
 30
0.0
 11
30.67110616483117
 21
7.96787939289868
 31
0.0
  0
LINE
  5
F25
330
F06
100
AcDbEntity
  8
0
 62
     0
380
     1
100
AcDbLine
 10
28.92110616483117
 20
9.71787939289868
 30
0.0
 11
27.52110616483117
 21
11.11787939289868
 31
0.0
  0
LINE
  5
F26
330
F06
100
AcDbEntity
  8
0
 62
     0
380
     1
100
AcDbLine
 10
34.5211061648312
 20
4.117879392898657
 30
0.0
 11
33.12110616483116
 21
5.517879392898692
 31
0.0
  0
LINE
  5
F27
330
F06
100
AcDbEntity
  8
0
 62
     0
380
     1
100
AcDbLine
 10
32.07110616483118
 20
6.1188665868452
 30
0.0
 11
30.67110616483117
 21
7.518866586845234
 31
0.0
  0
LINE
  5
F28
330
F06
100
AcDbEntity
  8
0
 62
     0
380
     1
100
AcDbLine
 10
28.9211061648312
 20
9.268866586845206
 30
0.0
 11
27.52110616483117
 21
10.66886658684524
 31
0.0
  0
LINE
  5
F29
330
F06
100
AcDbEntity
  8
0
 62
     0
380
     1
100
AcDbLine
 10
34.48512348738629
 20
3.704849264290118
 30
0.0
 11
33.12110616483116
 21
5.068866586845246
 31
0.0
  0
LINE
  5
F2A
330
F06
100
AcDbEntity
  8
0
 62
     0
380
     1
100
AcDbLine
 10
32.07110616483121
 20
5.669853780791697
 30
0.0
 11
30.67110616483115
 21
7.06985378079176
 31
0.0
  0
LINE
  5
F2B
330
F06
100
AcDbEntity
  8
0
 62
     0
380
     1
100
AcDbLine
 10
28.92110616483117
 20
8.81985378079176
 30
0.0
 11
27.52110616483114
 21
10.21985378079176
 31
0.0
  0
LINE
  5
F2C
330
F06
100
AcDbEntity
  8
0
 62
     0
380
     1
100
AcDbLine
 10
34.16596019101155
 20
3.574999754611383
 30
0.0
 11
33.12110616483114
 21
4.6198537807918
 31
0.0
  0
LINE
  5
F2D
330
F06
100
AcDbEntity
  8
0
 62
     0
380
     1
100
AcDbLine
 10
28.92110616483117
 20
8.370840974738285
 30
0.0
 11
27.52110616483114
 21
9.77084097473832
 31
0.0
  0
LINE
  5
F2E
330
F06
100
AcDbEntity
  8
0
 62
     0
380
     1
100
AcDbLine
 10
32.07110616483121
 20
5.220840974738251
 30
0.0
 11
30.67110616483115
 21
6.620840974738314
 31
0.0
  0
LINE
  5
F2F
330
F06
100
AcDbEntity
  8
0
 62
     0
380
     1
100
AcDbLine
 10
26.20860616483117
 20
11.08334097473829
 30
0.0
 11
25.66694738495809
 21
11.62499975461134
 31
0.0
  0
LINE
  5
F30
330
F06
100
AcDbEntity
  8
0
 62
     0
380
     1
100
AcDbLine
 10
33.7169473849581
 20
3.574999754611326
 30
0.0
 11
33.12110616483114
 21
4.170840974738325
 31
0.0
  0
LINE
  5
F31
330
F06
100
AcDbEntity
  8
0
 62
     0
380
     1
100
AcDbLine
 10
28.92110616483117
 20
7.921828168684839
 30
0.0
 11
27.5211061648312
 21
9.321828168684845
 31
0.0
  0
LINE
  5
F32
330
F06
100
AcDbEntity
  8
0
 62
     0
380
     1
100
AcDbLine
 10
26.20860616483117
 20
10.63432816868484
 30
0.0
 11
25.21793457890467
 21
11.62499975461136
 31
0.0
  0
LINE
  5
F33
330
F06
100
AcDbEntity
  8
0
 62
     0
380
     1
100
AcDbLine
 10
32.05812701450842
 20
4.784807319007626
 30
0.0
 11
30.67110616483115
 21
6.171828168684868
 31
0.0
  0
LINE
  5
F34
330
F06
100
AcDbEntity
  8
0
 62
     0
380
     1
100
AcDbLine
 10
28.92110616483117
 20
7.472815362631394
 30
0.0
 11
27.5211061648312
 21
8.872815362631371
 31
0.0
  0
LINE
  5
F35
330
F06
100
AcDbEntity
  8
0
 62
     0
380
     1
100
AcDbLine
 10
26.11081589177425
 20
10.28310563568831
 30
0.0
 11
24.76892177285118
 21
11.62499975461139
 31
0.0
  0
LINE
  5
F36
330
F06
100
AcDbEntity
  8
0
 62
     0
380
     1
100
AcDbLine
 10
31.96163436687979
 20
4.432287160582745
 30
0.0
 11
30.67110616483115
 21
5.722815362631422
 31
0.0
  0
LINE
  5
F37
330
F06
100
AcDbEntity
  8
0
 62
     0
380
     1
100
AcDbLine
 10
28.92110616483117
 20
7.023802556577919
 30
0.0
 11
27.52110616483117
 21
8.423802556577925
 31
0.0
  0
LINE
  5
F38
330
F06
100
AcDbEntity
  8
0
 62
     0
380
     1
100
AcDbLine
 10
25.71990896679768
 20
10.22499975461139
 30
0.0
 11
24.31990896679773
 21
11.62499975461134
 31
0.0
  0
LINE
  5
F39
330
F06
100
AcDbEntity
  8
0
 62
     0
380
     1
100
AcDbLine
 10
31.79911842891801
 20
4.145790292491057
 30
0.0
 11
30.63534829525139
 21
5.309560426157702
 31
0.0
  0
LINE
  5
F3A
330
F06
100
AcDbEntity
  8
0
 62
     0
380
     1
100
AcDbLine
 10
28.92110616483117
 20
6.574789750524502
 30
0.0
 11
27.5211061648312
 21
7.974789750524479
 31
0.0
  0
LINE
  5
F3B
330
F06
100
AcDbEntity
  8
0
 62
     0
380
     1
100
AcDbLine
 10
25.27089616074429
 20
10.22499975461136
 30
0.0
 11
23.90211279615556
 21
11.59378311920011
 31
0.0
  0
LINE
  5
F3C
330
F06
100
AcDbEntity
  8
0
 62
     0
380
     1
100
AcDbLine
 10
31.58309753025549
 20
3.91279838510016
 30
0.0
 11
30.43455547601764
 21
5.06134043933801
 31
0.0
  0
LINE
  5
F3D
330
F06
100
AcDbEntity
  8
0
 62
     0
380
     1
100
AcDbLine
 10
28.92110616483117
 20
6.125776944471027
 30
0.0
 11
27.52110616483117
 21
7.525776944471004
 31
0.0
  0
LINE
  5
F3E
330
F06
100
AcDbEntity
  8
0
 62
     0
380
     1
100
AcDbLine
 10
24.82188335469084
 20
10.22499975461136
 30
0.0
 11
23.56979258388887
 21
11.4770905254133
 31
0.0
  0
LINE
  5
F3F
330
F06
100
AcDbEntity
  8
0
 62
     0
380
     1
100
AcDbLine
 10
31.31501635779248
 20
3.731866751509727
 30
0.0
 11
30.07188335469084
 21
4.97499975461136
 31
0.0
  0
LINE
  5
F40
330
F06
100
AcDbEntity
  8
0
 62
     0
380
     1
100
AcDbLine
 10
28.92110616483114
 20
5.676764138417553
 30
0.0
 11
27.52110616483117
 21
7.076764138417559
 31
0.0
  0
LINE
  5
F41
330
F06
100
AcDbEntity
  8
0
 62
     0
380
     1
100
AcDbLine
 10
24.38376546264638
 20
10.21410484060232
 30
0.0
 11
23.29849211528378
 21
11.29937818796492
 31
0.0
  0
LINE
  5
F42
330
F06
100
AcDbEntity
  8
0
 62
     0
380
     1
100
AcDbLine
 10
30.98681007783682
 20
3.611060225411904
 30
0.0
 11
29.62287054863734
 21
4.974999754611388
 31
0.0
  0
LINE
  5
F43
330
F06
100
AcDbEntity
  8
0
 62
     0
380
     1
100
AcDbLine
 10
24.19610616483118
 20
9.952751332364073
 30
0.0
 11
23.0794360857615
 21
11.06942141143372
 31
0.0
  0
LINE
  5
F44
330
F06
100
AcDbEntity
  8
0
 62
     0
380
     1
100
AcDbLine
 10
30.5738577425839
 20
3.574999754611354
 30
0.0
 11
27.52110616483117
 21
6.627751332364084
 31
0.0
  0
LINE
  5
F45
330
F06
100
AcDbEntity
  8
0
 62
     0
380
     1
100
AcDbLine
 10
24.19610616483121
 20
9.503738526310627
 30
0.0
 11
22.91355062958499
 21
10.78629406155684
 31
0.0
  0
LINE
  5
F46
330
F06
100
AcDbEntity
  8
0
 62
     0
380
     1
100
AcDbLine
 10
30.12484493653045
 20
3.574999754611354
 30
0.0
 11
27.52110616483117
 21
6.178738526310667
 31
0.0
  0
LINE
  5
F47
330
F06
100
AcDbEntity
  8
0
 62
     0
380
     1
100
AcDbLine
 10
24.2993783053831
 20
8.951453579705258
 30
0.0
 11
22.81246136990294
 21
10.4383705151854
 31
0.0
  0
LINE
  5
F48
330
F06
100
AcDbEntity
  8
0
 62
     0
380
     1
100
AcDbLine
 10
29.67583213047701
 20
3.574999754611354
 30
0.0
 11
27.52110616483117
 21
5.729725720257192
 31
0.0
  0
LINE
  5
F49
330
F06
100
AcDbEntity
  8
0
 62
     0
380
     1
100
AcDbLine
 10
26.40790801617686
 20
6.393911062858023
 30
0.0
 11
22.79610616483115
 21
10.00571291420374
 31
0.0
  0
LINE
  5
F4A
330
F06
100
AcDbEntity
  8
0
 62
     0
380
     1
100
AcDbLine
 10
21.74610616483113
 20
11.05571291420372
 30
0.0
 11
21.17681932442352
 21
11.62499975461136
 31
0.0
  0
LINE
  5
F4B
330
F06
100
AcDbEntity
  8
0
 62
     0
380
     1
100
AcDbLine
 10
29.22681932442353
 20
3.574999754611354
 30
0.0
 11
27.52110616483114
 21
5.280712914203718
 31
0.0
  0
LINE
  5
F4C
330
F06
100
AcDbEntity
  8
0
 62
     0
380
     1
100
AcDbLine
 10
26.47110616483121
 20
5.881700108150255
 30
0.0
 11
22.79610616483117
 21
9.556700108150295
 31
0.0
  0
LINE
  5
F4D
330
F06
100
AcDbEntity
  8
0
 62
     0
380
     1
100
AcDbLine
 10
21.74610616483119
 20
10.60670010815025
 30
0.0
 11
20.72780651837007
 21
11.62499975461136
 31
0.0
  0
LINE
  5
F4E
330
F06
100
AcDbEntity
  8
0
 62
     0
380
     1
100
AcDbLine
 10
28.76958257899764
 20
3.583223693983825
 30
0.0
 11
27.52933010420364
 21
4.82347616877783
 31
0.0
  0
LINE
  5
F4F
330
F06
100
AcDbEntity
  8
0
 62
     0
380
     1
100
AcDbLine
 10
21.74610616483119
 20
10.1576873020968
 30
0.0
 11
20.39241122094353
 21
11.51138224598443
 31
0.0
  0
LINE
  5
F50
330
F06
100
AcDbEntity
  8
0
 62
     0
380
     1
100
AcDbLine
 10
26.47110616483118
 20
5.43268730209678
 30
0.0
 11
22.80781149877237
 21
9.095981968155626
 31
0.0
  0
LINE
  5
F51
330
F06
100
AcDbEntity
  8
0
 62
     0
380
     1
100
AcDbLine
 10
21.74610616483119
 20
9.708674496043329
 30
0.0
 11
20.34610616483115
 21
11.10867449604336
 31
0.0
  0
LINE
  5
F52
330
F06
100
AcDbEntity
  8
0
 62
     0
380
     1
100
AcDbLine
 10
26.47110616483113
 20
4.983674496043363
 30
0.0
 11
22.96687120769238
 21
8.48790945318214
 31
0.0
  0
LINE
  5
F53
330
F06
100
AcDbEntity
  8
0
 62
     0
380
     1
100
AcDbLine
 10
21.74610616483119
 20
9.259661689989883
 30
0.0
 11
20.34610616483115
 21
10.65966168998989
 31
0.0
  0
LINE
  5
F54
330
F06
100
AcDbEntity
  8
0
 62
     0
380
     1
100
AcDbLine
 10
26.41682525603665
 20
4.588942598784427
 30
0.0
 11
25.06900786151749
 21
5.936759993303581
 31
0.0
  0
LINE
  5
F55
330
F06
100
AcDbEntity
  8
0
 62
     0
380
     1
100
AcDbLine
 10
21.74610616483119
 20
8.810648883936437
 30
0.0
 11
20.34610616483115
 21
10.21064888393647
 31
0.0
  0
LINE
  5
F56
330
F06
100
AcDbEntity
  8
0
 62
     0
380
     1
100
AcDbLine
 10
19.20036271454268
 20
11.35639233422492
 30
0.0
 11
18.93175529415623
 21
11.62499975461139
 31
0.0
  0
LINE
  5
F57
330
F06
100
AcDbEntity
  8
0
 62
     0
380
     1
100
AcDbLine
 10
26.28288740215587
 20
4.273867646611762
 30
0.0
 11
25.07110616483121
 21
5.48564888393642
 31
0.0
  0
LINE
  5
F58
330
F06
100
AcDbEntity
  8
0
 62
     0
380
     1
100
AcDbLine
 10
21.74610616483116
 20
8.361636077882963
 30
0.0
 11
20.34610616483115
 21
9.761636077882997
 31
0.0
  0
LINE
  5
F59
330
F06
100
AcDbEntity
  8
0
 62
     0
380
     1
100
AcDbLine
 10
19.10089888241637
 20
11.00684336029775
 30
0.0
 11
18.48274248810276
 21
11.62499975461139
 31
0.0
  0
LINE
  5
F5A
330
F06
100
AcDbEntity
  8
0
 62
     0
380
     1
100
AcDbLine
 10
26.09139400306822
 20
4.016348239645935
 30
0.0
 11
25.02246357338797
 21
5.085278669326186
 31
0.0
  0
LINE
  5
F5B
330
F06
100
AcDbEntity
  8
0
 62
     0
380
     1
100
AcDbLine
 10
21.74610616483116
 20
7.912623271829517
 30
0.0
 11
20.34610616483113
 21
9.312623271829522
 31
0.0
  0
LINE
  5
F5C
330
F06
100
AcDbEntity
  8
0
 62
     0
380
     1
100
AcDbLine
 10
18.99313580896353
 20
10.66559362769712
 30
0.0
 11
18.03852802722824
 21
11.62020140943244
 31
0.0
  0
LINE
  5
F5D
330
F06
100
AcDbEntity
  8
0
 62
     0
380
     1
100
AcDbLine
 10
25.8482345205104
 20
3.810494916150247
 30
0.0
 11
24.68372968204938
 21
4.974999754611303
 31
0.0
  0
LINE
  5
F5E
330
F06
100
AcDbEntity
  8
0
 62
     0
380
     1
100
AcDbLine
 10
21.74610616483119
 20
7.463610465776071
 30
0.0
 11
20.34610616483115
 21
8.863610465776105
 31
0.0
  0
LINE
  5
F5F
330
F06
100
AcDbEntity
  8
0
 62
     0
380
     1
100
AcDbLine
 10
18.88537273551077
 20
10.32434389509649
 30
0.0
 11
17.82137273551075
 21
11.38834389509651
 31
0.0
  0
LINE
  5
F60
330
F06
100
AcDbEntity
  8
0
 62
     0
380
     1
100
AcDbLine
 10
25.55019254628021
 20
3.659524084327017
 30
0.0
 11
24.2347168759959
 21
4.97499975461136
 31
0.0
  0
LINE
  5
F61
330
F06
100
AcDbEntity
  8
0
 62
     0
380
     1
100
AcDbLine
 10
21.74610616483116
 20
7.014597659722625
 30
0.0
 11
20.34610616483113
 21
8.41459765972263
 31
0.0
  0
LINE
  5
F62
330
F06
100
AcDbEntity
  8
0
 62
     0
380
     1
100
AcDbLine
 10
18.77760966205784
 20
9.983094162495945
 30
0.0
 11
17.71360966205785
 21
11.04709416249594
 31
0.0
  0
LINE
  5
F63
330
F06
100
AcDbEntity
  8
0
 62
     0
380
     1
100
AcDbLine
 10
25.18135622045648
 20
3.579347604097307
 30
0.0
 11
23.7857040699424
 21
4.974999754611388
 31
0.0
  0
LINE
  5
F64
330
F06
100
AcDbEntity
  8
0
 62
     0
380
     1
100
AcDbLine
 10
21.74610616483116
 20
6.56558485366915
 30
0.0
 11
20.34610616483115
 21
7.965584853669128
 31
0.0
  0
LINE
  5
F65
330
F06
100
AcDbEntity
  8
0
 62
     0
380
     1
100
AcDbLine
 10
18.66984658860505
 20
9.641844429895257
 30
0.0
 11
17.605846588605
 21
10.70584442989528
 31
0.0
  0
LINE
  5
F66
330
F06
100
AcDbEntity
  8
0
 62
     0
380
     1
100
AcDbLine
 10
24.73669126388896
 20
3.574999754611354
 30
0.0
 11
23.33669126388892
 21
4.974999754611388
 31
0.0
  0
LINE
  5
F67
330
F06
100
AcDbEntity
  8
0
 62
     0
380
     1
100
AcDbLine
 10
21.74610616483116
 20
6.116572047615704
 30
0.0
 11
20.34610616483119
 21
7.51657204761571
 31
0.0
  0
LINE
  5
F68
330
F06
100
AcDbEntity
  8
0
 62
     0
380
     1
100
AcDbLine
 10
18.56208351515224
 20
9.300594697294656
 30
0.0
 11
17.49808351515219
 21
10.36459469729468
 31
0.0
  0
LINE
  5
F69
330
F06
100
AcDbEntity
  8
0
 62
     0
380
     1
100
AcDbLine
 10
24.28767845783551
 20
3.574999754611383
 30
0.0
 11
23.07087260918732
 21
4.791805603259575
 31
0.0
  0
LINE
  5
F6A
330
F06
100
AcDbEntity
  8
0
 62
     0
380
     1
100
AcDbLine
 10
18.45432044169942
 20
8.959344964693968
 30
0.0
 11
17.39032044169937
 21
10.02334496469404
 31
0.0
  0
LINE
  5
F6B
330
F06
100
AcDbEntity
  8
0
 62
     0
380
     1
100
AcDbLine
 10
21.74610616483116
 20
5.667559241562258
 30
0.0
 11
20.34610616483119
 21
7.067559241562236
 31
0.0
  0
LINE
  5
F6C
330
F06
100
AcDbEntity
  8
0
 62
     0
380
     1
100
AcDbLine
 10
16.32110616483118
 20
11.09255924156224
 30
0.0
 11
15.78866565178202
 21
11.62499975461136
 31
0.0
  0
LINE
  5
F6D
330
F06
100
AcDbEntity
  8
0
 62
     0
380
     1
100
AcDbLine
 10
23.83866565178207
 20
3.574999754611354
 30
0.0
 11
23.05860616483119
 21
4.35505924156223
 31
0.0
  0
LINE
  5
F6E
330
F06
100
AcDbEntity
  8
0
 62
     0
380
     1
100
AcDbLine
 10
18.34655736824652
 20
8.618095232093423
 30
0.0
 11
17.28255736824656
 21
9.682095232093388
 31
0.0
  0
LINE
  5
F6F
330
F06
100
AcDbEntity
  8
0
 62
     0
380
     1
100
AcDbLine
 10
21.74610616483116
 20
5.218546435508784
 30
0.0
 11
20.34610616483115
 21
6.61854643550879
 31
0.0
  0
LINE
  5
F70
330
F06
100
AcDbEntity
  8
0
 62
     0
380
     1
100
AcDbLine
 10
16.32110616483118
 20
10.64354643550877
 30
0.0
 11
15.33965284572858
 21
11.62499975461136
 31
0.0
  0
LINE
  5
F71
330
F06
100
AcDbEntity
  8
0
 62
     0
380
     1
100
AcDbLine
 10
23.38965284572856
 20
3.574999754611383
 30
0.0
 11
23.05860616483116
 21
3.906046435508756
 31
0.0
  0
LINE
  5
F72
330
F06
100
AcDbEntity
  8
0
 62
     0
380
     1
100
AcDbLine
 10
18.2387942947937
 20
8.276845499492765
 30
0.0
 11
17.17479429479368
 21
9.340845499492786
 31
0.0
  0
LINE
  5
F73
330
F06
100
AcDbEntity
  8
0
 62
     0
380
     1
100
AcDbLine
 10
16.32110616483115
 20
10.19453362945529
 30
0.0
 11
14.98338370038235
 21
11.53225609390412
 31
0.0
  0
LINE
  5
F74
330
F06
100
AcDbEntity
  8
0
 62
     0
380
     1
100
AcDbLine
 10
21.74610616483113
 20
4.769533629455338
 30
0.0
 11
20.34610616483115
 21
6.169533629455315
 31
0.0
  0
LINE
  5
F75
330
F06
100
AcDbEntity
  8
0
 62
     0
380
     1
100
AcDbLine
 10
18.13103122134089
 20
7.935595766892163
 30
0.0
 11
17.0670312213409
 21
8.999595766892156
 31
0.0
  0
LINE
  5
F76
330
F06
100
AcDbEntity
  8
0
 62
     0
380
     1
100
AcDbLine
 10
16.32110616483118
 20
9.745520823401875
 30
0.0
 11
14.92110616483114
 21
11.14552082340188
 31
0.0
  0
LINE
  5
F77
330
F06
100
AcDbEntity
  8
0
 62
     0
380
     1
100
AcDbLine
 10
21.74610616483116
 20
4.320520823401892
 30
0.0
 11
20.34610616483115
 21
5.720520823401869
 31
0.0
  0
LINE
  5
F78
330
F06
100
AcDbEntity
  8
0
 62
     0
380
     1
100
AcDbLine
 10
18.02848696664486
 20
7.589127215534716
 30
0.0
 11
16.95926814788802
 21
8.658346034291554
 31
0.0
  0
LINE
  5
F79
330
F06
100
AcDbEntity
  8
0
 62
     0
380
     1
100
AcDbLine
 10
16.32110616483118
 20
9.296508017348401
 30
0.0
 11
14.92110616483114
 21
10.69650801734843
 31
0.0
  0
LINE
  5
F7A
330
F06
100
AcDbEntity
  8
0
 62
     0
380
     1
100
AcDbLine
 10
21.74610616483113
 20
3.871508017348418
 30
0.0
 11
20.34610616483115
 21
5.271508017348423
 31
0.0
  0
LINE
  5
F7B
330
F06
100
AcDbEntity
  8
0
 62
     0
380
     1
100
AcDbLine
 10
18.23572364636186
 20
6.932877729764243
 30
0.0
 11
16.81399440004571
 21
8.35460697608039
 31
0.0
  0
LINE
  5
F7C
330
F06
100
AcDbEntity
  8
0
 62
     0
380
     1
100
AcDbLine
 10
16.3211061648312
 20
8.847495211294898
 30
0.0
 11
14.92110616483111
 21
10.24749521129496
 31
0.0
  0
LINE
  5
F7D
330
F06
100
AcDbEntity
  8
0
 62
     0
380
     1
100
AcDbLine
 10
21.57658366616496
 20
3.592017709961112
 30
0.0
 11
20.34610616483115
 21
4.822495211294949
 31
0.0
  0
LINE
  5
F7E
330
F06
100
AcDbEntity
  8
0
 62
     0
380
     1
100
AcDbLine
 10
18.44296032607886
 20
6.276628243993826
 30
0.0
 11
14.92110616483114
 21
9.798482405241543
 31
0.0
  0
LINE
  5
F7F
330
F06
100
AcDbEntity
  8
0
 62
     0
380
     1
100
AcDbLine
 10
13.6961061648312
 20
11.02348240524148
 30
0.0
 11
13.09458881546132
 21
11.62499975461136
 31
0.0
  0
LINE
  5
F80
330
F06
100
AcDbEntity
  8
0
 62
     0
380
     1
100
AcDbLine
 10
21.14458881546133
 20
3.574999754611354
 30
0.0
 11
20.34610616483121
 21
4.373482405241475
 31
0.0
  0
LINE
  5
F81
330
F06
100
AcDbEntity
  8
0
 62
     0
380
     1
100
AcDbLine
 10
18.65019700579589
 20
5.620378758223324
 30
0.0
 11
14.92110616483114
 21
9.349469599188068
 31
0.0
  0
LINE
  5
F82
330
F06
100
AcDbEntity
  8
0
 62
     0
380
     1
100
AcDbLine
 10
13.6961061648312
 20
10.574469599188
 30
0.0
 11
12.64557600940782
 21
11.62499975461139
 31
0.0
  0
LINE
  5
F83
330
F06
100
AcDbEntity
  8
0
 62
     0
380
     1
100
AcDbLine
 10
20.69557600940786
 20
3.574999754611326
 30
0.0
 11
20.34610616483119
 21
3.924469599188029
 31
0.0
  0
LINE
  5
F84
330
F06
100
AcDbEntity
  8
0
 62
     0
380
     1
100
AcDbLine
 10
13.56265281713615
 20
10.25891014082958
 30
0.0
 11
12.21254195803044
 21
11.60902099993527
 31
0.0
  0
LINE
  5
F85
330
F06
100
AcDbEntity
  8
0
 62
     0
380
     1
100
AcDbLine
 10
18.85743368551286
 20
4.964129272452879
 30
0.0
 11
14.92110616483117
 21
8.900456793134566
 31
0.0
  0
LINE
  5
F86
330
F06
100
AcDbEntity
  8
0
 62
     0
380
     1
100
AcDbLine
 10
16.48986062600198
 20
6.882689525910308
 30
0.0
 11
14.92110616483117
 21
8.45144398708112
 31
0.0
  0
LINE
  5
F87
330
F06
100
AcDbEntity
  8
0
 62
     0
380
     1
100
AcDbLine
 10
13.14755039730093
 20
10.22499975461133
 30
0.0
 11
11.84352042323681
 21
11.52902972867548
 31
0.0
  0
LINE
  5
F88
330
F06
100
AcDbEntity
  8
0
 62
     0
380
     1
100
AcDbLine
 10
19.06467036522989
 20
4.307879786682406
 30
0.0
 11
17.01851651907583
 21
6.354033632836461
 31
0.0
  0
LINE
  5
F89
330
F06
100
AcDbEntity
  8
0
 62
     0
380
     1
100
AcDbLine
 10
16.3211061648312
 20
6.60243118102764
 30
0.0
 11
14.92110616483117
 21
8.002431181027674
 31
0.0
  0
LINE
  5
F8A
330
F06
100
AcDbEntity
  8
0
 62
     0
380
     1
100
AcDbLine
 10
12.69853759124743
 20
10.22499975461139
 30
0.0
 11
11.52415971532144
 21
11.39937763053737
 31
0.0
  0
LINE
  5
F8B
330
F06
100
AcDbEntity
  8
0
 62
     0
380
     1
100
AcDbLine
 10
19.18218979408519
 20
3.741347551773628
 30
0.0
 11
17.2257531987928
 21
5.697784147066045
 31
0.0
  0
LINE
  5
F8C
330
F06
100
AcDbEntity
  8
0
 62
     0
380
     1
100
AcDbLine
 10
16.32110616483118
 20
6.153418374974194
 30
0.0
 11
14.92110616483114
 21
7.553418374974199
 31
0.0
  0
LINE
  5
F8D
330
F06
100
AcDbEntity
  8
0
 62
     0
380
     1
100
AcDbLine
 10
12.27698083997566
 20
10.19754369982971
 30
0.0
 11
11.24478522765417
 21
11.22973931215119
 31
0.0
  0
LINE
  5
F8E
330
F06
100
AcDbEntity
  8
0
 62
     0
380
     1
100
AcDbLine
 10
18.89952478519402
 20
3.574999754611354
 30
0.0
 11
17.43298987850983
 21
5.041534661295514
 31
0.0
  0
LINE
  5
F8F
330
F06
100
AcDbEntity
  8
0
 62
     0
380
     1
100
AcDbLine
 10
16.32110616483118
 20
5.704405568920719
 30
0.0
 11
14.92110616483114
 21
7.104405568920753
 31
0.0
  0
LINE
  5
F90
330
F06
100
AcDbEntity
  8
0
 62
     0
380
     1
100
AcDbLine
 10
11.99105274355616
 20
10.03445899019573
 30
0.0
 11
11.00095762334828
 21
11.02455411040361
 31
0.0
  0
LINE
  5
F91
330
F06
100
AcDbEntity
  8
0
 62
     0
380
     1
100
AcDbLine
 10
18.45051197914054
 20
3.574999754611354
 30
0.0
 11
17.6402265582268
 21
4.385285175525098
 31
0.0
  0
LINE
  5
F92
330
F06
100
AcDbEntity
  8
0
 62
     0
380
     1
100
AcDbLine
 10
13.86382073123005
 20
7.712678196468431
 30
0.0
 11
13.10878460668817
 21
8.467714321010305
 31
0.0
  0
LINE
  5
F93
330
F06
100
AcDbEntity
  8
0
 62
     0
380
     1
100
AcDbLine
 10
16.32110616483118
 20
5.255392762867273
 30
0.0
 11
14.92110616483117
 21
6.655392762867307
 31
0.0
  0
LINE
  5
F94
330
F06
100
AcDbEntity
  8
0
 62
     0
380
     1
100
AcDbLine
 10
11.81299195849169
 20
9.763506969206787
 30
0.0
 11
10.79127461034267
 21
10.78522431735581
 31
0.0
  0
LINE
  5
F95
330
F06
100
AcDbEntity
  8
0
 62
     0
380
     1
100
AcDbLine
 10
17.97633267098479
 20
3.600166256713691
 30
0.0
 11
17.85115558518913
 21
3.725343342509347
 31
0.0
  0
LINE
  5
F96
330
F06
100
AcDbEntity
  8
0
 62
     0
380
     1
100
AcDbLine
 10
13.82056390115909
 20
7.306922220485915
 30
0.0
 11
12.70302863070566
 21
8.424457490939346
 31
0.0
  0
LINE
  5
F97
330
F06
100
AcDbEntity
  8
0
 62
     0
380
     1
100
AcDbLine
 10
11.77110616483122
 20
9.356379956813782
 30
0.0
 11
10.61680509986183
 21
10.51068102178317
 31
0.0
  0
LINE
  5
F98
330
F06
100
AcDbEntity
  8
0
 62
     0
380
     1
100
AcDbLine
 10
16.32110616483118
 20
4.806379956813827
 30
0.0
 11
14.92110616483114
 21
6.206379956813862
 31
0.0
  0
LINE
  5
F99
330
F06
100
AcDbEntity
  8
0
 62
     0
380
     1
100
AcDbLine
 10
13.65463612151006
 20
7.023837194081437
 30
0.0
 11
12.41994360430118
 21
8.258529711290321
 31
0.0
  0
LINE
  5
F9A
330
F06
100
AcDbEntity
  8
0
 62
     0
380
     1
100
AcDbLine
 10
11.77110616483122
 20
8.907367150760308
 30
0.0
 11
10.48151524625675
 21
10.19695806933478
 31
0.0
  0
LINE
  5
F9B
330
F06
100
AcDbEntity
  8
0
 62
     0
380
     1
100
AcDbLine
 10
16.32110616483118
 20
4.357367150760353
 30
0.0
 11
14.92110616483117
 21
5.757367150760359
 31
0.0
  0
LINE
  5
F9C
330
F06
100
AcDbEntity
  8
0
 62
     0
380
     1
100
AcDbLine
 10
11.77110616483122
 20
8.458354344706862
 30
0.0
 11
10.39415830979382
 21
9.83530219974429
 31
0.0
  0
LINE
  5
F9D
330
F06
100
AcDbEntity
  8
0
 62
     0
380
     1
100
AcDbLine
 10
13.40371940044184
 20
6.82574110909627
 30
0.0
 11
12.22184751931601
 21
8.007612990222099
 31
0.0
  0
LINE
  5
F9E
330
F06
100
AcDbEntity
  8
0
 62
     0
380
     1
100
AcDbLine
 10
9.058606164831132
 20
11.17085434470695
 30
0.0
 11
8.604460754926691
 21
11.62499975461142
 31
0.0
  0
LINE
  5
F9F
330
F06
100
AcDbEntity
  8
0
 62
     0
380
     1
100
AcDbLine
 10
16.32110616483118
 20
3.908354344706935
 30
0.0
 11
14.9211061648312
 21
5.308354344706913
 31
0.0
  0
LINE
  5
FA0
330
F06
100
AcDbEntity
  8
0
 62
     0
380
     1
100
AcDbLine
 10
11.77110616483122
 20
8.009341538653416
 30
0.0
 11
10.37110616483116
 21
9.409341538653478
 31
0.0
  0
LINE
  5
FA1
330
F06
100
AcDbEntity
  8
0
 62
     0
380
     1
100
AcDbLine
 10
13.05355967922813
 20
6.72688802425651
 30
0.0
 11
12.12299443447625
 21
7.657453269008385
 31
0.0
  0
LINE
  5
FA2
330
F06
100
AcDbEntity
  8
0
 62
     0
380
     1
100
AcDbLine
 10
9.058606164831132
 20
10.7218415386535
 30
0.0
 11
8.155447948873217
 21
11.62499975461139
 31
0.0
  0
LINE
  5
FA3
330
F06
100
AcDbEntity
  8
0
 62
     0
380
     1
100
AcDbLine
 10
16.17715426419588
 20
3.603293439288762
 30
0.0
 11
14.92110616483117
 21
4.859341538653438
 31
0.0
  0
LINE
  5
FA4
330
F06
100
AcDbEntity
  8
0
 62
     0
380
     1
100
AcDbLine
 10
11.77110616483122
 20
7.560328732599941
 30
0.0
 11
10.37110616483113
 21
8.960328732600004
 31
0.0
  0
LINE
  5
FA5
330
F06
100
AcDbEntity
  8
0
 62
     0
380
     1
100
AcDbLine
 10
9.004089179695995
 20
10.32734571773517
 30
0.0
 11
7.706435142819799
 21
11.62499975461134
 31
0.0
  0
LINE
  5
FA6
330
F06
100
AcDbEntity
  8
0
 62
     0
380
     1
100
AcDbLine
 10
15.75643514281981
 20
3.574999754611326
 30
0.0
 11
14.92110616483117
 21
4.410328732599992
 31
0.0
  0
LINE
  5
FA7
330
F06
100
AcDbEntity
  8
0
 62
     0
380
     1
100
AcDbLine
 10
11.77110616483119
 20
7.111315926546495
 30
0.0
 11
10.37110616483113
 21
8.511315926546558
 31
0.0
  0
LINE
  5
FA8
330
F06
100
AcDbEntity
  8
0
 62
     0
380
     1
100
AcDbLine
 10
8.65742233676633
 20
10.22499975461136
 30
0.0
 11
7.257422336766353
 21
11.62499975461134
 31
0.0
  0
LINE
  5
FA9
330
F06
100
AcDbEntity
  8
0
 62
     0
380
     1
100
AcDbLine
 10
15.30742233676636
 20
3.574999754611326
 30
0.0
 11
14.92110616483117
 21
3.961315926546518
 31
0.0
  0
LINE
  5
FAA
330
F06
100
AcDbEntity
  8
0
 62
     0
380
     1
100
AcDbLine
 10
11.77110616483122
 20
6.662303120493049
 30
0.0
 11
10.37110616483119
 21
8.062303120493083
 31
0.0
  0
LINE
  5
FAB
330
F06
100
AcDbEntity
  8
0
 62
     0
380
     1
100
AcDbLine
 10
8.208409530712884
 20
10.22499975461136
 30
0.0
 11
6.825844894660434
 21
11.60756439066384
 31
0.0
  0
LINE
  5
FAC
330
F06
100
AcDbEntity
  8
0
 62
     0
380
     1
100
AcDbLine
 10
13.69480494041272
 20
4.738604344911522
 30
0.0
 11
13.45971075513137
 21
4.973698530192905
 31
0.0
  0
LINE
  5
FAD
330
F06
100
AcDbEntity
  8
0
 62
     0
380
     1
100
AcDbLine
 10
11.77110616483119
 20
6.213290314439575
 30
0.0
 11
10.37110616483119
 21
7.613290314439609
 31
0.0
  0
LINE
  5
FAE
330
F06
100
AcDbEntity
  8
0
 62
     0
380
     1
100
AcDbLine
 10
7.759396724659438
 20
10.22499975461136
 30
0.0
 11
6.479277490421196
 21
11.5051189888496
 31
0.0
  0
LINE
  5
FAF
330
F06
100
AcDbEntity
  8
0
 62
     0
380
     1
100
AcDbLine
 10
13.69610616483118
 20
4.288290314439592
 30
0.0
 11
13.00939672465941
 21
4.974999754611388
 31
0.0
  0
LINE
  5
FB0
330
F06
100
AcDbEntity
  8
0
 62
     0
380
     1
100
AcDbLine
 10
11.77110616483119
 20
5.764277508386129
 30
0.0
 11
10.37110616483116
 21
7.164277508386163
 31
0.0
  0
LINE
  5
FB1
330
F06
100
AcDbEntity
  8
0
 62
     0
380
     1
100
AcDbLine
 10
7.310383918605964
 20
10.22499975461133
 30
0.0
 11
6.197154160497575
 21
11.33822951271972
 31
0.0
  0
LINE
  5
FB2
330
F06
100
AcDbEntity
  8
0
 62
     0
380
     1
100
AcDbLine
 10
13.69610616483118
 20
3.839277508386146
 30
0.0
 11
12.56038391860596
 21
4.974999754611332
 31
0.0
  0
LINE
  5
FB3
330
F06
100
AcDbEntity
  8
0
 62
     0
380
     1
100
AcDbLine
 10
7.055237504798668
 20
10.03113336236524
 30
0.0
 11
5.9681077543772
 21
11.11826311278671
 31
0.0
  0
LINE
  5
FB4
330
F06
100
AcDbEntity
  8
0
 62
     0
380
     1
100
AcDbLine
 10
13.50223977258503
 20
3.584131094578879
 30
0.0
 11
10.37110616483119
 21
6.715264702332717
 31
0.0
  0
LINE
  5
FB5
330
F06
100
AcDbEntity
  8
0
 62
     0
380
     1
100
AcDbLine
 10
7.046106164831201
 20
9.591251896279231
 30
0.0
 11
5.791367153142658
 21
10.84599090796777
 31
0.0
  0
LINE
  5
FB6
330
F06
100
AcDbEntity
  8
0
 62
     0
380
     1
100
AcDbLine
 10
13.06235830649908
 20
3.574999754611354
 30
0.0
 11
10.37110616483122
 21
6.266251896279214
 31
0.0
  0
LINE
  5
FB7
330
F06
100
AcDbEntity
  8
0
 62
     0
380
     1
100
AcDbLine
 10
7.077174018898915
 20
9.111171236158014
 30
0.0
 11
5.675927101995796
 21
10.51241815306116
 31
0.0
  0
LINE
  5
FB8
330
F06
100
AcDbEntity
  8
0
 62
     0
380
     1
100
AcDbLine
 10
12.61334550044557
 20
3.574999754611383
 30
0.0
 11
10.37110616483119
 21
5.81723909022574
 31
0.0
  0
LINE
  5
FB9
330
F06
100
AcDbEntity
  8
0
 62
     0
380
     1
100
AcDbLine
 10
9.223294210442531
 20
6.51603823856098
 30
0.0
 11
5.646106164831223
 21
10.09322628417229
 31
0.0
  0
LINE
  5
FBA
330
F06
100
AcDbEntity
  8
0
 62
     0
380
     1
100
AcDbLine
 10
12.1376966508638
 20
3.60163579813971
 30
0.0
 11
10.39774220835951
 21
5.341590240643995
 31
0.0
  0
LINE
  5
FBB
330
F06
100
AcDbEntity
  8
0
 62
     0
380
     1
100
AcDbLine
 10
9.319241467485142
 20
5.971078175464924
 30
0.0
 11
5.646106164831167
 21
9.644213478118899
 31
0.0
  0
LINE
  5
FBC
330
F06
100
AcDbEntity
  8
0
 62
     0
380
     1
100
AcDbLine
 10
11.450792694563
 20
3.839526948387032
 30
0.0
 11
10.63563335860681
 21
4.654686284343256
 31
0.0
  0
LINE
  5
FBD
330
F06
100
AcDbEntity
  8
0
 62
     0
380
     1
100
AcDbLine
 10
9.321106164831206
 20
5.520200672065385
 30
0.0
 11
5.649888388542365
 21
9.191418448354198
 31
0.0
  0
LINE
  5
FBE
330
F06
100
AcDbEntity
  8
0
 62
     0
380
     1
100
AcDbLine
 10
9.321106164831178
 20
5.071187866011939
 30
0.0
 11
5.761533767704293
 21
8.630760263138796
 31
0.0
  0
LINE
  5
FBF
330
F06
100
AcDbEntity
  8
0
 62
     0
380
     1
100
AcDbLine
 10
9.28484616676522
 20
4.65843505802448
 30
0.0
 11
7.90315034495569
 21
6.040130879834009
 31
0.0
  0
LINE
  5
FC0
330
F06
100
AcDbEntity
  8
0
 62
     0
380
     1
100
AcDbLine
 10
9.163877197250798
 20
4.330391221485427
 30
0.0
 11
7.921106164831172
 21
5.573162253905053
 31
0.0
  0
LINE
  5
FC1
330
F06
100
AcDbEntity
  8
0
 62
     0
380
     1
100
AcDbLine
 10
8.982817573559913
 20
4.062438039122838
 30
0.0
 11
7.903156648680834
 21
5.142098964001917
 31
0.0
  0
LINE
  5
FC2
330
F06
100
AcDbEntity
  8
0
 62
     0
380
     1
100
AcDbLine
 10
8.749704387426476
 20
3.846538419202829
 30
0.0
 11
7.621243052017916
 21
4.974999754611417
 31
0.0
  0
LINE
  5
FC3
330
F06
100
AcDbEntity
  8
0
 62
     0
380
     1
100
AcDbLine
 10
8.46307216356007
 20
3.684157837015789
 30
0.0
 11
7.172230245964442
 21
4.974999754611388
 31
0.0
  0
LINE
  5
FC4
330
F06
100
AcDbEntity
  8
0
 62
     0
380
     1
100
AcDbLine
 10
8.110365869017101
 20
3.587851325505283
 30
0.0
 11
6.723217439911024
 21
4.97499975461136
 31
0.0
  0
LINE
  5
FC5
330
F06
100
AcDbEntity
  8
0
 62
     0
380
     1
100
AcDbLine
 10
7.674204633857584
 20
3.574999754611297
 30
0.0
 11
6.274204633857578
 21
4.974999754611332
 31
0.0
  0
LINE
  5
FC6
330
F06
100
AcDbEntity
  8
0
 62
     0
380
     1
100
AcDbLine
 10
7.22519182780411
 20
3.574999754611354
 30
0.0
 11
5.94852988039517
 21
4.851661702020322
 31
0.0
  0
LINE
  5
FC7
330
F06
100
AcDbEntity
  8
0
 62
     0
380
     1
100
AcDbLine
 10
6.776179021750664
 20
3.574999754611354
 30
0.0
 11
5.908606164831184
 21
4.442572611530835
 31
0.0
  0
LINE
  5
FC8
330
F06
100
AcDbEntity
  8
0
 62
     0
380
     1
100
AcDbLine
 10
6.327166215697189
 20
3.574999754611354
 30
0.0
 11
5.908606164831184
 21
3.99355980547736
 31
0.0
  0
LINE
  5
FC9
330
F06
100
AcDbEntity
  8
0
 62
     0
380
     1
100
AcDbLine
 10
34.31694980716466
 20
3.581565643170137
 30
0.0
 11
34.51454027627256
 21
3.77915611227803
 31
0.0
  0
LINE
  5
FCA
330
F06
100
AcDbEntity
  8
0
 62
     0
380
     1
100
AcDbLine
 10
33.86137111255243
 20
3.574999754611326
 30
0.0
 11
34.52110616483128
 21
4.234734806890173
 31
0.0
  0
LINE
  5
FCB
330
F06
100
AcDbEntity
  8
0
 62
     0
380
     1
100
AcDbLine
 10
33.41235830649899
 20
3.574999754611326
 30
0.0
 11
34.52110616483128
 21
4.683747612943619
 31
0.0
  0
LINE
  5
FCC
330
F06
100
AcDbEntity
  8
0
 62
     0
380
     1
100
AcDbLine
 10
33.13670494645712
 20
3.748359200622928
 30
0.0
 11
34.52110616483125
 21
5.132760418997094
 31
0.0
  0
LINE
  5
FCD
330
F06
100
AcDbEntity
  8
0
 62
     0
380
     1
100
AcDbLine
 10
33.12110616483122
 20
4.181773225050505
 30
0.0
 11
34.52110616483125
 21
5.581773225050511
 31
0.0
  0
LINE
  5
FCE
330
F06
100
AcDbEntity
  8
0
 62
     0
380
     1
100
AcDbLine
 10
33.12110616483125
 20
4.630786031103951
 30
0.0
 11
34.52110616483125
 21
6.030786031103986
 31
0.0
  0
LINE
  5
FCF
330
F06
100
AcDbEntity
  8
0
 62
     0
380
     1
100
AcDbLine
 10
33.12110616483122
 20
5.079798837157426
 30
0.0
 11
34.52110616483125
 21
6.47979883715746
 31
0.0
  0
LINE
  5
FD0
330
F06
100
AcDbEntity
  8
0
 62
     0
380
     1
100
AcDbLine
 10
33.12110616483122
 20
5.528811643210872
 30
0.0
 11
34.52110616483125
 21
6.928811643210906
 31
0.0
  0
LINE
  5
FD1
330
F06
100
AcDbEntity
  8
0
 62
     0
380
     1
100
AcDbLine
 10
31.33438859586386
 20
3.74209407424351
 30
0.0
 11
31.90401184519914
 21
4.311717323578818
 31
0.0
  0
LINE
  5
FD2
330
F06
100
AcDbEntity
  8
0
 62
     0
380
     1
100
AcDbLine
 10
33.12110616483122
 20
5.977824449264318
 30
0.0
 11
34.52110616483131
 21
7.37782444926438
 31
0.0
  0
LINE
  5
FD3
330
F06
100
AcDbEntity
  8
0
 62
     0
380
     1
100
AcDbLine
 10
30.71910451260246
 20
3.575822797035556
 30
0.0
 11
32.07028312240712
 21
4.92700140684019
 31
0.0
  0
LINE
  5
FD4
330
F06
100
AcDbEntity
  8
0
 62
     0
380
     1
100
AcDbLine
 10
33.12110616483122
 20
6.426837255317792
 30
0.0
 11
34.52110616483128
 21
7.826837255317855
 31
0.0
  0
LINE
  5
FD5
330
F06
100
AcDbEntity
  8
0
 62
     0
380
     1
100
AcDbLine
 10
30.26926866412475
 20
3.574999754611326
 30
0.0
 11
32.07110616483126
 21
5.376837255317809
 31
0.0
  0
LINE
  5
FD6
330
F06
100
AcDbEntity
  8
0
 62
     0
380
     1
100
AcDbLine
 10
33.12110616483122
 20
6.875850061371238
 30
0.0
 11
34.52110616483128
 21
8.275850061371301
 31
0.0
  0
LINE
  5
FD7
330
F06
100
AcDbEntity
  8
0
 62
     0
380
     1
100
AcDbLine
 10
29.82025585807131
 20
3.574999754611326
 30
0.0
 11
32.07110616483124
 21
5.825850061371284
 31
0.0
  0
LINE
  5
FD8
330
F06
100
AcDbEntity
  8
0
 62
     0
380
     1
100
AcDbLine
 10
33.12110616483128
 20
7.324862867424712
 30
0.0
 11
34.52110616483128
 21
8.724862867424747
 31
0.0
  0
LINE
  5
FD9
330
F06
100
AcDbEntity
  8
0
 62
     0
380
     1
100
AcDbLine
 10
29.37124305201789
 20
3.574999754611354
 30
0.0
 11
32.07110616483126
 21
6.274862867424729
 31
0.0
  0
LINE
  5
FDA
330
F06
100
AcDbEntity
  8
0
 62
     0
380
     1
100
AcDbLine
 10
30.6188105637907
 20
5.271580072437643
 30
0.0
 11
32.07110616483126
 21
6.723875673478175
 31
0.0
  0
LINE
  5
FDB
330
F06
100
AcDbEntity
  8
0
 62
     0
380
     1
100
AcDbLine
 10
33.12110616483125
 20
7.773875673478187
 30
0.0
 11
34.52110616483128
 21
9.173875673478221
 31
0.0
  0
LINE
  5
FDC
330
F06
100
AcDbEntity
  8
0
 62
     0
380
     1
100
AcDbLine
 10
28.92223024596439
 20
3.574999754611326
 30
0.0
 11
30.37452584700495
 21
5.027295355651858
 31
0.0
  0
LINE
  5
FDD
330
F06
100
AcDbEntity
  8
0
 62
     0
380
     1
100
AcDbLine
 10
30.6711061648312
 20
5.772888479531616
 30
0.0
 11
32.07110616483124
 21
7.17288847953165
 31
0.0
  0
LINE
  5
FDE
330
F06
100
AcDbEntity
  8
0
 62
     0
380
     1
100
AcDbLine
 10
33.12110616483125
 20
8.222888479531633
 30
0.0
 11
34.52110616483128
 21
9.622888479531667
 31
0.0
  0
LINE
  5
FDF
330
F06
100
AcDbEntity
  8
0
 62
     0
380
     1
100
AcDbLine
 10
28.52919231559955
 20
3.630974630299931
 30
0.0
 11
29.87321743991098
 21
4.97499975461136
 31
0.0
  0
LINE
  5
FE0
330
F06
100
AcDbEntity
  8
0
 62
     0
380
     1
100
AcDbLine
 10
30.67110616483123
 20
6.221901285585119
 30
0.0
 11
32.07110616483124
 21
7.621901285585096
 31
0.0
  0
LINE
  5
FE1
330
F06
100
AcDbEntity
  8
0
 62
     0
380
     1
100
AcDbLine
 10
33.12110616483122
 20
8.671901285585107
 30
0.0
 11
34.52110616483125
 21
10.07190128558514
 31
0.0
  0
LINE
  5
FE2
330
F06
100
AcDbEntity
  8
0
 62
     0
380
     1
100
AcDbLine
 10
28.21519888199447
 20
3.765994002748357
 30
0.0
 11
29.42464352667969
 21
4.975438647433577
 31
0.0
  0
LINE
  5
FE3
330
F06
100
AcDbEntity
  8
0
 62
     0
380
     1
100
AcDbLine
 10
30.67110616483126
 20
6.670914091638564
 30
0.0
 11
32.07110616483124
 21
8.070914091638542
 31
0.0
  0
LINE
  5
FE4
330
F06
100
AcDbEntity
  8
0
 62
     0
380
     1
100
AcDbLine
 10
33.12110616483125
 20
9.120914091638553
 30
0.0
 11
34.52110616483128
 21
10.52091409163856
 31
0.0
  0
LINE
  5
FE5
330
F06
100
AcDbEntity
  8
0
 62
     0
380
     1
100
AcDbLine
 10
27.95856894131194
 20
3.958376868119216
 30
0.0
 11
29.10290423232334
 21
5.102712159130646
 31
0.0
  0
LINE
  5
FE6
330
F06
100
AcDbEntity
  8
0
 62
     0
380
     1
100
AcDbLine
 10
30.67110616483126
 20
7.11992689769201
 30
0.0
 11
32.07110616483124
 21
8.519926897692016
 31
0.0
  0
LINE
  5
FE7
330
F06
100
AcDbEntity
  8
0
 62
     0
380
     1
100
AcDbLine
 10
33.12110616483125
 20
9.569926897691999
 30
0.0
 11
34.52110616483131
 21
10.96992689769206
 31
0.0
  0
LINE
  5
FE8
330
F06
100
AcDbEntity
  8
0
 62
     0
380
     1
100
AcDbLine
 10
27.75358685369937
 20
4.202407586560127
 30
0.0
 11
28.93428509311863
 21
5.383105825979413
 31
0.0
  0
LINE
  5
FE9
330
F06
100
AcDbEntity
  8
0
 62
     0
380
     1
100
AcDbLine
 10
30.67110616483123
 20
7.568939703745485
 30
0.0
 11
32.07110616483126
 21
8.968939703745519
 31
0.0
  0
LINE
  5
FEA
330
F06
100
AcDbEntity
  8
0
 62
     0
380
     1
100
AcDbLine
 10
33.12110616483122
 20
10.01893970374547
 30
0.0
 11
34.516031588056
 21
11.41386512697025
 31
0.0
  0
LINE
  5
FEB
330
F06
100
AcDbEntity
  8
0
 62
     0
380
     1
100
AcDbLine
 10
27.60362441448237
 20
4.501457953396624
 30
0.0
 11
28.92110616483123
 21
5.818939703745456
 31
0.0
  0
LINE
  5
FEC
330
F06
100
AcDbEntity
  8
0
 62
     0
380
     1
100
AcDbLine
 10
30.67110616483126
 20
8.017952509798902
 30
0.0
 11
32.0711061648313
 21
9.417952509798936
 31
0.0
  0
LINE
  5
FED
330
F06
100
AcDbEntity
  8
0
 62
     0
380
     1
100
AcDbLine
 10
33.12110616483128
 20
10.46795250979895
 30
0.0
 11
34.27747441551626
 21
11.62432076048392
 31
0.0
  0
LINE
  5
FEE
330
F06
100
AcDbEntity
  8
0
 62
     0
380
     1
100
AcDbLine
 10
27.52491764700415
 20
4.871763991971818
 30
0.0
 11
28.92110616483123
 21
6.267952509798902
 31
0.0
  0
LINE
  5
FEF
330
F06
100
AcDbEntity
  8
0
 62
     0
380
     1
100
AcDbLine
 10
30.67110616483123
 20
8.466965315852377
 30
0.0
 11
32.07110616483126
 21
9.866965315852411
 31
0.0
  0
LINE
  5
FF0
330
F06
100
AcDbEntity
  8
0
 62
     0
380
     1
100
AcDbLine
 10
33.12110616483128
 20
10.91696531585239
 30
0.0
 11
33.82914060359022
 21
11.62499975461136
 31
0.0
  0
LINE
  5
FF1
330
F06
100
AcDbEntity
  8
0
 62
     0
380
     1
100
AcDbLine
 10
27.52110616483125
 20
5.316965315852371
 30
0.0
 11
28.92110616483126
 21
6.716965315852405
 31
0.0
  0
LINE
  5
FF2
330
F06
100
AcDbEntity
  8
0
 62
     0
380
     1
100
AcDbLine
 10
30.67110616483123
 20
8.915978121905851
 30
0.0
 11
32.07110616483126
 21
10.31597812190585
 31
0.0
  0
LINE
  5
FF3
330
F06
100
AcDbEntity
  8
0
 62
     0
380
     1
100
AcDbLine
 10
27.52110616483122
 20
5.765978121905845
 30
0.0
 11
28.92110616483126
 21
7.16597812190588
 31
0.0
  0
LINE
  5
FF4
330
F06
100
AcDbEntity
  8
0
 62
     0
380
     1
100
AcDbLine
 10
33.12112952220494
 20
11.36600147927956
 30
0.0
 11
33.38010444016308
 21
11.62497639723767
 31
0.0
  0
LINE
  5
FF5
330
F06
100
AcDbEntity
  8
0
 62
     0
380
     1
100
AcDbLine
 10
25.36032834947523
 20
3.605200306549818
 30
0.0
 11
26.44090561289281
 21
4.685777569967427
 31
0.0
  0
LINE
  5
FF6
330
F06
100
AcDbEntity
  8
0
 62
     0
380
     1
100
AcDbLine
 10
27.52110616483122
 20
6.214990927959291
 30
0.0
 11
28.92110616483126
 21
7.614990927959325
 31
0.0
  0
LINE
  5
FF7
330
F06
100
AcDbEntity
  8
0
 62
     0
380
     1
100
AcDbLine
 10
30.67110616483123
 20
9.364990927959297
 30
0.0
 11
32.07110616483124
 21
10.76499092795933
 31
0.0
  0
LINE
  5
FF8
330
F06
100
AcDbEntity
  8
0
 62
     0
380
     1
100
AcDbLine
 10
24.88111499148329
 20
3.574999754611383
 30
0.0
 11
26.47110616483121
 21
5.164990927959308
 31
0.0
  0
LINE
  5
FF9
330
F06
100
AcDbEntity
  8
0
 62
     0
380
     1
100
AcDbLine
 10
27.52110616483122
 20
6.664003734012737
 30
0.0
 11
28.92110616483126
 21
8.064003734012771
 31
0.0
  0
LINE
  5
FFA
330
F06
100
AcDbEntity
  8
0
 62
     0
380
     1
100
AcDbLine
 10
30.67110616483123
 20
9.814003734012743
 30
0.0
 11
32.07110616483126
 21
11.21400373401278
 31
0.0
  0
LINE
  5
FFB
330
F06
100
AcDbEntity
  8
0
 62
     0
380
     1
100
AcDbLine
 10
24.43210218542984
 20
3.574999754611354
 30
0.0
 11
26.47110616483124
 21
5.614003734012726
 31
0.0
  0
LINE
  5
FFC
330
F06
100
AcDbEntity
  8
0
 62
     0
380
     1
100
AcDbLine
 10
27.52110616483122
 20
7.113016540066212
 30
0.0
 11
28.92110616483126
 21
8.513016540066217
 31
0.0
  0
LINE
  5
FFD
330
F06
100
AcDbEntity
  8
0
 62
     0
380
     1
100
AcDbLine
 10
30.67110616483123
 20
10.26301654006619
 30
0.0
 11
31.97423743741419
 21
11.56614781264917
 31
0.0
  0
LINE
  5
FFE
330
F06
100
AcDbEntity
  8
0
 62
     0
380
     1
100
AcDbLine
 10
23.9830893793764
 20
3.574999754611383
 30
0.0
 11
26.46394686462475
 21
6.055857239859733
 31
0.0
  0
LINE
  5
FFF
330
F06
100
AcDbEntity
  8
0
 62
     0
380
     1
100
AcDbLine
 10
27.52110616483125
 20
7.562029346119715
 30
0.0
 11
28.92110616483123
 21
8.962029346119692
 31
0.0
  0
LINE
  5
1000
330
F06
100
AcDbEntity
  8
0
 62
     0
380
     1
100
AcDbLine
 10
30.6711061648312
 20
10.71202934611966
 30
0.0
 11
31.58407657332293
 21
11.62499975461139
 31
0.0
  0
LINE
  5
1001
330
F06
100
AcDbEntity
  8
0
 62
     0
380
     1
100
AcDbLine
 10
23.53407657332292
 20
3.574999754611383
 30
0.0
 11
26.39649067931038
 21
6.437413860598809
 31
0.0
  0
LINE
  5
1002
330
F06
100
AcDbEntity
  8
0
 62
     0
380
     1
100
AcDbLine
 10
27.52110616483128
 20
8.011042152173132
 30
0.0
 11
28.92110616483126
 21
9.411042152173138
 31
0.0
  0
LINE
  5
1003
330
F06
100
AcDbEntity
  8
0
 62
     0
380
     1
100
AcDbLine
 10
25.07110616483129
 20
5.561042152173143
 30
0.0
 11
26.2761969508511
 21
6.766132938192953
 31
0.0
  0
LINE
  5
1004
330
F06
100
AcDbEntity
  8
0
 62
     0
380
     1
100
AcDbLine
 10
30.67110616483123
 20
11.16104215217311
 30
0.0
 11
31.13506376726951
 21
11.62499975461139
 31
0.0
  0
LINE
  5
1005
330
F06
100
AcDbEntity
  8
0
 62
     0
380
     1
100
AcDbLine
 10
23.14919144383503
 20
3.639127431176916
 30
0.0
 11
24.48506376726948
 21
4.97499975461136
 31
0.0
  0
LINE
  5
1006
330
F06
100
AcDbEntity
  8
0
 62
     0
380
     1
100
AcDbLine
 10
25.06117087726759
 20
6.000119670662911
 30
0.0
 11
26.11444729842083
 21
7.053396091816154
 31
0.0
  0
LINE
  5
1007
330
F06
100
AcDbEntity
  8
0
 62
     0
380
     1
100
AcDbLine
 10
27.52110616483125
 20
8.460054958226606
 30
0.0
 11
28.92110616483123
 21
9.860054958226584
 31
0.0
  0
LINE
  5
1008
330
F06
100
AcDbEntity
  8
0
 62
     0
380
     1
100
AcDbLine
 10
23.05860616483125
 20
3.997554958226572
 30
0.0
 11
24.03605096121601
 21
4.97499975461136
 31
0.0
  0
LINE
  5
1009
330
F06
100
AcDbEntity
  8
0
 62
     0
380
     1
100
AcDbLine
 10
24.92397845869815
 20
6.311940058146973
 30
0.0
 11
25.91651173945692
 21
7.304473338905751
 31
0.0
  0
LINE
  5
100A
330
F06
100
AcDbEntity
  8
0
 62
     0
380
     1
100
AcDbLine
 10
27.52110616483125
 20
8.909067764280052
 30
0.0
 11
28.92110616483123
 21
10.30906776428006
 31
0.0
  0
LINE
  5
100B
330
F06
100
AcDbEntity
  8
0
 62
     0
380
     1
100
AcDbLine
 10
23.05860616483122
 20
4.446567764280047
 30
0.0
 11
23.58703815516256
 21
4.974999754611388
 31
0.0
  0
LINE
  5
100C
330
F06
100
AcDbEntity
  8
0
 62
     0
380
     1
100
AcDbLine
 10
27.52110616483125
 20
9.358080570333498
 30
0.0
 11
28.92110616483126
 21
10.75808057033347
 31
0.0
  0
LINE
  5
100D
330
F06
100
AcDbEntity
  8
0
 62
     0
380
     1
100
AcDbLine
 10
24.70334101013961
 20
6.540315415641828
 30
0.0
 11
25.69329050380077
 21
7.530264909302985
 31
0.0
  0
LINE
  5
100E
330
F06
100
AcDbEntity
  8
0
 62
     0
380
     1
100
AcDbLine
 10
24.47883460711287
 20
6.764821818668565
 30
0.0
 11
25.46878410077406
 21
7.754771312329779
 31
0.0
  0
LINE
  5
100F
330
F06
100
AcDbEntity
  8
0
 62
     0
380
     1
100
AcDbLine
 10
27.52110616483125
 20
9.807093376386973
 30
0.0
 11
28.92110616483123
 21
11.20709337638695
 31
0.0
  0
LINE
  5
1010
330
F06
100
AcDbEntity
  8
0
 62
     0
380
     1
100
AcDbLine
 10
21.28901254305564
 20
3.574999754611354
 30
0.0
 11
21.74610616483122
 21
4.03209337638691
 31
0.0
  0
LINE
  5
1011
330
F06
100
AcDbEntity
  8
0
 62
     0
380
     1
100
AcDbLine
 10
24.25432820408614
 20
6.989328221695302
 30
0.0
 11
25.24427769774732
 21
7.979277715356516
 31
0.0
  0
LINE
  5
1012
330
F06
100
AcDbEntity
  8
0
 62
     0
380
     1
100
AcDbLine
 10
27.52110616483122
 20
10.25610618244042
 30
0.0
 11
28.8280157107819
 21
11.56301572839106
 31
0.0
  0
LINE
  5
1013
330
F06
100
AcDbEntity
  8
0
 62
     0
380
     1
100
AcDbLine
 10
20.83999973700216
 20
3.574999754611354
 30
0.0
 11
21.74610616483125
 21
4.481106182440413
 31
0.0
  0
LINE
  5
1014
330
F06
100
AcDbEntity
  8
0
 62
     0
380
     1
100
AcDbLine
 10
24.0298218010594
 20
7.213834624722039
 30
0.0
 11
25.01977129472058
 21
8.203784118383254
 31
0.0
  0
LINE
  5
1015
330
F06
100
AcDbEntity
  8
0
 62
     0
380
     1
100
AcDbLine
 10
27.52110616483122
 20
10.70511898849389
 30
0.0
 11
28.44098693094873
 21
11.62499975461139
 31
0.0
  0
LINE
  5
1016
330
F06
100
AcDbEntity
  8
0
 62
     0
380
     1
100
AcDbLine
 10
20.44679249987971
 20
3.630805323542347
 30
0.0
 11
21.74610616483122
 21
4.930118988493887
 31
0.0
  0
LINE
  5
1017
330
F06
100
AcDbEntity
  8
0
 62
     0
380
     1
100
AcDbLine
 10
23.80531539803269
 20
7.438341027748748
 30
0.0
 11
24.79526489169388
 21
8.428290521409962
 31
0.0
  0
LINE
  5
1018
330
F06
100
AcDbEntity
  8
0
 62
     0
380
     1
100
AcDbLine
 10
27.52110616483128
 20
11.15413179454737
 30
0.0
 11
27.99197412489525
 21
11.62499975461134
 31
0.0
  0
LINE
  5
1019
330
F06
100
AcDbEntity
  8
0
 62
     0
380
     1
100
AcDbLine
 10
20.34610616483124
 20
3.979131794547328
 30
0.0
 11
21.74610616483125
 21
5.379131794547305
 31
0.0
  0
LINE
  5
101A
330
F06
100
AcDbEntity
  8
0
 62
     0
380
     1
100
AcDbLine
 10
23.58080899500595
 20
7.662847430775485
 30
0.0
 11
24.57075848866714
 21
8.6527969244367
 31
0.0
  0
LINE
  5
101B
330
F06
100
AcDbEntity
  8
0
 62
     0
380
     1
100
AcDbLine
 10
20.34610616483124
 20
4.428144600600802
 30
0.0
 11
21.74610616483122
 21
5.828144600600779
 31
0.0
  0
LINE
  5
101C
330
F06
100
AcDbEntity
  8
0
 62
     0
380
     1
100
AcDbLine
 10
23.35731704448528
 20
7.88836828630832
 30
0.0
 11
24.3493038111763
 21
8.880355052999306
 31
0.0
  0
LINE
  5
101D
330
F06
100
AcDbEntity
  8
0
 62
     0
380
     1
100
AcDbLine
 10
20.34610616483124
 20
4.877157406654248
 30
0.0
 11
21.74610616483122
 21
6.277157406654254
 31
0.0
  0
LINE
  5
101E
330
F06
100
AcDbEntity
  8
0
 62
     0
380
     1
100
AcDbLine
 10
25.69394851278833
 20
10.22499975461136
 30
0.0
 11
26.20860616483125
 21
10.73965740665426
 31
0.0
  0
LINE
  5
101F
330
F06
100
AcDbEntity
  8
0
 62
     0
380
     1
100
AcDbLine
 10
19.09977805247612
 20
3.630829294299132
 30
0.0
 11
19.14460423320363
 21
3.675655475026673
 31
0.0
  0
LINE
  5
1020
330
F06
100
AcDbEntity
  8
0
 62
     0
380
     1
100
AcDbLine
 10
23.1583159550743
 20
8.138380002950754
 30
0.0
 11
24.2081330937836
 21
9.188197141660054
 31
0.0
  0
LINE
  5
1021
330
F06
100
AcDbEntity
  8
0
 62
     0
380
     1
100
AcDbLine
 10
20.34610616483124
 20
5.326170212707694
 30
0.0
 11
21.74610616483125
 21
6.726170212707671
 31
0.0
  0
LINE
  5
1022
330
F06
100
AcDbEntity
  8
0
 62
     0
380
     1
100
AcDbLine
 10
25.24493570673494
 20
10.22499975461139
 30
0.0
 11
26.20860616483125
 21
11.1886702127077
 31
0.0
  0
LINE
  5
1023
330
F06
100
AcDbEntity
  8
0
 62
     0
380
     1
100
AcDbLine
 10
18.5949357067349
 20
3.574999754611354
 30
0.0
 11
19.12782525488816
 21
4.107889302764618
 31
0.0
  0
LINE
  5
1024
330
F06
100
AcDbEntity
  8
0
 62
     0
380
     1
100
AcDbLine
 10
22.99539882287596
 20
8.424475676805883
 30
0.0
 11
24.19610616483129
 21
9.625183018761219
 31
0.0
  0
LINE
  5
1025
330
F06
100
AcDbEntity
  8
0
 62
     0
380
     1
100
AcDbLine
 10
20.34610616483124
 20
5.77518301876114
 30
0.0
 11
21.74610616483122
 21
7.175183018761146
 31
0.0
  0
LINE
  5
1026
330
F06
100
AcDbEntity
  8
0
 62
     0
380
     1
100
AcDbLine
 10
24.79592290068143
 20
10.22499975461136
 30
0.0
 11
26.1252716989323
 21
11.55434855286222
 31
0.0
  0
LINE
  5
1027
330
F06
100
AcDbEntity
  8
0
 62
     0
380
     1
100
AcDbLine
 10
18.1459229006814
 20
3.574999754611326
 30
0.0
 11
19.02006218143532
 21
4.449139035365249
 31
0.0
  0
LINE
  5
1028
330
F06
100
AcDbEntity
  8
0
 62
     0
380
     1
100
AcDbLine
 10
20.34610616483121
 20
6.224195824814614
 30
0.0
 11
21.74610616483122
 21
7.624195824814592
 31
0.0
  0
LINE
  5
1029
330
F06
100
AcDbEntity
  8
0
 62
     0
380
     1
100
AcDbLine
 10
22.87370779154091
 20
8.751797451524311
 30
0.0
 11
25.74691009462799
 21
11.62499975461139
 31
0.0
  0
LINE
  5
102A
330
F06
100
AcDbEntity
  8
0
 62
     0
380
     1
100
AcDbLine
 10
17.84991574535391
 20
3.728005405337313
 30
0.0
 11
18.91229910798248
 21
4.790388767965879
 31
0.0
  0
LINE
  5
102B
330
F06
100
AcDbEntity
  8
0
 62
     0
380
     1
100
AcDbLine
 10
20.34610616483121
 20
6.673208630868089
 30
0.0
 11
21.74610616483119
 21
8.073208630868066
 31
0.0
  0
LINE
  5
102C
330
F06
100
AcDbEntity
  8
0
 62
     0
380
     1
100
AcDbLine
 10
22.80435436199807
 20
9.131456828034941
 30
0.0
 11
25.29789728857455
 21
11.62499975461139
 31
0.0
  0
LINE
  5
102D
330
F06
100
AcDbEntity
  8
0
 62
     0
380
     1
100
AcDbLine
 10
17.74053603452961
 20
4.067638500566488
 30
0.0
 11
18.80453603452963
 21
5.131638500566509
 31
0.0
  0
LINE
  5
102E
330
F06
100
AcDbEntity
  8
0
 62
     0
380
     1
100
AcDbLine
 10
20.34610616483124
 20
7.122221436921506
 30
0.0
 11
21.74610616483122
 21
8.522221436921512
 31
0.0
  0
LINE
  5
102F
330
F06
100
AcDbEntity
  8
0
 62
     0
380
     1
100
AcDbLine
 10
22.79610616483126
 20
9.572221436921552
 30
0.0
 11
24.8488844825211
 21
11.62499975461139
 31
0.0
  0
LINE
  5
1030
330
F06
100
AcDbEntity
  8
0
 62
     0
380
     1
100
AcDbLine
 10
17.63277296107679
 20
4.40888823316709
 30
0.0
 11
18.69677296107684
 21
5.472888233167111
 31
0.0
  0
LINE
  5
1031
330
F06
100
AcDbEntity
  8
0
 62
     0
380
     1
100
AcDbLine
 10
20.34610616483127
 20
7.571234242975009
 30
0.0
 11
21.74610616483122
 21
8.971234242974958
 31
0.0
  0
LINE
  5
1032
330
F06
100
AcDbEntity
  8
0
 62
     0
380
     1
100
AcDbLine
 10
22.79610616483126
 20
10.021234242975
 30
0.0
 11
24.39987167646766
 21
11.62499975461139
 31
0.0
  0
LINE
  5
1033
330
F06
100
AcDbEntity
  8
0
 62
     0
380
     1
100
AcDbLine
 10
17.52500988762395
 20
4.75013796576772
 30
0.0
 11
18.58900988762403
 21
5.814137965767798
 31
0.0
  0
LINE
  5
1034
330
F06
100
AcDbEntity
  8
0
 62
     0
380
     1
100
AcDbLine
 10
20.34610616483124
 20
8.020247049028483
 30
0.0
 11
21.74610616483125
 21
9.420247049028461
 31
0.0
  0
LINE
  5
1035
330
F06
100
AcDbEntity
  8
0
 62
     0
380
     1
100
AcDbLine
 10
17.4172468141711
 20
5.09138769836835
 30
0.0
 11
18.48124681417116
 21
6.155387698368372
 31
0.0
  0
LINE
  5
1036
330
F06
100
AcDbEntity
  8
0
 62
     0
380
     1
100
AcDbLine
 10
22.82276449989183
 20
10.49690538408907
 30
0.0
 11
23.92420053535349
 21
11.59834141955073
 31
0.0
  0
LINE
  5
1037
330
F06
100
AcDbEntity
  8
0
 62
     0
380
     1
100
AcDbLine
 10
15.90085887041411
 20
3.574999754611354
 30
0.0
 11
16.3211061648312
 21
3.995247049028449
 31
0.0
  0
LINE
  5
1038
330
F06
100
AcDbEntity
  8
0
 62
     0
380
     1
100
AcDbLine
 10
17.30948374071835
 20
5.432637430969009
 30
0.0
 11
18.37348374071834
 21
6.496637430969002
 31
0.0
  0
LINE
  5
1039
330
F06
100
AcDbEntity
  8
0
 62
     0
380
     1
100
AcDbLine
 10
20.34610616483127
 20
8.469259855081901
 30
0.0
 11
21.74610616483125
 21
9.869259855081907
 31
0.0
  0
LINE
  5
103A
330
F06
100
AcDbEntity
  8
0
 62
     0
380
     1
100
AcDbLine
 10
15.45184606436069
 20
3.574999754611326
 30
0.0
 11
16.32110616483126
 21
4.444259855081924
 31
0.0
  0
LINE
  5
103B
330
F06
100
AcDbEntity
  8
0
 62
     0
380
     1
100
AcDbLine
 10
17.20172066726547
 20
5.773887163569582
 30
0.0
 11
18.2657206672655
 21
6.837887163569632
 31
0.0
  0
LINE
  5
103C
330
F06
100
AcDbEntity
  8
0
 62
     0
380
     1
100
AcDbLine
 10
20.34610616483124
 20
8.918272661135375
 30
0.0
 11
21.74610616483125
 21
10.31827266113535
 31
0.0
  0
LINE
  5
103D
330
F06
100
AcDbEntity
  8
0
 62
     0
380
     1
100
AcDbLine
 10
15.04340813213287
 20
3.615574628437002
 30
0.0
 11
16.32110616483126
 21
4.893272661135398
 31
0.0
  0
LINE
  5
103E
330
F06
100
AcDbEntity
  8
0
 62
     0
380
     1
100
AcDbLine
 10
17.09395759381263
 20
6.115136896170213
 30
0.0
 11
18.15795759381265
 21
7.179136896170263
 31
0.0
  0
LINE
  5
103F
330
F06
100
AcDbEntity
  8
0
 62
     0
380
     1
100
AcDbLine
 10
20.34610616483124
 20
9.36728546718885
 30
0.0
 11
21.74610616483122
 21
10.76728546718882
 31
0.0
  0
LINE
  5
1040
330
F06
100
AcDbEntity
  8
0
 62
     0
380
     1
100
AcDbLine
 10
14.92110616483123
 20
3.94228546718881
 30
0.0
 11
16.32110616483126
 21
5.342285467188844
 31
0.0
  0
LINE
  5
1041
330
F06
100
AcDbEntity
  8
0
 62
     0
380
     1
100
AcDbLine
 10
16.98619452035982
 20
6.456386628770815
 30
0.0
 11
18.05019452035989
 21
7.520386628770893
 31
0.0
  0
LINE
  5
1042
330
F06
100
AcDbEntity
  8
0
 62
     0
380
     1
100
AcDbLine
 10
20.34610616483127
 20
9.816298273242267
 30
0.0
 11
21.74610616483125
 21
11.21629827324227
 31
0.0
  0
LINE
  5
1043
330
F06
100
AcDbEntity
  8
0
 62
     0
380
     1
100
AcDbLine
 10
14.92110616483123
 20
4.391298273242256
 30
0.0
 11
16.32110616483126
 21
5.79129827324229
 31
0.0
  0
LINE
  5
1044
330
F06
100
AcDbEntity
  8
0
 62
     0
380
     1
100
AcDbLine
 10
16.86879512687395
 20
6.788000041338449
 30
0.0
 11
18.18394216083939
 21
8.103147075303894
 31
0.0
  0
LINE
  5
1045
330
F06
100
AcDbEntity
  8
0
 62
     0
380
     1
100
AcDbLine
 10
20.34610616483124
 20
10.26531107929574
 30
0.0
 11
21.64796845358202
 21
11.56717336804649
 31
0.0
  0
LINE
  5
1046
330
F06
100
AcDbEntity
  8
0
 62
     0
380
     1
100
AcDbLine
 10
14.92110616483123
 20
4.84031107929573
 30
0.0
 11
16.32110616483126
 21
6.240311079295736
 31
0.0
  0
LINE
  5
1047
330
F06
100
AcDbEntity
  8
0
 62
     0
380
     1
100
AcDbLine
 10
16.52520244194025
 20
6.893420162458227
 30
0.0
 11
18.39117884055639
 21
8.759396561074368
 31
0.0
  0
LINE
  5
1048
330
F06
100
AcDbEntity
  8
0
 62
     0
380
     1
100
AcDbLine
 10
14.92110616483123
 20
5.289323885349176
 30
0.0
 11
16.32768575698438
 21
6.695903477502326
 31
0.0
  0
LINE
  5
1049
330
F06
100
AcDbEntity
  8
0
 62
     0
380
     1
100
AcDbLine
 10
20.34610616483124
 20
10.71432388534919
 30
0.0
 11
21.25678203409342
 21
11.62499975461139
 31
0.0
  0
LINE
  5
104A
330
F06
100
AcDbEntity
  8
0
 62
     0
380
     1
100
AcDbLine
 10
13.20678203409341
 20
3.574999754611354
 30
0.0
 11
13.69610616483123
 21
4.06432388534921
 31
0.0
  0
LINE
  5
104B
330
F06
100
AcDbEntity
  8
0
 62
     0
380
     1
100
AcDbLine
 10
14.9211061648312
 20
5.738336691402651
 30
0.0
 11
18.59841552027336
 21
9.415646046844813
 31
0.0
  0
LINE
  5
104C
330
F06
100
AcDbEntity
  8
0
 62
     0
380
     1
100
AcDbLine
 10
20.34610616483121
 20
11.16333669140266
 30
0.0
 11
20.80776922803992
 21
11.62499975461136
 31
0.0
  0
LINE
  5
104D
330
F06
100
AcDbEntity
  8
0
 62
     0
380
     1
100
AcDbLine
 10
12.75776922803993
 20
3.574999754611383
 30
0.0
 11
13.69610616483126
 21
4.513336691402713
 31
0.0
  0
LINE
  5
104E
330
F06
100
AcDbEntity
  8
0
 62
     0
380
     1
100
AcDbLine
 10
14.92110616483123
 20
6.187349497456068
 30
0.0
 11
18.80565219999042
 21
10.07189553261528
 31
0.0
  0
LINE
  5
104F
330
F06
100
AcDbEntity
  8
0
 62
     0
380
     1
100
AcDbLine
 10
12.31459673416154
 20
3.580840066786407
 30
0.0
 11
13.62543902302815
 21
4.891682355652989
 31
0.0
  0
LINE
  5
1050
330
F06
100
AcDbEntity
  8
0
 62
     0
380
     1
100
AcDbLine
 10
14.9211061648312
 20
6.636362303509542
 30
0.0
 11
16.58474361593303
 21
8.299999754611377
 31
0.0
  0
LINE
  5
1051
330
F06
100
AcDbEntity
  8
0
 62
     0
380
     1
100
AcDbLine
 10
16.96673503355347
 20
8.681991172231818
 30
0.0
 11
19.01288887970739
 21
10.72814501838573
 31
0.0
  0
LINE
  5
1052
330
F06
100
AcDbEntity
  8
0
 62
     0
380
     1
100
AcDbLine
 10
11.93051647543805
 20
3.645772614116367
 30
0.0
 11
13.25974361593302
 21
4.97499975461136
 31
0.0
  0
LINE
  5
1053
330
F06
100
AcDbEntity
  8
0
 62
     0
380
     1
100
AcDbLine
 10
14.9211061648312
 20
7.085375109563017
 30
0.0
 11
16.33010145018537
 21
8.494370394917154
 31
0.0
  0
LINE
  5
1054
330
F06
100
AcDbEntity
  8
0
 62
     0
380
     1
100
AcDbLine
 10
17.17397171327045
 20
9.338240658002234
 30
0.0
 11
19.20042460560805
 21
11.36469355033986
 31
0.0
  0
LINE
  5
1055
330
F06
100
AcDbEntity
  8
0
 62
     0
380
     1
100
AcDbLine
 10
11.59994934702484
 20
3.764218291756662
 30
0.0
 11
12.81073080987957
 21
4.97499975461136
 31
0.0
  0
LINE
  5
1056
330
F06
100
AcDbEntity
  8
0
 62
     0
380
     1
100
AcDbLine
 10
14.92110616483123
 20
7.534387915616434
 30
0.0
 11
16.32110616483129
 21
8.934387915616497
 31
0.0
  0
LINE
  5
1057
330
F06
100
AcDbEntity
  8
0
 62
     0
380
     1
100
AcDbLine
 10
17.38120839298742
 20
9.994490143772651
 30
0.0
 11
19.00341866932345
 21
11.61670042010868
 31
0.0
  0
LINE
  5
1058
330
F06
100
AcDbEntity
  8
0
 62
     0
380
     1
100
AcDbLine
 10
11.3111477049427
 20
3.924429455727903
 30
0.0
 11
12.36917863418912
 21
4.982460384974359
 31
0.0
  0
LINE
  5
1059
330
F06
100
AcDbEntity
  8
0
 62
     0
380
     1
100
AcDbLine
 10
14.9211061648312
 20
7.983400721669909
 30
0.0
 11
16.32110616483126
 21
9.383400721669971
 31
0.0
  0
LINE
  5
105A
330
F06
100
AcDbEntity
  8
0
 62
     0
380
     1
100
AcDbLine
 10
17.58844507270439
 20
10.65073962954307
 30
0.0
 11
18.56270519777266
 21
11.62499975461136
 31
0.0
  0
LINE
  5
105B
330
F06
100
AcDbEntity
  8
0
 62
     0
380
     1
100
AcDbLine
 10
11.05867022175167
 20
4.120964778590348
 30
0.0
 11
12.05202056367997
 21
5.114315120518654
 31
0.0
  0
LINE
  5
105C
330
F06
100
AcDbEntity
  8
0
 62
     0
380
     1
100
AcDbLine
 10
14.9211061648312
 20
8.432413527723355
 30
0.0
 11
16.32110616483126
 21
9.832413527723446
 31
0.0
  0
LINE
  5
105D
330
F06
100
AcDbEntity
  8
0
 62
     0
380
     1
100
AcDbLine
 10
13.25192323071945
 20
6.763230593611638
 30
0.0
 11
13.83287532583099
 21
7.344182688723179
 31
0.0
  0
LINE
  5
105E
330
F06
100
AcDbEntity
  8
0
 62
     0
380
     1
100
AcDbLine
 10
17.79568175242133
 20
11.30698911531351
 30
0.0
 11
18.11369239171918
 21
11.62499975461136
 31
0.0
  0
LINE
  5
105F
330
F06
100
AcDbEntity
  8
0
 62
     0
380
     1
100
AcDbLine
 10
10.84045168508675
 20
4.35175904797893
 30
0.0
 11
11.84689508804388
 21
5.358202450936062
 31
0.0
  0
LINE
  5
1060
330
F06
100
AcDbEntity
  8
0
 62
     0
380
     1
100
AcDbLine
 10
12.78943680990454
 20
6.7497569788502
 30
0.0
 11
13.84634894059243
 21
7.806669109538063
 31
0.0
  0
LINE
  5
1061
330
F06
100
AcDbEntity
  8
0
 62
     0
380
     1
100
AcDbLine
 10
14.92110616483123
 20
8.881426333776857
 30
0.0
 11
16.32110616483126
 21
10.28142633377689
 31
0.0
  0
LINE
  5
1062
330
F06
100
AcDbEntity
  8
0
 62
     0
380
     1
100
AcDbLine
 10
10.65694207261526
 20
4.617262241560894
 30
0.0
 11
11.77110616483122
 21
5.73142633377688
 31
0.0
  0
LINE
  5
1063
330
F06
100
AcDbEntity
  8
0
 62
     0
380
     1
100
AcDbLine
 10
12.48236352519444
 20
6.891696500193489
 30
0.0
 11
13.70440941924911
 21
8.113742394248191
 31
0.0
  0
LINE
  5
1064
330
F06
100
AcDbEntity
  8
0
 62
     0
380
     1
100
AcDbLine
 10
14.92110616483123
 20
9.330439139830303
 30
0.0
 11
16.32110616483126
 21
10.73043913983034
 31
0.0
  0
LINE
  5
1065
330
F06
100
AcDbEntity
  8
0
 62
     0
380
     1
100
AcDbLine
 10
10.51128331765289
 20
4.92061629265197
 30
0.0
 11
11.77110616483122
 21
6.180439139830298
 31
0.0
  0
LINE
  5
1066
330
F06
100
AcDbEntity
  8
0
 62
     0
380
     1
100
AcDbLine
 10
12.26338356169958
 20
7.121729342752132
 30
0.0
 11
13.4743765766905
 21
8.332722357743023
 31
0.0
  0
LINE
  5
1067
330
F06
100
AcDbEntity
  8
0
 62
     0
380
     1
100
AcDbLine
 10
14.92110616483123
 20
9.779451945883778
 30
0.0
 11
16.32110616483126
 21
11.17945194588378
 31
0.0
  0
LINE
  5
1068
330
F06
100
AcDbEntity
  8
0
 62
     0
380
     1
100
AcDbLine
 10
10.41071463556557
 20
5.269060416618117
 30
0.0
 11
11.77110616483122
 21
6.629451945883772
 31
0.0
  0
LINE
  5
1069
330
F06
100
AcDbEntity
  8
0
 62
     0
380
     1
100
AcDbLine
 10
12.1353581954954
 20
7.442716782601394
 30
0.0
 11
13.15338913684121
 21
8.460747723947235
 31
0.0
  0
LINE
  5
106A
330
F06
100
AcDbEntity
  8
0
 62
     0
380
     1
100
AcDbLine
 10
10.37110616483119
 20
5.678464751937212
 30
0.0
 11
11.77110616483122
 21
7.078464751937218
 31
0.0
  0
LINE
  5
106B
330
F06
100
AcDbEntity
  8
0
 62
     0
380
     1
100
AcDbLine
 10
14.92110616483123
 20
10.22846475193722
 30
0.0
 11
16.24248111065367
 21
11.54983969775969
 31
0.0
  0
LINE
  5
106C
330
F06
100
AcDbEntity
  8
0
 62
     0
380
     1
100
AcDbLine
 10
8.328107785893394
 20
3.635466372999417
 30
0.0
 11
9.260639546443258
 21
4.567998133549281
 31
0.0
  0
LINE
  5
106D
330
F06
100
AcDbEntity
  8
0
 62
     0
380
     1
100
AcDbLine
 10
12.19456473723579
 20
7.950936130395234
 30
0.0
 11
12.6451697890474
 21
8.401541182206841
 31
0.0
  0
LINE
  5
106E
330
F06
100
AcDbEntity
  8
0
 62
     0
380
     1
100
AcDbLine
 10
10.37110616483119
 20
6.12747755799063
 30
0.0
 11
11.77110616483128
 21
7.527477557990692
 31
0.0
  0
LINE
  5
106F
330
F06
100
AcDbEntity
  8
0
 62
     0
380
     1
100
AcDbLine
 10
14.92110616483123
 20
10.67747755799067
 30
0.0
 11
15.86862836145192
 21
11.62499975461136
 31
0.0
  0
LINE
  5
1070
330
F06
100
AcDbEntity
  8
0
 62
     0
380
     1
100
AcDbLine
 10
7.818628361451914
 20
3.574999754611354
 30
0.0
 11
9.321106164831292
 21
5.077477557990704
 31
0.0
  0
LINE
  5
1071
330
F06
100
AcDbEntity
  8
0
 62
     0
380
     1
100
AcDbLine
 10
10.37110616483119
 20
6.576490364044104
 30
0.0
 11
11.77110616483125
 21
7.976490364044167
 31
0.0
  0
LINE
  5
1072
330
F06
100
AcDbEntity
  8
0
 62
     0
380
     1
100
AcDbLine
 10
14.92110616483123
 20
11.12649036404411
 30
0.0
 11
15.41961555539848
 21
11.62499975461139
 31
0.0
  0
LINE
  5
1073
330
F06
100
AcDbEntity
  8
0
 62
     0
380
     1
100
AcDbLine
 10
7.369615555398411
 20
3.574999754611326
 30
0.0
 11
9.321106164831263
 21
5.526490364044178
 31
0.0
  0
LINE
  5
1074
330
F06
100
AcDbEntity
  8
0
 62
     0
380
     1
100
AcDbLine
 10
10.37110616483119
 20
7.02550317009755
 30
0.0
 11
11.77110616483125
 21
8.425503170097641
 31
0.0
  0
LINE
  5
1075
330
F06
100
AcDbEntity
  8
0
 62
     0
380
     1
100
AcDbLine
 10
6.920602749344993
 20
3.574999754611383
 30
0.0
 11
9.31913648855064
 21
5.973533493817029
 31
0.0
  0
LINE
  5
1076
330
F06
100
AcDbEntity
  8
0
 62
     0
380
     1
100
AcDbLine
 10
10.37110616483119
 20
7.474515976151025
 30
0.0
 11
11.77110616483125
 21
8.874515976151087
 31
0.0
  0
LINE
  5
1077
330
F06
100
AcDbEntity
  8
0
 62
     0
380
     1
100
AcDbLine
 10
13.12158994329155
 20
10.22499975461139
 30
0.0
 11
13.69610616483129
 21
10.79951597615113
 31
0.0
  0
LINE
  5
1078
330
F06
100
AcDbEntity
  8
0
 62
     0
380
     1
100
AcDbLine
 10
6.471589943291519
 20
3.574999754611354
 30
0.0
 11
9.264305570389979
 21
6.367715381709814
 31
0.0
  0
LINE
  5
1079
330
F06
100
AcDbEntity
  8
0
 62
     0
380
     1
100
AcDbLine
 10
10.37110616483119
 20
7.923528782204471
 30
0.0
 11
11.77110616483125
 21
9.323528782204533
 31
0.0
  0
LINE
  5
107A
330
F06
100
AcDbEntity
  8
0
 62
     0
380
     1
100
AcDbLine
 10
7.921106164831229
 20
5.47352878220451
 30
0.0
 11
9.153136198367917
 21
6.705558815741198
 31
0.0
  0
LINE
  5
107B
330
F06
100
AcDbEntity
  8
0
 62
     0
380
     1
100
AcDbLine
 10
12.67257713723808
 20
10.22499975461136
 30
0.0
 11
13.69610616483129
 21
11.24852878220454
 31
0.0
  0
LINE
  5
107C
330
F06
100
AcDbEntity
  8
0
 62
     0
380
     1
100
AcDbLine
 10
6.051440074868054
 20
3.603862692241335
 30
0.0
 11
7.422577137238079
 21
4.97499975461136
 31
0.0
  0
LINE
  5
107D
330
F06
100
AcDbEntity
  8
0
 62
     0
380
     1
100
AcDbLine
 10
10.37110616483116
 20
8.372541588257917
 30
0.0
 11
11.85401351772106
 21
9.855448941147813
 31
0.0
  0
LINE
  5
107E
330
F06
100
AcDbEntity
  8
0
 62
     0
380
     1
100
AcDbLine
 10
7.9200266190266
 20
5.921462042453327
 30
0.0
 11
8.998920431031905
 21
7.000355854458661
 31
0.0
  0
LINE
  5
107F
330
F06
100
AcDbEntity
  8
0
 62
     0
380
     1
100
AcDbLine
 10
12.14065697829483
 20
10.14209240172158
 30
0.0
 11
13.57937245737133
 21
11.58080788079806
 31
0.0
  0
LINE
  5
1080
330
F06
100
AcDbEntity
  8
0
 62
     0
380
     1
100
AcDbLine
 10
5.90860616483124
 20
3.910041588257968
 30
0.0
 11
6.973564331184633
 21
4.97499975461136
 31
0.0
  0
LINE
  5
1081
330
F06
100
AcDbEntity
  8
0
 62
     0
380
     1
100
AcDbLine
 10
7.810225109276245
 20
6.260673338756475
 30
0.0
 11
8.807799448612456
 21
7.258247678092686
 31
0.0
  0
LINE
  5
1082
330
F06
100
AcDbEntity
  8
0
 62
     0
380
     1
100
AcDbLine
 10
10.37110616483116
 20
8.821554394311391
 30
0.0
 11
13.17455152513113
 21
11.62499975461136
 31
0.0
  0
LINE
  5
1083
330
F06
100
AcDbEntity
  8
0
 62
     0
380
     1
100
AcDbLine
 10
5.908606164831212
 20
4.359054394311442
 30
0.0
 11
6.524551525131158
 21
4.974999754611388
 31
0.0
  0
LINE
  5
1084
330
F06
100
AcDbEntity
  8
0
 62
     0
380
     1
100
AcDbLine
 10
7.597097695123892
 20
6.49655873065754
 30
0.0
 11
8.587047188785078
 21
7.486508224318725
 31
0.0
  0
LINE
  5
1085
330
F06
100
AcDbEntity
  8
0
 62
     0
380
     1
100
AcDbLine
 10
10.37110616483119
 20
9.270567200364808
 30
0.0
 11
12.72553871907766
 21
11.62499975461131
 31
0.0
  0
LINE
  5
1086
330
F06
100
AcDbEntity
  8
0
 62
     0
380
     1
100
AcDbLine
 10
5.943082125841101
 20
4.842543161374749
 30
0.0
 11
6.041062758067909
 21
4.940523793601556
 31
0.0
  0
LINE
  5
1087
330
F06
100
AcDbEntity
  8
0
 62
     0
380
     1
100
AcDbLine
 10
10.38109372190948
 20
9.729567563496573
 30
0.0
 11
12.26653835594598
 21
11.6150121975331
 31
0.0
  0
LINE
  5
1088
330
F06
100
AcDbEntity
  8
0
 62
     0
380
     1
100
AcDbLine
 10
7.372591292097155
 20
6.721065133684277
 30
0.0
 11
8.362540785758341
 21
7.711014627345463
 31
0.0
  0
LINE
  5
1089
330
F06
100
AcDbEntity
  8
0
 62
     0
380
     1
100
AcDbLine
 10
10.53082543804237
 20
10.32831208568296
 30
0.0
 11
11.66779383375962
 21
11.46528048140021
 31
0.0
  0
LINE
  5
108A
330
F06
100
AcDbEntity
  8
0
 62
     0
380
     1
100
AcDbLine
 10
7.148084889070418
 20
6.945571536711014
 30
0.0
 11
8.138034382731603
 21
7.9355210303722
 31
0.0
  0
LINE
  5
108B
330
F06
100
AcDbEntity
  8
0
 62
     0
380
     1
100
AcDbLine
 10
6.923578486043709
 20
7.170077939737723
 30
0.0
 11
7.913527979704866
 21
8.160027433398852
 31
0.0
  0
LINE
  5
108C
330
F06
100
AcDbEntity
  8
0
 62
     0
380
     1
100
AcDbLine
 10
6.699072083016972
 20
7.39458434276446
 30
0.0
 11
7.689021576678129
 21
8.384533836425589
 31
0.0
  0
LINE
  5
108D
330
F06
100
AcDbEntity
  8
0
 62
     0
380
     1
100
AcDbLine
 10
6.474565679990234
 20
7.619090745791197
 30
0.0
 11
7.464515173651392
 21
8.609040239452326
 31
0.0
  0
LINE
  5
108E
330
F06
100
AcDbEntity
  8
0
 62
     0
380
     1
100
AcDbLine
 10
8.631461882756951
 20
10.22499975461136
 30
0.0
 11
9.058606164831189
 21
10.65214403668562
 31
0.0
  0
LINE
  5
108F
330
F06
100
AcDbEntity
  8
0
 62
     0
380
     1
100
AcDbLine
 10
6.250100933977563
 20
7.843638805832
 30
0.0
 11
7.24013375569379
 21
8.833671627548227
 31
0.0
  0
LINE
  5
1090
330
F06
100
AcDbEntity
  8
0
 62
     0
380
     1
100
AcDbLine
 10
8.182449076703505
 20
10.22499975461136
 30
0.0
 11
9.058606164831218
 21
11.10115684273907
 31
0.0
  0
LINE
  5
1091
330
F06
100
AcDbEntity
  8
0
 62
     0
380
     1
100
AcDbLine
 10
6.044366971701776
 20
8.086917649609603
 30
0.0
 11
7.075185315049822
 21
9.117735992957676
 31
0.0
  0
LINE
  5
1092
330
F06
100
AcDbEntity
  8
0
 62
     0
380
     1
100
AcDbLine
 10
7.733436270650031
 20
10.22499975461136
 30
0.0
 11
9.015326714950646
 21
11.50689019891197
 31
0.0
  0
LINE
  5
1093
330
F06
100
AcDbEntity
  8
0
 62
     0
380
     1
100
AcDbLine
 10
5.874136668570542
 20
8.365700152531843
 30
0.0
 11
7.046106164831257
 21
9.537669648792558
 31
0.0
  0
LINE
  5
1094
330
F06
100
AcDbEntity
  8
0
 62
     0
380
     1
100
AcDbLine
 10
7.283190140011527
 20
10.2237664300263
 30
0.0
 11
8.684423464596562
 21
11.62499975461136
 31
0.0
  0
LINE
  5
1095
330
F06
100
AcDbEntity
  8
0
 62
     0
380
     1
100
AcDbLine
 10
5.743790020704494
 20
8.684366310719269
 30
0.0
 11
7.047339489416287
 21
9.987915779431091
 31
0.0
  0
LINE
  5
1096
330
F06
100
AcDbEntity
  8
0
 62
     0
380
     1
100
AcDbLine
 10
5.662884039580461
 20
9.052473135648682
 30
0.0
 11
8.235410658543145
 21
11.62499975461134
 31
0.0
  0
LINE
  5
1097
330
F06
100
AcDbEntity
  8
0
 62
     0
380
     1
100
AcDbLine
 10
5.646106164831252
 20
9.484708066952947
 30
0.0
 11
7.78639785248967
 21
11.62499975461136
 31
0.0
  0
LINE
  5
1098
330
F06
100
AcDbEntity
  8
0
 62
     0
380
     1
100
AcDbLine
 10
5.646106164831252
 20
9.933720873006393
 30
0.0
 11
7.337385046436196
 21
11.62499975461136
 31
0.0
  0
LINE
  5
1099
330
F06
100
AcDbEntity
  8
0
 62
     0
380
     1
100
AcDbLine
 10
5.656202170050363
 20
10.39282968427898
 30
0.0
 11
6.878276235163667
 21
11.61490374939228
 31
0.0
  0
ENDBLK
  5
109B
330
F06
100
AcDbEntity
  8
0
100
AcDbBlockEnd
  0
ENDSEC
  0
SECTION
  2
ENTITIES
  0
POINT
  5
1A1
330
1A
100
AcDbEntity
  8
SUNPOU L
  6
Continuous
100
AcDbPoint
 10
205.9553251990115
 20
146.5650665787896
 30
0.0
  0
POINT
  5
1A2
330
1A
100
AcDbEntity
  8
SUNPOU L
  6
Continuous
100
AcDbPoint
 10
205.4553267650655
 20
145.6990402718312
 30
0.0
  0
ARC
  5
9AA
330
1A
100
AcDbEntity
  8
SEIHIN
  6
Continuous
 62
     3
 48
16.0
100
AcDbCircle
 10
209.2776168235813
 20
228.0159422097984
 30
0.0
 40
17.07525238466473
100
AcDbArc
 50
256.2795222401576
 51
283.7204777598423
  0
ARC
  5
9AB
330
1A
100
AcDbEntity
  8
SEIHIN
  6
Continuous
 62
     3
 48
16.0
100
AcDbCircle
 10
209.2776168235813
 20
176.8398422092293
 30
0.0
 40
17.07525238521743
100
AcDbArc
 50
76.27952224061047
 51
103.7204777593895
  0
LINE
  5
9AC
330
1A
100
AcDbEntity
  8
SEIHIN
  6
Continuous
 62
     3
 48
16.0
100
AcDbLine
 10
186.5845168235814
 20
204.4278422097983
 30
0.0
 11
216.7277168235814
 21
204.4278422097983
 31
0.0
  0
LINE
  5
9AD
330
1A
100
AcDbEntity
  8
SEIHIN
  6
Continuous
 62
     3
 48
16.0
100
AcDbLine
 10
180.9276168235814
 20
208.9279422097984
 30
0.0
 11
218.9216168235812
 21
208.9278422097984
 31
0.0
  0
LINE
  5
9AE
330
1A
100
AcDbEntity
  8
SEIHIN
  6
Continuous
 62
     3
 48
16.0
100
AcDbLine
 10
186.5845168235814
 20
200.4278422097983
 30
0.0
 11
216.7277168235814
 21
200.4279422097984
 31
0.0
  0
LINE
  5
9AF
330
1A
100
AcDbEntity
  8
SEIHIN
  6
Continuous
 62
     3
 48
16.0
100
AcDbLine
 10
180.9276168235814
 20
195.9279422097984
 30
0.0
 11
218.9216168235812
 21
195.9278422097982
 31
0.0
  0
LINE
  5
9B0
330
1A
100
AcDbEntity
  8
CENTER L
  6
CENTER
 62
     1
 48
5.0
100
AcDbLine
 10
240.8274168235814
 20
202.4279422097984
 30
0.0
 11
134.8467168235814
 21
202.4279422097984
 31
0.0
  0
ARC
  5
9B1
330
1A
100
AcDbEntity
  8
NOKITOI
  6
PHANTOM
 62
     8
 48
5.0
100
AcDbCircle
 10
216.0117586105574
 20
80.26036620468778
 30
0.0
 40
12.19997945109404
100
AcDbArc
 50
107.7381834577211
 51
131.9928095737274
  0
ARC
  5
9B2
330
1A
100
AcDbEntity
  8
SEIHIN
  6
Continuous
 62
     3
 48
16.0
100
AcDbCircle
 10
205.4775994034545
 20
83.4278292569833
 30
0.0
 40
4.499987047218673
100
AcDbArc
 50
270.000221800583
 51
343.2658545438575
  0
ARC
  5
9B3
330
1A
100
AcDbEntity
  8
SEIHIN
  6
Continuous
 62
     3
 48
16.0
100
AcDbCircle
 10
216.011702821761
 20
80.26042737058928
 30
0.0
 40
6.500002478095619
100
AcDbArc
 50
110.0614934925763
 51
163.2643746186514
  0
ARC
  5
9B4
330
1A
100
AcDbEntity
  8
SEIHIN
  6
Continuous
 62
     3
 48
16.0
100
AcDbCircle
 10
216.0117199875114
 20
80.26044561223718
 30
0.0
 40
9.199956899084241
100
AcDbArc
 50
107.581792901021
 51
166.5787064010574
  0
ARC
  5
9B5
330
1A
100
AcDbEntity
  8
SEIHIN
  6
Continuous
 62
     3
 48
16.0
100
AcDbCircle
 10
216.0117166686713
 20
80.26044204416548
 30
0.0
 40
9.999963980685041
100
AcDbArc
 50
108.5487324481543
 51
165.2832367158239
  0
ARC
  5
9B6
330
1A
100
AcDbEntity
  8
NOKITOI
  6
PHANTOM
 62
     8
 48
5.0
100
AcDbCircle
 10
216.0117209364512
 20
80.2603465257691
 30
0.0
 40
10.99994632941526
100
AcDbArc
 50
104.1244483036074
 51
168.6362598432799
  0
ARC
  5
9B7
330
1A
100
AcDbEntity
  8
SEIHIN
  6
Continuous
 62
     3
 48
16.0
100
AcDbCircle
 10
208.4701058708549
 20
72.12783326660212
 30
0.0
 40
5.499991056814606
100
AcDbArc
 50
270.000114099275
 51
348.4652434768587
  0
ARC
  5
9B8
330
1A
100
AcDbEntity
  8
SEIHIN
  6
Continuous
 62
     3
 48
16.0
100
AcDbCircle
 10
208.470092457004
 20
72.12782231375886
 30
0.0
 40
9.999980103990139
100
AcDbArc
 50
270.0001396104816
 51
348.4654731291954
  0
DIMENSION
  5
9B9
330
1A
100
AcDbEntity
  8
SUNPOU
  6
Continuous
100
AcDbDimension
  2
*D1
 10
137.6274168235813
 20
163.3855446477486
 30
0.0
 11
185.7274168235814
 21
165.8855446477486
 31
0.0
 12
0.0
 22
-16.37653413657381
 32
0.0
 70
    32
 71
     5
 42
-1.0
  3
STANDARD
100
AcDbAlignedDimension
 13
233.8274168235814
 23
107.1278422097983
 33
0.0
 14
137.6274168235813
 24
141.9279422097984
 34
0.0
100
AcDbRotatedDimension
1001
ACAD
1000
DSTYLE
1002
{
1070
   140
1040
3.0
1070
    74
1070
     0
1070
   172
1070
     1
1070
    73
1070
     0
1070
   272
1070
     2
1070
    77
1070
     3
1070
   173
1070
     1
1070
   147
1040
1.0
1070
    42
1040
3.0
1070
    44
1040
1.5
1070
    43
1040
7.0
1070
   271
1070
     0
1070
   178
1070
     4
1070
   177
1070
     4
1070
   176
1070
     4
1070
   141
1040
150.0
1070
     7
1000
_OPEN
1070
     6
1000
_OPEN
1070
    41
1040
3.0
1002
}
  0
LINE
  5
9BA
330
1A
100
AcDbEntity
  8
CENTER L
  6
CENTER
 62
     1
 48
5.0
100
AcDbLine
 10
70.9274168235813
 20
57.25194928531485
 30
0.0
 11
70.9274168235813
 21
147.9856422097982
 31
0.0
  0
ARC
  5
9BB
330
1A
100
AcDbEntity
  8
SEIHIN
  6
Continuous
 62
     3
 48
16.0
100
AcDbCircle
 10
78.42741682358135
 20
140.9280422097983
 30
0.0
 40
1.000000000000028
100
AcDbArc
 50
90.00000000000161
 51
180.0000000000016
  0
LINE
  5
9BC
330
1A
100
AcDbEntity
  8
SEIHIN
  6
Continuous
 62
     3
 48
16.0
100
AcDbLine
 10
70.9274168235813
 20
113.1280422097984
 30
0.0
 11
80.92741682358129
 21
113.1280422097984
 31
0.0
  0
LINE
  5
9BD
330
1A
100
AcDbEntity
  8
SEIHIN
  6
Continuous
 62
     3
 48
16.0
100
AcDbLine
 10
79.92741682358135
 20
89.01074220979841
 30
0.0
 11
77.42741682358135
 21
89.01074220979841
 31
0.0
  0
LINE
  5
9BE
330
1A
100
AcDbEntity
  8
SEIHIN
  6
Continuous
 62
     3
 48
16.0
100
AcDbLine
 10
77.42741682358135
 20
81.62804220979841
 30
0.0
 11
79.92741682358135
 21
81.62804220979841
 31
0.0
  0
ARC
  5
9BF
330
1A
100
AcDbEntity
  8
SEIHIN
  6
Continuous
100
AcDbCircle
 10
77.42741682358135
 20
79.72779387201388
 30
0.0
 40
2.0
100
AcDbArc
 50
270.0
 51
0.0
  0
ARC
  5
9C0
330
1A
100
AcDbEntity
  8
SEIHIN
  6
Continuous
100
AcDbCircle
 10
77.22741682358137
 20
79.92796741967428
 30
0.0
 40
1.0
100
AcDbArc
 50
270.0
 51
0.0
  0
ARC
  5
9C1
330
1A
100
AcDbEntity
  8
SEIHIN
  6
Continuous
100
AcDbCircle
 10
77.42747386552196
 20
64.12784220979841
 30
0.0
 40
2.0
100
AcDbArc
 50
270.0
 51
359.9993096727688
  0
LINE
  5
9C3
330
1A
100
AcDbEntity
  8
SEIHIN
  6
Continuous
 62
     3
 48
16.0
100
AcDbLine
 10
46.42741682358135
 20
79.12784220979841
 30
0.0
 11
46.42741682358135
 21
105.1282422097983
 31
0.0
  0
LINE
  5
9C4
330
1A
100
AcDbEntity
  8
SEIHIN
  6
Continuous
 62
     3
 48
16.0
100
AcDbLine
 10
64.42741682358124
 20
113.1280422097984
 30
0.0
 11
64.42741682358124
 21
81.62804220979841
 31
0.0
  0
LINE
  5
9C5
330
1A
100
AcDbEntity
  8
SEIHIN
  6
Continuous
 62
     3
 48
16.0
100
AcDbLine
 10
68.92741682358135
 20
81.62804220979841
 30
0.0
 11
68.92741682358135
 21
113.1280422097984
 31
0.0
  0
LINE
  5
9C6
330
1A
100
AcDbEntity
  8
SEIHIN
  6
Continuous
 62
     3
 48
16.0
100
AcDbLine
 10
61.92744026072421
 20
89.01074220979841
 30
0.0
 11
61.92751682358133
 21
113.1280422097984
 31
0.0
  0
LINE
  5
9C7
330
1A
100
AcDbEntity
  8
SEIHIN
  6
Continuous
 62
     3
 48
16.0
100
AcDbLine
 10
77.42741682358135
 20
113.1280422097984
 30
0.0
 11
77.42741682358135
 21
81.62804220979841
 31
0.0
  0
LINE
  5
9C8
330
1A
100
AcDbEntity
  8
SEIHIN
  6
Continuous
 62
     3
 48
16.0
100
AcDbLine
 10
72.9274168235813
 20
81.62804220979841
 30
0.0
 11
72.9274168235813
 21
113.1280422097984
 31
0.0
  0
LINE
  5
9C9
330
1A
100
AcDbEntity
  8
SEIHIN
  6
Continuous
 62
     3
 48
16.0
100
AcDbLine
 10
62.42739200914854
 20
64.12784220979841
 30
0.0
 11
62.42739200914854
 21
79.4861587517461
 31
0.0
  0
ARC
  5
9CA
330
1A
100
AcDbEntity
  8
SEIHIN
  6
Continuous
100
AcDbCircle
 10
64.42739200914854
 20
64.12784220979841
 30
0.0
 40
2.0
100
AcDbArc
 50
179.9999999999999
 51
270.0
  0
LINE
  5
9CB
330
1A
100
AcDbEntity
  8
SEIHIN
  6
Continuous
100
AcDbLine
 10
77.42747386552196
 20
62.12784220979841
 30
0.0
 11
64.42739200914854
 21
62.12784220979841
 31
0.0
  0
LINE
  5
9CC
330
1A
100
AcDbEntity
  8
SEIHIN
  6
Continuous
 62
     3
 48
16.0
100
AcDbLine
 10
59.96411682358135
 20
81.12824220979835
 30
0.0
 11
62.08220811801684
 21
82.54033903416891
 31
0.0
  0
LINE
  5
9CD
330
1A
100
AcDbEntity
  8
SEIHIN
  6
Continuous
 62
     3
 48
16.0
100
AcDbLine
 10
59.96411682358135
 20
81.12824220979835
 30
0.0
 11
62.42741682358124
 21
79.48614220979834
 31
0.0
  0
LINE
  5
9CE
330
1A
100
AcDbEntity
  8
SEIHIN
  6
Continuous
100
AcDbLine
 10
62.42731682358138
 20
77.12784220979841
 30
0.0
 11
48.42741682358135
 21
77.12784220979841
 31
0.0
  0
LINE
  5
9CF
330
1A
100
AcDbEntity
  8
CENTER L
  6
CENTER
 62
     1
 48
5.0
100
AcDbLine
 10
47.27981682358134
 20
81.12824220979835
 30
0.0
 11
54.13011682358129
 21
81.12824220979835
 31
0.0
  0
LINE
  5
9D1
330
1A
100
AcDbEntity
  8
CENTER L
  6
CENTER
 62
     1
 48
5.0
100
AcDbLine
 10
50.42741682358135
 20
78.16504220979834
 30
0.0
 11
50.42741682358135
 21
86.1275977480453
 31
0.0
  0
ARC
  5
9D2
330
1A
100
AcDbEntity
  8
SEIHIN
  6
Continuous
100
AcDbCircle
 10
48.42741682358135
 20
79.12784220979841
 30
0.0
 40
2.0
100
AcDbArc
 50
180.0
 51
270.0
  0
ARC
  5
9D4
330
1A
100
AcDbEntity
  8
SEIHIN
  6
Continuous
100
AcDbCircle
 10
42.93707907530077
 20
85.31945249662213
 30
0.0
 40
19.34578604501347
100
AcDbArc
 50
348.9998181086365
 51
10.99981810863648
  0
LINE
  5
9D5
330
1A
100
AcDbEntity
  8
SEIHIN
  6
Continuous
 62
     3
 48
16.0
100
AcDbLine
 10
70.9274168235813
 20
81.62804220979841
 30
0.0
 11
68.92741682358135
 21
81.62804220979841
 31
0.0
  0
LINE
  5
9D6
330
1A
100
AcDbEntity
  8
SEIHIN
  6
Continuous
 62
     3
 48
16.0
100
AcDbLine
 10
70.9274168235813
 20
77.72779387201388
 30
0.0
 11
64.4273168235814
 21
77.72779387201388
 31
0.0
  0
LINE
  5
9D7
330
1A
100
AcDbEntity
  8
SEIHIN
  6
Continuous
 62
     3
 48
16.0
100
AcDbLine
 10
70.9274168235813
 20
78.9280422097984
 30
0.0
 11
66.6774168235813
 21
78.92754220979833
 31
0.0
  0
LINE
  5
9D8
330
1A
100
AcDbEntity
  8
SEIHIN
  6
Continuous
 62
     3
 48
16.0
100
AcDbLine
 10
70.9274168235813
 20
76.72779387201379
 30
0.0
 11
66.92741682358129
 21
76.72779387201379
 31
0.0
  0
LINE
  5
9D9
330
1A
100
AcDbEntity
  8
SEIHIN
  6
Continuous
100
AcDbLine
 10
77.42741682358135
 20
77.72779387201388
 30
0.0
 11
64.4273168235814
 21
77.72779387201388
 31
0.0
  0
LINE
  5
9DA
330
1A
100
AcDbEntity
  8
SEIHIN
  6
Continuous
100
AcDbLine
 10
77.22741682358137
 20
78.92796741967427
 30
0.0
 11
64.62731682358139
 21
78.92796741967427
 31
0.0
  0
LINE
  5
9DB
330
1A
100
AcDbEntity
  8
SEIHIN
  6
Continuous
 62
     3
 48
16.0
100
AcDbLine
 10
63.62731682358139
 20
79.92796741967428
 30
0.0
 11
63.62731682358139
 21
81.62804220979841
 31
0.0
  0
ARC
  5
9DC
330
1A
100
AcDbEntity
  8
SEIHIN
  6
Continuous
 62
     3
 48
16.0
100
AcDbCircle
 10
66.6774168235813
 20
81.21514220979841
 30
0.0
 40
2.287572164981949
100
AcDbArc
 50
169.6012878060621
 51
10.39871219393786
  0
LINE
  5
9DD
330
1A
100
AcDbEntity
  8
SEIHIN
  6
Continuous
 62
     3
 48
16.0
100
AcDbLine
 10
62.4273168235814
 20
79.72779387201388
 30
0.0
 11
62.42731682358138
 21
81.62804220979841
 31
0.0
  0
ARC
  5
9DE
330
1A
100
AcDbEntity
  8
SEIHIN
  6
Continuous
100
AcDbCircle
 10
64.4273168235814
 20
79.72779387201388
 30
0.0
 40
2.0
100
AcDbArc
 50
180.0
 51
270.0
  0
ARC
  5
9DF
330
1A
100
AcDbEntity
  8
SEIHIN
  6
Continuous
 48
16.0
100
AcDbCircle
 10
64.62731682358139
 20
79.92796741967428
 30
0.0
 40
1.0
100
AcDbArc
 50
180.0
 51
270.0
  0
LINE
  5
9E0
330
1A
100
AcDbEntity
  8
SEIHIN
  6
Continuous
 62
     3
 48
16.0
100
AcDbLine
 10
66.92741682358129
 20
76.72779387201379
 30
0.0
 11
66.92741682358129
 21
77.72779387201388
 31
0.0
  0
LINE
  5
9E1
330
1A
100
AcDbEntity
  8
SEIHIN
  6
Continuous
 62
     3
 48
16.0
100
AcDbLine
 10
64.42741682358124
 20
81.62804220979841
 30
0.0
 11
61.92741682358136
 21
81.62804220979841
 31
0.0
  0
ARC
  5
9E2
330
1A
100
AcDbEntity
  8
SEIHIN
  6
Continuous
 62
     3
 48
16.0
100
AcDbCircle
 10
75.17741682358135
 20
81.21504220979842
 30
0.0
 40
2.287590216800233
100
AcDbArc
 50
169.5988243086145
 51
10.40117569138549
  0
LINE
  5
9E3
330
1A
100
AcDbEntity
  8
SEIHIN
  6
Continuous
 62
     3
 48
16.0
100
AcDbLine
 10
70.9274168235813
 20
77.72779387201388
 30
0.0
 11
77.42741682358135
 21
77.72779387201388
 31
0.0
  0
LINE
  5
9E4
330
1A
100
AcDbEntity
  8
SEIHIN
  6
Continuous
 62
     3
 48
16.0
100
AcDbLine
 10
70.9274168235813
 20
78.9280422097984
 30
0.0
 11
75.17741682358135
 21
78.92754220979833
 31
0.0
  0
LINE
  5
9E5
330
1A
100
AcDbEntity
  8
SEIHIN
  6
Continuous
 62
     3
 48
16.0
100
AcDbLine
 10
70.9274168235813
 20
76.72779387201379
 30
0.0
 11
74.92741682358147
 21
76.72779387201379
 31
0.0
  0
LINE
  5
9E6
330
1A
100
AcDbEntity
  8
SEIHIN
  6
Continuous
 62
     3
 48
16.0
100
AcDbLine
 10
74.92741682358147
 20
76.72779387201379
 30
0.0
 11
74.92741682358147
 21
77.72779387201388
 31
0.0
  0
LINE
  5
9E7
330
1A
100
AcDbEntity
  8
SEIHIN
  6
Continuous
 62
     3
 48
16.0
100
AcDbLine
 10
70.9274168235813
 20
81.62804220979841
 30
0.0
 11
72.9274168235813
 21
81.62804220979841
 31
0.0
  0
LINE
  5
9E8
330
1A
100
AcDbEntity
  8
SEIHIN
  6
Continuous
 62
     3
 48
16.0
100
AcDbLine
 10
68.92741682358135
 20
89.01074220979841
 30
0.0
 11
70.9274168235813
 21
89.01074220979841
 31
0.0
  0
ARC
  5
9E9
330
1A
100
AcDbEntity
  8
SEIHIN
  6
Continuous
100
AcDbCircle
 10
66.67741682358126
 20
91.04199220979879
 30
0.0
 40
3.031250000000258
100
AcDbArc
 50
222.0750220508483
 51
317.9249779491518
  0
LINE
  5
9EA
330
1A
100
AcDbEntity
  8
SEIHIN
  6
Continuous
 62
     3
 48
16.0
100
AcDbLine
 10
61.92741682358136
 20
89.01074220979841
 30
0.0
 11
64.42741682358124
 21
89.01074220979841
 31
0.0
  0
ARC
  5
9EB
330
1A
100
AcDbEntity
  8
SEIHIN
  6
Continuous
100
AcDbCircle
 10
75.17741682358132
 20
91.04199220979879
 30
0.0
 40
3.031250000000258
100
AcDbArc
 50
222.0750220508482
 51
317.9249779491517
  0
LINE
  5
9EC
330
1A
100
AcDbEntity
  8
SEIHIN
  6
Continuous
 62
     3
 48
16.0
100
AcDbLine
 10
72.9274168235813
 20
89.01074220979841
 30
0.0
 11
70.9274168235813
 21
89.01074220979841
 31
0.0
  0
ARC
  5
9ED
330
1A
100
AcDbEntity
  8
SEIHIN
  6
Continuous
 62
     3
 48
16.0
100
AcDbCircle
 10
76.73107055019031
 20
120.9658312337569
 30
0.0
 40
0.7999818654227227
100
AcDbArc
 50
33.50613240540168
 51
123.4067877125594
  0
ARC
  5
9EE
330
1A
100
AcDbEntity
  8
SEIHIN
  6
Continuous
 62
     3
 48
16.0
100
AcDbCircle
 10
65.12386309697237
 20
120.9658312337569
 30
0.0
 40
0.7999818654227617
100
AcDbArc
 50
56.59321228744
 51
146.4938675945977
  0
LINE
  5
9EF
330
1A
100
AcDbEntity
  8
SEIHIN
  6
Continuous
 62
     3
 48
16.0
100
AcDbLine
 10
60.92741682358135
 20
141.9280422097984
 30
0.0
 11
60.92741682358135
 21
113.1280422097984
 31
0.0
  0
LINE
  5
9F0
330
1A
100
AcDbEntity
  8
SEIHIN
  6
Continuous
 62
     3
 48
16.0
100
AcDbLine
 10
70.9274168235813
 20
113.1280422097984
 30
0.0
 11
60.92741682358135
 21
113.1280422097984
 31
0.0
  0
LINE
  5
9F1
330
1A
100
AcDbEntity
  8
SEIHIN
  6
Continuous
 62
     3
 48
16.0
100
AcDbLine
 10
61.92741682358136
 20
104.4371422097984
 30
0.0
 11
59.96411682358135
 21
103.1282422097983
 31
0.0
  0
ARC
  5
9F2
330
1A
100
AcDbEntity
  8
SEIHIN
  6
Continuous
 62
     3
 48
16.0
100
AcDbCircle
 10
60.42743465926164
 20
109.128250261016
 30
0.0
 40
2.000008051297204
100
AcDbArc
 50
269.9994890474509
 51
318.5893438791716
  0
LINE
  5
9F3
330
1A
100
AcDbEntity
  8
SEIHIN
  6
Continuous
 62
     3
 48
16.0
100
AcDbLine
 10
59.96411682358135
 20
103.1282422097983
 30
0.0
 11
61.92741682358136
 21
101.8194422097984
 31
0.0
  0
LINE
  5
9F5
330
1A
100
AcDbEntity
  8
SEIHIN
  6
Continuous
 62
     3
 48
16.0
100
AcDbLine
 10
48.42741682358135
 20
107.1282422097984
 30
0.0
 11
60.42741682358124
 21
107.1282422097984
 31
0.0
  0
ARC
  5
9F8
330
1A
100
AcDbEntity
  8
SEIHIN
  6
Continuous
 62
     3
 48
16.0
100
AcDbCircle
 10
48.42741682358135
 20
105.1282422097983
 30
0.0
 40
2.000000000000028
100
AcDbArc
 50
90.00000000000081
 51
180.0000000000008
  0
LINE
  5
9F9
330
1A
100
AcDbEntity
  8
SEIHIN
  6
Continuous
 62
     3
 48
16.0
100
AcDbLine
 10
61.92741682358136
 20
109.1282422097984
 30
0.0
 11
61.92741682358136
 21
113.1280422097984
 31
0.0
  0
ARC
  5
9FA
330
1A
100
AcDbEntity
  8
SEIHIN
  6
Continuous
 62
     3
 48
16.0
100
AcDbCircle
 10
70.92741682358135
 20
117.7618422097983
 30
0.0
 40
1.0
100
AcDbArc
 50
180.0
 51
0.0
  0
ARC
  5
9FB
330
1A
100
AcDbEntity
  8
SEIHIN
  6
Continuous
 62
     3
 48
16.0
100
AcDbCircle
 10
70.92741682358135
 20
117.7618422097983
 30
0.0
 40
1.0
100
AcDbArc
 50
0.0
 51
180.0
  0
LINE
  5
9FC
330
1A
100
AcDbEntity
  8
SEIHIN
  6
Continuous
 62
     3
 48
16.0
100
AcDbLine
 10
65.50581682358134
 20
115.4246422097984
 30
0.0
 11
68.44601682358135
 21
116.6851422097984
 31
0.0
  0
ARC
  5
9FD
330
1A
100
AcDbEntity
  8
SEIHIN
  6
Continuous
 62
     3
 48
16.0
100
AcDbCircle
 10
65.19054895935457
 20
116.1598757052913
 30
0.0
 40
0.7999763240926829
100
AcDbArc
 50
194.2586229597526
 51
293.2096365854149
  0
LINE
  5
9FE
330
1A
100
AcDbEntity
  8
SEIHIN
  6
Continuous
 62
     3
 48
16.0
100
AcDbLine
 10
65.11481682358137
 20
116.9562422097983
 30
0.0
 11
68.29941682358136
 21
117.2595422097984
 31
0.0
  0
LINE
  5
9FF
330
1A
100
AcDbEntity
  8
SEIHIN
  6
Continuous
 62
     3
 48
16.0
100
AcDbLine
 10
64.8783168235814
 20
120.2044422097984
 30
0.0
 11
68.3692168235813
 21
119.0783422097984
 31
0.0
  0
LINE
  5
A00
330
1A
100
AcDbEntity
  8
SEIHIN
  6
Continuous
 62
     3
 48
16.0
100
AcDbLine
 10
65.56431682358132
 20
121.6336422097984
 30
0.0
 11
68.62651682358128
 21
119.6143422097984
 31
0.0
  0
ARC
  5
A01
330
1A
100
AcDbEntity
  8
SEIHIN
  6
Continuous
 62
     3
 48
16.0
100
AcDbCircle
 10
65.19060365919116
 20
116.1598235162281
 30
0.0
 40
0.8000164872799842
100
AcDbArc
 50
95.43587150629416
 51
194.2540355357124
  0
ARC
  5
A02
330
1A
100
AcDbEntity
  8
SEIHIN
  6
Continuous
 62
     3
 48
16.0
100
AcDbCircle
 10
65.12391894424789
 20
120.9658361573138
 30
0.0
 40
0.8000257152047899
100
AcDbArc
 50
146.4963695173485
 51
252.1219052572798
  0
ARC
  5
A03
330
1A
100
AcDbEntity
  8
SEIHIN
  6
Continuous
 62
     3
 48
16.0
100
AcDbCircle
 10
68.32782519015066
 20
116.9608583008264
 30
0.0
 40
0.299981041175569
100
AcDbArc
 50
293.2034348480801
 51
11.84663221982885
  0
ARC
  5
A04
330
1A
100
AcDbEntity
  8
SEIHIN
  6
Continuous
 62
     3
 48
16.0
100
AcDbCircle
 10
68.32778386603846
 20
116.9608664724352
 30
0.0
 40
0.3000198079914623
100
AcDbArc
 50
11.84348477016939
 51
95.42545266668946
  0
ARC
  5
A05
330
1A
100
AcDbEntity
  8
SEIHIN
  6
Continuous
 62
     3
 48
16.0
100
AcDbCircle
 10
68.46133749083597
 20
119.3638510498265
 30
0.0
 40
0.3000025251054667
100
AcDbArc
 50
252.1174788821511
 51
334.1918515621318
  0
ARC
  5
A06
330
1A
100
AcDbEntity
  8
SEIHIN
  6
Continuous
 62
     3
 48
16.0
100
AcDbCircle
 10
68.46130644007385
 20
119.3638799184578
 30
0.0
 40
0.3000430472487118
100
AcDbArc
 50
334.1894701277514
 51
56.59028629094067
  0
LINE
  5
A07
330
1A
100
AcDbEntity
  8
SEIHIN
  6
Continuous
 62
     3
 48
16.0
100
AcDbLine
 10
76.34901682358137
 20
115.4246422097984
 30
0.0
 11
73.40881682358136
 21
116.6851422097984
 31
0.0
  0
ARC
  5
A08
330
1A
100
AcDbEntity
  8
SEIHIN
  6
Continuous
 62
     3
 48
16.0
100
AcDbCircle
 10
76.66428468780813
 20
116.1598757052913
 30
0.0
 40
0.7999763240926832
100
AcDbArc
 50
246.7903634145851
 51
345.7413770402474
  0
LINE
  5
A09
330
1A
100
AcDbEntity
  8
SEIHIN
  6
Continuous
 62
     3
 48
16.0
100
AcDbLine
 10
76.74011682358136
 20
116.9562422097983
 30
0.0
 11
73.55541682358128
 21
117.2595422097984
 31
0.0
  0
LINE
  5
A0A
330
1A
100
AcDbEntity
  8
SEIHIN
  6
Continuous
 62
     3
 48
16.0
100
AcDbLine
 10
76.97661682358128
 20
120.2044422097984
 30
0.0
 11
73.4856168235813
 21
119.0783422097984
 31
0.0
  0
LINE
  5
A0B
330
1A
100
AcDbEntity
  8
SEIHIN
  6
Continuous
 62
     3
 48
16.0
100
AcDbLine
 10
76.29061682358136
 20
121.6336422097984
 30
0.0
 11
73.22841682358134
 21
119.6142422097983
 31
0.0
  0
ARC
  5
A0C
330
1A
100
AcDbEntity
  8
SEIHIN
  6
Continuous
 62
     3
 48
16.0
100
AcDbCircle
 10
73.52700845701199
 20
116.9608583008264
 30
0.0
 40
0.2999810411755898
100
AcDbArc
 50
168.1533677801787
 51
246.7965651519275
  0
ARC
  5
A0D
330
1A
100
AcDbEntity
  8
SEIHIN
  6
Continuous
 62
     3
 48
16.0
100
AcDbCircle
 10
73.52704978112419
 20
116.9608664724352
 30
0.0
 40
0.3000198079914624
100
AcDbArc
 50
84.57454733331053
 51
168.1565152298305
  0
ARC
  5
A0E
330
1A
100
AcDbEntity
  8
SEIHIN
  6
Continuous
 62
     3
 48
16.0
100
AcDbCircle
 10
73.39349615632662
 20
119.3638510498265
 30
0.0
 40
0.3000025251054921
100
AcDbArc
 50
205.8081484378691
 51
287.8825211178544
  0
ARC
  5
A0F
330
1A
100
AcDbEntity
  8
SEIHIN
  6
Continuous
 62
     3
 48
16.0
100
AcDbCircle
 10
73.39351611469393
 20
119.3638396368075
 30
0.0
 40
0.3000155245999117
100
AcDbArc
 50
123.3877677239414
 51
205.8045268241577
  0
ARC
  5
A10
330
1A
100
AcDbEntity
  8
SEIHIN
  6
Continuous
 62
     3
 48
16.0
100
AcDbCircle
 10
76.66422639319861
 20
116.1598286190467
 30
0.0
 40
0.8000212278168758
100
AcDbArc
 50
345.7456736522073
 51
84.55670800694489
  0
ARC
  5
A11
330
1A
100
AcDbEntity
  8
SEIHIN
  6
Continuous
 62
     3
 48
16.0
100
AcDbCircle
 10
76.73101470291479
 20
120.9658361573138
 30
0.0
 40
0.800025715204779
100
AcDbArc
 50
287.8780947427192
 51
33.50363048265248
  0
LINE
  5
A12
330
1A
100
AcDbEntity
  8
SEIHIN
  6
Continuous
 62
     3
 48
16.0
100
AcDbLine
 10
63.42751682358133
 20
141.9280422097984
 30
0.0
 11
60.92741682358135
 21
141.9280422097984
 31
0.0
  0
LINE
  5
A13
330
1A
100
AcDbEntity
  8
SEIHIN
  6
Continuous
 62
     3
 48
16.0
100
AcDbLine
 10
77.42741682358135
 20
124.9280422097984
 30
0.0
 11
77.42741682358135
 21
140.9280422097983
 31
0.0
  0
LINE
  5
A14
330
1A
100
AcDbEntity
  8
SEIHIN
  6
Continuous
 62
     3
 48
16.0
100
AcDbLine
 10
64.42741682358124
 20
124.9280422097984
 30
0.0
 11
64.42751682358133
 21
140.9280422097983
 31
0.0
  0
LINE
  5
A15
330
1A
100
AcDbEntity
  8
SEIHIN
  6
Continuous
 62
     3
 48
16.0
100
AcDbLine
 10
70.92751682358133
 20
122.9280422097984
 30
0.0
 11
66.4274168235813
 21
122.9280422097984
 31
0.0
  0
LINE
  5
A16
330
1A
100
AcDbEntity
  8
SEIHIN
  6
Continuous
 62
     3
 48
16.0
100
AcDbLine
 10
77.42741682358135
 20
125.4280422097984
 30
0.0
 11
64.42741682358124
 21
125.4280422097984
 31
0.0
  0
LINE
  5
A17
330
1A
100
AcDbEntity
  8
SEIHIN
  6
Continuous
100
AcDbLine
 10
76.81401493046013
 20
123.4867422097983
 30
0.0
 11
65.04081871670251
 21
123.4867422097983
 31
0.0
  0
ARC
  5
A18
330
1A
100
AcDbEntity
  8
SEIHIN
  6
Continuous
 62
     3
 48
16.0
100
AcDbCircle
 10
66.4274168235813
 20
124.9280422097984
 30
0.0
 40
2.000000000000014
100
AcDbArc
 50
180.0000000000004
 51
270.0000000000004
  0
LINE
  5
A19
330
1A
100
AcDbEntity
  8
SEIHIN
  6
Continuous
 62
     3
 48
16.0
100
AcDbLine
 10
70.9274168235813
 20
122.9280422097984
 30
0.0
 11
75.42741682358135
 21
122.9280422097984
 31
0.0
  0
ARC
  5
A1A
330
1A
100
AcDbEntity
  8
SEIHIN
  6
Continuous
 62
     3
 48
16.0
100
AcDbCircle
 10
75.42741682358135
 20
124.9280422097984
 30
0.0
 40
2.0
100
AcDbArc
 50
270.0
 51
0.0
  0
ARC
  5
A1B
330
1A
100
AcDbEntity
  8
SEIHIN
  6
Continuous
 62
     3
 48
16.0
100
AcDbCircle
 10
63.42751682358133
 20
140.9280422097983
 30
0.0
 40
1.000000000000028
100
AcDbArc
 50
359.9999999999984
 51
89.99999999999836
  0
DIMENSION
  5
A1C
330
1A
100
AcDbEntity
  8
SUNPOU
100
AcDbDimension
  2
*D2
 10
119.0874619463311
 20
82.4279422097984
 30
0.0
 11
116.5874619463311
 21
112.1779422097984
 31
0.0
 12
0.0
 22
-16.37653413657381
 32
0.0
 70
    32
 71
     5
 42
-1.0
  3
STANDARD
100
AcDbAlignedDimension
 13
137.6274168235813
 23
141.9279422097984
 33
0.0
 14
155.9986168235813
 24
82.4279422097984
 34
0.0
 50
90.0
100
AcDbRotatedDimension
1001
ACAD
1000
DSTYLE
1002
{
1070
   140
1040
3.0
1070
    74
1070
     0
1070
   172
1070
     1
1070
    73
1070
     0
1070
   272
1070
     2
1070
    77
1070
     3
1070
   173
1070
     1
1070
   147
1040
1.0
1070
    42
1040
3.0
1070
    44
1040
1.5
1070
    43
1040
7.0
1070
   271
1070
     0
1070
   178
1070
     4
1070
   177
1070
     4
1070
   176
1070
     4
1070
   141
1040
150.0
1070
     7
1000
_OPEN
1070
     6
1000
_OPEN
1070
    41
1040
3.0
1002
}
  0
ARC
  5
A1D
330
1A
100
AcDbEntity
  8
SEIHIN
  6
Continuous
 62
     3
 48
16.0
100
AcDbCircle
 10
143.4253180544464
 20
113.4279412048004
 30
0.0
 40
0.5000010049995202
100
AcDbArc
 50
11.53705306385716
 51
90.00014104646831
  0
LINE
  5
A1E
330
1A
100
AcDbEntity
  8
SEIHIN
  6
Continuous
 62
     3
 48
16.0
100
AcDbLine
 10
147.9444168235813
 20
89.78404220979834
 30
0.0
 11
143.2620168235812
 21
112.7279422097984
 31
0.0
  0
LINE
  5
A1F
330
1A
100
AcDbEntity
  8
SEIHIN
  6
Continuous
 62
     3
 48
16.0
100
AcDbLine
 10
145.2072168235812
 20
89.6932422097984
 30
0.0
 11
140.4247168235812
 21
113.1279422097984
 31
0.0
  0
LINE
  5
A20
330
1A
100
AcDbEntity
  8
NOKITOI
  6
PHANTOM
 62
     8
 48
5.0
100
AcDbLine
 10
143.5275168235812
 20
115.4278422097984
 30
0.0
 11
148.5274168235812
 21
90.92784220979842
 31
0.0
  0
LINE
  5
A21
330
1A
100
AcDbEntity
  8
NOKITOI
  6
PHANTOM
 62
     8
 48
5.0
100
AcDbLine
 10
143.3259168235811
 20
122.4278422097984
 30
0.0
 11
149.5600168235811
 21
91.88044220979833
 31
0.0
  0
LINE
  5
A23
330
1A
100
AcDbEntity
  8
SEIHIN
  6
Continuous
 62
     3
 48
16.0
100
AcDbLine
 10
79.92741682358135
 20
89.01074220979841
 30
0.0
 11
79.92741682358135
 21
113.1280422097984
 31
0.0
  0
LINE
  5
A24
330
1A
100
AcDbEntity
  8
SEIHIN
  6
Continuous
 62
     3
 48
16.0
100
AcDbLine
 10
95.42741682358125
 20
79.12784220979841
 30
0.0
 11
95.42741682358125
 21
105.1282422097983
 31
0.0
  0
LINE
  5
A25
330
1A
100
AcDbEntity
  8
SEIHIN
  6
Continuous
 62
     3
 48
16.0
100
AcDbLine
 10
79.42747386537681
 20
64.12781811283221
 30
0.0
 11
79.42765891062482
 21
79.48620360116064
 31
0.0
  0
ARC
  5
A26
330
1A
100
AcDbEntity
  8
SEIHIN
  6
Continuous
100
AcDbCircle
 10
93.42741682358123
 20
79.12784220979841
 30
0.0
 40
2.0
100
AcDbArc
 50
270.0
 51
0.0
  0
ARC
  5
A27
330
1A
100
AcDbEntity
  8
SEIHIN
  6
Continuous
100
AcDbCircle
 10
98.91776629043338
 20
85.31939220979841
 30
0.0
 40
19.34578604491599
100
AcDbArc
 50
169.0
 51
191.0
  0
LINE
  5
A28
330
1A
100
AcDbEntity
  8
SEIHIN
  6
Continuous
100
AcDbLine
 10
93.42741682358123
 20
77.12784220979841
 30
0.0
 11
79.42741682358136
 21
77.12784220979841
 31
0.0
  0
LINE
  5
A29
330
1A
100
AcDbEntity
  8
SEIHIN
  6
Continuous
 62
     3
 48
16.0
100
AcDbLine
 10
78.22741682358136
 20
79.92796741967428
 30
0.0
 11
78.22741682358136
 21
81.62804220979841
 31
0.0
  0
LINE
  5
A2A
330
1A
100
AcDbEntity
  8
SEIHIN
  6
Continuous
 62
     3
 48
16.0
100
AcDbLine
 10
79.42741682358136
 20
79.72779387201388
 30
0.0
 11
79.42741682358136
 21
81.62804220979841
 31
0.0
  0
LINE
  5
A2B
330
1A
100
AcDbEntity
  8
SEIHIN
  6
Continuous
 62
     3
 48
16.0
100
AcDbLine
 10
81.89071682358123
 20
81.12824220979835
 30
0.0
 11
79.42741682358136
 21
79.48604220979834
 31
0.0
  0
LINE
  5
A2C
330
1A
100
AcDbEntity
  8
SEIHIN
  6
Continuous
 62
     3
 48
16.0
100
AcDbLine
 10
81.89071682358123
 20
81.12824220979835
 30
0.0
 11
79.77262881460347
 21
82.54033684380813
 31
0.0
  0
LINE
  5
A31
330
1A
100
AcDbEntity
  8
SEIHIN
  6
Continuous
 62
     3
 48
16.0
100
AcDbLine
 10
80.92741682358129
 20
141.9280422097984
 30
0.0
 11
80.92741682358129
 21
113.1280422097984
 31
0.0
  0
ARC
  5
A32
330
1A
100
AcDbEntity
  8
SEIHIN
  6
Continuous
 62
     3
 48
16.0
100
AcDbCircle
 10
93.42741682358123
 20
105.1282422097983
 30
0.0
 40
2.000000000000028
100
AcDbArc
 50
359.9999999999992
 51
89.9999999999992
  0
LINE
  5
A33
330
1A
100
AcDbEntity
  8
SEIHIN
  6
Continuous
 62
     3
 48
16.0
100
AcDbLine
 10
93.42741682358123
 20
107.1282422097984
 30
0.0
 11
81.42741682358135
 21
107.1282422097984
 31
0.0
  0
LINE
  5
A34
330
1A
100
AcDbEntity
  8
SEIHIN
  6
Continuous
 62
     3
 48
16.0
100
AcDbLine
 10
79.92741682358135
 20
104.4371422097984
 30
0.0
 11
81.89071682358123
 21
103.1282422097983
 31
0.0
  0
LINE
  5
A35
330
1A
100
AcDbEntity
  8
SEIHIN
  6
Continuous
 62
     3
 48
16.0
100
AcDbLine
 10
81.89071682358123
 20
103.1282422097983
 30
0.0
 11
79.92741682358135
 21
101.8194422097984
 31
0.0
  0
ARC
  5
A36
330
1A
100
AcDbEntity
  8
SEIHIN
  6
Continuous
 62
     3
 48
16.0
100
AcDbCircle
 10
81.427398987901
 20
109.128250261016
 30
0.0
 40
2.000008051297107
100
AcDbArc
 50
221.4106561208272
 51
270.0005109525479
  0
LINE
  5
A3A
330
1A
100
AcDbEntity
  8
SEIHIN
  6
Continuous
 62
     3
 48
16.0
100
AcDbLine
 10
78.42741682358135
 20
141.9280422097984
 30
0.0
 11
80.92741682358129
 21
141.9280422097984
 31
0.0
  0
LINE
  5
A3B
330
1A
100
AcDbEntity
  8
SEIHIN
  6
Continuous
 62
     3
 48
16.0
100
AcDbLine
 10
137.6274168235813
 20
114.1279422097984
 30
0.0
 11
137.6274168235813
 21
141.9279422097984
 31
0.0
  0
LINE
  5
A3C
330
1A
100
AcDbEntity
  8
SEIHIN
  6
Continuous
 62
     3
 48
16.0
100
AcDbLine
 10
138.4275168235812
 20
114.4279422097983
 30
0.0
 11
138.4275168235812
 21
141.9279422097984
 31
0.0
  0
LINE
  5
A3D
330
1A
100
AcDbEntity
  8
NOKITOI
  6
PHANTOM
 62
     8
 48
5.0
100
AcDbLine
 10
138.4274168235812
 20
115.4278422097984
 30
0.0
 11
138.427516823581
 21
122.4278422097984
 31
0.0
  0
LINE
  5
A3E
330
1A
100
AcDbEntity
  8
NOKITOI
  6
PHANTOM
 62
     8
 48
5.0
100
AcDbLine
 10
138.4274168235812
 20
115.4278422097984
 30
0.0
 11
143.5275168235812
 21
115.4278422097984
 31
0.0
  0
LINE
  5
A3F
330
1A
100
AcDbEntity
  8
SEIHIN
  6
Continuous
 62
     3
 48
16.0
100
AcDbLine
 10
143.4253168235813
 20
113.9279422097984
 30
0.0
 11
138.9275168235812
 21
113.9279422097984
 31
0.0
  0
LINE
  5
A40
330
1A
100
AcDbEntity
  8
SEIHIN
  6
Continuous
 62
     3
 48
16.0
100
AcDbLine
 10
138.6274168235812
 20
113.1279422097984
 30
0.0
 11
142.7721168235813
 21
113.1279422097984
 31
0.0
  0
ARC
  5
A41
330
1A
100
AcDbEntity
  8
SEIHIN
  6
Continuous
 62
     3
 48
16.0
100
AcDbCircle
 10
138.6274168235813
 20
114.1279422097983
 30
0.0
 40
0.9999999999999431
100
AcDbArc
 50
179.9999999999967
 51
269.9999999999968
  0
ARC
  5
A42
330
1A
100
AcDbEntity
  8
SEIHIN
  6
Continuous
 62
     3
 48
16.0
100
AcDbCircle
 10
138.9275168235812
 20
114.4279422097983
 30
0.0
 40
0.4999999999999716
100
AcDbArc
 50
180.0000000000032
 51
270.0000000000033
  0
ARC
  5
A43
330
1A
100
AcDbEntity
  8
SEIHIN
  6
Continuous
 62
     3
 48
16.0
100
AcDbCircle
 10
142.7721180544463
 20
112.6279412048005
 30
0.0
 40
0.5000010049994095
100
AcDbArc
 50
11.53705306384385
 51
90.00014104645858
  0
LINE
  5
A44
330
1A
100
AcDbEntity
  8
NOKITOI
  6
PHANTOM
 62
     8
 48
5.0
100
AcDbLine
 10
142.343816823581
 20
121.2278422097984
 30
0.0
 11
139.6275168235811
 21
121.2278422097984
 31
0.0
  0
LINE
  5
A45
330
1A
100
AcDbEntity
  8
NOKITOI
  6
PHANTOM
 62
     8
 48
5.0
100
AcDbLine
 10
143.2825168235812
 20
116.6278422097984
 30
0.0
 11
139.6275168235811
 21
116.6278422097984
 31
0.0
  0
LINE
  5
A46
330
1A
100
AcDbEntity
  8
NOKITOI
  6
PHANTOM
 62
     8
 48
5.0
100
AcDbLine
 10
139.6275168235811
 20
121.2278422097984
 30
0.0
 11
139.6275168235811
 21
116.6278422097984
 31
0.0
  0
LINE
  5
A47
330
1A
100
AcDbEntity
  8
NOKITOI
  6
PHANTOM
 62
     8
 48
5.0
100
AcDbLine
 10
142.343816823581
 20
121.2278422097984
 30
0.0
 11
143.2825168235812
 21
116.6278422097984
 31
0.0
  0
LINE
  5
A48
330
1A
100
AcDbEntity
  8
NOKITOI
  6
PHANTOM
 62
     8
 48
5.0
100
AcDbLine
 10
138.427516823581
 20
122.4278422097984
 30
0.0
 11
143.3259168235811
 21
122.4278422097984
 31
0.0
  0
LINE
  5
A49
330
1A
100
AcDbEntity
  8
SEIHIN
  6
Continuous
 62
     3
 48
16.0
100
AcDbLine
 10
138.4275168235812
 20
141.9279422097984
 30
0.0
 11
137.6275168235814
 21
141.9279422097984
 31
0.0
  0
LINE
  5
A4A
330
1A
100
AcDbEntity
  8
SEIHIN
  6
Continuous
 62
     3
 48
16.0
100
AcDbLine
 10
143.9152168235813
 20
113.5279422097984
 30
0.0
 11
148.6933168235814
 21
90.11504220979842
 31
0.0
  0
LINE
  5
A4B
330
1A
100
AcDbEntity
  8
SEIHIN
  6
Continuous
 62
     3
 48
16.0
100
AcDbLine
 10
174.4274168235814
 20
77.72779387201388
 30
0.0
 11
187.9274168235811
 21
77.7277938720139
 31
0.0
  0
LINE
  5
A4C
330
1A
100
AcDbEntity
  8
SEIHIN
  6
Continuous
 62
     3
 48
16.0
100
AcDbLine
 10
180.9274168235812
 20
81.62784220979842
 30
0.0
 11
155.7645168235814
 21
81.62794220979842
 31
0.0
  0
LINE
  5
A4D
330
1A
100
AcDbEntity
  8
SEIHIN
  6
Continuous
 62
     3
 48
16.0
100
AcDbLine
 10
155.9986168235813
 20
82.4279422097984
 30
0.0
 11
180.9274168235812
 21
82.4278422097984
 31
0.0
  0
LINE
  5
A4E
330
1A
100
AcDbEntity
  8
NOKITOI
  6
PHANTOM
 62
     8
 48
5.0
100
AcDbLine
 10
156.6274168235812
 20
82.4278422097984
 30
0.0
 11
180.9274168235812
 21
82.4278422097984
 31
0.0
  0
LINE
  5
A4F
330
1A
100
AcDbEntity
  8
NOKITOI
  6
PHANTOM
 62
     8
 48
5.0
100
AcDbLine
 10
180.9274168235812
 20
83.62784220979841
 30
0.0
 11
161.4274168235812
 21
83.62784220979841
 31
0.0
  0
LINE
  5
A50
330
1A
100
AcDbEntity
  8
NOKITOI
  6
PHANTOM
 62
     8
 48
5.0
100
AcDbLine
 10
154.0053168235812
 20
89.32784220979835
 30
0.0
 11
161.4274168235812
 21
89.32784220979835
 31
0.0
  0
LINE
  5
A51
330
1A
100
AcDbEntity
  8
SEIHIN
  6
Continuous
 62
     3
 48
16.0
100
AcDbLine
 10
172.9274168235812
 20
78.92784220979834
 30
0.0
 11
156.3772168235812
 21
78.9279422097984
 31
0.0
  0
ARC
  5
A52
330
1A
100
AcDbEntity
  8
SEIHIN
  6
Continuous
 62
     3
 48
16.0
100
AcDbCircle
 10
149.6163431558871
 20
90.59312774832234
 30
0.0
 40
4.500020999581868
100
AcDbArc
 50
191.5354170457779
 51
249.9386291864404
  0
ARC
  5
A53
330
1A
100
AcDbEntity
  8
SEIHIN
  6
Continuous
 62
     3
 48
16.0
100
AcDbCircle
 10
145.8430865037423
 20
80.26046770611072
 30
0.0
 40
10.0000123407778
100
AcDbArc
 50
14.71713087881824
 51
71.45178070032364
  0
ARC
  5
A54
330
1A
100
AcDbEntity
  8
SEIHIN
  6
Continuous
 62
     3
 48
16.0
100
AcDbCircle
 10
145.8429767226777
 20
80.26058533455747
 30
0.0
 40
9.199960397566162
100
AcDbArc
 50
13.42039380297366
 51
72.41731939048733
  0
ARC
  5
A55
330
1A
100
AcDbEntity
  8
NOKITOI
  6
PHANTOM
 62
     8
 48
5.0
100
AcDbCircle
 10
145.8431127107111
 20
80.26044652576922
 30
0.0
 40
10.99994632941524
100
AcDbArc
 50
11.36374015671925
 51
75.87555169639184
  0
ARC
  5
A56
330
1A
100
AcDbEntity
  8
NOKITOI
  6
PHANTOM
 62
     8
 48
5.0
100
AcDbCircle
 10
145.8431124624556
 20
80.26045038110613
 30
0.0
 40
12.19993877054614
100
AcDbArc
 50
16.02263637925393
 51
40.15603560521631
  0
LINE
  5
A57
330
1A
100
AcDbEntity
  8
NOKITOI
  6
PHANTOM
 62
     8
 48
5.0
100
AcDbLine
 10
160.227416823581
 20
83.62784220979841
 30
0.0
 11
160.227416823581
 21
88.12784220979835
 31
0.0
  0
ARC
  5
A58
330
1A
100
AcDbEntity
  8
SEIHIN
  6
Continuous
 62
     3
 48
16.0
100
AcDbCircle
 10
156.3771504835309
 20
83.42799153647993
 30
0.0
 40
4.500049327170517
100
AcDbArc
 50
196.7360646041078
 51
270.0008446584967
  0
ARC
  5
A59
330
1A
100
AcDbEntity
  8
SEIHIN
  6
Continuous
 62
     3
 48
16.0
100
AcDbCircle
 10
145.843008759715
 20
80.26055075605611
 30
0.0
 40
6.49998808076458
100
AcDbArc
 50
16.73452782795762
 51
69.93825309449175
  0
ARC
  5
A5A
330
1A
100
AcDbEntity
  8
SEIHIN
  6
Continuous
 62
     3
 48
16.0
100
AcDbCircle
 10
155.7645118518486
 20
82.62794613478314
 30
0.0
 40
1.000003924997077
100
AcDbArc
 50
193.4209166549806
 51
270.0002848581846
  0
ARC
  5
A5B
330
1A
100
AcDbEntity
  8
SEIHIN
  6
Continuous
 62
     3
 48
16.0
100
AcDbCircle
 10
155.9986181460363
 20
82.92794118979632
 30
0.0
 40
0.4999989799996464
100
AcDbArc
 50
194.7142483898104
 51
269.9998484575116
  0
LINE
  5
A5C
330
1A
100
AcDbEntity
  8
NOKITOI
  6
PHANTOM
 62
     8
 48
5.0
100
AcDbLine
 10
160.227416823581
 20
83.62784220979841
 30
0.0
 11
157.5691168235811
 21
83.62784220979841
 31
0.0
  0
ARC
  5
A5D
330
1A
100
AcDbEntity
  8
NOKITOI
  6
PHANTOM
 62
     8
 48
5.0
100
AcDbCircle
 10
145.843075036605
 20
80.26046620468738
 30
0.0
 40
12.19997945109428
100
AcDbArc
 50
48.00719042627341
 51
72.26181654227993
  0
ARC
  5
A5E
330
1A
100
AcDbEntity
  8
SEIHIN
  6
Continuous
 62
     3
 48
16.0
100
AcDbCircle
 10
148.9242291205561
 20
89.98402854148531
 30
0.0
 40
1.000013334993353
100
AcDbArc
 50
191.5360038029075
 51
252.4157252969611
  0
ARC
  5
A5F
330
1A
100
AcDbEntity
  8
SEIHIN
  6
Continuous
 62
     3
 48
16.0
100
AcDbCircle
 10
149.1832080663297
 20
90.21505211113847
 30
0.0
 40
0.4999954100665482
100
AcDbArc
 50
191.5382244164504
 51
251.4467786050189
  0
LINE
  5
A60
330
1A
100
AcDbEntity
  8
NOKITOI
  6
PHANTOM
 62
     8
 48
5.0
100
AcDbLine
 10
155.1674168235811
 20
88.12784220979835
 30
0.0
 11
160.227416823581
 21
88.12784220979835
 31
0.0
  0
LINE
  5
A61
330
1A
100
AcDbEntity
  8
NOKITOI
  6
PHANTOM
 62
     8
 48
5.0
100
AcDbLine
 10
161.4274168235812
 20
83.62784220979841
 30
0.0
 11
161.4274168235812
 21
89.32784220979835
 31
0.0
  0
LINE
  5
A62
330
1A
100
AcDbEntity
  8
SEIHIN
  6
Continuous
 62
     3
 48
16.0
100
AcDbLine
 10
172.9274168235812
 20
78.92784220979837
 30
0.0
 11
172.9274168235812
 21
81.62784220979842
 31
0.0
  0
LINE
  5
A63
330
1A
100
AcDbEntity
  8
SEIHIN
  6
Continuous
 62
     3
 48
16.0
100
AcDbLine
 10
172.9274168235812
 20
79.22779387201387
 30
0.0
 11
174.4274168235814
 21
77.72779387201388
 31
0.0
  0
ARC
  5
A64
330
1A
100
AcDbEntity
  8
SEIHIN
  6
Continuous
 62
     3
 48
16.0
100
AcDbCircle
 10
187.9274168235811
 20
74.72779387201391
 30
0.0
 40
3.0
100
AcDbArc
 50
0.0000000000006616
 51
90.0
  0
ARC
  5
A65
330
1A
100
AcDbEntity
  8
SEIHIN
  6
Continuous
 62
     3
 48
16.0
100
AcDbCircle
 10
187.4274168235811
 20
73.62784220979839
 30
0.0
 40
8.000000000000042
100
AcDbArc
 50
359.9999999999997
 51
89.99999999999969
  0
LINE
  5
A66
330
1A
100
AcDbEntity
  8
CENTER L
  6
CENTER
 62
     1
 48
5.0
100
AcDbLine
 10
180.9274168235812
 20
72.37114220979842
 30
0.0
 11
180.9274168235812
 21
94.17704220979834
 31
0.0
  0
ARC
  5
A67
330
1A
100
AcDbEntity
  8
SEIHIN
  6
Continuous
 62
     3
 48
16.0
100
AcDbCircle
 10
200.9274168233313
 20
72.12784221004844
 30
0.0
 40
10.00000000025005
100
AcDbArc
 50
179.999427043638
 51
270.000000001433
  0
LINE
  5
A68
330
1A
100
AcDbEntity
  8
SEIHIN
  6
Continuous
 62
     3
 48
16.0
100
AcDbLine
 10
190.9274168235812
 20
72.12784220979841
 30
0.0
 11
190.9274168235811
 21
74.72779387201393
 31
0.0
  0
LINE
  5
A69
330
1A
100
AcDbEntity
  8
SEIHIN
  6
Continuous
 62
     3
 48
16.0
100
AcDbLine
 10
208.4701168235812
 20
62.12784220979841
 30
0.0
 11
200.9274168235814
 21
62.12784220979841
 31
0.0
  0
LINE
  5
A6A
330
1A
100
AcDbEntity
  8
SEIHIN
  6
Continuous
 62
     3
 48
16.0
100
AcDbLine
 10
208.4701168235812
 20
66.62784220979841
 30
0.0
 11
200.9274168235814
 21
66.62784220979841
 31
0.0
  0
ARC
  5
A6B
330
1A
100
AcDbEntity
  8
SEIHIN
  6
Continuous
 62
     3
 48
16.0
100
AcDbCircle
 10
200.9274168235813
 20
72.1278422097985
 30
0.0
 40
5.500000000000085
100
AcDbArc
 50
180.0000000000009
 51
270.0000000000009
  0
LINE
  5
A6C
330
1A
100
AcDbEntity
  8
SEIHIN
  6
Continuous
 62
     3
 48
16.0
100
AcDbLine
 10
195.4274168235812
 20
72.12784220979841
 30
0.0
 11
195.4274168235812
 21
73.62784220979833
 31
0.0
  0
LINE
  5
A6D
330
1A
100
AcDbEntity
  8
NOKITOI
  6
PHANTOM
 62
     8
 48
5.0
100
AcDbLine
 10
180.9274168235812
 20
83.62784220979841
 30
0.0
 11
200.4274168235812
 21
83.62784220979841
 31
0.0
  0
LINE
  5
A6E
330
1A
100
AcDbEntity
  8
SEIHIN
  6
Continuous
 62
     3
 48
16.0
100
AcDbLine
 10
180.9274168235812
 20
81.62784220979842
 30
0.0
 11
206.0903168235812
 21
81.62784220979842
 31
0.0
  0
LINE
  5
A6F
330
1A
100
AcDbEntity
  8
SEIHIN
  6
Continuous
 62
     3
 48
16.0
100
AcDbLine
 10
205.8562168235812
 20
82.4278422097984
 30
0.0
 11
180.9274168235812
 21
82.4278422097984
 31
0.0
  0
LINE
  5
A70
330
1A
100
AcDbEntity
  8
NOKITOI
  6
PHANTOM
 62
     8
 48
5.0
100
AcDbLine
 10
205.2274168235811
 20
82.4278422097984
 30
0.0
 11
180.9274168235812
 21
82.4278422097984
 31
0.0
  0
LINE
  5
A71
330
1A
100
AcDbEntity
  8
SEIHIN
  6
Continuous
 62
     3
 48
16.0
100
AcDbLine
 10
180.9274168235812
 20
76.72779387201379
 30
0.0
 11
184.9274168235814
 21
76.72779387201379
 31
0.0
  0
LINE
  5
A72
330
1A
100
AcDbEntity
  8
SEIHIN
  6
Continuous
 62
     3
 48
16.0
100
AcDbLine
 10
180.9274168235812
 20
76.72779387201379
 30
0.0
 11
176.9274168235812
 21
76.72779387201379
 31
0.0
  0
LINE
  5
A73
330
1A
100
AcDbEntity
  8
SEIHIN
  6
Continuous
 62
     3
 48
16.0
100
AcDbLine
 10
176.9274168235812
 20
76.72779387201379
 30
0.0
 11
176.9274168235812
 21
77.72779387201388
 31
0.0
  0
LINE
  5
A74
330
1A
100
AcDbEntity
  8
SEIHIN
  6
Continuous
 62
     3
 48
16.0
100
AcDbLine
 10
184.9274168235814
 20
76.72779387201379
 30
0.0
 11
184.9274168235814
 21
77.72779387201388
 31
0.0
  0
ARC
  5
A75
330
1A
100
AcDbEntity
  8
NOKITOI
  6
PHANTOM
 62
     8
 48
5.0
100
AcDbCircle
 10
216.0117938072519
 20
80.26048645066371
 30
0.0
 40
12.19997101530972
100
AcDbArc
 50
139.8443138052131
 51
163.9780719705774
  0
LINE
  5
A76
330
1A
100
AcDbEntity
  8
NOKITOI
  6
PHANTOM
 62
     8
 48
5.0
100
AcDbLine
 10
200.4274168235812
 20
83.62774220979833
 30
0.0
 11
200.4274168235812
 21
89.32784220979835
 31
0.0
  0
LINE
  5
A77
330
1A
100
AcDbEntity
  8
NOKITOI
  6
PHANTOM
 62
     8
 48
5.0
100
AcDbLine
 10
201.6274168235812
 20
83.62784220979841
 30
0.0
 11
201.6274168235812
 21
88.12784220979835
 31
0.0
  0
LINE
  5
A78
330
1A
100
AcDbEntity
  8
SEIHIN
  6
Continuous
 62
     3
 48
16.0
100
AcDbLine
 10
201.8562168235813
 20
82.4278422097984
 30
0.0
 11
193.4453168235814
 21
82.4278422097984
 31
0.0
  0
LINE
  5
A79
330
1A
100
AcDbEntity
  8
SEIHIN
  6
Continuous
 62
     3
 48
16.0
100
AcDbLine
 10
193.4199168235814
 20
78.92784220979834
 30
0.0
 11
205.4776168235814
 21
78.92784220979834
 31
0.0
  0
LINE
  5
A7A
330
1A
100
AcDbEntity
  8
NOKITOI
  6
PHANTOM
 62
     8
 48
5.0
100
AcDbLine
 10
201.6274168235812
 20
83.62784220979841
 30
0.0
 11
204.2857168235812
 21
83.62784220979841
 31
0.0
  0
ARC
  5
A7B
330
1A
100
AcDbEntity
  8
SEIHIN
  6
Continuous
 62
     3
 48
16.0
100
AcDbCircle
 10
206.090321795314
 20
82.62784613478306
 30
0.0
 40
1.000003924996998
100
AcDbArc
 50
269.999715141813
 51
346.5790833450177
  0
ARC
  5
A7C
330
1A
100
AcDbEntity
  8
SEIHIN
  6
Continuous
 62
     3
 48
16.0
100
AcDbCircle
 10
205.8562155011263
 20
82.92784118979639
 30
0.0
 40
0.4999989799997532
100
AcDbArc
 50
270.0001515424802
 51
345.2857516101807
  0
LINE
  5
A7D
330
1A
100
AcDbEntity
  8
NOKITOI
  6
PHANTOM
 62
     8
 48
5.0
100
AcDbLine
 10
207.8495168235812
 20
89.32774220979842
 30
0.0
 11
200.4274168235812
 21
89.32784220979835
 31
0.0
  0
LINE
  5
A7E
330
1A
100
AcDbEntity
  8
NOKITOI
  6
PHANTOM
 62
     8
 48
5.0
100
AcDbLine
 10
206.6874168235812
 20
88.12784220979835
 30
0.0
 11
201.6274168235812
 21
88.12784220979835
 31
0.0
  0
LINE
  5
A7F
330
1A
100
AcDbEntity
  8
SEIHIN
  6
Continuous
 62
     3
 48
16.0
100
AcDbLine
 10
148.5275168235814
 20
193.4279422097984
 30
0.0
 11
138.4276168235814
 21
193.4279422097984
 31
0.0
  0
LINE
  5
A80
330
1A
100
AcDbEntity
  8
SEIHIN
  6
Continuous
 62
     3
 48
16.0
100
AcDbLine
 10
148.5275168235814
 20
211.4279422097984
 30
0.0
 11
138.4276168235814
 21
211.4279422097984
 31
0.0
  0
ARC
  5
A81
330
1A
100
AcDbEntity
  8
SEIHIN
  6
Continuous
 62
     3
 48
16.0
100
AcDbCircle
 10
143.8850168235813
 20
206.6778422097983
 30
0.0
 40
2.263581732564481
100
AcDbArc
 50
83.69726450926528
 51
276.3027354907347
  0
ARC
  5
A82
330
1A
100
AcDbEntity
  8
SEIHIN
  6
Continuous
 62
     3
 48
16.0
100
AcDbCircle
 10
143.88491682346
 20
198.1779922097984
 30
0.0
 40
2.263642410488098
100
AcDbArc
 50
83.69488760908012
 51
276.3051123909199
  0
DIMENSION
  5
A83
330
1A
100
AcDbEntity
  8
SUNPOU
  6
Continuous
100
AcDbDimension
  2
*D3
 10
119.0874619463311
 20
192.4279422097984
 30
0.0
 11
116.5874619463311
 21
202.4279422097984
 31
0.0
 12
0.0
 22
-16.37653413657381
 32
0.0
 70
    32
 71
     5
 42
-1.0
  3
STANDARD
100
AcDbAlignedDimension
 13
137.6275168235814
 23
212.4279422097984
 33
0.0
 14
137.6274168235813
 24
192.4279422097984
 34
0.0
 50
90.0
100
AcDbRotatedDimension
1001
ACAD
1000
DSTYLE
1002
{
1070
   140
1040
3.0
1070
    74
1070
     0
1070
   172
1070
     1
1070
    73
1070
     0
1070
   272
1070
     2
1070
    77
1070
     3
1070
   173
1070
     1
1070
   147
1040
1.0
1070
    42
1040
3.0
1070
    44
1040
1.5
1070
    43
1040
7.0
1070
   271
1070
     0
1070
   178
1070
     4
1070
   177
1070
     4
1070
   176
1070
     4
1070
   141
1040
150.0
1070
     7
1000
_OPEN
1070
     6
1000
_OPEN
1070
    41
1040
3.0
1002
}
  0
LINE
  5
A84
330
1A
100
AcDbEntity
  8
SEIHIN
  6
Continuous
 62
     3
 48
16.0
100
AcDbLine
 10
138.4275168235812
 20
192.4279422097984
 30
0.0
 11
138.4275168235812
 21
212.4279422097984
 31
0.0
  0
LINE
  5
A85
330
1A
100
AcDbEntity
  8
SEIHIN
  6
Continuous
 62
     3
 48
16.0
100
AcDbLine
 10
137.6274168235813
 20
192.4279422097984
 30
0.0
 11
137.6274168235813
 21
212.4279422097984
 31
0.0
  0
LINE
  5
A86
330
1A
100
AcDbEntity
  8
SEIHIN
  6
Continuous
 62
     3
 48
16.0
100
AcDbLine
 10
138.4276168235814
 20
195.9279422097984
 30
0.0
 11
137.6276168235812
 21
195.9279422097984
 31
0.0
  0
LINE
  5
A87
330
1A
100
AcDbEntity
  8
SEIHIN
  6
Continuous
 62
     3
 48
16.0
100
AcDbLine
 10
138.4275168235812
 20
192.4279422097984
 30
0.0
 11
137.6276168235812
 21
192.4279422097984
 31
0.0
  0
LINE
  5
A88
330
1A
100
AcDbEntity
  8
SEIHIN
  6
Continuous
 62
     3
 48
16.0
100
AcDbLine
 10
138.4276168235814
 20
208.9279422097984
 30
0.0
 11
137.6276168235812
 21
208.9279422097984
 31
0.0
  0
LINE
  5
A89
330
1A
100
AcDbEntity
  8
SEIHIN
  6
Continuous
 62
     3
 48
16.0
100
AcDbLine
 10
138.4276168235814
 20
212.4279422097984
 30
0.0
 11
137.6276168235812
 21
212.4279422097984
 31
0.0
  0
LINE
  5
A8A
330
1A
100
AcDbEntity
  8
CENTER L
  6
CENTER
 62
     1
 48
5.0
100
AcDbLine
 10
180.9275168235812
 20
218.4279422097984
 30
0.0
 11
180.9275168235812
 21
190.1585422097984
 31
0.0
  0
ARC
  5
A8B
330
1A
100
AcDbEntity
  8
SEIHIN
  6
Continuous
 62
     3
 48
16.0
100
AcDbCircle
 10
180.9275168235813
 20
202.4279422097984
 30
0.0
 40
4.500000000000056
100
AcDbArc
 50
0.0
 51
180.0
  0
ARC
  5
A8C
330
1A
100
AcDbEntity
  8
SEIHIN
  6
Continuous
 62
     3
 48
16.0
100
AcDbCircle
 10
180.9275168235813
 20
202.4279422097984
 30
0.0
 40
4.500000000000056
100
AcDbArc
 50
180.0
 51
0.0
  0
ARC
  5
A8D
330
1A
100
AcDbEntity
  8
SEIHIN
  6
Continuous
 62
     3
 48
16.0
100
AcDbCircle
 10
180.9275168164726
 20
202.4278922097983
 30
0.0
 40
6.000000007316972
100
AcDbArc
 50
0.0004774648293933
 51
359.9995225351706
  0
LINE
  5
A8E
330
1A
100
AcDbEntity
  8
SEIHIN
  6
Continuous
 62
     3
 48
16.0
100
AcDbLine
 10
180.9275168235812
 20
193.4279422097984
 30
0.0
 11
156.6275168235814
 21
193.4279422097984
 31
0.0
  0
LINE
  5
A8F
330
1A
100
AcDbEntity
  8
SEIHIN
  6
Continuous
 62
     3
 48
16.0
100
AcDbLine
 10
180.9275168235812
 20
211.4279422097984
 30
0.0
 11
156.6275168235814
 21
211.4279422097984
 31
0.0
  0
LINE
  5
A90
330
1A
100
AcDbEntity
  8
SEIHIN
  6
Continuous
 62
     3
 48
16.0
100
AcDbLine
 10
180.9275168235812
 20
208.9279422097984
 30
0.0
 11
144.1335168235814
 21
208.9279422097984
 31
0.0
  0
LINE
  5
A91
330
1A
100
AcDbEntity
  8
SEIHIN
  6
Continuous
 62
     3
 48
16.0
100
AcDbLine
 10
180.9275168235812
 20
195.9279422097984
 30
0.0
 11
144.1335168235814
 21
195.9279422097984
 31
0.0
  0
LINE
  5
A92
330
1A
100
AcDbEntity
  8
SEIHIN
  6
Continuous
 62
     3
 48
16.0
100
AcDbLine
 10
175.2706168235812
 20
200.4279422097984
 30
0.0
 11
144.1335168235814
 21
200.4279422097984
 31
0.0
  0
LINE
  5
A93
330
1A
100
AcDbEntity
  8
SEIHIN
  6
Continuous
 62
     3
 48
16.0
100
AcDbLine
 10
175.2706168235812
 20
204.4278422097983
 30
0.0
 11
144.1335168235814
 21
204.4279422097984
 31
0.0
  0
LINE
  5
A94
330
1A
100
AcDbEntity
  8
SEIHIN
  6
Continuous
 62
     3
 48
16.0
100
AcDbLine
 10
148.5275168235814
 20
200.4279422097984
 30
0.0
 11
148.5275168235814
 21
204.4279280980153
 31
0.0
  0
LINE
  5
A95
330
1A
100
AcDbEntity
  8
SEIHIN
  6
Continuous
 62
     3
 48
16.0
100
AcDbLine
 10
156.6275168235814
 20
200.4279422097984
 30
0.0
 11
156.6275168235814
 21
204.427902084032
 31
0.0
  0
LINE
  5
A96
330
1A
100
AcDbEntity
  8
SEIHIN
  6
Continuous
 62
     3
 48
16.0
100
AcDbLine
 10
143.9152168235813
 20
200.4279422097984
 30
0.0
 11
143.9152168235813
 21
204.4279429108914
 31
0.0
  0
ARC
  5
A97
330
1A
100
AcDbEntity
  8
SEIHIN
  6
Continuous
 62
     3
 48
16.0
100
AcDbCircle
 10
152.5775168235814
 20
176.8398422097983
 30
0.0
 40
17.07525238466474
100
AcDbArc
 50
76.27952224015759
 51
103.7204777598424
  0
ARC
  5
A98
330
1A
100
AcDbEntity
  8
SEIHIN
100
AcDbCircle
 10
149.4650297978663
 20
198.1779335602905
 30
0.0
 40
2.437512974286005
100
AcDbArc
 50
112.6200682624531
 51
247.3799317375469
  0
LINE
  5
A99
330
1A
100
AcDbEntity
  8
SEIHIN
  6
Continuous
 62
     3
 48
16.0
100
AcDbLine
 10
143.9152168235813
 20
193.4279422097984
 30
0.0
 11
143.9152168235813
 21
195.9279422097984
 31
0.0
  0
LINE
  5
A9A
330
1A
100
AcDbEntity
  8
SEIHIN
  6
Continuous
 62
     3
 48
16.0
100
AcDbLine
 10
148.5275168235814
 20
193.4279422097984
 30
0.0
 11
148.5275168235814
 21
195.9279422097984
 31
0.0
  0
ARC
  5
A9B
330
1A
100
AcDbEntity
  8
SEIHIN
100
AcDbCircle
 10
159.8936563111859
 20
198.1779210359763
 30
0.0
 40
3.966139487604662
100
AcDbArc
 50
145.4373091409733
 51
214.5626908590267
  0
LINE
  5
A9C
330
1A
100
AcDbEntity
  8
SEIHIN
  6
Continuous
 62
     3
 48
16.0
100
AcDbLine
 10
156.6275168235814
 20
193.4279422097984
 30
0.0
 11
156.6275168235814
 21
195.9279422097984
 31
0.0
  0
ARC
  5
A9D
330
1A
100
AcDbEntity
  8
SEIHIN
  6
Continuous
 62
     3
 48
16.0
100
AcDbCircle
 10
152.5775168235814
 20
228.0160422103673
 30
0.0
 40
17.07534953167501
100
AcDbArc
 50
256.2796018273882
 51
283.7203981726119
  0
ARC
  5
A9E
330
1A
100
AcDbEntity
  8
SEIHIN
100
AcDbCircle
 10
149.4650297978663
 20
206.6779335602906
 30
0.0
 40
2.437512974286005
100
AcDbArc
 50
112.6200682624531
 51
247.3799317375469
  0
LINE
  5
A9F
330
1A
100
AcDbEntity
  8
SEIHIN
  6
Continuous
 62
     3
 48
16.0
100
AcDbLine
 10
143.9153168235812
 20
211.4279422097984
 30
0.0
 11
143.9152890458035
 21
208.9279422097984
 31
0.0
  0
LINE
  5
AA0
330
1A
100
AcDbEntity
  8
SEIHIN
  6
Continuous
 62
     3
 48
16.0
100
AcDbLine
 10
148.5275168235814
 20
211.4279422097984
 30
0.0
 11
148.5275168235814
 21
208.9279422097984
 31
0.0
  0
ARC
  5
AA1
330
1A
100
AcDbEntity
  8
SEIHIN
100
AcDbCircle
 10
159.8936563111859
 20
206.6779210359763
 30
0.0
 40
3.966139487604662
100
AcDbArc
 50
145.4373091409733
 51
214.5626908590267
  0
LINE
  5
AA2
330
1A
100
AcDbEntity
  8
SEIHIN
  6
Continuous
 62
     3
 48
16.0
100
AcDbLine
 10
156.6275168235814
 20
211.4279422097984
 30
0.0
 11
156.6275168235814
 21
208.9279422097984
 31
0.0
  0
LINE
  5
AA3
330
1A
100
AcDbEntity
  8
SEIHIN
  6
Continuous
 62
     3
 48
16.0
100
AcDbLine
 10
180.9276168235814
 20
211.4279422097984
 30
0.0
 11
205.2276168235814
 21
211.4279422097984
 31
0.0
  0
LINE
  5
AA4
330
1A
100
AcDbEntity
  8
SEIHIN
  6
Continuous
 62
     3
 48
16.0
100
AcDbLine
 10
180.9276168235814
 20
193.4279422097984
 30
0.0
 11
205.2276168235814
 21
193.4279422097984
 31
0.0
  0
LINE
  5
AA5
330
1A
100
AcDbEntity
  8
SEIHIN
  6
Continuous
 62
     3
 48
16.0
100
AcDbLine
 10
182.9276168235814
 20
204.4279422097984
 30
0.0
 11
182.9276168235814
 21
200.4279422097984
 31
0.0
  0
LINE
  5
AA6
330
1A
100
AcDbEntity
  8
SEIHIN
  6
Continuous
 62
     3
 48
16.0
100
AcDbLine
 10
178.9275168235812
 20
204.4279422097984
 30
0.0
 11
178.9275168235812
 21
200.4279422097984
 31
0.0
  0
LINE
  5
AA7
330
1A
100
AcDbEntity
  8
SEIHIN
  6
Continuous
 62
     3
 48
16.0
100
AcDbLine
 10
178.9275168235812
 20
200.4279422097984
 30
0.0
 11
182.9276168235814
 21
200.4279422097984
 31
0.0
  0
LINE
  5
AA8
330
1A
100
AcDbEntity
  8
SEIHIN
  6
Continuous
 62
     3
 48
16.0
100
AcDbLine
 10
178.9275168235812
 20
204.4279422097984
 30
0.0
 11
182.9276168235814
 21
204.4279422097984
 31
0.0
  0
LINE
  5
AA9
330
1A
100
AcDbEntity
  8
SEIHIN
  6
Continuous
 62
     3
 48
16.0
100
AcDbLine
 10
205.2276168235814
 20
200.4279040582418
 30
0.0
 11
205.2276168235814
 21
204.4278422097983
 31
0.0
  0
ARC
  5
AAA
330
1A
100
AcDbEntity
  8
SEIHIN
100
AcDbCircle
 10
201.9614874692788
 20
198.1778860369752
 30
0.0
 40
3.966129354302711
100
AcDbArc
 50
325.4372635983646
 51
34.56273640163535
  0
LINE
  5
AAB
330
1A
100
AcDbEntity
  8
SEIHIN
  6
Continuous
 62
     3
 48
16.0
100
AcDbLine
 10
205.2276168235814
 20
193.4278422097982
 30
0.0
 11
205.2276168235814
 21
195.9278782523314
 31
0.0
  0
ARC
  5
AAC
330
1A
100
AcDbEntity
  8
SEIHIN
100
AcDbCircle
 10
201.9614874692788
 20
206.6778602310648
 30
0.0
 40
3.966129354302711
100
AcDbArc
 50
325.4372635983646
 51
34.56273640163535
  0
LINE
  5
AAD
330
1A
100
AcDbEntity
  8
SEIHIN
  6
Continuous
 62
     3
 48
16.0
100
AcDbLine
 10
205.2276168235814
 20
211.4279422097984
 30
0.0
 11
205.2276168235814
 21
208.9278782523314
 31
0.0
  0
DIMENSION
  5
AAE
330
1A
100
AcDbEntity
  8
SUNPOU
  6
Continuous
100
AcDbDimension
  2
*D4
 10
223.4274168235812
 20
141.7493600928145
 30
0.0
 11
228.6274168235813
 21
144.2493600928146
 31
0.0
 12
0.0
 22
-16.37653413657381
 32
0.0
 70
    32
 71
     5
 42
-1.0
  3
STANDARD
100
AcDbAlignedDimension
 13
233.8274168235814
 23
107.1278422097983
 33
0.0
 14
223.4274168235812
 24
122.4277422097983
 34
0.0
100
AcDbRotatedDimension
1001
ACAD
1000
DSTYLE
1002
{
1070
   140
1040
3.0
1070
    74
1070
     0
1070
   172
1070
     1
1070
    73
1070
     0
1070
   272
1070
     2
1070
    77
1070
     3
1070
   173
1070
     1
1070
   147
1040
1.0
1070
    42
1040
3.0
1070
    44
1040
1.5
1070
    43
1040
7.0
1070
   271
1070
     0
1070
   178
1070
     4
1070
   177
1070
     4
1070
   176
1070
     4
1070
   141
1040
150.0
1070
     7
1000
_OPEN
1070
     6
1000
_OPEN
1070
    41
1040
3.0
1002
}
  0
DIMENSION
  5
AAF
330
1A
100
AcDbEntity
  8
SUNPOU
  6
Continuous
100
AcDbDimension
  2
*D5
 10
321.4225194573934
 20
141.7168436023605
 30
0.0
 11
345.9225194573935
 21
144.2168436023605
 31
0.0
 12
0.0
 22
-16.37653413657381
 32
0.0
 70
    32
 71
     5
 42
-1.0
  3
STANDARD
100
AcDbAlignedDimension
 13
370.4225194573936
 23
107.1278422097983
 33
0.0
 14
321.4225194573934
 24
107.1279422097984
 34
0.0
100
AcDbRotatedDimension
1001
ACAD
1000
DSTYLE
1002
{
1070
   140
1040
3.0
1070
    74
1070
     0
1070
   172
1070
     1
1070
    73
1070
     0
1070
   272
1070
     2
1070
    77
1070
     3
1070
   173
1070
     1
1070
   147
1040
1.0
1070
    42
1040
3.0
1070
    44
1040
1.5
1070
    43
1040
7.0
1070
   271
1070
     0
1070
   178
1070
     4
1070
   177
1070
     4
1070
   176
1070
     4
1070
   141
1040
150.0
1070
     7
1000
_OPEN
1070
     6
1000
_OPEN
1070
    41
1040
3.0
1002
}
  0
LINE
  5
AB0
330
1A
100
AcDbEntity
  8
SEIHIN
  6
Continuous
100
AcDbLine
 10
339.1224980180639
 20
108.5622422097984
 30
0.0
 11
352.7225194573933
 21
108.5622422097984
 31
0.0
  0
LINE
  5
AB1
330
1A
100
AcDbEntity
  8
SEIHIN
  6
Continuous
 62
     3
 48
16.0
100
AcDbLine
 10
345.9225194573934
 20
77.12784220979841
 30
0.0
 11
323.4225194573936
 21
77.12794220979842
 31
0.0
  0
DIMENSION
  5
AB2
330
1A
100
AcDbEntity
  8
SUNPOU
  6
Continuous
100
AcDbDimension
  2
*D6
 10
325.4225194573934
 20
132.2049225090309
 30
0.0
 11
345.9225194573935
 21
134.704922509031
 31
0.0
 12
0.0
 22
-16.37653413657381
 32
0.0
 70
    32
 71
     5
 42
-1.0
  3
STANDARD
100
AcDbAlignedDimension
 13
366.4225194573936
 23
107.1278422097983
 33
0.0
 14
325.4225194573934
 24
107.1279422097984
 34
0.0
100
AcDbRotatedDimension
1001
ACAD
1000
DSTYLE
1002
{
1070
   140
1040
3.0
1070
    74
1070
     0
1070
   172
1070
     1
1070
    73
1070
     0
1070
   272
1070
     2
1070
    77
1070
     3
1070
   173
1070
     1
1070
   147
1040
1.0
1070
    42
1040
3.0
1070
    44
1040
1.5
1070
    43
1040
7.0
1070
   271
1070
     0
1070
   178
1070
     4
1070
   177
1070
     4
1070
   176
1070
     4
1070
   141
1040
150.0
1070
     7
1000
_OPEN
1070
     6
1000
_OPEN
1070
    41
1040
3.0
1002
}
  0
DIMENSION
  5
AB3
330
1A
100
AcDbEntity
  8
SUNPOU
100
AcDbDimension
  2
*D7
 10
252.5019554070811
 20
77.12784220979841
 30
0.0
 11
250.0019554070811
 21
92.12784220979838
 31
0.0
 12
0.0
 22
-16.37653413657381
 32
0.0
 70
    32
 71
     5
 42
-1.0
  3
STANDARD
100
AcDbAlignedDimension
 13
233.8274168235814
 23
107.1278422097983
 33
0.0
 14
233.8274168235814
 24
77.12784220979841
 34
0.0
 50
90.0
100
AcDbRotatedDimension
1001
ACAD
1000
DSTYLE
1002
{
1070
   140
1040
3.0
1070
    74
1070
     0
1070
   172
1070
     1
1070
    73
1070
     0
1070
   272
1070
     2
1070
    77
1070
     3
1070
   173
1070
     1
1070
   147
1040
1.0
1070
    42
1040
3.0
1070
    44
1040
1.5
1070
    43
1040
7.0
1070
   271
1070
     0
1070
   178
1070
     4
1070
   177
1070
     4
1070
   176
1070
     4
1070
   141
1040
150.0
1070
     7
1000
_OPEN
1070
     6
1000
_OPEN
1070
    41
1040
3.0
1002
}
  0
LINE
  5
AB4
330
1A
100
AcDbEntity
  8
SEIHIN
  6
Continuous
 62
     3
 48
16.0
100
AcDbLine
 10
229.3274168235814
 20
77.12784220979841
 30
0.0
 11
229.3274168235814
 21
105.6278422097984
 31
0.0
  0
LINE
  5
AB5
330
1A
100
AcDbEntity
  8
SEIHIN
  6
Continuous
 62
     3
 48
16.0
100
AcDbLine
 10
233.8274168235814
 20
77.12784220979841
 30
0.0
 11
233.8274168235814
 21
107.1278422097983
 31
0.0
  0
LINE
  5
AB6
330
1A
100
AcDbEntity
  8
SEIHIN
  6
Continuous
 62
     3
 48
16.0
100
AcDbLine
 10
213.9104168235814
 20
89.78404220979834
 30
0.0
 11
218.5928168235814
 21
112.7278422097983
 31
0.0
  0
LINE
  5
AB7
330
1A
100
AcDbEntity
  8
SEIHIN
  6
Continuous
 62
     3
 48
16.0
100
AcDbLine
 10
217.9396168235814
 20
113.5278422097983
 30
0.0
 11
213.1615168235814
 21
90.11504220979842
 31
0.0
  0
LINE
  5
AB8
330
1A
100
AcDbEntity
  8
NOKITOI
  6
PHANTOM
 62
     8
 48
5.0
100
AcDbLine
 10
218.3274168235812
 20
115.4277422097983
 30
0.0
 11
213.3274168235812
 21
90.92784220979842
 31
0.0
  0
LINE
  5
AB9
330
1A
100
AcDbEntity
  8
NOKITOI
  6
PHANTOM
 62
     8
 48
5.0
100
AcDbLine
 10
218.5290168235812
 20
122.4277422097983
 30
0.0
 11
212.2948168235812
 21
91.88034220979842
 31
0.0
  0
LINE
  5
ABA
330
1A
100
AcDbEntity
  8
SEIHIN
  6
Continuous
 62
     3
 48
16.0
100
AcDbLine
 10
216.6475168235812
 20
89.6932422097984
 30
0.0
 11
221.4301168235814
 21
113.1278422097983
 31
0.0
  0
LINE
  5
ABB
330
1A
100
AcDbEntity
  8
SEIHIN
  6
Continuous
 62
     3
 48
16.0
100
AcDbLine
 10
218.2681168235813
 20
70.12824220979834
 30
0.0
 11
225.0230168235812
 21
103.2276422097983
 31
0.0
  0
LINE
  5
ABC
330
1A
100
AcDbEntity
  8
SEIHIN
  6
Continuous
 62
     3
 48
16.0
100
AcDbLine
 10
213.8590168235814
 20
71.02814220979841
 30
0.0
 11
220.6139168235814
 21
104.1274422097983
 31
0.0
  0
DIMENSION
  5
ABD
330
1A
100
AcDbEntity
  8
SUNPOU
  6
Continuous
100
AcDbDimension
  2
*D8
 10
260.3140597018116
 20
77.12784220979841
 30
0.0
 11
257.8140597018116
 21
94.62785120507131
 31
0.0
 12
0.0
 22
-16.37653413657381
 32
0.0
 70
    32
 71
     5
 42
-1.0
  3
STANDARD
100
AcDbAlignedDimension
 13
228.827408270596
 23
112.1278602003442
 33
0.0
 14
233.8274168235814
 24
77.12784220979841
 34
0.0
 50
90.0
100
AcDbRotatedDimension
1001
ACAD
1000
DSTYLE
1002
{
1070
   140
1040
3.0
1070
    74
1070
     0
1070
   172
1070
     1
1070
    73
1070
     0
1070
   272
1070
     2
1070
    77
1070
     3
1070
   173
1070
     1
1070
   147
1040
1.0
1070
    42
1040
3.0
1070
    44
1040
1.5
1070
    43
1040
7.0
1070
   271
1070
     0
1070
   178
1070
     4
1070
   177
1070
     4
1070
   176
1070
     4
1070
   141
1040
150.0
1070
     7
1000
_OPEN
1070
     6
1000
_OPEN
1070
    41
1040
3.0
1002
}
  0
LINE
  5
ABE
330
1A
100
AcDbEntity
  8
SEIHIN
  6
Continuous
 62
     3
 48
16.0
100
AcDbLine
 10
232.6274168235812
 20
77.12784220979841
 30
0.0
 11
232.6274168235813
 21
108.9608875245759
 31
0.0
  0
DIMENSION
  5
ABF
330
1A
100
AcDbEntity
  8
SUNPOU
100
AcDbDimension
  2
*D9
 10
268.5711598484004
 20
77.12784220979841
 30
0.0
 11
266.0711598484004
 21
99.77779220979835
 31
0.0
 12
0.0
 22
-16.37653413657381
 32
0.0
 70
    32
 71
     5
 42
-1.0
  3
STANDARD
100
AcDbAlignedDimension
 13
223.4274168235812
 23
122.4277422097983
 33
0.0
 14
233.8274168235814
 24
77.12784220979841
 34
0.0
 50
90.0
100
AcDbRotatedDimension
1001
ACAD
1000
DSTYLE
1002
{
1070
   140
1040
3.0
1070
    74
1070
     0
1070
   172
1070
     1
1070
    73
1070
     0
1070
   272
1070
     2
1070
    77
1070
     3
1070
   173
1070
     1
1070
   147
1040
1.0
1070
    42
1040
3.0
1070
    44
1040
1.5
1070
    43
1040
7.0
1070
   271
1070
     0
1070
   178
1070
     4
1070
   177
1070
     4
1070
   176
1070
     4
1070
   141
1040
150.0
1070
     7
1000
_OPEN
1070
     6
1000
_OPEN
1070
    41
1040
3.0
1002
}
  0
DIMENSION
  5
AC0
330
1A
100
AcDbEntity
  8
SUNPOU
  6
Continuous
100
AcDbDimension
  2
*D10
 10
233.8274168235814
 20
58.33151478512974
 30
0.0
 11
244.8274168235814
 21
60.83151478512974
 31
0.0
 12
0.0
 22
-16.37653413657381
 32
0.0
 70
    32
  1
t<>
 71
     5
 42
-1.0
  3
STANDARD
100
AcDbAlignedDimension
 13
232.6274168235812
 23
77.12784220979841
 33
0.0
 14
233.8274168235814
 24
77.12784220979841
 34
0.0
100
AcDbRotatedDimension
1001
ACAD
1000
DSTYLE
1002
{
1070
   140
1040
3.0
1070
    74
1070
     0
1070
   172
1070
     1
1070
    73
1070
     0
1070
   272
1070
     2
1070
    77
1070
     3
1070
   173
1070
     1
1070
   147
1040
1.0
1070
    42
1040
3.0
1070
    44
1040
1.5
1070
    43
1040
7.0
1070
   271
1070
     1
1070
   178
1070
     4
1070
   177
1070
     4
1070
   176
1070
     4
1070
   141
1040
150.0
1070
     7
1000
_OPEN
1070
     6
1000
_OPEN
1070
    41
1040
3.0
1002
}
  0
ARC
  5
AC1
330
1A
100
AcDbEntity
  8
SEIHIN
  6
Continuous
 62
     3
 48
16.0
100
AcDbCircle
 10
212.2383850857334
 20
90.5930053589336
 30
0.0
 40
4.500001822915005
100
AcDbArc
 50
290.0615332498041
 51
348.466123551108
  0
ARC
  5
AC2
330
1A
100
AcDbEntity
  8
SEIHIN
  6
Continuous
 62
     3
 48
16.0
100
AcDbCircle
 10
212.9306045266065
 20
89.98392854148548
 30
0.0
 40
1.000013334993511
100
AcDbArc
 50
287.5842747030352
 51
348.4639961970895
  0
ARC
  5
AC3
330
1A
100
AcDbEntity
  8
SEIHIN
  6
Continuous
 62
     3
 48
16.0
100
AcDbCircle
 10
212.6715626873836
 20
90.21498100491797
 30
0.0
 40
0.5000428165140036
100
AcDbArc
 50
288.5589998904328
 51
348.4711998543496
  0
LINE
  5
AC4
330
1A
100
AcDbEntity
  8
CENTER L
  6
CENTER
 62
     1
 48
5.0
100
AcDbLine
 10
240.8274168235814
 20
81.12784220979841
 30
0.0
 11
226.0534168235813
 21
81.12784220979841
 31
0.0
  0
LINE
  5
AC5
330
1A
100
AcDbEntity
  8
SEIHIN
100
AcDbLine
 10
230.2274168235812
 20
81.12784220979841
 30
0.0
 11
232.6274168235812
 21
78.68578365918654
 31
0.0
  0
LINE
  5
AC6
330
1A
100
AcDbEntity
  8
SEIHIN
  6
Continuous
 62
     3
 48
16.0
100
AcDbLine
 10
233.8274168235814
 20
77.12784220979841
 30
0.0
 11
229.3274168235814
 21
77.12784220979841
 31
0.0
  0
LINE
  5
AC7
330
1A
100
AcDbEntity
  8
SEIHIN
100
AcDbLine
 10
232.6274168235812
 20
83.57010864742397
 30
0.0
 11
230.2274168235812
 21
81.12784220979841
 31
0.0
  0
LINE
  5
AC8
330
1A
100
AcDbEntity
  8
SEIHIN
100
AcDbLine
 10
232.6274168235812
 20
81.12784220979841
 30
0.0
 11
230.2274168235812
 21
81.12784220979841
 31
0.0
  0
LINE
  5
AC9
330
1A
100
AcDbEntity
  8
SEIHIN
  6
Continuous
 62
     3
 48
16.0
100
AcDbLine
 10
223.4274168235812
 20
114.4279422097983
 30
0.0
 11
223.4274168235812
 21
123.0820422097983
 31
0.0
  0
LINE
  5
ACA
330
1A
100
AcDbEntity
  8
SEIHIN
  6
Continuous
 62
     3
 48
16.0
100
AcDbLine
 10
224.2274168235812
 20
114.1278422097984
 30
0.0
 11
224.2274168235812
 21
123.0820422097983
 31
0.0
  0
LINE
  5
ACB
330
1A
100
AcDbEntity
  8
NOKITOI
  6
PHANTOM
 62
     8
 48
5.0
100
AcDbLine
 10
223.4274168235812
 20
115.4277422097983
 30
0.0
 11
223.4274168235812
 21
122.4277422097983
 31
0.0
  0
ARC
  5
ACC
330
1A
100
AcDbEntity
  8
SEIHIN
  6
Continuous
 62
     3
 48
16.0
100
AcDbCircle
 10
230.0205383016112
 20
102.623019874157
 30
0.0
 40
5.033963556893122
100
AcDbArc
 50
109.7035813152446
 51
173.1016295335448
  0
ARC
  5
ACD
330
1A
100
AcDbEntity
  8
SEIHIN
  6
Continuous
 62
     3
 48
16.0
100
AcDbCircle
 10
230.04937426559
 20
102.5683568280746
 30
0.0
 40
9.563399205693626
100
AcDbArc
 50
94.38655679146142
 51
170.6174038821894
  0
LINE
  5
ACE
330
1A
100
AcDbEntity
  8
NOKITOI
  6
PHANTOM
 62
     8
 48
5.0
100
AcDbLine
 10
223.4274168235812
 20
115.4277422097983
 30
0.0
 11
218.3274168235812
 21
115.4277422097983
 31
0.0
  0
LINE
  5
ACF
330
1A
100
AcDbEntity
  8
SEIHIN
  6
Continuous
 62
     3
 48
16.0
100
AcDbLine
 10
218.4295168235814
 20
113.9279422097984
 30
0.0
 11
222.9274168235812
 21
113.9279422097984
 31
0.0
  0
LINE
  5
AD0
330
1A
100
AcDbEntity
  8
SEIHIN
  6
Continuous
 62
     3
 48
16.0
100
AcDbLine
 10
223.2274168235814
 20
113.1278422097983
 30
0.0
 11
219.0827168235814
 21
113.1278422097983
 31
0.0
  0
ARC
  5
AD1
330
1A
100
AcDbEntity
  8
SEIHIN
  6
Continuous
 62
     3
 48
16.0
100
AcDbCircle
 10
219.0827278320246
 20
112.62795119996
 30
0.0
 40
0.4999910099596005
100
AcDbArc
 50
90.001261497355
 51
168.4755775196286
  0
ARC
  5
AD2
330
1A
100
AcDbEntity
  8
SEIHIN
  6
Continuous
 62
     3
 48
16.0
100
AcDbCircle
 10
218.4295278320246
 20
113.42795119996
 30
0.0
 40
0.4999910099595756
100
AcDbArc
 50
90.00126149735825
 51
168.4755775196276
  0
ARC
  5
AD3
330
1A
100
AcDbEntity
  8
SEIHIN
  6
Continuous
 62
     3
 48
16.0
100
AcDbCircle
 10
223.2274168235813
 20
114.1278422097983
 30
0.0
 40
0.9999999999999573
100
AcDbArc
 50
270.0000000000065
 51
0.000000000007328
  0
ARC
  5
AD4
330
1A
100
AcDbEntity
  8
SEIHIN
  6
Continuous
 62
     3
 48
16.0
100
AcDbCircle
 10
222.9274168235813
 20
114.4279422097983
 30
0.0
 40
0.4999999999999716
100
AcDbArc
 50
269.9999999999968
 51
359.9999999999968
  0
LINE
  5
AD5
330
1A
100
AcDbEntity
  8
NOKITOI
  6
PHANTOM
 62
     8
 48
5.0
100
AcDbLine
 10
219.5111168235811
 20
121.2277422097983
 30
0.0
 11
222.2274168235811
 21
121.2277422097983
 31
0.0
  0
LINE
  5
AD6
330
1A
100
AcDbEntity
  8
NOKITOI
  6
PHANTOM
 62
     8
 48
5.0
100
AcDbLine
 10
218.5723168235812
 20
116.6277422097984
 30
0.0
 11
222.2274168235811
 21
116.6277422097984
 31
0.0
  0
LINE
  5
AD7
330
1A
100
AcDbEntity
  8
NOKITOI
  6
PHANTOM
 62
     8
 48
5.0
100
AcDbLine
 10
219.5111168235811
 20
121.2277422097983
 30
0.0
 11
218.5723168235812
 21
116.6277422097984
 31
0.0
  0
LINE
  5
AD8
330
1A
100
AcDbEntity
  8
NOKITOI
  6
PHANTOM
 62
     8
 48
5.0
100
AcDbLine
 10
222.2274168235811
 20
121.2277422097983
 30
0.0
 11
222.2274168235811
 21
116.6277422097984
 31
0.0
  0
ARC
  5
AD9
330
1A
100
AcDbEntity
  8
SEIHIN
  6
Continuous
 62
     3
 48
16.0
100
AcDbCircle
 10
229.6274168235812
 20
108.9608875245759
 30
0.0
 40
3.0
100
AcDbArc
 50
0.0
 51
66.42166111598808
  0
ARC
  5
ADA
330
1A
100
AcDbEntity
  8
SEIHIN
  6
Continuous
 62
     3
 48
16.0
100
AcDbCircle
 10
228.827408270596
 20
107.1278516473499
 30
0.0
 40
5.000008552994341
100
AcDbArc
 50
0.0
 51
84.37014067636511
  0
LINE
  5
ADB
330
1A
100
AcDbEntity
  8
CENTER L
  6
CENTER
 62
     1
 48
5.0
100
AcDbLine
 10
240.8274168235814
 20
103.1278422097984
 30
0.0
 11
226.2201168235812
 21
103.1278422097984
 31
0.0
  0
LINE
  5
ADC
330
1A
100
AcDbEntity
  8
SEIHIN
100
AcDbLine
 10
232.6274168235812
 20
105.5701086474239
 30
0.0
 11
230.2274168235813
 21
103.1278422097984
 31
0.0
  0
LINE
  5
ADD
330
1A
100
AcDbEntity
  8
SEIHIN
100
AcDbLine
 10
230.2274168235813
 20
103.1278422097984
 30
0.0
 11
232.6274168235812
 21
100.6857836591865
 31
0.0
  0
LINE
  5
ADE
330
1A
100
AcDbEntity
  8
SEIHIN
100
AcDbLine
 10
230.2274168235813
 20
103.1278422097984
 30
0.0
 11
232.6274168235813
 21
103.1278422097984
 31
0.0
  0
ARC
  5
ADF
330
1A
100
AcDbEntity
  8
SEIHIN
  6
Continuous
 62
     3
 48
16.0
100
AcDbCircle
 10
227.3274218023438
 20
105.6278336098072
 30
0.0
 40
1.999995021256113
100
AcDbArc
 50
0.0002463722122289
 51
60.13561705623047
  0
LINE
  5
AE0
330
1A
100
AcDbEntity
  8
SEIHIN
  6
Continuous
 62
     3
 48
16.0
100
AcDbLine
 10
233.8274168235814
 20
107.1278422097983
 30
0.0
 11
232.6274168235812
 21
107.1278422097983
 31
0.0
  0
LINE
  5
AE1
330
1A
100
AcDbEntity
  8
SEIHIN
  6
Continuous
 62
     3
 48
16.0
100
AcDbLine
 10
221.9615168235812
 20
124.8207422097983
 30
0.0
 11
216.9829168235812
 21
123.4867422097983
 31
0.0
  0
LINE
  5
AE2
330
1A
100
AcDbEntity
  8
SEIHIN
  6
Continuous
 62
     3
 48
16.0
100
AcDbLine
 10
222.7353168235814
 20
124.0334422097984
 30
0.0
 11
217.3606168235814
 21
122.0772422097984
 31
0.0
  0
LINE
  5
AE3
330
1A
100
AcDbEntity
  8
SEIHIN
  6
Continuous
 62
     3
 48
16.0
100
AcDbLine
 10
222.1685168235814
 20
124.0479422097984
 30
0.0
 11
217.1900168235814
 21
122.7140422097983
 31
0.0
  0
LINE
  5
AE4
330
1A
100
AcDbEntity
  8
SEIHIN
  6
Continuous
 62
     3
 48
16.0
100
AcDbLine
 10
217.3606168235814
 20
122.0772422097984
 30
0.0
 11
216.9829168235812
 21
123.4867422097983
 31
0.0
  0
LINE
  5
AE5
330
1A
100
AcDbEntity
  8
NOKITOI
  6
PHANTOM
 62
     8
 48
5.0
100
AcDbLine
 10
223.4274168235812
 20
122.4277422097983
 30
0.0
 11
218.5290168235812
 21
122.4277422097983
 31
0.0
  0
ARC
  5
AE6
330
1A
100
AcDbEntity
  8
SEIHIN
  6
Continuous
 62
     3
 48
16.0
100
AcDbCircle
 10
222.4273973099039
 20
123.0820571830304
 30
0.0
 40
1.800019513739617
100
AcDbArc
 50
359.9995233923883
 51
105.0000380484739
  0
ARC
  5
AE7
330
1A
100
AcDbEntity
  8
SEIHIN
  6
Continuous
 62
     3
 48
16.0
100
AcDbCircle
 10
222.427370523225
 20
123.0820777351416
 30
0.0
 40
1.000046300987213
100
AcDbArc
 50
359.997964642005
 51
105.0013447145225
  0
LINE
  5
AE8
330
1A
100
AcDbEntity
  8
CENTER L
  6
CENTER
 62
     1
 48
5.0
100
AcDbLine
 10
325.4225194573934
 20
98.12784220979843
 30
0.0
 11
325.4225194573934
 21
106.2416422097984
 31
0.0
  0
LINE
  5
AE9
330
1A
100
AcDbEntity
  8
SEIHIN
  6
Continuous
 62
     3
 48
16.0
100
AcDbLine
 10
321.4225194573934
 20
79.12794220979842
 30
0.0
 11
321.4225194573934
 21
105.1279422097984
 31
0.0
  0
LINE
  5
AEA
330
1A
100
AcDbEntity
  8
SEIHIN
  6
Continuous
 62
     3
 48
16.0
100
AcDbLine
 10
338.1225042323477
 20
112.1278602003442
 30
0.0
 11
338.1224194574776
 21
77.12787687690954
 31
0.0
  0
DIMENSION
  5
AEB
330
1A
100
AcDbEntity
  8
SUNPOU
  6
Continuous
100
AcDbDimension
  2
*D11
 10
305.3928197937494
 20
81.12794220979841
 30
0.0
 11
302.8928197937494
 21
92.12794220979837
 31
0.0
 12
0.0
 22
-16.37653413657381
 32
0.0
 70
    32
 71
     5
 42
-1.0
  3
STANDARD
100
AcDbAlignedDimension
 13
321.4225194573934
 23
103.1279422097983
 33
0.0
 14
321.4225194573934
 24
81.12794220979841
 34
0.0
 50
90.0
100
AcDbRotatedDimension
1001
ACAD
1000
DSTYLE
1002
{
1070
   140
1040
3.0
1070
    74
1070
     0
1070
   172
1070
     1
1070
    73
1070
     0
1070
   272
1070
     2
1070
    77
1070
     3
1070
   173
1070
     1
1070
   147
1040
1.0
1070
    42
1040
3.0
1070
    44
1040
1.5
1070
    43
1040
7.0
1070
   271
1070
     0
1070
   178
1070
     4
1070
   177
1070
     4
1070
   176
1070
     4
1070
   141
1040
150.0
1070
     7
1000
_OPEN
1070
     6
1000
_OPEN
1070
    41
1040
3.0
1002
}
  0
DIMENSION
  5
AEC
330
1A
100
AcDbEntity
  8
SUNPOU
  6
Continuous
100
AcDbDimension
  2
*D12
 10
295.8730197876446
 20
77.1279510986873
 30
0.0
 11
293.3730197876446
 21
92.12794665424286
 31
0.0
 12
0.0
 22
-16.37653413657381
 32
0.0
 70
    32
 71
     5
 42
-1.0
  3
STANDARD
100
AcDbAlignedDimension
 13
321.4225194573934
 23
107.1279422097984
 33
0.0
 14
321.4225194573934
 24
77.1279510986873
 34
0.0
 50
90.0
100
AcDbRotatedDimension
1001
ACAD
1000
DSTYLE
1002
{
1070
   140
1040
3.0
1070
    74
1070
     0
1070
   172
1070
     1
1070
    73
1070
     0
1070
   272
1070
     2
1070
    77
1070
     3
1070
   173
1070
     1
1070
   147
1040
1.0
1070
    42
1040
3.0
1070
    44
1040
1.5
1070
    43
1040
7.0
1070
   271
1070
     0
1070
   178
1070
     4
1070
   177
1070
     4
1070
   176
1070
     4
1070
   141
1040
150.0
1070
     7
1000
_OPEN
1070
     6
1000
_OPEN
1070
    41
1040
3.0
1002
}
  0
LINE
  5
AEE
330
1A
100
AcDbEntity
  8
CENTER L
  6
CENTER
 62
     1
 48
5.0
100
AcDbLine
 10
322.2748194573936
 20
81.12794220979841
 30
0.0
 11
329.1251194573935
 21
81.12794220979841
 31
0.0
  0
ARC
  5
AF0
330
1A
100
AcDbEntity
  8
SEIHIN
  6
Continuous
 62
     3
 48
16.0
100
AcDbCircle
 10
323.4225194573936
 20
79.12794220979851
 30
0.0
 40
2.000000000000085
100
AcDbArc
 50
180.0000000000024
 51
270.0000000000025
  0
LINE
  5
AF1
330
1A
100
AcDbEntity
  8
CENTER L
  6
CENTER
 62
     1
 48
5.0
100
AcDbLine
 10
325.4225194573934
 20
78.16474220979833
 30
0.0
 11
325.4225194573933
 21
86.12784220979841
 31
0.0
  0
LINE
  5
AF2
330
1A
100
AcDbEntity
  8
SEIHIN
  6
Continuous
 62
     3
 48
16.0
100
AcDbLine
 10
338.1224194573935
 20
80.12804220979843
 30
0.0
 11
336.6224194573935
 21
81.12804220979834
 31
0.0
  0
LINE
  5
AF3
330
1A
100
AcDbEntity
  8
SEIHIN
100
AcDbLine
 10
338.1224291464391
 20
81.12804220979834
 30
0.0
 11
336.6224194573935
 21
81.12804220979834
 31
0.0
  0
LINE
  5
AF4
330
1A
100
AcDbEntity
  8
SEIHIN
  6
Continuous
 62
     3
 48
16.0
100
AcDbLine
 10
338.1224194573935
 20
82.12784220979832
 30
0.0
 11
336.6224194573935
 21
81.12784220979841
 31
0.0
  0
MTEXT
  5
AF5
330
1A
100
AcDbEntity
  8
SUNPOU
  6
Continuous
 62
     4
100
AcDbMText
 10
315.4521887931119
 20
123.5493687727044
 30
0.0
 40
3.0
 41
0.0
 71
     9
 72
     5
  1
4-φ2.5
 73
     1
 44
1.0
1001
ACAD
1000
MTEXTBEGIN
1070
    73
1070
     1
1070
    44
1040
1.0
1070
    74
1070
     0
1000
MTEXTEND
  0
LEADER
  5
AF6
330
1A
100
AcDbEntity
  8
SUNPOU
  6
Continuous
 62
     4
100
AcDbLeader
  3
STANDARD
 73
     0
 40
3.0
 41
15.6
 76
     3
 10
324.537446450889
 20
104.954167832898
 30
0.0
 10
319.0951747747929
 20
122.508741319897
 30
0.0
 10
316.4521887931119
 20
122.5493687727044
 30
0.0
1001
ACAD
1000
DSTYLE
1002
{
1070
     6
1000
OPEN
1070
    41
1040
3.0
1070
    42
1040
3.0
1070
    43
1040
7.0
1070
    44
1040
1.5
1070
    73
1070
     0
1070
    74
1070
     0
1070
    77
1070
     3
1070
   140
1040
3.0
1070
   141
1040
150.0
1070
   147
1040
1.0
1070
   172
1070
     1
1070
   173
1070
     1
1070
   176
1070
     4
1070
   177
1070
     4
1070
   178
1070
     4
1070
   271
1070
     0
1070
   272
1070
     2
1070
   341
1005
B2
1070
   343
1005
B2
1070
   344
1005
B2
1002
}
  0
LINE
  5
AF8
330
1A
100
AcDbEntity
  8
CENTER L
  6
CENTER
 62
     1
 48
5.0
100
AcDbLine
 10
322.2749194573936
 20
103.1279422097983
 30
0.0
 11
328.9942194573933
 21
103.1279422097983
 31
0.0
  0
LINE
  5
AF9
330
1A
100
AcDbEntity
  8
SEIHIN
  6
Continuous
 62
     3
 48
16.0
100
AcDbLine
 10
323.4225194573936
 20
107.1279422097984
 30
0.0
 11
334.9225194573936
 21
107.1279422097984
 31
0.0
  0
ARC
  5
AFB
330
1A
100
AcDbEntity
  8
SEIHIN
  6
Continuous
 62
     3
 48
16.0
100
AcDbCircle
 10
323.4225194573936
 20
105.1279422097983
 30
0.0
 40
2.000000000000085
100
AcDbArc
 50
89.99999999999756
 51
179.9999999999975
  0
LINE
  5
AFC
330
1A
100
AcDbEntity
  8
SEIHIN
  6
Continuous
 62
     3
 48
16.0
100
AcDbLine
 10
336.9225194573936
 20
109.1279422097984
 30
0.0
 11
336.9225194573936
 21
112.1278602003442
 31
0.0
  0
LINE
  5
AFD
330
1A
100
AcDbEntity
  8
SEIHIN
100
AcDbLine
 10
336.6224194573935
 20
103.1278422097984
 30
0.0
 11
338.1224824330805
 21
103.1278583393343
 31
0.0
  0
LINE
  5
AFE
330
1A
100
AcDbEntity
  8
SEIHIN
  6
Continuous
 62
     3
 48
16.0
100
AcDbLine
 10
338.1224194573935
 20
104.1278422097984
 30
0.0
 11
336.6224194573935
 21
103.1278422097984
 31
0.0
  0
LINE
  5
AFF
330
1A
100
AcDbEntity
  8
SEIHIN
  6
Continuous
 62
     3
 48
16.0
100
AcDbLine
 10
338.1224194573935
 20
102.1280422097984
 30
0.0
 11
336.6224194573935
 21
103.1280422097984
 31
0.0
  0
ARC
  5
B00
330
1A
100
AcDbEntity
  8
SEIHIN
  6
Continuous
 62
     3
 48
16.0
100
AcDbCircle
 10
334.9225194573936
 20
109.1279422097984
 30
0.0
 40
2.0
100
AcDbArc
 50
270.0
 51
0.0
  0
ARC
  5
B01
330
1A
100
AcDbEntity
  8
SEIHIN
  6
Continuous
 48
16.0
100
AcDbCircle
 10
339.1224980180639
 20
109.5622422097984
 30
0.0
 40
1.0
100
AcDbArc
 50
179.9998612215831
 51
269.9999999999999
  0
LINE
  5
B02
330
1A
100
AcDbEntity
  8
SEIHIN
  6
Continuous
100
AcDbLine
 10
336.9225194573936
 20
112.1278602003442
 30
0.0
 11
338.1225042323476
 21
112.1278602003442
 31
0.0
  0
LINE
  5
B03
330
1A
100
AcDbEntity
  8
CENTER L
  6
CENTER
 62
     1
 48
5.0
100
AcDbLine
 10
366.4225194573936
 20
98.12784220979843
 30
0.0
 11
366.4225194573936
 21
106.2416422097984
 31
0.0
  0
LINE
  5
B04
330
1A
100
AcDbEntity
  8
SEIHIN
  6
Continuous
 62
     3
 48
16.0
100
AcDbLine
 10
370.4225194573936
 20
79.12794220979842
 30
0.0
 11
370.4225194573936
 21
105.1278422097983
 31
0.0
  0
LINE
  5
B05
330
1A
100
AcDbEntity
  8
SEIHIN
  6
Continuous
 62
     3
 48
16.0
100
AcDbLine
 10
353.7225194573933
 20
112.1278602003442
 30
0.0
 11
353.7225194573941
 21
77.12794220979842
 31
0.0
  0
LINE
  5
B06
330
1A
100
AcDbEntity
  8
CENTER L
  6
CENTER
 62
     1
 48
5.0
100
AcDbLine
 10
345.9225194573934
 20
72.44914220979834
 30
0.0
 11
345.9225194573934
 21
119.1278602003443
 31
0.0
  0
LINE
  5
B07
330
1A
100
AcDbEntity
  8
SEIHIN
  6
Continuous
 62
     3
 48
16.0
100
AcDbLine
 10
345.9224194573934
 20
77.12794220979842
 30
0.0
 11
368.4225194573936
 21
77.12794220979842
 31
0.0
  0
LINE
  5
B08
330
1A
100
AcDbEntity
  8
SEIHIN
  6
Continuous
 62
     3
 48
16.0
100
AcDbLine
 10
353.7226194573933
 20
80.12804220979843
 30
0.0
 11
355.2226194573933
 21
81.12804220979834
 31
0.0
  0
LINE
  5
B09
330
1A
100
AcDbEntity
  8
SEIHIN
100
AcDbLine
 10
355.2226194573933
 20
81.12804220979834
 30
0.0
 11
353.7225194573934
 21
81.12804220979834
 31
0.0
  0
LINE
  5
B0A
330
1A
100
AcDbEntity
  8
SEIHIN
  6
Continuous
 62
     3
 48
16.0
100
AcDbLine
 10
353.7226194573933
 20
82.12784220979832
 30
0.0
 11
355.2226194573933
 21
81.12784220979841
 31
0.0
  0
LINE
  5
B0B
330
1A
100
AcDbEntity
  8
CENTER L
  6
CENTER
 62
     1
 48
5.0
100
AcDbLine
 10
369.5701194573936
 20
81.12784220979841
 30
0.0
 11
362.7198194573933
 21
81.12784220979841
 31
0.0
  0
LINE
  5
B0E
330
1A
100
AcDbEntity
  8
CENTER L
  6
CENTER
 62
     1
 48
5.0
100
AcDbLine
 10
366.4225194573936
 20
78.16474220979833
 30
0.0
 11
366.4225194573936
 21
86.12784220979841
 31
0.0
  0
ARC
  5
B0F
330
1A
100
AcDbEntity
  8
SEIHIN
  6
Continuous
 62
     3
 48
16.0
100
AcDbCircle
 10
368.4225194573936
 20
79.12794220979842
 30
0.0
 40
2.0
100
AcDbArc
 50
270.0
 51
0.0
  0
LINE
  5
B10
330
1A
100
AcDbEntity
  8
SEIHIN
  6
Continuous
 62
     3
 48
16.0
100
AcDbLine
 10
368.4225194573936
 20
107.1278422097983
 30
0.0
 11
356.9225194573936
 21
107.1278422097983
 31
0.0
  0
LINE
  5
B11
330
1A
100
AcDbEntity
  8
SEIHIN
  6
Continuous
 62
     3
 48
16.0
100
AcDbLine
 10
354.9225194573934
 20
109.1278422097983
 30
0.0
 11
354.9225194573934
 21
112.1278602003442
 31
0.0
  0
LINE
  5
B12
330
1A
100
AcDbEntity
  8
SEIHIN
100
AcDbLine
 10
353.7225194573933
 20
103.1280260798643
 30
0.0
 11
355.2226194573933
 21
103.1280422097984
 31
0.0
  0
LINE
  5
B13
330
1A
100
AcDbEntity
  8
SEIHIN
  6
Continuous
 62
     3
 48
16.0
100
AcDbLine
 10
353.7226194573933
 20
104.1278422097984
 30
0.0
 11
355.2226194573933
 21
103.1278422097984
 31
0.0
  0
LINE
  5
B14
330
1A
100
AcDbEntity
  8
SEIHIN
  6
Continuous
 62
     3
 48
16.0
100
AcDbLine
 10
353.7226194573933
 20
102.1280422097984
 30
0.0
 11
355.2226194573933
 21
103.1280422097984
 31
0.0
  0
ARC
  5
B15
330
1A
100
AcDbEntity
  8
SEIHIN
  6
Continuous
100
AcDbCircle
 10
352.7225194573933
 20
109.5622422097984
 30
0.0
 40
1.0
100
AcDbArc
 50
270.0
 51
0.0000000000000891
  0
ARC
  5
B16
330
1A
100
AcDbEntity
  8
SEIHIN
  6
Continuous
 62
     3
 48
16.0
100
AcDbCircle
 10
356.9225194573936
 20
109.1278422097984
 30
0.0
 40
2.000000000000056
100
AcDbArc
 50
180.0000000000016
 51
270.0000000000017
  0
LINE
  5
B17
330
1A
100
AcDbEntity
  8
SEIHIN
  6
Continuous
100
AcDbLine
 10
353.7225194573933
 20
112.1278602003442
 30
0.0
 11
354.9225194573933
 21
112.1278602003442
 31
0.0
  0
LINE
  5
B19
330
1A
100
AcDbEntity
  8
CENTER L
  6
CENTER
 62
     1
 48
5.0
100
AcDbLine
 10
369.5701194573936
 20
103.1278422097984
 30
0.0
 11
362.8508194573937
 21
103.1278422097984
 31
0.0
  0
ARC
  5
B1B
330
1A
100
AcDbEntity
  8
SEIHIN
  6
Continuous
 62
     3
 48
16.0
100
AcDbCircle
 10
368.4225194573936
 20
105.1278422097983
 30
0.0
 40
2.0
100
AcDbArc
 50
0.0
 51
90.0
  0
LINE
  5
B1C
330
1A
100
AcDbEntity
  8
SEIHIN
  6
Continuous
 62
     3
 48
16.0
100
AcDbLine
 10
233.8274168235814
 20
177.9278422097983
 30
0.0
 11
233.8274168235814
 21
194.1278422097983
 31
0.0
  0
LINE
  5
B1D
330
1A
100
AcDbEntity
  8
SEIHIN
  6
Continuous
 62
     3
 48
16.0
100
AcDbLine
 10
232.6274168235812
 20
193.4278422097982
 30
0.0
 11
232.6274168235812
 21
177.9278422097983
 31
0.0
  0
DIMENSION
  5
B1E
330
1A
100
AcDbEntity
  8
SUNPOU
  6
Continuous
100
AcDbDimension
  2
*D13
 10
251.854434497959
 20
177.9278422097983
 30
0.0
 11
249.354434497959
 21
202.4278422097983
 31
0.0
 12
0.0
 22
-16.37653413657381
 32
0.0
 70
    32
 71
     5
 42
-1.0
  3
STANDARD
100
AcDbAlignedDimension
 13
233.8274168235814
 23
226.9278422097983
 33
0.0
 14
233.8274168235814
 24
177.9278422097983
 34
0.0
 50
90.0
100
AcDbRotatedDimension
1001
ACAD
1000
DSTYLE
1002
{
1070
   140
1040
3.0
1070
    74
1070
     0
1070
   172
1070
     1
1070
    73
1070
     0
1070
   272
1070
     2
1070
    77
1070
     3
1070
   173
1070
     1
1070
   147
1040
1.0
1070
    42
1040
3.0
1070
    44
1040
1.5
1070
    43
1040
7.0
1070
   271
1070
     0
1070
   178
1070
     4
1070
   177
1070
     4
1070
   176
1070
     4
1070
   141
1040
150.0
1070
     7
1000
_OPEN
1070
     6
1000
_OPEN
1070
    41
1040
3.0
1002
}
  0
LINE
  5
B1F
330
1A
100
AcDbEntity
  8
SEIHIN
  6
Continuous
 62
     3
 48
16.0
100
AcDbLine
 10
233.8274168235814
 20
177.9278422097983
 30
0.0
 11
232.6274168235812
 21
177.9278422097983
 31
0.0
  0
LINE
  5
B20
330
1A
100
AcDbEntity
  8
CENTER L
  6
CENTER
 62
     1
 48
5.0
100
AcDbLine
 10
237.6779168235813
 20
181.9278422097984
 30
0.0
 11
227.8514168235814
 21
181.9278422097984
 31
0.0
  0
LINE
  5
B21
330
1A
100
AcDbEntity
  8
SEIHIN
  6
Continuous
 62
     3
 48
16.0
100
AcDbLine
 10
232.6274168235812
 20
211.4278422097984
 30
0.0
 11
232.6274168235812
 21
226.9278422097983
 31
0.0
  0
LINE
  5
B22
330
1A
100
AcDbEntity
  8
SEIHIN
  6
Continuous
 62
     3
 48
16.0
100
AcDbLine
 10
233.8274168235814
 20
226.9278422097983
 30
0.0
 11
233.8274168235814
 21
210.7278422097982
 31
0.0
  0
LINE
  5
B23
330
1A
100
AcDbEntity
  8
SEIHIN
  6
Continuous
 62
     3
 48
16.0
100
AcDbLine
 10
232.1274168235814
 20
210.9278422097984
 30
0.0
 11
224.2276168235814
 21
210.9279422097984
 31
0.0
  0
LINE
  5
B24
330
1A
100
AcDbEntity
  8
SEIHIN
  6
Continuous
 62
     3
 48
16.0
100
AcDbLine
 10
232.1274168235814
 20
193.9278422097982
 30
0.0
 11
224.2276168235814
 21
193.9278422097982
 31
0.0
  0
LINE
  5
B25
330
1A
100
AcDbEntity
  8
SEIHIN
  6
Continuous
 62
     3
 48
16.0
100
AcDbLine
 10
232.8274168235814
 20
195.1278422097982
 30
0.0
 11
224.2276168235814
 21
195.1278422097982
 31
0.0
  0
LINE
  5
B26
330
1A
100
AcDbEntity
  8
SEIHIN
  6
Continuous
 62
     3
 48
16.0
100
AcDbLine
 10
232.8274168235814
 20
209.7278422097984
 30
0.0
 11
224.2276168235814
 21
209.7279422097983
 31
0.0
  0
LINE
  5
B27
330
1A
100
AcDbEntity
  8
SEIHIN
  6
Continuous
 62
     3
 48
16.0
100
AcDbLine
 10
224.2276168235814
 20
212.4278422097983
 30
0.0
 11
224.2277168235814
 21
202.4278422097983
 31
0.0
  0
LINE
  5
B28
330
1A
100
AcDbEntity
  8
SEIHIN
  6
Continuous
 62
     3
 48
16.0
100
AcDbLine
 10
216.7277168235814
 20
197.9278422097982
 30
0.0
 11
216.7277168235814
 21
206.9278422097984
 31
0.0
  0
LINE
  5
B29
330
1A
100
AcDbEntity
  8
SEIHIN
  6
Continuous
 62
     3
 48
16.0
100
AcDbLine
 10
213.3276168235813
 20
200.4279309299741
 30
0.0
 11
213.3276168235814
 21
204.4278422097983
 31
0.0
  0
ARC
  5
B2A
330
1A
100
AcDbEntity
  8
SEIHIN
  6
Continuous
 62
     3
 48
16.0
100
AcDbCircle
 10
218.7277168235813
 20
197.9278422097981
 30
0.0
 40
1.999999999999914
100
AcDbArc
 50
179.9999999999975
 51
269.9999999999976
  0
LINE
  5
B2B
330
1A
100
AcDbEntity
  8
SEIHIN
  6
Continuous
 62
     3
 48
16.0
100
AcDbLine
 10
213.3276168235814
 20
193.4278422097982
 30
0.0
 11
223.4275168235813
 21
193.4278422097982
 31
0.0
  0
ARC
  5
B2C
330
1A
100
AcDbEntity
  8
SEIHIN
100
AcDbCircle
 10
212.3901057810314
 20
198.1778753773973
 30
0.0
 40
2.437511042550709
100
AcDbArc
 50
292.6200379911888
 51
67.37996200881117
  0
LINE
  5
B2D
330
1A
100
AcDbEntity
  8
SEIHIN
  6
Continuous
 62
     3
 48
16.0
100
AcDbLine
 10
213.3276168235814
 20
193.4278422097982
 30
0.0
 11
213.3276168235813
 21
195.9278569331757
 31
0.0
  0
LINE
  5
B2E
330
1A
100
AcDbEntity
  8
SEIHIN
  6
Continuous
 62
     3
 48
16.0
100
AcDbLine
 10
224.2276168235814
 20
192.4278422097984
 30
0.0
 11
224.2276168235814
 21
202.4278422097983
 31
0.0
  0
LINE
  5
B2F
330
1A
100
AcDbEntity
  8
SEIHIN
  6
Continuous
 62
     3
 48
16.0
100
AcDbLine
 10
218.7277168235812
 20
195.9278422097982
 30
0.0
 11
224.2275168235812
 21
195.9278422097982
 31
0.0
  0
ARC
  5
B30
330
1A
100
AcDbEntity
  8
SEIHIN
  6
Continuous
 62
     3
 48
16.0
100
AcDbCircle
 10
219.1701753638516
 20
198.1779421876654
 30
0.0
 40
2.263588137967559
100
AcDbArc
 50
263.69579163689
 51
276.2579367891673
  0
LINE
  5
B31
330
1A
100
AcDbEntity
  8
SEIHIN
  6
Continuous
 62
     3
 48
16.0
100
AcDbLine
 10
221.4303168235812
 20
193.4278422097982
 30
0.0
 11
221.4303168235812
 21
195.9278422097982
 31
0.0
  0
LINE
  5
B32
330
1A
100
AcDbEntity
  8
SEIHIN
  6
Continuous
 62
     3
 48
16.0
100
AcDbLine
 10
217.9398168235814
 20
193.4278422097982
 30
0.0
 11
217.9398168235814
 21
196.0895422097982
 31
0.0
  0
LINE
  5
B33
330
1A
100
AcDbEntity
  8
SEIHIN
  6
Continuous
 62
     3
 48
16.0
100
AcDbLine
 10
223.4275168235813
 20
192.4278422097984
 30
0.0
 11
224.2275168235812
 21
192.4278422097984
 31
0.0
  0
LINE
  5
B34
330
1A
100
AcDbEntity
  8
SEIHIN
  6
Continuous
 62
     3
 48
16.0
100
AcDbLine
 10
223.4275168235813
 20
192.4278422097984
 30
0.0
 11
223.4275168235813
 21
195.9278422097982
 31
0.0
  0
ARC
  5
B35
330
1A
100
AcDbEntity
  8
SEIHIN
  6
Continuous
 62
     3
 48
16.0
100
AcDbCircle
 10
218.7277168235813
 20
206.9278422097985
 30
0.0
 40
1.999999999999914
100
AcDbArc
 50
90.00000000000245
 51
180.0000000000024
  0
LINE
  5
B36
330
1A
100
AcDbEntity
  8
SEIHIN
  6
Continuous
 62
     3
 48
16.0
100
AcDbLine
 10
213.3276168235814
 20
211.4278422097984
 30
0.0
 11
223.4275168235813
 21
211.4278422097984
 31
0.0
  0
ARC
  5
B37
330
1A
100
AcDbEntity
  8
SEIHIN
100
AcDbCircle
 10
212.3901057810314
 20
206.677849571487
 30
0.0
 40
2.437511042550709
100
AcDbArc
 50
292.6200379911888
 51
67.37996200881117
  0
LINE
  5
B38
330
1A
100
AcDbEntity
  8
SEIHIN
  6
Continuous
 62
     3
 48
16.0
100
AcDbLine
 10
213.3276168235814
 20
211.4279422097984
 30
0.0
 11
213.3276168235814
 21
208.9278569331758
 31
0.0
  0
LINE
  5
B39
330
1A
100
AcDbEntity
  8
SEIHIN
  6
Continuous
 62
     3
 48
16.0
100
AcDbLine
 10
218.7277168235812
 20
208.9278422097984
 30
0.0
 11
224.2275168235812
 21
208.9278422097984
 31
0.0
  0
LINE
  5
B3A
330
1A
100
AcDbEntity
  8
SEIHIN
  6
Continuous
 62
     3
 48
16.0
100
AcDbLine
 10
221.4303168235812
 20
211.4279422097984
 30
0.0
 11
221.4303168235812
 21
208.9278422097984
 31
0.0
  0
LINE
  5
B3B
330
1A
100
AcDbEntity
  8
SEIHIN
  6
Continuous
 62
     3
 48
16.0
100
AcDbLine
 10
217.9398168235814
 20
211.4279422097984
 30
0.0
 11
217.9398168235814
 21
208.7661422097984
 31
0.0
  0
ARC
  5
B3C
330
1A
100
AcDbEntity
  8
SEIHIN
  6
Continuous
 62
     3
 48
16.0
100
AcDbCircle
 10
219.1701702798476
 20
206.6777422193167
 30
0.0
 40
2.263686987591017
100
AcDbArc
 50
83.71929133007361
 51
96.30380249452137
  0
LINE
  5
B3D
330
1A
100
AcDbEntity
  8
SEIHIN
  6
Continuous
 62
     3
 48
16.0
100
AcDbLine
 10
223.4275168235813
 20
212.4278422097983
 30
0.0
 11
223.4276168235814
 21
208.9278422097984
 31
0.0
  0
LINE
  5
B3E
330
1A
100
AcDbEntity
  8
SEIHIN
  6
Continuous
 62
     3
 48
16.0
100
AcDbLine
 10
223.4275168235813
 20
212.4278422097983
 30
0.0
 11
224.2275168235812
 21
212.4278422097983
 31
0.0
  0
LINE
  5
B3F
330
1A
100
AcDbEntity
  8
SEIHIN
  6
Continuous
 62
     3
 48
16.0
100
AcDbLine
 10
230.5274168235812
 20
202.4277422097984
 30
0.0
 11
230.5274168235812
 21
208.7278422097982
 31
0.0
  0
LINE
  5
B40
330
1A
100
AcDbEntity
  8
SEIHIN
  6
Continuous
 62
     3
 48
16.0
100
AcDbLine
 10
230.5274168235812
 20
202.4278422097983
 30
0.0
 11
230.5274168235812
 21
196.1278422097983
 31
0.0
  0
ARC
  5
B41
330
1A
100
AcDbEntity
  8
SEIHIN
  6
Continuous
 62
     3
 48
16.0
100
AcDbCircle
 10
232.8274168235815
 20
194.1278422097983
 30
0.0
 40
0.9999999999999431
100
AcDbArc
 50
0.0000000000032569
 51
90.00000000000325
  0
LINE
  5
B42
330
1A
100
AcDbEntity
  8
SEIHIN
100
AcDbLine
 10
232.6274168235812
 20
193.4278422097982
 30
0.0
 11
233.8274168235814
 21
193.4278422097983
 31
0.0
  0
ARC
  5
B43
330
1A
100
AcDbEntity
  8
SEIHIN
  6
Continuous
 62
     3
 48
16.0
100
AcDbCircle
 10
231.5274168235813
 20
196.1278422097983
 30
0.0
 40
1.000000000000056
100
AcDbArc
 50
179.9999999999967
 51
269.9999999999968
  0
ARC
  5
B44
330
1A
100
AcDbEntity
  8
SEIHIN
  6
Continuous
 62
     3
 48
16.0
100
AcDbCircle
 10
232.1274168235813
 20
193.4278422097983
 30
0.0
 40
0.4999999999999432
100
AcDbArc
 50
359.9999999999935
 51
89.99999999999349
  0
LINE
  5
B45
330
1A
100
AcDbEntity
  8
SEIHIN
100
AcDbLine
 10
232.6274168235812
 20
191.5278422097982
 30
0.0
 11
230.2274168235813
 21
193.9278422097982
 31
0.0
  0
ARC
  5
B46
330
1A
100
AcDbEntity
  8
SEIHIN
  6
Continuous
 62
     3
 48
16.0
100
AcDbCircle
 10
232.8274168235815
 20
210.7278422097983
 30
0.0
 40
0.9999999999999147
100
AcDbArc
 50
269.9999999999951
 51
359.9999999999951
  0
LINE
  5
B47
330
1A
100
AcDbEntity
  8
SEIHIN
100
AcDbLine
 10
232.6274168235812
 20
211.4278422097984
 30
0.0
 11
233.8274168235814
 21
211.4278422097984
 31
0.0
  0
ARC
  5
B48
330
1A
100
AcDbEntity
  8
SEIHIN
  6
Continuous
 62
     3
 48
16.0
100
AcDbCircle
 10
231.5274168235813
 20
208.7278422097983
 30
0.0
 40
1.000000000000085
100
AcDbArc
 50
90.00000000000488
 51
180.0000000000049
  0
ARC
  5
B49
330
1A
100
AcDbEntity
  8
SEIHIN
  6
Continuous
 62
     3
 48
16.0
100
AcDbCircle
 10
232.1274168235813
 20
211.4278422097983
 30
0.0
 40
0.4999999999999432
100
AcDbArc
 50
270.0000000000065
 51
0.0000000000065138
  0
LINE
  5
B4A
330
1A
100
AcDbEntity
  8
SEIHIN
100
AcDbLine
 10
232.6274168235812
 20
213.3278358807165
 30
0.0
 11
230.2274168235813
 21
210.9278662610402
 31
0.0
  0
LINE
  5
B4B
330
1A
100
AcDbEntity
  8
CENTER L
  6
CENTER
 62
     1
 48
5.0
100
AcDbLine
 10
237.6780168235814
 20
222.9278422097983
 30
0.0
 11
227.8515168235812
 21
222.9278422097983
 31
0.0
  0
LINE
  5
B4C
330
1A
100
AcDbEntity
  8
SEIHIN
  6
Continuous
 62
     3
 48
16.0
100
AcDbLine
 10
233.8274168235814
 20
226.9278422097983
 30
0.0
 11
232.6275168235814
 21
226.9278422097983
 31
0.0
  0
LWPOLYLINE
  5
DEE
330
1A
100
AcDbEntity
  8
ZUWAKU
100
AcDbPolyline
 90
        4
 70
     1
 43
0.0
 10
0.4000000874406169
 20
275.3999997546114
 10
0.4000000874406169
 20
0.3999997546114287
 10
398.4000000874406
 20
0.3999997546114287
 10
398.4000000874406
 20
275.3999997546114
  0
LWPOLYLINE
  5
DEF
330
1A
100
AcDbEntity
  8
ZUWAKU
100
AcDbPolyline
 90
        4
 70
     1
 43
0.0
 10
0.2000000874406282
 20
275.5999997546114
 10
0.2000000874406282
 20
0.19999975461144
 10
398.6000000874406
 20
0.1999997546114285
 10
398.6000000874406
 20
275.5999997546114
  0
LWPOLYLINE
  5
DF0
330
1A
100
AcDbEntity
  8
ZUWAKU
100
AcDbPolyline
 90
        4
 70
     1
 43
0.0
 10
0.0000000874406396
 20
275.7999997546114
 10
0.0000000874406396
 20
-0.0000002453886054
 10
398.8000000874407
 20
-0.0000002453885717
 10
398.8000000874407
 20
275.7999997546114
  0
LWPOLYLINE
  5
DF1
330
1A
100
AcDbEntity
  8
ZUWAKU
100
AcDbPolyline
 90
        4
 70
     1
 43
0.0
 10
0.3000000874405941
 20
275.4999997546114
 10
0.3000000874405941
 20
0.2999997546114059
 10
398.5000000874407
 20
0.299999754611429
 10
398.5000000874407
 20
275.4999997546114
  0
LWPOLYLINE
  5
DF2
330
1A
100
AcDbEntity
  8
ZUWAKU
100
AcDbPolyline
 90
        4
 70
     1
 43
0.0
 10
0.1000000874406055
 20
275.6999997546115
 10
0.1000000874406055
 20
0.0999997546114173
 10
398.7000000874406
 20
0.0999997546114289
 10
398.7000000874407
 20
275.6999997546115
  0
LINE
  5
DF3
330
1A
100
AcDbEntity
  8
ZUWAKU
100
AcDbLine
 10
0.0000000874406396
 20
14.99999975461139
 30
0.0
 11
398.7000000874406
 21
14.99999975461139
 31
0.0
  0
LINE
  5
DF4
330
1A
100
AcDbEntity
  8
ZUWAKU
100
AcDbLine
 10
0.0000000874406396
 20
15.09999975461139
 30
0.0
 11
398.7000000874406
 21
15.09999975461139
 31
0.0
  0
LINE
  5
DF5
330
1A
100
AcDbEntity
  8
ZUWAKU
100
AcDbLine
 10
0.0000000874406396
 20
15.19999975461139
 30
0.0
 11
398.7000000874406
 21
15.19999975461139
 31
0.0
  0
LINE
  5
DF6
330
1A
100
AcDbEntity
  8
ZUWAKU
100
AcDbLine
 10
0.0000000874406396
 20
15.2999997546114
 30
0.0
 11
398.7000000874406
 21
15.2999997546114
 31
0.0
  0
LINE
  5
DF7
330
1A
100
AcDbEntity
  8
ZUWAKU
100
AcDbLine
 10
0.0000000874406396
 20
15.3999997546114
 30
0.0
 11
398.7000000874406
 21
15.3999997546114
 31
0.0
  0
LINE
  5
DF8
330
1A
100
AcDbEntity
  8
ZUWAKU
100
AcDbLine
 10
104.3233007324746
 20
7.699999754611411
 30
0.0
 11
223.7121820729363
 21
7.699999754611411
 31
0.0
  0
LINE
  5
DF9
330
1A
100
AcDbEntity
  8
ZUWAKU
100
AcDbLine
 10
104.3233007324746
 20
7.799999754611411
 30
0.0
 11
223.7121820729363
 21
7.799999754611414
 31
0.0
  0
LINE
  5
DFA
330
1A
100
AcDbEntity
  8
ZUWAKU
100
AcDbLine
 10
104.3233007324746
 20
7.599999754611413
 30
0.0
 11
223.7121820729363
 21
7.59999975461141
 31
0.0
  0
CIRCLE
  5
DFB
330
1A
100
AcDbEntity
  8
ZUWAKU
100
AcDbCircle
 10
12.99610616483119
 20
7.599999754611395
 30
0.0
 40
0.875
  0
LINE
  5
DFC
330
1A
100
AcDbEntity
  8
ZUWAKU
100
AcDbLine
 10
13.43360616483119
 20
3.574999754611397
 30
0.0
 11
12.47110616483121
 21
3.574999754611397
 31
0.0
  0
LINE
  5
DFD
330
1A
100
AcDbEntity
  8
ZUWAKU
100
AcDbLine
 10
12.47110616483121
 20
4.974999754611395
 30
0.0
 11
13.43360616483119
 21
4.974999754611395
 31
0.0
  0
LINE
  5
DFE
330
1A
100
AcDbEntity
  8
ZUWAKU
100
AcDbLine
 10
13.43360616483119
 20
10.22499975461139
 30
0.0
 11
12.47110616483121
 21
10.22499975461139
 31
0.0
  0
LINE
  5
DFF
330
1A
100
AcDbEntity
  8
ZUWAKU
100
AcDbLine
 10
12.47110616483121
 20
11.62499975461138
 30
0.0
 11
13.43360616483119
 21
11.6249997546114
 31
0.0
  0
INSERT
  5
E00
330
1A
100
AcDbEntity
  8
ZUWAKU
  6
Continuous
100
AcDbBlockReference
  2
*X14
 10
0.0
 20
0.0
 30
0.0
1001
ACAD
1000
HATCH
1002
{
1070
    19
1000
ANSI37
1040
0.1
1040
0.0
1000
R14_HATCH_DATA
1000
E00
1011
1.0
1021
0.0
1031
0.0
1011
0.0
1021
1.0
1031
0.0
1011
0.0
1021
0.0
1031
1.0
1040
0.0
1010
0.0
1020
0.0
1030
1.0
1000
ANSI37
1070
     0
1070
     0
1071
        8
1071
        7
1070
     1
1070
     1
1071
       24
1040
7.251131418000568
1040
8.822423995103186
1040
-0.1989123673796348
1040
7.046106164831201
1040
9.317398741933711
1040
0.0
1040
7.046106164831201
1040
9.9624997546114
1040
-0.4142135623730912
1040
7.308606164831189
1040
10.22499975461139
1040
0.0
1040
8.796106164831144
1040
10.22499975461139
1040
0.4142135623731546
1040
9.058606164831189
1040
10.48749975461139
1040
0.0
1040
9.058606164831189
1040
11.3624997546114
1040
0.4142135623731586
1040
8.796106164831144
1040
11.6249997546114
1040
0.0
1040
7.046106164831201
1040
11.6249997546114
1040
0.4142135623730928
1040
5.646106164831223
1040
10.22499975461141
1040
0.0
1040
5.646106164831223
1040
9.317398741933775
1040
0.1989123673796619
1040
6.261181924339439
1040
7.832474501441971
1040
0.0
1040
7.716080911661777
1040
6.377575514119643
1040
-0.1989123673796613
1040
7.921106164831201
1040
5.88260076728905
1040
0.0
1040
7.921106164831201
1040
5.237499754611391
1040
-0.4142135623730911
1040
7.658606164831212
1040
4.974999754611395
1040
0.0
1040
6.171106164831257
1040
4.974999754611395
1040
0.4142135623731526
1040
5.908606164831212
1040
4.712499754611402
1040
0.0
1040
5.908606164831212
1040
3.837499754611391
1040
0.4142135623731526
1040
6.171106164831257
1040
3.574999754611397
1040
0.0
1040
7.921106164831201
1040
3.574999754611397
1040
0.4142135623731044
1040
9.321106164831235
1040
4.974999754611385
1040
0.0
1040
9.321106164831235
1040
5.882600767289021
1040
0.1989123673796604
1040
8.706030405322962
1040
7.367525007780791
1040
0.0
1071
        0
1071
        7
1070
     1
1070
     1
1071
       16
1040
11.77110616483122
1040
9.5249997546114
1040
-0.4142135623730935
1040
12.47110616483121
1040
10.22499975461139
1040
0.0
1040
13.43360616483119
1040
10.22499975461139
1040
0.4142135623731546
1040
13.69610616483123
1040
10.48749975461139
1040
0.0
1040
13.69610616483123
1040
11.3624997546114
1040
0.4142135623730951
1040
13.43360616483124
1040
11.6249997546114
1040
0.0
1040
12.47110616483115
1040
11.62499975461138
1040
0.4142135623730892
1040
10.37110616483119
1040
9.524999754611364
1040
0.0
1040
10.37110616483119
1040
5.674999754611409
1040
0.4142135623730969
1040
12.47110616483121
1040
3.574999754611397
1040
0.0
1040
13.43360616483119
1040
3.574999754611397
1040
0.4142135623731526
1040
13.69610616483123
1040
3.837499754611391
1040
0.0
1040
13.69610616483123
1040
4.712499754611402
1040
0.4142135623730891
1040
13.43360616483124
1040
4.974999754611395
1040
0.0
1040
12.47110616483121
1040
4.974999754611395
1040
-0.4142135623730928
1040
11.77110616483122
1040
5.674999754611389
1040
0.0
1071
        0
1071
        7
1070
     1
1070
     1
1071
        2
1040
12.12110616483119
1040
7.599999754611395
1040
1.0
1040
13.87110616483119
1040
7.599999754611395
1040
1.0
1071
        0
1071
        7
1070
     1
1070
     1
1071
       26
1040
18.6574294059202
1040
9.602523351393109
1040
0.0
1040
19.1882492224891
1040
11.2834527705279
1040
0.5069206636600134
1040
18.93793377289142
1040
11.6249997546114
1040
0.0
1040
18.08848908308681
1040
11.6249997546114
1040
0.3272098845218764
1040
17.83817363348913
1040
11.44154673869488
1040
0.0
1040
16.90403869617324
1040
8.483452770527936
1040
-0.3272098845219541
1040
16.65372324657551
1040
8.299999754611395
1040
0.0
1040
16.58360616483128
1040
8.299999754611395
1040
-0.4142135623731526
1040
16.32110616483123
1040
8.562499754611389
1040
0.0
1040
16.32110616483123
1040
11.3624997546114
1040
0.4142135623730951
1040
16.05860616483125
1040
11.6249997546114
1040
0.0
1040
15.18360616483119
1040
11.6249997546114
1040
0.4142135623730871
1040
14.9211061648312
1040
11.3624997546114
1040
0.0
1040
14.9211061648312
1040
3.837499754611391
1040
0.4142135623730891
1040
15.18360616483119
1040
3.574999754611397
1040
0.0
1040
16.05860616483119
1040
3.574999754611397
1040
0.4142135623731526
1040
16.32110616483123
1040
3.837499754611391
1040
0.0
1040
16.32110616483123
1040
6.637499754611402
1040
-0.4142135623731526
1040
16.58360616483128
1040
6.899999754611396
1040
0.0
1040
16.65372324657556
1040
6.899999754611396
1040
-0.3272098845218915
1040
16.90403869617324
1040
6.716546738694859
1040
0.0
1040
17.83817363348913
1040
3.758452770527933
1040
0.3272098845218902
1040
18.08848908308681
1040
3.574999754611397
1040
0.0
1040
18.93793377289142
1040
3.574999754611397
1040
0.5069206636600335
1040
19.1882492224891
1040
3.916546738694901
1040
0.0
1040
18.02505353325227
1040
7.599999754611465
1040
0.0
1071
        0
1071
        7
1070
     1
1070
     1
1071
        8
1040
21.74610616483119
1040
11.3624997546114
1040
0.4142135623731546
1040
21.48360616483115
1040
11.6249997546114
1040
0.0
1040
20.60860616483126
1040
11.6249997546114
1040
0.4142135623731507
1040
20.34610616483121
1040
11.3624997546114
1040
0.0
1040
20.34610616483121
1040
3.837499754611391
1040
0.4142135623731526
1040
20.60860616483126
1040
3.574999754611397
1040
0.0
1040
21.48360616483115
1040
3.574999754611397
1040
0.4142135623731526
1040
21.74610616483119
1040
3.837499754611391
1040
0.0
1071
        0
1071
        7
1070
     1
1070
     1
1071
       24
1040
24.19610616483124
1040
9.9624997546114
1040
-0.4142135623731546
1040
24.45860616483128
1040
10.22499975461139
1040
0.0
1040
25.94610616483123
1040
10.22499975461139
1040
0.4142135623730911
1040
26.20860616483123
1040
10.48749975461139
1040
0.0
1040
26.20860616483123
1040
11.3624997546114
1040
0.4142135623730952
1040
25.94610616483123
1040
11.6249997546114
1040
0.0
1040
24.19610616483124
1040
11.6249997546114
1040
0.4142135623731048
1040
22.7961061648312
1040
10.22499975461141
1040
0.0
1040
22.7961061648312
1040
9.317398741933775
1040
0.1989123673796613
1040
23.41118192433947
1040
7.832474501442
1040
0.0
1040
24.86608091166181
1040
6.377575514119666
1040
-0.1989123673796402
1040
25.07110616483124
1040
5.88260076728913
1040
0.0
1040
25.07110616483124
1040
5.237499754611391
1040
-0.4142135623730911
1040
24.80860616483125
1040
4.974999754611395
1040
0.0
1040
23.32110616483124
1040
4.974999754611395
1040
0.4142135623731526
1040
23.05860616483119
1040
4.712499754611402
1040
0.0
1040
23.05860616483119
1040
3.837499754611391
1040
0.4142135623730891
1040
23.32110616483118
1040
3.574999754611397
1040
0.0
1040
25.07110616483124
1040
3.574999754611397
1040
0.4142135623730925
1040
26.47110616483121
1040
4.974999754611385
1040
0.0
1040
26.47110616483121
1040
5.882600767289021
1040
0.1989123673796675
1040
25.85603040532294
1040
7.367525007780848
1040
0.0
1040
24.40113141800066
1040
8.822423995103106
1040
-0.1989123673796652
1040
24.19610616483124
1040
9.31739874193369
1040
0.0
1071
        0
1071
        7
1070
     1
1070
     1
1071
       16
1040
28.9211061648312
1040
11.36249975461139
1040
0.414213562373103
1040
28.65860616483121
1040
11.6249997546114
1040
0.0
1040
27.78360616483122
1040
11.6249997546114
1040
0.4142135623730871
1040
27.52110616483122
1040
11.3624997546114
1040
0.0
1040
27.52110616483122
1040
4.974999754611385
1040
0.4142135623730926
1040
28.9211061648312
1040
3.574999754611397
1040
0.0
1040
30.6711061648312
1040
3.574999754611397
1040
0.4142135623731044
1040
32.07110616483124
1040
4.974999754611385
1040
0.0
1040
32.07110616483124
1040
11.3624997546114
1040
0.4142135623730951
1040
31.80860616483125
1040
11.6249997546114
1040
0.0
1040
30.93360616483119
1040
11.6249997546114
1040
0.4142135623730871
1040
30.6711061648312
1040
11.3624997546114
1040
0.0
1040
30.6711061648312
1040
5.499999754611383
1040
-0.414213562373088
1040
30.14610616483123
1040
4.974999754611395
1040
0.0
1040
29.44610616483124
1040
4.974999754611395
1040
-0.4142135623731197
1040
28.9211061648312
1040
5.499999754611383
1040
0.0
1071
        0
1071
        7
1070
     1
1070
     1
1071
        8
1040
34.52110616483123
1040
11.3624997546114
1040
0.4142135623730871
1040
34.25860616483124
1040
11.6249997546114
1040
0.0
1040
33.38360616483124
1040
11.6249997546114
1040
0.4142135623731507
1040
33.12110616483119
1040
11.3624997546114
1040
0.0
1040
33.12110616483119
1040
3.837499754611391
1040
0.4142135623730891
1040
33.38360616483118
1040
3.574999754611397
1040
0.0
1040
34.25860616483124
1040
3.574999754611397
1040
0.4142135623730891
1040
34.52110616483123
1040
3.837499754611391
1040
0.0
1071
        0
1070
     0
1070
     1
1040
0.0
1040
0.1
1070
     0
1070
     2
1040
0.7853981633974483
1040
-450.4711520798988
1040
-6.600000245388571
1040
-0.2245064030267288
1040
0.2245064030267288
1070
     0
1040
2.356194490192344
1040
-450.4711520798988
1040
-6.600000245388571
1040
-0.2245064030267288
1040
-0.2245064030267288
1070
     0
1040
0.057451373970553
1071
        8
1040
8.039927568952293
1040
7.583586577554171
1040
0.0
1040
11.20225759066022
1040
9.4220308458369
1040
0.0
1040
12.58218403027047
1040
7.755940577646754
1040
0.0
1040
15.45703007825921
1040
8.100648577832146
1040
0.0
1040
20.91923609691901
1040
8.330454711602953
1040
0.0
1040
23.44910053500541
1040
9.709287912815
1040
0.0
1040
28.27884307364082
1040
9.364578712158902
1040
0.0
1040
33.91353989725201
1040
9.59438484592971
1040
0.0
1002
}
  0
ARC
  5
E01
330
1A
100
AcDbEntity
  8
ZUWAKU
100
AcDbCircle
 10
7.746106164831189
 20
9.317398741933747
 30
0.0
 40
2.099999999999999
100
AcDbArc
 50
180.0
 51
225.0
  0
LINE
  5
E02
330
1A
100
AcDbEntity
  8
ZUWAKU
100
AcDbLine
 10
10.37110616483119
 20
5.674999754611398
 30
0.0
 11
10.37110616483119
 21
9.524999754611375
 31
0.0
  0
LINE
  5
E03
330
1A
100
AcDbEntity
  8
ZUWAKU
100
AcDbLine
 10
11.77110616483122
 20
9.524999754611396
 30
0.0
 11
11.77110616483122
 21
5.674999754611398
 31
0.0
  0
ARC
  5
E04
330
1A
100
AcDbEntity
  8
ZUWAKU
100
AcDbCircle
 10
7.746106164831189
 20
9.317398741933747
 30
0.0
 40
0.7
100
AcDbArc
 50
180.0000000000016
 51
224.9999999999988
  0
ARC
  5
E05
330
1A
100
AcDbEntity
  8
ZUWAKU
100
AcDbCircle
 10
12.47110616483121
 20
5.674999754611398
 30
0.0
 40
2.099999999999999
100
AcDbArc
 50
180.0
 51
270.0
  0
ARC
  5
E06
330
1A
100
AcDbEntity
  8
ZUWAKU
100
AcDbCircle
 10
7.921106164831201
 20
4.974999754611395
 30
0.0
 40
1.399999999999999
100
AcDbArc
 50
270.0
 51
0.0
  0
ARC
  5
E07
330
1A
100
AcDbEntity
  8
ZUWAKU
100
AcDbCircle
 10
7.221106164831212
 20
5.882600767289048
 30
0.0
 40
2.099999999999999
100
AcDbArc
 50
0.0
 51
45.0
  0
LINE
  5
E08
330
1A
100
AcDbEntity
  8
ZUWAKU
100
AcDbLine
 10
6.261181924339439
 20
7.832474501441986
 30
0.0
 11
7.716080911661777
 21
6.377575514119655
 31
0.0
  0
LINE
  5
E09
330
1A
100
AcDbEntity
  8
ZUWAKU
100
AcDbLine
 10
6.171106164831201
 20
4.974999754611395
 30
0.0
 11
7.658606164831212
 21
4.974999754611395
 31
0.0
  0
LINE
  5
E0A
330
1A
100
AcDbEntity
  8
ZUWAKU
100
AcDbLine
 10
6.171106164831201
 20
3.574999754611397
 30
0.0
 11
7.921106164831201
 21
3.574999754611397
 31
0.0
  0
ARC
  5
E0B
330
1A
100
AcDbEntity
  8
ZUWAKU
100
AcDbCircle
 10
6.171106164831201
 20
4.712499754611396
 30
0.0
 40
0.2625
100
AcDbArc
 50
90.0
 51
180.0
  0
ARC
  5
E0C
330
1A
100
AcDbEntity
  8
ZUWAKU
100
AcDbCircle
 10
6.171106164831201
 20
3.837499754611396
 30
0.0
 40
0.2625
100
AcDbArc
 50
180.0
 51
270.0
  0
LINE
  5
E0D
330
1A
100
AcDbEntity
  8
ZUWAKU
100
AcDbLine
 10
5.908606164831212
 20
3.837499754611396
 30
0.0
 11
5.908606164831212
 21
4.712499754611396
 31
0.0
  0
ARC
  5
E0E
330
1A
100
AcDbEntity
  8
ZUWAKU
100
AcDbCircle
 10
7.221106164831212
 20
5.882600767289069
 30
0.0
 40
0.7
100
AcDbArc
 50
0.0
 51
45.0
  0
ARC
  5
E0F
330
1A
100
AcDbEntity
  8
ZUWAKU
100
AcDbCircle
 10
7.658606164831212
 20
5.237499754611398
 30
0.0
 40
0.2625
100
AcDbArc
 50
270.0
 51
0.0
  0
LINE
  5
E10
330
1A
100
AcDbEntity
  8
ZUWAKU
100
AcDbLine
 10
7.921106164831201
 20
5.237499754611398
 30
0.0
 11
7.921106164831201
 21
5.882600767289069
 31
0.0
  0
LINE
  5
E11
330
1A
100
AcDbEntity
  8
ZUWAKU
100
AcDbLine
 10
8.706030405322962
 20
7.367525007780809
 30
0.0
 11
7.251131418000625
 21
8.822423995103147
 31
0.0
  0
ARC
  5
E12
330
1A
100
AcDbEntity
  8
ZUWAKU
100
AcDbCircle
 10
12.47110616483121
 20
5.674999754611398
 30
0.0
 40
0.7
100
AcDbArc
 50
180.0
 51
270.0
  0
LINE
  5
E13
330
1A
100
AcDbEntity
  8
ZUWAKU
100
AcDbLine
 10
9.321106164831235
 20
4.974999754611395
 30
0.0
 11
9.321106164831235
 21
5.882600767289069
 31
0.0
  0
ARC
  5
E14
330
1A
100
AcDbEntity
  8
ZUWAKU
100
AcDbCircle
 10
8.796106164831201
 20
10.48749975461139
 30
0.0
 40
0.2625
100
AcDbArc
 50
270.0
 51
0.0
  0
ARC
  5
E15
330
1A
100
AcDbEntity
  8
ZUWAKU
100
AcDbCircle
 10
8.796106164831201
 20
11.36249975461139
 30
0.0
 40
0.2625
100
AcDbArc
 50
0.0
 51
90.0
  0
ARC
  5
E16
330
1A
100
AcDbEntity
  8
ZUWAKU
100
AcDbCircle
 10
7.046106164831201
 20
10.22499975461139
 30
0.0
 40
1.399999999999999
100
AcDbArc
 50
90.0
 51
180.0
  0
LINE
  5
E17
330
1A
100
AcDbEntity
  8
ZUWAKU
100
AcDbLine
 10
5.646106164831223
 20
10.22499975461139
 30
0.0
 11
5.646106164831223
 21
9.317398741933725
 31
0.0
  0
LINE
  5
E18
330
1A
100
AcDbEntity
  8
ZUWAKU
100
AcDbLine
 10
8.796106164831201
 20
10.22499975461139
 30
0.0
 11
7.308606164831189
 21
10.22499975461139
 31
0.0
  0
LINE
  5
E19
330
1A
100
AcDbEntity
  8
ZUWAKU
100
AcDbLine
 10
7.046106164831201
 20
9.962499754611396
 30
0.0
 11
7.046106164831201
 21
9.317398741933725
 31
0.0
  0
ARC
  5
E1A
330
1A
100
AcDbEntity
  8
ZUWAKU
100
AcDbCircle
 10
7.308606164831189
 20
9.962499754611396
 30
0.0
 40
0.2625
100
AcDbArc
 50
90.0
 51
180.0
  0
LINE
  5
E1B
330
1A
100
AcDbEntity
  8
ZUWAKU
100
AcDbLine
 10
7.046106164831201
 20
11.6249997546114
 30
0.0
 11
8.796106164831201
 21
11.6249997546114
 31
0.0
  0
ARC
  5
E1C
330
1A
100
AcDbEntity
  8
ZUWAKU
100
AcDbCircle
 10
12.47110616483121
 20
9.524999754611375
 30
0.0
 40
2.099999999999999
100
AcDbArc
 50
90.0
 51
180.0
  0
ARC
  5
E1D
330
1A
100
AcDbEntity
  8
ZUWAKU
100
AcDbCircle
 10
12.47110616483121
 20
9.524999754611396
 30
0.0
 40
0.7
100
AcDbArc
 50
90.0
 51
180.0
  0
LINE
  5
E1E
330
1A
100
AcDbEntity
  8
ZUWAKU
100
AcDbLine
 10
9.058606164831189
 20
11.36249975461139
 30
0.0
 11
9.058606164831189
 21
10.48749975461139
 31
0.0
  0
LINE
  5
E1F
330
1A
100
AcDbEntity
  8
ZUWAKU
100
AcDbLine
 10
17.83817363348913
 20
11.44154673869488
 30
0.0
 11
16.90403869617324
 21
8.483452770527911
 31
0.0
  0
LINE
  5
E20
330
1A
100
AcDbEntity
  8
ZUWAKU
100
AcDbLine
 10
14.9211061648312
 20
11.36249975461139
 30
0.0
 11
14.9211061648312
 21
3.837499754611396
 31
0.0
  0
LINE
  5
E21
330
1A
100
AcDbEntity
  8
ZUWAKU
100
AcDbLine
 10
16.32110616483123
 20
8.562499754611398
 30
0.0
 11
16.32110616483123
 21
11.36249975461139
 31
0.0
  0
LINE
  5
E22
330
1A
100
AcDbEntity
  8
ZUWAKU
100
AcDbLine
 10
28.9211061648312
 20
5.499999754611394
 30
0.0
 11
28.9211061648312
 21
11.36249975461139
 31
0.0
  0
LINE
  5
E23
330
1A
100
AcDbEntity
  8
ZUWAKU
100
AcDbLine
 10
27.52110616483122
 20
11.36249975461139
 30
0.0
 11
27.52110616483122
 21
4.974999754611395
 31
0.0
  0
LINE
  5
E24
330
1A
100
AcDbEntity
  8
ZUWAKU
100
AcDbLine
 10
21.74610616483119
 20
3.837499754611396
 30
0.0
 11
21.74610616483119
 21
11.36249975461139
 31
0.0
  0
LINE
  5
E25
330
1A
100
AcDbEntity
  8
ZUWAKU
100
AcDbLine
 10
20.34610616483121
 20
11.36249975461139
 30
0.0
 11
20.34610616483121
 21
3.837499754611396
 31
0.0
  0
LINE
  5
E26
330
1A
100
AcDbEntity
  8
ZUWAKU
100
AcDbLine
 10
18.6574294059202
 20
9.602523351393109
 30
0.0
 11
18.02505353325227
 21
7.599999754611406
 31
0.0
  0
ARC
  5
E27
330
1A
100
AcDbEntity
  8
ZUWAKU
100
AcDbCircle
 10
24.89610616483123
 20
9.317398741933747
 30
0.0
 40
2.099999999999999
100
AcDbArc
 50
180.0
 51
225.0
  0
ARC
  5
E28
330
1A
100
AcDbEntity
  8
ZUWAKU
100
AcDbCircle
 10
24.89610616483123
 20
9.317398741933747
 30
0.0
 40
0.7
100
AcDbArc
 50
180.0000000000016
 51
224.9999999999988
  0
LINE
  5
E29
330
1A
100
AcDbEntity
  8
ZUWAKU
100
AcDbLine
 10
33.12110616483119
 20
11.36249975461139
 30
0.0
 11
33.12110616483119
 21
3.837499754611396
 31
0.0
  0
LINE
  5
E2A
330
1A
100
AcDbEntity
  8
ZUWAKU
100
AcDbLine
 10
34.52110616483123
 20
3.837499754611396
 30
0.0
 11
34.52110616483123
 21
11.36249975461139
 31
0.0
  0
LINE
  5
E2B
330
1A
100
AcDbEntity
  8
ZUWAKU
100
AcDbLine
 10
30.6711061648312
 20
11.36249975461139
 30
0.0
 11
30.6711061648312
 21
5.499999754611394
 31
0.0
  0
LINE
  5
E2C
330
1A
100
AcDbEntity
  8
ZUWAKU
100
AcDbLine
 10
32.07110616483124
 20
4.974999754611395
 30
0.0
 11
32.07110616483124
 21
11.36249975461139
 31
0.0
  0
LINE
  5
E2D
330
1A
100
AcDbEntity
  8
ZUWAKU
100
AcDbLine
 10
39.56331486143483
 20
14.99999975461139
 30
0.0
 11
39.56331486143483
 21
0.3999997546114287
 31
0.0
  0
LINE
  5
E2E
330
1A
100
AcDbEntity
  8
ZUWAKU
100
AcDbLine
 10
39.76331486143477
 20
14.99999975461139
 30
0.0
 11
39.76331486143488
 21
0.3999997546114287
 31
0.0
  0
LINE
  5
E2F
330
1A
100
AcDbEntity
  8
ZUWAKU
100
AcDbLine
 10
39.66331486143474
 20
14.99999975461139
 30
0.0
 11
39.66331486143486
 21
0.3999997546114287
 31
0.0
  0
TEXT
  5
E30
330
1A
100
AcDbEntity
  8
moji
100
AcDbText
 10
46.47889488152521
 20
6.370588819748775
 30
0.0
 40
3.0
  1
ライナートップ
 41
0.9
  7
ｽﾀｲﾙ1
100
AcDbText
  0
LINE
  5
E31
330
1A
100
AcDbEntity
  8
ZUWAKU
100
AcDbLine
 10
28.9211061648312
 20
3.574999754611397
 30
0.0
 11
30.6711061648312
 21
3.574999754611397
 31
0.0
  0
LINE
  5
E32
330
1A
100
AcDbEntity
  8
ZUWAKU
100
AcDbLine
 10
30.14610616483123
 20
4.974999754611395
 30
0.0
 11
29.44610616483124
 21
4.974999754611395
 31
0.0
  0
LINE
  5
E33
330
1A
100
AcDbEntity
  8
ZUWAKU
100
AcDbLine
 10
20.6086061648312
 20
3.574999754611397
 30
0.0
 11
21.4836061648312
 21
3.574999754611397
 31
0.0
  0
LINE
  5
E34
330
1A
100
AcDbEntity
  8
ZUWAKU
100
AcDbLine
 10
17.83817363348913
 20
3.75845277052791
 30
0.0
 11
16.90403869617324
 21
6.71654673869488
 31
0.0
  0
ARC
  5
E35
330
1A
100
AcDbEntity
  8
ZUWAKU
100
AcDbCircle
 10
16.58360616483122
 20
6.637499754611397
 30
0.0
 40
0.2625
100
AcDbArc
 50
90.0
 51
180.0
  0
ARC
  5
E36
330
1A
100
AcDbEntity
  8
ZUWAKU
100
AcDbCircle
 10
16.65372324657556
 20
6.637499754611397
 30
0.0
 40
0.2625
100
AcDbArc
 50
17.52556837372303
 51
90.0
  0
ARC
  5
E37
330
1A
100
AcDbEntity
  8
ZUWAKU
100
AcDbCircle
 10
15.18360616483119
 20
3.837499754611396
 30
0.0
 40
0.2625
100
AcDbArc
 50
180.0
 51
270.0
  0
ARC
  5
E38
330
1A
100
AcDbEntity
  8
ZUWAKU
100
AcDbCircle
 10
13.43360616483119
 20
4.712499754611396
 30
0.0
 40
0.2625
100
AcDbArc
 50
0.0
 51
90.0
  0
ARC
  5
E39
330
1A
100
AcDbEntity
  8
ZUWAKU
100
AcDbCircle
 10
13.43360616483119
 20
3.837499754611396
 30
0.0
 40
0.2625
100
AcDbArc
 50
270.0
 51
0.0
  0
LINE
  5
E3A
330
1A
100
AcDbEntity
  8
ZUWAKU
100
AcDbLine
 10
13.69610616483123
 20
4.712499754611396
 30
0.0
 11
13.69610616483123
 21
3.837499754611396
 31
0.0
  0
LINE
  5
E3B
330
1A
100
AcDbEntity
  8
ZUWAKU
100
AcDbLine
 10
16.32110616483123
 20
3.837499754611396
 30
0.0
 11
16.32110616483123
 21
6.637499754611397
 31
0.0
  0
ARC
  5
E3C
330
1A
100
AcDbEntity
  8
ZUWAKU
100
AcDbCircle
 10
16.05860616483119
 20
3.837499754611396
 30
0.0
 40
0.2625
100
AcDbArc
 50
270.0
 51
0.0
  0
LINE
  5
E3D
330
1A
100
AcDbEntity
  8
ZUWAKU
100
AcDbLine
 10
15.18360616483119
 20
3.574999754611397
 30
0.0
 11
16.05860616483119
 21
3.574999754611397
 31
0.0
  0
ARC
  5
E3E
330
1A
100
AcDbEntity
  8
ZUWAKU
100
AcDbCircle
 10
16.58360616483122
 20
8.562499754611398
 30
0.0
 40
0.2625
100
AcDbArc
 50
180.0
 51
270.0
  0
LINE
  5
E3F
330
1A
100
AcDbEntity
  8
ZUWAKU
100
AcDbLine
 10
16.58360616483122
 20
6.899999754611396
 30
0.0
 11
16.65372324657556
 21
6.899999754611396
 31
0.0
  0
LINE
  5
E40
330
1A
100
AcDbEntity
  8
ZUWAKU
100
AcDbLine
 10
16.65372324657556
 20
8.299999754611395
 30
0.0
 11
16.58360616483122
 21
8.299999754611395
 31
0.0
  0
ARC
  5
E41
330
1A
100
AcDbEntity
  8
ZUWAKU
100
AcDbCircle
 10
16.65372324657556
 20
8.562499754611398
 30
0.0
 40
0.2625
100
AcDbArc
 50
270.0
 51
342.474431626277
  0
ARC
  5
E42
330
1A
100
AcDbEntity
  8
ZUWAKU
100
AcDbCircle
 10
18.08848908308687
 20
3.837499754611396
 30
0.0
 40
0.2625
100
AcDbArc
 50
197.525568373723
 51
270.0
  0
LINE
  5
E43
330
1A
100
AcDbEntity
  8
ZUWAKU
100
AcDbLine
 10
19.1882492224891
 20
3.916546738694883
 30
0.0
 11
18.02505353325227
 21
7.599999754611406
 31
0.0
  0
ARC
  5
E44
330
1A
100
AcDbEntity
  8
ZUWAKU
100
AcDbCircle
 10
18.93793377289137
 20
3.837499754611396
 30
0.0
 40
0.2625
100
AcDbArc
 50
270.0
 51
17.52556837372303
  0
LINE
  5
E45
330
1A
100
AcDbEntity
  8
ZUWAKU
100
AcDbLine
 10
18.08848908308687
 20
3.574999754611397
 30
0.0
 11
18.93793377289137
 21
3.574999754611397
 31
0.0
  0
ARC
  5
E46
330
1A
100
AcDbEntity
  8
ZUWAKU
100
AcDbCircle
 10
20.6086061648312
 20
3.837499754611396
 30
0.0
 40
0.2625
100
AcDbArc
 50
180.0
 51
270.0
  0
ARC
  5
E47
330
1A
100
AcDbEntity
  8
ZUWAKU
100
AcDbCircle
 10
25.07110616483124
 20
4.974999754611395
 30
0.0
 40
1.399999999999999
100
AcDbArc
 50
270.0
 51
0.0
  0
ARC
  5
E48
330
1A
100
AcDbEntity
  8
ZUWAKU
100
AcDbCircle
 10
28.9211061648312
 20
4.974999754611395
 30
0.0
 40
1.399999999999999
100
AcDbArc
 50
180.0
 51
270.0
  0
LINE
  5
E49
330
1A
100
AcDbEntity
  8
ZUWAKU
100
AcDbLine
 10
25.856030405323
 20
7.367525007780809
 30
0.0
 11
24.4011314180006
 21
8.822423995103147
 31
0.0
  0
LINE
  5
E4A
330
1A
100
AcDbEntity
  8
ZUWAKU
100
AcDbLine
 10
23.41118192433947
 20
7.832474501441986
 30
0.0
 11
24.86608091166181
 21
6.377575514119655
 31
0.0
  0
LINE
  5
E4B
330
1A
100
AcDbEntity
  8
ZUWAKU
100
AcDbLine
 10
23.32110616483124
 20
3.574999754611397
 30
0.0
 11
25.07110616483124
 21
3.574999754611397
 31
0.0
  0
LINE
  5
E4C
330
1A
100
AcDbEntity
  8
ZUWAKU
100
AcDbLine
 10
23.32110616483124
 20
4.974999754611395
 30
0.0
 11
24.80860616483119
 21
4.974999754611395
 31
0.0
  0
ARC
  5
E4D
330
1A
100
AcDbEntity
  8
ZUWAKU
100
AcDbCircle
 10
23.32110616483124
 20
4.712499754611396
 30
0.0
 40
0.2625
100
AcDbArc
 50
90.0
 51
180.0
  0
ARC
  5
E4E
330
1A
100
AcDbEntity
  8
ZUWAKU
100
AcDbCircle
 10
21.4836061648312
 20
3.837499754611396
 30
0.0
 40
0.2625
100
AcDbArc
 50
270.0
 51
0.0
  0
ARC
  5
E4F
330
1A
100
AcDbEntity
  8
ZUWAKU
100
AcDbCircle
 10
23.32110616483124
 20
3.837499754611396
 30
0.0
 40
0.2625
100
AcDbArc
 50
180.0
 51
270.0
  0
LINE
  5
E50
330
1A
100
AcDbEntity
  8
ZUWAKU
100
AcDbLine
 10
23.05860616483119
 20
3.837499754611396
 30
0.0
 11
23.05860616483119
 21
4.712499754611396
 31
0.0
  0
ARC
  5
E51
330
1A
100
AcDbEntity
  8
ZUWAKU
100
AcDbCircle
 10
24.80860616483119
 20
5.237499754611398
 30
0.0
 40
0.2625
100
AcDbArc
 50
270.0
 51
0.0
  0
ARC
  5
E52
330
1A
100
AcDbEntity
  8
ZUWAKU
100
AcDbCircle
 10
24.37110616483119
 20
5.882600767289069
 30
0.0
 40
0.7
100
AcDbArc
 50
0.0
 51
45.0
  0
LINE
  5
E53
330
1A
100
AcDbEntity
  8
ZUWAKU
100
AcDbLine
 10
25.07110616483124
 20
5.237499754611398
 30
0.0
 11
25.07110616483124
 21
5.882600767289069
 31
0.0
  0
ARC
  5
E54
330
1A
100
AcDbEntity
  8
ZUWAKU
100
AcDbCircle
 10
29.44610616483124
 20
5.499999754611394
 30
0.0
 40
0.525
100
AcDbArc
 50
180.0
 51
270.0
  0
ARC
  5
E55
330
1A
100
AcDbEntity
  8
ZUWAKU
100
AcDbCircle
 10
24.37110616483119
 20
5.882600767289048
 30
0.0
 40
2.099999999999999
100
AcDbArc
 50
0.0
 51
45.0
  0
LINE
  5
E56
330
1A
100
AcDbEntity
  8
ZUWAKU
100
AcDbLine
 10
26.47110616483121
 20
4.974999754611395
 30
0.0
 11
26.47110616483121
 21
5.882600767289069
 31
0.0
  0
ARC
  5
E57
330
1A
100
AcDbEntity
  8
ZUWAKU
100
AcDbCircle
 10
30.6711061648312
 20
4.974999754611395
 30
0.0
 40
1.399999999999999
100
AcDbArc
 50
270.0
 51
0.0
  0
LINE
  5
E58
330
1A
100
AcDbEntity
  8
ZUWAKU
100
AcDbLine
 10
33.38360616483124
 20
3.574999754611397
 30
0.0
 11
34.25860616483124
 21
3.574999754611397
 31
0.0
  0
ARC
  5
E59
330
1A
100
AcDbEntity
  8
ZUWAKU
100
AcDbCircle
 10
30.14610616483123
 20
5.499999754611394
 30
0.0
 40
0.525
100
AcDbArc
 50
270.0
 51
0.0
  0
ARC
  5
E5A
330
1A
100
AcDbEntity
  8
ZUWAKU
100
AcDbCircle
 10
33.38360616483124
 20
3.837499754611396
 30
0.0
 40
0.2625
100
AcDbArc
 50
180.0
 51
270.0
  0
ARC
  5
E5B
330
1A
100
AcDbEntity
  8
ZUWAKU
100
AcDbCircle
 10
34.25860616483124
 20
3.837499754611396
 30
0.0
 40
0.2625
100
AcDbArc
 50
270.0
 51
0.0
  0
LINE
  5
E5C
330
1A
100
AcDbEntity
  8
ZUWAKU
100
AcDbLine
 10
21.4836061648312
 20
11.6249997546114
 30
0.0
 11
20.6086061648312
 21
11.6249997546114
 31
0.0
  0
LINE
  5
E5D
330
1A
100
AcDbEntity
  8
ZUWAKU
100
AcDbLine
 10
13.69610616483123
 20
11.36249975461139
 30
0.0
 11
13.69610616483123
 21
10.48749975461139
 31
0.0
  0
ARC
  5
E5E
330
1A
100
AcDbEntity
  8
ZUWAKU
100
AcDbCircle
 10
13.43360616483119
 20
10.48749975461139
 30
0.0
 40
0.2625
100
AcDbArc
 50
270.0
 51
0.0
  0
ARC
  5
E5F
330
1A
100
AcDbEntity
  8
ZUWAKU
100
AcDbCircle
 10
15.18360616483119
 20
11.36249975461139
 30
0.0
 40
0.2625
100
AcDbArc
 50
90.0
 51
180.0
  0
ARC
  5
E60
330
1A
100
AcDbEntity
  8
ZUWAKU
100
AcDbCircle
 10
13.43360616483119
 20
11.36249975461139
 30
0.0
 40
0.2625
100
AcDbArc
 50
0.0
 51
90.0
  0
LINE
  5
E61
330
1A
100
AcDbEntity
  8
ZUWAKU
100
AcDbLine
 10
16.05860616483119
 20
11.6249997546114
 30
0.0
 11
15.18360616483119
 21
11.6249997546114
 31
0.0
  0
ARC
  5
E62
330
1A
100
AcDbEntity
  8
ZUWAKU
100
AcDbCircle
 10
16.05860616483119
 20
11.36249975461139
 30
0.0
 40
0.2625
100
AcDbArc
 50
0.0
 51
90.0
  0
ARC
  5
E63
330
1A
100
AcDbEntity
  8
ZUWAKU
100
AcDbCircle
 10
18.08848908308687
 20
11.36249975461139
 30
0.0
 40
0.2625
100
AcDbArc
 50
90.0
 51
162.474431626277
  0
LINE
  5
E64
330
1A
100
AcDbEntity
  8
ZUWAKU
100
AcDbLine
 10
19.1882492224891
 20
11.28345277052791
 30
0.0
 11
18.6574294059202
 21
9.602523351393109
 31
0.0
  0
ARC
  5
E65
330
1A
100
AcDbEntity
  8
ZUWAKU
100
AcDbCircle
 10
18.93793377289137
 20
11.36249975461139
 30
0.0
 40
0.2625
100
AcDbArc
 50
342.474431626277
 51
90.0
  0
LINE
  5
E66
330
1A
100
AcDbEntity
  8
ZUWAKU
100
AcDbLine
 10
18.08848908308687
 20
11.6249997546114
 30
0.0
 11
18.93793377289137
 21
11.6249997546114
 31
0.0
  0
ARC
  5
E67
330
1A
100
AcDbEntity
  8
ZUWAKU
100
AcDbCircle
 10
20.6086061648312
 20
11.36249975461139
 30
0.0
 40
0.2625
100
AcDbArc
 50
90.0
 51
180.0
  0
LINE
  5
E68
330
1A
100
AcDbEntity
  8
ZUWAKU
100
AcDbLine
 10
25.94610616483123
 20
10.22499975461139
 30
0.0
 11
24.45860616483122
 21
10.22499975461139
 31
0.0
  0
LINE
  5
E69
330
1A
100
AcDbEntity
  8
ZUWAKU
100
AcDbLine
 10
24.19610616483124
 20
11.6249997546114
 30
0.0
 11
25.94610616483123
 21
11.6249997546114
 31
0.0
  0
ARC
  5
E6A
330
1A
100
AcDbEntity
  8
ZUWAKU
100
AcDbCircle
 10
24.19610616483124
 20
10.22499975461139
 30
0.0
 40
1.399999999999999
100
AcDbArc
 50
90.0
 51
180.0
  0
LINE
  5
E6B
330
1A
100
AcDbEntity
  8
ZUWAKU
100
AcDbLine
 10
22.7961061648312
 20
10.22499975461139
 30
0.0
 11
22.7961061648312
 21
9.317398741933725
 31
0.0
  0
ARC
  5
E6C
330
1A
100
AcDbEntity
  8
ZUWAKU
100
AcDbCircle
 10
21.4836061648312
 20
11.36249975461139
 30
0.0
 40
0.2625
100
AcDbArc
 50
0.0
 51
90.0
  0
LINE
  5
E6D
330
1A
100
AcDbEntity
  8
ZUWAKU
100
AcDbLine
 10
24.19610616483124
 20
9.962499754611396
 30
0.0
 11
24.19610616483124
 21
9.317398741933725
 31
0.0
  0
ARC
  5
E6E
330
1A
100
AcDbEntity
  8
ZUWAKU
100
AcDbCircle
 10
24.45860616483122
 20
9.962499754611396
 30
0.0
 40
0.2625
100
AcDbArc
 50
90.0
 51
180.0
  0
LINE
  5
E6F
330
1A
100
AcDbEntity
  8
ZUWAKU
100
AcDbLine
 10
26.20860616483123
 20
11.36249975461139
 30
0.0
 11
26.20860616483123
 21
10.48749975461139
 31
0.0
  0
ARC
  5
E70
330
1A
100
AcDbEntity
  8
ZUWAKU
100
AcDbCircle
 10
25.94610616483123
 20
10.48749975461139
 30
0.0
 40
0.2625
100
AcDbArc
 50
270.0
 51
0.0
  0
ARC
  5
E71
330
1A
100
AcDbEntity
  8
ZUWAKU
100
AcDbCircle
 10
25.94610616483123
 20
11.36249975461139
 30
0.0
 40
0.2625
100
AcDbArc
 50
0.0
 51
90.0
  0
LINE
  5
E72
330
1A
100
AcDbEntity
  8
ZUWAKU
100
AcDbLine
 10
28.65860616483121
 20
11.6249997546114
 30
0.0
 11
27.78360616483122
 21
11.6249997546114
 31
0.0
  0
ARC
  5
E73
330
1A
100
AcDbEntity
  8
ZUWAKU
100
AcDbCircle
 10
27.78360616483122
 20
11.36249975461139
 30
0.0
 40
0.2625
100
AcDbArc
 50
90.0
 51
180.0
  0
ARC
  5
E74
330
1A
100
AcDbEntity
  8
ZUWAKU
100
AcDbCircle
 10
28.65860616483121
 20
11.36249975461139
 30
0.0
 40
0.2625
100
AcDbArc
 50
0.0
 51
90.0
  0
LINE
  5
E75
330
1A
100
AcDbEntity
  8
ZUWAKU
100
AcDbLine
 10
34.25860616483124
 20
11.6249997546114
 30
0.0
 11
33.38360616483124
 21
11.6249997546114
 31
0.0
  0
ARC
  5
E76
330
1A
100
AcDbEntity
  8
ZUWAKU
100
AcDbCircle
 10
30.93360616483119
 20
11.36249975461139
 30
0.0
 40
0.2625
100
AcDbArc
 50
90.0
 51
180.0
  0
LINE
  5
E77
330
1A
100
AcDbEntity
  8
ZUWAKU
100
AcDbLine
 10
31.80860616483119
 20
11.6249997546114
 30
0.0
 11
30.93360616483119
 21
11.6249997546114
 31
0.0
  0
ARC
  5
E78
330
1A
100
AcDbEntity
  8
ZUWAKU
100
AcDbCircle
 10
31.80860616483119
 20
11.36249975461139
 30
0.0
 40
0.2625
100
AcDbArc
 50
0.0
 51
90.0
  0
ARC
  5
E79
330
1A
100
AcDbEntity
  8
ZUWAKU
100
AcDbCircle
 10
33.38360616483124
 20
11.36249975461139
 30
0.0
 40
0.2625
100
AcDbArc
 50
90.0
 51
180.0
  0
ARC
  5
E7A
330
1A
100
AcDbEntity
  8
ZUWAKU
100
AcDbCircle
 10
34.25860616483124
 20
11.36249975461139
 30
0.0
 40
0.2625
100
AcDbArc
 50
0.0
 51
90.0
  0
TEXT
  5
E7B
330
1A
100
AcDbEntity
  8
moji
100
AcDbText
 10
119.9136014278662
 20
1.602460283315105
 30
0.0
 40
2.799999999999999
  1
Ｘ４０－０寸－１０m/m（３分）
 41
0.9
  7
ｽﾀｲﾙ1
100
AcDbText
  0
TEXT
  5
E7C
330
1A
100
AcDbEntity
  8
moji
100
AcDbText
 10
119.9136014278662
 20
9.002460283315087
 30
0.0
 40
2.799999999999999
  1
ステンレス金具正面打（受）固定式
 41
0.9
  7
ｽﾀｲﾙ1
100
AcDbText
  0
LINE
  5
E7D
330
1A
100
AcDbEntity
  8
ZUWAKU
100
AcDbLine
 10
104.2233007324745
 20
14.99999975461139
 30
0.0
 11
104.2233007324746
 21
0.3999997546114287
 31
0.0
  0
LINE
  5
E7E
330
1A
100
AcDbEntity
  8
ZUWAKU
100
AcDbLine
 10
104.3233007324745
 20
14.99999975461139
 30
0.0
 11
104.3233007324746
 21
0.3999997546114287
 31
0.0
  0
LINE
  5
E7F
330
1A
100
AcDbEntity
  8
ZUWAKU
100
AcDbLine
 10
104.1233007324746
 20
14.99999975461139
 30
0.0
 11
104.1233007324746
 21
0.3999997546114287
 31
0.0
  0
TEXT
  5
E80
330
1A
100
AcDbEntity
  8
ZUWAKU
100
AcDbText
 10
104.8620232435794
 20
4.827678023804203
 30
0.0
 40
2.0
  1
サイズ
 41
0.9
  7
ｽﾀｲﾙ1
100
AcDbText
  0
TEXT
  5
E81
330
1A
100
AcDbEntity
  8
ZUWAKU
100
AcDbText
 10
104.8620232435793
 20
12.02767802380418
 30
0.0
 40
2.0
  1
品名
 41
0.9
  7
ｽﾀｲﾙ1
100
AcDbText
  0
TEXT
  5
E82
330
1A
100
AcDbEntity
  8
ZUWAKU
100
AcDbText
 10
329.1019689310918
 20
9.002460283315087
 30
0.0
 40
2.799999999999999
  1
　　．　　．　　
 41
0.9
  7
ｽﾀｲﾙ1
100
AcDbText
  0
LINE
  5
E83
330
1A
100
AcDbEntity
  8
ZUWAKU
100
AcDbLine
 10
324.4086013425427
 20
7.799999754611411
 30
0.0
 11
348.6245053617113
 21
7.799999754611411
 31
0.0
  0
LINE
  5
E84
330
1A
100
AcDbEntity
  8
ZUWAKU
100
AcDbLine
 10
324.4086013425429
 20
7.699999754611413
 30
0.0
 11
348.6245053617113
 21
7.699999754611411
 31
0.0
  0
LINE
  5
E85
330
1A
100
AcDbEntity
  8
ZUWAKU
100
AcDbLine
 10
324.4086013425427
 20
7.59999975461141
 30
0.0
 11
348.6245053617113
 21
7.599999754611411
 31
0.0
  0
LINE
  5
E86
330
1A
100
AcDbEntity
  8
ZUWAKU
100
AcDbLine
 10
252.5995898365111
 20
7.799999754611411
 30
0.0
 11
276.2634779704969
 21
7.799999754611411
 31
0.0
  0
LINE
  5
E87
330
1A
100
AcDbEntity
  8
ZUWAKU
100
AcDbLine
 10
252.5995898365111
 20
7.699999754611411
 30
0.0
 11
276.2634779704969
 21
7.699999754611411
 31
0.0
  0
LINE
  5
E88
330
1A
100
AcDbEntity
  8
ZUWAKU
100
AcDbLine
 10
252.5995898365111
 20
7.599999754611413
 30
0.0
 11
276.2634779704969
 21
7.599999754611413
 31
0.0
  0
LINE
  5
E89
330
1A
100
AcDbEntity
  8
ZUWAKU
100
AcDbLine
 10
252.3995898365111
 20
14.99999975461139
 30
0.0
 11
252.3995898365111
 21
0.3999997546114287
 31
0.0
  0
LINE
  5
E8A
330
1A
100
AcDbEntity
  8
ZUWAKU
100
AcDbLine
 10
252.5995898365111
 20
14.99999975461139
 30
0.0
 11
252.5995898365112
 21
0.3999997546114287
 31
0.0
  0
LINE
  5
E8B
330
1A
100
AcDbEntity
  8
ZUWAKU
100
AcDbLine
 10
252.4995898365111
 20
14.99999975461139
 30
0.0
 11
252.4995898365112
 21
0.3999997546114287
 31
0.0
  0
TEXT
  5
E8C
330
1A
100
AcDbEntity
  8
moji
100
AcDbText
 10
264.0204540735971
 20
9.002460283315087
 30
0.0
 40
2.799999999999999
  1
Ａ３
 41
0.9
  7
ｽﾀｲﾙ1
100
AcDbText
  0
LINE
  5
E8D
330
1A
100
AcDbEntity
  8
ZUWAKU
100
AcDbLine
 10
223.7121820729363
 20
14.99999975461139
 30
0.0
 11
223.7121820729363
 21
0.3999997546114287
 31
0.0
  0
LINE
  5
E8E
330
1A
100
AcDbEntity
  8
ZUWAKU
100
AcDbLine
 10
223.9121820729363
 20
14.99999975461139
 30
0.0
 11
223.9121820729364
 21
0.3999997546114287
 31
0.0
  0
LINE
  5
E8F
330
1A
100
AcDbEntity
  8
ZUWAKU
100
AcDbLine
 10
223.8121820729363
 20
14.99999975461139
 30
0.0
 11
223.8121820729364
 21
0.3999997546114287
 31
0.0
  0
TEXT
  5
E90
330
1A
100
AcDbEntity
  8
moji
100
AcDbText
 10
231.2836392484349
 20
5.971308615441387
 30
0.0
 40
2.799999999999999
  1
ＬＣ９９□
 41
0.9
  7
ｽﾀｲﾙ1
100
AcDbText
  0
TEXT
  5
E91
330
1A
100
AcDbEntity
  8
ZUWAKU
100
AcDbText
 10
253.338312347616
 20
4.827678023804203
 30
0.0
 40
2.0
  1
縮尺
 41
0.9
  7
ｽﾀｲﾙ1
100
AcDbText
  0
TEXT
  5
E92
330
1A
100
AcDbEntity
  8
moji
100
AcDbText
 10
264.0204540735971
 20
1.602460283315105
 30
0.0
 40
2.799999999999999
  1
１/１
 41
0.9
  7
ｽﾀｲﾙ1
100
AcDbText
  0
TEXT
  5
E93
330
1A
100
AcDbEntity
  8
ZUWAKU
100
AcDbText
 10
224.6509045840411
 20
12.02767802380418
 30
0.0
 40
2.0
  1
品番
 41
0.9
  7
ｽﾀｲﾙ1
100
AcDbText
  0
TEXT
  5
E94
330
1A
100
AcDbEntity
  8
ZUWAKU
100
AcDbText
 10
253.3383123476159
 20
12.02767802380418
 30
0.0
 40
2.0
  1
用紙
 41
0.9
  7
ｽﾀｲﾙ1
100
AcDbText
  0
LINE
  5
E95
330
1A
100
AcDbEntity
  8
ZUWAKU
100
AcDbLine
 10
276.2634779704969
 20
14.99999975461139
 30
0.0
 11
276.2634779704969
 21
0.3999997546114287
 31
0.0
  0
LINE
  5
E96
330
1A
100
AcDbEntity
  8
ZUWAKU
100
AcDbLine
 10
276.4634779704968
 20
14.99999975461139
 30
0.0
 11
276.4634779704969
 21
0.3999997546114287
 31
0.0
  0
LINE
  5
E97
330
1A
100
AcDbEntity
  8
ZUWAKU
100
AcDbLine
 10
276.3634779704968
 20
14.99999975461139
 30
0.0
 11
276.3634779704969
 21
0.3999997546114287
 31
0.0
  0
LINE
  5
E98
330
1A
100
AcDbEntity
  8
ZUWAKU
100
AcDbLine
 10
324.2086013425429
 20
14.99999975461139
 30
0.0
 11
324.2086013425429
 21
0.3999997546114287
 31
0.0
  0
LINE
  5
E99
330
1A
100
AcDbEntity
  8
ZUWAKU
100
AcDbLine
 10
324.4086013425429
 20
14.99999975461139
 30
0.0
 11
324.408601342543
 21
0.3999997546114287
 31
0.0
  0
LINE
  5
E9A
330
1A
100
AcDbEntity
  8
ZUWAKU
100
AcDbLine
 10
324.3086013425428
 20
14.99999975461139
 30
0.0
 11
324.308601342543
 21
0.3999997546114287
 31
0.0
  0
TEXT
  5
E9B
330
1A
100
AcDbEntity
  8
ZUWAKU
100
AcDbText
 10
325.1473238536477
 20
12.02767802380418
 30
0.0
 40
2.0
  1
DATE
 41
0.9
  7
ｽﾀｲﾙ1
100
AcDbText
  0
TEXT
  5
E9C
330
1A
100
AcDbEntity
  8
ZUWAKU
100
AcDbText
 10
354.2640421835625
 20
6.176919422454796
 30
0.0
 40
3.0
  1
積水化学工業株式会社
 41
0.9
  7
ｽﾀｲﾙ1
100
AcDbText
  0
LINE
  5
E9D
330
1A
100
AcDbEntity
  8
ZUWAKU
100
AcDbLine
 10
348.9245053617112
 20
14.99999975461139
 30
0.0
 11
348.9245053617113
 21
0.3999997546114287
 31
0.0
  0
LINE
  5
E9E
330
1A
100
AcDbEntity
  8
ZUWAKU
100
AcDbLine
 10
348.8245053617112
 20
14.99999975461139
 30
0.0
 11
348.8245053617113
 21
0.3999997546114287
 31
0.0
  0
LINE
  5
E9F
330
1A
100
AcDbEntity
  8
ZUWAKU
100
AcDbLine
 10
348.7245053617113
 20
14.99999975461139
 30
0.0
 11
348.7245053617113
 21
0.3999997546114287
 31
0.0
  0
LINE
  5
EA0
330
1A
100
AcDbEntity
  8
ZUWAKU
100
AcDbLine
 10
348.6245053617113
 20
14.99999975461139
 30
0.0
 11
348.6245053617113
 21
0.3999997546114287
 31
0.0
  0
TEXT
  5
EA8
330
1A
100
AcDbEntity
  8
ZUWAKU
100
AcDbText
 10
230.8507811169871
 20
1.623757236453855
 30
0.0
 40
1.5
  1
□には色品番が入ります
 41
0.9
  7
ｽﾀｲﾙ1
100
AcDbText
  0
CIRCLE
  5
1107
330
1A
100
AcDbEntity
  8
SEIHIN
100
AcDbCircle
 10
325.4225194573934
 20
103.1279422097983
 30
0.0
 40
1.25
  0
CIRCLE
  5
1122
330
1A
100
AcDbEntity
  8
SEIHIN
100
AcDbCircle
 10
325.4225194573934
 20
81.12794220979841
 30
0.0
 40
1.25
  0
CIRCLE
  5
1123
330
1A
100
AcDbEntity
  8
SEIHIN
100
AcDbCircle
 10
366.4225194573936
 20
81.12784220979841
 30
0.0
 40
1.25
  0
CIRCLE
  5
1124
330
1A
100
AcDbEntity
  8
SEIHIN
100
AcDbCircle
 10
366.4225194573936
 20
103.1278422097984
 30
0.0
 40
1.25
  0
CIRCLE
  5
1153
330
1A
100
AcDbEntity
  8
SEIHIN
100
AcDbCircle
 10
50.42741682358135
 20
103.1282422097982
 30
0.0
 40
1.25
  0
LINE
  5
1154
330
1A
100
AcDbEntity
  8
CENTER L
  6
CENTER
 62
     1
 48
5.0
100
AcDbLine
 10
47.27981682358157
 20
103.1282422097982
 30
0.0
 11
53.99911682358132
 21
103.1282422097982
 31
0.0
  0
LINE
  5
1155
330
1A
100
AcDbEntity
  8
CENTER L
  6
CENTER
 62
     1
 48
5.0
100
AcDbLine
 10
50.42741682358135
 20
98.12814220979834
 30
0.0
 11
50.42741682358135
 21
106.2419422097983
 31
0.0
  0
CIRCLE
  5
1156
330
1A
100
AcDbEntity
  8
SEIHIN
100
AcDbCircle
 10
91.42741682358158
 20
103.1281422097983
 30
0.0
 40
1.25
  0
LINE
  5
1157
330
1A
100
AcDbEntity
  8
CENTER L
  6
CENTER
 62
     1
 48
5.0
100
AcDbLine
 10
94.57501682358159
 20
103.1281422097983
 30
0.0
 11
87.85571682358161
 21
103.1281422097983
 31
0.0
  0
LINE
  5
1158
330
1A
100
AcDbEntity
  8
CENTER L
  6
CENTER
 62
     1
 48
5.0
100
AcDbLine
 10
91.42741682358158
 20
98.12814220979834
 30
0.0
 11
91.42741682358158
 21
106.2419422097983
 31
0.0
  0
CIRCLE
  5
1159
330
1A
100
AcDbEntity
  8
SEIHIN
100
AcDbCircle
 10
91.42741682358158
 20
81.12814220979833
 30
0.0
 40
1.25
  0
LINE
  5
115A
330
1A
100
AcDbEntity
  8
CENTER L
  6
CENTER
 62
     1
 48
5.0
100
AcDbLine
 10
91.42741682358158
 20
78.16504220979826
 30
0.0
 11
91.42741682358153
 21
86.12814220979833
 31
0.0
  0
LINE
  5
115B
330
1A
100
AcDbEntity
  8
CENTER L
  6
CENTER
 62
     1
 48
5.0
100
AcDbLine
 10
94.57501682358159
 20
81.12814220979833
 30
0.0
 11
87.7247168235813
 21
81.12814220979833
 31
0.0
  0
CIRCLE
  5
115C
330
1A
100
AcDbEntity
  8
SEIHIN
100
AcDbCircle
 10
50.42741682358135
 20
81.12824220979835
 30
0.0
 40
1.25
  0
LINE
  5
115D
330
1A
100
AcDbEntity
  8
CENTER L
  6
CENTER
 62
     1
 48
5.0
100
AcDbLine
 10
50.42741682358135
 20
78.16504220979826
 30
0.0
 11
50.4274168235813
 21
86.12814220979833
 31
0.0
  0
LINE
  5
115E
330
1A
100
AcDbEntity
  8
CENTER L
  6
CENTER
 62
     1
 48
5.0
100
AcDbLine
 10
47.27971682358159
 20
81.12824220979835
 30
0.0
 11
54.13001682358142
 21
81.12824220979835
 31
0.0
  0
VIEWPORT
  5
22
102
{ACAD_XDICTIONARY
360
1173
102
}
330
17
100
AcDbEntity
 67
     1
  8
0
100
AcDbViewport
 10
313.6808219178083
 20
148.5
 30
0.0
 40
627.3616438356165
 41
297.0
 68
     2
 69
     1
 12
313.6808219178083
 22
148.5
 13
0.0
 23
0.0
 14
1.0
 24
1.0
 15
10.0
 25
10.0
 16
0.0
 26
0.0
 36
1.0
 17
0.0
 27
0.0
 37
0.0
 42
50.0
 43
0.0
 44
0.0
 45
297.0
 50
0.0
 51
0.0
 72
   100
 90
    32768
  1

281
     0
 71
     1
 74
     0
110
0.0
120
0.0
130
0.0
111
1.0
121
0.0
131
0.0
112
0.0
122
1.0
132
0.0
 79
     0
146
0.0
  0
VIEWPORT
  5
64
102
{ACAD_XDICTIONARY
360
1175
102
}
330
17
100
AcDbEntity
 67
     1
  8
VIEWPORT
100
AcDbViewport
 10
210.0
 20
148.5
 30
0.0
 40
420.0
 41
297.0
 68
     1
 69
     2
 12
210.0
 22
148.5
 13
0.0
 23
0.0
 14
5.0
 24
5.0
 15
0.0
 25
0.0
 16
0.0
 26
0.0
 36
1.0
 17
0.0
 27
0.0
 37
0.0
 42
50.0
 43
0.0
 44
0.0
 45
302.9399999999999
 50
0.0
 51
0.0
 72
   100
 90
    32768
  1

281
     0
 71
     1
 74
     0
110
0.0
120
0.0
130
0.0
111
1.0
121
0.0
131
0.0
112
0.0
122
1.0
132
0.0
 79
     0
146
0.0
  0
ENDSEC
  0
SECTION
  2
OBJECTS
  0
DICTIONARY
  5
C
330
0
100
AcDbDictionary
281
     1
  3
ACAD_COLOR
350
10F0
  3
ACAD_GROUP
350
D
  3
ACAD_LAYOUT
350
C8A
  3
ACAD_MATERIAL
350
10EF
  3
ACAD_MLINESTYLE
350
E
  3
ACAD_PLOTSETTINGS
350
C8B
  3
ACAD_PLOTSTYLENAME
350
C88
  3
ACDBHEADERROUNDTRIPXREC
350
1170
  3
AcDbVariableDictionary
350
1160
  0
DICTIONARY
  5
CB9
330
1A
100
AcDbDictionary
280
     1
281
     1
  3
ACAD_LAYOUTSELFREF
360
10CC
  0
DICTIONARY
  5
CB7
330
17
100
AcDbDictionary
280
     1
281
     1
  3
ACAD_LAYOUTSELFREF
360
10CB
  0
DICTIONARY
  5
1173
330
22
100
AcDbDictionary
280
     1
281
     1
  3
ACAD_XREC_ROUNDTRIP
360
1174
  0
DICTIONARY
  5
1175
330
64
100
AcDbDictionary
280
     1
281
     1
  3
ACAD_XREC_ROUNDTRIP
360
1176
  0
DICTIONARY
  5
10F0
102
{ACAD_REACTORS
330
C
102
}
330
C
100
AcDbDictionary
281
     1
  0
DICTIONARY
  5
D
102
{ACAD_REACTORS
330
C
102
}
330
C
100
AcDbDictionary
281
     1
  0
DICTIONARY
  5
C8A
102
{ACAD_REACTORS
330
C
102
}
330
C
100
AcDbDictionary
281
     1
  3
Model
350
C8C
  3
ﾚｲｱｳﾄ1
350
C8D
  0
DICTIONARY
  5
10EF
102
{ACAD_REACTORS
330
C
102
}
330
C
100
AcDbDictionary
281
     1
  0
DICTIONARY
  5
E
102
{ACAD_REACTORS
330
C
102
}
330
C
100
AcDbDictionary
281
     1
  3
STANDARD
350
13
  0
DICTIONARY
  5
C8B
102
{ACAD_REACTORS
330
C
102
}
330
C
100
AcDbDictionary
281
     1
  0
ACDBDICTIONARYWDFLT
  5
C88
102
{ACAD_REACTORS
330
C
102
}
330
C
100
AcDbDictionary
281
     1
  3
Normal
350
C89
100
AcDbDictionaryWithDefault
340
C89
1001
ACAD
1000
TREAT_AS_HARD
1070
     0
1000
TREAT_AS_HARD
1070
     0
1000
TREAT_AS_HARD
1070
     0
1000
TREAT_AS_HARD
1070
     0
1000
TREAT_AS_HARD
1070
     0
  0
DICTIONARY
  5
1170
102
{ACAD_REACTORS
330
C
102
}
330
C
100
AcDbDictionary
281
     1
  3
COLORDICT
350
1172
  3
MATERIALDICT
350
1171
  0
DICTIONARY
  5
1160
102
{ACAD_REACTORS
330
C
102
}
330
C
100
AcDbDictionary
281
     1
  3
DIMASSOC
350
1161
  3
PROJECTNAME
350
1162
  0
XRECORD
  5
10CC
102
{ACAD_REACTORS
330
CB9
102
}
330
CB9
100
AcDbXrecord
280
     1
340
1A
  0
XRECORD
  5
10CB
102
{ACAD_REACTORS
330
CB7
102
}
330
CB7
100
AcDbXrecord
280
     1
340
17
  0
XRECORD
  5
1174
102
{ACAD_REACTORS
330
1173
102
}
330
1173
100
AcDbXrecord
280
     1
102
SHADEPLOT
 70
     0
  0
XRECORD
  5
1176
102
{ACAD_REACTORS
330
1175
102
}
330
1175
100
AcDbXrecord
280
     1
102
SHADEPLOT
 70
     0
  0
LAYOUT
  5
C8C
102
{ACAD_XDICTIONARY
360
1177
102
}
102
{ACAD_REACTORS
330
C8A
102
}
330
C8A
100
AcDbPlotSettings
  1

  2
CubePDF
  4
A3
  6

 40
3.174999999999999
 41
3.174999999999999
 42
3.174987999999999
 43
3.174987999999999
 44
420.1583249999999
 45
297.03183
 46
3.0
 47
0.0
 48
0.0
 49
0.0
140
0.0
141
0.0
142
1.0
143
0.9637622796040297
 70
 28336
 72
     1
 73
     0
 74
     1
  7
monochrome.ctb
 75
     0
147
1.037600268409403
148
0.0128164049386896
149
0.0215666932926979
100
AcDbLayout
  1
Model
 70
     1
 71
     0
 10
0.0
 20
0.0
 11
12.0
 21
9.0
 12
0.0
 22
0.0
 32
0.0
 14
0.0
 24
0.0
 34
0.0
 15
0.0
 25
0.0
 35
0.0
146
0.0
 13
0.0
 23
0.0
 33
0.0
 16
1.0
 26
0.0
 36
0.0
 17
0.0
 27
1.0
 37
0.0
 76
     0
330
1A
  0
LAYOUT
  5
C8D
102
{ACAD_XDICTIONARY
360
1179
102
}
102
{ACAD_REACTORS
330
C8A
102
}
330
C8A
100
AcDbPlotSettings
  1

  2
C:\PROGRAM FILES\ACAD LT 2000\plotters\DWF ePlot.pc3
  4

  6

 40
0.0
 41
0.0
 42
0.0
 43
0.0
 44
0.0
 45
0.0
 46
0.0
 47
0.0
 48
0.0
 49
0.0
140
0.0
141
0.0
142
1.0
143
1.0
 70
   688
 72
     0
 73
     0
 74
     5
  7
print.ctb
 75
    16
147
1.0
148
0.0
149
0.0
100
AcDbLayout
  1
ﾚｲｱｳﾄ1
 70
     1
 71
     1
 10
0.0
 20
0.0
 11
420.0
 21
297.0
 12
0.0
 22
0.0
 32
0.0
 14
0.0
 24
0.0
 34
0.0
 15
420.0
 25
297.0
 35
0.0
146
0.0
 13
0.0
 23
0.0
 33
0.0
 16
1.0
 26
0.0
 36
0.0
 17
0.0
 27
1.0
 37
0.0
 76
     0
330
17
331
64
  0
MLINESTYLE
  5
13
102
{ACAD_REACTORS
330
E
102
}
330
E
100
AcDbMlineStyle
  2
STANDARD
 70
     0
  3

 62
     0
 51
90.0
 52
90.0
 71
     2
 49
0.5
 62
   256
  6
BYLAYER
 49
-0.5
 62
   256
  6
BYLAYER
  0
ACDBPLACEHOLDER
  5
C89
102
{ACAD_REACTORS
330
C88
102
}
330
C88
  0
XRECORD
  5
1172
102
{ACAD_REACTORS
330
1170
102
}
330
1170
100
AcDbXrecord
280
     1
340
10F0
  0
XRECORD
  5
1171
102
{ACAD_REACTORS
330
1170
102
}
330
1170
100
AcDbXrecord
280
     1
340
10EF
  0
DICTIONARYVAR
  5
1161
102
{ACAD_REACTORS
330
1160
102
}
330
1160
100
DictionaryVariables
280
     0
  1
1
  0
DICTIONARYVAR
  5
1162
102
{ACAD_REACTORS
330
1160
102
}
330
1160
100
DictionaryVariables
280
     0
  1

  0
DICTIONARY
  5
1177
330
C8C
100
AcDbDictionary
280
     1
281
     1
  3
ACAD_XREC_ROUNDTRIP
360
1178
  0
DICTIONARY
  5
1179
330
C8D
100
AcDbDictionary
280
     1
281
     1
  3
ACAD_XREC_ROUNDTRIP
360
117A
  0
XRECORD
  5
1178
102
{ACAD_REACTORS
330
1177
102
}
330
1177
100
AcDbXrecord
280
     1
102
SHADEPLOT
 70
     1
102
SHADEPLOTRESLEVEL
 70
     2
102
SHADEPLOTCUSTOMDPI
 70
   300
  0
XRECORD
  5
117A
102
{ACAD_REACTORS
330
1179
102
}
330
1179
100
AcDbXrecord
280
     1
102
SHADEPLOT
 70
     0
102
SHADEPLOTRESLEVEL
 70
     2
102
SHADEPLOTCUSTOMDPI
 70
   300
  0
ENDSEC
  0
EOF
