  0
SECTION
  2
HEADER
  9
$ACADVER
  1
AC1015
  9
$ACADMAINTVER
 70
    20
  9
$DWGCODEPAGE
  3
ANSI_932
  9
$INSBASE
 10
0.0
 20
0.0
 30
0.0
  9
$EXTMIN
 10
-0.0211257685446071
 20
-0.0004862476475864
 30
-0.0015258207003583
  9
$EXTMAX
 10
398.8015975873429
 20
275.8169214937502
 30
0.0000000349246037
  9
$LIMMIN
 10
0.0
 20
0.0
  9
$LIMMAX
 10
420.0
 20
297.0
  9
$ORTHOMODE
 70
     0
  9
$REGENMODE
 70
     1
  9
$FILLMODE
 70
     1
  9
$QTEXTMODE
 70
     0
  9
$MIRRTEXT
 70
     1
  9
$LTSCALE
 40
1.0
  9
$ATTMODE
 70
     1
  9
$TEXTSIZE
 40
2.5
  9
$TRACEWID
 40
1.0
  9
$TEXTSTYLE
  7
STANDARD
  9
$CLAYER
  8
0
  9
$CELTYPE
  6
BYLAYER
  9
$CECOLOR
 62
   256
  9
$CELTSCALE
 40
1.0
  9
$DISPSILH
 70
     0
  9
$DIMSCALE
 40
1.0
  9
$DIMASZ
 40
3.0
  9
$DIMEXO
 40
3.0
  9
$DIMDLI
 40
7.0
  9
$DIMRND
 40
0.0
  9
$DIMDLE
 40
0.0
  9
$DIMEXE
 40
1.5
  9
$DIMTP
 40
0.0
  9
$DIMTM
 40
0.0
  9
$DIMTXT
 40
3.0
  9
$DIMCEN
 40
150.0
  9
$DIMTSZ
 40
0.0
  9
$DIMTOL
 70
     0
  9
$DIMLIM
 70
     0
  9
$DIMTIH
 70
     0
  9
$DIMTOH
 70
     0
  9
$DIMSE1
 70
     0
  9
$DIMSE2
 70
     0
  9
$DIMTAD
 70
     3
  9
$DIMZIN
 70
     0
  9
$DIMBLK
  1

  9
$DIMASO
 70
     1
  9
$DIMSHO
 70
     1
  9
$DIMPOST
  1

  9
$DIMAPOST
  1

  9
$DIMALT
 70
     0
  9
$DIMALTD
 70
     2
  9
$DIMALTF
 40
25.4
  9
$DIMLFAC
 40
1.0
  9
$DIMTOFL
 70
     1
  9
$DIMTVP
 40
0.0
  9
$DIMTIX
 70
     0
  9
$DIMSOXD
 70
     0
  9
$DIMSAH
 70
     1
  9
$DIMBLK1
  1
OPEN
  9
$DIMBLK2
  1
OPEN
  9
$DIMSTYLE
  2
STANDARD
  9
$DIMCLRD
 70
   256
  9
$DIMCLRE
 70
   256
  9
$DIMCLRT
 70
   256
  9
$DIMTFAC
 40
1.0
  9
$DIMGAP
 40
1.0
  9
$DIMJUST
 70
     0
  9
$DIMSD1
 70
     0
  9
$DIMSD2
 70
     0
  9
$DIMTOLJ
 70
     1
  9
$DIMTZIN
 70
     0
  9
$DIMALTZ
 70
     0
  9
$DIMALTTZ
 70
     0
  9
$DIMUPT
 70
     0
  9
$DIMDEC
 70
     0
  9
$DIMTDEC
 70
     0
  9
$DIMALTU
 70
     2
  9
$DIMALTTD
 70
     2
  9
$DIMTXSTY
  7
STANDARD
  9
$DIMAUNIT
 70
     0
  9
$DIMADEC
 70
     0
  9
$DIMALTRND
 40
0.0
  9
$DIMAZIN
 70
     0
  9
$DIMDSEP
 70
    46
  9
$DIMATFIT
 70
     3
  9
$DIMFRAC
 70
     0
  9
$DIMLDRBLK
  1
OPEN
  9
$DIMLUNIT
 70
     2
  9
$DIMLWD
 70
    -1
  9
$DIMLWE
 70
    -1
  9
$DIMTMOVE
 70
     0
  9
$LUNITS
 70
     2
  9
$LUPREC
 70
     4
  9
$SKETCHINC
 40
1.0
  9
$FILLETRAD
 40
10.0
  9
$AUNITS
 70
     0
  9
$AUPREC
 70
     0
  9
$MENU
  1
.
  9
$ELEVATION
 40
0.0
  9
$PELEVATION
 40
0.0
  9
$THICKNESS
 40
0.0
  9
$LIMCHECK
 70
     0
  9
$CHAMFERA
 40
10.0
  9
$CHAMFERB
 40
10.0
  9
$CHAMFERC
 40
20.0
  9
$CHAMFERD
 40
0.0
  9
$SKPOLY
 70
     0
  9
$TDCREATE
 40
2450994.350997107
  9
$TDUCREATE
 40
2450993.975997107
  9
$TDUPDATE
 40
2458319.685110706
  9
$TDUUPDATE
 40
2458319.310110706
  9
$TDINDWG
 40
0.0592939931
  9
$TDUSRTIMER
 40
0.0592939931
  9
$USRTIMER
 70
     1
  9
$ANGBASE
 50
0.0
  9
$ANGDIR
 70
     0
  9
$PDMODE
 70
     1
  9
$PDSIZE
 40
0.0
  9
$PLINEWID
 40
0.0
  9
$SPLFRAME
 70
     0
  9
$SPLINETYPE
 70
     6
  9
$SPLINESEGS
 70
     8
  9
$HANDSEED
  5
10B7
  9
$SURFTAB1
 70
     6
  9
$SURFTAB2
 70
     6
  9
$SURFTYPE
 70
     6
  9
$SURFU
 70
     6
  9
$SURFV
 70
     6
  9
$UCSBASE
  2

  9
$UCSNAME
  2

  9
$UCSORG
 10
0.0
 20
0.0
 30
0.0
  9
$UCSXDIR
 10
1.0
 20
0.0
 30
0.0
  9
$UCSYDIR
 10
0.0
 20
1.0
 30
0.0
  9
$UCSORTHOREF
  2

  9
$UCSORTHOVIEW
 70
     0
  9
$UCSORGTOP
 10
0.0
 20
0.0
 30
0.0
  9
$UCSORGBOTTOM
 10
0.0
 20
0.0
 30
0.0
  9
$UCSORGLEFT
 10
0.0
 20
0.0
 30
0.0
  9
$UCSORGRIGHT
 10
0.0
 20
0.0
 30
0.0
  9
$UCSORGFRONT
 10
0.0
 20
0.0
 30
0.0
  9
$UCSORGBACK
 10
0.0
 20
0.0
 30
0.0
  9
$PUCSBASE
  2

  9
$PUCSNAME
  2

  9
$PUCSORG
 10
0.0
 20
0.0
 30
0.0
  9
$PUCSXDIR
 10
1.0
 20
0.0
 30
0.0
  9
$PUCSYDIR
 10
0.0
 20
1.0
 30
0.0
  9
$PUCSORTHOREF
  2

  9
$PUCSORTHOVIEW
 70
     0
  9
$PUCSORGTOP
 10
0.0
 20
0.0
 30
0.0
  9
$PUCSORGBOTTOM
 10
0.0
 20
0.0
 30
0.0
  9
$PUCSORGLEFT
 10
0.0
 20
0.0
 30
0.0
  9
$PUCSORGRIGHT
 10
0.0
 20
0.0
 30
0.0
  9
$PUCSORGFRONT
 10
0.0
 20
0.0
 30
0.0
  9
$PUCSORGBACK
 10
0.0
 20
0.0
 30
0.0
  9
$USERI1
 70
     0
  9
$USERI2
 70
     0
  9
$USERI3
 70
     0
  9
$USERI4
 70
     0
  9
$USERI5
 70
     0
  9
$USERR1
 40
0.0
  9
$USERR2
 40
0.0
  9
$USERR3
 40
0.0
  9
$USERR4
 40
0.0
  9
$USERR5
 40
0.0
  9
$WORLDVIEW
 70
     1
  9
$SHADEDGE
 70
     3
  9
$SHADEDIF
 70
    70
  9
$TILEMODE
 70
     1
  9
$MAXACTVP
 70
    16
  9
$PINSBASE
 10
0.0
 20
0.0
 30
0.0
  9
$PLIMCHECK
 70
     0
  9
$PEXTMIN
 10
0.0
 20
0.0
 30
0.0
  9
$PEXTMAX
 10
420.0
 20
297.0
 30
0.0
  9
$PLIMMIN
 10
0.0
 20
0.0
  9
$PLIMMAX
 10
420.0
 20
297.0
  9
$UNITMODE
 70
     0
  9
$VISRETAIN
 70
     0
  9
$PLINEGEN
 70
     0
  9
$PSLTSCALE
 70
     1
  9
$TREEDEPTH
 70
  3020
  9
$CMLSTYLE
  2
STANDARD
  9
$CMLJUST
 70
     0
  9
$CMLSCALE
 40
1.0
  9
$PROXYGRAPHICS
 70
     1
  9
$MEASUREMENT
 70
     1
  9
$CELWEIGHT
370
    -1
  9
$ENDCAPS
280
     0
  9
$JOINSTYLE
280
     0
  9
$LWDISPLAY
290
     0
  9
$INSUNITS
 70
     0
  9
$HYPERLINKBASE
  1

  9
$STYLESHEET
  1
monochrome.ctb
  9
$XEDIT
290
     1
  9
$CEPSNTYPE
380
     0
  9
$PSTYLEMODE
290
     1
  9
$FINGERPRINTGUID
  2
{DA219350-395F-46C6-BB9C-60369E79475B}
  9
$VERSIONGUID
  2
{66C5E780-7438-4CBA-B0AE-4F1ED69F4100}
  9
$EXTNAMES
290
     1
  9
$PSVPSCALE
 40
0.0
  9
$OLESTARTUP
290
     0
  0
ENDSEC
  0
SECTION
  2
CLASSES
  0
CLASS
  1
ACDBDICTIONARYWDFLT
  2
AcDbDictionaryWithDefault
  3
ObjectDBX Classes
 90
        0
280
     0
281
     0
  0
CLASS
  1
ACDBPLACEHOLDER
  2
AcDbPlaceHolder
  3
ObjectDBX Classes
 90
        0
280
     0
281
     0
  0
CLASS
  1
LAYOUT
  2
AcDbLayout
  3
ObjectDBX Classes
 90
        0
280
     0
281
     0
  0
CLASS
  1
DICTIONARYVAR
  2
AcDbDictionaryVar
  3
ObjectDBX Classes
 90
        0
280
     0
281
     0
  0
ENDSEC
  0
SECTION
  2
TABLES
  0
TABLE
  2
VPORT
  5
8
330
0
100
AcDbSymbolTable
 70
     4
  0
VPORT
  5
10AB
330
8
100
AcDbSymbolTableRecord
100
AcDbViewportTableRecord
  2
*Active
 70
     0
 10
0.0
 20
0.0
 11
1.0
 21
1.0
 12
213.6528084705619
 22
149.650831870913
 13
0.0
 23
0.0
 14
5.0
 24
5.0
 15
0.0
 25
0.0
 16
0.0
 26
0.0
 36
1.0
 17
0.0
 27
0.0
 37
0.0
 40
467.5027444402878
 41
2.083424807903402
 42
50.0
 43
0.0
 44
0.0
 50
0.0
 51
0.0
 71
     0
 72
   100
 73
     1
 74
     0
 75
     0
 76
     0
 77
     0
 78
     0
281
     0
 65
     1
110
0.0
120
0.0
130
0.0
111
1.0
121
0.0
131
0.0
112
0.0
122
1.0
132
0.0
 79
     0
146
0.0
  0
ENDTAB
  0
TABLE
  2
LTYPE
  5
5
330
0
100
AcDbSymbolTable
 70
     3
  0
LTYPE
  5
14
330
5
100
AcDbSymbolTableRecord
100
AcDbLinetypeTableRecord
  2
BYBLOCK
 70
     0
  3

 72
    65
 73
     0
 40
0.0
  0
LTYPE
  5
15
330
5
100
AcDbSymbolTableRecord
100
AcDbLinetypeTableRecord
  2
BYLAYER
 70
     0
  3

 72
    65
 73
     0
 40
0.0
  0
LTYPE
  5
16
330
5
100
AcDbSymbolTableRecord
100
AcDbLinetypeTableRecord
  2
CONTINUOUS
 70
     0
  3
Solid line
 72
    65
 73
     0
 40
0.0
  0
LTYPE
  5
120
330
5
100
AcDbSymbolTableRecord
100
AcDbLinetypeTableRecord
  2
CENTER
 70
     0
  3
____ _ ____ _ ____ _ ____ _ ____ _ ____ _ ____ 
 72
    65
 73
     4
 40
2.0
 49
1.25
 74
     0
 49
-0.25
 74
     0
 49
0.25
 74
     0
 49
-0.25
 74
     0
  0
LTYPE
  5
122
330
5
100
AcDbSymbolTableRecord
100
AcDbLinetypeTableRecord
  2
PHANTOM
 70
     0
  3
______  __  __  ______  __  __  ______  __  __ 
 72
    65
 73
     6
 40
2.5
 49
1.25
 74
     0
 49
-0.25
 74
     0
 49
0.25
 74
     0
 49
-0.25
 74
     0
 49
0.25
 74
     0
 49
-0.25
 74
     0
  0
ENDTAB
  0
TABLE
  2
LAYER
  5
2
330
0
100
AcDbSymbolTable
 70
    10
  0
LAYER
  5
F
330
2
100
AcDbSymbolTableRecord
100
AcDbLayerTableRecord
  2
0
 70
     0
 62
     7
  6
CONTINUOUS
370
    -3
390
705
  0
LAYER
  5
62
330
2
100
AcDbSymbolTableRecord
100
AcDbLayerTableRecord
  2
VIEWPORT
 70
     0
 62
     7
  6
CONTINUOUS
370
    -3
390
705
  0
LAYER
  5
6B
330
2
100
AcDbSymbolTableRecord
100
AcDbLayerTableRecord
  2
ZUWAKU
 70
     0
 62
     7
  6
CONTINUOUS
370
    -3
390
705
  0
LAYER
  5
146
330
2
100
AcDbSymbolTableRecord
100
AcDbLayerTableRecord
  2
SUNPOU L
 70
     0
 62
     4
  6
CONTINUOUS
370
    -3
390
705
  0
LAYER
  5
185
330
2
100
AcDbSymbolTableRecord
100
AcDbLayerTableRecord
  2
CENTER L
 70
     0
 62
     1
  6
CENTER
370
    -3
390
705
  0
LAYER
  5
18C
330
2
100
AcDbSymbolTableRecord
100
AcDbLayerTableRecord
  2
DEFPOINTS
 70
     0
 62
     7
  6
CONTINUOUS
290
     0
370
    -3
390
705
  0
LAYER
  5
29D
330
2
100
AcDbSymbolTableRecord
100
AcDbLayerTableRecord
  2
SUNPOU
 70
     0
 62
     4
  6
CONTINUOUS
370
    -3
390
705
  0
LAYER
  5
29E
330
2
100
AcDbSymbolTableRecord
100
AcDbLayerTableRecord
  2
SEIHIN
 70
     0
 62
     3
  6
CONTINUOUS
370
    -3
390
705
  0
LAYER
  5
29F
330
2
100
AcDbSymbolTableRecord
100
AcDbLayerTableRecord
  2
NOKITOI
 70
     0
 62
     8
  6
PHANTOM
370
    -3
390
705
  0
LAYER
  5
A40
330
2
100
AcDbSymbolTableRecord
100
AcDbLayerTableRecord
  2
moji
 70
     0
 62
     2
  6
CONTINUOUS
370
    -3
390
705
  0
ENDTAB
  0
TABLE
  2
STYLE
  5
3
330
0
100
AcDbSymbolTable
 70
     2
  0
STYLE
  5
10
330
3
100
AcDbSymbolTableRecord
100
AcDbTextStyleTableRecord
  2
STANDARD
 70
     0
 40
0.0
 41
1.0
 50
0.0
 71
     0
 42
2.5
  3
TXT
  4
bigfont.shx
  0
STYLE
  5
A3A
330
3
100
AcDbSymbolTableRecord
100
AcDbTextStyleTableRecord
  2
ｽﾀｲﾙ1
 70
     0
 40
0.0
 41
1.0
 50
0.0
 71
     0
 42
2.5
  3

  4

1001
ACAD
1000
MS PGothic
1071
    32818
  0
ENDTAB
  0
TABLE
  2
VIEW
  5
6
330
0
100
AcDbSymbolTable
 70
     0
  0
ENDTAB
  0
TABLE
  2
UCS
  5
7
330
0
100
AcDbSymbolTable
 70
     0
  0
ENDTAB
  0
TABLE
  2
APPID
  5
9
330
0
100
AcDbSymbolTable
 70
     1
  0
APPID
  5
11
330
9
100
AcDbSymbolTableRecord
100
AcDbRegAppTableRecord
  2
ACAD
 70
     0
  0
ENDTAB
  0
TABLE
  2
DIMSTYLE
  5
A
330
0
100
AcDbSymbolTable
 70
     1
100
AcDbDimStyleTable
 71
     0
  0
DIMSTYLE
105
1D
102
{ACAD_REACTORS
330
484
330
4EB
330
55E
330
593
330
59A
330
59B
330
59F
330
621
330
F71
330
F72
330
F76
330
F79
102
}
330
A
100
AcDbSymbolTableRecord
100
AcDbDimStyleTableRecord
  2
STANDARD
 70
     0
340
10
  0
ENDTAB
  0
TABLE
  2
BLOCK_RECORD
  5
1
330
0
100
AcDbSymbolTable
 70
    23
  0
BLOCK_RECORD
  5
1A
102
{ACAD_XDICTIONARY
360
9A4
102
}
330
1
100
AcDbSymbolTableRecord
100
AcDbBlockTableRecord
  2
*MODEL_SPACE
340
708
  0
BLOCK_RECORD
  5
17
102
{ACAD_XDICTIONARY
360
9A2
102
}
330
1
100
AcDbSymbolTableRecord
100
AcDbBlockTableRecord
  2
*PAPER_SPACE
340
709
  0
BLOCK_RECORD
  5
B2
330
1
100
AcDbSymbolTableRecord
100
AcDbBlockTableRecord
  2
_OPEN
340
0
102
{BLKREFS
331
5A5
331
5A6
331
C04
331
C05
331
C0D
331
C0E
331
C16
331
C17
331
C3A
331
C3B
331
C31
331
C32
331
C28
331
C29
331
C1F
331
C20
331
C43
331
C44
331
F06
331
F07
331
EFA
331
EFB
331
EEE
331
EEF
331
EE2
331
EE3
331
FD1
331
FD2
331
FDA
331
FDB
331
FE3
331
FE4
331
FEC
331
FED
331
105C
331
105D
331
1065
331
1066
331
106E
331
106F
331
1077
331
1078
102
}
  0
BLOCK_RECORD
  5
646
330
1
100
AcDbSymbolTableRecord
100
AcDbBlockTableRecord
  2
*D1
340
0
  0
BLOCK_RECORD
  5
652
330
1
100
AcDbSymbolTableRecord
100
AcDbBlockTableRecord
  2
*D2
340
0
  0
BLOCK_RECORD
  5
65E
330
1
100
AcDbSymbolTableRecord
100
AcDbBlockTableRecord
  2
*D3
340
0
  0
BLOCK_RECORD
  5
66A
330
1
100
AcDbSymbolTableRecord
100
AcDbBlockTableRecord
  2
*D4
340
0
  0
BLOCK_RECORD
  5
676
330
1
100
AcDbSymbolTableRecord
100
AcDbBlockTableRecord
  2
*D5
340
0
  0
BLOCK_RECORD
  5
682
330
1
100
AcDbSymbolTableRecord
100
AcDbBlockTableRecord
  2
*D6
340
0
  0
BLOCK_RECORD
  5
68E
330
1
100
AcDbSymbolTableRecord
100
AcDbBlockTableRecord
  2
*D7
340
0
  0
BLOCK_RECORD
  5
69A
330
1
100
AcDbSymbolTableRecord
100
AcDbBlockTableRecord
  2
*D8
340
0
  0
BLOCK_RECORD
  5
C96
330
1
100
AcDbSymbolTableRecord
100
AcDbBlockTableRecord
  2
*X9
340
0
102
{BLKREFS
331
B07
102
}
  0
BLOCK_RECORD
  5
F7A
330
1
100
AcDbSymbolTableRecord
100
AcDbBlockTableRecord
  2
*D14
340
0
  0
BLOCK_RECORD
  5
F86
330
1
100
AcDbSymbolTableRecord
100
AcDbBlockTableRecord
  2
*D15
340
0
  0
BLOCK_RECORD
  5
F92
330
1
100
AcDbSymbolTableRecord
100
AcDbBlockTableRecord
  2
*D16
340
0
  0
BLOCK_RECORD
  5
F9E
330
1
100
AcDbSymbolTableRecord
100
AcDbBlockTableRecord
  2
*D17
340
0
  0
ENDTAB
  0
ENDSEC
  0
SECTION
  2
BLOCKS
  0
BLOCK
  5
1B
330
1A
100
AcDbEntity
  8
0
100
AcDbBlockBegin
  2
*MODEL_SPACE
 70
     0
 10
0.0
 20
0.0
 30
0.0
  3
*MODEL_SPACE
  1

  0
ENDBLK
  5
1C
330
1A
100
AcDbEntity
  8
0
100
AcDbBlockEnd
  0
BLOCK
  5
18
330
17
100
AcDbEntity
 67
     1
  8
0
100
AcDbBlockBegin
  2
*PAPER_SPACE
 70
     0
 10
0.0
 20
0.0
 30
0.0
  3
*PAPER_SPACE
  1

  0
ENDBLK
  5
19
330
17
100
AcDbEntity
 67
     1
  8
0
100
AcDbBlockEnd
  0
BLOCK
  5
B3
330
B2
100
AcDbEntity
  8
0
100
AcDbBlockBegin
  2
_OPEN
 70
     0
 10
0.0
 20
0.0
 30
0.0
  3
_OPEN
  1

  0
LINE
  5
B4
330
B2
100
AcDbEntity
  8
0
  6
ByBlock
 62
     0
380
     1
100
AcDbLine
 10
-1.0
 20
0.1666666666666666
 30
0.0
 11
0.0
 21
0.0
 31
0.0
  0
LINE
  5
B5
330
B2
100
AcDbEntity
  8
0
  6
ByBlock
 62
     0
380
     1
100
AcDbLine
 10
0.0
 20
0.0
 30
0.0
 11
-1.0
 21
-0.1666666666666666
 31
0.0
  0
LINE
  5
B6
330
B2
100
AcDbEntity
  8
0
  6
ByBlock
 62
     0
380
     1
100
AcDbLine
 10
0.0
 20
0.0
 30
0.0
 11
-1.0
 21
0.0
 31
0.0
  0
ENDBLK
  5
B7
330
B2
100
AcDbEntity
  8
0
100
AcDbBlockEnd
  0
BLOCK
  5
6A6
330
646
100
AcDbEntity
  8
0
100
AcDbBlockBegin
  2
*D1
 70
     1
 10
0.0
 20
0.0
 30
0.0
  3
*D1
  1

  0
LINE
  5
C01
330
646
100
AcDbEntity
  8
SUNPOU
 62
     4
370
    -2
100
AcDbLine
 10
235.5647453795902
 20
107.5960881070546
 30
0.0
 11
235.5647453795902
 21
159.2862961222268
 31
0.0
  0
LINE
  5
C02
330
646
100
AcDbEntity
  8
SUNPOU
 62
     4
370
    -2
100
AcDbLine
 10
129.3648453795901
 20
142.3960881070545
 30
0.0
 11
129.3648453795901
 21
159.2862961222268
 31
0.0
  0
LINE
  5
C03
330
646
100
AcDbEntity
  8
SUNPOU
 62
     4
370
    -2
100
AcDbLine
 10
232.5647453795902
 20
157.7862961222268
 30
0.0
 11
132.3648453795901
 21
157.7862961222268
 31
0.0
  0
INSERT
  5
C04
330
646
100
AcDbEntity
  8
SUNPOU
 62
     4
370
    -2
100
AcDbBlockReference
  2
_OPEN
 10
235.5647453795902
 20
157.7862961222268
 30
0.0
 41
3.0
 42
3.0
 43
3.0
  0
INSERT
  5
C05
330
646
100
AcDbEntity
  8
SUNPOU
 62
     4
370
    -2
100
AcDbBlockReference
  2
_OPEN
 10
129.3648453795901
 20
157.7862961222268
 30
0.0
 41
3.0
 42
3.0
 43
3.0
 50
180.0
  0
MTEXT
  5
C06
330
646
100
AcDbEntity
  8
SUNPOU
 62
     4
100
AcDbMText
 10
182.4647953795901
 20
160.2862961222268
 30
0.0
 40
3.0
 41
0.0
 71
     5
 72
     5
  1
\A1;106
 73
     1
 44
1.0
1001
ACAD
1000
MTEXTBEGIN
1070
    73
1070
     1
1070
    44
1040
1.0
1070
    74
1070
     0
1000
MTEXTEND
  0
POINT
  5
C07
330
646
100
AcDbEntity
  8
DEFPOINTS
 62
     0
380
     1
100
AcDbPoint
 10
235.5647453795902
 20
104.5960881070546
 30
0.0
  0
POINT
  5
C08
330
646
100
AcDbEntity
  8
DEFPOINTS
 62
     0
380
     1
100
AcDbPoint
 10
129.3648453795901
 20
139.3960881070545
 30
0.0
  0
POINT
  5
C09
330
646
100
AcDbEntity
  8
DEFPOINTS
 62
     0
380
     1
100
AcDbPoint
 10
129.3648453795901
 20
157.7862961222268
 30
0.0
  0
ENDBLK
  5
6B0
330
646
100
AcDbEntity
  8
0
100
AcDbBlockEnd
  0
BLOCK
  5
6B1
330
652
100
AcDbEntity
  8
0
100
AcDbBlockBegin
  2
*D2
 70
     1
 10
0.0
 20
0.0
 30
0.0
  3
*D2
  1

  0
LINE
  5
C0A
330
652
100
AcDbEntity
  8
SUNPOU
 62
     4
370
    -2
100
AcDbLine
 10
126.3648453795901
 20
139.3960881070545
 30
0.0
 11
109.3248905023399
 21
139.3960881070545
 31
0.0
  0
LINE
  5
C0B
330
652
100
AcDbEntity
  8
SUNPOU
 62
     4
370
    -2
100
AcDbLine
 10
144.7360453795901
 20
79.89608810705448
 30
0.0
 11
109.3248905023399
 21
79.89608810705448
 31
0.0
  0
LINE
  5
C0C
330
652
100
AcDbEntity
  8
SUNPOU
 62
     4
370
    -2
100
AcDbLine
 10
110.8248905023399
 20
136.3960881070545
 30
0.0
 11
110.8248905023399
 21
82.89608810705448
 31
0.0
  0
INSERT
  5
C0D
330
652
100
AcDbEntity
  8
SUNPOU
 62
     4
370
    -2
100
AcDbBlockReference
  2
_OPEN
 10
110.8248905023399
 20
139.3960881070545
 30
0.0
 41
3.0
 42
3.0
 43
3.0
 50
90.0
  0
INSERT
  5
C0E
330
652
100
AcDbEntity
  8
SUNPOU
 62
     4
370
    -2
100
AcDbBlockReference
  2
_OPEN
 10
110.8248905023399
 20
79.89608810705448
 30
0.0
 41
3.0
 42
3.0
 43
3.0
 50
270.0
  0
MTEXT
  5
C0F
330
652
100
AcDbEntity
  8
SUNPOU
 62
     4
100
AcDbMText
 10
108.3248905023398
 20
109.6460881070545
 30
0.0
 40
3.0
 41
0.0
 71
     5
 72
     5
  1
\A1;60
 11
0.0000000000000001
 21
1.0
 31
0.0
 73
     1
 44
1.0
1001
ACAD
1000
MTEXTBEGIN
1070
    73
1070
     1
1070
    44
1040
1.0
1070
    74
1070
     0
1000
MTEXTEND
  0
POINT
  5
C10
330
652
100
AcDbEntity
  8
DEFPOINTS
 62
     0
380
     1
100
AcDbPoint
 10
129.3648453795901
 20
139.3960881070545
 30
0.0
  0
POINT
  5
C11
330
652
100
AcDbEntity
  8
DEFPOINTS
 62
     0
380
     1
100
AcDbPoint
 10
147.7360453795901
 20
79.89608810705448
 30
0.0
  0
POINT
  5
C12
330
652
100
AcDbEntity
  8
DEFPOINTS
 62
     0
380
     1
100
AcDbPoint
 10
110.8248905023399
 20
79.89608810705448
 30
0.0
  0
ENDBLK
  5
6BB
330
652
100
AcDbEntity
  8
0
100
AcDbBlockEnd
  0
BLOCK
  5
6BC
330
65E
100
AcDbEntity
  8
0
100
AcDbBlockBegin
  2
*D3
 70
     1
 10
0.0
 20
0.0
 30
0.0
  3
*D3
  1

  0
LINE
  5
C13
330
65E
100
AcDbEntity
  8
SUNPOU
 62
     4
370
    -2
100
AcDbLine
 10
126.3649453795901
 20
209.8960881070546
 30
0.0
 11
109.3248905023399
 21
209.8960881070546
 31
0.0
  0
LINE
  5
C14
330
65E
100
AcDbEntity
  8
SUNPOU
 62
     4
370
    -2
100
AcDbLine
 10
126.3648453795901
 20
189.8960881070545
 30
0.0
 11
109.3248905023399
 21
189.8960881070545
 31
0.0
  0
LINE
  5
C15
330
65E
100
AcDbEntity
  8
SUNPOU
 62
     4
370
    -2
100
AcDbLine
 10
110.8248905023399
 20
206.8960881070545
 30
0.0
 11
110.8248905023399
 21
192.8960881070545
 31
0.0
  0
INSERT
  5
C16
330
65E
100
AcDbEntity
  8
SUNPOU
 62
     4
370
    -2
100
AcDbBlockReference
  2
_OPEN
 10
110.8248905023399
 20
209.8960881070546
 30
0.0
 41
3.0
 42
3.0
 43
3.0
 50
90.0
  0
INSERT
  5
C17
330
65E
100
AcDbEntity
  8
SUNPOU
 62
     4
370
    -2
100
AcDbBlockReference
  2
_OPEN
 10
110.8248905023399
 20
189.8960881070545
 30
0.0
 41
3.0
 42
3.0
 43
3.0
 50
270.0
  0
MTEXT
  5
C18
330
65E
100
AcDbEntity
  8
SUNPOU
 62
     4
100
AcDbMText
 10
108.3248905023398
 20
199.8960881070546
 30
0.0
 40
3.0
 41
0.0
 71
     5
 72
     5
  1
\A1;20
 11
0.0000000000000001
 21
1.0
 31
0.0
 73
     1
 44
1.0
1001
ACAD
1000
MTEXTBEGIN
1070
    73
1070
     1
1070
    44
1040
1.0
1070
    74
1070
     0
1000
MTEXTEND
  0
POINT
  5
C19
330
65E
100
AcDbEntity
  8
DEFPOINTS
 62
     0
380
     1
100
AcDbPoint
 10
129.3649453795901
 20
209.8960881070546
 30
0.0
  0
POINT
  5
C1A
330
65E
100
AcDbEntity
  8
DEFPOINTS
 62
     0
380
     1
100
AcDbPoint
 10
129.3648453795901
 20
189.8960881070545
 30
0.0
  0
POINT
  5
C1B
330
65E
100
AcDbEntity
  8
DEFPOINTS
 62
     0
380
     1
100
AcDbPoint
 10
110.8248905023399
 20
189.8960881070545
 30
0.0
  0
ENDBLK
  5
6C6
330
65E
100
AcDbEntity
  8
0
100
AcDbBlockEnd
  0
BLOCK
  5
6C7
330
66A
100
AcDbEntity
  8
0
100
AcDbBlockBegin
  2
*D4
 70
     1
 10
0.0
 20
0.0
 30
0.0
  3
*D4
  1

  0
LINE
  5
C37
330
66A
100
AcDbEntity
  8
SUNPOU
 62
     4
370
    -2
100
AcDbLine
 10
235.5647453795902
 20
107.5960881070546
 30
0.0
 11
235.5647453795902
 21
140.8263012730764
 31
0.0
  0
LINE
  5
C38
330
66A
100
AcDbEntity
  8
SUNPOU
 62
     4
370
    -2
100
AcDbLine
 10
215.1647453795901
 20
122.8959881070543
 30
0.0
 11
215.1647453795901
 21
140.8263012730764
 31
0.0
  0
LINE
  5
C39
330
66A
100
AcDbEntity
  8
SUNPOU
 62
     4
370
    -2
100
AcDbLine
 10
232.5647453795902
 20
139.3263012730764
 30
0.0
 11
218.1647453795901
 21
139.3263012730764
 31
0.0
  0
INSERT
  5
C3A
330
66A
100
AcDbEntity
  8
SUNPOU
 62
     4
370
    -2
100
AcDbBlockReference
  2
_OPEN
 10
235.5647453795902
 20
139.3263012730764
 30
0.0
 41
3.0
 42
3.0
 43
3.0
  0
INSERT
  5
C3B
330
66A
100
AcDbEntity
  8
SUNPOU
 62
     4
370
    -2
100
AcDbBlockReference
  2
_OPEN
 10
215.1647453795901
 20
139.3263012730764
 30
0.0
 41
3.0
 42
3.0
 43
3.0
 50
180.0
  0
MTEXT
  5
C3C
330
66A
100
AcDbEntity
  8
SUNPOU
 62
     4
100
AcDbMText
 10
225.3647453795902
 20
141.8263012730764
 30
0.0
 40
3.0
 41
0.0
 71
     5
 72
     5
  1
\A1;20
 73
     1
 44
1.0
1001
ACAD
1000
MTEXTBEGIN
1070
    73
1070
     1
1070
    44
1040
1.0
1070
    74
1070
     0
1000
MTEXTEND
  0
POINT
  5
C3D
330
66A
100
AcDbEntity
  8
DEFPOINTS
 62
     0
380
     1
100
AcDbPoint
 10
235.5647453795902
 20
104.5960881070546
 30
0.0
  0
POINT
  5
C3E
330
66A
100
AcDbEntity
  8
DEFPOINTS
 62
     0
380
     1
100
AcDbPoint
 10
215.1647453795901
 20
119.8959881070543
 30
0.0
  0
POINT
  5
C3F
330
66A
100
AcDbEntity
  8
DEFPOINTS
 62
     0
380
     1
100
AcDbPoint
 10
215.1647453795901
 20
139.3263012730764
 30
0.0
  0
ENDBLK
  5
6D1
330
66A
100
AcDbEntity
  8
0
100
AcDbBlockEnd
  0
BLOCK
  5
6D2
330
676
100
AcDbEntity
  8
0
100
AcDbBlockBegin
  2
*D5
 70
     1
 10
0.0
 20
0.0
 30
0.0
  3
*D5
  1

  0
LINE
  5
C2E
330
676
100
AcDbEntity
  8
SUNPOU
370
    -2
100
AcDbLine
 10
238.5647453795902
 20
104.5960881070546
 30
0.0
 11
257.123647053233
 21
104.5960881070546
 31
0.0
  0
LINE
  5
C2F
330
676
100
AcDbEntity
  8
SUNPOU
370
    -2
100
AcDbLine
 10
238.5647453795902
 20
74.59608810705458
 30
0.0
 11
257.123647053233
 21
74.59608810705458
 31
0.0
  0
LINE
  5
C30
330
676
100
AcDbEntity
  8
SUNPOU
100
AcDbLine
 10
255.623647053233
 20
101.5960881070546
 30
0.0
 11
255.623647053233
 21
77.59608810705458
 31
0.0
  0
INSERT
  5
C31
330
676
100
AcDbEntity
  8
SUNPOU
100
AcDbBlockReference
  2
_OPEN
 10
255.623647053233
 20
104.5960881070546
 30
0.0
 41
3.0
 42
3.0
 43
3.0
 50
90.0
  0
INSERT
  5
C32
330
676
100
AcDbEntity
  8
SUNPOU
100
AcDbBlockReference
  2
_OPEN
 10
255.623647053233
 20
74.59608810705458
 30
0.0
 41
3.0
 42
3.0
 43
3.0
 50
270.0
  0
MTEXT
  5
C33
330
676
100
AcDbEntity
  8
SUNPOU
 62
     4
100
AcDbMText
 10
253.123647053233
 20
89.59608810705463
 30
0.0
 40
3.0
 41
0.0
 71
     5
 72
     5
  1
\A1;30
 11
0.0000000000000001
 21
1.0
 31
0.0
 73
     1
 44
1.0
1001
ACAD
1000
MTEXTBEGIN
1070
    73
1070
     1
1070
    44
1040
1.0
1070
    74
1070
     0
1000
MTEXTEND
  0
POINT
  5
C34
330
676
100
AcDbEntity
  8
DEFPOINTS
 62
     0
380
     1
100
AcDbPoint
 10
235.5647453795902
 20
104.5960881070546
 30
0.0
  0
POINT
  5
C35
330
676
100
AcDbEntity
  8
DEFPOINTS
 62
     0
380
     1
100
AcDbPoint
 10
235.5647453795902
 20
74.59608810705458
 30
0.0
  0
POINT
  5
C36
330
676
100
AcDbEntity
  8
DEFPOINTS
 62
     0
380
     1
100
AcDbPoint
 10
255.623647053233
 20
74.59608810705458
 30
0.0
  0
ENDBLK
  5
6DC
330
676
100
AcDbEntity
  8
0
100
AcDbBlockEnd
  0
BLOCK
  5
6DD
330
682
100
AcDbEntity
  8
0
100
AcDbBlockBegin
  2
*D6
 70
     1
 10
0.0
 20
0.0
 30
0.0
  3
*D6
  1

  0
LINE
  5
C25
330
682
100
AcDbEntity
  8
SUNPOU
370
    -2
100
AcDbLine
 10
218.1648453795903
 20
119.8959881070543
 30
0.0
 11
273.4528150196728
 21
119.8959881070543
 31
0.0
  0
LINE
  5
C26
330
682
100
AcDbEntity
  8
SUNPOU
370
    -2
100
AcDbLine
 10
238.5647453795902
 20
74.59608810705458
 30
0.0
 11
273.4528150196728
 21
74.59608810705458
 31
0.0
  0
LINE
  5
C27
330
682
100
AcDbEntity
  8
SUNPOU
100
AcDbLine
 10
271.9528150196728
 20
116.8959881070543
 30
0.0
 11
271.9528150196728
 21
77.59608810705458
 31
0.0
  0
INSERT
  5
C28
330
682
100
AcDbEntity
  8
SUNPOU
100
AcDbBlockReference
  2
_OPEN
 10
271.9528150196728
 20
119.8959881070543
 30
0.0
 41
3.0
 42
3.0
 43
3.0
 50
90.0
  0
INSERT
  5
C29
330
682
100
AcDbEntity
  8
SUNPOU
100
AcDbBlockReference
  2
_OPEN
 10
271.9528150196728
 20
74.59608810705458
 30
0.0
 41
3.0
 42
3.0
 43
3.0
 50
270.0
  0
MTEXT
  5
C2A
330
682
100
AcDbEntity
  8
SUNPOU
 62
     4
100
AcDbMText
 10
269.4528150196728
 20
97.24603810705451
 30
0.0
 40
3.0
 41
0.0
 71
     5
 72
     5
  1
\A1;45
 11
0.0000000000000001
 21
1.0
 31
0.0
 73
     1
 44
1.0
1001
ACAD
1000
MTEXTBEGIN
1070
    73
1070
     1
1070
    44
1040
1.0
1070
    74
1070
     0
1000
MTEXTEND
  0
POINT
  5
C2B
330
682
100
AcDbEntity
  8
DEFPOINTS
 62
     0
380
     1
100
AcDbPoint
 10
215.1648453795902
 20
119.8959881070543
 30
0.0
  0
POINT
  5
C2C
330
682
100
AcDbEntity
  8
DEFPOINTS
 62
     0
380
     1
100
AcDbPoint
 10
235.5647453795902
 20
74.59608810705458
 30
0.0
  0
POINT
  5
C2D
330
682
100
AcDbEntity
  8
DEFPOINTS
 62
     0
380
     1
100
AcDbPoint
 10
271.9528150196728
 20
74.59608810705458
 30
0.0
  0
ENDBLK
  5
6E7
330
682
100
AcDbEntity
  8
0
100
AcDbBlockEnd
  0
BLOCK
  5
6E8
330
68E
100
AcDbEntity
  8
0
100
AcDbBlockBegin
  2
*D7
 70
     1
 10
0.0
 20
0.0
 30
0.0
  3
*D7
  1

  0
LINE
  5
C1C
330
68E
100
AcDbEntity
  8
SUNPOU
370
    -2
100
AcDbLine
 10
233.5647453795902
 20
109.5960881070545
 30
0.0
 11
264.984250987942
 21
109.5960881070545
 31
0.0
  0
LINE
  5
C1D
330
68E
100
AcDbEntity
  8
SUNPOU
370
    -2
100
AcDbLine
 10
238.5647453795902
 20
74.59608810705458
 30
0.0
 11
264.984250987942
 21
74.59608810705458
 31
0.0
  0
LINE
  5
C1E
330
68E
100
AcDbEntity
  8
SUNPOU
100
AcDbLine
 10
263.484250987942
 20
106.5960881070545
 30
0.0
 11
263.484250987942
 21
77.59608810705458
 31
0.0
  0
INSERT
  5
C1F
330
68E
100
AcDbEntity
  8
SUNPOU
100
AcDbBlockReference
  2
_OPEN
 10
263.484250987942
 20
109.5960881070545
 30
0.0
 41
3.0
 42
3.0
 43
3.0
 50
90.0
  0
INSERT
  5
C20
330
68E
100
AcDbEntity
  8
SUNPOU
100
AcDbBlockReference
  2
_OPEN
 10
263.484250987942
 20
74.59608810705458
 30
0.0
 41
3.0
 42
3.0
 43
3.0
 50
270.0
  0
MTEXT
  5
C21
330
68E
100
AcDbEntity
  8
SUNPOU
 62
     4
100
AcDbMText
 10
260.984250987942
 20
92.09608810705461
 30
0.0
 40
3.0
 41
0.0
 71
     5
 72
     5
  1
\A1;35
 11
0.0000000000000001
 21
1.0
 31
0.0
 73
     1
 44
1.0
1001
ACAD
1000
MTEXTBEGIN
1070
    73
1070
     1
1070
    44
1040
1.0
1070
    74
1070
     0
1000
MTEXTEND
  0
POINT
  5
C22
330
68E
100
AcDbEntity
  8
DEFPOINTS
 62
     0
380
     1
100
AcDbPoint
 10
230.5647453795902
 20
109.5960881070545
 30
0.0
  0
POINT
  5
C23
330
68E
100
AcDbEntity
  8
DEFPOINTS
 62
     0
380
     1
100
AcDbPoint
 10
235.5647453795902
 20
74.59608810705458
 30
0.0
  0
POINT
  5
C24
330
68E
100
AcDbEntity
  8
DEFPOINTS
 62
     0
380
     1
100
AcDbPoint
 10
263.484250987942
 20
74.59608810705458
 30
0.0
  0
ENDBLK
  5
6F2
330
68E
100
AcDbEntity
  8
0
100
AcDbBlockEnd
  0
BLOCK
  5
6F3
330
69A
100
AcDbEntity
  8
0
100
AcDbBlockBegin
  2
*D8
 70
     1
 10
0.0
 20
0.0
 30
0.0
  3
*D8
  1

  0
LINE
  5
C40
330
69A
100
AcDbEntity
  8
SUNPOU
370
    -2
100
AcDbLine
 10
238.5648453795901
 20
224.3959881070544
 30
0.0
 11
255.0918630539678
 21
224.3959881070544
 31
0.0
  0
LINE
  5
C41
330
69A
100
AcDbEntity
  8
SUNPOU
370
    -2
100
AcDbLine
 10
238.5648453795901
 20
175.3959881070545
 30
0.0
 11
255.0918630539677
 21
175.3959881070545
 31
0.0
  0
LINE
  5
C42
330
69A
100
AcDbEntity
  8
SUNPOU
370
    -2
100
AcDbLine
 10
253.5918630539677
 20
221.3959881070544
 30
0.0
 11
253.5918630539677
 21
178.3959881070545
 31
0.0
  0
INSERT
  5
C43
330
69A
100
AcDbEntity
  8
SUNPOU
370
    -2
100
AcDbBlockReference
  2
_OPEN
 10
253.5918630539677
 20
224.3959881070544
 30
0.0
 41
3.0
 42
3.0
 43
3.0
 50
90.0
  0
INSERT
  5
C44
330
69A
100
AcDbEntity
  8
SUNPOU
370
    -2
100
AcDbBlockReference
  2
_OPEN
 10
253.5918630539677
 20
175.3959881070545
 30
0.0
 41
3.0
 42
3.0
 43
3.0
 50
270.0
  0
MTEXT
  5
C45
330
69A
100
AcDbEntity
  8
SUNPOU
100
AcDbMText
 10
251.0918630539677
 20
199.8959881070545
 30
0.0
 40
3.0
 41
0.0
 71
     5
 72
     5
  1
\A1;49
 11
0.0000000000000001
 21
1.0
 31
0.0
 73
     1
 44
1.0
1001
ACAD
1000
MTEXTBEGIN
1070
    73
1070
     1
1070
    44
1040
1.0
1070
    74
1070
     0
1000
MTEXTEND
  0
POINT
  5
C46
330
69A
100
AcDbEntity
  8
DEFPOINTS
 62
     0
380
     1
100
AcDbPoint
 10
235.5648453795901
 20
224.3959881070544
 30
0.0
  0
POINT
  5
C47
330
69A
100
AcDbEntity
  8
DEFPOINTS
 62
     0
380
     1
100
AcDbPoint
 10
235.5648453795901
 20
175.3959881070545
 30
0.0
  0
POINT
  5
C48
330
69A
100
AcDbEntity
  8
DEFPOINTS
 62
     0
380
     1
100
AcDbPoint
 10
253.5918630539677
 20
175.3959881070545
 30
0.0
  0
ENDBLK
  5
6FD
330
69A
100
AcDbEntity
  8
0
100
AcDbBlockEnd
  0
BLOCK
  5
E2A
330
C96
100
AcDbEntity
  8
0
100
AcDbBlockBegin
  2
*X9
 70
     1
 10
0.0
 20
0.0
 30
0.0
  3
*X9
  1

  0
LINE
  5
C97
330
C96
100
AcDbEntity
  8
0
 62
     0
380
     1
100
AcDbLine
 10
34.52110557948066
 20
11.30208421465548
 30
0.0
 11
34.1981901146232
 21
11.62499967951297
 31
0.0
  0
LINE
  5
C98
330
C96
100
AcDbEntity
  8
0
 62
     0
380
     1
100
AcDbLine
 10
34.52110557948066
 20
10.85307140860203
 30
0.0
 11
33.74917730856973
 21
11.62499967951297
 31
0.0
  0
LINE
  5
C99
330
C96
100
AcDbEntity
  8
0
 62
     0
380
     1
100
AcDbLine
 10
34.52110557948063
 20
10.40405860254856
 30
0.0
 11
33.31053860647316
 21
11.61462557555603
 31
0.0
  0
LINE
  5
C9A
330
C96
100
AcDbEntity
  8
0
 62
     0
380
     1
100
AcDbLine
 10
34.52110557948066
 20
9.955045796495141
 30
0.0
 11
33.12110557948063
 21
11.35504579649515
 31
0.0
  0
LINE
  5
C9B
330
C96
100
AcDbEntity
  8
0
 62
     0
380
     1
100
AcDbLine
 10
34.52110557948066
 20
9.506032990441667
 30
0.0
 11
33.12110557948063
 21
10.9060329904417
 31
0.0
  0
LINE
  5
C9C
330
C96
100
AcDbEntity
  8
0
 62
     0
380
     1
100
AcDbLine
 10
34.52110557948063
 20
9.057020184388193
 30
0.0
 11
33.1211055794806
 21
10.45702018438823
 31
0.0
  0
LINE
  5
C9D
330
C96
100
AcDbEntity
  8
0
 62
     0
380
     1
100
AcDbLine
 10
32.07110557948062
 20
11.05800737833479
 30
0.0
 11
31.50411327830247
 21
11.62499967951297
 31
0.0
  0
LINE
  5
C9E
330
C96
100
AcDbEntity
  8
0
 62
     0
380
     1
100
AcDbLine
 10
34.52110557948066
 20
8.608007378334775
 30
0.0
 11
33.12110557948063
 21
10.00800737833481
 31
0.0
  0
LINE
  5
C9F
330
C96
100
AcDbEntity
  8
0
 62
     0
380
     1
100
AcDbLine
 10
32.07110557948062
 20
10.60899457228134
 30
0.0
 11
31.055100472249
 21
11.62499967951294
 31
0.0
  0
LINE
  5
CA0
330
C96
100
AcDbEntity
  8
0
 62
     0
380
     1
100
AcDbLine
 10
34.52110557948063
 20
8.158994572281301
 30
0.0
 11
33.12110557948063
 21
9.558994572281335
 31
0.0
  0
LINE
  5
CA1
330
C96
100
AcDbEntity
  8
0
 62
     0
380
     1
100
AcDbLine
 10
32.07110557948062
 20
10.15998176622787
 30
0.0
 11
30.71835009691208
 21
11.51273724879641
 31
0.0
  0
LINE
  5
CA2
330
C96
100
AcDbEntity
  8
0
 62
     0
380
     1
100
AcDbLine
 10
34.52110557948063
 20
7.709981766227855
 30
0.0
 11
33.1211055794806
 21
9.109981766227861
 31
0.0
  0
LINE
  5
CA3
330
C96
100
AcDbEntity
  8
0
 62
     0
380
     1
100
AcDbLine
 10
32.07110557948067
 20
9.710968960174369
 30
0.0
 11
30.67110557948058
 21
11.11096896017443
 31
0.0
  0
LINE
  5
CA4
330
C96
100
AcDbEntity
  8
0
 62
     0
380
     1
100
AcDbLine
 10
34.52110557948066
 20
7.26096896017438
 30
0.0
 11
33.12110557948063
 21
8.660968960174415
 31
0.0
  0
LINE
  5
CA5
330
C96
100
AcDbEntity
  8
0
 62
     0
380
     1
100
AcDbLine
 10
32.07110557948065
 20
9.261956154120923
 30
0.0
 11
30.67110557948058
 21
10.66195615412101
 31
0.0
  0
LINE
  5
CA6
330
C96
100
AcDbEntity
  8
0
 62
     0
380
     1
100
AcDbLine
 10
34.52110557948063
 20
6.811956154120935
 30
0.0
 11
33.1211055794806
 21
8.211956154120969
 31
0.0
  0
LINE
  5
CA7
330
C96
100
AcDbEntity
  8
0
 62
     0
380
     1
100
AcDbLine
 10
32.07110557948065
 20
8.812943348067477
 30
0.0
 11
30.67110557948058
 21
10.21294334806754
 31
0.0
  0
LINE
  5
CA8
330
C96
100
AcDbEntity
  8
0
 62
     0
380
     1
100
AcDbLine
 10
34.52110557948063
 20
6.362943348067489
 30
0.0
 11
33.1211055794806
 21
7.762943348067523
 31
0.0
  0
LINE
  5
CA9
330
C96
100
AcDbEntity
  8
0
 62
     0
380
     1
100
AcDbLine
 10
32.07110557948062
 20
8.363930542014003
 30
0.0
 11
30.67110557948055
 21
9.763930542014065
 31
0.0
  0
LINE
  5
CAA
330
C96
100
AcDbEntity
  8
0
 62
     0
380
     1
100
AcDbLine
 10
34.5211055794806
 20
5.913930542014014
 30
0.0
 11
33.1211055794806
 21
7.313930542014048
 31
0.0
  0
LINE
  5
CAB
330
C96
100
AcDbEntity
  8
0
 62
     0
380
     1
100
AcDbLine
 10
32.07110557948065
 20
7.914917735960585
 30
0.0
 11
30.67110557948058
 21
9.314917735960648
 31
0.0
  0
LINE
  5
CAC
330
C96
100
AcDbEntity
  8
0
 62
     0
380
     1
100
AcDbLine
 10
28.92110557948061
 20
11.06491773596062
 30
0.0
 11
28.36102363592829
 21
11.62499967951294
 31
0.0
  0
LINE
  5
CAD
330
C96
100
AcDbEntity
  8
0
 62
     0
380
     1
100
AcDbLine
 10
34.52110557948063
 20
5.464917735960597
 30
0.0
 11
33.1211055794806
 21
6.864917735960602
 31
0.0
  0
LINE
  5
CAE
330
C96
100
AcDbEntity
  8
0
 62
     0
380
     1
100
AcDbLine
 10
32.07110557948065
 20
7.465904929907111
 30
0.0
 11
30.67110557948055
 21
8.865904929907173
 31
0.0
  0
LINE
  5
CAF
330
C96
100
AcDbEntity
  8
0
 62
     0
380
     1
100
AcDbLine
 10
28.92110557948058
 20
10.61590492990714
 30
0.0
 11
27.91201082987482
 21
11.62499967951294
 31
0.0
  0
LINE
  5
CB0
330
C96
100
AcDbEntity
  8
0
 62
     0
380
     1
100
AcDbLine
 10
34.52110557948063
 20
5.015904929907122
 30
0.0
 11
33.1211055794806
 21
6.415904929907156
 31
0.0
  0
LINE
  5
CB1
330
C96
100
AcDbEntity
  8
0
 62
     0
380
     1
100
AcDbLine
 10
32.07110557948062
 20
7.016892123853665
 30
0.0
 11
30.67110557948058
 21
8.416892123853671
 31
0.0
  0
LINE
  5
CB2
330
C96
100
AcDbEntity
  8
0
 62
     0
380
     1
100
AcDbLine
 10
28.92110557948058
 20
10.1668921238537
 30
0.0
 11
27.57122421781858
 21
11.5167734855157
 31
0.0
  0
LINE
  5
CB3
330
C96
100
AcDbEntity
  8
0
 62
     0
380
     1
100
AcDbLine
 10
34.5211055794806
 20
4.566892123853676
 30
0.0
 11
33.12110557948057
 21
5.966892123853682
 31
0.0
  0
LINE
  5
CB4
330
C96
100
AcDbEntity
  8
0
 62
     0
380
     1
100
AcDbLine
 10
32.07110557948065
 20
6.567879317800191
 30
0.0
 11
30.67110557948061
 21
7.967879317800225
 31
0.0
  0
LINE
  5
CB5
330
C96
100
AcDbEntity
  8
0
 62
     0
380
     1
100
AcDbLine
 10
28.92110557948061
 20
9.717879317800225
 30
0.0
 11
27.52110557948061
 21
11.11787931780023
 31
0.0
  0
LINE
  5
CB6
330
C96
100
AcDbEntity
  8
0
 62
     0
380
     1
100
AcDbLine
 10
34.52110557948063
 20
4.117879317800202
 30
0.0
 11
33.1211055794806
 21
5.517879317800236
 31
0.0
  0
LINE
  5
CB7
330
C96
100
AcDbEntity
  8
0
 62
     0
380
     1
100
AcDbLine
 10
32.07110557948062
 20
6.118866511746745
 30
0.0
 11
30.67110557948061
 21
7.518866511746779
 31
0.0
  0
LINE
  5
CB8
330
C96
100
AcDbEntity
  8
0
 62
     0
380
     1
100
AcDbLine
 10
28.92110557948064
 20
9.26886651174675
 30
0.0
 11
27.52110557948063
 21
10.66886651174675
 31
0.0
  0
LINE
  5
CB9
330
C96
100
AcDbEntity
  8
0
 62
     0
380
     1
100
AcDbLine
 10
34.48512290203573
 20
3.704849189191662
 30
0.0
 11
33.1211055794806
 21
5.06886651174679
 31
0.0
  0
LINE
  5
CBA
330
C96
100
AcDbEntity
  8
0
 62
     0
380
     1
100
AcDbLine
 10
32.07110557948065
 20
5.669853705693242
 30
0.0
 11
30.67110557948058
 21
7.069853705693304
 31
0.0
  0
LINE
  5
CBB
330
C96
100
AcDbEntity
  8
0
 62
     0
380
     1
100
AcDbLine
 10
28.92110557948061
 20
8.819853705693304
 30
0.0
 11
27.52110557948063
 21
10.21985370569328
 31
0.0
  0
LINE
  5
CBC
330
C96
100
AcDbEntity
  8
0
 62
     0
380
     1
100
AcDbLine
 10
34.16595960566099
 20
3.574999679512927
 30
0.0
 11
33.12110557948057
 21
4.619853705693344
 31
0.0
  0
LINE
  5
CBD
330
C96
100
AcDbEntity
  8
0
 62
     0
380
     1
100
AcDbLine
 10
28.92110557948061
 20
8.37084089963983
 30
0.0
 11
27.52110557948061
 21
9.770840899639807
 31
0.0
  0
LINE
  5
CBE
330
C96
100
AcDbEntity
  8
0
 62
     0
380
     1
100
AcDbLine
 10
32.07110557948065
 20
5.220840899639796
 30
0.0
 11
30.67110557948058
 21
6.620840899639858
 31
0.0
  0
LINE
  5
CBF
330
C96
100
AcDbEntity
  8
0
 62
     0
380
     1
100
AcDbLine
 10
26.20860557948061
 20
11.08334089963983
 30
0.0
 11
25.66694679960745
 21
11.62499967951297
 31
0.0
  0
LINE
  5
CC0
330
C96
100
AcDbEntity
  8
0
 62
     0
380
     1
100
AcDbLine
 10
33.71694679960754
 20
3.57499967951287
 30
0.0
 11
33.12110557948057
 21
4.17084089963987
 31
0.0
  0
LINE
  5
CC1
330
C96
100
AcDbEntity
  8
0
 62
     0
380
     1
100
AcDbLine
 10
28.92110557948061
 20
7.921828093586384
 30
0.0
 11
27.52110557948063
 21
9.32182809358639
 31
0.0
  0
LINE
  5
CC2
330
C96
100
AcDbEntity
  8
0
 62
     0
380
     1
100
AcDbLine
 10
26.20860557948061
 20
10.63432809358639
 30
0.0
 11
25.21793399355403
 21
11.62499967951299
 31
0.0
  0
LINE
  5
CC3
330
C96
100
AcDbEntity
  8
0
 62
     0
380
     1
100
AcDbLine
 10
32.05812642915785
 20
4.78480724390917
 30
0.0
 11
30.67110557948058
 21
6.171828093586412
 31
0.0
  0
LINE
  5
CC4
330
C96
100
AcDbEntity
  8
0
 62
     0
380
     1
100
AcDbLine
 10
28.92110557948061
 20
7.472815287532938
 30
0.0
 11
27.52110557948063
 21
8.872815287532915
 31
0.0
  0
LINE
  5
CC5
330
C96
100
AcDbEntity
  8
0
 62
     0
380
     1
100
AcDbLine
 10
26.11081530642369
 20
10.28310556058986
 30
0.0
 11
24.76892118750061
 21
11.62499967951294
 31
0.0
  0
LINE
  5
CC6
330
C96
100
AcDbEntity
  8
0
 62
     0
380
     1
100
AcDbLine
 10
31.96163378152923
 20
4.43228708548429
 30
0.0
 11
30.67110557948058
 21
5.722815287532966
 31
0.0
  0
LINE
  5
CC7
330
C96
100
AcDbEntity
  8
0
 62
     0
380
     1
100
AcDbLine
 10
28.92110557948061
 20
7.023802481479464
 30
0.0
 11
27.52110557948061
 21
8.423802481479469
 31
0.0
  0
LINE
  5
CC8
330
C96
100
AcDbEntity
  8
0
 62
     0
380
     1
100
AcDbLine
 10
25.71990838144711
 20
10.22499967951293
 30
0.0
 11
24.31990838144711
 21
11.62499967951297
 31
0.0
  0
LINE
  5
CC9
330
C96
100
AcDbEntity
  8
0
 62
     0
380
     1
100
AcDbLine
 10
31.79911784356745
 20
4.145790217392601
 30
0.0
 11
30.63534770990083
 21
5.309560351059246
 31
0.0
  0
LINE
  5
CCA
330
C96
100
AcDbEntity
  8
0
 62
     0
380
     1
100
AcDbLine
 10
28.92110557948061
 20
6.574789675426046
 30
0.0
 11
27.52110557948063
 21
7.974789675426023
 31
0.0
  0
LINE
  5
CCB
330
C96
100
AcDbEntity
  8
0
 62
     0
380
     1
100
AcDbLine
 10
25.27089557539369
 20
10.22499967951296
 30
0.0
 11
23.902112210805
 21
11.59378304410165
 31
0.0
  0
LINE
  5
CCC
330
C96
100
AcDbEntity
  8
0
 62
     0
380
     1
100
AcDbLine
 10
31.58309694490493
 20
3.912798310001704
 30
0.0
 11
30.43455489066707
 21
5.061340364239555
 31
0.0
  0
LINE
  5
CCD
330
C96
100
AcDbEntity
  8
0
 62
     0
380
     1
100
AcDbLine
 10
28.92110557948061
 20
6.125776869372572
 30
0.0
 11
27.52110557948061
 21
7.525776869372549
 31
0.0
  0
LINE
  5
CCE
330
C96
100
AcDbEntity
  8
0
 62
     0
380
     1
100
AcDbLine
 10
24.82188276934022
 20
10.22499967951296
 30
0.0
 11
23.56979199853831
 21
11.47709045031485
 31
0.0
  0
LINE
  5
CCF
330
C96
100
AcDbEntity
  8
0
 62
     0
380
     1
100
AcDbLine
 10
31.31501577244191
 20
3.731866676411272
 30
0.0
 11
30.07188276934022
 21
4.974999679512933
 31
0.0
  0
LINE
  5
CD0
330
C96
100
AcDbEntity
  8
0
 62
     0
380
     1
100
AcDbLine
 10
28.92110557948058
 20
5.676764063319097
 30
0.0
 11
27.52110557948063
 21
7.076764063319046
 31
0.0
  0
LINE
  5
CD1
330
C96
100
AcDbEntity
  8
0
 62
     0
380
     1
100
AcDbLine
 10
24.38376487729582
 20
10.21410476550386
 30
0.0
 11
23.29849152993322
 21
11.29937811286646
 31
0.0
  0
LINE
  5
CD2
330
C96
100
AcDbEntity
  8
0
 62
     0
380
     1
100
AcDbLine
 10
30.98680949248626
 20
3.611060150313448
 30
0.0
 11
29.62286996328677
 21
4.974999679512933
 31
0.0
  0
LINE
  5
CD3
330
C96
100
AcDbEntity
  8
0
 62
     0
380
     1
100
AcDbLine
 10
24.19610557948065
 20
9.95275125726556
 30
0.0
 11
23.07943550041094
 21
11.06942133633527
 31
0.0
  0
LINE
  5
CD4
330
C96
100
AcDbEntity
  8
0
 62
     0
380
     1
100
AcDbLine
 10
30.57385715723333
 20
3.574999679512899
 30
0.0
 11
27.52110557948063
 21
6.6277512572656
 31
0.0
  0
LINE
  5
CD5
330
C96
100
AcDbEntity
  8
0
 62
     0
380
     1
100
AcDbLine
 10
24.19610557948067
 20
9.503738451212143
 30
0.0
 11
22.91355004423443
 21
10.78629398645839
 31
0.0
  0
LINE
  5
CD6
330
C96
100
AcDbEntity
  8
0
 62
     0
380
     1
100
AcDbLine
 10
30.12484435117989
 20
3.574999679512899
 30
0.0
 11
27.52110557948066
 21
6.178738451212154
 31
0.0
  0
LINE
  5
CD7
330
C96
100
AcDbEntity
  8
0
 62
     0
380
     1
100
AcDbLine
 10
24.29937772003254
 20
8.951453504606803
 30
0.0
 11
22.81246078455237
 21
10.43837044008694
 31
0.0
  0
LINE
  5
CD8
330
C96
100
AcDbEntity
  8
0
 62
     0
380
     1
100
AcDbLine
 10
29.67583154512644
 20
3.574999679512899
 30
0.0
 11
27.52110557948063
 21
5.729725645158708
 31
0.0
  0
LINE
  5
CD9
330
C96
100
AcDbEntity
  8
0
 62
     0
380
     1
100
AcDbLine
 10
26.4079074308263
 20
6.393910987759568
 30
0.0
 11
22.79610557948061
 21
10.00571283910523
 31
0.0
  0
LINE
  5
CDA
330
C96
100
AcDbEntity
  8
0
 62
     0
380
     1
100
AcDbLine
 10
21.74610557948057
 20
11.05571283910527
 30
0.0
 11
21.17681873907293
 21
11.62499967951294
 31
0.0
  0
LINE
  5
CDB
330
C96
100
AcDbEntity
  8
0
 62
     0
380
     1
100
AcDbLine
 10
29.22681873907297
 20
3.574999679512899
 30
0.0
 11
27.52110557948063
 21
5.280712839105234
 31
0.0
  0
LINE
  5
CDC
330
C96
100
AcDbEntity
  8
0
 62
     0
380
     1
100
AcDbLine
 10
26.47110557948065
 20
5.881700033051799
 30
0.0
 11
22.79610557948064
 21
9.556700033051811
 31
0.0
  0
LINE
  5
CDD
330
C96
100
AcDbEntity
  8
0
 62
     0
380
     1
100
AcDbLine
 10
21.74610557948063
 20
10.60670003305179
 30
0.0
 11
20.72780593301946
 21
11.62499967951299
 31
0.0
  0
LINE
  5
CDE
330
C96
100
AcDbEntity
  8
0
 62
     0
380
     1
100
AcDbLine
 10
28.76958199364708
 20
3.583223618885369
 30
0.0
 11
27.52932951885308
 21
4.823476093679374
 31
0.0
  0
LINE
  5
CDF
330
C96
100
AcDbEntity
  8
0
 62
     0
380
     1
100
AcDbLine
 10
21.74610557948063
 20
10.15768722699835
 30
0.0
 11
20.39241063559297
 21
11.51138217088598
 31
0.0
  0
LINE
  5
CE0
330
C96
100
AcDbEntity
  8
0
 62
     0
380
     1
100
AcDbLine
 10
26.47110557948062
 20
5.432687226998325
 30
0.0
 11
22.80781091342181
 21
9.095981893057171
 31
0.0
  0
LINE
  5
CE1
330
C96
100
AcDbEntity
  8
0
 62
     0
380
     1
100
AcDbLine
 10
21.74610557948063
 20
9.708674420944873
 30
0.0
 11
20.34610557948062
 21
11.10867442094485
 31
0.0
  0
LINE
  5
CE2
330
C96
100
AcDbEntity
  8
0
 62
     0
380
     1
100
AcDbLine
 10
26.47110557948057
 20
4.983674420944907
 30
0.0
 11
22.96687062234182
 21
8.487909378083685
 31
0.0
  0
LINE
  5
CE3
330
C96
100
AcDbEntity
  8
0
 62
     0
380
     1
100
AcDbLine
 10
21.74610557948063
 20
9.259661614891427
 30
0.0
 11
20.34610557948065
 21
10.6596616148914
 31
0.0
  0
LINE
  5
CE4
330
C96
100
AcDbEntity
  8
0
 62
     0
380
     1
100
AcDbLine
 10
26.41682467068608
 20
4.588942523685972
 30
0.0
 11
25.06900727616693
 21
5.936759918205126
 31
0.0
  0
LINE
  5
CE5
330
C96
100
AcDbEntity
  8
0
 62
     0
380
     1
100
AcDbLine
 10
21.74610557948063
 20
8.810648808837981
 30
0.0
 11
20.34610557948062
 21
10.21064880883796
 31
0.0
  0
LINE
  5
CE6
330
C96
100
AcDbEntity
  8
0
 62
     0
380
     1
100
AcDbLine
 10
19.20036212919211
 20
11.35639225912646
 30
0.0
 11
18.93175470880561
 21
11.62499967951299
 31
0.0
  0
LINE
  5
CE7
330
C96
100
AcDbEntity
  8
0
 62
     0
380
     1
100
AcDbLine
 10
26.2828868168053
 20
4.273867571513306
 30
0.0
 11
25.07110557948065
 21
5.485648808837964
 31
0.0
  0
LINE
  5
CE8
330
C96
100
AcDbEntity
  8
0
 62
     0
380
     1
100
AcDbLine
 10
21.7461055794806
 20
8.361636002784507
 30
0.0
 11
20.34610557948062
 21
9.761636002784513
 31
0.0
  0
LINE
  5
CE9
330
C96
100
AcDbEntity
  8
0
 62
     0
380
     1
100
AcDbLine
 10
19.10089829706581
 20
11.00684328519929
 30
0.0
 11
18.48274190275217
 21
11.62499967951297
 31
0.0
  0
LINE
  5
CEA
330
C96
100
AcDbEntity
  8
0
 62
     0
380
     1
100
AcDbLine
 10
26.09139341771765
 20
4.01634816454748
 30
0.0
 11
25.0224629880374
 21
5.08527859422773
 31
0.0
  0
LINE
  5
CEB
330
C96
100
AcDbEntity
  8
0
 62
     0
380
     1
100
AcDbLine
 10
21.7461055794806
 20
7.912623196731061
 30
0.0
 11
20.34610557948062
 21
9.312623196731038
 31
0.0
  0
LINE
  5
CEC
330
C96
100
AcDbEntity
  8
0
 62
     0
380
     1
100
AcDbLine
 10
18.99313522361296
 20
10.66559355259866
 30
0.0
 11
18.03852744187767
 21
11.62020133433398
 31
0.0
  0
LINE
  5
CED
330
C96
100
AcDbEntity
  8
0
 62
     0
380
     1
100
AcDbLine
 10
25.84823393515984
 20
3.810494841051792
 30
0.0
 11
24.68372909669873
 21
4.974999679512933
 31
0.0
  0
LINE
  5
CEE
330
C96
100
AcDbEntity
  8
0
 62
     0
380
     1
100
AcDbLine
 10
21.74610557948063
 20
7.463610390677615
 30
0.0
 11
20.34610557948062
 21
8.863610390677592
 31
0.0
  0
LINE
  5
CEF
330
C96
100
AcDbEntity
  8
0
 62
     0
380
     1
100
AcDbLine
 10
18.88537215016021
 20
10.32434381999803
 30
0.0
 11
17.82137215016019
 21
11.38834381999805
 31
0.0
  0
LINE
  5
CF0
330
C96
100
AcDbEntity
  8
0
 62
     0
380
     1
100
AcDbLine
 10
25.55019196092966
 20
3.659524009228562
 30
0.0
 11
24.23471629064528
 21
4.974999679512961
 31
0.0
  0
LINE
  5
CF1
330
C96
100
AcDbEntity
  8
0
 62
     0
380
     1
100
AcDbLine
 10
21.7461055794806
 20
7.014597584624169
 30
0.0
 11
20.34610557948062
 21
8.414597584624146
 31
0.0
  0
LINE
  5
CF2
330
C96
100
AcDbEntity
  8
0
 62
     0
380
     1
100
AcDbLine
 10
18.77760907670728
 20
9.983094087397489
 30
0.0
 11
17.71360907670728
 21
11.04709408739748
 31
0.0
  0
LINE
  5
CF3
330
C96
100
AcDbEntity
  8
0
 62
     0
380
     1
100
AcDbLine
 10
25.18135563510592
 20
3.579347528998852
 30
0.0
 11
23.78570348459184
 21
4.974999679512933
 31
0.0
  0
LINE
  5
CF4
330
C96
100
AcDbEntity
  8
0
 62
     0
380
     1
100
AcDbLine
 10
21.7461055794806
 20
6.565584778570695
 30
0.0
 11
20.3461055794806
 21
7.965584778570672
 31
0.0
  0
LINE
  5
CF5
330
C96
100
AcDbEntity
  8
0
 62
     0
380
     1
100
AcDbLine
 10
18.66984600325449
 20
9.641844354796802
 30
0.0
 11
17.60584600325444
 21
10.70584435479682
 31
0.0
  0
LINE
  5
CF6
330
C96
100
AcDbEntity
  8
0
 62
     0
380
     1
100
AcDbLine
 10
24.73669067853839
 20
3.574999679512899
 30
0.0
 11
23.33669067853836
 21
4.974999679512933
 31
0.0
  0
LINE
  5
CF7
330
C96
100
AcDbEntity
  8
0
 62
     0
380
     1
100
AcDbLine
 10
21.7461055794806
 20
6.116571972517249
 30
0.0
 11
20.34610557948062
 21
7.516571972517255
 31
0.0
  0
LINE
  5
CF8
330
C96
100
AcDbEntity
  8
0
 62
     0
380
     1
100
AcDbLine
 10
18.5620829298017
 20
9.300594622196172
 30
0.0
 11
17.49808292980162
 21
10.36459462219622
 31
0.0
  0
LINE
  5
CF9
330
C96
100
AcDbEntity
  8
0
 62
     0
380
     1
100
AcDbLine
 10
24.28767787248495
 20
3.574999679512927
 30
0.0
 11
23.07087202383676
 21
4.79180552816112
 31
0.0
  0
LINE
  5
CFA
330
C96
100
AcDbEntity
  8
0
 62
     0
380
     1
100
AcDbLine
 10
18.45431985634883
 20
8.95934488959557
 30
0.0
 11
17.39031985634881
 21
10.02334488959559
 31
0.0
  0
LINE
  5
CFB
330
C96
100
AcDbEntity
  8
0
 62
     0
380
     1
100
AcDbLine
 10
21.7461055794806
 20
5.667559166463803
 30
0.0
 11
20.34610557948062
 21
7.06755916646378
 31
0.0
  0
LINE
  5
CFC
330
C96
100
AcDbEntity
  8
0
 62
     0
380
     1
100
AcDbLine
 10
16.32110557948061
 20
11.09255916646378
 30
0.0
 11
15.78866506643146
 21
11.62499967951291
 31
0.0
  0
LINE
  5
CFD
330
C96
100
AcDbEntity
  8
0
 62
     0
380
     1
100
AcDbLine
 10
23.8386650664315
 20
3.574999679512899
 30
0.0
 11
23.05860557948063
 21
4.355059166463775
 31
0.0
  0
LINE
  5
CFE
330
C96
100
AcDbEntity
  8
0
 62
     0
380
     1
100
AcDbLine
 10
18.34655678289599
 20
8.618095156994939
 30
0.0
 11
17.28255678289599
 21
9.682095156994932
 31
0.0
  0
LINE
  5
CFF
330
C96
100
AcDbEntity
  8
0
 62
     0
380
     1
100
AcDbLine
 10
21.7461055794806
 20
5.218546360410329
 30
0.0
 11
20.3461055794806
 21
6.618546360410334
 31
0.0
  0
LINE
  5
D00
330
C96
100
AcDbEntity
  8
0
 62
     0
380
     1
100
AcDbLine
 10
16.32110557948061
 20
10.64354636041031
 30
0.0
 11
15.33965226037802
 21
11.62499967951291
 31
0.0
  0
LINE
  5
D01
330
C96
100
AcDbEntity
  8
0
 62
     0
380
     1
100
AcDbLine
 10
23.389652260378
 20
3.574999679512927
 30
0.0
 11
23.0586055794806
 21
3.9060463604103
 31
0.0
  0
LINE
  5
D02
330
C96
100
AcDbEntity
  8
0
 62
     0
380
     1
100
AcDbLine
 10
18.23879370944314
 20
8.276845424394309
 30
0.0
 11
17.17479370944312
 21
9.340845424394331
 31
0.0
  0
LINE
  5
D03
330
C96
100
AcDbEntity
  8
0
 62
     0
380
     1
100
AcDbLine
 10
16.32110557948059
 20
10.19453355435683
 30
0.0
 11
14.98338311503178
 21
11.53225601880567
 31
0.0
  0
LINE
  5
D04
330
C96
100
AcDbEntity
  8
0
 62
     0
380
     1
100
AcDbLine
 10
21.74610557948057
 20
4.769533554356883
 30
0.0
 11
20.3461055794806
 21
6.16953355435686
 31
0.0
  0
LINE
  5
D05
330
C96
100
AcDbEntity
  8
0
 62
     0
380
     1
100
AcDbLine
 10
18.13103063599033
 20
7.935595691793707
 30
0.0
 11
17.06703063599033
 21
8.9995956917937
 31
0.0
  0
LINE
  5
D06
330
C96
100
AcDbEntity
  8
0
 62
     0
380
     1
100
AcDbLine
 10
16.32110557948061
 20
9.74552074830342
 30
0.0
 11
14.92110557948058
 21
11.14552074830342
 31
0.0
  0
LINE
  5
D07
330
C96
100
AcDbEntity
  8
0
 62
     0
380
     1
100
AcDbLine
 10
21.7461055794806
 20
4.320520748303437
 30
0.0
 11
20.3461055794806
 21
5.720520748303414
 31
0.0
  0
LINE
  5
D08
330
C96
100
AcDbEntity
  8
0
 62
     0
380
     1
100
AcDbLine
 10
18.02848638129438
 20
7.589127140436175
 30
0.0
 11
16.95926756253746
 21
8.658345959193098
 31
0.0
  0
LINE
  5
D09
330
C96
100
AcDbEntity
  8
0
 62
     0
380
     1
100
AcDbLine
 10
16.32110557948061
 20
9.296507942249945
 30
0.0
 11
14.92110557948058
 21
10.69650794224998
 31
0.0
  0
LINE
  5
D0A
330
C96
100
AcDbEntity
  8
0
 62
     0
380
     1
100
AcDbLine
 10
21.74610557948057
 20
3.871507942249962
 30
0.0
 11
20.3461055794806
 21
5.271507942249968
 31
0.0
  0
LINE
  5
D0B
330
C96
100
AcDbEntity
  8
0
 62
     0
380
     1
100
AcDbLine
 10
18.23572306101138
 20
6.932877654665702
 30
0.0
 11
16.81399381469515
 21
8.354606900981934
 31
0.0
  0
LINE
  5
D0C
330
C96
100
AcDbEntity
  8
0
 62
     0
380
     1
100
AcDbLine
 10
16.32110557948064
 20
8.847495136196442
 30
0.0
 11
14.92110557948055
 21
10.2474951361965
 31
0.0
  0
LINE
  5
D0D
330
C96
100
AcDbEntity
  8
0
 62
     0
380
     1
100
AcDbLine
 10
21.5765830808144
 20
3.592017634862656
 30
0.0
 11
20.34610557948062
 21
4.822495136196465
 31
0.0
  0
LINE
  5
D0E
330
C96
100
AcDbEntity
  8
0
 62
     0
380
     1
100
AcDbLine
 10
18.44295974072841
 20
6.276628168895257
 30
0.0
 11
14.92110557948058
 21
9.798482330143087
 31
0.0
  0
LINE
  5
D0F
330
C96
100
AcDbEntity
  8
0
 62
     0
380
     1
100
AcDbLine
 10
13.69610557948064
 20
11.02348233014302
 30
0.0
 11
13.09458823011076
 21
11.62499967951291
 31
0.0
  0
LINE
  5
D10
330
C96
100
AcDbEntity
  8
0
 62
     0
380
     1
100
AcDbLine
 10
21.14458823011074
 20
3.574999679512927
 30
0.0
 11
20.34610557948065
 21
4.373482330143019
 31
0.0
  0
LINE
  5
D11
330
C96
100
AcDbEntity
  8
0
 62
     0
380
     1
100
AcDbLine
 10
18.65019642044535
 20
5.620378683124812
 30
0.0
 11
14.92110557948058
 21
9.349469524089613
 31
0.0
  0
LINE
  5
D12
330
C96
100
AcDbEntity
  8
0
 62
     0
380
     1
100
AcDbLine
 10
13.69610557948064
 20
10.57446952408955
 30
0.0
 11
12.64557542405725
 21
11.62499967951294
 31
0.0
  0
LINE
  5
D13
330
C96
100
AcDbEntity
  8
0
 62
     0
380
     1
100
AcDbLine
 10
20.69557542405724
 20
3.574999679512956
 30
0.0
 11
20.34610557948062
 21
3.924469524089573
 31
0.0
  0
LINE
  5
D14
330
C96
100
AcDbEntity
  8
0
 62
     0
380
     1
100
AcDbLine
 10
13.56265223178559
 20
10.25891006573113
 30
0.0
 11
12.21254137267988
 21
11.60902092483681
 31
0.0
  0
LINE
  5
D15
330
C96
100
AcDbEntity
  8
0
 62
     0
380
     1
100
AcDbLine
 10
18.85743310016232
 20
4.964129197354395
 30
0.0
 11
14.92110557948061
 21
8.90045671803611
 31
0.0
  0
LINE
  5
D16
330
C96
100
AcDbEntity
  8
0
 62
     0
380
     1
100
AcDbLine
 10
16.48986004065142
 20
6.882689450811852
 30
0.0
 11
14.92110557948061
 21
8.451443911982664
 31
0.0
  0
LINE
  5
D17
330
C96
100
AcDbEntity
  8
0
 62
     0
380
     1
100
AcDbLine
 10
13.14754981195037
 20
10.22499967951287
 30
0.0
 11
11.84351983788625
 21
11.52902965357702
 31
0.0
  0
LINE
  5
D18
330
C96
100
AcDbEntity
  8
0
 62
     0
380
     1
100
AcDbLine
 10
19.06466977987932
 20
4.30787971158395
 30
0.0
 11
17.01851593372538
 21
6.354033557737864
 31
0.0
  0
LINE
  5
D19
330
C96
100
AcDbEntity
  8
0
 62
     0
380
     1
100
AcDbLine
 10
16.32110557948064
 20
6.602431105929184
 30
0.0
 11
14.92110557948061
 21
8.002431105929218
 31
0.0
  0
LINE
  5
D1A
330
C96
100
AcDbEntity
  8
0
 62
     0
380
     1
100
AcDbLine
 10
12.69853700589687
 20
10.22499967951293
 30
0.0
 11
11.52415912997088
 21
11.39937755543892
 31
0.0
  0
LINE
  5
D1B
330
C96
100
AcDbEntity
  8
0
 62
     0
380
     1
100
AcDbLine
 10
19.18218920873463
 20
3.741347476675173
 30
0.0
 11
17.22575261344235
 21
5.697784071967475
 31
0.0
  0
LINE
  5
D1C
330
C96
100
AcDbEntity
  8
0
 62
     0
380
     1
100
AcDbLine
 10
16.32110557948061
 20
6.153418299875738
 30
0.0
 11
14.92110557948058
 21
7.553418299875744
 31
0.0
  0
LINE
  5
D1D
330
C96
100
AcDbEntity
  8
0
 62
     0
380
     1
100
AcDbLine
 10
12.2769802546251
 20
10.19754362473125
 30
0.0
 11
11.24478464230361
 21
11.22973923705274
 31
0.0
  0
LINE
  5
D1E
330
C96
100
AcDbEntity
  8
0
 62
     0
380
     1
100
AcDbLine
 10
18.89952419984345
 20
3.574999679512899
 30
0.0
 11
17.43298929315932
 21
5.04153458619703
 31
0.0
  0
LINE
  5
D1F
330
C96
100
AcDbEntity
  8
0
 62
     0
380
     1
100
AcDbLine
 10
16.32110557948061
 20
5.704405493822264
 30
0.0
 11
14.92110557948058
 21
7.104405493822298
 31
0.0
  0
LINE
  5
D20
330
C96
100
AcDbEntity
  8
0
 62
     0
380
     1
100
AcDbLine
 10
11.9910521582056
 20
10.03445891509727
 30
0.0
 11
11.00095703799772
 21
11.02455403530516
 31
0.0
  0
LINE
  5
D21
330
C96
100
AcDbEntity
  8
0
 62
     0
380
     1
100
AcDbLine
 10
18.45051139378998
 20
3.574999679512899
 30
0.0
 11
17.64022597287635
 21
4.385285100426528
 31
0.0
  0
LINE
  5
D22
330
C96
100
AcDbEntity
  8
0
 62
     0
380
     1
100
AcDbLine
 10
13.86382014587949
 20
7.712678121369975
 30
0.0
 11
13.10878402133761
 21
8.467714245911849
 31
0.0
  0
LINE
  5
D23
330
C96
100
AcDbEntity
  8
0
 62
     0
380
     1
100
AcDbLine
 10
16.32110557948067
 20
5.255392687768789
 30
0.0
 11
14.92110557948061
 21
6.655392687768852
 31
0.0
  0
LINE
  5
D24
330
C96
100
AcDbEntity
  8
0
 62
     0
380
     1
100
AcDbLine
 10
11.81299137314113
 20
9.763506894108331
 30
0.0
 11
10.7912740249921
 21
10.78522424225735
 31
0.0
  0
LINE
  5
D25
330
C96
100
AcDbEntity
  8
0
 62
     0
380
     1
100
AcDbLine
 10
17.97633208563422
 20
3.600166181615236
 30
0.0
 11
17.85115499983857
 21
3.725343267410892
 31
0.0
  0
LINE
  5
D26
330
C96
100
AcDbEntity
  8
0
 62
     0
380
     1
100
AcDbLine
 10
13.82056331580853
 20
7.30692214538746
 30
0.0
 11
12.7030280453551
 21
8.42445741584089
 31
0.0
  0
LINE
  5
D27
330
C96
100
AcDbEntity
  8
0
 62
     0
380
     1
100
AcDbLine
 10
11.77110557948066
 20
9.356379881715326
 30
0.0
 11
10.61680451451127
 21
10.51068094668471
 31
0.0
  0
LINE
  5
D28
330
C96
100
AcDbEntity
  8
0
 62
     0
380
     1
100
AcDbLine
 10
16.32110557948064
 20
4.806379881715315
 30
0.0
 11
14.92110557948058
 21
6.206379881715406
 31
0.0
  0
LINE
  5
D29
330
C96
100
AcDbEntity
  8
0
 62
     0
380
     1
100
AcDbLine
 10
13.6546355361595
 20
7.023837118982982
 30
0.0
 11
12.41994301895062
 21
8.258529636191866
 31
0.0
  0
LINE
  5
D2A
330
C96
100
AcDbEntity
  8
0
 62
     0
380
     1
100
AcDbLine
 10
11.77110557948066
 20
8.907367075661852
 30
0.0
 11
10.48151466090618
 21
10.19695799423633
 31
0.0
  0
LINE
  5
D2B
330
C96
100
AcDbEntity
  8
0
 62
     0
380
     1
100
AcDbLine
 10
16.32110557948064
 20
4.357367075661869
 30
0.0
 11
14.92110557948061
 21
5.757367075661903
 31
0.0
  0
LINE
  5
D2C
330
C96
100
AcDbEntity
  8
0
 62
     0
380
     1
100
AcDbLine
 10
11.77110557948066
 20
8.458354269608406
 30
0.0
 11
10.39415772444326
 21
9.835302124645835
 31
0.0
  0
LINE
  5
D2D
330
C96
100
AcDbEntity
  8
0
 62
     0
380
     1
100
AcDbLine
 10
13.40371881509128
 20
6.825741033997815
 30
0.0
 11
12.22184693396545
 21
8.007612915123644
 31
0.0
  0
LINE
  5
D2E
330
C96
100
AcDbEntity
  8
0
 62
     0
380
     1
100
AcDbLine
 10
9.058605579480627
 20
11.17085426960847
 30
0.0
 11
8.604460169576128
 21
11.62499967951297
 31
0.0
  0
LINE
  5
D2F
330
C96
100
AcDbEntity
  8
0
 62
     0
380
     1
100
AcDbLine
 10
16.32110557948067
 20
3.908354269608423
 30
0.0
 11
14.92110557948064
 21
5.308354269608457
 31
0.0
  0
LINE
  5
D30
330
C96
100
AcDbEntity
  8
0
 62
     0
380
     1
100
AcDbLine
 10
11.77110557948066
 20
8.00934146355496
 30
0.0
 11
10.37110557948063
 21
9.409341463554994
 31
0.0
  0
LINE
  5
D31
330
C96
100
AcDbEntity
  8
0
 62
     0
380
     1
100
AcDbLine
 10
13.05355909387756
 20
6.726887949158054
 30
0.0
 11
12.12299384912569
 21
7.65745319390993
 31
0.0
  0
LINE
  5
D32
330
C96
100
AcDbEntity
  8
0
 62
     0
380
     1
100
AcDbLine
 10
9.058605579480598
 20
10.72184146355499
 30
0.0
 11
8.155447363522654
 21
11.62499967951294
 31
0.0
  0
LINE
  5
D33
330
C96
100
AcDbEntity
  8
0
 62
     0
380
     1
100
AcDbLine
 10
16.17715367884531
 20
3.603293364190307
 30
0.0
 11
14.92110557948061
 21
4.859341463554983
 31
0.0
  0
LINE
  5
D34
330
C96
100
AcDbEntity
  8
0
 62
     0
380
     1
100
AcDbLine
 10
11.77110557948066
 20
7.560328657501486
 30
0.0
 11
10.37110557948063
 21
8.96032865750152
 31
0.0
  0
LINE
  5
D35
330
C96
100
AcDbEntity
  8
0
 62
     0
380
     1
100
AcDbLine
 10
9.004088594345432
 20
10.32734564263671
 30
0.0
 11
7.706434557469151
 21
11.62499967951297
 31
0.0
  0
LINE
  5
D36
330
C96
100
AcDbEntity
  8
0
 62
     0
380
     1
100
AcDbLine
 10
15.75643455746922
 20
3.574999679512927
 30
0.0
 11
14.92110557948061
 21
4.410328657501537
 31
0.0
  0
LINE
  5
D37
330
C96
100
AcDbEntity
  8
0
 62
     0
380
     1
100
AcDbLine
 10
11.77110557948063
 20
7.11131585144804
 30
0.0
 11
10.3711055794806
 21
8.511315851448046
 31
0.0
  0
LINE
  5
D38
330
C96
100
AcDbEntity
  8
0
 62
     0
380
     1
100
AcDbLine
 10
8.657421751415739
 20
10.22499967951293
 30
0.0
 11
7.257421751415705
 21
11.62499967951297
 31
0.0
  0
LINE
  5
D39
330
C96
100
AcDbEntity
  8
0
 62
     0
380
     1
100
AcDbLine
 10
15.30742175141574
 20
3.574999679512899
 30
0.0
 11
14.92110557948061
 21
3.961315851448063
 31
0.0
  0
LINE
  5
D3A
330
C96
100
AcDbEntity
  8
0
 62
     0
380
     1
100
AcDbLine
 10
11.77110557948069
 20
6.662303045394565
 30
0.0
 11
10.37110557948063
 21
8.062303045394628
 31
0.0
  0
LINE
  5
D3B
330
C96
100
AcDbEntity
  8
0
 62
     0
380
     1
100
AcDbLine
 10
8.208408945362293
 20
10.22499967951296
 30
0.0
 11
6.825844309309871
 21
11.60756431556538
 31
0.0
  0
LINE
  5
D3C
330
C96
100
AcDbEntity
  8
0
 62
     0
380
     1
100
AcDbLine
 10
13.69480435506216
 20
4.738604269813066
 30
0.0
 11
13.4597101697808
 21
4.973698455094449
 31
0.0
  0
LINE
  5
D3D
330
C96
100
AcDbEntity
  8
0
 62
     0
380
     1
100
AcDbLine
 10
11.77110557948069
 20
6.213290239341091
 30
0.0
 11
10.37110557948063
 21
7.613290239341154
 31
0.0
  0
LINE
  5
D3E
330
C96
100
AcDbEntity
  8
0
 62
     0
380
     1
100
AcDbLine
 10
7.759396139308819
 20
10.22499967951293
 30
0.0
 11
6.479276905070634
 21
11.50511891375114
 31
0.0
  0
LINE
  5
D3F
330
C96
100
AcDbEntity
  8
0
 62
     0
380
     1
100
AcDbLine
 10
13.69610557948067
 20
4.288290239341108
 30
0.0
 11
13.00939613930885
 21
4.974999679512933
 31
0.0
  0
LINE
  5
D40
330
C96
100
AcDbEntity
  8
0
 62
     0
380
     1
100
AcDbLine
 10
11.77110557948066
 20
5.764277433287617
 30
0.0
 11
10.37110557948065
 21
7.164277433287651
 31
0.0
  0
LINE
  5
D41
330
C96
100
AcDbEntity
  8
0
 62
     0
380
     1
100
AcDbLine
 10
7.310383333255401
 20
10.22499967951287
 30
0.0
 11
6.197153575147012
 21
11.33822943762126
 31
0.0
  0
LINE
  5
D42
330
C96
100
AcDbEntity
  8
0
 62
     0
380
     1
100
AcDbLine
 10
13.69610557948064
 20
3.839277433287634
 30
0.0
 11
12.5603833332554
 21
4.974999679512876
 31
0.0
  0
LINE
  5
D43
330
C96
100
AcDbEntity
  8
0
 62
     0
380
     1
100
AcDbLine
 10
7.055236919448105
 20
10.03113328726678
 30
0.0
 11
5.968107169026637
 21
11.11826303768825
 31
0.0
  0
LINE
  5
D44
330
C96
100
AcDbEntity
  8
0
 62
     0
380
     1
100
AcDbLine
 10
13.50223918723446
 20
3.584131019480423
 30
0.0
 11
10.37110557948065
 21
6.715264627234233
 31
0.0
  0
LINE
  5
D45
330
C96
100
AcDbEntity
  8
0
 62
     0
380
     1
100
AcDbLine
 10
7.046105579480638
 20
9.591251821180776
 30
0.0
 11
5.791366567792096
 21
10.84599083286932
 31
0.0
  0
LINE
  5
D46
330
C96
100
AcDbEntity
  8
0
 62
     0
380
     1
100
AcDbLine
 10
13.06235772114851
 20
3.574999679512899
 30
0.0
 11
10.37110557948065
 21
6.266251821180759
 31
0.0
  0
LINE
  5
D47
330
C96
100
AcDbEntity
  8
0
 62
     0
380
     1
100
AcDbLine
 10
7.077173433548352
 20
9.111171161059559
 30
0.0
 11
5.675926516645233
 21
10.5124180779627
 31
0.0
  0
LINE
  5
D48
330
C96
100
AcDbEntity
  8
0
 62
     0
380
     1
100
AcDbLine
 10
12.61334491509501
 20
3.574999679512927
 30
0.0
 11
10.37110557948063
 21
5.817239015127285
 31
0.0
  0
LINE
  5
D49
330
C96
100
AcDbEntity
  8
0
 62
     0
380
     1
100
AcDbLine
 10
9.223293625091969
 20
6.516038163462525
 30
0.0
 11
5.646105579480661
 21
10.09322620907383
 31
0.0
  0
LINE
  5
D4A
330
C96
100
AcDbEntity
  8
0
 62
     0
380
     1
100
AcDbLine
 10
12.13769606551324
 20
3.601635723041255
 30
0.0
 11
10.39774162300895
 21
5.34159016554554
 31
0.0
  0
LINE
  5
D4B
330
C96
100
AcDbEntity
  8
0
 62
     0
380
     1
100
AcDbLine
 10
9.319240882134579
 20
5.971078100366469
 30
0.0
 11
5.646105579480604
 21
9.644213403020444
 31
0.0
  0
LINE
  5
D4C
330
C96
100
AcDbEntity
  8
0
 62
     0
380
     1
100
AcDbLine
 10
11.45079210921244
 20
3.839526873288576
 30
0.0
 11
10.63563277325624
 21
4.6546862092448
 31
0.0
  0
LINE
  5
D4D
330
C96
100
AcDbEntity
  8
0
 62
     0
380
     1
100
AcDbLine
 10
9.321105579480672
 20
5.520200596966901
 30
0.0
 11
5.649887803191802
 21
9.191418373255743
 31
0.0
  0
LINE
  5
D4E
330
C96
100
AcDbEntity
  8
0
 62
     0
380
     1
100
AcDbLine
 10
9.321105579480615
 20
5.071187790913484
 30
0.0
 11
5.76153318235373
 21
8.630760188040341
 31
0.0
  0
LINE
  5
D4F
330
C96
100
AcDbEntity
  8
0
 62
     0
380
     1
100
AcDbLine
 10
9.284845581414657
 20
4.658434982926024
 30
0.0
 11
7.903149759605128
 21
6.040130804735554
 31
0.0
  0
LINE
  5
D50
330
C96
100
AcDbEntity
  8
0
 62
     0
380
     1
100
AcDbLine
 10
9.163876611900235
 20
4.330391146386972
 30
0.0
 11
7.92110557948061
 21
5.573162178806597
 31
0.0
  0
LINE
  5
D51
330
C96
100
AcDbEntity
  8
0
 62
     0
380
     1
100
AcDbLine
 10
8.98281698820935
 20
4.062437964024383
 30
0.0
 11
7.903156063330271
 21
5.142098888903461
 31
0.0
  0
LINE
  5
D52
330
C96
100
AcDbEntity
  8
0
 62
     0
380
     1
100
AcDbLine
 10
8.749703802075913
 20
3.846538344104374
 30
0.0
 11
7.621242466667354
 21
4.974999679512961
 31
0.0
  0
LINE
  5
D53
330
C96
100
AcDbEntity
  8
0
 62
     0
380
     1
100
AcDbLine
 10
8.463071578209508
 20
3.684157761917333
 30
0.0
 11
7.172229660613879
 21
4.974999679512933
 31
0.0
  0
LINE
  5
D54
330
C96
100
AcDbEntity
  8
0
 62
     0
380
     1
100
AcDbLine
 10
8.110365283666538
 20
3.587851250406828
 30
0.0
 11
6.723216854560433
 21
4.974999679512933
 31
0.0
  0
LINE
  5
D55
330
C96
100
AcDbEntity
  8
0
 62
     0
380
     1
100
AcDbLine
 10
7.674204048506965
 20
3.574999679512927
 30
0.0
 11
6.274204048506959
 21
4.974999679512933
 31
0.0
  0
LINE
  5
D56
330
C96
100
AcDbEntity
  8
0
 62
     0
380
     1
100
AcDbLine
 10
7.225191242453547
 20
3.574999679512899
 30
0.0
 11
5.948529295044608
 21
4.851661626921867
 31
0.0
  0
LINE
  5
D57
330
C96
100
AcDbEntity
  8
0
 62
     0
380
     1
100
AcDbLine
 10
6.776178436400044
 20
3.574999679512927
 30
0.0
 11
5.908605579480649
 21
4.442572536432322
 31
0.0
  0
LINE
  5
D58
330
C96
100
AcDbEntity
  8
0
 62
     0
380
     1
100
AcDbLine
 10
6.327165630346627
 20
3.574999679512899
 30
0.0
 11
5.908605579480649
 21
3.993559730378876
 31
0.0
  0
LINE
  5
D59
330
C96
100
AcDbEntity
  8
0
 62
     0
380
     1
100
AcDbLine
 10
34.3169492218141
 20
3.581565568071681
 30
0.0
 11
34.51453969092199
 21
3.779156037179575
 31
0.0
  0
LINE
  5
D5A
330
C96
100
AcDbEntity
  8
0
 62
     0
380
     1
100
AcDbLine
 10
33.86137052720193
 20
3.574999679512899
 30
0.0
 11
34.52110557948072
 21
4.234734731791718
 31
0.0
  0
LINE
  5
D5B
330
C96
100
AcDbEntity
  8
0
 62
     0
380
     1
100
AcDbLine
 10
33.41235772114846
 20
3.574999679512927
 30
0.0
 11
34.52110557948072
 21
4.683747537845164
 31
0.0
  0
LINE
  5
D5C
330
C96
100
AcDbEntity
  8
0
 62
     0
380
     1
100
AcDbLine
 10
33.13670436110655
 20
3.748359125524473
 30
0.0
 11
34.52110557948069
 21
5.132760343898638
 31
0.0
  0
LINE
  5
D5D
330
C96
100
AcDbEntity
  8
0
 62
     0
380
     1
100
AcDbLine
 10
33.12110557948066
 20
4.18177314995205
 30
0.0
 11
34.52110557948069
 21
5.581773149952056
 31
0.0
  0
LINE
  5
D5E
330
C96
100
AcDbEntity
  8
0
 62
     0
380
     1
100
AcDbLine
 10
33.12110557948069
 20
4.630785956005496
 30
0.0
 11
34.52110557948069
 21
6.03078595600553
 31
0.0
  0
LINE
  5
D5F
330
C96
100
AcDbEntity
  8
0
 62
     0
380
     1
100
AcDbLine
 10
33.12110557948066
 20
5.07979876205897
 30
0.0
 11
34.52110557948069
 21
6.479798762059004
 31
0.0
  0
LINE
  5
D60
330
C96
100
AcDbEntity
  8
0
 62
     0
380
     1
100
AcDbLine
 10
33.12110557948066
 20
5.528811568112416
 30
0.0
 11
34.52110557948069
 21
6.92881156811245
 31
0.0
  0
LINE
  5
D61
330
C96
100
AcDbEntity
  8
0
 62
     0
380
     1
100
AcDbLine
 10
31.3343880105133
 20
3.742093999145055
 30
0.0
 11
31.90401125984858
 21
4.311717248480363
 31
0.0
  0
LINE
  5
D62
330
C96
100
AcDbEntity
  8
0
 62
     0
380
     1
100
AcDbLine
 10
33.12110557948066
 20
5.977824374165862
 30
0.0
 11
34.52110557948069
 21
7.377824374165896
 31
0.0
  0
LINE
  5
D63
330
C96
100
AcDbEntity
  8
0
 62
     0
380
     1
100
AcDbLine
 10
30.7191039272519
 20
3.5758227219371
 30
0.0
 11
32.07028253705656
 21
4.927001331741735
 31
0.0
  0
LINE
  5
D64
330
C96
100
AcDbEntity
  8
0
 62
     0
380
     1
100
AcDbLine
 10
33.12110557948066
 20
6.426837180219337
 30
0.0
 11
34.52110557948069
 21
7.826837180219342
 31
0.0
  0
LINE
  5
D65
330
C96
100
AcDbEntity
  8
0
 62
     0
380
     1
100
AcDbLine
 10
30.26926807877419
 20
3.57499967951287
 30
0.0
 11
32.0711055794807
 21
5.376837180219354
 31
0.0
  0
LINE
  5
D66
330
C96
100
AcDbEntity
  8
0
 62
     0
380
     1
100
AcDbLine
 10
33.12110557948066
 20
6.875849986272783
 30
0.0
 11
34.52110557948066
 21
8.275849986272817
 31
0.0
  0
LINE
  5
D67
330
C96
100
AcDbEntity
  8
0
 62
     0
380
     1
100
AcDbLine
 10
29.82025527272075
 20
3.57499967951287
 30
0.0
 11
32.07110557948067
 21
5.825849986272828
 31
0.0
  0
LINE
  5
D68
330
C96
100
AcDbEntity
  8
0
 62
     0
380
     1
100
AcDbLine
 10
33.12110557948066
 20
7.324862792326229
 30
0.0
 11
34.52110557948069
 21
8.724862792326263
 31
0.0
  0
LINE
  5
D69
330
C96
100
AcDbEntity
  8
0
 62
     0
380
     1
100
AcDbLine
 10
29.37124246666733
 20
3.574999679512899
 30
0.0
 11
32.0711055794807
 21
6.274862792326274
 31
0.0
  0
LINE
  5
D6A
330
C96
100
AcDbEntity
  8
0
 62
     0
380
     1
100
AcDbLine
 10
30.61880997844014
 20
5.271579997339188
 30
0.0
 11
32.0711055794807
 21
6.72387559837972
 31
0.0
  0
LINE
  5
D6B
330
C96
100
AcDbEntity
  8
0
 62
     0
380
     1
100
AcDbLine
 10
33.12110557948066
 20
7.773875598379675
 30
0.0
 11
34.52110557948069
 21
9.173875598379709
 31
0.0
  0
LINE
  5
D6C
330
C96
100
AcDbEntity
  8
0
 62
     0
380
     1
100
AcDbLine
 10
28.92222966061382
 20
3.57499967951287
 30
0.0
 11
30.37452526165438
 21
5.027295280553403
 31
0.0
  0
LINE
  5
D6D
330
C96
100
AcDbEntity
  8
0
 62
     0
380
     1
100
AcDbLine
 10
30.67110557948061
 20
5.772888404433132
 30
0.0
 11
32.07110557948067
 21
7.172888404433194
 31
0.0
  0
LINE
  5
D6E
330
C96
100
AcDbEntity
  8
0
 62
     0
380
     1
100
AcDbLine
 10
33.12110557948063
 20
8.222888404433149
 30
0.0
 11
34.52110557948066
 21
9.622888404433183
 31
0.0
  0
LINE
  5
D6F
330
C96
100
AcDbEntity
  8
0
 62
     0
380
     1
100
AcDbLine
 10
28.52919173024898
 20
3.630974555201476
 30
0.0
 11
29.87321685456041
 21
4.974999679512905
 31
0.0
  0
LINE
  5
D70
330
C96
100
AcDbEntity
  8
0
 62
     0
380
     1
100
AcDbLine
 10
30.67110557948061
 20
6.221901210486578
 30
0.0
 11
32.07110557948067
 21
7.62190121048664
 31
0.0
  0
LINE
  5
D71
330
C96
100
AcDbEntity
  8
0
 62
     0
380
     1
100
AcDbLine
 10
33.12110557948063
 20
8.671901210486623
 30
0.0
 11
34.52110557948066
 21
10.07190121048663
 31
0.0
  0
LINE
  5
D72
330
C96
100
AcDbEntity
  8
0
 62
     0
380
     1
100
AcDbLine
 10
28.21519829664391
 20
3.765993927649901
 30
0.0
 11
29.42464294132913
 21
4.975438572335121
 31
0.0
  0
LINE
  5
D73
330
C96
100
AcDbEntity
  8
0
 62
     0
380
     1
100
AcDbLine
 10
30.67110557948067
 20
6.670914016540052
 30
0.0
 11
32.07110557948067
 21
8.070914016540086
 31
0.0
  0
LINE
  5
D74
330
C96
100
AcDbEntity
  8
0
 62
     0
380
     1
100
AcDbLine
 10
33.12110557948066
 20
9.120914016540041
 30
0.0
 11
34.52110557948066
 21
10.52091401654007
 31
0.0
  0
LINE
  5
D75
330
C96
100
AcDbEntity
  8
0
 62
     0
380
     1
100
AcDbLine
 10
27.95856835596138
 20
3.958376793020761
 30
0.0
 11
29.10290364697278
 21
5.102712084032191
 31
0.0
  0
LINE
  5
D76
330
C96
100
AcDbEntity
  8
0
 62
     0
380
     1
100
AcDbLine
 10
30.67110557948064
 20
7.119926822593527
 30
0.0
 11
32.07110557948067
 21
8.519926822593561
 31
0.0
  0
LINE
  5
D77
330
C96
100
AcDbEntity
  8
0
 62
     0
380
     1
100
AcDbLine
 10
33.12110557948063
 20
9.569926822593515
 30
0.0
 11
34.52110557948066
 21
10.96992682259355
 31
0.0
  0
LINE
  5
D78
330
C96
100
AcDbEntity
  8
0
 62
     0
380
     1
100
AcDbLine
 10
27.75358626834881
 20
4.202407511461672
 30
0.0
 11
28.93428450776807
 21
5.383105750880957
 31
0.0
  0
LINE
  5
D79
330
C96
100
AcDbEntity
  8
0
 62
     0
380
     1
100
AcDbLine
 10
30.67110557948064
 20
7.568939628646973
 30
0.0
 11
32.0711055794807
 21
8.968939628647063
 31
0.0
  0
LINE
  5
D7A
330
C96
100
AcDbEntity
  8
0
 62
     0
380
     1
100
AcDbLine
 10
33.12110557948063
 20
10.01893962864696
 30
0.0
 11
34.51603100270543
 21
11.41386505187179
 31
0.0
  0
LINE
  5
D7B
330
C96
100
AcDbEntity
  8
0
 62
     0
380
     1
100
AcDbLine
 10
27.60362382913181
 20
4.501457878298168
 30
0.0
 11
28.92110557948061
 21
5.818939628646973
 31
0.0
  0
LINE
  5
D7C
330
C96
100
AcDbEntity
  8
0
 62
     0
380
     1
100
AcDbLine
 10
30.67110557948064
 20
8.017952434700418
 30
0.0
 11
32.07110557948073
 21
9.417952434700481
 31
0.0
  0
LINE
  5
D7D
330
C96
100
AcDbEntity
  8
0
 62
     0
380
     1
100
AcDbLine
 10
33.12110557948063
 20
10.4679524347004
 30
0.0
 11
34.27747383016569
 21
11.62432068538547
 31
0.0
  0
LINE
  5
D7E
330
C96
100
AcDbEntity
  8
0
 62
     0
380
     1
100
AcDbLine
 10
27.52491706165358
 20
4.871763916873362
 30
0.0
 11
28.92110557948064
 21
6.267952434700418
 31
0.0
  0
LINE
  5
D7F
330
C96
100
AcDbEntity
  8
0
 62
     0
380
     1
100
AcDbLine
 10
30.67110557948064
 20
8.466965240753893
 30
0.0
 11
32.0711055794807
 21
9.866965240753955
 31
0.0
  0
LINE
  5
D80
330
C96
100
AcDbEntity
  8
0
 62
     0
380
     1
100
AcDbLine
 10
33.12110557948066
 20
10.91696524075391
 30
0.0
 11
33.82914001823966
 21
11.62499967951291
 31
0.0
  0
LINE
  5
D81
330
C96
100
AcDbEntity
  8
0
 62
     0
380
     1
100
AcDbLine
 10
27.52110557948069
 20
5.316965240753916
 30
0.0
 11
28.92110557948067
 21
6.716965240753921
 31
0.0
  0
LINE
  5
D82
330
C96
100
AcDbEntity
  8
0
 62
     0
380
     1
100
AcDbLine
 10
30.67110557948064
 20
8.915978046807339
 30
0.0
 11
32.0711055794807
 21
10.3159780468074
 31
0.0
  0
LINE
  5
D83
330
C96
100
AcDbEntity
  8
0
 62
     0
380
     1
100
AcDbLine
 10
27.52110557948066
 20
5.76597804680739
 30
0.0
 11
28.92110557948064
 21
7.165978046807367
 31
0.0
  0
LINE
  5
D84
330
C96
100
AcDbEntity
  8
0
 62
     0
380
     1
100
AcDbLine
 10
33.12112893685438
 20
11.3660014041811
 30
0.0
 11
33.38010385481252
 21
11.62497632213922
 31
0.0
  0
LINE
  5
D85
330
C96
100
AcDbEntity
  8
0
 62
     0
380
     1
100
AcDbLine
 10
25.36032776412466
 20
3.605200231451362
 30
0.0
 11
26.44090502754224
 21
4.685777494868972
 31
0.0
  0
LINE
  5
D86
330
C96
100
AcDbEntity
  8
0
 62
     0
380
     1
100
AcDbLine
 10
27.52110557948066
 20
6.214990852860836
 30
0.0
 11
28.92110557948064
 21
7.614990852860842
 31
0.0
  0
LINE
  5
D87
330
C96
100
AcDbEntity
  8
0
 62
     0
380
     1
100
AcDbLine
 10
30.67110557948067
 20
9.364990852860842
 30
0.0
 11
32.07110557948067
 21
10.76499085286087
 31
0.0
  0
LINE
  5
D88
330
C96
100
AcDbEntity
  8
0
 62
     0
380
     1
100
AcDbLine
 10
24.88111440613276
 20
3.574999679512956
 30
0.0
 11
26.47110557948062
 21
5.164990852860796
 31
0.0
  0
LINE
  5
D89
330
C96
100
AcDbEntity
  8
0
 62
     0
380
     1
100
AcDbLine
 10
27.52110557948066
 20
6.664003658914282
 30
0.0
 11
28.92110557948067
 21
8.064003658914259
 31
0.0
  0
LINE
  5
D8A
330
C96
100
AcDbEntity
  8
0
 62
     0
380
     1
100
AcDbLine
 10
30.67110557948067
 20
9.814003658914288
 30
0.0
 11
32.0711055794807
 21
11.21400365891432
 31
0.0
  0
LINE
  5
D8B
330
C96
100
AcDbEntity
  8
0
 62
     0
380
     1
100
AcDbLine
 10
24.43210160007928
 20
3.574999679512899
 30
0.0
 11
26.47110557948068
 21
5.61400365891427
 31
0.0
  0
LINE
  5
D8C
330
C96
100
AcDbEntity
  8
0
 62
     0
380
     1
100
AcDbLine
 10
27.52110557948066
 20
7.113016464967756
 30
0.0
 11
28.92110557948064
 21
8.513016464967734
 31
0.0
  0
LINE
  5
D8D
330
C96
100
AcDbEntity
  8
0
 62
     0
380
     1
100
AcDbLine
 10
30.67110557948067
 20
10.26301646496773
 30
0.0
 11
31.97423685206363
 21
11.56614773755072
 31
0.0
  0
LINE
  5
D8E
330
C96
100
AcDbEntity
  8
0
 62
     0
380
     1
100
AcDbLine
 10
23.98308879402583
 20
3.574999679512927
 30
0.0
 11
26.46394627927418
 21
6.055857164761277
 31
0.0
  0
LINE
  5
D8F
330
C96
100
AcDbEntity
  8
0
 62
     0
380
     1
100
AcDbLine
 10
27.52110557948066
 20
7.562029271021202
 30
0.0
 11
28.92110557948064
 21
8.962029271021208
 31
0.0
  0
LINE
  5
D90
330
C96
100
AcDbEntity
  8
0
 62
     0
380
     1
100
AcDbLine
 10
30.67110557948064
 20
10.71202927102121
 30
0.0
 11
31.58407598797237
 21
11.62499967951294
 31
0.0
  0
LINE
  5
D91
330
C96
100
AcDbEntity
  8
0
 62
     0
380
     1
100
AcDbLine
 10
23.53407598797236
 20
3.574999679512927
 30
0.0
 11
26.39649009395981
 21
6.437413785500353
 31
0.0
  0
LINE
  5
D92
330
C96
100
AcDbEntity
  8
0
 62
     0
380
     1
100
AcDbLine
 10
27.52110557948066
 20
8.011042077074648
 30
0.0
 11
28.92110557948064
 21
9.411042077074625
 31
0.0
  0
LINE
  5
D93
330
C96
100
AcDbEntity
  8
0
 62
     0
380
     1
100
AcDbLine
 10
25.07110557948067
 20
5.56104207707466
 30
0.0
 11
26.27619636550054
 21
6.766132863094497
 31
0.0
  0
LINE
  5
D94
330
C96
100
AcDbEntity
  8
0
 62
     0
380
     1
100
AcDbLine
 10
30.67110557948067
 20
11.16104207707465
 30
0.0
 11
31.13506318191895
 21
11.62499967951294
 31
0.0
  0
LINE
  5
D95
330
C96
100
AcDbEntity
  8
0
 62
     0
380
     1
100
AcDbLine
 10
23.14919085848448
 20
3.639127356078461
 30
0.0
 11
24.48506318191892
 21
4.974999679512905
 31
0.0
  0
LINE
  5
D96
330
C96
100
AcDbEntity
  8
0
 62
     0
380
     1
100
AcDbLine
 10
25.06117029191702
 20
6.000119595564456
 30
0.0
 11
26.11444671307026
 21
7.053396016717698
 31
0.0
  0
LINE
  5
D97
330
C96
100
AcDbEntity
  8
0
 62
     0
380
     1
100
AcDbLine
 10
27.52110557948066
 20
8.460054883128094
 30
0.0
 11
28.92110557948067
 21
9.860054883128128
 31
0.0
  0
LINE
  5
D98
330
C96
100
AcDbEntity
  8
0
 62
     0
380
     1
100
AcDbLine
 10
23.05860557948063
 20
3.997554883128088
 30
0.0
 11
24.03605037586544
 21
4.974999679512905
 31
0.0
  0
LINE
  5
D99
330
C96
100
AcDbEntity
  8
0
 62
     0
380
     1
100
AcDbLine
 10
24.92397787334758
 20
6.311939983048517
 30
0.0
 11
25.91651115410636
 21
7.304473263807295
 31
0.0
  0
LINE
  5
D9A
330
C96
100
AcDbEntity
  8
0
 62
     0
380
     1
100
AcDbLine
 10
27.52110557948063
 20
8.909067689181568
 30
0.0
 11
28.92110557948067
 21
10.3090676891816
 31
0.0
  0
LINE
  5
D9B
330
C96
100
AcDbEntity
  8
0
 62
     0
380
     1
100
AcDbLine
 10
23.05860557948063
 20
4.446567689181534
 30
0.0
 11
23.587037569812
 21
4.974999679512933
 31
0.0
  0
LINE
  5
D9C
330
C96
100
AcDbEntity
  8
0
 62
     0
380
     1
100
AcDbLine
 10
27.52110557948066
 20
9.358080495235014
 30
0.0
 11
28.9211055794807
 21
10.75808049523502
 31
0.0
  0
LINE
  5
D9D
330
C96
100
AcDbEntity
  8
0
 62
     0
380
     1
100
AcDbLine
 10
24.70334042478905
 20
6.540315340543372
 30
0.0
 11
25.69328991845023
 21
7.530264834204587
 31
0.0
  0
LINE
  5
D9E
330
C96
100
AcDbEntity
  8
0
 62
     0
380
     1
100
AcDbLine
 10
24.47883402176231
 20
6.764821743570109
 30
0.0
 11
25.46878351542347
 21
7.754771237231267
 31
0.0
  0
LINE
  5
D9F
330
C96
100
AcDbEntity
  8
0
 62
     0
380
     1
100
AcDbLine
 10
27.52110557948063
 20
9.80709330128846
 30
0.0
 11
28.92110557948067
 21
11.20709330128849
 31
0.0
  0
LINE
  5
DA0
330
C96
100
AcDbEntity
  8
0
 62
     0
380
     1
100
AcDbLine
 10
21.28901195770507
 20
3.574999679512899
 30
0.0
 11
21.74610557948065
 21
4.032093301288455
 31
0.0
  0
LINE
  5
DA1
330
C96
100
AcDbEntity
  8
0
 62
     0
380
     1
100
AcDbLine
 10
24.25432761873557
 20
6.989328146596847
 30
0.0
 11
25.24427711239673
 21
7.979277640258004
 31
0.0
  0
LINE
  5
DA2
330
C96
100
AcDbEntity
  8
0
 62
     0
380
     1
100
AcDbLine
 10
27.52110557948063
 20
10.25610610734193
 30
0.0
 11
28.82801512543134
 21
11.56301565329261
 31
0.0
  0
LINE
  5
DA3
330
C96
100
AcDbEntity
  8
0
 62
     0
380
     1
100
AcDbLine
 10
20.8399991516516
 20
3.574999679512899
 30
0.0
 11
21.74610557948069
 21
4.481106107341958
 31
0.0
  0
LINE
  5
DA4
330
C96
100
AcDbEntity
  8
0
 62
     0
380
     1
100
AcDbLine
 10
24.02982121570884
 20
7.213834549623584
 30
0.0
 11
25.01977070936999
 21
8.203784043284741
 31
0.0
  0
LINE
  5
DA5
330
C96
100
AcDbEntity
  8
0
 62
     0
380
     1
100
AcDbLine
 10
27.52110557948063
 20
10.70511891339538
 30
0.0
 11
28.44098634559819
 21
11.62499967951297
 31
0.0
  0
LINE
  5
DA6
330
C96
100
AcDbEntity
  8
0
 62
     0
380
     1
100
AcDbLine
 10
20.44679191452914
 20
3.630805248443891
 30
0.0
 11
21.74610557948065
 21
4.930118913395432
 31
0.0
  0
LINE
  5
DA7
330
C96
100
AcDbEntity
  8
0
 62
     0
380
     1
100
AcDbLine
 10
23.80531481268213
 20
7.438340952650293
 30
0.0
 11
24.79526430634328
 21
8.42829044631145
 31
0.0
  0
LINE
  5
DA8
330
C96
100
AcDbEntity
  8
0
 62
     0
380
     1
100
AcDbLine
 10
27.52110557948063
 20
11.15413171944882
 30
0.0
 11
27.99197353954478
 21
11.62499967951294
 31
0.0
  0
LINE
  5
DA9
330
C96
100
AcDbEntity
  8
0
 62
     0
380
     1
100
AcDbLine
 10
20.34610557948068
 20
3.979131719448872
 30
0.0
 11
21.74610557948069
 21
5.379131719448849
 31
0.0
  0
LINE
  5
DAA
330
C96
100
AcDbEntity
  8
0
 62
     0
380
     1
100
AcDbLine
 10
23.58080840965539
 20
7.66284735567703
 30
0.0
 11
24.57075790331655
 21
8.652796849338187
 31
0.0
  0
LINE
  5
DAB
330
C96
100
AcDbEntity
  8
0
 62
     0
380
     1
100
AcDbLine
 10
20.34610557948068
 20
4.428144525502347
 30
0.0
 11
21.74610557948065
 21
5.828144525502324
 31
0.0
  0
LINE
  5
DAC
330
C96
100
AcDbEntity
  8
0
 62
     0
380
     1
100
AcDbLine
 10
23.35731645913472
 20
7.888368211209865
 30
0.0
 11
24.34930322582574
 21
8.88035497790085
 31
0.0
  0
LINE
  5
DAD
330
C96
100
AcDbEntity
  8
0
 62
     0
380
     1
100
AcDbLine
 10
20.34610557948068
 20
4.877157331555793
 30
0.0
 11
21.74610557948065
 21
6.277157331555798
 31
0.0
  0
LINE
  5
DAE
330
C96
100
AcDbEntity
  8
0
 62
     0
380
     1
100
AcDbLine
 10
25.69394792743782
 20
10.22499967951293
 30
0.0
 11
26.20860557948069
 21
10.7396573315558
 31
0.0
  0
LINE
  5
DAF
330
C96
100
AcDbEntity
  8
0
 62
     0
380
     1
100
AcDbLine
 10
19.09977746712556
 20
3.630829219200677
 30
0.0
 11
19.14460364785307
 21
3.675655399928217
 31
0.0
  0
LINE
  5
DB0
330
C96
100
AcDbEntity
  8
0
 62
     0
380
     1
100
AcDbLine
 10
23.15831536972374
 20
8.138379927852298
 30
0.0
 11
24.20813250843304
 21
9.188197066561599
 31
0.0
  0
LINE
  5
DB1
330
C96
100
AcDbEntity
  8
0
 62
     0
380
     1
100
AcDbLine
 10
20.34610557948068
 20
5.326170137609238
 30
0.0
 11
21.74610557948069
 21
6.726170137609216
 31
0.0
  0
LINE
  5
DB2
330
C96
100
AcDbEntity
  8
0
 62
     0
380
     1
100
AcDbLine
 10
25.24493512138437
 20
10.22499967951293
 30
0.0
 11
26.20860557948069
 21
11.18867013760925
 31
0.0
  0
LINE
  5
DB3
330
C96
100
AcDbEntity
  8
0
 62
     0
380
     1
100
AcDbLine
 10
18.59493512138434
 20
3.574999679512899
 30
0.0
 11
19.12782466953757
 21
4.107889227666106
 31
0.0
  0
LINE
  5
DB4
330
C96
100
AcDbEntity
  8
0
 62
     0
380
     1
100
AcDbLine
 10
22.99539823752539
 20
8.424475601707428
 30
0.0
 11
24.1961055794807
 21
9.625182943662707
 31
0.0
  0
LINE
  5
DB5
330
C96
100
AcDbEntity
  8
0
 62
     0
380
     1
100
AcDbLine
 10
20.34610557948068
 20
5.775182943662684
 30
0.0
 11
21.74610557948065
 21
7.17518294366269
 31
0.0
  0
LINE
  5
DB6
330
C96
100
AcDbEntity
  8
0
 62
     0
380
     1
100
AcDbLine
 10
24.79592231533093
 20
10.22499967951293
 30
0.0
 11
26.12527111358173
 21
11.55434847776376
 31
0.0
  0
LINE
  5
DB7
330
C96
100
AcDbEntity
  8
0
 62
     0
380
     1
100
AcDbLine
 10
18.14592231533089
 20
3.574999679512899
 30
0.0
 11
19.02006159608476
 21
4.449138960266793
 31
0.0
  0
LINE
  5
DB8
330
C96
100
AcDbEntity
  8
0
 62
     0
380
     1
100
AcDbLine
 10
20.34610557948065
 20
6.224195749716159
 30
0.0
 11
21.74610557948065
 21
7.624195749716136
 31
0.0
  0
LINE
  5
DB9
330
C96
100
AcDbEntity
  8
0
 62
     0
380
     1
100
AcDbLine
 10
22.87370720619035
 20
8.751797376425855
 30
0.0
 11
25.74690950927743
 21
11.62499967951294
 31
0.0
  0
LINE
  5
DBA
330
C96
100
AcDbEntity
  8
0
 62
     0
380
     1
100
AcDbLine
 10
17.84991516000335
 20
3.728005330238858
 30
0.0
 11
18.91229852263191
 21
4.790388692867423
 31
0.0
  0
LINE
  5
DBB
330
C96
100
AcDbEntity
  8
0
 62
     0
380
     1
100
AcDbLine
 10
20.34610557948065
 20
6.673208555769633
 30
0.0
 11
21.74610557948063
 21
8.07320855576961
 31
0.0
  0
LINE
  5
DBC
330
C96
100
AcDbEntity
  8
0
 62
     0
380
     1
100
AcDbLine
 10
22.8043537766475
 20
9.131456752936486
 30
0.0
 11
25.29789670322398
 21
11.62499967951294
 31
0.0
  0
LINE
  5
DBD
330
C96
100
AcDbEntity
  8
0
 62
     0
380
     1
100
AcDbLine
 10
17.74053544917905
 20
4.067638425468032
 30
0.0
 11
18.80453544917904
 21
5.131638425468025
 31
0.0
  0
LINE
  5
DBE
330
C96
100
AcDbEntity
  8
0
 62
     0
380
     1
100
AcDbLine
 10
20.34610557948068
 20
7.122221361823051
 30
0.0
 11
21.74610557948065
 21
8.522221361823056
 31
0.0
  0
LINE
  5
DBF
330
C96
100
AcDbEntity
  8
0
 62
     0
380
     1
100
AcDbLine
 10
22.79610557948067
 20
9.572221361823039
 30
0.0
 11
24.84888389717054
 21
11.62499967951294
 31
0.0
  0
LINE
  5
DC0
330
C96
100
AcDbEntity
  8
0
 62
     0
380
     1
100
AcDbLine
 10
17.63277237572623
 20
4.408888158068634
 30
0.0
 11
18.69677237572628
 21
5.472888158068656
 31
0.0
  0
LINE
  5
DC1
330
C96
100
AcDbEntity
  8
0
 62
     0
380
     1
100
AcDbLine
 10
20.34610557948065
 20
7.571234167876525
 30
0.0
 11
21.74610557948065
 21
8.971234167876502
 31
0.0
  0
LINE
  5
DC2
330
C96
100
AcDbEntity
  8
0
 62
     0
380
     1
100
AcDbLine
 10
22.79610557948069
 20
10.02123416787654
 30
0.0
 11
24.39987109111709
 21
11.62499967951294
 31
0.0
  0
LINE
  5
DC3
330
C96
100
AcDbEntity
  8
0
 62
     0
380
     1
100
AcDbLine
 10
17.52500930227336
 20
4.750137890669236
 30
0.0
 11
18.58900930227344
 21
5.814137890669286
 31
0.0
  0
LINE
  5
DC4
330
C96
100
AcDbEntity
  8
0
 62
     0
380
     1
100
AcDbLine
 10
20.34610557948065
 20
8.020246973929971
 30
0.0
 11
21.74610557948069
 21
9.420246973930005
 31
0.0
  0
LINE
  5
DC5
330
C96
100
AcDbEntity
  8
0
 62
     0
380
     1
100
AcDbLine
 10
17.41724622882054
 20
5.091387623269895
 30
0.0
 11
18.48124622882059
 21
6.155387623269916
 31
0.0
  0
LINE
  5
DC6
330
C96
100
AcDbEntity
  8
0
 62
     0
380
     1
100
AcDbLine
 10
22.82276391454127
 20
10.49690530899062
 30
0.0
 11
23.92419995000293
 21
11.59834134445228
 31
0.0
  0
LINE
  5
DC7
330
C96
100
AcDbEntity
  8
0
 62
     0
380
     1
100
AcDbLine
 10
15.90085828506355
 20
3.574999679512899
 30
0.0
 11
16.32110557948064
 21
3.995246973929994
 31
0.0
  0
LINE
  5
DC8
330
C96
100
AcDbEntity
  8
0
 62
     0
380
     1
100
AcDbLine
 10
17.30948315536776
 20
5.432637355870497
 30
0.0
 11
18.37348315536772
 21
6.49663735587049
 31
0.0
  0
LINE
  5
DC9
330
C96
100
AcDbEntity
  8
0
 62
     0
380
     1
100
AcDbLine
 10
20.34610557948065
 20
8.469259779983417
 30
0.0
 11
21.74610557948069
 21
9.869259779983451
 31
0.0
  0
LINE
  5
DCA
330
C96
100
AcDbEntity
  8
0
 62
     0
380
     1
100
AcDbLine
 10
15.45184547901013
 20
3.57499967951287
 30
0.0
 11
16.32110557948067
 21
4.44425977998344
 31
0.0
  0
LINE
  5
DCB
330
C96
100
AcDbEntity
  8
0
 62
     0
380
     1
100
AcDbLine
 10
17.20172008191491
 20
5.773887088471127
 30
0.0
 11
18.26572008191493
 21
6.837887088471177
 31
0.0
  0
LINE
  5
DCC
330
C96
100
AcDbEntity
  8
0
 62
     0
380
     1
100
AcDbLine
 10
20.34610557948065
 20
8.918272586036891
 30
0.0
 11
21.74610557948069
 21
10.3182725860369
 31
0.0
  0
LINE
  5
DCD
330
C96
100
AcDbEntity
  8
0
 62
     0
380
     1
100
AcDbLine
 10
15.0434075467823
 20
3.615574553338547
 30
0.0
 11
16.32110557948067
 21
4.893272586036886
 31
0.0
  0
LINE
  5
DCE
330
C96
100
AcDbEntity
  8
0
 62
     0
380
     1
100
AcDbLine
 10
17.09395700846207
 20
6.115136821071757
 30
0.0
 11
18.15795700846209
 21
7.179136821071807
 31
0.0
  0
LINE
  5
DCF
330
C96
100
AcDbEntity
  8
0
 62
     0
380
     1
100
AcDbLine
 10
20.34610557948065
 20
9.367285392090337
 30
0.0
 11
21.74610557948065
 21
10.76728539209037
 31
0.0
  0
LINE
  5
DD0
330
C96
100
AcDbEntity
  8
0
 62
     0
380
     1
100
AcDbLine
 10
14.92110557948066
 20
3.942285392090354
 30
0.0
 11
16.3211055794807
 21
5.342285392090388
 31
0.0
  0
LINE
  5
DD1
330
C96
100
AcDbEntity
  8
0
 62
     0
380
     1
100
AcDbLine
 10
16.98619393500925
 20
6.456386553672359
 30
0.0
 11
18.05019393500927
 21
7.520386553672409
 31
0.0
  0
LINE
  5
DD2
330
C96
100
AcDbEntity
  8
0
 62
     0
380
     1
100
AcDbLine
 10
20.34610557948065
 20
9.816298198143783
 30
0.0
 11
21.74610557948069
 21
11.21629819814382
 31
0.0
  0
LINE
  5
DD3
330
C96
100
AcDbEntity
  8
0
 62
     0
380
     1
100
AcDbLine
 10
14.92110557948066
 20
4.3912981981438
 30
0.0
 11
16.3211055794807
 21
5.791298198143834
 31
0.0
  0
LINE
  5
DD4
330
C96
100
AcDbEntity
  8
0
 62
     0
380
     1
100
AcDbLine
 10
16.86879454152338
 20
6.787999966239993
 30
0.0
 11
18.18394157548883
 21
8.103147000205439
 31
0.0
  0
LINE
  5
DD5
330
C96
100
AcDbEntity
  8
0
 62
     0
380
     1
100
AcDbLine
 10
20.34610557948068
 20
10.26531100419728
 30
0.0
 11
21.64796786823146
 21
11.56717329294804
 31
0.0
  0
LINE
  5
DD6
330
C96
100
AcDbEntity
  8
0
 62
     0
380
     1
100
AcDbLine
 10
14.92110557948066
 20
4.840311004197275
 30
0.0
 11
16.3211055794807
 21
6.24031100419728
 31
0.0
  0
LINE
  5
DD7
330
C96
100
AcDbEntity
  8
0
 62
     0
380
     1
100
AcDbLine
 10
16.52520185658969
 20
6.893420087359771
 30
0.0
 11
18.3911782552058
 21
8.759396485975884
 31
0.0
  0
LINE
  5
DD8
330
C96
100
AcDbEntity
  8
0
 62
     0
380
     1
100
AcDbLine
 10
14.92110557948066
 20
5.289323810250721
 30
0.0
 11
16.32768517163382
 21
6.695903402403871
 31
0.0
  0
LINE
  5
DD9
330
C96
100
AcDbEntity
  8
0
 62
     0
380
     1
100
AcDbLine
 10
20.34610557948068
 20
10.71432381025073
 30
0.0
 11
21.25678144874286
 21
11.62499967951294
 31
0.0
  0
LINE
  5
DDA
330
C96
100
AcDbEntity
  8
0
 62
     0
380
     1
100
AcDbLine
 10
13.20678144874284
 20
3.574999679512899
 30
0.0
 11
13.69610557948067
 21
4.064323810250755
 31
0.0
  0
LINE
  5
DDB
330
C96
100
AcDbEntity
  8
0
 62
     0
380
     1
100
AcDbLine
 10
14.92110557948064
 20
5.738336616304195
 30
0.0
 11
18.59841493492277
 21
9.4156459717463
 31
0.0
  0
LINE
  5
DDC
330
C96
100
AcDbEntity
  8
0
 62
     0
380
     1
100
AcDbLine
 10
20.34610557948065
 20
11.1633366163042
 30
0.0
 11
20.80776864268938
 21
11.62499967951294
 31
0.0
  0
LINE
  5
DDD
330
C96
100
AcDbEntity
  8
0
 62
     0
380
     1
100
AcDbLine
 10
12.75776864268937
 20
3.574999679512927
 30
0.0
 11
13.69610557948067
 21
4.513336616304229
 31
0.0
  0
LINE
  5
DDE
330
C96
100
AcDbEntity
  8
0
 62
     0
380
     1
100
AcDbLine
 10
14.92110557948066
 20
6.187349422357613
 30
0.0
 11
18.8056516146398
 21
10.07189545751674
 31
0.0
  0
LINE
  5
DDF
330
C96
100
AcDbEntity
  8
0
 62
     0
380
     1
100
AcDbLine
 10
12.31459614881098
 20
3.580839991687952
 30
0.0
 11
13.62543843767759
 21
4.891682280554533
 31
0.0
  0
LINE
  5
DE0
330
C96
100
AcDbEntity
  8
0
 62
     0
380
     1
100
AcDbLine
 10
14.92110557948064
 20
6.636362228411087
 30
0.0
 11
16.58474303058247
 21
8.299999679512922
 31
0.0
  0
LINE
  5
DE1
330
C96
100
AcDbEntity
  8
0
 62
     0
380
     1
100
AcDbLine
 10
16.96673444820283
 20
8.681991097133277
 30
0.0
 11
19.0128882943568
 21
10.72814494328722
 31
0.0
  0
LINE
  5
DE2
330
C96
100
AcDbEntity
  8
0
 62
     0
380
     1
100
AcDbLine
 10
11.93051589008749
 20
3.645772539017912
 30
0.0
 11
13.25974303058245
 21
4.974999679512905
 31
0.0
  0
LINE
  5
DE3
330
C96
100
AcDbEntity
  8
0
 62
     0
380
     1
100
AcDbLine
 10
14.92110557948064
 20
7.085375034464561
 30
0.0
 11
16.3301008648348
 21
8.494370319818699
 31
0.0
  0
LINE
  5
DE4
330
C96
100
AcDbEntity
  8
0
 62
     0
380
     1
100
AcDbLine
 10
17.1739711279198
 20
9.338240582903694
 30
0.0
 11
19.20042402025748
 21
11.36469347524141
 31
0.0
  0
LINE
  5
DE5
330
C96
100
AcDbEntity
  8
0
 62
     0
380
     1
100
AcDbLine
 10
11.59994876167428
 20
3.764218216658207
 30
0.0
 11
12.81073022452901
 21
4.974999679512905
 31
0.0
  0
LINE
  5
DE6
330
C96
100
AcDbEntity
  8
0
 62
     0
380
     1
100
AcDbLine
 10
14.92110557948066
 20
7.534387840517979
 30
0.0
 11
16.32110557948067
 21
8.934387840518013
 31
0.0
  0
LINE
  5
DE7
330
C96
100
AcDbEntity
  8
0
 62
     0
380
     1
100
AcDbLine
 10
17.38120780763685
 20
9.994490068674195
 30
0.0
 11
19.00341808397289
 21
11.61670034501023
 31
0.0
  0
LINE
  5
DE8
330
C96
100
AcDbEntity
  8
0
 62
     0
380
     1
100
AcDbLine
 10
11.31114711959213
 20
3.924429380629447
 30
0.0
 11
12.36917804883856
 21
4.982460309875904
 31
0.0
  0
LINE
  5
DE9
330
C96
100
AcDbEntity
  8
0
 62
     0
380
     1
100
AcDbLine
 10
14.92110557948064
 20
7.983400646571453
 30
0.0
 11
16.32110557948067
 21
9.383400646571487
 31
0.0
  0
LINE
  5
DEA
330
C96
100
AcDbEntity
  8
0
 62
     0
380
     1
100
AcDbLine
 10
17.58844448735382
 20
10.65073955444461
 30
0.0
 11
18.56270461242209
 21
11.62499967951291
 31
0.0
  0
LINE
  5
DEB
330
C96
100
AcDbEntity
  8
0
 62
     0
380
     1
100
AcDbLine
 10
11.0586696364011
 20
4.120964703491893
 30
0.0
 11
12.05201997832941
 21
5.114315045420198
 31
0.0
  0
LINE
  5
DEC
330
C96
100
AcDbEntity
  8
0
 62
     0
380
     1
100
AcDbLine
 10
14.92110557948064
 20
8.432413452624899
 30
0.0
 11
16.32110557948067
 21
9.832413452624933
 31
0.0
  0
LINE
  5
DED
330
C96
100
AcDbEntity
  8
0
 62
     0
380
     1
100
AcDbLine
 10
13.25192264536889
 20
6.763230518513182
 30
0.0
 11
13.83287474048043
 21
7.344182613624724
 31
0.0
  0
LINE
  5
DEE
330
C96
100
AcDbEntity
  8
0
 62
     0
380
     1
100
AcDbLine
 10
17.79568116707077
 20
11.30698904021506
 30
0.0
 11
18.11369180636868
 21
11.62499967951297
 31
0.0
  0
LINE
  5
DEF
330
C96
100
AcDbEntity
  8
0
 62
     0
380
     1
100
AcDbLine
 10
10.84045109973618
 20
4.351758972880475
 30
0.0
 11
11.84689450269331
 21
5.358202375837606
 31
0.0
  0
LINE
  5
DF0
330
C96
100
AcDbEntity
  8
0
 62
     0
380
     1
100
AcDbLine
 10
12.78943622455398
 20
6.749756903751745
 30
0.0
 11
13.84634835524187
 21
7.806669034439607
 31
0.0
  0
LINE
  5
DF1
330
C96
100
AcDbEntity
  8
0
 62
     0
380
     1
100
AcDbLine
 10
14.92110557948061
 20
8.881426258678374
 30
0.0
 11
16.32110557948064
 21
10.2814262586784
 31
0.0
  0
LINE
  5
DF2
330
C96
100
AcDbEntity
  8
0
 62
     0
380
     1
100
AcDbLine
 10
10.6569414872647
 20
4.617262166462438
 30
0.0
 11
11.77110557948066
 21
5.731426258678425
 31
0.0
  0
LINE
  5
DF3
330
C96
100
AcDbEntity
  8
0
 62
     0
380
     1
100
AcDbLine
 10
12.48236293984388
 20
6.891696425095034
 30
0.0
 11
13.70440883389855
 21
8.113742319149736
 31
0.0
  0
LINE
  5
DF4
330
C96
100
AcDbEntity
  8
0
 62
     0
380
     1
100
AcDbLine
 10
14.92110557948064
 20
9.33043906473182
 30
0.0
 11
16.32110557948067
 21
10.73043906473182
 31
0.0
  0
LINE
  5
DF5
330
C96
100
AcDbEntity
  8
0
 62
     0
380
     1
100
AcDbLine
 10
10.51128273230233
 20
4.920616217553515
 30
0.0
 11
11.77110557948066
 21
6.180439064731842
 31
0.0
  0
LINE
  5
DF6
330
C96
100
AcDbEntity
  8
0
 62
     0
380
     1
100
AcDbLine
 10
12.26338297634902
 20
7.121729267653677
 30
0.0
 11
13.47437599133994
 21
8.332722282644567
 31
0.0
  0
LINE
  5
DF7
330
C96
100
AcDbEntity
  8
0
 62
     0
380
     1
100
AcDbLine
 10
14.92110557948064
 20
9.779451870785266
 30
0.0
 11
16.32110557948064
 21
11.1794518707853
 31
0.0
  0
LINE
  5
DF8
330
C96
100
AcDbEntity
  8
0
 62
     0
380
     1
100
AcDbLine
 10
10.410714050215
 20
5.269060341519661
 30
0.0
 11
11.77110557948066
 21
6.629451870785317
 31
0.0
  0
LINE
  5
DF9
330
C96
100
AcDbEntity
  8
0
 62
     0
380
     1
100
AcDbLine
 10
12.13535761014483
 20
7.442716707502938
 30
0.0
 11
13.15338855149065
 21
8.46074764884878
 31
0.0
  0
LINE
  5
DFA
330
C96
100
AcDbEntity
  8
0
 62
     0
380
     1
100
AcDbLine
 10
10.37110557948063
 20
5.678464676838757
 30
0.0
 11
11.77110557948066
 21
7.078464676838763
 31
0.0
  0
LINE
  5
DFB
330
C96
100
AcDbEntity
  8
0
 62
     0
380
     1
100
AcDbLine
 10
14.92110557948061
 20
10.22846467683874
 30
0.0
 11
16.24248052530311
 21
11.54983962266124
 31
0.0
  0
LINE
  5
DFC
330
C96
100
AcDbEntity
  8
0
 62
     0
380
     1
100
AcDbLine
 10
8.328107200542831
 20
3.635466297900961
 30
0.0
 11
9.260638961092695
 21
4.567998058450825
 31
0.0
  0
LINE
  5
DFD
330
C96
100
AcDbEntity
  8
0
 62
     0
380
     1
100
AcDbLine
 10
12.19456415188523
 20
7.950936055296779
 30
0.0
 11
12.64516920369684
 21
8.401541107108386
 31
0.0
  0
LINE
  5
DFE
330
C96
100
AcDbEntity
  8
0
 62
     0
380
     1
100
AcDbLine
 10
10.37110557948063
 20
6.127477482892174
 30
0.0
 11
11.77110557948066
 21
7.527477482892209
 31
0.0
  0
LINE
  5
DFF
330
C96
100
AcDbEntity
  8
0
 62
     0
380
     1
100
AcDbLine
 10
14.92110557948064
 20
10.67747748289216
 30
0.0
 11
15.86862777610142
 21
11.62499967951297
 31
0.0
  0
LINE
  5
E00
330
C96
100
AcDbEntity
  8
0
 62
     0
380
     1
100
AcDbLine
 10
7.818627776101351
 20
3.574999679512899
 30
0.0
 11
9.321105579480672
 21
5.07747748289222
 31
0.0
  0
LINE
  5
E01
330
C96
100
AcDbEntity
  8
0
 62
     0
380
     1
100
AcDbLine
 10
10.37110557948063
 20
6.576490288945649
 30
0.0
 11
11.77110557948066
 21
7.976490288945683
 31
0.0
  0
LINE
  5
E02
330
C96
100
AcDbEntity
  8
0
 62
     0
380
     1
100
AcDbLine
 10
14.92110557948061
 20
11.12649028894563
 30
0.0
 11
15.41961497004791
 21
11.62499967951294
 31
0.0
  0
LINE
  5
E03
330
C96
100
AcDbEntity
  8
0
 62
     0
380
     1
100
AcDbLine
 10
7.369614970047905
 20
3.574999679512899
 30
0.0
 11
9.321105579480672
 21
5.526490288945694
 31
0.0
  0
LINE
  5
E04
330
C96
100
AcDbEntity
  8
0
 62
     0
380
     1
100
AcDbLine
 10
10.37110557948063
 20
7.025503094999095
 30
0.0
 11
11.77110557948063
 21
8.425503094999129
 31
0.0
  0
LINE
  5
E05
330
C96
100
AcDbEntity
  8
0
 62
     0
380
     1
100
AcDbLine
 10
6.920602163994431
 20
3.574999679512927
 30
0.0
 11
9.319135903200077
 21
5.973533418718574
 31
0.0
  0
LINE
  5
E06
330
C96
100
AcDbEntity
  8
0
 62
     0
380
     1
100
AcDbLine
 10
10.37110557948063
 20
7.474515901052569
 30
0.0
 11
11.77110557948066
 21
8.874515901052603
 31
0.0
  0
LINE
  5
E07
330
C96
100
AcDbEntity
  8
0
 62
     0
380
     1
100
AcDbLine
 10
13.12158935794102
 20
10.22499967951296
 30
0.0
 11
13.6961055794807
 21
10.79951590105261
 31
0.0
  0
LINE
  5
E08
330
C96
100
AcDbEntity
  8
0
 62
     0
380
     1
100
AcDbLine
 10
6.471589357940985
 20
3.574999679512927
 30
0.0
 11
9.264304985039416
 21
6.367715306611358
 31
0.0
  0
LINE
  5
E09
330
C96
100
AcDbEntity
  8
0
 62
     0
380
     1
100
AcDbLine
 10
10.37110557948063
 20
7.923528707106015
 30
0.0
 11
11.77110557948066
 21
9.323528707106021
 31
0.0
  0
LINE
  5
E0A
330
C96
100
AcDbEntity
  8
0
 62
     0
380
     1
100
AcDbLine
 10
7.921105579480666
 20
5.473528707106055
 30
0.0
 11
9.153135613017354
 21
6.705558740642743
 31
0.0
  0
LINE
  5
E0B
330
C96
100
AcDbEntity
  8
0
 62
     0
380
     1
100
AcDbLine
 10
12.67257655188751
 20
10.2249996795129
 30
0.0
 11
13.69610557948067
 21
11.24852870710606
 31
0.0
  0
LINE
  5
E0C
330
C96
100
AcDbEntity
  8
0
 62
     0
380
     1
100
AcDbLine
 10
6.051439489517491
 20
3.60386261714288
 30
0.0
 11
7.422576551887516
 21
4.974999679512905
 31
0.0
  0
LINE
  5
E0D
330
C96
100
AcDbEntity
  8
0
 62
     0
380
     1
100
AcDbLine
 10
10.3711055794806
 20
8.372541513159461
 30
0.0
 11
11.85401293237049
 21
9.855448866049357
 31
0.0
  0
LINE
  5
E0E
330
C96
100
AcDbEntity
  8
0
 62
     0
380
     1
100
AcDbLine
 10
7.920026033676037
 20
5.921461967354872
 30
0.0
 11
8.998919845681342
 21
7.000355779360205
 31
0.0
  0
LINE
  5
E0F
330
C96
100
AcDbEntity
  8
0
 62
     0
380
     1
100
AcDbLine
 10
12.14065639294426
 20
10.14209232662313
 30
0.0
 11
13.57937187202077
 21
11.5808078056996
 31
0.0
  0
LINE
  5
E10
330
C96
100
AcDbEntity
  8
0
 62
     0
380
     1
100
AcDbLine
 10
5.908605579480621
 20
3.910041513159484
 30
0.0
 11
6.973563745834098
 21
4.974999679512961
 31
0.0
  0
LINE
  5
E11
330
C96
100
AcDbEntity
  8
0
 62
     0
380
     1
100
AcDbLine
 10
7.810224523925683
 20
6.26067326365802
 30
0.0
 11
8.807798863261893
 21
7.258247602994231
 31
0.0
  0
LINE
  5
E12
330
C96
100
AcDbEntity
  8
0
 62
     0
380
     1
100
AcDbLine
 10
10.3711055794806
 20
8.821554319212935
 30
0.0
 11
13.17455093978063
 21
11.62499967951297
 31
0.0
  0
LINE
  5
E13
330
C96
100
AcDbEntity
  8
0
 62
     0
380
     1
100
AcDbLine
 10
5.908605579480621
 20
4.359054319212958
 30
0.0
 11
6.524550939780596
 21
4.974999679512933
 31
0.0
  0
LINE
  5
E14
330
C96
100
AcDbEntity
  8
0
 62
     0
380
     1
100
AcDbLine
 10
7.597097109773329
 20
6.496558655559084
 30
0.0
 11
8.587046603434515
 21
7.48650814922027
 31
0.0
  0
LINE
  5
E15
330
C96
100
AcDbEntity
  8
0
 62
     0
380
     1
100
AcDbLine
 10
10.37110557948063
 20
9.270567125266353
 30
0.0
 11
12.7255381337271
 21
11.62499967951285
 31
0.0
  0
LINE
  5
E16
330
C96
100
AcDbEntity
  8
0
 62
     0
380
     1
100
AcDbLine
 10
5.943081540490538
 20
4.842543086276293
 30
0.0
 11
6.041062172717346
 21
4.940523718503101
 31
0.0
  0
LINE
  5
E17
330
C96
100
AcDbEntity
  8
0
 62
     0
380
     1
100
AcDbLine
 10
10.38109313655891
 20
9.729567488398117
 30
0.0
 11
12.26653777059542
 21
11.61501212243465
 31
0.0
  0
LINE
  5
E18
330
C96
100
AcDbEntity
  8
0
 62
     0
380
     1
100
AcDbLine
 10
7.372590706746592
 20
6.721065058585821
 30
0.0
 11
8.362540200407778
 21
7.711014552247007
 31
0.0
  0
LINE
  5
E19
330
C96
100
AcDbEntity
  8
0
 62
     0
380
     1
100
AcDbLine
 10
10.53082485269181
 20
10.32831201058451
 30
0.0
 11
11.66779324840905
 21
11.46528040630176
 31
0.0
  0
LINE
  5
E1A
330
C96
100
AcDbEntity
  8
0
 62
     0
380
     1
100
AcDbLine
 10
7.148084303719855
 20
6.945571461612559
 30
0.0
 11
8.138033797381041
 21
7.935520955273744
 31
0.0
  0
LINE
  5
E1B
330
C96
100
AcDbEntity
  8
0
 62
     0
380
     1
100
AcDbLine
 10
6.923577900693146
 20
7.170077864639267
 30
0.0
 11
7.913527394354304
 21
8.160027358300396
 31
0.0
  0
LINE
  5
E1C
330
C96
100
AcDbEntity
  8
0
 62
     0
380
     1
100
AcDbLine
 10
6.699071497666409
 20
7.394584267666004
 30
0.0
 11
7.689020991327566
 21
8.384533761327134
 31
0.0
  0
LINE
  5
E1D
330
C96
100
AcDbEntity
  8
0
 62
     0
380
     1
100
AcDbLine
 10
6.474565094639672
 20
7.619090670692742
 30
0.0
 11
7.464514588300829
 21
8.609040164353871
 31
0.0
  0
LINE
  5
E1E
330
C96
100
AcDbEntity
  8
0
 62
     0
380
     1
100
AcDbLine
 10
8.631461297406417
 20
10.22499967951296
 30
0.0
 11
9.058605579480598
 21
10.65214396158714
 31
0.0
  0
LINE
  5
E1F
330
C96
100
AcDbEntity
  8
0
 62
     0
380
     1
100
AcDbLine
 10
6.250100348627
 20
7.843638730733545
 30
0.0
 11
7.240133170343227
 21
8.833671552449771
 31
0.0
  0
LINE
  5
E20
330
C96
100
AcDbEntity
  8
0
 62
     0
380
     1
100
AcDbLine
 10
8.182448491352943
 20
10.2249996795129
 30
0.0
 11
9.058605579480655
 21
11.10115676764062
 31
0.0
  0
LINE
  5
E21
330
C96
100
AcDbEntity
  8
0
 62
     0
380
     1
100
AcDbLine
 10
6.044366386351214
 20
8.086917574511147
 30
0.0
 11
7.075184729699259
 21
9.117735917859221
 31
0.0
  0
LINE
  5
E22
330
C96
100
AcDbEntity
  8
0
 62
     0
380
     1
100
AcDbLine
 10
7.733435685299468
 20
10.2249996795129
 30
0.0
 11
9.015326129600083
 21
11.50689012381352
 31
0.0
  0
LINE
  5
E23
330
C96
100
AcDbEntity
  8
0
 62
     0
380
     1
100
AcDbLine
 10
5.87413608321998
 20
8.365700077433388
 30
0.0
 11
7.046105579480638
 21
9.537669573694074
 31
0.0
  0
LINE
  5
E24
330
C96
100
AcDbEntity
  8
0
 62
     0
380
     1
100
AcDbLine
 10
7.283189554660964
 20
10.22376635492785
 30
0.0
 11
8.684422879246056
 21
11.62499967951294
 31
0.0
  0
LINE
  5
E25
330
C96
100
AcDbEntity
  8
0
 62
     0
380
     1
100
AcDbLine
 10
5.743789435353932
 20
8.684366235620814
 30
0.0
 11
7.047338904065725
 21
9.987915704332635
 31
0.0
  0
LINE
  5
E26
330
C96
100
AcDbEntity
  8
0
 62
     0
380
     1
100
AcDbLine
 10
5.662883454229898
 20
9.052473060550227
 30
0.0
 11
8.23541007319261
 21
11.62499967951294
 31
0.0
  0
LINE
  5
E27
330
C96
100
AcDbEntity
  8
0
 62
     0
380
     1
100
AcDbLine
 10
5.646105579480661
 20
9.484707991854435
 30
0.0
 11
7.786397267139136
 21
11.62499967951294
 31
0.0
  0
LINE
  5
E28
330
C96
100
AcDbEntity
  8
0
 62
     0
380
     1
100
AcDbLine
 10
5.646105579480632
 20
9.933720797907909
 30
0.0
 11
7.33738446108569
 21
11.62499967951294
 31
0.0
  0
LINE
  5
E29
330
C96
100
AcDbEntity
  8
0
 62
     0
380
     1
100
AcDbLine
 10
5.6562015846998
 20
10.39282960918052
 30
0.0
 11
6.878275649813105
 21
11.61490367429383
 31
0.0
  0
ENDBLK
  5
E2B
330
C96
100
AcDbEntity
  8
0
100
AcDbBlockEnd
  0
BLOCK
  5
F84
330
F7A
100
AcDbEntity
  8
0
100
AcDbBlockBegin
  2
*D14
 70
     1
 10
0.0
 20
0.0
 30
0.0
  3
*D14
  1

  0
LINE
  5
FE9
330
F7A
100
AcDbEntity
  8
SUNPOU
  6
Continuous
 62
     4
370
    -2
100
AcDbLine
 10
314.659423544718
 20
104.5960881070546
 30
0.0
 11
290.6099238749693
 21
104.5960881070546
 31
0.0
  0
LINE
  5
FEA
330
F7A
100
AcDbEntity
  8
SUNPOU
  6
Continuous
 62
     4
370
    -2
100
AcDbLine
 10
314.659423544718
 20
74.59609699594347
 30
0.0
 11
290.6099238749693
 21
74.59609699594347
 31
0.0
  0
LINE
  5
FEB
330
F7A
100
AcDbEntity
  8
SUNPOU
  6
Continuous
 62
     4
370
    -2
100
AcDbLine
 10
292.1099238749692
 20
101.5960881070546
 30
0.0
 11
292.1099238749692
 21
77.59609699594347
 31
0.0
  0
INSERT
  5
FEC
330
F7A
100
AcDbEntity
  8
SUNPOU
  6
Continuous
 62
     4
370
    -2
100
AcDbBlockReference
  2
_OPEN
 10
292.1099238749692
 20
104.5960881070546
 30
0.0
 41
3.0
 42
3.0
 43
3.0
 50
90.0
  0
INSERT
  5
FED
330
F7A
100
AcDbEntity
  8
SUNPOU
  6
Continuous
 62
     4
370
    -2
100
AcDbBlockReference
  2
_OPEN
 10
292.1099238749692
 20
74.59609699594347
 30
0.0
 41
3.0
 42
3.0
 43
3.0
 50
270.0
  0
MTEXT
  5
FEE
330
F7A
100
AcDbEntity
  8
SUNPOU
  6
Continuous
 62
     4
100
AcDbMText
 10
289.6099238749692
 20
89.59609255149908
 30
0.0
 40
3.0
 41
0.0
 71
     5
 72
     1
  1
\A1;30
 11
0.0000000000000001
 21
1.0
 31
0.0
 73
     1
 44
1.0
1001
ACAD
1000
MTEXTBEGIN
1070
    73
1070
     1
1070
    44
1040
1.0
1070
    74
1070
     0
1000
MTEXTEND
  0
POINT
  5
FEF
330
F7A
100
AcDbEntity
  8
DEFPOINTS
  6
Continuous
 62
     0
100
AcDbPoint
 10
317.6594235447181
 20
104.5960881070546
 30
0.0
  0
POINT
  5
FF0
330
F7A
100
AcDbEntity
  8
DEFPOINTS
  6
Continuous
 62
     0
100
AcDbPoint
 10
317.6594235447181
 20
74.59609699594347
 30
0.0
  0
POINT
  5
FF1
330
F7A
100
AcDbEntity
  8
DEFPOINTS
  6
Continuous
 62
     0
100
AcDbPoint
 10
292.1099238749692
 20
74.59609699594347
 30
0.0
  0
ENDBLK
  5
F85
330
F7A
100
AcDbEntity
  8
0
100
AcDbBlockEnd
  0
BLOCK
  5
F90
330
F86
100
AcDbEntity
  8
0
100
AcDbBlockBegin
  2
*D15
 70
     1
 10
0.0
 20
0.0
 30
0.0
  3
*D15
  1

  0
LINE
  5
FE0
330
F86
100
AcDbEntity
  8
SUNPOU
  6
Continuous
 62
     4
370
    -2
100
AcDbLine
 10
314.659423544718
 20
100.5960881070545
 30
0.0
 11
300.129723881074
 21
100.5960881070545
 31
0.0
  0
LINE
  5
FE1
330
F86
100
AcDbEntity
  8
SUNPOU
  6
Continuous
 62
     4
370
    -2
100
AcDbLine
 10
314.659423544718
 20
78.59608810705458
 30
0.0
 11
300.129723881074
 21
78.59608810705458
 31
0.0
  0
LINE
  5
FE2
330
F86
100
AcDbEntity
  8
SUNPOU
  6
Continuous
 62
     4
370
    -2
100
AcDbLine
 10
301.629723881074
 20
97.59608810705451
 30
0.0
 11
301.629723881074
 21
81.59608810705458
 31
0.0
  0
INSERT
  5
FE3
330
F86
100
AcDbEntity
  8
SUNPOU
  6
Continuous
 62
     4
370
    -2
100
AcDbBlockReference
  2
_OPEN
 10
301.629723881074
 20
100.5960881070545
 30
0.0
 41
3.0
 42
3.0
 43
3.0
 50
90.0
  0
INSERT
  5
FE4
330
F86
100
AcDbEntity
  8
SUNPOU
  6
Continuous
 62
     4
370
    -2
100
AcDbBlockReference
  2
_OPEN
 10
301.629723881074
 20
78.59608810705458
 30
0.0
 41
3.0
 42
3.0
 43
3.0
 50
270.0
  0
MTEXT
  5
FE5
330
F86
100
AcDbEntity
  8
SUNPOU
  6
Continuous
 62
     4
100
AcDbMText
 10
299.129723881074
 20
89.59608810705459
 30
0.0
 40
3.0
 41
0.0
 71
     5
 72
     1
  1
\A1;22
 11
0.0000000000000001
 21
1.0
 31
0.0
 73
     1
 44
1.0
1001
ACAD
1000
MTEXTBEGIN
1070
    73
1070
     1
1070
    44
1040
1.0
1070
    74
1070
     0
1000
MTEXTEND
  0
POINT
  5
FE6
330
F86
100
AcDbEntity
  8
DEFPOINTS
  6
Continuous
 62
     0
100
AcDbPoint
 10
317.6594235447181
 20
100.5960881070545
 30
0.0
  0
POINT
  5
FE7
330
F86
100
AcDbEntity
  8
DEFPOINTS
  6
Continuous
 62
     0
100
AcDbPoint
 10
317.6594235447181
 20
78.59608810705458
 30
0.0
  0
POINT
  5
FE8
330
F86
100
AcDbEntity
  8
DEFPOINTS
  6
Continuous
 62
     0
100
AcDbPoint
 10
301.629723881074
 20
78.59608810705458
 30
0.0
  0
ENDBLK
  5
F91
330
F86
100
AcDbEntity
  8
0
100
AcDbBlockEnd
  0
BLOCK
  5
F9C
330
F92
100
AcDbEntity
  8
0
100
AcDbBlockBegin
  2
*D16
 70
     1
 10
0.0
 20
0.0
 30
0.0
  3
*D16
  1

  0
LINE
  5
FD7
330
F92
100
AcDbEntity
  8
SUNPOU
  6
Continuous
 62
     4
370
    -2
100
AcDbLine
 10
362.6594235447182
 20
107.5959881070545
 30
0.0
 11
362.6594235447182
 21
131.1730684062871
 31
0.0
  0
LINE
  5
FD8
330
F92
100
AcDbEntity
  8
SUNPOU
  6
Continuous
 62
     4
370
    -2
100
AcDbLine
 10
321.6594235447181
 20
107.5960881070546
 30
0.0
 11
321.6594235447181
 21
131.1730684062871
 31
0.0
  0
LINE
  5
FD9
330
F92
100
AcDbEntity
  8
SUNPOU
  6
Continuous
 62
     4
370
    -2
100
AcDbLine
 10
359.6594235447183
 20
129.6730684062871
 30
0.0
 11
324.659423544718
 21
129.6730684062871
 31
0.0
  0
INSERT
  5
FDA
330
F92
100
AcDbEntity
  8
SUNPOU
  6
Continuous
 62
     4
370
    -2
100
AcDbBlockReference
  2
_OPEN
 10
362.6594235447182
 20
129.6730684062871
 30
0.0
 41
3.0
 42
3.0
 43
3.0
  0
INSERT
  5
FDB
330
F92
100
AcDbEntity
  8
SUNPOU
  6
Continuous
 62
     4
370
    -2
100
AcDbBlockReference
  2
_OPEN
 10
321.6594235447181
 20
129.6730684062871
 30
0.0
 41
3.0
 42
3.0
 43
3.0
 50
180.0
  0
MTEXT
  5
FDC
330
F92
100
AcDbEntity
  8
SUNPOU
  6
Continuous
 62
     4
100
AcDbMText
 10
342.1594235447181
 20
132.1730684062871
 30
0.0
 40
3.0
 41
0.0
 71
     5
 72
     1
  1
\A1;41
 73
     1
 44
1.0
1001
ACAD
1000
MTEXTBEGIN
1070
    73
1070
     1
1070
    44
1040
1.0
1070
    74
1070
     0
1000
MTEXTEND
  0
POINT
  5
FDD
330
F92
100
AcDbEntity
  8
DEFPOINTS
  6
Continuous
 62
     0
100
AcDbPoint
 10
362.6594235447182
 20
104.5959881070545
 30
0.0
  0
POINT
  5
FDE
330
F92
100
AcDbEntity
  8
DEFPOINTS
  6
Continuous
 62
     0
100
AcDbPoint
 10
321.6594235447181
 20
104.5960881070546
 30
0.0
  0
POINT
  5
FDF
330
F92
100
AcDbEntity
  8
DEFPOINTS
  6
Continuous
 62
     0
100
AcDbPoint
 10
321.6594235447181
 20
129.6730684062871
 30
0.0
  0
ENDBLK
  5
F9D
330
F92
100
AcDbEntity
  8
0
100
AcDbBlockEnd
  0
BLOCK
  5
FA8
330
F9E
100
AcDbEntity
  8
0
100
AcDbBlockBegin
  2
*D17
 70
     1
 10
0.0
 20
0.0
 30
0.0
  3
*D17
  1

  0
LINE
  5
FCE
330
F9E
100
AcDbEntity
  8
SUNPOU
  6
Continuous
 62
     4
370
    -2
100
AcDbLine
 10
366.6594235447182
 20
107.5959881070545
 30
0.0
 11
366.6594235447182
 21
140.6849894996167
 31
0.0
  0
LINE
  5
FCF
330
F9E
100
AcDbEntity
  8
SUNPOU
  6
Continuous
 62
     4
370
    -2
100
AcDbLine
 10
317.6594235447181
 20
107.5960881070546
 30
0.0
 11
317.6594235447181
 21
140.6849894996167
 31
0.0
  0
LINE
  5
FD0
330
F9E
100
AcDbEntity
  8
SUNPOU
  6
Continuous
 62
     4
370
    -2
100
AcDbLine
 10
363.6594235447183
 20
139.1849894996167
 30
0.0
 11
320.659423544718
 21
139.1849894996167
 31
0.0
  0
INSERT
  5
FD1
330
F9E
100
AcDbEntity
  8
SUNPOU
  6
Continuous
 62
     4
370
    -2
100
AcDbBlockReference
  2
_OPEN
 10
366.6594235447182
 20
139.1849894996167
 30
0.0
 41
3.0
 42
3.0
 43
3.0
  0
INSERT
  5
FD2
330
F9E
100
AcDbEntity
  8
SUNPOU
  6
Continuous
 62
     4
370
    -2
100
AcDbBlockReference
  2
_OPEN
 10
317.6594235447181
 20
139.1849894996167
 30
0.0
 41
3.0
 42
3.0
 43
3.0
 50
180.0
  0
MTEXT
  5
FD3
330
F9E
100
AcDbEntity
  8
SUNPOU
  6
Continuous
 62
     4
100
AcDbMText
 10
342.1594235447181
 20
141.6849894996166
 30
0.0
 40
3.0
 41
0.0
 71
     5
 72
     1
  1
\A1;49
 73
     1
 44
1.0
1001
ACAD
1000
MTEXTBEGIN
1070
    73
1070
     1
1070
    44
1040
1.0
1070
    74
1070
     0
1000
MTEXTEND
  0
POINT
  5
FD4
330
F9E
100
AcDbEntity
  8
DEFPOINTS
  6
Continuous
 62
     0
100
AcDbPoint
 10
366.6594235447182
 20
104.5959881070545
 30
0.0
  0
POINT
  5
FD5
330
F9E
100
AcDbEntity
  8
DEFPOINTS
  6
Continuous
 62
     0
100
AcDbPoint
 10
317.6594235447181
 20
104.5960881070546
 30
0.0
  0
POINT
  5
FD6
330
F9E
100
AcDbEntity
  8
DEFPOINTS
  6
Continuous
 62
     0
100
AcDbPoint
 10
317.6594235447181
 20
139.1849894996167
 30
0.0
  0
ENDBLK
  5
FA9
330
F9E
100
AcDbEntity
  8
0
100
AcDbBlockEnd
  0
ENDSEC
  0
SECTION
  2
ENTITIES
  0
POINT
  5
1A1
330
1A
100
AcDbEntity
  8
SUNPOU L
  6
Continuous
100
AcDbPoint
 10
205.9553251990115
 20
146.5650665787896
 30
0.0
  0
POINT
  5
1A2
330
1A
100
AcDbEntity
  8
SUNPOU L
  6
Continuous
100
AcDbPoint
 10
205.4553267650655
 20
145.6990402718312
 30
0.0
  0
LINE
  5
475
330
1A
100
AcDbEntity
  8
SEIHIN
 62
     3
 48
16.0
100
AcDbLine
 10
205.0650453795901
 20
190.8959881070544
 30
0.0
 11
215.16494537959
 21
190.8959881070544
 31
0.0
  0
ARC
  5
476
330
1A
100
AcDbEntity
  8
SEIHIN
 62
     3
 48
16.0
100
AcDbCircle
 10
210.46514537959
 20
195.3959881070543
 30
0.0
 40
1.999999999999914
100
AcDbArc
 50
179.9999999999975
 51
269.9999999999976
  0
ARC
  5
477
330
1A
100
AcDbEntity
  8
SEIHIN
 62
     3
 48
16.0
100
AcDbCircle
 10
210.46514537959
 20
204.3959881070546
 30
0.0
 40
1.999999999999914
100
AcDbArc
 50
90.00000000000245
 51
180.0000000000024
  0
LINE
  5
478
330
1A
100
AcDbEntity
  8
SEIHIN
 62
     3
 48
16.0
100
AcDbLine
 10
205.0650453795901
 20
208.8959881070545
 30
0.0
 11
215.16494537959
 21
208.8959881070545
 31
0.0
  0
LINE
  5
479
330
1A
100
AcDbEntity
  8
SEIHIN
 62
     3
 48
16.0
100
AcDbLine
 10
214.4727453795901
 20
121.5016881070545
 30
0.0
 11
209.0980453795903
 21
119.5454881070546
 31
0.0
  0
LINE
  5
47A
330
1A
100
AcDbEntity
  8
SEIHIN
 62
     3
 48
16.0
100
AcDbLine
 10
213.9059453795901
 20
121.5161881070545
 30
0.0
 11
208.9273453795901
 21
120.1821881070545
 31
0.0
  0
LINE
  5
47B
330
1A
100
AcDbEntity
  8
SEIHIN
 62
     3
 48
16.0
100
AcDbLine
 10
213.6989453795902
 20
122.2888881070545
 30
0.0
 11
208.72034537959
 21
120.9548881070545
 31
0.0
  0
ARC
  5
47C
330
1A
100
AcDbEntity
  8
SEIHIN
 62
     3
 48
16.0
100
AcDbCircle
 10
210.1669441487251
 20
110.8960871020565
 30
0.0
 40
0.5000010049994844
100
AcDbArc
 50
89.99985895353493
 51
168.4629469361495
  0
ARC
  5
47D
330
1A
100
AcDbEntity
  8
SEIHIN
 62
     3
 48
16.0
100
AcDbCircle
 10
200.2074332577335
 20
69.5960782092948
 30
0.0
 40
9.999990102247558
100
AcDbArc
 50
270.0000694531918
 51
348.4648415845128
  0
LINE
  5
47E
330
1A
100
AcDbEntity
  8
SEIHIN
 62
     3
 48
16.0
100
AcDbLine
 10
205.6478453795902
 20
87.25218810705456
 30
0.0
 11
210.3302453795901
 21
110.1960881070544
 31
0.0
  0
LINE
  5
47F
330
1A
100
AcDbEntity
  8
SEIHIN
 62
     3
 48
16.0
100
AcDbLine
 10
208.3849453795902
 20
87.1613881070545
 30
0.0
 11
213.1675453795903
 21
110.5960881070545
 31
0.0
  0
LINE
  5
480
330
1A
100
AcDbEntity
  8
NOKITOI
 62
     8
 48
5.0
100
AcDbLine
 10
210.0648453795902
 20
112.8959881070543
 30
0.0
 11
205.0648453795902
 21
88.39608810705454
 31
0.0
  0
LINE
  5
481
330
1A
100
AcDbEntity
  8
NOKITOI
 62
     8
 48
5.0
100
AcDbLine
 10
210.2664453795902
 20
119.8959881070543
 30
0.0
 11
204.0322453795902
 21
89.34858810705453
 31
0.0
  0
LINE
  5
482
330
1A
100
AcDbEntity
  8
SEIHIN
 62
     3
 48
16.0
100
AcDbLine
 10
205.5963453795902
 20
68.49628810705451
 30
0.0
 11
212.3513453795902
 21
101.5955881070545
 31
0.0
  0
LINE
  5
483
330
1A
100
AcDbEntity
  8
CENTER L
 48
5.0
100
AcDbLine
 10
242.5648453795901
 20
199.8960881070546
 30
0.0
 11
126.5841453795901
 21
199.8960881070545
 31
0.0
  0
DIMENSION
  5
484
330
1A
100
AcDbEntity
  8
SUNPOU
100
AcDbDimension
  2
*D1
 10
129.3648453795901
 20
157.7862961222268
 30
0.0
 11
182.4647953795901
 21
160.2862961222268
 31
0.0
 70
    32
 71
     5
 42
-1.0
  3
STANDARD
100
AcDbAlignedDimension
 13
235.5647453795902
 23
104.5960881070546
 33
0.0
 14
129.3648453795901
 24
139.3960881070545
 34
0.0
100
AcDbRotatedDimension
1001
ACAD
1000
DSTYLE
1002
{
1070
   140
1040
3.0
1070
    74
1070
     0
1070
   172
1070
     1
1070
    73
1070
     0
1070
   272
1070
     2
1070
    77
1070
     3
1070
   173
1070
     1
1070
   147
1040
1.0
1070
    42
1040
3.0
1070
    44
1040
1.5
1070
    43
1040
7.0
1070
   271
1070
     0
1070
   178
1070
     4
1070
   177
1070
     4
1070
   176
1070
     4
1070
   141
1040
150.0
1070
     7
1000
_OPEN
1070
     6
1000
_OPEN
1070
    41
1040
3.0
1002
}
  0
LINE
  5
485
330
1A
100
AcDbEntity
  8
SEIHIN
 62
     3
 48
16.0
100
AcDbLine
 10
172.6650453795901
 20
193.3960881070546
 30
0.0
 11
210.65904537959
 21
193.3959881070544
 31
0.0
  0
LINE
  5
486
330
1A
100
AcDbEntity
  8
SEIHIN
 62
     3
 48
16.0
100
AcDbLine
 10
172.6650453795901
 20
206.3960881070546
 30
0.0
 11
210.65904537959
 21
206.3959881070545
 31
0.0
  0
LINE
  5
487
330
1A
100
AcDbEntity
  8
CENTER L
 48
5.0
100
AcDbLine
 10
70.24712015227738
 20
54.72019518257098
 30
0.0
 11
70.24712015227738
 21
145.4538881070544
 31
0.0
  0
LINE
  5
488
330
1A
100
AcDbEntity
  8
SEIHIN
 62
     3
 48
16.0
100
AcDbLine
 10
77.74712015227743
 20
139.3962881070546
 30
0.0
 11
80.24712015227738
 21
139.3962881070546
 31
0.0
  0
LINE
  5
489
330
1A
100
AcDbEntity
  8
SEIHIN
 62
     3
 48
16.0
100
AcDbLine
 10
70.24712015227738
 20
110.5962881070545
 30
0.0
 11
80.24712015227738
 21
110.5962881070545
 31
0.0
  0
ARC
  5
48A
330
1A
100
AcDbEntity
  8
SEIHIN
100
AcDbCircle
 10
76.74712015227743
 20
77.19603976927004
 30
0.0
 40
2.0
100
AcDbArc
 50
270.0
 51
0.0
  0
LINE
  5
48B
330
1A
100
AcDbEntity
  8
SEIHIN
 62
     3
 48
16.0
100
AcDbLine
 10
76.74712015227743
 20
79.09628810705459
 30
0.0
 11
79.24712015227743
 21
79.09628810705459
 31
0.0
  0
LINE
  5
48C
330
1A
100
AcDbEntity
  8
SEIHIN
 62
     3
 48
16.0
100
AcDbLine
 10
79.24712015227743
 20
86.47898810705459
 30
0.0
 11
76.74712015227743
 21
86.47898810705459
 31
0.0
  0
ARC
  5
48D
330
1A
100
AcDbEntity
  8
SEIHIN
100
AcDbCircle
 10
76.74717719421804
 20
61.59608810705458
 30
0.0
 40
2.0
100
AcDbArc
 50
270.0
 51
359.9993096727688
  0
LINE
  5
48E
330
1A
100
AcDbEntity
  8
SEIHIN
 62
     3
 48
16.0
100
AcDbLine
 10
61.24714358942028
 20
86.47898810705459
 30
0.0
 11
61.24722015227741
 21
110.5962881070545
 31
0.0
  0
LINE
  5
48F
330
1A
100
AcDbEntity
  8
SEIHIN
 62
     3
 48
16.0
100
AcDbLine
 10
63.74712015227732
 20
110.5962881070545
 30
0.0
 11
63.74712015227732
 21
79.09628810705459
 31
0.0
  0
LINE
  5
490
330
1A
100
AcDbEntity
  8
SEIHIN
 62
     3
 48
16.0
100
AcDbLine
 10
68.24712015227743
 20
79.09628810705459
 30
0.0
 11
68.24712015227743
 21
110.5962881070545
 31
0.0
  0
LINE
  5
491
330
1A
100
AcDbEntity
  8
SEIHIN
 62
     3
 48
16.0
100
AcDbLine
 10
76.74712015227743
 20
110.5962881070545
 30
0.0
 11
76.74712015227743
 21
79.09628810705459
 31
0.0
  0
LINE
  5
492
330
1A
100
AcDbEntity
  8
SEIHIN
 62
     3
 48
16.0
100
AcDbLine
 10
72.24712015227737
 20
79.09628810705459
 30
0.0
 11
72.24712015227737
 21
110.5962881070545
 31
0.0
  0
LINE
  5
493
330
1A
100
AcDbEntity
  8
SEIHIN
 62
     3
 48
16.0
100
AcDbLine
 10
45.74712015227743
 20
76.59608810705458
 30
0.0
 11
45.74712015227743
 21
102.5964881070545
 31
0.0
  0
ARC
  5
494
330
1A
100
AcDbEntity
  8
SEIHIN
100
AcDbCircle
 10
47.74712015227743
 20
76.59608810705458
 30
0.0
 40
2.0
100
AcDbArc
 50
180.0
 51
270.0
  0
LINE
  5
495
330
1A
100
AcDbEntity
  8
SEIHIN
 62
     3
 48
16.0
100
AcDbLine
 10
61.7470953378446
 20
61.59608810705458
 30
0.0
 11
61.74709533784462
 21
76.95440464900227
 31
0.0
  0
ARC
  5
496
330
1A
100
AcDbEntity
  8
SEIHIN
100
AcDbCircle
 10
63.7470953378446
 20
61.59608810705458
 30
0.0
 40
2.0
100
AcDbArc
 50
179.9999999999999
 51
270.0
  0
LINE
  5
497
330
1A
100
AcDbEntity
  8
SEIHIN
100
AcDbLine
 10
76.74717719421804
 20
59.59608810705458
 30
0.0
 11
63.7470953378446
 21
59.59608810705458
 31
0.0
  0
LINE
  5
498
330
1A
100
AcDbEntity
  8
SEIHIN
 62
     3
 48
16.0
100
AcDbLine
 10
61.24712015227743
 20
86.47898810705459
 30
0.0
 11
63.74712015227732
 21
86.47898810705459
 31
0.0
  0
LINE
  5
499
330
1A
100
AcDbEntity
  8
SEIHIN
 62
     3
 48
16.0
100
AcDbLine
 10
63.74712015227732
 20
79.09628810705459
 30
0.0
 11
61.24712015227743
 21
79.09628810705459
 31
0.0
  0
ARC
  5
49A
330
1A
100
AcDbEntity
  8
SEIHIN
100
AcDbCircle
 10
63.74702015227746
 20
77.19603976927004
 30
0.0
 40
2.0
100
AcDbArc
 50
180.0
 51
270.0
  0
ARC
  5
49B
330
1A
100
AcDbEntity
  8
SEIHIN
100
AcDbCircle
 10
42.25678240399685
 20
82.78769839387829
 30
0.0
 40
19.34578604501347
100
AcDbArc
 50
348.9998181086365
 51
10.99981810863648
  0
LINE
  5
49C
330
1A
100
AcDbEntity
  8
CENTER L
 48
5.0
100
AcDbLine
 10
49.74712015227743
 20
75.63328810705451
 30
0.0
 11
49.74712015227743
 21
83.59584364530148
 31
0.0
  0
LINE
  5
49D
330
1A
100
AcDbEntity
  8
SEIHIN
100
AcDbLine
 10
61.74702015227746
 20
74.59608810705455
 30
0.0
 11
47.74712015227743
 21
74.59608810705458
 31
0.0
  0
LINE
  5
4A0
330
1A
100
AcDbEntity
  8
CENTER L
 48
5.0
100
AcDbLine
 10
46.59952015227742
 20
78.59648810705451
 30
0.0
 11
53.44982015227737
 21
78.59648810705451
 31
0.0
  0
LINE
  5
4A1
330
1A
100
AcDbEntity
  8
SEIHIN
 62
     3
 48
16.0
100
AcDbLine
 10
59.28382015227743
 20
78.59648810705451
 30
0.0
 11
61.74712015227732
 21
76.95438810705451
 31
0.0
  0
LINE
  5
4A2
330
1A
100
AcDbEntity
  8
SEIHIN
 62
     3
 48
16.0
100
AcDbLine
 10
61.74702015227746
 20
77.19603976927004
 30
0.0
 11
61.74702015227746
 21
79.09628810705459
 31
0.0
  0
LINE
  5
4A3
330
1A
100
AcDbEntity
  8
SEIHIN
 62
     3
 48
16.0
100
AcDbLine
 10
59.28382015227743
 20
78.59648810705451
 30
0.0
 11
61.40191144671291
 21
80.00858493142507
 31
0.0
  0
LINE
  5
4A4
330
1A
100
AcDbEntity
  8
SEIHIN
 62
     3
 48
16.0
100
AcDbLine
 10
70.24712015227738
 20
79.09628810705459
 30
0.0
 11
72.24712015227737
 21
79.09628810705459
 31
0.0
  0
LINE
  5
4A5
330
1A
100
AcDbEntity
  8
SEIHIN
 62
     3
 48
16.0
100
AcDbLine
 10
70.24712015227738
 20
76.39628810705457
 30
0.0
 11
74.49712015227743
 21
76.3957881070545
 31
0.0
  0
LINE
  5
4A6
330
1A
100
AcDbEntity
  8
SEIHIN
 62
     3
 48
16.0
100
AcDbLine
 10
70.24712015227738
 20
75.19603976927005
 30
0.0
 11
76.74712015227743
 21
75.19603976927001
 31
0.0
  0
LINE
  5
4A7
330
1A
100
AcDbEntity
  8
SEIHIN
 62
     3
 48
16.0
100
AcDbLine
 10
70.24712015227738
 20
74.19603976926996
 30
0.0
 11
74.24712015227754
 21
74.19603976926996
 31
0.0
  0
LINE
  5
4A8
330
1A
100
AcDbEntity
  8
SEIHIN
100
AcDbLine
 10
76.74712015227743
 20
75.19603976927005
 30
0.0
 11
63.74702015227746
 21
75.19603976927005
 31
0.0
  0
LINE
  5
4A9
330
1A
100
AcDbEntity
  8
SEIHIN
100
AcDbLine
 10
76.54712015227744
 20
76.39621331693044
 30
0.0
 11
63.94702015227744
 21
76.39621331693044
 31
0.0
  0
ARC
  5
4AA
330
1A
100
AcDbEntity
  8
SEIHIN
 48
16.0
100
AcDbCircle
 10
63.94702015227744
 20
77.39621331693044
 30
0.0
 40
1.0
100
AcDbArc
 50
180.0
 51
270.0
  0
ARC
  5
4AB
330
1A
100
AcDbEntity
  8
SEIHIN
 62
     3
 48
16.0
100
AcDbCircle
 10
65.99712015227737
 20
78.68338810705458
 30
0.0
 40
2.287572164981949
100
AcDbArc
 50
169.6012878060621
 51
10.39871219393786
  0
LINE
  5
4AC
330
1A
100
AcDbEntity
  8
SEIHIN
 62
     3
 48
16.0
100
AcDbLine
 10
70.24712015227738
 20
75.19603976927005
 30
0.0
 11
63.74702015227746
 21
75.19603976927005
 31
0.0
  0
LINE
  5
4AD
330
1A
100
AcDbEntity
  8
SEIHIN
 62
     3
 48
16.0
100
AcDbLine
 10
70.24712015227738
 20
74.19603976926996
 30
0.0
 11
66.24712015227737
 21
74.19603976926996
 31
0.0
  0
LINE
  5
4AE
330
1A
100
AcDbEntity
  8
SEIHIN
 62
     3
 48
16.0
100
AcDbLine
 10
70.24712015227738
 20
76.39628810705457
 30
0.0
 11
65.99712015227737
 21
76.3957881070545
 31
0.0
  0
LINE
  5
4AF
330
1A
100
AcDbEntity
  8
SEIHIN
 62
     3
 48
16.0
100
AcDbLine
 10
66.24712015227737
 20
74.19603976926996
 30
0.0
 11
66.24712015227737
 21
75.19603976927005
 31
0.0
  0
LINE
  5
4B0
330
1A
100
AcDbEntity
  8
SEIHIN
 62
     3
 48
16.0
100
AcDbLine
 10
62.94702015227745
 20
77.39621331693044
 30
0.0
 11
62.94702015227745
 21
79.09628810705459
 31
0.0
  0
LINE
  5
4B1
330
1A
100
AcDbEntity
  8
SEIHIN
 62
     3
 48
16.0
100
AcDbLine
 10
70.24712015227738
 20
79.09628810705459
 30
0.0
 11
68.24712015227743
 21
79.09628810705459
 31
0.0
  0
ARC
  5
4B2
330
1A
100
AcDbEntity
  8
SEIHIN
 62
     3
 48
16.0
100
AcDbCircle
 10
74.49712015227743
 20
78.68328810705458
 30
0.0
 40
2.287590216800233
100
AcDbArc
 50
169.5988243086145
 51
10.40117569138549
  0
ARC
  5
4B3
330
1A
100
AcDbEntity
  8
SEIHIN
100
AcDbCircle
 10
76.54712015227744
 20
77.39621331693044
 30
0.0
 40
1.0
100
AcDbArc
 50
270.0
 51
0.0
  0
LINE
  5
4B4
330
1A
100
AcDbEntity
  8
SEIHIN
 62
     3
 48
16.0
100
AcDbLine
 10
74.24712015227754
 20
74.19603976926996
 30
0.0
 11
74.24712015227754
 21
75.19603976927005
 31
0.0
  0
LINE
  5
4B5
330
1A
100
AcDbEntity
  8
SEIHIN
 62
     3
 48
16.0
100
AcDbLine
 10
77.54712015227744
 20
77.39621331693044
 30
0.0
 11
77.54712015227744
 21
79.09628810705459
 31
0.0
  0
LINE
  5
4B6
330
1A
100
AcDbEntity
  8
SEIHIN
 62
     3
 48
16.0
100
AcDbLine
 10
72.24712015227737
 20
86.47898810705459
 30
0.0
 11
70.24712015227738
 21
86.47898810705459
 31
0.0
  0
ARC
  5
4B7
330
1A
100
AcDbEntity
  8
SEIHIN
100
AcDbCircle
 10
65.99712015227734
 20
88.51023810705497
 30
0.0
 40
3.031250000000258
100
AcDbArc
 50
222.0750220508483
 51
317.9249779491518
  0
LINE
  5
4B8
330
1A
100
AcDbEntity
  8
SEIHIN
 62
     3
 48
16.0
100
AcDbLine
 10
68.24712015227743
 20
86.47898810705459
 30
0.0
 11
70.24712015227738
 21
86.47898810705459
 31
0.0
  0
ARC
  5
4B9
330
1A
100
AcDbEntity
  8
SEIHIN
100
AcDbCircle
 10
74.4971201522774
 20
88.51023810705497
 30
0.0
 40
3.031250000000258
100
AcDbArc
 50
222.0750220508482
 51
317.9249779491517
  0
ARC
  5
4BA
330
1A
100
AcDbEntity
  8
SEIHIN
 62
     3
 48
16.0
100
AcDbCircle
 10
47.74712015227743
 20
102.5964881070545
 30
0.0
 40
2.000000000000028
100
AcDbArc
 50
90.00000000000081
 51
180.0000000000008
  0
ARC
  5
4BB
330
1A
100
AcDbEntity
  8
SEIHIN
 62
     3
 48
16.0
100
AcDbCircle
 10
76.05071803161087
 20
118.4340820545699
 30
0.0
 40
0.800025715204779
100
AcDbArc
 50
287.8780947427192
 51
33.50363048265248
  0
LINE
  5
4BC
330
1A
100
AcDbEntity
  8
SEIHIN
 62
     3
 48
16.0
100
AcDbLine
 10
75.61032015227744
 20
119.1018881070545
 30
0.0
 11
72.54812015227741
 21
117.0824881070545
 31
0.0
  0
ARC
  5
4BD
330
1A
100
AcDbEntity
  8
SEIHIN
 62
     3
 48
16.0
100
AcDbCircle
 10
64.44362227294397
 20
118.4340820545699
 30
0.0
 40
0.8000257152047899
100
AcDbArc
 50
146.4963695173485
 51
252.1219052572798
  0
LINE
  5
4BE
330
1A
100
AcDbEntity
  8
SEIHIN
 62
     3
 48
16.0
100
AcDbLine
 10
64.8840201522774
 20
119.1018881070545
 30
0.0
 11
67.94622015227736
 21
117.0825881070546
 31
0.0
  0
LINE
  5
4BF
330
1A
100
AcDbEntity
  8
SEIHIN
 62
     3
 48
16.0
100
AcDbLine
 10
60.24712015227743
 20
139.3962881070546
 30
0.0
 11
60.24712015227743
 21
110.5962881070545
 31
0.0
  0
LINE
  5
4C0
330
1A
100
AcDbEntity
  8
SEIHIN
 62
     3
 48
16.0
100
AcDbLine
 10
70.24712015227738
 20
110.5962881070545
 30
0.0
 11
60.24712015227743
 21
110.5962881070545
 31
0.0
  0
LINE
  5
4C1
330
1A
100
AcDbEntity
  8
SEIHIN
 62
     3
 48
16.0
100
AcDbLine
 10
47.74712015227743
 20
104.5964881070545
 30
0.0
 11
59.74712015227732
 21
104.5964881070545
 31
0.0
  0
LINE
  5
4C6
330
1A
100
AcDbEntity
  8
SEIHIN
 62
     3
 48
16.0
100
AcDbLine
 10
59.28382015227743
 20
100.5964881070545
 30
0.0
 11
61.24712015227743
 21
99.28768810705458
 31
0.0
  0
LINE
  5
4C7
330
1A
100
AcDbEntity
  8
SEIHIN
 62
     3
 48
16.0
100
AcDbLine
 10
61.24712015227743
 20
101.9053881070546
 30
0.0
 11
59.28382015227743
 21
100.5964881070545
 31
0.0
  0
ARC
  5
4C8
330
1A
100
AcDbEntity
  8
SEIHIN
 62
     3
 48
16.0
100
AcDbCircle
 10
59.74713798795773
 20
106.5964961582722
 30
0.0
 40
2.000008051297204
100
AcDbArc
 50
269.9994890474509
 51
318.5893438791716
  0
LINE
  5
4C9
330
1A
100
AcDbEntity
  8
SEIHIN
 62
     3
 48
16.0
100
AcDbLine
 10
61.24712015227743
 20
106.5964881070545
 30
0.0
 11
61.24712015227743
 21
110.5962881070545
 31
0.0
  0
ARC
  5
4CA
330
1A
100
AcDbEntity
  8
SEIHIN
 62
     3
 48
16.0
100
AcDbCircle
 10
70.24712015227743
 20
115.2300881070545
 30
0.0
 40
1.0
100
AcDbArc
 50
180.0
 51
0.0
  0
ARC
  5
4CB
330
1A
100
AcDbEntity
  8
SEIHIN
 62
     3
 48
16.0
100
AcDbCircle
 10
70.24712015227743
 20
115.2300881070545
 30
0.0
 40
1.0
100
AcDbArc
 50
0.0
 51
180.0
  0
LINE
  5
4CC
330
1A
100
AcDbEntity
  8
SEIHIN
 62
     3
 48
16.0
100
AcDbLine
 10
64.19802015227748
 20
117.6726881070546
 30
0.0
 11
67.68892015227738
 21
116.5465881070546
 31
0.0
  0
LINE
  5
4CD
330
1A
100
AcDbEntity
  8
SEIHIN
 62
     3
 48
16.0
100
AcDbLine
 10
64.82552015227742
 20
112.8928881070546
 30
0.0
 11
67.76572015227742
 21
114.1533881070545
 31
0.0
  0
LINE
  5
4CE
330
1A
100
AcDbEntity
  8
SEIHIN
 62
     3
 48
16.0
100
AcDbLine
 10
64.43452015227745
 20
114.4244881070545
 30
0.0
 11
67.61912015227744
 21
114.7277881070545
 31
0.0
  0
ARC
  5
4CF
330
1A
100
AcDbEntity
  8
SEIHIN
 62
     3
 48
16.0
100
AcDbCircle
 10
64.51030698788724
 20
113.6280694134843
 30
0.0
 40
0.8000164872799842
100
AcDbArc
 50
95.43587150629416
 51
194.2540355357124
  0
ARC
  5
4D0
330
1A
100
AcDbEntity
  8
SEIHIN
 62
     3
 48
16.0
100
AcDbCircle
 10
64.51025228805065
 20
113.6281216025475
 30
0.0
 40
0.7999763240926829
100
AcDbArc
 50
194.2586229597526
 51
293.2096365854149
  0
ARC
  5
4D1
330
1A
100
AcDbEntity
  8
SEIHIN
 62
     3
 48
16.0
100
AcDbCircle
 10
67.78104081953205
 20
116.8320969470827
 30
0.0
 40
0.3000025251054667
100
AcDbArc
 50
252.1174788821511
 51
334.1918515621318
  0
ARC
  5
4D2
330
1A
100
AcDbEntity
  8
SEIHIN
 62
     3
 48
16.0
100
AcDbCircle
 10
67.78100976876993
 20
116.8321258157139
 30
0.0
 40
0.3000430472487118
100
AcDbArc
 50
334.1894701277514
 51
56.59028629094067
  0
ARC
  5
4D3
330
1A
100
AcDbEntity
  8
SEIHIN
 62
     3
 48
16.0
100
AcDbCircle
 10
67.64752851884674
 20
114.4291041980825
 30
0.0
 40
0.299981041175569
100
AcDbArc
 50
293.2034348480801
 51
11.84663221982885
  0
ARC
  5
4D4
330
1A
100
AcDbEntity
  8
SEIHIN
 62
     3
 48
16.0
100
AcDbCircle
 10
67.64748719473454
 20
114.4291123696913
 30
0.0
 40
0.3000198079914623
100
AcDbArc
 50
11.84348477016939
 51
95.42545266668946
  0
LINE
  5
4D5
330
1A
100
AcDbEntity
  8
SEIHIN
 62
     3
 48
16.0
100
AcDbLine
 10
76.29632015227736
 20
117.6726881070546
 30
0.0
 11
72.80532015227738
 21
116.5465881070546
 31
0.0
  0
LINE
  5
4D6
330
1A
100
AcDbEntity
  8
SEIHIN
 62
     3
 48
16.0
100
AcDbLine
 10
75.66872015227744
 20
112.8928881070546
 30
0.0
 11
72.72852015227744
 21
114.1533881070545
 31
0.0
  0
LINE
  5
4D7
330
1A
100
AcDbEntity
  8
SEIHIN
 62
     3
 48
16.0
100
AcDbLine
 10
76.05982015227744
 20
114.4244881070545
 30
0.0
 11
72.87512015227736
 21
114.7277881070545
 31
0.0
  0
ARC
  5
4D8
330
1A
100
AcDbEntity
  8
SEIHIN
 62
     3
 48
16.0
100
AcDbCircle
 10
72.7131994850227
 20
116.8320969470827
 30
0.0
 40
0.3000025251054921
100
AcDbArc
 50
205.8081484378691
 51
287.8825211178544
  0
ARC
  5
4D9
330
1A
100
AcDbEntity
  8
SEIHIN
 62
     3
 48
16.0
100
AcDbCircle
 10
72.71321944339002
 20
116.8320855340636
 30
0.0
 40
0.3000155245999117
100
AcDbArc
 50
123.3877677239414
 51
205.8045268241577
  0
ARC
  5
4DA
330
1A
100
AcDbEntity
  8
SEIHIN
 62
     3
 48
16.0
100
AcDbCircle
 10
72.84671178570807
 20
114.4291041980826
 30
0.0
 40
0.2999810411755898
100
AcDbArc
 50
168.1533677801787
 51
246.7965651519275
  0
ARC
  5
4DB
330
1A
100
AcDbEntity
  8
SEIHIN
 62
     3
 48
16.0
100
AcDbCircle
 10
72.84675310982027
 20
114.4291123696913
 30
0.0
 40
0.3000198079914624
100
AcDbArc
 50
84.57454733331053
 51
168.1565152298305
  0
ARC
  5
4DC
330
1A
100
AcDbEntity
  8
SEIHIN
 62
     3
 48
16.0
100
AcDbCircle
 10
75.98392972189469
 20
113.6280745163028
 30
0.0
 40
0.8000212278168758
100
AcDbArc
 50
345.7456736522073
 51
84.55670800694489
  0
ARC
  5
4DD
330
1A
100
AcDbEntity
  8
SEIHIN
 62
     3
 48
16.0
100
AcDbCircle
 10
75.98398801650422
 20
113.6281216025475
 30
0.0
 40
0.7999763240926832
100
AcDbArc
 50
246.7903634145851
 51
345.7413770402474
  0
LINE
  5
4DE
330
1A
100
AcDbEntity
  8
SEIHIN
 62
     3
 48
16.0
100
AcDbLine
 10
62.74722015227741
 20
139.3962881070546
 30
0.0
 11
60.24712015227743
 21
139.3962881070546
 31
0.0
  0
LINE
  5
4DF
330
1A
100
AcDbEntity
  8
SEIHIN
 62
     3
 48
16.0
100
AcDbLine
 10
63.74712015227732
 20
122.3962881070546
 30
0.0
 11
63.74722015227741
 21
138.3962881070545
 31
0.0
  0
LINE
  5
4E0
330
1A
100
AcDbEntity
  8
SEIHIN
 62
     3
 48
16.0
100
AcDbLine
 10
76.74712015227743
 20
122.3962881070546
 30
0.0
 11
76.74712015227743
 21
138.3962881070545
 31
0.0
  0
LINE
  5
4E1
330
1A
100
AcDbEntity
  8
SEIHIN
 62
     3
 48
16.0
100
AcDbLine
 10
70.24712015227738
 20
120.3962881070546
 30
0.0
 11
74.74712015227743
 21
120.3962881070546
 31
0.0
  0
LINE
  5
4E2
330
1A
100
AcDbEntity
  8
SEIHIN
 62
     3
 48
16.0
100
AcDbLine
 10
76.74712015227743
 20
122.8962881070545
 30
0.0
 11
63.74712015227732
 21
122.8962881070545
 31
0.0
  0
LINE
  5
4E3
330
1A
100
AcDbEntity
  8
SEIHIN
100
AcDbLine
 10
76.13371825915618
 20
120.9549881070545
 30
0.0
 11
64.36052204539857
 21
120.9549881070545
 31
0.0
  0
LINE
  5
4E4
330
1A
100
AcDbEntity
  8
SEIHIN
 62
     3
 48
16.0
100
AcDbLine
 10
70.24722015227741
 20
120.3962881070546
 30
0.0
 11
65.74712015227738
 21
120.3962881070546
 31
0.0
  0
ARC
  5
4E5
330
1A
100
AcDbEntity
  8
SEIHIN
 62
     3
 48
16.0
100
AcDbCircle
 10
64.44356642566845
 20
118.434077131013
 30
0.0
 40
0.7999818654227617
100
AcDbArc
 50
56.59321228744
 51
146.4938675945977
  0
ARC
  5
4E6
330
1A
100
AcDbEntity
  8
SEIHIN
 62
     3
 48
16.0
100
AcDbCircle
 10
65.74712015227738
 20
122.3962881070546
 30
0.0
 40
2.000000000000014
100
AcDbArc
 50
180.0000000000004
 51
270.0000000000004
  0
ARC
  5
4E7
330
1A
100
AcDbEntity
  8
SEIHIN
 62
     3
 48
16.0
100
AcDbCircle
 10
76.05077387888639
 20
118.4340771310131
 30
0.0
 40
0.7999818654227227
100
AcDbArc
 50
33.50613240540168
 51
123.4067877125594
  0
ARC
  5
4E8
330
1A
100
AcDbEntity
  8
SEIHIN
 62
     3
 48
16.0
100
AcDbCircle
 10
74.74712015227743
 20
122.3962881070546
 30
0.0
 40
2.0
100
AcDbArc
 50
270.0
 51
0.0
  0
ARC
  5
4E9
330
1A
100
AcDbEntity
  8
SEIHIN
 62
     3
 48
16.0
100
AcDbCircle
 10
62.74722015227741
 20
138.3962881070545
 30
0.0
 40
1.000000000000028
100
AcDbArc
 50
359.9999999999984
 51
89.99999999999836
  0
ARC
  5
4EA
330
1A
100
AcDbEntity
  8
SEIHIN
 62
     3
 48
16.0
100
AcDbCircle
 10
77.74712015227743
 20
138.3962881070545
 30
0.0
 40
1.000000000000028
100
AcDbArc
 50
90.00000000000161
 51
180.0000000000016
  0
DIMENSION
  5
4EB
330
1A
100
AcDbEntity
  8
SUNPOU
100
AcDbDimension
  2
*D2
 10
110.8248905023399
 20
79.89608810705448
 30
0.0
 11
108.3248905023398
 21
109.6460881070545
 31
0.0
 70
    32
 71
     5
 42
-1.0
  3
STANDARD
100
AcDbAlignedDimension
 13
129.3648453795901
 23
139.3960881070545
 33
0.0
 14
147.7360453795901
 24
79.89608810705448
 34
0.0
 50
90.0
100
AcDbRotatedDimension
1001
ACAD
1000
DSTYLE
1002
{
1070
   140
1040
3.0
1070
    74
1070
     0
1070
   172
1070
     1
1070
    73
1070
     0
1070
   272
1070
     2
1070
    77
1070
     3
1070
   173
1070
     1
1070
   147
1040
1.0
1070
    42
1040
3.0
1070
    44
1040
1.5
1070
    43
1040
7.0
1070
   271
1070
     0
1070
   178
1070
     4
1070
   177
1070
     4
1070
   176
1070
     4
1070
   141
1040
150.0
1070
     7
1000
_OPEN
1070
     6
1000
_OPEN
1070
    41
1040
3.0
1002
}
  0
ARC
  5
4EC
330
1A
100
AcDbEntity
  8
SEIHIN
 62
     3
 48
16.0
100
AcDbCircle
 10
148.114543436927
 20
80.89608955149856
 30
0.0
 40
4.500001444444471
100
AcDbArc
 50
196.7356113084874
 51
270.0000247347489
  0
ARC
  5
4ED
330
1A
100
AcDbEntity
  8
NOKITOI
 62
     8
 48
5.0
100
AcDbCircle
 10
137.5805412667201
 20
77.72869242302533
 30
0.0
 40
10.99994632941524
100
AcDbArc
 50
11.36374015671925
 51
75.87555169639184
  0
ARC
  5
4EE
330
1A
100
AcDbEntity
  8
NOKITOI
 62
     8
 48
5.0
100
AcDbCircle
 10
137.580503592614
 20
77.7287121019435
 30
0.0
 40
12.19997945109428
100
AcDbArc
 50
48.00719042627341
 51
72.26181654227993
  0
ARC
  5
4EF
330
1A
100
AcDbEntity
  8
SEIHIN
 62
     3
 48
16.0
100
AcDbCircle
 10
137.5804725379434
 20
77.72865890072015
 30
0.0
 40
9.200009032105382
100
AcDbArc
 50
13.420784641001
 51
72.4178547750753
  0
ARC
  5
4F0
330
1A
100
AcDbEntity
  8
SEIHIN
 62
     3
 48
16.0
100
AcDbCircle
 10
137.5804455345001
 20
77.7286879414215
 30
0.0
 40
9.99996398068519
100
AcDbArc
 50
14.71676328417625
 51
71.45126755184577
  0
LINE
  5
4F1
330
1A
100
AcDbEntity
  8
SEIHIN
 62
     3
 48
16.0
100
AcDbLine
 10
139.6817453795901
 20
87.25218810705456
 30
0.0
 11
134.9993453795902
 21
110.1960881070544
 31
0.0
  0
LINE
  5
4F2
330
1A
100
AcDbEntity
  8
SEIHIN
 62
     3
 48
16.0
100
AcDbLine
 10
136.9446453795901
 20
87.1613881070545
 30
0.0
 11
132.1620453795902
 21
110.5960881070545
 31
0.0
  0
LINE
  5
4F3
330
1A
100
AcDbEntity
  8
SEIHIN
 62
     3
 48
16.0
100
AcDbLine
 10
135.6526453795902
 20
110.9960881070545
 30
0.0
 11
140.4307453795901
 21
87.58328810705458
 31
0.0
  0
LINE
  5
4F4
330
1A
100
AcDbEntity
  8
NOKITOI
 62
     8
 48
5.0
100
AcDbLine
 10
135.2649453795902
 20
112.8960881070545
 30
0.0
 11
140.2648453795903
 21
88.39608810705454
 31
0.0
  0
LINE
  5
4F5
330
1A
100
AcDbEntity
  8
NOKITOI
 62
     8
 48
5.0
100
AcDbLine
 10
135.0633453795901
 20
119.8960881070545
 30
0.0
 11
141.2974453795901
 21
89.34868810705443
 31
0.0
  0
LINE
  5
4F6
330
1A
100
AcDbEntity
  8
SEIHIN
 62
     3
 48
16.0
100
AcDbLine
 10
79.24712015227743
 20
86.47898810705459
 30
0.0
 11
79.24712015227743
 21
110.5962881070545
 31
0.0
  0
LINE
  5
4F7
330
1A
100
AcDbEntity
  8
SEIHIN
 62
     3
 48
16.0
100
AcDbLine
 10
94.74712015227732
 20
76.59608810705456
 30
0.0
 11
94.74712015227732
 21
102.5964881070545
 31
0.0
  0
LINE
  5
4F8
330
1A
100
AcDbEntity
  8
SEIHIN
 62
     3
 48
16.0
100
AcDbLine
 10
78.74717719407289
 20
61.59606401008838
 30
0.0
 11
78.74736223932089
 21
76.95444949841681
 31
0.0
  0
ARC
  5
4F9
330
1A
100
AcDbEntity
  8
SEIHIN
100
AcDbCircle
 10
92.74712015227732
 20
76.59608810705456
 30
0.0
 40
2.0
100
AcDbArc
 50
270.0
 51
0.0
  0
ARC
  5
4FA
330
1A
100
AcDbEntity
  8
SEIHIN
100
AcDbCircle
 10
98.23746961912945
 20
82.78763810705459
 30
0.0
 40
19.34578604491599
100
AcDbArc
 50
169.0
 51
191.0
  0
LINE
  5
4FC
330
1A
100
AcDbEntity
  8
SEIHIN
100
AcDbLine
 10
92.74712015227732
 20
74.59608810705455
 30
0.0
 11
78.74712015227743
 21
74.59608810705455
 31
0.0
  0
LINE
  5
4FD
330
1A
100
AcDbEntity
  8
SEIHIN
 62
     3
 48
16.0
100
AcDbLine
 10
81.21042015227732
 20
78.59648810705451
 30
0.0
 11
78.74712015227743
 21
76.9542881070545
 31
0.0
  0
LINE
  5
4FE
330
1A
100
AcDbEntity
  8
SEIHIN
 62
     3
 48
16.0
100
AcDbLine
 10
81.21042015227732
 20
78.59648810705451
 30
0.0
 11
79.09233214329953
 21
80.00858274106425
 31
0.0
  0
LINE
  5
4FF
330
1A
100
AcDbEntity
  8
SEIHIN
 62
     3
 48
16.0
100
AcDbLine
 10
78.74712015227743
 20
77.19603976927004
 30
0.0
 11
78.74712015227743
 21
79.09628810705459
 31
0.0
  0
ARC
  5
503
330
1A
100
AcDbEntity
  8
SEIHIN
 62
     3
 48
16.0
100
AcDbCircle
 10
137.5804373157239
 20
77.72869665331206
 30
0.0
 40
6.499988080764673
100
AcDbArc
 50
16.73452782795861
 51
69.9382530944931
  0
ARC
  5
504
330
1A
100
AcDbEntity
  8
SEIHIN
 62
     3
 48
16.0
100
AcDbCircle
 10
140.6615377394598
 20
87.45219659838571
 30
0.0
 40
0.9999982325302557
100
AcDbArc
 50
191.5374762553438
 51
252.4226596736234
  0
ARC
  5
505
330
1A
100
AcDbEntity
  8
SEIHIN
 62
     3
 48
16.0
100
AcDbCircle
 10
141.3537142974863
 20
88.06122419681187
 30
0.0
 40
4.499954856572312
100
AcDbArc
 50
191.5349463422625
 51
249.9390998899517
  0
ARC
  5
506
330
1A
100
AcDbEntity
  8
SEIHIN
 62
     3
 48
16.0
100
AcDbCircle
 10
140.9206498830926
 20
87.68318301418807
 30
0.0
 40
0.4999854148105
100
AcDbArc
 50
191.5250090135034
 51
251.4447912417337
  0
LINE
  5
507
330
1A
100
AcDbEntity
  8
SEIHIN
 62
     3
 48
16.0
100
AcDbLine
 10
80.24712015227738
 20
139.3962881070546
 30
0.0
 11
80.24712015227738
 21
110.5962881070545
 31
0.0
  0
ARC
  5
508
330
1A
100
AcDbEntity
  8
SEIHIN
 62
     3
 48
16.0
100
AcDbCircle
 10
92.74712015227732
 20
102.5964881070545
 30
0.0
 40
2.000000000000028
100
AcDbArc
 50
359.9999999999992
 51
89.9999999999992
  0
LINE
  5
509
330
1A
100
AcDbEntity
  8
SEIHIN
 62
     3
 48
16.0
100
AcDbLine
 10
92.74712015227732
 20
104.5964881070545
 30
0.0
 11
80.74712015227744
 21
104.5964881070545
 31
0.0
  0
LINE
  5
50A
330
1A
100
AcDbEntity
  8
SEIHIN
 62
     3
 48
16.0
100
AcDbLine
 10
81.21042015227732
 20
100.5964881070545
 30
0.0
 11
79.24712015227743
 21
99.28768810705458
 31
0.0
  0
LINE
  5
50B
330
1A
100
AcDbEntity
  8
SEIHIN
 62
     3
 48
16.0
100
AcDbLine
 10
79.24712015227743
 20
101.9053881070546
 30
0.0
 11
81.21042015227732
 21
100.5964881070545
 31
0.0
  0
ARC
  5
50C
330
1A
100
AcDbEntity
  8
SEIHIN
 62
     3
 48
16.0
100
AcDbCircle
 10
80.74710231659707
 20
106.5964961582721
 30
0.0
 40
2.000008051297107
100
AcDbArc
 50
221.4106561208272
 51
270.0005109525479
  0
LINE
  5
511
330
1A
100
AcDbEntity
  8
SEIHIN
 62
     3
 48
16.0
100
AcDbLine
 10
129.3648453795901
 20
111.5960881070545
 30
0.0
 11
129.3648453795901
 21
139.3960881070545
 31
0.0
  0
LINE
  5
512
330
1A
100
AcDbEntity
  8
SEIHIN
 62
     3
 48
16.0
100
AcDbLine
 10
130.1648453795902
 20
111.8960881070545
 30
0.0
 11
130.1648453795902
 21
139.3960881070545
 31
0.0
  0
LINE
  5
513
330
1A
100
AcDbEntity
  8
NOKITOI
 62
     8
 48
5.0
100
AcDbLine
 10
130.1648453795902
 20
112.8960881070545
 30
0.0
 11
130.1649453795901
 21
119.8960881070545
 31
0.0
  0
LINE
  5
514
330
1A
100
AcDbEntity
  8
NOKITOI
 62
     8
 48
5.0
100
AcDbLine
 10
131.3649453795901
 20
118.6960881070545
 30
0.0
 11
131.3649453795901
 21
114.0960881070545
 31
0.0
  0
LINE
  5
515
330
1A
100
AcDbEntity
  8
NOKITOI
 62
     8
 48
5.0
100
AcDbLine
 10
134.0812453795901
 20
118.6960881070545
 30
0.0
 11
135.0199453795902
 21
114.0960881070545
 31
0.0
  0
LINE
  5
516
330
1A
100
AcDbEntity
  8
SEIHIN
 62
     3
 48
16.0
100
AcDbLine
 10
130.3648453795902
 20
110.5960881070545
 30
0.0
 11
134.5094453795902
 21
110.5960881070545
 31
0.0
  0
LINE
  5
517
330
1A
100
AcDbEntity
  8
SEIHIN
 62
     3
 48
16.0
100
AcDbLine
 10
135.1627453795901
 20
111.3960881070545
 30
0.0
 11
130.6648453795902
 21
111.3960881070545
 31
0.0
  0
ARC
  5
518
330
1A
100
AcDbEntity
  8
SEIHIN
 62
     3
 48
16.0
100
AcDbCircle
 10
130.6648453795902
 20
111.8960881070545
 30
0.0
 40
0.5
100
AcDbArc
 50
180.0
 51
270.0
  0
ARC
  5
519
330
1A
100
AcDbEntity
  8
SEIHIN
 62
     3
 48
16.0
100
AcDbCircle
 10
130.3648453795902
 20
111.5960881070546
 30
0.0
 40
1.000000000000056
100
AcDbArc
 50
180.0000000000032
 51
270.0000000000033
  0
ARC
  5
51A
330
1A
100
AcDbEntity
  8
SEIHIN
 62
     3
 48
16.0
100
AcDbCircle
 10
135.1627466104552
 20
110.8960871020564
 30
0.0
 40
0.5000010049995471
100
AcDbArc
 50
11.53705306385595
 51
90.00014104647158
  0
ARC
  5
51B
330
1A
100
AcDbEntity
  8
SEIHIN
 62
     3
 48
16.0
100
AcDbCircle
 10
134.5094466104553
 20
110.0960871020565
 30
0.0
 40
0.5000010049995264
100
AcDbArc
 50
11.53705306384439
 51
90.00014104645858
  0
LINE
  5
51C
330
1A
100
AcDbEntity
  8
NOKITOI
 62
     8
 48
5.0
100
AcDbLine
 10
130.1648453795902
 20
112.8960881070545
 30
0.0
 11
135.2649453795902
 21
112.8960881070545
 31
0.0
  0
LINE
  5
51D
330
1A
100
AcDbEntity
  8
NOKITOI
 62
     8
 48
5.0
100
AcDbLine
 10
135.0199453795902
 20
114.0960881070545
 30
0.0
 11
131.3649453795901
 21
114.0960881070545
 31
0.0
  0
LINE
  5
51E
330
1A
100
AcDbEntity
  8
NOKITOI
 62
     8
 48
5.0
100
AcDbLine
 10
134.0812453795901
 20
118.6960881070545
 30
0.0
 11
131.3649453795901
 21
118.6960881070545
 31
0.0
  0
LINE
  5
51F
330
1A
100
AcDbEntity
  8
NOKITOI
 62
     8
 48
5.0
100
AcDbLine
 10
130.1649453795901
 20
119.8960881070545
 30
0.0
 11
135.0633453795901
 21
119.8960881070545
 31
0.0
  0
LINE
  5
520
330
1A
100
AcDbEntity
  8
SEIHIN
 62
     3
 48
16.0
100
AcDbLine
 10
130.1649453795902
 20
139.3960881070545
 30
0.0
 11
129.3648453795901
 21
139.3960881070545
 31
0.0
  0
LINE
  5
521
330
1A
100
AcDbEntity
  8
SEIHIN
 62
     3
 48
16.0
100
AcDbLine
 10
209.6770453795902
 20
110.9960881070545
 30
0.0
 11
204.8989453795903
 21
87.58318810705459
 31
0.0
  0
LINE
  5
522
330
1A
100
AcDbEntity
  8
NOKITOI
 62
     8
 48
5.0
100
AcDbLine
 10
172.6648453795902
 20
81.09608810705452
 30
0.0
 11
192.1648453795902
 21
81.09608810705452
 31
0.0
  0
LINE
  5
523
330
1A
100
AcDbEntity
  8
SEIHIN
 62
     3
 48
16.0
100
AcDbLine
 10
166.1648453795902
 20
74.09608810705458
 30
0.0
 11
179.6648453795902
 21
74.09608810705458
 31
0.0
  0
LINE
  5
524
330
1A
100
AcDbEntity
  8
SEIHIN
 62
     3
 48
16.0
100
AcDbLine
 10
172.6647453795902
 20
79.09608810705449
 30
0.0
 11
197.8276453795902
 21
79.09608810705449
 31
0.0
  0
LINE
  5
525
330
1A
100
AcDbEntity
  8
SEIHIN
 62
     3
 48
16.0
100
AcDbLine
 10
197.59354537959
 20
79.89608810705451
 30
0.0
 11
172.6647453795902
 21
79.89608810705451
 31
0.0
  0
LINE
  5
526
330
1A
100
AcDbEntity
  8
NOKITOI
 62
     8
 48
5.0
100
AcDbLine
 10
196.9648453795901
 20
79.89608810705451
 30
0.0
 11
172.6648453795902
 21
79.89608810705451
 31
0.0
  0
LINE
  5
527
330
1A
100
AcDbEntity
  8
CENTER L
 48
5.0
100
AcDbLine
 10
172.6648453795902
 20
69.8392881070545
 30
0.0
 11
172.6648453795902
 21
91.6451881070545
 31
0.0
  0
LINE
  5
528
330
1A
100
AcDbEntity
  8
NOKITOI
 62
     8
 48
5.0
100
AcDbLine
 10
172.6648453795902
 20
81.09608810705452
 30
0.0
 11
153.1648453795902
 21
81.09608810705452
 31
0.0
  0
LINE
  5
529
330
1A
100
AcDbEntity
  8
SEIHIN
 62
     3
 48
16.0
100
AcDbLine
 10
164.6648453795902
 20
76.39608810705451
 30
0.0
 11
148.1145453795902
 21
76.39608810705451
 31
0.0
  0
LINE
  5
52A
330
1A
100
AcDbEntity
  8
SEIHIN
 62
     3
 48
16.0
100
AcDbLine
 10
172.6648453795902
 20
79.09608810705449
 30
0.0
 11
147.5019453795901
 21
79.09608810705449
 31
0.0
  0
LINE
  5
52B
330
1A
100
AcDbEntity
  8
SEIHIN
 62
     3
 48
16.0
100
AcDbLine
 10
147.7360453795901
 20
79.89608810705451
 30
0.0
 11
172.6648453795902
 21
79.89608810705451
 31
0.0
  0
LINE
  5
52C
330
1A
100
AcDbEntity
  8
NOKITOI
 62
     8
 48
5.0
100
AcDbLine
 10
148.3648453795903
 20
79.89608810705451
 30
0.0
 11
172.6648453795902
 21
79.89608810705451
 31
0.0
  0
ARC
  5
52D
330
1A
100
AcDbEntity
  8
NOKITOI
 62
     8
 48
5.0
100
AcDbCircle
 10
137.5805410184647
 20
77.72869627836223
 30
0.0
 40
12.19993877054614
100
AcDbArc
 50
16.02263637925393
 51
40.15603560521631
  0
LINE
  5
52E
330
1A
100
AcDbEntity
  8
NOKITOI
 62
     8
 48
5.0
100
AcDbLine
 10
151.9648453795901
 20
81.09608810705452
 30
0.0
 11
151.9648453795901
 21
85.59608810705446
 31
0.0
  0
LINE
  5
52F
330
1A
100
AcDbEntity
  8
NOKITOI
 62
     8
 48
5.0
100
AcDbLine
 10
153.1648453795902
 20
81.09608810705452
 30
0.0
 11
153.1648453795902
 21
86.79608810705445
 31
0.0
  0
ARC
  5
530
330
1A
100
AcDbEntity
  8
SEIHIN
 62
     3
 48
16.0
100
AcDbCircle
 10
147.7359840047982
 20
80.39613544757216
 30
0.0
 40
0.5000473442841765
100
AcDbArc
 50
194.7185222131078
 51
270.0070323672246
  0
ARC
  5
531
330
1A
100
AcDbEntity
  8
SEIHIN
 62
     3
 48
16.0
100
AcDbCircle
 10
147.5019404078575
 20
80.09609203203899
 30
0.0
 40
1.000003924996877
100
AcDbArc
 50
193.4209166549712
 51
270.000284858174
  0
LINE
  5
532
330
1A
100
AcDbEntity
  8
NOKITOI
 62
     8
 48
5.0
100
AcDbLine
 10
151.9648453795901
 20
81.09608810705452
 30
0.0
 11
149.3065453795901
 21
81.09608810705452
 31
0.0
  0
LINE
  5
533
330
1A
100
AcDbEntity
  8
NOKITOI
 62
     8
 48
5.0
100
AcDbLine
 10
145.7427453795902
 20
86.79608810705445
 30
0.0
 11
153.1648453795902
 21
86.79608810705445
 31
0.0
  0
LINE
  5
534
330
1A
100
AcDbEntity
  8
NOKITOI
 62
     8
 48
5.0
100
AcDbLine
 10
146.9048453795901
 20
85.59608810705446
 30
0.0
 11
151.9648453795901
 21
85.59608810705446
 31
0.0
  0
LINE
  5
535
330
1A
100
AcDbEntity
  8
SEIHIN
 62
     3
 48
16.0
100
AcDbLine
 10
172.6648453795902
 20
73.09608810705459
 30
0.0
 11
168.6648453795902
 21
73.09608810705459
 31
0.0
  0
LINE
  5
536
330
1A
100
AcDbEntity
  8
SEIHIN
 62
     3
 48
16.0
100
AcDbLine
 10
164.6648453795902
 20
75.59608810705459
 30
0.0
 11
164.6648453795902
 21
79.09608810705449
 31
0.0
  0
LINE
  5
537
330
1A
100
AcDbEntity
  8
SEIHIN
 62
     3
 48
16.0
100
AcDbLine
 10
164.6648453795902
 20
75.59608810705459
 30
0.0
 11
166.1648453795902
 21
74.09608810705458
 31
0.0
  0
LINE
  5
538
330
1A
100
AcDbEntity
  8
SEIHIN
 62
     3
 48
16.0
100
AcDbLine
 10
168.6648453795902
 20
73.09608810705459
 30
0.0
 11
168.6648453795902
 21
74.09608810705458
 31
0.0
  0
LINE
  5
539
330
1A
100
AcDbEntity
  8
SEIHIN
 62
     3
 48
16.0
100
AcDbLine
 10
172.6648453795902
 20
73.09608810705459
 30
0.0
 11
176.6648453795902
 21
73.09608810705459
 31
0.0
  0
LINE
  5
53A
330
1A
100
AcDbEntity
  8
SEIHIN
 62
     3
 48
16.0
100
AcDbLine
 10
176.6648453795902
 20
73.09608810705459
 30
0.0
 11
176.6648453795902
 21
74.0959881070545
 31
0.0
  0
ARC
  5
53B
330
1A
100
AcDbEntity
  8
SEIHIN
 62
     3
 48
16.0
100
AcDbCircle
 10
179.6648453795902
 20
71.09608810705458
 30
0.0
 40
3.0
100
AcDbArc
 50
0.0
 51
90.0
  0
ARC
  5
53C
330
1A
100
AcDbEntity
  8
SEIHIN
 62
     3
 48
16.0
100
AcDbCircle
 10
179.1648453795903
 20
71.09608810705456
 30
0.0
 40
7.999999999999957
100
AcDbArc
 50
0.0000000000003053
 51
90.0000000000003
  0
LINE
  5
53D
330
1A
100
AcDbEntity
  8
SEIHIN
 62
     3
 48
16.0
100
AcDbLine
 10
200.2074453795902
 20
59.59608810705458
 30
0.0
 11
192.6648453795902
 21
59.59608810705458
 31
0.0
  0
LINE
  5
53E
330
1A
100
AcDbEntity
  8
SEIHIN
 62
     3
 48
16.0
100
AcDbLine
 10
200.2074453795902
 20
64.09608810705449
 30
0.0
 11
192.6648453795902
 21
64.09608810705449
 31
0.0
  0
ARC
  5
53F
330
1A
100
AcDbEntity
  8
SEIHIN
 62
     3
 48
16.0
100
AcDbCircle
 10
192.6648453795902
 20
69.59608810705458
 30
0.0
 40
10.0
100
AcDbArc
 50
180.0
 51
270.0
  0
LINE
  5
540
330
1A
100
AcDbEntity
  8
SEIHIN
 62
     3
 48
16.0
100
AcDbLine
 10
182.6648453795902
 20
69.59608810705458
 30
0.0
 11
182.6648453795902
 21
71.09608810705458
 31
0.0
  0
ARC
  5
541
330
1A
100
AcDbEntity
  8
SEIHIN
 62
     3
 48
16.0
100
AcDbCircle
 10
192.6648453795903
 20
69.59608810705455
 30
0.0
 40
5.500000000000042
100
AcDbArc
 50
179.9999999999996
 51
269.9999999999995
  0
LINE
  5
542
330
1A
100
AcDbEntity
  8
SEIHIN
 62
     3
 48
16.0
100
AcDbLine
 10
187.1648453795902
 20
69.59608810705458
 30
0.0
 11
187.1648453795902
 21
71.09608810705458
 31
0.0
  0
ARC
  5
543
330
1A
100
AcDbEntity
  8
SEIHIN
 62
     3
 48
16.0
100
AcDbCircle
 10
200.2074344268638
 20
69.59607916385815
 30
0.0
 40
5.49999105681455
100
AcDbArc
 50
270.0001140992761
 51
348.4652434768601
  0
LINE
  5
544
330
1A
100
AcDbEntity
  8
NOKITOI
 62
     8
 48
5.0
100
AcDbLine
 10
198.4248453795902
 20
85.59608810705446
 30
0.0
 11
193.3648453795903
 21
85.59608810705446
 31
0.0
  0
LINE
  5
545
330
1A
100
AcDbEntity
  8
NOKITOI
 62
     8
 48
5.0
100
AcDbLine
 10
193.3648453795903
 20
81.09608810705452
 30
0.0
 11
196.0231453795902
 21
81.09608810705452
 31
0.0
  0
LINE
  5
546
330
1A
100
AcDbEntity
  8
SEIHIN
 62
     3
 48
16.0
100
AcDbLine
 10
193.5935453795901
 20
79.89608810705451
 30
0.0
 11
185.1826453795901
 21
79.89608810705451
 31
0.0
  0
LINE
  5
547
330
1A
100
AcDbEntity
  8
SEIHIN
 62
     3
 48
16.0
100
AcDbLine
 10
185.1573453795902
 20
76.39608810705451
 30
0.0
 11
197.2150453795901
 21
76.39608810705451
 31
0.0
  0
LINE
  5
548
330
1A
100
AcDbEntity
  8
NOKITOI
 62
     8
 48
5.0
100
AcDbLine
 10
199.5869453795902
 20
86.79598810705455
 30
0.0
 11
192.1648453795902
 21
86.79608810705445
 31
0.0
  0
LINE
  5
549
330
1A
100
AcDbEntity
  8
NOKITOI
 62
     8
 48
5.0
100
AcDbLine
 10
193.3648453795903
 20
81.09608810705452
 30
0.0
 11
193.3648453795903
 21
85.59608810705446
 31
0.0
  0
LINE
  5
54A
330
1A
100
AcDbEntity
  8
NOKITOI
 62
     8
 48
5.0
100
AcDbLine
 10
192.1648453795902
 20
81.09598810705444
 30
0.0
 11
192.1648453795902
 21
86.79608810705445
 31
0.0
  0
ARC
  5
54B
330
1A
100
AcDbEntity
  8
SEIHIN
 62
     3
 48
16.0
100
AcDbCircle
 10
207.74913137777
 20
77.7285732678454
 30
0.0
 40
6.500002478095694
100
AcDbArc
 50
110.0614934925772
 51
163.2643746186521
  0
ARC
  5
54C
330
1A
100
AcDbEntity
  8
SEIHIN
 62
     3
 48
16.0
100
AcDbCircle
 10
207.7491472018571
 20
77.72859006668904
 30
0.0
 40
9.200053197944166
100
AcDbArc
 50
107.5815941013171
 51
166.5788402739141
  0
ARC
  5
54D
330
1A
100
AcDbEntity
  8
SEIHIN
 62
     3
 48
16.0
100
AcDbCircle
 10
207.7491438488425
 20
77.72858647034803
 30
0.0
 40
10.00005974307169
100
AcDbArc
 50
108.5485400303352
 51
165.2833721150338
  0
ARC
  5
54E
330
1A
100
AcDbEntity
  8
NOKITOI
 62
     8
 48
5.0
100
AcDbCircle
 10
207.7491494924602
 20
77.72859242302522
 30
0.0
 40
10.99994632941526
100
AcDbArc
 50
104.1244483036074
 51
168.6362598432799
  0
ARC
  5
54F
330
1A
100
AcDbEntity
  8
NOKITOI
 62
     8
 48
5.0
100
AcDbCircle
 10
207.749222363261
 20
77.72873234791982
 30
0.0
 40
12.19997101530972
100
AcDbArc
 50
139.8443138052131
 51
163.9780719705774
  0
ARC
  5
550
330
1A
100
AcDbEntity
  8
SEIHIN
 62
     3
 48
16.0
100
AcDbCircle
 10
197.2150473222534
 20
80.89608955149856
 30
0.0
 40
4.500001444444478
100
AcDbArc
 50
269.9999752652511
 51
343.2643886915126
  0
ARC
  5
551
330
1A
100
AcDbEntity
  8
SEIHIN
 62
     3
 48
16.0
100
AcDbCircle
 10
197.5935605321238
 20
80.3960997917815
 30
0.0
 40
0.5000116849565755
100
AcDbArc
 50
269.9982636881134
 51
345.272780932935
  0
ARC
  5
552
330
1A
100
AcDbEntity
  8
SEIHIN
 62
     3
 48
16.0
100
AcDbCircle
 10
197.8276503513228
 20
80.09609203203911
 30
0.0
 40
1.000003924996977
100
AcDbArc
 50
269.9997151418195
 51
346.5790833450236
  0
ARC
  5
553
330
1A
100
AcDbEntity
  8
NOKITOI
 62
     8
 48
5.0
100
AcDbCircle
 10
207.7491871665665
 20
77.72861210194389
 30
0.0
 40
12.19997945109404
100
AcDbArc
 50
107.7381834577211
 51
131.9928095737274
  0
ARC
  5
554
330
1A
100
AcDbEntity
  8
SEIHIN
 62
     3
 48
16.0
100
AcDbCircle
 10
203.9758136417424
 20
88.06115125618987
 30
0.0
 40
4.500001822915062
100
AcDbArc
 50
290.0615332498018
 51
348.4661235511059
  0
ARC
  5
555
330
1A
100
AcDbEntity
  8
SEIHIN
 62
     3
 48
16.0
100
AcDbCircle
 10
204.668039822642
 20
87.45208193038815
 30
0.0
 40
0.9999882349476006
100
AcDbArc
 50
287.578314970019
 51
348.4691122958962
  0
ARC
  5
556
330
1A
100
AcDbEntity
  8
SEIHIN
 62
     3
 48
16.0
100
AcDbCircle
 10
204.4090191347127
 20
87.68327150125244
 30
0.0
 40
0.5000444092417937
100
AcDbArc
 50
288.5434814974379
 51
348.4543270497513
  0
LINE
  5
557
330
1A
100
AcDbEntity
  8
SEIHIN
 62
     3
 48
16.0
100
AcDbLine
 10
209.0980453795903
 20
119.5454881070546
 30
0.0
 11
208.72034537959
 21
120.9548881070545
 31
0.0
  0
ARC
  5
558
330
1A
100
AcDbEntity
  8
SEIHIN
 62
     3
 48
16.0
100
AcDbCircle
 10
144.3149453795901
 20
174.3079881070544
 30
0.0
 40
17.07525238466474
100
AcDbArc
 50
76.27952224015759
 51
103.7204777598424
  0
ARC
  5
559
330
1A
100
AcDbEntity
  8
SEIHIN
 62
     3
 48
16.0
100
AcDbCircle
 10
144.3149453795901
 20
225.4841881076234
 30
0.0
 40
17.07534953167501
100
AcDbArc
 50
256.2796018273882
 51
283.7203981726119
  0
LINE
  5
55A
330
1A
100
AcDbEntity
  8
SEIHIN
 62
     3
 48
16.0
100
AcDbLine
 10
167.00804537959
 20
201.8959881070544
 30
0.0
 11
135.8709453795901
 21
201.8960881070546
 31
0.0
  0
LINE
  5
55B
330
1A
100
AcDbEntity
  8
SEIHIN
 62
     3
 48
16.0
100
AcDbLine
 10
167.00804537959
 20
197.8960881070545
 30
0.0
 11
135.8709453795901
 21
197.8960881070545
 31
0.0
  0
LINE
  5
55C
330
1A
100
AcDbEntity
  8
SEIHIN
 62
     3
 48
16.0
100
AcDbLine
 10
172.66494537959
 20
193.3960881070546
 30
0.0
 11
135.8709453795901
 21
193.3960881070546
 31
0.0
  0
LINE
  5
55D
330
1A
100
AcDbEntity
  8
SEIHIN
 62
     3
 48
16.0
100
AcDbLine
 10
172.66494537959
 20
206.3960881070546
 30
0.0
 11
135.8709453795901
 21
206.3960881070546
 31
0.0
  0
DIMENSION
  5
55E
330
1A
100
AcDbEntity
  8
SUNPOU
100
AcDbDimension
  2
*D3
 10
110.8248905023399
 20
189.8960881070545
 30
0.0
 11
108.3248905023398
 21
199.8960881070546
 31
0.0
 70
    32
 71
     5
 42
-1.0
  3
STANDARD
100
AcDbAlignedDimension
 13
129.3649453795901
 23
209.8960881070546
 33
0.0
 14
129.3648453795901
 24
189.8960881070545
 34
0.0
 50
90.0
100
AcDbRotatedDimension
1001
ACAD
1000
DSTYLE
1002
{
1070
   140
1040
3.0
1070
    74
1070
     0
1070
   172
1070
     1
1070
    73
1070
     0
1070
   272
1070
     2
1070
    77
1070
     3
1070
   173
1070
     1
1070
   147
1040
1.0
1070
    42
1040
3.0
1070
    44
1040
1.5
1070
    43
1040
7.0
1070
   271
1070
     0
1070
   178
1070
     4
1070
   177
1070
     4
1070
   176
1070
     4
1070
   141
1040
150.0
1070
     7
1000
_OPEN
1070
     6
1000
_OPEN
1070
    41
1040
3.0
1002
}
  0
LINE
  5
55F
330
1A
100
AcDbEntity
  8
SEIHIN
 62
     3
 48
16.0
100
AcDbLine
 10
140.2649453795902
 20
197.8960881070546
 30
0.0
 11
140.2649453795901
 21
201.8960739952715
 31
0.0
  0
LINE
  5
560
330
1A
100
AcDbEntity
  8
SEIHIN
 62
     3
 48
16.0
100
AcDbLine
 10
135.6526453795901
 20
197.8960881070546
 30
0.0
 11
135.6526453795901
 21
201.8960888081475
 31
0.0
  0
LINE
  5
561
330
1A
100
AcDbEntity
  8
SEIHIN
 62
     3
 48
16.0
100
AcDbLine
 10
129.3648453795901
 20
189.8960881070545
 30
0.0
 11
129.3648453795901
 21
209.8960881070545
 31
0.0
  0
LINE
  5
562
330
1A
100
AcDbEntity
  8
SEIHIN
 62
     3
 48
16.0
100
AcDbLine
 10
130.16494537959
 20
189.8960881070545
 30
0.0
 11
130.16494537959
 21
209.8960881070545
 31
0.0
  0
LINE
  5
563
330
1A
100
AcDbEntity
  8
SEIHIN
 62
     3
 48
16.0
100
AcDbLine
 10
140.2649453795901
 20
190.8960881070545
 30
0.0
 11
130.1650453795901
 21
190.8960881070545
 31
0.0
  0
ARC
  5
564
330
1A
100
AcDbEntity
  8
SEIHIN
 62
     3
 48
16.0
100
AcDbCircle
 10
135.6223453794688
 20
195.6461381070545
 30
0.0
 40
2.263642410488098
100
AcDbArc
 50
83.69488760908012
 51
276.3051123909199
  0
LINE
  5
565
330
1A
100
AcDbEntity
  8
SEIHIN
 62
     3
 48
16.0
100
AcDbLine
 10
135.6526453795901
 20
190.8960881070545
 30
0.0
 11
135.6526453795901
 21
193.3960881070546
 31
0.0
  0
LINE
  5
566
330
1A
100
AcDbEntity
  8
SEIHIN
 62
     3
 48
16.0
100
AcDbLine
 10
130.16494537959
 20
189.8960881070545
 30
0.0
 11
129.36504537959
 21
189.8960881070545
 31
0.0
  0
LINE
  5
567
330
1A
100
AcDbEntity
  8
SEIHIN
 62
     3
 48
16.0
100
AcDbLine
 10
130.1650453795901
 20
193.3960881070546
 30
0.0
 11
129.36504537959
 21
193.3960881070546
 31
0.0
  0
LINE
  5
568
330
1A
100
AcDbEntity
  8
SEIHIN
 62
     3
 48
16.0
100
AcDbLine
 10
140.2649453795901
 20
190.8960881070545
 30
0.0
 11
140.2649453795901
 21
193.3960881070546
 31
0.0
  0
ARC
  5
569
330
1A
100
AcDbEntity
  8
SEIHIN
100
AcDbCircle
 10
141.202458353875
 20
195.6460794575467
 30
0.0
 40
2.437512974286005
100
AcDbArc
 50
112.6200682624531
 51
247.3799317375469
  0
ARC
  5
56A
330
1A
100
AcDbEntity
  8
SEIHIN
 62
     3
 48
16.0
100
AcDbCircle
 10
135.6224453795901
 20
204.1459881070545
 30
0.0
 40
2.263581732564481
100
AcDbArc
 50
83.69726450926528
 51
276.3027354907347
  0
LINE
  5
56B
330
1A
100
AcDbEntity
  8
SEIHIN
 62
     3
 48
16.0
100
AcDbLine
 10
140.2649453795901
 20
208.8960881070546
 30
0.0
 11
130.1650453795901
 21
208.8960881070546
 31
0.0
  0
LINE
  5
56C
330
1A
100
AcDbEntity
  8
SEIHIN
 62
     3
 48
16.0
100
AcDbLine
 10
130.1650453795901
 20
209.8960881070546
 30
0.0
 11
129.36504537959
 21
209.8960881070546
 31
0.0
  0
LINE
  5
56D
330
1A
100
AcDbEntity
  8
SEIHIN
 62
     3
 48
16.0
100
AcDbLine
 10
130.1650453795901
 20
206.3960881070546
 30
0.0
 11
129.36504537959
 21
206.3960881070546
 31
0.0
  0
LINE
  5
56E
330
1A
100
AcDbEntity
  8
SEIHIN
 62
     3
 48
16.0
100
AcDbLine
 10
135.65274537959
 20
208.8960881070546
 30
0.0
 11
135.6527176018122
 21
206.3960881070545
 31
0.0
  0
ARC
  5
56F
330
1A
100
AcDbEntity
  8
SEIHIN
100
AcDbCircle
 10
141.202458353875
 20
204.1460794575467
 30
0.0
 40
2.437512974286005
100
AcDbArc
 50
112.6200682624531
 51
247.3799317375469
  0
LINE
  5
570
330
1A
100
AcDbEntity
  8
SEIHIN
 62
     3
 48
16.0
100
AcDbLine
 10
140.2649453795901
 20
208.8960881070546
 30
0.0
 11
140.2649453795901
 21
206.3960881070545
 31
0.0
  0
ARC
  5
571
330
1A
100
AcDbEntity
  8
SEIHIN
 62
     3
 48
16.0
100
AcDbCircle
 10
172.6649453724814
 20
199.8960381070545
 30
0.0
 40
6.000000007316972
100
AcDbArc
 50
0.0004774648293933
 51
359.9995225351706
  0
ARC
  5
572
330
1A
100
AcDbEntity
  8
SEIHIN
 62
     3
 48
16.0
100
AcDbCircle
 10
172.66494537959
 20
199.8960881070545
 30
0.0
 40
4.500000000000056
100
AcDbArc
 50
180.0
 51
0.0
  0
ARC
  5
573
330
1A
100
AcDbEntity
  8
SEIHIN
 62
     3
 48
16.0
100
AcDbCircle
 10
172.66494537959
 20
199.8960881070545
 30
0.0
 40
4.500000000000056
100
AcDbArc
 50
0.0
 51
180.0
  0
LINE
  5
574
330
1A
100
AcDbEntity
  8
SEIHIN
 62
     3
 48
16.0
100
AcDbLine
 10
172.6650453795901
 20
190.8960881070545
 30
0.0
 11
196.9650453795901
 21
190.8960881070545
 31
0.0
  0
LINE
  5
575
330
1A
100
AcDbEntity
  8
SEIHIN
 62
     3
 48
16.0
100
AcDbLine
 10
172.6650453795901
 20
208.8960881070546
 30
0.0
 11
196.9650453795901
 21
208.8960881070546
 31
0.0
  0
LINE
  5
576
330
1A
100
AcDbEntity
  8
CENTER L
 48
5.0
100
AcDbLine
 10
172.66494537959
 20
215.8960881070545
 30
0.0
 11
172.66494537959
 21
187.6266881070546
 31
0.0
  0
LINE
  5
577
330
1A
100
AcDbEntity
  8
SEIHIN
 62
     3
 48
16.0
100
AcDbLine
 10
172.66494537959
 20
208.8960881070546
 30
0.0
 11
148.3649453795901
 21
208.8960881070546
 31
0.0
  0
LINE
  5
578
330
1A
100
AcDbEntity
  8
SEIHIN
 62
     3
 48
16.0
100
AcDbLine
 10
172.66494537959
 20
190.8960881070545
 30
0.0
 11
148.3649453795901
 21
190.8960881070545
 31
0.0
  0
LINE
  5
579
330
1A
100
AcDbEntity
  8
SEIHIN
 62
     3
 48
16.0
100
AcDbLine
 10
148.3649453795901
 20
197.8960881070546
 30
0.0
 11
148.3649453795901
 21
201.8960479812882
 31
0.0
  0
LINE
  5
57A
330
1A
100
AcDbEntity
  8
SEIHIN
 62
     3
 48
16.0
100
AcDbLine
 10
148.3649453795901
 20
190.8960881070545
 30
0.0
 11
148.3649453795901
 21
193.3960881070546
 31
0.0
  0
ARC
  5
57B
330
1A
100
AcDbEntity
  8
SEIHIN
100
AcDbCircle
 10
151.6310848671946
 20
195.6460669332324
 30
0.0
 40
3.966139487604662
100
AcDbArc
 50
145.4373091409733
 51
214.5626908590267
  0
ARC
  5
57C
330
1A
100
AcDbEntity
  8
SEIHIN
100
AcDbCircle
 10
151.6310848671946
 20
204.1460669332325
 30
0.0
 40
3.966139487604662
100
AcDbArc
 50
145.4373091409733
 51
214.5626908590267
  0
LINE
  5
57D
330
1A
100
AcDbEntity
  8
SEIHIN
 62
     3
 48
16.0
100
AcDbLine
 10
148.3649453795901
 20
208.8960881070546
 30
0.0
 11
148.3649453795901
 21
206.3960881070545
 31
0.0
  0
LINE
  5
57E
330
1A
100
AcDbEntity
  8
SEIHIN
 62
     3
 48
16.0
100
AcDbLine
 10
174.6650453795901
 20
201.8960881070546
 30
0.0
 11
174.6650453795901
 21
197.8960881070545
 31
0.0
  0
LINE
  5
57F
330
1A
100
AcDbEntity
  8
SEIHIN
 62
     3
 48
16.0
100
AcDbLine
 10
170.66494537959
 20
201.8960881070546
 30
0.0
 11
170.66494537959
 21
197.8960881070545
 31
0.0
  0
LINE
  5
580
330
1A
100
AcDbEntity
  8
SEIHIN
 62
     3
 48
16.0
100
AcDbLine
 10
170.66494537959
 20
197.8960881070545
 30
0.0
 11
174.6650453795901
 21
197.8960881070545
 31
0.0
  0
LINE
  5
581
330
1A
100
AcDbEntity
  8
SEIHIN
 62
     3
 48
16.0
100
AcDbLine
 10
170.66494537959
 20
201.8960881070546
 30
0.0
 11
174.6650453795901
 21
201.8960881070546
 31
0.0
  0
LINE
  5
582
330
1A
100
AcDbEntity
  8
SEIHIN
 62
     3
 48
16.0
100
AcDbLine
 10
178.3219453795901
 20
197.8959881070544
 30
0.0
 11
208.4651453795901
 21
197.8960881070545
 31
0.0
  0
LINE
  5
583
330
1A
100
AcDbEntity
  8
SEIHIN
 62
     3
 48
16.0
100
AcDbLine
 10
178.3219453795901
 20
201.8959881070544
 30
0.0
 11
208.4651453795901
 21
201.8959881070544
 31
0.0
  0
LINE
  5
584
330
1A
100
AcDbEntity
  8
SEIHIN
 62
     3
 48
16.0
100
AcDbLine
 10
205.0650453795901
 20
197.8960768272302
 30
0.0
 11
205.0650453795902
 21
201.8959881070545
 31
0.0
  0
LINE
  5
585
330
1A
100
AcDbEntity
  8
SEIHIN
 62
     3
 48
16.0
100
AcDbLine
 10
196.9650453795901
 20
197.8960499554979
 30
0.0
 11
196.9650453795901
 21
201.8959881070545
 31
0.0
  0
LINE
  5
586
330
1A
100
AcDbEntity
  8
SEIHIN
 62
     3
 48
16.0
100
AcDbLine
 10
208.4651453795901
 20
195.3959881070544
 30
0.0
 11
208.4651453795901
 21
204.3959881070545
 31
0.0
  0
ARC
  5
587
330
1A
100
AcDbEntity
  8
SEIHIN
 62
     3
 48
16.0
100
AcDbCircle
 10
201.0150453795901
 20
174.3079881064855
 30
0.0
 40
17.07525238521743
100
AcDbArc
 50
76.27952224061047
 51
103.7204777593895
  0
LINE
  5
588
330
1A
100
AcDbEntity
  8
SEIHIN
 62
     3
 48
16.0
100
AcDbLine
 10
196.9650453795901
 20
190.8959881070544
 30
0.0
 11
196.9650453795901
 21
193.3960241495875
 31
0.0
  0
ARC
  5
589
330
1A
100
AcDbEntity
  8
SEIHIN
100
AcDbCircle
 10
193.6989160252875
 20
195.6460319342313
 30
0.0
 40
3.966129354302711
100
AcDbArc
 50
325.4372635983646
 51
34.56273640163535
  0
LINE
  5
58A
330
1A
100
AcDbEntity
  8
SEIHIN
 62
     3
 48
16.0
100
AcDbLine
 10
209.6772453795901
 20
190.8959881070544
 30
0.0
 11
209.6772453795901
 21
193.5576881070544
 31
0.0
  0
LINE
  5
58B
330
1A
100
AcDbEntity
  8
SEIHIN
 62
     3
 48
16.0
100
AcDbLine
 10
205.0650453795901
 20
190.8959881070544
 30
0.0
 11
205.0650453795901
 21
193.3960028304318
 31
0.0
  0
ARC
  5
58C
330
1A
100
AcDbEntity
  8
SEIHIN
100
AcDbCircle
 10
204.1275343370402
 20
195.6460212746535
 30
0.0
 40
2.437511042550709
100
AcDbArc
 50
292.6200379911888
 51
67.37996200881117
  0
ARC
  5
58D
330
1A
100
AcDbEntity
  8
SEIHIN
 62
     3
 48
16.0
100
AcDbCircle
 10
201.0150453795901
 20
225.4840881070546
 30
0.0
 40
17.07525238466473
100
AcDbArc
 50
256.2795222401576
 51
283.7204777598423
  0
ARC
  5
58E
330
1A
100
AcDbEntity
  8
SEIHIN
100
AcDbCircle
 10
193.6989160252875
 20
204.146006128321
 30
0.0
 40
3.966129354302711
100
AcDbArc
 50
325.4372635983646
 51
34.56273640163535
  0
LINE
  5
58F
330
1A
100
AcDbEntity
  8
SEIHIN
 62
     3
 48
16.0
100
AcDbLine
 10
196.9650453795901
 20
208.8960881070546
 30
0.0
 11
196.9650453795901
 21
206.3960241495876
 31
0.0
  0
ARC
  5
590
330
1A
100
AcDbEntity
  8
SEIHIN
100
AcDbCircle
 10
204.1275343370402
 20
204.1459954687432
 30
0.0
 40
2.437511042550709
100
AcDbArc
 50
292.6200379911888
 51
67.37996200881117
  0
LINE
  5
591
330
1A
100
AcDbEntity
  8
SEIHIN
 62
     3
 48
16.0
100
AcDbLine
 10
205.0650453795901
 20
208.8960881070546
 30
0.0
 11
205.0650453795901
 21
206.396002830432
 31
0.0
  0
LINE
  5
592
330
1A
100
AcDbEntity
  8
SEIHIN
 62
     3
 48
16.0
100
AcDbLine
 10
209.6772453795901
 20
208.8960881070546
 30
0.0
 11
209.6772453795901
 21
206.2342881070545
 31
0.0
  0
DIMENSION
  5
593
330
1A
100
AcDbEntity
  8
SUNPOU
100
AcDbDimension
  2
*D4
 10
215.1647453795901
 20
139.3263012730764
 30
0.0
 11
225.3647453795902
 21
141.8263012730764
 31
0.0
 70
    32
 71
     5
 42
-1.0
  3
STANDARD
100
AcDbAlignedDimension
 13
235.5647453795902
 23
104.5960881070546
 33
0.0
 14
215.1647453795901
 24
119.8959881070543
 34
0.0
100
AcDbRotatedDimension
1001
ACAD
1000
DSTYLE
1002
{
1070
   140
1040
3.0
1070
    74
1070
     0
1070
   172
1070
     1
1070
    73
1070
     0
1070
   272
1070
     2
1070
    77
1070
     3
1070
   173
1070
     1
1070
   147
1040
1.0
1070
    42
1040
3.0
1070
    44
1040
1.5
1070
    43
1040
7.0
1070
   271
1070
     0
1070
   178
1070
     4
1070
   177
1070
     4
1070
   176
1070
     4
1070
   141
1040
150.0
1070
     7
1000
_OPEN
1070
     6
1000
_OPEN
1070
    41
1040
3.0
1002
}
  0
DIMENSION
  5
59A
330
1A
100
AcDbEntity
  8
SUNPOU
100
AcDbDimension
  2
*D5
 10
255.623647053233
 20
74.59608810705458
 30
0.0
 11
253.123647053233
 21
89.59608810705463
 31
0.0
 70
    32
 71
     5
 42
-1.0
  3
STANDARD
100
AcDbAlignedDimension
 13
235.5647453795902
 23
104.5960881070546
 33
0.0
 14
235.5647453795902
 24
74.59608810705458
 34
0.0
 50
90.0
100
AcDbRotatedDimension
1001
ACAD
1000
DSTYLE
1002
{
1070
   371
1070
    -1
1070
    41
1040
3.0
1070
    42
1040
3.0
1070
    43
1040
7.0
1070
    44
1040
1.5
1070
    73
1070
     0
1070
    74
1070
     0
1070
    77
1070
     3
1070
   140
1040
3.0
1070
   141
1040
150.0
1070
   147
1040
1.0
1070
   172
1070
     1
1070
   173
1070
     1
1070
   176
1070
   256
1070
   177
1070
   256
1070
   178
1070
     4
1070
   271
1070
     0
1070
   272
1070
     2
1070
     6
1000
OPEN
1070
     7
1000
OPEN
1002
}
  0
DIMENSION
  5
59B
330
1A
100
AcDbEntity
  8
SUNPOU
100
AcDbDimension
  2
*D6
 10
271.9528150196728
 20
74.59608810705458
 30
0.0
 11
269.4528150196728
 21
97.24603810705451
 31
0.0
 70
    32
 71
     5
 42
-1.0
  3
STANDARD
100
AcDbAlignedDimension
 13
215.1648453795902
 23
119.8959881070543
 33
0.0
 14
235.5647453795902
 24
74.59608810705458
 34
0.0
 50
90.0
100
AcDbRotatedDimension
1001
ACAD
1000
DSTYLE
1002
{
1070
   371
1070
    -1
1070
    41
1040
3.0
1070
    42
1040
3.0
1070
    43
1040
7.0
1070
    44
1040
1.5
1070
    73
1070
     0
1070
    74
1070
     0
1070
    77
1070
     3
1070
   140
1040
3.0
1070
   141
1040
150.0
1070
   147
1040
1.0
1070
   172
1070
     1
1070
   173
1070
     1
1070
   176
1070
   256
1070
   177
1070
   256
1070
   178
1070
     4
1070
   271
1070
     0
1070
   272
1070
     2
1070
     6
1000
OPEN
1070
     7
1000
OPEN
1002
}
  0
LINE
  5
59C
330
1A
100
AcDbEntity
  8
SEIHIN
 62
     3
 48
16.0
100
AcDbLine
 10
231.0647453795902
 20
74.59608810705458
 30
0.0
 11
231.0647453795902
 21
103.0960881070546
 31
0.0
  0
LINE
  5
59D
330
1A
100
AcDbEntity
  8
SEIHIN
 62
     3
 48
16.0
100
AcDbLine
 10
235.5647453795902
 20
74.59608810705458
 30
0.0
 11
235.5647453795902
 21
104.5960881070546
 31
0.0
  0
LINE
  5
59E
330
1A
100
AcDbEntity
  8
SEIHIN
 62
     3
 48
16.0
100
AcDbLine
 10
210.0055453795901
 20
67.59648810705451
 30
0.0
 11
216.7604453795902
 21
100.6957881070545
 31
0.0
  0
DIMENSION
  5
59F
330
1A
100
AcDbEntity
  8
SUNPOU
100
AcDbDimension
  2
*D7
 10
263.484250987942
 20
74.59608810705458
 30
0.0
 11
260.984250987942
 21
92.09608810705461
 31
0.0
 70
    32
 71
     5
 42
-1.0
  3
STANDARD
100
AcDbAlignedDimension
 13
230.5647453795902
 23
109.5960881070545
 33
0.0
 14
235.5647453795902
 24
74.59608810705458
 34
0.0
 50
90.0
100
AcDbRotatedDimension
1001
ACAD
1000
DSTYLE
1002
{
1070
   371
1070
    -1
1070
    41
1040
3.0
1070
    42
1040
3.0
1070
    43
1040
7.0
1070
    44
1040
1.5
1070
    73
1070
     0
1070
    74
1070
     0
1070
    77
1070
     3
1070
   140
1040
3.0
1070
   141
1040
150.0
1070
   147
1040
1.0
1070
   172
1070
     1
1070
   173
1070
     1
1070
   176
1070
   256
1070
   177
1070
   256
1070
   178
1070
     4
1070
   271
1070
     0
1070
   272
1070
     2
1070
     6
1000
OPEN
1070
     7
1000
OPEN
1002
}
  0
LINE
  5
5A0
330
1A
100
AcDbEntity
  8
SEIHIN
 62
     3
 48
16.0
100
AcDbLine
 10
234.3647453795902
 20
74.59608810705458
 30
0.0
 11
234.3647453795902
 21
104.5960881070546
 31
0.0
  0
MTEXT
  5
5A1
330
1A
100
AcDbEntity
  8
SUNPOU
100
AcDbMText
 10
246.5647453795902
 20
62.6647706075536
 30
0.0
 40
3.0
 41
0.0
 71
     5
 72
     5
  1
\A1;t1.2
 73
     1
 44
1.0
1001
ACAD
1000
MTEXTBEGIN
1070
    73
1070
     1
1070
    44
1040
1.0
1070
    74
1070
     0
1000
MTEXTEND
  0
LINE
  5
5A2
330
1A
100
AcDbEntity
  8
SUNPOU
100
AcDbLine
 10
238.5647453795902
 20
60.1647706075536
 30
0.0
 11
251.5647453795902
 21
60.1647706075536
 31
0.0
  0
LINE
  5
5A3
330
1A
100
AcDbEntity
  8
SUNPOU
100
AcDbLine
 10
235.5647453795902
 20
71.59608810705458
 30
0.0
 11
235.5647453795902
 21
58.66477060755361
 31
0.0
  0
LINE
  5
5A4
330
1A
100
AcDbEntity
  8
SUNPOU
100
AcDbLine
 10
234.3647453795902
 20
71.59608810705458
 30
0.0
 11
234.3647453795902
 21
58.66477060755361
 31
0.0
  0
INSERT
  5
5A5
330
1A
100
AcDbEntity
  8
SUNPOU
100
AcDbBlockReference
  2
_OPEN
 10
235.5647453795902
 20
60.1647706075536
 30
0.0
 41
3.0
 42
3.0
 43
3.0
 50
180.0
  0
INSERT
  5
5A6
330
1A
100
AcDbEntity
  8
SUNPOU
100
AcDbBlockReference
  2
_OPEN
 10
234.3647453795902
 20
60.1647706075536
 30
0.0
 41
3.0
 42
3.0
 43
3.0
  0
LINE
  5
5A7
330
1A
100
AcDbEntity
  8
SUNPOU
100
AcDbLine
 10
234.3647453795902
 20
60.1647706075536
 30
0.0
 11
235.5647453795902
 21
60.1647706075536
 31
0.0
  0
LINE
  5
5A8
330
1A
100
AcDbEntity
  8
SUNPOU
100
AcDbLine
 10
231.3647453795902
 20
60.1647706075536
 30
0.0
 11
228.3647453795902
 21
60.1647706075536
 31
0.0
  0
POINT
  5
5A9
330
1A
100
AcDbEntity
  8
SUNPOU
  6
ByBlock
 62
     0
380
     1
100
AcDbPoint
 10
235.5647453795902
 20
60.1647706075536
 30
0.0
  0
LINE
  5
5AA
330
1A
100
AcDbEntity
  8
CENTER L
 48
5.0
100
AcDbLine
 10
242.5647453795902
 20
78.59608810705456
 30
0.0
 11
226.2839453795902
 21
78.59608810705458
 31
0.0
  0
LINE
  5
5AB
330
1A
100
AcDbEntity
  8
SEIHIN
 62
     3
 48
16.0
100
AcDbLine
 10
235.5647453795902
 20
74.59608810705458
 30
0.0
 11
231.0647453795902
 21
74.59608810705458
 31
0.0
  0
LINE
  5
5AC
330
1A
100
AcDbEntity
  8
SEIHIN
100
AcDbLine
 10
231.9647453795901
 20
78.59608810705458
 30
0.0
 11
234.36474537959
 21
76.15402955644268
 31
0.0
  0
POINT
  5
5AD
330
1A
100
AcDbEntity
  8
SUNPOU
  6
ByBlock
 62
     0
380
     1
100
AcDbPoint
 10
234.3647453795902
 20
74.59608810705458
 30
0.0
  0
LINE
  5
5AE
330
1A
100
AcDbEntity
  8
SEIHIN
100
AcDbLine
 10
234.36474537959
 20
81.03835454468015
 30
0.0
 11
231.9647453795901
 21
78.59608810705458
 31
0.0
  0
LINE
  5
5AF
330
1A
100
AcDbEntity
  8
SEIHIN
100
AcDbLine
 10
234.3647453795901
 20
78.59608810705458
 30
0.0
 11
231.9647453795901
 21
78.59608810705458
 31
0.0
  0
POINT
  5
5B0
330
1A
100
AcDbEntity
  8
SUNPOU
  6
ByBlock
 62
     0
380
     1
100
AcDbPoint
 10
235.5647453795902
 20
74.59608810705458
 30
0.0
  0
LINE
  5
5B1
330
1A
100
AcDbEntity
  8
SEIHIN
 62
     3
 48
16.0
100
AcDbLine
 10
215.1647453795901
 20
111.8960881070545
 30
0.0
 11
215.1647453795901
 21
120.5502881070544
 31
0.0
  0
LINE
  5
5B2
330
1A
100
AcDbEntity
  8
SEIHIN
 62
     3
 48
16.0
100
AcDbLine
 10
215.96474537959
 20
111.5960881070545
 30
0.0
 11
215.96474537959
 21
120.5502881070544
 31
0.0
  0
LINE
  5
5B3
330
1A
100
AcDbEntity
  8
NOKITOI
 62
     8
 48
5.0
100
AcDbLine
 10
211.2485453795902
 20
118.6959881070543
 30
0.0
 11
210.3097453795903
 21
114.0959881070545
 31
0.0
  0
LINE
  5
5B4
330
1A
100
AcDbEntity
  8
NOKITOI
 62
     8
 48
5.0
100
AcDbLine
 10
215.1648453795902
 20
112.8959881070543
 30
0.0
 11
215.1648453795902
 21
119.8959881070543
 31
0.0
  0
LINE
  5
5B5
330
1A
100
AcDbEntity
  8
NOKITOI
 62
     8
 48
5.0
100
AcDbLine
 10
213.9648453795901
 20
118.6959881070543
 30
0.0
 11
213.9648453795901
 21
114.0959881070545
 31
0.0
  0
LINE
  5
5B6
330
1A
100
AcDbEntity
  8
CENTER L
 48
5.0
100
AcDbLine
 10
242.5647453795902
 20
100.5960881070546
 30
0.0
 11
226.0875453795903
 21
100.5960881070546
 31
0.0
  0
LINE
  5
5B7
330
1A
100
AcDbEntity
  8
SEIHIN
 62
     3
 48
16.0
100
AcDbLine
 10
222.1493453795901
 20
105.0960881070545
 30
0.0
 11
229.0647453795901
 21
105.0960881070545
 31
0.0
  0
LINE
  5
5B8
330
1A
100
AcDbEntity
  8
SEIHIN
 62
     3
 48
16.0
100
AcDbLine
 10
222.1493453795901
 20
109.5960881070545
 30
0.0
 11
230.5647453795902
 21
109.5960881070545
 31
0.0
  0
ARC
  5
5B9
330
1A
100
AcDbEntity
  8
SEIHIN
 62
     3
 48
16.0
100
AcDbCircle
 10
222.1493697461676
 20
99.5961080030942
 30
0.0
 40
9.999980103990075
100
AcDbArc
 50
90.00013961048274
 51
168.4654731291967
  0
ARC
  5
5BA
330
1A
100
AcDbEntity
  8
SEIHIN
 62
     3
 48
16.0
100
AcDbCircle
 10
222.1493685761666
 20
99.59610704802898
 30
0.0
 40
5.499981059074513
100
AcDbArc
 50
90.00024164918334
 51
168.4663917353858
  0
LINE
  5
5BB
330
1A
100
AcDbEntity
  8
SEIHIN
 62
     3
 48
16.0
100
AcDbLine
 10
210.1669453795902
 20
111.3960881070545
 30
0.0
 11
214.6647453795901
 21
111.3960881070545
 31
0.0
  0
LINE
  5
5BC
330
1A
100
AcDbEntity
  8
SEIHIN
 62
     3
 48
16.0
100
AcDbLine
 10
214.9647453795902
 20
110.5960881070545
 30
0.0
 11
210.8201453795902
 21
110.5960881070545
 31
0.0
  0
ARC
  5
5BD
330
1A
100
AcDbEntity
  8
SEIHIN
 62
     3
 48
16.0
100
AcDbCircle
 10
210.8201441487251
 20
110.0960871020564
 30
0.0
 40
0.5000010049996585
100
AcDbArc
 50
89.99985895352841
 51
168.4629469361434
  0
ARC
  5
5BE
330
1A
100
AcDbEntity
  8
SEIHIN
 62
     3
 48
16.0
100
AcDbCircle
 10
214.6647453795901
 20
111.8960881070545
 30
0.0
 40
0.5
100
AcDbArc
 50
270.0
 51
0.0
  0
ARC
  5
5BF
330
1A
100
AcDbEntity
  8
SEIHIN
 62
     3
 48
16.0
100
AcDbCircle
 10
214.9647453795902
 20
111.5960881070545
 30
0.0
 40
0.9999999999999147
100
AcDbArc
 50
270.0000000000049
 51
0.0000000000048853
  0
LINE
  5
5C0
330
1A
100
AcDbEntity
  8
NOKITOI
 62
     8
 48
5.0
100
AcDbLine
 10
215.1648453795902
 20
112.8959881070543
 30
0.0
 11
210.0648453795902
 21
112.8959881070543
 31
0.0
  0
LINE
  5
5C1
330
1A
100
AcDbEntity
  8
NOKITOI
 62
     8
 48
5.0
100
AcDbLine
 10
210.3097453795903
 20
114.0959881070545
 30
0.0
 11
213.9648453795901
 21
114.0959881070545
 31
0.0
  0
ARC
  5
5C2
330
1A
100
AcDbEntity
  8
SEIHIN
 62
     3
 48
16.0
100
AcDbCircle
 10
230.5647453795902
 20
104.5960881070546
 30
0.0
 40
5.0
100
AcDbArc
 50
0.0
 51
90.0
  0
ARC
  5
5C3
330
1A
100
AcDbEntity
  8
SEIHIN
 62
     3
 48
16.0
100
AcDbCircle
 10
229.3647453795902
 20
104.5960881070546
 30
0.0
 40
5.0
100
AcDbArc
 50
0.0
 51
90.0
  0
LINE
  5
5C4
330
1A
100
AcDbEntity
  8
SEIHIN
 62
     3
 48
16.0
100
AcDbLine
 10
235.5647453795902
 20
104.5960881070546
 30
0.0
 11
234.3647453795902
 21
104.5960881070546
 31
0.0
  0
LINE
  5
5C5
330
1A
100
AcDbEntity
  8
SEIHIN
100
AcDbLine
 10
231.9647453795901
 20
100.5960881070546
 30
0.0
 11
234.3647453795901
 21
98.15402955644268
 31
0.0
  0
ARC
  5
5C6
330
1A
100
AcDbEntity
  8
SEIHIN
 62
     3
 48
16.0
100
AcDbCircle
 10
229.0647453795902
 20
103.0960881070545
 30
0.0
 40
2.000000000000085
100
AcDbArc
 50
0.0000000000024427
 51
90.00000000000245
  0
LINE
  5
5C7
330
1A
100
AcDbEntity
  8
SEIHIN
100
AcDbLine
 10
234.3647453795901
 20
103.0383545446801
 30
0.0
 11
231.9647453795901
 21
100.5960881070546
 31
0.0
  0
LINE
  5
5C8
330
1A
100
AcDbEntity
  8
SEIHIN
100
AcDbLine
 10
231.9647453795901
 20
100.5960881070546
 30
0.0
 11
234.3647453795901
 21
100.5960881070546
 31
0.0
  0
ARC
  5
5C9
330
1A
100
AcDbEntity
  8
SEIHIN
 62
     3
 48
16.0
100
AcDbCircle
 10
214.1647603173132
 20
120.5502766447974
 30
0.0
 40
0.9999850623425844
100
AcDbArc
 50
0.0006567487639385
 51
104.9999856908066
  0
LINE
  5
5CA
330
1A
100
AcDbEntity
  8
NOKITOI
 62
     8
 48
5.0
100
AcDbLine
 10
215.1648453795902
 20
119.8959881070543
 30
0.0
 11
210.2664453795902
 21
119.8959881070543
 31
0.0
  0
ARC
  5
5CB
330
1A
100
AcDbEntity
  8
SEIHIN
 62
     3
 48
16.0
100
AcDbCircle
 10
214.1647871027795
 20
120.550256090721
 30
0.0
 40
1.799958277095341
100
AcDbArc
 50
0.0010191351698574
 51
104.9992829311344
  0
LINE
  5
5CC
330
1A
100
AcDbEntity
  8
NOKITOI
 62
     8
 48
5.0
100
AcDbLine
 10
211.2485453795902
 20
118.6959881070543
 30
0.0
 11
213.9648453795901
 21
118.6959881070543
 31
0.0
  0
POINT
  5
5D5
330
1A
100
AcDbEntity
  8
SUNPOU
  6
ByBlock
 62
     0
380
     1
100
AcDbPoint
 10
292.1098238749693
 20
74.59619699594347
 30
0.0
  0
POINT
  5
5D6
330
1A
100
AcDbEntity
  8
SUNPOU
  6
ByBlock
 62
     0
380
     1
100
AcDbPoint
 10
301.6296238810741
 20
78.59618810705459
 30
0.0
  0
POINT
  5
5DB
330
1A
100
AcDbEntity
  8
SUNPOU
  6
ByBlock
 62
     0
380
     1
100
AcDbPoint
 10
317.6593235447181
 20
74.59619699594347
 30
0.0
  0
POINT
  5
5DF
330
1A
100
AcDbEntity
  8
SUNPOU
  6
ByBlock
 62
     0
380
     1
100
AcDbPoint
 10
317.6593235447181
 20
78.59618810705459
 30
0.0
  0
POINT
  5
5F0
330
1A
100
AcDbEntity
  8
SUNPOU
  6
ByBlock
 62
     0
380
     1
100
AcDbPoint
 10
317.6593235447181
 20
100.5961881070545
 30
0.0
  0
POINT
  5
5F1
330
1A
100
AcDbEntity
  8
SUNPOU
  6
ByBlock
 62
     0
380
     1
100
AcDbPoint
 10
317.6593235447181
 20
104.5961881070546
 30
0.0
  0
POINT
  5
5F2
330
1A
100
AcDbEntity
  8
SUNPOU
  6
ByBlock
 62
     0
380
     1
100
AcDbPoint
 10
317.6593235447181
 20
104.5961881070546
 30
0.0
  0
POINT
  5
5F4
330
1A
100
AcDbEntity
  8
SUNPOU
  6
ByBlock
 62
     0
380
     1
100
AcDbPoint
 10
321.6593235447181
 20
104.5961881070546
 30
0.0
  0
POINT
  5
5FC
330
1A
100
AcDbEntity
  8
SUNPOU
  6
ByBlock
 62
     0
380
     1
100
AcDbPoint
 10
321.6593235447181
 20
124.1436059294229
 30
0.0
  0
POINT
  5
5FF
330
1A
100
AcDbEntity
  8
SUNPOU
  6
ByBlock
 62
     0
380
     1
100
AcDbPoint
 10
317.6593235447181
 20
133.6555270227524
 30
0.0
  0
POINT
  5
61B
330
1A
100
AcDbEntity
  8
SUNPOU
  6
ByBlock
 62
     0
380
     1
100
AcDbPoint
 10
362.6593235447183
 20
104.5960881070545
 30
0.0
  0
POINT
  5
61C
330
1A
100
AcDbEntity
  8
SUNPOU
  6
ByBlock
 62
     0
380
     1
100
AcDbPoint
 10
366.6593235447183
 20
104.5960881070545
 30
0.0
  0
LINE
  5
61F
330
1A
100
AcDbEntity
  8
SEIHIN
 62
     3
 48
16.0
100
AcDbLine
 10
235.5648453795901
 20
175.3959881070545
 30
0.0
 11
235.5648453795901
 21
191.5959881070545
 31
0.0
  0
LINE
  5
620
330
1A
100
AcDbEntity
  8
SEIHIN
 62
     3
 48
16.0
100
AcDbLine
 10
234.36484537959
 20
190.8959881070544
 30
0.0
 11
234.36484537959
 21
175.3959881070545
 31
0.0
  0
DIMENSION
  5
621
330
1A
100
AcDbEntity
  8
SUNPOU
100
AcDbDimension
  2
*D8
 10
253.5918630539677
 20
175.3959881070545
 30
0.0
 11
251.0918630539677
 21
199.8959881070545
 31
0.0
 70
    32
 71
     5
 42
-1.0
  3
STANDARD
100
AcDbAlignedDimension
 13
235.5648453795901
 23
224.3959881070544
 33
0.0
 14
235.5648453795901
 24
175.3959881070545
 34
0.0
 50
90.0
100
AcDbRotatedDimension
1001
ACAD
1000
DSTYLE
1002
{
1070
   140
1040
3.0
1070
    74
1070
     0
1070
   172
1070
     1
1070
    73
1070
     0
1070
   272
1070
     2
1070
    77
1070
     3
1070
   173
1070
     1
1070
   147
1040
1.0
1070
    42
1040
3.0
1070
    44
1040
1.5
1070
    43
1040
7.0
1070
   271
1070
     0
1070
   178
1070
   256
1070
   177
1070
   256
1070
   176
1070
   256
1070
   141
1040
150.0
1070
     7
1000
_OPEN
1070
     6
1000
_OPEN
1070
    41
1040
3.0
1002
}
  0
LINE
  5
622
330
1A
100
AcDbEntity
  8
SEIHIN
 62
     3
 48
16.0
100
AcDbLine
 10
235.5648453795901
 20
175.3959881070545
 30
0.0
 11
234.36484537959
 21
175.3959881070545
 31
0.0
  0
LINE
  5
623
330
1A
100
AcDbEntity
  8
CENTER L
 48
5.0
100
AcDbLine
 10
239.4153453795901
 20
179.3959881070545
 30
0.0
 11
229.5888453795902
 21
179.3959881070545
 31
0.0
  0
LINE
  5
624
330
1A
100
AcDbEntity
  8
SEIHIN
100
AcDbLine
 10
234.36484537959
 20
210.7959817779727
 30
0.0
 11
231.96484537959
 21
208.3960121582963
 31
0.0
  0
LINE
  5
625
330
1A
100
AcDbEntity
  8
SEIHIN
 62
     3
 48
16.0
100
AcDbLine
 10
234.36484537959
 20
208.8959881070545
 30
0.0
 11
234.36484537959
 21
224.3959881070544
 31
0.0
  0
LINE
  5
626
330
1A
100
AcDbEntity
  8
SEIHIN
 62
     3
 48
16.0
100
AcDbLine
 10
235.5648453795901
 20
224.3959881070544
 30
0.0
 11
235.5648453795901
 21
208.1959881070544
 31
0.0
  0
LINE
  5
627
330
1A
100
AcDbEntity
  8
SEIHIN
 62
     3
 48
16.0
100
AcDbLine
 10
233.8648453795901
 20
191.3959881070544
 30
0.0
 11
215.9650453795901
 21
191.3959881070544
 31
0.0
  0
LINE
  5
628
330
1A
100
AcDbEntity
  8
SEIHIN
 62
     3
 48
16.0
100
AcDbLine
 10
234.5648453795902
 20
192.5959881070544
 30
0.0
 11
215.9650453795901
 21
192.5959881070544
 31
0.0
  0
LINE
  5
629
330
1A
100
AcDbEntity
  8
SEIHIN
 62
     3
 48
16.0
100
AcDbLine
 10
233.8648453795901
 20
208.3959881070545
 30
0.0
 11
215.9650453795901
 21
208.3960881070546
 31
0.0
  0
LINE
  5
62A
330
1A
100
AcDbEntity
  8
SEIHIN
 62
     3
 48
16.0
100
AcDbLine
 10
234.5648453795902
 20
207.1959881070545
 30
0.0
 11
215.9650453795901
 21
207.1960881070544
 31
0.0
  0
LINE
  5
62B
330
1A
100
AcDbEntity
  8
SEIHIN
 62
     3
 48
16.0
100
AcDbLine
 10
215.9650453795901
 20
189.8959881070545
 30
0.0
 11
215.9650453795901
 21
199.8959881070544
 31
0.0
  0
LINE
  5
62C
330
1A
100
AcDbEntity
  8
SEIHIN
 62
     3
 48
16.0
100
AcDbLine
 10
213.16774537959
 20
190.8959881070544
 30
0.0
 11
213.16774537959
 21
193.3959881070544
 31
0.0
  0
LINE
  5
62D
330
1A
100
AcDbEntity
  8
SEIHIN
 62
     3
 48
16.0
100
AcDbLine
 10
215.16494537959
 20
189.8959881070545
 30
0.0
 11
215.16494537959
 21
193.3959881070544
 31
0.0
  0
LINE
  5
62E
330
1A
100
AcDbEntity
  8
SEIHIN
 62
     3
 48
16.0
100
AcDbLine
 10
215.16494537959
 20
189.8959881070545
 30
0.0
 11
215.9649453795899
 21
189.8959881070545
 31
0.0
  0
LINE
  5
62F
330
1A
100
AcDbEntity
  8
SEIHIN
 62
     3
 48
16.0
100
AcDbLine
 10
210.46514537959
 20
193.3959881070544
 30
0.0
 11
215.9649453795899
 21
193.3959881070544
 31
0.0
  0
ARC
  5
630
330
1A
100
AcDbEntity
  8
SEIHIN
 62
     3
 48
16.0
100
AcDbCircle
 10
210.9076039198603
 20
195.6460880849216
 30
0.0
 40
2.263588137967559
100
AcDbArc
 50
263.69579163689
 51
276.2579367891673
  0
LINE
  5
631
330
1A
100
AcDbEntity
  8
SEIHIN
 62
     3
 48
16.0
100
AcDbLine
 10
215.9650453795901
 20
209.8959881070544
 30
0.0
 11
215.9651453795901
 21
199.8959881070544
 31
0.0
  0
LINE
  5
632
330
1A
100
AcDbEntity
  8
SEIHIN
 62
     3
 48
16.0
100
AcDbLine
 10
210.46514537959
 20
206.3959881070545
 30
0.0
 11
215.9649453795899
 21
206.3959881070545
 31
0.0
  0
LINE
  5
633
330
1A
100
AcDbEntity
  8
SEIHIN
 62
     3
 48
16.0
100
AcDbLine
 10
213.16774537959
 20
208.8960881070546
 30
0.0
 11
213.16774537959
 21
206.3959881070545
 31
0.0
  0
ARC
  5
634
330
1A
100
AcDbEntity
  8
SEIHIN
 62
     3
 48
16.0
100
AcDbCircle
 10
210.9075988358563
 20
204.1458881165729
 30
0.0
 40
2.263686987591017
100
AcDbArc
 50
83.71929133007361
 51
96.30380249452137
  0
LINE
  5
635
330
1A
100
AcDbEntity
  8
SEIHIN
 62
     3
 48
16.0
100
AcDbLine
 10
215.16494537959
 20
209.8959881070544
 30
0.0
 11
215.9649453795899
 21
209.8959881070544
 31
0.0
  0
LINE
  5
636
330
1A
100
AcDbEntity
  8
SEIHIN
 62
     3
 48
16.0
100
AcDbLine
 10
215.16494537959
 20
209.8959881070544
 30
0.0
 11
215.1650453795901
 21
206.3959881070545
 31
0.0
  0
LINE
  5
637
330
1A
100
AcDbEntity
  8
SEIHIN
 62
     3
 48
16.0
100
AcDbLine
 10
232.26484537959
 20
199.8959881070544
 30
0.0
 11
232.26484537959
 21
193.5959881070545
 31
0.0
  0
LINE
  5
638
330
1A
100
AcDbEntity
  8
SEIHIN
100
AcDbLine
 10
234.36484537959
 20
190.8959881070544
 30
0.0
 11
235.5648453795901
 21
190.8959881070544
 31
0.0
  0
ARC
  5
639
330
1A
100
AcDbEntity
  8
SEIHIN
 62
     3
 48
16.0
100
AcDbCircle
 10
234.5648453795902
 20
191.5959881070545
 30
0.0
 40
0.9999999999999431
100
AcDbArc
 50
0.0000000000032569
 51
90.00000000000325
  0
ARC
  5
63A
330
1A
100
AcDbEntity
  8
SEIHIN
 62
     3
 48
16.0
100
AcDbCircle
 10
233.2648453795901
 20
193.5959881070544
 30
0.0
 40
1.000000000000056
100
AcDbArc
 50
179.9999999999967
 51
269.9999999999968
  0
ARC
  5
63B
330
1A
100
AcDbEntity
  8
SEIHIN
 62
     3
 48
16.0
100
AcDbCircle
 10
233.8648453795901
 20
190.8959881070544
 30
0.0
 40
0.4999999999999432
100
AcDbArc
 50
359.9999999999935
 51
89.99999999999349
  0
LINE
  5
63C
330
1A
100
AcDbEntity
  8
SEIHIN
100
AcDbLine
 10
234.36484537959
 20
188.9959881070544
 30
0.0
 11
231.96484537959
 21
191.3959881070544
 31
0.0
  0
LINE
  5
63D
330
1A
100
AcDbEntity
  8
SEIHIN
100
AcDbLine
 10
234.36484537959
 20
208.8959881070545
 30
0.0
 11
235.5648453795901
 21
208.8959881070545
 31
0.0
  0
ARC
  5
63E
330
1A
100
AcDbEntity
  8
SEIHIN
 62
     3
 48
16.0
100
AcDbCircle
 10
234.5648453795902
 20
208.1959881070545
 30
0.0
 40
0.9999999999999147
100
AcDbArc
 50
269.9999999999951
 51
359.9999999999951
  0
LINE
  5
63F
330
1A
100
AcDbEntity
  8
SEIHIN
 62
     3
 48
16.0
100
AcDbLine
 10
232.26484537959
 20
199.8958881070545
 30
0.0
 11
232.26484537959
 21
206.1959881070544
 31
0.0
  0
ARC
  5
640
330
1A
100
AcDbEntity
  8
SEIHIN
 62
     3
 48
16.0
100
AcDbCircle
 10
233.8648453795901
 20
208.8959881070545
 30
0.0
 40
0.4999999999999432
100
AcDbArc
 50
270.0000000000065
 51
0.0000000000065138
  0
ARC
  5
641
330
1A
100
AcDbEntity
  8
SEIHIN
 62
     3
 48
16.0
100
AcDbCircle
 10
233.2648453795901
 20
206.1959881070545
 30
0.0
 40
1.000000000000085
100
AcDbArc
 50
90.00000000000488
 51
180.0000000000049
  0
LINE
  5
642
330
1A
100
AcDbEntity
  8
CENTER L
 48
5.0
100
AcDbLine
 10
239.4154453795901
 20
220.3959881070544
 30
0.0
 11
229.58894537959
 21
220.3959881070544
 31
0.0
  0
LINE
  5
643
330
1A
100
AcDbEntity
  8
SEIHIN
 62
     3
 48
16.0
100
AcDbLine
 10
235.5648453795901
 20
224.3959881070544
 30
0.0
 11
234.3649453795901
 21
224.3959881070544
 31
0.0
  0
LINE
  5
AFA
330
1A
100
AcDbEntity
  8
ZUWAKU
100
AcDbLine
 10
104.3233001471241
 20
7.599999679512958
 30
0.0
 11
223.7121814875858
 21
7.599999679512954
 31
0.0
  0
LINE
  5
AFB
330
1A
100
AcDbEntity
  8
ZUWAKU
100
AcDbLine
 10
104.3233001471241
 20
7.799999679512955
 30
0.0
 11
223.7121814875858
 21
7.799999679512959
 31
0.0
  0
LINE
  5
AFC
330
1A
100
AcDbEntity
  8
ZUWAKU
100
AcDbLine
 10
104.3233001471241
 20
7.699999679512956
 30
0.0
 11
223.7121814875858
 21
7.699999679512956
 31
0.0
  0
LINE
  5
AFD
330
1A
100
AcDbEntity
  8
ZUWAKU
100
AcDbLine
 10
-0.0000004979099231
 20
15.39999967951294
 30
0.0
 11
398.69999950209
 21
15.39999967951294
 31
0.0
  0
LINE
  5
AFE
330
1A
100
AcDbEntity
  8
ZUWAKU
100
AcDbLine
 10
-0.0000004979099231
 20
15.29999967951294
 30
0.0
 11
398.69999950209
 21
15.29999967951294
 31
0.0
  0
LINE
  5
AFF
330
1A
100
AcDbEntity
  8
ZUWAKU
100
AcDbLine
 10
-0.0000004979099231
 20
15.19999967951294
 30
0.0
 11
398.69999950209
 21
15.19999967951294
 31
0.0
  0
LINE
  5
B00
330
1A
100
AcDbEntity
  8
ZUWAKU
100
AcDbLine
 10
-0.0000004979099231
 20
15.09999967951294
 30
0.0
 11
398.69999950209
 21
15.09999967951294
 31
0.0
  0
LINE
  5
B01
330
1A
100
AcDbEntity
  8
ZUWAKU
100
AcDbLine
 10
-0.0000004979099231
 20
14.99999967951294
 30
0.0
 11
398.69999950209
 21
14.99999967951294
 31
0.0
  0
LWPOLYLINE
  5
B02
330
1A
100
AcDbEntity
  8
ZUWAKU
100
AcDbPolyline
 90
        4
 70
     1
 43
0.0
 10
0.0999995020900428
 20
275.699999679513
 10
0.0999995020900428
 20
0.0999996795129619
 10
398.69999950209
 20
0.0999996795129734
 10
398.6999995020901
 20
275.699999679513
  0
LWPOLYLINE
  5
B03
330
1A
100
AcDbEntity
  8
ZUWAKU
100
AcDbPolyline
 90
        4
 70
     1
 43
0.0
 10
0.2999995020900314
 20
275.499999679513
 10
0.2999995020900314
 20
0.2999996795129505
 10
398.4999995020902
 20
0.2999996795129736
 10
398.4999995020901
 20
275.499999679513
  0
LWPOLYLINE
  5
B04
330
1A
100
AcDbEntity
  8
ZUWAKU
100
AcDbPolyline
 90
        4
 70
     1
 43
0.0
 10
-0.0000004979099231
 20
275.7999996795129
 10
-0.0000004979099231
 20
-0.0000003204870609
 10
398.7999995020901
 20
-0.0000003204870271
 10
398.7999995020901
 20
275.799999679513
  0
LWPOLYLINE
  5
B05
330
1A
100
AcDbEntity
  8
ZUWAKU
100
AcDbPolyline
 90
        4
 70
     1
 43
0.0
 10
0.1999995020900655
 20
275.599999679513
 10
0.1999995020900655
 20
0.1999996795129846
 10
398.5999995020901
 20
0.199999679512973
 10
398.5999995020901
 20
275.599999679513
  0
LWPOLYLINE
  5
B06
330
1A
100
AcDbEntity
  8
ZUWAKU
100
AcDbPolyline
 90
        4
 70
     1
 43
0.0
 10
0.3999995020900542
 20
275.399999679513
 10
0.3999995020900542
 20
0.3999996795129732
 10
398.3999995020901
 20
0.3999996795129732
 10
398.3999995020901
 20
275.399999679513
  0
INSERT
  5
B07
330
1A
100
AcDbEntity
  8
ZUWAKU
  6
Continuous
100
AcDbBlockReference
  2
*X9
 10
0.0
 20
0.0
 30
0.0
1001
ACAD
1000
HATCH
1002
{
1070
    19
1000
ANSI37
1040
0.1
1040
0.0
1000
R14_HATCH_DATA
1000
B07
1011
1.0
1021
0.0
1031
0.0
1011
0.0
1021
1.0
1031
0.0
1011
0.0
1021
0.0
1031
1.0
1040
0.0
1010
0.0
1020
0.0
1030
1.0
1000
ANSI37
1070
     0
1070
     0
1071
        8
1071
        7
1070
     1
1070
     1
1071
       24
1040
7.251130832650005
1040
8.82242392000473
1040
-0.1989123673796348
1040
7.046105579480638
1040
9.317398666835256
1040
0.0
1040
7.046105579480638
1040
9.962499679512944
1040
-0.4142135623730912
1040
7.308605579480627
1040
10.22499967951294
1040
0.0
1040
8.796105579480581
1040
10.22499967951294
1040
0.4142135623731546
1040
9.058605579480627
1040
10.48749967951293
1040
0.0
1040
9.058605579480627
1040
11.36249967951294
1040
0.4142135623731586
1040
8.796105579480581
1040
11.62499967951294
1040
0.0
1040
7.046105579480638
1040
11.62499967951294
1040
0.4142135623730928
1040
5.646105579480661
1040
10.22499967951295
1040
0.0
1040
5.646105579480661
1040
9.31739866683532
1040
0.1989123673796619
1040
6.261181338988876
1040
7.832474426343516
1040
0.0
1040
7.716080326311214
1040
6.377575439021187
1040
-0.1989123673796613
1040
7.921105579480638
1040
5.882600692190594
1040
0.0
1040
7.921105579480638
1040
5.237499679512936
1040
-0.4142135623730911
1040
7.658605579480649
1040
4.97499967951294
1040
0.0
1040
6.171105579480695
1040
4.97499967951294
1040
0.4142135623731526
1040
5.908605579480649
1040
4.712499679512946
1040
0.0
1040
5.908605579480649
1040
3.837499679512935
1040
0.4142135623731526
1040
6.171105579480695
1040
3.574999679512941
1040
0.0
1040
7.921105579480638
1040
3.574999679512941
1040
0.4142135623731044
1040
9.321105579480672
1040
4.974999679512929
1040
0.0
1040
9.321105579480672
1040
5.882600692190566
1040
0.1989123673796604
1040
8.7060298199724
1040
7.367524932682336
1040
0.0
1071
        0
1071
        7
1070
     1
1070
     1
1071
       16
1040
11.77110557948066
1040
9.524999679512944
1040
-0.4142135623730935
1040
12.47110557948065
1040
10.22499967951294
1040
0.0
1040
13.43360557948062
1040
10.22499967951294
1040
0.4142135623731546
1040
13.69610557948067
1040
10.48749967951293
1040
0.0
1040
13.69610557948067
1040
11.36249967951294
1040
0.4142135623730951
1040
13.43360557948068
1040
11.62499967951294
1040
0.0
1040
12.47110557948059
1040
11.62499967951292
1040
0.4142135623730892
1040
10.37110557948063
1040
9.524999679512909
1040
0.0
1040
10.37110557948063
1040
5.674999679512954
1040
0.4142135623730969
1040
12.47110557948065
1040
3.574999679512941
1040
0.0
1040
13.43360557948062
1040
3.574999679512941
1040
0.4142135623731526
1040
13.69610557948067
1040
3.837499679512935
1040
0.0
1040
13.69610557948067
1040
4.712499679512946
1040
0.4142135623730891
1040
13.43360557948068
1040
4.97499967951294
1040
0.0
1040
12.47110557948065
1040
4.97499967951294
1040
-0.4142135623730928
1040
11.77110557948066
1040
5.674999679512934
1040
0.0
1071
        0
1071
        7
1070
     1
1070
     1
1071
        2
1040
12.12110557948063
1040
7.59999967951294
1040
1.0
1040
13.87110557948062
1040
7.59999967951294
1040
1.0
1071
        0
1071
        7
1070
     1
1070
     1
1071
       26
1040
18.65742882056963
1040
9.602523276294654
1040
0.0
1040
19.18824863713854
1040
11.28345269542945
1040
0.5069206636600134
1040
18.93793318754086
1040
11.62499967951294
1040
0.0
1040
18.08848849773625
1040
11.62499967951294
1040
0.3272098845218764
1040
17.83817304813857
1040
11.44154666359642
1040
0.0
1040
16.90403811082268
1040
8.48345269542948
1040
-0.3272098845219541
1040
16.65372266122495
1040
8.299999679512939
1040
0.0
1040
16.58360557948071
1040
8.299999679512939
1040
-0.4142135623731526
1040
16.32110557948067
1040
8.562499679512933
1040
0.0
1040
16.32110557948067
1040
11.36249967951294
1040
0.4142135623730951
1040
16.05860557948068
1040
11.62499967951294
1040
0.0
1040
15.18360557948063
1040
11.62499967951294
1040
0.4142135623730871
1040
14.92110557948064
1040
11.36249967951295
1040
0.0
1040
14.92110557948064
1040
3.837499679512935
1040
0.4142135623730891
1040
15.18360557948063
1040
3.574999679512941
1040
0.0
1040
16.05860557948062
1040
3.574999679512941
1040
0.4142135623731526
1040
16.32110557948067
1040
3.837499679512935
1040
0.0
1040
16.32110557948067
1040
6.637499679512947
1040
-0.4142135623731526
1040
16.58360557948071
1040
6.899999679512941
1040
0.0
1040
16.653722661225
1040
6.899999679512941
1040
-0.3272098845218915
1040
16.90403811082268
1040
6.716546663596403
1040
0.0
1040
17.83817304813857
1040
3.758452695429477
1040
0.3272098845218902
1040
18.08848849773625
1040
3.574999679512941
1040
0.0
1040
18.93793318754086
1040
3.574999679512941
1040
0.5069206636600335
1040
19.18824863713854
1040
3.916546663596445
1040
0.0
1040
18.02505294790171
1040
7.599999679513009
1040
0.0
1071
        0
1071
        7
1070
     1
1070
     1
1071
        8
1040
21.74610557948063
1040
11.36249967951294
1040
0.4142135623731546
1040
21.48360557948058
1040
11.62499967951294
1040
0.0
1040
20.60860557948069
1040
11.62499967951294
1040
0.4142135623731507
1040
20.34610557948065
1040
11.36249967951295
1040
0.0
1040
20.34610557948065
1040
3.837499679512935
1040
0.4142135623731526
1040
20.60860557948069
1040
3.574999679512941
1040
0.0
1040
21.48360557948058
1040
3.574999679512941
1040
0.4142135623731526
1040
21.74610557948063
1040
3.837499679512935
1040
0.0
1071
        0
1071
        7
1070
     1
1070
     1
1071
       24
1040
24.19610557948067
1040
9.962499679512944
1040
-0.4142135623731546
1040
24.45860557948072
1040
10.22499967951294
1040
0.0
1040
25.94610557948068
1040
10.22499967951294
1040
0.4142135623730911
1040
26.20860557948066
1040
10.48749967951293
1040
0.0
1040
26.20860557948066
1040
11.36249967951294
1040
0.4142135623730952
1040
25.94610557948068
1040
11.62499967951294
1040
0.0
1040
24.19610557948067
1040
11.62499967951294
1040
0.4142135623731048
1040
22.79610557948064
1040
10.22499967951295
1040
0.0
1040
22.79610557948064
1040
9.31739866683532
1040
0.1989123673796613
1040
23.41118133898891
1040
7.832474426343544
1040
0.0
1040
24.86608032631125
1040
6.37757543902121
1040
-0.1989123673796402
1040
25.07110557948067
1040
5.882600692190674
1040
0.0
1040
25.07110557948067
1040
5.237499679512936
1040
-0.4142135623730911
1040
24.80860557948068
1040
4.97499967951294
1040
0.0
1040
23.32110557948067
1040
4.97499967951294
1040
0.4142135623731526
1040
23.05860557948063
1040
4.712499679512946
1040
0.0
1040
23.05860557948063
1040
3.837499679512935
1040
0.4142135623730891
1040
23.32110557948062
1040
3.574999679512941
1040
0.0
1040
25.07110557948067
1040
3.574999679512941
1040
0.4142135623730925
1040
26.47110557948065
1040
4.974999679512929
1040
0.0
1040
26.47110557948065
1040
5.882600692190566
1040
0.1989123673796675
1040
25.85602981997238
1040
7.367524932682393
1040
0.0
1040
24.4011308326501
1040
8.82242392000465
1040
-0.1989123673796652
1040
24.19610557948067
1040
9.317398666835234
1040
0.0
1071
        0
1071
        7
1070
     1
1070
     1
1071
       16
1040
28.92110557948064
1040
11.36249967951293
1040
0.414213562373103
1040
28.65860557948065
1040
11.62499967951294
1040
0.0
1040
27.78360557948065
1040
11.62499967951294
1040
0.4142135623730871
1040
27.52110557948066
1040
11.36249967951295
1040
0.0
1040
27.52110557948066
1040
4.974999679512929
1040
0.4142135623730926
1040
28.92110557948064
1040
3.574999679512941
1040
0.0
1040
30.67110557948064
1040
3.574999679512941
1040
0.4142135623731044
1040
32.07110557948067
1040
4.974999679512929
1040
0.0
1040
32.07110557948067
1040
11.36249967951294
1040
0.4142135623730951
1040
31.80860557948069
1040
11.62499967951294
1040
0.0
1040
30.93360557948063
1040
11.62499967951294
1040
0.4142135623730871
1040
30.67110557948064
1040
11.36249967951295
1040
0.0
1040
30.67110557948064
1040
5.499999679512928
1040
-0.414213562373088
1040
30.14610557948066
1040
4.97499967951294
1040
0.0
1040
29.44610557948067
1040
4.97499967951294
1040
-0.4142135623731197
1040
28.92110557948064
1040
5.499999679512928
1040
0.0
1071
        0
1071
        7
1070
     1
1070
     1
1071
        8
1040
34.52110557948066
1040
11.36249967951295
1040
0.4142135623730871
1040
34.25860557948067
1040
11.62499967951294
1040
0.0
1040
33.38360557948067
1040
11.62499967951294
1040
0.4142135623731507
1040
33.12110557948063
1040
11.36249967951295
1040
0.0
1040
33.12110557948063
1040
3.837499679512935
1040
0.4142135623730891
1040
33.38360557948062
1040
3.574999679512941
1040
0.0
1040
34.25860557948067
1040
3.574999679512941
1040
0.4142135623730891
1040
34.52110557948066
1040
3.837499679512935
1040
0.0
1071
        0
1070
     0
1070
     1
1040
0.0
1040
0.1
1070
     0
1070
     2
1040
0.7853981633974483
1040
-450.4711526652494
1040
-6.600000320487026
1040
-0.2245064030267288
1040
0.2245064030267288
1070
     0
1040
2.356194490192344
1040
-450.4711526652494
1040
-6.600000320487026
1040
-0.2245064030267288
1040
-0.2245064030267288
1070
     0
1040
0.057451373970553
1071
        8
1040
8.039926983601731
1040
7.583586502455716
1040
0.0
1040
11.20225700530966
1040
9.422030770738444
1040
0.0
1040
12.5821834449199
1040
7.755940502548298
1040
0.0
1040
15.45702949290864
1040
8.10064850273369
1040
0.0
1040
20.91923551156845
1040
8.330454636504498
1040
0.0
1040
23.44909994965485
1040
9.709287837716544
1040
0.0
1040
28.27884248829025
1040
9.364578637060446
1040
0.0
1040
33.91353931190145
1040
9.594384770831254
1040
0.0
1002
}
  0
LINE
  5
B08
330
1A
100
AcDbEntity
  8
ZUWAKU
100
AcDbLine
 10
12.47110557948065
 20
11.62499967951292
 30
0.0
 11
13.43360557948062
 21
11.62499967951294
 31
0.0
  0
LINE
  5
B09
330
1A
100
AcDbEntity
  8
ZUWAKU
100
AcDbLine
 10
13.43360557948062
 20
10.22499967951294
 30
0.0
 11
12.47110557948065
 21
10.22499967951294
 31
0.0
  0
LINE
  5
B0A
330
1A
100
AcDbEntity
  8
ZUWAKU
100
AcDbLine
 10
12.47110557948065
 20
4.97499967951294
 30
0.0
 11
13.43360557948062
 21
4.97499967951294
 31
0.0
  0
LINE
  5
B0B
330
1A
100
AcDbEntity
  8
ZUWAKU
100
AcDbLine
 10
13.43360557948062
 20
3.574999679512941
 30
0.0
 11
12.47110557948065
 21
3.574999679512941
 31
0.0
  0
CIRCLE
  5
B0C
330
1A
100
AcDbEntity
  8
ZUWAKU
100
AcDbCircle
 10
12.99610557948063
 20
7.59999967951294
 30
0.0
 40
0.875
  0
ARC
  5
B0D
330
1A
100
AcDbEntity
  8
ZUWAKU
100
AcDbCircle
 10
7.746105579480627
 20
9.317398666835291
 30
0.0
 40
0.7
100
AcDbArc
 50
180.0000000000016
 51
224.9999999999988
  0
LINE
  5
B0E
330
1A
100
AcDbEntity
  8
ZUWAKU
100
AcDbLine
 10
11.77110557948066
 20
9.524999679512941
 30
0.0
 11
11.77110557948066
 21
5.674999679512943
 31
0.0
  0
LINE
  5
B0F
330
1A
100
AcDbEntity
  8
ZUWAKU
100
AcDbLine
 10
10.37110557948063
 20
5.674999679512943
 30
0.0
 11
10.37110557948063
 21
9.524999679512919
 31
0.0
  0
ARC
  5
B10
330
1A
100
AcDbEntity
  8
ZUWAKU
100
AcDbCircle
 10
7.746105579480627
 20
9.317398666835291
 30
0.0
 40
2.099999999999999
100
AcDbArc
 50
180.0
 51
225.0
  0
ARC
  5
B11
330
1A
100
AcDbEntity
  8
ZUWAKU
100
AcDbCircle
 10
7.921105579480638
 20
4.97499967951294
 30
0.0
 40
1.399999999999999
100
AcDbArc
 50
270.0
 51
0.0
  0
ARC
  5
B12
330
1A
100
AcDbEntity
  8
ZUWAKU
100
AcDbCircle
 10
12.47110557948065
 20
5.674999679512943
 30
0.0
 40
2.099999999999999
100
AcDbArc
 50
180.0
 51
270.0
  0
ARC
  5
B13
330
1A
100
AcDbEntity
  8
ZUWAKU
100
AcDbCircle
 10
7.221105579480649
 20
5.882600692190592
 30
0.0
 40
2.099999999999999
100
AcDbArc
 50
0.0
 51
45.0
  0
LINE
  5
B14
330
1A
100
AcDbEntity
  8
ZUWAKU
100
AcDbLine
 10
8.7060298199724
 20
7.367524932682353
 30
0.0
 11
7.251130832650062
 21
8.822423920004691
 31
0.0
  0
LINE
  5
B15
330
1A
100
AcDbEntity
  8
ZUWAKU
100
AcDbLine
 10
7.921105579480638
 20
5.237499679512943
 30
0.0
 11
7.921105579480638
 21
5.882600692190614
 31
0.0
  0
ARC
  5
B16
330
1A
100
AcDbEntity
  8
ZUWAKU
100
AcDbCircle
 10
7.658605579480649
 20
5.237499679512943
 30
0.0
 40
0.2625
100
AcDbArc
 50
270.0
 51
0.0
  0
ARC
  5
B17
330
1A
100
AcDbEntity
  8
ZUWAKU
100
AcDbCircle
 10
7.221105579480649
 20
5.882600692190614
 30
0.0
 40
0.7
100
AcDbArc
 50
0.0
 51
45.0
  0
LINE
  5
B18
330
1A
100
AcDbEntity
  8
ZUWAKU
100
AcDbLine
 10
5.908605579480649
 20
3.837499679512941
 30
0.0
 11
5.908605579480649
 21
4.712499679512941
 31
0.0
  0
ARC
  5
B19
330
1A
100
AcDbEntity
  8
ZUWAKU
100
AcDbCircle
 10
6.171105579480638
 20
3.837499679512941
 30
0.0
 40
0.2625
100
AcDbArc
 50
180.0
 51
270.0
  0
ARC
  5
B1A
330
1A
100
AcDbEntity
  8
ZUWAKU
100
AcDbCircle
 10
6.171105579480638
 20
4.712499679512941
 30
0.0
 40
0.2625
100
AcDbArc
 50
90.0
 51
180.0
  0
LINE
  5
B1B
330
1A
100
AcDbEntity
  8
ZUWAKU
100
AcDbLine
 10
6.171105579480638
 20
3.574999679512941
 30
0.0
 11
7.921105579480638
 21
3.574999679512941
 31
0.0
  0
LINE
  5
B1C
330
1A
100
AcDbEntity
  8
ZUWAKU
100
AcDbLine
 10
6.171105579480638
 20
4.97499967951294
 30
0.0
 11
7.658605579480649
 21
4.97499967951294
 31
0.0
  0
LINE
  5
B1D
330
1A
100
AcDbEntity
  8
ZUWAKU
100
AcDbLine
 10
6.261181338988876
 20
7.83247442634353
 30
0.0
 11
7.716080326311214
 21
6.3775754390212
 31
0.0
  0
LINE
  5
B1E
330
1A
100
AcDbEntity
  8
ZUWAKU
100
AcDbLine
 10
9.321105579480672
 20
4.97499967951294
 30
0.0
 11
9.321105579480672
 21
5.882600692190614
 31
0.0
  0
ARC
  5
B1F
330
1A
100
AcDbEntity
  8
ZUWAKU
100
AcDbCircle
 10
12.47110557948065
 20
5.674999679512943
 30
0.0
 40
0.7
100
AcDbArc
 50
180.0
 51
270.0
  0
ARC
  5
B20
330
1A
100
AcDbEntity
  8
ZUWAKU
100
AcDbCircle
 10
8.796105579480638
 20
11.36249967951294
 30
0.0
 40
0.2625
100
AcDbArc
 50
0.0
 51
90.0
  0
ARC
  5
B21
330
1A
100
AcDbEntity
  8
ZUWAKU
100
AcDbCircle
 10
8.796105579480638
 20
10.48749967951294
 30
0.0
 40
0.2625
100
AcDbArc
 50
270.0
 51
0.0
  0
LINE
  5
B22
330
1A
100
AcDbEntity
  8
ZUWAKU
100
AcDbLine
 10
7.046105579480638
 20
11.62499967951294
 30
0.0
 11
8.796105579480638
 21
11.62499967951294
 31
0.0
  0
ARC
  5
B23
330
1A
100
AcDbEntity
  8
ZUWAKU
100
AcDbCircle
 10
7.308605579480627
 20
9.962499679512941
 30
0.0
 40
0.2625
100
AcDbArc
 50
90.0
 51
180.0
  0
LINE
  5
B24
330
1A
100
AcDbEntity
  8
ZUWAKU
100
AcDbLine
 10
7.046105579480638
 20
9.962499679512941
 30
0.0
 11
7.046105579480638
 21
9.31739866683527
 31
0.0
  0
LINE
  5
B25
330
1A
100
AcDbEntity
  8
ZUWAKU
100
AcDbLine
 10
8.796105579480638
 20
10.22499967951294
 30
0.0
 11
7.308605579480627
 21
10.22499967951294
 31
0.0
  0
LINE
  5
B26
330
1A
100
AcDbEntity
  8
ZUWAKU
100
AcDbLine
 10
5.646105579480661
 20
10.22499967951294
 30
0.0
 11
5.646105579480661
 21
9.31739866683527
 31
0.0
  0
ARC
  5
B27
330
1A
100
AcDbEntity
  8
ZUWAKU
100
AcDbCircle
 10
7.046105579480638
 20
10.22499967951294
 30
0.0
 40
1.399999999999999
100
AcDbArc
 50
90.0
 51
180.0
  0
LINE
  5
B28
330
1A
100
AcDbEntity
  8
ZUWAKU
100
AcDbLine
 10
9.058605579480627
 20
11.36249967951294
 30
0.0
 11
9.058605579480627
 21
10.48749967951294
 31
0.0
  0
ARC
  5
B29
330
1A
100
AcDbEntity
  8
ZUWAKU
100
AcDbCircle
 10
12.47110557948065
 20
9.524999679512941
 30
0.0
 40
0.7
100
AcDbArc
 50
90.0
 51
180.0
  0
ARC
  5
B2A
330
1A
100
AcDbEntity
  8
ZUWAKU
100
AcDbCircle
 10
12.47110557948065
 20
9.524999679512919
 30
0.0
 40
2.099999999999999
100
AcDbArc
 50
90.0
 51
180.0
  0
TEXT
  5
B2B
330
1A
100
AcDbEntity
  8
moji
100
AcDbText
 10
46.47889429617464
 20
6.370588744650319
 30
0.0
 40
3.0
  1
ライナートップ
 41
0.9
  7
ｽﾀｲﾙ1
100
AcDbText
  0
LINE
  5
B2C
330
1A
100
AcDbEntity
  8
ZUWAKU
100
AcDbLine
 10
39.66331427608418
 20
14.99999967951294
 30
0.0
 11
39.66331427608429
 21
0.3999996795129732
 31
0.0
  0
LINE
  5
B2D
330
1A
100
AcDbEntity
  8
ZUWAKU
100
AcDbLine
 10
39.7633142760842
 20
14.99999967951294
 30
0.0
 11
39.76331427608432
 21
0.3999996795129732
 31
0.0
  0
LINE
  5
B2E
330
1A
100
AcDbEntity
  8
ZUWAKU
100
AcDbLine
 10
39.56331427608427
 20
14.99999967951294
 30
0.0
 11
39.56331427608427
 21
0.3999996795129732
 31
0.0
  0
LINE
  5
B2F
330
1A
100
AcDbEntity
  8
ZUWAKU
100
AcDbLine
 10
32.07110557948067
 20
4.97499967951294
 30
0.0
 11
32.07110557948067
 21
11.36249967951294
 31
0.0
  0
LINE
  5
B30
330
1A
100
AcDbEntity
  8
ZUWAKU
100
AcDbLine
 10
30.67110557948064
 20
11.36249967951294
 30
0.0
 11
30.67110557948064
 21
5.499999679512939
 31
0.0
  0
LINE
  5
B31
330
1A
100
AcDbEntity
  8
ZUWAKU
100
AcDbLine
 10
34.52110557948066
 20
3.837499679512941
 30
0.0
 11
34.52110557948066
 21
11.36249967951294
 31
0.0
  0
LINE
  5
B32
330
1A
100
AcDbEntity
  8
ZUWAKU
100
AcDbLine
 10
33.12110557948063
 20
11.36249967951294
 30
0.0
 11
33.12110557948063
 21
3.837499679512941
 31
0.0
  0
ARC
  5
B33
330
1A
100
AcDbEntity
  8
ZUWAKU
100
AcDbCircle
 10
24.89610557948066
 20
9.317398666835291
 30
0.0
 40
0.7
100
AcDbArc
 50
180.0000000000016
 51
224.9999999999988
  0
ARC
  5
B34
330
1A
100
AcDbEntity
  8
ZUWAKU
100
AcDbCircle
 10
24.89610557948066
 20
9.317398666835291
 30
0.0
 40
2.099999999999999
100
AcDbArc
 50
180.0
 51
225.0
  0
LINE
  5
B35
330
1A
100
AcDbEntity
  8
ZUWAKU
100
AcDbLine
 10
18.65742882056963
 20
9.602523276294654
 30
0.0
 11
18.02505294790171
 21
7.599999679512951
 31
0.0
  0
LINE
  5
B36
330
1A
100
AcDbEntity
  8
ZUWAKU
100
AcDbLine
 10
20.34610557948065
 20
11.36249967951294
 30
0.0
 11
20.34610557948065
 21
3.837499679512941
 31
0.0
  0
LINE
  5
B37
330
1A
100
AcDbEntity
  8
ZUWAKU
100
AcDbLine
 10
21.74610557948063
 20
3.837499679512941
 30
0.0
 11
21.74610557948063
 21
11.36249967951294
 31
0.0
  0
LINE
  5
B38
330
1A
100
AcDbEntity
  8
ZUWAKU
100
AcDbLine
 10
27.52110557948066
 20
11.36249967951294
 30
0.0
 11
27.52110557948066
 21
4.97499967951294
 31
0.0
  0
LINE
  5
B39
330
1A
100
AcDbEntity
  8
ZUWAKU
100
AcDbLine
 10
28.92110557948064
 20
5.499999679512939
 30
0.0
 11
28.92110557948064
 21
11.36249967951294
 31
0.0
  0
LINE
  5
B3A
330
1A
100
AcDbEntity
  8
ZUWAKU
100
AcDbLine
 10
16.32110557948067
 20
8.562499679512942
 30
0.0
 11
16.32110557948067
 21
11.36249967951294
 31
0.0
  0
LINE
  5
B3B
330
1A
100
AcDbEntity
  8
ZUWAKU
100
AcDbLine
 10
14.92110557948064
 20
11.36249967951294
 30
0.0
 11
14.92110557948064
 21
3.837499679512941
 31
0.0
  0
LINE
  5
B3C
330
1A
100
AcDbEntity
  8
ZUWAKU
100
AcDbLine
 10
17.83817304813857
 20
11.44154666359642
 30
0.0
 11
16.90403811082268
 21
8.483452695429456
 31
0.0
  0
LINE
  5
B3D
330
1A
100
AcDbEntity
  8
ZUWAKU
100
AcDbLine
 10
30.14610557948066
 20
4.97499967951294
 30
0.0
 11
29.44610557948067
 21
4.97499967951294
 31
0.0
  0
LINE
  5
B3E
330
1A
100
AcDbEntity
  8
ZUWAKU
100
AcDbLine
 10
28.92110557948064
 20
3.574999679512941
 30
0.0
 11
30.67110557948064
 21
3.574999679512941
 31
0.0
  0
LINE
  5
B3F
330
1A
100
AcDbEntity
  8
ZUWAKU
100
AcDbLine
 10
20.60860557948064
 20
3.574999679512941
 30
0.0
 11
21.48360557948064
 21
3.574999679512941
 31
0.0
  0
LINE
  5
B40
330
1A
100
AcDbEntity
  8
ZUWAKU
100
AcDbLine
 10
17.83817304813857
 20
3.758452695429454
 30
0.0
 11
16.90403811082268
 21
6.716546663596425
 31
0.0
  0
ARC
  5
B41
330
1A
100
AcDbEntity
  8
ZUWAKU
100
AcDbCircle
 10
16.653722661225
 20
8.562499679512942
 30
0.0
 40
0.2625
100
AcDbArc
 50
270.0
 51
342.474431626277
  0
LINE
  5
B42
330
1A
100
AcDbEntity
  8
ZUWAKU
100
AcDbLine
 10
16.653722661225
 20
8.299999679512939
 30
0.0
 11
16.58360557948066
 21
8.299999679512939
 31
0.0
  0
LINE
  5
B43
330
1A
100
AcDbEntity
  8
ZUWAKU
100
AcDbLine
 10
16.58360557948066
 20
6.899999679512941
 30
0.0
 11
16.653722661225
 21
6.899999679512941
 31
0.0
  0
ARC
  5
B44
330
1A
100
AcDbEntity
  8
ZUWAKU
100
AcDbCircle
 10
16.58360557948066
 20
8.562499679512942
 30
0.0
 40
0.2625
100
AcDbArc
 50
180.0
 51
270.0
  0
LINE
  5
B45
330
1A
100
AcDbEntity
  8
ZUWAKU
100
AcDbLine
 10
15.18360557948063
 20
3.574999679512941
 30
0.0
 11
16.05860557948062
 21
3.574999679512941
 31
0.0
  0
ARC
  5
B46
330
1A
100
AcDbEntity
  8
ZUWAKU
100
AcDbCircle
 10
16.05860557948062
 20
3.837499679512941
 30
0.0
 40
0.2625
100
AcDbArc
 50
270.0
 51
0.0
  0
LINE
  5
B47
330
1A
100
AcDbEntity
  8
ZUWAKU
100
AcDbLine
 10
16.32110557948067
 20
3.837499679512941
 30
0.0
 11
16.32110557948067
 21
6.637499679512941
 31
0.0
  0
LINE
  5
B48
330
1A
100
AcDbEntity
  8
ZUWAKU
100
AcDbLine
 10
13.69610557948067
 20
4.712499679512941
 30
0.0
 11
13.69610557948067
 21
3.837499679512941
 31
0.0
  0
ARC
  5
B49
330
1A
100
AcDbEntity
  8
ZUWAKU
100
AcDbCircle
 10
13.43360557948062
 20
3.837499679512941
 30
0.0
 40
0.2625
100
AcDbArc
 50
270.0
 51
0.0
  0
ARC
  5
B4A
330
1A
100
AcDbEntity
  8
ZUWAKU
100
AcDbCircle
 10
13.43360557948062
 20
4.712499679512941
 30
0.0
 40
0.2625
100
AcDbArc
 50
0.0
 51
90.0
  0
ARC
  5
B4B
330
1A
100
AcDbEntity
  8
ZUWAKU
100
AcDbCircle
 10
15.18360557948063
 20
3.837499679512941
 30
0.0
 40
0.2625
100
AcDbArc
 50
180.0
 51
270.0
  0
ARC
  5
B4C
330
1A
100
AcDbEntity
  8
ZUWAKU
100
AcDbCircle
 10
16.653722661225
 20
6.637499679512941
 30
0.0
 40
0.2625
100
AcDbArc
 50
17.52556837372303
 51
90.0
  0
ARC
  5
B4D
330
1A
100
AcDbEntity
  8
ZUWAKU
100
AcDbCircle
 10
16.58360557948066
 20
6.637499679512941
 30
0.0
 40
0.2625
100
AcDbArc
 50
90.0
 51
180.0
  0
ARC
  5
B4E
330
1A
100
AcDbEntity
  8
ZUWAKU
100
AcDbCircle
 10
20.60860557948064
 20
3.837499679512941
 30
0.0
 40
0.2625
100
AcDbArc
 50
180.0
 51
270.0
  0
LINE
  5
B4F
330
1A
100
AcDbEntity
  8
ZUWAKU
100
AcDbLine
 10
18.08848849773631
 20
3.574999679512941
 30
0.0
 11
18.93793318754081
 21
3.574999679512941
 31
0.0
  0
ARC
  5
B50
330
1A
100
AcDbEntity
  8
ZUWAKU
100
AcDbCircle
 10
18.93793318754081
 20
3.837499679512941
 30
0.0
 40
0.2625
100
AcDbArc
 50
270.0
 51
17.52556837372303
  0
LINE
  5
B51
330
1A
100
AcDbEntity
  8
ZUWAKU
100
AcDbLine
 10
19.18824863713854
 20
3.916546663596427
 30
0.0
 11
18.02505294790171
 21
7.599999679512951
 31
0.0
  0
ARC
  5
B52
330
1A
100
AcDbEntity
  8
ZUWAKU
100
AcDbCircle
 10
18.08848849773631
 20
3.837499679512941
 30
0.0
 40
0.2625
100
AcDbArc
 50
197.525568373723
 51
270.0
  0
ARC
  5
B53
330
1A
100
AcDbEntity
  8
ZUWAKU
100
AcDbCircle
 10
28.92110557948064
 20
4.97499967951294
 30
0.0
 40
1.399999999999999
100
AcDbArc
 50
180.0
 51
270.0
  0
ARC
  5
B54
330
1A
100
AcDbEntity
  8
ZUWAKU
100
AcDbCircle
 10
25.07110557948067
 20
4.97499967951294
 30
0.0
 40
1.399999999999999
100
AcDbArc
 50
270.0
 51
0.0
  0
LINE
  5
B55
330
1A
100
AcDbEntity
  8
ZUWAKU
100
AcDbLine
 10
25.85602981997244
 20
7.367524932682353
 30
0.0
 11
24.40113083265004
 21
8.822423920004691
 31
0.0
  0
LINE
  5
B56
330
1A
100
AcDbEntity
  8
ZUWAKU
100
AcDbLine
 10
25.07110557948067
 20
5.237499679512943
 30
0.0
 11
25.07110557948067
 21
5.882600692190614
 31
0.0
  0
ARC
  5
B57
330
1A
100
AcDbEntity
  8
ZUWAKU
100
AcDbCircle
 10
24.37110557948063
 20
5.882600692190614
 30
0.0
 40
0.7
100
AcDbArc
 50
0.0
 51
45.0
  0
ARC
  5
B58
330
1A
100
AcDbEntity
  8
ZUWAKU
100
AcDbCircle
 10
24.80860557948063
 20
5.237499679512943
 30
0.0
 40
0.2625
100
AcDbArc
 50
270.0
 51
0.0
  0
LINE
  5
B59
330
1A
100
AcDbEntity
  8
ZUWAKU
100
AcDbLine
 10
23.05860557948063
 20
3.837499679512941
 30
0.0
 11
23.05860557948063
 21
4.712499679512941
 31
0.0
  0
ARC
  5
B5A
330
1A
100
AcDbEntity
  8
ZUWAKU
100
AcDbCircle
 10
23.32110557948067
 20
3.837499679512941
 30
0.0
 40
0.2625
100
AcDbArc
 50
180.0
 51
270.0
  0
ARC
  5
B5B
330
1A
100
AcDbEntity
  8
ZUWAKU
100
AcDbCircle
 10
21.48360557948064
 20
3.837499679512941
 30
0.0
 40
0.2625
100
AcDbArc
 50
270.0
 51
0.0
  0
ARC
  5
B5C
330
1A
100
AcDbEntity
  8
ZUWAKU
100
AcDbCircle
 10
23.32110557948067
 20
4.712499679512941
 30
0.0
 40
0.2625
100
AcDbArc
 50
90.0
 51
180.0
  0
LINE
  5
B5D
330
1A
100
AcDbEntity
  8
ZUWAKU
100
AcDbLine
 10
23.32110557948067
 20
4.97499967951294
 30
0.0
 11
24.80860557948063
 21
4.97499967951294
 31
0.0
  0
LINE
  5
B5E
330
1A
100
AcDbEntity
  8
ZUWAKU
100
AcDbLine
 10
23.32110557948067
 20
3.574999679512941
 30
0.0
 11
25.07110557948067
 21
3.574999679512941
 31
0.0
  0
LINE
  5
B5F
330
1A
100
AcDbEntity
  8
ZUWAKU
100
AcDbLine
 10
23.41118133898891
 20
7.83247442634353
 30
0.0
 11
24.86608032631125
 21
6.3775754390212
 31
0.0
  0
LINE
  5
B60
330
1A
100
AcDbEntity
  8
ZUWAKU
100
AcDbLine
 10
26.47110557948065
 20
4.97499967951294
 30
0.0
 11
26.47110557948065
 21
5.882600692190614
 31
0.0
  0
ARC
  5
B61
330
1A
100
AcDbEntity
  8
ZUWAKU
100
AcDbCircle
 10
24.37110557948063
 20
5.882600692190592
 30
0.0
 40
2.099999999999999
100
AcDbArc
 50
0.0
 51
45.0
  0
ARC
  5
B62
330
1A
100
AcDbEntity
  8
ZUWAKU
100
AcDbCircle
 10
29.44610557948067
 20
5.499999679512939
 30
0.0
 40
0.525
100
AcDbArc
 50
180.0
 51
270.0
  0
ARC
  5
B63
330
1A
100
AcDbEntity
  8
ZUWAKU
100
AcDbCircle
 10
30.67110557948064
 20
4.97499967951294
 30
0.0
 40
1.399999999999999
100
AcDbArc
 50
270.0
 51
0.0
  0
LINE
  5
B64
330
1A
100
AcDbEntity
  8
ZUWAKU
100
AcDbLine
 10
33.38360557948067
 20
3.574999679512941
 30
0.0
 11
34.25860557948067
 21
3.574999679512941
 31
0.0
  0
ARC
  5
B65
330
1A
100
AcDbEntity
  8
ZUWAKU
100
AcDbCircle
 10
33.38360557948067
 20
3.837499679512941
 30
0.0
 40
0.2625
100
AcDbArc
 50
180.0
 51
270.0
  0
ARC
  5
B66
330
1A
100
AcDbEntity
  8
ZUWAKU
100
AcDbCircle
 10
30.14610557948066
 20
5.499999679512939
 30
0.0
 40
0.525
100
AcDbArc
 50
270.0
 51
0.0
  0
ARC
  5
B67
330
1A
100
AcDbEntity
  8
ZUWAKU
100
AcDbCircle
 10
34.25860557948067
 20
3.837499679512941
 30
0.0
 40
0.2625
100
AcDbArc
 50
270.0
 51
0.0
  0
LINE
  5
B68
330
1A
100
AcDbEntity
  8
ZUWAKU
100
AcDbLine
 10
21.48360557948064
 20
11.62499967951294
 30
0.0
 11
20.60860557948064
 21
11.62499967951294
 31
0.0
  0
ARC
  5
B69
330
1A
100
AcDbEntity
  8
ZUWAKU
100
AcDbCircle
 10
16.05860557948062
 20
11.36249967951294
 30
0.0
 40
0.2625
100
AcDbArc
 50
0.0
 51
90.0
  0
LINE
  5
B6A
330
1A
100
AcDbEntity
  8
ZUWAKU
100
AcDbLine
 10
16.05860557948062
 20
11.62499967951294
 30
0.0
 11
15.18360557948063
 21
11.62499967951294
 31
0.0
  0
ARC
  5
B6B
330
1A
100
AcDbEntity
  8
ZUWAKU
100
AcDbCircle
 10
13.43360557948062
 20
11.36249967951294
 30
0.0
 40
0.2625
100
AcDbArc
 50
0.0
 51
90.0
  0
ARC
  5
B6C
330
1A
100
AcDbEntity
  8
ZUWAKU
100
AcDbCircle
 10
15.18360557948063
 20
11.36249967951294
 30
0.0
 40
0.2625
100
AcDbArc
 50
90.0
 51
180.0
  0
ARC
  5
B6D
330
1A
100
AcDbEntity
  8
ZUWAKU
100
AcDbCircle
 10
13.43360557948062
 20
10.48749967951294
 30
0.0
 40
0.2625
100
AcDbArc
 50
270.0
 51
0.0
  0
LINE
  5
B6E
330
1A
100
AcDbEntity
  8
ZUWAKU
100
AcDbLine
 10
13.69610557948067
 20
11.36249967951294
 30
0.0
 11
13.69610557948067
 21
10.48749967951294
 31
0.0
  0
ARC
  5
B6F
330
1A
100
AcDbEntity
  8
ZUWAKU
100
AcDbCircle
 10
20.60860557948064
 20
11.36249967951294
 30
0.0
 40
0.2625
100
AcDbArc
 50
90.0
 51
180.0
  0
LINE
  5
B70
330
1A
100
AcDbEntity
  8
ZUWAKU
100
AcDbLine
 10
18.08848849773631
 20
11.62499967951294
 30
0.0
 11
18.93793318754081
 21
11.62499967951294
 31
0.0
  0
ARC
  5
B71
330
1A
100
AcDbEntity
  8
ZUWAKU
100
AcDbCircle
 10
18.93793318754081
 20
11.36249967951294
 30
0.0
 40
0.2625
100
AcDbArc
 50
342.474431626277
 51
90.0
  0
LINE
  5
B72
330
1A
100
AcDbEntity
  8
ZUWAKU
100
AcDbLine
 10
19.18824863713854
 20
11.28345269542945
 30
0.0
 11
18.65742882056963
 21
9.602523276294654
 31
0.0
  0
ARC
  5
B73
330
1A
100
AcDbEntity
  8
ZUWAKU
100
AcDbCircle
 10
18.08848849773631
 20
11.36249967951294
 30
0.0
 40
0.2625
100
AcDbArc
 50
90.0
 51
162.474431626277
  0
LINE
  5
B74
330
1A
100
AcDbEntity
  8
ZUWAKU
100
AcDbLine
 10
24.19610557948067
 20
11.62499967951294
 30
0.0
 11
25.94610557948068
 21
11.62499967951294
 31
0.0
  0
LINE
  5
B75
330
1A
100
AcDbEntity
  8
ZUWAKU
100
AcDbLine
 10
25.94610557948068
 20
10.22499967951294
 30
0.0
 11
24.45860557948066
 21
10.22499967951294
 31
0.0
  0
ARC
  5
B76
330
1A
100
AcDbEntity
  8
ZUWAKU
100
AcDbCircle
 10
24.45860557948066
 20
9.962499679512941
 30
0.0
 40
0.2625
100
AcDbArc
 50
90.0
 51
180.0
  0
LINE
  5
B77
330
1A
100
AcDbEntity
  8
ZUWAKU
100
AcDbLine
 10
24.19610557948067
 20
9.962499679512941
 30
0.0
 11
24.19610557948067
 21
9.31739866683527
 31
0.0
  0
ARC
  5
B78
330
1A
100
AcDbEntity
  8
ZUWAKU
100
AcDbCircle
 10
21.48360557948064
 20
11.36249967951294
 30
0.0
 40
0.2625
100
AcDbArc
 50
0.0
 51
90.0
  0
LINE
  5
B79
330
1A
100
AcDbEntity
  8
ZUWAKU
100
AcDbLine
 10
22.79610557948064
 20
10.22499967951294
 30
0.0
 11
22.79610557948064
 21
9.31739866683527
 31
0.0
  0
ARC
  5
B7A
330
1A
100
AcDbEntity
  8
ZUWAKU
100
AcDbCircle
 10
24.19610557948067
 20
10.22499967951294
 30
0.0
 40
1.399999999999999
100
AcDbArc
 50
90.0
 51
180.0
  0
ARC
  5
B7B
330
1A
100
AcDbEntity
  8
ZUWAKU
100
AcDbCircle
 10
28.65860557948065
 20
11.36249967951294
 30
0.0
 40
0.2625
100
AcDbArc
 50
0.0
 51
90.0
  0
ARC
  5
B7C
330
1A
100
AcDbEntity
  8
ZUWAKU
100
AcDbCircle
 10
27.78360557948065
 20
11.36249967951294
 30
0.0
 40
0.2625
100
AcDbArc
 50
90.0
 51
180.0
  0
LINE
  5
B7D
330
1A
100
AcDbEntity
  8
ZUWAKU
100
AcDbLine
 10
28.65860557948065
 20
11.62499967951294
 30
0.0
 11
27.78360557948065
 21
11.62499967951294
 31
0.0
  0
ARC
  5
B7E
330
1A
100
AcDbEntity
  8
ZUWAKU
100
AcDbCircle
 10
25.94610557948068
 20
11.36249967951294
 30
0.0
 40
0.2625
100
AcDbArc
 50
0.0
 51
90.0
  0
ARC
  5
B7F
330
1A
100
AcDbEntity
  8
ZUWAKU
100
AcDbCircle
 10
25.94610557948068
 20
10.48749967951294
 30
0.0
 40
0.2625
100
AcDbArc
 50
270.0
 51
0.0
  0
LINE
  5
B80
330
1A
100
AcDbEntity
  8
ZUWAKU
100
AcDbLine
 10
26.20860557948066
 20
11.36249967951294
 30
0.0
 11
26.20860557948066
 21
10.48749967951294
 31
0.0
  0
LINE
  5
B81
330
1A
100
AcDbEntity
  8
ZUWAKU
100
AcDbLine
 10
34.25860557948067
 20
11.62499967951294
 30
0.0
 11
33.38360557948067
 21
11.62499967951294
 31
0.0
  0
ARC
  5
B82
330
1A
100
AcDbEntity
  8
ZUWAKU
100
AcDbCircle
 10
33.38360557948067
 20
11.36249967951294
 30
0.0
 40
0.2625
100
AcDbArc
 50
90.0
 51
180.0
  0
ARC
  5
B83
330
1A
100
AcDbEntity
  8
ZUWAKU
100
AcDbCircle
 10
31.80860557948063
 20
11.36249967951294
 30
0.0
 40
0.2625
100
AcDbArc
 50
0.0
 51
90.0
  0
LINE
  5
B84
330
1A
100
AcDbEntity
  8
ZUWAKU
100
AcDbLine
 10
31.80860557948063
 20
11.62499967951294
 30
0.0
 11
30.93360557948063
 21
11.62499967951294
 31
0.0
  0
ARC
  5
B85
330
1A
100
AcDbEntity
  8
ZUWAKU
100
AcDbCircle
 10
30.93360557948063
 20
11.36249967951294
 30
0.0
 40
0.2625
100
AcDbArc
 50
90.0
 51
180.0
  0
ARC
  5
B86
330
1A
100
AcDbEntity
  8
ZUWAKU
100
AcDbCircle
 10
34.25860557948067
 20
11.36249967951294
 30
0.0
 40
0.2625
100
AcDbArc
 50
0.0
 51
90.0
  0
TEXT
  5
B87
330
1A
100
AcDbEntity
  8
moji
100
AcDbText
 10
119.9136008425156
 20
9.002460208216632
 30
0.0
 40
2.799999999999999
  1
ステンレス金具正面打（受）固定式
 41
0.9
  7
ｽﾀｲﾙ1
100
AcDbText
  0
TEXT
  5
B88
330
1A
100
AcDbEntity
  8
moji
100
AcDbText
 10
119.9136008425156
 20
1.602460208216649
 30
0.0
 40
2.799999999999999
  1
Ｘ４０－０寸－２０m/m（６分）
 41
0.9
  7
ｽﾀｲﾙ1
100
AcDbText
  0
LINE
  5
B89
330
1A
100
AcDbEntity
  8
ZUWAKU
100
AcDbLine
 10
104.123300147124
 20
14.99999967951294
 30
0.0
 11
104.123300147124
 21
0.3999996795129732
 31
0.0
  0
LINE
  5
B8A
330
1A
100
AcDbEntity
  8
ZUWAKU
100
AcDbLine
 10
104.3233001471239
 20
14.99999967951294
 30
0.0
 11
104.3233001471241
 21
0.3999996795129732
 31
0.0
  0
LINE
  5
B8B
330
1A
100
AcDbEntity
  8
ZUWAKU
100
AcDbLine
 10
104.2233001471239
 20
14.99999967951294
 30
0.0
 11
104.223300147124
 21
0.3999996795129732
 31
0.0
  0
TEXT
  5
B8C
330
1A
100
AcDbEntity
  8
ZUWAKU
100
AcDbText
 10
104.8620226582288
 20
4.827677948705748
 30
0.0
 40
2.0
  1
サイズ
 41
0.9
  7
ｽﾀｲﾙ1
100
AcDbText
  0
TEXT
  5
B8D
330
1A
100
AcDbEntity
  8
ZUWAKU
100
AcDbText
 10
104.8620226582287
 20
12.02767794870573
 30
0.0
 40
2.0
  1
品名
 41
0.9
  7
ｽﾀｲﾙ1
100
AcDbText
  0
LINE
  5
B8E
330
1A
100
AcDbEntity
  8
ZUWAKU
100
AcDbLine
 10
324.4086007571922
 20
7.599999679512954
 30
0.0
 11
348.6245047763607
 21
7.599999679512956
 31
0.0
  0
LINE
  5
B8F
330
1A
100
AcDbEntity
  8
ZUWAKU
100
AcDbLine
 10
324.4086007571923
 20
7.699999679512957
 30
0.0
 11
348.6245047763607
 21
7.699999679512956
 31
0.0
  0
LINE
  5
B90
330
1A
100
AcDbEntity
  8
ZUWAKU
100
AcDbLine
 10
324.4086007571922
 20
7.799999679512955
 30
0.0
 11
348.6245047763607
 21
7.799999679512955
 31
0.0
  0
TEXT
  5
B91
330
1A
100
AcDbEntity
  8
ZUWAKU
100
AcDbText
 10
329.1019683457413
 20
9.002460208216632
 30
0.0
 40
2.799999999999999
  1
　　．　　．　　
 41
0.9
  7
ｽﾀｲﾙ1
100
AcDbText
  0
LINE
  5
B92
330
1A
100
AcDbEntity
  8
ZUWAKU
100
AcDbLine
 10
252.5995892511605
 20
7.599999679512958
 30
0.0
 11
276.2634773851463
 21
7.599999679512958
 31
0.0
  0
LINE
  5
B93
330
1A
100
AcDbEntity
  8
ZUWAKU
100
AcDbLine
 10
252.5995892511605
 20
7.699999679512956
 30
0.0
 11
276.2634773851463
 21
7.699999679512956
 31
0.0
  0
LINE
  5
B94
330
1A
100
AcDbEntity
  8
ZUWAKU
100
AcDbLine
 10
252.5995892511605
 20
7.799999679512955
 30
0.0
 11
276.2634773851463
 21
7.799999679512955
 31
0.0
  0
TEXT
  5
B95
330
1A
100
AcDbEntity
  8
moji
100
AcDbText
 10
231.2836386630844
 20
5.971308540342931
 30
0.0
 40
2.799999999999999
  1
ＬＤ０１□
 41
0.9
  7
ｽﾀｲﾙ1
100
AcDbText
  0
LINE
  5
B96
330
1A
100
AcDbEntity
  8
ZUWAKU
100
AcDbLine
 10
223.8121814875857
 20
14.99999967951294
 30
0.0
 11
223.8121814875858
 21
0.3999996795129732
 31
0.0
  0
LINE
  5
B97
330
1A
100
AcDbEntity
  8
ZUWAKU
100
AcDbLine
 10
223.9121814875857
 20
14.99999967951294
 30
0.0
 11
223.9121814875858
 21
0.3999996795129732
 31
0.0
  0
LINE
  5
B98
330
1A
100
AcDbEntity
  8
ZUWAKU
100
AcDbLine
 10
223.7121814875858
 20
14.99999967951294
 30
0.0
 11
223.7121814875858
 21
0.3999996795129732
 31
0.0
  0
TEXT
  5
B99
330
1A
100
AcDbEntity
  8
moji
100
AcDbText
 10
264.0204534882465
 20
9.002460208216632
 30
0.0
 40
2.799999999999999
  1
Ａ３
 41
0.9
  7
ｽﾀｲﾙ1
100
AcDbText
  0
LINE
  5
B9A
330
1A
100
AcDbEntity
  8
ZUWAKU
100
AcDbLine
 10
252.4995892511605
 20
14.99999967951294
 30
0.0
 11
252.4995892511606
 21
0.3999996795129732
 31
0.0
  0
LINE
  5
B9B
330
1A
100
AcDbEntity
  8
ZUWAKU
100
AcDbLine
 10
252.5995892511605
 20
14.99999967951294
 30
0.0
 11
252.5995892511606
 21
0.3999996795129732
 31
0.0
  0
LINE
  5
B9C
330
1A
100
AcDbEntity
  8
ZUWAKU
100
AcDbLine
 10
252.3995892511606
 20
14.99999967951294
 30
0.0
 11
252.3995892511606
 21
0.3999996795129732
 31
0.0
  0
TEXT
  5
B9D
330
1A
100
AcDbEntity
  8
ZUWAKU
100
AcDbText
 10
230.8507805316366
 20
1.623757161355399
 30
0.0
 40
1.5
  1
□には色品番が入ります
 41
0.9
  7
ｽﾀｲﾙ1
100
AcDbText
  0
TEXT
  5
B9E
330
1A
100
AcDbEntity
  8
ZUWAKU
100
AcDbText
 10
253.3383117622654
 20
4.827677948705748
 30
0.0
 40
2.0
  1
縮尺
 41
0.9
  7
ｽﾀｲﾙ1
100
AcDbText
  0
TEXT
  5
B9F
330
1A
100
AcDbEntity
  8
moji
100
AcDbText
 10
264.0204534882465
 20
1.602460208216649
 30
0.0
 40
2.799999999999999
  1
１/１
 41
0.9
  7
ｽﾀｲﾙ1
100
AcDbText
  0
TEXT
  5
BA0
330
1A
100
AcDbEntity
  8
ZUWAKU
100
AcDbText
 10
224.6509039986905
 20
12.02767794870573
 30
0.0
 40
2.0
  1
品番
 41
0.9
  7
ｽﾀｲﾙ1
100
AcDbText
  0
TEXT
  5
BA1
330
1A
100
AcDbEntity
  8
ZUWAKU
100
AcDbText
 10
253.3383117622654
 20
12.02767794870573
 30
0.0
 40
2.0
  1
用紙
 41
0.9
  7
ｽﾀｲﾙ1
100
AcDbText
  0
LINE
  5
BA2
330
1A
100
AcDbEntity
  8
ZUWAKU
100
AcDbLine
 10
324.3086007571923
 20
14.99999967951294
 30
0.0
 11
324.3086007571924
 21
0.3999996795129732
 31
0.0
  0
LINE
  5
BA3
330
1A
100
AcDbEntity
  8
ZUWAKU
100
AcDbLine
 10
324.4086007571923
 20
14.99999967951294
 30
0.0
 11
324.4086007571924
 21
0.3999996795129732
 31
0.0
  0
LINE
  5
BA4
330
1A
100
AcDbEntity
  8
ZUWAKU
100
AcDbLine
 10
324.2086007571924
 20
14.99999967951294
 30
0.0
 11
324.2086007571924
 21
0.3999996795129732
 31
0.0
  0
LINE
  5
BA5
330
1A
100
AcDbEntity
  8
ZUWAKU
100
AcDbLine
 10
276.3634773851462
 20
14.99999967951294
 30
0.0
 11
276.3634773851463
 21
0.3999996795129732
 31
0.0
  0
LINE
  5
BA6
330
1A
100
AcDbEntity
  8
ZUWAKU
100
AcDbLine
 10
276.4634773851462
 20
14.99999967951294
 30
0.0
 11
276.4634773851463
 21
0.3999996795129732
 31
0.0
  0
LINE
  5
BA7
330
1A
100
AcDbEntity
  8
ZUWAKU
100
AcDbLine
 10
276.2634773851463
 20
14.99999967951294
 30
0.0
 11
276.2634773851463
 21
0.3999996795129732
 31
0.0
  0
TEXT
  5
BA8
330
1A
100
AcDbEntity
  8
ZUWAKU
100
AcDbText
 10
325.1473232682971
 20
12.02767794870573
 30
0.0
 40
2.0
  1
DATE
 41
0.9
  7
ｽﾀｲﾙ1
100
AcDbText
  0
LINE
  5
BA9
330
1A
100
AcDbEntity
  8
ZUWAKU
100
AcDbLine
 10
348.6245047763607
 20
14.99999967951294
 30
0.0
 11
348.6245047763607
 21
0.3999996795129732
 31
0.0
  0
LINE
  5
BAA
330
1A
100
AcDbEntity
  8
ZUWAKU
100
AcDbLine
 10
348.7245047763607
 20
14.99999967951294
 30
0.0
 11
348.7245047763607
 21
0.3999996795129732
 31
0.0
  0
LINE
  5
BAB
330
1A
100
AcDbEntity
  8
ZUWAKU
100
AcDbLine
 10
348.8245047763606
 20
14.99999967951294
 30
0.0
 11
348.8245047763608
 21
0.3999996795129732
 31
0.0
  0
LINE
  5
BAC
330
1A
100
AcDbEntity
  8
ZUWAKU
100
AcDbLine
 10
348.9245047763607
 20
14.99999967951294
 30
0.0
 11
348.9245047763608
 21
0.3999996795129732
 31
0.0
  0
TEXT
  5
BAD
330
1A
100
AcDbEntity
  8
ZUWAKU
100
AcDbText
 10
354.264041598212
 20
6.17691934735634
 30
0.0
 40
3.0
  1
積水化学工業株式会社
 41
0.9
  7
ｽﾀｲﾙ1
100
AcDbText
  0
CIRCLE
  5
F46
330
1A
100
AcDbEntity
  8
SEIHIN
100
AcDbCircle
 10
362.6594235447182
 20
100.5959881070546
 30
0.0
 40
1.25
  0
CIRCLE
  5
F47
330
1A
100
AcDbEntity
  8
SEIHIN
100
AcDbCircle
 10
362.6594235447182
 20
78.59598810705458
 30
0.0
 40
1.25
  0
CIRCLE
  5
F48
330
1A
100
AcDbEntity
  8
SEIHIN
100
AcDbCircle
 10
321.6594235447181
 20
78.59608810705458
 30
0.0
 40
1.25
  0
CIRCLE
  5
F49
330
1A
100
AcDbEntity
  8
SEIHIN
100
AcDbCircle
 10
321.6594235447181
 20
100.5960881070545
 30
0.0
 40
1.25
  0
ARC
  5
F4A
330
1A
100
AcDbEntity
  8
SEIHIN
  6
Continuous
 62
     3
 48
16.0
100
AcDbCircle
 10
364.6594235447182
 20
102.5959881070545
 30
0.0
 40
2.0
100
AcDbArc
 50
0.0
 51
90.0
  0
LINE
  5
F4B
330
1A
100
AcDbEntity
  8
CENTER L
  6
CENTER
 62
     1
 48
5.0
100
AcDbLine
 10
365.8070235447183
 20
100.5959881070546
 30
0.0
 11
359.0877235447183
 21
100.5959881070546
 31
0.0
  0
LINE
  5
F4C
330
1A
100
AcDbEntity
  8
SEIHIN
  6
Continuous
100
AcDbLine
 10
349.959423544718
 20
109.5960060976003
 30
0.0
 11
351.159423544718
 21
109.5960060976003
 31
0.0
  0
ARC
  5
F4D
330
1A
100
AcDbEntity
  8
SEIHIN
  6
Continuous
 62
     3
 48
16.0
100
AcDbCircle
 10
353.1594235447183
 20
106.5959881070545
 30
0.0
 40
2.000000000000056
100
AcDbArc
 50
180.0000000000016
 51
270.0
  0
ARC
  5
F4E
330
1A
100
AcDbEntity
  8
SEIHIN
  6
Continuous
100
AcDbCircle
 10
348.959423544718
 20
107.0303881070546
 30
0.0
 40
1.0
100
AcDbArc
 50
270.0
 51
0.0
  0
LINE
  5
F4F
330
1A
100
AcDbEntity
  8
SEIHIN
  6
Continuous
 62
     3
 48
16.0
100
AcDbLine
 10
349.959523544718
 20
99.59618810705459
 30
0.0
 11
351.459523544718
 21
100.5961881070546
 31
0.0
  0
LINE
  5
F50
330
1A
100
AcDbEntity
  8
SEIHIN
  6
Continuous
 62
     3
 48
16.0
100
AcDbLine
 10
349.959523544718
 20
101.5959881070546
 30
0.0
 11
351.459523544718
 21
100.5959881070546
 31
0.0
  0
LINE
  5
F51
330
1A
100
AcDbEntity
  8
SEIHIN
100
AcDbLine
 10
349.959423544718
 20
100.5961719771205
 30
0.0
 11
351.459523544718
 21
100.5961881070546
 31
0.0
  0
LINE
  5
F52
330
1A
100
AcDbEntity
  8
SEIHIN
  6
Continuous
 62
     3
 48
16.0
100
AcDbLine
 10
351.159423544718
 20
106.5959881070545
 30
0.0
 11
351.159423544718
 21
109.5960060976003
 31
0.0
  0
LINE
  5
F53
330
1A
100
AcDbEntity
  8
SEIHIN
  6
Continuous
 62
     3
 48
16.0
100
AcDbLine
 10
364.6594235447182
 20
104.5959881070545
 30
0.0
 11
353.1594235447183
 21
104.5959881070545
 31
0.0
  0
ARC
  5
F54
330
1A
100
AcDbEntity
  8
SEIHIN
  6
Continuous
 62
     3
 48
16.0
100
AcDbCircle
 10
364.6594235447182
 20
76.59608810705458
 30
0.0
 40
2.0
100
AcDbArc
 50
270.0
 51
0.0
  0
LINE
  5
F55
330
1A
100
AcDbEntity
  8
CENTER L
  6
CENTER
 62
     1
 48
5.0
100
AcDbLine
 10
362.6594235447182
 20
75.6328881070545
 30
0.0
 11
362.6594235447182
 21
83.59598810705458
 31
0.0
  0
LINE
  5
F56
330
1A
100
AcDbEntity
  8
CENTER L
  6
CENTER
 62
     1
 48
5.0
100
AcDbLine
 10
365.8070235447183
 20
78.59598810705458
 30
0.0
 11
358.956723544718
 21
78.59598810705458
 31
0.0
  0
LINE
  5
F57
330
1A
100
AcDbEntity
  8
SEIHIN
  6
Continuous
 62
     3
 48
16.0
100
AcDbLine
 10
349.959523544718
 20
79.5959881070545
 30
0.0
 11
351.459523544718
 21
78.59598810705458
 31
0.0
  0
LINE
  5
F58
330
1A
100
AcDbEntity
  8
SEIHIN
100
AcDbLine
 10
351.459523544718
 20
78.5961881070545
 30
0.0
 11
349.959423544718
 21
78.5961881070545
 31
0.0
  0
LINE
  5
F59
330
1A
100
AcDbEntity
  8
SEIHIN
  6
Continuous
 62
     3
 48
16.0
100
AcDbLine
 10
349.959523544718
 20
77.59618810705458
 30
0.0
 11
351.459523544718
 21
78.5961881070545
 31
0.0
  0
LINE
  5
F5A
330
1A
100
AcDbEntity
  8
SEIHIN
  6
Continuous
 62
     3
 48
16.0
100
AcDbLine
 10
342.159323544718
 20
74.59608810705458
 30
0.0
 11
364.6594235447182
 21
74.59608810705458
 31
0.0
  0
LINE
  5
F5B
330
1A
100
AcDbEntity
  8
CENTER L
  6
CENTER
 62
     1
 48
5.0
100
AcDbLine
 10
342.1594235447181
 20
69.9172881070545
 30
0.0
 11
342.1594235447181
 21
116.5960060976005
 31
0.0
  0
LINE
  5
F5C
330
1A
100
AcDbEntity
  8
SEIHIN
  6
Continuous
 62
     3
 48
16.0
100
AcDbLine
 10
349.959423544718
 20
109.5960060976003
 30
0.0
 11
349.9594235447188
 21
74.59608810705458
 31
0.0
  0
LINE
  5
F5D
330
1A
100
AcDbEntity
  8
SEIHIN
  6
Continuous
 62
     3
 48
16.0
100
AcDbLine
 10
366.6594235447182
 20
76.59608810705458
 30
0.0
 11
366.6594235447182
 21
102.5959881070545
 31
0.0
  0
LINE
  5
F5E
330
1A
100
AcDbEntity
  8
CENTER L
  6
CENTER
 62
     1
 48
5.0
100
AcDbLine
 10
362.6594235447182
 20
95.59598810705457
 30
0.0
 11
362.6594235447182
 21
103.7097881070546
 31
0.0
  0
LINE
  5
F5F
330
1A
100
AcDbEntity
  8
SEIHIN
  6
Continuous
100
AcDbLine
 10
333.1594235447182
 20
109.5960060976003
 30
0.0
 11
334.3594083196723
 21
109.5960060976003
 31
0.0
  0
ARC
  5
F60
330
1A
100
AcDbEntity
  8
SEIHIN
  6
Continuous
 48
16.0
100
AcDbCircle
 10
335.3594021053885
 20
107.0303881070546
 30
0.0
 40
1.0
100
AcDbArc
 50
179.9998612215835
 51
270.0
  0
ARC
  5
F61
330
1A
100
AcDbEntity
  8
SEIHIN
  6
Continuous
 62
     3
 48
16.0
100
AcDbCircle
 10
331.1594235447183
 20
106.5960881070546
 30
0.0
 40
2.0
100
AcDbArc
 50
270.0
 51
0.0
  0
LINE
  5
F62
330
1A
100
AcDbEntity
  8
SEIHIN
  6
Continuous
 62
     3
 48
16.0
100
AcDbLine
 10
334.3593235447181
 20
99.59618810705459
 30
0.0
 11
332.8593235447181
 21
100.5961881070546
 31
0.0
  0
LINE
  5
F63
330
1A
100
AcDbEntity
  8
SEIHIN
  6
Continuous
 62
     3
 48
16.0
100
AcDbLine
 10
334.3593235447181
 20
101.5959881070546
 30
0.0
 11
332.8593235447181
 21
100.5959881070546
 31
0.0
  0
LINE
  5
F64
330
1A
100
AcDbEntity
  8
SEIHIN
100
AcDbLine
 10
332.8593235447181
 20
100.5959881070546
 30
0.0
 11
334.3593865204052
 21
100.5960042365905
 31
0.0
  0
LINE
  5
F65
330
1A
100
AcDbEntity
  8
SEIHIN
  6
Continuous
 62
     3
 48
16.0
100
AcDbLine
 10
333.1594235447183
 20
106.5960881070546
 30
0.0
 11
333.1594235447182
 21
109.5960060976003
 31
0.0
  0
ARC
  5
F66
330
1A
100
AcDbEntity
  8
SEIHIN
  6
Continuous
 62
     3
 48
16.0
100
AcDbCircle
 10
319.6594235447183
 20
102.5960881070545
 30
0.0
 40
2.000000000000085
100
AcDbArc
 50
89.99999999999674
 51
179.9999999999975
  0
LINE
  5
F67
330
1A
100
AcDbEntity
  8
SEIHIN
  6
Continuous
 62
     3
 48
16.0
100
AcDbLine
 10
319.6594235447183
 20
104.5960881070546
 30
0.0
 11
331.1594235447183
 21
104.5960881070546
 31
0.0
  0
LINE
  5
F68
330
1A
100
AcDbEntity
  8
CENTER L
  6
CENTER
 62
     1
 48
5.0
100
AcDbLine
 10
318.5118235447183
 20
100.5960881070545
 30
0.0
 11
325.231123544718
 21
100.5960881070545
 31
0.0
  0
LEADER
  5
F69
330
1A
100
AcDbEntity
  8
SUNPOU
  6
Continuous
 62
     4
100
AcDbLeader
  3
STANDARD
 73
     0
 40
3.0
 41
15.6
 76
     3
 10
320.7743505382136
 20
102.4223137301542
 30
0.0
 10
315.3320788621176
 20
119.9768872171532
 30
0.0
 10
312.6890928804365
 20
120.0175146699606
 30
0.0
1001
ACAD
1000
DSTYLE
1002
{
1070
     6
1000
OPEN
1070
    41
1040
3.0
1070
    42
1040
3.0
1070
    43
1040
7.0
1070
    44
1040
1.5
1070
    73
1070
     0
1070
    74
1070
     0
1070
    77
1070
     3
1070
   140
1040
3.0
1070
   141
1040
150.0
1070
   147
1040
1.0
1070
   172
1070
     1
1070
   173
1070
     1
1070
   176
1070
     4
1070
   177
1070
     4
1070
   178
1070
     4
1070
   271
1070
     0
1070
   272
1070
     2
1070
   341
1005
B2
1070
   343
1005
B2
1070
   344
1005
B2
1002
}
  0
MTEXT
  5
F6A
330
1A
100
AcDbEntity
  8
SUNPOU
  6
Continuous
 62
     4
100
AcDbMText
 10
311.6890928804366
 20
121.0175146699606
 30
0.0
 40
3.0
 41
0.0
 71
     9
 72
     5
  1
4-φ2.5
 73
     1
 44
1.0
1001
ACAD
1000
MTEXTBEGIN
1070
    73
1070
     1
1070
    44
1040
1.0
1070
    74
1070
     0
1000
MTEXTEND
  0
LINE
  5
F6B
330
1A
100
AcDbEntity
  8
SEIHIN
  6
Continuous
 62
     3
 48
16.0
100
AcDbLine
 10
334.3593235447181
 20
79.5959881070545
 30
0.0
 11
332.8593235447181
 21
78.59598810705458
 31
0.0
  0
LINE
  5
F6C
330
1A
100
AcDbEntity
  8
SEIHIN
100
AcDbLine
 10
334.3593332337638
 20
78.5961881070545
 30
0.0
 11
332.8593235447181
 21
78.5961881070545
 31
0.0
  0
LINE
  5
F6D
330
1A
100
AcDbEntity
  8
SEIHIN
  6
Continuous
 62
     3
 48
16.0
100
AcDbLine
 10
334.3593235447181
 20
77.59618810705458
 30
0.0
 11
332.8593235447181
 21
78.5961881070545
 31
0.0
  0
LINE
  5
F6E
330
1A
100
AcDbEntity
  8
CENTER L
  6
CENTER
 62
     1
 48
5.0
100
AcDbLine
 10
321.6594235447181
 20
75.6328881070545
 30
0.0
 11
321.659423544718
 21
83.59598810705458
 31
0.0
  0
ARC
  5
F6F
330
1A
100
AcDbEntity
  8
SEIHIN
  6
Continuous
 62
     3
 48
16.0
100
AcDbCircle
 10
319.6594235447183
 20
76.59608810705467
 30
0.0
 40
2.000000000000085
100
AcDbArc
 50
180.0000000000024
 51
270.0000000000033
  0
LINE
  5
F70
330
1A
100
AcDbEntity
  8
CENTER L
  6
CENTER
 62
     1
 48
5.0
100
AcDbLine
 10
318.5117235447183
 20
78.59608810705458
 30
0.0
 11
325.3620235447181
 21
78.59608810705458
 31
0.0
  0
DIMENSION
  5
F71
330
1A
100
AcDbEntity
  8
SUNPOU
  6
Continuous
100
AcDbDimension
  2
*D14
 10
292.1099238749692
 20
74.59609699594347
 30
0.0
 11
289.6099238749692
 21
89.59609255149908
 31
0.0
 70
    32
 71
     5
 42
29.99999111111112
  3
STANDARD
100
AcDbAlignedDimension
 13
317.6594235447181
 23
104.5960881070546
 33
0.0
 14
317.6594235447181
 24
74.59609699594347
 34
0.0
 50
90.0
100
AcDbRotatedDimension
1001
ACAD
1000
DSTYLE
1002
{
1070
   140
1040
3.0
1070
    74
1070
     0
1070
   172
1070
     1
1070
    73
1070
     0
1070
   272
1070
     2
1070
    77
1070
     3
1070
   173
1070
     1
1070
   147
1040
1.0
1070
    42
1040
3.0
1070
    44
1040
1.5
1070
    43
1040
7.0
1070
   271
1070
     0
1070
   178
1070
     4
1070
   177
1070
     4
1070
   176
1070
     4
1070
   141
1040
150.0
1070
     7
1000
_OPEN
1070
     6
1000
_OPEN
1070
    41
1040
3.0
1002
}
  0
DIMENSION
  5
F72
330
1A
100
AcDbEntity
  8
SUNPOU
  6
Continuous
100
AcDbDimension
  2
*D15
 10
301.629723881074
 20
78.59608810705458
 30
0.0
 11
299.129723881074
 21
89.59608810705459
 31
0.0
 70
    32
 71
     5
 42
21.99999999999992
  3
STANDARD
100
AcDbAlignedDimension
 13
317.6594235447181
 23
100.5960881070545
 33
0.0
 14
317.6594235447181
 24
78.59608810705458
 34
0.0
 50
90.0
100
AcDbRotatedDimension
1001
ACAD
1000
DSTYLE
1002
{
1070
   140
1040
3.0
1070
    74
1070
     0
1070
   172
1070
     1
1070
    73
1070
     0
1070
   272
1070
     2
1070
    77
1070
     3
1070
   173
1070
     1
1070
   147
1040
1.0
1070
    42
1040
3.0
1070
    44
1040
1.5
1070
    43
1040
7.0
1070
   271
1070
     0
1070
   178
1070
     4
1070
   177
1070
     4
1070
   176
1070
     4
1070
   141
1040
150.0
1070
     7
1000
_OPEN
1070
     6
1000
_OPEN
1070
    41
1040
3.0
1002
}
  0
LINE
  5
F73
330
1A
100
AcDbEntity
  8
SEIHIN
  6
Continuous
 62
     3
 48
16.0
100
AcDbLine
 10
334.3594083196724
 20
109.5960060976004
 30
0.0
 11
334.3593235448023
 21
74.5960227741657
 31
0.0
  0
LINE
  5
F74
330
1A
100
AcDbEntity
  8
SEIHIN
  6
Continuous
 62
     3
 48
16.0
100
AcDbLine
 10
317.6594235447181
 20
76.59608810705458
 30
0.0
 11
317.6594235447181
 21
102.5960881070546
 31
0.0
  0
LINE
  5
F75
330
1A
100
AcDbEntity
  8
CENTER L
  6
CENTER
 62
     1
 48
5.0
100
AcDbLine
 10
321.6594235447181
 20
95.59598810705457
 30
0.0
 11
321.6594235447181
 21
103.7097881070546
 31
0.0
  0
DIMENSION
  5
F76
330
1A
100
AcDbEntity
  8
SUNPOU
  6
Continuous
100
AcDbDimension
  2
*D16
 10
321.6594235447181
 20
129.6730684062871
 30
0.0
 11
342.1594235447181
 21
132.1730684062871
 31
0.0
 70
    32
 71
     5
 42
41.00000000000022
  3
STANDARD
100
AcDbAlignedDimension
 13
362.6594235447182
 23
104.5959881070545
 33
0.0
 14
321.6594235447181
 24
104.5960881070546
 34
0.0
100
AcDbRotatedDimension
1001
ACAD
1000
DSTYLE
1002
{
1070
   140
1040
3.0
1070
    74
1070
     0
1070
   172
1070
     1
1070
    73
1070
     0
1070
   272
1070
     2
1070
    77
1070
     3
1070
   173
1070
     1
1070
   147
1040
1.0
1070
    42
1040
3.0
1070
    44
1040
1.5
1070
    43
1040
7.0
1070
   271
1070
     0
1070
   178
1070
     4
1070
   177
1070
     4
1070
   176
1070
     4
1070
   141
1040
150.0
1070
     7
1000
_OPEN
1070
     6
1000
_OPEN
1070
    41
1040
3.0
1002
}
  0
LINE
  5
F77
330
1A
100
AcDbEntity
  8
SEIHIN
  6
Continuous
 62
     3
 48
16.0
100
AcDbLine
 10
342.1594235447181
 20
74.59598810705458
 30
0.0
 11
319.6594235447183
 21
74.59608810705458
 31
0.0
  0
LINE
  5
F78
330
1A
100
AcDbEntity
  8
SEIHIN
  6
Continuous
100
AcDbLine
 10
335.3594021053885
 20
106.0303881070546
 30
0.0
 11
348.959423544718
 21
106.0303881070546
 31
0.0
  0
DIMENSION
  5
F79
330
1A
100
AcDbEntity
  8
SUNPOU
  6
Continuous
100
AcDbDimension
  2
*D17
 10
317.6594235447181
 20
139.1849894996167
 30
0.0
 11
342.1594235447181
 21
141.6849894996166
 31
0.0
 70
    32
 71
     5
 42
49.00000000000023
  3
STANDARD
100
AcDbAlignedDimension
 13
366.6594235447182
 23
104.5959881070545
 33
0.0
 14
317.6594235447181
 24
104.5960881070546
 34
0.0
100
AcDbRotatedDimension
1001
ACAD
1000
DSTYLE
1002
{
1070
   140
1040
3.0
1070
    74
1070
     0
1070
   172
1070
     1
1070
    73
1070
     0
1070
   272
1070
     2
1070
    77
1070
     3
1070
   173
1070
     1
1070
   147
1040
1.0
1070
    42
1040
3.0
1070
    44
1040
1.5
1070
    43
1040
7.0
1070
   271
1070
     0
1070
   178
1070
     4
1070
   177
1070
     4
1070
   176
1070
     4
1070
   141
1040
150.0
1070
     7
1000
_OPEN
1070
     6
1000
_OPEN
1070
    41
1040
3.0
1002
}
  0
LINE
  5
109B
330
1A
100
AcDbEntity
  8
CENTER L
  6
CENTER
 62
     1
 48
5.0
100
AcDbLine
 10
49.74712015227743
 20
95.5963881070545
 30
0.0
 11
49.74712015227743
 21
103.7101881070545
 31
0.0
  0
LINE
  5
109C
330
1A
100
AcDbEntity
  8
CENTER L
  6
CENTER
 62
     1
 48
5.0
100
AcDbLine
 10
46.59952015227765
 20
100.5964881070544
 30
0.0
 11
53.3188201522774
 21
100.5964881070544
 31
0.0
  0
CIRCLE
  5
109D
330
1A
100
AcDbEntity
  8
SEIHIN
100
AcDbCircle
 10
49.74712015227743
 20
100.5964881070544
 30
0.0
 40
1.25
  0
LINE
  5
109E
330
1A
100
AcDbEntity
  8
CENTER L
  6
CENTER
 62
     1
 48
5.0
100
AcDbLine
 10
46.59942015227767
 20
78.59648810705451
 30
0.0
 11
53.4497201522775
 21
78.59648810705451
 31
0.0
  0
LINE
  5
109F
330
1A
100
AcDbEntity
  8
CENTER L
  6
CENTER
 62
     1
 48
5.0
100
AcDbLine
 10
49.74712015227743
 20
75.63328810705442
 30
0.0
 11
49.74712015227737
 21
83.59638810705451
 31
0.0
  0
CIRCLE
  5
10A0
330
1A
100
AcDbEntity
  8
SEIHIN
100
AcDbCircle
 10
49.74712015227743
 20
78.59648810705451
 30
0.0
 40
1.25
  0
LINE
  5
10A1
330
1A
100
AcDbEntity
  8
CENTER L
  6
CENTER
 62
     1
 48
5.0
100
AcDbLine
 10
93.89472015227767
 20
78.59638810705451
 30
0.0
 11
87.04442015227739
 21
78.59638810705451
 31
0.0
  0
LINE
  5
10A2
330
1A
100
AcDbEntity
  8
CENTER L
  6
CENTER
 62
     1
 48
5.0
100
AcDbLine
 10
90.74712015227765
 20
75.63328810705442
 30
0.0
 11
90.7471201522776
 21
83.59638810705451
 31
0.0
  0
CIRCLE
  5
10A3
330
1A
100
AcDbEntity
  8
SEIHIN
100
AcDbCircle
 10
90.74712015227765
 20
78.59638810705451
 30
0.0
 40
1.25
  0
LINE
  5
10A4
330
1A
100
AcDbEntity
  8
CENTER L
  6
CENTER
 62
     1
 48
5.0
100
AcDbLine
 10
90.74712015227765
 20
95.5963881070545
 30
0.0
 11
90.74712015227765
 21
103.7101881070545
 31
0.0
  0
LINE
  5
10A5
330
1A
100
AcDbEntity
  8
CENTER L
  6
CENTER
 62
     1
 48
5.0
100
AcDbLine
 10
93.89472015227767
 20
100.5963881070545
 30
0.0
 11
87.17542015227769
 21
100.5963881070545
 31
0.0
  0
CIRCLE
  5
10A6
330
1A
100
AcDbEntity
  8
SEIHIN
100
AcDbCircle
 10
90.74712015227765
 20
100.5963881070545
 30
0.0
 40
1.25
  0
VIEWPORT
  5
22
102
{ACAD_XDICTIONARY
360
10AF
102
}
330
17
100
AcDbEntity
 67
     1
  8
0
100
AcDbViewport
 10
313.6808219178083
 20
148.5
 30
0.0
 40
627.3616438356165
 41
297.0
 68
     2
 69
     1
 12
313.6808219178083
 22
148.5
 13
0.0
 23
0.0
 14
1.0
 24
1.0
 15
10.0
 25
10.0
 16
0.0
 26
0.0
 36
1.0
 17
0.0
 27
0.0
 37
0.0
 42
50.0
 43
0.0
 44
0.0
 45
297.0
 50
0.0
 51
0.0
 72
   100
 90
    32768
  1

281
     0
 71
     1
 74
     0
110
0.0
120
0.0
130
0.0
111
1.0
121
0.0
131
0.0
112
0.0
122
1.0
132
0.0
 79
     0
146
0.0
  0
VIEWPORT
  5
64
102
{ACAD_XDICTIONARY
360
10B1
102
}
330
17
100
AcDbEntity
 67
     1
  8
VIEWPORT
100
AcDbViewport
 10
210.0
 20
148.5
 30
0.0
 40
420.0
 41
297.0
 68
     1
 69
     2
 12
210.0
 22
148.5
 13
0.0
 23
0.0
 14
5.0
 24
5.0
 15
0.0
 25
0.0
 16
0.0
 26
0.0
 36
1.0
 17
0.0
 27
0.0
 37
0.0
 42
50.0
 43
0.0
 44
0.0
 45
302.9399999999999
 50
0.0
 51
0.0
 72
   100
 90
    32768
  1

281
     0
 71
     1
 74
     0
110
0.0
120
0.0
130
0.0
111
1.0
121
0.0
131
0.0
112
0.0
122
1.0
132
0.0
 79
     0
146
0.0
  0
ENDSEC
  0
SECTION
  2
OBJECTS
  0
DICTIONARY
  5
C
330
0
100
AcDbDictionary
281
     1
  3
ACAD_COLOR
350
ED6
  3
ACAD_GROUP
350
D
  3
ACAD_LAYOUT
350
706
  3
ACAD_MATERIAL
350
ED5
  3
ACAD_MLINESTYLE
350
E
  3
ACAD_PLOTSETTINGS
350
707
  3
ACAD_PLOTSTYLENAME
350
704
  3
ACDBHEADERROUNDTRIPXREC
350
10AC
  3
AcDbVariableDictionary
350
10A8
  0
DICTIONARY
  5
9A4
330
1A
100
AcDbDictionary
280
     1
281
     1
  3
ACAD_LAYOUTSELFREF
360
EB2
  0
DICTIONARY
  5
9A2
330
17
100
AcDbDictionary
280
     1
281
     1
  3
ACAD_LAYOUTSELFREF
360
EB1
  0
DICTIONARY
  5
10AF
330
22
100
AcDbDictionary
280
     1
281
     1
  3
ACAD_XREC_ROUNDTRIP
360
10B0
  0
DICTIONARY
  5
10B1
330
64
100
AcDbDictionary
280
     1
281
     1
  3
ACAD_XREC_ROUNDTRIP
360
10B2
  0
DICTIONARY
  5
ED6
102
{ACAD_REACTORS
330
C
102
}
330
C
100
AcDbDictionary
281
     1
  0
DICTIONARY
  5
D
102
{ACAD_REACTORS
330
C
102
}
330
C
100
AcDbDictionary
281
     1
  0
DICTIONARY
  5
706
102
{ACAD_REACTORS
330
C
102
}
330
C
100
AcDbDictionary
281
     1
  3
Model
350
708
  3
ﾚｲｱｳﾄ1
350
709
  0
DICTIONARY
  5
ED5
102
{ACAD_REACTORS
330
C
102
}
330
C
100
AcDbDictionary
281
     1
  0
DICTIONARY
  5
E
102
{ACAD_REACTORS
330
C
102
}
330
C
100
AcDbDictionary
281
     1
  3
STANDARD
350
13
  0
DICTIONARY
  5
707
102
{ACAD_REACTORS
330
C
102
}
330
C
100
AcDbDictionary
281
     1
  0
ACDBDICTIONARYWDFLT
  5
704
102
{ACAD_REACTORS
330
C
102
}
330
C
100
AcDbDictionary
281
     1
  3
Normal
350
705
100
AcDbDictionaryWithDefault
340
705
1001
ACAD
1000
TREAT_AS_HARD
1070
     0
1000
TREAT_AS_HARD
1070
     0
1000
TREAT_AS_HARD
1070
     0
1000
TREAT_AS_HARD
1070
     0
1000
TREAT_AS_HARD
1070
     0
1000
TREAT_AS_HARD
1070
     0
  0
DICTIONARY
  5
10AC
102
{ACAD_REACTORS
330
C
102
}
330
C
100
AcDbDictionary
281
     1
  3
COLORDICT
350
10AE
  3
MATERIALDICT
350
10AD
  0
DICTIONARY
  5
10A8
102
{ACAD_REACTORS
330
C
102
}
330
C
100
AcDbDictionary
281
     1
  3
DIMASSOC
350
10A9
  3
PROJECTNAME
350
10AA
  0
XRECORD
  5
EB2
102
{ACAD_REACTORS
330
9A4
102
}
330
9A4
100
AcDbXrecord
280
     1
340
1A
  0
XRECORD
  5
EB1
102
{ACAD_REACTORS
330
9A2
102
}
330
9A2
100
AcDbXrecord
280
     1
340
17
  0
XRECORD
  5
10B0
102
{ACAD_REACTORS
330
10AF
102
}
330
10AF
100
AcDbXrecord
280
     1
102
SHADEPLOT
 70
     0
  0
XRECORD
  5
10B2
102
{ACAD_REACTORS
330
10B1
102
}
330
10B1
100
AcDbXrecord
280
     1
102
SHADEPLOT
 70
     0
  0
LAYOUT
  5
708
102
{ACAD_XDICTIONARY
360
10B3
102
}
102
{ACAD_REACTORS
330
706
102
}
330
706
100
AcDbPlotSettings
  1

  2
CubePDF
  4
A3
  6

 40
3.174999999999999
 41
3.174999999999999
 42
3.174987999999999
 43
3.174987999999999
 44
420.1583249999999
 45
297.03183
 46
3.0
 47
0.0
 48
0.0
 49
0.0
140
0.0
141
0.0
142
1.0
143
0.9637861002203239
 70
 28336
 72
     1
 73
     0
 74
     1
  7
monochrome.ctb
 75
     0
147
1.03757462342671
148
0.0211257685446071
149
0.0004862476475864
100
AcDbLayout
  1
Model
 70
     1
 71
     0
 10
0.0
 20
0.0
 11
12.0
 21
9.0
 12
0.0
 22
0.0
 32
0.0
 14
0.0
 24
0.0
 34
0.0
 15
0.0
 25
0.0
 35
0.0
146
0.0
 13
0.0
 23
0.0
 33
0.0
 16
1.0
 26
0.0
 36
0.0
 17
0.0
 27
1.0
 37
0.0
 76
     0
330
1A
  0
LAYOUT
  5
709
102
{ACAD_XDICTIONARY
360
10B5
102
}
102
{ACAD_REACTORS
330
706
102
}
330
706
100
AcDbPlotSettings
  1

  2
C:\PROGRAM FILES\ACAD LT 2000\plotters\DWF ePlot.pc3
  4

  6

 40
0.0
 41
0.0
 42
0.0
 43
0.0
 44
0.0
 45
0.0
 46
0.0
 47
0.0
 48
0.0
 49
0.0
140
0.0
141
0.0
142
1.0
143
1.0
 70
   688
 72
     0
 73
     0
 74
     5
  7
print.ctb
 75
    16
147
1.0
148
0.0
149
0.0
100
AcDbLayout
  1
ﾚｲｱｳﾄ1
 70
     1
 71
     1
 10
0.0
 20
0.0
 11
420.0
 21
297.0
 12
0.0
 22
0.0
 32
0.0
 14
0.0
 24
0.0
 34
0.0
 15
420.0
 25
297.0
 35
0.0
146
0.0
 13
0.0
 23
0.0
 33
0.0
 16
1.0
 26
0.0
 36
0.0
 17
0.0
 27
1.0
 37
0.0
 76
     0
330
17
331
64
  0
MLINESTYLE
  5
13
102
{ACAD_REACTORS
330
E
102
}
330
E
100
AcDbMlineStyle
  2
STANDARD
 70
     0
  3

 62
     0
 51
90.0
 52
90.0
 71
     2
 49
0.5
 62
   256
  6
BYLAYER
 49
-0.5
 62
   256
  6
BYLAYER
  0
ACDBPLACEHOLDER
  5
705
102
{ACAD_REACTORS
330
704
102
}
330
704
  0
XRECORD
  5
10AE
102
{ACAD_REACTORS
330
10AC
102
}
330
10AC
100
AcDbXrecord
280
     1
340
ED6
  0
XRECORD
  5
10AD
102
{ACAD_REACTORS
330
10AC
102
}
330
10AC
100
AcDbXrecord
280
     1
340
ED5
  0
DICTIONARYVAR
  5
10A9
102
{ACAD_REACTORS
330
10A8
102
}
330
10A8
100
DictionaryVariables
280
     0
  1
1
  0
DICTIONARYVAR
  5
10AA
102
{ACAD_REACTORS
330
10A8
102
}
330
10A8
100
DictionaryVariables
280
     0
  1

  0
DICTIONARY
  5
10B3
330
708
100
AcDbDictionary
280
     1
281
     1
  3
ACAD_XREC_ROUNDTRIP
360
10B4
  0
DICTIONARY
  5
10B5
330
709
100
AcDbDictionary
280
     1
281
     1
  3
ACAD_XREC_ROUNDTRIP
360
10B6
  0
XRECORD
  5
10B4
102
{ACAD_REACTORS
330
10B3
102
}
330
10B3
100
AcDbXrecord
280
     1
102
SHADEPLOT
 70
     1
102
SHADEPLOTRESLEVEL
 70
     2
102
SHADEPLOTCUSTOMDPI
 70
   300
  0
XRECORD
  5
10B6
102
{ACAD_REACTORS
330
10B5
102
}
330
10B5
100
AcDbXrecord
280
     1
102
SHADEPLOT
 70
     0
102
SHADEPLOTRESLEVEL
 70
     2
102
SHADEPLOTCUSTOMDPI
 70
   300
  0
ENDSEC
  0
EOF
