  0
SECTION
  2
HEADER
  9
$ACADVER
  1
AC1015
  9
$ACADMAINTVER
 70
    20
  9
$DWGCODEPAGE
  3
ANSI_932
  9
$INSBASE
 10
0.0
 20
0.0
 30
0.0
  9
$EXTMIN
 10
-0.0143072770241588
 20
-0.0101256606567404
 30
-0.0015258207003583
  9
$EXTMAX
 10
398.8175884456152
 20
275.8071197798944
 30
0.0000000349246037
  9
$LIMMIN
 10
0.0
 20
0.0
  9
$LIMMAX
 10
420.0
 20
297.0
  9
$ORTHOMODE
 70
     0
  9
$REGENMODE
 70
     1
  9
$FILLMODE
 70
     1
  9
$QTEXTMODE
 70
     0
  9
$MIRRTEXT
 70
     1
  9
$LTSCALE
 40
1.0
  9
$ATTMODE
 70
     1
  9
$TEXTSIZE
 40
2.5
  9
$TRACEWID
 40
1.0
  9
$TEXTSTYLE
  7
STANDARD
  9
$CLAYER
  8
SEIHIN
  9
$CELTYPE
  6
BYLAYER
  9
$CECOLOR
 62
   256
  9
$CELTSCALE
 40
1.0
  9
$DISPSILH
 70
     0
  9
$DIMSCALE
 40
1.0
  9
$DIMASZ
 40
3.0
  9
$DIMEXO
 40
3.0
  9
$DIMDLI
 40
7.0
  9
$DIMRND
 40
0.0
  9
$DIMDLE
 40
0.0
  9
$DIMEXE
 40
1.5
  9
$DIMTP
 40
0.0
  9
$DIMTM
 40
0.0
  9
$DIMTXT
 40
3.0
  9
$DIMCEN
 40
150.0
  9
$DIMTSZ
 40
0.0
  9
$DIMTOL
 70
     0
  9
$DIMLIM
 70
     0
  9
$DIMTIH
 70
     0
  9
$DIMTOH
 70
     0
  9
$DIMSE1
 70
     0
  9
$DIMSE2
 70
     0
  9
$DIMTAD
 70
     3
  9
$DIMZIN
 70
     0
  9
$DIMBLK
  1

  9
$DIMASO
 70
     1
  9
$DIMSHO
 70
     1
  9
$DIMPOST
  1

  9
$DIMAPOST
  1

  9
$DIMALT
 70
     0
  9
$DIMALTD
 70
     2
  9
$DIMALTF
 40
25.4
  9
$DIMLFAC
 40
1.0
  9
$DIMTOFL
 70
     1
  9
$DIMTVP
 40
0.0
  9
$DIMTIX
 70
     0
  9
$DIMSOXD
 70
     0
  9
$DIMSAH
 70
     1
  9
$DIMBLK1
  1
OPEN
  9
$DIMBLK2
  1
OPEN
  9
$DIMSTYLE
  2
STANDARD
  9
$DIMCLRD
 70
   256
  9
$DIMCLRE
 70
   256
  9
$DIMCLRT
 70
   256
  9
$DIMTFAC
 40
1.0
  9
$DIMGAP
 40
1.0
  9
$DIMJUST
 70
     0
  9
$DIMSD1
 70
     0
  9
$DIMSD2
 70
     0
  9
$DIMTOLJ
 70
     1
  9
$DIMTZIN
 70
     0
  9
$DIMALTZ
 70
     0
  9
$DIMALTTZ
 70
     0
  9
$DIMUPT
 70
     0
  9
$DIMDEC
 70
     0
  9
$DIMTDEC
 70
     0
  9
$DIMALTU
 70
     2
  9
$DIMALTTD
 70
     2
  9
$DIMTXSTY
  7
STANDARD
  9
$DIMAUNIT
 70
     0
  9
$DIMADEC
 70
     0
  9
$DIMALTRND
 40
0.0
  9
$DIMAZIN
 70
     0
  9
$DIMDSEP
 70
    46
  9
$DIMATFIT
 70
     3
  9
$DIMFRAC
 70
     0
  9
$DIMLDRBLK
  1
OPEN
  9
$DIMLUNIT
 70
     2
  9
$DIMLWD
 70
    -1
  9
$DIMLWE
 70
    -1
  9
$DIMTMOVE
 70
     0
  9
$LUNITS
 70
     2
  9
$LUPREC
 70
     4
  9
$SKETCHINC
 40
1.0
  9
$FILLETRAD
 40
10.0
  9
$AUNITS
 70
     0
  9
$AUPREC
 70
     0
  9
$MENU
  1
.
  9
$ELEVATION
 40
0.0
  9
$PELEVATION
 40
0.0
  9
$THICKNESS
 40
0.0
  9
$LIMCHECK
 70
     0
  9
$CHAMFERA
 40
10.0
  9
$CHAMFERB
 40
10.0
  9
$CHAMFERC
 40
20.0
  9
$CHAMFERD
 40
0.0
  9
$SKPOLY
 70
     0
  9
$TDCREATE
 40
2450994.350997107
  9
$TDUCREATE
 40
2450993.975997107
  9
$TDUPDATE
 40
2458319.693522767
  9
$TDUUPDATE
 40
2458319.318522766
  9
$TDINDWG
 40
0.0406890625
  9
$TDUSRTIMER
 40
0.0406890625
  9
$USRTIMER
 70
     1
  9
$ANGBASE
 50
0.0
  9
$ANGDIR
 70
     0
  9
$PDMODE
 70
     1
  9
$PDSIZE
 40
0.0
  9
$PLINEWID
 40
0.0
  9
$SPLFRAME
 70
     0
  9
$SPLINETYPE
 70
     6
  9
$SPLINESEGS
 70
     8
  9
$HANDSEED
  5
1439
  9
$SURFTAB1
 70
     6
  9
$SURFTAB2
 70
     6
  9
$SURFTYPE
 70
     6
  9
$SURFU
 70
     6
  9
$SURFV
 70
     6
  9
$UCSBASE
  2

  9
$UCSNAME
  2

  9
$UCSORG
 10
0.0
 20
0.0
 30
0.0
  9
$UCSXDIR
 10
1.0
 20
0.0
 30
0.0
  9
$UCSYDIR
 10
0.0
 20
1.0
 30
0.0
  9
$UCSORTHOREF
  2

  9
$UCSORTHOVIEW
 70
     0
  9
$UCSORGTOP
 10
0.0
 20
0.0
 30
0.0
  9
$UCSORGBOTTOM
 10
0.0
 20
0.0
 30
0.0
  9
$UCSORGLEFT
 10
0.0
 20
0.0
 30
0.0
  9
$UCSORGRIGHT
 10
0.0
 20
0.0
 30
0.0
  9
$UCSORGFRONT
 10
0.0
 20
0.0
 30
0.0
  9
$UCSORGBACK
 10
0.0
 20
0.0
 30
0.0
  9
$PUCSBASE
  2

  9
$PUCSNAME
  2

  9
$PUCSORG
 10
0.0
 20
0.0
 30
0.0
  9
$PUCSXDIR
 10
1.0
 20
0.0
 30
0.0
  9
$PUCSYDIR
 10
0.0
 20
1.0
 30
0.0
  9
$PUCSORTHOREF
  2

  9
$PUCSORTHOVIEW
 70
     0
  9
$PUCSORGTOP
 10
0.0
 20
0.0
 30
0.0
  9
$PUCSORGBOTTOM
 10
0.0
 20
0.0
 30
0.0
  9
$PUCSORGLEFT
 10
0.0
 20
0.0
 30
0.0
  9
$PUCSORGRIGHT
 10
0.0
 20
0.0
 30
0.0
  9
$PUCSORGFRONT
 10
0.0
 20
0.0
 30
0.0
  9
$PUCSORGBACK
 10
0.0
 20
0.0
 30
0.0
  9
$USERI1
 70
     0
  9
$USERI2
 70
     0
  9
$USERI3
 70
     0
  9
$USERI4
 70
     0
  9
$USERI5
 70
     0
  9
$USERR1
 40
0.0
  9
$USERR2
 40
0.0
  9
$USERR3
 40
0.0
  9
$USERR4
 40
0.0
  9
$USERR5
 40
0.0
  9
$WORLDVIEW
 70
     1
  9
$SHADEDGE
 70
     3
  9
$SHADEDIF
 70
    70
  9
$TILEMODE
 70
     1
  9
$MAXACTVP
 70
    16
  9
$PINSBASE
 10
0.0
 20
0.0
 30
0.0
  9
$PLIMCHECK
 70
     0
  9
$PEXTMIN
 10
0.0
 20
0.0
 30
0.0
  9
$PEXTMAX
 10
420.0
 20
297.0
 30
0.0
  9
$PLIMMIN
 10
0.0
 20
0.0
  9
$PLIMMAX
 10
420.0
 20
297.0
  9
$UNITMODE
 70
     0
  9
$VISRETAIN
 70
     0
  9
$PLINEGEN
 70
     0
  9
$PSLTSCALE
 70
     1
  9
$TREEDEPTH
 70
  3020
  9
$CMLSTYLE
  2
STANDARD
  9
$CMLJUST
 70
     0
  9
$CMLSCALE
 40
1.0
  9
$PROXYGRAPHICS
 70
     1
  9
$MEASUREMENT
 70
     1
  9
$CELWEIGHT
370
    -1
  9
$ENDCAPS
280
     0
  9
$JOINSTYLE
280
     0
  9
$LWDISPLAY
290
     0
  9
$INSUNITS
 70
     0
  9
$HYPERLINKBASE
  1

  9
$STYLESHEET
  1
monochrome.ctb
  9
$XEDIT
290
     1
  9
$CEPSNTYPE
380
     0
  9
$PSTYLEMODE
290
     1
  9
$FINGERPRINTGUID
  2
{A910FCBE-FE72-4527-A26B-281465A51DD5}
  9
$VERSIONGUID
  2
{95D0164E-D7AF-46AE-A0C0-E7544BCE3BA9}
  9
$EXTNAMES
290
     1
  9
$PSVPSCALE
 40
0.0
  9
$OLESTARTUP
290
     0
  0
ENDSEC
  0
SECTION
  2
CLASSES
  0
CLASS
  1
ACDBDICTIONARYWDFLT
  2
AcDbDictionaryWithDefault
  3
ObjectDBX Classes
 90
        0
280
     0
281
     0
  0
CLASS
  1
ACDBPLACEHOLDER
  2
AcDbPlaceHolder
  3
ObjectDBX Classes
 90
        0
280
     0
281
     0
  0
CLASS
  1
LAYOUT
  2
AcDbLayout
  3
ObjectDBX Classes
 90
        0
280
     0
281
     0
  0
CLASS
  1
DICTIONARYVAR
  2
AcDbDictionaryVar
  3
ObjectDBX Classes
 90
        0
280
     0
281
     0
  0
ENDSEC
  0
SECTION
  2
TABLES
  0
TABLE
  2
VPORT
  5
8
330
0
100
AcDbSymbolTable
 70
    12
  0
VPORT
  5
142D
330
8
100
AcDbSymbolTableRecord
100
AcDbViewportTableRecord
  2
*Active
 70
     0
 10
0.0
 20
0.0
 11
1.0
 21
1.0
 12
266.5577706959414
 22
110.0422949465421
 13
0.0
 23
0.0
 14
5.0
 24
5.0
 15
0.0
 25
0.0
 16
0.0
 26
0.0
 36
1.0
 17
0.0
 27
0.0
 37
0.0
 40
336.051416844948
 41
2.083424807903402
 42
50.0
 43
0.0
 44
0.0
 50
0.0
 51
0.0
 71
     0
 72
   100
 73
     1
 74
     0
 75
     0
 76
     0
 77
     0
 78
     0
281
     0
 65
     1
110
0.0
120
0.0
130
0.0
111
1.0
121
0.0
131
0.0
112
0.0
122
1.0
132
0.0
 79
     0
146
0.0
  0
ENDTAB
  0
TABLE
  2
LTYPE
  5
5
330
0
100
AcDbSymbolTable
 70
     3
  0
LTYPE
  5
14
330
5
100
AcDbSymbolTableRecord
100
AcDbLinetypeTableRecord
  2
BYBLOCK
 70
     0
  3

 72
    65
 73
     0
 40
0.0
  0
LTYPE
  5
15
330
5
100
AcDbSymbolTableRecord
100
AcDbLinetypeTableRecord
  2
BYLAYER
 70
     0
  3

 72
    65
 73
     0
 40
0.0
  0
LTYPE
  5
16
330
5
100
AcDbSymbolTableRecord
100
AcDbLinetypeTableRecord
  2
CONTINUOUS
 70
     0
  3
Solid line
 72
    65
 73
     0
 40
0.0
  0
LTYPE
  5
120
330
5
100
AcDbSymbolTableRecord
100
AcDbLinetypeTableRecord
  2
CENTER
 70
     0
  3
____ _ ____ _ ____ _ ____ _ ____ _ ____ _ ____ 
 72
    65
 73
     4
 40
2.0
 49
1.25
 74
     0
 49
-0.25
 74
     0
 49
0.25
 74
     0
 49
-0.25
 74
     0
  0
LTYPE
  5
122
330
5
100
AcDbSymbolTableRecord
100
AcDbLinetypeTableRecord
  2
PHANTOM
 70
     0
  3
______  __  __  ______  __  __  ______  __  __ 
 72
    65
 73
     6
 40
2.5
 49
1.25
 74
     0
 49
-0.25
 74
     0
 49
0.25
 74
     0
 49
-0.25
 74
     0
 49
0.25
 74
     0
 49
-0.25
 74
     0
  0
ENDTAB
  0
TABLE
  2
LAYER
  5
2
330
0
100
AcDbSymbolTable
 70
    10
  0
LAYER
  5
F
330
2
100
AcDbSymbolTableRecord
100
AcDbLayerTableRecord
  2
0
 70
     0
 62
     7
  6
CONTINUOUS
370
    -3
390
7D3
  0
LAYER
  5
62
330
2
100
AcDbSymbolTableRecord
100
AcDbLayerTableRecord
  2
VIEWPORT
 70
     0
 62
     7
  6
CONTINUOUS
370
    -3
390
7D3
  0
LAYER
  5
6B
330
2
100
AcDbSymbolTableRecord
100
AcDbLayerTableRecord
  2
ZUWAKU
 70
     0
 62
     7
  6
CONTINUOUS
370
    -3
390
7D3
  0
LAYER
  5
146
330
2
100
AcDbSymbolTableRecord
100
AcDbLayerTableRecord
  2
SUNPOU L
 70
     0
 62
     4
  6
CONTINUOUS
370
    -3
390
7D3
  0
LAYER
  5
185
330
2
100
AcDbSymbolTableRecord
100
AcDbLayerTableRecord
  2
CENTER L
 70
     0
 62
     1
  6
CENTER
370
    -3
390
7D3
  0
LAYER
  5
18C
330
2
100
AcDbSymbolTableRecord
100
AcDbLayerTableRecord
  2
DEFPOINTS
 70
     0
 62
     7
  6
CONTINUOUS
290
     0
370
    -3
390
7D3
  0
LAYER
  5
2E1
330
2
100
AcDbSymbolTableRecord
100
AcDbLayerTableRecord
  2
SUNPOU
 70
     0
 62
     4
  6
CONTINUOUS
370
    -3
390
7D3
  0
LAYER
  5
2E2
330
2
100
AcDbSymbolTableRecord
100
AcDbLayerTableRecord
  2
SEIHIN
 70
     0
 62
     3
  6
CONTINUOUS
370
    -3
390
7D3
  0
LAYER
  5
2E3
330
2
100
AcDbSymbolTableRecord
100
AcDbLayerTableRecord
  2
NOKITOI
 70
     0
 62
     8
  6
PHANTOM
370
    -3
390
7D3
  0
LAYER
  5
85B
330
2
100
AcDbSymbolTableRecord
100
AcDbLayerTableRecord
  2
moji
 70
     0
 62
     2
  6
CONTINUOUS
370
    -3
390
7D3
  0
ENDTAB
  0
TABLE
  2
STYLE
  5
3
330
0
100
AcDbSymbolTable
 70
     2
  0
STYLE
  5
10
330
3
100
AcDbSymbolTableRecord
100
AcDbTextStyleTableRecord
  2
STANDARD
 70
     0
 40
0.0
 41
1.0
 50
0.0
 71
     0
 42
2.5
  3
TXT
  4
bigfont.shx
  0
STYLE
  5
85C
330
3
100
AcDbSymbolTableRecord
100
AcDbTextStyleTableRecord
  2
ｽﾀｲﾙ1
 70
     0
 40
0.0
 41
1.0
 50
0.0
 71
     0
 42
2.5
  3

  4

1001
ACAD
1000
MS PGothic
1071
    32818
  0
ENDTAB
  0
TABLE
  2
VIEW
  5
6
330
0
100
AcDbSymbolTable
 70
     0
  0
ENDTAB
  0
TABLE
  2
UCS
  5
7
330
0
100
AcDbSymbolTable
 70
     0
  0
ENDTAB
  0
TABLE
  2
APPID
  5
9
330
0
100
AcDbSymbolTable
 70
     1
  0
APPID
  5
11
330
9
100
AcDbSymbolTableRecord
100
AcDbRegAppTableRecord
  2
ACAD
 70
     0
  0
ENDTAB
  0
TABLE
  2
DIMSTYLE
  5
A
330
0
100
AcDbSymbolTable
 70
     1
100
AcDbDimStyleTable
 71
     0
  0
DIMSTYLE
105
1D
102
{ACAD_REACTORS
330
4C5
330
520
330
58E
330
5BE
330
5BF
330
5C7
330
5D1
330
5D3
330
5DE
330
5E5
330
607
330
608
330
625
102
}
330
A
100
AcDbSymbolTableRecord
100
AcDbDimStyleTableRecord
  2
STANDARD
 70
     0
340
10
  0
ENDTAB
  0
TABLE
  2
BLOCK_RECORD
  5
1
330
0
100
AcDbSymbolTable
 70
    24
  0
BLOCK_RECORD
  5
1A
102
{ACAD_XDICTIONARY
360
817
102
}
330
1
100
AcDbSymbolTableRecord
100
AcDbBlockTableRecord
  2
*MODEL_SPACE
340
7D6
  0
BLOCK_RECORD
  5
17
102
{ACAD_XDICTIONARY
360
815
102
}
330
1
100
AcDbSymbolTableRecord
100
AcDbBlockTableRecord
  2
*PAPER_SPACE
340
7D7
  0
BLOCK_RECORD
  5
B2
330
1
100
AcDbSymbolTableRecord
100
AcDbBlockTableRecord
  2
_OPEN
340
0
102
{BLKREFS
331
72E
331
72F
331
7DE
331
7DF
331
744
331
745
331
74F
331
750
331
75A
331
75B
331
7E7
331
7E8
331
770
331
771
331
77B
331
77C
331
788
331
789
331
795
331
796
331
7A0
331
7A1
331
7AB
331
7AC
331
7C9
331
7CA
102
}
  0
BLOCK_RECORD
  5
68A
330
1
100
AcDbSymbolTableRecord
100
AcDbBlockTableRecord
  2
*D1
340
0
  0
BLOCK_RECORD
  5
696
330
1
100
AcDbSymbolTableRecord
100
AcDbBlockTableRecord
  2
*D2
340
0
  0
BLOCK_RECORD
  5
6A2
330
1
100
AcDbSymbolTableRecord
100
AcDbBlockTableRecord
  2
*D3
340
0
  0
BLOCK_RECORD
  5
6AE
330
1
100
AcDbSymbolTableRecord
100
AcDbBlockTableRecord
  2
*D4
340
0
  0
BLOCK_RECORD
  5
6BA
330
1
100
AcDbSymbolTableRecord
100
AcDbBlockTableRecord
  2
*D5
340
0
  0
BLOCK_RECORD
  5
6C6
330
1
100
AcDbSymbolTableRecord
100
AcDbBlockTableRecord
  2
*D6
340
0
  0
BLOCK_RECORD
  5
6D2
330
1
100
AcDbSymbolTableRecord
100
AcDbBlockTableRecord
  2
*D7
340
0
  0
BLOCK_RECORD
  5
6DE
330
1
100
AcDbSymbolTableRecord
100
AcDbBlockTableRecord
  2
*D8
340
0
  0
BLOCK_RECORD
  5
6EA
330
1
100
AcDbSymbolTableRecord
100
AcDbBlockTableRecord
  2
*D9
340
0
  0
BLOCK_RECORD
  5
6F8
330
1
100
AcDbSymbolTableRecord
100
AcDbBlockTableRecord
  2
*D10
340
0
  0
BLOCK_RECORD
  5
706
330
1
100
AcDbSymbolTableRecord
100
AcDbBlockTableRecord
  2
*D11
340
0
  0
BLOCK_RECORD
  5
712
330
1
100
AcDbSymbolTableRecord
100
AcDbBlockTableRecord
  2
*D12
340
0
  0
BLOCK_RECORD
  5
71E
330
1
100
AcDbSymbolTableRecord
100
AcDbBlockTableRecord
  2
*D13
340
0
  0
BLOCK_RECORD
  5
1173
330
1
100
AcDbSymbolTableRecord
100
AcDbBlockTableRecord
  2
*X14
340
0
102
{BLKREFS
331
924
102
}
  0
BLOCK_RECORD
  5
13F0
102
{ACAD_XDICTIONARY
360
13F6
102
}
330
1
100
AcDbSymbolTableRecord
100
AcDbBlockTableRecord
  2
A$C4A2877E5
340
0
  0
ENDTAB
  0
ENDSEC
  0
SECTION
  2
BLOCKS
  0
BLOCK
  5
1B
330
1A
100
AcDbEntity
  8
0
100
AcDbBlockBegin
  2
*MODEL_SPACE
 70
     0
 10
0.0
 20
0.0
 30
0.0
  3
*MODEL_SPACE
  1

  0
ENDBLK
  5
1C
330
1A
100
AcDbEntity
  8
0
100
AcDbBlockEnd
  0
BLOCK
  5
18
330
17
100
AcDbEntity
 67
     1
  8
0
100
AcDbBlockBegin
  2
*PAPER_SPACE
 70
     0
 10
0.0
 20
0.0
 30
0.0
  3
*PAPER_SPACE
  1

  0
ENDBLK
  5
19
330
17
100
AcDbEntity
 67
     1
  8
0
100
AcDbBlockEnd
  0
BLOCK
  5
B3
330
B2
100
AcDbEntity
  8
0
100
AcDbBlockBegin
  2
_OPEN
 70
     0
 10
0.0
 20
0.0
 30
0.0
  3
_OPEN
  1

  0
LINE
  5
B4
330
B2
100
AcDbEntity
  8
0
  6
ByBlock
 62
     0
380
     1
100
AcDbLine
 10
-1.0
 20
0.1666666666666666
 30
0.0
 11
0.0
 21
0.0
 31
0.0
  0
LINE
  5
B5
330
B2
100
AcDbEntity
  8
0
  6
ByBlock
 62
     0
380
     1
100
AcDbLine
 10
0.0
 20
0.0
 30
0.0
 11
-1.0
 21
-0.1666666666666666
 31
0.0
  0
LINE
  5
B6
330
B2
100
AcDbEntity
  8
0
  6
ByBlock
 62
     0
380
     1
100
AcDbLine
 10
0.0
 20
0.0
 30
0.0
 11
-1.0
 21
0.0
 31
0.0
  0
ENDBLK
  5
B7
330
B2
100
AcDbEntity
  8
0
100
AcDbBlockEnd
  0
BLOCK
  5
72A
330
68A
100
AcDbEntity
  8
0
100
AcDbBlockBegin
  2
*D1
 70
     1
 10
0.0
 20
0.0
 30
0.0
  3
*D1
  1

  0
LINE
  5
72B
330
68A
100
AcDbEntity
  8
0
  6
ByBlock
 62
     4
100
AcDbLine
 10
235.5514013454715
 20
120.322292954426
 30
0.0
 11
235.5514013454715
 21
157.6910940377458
 31
0.0
  0
LINE
  5
72C
330
68A
100
AcDbEntity
  8
0
  6
ByBlock
 62
     4
100
AcDbLine
 10
139.2516042479918
 20
150.2222929544259
 30
0.0
 11
139.2516042479918
 21
157.6910940377458
 31
0.0
  0
LINE
  5
72D
330
68A
100
AcDbEntity
  8
0
  6
ByBlock
 62
     4
100
AcDbLine
 10
232.5514013454716
 20
156.1910940377458
 30
0.0
 11
142.2516042479918
 21
156.1910940377458
 31
0.0
  0
INSERT
  5
72E
330
68A
100
AcDbEntity
  8
0
  6
ByBlock
 62
     4
100
AcDbBlockReference
  2
_OPEN
 10
235.5514013454715
 20
156.1910940377458
 30
0.0
 41
3.0
 42
3.0
 43
3.0
  0
INSERT
  5
72F
330
68A
100
AcDbEntity
  8
0
  6
ByBlock
 62
     4
100
AcDbBlockReference
  2
_OPEN
 10
139.2516042479918
 20
156.1910940377458
 30
0.0
 41
3.0
 42
3.0
 43
3.0
 50
180.0
  0
MTEXT
  5
730
330
68A
100
AcDbEntity
  8
0
  6
ByBlock
 62
     4
100
AcDbMText
 10
187.4015027967317
 20
158.6910940377458
 30
0.0
 40
3.0
 41
0.0
 71
     5
 72
     5
  1
\A1;96
 73
     1
 44
1.0
1001
ACAD
1000
MTEXTBEGIN
1070
    73
1070
     1
1070
    44
1040
1.0
1070
    74
1070
     0
1000
MTEXTEND
  0
POINT
  5
731
330
68A
100
AcDbEntity
  8
DEFPOINTS
  6
ByBlock
 62
     0
380
     1
100
AcDbPoint
 10
235.5514013454715
 20
117.322292954426
 30
0.0
  0
POINT
  5
732
330
68A
100
AcDbEntity
  8
DEFPOINTS
  6
ByBlock
 62
     0
380
     1
100
AcDbPoint
 10
139.2516042479918
 20
147.2222929544259
 30
0.0
  0
POINT
  5
733
330
68A
100
AcDbEntity
  8
DEFPOINTS
  6
ByBlock
 62
     0
380
     1
100
AcDbPoint
 10
139.2516042479918
 20
156.1910940377458
 30
0.0
  0
ENDBLK
  5
734
330
68A
100
AcDbEntity
  8
0
100
AcDbBlockEnd
  0
BLOCK
  5
735
330
696
100
AcDbEntity
  8
0
100
AcDbBlockBegin
  2
*D2
 70
     1
 10
0.0
 20
0.0
 30
0.0
  3
*D2
  1

  0
LINE
  5
7DB
330
696
100
AcDbEntity
  8
SUNPOU
 62
     4
370
    -2
100
AcDbLine
 10
136.2516042479918
 20
147.2222929544259
 30
0.0
 11
119.2115493778502
 21
147.2222929544259
 31
0.0
  0
LINE
  5
7DC
330
696
100
AcDbEntity
  8
SUNPOU
 62
     4
370
    -2
100
AcDbLine
 10
154.6227042479918
 20
87.62229295442605
 30
0.0
 11
119.2115493778502
 21
87.62229295442605
 31
0.0
  0
LINE
  5
7DD
330
696
100
AcDbEntity
  8
SUNPOU
 62
     4
370
    -2
100
AcDbLine
 10
120.7115493778502
 20
144.2222929544259
 30
0.0
 11
120.7115493778502
 21
90.62229295442604
 31
0.0
  0
INSERT
  5
7DE
330
696
100
AcDbEntity
  8
SUNPOU
 62
     4
370
    -2
100
AcDbBlockReference
  2
_OPEN
 10
120.7115493778502
 20
147.2222929544259
 30
0.0
 41
3.0
 42
3.0
 43
3.0
 50
90.0
  0
INSERT
  5
7DF
330
696
100
AcDbEntity
  8
SUNPOU
 62
     4
370
    -2
100
AcDbBlockReference
  2
_OPEN
 10
120.7115493778502
 20
87.62229295442605
 30
0.0
 41
3.0
 42
3.0
 43
3.0
 50
270.0
  0
MTEXT
  5
7E0
330
696
100
AcDbEntity
  8
SUNPOU
 62
     4
100
AcDbMText
 10
118.2115493778502
 20
117.422292954426
 30
0.0
 40
3.0
 41
0.0
 71
     5
 72
     5
  1
\A1;60
 11
0.0000000000000001
 21
1.0
 31
0.0
 73
     1
 44
1.0
1001
ACAD
1000
MTEXTBEGIN
1070
    73
1070
     1
1070
    44
1040
1.0
1070
    74
1070
     0
1000
MTEXTEND
  0
POINT
  5
7E1
330
696
100
AcDbEntity
  8
DEFPOINTS
 62
     0
380
     1
100
AcDbPoint
 10
139.2516042479918
 20
147.2222929544259
 30
0.0
  0
POINT
  5
7E2
330
696
100
AcDbEntity
  8
DEFPOINTS
 62
     0
380
     1
100
AcDbPoint
 10
157.6227042479918
 20
87.62229295442605
 30
0.0
  0
POINT
  5
7E3
330
696
100
AcDbEntity
  8
DEFPOINTS
 62
     0
380
     1
100
AcDbPoint
 10
120.7115493778502
 20
87.62229295442605
 30
0.0
  0
ENDBLK
  5
73F
330
696
100
AcDbEntity
  8
0
100
AcDbBlockEnd
  0
BLOCK
  5
740
330
6A2
100
AcDbEntity
  8
0
100
AcDbBlockBegin
  2
*D3
 70
     1
 10
0.0
 20
0.0
 30
0.0
  3
*D3
  1

  0
LINE
  5
741
330
6A2
100
AcDbEntity
  8
0
  6
ByBlock
 62
     4
100
AcDbLine
 10
136.2516042551004
 20
217.6223429544259
 30
0.0
 11
119.2115493778502
 21
217.6223429544259
 31
0.0
  0
LINE
  5
742
330
6A2
100
AcDbEntity
  8
0
  6
ByBlock
 62
     4
100
AcDbLine
 10
136.2515042551004
 20
197.6223429544259
 30
0.0
 11
119.2115493778502
 21
197.6223429544259
 31
0.0
  0
LINE
  5
743
330
6A2
100
AcDbEntity
  8
0
  6
ByBlock
 62
     4
100
AcDbLine
 10
120.7115493778502
 20
214.6223429544259
 30
0.0
 11
120.7115493778502
 21
200.6223429544259
 31
0.0
  0
INSERT
  5
744
330
6A2
100
AcDbEntity
  8
0
  6
ByBlock
 62
     4
100
AcDbBlockReference
  2
_OPEN
 10
120.7115493778502
 20
217.6223429544259
 30
0.0
 41
3.0
 42
3.0
 43
3.0
 50
90.0
  0
INSERT
  5
745
330
6A2
100
AcDbEntity
  8
0
  6
ByBlock
 62
     4
100
AcDbBlockReference
  2
_OPEN
 10
120.7115493778502
 20
197.6223429544259
 30
0.0
 41
3.0
 42
3.0
 43
3.0
 50
270.0
  0
MTEXT
  5
746
330
6A2
100
AcDbEntity
  8
0
  6
ByBlock
 62
     4
100
AcDbMText
 10
118.2115493778502
 20
207.6223429544259
 30
0.0
 40
3.0
 41
0.0
 71
     5
 72
     5
  1
\A1;20
 11
0.0
 21
1.0
 31
0.0
 73
     1
 44
1.0
1001
ACAD
1000
MTEXTBEGIN
1070
    73
1070
     1
1070
    44
1040
1.0
1070
    74
1070
     0
1000
MTEXTEND
  0
POINT
  5
747
330
6A2
100
AcDbEntity
  8
DEFPOINTS
  6
ByBlock
 62
     0
380
     1
100
AcDbPoint
 10
139.2516042551004
 20
217.6223429544259
 30
0.0
  0
POINT
  5
748
330
6A2
100
AcDbEntity
  8
DEFPOINTS
  6
ByBlock
 62
     0
380
     1
100
AcDbPoint
 10
139.2515042551004
 20
197.6223429544259
 30
0.0
  0
POINT
  5
749
330
6A2
100
AcDbEntity
  8
DEFPOINTS
  6
ByBlock
 62
     0
380
     1
100
AcDbPoint
 10
120.7115493778502
 20
197.6223429544259
 30
0.0
  0
ENDBLK
  5
74A
330
6A2
100
AcDbEntity
  8
0
100
AcDbBlockEnd
  0
BLOCK
  5
74B
330
6AE
100
AcDbEntity
  8
0
100
AcDbBlockBegin
  2
*D4
 70
     1
 10
0.0
 20
0.0
 30
0.0
  3
*D4
  1

  0
LINE
  5
74C
330
6AE
100
AcDbEntity
  8
0
  6
ByBlock
 62
     4
100
AcDbLine
 10
343.9120026747401
 20
158.5095525009113
 30
0.0
 11
337.0641883717823
 21
175.6303719832355
 31
0.0
  0
LINE
  5
74D
330
6AE
100
AcDbEntity
  8
0
  6
ByBlock
 62
     4
100
AcDbLine
 10
305.8439828396
 20
143.2834863081402
 30
0.0
 11
298.9961685366422
 21
160.4043057904645
 31
0.0
  0
LINE
  5
74E
330
6AE
100
AcDbEntity
  8
0
  6
ByBlock
 62
     4
100
AcDbLine
 10
334.8357794974378
 20
173.1235425337631
 30
0.0
 11
302.3386774208268
 21
160.1256763606724
 31
0.0
  0
INSERT
  5
74F
330
6AE
100
AcDbEntity
  8
0
  6
ByBlock
 62
     4
100
AcDbBlockReference
  2
_OPEN
 10
337.6212383767024
 20
174.2376425436032
 30
0.0
 41
3.0
 42
3.0
 43
3.0
 50
21.79992807198203
  0
INSERT
  5
750
330
6AE
100
AcDbEntity
  8
0
  6
ByBlock
 62
     4
100
AcDbBlockReference
  2
_OPEN
 10
299.5532185415622
 20
159.0115763508322
 30
0.0
 41
3.0
 42
3.0
 43
3.0
 50
201.799928071982
  0
MTEXT
  5
751
330
6AE
100
AcDbEntity
  8
0
  6
ByBlock
 62
     4
100
AcDbMText
 10
317.6588117842655
 20
168.9458251799382
 30
0.0
 40
3.0
 41
0.0
 71
     5
 72
     5
  1
\A1;41
 11
0.9284862930882095
 21
0.3713666699467191
 31
0.0
 73
     1
 44
1.0
1001
ACAD
1000
MTEXTBEGIN
1070
    73
1070
     1
1070
    44
1040
1.0
1070
    74
1070
     0
1000
MTEXTEND
  0
POINT
  5
752
330
6AE
100
AcDbEntity
  8
DEFPOINTS
  6
ByBlock
 62
     0
380
     1
100
AcDbPoint
 10
345.0261026845802
 20
155.7240936216467
 30
0.0
  0
POINT
  5
753
330
6AE
100
AcDbEntity
  8
DEFPOINTS
  6
ByBlock
 62
     0
380
     1
100
AcDbPoint
 10
306.9580828494401
 20
140.4980274288756
 30
0.0
  0
POINT
  5
754
330
6AE
100
AcDbEntity
  8
DEFPOINTS
  6
ByBlock
 62
     0
380
     1
100
AcDbPoint
 10
299.5532185415622
 20
159.0115763508322
 30
0.0
  0
ENDBLK
  5
755
330
6AE
100
AcDbEntity
  8
0
100
AcDbBlockEnd
  0
BLOCK
  5
756
330
6BA
100
AcDbEntity
  8
0
100
AcDbBlockBegin
  2
*D5
 70
     1
 10
0.0
 20
0.0
 30
0.0
  3
*D5
  1

  0
LINE
  5
757
330
6BA
100
AcDbEntity
  8
0
  6
ByBlock
 62
     4
100
AcDbLine
 10
347.6259162392087
 20
159.9949996669214
 30
0.0
 11
337.1194899094623
 21
186.263054916333
 31
0.0
  0
LINE
  5
758
330
6BA
100
AcDbEntity
  8
0
  6
ByBlock
 62
     4
100
AcDbLine
 10
302.1300934985713
 20
141.7980488307373
 30
0.0
 11
291.6236671688248
 21
168.066104080149
 31
0.0
  0
LINE
  5
759
330
6BA
100
AcDbEntity
  8
0
  6
ByBlock
 62
     4
100
AcDbLine
 10
334.8910803823045
 20
183.7562260471694
 30
0.0
 11
294.9661759804504
 21
167.7874737799209
 31
0.0
  0
INSERT
  5
75A
330
6BA
100
AcDbEntity
  8
0
  6
ByBlock
 62
     4
100
AcDbBlockReference
  2
_OPEN
 10
337.6765395516962
 20
184.8703253316372
 30
0.0
 41
3.0
 42
3.0
 43
3.0
 50
21.79991315136265
  0
INSERT
  5
75B
330
6BA
100
AcDbEntity
  8
0
  6
ByBlock
 62
     4
100
AcDbBlockReference
  2
_OPEN
 10
292.1807168110587
 20
166.6733744954532
 30
0.0
 41
3.0
 42
3.0
 43
3.0
 50
201.7999131513627
  0
MTEXT
  5
75C
330
6BA
100
AcDbEntity
  8
0
  6
ByBlock
 62
     4
100
AcDbMText
 10
314.0002121109877
 20
178.0930658880382
 30
0.0
 40
3.0
 41
0.0
 71
     5
 72
     5
  1
\A1;49
 11
0.9284863897972336
 21
0.3713664281559382
 31
0.0
 73
     1
 44
1.0
1001
ACAD
1000
MTEXTBEGIN
1070
    73
1070
     1
1070
    44
1040
1.0
1070
    74
1070
     0
1000
MTEXTEND
  0
POINT
  5
75D
330
6BA
100
AcDbEntity
  8
DEFPOINTS
  6
ByBlock
 62
     0
380
     1
100
AcDbPoint
 10
348.7400155236765
 20
157.2095404975297
 30
0.0
  0
POINT
  5
75E
330
6BA
100
AcDbEntity
  8
DEFPOINTS
  6
ByBlock
 62
     0
380
     1
100
AcDbPoint
 10
303.2441927830391
 20
139.0125896613455
 30
0.0
  0
POINT
  5
75F
330
6BA
100
AcDbEntity
  8
DEFPOINTS
  6
ByBlock
 62
     0
380
     1
100
AcDbPoint
 10
292.1807168110587
 20
166.6733744954532
 30
0.0
  0
ENDBLK
  5
760
330
6BA
100
AcDbEntity
  8
0
100
AcDbBlockEnd
  0
BLOCK
  5
761
330
6C6
100
AcDbEntity
  8
0
100
AcDbBlockBegin
  2
*D6
 70
     1
 10
0.0
 20
0.0
 30
0.0
  3
*D6
  1

  0
LINE
  5
7E4
330
6C6
100
AcDbEntity
  8
SUNPOU
 62
     4
370
    -2
100
AcDbLine
 10
228.0515042479917
 20
127.6221929544259
 30
0.0
 11
275.1757549959993
 21
127.6221929544259
 31
0.0
  0
LINE
  5
7E5
330
6C6
100
AcDbEntity
  8
SUNPOU
 62
     4
370
    -2
100
AcDbLine
 10
251.5494042479917
 20
84.82529295442605
 30
0.0
 11
275.1757549959993
 21
84.82529295442605
 31
0.0
  0
LINE
  5
7E6
330
6C6
100
AcDbEntity
  8
SUNPOU
 62
     4
370
    -2
100
AcDbLine
 10
273.6757549959993
 20
124.6221929544259
 30
0.0
 11
273.6757549959993
 21
87.82529295442605
 31
0.0
  0
INSERT
  5
7E7
330
6C6
100
AcDbEntity
  8
SUNPOU
 62
     4
370
    -2
100
AcDbBlockReference
  2
_OPEN
 10
273.6757549959993
 20
127.6221929544259
 30
0.0
 41
3.0
 42
3.0
 43
3.0
 50
90.0
  0
INSERT
  5
7E8
330
6C6
100
AcDbEntity
  8
SUNPOU
 62
     4
370
    -2
100
AcDbBlockReference
  2
_OPEN
 10
273.6757549959993
 20
84.82529295442605
 30
0.0
 41
3.0
 42
3.0
 43
3.0
 50
270.0
  0
MTEXT
  5
7E9
330
6C6
100
AcDbEntity
  8
SUNPOU
 62
     4
100
AcDbMText
 10
271.1757549959993
 20
106.223742954426
 30
0.0
 40
3.0
 41
0.0
 71
     5
 72
     5
  1
\A1;43
 11
0.0000000000000001
 21
1.0
 31
0.0
 73
     1
 44
1.0
1001
ACAD
1000
MTEXTBEGIN
1070
    73
1070
     1
1070
    44
1040
1.0
1070
    74
1070
     0
1000
MTEXTEND
  0
POINT
  5
7EA
330
6C6
100
AcDbEntity
  8
DEFPOINTS
 62
     0
380
     1
100
AcDbPoint
 10
225.0515042479916
 20
127.6221929544259
 30
0.0
  0
POINT
  5
7EB
330
6C6
100
AcDbEntity
  8
DEFPOINTS
 62
     0
380
     1
100
AcDbPoint
 10
248.5494042479917
 20
84.82529295442605
 30
0.0
  0
POINT
  5
7EC
330
6C6
100
AcDbEntity
  8
DEFPOINTS
 62
     0
380
     1
100
AcDbPoint
 10
273.6757549959993
 20
84.82529295442605
 30
0.0
  0
ENDBLK
  5
76B
330
6C6
100
AcDbEntity
  8
0
100
AcDbBlockEnd
  0
BLOCK
  5
76C
330
6D2
100
AcDbEntity
  8
0
100
AcDbBlockBegin
  2
*D7
 70
     1
 10
0.0
 20
0.0
 30
0.0
  3
*D7
  1

  0
LINE
  5
76D
330
6D2
100
AcDbEntity
  8
0
  6
ByBlock
 62
     4
100
AcDbLine
 10
240.1937089372708
 20
113.793986506704
 30
0.0
 11
248.5879475286622
 21
117.1514760465185
 31
0.0
  0
LINE
  5
76E
330
6D2
100
AcDbEntity
  8
0
  6
ByBlock
 62
     4
100
AcDbLine
 10
251.3348578795265
 20
85.93940608448496
 30
0.0
 11
259.7290964709179
 21
89.29689562429947
 31
0.0
  0
LINE
  5
76F
330
6D2
100
AcDbEntity
  8
0
  6
ByBlock
 62
     4
100
AcDbLine
 10
248.3093338429537
 20
113.8089658499543
 30
0.0
 11
257.2222565250915
 21
91.5252926908048
 31
0.0
  0
INSERT
  5
770
330
6D2
100
AcDbEntity
  8
0
  6
ByBlock
 62
     4
100
AcDbBlockReference
  2
_OPEN
 10
247.1952207128948
 20
116.594419481489
 30
0.0
 41
3.0
 42
3.0
 43
3.0
 50
111.8001979499093
  0
INSERT
  5
771
330
6D2
100
AcDbEntity
  8
0
  6
ByBlock
 62
     4
100
AcDbBlockReference
  2
_OPEN
 10
258.3363696551505
 20
88.73983905927003
 30
0.0
 41
3.0
 42
3.0
 43
3.0
 50
291.8001979499093
  0
MTEXT
  5
772
330
6D2
100
AcDbEntity
  8
0
  6
ByBlock
 62
     4
100
AcDbMText
 10
255.087006543635
 20
103.5955568787619
 30
0.0
 40
3.0
 41
0.0
 71
     5
 72
     5
  1
\A1;30
 11
0.3713710433529699
 21
-0.9284845438449293
 31
0.0
 73
     1
 44
1.0
1001
ACAD
1000
MTEXTBEGIN
1070
    73
1070
     1
1070
    44
1040
1.0
1070
    74
1070
     0
1000
MTEXTEND
  0
POINT
  5
773
330
6D2
100
AcDbEntity
  8
DEFPOINTS
  6
ByBlock
 62
     0
380
     1
100
AcDbPoint
 10
237.408255305736
 20
112.6798733766451
 30
0.0
  0
POINT
  5
774
330
6D2
100
AcDbEntity
  8
DEFPOINTS
  6
ByBlock
 62
     0
380
     1
100
AcDbPoint
 10
248.5494042479917
 20
84.82529295442606
 30
0.0
  0
POINT
  5
775
330
6D2
100
AcDbEntity
  8
DEFPOINTS
  6
ByBlock
 62
     0
380
     1
100
AcDbPoint
 10
258.3363696551505
 20
88.73983905927003
 30
0.0
  0
ENDBLK
  5
776
330
6D2
100
AcDbEntity
  8
0
100
AcDbBlockEnd
  0
BLOCK
  5
777
330
6DE
100
AcDbEntity
  8
0
100
AcDbBlockBegin
  2
*D8
 70
     1
 10
0.0
 20
0.0
 30
0.0
  3
*D8
  1

  0
LINE
  5
778
330
6DE
100
AcDbEntity
  8
0
  6
ByBlock
 62
     4
100
AcDbLine
 10
238.3368549770064
 20
118.4364060844849
 30
0.0
 11
255.6185674100987
 21
125.3486671659955
 31
0.0
  0
LINE
  5
779
330
6DE
100
AcDbEntity
  8
0
  6
ByBlock
 62
     4
100
AcDbLine
 10
251.3348578795264
 20
85.93940608448495
 30
0.0
 11
268.6165703126188
 21
92.85166716599556
 31
0.0
  0
LINE
  5
77A
330
6DE
100
AcDbEntity
  8
0
  6
ByBlock
 62
     4
100
AcDbLine
 10
255.3399537243902
 20
122.0061569694313
 30
0.0
 11
266.1097303667925
 21
95.08006423250092
 31
0.0
  0
INSERT
  5
77B
330
6DE
100
AcDbEntity
  8
0
  6
ByBlock
 62
     4
100
AcDbBlockReference
  2
_OPEN
 10
254.2258405943313
 20
124.7916106009661
 30
0.0
 41
3.0
 42
3.0
 43
3.0
 50
111.8001979499091
  0
INSERT
  5
77C
330
6DE
100
AcDbEntity
  8
0
  6
ByBlock
 62
     4
100
AcDbBlockReference
  2
_OPEN
 10
267.2238434968514
 20
92.29461060096614
 30
0.0
 41
3.0
 42
3.0
 43
3.0
 50
291.8001979499091
  0
MTEXT
  5
77D
330
6DE
100
AcDbEntity
  8
0
  6
ByBlock
 62
     4
100
AcDbMText
 10
263.0460534052037
 20
109.4715382093485
 30
0.0
 40
3.0
 41
0.0
 71
     5
 72
     5
  1
\A1;35
 11
0.3713710433529671
 21
-0.9284845438449305
 31
0.0
 73
     1
 44
1.0
1001
ACAD
1000
MTEXTBEGIN
1070
    73
1070
     1
1070
    44
1040
1.0
1070
    74
1070
     0
1000
MTEXTEND
  0
POINT
  5
77E
330
6DE
100
AcDbEntity
  8
DEFPOINTS
  6
ByBlock
 62
     0
380
     1
100
AcDbPoint
 10
235.5514013454715
 20
117.322292954426
 30
0.0
  0
POINT
  5
77F
330
6DE
100
AcDbEntity
  8
DEFPOINTS
  6
ByBlock
 62
     0
380
     1
100
AcDbPoint
 10
248.5494042479916
 20
84.82529295442603
 30
0.0
  0
POINT
  5
780
330
6DE
100
AcDbEntity
  8
DEFPOINTS
  6
ByBlock
 62
     0
380
     1
100
AcDbPoint
 10
267.2238434968514
 20
92.29461060096614
 30
0.0
  0
ENDBLK
  5
781
330
6DE
100
AcDbEntity
  8
0
100
AcDbBlockEnd
  0
BLOCK
  5
782
330
6EA
100
AcDbEntity
  8
0
100
AcDbBlockBegin
  2
*D9
 70
     1
 10
0.0
 20
0.0
 30
0.0
  3
*D9
  1

  0
LINE
  5
783
330
6EA
100
AcDbEntity
  8
0
  6
ByBlock
 62
     4
100
AcDbLine
 10
248.5493505290263
 20
81.59419391620064
 30
0.0
 11
253.1421390637617
 21
70.11167293975844
 31
0.0
  0
LINE
  5
784
330
6EA
100
AcDbEntity
  8
0
  6
ByBlock
 62
     4
100
AcDbLine
 10
249.6635303001912
 20
82.03984449146533
 30
0.0
 11
254.2563188349266
 21
70.55732351502314
 31
0.0
  0
LINE
  5
785
330
6EA
100
AcDbEntity
  8
0
  6
ByBlock
 62
     4
100
AcDbLine
 10
249.7996275747012
 20
70.39027111903923
 30
0.0
 11
247.0141791117405
 21
69.27614506683966
 31
0.0
  0
LINE
  5
786
330
6EA
100
AcDbEntity
  8
0
  6
ByBlock
 62
     4
100
AcDbLine
 10
256.4847042717876
 20
73.06417379870307
 30
0.0
 11
268.5549809446174
 21
77.89205335823455
 31
0.0
  0
LINE
  5
787
330
6EA
100
AcDbEntity
  8
0
  6
ByBlock
 62
     4
100
AcDbLine
 10
252.5850760376619
 20
71.5043971712388
 30
0.0
 11
253.6992558088269
 21
71.9500477465035
 31
0.0
  0
INSERT
  5
788
330
6EA
100
AcDbEntity
  8
0
  6
ByBlock
 62
     4
100
AcDbBlockReference
  2
_OPEN
 10
252.5850760376619
 20
71.5043971712388
 30
0.0
 41
3.0
 42
3.0
 43
3.0
 50
21.80046375394234
  0
INSERT
  5
789
330
6EA
100
AcDbEntity
  8
0
  6
ByBlock
 62
     4
100
AcDbBlockReference
  2
_OPEN
 10
253.6992558088269
 20
71.9500477465035
 30
0.0
 41
3.0
 42
3.0
 43
3.0
 50
201.8004637539423
  0
MTEXT
  5
78A
330
6EA
100
AcDbEntity
  8
0
  6
ByBlock
 62
     4
100
AcDbMText
 10
262.9841284628498
 20
78.35638365703585
 30
0.0
 40
3.0
 41
0.0
 71
     5
 72
     5
  1
\A1;t1.2
 11
0.9284828209869042
 21
0.3713753507331905
 31
0.0
 73
     1
 44
1.0
1001
ACAD
1000
MTEXTBEGIN
1070
    73
1070
     1
1070
    44
1040
1.0
1070
    74
1070
     0
1000
MTEXTEND
  0
POINT
  5
78B
330
6EA
100
AcDbEntity
  8
DEFPOINTS
  6
ByBlock
 62
     0
380
     1
100
AcDbPoint
 10
247.4352244768267
 20
84.37964237916135
 30
0.0
  0
POINT
  5
78C
330
6EA
100
AcDbEntity
  8
DEFPOINTS
  6
ByBlock
 62
     0
380
     1
100
AcDbPoint
 10
248.5494042479917
 20
84.82529295442605
 30
0.0
  0
POINT
  5
78D
330
6EA
100
AcDbEntity
  8
DEFPOINTS
  6
ByBlock
 62
     0
380
     1
100
AcDbPoint
 10
253.6992558088269
 20
71.9500477465035
 30
0.0
  0
ENDBLK
  5
78E
330
6EA
100
AcDbEntity
  8
0
100
AcDbBlockEnd
  0
BLOCK
  5
78F
330
6F8
100
AcDbEntity
  8
0
100
AcDbBlockBegin
  2
*D10
 70
     1
 10
0.0
 20
0.0
 30
0.0
  3
*D10
  1

  0
LINE
  5
790
330
6F8
100
AcDbEntity
  8
0
  6
ByBlock
 62
     4
100
AcDbLine
 10
235.5514013454715
 20
120.322292954426
 30
0.0
 11
235.5514013454715
 21
144.0524484547156
 31
0.0
  0
LINE
  5
791
330
6F8
100
AcDbEntity
  8
0
  6
ByBlock
 62
     4
100
AcDbLine
 10
225.0515042479916
 20
130.6221929544259
 30
0.0
 11
225.0515042479916
 21
144.0524484547156
 31
0.0
  0
LINE
  5
792
330
6F8
100
AcDbEntity
  8
0
  6
ByBlock
 62
     4
100
AcDbLine
 10
238.5514013454716
 20
142.5524484547156
 30
0.0
 11
241.5514013454715
 21
142.5524484547156
 31
0.0
  0
LINE
  5
793
330
6F8
100
AcDbEntity
  8
0
  6
ByBlock
 62
     4
100
AcDbLine
 10
222.0515042479917
 20
142.5524484547156
 30
0.0
 11
219.0515042479916
 21
142.5524484547156
 31
0.0
  0
LINE
  5
794
330
6F8
100
AcDbEntity
  8
0
  6
ByBlock
 62
     4
100
AcDbLine
 10
235.5514013454715
 20
142.5524484547156
 30
0.0
 11
225.0515042479916
 21
142.5524484547156
 31
0.0
  0
INSERT
  5
795
330
6F8
100
AcDbEntity
  8
0
  6
ByBlock
 62
     4
100
AcDbBlockReference
  2
_OPEN
 10
235.5514013454715
 20
142.5524484547156
 30
0.0
 41
3.0
 42
3.0
 43
3.0
 50
180.0
  0
INSERT
  5
796
330
6F8
100
AcDbEntity
  8
0
  6
ByBlock
 62
     4
100
AcDbBlockReference
  2
_OPEN
 10
225.0515042479916
 20
142.5524484547156
 30
0.0
 41
3.0
 42
3.0
 43
3.0
  0
MTEXT
  5
797
330
6F8
100
AcDbEntity
  8
0
  6
ByBlock
 62
     4
100
AcDbMText
 10
230.3014527967316
 20
145.0524484547156
 30
0.0
 40
3.0
 41
0.0
 71
     5
 72
     5
  1
\A1;10
 73
     1
 44
1.0
1001
ACAD
1000
MTEXTBEGIN
1070
    73
1070
     1
1070
    44
1040
1.0
1070
    74
1070
     0
1000
MTEXTEND
  0
POINT
  5
798
330
6F8
100
AcDbEntity
  8
DEFPOINTS
  6
ByBlock
 62
     0
380
     1
100
AcDbPoint
 10
235.5514013454715
 20
117.322292954426
 30
0.0
  0
POINT
  5
799
330
6F8
100
AcDbEntity
  8
DEFPOINTS
  6
ByBlock
 62
     0
380
     1
100
AcDbPoint
 10
225.0515042479916
 20
127.6221929544259
 30
0.0
  0
POINT
  5
79A
330
6F8
100
AcDbEntity
  8
DEFPOINTS
  6
ByBlock
 62
     0
380
     1
100
AcDbPoint
 10
225.0515042479916
 20
142.5524484547156
 30
0.0
  0
ENDBLK
  5
79B
330
6F8
100
AcDbEntity
  8
0
100
AcDbBlockEnd
  0
BLOCK
  5
79C
330
706
100
AcDbEntity
  8
0
100
AcDbBlockBegin
  2
*D11
 70
     1
 10
0.0
 20
0.0
 30
0.0
  3
*D11
  1

  0
LINE
  5
79D
330
706
100
AcDbEntity
  8
0
  6
ByBlock
 62
     4
100
AcDbLine
 10
301.9441838232106
 20
134.1845802397553
 30
0.0
 11
292.4557715070502
 21
130.3895061687427
 31
0.0
  0
LINE
  5
79E
330
706
100
AcDbEntity
  8
0
  6
ByBlock
 62
     4
100
AcDbLine
 10
310.1142425012772
 20
113.7578681560996
 30
0.0
 11
300.6258301851167
 21
109.962794085087
 31
0.0
  0
LINE
  5
79F
330
706
100
AcDbEntity
  8
0
  6
ByBlock
 62
     4
100
AcDbLine
 10
294.9625996855035
 20
128.161095864577
 30
0.0
 11
300.9044615213773
 21
113.3053028103492
 31
0.0
  0
INSERT
  5
7A0
330
706
100
AcDbEntity
  8
0
  6
ByBlock
 62
     4
100
AcDbBlockReference
  2
_OPEN
 10
293.8485012644071
 20
130.9465553792909
 30
0.0
 41
3.0
 42
3.0
 43
3.0
 50
111.7998953921598
  0
INSERT
  5
7A1
330
706
100
AcDbEntity
  8
0
  6
ByBlock
 62
     4
100
AcDbBlockReference
  2
_OPEN
 10
302.0185599424737
 20
110.5198432956352
 30
0.0
 41
3.0
 42
3.0
 43
3.0
 50
291.7998953921598
  0
MTEXT
  5
7A2
330
706
100
AcDbEntity
  8
0
  6
ByBlock
 62
     4
100
AcDbMText
 10
300.2547468657021
 20
121.6616146883768
 30
0.0
 40
3.0
 41
0.0
 71
     5
 72
     5
  1
\A1;22
 11
0.3713661403654713
 21
-0.9284865049046501
 31
0.0
 73
     1
 44
1.0
1001
ACAD
1000
MTEXTBEGIN
1070
    73
1070
     1
1070
    44
1040
1.0
1070
    74
1070
     0
1000
MTEXTEND
  0
POINT
  5
7A3
330
706
100
AcDbEntity
  8
DEFPOINTS
  6
ByBlock
 62
     0
380
     1
100
AcDbPoint
 10
304.7296433379246
 20
135.2986786608517
 30
0.0
  0
POINT
  5
7A4
330
706
100
AcDbEntity
  8
DEFPOINTS
  6
ByBlock
 62
     0
380
     1
100
AcDbPoint
 10
312.8997020159912
 20
114.871966577196
 30
0.0
  0
POINT
  5
7A5
330
706
100
AcDbEntity
  8
DEFPOINTS
  6
ByBlock
 62
     0
380
     1
100
AcDbPoint
 10
302.0185599424737
 20
110.5198432956352
 30
0.0
  0
ENDBLK
  5
7A6
330
706
100
AcDbEntity
  8
0
100
AcDbBlockEnd
  0
BLOCK
  5
7A7
330
712
100
AcDbEntity
  8
0
100
AcDbBlockBegin
  2
*D12
 70
     1
 10
0.0
 20
0.0
 30
0.0
  3
*D12
  1

  0
LINE
  5
7A8
330
712
100
AcDbEntity
  8
0
  6
ByBlock
 62
     4
100
AcDbLine
 10
300.4587332683251
 20
137.8984912402491
 30
0.0
 11
282.0316083791634
 21
130.5282061451272
 31
0.0
  0
LINE
  5
7A9
330
712
100
AcDbEntity
  8
0
  6
ByBlock
 62
     4
100
AcDbLine
 10
311.5997233290015
 20
110.0438814677084
 30
0.0
 11
293.1725984398397
 21
102.6735963725865
 31
0.0
  0
LINE
  5
7AA
330
712
100
AcDbEntity
  8
0
  6
ByBlock
 62
     4
100
AcDbLine
 10
284.5384365576167
 20
128.2997958409615
 30
0.0
 11
293.4512297761003
 21
106.0161050978486
 31
0.0
  0
INSERT
  5
7AB
330
712
100
AcDbEntity
  8
0
  6
ByBlock
 62
     4
100
AcDbBlockReference
  2
_OPEN
 10
283.4243381365203
 20
131.0852553556754
 30
0.0
 41
3.0
 42
3.0
 43
3.0
 50
111.7998953921599
  0
INSERT
  5
7AC
330
712
100
AcDbEntity
  8
0
  6
ByBlock
 62
     4
100
AcDbBlockReference
  2
_OPEN
 10
294.5653281971967
 20
103.2306455831347
 30
0.0
 41
3.0
 42
3.0
 43
3.0
 50
291.79989539216
  0
MTEXT
  5
7AD
330
712
100
AcDbEntity
  8
0
  6
ByBlock
 62
     4
100
AcDbMText
 10
291.3160494291201
 20
118.0863658203187
 30
0.0
 40
3.0
 41
0.0
 71
     5
 72
     5
  1
\A1;30
 11
0.3713661403654727
 21
-0.9284865049046498
 31
0.0
 73
     1
 44
1.0
1001
ACAD
1000
MTEXTBEGIN
1070
    73
1070
     1
1070
    44
1040
1.0
1070
    74
1070
     0
1000
MTEXTEND
  0
POINT
  5
7AE
330
712
100
AcDbEntity
  8
DEFPOINTS
  6
ByBlock
 62
     0
380
     1
100
AcDbPoint
 10
303.2441927830391
 20
139.0125896613455
 30
0.0
  0
POINT
  5
7AF
330
712
100
AcDbEntity
  8
DEFPOINTS
  6
ByBlock
 62
     0
380
     1
100
AcDbPoint
 10
314.3851828437154
 20
111.1579798888048
 30
0.0
  0
POINT
  5
7B0
330
712
100
AcDbEntity
  8
DEFPOINTS
  6
ByBlock
 62
     0
380
     1
100
AcDbPoint
 10
294.5653281971967
 20
103.2306455831347
 30
0.0
  0
ENDBLK
  5
7B1
330
712
100
AcDbEntity
  8
0
100
AcDbBlockEnd
  0
BLOCK
  5
7C5
330
71E
100
AcDbEntity
  8
0
100
AcDbBlockBegin
  2
*D13
 70
     1
 10
0.0
 20
0.0
 30
0.0
  3
*D13
  1

  0
LINE
  5
7C6
330
71E
100
AcDbEntity
  8
0
  6
ByBlock
 62
     4
100
AcDbLine
 10
250.5494042479917
 20
232.122192954426
 30
0.0
 11
266.2866028884745
 21
232.122192954426
 31
0.0
  0
LINE
  5
7C7
330
71E
100
AcDbEntity
  8
0
  6
ByBlock
 62
     4
100
AcDbLine
 10
250.5494042479917
 20
183.122192954426
 30
0.0
 11
266.2866028884745
 21
183.122192954426
 31
0.0
  0
LINE
  5
7C8
330
71E
100
AcDbEntity
  8
0
  6
ByBlock
 62
     4
100
AcDbLine
 10
264.7866028884745
 20
229.122192954426
 30
0.0
 11
264.7866028884745
 21
186.122192954426
 31
0.0
  0
INSERT
  5
7C9
330
71E
100
AcDbEntity
  8
0
  6
ByBlock
 62
     4
100
AcDbBlockReference
  2
_OPEN
 10
264.7866028884745
 20
232.122192954426
 30
0.0
 41
3.0
 42
3.0
 43
3.0
 50
90.0
  0
INSERT
  5
7CA
330
71E
100
AcDbEntity
  8
0
  6
ByBlock
 62
     4
100
AcDbBlockReference
  2
_OPEN
 10
264.7866028884745
 20
183.122192954426
 30
0.0
 41
3.0
 42
3.0
 43
3.0
 50
270.0
  0
MTEXT
  5
7CB
330
71E
100
AcDbEntity
  8
0
  6
ByBlock
 62
     4
100
AcDbMText
 10
262.2866028884745
 20
207.622192954426
 30
0.0
 40
3.0
 41
0.0
 71
     5
 72
     5
  1
\A1;49
 11
0.0
 21
1.0
 31
0.0
 73
     1
 44
1.0
1001
ACAD
1000
MTEXTBEGIN
1070
    73
1070
     1
1070
    44
1040
1.0
1070
    74
1070
     0
1000
MTEXTEND
  0
POINT
  5
7CC
330
71E
100
AcDbEntity
  8
DEFPOINTS
  6
ByBlock
 62
     0
380
     1
100
AcDbPoint
 10
247.5494042479917
 20
232.122192954426
 30
0.0
  0
POINT
  5
7CD
330
71E
100
AcDbEntity
  8
DEFPOINTS
  6
ByBlock
 62
     0
380
     1
100
AcDbPoint
 10
247.5494042479917
 20
183.122192954426
 30
0.0
  0
POINT
  5
7CE
330
71E
100
AcDbEntity
  8
DEFPOINTS
  6
ByBlock
 62
     0
380
     1
100
AcDbPoint
 10
264.7866028884745
 20
183.122192954426
 30
0.0
  0
ENDBLK
  5
7CF
330
71E
100
AcDbEntity
  8
0
100
AcDbBlockEnd
  0
BLOCK
  5
1307
330
1173
100
AcDbEntity
  8
0
100
AcDbBlockBegin
  2
*X14
 70
     1
 10
0.0
 20
0.0
 30
0.0
  3
*X14
  1

  0
LINE
  5
1174
330
1173
100
AcDbEntity
  8
0
 62
     0
380
     1
100
AcDbLine
 10
34.52110557948066
 20
11.30208421465548
 30
0.0
 11
34.1981901146232
 21
11.62499967951297
 31
0.0
  0
LINE
  5
1175
330
1173
100
AcDbEntity
  8
0
 62
     0
380
     1
100
AcDbLine
 10
34.52110557948066
 20
10.85307140860203
 30
0.0
 11
33.74917730856973
 21
11.62499967951297
 31
0.0
  0
LINE
  5
1176
330
1173
100
AcDbEntity
  8
0
 62
     0
380
     1
100
AcDbLine
 10
34.52110557948063
 20
10.40405860254856
 30
0.0
 11
33.31053860647316
 21
11.61462557555603
 31
0.0
  0
LINE
  5
1177
330
1173
100
AcDbEntity
  8
0
 62
     0
380
     1
100
AcDbLine
 10
34.52110557948066
 20
9.955045796495141
 30
0.0
 11
33.12110557948063
 21
11.35504579649515
 31
0.0
  0
LINE
  5
1178
330
1173
100
AcDbEntity
  8
0
 62
     0
380
     1
100
AcDbLine
 10
34.52110557948066
 20
9.506032990441667
 30
0.0
 11
33.12110557948063
 21
10.9060329904417
 31
0.0
  0
LINE
  5
1179
330
1173
100
AcDbEntity
  8
0
 62
     0
380
     1
100
AcDbLine
 10
34.52110557948063
 20
9.057020184388193
 30
0.0
 11
33.1211055794806
 21
10.45702018438823
 31
0.0
  0
LINE
  5
117A
330
1173
100
AcDbEntity
  8
0
 62
     0
380
     1
100
AcDbLine
 10
32.07110557948062
 20
11.05800737833479
 30
0.0
 11
31.50411327830247
 21
11.62499967951297
 31
0.0
  0
LINE
  5
117B
330
1173
100
AcDbEntity
  8
0
 62
     0
380
     1
100
AcDbLine
 10
34.52110557948066
 20
8.608007378334775
 30
0.0
 11
33.12110557948063
 21
10.00800737833481
 31
0.0
  0
LINE
  5
117C
330
1173
100
AcDbEntity
  8
0
 62
     0
380
     1
100
AcDbLine
 10
32.07110557948062
 20
10.60899457228134
 30
0.0
 11
31.055100472249
 21
11.62499967951294
 31
0.0
  0
LINE
  5
117D
330
1173
100
AcDbEntity
  8
0
 62
     0
380
     1
100
AcDbLine
 10
34.52110557948063
 20
8.158994572281301
 30
0.0
 11
33.12110557948063
 21
9.558994572281335
 31
0.0
  0
LINE
  5
117E
330
1173
100
AcDbEntity
  8
0
 62
     0
380
     1
100
AcDbLine
 10
32.07110557948062
 20
10.15998176622787
 30
0.0
 11
30.71835009691208
 21
11.51273724879641
 31
0.0
  0
LINE
  5
117F
330
1173
100
AcDbEntity
  8
0
 62
     0
380
     1
100
AcDbLine
 10
34.52110557948063
 20
7.709981766227855
 30
0.0
 11
33.1211055794806
 21
9.109981766227861
 31
0.0
  0
LINE
  5
1180
330
1173
100
AcDbEntity
  8
0
 62
     0
380
     1
100
AcDbLine
 10
32.07110557948067
 20
9.710968960174369
 30
0.0
 11
30.67110557948058
 21
11.11096896017443
 31
0.0
  0
LINE
  5
1181
330
1173
100
AcDbEntity
  8
0
 62
     0
380
     1
100
AcDbLine
 10
34.52110557948066
 20
7.26096896017438
 30
0.0
 11
33.12110557948063
 21
8.660968960174415
 31
0.0
  0
LINE
  5
1182
330
1173
100
AcDbEntity
  8
0
 62
     0
380
     1
100
AcDbLine
 10
32.07110557948065
 20
9.261956154120923
 30
0.0
 11
30.67110557948058
 21
10.66195615412101
 31
0.0
  0
LINE
  5
1183
330
1173
100
AcDbEntity
  8
0
 62
     0
380
     1
100
AcDbLine
 10
34.52110557948063
 20
6.811956154120935
 30
0.0
 11
33.1211055794806
 21
8.211956154120969
 31
0.0
  0
LINE
  5
1184
330
1173
100
AcDbEntity
  8
0
 62
     0
380
     1
100
AcDbLine
 10
32.07110557948065
 20
8.812943348067477
 30
0.0
 11
30.67110557948058
 21
10.21294334806754
 31
0.0
  0
LINE
  5
1185
330
1173
100
AcDbEntity
  8
0
 62
     0
380
     1
100
AcDbLine
 10
34.52110557948063
 20
6.362943348067489
 30
0.0
 11
33.1211055794806
 21
7.762943348067523
 31
0.0
  0
LINE
  5
1186
330
1173
100
AcDbEntity
  8
0
 62
     0
380
     1
100
AcDbLine
 10
32.07110557948062
 20
8.363930542014003
 30
0.0
 11
30.67110557948055
 21
9.763930542014065
 31
0.0
  0
LINE
  5
1187
330
1173
100
AcDbEntity
  8
0
 62
     0
380
     1
100
AcDbLine
 10
34.5211055794806
 20
5.913930542014014
 30
0.0
 11
33.1211055794806
 21
7.313930542014048
 31
0.0
  0
LINE
  5
1188
330
1173
100
AcDbEntity
  8
0
 62
     0
380
     1
100
AcDbLine
 10
32.07110557948065
 20
7.914917735960585
 30
0.0
 11
30.67110557948058
 21
9.314917735960648
 31
0.0
  0
LINE
  5
1189
330
1173
100
AcDbEntity
  8
0
 62
     0
380
     1
100
AcDbLine
 10
28.92110557948061
 20
11.06491773596062
 30
0.0
 11
28.36102363592829
 21
11.62499967951294
 31
0.0
  0
LINE
  5
118A
330
1173
100
AcDbEntity
  8
0
 62
     0
380
     1
100
AcDbLine
 10
34.52110557948063
 20
5.464917735960597
 30
0.0
 11
33.1211055794806
 21
6.864917735960602
 31
0.0
  0
LINE
  5
118B
330
1173
100
AcDbEntity
  8
0
 62
     0
380
     1
100
AcDbLine
 10
32.07110557948065
 20
7.465904929907111
 30
0.0
 11
30.67110557948055
 21
8.865904929907173
 31
0.0
  0
LINE
  5
118C
330
1173
100
AcDbEntity
  8
0
 62
     0
380
     1
100
AcDbLine
 10
28.92110557948058
 20
10.61590492990714
 30
0.0
 11
27.91201082987482
 21
11.62499967951294
 31
0.0
  0
LINE
  5
118D
330
1173
100
AcDbEntity
  8
0
 62
     0
380
     1
100
AcDbLine
 10
34.52110557948063
 20
5.015904929907122
 30
0.0
 11
33.1211055794806
 21
6.415904929907156
 31
0.0
  0
LINE
  5
118E
330
1173
100
AcDbEntity
  8
0
 62
     0
380
     1
100
AcDbLine
 10
32.07110557948062
 20
7.016892123853665
 30
0.0
 11
30.67110557948058
 21
8.416892123853671
 31
0.0
  0
LINE
  5
118F
330
1173
100
AcDbEntity
  8
0
 62
     0
380
     1
100
AcDbLine
 10
28.92110557948058
 20
10.1668921238537
 30
0.0
 11
27.57122421781858
 21
11.5167734855157
 31
0.0
  0
LINE
  5
1190
330
1173
100
AcDbEntity
  8
0
 62
     0
380
     1
100
AcDbLine
 10
34.5211055794806
 20
4.566892123853676
 30
0.0
 11
33.12110557948057
 21
5.966892123853682
 31
0.0
  0
LINE
  5
1191
330
1173
100
AcDbEntity
  8
0
 62
     0
380
     1
100
AcDbLine
 10
32.07110557948065
 20
6.567879317800191
 30
0.0
 11
30.67110557948061
 21
7.967879317800225
 31
0.0
  0
LINE
  5
1192
330
1173
100
AcDbEntity
  8
0
 62
     0
380
     1
100
AcDbLine
 10
28.92110557948061
 20
9.717879317800225
 30
0.0
 11
27.52110557948061
 21
11.11787931780023
 31
0.0
  0
LINE
  5
1193
330
1173
100
AcDbEntity
  8
0
 62
     0
380
     1
100
AcDbLine
 10
34.52110557948063
 20
4.117879317800202
 30
0.0
 11
33.1211055794806
 21
5.517879317800236
 31
0.0
  0
LINE
  5
1194
330
1173
100
AcDbEntity
  8
0
 62
     0
380
     1
100
AcDbLine
 10
32.07110557948062
 20
6.118866511746745
 30
0.0
 11
30.67110557948061
 21
7.518866511746779
 31
0.0
  0
LINE
  5
1195
330
1173
100
AcDbEntity
  8
0
 62
     0
380
     1
100
AcDbLine
 10
28.92110557948064
 20
9.26886651174675
 30
0.0
 11
27.52110557948063
 21
10.66886651174675
 31
0.0
  0
LINE
  5
1196
330
1173
100
AcDbEntity
  8
0
 62
     0
380
     1
100
AcDbLine
 10
34.48512290203573
 20
3.704849189191662
 30
0.0
 11
33.1211055794806
 21
5.06886651174679
 31
0.0
  0
LINE
  5
1197
330
1173
100
AcDbEntity
  8
0
 62
     0
380
     1
100
AcDbLine
 10
32.07110557948065
 20
5.669853705693242
 30
0.0
 11
30.67110557948058
 21
7.069853705693304
 31
0.0
  0
LINE
  5
1198
330
1173
100
AcDbEntity
  8
0
 62
     0
380
     1
100
AcDbLine
 10
28.92110557948061
 20
8.819853705693304
 30
0.0
 11
27.52110557948063
 21
10.21985370569328
 31
0.0
  0
LINE
  5
1199
330
1173
100
AcDbEntity
  8
0
 62
     0
380
     1
100
AcDbLine
 10
34.16595960566099
 20
3.574999679512927
 30
0.0
 11
33.12110557948057
 21
4.619853705693344
 31
0.0
  0
LINE
  5
119A
330
1173
100
AcDbEntity
  8
0
 62
     0
380
     1
100
AcDbLine
 10
28.92110557948061
 20
8.37084089963983
 30
0.0
 11
27.52110557948061
 21
9.770840899639807
 31
0.0
  0
LINE
  5
119B
330
1173
100
AcDbEntity
  8
0
 62
     0
380
     1
100
AcDbLine
 10
32.07110557948065
 20
5.220840899639796
 30
0.0
 11
30.67110557948058
 21
6.620840899639858
 31
0.0
  0
LINE
  5
119C
330
1173
100
AcDbEntity
  8
0
 62
     0
380
     1
100
AcDbLine
 10
26.20860557948061
 20
11.08334089963983
 30
0.0
 11
25.66694679960745
 21
11.62499967951297
 31
0.0
  0
LINE
  5
119D
330
1173
100
AcDbEntity
  8
0
 62
     0
380
     1
100
AcDbLine
 10
33.71694679960754
 20
3.57499967951287
 30
0.0
 11
33.12110557948057
 21
4.17084089963987
 31
0.0
  0
LINE
  5
119E
330
1173
100
AcDbEntity
  8
0
 62
     0
380
     1
100
AcDbLine
 10
28.92110557948061
 20
7.921828093586384
 30
0.0
 11
27.52110557948063
 21
9.32182809358639
 31
0.0
  0
LINE
  5
119F
330
1173
100
AcDbEntity
  8
0
 62
     0
380
     1
100
AcDbLine
 10
26.20860557948061
 20
10.63432809358639
 30
0.0
 11
25.21793399355403
 21
11.62499967951299
 31
0.0
  0
LINE
  5
11A0
330
1173
100
AcDbEntity
  8
0
 62
     0
380
     1
100
AcDbLine
 10
32.05812642915785
 20
4.78480724390917
 30
0.0
 11
30.67110557948058
 21
6.171828093586412
 31
0.0
  0
LINE
  5
11A1
330
1173
100
AcDbEntity
  8
0
 62
     0
380
     1
100
AcDbLine
 10
28.92110557948061
 20
7.472815287532938
 30
0.0
 11
27.52110557948063
 21
8.872815287532915
 31
0.0
  0
LINE
  5
11A2
330
1173
100
AcDbEntity
  8
0
 62
     0
380
     1
100
AcDbLine
 10
26.11081530642369
 20
10.28310556058986
 30
0.0
 11
24.76892118750061
 21
11.62499967951294
 31
0.0
  0
LINE
  5
11A3
330
1173
100
AcDbEntity
  8
0
 62
     0
380
     1
100
AcDbLine
 10
31.96163378152923
 20
4.43228708548429
 30
0.0
 11
30.67110557948058
 21
5.722815287532966
 31
0.0
  0
LINE
  5
11A4
330
1173
100
AcDbEntity
  8
0
 62
     0
380
     1
100
AcDbLine
 10
28.92110557948061
 20
7.023802481479464
 30
0.0
 11
27.52110557948061
 21
8.423802481479469
 31
0.0
  0
LINE
  5
11A5
330
1173
100
AcDbEntity
  8
0
 62
     0
380
     1
100
AcDbLine
 10
25.71990838144711
 20
10.22499967951293
 30
0.0
 11
24.31990838144711
 21
11.62499967951297
 31
0.0
  0
LINE
  5
11A6
330
1173
100
AcDbEntity
  8
0
 62
     0
380
     1
100
AcDbLine
 10
31.79911784356745
 20
4.145790217392601
 30
0.0
 11
30.63534770990083
 21
5.309560351059246
 31
0.0
  0
LINE
  5
11A7
330
1173
100
AcDbEntity
  8
0
 62
     0
380
     1
100
AcDbLine
 10
28.92110557948061
 20
6.574789675426046
 30
0.0
 11
27.52110557948063
 21
7.974789675426023
 31
0.0
  0
LINE
  5
11A8
330
1173
100
AcDbEntity
  8
0
 62
     0
380
     1
100
AcDbLine
 10
25.27089557539369
 20
10.22499967951296
 30
0.0
 11
23.902112210805
 21
11.59378304410165
 31
0.0
  0
LINE
  5
11A9
330
1173
100
AcDbEntity
  8
0
 62
     0
380
     1
100
AcDbLine
 10
31.58309694490493
 20
3.912798310001704
 30
0.0
 11
30.43455489066707
 21
5.061340364239555
 31
0.0
  0
LINE
  5
11AA
330
1173
100
AcDbEntity
  8
0
 62
     0
380
     1
100
AcDbLine
 10
28.92110557948061
 20
6.125776869372572
 30
0.0
 11
27.52110557948061
 21
7.525776869372549
 31
0.0
  0
LINE
  5
11AB
330
1173
100
AcDbEntity
  8
0
 62
     0
380
     1
100
AcDbLine
 10
24.82188276934022
 20
10.22499967951296
 30
0.0
 11
23.56979199853831
 21
11.47709045031485
 31
0.0
  0
LINE
  5
11AC
330
1173
100
AcDbEntity
  8
0
 62
     0
380
     1
100
AcDbLine
 10
31.31501577244191
 20
3.731866676411272
 30
0.0
 11
30.07188276934022
 21
4.974999679512933
 31
0.0
  0
LINE
  5
11AD
330
1173
100
AcDbEntity
  8
0
 62
     0
380
     1
100
AcDbLine
 10
28.92110557948058
 20
5.676764063319097
 30
0.0
 11
27.52110557948063
 21
7.076764063319046
 31
0.0
  0
LINE
  5
11AE
330
1173
100
AcDbEntity
  8
0
 62
     0
380
     1
100
AcDbLine
 10
24.38376487729582
 20
10.21410476550386
 30
0.0
 11
23.29849152993322
 21
11.29937811286646
 31
0.0
  0
LINE
  5
11AF
330
1173
100
AcDbEntity
  8
0
 62
     0
380
     1
100
AcDbLine
 10
30.98680949248626
 20
3.611060150313448
 30
0.0
 11
29.62286996328677
 21
4.974999679512933
 31
0.0
  0
LINE
  5
11B0
330
1173
100
AcDbEntity
  8
0
 62
     0
380
     1
100
AcDbLine
 10
24.19610557948065
 20
9.95275125726556
 30
0.0
 11
23.07943550041094
 21
11.06942133633527
 31
0.0
  0
LINE
  5
11B1
330
1173
100
AcDbEntity
  8
0
 62
     0
380
     1
100
AcDbLine
 10
30.57385715723333
 20
3.574999679512899
 30
0.0
 11
27.52110557948063
 21
6.6277512572656
 31
0.0
  0
LINE
  5
11B2
330
1173
100
AcDbEntity
  8
0
 62
     0
380
     1
100
AcDbLine
 10
24.19610557948067
 20
9.503738451212143
 30
0.0
 11
22.91355004423443
 21
10.78629398645839
 31
0.0
  0
LINE
  5
11B3
330
1173
100
AcDbEntity
  8
0
 62
     0
380
     1
100
AcDbLine
 10
30.12484435117989
 20
3.574999679512899
 30
0.0
 11
27.52110557948066
 21
6.178738451212154
 31
0.0
  0
LINE
  5
11B4
330
1173
100
AcDbEntity
  8
0
 62
     0
380
     1
100
AcDbLine
 10
24.29937772003254
 20
8.951453504606803
 30
0.0
 11
22.81246078455237
 21
10.43837044008694
 31
0.0
  0
LINE
  5
11B5
330
1173
100
AcDbEntity
  8
0
 62
     0
380
     1
100
AcDbLine
 10
29.67583154512644
 20
3.574999679512899
 30
0.0
 11
27.52110557948063
 21
5.729725645158708
 31
0.0
  0
LINE
  5
11B6
330
1173
100
AcDbEntity
  8
0
 62
     0
380
     1
100
AcDbLine
 10
26.4079074308263
 20
6.393910987759568
 30
0.0
 11
22.79610557948061
 21
10.00571283910523
 31
0.0
  0
LINE
  5
11B7
330
1173
100
AcDbEntity
  8
0
 62
     0
380
     1
100
AcDbLine
 10
21.74610557948057
 20
11.05571283910527
 30
0.0
 11
21.17681873907293
 21
11.62499967951294
 31
0.0
  0
LINE
  5
11B8
330
1173
100
AcDbEntity
  8
0
 62
     0
380
     1
100
AcDbLine
 10
29.22681873907297
 20
3.574999679512899
 30
0.0
 11
27.52110557948063
 21
5.280712839105234
 31
0.0
  0
LINE
  5
11B9
330
1173
100
AcDbEntity
  8
0
 62
     0
380
     1
100
AcDbLine
 10
26.47110557948065
 20
5.881700033051799
 30
0.0
 11
22.79610557948064
 21
9.556700033051811
 31
0.0
  0
LINE
  5
11BA
330
1173
100
AcDbEntity
  8
0
 62
     0
380
     1
100
AcDbLine
 10
21.74610557948063
 20
10.60670003305179
 30
0.0
 11
20.72780593301946
 21
11.62499967951299
 31
0.0
  0
LINE
  5
11BB
330
1173
100
AcDbEntity
  8
0
 62
     0
380
     1
100
AcDbLine
 10
28.76958199364708
 20
3.583223618885369
 30
0.0
 11
27.52932951885308
 21
4.823476093679374
 31
0.0
  0
LINE
  5
11BC
330
1173
100
AcDbEntity
  8
0
 62
     0
380
     1
100
AcDbLine
 10
21.74610557948063
 20
10.15768722699835
 30
0.0
 11
20.39241063559297
 21
11.51138217088598
 31
0.0
  0
LINE
  5
11BD
330
1173
100
AcDbEntity
  8
0
 62
     0
380
     1
100
AcDbLine
 10
26.47110557948062
 20
5.432687226998325
 30
0.0
 11
22.80781091342181
 21
9.095981893057171
 31
0.0
  0
LINE
  5
11BE
330
1173
100
AcDbEntity
  8
0
 62
     0
380
     1
100
AcDbLine
 10
21.74610557948063
 20
9.708674420944873
 30
0.0
 11
20.34610557948062
 21
11.10867442094485
 31
0.0
  0
LINE
  5
11BF
330
1173
100
AcDbEntity
  8
0
 62
     0
380
     1
100
AcDbLine
 10
26.47110557948057
 20
4.983674420944907
 30
0.0
 11
22.96687062234182
 21
8.487909378083685
 31
0.0
  0
LINE
  5
11C0
330
1173
100
AcDbEntity
  8
0
 62
     0
380
     1
100
AcDbLine
 10
21.74610557948063
 20
9.259661614891427
 30
0.0
 11
20.34610557948065
 21
10.6596616148914
 31
0.0
  0
LINE
  5
11C1
330
1173
100
AcDbEntity
  8
0
 62
     0
380
     1
100
AcDbLine
 10
26.41682467068608
 20
4.588942523685972
 30
0.0
 11
25.06900727616693
 21
5.936759918205126
 31
0.0
  0
LINE
  5
11C2
330
1173
100
AcDbEntity
  8
0
 62
     0
380
     1
100
AcDbLine
 10
21.74610557948063
 20
8.810648808837981
 30
0.0
 11
20.34610557948062
 21
10.21064880883796
 31
0.0
  0
LINE
  5
11C3
330
1173
100
AcDbEntity
  8
0
 62
     0
380
     1
100
AcDbLine
 10
19.20036212919211
 20
11.35639225912646
 30
0.0
 11
18.93175470880561
 21
11.62499967951299
 31
0.0
  0
LINE
  5
11C4
330
1173
100
AcDbEntity
  8
0
 62
     0
380
     1
100
AcDbLine
 10
26.2828868168053
 20
4.273867571513306
 30
0.0
 11
25.07110557948065
 21
5.485648808837964
 31
0.0
  0
LINE
  5
11C5
330
1173
100
AcDbEntity
  8
0
 62
     0
380
     1
100
AcDbLine
 10
21.7461055794806
 20
8.361636002784507
 30
0.0
 11
20.34610557948062
 21
9.761636002784513
 31
0.0
  0
LINE
  5
11C6
330
1173
100
AcDbEntity
  8
0
 62
     0
380
     1
100
AcDbLine
 10
19.10089829706581
 20
11.00684328519929
 30
0.0
 11
18.48274190275217
 21
11.62499967951297
 31
0.0
  0
LINE
  5
11C7
330
1173
100
AcDbEntity
  8
0
 62
     0
380
     1
100
AcDbLine
 10
26.09139341771765
 20
4.01634816454748
 30
0.0
 11
25.0224629880374
 21
5.08527859422773
 31
0.0
  0
LINE
  5
11C8
330
1173
100
AcDbEntity
  8
0
 62
     0
380
     1
100
AcDbLine
 10
21.7461055794806
 20
7.912623196731061
 30
0.0
 11
20.34610557948062
 21
9.312623196731038
 31
0.0
  0
LINE
  5
11C9
330
1173
100
AcDbEntity
  8
0
 62
     0
380
     1
100
AcDbLine
 10
18.99313522361296
 20
10.66559355259866
 30
0.0
 11
18.03852744187767
 21
11.62020133433398
 31
0.0
  0
LINE
  5
11CA
330
1173
100
AcDbEntity
  8
0
 62
     0
380
     1
100
AcDbLine
 10
25.84823393515984
 20
3.810494841051792
 30
0.0
 11
24.68372909669873
 21
4.974999679512933
 31
0.0
  0
LINE
  5
11CB
330
1173
100
AcDbEntity
  8
0
 62
     0
380
     1
100
AcDbLine
 10
21.74610557948063
 20
7.463610390677615
 30
0.0
 11
20.34610557948062
 21
8.863610390677592
 31
0.0
  0
LINE
  5
11CC
330
1173
100
AcDbEntity
  8
0
 62
     0
380
     1
100
AcDbLine
 10
18.88537215016021
 20
10.32434381999803
 30
0.0
 11
17.82137215016019
 21
11.38834381999805
 31
0.0
  0
LINE
  5
11CD
330
1173
100
AcDbEntity
  8
0
 62
     0
380
     1
100
AcDbLine
 10
25.55019196092966
 20
3.659524009228562
 30
0.0
 11
24.23471629064528
 21
4.974999679512961
 31
0.0
  0
LINE
  5
11CE
330
1173
100
AcDbEntity
  8
0
 62
     0
380
     1
100
AcDbLine
 10
21.7461055794806
 20
7.014597584624169
 30
0.0
 11
20.34610557948062
 21
8.414597584624146
 31
0.0
  0
LINE
  5
11CF
330
1173
100
AcDbEntity
  8
0
 62
     0
380
     1
100
AcDbLine
 10
18.77760907670728
 20
9.983094087397489
 30
0.0
 11
17.71360907670728
 21
11.04709408739748
 31
0.0
  0
LINE
  5
11D0
330
1173
100
AcDbEntity
  8
0
 62
     0
380
     1
100
AcDbLine
 10
25.18135563510592
 20
3.579347528998852
 30
0.0
 11
23.78570348459184
 21
4.974999679512933
 31
0.0
  0
LINE
  5
11D1
330
1173
100
AcDbEntity
  8
0
 62
     0
380
     1
100
AcDbLine
 10
21.7461055794806
 20
6.565584778570695
 30
0.0
 11
20.3461055794806
 21
7.965584778570672
 31
0.0
  0
LINE
  5
11D2
330
1173
100
AcDbEntity
  8
0
 62
     0
380
     1
100
AcDbLine
 10
18.66984600325449
 20
9.641844354796802
 30
0.0
 11
17.60584600325444
 21
10.70584435479682
 31
0.0
  0
LINE
  5
11D3
330
1173
100
AcDbEntity
  8
0
 62
     0
380
     1
100
AcDbLine
 10
24.73669067853839
 20
3.574999679512899
 30
0.0
 11
23.33669067853836
 21
4.974999679512933
 31
0.0
  0
LINE
  5
11D4
330
1173
100
AcDbEntity
  8
0
 62
     0
380
     1
100
AcDbLine
 10
21.7461055794806
 20
6.116571972517249
 30
0.0
 11
20.34610557948062
 21
7.516571972517255
 31
0.0
  0
LINE
  5
11D5
330
1173
100
AcDbEntity
  8
0
 62
     0
380
     1
100
AcDbLine
 10
18.5620829298017
 20
9.300594622196172
 30
0.0
 11
17.49808292980162
 21
10.36459462219622
 31
0.0
  0
LINE
  5
11D6
330
1173
100
AcDbEntity
  8
0
 62
     0
380
     1
100
AcDbLine
 10
24.28767787248495
 20
3.574999679512927
 30
0.0
 11
23.07087202383676
 21
4.79180552816112
 31
0.0
  0
LINE
  5
11D7
330
1173
100
AcDbEntity
  8
0
 62
     0
380
     1
100
AcDbLine
 10
18.45431985634883
 20
8.95934488959557
 30
0.0
 11
17.39031985634881
 21
10.02334488959559
 31
0.0
  0
LINE
  5
11D8
330
1173
100
AcDbEntity
  8
0
 62
     0
380
     1
100
AcDbLine
 10
21.7461055794806
 20
5.667559166463803
 30
0.0
 11
20.34610557948062
 21
7.06755916646378
 31
0.0
  0
LINE
  5
11D9
330
1173
100
AcDbEntity
  8
0
 62
     0
380
     1
100
AcDbLine
 10
16.32110557948061
 20
11.09255916646378
 30
0.0
 11
15.78866506643146
 21
11.62499967951291
 31
0.0
  0
LINE
  5
11DA
330
1173
100
AcDbEntity
  8
0
 62
     0
380
     1
100
AcDbLine
 10
23.8386650664315
 20
3.574999679512899
 30
0.0
 11
23.05860557948063
 21
4.355059166463775
 31
0.0
  0
LINE
  5
11DB
330
1173
100
AcDbEntity
  8
0
 62
     0
380
     1
100
AcDbLine
 10
18.34655678289599
 20
8.618095156994939
 30
0.0
 11
17.28255678289599
 21
9.682095156994932
 31
0.0
  0
LINE
  5
11DC
330
1173
100
AcDbEntity
  8
0
 62
     0
380
     1
100
AcDbLine
 10
21.7461055794806
 20
5.218546360410329
 30
0.0
 11
20.3461055794806
 21
6.618546360410334
 31
0.0
  0
LINE
  5
11DD
330
1173
100
AcDbEntity
  8
0
 62
     0
380
     1
100
AcDbLine
 10
16.32110557948061
 20
10.64354636041031
 30
0.0
 11
15.33965226037802
 21
11.62499967951291
 31
0.0
  0
LINE
  5
11DE
330
1173
100
AcDbEntity
  8
0
 62
     0
380
     1
100
AcDbLine
 10
23.389652260378
 20
3.574999679512927
 30
0.0
 11
23.0586055794806
 21
3.9060463604103
 31
0.0
  0
LINE
  5
11DF
330
1173
100
AcDbEntity
  8
0
 62
     0
380
     1
100
AcDbLine
 10
18.23879370944314
 20
8.276845424394309
 30
0.0
 11
17.17479370944312
 21
9.340845424394331
 31
0.0
  0
LINE
  5
11E0
330
1173
100
AcDbEntity
  8
0
 62
     0
380
     1
100
AcDbLine
 10
16.32110557948059
 20
10.19453355435683
 30
0.0
 11
14.98338311503178
 21
11.53225601880567
 31
0.0
  0
LINE
  5
11E1
330
1173
100
AcDbEntity
  8
0
 62
     0
380
     1
100
AcDbLine
 10
21.74610557948057
 20
4.769533554356883
 30
0.0
 11
20.3461055794806
 21
6.16953355435686
 31
0.0
  0
LINE
  5
11E2
330
1173
100
AcDbEntity
  8
0
 62
     0
380
     1
100
AcDbLine
 10
18.13103063599033
 20
7.935595691793707
 30
0.0
 11
17.06703063599033
 21
8.9995956917937
 31
0.0
  0
LINE
  5
11E3
330
1173
100
AcDbEntity
  8
0
 62
     0
380
     1
100
AcDbLine
 10
16.32110557948061
 20
9.74552074830342
 30
0.0
 11
14.92110557948058
 21
11.14552074830342
 31
0.0
  0
LINE
  5
11E4
330
1173
100
AcDbEntity
  8
0
 62
     0
380
     1
100
AcDbLine
 10
21.7461055794806
 20
4.320520748303437
 30
0.0
 11
20.3461055794806
 21
5.720520748303414
 31
0.0
  0
LINE
  5
11E5
330
1173
100
AcDbEntity
  8
0
 62
     0
380
     1
100
AcDbLine
 10
18.02848638129438
 20
7.589127140436175
 30
0.0
 11
16.95926756253746
 21
8.658345959193098
 31
0.0
  0
LINE
  5
11E6
330
1173
100
AcDbEntity
  8
0
 62
     0
380
     1
100
AcDbLine
 10
16.32110557948061
 20
9.296507942249945
 30
0.0
 11
14.92110557948058
 21
10.69650794224998
 31
0.0
  0
LINE
  5
11E7
330
1173
100
AcDbEntity
  8
0
 62
     0
380
     1
100
AcDbLine
 10
21.74610557948057
 20
3.871507942249962
 30
0.0
 11
20.3461055794806
 21
5.271507942249968
 31
0.0
  0
LINE
  5
11E8
330
1173
100
AcDbEntity
  8
0
 62
     0
380
     1
100
AcDbLine
 10
18.23572306101138
 20
6.932877654665702
 30
0.0
 11
16.81399381469515
 21
8.354606900981934
 31
0.0
  0
LINE
  5
11E9
330
1173
100
AcDbEntity
  8
0
 62
     0
380
     1
100
AcDbLine
 10
16.32110557948064
 20
8.847495136196442
 30
0.0
 11
14.92110557948055
 21
10.2474951361965
 31
0.0
  0
LINE
  5
11EA
330
1173
100
AcDbEntity
  8
0
 62
     0
380
     1
100
AcDbLine
 10
21.5765830808144
 20
3.592017634862656
 30
0.0
 11
20.34610557948062
 21
4.822495136196465
 31
0.0
  0
LINE
  5
11EB
330
1173
100
AcDbEntity
  8
0
 62
     0
380
     1
100
AcDbLine
 10
18.44295974072841
 20
6.276628168895257
 30
0.0
 11
14.92110557948058
 21
9.798482330143087
 31
0.0
  0
LINE
  5
11EC
330
1173
100
AcDbEntity
  8
0
 62
     0
380
     1
100
AcDbLine
 10
13.69610557948064
 20
11.02348233014302
 30
0.0
 11
13.09458823011076
 21
11.62499967951291
 31
0.0
  0
LINE
  5
11ED
330
1173
100
AcDbEntity
  8
0
 62
     0
380
     1
100
AcDbLine
 10
21.14458823011074
 20
3.574999679512927
 30
0.0
 11
20.34610557948065
 21
4.373482330143019
 31
0.0
  0
LINE
  5
11EE
330
1173
100
AcDbEntity
  8
0
 62
     0
380
     1
100
AcDbLine
 10
18.65019642044535
 20
5.620378683124812
 30
0.0
 11
14.92110557948058
 21
9.349469524089613
 31
0.0
  0
LINE
  5
11EF
330
1173
100
AcDbEntity
  8
0
 62
     0
380
     1
100
AcDbLine
 10
13.69610557948064
 20
10.57446952408955
 30
0.0
 11
12.64557542405725
 21
11.62499967951294
 31
0.0
  0
LINE
  5
11F0
330
1173
100
AcDbEntity
  8
0
 62
     0
380
     1
100
AcDbLine
 10
20.69557542405724
 20
3.574999679512956
 30
0.0
 11
20.34610557948062
 21
3.924469524089573
 31
0.0
  0
LINE
  5
11F1
330
1173
100
AcDbEntity
  8
0
 62
     0
380
     1
100
AcDbLine
 10
13.56265223178559
 20
10.25891006573113
 30
0.0
 11
12.21254137267988
 21
11.60902092483681
 31
0.0
  0
LINE
  5
11F2
330
1173
100
AcDbEntity
  8
0
 62
     0
380
     1
100
AcDbLine
 10
18.85743310016232
 20
4.964129197354395
 30
0.0
 11
14.92110557948061
 21
8.90045671803611
 31
0.0
  0
LINE
  5
11F3
330
1173
100
AcDbEntity
  8
0
 62
     0
380
     1
100
AcDbLine
 10
16.48986004065142
 20
6.882689450811852
 30
0.0
 11
14.92110557948061
 21
8.451443911982664
 31
0.0
  0
LINE
  5
11F4
330
1173
100
AcDbEntity
  8
0
 62
     0
380
     1
100
AcDbLine
 10
13.14754981195037
 20
10.22499967951287
 30
0.0
 11
11.84351983788625
 21
11.52902965357702
 31
0.0
  0
LINE
  5
11F5
330
1173
100
AcDbEntity
  8
0
 62
     0
380
     1
100
AcDbLine
 10
19.06466977987932
 20
4.30787971158395
 30
0.0
 11
17.01851593372538
 21
6.354033557737864
 31
0.0
  0
LINE
  5
11F6
330
1173
100
AcDbEntity
  8
0
 62
     0
380
     1
100
AcDbLine
 10
16.32110557948064
 20
6.602431105929184
 30
0.0
 11
14.92110557948061
 21
8.002431105929218
 31
0.0
  0
LINE
  5
11F7
330
1173
100
AcDbEntity
  8
0
 62
     0
380
     1
100
AcDbLine
 10
12.69853700589687
 20
10.22499967951293
 30
0.0
 11
11.52415912997088
 21
11.39937755543892
 31
0.0
  0
LINE
  5
11F8
330
1173
100
AcDbEntity
  8
0
 62
     0
380
     1
100
AcDbLine
 10
19.18218920873463
 20
3.741347476675173
 30
0.0
 11
17.22575261344235
 21
5.697784071967475
 31
0.0
  0
LINE
  5
11F9
330
1173
100
AcDbEntity
  8
0
 62
     0
380
     1
100
AcDbLine
 10
16.32110557948061
 20
6.153418299875738
 30
0.0
 11
14.92110557948058
 21
7.553418299875744
 31
0.0
  0
LINE
  5
11FA
330
1173
100
AcDbEntity
  8
0
 62
     0
380
     1
100
AcDbLine
 10
12.2769802546251
 20
10.19754362473125
 30
0.0
 11
11.24478464230361
 21
11.22973923705274
 31
0.0
  0
LINE
  5
11FB
330
1173
100
AcDbEntity
  8
0
 62
     0
380
     1
100
AcDbLine
 10
18.89952419984345
 20
3.574999679512899
 30
0.0
 11
17.43298929315932
 21
5.04153458619703
 31
0.0
  0
LINE
  5
11FC
330
1173
100
AcDbEntity
  8
0
 62
     0
380
     1
100
AcDbLine
 10
16.32110557948061
 20
5.704405493822264
 30
0.0
 11
14.92110557948058
 21
7.104405493822298
 31
0.0
  0
LINE
  5
11FD
330
1173
100
AcDbEntity
  8
0
 62
     0
380
     1
100
AcDbLine
 10
11.9910521582056
 20
10.03445891509727
 30
0.0
 11
11.00095703799772
 21
11.02455403530516
 31
0.0
  0
LINE
  5
11FE
330
1173
100
AcDbEntity
  8
0
 62
     0
380
     1
100
AcDbLine
 10
18.45051139378998
 20
3.574999679512899
 30
0.0
 11
17.64022597287635
 21
4.385285100426528
 31
0.0
  0
LINE
  5
11FF
330
1173
100
AcDbEntity
  8
0
 62
     0
380
     1
100
AcDbLine
 10
13.86382014587949
 20
7.712678121369975
 30
0.0
 11
13.10878402133761
 21
8.467714245911849
 31
0.0
  0
LINE
  5
1200
330
1173
100
AcDbEntity
  8
0
 62
     0
380
     1
100
AcDbLine
 10
16.32110557948067
 20
5.255392687768789
 30
0.0
 11
14.92110557948061
 21
6.655392687768852
 31
0.0
  0
LINE
  5
1201
330
1173
100
AcDbEntity
  8
0
 62
     0
380
     1
100
AcDbLine
 10
11.81299137314113
 20
9.763506894108331
 30
0.0
 11
10.7912740249921
 21
10.78522424225735
 31
0.0
  0
LINE
  5
1202
330
1173
100
AcDbEntity
  8
0
 62
     0
380
     1
100
AcDbLine
 10
17.97633208563422
 20
3.600166181615236
 30
0.0
 11
17.85115499983857
 21
3.725343267410892
 31
0.0
  0
LINE
  5
1203
330
1173
100
AcDbEntity
  8
0
 62
     0
380
     1
100
AcDbLine
 10
13.82056331580853
 20
7.30692214538746
 30
0.0
 11
12.7030280453551
 21
8.42445741584089
 31
0.0
  0
LINE
  5
1204
330
1173
100
AcDbEntity
  8
0
 62
     0
380
     1
100
AcDbLine
 10
11.77110557948066
 20
9.356379881715326
 30
0.0
 11
10.61680451451127
 21
10.51068094668471
 31
0.0
  0
LINE
  5
1205
330
1173
100
AcDbEntity
  8
0
 62
     0
380
     1
100
AcDbLine
 10
16.32110557948064
 20
4.806379881715315
 30
0.0
 11
14.92110557948058
 21
6.206379881715406
 31
0.0
  0
LINE
  5
1206
330
1173
100
AcDbEntity
  8
0
 62
     0
380
     1
100
AcDbLine
 10
13.6546355361595
 20
7.023837118982982
 30
0.0
 11
12.41994301895062
 21
8.258529636191866
 31
0.0
  0
LINE
  5
1207
330
1173
100
AcDbEntity
  8
0
 62
     0
380
     1
100
AcDbLine
 10
11.77110557948066
 20
8.907367075661852
 30
0.0
 11
10.48151466090618
 21
10.19695799423633
 31
0.0
  0
LINE
  5
1208
330
1173
100
AcDbEntity
  8
0
 62
     0
380
     1
100
AcDbLine
 10
16.32110557948064
 20
4.357367075661869
 30
0.0
 11
14.92110557948061
 21
5.757367075661903
 31
0.0
  0
LINE
  5
1209
330
1173
100
AcDbEntity
  8
0
 62
     0
380
     1
100
AcDbLine
 10
11.77110557948066
 20
8.458354269608406
 30
0.0
 11
10.39415772444326
 21
9.835302124645835
 31
0.0
  0
LINE
  5
120A
330
1173
100
AcDbEntity
  8
0
 62
     0
380
     1
100
AcDbLine
 10
13.40371881509128
 20
6.825741033997815
 30
0.0
 11
12.22184693396545
 21
8.007612915123644
 31
0.0
  0
LINE
  5
120B
330
1173
100
AcDbEntity
  8
0
 62
     0
380
     1
100
AcDbLine
 10
9.058605579480627
 20
11.17085426960847
 30
0.0
 11
8.604460169576128
 21
11.62499967951297
 31
0.0
  0
LINE
  5
120C
330
1173
100
AcDbEntity
  8
0
 62
     0
380
     1
100
AcDbLine
 10
16.32110557948067
 20
3.908354269608423
 30
0.0
 11
14.92110557948064
 21
5.308354269608457
 31
0.0
  0
LINE
  5
120D
330
1173
100
AcDbEntity
  8
0
 62
     0
380
     1
100
AcDbLine
 10
11.77110557948066
 20
8.00934146355496
 30
0.0
 11
10.37110557948063
 21
9.409341463554994
 31
0.0
  0
LINE
  5
120E
330
1173
100
AcDbEntity
  8
0
 62
     0
380
     1
100
AcDbLine
 10
13.05355909387756
 20
6.726887949158054
 30
0.0
 11
12.12299384912569
 21
7.65745319390993
 31
0.0
  0
LINE
  5
120F
330
1173
100
AcDbEntity
  8
0
 62
     0
380
     1
100
AcDbLine
 10
9.058605579480598
 20
10.72184146355499
 30
0.0
 11
8.155447363522654
 21
11.62499967951294
 31
0.0
  0
LINE
  5
1210
330
1173
100
AcDbEntity
  8
0
 62
     0
380
     1
100
AcDbLine
 10
16.17715367884531
 20
3.603293364190307
 30
0.0
 11
14.92110557948061
 21
4.859341463554983
 31
0.0
  0
LINE
  5
1211
330
1173
100
AcDbEntity
  8
0
 62
     0
380
     1
100
AcDbLine
 10
11.77110557948066
 20
7.560328657501486
 30
0.0
 11
10.37110557948063
 21
8.96032865750152
 31
0.0
  0
LINE
  5
1212
330
1173
100
AcDbEntity
  8
0
 62
     0
380
     1
100
AcDbLine
 10
9.004088594345432
 20
10.32734564263671
 30
0.0
 11
7.706434557469151
 21
11.62499967951297
 31
0.0
  0
LINE
  5
1213
330
1173
100
AcDbEntity
  8
0
 62
     0
380
     1
100
AcDbLine
 10
15.75643455746922
 20
3.574999679512927
 30
0.0
 11
14.92110557948061
 21
4.410328657501537
 31
0.0
  0
LINE
  5
1214
330
1173
100
AcDbEntity
  8
0
 62
     0
380
     1
100
AcDbLine
 10
11.77110557948063
 20
7.11131585144804
 30
0.0
 11
10.3711055794806
 21
8.511315851448046
 31
0.0
  0
LINE
  5
1215
330
1173
100
AcDbEntity
  8
0
 62
     0
380
     1
100
AcDbLine
 10
8.657421751415739
 20
10.22499967951293
 30
0.0
 11
7.257421751415705
 21
11.62499967951297
 31
0.0
  0
LINE
  5
1216
330
1173
100
AcDbEntity
  8
0
 62
     0
380
     1
100
AcDbLine
 10
15.30742175141574
 20
3.574999679512899
 30
0.0
 11
14.92110557948061
 21
3.961315851448063
 31
0.0
  0
LINE
  5
1217
330
1173
100
AcDbEntity
  8
0
 62
     0
380
     1
100
AcDbLine
 10
11.77110557948069
 20
6.662303045394565
 30
0.0
 11
10.37110557948063
 21
8.062303045394628
 31
0.0
  0
LINE
  5
1218
330
1173
100
AcDbEntity
  8
0
 62
     0
380
     1
100
AcDbLine
 10
8.208408945362293
 20
10.22499967951296
 30
0.0
 11
6.825844309309871
 21
11.60756431556538
 31
0.0
  0
LINE
  5
1219
330
1173
100
AcDbEntity
  8
0
 62
     0
380
     1
100
AcDbLine
 10
13.69480435506216
 20
4.738604269813066
 30
0.0
 11
13.4597101697808
 21
4.973698455094449
 31
0.0
  0
LINE
  5
121A
330
1173
100
AcDbEntity
  8
0
 62
     0
380
     1
100
AcDbLine
 10
11.77110557948069
 20
6.213290239341091
 30
0.0
 11
10.37110557948063
 21
7.613290239341154
 31
0.0
  0
LINE
  5
121B
330
1173
100
AcDbEntity
  8
0
 62
     0
380
     1
100
AcDbLine
 10
7.759396139308819
 20
10.22499967951293
 30
0.0
 11
6.479276905070634
 21
11.50511891375114
 31
0.0
  0
LINE
  5
121C
330
1173
100
AcDbEntity
  8
0
 62
     0
380
     1
100
AcDbLine
 10
13.69610557948067
 20
4.288290239341108
 30
0.0
 11
13.00939613930885
 21
4.974999679512933
 31
0.0
  0
LINE
  5
121D
330
1173
100
AcDbEntity
  8
0
 62
     0
380
     1
100
AcDbLine
 10
11.77110557948066
 20
5.764277433287617
 30
0.0
 11
10.37110557948065
 21
7.164277433287651
 31
0.0
  0
LINE
  5
121E
330
1173
100
AcDbEntity
  8
0
 62
     0
380
     1
100
AcDbLine
 10
7.310383333255401
 20
10.22499967951287
 30
0.0
 11
6.197153575147012
 21
11.33822943762126
 31
0.0
  0
LINE
  5
121F
330
1173
100
AcDbEntity
  8
0
 62
     0
380
     1
100
AcDbLine
 10
13.69610557948064
 20
3.839277433287634
 30
0.0
 11
12.5603833332554
 21
4.974999679512876
 31
0.0
  0
LINE
  5
1220
330
1173
100
AcDbEntity
  8
0
 62
     0
380
     1
100
AcDbLine
 10
7.055236919448105
 20
10.03113328726678
 30
0.0
 11
5.968107169026637
 21
11.11826303768825
 31
0.0
  0
LINE
  5
1221
330
1173
100
AcDbEntity
  8
0
 62
     0
380
     1
100
AcDbLine
 10
13.50223918723446
 20
3.584131019480423
 30
0.0
 11
10.37110557948065
 21
6.715264627234233
 31
0.0
  0
LINE
  5
1222
330
1173
100
AcDbEntity
  8
0
 62
     0
380
     1
100
AcDbLine
 10
7.046105579480638
 20
9.591251821180776
 30
0.0
 11
5.791366567792096
 21
10.84599083286932
 31
0.0
  0
LINE
  5
1223
330
1173
100
AcDbEntity
  8
0
 62
     0
380
     1
100
AcDbLine
 10
13.06235772114851
 20
3.574999679512899
 30
0.0
 11
10.37110557948065
 21
6.266251821180759
 31
0.0
  0
LINE
  5
1224
330
1173
100
AcDbEntity
  8
0
 62
     0
380
     1
100
AcDbLine
 10
7.077173433548352
 20
9.111171161059559
 30
0.0
 11
5.675926516645233
 21
10.5124180779627
 31
0.0
  0
LINE
  5
1225
330
1173
100
AcDbEntity
  8
0
 62
     0
380
     1
100
AcDbLine
 10
12.61334491509501
 20
3.574999679512927
 30
0.0
 11
10.37110557948063
 21
5.817239015127285
 31
0.0
  0
LINE
  5
1226
330
1173
100
AcDbEntity
  8
0
 62
     0
380
     1
100
AcDbLine
 10
9.223293625091969
 20
6.516038163462525
 30
0.0
 11
5.646105579480661
 21
10.09322620907383
 31
0.0
  0
LINE
  5
1227
330
1173
100
AcDbEntity
  8
0
 62
     0
380
     1
100
AcDbLine
 10
12.13769606551324
 20
3.601635723041255
 30
0.0
 11
10.39774162300895
 21
5.34159016554554
 31
0.0
  0
LINE
  5
1228
330
1173
100
AcDbEntity
  8
0
 62
     0
380
     1
100
AcDbLine
 10
9.319240882134579
 20
5.971078100366469
 30
0.0
 11
5.646105579480604
 21
9.644213403020444
 31
0.0
  0
LINE
  5
1229
330
1173
100
AcDbEntity
  8
0
 62
     0
380
     1
100
AcDbLine
 10
11.45079210921244
 20
3.839526873288576
 30
0.0
 11
10.63563277325624
 21
4.6546862092448
 31
0.0
  0
LINE
  5
122A
330
1173
100
AcDbEntity
  8
0
 62
     0
380
     1
100
AcDbLine
 10
9.321105579480672
 20
5.520200596966901
 30
0.0
 11
5.649887803191802
 21
9.191418373255743
 31
0.0
  0
LINE
  5
122B
330
1173
100
AcDbEntity
  8
0
 62
     0
380
     1
100
AcDbLine
 10
9.321105579480615
 20
5.071187790913484
 30
0.0
 11
5.76153318235373
 21
8.630760188040341
 31
0.0
  0
LINE
  5
122C
330
1173
100
AcDbEntity
  8
0
 62
     0
380
     1
100
AcDbLine
 10
9.284845581414657
 20
4.658434982926024
 30
0.0
 11
7.903149759605128
 21
6.040130804735554
 31
0.0
  0
LINE
  5
122D
330
1173
100
AcDbEntity
  8
0
 62
     0
380
     1
100
AcDbLine
 10
9.163876611900235
 20
4.330391146386972
 30
0.0
 11
7.92110557948061
 21
5.573162178806597
 31
0.0
  0
LINE
  5
122E
330
1173
100
AcDbEntity
  8
0
 62
     0
380
     1
100
AcDbLine
 10
8.98281698820935
 20
4.062437964024383
 30
0.0
 11
7.903156063330271
 21
5.142098888903461
 31
0.0
  0
LINE
  5
122F
330
1173
100
AcDbEntity
  8
0
 62
     0
380
     1
100
AcDbLine
 10
8.749703802075913
 20
3.846538344104374
 30
0.0
 11
7.621242466667354
 21
4.974999679512961
 31
0.0
  0
LINE
  5
1230
330
1173
100
AcDbEntity
  8
0
 62
     0
380
     1
100
AcDbLine
 10
8.463071578209508
 20
3.684157761917333
 30
0.0
 11
7.172229660613879
 21
4.974999679512933
 31
0.0
  0
LINE
  5
1231
330
1173
100
AcDbEntity
  8
0
 62
     0
380
     1
100
AcDbLine
 10
8.110365283666538
 20
3.587851250406828
 30
0.0
 11
6.723216854560433
 21
4.974999679512933
 31
0.0
  0
LINE
  5
1232
330
1173
100
AcDbEntity
  8
0
 62
     0
380
     1
100
AcDbLine
 10
7.674204048506965
 20
3.574999679512927
 30
0.0
 11
6.274204048506959
 21
4.974999679512933
 31
0.0
  0
LINE
  5
1233
330
1173
100
AcDbEntity
  8
0
 62
     0
380
     1
100
AcDbLine
 10
7.225191242453547
 20
3.574999679512899
 30
0.0
 11
5.948529295044608
 21
4.851661626921867
 31
0.0
  0
LINE
  5
1234
330
1173
100
AcDbEntity
  8
0
 62
     0
380
     1
100
AcDbLine
 10
6.776178436400044
 20
3.574999679512927
 30
0.0
 11
5.908605579480649
 21
4.442572536432322
 31
0.0
  0
LINE
  5
1235
330
1173
100
AcDbEntity
  8
0
 62
     0
380
     1
100
AcDbLine
 10
6.327165630346627
 20
3.574999679512899
 30
0.0
 11
5.908605579480649
 21
3.993559730378876
 31
0.0
  0
LINE
  5
1236
330
1173
100
AcDbEntity
  8
0
 62
     0
380
     1
100
AcDbLine
 10
34.3169492218141
 20
3.581565568071681
 30
0.0
 11
34.51453969092199
 21
3.779156037179575
 31
0.0
  0
LINE
  5
1237
330
1173
100
AcDbEntity
  8
0
 62
     0
380
     1
100
AcDbLine
 10
33.86137052720193
 20
3.574999679512899
 30
0.0
 11
34.52110557948072
 21
4.234734731791718
 31
0.0
  0
LINE
  5
1238
330
1173
100
AcDbEntity
  8
0
 62
     0
380
     1
100
AcDbLine
 10
33.41235772114846
 20
3.574999679512927
 30
0.0
 11
34.52110557948072
 21
4.683747537845164
 31
0.0
  0
LINE
  5
1239
330
1173
100
AcDbEntity
  8
0
 62
     0
380
     1
100
AcDbLine
 10
33.13670436110655
 20
3.748359125524473
 30
0.0
 11
34.52110557948069
 21
5.132760343898638
 31
0.0
  0
LINE
  5
123A
330
1173
100
AcDbEntity
  8
0
 62
     0
380
     1
100
AcDbLine
 10
33.12110557948066
 20
4.18177314995205
 30
0.0
 11
34.52110557948069
 21
5.581773149952056
 31
0.0
  0
LINE
  5
123B
330
1173
100
AcDbEntity
  8
0
 62
     0
380
     1
100
AcDbLine
 10
33.12110557948069
 20
4.630785956005496
 30
0.0
 11
34.52110557948069
 21
6.03078595600553
 31
0.0
  0
LINE
  5
123C
330
1173
100
AcDbEntity
  8
0
 62
     0
380
     1
100
AcDbLine
 10
33.12110557948066
 20
5.07979876205897
 30
0.0
 11
34.52110557948069
 21
6.479798762059004
 31
0.0
  0
LINE
  5
123D
330
1173
100
AcDbEntity
  8
0
 62
     0
380
     1
100
AcDbLine
 10
33.12110557948066
 20
5.528811568112416
 30
0.0
 11
34.52110557948069
 21
6.92881156811245
 31
0.0
  0
LINE
  5
123E
330
1173
100
AcDbEntity
  8
0
 62
     0
380
     1
100
AcDbLine
 10
31.3343880105133
 20
3.742093999145055
 30
0.0
 11
31.90401125984858
 21
4.311717248480363
 31
0.0
  0
LINE
  5
123F
330
1173
100
AcDbEntity
  8
0
 62
     0
380
     1
100
AcDbLine
 10
33.12110557948066
 20
5.977824374165862
 30
0.0
 11
34.52110557948069
 21
7.377824374165896
 31
0.0
  0
LINE
  5
1240
330
1173
100
AcDbEntity
  8
0
 62
     0
380
     1
100
AcDbLine
 10
30.7191039272519
 20
3.5758227219371
 30
0.0
 11
32.07028253705656
 21
4.927001331741735
 31
0.0
  0
LINE
  5
1241
330
1173
100
AcDbEntity
  8
0
 62
     0
380
     1
100
AcDbLine
 10
33.12110557948066
 20
6.426837180219337
 30
0.0
 11
34.52110557948069
 21
7.826837180219342
 31
0.0
  0
LINE
  5
1242
330
1173
100
AcDbEntity
  8
0
 62
     0
380
     1
100
AcDbLine
 10
30.26926807877419
 20
3.57499967951287
 30
0.0
 11
32.0711055794807
 21
5.376837180219354
 31
0.0
  0
LINE
  5
1243
330
1173
100
AcDbEntity
  8
0
 62
     0
380
     1
100
AcDbLine
 10
33.12110557948066
 20
6.875849986272783
 30
0.0
 11
34.52110557948066
 21
8.275849986272817
 31
0.0
  0
LINE
  5
1244
330
1173
100
AcDbEntity
  8
0
 62
     0
380
     1
100
AcDbLine
 10
29.82025527272075
 20
3.57499967951287
 30
0.0
 11
32.07110557948067
 21
5.825849986272828
 31
0.0
  0
LINE
  5
1245
330
1173
100
AcDbEntity
  8
0
 62
     0
380
     1
100
AcDbLine
 10
33.12110557948066
 20
7.324862792326229
 30
0.0
 11
34.52110557948069
 21
8.724862792326263
 31
0.0
  0
LINE
  5
1246
330
1173
100
AcDbEntity
  8
0
 62
     0
380
     1
100
AcDbLine
 10
29.37124246666733
 20
3.574999679512899
 30
0.0
 11
32.0711055794807
 21
6.274862792326274
 31
0.0
  0
LINE
  5
1247
330
1173
100
AcDbEntity
  8
0
 62
     0
380
     1
100
AcDbLine
 10
30.61880997844014
 20
5.271579997339188
 30
0.0
 11
32.0711055794807
 21
6.72387559837972
 31
0.0
  0
LINE
  5
1248
330
1173
100
AcDbEntity
  8
0
 62
     0
380
     1
100
AcDbLine
 10
33.12110557948066
 20
7.773875598379675
 30
0.0
 11
34.52110557948069
 21
9.173875598379709
 31
0.0
  0
LINE
  5
1249
330
1173
100
AcDbEntity
  8
0
 62
     0
380
     1
100
AcDbLine
 10
28.92222966061382
 20
3.57499967951287
 30
0.0
 11
30.37452526165438
 21
5.027295280553403
 31
0.0
  0
LINE
  5
124A
330
1173
100
AcDbEntity
  8
0
 62
     0
380
     1
100
AcDbLine
 10
30.67110557948061
 20
5.772888404433132
 30
0.0
 11
32.07110557948067
 21
7.172888404433194
 31
0.0
  0
LINE
  5
124B
330
1173
100
AcDbEntity
  8
0
 62
     0
380
     1
100
AcDbLine
 10
33.12110557948063
 20
8.222888404433149
 30
0.0
 11
34.52110557948066
 21
9.622888404433183
 31
0.0
  0
LINE
  5
124C
330
1173
100
AcDbEntity
  8
0
 62
     0
380
     1
100
AcDbLine
 10
28.52919173024898
 20
3.630974555201476
 30
0.0
 11
29.87321685456041
 21
4.974999679512905
 31
0.0
  0
LINE
  5
124D
330
1173
100
AcDbEntity
  8
0
 62
     0
380
     1
100
AcDbLine
 10
30.67110557948061
 20
6.221901210486578
 30
0.0
 11
32.07110557948067
 21
7.62190121048664
 31
0.0
  0
LINE
  5
124E
330
1173
100
AcDbEntity
  8
0
 62
     0
380
     1
100
AcDbLine
 10
33.12110557948063
 20
8.671901210486623
 30
0.0
 11
34.52110557948066
 21
10.07190121048663
 31
0.0
  0
LINE
  5
124F
330
1173
100
AcDbEntity
  8
0
 62
     0
380
     1
100
AcDbLine
 10
28.21519829664391
 20
3.765993927649901
 30
0.0
 11
29.42464294132913
 21
4.975438572335121
 31
0.0
  0
LINE
  5
1250
330
1173
100
AcDbEntity
  8
0
 62
     0
380
     1
100
AcDbLine
 10
30.67110557948067
 20
6.670914016540052
 30
0.0
 11
32.07110557948067
 21
8.070914016540086
 31
0.0
  0
LINE
  5
1251
330
1173
100
AcDbEntity
  8
0
 62
     0
380
     1
100
AcDbLine
 10
33.12110557948066
 20
9.120914016540041
 30
0.0
 11
34.52110557948066
 21
10.52091401654007
 31
0.0
  0
LINE
  5
1252
330
1173
100
AcDbEntity
  8
0
 62
     0
380
     1
100
AcDbLine
 10
27.95856835596138
 20
3.958376793020761
 30
0.0
 11
29.10290364697278
 21
5.102712084032191
 31
0.0
  0
LINE
  5
1253
330
1173
100
AcDbEntity
  8
0
 62
     0
380
     1
100
AcDbLine
 10
30.67110557948064
 20
7.119926822593527
 30
0.0
 11
32.07110557948067
 21
8.519926822593561
 31
0.0
  0
LINE
  5
1254
330
1173
100
AcDbEntity
  8
0
 62
     0
380
     1
100
AcDbLine
 10
33.12110557948063
 20
9.569926822593515
 30
0.0
 11
34.52110557948066
 21
10.96992682259355
 31
0.0
  0
LINE
  5
1255
330
1173
100
AcDbEntity
  8
0
 62
     0
380
     1
100
AcDbLine
 10
27.75358626834881
 20
4.202407511461672
 30
0.0
 11
28.93428450776807
 21
5.383105750880957
 31
0.0
  0
LINE
  5
1256
330
1173
100
AcDbEntity
  8
0
 62
     0
380
     1
100
AcDbLine
 10
30.67110557948064
 20
7.568939628646973
 30
0.0
 11
32.0711055794807
 21
8.968939628647063
 31
0.0
  0
LINE
  5
1257
330
1173
100
AcDbEntity
  8
0
 62
     0
380
     1
100
AcDbLine
 10
33.12110557948063
 20
10.01893962864696
 30
0.0
 11
34.51603100270543
 21
11.41386505187179
 31
0.0
  0
LINE
  5
1258
330
1173
100
AcDbEntity
  8
0
 62
     0
380
     1
100
AcDbLine
 10
27.60362382913181
 20
4.501457878298168
 30
0.0
 11
28.92110557948061
 21
5.818939628646973
 31
0.0
  0
LINE
  5
1259
330
1173
100
AcDbEntity
  8
0
 62
     0
380
     1
100
AcDbLine
 10
30.67110557948064
 20
8.017952434700418
 30
0.0
 11
32.07110557948073
 21
9.417952434700481
 31
0.0
  0
LINE
  5
125A
330
1173
100
AcDbEntity
  8
0
 62
     0
380
     1
100
AcDbLine
 10
33.12110557948063
 20
10.4679524347004
 30
0.0
 11
34.27747383016569
 21
11.62432068538547
 31
0.0
  0
LINE
  5
125B
330
1173
100
AcDbEntity
  8
0
 62
     0
380
     1
100
AcDbLine
 10
27.52491706165358
 20
4.871763916873362
 30
0.0
 11
28.92110557948064
 21
6.267952434700418
 31
0.0
  0
LINE
  5
125C
330
1173
100
AcDbEntity
  8
0
 62
     0
380
     1
100
AcDbLine
 10
30.67110557948064
 20
8.466965240753893
 30
0.0
 11
32.0711055794807
 21
9.866965240753955
 31
0.0
  0
LINE
  5
125D
330
1173
100
AcDbEntity
  8
0
 62
     0
380
     1
100
AcDbLine
 10
33.12110557948066
 20
10.91696524075391
 30
0.0
 11
33.82914001823966
 21
11.62499967951291
 31
0.0
  0
LINE
  5
125E
330
1173
100
AcDbEntity
  8
0
 62
     0
380
     1
100
AcDbLine
 10
27.52110557948069
 20
5.316965240753916
 30
0.0
 11
28.92110557948067
 21
6.716965240753921
 31
0.0
  0
LINE
  5
125F
330
1173
100
AcDbEntity
  8
0
 62
     0
380
     1
100
AcDbLine
 10
30.67110557948064
 20
8.915978046807339
 30
0.0
 11
32.0711055794807
 21
10.3159780468074
 31
0.0
  0
LINE
  5
1260
330
1173
100
AcDbEntity
  8
0
 62
     0
380
     1
100
AcDbLine
 10
27.52110557948066
 20
5.76597804680739
 30
0.0
 11
28.92110557948064
 21
7.165978046807367
 31
0.0
  0
LINE
  5
1261
330
1173
100
AcDbEntity
  8
0
 62
     0
380
     1
100
AcDbLine
 10
33.12112893685438
 20
11.3660014041811
 30
0.0
 11
33.38010385481252
 21
11.62497632213922
 31
0.0
  0
LINE
  5
1262
330
1173
100
AcDbEntity
  8
0
 62
     0
380
     1
100
AcDbLine
 10
25.36032776412466
 20
3.605200231451362
 30
0.0
 11
26.44090502754224
 21
4.685777494868972
 31
0.0
  0
LINE
  5
1263
330
1173
100
AcDbEntity
  8
0
 62
     0
380
     1
100
AcDbLine
 10
27.52110557948066
 20
6.214990852860836
 30
0.0
 11
28.92110557948064
 21
7.614990852860842
 31
0.0
  0
LINE
  5
1264
330
1173
100
AcDbEntity
  8
0
 62
     0
380
     1
100
AcDbLine
 10
30.67110557948067
 20
9.364990852860842
 30
0.0
 11
32.07110557948067
 21
10.76499085286087
 31
0.0
  0
LINE
  5
1265
330
1173
100
AcDbEntity
  8
0
 62
     0
380
     1
100
AcDbLine
 10
24.88111440613276
 20
3.574999679512956
 30
0.0
 11
26.47110557948062
 21
5.164990852860796
 31
0.0
  0
LINE
  5
1266
330
1173
100
AcDbEntity
  8
0
 62
     0
380
     1
100
AcDbLine
 10
27.52110557948066
 20
6.664003658914282
 30
0.0
 11
28.92110557948067
 21
8.064003658914259
 31
0.0
  0
LINE
  5
1267
330
1173
100
AcDbEntity
  8
0
 62
     0
380
     1
100
AcDbLine
 10
30.67110557948067
 20
9.814003658914288
 30
0.0
 11
32.0711055794807
 21
11.21400365891432
 31
0.0
  0
LINE
  5
1268
330
1173
100
AcDbEntity
  8
0
 62
     0
380
     1
100
AcDbLine
 10
24.43210160007928
 20
3.574999679512899
 30
0.0
 11
26.47110557948068
 21
5.61400365891427
 31
0.0
  0
LINE
  5
1269
330
1173
100
AcDbEntity
  8
0
 62
     0
380
     1
100
AcDbLine
 10
27.52110557948066
 20
7.113016464967756
 30
0.0
 11
28.92110557948064
 21
8.513016464967734
 31
0.0
  0
LINE
  5
126A
330
1173
100
AcDbEntity
  8
0
 62
     0
380
     1
100
AcDbLine
 10
30.67110557948067
 20
10.26301646496773
 30
0.0
 11
31.97423685206363
 21
11.56614773755072
 31
0.0
  0
LINE
  5
126B
330
1173
100
AcDbEntity
  8
0
 62
     0
380
     1
100
AcDbLine
 10
23.98308879402583
 20
3.574999679512927
 30
0.0
 11
26.46394627927418
 21
6.055857164761277
 31
0.0
  0
LINE
  5
126C
330
1173
100
AcDbEntity
  8
0
 62
     0
380
     1
100
AcDbLine
 10
27.52110557948066
 20
7.562029271021202
 30
0.0
 11
28.92110557948064
 21
8.962029271021208
 31
0.0
  0
LINE
  5
126D
330
1173
100
AcDbEntity
  8
0
 62
     0
380
     1
100
AcDbLine
 10
30.67110557948064
 20
10.71202927102121
 30
0.0
 11
31.58407598797237
 21
11.62499967951294
 31
0.0
  0
LINE
  5
126E
330
1173
100
AcDbEntity
  8
0
 62
     0
380
     1
100
AcDbLine
 10
23.53407598797236
 20
3.574999679512927
 30
0.0
 11
26.39649009395981
 21
6.437413785500353
 31
0.0
  0
LINE
  5
126F
330
1173
100
AcDbEntity
  8
0
 62
     0
380
     1
100
AcDbLine
 10
27.52110557948066
 20
8.011042077074648
 30
0.0
 11
28.92110557948064
 21
9.411042077074625
 31
0.0
  0
LINE
  5
1270
330
1173
100
AcDbEntity
  8
0
 62
     0
380
     1
100
AcDbLine
 10
25.07110557948067
 20
5.56104207707466
 30
0.0
 11
26.27619636550054
 21
6.766132863094497
 31
0.0
  0
LINE
  5
1271
330
1173
100
AcDbEntity
  8
0
 62
     0
380
     1
100
AcDbLine
 10
30.67110557948067
 20
11.16104207707465
 30
0.0
 11
31.13506318191895
 21
11.62499967951294
 31
0.0
  0
LINE
  5
1272
330
1173
100
AcDbEntity
  8
0
 62
     0
380
     1
100
AcDbLine
 10
23.14919085848448
 20
3.639127356078461
 30
0.0
 11
24.48506318191892
 21
4.974999679512905
 31
0.0
  0
LINE
  5
1273
330
1173
100
AcDbEntity
  8
0
 62
     0
380
     1
100
AcDbLine
 10
25.06117029191702
 20
6.000119595564456
 30
0.0
 11
26.11444671307026
 21
7.053396016717698
 31
0.0
  0
LINE
  5
1274
330
1173
100
AcDbEntity
  8
0
 62
     0
380
     1
100
AcDbLine
 10
27.52110557948066
 20
8.460054883128094
 30
0.0
 11
28.92110557948067
 21
9.860054883128128
 31
0.0
  0
LINE
  5
1275
330
1173
100
AcDbEntity
  8
0
 62
     0
380
     1
100
AcDbLine
 10
23.05860557948063
 20
3.997554883128088
 30
0.0
 11
24.03605037586544
 21
4.974999679512905
 31
0.0
  0
LINE
  5
1276
330
1173
100
AcDbEntity
  8
0
 62
     0
380
     1
100
AcDbLine
 10
24.92397787334758
 20
6.311939983048517
 30
0.0
 11
25.91651115410636
 21
7.304473263807295
 31
0.0
  0
LINE
  5
1277
330
1173
100
AcDbEntity
  8
0
 62
     0
380
     1
100
AcDbLine
 10
27.52110557948063
 20
8.909067689181568
 30
0.0
 11
28.92110557948067
 21
10.3090676891816
 31
0.0
  0
LINE
  5
1278
330
1173
100
AcDbEntity
  8
0
 62
     0
380
     1
100
AcDbLine
 10
23.05860557948063
 20
4.446567689181534
 30
0.0
 11
23.587037569812
 21
4.974999679512933
 31
0.0
  0
LINE
  5
1279
330
1173
100
AcDbEntity
  8
0
 62
     0
380
     1
100
AcDbLine
 10
27.52110557948066
 20
9.358080495235014
 30
0.0
 11
28.9211055794807
 21
10.75808049523502
 31
0.0
  0
LINE
  5
127A
330
1173
100
AcDbEntity
  8
0
 62
     0
380
     1
100
AcDbLine
 10
24.70334042478905
 20
6.540315340543372
 30
0.0
 11
25.69328991845023
 21
7.530264834204587
 31
0.0
  0
LINE
  5
127B
330
1173
100
AcDbEntity
  8
0
 62
     0
380
     1
100
AcDbLine
 10
24.47883402176231
 20
6.764821743570109
 30
0.0
 11
25.46878351542347
 21
7.754771237231267
 31
0.0
  0
LINE
  5
127C
330
1173
100
AcDbEntity
  8
0
 62
     0
380
     1
100
AcDbLine
 10
27.52110557948063
 20
9.80709330128846
 30
0.0
 11
28.92110557948067
 21
11.20709330128849
 31
0.0
  0
LINE
  5
127D
330
1173
100
AcDbEntity
  8
0
 62
     0
380
     1
100
AcDbLine
 10
21.28901195770507
 20
3.574999679512899
 30
0.0
 11
21.74610557948065
 21
4.032093301288455
 31
0.0
  0
LINE
  5
127E
330
1173
100
AcDbEntity
  8
0
 62
     0
380
     1
100
AcDbLine
 10
24.25432761873557
 20
6.989328146596847
 30
0.0
 11
25.24427711239673
 21
7.979277640258004
 31
0.0
  0
LINE
  5
127F
330
1173
100
AcDbEntity
  8
0
 62
     0
380
     1
100
AcDbLine
 10
27.52110557948063
 20
10.25610610734193
 30
0.0
 11
28.82801512543134
 21
11.56301565329261
 31
0.0
  0
LINE
  5
1280
330
1173
100
AcDbEntity
  8
0
 62
     0
380
     1
100
AcDbLine
 10
20.8399991516516
 20
3.574999679512899
 30
0.0
 11
21.74610557948069
 21
4.481106107341958
 31
0.0
  0
LINE
  5
1281
330
1173
100
AcDbEntity
  8
0
 62
     0
380
     1
100
AcDbLine
 10
24.02982121570884
 20
7.213834549623584
 30
0.0
 11
25.01977070936999
 21
8.203784043284741
 31
0.0
  0
LINE
  5
1282
330
1173
100
AcDbEntity
  8
0
 62
     0
380
     1
100
AcDbLine
 10
27.52110557948063
 20
10.70511891339538
 30
0.0
 11
28.44098634559819
 21
11.62499967951297
 31
0.0
  0
LINE
  5
1283
330
1173
100
AcDbEntity
  8
0
 62
     0
380
     1
100
AcDbLine
 10
20.44679191452914
 20
3.630805248443891
 30
0.0
 11
21.74610557948065
 21
4.930118913395432
 31
0.0
  0
LINE
  5
1284
330
1173
100
AcDbEntity
  8
0
 62
     0
380
     1
100
AcDbLine
 10
23.80531481268213
 20
7.438340952650293
 30
0.0
 11
24.79526430634328
 21
8.42829044631145
 31
0.0
  0
LINE
  5
1285
330
1173
100
AcDbEntity
  8
0
 62
     0
380
     1
100
AcDbLine
 10
27.52110557948063
 20
11.15413171944882
 30
0.0
 11
27.99197353954478
 21
11.62499967951294
 31
0.0
  0
LINE
  5
1286
330
1173
100
AcDbEntity
  8
0
 62
     0
380
     1
100
AcDbLine
 10
20.34610557948068
 20
3.979131719448872
 30
0.0
 11
21.74610557948069
 21
5.379131719448849
 31
0.0
  0
LINE
  5
1287
330
1173
100
AcDbEntity
  8
0
 62
     0
380
     1
100
AcDbLine
 10
23.58080840965539
 20
7.66284735567703
 30
0.0
 11
24.57075790331655
 21
8.652796849338187
 31
0.0
  0
LINE
  5
1288
330
1173
100
AcDbEntity
  8
0
 62
     0
380
     1
100
AcDbLine
 10
20.34610557948068
 20
4.428144525502347
 30
0.0
 11
21.74610557948065
 21
5.828144525502324
 31
0.0
  0
LINE
  5
1289
330
1173
100
AcDbEntity
  8
0
 62
     0
380
     1
100
AcDbLine
 10
23.35731645913472
 20
7.888368211209865
 30
0.0
 11
24.34930322582574
 21
8.88035497790085
 31
0.0
  0
LINE
  5
128A
330
1173
100
AcDbEntity
  8
0
 62
     0
380
     1
100
AcDbLine
 10
20.34610557948068
 20
4.877157331555793
 30
0.0
 11
21.74610557948065
 21
6.277157331555798
 31
0.0
  0
LINE
  5
128B
330
1173
100
AcDbEntity
  8
0
 62
     0
380
     1
100
AcDbLine
 10
25.69394792743782
 20
10.22499967951293
 30
0.0
 11
26.20860557948069
 21
10.7396573315558
 31
0.0
  0
LINE
  5
128C
330
1173
100
AcDbEntity
  8
0
 62
     0
380
     1
100
AcDbLine
 10
19.09977746712556
 20
3.630829219200677
 30
0.0
 11
19.14460364785307
 21
3.675655399928217
 31
0.0
  0
LINE
  5
128D
330
1173
100
AcDbEntity
  8
0
 62
     0
380
     1
100
AcDbLine
 10
23.15831536972374
 20
8.138379927852298
 30
0.0
 11
24.20813250843304
 21
9.188197066561599
 31
0.0
  0
LINE
  5
128E
330
1173
100
AcDbEntity
  8
0
 62
     0
380
     1
100
AcDbLine
 10
20.34610557948068
 20
5.326170137609238
 30
0.0
 11
21.74610557948069
 21
6.726170137609216
 31
0.0
  0
LINE
  5
128F
330
1173
100
AcDbEntity
  8
0
 62
     0
380
     1
100
AcDbLine
 10
25.24493512138437
 20
10.22499967951293
 30
0.0
 11
26.20860557948069
 21
11.18867013760925
 31
0.0
  0
LINE
  5
1290
330
1173
100
AcDbEntity
  8
0
 62
     0
380
     1
100
AcDbLine
 10
18.59493512138434
 20
3.574999679512899
 30
0.0
 11
19.12782466953757
 21
4.107889227666106
 31
0.0
  0
LINE
  5
1291
330
1173
100
AcDbEntity
  8
0
 62
     0
380
     1
100
AcDbLine
 10
22.99539823752539
 20
8.424475601707428
 30
0.0
 11
24.1961055794807
 21
9.625182943662707
 31
0.0
  0
LINE
  5
1292
330
1173
100
AcDbEntity
  8
0
 62
     0
380
     1
100
AcDbLine
 10
20.34610557948068
 20
5.775182943662684
 30
0.0
 11
21.74610557948065
 21
7.17518294366269
 31
0.0
  0
LINE
  5
1293
330
1173
100
AcDbEntity
  8
0
 62
     0
380
     1
100
AcDbLine
 10
24.79592231533093
 20
10.22499967951293
 30
0.0
 11
26.12527111358173
 21
11.55434847776376
 31
0.0
  0
LINE
  5
1294
330
1173
100
AcDbEntity
  8
0
 62
     0
380
     1
100
AcDbLine
 10
18.14592231533089
 20
3.574999679512899
 30
0.0
 11
19.02006159608476
 21
4.449138960266793
 31
0.0
  0
LINE
  5
1295
330
1173
100
AcDbEntity
  8
0
 62
     0
380
     1
100
AcDbLine
 10
20.34610557948065
 20
6.224195749716159
 30
0.0
 11
21.74610557948065
 21
7.624195749716136
 31
0.0
  0
LINE
  5
1296
330
1173
100
AcDbEntity
  8
0
 62
     0
380
     1
100
AcDbLine
 10
22.87370720619035
 20
8.751797376425855
 30
0.0
 11
25.74690950927743
 21
11.62499967951294
 31
0.0
  0
LINE
  5
1297
330
1173
100
AcDbEntity
  8
0
 62
     0
380
     1
100
AcDbLine
 10
17.84991516000335
 20
3.728005330238858
 30
0.0
 11
18.91229852263191
 21
4.790388692867423
 31
0.0
  0
LINE
  5
1298
330
1173
100
AcDbEntity
  8
0
 62
     0
380
     1
100
AcDbLine
 10
20.34610557948065
 20
6.673208555769633
 30
0.0
 11
21.74610557948063
 21
8.07320855576961
 31
0.0
  0
LINE
  5
1299
330
1173
100
AcDbEntity
  8
0
 62
     0
380
     1
100
AcDbLine
 10
22.8043537766475
 20
9.131456752936486
 30
0.0
 11
25.29789670322398
 21
11.62499967951294
 31
0.0
  0
LINE
  5
129A
330
1173
100
AcDbEntity
  8
0
 62
     0
380
     1
100
AcDbLine
 10
17.74053544917905
 20
4.067638425468032
 30
0.0
 11
18.80453544917904
 21
5.131638425468025
 31
0.0
  0
LINE
  5
129B
330
1173
100
AcDbEntity
  8
0
 62
     0
380
     1
100
AcDbLine
 10
20.34610557948068
 20
7.122221361823051
 30
0.0
 11
21.74610557948065
 21
8.522221361823056
 31
0.0
  0
LINE
  5
129C
330
1173
100
AcDbEntity
  8
0
 62
     0
380
     1
100
AcDbLine
 10
22.79610557948067
 20
9.572221361823039
 30
0.0
 11
24.84888389717054
 21
11.62499967951294
 31
0.0
  0
LINE
  5
129D
330
1173
100
AcDbEntity
  8
0
 62
     0
380
     1
100
AcDbLine
 10
17.63277237572623
 20
4.408888158068634
 30
0.0
 11
18.69677237572628
 21
5.472888158068656
 31
0.0
  0
LINE
  5
129E
330
1173
100
AcDbEntity
  8
0
 62
     0
380
     1
100
AcDbLine
 10
20.34610557948065
 20
7.571234167876525
 30
0.0
 11
21.74610557948065
 21
8.971234167876502
 31
0.0
  0
LINE
  5
129F
330
1173
100
AcDbEntity
  8
0
 62
     0
380
     1
100
AcDbLine
 10
22.79610557948069
 20
10.02123416787654
 30
0.0
 11
24.39987109111709
 21
11.62499967951294
 31
0.0
  0
LINE
  5
12A0
330
1173
100
AcDbEntity
  8
0
 62
     0
380
     1
100
AcDbLine
 10
17.52500930227336
 20
4.750137890669236
 30
0.0
 11
18.58900930227344
 21
5.814137890669286
 31
0.0
  0
LINE
  5
12A1
330
1173
100
AcDbEntity
  8
0
 62
     0
380
     1
100
AcDbLine
 10
20.34610557948065
 20
8.020246973929971
 30
0.0
 11
21.74610557948069
 21
9.420246973930005
 31
0.0
  0
LINE
  5
12A2
330
1173
100
AcDbEntity
  8
0
 62
     0
380
     1
100
AcDbLine
 10
17.41724622882054
 20
5.091387623269895
 30
0.0
 11
18.48124622882059
 21
6.155387623269916
 31
0.0
  0
LINE
  5
12A3
330
1173
100
AcDbEntity
  8
0
 62
     0
380
     1
100
AcDbLine
 10
22.82276391454127
 20
10.49690530899062
 30
0.0
 11
23.92419995000293
 21
11.59834134445228
 31
0.0
  0
LINE
  5
12A4
330
1173
100
AcDbEntity
  8
0
 62
     0
380
     1
100
AcDbLine
 10
15.90085828506355
 20
3.574999679512899
 30
0.0
 11
16.32110557948064
 21
3.995246973929994
 31
0.0
  0
LINE
  5
12A5
330
1173
100
AcDbEntity
  8
0
 62
     0
380
     1
100
AcDbLine
 10
17.30948315536776
 20
5.432637355870497
 30
0.0
 11
18.37348315536772
 21
6.49663735587049
 31
0.0
  0
LINE
  5
12A6
330
1173
100
AcDbEntity
  8
0
 62
     0
380
     1
100
AcDbLine
 10
20.34610557948065
 20
8.469259779983417
 30
0.0
 11
21.74610557948069
 21
9.869259779983451
 31
0.0
  0
LINE
  5
12A7
330
1173
100
AcDbEntity
  8
0
 62
     0
380
     1
100
AcDbLine
 10
15.45184547901013
 20
3.57499967951287
 30
0.0
 11
16.32110557948067
 21
4.44425977998344
 31
0.0
  0
LINE
  5
12A8
330
1173
100
AcDbEntity
  8
0
 62
     0
380
     1
100
AcDbLine
 10
17.20172008191491
 20
5.773887088471127
 30
0.0
 11
18.26572008191493
 21
6.837887088471177
 31
0.0
  0
LINE
  5
12A9
330
1173
100
AcDbEntity
  8
0
 62
     0
380
     1
100
AcDbLine
 10
20.34610557948065
 20
8.918272586036891
 30
0.0
 11
21.74610557948069
 21
10.3182725860369
 31
0.0
  0
LINE
  5
12AA
330
1173
100
AcDbEntity
  8
0
 62
     0
380
     1
100
AcDbLine
 10
15.0434075467823
 20
3.615574553338547
 30
0.0
 11
16.32110557948067
 21
4.893272586036886
 31
0.0
  0
LINE
  5
12AB
330
1173
100
AcDbEntity
  8
0
 62
     0
380
     1
100
AcDbLine
 10
17.09395700846207
 20
6.115136821071757
 30
0.0
 11
18.15795700846209
 21
7.179136821071807
 31
0.0
  0
LINE
  5
12AC
330
1173
100
AcDbEntity
  8
0
 62
     0
380
     1
100
AcDbLine
 10
20.34610557948065
 20
9.367285392090337
 30
0.0
 11
21.74610557948065
 21
10.76728539209037
 31
0.0
  0
LINE
  5
12AD
330
1173
100
AcDbEntity
  8
0
 62
     0
380
     1
100
AcDbLine
 10
14.92110557948066
 20
3.942285392090354
 30
0.0
 11
16.3211055794807
 21
5.342285392090388
 31
0.0
  0
LINE
  5
12AE
330
1173
100
AcDbEntity
  8
0
 62
     0
380
     1
100
AcDbLine
 10
16.98619393500925
 20
6.456386553672359
 30
0.0
 11
18.05019393500927
 21
7.520386553672409
 31
0.0
  0
LINE
  5
12AF
330
1173
100
AcDbEntity
  8
0
 62
     0
380
     1
100
AcDbLine
 10
20.34610557948065
 20
9.816298198143783
 30
0.0
 11
21.74610557948069
 21
11.21629819814382
 31
0.0
  0
LINE
  5
12B0
330
1173
100
AcDbEntity
  8
0
 62
     0
380
     1
100
AcDbLine
 10
14.92110557948066
 20
4.3912981981438
 30
0.0
 11
16.3211055794807
 21
5.791298198143834
 31
0.0
  0
LINE
  5
12B1
330
1173
100
AcDbEntity
  8
0
 62
     0
380
     1
100
AcDbLine
 10
16.86879454152338
 20
6.787999966239993
 30
0.0
 11
18.18394157548883
 21
8.103147000205439
 31
0.0
  0
LINE
  5
12B2
330
1173
100
AcDbEntity
  8
0
 62
     0
380
     1
100
AcDbLine
 10
20.34610557948068
 20
10.26531100419728
 30
0.0
 11
21.64796786823146
 21
11.56717329294804
 31
0.0
  0
LINE
  5
12B3
330
1173
100
AcDbEntity
  8
0
 62
     0
380
     1
100
AcDbLine
 10
14.92110557948066
 20
4.840311004197275
 30
0.0
 11
16.3211055794807
 21
6.24031100419728
 31
0.0
  0
LINE
  5
12B4
330
1173
100
AcDbEntity
  8
0
 62
     0
380
     1
100
AcDbLine
 10
16.52520185658969
 20
6.893420087359771
 30
0.0
 11
18.3911782552058
 21
8.759396485975884
 31
0.0
  0
LINE
  5
12B5
330
1173
100
AcDbEntity
  8
0
 62
     0
380
     1
100
AcDbLine
 10
14.92110557948066
 20
5.289323810250721
 30
0.0
 11
16.32768517163382
 21
6.695903402403871
 31
0.0
  0
LINE
  5
12B6
330
1173
100
AcDbEntity
  8
0
 62
     0
380
     1
100
AcDbLine
 10
20.34610557948068
 20
10.71432381025073
 30
0.0
 11
21.25678144874286
 21
11.62499967951294
 31
0.0
  0
LINE
  5
12B7
330
1173
100
AcDbEntity
  8
0
 62
     0
380
     1
100
AcDbLine
 10
13.20678144874284
 20
3.574999679512899
 30
0.0
 11
13.69610557948067
 21
4.064323810250755
 31
0.0
  0
LINE
  5
12B8
330
1173
100
AcDbEntity
  8
0
 62
     0
380
     1
100
AcDbLine
 10
14.92110557948064
 20
5.738336616304195
 30
0.0
 11
18.59841493492277
 21
9.4156459717463
 31
0.0
  0
LINE
  5
12B9
330
1173
100
AcDbEntity
  8
0
 62
     0
380
     1
100
AcDbLine
 10
20.34610557948065
 20
11.1633366163042
 30
0.0
 11
20.80776864268938
 21
11.62499967951294
 31
0.0
  0
LINE
  5
12BA
330
1173
100
AcDbEntity
  8
0
 62
     0
380
     1
100
AcDbLine
 10
12.75776864268937
 20
3.574999679512927
 30
0.0
 11
13.69610557948067
 21
4.513336616304229
 31
0.0
  0
LINE
  5
12BB
330
1173
100
AcDbEntity
  8
0
 62
     0
380
     1
100
AcDbLine
 10
14.92110557948066
 20
6.187349422357613
 30
0.0
 11
18.8056516146398
 21
10.07189545751674
 31
0.0
  0
LINE
  5
12BC
330
1173
100
AcDbEntity
  8
0
 62
     0
380
     1
100
AcDbLine
 10
12.31459614881098
 20
3.580839991687952
 30
0.0
 11
13.62543843767759
 21
4.891682280554533
 31
0.0
  0
LINE
  5
12BD
330
1173
100
AcDbEntity
  8
0
 62
     0
380
     1
100
AcDbLine
 10
14.92110557948064
 20
6.636362228411087
 30
0.0
 11
16.58474303058247
 21
8.299999679512922
 31
0.0
  0
LINE
  5
12BE
330
1173
100
AcDbEntity
  8
0
 62
     0
380
     1
100
AcDbLine
 10
16.96673444820283
 20
8.681991097133277
 30
0.0
 11
19.0128882943568
 21
10.72814494328722
 31
0.0
  0
LINE
  5
12BF
330
1173
100
AcDbEntity
  8
0
 62
     0
380
     1
100
AcDbLine
 10
11.93051589008749
 20
3.645772539017912
 30
0.0
 11
13.25974303058245
 21
4.974999679512905
 31
0.0
  0
LINE
  5
12C0
330
1173
100
AcDbEntity
  8
0
 62
     0
380
     1
100
AcDbLine
 10
14.92110557948064
 20
7.085375034464561
 30
0.0
 11
16.3301008648348
 21
8.494370319818699
 31
0.0
  0
LINE
  5
12C1
330
1173
100
AcDbEntity
  8
0
 62
     0
380
     1
100
AcDbLine
 10
17.1739711279198
 20
9.338240582903694
 30
0.0
 11
19.20042402025748
 21
11.36469347524141
 31
0.0
  0
LINE
  5
12C2
330
1173
100
AcDbEntity
  8
0
 62
     0
380
     1
100
AcDbLine
 10
11.59994876167428
 20
3.764218216658207
 30
0.0
 11
12.81073022452901
 21
4.974999679512905
 31
0.0
  0
LINE
  5
12C3
330
1173
100
AcDbEntity
  8
0
 62
     0
380
     1
100
AcDbLine
 10
14.92110557948066
 20
7.534387840517979
 30
0.0
 11
16.32110557948067
 21
8.934387840518013
 31
0.0
  0
LINE
  5
12C4
330
1173
100
AcDbEntity
  8
0
 62
     0
380
     1
100
AcDbLine
 10
17.38120780763685
 20
9.994490068674195
 30
0.0
 11
19.00341808397289
 21
11.61670034501023
 31
0.0
  0
LINE
  5
12C5
330
1173
100
AcDbEntity
  8
0
 62
     0
380
     1
100
AcDbLine
 10
11.31114711959213
 20
3.924429380629447
 30
0.0
 11
12.36917804883856
 21
4.982460309875904
 31
0.0
  0
LINE
  5
12C6
330
1173
100
AcDbEntity
  8
0
 62
     0
380
     1
100
AcDbLine
 10
14.92110557948064
 20
7.983400646571453
 30
0.0
 11
16.32110557948067
 21
9.383400646571487
 31
0.0
  0
LINE
  5
12C7
330
1173
100
AcDbEntity
  8
0
 62
     0
380
     1
100
AcDbLine
 10
17.58844448735382
 20
10.65073955444461
 30
0.0
 11
18.56270461242209
 21
11.62499967951291
 31
0.0
  0
LINE
  5
12C8
330
1173
100
AcDbEntity
  8
0
 62
     0
380
     1
100
AcDbLine
 10
11.0586696364011
 20
4.120964703491893
 30
0.0
 11
12.05201997832941
 21
5.114315045420198
 31
0.0
  0
LINE
  5
12C9
330
1173
100
AcDbEntity
  8
0
 62
     0
380
     1
100
AcDbLine
 10
14.92110557948064
 20
8.432413452624899
 30
0.0
 11
16.32110557948067
 21
9.832413452624933
 31
0.0
  0
LINE
  5
12CA
330
1173
100
AcDbEntity
  8
0
 62
     0
380
     1
100
AcDbLine
 10
13.25192264536889
 20
6.763230518513182
 30
0.0
 11
13.83287474048043
 21
7.344182613624724
 31
0.0
  0
LINE
  5
12CB
330
1173
100
AcDbEntity
  8
0
 62
     0
380
     1
100
AcDbLine
 10
17.79568116707077
 20
11.30698904021506
 30
0.0
 11
18.11369180636868
 21
11.62499967951297
 31
0.0
  0
LINE
  5
12CC
330
1173
100
AcDbEntity
  8
0
 62
     0
380
     1
100
AcDbLine
 10
10.84045109973618
 20
4.351758972880475
 30
0.0
 11
11.84689450269331
 21
5.358202375837606
 31
0.0
  0
LINE
  5
12CD
330
1173
100
AcDbEntity
  8
0
 62
     0
380
     1
100
AcDbLine
 10
12.78943622455398
 20
6.749756903751745
 30
0.0
 11
13.84634835524187
 21
7.806669034439607
 31
0.0
  0
LINE
  5
12CE
330
1173
100
AcDbEntity
  8
0
 62
     0
380
     1
100
AcDbLine
 10
14.92110557948061
 20
8.881426258678374
 30
0.0
 11
16.32110557948064
 21
10.2814262586784
 31
0.0
  0
LINE
  5
12CF
330
1173
100
AcDbEntity
  8
0
 62
     0
380
     1
100
AcDbLine
 10
10.6569414872647
 20
4.617262166462438
 30
0.0
 11
11.77110557948066
 21
5.731426258678425
 31
0.0
  0
LINE
  5
12D0
330
1173
100
AcDbEntity
  8
0
 62
     0
380
     1
100
AcDbLine
 10
12.48236293984388
 20
6.891696425095034
 30
0.0
 11
13.70440883389855
 21
8.113742319149736
 31
0.0
  0
LINE
  5
12D1
330
1173
100
AcDbEntity
  8
0
 62
     0
380
     1
100
AcDbLine
 10
14.92110557948064
 20
9.33043906473182
 30
0.0
 11
16.32110557948067
 21
10.73043906473182
 31
0.0
  0
LINE
  5
12D2
330
1173
100
AcDbEntity
  8
0
 62
     0
380
     1
100
AcDbLine
 10
10.51128273230233
 20
4.920616217553515
 30
0.0
 11
11.77110557948066
 21
6.180439064731842
 31
0.0
  0
LINE
  5
12D3
330
1173
100
AcDbEntity
  8
0
 62
     0
380
     1
100
AcDbLine
 10
12.26338297634902
 20
7.121729267653677
 30
0.0
 11
13.47437599133994
 21
8.332722282644567
 31
0.0
  0
LINE
  5
12D4
330
1173
100
AcDbEntity
  8
0
 62
     0
380
     1
100
AcDbLine
 10
14.92110557948064
 20
9.779451870785266
 30
0.0
 11
16.32110557948064
 21
11.1794518707853
 31
0.0
  0
LINE
  5
12D5
330
1173
100
AcDbEntity
  8
0
 62
     0
380
     1
100
AcDbLine
 10
10.410714050215
 20
5.269060341519661
 30
0.0
 11
11.77110557948066
 21
6.629451870785317
 31
0.0
  0
LINE
  5
12D6
330
1173
100
AcDbEntity
  8
0
 62
     0
380
     1
100
AcDbLine
 10
12.13535761014483
 20
7.442716707502938
 30
0.0
 11
13.15338855149065
 21
8.46074764884878
 31
0.0
  0
LINE
  5
12D7
330
1173
100
AcDbEntity
  8
0
 62
     0
380
     1
100
AcDbLine
 10
10.37110557948063
 20
5.678464676838757
 30
0.0
 11
11.77110557948066
 21
7.078464676838763
 31
0.0
  0
LINE
  5
12D8
330
1173
100
AcDbEntity
  8
0
 62
     0
380
     1
100
AcDbLine
 10
14.92110557948061
 20
10.22846467683874
 30
0.0
 11
16.24248052530311
 21
11.54983962266124
 31
0.0
  0
LINE
  5
12D9
330
1173
100
AcDbEntity
  8
0
 62
     0
380
     1
100
AcDbLine
 10
8.328107200542831
 20
3.635466297900961
 30
0.0
 11
9.260638961092695
 21
4.567998058450825
 31
0.0
  0
LINE
  5
12DA
330
1173
100
AcDbEntity
  8
0
 62
     0
380
     1
100
AcDbLine
 10
12.19456415188523
 20
7.950936055296779
 30
0.0
 11
12.64516920369684
 21
8.401541107108386
 31
0.0
  0
LINE
  5
12DB
330
1173
100
AcDbEntity
  8
0
 62
     0
380
     1
100
AcDbLine
 10
10.37110557948063
 20
6.127477482892174
 30
0.0
 11
11.77110557948066
 21
7.527477482892209
 31
0.0
  0
LINE
  5
12DC
330
1173
100
AcDbEntity
  8
0
 62
     0
380
     1
100
AcDbLine
 10
14.92110557948064
 20
10.67747748289216
 30
0.0
 11
15.86862777610142
 21
11.62499967951297
 31
0.0
  0
LINE
  5
12DD
330
1173
100
AcDbEntity
  8
0
 62
     0
380
     1
100
AcDbLine
 10
7.818627776101351
 20
3.574999679512899
 30
0.0
 11
9.321105579480672
 21
5.07747748289222
 31
0.0
  0
LINE
  5
12DE
330
1173
100
AcDbEntity
  8
0
 62
     0
380
     1
100
AcDbLine
 10
10.37110557948063
 20
6.576490288945649
 30
0.0
 11
11.77110557948066
 21
7.976490288945683
 31
0.0
  0
LINE
  5
12DF
330
1173
100
AcDbEntity
  8
0
 62
     0
380
     1
100
AcDbLine
 10
14.92110557948061
 20
11.12649028894563
 30
0.0
 11
15.41961497004791
 21
11.62499967951294
 31
0.0
  0
LINE
  5
12E0
330
1173
100
AcDbEntity
  8
0
 62
     0
380
     1
100
AcDbLine
 10
7.369614970047905
 20
3.574999679512899
 30
0.0
 11
9.321105579480672
 21
5.526490288945694
 31
0.0
  0
LINE
  5
12E1
330
1173
100
AcDbEntity
  8
0
 62
     0
380
     1
100
AcDbLine
 10
10.37110557948063
 20
7.025503094999095
 30
0.0
 11
11.77110557948063
 21
8.425503094999129
 31
0.0
  0
LINE
  5
12E2
330
1173
100
AcDbEntity
  8
0
 62
     0
380
     1
100
AcDbLine
 10
6.920602163994431
 20
3.574999679512927
 30
0.0
 11
9.319135903200077
 21
5.973533418718574
 31
0.0
  0
LINE
  5
12E3
330
1173
100
AcDbEntity
  8
0
 62
     0
380
     1
100
AcDbLine
 10
10.37110557948063
 20
7.474515901052569
 30
0.0
 11
11.77110557948066
 21
8.874515901052603
 31
0.0
  0
LINE
  5
12E4
330
1173
100
AcDbEntity
  8
0
 62
     0
380
     1
100
AcDbLine
 10
13.12158935794102
 20
10.22499967951296
 30
0.0
 11
13.6961055794807
 21
10.79951590105261
 31
0.0
  0
LINE
  5
12E5
330
1173
100
AcDbEntity
  8
0
 62
     0
380
     1
100
AcDbLine
 10
6.471589357940985
 20
3.574999679512927
 30
0.0
 11
9.264304985039416
 21
6.367715306611358
 31
0.0
  0
LINE
  5
12E6
330
1173
100
AcDbEntity
  8
0
 62
     0
380
     1
100
AcDbLine
 10
10.37110557948063
 20
7.923528707106015
 30
0.0
 11
11.77110557948066
 21
9.323528707106021
 31
0.0
  0
LINE
  5
12E7
330
1173
100
AcDbEntity
  8
0
 62
     0
380
     1
100
AcDbLine
 10
7.921105579480666
 20
5.473528707106055
 30
0.0
 11
9.153135613017354
 21
6.705558740642743
 31
0.0
  0
LINE
  5
12E8
330
1173
100
AcDbEntity
  8
0
 62
     0
380
     1
100
AcDbLine
 10
12.67257655188751
 20
10.2249996795129
 30
0.0
 11
13.69610557948067
 21
11.24852870710606
 31
0.0
  0
LINE
  5
12E9
330
1173
100
AcDbEntity
  8
0
 62
     0
380
     1
100
AcDbLine
 10
6.051439489517491
 20
3.60386261714288
 30
0.0
 11
7.422576551887516
 21
4.974999679512905
 31
0.0
  0
LINE
  5
12EA
330
1173
100
AcDbEntity
  8
0
 62
     0
380
     1
100
AcDbLine
 10
10.3711055794806
 20
8.372541513159461
 30
0.0
 11
11.85401293237049
 21
9.855448866049357
 31
0.0
  0
LINE
  5
12EB
330
1173
100
AcDbEntity
  8
0
 62
     0
380
     1
100
AcDbLine
 10
7.920026033676037
 20
5.921461967354872
 30
0.0
 11
8.998919845681342
 21
7.000355779360205
 31
0.0
  0
LINE
  5
12EC
330
1173
100
AcDbEntity
  8
0
 62
     0
380
     1
100
AcDbLine
 10
12.14065639294426
 20
10.14209232662313
 30
0.0
 11
13.57937187202077
 21
11.5808078056996
 31
0.0
  0
LINE
  5
12ED
330
1173
100
AcDbEntity
  8
0
 62
     0
380
     1
100
AcDbLine
 10
5.908605579480621
 20
3.910041513159484
 30
0.0
 11
6.973563745834098
 21
4.974999679512961
 31
0.0
  0
LINE
  5
12EE
330
1173
100
AcDbEntity
  8
0
 62
     0
380
     1
100
AcDbLine
 10
7.810224523925683
 20
6.26067326365802
 30
0.0
 11
8.807798863261893
 21
7.258247602994231
 31
0.0
  0
LINE
  5
12EF
330
1173
100
AcDbEntity
  8
0
 62
     0
380
     1
100
AcDbLine
 10
10.3711055794806
 20
8.821554319212935
 30
0.0
 11
13.17455093978063
 21
11.62499967951297
 31
0.0
  0
LINE
  5
12F0
330
1173
100
AcDbEntity
  8
0
 62
     0
380
     1
100
AcDbLine
 10
5.908605579480621
 20
4.359054319212958
 30
0.0
 11
6.524550939780596
 21
4.974999679512933
 31
0.0
  0
LINE
  5
12F1
330
1173
100
AcDbEntity
  8
0
 62
     0
380
     1
100
AcDbLine
 10
7.597097109773329
 20
6.496558655559084
 30
0.0
 11
8.587046603434515
 21
7.48650814922027
 31
0.0
  0
LINE
  5
12F2
330
1173
100
AcDbEntity
  8
0
 62
     0
380
     1
100
AcDbLine
 10
10.37110557948063
 20
9.270567125266353
 30
0.0
 11
12.7255381337271
 21
11.62499967951285
 31
0.0
  0
LINE
  5
12F3
330
1173
100
AcDbEntity
  8
0
 62
     0
380
     1
100
AcDbLine
 10
5.943081540490538
 20
4.842543086276293
 30
0.0
 11
6.041062172717346
 21
4.940523718503101
 31
0.0
  0
LINE
  5
12F4
330
1173
100
AcDbEntity
  8
0
 62
     0
380
     1
100
AcDbLine
 10
10.38109313655891
 20
9.729567488398117
 30
0.0
 11
12.26653777059542
 21
11.61501212243465
 31
0.0
  0
LINE
  5
12F5
330
1173
100
AcDbEntity
  8
0
 62
     0
380
     1
100
AcDbLine
 10
7.372590706746592
 20
6.721065058585821
 30
0.0
 11
8.362540200407778
 21
7.711014552247007
 31
0.0
  0
LINE
  5
12F6
330
1173
100
AcDbEntity
  8
0
 62
     0
380
     1
100
AcDbLine
 10
10.53082485269181
 20
10.32831201058451
 30
0.0
 11
11.66779324840905
 21
11.46528040630176
 31
0.0
  0
LINE
  5
12F7
330
1173
100
AcDbEntity
  8
0
 62
     0
380
     1
100
AcDbLine
 10
7.148084303719855
 20
6.945571461612559
 30
0.0
 11
8.138033797381041
 21
7.935520955273744
 31
0.0
  0
LINE
  5
12F8
330
1173
100
AcDbEntity
  8
0
 62
     0
380
     1
100
AcDbLine
 10
6.923577900693146
 20
7.170077864639267
 30
0.0
 11
7.913527394354304
 21
8.160027358300396
 31
0.0
  0
LINE
  5
12F9
330
1173
100
AcDbEntity
  8
0
 62
     0
380
     1
100
AcDbLine
 10
6.699071497666409
 20
7.394584267666004
 30
0.0
 11
7.689020991327566
 21
8.384533761327134
 31
0.0
  0
LINE
  5
12FA
330
1173
100
AcDbEntity
  8
0
 62
     0
380
     1
100
AcDbLine
 10
6.474565094639672
 20
7.619090670692742
 30
0.0
 11
7.464514588300829
 21
8.609040164353871
 31
0.0
  0
LINE
  5
12FB
330
1173
100
AcDbEntity
  8
0
 62
     0
380
     1
100
AcDbLine
 10
8.631461297406417
 20
10.22499967951296
 30
0.0
 11
9.058605579480598
 21
10.65214396158714
 31
0.0
  0
LINE
  5
12FC
330
1173
100
AcDbEntity
  8
0
 62
     0
380
     1
100
AcDbLine
 10
6.250100348627
 20
7.843638730733545
 30
0.0
 11
7.240133170343227
 21
8.833671552449771
 31
0.0
  0
LINE
  5
12FD
330
1173
100
AcDbEntity
  8
0
 62
     0
380
     1
100
AcDbLine
 10
8.182448491352943
 20
10.2249996795129
 30
0.0
 11
9.058605579480655
 21
11.10115676764062
 31
0.0
  0
LINE
  5
12FE
330
1173
100
AcDbEntity
  8
0
 62
     0
380
     1
100
AcDbLine
 10
6.044366386351214
 20
8.086917574511147
 30
0.0
 11
7.075184729699259
 21
9.117735917859221
 31
0.0
  0
LINE
  5
12FF
330
1173
100
AcDbEntity
  8
0
 62
     0
380
     1
100
AcDbLine
 10
7.733435685299468
 20
10.2249996795129
 30
0.0
 11
9.015326129600083
 21
11.50689012381352
 31
0.0
  0
LINE
  5
1300
330
1173
100
AcDbEntity
  8
0
 62
     0
380
     1
100
AcDbLine
 10
5.87413608321998
 20
8.365700077433388
 30
0.0
 11
7.046105579480638
 21
9.537669573694074
 31
0.0
  0
LINE
  5
1301
330
1173
100
AcDbEntity
  8
0
 62
     0
380
     1
100
AcDbLine
 10
7.283189554660964
 20
10.22376635492785
 30
0.0
 11
8.684422879246056
 21
11.62499967951294
 31
0.0
  0
LINE
  5
1302
330
1173
100
AcDbEntity
  8
0
 62
     0
380
     1
100
AcDbLine
 10
5.743789435353932
 20
8.684366235620814
 30
0.0
 11
7.047338904065725
 21
9.987915704332635
 31
0.0
  0
LINE
  5
1303
330
1173
100
AcDbEntity
  8
0
 62
     0
380
     1
100
AcDbLine
 10
5.662883454229898
 20
9.052473060550227
 30
0.0
 11
8.23541007319261
 21
11.62499967951294
 31
0.0
  0
LINE
  5
1304
330
1173
100
AcDbEntity
  8
0
 62
     0
380
     1
100
AcDbLine
 10
5.646105579480661
 20
9.484707991854435
 30
0.0
 11
7.786397267139136
 21
11.62499967951294
 31
0.0
  0
LINE
  5
1305
330
1173
100
AcDbEntity
  8
0
 62
     0
380
     1
100
AcDbLine
 10
5.646105579480632
 20
9.933720797907909
 30
0.0
 11
7.33738446108569
 21
11.62499967951294
 31
0.0
  0
LINE
  5
1306
330
1173
100
AcDbEntity
  8
0
 62
     0
380
     1
100
AcDbLine
 10
5.6562015846998
 20
10.39282960918052
 30
0.0
 11
6.878275649813105
 21
11.61490367429383
 31
0.0
  0
ENDBLK
  5
1308
330
1173
100
AcDbEntity
  8
0
100
AcDbBlockEnd
  0
BLOCK
  5
13F7
330
13F0
100
AcDbEntity
  8
0
100
AcDbBlockBegin
  2
A$C4A2877E5
 70
     0
 10
0.0
 20
0.0
 30
0.0
  3
A$C4A2877E5
  1

  0
ARC
  5
13F1
330
13F0
100
AcDbEntity
  8
SEIHIN
100
AcDbCircle
 10
-0.0075719419960265
 20
-0.1286556284497919
 30
0.0
 40
1.25
100
AcDbArc
 50
359.5867620429297
 51
173.676798269825
  0
ARC
  5
13F2
330
13F0
100
AcDbEntity
  8
SEIHIN
100
AcDbCircle
 10
0.0000000000000213
 20
0.3459546852415087
 30
0.0
 40
1.25
100
AcDbArc
 50
190.031077120664
 51
348.1408820482196
  0
ARC
  5
13F3
330
13F0
100
AcDbEntity
  8
SEIHIN
100
AcDbCircle
 10
0.0000000000000213
 20
0.0
 30
0.0
 40
1.25
100
AcDbArc
 50
179.5867620429297
 51
353.676798269825
  0
LINE
  5
13F4
330
13F0
100
AcDbEntity
  8
CENTER L
  6
CENTER
 62
     1
 48
5.0
100
AcDbLine
 10
0.0000000000000213
 20
-2.963100000000082
 30
0.0
 11
-0.0000000000000355
 21
5.0
 31
0.0
  0
LINE
  5
13F5
330
13F0
100
AcDbEntity
  8
CENTER L
  6
CENTER
 62
     1
 48
5.0
100
AcDbLine
 10
3.147600000000032
 20
0.0
 30
0.0
 11
-3.702700000000255
 21
0.0
 31
0.0
  0
ENDBLK
  5
13F8
330
13F0
100
AcDbEntity
  8
0
100
AcDbBlockEnd
  0
ENDSEC
  0
SECTION
  2
ENTITIES
  0
POINT
  5
1A1
330
1A
100
AcDbEntity
  8
SUNPOU L
  6
Continuous
100
AcDbPoint
 10
205.9553251990115
 20
146.5650665787896
 30
0.0
  0
POINT
  5
1A2
330
1A
100
AcDbEntity
  8
SUNPOU L
  6
Continuous
100
AcDbPoint
 10
205.4553267650655
 20
145.6990402718312
 30
0.0
  0
ARC
  5
4B9
330
1A
100
AcDbEntity
  8
SEIHIN
  6
Continuous
 62
     3
 48
16.0
100
AcDbCircle
 10
210.9017042551004
 20
233.2103429544259
 30
0.0
 40
17.07525238466473
100
AcDbArc
 50
256.2795222401576
 51
283.7204777598423
  0
ARC
  5
4BA
330
1A
100
AcDbEntity
  8
SEIHIN
  6
Continuous
 62
     3
 48
16.0
100
AcDbCircle
 10
210.9017042551004
 20
182.0342429538569
 30
0.0
 40
17.07525238521743
100
AcDbArc
 50
76.27952224061047
 51
103.7204777593895
  0
LINE
  5
4BB
330
1A
100
AcDbEntity
  8
NOKITOI
  6
PHANTOM
 62
     8
 48
5.0
100
AcDbLine
 10
209.4736042479917
 20
94.52219295442608
 30
0.0
 11
202.0515042479916
 21
94.52229295442599
 31
0.0
  0
LINE
  5
4BC
330
1A
100
AcDbEntity
  8
NOKITOI
  6
PHANTOM
 62
     8
 48
5.0
100
AcDbLine
 10
208.3115042479917
 20
93.322292954426
 30
0.0
 11
203.2515042479917
 21
93.322292954426
 31
0.0
  0
ARC
  5
4BD
330
1A
100
AcDbEntity
  8
SEIHIN
  6
Continuous
 62
     3
 48
16.0
100
AcDbCircle
 10
207.4803029255369
 20
88.12229193442398
 30
0.0
 40
0.4999989799996821
100
AcDbArc
 50
270.0001515424836
 51
345.285751610183
  0
ARC
  5
4BE
330
1A
100
AcDbEntity
  8
NOKITOI
  6
PHANTOM
 62
     8
 48
5.0
100
AcDbCircle
 10
217.6358812316624
 20
85.45493719529135
 30
0.0
 40
12.19997101530972
100
AcDbArc
 50
139.8443138052131
 51
163.9780719705774
  0
ARC
  5
4BF
330
1A
100
AcDbEntity
  8
NOKITOI
  6
PHANTOM
 62
     8
 48
5.0
100
AcDbCircle
 10
217.6358083608616
 20
85.45479727039674
 30
0.0
 40
10.99994632941526
100
AcDbArc
 50
104.1244483036074
 51
168.6362598432799
  0
ARC
  5
4C0
330
1A
100
AcDbEntity
  8
SEIHIN
  6
Continuous
 62
     3
 48
16.0
100
AcDbCircle
 10
217.6358040930818
 20
85.45489278879298
 30
0.0
 40
9.999963980685128
100
AcDbArc
 50
108.5487324481538
 51
165.2832367158234
  0
ARC
  5
4C1
330
1A
100
AcDbEntity
  8
SEIHIN
  6
Continuous
 62
     3
 48
16.0
100
AcDbCircle
 10
207.101770588042
 20
88.62234228110752
 30
0.0
 40
4.500049327170574
100
AcDbArc
 50
269.999155341504
 51
343.2639353958926
  0
LINE
  5
4C2
330
1A
100
AcDbEntity
  8
SEIHIN
  6
Continuous
 62
     3
 48
16.0
100
AcDbLine
 10
210.0942042479916
 20
71.82229295442595
 30
0.0
 11
202.5515042479916
 21
71.82229295442595
 31
0.0
  0
LINE
  5
4C3
330
1A
100
AcDbEntity
  8
SEIHIN
  6
Continuous
 62
     3
 48
16.0
100
AcDbLine
 10
210.0942042479916
 20
67.32229295442595
 30
0.0
 11
202.5515042479916
 21
67.32229295442595
 31
0.0
  0
LINE
  5
4C4
330
1A
100
AcDbEntity
  8
SEIHIN
  6
Continuous
 62
     3
 48
16.0
100
AcDbLine
 10
182.5515042479916
 20
86.82229295442603
 30
0.0
 11
207.7144042479918
 21
86.82229295442603
 31
0.0
  0
DIMENSION
  5
4C5
330
1A
100
AcDbEntity
  8
SUNPOU
  6
Continuous
 62
     4
100
AcDbDimension
  2
*D1
 10
139.2516042479918
 20
156.1910940377458
 30
0.0
 11
187.4015027967317
 21
158.6910940377458
 31
0.0
 70
    32
 71
     5
 42
-1.0
  3
STANDARD
100
AcDbAlignedDimension
 13
235.5514013454715
 23
117.322292954426
 33
0.0
 14
139.2516042479918
 24
147.2222929544259
 34
0.0
100
AcDbRotatedDimension
1001
ACAD
1000
DSTYLE
1002
{
1070
   140
1040
3.0
1070
    74
1070
     0
1070
   172
1070
     1
1070
    73
1070
     0
1070
   272
1070
     2
1070
    77
1070
     3
1070
   173
1070
     1
1070
   147
1040
1.0
1070
    42
1040
3.0
1070
    44
1040
1.5
1070
    43
1040
7.0
1070
   271
1070
     0
1070
   178
1070
     4
1070
   177
1070
     4
1070
   176
1070
     4
1070
   141
1040
150.0
1070
     7
1000
_OPEN
1070
     6
1000
_OPEN
1070
    41
1040
3.0
1002
}
  0
LINE
  5
4C6
330
1A
100
AcDbEntity
  8
SEIHIN
  6
Continuous
 62
     3
 48
16.0
100
AcDbLine
 10
188.2086042551004
 20
205.6222429544258
 30
0.0
 11
218.3518042551004
 21
205.6223429544259
 31
0.0
  0
LINE
  5
4C7
330
1A
100
AcDbEntity
  8
SEIHIN
  6
Continuous
 62
     3
 48
16.0
100
AcDbLine
 10
188.2086042551004
 20
209.6222429544258
 30
0.0
 11
218.3518042551004
 21
209.6222429544258
 31
0.0
  0
LINE
  5
4C8
330
1A
100
AcDbEntity
  8
SEIHIN
  6
Continuous
 62
     3
 48
16.0
100
AcDbLine
 10
182.5517042551004
 20
201.1223429544259
 30
0.0
 11
220.5457042551003
 21
201.1222429544258
 31
0.0
  0
LINE
  5
4C9
330
1A
100
AcDbEntity
  8
SEIHIN
  6
Continuous
 62
     3
 48
16.0
100
AcDbLine
 10
182.5517042551004
 20
214.1223429544259
 30
0.0
 11
220.5457042551003
 21
214.1222429544259
 31
0.0
  0
LINE
  5
4CA
330
1A
100
AcDbEntity
  8
CENTER L
  6
CENTER
 62
     1
 48
5.0
100
AcDbLine
 10
132.2515042551004
 20
207.622350181814
 30
0.0
 11
255.5494042479917
 21
207.6222228787034
 31
0.0
  0
LINE
  5
4CB
330
1A
100
AcDbEntity
  8
CENTER L
  6
CENTER
 62
     1
 48
5.0
100
AcDbLine
 10
72.55147902912547
 20
61.66891843225805
 30
0.0
 11
72.55160424799182
 21
153.179992954426
 31
0.0
  0
LINE
  5
4CC
330
1A
100
AcDbEntity
  8
SEIHIN
  6
Continuous
 62
     3
 48
16.0
100
AcDbLine
 10
72.55148676490121
 20
128.1224929544259
 30
0.0
 11
77.05148676490127
 21
128.1224929544259
 31
0.0
  0
LINE
  5
4CD
330
1A
100
AcDbEntity
  8
SEIHIN
  6
Continuous
100
AcDbLine
 10
78.43808487178002
 20
128.6811929544259
 30
0.0
 11
66.6648886580224
 21
128.6811929544259
 31
0.0
  0
LINE
  5
4CE
330
1A
100
AcDbEntity
  8
SEIHIN
  6
Continuous
 62
     3
 48
16.0
100
AcDbLine
 10
79.05148676490127
 20
130.6224929544259
 30
0.0
 11
66.05148676490116
 21
130.6224929544259
 31
0.0
  0
LINE
  5
4CF
330
1A
100
AcDbEntity
  8
SEIHIN
  6
Continuous
 62
     3
 48
16.0
100
AcDbLine
 10
78.60068676490119
 20
125.3988929544259
 30
0.0
 11
75.10968676490121
 21
124.2727929544259
 31
0.0
  0
LINE
  5
4D0
330
1A
100
AcDbEntity
  8
SEIHIN
  6
Continuous
 62
     3
 48
16.0
100
AcDbLine
 10
78.36418676490128
 20
122.1506929544258
 30
0.0
 11
75.1794867649012
 21
122.4539929544259
 31
0.0
  0
LINE
  5
4D1
330
1A
100
AcDbEntity
  8
SEIHIN
  6
Continuous
 62
     3
 48
16.0
100
AcDbLine
 10
77.97308676490128
 20
120.6190929544259
 30
0.0
 11
75.03288676490128
 21
121.8795929544259
 31
0.0
  0
LINE
  5
4D2
330
1A
100
AcDbEntity
  8
SEIHIN
  6
Continuous
 62
     3
 48
16.0
100
AcDbLine
 10
72.55148676490121
 20
118.3224929544259
 30
0.0
 11
82.5514867649012
 21
118.3224929544259
 31
0.0
  0
LINE
  5
4D3
330
1A
100
AcDbEntity
  8
SEIHIN
  6
Continuous
 62
     3
 48
16.0
100
AcDbLine
 10
77.91468676490127
 20
126.8280929544259
 30
0.0
 11
74.85248676490126
 21
124.8086929544259
 31
0.0
  0
ARC
  5
4D4
330
1A
100
AcDbEntity
  8
SEIHIN
  6
Continuous
100
AcDbCircle
 10
76.80148676490124
 20
96.23644295442632
 30
0.0
 40
3.031250000000258
100
AcDbArc
 50
222.0750220508482
 51
317.9249779491517
  0
LINE
  5
4D5
330
1A
100
AcDbEntity
  8
SEIHIN
  6
Continuous
 62
     3
 48
16.0
100
AcDbLine
 10
72.55148676490121
 20
82.9222446166414
 30
0.0
 11
79.05148676490127
 21
82.92224461664138
 31
0.0
  0
LINE
  5
4D6
330
1A
100
AcDbEntity
  8
SEIHIN
  6
Continuous
 62
     3
 48
16.0
100
AcDbLine
 10
72.55148676490121
 20
84.12249295442594
 30
0.0
 11
76.80148676490127
 21
84.12199295442587
 31
0.0
  0
LINE
  5
4D7
330
1A
100
AcDbEntity
  8
SEIHIN
  6
Continuous
 62
     3
 48
16.0
100
AcDbLine
 10
72.55148676490121
 20
81.92224461664132
 30
0.0
 11
76.55148676490139
 21
81.92224461664132
 31
0.0
  0
ARC
  5
4D8
330
1A
100
AcDbEntity
  8
SEIHIN
  6
Continuous
 62
     3
 48
16.0
100
AcDbCircle
 10
76.80148676490127
 20
86.40949295442593
 30
0.0
 40
2.287590216800233
100
AcDbArc
 50
169.5988243086145
 51
10.40117569138549
  0
LINE
  5
4D9
330
1A
100
AcDbEntity
  8
SEIHIN
  6
Continuous
100
AcDbLine
 10
78.85148676490128
 20
84.1224181643018
 30
0.0
 11
66.25138676490128
 21
84.1224181643018
 31
0.0
  0
LINE
  5
4DA
330
1A
100
AcDbEntity
  8
SEIHIN
  6
Continuous
100
AcDbLine
 10
79.05148676490127
 20
82.9222446166414
 30
0.0
 11
66.05138676490129
 21
82.9222446166414
 31
0.0
  0
LINE
  5
4DB
330
1A
100
AcDbEntity
  8
SEIHIN
  6
Continuous
100
AcDbLine
 10
79.05154380684187
 20
67.32229295442595
 30
0.0
 11
66.05146195046843
 21
67.32229295442595
 31
0.0
  0
LINE
  5
4DC
330
1A
100
AcDbEntity
  8
SEIHIN
  6
Continuous
 62
     3
 48
16.0
100
AcDbLine
 10
74.55148676490122
 20
86.82249295442595
 30
0.0
 11
74.55148676490122
 21
118.3224929544259
 31
0.0
  0
LINE
  5
4DD
330
1A
100
AcDbEntity
  8
SEIHIN
  6
Continuous
 62
     3
 48
16.0
100
AcDbLine
 10
70.55148676490127
 20
86.82249295442595
 30
0.0
 11
70.55148676490127
 21
118.3224929544259
 31
0.0
  0
LINE
  5
4DE
330
1A
100
AcDbEntity
  8
SEIHIN
  6
Continuous
 62
     3
 48
16.0
100
AcDbLine
 10
66.05148676490116
 20
118.3224929544259
 30
0.0
 11
66.05148676490116
 21
86.82249295442595
 31
0.0
  0
LINE
  5
4DF
330
1A
100
AcDbEntity
  8
SEIHIN
  6
Continuous
 62
     3
 48
16.0
100
AcDbLine
 10
48.05150424799183
 20
85.37989295442605
 30
0.0
 11
48.05150424799183
 21
111.6800929544259
 31
0.0
  0
LINE
  5
4E0
330
1A
100
AcDbEntity
  8
SEIHIN
  6
Continuous
 62
     3
 48
16.0
100
AcDbLine
 10
63.55151020204413
 20
94.20519295442595
 30
0.0
 11
63.55158676490124
 21
118.3224929544259
 31
0.0
  0
LINE
  5
4E1
330
1A
100
AcDbEntity
  8
SEIHIN
  6
Continuous
 62
     3
 48
16.0
100
AcDbLine
 10
64.05146195046843
 20
69.32229295442595
 30
0.0
 11
64.05146195046846
 21
84.68060949637363
 31
0.0
  0
ARC
  5
4E2
330
1A
100
AcDbEntity
  8
SEIHIN
  6
Continuous
100
AcDbCircle
 10
66.05146195046843
 20
69.32229295442595
 30
0.0
 40
2.0
100
AcDbArc
 50
179.9999999999999
 51
270.0
  0
LINE
  5
4E3
330
1A
100
AcDbEntity
  8
SEIHIN
  6
Continuous
 62
     3
 48
16.0
100
AcDbLine
 10
49.05150424799184
 20
84.37989295442603
 30
0.0
 11
63.55150424799184
 21
84.37989295442603
 31
0.0
  0
ARC
  5
4E8
330
1A
100
AcDbEntity
  8
SEIHIN
  6
Continuous
 62
     3
 48
16.0
100
AcDbCircle
 10
49.05150424799184
 20
85.37989295442605
 30
0.0
 40
1.0
100
AcDbArc
 50
180.0
 51
270.0
  0
ARC
  5
4E9
330
1A
100
AcDbEntity
  8
SEIHIN
  6
Continuous
100
AcDbCircle
 10
44.56114901662068
 20
90.51390324124964
 30
0.0
 40
19.34578604501347
100
AcDbArc
 50
348.9998181086365
 51
10.99981810863648
  0
ARC
  5
4EA
330
1A
100
AcDbEntity
  8
SEIHIN
  6
Continuous
 62
     3
 48
16.0
100
AcDbCircle
 10
68.30148676490122
 20
86.40959295442595
 30
0.0
 40
2.287572164981949
100
AcDbArc
 50
169.6012878060621
 51
10.39871219393786
  0
LINE
  5
4EB
330
1A
100
AcDbEntity
  8
SEIHIN
  6
Continuous
 62
     3
 48
16.0
100
AcDbLine
 10
72.55148676490121
 20
82.9222446166414
 30
0.0
 11
66.05138676490129
 21
82.9222446166414
 31
0.0
  0
ARC
  5
4EC
330
1A
100
AcDbEntity
  8
SEIHIN
  6
Continuous
 48
16.0
100
AcDbCircle
 10
66.25138676490128
 20
85.12241816430181
 30
0.0
 40
1.0
100
AcDbArc
 50
180.0
 51
270.0
  0
ARC
  5
4ED
330
1A
100
AcDbEntity
  8
SEIHIN
  6
Continuous
100
AcDbCircle
 10
66.05138676490129
 20
84.92224461664141
 30
0.0
 40
2.0
100
AcDbArc
 50
180.0
 51
270.0
  0
LINE
  5
4EE
330
1A
100
AcDbEntity
  8
SEIHIN
  6
Continuous
 62
     3
 48
16.0
100
AcDbLine
 10
66.05148676490116
 20
86.82249295442595
 30
0.0
 11
63.55148676490127
 21
86.82249295442595
 31
0.0
  0
LINE
  5
4EF
330
1A
100
AcDbEntity
  8
SEIHIN
  6
Continuous
 62
     3
 48
16.0
100
AcDbLine
 10
64.05138676490129
 20
84.92224461664141
 30
0.0
 11
64.05138676490129
 21
86.82249295442595
 31
0.0
  0
LINE
  5
4F0
330
1A
100
AcDbEntity
  8
SEIHIN
  6
Continuous
 62
     3
 48
16.0
100
AcDbLine
 10
61.58820424799184
 20
88.03579295442601
 30
0.0
 11
63.55150424799184
 21
89.34469295442603
 31
0.0
  0
LINE
  5
4F1
330
1A
100
AcDbEntity
  8
SEIHIN
  6
Continuous
 62
     3
 48
16.0
100
AcDbLine
 10
61.58820424799184
 20
88.03579295442601
 30
0.0
 11
64.05150424799185
 21
86.39359295442595
 31
0.0
  0
LINE
  5
4F2
330
1A
100
AcDbEntity
  8
SEIHIN
  6
Continuous
 62
     3
 48
16.0
100
AcDbLine
 10
65.25138676490128
 20
85.12241816430181
 30
0.0
 11
65.25138676490128
 21
86.82249295442595
 31
0.0
  0
LINE
  5
4F3
330
1A
100
AcDbEntity
  8
SEIHIN
  6
Continuous
 62
     3
 48
16.0
100
AcDbLine
 10
72.55148676490121
 20
81.92224461664132
 30
0.0
 11
68.55148676490121
 21
81.92224461664132
 31
0.0
  0
LINE
  5
4F4
330
1A
100
AcDbEntity
  8
SEIHIN
  6
Continuous
 62
     3
 48
16.0
100
AcDbLine
 10
68.55148676490121
 20
81.92224461664132
 30
0.0
 11
68.55148676490121
 21
82.9222446166414
 31
0.0
  0
LINE
  5
4F5
330
1A
100
AcDbEntity
  8
SEIHIN
  6
Continuous
 62
     3
 48
16.0
100
AcDbLine
 10
72.55148676490121
 20
84.12249295442594
 30
0.0
 11
68.30148676490122
 21
84.12199295442587
 31
0.0
  0
LINE
  5
4F6
330
1A
100
AcDbEntity
  8
SEIHIN
  6
Continuous
 62
     3
 48
16.0
100
AcDbLine
 10
72.55148676490121
 20
86.82249295442595
 30
0.0
 11
70.55148676490127
 21
86.82249295442595
 31
0.0
  0
LINE
  5
4F7
330
1A
100
AcDbEntity
  8
SEIHIN
  6
Continuous
 62
     3
 48
16.0
100
AcDbLine
 10
72.55148676490121
 20
86.82249295442595
 30
0.0
 11
74.55148676490122
 21
86.82249295442595
 31
0.0
  0
ARC
  5
4F8
330
1A
100
AcDbEntity
  8
SEIHIN
  6
Continuous
100
AcDbCircle
 10
68.30148676490118
 20
96.23644295442632
 30
0.0
 40
3.031250000000258
100
AcDbArc
 50
222.0750220508483
 51
317.9249779491518
  0
LINE
  5
4F9
330
1A
100
AcDbEntity
  8
SEIHIN
  6
Continuous
 62
     3
 48
16.0
100
AcDbLine
 10
63.55148676490127
 20
94.20519295442595
 30
0.0
 11
66.05148676490116
 21
94.20519295442595
 31
0.0
  0
LINE
  5
4FA
330
1A
100
AcDbEntity
  8
SEIHIN
  6
Continuous
 62
     3
 48
16.0
100
AcDbLine
 10
70.55148676490127
 20
94.20519295442595
 30
0.0
 11
72.55148676490121
 21
94.20519295442595
 31
0.0
  0
LINE
  5
4FB
330
1A
100
AcDbEntity
  8
SEIHIN
  6
Continuous
 62
     3
 48
16.0
100
AcDbLine
 10
74.55148676490122
 20
94.20519295442595
 30
0.0
 11
72.55148676490121
 21
94.20519295442595
 31
0.0
  0
ARC
  5
4FC
330
1A
100
AcDbEntity
  8
SEIHIN
  6
Continuous
 62
     3
 48
16.0
100
AcDbCircle
 10
75.01758605601385
 20
124.558290381435
 30
0.0
 40
0.3000155245999117
100
AcDbArc
 50
123.3877677239414
 51
205.8045268241577
  0
ARC
  5
4FD
330
1A
100
AcDbEntity
  8
SEIHIN
  6
Continuous
 62
     3
 48
16.0
100
AcDbCircle
 10
70.08537638139377
 20
124.5583306630853
 30
0.0
 40
0.3000430472487118
100
AcDbArc
 50
334.1894701277514
 51
56.59028629094067
  0
LINE
  5
4FE
330
1A
100
AcDbEntity
  8
SEIHIN
  6
Continuous
 62
     3
 48
16.0
100
AcDbLine
 10
66.50238676490132
 20
125.3988929544259
 30
0.0
 11
69.99328676490121
 21
124.2727929544259
 31
0.0
  0
LINE
  5
4FF
330
1A
100
AcDbEntity
  8
SEIHIN
  6
Continuous
 62
     3
 48
16.0
100
AcDbLine
 10
62.55148676490127
 20
147.1224929544259
 30
0.0
 11
62.55148676490127
 21
118.3224929544259
 31
0.0
  0
LINE
  5
500
330
1A
100
AcDbEntity
  8
SEIHIN
  6
Continuous
 62
     3
 48
16.0
100
AcDbLine
 10
49.05150424799184
 20
112.234392954426
 30
0.0
 11
63.55150424799184
 21
112.234492954426
 31
0.0
  0
LINE
  5
501
330
1A
100
AcDbEntity
  8
SEIHIN
  6
Continuous
 62
     3
 48
16.0
100
AcDbLine
 10
49.05150424799184
 20
112.680092954426
 30
0.0
 11
63.55150424799184
 21
112.680092954426
 31
0.0
  0
ARC
  5
505
330
1A
100
AcDbEntity
  8
SEIHIN
  6
Continuous
 62
     3
 48
16.0
100
AcDbCircle
 10
49.05150424799184
 20
111.680092954426
 30
0.0
 40
1.000000000000042
100
AcDbArc
 50
90.00000000000245
 51
180.0000000000024
  0
ARC
  5
506
330
1A
100
AcDbEntity
  8
SEIHIN
  6
Continuous
 62
     3
 48
16.0
100
AcDbCircle
 10
49.05150424799184
 20
111.234392954426
 30
0.0
 40
1.0
100
AcDbArc
 50
90.0
 51
180.0
  0
LINE
  5
508
330
1A
100
AcDbEntity
  8
SEIHIN
  6
Continuous
 62
     3
 48
16.0
100
AcDbLine
 10
61.58820424799184
 20
108.5823929544259
 30
0.0
 11
63.55150424799184
 21
107.273592954426
 31
0.0
  0
LINE
  5
509
330
1A
100
AcDbEntity
  8
SEIHIN
  6
Continuous
 62
     3
 48
16.0
100
AcDbLine
 10
63.55150424799184
 20
109.8912929544259
 30
0.0
 11
61.58820424799184
 21
108.5823929544259
 31
0.0
  0
LINE
  5
50A
330
1A
100
AcDbEntity
  8
SEIHIN
  6
Continuous
 62
     3
 48
16.0
100
AcDbLine
 10
66.73888676490129
 20
122.1506929544258
 30
0.0
 11
69.92348676490128
 21
122.4539929544259
 31
0.0
  0
LINE
  5
50B
330
1A
100
AcDbEntity
  8
SEIHIN
  6
Continuous
 62
     3
 48
16.0
100
AcDbLine
 10
67.12988676490126
 20
120.6190929544259
 30
0.0
 11
70.07008676490126
 21
121.8795929544259
 31
0.0
  0
LINE
  5
50C
330
1A
100
AcDbEntity
  8
SEIHIN
  6
Continuous
 62
     3
 48
16.0
100
AcDbLine
 10
72.55148676490121
 20
118.3224929544259
 30
0.0
 11
62.55148676490127
 21
118.3224929544259
 31
0.0
  0
LINE
  5
50D
330
1A
100
AcDbEntity
  8
SEIHIN
  6
Continuous
 62
     3
 48
16.0
100
AcDbLine
 10
63.55148676490127
 20
114.3226929544259
 30
0.0
 11
63.55148676490127
 21
118.3224929544259
 31
0.0
  0
ARC
  5
50E
330
1A
100
AcDbEntity
  8
SEIHIN
  6
Continuous
 62
     3
 48
16.0
100
AcDbCircle
 10
66.81461890067449
 20
121.3543264499189
 30
0.0
 40
0.7999763240926829
100
AcDbArc
 50
194.2586229597526
 51
293.2096365854149
  0
ARC
  5
50F
330
1A
100
AcDbEntity
  8
SEIHIN
  6
Continuous
 62
     3
 48
16.0
100
AcDbCircle
 10
66.81467360051108
 20
121.3542742608557
 30
0.0
 40
0.8000164872799842
100
AcDbArc
 50
95.43587150629416
 51
194.2540355357124
  0
ARC
  5
510
330
1A
100
AcDbEntity
  8
SEIHIN
  6
Continuous
 62
     3
 48
16.0
100
AcDbCircle
 10
72.55148676490127
 20
122.9562929544259
 30
0.0
 40
1.0
100
AcDbArc
 50
180.0
 51
0.0
  0
ARC
  5
511
330
1A
100
AcDbEntity
  8
SEIHIN
  6
Continuous
 62
     3
 48
16.0
100
AcDbCircle
 10
72.55148676490127
 20
122.9562929544259
 30
0.0
 40
1.0
100
AcDbArc
 50
0.0
 51
180.0
  0
ARC
  5
512
330
1A
100
AcDbEntity
  8
SEIHIN
  6
Continuous
 62
     3
 48
16.0
100
AcDbCircle
 10
69.95185380735837
 20
122.1553172170627
 30
0.0
 40
0.3000198079914623
100
AcDbArc
 50
11.84348477016939
 51
95.42545266668946
  0
ARC
  5
513
330
1A
100
AcDbEntity
  8
SEIHIN
  6
Continuous
 62
     3
 48
16.0
100
AcDbCircle
 10
69.95189513147058
 20
122.1553090454539
 30
0.0
 40
0.299981041175569
100
AcDbArc
 50
293.2034348480801
 51
11.84663221982885
  0
ARC
  5
514
330
1A
100
AcDbEntity
  8
SEIHIN
  6
Continuous
 62
     3
 48
16.0
100
AcDbCircle
 10
70.08540743215589
 20
124.5583017944541
 30
0.0
 40
0.3000025251054667
100
AcDbArc
 50
252.1174788821511
 51
334.1918515621318
  0
ARC
  5
515
330
1A
100
AcDbEntity
  8
SEIHIN
  6
Continuous
 62
     3
 48
16.0
100
AcDbCircle
 10
75.15111972244411
 20
122.1553172170627
 30
0.0
 40
0.3000198079914624
100
AcDbArc
 50
84.57454733331053
 51
168.1565152298305
  0
ARC
  5
516
330
1A
100
AcDbEntity
  8
SEIHIN
  6
Continuous
 62
     3
 48
16.0
100
AcDbCircle
 10
75.1510783983319
 20
122.155309045454
 30
0.0
 40
0.2999810411755898
100
AcDbArc
 50
168.1533677801787
 51
246.7965651519275
  0
ARC
  5
517
330
1A
100
AcDbEntity
  8
SEIHIN
  6
Continuous
 62
     3
 48
16.0
100
AcDbCircle
 10
75.01756609764654
 20
124.5583017944541
 30
0.0
 40
0.3000025251054921
100
AcDbArc
 50
205.8081484378691
 51
287.8825211178544
  0
LINE
  5
518
330
1A
100
AcDbEntity
  8
SEIHIN
  6
Continuous
 62
     3
 48
16.0
100
AcDbLine
 10
66.05148676490116
 20
130.1224929544259
 30
0.0
 11
66.05158676490124
 21
146.1224929544258
 31
0.0
  0
LINE
  5
519
330
1A
100
AcDbEntity
  8
SEIHIN
  6
Continuous
 62
     3
 48
16.0
100
AcDbLine
 10
72.55158676490125
 20
128.1224929544259
 30
0.0
 11
68.05148676490121
 21
128.1224929544259
 31
0.0
  0
LINE
  5
51A
330
1A
100
AcDbEntity
  8
SEIHIN
  6
Continuous
 62
     3
 48
16.0
100
AcDbLine
 10
67.18838676490124
 20
126.8280929544259
 30
0.0
 11
70.2505867649012
 21
124.8087929544259
 31
0.0
  0
ARC
  5
51B
330
1A
100
AcDbEntity
  8
SEIHIN
  6
Continuous
 62
     3
 48
16.0
100
AcDbCircle
 10
66.74793303829229
 20
126.1602819783844
 30
0.0
 40
0.7999818654227617
100
AcDbArc
 50
56.59321228744
 51
146.4938675945977
  0
ARC
  5
51C
330
1A
100
AcDbEntity
  8
SEIHIN
  6
Continuous
 62
     3
 48
16.0
100
AcDbCircle
 10
68.05148676490121
 20
130.1224929544259
 30
0.0
 40
2.000000000000014
100
AcDbArc
 50
180.0000000000004
 51
270.0000000000004
  0
ARC
  5
51D
330
1A
100
AcDbEntity
  8
SEIHIN
  6
Continuous
 62
     3
 48
16.0
100
AcDbCircle
 10
66.74798888556781
 20
126.1602869019413
 30
0.0
 40
0.8000257152047899
100
AcDbArc
 50
146.4963695173485
 51
252.1219052572798
  0
LINE
  5
51E
330
1A
100
AcDbEntity
  8
SEIHIN
  6
Continuous
 62
     3
 48
16.0
100
AcDbLine
 10
65.05158676490125
 20
147.1224929544259
 30
0.0
 11
62.55148676490127
 21
147.1224929544259
 31
0.0
  0
ARC
  5
51F
330
1A
100
AcDbEntity
  8
SEIHIN
  6
Continuous
 62
     3
 48
16.0
100
AcDbCircle
 10
65.05158676490125
 20
146.1224929544258
 30
0.0
 40
1.000000000000028
100
AcDbArc
 50
359.9999999999984
 51
89.99999999999836
  0
DIMENSION
  5
520
330
1A
100
AcDbEntity
  8
SUNPOU
100
AcDbDimension
  2
*D2
 10
120.7115493778502
 20
87.62229295442605
 30
0.0
 11
118.2115493778502
 21
117.422292954426
 31
0.0
 70
    32
 71
     5
 42
-1.0
  3
STANDARD
100
AcDbAlignedDimension
 13
139.2516042479918
 23
147.2222929544259
 33
0.0
 14
157.6227042479918
 24
87.62229295442605
 34
0.0
 50
90.0
100
AcDbRotatedDimension
1001
ACAD
1000
DSTYLE
1002
{
1070
   140
1040
3.0
1070
    74
1070
     0
1070
   172
1070
     1
1070
    73
1070
     0
1070
   272
1070
     2
1070
    77
1070
     3
1070
   173
1070
     1
1070
   147
1040
1.0
1070
    42
1040
3.0
1070
    44
1040
1.5
1070
    43
1040
7.0
1070
   271
1070
     0
1070
   178
1070
     4
1070
   177
1070
     4
1070
   176
1070
     4
1070
   141
1040
150.0
1070
     7
1000
_OPEN
1070
     6
1000
_OPEN
1070
    41
1040
3.0
1002
}
  0
LINE
  5
521
330
1A
100
AcDbEntity
  8
NOKITOI
  6
PHANTOM
 62
     8
 48
5.0
100
AcDbLine
 10
143.9679042479915
 20
126.422292954426
 30
0.0
 11
141.2516042479915
 21
126.422292954426
 31
0.0
  0
LINE
  5
522
330
1A
100
AcDbEntity
  8
NOKITOI
  6
PHANTOM
 62
     8
 48
5.0
100
AcDbLine
 10
140.0516042479915
 20
127.622292954426
 30
0.0
 11
144.9500042479915
 21
127.622292954426
 31
0.0
  0
LINE
  5
523
330
1A
100
AcDbEntity
  8
NOKITOI
  6
PHANTOM
 62
     8
 48
5.0
100
AcDbLine
 10
144.9066042479916
 20
121.822292954426
 30
0.0
 11
141.2516042479915
 21
121.822292954426
 31
0.0
  0
LINE
  5
524
330
1A
100
AcDbEntity
  8
NOKITOI
  6
PHANTOM
 62
     8
 48
5.0
100
AcDbLine
 10
140.0515042479916
 20
120.622292954426
 30
0.0
 11
145.1516042479916
 21
120.622292954426
 31
0.0
  0
LINE
  5
525
330
1A
100
AcDbEntity
  8
SEIHIN
  6
Continuous
 62
     3
 48
16.0
100
AcDbLine
 10
140.2516042479916
 20
118.322392954426
 30
0.0
 11
144.3962042479918
 21
118.322392954426
 31
0.0
  0
LINE
  5
526
330
1A
100
AcDbEntity
  8
SEIHIN
  6
Continuous
 62
     3
 48
16.0
100
AcDbLine
 10
145.0494042479917
 20
119.122292954426
 30
0.0
 11
140.5516042479917
 21
119.122392954426
 31
0.0
  0
LINE
  5
527
330
1A
100
AcDbEntity
  8
SEIHIN
  6
Continuous
 62
     3
 48
16.0
100
AcDbLine
 10
146.8314042479918
 20
94.88769295442605
 30
0.0
 11
142.0488042479918
 21
118.322392954426
 31
0.0
  0
LINE
  5
528
330
1A
100
AcDbEntity
  8
SEIHIN
  6
Continuous
 62
     3
 48
16.0
100
AcDbLine
 10
97.05150424799173
 20
85.37989295442605
 30
0.0
 11
97.05150424799173
 21
111.6800929544259
 31
0.0
  0
LINE
  5
529
330
1A
100
AcDbEntity
  8
SEIHIN
  6
Continuous
 62
     3
 48
16.0
100
AcDbLine
 10
79.05148676490127
 20
118.3224929544259
 30
0.0
 11
79.05148676490127
 21
86.82249295442595
 31
0.0
  0
LINE
  5
52A
330
1A
100
AcDbEntity
  8
SEIHIN
  6
Continuous
 62
     3
 48
16.0
100
AcDbLine
 10
81.55148676490126
 20
94.20519295442595
 30
0.0
 11
81.55148676490126
 21
118.3224929544259
 31
0.0
  0
LINE
  5
52B
330
1A
100
AcDbEntity
  8
SEIHIN
  6
Continuous
 62
     3
 48
16.0
100
AcDbLine
 10
81.0515438066967
 20
69.32226885745975
 30
0.0
 11
81.05172885194473
 21
84.68065434578816
 31
0.0
  0
ARC
  5
52C
330
1A
100
AcDbEntity
  8
SEIHIN
  6
Continuous
100
AcDbCircle
 10
79.05154380684187
 20
69.32229295442595
 30
0.0
 40
2.0
100
AcDbArc
 50
270.0
 51
359.9993096727688
  0
LINE
  5
52F
330
1A
100
AcDbEntity
  8
CENTER L
  6
CENTER
 62
     1
 48
5.0
100
AcDbLine
 10
96.05029703924563
 20
88.09358760383481
 30
0.0
 11
90.20173488565509
 21
88.09358760383481
 31
0.0
  0
LINE
  5
530
330
1A
100
AcDbEntity
  8
SEIHIN
  6
Continuous
 62
     3
 48
16.0
100
AcDbLine
 10
96.05150424799173
 20
84.37989295442603
 30
0.0
 11
81.55150424799172
 21
84.37989295442603
 31
0.0
  0
ARC
  5
531
330
1A
100
AcDbEntity
  8
SEIHIN
  6
Continuous
100
AcDbCircle
 10
100.5418362317532
 20
90.51384295442595
 30
0.0
 40
19.34578604491599
100
AcDbArc
 50
169.0
 51
191.0
  0
ARC
  5
532
330
1A
100
AcDbEntity
  8
SEIHIN
  6
Continuous
100
AcDbCircle
 10
78.85148676490128
 20
85.12241816430181
 30
0.0
 40
1.0
100
AcDbArc
 50
270.0
 51
0.0
  0
ARC
  5
533
330
1A
100
AcDbEntity
  8
SEIHIN
  6
Continuous
100
AcDbCircle
 10
79.05148676490127
 20
84.92224461664141
 30
0.0
 40
2.0
100
AcDbArc
 50
270.0
 51
0.0
  0
LINE
  5
534
330
1A
100
AcDbEntity
  8
SEIHIN
  6
Continuous
 62
     3
 48
16.0
100
AcDbLine
 10
76.55148676490139
 20
81.92224461664132
 30
0.0
 11
76.55148676490139
 21
82.9222446166414
 31
0.0
  0
LINE
  5
535
330
1A
100
AcDbEntity
  8
SEIHIN
  6
Continuous
 62
     3
 48
16.0
100
AcDbLine
 10
79.05148676490127
 20
86.82249295442595
 30
0.0
 11
81.55148676490126
 21
86.82249295442595
 31
0.0
  0
LINE
  5
536
330
1A
100
AcDbEntity
  8
SEIHIN
  6
Continuous
 62
     3
 48
16.0
100
AcDbLine
 10
79.85148676490128
 20
85.12241816430181
 30
0.0
 11
79.85148676490125
 21
86.82249295442595
 31
0.0
  0
LINE
  5
537
330
1A
100
AcDbEntity
  8
SEIHIN
  6
Continuous
 62
     3
 48
16.0
100
AcDbLine
 10
83.51490424799182
 20
88.03579295442601
 30
0.0
 11
81.05150424799184
 21
86.39359295442595
 31
0.0
  0
LINE
  5
538
330
1A
100
AcDbEntity
  8
SEIHIN
  6
Continuous
 62
     3
 48
16.0
100
AcDbLine
 10
83.51490424799182
 20
88.03579295442601
 30
0.0
 11
81.55150424799172
 21
89.34469295442603
 31
0.0
  0
LINE
  5
539
330
1A
100
AcDbEntity
  8
SEIHIN
  6
Continuous
 62
     3
 48
16.0
100
AcDbLine
 10
81.05148676490127
 20
84.92224461664141
 30
0.0
 11
81.05148676490127
 21
86.82249295442595
 31
0.0
  0
LINE
  5
53A
330
1A
100
AcDbEntity
  8
SEIHIN
  6
Continuous
 62
     3
 48
16.0
100
AcDbLine
 10
81.55148676490126
 20
94.20519295442595
 30
0.0
 11
79.05148676490127
 21
94.20519295442595
 31
0.0
  0
LINE
  5
53B
330
1A
100
AcDbEntity
  8
CENTER L
  6
CENTER
 62
     1
 48
5.0
100
AcDbLine
 10
93.05150424799172
 20
84.77302250664083
 30
0.0
 11
93.05150424799172
 21
90.77302250664081
 31
0.0
  0
ARC
  5
53C
330
1A
100
AcDbEntity
  8
SEIHIN
  6
Continuous
 62
     3
 48
16.0
100
AcDbCircle
 10
96.05150424799173
 20
85.37989295442605
 30
0.0
 40
1.0
100
AcDbArc
 50
270.0
 51
0.0
  0
LINE
  5
53D
330
1A
100
AcDbEntity
  8
SEIHIN
  6
Continuous
 62
     3
 48
16.0
100
AcDbLine
 10
82.5514867649012
 20
147.1224929544259
 30
0.0
 11
82.5514867649012
 21
118.3224929544259
 31
0.0
  0
LINE
  5
53E
330
1A
100
AcDbEntity
  8
CENTER L
  6
CENTER
 62
     1
 48
5.0
100
AcDbLine
 10
95.97578532478701
 20
108.9361082543689
 30
0.0
 11
90.12722317119642
 21
108.9361082543689
 31
0.0
  0
LINE
  5
541
330
1A
100
AcDbEntity
  8
SEIHIN
  6
Continuous
 62
     3
 48
16.0
100
AcDbLine
 10
96.05150424799173
 20
112.234392954426
 30
0.0
 11
81.55160424799182
 21
112.234492954426
 31
0.0
  0
LINE
  5
542
330
1A
100
AcDbEntity
  8
SEIHIN
  6
Continuous
 62
     3
 48
16.0
100
AcDbLine
 10
96.05150424799173
 20
112.680092954426
 30
0.0
 11
81.55160424799182
 21
112.680092954426
 31
0.0
  0
LINE
  5
543
330
1A
100
AcDbEntity
  8
SEIHIN
  6
Continuous
 62
     3
 48
16.0
100
AcDbLine
 10
83.51490424799182
 20
108.5823929544259
 30
0.0
 11
81.55160424799182
 21
107.2734929544259
 31
0.0
  0
LINE
  5
544
330
1A
100
AcDbEntity
  8
SEIHIN
  6
Continuous
 62
     3
 48
16.0
100
AcDbLine
 10
81.55160424799182
 20
109.8912929544259
 30
0.0
 11
83.51490424799182
 21
108.5823929544259
 31
0.0
  0
ARC
  5
545
330
1A
100
AcDbEntity
  8
SEIHIN
  6
Continuous
 62
     3
 48
16.0
100
AcDbCircle
 10
78.28835462912805
 20
121.3543264499189
 30
0.0
 40
0.7999763240926832
100
AcDbArc
 50
246.7903634145851
 51
345.7413770402474
  0
ARC
  5
546
330
1A
100
AcDbEntity
  8
SEIHIN
  6
Continuous
 62
     3
 48
16.0
100
AcDbCircle
 10
78.28829633451853
 20
121.3542793636742
 30
0.0
 40
0.8000212278168758
100
AcDbArc
 50
345.7456736522073
 51
84.55670800694489
  0
LINE
  5
547
330
1A
100
AcDbEntity
  8
CENTER L
  6
CENTER
 62
     1
 48
5.0
100
AcDbLine
 10
93.05150424799172
 20
105.2947610606321
 30
0.0
 11
93.05150424799172
 21
111.2947610606321
 31
0.0
  0
ARC
  5
548
330
1A
100
AcDbEntity
  8
SEIHIN
  6
Continuous
 62
     3
 48
16.0
100
AcDbCircle
 10
96.05150424799168
 20
111.680092954426
 30
0.0
 40
1.000000000000042
100
AcDbArc
 50
359.9999999999976
 51
89.99999999999756
  0
ARC
  5
549
330
1A
100
AcDbEntity
  8
SEIHIN
  6
Continuous
 62
     3
 48
16.0
100
AcDbCircle
 10
96.05150424799173
 20
111.234392954426
 30
0.0
 40
1.0
100
AcDbArc
 50
0.0
 51
90.0
  0
LINE
  5
54A
330
1A
100
AcDbEntity
  8
SEIHIN
  6
Continuous
 62
     3
 48
16.0
100
AcDbLine
 10
79.05148676490127
 20
130.1224929544259
 30
0.0
 11
79.05148676490127
 21
146.1224929544258
 31
0.0
  0
ARC
  5
54B
330
1A
100
AcDbEntity
  8
SEIHIN
  6
Continuous
 62
     3
 48
16.0
100
AcDbCircle
 10
77.05148676490127
 20
130.1224929544259
 30
0.0
 40
2.0
100
AcDbArc
 50
270.0
 51
0.0
  0
ARC
  5
54C
330
1A
100
AcDbEntity
  8
SEIHIN
  6
Continuous
 62
     3
 48
16.0
100
AcDbCircle
 10
78.35514049151022
 20
126.1602819783844
 30
0.0
 40
0.7999818654227227
100
AcDbArc
 50
33.50613240540168
 51
123.4067877125594
  0
ARC
  5
54D
330
1A
100
AcDbEntity
  8
SEIHIN
  6
Continuous
 62
     3
 48
16.0
100
AcDbCircle
 10
78.35508464423471
 20
126.1602869019413
 30
0.0
 40
0.800025715204779
100
AcDbArc
 50
287.8780947427192
 51
33.50363048265248
  0
LINE
  5
54E
330
1A
100
AcDbEntity
  8
SEIHIN
  6
Continuous
 62
     3
 48
16.0
100
AcDbLine
 10
80.05148676490128
 20
147.1224929544259
 30
0.0
 11
82.5514867649012
 21
147.1224929544259
 31
0.0
  0
ARC
  5
54F
330
1A
100
AcDbEntity
  8
SEIHIN
  6
Continuous
 62
     3
 48
16.0
100
AcDbCircle
 10
80.05148676490128
 20
146.1224929544258
 30
0.0
 40
1.000000000000028
100
AcDbArc
 50
90.00000000000161
 51
180.0000000000016
  0
LINE
  5
550
330
1A
100
AcDbEntity
  8
NOKITOI
  6
PHANTOM
 62
     8
 48
5.0
100
AcDbLine
 10
141.2516042479915
 20
126.422292954426
 30
0.0
 11
141.2516042479915
 21
121.822292954426
 31
0.0
  0
LINE
  5
551
330
1A
100
AcDbEntity
  8
NOKITOI
  6
PHANTOM
 62
     8
 48
5.0
100
AcDbLine
 10
140.0515042479916
 20
120.622292954426
 30
0.0
 11
140.0516042479915
 21
127.622292954426
 31
0.0
  0
LINE
  5
552
330
1A
100
AcDbEntity
  8
SEIHIN
  6
Continuous
 62
     3
 48
16.0
100
AcDbLine
 10
140.0516042479918
 20
119.622392954426
 30
0.0
 11
140.0516042479918
 21
147.2222929544259
 31
0.0
  0
LINE
  5
553
330
1A
100
AcDbEntity
  8
SEIHIN
  6
Continuous
 62
     3
 48
16.0
100
AcDbLine
 10
139.2516042479918
 20
119.3223929544259
 30
0.0
 11
139.2516042479918
 21
147.2222929544259
 31
0.0
  0
ARC
  5
554
330
1A
100
AcDbEntity
  8
SEIHIN
  6
Continuous
 62
     3
 48
16.0
100
AcDbCircle
 10
140.2516042479916
 20
119.3223929544259
 30
0.0
 40
0.9999999999999005
100
AcDbArc
 50
179.9999999999992
 51
269.9999999999992
  0
ARC
  5
555
330
1A
100
AcDbEntity
  8
SEIHIN
  6
Continuous
 62
     3
 48
16.0
100
AcDbCircle
 10
140.5516042479917
 20
119.622392954426
 30
0.0
 40
0.4999999999999432
100
AcDbArc
 50
179.9999999999935
 51
269.9999999999935
  0
LINE
  5
556
330
1A
100
AcDbEntity
  8
SEIHIN
  6
Continuous
 62
     3
 48
16.0
100
AcDbLine
 10
140.0516042479918
 20
147.2223929544259
 30
0.0
 11
139.2516042479918
 21
147.2223929544259
 31
0.0
  0
LINE
  5
557
330
1A
100
AcDbEntity
  8
NOKITOI
  6
PHANTOM
 62
     8
 48
5.0
100
AcDbLine
 10
144.9500042479915
 20
127.622292954426
 30
0.0
 11
151.1841042479916
 21
97.07489295442599
 31
0.0
  0
LINE
  5
558
330
1A
100
AcDbEntity
  8
NOKITOI
  6
PHANTOM
 62
     8
 48
5.0
100
AcDbLine
 10
145.1516042479916
 20
120.622292954426
 30
0.0
 11
150.1515042479917
 21
96.12229295442608
 31
0.0
  0
LINE
  5
559
330
1A
100
AcDbEntity
  8
SEIHIN
  6
Continuous
 62
     3
 48
16.0
100
AcDbLine
 10
145.5393042479918
 20
118.722292954426
 30
0.0
 11
150.3174042479918
 21
95.30949295442594
 31
0.0
  0
LINE
  5
55A
330
1A
100
AcDbEntity
  8
SEIHIN
  6
Continuous
 62
     3
 48
16.0
100
AcDbLine
 10
149.5685042479918
 20
94.97849295442604
 30
0.0
 11
144.8861042479917
 21
117.922292954426
 31
0.0
  0
LINE
  5
55B
330
1A
100
AcDbEntity
  8
SEIHIN
  6
Continuous
 62
     3
 48
16.0
100
AcDbLine
 10
174.5515042479916
 20
83.32229295442594
 30
0.0
 11
176.0515042479916
 21
81.82229295442594
 31
0.0
  0
LINE
  5
55C
330
1A
100
AcDbEntity
  8
NOKITOI
  6
PHANTOM
 62
     8
 48
5.0
100
AcDbLine
 10
182.5515042479916
 20
88.82229295442606
 30
0.0
 11
163.0515042479916
 21
88.82229295442606
 31
0.0
  0
LINE
  5
55D
330
1A
100
AcDbEntity
  8
NOKITOI
  6
PHANTOM
 62
     8
 48
5.0
100
AcDbLine
 10
158.2515042479917
 20
87.62229295442605
 30
0.0
 11
182.5515042479916
 21
87.62229295442605
 31
0.0
  0
LINE
  5
55E
330
1A
100
AcDbEntity
  8
SEIHIN
  6
Continuous
 62
     3
 48
16.0
100
AcDbLine
 10
157.6227042479918
 20
87.62229295442605
 30
0.0
 11
182.5515042479916
 21
87.62229295442605
 31
0.0
  0
LINE
  5
55F
330
1A
100
AcDbEntity
  8
SEIHIN
  6
Continuous
 62
     3
 48
16.0
100
AcDbLine
 10
182.5515042479916
 20
86.82229295442603
 30
0.0
 11
157.3886042479917
 21
86.82229295442603
 31
0.0
  0
LINE
  5
560
330
1A
100
AcDbEntity
  8
NOKITOI
  6
PHANTOM
 62
     8
 48
5.0
100
AcDbLine
 10
156.7915042479915
 20
93.322292954426
 30
0.0
 11
161.8515042479915
 21
93.322292954426
 31
0.0
  0
ARC
  5
561
330
1A
100
AcDbEntity
  8
NOKITOI
  6
PHANTOM
 62
     8
 48
5.0
100
AcDbCircle
 10
147.4672001351216
 20
85.45489727039687
 30
0.0
 40
10.99994632941524
100
AcDbArc
 50
11.36374015671925
 51
75.87555169639184
  0
ARC
  5
562
330
1A
100
AcDbEntity
  8
NOKITOI
  6
PHANTOM
 62
     8
 48
5.0
100
AcDbCircle
 10
147.4671998868661
 20
85.45490112573377
 30
0.0
 40
12.19993877054614
100
AcDbArc
 50
16.02263637925393
 51
40.15603560521631
  0
LINE
  5
563
330
1A
100
AcDbEntity
  8
NOKITOI
  6
PHANTOM
 62
     8
 48
5.0
100
AcDbLine
 10
155.6294042479916
 20
94.52229295442599
 30
0.0
 11
163.0515042479916
 21
94.52229295442599
 31
0.0
  0
LINE
  5
564
330
1A
100
AcDbEntity
  8
SEIHIN
  6
Continuous
 62
     3
 48
16.0
100
AcDbLine
 10
174.5515042479916
 20
84.12229295442596
 30
0.0
 11
158.0013042479918
 21
84.12229295442596
 31
0.0
  0
ARC
  5
565
330
1A
100
AcDbEntity
  8
SEIHIN
  6
Continuous
 62
     3
 48
16.0
100
AcDbCircle
 10
147.4671850346803
 20
85.45491361632478
 30
0.0
 40
9.199945293881473
100
AcDbArc
 50
13.42056006985055
 51
72.41807934622785
  0
ARC
  5
566
330
1A
100
AcDbEntity
  8
SEIHIN
  6
Continuous
 62
     3
 48
16.0
100
AcDbCircle
 10
147.467136253322
 20
85.45496565552953
 30
0.0
 40
10.0000113837652
100
AcDbArc
 50
14.71626029074812
 51
71.45094682161079
  0
ARC
  5
567
330
1A
100
AcDbEntity
  8
SEIHIN
  6
Continuous
 62
     3
 48
16.0
100
AcDbCircle
 10
147.4672445361432
 20
85.4548502574312
 30
0.0
 40
6.499985327065219
100
AcDbArc
 50
16.73592726149015
 51
69.93963638206
  0
ARC
  5
568
330
1A
100
AcDbEntity
  8
SEIHIN
  6
Continuous
 62
     3
 48
16.0
100
AcDbCircle
 10
158.0013216681186
 20
88.62228000161103
 30
0.0
 40
4.499987047218798
100
AcDbArc
 50
196.7341454561437
 51
269.9997781994179
  0
ARC
  5
569
330
1A
100
AcDbEntity
  8
SEIHIN
  6
Continuous
 62
     3
 48
16.0
100
AcDbCircle
 10
157.6227055704466
 20
88.12229193442403
 30
0.0
 40
0.4999989799997494
100
AcDbArc
 50
194.7142483898232
 51
269.999848457523
  0
ARC
  5
56A
330
1A
100
AcDbEntity
  8
SEIHIN
  6
Continuous
 62
     3
 48
16.0
100
AcDbCircle
 10
157.3886608823488
 20
87.82224824492702
 30
0.0
 40
0.9999552921047863
100
AcDbArc
 50
193.4187166855975
 51
269.9967549452753
  0
ARC
  5
56B
330
1A
100
AcDbEntity
  8
SEIHIN
  6
Continuous
 62
     3
 48
16.0
100
AcDbCircle
 10
150.8072743878521
 20
95.40952670918478
 30
0.0
 40
0.4999795055978849
100
AcDbArc
 50
191.5413864034267
 51
251.4608050493688
  0
ARC
  5
56C
330
1A
100
AcDbEntity
  8
SEIHIN
  6
Continuous
 62
     3
 48
16.0
100
AcDbCircle
 10
150.5483297396686
 20
95.17836461716738
 30
0.0
 40
1.000003337847755
100
AcDbArc
 50
191.5294153104519
 51
252.4147507121076
  0
ARC
  5
56D
330
1A
100
AcDbEntity
  8
SEIHIN
  6
Continuous
 62
     3
 48
16.0
100
AcDbCircle
 10
151.2405589272127
 20
95.7874294649571
 30
0.0
 40
4.500018974813129
100
AcDbArc
 50
191.5334857220102
 51
249.9368800496672
  0
ARC
  5
56E
330
1A
100
AcDbEntity
  8
NOKITOI
  6
PHANTOM
 62
     8
 48
5.0
100
AcDbCircle
 10
147.4671624610154
 20
85.45491694931504
 30
0.0
 40
12.19997945109428
100
AcDbArc
 50
48.00719042627341
 51
72.26181654227993
  0
LINE
  5
56F
330
1A
100
AcDbEntity
  8
NOKITOI
  6
PHANTOM
 62
     8
 48
5.0
100
AcDbLine
 10
163.0515042479916
 20
88.82229295442606
 30
0.0
 11
163.0515042479916
 21
94.52229295442599
 31
0.0
  0
LINE
  5
570
330
1A
100
AcDbEntity
  8
NOKITOI
  6
PHANTOM
 62
     8
 48
5.0
100
AcDbLine
 10
161.8515042479915
 20
88.82229295442606
 30
0.0
 11
161.8515042479915
 21
93.322292954426
 31
0.0
  0
LINE
  5
571
330
1A
100
AcDbEntity
  8
NOKITOI
  6
PHANTOM
 62
     8
 48
5.0
100
AcDbLine
 10
161.8515042479915
 20
88.82229295442606
 30
0.0
 11
159.1932042479915
 21
88.82229295442606
 31
0.0
  0
LINE
  5
572
330
1A
100
AcDbEntity
  8
SEIHIN
  6
Continuous
 62
     3
 48
16.0
100
AcDbLine
 10
174.5515042479916
 20
83.32229295442594
 30
0.0
 11
174.5515042479916
 21
86.82229295442603
 31
0.0
  0
LINE
  5
573
330
1A
100
AcDbEntity
  8
SEIHIN
  6
Continuous
 62
     3
 48
16.0
100
AcDbLine
 10
197.0515042479916
 20
77.32229295442595
 30
0.0
 11
197.0515042479916
 21
78.82229295442603
 31
0.0
  0
LINE
  5
574
330
1A
100
AcDbEntity
  8
SEIHIN
  6
Continuous
 62
     3
 48
16.0
100
AcDbLine
 10
192.5515042479916
 20
77.32229295442595
 30
0.0
 11
192.5515042479916
 21
78.82229295442603
 31
0.0
  0
LINE
  5
575
330
1A
100
AcDbEntity
  8
CENTER L
  6
CENTER
 62
     1
 48
5.0
100
AcDbLine
 10
182.5515042479916
 20
77.56559295442603
 30
0.0
 11
182.5515042479916
 21
99.37139295442605
 31
0.0
  0
ARC
  5
576
330
1A
100
AcDbEntity
  8
SEIHIN
  6
Continuous
 62
     3
 48
16.0
100
AcDbCircle
 10
202.5515042479916
 20
77.32229295442595
 30
0.0
 40
10.0
100
AcDbArc
 50
180.0
 51
270.0
  0
ARC
  5
577
330
1A
100
AcDbEntity
  8
SEIHIN
  6
Continuous
 62
     3
 48
16.0
100
AcDbCircle
 10
202.5515042479916
 20
77.32229295442595
 30
0.0
 40
5.5
100
AcDbArc
 50
180.0
 51
270.0
  0
ARC
  5
578
330
1A
100
AcDbEntity
  8
SEIHIN
  6
Continuous
 62
     3
 48
16.0
100
AcDbCircle
 10
189.5515042479917
 20
78.822292954426
 30
0.0
 40
2.999999999999957
100
AcDbArc
 50
0.0000000000008142
 51
90.00000000000081
  0
LINE
  5
579
330
1A
100
AcDbEntity
  8
NOKITOI
  6
PHANTOM
 62
     8
 48
5.0
100
AcDbLine
 10
206.8515042479915
 20
87.62229295442605
 30
0.0
 11
182.5515042479916
 21
87.62229295442605
 31
0.0
  0
LINE
  5
57A
330
1A
100
AcDbEntity
  8
NOKITOI
  6
PHANTOM
 62
     8
 48
5.0
100
AcDbLine
 10
182.5515042479916
 20
88.82229295442606
 30
0.0
 11
202.0515042479916
 21
88.82229295442606
 31
0.0
  0
LINE
  5
57B
330
1A
100
AcDbEntity
  8
SEIHIN
  6
Continuous
 62
     3
 48
16.0
100
AcDbLine
 10
207.4803042479918
 20
87.62229295442605
 30
0.0
 11
182.5515042479916
 21
87.62229295442605
 31
0.0
  0
ARC
  5
57C
330
1A
100
AcDbEntity
  8
SEIHIN
  6
Continuous
 62
     3
 48
16.0
100
AcDbCircle
 10
189.0515042479916
 20
78.82229295442603
 30
0.0
 40
8.0
100
AcDbArc
 50
0.0
 51
90.0
  0
LINE
  5
57D
330
1A
100
AcDbEntity
  8
SEIHIN
  6
Continuous
 62
     3
 48
16.0
100
AcDbLine
 10
182.5515042479916
 20
80.82229295442603
 30
0.0
 11
186.5515042479916
 21
80.82229295442603
 31
0.0
  0
LINE
  5
57E
330
1A
100
AcDbEntity
  8
SEIHIN
  6
Continuous
 62
     3
 48
16.0
100
AcDbLine
 10
176.0515042479916
 20
81.82229295442594
 30
0.0
 11
189.5515042479916
 21
81.82229295442594
 31
0.0
  0
LINE
  5
57F
330
1A
100
AcDbEntity
  8
SEIHIN
  6
Continuous
 62
     3
 48
16.0
100
AcDbLine
 10
182.5515042479916
 20
80.82229295442603
 30
0.0
 11
178.5515042479916
 21
80.82229295442603
 31
0.0
  0
LINE
  5
580
330
1A
100
AcDbEntity
  8
SEIHIN
  6
Continuous
 62
     3
 48
16.0
100
AcDbLine
 10
178.5515042479916
 20
80.82229295442603
 30
0.0
 11
178.5515042479916
 21
81.82229295442594
 31
0.0
  0
LINE
  5
581
330
1A
100
AcDbEntity
  8
SEIHIN
  6
Continuous
 62
     3
 48
16.0
100
AcDbLine
 10
186.5515042479916
 20
80.82229295442603
 30
0.0
 11
186.5515042479916
 21
81.82229295442594
 31
0.0
  0
LINE
  5
582
330
1A
100
AcDbEntity
  8
NOKITOI
  6
PHANTOM
 62
     8
 48
5.0
100
AcDbLine
 10
202.0515042479916
 20
88.82219295442597
 30
0.0
 11
202.0515042479916
 21
94.52229295442599
 31
0.0
  0
LINE
  5
583
330
1A
100
AcDbEntity
  8
NOKITOI
  6
PHANTOM
 62
     8
 48
5.0
100
AcDbLine
 10
203.2515042479917
 20
88.82229295442606
 30
0.0
 11
203.2515042479917
 21
93.322292954426
 31
0.0
  0
LINE
  5
584
330
1A
100
AcDbEntity
  8
SEIHIN
  6
Continuous
 62
     3
 48
16.0
100
AcDbLine
 10
195.0440042479916
 20
84.12229295442596
 30
0.0
 11
207.1017042479916
 21
84.12229295442596
 31
0.0
  0
LINE
  5
585
330
1A
100
AcDbEntity
  8
SEIHIN
  6
Continuous
 62
     3
 48
16.0
100
AcDbLine
 10
203.4803042479918
 20
87.62229295442605
 30
0.0
 11
195.0694042479918
 21
87.62229295442605
 31
0.0
  0
LINE
  5
586
330
1A
100
AcDbEntity
  8
NOKITOI
  6
PHANTOM
 62
     8
 48
5.0
100
AcDbLine
 10
203.2515042479917
 20
88.82229295442606
 30
0.0
 11
205.9098042479917
 21
88.82229295442606
 31
0.0
  0
LINE
  5
587
330
1A
100
AcDbEntity
  8
NOKITOI
  6
PHANTOM
 62
     8
 48
5.0
100
AcDbLine
 10
143.9679042479915
 20
126.422292954426
 30
0.0
 11
144.9066042479916
 21
121.822292954426
 31
0.0
  0
ARC
  5
588
330
1A
100
AcDbEntity
  8
SEIHIN
  6
Continuous
 62
     3
 48
16.0
100
AcDbCircle
 10
145.0494054788568
 20
118.622291949428
 30
0.0
 40
0.5000010049995821
100
AcDbArc
 50
11.53705306385929
 51
90.00014104647483
  0
ARC
  5
589
330
1A
100
AcDbEntity
  8
SEIHIN
  6
Continuous
 62
     3
 48
16.0
100
AcDbCircle
 10
144.3961932395485
 20
117.8224019445877
 30
0.0
 40
0.4999910099594517
100
AcDbArc
 50
11.5244224803684
 51
89.99873850264174
  0
LINE
  5
58A
330
1A
100
AcDbEntity
  8
SEIHIN
  6
Continuous
 62
     3
 48
16.0
100
AcDbLine
 10
150.1516042551004
 20
216.6223429544259
 30
0.0
 11
140.0517042551004
 21
216.6223429544259
 31
0.0
  0
LINE
  5
58B
330
1A
100
AcDbEntity
  8
SEIHIN
  6
Continuous
 62
     3
 48
16.0
100
AcDbLine
 10
150.1516042551004
 20
198.6223429544259
 30
0.0
 11
140.0517042551004
 21
198.6223429544259
 31
0.0
  0
LINE
  5
58C
330
1A
100
AcDbEntity
  8
SEIHIN
  6
Continuous
 62
     3
 48
16.0
100
AcDbLine
 10
139.2515042551004
 20
197.6223429544259
 30
0.0
 11
139.2515042551004
 21
217.6223429544259
 31
0.0
  0
LINE
  5
58D
330
1A
100
AcDbEntity
  8
SEIHIN
  6
Continuous
 62
     3
 48
16.0
100
AcDbLine
 10
140.0516042551003
 20
197.6223429544259
 30
0.0
 11
140.0516042551003
 21
217.6223429544259
 31
0.0
  0
DIMENSION
  5
58E
330
1A
100
AcDbEntity
  8
SUNPOU
  6
Continuous
100
AcDbDimension
  2
*D3
 10
120.7115493778502
 20
197.6223429544259
 30
0.0
 11
118.2115493778502
 21
207.6223429544259
 31
0.0
 70
    32
 71
     5
 42
-1.0
  3
STANDARD
100
AcDbAlignedDimension
 13
139.2516042551004
 23
217.6223429544259
 33
0.0
 14
139.2515042551004
 24
197.6223429544259
 34
0.0
 50
90.0
100
AcDbRotatedDimension
1001
ACAD
1000
DSTYLE
1002
{
1070
   140
1040
3.0
1070
    74
1070
     0
1070
   172
1070
     1
1070
    73
1070
     0
1070
   272
1070
     2
1070
    77
1070
     3
1070
   173
1070
     1
1070
   147
1040
1.0
1070
    42
1040
3.0
1070
    44
1040
1.5
1070
    43
1040
7.0
1070
   271
1070
     0
1070
   178
1070
     4
1070
   177
1070
     4
1070
   176
1070
     4
1070
   141
1040
150.0
1070
     7
1000
_OPEN
1070
     6
1000
_OPEN
1070
    41
1040
3.0
1002
}
  0
LINE
  5
58F
330
1A
100
AcDbEntity
  8
SEIHIN
  6
Continuous
 62
     3
 48
16.0
100
AcDbLine
 10
140.0516042551003
 20
197.6223429544259
 30
0.0
 11
139.2517042551003
 21
197.6223429544259
 31
0.0
  0
LINE
  5
590
330
1A
100
AcDbEntity
  8
SEIHIN
  6
Continuous
 62
     3
 48
16.0
100
AcDbLine
 10
140.0517042551004
 20
201.1223429544259
 30
0.0
 11
139.2517042551003
 21
201.1223429544259
 31
0.0
  0
LINE
  5
591
330
1A
100
AcDbEntity
  8
SEIHIN
  6
Continuous
 62
     3
 48
16.0
100
AcDbLine
 10
140.0517042551004
 20
214.1223429544259
 30
0.0
 11
139.2517042551003
 21
214.1223429544259
 31
0.0
  0
LINE
  5
592
330
1A
100
AcDbEntity
  8
SEIHIN
  6
Continuous
 62
     3
 48
16.0
100
AcDbLine
 10
140.0517042551004
 20
217.6223429544259
 30
0.0
 11
139.2517042551003
 21
217.6223429544259
 31
0.0
  0
LINE
  5
593
330
1A
100
AcDbEntity
  8
CENTER L
  6
CENTER
 62
     1
 48
5.0
100
AcDbLine
 10
182.5516042479916
 20
193.6223429544259
 30
0.0
 11
182.5516042479916
 21
219.8916929544258
 31
0.0
  0
LINE
  5
594
330
1A
100
AcDbEntity
  8
SEIHIN
  6
Continuous
 62
     3
 48
16.0
100
AcDbLine
 10
182.5516042551003
 20
201.1223429544259
 30
0.0
 11
145.7576042551004
 21
201.1223429544259
 31
0.0
  0
LINE
  5
595
330
1A
100
AcDbEntity
  8
SEIHIN
  6
Continuous
 62
     3
 48
16.0
100
AcDbLine
 10
182.5516042551003
 20
214.1223429544259
 30
0.0
 11
145.7576042551004
 21
214.1223429544259
 31
0.0
  0
LINE
  5
596
330
1A
100
AcDbEntity
  8
SEIHIN
  6
Continuous
 62
     3
 48
16.0
100
AcDbLine
 10
176.8947042551003
 20
209.6222429544258
 30
0.0
 11
145.7576042551004
 21
209.6223429544259
 31
0.0
  0
LINE
  5
597
330
1A
100
AcDbEntity
  8
SEIHIN
  6
Continuous
 62
     3
 48
16.0
100
AcDbLine
 10
176.8947042551003
 20
205.6223429544259
 30
0.0
 11
145.7576042551004
 21
205.6223429544259
 31
0.0
  0
LINE
  5
598
330
1A
100
AcDbEntity
  8
SEIHIN
  6
Continuous
 62
     3
 48
16.0
100
AcDbLine
 10
158.2516042551004
 20
198.6223429544259
 30
0.0
 11
206.8517042551004
 21
198.6223429544259
 31
0.0
  0
LINE
  5
599
330
1A
100
AcDbEntity
  8
SEIHIN
  6
Continuous
 62
     3
 48
16.0
100
AcDbLine
 10
158.2516042551004
 20
216.6223429544259
 30
0.0
 11
206.8517042551004
 21
216.6223429544259
 31
0.0
  0
LINE
  5
59A
330
1A
100
AcDbEntity
  8
SEIHIN
  6
Continuous
 62
     3
 48
16.0
100
AcDbLine
 10
150.1516042551005
 20
205.6223429544259
 30
0.0
 11
150.1516042551004
 21
209.6223288426429
 31
0.0
  0
LINE
  5
59B
330
1A
100
AcDbEntity
  8
SEIHIN
  6
Continuous
 62
     3
 48
16.0
100
AcDbLine
 10
158.2516042551004
 20
205.6223429544259
 30
0.0
 11
158.2516042551004
 21
209.6223028286595
 31
0.0
  0
LINE
  5
59C
330
1A
100
AcDbEntity
  8
SEIHIN
  6
Continuous
 62
     3
 48
16.0
100
AcDbLine
 10
145.5393042551004
 20
205.6223429544259
 30
0.0
 11
145.5393042551004
 21
209.6223436555189
 31
0.0
  0
ARC
  5
59D
330
1A
100
AcDbEntity
  8
SEIHIN
  6
Continuous
 62
     3
 48
16.0
100
AcDbCircle
 10
154.2016042551004
 20
182.0342429544258
 30
0.0
 40
17.07525238466474
100
AcDbArc
 50
76.27952224015759
 51
103.7204777598424
  0
LINE
  5
59E
330
1A
100
AcDbEntity
  8
SEIHIN
  6
Continuous
 62
     3
 48
16.0
100
AcDbLine
 10
150.1516042551004
 20
198.6223429544259
 30
0.0
 11
150.1516042551004
 21
201.1223429544259
 31
0.0
  0
LINE
  5
59F
330
1A
100
AcDbEntity
  8
SEIHIN
  6
Continuous
 62
     3
 48
16.0
100
AcDbLine
 10
145.5393042551004
 20
198.6223429544259
 30
0.0
 11
145.5393042551004
 21
201.1223429544259
 31
0.0
  0
ARC
  5
5A0
330
1A
100
AcDbEntity
  8
SEIHIN
  6
Continuous
 62
     3
 48
16.0
100
AcDbCircle
 10
145.5090042549791
 20
203.3723929544259
 30
0.0
 40
2.263642410488098
100
AcDbArc
 50
83.69488760908012
 51
276.3051123909199
  0
ARC
  5
5A1
330
1A
100
AcDbEntity
  8
SEIHIN
100
AcDbCircle
 10
151.0891172293853
 20
203.3723343049181
 30
0.0
 40
2.437512974286005
100
AcDbArc
 50
112.6200682624531
 51
247.3799317375469
  0
LINE
  5
5A2
330
1A
100
AcDbEntity
  8
SEIHIN
  6
Continuous
 62
     3
 48
16.0
100
AcDbLine
 10
158.2516042551004
 20
198.6223429544259
 30
0.0
 11
158.2516042551004
 21
201.1223429544259
 31
0.0
  0
ARC
  5
5A3
330
1A
100
AcDbEntity
  8
SEIHIN
100
AcDbCircle
 10
161.517743742705
 20
203.3723217806038
 30
0.0
 40
3.966139487604662
100
AcDbArc
 50
145.4373091409733
 51
214.5626908590267
  0
ARC
  5
5A4
330
1A
100
AcDbEntity
  8
SEIHIN
  6
Continuous
 62
     3
 48
16.0
100
AcDbCircle
 10
154.2016042551004
 20
233.2104429549948
 30
0.0
 40
17.07534953167501
100
AcDbArc
 50
256.2796018273882
 51
283.7203981726119
  0
ARC
  5
5A5
330
1A
100
AcDbEntity
  8
SEIHIN
100
AcDbCircle
 10
151.0891172293853
 20
211.8723343049181
 30
0.0
 40
2.437512974286005
100
AcDbArc
 50
112.6200682624531
 51
247.3799317375469
  0
ARC
  5
5A6
330
1A
100
AcDbEntity
  8
SEIHIN
  6
Continuous
 62
     3
 48
16.0
100
AcDbCircle
 10
145.5091042551004
 20
211.8722429544258
 30
0.0
 40
2.263581732564481
100
AcDbArc
 50
83.69726450926528
 51
276.3027354907347
  0
LINE
  5
5A7
330
1A
100
AcDbEntity
  8
SEIHIN
  6
Continuous
 62
     3
 48
16.0
100
AcDbLine
 10
145.5394042551003
 20
216.6223429544259
 30
0.0
 11
145.5393764773225
 21
214.1223429544259
 31
0.0
  0
LINE
  5
5A8
330
1A
100
AcDbEntity
  8
SEIHIN
  6
Continuous
 62
     3
 48
16.0
100
AcDbLine
 10
150.1516042551004
 20
216.6223429544259
 30
0.0
 11
150.1516042551004
 21
214.1223429544259
 31
0.0
  0
ARC
  5
5A9
330
1A
100
AcDbEntity
  8
SEIHIN
100
AcDbCircle
 10
161.517743742705
 20
211.8723217806038
 30
0.0
 40
3.966139487604662
100
AcDbArc
 50
145.4373091409733
 51
214.5626908590267
  0
LINE
  5
5AA
330
1A
100
AcDbEntity
  8
SEIHIN
  6
Continuous
 62
     3
 48
16.0
100
AcDbLine
 10
158.2516042551004
 20
216.6223429544259
 30
0.0
 11
158.2516042551004
 21
214.1223429544259
 31
0.0
  0
LINE
  5
5AB
330
1A
100
AcDbEntity
  8
SEIHIN
  6
Continuous
 62
     3
 48
16.0
100
AcDbLine
 10
180.5516042551003
 20
209.6223429544259
 30
0.0
 11
180.5516042551003
 21
205.6223429544259
 31
0.0
  0
LINE
  5
5AC
330
1A
100
AcDbEntity
  8
SEIHIN
  6
Continuous
 62
     3
 48
16.0
100
AcDbLine
 10
184.5517042551004
 20
209.6223429544259
 30
0.0
 11
184.5517042551004
 21
205.6223429544259
 31
0.0
  0
ARC
  5
5AD
330
1A
100
AcDbEntity
  8
SEIHIN
  6
Continuous
 62
     3
 48
16.0
100
AcDbCircle
 10
182.5516042479917
 20
207.6222929544259
 30
0.0
 40
5.999999999999914
100
AcDbArc
 50
180.0
 51
0.0
  0
CIRCLE
  5
5AE
330
1A
100
AcDbEntity
  8
SEIHIN
  6
Continuous
100
AcDbCircle
 10
182.5516042479916
 20
207.6222982477649
 30
0.0
 40
4.499999999991455
  0
LINE
  5
5AF
330
1A
100
AcDbEntity
  8
SEIHIN
  6
Continuous
 62
     3
 48
16.0
100
AcDbLine
 10
180.5516042551003
 20
205.6223429544259
 30
0.0
 11
184.5517042551004
 21
205.6223429544259
 31
0.0
  0
LINE
  5
5B0
330
1A
100
AcDbEntity
  8
SEIHIN
  6
Continuous
 62
     3
 48
16.0
100
AcDbLine
 10
180.5516042551003
 20
209.6223429544259
 30
0.0
 11
184.5517042551004
 21
209.6223429544259
 31
0.0
  0
ARC
  5
5B1
330
1A
100
AcDbEntity
  8
SEIHIN
  6
Continuous
 62
     3
 48
16.0
100
AcDbCircle
 10
182.5516042479917
 20
207.6222929544259
 30
0.0
 40
5.999999999999914
100
AcDbArc
 50
0.0
 51
180.0
  0
LINE
  5
5B2
330
1A
100
AcDbEntity
  8
SEIHIN
  6
Continuous
 62
     3
 48
16.0
100
AcDbLine
 10
206.8517042551004
 20
205.6223048028693
 30
0.0
 11
206.8517042551004
 21
209.6222429544258
 31
0.0
  0
LINE
  5
5B3
330
1A
100
AcDbEntity
  8
SEIHIN
  6
Continuous
 62
     3
 48
16.0
100
AcDbLine
 10
206.8517042551004
 20
198.6222429544258
 30
0.0
 11
206.8517042551004
 21
201.1222789969589
 31
0.0
  0
ARC
  5
5B4
330
1A
100
AcDbEntity
  8
SEIHIN
100
AcDbCircle
 10
203.5855749007978
 20
203.3722867816027
 30
0.0
 40
3.966129354302711
100
AcDbArc
 50
325.4372635983646
 51
34.56273640163535
  0
ARC
  5
5B5
330
1A
100
AcDbEntity
  8
SEIHIN
100
AcDbCircle
 10
203.5855749007978
 20
211.8722609756924
 30
0.0
 40
3.966129354302711
100
AcDbArc
 50
325.4372635983646
 51
34.56273640163535
  0
LINE
  5
5B6
330
1A
100
AcDbEntity
  8
SEIHIN
  6
Continuous
 62
     3
 48
16.0
100
AcDbLine
 10
206.8517042551004
 20
216.6223429544259
 30
0.0
 11
206.8517042551004
 21
214.122278996959
 31
0.0
  0
LINE
  5
5B7
330
1A
100
AcDbEntity
  8
SEIHIN
  6
Continuous
 62
     3
 48
16.0
100
AcDbLine
 10
335.0911296176596
 20
146.3654052659396
 30
0.0
 11
336.1125296176595
 21
147.8510052659395
 31
0.0
  0
LINE
  5
5B8
330
1A
100
AcDbEntity
  8
SEIHIN
  6
Continuous
 62
     3
 48
16.0
100
AcDbLine
 10
319.2326547680779
 20
146.7002016774328
 30
0.0
 11
331.8600617388359
 21
151.7508547363986
 31
0.0
  0
LINE
  5
5B9
330
1A
100
AcDbEntity
  8
SEIHIN
  6
Continuous
 62
     3
 48
16.0
100
AcDbLine
 10
316.8930296176595
 20
146.6257052659395
 30
0.0
 11
315.7788074398786
 21
149.4114344571519
 31
0.0
  0
LINE
  5
5BA
330
1A
100
AcDbEntity
  8
SEIHIN
  6
Continuous
 62
     3
 48
16.0
100
AcDbLine
 10
316.8929720251818
 20
149.8570729626649
 30
0.0
 11
329.89089421849
 21
117.359893770327
 31
0.0
  0
LEADER
  5
5BB
330
1A
100
AcDbEntity
  8
SUNPOU
  6
Continuous
 62
     4
100
AcDbLeader
  3
STANDARD
 73
     0
 40
3.0
 41
15.6
 76
     3
 10
307.2944090680115
 20
137.275828895905
 30
0.0
 10
292.3433790703015
 20
148.043430178622
 30
0.0
 10
289.426269677063
 20
148.043430178622
 30
0.0
1001
ACAD
1000
DSTYLE
1002
{
1070
     6
1000
OPEN
1070
    41
1040
3.0
1070
    42
1040
3.0
1070
    43
1040
7.0
1070
    44
1040
1.5
1070
    73
1070
     0
1070
    74
1070
     0
1070
    77
1070
     3
1070
   140
1040
3.0
1070
   141
1040
150.0
1070
   147
1040
1.0
1070
   172
1070
     1
1070
   173
1070
     1
1070
   176
1070
     4
1070
   177
1070
     4
1070
   178
1070
     4
1070
   271
1070
     0
1070
   272
1070
     2
1070
   341
1005
B2
1070
   343
1005
B2
1070
   344
1005
B2
1002
}
  0
LINE
  5
5BC
330
1A
100
AcDbEntity
  8
CENTER L
  6
CENTER
 62
     1
 48
5.0
100
AcDbLine
 10
338.8706296176597
 20
115.9123052659396
 30
0.0
 11
321.256962074335
 21
159.9496469122794
 31
0.0
  0
LINE
  5
5BD
330
1A
100
AcDbEntity
  8
SEIHIN
  6
Continuous
 62
     3
 48
16.0
100
AcDbLine
 10
359.1382296176596
 20
131.2119052659396
 30
0.0
 11
349.4827296176595
 21
155.3526052659395
 31
0.0
  0
DIMENSION
  5
5BE
330
1A
100
AcDbEntity
  8
SUNPOU
  6
Continuous
100
AcDbDimension
  2
*D4
 10
299.5532185415622
 20
159.0115763508322
 30
0.0
 11
317.6588117842655
 21
168.9458251799382
 31
0.0
 70
    33
 71
     5
 42
-1.0
  3
STANDARD
100
AcDbAlignedDimension
 13
345.0261026845802
 23
155.7240936216467
 33
0.0
 14
306.9580828494401
 24
140.4980274288756
 34
0.0
1001
ACAD
1000
DSTYLE
1002
{
1070
   140
1040
3.0
1070
    74
1070
     0
1070
   172
1070
     1
1070
    73
1070
     0
1070
   272
1070
     2
1070
    77
1070
     3
1070
   173
1070
     1
1070
   147
1040
1.0
1070
    42
1040
3.0
1070
    44
1040
1.5
1070
    43
1040
7.0
1070
   271
1070
     0
1070
   178
1070
     4
1070
   177
1070
     4
1070
   176
1070
     4
1070
   141
1040
150.0
1070
     7
1000
_OPEN
1070
     6
1000
_OPEN
1070
    41
1040
3.0
1002
}
  0
DIMENSION
  5
5BF
330
1A
100
AcDbEntity
  8
SUNPOU
  6
Continuous
100
AcDbDimension
  2
*D5
 10
292.1807168110587
 20
166.6733744954532
 30
0.0
 11
314.0002121109877
 21
178.0930658880382
 31
0.0
 70
    33
 71
     5
 42
-1.0
  3
STANDARD
100
AcDbAlignedDimension
 13
348.7400155236764
 23
157.2095404975297
 33
0.0
 14
303.244192783039
 24
139.0125896613455
 34
0.0
1001
ACAD
1000
DSTYLE
1002
{
1070
   140
1040
3.0
1070
    74
1070
     0
1070
   172
1070
     1
1070
    73
1070
     0
1070
   272
1070
     2
1070
    77
1070
     3
1070
   173
1070
     1
1070
   147
1040
1.0
1070
    42
1040
3.0
1070
    44
1040
1.5
1070
    43
1040
7.0
1070
   271
1070
     0
1070
   178
1070
     4
1070
   177
1070
     4
1070
   176
1070
     4
1070
   141
1040
150.0
1070
     7
1000
_OPEN
1070
     6
1000
_OPEN
1070
    41
1040
3.0
1002
}
  0
LINE
  5
5C0
330
1A
100
AcDbEntity
  8
CENTER L
  6
CENTER
 62
     1
 48
5.0
100
AcDbLine
 10
348.3683600945137
 20
147.3677288639036
 30
0.0
 11
345.3552296176597
 21
154.9012052659396
 31
0.0
  0
LINE
  5
5C1
330
1A
100
AcDbEntity
  8
SEIHIN
  6
Continuous
 62
     3
 48
16.0
100
AcDbLine
 10
331.3773491416699
 20
155.6504685315268
 30
0.0
 11
344.3753029533932
 21
123.1531719315558
 31
0.0
  0
LINE
  5
5C2
330
1A
100
AcDbEntity
  8
SEIHIN
  6
Continuous
 62
     3
 48
16.0
100
AcDbLine
 10
337.1330296176598
 20
120.2565052659396
 30
0.0
 11
358.0240296176596
 21
128.6122052659396
 31
0.0
  0
LINE
  5
5C3
330
1A
100
AcDbEntity
  8
SUNPOU
  6
Continuous
 62
     4
 48
16.0
100
AcDbLine
 10
260.8029178352686
 20
54.19120064417042
 30
0.0
 11
249.6778024209323
 21
82.00426912755592
 31
0.0
  0
LINE
  5
5C4
330
1A
100
AcDbEntity
  8
SUNPOU
  6
Continuous
100
AcDbLine
 10
256.8029178352686
 20
54.19120064417042
 30
0.0
 11
256.8029178352686
 21
64.19130129842324
 31
0.0
  0
LINE
  5
5C5
330
1A
100
AcDbEntity
  8
SUNPOU
  6
Continuous
100
AcDbLine
 10
260.8029178352686
 20
54.19120064417042
 30
0.0
 11
256.8029178352686
 21
54.19120064417042
 31
0.0
  0
TEXT
  5
5C6
330
1A
100
AcDbEntity
  8
SUNPOU
  6
Continuous
 62
     4
100
AcDbText
 10
257.6609466464999
 20
50.1445839433946
 30
0.0
 40
3.0
  1
4
100
AcDbText
  0
DIMENSION
  5
5C7
330
1A
100
AcDbEntity
  8
SUNPOU
100
AcDbDimension
  2
*D6
 10
273.6757549959993
 20
84.82529295442605
 30
0.0
 11
271.1757549959993
 21
106.223742954426
 31
0.0
 70
    32
 71
     5
 42
-1.0
  3
STANDARD
100
AcDbAlignedDimension
 13
225.0515042479916
 23
127.6221929544259
 33
0.0
 14
248.5494042479917
 24
84.82529295442605
 34
0.0
 50
90.0
100
AcDbRotatedDimension
1001
ACAD
1000
DSTYLE
1002
{
1070
   140
1040
3.0
1070
    74
1070
     0
1070
   172
1070
     1
1070
    73
1070
     0
1070
   272
1070
     2
1070
    77
1070
     3
1070
   173
1070
     1
1070
   147
1040
1.0
1070
    42
1040
3.0
1070
    44
1040
1.5
1070
    43
1040
7.0
1070
   271
1070
     0
1070
   178
1070
     4
1070
   177
1070
     4
1070
   176
1070
     4
1070
   141
1040
150.0
1070
     7
1000
_OPEN
1070
     6
1000
_OPEN
1070
    41
1040
3.0
1002
}
  0
LINE
  5
5C8
330
1A
100
AcDbEntity
  8
SEIHIN
  6
Continuous
 62
     3
 48
16.0
100
AcDbLine
 10
215.4831042479917
 20
76.22249295442604
 30
0.0
 11
222.2380042479918
 21
109.321892954426
 31
0.0
  0
LINE
  5
5C9
330
1A
100
AcDbEntity
  8
SEIHIN
  6
Continuous
 62
     3
 48
16.0
100
AcDbLine
 10
219.8922042479918
 20
75.32269295442604
 30
0.0
 11
226.6472042479916
 21
108.422092954426
 31
0.0
  0
LINE
  5
5CA
330
1A
100
AcDbEntity
  8
NOKITOI
  6
PHANTOM
 62
     8
 48
5.0
100
AcDbLine
 10
220.1531042479916
 20
127.6221929544259
 30
0.0
 11
213.9189042479916
 21
97.07479295442606
 31
0.0
  0
LINE
  5
5CB
330
1A
100
AcDbEntity
  8
SEIHIN
  6
Continuous
 62
     3
 48
16.0
100
AcDbLine
 10
218.2717042479918
 20
94.88759295442596
 30
0.0
 11
223.0542042479917
 21
118.322292954426
 31
0.0
  0
LINE
  5
5CC
330
1A
100
AcDbEntity
  8
NOKITOI
  6
PHANTOM
 62
     8
 48
5.0
100
AcDbLine
 10
219.9515042479916
 20
120.6221929544259
 30
0.0
 11
214.9515042479916
 21
96.12229295442608
 31
0.0
  0
LINE
  5
5CD
330
1A
100
AcDbEntity
  8
SEIHIN
  6
Continuous
 62
     3
 48
16.0
100
AcDbLine
 10
219.5637042479918
 20
118.722292954426
 30
0.0
 11
214.7856042479918
 21
95.30949295442594
 31
0.0
  0
LINE
  5
5CE
330
1A
100
AcDbEntity
  8
SEIHIN
  6
Continuous
 62
     3
 48
16.0
100
AcDbLine
 10
215.5345042479918
 20
94.97839295442604
 30
0.0
 11
220.2169042479918
 21
117.922292954426
 31
0.0
  0
LINE
  5
5CF
330
1A
100
AcDbEntity
  8
SEIHIN
  6
Continuous
 62
     3
 48
16.0
100
AcDbLine
 10
248.5494042479917
 20
84.82529295442605
 30
0.0
 11
236.8086042479918
 21
114.179092954426
 31
0.0
  0
LINE
  5
5D0
330
1A
100
AcDbEntity
  8
SEIHIN
  6
Continuous
 62
     3
 48
16.0
100
AcDbLine
 10
244.3712042479918
 20
83.15409295442597
 30
0.0
 11
233.0076042479916
 21
111.564992954426
 31
0.0
  0
DIMENSION
  5
5D1
330
1A
100
AcDbEntity
  8
SUNPOU
  6
Continuous
100
AcDbDimension
  2
*D7
 10
258.3363696551505
 20
88.73983905927003
 30
0.0
 11
255.087006543635
 21
103.5955568787619
 31
0.0
 70
    33
 71
     5
 42
-1.0
  3
STANDARD
100
AcDbAlignedDimension
 13
237.4082553057359
 23
112.6798733766451
 33
0.0
 14
248.5494042479917
 24
84.82529295442605
 34
0.0
1001
ACAD
1000
DSTYLE
1002
{
1070
   140
1040
3.0
1070
    74
1070
     0
1070
   172
1070
     1
1070
    73
1070
     0
1070
   272
1070
     2
1070
    77
1070
     3
1070
   173
1070
     1
1070
   147
1040
1.0
1070
    42
1040
3.0
1070
    44
1040
1.5
1070
    43
1040
7.0
1070
   271
1070
     0
1070
   178
1070
     4
1070
   177
1070
     4
1070
   176
1070
     4
1070
   141
1040
150.0
1070
     7
1000
_OPEN
1070
     6
1000
_OPEN
1070
    41
1040
3.0
1002
}
  0
LINE
  5
5D2
330
1A
100
AcDbEntity
  8
SEIHIN
  6
Continuous
 62
     3
 48
16.0
100
AcDbLine
 10
247.4352042479918
 20
84.37969295442604
 30
0.0
 11
235.2723527356724
 21
114.7887322279179
 31
0.0
  0
DIMENSION
  5
5D3
330
1A
100
AcDbEntity
  8
SUNPOU
  6
Continuous
 62
     4
100
AcDbDimension
  2
*D8
 10
267.2238434968514
 20
92.29461060096614
 30
0.0
 11
263.0460534052037
 21
109.4715382093485
 31
0.0
 70
    33
 71
     5
 42
-1.0
  3
STANDARD
100
AcDbAlignedDimension
 13
235.5514013454715
 23
117.322292954426
 33
0.0
 14
248.5494042479916
 24
84.82529295442605
 34
0.0
1001
ACAD
1000
DSTYLE
1002
{
1070
   140
1040
3.0
1070
    74
1070
     0
1070
   172
1070
     1
1070
    73
1070
     0
1070
   272
1070
     2
1070
    77
1070
     3
1070
   173
1070
     1
1070
   147
1040
1.0
1070
    42
1040
3.0
1070
    44
1040
1.5
1070
    43
1040
7.0
1070
   271
1070
     0
1070
   178
1070
     4
1070
   177
1070
     4
1070
   176
1070
     4
1070
   141
1040
150.0
1070
     7
1000
_OPEN
1070
     6
1000
_OPEN
1070
    41
1040
3.0
1002
}
  0
LINE
  5
5D4
330
1A
100
AcDbEntity
  8
CENTER L
  6
CENTER
 62
     1
 48
5.0
100
AcDbLine
 10
250.1075042479919
 20
89.75659295442595
 30
0.0
 11
238.4468042479916
 21
85.09259295442596
 31
0.0
  0
ARC
  5
5D5
330
1A
100
AcDbEntity
  8
SEIHIN
  6
Continuous
 62
     3
 48
16.0
100
AcDbCircle
 10
210.0941798814143
 20
77.32227305838653
 30
0.0
 40
9.99998010399025
100
AcDbArc
 50
270.0001396104819
 51
348.4654731291959
  0
ARC
  5
5D6
330
1A
100
AcDbEntity
  8
SEIHIN
  6
Continuous
 62
     3
 48
16.0
100
AcDbCircle
 10
210.0941932952652
 20
77.32228401122966
 30
0.0
 40
5.499991056814613
100
AcDbArc
 50
270.0001140992764
 51
348.4652434768605
  0
ARC
  5
5D7
330
1A
100
AcDbEntity
  8
SEIHIN
  6
Continuous
 62
     3
 48
16.0
100
AcDbCircle
 10
217.6358234613031
 20
85.45491361632478
 30
0.0
 40
9.199945293881471
100
AcDbArc
 50
107.5819206537721
 51
166.5794399301494
  0
ARC
  5
5D8
330
1A
100
AcDbEntity
  8
SEIHIN
  6
Continuous
 62
     3
 48
16.0
100
AcDbCircle
 10
217.6357860259693
 20
85.45487364261708
 30
0.0
 40
6.499970929582905
100
AcDbArc
 50
110.06061703185
 51
163.2651702928796
  0
ARC
  5
5D9
330
1A
100
AcDbEntity
  8
SEIHIN
  6
Continuous
 62
     3
 48
16.0
100
AcDbCircle
 10
207.7144092197244
 20
87.82229687941052
 30
0.0
 40
1.00000392499687
100
AcDbArc
 50
269.999715141826
 51
346.5790833450288
  0
ARC
  5
5DA
330
1A
100
AcDbEntity
  8
SEIHIN
  6
Continuous
 62
     3
 48
16.0
100
AcDbCircle
 10
213.862577915686
 20
95.78747849294972
 30
0.0
 40
4.500020999581774
100
AcDbArc
 50
290.0613708135616
 51
348.4645829542241
  0
ARC
  5
5DB
330
1A
100
AcDbEntity
  8
NOKITOI
  6
PHANTOM
 62
     8
 48
5.0
100
AcDbCircle
 10
217.6358460349679
 20
85.45481694931543
 30
0.0
 40
12.19997945109404
100
AcDbArc
 50
107.7381834577211
 51
131.9928095737274
  0
ARC
  5
5DC
330
1A
100
AcDbEntity
  8
SEIHIN
  6
Continuous
 62
     3
 48
16.0
100
AcDbCircle
 10
214.2956997444894
 20
95.40938786155949
 30
0.0
 40
0.499985414810425
100
AcDbArc
 50
288.5552087582586
 51
348.47499098649
  0
ARC
  5
5DD
330
1A
100
AcDbEntity
  8
SEIHIN
  6
Continuous
 62
     3
 48
16.0
100
AcDbCircle
 10
214.5546919510171
 20
95.17837928611296
 30
0.0
 40
1.000013334993314
100
AcDbArc
 50
287.5842747030421
 51
348.4639961970953
  0
DIMENSION
  5
5DE
330
1A
100
AcDbEntity
  8
SUNPOU
  6
Continuous
 62
     4
100
AcDbDimension
  2
*D9
 10
253.6992558088269
 20
71.9500477465035
 30
0.0
 11
262.9841284628498
 21
78.35638365703585
 31
0.0
 70
    33
  1
t<>
 71
     5
 42
-1.0
  3
STANDARD
100
AcDbAlignedDimension
 13
247.4352244768267
 23
84.37964237916135
 33
0.0
 14
248.5494042479917
 24
84.82529295442605
 34
0.0
1001
ACAD
1000
DSTYLE
1002
{
1070
   140
1040
3.0
1070
    74
1070
     0
1070
   172
1070
     1
1070
    73
1070
     0
1070
   272
1070
     2
1070
    77
1070
     3
1070
   173
1070
     1
1070
   147
1040
1.0
1070
    42
1040
3.0
1070
    44
1040
1.5
1070
    43
1040
7.0
1070
   271
1070
     1
1070
   178
1070
     4
1070
   177
1070
     4
1070
   176
1070
     4
1070
   141
1040
150.0
1070
     7
1000
_OPEN
1070
     6
1000
_OPEN
1070
    41
1040
3.0
1002
}
  0
TEXT
  5
5DF
330
1A
100
AcDbEntity
  8
SUNPOU
  6
Continuous
 62
     4
100
AcDbText
 10
252.088189269757
 20
57.29130424062983
 30
0.0
 40
3.0
  1
10
100
AcDbText
  0
LINE
  5
5E0
330
1A
100
AcDbEntity
  8
SEIHIN
100
AcDbLine
 10
245.0427707127555
 20
90.36120463209163
 30
0.0
 11
243.7213839290194
 21
87.20231205396881
 31
0.0
  0
LINE
  5
5E1
330
1A
100
AcDbEntity
  8
SEIHIN
  6
Continuous
 62
     3
 48
16.0
100
AcDbLine
 10
248.5494042479917
 20
84.82529295442605
 30
0.0
 11
244.3712042479918
 21
83.15409295442597
 31
0.0
  0
LINE
  5
5E2
330
1A
100
AcDbEntity
  8
SEIHIN
100
AcDbLine
 10
243.7213839290194
 20
87.20231205396881
 30
0.0
 11
246.8566519117611
 21
85.82617810663286
 31
0.0
  0
LINE
  5
5E3
330
1A
100
AcDbEntity
  8
SEIHIN
100
AcDbLine
 10
245.9497499135335
 20
88.09359485928938
 30
0.0
 11
243.7213839290194
 21
87.20231205396881
 31
0.0
  0
LINE
  5
5E4
330
1A
100
AcDbEntity
  8
CENTER L
  6
CENTER
 62
     1
 48
5.0
100
AcDbLine
 10
242.3485042479916
 20
110.3476929544259
 30
0.0
 11
230.3943042479917
 21
105.4463929544259
 31
0.0
  0
DIMENSION
  5
5E5
330
1A
100
AcDbEntity
  8
SUNPOU
  6
Continuous
 62
     4
100
AcDbDimension
  2
*D10
 10
225.0515042479916
 20
142.5524484547156
 30
0.0
 11
230.3014527967316
 21
145.0524484547156
 31
0.0
 70
    32
 71
     5
 42
-1.0
  3
STANDARD
100
AcDbAlignedDimension
 13
235.5514013454715
 23
117.322292954426
 33
0.0
 14
225.0515042479916
 24
127.6221929544259
 34
0.0
100
AcDbRotatedDimension
1001
ACAD
1000
DSTYLE
1002
{
1070
   140
1040
3.0
1070
    74
1070
     0
1070
   172
1070
     1
1070
    73
1070
     0
1070
   272
1070
     2
1070
    77
1070
     3
1070
   173
1070
     1
1070
   147
1040
1.0
1070
    42
1040
3.0
1070
    44
1040
1.5
1070
    43
1040
7.0
1070
   271
1070
     0
1070
   178
1070
     4
1070
   177
1070
     4
1070
   176
1070
     4
1070
   141
1040
150.0
1070
     7
1000
_OPEN
1070
     6
1000
_OPEN
1070
    41
1040
3.0
1002
}
  0
LINE
  5
5E6
330
1A
100
AcDbEntity
  8
NOKITOI
  6
PHANTOM
 62
     8
 48
5.0
100
AcDbLine
 10
223.8515042479915
 20
126.4221929544259
 30
0.0
 11
223.8515042479915
 21
121.822192954426
 31
0.0
  0
LINE
  5
5E7
330
1A
100
AcDbEntity
  8
NOKITOI
  6
PHANTOM
 62
     8
 48
5.0
100
AcDbLine
 10
225.0515042479916
 20
120.6221929544259
 30
0.0
 11
225.0515042479916
 21
127.6221929544259
 31
0.0
  0
LINE
  5
5E8
330
1A
100
AcDbEntity
  8
NOKITOI
  6
PHANTOM
 62
     8
 48
5.0
100
AcDbLine
 10
221.1352042479916
 20
126.4221929544259
 30
0.0
 11
220.1964042479917
 21
121.822192954426
 31
0.0
  0
LINE
  5
5E9
330
1A
100
AcDbEntity
  8
SEIHIN
  6
Continuous
 62
     3
 48
16.0
100
AcDbLine
 10
225.8515042479918
 20
119.3222929544259
 30
0.0
 11
225.8515042479918
 21
128.276492954426
 31
0.0
  0
LINE
  5
5EA
330
1A
100
AcDbEntity
  8
SEIHIN
  6
Continuous
 62
     3
 48
16.0
100
AcDbLine
 10
225.0515042479916
 20
119.6222929544259
 30
0.0
 11
225.0515042479916
 21
128.276492954426
 31
0.0
  0
LINE
  5
5EB
330
1A
100
AcDbEntity
  8
NOKITOI
  6
PHANTOM
 62
     8
 48
5.0
100
AcDbLine
 10
225.0515042479916
 20
120.6221929544259
 30
0.0
 11
219.9515042479916
 21
120.6221929544259
 31
0.0
  0
LINE
  5
5EC
330
1A
100
AcDbEntity
  8
SEIHIN
  6
Continuous
 62
     3
 48
16.0
100
AcDbLine
 10
224.8515042479917
 20
118.322292954426
 30
0.0
 11
220.7068042479918
 21
118.322292954426
 31
0.0
  0
LINE
  5
5ED
330
1A
100
AcDbEntity
  8
SEIHIN
  6
Continuous
 62
     3
 48
16.0
100
AcDbLine
 10
220.0536042479918
 20
119.122292954426
 30
0.0
 11
224.5515042479917
 21
119.122292954426
 31
0.0
  0
ARC
  5
5EE
330
1A
100
AcDbEntity
  8
SEIHIN
  6
Continuous
 62
     3
 48
16.0
100
AcDbCircle
 10
232.0360686165898
 20
107.3222638602608
 30
0.0
 40
10.00002909422875
100
AcDbArc
 50
87.45559473520195
 51
168.4652439348432
  0
ARC
  5
5EF
330
1A
100
AcDbEntity
  8
SEIHIN
  6
Continuous
 62
     3
 48
16.0
100
AcDbCircle
 10
220.0536030171267
 20
118.622291949428
 30
0.0
 40
0.500001004999511
100
AcDbArc
 50
89.99985895353168
 51
168.4629469361472
  0
ARC
  5
5F0
330
1A
100
AcDbEntity
  8
SEIHIN
  6
Continuous
 62
     3
 48
16.0
100
AcDbCircle
 10
220.7068030171267
 20
117.8222919494281
 30
0.0
 40
0.5000010049994844
100
AcDbArc
 50
89.99985895353493
 51
168.4629469361495
  0
LINE
  5
5F1
330
1A
100
AcDbEntity
  8
NOKITOI
  6
PHANTOM
 62
     8
 48
5.0
100
AcDbLine
 10
220.1964042479917
 20
121.822192954426
 30
0.0
 11
223.8515042479915
 21
121.822192954426
 31
0.0
  0
ARC
  5
5F2
330
1A
100
AcDbEntity
  8
SEIHIN
  6
Continuous
 62
     3
 48
16.0
100
AcDbCircle
 10
231.4371107440136
 20
111.2189926689323
 30
0.0
 40
1.608156100507302
100
AcDbArc
 50
12.42452829261655
 51
81.64792561743425
  0
ARC
  5
5F3
330
1A
100
AcDbEntity
  8
SEIHIN
  6
Continuous
 62
     3
 48
16.0
100
AcDbCircle
 10
232.0360852081367
 20
107.3222763230931
 30
0.0
 40
5.499966784006073
100
AcDbArc
 50
93.80915327152839
 51
168.4649199579121
  0
LINE
  5
5F4
330
1A
100
AcDbEntity
  8
SEIHIN
100
AcDbLine
 10
235.5512915469142
 20
107.6290002453489
 30
0.0
 11
238.686559529656
 21
106.252866298013
 31
0.0
  0
LINE
  5
5F5
330
1A
100
AcDbEntity
  8
SEIHIN
  6
Continuous
 62
     3
 48
16.0
100
AcDbLine
 10
237.4083042479918
 20
112.6798929544259
 30
0.0
 11
236.2941042479918
 21
112.2341929544259
 31
0.0
  0
LINE
  5
5F6
330
1A
100
AcDbEntity
  8
SEIHIN
100
AcDbLine
 10
236.8726783306503
 20
110.7878928234717
 30
0.0
 11
235.5512915469142
 21
107.6290002453489
 31
0.0
  0
LINE
  5
5F7
330
1A
100
AcDbEntity
  8
SEIHIN
100
AcDbLine
 10
235.5512915469142
 20
107.6290002453489
 30
0.0
 11
237.7796575314284
 21
108.5202830506694
 31
0.0
  0
ARC
  5
5F8
330
1A
100
AcDbEntity
  8
SEIHIN
  6
Continuous
 62
     3
 48
16.0
100
AcDbCircle
 10
231.5584137890462
 20
113.3032499827419
 30
0.0
 40
4.0
100
AcDbArc
 50
21.80016820257414
 51
94.56607714429342
  0
ARC
  5
5F9
330
1A
100
AcDbEntity
  8
SEIHIN
  6
Continuous
 62
     3
 48
16.0
100
AcDbCircle
 10
224.8515042479918
 20
119.322292954426
 30
0.0
 40
1.000000000000014
100
AcDbArc
 50
269.9999999999935
 51
359.9999999999943
  0
ARC
  5
5FA
330
1A
100
AcDbEntity
  8
SEIHIN
  6
Continuous
 62
     3
 48
16.0
100
AcDbCircle
 10
224.5515042479917
 20
119.622292954426
 30
0.0
 40
0.4999999999999574
100
AcDbArc
 50
269.9999999999935
 51
359.9999999999951
  0
ARC
  5
5FB
330
1A
100
AcDbEntity
  8
SEIHIN
  6
Continuous
 62
     3
 48
16.0
100
AcDbCircle
 10
232.1661735265615
 20
112.3223137545125
 30
0.0
 40
4.999979200007835
100
AcDbArc
 50
21.79935509959943
 51
86.4013590355514
  0
LINE
  5
5FC
330
1A
100
AcDbEntity
  8
NOKITOI
  6
PHANTOM
 62
     8
 48
5.0
100
AcDbLine
 10
225.0515042479916
 20
127.6221929544259
 30
0.0
 11
220.1531042479916
 21
127.6221929544259
 31
0.0
  0
ARC
  5
5FD
330
1A
100
AcDbEntity
  8
SEIHIN
  6
Continuous
 62
     3
 48
16.0
100
AcDbCircle
 10
224.0515191857149
 20
128.276481492169
 30
0.0
 40
0.9999850623424707
100
AcDbArc
 50
0.0006567487631243
 51
104.9999856908045
  0
ARC
  5
5FE
330
1A
100
AcDbEntity
  8
SEIHIN
  6
Continuous
 62
     3
 48
16.0
100
AcDbCircle
 10
224.0514847343144
 20
128.276507927658
 30
0.0
 40
1.800019513739703
100
AcDbArc
 50
359.9995233923914
 51
105.0000380484758
  0
LINE
  5
5FF
330
1A
100
AcDbEntity
  8
SEIHIN
  6
Continuous
 62
     3
 48
16.0
100
AcDbLine
 10
224.3594042479916
 20
129.227892954426
 30
0.0
 11
218.9847042479917
 21
127.271692954426
 31
0.0
  0
LINE
  5
600
330
1A
100
AcDbEntity
  8
SEIHIN
  6
Continuous
 62
     3
 48
16.0
100
AcDbLine
 10
223.7927042479918
 20
129.242392954426
 30
0.0
 11
218.8141042479916
 21
127.9083929544259
 31
0.0
  0
LINE
  5
601
330
1A
100
AcDbEntity
  8
SEIHIN
  6
Continuous
 62
     3
 48
16.0
100
AcDbLine
 10
223.5856042479916
 20
130.015192954426
 30
0.0
 11
218.6070042479918
 21
128.6811929544259
 31
0.0
  0
LINE
  5
602
330
1A
100
AcDbEntity
  8
SEIHIN
  6
Continuous
 62
     3
 48
16.0
100
AcDbLine
 10
218.9847042479917
 20
127.271692954426
 30
0.0
 11
218.6070042479918
 21
128.6811929544259
 31
0.0
  0
LINE
  5
603
330
1A
100
AcDbEntity
  8
NOKITOI
  6
PHANTOM
 62
     8
 48
5.0
100
AcDbLine
 10
221.1352042479916
 20
126.4221929544259
 30
0.0
 11
223.8515042479915
 21
126.4221929544259
 31
0.0
  0
LINE
  5
604
330
1A
100
AcDbEntity
  8
CENTER L
  6
CENTER
 62
     1
 48
5.0
100
AcDbLine
 10
305.5210296176595
 20
135.6152052659396
 30
0.0
 11
311.7598296176597
 21
138.1105052659396
 31
0.0
  0
LINE
  5
605
330
1A
100
AcDbEntity
  8
SEIHIN
  6
Continuous
 62
     3
 48
16.0
100
AcDbLine
 10
305.1011296176596
 20
139.7553052659396
 30
0.0
 11
315.7787296176596
 21
144.0260052659396
 31
0.0
  0
LINE
  5
606
330
1A
100
AcDbEntity
  8
SEIHIN
  6
Continuous
 62
     3
 48
16.0
100
AcDbLine
 10
313.6424296176595
 20
113.0150052659396
 30
0.0
 11
303.9869296176596
 21
137.1556052659396
 31
0.0
  0
DIMENSION
  5
607
330
1A
100
AcDbEntity
  8
SUNPOU
  6
Continuous
100
AcDbDimension
  2
*D11
 10
302.0185599424737
 20
110.5198432956352
 30
0.0
 11
300.2547468657021
 21
121.6616146883768
 31
0.0
 70
    33
 71
     5
 42
-1.0
  3
STANDARD
100
AcDbAlignedDimension
 13
304.7296433379245
 23
135.2986786608517
 33
0.0
 14
312.8997020159911
 24
114.871966577196
 34
0.0
1001
ACAD
1000
DSTYLE
1002
{
1070
   140
1040
3.0
1070
    74
1070
     0
1070
   172
1070
     1
1070
    73
1070
     0
1070
   272
1070
     2
1070
    77
1070
     3
1070
   173
1070
     1
1070
   147
1040
1.0
1070
    42
1040
3.0
1070
    44
1040
1.5
1070
    43
1040
7.0
1070
   271
1070
     0
1070
   178
1070
     4
1070
   177
1070
     4
1070
   176
1070
     4
1070
   141
1040
150.0
1070
     7
1000
_OPEN
1070
     6
1000
_OPEN
1070
    41
1040
3.0
1002
}
  0
DIMENSION
  5
608
330
1A
100
AcDbEntity
  8
SUNPOU
  6
Continuous
100
AcDbDimension
  2
*D12
 10
294.5653281971967
 20
103.2306455831347
 30
0.0
 11
291.3160494291201
 21
118.0863658203187
 31
0.0
 70
    33
 71
     5
 42
-1.0
  3
STANDARD
100
AcDbAlignedDimension
 13
303.2441927830391
 23
139.0125896613455
 33
0.0
 14
314.3851828437154
 24
111.1579798888048
 34
0.0
1001
ACAD
1000
DSTYLE
1002
{
1070
   140
1040
3.0
1070
    74
1070
     0
1070
   172
1070
     1
1070
    73
1070
     0
1070
   272
1070
     2
1070
    77
1070
     3
1070
   173
1070
     1
1070
   147
1040
1.0
1070
    42
1040
3.0
1070
    44
1040
1.5
1070
    43
1040
7.0
1070
   271
1070
     0
1070
   178
1070
     4
1070
   177
1070
     4
1070
   176
1070
     4
1070
   141
1040
150.0
1070
     7
1000
_OPEN
1070
     6
1000
_OPEN
1070
    41
1040
3.0
1002
}
  0
ARC
  5
609
330
1A
100
AcDbEntity
  8
SEIHIN
  6
Continuous
 62
     3
 48
16.0
100
AcDbCircle
 10
305.8439399626873
 20
137.8983294027901
 30
0.0
 40
2.000031640999715
100
AcDbArc
 50
111.8019414497188
 51
201.7992815773155
  0
LINE
  5
60A
330
1A
100
AcDbEntity
  8
SEIHIN
  6
Continuous
 62
     3
 48
16.0
100
AcDbLine
 10
337.1331296176595
 20
120.2565052659396
 30
0.0
 11
316.2421296176597
 21
111.9007052659396
 31
0.0
  0
ARC
  5
60B
330
1A
100
AcDbEntity
  8
SEIHIN
  6
Continuous
 62
     3
 48
16.0
100
AcDbCircle
 10
315.4994296176596
 20
113.7577052659397
 30
0.0
 40
2.000013072457372
100
AcDbArc
 50
201.7987496139483
 51
291.7987496139494
  0
LINE
  5
60C
330
1A
100
AcDbEntity
  8
CENTER L
  6
CENTER
 62
     1
 48
5.0
100
AcDbLine
 10
313.6911296176595
 20
115.1885052659395
 30
0.0
 11
320.0515296176598
 21
117.7324052659396
 31
0.0
  0
LINE
  5
60D
330
1A
100
AcDbEntity
  8
CENTER L
  6
CENTER
 62
     1
 48
5.0
100
AcDbLine
 10
317.7141296176594
 20
113.6061052659395
 30
0.0
 11
314.7567994902494
 21
120.999926928318
 31
0.0
  0
LINE
  5
610
330
1A
100
AcDbEntity
  8
SEIHIN
  6
Continuous
 62
     3
 48
16.0
100
AcDbLine
 10
328.0340296176596
 20
122.0022052659395
 30
0.0
 11
327.0125296176598
 21
120.5166052659395
 31
0.0
  0
LINE
  5
611
330
1A
100
AcDbEntity
  8
SEIHIN
  6
Continuous
 62
     3
 48
16.0
100
AcDbLine
 10
328.7766296176596
 20
120.1454052659395
 30
0.0
 11
327.0125296176598
 21
120.5168052659396
 31
0.0
  0
LINE
  5
613
330
1A
100
AcDbEntity
  8
CENTER L
  6
CENTER
 62
     1
 48
5.0
100
AcDbLine
 10
310.3005367347916
 20
132.1413317343514
 30
0.0
 11
307.2872296176597
 21
139.6751052659395
 31
0.0
  0
LINE
  5
615
330
1A
100
AcDbEntity
  8
SEIHIN
  6
Continuous
 62
     3
 48
16.0
100
AcDbLine
 10
319.8639296176598
 20
142.4289052659396
 30
0.0
 11
318.8425296176595
 21
140.9434052659395
 31
0.0
  0
LINE
  5
616
330
1A
100
AcDbEntity
  8
SEIHIN
  6
Continuous
 62
     3
 48
16.0
100
AcDbLine
 10
320.6066296176595
 20
140.5721052659396
 30
0.0
 11
318.8425296176595
 21
140.9435052659396
 31
0.0
  0
ARC
  5
617
330
1A
100
AcDbEntity
  8
SEIHIN
  6
Continuous
 62
     3
 48
16.0
100
AcDbCircle
 10
318.861283724725
 20
147.6286862212777
 30
0.0
 40
1.0
100
AcDbArc
 50
201.7999663384798
 51
291.8001979499091
  0
ARC
  5
618
330
1A
100
AcDbEntity
  8
SEIHIN
  6
Continuous
 62
     3
 48
16.0
100
AcDbCircle
 10
315.0360037532055
 20
145.8829449217365
 30
0.0
 40
1.999966648471878
100
AcDbArc
 50
291.8000795760786
 51
21.80114345094809
  0
LINE
  5
61A
330
1A
100
AcDbEntity
  8
CENTER L
  6
CENTER
 62
     1
 48
5.0
100
AcDbLine
 10
357.6041296176597
 20
132.7524052659396
 30
0.0
 11
351.2436296176598
 21
130.2084052659396
 31
0.0
  0
LINE
  5
61C
330
1A
100
AcDbEntity
  8
CENTER L
  6
CENTER
 62
     1
 48
5.0
100
AcDbLine
 10
355.7819296176595
 20
128.8322052659396
 30
0.0
 11
352.8247094250871
 21
136.2258938922711
 31
0.0
  0
LINE
  5
61D
330
1A
100
AcDbEntity
  8
SEIHIN
  6
Continuous
 62
     3
 48
16.0
100
AcDbLine
 10
342.5185296176596
 20
127.7956052659395
 30
0.0
 11
344.2826296176597
 21
127.4241052659396
 31
0.0
  0
LINE
  5
61E
330
1A
100
AcDbEntity
  8
SEIHIN
  6
Continuous
 62
     3
 48
16.0
100
AcDbLine
 10
343.2612296176594
 20
125.9388052659396
 30
0.0
 11
344.2825296176597
 21
127.4243052659396
 31
0.0
  0
ARC
  5
61F
330
1A
100
AcDbEntity
  8
SEIHIN
  6
Continuous
 62
     3
 48
16.0
100
AcDbCircle
 10
357.2813296176596
 20
130.4692052659397
 30
0.0
 40
2.000013072457389
100
AcDbArc
 50
291.7987496139456
 51
21.79874961394471
  0
LINE
  5
620
330
1A
100
AcDbEntity
  8
SEIHIN
  6
Continuous
 62
     3
 48
16.0
100
AcDbLine
 10
346.8830296176595
 20
156.4668052659396
 30
0.0
 11
336.2054296176595
 21
152.1961052659395
 31
0.0
  0
MTEXT
  5
621
330
1A
100
AcDbEntity
  8
SUNPOU
  6
Continuous
 62
     4
100
AcDbMText
 10
288.426269677063
 20
149.043430178622
 30
0.0
 40
3.0
 41
0.0
 71
     9
 72
     5
  1
4-φ2.5
 73
     1
 44
1.0
1001
ACAD
1000
MTEXTBEGIN
1070
    73
1070
     1
1070
    44
1040
1.0
1070
    74
1070
     0
1000
MTEXTEND
  0
LINE
  5
622
330
1A
100
AcDbEntity
  8
SEIHIN
  6
Continuous
 62
     3
 48
16.0
100
AcDbLine
 10
248.5494042479917
 20
184.122192954426
 30
0.0
 11
248.5494042479917
 21
198.322192954426
 31
0.0
  0
LINE
  5
623
330
1A
100
AcDbEntity
  8
SEIHIN
  6
Continuous
 62
     3
 48
16.0
100
AcDbLine
 10
237.4083042479918
 20
184.122192954426
 30
0.0
 11
237.4084042479917
 21
198.322192954426
 31
0.0
  0
LINE
  5
624
330
1A
100
AcDbEntity
  8
SEIHIN
  6
Continuous
 62
     3
 48
16.0
100
AcDbLine
 10
236.2942042479916
 20
184.122192954426
 30
0.0
 11
236.2942042479916
 21
198.1221929544259
 31
0.0
  0
DIMENSION
  5
625
330
1A
100
AcDbEntity
  8
SUNPOU
  6
Continuous
100
AcDbDimension
  2
*D13
 10
264.7866028884745
 20
183.122192954426
 30
0.0
 11
262.2866028884745
 21
207.622192954426
 31
0.0
 70
    32
 71
     5
 42
-1.0
  3
STANDARD
100
AcDbAlignedDimension
 13
247.5494042479917
 23
232.122192954426
 33
0.0
 14
247.5494042479917
 24
183.122192954426
 34
0.0
 50
90.0
100
AcDbRotatedDimension
1001
ACAD
1000
DSTYLE
1002
{
1070
   140
1040
3.0
1070
    74
1070
     0
1070
   172
1070
     1
1070
    73
1070
     0
1070
   272
1070
     2
1070
    77
1070
     3
1070
   173
1070
     1
1070
   147
1040
1.0
1070
    42
1040
3.0
1070
    44
1040
1.5
1070
    43
1040
7.0
1070
   271
1070
     0
1070
   178
1070
     4
1070
   177
1070
     4
1070
   176
1070
     4
1070
   141
1040
150.0
1070
     7
1000
_OPEN
1070
     6
1000
_OPEN
1070
    41
1040
3.0
1002
}
  0
LINE
  5
626
330
1A
100
AcDbEntity
  8
CENTER L
  6
CENTER
 62
     1
 48
5.0
100
AcDbLine
 10
242.4138042479917
 20
187.122205277761
 30
0.0
 11
236.8026728587272
 21
187.122205277761
 31
0.0
  0
LINE
  5
627
330
1A
100
AcDbEntity
  8
SEIHIN
  6
Continuous
 62
     3
 48
16.0
100
AcDbLine
 10
247.5494042479917
 20
183.122192954426
 30
0.0
 11
237.2942042479916
 21
183.122192954426
 31
0.0
  0
LINE
  5
62A
330
1A
100
AcDbEntity
  8
CENTER L
  6
CENTER
 62
     1
 48
5.0
100
AcDbLine
 10
238.8938042479918
 20
184.3403929544258
 30
0.0
 11
238.8938042479918
 21
190.667692954426
 31
0.0
  0
ARC
  5
62B
330
1A
100
AcDbEntity
  8
SEIHIN
  6
Continuous
 62
     3
 48
16.0
100
AcDbCircle
 10
237.2942042479916
 20
184.122192954426
 30
0.0
 40
1.0
100
AcDbArc
 50
180.0
 51
270.0
  0
ARC
  5
62C
330
1A
100
AcDbEntity
  8
SEIHIN
  6
Continuous
 62
     3
 48
16.0
100
AcDbCircle
 10
238.4083042479918
 20
184.122192954426
 30
0.0
 40
1.0
100
AcDbArc
 50
180.0
 51
270.0
  0
LINE
  5
62D
330
1A
100
AcDbEntity
  8
CENTER L
  6
CENTER
 62
     1
 48
5.0
100
AcDbLine
 10
250.5839042479916
 20
187.122192954426
 30
0.0
 11
244.9727728587272
 21
187.122192954426
 31
0.0
  0
ARC
  5
62E
330
1A
100
AcDbEntity
  8
SEIHIN
  6
Continuous
 62
     3
 48
16.0
100
AcDbCircle
 10
247.5494042479917
 20
184.122192954426
 30
0.0
 40
1.0
100
AcDbArc
 50
270.0
 51
0.0
  0
LINE
  5
631
330
1A
100
AcDbEntity
  8
CENTER L
  6
CENTER
 62
     1
 48
5.0
100
AcDbLine
 10
247.0639042479917
 20
184.103592954426
 30
0.0
 11
247.0639042479917
 21
191.4739929544259
 31
0.0
  0
LINE
  5
632
330
1A
100
AcDbEntity
  8
CENTER L
  6
CENTER
 62
     1
 48
5.0
100
AcDbLine
 10
242.4139042479918
 20
228.122205277761
 30
0.0
 11
236.8026728587273
 21
228.122205277761
 31
0.0
  0
LINE
  5
633
330
1A
100
AcDbEntity
  8
SEIHIN
  6
Continuous
 62
     3
 48
16.0
100
AcDbLine
 10
247.5494042479917
 20
232.122192954426
 30
0.0
 11
237.2942042479916
 21
232.122192954426
 31
0.0
  0
LINE
  5
634
330
1A
100
AcDbEntity
  8
SEIHIN
  6
Continuous
 62
     3
 48
16.0
100
AcDbLine
 10
246.2494042479918
 20
214.922192954426
 30
0.0
 11
225.8517042479916
 21
214.9222929544259
 31
0.0
  0
LINE
  5
635
330
1A
100
AcDbEntity
  8
SEIHIN
  6
Continuous
 62
     3
 48
16.0
100
AcDbLine
 10
246.2494042479917
 20
200.322192954426
 30
0.0
 11
225.8517042479916
 21
200.322192954426
 31
0.0
  0
LINE
  5
636
330
1A
100
AcDbEntity
  8
SEIHIN
  6
Continuous
100
AcDbLine
 10
239.0625531066577
 20
216.8397910285066
 30
0.0
 11
238.8937452311885
 21
217.4222222153222
 31
0.0
  0
LINE
  5
637
330
1A
100
AcDbEntity
  8
SEIHIN
  6
Continuous
100
AcDbLine
 10
238.5874547206869
 20
216.3654640438438
 30
0.0
 11
238.8937452311885
 21
217.4222222153222
 31
0.0
  0
LINE
  5
638
330
1A
100
AcDbEntity
  8
SEIHIN
  6
Continuous
 62
     3
 48
16.0
100
AcDbLine
 10
236.2942042479916
 20
231.122192954426
 30
0.0
 11
236.2942042479916
 21
217.122192954426
 31
0.0
  0
LINE
  5
639
330
1A
100
AcDbEntity
  8
SEIHIN
  6
Continuous
 62
     3
 48
16.0
100
AcDbLine
 10
237.4084042479917
 20
231.122192954426
 30
0.0
 11
237.4084042479917
 21
216.922192954426
 31
0.0
  0
LINE
  5
63A
330
1A
100
AcDbEntity
  8
SEIHIN
  6
Continuous
 62
     3
 48
16.0
100
AcDbLine
 10
225.0516042551003
 20
217.6222429544258
 30
0.0
 11
225.0517042551004
 21
214.1222429544259
 31
0.0
  0
LINE
  5
63B
330
1A
100
AcDbEntity
  8
SEIHIN
  6
Continuous
 62
     3
 48
16.0
100
AcDbLine
 10
225.8517042551005
 20
217.6222429544258
 30
0.0
 11
225.8518042551004
 21
207.6222429544258
 31
0.0
  0
LINE
  5
63C
330
1A
100
AcDbEntity
  8
SEIHIN
  6
Continuous
 62
     3
 48
16.0
100
AcDbLine
 10
220.3518042551003
 20
214.1222429544259
 30
0.0
 11
225.8516042551002
 21
214.1222429544259
 31
0.0
  0
LINE
  5
63D
330
1A
100
AcDbEntity
  8
SEIHIN
  6
Continuous
 62
     3
 48
16.0
100
AcDbLine
 10
214.9517042551004
 20
216.6222429544259
 30
0.0
 11
225.0516042551003
 21
216.6222429544259
 31
0.0
  0
LINE
  5
63E
330
1A
100
AcDbEntity
  8
SEIHIN
  6
Continuous
 62
     3
 48
16.0
100
AcDbLine
 10
220.3518042551003
 20
201.1222429544258
 30
0.0
 11
225.8516042551002
 21
201.1222429544258
 31
0.0
  0
LINE
  5
63F
330
1A
100
AcDbEntity
  8
SEIHIN
  6
Continuous
 62
     3
 48
16.0
100
AcDbLine
 10
214.9517042551004
 20
198.6222429544258
 30
0.0
 11
225.0516042551003
 21
198.6222429544258
 31
0.0
  0
LINE
  5
640
330
1A
100
AcDbEntity
  8
SEIHIN
  6
Continuous
 62
     3
 48
16.0
100
AcDbLine
 10
214.9517042551004
 20
205.6223316746016
 30
0.0
 11
214.9517042551005
 21
209.6222429544258
 31
0.0
  0
LINE
  5
641
330
1A
100
AcDbEntity
  8
SEIHIN
  6
Continuous
 62
     3
 48
16.0
100
AcDbLine
 10
218.3518042551004
 20
203.1222429544258
 30
0.0
 11
218.3518042551004
 21
212.1222429544259
 31
0.0
  0
ARC
  5
642
330
1A
100
AcDbEntity
  8
SEIHIN
100
AcDbCircle
 10
214.0141932125505
 20
203.3722761220249
 30
0.0
 40
2.437511042550709
100
AcDbArc
 50
292.6200379911888
 51
67.37996200881117
  0
LINE
  5
643
330
1A
100
AcDbEntity
  8
SEIHIN
  6
Continuous
 62
     3
 48
16.0
100
AcDbLine
 10
214.9517042551004
 20
198.6222429544258
 30
0.0
 11
214.9517042551004
 21
201.1222576778032
 31
0.0
  0
LINE
  5
644
330
1A
100
AcDbEntity
  8
SEIHIN
  6
Continuous
 62
     3
 48
16.0
100
AcDbLine
 10
223.0544042551003
 20
198.6222429544258
 30
0.0
 11
223.0544042551003
 21
201.1222429544258
 31
0.0
  0
LINE
  5
645
330
1A
100
AcDbEntity
  8
SEIHIN
  6
Continuous
 62
     3
 48
16.0
100
AcDbLine
 10
219.5639042551004
 20
198.6222429544258
 30
0.0
 11
219.5639042551004
 21
201.2839429544258
 31
0.0
  0
ARC
  5
646
330
1A
100
AcDbEntity
  8
SEIHIN
  6
Continuous
 62
     3
 48
16.0
100
AcDbCircle
 10
220.3518042551003
 20
203.1222429544257
 30
0.0
 40
1.999999999999914
100
AcDbArc
 50
179.9999999999975
 51
269.9999999999976
  0
ARC
  5
647
330
1A
100
AcDbEntity
  8
SEIHIN
  6
Continuous
 62
     3
 48
16.0
100
AcDbCircle
 10
220.7942627953706
 20
203.372342932293
 30
0.0
 40
2.263588137967559
100
AcDbArc
 50
263.69579163689
 51
276.2579367891673
  0
ARC
  5
648
330
1A
100
AcDbEntity
  8
SEIHIN
100
AcDbCircle
 10
214.0141932125505
 20
211.8722503161145
 30
0.0
 40
2.437511042550709
100
AcDbArc
 50
292.6200379911888
 51
67.37996200881117
  0
LINE
  5
649
330
1A
100
AcDbEntity
  8
SEIHIN
  6
Continuous
 62
     3
 48
16.0
100
AcDbLine
 10
214.9517042551004
 20
216.6223429544259
 30
0.0
 11
214.9517042551004
 21
214.1222576778033
 31
0.0
  0
ARC
  5
64A
330
1A
100
AcDbEntity
  8
SEIHIN
  6
Continuous
 62
     3
 48
16.0
100
AcDbCircle
 10
220.3518042551003
 20
212.122242954426
 30
0.0
 40
1.999999999999914
100
AcDbArc
 50
90.00000000000245
 51
180.0000000000024
  0
LINE
  5
64B
330
1A
100
AcDbEntity
  8
SEIHIN
  6
Continuous
 62
     3
 48
16.0
100
AcDbLine
 10
219.5639042551004
 20
216.6223429544259
 30
0.0
 11
219.5639042551004
 21
213.9605429544259
 31
0.0
  0
ARC
  5
64C
330
1A
100
AcDbEntity
  8
SEIHIN
  6
Continuous
 62
     3
 48
16.0
100
AcDbCircle
 10
220.7942577113666
 20
211.8721429639442
 30
0.0
 40
2.263686987591017
100
AcDbArc
 50
83.71929133007361
 51
96.30380249452137
  0
LINE
  5
64D
330
1A
100
AcDbEntity
  8
SEIHIN
  6
Continuous
 62
     3
 48
16.0
100
AcDbLine
 10
223.0544042551003
 20
216.6223429544259
 30
0.0
 11
223.0544042551003
 21
214.1222429544259
 31
0.0
  0
LINE
  5
64E
330
1A
100
AcDbEntity
  8
SEIHIN
  6
Continuous
 62
     3
 48
16.0
100
AcDbLine
 10
232.2515042479917
 20
207.6222929544259
 30
0.0
 11
232.2515042479917
 21
201.3221929544259
 31
0.0
  0
LINE
  5
64F
330
1A
100
AcDbEntity
  8
SEIHIN
  6
Continuous
 62
     3
 48
16.0
100
AcDbLine
 10
225.8517042551005
 20
197.6222429544259
 30
0.0
 11
225.8517042551005
 21
207.6222429544258
 31
0.0
  0
ARC
  5
650
330
1A
100
AcDbEntity
  8
SEIHIN
  6
Continuous
 62
     3
 48
16.0
100
AcDbCircle
 10
233.2515042479916
 20
201.3221929544259
 30
0.0
 40
0.9999999999999431
100
AcDbArc
 50
180.0000000000032
 51
270.0000000000033
  0
LINE
  5
651
330
1A
100
AcDbEntity
  8
SEIHIN
  6
Continuous
 62
     3
 48
16.0
100
AcDbLine
 10
235.2942042479918
 20
199.122192954426
 30
0.0
 11
225.8517042479916
 21
199.1222929544259
 31
0.0
  0
LINE
  5
652
330
1A
100
AcDbEntity
  8
SEIHIN
  6
Continuous
 62
     3
 48
16.0
100
AcDbLine
 10
225.0516042551003
 20
197.6222429544259
 30
0.0
 11
225.0516042551003
 21
201.1222429544258
 31
0.0
  0
LINE
  5
653
330
1A
100
AcDbEntity
  8
SEIHIN
  6
Continuous
 62
     3
 48
16.0
100
AcDbLine
 10
225.0516042551003
 20
197.6222429544259
 30
0.0
 11
225.8516042551002
 21
197.6222429544259
 31
0.0
  0
ARC
  5
654
330
1A
100
AcDbEntity
  8
SEIHIN
  6
Continuous
100
AcDbCircle
 10
236.6664859289879
 20
198.322192954426
 30
0.0
 40
2.0
100
AcDbArc
 50
16.16351496237769
 51
90.0
  0
ARC
  5
655
330
1A
100
AcDbEntity
  8
SEIHIN
  6
Continuous
100
AcDbCircle
 10
237.6218184515793
 20
198.822192954426
 30
0.0
 40
1.5
100
AcDbArc
 50
343.8364850376223
 51
90.0
  0
LINE
  5
656
330
1A
100
AcDbEntity
  8
SEIHIN
  6
Continuous
 62
     3
 48
16.0
100
AcDbLine
 10
232.5515042479917
 20
199.122192954426
 30
0.0
 11
232.5515042479917
 21
200.322192954426
 31
0.0
  0
ARC
  5
657
330
1A
100
AcDbEntity
  8
SEIHIN
  6
Continuous
 62
     3
 48
16.0
100
AcDbCircle
 10
235.4084042479917
 20
198.322192954426
 30
0.0
 40
2.0
100
AcDbArc
 50
0.0
 51
90.0
  0
ARC
  5
658
330
1A
100
AcDbEntity
  8
SEIHIN
  6
Continuous
 62
     3
 48
16.0
100
AcDbCircle
 10
235.2942042479917
 20
198.122192954426
 30
0.0
 40
0.9999999999999715
100
AcDbArc
 50
359.9999999999919
 51
89.99999999999186
  0
LINE
  5
659
330
1A
100
AcDbEntity
  8
SEIHIN
  6
Continuous
100
AcDbLine
 10
238.5874282250886
 20
198.8789520540835
 30
0.0
 11
238.8937155331845
 21
197.822192954426
 31
0.0
  0
LINE
  5
65A
330
1A
100
AcDbEntity
  8
SEIHIN
  6
Continuous
100
AcDbLine
 10
239.0625251736548
 20
198.4046236296829
 30
0.0
 11
238.8937155331845
 21
197.822192954426
 31
0.0
  0
LINE
  5
65B
330
1A
100
AcDbEntity
  8
SEIHIN
  6
Continuous
100
AcDbLine
 10
237.6218184515793
 20
200.3221929544261
 30
0.0
 11
236.0505542479917
 21
200.322192954426
 31
0.0
  0
ARC
  5
65C
330
1A
100
AcDbEntity
  8
SEIHIN
  6
Continuous
 62
     3
 48
16.0
100
AcDbCircle
 10
233.2515042479916
 20
213.922192954426
 30
0.0
 40
1.0
100
AcDbArc
 50
90.0
 51
180.0
  0
LINE
  5
65D
330
1A
100
AcDbEntity
  8
SEIHIN
  6
Continuous
 62
     3
 48
16.0
100
AcDbLine
 10
235.2942042479918
 20
216.122192954426
 30
0.0
 11
225.8517042479916
 21
216.1222929544259
 31
0.0
  0
LINE
  5
65E
330
1A
100
AcDbEntity
  8
SEIHIN
  6
Continuous
 62
     3
 48
16.0
100
AcDbLine
 10
232.2515042479917
 20
207.622192954426
 30
0.0
 11
232.2515042479917
 21
213.922192954426
 31
0.0
  0
ARC
  5
65F
330
1A
100
AcDbEntity
  8
SEIHIN
  6
Continuous
 62
     3
 48
16.0
100
AcDbCircle
 10
235.4084042479917
 20
216.922192954426
 30
0.0
 40
2.0
100
AcDbArc
 50
270.0
 51
0.0
  0
ARC
  5
660
330
1A
100
AcDbEntity
  8
SEIHIN
  6
Continuous
 62
     3
 48
16.0
100
AcDbCircle
 10
235.2942042479917
 20
217.1221929544259
 30
0.0
 40
0.9999999999999147
100
AcDbArc
 50
270.0000000000049
 51
0.0000000000048853
  0
LINE
  5
661
330
1A
100
AcDbEntity
  8
SEIHIN
  6
Continuous
 62
     3
 48
16.0
100
AcDbLine
 10
232.5515042479917
 20
216.1222929544259
 30
0.0
 11
232.5515042479917
 21
214.922392954426
 31
0.0
  0
ARC
  5
662
330
1A
100
AcDbEntity
  8
SEIHIN
  6
Continuous
100
AcDbCircle
 10
237.6218451191851
 20
216.4222260696888
 30
0.0
 40
1.5
100
AcDbArc
 50
269.999826370638
 51
16.16334133301561
  0
ARC
  5
663
330
1A
100
AcDbEntity
  8
SEIHIN
  6
Continuous
100
AcDbCircle
 10
236.6665141118001
 20
216.9222289647301
 30
0.0
 40
2.0
100
AcDbArc
 50
269.999826370638
 51
343.8363114082602
  0
LINE
  5
666
330
1A
100
AcDbEntity
  8
CENTER L
  6
CENTER
 62
     1
 48
5.0
100
AcDbLine
 10
238.8939042479918
 20
230.903992954426
 30
0.0
 11
238.8939042479918
 21
224.5766929544259
 31
0.0
  0
LINE
  5
667
330
1A
100
AcDbEntity
  8
SEIHIN
  6
Continuous
 62
     3
 48
16.0
100
AcDbLine
 10
225.0516042551003
 20
217.6222429544258
 30
0.0
 11
225.8516042551002
 21
217.6222429544258
 31
0.0
  0
ARC
  5
668
330
1A
100
AcDbEntity
  8
SEIHIN
  6
Continuous
 62
     3
 48
16.0
100
AcDbCircle
 10
237.2942042479916
 20
231.122192954426
 30
0.0
 40
1.0
100
AcDbArc
 50
90.0
 51
180.0
  0
ARC
  5
669
330
1A
100
AcDbEntity
  8
SEIHIN
  6
Continuous
 62
     3
 48
16.0
100
AcDbCircle
 10
238.4084042479917
 20
231.1221929544259
 30
0.0
 40
1.000000000000056
100
AcDbArc
 50
89.99999999999674
 51
179.9999999999967
  0
LINE
  5
66A
330
1A
100
AcDbEntity
  8
SEIHIN
  6
Continuous
100
AcDbLine
 10
247.232757220913
 20
216.839766269487
 30
0.0
 11
247.0639493454438
 21
217.4221974563026
 31
0.0
  0
LINE
  5
66B
330
1A
100
AcDbEntity
  8
SEIHIN
  6
Continuous
100
AcDbLine
 10
246.7576588349422
 20
216.3654392848243
 30
0.0
 11
247.0639493454438
 21
217.4221974563026
 31
0.0
  0
LINE
  5
66C
330
1A
100
AcDbEntity
  8
SEIHIN
  6
Continuous
 62
     3
 48
16.0
100
AcDbLine
 10
248.5494042479917
 20
231.122192954426
 30
0.0
 11
248.5494042479917
 21
216.922192954426
 31
0.0
  0
LINE
  5
66D
330
1A
100
AcDbEntity
  8
SEIHIN
  6
Continuous
 62
     3
 48
16.0
100
AcDbLine
 10
245.2494042479918
 20
207.6222929544259
 30
0.0
 11
245.2494042479918
 21
201.3221929544259
 31
0.0
  0
ARC
  5
66E
330
1A
100
AcDbEntity
  8
SEIHIN
  6
Continuous
 62
     3
 48
16.0
100
AcDbCircle
 10
246.5494042479918
 20
198.322192954426
 30
0.0
 40
1.999999999999914
100
AcDbArc
 50
359.9999999999976
 51
89.99999999999756
  0
ARC
  5
66F
330
1A
100
AcDbEntity
  8
SEIHIN
  6
Continuous
100
AcDbCircle
 10
245.792022565872
 20
198.822192954426
 30
0.0
 40
1.5
100
AcDbArc
 50
343.8364850376223
 51
90.0
  0
ARC
  5
670
330
1A
100
AcDbEntity
  8
SEIHIN
  6
Continuous
100
AcDbCircle
 10
244.8366900432807
 20
198.322192954426
 30
0.0
 40
2.0
100
AcDbArc
 50
16.16351496237769
 51
90.0
  0
LINE
  5
671
330
1A
100
AcDbEntity
  8
SEIHIN
  6
Continuous
100
AcDbLine
 10
246.7576323393813
 20
198.8789520540835
 30
0.0
 11
247.0639196474773
 21
197.822192954426
 31
0.0
  0
LINE
  5
672
330
1A
100
AcDbEntity
  8
SEIHIN
  6
Continuous
100
AcDbLine
 10
247.2327292879476
 20
198.4046236296829
 30
0.0
 11
247.0639196474773
 21
197.822192954426
 31
0.0
  0
ARC
  5
673
330
1A
100
AcDbEntity
  8
SEIHIN
  6
Continuous
 62
     3
 48
16.0
100
AcDbCircle
 10
246.2494042479917
 20
201.3221929544259
 30
0.0
 40
0.9999999999999431
100
AcDbArc
 50
180.0000000000032
 51
270.0000000000033
  0
LINE
  5
674
330
1A
100
AcDbEntity
  8
SEIHIN
  6
Continuous
 62
     3
 48
16.0
100
AcDbLine
 10
246.5494042479918
 20
200.322192954426
 30
0.0
 11
246.2494042479918
 21
200.322192954426
 31
0.0
  0
ARC
  5
675
330
1A
100
AcDbEntity
  8
SEIHIN
  6
Continuous
 62
     3
 48
16.0
100
AcDbCircle
 10
246.5494042479918
 20
216.922192954426
 30
0.0
 40
1.999999999999914
100
AcDbArc
 50
270.0000000000025
 51
0.0000000000024427
  0
LINE
  5
676
330
1A
100
AcDbEntity
  8
SEIHIN
  6
Continuous
 62
     3
 48
16.0
100
AcDbLine
 10
245.2494042479918
 20
207.622192954426
 30
0.0
 11
245.2494042479918
 21
213.922192954426
 31
0.0
  0
ARC
  5
677
330
1A
100
AcDbEntity
  8
SEIHIN
  6
Continuous
 62
     3
 48
16.0
100
AcDbCircle
 10
246.2494042479918
 20
213.922192954426
 30
0.0
 40
1.0
100
AcDbArc
 50
90.0
 51
180.0
  0
LINE
  5
678
330
1A
100
AcDbEntity
  8
SEIHIN
  6
Continuous
 62
     3
 48
16.0
100
AcDbLine
 10
246.5494042479918
 20
214.922192954426
 30
0.0
 11
246.2494042479918
 21
214.922192954426
 31
0.0
  0
ARC
  5
679
330
1A
100
AcDbEntity
  8
SEIHIN
  6
Continuous
100
AcDbCircle
 10
244.8367182260553
 20
216.9222042057105
 30
0.0
 40
2.0
100
AcDbArc
 50
269.999826370638
 51
343.8363114082602
  0
ARC
  5
67A
330
1A
100
AcDbEntity
  8
SEIHIN
  6
Continuous
100
AcDbCircle
 10
245.7920492334403
 20
216.4222013106692
 30
0.0
 40
1.5
100
AcDbArc
 50
269.999826370638
 51
16.16334133301561
  0
LINE
  5
67D
330
1A
100
AcDbEntity
  8
CENTER L
  6
CENTER
 62
     1
 48
5.0
100
AcDbLine
 10
247.0640042479918
 20
231.140792954426
 30
0.0
 11
247.0640042479918
 21
223.770392954426
 31
0.0
  0
LINE
  5
67E
330
1A
100
AcDbEntity
  8
CENTER L
  6
CENTER
 62
     1
 48
5.0
100
AcDbLine
 10
250.5840042479919
 20
228.122192954426
 30
0.0
 11
244.9727728587272
 21
228.122192954426
 31
0.0
  0
ARC
  5
67F
330
1A
100
AcDbEntity
  8
SEIHIN
  6
Continuous
 62
     3
 48
16.0
100
AcDbCircle
 10
247.5494042479917
 20
231.122192954426
 30
0.0
 40
1.0
100
AcDbArc
 50
0.0
 51
90.0
  0
LINE
  5
680
330
1A
100
AcDbEntity
  8
SEIHIN
  6
Continuous
 62
     3
 48
16.0
100
AcDbLine
 10
315.7788074398786
 20
149.4114344571519
 30
0.0
 11
316.8929720251818
 21
149.8570729626649
 31
0.0
  0
LINE
  5
681
330
1A
100
AcDbEntity
  8
SEIHIN
  6
Continuous
 62
     3
 48
16.0
100
AcDbLine
 10
333.6057296176595
 20
153.3103052659395
 30
0.0
 11
332.4915011591437
 21
156.0961020102164
 31
0.0
  0
LINE
  5
682
330
1A
100
AcDbEntity
  8
SEIHIN
  6
Continuous
 62
     3
 48
16.0
100
AcDbLine
 10
334.3484296176596
 20
148.2223052659396
 30
0.0
 11
336.1125296176595
 21
147.8508052659395
 31
0.0
  0
ARC
  5
683
330
1A
100
AcDbEntity
  8
SEIHIN
  6
Continuous
 62
     3
 48
16.0
100
AcDbCircle
 10
335.4627054808091
 20
154.0531156109672
 30
0.0
 40
2.000031640999778
100
AcDbArc
 50
201.8019414497201
 51
291.7992815773161
  0
ARC
  5
684
330
1A
100
AcDbEntity
  8
SEIHIN
  6
Continuous
 62
     3
 48
16.0
100
AcDbCircle
 10
331.4886906954829
 20
152.6793392802435
 30
0.0
 40
1.0
100
AcDbArc
 50
291.8001979499091
 51
21.79994302077384
  0
LINE
  5
685
330
1A
100
AcDbEntity
  8
SEIHIN
  6
Continuous
 62
     3
 48
16.0
100
AcDbLine
 10
331.3773491416699
 20
155.6504685315268
 30
0.0
 11
332.4915011591437
 21
156.0961020102164
 31
0.0
  0
ARC
  5
686
330
1A
100
AcDbEntity
  8
SEIHIN
  6
Continuous
 62
     3
 48
16.0
100
AcDbCircle
 10
347.62575375451
 20
154.6097949209119
 30
0.0
 40
2.000031640999765
100
AcDbArc
 50
21.80194144971694
 51
111.7992815773137
  0
LINE
  5
689
330
1A
100
AcDbEntity
  8
CENTER L
  6
CENTER
 62
     1
 48
5.0
100
AcDbLine
 10
349.4340296176597
 20
153.1791052659395
 30
0.0
 11
343.1952296176596
 21
150.6837052659395
 31
0.0
  0
LINE
  5
917
330
1A
100
AcDbEntity
  8
ZUWAKU
100
AcDbLine
 10
104.3233001471241
 20
7.599999679512958
 30
0.0
 11
223.7121814875858
 21
7.599999679512954
 31
0.0
  0
LINE
  5
918
330
1A
100
AcDbEntity
  8
ZUWAKU
100
AcDbLine
 10
104.3233001471241
 20
7.799999679512955
 30
0.0
 11
223.7121814875858
 21
7.799999679512959
 31
0.0
  0
LINE
  5
919
330
1A
100
AcDbEntity
  8
ZUWAKU
100
AcDbLine
 10
104.3233001471241
 20
7.699999679512956
 30
0.0
 11
223.7121814875858
 21
7.699999679512956
 31
0.0
  0
LINE
  5
91A
330
1A
100
AcDbEntity
  8
ZUWAKU
100
AcDbLine
 10
-0.0000004979099231
 20
15.39999967951294
 30
0.0
 11
398.69999950209
 21
15.39999967951294
 31
0.0
  0
LINE
  5
91B
330
1A
100
AcDbEntity
  8
ZUWAKU
100
AcDbLine
 10
-0.0000004979099231
 20
15.29999967951294
 30
0.0
 11
398.69999950209
 21
15.29999967951294
 31
0.0
  0
LINE
  5
91C
330
1A
100
AcDbEntity
  8
ZUWAKU
100
AcDbLine
 10
-0.0000004979099231
 20
15.19999967951294
 30
0.0
 11
398.69999950209
 21
15.19999967951294
 31
0.0
  0
LINE
  5
91D
330
1A
100
AcDbEntity
  8
ZUWAKU
100
AcDbLine
 10
-0.0000004979099231
 20
15.09999967951294
 30
0.0
 11
398.69999950209
 21
15.09999967951294
 31
0.0
  0
LINE
  5
91E
330
1A
100
AcDbEntity
  8
ZUWAKU
100
AcDbLine
 10
-0.0000004979099231
 20
14.99999967951294
 30
0.0
 11
398.69999950209
 21
14.99999967951294
 31
0.0
  0
LWPOLYLINE
  5
91F
330
1A
100
AcDbEntity
  8
ZUWAKU
100
AcDbPolyline
 90
        4
 70
     1
 43
0.0
 10
0.0999995020900428
 20
275.699999679513
 10
0.0999995020900428
 20
0.0999996795129619
 10
398.69999950209
 20
0.0999996795129734
 10
398.6999995020901
 20
275.699999679513
  0
LWPOLYLINE
  5
920
330
1A
100
AcDbEntity
  8
ZUWAKU
100
AcDbPolyline
 90
        4
 70
     1
 43
0.0
 10
0.2999995020900314
 20
275.499999679513
 10
0.2999995020900314
 20
0.2999996795129505
 10
398.4999995020902
 20
0.2999996795129736
 10
398.4999995020901
 20
275.499999679513
  0
LWPOLYLINE
  5
921
330
1A
100
AcDbEntity
  8
ZUWAKU
100
AcDbPolyline
 90
        4
 70
     1
 43
0.0
 10
-0.0000004979099231
 20
275.7999996795129
 10
-0.0000004979099231
 20
-0.0000003204870609
 10
398.7999995020901
 20
-0.0000003204870271
 10
398.7999995020901
 20
275.799999679513
  0
LWPOLYLINE
  5
922
330
1A
100
AcDbEntity
  8
ZUWAKU
100
AcDbPolyline
 90
        4
 70
     1
 43
0.0
 10
0.1999995020900655
 20
275.599999679513
 10
0.1999995020900655
 20
0.1999996795129846
 10
398.5999995020901
 20
0.199999679512973
 10
398.5999995020901
 20
275.599999679513
  0
LWPOLYLINE
  5
923
330
1A
100
AcDbEntity
  8
ZUWAKU
100
AcDbPolyline
 90
        4
 70
     1
 43
0.0
 10
0.3999995020900542
 20
275.399999679513
 10
0.3999995020900542
 20
0.3999996795129732
 10
398.3999995020901
 20
0.3999996795129732
 10
398.3999995020901
 20
275.399999679513
  0
INSERT
  5
924
330
1A
100
AcDbEntity
  8
ZUWAKU
  6
Continuous
100
AcDbBlockReference
  2
*X14
 10
0.0
 20
0.0
 30
0.0
1001
ACAD
1000
HATCH
1002
{
1070
    19
1000
ANSI37
1040
0.1
1040
0.0
1000
R14_HATCH_DATA
1000
924
1011
1.0
1021
0.0
1031
0.0
1011
0.0
1021
1.0
1031
0.0
1011
0.0
1021
0.0
1031
1.0
1040
0.0
1010
0.0
1020
0.0
1030
1.0
1000
ANSI37
1070
     0
1070
     0
1071
        8
1071
        7
1070
     1
1070
     1
1071
       24
1040
7.251130832650005
1040
8.82242392000473
1040
-0.1989123673796348
1040
7.046105579480638
1040
9.317398666835256
1040
0.0
1040
7.046105579480638
1040
9.962499679512944
1040
-0.4142135623730912
1040
7.308605579480627
1040
10.22499967951294
1040
0.0
1040
8.796105579480581
1040
10.22499967951294
1040
0.4142135623731546
1040
9.058605579480627
1040
10.48749967951293
1040
0.0
1040
9.058605579480627
1040
11.36249967951294
1040
0.4142135623731586
1040
8.796105579480581
1040
11.62499967951294
1040
0.0
1040
7.046105579480638
1040
11.62499967951294
1040
0.4142135623730928
1040
5.646105579480661
1040
10.22499967951295
1040
0.0
1040
5.646105579480661
1040
9.31739866683532
1040
0.1989123673796619
1040
6.261181338988876
1040
7.832474426343516
1040
0.0
1040
7.716080326311214
1040
6.377575439021187
1040
-0.1989123673796613
1040
7.921105579480638
1040
5.882600692190594
1040
0.0
1040
7.921105579480638
1040
5.237499679512936
1040
-0.4142135623730911
1040
7.658605579480649
1040
4.97499967951294
1040
0.0
1040
6.171105579480695
1040
4.97499967951294
1040
0.4142135623731526
1040
5.908605579480649
1040
4.712499679512946
1040
0.0
1040
5.908605579480649
1040
3.837499679512935
1040
0.4142135623731526
1040
6.171105579480695
1040
3.574999679512941
1040
0.0
1040
7.921105579480638
1040
3.574999679512941
1040
0.4142135623731044
1040
9.321105579480672
1040
4.974999679512929
1040
0.0
1040
9.321105579480672
1040
5.882600692190566
1040
0.1989123673796604
1040
8.7060298199724
1040
7.367524932682336
1040
0.0
1071
        0
1071
        7
1070
     1
1070
     1
1071
       16
1040
11.77110557948066
1040
9.524999679512944
1040
-0.4142135623730935
1040
12.47110557948065
1040
10.22499967951294
1040
0.0
1040
13.43360557948062
1040
10.22499967951294
1040
0.4142135623731546
1040
13.69610557948067
1040
10.48749967951293
1040
0.0
1040
13.69610557948067
1040
11.36249967951294
1040
0.4142135623730951
1040
13.43360557948068
1040
11.62499967951294
1040
0.0
1040
12.47110557948059
1040
11.62499967951292
1040
0.4142135623730892
1040
10.37110557948063
1040
9.524999679512909
1040
0.0
1040
10.37110557948063
1040
5.674999679512954
1040
0.4142135623730969
1040
12.47110557948065
1040
3.574999679512941
1040
0.0
1040
13.43360557948062
1040
3.574999679512941
1040
0.4142135623731526
1040
13.69610557948067
1040
3.837499679512935
1040
0.0
1040
13.69610557948067
1040
4.712499679512946
1040
0.4142135623730891
1040
13.43360557948068
1040
4.97499967951294
1040
0.0
1040
12.47110557948065
1040
4.97499967951294
1040
-0.4142135623730928
1040
11.77110557948066
1040
5.674999679512934
1040
0.0
1071
        0
1071
        7
1070
     1
1070
     1
1071
        2
1040
12.12110557948063
1040
7.59999967951294
1040
1.0
1040
13.87110557948062
1040
7.59999967951294
1040
1.0
1071
        0
1071
        7
1070
     1
1070
     1
1071
       26
1040
18.65742882056963
1040
9.602523276294654
1040
0.0
1040
19.18824863713854
1040
11.28345269542945
1040
0.5069206636600134
1040
18.93793318754086
1040
11.62499967951294
1040
0.0
1040
18.08848849773625
1040
11.62499967951294
1040
0.3272098845218764
1040
17.83817304813857
1040
11.44154666359642
1040
0.0
1040
16.90403811082268
1040
8.48345269542948
1040
-0.3272098845219541
1040
16.65372266122495
1040
8.299999679512939
1040
0.0
1040
16.58360557948071
1040
8.299999679512939
1040
-0.4142135623731526
1040
16.32110557948067
1040
8.562499679512933
1040
0.0
1040
16.32110557948067
1040
11.36249967951294
1040
0.4142135623730951
1040
16.05860557948068
1040
11.62499967951294
1040
0.0
1040
15.18360557948063
1040
11.62499967951294
1040
0.4142135623730871
1040
14.92110557948064
1040
11.36249967951295
1040
0.0
1040
14.92110557948064
1040
3.837499679512935
1040
0.4142135623730891
1040
15.18360557948063
1040
3.574999679512941
1040
0.0
1040
16.05860557948062
1040
3.574999679512941
1040
0.4142135623731526
1040
16.32110557948067
1040
3.837499679512935
1040
0.0
1040
16.32110557948067
1040
6.637499679512947
1040
-0.4142135623731526
1040
16.58360557948071
1040
6.899999679512941
1040
0.0
1040
16.653722661225
1040
6.899999679512941
1040
-0.3272098845218915
1040
16.90403811082268
1040
6.716546663596403
1040
0.0
1040
17.83817304813857
1040
3.758452695429477
1040
0.3272098845218902
1040
18.08848849773625
1040
3.574999679512941
1040
0.0
1040
18.93793318754086
1040
3.574999679512941
1040
0.5069206636600335
1040
19.18824863713854
1040
3.916546663596445
1040
0.0
1040
18.02505294790171
1040
7.599999679513009
1040
0.0
1071
        0
1071
        7
1070
     1
1070
     1
1071
        8
1040
21.74610557948063
1040
11.36249967951294
1040
0.4142135623731546
1040
21.48360557948058
1040
11.62499967951294
1040
0.0
1040
20.60860557948069
1040
11.62499967951294
1040
0.4142135623731507
1040
20.34610557948065
1040
11.36249967951295
1040
0.0
1040
20.34610557948065
1040
3.837499679512935
1040
0.4142135623731526
1040
20.60860557948069
1040
3.574999679512941
1040
0.0
1040
21.48360557948058
1040
3.574999679512941
1040
0.4142135623731526
1040
21.74610557948063
1040
3.837499679512935
1040
0.0
1071
        0
1071
        7
1070
     1
1070
     1
1071
       24
1040
24.19610557948067
1040
9.962499679512944
1040
-0.4142135623731546
1040
24.45860557948072
1040
10.22499967951294
1040
0.0
1040
25.94610557948068
1040
10.22499967951294
1040
0.4142135623730911
1040
26.20860557948066
1040
10.48749967951293
1040
0.0
1040
26.20860557948066
1040
11.36249967951294
1040
0.4142135623730952
1040
25.94610557948068
1040
11.62499967951294
1040
0.0
1040
24.19610557948067
1040
11.62499967951294
1040
0.4142135623731048
1040
22.79610557948064
1040
10.22499967951295
1040
0.0
1040
22.79610557948064
1040
9.31739866683532
1040
0.1989123673796613
1040
23.41118133898891
1040
7.832474426343544
1040
0.0
1040
24.86608032631125
1040
6.37757543902121
1040
-0.1989123673796402
1040
25.07110557948067
1040
5.882600692190674
1040
0.0
1040
25.07110557948067
1040
5.237499679512936
1040
-0.4142135623730911
1040
24.80860557948068
1040
4.97499967951294
1040
0.0
1040
23.32110557948067
1040
4.97499967951294
1040
0.4142135623731526
1040
23.05860557948063
1040
4.712499679512946
1040
0.0
1040
23.05860557948063
1040
3.837499679512935
1040
0.4142135623730891
1040
23.32110557948062
1040
3.574999679512941
1040
0.0
1040
25.07110557948067
1040
3.574999679512941
1040
0.4142135623730925
1040
26.47110557948065
1040
4.974999679512929
1040
0.0
1040
26.47110557948065
1040
5.882600692190566
1040
0.1989123673796675
1040
25.85602981997238
1040
7.367524932682393
1040
0.0
1040
24.4011308326501
1040
8.82242392000465
1040
-0.1989123673796652
1040
24.19610557948067
1040
9.317398666835234
1040
0.0
1071
        0
1071
        7
1070
     1
1070
     1
1071
       16
1040
28.92110557948064
1040
11.36249967951293
1040
0.414213562373103
1040
28.65860557948065
1040
11.62499967951294
1040
0.0
1040
27.78360557948065
1040
11.62499967951294
1040
0.4142135623730871
1040
27.52110557948066
1040
11.36249967951295
1040
0.0
1040
27.52110557948066
1040
4.974999679512929
1040
0.4142135623730926
1040
28.92110557948064
1040
3.574999679512941
1040
0.0
1040
30.67110557948064
1040
3.574999679512941
1040
0.4142135623731044
1040
32.07110557948067
1040
4.974999679512929
1040
0.0
1040
32.07110557948067
1040
11.36249967951294
1040
0.4142135623730951
1040
31.80860557948069
1040
11.62499967951294
1040
0.0
1040
30.93360557948063
1040
11.62499967951294
1040
0.4142135623730871
1040
30.67110557948064
1040
11.36249967951295
1040
0.0
1040
30.67110557948064
1040
5.499999679512928
1040
-0.414213562373088
1040
30.14610557948066
1040
4.97499967951294
1040
0.0
1040
29.44610557948067
1040
4.97499967951294
1040
-0.4142135623731197
1040
28.92110557948064
1040
5.499999679512928
1040
0.0
1071
        0
1071
        7
1070
     1
1070
     1
1071
        8
1040
34.52110557948066
1040
11.36249967951295
1040
0.4142135623730871
1040
34.25860557948067
1040
11.62499967951294
1040
0.0
1040
33.38360557948067
1040
11.62499967951294
1040
0.4142135623731507
1040
33.12110557948063
1040
11.36249967951295
1040
0.0
1040
33.12110557948063
1040
3.837499679512935
1040
0.4142135623730891
1040
33.38360557948062
1040
3.574999679512941
1040
0.0
1040
34.25860557948067
1040
3.574999679512941
1040
0.4142135623730891
1040
34.52110557948066
1040
3.837499679512935
1040
0.0
1071
        0
1070
     0
1070
     1
1040
0.0
1040
0.1
1070
     0
1070
     2
1040
0.7853981633974483
1040
-450.4711526652494
1040
-6.600000320487026
1040
-0.2245064030267288
1040
0.2245064030267288
1070
     0
1040
2.356194490192344
1040
-450.4711526652494
1040
-6.600000320487026
1040
-0.2245064030267288
1040
-0.2245064030267288
1070
     0
1040
0.057451373970553
1071
        8
1040
8.039926983601731
1040
7.583586502455716
1040
0.0
1040
11.20225700530966
1040
9.422030770738444
1040
0.0
1040
12.5821834449199
1040
7.755940502548298
1040
0.0
1040
15.45702949290864
1040
8.10064850273369
1040
0.0
1040
20.91923551156845
1040
8.330454636504498
1040
0.0
1040
23.44909994965485
1040
9.709287837716544
1040
0.0
1040
28.27884248829025
1040
9.364578637060446
1040
0.0
1040
33.91353931190145
1040
9.594384770831254
1040
0.0
1002
}
  0
LINE
  5
925
330
1A
100
AcDbEntity
  8
ZUWAKU
100
AcDbLine
 10
12.47110557948065
 20
11.62499967951292
 30
0.0
 11
13.43360557948062
 21
11.62499967951294
 31
0.0
  0
LINE
  5
926
330
1A
100
AcDbEntity
  8
ZUWAKU
100
AcDbLine
 10
13.43360557948062
 20
10.22499967951294
 30
0.0
 11
12.47110557948065
 21
10.22499967951294
 31
0.0
  0
LINE
  5
927
330
1A
100
AcDbEntity
  8
ZUWAKU
100
AcDbLine
 10
12.47110557948065
 20
4.97499967951294
 30
0.0
 11
13.43360557948062
 21
4.97499967951294
 31
0.0
  0
LINE
  5
928
330
1A
100
AcDbEntity
  8
ZUWAKU
100
AcDbLine
 10
13.43360557948062
 20
3.574999679512941
 30
0.0
 11
12.47110557948065
 21
3.574999679512941
 31
0.0
  0
CIRCLE
  5
929
330
1A
100
AcDbEntity
  8
ZUWAKU
100
AcDbCircle
 10
12.99610557948063
 20
7.59999967951294
 30
0.0
 40
0.875
  0
ARC
  5
92A
330
1A
100
AcDbEntity
  8
ZUWAKU
100
AcDbCircle
 10
7.746105579480627
 20
9.317398666835291
 30
0.0
 40
0.7
100
AcDbArc
 50
180.0000000000016
 51
224.9999999999988
  0
LINE
  5
92B
330
1A
100
AcDbEntity
  8
ZUWAKU
100
AcDbLine
 10
11.77110557948066
 20
9.524999679512941
 30
0.0
 11
11.77110557948066
 21
5.674999679512943
 31
0.0
  0
LINE
  5
92C
330
1A
100
AcDbEntity
  8
ZUWAKU
100
AcDbLine
 10
10.37110557948063
 20
5.674999679512943
 30
0.0
 11
10.37110557948063
 21
9.524999679512919
 31
0.0
  0
ARC
  5
92D
330
1A
100
AcDbEntity
  8
ZUWAKU
100
AcDbCircle
 10
7.746105579480627
 20
9.317398666835291
 30
0.0
 40
2.099999999999999
100
AcDbArc
 50
180.0
 51
225.0
  0
ARC
  5
92E
330
1A
100
AcDbEntity
  8
ZUWAKU
100
AcDbCircle
 10
7.921105579480638
 20
4.97499967951294
 30
0.0
 40
1.399999999999999
100
AcDbArc
 50
270.0
 51
0.0
  0
ARC
  5
92F
330
1A
100
AcDbEntity
  8
ZUWAKU
100
AcDbCircle
 10
12.47110557948065
 20
5.674999679512943
 30
0.0
 40
2.099999999999999
100
AcDbArc
 50
180.0
 51
270.0
  0
ARC
  5
930
330
1A
100
AcDbEntity
  8
ZUWAKU
100
AcDbCircle
 10
7.221105579480649
 20
5.882600692190592
 30
0.0
 40
2.099999999999999
100
AcDbArc
 50
0.0
 51
45.0
  0
LINE
  5
931
330
1A
100
AcDbEntity
  8
ZUWAKU
100
AcDbLine
 10
8.7060298199724
 20
7.367524932682353
 30
0.0
 11
7.251130832650062
 21
8.822423920004691
 31
0.0
  0
LINE
  5
932
330
1A
100
AcDbEntity
  8
ZUWAKU
100
AcDbLine
 10
7.921105579480638
 20
5.237499679512943
 30
0.0
 11
7.921105579480638
 21
5.882600692190614
 31
0.0
  0
ARC
  5
933
330
1A
100
AcDbEntity
  8
ZUWAKU
100
AcDbCircle
 10
7.658605579480649
 20
5.237499679512943
 30
0.0
 40
0.2625
100
AcDbArc
 50
270.0
 51
0.0
  0
ARC
  5
934
330
1A
100
AcDbEntity
  8
ZUWAKU
100
AcDbCircle
 10
7.221105579480649
 20
5.882600692190614
 30
0.0
 40
0.7
100
AcDbArc
 50
0.0
 51
45.0
  0
LINE
  5
935
330
1A
100
AcDbEntity
  8
ZUWAKU
100
AcDbLine
 10
5.908605579480649
 20
3.837499679512941
 30
0.0
 11
5.908605579480649
 21
4.712499679512941
 31
0.0
  0
ARC
  5
936
330
1A
100
AcDbEntity
  8
ZUWAKU
100
AcDbCircle
 10
6.171105579480638
 20
3.837499679512941
 30
0.0
 40
0.2625
100
AcDbArc
 50
180.0
 51
270.0
  0
ARC
  5
937
330
1A
100
AcDbEntity
  8
ZUWAKU
100
AcDbCircle
 10
6.171105579480638
 20
4.712499679512941
 30
0.0
 40
0.2625
100
AcDbArc
 50
90.0
 51
180.0
  0
LINE
  5
938
330
1A
100
AcDbEntity
  8
ZUWAKU
100
AcDbLine
 10
6.171105579480638
 20
3.574999679512941
 30
0.0
 11
7.921105579480638
 21
3.574999679512941
 31
0.0
  0
LINE
  5
939
330
1A
100
AcDbEntity
  8
ZUWAKU
100
AcDbLine
 10
6.171105579480638
 20
4.97499967951294
 30
0.0
 11
7.658605579480649
 21
4.97499967951294
 31
0.0
  0
LINE
  5
93A
330
1A
100
AcDbEntity
  8
ZUWAKU
100
AcDbLine
 10
6.261181338988876
 20
7.83247442634353
 30
0.0
 11
7.716080326311214
 21
6.3775754390212
 31
0.0
  0
LINE
  5
93B
330
1A
100
AcDbEntity
  8
ZUWAKU
100
AcDbLine
 10
9.321105579480672
 20
4.97499967951294
 30
0.0
 11
9.321105579480672
 21
5.882600692190614
 31
0.0
  0
ARC
  5
93C
330
1A
100
AcDbEntity
  8
ZUWAKU
100
AcDbCircle
 10
12.47110557948065
 20
5.674999679512943
 30
0.0
 40
0.7
100
AcDbArc
 50
180.0
 51
270.0
  0
ARC
  5
93D
330
1A
100
AcDbEntity
  8
ZUWAKU
100
AcDbCircle
 10
8.796105579480638
 20
11.36249967951294
 30
0.0
 40
0.2625
100
AcDbArc
 50
0.0
 51
90.0
  0
ARC
  5
93E
330
1A
100
AcDbEntity
  8
ZUWAKU
100
AcDbCircle
 10
8.796105579480638
 20
10.48749967951294
 30
0.0
 40
0.2625
100
AcDbArc
 50
270.0
 51
0.0
  0
LINE
  5
93F
330
1A
100
AcDbEntity
  8
ZUWAKU
100
AcDbLine
 10
7.046105579480638
 20
11.62499967951294
 30
0.0
 11
8.796105579480638
 21
11.62499967951294
 31
0.0
  0
ARC
  5
940
330
1A
100
AcDbEntity
  8
ZUWAKU
100
AcDbCircle
 10
7.308605579480627
 20
9.962499679512941
 30
0.0
 40
0.2625
100
AcDbArc
 50
90.0
 51
180.0
  0
LINE
  5
941
330
1A
100
AcDbEntity
  8
ZUWAKU
100
AcDbLine
 10
7.046105579480638
 20
9.962499679512941
 30
0.0
 11
7.046105579480638
 21
9.31739866683527
 31
0.0
  0
LINE
  5
942
330
1A
100
AcDbEntity
  8
ZUWAKU
100
AcDbLine
 10
8.796105579480638
 20
10.22499967951294
 30
0.0
 11
7.308605579480627
 21
10.22499967951294
 31
0.0
  0
LINE
  5
943
330
1A
100
AcDbEntity
  8
ZUWAKU
100
AcDbLine
 10
5.646105579480661
 20
10.22499967951294
 30
0.0
 11
5.646105579480661
 21
9.31739866683527
 31
0.0
  0
ARC
  5
944
330
1A
100
AcDbEntity
  8
ZUWAKU
100
AcDbCircle
 10
7.046105579480638
 20
10.22499967951294
 30
0.0
 40
1.399999999999999
100
AcDbArc
 50
90.0
 51
180.0
  0
LINE
  5
945
330
1A
100
AcDbEntity
  8
ZUWAKU
100
AcDbLine
 10
9.058605579480627
 20
11.36249967951294
 30
0.0
 11
9.058605579480627
 21
10.48749967951294
 31
0.0
  0
ARC
  5
946
330
1A
100
AcDbEntity
  8
ZUWAKU
100
AcDbCircle
 10
12.47110557948065
 20
9.524999679512941
 30
0.0
 40
0.7
100
AcDbArc
 50
90.0
 51
180.0
  0
ARC
  5
947
330
1A
100
AcDbEntity
  8
ZUWAKU
100
AcDbCircle
 10
12.47110557948065
 20
9.524999679512919
 30
0.0
 40
2.099999999999999
100
AcDbArc
 50
90.0
 51
180.0
  0
TEXT
  5
948
330
1A
100
AcDbEntity
  8
moji
100
AcDbText
 10
46.47889429617464
 20
6.370588744650319
 30
0.0
 40
3.0
  1
ライナートップ
 41
0.9
  7
ｽﾀｲﾙ1
100
AcDbText
  0
LINE
  5
949
330
1A
100
AcDbEntity
  8
ZUWAKU
100
AcDbLine
 10
39.66331427608418
 20
14.99999967951294
 30
0.0
 11
39.66331427608429
 21
0.3999996795129732
 31
0.0
  0
LINE
  5
94A
330
1A
100
AcDbEntity
  8
ZUWAKU
100
AcDbLine
 10
39.7633142760842
 20
14.99999967951294
 30
0.0
 11
39.76331427608432
 21
0.3999996795129732
 31
0.0
  0
LINE
  5
94B
330
1A
100
AcDbEntity
  8
ZUWAKU
100
AcDbLine
 10
39.56331427608427
 20
14.99999967951294
 30
0.0
 11
39.56331427608427
 21
0.3999996795129732
 31
0.0
  0
LINE
  5
94C
330
1A
100
AcDbEntity
  8
ZUWAKU
100
AcDbLine
 10
32.07110557948067
 20
4.97499967951294
 30
0.0
 11
32.07110557948067
 21
11.36249967951294
 31
0.0
  0
LINE
  5
94D
330
1A
100
AcDbEntity
  8
ZUWAKU
100
AcDbLine
 10
30.67110557948064
 20
11.36249967951294
 30
0.0
 11
30.67110557948064
 21
5.499999679512939
 31
0.0
  0
LINE
  5
94E
330
1A
100
AcDbEntity
  8
ZUWAKU
100
AcDbLine
 10
34.52110557948066
 20
3.837499679512941
 30
0.0
 11
34.52110557948066
 21
11.36249967951294
 31
0.0
  0
LINE
  5
94F
330
1A
100
AcDbEntity
  8
ZUWAKU
100
AcDbLine
 10
33.12110557948063
 20
11.36249967951294
 30
0.0
 11
33.12110557948063
 21
3.837499679512941
 31
0.0
  0
ARC
  5
950
330
1A
100
AcDbEntity
  8
ZUWAKU
100
AcDbCircle
 10
24.89610557948066
 20
9.317398666835291
 30
0.0
 40
0.7
100
AcDbArc
 50
180.0000000000016
 51
224.9999999999988
  0
ARC
  5
951
330
1A
100
AcDbEntity
  8
ZUWAKU
100
AcDbCircle
 10
24.89610557948066
 20
9.317398666835291
 30
0.0
 40
2.099999999999999
100
AcDbArc
 50
180.0
 51
225.0
  0
LINE
  5
952
330
1A
100
AcDbEntity
  8
ZUWAKU
100
AcDbLine
 10
18.65742882056963
 20
9.602523276294654
 30
0.0
 11
18.02505294790171
 21
7.599999679512951
 31
0.0
  0
LINE
  5
953
330
1A
100
AcDbEntity
  8
ZUWAKU
100
AcDbLine
 10
20.34610557948065
 20
11.36249967951294
 30
0.0
 11
20.34610557948065
 21
3.837499679512941
 31
0.0
  0
LINE
  5
954
330
1A
100
AcDbEntity
  8
ZUWAKU
100
AcDbLine
 10
21.74610557948063
 20
3.837499679512941
 30
0.0
 11
21.74610557948063
 21
11.36249967951294
 31
0.0
  0
LINE
  5
955
330
1A
100
AcDbEntity
  8
ZUWAKU
100
AcDbLine
 10
27.52110557948066
 20
11.36249967951294
 30
0.0
 11
27.52110557948066
 21
4.97499967951294
 31
0.0
  0
LINE
  5
956
330
1A
100
AcDbEntity
  8
ZUWAKU
100
AcDbLine
 10
28.92110557948064
 20
5.499999679512939
 30
0.0
 11
28.92110557948064
 21
11.36249967951294
 31
0.0
  0
LINE
  5
957
330
1A
100
AcDbEntity
  8
ZUWAKU
100
AcDbLine
 10
16.32110557948067
 20
8.562499679512942
 30
0.0
 11
16.32110557948067
 21
11.36249967951294
 31
0.0
  0
LINE
  5
958
330
1A
100
AcDbEntity
  8
ZUWAKU
100
AcDbLine
 10
14.92110557948064
 20
11.36249967951294
 30
0.0
 11
14.92110557948064
 21
3.837499679512941
 31
0.0
  0
LINE
  5
959
330
1A
100
AcDbEntity
  8
ZUWAKU
100
AcDbLine
 10
17.83817304813857
 20
11.44154666359642
 30
0.0
 11
16.90403811082268
 21
8.483452695429456
 31
0.0
  0
LINE
  5
95A
330
1A
100
AcDbEntity
  8
ZUWAKU
100
AcDbLine
 10
30.14610557948066
 20
4.97499967951294
 30
0.0
 11
29.44610557948067
 21
4.97499967951294
 31
0.0
  0
LINE
  5
95B
330
1A
100
AcDbEntity
  8
ZUWAKU
100
AcDbLine
 10
28.92110557948064
 20
3.574999679512941
 30
0.0
 11
30.67110557948064
 21
3.574999679512941
 31
0.0
  0
LINE
  5
95C
330
1A
100
AcDbEntity
  8
ZUWAKU
100
AcDbLine
 10
20.60860557948064
 20
3.574999679512941
 30
0.0
 11
21.48360557948064
 21
3.574999679512941
 31
0.0
  0
LINE
  5
95D
330
1A
100
AcDbEntity
  8
ZUWAKU
100
AcDbLine
 10
17.83817304813857
 20
3.758452695429454
 30
0.0
 11
16.90403811082268
 21
6.716546663596425
 31
0.0
  0
ARC
  5
95E
330
1A
100
AcDbEntity
  8
ZUWAKU
100
AcDbCircle
 10
16.653722661225
 20
8.562499679512942
 30
0.0
 40
0.2625
100
AcDbArc
 50
270.0
 51
342.474431626277
  0
LINE
  5
95F
330
1A
100
AcDbEntity
  8
ZUWAKU
100
AcDbLine
 10
16.653722661225
 20
8.299999679512939
 30
0.0
 11
16.58360557948066
 21
8.299999679512939
 31
0.0
  0
LINE
  5
960
330
1A
100
AcDbEntity
  8
ZUWAKU
100
AcDbLine
 10
16.58360557948066
 20
6.899999679512941
 30
0.0
 11
16.653722661225
 21
6.899999679512941
 31
0.0
  0
ARC
  5
961
330
1A
100
AcDbEntity
  8
ZUWAKU
100
AcDbCircle
 10
16.58360557948066
 20
8.562499679512942
 30
0.0
 40
0.2625
100
AcDbArc
 50
180.0
 51
270.0
  0
LINE
  5
962
330
1A
100
AcDbEntity
  8
ZUWAKU
100
AcDbLine
 10
15.18360557948063
 20
3.574999679512941
 30
0.0
 11
16.05860557948062
 21
3.574999679512941
 31
0.0
  0
ARC
  5
963
330
1A
100
AcDbEntity
  8
ZUWAKU
100
AcDbCircle
 10
16.05860557948062
 20
3.837499679512941
 30
0.0
 40
0.2625
100
AcDbArc
 50
270.0
 51
0.0
  0
LINE
  5
964
330
1A
100
AcDbEntity
  8
ZUWAKU
100
AcDbLine
 10
16.32110557948067
 20
3.837499679512941
 30
0.0
 11
16.32110557948067
 21
6.637499679512941
 31
0.0
  0
LINE
  5
965
330
1A
100
AcDbEntity
  8
ZUWAKU
100
AcDbLine
 10
13.69610557948067
 20
4.712499679512941
 30
0.0
 11
13.69610557948067
 21
3.837499679512941
 31
0.0
  0
ARC
  5
966
330
1A
100
AcDbEntity
  8
ZUWAKU
100
AcDbCircle
 10
13.43360557948062
 20
3.837499679512941
 30
0.0
 40
0.2625
100
AcDbArc
 50
270.0
 51
0.0
  0
ARC
  5
967
330
1A
100
AcDbEntity
  8
ZUWAKU
100
AcDbCircle
 10
13.43360557948062
 20
4.712499679512941
 30
0.0
 40
0.2625
100
AcDbArc
 50
0.0
 51
90.0
  0
ARC
  5
968
330
1A
100
AcDbEntity
  8
ZUWAKU
100
AcDbCircle
 10
15.18360557948063
 20
3.837499679512941
 30
0.0
 40
0.2625
100
AcDbArc
 50
180.0
 51
270.0
  0
ARC
  5
969
330
1A
100
AcDbEntity
  8
ZUWAKU
100
AcDbCircle
 10
16.653722661225
 20
6.637499679512941
 30
0.0
 40
0.2625
100
AcDbArc
 50
17.52556837372303
 51
90.0
  0
ARC
  5
96A
330
1A
100
AcDbEntity
  8
ZUWAKU
100
AcDbCircle
 10
16.58360557948066
 20
6.637499679512941
 30
0.0
 40
0.2625
100
AcDbArc
 50
90.0
 51
180.0
  0
ARC
  5
96B
330
1A
100
AcDbEntity
  8
ZUWAKU
100
AcDbCircle
 10
20.60860557948064
 20
3.837499679512941
 30
0.0
 40
0.2625
100
AcDbArc
 50
180.0
 51
270.0
  0
LINE
  5
96C
330
1A
100
AcDbEntity
  8
ZUWAKU
100
AcDbLine
 10
18.08848849773631
 20
3.574999679512941
 30
0.0
 11
18.93793318754081
 21
3.574999679512941
 31
0.0
  0
ARC
  5
96D
330
1A
100
AcDbEntity
  8
ZUWAKU
100
AcDbCircle
 10
18.93793318754081
 20
3.837499679512941
 30
0.0
 40
0.2625
100
AcDbArc
 50
270.0
 51
17.52556837372303
  0
LINE
  5
96E
330
1A
100
AcDbEntity
  8
ZUWAKU
100
AcDbLine
 10
19.18824863713854
 20
3.916546663596427
 30
0.0
 11
18.02505294790171
 21
7.599999679512951
 31
0.0
  0
ARC
  5
96F
330
1A
100
AcDbEntity
  8
ZUWAKU
100
AcDbCircle
 10
18.08848849773631
 20
3.837499679512941
 30
0.0
 40
0.2625
100
AcDbArc
 50
197.525568373723
 51
270.0
  0
ARC
  5
970
330
1A
100
AcDbEntity
  8
ZUWAKU
100
AcDbCircle
 10
28.92110557948064
 20
4.97499967951294
 30
0.0
 40
1.399999999999999
100
AcDbArc
 50
180.0
 51
270.0
  0
ARC
  5
971
330
1A
100
AcDbEntity
  8
ZUWAKU
100
AcDbCircle
 10
25.07110557948067
 20
4.97499967951294
 30
0.0
 40
1.399999999999999
100
AcDbArc
 50
270.0
 51
0.0
  0
LINE
  5
972
330
1A
100
AcDbEntity
  8
ZUWAKU
100
AcDbLine
 10
25.85602981997244
 20
7.367524932682353
 30
0.0
 11
24.40113083265004
 21
8.822423920004691
 31
0.0
  0
LINE
  5
973
330
1A
100
AcDbEntity
  8
ZUWAKU
100
AcDbLine
 10
25.07110557948067
 20
5.237499679512943
 30
0.0
 11
25.07110557948067
 21
5.882600692190614
 31
0.0
  0
ARC
  5
974
330
1A
100
AcDbEntity
  8
ZUWAKU
100
AcDbCircle
 10
24.37110557948063
 20
5.882600692190614
 30
0.0
 40
0.7
100
AcDbArc
 50
0.0
 51
45.0
  0
ARC
  5
975
330
1A
100
AcDbEntity
  8
ZUWAKU
100
AcDbCircle
 10
24.80860557948063
 20
5.237499679512943
 30
0.0
 40
0.2625
100
AcDbArc
 50
270.0
 51
0.0
  0
LINE
  5
976
330
1A
100
AcDbEntity
  8
ZUWAKU
100
AcDbLine
 10
23.05860557948063
 20
3.837499679512941
 30
0.0
 11
23.05860557948063
 21
4.712499679512941
 31
0.0
  0
ARC
  5
977
330
1A
100
AcDbEntity
  8
ZUWAKU
100
AcDbCircle
 10
23.32110557948067
 20
3.837499679512941
 30
0.0
 40
0.2625
100
AcDbArc
 50
180.0
 51
270.0
  0
ARC
  5
978
330
1A
100
AcDbEntity
  8
ZUWAKU
100
AcDbCircle
 10
21.48360557948064
 20
3.837499679512941
 30
0.0
 40
0.2625
100
AcDbArc
 50
270.0
 51
0.0
  0
ARC
  5
979
330
1A
100
AcDbEntity
  8
ZUWAKU
100
AcDbCircle
 10
23.32110557948067
 20
4.712499679512941
 30
0.0
 40
0.2625
100
AcDbArc
 50
90.0
 51
180.0
  0
LINE
  5
97A
330
1A
100
AcDbEntity
  8
ZUWAKU
100
AcDbLine
 10
23.32110557948067
 20
4.97499967951294
 30
0.0
 11
24.80860557948063
 21
4.97499967951294
 31
0.0
  0
LINE
  5
97B
330
1A
100
AcDbEntity
  8
ZUWAKU
100
AcDbLine
 10
23.32110557948067
 20
3.574999679512941
 30
0.0
 11
25.07110557948067
 21
3.574999679512941
 31
0.0
  0
LINE
  5
97C
330
1A
100
AcDbEntity
  8
ZUWAKU
100
AcDbLine
 10
23.41118133898891
 20
7.83247442634353
 30
0.0
 11
24.86608032631125
 21
6.3775754390212
 31
0.0
  0
LINE
  5
97D
330
1A
100
AcDbEntity
  8
ZUWAKU
100
AcDbLine
 10
26.47110557948065
 20
4.97499967951294
 30
0.0
 11
26.47110557948065
 21
5.882600692190614
 31
0.0
  0
ARC
  5
97E
330
1A
100
AcDbEntity
  8
ZUWAKU
100
AcDbCircle
 10
24.37110557948063
 20
5.882600692190592
 30
0.0
 40
2.099999999999999
100
AcDbArc
 50
0.0
 51
45.0
  0
ARC
  5
97F
330
1A
100
AcDbEntity
  8
ZUWAKU
100
AcDbCircle
 10
29.44610557948067
 20
5.499999679512939
 30
0.0
 40
0.525
100
AcDbArc
 50
180.0
 51
270.0
  0
ARC
  5
980
330
1A
100
AcDbEntity
  8
ZUWAKU
100
AcDbCircle
 10
30.67110557948064
 20
4.97499967951294
 30
0.0
 40
1.399999999999999
100
AcDbArc
 50
270.0
 51
0.0
  0
LINE
  5
981
330
1A
100
AcDbEntity
  8
ZUWAKU
100
AcDbLine
 10
33.38360557948067
 20
3.574999679512941
 30
0.0
 11
34.25860557948067
 21
3.574999679512941
 31
0.0
  0
ARC
  5
982
330
1A
100
AcDbEntity
  8
ZUWAKU
100
AcDbCircle
 10
33.38360557948067
 20
3.837499679512941
 30
0.0
 40
0.2625
100
AcDbArc
 50
180.0
 51
270.0
  0
ARC
  5
983
330
1A
100
AcDbEntity
  8
ZUWAKU
100
AcDbCircle
 10
30.14610557948066
 20
5.499999679512939
 30
0.0
 40
0.525
100
AcDbArc
 50
270.0
 51
0.0
  0
ARC
  5
984
330
1A
100
AcDbEntity
  8
ZUWAKU
100
AcDbCircle
 10
34.25860557948067
 20
3.837499679512941
 30
0.0
 40
0.2625
100
AcDbArc
 50
270.0
 51
0.0
  0
LINE
  5
985
330
1A
100
AcDbEntity
  8
ZUWAKU
100
AcDbLine
 10
21.48360557948064
 20
11.62499967951294
 30
0.0
 11
20.60860557948064
 21
11.62499967951294
 31
0.0
  0
ARC
  5
986
330
1A
100
AcDbEntity
  8
ZUWAKU
100
AcDbCircle
 10
16.05860557948062
 20
11.36249967951294
 30
0.0
 40
0.2625
100
AcDbArc
 50
0.0
 51
90.0
  0
LINE
  5
987
330
1A
100
AcDbEntity
  8
ZUWAKU
100
AcDbLine
 10
16.05860557948062
 20
11.62499967951294
 30
0.0
 11
15.18360557948063
 21
11.62499967951294
 31
0.0
  0
ARC
  5
988
330
1A
100
AcDbEntity
  8
ZUWAKU
100
AcDbCircle
 10
13.43360557948062
 20
11.36249967951294
 30
0.0
 40
0.2625
100
AcDbArc
 50
0.0
 51
90.0
  0
ARC
  5
989
330
1A
100
AcDbEntity
  8
ZUWAKU
100
AcDbCircle
 10
15.18360557948063
 20
11.36249967951294
 30
0.0
 40
0.2625
100
AcDbArc
 50
90.0
 51
180.0
  0
ARC
  5
98A
330
1A
100
AcDbEntity
  8
ZUWAKU
100
AcDbCircle
 10
13.43360557948062
 20
10.48749967951294
 30
0.0
 40
0.2625
100
AcDbArc
 50
270.0
 51
0.0
  0
LINE
  5
98B
330
1A
100
AcDbEntity
  8
ZUWAKU
100
AcDbLine
 10
13.69610557948067
 20
11.36249967951294
 30
0.0
 11
13.69610557948067
 21
10.48749967951294
 31
0.0
  0
ARC
  5
98C
330
1A
100
AcDbEntity
  8
ZUWAKU
100
AcDbCircle
 10
20.60860557948064
 20
11.36249967951294
 30
0.0
 40
0.2625
100
AcDbArc
 50
90.0
 51
180.0
  0
LINE
  5
98D
330
1A
100
AcDbEntity
  8
ZUWAKU
100
AcDbLine
 10
18.08848849773631
 20
11.62499967951294
 30
0.0
 11
18.93793318754081
 21
11.62499967951294
 31
0.0
  0
ARC
  5
98E
330
1A
100
AcDbEntity
  8
ZUWAKU
100
AcDbCircle
 10
18.93793318754081
 20
11.36249967951294
 30
0.0
 40
0.2625
100
AcDbArc
 50
342.474431626277
 51
90.0
  0
LINE
  5
98F
330
1A
100
AcDbEntity
  8
ZUWAKU
100
AcDbLine
 10
19.18824863713854
 20
11.28345269542945
 30
0.0
 11
18.65742882056963
 21
9.602523276294654
 31
0.0
  0
ARC
  5
990
330
1A
100
AcDbEntity
  8
ZUWAKU
100
AcDbCircle
 10
18.08848849773631
 20
11.36249967951294
 30
0.0
 40
0.2625
100
AcDbArc
 50
90.0
 51
162.474431626277
  0
LINE
  5
991
330
1A
100
AcDbEntity
  8
ZUWAKU
100
AcDbLine
 10
24.19610557948067
 20
11.62499967951294
 30
0.0
 11
25.94610557948068
 21
11.62499967951294
 31
0.0
  0
LINE
  5
992
330
1A
100
AcDbEntity
  8
ZUWAKU
100
AcDbLine
 10
25.94610557948068
 20
10.22499967951294
 30
0.0
 11
24.45860557948066
 21
10.22499967951294
 31
0.0
  0
ARC
  5
993
330
1A
100
AcDbEntity
  8
ZUWAKU
100
AcDbCircle
 10
24.45860557948066
 20
9.962499679512941
 30
0.0
 40
0.2625
100
AcDbArc
 50
90.0
 51
180.0
  0
LINE
  5
994
330
1A
100
AcDbEntity
  8
ZUWAKU
100
AcDbLine
 10
24.19610557948067
 20
9.962499679512941
 30
0.0
 11
24.19610557948067
 21
9.31739866683527
 31
0.0
  0
ARC
  5
995
330
1A
100
AcDbEntity
  8
ZUWAKU
100
AcDbCircle
 10
21.48360557948064
 20
11.36249967951294
 30
0.0
 40
0.2625
100
AcDbArc
 50
0.0
 51
90.0
  0
LINE
  5
996
330
1A
100
AcDbEntity
  8
ZUWAKU
100
AcDbLine
 10
22.79610557948064
 20
10.22499967951294
 30
0.0
 11
22.79610557948064
 21
9.31739866683527
 31
0.0
  0
ARC
  5
997
330
1A
100
AcDbEntity
  8
ZUWAKU
100
AcDbCircle
 10
24.19610557948067
 20
10.22499967951294
 30
0.0
 40
1.399999999999999
100
AcDbArc
 50
90.0
 51
180.0
  0
ARC
  5
998
330
1A
100
AcDbEntity
  8
ZUWAKU
100
AcDbCircle
 10
28.65860557948065
 20
11.36249967951294
 30
0.0
 40
0.2625
100
AcDbArc
 50
0.0
 51
90.0
  0
ARC
  5
999
330
1A
100
AcDbEntity
  8
ZUWAKU
100
AcDbCircle
 10
27.78360557948065
 20
11.36249967951294
 30
0.0
 40
0.2625
100
AcDbArc
 50
90.0
 51
180.0
  0
LINE
  5
99A
330
1A
100
AcDbEntity
  8
ZUWAKU
100
AcDbLine
 10
28.65860557948065
 20
11.62499967951294
 30
0.0
 11
27.78360557948065
 21
11.62499967951294
 31
0.0
  0
ARC
  5
99B
330
1A
100
AcDbEntity
  8
ZUWAKU
100
AcDbCircle
 10
25.94610557948068
 20
11.36249967951294
 30
0.0
 40
0.2625
100
AcDbArc
 50
0.0
 51
90.0
  0
ARC
  5
99C
330
1A
100
AcDbEntity
  8
ZUWAKU
100
AcDbCircle
 10
25.94610557948068
 20
10.48749967951294
 30
0.0
 40
0.2625
100
AcDbArc
 50
270.0
 51
0.0
  0
LINE
  5
99D
330
1A
100
AcDbEntity
  8
ZUWAKU
100
AcDbLine
 10
26.20860557948066
 20
11.36249967951294
 30
0.0
 11
26.20860557948066
 21
10.48749967951294
 31
0.0
  0
LINE
  5
99E
330
1A
100
AcDbEntity
  8
ZUWAKU
100
AcDbLine
 10
34.25860557948067
 20
11.62499967951294
 30
0.0
 11
33.38360557948067
 21
11.62499967951294
 31
0.0
  0
ARC
  5
99F
330
1A
100
AcDbEntity
  8
ZUWAKU
100
AcDbCircle
 10
33.38360557948067
 20
11.36249967951294
 30
0.0
 40
0.2625
100
AcDbArc
 50
90.0
 51
180.0
  0
ARC
  5
9A0
330
1A
100
AcDbEntity
  8
ZUWAKU
100
AcDbCircle
 10
31.80860557948063
 20
11.36249967951294
 30
0.0
 40
0.2625
100
AcDbArc
 50
0.0
 51
90.0
  0
LINE
  5
9A1
330
1A
100
AcDbEntity
  8
ZUWAKU
100
AcDbLine
 10
31.80860557948063
 20
11.62499967951294
 30
0.0
 11
30.93360557948063
 21
11.62499967951294
 31
0.0
  0
ARC
  5
9A2
330
1A
100
AcDbEntity
  8
ZUWAKU
100
AcDbCircle
 10
30.93360557948063
 20
11.36249967951294
 30
0.0
 40
0.2625
100
AcDbArc
 50
90.0
 51
180.0
  0
ARC
  5
9A3
330
1A
100
AcDbEntity
  8
ZUWAKU
100
AcDbCircle
 10
34.25860557948067
 20
11.36249967951294
 30
0.0
 40
0.2625
100
AcDbArc
 50
0.0
 51
90.0
  0
TEXT
  5
9A4
330
1A
100
AcDbEntity
  8
moji
100
AcDbText
 10
119.9136008425156
 20
9.002460208216632
 30
0.0
 40
2.799999999999999
  1
ステンレス金具正面打（受）固定式
 41
0.9
  7
ｽﾀｲﾙ1
100
AcDbText
  0
TEXT
  5
9A5
330
1A
100
AcDbEntity
  8
moji
100
AcDbText
 10
119.9136008425156
 20
1.602460208216649
 30
0.0
 40
2.799999999999999
  1
Ｘ４０－４寸－１０m/m（３分）
 41
0.9
  7
ｽﾀｲﾙ1
100
AcDbText
  0
LINE
  5
9A6
330
1A
100
AcDbEntity
  8
ZUWAKU
100
AcDbLine
 10
104.123300147124
 20
14.99999967951294
 30
0.0
 11
104.123300147124
 21
0.3999996795129732
 31
0.0
  0
LINE
  5
9A7
330
1A
100
AcDbEntity
  8
ZUWAKU
100
AcDbLine
 10
104.3233001471239
 20
14.99999967951294
 30
0.0
 11
104.3233001471241
 21
0.3999996795129732
 31
0.0
  0
LINE
  5
9A8
330
1A
100
AcDbEntity
  8
ZUWAKU
100
AcDbLine
 10
104.2233001471239
 20
14.99999967951294
 30
0.0
 11
104.223300147124
 21
0.3999996795129732
 31
0.0
  0
TEXT
  5
9A9
330
1A
100
AcDbEntity
  8
ZUWAKU
100
AcDbText
 10
104.8620226582288
 20
4.827677948705748
 30
0.0
 40
2.0
  1
サイズ
 41
0.9
  7
ｽﾀｲﾙ1
100
AcDbText
  0
TEXT
  5
9AA
330
1A
100
AcDbEntity
  8
ZUWAKU
100
AcDbText
 10
104.8620226582287
 20
12.02767794870573
 30
0.0
 40
2.0
  1
品名
 41
0.9
  7
ｽﾀｲﾙ1
100
AcDbText
  0
LINE
  5
9AB
330
1A
100
AcDbEntity
  8
ZUWAKU
100
AcDbLine
 10
324.4086007571922
 20
7.599999679512954
 30
0.0
 11
348.6245047763607
 21
7.599999679512956
 31
0.0
  0
LINE
  5
9AC
330
1A
100
AcDbEntity
  8
ZUWAKU
100
AcDbLine
 10
324.4086007571923
 20
7.699999679512957
 30
0.0
 11
348.6245047763607
 21
7.699999679512956
 31
0.0
  0
LINE
  5
9AD
330
1A
100
AcDbEntity
  8
ZUWAKU
100
AcDbLine
 10
324.4086007571922
 20
7.799999679512955
 30
0.0
 11
348.6245047763607
 21
7.799999679512955
 31
0.0
  0
TEXT
  5
9AE
330
1A
100
AcDbEntity
  8
ZUWAKU
100
AcDbText
 10
329.1019683457413
 20
9.002460208216632
 30
0.0
 40
2.799999999999999
  1
　　．　　．　　
 41
0.9
  7
ｽﾀｲﾙ1
100
AcDbText
  0
LINE
  5
9AF
330
1A
100
AcDbEntity
  8
ZUWAKU
100
AcDbLine
 10
252.5995892511605
 20
7.599999679512958
 30
0.0
 11
276.2634773851463
 21
7.599999679512958
 31
0.0
  0
LINE
  5
9B0
330
1A
100
AcDbEntity
  8
ZUWAKU
100
AcDbLine
 10
252.5995892511605
 20
7.699999679512956
 30
0.0
 11
276.2634773851463
 21
7.699999679512956
 31
0.0
  0
LINE
  5
9B1
330
1A
100
AcDbEntity
  8
ZUWAKU
100
AcDbLine
 10
252.5995892511605
 20
7.799999679512955
 30
0.0
 11
276.2634773851463
 21
7.799999679512955
 31
0.0
  0
TEXT
  5
9B2
330
1A
100
AcDbEntity
  8
moji
100
AcDbText
 10
231.2836386630844
 20
5.971308540342931
 30
0.0
 40
2.799999999999999
  1
ＬＤ０４□
 41
0.9
  7
ｽﾀｲﾙ1
100
AcDbText
  0
LINE
  5
9B3
330
1A
100
AcDbEntity
  8
ZUWAKU
100
AcDbLine
 10
223.8121814875857
 20
14.99999967951294
 30
0.0
 11
223.8121814875858
 21
0.3999996795129732
 31
0.0
  0
LINE
  5
9B4
330
1A
100
AcDbEntity
  8
ZUWAKU
100
AcDbLine
 10
223.9121814875857
 20
14.99999967951294
 30
0.0
 11
223.9121814875858
 21
0.3999996795129732
 31
0.0
  0
LINE
  5
9B5
330
1A
100
AcDbEntity
  8
ZUWAKU
100
AcDbLine
 10
223.7121814875858
 20
14.99999967951294
 30
0.0
 11
223.7121814875858
 21
0.3999996795129732
 31
0.0
  0
TEXT
  5
9B6
330
1A
100
AcDbEntity
  8
moji
100
AcDbText
 10
264.0204534882465
 20
9.002460208216632
 30
0.0
 40
2.799999999999999
  1
Ａ３
 41
0.9
  7
ｽﾀｲﾙ1
100
AcDbText
  0
LINE
  5
9B7
330
1A
100
AcDbEntity
  8
ZUWAKU
100
AcDbLine
 10
252.4995892511605
 20
14.99999967951294
 30
0.0
 11
252.4995892511606
 21
0.3999996795129732
 31
0.0
  0
LINE
  5
9B8
330
1A
100
AcDbEntity
  8
ZUWAKU
100
AcDbLine
 10
252.5995892511605
 20
14.99999967951294
 30
0.0
 11
252.5995892511606
 21
0.3999996795129732
 31
0.0
  0
LINE
  5
9B9
330
1A
100
AcDbEntity
  8
ZUWAKU
100
AcDbLine
 10
252.3995892511606
 20
14.99999967951294
 30
0.0
 11
252.3995892511606
 21
0.3999996795129732
 31
0.0
  0
TEXT
  5
9BA
330
1A
100
AcDbEntity
  8
ZUWAKU
100
AcDbText
 10
230.8507805316366
 20
1.623757161355399
 30
0.0
 40
1.5
  1
□には色品番が入ります
 41
0.9
  7
ｽﾀｲﾙ1
100
AcDbText
  0
TEXT
  5
9BB
330
1A
100
AcDbEntity
  8
ZUWAKU
100
AcDbText
 10
253.3383117622654
 20
4.827677948705748
 30
0.0
 40
2.0
  1
縮尺
 41
0.9
  7
ｽﾀｲﾙ1
100
AcDbText
  0
TEXT
  5
9BC
330
1A
100
AcDbEntity
  8
moji
100
AcDbText
 10
264.0204534882465
 20
1.602460208216649
 30
0.0
 40
2.799999999999999
  1
１/１
 41
0.9
  7
ｽﾀｲﾙ1
100
AcDbText
  0
TEXT
  5
9BD
330
1A
100
AcDbEntity
  8
ZUWAKU
100
AcDbText
 10
224.6509039986905
 20
12.02767794870573
 30
0.0
 40
2.0
  1
品番
 41
0.9
  7
ｽﾀｲﾙ1
100
AcDbText
  0
TEXT
  5
9BE
330
1A
100
AcDbEntity
  8
ZUWAKU
100
AcDbText
 10
253.3383117622654
 20
12.02767794870573
 30
0.0
 40
2.0
  1
用紙
 41
0.9
  7
ｽﾀｲﾙ1
100
AcDbText
  0
LINE
  5
9BF
330
1A
100
AcDbEntity
  8
ZUWAKU
100
AcDbLine
 10
324.3086007571923
 20
14.99999967951294
 30
0.0
 11
324.3086007571924
 21
0.3999996795129732
 31
0.0
  0
LINE
  5
9C0
330
1A
100
AcDbEntity
  8
ZUWAKU
100
AcDbLine
 10
324.4086007571923
 20
14.99999967951294
 30
0.0
 11
324.4086007571924
 21
0.3999996795129732
 31
0.0
  0
LINE
  5
9C1
330
1A
100
AcDbEntity
  8
ZUWAKU
100
AcDbLine
 10
324.2086007571924
 20
14.99999967951294
 30
0.0
 11
324.2086007571924
 21
0.3999996795129732
 31
0.0
  0
LINE
  5
9C2
330
1A
100
AcDbEntity
  8
ZUWAKU
100
AcDbLine
 10
276.3634773851462
 20
14.99999967951294
 30
0.0
 11
276.3634773851463
 21
0.3999996795129732
 31
0.0
  0
LINE
  5
9C3
330
1A
100
AcDbEntity
  8
ZUWAKU
100
AcDbLine
 10
276.4634773851462
 20
14.99999967951294
 30
0.0
 11
276.4634773851463
 21
0.3999996795129732
 31
0.0
  0
LINE
  5
9C4
330
1A
100
AcDbEntity
  8
ZUWAKU
100
AcDbLine
 10
276.2634773851463
 20
14.99999967951294
 30
0.0
 11
276.2634773851463
 21
0.3999996795129732
 31
0.0
  0
TEXT
  5
9C5
330
1A
100
AcDbEntity
  8
ZUWAKU
100
AcDbText
 10
325.1473232682971
 20
12.02767794870573
 30
0.0
 40
2.0
  1
DATE
 41
0.9
  7
ｽﾀｲﾙ1
100
AcDbText
  0
LINE
  5
9C6
330
1A
100
AcDbEntity
  8
ZUWAKU
100
AcDbLine
 10
348.6245047763607
 20
14.99999967951294
 30
0.0
 11
348.6245047763607
 21
0.3999996795129732
 31
0.0
  0
LINE
  5
9C7
330
1A
100
AcDbEntity
  8
ZUWAKU
100
AcDbLine
 10
348.7245047763607
 20
14.99999967951294
 30
0.0
 11
348.7245047763607
 21
0.3999996795129732
 31
0.0
  0
LINE
  5
9C8
330
1A
100
AcDbEntity
  8
ZUWAKU
100
AcDbLine
 10
348.8245047763606
 20
14.99999967951294
 30
0.0
 11
348.8245047763608
 21
0.3999996795129732
 31
0.0
  0
LINE
  5
9C9
330
1A
100
AcDbEntity
  8
ZUWAKU
100
AcDbLine
 10
348.9245047763607
 20
14.99999967951294
 30
0.0
 11
348.9245047763608
 21
0.3999996795129732
 31
0.0
  0
TEXT
  5
9CA
330
1A
100
AcDbEntity
  8
ZUWAKU
100
AcDbText
 10
354.264041598212
 20
6.17691934735634
 30
0.0
 40
3.0
  1
積水化学工業株式会社
 41
0.9
  7
ｽﾀｲﾙ1
100
AcDbText
  0
ELLIPSE
  5
9DD
330
1A
100
AcDbEntity
  8
SEIHIN
100
AcDbEllipse
 10
238.8938042479918
 20
187.122205277761
 30
0.0
 11
0.0
 21
2.0
 31
0.0
210
0.0
220
0.0
230
1.0
 40
0.3654521941469682
 41
0.0
 42
6.283185307179586
  0
ELLIPSE
  5
9DE
330
1A
100
AcDbEntity
  8
SEIHIN
100
AcDbEllipse
 10
247.0639042479917
 20
187.122192954426
 30
0.0
 11
0.0
 21
2.0
 31
0.0
210
0.0
220
0.0
230
1.0
 40
0.3654521941469682
 41
0.0
 42
6.283185307179586
  0
ELLIPSE
  5
9DF
330
1A
100
AcDbEntity
  8
SEIHIN
100
AcDbEllipse
 10
238.8939042479918
 20
228.122205277761
 30
0.0
 11
0.0
 21
2.0
 31
0.0
210
0.0
220
0.0
230
1.0
 40
0.3654521941469682
 41
0.0
 42
6.283185307179586
  0
ELLIPSE
  5
9E0
330
1A
100
AcDbEntity
  8
SEIHIN
100
AcDbEllipse
 10
247.0640042479916
 20
228.122192954426
 30
0.0
 11
0.0
 21
2.0
 31
0.0
210
0.0
220
0.0
230
1.0
 40
0.3654521941469682
 41
0.0
 42
6.283185307179586
  0
LINE
  5
9F7
330
1A
100
AcDbEntity
  8
CENTER L
  6
CENTER
 62
     1
 48
5.0
100
AcDbLine
 10
49.0526891584647
 20
88.09382177464668
 30
0.0
 11
54.90125131176483
 21
88.09376349242299
 31
0.0
  0
LINE
  5
9F8
330
1A
100
AcDbEntity
  8
CENTER L
  6
CENTER
 62
     1
 48
5.0
100
AcDbLine
 10
52.05144885939938
 20
84.77322679397991
 30
0.0
 11
52.05150865073491
 21
90.77322679368196
 31
0.0
  0
LINE
  5
9F9
330
1A
100
AcDbEntity
  8
CENTER L
  6
CENTER
 62
     1
 48
5.0
100
AcDbLine
 10
49.12740857327722
 20
108.93634168162
 30
0.0
 11
54.97597072657743
 21
108.9362833993963
 31
0.0
  0
LINE
  5
9FA
330
1A
100
AcDbEntity
  8
CENTER L
  6
CENTER
 62
     1
 48
5.0
100
AcDbLine
 10
52.051653363092
 20
105.2949653469522
 30
0.0
 11
52.05171315442754
 21
111.2949653466543
 31
0.0
  0
CIRCLE
  5
1362
330
1A
100
AcDbEntity
  8
SEIHIN
100
AcDbCircle
 10
316.6136827768168
 20
116.3574070616725
 30
0.0
 40
1.25
  0
CIRCLE
  5
1363
330
1A
100
AcDbEntity
  8
SEIHIN
100
AcDbCircle
 10
308.44354995774
 20
136.784110344577
 30
0.0
 40
1.25
  0
CIRCLE
  5
136B
330
1A
100
AcDbEntity
  8
SEIHIN
100
AcDbCircle
 10
354.6815246384054
 20
131.5834551728301
 30
0.0
 40
1.25
  0
CIRCLE
  5
136C
330
1A
100
AcDbEntity
  8
SEIHIN
100
AcDbCircle
 10
346.5113918193286
 20
152.0101584557346
 30
0.0
 40
1.25
  0
ARC
  5
1402
330
1A
100
AcDbEntity
  8
SEIHIN
100
AcDbCircle
 10
52.04411770793127
 20
108.8076569120584
 30
0.0
 40
1.25
100
AcDbArc
 50
359.5867620429297
 51
173.6767982698249
  0
ARC
  5
1403
330
1A
100
AcDbEntity
  8
SEIHIN
100
AcDbCircle
 10
52.05168964992732
 20
109.2822672257497
 30
0.0
 40
1.25
100
AcDbArc
 50
190.031077120664
 51
348.1408820482196
  0
ARC
  5
1404
330
1A
100
AcDbEntity
  8
SEIHIN
100
AcDbCircle
 10
52.05168964992732
 20
108.9363125405082
 30
0.0
 40
1.25
100
AcDbArc
 50
179.5867620429297
 51
353.676798269825
  0
ARC
  5
140D
330
1A
100
AcDbEntity
  8
SEIHIN
100
AcDbCircle
 10
51.96939829311872
 20
87.96513700508503
 30
0.0
 40
1.25
100
AcDbArc
 50
359.5867620429297
 51
173.6767982698249
  0
ARC
  5
140E
330
1A
100
AcDbEntity
  8
SEIHIN
100
AcDbCircle
 10
51.97697023511476
 20
88.43974731877635
 30
0.0
 40
1.25
100
AcDbArc
 50
190.031077120664
 51
348.1408820482196
  0
ARC
  5
140F
330
1A
100
AcDbEntity
  8
SEIHIN
100
AcDbCircle
 10
51.97697023511476
 20
88.09379263353482
 30
0.0
 40
1.25
100
AcDbArc
 50
179.5867620429297
 51
353.676798269825
  0
ARC
  5
1418
330
1A
100
AcDbEntity
  8
SEIHIN
100
AcDbCircle
 10
93.04393230599567
 20
108.8074526259191
 30
0.0
 40
1.25
100
AcDbArc
 50
359.5867620429297
 51
173.6767982698249
  0
ARC
  5
1419
330
1A
100
AcDbEntity
  8
SEIHIN
100
AcDbCircle
 10
93.05150424799171
 20
109.2820629396104
 30
0.0
 40
1.25
100
AcDbArc
 50
190.031077120664
 51
348.1408820482196
  0
ARC
  5
141A
330
1A
100
AcDbEntity
  8
SEIHIN
100
AcDbCircle
 10
93.05150424799171
 20
108.9361082543689
 30
0.0
 40
1.25
100
AcDbArc
 50
179.5867620429297
 51
353.676798269825
  0
ARC
  5
1423
330
1A
100
AcDbEntity
  8
SEIHIN
100
AcDbCircle
 10
93.04393230599567
 20
87.96493197538502
 30
0.0
 40
1.25
100
AcDbArc
 50
359.5867620429297
 51
173.6767982698249
  0
ARC
  5
1424
330
1A
100
AcDbEntity
  8
SEIHIN
100
AcDbCircle
 10
93.05150424799171
 20
88.43954228907632
 30
0.0
 40
1.25
100
AcDbArc
 50
190.031077120664
 51
348.1408820482196
  0
ARC
  5
1425
330
1A
100
AcDbEntity
  8
SEIHIN
100
AcDbCircle
 10
93.05150424799171
 20
88.09358760383481
 30
0.0
 40
1.25
100
AcDbArc
 50
179.5867620429297
 51
353.676798269825
  0
VIEWPORT
  5
22
102
{ACAD_XDICTIONARY
360
1431
102
}
330
17
100
AcDbEntity
 67
     1
  8
0
100
AcDbViewport
 10
313.6808219178083
 20
148.5
 30
0.0
 40
627.3616438356165
 41
297.0
 68
     2
 69
     1
 12
313.6808219178083
 22
148.5
 13
0.0
 23
0.0
 14
1.0
 24
1.0
 15
10.0
 25
10.0
 16
0.0
 26
0.0
 36
1.0
 17
0.0
 27
0.0
 37
0.0
 42
50.0
 43
0.0
 44
0.0
 45
297.0
 50
0.0
 51
0.0
 72
   100
 90
    32768
  1

281
     0
 71
     1
 74
     0
110
0.0
120
0.0
130
0.0
111
1.0
121
0.0
131
0.0
112
0.0
122
1.0
132
0.0
 79
     0
146
0.0
  0
VIEWPORT
  5
64
102
{ACAD_XDICTIONARY
360
1433
102
}
330
17
100
AcDbEntity
 67
     1
  8
VIEWPORT
100
AcDbViewport
 10
210.0
 20
148.5
 30
0.0
 40
420.0
 41
297.0
 68
     1
 69
     2
 12
210.0
 22
148.5
 13
0.0
 23
0.0
 14
5.0
 24
5.0
 15
0.0
 25
0.0
 16
0.0
 26
0.0
 36
1.0
 17
0.0
 27
0.0
 37
0.0
 42
50.0
 43
0.0
 44
0.0
 45
302.9399999999999
 50
0.0
 51
0.0
 72
   100
 90
    32768
  1

281
     0
 71
     1
 74
     0
110
0.0
120
0.0
130
0.0
111
1.0
121
0.0
131
0.0
112
0.0
122
1.0
132
0.0
 79
     0
146
0.0
  0
ENDSEC
  0
SECTION
  2
OBJECTS
  0
DICTIONARY
  5
C
330
0
100
AcDbDictionary
281
     1
  3
ACAD_COLOR
350
135D
  3
ACAD_GROUP
350
D
  3
ACAD_LAYOUT
350
7D4
  3
ACAD_MATERIAL
350
135C
  3
ACAD_MLINESTYLE
350
E
  3
ACAD_PLOTSETTINGS
350
7D5
  3
ACAD_PLOTSTYLENAME
350
7D2
  3
ACDBHEADERROUNDTRIPXREC
350
142E
  3
AcDbVariableDictionary
350
142A
  0
DICTIONARY
  5
817
330
1A
100
AcDbDictionary
280
     1
281
     1
  3
ACAD_LAYOUTSELFREF
360
1339
  0
DICTIONARY
  5
815
330
17
100
AcDbDictionary
280
     1
281
     1
  3
ACAD_LAYOUTSELFREF
360
1338
  0
DICTIONARY
  5
13F6
330
13F0
100
AcDbDictionary
280
     1
281
     1
  0
DICTIONARY
  5
1431
330
22
100
AcDbDictionary
280
     1
281
     1
  3
ACAD_XREC_ROUNDTRIP
360
1432
  0
DICTIONARY
  5
1433
330
64
100
AcDbDictionary
280
     1
281
     1
  3
ACAD_XREC_ROUNDTRIP
360
1434
  0
DICTIONARY
  5
135D
102
{ACAD_REACTORS
330
C
102
}
330
C
100
AcDbDictionary
281
     1
  0
DICTIONARY
  5
D
102
{ACAD_REACTORS
330
C
102
}
330
C
100
AcDbDictionary
281
     1
  0
DICTIONARY
  5
7D4
102
{ACAD_REACTORS
330
C
102
}
330
C
100
AcDbDictionary
281
     1
  3
Model
350
7D6
  3
ﾚｲｱｳﾄ1
350
7D7
  0
DICTIONARY
  5
135C
102
{ACAD_REACTORS
330
C
102
}
330
C
100
AcDbDictionary
281
     1
  0
DICTIONARY
  5
E
102
{ACAD_REACTORS
330
C
102
}
330
C
100
AcDbDictionary
281
     1
  3
STANDARD
350
13
  0
DICTIONARY
  5
7D5
102
{ACAD_REACTORS
330
C
102
}
330
C
100
AcDbDictionary
281
     1
  0
ACDBDICTIONARYWDFLT
  5
7D2
102
{ACAD_REACTORS
330
C
102
}
330
C
100
AcDbDictionary
281
     1
  3
Normal
350
7D3
100
AcDbDictionaryWithDefault
340
7D3
1001
ACAD
1000
TREAT_AS_HARD
1070
     0
1000
TREAT_AS_HARD
1070
     0
1000
TREAT_AS_HARD
1070
     0
1000
TREAT_AS_HARD
1070
     0
  0
DICTIONARY
  5
142E
102
{ACAD_REACTORS
330
C
102
}
330
C
100
AcDbDictionary
281
     1
  3
COLORDICT
350
1430
  3
MATERIALDICT
350
142F
  0
DICTIONARY
  5
142A
102
{ACAD_REACTORS
330
C
102
}
330
C
100
AcDbDictionary
281
     1
  3
DIMASSOC
350
142B
  3
PROJECTNAME
350
142C
  0
XRECORD
  5
1339
102
{ACAD_REACTORS
330
817
102
}
330
817
100
AcDbXrecord
280
     1
340
1A
  0
XRECORD
  5
1338
102
{ACAD_REACTORS
330
815
102
}
330
815
100
AcDbXrecord
280
     1
340
17
  0
XRECORD
  5
1432
102
{ACAD_REACTORS
330
1431
102
}
330
1431
100
AcDbXrecord
280
     1
102
SHADEPLOT
 70
     0
  0
XRECORD
  5
1434
102
{ACAD_REACTORS
330
1433
102
}
330
1433
100
AcDbXrecord
280
     1
102
SHADEPLOT
 70
     0
  0
LAYOUT
  5
7D6
102
{ACAD_XDICTIONARY
360
1435
102
}
102
{ACAD_REACTORS
330
7D4
102
}
330
7D4
100
AcDbPlotSettings
  1

  2
CubePDF
  4
A3
  6

 40
3.174999999999999
 41
3.174999999999999
 42
3.174987999999999
 43
3.174987999999999
 44
420.1583249999999
 45
297.03183
 46
3.0
 47
0.0
 48
0.0
 49
0.0
140
0.0
141
0.0
142
1.0
143
0.9638082659572887
 70
 28336
 72
     1
 73
     0
 74
     1
  7
monochrome.ctb
 75
     0
147
1.037550761205356
148
0.0143072770241588
149
0.0101256606567404
100
AcDbLayout
  1
Model
 70
     1
 71
     0
 10
0.0
 20
0.0
 11
12.0
 21
9.0
 12
0.0
 22
0.0
 32
0.0
 14
0.0
 24
0.0
 34
0.0
 15
0.0
 25
0.0
 35
0.0
146
0.0
 13
0.0
 23
0.0
 33
0.0
 16
1.0
 26
0.0
 36
0.0
 17
0.0
 27
1.0
 37
0.0
 76
     0
330
1A
  0
LAYOUT
  5
7D7
102
{ACAD_XDICTIONARY
360
1437
102
}
102
{ACAD_REACTORS
330
7D4
102
}
330
7D4
100
AcDbPlotSettings
  1

  2
C:\PROGRAM FILES\ACAD LT 2000\plotters\DWF ePlot.pc3
  4

  6

 40
0.0
 41
0.0
 42
0.0
 43
0.0
 44
0.0
 45
0.0
 46
0.0
 47
0.0
 48
0.0
 49
0.0
140
0.0
141
0.0
142
1.0
143
1.0
 70
   688
 72
     0
 73
     0
 74
     5
  7
print.ctb
 75
    16
147
1.0
148
0.0
149
0.0
100
AcDbLayout
  1
ﾚｲｱｳﾄ1
 70
     1
 71
     1
 10
0.0
 20
0.0
 11
420.0
 21
297.0
 12
0.0
 22
0.0
 32
0.0
 14
0.0
 24
0.0
 34
0.0
 15
420.0
 25
297.0
 35
0.0
146
0.0
 13
0.0
 23
0.0
 33
0.0
 16
1.0
 26
0.0
 36
0.0
 17
0.0
 27
1.0
 37
0.0
 76
     0
330
17
331
64
  0
MLINESTYLE
  5
13
102
{ACAD_REACTORS
330
E
102
}
330
E
100
AcDbMlineStyle
  2
STANDARD
 70
     0
  3

 62
     0
 51
90.0
 52
90.0
 71
     2
 49
0.5
 62
   256
  6
BYLAYER
 49
-0.5
 62
   256
  6
BYLAYER
  0
ACDBPLACEHOLDER
  5
7D3
102
{ACAD_REACTORS
330
7D2
102
}
330
7D2
  0
XRECORD
  5
1430
102
{ACAD_REACTORS
330
142E
102
}
330
142E
100
AcDbXrecord
280
     1
340
135D
  0
XRECORD
  5
142F
102
{ACAD_REACTORS
330
142E
102
}
330
142E
100
AcDbXrecord
280
     1
340
135C
  0
DICTIONARYVAR
  5
142B
102
{ACAD_REACTORS
330
142A
102
}
330
142A
100
DictionaryVariables
280
     0
  1
1
  0
DICTIONARYVAR
  5
142C
102
{ACAD_REACTORS
330
142A
102
}
330
142A
100
DictionaryVariables
280
     0
  1

  0
DICTIONARY
  5
1435
330
7D6
100
AcDbDictionary
280
     1
281
     1
  3
ACAD_XREC_ROUNDTRIP
360
1436
  0
DICTIONARY
  5
1437
330
7D7
100
AcDbDictionary
280
     1
281
     1
  3
ACAD_XREC_ROUNDTRIP
360
1438
  0
XRECORD
  5
1436
102
{ACAD_REACTORS
330
1435
102
}
330
1435
100
AcDbXrecord
280
     1
102
SHADEPLOT
 70
     1
102
SHADEPLOTRESLEVEL
 70
     2
102
SHADEPLOTCUSTOMDPI
 70
   300
  0
XRECORD
  5
1438
102
{ACAD_REACTORS
330
1437
102
}
330
1437
100
AcDbXrecord
280
     1
102
SHADEPLOT
 70
     0
102
SHADEPLOTRESLEVEL
 70
     2
102
SHADEPLOTCUSTOMDPI
 70
   300
  0
ENDSEC
  0
EOF
