  0
SECTION
  2
HEADER
  9
$ACADVER
  1
AC1015
  9
$ACADMAINTVER
 70
    20
  9
$DWGCODEPAGE
  3
ANSI_932
  9
$INSBASE
 10
0.0
 20
0.0
 30
0.0
  9
$EXTMIN
 10
-0.0161156019444206
 20
-0.014849887049536
 30
-0.0015258207003583
  9
$EXTMAX
 10
398.8228498749993
 20
275.8221359488124
 30
0.0000000349246037
  9
$LIMMIN
 10
0.0
 20
0.0
  9
$LIMMAX
 10
420.0
 20
297.0
  9
$ORTHOMODE
 70
     0
  9
$REGENMODE
 70
     1
  9
$FILLMODE
 70
     1
  9
$QTEXTMODE
 70
     0
  9
$MIRRTEXT
 70
     1
  9
$LTSCALE
 40
1.0
  9
$ATTMODE
 70
     1
  9
$TEXTSIZE
 40
2.5
  9
$TRACEWID
 40
1.0
  9
$TEXTSTYLE
  7
STANDARD
  9
$CLAYER
  8
SUNPOU
  9
$CELTYPE
  6
BYLAYER
  9
$CECOLOR
 62
   256
  9
$CELTSCALE
 40
1.0
  9
$DISPSILH
 70
     0
  9
$DIMSCALE
 40
1.0
  9
$DIMASZ
 40
3.0
  9
$DIMEXO
 40
3.0
  9
$DIMDLI
 40
7.0
  9
$DIMRND
 40
0.0
  9
$DIMDLE
 40
0.0
  9
$DIMEXE
 40
1.5
  9
$DIMTP
 40
0.0
  9
$DIMTM
 40
0.0
  9
$DIMTXT
 40
3.0
  9
$DIMCEN
 40
150.0
  9
$DIMTSZ
 40
0.0
  9
$DIMTOL
 70
     0
  9
$DIMLIM
 70
     0
  9
$DIMTIH
 70
     0
  9
$DIMTOH
 70
     0
  9
$DIMSE1
 70
     0
  9
$DIMSE2
 70
     0
  9
$DIMTAD
 70
     3
  9
$DIMZIN
 70
     0
  9
$DIMBLK
  1

  9
$DIMASO
 70
     1
  9
$DIMSHO
 70
     1
  9
$DIMPOST
  1

  9
$DIMAPOST
  1

  9
$DIMALT
 70
     0
  9
$DIMALTD
 70
     2
  9
$DIMALTF
 40
25.4
  9
$DIMLFAC
 40
1.0
  9
$DIMTOFL
 70
     1
  9
$DIMTVP
 40
0.0
  9
$DIMTIX
 70
     0
  9
$DIMSOXD
 70
     0
  9
$DIMSAH
 70
     1
  9
$DIMBLK1
  1
OPEN
  9
$DIMBLK2
  1
OPEN
  9
$DIMSTYLE
  2
STANDARD
  9
$DIMCLRD
 70
   256
  9
$DIMCLRE
 70
   256
  9
$DIMCLRT
 70
   256
  9
$DIMTFAC
 40
1.0
  9
$DIMGAP
 40
1.0
  9
$DIMJUST
 70
     0
  9
$DIMSD1
 70
     0
  9
$DIMSD2
 70
     0
  9
$DIMTOLJ
 70
     1
  9
$DIMTZIN
 70
     0
  9
$DIMALTZ
 70
     0
  9
$DIMALTTZ
 70
     0
  9
$DIMUPT
 70
     0
  9
$DIMDEC
 70
     0
  9
$DIMTDEC
 70
     0
  9
$DIMALTU
 70
     2
  9
$DIMALTTD
 70
     2
  9
$DIMTXSTY
  7
STANDARD
  9
$DIMAUNIT
 70
     0
  9
$DIMADEC
 70
     0
  9
$DIMALTRND
 40
0.0
  9
$DIMAZIN
 70
     0
  9
$DIMDSEP
 70
    46
  9
$DIMATFIT
 70
     3
  9
$DIMFRAC
 70
     0
  9
$DIMLDRBLK
  1
OPEN
  9
$DIMLUNIT
 70
     2
  9
$DIMLWD
 70
    -1
  9
$DIMLWE
 70
    -1
  9
$DIMTMOVE
 70
     0
  9
$LUNITS
 70
     2
  9
$LUPREC
 70
     4
  9
$SKETCHINC
 40
1.0
  9
$FILLETRAD
 40
10.0
  9
$AUNITS
 70
     0
  9
$AUPREC
 70
     0
  9
$MENU
  1
.
  9
$ELEVATION
 40
0.0
  9
$PELEVATION
 40
0.0
  9
$THICKNESS
 40
0.0
  9
$LIMCHECK
 70
     0
  9
$CHAMFERA
 40
10.0
  9
$CHAMFERB
 40
10.0
  9
$CHAMFERC
 40
20.0
  9
$CHAMFERD
 40
0.0
  9
$SKPOLY
 70
     0
  9
$TDCREATE
 40
2450994.350997107
  9
$TDUCREATE
 40
2450993.975997107
  9
$TDUPDATE
 40
2458319.694642361
  9
$TDUUPDATE
 40
2458319.319642361
  9
$TDINDWG
 40
0.0748577431
  9
$TDUSRTIMER
 40
0.0748577431
  9
$USRTIMER
 70
     1
  9
$ANGBASE
 50
0.0
  9
$ANGDIR
 70
     0
  9
$PDMODE
 70
     1
  9
$PDSIZE
 40
0.0
  9
$PLINEWID
 40
0.0
  9
$SPLFRAME
 70
     0
  9
$SPLINETYPE
 70
     6
  9
$SPLINESEGS
 70
     8
  9
$HANDSEED
  5
1624
  9
$SURFTAB1
 70
     6
  9
$SURFTAB2
 70
     6
  9
$SURFTYPE
 70
     6
  9
$SURFU
 70
     6
  9
$SURFV
 70
     6
  9
$UCSBASE
  2

  9
$UCSNAME
  2

  9
$UCSORG
 10
0.0
 20
0.0
 30
0.0
  9
$UCSXDIR
 10
1.0
 20
0.0
 30
0.0
  9
$UCSYDIR
 10
0.0
 20
1.0
 30
0.0
  9
$UCSORTHOREF
  2

  9
$UCSORTHOVIEW
 70
     0
  9
$UCSORGTOP
 10
0.0
 20
0.0
 30
0.0
  9
$UCSORGBOTTOM
 10
0.0
 20
0.0
 30
0.0
  9
$UCSORGLEFT
 10
0.0
 20
0.0
 30
0.0
  9
$UCSORGRIGHT
 10
0.0
 20
0.0
 30
0.0
  9
$UCSORGFRONT
 10
0.0
 20
0.0
 30
0.0
  9
$UCSORGBACK
 10
0.0
 20
0.0
 30
0.0
  9
$PUCSBASE
  2

  9
$PUCSNAME
  2

  9
$PUCSORG
 10
0.0
 20
0.0
 30
0.0
  9
$PUCSXDIR
 10
1.0
 20
0.0
 30
0.0
  9
$PUCSYDIR
 10
0.0
 20
1.0
 30
0.0
  9
$PUCSORTHOREF
  2

  9
$PUCSORTHOVIEW
 70
     0
  9
$PUCSORGTOP
 10
0.0
 20
0.0
 30
0.0
  9
$PUCSORGBOTTOM
 10
0.0
 20
0.0
 30
0.0
  9
$PUCSORGLEFT
 10
0.0
 20
0.0
 30
0.0
  9
$PUCSORGRIGHT
 10
0.0
 20
0.0
 30
0.0
  9
$PUCSORGFRONT
 10
0.0
 20
0.0
 30
0.0
  9
$PUCSORGBACK
 10
0.0
 20
0.0
 30
0.0
  9
$USERI1
 70
     0
  9
$USERI2
 70
     0
  9
$USERI3
 70
     0
  9
$USERI4
 70
     0
  9
$USERI5
 70
     0
  9
$USERR1
 40
0.0
  9
$USERR2
 40
0.0
  9
$USERR3
 40
0.0
  9
$USERR4
 40
0.0
  9
$USERR5
 40
0.0
  9
$WORLDVIEW
 70
     1
  9
$SHADEDGE
 70
     3
  9
$SHADEDIF
 70
    70
  9
$TILEMODE
 70
     1
  9
$MAXACTVP
 70
    16
  9
$PINSBASE
 10
0.0
 20
0.0
 30
0.0
  9
$PLIMCHECK
 70
     0
  9
$PEXTMIN
 10
0.0
 20
0.0
 30
0.0
  9
$PEXTMAX
 10
420.0
 20
297.0
 30
0.0
  9
$PLIMMIN
 10
0.0
 20
0.0
  9
$PLIMMAX
 10
420.0
 20
297.0
  9
$UNITMODE
 70
     0
  9
$VISRETAIN
 70
     0
  9
$PLINEGEN
 70
     0
  9
$PSLTSCALE
 70
     1
  9
$TREEDEPTH
 70
  3020
  9
$CMLSTYLE
  2
STANDARD
  9
$CMLJUST
 70
     0
  9
$CMLSCALE
 40
1.0
  9
$PROXYGRAPHICS
 70
     1
  9
$MEASUREMENT
 70
     1
  9
$CELWEIGHT
370
    -1
  9
$ENDCAPS
280
     0
  9
$JOINSTYLE
280
     0
  9
$LWDISPLAY
290
     0
  9
$INSUNITS
 70
     0
  9
$HYPERLINKBASE
  1

  9
$STYLESHEET
  1
monochrome.ctb
  9
$XEDIT
290
     1
  9
$CEPSNTYPE
380
     0
  9
$PSTYLEMODE
290
     1
  9
$FINGERPRINTGUID
  2
{AC0E9083-57A6-44E6-9196-E0F7720DC3E7}
  9
$VERSIONGUID
  2
{74EA742F-F04E-4631-B4F1-78F417DBE3A8}
  9
$EXTNAMES
290
     1
  9
$PSVPSCALE
 40
0.0
  9
$OLESTARTUP
290
     0
  0
ENDSEC
  0
SECTION
  2
CLASSES
  0
CLASS
  1
ACDBDICTIONARYWDFLT
  2
AcDbDictionaryWithDefault
  3
ObjectDBX Classes
 90
        0
280
     0
281
     0
  0
CLASS
  1
ACDBPLACEHOLDER
  2
AcDbPlaceHolder
  3
ObjectDBX Classes
 90
        0
280
     0
281
     0
  0
CLASS
  1
LAYOUT
  2
AcDbLayout
  3
ObjectDBX Classes
 90
        0
280
     0
281
     0
  0
CLASS
  1
DICTIONARYVAR
  2
AcDbDictionaryVar
  3
ObjectDBX Classes
 90
        0
280
     0
281
     0
  0
ENDSEC
  0
SECTION
  2
TABLES
  0
TABLE
  2
VPORT
  5
8
330
0
100
AcDbSymbolTable
 70
     3
  0
VPORT
  5
1618
330
8
100
AcDbSymbolTableRecord
100
AcDbViewportTableRecord
  2
*Active
 70
     0
 10
0.0
 20
0.0
 11
1.0
 21
1.0
 12
240.9733000913937
 22
133.7697590027338
 13
0.0
 23
0.0
 14
5.0
 24
5.0
 15
0.0
 25
0.0
 16
0.0
 26
0.0
 36
1.0
 17
0.0
 27
0.0
 37
0.0
 40
376.8891510269058
 41
2.083424807903402
 42
50.0
 43
0.0
 44
0.0
 50
0.0
 51
0.0
 71
     0
 72
   100
 73
     1
 74
     0
 75
     0
 76
     0
 77
     0
 78
     0
281
     0
 65
     1
110
0.0
120
0.0
130
0.0
111
1.0
121
0.0
131
0.0
112
0.0
122
1.0
132
0.0
 79
     0
146
0.0
  0
ENDTAB
  0
TABLE
  2
LTYPE
  5
5
330
0
100
AcDbSymbolTable
 70
     3
  0
LTYPE
  5
14
330
5
100
AcDbSymbolTableRecord
100
AcDbLinetypeTableRecord
  2
BYBLOCK
 70
     0
  3

 72
    65
 73
     0
 40
0.0
  0
LTYPE
  5
15
330
5
100
AcDbSymbolTableRecord
100
AcDbLinetypeTableRecord
  2
BYLAYER
 70
     0
  3

 72
    65
 73
     0
 40
0.0
  0
LTYPE
  5
16
330
5
100
AcDbSymbolTableRecord
100
AcDbLinetypeTableRecord
  2
CONTINUOUS
 70
     0
  3
Solid line
 72
    65
 73
     0
 40
0.0
  0
LTYPE
  5
120
330
5
100
AcDbSymbolTableRecord
100
AcDbLinetypeTableRecord
  2
CENTER
 70
     0
  3
____ _ ____ _ ____ _ ____ _ ____ _ ____ _ ____ 
 72
    65
 73
     4
 40
2.0
 49
1.25
 74
     0
 49
-0.25
 74
     0
 49
0.25
 74
     0
 49
-0.25
 74
     0
  0
LTYPE
  5
122
330
5
100
AcDbSymbolTableRecord
100
AcDbLinetypeTableRecord
  2
PHANTOM
 70
     0
  3
______  __  __  ______  __  __  ______  __  __ 
 72
    65
 73
     6
 40
2.5
 49
1.25
 74
     0
 49
-0.25
 74
     0
 49
0.25
 74
     0
 49
-0.25
 74
     0
 49
0.25
 74
     0
 49
-0.25
 74
     0
  0
ENDTAB
  0
TABLE
  2
LAYER
  5
2
330
0
100
AcDbSymbolTable
 70
    10
  0
LAYER
  5
F
330
2
100
AcDbSymbolTableRecord
100
AcDbLayerTableRecord
  2
0
 70
     0
 62
     7
  6
CONTINUOUS
370
    -3
390
7AD
  0
LAYER
  5
62
330
2
100
AcDbSymbolTableRecord
100
AcDbLayerTableRecord
  2
VIEWPORT
 70
     0
 62
     7
  6
CONTINUOUS
370
    -3
390
7AD
  0
LAYER
  5
6B
330
2
100
AcDbSymbolTableRecord
100
AcDbLayerTableRecord
  2
ZUWAKU
 70
     0
 62
     7
  6
CONTINUOUS
370
    -3
390
7AD
  0
LAYER
  5
146
330
2
100
AcDbSymbolTableRecord
100
AcDbLayerTableRecord
  2
SUNPOU L
 70
     0
 62
     4
  6
CONTINUOUS
370
    -3
390
7AD
  0
LAYER
  5
185
330
2
100
AcDbSymbolTableRecord
100
AcDbLayerTableRecord
  2
CENTER L
 70
     0
 62
     1
  6
CENTER
370
    -3
390
7AD
  0
LAYER
  5
18C
330
2
100
AcDbSymbolTableRecord
100
AcDbLayerTableRecord
  2
DEFPOINTS
 70
     0
 62
     7
  6
CONTINUOUS
290
     0
370
    -3
390
7AD
  0
LAYER
  5
2D1
330
2
100
AcDbSymbolTableRecord
100
AcDbLayerTableRecord
  2
SUNPOU
 70
     0
 62
     4
  6
CONTINUOUS
370
    -3
390
7AD
  0
LAYER
  5
2D2
330
2
100
AcDbSymbolTableRecord
100
AcDbLayerTableRecord
  2
SEIHIN
 70
     0
 62
     3
  6
CONTINUOUS
370
    -3
390
7AD
  0
LAYER
  5
2D3
330
2
100
AcDbSymbolTableRecord
100
AcDbLayerTableRecord
  2
NOKITOI
 70
     0
 62
     8
  6
PHANTOM
370
    -3
390
7AD
  0
LAYER
  5
823
330
2
100
AcDbSymbolTableRecord
100
AcDbLayerTableRecord
  2
moji
 70
     0
 62
     2
  6
CONTINUOUS
370
    -3
390
7AD
  0
ENDTAB
  0
TABLE
  2
STYLE
  5
3
330
0
100
AcDbSymbolTable
 70
     2
  0
STYLE
  5
10
330
3
100
AcDbSymbolTableRecord
100
AcDbTextStyleTableRecord
  2
STANDARD
 70
     0
 40
0.0
 41
1.0
 50
0.0
 71
     0
 42
2.5
  3
TXT
  4
bigfont.shx
  0
STYLE
  5
824
330
3
100
AcDbSymbolTableRecord
100
AcDbTextStyleTableRecord
  2
ｽﾀｲﾙ1
 70
     0
 40
0.0
 41
1.0
 50
0.0
 71
     0
 42
2.5
  3

  4

1001
ACAD
1000
MS PGothic
1071
    32818
  0
ENDTAB
  0
TABLE
  2
VIEW
  5
6
330
0
100
AcDbSymbolTable
 70
     0
  0
ENDTAB
  0
TABLE
  2
UCS
  5
7
330
0
100
AcDbSymbolTable
 70
     0
  0
ENDTAB
  0
TABLE
  2
APPID
  5
9
330
0
100
AcDbSymbolTable
 70
     1
  0
APPID
  5
11
330
9
100
AcDbSymbolTableRecord
100
AcDbRegAppTableRecord
  2
ACAD
 70
     0
  0
ENDTAB
  0
TABLE
  2
DIMSTYLE
  5
A
330
0
100
AcDbSymbolTable
 70
     1
100
AcDbDimStyleTable
 71
     0
  0
DIMSTYLE
105
1D
102
{ACAD_REACTORS
330
4C6
330
4C8
330
5A8
330
5E4
330
5EE
330
5F2
330
5F3
330
63A
330
1553
330
155A
330
155B
330
1564
102
}
330
A
100
AcDbSymbolTableRecord
100
AcDbDimStyleTableRecord
  2
STANDARD
 70
     0
340
10
  0
ENDTAB
  0
TABLE
  2
BLOCK_RECORD
  5
1
330
0
100
AcDbSymbolTable
 70
    26
  0
BLOCK_RECORD
  5
1A
102
{ACAD_XDICTIONARY
360
7DF
102
}
330
1
100
AcDbSymbolTableRecord
100
AcDbBlockTableRecord
  2
*MODEL_SPACE
340
7B0
  0
BLOCK_RECORD
  5
17
102
{ACAD_XDICTIONARY
360
7DD
102
}
330
1
100
AcDbSymbolTableRecord
100
AcDbBlockTableRecord
  2
*PAPER_SPACE
340
7B1
  0
BLOCK_RECORD
  5
B2
330
1
100
AcDbSymbolTableRecord
100
AcDbBlockTableRecord
  2
_OPEN
340
0
102
{BLKREFS
331
601
331
603
331
726
331
727
331
731
331
732
331
73C
331
73D
331
747
331
748
331
752
331
753
331
75D
331
75E
331
768
331
769
331
773
331
774
331
77E
331
77F
331
789
331
78A
331
794
331
795
331
79F
331
7A0
331
14D5
331
14D6
331
14F9
331
14FA
331
14ED
331
14EE
331
14E1
331
14E2
331
15BC
331
15BD
331
15C5
331
15C6
331
15CE
331
15CF
331
15D7
331
15D8
102
}
  0
BLOCK_RECORD
  5
692
330
1
100
AcDbSymbolTableRecord
100
AcDbBlockTableRecord
  2
*D1
340
0
  0
BLOCK_RECORD
  5
69E
330
1
100
AcDbSymbolTableRecord
100
AcDbBlockTableRecord
  2
*D2
340
0
  0
BLOCK_RECORD
  5
6AA
330
1
100
AcDbSymbolTableRecord
100
AcDbBlockTableRecord
  2
*D3
340
0
  0
BLOCK_RECORD
  5
6B6
330
1
100
AcDbSymbolTableRecord
100
AcDbBlockTableRecord
  2
*D4
340
0
  0
BLOCK_RECORD
  5
6DA
330
1
100
AcDbSymbolTableRecord
100
AcDbBlockTableRecord
  2
*D7
340
0
  0
BLOCK_RECORD
  5
6E6
330
1
100
AcDbSymbolTableRecord
100
AcDbBlockTableRecord
  2
*D8
340
0
  0
BLOCK_RECORD
  5
6F2
330
1
100
AcDbSymbolTableRecord
100
AcDbBlockTableRecord
  2
*D9
340
0
  0
BLOCK_RECORD
  5
716
330
1
100
AcDbSymbolTableRecord
100
AcDbBlockTableRecord
  2
*D12
340
0
  0
BLOCK_RECORD
  5
12D8
330
1
100
AcDbSymbolTableRecord
100
AcDbBlockTableRecord
  2
*X13
340
0
102
{BLKREFS
331
8EC
102
}
  0
BLOCK_RECORD
  5
1565
330
1
100
AcDbSymbolTableRecord
100
AcDbBlockTableRecord
  2
*D18
340
0
  0
BLOCK_RECORD
  5
1571
330
1
100
AcDbSymbolTableRecord
100
AcDbBlockTableRecord
  2
*D19
340
0
  0
BLOCK_RECORD
  5
157D
330
1
100
AcDbSymbolTableRecord
100
AcDbBlockTableRecord
  2
*D20
340
0
  0
BLOCK_RECORD
  5
1589
330
1
100
AcDbSymbolTableRecord
100
AcDbBlockTableRecord
  2
*D21
340
0
  0
ENDTAB
  0
ENDSEC
  0
SECTION
  2
BLOCKS
  0
BLOCK
  5
1B
330
1A
100
AcDbEntity
  8
0
100
AcDbBlockBegin
  2
*MODEL_SPACE
 70
     0
 10
0.0
 20
0.0
 30
0.0
  3
*MODEL_SPACE
  1

  0
ENDBLK
  5
1C
330
1A
100
AcDbEntity
  8
0
100
AcDbBlockEnd
  0
BLOCK
  5
18
330
17
100
AcDbEntity
 67
     1
  8
0
100
AcDbBlockBegin
  2
*PAPER_SPACE
 70
     0
 10
0.0
 20
0.0
 30
0.0
  3
*PAPER_SPACE
  1

  0
ENDBLK
  5
19
330
17
100
AcDbEntity
 67
     1
  8
0
100
AcDbBlockEnd
  0
BLOCK
  5
B3
330
B2
100
AcDbEntity
  8
0
100
AcDbBlockBegin
  2
_OPEN
 70
     0
 10
0.0
 20
0.0
 30
0.0
  3
_OPEN
  1

  0
LINE
  5
B4
330
B2
100
AcDbEntity
  8
0
  6
ByBlock
 62
     0
380
     1
100
AcDbLine
 10
-1.0
 20
0.1666666666666666
 30
0.0
 11
0.0
 21
0.0
 31
0.0
  0
LINE
  5
B5
330
B2
100
AcDbEntity
  8
0
  6
ByBlock
 62
     0
380
     1
100
AcDbLine
 10
0.0
 20
0.0
 30
0.0
 11
-1.0
 21
-0.1666666666666666
 31
0.0
  0
LINE
  5
B6
330
B2
100
AcDbEntity
  8
0
  6
ByBlock
 62
     0
380
     1
100
AcDbLine
 10
0.0
 20
0.0
 30
0.0
 11
-1.0
 21
0.0
 31
0.0
  0
ENDBLK
  5
B7
330
B2
100
AcDbEntity
  8
0
100
AcDbBlockEnd
  0
BLOCK
  5
722
330
692
100
AcDbEntity
  8
0
100
AcDbBlockBegin
  2
*D1
 70
     1
 10
0.0
 20
0.0
 30
0.0
  3
*D1
  1

  0
LINE
  5
723
330
692
100
AcDbEntity
  8
0
  6
ByBlock
 62
     4
100
AcDbLine
 10
246.1978563788225
 20
119.2233954026952
 30
0.0
 11
246.1978563788225
 21
158.1685338362207
 31
0.0
  0
LINE
  5
724
330
692
100
AcDbEntity
  8
0
  6
ByBlock
 62
     4
100
AcDbLine
 10
139.9978935858036
 20
149.1233954026951
 30
0.0
 11
139.9978935858036
 21
158.1685338362207
 31
0.0
  0
LINE
  5
725
330
692
100
AcDbEntity
  8
0
  6
ByBlock
 62
     4
100
AcDbLine
 10
243.1978563788225
 20
156.6685338362207
 30
0.0
 11
142.9978935858036
 21
156.6685338362207
 31
0.0
  0
INSERT
  5
726
330
692
100
AcDbEntity
  8
0
  6
ByBlock
 62
     4
100
AcDbBlockReference
  2
_OPEN
 10
246.1978563788225
 20
156.6685338362207
 30
0.0
 41
3.0
 42
3.0
 43
3.0
  0
INSERT
  5
727
330
692
100
AcDbEntity
  8
0
  6
ByBlock
 62
     4
100
AcDbBlockReference
  2
_OPEN
 10
139.9978935858036
 20
156.6685338362207
 30
0.0
 41
3.0
 42
3.0
 43
3.0
 50
180.0
  0
MTEXT
  5
728
330
692
100
AcDbEntity
  8
0
  6
ByBlock
 62
     4
100
AcDbMText
 10
193.097874982313
 20
159.1685338362207
 30
0.0
 40
3.0
 41
0.0
 71
     5
 72
     5
  1
\A1;106
 73
     1
 44
1.0
1001
ACAD
1000
MTEXTBEGIN
1070
    73
1070
     1
1070
    44
1040
1.0
1070
    74
1070
     0
1000
MTEXTEND
  0
POINT
  5
729
330
692
100
AcDbEntity
  8
DEFPOINTS
  6
ByBlock
 62
     0
380
     1
100
AcDbPoint
 10
246.1978563788225
 20
116.2233954026952
 30
0.0
  0
POINT
  5
72A
330
692
100
AcDbEntity
  8
DEFPOINTS
  6
ByBlock
 62
     0
380
     1
100
AcDbPoint
 10
139.9978935858036
 20
146.1233954026951
 30
0.0
  0
POINT
  5
72B
330
692
100
AcDbEntity
  8
DEFPOINTS
  6
ByBlock
 62
     0
380
     1
100
AcDbPoint
 10
139.9978935858036
 20
156.6685338362207
 30
0.0
  0
ENDBLK
  5
72C
330
692
100
AcDbEntity
  8
0
100
AcDbBlockEnd
  0
BLOCK
  5
72D
330
69E
100
AcDbEntity
  8
0
100
AcDbBlockBegin
  2
*D2
 70
     1
 10
0.0
 20
0.0
 30
0.0
  3
*D2
  1

  0
LINE
  5
72E
330
69E
100
AcDbEntity
  8
0
  6
ByBlock
 62
     4
100
AcDbLine
 10
136.9978935858036
 20
146.1233954026951
 30
0.0
 11
119.5578387084931
 21
146.1233954026951
 31
0.0
  0
LINE
  5
72F
330
69E
100
AcDbEntity
  8
0
  6
ByBlock
 62
     4
100
AcDbLine
 10
155.3689935858037
 20
86.52349540269524
 30
0.0
 11
119.5578387084931
 21
86.52349540269524
 31
0.0
  0
LINE
  5
730
330
69E
100
AcDbEntity
  8
0
  6
ByBlock
 62
     4
100
AcDbLine
 10
121.0578387084931
 20
143.1233954026951
 30
0.0
 11
121.0578387084931
 21
89.52349540269523
 31
0.0
  0
INSERT
  5
731
330
69E
100
AcDbEntity
  8
0
  6
ByBlock
 62
     4
100
AcDbBlockReference
  2
_OPEN
 10
121.0578387084931
 20
146.1233954026951
 30
0.0
 41
3.0
 42
3.0
 43
3.0
 50
90.0
  0
INSERT
  5
732
330
69E
100
AcDbEntity
  8
0
  6
ByBlock
 62
     4
100
AcDbBlockReference
  2
_OPEN
 10
121.0578387084931
 20
86.52349540269524
 30
0.0
 41
3.0
 42
3.0
 43
3.0
 50
270.0
  0
MTEXT
  5
733
330
69E
100
AcDbEntity
  8
0
  6
ByBlock
 62
     4
100
AcDbMText
 10
118.5578387084931
 20
116.3234454026952
 30
0.0
 40
3.0
 41
0.0
 71
     5
 72
     5
  1
\A1;60
 11
0.0
 21
1.0
 31
0.0
 73
     1
 44
1.0
1001
ACAD
1000
MTEXTBEGIN
1070
    73
1070
     1
1070
    44
1040
1.0
1070
    74
1070
     0
1000
MTEXTEND
  0
POINT
  5
734
330
69E
100
AcDbEntity
  8
DEFPOINTS
  6
ByBlock
 62
     0
380
     1
100
AcDbPoint
 10
139.9978935858036
 20
146.1233954026951
 30
0.0
  0
POINT
  5
735
330
69E
100
AcDbEntity
  8
DEFPOINTS
  6
ByBlock
 62
     0
380
     1
100
AcDbPoint
 10
158.3689935858037
 20
86.52349540269524
 30
0.0
  0
POINT
  5
736
330
69E
100
AcDbEntity
  8
DEFPOINTS
  6
ByBlock
 62
     0
380
     1
100
AcDbPoint
 10
121.0578387084931
 20
86.52349540269524
 30
0.0
  0
ENDBLK
  5
737
330
69E
100
AcDbEntity
  8
0
100
AcDbBlockEnd
  0
BLOCK
  5
738
330
6AA
100
AcDbEntity
  8
0
100
AcDbBlockBegin
  2
*D3
 70
     1
 10
0.0
 20
0.0
 30
0.0
  3
*D3
  1

  0
LINE
  5
739
330
6AA
100
AcDbEntity
  8
0
  6
ByBlock
 62
     4
100
AcDbLine
 10
136.5978935857434
 20
216.5234893682948
 30
0.0
 11
119.5578387084931
 21
216.5234893682948
 31
0.0
  0
LINE
  5
73A
330
6AA
100
AcDbEntity
  8
0
  6
ByBlock
 62
     4
100
AcDbLine
 10
136.5977935857433
 20
196.5234893682948
 30
0.0
 11
119.5578387084931
 21
196.5234893682948
 31
0.0
  0
LINE
  5
73B
330
6AA
100
AcDbEntity
  8
0
  6
ByBlock
 62
     4
100
AcDbLine
 10
121.0578387084931
 20
213.5234893682948
 30
0.0
 11
121.0578387084931
 21
199.5234893682948
 31
0.0
  0
INSERT
  5
73C
330
6AA
100
AcDbEntity
  8
0
  6
ByBlock
 62
     4
100
AcDbBlockReference
  2
_OPEN
 10
121.0578387084931
 20
216.5234893682948
 30
0.0
 41
3.0
 42
3.0
 43
3.0
 50
90.0
  0
INSERT
  5
73D
330
6AA
100
AcDbEntity
  8
0
  6
ByBlock
 62
     4
100
AcDbBlockReference
  2
_OPEN
 10
121.0578387084931
 20
196.5234893682948
 30
0.0
 41
3.0
 42
3.0
 43
3.0
 50
270.0
  0
MTEXT
  5
73E
330
6AA
100
AcDbEntity
  8
0
  6
ByBlock
 62
     4
100
AcDbMText
 10
118.5578387084931
 20
206.5234893682948
 30
0.0
 40
3.0
 41
0.0
 71
     5
 72
     5
  1
\A1;20
 11
0.0
 21
1.0
 31
0.0
 73
     1
 44
1.0
1001
ACAD
1000
MTEXTBEGIN
1070
    73
1070
     1
1070
    44
1040
1.0
1070
    74
1070
     0
1000
MTEXTEND
  0
POINT
  5
73F
330
6AA
100
AcDbEntity
  8
DEFPOINTS
  6
ByBlock
 62
     0
380
     1
100
AcDbPoint
 10
139.5978935857434
 20
216.5234893682948
 30
0.0
  0
POINT
  5
740
330
6AA
100
AcDbEntity
  8
DEFPOINTS
  6
ByBlock
 62
     0
380
     1
100
AcDbPoint
 10
139.5977935857434
 20
196.5234893682948
 30
0.0
  0
POINT
  5
741
330
6AA
100
AcDbEntity
  8
DEFPOINTS
  6
ByBlock
 62
     0
380
     1
100
AcDbPoint
 10
121.0578387084931
 20
196.5234893682948
 30
0.0
  0
ENDBLK
  5
742
330
6AA
100
AcDbEntity
  8
0
100
AcDbBlockEnd
  0
BLOCK
  5
743
330
6B6
100
AcDbEntity
  8
0
100
AcDbBlockBegin
  2
*D4
 70
     1
 10
0.0
 20
0.0
 30
0.0
  3
*D4
  1

  0
LINE
  5
744
330
6B6
100
AcDbEntity
  8
0
  6
ByBlock
 62
     4
100
AcDbLine
 10
246.1978563788225
 20
119.2233954026952
 30
0.0
 11
246.1978563788225
 21
147.5720373734789
 31
0.0
  0
LINE
  5
745
330
6B6
100
AcDbEntity
  8
0
  6
ByBlock
 62
     4
100
AcDbLine
 10
225.7977935858037
 20
129.523295402695
 30
0.0
 11
225.7977935858037
 21
147.5720373734789
 31
0.0
  0
LINE
  5
746
330
6B6
100
AcDbEntity
  8
0
  6
ByBlock
 62
     4
100
AcDbLine
 10
243.1978563788225
 20
146.0720373734789
 30
0.0
 11
228.7977935858037
 21
146.0720373734789
 31
0.0
  0
INSERT
  5
747
330
6B6
100
AcDbEntity
  8
0
  6
ByBlock
 62
     4
100
AcDbBlockReference
  2
_OPEN
 10
246.1978563788225
 20
146.0720373734789
 30
0.0
 41
3.0
 42
3.0
 43
3.0
  0
INSERT
  5
748
330
6B6
100
AcDbEntity
  8
0
  6
ByBlock
 62
     4
100
AcDbBlockReference
  2
_OPEN
 10
225.7977935858037
 20
146.0720373734789
 30
0.0
 41
3.0
 42
3.0
 43
3.0
 50
180.0
  0
MTEXT
  5
749
330
6B6
100
AcDbEntity
  8
0
  6
ByBlock
 62
     4
100
AcDbMText
 10
235.9978249823131
 20
148.5720373734789
 30
0.0
 40
3.0
 41
0.0
 71
     5
 72
     5
  1
\A1;20
 73
     1
 44
1.0
1001
ACAD
1000
MTEXTBEGIN
1070
    73
1070
     1
1070
    44
1040
1.0
1070
    74
1070
     0
1000
MTEXTEND
  0
POINT
  5
74A
330
6B6
100
AcDbEntity
  8
DEFPOINTS
  6
ByBlock
 62
     0
380
     1
100
AcDbPoint
 10
246.1978563788225
 20
116.2233954026952
 30
0.0
  0
POINT
  5
74B
330
6B6
100
AcDbEntity
  8
DEFPOINTS
  6
ByBlock
 62
     0
380
     1
100
AcDbPoint
 10
225.7977935858037
 20
126.523295402695
 30
0.0
  0
POINT
  5
74C
330
6B6
100
AcDbEntity
  8
DEFPOINTS
  6
ByBlock
 62
     0
380
     1
100
AcDbPoint
 10
225.7977935858037
 20
146.0720373734789
 30
0.0
  0
ENDBLK
  5
74D
330
6B6
100
AcDbEntity
  8
0
100
AcDbBlockEnd
  0
BLOCK
  5
764
330
6DA
100
AcDbEntity
  8
0
100
AcDbBlockBegin
  2
*D7
 70
     1
 10
0.0
 20
0.0
 30
0.0
  3
*D7
  1

  0
LINE
  5
765
330
6DA
100
AcDbEntity
  8
0
  6
ByBlock
 62
     4
100
AcDbLine
 10
250.8400526230255
 20
112.6950950176129
 30
0.0
 11
261.6940344935196
 21
117.0363604466327
 31
0.0
  0
LINE
  5
766
330
6DA
100
AcDbEntity
  8
0
  6
ByBlock
 62
     4
100
AcDbLine
 10
261.9810526230255
 20
84.84049501761296
 30
0.0
 11
272.8350344935195
 21
89.18176044663274
 31
0.0
  0
LINE
  5
767
330
6DA
100
AcDbEntity
  8
0
  6
ByBlock
 62
     4
100
AcDbLine
 10
261.4154045898264
 20
113.6938516019521
 30
0.0
 11
270.328205359991
 21
91.41016967639563
 31
0.0
  0
INSERT
  5
768
330
6DA
100
AcDbEntity
  8
0
  6
ByBlock
 62
     4
100
AcDbBlockReference
  2
_OPEN
 10
260.3013049749088
 20
116.4793106391738
 30
0.0
 41
3.0
 42
3.0
 43
3.0
 50
111.799919948585
  0
INSERT
  5
769
330
6DA
100
AcDbEntity
  8
0
  6
ByBlock
 62
     4
100
AcDbBlockReference
  2
_OPEN
 10
271.4423049749087
 20
88.62471063917389
 30
0.0
 41
3.0
 42
3.0
 43
3.0
 50
291.799919948585
  0
MTEXT
  5
76A
330
6DA
100
AcDbEntity
  8
0
  6
ByBlock
 62
     4
100
AcDbMText
 10
268.1930208392602
 20
103.4804269849386
 30
0.0
 40
3.0
 41
0.0
 71
     5
 72
     5
  1
\A1;30
 11
0.371366538305907
 21
-0.9284863457405753
 31
0.0
 73
     1
 44
1.0
1001
ACAD
1000
MTEXTBEGIN
1070
    73
1070
     1
1070
    44
1040
1.0
1070
    74
1070
     0
1000
MTEXTEND
  0
POINT
  5
76B
330
6DA
100
AcDbEntity
  8
DEFPOINTS
  6
ByBlock
 62
     0
380
     1
100
AcDbPoint
 10
248.0545935858037
 20
111.5809954026952
 30
0.0
  0
POINT
  5
76C
330
6DA
100
AcDbEntity
  8
DEFPOINTS
  6
ByBlock
 62
     0
380
     1
100
AcDbPoint
 10
259.1955935858037
 20
83.72639540269524
 30
0.0
  0
POINT
  5
76D
330
6DA
100
AcDbEntity
  8
DEFPOINTS
  6
ByBlock
 62
     0
380
     1
100
AcDbPoint
 10
271.4423049749087
 20
88.62471063917389
 30
0.0
  0
ENDBLK
  5
76E
330
6DA
100
AcDbEntity
  8
0
100
AcDbBlockEnd
  0
BLOCK
  5
76F
330
6E6
100
AcDbEntity
  8
0
100
AcDbBlockBegin
  2
*D8
 70
     1
 10
0.0
 20
0.0
 30
0.0
  3
*D8
  1

  0
LINE
  5
770
330
6E6
100
AcDbEntity
  8
0
  6
ByBlock
 62
     4
100
AcDbLine
 10
248.9833178630218
 20
117.3374888996885
 30
0.0
 11
266.5512149640585
 21
124.364073193579
 31
0.0
  0
LINE
  5
771
330
6E6
100
AcDbEntity
  8
0
  6
ByBlock
 62
     4
100
AcDbLine
 10
261.9810550700029
 20
84.84048889968846
 30
0.0
 11
279.5489521710397
 21
91.86707319357905
 31
0.0
  0
LINE
  5
772
330
6E6
100
AcDbEntity
  8
0
  6
ByBlock
 62
     4
100
AcDbLine
 10
266.2725777189522
 20
121.0215649608832
 30
0.0
 11
277.0421279319468
 21
94.09548792928168
 31
0.0
  0
INSERT
  5
773
330
6E6
100
AcDbEntity
  8
0
  6
ByBlock
 62
     4
100
AcDbBlockReference
  2
_OPEN
 10
265.1584842219589
 20
123.8070264450824
 30
0.0
 41
3.0
 42
3.0
 43
3.0
 50
111.799794105378
  0
INSERT
  5
774
330
6E6
100
AcDbEntity
  8
0
  6
ByBlock
 62
     4
100
AcDbBlockReference
  2
_OPEN
 10
278.1562214289401
 20
91.31002644508244
 30
0.0
 41
3.0
 42
3.0
 43
3.0
 50
291.799794105378
  0
MTEXT
  5
775
330
6E6
100
AcDbEntity
  8
0
  6
ByBlock
 62
     4
100
AcDbMText
 10
273.9785707289489
 20
108.4869376925768
 30
0.0
 40
3.0
 41
0.0
 71
     5
 72
     5
  1
\A1;35
 11
0.3713644989977463
 21
-0.9284871613997434
 31
0.0
 73
     1
 44
1.0
1001
ACAD
1000
MTEXTBEGIN
1070
    73
1070
     1
1070
    44
1040
1.0
1070
    74
1070
     0
1000
MTEXTEND
  0
POINT
  5
776
330
6E6
100
AcDbEntity
  8
DEFPOINTS
  6
ByBlock
 62
     0
380
     1
100
AcDbPoint
 10
246.1978563788226
 20
116.2233954026952
 30
0.0
  0
POINT
  5
777
330
6E6
100
AcDbEntity
  8
DEFPOINTS
  6
ByBlock
 62
     0
380
     1
100
AcDbPoint
 10
259.1955935858037
 20
83.72639540269522
 30
0.0
  0
POINT
  5
778
330
6E6
100
AcDbEntity
  8
DEFPOINTS
  6
ByBlock
 62
     0
380
     1
100
AcDbPoint
 10
278.1562214289401
 20
91.31002644508244
 30
0.0
  0
ENDBLK
  5
779
330
6E6
100
AcDbEntity
  8
0
100
AcDbBlockEnd
  0
BLOCK
  5
77A
330
6F2
100
AcDbEntity
  8
0
100
AcDbBlockBegin
  2
*D9
 70
     1
 10
0.0
 20
0.0
 30
0.0
  3
*D9
  1

  0
LINE
  5
77B
330
6F2
100
AcDbEntity
  8
0
  6
ByBlock
 62
     4
100
AcDbLine
 10
228.7977935858037
 20
126.523295402695
 30
0.0
 11
287.6592602385109
 21
126.523295402695
 31
0.0
  0
LINE
  5
77C
330
6F2
100
AcDbEntity
  8
0
  6
ByBlock
 62
     4
100
AcDbLine
 10
262.1955935858037
 20
83.72639540269522
 30
0.0
 11
287.6592602385109
 21
83.72639540269522
 31
0.0
  0
LINE
  5
77D
330
6F2
100
AcDbEntity
  8
0
  6
ByBlock
 62
     4
100
AcDbLine
 10
286.1592602385108
 20
123.523295402695
 30
0.0
 11
286.1592602385108
 21
86.72639540269523
 31
0.0
  0
INSERT
  5
77E
330
6F2
100
AcDbEntity
  8
0
  6
ByBlock
 62
     4
100
AcDbBlockReference
  2
_OPEN
 10
286.1592602385108
 20
126.523295402695
 30
0.0
 41
3.0
 42
3.0
 43
3.0
 50
90.0
  0
INSERT
  5
77F
330
6F2
100
AcDbEntity
  8
0
  6
ByBlock
 62
     4
100
AcDbBlockReference
  2
_OPEN
 10
286.1592602385108
 20
83.72639540269522
 30
0.0
 41
3.0
 42
3.0
 43
3.0
 50
270.0
  0
MTEXT
  5
780
330
6F2
100
AcDbEntity
  8
0
  6
ByBlock
 62
     4
100
AcDbMText
 10
283.6592602385108
 20
105.1248454026951
 30
0.0
 40
3.0
 41
0.0
 71
     5
 72
     5
  1
\A1;43
 11
0.0
 21
1.0
 31
0.0
 73
     1
 44
1.0
1001
ACAD
1000
MTEXTBEGIN
1070
    73
1070
     1
1070
    44
1040
1.0
1070
    74
1070
     0
1000
MTEXTEND
  0
POINT
  5
781
330
6F2
100
AcDbEntity
  8
DEFPOINTS
  6
ByBlock
 62
     0
380
     1
100
AcDbPoint
 10
225.7977935858037
 20
126.523295402695
 30
0.0
  0
POINT
  5
782
330
6F2
100
AcDbEntity
  8
DEFPOINTS
  6
ByBlock
 62
     0
380
     1
100
AcDbPoint
 10
259.1955935858037
 20
83.72639540269522
 30
0.0
  0
POINT
  5
783
330
6F2
100
AcDbEntity
  8
DEFPOINTS
  6
ByBlock
 62
     0
380
     1
100
AcDbPoint
 10
286.1592602385108
 20
83.72639540269522
 30
0.0
  0
ENDBLK
  5
784
330
6F2
100
AcDbEntity
  8
0
100
AcDbBlockEnd
  0
BLOCK
  5
79B
330
716
100
AcDbEntity
  8
0
100
AcDbBlockBegin
  2
*D12
 70
     1
 10
0.0
 20
0.0
 30
0.0
  3
*D12
  1

  0
LINE
  5
79C
330
716
100
AcDbEntity
  8
0
  6
ByBlock
 62
     4
100
AcDbLine
 10
260.8956935786346
 20
231.0233393682949
 30
0.0
 11
273.2418374106517
 21
231.0233393682949
 31
0.0
  0
LINE
  5
79D
330
716
100
AcDbEntity
  8
0
  6
ByBlock
 62
     4
100
AcDbLine
 10
260.8956935786346
 20
182.0233393682949
 30
0.0
 11
273.2418374106517
 21
182.0233393682949
 31
0.0
  0
LINE
  5
79E
330
716
100
AcDbEntity
  8
0
  6
ByBlock
 62
     4
100
AcDbLine
 10
271.7418374106517
 20
228.0233393682949
 30
0.0
 11
271.7418374106517
 21
185.0233393682949
 31
0.0
  0
INSERT
  5
79F
330
716
100
AcDbEntity
  8
0
  6
ByBlock
 62
     4
100
AcDbBlockReference
  2
_OPEN
 10
271.7418374106517
 20
231.0233393682949
 30
0.0
 41
3.0
 42
3.0
 43
3.0
 50
90.0
  0
INSERT
  5
7A0
330
716
100
AcDbEntity
  8
0
  6
ByBlock
 62
     4
100
AcDbBlockReference
  2
_OPEN
 10
271.7418374106517
 20
182.0233393682949
 30
0.0
 41
3.0
 42
3.0
 43
3.0
 50
270.0
  0
MTEXT
  5
7A1
330
716
100
AcDbEntity
  8
0
  6
ByBlock
 62
     4
100
AcDbMText
 10
269.2418374106517
 20
206.5233393682949
 30
0.0
 40
3.0
 41
0.0
 71
     5
 72
     5
  1
\A1;49
 11
0.0
 21
1.0
 31
0.0
 73
     1
 44
1.0
1001
ACAD
1000
MTEXTBEGIN
1070
    73
1070
     1
1070
    44
1040
1.0
1070
    74
1070
     0
1000
MTEXTEND
  0
POINT
  5
7A2
330
716
100
AcDbEntity
  8
DEFPOINTS
  6
ByBlock
 62
     0
380
     1
100
AcDbPoint
 10
257.8956935786346
 20
231.0233393682949
 30
0.0
  0
POINT
  5
7A3
330
716
100
AcDbEntity
  8
DEFPOINTS
  6
ByBlock
 62
     0
380
     1
100
AcDbPoint
 10
257.8956935786346
 20
182.0233393682949
 30
0.0
  0
POINT
  5
7A4
330
716
100
AcDbEntity
  8
DEFPOINTS
  6
ByBlock
 62
     0
380
     1
100
AcDbPoint
 10
271.7418374106517
 20
182.0233393682949
 30
0.0
  0
ENDBLK
  5
7A5
330
716
100
AcDbEntity
  8
0
100
AcDbBlockEnd
  0
BLOCK
  5
146C
330
12D8
100
AcDbEntity
  8
0
100
AcDbBlockBegin
  2
*X13
 70
     1
 10
0.0
 20
0.0
 30
0.0
  3
*X13
  1

  0
LINE
  5
12D9
330
12D8
100
AcDbEntity
  8
0
 62
     0
380
     1
100
AcDbLine
 10
34.52110557948066
 20
11.30208421465548
 30
0.0
 11
34.1981901146232
 21
11.62499967951297
 31
0.0
  0
LINE
  5
12DA
330
12D8
100
AcDbEntity
  8
0
 62
     0
380
     1
100
AcDbLine
 10
34.52110557948066
 20
10.85307140860203
 30
0.0
 11
33.74917730856973
 21
11.62499967951297
 31
0.0
  0
LINE
  5
12DB
330
12D8
100
AcDbEntity
  8
0
 62
     0
380
     1
100
AcDbLine
 10
34.52110557948063
 20
10.40405860254856
 30
0.0
 11
33.31053860647316
 21
11.61462557555603
 31
0.0
  0
LINE
  5
12DC
330
12D8
100
AcDbEntity
  8
0
 62
     0
380
     1
100
AcDbLine
 10
34.52110557948066
 20
9.955045796495141
 30
0.0
 11
33.12110557948063
 21
11.35504579649515
 31
0.0
  0
LINE
  5
12DD
330
12D8
100
AcDbEntity
  8
0
 62
     0
380
     1
100
AcDbLine
 10
34.52110557948066
 20
9.506032990441667
 30
0.0
 11
33.12110557948063
 21
10.9060329904417
 31
0.0
  0
LINE
  5
12DE
330
12D8
100
AcDbEntity
  8
0
 62
     0
380
     1
100
AcDbLine
 10
34.52110557948063
 20
9.057020184388193
 30
0.0
 11
33.1211055794806
 21
10.45702018438823
 31
0.0
  0
LINE
  5
12DF
330
12D8
100
AcDbEntity
  8
0
 62
     0
380
     1
100
AcDbLine
 10
32.07110557948062
 20
11.05800737833479
 30
0.0
 11
31.50411327830247
 21
11.62499967951297
 31
0.0
  0
LINE
  5
12E0
330
12D8
100
AcDbEntity
  8
0
 62
     0
380
     1
100
AcDbLine
 10
34.52110557948066
 20
8.608007378334775
 30
0.0
 11
33.12110557948063
 21
10.00800737833481
 31
0.0
  0
LINE
  5
12E1
330
12D8
100
AcDbEntity
  8
0
 62
     0
380
     1
100
AcDbLine
 10
32.07110557948062
 20
10.60899457228134
 30
0.0
 11
31.055100472249
 21
11.62499967951294
 31
0.0
  0
LINE
  5
12E2
330
12D8
100
AcDbEntity
  8
0
 62
     0
380
     1
100
AcDbLine
 10
34.52110557948063
 20
8.158994572281301
 30
0.0
 11
33.12110557948063
 21
9.558994572281335
 31
0.0
  0
LINE
  5
12E3
330
12D8
100
AcDbEntity
  8
0
 62
     0
380
     1
100
AcDbLine
 10
32.07110557948062
 20
10.15998176622787
 30
0.0
 11
30.71835009691208
 21
11.51273724879641
 31
0.0
  0
LINE
  5
12E4
330
12D8
100
AcDbEntity
  8
0
 62
     0
380
     1
100
AcDbLine
 10
34.52110557948063
 20
7.709981766227855
 30
0.0
 11
33.1211055794806
 21
9.109981766227861
 31
0.0
  0
LINE
  5
12E5
330
12D8
100
AcDbEntity
  8
0
 62
     0
380
     1
100
AcDbLine
 10
32.07110557948067
 20
9.710968960174369
 30
0.0
 11
30.67110557948058
 21
11.11096896017443
 31
0.0
  0
LINE
  5
12E6
330
12D8
100
AcDbEntity
  8
0
 62
     0
380
     1
100
AcDbLine
 10
34.52110557948066
 20
7.26096896017438
 30
0.0
 11
33.12110557948063
 21
8.660968960174415
 31
0.0
  0
LINE
  5
12E7
330
12D8
100
AcDbEntity
  8
0
 62
     0
380
     1
100
AcDbLine
 10
32.07110557948065
 20
9.261956154120923
 30
0.0
 11
30.67110557948058
 21
10.66195615412101
 31
0.0
  0
LINE
  5
12E8
330
12D8
100
AcDbEntity
  8
0
 62
     0
380
     1
100
AcDbLine
 10
34.52110557948063
 20
6.811956154120935
 30
0.0
 11
33.1211055794806
 21
8.211956154120969
 31
0.0
  0
LINE
  5
12E9
330
12D8
100
AcDbEntity
  8
0
 62
     0
380
     1
100
AcDbLine
 10
32.07110557948065
 20
8.812943348067477
 30
0.0
 11
30.67110557948058
 21
10.21294334806754
 31
0.0
  0
LINE
  5
12EA
330
12D8
100
AcDbEntity
  8
0
 62
     0
380
     1
100
AcDbLine
 10
34.52110557948063
 20
6.362943348067489
 30
0.0
 11
33.1211055794806
 21
7.762943348067523
 31
0.0
  0
LINE
  5
12EB
330
12D8
100
AcDbEntity
  8
0
 62
     0
380
     1
100
AcDbLine
 10
32.07110557948062
 20
8.363930542014003
 30
0.0
 11
30.67110557948055
 21
9.763930542014065
 31
0.0
  0
LINE
  5
12EC
330
12D8
100
AcDbEntity
  8
0
 62
     0
380
     1
100
AcDbLine
 10
34.5211055794806
 20
5.913930542014014
 30
0.0
 11
33.1211055794806
 21
7.313930542014048
 31
0.0
  0
LINE
  5
12ED
330
12D8
100
AcDbEntity
  8
0
 62
     0
380
     1
100
AcDbLine
 10
32.07110557948065
 20
7.914917735960585
 30
0.0
 11
30.67110557948058
 21
9.314917735960648
 31
0.0
  0
LINE
  5
12EE
330
12D8
100
AcDbEntity
  8
0
 62
     0
380
     1
100
AcDbLine
 10
28.92110557948061
 20
11.06491773596062
 30
0.0
 11
28.36102363592829
 21
11.62499967951294
 31
0.0
  0
LINE
  5
12EF
330
12D8
100
AcDbEntity
  8
0
 62
     0
380
     1
100
AcDbLine
 10
34.52110557948063
 20
5.464917735960597
 30
0.0
 11
33.1211055794806
 21
6.864917735960602
 31
0.0
  0
LINE
  5
12F0
330
12D8
100
AcDbEntity
  8
0
 62
     0
380
     1
100
AcDbLine
 10
32.07110557948065
 20
7.465904929907111
 30
0.0
 11
30.67110557948055
 21
8.865904929907173
 31
0.0
  0
LINE
  5
12F1
330
12D8
100
AcDbEntity
  8
0
 62
     0
380
     1
100
AcDbLine
 10
28.92110557948058
 20
10.61590492990714
 30
0.0
 11
27.91201082987482
 21
11.62499967951294
 31
0.0
  0
LINE
  5
12F2
330
12D8
100
AcDbEntity
  8
0
 62
     0
380
     1
100
AcDbLine
 10
34.52110557948063
 20
5.015904929907122
 30
0.0
 11
33.1211055794806
 21
6.415904929907156
 31
0.0
  0
LINE
  5
12F3
330
12D8
100
AcDbEntity
  8
0
 62
     0
380
     1
100
AcDbLine
 10
32.07110557948062
 20
7.016892123853665
 30
0.0
 11
30.67110557948058
 21
8.416892123853671
 31
0.0
  0
LINE
  5
12F4
330
12D8
100
AcDbEntity
  8
0
 62
     0
380
     1
100
AcDbLine
 10
28.92110557948058
 20
10.1668921238537
 30
0.0
 11
27.57122421781858
 21
11.5167734855157
 31
0.0
  0
LINE
  5
12F5
330
12D8
100
AcDbEntity
  8
0
 62
     0
380
     1
100
AcDbLine
 10
34.5211055794806
 20
4.566892123853676
 30
0.0
 11
33.12110557948057
 21
5.966892123853682
 31
0.0
  0
LINE
  5
12F6
330
12D8
100
AcDbEntity
  8
0
 62
     0
380
     1
100
AcDbLine
 10
32.07110557948065
 20
6.567879317800191
 30
0.0
 11
30.67110557948061
 21
7.967879317800225
 31
0.0
  0
LINE
  5
12F7
330
12D8
100
AcDbEntity
  8
0
 62
     0
380
     1
100
AcDbLine
 10
28.92110557948061
 20
9.717879317800225
 30
0.0
 11
27.52110557948061
 21
11.11787931780023
 31
0.0
  0
LINE
  5
12F8
330
12D8
100
AcDbEntity
  8
0
 62
     0
380
     1
100
AcDbLine
 10
34.52110557948063
 20
4.117879317800202
 30
0.0
 11
33.1211055794806
 21
5.517879317800236
 31
0.0
  0
LINE
  5
12F9
330
12D8
100
AcDbEntity
  8
0
 62
     0
380
     1
100
AcDbLine
 10
32.07110557948062
 20
6.118866511746745
 30
0.0
 11
30.67110557948061
 21
7.518866511746779
 31
0.0
  0
LINE
  5
12FA
330
12D8
100
AcDbEntity
  8
0
 62
     0
380
     1
100
AcDbLine
 10
28.92110557948064
 20
9.26886651174675
 30
0.0
 11
27.52110557948063
 21
10.66886651174675
 31
0.0
  0
LINE
  5
12FB
330
12D8
100
AcDbEntity
  8
0
 62
     0
380
     1
100
AcDbLine
 10
34.48512290203573
 20
3.704849189191662
 30
0.0
 11
33.1211055794806
 21
5.06886651174679
 31
0.0
  0
LINE
  5
12FC
330
12D8
100
AcDbEntity
  8
0
 62
     0
380
     1
100
AcDbLine
 10
32.07110557948065
 20
5.669853705693242
 30
0.0
 11
30.67110557948058
 21
7.069853705693304
 31
0.0
  0
LINE
  5
12FD
330
12D8
100
AcDbEntity
  8
0
 62
     0
380
     1
100
AcDbLine
 10
28.92110557948061
 20
8.819853705693304
 30
0.0
 11
27.52110557948063
 21
10.21985370569328
 31
0.0
  0
LINE
  5
12FE
330
12D8
100
AcDbEntity
  8
0
 62
     0
380
     1
100
AcDbLine
 10
34.16595960566099
 20
3.574999679512927
 30
0.0
 11
33.12110557948057
 21
4.619853705693344
 31
0.0
  0
LINE
  5
12FF
330
12D8
100
AcDbEntity
  8
0
 62
     0
380
     1
100
AcDbLine
 10
28.92110557948061
 20
8.37084089963983
 30
0.0
 11
27.52110557948061
 21
9.770840899639807
 31
0.0
  0
LINE
  5
1300
330
12D8
100
AcDbEntity
  8
0
 62
     0
380
     1
100
AcDbLine
 10
32.07110557948065
 20
5.220840899639796
 30
0.0
 11
30.67110557948058
 21
6.620840899639858
 31
0.0
  0
LINE
  5
1301
330
12D8
100
AcDbEntity
  8
0
 62
     0
380
     1
100
AcDbLine
 10
26.20860557948061
 20
11.08334089963983
 30
0.0
 11
25.66694679960745
 21
11.62499967951297
 31
0.0
  0
LINE
  5
1302
330
12D8
100
AcDbEntity
  8
0
 62
     0
380
     1
100
AcDbLine
 10
33.71694679960754
 20
3.57499967951287
 30
0.0
 11
33.12110557948057
 21
4.17084089963987
 31
0.0
  0
LINE
  5
1303
330
12D8
100
AcDbEntity
  8
0
 62
     0
380
     1
100
AcDbLine
 10
28.92110557948061
 20
7.921828093586384
 30
0.0
 11
27.52110557948063
 21
9.32182809358639
 31
0.0
  0
LINE
  5
1304
330
12D8
100
AcDbEntity
  8
0
 62
     0
380
     1
100
AcDbLine
 10
26.20860557948061
 20
10.63432809358639
 30
0.0
 11
25.21793399355403
 21
11.62499967951299
 31
0.0
  0
LINE
  5
1305
330
12D8
100
AcDbEntity
  8
0
 62
     0
380
     1
100
AcDbLine
 10
32.05812642915785
 20
4.78480724390917
 30
0.0
 11
30.67110557948058
 21
6.171828093586412
 31
0.0
  0
LINE
  5
1306
330
12D8
100
AcDbEntity
  8
0
 62
     0
380
     1
100
AcDbLine
 10
28.92110557948061
 20
7.472815287532938
 30
0.0
 11
27.52110557948063
 21
8.872815287532915
 31
0.0
  0
LINE
  5
1307
330
12D8
100
AcDbEntity
  8
0
 62
     0
380
     1
100
AcDbLine
 10
26.11081530642369
 20
10.28310556058986
 30
0.0
 11
24.76892118750061
 21
11.62499967951294
 31
0.0
  0
LINE
  5
1308
330
12D8
100
AcDbEntity
  8
0
 62
     0
380
     1
100
AcDbLine
 10
31.96163378152923
 20
4.43228708548429
 30
0.0
 11
30.67110557948058
 21
5.722815287532966
 31
0.0
  0
LINE
  5
1309
330
12D8
100
AcDbEntity
  8
0
 62
     0
380
     1
100
AcDbLine
 10
28.92110557948061
 20
7.023802481479464
 30
0.0
 11
27.52110557948061
 21
8.423802481479469
 31
0.0
  0
LINE
  5
130A
330
12D8
100
AcDbEntity
  8
0
 62
     0
380
     1
100
AcDbLine
 10
25.71990838144711
 20
10.22499967951293
 30
0.0
 11
24.31990838144711
 21
11.62499967951297
 31
0.0
  0
LINE
  5
130B
330
12D8
100
AcDbEntity
  8
0
 62
     0
380
     1
100
AcDbLine
 10
31.79911784356745
 20
4.145790217392601
 30
0.0
 11
30.63534770990083
 21
5.309560351059246
 31
0.0
  0
LINE
  5
130C
330
12D8
100
AcDbEntity
  8
0
 62
     0
380
     1
100
AcDbLine
 10
28.92110557948061
 20
6.574789675426046
 30
0.0
 11
27.52110557948063
 21
7.974789675426023
 31
0.0
  0
LINE
  5
130D
330
12D8
100
AcDbEntity
  8
0
 62
     0
380
     1
100
AcDbLine
 10
25.27089557539369
 20
10.22499967951296
 30
0.0
 11
23.902112210805
 21
11.59378304410165
 31
0.0
  0
LINE
  5
130E
330
12D8
100
AcDbEntity
  8
0
 62
     0
380
     1
100
AcDbLine
 10
31.58309694490493
 20
3.912798310001704
 30
0.0
 11
30.43455489066707
 21
5.061340364239555
 31
0.0
  0
LINE
  5
130F
330
12D8
100
AcDbEntity
  8
0
 62
     0
380
     1
100
AcDbLine
 10
28.92110557948061
 20
6.125776869372572
 30
0.0
 11
27.52110557948061
 21
7.525776869372549
 31
0.0
  0
LINE
  5
1310
330
12D8
100
AcDbEntity
  8
0
 62
     0
380
     1
100
AcDbLine
 10
24.82188276934022
 20
10.22499967951296
 30
0.0
 11
23.56979199853831
 21
11.47709045031485
 31
0.0
  0
LINE
  5
1311
330
12D8
100
AcDbEntity
  8
0
 62
     0
380
     1
100
AcDbLine
 10
31.31501577244191
 20
3.731866676411272
 30
0.0
 11
30.07188276934022
 21
4.974999679512933
 31
0.0
  0
LINE
  5
1312
330
12D8
100
AcDbEntity
  8
0
 62
     0
380
     1
100
AcDbLine
 10
28.92110557948058
 20
5.676764063319097
 30
0.0
 11
27.52110557948063
 21
7.076764063319046
 31
0.0
  0
LINE
  5
1313
330
12D8
100
AcDbEntity
  8
0
 62
     0
380
     1
100
AcDbLine
 10
24.38376487729582
 20
10.21410476550386
 30
0.0
 11
23.29849152993322
 21
11.29937811286646
 31
0.0
  0
LINE
  5
1314
330
12D8
100
AcDbEntity
  8
0
 62
     0
380
     1
100
AcDbLine
 10
30.98680949248626
 20
3.611060150313448
 30
0.0
 11
29.62286996328677
 21
4.974999679512933
 31
0.0
  0
LINE
  5
1315
330
12D8
100
AcDbEntity
  8
0
 62
     0
380
     1
100
AcDbLine
 10
24.19610557948065
 20
9.95275125726556
 30
0.0
 11
23.07943550041094
 21
11.06942133633527
 31
0.0
  0
LINE
  5
1316
330
12D8
100
AcDbEntity
  8
0
 62
     0
380
     1
100
AcDbLine
 10
30.57385715723333
 20
3.574999679512899
 30
0.0
 11
27.52110557948063
 21
6.6277512572656
 31
0.0
  0
LINE
  5
1317
330
12D8
100
AcDbEntity
  8
0
 62
     0
380
     1
100
AcDbLine
 10
24.19610557948067
 20
9.503738451212143
 30
0.0
 11
22.91355004423443
 21
10.78629398645839
 31
0.0
  0
LINE
  5
1318
330
12D8
100
AcDbEntity
  8
0
 62
     0
380
     1
100
AcDbLine
 10
30.12484435117989
 20
3.574999679512899
 30
0.0
 11
27.52110557948066
 21
6.178738451212154
 31
0.0
  0
LINE
  5
1319
330
12D8
100
AcDbEntity
  8
0
 62
     0
380
     1
100
AcDbLine
 10
24.29937772003254
 20
8.951453504606803
 30
0.0
 11
22.81246078455237
 21
10.43837044008694
 31
0.0
  0
LINE
  5
131A
330
12D8
100
AcDbEntity
  8
0
 62
     0
380
     1
100
AcDbLine
 10
29.67583154512644
 20
3.574999679512899
 30
0.0
 11
27.52110557948063
 21
5.729725645158708
 31
0.0
  0
LINE
  5
131B
330
12D8
100
AcDbEntity
  8
0
 62
     0
380
     1
100
AcDbLine
 10
26.4079074308263
 20
6.393910987759568
 30
0.0
 11
22.79610557948061
 21
10.00571283910523
 31
0.0
  0
LINE
  5
131C
330
12D8
100
AcDbEntity
  8
0
 62
     0
380
     1
100
AcDbLine
 10
21.74610557948057
 20
11.05571283910527
 30
0.0
 11
21.17681873907293
 21
11.62499967951294
 31
0.0
  0
LINE
  5
131D
330
12D8
100
AcDbEntity
  8
0
 62
     0
380
     1
100
AcDbLine
 10
29.22681873907297
 20
3.574999679512899
 30
0.0
 11
27.52110557948063
 21
5.280712839105234
 31
0.0
  0
LINE
  5
131E
330
12D8
100
AcDbEntity
  8
0
 62
     0
380
     1
100
AcDbLine
 10
26.47110557948065
 20
5.881700033051799
 30
0.0
 11
22.79610557948064
 21
9.556700033051811
 31
0.0
  0
LINE
  5
131F
330
12D8
100
AcDbEntity
  8
0
 62
     0
380
     1
100
AcDbLine
 10
21.74610557948063
 20
10.60670003305179
 30
0.0
 11
20.72780593301946
 21
11.62499967951299
 31
0.0
  0
LINE
  5
1320
330
12D8
100
AcDbEntity
  8
0
 62
     0
380
     1
100
AcDbLine
 10
28.76958199364708
 20
3.583223618885369
 30
0.0
 11
27.52932951885308
 21
4.823476093679374
 31
0.0
  0
LINE
  5
1321
330
12D8
100
AcDbEntity
  8
0
 62
     0
380
     1
100
AcDbLine
 10
21.74610557948063
 20
10.15768722699835
 30
0.0
 11
20.39241063559297
 21
11.51138217088598
 31
0.0
  0
LINE
  5
1322
330
12D8
100
AcDbEntity
  8
0
 62
     0
380
     1
100
AcDbLine
 10
26.47110557948062
 20
5.432687226998325
 30
0.0
 11
22.80781091342181
 21
9.095981893057171
 31
0.0
  0
LINE
  5
1323
330
12D8
100
AcDbEntity
  8
0
 62
     0
380
     1
100
AcDbLine
 10
21.74610557948063
 20
9.708674420944873
 30
0.0
 11
20.34610557948062
 21
11.10867442094485
 31
0.0
  0
LINE
  5
1324
330
12D8
100
AcDbEntity
  8
0
 62
     0
380
     1
100
AcDbLine
 10
26.47110557948057
 20
4.983674420944907
 30
0.0
 11
22.96687062234182
 21
8.487909378083685
 31
0.0
  0
LINE
  5
1325
330
12D8
100
AcDbEntity
  8
0
 62
     0
380
     1
100
AcDbLine
 10
21.74610557948063
 20
9.259661614891427
 30
0.0
 11
20.34610557948065
 21
10.6596616148914
 31
0.0
  0
LINE
  5
1326
330
12D8
100
AcDbEntity
  8
0
 62
     0
380
     1
100
AcDbLine
 10
26.41682467068608
 20
4.588942523685972
 30
0.0
 11
25.06900727616693
 21
5.936759918205126
 31
0.0
  0
LINE
  5
1327
330
12D8
100
AcDbEntity
  8
0
 62
     0
380
     1
100
AcDbLine
 10
21.74610557948063
 20
8.810648808837981
 30
0.0
 11
20.34610557948062
 21
10.21064880883796
 31
0.0
  0
LINE
  5
1328
330
12D8
100
AcDbEntity
  8
0
 62
     0
380
     1
100
AcDbLine
 10
19.20036212919211
 20
11.35639225912646
 30
0.0
 11
18.93175470880561
 21
11.62499967951299
 31
0.0
  0
LINE
  5
1329
330
12D8
100
AcDbEntity
  8
0
 62
     0
380
     1
100
AcDbLine
 10
26.2828868168053
 20
4.273867571513306
 30
0.0
 11
25.07110557948065
 21
5.485648808837964
 31
0.0
  0
LINE
  5
132A
330
12D8
100
AcDbEntity
  8
0
 62
     0
380
     1
100
AcDbLine
 10
21.7461055794806
 20
8.361636002784507
 30
0.0
 11
20.34610557948062
 21
9.761636002784513
 31
0.0
  0
LINE
  5
132B
330
12D8
100
AcDbEntity
  8
0
 62
     0
380
     1
100
AcDbLine
 10
19.10089829706581
 20
11.00684328519929
 30
0.0
 11
18.48274190275217
 21
11.62499967951297
 31
0.0
  0
LINE
  5
132C
330
12D8
100
AcDbEntity
  8
0
 62
     0
380
     1
100
AcDbLine
 10
26.09139341771765
 20
4.01634816454748
 30
0.0
 11
25.0224629880374
 21
5.08527859422773
 31
0.0
  0
LINE
  5
132D
330
12D8
100
AcDbEntity
  8
0
 62
     0
380
     1
100
AcDbLine
 10
21.7461055794806
 20
7.912623196731061
 30
0.0
 11
20.34610557948062
 21
9.312623196731038
 31
0.0
  0
LINE
  5
132E
330
12D8
100
AcDbEntity
  8
0
 62
     0
380
     1
100
AcDbLine
 10
18.99313522361296
 20
10.66559355259866
 30
0.0
 11
18.03852744187767
 21
11.62020133433398
 31
0.0
  0
LINE
  5
132F
330
12D8
100
AcDbEntity
  8
0
 62
     0
380
     1
100
AcDbLine
 10
25.84823393515984
 20
3.810494841051792
 30
0.0
 11
24.68372909669873
 21
4.974999679512933
 31
0.0
  0
LINE
  5
1330
330
12D8
100
AcDbEntity
  8
0
 62
     0
380
     1
100
AcDbLine
 10
21.74610557948063
 20
7.463610390677615
 30
0.0
 11
20.34610557948062
 21
8.863610390677592
 31
0.0
  0
LINE
  5
1331
330
12D8
100
AcDbEntity
  8
0
 62
     0
380
     1
100
AcDbLine
 10
18.88537215016021
 20
10.32434381999803
 30
0.0
 11
17.82137215016019
 21
11.38834381999805
 31
0.0
  0
LINE
  5
1332
330
12D8
100
AcDbEntity
  8
0
 62
     0
380
     1
100
AcDbLine
 10
25.55019196092966
 20
3.659524009228562
 30
0.0
 11
24.23471629064528
 21
4.974999679512961
 31
0.0
  0
LINE
  5
1333
330
12D8
100
AcDbEntity
  8
0
 62
     0
380
     1
100
AcDbLine
 10
21.7461055794806
 20
7.014597584624169
 30
0.0
 11
20.34610557948062
 21
8.414597584624146
 31
0.0
  0
LINE
  5
1334
330
12D8
100
AcDbEntity
  8
0
 62
     0
380
     1
100
AcDbLine
 10
18.77760907670728
 20
9.983094087397489
 30
0.0
 11
17.71360907670728
 21
11.04709408739748
 31
0.0
  0
LINE
  5
1335
330
12D8
100
AcDbEntity
  8
0
 62
     0
380
     1
100
AcDbLine
 10
25.18135563510592
 20
3.579347528998852
 30
0.0
 11
23.78570348459184
 21
4.974999679512933
 31
0.0
  0
LINE
  5
1336
330
12D8
100
AcDbEntity
  8
0
 62
     0
380
     1
100
AcDbLine
 10
21.7461055794806
 20
6.565584778570695
 30
0.0
 11
20.3461055794806
 21
7.965584778570672
 31
0.0
  0
LINE
  5
1337
330
12D8
100
AcDbEntity
  8
0
 62
     0
380
     1
100
AcDbLine
 10
18.66984600325449
 20
9.641844354796802
 30
0.0
 11
17.60584600325444
 21
10.70584435479682
 31
0.0
  0
LINE
  5
1338
330
12D8
100
AcDbEntity
  8
0
 62
     0
380
     1
100
AcDbLine
 10
24.73669067853839
 20
3.574999679512899
 30
0.0
 11
23.33669067853836
 21
4.974999679512933
 31
0.0
  0
LINE
  5
1339
330
12D8
100
AcDbEntity
  8
0
 62
     0
380
     1
100
AcDbLine
 10
21.7461055794806
 20
6.116571972517249
 30
0.0
 11
20.34610557948062
 21
7.516571972517255
 31
0.0
  0
LINE
  5
133A
330
12D8
100
AcDbEntity
  8
0
 62
     0
380
     1
100
AcDbLine
 10
18.5620829298017
 20
9.300594622196172
 30
0.0
 11
17.49808292980162
 21
10.36459462219622
 31
0.0
  0
LINE
  5
133B
330
12D8
100
AcDbEntity
  8
0
 62
     0
380
     1
100
AcDbLine
 10
24.28767787248495
 20
3.574999679512927
 30
0.0
 11
23.07087202383676
 21
4.79180552816112
 31
0.0
  0
LINE
  5
133C
330
12D8
100
AcDbEntity
  8
0
 62
     0
380
     1
100
AcDbLine
 10
18.45431985634883
 20
8.95934488959557
 30
0.0
 11
17.39031985634881
 21
10.02334488959559
 31
0.0
  0
LINE
  5
133D
330
12D8
100
AcDbEntity
  8
0
 62
     0
380
     1
100
AcDbLine
 10
21.7461055794806
 20
5.667559166463803
 30
0.0
 11
20.34610557948062
 21
7.06755916646378
 31
0.0
  0
LINE
  5
133E
330
12D8
100
AcDbEntity
  8
0
 62
     0
380
     1
100
AcDbLine
 10
16.32110557948061
 20
11.09255916646378
 30
0.0
 11
15.78866506643146
 21
11.62499967951291
 31
0.0
  0
LINE
  5
133F
330
12D8
100
AcDbEntity
  8
0
 62
     0
380
     1
100
AcDbLine
 10
23.8386650664315
 20
3.574999679512899
 30
0.0
 11
23.05860557948063
 21
4.355059166463775
 31
0.0
  0
LINE
  5
1340
330
12D8
100
AcDbEntity
  8
0
 62
     0
380
     1
100
AcDbLine
 10
18.34655678289599
 20
8.618095156994939
 30
0.0
 11
17.28255678289599
 21
9.682095156994932
 31
0.0
  0
LINE
  5
1341
330
12D8
100
AcDbEntity
  8
0
 62
     0
380
     1
100
AcDbLine
 10
21.7461055794806
 20
5.218546360410329
 30
0.0
 11
20.3461055794806
 21
6.618546360410334
 31
0.0
  0
LINE
  5
1342
330
12D8
100
AcDbEntity
  8
0
 62
     0
380
     1
100
AcDbLine
 10
16.32110557948061
 20
10.64354636041031
 30
0.0
 11
15.33965226037802
 21
11.62499967951291
 31
0.0
  0
LINE
  5
1343
330
12D8
100
AcDbEntity
  8
0
 62
     0
380
     1
100
AcDbLine
 10
23.389652260378
 20
3.574999679512927
 30
0.0
 11
23.0586055794806
 21
3.9060463604103
 31
0.0
  0
LINE
  5
1344
330
12D8
100
AcDbEntity
  8
0
 62
     0
380
     1
100
AcDbLine
 10
18.23879370944314
 20
8.276845424394309
 30
0.0
 11
17.17479370944312
 21
9.340845424394331
 31
0.0
  0
LINE
  5
1345
330
12D8
100
AcDbEntity
  8
0
 62
     0
380
     1
100
AcDbLine
 10
16.32110557948059
 20
10.19453355435683
 30
0.0
 11
14.98338311503178
 21
11.53225601880567
 31
0.0
  0
LINE
  5
1346
330
12D8
100
AcDbEntity
  8
0
 62
     0
380
     1
100
AcDbLine
 10
21.74610557948057
 20
4.769533554356883
 30
0.0
 11
20.3461055794806
 21
6.16953355435686
 31
0.0
  0
LINE
  5
1347
330
12D8
100
AcDbEntity
  8
0
 62
     0
380
     1
100
AcDbLine
 10
18.13103063599033
 20
7.935595691793707
 30
0.0
 11
17.06703063599033
 21
8.9995956917937
 31
0.0
  0
LINE
  5
1348
330
12D8
100
AcDbEntity
  8
0
 62
     0
380
     1
100
AcDbLine
 10
16.32110557948061
 20
9.74552074830342
 30
0.0
 11
14.92110557948058
 21
11.14552074830342
 31
0.0
  0
LINE
  5
1349
330
12D8
100
AcDbEntity
  8
0
 62
     0
380
     1
100
AcDbLine
 10
21.7461055794806
 20
4.320520748303437
 30
0.0
 11
20.3461055794806
 21
5.720520748303414
 31
0.0
  0
LINE
  5
134A
330
12D8
100
AcDbEntity
  8
0
 62
     0
380
     1
100
AcDbLine
 10
18.02848638129438
 20
7.589127140436175
 30
0.0
 11
16.95926756253746
 21
8.658345959193098
 31
0.0
  0
LINE
  5
134B
330
12D8
100
AcDbEntity
  8
0
 62
     0
380
     1
100
AcDbLine
 10
16.32110557948061
 20
9.296507942249945
 30
0.0
 11
14.92110557948058
 21
10.69650794224998
 31
0.0
  0
LINE
  5
134C
330
12D8
100
AcDbEntity
  8
0
 62
     0
380
     1
100
AcDbLine
 10
21.74610557948057
 20
3.871507942249962
 30
0.0
 11
20.3461055794806
 21
5.271507942249968
 31
0.0
  0
LINE
  5
134D
330
12D8
100
AcDbEntity
  8
0
 62
     0
380
     1
100
AcDbLine
 10
18.23572306101138
 20
6.932877654665702
 30
0.0
 11
16.81399381469515
 21
8.354606900981934
 31
0.0
  0
LINE
  5
134E
330
12D8
100
AcDbEntity
  8
0
 62
     0
380
     1
100
AcDbLine
 10
16.32110557948064
 20
8.847495136196442
 30
0.0
 11
14.92110557948055
 21
10.2474951361965
 31
0.0
  0
LINE
  5
134F
330
12D8
100
AcDbEntity
  8
0
 62
     0
380
     1
100
AcDbLine
 10
21.5765830808144
 20
3.592017634862656
 30
0.0
 11
20.34610557948062
 21
4.822495136196465
 31
0.0
  0
LINE
  5
1350
330
12D8
100
AcDbEntity
  8
0
 62
     0
380
     1
100
AcDbLine
 10
18.44295974072841
 20
6.276628168895257
 30
0.0
 11
14.92110557948058
 21
9.798482330143087
 31
0.0
  0
LINE
  5
1351
330
12D8
100
AcDbEntity
  8
0
 62
     0
380
     1
100
AcDbLine
 10
13.69610557948064
 20
11.02348233014302
 30
0.0
 11
13.09458823011076
 21
11.62499967951291
 31
0.0
  0
LINE
  5
1352
330
12D8
100
AcDbEntity
  8
0
 62
     0
380
     1
100
AcDbLine
 10
21.14458823011074
 20
3.574999679512927
 30
0.0
 11
20.34610557948065
 21
4.373482330143019
 31
0.0
  0
LINE
  5
1353
330
12D8
100
AcDbEntity
  8
0
 62
     0
380
     1
100
AcDbLine
 10
18.65019642044535
 20
5.620378683124812
 30
0.0
 11
14.92110557948058
 21
9.349469524089613
 31
0.0
  0
LINE
  5
1354
330
12D8
100
AcDbEntity
  8
0
 62
     0
380
     1
100
AcDbLine
 10
13.69610557948064
 20
10.57446952408955
 30
0.0
 11
12.64557542405725
 21
11.62499967951294
 31
0.0
  0
LINE
  5
1355
330
12D8
100
AcDbEntity
  8
0
 62
     0
380
     1
100
AcDbLine
 10
20.69557542405724
 20
3.574999679512956
 30
0.0
 11
20.34610557948062
 21
3.924469524089573
 31
0.0
  0
LINE
  5
1356
330
12D8
100
AcDbEntity
  8
0
 62
     0
380
     1
100
AcDbLine
 10
13.56265223178559
 20
10.25891006573113
 30
0.0
 11
12.21254137267988
 21
11.60902092483681
 31
0.0
  0
LINE
  5
1357
330
12D8
100
AcDbEntity
  8
0
 62
     0
380
     1
100
AcDbLine
 10
18.85743310016232
 20
4.964129197354395
 30
0.0
 11
14.92110557948061
 21
8.90045671803611
 31
0.0
  0
LINE
  5
1358
330
12D8
100
AcDbEntity
  8
0
 62
     0
380
     1
100
AcDbLine
 10
16.48986004065142
 20
6.882689450811852
 30
0.0
 11
14.92110557948061
 21
8.451443911982664
 31
0.0
  0
LINE
  5
1359
330
12D8
100
AcDbEntity
  8
0
 62
     0
380
     1
100
AcDbLine
 10
13.14754981195037
 20
10.22499967951287
 30
0.0
 11
11.84351983788625
 21
11.52902965357702
 31
0.0
  0
LINE
  5
135A
330
12D8
100
AcDbEntity
  8
0
 62
     0
380
     1
100
AcDbLine
 10
19.06466977987932
 20
4.30787971158395
 30
0.0
 11
17.01851593372538
 21
6.354033557737864
 31
0.0
  0
LINE
  5
135B
330
12D8
100
AcDbEntity
  8
0
 62
     0
380
     1
100
AcDbLine
 10
16.32110557948064
 20
6.602431105929184
 30
0.0
 11
14.92110557948061
 21
8.002431105929218
 31
0.0
  0
LINE
  5
135C
330
12D8
100
AcDbEntity
  8
0
 62
     0
380
     1
100
AcDbLine
 10
12.69853700589687
 20
10.22499967951293
 30
0.0
 11
11.52415912997088
 21
11.39937755543892
 31
0.0
  0
LINE
  5
135D
330
12D8
100
AcDbEntity
  8
0
 62
     0
380
     1
100
AcDbLine
 10
19.18218920873463
 20
3.741347476675173
 30
0.0
 11
17.22575261344235
 21
5.697784071967475
 31
0.0
  0
LINE
  5
135E
330
12D8
100
AcDbEntity
  8
0
 62
     0
380
     1
100
AcDbLine
 10
16.32110557948061
 20
6.153418299875738
 30
0.0
 11
14.92110557948058
 21
7.553418299875744
 31
0.0
  0
LINE
  5
135F
330
12D8
100
AcDbEntity
  8
0
 62
     0
380
     1
100
AcDbLine
 10
12.2769802546251
 20
10.19754362473125
 30
0.0
 11
11.24478464230361
 21
11.22973923705274
 31
0.0
  0
LINE
  5
1360
330
12D8
100
AcDbEntity
  8
0
 62
     0
380
     1
100
AcDbLine
 10
18.89952419984345
 20
3.574999679512899
 30
0.0
 11
17.43298929315932
 21
5.04153458619703
 31
0.0
  0
LINE
  5
1361
330
12D8
100
AcDbEntity
  8
0
 62
     0
380
     1
100
AcDbLine
 10
16.32110557948061
 20
5.704405493822264
 30
0.0
 11
14.92110557948058
 21
7.104405493822298
 31
0.0
  0
LINE
  5
1362
330
12D8
100
AcDbEntity
  8
0
 62
     0
380
     1
100
AcDbLine
 10
11.9910521582056
 20
10.03445891509727
 30
0.0
 11
11.00095703799772
 21
11.02455403530516
 31
0.0
  0
LINE
  5
1363
330
12D8
100
AcDbEntity
  8
0
 62
     0
380
     1
100
AcDbLine
 10
18.45051139378998
 20
3.574999679512899
 30
0.0
 11
17.64022597287635
 21
4.385285100426528
 31
0.0
  0
LINE
  5
1364
330
12D8
100
AcDbEntity
  8
0
 62
     0
380
     1
100
AcDbLine
 10
13.86382014587949
 20
7.712678121369975
 30
0.0
 11
13.10878402133761
 21
8.467714245911849
 31
0.0
  0
LINE
  5
1365
330
12D8
100
AcDbEntity
  8
0
 62
     0
380
     1
100
AcDbLine
 10
16.32110557948067
 20
5.255392687768789
 30
0.0
 11
14.92110557948061
 21
6.655392687768852
 31
0.0
  0
LINE
  5
1366
330
12D8
100
AcDbEntity
  8
0
 62
     0
380
     1
100
AcDbLine
 10
11.81299137314113
 20
9.763506894108331
 30
0.0
 11
10.7912740249921
 21
10.78522424225735
 31
0.0
  0
LINE
  5
1367
330
12D8
100
AcDbEntity
  8
0
 62
     0
380
     1
100
AcDbLine
 10
17.97633208563422
 20
3.600166181615236
 30
0.0
 11
17.85115499983857
 21
3.725343267410892
 31
0.0
  0
LINE
  5
1368
330
12D8
100
AcDbEntity
  8
0
 62
     0
380
     1
100
AcDbLine
 10
13.82056331580853
 20
7.30692214538746
 30
0.0
 11
12.7030280453551
 21
8.42445741584089
 31
0.0
  0
LINE
  5
1369
330
12D8
100
AcDbEntity
  8
0
 62
     0
380
     1
100
AcDbLine
 10
11.77110557948066
 20
9.356379881715326
 30
0.0
 11
10.61680451451127
 21
10.51068094668471
 31
0.0
  0
LINE
  5
136A
330
12D8
100
AcDbEntity
  8
0
 62
     0
380
     1
100
AcDbLine
 10
16.32110557948064
 20
4.806379881715315
 30
0.0
 11
14.92110557948058
 21
6.206379881715406
 31
0.0
  0
LINE
  5
136B
330
12D8
100
AcDbEntity
  8
0
 62
     0
380
     1
100
AcDbLine
 10
13.6546355361595
 20
7.023837118982982
 30
0.0
 11
12.41994301895062
 21
8.258529636191866
 31
0.0
  0
LINE
  5
136C
330
12D8
100
AcDbEntity
  8
0
 62
     0
380
     1
100
AcDbLine
 10
11.77110557948066
 20
8.907367075661852
 30
0.0
 11
10.48151466090618
 21
10.19695799423633
 31
0.0
  0
LINE
  5
136D
330
12D8
100
AcDbEntity
  8
0
 62
     0
380
     1
100
AcDbLine
 10
16.32110557948064
 20
4.357367075661869
 30
0.0
 11
14.92110557948061
 21
5.757367075661903
 31
0.0
  0
LINE
  5
136E
330
12D8
100
AcDbEntity
  8
0
 62
     0
380
     1
100
AcDbLine
 10
11.77110557948066
 20
8.458354269608406
 30
0.0
 11
10.39415772444326
 21
9.835302124645835
 31
0.0
  0
LINE
  5
136F
330
12D8
100
AcDbEntity
  8
0
 62
     0
380
     1
100
AcDbLine
 10
13.40371881509128
 20
6.825741033997815
 30
0.0
 11
12.22184693396545
 21
8.007612915123644
 31
0.0
  0
LINE
  5
1370
330
12D8
100
AcDbEntity
  8
0
 62
     0
380
     1
100
AcDbLine
 10
9.058605579480627
 20
11.17085426960847
 30
0.0
 11
8.604460169576128
 21
11.62499967951297
 31
0.0
  0
LINE
  5
1371
330
12D8
100
AcDbEntity
  8
0
 62
     0
380
     1
100
AcDbLine
 10
16.32110557948067
 20
3.908354269608423
 30
0.0
 11
14.92110557948064
 21
5.308354269608457
 31
0.0
  0
LINE
  5
1372
330
12D8
100
AcDbEntity
  8
0
 62
     0
380
     1
100
AcDbLine
 10
11.77110557948066
 20
8.00934146355496
 30
0.0
 11
10.37110557948063
 21
9.409341463554994
 31
0.0
  0
LINE
  5
1373
330
12D8
100
AcDbEntity
  8
0
 62
     0
380
     1
100
AcDbLine
 10
13.05355909387756
 20
6.726887949158054
 30
0.0
 11
12.12299384912569
 21
7.65745319390993
 31
0.0
  0
LINE
  5
1374
330
12D8
100
AcDbEntity
  8
0
 62
     0
380
     1
100
AcDbLine
 10
9.058605579480598
 20
10.72184146355499
 30
0.0
 11
8.155447363522654
 21
11.62499967951294
 31
0.0
  0
LINE
  5
1375
330
12D8
100
AcDbEntity
  8
0
 62
     0
380
     1
100
AcDbLine
 10
16.17715367884531
 20
3.603293364190307
 30
0.0
 11
14.92110557948061
 21
4.859341463554983
 31
0.0
  0
LINE
  5
1376
330
12D8
100
AcDbEntity
  8
0
 62
     0
380
     1
100
AcDbLine
 10
11.77110557948066
 20
7.560328657501486
 30
0.0
 11
10.37110557948063
 21
8.96032865750152
 31
0.0
  0
LINE
  5
1377
330
12D8
100
AcDbEntity
  8
0
 62
     0
380
     1
100
AcDbLine
 10
9.004088594345432
 20
10.32734564263671
 30
0.0
 11
7.706434557469151
 21
11.62499967951297
 31
0.0
  0
LINE
  5
1378
330
12D8
100
AcDbEntity
  8
0
 62
     0
380
     1
100
AcDbLine
 10
15.75643455746922
 20
3.574999679512927
 30
0.0
 11
14.92110557948061
 21
4.410328657501537
 31
0.0
  0
LINE
  5
1379
330
12D8
100
AcDbEntity
  8
0
 62
     0
380
     1
100
AcDbLine
 10
11.77110557948063
 20
7.11131585144804
 30
0.0
 11
10.3711055794806
 21
8.511315851448046
 31
0.0
  0
LINE
  5
137A
330
12D8
100
AcDbEntity
  8
0
 62
     0
380
     1
100
AcDbLine
 10
8.657421751415739
 20
10.22499967951293
 30
0.0
 11
7.257421751415705
 21
11.62499967951297
 31
0.0
  0
LINE
  5
137B
330
12D8
100
AcDbEntity
  8
0
 62
     0
380
     1
100
AcDbLine
 10
15.30742175141574
 20
3.574999679512899
 30
0.0
 11
14.92110557948061
 21
3.961315851448063
 31
0.0
  0
LINE
  5
137C
330
12D8
100
AcDbEntity
  8
0
 62
     0
380
     1
100
AcDbLine
 10
11.77110557948069
 20
6.662303045394565
 30
0.0
 11
10.37110557948063
 21
8.062303045394628
 31
0.0
  0
LINE
  5
137D
330
12D8
100
AcDbEntity
  8
0
 62
     0
380
     1
100
AcDbLine
 10
8.208408945362293
 20
10.22499967951296
 30
0.0
 11
6.825844309309871
 21
11.60756431556538
 31
0.0
  0
LINE
  5
137E
330
12D8
100
AcDbEntity
  8
0
 62
     0
380
     1
100
AcDbLine
 10
13.69480435506216
 20
4.738604269813066
 30
0.0
 11
13.4597101697808
 21
4.973698455094449
 31
0.0
  0
LINE
  5
137F
330
12D8
100
AcDbEntity
  8
0
 62
     0
380
     1
100
AcDbLine
 10
11.77110557948069
 20
6.213290239341091
 30
0.0
 11
10.37110557948063
 21
7.613290239341154
 31
0.0
  0
LINE
  5
1380
330
12D8
100
AcDbEntity
  8
0
 62
     0
380
     1
100
AcDbLine
 10
7.759396139308819
 20
10.22499967951293
 30
0.0
 11
6.479276905070634
 21
11.50511891375114
 31
0.0
  0
LINE
  5
1381
330
12D8
100
AcDbEntity
  8
0
 62
     0
380
     1
100
AcDbLine
 10
13.69610557948067
 20
4.288290239341108
 30
0.0
 11
13.00939613930885
 21
4.974999679512933
 31
0.0
  0
LINE
  5
1382
330
12D8
100
AcDbEntity
  8
0
 62
     0
380
     1
100
AcDbLine
 10
11.77110557948066
 20
5.764277433287617
 30
0.0
 11
10.37110557948065
 21
7.164277433287651
 31
0.0
  0
LINE
  5
1383
330
12D8
100
AcDbEntity
  8
0
 62
     0
380
     1
100
AcDbLine
 10
7.310383333255401
 20
10.22499967951287
 30
0.0
 11
6.197153575147012
 21
11.33822943762126
 31
0.0
  0
LINE
  5
1384
330
12D8
100
AcDbEntity
  8
0
 62
     0
380
     1
100
AcDbLine
 10
13.69610557948064
 20
3.839277433287634
 30
0.0
 11
12.5603833332554
 21
4.974999679512876
 31
0.0
  0
LINE
  5
1385
330
12D8
100
AcDbEntity
  8
0
 62
     0
380
     1
100
AcDbLine
 10
7.055236919448105
 20
10.03113328726678
 30
0.0
 11
5.968107169026637
 21
11.11826303768825
 31
0.0
  0
LINE
  5
1386
330
12D8
100
AcDbEntity
  8
0
 62
     0
380
     1
100
AcDbLine
 10
13.50223918723446
 20
3.584131019480423
 30
0.0
 11
10.37110557948065
 21
6.715264627234233
 31
0.0
  0
LINE
  5
1387
330
12D8
100
AcDbEntity
  8
0
 62
     0
380
     1
100
AcDbLine
 10
7.046105579480638
 20
9.591251821180776
 30
0.0
 11
5.791366567792096
 21
10.84599083286932
 31
0.0
  0
LINE
  5
1388
330
12D8
100
AcDbEntity
  8
0
 62
     0
380
     1
100
AcDbLine
 10
13.06235772114851
 20
3.574999679512899
 30
0.0
 11
10.37110557948065
 21
6.266251821180759
 31
0.0
  0
LINE
  5
1389
330
12D8
100
AcDbEntity
  8
0
 62
     0
380
     1
100
AcDbLine
 10
7.077173433548352
 20
9.111171161059559
 30
0.0
 11
5.675926516645233
 21
10.5124180779627
 31
0.0
  0
LINE
  5
138A
330
12D8
100
AcDbEntity
  8
0
 62
     0
380
     1
100
AcDbLine
 10
12.61334491509501
 20
3.574999679512927
 30
0.0
 11
10.37110557948063
 21
5.817239015127285
 31
0.0
  0
LINE
  5
138B
330
12D8
100
AcDbEntity
  8
0
 62
     0
380
     1
100
AcDbLine
 10
9.223293625091969
 20
6.516038163462525
 30
0.0
 11
5.646105579480661
 21
10.09322620907383
 31
0.0
  0
LINE
  5
138C
330
12D8
100
AcDbEntity
  8
0
 62
     0
380
     1
100
AcDbLine
 10
12.13769606551324
 20
3.601635723041255
 30
0.0
 11
10.39774162300895
 21
5.34159016554554
 31
0.0
  0
LINE
  5
138D
330
12D8
100
AcDbEntity
  8
0
 62
     0
380
     1
100
AcDbLine
 10
9.319240882134579
 20
5.971078100366469
 30
0.0
 11
5.646105579480604
 21
9.644213403020444
 31
0.0
  0
LINE
  5
138E
330
12D8
100
AcDbEntity
  8
0
 62
     0
380
     1
100
AcDbLine
 10
11.45079210921244
 20
3.839526873288576
 30
0.0
 11
10.63563277325624
 21
4.6546862092448
 31
0.0
  0
LINE
  5
138F
330
12D8
100
AcDbEntity
  8
0
 62
     0
380
     1
100
AcDbLine
 10
9.321105579480672
 20
5.520200596966901
 30
0.0
 11
5.649887803191802
 21
9.191418373255743
 31
0.0
  0
LINE
  5
1390
330
12D8
100
AcDbEntity
  8
0
 62
     0
380
     1
100
AcDbLine
 10
9.321105579480615
 20
5.071187790913484
 30
0.0
 11
5.76153318235373
 21
8.630760188040341
 31
0.0
  0
LINE
  5
1391
330
12D8
100
AcDbEntity
  8
0
 62
     0
380
     1
100
AcDbLine
 10
9.284845581414657
 20
4.658434982926024
 30
0.0
 11
7.903149759605128
 21
6.040130804735554
 31
0.0
  0
LINE
  5
1392
330
12D8
100
AcDbEntity
  8
0
 62
     0
380
     1
100
AcDbLine
 10
9.163876611900235
 20
4.330391146386972
 30
0.0
 11
7.92110557948061
 21
5.573162178806597
 31
0.0
  0
LINE
  5
1393
330
12D8
100
AcDbEntity
  8
0
 62
     0
380
     1
100
AcDbLine
 10
8.98281698820935
 20
4.062437964024383
 30
0.0
 11
7.903156063330271
 21
5.142098888903461
 31
0.0
  0
LINE
  5
1394
330
12D8
100
AcDbEntity
  8
0
 62
     0
380
     1
100
AcDbLine
 10
8.749703802075913
 20
3.846538344104374
 30
0.0
 11
7.621242466667354
 21
4.974999679512961
 31
0.0
  0
LINE
  5
1395
330
12D8
100
AcDbEntity
  8
0
 62
     0
380
     1
100
AcDbLine
 10
8.463071578209508
 20
3.684157761917333
 30
0.0
 11
7.172229660613879
 21
4.974999679512933
 31
0.0
  0
LINE
  5
1396
330
12D8
100
AcDbEntity
  8
0
 62
     0
380
     1
100
AcDbLine
 10
8.110365283666538
 20
3.587851250406828
 30
0.0
 11
6.723216854560433
 21
4.974999679512933
 31
0.0
  0
LINE
  5
1397
330
12D8
100
AcDbEntity
  8
0
 62
     0
380
     1
100
AcDbLine
 10
7.674204048506965
 20
3.574999679512927
 30
0.0
 11
6.274204048506959
 21
4.974999679512933
 31
0.0
  0
LINE
  5
1398
330
12D8
100
AcDbEntity
  8
0
 62
     0
380
     1
100
AcDbLine
 10
7.225191242453547
 20
3.574999679512899
 30
0.0
 11
5.948529295044608
 21
4.851661626921867
 31
0.0
  0
LINE
  5
1399
330
12D8
100
AcDbEntity
  8
0
 62
     0
380
     1
100
AcDbLine
 10
6.776178436400044
 20
3.574999679512927
 30
0.0
 11
5.908605579480649
 21
4.442572536432322
 31
0.0
  0
LINE
  5
139A
330
12D8
100
AcDbEntity
  8
0
 62
     0
380
     1
100
AcDbLine
 10
6.327165630346627
 20
3.574999679512899
 30
0.0
 11
5.908605579480649
 21
3.993559730378876
 31
0.0
  0
LINE
  5
139B
330
12D8
100
AcDbEntity
  8
0
 62
     0
380
     1
100
AcDbLine
 10
34.3169492218141
 20
3.581565568071681
 30
0.0
 11
34.51453969092199
 21
3.779156037179575
 31
0.0
  0
LINE
  5
139C
330
12D8
100
AcDbEntity
  8
0
 62
     0
380
     1
100
AcDbLine
 10
33.86137052720193
 20
3.574999679512899
 30
0.0
 11
34.52110557948072
 21
4.234734731791718
 31
0.0
  0
LINE
  5
139D
330
12D8
100
AcDbEntity
  8
0
 62
     0
380
     1
100
AcDbLine
 10
33.41235772114846
 20
3.574999679512927
 30
0.0
 11
34.52110557948072
 21
4.683747537845164
 31
0.0
  0
LINE
  5
139E
330
12D8
100
AcDbEntity
  8
0
 62
     0
380
     1
100
AcDbLine
 10
33.13670436110655
 20
3.748359125524473
 30
0.0
 11
34.52110557948069
 21
5.132760343898638
 31
0.0
  0
LINE
  5
139F
330
12D8
100
AcDbEntity
  8
0
 62
     0
380
     1
100
AcDbLine
 10
33.12110557948066
 20
4.18177314995205
 30
0.0
 11
34.52110557948069
 21
5.581773149952056
 31
0.0
  0
LINE
  5
13A0
330
12D8
100
AcDbEntity
  8
0
 62
     0
380
     1
100
AcDbLine
 10
33.12110557948069
 20
4.630785956005496
 30
0.0
 11
34.52110557948069
 21
6.03078595600553
 31
0.0
  0
LINE
  5
13A1
330
12D8
100
AcDbEntity
  8
0
 62
     0
380
     1
100
AcDbLine
 10
33.12110557948066
 20
5.07979876205897
 30
0.0
 11
34.52110557948069
 21
6.479798762059004
 31
0.0
  0
LINE
  5
13A2
330
12D8
100
AcDbEntity
  8
0
 62
     0
380
     1
100
AcDbLine
 10
33.12110557948066
 20
5.528811568112416
 30
0.0
 11
34.52110557948069
 21
6.92881156811245
 31
0.0
  0
LINE
  5
13A3
330
12D8
100
AcDbEntity
  8
0
 62
     0
380
     1
100
AcDbLine
 10
31.3343880105133
 20
3.742093999145055
 30
0.0
 11
31.90401125984858
 21
4.311717248480363
 31
0.0
  0
LINE
  5
13A4
330
12D8
100
AcDbEntity
  8
0
 62
     0
380
     1
100
AcDbLine
 10
33.12110557948066
 20
5.977824374165862
 30
0.0
 11
34.52110557948069
 21
7.377824374165896
 31
0.0
  0
LINE
  5
13A5
330
12D8
100
AcDbEntity
  8
0
 62
     0
380
     1
100
AcDbLine
 10
30.7191039272519
 20
3.5758227219371
 30
0.0
 11
32.07028253705656
 21
4.927001331741735
 31
0.0
  0
LINE
  5
13A6
330
12D8
100
AcDbEntity
  8
0
 62
     0
380
     1
100
AcDbLine
 10
33.12110557948066
 20
6.426837180219337
 30
0.0
 11
34.52110557948069
 21
7.826837180219342
 31
0.0
  0
LINE
  5
13A7
330
12D8
100
AcDbEntity
  8
0
 62
     0
380
     1
100
AcDbLine
 10
30.26926807877419
 20
3.57499967951287
 30
0.0
 11
32.0711055794807
 21
5.376837180219354
 31
0.0
  0
LINE
  5
13A8
330
12D8
100
AcDbEntity
  8
0
 62
     0
380
     1
100
AcDbLine
 10
33.12110557948066
 20
6.875849986272783
 30
0.0
 11
34.52110557948066
 21
8.275849986272817
 31
0.0
  0
LINE
  5
13A9
330
12D8
100
AcDbEntity
  8
0
 62
     0
380
     1
100
AcDbLine
 10
29.82025527272075
 20
3.57499967951287
 30
0.0
 11
32.07110557948067
 21
5.825849986272828
 31
0.0
  0
LINE
  5
13AA
330
12D8
100
AcDbEntity
  8
0
 62
     0
380
     1
100
AcDbLine
 10
33.12110557948066
 20
7.324862792326229
 30
0.0
 11
34.52110557948069
 21
8.724862792326263
 31
0.0
  0
LINE
  5
13AB
330
12D8
100
AcDbEntity
  8
0
 62
     0
380
     1
100
AcDbLine
 10
29.37124246666733
 20
3.574999679512899
 30
0.0
 11
32.0711055794807
 21
6.274862792326274
 31
0.0
  0
LINE
  5
13AC
330
12D8
100
AcDbEntity
  8
0
 62
     0
380
     1
100
AcDbLine
 10
30.61880997844014
 20
5.271579997339188
 30
0.0
 11
32.0711055794807
 21
6.72387559837972
 31
0.0
  0
LINE
  5
13AD
330
12D8
100
AcDbEntity
  8
0
 62
     0
380
     1
100
AcDbLine
 10
33.12110557948066
 20
7.773875598379675
 30
0.0
 11
34.52110557948069
 21
9.173875598379709
 31
0.0
  0
LINE
  5
13AE
330
12D8
100
AcDbEntity
  8
0
 62
     0
380
     1
100
AcDbLine
 10
28.92222966061382
 20
3.57499967951287
 30
0.0
 11
30.37452526165438
 21
5.027295280553403
 31
0.0
  0
LINE
  5
13AF
330
12D8
100
AcDbEntity
  8
0
 62
     0
380
     1
100
AcDbLine
 10
30.67110557948061
 20
5.772888404433132
 30
0.0
 11
32.07110557948067
 21
7.172888404433194
 31
0.0
  0
LINE
  5
13B0
330
12D8
100
AcDbEntity
  8
0
 62
     0
380
     1
100
AcDbLine
 10
33.12110557948063
 20
8.222888404433149
 30
0.0
 11
34.52110557948066
 21
9.622888404433183
 31
0.0
  0
LINE
  5
13B1
330
12D8
100
AcDbEntity
  8
0
 62
     0
380
     1
100
AcDbLine
 10
28.52919173024898
 20
3.630974555201476
 30
0.0
 11
29.87321685456041
 21
4.974999679512905
 31
0.0
  0
LINE
  5
13B2
330
12D8
100
AcDbEntity
  8
0
 62
     0
380
     1
100
AcDbLine
 10
30.67110557948061
 20
6.221901210486578
 30
0.0
 11
32.07110557948067
 21
7.62190121048664
 31
0.0
  0
LINE
  5
13B3
330
12D8
100
AcDbEntity
  8
0
 62
     0
380
     1
100
AcDbLine
 10
33.12110557948063
 20
8.671901210486623
 30
0.0
 11
34.52110557948066
 21
10.07190121048663
 31
0.0
  0
LINE
  5
13B4
330
12D8
100
AcDbEntity
  8
0
 62
     0
380
     1
100
AcDbLine
 10
28.21519829664391
 20
3.765993927649901
 30
0.0
 11
29.42464294132913
 21
4.975438572335121
 31
0.0
  0
LINE
  5
13B5
330
12D8
100
AcDbEntity
  8
0
 62
     0
380
     1
100
AcDbLine
 10
30.67110557948067
 20
6.670914016540052
 30
0.0
 11
32.07110557948067
 21
8.070914016540086
 31
0.0
  0
LINE
  5
13B6
330
12D8
100
AcDbEntity
  8
0
 62
     0
380
     1
100
AcDbLine
 10
33.12110557948066
 20
9.120914016540041
 30
0.0
 11
34.52110557948066
 21
10.52091401654007
 31
0.0
  0
LINE
  5
13B7
330
12D8
100
AcDbEntity
  8
0
 62
     0
380
     1
100
AcDbLine
 10
27.95856835596138
 20
3.958376793020761
 30
0.0
 11
29.10290364697278
 21
5.102712084032191
 31
0.0
  0
LINE
  5
13B8
330
12D8
100
AcDbEntity
  8
0
 62
     0
380
     1
100
AcDbLine
 10
30.67110557948064
 20
7.119926822593527
 30
0.0
 11
32.07110557948067
 21
8.519926822593561
 31
0.0
  0
LINE
  5
13B9
330
12D8
100
AcDbEntity
  8
0
 62
     0
380
     1
100
AcDbLine
 10
33.12110557948063
 20
9.569926822593515
 30
0.0
 11
34.52110557948066
 21
10.96992682259355
 31
0.0
  0
LINE
  5
13BA
330
12D8
100
AcDbEntity
  8
0
 62
     0
380
     1
100
AcDbLine
 10
27.75358626834881
 20
4.202407511461672
 30
0.0
 11
28.93428450776807
 21
5.383105750880957
 31
0.0
  0
LINE
  5
13BB
330
12D8
100
AcDbEntity
  8
0
 62
     0
380
     1
100
AcDbLine
 10
30.67110557948064
 20
7.568939628646973
 30
0.0
 11
32.0711055794807
 21
8.968939628647063
 31
0.0
  0
LINE
  5
13BC
330
12D8
100
AcDbEntity
  8
0
 62
     0
380
     1
100
AcDbLine
 10
33.12110557948063
 20
10.01893962864696
 30
0.0
 11
34.51603100270543
 21
11.41386505187179
 31
0.0
  0
LINE
  5
13BD
330
12D8
100
AcDbEntity
  8
0
 62
     0
380
     1
100
AcDbLine
 10
27.60362382913181
 20
4.501457878298168
 30
0.0
 11
28.92110557948061
 21
5.818939628646973
 31
0.0
  0
LINE
  5
13BE
330
12D8
100
AcDbEntity
  8
0
 62
     0
380
     1
100
AcDbLine
 10
30.67110557948064
 20
8.017952434700418
 30
0.0
 11
32.07110557948073
 21
9.417952434700481
 31
0.0
  0
LINE
  5
13BF
330
12D8
100
AcDbEntity
  8
0
 62
     0
380
     1
100
AcDbLine
 10
33.12110557948063
 20
10.4679524347004
 30
0.0
 11
34.27747383016569
 21
11.62432068538547
 31
0.0
  0
LINE
  5
13C0
330
12D8
100
AcDbEntity
  8
0
 62
     0
380
     1
100
AcDbLine
 10
27.52491706165358
 20
4.871763916873362
 30
0.0
 11
28.92110557948064
 21
6.267952434700418
 31
0.0
  0
LINE
  5
13C1
330
12D8
100
AcDbEntity
  8
0
 62
     0
380
     1
100
AcDbLine
 10
30.67110557948064
 20
8.466965240753893
 30
0.0
 11
32.0711055794807
 21
9.866965240753955
 31
0.0
  0
LINE
  5
13C2
330
12D8
100
AcDbEntity
  8
0
 62
     0
380
     1
100
AcDbLine
 10
33.12110557948066
 20
10.91696524075391
 30
0.0
 11
33.82914001823966
 21
11.62499967951291
 31
0.0
  0
LINE
  5
13C3
330
12D8
100
AcDbEntity
  8
0
 62
     0
380
     1
100
AcDbLine
 10
27.52110557948069
 20
5.316965240753916
 30
0.0
 11
28.92110557948067
 21
6.716965240753921
 31
0.0
  0
LINE
  5
13C4
330
12D8
100
AcDbEntity
  8
0
 62
     0
380
     1
100
AcDbLine
 10
30.67110557948064
 20
8.915978046807339
 30
0.0
 11
32.0711055794807
 21
10.3159780468074
 31
0.0
  0
LINE
  5
13C5
330
12D8
100
AcDbEntity
  8
0
 62
     0
380
     1
100
AcDbLine
 10
27.52110557948066
 20
5.76597804680739
 30
0.0
 11
28.92110557948064
 21
7.165978046807367
 31
0.0
  0
LINE
  5
13C6
330
12D8
100
AcDbEntity
  8
0
 62
     0
380
     1
100
AcDbLine
 10
33.12112893685438
 20
11.3660014041811
 30
0.0
 11
33.38010385481252
 21
11.62497632213922
 31
0.0
  0
LINE
  5
13C7
330
12D8
100
AcDbEntity
  8
0
 62
     0
380
     1
100
AcDbLine
 10
25.36032776412466
 20
3.605200231451362
 30
0.0
 11
26.44090502754224
 21
4.685777494868972
 31
0.0
  0
LINE
  5
13C8
330
12D8
100
AcDbEntity
  8
0
 62
     0
380
     1
100
AcDbLine
 10
27.52110557948066
 20
6.214990852860836
 30
0.0
 11
28.92110557948064
 21
7.614990852860842
 31
0.0
  0
LINE
  5
13C9
330
12D8
100
AcDbEntity
  8
0
 62
     0
380
     1
100
AcDbLine
 10
30.67110557948067
 20
9.364990852860842
 30
0.0
 11
32.07110557948067
 21
10.76499085286087
 31
0.0
  0
LINE
  5
13CA
330
12D8
100
AcDbEntity
  8
0
 62
     0
380
     1
100
AcDbLine
 10
24.88111440613276
 20
3.574999679512956
 30
0.0
 11
26.47110557948062
 21
5.164990852860796
 31
0.0
  0
LINE
  5
13CB
330
12D8
100
AcDbEntity
  8
0
 62
     0
380
     1
100
AcDbLine
 10
27.52110557948066
 20
6.664003658914282
 30
0.0
 11
28.92110557948067
 21
8.064003658914259
 31
0.0
  0
LINE
  5
13CC
330
12D8
100
AcDbEntity
  8
0
 62
     0
380
     1
100
AcDbLine
 10
30.67110557948067
 20
9.814003658914288
 30
0.0
 11
32.0711055794807
 21
11.21400365891432
 31
0.0
  0
LINE
  5
13CD
330
12D8
100
AcDbEntity
  8
0
 62
     0
380
     1
100
AcDbLine
 10
24.43210160007928
 20
3.574999679512899
 30
0.0
 11
26.47110557948068
 21
5.61400365891427
 31
0.0
  0
LINE
  5
13CE
330
12D8
100
AcDbEntity
  8
0
 62
     0
380
     1
100
AcDbLine
 10
27.52110557948066
 20
7.113016464967756
 30
0.0
 11
28.92110557948064
 21
8.513016464967734
 31
0.0
  0
LINE
  5
13CF
330
12D8
100
AcDbEntity
  8
0
 62
     0
380
     1
100
AcDbLine
 10
30.67110557948067
 20
10.26301646496773
 30
0.0
 11
31.97423685206363
 21
11.56614773755072
 31
0.0
  0
LINE
  5
13D0
330
12D8
100
AcDbEntity
  8
0
 62
     0
380
     1
100
AcDbLine
 10
23.98308879402583
 20
3.574999679512927
 30
0.0
 11
26.46394627927418
 21
6.055857164761277
 31
0.0
  0
LINE
  5
13D1
330
12D8
100
AcDbEntity
  8
0
 62
     0
380
     1
100
AcDbLine
 10
27.52110557948066
 20
7.562029271021202
 30
0.0
 11
28.92110557948064
 21
8.962029271021208
 31
0.0
  0
LINE
  5
13D2
330
12D8
100
AcDbEntity
  8
0
 62
     0
380
     1
100
AcDbLine
 10
30.67110557948064
 20
10.71202927102121
 30
0.0
 11
31.58407598797237
 21
11.62499967951294
 31
0.0
  0
LINE
  5
13D3
330
12D8
100
AcDbEntity
  8
0
 62
     0
380
     1
100
AcDbLine
 10
23.53407598797236
 20
3.574999679512927
 30
0.0
 11
26.39649009395981
 21
6.437413785500353
 31
0.0
  0
LINE
  5
13D4
330
12D8
100
AcDbEntity
  8
0
 62
     0
380
     1
100
AcDbLine
 10
27.52110557948066
 20
8.011042077074648
 30
0.0
 11
28.92110557948064
 21
9.411042077074625
 31
0.0
  0
LINE
  5
13D5
330
12D8
100
AcDbEntity
  8
0
 62
     0
380
     1
100
AcDbLine
 10
25.07110557948067
 20
5.56104207707466
 30
0.0
 11
26.27619636550054
 21
6.766132863094497
 31
0.0
  0
LINE
  5
13D6
330
12D8
100
AcDbEntity
  8
0
 62
     0
380
     1
100
AcDbLine
 10
30.67110557948067
 20
11.16104207707465
 30
0.0
 11
31.13506318191895
 21
11.62499967951294
 31
0.0
  0
LINE
  5
13D7
330
12D8
100
AcDbEntity
  8
0
 62
     0
380
     1
100
AcDbLine
 10
23.14919085848448
 20
3.639127356078461
 30
0.0
 11
24.48506318191892
 21
4.974999679512905
 31
0.0
  0
LINE
  5
13D8
330
12D8
100
AcDbEntity
  8
0
 62
     0
380
     1
100
AcDbLine
 10
25.06117029191702
 20
6.000119595564456
 30
0.0
 11
26.11444671307026
 21
7.053396016717698
 31
0.0
  0
LINE
  5
13D9
330
12D8
100
AcDbEntity
  8
0
 62
     0
380
     1
100
AcDbLine
 10
27.52110557948066
 20
8.460054883128094
 30
0.0
 11
28.92110557948067
 21
9.860054883128128
 31
0.0
  0
LINE
  5
13DA
330
12D8
100
AcDbEntity
  8
0
 62
     0
380
     1
100
AcDbLine
 10
23.05860557948063
 20
3.997554883128088
 30
0.0
 11
24.03605037586544
 21
4.974999679512905
 31
0.0
  0
LINE
  5
13DB
330
12D8
100
AcDbEntity
  8
0
 62
     0
380
     1
100
AcDbLine
 10
24.92397787334758
 20
6.311939983048517
 30
0.0
 11
25.91651115410636
 21
7.304473263807295
 31
0.0
  0
LINE
  5
13DC
330
12D8
100
AcDbEntity
  8
0
 62
     0
380
     1
100
AcDbLine
 10
27.52110557948063
 20
8.909067689181568
 30
0.0
 11
28.92110557948067
 21
10.3090676891816
 31
0.0
  0
LINE
  5
13DD
330
12D8
100
AcDbEntity
  8
0
 62
     0
380
     1
100
AcDbLine
 10
23.05860557948063
 20
4.446567689181534
 30
0.0
 11
23.587037569812
 21
4.974999679512933
 31
0.0
  0
LINE
  5
13DE
330
12D8
100
AcDbEntity
  8
0
 62
     0
380
     1
100
AcDbLine
 10
27.52110557948066
 20
9.358080495235014
 30
0.0
 11
28.9211055794807
 21
10.75808049523502
 31
0.0
  0
LINE
  5
13DF
330
12D8
100
AcDbEntity
  8
0
 62
     0
380
     1
100
AcDbLine
 10
24.70334042478905
 20
6.540315340543372
 30
0.0
 11
25.69328991845023
 21
7.530264834204587
 31
0.0
  0
LINE
  5
13E0
330
12D8
100
AcDbEntity
  8
0
 62
     0
380
     1
100
AcDbLine
 10
24.47883402176231
 20
6.764821743570109
 30
0.0
 11
25.46878351542347
 21
7.754771237231267
 31
0.0
  0
LINE
  5
13E1
330
12D8
100
AcDbEntity
  8
0
 62
     0
380
     1
100
AcDbLine
 10
27.52110557948063
 20
9.80709330128846
 30
0.0
 11
28.92110557948067
 21
11.20709330128849
 31
0.0
  0
LINE
  5
13E2
330
12D8
100
AcDbEntity
  8
0
 62
     0
380
     1
100
AcDbLine
 10
21.28901195770507
 20
3.574999679512899
 30
0.0
 11
21.74610557948065
 21
4.032093301288455
 31
0.0
  0
LINE
  5
13E3
330
12D8
100
AcDbEntity
  8
0
 62
     0
380
     1
100
AcDbLine
 10
24.25432761873557
 20
6.989328146596847
 30
0.0
 11
25.24427711239673
 21
7.979277640258004
 31
0.0
  0
LINE
  5
13E4
330
12D8
100
AcDbEntity
  8
0
 62
     0
380
     1
100
AcDbLine
 10
27.52110557948063
 20
10.25610610734193
 30
0.0
 11
28.82801512543134
 21
11.56301565329261
 31
0.0
  0
LINE
  5
13E5
330
12D8
100
AcDbEntity
  8
0
 62
     0
380
     1
100
AcDbLine
 10
20.8399991516516
 20
3.574999679512899
 30
0.0
 11
21.74610557948069
 21
4.481106107341958
 31
0.0
  0
LINE
  5
13E6
330
12D8
100
AcDbEntity
  8
0
 62
     0
380
     1
100
AcDbLine
 10
24.02982121570884
 20
7.213834549623584
 30
0.0
 11
25.01977070936999
 21
8.203784043284741
 31
0.0
  0
LINE
  5
13E7
330
12D8
100
AcDbEntity
  8
0
 62
     0
380
     1
100
AcDbLine
 10
27.52110557948063
 20
10.70511891339538
 30
0.0
 11
28.44098634559819
 21
11.62499967951297
 31
0.0
  0
LINE
  5
13E8
330
12D8
100
AcDbEntity
  8
0
 62
     0
380
     1
100
AcDbLine
 10
20.44679191452914
 20
3.630805248443891
 30
0.0
 11
21.74610557948065
 21
4.930118913395432
 31
0.0
  0
LINE
  5
13E9
330
12D8
100
AcDbEntity
  8
0
 62
     0
380
     1
100
AcDbLine
 10
23.80531481268213
 20
7.438340952650293
 30
0.0
 11
24.79526430634328
 21
8.42829044631145
 31
0.0
  0
LINE
  5
13EA
330
12D8
100
AcDbEntity
  8
0
 62
     0
380
     1
100
AcDbLine
 10
27.52110557948063
 20
11.15413171944882
 30
0.0
 11
27.99197353954478
 21
11.62499967951294
 31
0.0
  0
LINE
  5
13EB
330
12D8
100
AcDbEntity
  8
0
 62
     0
380
     1
100
AcDbLine
 10
20.34610557948068
 20
3.979131719448872
 30
0.0
 11
21.74610557948069
 21
5.379131719448849
 31
0.0
  0
LINE
  5
13EC
330
12D8
100
AcDbEntity
  8
0
 62
     0
380
     1
100
AcDbLine
 10
23.58080840965539
 20
7.66284735567703
 30
0.0
 11
24.57075790331655
 21
8.652796849338187
 31
0.0
  0
LINE
  5
13ED
330
12D8
100
AcDbEntity
  8
0
 62
     0
380
     1
100
AcDbLine
 10
20.34610557948068
 20
4.428144525502347
 30
0.0
 11
21.74610557948065
 21
5.828144525502324
 31
0.0
  0
LINE
  5
13EE
330
12D8
100
AcDbEntity
  8
0
 62
     0
380
     1
100
AcDbLine
 10
23.35731645913472
 20
7.888368211209865
 30
0.0
 11
24.34930322582574
 21
8.88035497790085
 31
0.0
  0
LINE
  5
13EF
330
12D8
100
AcDbEntity
  8
0
 62
     0
380
     1
100
AcDbLine
 10
20.34610557948068
 20
4.877157331555793
 30
0.0
 11
21.74610557948065
 21
6.277157331555798
 31
0.0
  0
LINE
  5
13F0
330
12D8
100
AcDbEntity
  8
0
 62
     0
380
     1
100
AcDbLine
 10
25.69394792743782
 20
10.22499967951293
 30
0.0
 11
26.20860557948069
 21
10.7396573315558
 31
0.0
  0
LINE
  5
13F1
330
12D8
100
AcDbEntity
  8
0
 62
     0
380
     1
100
AcDbLine
 10
19.09977746712556
 20
3.630829219200677
 30
0.0
 11
19.14460364785307
 21
3.675655399928217
 31
0.0
  0
LINE
  5
13F2
330
12D8
100
AcDbEntity
  8
0
 62
     0
380
     1
100
AcDbLine
 10
23.15831536972374
 20
8.138379927852298
 30
0.0
 11
24.20813250843304
 21
9.188197066561599
 31
0.0
  0
LINE
  5
13F3
330
12D8
100
AcDbEntity
  8
0
 62
     0
380
     1
100
AcDbLine
 10
20.34610557948068
 20
5.326170137609238
 30
0.0
 11
21.74610557948069
 21
6.726170137609216
 31
0.0
  0
LINE
  5
13F4
330
12D8
100
AcDbEntity
  8
0
 62
     0
380
     1
100
AcDbLine
 10
25.24493512138437
 20
10.22499967951293
 30
0.0
 11
26.20860557948069
 21
11.18867013760925
 31
0.0
  0
LINE
  5
13F5
330
12D8
100
AcDbEntity
  8
0
 62
     0
380
     1
100
AcDbLine
 10
18.59493512138434
 20
3.574999679512899
 30
0.0
 11
19.12782466953757
 21
4.107889227666106
 31
0.0
  0
LINE
  5
13F6
330
12D8
100
AcDbEntity
  8
0
 62
     0
380
     1
100
AcDbLine
 10
22.99539823752539
 20
8.424475601707428
 30
0.0
 11
24.1961055794807
 21
9.625182943662707
 31
0.0
  0
LINE
  5
13F7
330
12D8
100
AcDbEntity
  8
0
 62
     0
380
     1
100
AcDbLine
 10
20.34610557948068
 20
5.775182943662684
 30
0.0
 11
21.74610557948065
 21
7.17518294366269
 31
0.0
  0
LINE
  5
13F8
330
12D8
100
AcDbEntity
  8
0
 62
     0
380
     1
100
AcDbLine
 10
24.79592231533093
 20
10.22499967951293
 30
0.0
 11
26.12527111358173
 21
11.55434847776376
 31
0.0
  0
LINE
  5
13F9
330
12D8
100
AcDbEntity
  8
0
 62
     0
380
     1
100
AcDbLine
 10
18.14592231533089
 20
3.574999679512899
 30
0.0
 11
19.02006159608476
 21
4.449138960266793
 31
0.0
  0
LINE
  5
13FA
330
12D8
100
AcDbEntity
  8
0
 62
     0
380
     1
100
AcDbLine
 10
20.34610557948065
 20
6.224195749716159
 30
0.0
 11
21.74610557948065
 21
7.624195749716136
 31
0.0
  0
LINE
  5
13FB
330
12D8
100
AcDbEntity
  8
0
 62
     0
380
     1
100
AcDbLine
 10
22.87370720619035
 20
8.751797376425855
 30
0.0
 11
25.74690950927743
 21
11.62499967951294
 31
0.0
  0
LINE
  5
13FC
330
12D8
100
AcDbEntity
  8
0
 62
     0
380
     1
100
AcDbLine
 10
17.84991516000335
 20
3.728005330238858
 30
0.0
 11
18.91229852263191
 21
4.790388692867423
 31
0.0
  0
LINE
  5
13FD
330
12D8
100
AcDbEntity
  8
0
 62
     0
380
     1
100
AcDbLine
 10
20.34610557948065
 20
6.673208555769633
 30
0.0
 11
21.74610557948063
 21
8.07320855576961
 31
0.0
  0
LINE
  5
13FE
330
12D8
100
AcDbEntity
  8
0
 62
     0
380
     1
100
AcDbLine
 10
22.8043537766475
 20
9.131456752936486
 30
0.0
 11
25.29789670322398
 21
11.62499967951294
 31
0.0
  0
LINE
  5
13FF
330
12D8
100
AcDbEntity
  8
0
 62
     0
380
     1
100
AcDbLine
 10
17.74053544917905
 20
4.067638425468032
 30
0.0
 11
18.80453544917904
 21
5.131638425468025
 31
0.0
  0
LINE
  5
1400
330
12D8
100
AcDbEntity
  8
0
 62
     0
380
     1
100
AcDbLine
 10
20.34610557948068
 20
7.122221361823051
 30
0.0
 11
21.74610557948065
 21
8.522221361823056
 31
0.0
  0
LINE
  5
1401
330
12D8
100
AcDbEntity
  8
0
 62
     0
380
     1
100
AcDbLine
 10
22.79610557948067
 20
9.572221361823039
 30
0.0
 11
24.84888389717054
 21
11.62499967951294
 31
0.0
  0
LINE
  5
1402
330
12D8
100
AcDbEntity
  8
0
 62
     0
380
     1
100
AcDbLine
 10
17.63277237572623
 20
4.408888158068634
 30
0.0
 11
18.69677237572628
 21
5.472888158068656
 31
0.0
  0
LINE
  5
1403
330
12D8
100
AcDbEntity
  8
0
 62
     0
380
     1
100
AcDbLine
 10
20.34610557948065
 20
7.571234167876525
 30
0.0
 11
21.74610557948065
 21
8.971234167876502
 31
0.0
  0
LINE
  5
1404
330
12D8
100
AcDbEntity
  8
0
 62
     0
380
     1
100
AcDbLine
 10
22.79610557948069
 20
10.02123416787654
 30
0.0
 11
24.39987109111709
 21
11.62499967951294
 31
0.0
  0
LINE
  5
1405
330
12D8
100
AcDbEntity
  8
0
 62
     0
380
     1
100
AcDbLine
 10
17.52500930227336
 20
4.750137890669236
 30
0.0
 11
18.58900930227344
 21
5.814137890669286
 31
0.0
  0
LINE
  5
1406
330
12D8
100
AcDbEntity
  8
0
 62
     0
380
     1
100
AcDbLine
 10
20.34610557948065
 20
8.020246973929971
 30
0.0
 11
21.74610557948069
 21
9.420246973930005
 31
0.0
  0
LINE
  5
1407
330
12D8
100
AcDbEntity
  8
0
 62
     0
380
     1
100
AcDbLine
 10
17.41724622882054
 20
5.091387623269895
 30
0.0
 11
18.48124622882059
 21
6.155387623269916
 31
0.0
  0
LINE
  5
1408
330
12D8
100
AcDbEntity
  8
0
 62
     0
380
     1
100
AcDbLine
 10
22.82276391454127
 20
10.49690530899062
 30
0.0
 11
23.92419995000293
 21
11.59834134445228
 31
0.0
  0
LINE
  5
1409
330
12D8
100
AcDbEntity
  8
0
 62
     0
380
     1
100
AcDbLine
 10
15.90085828506355
 20
3.574999679512899
 30
0.0
 11
16.32110557948064
 21
3.995246973929994
 31
0.0
  0
LINE
  5
140A
330
12D8
100
AcDbEntity
  8
0
 62
     0
380
     1
100
AcDbLine
 10
17.30948315536776
 20
5.432637355870497
 30
0.0
 11
18.37348315536772
 21
6.49663735587049
 31
0.0
  0
LINE
  5
140B
330
12D8
100
AcDbEntity
  8
0
 62
     0
380
     1
100
AcDbLine
 10
20.34610557948065
 20
8.469259779983417
 30
0.0
 11
21.74610557948069
 21
9.869259779983451
 31
0.0
  0
LINE
  5
140C
330
12D8
100
AcDbEntity
  8
0
 62
     0
380
     1
100
AcDbLine
 10
15.45184547901013
 20
3.57499967951287
 30
0.0
 11
16.32110557948067
 21
4.44425977998344
 31
0.0
  0
LINE
  5
140D
330
12D8
100
AcDbEntity
  8
0
 62
     0
380
     1
100
AcDbLine
 10
17.20172008191491
 20
5.773887088471127
 30
0.0
 11
18.26572008191493
 21
6.837887088471177
 31
0.0
  0
LINE
  5
140E
330
12D8
100
AcDbEntity
  8
0
 62
     0
380
     1
100
AcDbLine
 10
20.34610557948065
 20
8.918272586036891
 30
0.0
 11
21.74610557948069
 21
10.3182725860369
 31
0.0
  0
LINE
  5
140F
330
12D8
100
AcDbEntity
  8
0
 62
     0
380
     1
100
AcDbLine
 10
15.0434075467823
 20
3.615574553338547
 30
0.0
 11
16.32110557948067
 21
4.893272586036886
 31
0.0
  0
LINE
  5
1410
330
12D8
100
AcDbEntity
  8
0
 62
     0
380
     1
100
AcDbLine
 10
17.09395700846207
 20
6.115136821071757
 30
0.0
 11
18.15795700846209
 21
7.179136821071807
 31
0.0
  0
LINE
  5
1411
330
12D8
100
AcDbEntity
  8
0
 62
     0
380
     1
100
AcDbLine
 10
20.34610557948065
 20
9.367285392090337
 30
0.0
 11
21.74610557948065
 21
10.76728539209037
 31
0.0
  0
LINE
  5
1412
330
12D8
100
AcDbEntity
  8
0
 62
     0
380
     1
100
AcDbLine
 10
14.92110557948066
 20
3.942285392090354
 30
0.0
 11
16.3211055794807
 21
5.342285392090388
 31
0.0
  0
LINE
  5
1413
330
12D8
100
AcDbEntity
  8
0
 62
     0
380
     1
100
AcDbLine
 10
16.98619393500925
 20
6.456386553672359
 30
0.0
 11
18.05019393500927
 21
7.520386553672409
 31
0.0
  0
LINE
  5
1414
330
12D8
100
AcDbEntity
  8
0
 62
     0
380
     1
100
AcDbLine
 10
20.34610557948065
 20
9.816298198143783
 30
0.0
 11
21.74610557948069
 21
11.21629819814382
 31
0.0
  0
LINE
  5
1415
330
12D8
100
AcDbEntity
  8
0
 62
     0
380
     1
100
AcDbLine
 10
14.92110557948066
 20
4.3912981981438
 30
0.0
 11
16.3211055794807
 21
5.791298198143834
 31
0.0
  0
LINE
  5
1416
330
12D8
100
AcDbEntity
  8
0
 62
     0
380
     1
100
AcDbLine
 10
16.86879454152338
 20
6.787999966239993
 30
0.0
 11
18.18394157548883
 21
8.103147000205439
 31
0.0
  0
LINE
  5
1417
330
12D8
100
AcDbEntity
  8
0
 62
     0
380
     1
100
AcDbLine
 10
20.34610557948068
 20
10.26531100419728
 30
0.0
 11
21.64796786823146
 21
11.56717329294804
 31
0.0
  0
LINE
  5
1418
330
12D8
100
AcDbEntity
  8
0
 62
     0
380
     1
100
AcDbLine
 10
14.92110557948066
 20
4.840311004197275
 30
0.0
 11
16.3211055794807
 21
6.24031100419728
 31
0.0
  0
LINE
  5
1419
330
12D8
100
AcDbEntity
  8
0
 62
     0
380
     1
100
AcDbLine
 10
16.52520185658969
 20
6.893420087359771
 30
0.0
 11
18.3911782552058
 21
8.759396485975884
 31
0.0
  0
LINE
  5
141A
330
12D8
100
AcDbEntity
  8
0
 62
     0
380
     1
100
AcDbLine
 10
14.92110557948066
 20
5.289323810250721
 30
0.0
 11
16.32768517163382
 21
6.695903402403871
 31
0.0
  0
LINE
  5
141B
330
12D8
100
AcDbEntity
  8
0
 62
     0
380
     1
100
AcDbLine
 10
20.34610557948068
 20
10.71432381025073
 30
0.0
 11
21.25678144874286
 21
11.62499967951294
 31
0.0
  0
LINE
  5
141C
330
12D8
100
AcDbEntity
  8
0
 62
     0
380
     1
100
AcDbLine
 10
13.20678144874284
 20
3.574999679512899
 30
0.0
 11
13.69610557948067
 21
4.064323810250755
 31
0.0
  0
LINE
  5
141D
330
12D8
100
AcDbEntity
  8
0
 62
     0
380
     1
100
AcDbLine
 10
14.92110557948064
 20
5.738336616304195
 30
0.0
 11
18.59841493492277
 21
9.4156459717463
 31
0.0
  0
LINE
  5
141E
330
12D8
100
AcDbEntity
  8
0
 62
     0
380
     1
100
AcDbLine
 10
20.34610557948065
 20
11.1633366163042
 30
0.0
 11
20.80776864268938
 21
11.62499967951294
 31
0.0
  0
LINE
  5
141F
330
12D8
100
AcDbEntity
  8
0
 62
     0
380
     1
100
AcDbLine
 10
12.75776864268937
 20
3.574999679512927
 30
0.0
 11
13.69610557948067
 21
4.513336616304229
 31
0.0
  0
LINE
  5
1420
330
12D8
100
AcDbEntity
  8
0
 62
     0
380
     1
100
AcDbLine
 10
14.92110557948066
 20
6.187349422357613
 30
0.0
 11
18.8056516146398
 21
10.07189545751674
 31
0.0
  0
LINE
  5
1421
330
12D8
100
AcDbEntity
  8
0
 62
     0
380
     1
100
AcDbLine
 10
12.31459614881098
 20
3.580839991687952
 30
0.0
 11
13.62543843767759
 21
4.891682280554533
 31
0.0
  0
LINE
  5
1422
330
12D8
100
AcDbEntity
  8
0
 62
     0
380
     1
100
AcDbLine
 10
14.92110557948064
 20
6.636362228411087
 30
0.0
 11
16.58474303058247
 21
8.299999679512922
 31
0.0
  0
LINE
  5
1423
330
12D8
100
AcDbEntity
  8
0
 62
     0
380
     1
100
AcDbLine
 10
16.96673444820283
 20
8.681991097133277
 30
0.0
 11
19.0128882943568
 21
10.72814494328722
 31
0.0
  0
LINE
  5
1424
330
12D8
100
AcDbEntity
  8
0
 62
     0
380
     1
100
AcDbLine
 10
11.93051589008749
 20
3.645772539017912
 30
0.0
 11
13.25974303058245
 21
4.974999679512905
 31
0.0
  0
LINE
  5
1425
330
12D8
100
AcDbEntity
  8
0
 62
     0
380
     1
100
AcDbLine
 10
14.92110557948064
 20
7.085375034464561
 30
0.0
 11
16.3301008648348
 21
8.494370319818699
 31
0.0
  0
LINE
  5
1426
330
12D8
100
AcDbEntity
  8
0
 62
     0
380
     1
100
AcDbLine
 10
17.1739711279198
 20
9.338240582903694
 30
0.0
 11
19.20042402025748
 21
11.36469347524141
 31
0.0
  0
LINE
  5
1427
330
12D8
100
AcDbEntity
  8
0
 62
     0
380
     1
100
AcDbLine
 10
11.59994876167428
 20
3.764218216658207
 30
0.0
 11
12.81073022452901
 21
4.974999679512905
 31
0.0
  0
LINE
  5
1428
330
12D8
100
AcDbEntity
  8
0
 62
     0
380
     1
100
AcDbLine
 10
14.92110557948066
 20
7.534387840517979
 30
0.0
 11
16.32110557948067
 21
8.934387840518013
 31
0.0
  0
LINE
  5
1429
330
12D8
100
AcDbEntity
  8
0
 62
     0
380
     1
100
AcDbLine
 10
17.38120780763685
 20
9.994490068674195
 30
0.0
 11
19.00341808397289
 21
11.61670034501023
 31
0.0
  0
LINE
  5
142A
330
12D8
100
AcDbEntity
  8
0
 62
     0
380
     1
100
AcDbLine
 10
11.31114711959213
 20
3.924429380629447
 30
0.0
 11
12.36917804883856
 21
4.982460309875904
 31
0.0
  0
LINE
  5
142B
330
12D8
100
AcDbEntity
  8
0
 62
     0
380
     1
100
AcDbLine
 10
14.92110557948064
 20
7.983400646571453
 30
0.0
 11
16.32110557948067
 21
9.383400646571487
 31
0.0
  0
LINE
  5
142C
330
12D8
100
AcDbEntity
  8
0
 62
     0
380
     1
100
AcDbLine
 10
17.58844448735382
 20
10.65073955444461
 30
0.0
 11
18.56270461242209
 21
11.62499967951291
 31
0.0
  0
LINE
  5
142D
330
12D8
100
AcDbEntity
  8
0
 62
     0
380
     1
100
AcDbLine
 10
11.0586696364011
 20
4.120964703491893
 30
0.0
 11
12.05201997832941
 21
5.114315045420198
 31
0.0
  0
LINE
  5
142E
330
12D8
100
AcDbEntity
  8
0
 62
     0
380
     1
100
AcDbLine
 10
14.92110557948064
 20
8.432413452624899
 30
0.0
 11
16.32110557948067
 21
9.832413452624933
 31
0.0
  0
LINE
  5
142F
330
12D8
100
AcDbEntity
  8
0
 62
     0
380
     1
100
AcDbLine
 10
13.25192264536889
 20
6.763230518513182
 30
0.0
 11
13.83287474048043
 21
7.344182613624724
 31
0.0
  0
LINE
  5
1430
330
12D8
100
AcDbEntity
  8
0
 62
     0
380
     1
100
AcDbLine
 10
17.79568116707077
 20
11.30698904021506
 30
0.0
 11
18.11369180636868
 21
11.62499967951297
 31
0.0
  0
LINE
  5
1431
330
12D8
100
AcDbEntity
  8
0
 62
     0
380
     1
100
AcDbLine
 10
10.84045109973618
 20
4.351758972880475
 30
0.0
 11
11.84689450269331
 21
5.358202375837606
 31
0.0
  0
LINE
  5
1432
330
12D8
100
AcDbEntity
  8
0
 62
     0
380
     1
100
AcDbLine
 10
12.78943622455398
 20
6.749756903751745
 30
0.0
 11
13.84634835524187
 21
7.806669034439607
 31
0.0
  0
LINE
  5
1433
330
12D8
100
AcDbEntity
  8
0
 62
     0
380
     1
100
AcDbLine
 10
14.92110557948061
 20
8.881426258678374
 30
0.0
 11
16.32110557948064
 21
10.2814262586784
 31
0.0
  0
LINE
  5
1434
330
12D8
100
AcDbEntity
  8
0
 62
     0
380
     1
100
AcDbLine
 10
10.6569414872647
 20
4.617262166462438
 30
0.0
 11
11.77110557948066
 21
5.731426258678425
 31
0.0
  0
LINE
  5
1435
330
12D8
100
AcDbEntity
  8
0
 62
     0
380
     1
100
AcDbLine
 10
12.48236293984388
 20
6.891696425095034
 30
0.0
 11
13.70440883389855
 21
8.113742319149736
 31
0.0
  0
LINE
  5
1436
330
12D8
100
AcDbEntity
  8
0
 62
     0
380
     1
100
AcDbLine
 10
14.92110557948064
 20
9.33043906473182
 30
0.0
 11
16.32110557948067
 21
10.73043906473182
 31
0.0
  0
LINE
  5
1437
330
12D8
100
AcDbEntity
  8
0
 62
     0
380
     1
100
AcDbLine
 10
10.51128273230233
 20
4.920616217553515
 30
0.0
 11
11.77110557948066
 21
6.180439064731842
 31
0.0
  0
LINE
  5
1438
330
12D8
100
AcDbEntity
  8
0
 62
     0
380
     1
100
AcDbLine
 10
12.26338297634902
 20
7.121729267653677
 30
0.0
 11
13.47437599133994
 21
8.332722282644567
 31
0.0
  0
LINE
  5
1439
330
12D8
100
AcDbEntity
  8
0
 62
     0
380
     1
100
AcDbLine
 10
14.92110557948064
 20
9.779451870785266
 30
0.0
 11
16.32110557948064
 21
11.1794518707853
 31
0.0
  0
LINE
  5
143A
330
12D8
100
AcDbEntity
  8
0
 62
     0
380
     1
100
AcDbLine
 10
10.410714050215
 20
5.269060341519661
 30
0.0
 11
11.77110557948066
 21
6.629451870785317
 31
0.0
  0
LINE
  5
143B
330
12D8
100
AcDbEntity
  8
0
 62
     0
380
     1
100
AcDbLine
 10
12.13535761014483
 20
7.442716707502938
 30
0.0
 11
13.15338855149065
 21
8.46074764884878
 31
0.0
  0
LINE
  5
143C
330
12D8
100
AcDbEntity
  8
0
 62
     0
380
     1
100
AcDbLine
 10
10.37110557948063
 20
5.678464676838757
 30
0.0
 11
11.77110557948066
 21
7.078464676838763
 31
0.0
  0
LINE
  5
143D
330
12D8
100
AcDbEntity
  8
0
 62
     0
380
     1
100
AcDbLine
 10
14.92110557948061
 20
10.22846467683874
 30
0.0
 11
16.24248052530311
 21
11.54983962266124
 31
0.0
  0
LINE
  5
143E
330
12D8
100
AcDbEntity
  8
0
 62
     0
380
     1
100
AcDbLine
 10
8.328107200542831
 20
3.635466297900961
 30
0.0
 11
9.260638961092695
 21
4.567998058450825
 31
0.0
  0
LINE
  5
143F
330
12D8
100
AcDbEntity
  8
0
 62
     0
380
     1
100
AcDbLine
 10
12.19456415188523
 20
7.950936055296779
 30
0.0
 11
12.64516920369684
 21
8.401541107108386
 31
0.0
  0
LINE
  5
1440
330
12D8
100
AcDbEntity
  8
0
 62
     0
380
     1
100
AcDbLine
 10
10.37110557948063
 20
6.127477482892174
 30
0.0
 11
11.77110557948066
 21
7.527477482892209
 31
0.0
  0
LINE
  5
1441
330
12D8
100
AcDbEntity
  8
0
 62
     0
380
     1
100
AcDbLine
 10
14.92110557948064
 20
10.67747748289216
 30
0.0
 11
15.86862777610142
 21
11.62499967951297
 31
0.0
  0
LINE
  5
1442
330
12D8
100
AcDbEntity
  8
0
 62
     0
380
     1
100
AcDbLine
 10
7.818627776101351
 20
3.574999679512899
 30
0.0
 11
9.321105579480672
 21
5.07747748289222
 31
0.0
  0
LINE
  5
1443
330
12D8
100
AcDbEntity
  8
0
 62
     0
380
     1
100
AcDbLine
 10
10.37110557948063
 20
6.576490288945649
 30
0.0
 11
11.77110557948066
 21
7.976490288945683
 31
0.0
  0
LINE
  5
1444
330
12D8
100
AcDbEntity
  8
0
 62
     0
380
     1
100
AcDbLine
 10
14.92110557948061
 20
11.12649028894563
 30
0.0
 11
15.41961497004791
 21
11.62499967951294
 31
0.0
  0
LINE
  5
1445
330
12D8
100
AcDbEntity
  8
0
 62
     0
380
     1
100
AcDbLine
 10
7.369614970047905
 20
3.574999679512899
 30
0.0
 11
9.321105579480672
 21
5.526490288945694
 31
0.0
  0
LINE
  5
1446
330
12D8
100
AcDbEntity
  8
0
 62
     0
380
     1
100
AcDbLine
 10
10.37110557948063
 20
7.025503094999095
 30
0.0
 11
11.77110557948063
 21
8.425503094999129
 31
0.0
  0
LINE
  5
1447
330
12D8
100
AcDbEntity
  8
0
 62
     0
380
     1
100
AcDbLine
 10
6.920602163994431
 20
3.574999679512927
 30
0.0
 11
9.319135903200077
 21
5.973533418718574
 31
0.0
  0
LINE
  5
1448
330
12D8
100
AcDbEntity
  8
0
 62
     0
380
     1
100
AcDbLine
 10
10.37110557948063
 20
7.474515901052569
 30
0.0
 11
11.77110557948066
 21
8.874515901052603
 31
0.0
  0
LINE
  5
1449
330
12D8
100
AcDbEntity
  8
0
 62
     0
380
     1
100
AcDbLine
 10
13.12158935794102
 20
10.22499967951296
 30
0.0
 11
13.6961055794807
 21
10.79951590105261
 31
0.0
  0
LINE
  5
144A
330
12D8
100
AcDbEntity
  8
0
 62
     0
380
     1
100
AcDbLine
 10
6.471589357940985
 20
3.574999679512927
 30
0.0
 11
9.264304985039416
 21
6.367715306611358
 31
0.0
  0
LINE
  5
144B
330
12D8
100
AcDbEntity
  8
0
 62
     0
380
     1
100
AcDbLine
 10
10.37110557948063
 20
7.923528707106015
 30
0.0
 11
11.77110557948066
 21
9.323528707106021
 31
0.0
  0
LINE
  5
144C
330
12D8
100
AcDbEntity
  8
0
 62
     0
380
     1
100
AcDbLine
 10
7.921105579480666
 20
5.473528707106055
 30
0.0
 11
9.153135613017354
 21
6.705558740642743
 31
0.0
  0
LINE
  5
144D
330
12D8
100
AcDbEntity
  8
0
 62
     0
380
     1
100
AcDbLine
 10
12.67257655188751
 20
10.2249996795129
 30
0.0
 11
13.69610557948067
 21
11.24852870710606
 31
0.0
  0
LINE
  5
144E
330
12D8
100
AcDbEntity
  8
0
 62
     0
380
     1
100
AcDbLine
 10
6.051439489517491
 20
3.60386261714288
 30
0.0
 11
7.422576551887516
 21
4.974999679512905
 31
0.0
  0
LINE
  5
144F
330
12D8
100
AcDbEntity
  8
0
 62
     0
380
     1
100
AcDbLine
 10
10.3711055794806
 20
8.372541513159461
 30
0.0
 11
11.85401293237049
 21
9.855448866049357
 31
0.0
  0
LINE
  5
1450
330
12D8
100
AcDbEntity
  8
0
 62
     0
380
     1
100
AcDbLine
 10
7.920026033676037
 20
5.921461967354872
 30
0.0
 11
8.998919845681342
 21
7.000355779360205
 31
0.0
  0
LINE
  5
1451
330
12D8
100
AcDbEntity
  8
0
 62
     0
380
     1
100
AcDbLine
 10
12.14065639294426
 20
10.14209232662313
 30
0.0
 11
13.57937187202077
 21
11.5808078056996
 31
0.0
  0
LINE
  5
1452
330
12D8
100
AcDbEntity
  8
0
 62
     0
380
     1
100
AcDbLine
 10
5.908605579480621
 20
3.910041513159484
 30
0.0
 11
6.973563745834098
 21
4.974999679512961
 31
0.0
  0
LINE
  5
1453
330
12D8
100
AcDbEntity
  8
0
 62
     0
380
     1
100
AcDbLine
 10
7.810224523925683
 20
6.26067326365802
 30
0.0
 11
8.807798863261893
 21
7.258247602994231
 31
0.0
  0
LINE
  5
1454
330
12D8
100
AcDbEntity
  8
0
 62
     0
380
     1
100
AcDbLine
 10
10.3711055794806
 20
8.821554319212935
 30
0.0
 11
13.17455093978063
 21
11.62499967951297
 31
0.0
  0
LINE
  5
1455
330
12D8
100
AcDbEntity
  8
0
 62
     0
380
     1
100
AcDbLine
 10
5.908605579480621
 20
4.359054319212958
 30
0.0
 11
6.524550939780596
 21
4.974999679512933
 31
0.0
  0
LINE
  5
1456
330
12D8
100
AcDbEntity
  8
0
 62
     0
380
     1
100
AcDbLine
 10
7.597097109773329
 20
6.496558655559084
 30
0.0
 11
8.587046603434515
 21
7.48650814922027
 31
0.0
  0
LINE
  5
1457
330
12D8
100
AcDbEntity
  8
0
 62
     0
380
     1
100
AcDbLine
 10
10.37110557948063
 20
9.270567125266353
 30
0.0
 11
12.7255381337271
 21
11.62499967951285
 31
0.0
  0
LINE
  5
1458
330
12D8
100
AcDbEntity
  8
0
 62
     0
380
     1
100
AcDbLine
 10
5.943081540490538
 20
4.842543086276293
 30
0.0
 11
6.041062172717346
 21
4.940523718503101
 31
0.0
  0
LINE
  5
1459
330
12D8
100
AcDbEntity
  8
0
 62
     0
380
     1
100
AcDbLine
 10
10.38109313655891
 20
9.729567488398117
 30
0.0
 11
12.26653777059542
 21
11.61501212243465
 31
0.0
  0
LINE
  5
145A
330
12D8
100
AcDbEntity
  8
0
 62
     0
380
     1
100
AcDbLine
 10
7.372590706746592
 20
6.721065058585821
 30
0.0
 11
8.362540200407778
 21
7.711014552247007
 31
0.0
  0
LINE
  5
145B
330
12D8
100
AcDbEntity
  8
0
 62
     0
380
     1
100
AcDbLine
 10
10.53082485269181
 20
10.32831201058451
 30
0.0
 11
11.66779324840905
 21
11.46528040630176
 31
0.0
  0
LINE
  5
145C
330
12D8
100
AcDbEntity
  8
0
 62
     0
380
     1
100
AcDbLine
 10
7.148084303719855
 20
6.945571461612559
 30
0.0
 11
8.138033797381041
 21
7.935520955273744
 31
0.0
  0
LINE
  5
145D
330
12D8
100
AcDbEntity
  8
0
 62
     0
380
     1
100
AcDbLine
 10
6.923577900693146
 20
7.170077864639267
 30
0.0
 11
7.913527394354304
 21
8.160027358300396
 31
0.0
  0
LINE
  5
145E
330
12D8
100
AcDbEntity
  8
0
 62
     0
380
     1
100
AcDbLine
 10
6.699071497666409
 20
7.394584267666004
 30
0.0
 11
7.689020991327566
 21
8.384533761327134
 31
0.0
  0
LINE
  5
145F
330
12D8
100
AcDbEntity
  8
0
 62
     0
380
     1
100
AcDbLine
 10
6.474565094639672
 20
7.619090670692742
 30
0.0
 11
7.464514588300829
 21
8.609040164353871
 31
0.0
  0
LINE
  5
1460
330
12D8
100
AcDbEntity
  8
0
 62
     0
380
     1
100
AcDbLine
 10
8.631461297406417
 20
10.22499967951296
 30
0.0
 11
9.058605579480598
 21
10.65214396158714
 31
0.0
  0
LINE
  5
1461
330
12D8
100
AcDbEntity
  8
0
 62
     0
380
     1
100
AcDbLine
 10
6.250100348627
 20
7.843638730733545
 30
0.0
 11
7.240133170343227
 21
8.833671552449771
 31
0.0
  0
LINE
  5
1462
330
12D8
100
AcDbEntity
  8
0
 62
     0
380
     1
100
AcDbLine
 10
8.182448491352943
 20
10.2249996795129
 30
0.0
 11
9.058605579480655
 21
11.10115676764062
 31
0.0
  0
LINE
  5
1463
330
12D8
100
AcDbEntity
  8
0
 62
     0
380
     1
100
AcDbLine
 10
6.044366386351214
 20
8.086917574511147
 30
0.0
 11
7.075184729699259
 21
9.117735917859221
 31
0.0
  0
LINE
  5
1464
330
12D8
100
AcDbEntity
  8
0
 62
     0
380
     1
100
AcDbLine
 10
7.733435685299468
 20
10.2249996795129
 30
0.0
 11
9.015326129600083
 21
11.50689012381352
 31
0.0
  0
LINE
  5
1465
330
12D8
100
AcDbEntity
  8
0
 62
     0
380
     1
100
AcDbLine
 10
5.87413608321998
 20
8.365700077433388
 30
0.0
 11
7.046105579480638
 21
9.537669573694074
 31
0.0
  0
LINE
  5
1466
330
12D8
100
AcDbEntity
  8
0
 62
     0
380
     1
100
AcDbLine
 10
7.283189554660964
 20
10.22376635492785
 30
0.0
 11
8.684422879246056
 21
11.62499967951294
 31
0.0
  0
LINE
  5
1467
330
12D8
100
AcDbEntity
  8
0
 62
     0
380
     1
100
AcDbLine
 10
5.743789435353932
 20
8.684366235620814
 30
0.0
 11
7.047338904065725
 21
9.987915704332635
 31
0.0
  0
LINE
  5
1468
330
12D8
100
AcDbEntity
  8
0
 62
     0
380
     1
100
AcDbLine
 10
5.662883454229898
 20
9.052473060550227
 30
0.0
 11
8.23541007319261
 21
11.62499967951294
 31
0.0
  0
LINE
  5
1469
330
12D8
100
AcDbEntity
  8
0
 62
     0
380
     1
100
AcDbLine
 10
5.646105579480661
 20
9.484707991854435
 30
0.0
 11
7.786397267139136
 21
11.62499967951294
 31
0.0
  0
LINE
  5
146A
330
12D8
100
AcDbEntity
  8
0
 62
     0
380
     1
100
AcDbLine
 10
5.646105579480632
 20
9.933720797907909
 30
0.0
 11
7.33738446108569
 21
11.62499967951294
 31
0.0
  0
LINE
  5
146B
330
12D8
100
AcDbEntity
  8
0
 62
     0
380
     1
100
AcDbLine
 10
5.6562015846998
 20
10.39282960918052
 30
0.0
 11
6.878275649813105
 21
11.61490367429383
 31
0.0
  0
ENDBLK
  5
146D
330
12D8
100
AcDbEntity
  8
0
100
AcDbBlockEnd
  0
BLOCK
  5
156F
330
1565
100
AcDbEntity
  8
0
100
AcDbBlockBegin
  2
*D18
 70
     1
 10
0.0
 20
0.0
 30
0.0
  3
*D18
  1

  0
LINE
  5
15D4
330
1565
100
AcDbEntity
  8
SUNPOU
  6
Continuous
 62
     4
370
    -2
100
AcDbLine
 10
312.6772436287467
 20
133.119927160201
 30
0.0
 11
303.1888313125863
 21
129.3248530891884
 31
0.0
  0
LINE
  5
15D5
330
1565
100
AcDbEntity
  8
SUNPOU
  6
Continuous
 62
     4
370
    -2
100
AcDbLine
 10
320.8473023068133
 20
112.6932150765453
 30
0.0
 11
311.3588899906529
 21
108.8981410055327
 31
0.0
  0
LINE
  5
15D6
330
1565
100
AcDbEntity
  8
SUNPOU
  6
Continuous
 62
     4
370
    -2
100
AcDbLine
 10
305.6956594910397
 20
127.0964427850227
 30
0.0
 11
311.6375213269134
 21
112.2406497307949
 31
0.0
  0
INSERT
  5
15D7
330
1565
100
AcDbEntity
  8
SUNPOU
  6
Continuous
 62
     4
370
    -2
100
AcDbBlockReference
  2
_OPEN
 10
304.5815610699432
 20
129.8819022997366
 30
0.0
 41
3.0
 42
3.0
 43
3.0
 50
111.7998953921598
  0
INSERT
  5
15D8
330
1565
100
AcDbEntity
  8
SUNPOU
  6
Continuous
 62
     4
370
    -2
100
AcDbBlockReference
  2
_OPEN
 10
312.7516197480098
 20
109.4551902160809
 30
0.0
 41
3.0
 42
3.0
 43
3.0
 50
291.7998953921598
  0
MTEXT
  5
15D9
330
1565
100
AcDbEntity
  8
SUNPOU
  6
Continuous
 62
     4
100
AcDbMText
 10
310.9878066712381
 20
120.5969616088224
 30
0.0
 40
3.0
 41
0.0
 71
     5
 72
     1
  1
\A1;22
 11
0.3713661403654715
 21
-0.9284865049046503
 31
0.0
 73
     1
 44
1.0
1001
ACAD
1000
MTEXTBEGIN
1070
    73
1070
     1
1070
    44
1040
1.0
1070
    74
1070
     0
1000
MTEXTEND
  0
POINT
  5
15DA
330
1565
100
AcDbEntity
  8
DEFPOINTS
  6
Continuous
 62
     0
100
AcDbPoint
 10
315.4627031434606
 20
134.2340255812974
 30
0.0
  0
POINT
  5
15DB
330
1565
100
AcDbEntity
  8
DEFPOINTS
  6
Continuous
 62
     0
100
AcDbPoint
 10
323.6327618215272
 20
113.8073134976417
 30
0.0
  0
POINT
  5
15DC
330
1565
100
AcDbEntity
  8
DEFPOINTS
  6
Continuous
 62
     0
100
AcDbPoint
 10
312.7516197480098
 20
109.4551902160809
 30
0.0
  0
ENDBLK
  5
1570
330
1565
100
AcDbEntity
  8
0
100
AcDbBlockEnd
  0
BLOCK
  5
157B
330
1571
100
AcDbEntity
  8
0
100
AcDbBlockBegin
  2
*D19
 70
     1
 10
0.0
 20
0.0
 30
0.0
  3
*D19
  1

  0
LINE
  5
15CB
330
1571
100
AcDbEntity
  8
SUNPOU
  6
Continuous
 62
     4
370
    -2
100
AcDbLine
 10
358.3589760447446
 20
158.9303465873671
 30
0.0
 11
347.8525497149981
 21
185.1984018367788
 31
0.0
  0
LINE
  5
15CC
330
1571
100
AcDbEntity
  8
SUNPOU
  6
Continuous
 62
     4
370
    -2
100
AcDbLine
 10
312.8631533041072
 20
140.7333957511829
 30
0.0
 11
302.3567269743607
 21
167.0014510005946
 31
0.0
  0
LINE
  5
15CD
330
1571
100
AcDbEntity
  8
SUNPOU
  6
Continuous
 62
     4
370
    -2
100
AcDbLine
 10
345.6241401878403
 20
182.6915729676151
 30
0.0
 11
305.6992357859863
 21
166.7228207003666
 31
0.0
  0
INSERT
  5
15CE
330
1571
100
AcDbEntity
  8
SUNPOU
  6
Continuous
 62
     4
370
    -2
100
AcDbBlockReference
  2
_OPEN
 10
348.409599357232
 20
183.8056722520829
 30
0.0
 41
3.0
 42
3.0
 43
3.0
 50
21.79991315136289
  0
INSERT
  5
15CF
330
1571
100
AcDbEntity
  8
SUNPOU
  6
Continuous
 62
     4
370
    -2
100
AcDbBlockReference
  2
_OPEN
 10
302.9137766165947
 20
165.6087214158987
 30
0.0
 41
3.0
 42
3.0
 43
3.0
 50
201.7999131513628
  0
MTEXT
  5
15D0
330
1571
100
AcDbEntity
  8
SUNPOU
  6
Continuous
 62
     4
100
AcDbMText
 10
324.7332719165235
 20
177.0284128084839
 30
0.0
 40
3.0
 41
0.0
 71
     5
 72
     1
  1
\A1;49
 11
0.9284863897972323
 21
0.3713664281559415
 31
0.0
 73
     1
 44
1.0
1001
ACAD
1000
MTEXTBEGIN
1070
    73
1070
     1
1070
    44
1040
1.0
1070
    74
1070
     0
1000
MTEXTEND
  0
POINT
  5
15D1
330
1571
100
AcDbEntity
  8
DEFPOINTS
  6
Continuous
 62
     0
100
AcDbPoint
 10
359.4730753292125
 20
156.1448874179754
 30
0.0
  0
POINT
  5
15D2
330
1571
100
AcDbEntity
  8
DEFPOINTS
  6
Continuous
 62
     0
100
AcDbPoint
 10
313.9772525885751
 20
137.9479365817912
 30
0.0
  0
POINT
  5
15D3
330
1571
100
AcDbEntity
  8
DEFPOINTS
  6
Continuous
 62
     0
100
AcDbPoint
 10
302.9137766165947
 20
165.6087214158987
 30
0.0
  0
ENDBLK
  5
157C
330
1571
100
AcDbEntity
  8
0
100
AcDbBlockEnd
  0
BLOCK
  5
1587
330
157D
100
AcDbEntity
  8
0
100
AcDbBlockBegin
  2
*D20
 70
     1
 10
0.0
 20
0.0
 30
0.0
  3
*D20
  1

  0
LINE
  5
15C2
330
157D
100
AcDbEntity
  8
SUNPOU
  6
Continuous
 62
     4
370
    -2
100
AcDbLine
 10
354.6450624802761
 20
157.4448994213569
 30
0.0
 11
347.7972481773183
 21
174.5657189036812
 31
0.0
  0
LINE
  5
15C3
330
157D
100
AcDbEntity
  8
SUNPOU
  6
Continuous
 62
     4
370
    -2
100
AcDbLine
 10
316.577042645136
 20
142.2188332285859
 30
0.0
 11
309.7292283421782
 21
159.3396527109101
 31
0.0
  0
LINE
  5
15C4
330
157D
100
AcDbEntity
  8
SUNPOU
  6
Continuous
 62
     4
370
    -2
100
AcDbLine
 10
345.5688393029737
 20
172.0588894542088
 30
0.0
 11
313.0717372263629
 21
159.061023281118
 31
0.0
  0
INSERT
  5
15C5
330
157D
100
AcDbEntity
  8
SUNPOU
  6
Continuous
 62
     4
370
    -2
100
AcDbBlockReference
  2
_OPEN
 10
348.3542981822384
 20
173.172989464049
 30
0.0
 41
3.0
 42
3.0
 43
3.0
 50
21.79992807198219
  0
INSERT
  5
15C6
330
157D
100
AcDbEntity
  8
SUNPOU
  6
Continuous
 62
     4
370
    -2
100
AcDbBlockReference
  2
_OPEN
 10
310.2862783470982
 20
157.9469232712779
 30
0.0
 41
3.0
 42
3.0
 43
3.0
 50
201.7999280719822
  0
MTEXT
  5
15C7
330
157D
100
AcDbEntity
  8
SUNPOU
  6
Continuous
 62
     4
100
AcDbMText
 10
328.3918715898015
 20
167.8811721003839
 30
0.0
 40
3.0
 41
0.0
 71
     5
 72
     1
  1
\A1;41
 11
0.9284862930882082
 21
0.3713666699467224
 31
0.0
 73
     1
 44
1.0
1001
ACAD
1000
MTEXTBEGIN
1070
    73
1070
     1
1070
    44
1040
1.0
1070
    74
1070
     0
1000
MTEXTEND
  0
POINT
  5
15C8
330
157D
100
AcDbEntity
  8
DEFPOINTS
  6
Continuous
 62
     0
100
AcDbPoint
 10
355.7591624901163
 20
154.6594405420924
 30
0.0
  0
POINT
  5
15C9
330
157D
100
AcDbEntity
  8
DEFPOINTS
  6
Continuous
 62
     0
100
AcDbPoint
 10
317.6911426549762
 20
139.4333743493213
 30
0.0
  0
POINT
  5
15CA
330
157D
100
AcDbEntity
  8
DEFPOINTS
  6
Continuous
 62
     0
100
AcDbPoint
 10
310.2862783470982
 20
157.9469232712779
 30
0.0
  0
ENDBLK
  5
1588
330
157D
100
AcDbEntity
  8
0
100
AcDbBlockEnd
  0
BLOCK
  5
1593
330
1589
100
AcDbEntity
  8
0
100
AcDbBlockBegin
  2
*D21
 70
     1
 10
0.0
 20
0.0
 30
0.0
  3
*D21
  1

  0
LINE
  5
15B9
330
1589
100
AcDbEntity
  8
SUNPOU
  6
Continuous
 62
     4
370
    -2
100
AcDbLine
 10
311.1917930738612
 20
136.8338381606948
 30
0.0
 11
292.7646681846992
 21
129.4635530655729
 31
0.0
  0
LINE
  5
15BA
330
1589
100
AcDbEntity
  8
SUNPOU
  6
Continuous
 62
     4
370
    -2
100
AcDbLine
 10
322.3327831345376
 20
108.979228388154
 30
0.0
 11
303.9056582453757
 21
101.6089432930321
 31
0.0
  0
LINE
  5
15BB
330
1589
100
AcDbEntity
  8
SUNPOU
  6
Continuous
 62
     4
370
    -2
100
AcDbLine
 10
295.2714963631527
 20
127.2351427614071
 30
0.0
 11
304.1842895816362
 21
104.9514520182942
 31
0.0
  0
INSERT
  5
15BC
330
1589
100
AcDbEntity
  8
SUNPOU
  6
Continuous
 62
     4
370
    -2
100
AcDbBlockReference
  2
_OPEN
 10
294.1573979420563
 20
130.0206022761211
 30
0.0
 41
3.0
 42
3.0
 43
3.0
 50
111.7998953921599
  0
INSERT
  5
15BD
330
1589
100
AcDbEntity
  8
SUNPOU
  6
Continuous
 62
     4
370
    -2
100
AcDbBlockReference
  2
_OPEN
 10
305.2983880027327
 20
102.1659925035803
 30
0.0
 41
3.0
 42
3.0
 43
3.0
 50
291.79989539216
  0
MTEXT
  5
15BE
330
1589
100
AcDbEntity
  8
SUNPOU
  6
Continuous
 62
     4
100
AcDbMText
 10
302.0491092346561
 20
117.0217127407643
 30
0.0
 40
3.0
 41
0.0
 71
     5
 72
     1
  1
\A1;30
 11
0.3713661403654727
 21
-0.9284865049046496
 31
0.0
 73
     1
 44
1.0
1001
ACAD
1000
MTEXTBEGIN
1070
    73
1070
     1
1070
    44
1040
1.0
1070
    74
1070
     0
1000
MTEXTEND
  0
POINT
  5
15BF
330
1589
100
AcDbEntity
  8
DEFPOINTS
  6
Continuous
 62
     0
100
AcDbPoint
 10
313.9772525885752
 20
137.9479365817912
 30
0.0
  0
POINT
  5
15C0
330
1589
100
AcDbEntity
  8
DEFPOINTS
  6
Continuous
 62
     0
100
AcDbPoint
 10
325.1182426492515
 20
110.0933268092504
 30
0.0
  0
POINT
  5
15C1
330
1589
100
AcDbEntity
  8
DEFPOINTS
  6
Continuous
 62
     0
100
AcDbPoint
 10
305.2983880027327
 20
102.1659925035803
 30
0.0
  0
ENDBLK
  5
1594
330
1589
100
AcDbEntity
  8
0
100
AcDbBlockEnd
  0
ENDSEC
  0
SECTION
  2
ENTITIES
  0
POINT
  5
1A1
330
1A
100
AcDbEntity
  8
SUNPOU L
  6
Continuous
100
AcDbPoint
 10
205.9553251990115
 20
146.5650665787896
 30
0.0
  0
POINT
  5
1A2
330
1A
100
AcDbEntity
  8
SUNPOU L
  6
Continuous
100
AcDbPoint
 10
205.4553267650655
 20
145.6990402718312
 30
0.0
  0
LINE
  5
4B5
330
1A
100
AcDbEntity
  8
SEIHIN
  6
Continuous
 62
     3
 48
16.0
100
AcDbLine
 10
215.2979935857434
 20
197.5233893682946
 30
0.0
 11
225.3978935857432
 21
197.5233893682946
 31
0.0
  0
LINE
  5
4B6
330
1A
100
AcDbEntity
  8
SEIHIN
  6
Continuous
 62
     3
 48
16.0
100
AcDbLine
 10
215.2979935857434
 20
215.5233893682948
 30
0.0
 11
225.3978935857432
 21
215.5233893682948
 31
0.0
  0
LINE
  5
4B7
330
1A
100
AcDbEntity
  8
SEIHIN
  6
Continuous
 62
     3
 48
16.0
100
AcDbLine
 10
220.6980935857432
 20
200.0233893682946
 30
0.0
 11
226.1978935857432
 21
200.0233893682946
 31
0.0
  0
LINE
  5
4B8
330
1A
100
AcDbEntity
  8
SEIHIN
  6
Continuous
 62
     3
 48
16.0
100
AcDbLine
 10
220.6980935857432
 20
213.0233893682948
 30
0.0
 11
226.1978935857432
 21
213.0233893682948
 31
0.0
  0
LINE
  5
4B9
330
1A
100
AcDbEntity
  8
NOKITOI
  6
PHANTOM
 62
     8
 48
5.0
100
AcDbLine
 10
225.7977935858037
 20
126.523295402695
 30
0.0
 11
220.8993935858037
 21
126.523295402695
 31
0.0
  0
LINE
  5
4BA
330
1A
100
AcDbEntity
  8
SEIHIN
  6
Continuous
 62
     3
 48
16.0
100
AcDbLine
 10
224.3318935858036
 20
128.9162954026952
 30
0.0
 11
219.3532935858037
 21
127.5822954026952
 31
0.0
  0
LINE
  5
4BB
330
1A
100
AcDbEntity
  8
SEIHIN
  6
Continuous
 62
     3
 48
16.0
100
AcDbLine
 10
224.5389935858037
 20
128.1435954026952
 30
0.0
 11
219.5602935858037
 21
126.8095954026951
 31
0.0
  0
LINE
  5
4BC
330
1A
100
AcDbEntity
  8
SEIHIN
  6
Continuous
 62
     3
 48
16.0
100
AcDbLine
 10
225.1056935858036
 20
128.1289954026952
 30
0.0
 11
219.7309935858037
 21
126.1727954026952
 31
0.0
  0
ARC
  5
4BD
330
1A
100
AcDbEntity
  8
SEIHIN
  6
Continuous
 62
     3
 48
16.0
100
AcDbCircle
 10
232.782417952381
 20
106.2234152987349
 30
0.0
 40
9.999980103989997
100
AcDbArc
 50
90.00013961048258
 51
168.4654731291964
  0
LINE
  5
4BE
330
1A
100
AcDbEntity
  8
NOKITOI
  6
PHANTOM
 62
     8
 48
5.0
100
AcDbLine
 10
225.7977935858037
 20
119.523295402695
 30
0.0
 11
220.6977935858037
 21
119.523295402695
 31
0.0
  0
LINE
  5
4BF
330
1A
100
AcDbEntity
  8
NOKITOI
  6
PHANTOM
 62
     8
 48
5.0
100
AcDbLine
 10
220.9426935858037
 20
120.7232954026951
 30
0.0
 11
224.5977935858036
 21
120.7232954026951
 31
0.0
  0
LINE
  5
4C0
330
1A
100
AcDbEntity
  8
SEIHIN
  6
Continuous
 62
     3
 48
16.0
100
AcDbLine
 10
225.5977935858037
 20
117.2233954026951
 30
0.0
 11
221.4531935858037
 21
117.2233954026951
 31
0.0
  0
LINE
  5
4C1
330
1A
100
AcDbEntity
  8
SEIHIN
  6
Continuous
 62
     3
 48
16.0
100
AcDbLine
 10
220.7998935858035
 20
118.0234954026952
 30
0.0
 11
225.2977935858037
 21
118.0234954026952
 31
0.0
  0
LINE
  5
4C2
330
1A
100
AcDbEntity
  8
NOKITOI
  6
PHANTOM
 62
     8
 48
5.0
100
AcDbLine
 10
221.8814935858036
 20
125.323295402695
 30
0.0
 11
224.5977935858036
 21
125.323295402695
 31
0.0
  0
LINE
  5
4C3
330
1A
100
AcDbEntity
  8
SEIHIN
  6
Continuous
 62
     3
 48
16.0
100
AcDbLine
 10
216.2293935858037
 20
75.12369540269523
 30
0.0
 11
222.9842935858037
 21
108.2229954026952
 31
0.0
  0
LINE
  5
4C4
330
1A
100
AcDbEntity
  8
SEIHIN
  6
Continuous
 62
     3
 48
16.0
100
AcDbLine
 10
220.6384935858036
 20
74.22389540269515
 30
0.0
 11
227.3933935858035
 21
107.3231954026952
 31
0.0
  0
LINE
  5
4C5
330
1A
100
AcDbEntity
  8
SEIHIN
  6
Continuous
 62
     3
 48
16.0
100
AcDbLine
 10
219.0179935858037
 20
93.78879540269513
 30
0.0
 11
223.8004935858036
 21
117.2233954026951
 31
0.0
  0
DIMENSION
  5
4C6
330
1A
100
AcDbEntity
  8
SUNPOU
  6
Continuous
100
AcDbDimension
  2
*D1
 10
139.9978935858036
 20
156.6685338362207
 30
0.0
 11
193.097874982313
 21
159.1685338362207
 31
0.0
 70
    32
 71
     5
 42
-1.0
  3
STANDARD
100
AcDbAlignedDimension
 13
246.1978563788225
 23
116.2233954026952
 33
0.0
 14
139.9978935858036
 24
146.1233954026951
 34
0.0
100
AcDbRotatedDimension
1001
ACAD
1000
DSTYLE
1002
{
1070
   140
1040
3.0
1070
    74
1070
     0
1070
   172
1070
     1
1070
    73
1070
     0
1070
   272
1070
     2
1070
    77
1070
     3
1070
   173
1070
     1
1070
   147
1040
1.0
1070
    42
1040
3.0
1070
    44
1040
1.5
1070
    43
1040
7.0
1070
   271
1070
     0
1070
   178
1070
     4
1070
   177
1070
     4
1070
   176
1070
     4
1070
   141
1040
150.0
1070
     7
1000
_OPEN
1070
     6
1000
_OPEN
1070
    41
1040
3.0
1002
}
  0
LINE
  5
4C7
330
1A
100
AcDbEntity
  8
CENTER L
  6
CENTER
 62
     1
 48
5.0
100
AcDbLine
 10
132.5977935857433
 20
206.5234965956828
 30
0.0
 11
265.8956935786346
 21
206.5233692925722
 31
0.0
  0
DIMENSION
  5
4C8
330
1A
100
AcDbEntity
  8
SUNPOU
100
AcDbDimension
  2
*D2
 10
121.0578387084931
 20
86.52349540269524
 30
0.0
 11
118.5578387084931
 21
116.3234454026952
 31
0.0
 70
    32
 71
     5
 42
-1.0
  3
STANDARD
100
AcDbAlignedDimension
 13
139.9978935858036
 23
146.1233954026951
 33
0.0
 14
158.3689935858037
 24
86.52349540269524
 34
0.0
 50
90.0
100
AcDbRotatedDimension
1001
ACAD
1000
DSTYLE
1002
{
1070
   140
1040
3.0
1070
    74
1070
     0
1070
   172
1070
     1
1070
    73
1070
     0
1070
   272
1070
     2
1070
    77
1070
     3
1070
   173
1070
     1
1070
   147
1040
1.0
1070
    42
1040
3.0
1070
    44
1040
1.5
1070
    43
1040
7.0
1070
   271
1070
     0
1070
   178
1070
     4
1070
   177
1070
     4
1070
   176
1070
     4
1070
   141
1040
150.0
1070
     7
1000
_OPEN
1070
     6
1000
_OPEN
1070
    41
1040
3.0
1002
}
  0
LINE
  5
4C9
330
1A
100
AcDbEntity
  8
SEIHIN
  6
Continuous
 62
     3
 48
16.0
100
AcDbLine
 10
140.7978935858036
 20
118.5234954026951
 30
0.0
 11
140.7978935858036
 21
146.1234954026952
 31
0.0
  0
LINE
  5
4CA
330
1A
100
AcDbEntity
  8
SEIHIN
  6
Continuous
 62
     3
 48
16.0
100
AcDbLine
 10
139.9978935858036
 20
118.2234954026951
 30
0.0
 11
139.9978935858036
 21
146.1233954026951
 31
0.0
  0
LINE
  5
4CB
330
1A
100
AcDbEntity
  8
SEIHIN
  6
Continuous
 62
     3
 48
16.0
100
AcDbLine
 10
85.11592357591579
 20
129.0235954026951
 30
0.0
 11
85.11592357591579
 21
145.0235954026951
 31
0.0
  0
LINE
  5
4CC
330
1A
100
AcDbEntity
  8
SEIHIN
  6
Continuous
 62
     3
 48
16.0
100
AcDbLine
 10
72.11592357591569
 20
129.0235954026951
 30
0.0
 11
72.11602357591577
 21
145.0235954026951
 31
0.0
  0
LINE
  5
4CD
330
1A
100
AcDbEntity
  8
SEIHIN
  6
Continuous
 62
     3
 48
16.0
100
AcDbLine
 10
88.61592357591574
 20
146.0235954026951
 30
0.0
 11
88.61592357591574
 21
117.2235954026952
 31
0.0
  0
LINE
  5
4CE
330
1A
100
AcDbEntity
  8
SEIHIN
  6
Continuous
 62
     3
 48
16.0
100
AcDbLine
 10
68.6159235759158
 20
146.0235954026951
 30
0.0
 11
68.6159235759158
 21
117.2235954026952
 31
0.0
  0
LINE
  5
4CF
330
1A
100
AcDbEntity
  8
CENTER L
  6
CENTER
 62
     1
 48
5.0
100
AcDbLine
 10
78.61591584014002
 20
60.57002088052726
 30
0.0
 11
78.61604105900635
 21
152.0810954026952
 31
0.0
  0
LINE
  5
4D0
330
1A
100
AcDbEntity
  8
SEIHIN
  6
Continuous
 62
     3
 48
16.0
100
AcDbLine
 10
102.1159410590062
 20
111.5811954026952
 30
0.0
 11
87.61604105900635
 21
111.5811954026952
 31
0.0
  0
LINE
  5
4D1
330
1A
100
AcDbEntity
  8
SEIHIN
  6
Continuous
 62
     3
 48
16.0
100
AcDbLine
 10
102.1159410590062
 20
111.1354954026952
 30
0.0
 11
87.61604105900635
 21
111.1355954026952
 31
0.0
  0
LINE
  5
4D2
330
1A
100
AcDbEntity
  8
SEIHIN
  6
Continuous
 62
     3
 48
16.0
100
AcDbLine
 10
102.1159410590062
 20
83.28099540269525
 30
0.0
 11
87.61594105900625
 21
83.28099540269525
 31
0.0
  0
LINE
  5
4D3
330
1A
100
AcDbEntity
  8
SEIHIN
  6
Continuous
 62
     3
 48
16.0
100
AcDbLine
 10
87.61592357591579
 20
93.10629540269516
 30
0.0
 11
87.61592357591579
 21
117.2235954026952
 31
0.0
  0
LINE
  5
4D4
330
1A
100
AcDbEntity
  8
SEIHIN
  6
Continuous
 62
     3
 48
16.0
100
AcDbLine
 10
85.11592357591579
 20
117.2235954026952
 30
0.0
 11
85.11592357591579
 21
85.72359540269516
 31
0.0
  0
LINE
  5
4D5
330
1A
100
AcDbEntity
  8
SEIHIN
  6
Continuous
 62
     3
 48
16.0
100
AcDbLine
 10
69.61594701305866
 20
93.10629540269516
 30
0.0
 11
69.61602357591577
 21
117.2235954026952
 31
0.0
  0
LINE
  5
4D6
330
1A
100
AcDbEntity
  8
SEIHIN
  6
Continuous
 62
     3
 48
16.0
100
AcDbLine
 10
72.11592357591569
 20
117.2235954026952
 30
0.0
 11
72.11592357591569
 21
85.72359540269516
 31
0.0
  0
LINE
  5
4D7
330
1A
100
AcDbEntity
  8
SEIHIN
  6
Continuous
 62
     3
 48
16.0
100
AcDbLine
 10
76.6159235759158
 20
85.72359540269516
 30
0.0
 11
76.6159235759158
 21
117.2235954026952
 31
0.0
  0
LINE
  5
4D8
330
1A
100
AcDbEntity
  8
SEIHIN
  6
Continuous
 62
     3
 48
16.0
100
AcDbLine
 10
80.61592357591575
 20
85.72359540269516
 30
0.0
 11
80.61592357591575
 21
117.2235954026952
 31
0.0
  0
LINE
  5
4D9
330
1A
100
AcDbEntity
  8
SEIHIN
  6
Continuous
 62
     3
 48
16.0
100
AcDbLine
 10
54.11594105900637
 20
84.28099540269526
 30
0.0
 11
54.11594105900637
 21
110.5811954026951
 31
0.0
  0
LINE
  5
4DA
330
1A
100
AcDbEntity
  8
CENTER L
  6
CENTER
 62
     1
 48
5.0
100
AcDbLine
 10
55.11717014631954
 20
86.99475436105982
 30
0.0
 11
60.96573229988813
 21
86.99473835533977
 31
0.0
  0
LINE
  5
4DD
330
1A
100
AcDbEntity
  8
SEIHIN
  6
Continuous
 62
     3
 48
16.0
100
AcDbLine
 10
55.11594105900638
 20
83.28099540269525
 30
0.0
 11
69.61594105900637
 21
83.28099540269525
 31
0.0
  0
LINE
  5
4DE
330
1A
100
AcDbEntity
  8
CENTER L
  6
CENTER
 62
     1
 48
5.0
100
AcDbLine
 10
58.11595385019431
 20
83.67418105710257
 30
0.0
 11
58.11597027035337
 21
89.67418105708006
 31
0.0
  0
ARC
  5
4DF
330
1A
100
AcDbEntity
  8
SEIHIN
  6
Continuous
 62
     3
 48
16.0
100
AcDbCircle
 10
55.11594105900638
 20
84.28099540269526
 30
0.0
 40
1.0
100
AcDbArc
 50
180.0
 51
270.0
  0
LINE
  5
4E0
330
1A
100
AcDbEntity
  8
SEIHIN
  6
Continuous
 62
     3
 48
16.0
100
AcDbLine
 10
87.11598061771125
 20
68.22337130572896
 30
0.0
 11
87.11616566295926
 21
83.58175679405738
 31
0.0
  0
LINE
  5
4E1
330
1A
100
AcDbEntity
  8
SEIHIN
  6
Continuous
 62
     3
 48
16.0
100
AcDbLine
 10
70.11589876148298
 20
68.22339540269516
 30
0.0
 11
70.11589876148299
 21
83.58171194464281
 31
0.0
  0
LINE
  5
4E2
330
1A
100
AcDbEntity
  8
SEIHIN
  6
Continuous
100
AcDbLine
 10
85.1159806178564
 20
66.22339540269516
 30
0.0
 11
72.11589876148298
 21
66.22339540269516
 31
0.0
  0
ARC
  5
4E3
330
1A
100
AcDbEntity
  8
SEIHIN
  6
Continuous
100
AcDbCircle
 10
72.11589876148298
 20
68.22339540269516
 30
0.0
 40
2.0
100
AcDbArc
 50
179.9999999999999
 51
270.0
  0
ARC
  5
4E4
330
1A
100
AcDbEntity
  8
SEIHIN
  6
Continuous
100
AcDbCircle
 10
85.1159806178564
 20
68.22339540269516
 30
0.0
 40
2.0
100
AcDbArc
 50
270.0
 51
359.9993096727688
  0
ARC
  5
4E5
330
1A
100
AcDbEntity
  8
SEIHIN
  6
Continuous
100
AcDbCircle
 10
74.36592357591571
 20
95.1375454026955
 30
0.0
 40
3.031250000000258
100
AcDbArc
 50
222.0750220508483
 51
317.9249779491518
  0
ARC
  5
4E6
330
1A
100
AcDbEntity
  8
SEIHIN
  6
Continuous
 62
     3
 48
16.0
100
AcDbCircle
 10
74.36592357591575
 20
85.31069540269513
 30
0.0
 40
2.287572164981949
100
AcDbArc
 50
169.6012878060621
 51
10.39871219393786
  0
LINE
  5
4E7
330
1A
100
AcDbEntity
  8
SEIHIN
  6
Continuous
 62
     3
 48
16.0
100
AcDbLine
 10
78.61592357591574
 20
81.82334706491062
 30
0.0
 11
72.11582357591584
 21
81.82334706491062
 31
0.0
  0
LINE
  5
4E8
330
1A
100
AcDbEntity
  8
SEIHIN
  6
Continuous
 62
     3
 48
16.0
100
AcDbLine
 10
78.61592357591574
 20
83.02359540269511
 30
0.0
 11
74.36592357591575
 21
83.02309540269508
 31
0.0
  0
LINE
  5
4E9
330
1A
100
AcDbEntity
  8
SEIHIN
  6
Continuous
 62
     3
 48
16.0
100
AcDbLine
 10
78.61592357591574
 20
80.82334706491051
 30
0.0
 11
74.61592357591574
 21
80.82334706491051
 31
0.0
  0
LINE
  5
4EA
330
1A
100
AcDbEntity
  8
SEIHIN
  6
Continuous
100
AcDbLine
 10
85.11592357591579
 20
81.82334706491062
 30
0.0
 11
72.11582357591584
 21
81.82334706491062
 31
0.0
  0
LINE
  5
4EB
330
1A
100
AcDbEntity
  8
SEIHIN
  6
Continuous
100
AcDbLine
 10
84.91592357591581
 20
83.02352061257099
 30
0.0
 11
72.31582357591583
 21
83.02352061257099
 31
0.0
  0
ARC
  5
4EC
330
1A
100
AcDbEntity
  8
SEIHIN
  6
Continuous
100
AcDbCircle
 10
50.62558582763521
 20
89.41500568951884
 30
0.0
 40
19.34578604501347
100
AcDbArc
 50
348.9998181086365
 51
10.99981810863648
  0
LINE
  5
4ED
330
1A
100
AcDbEntity
  8
SEIHIN
  6
Continuous
 62
     3
 48
16.0
100
AcDbLine
 10
67.65264105900637
 20
86.93689540269522
 30
0.0
 11
70.11594105900638
 21
85.29469540269516
 31
0.0
  0
LINE
  5
4EE
330
1A
100
AcDbEntity
  8
SEIHIN
  6
Continuous
 62
     3
 48
16.0
100
AcDbLine
 10
72.11592357591569
 20
85.72359540269516
 30
0.0
 11
69.6159235759158
 21
85.72359540269516
 31
0.0
  0
ARC
  5
4EF
330
1A
100
AcDbEntity
  8
SEIHIN
  6
Continuous
100
AcDbCircle
 10
72.11582357591584
 20
83.82334706491063
 30
0.0
 40
2.0
100
AcDbArc
 50
180.0
 51
270.0
  0
LINE
  5
4F0
330
1A
100
AcDbEntity
  8
SEIHIN
  6
Continuous
 62
     3
 48
16.0
100
AcDbLine
 10
70.11582357591584
 20
83.82334706491063
 30
0.0
 11
70.11582357591582
 21
85.72359540269516
 31
0.0
  0
LINE
  5
4F1
330
1A
100
AcDbEntity
  8
SEIHIN
  6
Continuous
 62
     3
 48
16.0
100
AcDbLine
 10
74.61592357591574
 20
80.82334706491051
 30
0.0
 11
74.61592357591574
 21
81.82334706491062
 31
0.0
  0
ARC
  5
4F2
330
1A
100
AcDbEntity
  8
SEIHIN
  6
Continuous
 48
16.0
100
AcDbCircle
 10
72.31582357591583
 20
84.02352061257099
 30
0.0
 40
1.0
100
AcDbArc
 50
180.0
 51
270.0
  0
LINE
  5
4F3
330
1A
100
AcDbEntity
  8
SEIHIN
  6
Continuous
 62
     3
 48
16.0
100
AcDbLine
 10
71.31582357591582
 20
84.02352061257099
 30
0.0
 11
71.31582357591582
 21
85.72359540269516
 31
0.0
  0
LINE
  5
4F4
330
1A
100
AcDbEntity
  8
SEIHIN
  6
Continuous
 62
     3
 48
16.0
100
AcDbLine
 10
67.65264105900637
 20
86.93689540269522
 30
0.0
 11
69.61594105900637
 21
88.24579540269523
 31
0.0
  0
LINE
  5
4F5
330
1A
100
AcDbEntity
  8
SEIHIN
  6
Continuous
 62
     3
 48
16.0
100
AcDbLine
 10
69.6159235759158
 20
93.10629540269516
 30
0.0
 11
72.11592357591569
 21
93.10629540269516
 31
0.0
  0
LINE
  5
4F6
330
1A
100
AcDbEntity
  8
SEIHIN
  6
Continuous
 62
     3
 48
16.0
100
AcDbLine
 10
89.57934105900635
 20
86.93689540269522
 30
0.0
 11
87.11594105900637
 21
85.29469540269516
 31
0.0
  0
ARC
  5
4F7
330
1A
100
AcDbEntity
  8
SEIHIN
  6
Continuous
100
AcDbCircle
 10
106.6062730427678
 20
89.41494540269516
 30
0.0
 40
19.34578604491599
100
AcDbArc
 50
169.0
 51
191.0
  0
ARC
  5
4F8
330
1A
100
AcDbEntity
  8
SEIHIN
  6
Continuous
 62
     3
 48
16.0
100
AcDbCircle
 10
82.8659235759158
 20
85.31059540269515
 30
0.0
 40
2.287590216800233
100
AcDbArc
 50
169.5988243086145
 51
10.40117569138549
  0
LINE
  5
4F9
330
1A
100
AcDbEntity
  8
SEIHIN
  6
Continuous
 62
     3
 48
16.0
100
AcDbLine
 10
78.61592357591574
 20
81.82334706491062
 30
0.0
 11
85.11592357591579
 21
81.82334706491056
 31
0.0
  0
LINE
  5
4FA
330
1A
100
AcDbEntity
  8
SEIHIN
  6
Continuous
 62
     3
 48
16.0
100
AcDbLine
 10
78.61592357591574
 20
85.72359540269516
 30
0.0
 11
80.61592357591575
 21
85.72359540269516
 31
0.0
  0
LINE
  5
4FB
330
1A
100
AcDbEntity
  8
SEIHIN
  6
Continuous
 62
     3
 48
16.0
100
AcDbLine
 10
78.61592357591574
 20
80.82334706491051
 30
0.0
 11
82.61592357591592
 21
80.82334706491051
 31
0.0
  0
LINE
  5
4FC
330
1A
100
AcDbEntity
  8
SEIHIN
  6
Continuous
 62
     3
 48
16.0
100
AcDbLine
 10
78.61592357591574
 20
83.02359540269511
 30
0.0
 11
82.8659235759158
 21
83.02309540269508
 31
0.0
  0
LINE
  5
4FD
330
1A
100
AcDbEntity
  8
SEIHIN
  6
Continuous
 62
     3
 48
16.0
100
AcDbLine
 10
78.61592357591574
 20
85.72359540269516
 30
0.0
 11
76.6159235759158
 21
85.72359540269516
 31
0.0
  0
LINE
  5
4FE
330
1A
100
AcDbEntity
  8
SEIHIN
  6
Continuous
 62
     3
 48
16.0
100
AcDbLine
 10
82.61592357591592
 20
80.82334706491051
 30
0.0
 11
82.61592357591592
 21
81.82334706491062
 31
0.0
  0
LINE
  5
4FF
330
1A
100
AcDbEntity
  8
SEIHIN
  6
Continuous
 62
     3
 48
16.0
100
AcDbLine
 10
85.11592357591579
 20
85.72359540269516
 30
0.0
 11
87.61592357591579
 21
85.72359540269516
 31
0.0
  0
ARC
  5
500
330
1A
100
AcDbEntity
  8
SEIHIN
  6
Continuous
100
AcDbCircle
 10
85.11592357591579
 20
83.82334706491063
 30
0.0
 40
2.0
100
AcDbArc
 50
270.0
 51
0.0
  0
ARC
  5
501
330
1A
100
AcDbEntity
  8
SEIHIN
  6
Continuous
100
AcDbCircle
 10
84.91592357591581
 20
84.02352061257099
 30
0.0
 40
1.0
100
AcDbArc
 50
270.0
 51
0.0
  0
LINE
  5
502
330
1A
100
AcDbEntity
  8
SEIHIN
  6
Continuous
 62
     3
 48
16.0
100
AcDbLine
 10
85.91592357591581
 20
84.02352061257099
 30
0.0
 11
85.91592357591579
 21
85.72359540269516
 31
0.0
  0
LINE
  5
503
330
1A
100
AcDbEntity
  8
SEIHIN
  6
Continuous
 62
     3
 48
16.0
100
AcDbLine
 10
87.1159235759158
 20
83.82334706491063
 30
0.0
 11
87.1159235759158
 21
85.72359540269516
 31
0.0
  0
ARC
  5
504
330
1A
100
AcDbEntity
  8
SEIHIN
  6
Continuous
100
AcDbCircle
 10
82.86592357591578
 20
95.1375454026955
 30
0.0
 40
3.031250000000258
100
AcDbArc
 50
222.0750220508482
 51
317.9249779491517
  0
LINE
  5
505
330
1A
100
AcDbEntity
  8
SEIHIN
  6
Continuous
 62
     3
 48
16.0
100
AcDbLine
 10
80.61592357591575
 20
93.10629540269516
 30
0.0
 11
78.61592357591574
 21
93.10629540269516
 31
0.0
  0
LINE
  5
506
330
1A
100
AcDbEntity
  8
SEIHIN
  6
Continuous
 62
     3
 48
16.0
100
AcDbLine
 10
76.6159235759158
 20
93.10629540269516
 30
0.0
 11
78.61592357591574
 21
93.10629540269516
 31
0.0
  0
LINE
  5
507
330
1A
100
AcDbEntity
  8
SEIHIN
  6
Continuous
 62
     3
 48
16.0
100
AcDbLine
 10
89.57934105900635
 20
86.93689540269522
 30
0.0
 11
87.61594105900625
 21
88.24579540269523
 31
0.0
  0
LINE
  5
508
330
1A
100
AcDbEntity
  8
SEIHIN
  6
Continuous
 62
     3
 48
16.0
100
AcDbLine
 10
87.61592357591579
 20
93.10629540269516
 30
0.0
 11
85.11592357591579
 21
93.10629540269516
 31
0.0
  0
LINE
  5
509
330
1A
100
AcDbEntity
  8
CENTER L
  6
CENTER
 62
     1
 48
5.0
100
AcDbLine
 10
55.11722604786983
 20
107.4214324253584
 30
0.0
 11
60.96578820143848
 21
107.4214164196383
 31
0.0
  0
LINE
  5
50C
330
1A
100
AcDbEntity
  8
SEIHIN
  6
Continuous
 62
     3
 48
16.0
100
AcDbLine
 10
55.11594105900638
 20
111.5811954026952
 30
0.0
 11
69.61594105900637
 21
111.5811954026952
 31
0.0
  0
LINE
  5
50D
330
1A
100
AcDbEntity
  8
SEIHIN
  6
Continuous
 62
     3
 48
16.0
100
AcDbLine
 10
55.11594105900638
 20
111.1354954026952
 30
0.0
 11
69.61594105900637
 21
111.1355954026952
 31
0.0
  0
LINE
  5
50E
330
1A
100
AcDbEntity
  8
CENTER L
  6
CENTER
 62
     1
 48
5.0
100
AcDbLine
 10
58.11601001189607
 20
104.195919611017
 30
0.0
 11
58.11602643205514
 21
110.1959196109945
 31
0.0
  0
ARC
  5
50F
330
1A
100
AcDbEntity
  8
SEIHIN
  6
Continuous
 62
     3
 48
16.0
100
AcDbCircle
 10
55.11594105900638
 20
110.1354954026952
 30
0.0
 40
1.0
100
AcDbArc
 50
90.0
 51
180.0
  0
ARC
  5
510
330
1A
100
AcDbEntity
  8
SEIHIN
  6
Continuous
 62
     3
 48
16.0
100
AcDbCircle
 10
55.11594105900638
 20
110.5811954026951
 30
0.0
 40
1.000000000000042
100
AcDbArc
 50
90.00000000000245
 51
180.0000000000024
  0
ARC
  5
511
330
1A
100
AcDbEntity
  8
SEIHIN
  6
Continuous
 62
     3
 48
16.0
100
AcDbCircle
 10
84.35273314553306
 20
120.2553818119434
 30
0.0
 40
0.8000212278168758
100
AcDbArc
 50
345.7456736522073
 51
84.55670800694489
  0
LINE
  5
512
330
1A
100
AcDbEntity
  8
SEIHIN
  6
Continuous
 62
     3
 48
16.0
100
AcDbLine
 10
84.03752357591582
 20
119.5201954026951
 30
0.0
 11
81.0973235759158
 21
120.7806954026951
 31
0.0
  0
ARC
  5
513
330
1A
100
AcDbEntity
  8
SEIHIN
  6
Continuous
 62
     3
 48
16.0
100
AcDbCircle
 10
72.87911041152561
 20
120.2553767091248
 30
0.0
 40
0.8000164872799842
100
AcDbArc
 50
95.43587150629416
 51
194.2540355357124
  0
LINE
  5
514
330
1A
100
AcDbEntity
  8
SEIHIN
  6
Continuous
 62
     3
 48
16.0
100
AcDbLine
 10
73.19432357591579
 20
119.5201954026951
 30
0.0
 11
76.1345235759158
 21
120.7806954026951
 31
0.0
  0
LINE
  5
515
330
1A
100
AcDbEntity
  8
SEIHIN
  6
Continuous
 62
     3
 48
16.0
100
AcDbLine
 10
78.61592357591574
 20
117.2235954026952
 30
0.0
 11
68.6159235759158
 21
117.2235954026952
 31
0.0
  0
LINE
  5
516
330
1A
100
AcDbEntity
  8
SEIHIN
  6
Continuous
 62
     3
 48
16.0
100
AcDbLine
 10
69.61594105900637
 20
108.7923954026952
 30
0.0
 11
67.65264105900637
 21
107.4834954026952
 31
0.0
  0
LINE
  5
517
330
1A
100
AcDbEntity
  8
SEIHIN
  6
Continuous
 62
     3
 48
16.0
100
AcDbLine
 10
67.65264105900637
 20
107.4834954026952
 30
0.0
 11
69.61594105900637
 21
106.1746954026952
 31
0.0
  0
LINE
  5
518
330
1A
100
AcDbEntity
  8
SEIHIN
  6
Continuous
 62
     3
 48
16.0
100
AcDbLine
 10
69.6159235759158
 20
113.2237954026951
 30
0.0
 11
69.6159235759158
 21
117.2235954026952
 31
0.0
  0
ARC
  5
519
330
1A
100
AcDbEntity
  8
SEIHIN
  6
Continuous
 62
     3
 48
16.0
100
AcDbCircle
 10
72.87905571168902
 20
120.255428898188
 30
0.0
 40
0.7999763240926829
100
AcDbArc
 50
194.2586229597526
 51
293.2096365854149
  0
LINE
  5
51A
330
1A
100
AcDbEntity
  8
SEIHIN
  6
Continuous
 62
     3
 48
16.0
100
AcDbLine
 10
89.57934105900635
 20
107.4834954026952
 30
0.0
 11
87.61604105900635
 21
106.1745954026951
 31
0.0
  0
LINE
  5
51B
330
1A
100
AcDbEntity
  8
SEIHIN
  6
Continuous
 62
     3
 48
16.0
100
AcDbLine
 10
87.61604105900635
 20
108.7923954026952
 30
0.0
 11
89.57934105900635
 21
107.4834954026952
 31
0.0
  0
LINE
  5
51C
330
1A
100
AcDbEntity
  8
SEIHIN
  6
Continuous
 62
     3
 48
16.0
100
AcDbLine
 10
78.61592357591574
 20
117.2235954026952
 30
0.0
 11
88.61592357591574
 21
117.2235954026952
 31
0.0
  0
ARC
  5
51D
330
1A
100
AcDbEntity
  8
SEIHIN
  6
Continuous
 62
     3
 48
16.0
100
AcDbCircle
 10
84.35279144014257
 20
120.255428898188
 30
0.0
 40
0.7999763240926832
100
AcDbArc
 50
246.7903634145851
 51
345.7413770402474
  0
LINE
  5
51E
330
1A
100
AcDbEntity
  8
SEIHIN
  6
Continuous
 62
     3
 48
16.0
100
AcDbLine
 10
78.61602357591578
 20
127.0235954026951
 30
0.0
 11
74.11592357591574
 21
127.0235954026951
 31
0.0
  0
LINE
  5
51F
330
1A
100
AcDbEntity
  8
SEIHIN
  6
Continuous
 62
     3
 48
16.0
100
AcDbLine
 10
85.11592357591579
 20
129.5235954026951
 30
0.0
 11
72.11592357591569
 21
129.5235954026951
 31
0.0
  0
LINE
  5
520
330
1A
100
AcDbEntity
  8
SEIHIN
  6
Continuous
100
AcDbLine
 10
84.50252168279456
 20
127.582295402695
 30
0.0
 11
72.72932546903695
 21
127.582295402695
 31
0.0
  0
LINE
  5
521
330
1A
100
AcDbEntity
  8
SEIHIN
  6
Continuous
 62
     3
 48
16.0
100
AcDbLine
 10
73.25282357591577
 20
125.7291954026951
 30
0.0
 11
76.31502357591573
 21
123.7098954026951
 31
0.0
  0
LINE
  5
522
330
1A
100
AcDbEntity
  8
SEIHIN
  6
Continuous
 62
     3
 48
16.0
100
AcDbLine
 10
72.56682357591585
 20
124.2999954026951
 30
0.0
 11
76.05772357591574
 21
123.1738954026951
 31
0.0
  0
LINE
  5
523
330
1A
100
AcDbEntity
  8
SEIHIN
  6
Continuous
 62
     3
 48
16.0
100
AcDbLine
 10
72.80332357591582
 20
121.0517954026951
 30
0.0
 11
75.98792357591581
 21
121.3550954026952
 31
0.0
  0
ARC
  5
524
330
1A
100
AcDbEntity
  8
SEIHIN
  6
Continuous
 62
     3
 48
16.0
100
AcDbCircle
 10
72.81236984930682
 20
125.0613844266536
 30
0.0
 40
0.7999818654227617
100
AcDbArc
 50
56.59321228744
 51
146.4938675945977
  0
ARC
  5
525
330
1A
100
AcDbEntity
  8
SEIHIN
  6
Continuous
 62
     3
 48
16.0
100
AcDbCircle
 10
72.81242569658234
 20
125.0613893502105
 30
0.0
 40
0.8000257152047899
100
AcDbArc
 50
146.4963695173485
 51
252.1219052572798
  0
ARC
  5
526
330
1A
100
AcDbEntity
  8
SEIHIN
  6
Continuous
 62
     3
 48
16.0
100
AcDbCircle
 10
74.11592357591574
 20
129.0235954026951
 30
0.0
 40
2.000000000000014
100
AcDbArc
 50
180.0000000000004
 51
270.0000000000004
  0
ARC
  5
527
330
1A
100
AcDbEntity
  8
SEIHIN
  6
Continuous
 62
     3
 48
16.0
100
AcDbCircle
 10
83.1159235759158
 20
129.0235954026951
 30
0.0
 40
2.0
100
AcDbArc
 50
270.0
 51
0.0
  0
LINE
  5
528
330
1A
100
AcDbEntity
  8
SEIHIN
  6
Continuous
 62
     3
 48
16.0
100
AcDbLine
 10
83.97912357591581
 20
125.7291954026951
 30
0.0
 11
80.91692357591579
 21
123.709795402695
 31
0.0
  0
LINE
  5
529
330
1A
100
AcDbEntity
  8
SEIHIN
  6
Continuous
 62
     3
 48
16.0
100
AcDbLine
 10
84.66512357591573
 20
124.2999954026951
 30
0.0
 11
81.17412357591573
 21
123.1738954026951
 31
0.0
  0
LINE
  5
52A
330
1A
100
AcDbEntity
  8
SEIHIN
  6
Continuous
 62
     3
 48
16.0
100
AcDbLine
 10
84.42862357591581
 20
121.0517954026951
 30
0.0
 11
81.24392357591572
 21
121.3550954026952
 31
0.0
  0
ARC
  5
52B
330
1A
100
AcDbEntity
  8
SEIHIN
  6
Continuous
 62
     3
 48
16.0
100
AcDbCircle
 10
78.6159235759158
 20
121.857395402695
 30
0.0
 40
1.0
100
AcDbArc
 50
0.0
 51
180.0
  0
ARC
  5
52C
330
1A
100
AcDbEntity
  8
SEIHIN
  6
Continuous
 62
     3
 48
16.0
100
AcDbCircle
 10
78.6159235759158
 20
121.857395402695
 30
0.0
 40
1.0
100
AcDbArc
 50
180.0
 51
0.0
  0
ARC
  5
52D
330
1A
100
AcDbEntity
  8
SEIHIN
  6
Continuous
 62
     3
 48
16.0
100
AcDbCircle
 10
76.14984424317042
 20
123.4594042427233
 30
0.0
 40
0.3000025251054667
100
AcDbArc
 50
252.1174788821511
 51
334.1918515621318
  0
ARC
  5
52E
330
1A
100
AcDbEntity
  8
SEIHIN
  6
Continuous
 62
     3
 48
16.0
100
AcDbCircle
 10
76.01633194248511
 20
121.0564114937231
 30
0.0
 40
0.299981041175569
100
AcDbArc
 50
293.2034348480801
 51
11.84663221982885
  0
ARC
  5
52F
330
1A
100
AcDbEntity
  8
SEIHIN
  6
Continuous
 62
     3
 48
16.0
100
AcDbCircle
 10
76.0162906183729
 20
121.0564196653319
 30
0.0
 40
0.3000198079914623
100
AcDbArc
 50
11.84348477016939
 51
95.42545266668946
  0
ARC
  5
530
330
1A
100
AcDbEntity
  8
SEIHIN
  6
Continuous
 62
     3
 48
16.0
100
AcDbCircle
 10
76.1498131924083
 20
123.4594331113545
 30
0.0
 40
0.3000430472487118
100
AcDbArc
 50
334.1894701277514
 51
56.59028629094067
  0
ARC
  5
531
330
1A
100
AcDbEntity
  8
SEIHIN
  6
Continuous
 62
     3
 48
16.0
100
AcDbCircle
 10
81.08200290866106
 20
123.4594042427233
 30
0.0
 40
0.3000025251054921
100
AcDbArc
 50
205.8081484378691
 51
287.8825211178544
  0
ARC
  5
532
330
1A
100
AcDbEntity
  8
SEIHIN
  6
Continuous
 62
     3
 48
16.0
100
AcDbCircle
 10
81.21551520934643
 20
121.0564114937231
 30
0.0
 40
0.2999810411755898
100
AcDbArc
 50
168.1533677801787
 51
246.7965651519275
  0
ARC
  5
533
330
1A
100
AcDbEntity
  8
SEIHIN
  6
Continuous
 62
     3
 48
16.0
100
AcDbCircle
 10
81.21555653345863
 20
121.0564196653319
 30
0.0
 40
0.3000198079914624
100
AcDbArc
 50
84.57454733331053
 51
168.1565152298305
  0
ARC
  5
534
330
1A
100
AcDbEntity
  8
SEIHIN
  6
Continuous
 62
     3
 48
16.0
100
AcDbCircle
 10
81.08202286702839
 20
123.4593928297042
 30
0.0
 40
0.3000155245999117
100
AcDbArc
 50
123.3877677239414
 51
205.8045268241577
  0
LINE
  5
535
330
1A
100
AcDbEntity
  8
SEIHIN
  6
Continuous
 62
     3
 48
16.0
100
AcDbLine
 10
78.61592357591574
 20
127.0235954026951
 30
0.0
 11
83.1159235759158
 21
127.0235954026951
 31
0.0
  0
ARC
  5
536
330
1A
100
AcDbEntity
  8
SEIHIN
  6
Continuous
 62
     3
 48
16.0
100
AcDbCircle
 10
84.41952145524924
 20
125.0613893502105
 30
0.0
 40
0.800025715204779
100
AcDbArc
 50
287.8780947427192
 51
33.50363048265248
  0
ARC
  5
537
330
1A
100
AcDbEntity
  8
SEIHIN
  6
Continuous
 62
     3
 48
16.0
100
AcDbCircle
 10
84.41957730252475
 20
125.0613844266536
 30
0.0
 40
0.7999818654227227
100
AcDbArc
 50
33.50613240540168
 51
123.4067877125594
  0
ARC
  5
538
330
1A
100
AcDbEntity
  8
SEIHIN
  6
Continuous
 62
     3
 48
16.0
100
AcDbCircle
 10
158.1348886140709
 20
86.7234993276798
 30
0.0
 40
1.000003924996949
100
AcDbArc
 50
193.4209166549744
 51
270.0002848581772
  0
ARC
  5
539
330
1A
100
AcDbEntity
  8
SEIHIN
  6
Continuous
 62
     3
 48
16.0
100
AcDbCircle
 10
148.2134743724922
 20
84.35611606459421
 30
0.0
 40
9.199945293881292
100
AcDbArc
 50
13.42056006984927
 51
72.41807934622646
  0
ARC
  5
53A
330
1A
100
AcDbEntity
  8
NOKITOI
  6
PHANTOM
 62
     8
 48
5.0
100
AcDbCircle
 10
148.2134894729336
 20
84.35599971866597
 30
0.0
 40
10.99994632941524
100
AcDbArc
 50
11.36374015671925
 51
75.87555169639184
  0
ARC
  5
53B
330
1A
100
AcDbEntity
  8
SEIHIN
  6
Continuous
 62
     3
 48
16.0
100
AcDbCircle
 10
148.2134937407137
 20
84.35609523706217
 30
0.0
 40
9.999963980685125
100
AcDbArc
 50
14.71676328417672
 51
71.4512675518465
  0
ARC
  5
53C
330
1A
100
AcDbEntity
  8
SEIHIN
  6
Continuous
 62
     3
 48
16.0
100
AcDbCircle
 10
158.7475916431406
 20
87.52349684713909
 30
0.0
 40
4.500001444444357
100
AcDbArc
 50
196.7356113084851
 51
270.000024734746
  0
LINE
  5
53D
330
1A
100
AcDbEntity
  8
NOKITOI
  6
PHANTOM
 62
     8
 48
5.0
100
AcDbLine
 10
156.3756935858037
 20
93.42339540269509
 30
0.0
 11
163.7977935858037
 21
93.42339540269509
 31
0.0
  0
LINE
  5
53E
330
1A
100
AcDbEntity
  8
NOKITOI
  6
PHANTOM
 62
     8
 48
5.0
100
AcDbLine
 10
145.6962935858036
 20
126.5233954026951
 30
0.0
 11
151.9303935858036
 21
95.97599540269508
 31
0.0
  0
LINE
  5
53F
330
1A
100
AcDbEntity
  8
NOKITOI
  6
PHANTOM
 62
     8
 48
5.0
100
AcDbLine
 10
145.8978935858037
 20
119.5233954026951
 30
0.0
 11
150.8977935858037
 21
95.02339540269517
 31
0.0
  0
LINE
  5
540
330
1A
100
AcDbEntity
  8
SEIHIN
  6
Continuous
 62
     3
 48
16.0
100
AcDbLine
 10
146.2855935858037
 20
117.6234954026952
 30
0.0
 11
151.0636935858037
 21
94.21059540269522
 31
0.0
  0
LINE
  5
541
330
1A
100
AcDbEntity
  8
SEIHIN
  6
Continuous
 62
     3
 48
16.0
100
AcDbLine
 10
147.5775935858036
 20
93.78879540269513
 30
0.0
 11
142.7950935858036
 21
117.2234954026951
 31
0.0
  0
LINE
  5
542
330
1A
100
AcDbEntity
  8
SEIHIN
  6
Continuous
 62
     3
 48
16.0
100
AcDbLine
 10
150.3147935858037
 20
93.87959540269523
 30
0.0
 11
145.6323935858035
 21
116.8234954026951
 31
0.0
  0
LINE
  5
543
330
1A
100
AcDbEntity
  8
SEIHIN
  6
Continuous
 62
     3
 48
16.0
100
AcDbLine
 10
103.1159410590062
 20
84.28099540269526
 30
0.0
 11
103.1159410590062
 21
110.5811954026951
 31
0.0
  0
LINE
  5
544
330
1A
100
AcDbEntity
  8
CENTER L
  6
CENTER
 62
     1
 48
5.0
100
AcDbLine
 10
99.11594105900626
 20
83.67412495491
 30
0.0
 11
99.11594105900626
 21
89.67412495491002
 31
0.0
  0
ARC
  5
546
330
1A
100
AcDbEntity
  8
SEIHIN
  6
Continuous
 62
     3
 48
16.0
100
AcDbCircle
 10
102.1159410590062
 20
84.28099540269526
 30
0.0
 40
1.0
100
AcDbArc
 50
270.0
 51
0.0
  0
LINE
  5
548
330
1A
100
AcDbEntity
  8
CENTER L
  6
CENTER
 62
     1
 48
5.0
100
AcDbLine
 10
102.1147338502601
 20
86.99469005210401
 30
0.0
 11
96.26617169666962
 21
86.99469005210401
 31
0.0
  0
ARC
  5
549
330
1A
100
AcDbEntity
  8
SEIHIN
  6
Continuous
 62
     3
 48
16.0
100
AcDbCircle
 10
151.9867625037
 20
94.68863149245249
 30
0.0
 40
4.499954856572279
100
AcDbArc
 50
191.5349463422623
 51
249.9390998899519
  0
ARC
  5
54A
330
1A
100
AcDbEntity
  8
SEIHIN
  6
Continuous
 62
     3
 48
16.0
100
AcDbCircle
 10
148.2134855219376
 20
84.35610394895276
 30
0.0
 40
6.499988080764588
100
AcDbArc
 50
16.73452782795918
 51
69.93825309449379
  0
ARC
  5
54B
330
1A
100
AcDbEntity
  8
NOKITOI
  6
PHANTOM
 62
     8
 48
5.0
100
AcDbCircle
 10
148.2134517988275
 20
84.35601939758413
 30
0.0
 40
12.19997945109428
100
AcDbArc
 50
48.00719042627341
 51
72.26181654227993
  0
ARC
  5
54C
330
1A
100
AcDbEntity
  8
SEIHIN
  6
Continuous
 62
     3
 48
16.0
100
AcDbCircle
 10
151.553576991582
 20
94.31061416498357
 30
0.0
 40
0.4999695093845914
100
AcDbArc
 50
191.5281707199114
 51
251.4588174055127
  0
ARC
  5
54D
330
1A
100
AcDbEntity
  8
SEIHIN
  6
Continuous
 62
     3
 48
16.0
100
AcDbCircle
 10
151.2946058827784
 20
94.07958173438217
 30
0.0
 40
1.000013334993337
100
AcDbArc
 50
191.536003802907
 51
252.4157252969617
  0
LINE
  5
54E
330
1A
100
AcDbEntity
  8
CENTER L
  6
CENTER
 62
     1
 48
5.0
100
AcDbLine
 10
99.11594105900626
 20
104.1958635089013
 30
0.0
 11
99.11594105900626
 21
110.1958635089013
 31
0.0
  0
LINE
  5
54F
330
1A
100
AcDbEntity
  8
CENTER L
  6
CENTER
 62
     1
 48
5.0
100
AcDbLine
 10
102.1147338502602
 20
107.4213681164791
 30
0.0
 11
96.26617169666962
 21
107.4213681164791
 31
0.0
  0
ARC
  5
552
330
1A
100
AcDbEntity
  8
SEIHIN
  6
Continuous
 62
     3
 48
16.0
100
AcDbCircle
 10
102.1159410590062
 20
110.1354954026952
 30
0.0
 40
1.0
100
AcDbArc
 50
0.0
 51
90.0
  0
ARC
  5
553
330
1A
100
AcDbEntity
  8
SEIHIN
  6
Continuous
 62
     3
 48
16.0
100
AcDbCircle
 10
102.1159410590062
 20
110.5811954026951
 30
0.0
 40
1.000000000000042
100
AcDbArc
 50
359.9999999999976
 51
89.99999999999756
  0
LINE
  5
554
330
1A
100
AcDbEntity
  8
NOKITOI
  6
PHANTOM
 62
     8
 48
5.0
100
AcDbLine
 10
140.7977935858037
 20
119.5233954026951
 30
0.0
 11
140.7978935858036
 21
126.5233954026951
 31
0.0
  0
ARC
  5
555
330
1A
100
AcDbEntity
  8
SEIHIN
  6
Continuous
 62
     3
 48
16.0
100
AcDbCircle
 10
141.2978935858035
 20
118.5234954026952
 30
0.0
 40
0.4999999999999574
100
AcDbArc
 50
180.0000000000049
 51
270.0000000000049
  0
ARC
  5
556
330
1A
100
AcDbEntity
  8
SEIHIN
  6
Continuous
 62
     3
 48
16.0
100
AcDbCircle
 10
140.9978935858036
 20
118.2234954026951
 30
0.0
 40
1.0
100
AcDbArc
 50
180.0
 51
270.0
  0
LINE
  5
557
330
1A
100
AcDbEntity
  8
NOKITOI
  6
PHANTOM
 62
     8
 48
5.0
100
AcDbLine
 10
140.7977935858037
 20
119.5233954026951
 30
0.0
 11
145.8978935858037
 21
119.5233954026951
 31
0.0
  0
LINE
  5
558
330
1A
100
AcDbEntity
  8
SEIHIN
  6
Continuous
 62
     3
 48
16.0
100
AcDbLine
 10
145.7956935858037
 20
118.0234954026952
 30
0.0
 11
141.2978935858036
 21
118.0234954026952
 31
0.0
  0
LINE
  5
559
330
1A
100
AcDbEntity
  8
SEIHIN
  6
Continuous
 62
     3
 48
16.0
100
AcDbLine
 10
140.9978935858036
 20
117.2234954026951
 30
0.0
 11
145.1424935858037
 21
117.2234954026951
 31
0.0
  0
ARC
  5
55A
330
1A
100
AcDbEntity
  8
SEIHIN
  6
Continuous
 62
     3
 48
16.0
100
AcDbCircle
 10
145.1424948166687
 20
116.7234943976972
 30
0.0
 40
0.5000010049994094
100
AcDbArc
 50
11.5370530638438
 51
90.00014104645858
  0
ARC
  5
55B
330
1A
100
AcDbEntity
  8
SEIHIN
  6
Continuous
 62
     3
 48
16.0
100
AcDbCircle
 10
145.7956948166688
 20
117.5234943976972
 30
0.0
 40
0.5000010049994792
100
AcDbArc
 50
11.53705306385048
 51
90.00014104646506
  0
LINE
  5
55C
330
1A
100
AcDbEntity
  8
NOKITOI
  6
PHANTOM
 62
     8
 48
5.0
100
AcDbLine
 10
144.7141935858035
 20
125.3233954026952
 30
0.0
 11
145.6528935858037
 21
120.7233954026951
 31
0.0
  0
LINE
  5
55D
330
1A
100
AcDbEntity
  8
NOKITOI
  6
PHANTOM
 62
     8
 48
5.0
100
AcDbLine
 10
145.6528935858037
 20
120.7233954026951
 30
0.0
 11
141.9978935858036
 21
120.7233954026951
 31
0.0
  0
LINE
  5
55E
330
1A
100
AcDbEntity
  8
NOKITOI
  6
PHANTOM
 62
     8
 48
5.0
100
AcDbLine
 10
141.9978935858036
 20
125.3233954026952
 30
0.0
 11
141.9978935858036
 21
120.7233954026951
 31
0.0
  0
LINE
  5
55F
330
1A
100
AcDbEntity
  8
NOKITOI
  6
PHANTOM
 62
     8
 48
5.0
100
AcDbLine
 10
144.7141935858035
 20
125.3233954026952
 30
0.0
 11
141.9978935858036
 21
125.3233954026952
 31
0.0
  0
LINE
  5
560
330
1A
100
AcDbEntity
  8
NOKITOI
  6
PHANTOM
 62
     8
 48
5.0
100
AcDbLine
 10
140.7978935858036
 20
126.5233954026951
 30
0.0
 11
145.6962935858036
 21
126.5233954026951
 31
0.0
  0
LINE
  5
561
330
1A
100
AcDbEntity
  8
NOKITOI
  6
PHANTOM
 62
     8
 48
5.0
100
AcDbLine
 10
220.8993935858037
 20
126.523295402695
 30
0.0
 11
214.6651935858037
 21
95.97589540269515
 31
0.0
  0
LINE
  5
562
330
1A
100
AcDbEntity
  8
NOKITOI
  6
PHANTOM
 62
     8
 48
5.0
100
AcDbLine
 10
220.6977935858037
 20
119.523295402695
 30
0.0
 11
215.6977935858037
 21
95.02339540269517
 31
0.0
  0
LINE
  5
563
330
1A
100
AcDbEntity
  8
SEIHIN
  6
Continuous
 62
     3
 48
16.0
100
AcDbLine
 10
220.3099935858038
 20
117.6234954026952
 30
0.0
 11
215.5318935858038
 21
94.21059540269522
 31
0.0
  0
LINE
  5
564
330
1A
100
AcDbEntity
  8
SEIHIN
  6
Continuous
 62
     3
 48
16.0
100
AcDbLine
 10
216.2808935858036
 20
93.87959540269523
 30
0.0
 11
220.9632935858037
 21
116.8233954026952
 31
0.0
  0
LINE
  5
565
330
1A
100
AcDbEntity
  8
CENTER L
  6
CENTER
 62
     1
 48
5.0
100
AcDbLine
 10
183.2977935858037
 20
76.46669540269522
 30
0.0
 11
183.2977935858037
 21
98.27259540269523
 31
0.0
  0
LINE
  5
566
330
1A
100
AcDbEntity
  8
SEIHIN
  6
Continuous
 62
     3
 48
16.0
100
AcDbLine
 10
176.7977935858037
 20
80.72339540269522
 30
0.0
 11
190.2977935858037
 21
80.72339540269522
 31
0.0
  0
LINE
  5
567
330
1A
100
AcDbEntity
  8
NOKITOI
  6
PHANTOM
 62
     8
 48
5.0
100
AcDbLine
 10
207.5977935858036
 20
86.52339540269514
 30
0.0
 11
183.2977935858037
 21
86.52339540269514
 31
0.0
  0
LINE
  5
568
330
1A
100
AcDbEntity
  8
NOKITOI
  6
PHANTOM
 62
     8
 48
5.0
100
AcDbLine
 10
183.2977935858037
 20
87.72339540269516
 30
0.0
 11
202.7977935858037
 21
87.72339540269516
 31
0.0
  0
ARC
  5
569
330
1A
100
AcDbEntity
  8
SEIHIN
  6
Continuous
 62
     3
 48
16.0
100
AcDbCircle
 10
189.7977935858037
 20
77.72339540269516
 30
0.0
 40
8.0
100
AcDbArc
 50
0.0
 51
90.0
  0
LINE
  5
56A
330
1A
100
AcDbEntity
  8
SEIHIN
  6
Continuous
 62
     3
 48
16.0
100
AcDbLine
 10
208.2265935858036
 20
86.52339540269514
 30
0.0
 11
183.2977935858037
 21
86.52339540269514
 31
0.0
  0
LINE
  5
56B
330
1A
100
AcDbEntity
  8
SEIHIN
  6
Continuous
 62
     3
 48
16.0
100
AcDbLine
 10
183.2977935858037
 20
85.72339540269515
 30
0.0
 11
208.4606935858035
 21
85.72339540269515
 31
0.0
  0
LINE
  5
56C
330
1A
100
AcDbEntity
  8
NOKITOI
  6
PHANTOM
 62
     8
 48
5.0
100
AcDbLine
 10
158.9977935858037
 20
86.52339540269514
 30
0.0
 11
183.2977935858037
 21
86.52339540269514
 31
0.0
  0
LINE
  5
56D
330
1A
100
AcDbEntity
  8
NOKITOI
  6
PHANTOM
 62
     8
 48
5.0
100
AcDbLine
 10
183.2977935858037
 20
87.72339540269516
 30
0.0
 11
163.7977935858037
 21
87.72339540269516
 31
0.0
  0
LINE
  5
56E
330
1A
100
AcDbEntity
  8
SEIHIN
  6
Continuous
 62
     3
 48
16.0
100
AcDbLine
 10
158.3689935858037
 20
86.52349540269524
 30
0.0
 11
183.2977935858037
 21
86.52339540269514
 31
0.0
  0
LINE
  5
56F
330
1A
100
AcDbEntity
  8
SEIHIN
  6
Continuous
 62
     3
 48
16.0
100
AcDbLine
 10
183.2977935858037
 20
85.72339540269515
 30
0.0
 11
158.1348935858036
 21
85.72349540269522
 31
0.0
  0
LINE
  5
570
330
1A
100
AcDbEntity
  8
SEIHIN
  6
Continuous
 62
     3
 48
16.0
100
AcDbLine
 10
175.2977935858037
 20
83.02339540269523
 30
0.0
 11
158.7475935858036
 21
83.02349540269515
 31
0.0
  0
LINE
  5
571
330
1A
100
AcDbEntity
  8
NOKITOI
  6
PHANTOM
 62
     8
 48
5.0
100
AcDbLine
 10
163.7977935858037
 20
87.72339540269516
 30
0.0
 11
163.7977935858037
 21
93.42339540269509
 31
0.0
  0
LINE
  5
572
330
1A
100
AcDbEntity
  8
NOKITOI
  6
PHANTOM
 62
     8
 48
5.0
100
AcDbLine
 10
162.5977935858036
 20
87.72339540269516
 30
0.0
 11
162.5977935858036
 21
92.2233954026951
 31
0.0
  0
ARC
  5
573
330
1A
100
AcDbEntity
  8
NOKITOI
  6
PHANTOM
 62
     8
 48
5.0
100
AcDbCircle
 10
148.2134892246782
 20
84.35600357400288
 30
0.0
 40
12.19993877054614
100
AcDbArc
 50
16.02263637925393
 51
40.15603560521631
  0
LINE
  5
574
330
1A
100
AcDbEntity
  8
NOKITOI
  6
PHANTOM
 62
     8
 48
5.0
100
AcDbLine
 10
162.5977935858036
 20
87.72339540269516
 30
0.0
 11
159.9394935858036
 21
87.72339540269516
 31
0.0
  0
ARC
  5
575
330
1A
100
AcDbEntity
  8
SEIHIN
  6
Continuous
 62
     3
 48
16.0
100
AcDbCircle
 10
158.3689949082587
 20
87.02349438269314
 30
0.0
 40
0.4999989799996554
100
AcDbArc
 50
194.7142483898143
 51
269.9998484575116
  0
LINE
  5
576
330
1A
100
AcDbEntity
  8
NOKITOI
  6
PHANTOM
 62
     8
 48
5.0
100
AcDbLine
 10
157.5377935858036
 20
92.2233954026951
 30
0.0
 11
162.5977935858036
 21
92.2233954026951
 31
0.0
  0
LINE
  5
577
330
1A
100
AcDbEntity
  8
SEIHIN
  6
Continuous
 62
     3
 48
16.0
100
AcDbLine
 10
183.2977935858037
 20
79.72339540269516
 30
0.0
 11
179.2977935858035
 21
79.72339540269516
 31
0.0
  0
LINE
  5
578
330
1A
100
AcDbEntity
  8
SEIHIN
  6
Continuous
 62
     3
 48
16.0
100
AcDbLine
 10
179.2977935858035
 20
79.72339540269516
 30
0.0
 11
179.2977935858035
 21
80.72339540269522
 31
0.0
  0
LINE
  5
579
330
1A
100
AcDbEntity
  8
SEIHIN
  6
Continuous
 62
     3
 48
16.0
100
AcDbLine
 10
175.2977935858037
 20
82.22339540269516
 30
0.0
 11
176.7977935858037
 21
80.72339540269522
 31
0.0
  0
LINE
  5
57A
330
1A
100
AcDbEntity
  8
SEIHIN
  6
Continuous
 62
     3
 48
16.0
100
AcDbLine
 10
175.2977935858037
 20
82.22339540269516
 30
0.0
 11
175.2977935858037
 21
85.72339540269515
 31
0.0
  0
LINE
  5
57B
330
1A
100
AcDbEntity
  8
SEIHIN
  6
Continuous
 62
     3
 48
16.0
100
AcDbLine
 10
187.2978935858036
 20
79.72339540269516
 30
0.0
 11
187.2978935858036
 21
80.72339540269522
 31
0.0
  0
LINE
  5
57C
330
1A
100
AcDbEntity
  8
SEIHIN
  6
Continuous
 62
     3
 48
16.0
100
AcDbLine
 10
183.2978935858037
 20
79.72339540269516
 30
0.0
 11
187.2978935858036
 21
79.72339540269516
 31
0.0
  0
ARC
  5
57D
330
1A
100
AcDbEntity
  8
SEIHIN
  6
Continuous
 62
     3
 48
16.0
100
AcDbCircle
 10
210.8404826330773
 20
76.2233864594989
 30
0.0
 40
5.499991056814589
100
AcDbArc
 50
270.0001140992747
 51
348.4652434768589
  0
ARC
  5
57E
330
1A
100
AcDbEntity
  8
SEIHIN
  6
Continuous
 62
     3
 48
16.0
100
AcDbCircle
 10
203.2977935858037
 20
76.22339540269521
 30
0.0
 40
5.5
100
AcDbArc
 50
180.0
 51
270.0
  0
ARC
  5
57F
330
1A
100
AcDbEntity
  8
SEIHIN
  6
Continuous
 62
     3
 48
16.0
100
AcDbCircle
 10
203.2977935855537
 20
76.22339540294515
 30
0.0
 40
10.00000000025
100
AcDbArc
 50
179.9994270436372
 51
270.0000000014323
  0
LINE
  5
580
330
1A
100
AcDbEntity
  8
SEIHIN
  6
Continuous
 62
     3
 48
16.0
100
AcDbLine
 10
210.8404935858036
 20
70.72339540269521
 30
0.0
 11
203.2977935858037
 21
70.72339540269521
 31
0.0
  0
LINE
  5
581
330
1A
100
AcDbEntity
  8
SEIHIN
  6
Continuous
 62
     3
 48
16.0
100
AcDbLine
 10
210.8404935858036
 20
66.22339540269516
 30
0.0
 11
203.2977935858037
 21
66.22339540269516
 31
0.0
  0
ARC
  5
582
330
1A
100
AcDbEntity
  8
SEIHIN
  6
Continuous
 62
     3
 48
16.0
100
AcDbCircle
 10
210.8404692192262
 20
76.2233755066556
 30
0.0
 40
9.999980103990129
100
AcDbArc
 50
270.0001396104824
 51
348.4654731291963
  0
LINE
  5
583
330
1A
100
AcDbEntity
  8
NOKITOI
  6
PHANTOM
 62
     8
 48
5.0
100
AcDbLine
 10
203.9977935858038
 20
87.72339540269516
 30
0.0
 11
206.6560935858037
 21
87.72339540269516
 31
0.0
  0
LINE
  5
584
330
1A
100
AcDbEntity
  8
SEIHIN
  6
Continuous
 62
     3
 48
16.0
100
AcDbLine
 10
195.7902935858037
 20
83.02339540269523
 30
0.0
 11
207.8479935858036
 21
83.02339540269523
 31
0.0
  0
LINE
  5
585
330
1A
100
AcDbEntity
  8
NOKITOI
  6
PHANTOM
 62
     8
 48
5.0
100
AcDbLine
 10
210.2198935858037
 20
93.42329540269517
 30
0.0
 11
202.7977935858037
 21
93.42339540269509
 31
0.0
  0
ARC
  5
586
330
1A
100
AcDbEntity
  8
NOKITOI
  6
PHANTOM
 62
     8
 48
5.0
100
AcDbCircle
 10
218.3820976986737
 20
84.35589971866585
 30
0.0
 40
10.99994632941526
100
AcDbArc
 50
104.1244483036074
 51
168.6362598432799
  0
LINE
  5
587
330
1A
100
AcDbEntity
  8
NOKITOI
  6
PHANTOM
 62
     8
 48
5.0
100
AcDbLine
 10
209.0577935858037
 20
92.2233954026951
 30
0.0
 11
203.9977935858038
 21
92.2233954026951
 31
0.0
  0
ARC
  5
588
330
1A
100
AcDbEntity
  8
SEIHIN
  6
Continuous
 62
     3
 48
16.0
100
AcDbCircle
 10
190.2977935858037
 20
77.72339540269519
 30
0.0
 40
3.000000000000028
100
AcDbArc
 50
359.9999999999994
 51
89.99999999999944
  0
LINE
  5
589
330
1A
100
AcDbEntity
  8
SEIHIN
  6
Continuous
 62
     3
 48
16.0
100
AcDbLine
 10
193.2977935858037
 20
76.22339540269521
 30
0.0
 11
193.2977935858037
 21
77.72339540269516
 31
0.0
  0
LINE
  5
58A
330
1A
100
AcDbEntity
  8
SEIHIN
  6
Continuous
 62
     3
 48
16.0
100
AcDbLine
 10
197.7977935858037
 20
76.22339540269521
 30
0.0
 11
197.7977935858037
 21
77.72339540269516
 31
0.0
  0
LINE
  5
58B
330
1A
100
AcDbEntity
  8
SEIHIN
  6
Continuous
 62
     3
 48
16.0
100
AcDbLine
 10
204.2265935858036
 20
86.52339540269514
 30
0.0
 11
195.8156935858037
 21
86.52339540269514
 31
0.0
  0
LINE
  5
58C
330
1A
100
AcDbEntity
  8
NOKITOI
  6
PHANTOM
 62
     8
 48
5.0
100
AcDbLine
 10
202.7977935858037
 20
87.72329540269508
 30
0.0
 11
202.7977935858037
 21
93.42339540269509
 31
0.0
  0
LINE
  5
58D
330
1A
100
AcDbEntity
  8
NOKITOI
  6
PHANTOM
 62
     8
 48
5.0
100
AcDbLine
 10
203.9977935858038
 20
87.72339540269516
 30
0.0
 11
203.9977935858038
 21
92.2233954026951
 31
0.0
  0
ARC
  5
58E
330
1A
100
AcDbEntity
  8
SEIHIN
  6
Continuous
 62
     3
 48
16.0
100
AcDbCircle
 10
208.4606985575363
 20
86.72339932767988
 30
0.0
 40
1.000003924997076
100
AcDbArc
 50
269.9997151418163
 51
346.5790833450196
  0
ARC
  5
58F
330
1A
100
AcDbEntity
  8
SEIHIN
  6
Continuous
 62
     3
 48
16.0
100
AcDbCircle
 10
207.8479761656768
 20
87.52338244988028
 30
0.0
 40
4.499987047218755
100
AcDbArc
 50
270.0002218005812
 51
343.2658545438556
  0
ARC
  5
590
330
1A
100
AcDbEntity
  8
NOKITOI
  6
PHANTOM
 62
     8
 48
5.0
100
AcDbCircle
 10
218.3821353727799
 20
84.35591939758452
 30
0.0
 40
12.19997945109404
100
AcDbArc
 50
107.7381834577211
 51
131.9928095737274
  0
ARC
  5
591
330
1A
100
AcDbEntity
  8
SEIHIN
  6
Continuous
 62
     3
 48
16.0
100
AcDbCircle
 10
218.3820532976522
 20
84.35595270570061
 30
0.0
 40
6.499985327065172
100
AcDbArc
 50
110.060363617942
 51
163.2640727385117
  0
ARC
  5
592
330
1A
100
AcDbEntity
  8
SEIHIN
  6
Continuous
 62
     3
 48
16.0
100
AcDbCircle
 10
218.3820967497339
 20
84.35599880513388
 30
0.0
 40
9.199956899084417
100
AcDbArc
 50
107.5817929010205
 51
166.578706401057
  0
ARC
  5
593
330
1A
100
AcDbEntity
  8
SEIHIN
  6
Continuous
 62
     3
 48
16.0
100
AcDbCircle
 10
218.3821387138545
 20
84.35604365394667
 30
0.0
 40
9.999995478368727
100
AcDbArc
 50
108.5483412103931
 51
165.2835709349763
  0
ARC
  5
594
330
1A
100
AcDbEntity
  8
NOKITOI
  6
PHANTOM
 62
     8
 48
5.0
100
AcDbCircle
 10
218.3821705694744
 20
84.35603964356046
 30
0.0
 40
12.19997101530972
100
AcDbArc
 50
139.8443138052131
 51
163.9780719705774
  0
ARC
  5
595
330
1A
100
AcDbEntity
  8
SEIHIN
  6
Continuous
 62
     3
 48
16.0
100
AcDbCircle
 10
208.2265922633486
 20
87.02339438269317
 30
0.0
 40
0.4999989799997692
100
AcDbArc
 50
270.0001515424802
 51
345.2857516101789
  0
ARC
  5
596
330
1A
100
AcDbEntity
  8
SEIHIN
  6
Continuous
 62
     3
 48
16.0
100
AcDbCircle
 10
214.6088618479558
 20
94.68855855183065
 30
0.0
 40
4.500001822915133
100
AcDbArc
 50
290.0615332498
 51
348.4661235511047
  0
ARC
  5
597
330
1A
100
AcDbEntity
  8
SEIHIN
  6
Continuous
 62
     3
 48
16.0
100
AcDbCircle
 10
215.0420023430553
 20
94.31060530403525
 30
0.0
 40
0.4999954100665508
100
AcDbArc
 50
288.5532213949811
 51
348.4617755835495
  0
ARC
  5
598
330
1A
100
AcDbEntity
  8
SEIHIN
  6
Continuous
 62
     3
 48
16.0
100
AcDbCircle
 10
215.3009680941269
 20
94.07946706543672
 30
0.0
 40
1.000003337847867
100
AcDbArc
 50
287.5852492878854
 51
348.4705846895413
  0
ARC
  5
599
330
1A
100
AcDbEntity
  8
SEIHIN
  6
Continuous
 62
     3
 48
16.0
100
AcDbCircle
 10
221.4532045942469
 20
116.7235043928568
 30
0.0
 40
0.4999910099595063
100
AcDbArc
 50
90.00126149734848
 51
168.4755775196175
  0
ARC
  5
59A
330
1A
100
AcDbEntity
  8
SEIHIN
  6
Continuous
 62
     3
 48
16.0
100
AcDbCircle
 10
220.7999045942468
 20
117.5235043928569
 30
0.0
 40
0.4999910099594708
100
AcDbArc
 50
90.00126149736804
 51
168.4755775196406
  0
LINE
  5
59B
330
1A
100
AcDbEntity
  8
SEIHIN
  6
Continuous
 62
     3
 48
16.0
100
AcDbLine
 10
219.7309935858037
 20
126.1727954026952
 30
0.0
 11
219.3532935858037
 21
127.5822954026952
 31
0.0
  0
LINE
  5
59C
330
1A
100
AcDbEntity
  8
NOKITOI
  6
PHANTOM
 62
     8
 48
5.0
100
AcDbLine
 10
221.8814935858036
 20
125.323295402695
 30
0.0
 11
220.9426935858037
 21
120.7232954026951
 31
0.0
  0
LINE
  5
59D
330
1A
100
AcDbEntity
  8
SEIHIN
  6
Continuous
 62
     3
 48
16.0
100
AcDbLine
 10
71.11602357591578
 20
146.0235954026951
 30
0.0
 11
68.6159235759158
 21
146.0235954026951
 31
0.0
  0
ARC
  5
59E
330
1A
100
AcDbEntity
  8
SEIHIN
  6
Continuous
 62
     3
 48
16.0
100
AcDbCircle
 10
71.11602357591578
 20
145.0235954026951
 30
0.0
 40
1.000000000000028
100
AcDbArc
 50
359.9999999999984
 51
89.99999999999836
  0
LINE
  5
59F
330
1A
100
AcDbEntity
  8
SEIHIN
  6
Continuous
 62
     3
 48
16.0
100
AcDbLine
 10
86.11592357591581
 20
146.0235954026951
 30
0.0
 11
88.61592357591574
 21
146.0235954026951
 31
0.0
  0
ARC
  5
5A0
330
1A
100
AcDbEntity
  8
SEIHIN
  6
Continuous
 62
     3
 48
16.0
100
AcDbCircle
 10
86.11592357591581
 20
145.0235954026951
 30
0.0
 40
1.000000000000028
100
AcDbArc
 50
90.00000000000161
 51
180.0000000000016
  0
ARC
  5
5A1
330
1A
100
AcDbEntity
  8
SEIHIN
  6
Continuous
 62
     3
 48
16.0
100
AcDbCircle
 10
154.5478935857434
 20
232.1115893688637
 30
0.0
 40
17.07534953167501
100
AcDbArc
 50
256.2796018273882
 51
283.7203981726119
  0
ARC
  5
5A2
330
1A
100
AcDbEntity
  8
SEIHIN
  6
Continuous
 62
     3
 48
16.0
100
AcDbCircle
 10
154.5478935857434
 20
180.9353893682947
 30
0.0
 40
17.07525238466474
100
AcDbArc
 50
76.27952224015759
 51
103.7204777598424
  0
LINE
  5
5A3
330
1A
100
AcDbEntity
  8
SEIHIN
  6
Continuous
 62
     3
 48
16.0
100
AcDbLine
 10
177.2409935857432
 20
204.5234893682948
 30
0.0
 11
146.1038935857434
 21
204.5234893682948
 31
0.0
  0
LINE
  5
5A4
330
1A
100
AcDbEntity
  8
SEIHIN
  6
Continuous
 62
     3
 48
16.0
100
AcDbLine
 10
177.2409935857432
 20
208.5233893682946
 30
0.0
 11
146.1038935857434
 21
208.5234893682948
 31
0.0
  0
LINE
  5
5A5
330
1A
100
AcDbEntity
  8
SEIHIN
  6
Continuous
 62
     3
 48
16.0
100
AcDbLine
 10
182.8978935857432
 20
213.0234893682948
 30
0.0
 11
146.1038935857434
 21
213.0234893682948
 31
0.0
  0
LINE
  5
5A6
330
1A
100
AcDbEntity
  8
SEIHIN
  6
Continuous
 62
     3
 48
16.0
100
AcDbLine
 10
182.8978935857432
 20
200.0234893682948
 30
0.0
 11
146.1038935857434
 21
200.0234893682948
 31
0.0
  0
LINE
  5
5A7
330
1A
100
AcDbEntity
  8
SEIHIN
  6
Continuous
 62
     3
 48
16.0
100
AcDbLine
 10
140.7978935858036
 20
146.1234954026952
 30
0.0
 11
139.9978935858036
 21
146.1234954026952
 31
0.0
  0
DIMENSION
  5
5A8
330
1A
100
AcDbEntity
  8
SUNPOU
  6
Continuous
100
AcDbDimension
  2
*D3
 10
121.0578387084931
 20
196.5234893682948
 30
0.0
 11
118.5578387084931
 21
206.5234893682948
 31
0.0
 70
    32
 71
     5
 42
-1.0
  3
STANDARD
100
AcDbAlignedDimension
 13
139.5978935857434
 23
216.5234893682948
 33
0.0
 14
139.5977935857434
 24
196.5234893682948
 34
0.0
 50
90.0
100
AcDbRotatedDimension
1001
ACAD
1000
DSTYLE
1002
{
1070
   140
1040
3.0
1070
    74
1070
     0
1070
   172
1070
     1
1070
    73
1070
     0
1070
   272
1070
     2
1070
    77
1070
     3
1070
   173
1070
     1
1070
   147
1040
1.0
1070
    42
1040
3.0
1070
    44
1040
1.5
1070
    43
1040
7.0
1070
   271
1070
     0
1070
   178
1070
     4
1070
   177
1070
     4
1070
   176
1070
     4
1070
   141
1040
150.0
1070
     7
1000
_OPEN
1070
     6
1000
_OPEN
1070
    41
1040
3.0
1002
}
  0
LINE
  5
5A9
330
1A
100
AcDbEntity
  8
SEIHIN
  6
Continuous
 62
     3
 48
16.0
100
AcDbLine
 10
150.4978935857434
 20
215.5234893682948
 30
0.0
 11
150.4978935857434
 21
213.0234893682947
 31
0.0
  0
LINE
  5
5AA
330
1A
100
AcDbEntity
  8
SEIHIN
  6
Continuous
 62
     3
 48
16.0
100
AcDbLine
 10
145.8856935857432
 20
215.5234893682948
 30
0.0
 11
145.8856658079655
 21
213.0234893682947
 31
0.0
  0
LINE
  5
5AB
330
1A
100
AcDbEntity
  8
SEIHIN
  6
Continuous
 62
     3
 48
16.0
100
AcDbLine
 10
140.3978935857432
 20
196.5234893682948
 30
0.0
 11
140.3978935857433
 21
216.5234893682947
 31
0.0
  0
LINE
  5
5AC
330
1A
100
AcDbEntity
  8
SEIHIN
  6
Continuous
 62
     3
 48
16.0
100
AcDbLine
 10
139.5977935857434
 20
196.5234893682948
 30
0.0
 11
139.5977935857434
 21
216.5234893682947
 31
0.0
  0
LINE
  5
5AD
330
1A
100
AcDbEntity
  8
SEIHIN
  6
Continuous
 62
     3
 48
16.0
100
AcDbLine
 10
150.4978935857434
 20
197.5234893682948
 30
0.0
 11
140.3979935857434
 21
197.5234893682948
 31
0.0
  0
LINE
  5
5AE
330
1A
100
AcDbEntity
  8
SEIHIN
  6
Continuous
 62
     3
 48
16.0
100
AcDbLine
 10
140.3979935857434
 20
200.0234893682948
 30
0.0
 11
139.5979935857432
 21
200.0234893682948
 31
0.0
  0
LINE
  5
5AF
330
1A
100
AcDbEntity
  8
SEIHIN
  6
Continuous
 62
     3
 48
16.0
100
AcDbLine
 10
140.3978935857432
 20
196.5234893682948
 30
0.0
 11
139.5979935857432
 21
196.5234893682948
 31
0.0
  0
LINE
  5
5B0
330
1A
100
AcDbEntity
  8
SEIHIN
  6
Continuous
 62
     3
 48
16.0
100
AcDbLine
 10
140.3979935857434
 20
213.0234893682948
 30
0.0
 11
139.5979935857432
 21
213.0234893682948
 31
0.0
  0
ARC
  5
5B1
330
1A
100
AcDbEntity
  8
SEIHIN
  6
Continuous
 62
     3
 48
16.0
100
AcDbCircle
 10
145.855293585622
 20
202.2735393682948
 30
0.0
 40
2.263642410488098
100
AcDbArc
 50
83.69488760908012
 51
276.3051123909199
  0
ARC
  5
5B2
330
1A
100
AcDbEntity
  8
SEIHIN
100
AcDbCircle
 10
151.4354065600283
 20
202.273480718787
 30
0.0
 40
2.437512974286005
100
AcDbArc
 50
112.6200682624531
 51
247.3799317375469
  0
LINE
  5
5B3
330
1A
100
AcDbEntity
  8
SEIHIN
  6
Continuous
 62
     3
 48
16.0
100
AcDbLine
 10
145.8855935857434
 20
197.5234893682948
 30
0.0
 11
145.8855935857434
 21
200.0234893682948
 31
0.0
  0
LINE
  5
5B4
330
1A
100
AcDbEntity
  8
SEIHIN
  6
Continuous
 62
     3
 48
16.0
100
AcDbLine
 10
150.4978935857434
 20
197.5234893682948
 30
0.0
 11
150.4978935857434
 21
200.0234893682948
 31
0.0
  0
LINE
  5
5B5
330
1A
100
AcDbEntity
  8
SEIHIN
  6
Continuous
 62
     3
 48
16.0
100
AcDbLine
 10
145.8855935857434
 20
204.5234893682948
 30
0.0
 11
145.8855935857434
 21
208.5234900693877
 31
0.0
  0
ARC
  5
5B6
330
1A
100
AcDbEntity
  8
SEIHIN
  6
Continuous
 62
     3
 48
16.0
100
AcDbCircle
 10
145.8553935857433
 20
210.7733893682947
 30
0.0
 40
2.263581732564481
100
AcDbArc
 50
83.69726450926528
 51
276.3027354907347
  0
LINE
  5
5B7
330
1A
100
AcDbEntity
  8
SEIHIN
  6
Continuous
 62
     3
 48
16.0
100
AcDbLine
 10
150.4978935857434
 20
204.5234893682948
 30
0.0
 11
150.4978935857434
 21
208.5234752565118
 31
0.0
  0
ARC
  5
5B8
330
1A
100
AcDbEntity
  8
SEIHIN
100
AcDbCircle
 10
151.4354065600283
 20
210.773480718787
 30
0.0
 40
2.437512974286005
100
AcDbArc
 50
112.6200682624531
 51
247.3799317375469
  0
LINE
  5
5B9
330
1A
100
AcDbEntity
  8
SEIHIN
  6
Continuous
 62
     3
 48
16.0
100
AcDbLine
 10
150.4978935857434
 20
215.5234893682948
 30
0.0
 11
140.3979935857434
 21
215.5234893682948
 31
0.0
  0
LINE
  5
5BA
330
1A
100
AcDbEntity
  8
SEIHIN
  6
Continuous
 62
     3
 48
16.0
100
AcDbLine
 10
140.3979935857434
 20
216.5234893682948
 30
0.0
 11
139.5979935857432
 21
216.5234893682948
 31
0.0
  0
LINE
  5
5BB
330
1A
100
AcDbEntity
  8
SEIHIN
  6
Continuous
 62
     3
 48
16.0
100
AcDbLine
 10
158.5978935857434
 20
215.5234893682948
 30
0.0
 11
207.1979935857434
 21
215.5234893682948
 31
0.0
  0
LINE
  5
5BC
330
1A
100
AcDbEntity
  8
SEIHIN
  6
Continuous
 62
     3
 48
16.0
100
AcDbLine
 10
158.5978935857434
 20
197.5234893682948
 30
0.0
 11
207.1979935857434
 21
197.5234893682948
 31
0.0
  0
LINE
  5
5BD
330
1A
100
AcDbEntity
  8
SEIHIN
  6
Continuous
 62
     3
 48
16.0
100
AcDbLine
 10
182.8979935857434
 20
213.0234893682948
 30
0.0
 11
220.8919935857433
 21
213.0233893682948
 31
0.0
  0
LINE
  5
5BE
330
1A
100
AcDbEntity
  8
SEIHIN
  6
Continuous
 62
     3
 48
16.0
100
AcDbLine
 10
182.8979935857434
 20
200.0234893682948
 30
0.0
 11
220.8919935857433
 21
200.0233893682946
 31
0.0
  0
LINE
  5
5BF
330
1A
100
AcDbEntity
  8
SEIHIN
  6
Continuous
 62
     3
 48
16.0
100
AcDbLine
 10
188.5548935857434
 20
208.5233893682946
 30
0.0
 11
218.6980935857434
 21
208.5233893682946
 31
0.0
  0
LINE
  5
5C0
330
1A
100
AcDbEntity
  8
SEIHIN
  6
Continuous
 62
     3
 48
16.0
100
AcDbLine
 10
188.5548935857434
 20
204.5233893682947
 30
0.0
 11
218.6980935857434
 21
204.5234893682948
 31
0.0
  0
LINE
  5
5C1
330
1A
100
AcDbEntity
  8
SEIHIN
  6
Continuous
 62
     3
 48
16.0
100
AcDbLine
 10
158.5978935857434
 20
215.5234893682948
 30
0.0
 11
158.5978935857434
 21
213.0234893682947
 31
0.0
  0
LINE
  5
5C2
330
1A
100
AcDbEntity
  8
CENTER L
  6
CENTER
 62
     1
 48
5.0
100
AcDbLine
 10
182.8978935786345
 20
192.5234893682947
 30
0.0
 11
182.8978935786345
 21
218.7928393682947
 31
0.0
  0
ARC
  5
5C3
330
1A
100
AcDbEntity
  8
SEIHIN
100
AcDbCircle
 10
161.8640330733479
 20
202.2734681944727
 30
0.0
 40
3.966139487604662
100
AcDbArc
 50
145.4373091409733
 51
214.5626908590267
  0
LINE
  5
5C4
330
1A
100
AcDbEntity
  8
SEIHIN
  6
Continuous
 62
     3
 48
16.0
100
AcDbLine
 10
158.5978935857434
 20
197.5234893682948
 30
0.0
 11
158.5978935857434
 21
200.0234893682948
 31
0.0
  0
LINE
  5
5C5
330
1A
100
AcDbEntity
  8
SEIHIN
  6
Continuous
 62
     3
 48
16.0
100
AcDbLine
 10
158.5978935857434
 20
204.5234893682948
 30
0.0
 11
158.5978935857434
 21
208.5234492425284
 31
0.0
  0
ARC
  5
5C6
330
1A
100
AcDbEntity
  8
SEIHIN
100
AcDbCircle
 10
161.8640330733479
 20
210.7734681944727
 30
0.0
 40
3.966139487604662
100
AcDbArc
 50
145.4373091409733
 51
214.5626908590267
  0
ARC
  5
5C7
330
1A
100
AcDbEntity
  8
SEIHIN
  6
Continuous
 62
     3
 48
16.0
100
AcDbCircle
 10
182.8978935786346
 20
206.5234393682948
 30
0.0
 40
5.999999999999914
100
AcDbArc
 50
180.0
 51
0.0
  0
LINE
  5
5C8
330
1A
100
AcDbEntity
  8
SEIHIN
  6
Continuous
 62
     3
 48
16.0
100
AcDbLine
 10
180.8978935857432
 20
208.5234893682948
 30
0.0
 11
184.8979935857434
 21
208.5234893682948
 31
0.0
  0
LINE
  5
5C9
330
1A
100
AcDbEntity
  8
SEIHIN
  6
Continuous
 62
     3
 48
16.0
100
AcDbLine
 10
180.8978935857432
 20
204.5234893682948
 30
0.0
 11
184.8979935857434
 21
204.5234893682948
 31
0.0
  0
ARC
  5
5CA
330
1A
100
AcDbEntity
  8
SEIHIN
  6
Continuous
 62
     3
 48
16.0
100
AcDbCircle
 10
182.8978935786346
 20
206.5234393682948
 30
0.0
 40
5.999999999999914
100
AcDbArc
 50
0.0
 51
180.0
  0
CIRCLE
  5
5CB
330
1A
100
AcDbEntity
  8
SEIHIN
  6
Continuous
100
AcDbCircle
 10
182.8978935786345
 20
206.5234446616337
 30
0.0
 40
4.499999999991455
  0
LINE
  5
5CC
330
1A
100
AcDbEntity
  8
SEIHIN
  6
Continuous
 62
     3
 48
16.0
100
AcDbLine
 10
180.8978935857432
 20
208.5234893682948
 30
0.0
 11
180.8978935857432
 21
204.5234893682948
 31
0.0
  0
LINE
  5
5CD
330
1A
100
AcDbEntity
  8
SEIHIN
  6
Continuous
 62
     3
 48
16.0
100
AcDbLine
 10
184.8979935857434
 20
208.5234893682948
 30
0.0
 11
184.8979935857434
 21
204.5234893682948
 31
0.0
  0
LINE
  5
5CE
330
1A
100
AcDbEntity
  8
SEIHIN
  6
Continuous
 62
     3
 48
16.0
100
AcDbLine
 10
219.9101935857434
 20
215.5234893682948
 30
0.0
 11
219.9101935857434
 21
212.8616893682948
 31
0.0
  0
LINE
  5
5CF
330
1A
100
AcDbEntity
  8
SEIHIN
  6
Continuous
 62
     3
 48
16.0
100
AcDbLine
 10
215.2979935857434
 20
215.5234893682948
 30
0.0
 11
215.2979935857434
 21
213.0234040916722
 31
0.0
  0
LINE
  5
5D0
330
1A
100
AcDbEntity
  8
SEIHIN
  6
Continuous
 62
     3
 48
16.0
100
AcDbLine
 10
207.1979935857434
 20
215.5234893682948
 30
0.0
 11
207.1979935857434
 21
213.0234254108278
 31
0.0
  0
ARC
  5
5D1
330
1A
100
AcDbEntity
  8
SEIHIN
  6
Continuous
 62
     3
 48
16.0
100
AcDbCircle
 10
220.6980935857433
 20
202.0233893682946
 30
0.0
 40
1.999999999999914
100
AcDbArc
 50
179.9999999999975
 51
269.9999999999976
  0
ARC
  5
5D2
330
1A
100
AcDbEntity
  8
SEIHIN
100
AcDbCircle
 10
214.3604825431935
 20
202.2734225358937
 30
0.0
 40
2.437511042550709
100
AcDbArc
 50
292.6200379911888
 51
67.37996200881117
  0
ARC
  5
5D3
330
1A
100
AcDbEntity
  8
SEIHIN
100
AcDbCircle
 10
203.9318642314408
 20
202.2734331954715
 30
0.0
 40
3.966129354302711
100
AcDbArc
 50
325.4372635983646
 51
34.56273640163535
  0
ARC
  5
5D4
330
1A
100
AcDbEntity
  8
SEIHIN
  6
Continuous
 62
     3
 48
16.0
100
AcDbCircle
 10
211.2479935857434
 20
180.9353893677257
 30
0.0
 40
17.07525238521743
100
AcDbArc
 50
76.27952224061047
 51
103.7204777593895
  0
LINE
  5
5D5
330
1A
100
AcDbEntity
  8
SEIHIN
  6
Continuous
 62
     3
 48
16.0
100
AcDbLine
 10
207.1979935857434
 20
197.5233893682946
 30
0.0
 11
207.1979935857434
 21
200.0234254108278
 31
0.0
  0
LINE
  5
5D6
330
1A
100
AcDbEntity
  8
SEIHIN
  6
Continuous
 62
     3
 48
16.0
100
AcDbLine
 10
215.2979935857434
 20
197.5233893682946
 30
0.0
 11
215.2979935857434
 21
200.0234040916721
 31
0.0
  0
ARC
  5
5D7
330
1A
100
AcDbEntity
  8
SEIHIN
  6
Continuous
 62
     3
 48
16.0
100
AcDbCircle
 10
221.1405521260136
 20
202.2734893461619
 30
0.0
 40
2.263588137967559
100
AcDbArc
 50
263.69579163689
 51
276.2579367891673
  0
LINE
  5
5D8
330
1A
100
AcDbEntity
  8
SEIHIN
  6
Continuous
 62
     3
 48
16.0
100
AcDbLine
 10
219.9101935857434
 20
197.5233893682946
 30
0.0
 11
219.9101935857434
 21
200.1850893682946
 31
0.0
  0
LINE
  5
5D9
330
1A
100
AcDbEntity
  8
SEIHIN
  6
Continuous
 62
     3
 48
16.0
100
AcDbLine
 10
207.1979935857434
 20
204.5234512167382
 30
0.0
 11
207.1979935857434
 21
208.5233893682946
 31
0.0
  0
ARC
  5
5DA
330
1A
100
AcDbEntity
  8
SEIHIN
100
AcDbCircle
 10
203.9318642314408
 20
210.7734073895612
 30
0.0
 40
3.966129354302711
100
AcDbArc
 50
325.4372635983646
 51
34.56273640163535
  0
LINE
  5
5DB
330
1A
100
AcDbEntity
  8
SEIHIN
  6
Continuous
 62
     3
 48
16.0
100
AcDbLine
 10
215.2979935857434
 20
204.5234780884705
 30
0.0
 11
215.2979935857434
 21
208.5233893682946
 31
0.0
  0
LINE
  5
5DC
330
1A
100
AcDbEntity
  8
SEIHIN
  6
Continuous
 62
     3
 48
16.0
100
AcDbLine
 10
218.6980935857434
 20
202.0233893682946
 30
0.0
 11
218.6980935857434
 21
211.0233893682948
 31
0.0
  0
ARC
  5
5DD
330
1A
100
AcDbEntity
  8
SEIHIN
  6
Continuous
 62
     3
 48
16.0
100
AcDbCircle
 10
220.6980935857433
 20
211.0233893682949
 30
0.0
 40
1.999999999999914
100
AcDbArc
 50
90.00000000000245
 51
180.0000000000024
  0
ARC
  5
5DE
330
1A
100
AcDbEntity
  8
SEIHIN
100
AcDbCircle
 10
214.3604825431935
 20
210.7733967299834
 30
0.0
 40
2.437511042550709
100
AcDbArc
 50
292.6200379911888
 51
67.37996200881117
  0
ARC
  5
5DF
330
1A
100
AcDbEntity
  8
SEIHIN
  6
Continuous
 62
     3
 48
16.0
100
AcDbCircle
 10
221.1405470420096
 20
210.7732893778131
 30
0.0
 40
2.263686987591017
100
AcDbArc
 50
83.71929133007361
 51
96.30380249452137
  0
ARC
  5
5E0
330
1A
100
AcDbEntity
  8
SEIHIN
  6
Continuous
 62
     3
 48
16.0
100
AcDbCircle
 10
211.2479935857434
 20
232.1114893682948
 30
0.0
 40
17.07525238466473
100
AcDbArc
 50
256.2795222401576
 51
283.7204777598423
  0
DIMENSION
  5
5E4
330
1A
100
AcDbEntity
  8
SUNPOU
  6
Continuous
100
AcDbDimension
  2
*D4
 10
225.7977935858037
 20
146.0720373734789
 30
0.0
 11
235.9978249823131
 21
148.5720373734789
 31
0.0
 70
    32
 71
     5
 42
-1.0
  3
STANDARD
100
AcDbAlignedDimension
 13
246.1978563788225
 23
116.2233954026952
 33
0.0
 14
225.7977935858037
 24
126.523295402695
 34
0.0
100
AcDbRotatedDimension
1001
ACAD
1000
DSTYLE
1002
{
1070
   140
1040
3.0
1070
    74
1070
     0
1070
   172
1070
     1
1070
    73
1070
     0
1070
   272
1070
     2
1070
    77
1070
     3
1070
   173
1070
     1
1070
   147
1040
1.0
1070
    42
1040
3.0
1070
    44
1040
1.5
1070
    43
1040
7.0
1070
   271
1070
     0
1070
   178
1070
     4
1070
   177
1070
     4
1070
   176
1070
     4
1070
   141
1040
150.0
1070
     7
1000
_OPEN
1070
     6
1000
_OPEN
1070
    41
1040
3.0
1002
}
  0
TEXT
  5
5ED
330
1A
100
AcDbEntity
  8
SUNPOU
  6
Continuous
 62
     4
100
AcDbText
 10
268.6642001715794
 20
48.15275066150022
 30
0.0
 40
3.0
  1
4
100
AcDbText
  0
DIMENSION
  5
5EE
330
1A
100
AcDbEntity
  8
SUNPOU
100
AcDbDimension
  2
*D7
 10
271.4423049749087
 20
88.62471063917389
 30
0.0
 11
268.1930208392602
 21
103.4804269849386
 31
0.0
 70
    33
 71
     5
 42
-1.0
  3
STANDARD
100
AcDbAlignedDimension
 13
248.0545935858037
 23
111.5809954026952
 33
0.0
 14
259.1955935858037
 24
83.72639540269524
 34
0.0
1001
ACAD
1000
DSTYLE
1002
{
1070
   140
1040
3.0
1070
    74
1070
     0
1070
   172
1070
     1
1070
    73
1070
     0
1070
   272
1070
     2
1070
    77
1070
     3
1070
   173
1070
     1
1070
   147
1040
1.0
1070
    42
1040
3.0
1070
    44
1040
1.5
1070
    43
1040
7.0
1070
   271
1070
     0
1070
   178
1070
     4
1070
   177
1070
     4
1070
   176
1070
     4
1070
   141
1040
150.0
1070
     7
1000
_OPEN
1070
     6
1000
_OPEN
1070
    41
1040
3.0
1002
}
  0
LINE
  5
5EF
330
1A
100
AcDbEntity
  8
SEIHIN
  6
Continuous
 62
     3
 48
16.0
100
AcDbLine
 10
255.0174935858037
 20
82.05529540269523
 30
0.0
 11
243.6538935858037
 21
110.4661954026952
 31
0.0
  0
LINE
  5
5F0
330
1A
100
AcDbEntity
  8
SEIHIN
  6
Continuous
 62
     3
 48
16.0
100
AcDbLine
 10
259.1955935858037
 20
83.72639540269522
 30
0.0
 11
247.4549935858036
 21
113.0802954026952
 31
0.0
  0
LINE
  5
5F1
330
1A
100
AcDbEntity
  8
SEIHIN
  6
Continuous
 62
     3
 48
16.0
100
AcDbLine
 10
258.0814935858037
 20
83.28079540269516
 30
0.0
 11
246.1625064297915
 21
113.080242462308
 31
0.0
  0
DIMENSION
  5
5F2
330
1A
100
AcDbEntity
  8
SUNPOU
  6
Continuous
100
AcDbDimension
  2
*D8
 10
278.1562214289401
 20
91.31002644508244
 30
0.0
 11
273.9785707289489
 21
108.4869376925768
 31
0.0
 70
    33
 71
     5
 42
-1.0
  3
STANDARD
100
AcDbAlignedDimension
 13
246.1978563788226
 23
116.2233954026952
 33
0.0
 14
259.1955935858037
 24
83.72639540269522
 34
0.0
1001
ACAD
1000
DSTYLE
1002
{
1070
   140
1040
3.0
1070
    74
1070
     0
1070
   172
1070
     1
1070
    73
1070
     0
1070
   272
1070
     2
1070
    77
1070
     3
1070
   173
1070
     1
1070
   147
1040
1.0
1070
    42
1040
3.0
1070
    44
1040
1.5
1070
    43
1040
7.0
1070
   271
1070
     0
1070
   178
1070
     4
1070
   177
1070
     4
1070
   176
1070
     4
1070
   141
1040
150.0
1070
     7
1000
_OPEN
1070
     6
1000
_OPEN
1070
    41
1040
3.0
1002
}
  0
DIMENSION
  5
5F3
330
1A
100
AcDbEntity
  8
SEIHIN
100
AcDbDimension
  2
*D9
 10
286.1592602385108
 20
83.72639540269522
 30
0.0
 11
283.6592602385108
 21
105.1248454026951
 31
0.0
 70
    32
 71
     5
 42
-1.0
  3
STANDARD
100
AcDbAlignedDimension
 13
225.7977935858037
 23
126.523295402695
 33
0.0
 14
259.1955935858037
 24
83.72639540269522
 34
0.0
 50
90.0
100
AcDbRotatedDimension
1001
ACAD
1000
DSTYLE
1002
{
1070
   140
1040
3.0
1070
    74
1070
     0
1070
   172
1070
     1
1070
    73
1070
     0
1070
   272
1070
     2
1070
    77
1070
     3
1070
   173
1070
     1
1070
   147
1040
1.0
1070
    42
1040
3.0
1070
    44
1040
1.5
1070
    43
1040
7.0
1070
   271
1070
     0
1070
   178
1070
     4
1070
   177
1070
     4
1070
   176
1070
     4
1070
   141
1040
150.0
1070
     7
1000
_OPEN
1070
     6
1000
_OPEN
1070
    41
1040
3.0
1002
}
  0
LINE
  5
5F4
330
1A
100
AcDbEntity
  8
SEIHIN
100
AcDbLine
 10
256.5959392513455
 20
86.99469730755856
 30
0.0
 11
254.3675732668313
 21
86.10341450223799
 31
0.0
  0
LINE
  5
5F5
330
1A
100
AcDbEntity
  8
SEIHIN
100
AcDbLine
 10
255.6889600505674
 20
89.26230708036081
 30
0.0
 11
254.3675732668313
 21
86.10341450223799
 31
0.0
  0
LINE
  5
5F6
330
1A
100
AcDbEntity
  8
CENTER L
  6
CENTER
 62
     1
 48
5.0
100
AcDbLine
 10
260.7537935858037
 20
88.65769540269523
 30
0.0
 11
249.0930935858036
 21
83.99379540269515
 31
0.0
  0
LINE
  5
5F7
330
1A
100
AcDbEntity
  8
SEIHIN
  6
Continuous
 62
     3
 48
16.0
100
AcDbLine
 10
259.1955935858037
 20
83.72639540269522
 30
0.0
 11
255.0174935858037
 21
82.05529540269523
 31
0.0
  0
LINE
  5
5F8
330
1A
100
AcDbEntity
  8
SEIHIN
100
AcDbLine
 10
254.3675732668313
 20
86.10341450223799
 30
0.0
 11
257.5028412495731
 21
84.72728055490206
 31
0.0
  0
MTEXT
  5
5F9
330
1A
100
AcDbEntity
  8
0
  6
ByBlock
 62
     4
100
AcDbMText
 10
274.8810758459195
 20
74.12995008256868
 30
0.0
 40
3.0
 41
0.0
 71
     5
 72
     5
  1
\A1;t1.2
 11
0.928487418707005
 21
0.3713638556763476
 31
0.0
 73
     1
 44
1.0
1001
ACAD
1000
MTEXTBEGIN
1070
    73
1070
     1
1070
    44
1040
1.0
1070
    74
1070
     0
1000
MTEXTEND
  0
LINE
  5
5FA
330
1A
100
AcDbEntity
  8
0
  6
ByBlock
 62
     4
100
AcDbLine
 10
260.3096851528327
 20
80.94093314657419
 30
0.0
 11
266.1531696628478
 21
66.33099799530083
 31
0.0
  0
LINE
  5
5FB
330
1A
100
AcDbEntity
  8
0
  6
ByBlock
 62
     4
100
AcDbLine
 10
259.1955860730242
 20
80.49533084594276
 30
0.0
 11
265.0390705830393
 21
65.8853956946694
 31
0.0
  0
LINE
  5
5FC
330
1A
100
AcDbEntity
  8
SUNPOU
  6
Continuous
 62
     4
 48
16.0
100
AcDbLine
 10
271.8061713603481
 20
52.19936736227603
 30
0.0
 11
260.6810559460117
 21
80.01243584566152
 31
0.0
  0
LINE
  5
5FD
330
1A
100
AcDbEntity
  8
0
  6
ByBlock
 62
     4
100
AcDbLine
 10
268.3815861354542
 20
68.83782069039039
 30
0.0
 11
280.4519225786453
 21
73.6655508141829
 31
0.0
  0
TEXT
  5
5FE
330
1A
100
AcDbEntity
  8
SUNPOU
  6
Continuous
 62
     4
100
AcDbText
 10
263.0914427948365
 20
55.29947095873544
 30
0.0
 40
3.0
  1
10
100
AcDbText
  0
LINE
  5
5FF
330
1A
100
AcDbEntity
  8
SUNPOU
  6
Continuous
100
AcDbLine
 10
267.806171360348
 20
52.19936736227603
 30
0.0
 11
267.806171360348
 21
62.19946801652885
 31
0.0
  0
LINE
  5
600
330
1A
100
AcDbEntity
  8
SUNPOU
  6
Continuous
100
AcDbLine
 10
271.806171360348
 20
52.19936736227603
 30
0.0
 11
267.806171360348
 21
52.19936736227603
 31
0.0
  0
INSERT
  5
601
330
1A
100
AcDbEntity
  8
0
  6
ByBlock
 62
     4
100
AcDbBlockReference
  2
_OPEN
 10
264.4820247995247
 20
67.2781268227299
 30
0.0
 41
3.0
 42
3.0
 43
3.0
 50
21.79975440682601
  0
LINE
  5
602
330
1A
100
AcDbEntity
  8
0
  6
ByBlock
 62
     4
100
AcDbLine
 10
261.6965625434037
 20
66.16403525570087
 30
0.0
 11
258.9111002872827
 21
65.04994368867182
 31
0.0
  0
INSERT
  5
603
330
1A
100
AcDbEntity
  8
0
  6
ByBlock
 62
     4
100
AcDbBlockReference
  2
_OPEN
 10
265.5961238793333
 20
67.72372912336134
 30
0.0
 41
3.0
 42
3.0
 43
3.0
 50
201.799754406826
  0
POINT
  5
604
330
1A
100
AcDbEntity
  8
DEFPOINTS
  6
ByBlock
 62
     0
380
     1
100
AcDbPoint
 10
265.5961238793333
 20
67.72372912336134
 30
0.0
  0
LINE
  5
605
330
1A
100
AcDbEntity
  8
0
  6
ByBlock
 62
     4
100
AcDbLine
 10
264.4820247995247
 20
67.2781268227299
 30
0.0
 11
265.5961238793333
 21
67.72372912336134
 31
0.0
  0
POINT
  5
606
330
1A
100
AcDbEntity
  8
DEFPOINTS
  6
ByBlock
 62
     0
380
     1
100
AcDbPoint
 10
259.1955935858037
 20
83.72639540269521
 30
0.0
  0
POINT
  5
607
330
1A
100
AcDbEntity
  8
DEFPOINTS
  6
ByBlock
 62
     0
380
     1
100
AcDbPoint
 10
258.0814945059951
 20
83.28079310206376
 30
0.0
  0
LINE
  5
608
330
1A
100
AcDbEntity
  8
NOKITOI
  6
PHANTOM
 62
     8
 48
5.0
100
AcDbLine
 10
225.7977935858037
 20
119.523295402695
 30
0.0
 11
225.7977935858037
 21
126.523295402695
 31
0.0
  0
LINE
  5
609
330
1A
100
AcDbEntity
  8
SEIHIN
  6
Continuous
 62
     3
 48
16.0
100
AcDbLine
 10
226.5977935858038
 20
118.2233954026952
 30
0.0
 11
226.5977935858038
 21
127.1776954026952
 31
0.0
  0
LINE
  5
60A
330
1A
100
AcDbEntity
  8
SEIHIN
  6
Continuous
 62
     3
 48
16.0
100
AcDbLine
 10
225.7977935858037
 20
118.5234954026951
 30
0.0
 11
225.7977935858037
 21
127.1776954026952
 31
0.0
  0
LINE
  5
60B
330
1A
100
AcDbEntity
  8
SEIHIN
  6
Continuous
 62
     3
 48
16.0
100
AcDbLine
 10
232.7823935858035
 20
111.7233954026952
 30
0.0
 11
241.7968935858037
 21
111.7233954026952
 31
0.0
  0
LINE
  5
60C
330
1A
100
AcDbEntity
  8
SEIHIN
  6
Continuous
 62
     3
 48
16.0
100
AcDbLine
 10
232.7823935858035
 20
116.2233954026952
 30
0.0
 11
242.8124935684405
 21
116.2233954026952
 31
0.0
  0
ARC
  5
60D
330
1A
100
AcDbEntity
  8
SEIHIN
  6
Continuous
 62
     3
 48
16.0
100
AcDbCircle
 10
232.78240453853
 20
106.2234043458917
 30
0.0
 40
5.499991056814425
100
AcDbArc
 50
90.00011409927706
 51
168.4652434768609
  0
ARC
  5
60E
330
1A
100
AcDbEntity
  8
SEIHIN
  6
Continuous
 62
     3
 48
16.0
100
AcDbCircle
 10
225.2977935858038
 20
118.5234954026952
 30
0.0
 40
0.4999999999999574
100
AcDbArc
 50
269.9999999999935
 51
359.9999999999951
  0
ARC
  5
60F
330
1A
100
AcDbEntity
  8
SEIHIN
  6
Continuous
 62
     3
 48
16.0
100
AcDbCircle
 10
225.5977935858037
 20
118.2233954026952
 30
0.0
 40
1.000000000000028
100
AcDbArc
 50
270.0000000000017
 51
0.0000000000016284
  0
LINE
  5
610
330
1A
100
AcDbEntity
  8
SEIHIN
100
AcDbLine
 10
247.5188676684624
 20
109.6889952717409
 30
0.0
 11
246.1974808847262
 21
106.5301026936181
 31
0.0
  0
LINE
  5
611
330
1A
100
AcDbEntity
  8
CENTER L
  6
CENTER
 62
     1
 48
5.0
100
AcDbLine
 10
252.9947935858035
 20
109.2487954026952
 30
0.0
 11
240.7405935858037
 21
104.3474954026951
 31
0.0
  0
LINE
  5
612
330
1A
100
AcDbEntity
  8
SEIHIN
100
AcDbLine
 10
246.1974808847262
 20
106.5301026936181
 30
0.0
 11
248.4258468692404
 21
107.4213854989386
 31
0.0
  0
LINE
  5
613
330
1A
100
AcDbEntity
  8
SEIHIN
100
AcDbLine
 10
246.1974808847262
 20
106.5301026936181
 30
0.0
 11
249.332748867468
 21
105.1539687462822
 31
0.0
  0
LINE
  5
614
330
1A
100
AcDbEntity
  8
SEIHIN
  6
Continuous
 62
     3
 48
16.0
100
AcDbLine
 10
248.0545935858037
 20
111.5809954026952
 30
0.0
 11
246.9403935858035
 21
111.1353954026951
 31
0.0
  0
ARC
  5
615
330
1A
100
AcDbEntity
  8
SEIHIN
  6
Continuous
 62
     3
 48
16.0
100
AcDbCircle
 10
242.8125588584389
 20
111.2233512100859
 30
0.0
 40
5.000044193035334
100
AcDbArc
 50
21.80109351193594
 51
90.00074796269261
  0
ARC
  5
616
330
1A
100
AcDbEntity
  8
SEIHIN
  6
Continuous
 62
     3
 48
16.0
100
AcDbCircle
 10
241.5200804479144
 20
111.2233954026952
 30
0.0
 40
5.0
100
AcDbArc
 50
21.80009727613446
 51
90.0
  0
ARC
  5
617
330
1A
100
AcDbEntity
  8
SEIHIN
  6
Continuous
 62
     3
 48
16.0
100
AcDbCircle
 10
241.7969306662507
 20
109.7233702980103
 30
0.0
 40
2.000025105028629
100
AcDbArc
 50
21.80247174957754
 51
90.00106226322582
  0
LINE
  5
618
330
1A
100
AcDbEntity
  8
NOKITOI
  6
PHANTOM
 62
     8
 48
5.0
100
AcDbLine
 10
224.5977935858036
 20
125.323295402695
 30
0.0
 11
224.5977935858036
 21
120.7232954026951
 31
0.0
  0
ARC
  5
619
330
1A
100
AcDbEntity
  8
SEIHIN
  6
Continuous
 62
     3
 48
16.0
100
AcDbCircle
 10
224.7978223682084
 20
127.1776733177135
 30
0.0
 40
1.799971217730871
100
AcDbArc
 50
0.000702998044265
 51
105.002041554705
  0
ARC
  5
61A
330
1A
100
AcDbEntity
  8
SEIHIN
  6
Continuous
 62
     3
 48
16.0
100
AcDbCircle
 10
224.7977955808076
 20
127.1776938720093
 30
0.0
 40
0.9999980049972583
100
AcDbArc
 50
0.0000877020184135
 51
105.0049510308386
  0
LINE
  5
636
330
1A
100
AcDbEntity
  8
CENTER L
  6
CENTER
 62
     1
 48
5.0
100
AcDbLine
 10
257.4101935786346
 20
183.0047393682949
 30
0.0
 11
257.4101935786346
 21
190.3751393682947
 31
0.0
  0
LINE
  5
637
330
1A
100
AcDbEntity
  8
SEIHIN
  6
Continuous
 62
     3
 48
16.0
100
AcDbLine
 10
258.8956935786346
 20
183.0233393682949
 30
0.0
 11
258.8956935786346
 21
197.2233393682948
 31
0.0
  0
LINE
  5
638
330
1A
100
AcDbEntity
  8
SEIHIN
  6
Continuous
 62
     3
 48
16.0
100
AcDbLine
 10
247.7545935786348
 20
183.0233393682949
 30
0.0
 11
247.7546935786346
 21
197.2233393682948
 31
0.0
  0
LINE
  5
639
330
1A
100
AcDbEntity
  8
SEIHIN
  6
Continuous
 62
     3
 48
16.0
100
AcDbLine
 10
246.6404935786346
 20
183.0233393682949
 30
0.0
 11
246.6404935786346
 21
197.0233393682948
 31
0.0
  0
DIMENSION
  5
63A
330
1A
100
AcDbEntity
  8
SUNPOU
  6
Continuous
100
AcDbDimension
  2
*D12
 10
271.7418374106517
 20
182.0233393682949
 30
0.0
 11
269.2418374106517
 21
206.5233393682949
 31
0.0
 70
    32
 71
     5
 42
-1.0
  3
STANDARD
100
AcDbAlignedDimension
 13
257.8956935786346
 23
231.0233393682949
 33
0.0
 14
257.8956935786346
 24
182.0233393682949
 34
0.0
 50
90.0
100
AcDbRotatedDimension
1001
ACAD
1000
DSTYLE
1002
{
1070
   140
1040
3.0
1070
    74
1070
     0
1070
   172
1070
     1
1070
    73
1070
     0
1070
   272
1070
     2
1070
    77
1070
     3
1070
   173
1070
     1
1070
   147
1040
1.0
1070
    42
1040
3.0
1070
    44
1040
1.5
1070
    43
1040
7.0
1070
   271
1070
     0
1070
   178
1070
     4
1070
   177
1070
     4
1070
   176
1070
     4
1070
   141
1040
150.0
1070
     7
1000
_OPEN
1070
     6
1000
_OPEN
1070
    41
1040
3.0
1002
}
  0
LINE
  5
63B
330
1A
100
AcDbEntity
  8
SEIHIN
  6
Continuous
 62
     3
 48
16.0
100
AcDbLine
 10
257.8956935786346
 20
182.0233393682949
 30
0.0
 11
247.6404935786346
 21
182.0233393682949
 31
0.0
  0
LINE
  5
63C
330
1A
100
AcDbEntity
  8
CENTER L
  6
CENTER
 62
     1
 48
5.0
100
AcDbLine
 10
260.9301935786346
 20
186.0233393682949
 30
0.0
 11
255.3190621893702
 21
186.0233393682949
 31
0.0
  0
LINE
  5
63D
330
1A
100
AcDbEntity
  8
CENTER L
  6
CENTER
 62
     1
 48
5.0
100
AcDbLine
 10
252.7600935786347
 20
186.0233516916299
 30
0.0
 11
247.1489621893701
 21
186.0233516916299
 31
0.0
  0
ARC
  5
63E
330
1A
100
AcDbEntity
  8
SEIHIN
  6
Continuous
 62
     3
 48
16.0
100
AcDbCircle
 10
247.6404935786346
 20
183.0233393682949
 30
0.0
 40
1.0
100
AcDbArc
 50
180.0
 51
270.0
  0
ARC
  5
640
330
1A
100
AcDbEntity
  8
SEIHIN
  6
Continuous
 62
     3
 48
16.0
100
AcDbCircle
 10
248.7545935786347
 20
183.0233393682949
 30
0.0
 40
1.0
100
AcDbArc
 50
180.0
 51
270.0
  0
ARC
  5
643
330
1A
100
AcDbEntity
  8
SEIHIN
  6
Continuous
 62
     3
 48
16.0
100
AcDbCircle
 10
257.8956935786346
 20
183.0233393682949
 30
0.0
 40
1.0
100
AcDbArc
 50
270.0
 51
0.0
  0
LINE
  5
646
330
1A
100
AcDbEntity
  8
SEIHIN
  6
Continuous
 62
     3
 48
16.0
100
AcDbLine
 10
257.8956935786346
 20
231.0233393682949
 30
0.0
 11
247.6404935786346
 21
231.0233393682949
 31
0.0
  0
LINE
  5
647
330
1A
100
AcDbEntity
  8
CENTER L
  6
CENTER
 62
     1
 48
5.0
100
AcDbLine
 10
260.9302935786348
 20
227.0233393682949
 30
0.0
 11
255.3190621893702
 21
227.0233393682949
 31
0.0
  0
ARC
  5
648
330
1A
100
AcDbEntity
  8
SEIHIN
  6
Continuous
 62
     3
 48
16.0
100
AcDbCircle
 10
256.5956935786348
 20
212.8233393682949
 30
0.0
 40
1.0
100
AcDbArc
 50
90.0
 51
180.0
  0
ARC
  5
649
330
1A
100
AcDbEntity
  8
SEIHIN
  6
Continuous
 62
     3
 48
16.0
100
AcDbCircle
 10
256.5956935786346
 20
200.2233393682948
 30
0.0
 40
0.9999999999999431
100
AcDbArc
 50
180.0000000000032
 51
270.0000000000033
  0
ARC
  5
64A
330
1A
100
AcDbEntity
  8
SEIHIN
  6
Continuous
100
AcDbCircle
 10
255.1829793739236
 20
197.2233393682948
 30
0.0
 40
2.0
100
AcDbArc
 50
16.16351496237769
 51
90.0
  0
ARC
  5
64B
330
1A
100
AcDbEntity
  8
SEIHIN
  6
Continuous
100
AcDbCircle
 10
255.1830075566982
 20
215.8233506195794
 30
0.0
 40
2.0
100
AcDbArc
 50
269.999826370638
 51
343.8363114082602
  0
LINE
  5
64C
330
1A
100
AcDbEntity
  8
SEIHIN
  6
Continuous
 62
     3
 48
16.0
100
AcDbLine
 10
256.5956935786348
 20
213.8233393682949
 30
0.0
 11
226.1979935786346
 21
213.8234393682948
 31
0.0
  0
LINE
  5
64D
330
1A
100
AcDbEntity
  8
SEIHIN
  6
Continuous
 62
     3
 48
16.0
100
AcDbLine
 10
256.5956935786346
 20
199.2233393682949
 30
0.0
 11
226.1979935786346
 21
199.2233393682949
 31
0.0
  0
ARC
  5
64E
330
1A
100
AcDbEntity
  8
SEIHIN
  6
Continuous
 62
     3
 48
16.0
100
AcDbCircle
 10
245.7546935786346
 20
215.8233393682949
 30
0.0
 40
2.0
100
AcDbArc
 50
270.0
 51
0.0
  0
ARC
  5
64F
330
1A
100
AcDbEntity
  8
SEIHIN
  6
Continuous
 62
     3
 48
16.0
100
AcDbCircle
 10
243.5977935786346
 20
212.8233393682949
 30
0.0
 40
1.0
100
AcDbArc
 50
90.0
 51
180.0
  0
LINE
  5
650
330
1A
100
AcDbEntity
  8
SEIHIN
  6
Continuous
 62
     3
 48
16.0
100
AcDbLine
 10
225.3978935857432
 20
216.5233893682946
 30
0.0
 11
225.3979935857434
 21
213.0233893682948
 31
0.0
  0
LINE
  5
651
330
1A
100
AcDbEntity
  8
SEIHIN
  6
Continuous
 62
     3
 48
16.0
100
AcDbLine
 10
226.1979935857434
 20
216.5233893682946
 30
0.0
 11
226.1980935857434
 21
206.5233893682946
 31
0.0
  0
LINE
  5
652
330
1A
100
AcDbEntity
  8
SEIHIN
  6
Continuous
 62
     3
 48
16.0
100
AcDbLine
 10
223.4006935857432
 20
215.5234893682948
 30
0.0
 11
223.4006935857432
 21
213.0233893682948
 31
0.0
  0
LINE
  5
653
330
1A
100
AcDbEntity
  8
SEIHIN
  6
Continuous
 62
     3
 48
16.0
100
AcDbLine
 10
245.6404935786347
 20
198.0233393682949
 30
0.0
 11
226.1979935786346
 21
198.0234393682947
 31
0.0
  0
LINE
  5
654
330
1A
100
AcDbEntity
  8
SEIHIN
  6
Continuous
 62
     3
 48
16.0
100
AcDbLine
 10
226.1979935857434
 20
196.5233893682948
 30
0.0
 11
226.1979935857434
 21
206.5233893682946
 31
0.0
  0
LINE
  5
655
330
1A
100
AcDbEntity
  8
SEIHIN
  6
Continuous
 62
     3
 48
16.0
100
AcDbLine
 10
225.3978935857432
 20
196.5233893682948
 30
0.0
 11
226.1978935857432
 21
196.5233893682948
 31
0.0
  0
LINE
  5
656
330
1A
100
AcDbEntity
  8
SEIHIN
  6
Continuous
 62
     3
 48
16.0
100
AcDbLine
 10
225.3978935857432
 20
196.5233893682948
 30
0.0
 11
225.3978935857432
 21
200.0233893682946
 31
0.0
  0
LINE
  5
657
330
1A
100
AcDbEntity
  8
SEIHIN
  6
Continuous
 62
     3
 48
16.0
100
AcDbLine
 10
223.4006935857432
 20
197.5233893682946
 30
0.0
 11
223.4006935857432
 21
200.0233893682946
 31
0.0
  0
LINE
  5
658
330
1A
100
AcDbEntity
  8
SEIHIN
  6
Continuous
 62
     3
 48
16.0
100
AcDbLine
 10
242.5977935786346
 20
206.5234393682948
 30
0.0
 11
242.5977935786346
 21
200.2233393682948
 31
0.0
  0
ARC
  5
659
330
1A
100
AcDbEntity
  8
SEIHIN
  6
Continuous
 62
     3
 48
16.0
100
AcDbCircle
 10
245.7546935786346
 20
197.2233393682948
 30
0.0
 40
2.0
100
AcDbArc
 50
0.0
 51
90.0
  0
LINE
  5
65A
330
1A
100
AcDbEntity
  8
SEIHIN
  6
Continuous
100
AcDbLine
 10
247.9681077822223
 20
199.2233393682949
 30
0.0
 11
246.3968435786347
 21
199.2233393682949
 31
0.0
  0
ARC
  5
65B
330
1A
100
AcDbEntity
  8
SEIHIN
  6
Continuous
100
AcDbCircle
 10
247.0127752596309
 20
197.2233393682948
 30
0.0
 40
2.0
100
AcDbArc
 50
16.16351496237769
 51
90.0
  0
ARC
  5
65C
330
1A
100
AcDbEntity
  8
SEIHIN
  6
Continuous
 62
     3
 48
16.0
100
AcDbCircle
 10
243.5977935786346
 20
200.2233393682948
 30
0.0
 40
0.9999999999999431
100
AcDbArc
 50
180.0000000000032
 51
270.0000000000033
  0
LINE
  5
65D
330
1A
100
AcDbEntity
  8
SEIHIN
  6
Continuous
 62
     3
 48
16.0
100
AcDbLine
 10
242.8977935786346
 20
198.0233393682949
 30
0.0
 11
242.8977935786346
 21
199.2233393682949
 31
0.0
  0
ARC
  5
65E
330
1A
100
AcDbEntity
  8
SEIHIN
  6
Continuous
 62
     3
 48
16.0
100
AcDbCircle
 10
245.6404935786346
 20
197.0233393682949
 30
0.0
 40
0.9999999999999715
100
AcDbArc
 50
359.9999999999919
 51
89.99999999999186
  0
LINE
  5
65F
330
1A
100
AcDbEntity
  8
SEIHIN
  6
Continuous
100
AcDbLine
 10
248.9337175557316
 20
197.7800984679524
 30
0.0
 11
249.2400048638275
 21
196.7233393682949
 31
0.0
  0
LINE
  5
660
330
1A
100
AcDbEntity
  8
SEIHIN
  6
Continuous
100
AcDbLine
 10
249.4088145042978
 20
197.3057700435518
 30
0.0
 11
249.2400048638275
 21
196.7233393682949
 31
0.0
  0
ARC
  5
661
330
1A
100
AcDbEntity
  8
SEIHIN
  6
Continuous
100
AcDbCircle
 10
247.9681077822223
 20
197.7233393682949
 30
0.0
 40
1.5
100
AcDbArc
 50
343.8364850376223
 51
90.0
  0
LINE
  5
662
330
1A
100
AcDbEntity
  8
SEIHIN
  6
Continuous
 62
     3
 48
16.0
100
AcDbLine
 10
242.5977935786346
 20
206.5233393682949
 30
0.0
 11
242.5977935786346
 21
212.8233393682949
 31
0.0
  0
LINE
  5
663
330
1A
100
AcDbEntity
  8
SEIHIN
  6
Continuous
 62
     3
 48
16.0
100
AcDbLine
 10
245.6404935786347
 20
215.0233393682949
 30
0.0
 11
226.1979935786346
 21
215.0234393682948
 31
0.0
  0
LINE
  5
664
330
1A
100
AcDbEntity
  8
SEIHIN
  6
Continuous
 62
     3
 48
16.0
100
AcDbLine
 10
225.3978935857432
 20
216.5233893682946
 30
0.0
 11
226.1978935857432
 21
216.5233893682946
 31
0.0
  0
LINE
  5
665
330
1A
100
AcDbEntity
  8
CENTER L
  6
CENTER
 62
     1
 48
5.0
100
AcDbLine
 10
249.2401935786347
 20
229.8051393682949
 30
0.0
 11
249.2401935786347
 21
223.4778393682947
 31
0.0
  0
LINE
  5
666
330
1A
100
AcDbEntity
  8
SEIHIN
  6
Continuous
 62
     3
 48
16.0
100
AcDbLine
 10
246.6404935786346
 20
230.0233393682949
 30
0.0
 11
246.6404935786346
 21
216.0233393682949
 31
0.0
  0
LINE
  5
667
330
1A
100
AcDbEntity
  8
SEIHIN
  6
Continuous
 62
     3
 48
16.0
100
AcDbLine
 10
247.7546935786346
 20
230.0233393682949
 30
0.0
 11
247.7546935786346
 21
215.8233393682949
 31
0.0
  0
ARC
  5
668
330
1A
100
AcDbEntity
  8
SEIHIN
  6
Continuous
100
AcDbCircle
 10
247.012803442443
 20
215.823375378599
 30
0.0
 40
2.0
100
AcDbArc
 50
269.999826370638
 51
343.8363114082602
  0
LINE
  5
669
330
1A
100
AcDbEntity
  8
SEIHIN
  6
Continuous
 62
     3
 48
16.0
100
AcDbLine
 10
242.8977935786346
 20
215.0234393682948
 30
0.0
 11
242.8977935786346
 21
213.8235393682949
 31
0.0
  0
ARC
  5
66A
330
1A
100
AcDbEntity
  8
SEIHIN
  6
Continuous
 62
     3
 48
16.0
100
AcDbCircle
 10
245.6404935786346
 20
216.0233393682948
 30
0.0
 40
0.9999999999999147
100
AcDbArc
 50
270.0000000000049
 51
0.0000000000048853
  0
LINE
  5
66B
330
1A
100
AcDbEntity
  8
SEIHIN
  6
Continuous
100
AcDbLine
 10
249.4088424373007
 20
215.7409374423755
 30
0.0
 11
249.2400345618315
 21
216.3233686291911
 31
0.0
  0
LINE
  5
66C
330
1A
100
AcDbEntity
  8
SEIHIN
  6
Continuous
100
AcDbLine
 10
248.9337440513299
 20
215.2666104577127
 30
0.0
 11
249.2400345618315
 21
216.3233686291911
 31
0.0
  0
ARC
  5
66D
330
1A
100
AcDbEntity
  8
SEIHIN
  6
Continuous
100
AcDbCircle
 10
247.968134449828
 20
215.3233724835577
 30
0.0
 40
1.5
100
AcDbArc
 50
269.999826370638
 51
16.16334133301561
  0
LINE
  5
66E
330
1A
100
AcDbEntity
  8
CENTER L
  6
CENTER
 62
     1
 48
5.0
100
AcDbLine
 10
252.7601935786348
 20
227.0233516916299
 30
0.0
 11
247.1489621893702
 21
227.0233516916299
 31
0.0
  0
ARC
  5
66F
330
1A
100
AcDbEntity
  8
SEIHIN
  6
Continuous
 62
     3
 48
16.0
100
AcDbCircle
 10
247.6404935786346
 20
230.0233393682949
 30
0.0
 40
1.0
100
AcDbArc
 50
90.0
 51
180.0
  0
ARC
  5
670
330
1A
100
AcDbEntity
  8
SEIHIN
  6
Continuous
 62
     3
 48
16.0
100
AcDbCircle
 10
248.7546935786347
 20
230.0233393682948
 30
0.0
 40
1.000000000000056
100
AcDbArc
 50
89.99999999999674
 51
179.9999999999967
  0
ARC
  5
673
330
1A
100
AcDbEntity
  8
SEIHIN
  6
Continuous
 62
     3
 48
16.0
100
AcDbCircle
 10
256.8956935786347
 20
215.8233393682948
 30
0.0
 40
1.999999999999914
100
AcDbArc
 50
270.0000000000025
 51
0.0000000000024427
  0
LINE
  5
674
330
1A
100
AcDbEntity
  8
SEIHIN
  6
Continuous
 62
     3
 48
16.0
100
AcDbLine
 10
255.5956935786348
 20
206.5234393682948
 30
0.0
 11
255.5956935786348
 21
200.2233393682948
 31
0.0
  0
LINE
  5
675
330
1A
100
AcDbEntity
  8
SEIHIN
  6
Continuous
100
AcDbLine
 10
257.5790186185905
 20
197.3057700435518
 30
0.0
 11
257.4102089781202
 21
196.7233393682949
 31
0.0
  0
LINE
  5
676
330
1A
100
AcDbEntity
  8
SEIHIN
  6
Continuous
 62
     3
 48
16.0
100
AcDbLine
 10
256.8956935786347
 20
199.2233393682949
 30
0.0
 11
256.5956935786348
 21
199.2233393682949
 31
0.0
  0
ARC
  5
677
330
1A
100
AcDbEntity
  8
SEIHIN
  6
Continuous
 62
     3
 48
16.0
100
AcDbCircle
 10
256.8956935786347
 20
197.2233393682949
 30
0.0
 40
1.999999999999914
100
AcDbArc
 50
359.9999999999976
 51
89.99999999999756
  0
ARC
  5
678
330
1A
100
AcDbEntity
  8
SEIHIN
  6
Continuous
100
AcDbCircle
 10
256.1383118965149
 20
197.7233393682949
 30
0.0
 40
1.5
100
AcDbArc
 50
343.8364850376223
 51
90.0
  0
LINE
  5
679
330
1A
100
AcDbEntity
  8
SEIHIN
  6
Continuous
100
AcDbLine
 10
257.1039216700242
 20
197.7800984679524
 30
0.0
 11
257.4102089781202
 21
196.7233393682949
 31
0.0
  0
LINE
  5
67A
330
1A
100
AcDbEntity
  8
SEIHIN
  6
Continuous
 62
     3
 48
16.0
100
AcDbLine
 10
255.5956935786348
 20
206.5233393682949
 30
0.0
 11
255.5956935786348
 21
212.8233393682949
 31
0.0
  0
LINE
  5
67B
330
1A
100
AcDbEntity
  8
CENTER L
  6
CENTER
 62
     1
 48
5.0
100
AcDbLine
 10
257.4102935786347
 20
230.0419393682949
 30
0.0
 11
257.4102935786347
 21
222.6715393682949
 31
0.0
  0
LINE
  5
67C
330
1A
100
AcDbEntity
  8
SEIHIN
  6
Continuous
 62
     3
 48
16.0
100
AcDbLine
 10
258.8956935786346
 20
230.0233393682949
 30
0.0
 11
258.8956935786346
 21
215.8233393682949
 31
0.0
  0
LINE
  5
67D
330
1A
100
AcDbEntity
  8
SEIHIN
  6
Continuous
100
AcDbLine
 10
257.5790465515559
 20
215.7409126833559
 30
0.0
 11
257.4102386760868
 21
216.3233438701715
 31
0.0
  0
LINE
  5
67E
330
1A
100
AcDbEntity
  8
SEIHIN
  6
Continuous
 62
     3
 48
16.0
100
AcDbLine
 10
256.8956935786347
 20
213.8233393682949
 30
0.0
 11
256.5956935786348
 21
213.8233393682949
 31
0.0
  0
LINE
  5
67F
330
1A
100
AcDbEntity
  8
SEIHIN
  6
Continuous
100
AcDbLine
 10
257.1039481655851
 20
215.2665856986931
 30
0.0
 11
257.4102386760868
 21
216.3233438701715
 31
0.0
  0
ARC
  5
680
330
1A
100
AcDbEntity
  8
SEIHIN
  6
Continuous
100
AcDbCircle
 10
256.1383385640832
 20
215.3233477245381
 30
0.0
 40
1.5
100
AcDbArc
 50
269.999826370638
 51
16.16334133301561
  0
ARC
  5
681
330
1A
100
AcDbEntity
  8
SEIHIN
  6
Continuous
 62
     3
 48
16.0
100
AcDbCircle
 10
257.8956935786346
 20
230.0233393682949
 30
0.0
 40
1.0
100
AcDbArc
 50
0.0
 51
90.0
  0
LINE
  5
8DF
330
1A
100
AcDbEntity
  8
ZUWAKU
100
AcDbLine
 10
104.3233001471241
 20
7.599999679512958
 30
0.0
 11
223.7121814875858
 21
7.599999679512954
 31
0.0
  0
LINE
  5
8E0
330
1A
100
AcDbEntity
  8
ZUWAKU
100
AcDbLine
 10
104.3233001471241
 20
7.799999679512955
 30
0.0
 11
223.7121814875858
 21
7.799999679512959
 31
0.0
  0
LINE
  5
8E1
330
1A
100
AcDbEntity
  8
ZUWAKU
100
AcDbLine
 10
104.3233001471241
 20
7.699999679512956
 30
0.0
 11
223.7121814875858
 21
7.699999679512956
 31
0.0
  0
LINE
  5
8E2
330
1A
100
AcDbEntity
  8
ZUWAKU
100
AcDbLine
 10
-0.0000004979099231
 20
15.39999967951294
 30
0.0
 11
398.69999950209
 21
15.39999967951294
 31
0.0
  0
LINE
  5
8E3
330
1A
100
AcDbEntity
  8
ZUWAKU
100
AcDbLine
 10
-0.0000004979099231
 20
15.29999967951294
 30
0.0
 11
398.69999950209
 21
15.29999967951294
 31
0.0
  0
LINE
  5
8E4
330
1A
100
AcDbEntity
  8
ZUWAKU
100
AcDbLine
 10
-0.0000004979099231
 20
15.19999967951294
 30
0.0
 11
398.69999950209
 21
15.19999967951294
 31
0.0
  0
LINE
  5
8E5
330
1A
100
AcDbEntity
  8
ZUWAKU
100
AcDbLine
 10
-0.0000004979099231
 20
15.09999967951294
 30
0.0
 11
398.69999950209
 21
15.09999967951294
 31
0.0
  0
LINE
  5
8E6
330
1A
100
AcDbEntity
  8
ZUWAKU
100
AcDbLine
 10
-0.0000004979099231
 20
14.99999967951294
 30
0.0
 11
398.69999950209
 21
14.99999967951294
 31
0.0
  0
LWPOLYLINE
  5
8E7
330
1A
100
AcDbEntity
  8
ZUWAKU
100
AcDbPolyline
 90
        4
 70
     1
 43
0.0
 10
0.0999995020900428
 20
275.699999679513
 10
0.0999995020900428
 20
0.0999996795129619
 10
398.69999950209
 20
0.0999996795129734
 10
398.6999995020901
 20
275.699999679513
  0
LWPOLYLINE
  5
8E8
330
1A
100
AcDbEntity
  8
ZUWAKU
100
AcDbPolyline
 90
        4
 70
     1
 43
0.0
 10
0.2999995020900314
 20
275.499999679513
 10
0.2999995020900314
 20
0.2999996795129505
 10
398.4999995020902
 20
0.2999996795129736
 10
398.4999995020901
 20
275.499999679513
  0
LWPOLYLINE
  5
8E9
330
1A
100
AcDbEntity
  8
ZUWAKU
100
AcDbPolyline
 90
        4
 70
     1
 43
0.0
 10
-0.0000004979099231
 20
275.7999996795129
 10
-0.0000004979099231
 20
-0.0000003204870609
 10
398.7999995020901
 20
-0.0000003204870271
 10
398.7999995020901
 20
275.799999679513
  0
LWPOLYLINE
  5
8EA
330
1A
100
AcDbEntity
  8
ZUWAKU
100
AcDbPolyline
 90
        4
 70
     1
 43
0.0
 10
0.1999995020900655
 20
275.599999679513
 10
0.1999995020900655
 20
0.1999996795129846
 10
398.5999995020901
 20
0.199999679512973
 10
398.5999995020901
 20
275.599999679513
  0
LWPOLYLINE
  5
8EB
330
1A
100
AcDbEntity
  8
ZUWAKU
100
AcDbPolyline
 90
        4
 70
     1
 43
0.0
 10
0.3999995020900542
 20
275.399999679513
 10
0.3999995020900542
 20
0.3999996795129732
 10
398.3999995020901
 20
0.3999996795129732
 10
398.3999995020901
 20
275.399999679513
  0
INSERT
  5
8EC
330
1A
100
AcDbEntity
  8
ZUWAKU
  6
Continuous
100
AcDbBlockReference
  2
*X13
 10
0.0
 20
0.0
 30
0.0
1001
ACAD
1000
HATCH
1002
{
1070
    19
1000
ANSI37
1040
0.1
1040
0.0
1000
R14_HATCH_DATA
1000
8EC
1011
1.0
1021
0.0
1031
0.0
1011
0.0
1021
1.0
1031
0.0
1011
0.0
1021
0.0
1031
1.0
1040
0.0
1010
0.0
1020
0.0
1030
1.0
1000
ANSI37
1070
     0
1070
     0
1071
        8
1071
        7
1070
     1
1070
     1
1071
       24
1040
7.251130832650005
1040
8.82242392000473
1040
-0.1989123673796348
1040
7.046105579480638
1040
9.317398666835256
1040
0.0
1040
7.046105579480638
1040
9.962499679512944
1040
-0.4142135623730912
1040
7.308605579480627
1040
10.22499967951294
1040
0.0
1040
8.796105579480581
1040
10.22499967951294
1040
0.4142135623731546
1040
9.058605579480627
1040
10.48749967951293
1040
0.0
1040
9.058605579480627
1040
11.36249967951294
1040
0.4142135623731586
1040
8.796105579480581
1040
11.62499967951294
1040
0.0
1040
7.046105579480638
1040
11.62499967951294
1040
0.4142135623730928
1040
5.646105579480661
1040
10.22499967951295
1040
0.0
1040
5.646105579480661
1040
9.31739866683532
1040
0.1989123673796619
1040
6.261181338988876
1040
7.832474426343516
1040
0.0
1040
7.716080326311214
1040
6.377575439021187
1040
-0.1989123673796613
1040
7.921105579480638
1040
5.882600692190594
1040
0.0
1040
7.921105579480638
1040
5.237499679512936
1040
-0.4142135623730911
1040
7.658605579480649
1040
4.97499967951294
1040
0.0
1040
6.171105579480695
1040
4.97499967951294
1040
0.4142135623731526
1040
5.908605579480649
1040
4.712499679512946
1040
0.0
1040
5.908605579480649
1040
3.837499679512935
1040
0.4142135623731526
1040
6.171105579480695
1040
3.574999679512941
1040
0.0
1040
7.921105579480638
1040
3.574999679512941
1040
0.4142135623731044
1040
9.321105579480672
1040
4.974999679512929
1040
0.0
1040
9.321105579480672
1040
5.882600692190566
1040
0.1989123673796604
1040
8.7060298199724
1040
7.367524932682336
1040
0.0
1071
        0
1071
        7
1070
     1
1070
     1
1071
       16
1040
11.77110557948066
1040
9.524999679512944
1040
-0.4142135623730935
1040
12.47110557948065
1040
10.22499967951294
1040
0.0
1040
13.43360557948062
1040
10.22499967951294
1040
0.4142135623731546
1040
13.69610557948067
1040
10.48749967951293
1040
0.0
1040
13.69610557948067
1040
11.36249967951294
1040
0.4142135623730951
1040
13.43360557948068
1040
11.62499967951294
1040
0.0
1040
12.47110557948059
1040
11.62499967951292
1040
0.4142135623730892
1040
10.37110557948063
1040
9.524999679512909
1040
0.0
1040
10.37110557948063
1040
5.674999679512954
1040
0.4142135623730969
1040
12.47110557948065
1040
3.574999679512941
1040
0.0
1040
13.43360557948062
1040
3.574999679512941
1040
0.4142135623731526
1040
13.69610557948067
1040
3.837499679512935
1040
0.0
1040
13.69610557948067
1040
4.712499679512946
1040
0.4142135623730891
1040
13.43360557948068
1040
4.97499967951294
1040
0.0
1040
12.47110557948065
1040
4.97499967951294
1040
-0.4142135623730928
1040
11.77110557948066
1040
5.674999679512934
1040
0.0
1071
        0
1071
        7
1070
     1
1070
     1
1071
        2
1040
12.12110557948063
1040
7.59999967951294
1040
1.0
1040
13.87110557948062
1040
7.59999967951294
1040
1.0
1071
        0
1071
        7
1070
     1
1070
     1
1071
       26
1040
18.65742882056963
1040
9.602523276294654
1040
0.0
1040
19.18824863713854
1040
11.28345269542945
1040
0.5069206636600134
1040
18.93793318754086
1040
11.62499967951294
1040
0.0
1040
18.08848849773625
1040
11.62499967951294
1040
0.3272098845218764
1040
17.83817304813857
1040
11.44154666359642
1040
0.0
1040
16.90403811082268
1040
8.48345269542948
1040
-0.3272098845219541
1040
16.65372266122495
1040
8.299999679512939
1040
0.0
1040
16.58360557948071
1040
8.299999679512939
1040
-0.4142135623731526
1040
16.32110557948067
1040
8.562499679512933
1040
0.0
1040
16.32110557948067
1040
11.36249967951294
1040
0.4142135623730951
1040
16.05860557948068
1040
11.62499967951294
1040
0.0
1040
15.18360557948063
1040
11.62499967951294
1040
0.4142135623730871
1040
14.92110557948064
1040
11.36249967951295
1040
0.0
1040
14.92110557948064
1040
3.837499679512935
1040
0.4142135623730891
1040
15.18360557948063
1040
3.574999679512941
1040
0.0
1040
16.05860557948062
1040
3.574999679512941
1040
0.4142135623731526
1040
16.32110557948067
1040
3.837499679512935
1040
0.0
1040
16.32110557948067
1040
6.637499679512947
1040
-0.4142135623731526
1040
16.58360557948071
1040
6.899999679512941
1040
0.0
1040
16.653722661225
1040
6.899999679512941
1040
-0.3272098845218915
1040
16.90403811082268
1040
6.716546663596403
1040
0.0
1040
17.83817304813857
1040
3.758452695429477
1040
0.3272098845218902
1040
18.08848849773625
1040
3.574999679512941
1040
0.0
1040
18.93793318754086
1040
3.574999679512941
1040
0.5069206636600335
1040
19.18824863713854
1040
3.916546663596445
1040
0.0
1040
18.02505294790171
1040
7.599999679513009
1040
0.0
1071
        0
1071
        7
1070
     1
1070
     1
1071
        8
1040
21.74610557948063
1040
11.36249967951294
1040
0.4142135623731546
1040
21.48360557948058
1040
11.62499967951294
1040
0.0
1040
20.60860557948069
1040
11.62499967951294
1040
0.4142135623731507
1040
20.34610557948065
1040
11.36249967951295
1040
0.0
1040
20.34610557948065
1040
3.837499679512935
1040
0.4142135623731526
1040
20.60860557948069
1040
3.574999679512941
1040
0.0
1040
21.48360557948058
1040
3.574999679512941
1040
0.4142135623731526
1040
21.74610557948063
1040
3.837499679512935
1040
0.0
1071
        0
1071
        7
1070
     1
1070
     1
1071
       24
1040
24.19610557948067
1040
9.962499679512944
1040
-0.4142135623731546
1040
24.45860557948072
1040
10.22499967951294
1040
0.0
1040
25.94610557948068
1040
10.22499967951294
1040
0.4142135623730911
1040
26.20860557948066
1040
10.48749967951293
1040
0.0
1040
26.20860557948066
1040
11.36249967951294
1040
0.4142135623730952
1040
25.94610557948068
1040
11.62499967951294
1040
0.0
1040
24.19610557948067
1040
11.62499967951294
1040
0.4142135623731048
1040
22.79610557948064
1040
10.22499967951295
1040
0.0
1040
22.79610557948064
1040
9.31739866683532
1040
0.1989123673796613
1040
23.41118133898891
1040
7.832474426343544
1040
0.0
1040
24.86608032631125
1040
6.37757543902121
1040
-0.1989123673796402
1040
25.07110557948067
1040
5.882600692190674
1040
0.0
1040
25.07110557948067
1040
5.237499679512936
1040
-0.4142135623730911
1040
24.80860557948068
1040
4.97499967951294
1040
0.0
1040
23.32110557948067
1040
4.97499967951294
1040
0.4142135623731526
1040
23.05860557948063
1040
4.712499679512946
1040
0.0
1040
23.05860557948063
1040
3.837499679512935
1040
0.4142135623730891
1040
23.32110557948062
1040
3.574999679512941
1040
0.0
1040
25.07110557948067
1040
3.574999679512941
1040
0.4142135623730925
1040
26.47110557948065
1040
4.974999679512929
1040
0.0
1040
26.47110557948065
1040
5.882600692190566
1040
0.1989123673796675
1040
25.85602981997238
1040
7.367524932682393
1040
0.0
1040
24.4011308326501
1040
8.82242392000465
1040
-0.1989123673796652
1040
24.19610557948067
1040
9.317398666835234
1040
0.0
1071
        0
1071
        7
1070
     1
1070
     1
1071
       16
1040
28.92110557948064
1040
11.36249967951293
1040
0.414213562373103
1040
28.65860557948065
1040
11.62499967951294
1040
0.0
1040
27.78360557948065
1040
11.62499967951294
1040
0.4142135623730871
1040
27.52110557948066
1040
11.36249967951295
1040
0.0
1040
27.52110557948066
1040
4.974999679512929
1040
0.4142135623730926
1040
28.92110557948064
1040
3.574999679512941
1040
0.0
1040
30.67110557948064
1040
3.574999679512941
1040
0.4142135623731044
1040
32.07110557948067
1040
4.974999679512929
1040
0.0
1040
32.07110557948067
1040
11.36249967951294
1040
0.4142135623730951
1040
31.80860557948069
1040
11.62499967951294
1040
0.0
1040
30.93360557948063
1040
11.62499967951294
1040
0.4142135623730871
1040
30.67110557948064
1040
11.36249967951295
1040
0.0
1040
30.67110557948064
1040
5.499999679512928
1040
-0.414213562373088
1040
30.14610557948066
1040
4.97499967951294
1040
0.0
1040
29.44610557948067
1040
4.97499967951294
1040
-0.4142135623731197
1040
28.92110557948064
1040
5.499999679512928
1040
0.0
1071
        0
1071
        7
1070
     1
1070
     1
1071
        8
1040
34.52110557948066
1040
11.36249967951295
1040
0.4142135623730871
1040
34.25860557948067
1040
11.62499967951294
1040
0.0
1040
33.38360557948067
1040
11.62499967951294
1040
0.4142135623731507
1040
33.12110557948063
1040
11.36249967951295
1040
0.0
1040
33.12110557948063
1040
3.837499679512935
1040
0.4142135623730891
1040
33.38360557948062
1040
3.574999679512941
1040
0.0
1040
34.25860557948067
1040
3.574999679512941
1040
0.4142135623730891
1040
34.52110557948066
1040
3.837499679512935
1040
0.0
1071
        0
1070
     0
1070
     1
1040
0.0
1040
0.1
1070
     0
1070
     2
1040
0.7853981633974483
1040
-450.4711526652494
1040
-6.600000320487026
1040
-0.2245064030267288
1040
0.2245064030267288
1070
     0
1040
2.356194490192344
1040
-450.4711526652494
1040
-6.600000320487026
1040
-0.2245064030267288
1040
-0.2245064030267288
1070
     0
1040
0.057451373970553
1071
        8
1040
8.039926983601731
1040
7.583586502455716
1040
0.0
1040
11.20225700530966
1040
9.422030770738444
1040
0.0
1040
12.5821834449199
1040
7.755940502548298
1040
0.0
1040
15.45702949290864
1040
8.10064850273369
1040
0.0
1040
20.91923551156845
1040
8.330454636504498
1040
0.0
1040
23.44909994965485
1040
9.709287837716544
1040
0.0
1040
28.27884248829025
1040
9.364578637060446
1040
0.0
1040
33.91353931190145
1040
9.594384770831254
1040
0.0
1002
}
  0
LINE
  5
8ED
330
1A
100
AcDbEntity
  8
ZUWAKU
100
AcDbLine
 10
12.47110557948065
 20
11.62499967951292
 30
0.0
 11
13.43360557948062
 21
11.62499967951294
 31
0.0
  0
LINE
  5
8EE
330
1A
100
AcDbEntity
  8
ZUWAKU
100
AcDbLine
 10
13.43360557948062
 20
10.22499967951294
 30
0.0
 11
12.47110557948065
 21
10.22499967951294
 31
0.0
  0
LINE
  5
8EF
330
1A
100
AcDbEntity
  8
ZUWAKU
100
AcDbLine
 10
12.47110557948065
 20
4.97499967951294
 30
0.0
 11
13.43360557948062
 21
4.97499967951294
 31
0.0
  0
LINE
  5
8F0
330
1A
100
AcDbEntity
  8
ZUWAKU
100
AcDbLine
 10
13.43360557948062
 20
3.574999679512941
 30
0.0
 11
12.47110557948065
 21
3.574999679512941
 31
0.0
  0
CIRCLE
  5
8F1
330
1A
100
AcDbEntity
  8
ZUWAKU
100
AcDbCircle
 10
12.99610557948063
 20
7.59999967951294
 30
0.0
 40
0.875
  0
ARC
  5
8F2
330
1A
100
AcDbEntity
  8
ZUWAKU
100
AcDbCircle
 10
7.746105579480627
 20
9.317398666835291
 30
0.0
 40
0.7
100
AcDbArc
 50
180.0000000000016
 51
224.9999999999988
  0
LINE
  5
8F3
330
1A
100
AcDbEntity
  8
ZUWAKU
100
AcDbLine
 10
11.77110557948066
 20
9.524999679512941
 30
0.0
 11
11.77110557948066
 21
5.674999679512943
 31
0.0
  0
LINE
  5
8F4
330
1A
100
AcDbEntity
  8
ZUWAKU
100
AcDbLine
 10
10.37110557948063
 20
5.674999679512943
 30
0.0
 11
10.37110557948063
 21
9.524999679512919
 31
0.0
  0
ARC
  5
8F5
330
1A
100
AcDbEntity
  8
ZUWAKU
100
AcDbCircle
 10
7.746105579480627
 20
9.317398666835291
 30
0.0
 40
2.099999999999999
100
AcDbArc
 50
180.0
 51
225.0
  0
ARC
  5
8F6
330
1A
100
AcDbEntity
  8
ZUWAKU
100
AcDbCircle
 10
7.921105579480638
 20
4.97499967951294
 30
0.0
 40
1.399999999999999
100
AcDbArc
 50
270.0
 51
0.0
  0
ARC
  5
8F7
330
1A
100
AcDbEntity
  8
ZUWAKU
100
AcDbCircle
 10
12.47110557948065
 20
5.674999679512943
 30
0.0
 40
2.099999999999999
100
AcDbArc
 50
180.0
 51
270.0
  0
ARC
  5
8F8
330
1A
100
AcDbEntity
  8
ZUWAKU
100
AcDbCircle
 10
7.221105579480649
 20
5.882600692190592
 30
0.0
 40
2.099999999999999
100
AcDbArc
 50
0.0
 51
45.0
  0
LINE
  5
8F9
330
1A
100
AcDbEntity
  8
ZUWAKU
100
AcDbLine
 10
8.7060298199724
 20
7.367524932682353
 30
0.0
 11
7.251130832650062
 21
8.822423920004691
 31
0.0
  0
LINE
  5
8FA
330
1A
100
AcDbEntity
  8
ZUWAKU
100
AcDbLine
 10
7.921105579480638
 20
5.237499679512943
 30
0.0
 11
7.921105579480638
 21
5.882600692190614
 31
0.0
  0
ARC
  5
8FB
330
1A
100
AcDbEntity
  8
ZUWAKU
100
AcDbCircle
 10
7.658605579480649
 20
5.237499679512943
 30
0.0
 40
0.2625
100
AcDbArc
 50
270.0
 51
0.0
  0
ARC
  5
8FC
330
1A
100
AcDbEntity
  8
ZUWAKU
100
AcDbCircle
 10
7.221105579480649
 20
5.882600692190614
 30
0.0
 40
0.7
100
AcDbArc
 50
0.0
 51
45.0
  0
LINE
  5
8FD
330
1A
100
AcDbEntity
  8
ZUWAKU
100
AcDbLine
 10
5.908605579480649
 20
3.837499679512941
 30
0.0
 11
5.908605579480649
 21
4.712499679512941
 31
0.0
  0
ARC
  5
8FE
330
1A
100
AcDbEntity
  8
ZUWAKU
100
AcDbCircle
 10
6.171105579480638
 20
3.837499679512941
 30
0.0
 40
0.2625
100
AcDbArc
 50
180.0
 51
270.0
  0
ARC
  5
8FF
330
1A
100
AcDbEntity
  8
ZUWAKU
100
AcDbCircle
 10
6.171105579480638
 20
4.712499679512941
 30
0.0
 40
0.2625
100
AcDbArc
 50
90.0
 51
180.0
  0
LINE
  5
900
330
1A
100
AcDbEntity
  8
ZUWAKU
100
AcDbLine
 10
6.171105579480638
 20
3.574999679512941
 30
0.0
 11
7.921105579480638
 21
3.574999679512941
 31
0.0
  0
LINE
  5
901
330
1A
100
AcDbEntity
  8
ZUWAKU
100
AcDbLine
 10
6.171105579480638
 20
4.97499967951294
 30
0.0
 11
7.658605579480649
 21
4.97499967951294
 31
0.0
  0
LINE
  5
902
330
1A
100
AcDbEntity
  8
ZUWAKU
100
AcDbLine
 10
6.261181338988876
 20
7.83247442634353
 30
0.0
 11
7.716080326311214
 21
6.3775754390212
 31
0.0
  0
LINE
  5
903
330
1A
100
AcDbEntity
  8
ZUWAKU
100
AcDbLine
 10
9.321105579480672
 20
4.97499967951294
 30
0.0
 11
9.321105579480672
 21
5.882600692190614
 31
0.0
  0
ARC
  5
904
330
1A
100
AcDbEntity
  8
ZUWAKU
100
AcDbCircle
 10
12.47110557948065
 20
5.674999679512943
 30
0.0
 40
0.7
100
AcDbArc
 50
180.0
 51
270.0
  0
ARC
  5
905
330
1A
100
AcDbEntity
  8
ZUWAKU
100
AcDbCircle
 10
8.796105579480638
 20
11.36249967951294
 30
0.0
 40
0.2625
100
AcDbArc
 50
0.0
 51
90.0
  0
ARC
  5
906
330
1A
100
AcDbEntity
  8
ZUWAKU
100
AcDbCircle
 10
8.796105579480638
 20
10.48749967951294
 30
0.0
 40
0.2625
100
AcDbArc
 50
270.0
 51
0.0
  0
LINE
  5
907
330
1A
100
AcDbEntity
  8
ZUWAKU
100
AcDbLine
 10
7.046105579480638
 20
11.62499967951294
 30
0.0
 11
8.796105579480638
 21
11.62499967951294
 31
0.0
  0
ARC
  5
908
330
1A
100
AcDbEntity
  8
ZUWAKU
100
AcDbCircle
 10
7.308605579480627
 20
9.962499679512941
 30
0.0
 40
0.2625
100
AcDbArc
 50
90.0
 51
180.0
  0
LINE
  5
909
330
1A
100
AcDbEntity
  8
ZUWAKU
100
AcDbLine
 10
7.046105579480638
 20
9.962499679512941
 30
0.0
 11
7.046105579480638
 21
9.31739866683527
 31
0.0
  0
LINE
  5
90A
330
1A
100
AcDbEntity
  8
ZUWAKU
100
AcDbLine
 10
8.796105579480638
 20
10.22499967951294
 30
0.0
 11
7.308605579480627
 21
10.22499967951294
 31
0.0
  0
LINE
  5
90B
330
1A
100
AcDbEntity
  8
ZUWAKU
100
AcDbLine
 10
5.646105579480661
 20
10.22499967951294
 30
0.0
 11
5.646105579480661
 21
9.31739866683527
 31
0.0
  0
ARC
  5
90C
330
1A
100
AcDbEntity
  8
ZUWAKU
100
AcDbCircle
 10
7.046105579480638
 20
10.22499967951294
 30
0.0
 40
1.399999999999999
100
AcDbArc
 50
90.0
 51
180.0
  0
LINE
  5
90D
330
1A
100
AcDbEntity
  8
ZUWAKU
100
AcDbLine
 10
9.058605579480627
 20
11.36249967951294
 30
0.0
 11
9.058605579480627
 21
10.48749967951294
 31
0.0
  0
ARC
  5
90E
330
1A
100
AcDbEntity
  8
ZUWAKU
100
AcDbCircle
 10
12.47110557948065
 20
9.524999679512941
 30
0.0
 40
0.7
100
AcDbArc
 50
90.0
 51
180.0
  0
ARC
  5
90F
330
1A
100
AcDbEntity
  8
ZUWAKU
100
AcDbCircle
 10
12.47110557948065
 20
9.524999679512919
 30
0.0
 40
2.099999999999999
100
AcDbArc
 50
90.0
 51
180.0
  0
TEXT
  5
910
330
1A
100
AcDbEntity
  8
moji
100
AcDbText
 10
46.47889429617464
 20
6.370588744650319
 30
0.0
 40
3.0
  1
ライナートップ
 41
0.9
  7
ｽﾀｲﾙ1
100
AcDbText
  0
LINE
  5
911
330
1A
100
AcDbEntity
  8
ZUWAKU
100
AcDbLine
 10
39.66331427608418
 20
14.99999967951294
 30
0.0
 11
39.66331427608429
 21
0.3999996795129732
 31
0.0
  0
LINE
  5
912
330
1A
100
AcDbEntity
  8
ZUWAKU
100
AcDbLine
 10
39.7633142760842
 20
14.99999967951294
 30
0.0
 11
39.76331427608432
 21
0.3999996795129732
 31
0.0
  0
LINE
  5
913
330
1A
100
AcDbEntity
  8
ZUWAKU
100
AcDbLine
 10
39.56331427608427
 20
14.99999967951294
 30
0.0
 11
39.56331427608427
 21
0.3999996795129732
 31
0.0
  0
LINE
  5
914
330
1A
100
AcDbEntity
  8
ZUWAKU
100
AcDbLine
 10
32.07110557948067
 20
4.97499967951294
 30
0.0
 11
32.07110557948067
 21
11.36249967951294
 31
0.0
  0
LINE
  5
915
330
1A
100
AcDbEntity
  8
ZUWAKU
100
AcDbLine
 10
30.67110557948064
 20
11.36249967951294
 30
0.0
 11
30.67110557948064
 21
5.499999679512939
 31
0.0
  0
LINE
  5
916
330
1A
100
AcDbEntity
  8
ZUWAKU
100
AcDbLine
 10
34.52110557948066
 20
3.837499679512941
 30
0.0
 11
34.52110557948066
 21
11.36249967951294
 31
0.0
  0
LINE
  5
917
330
1A
100
AcDbEntity
  8
ZUWAKU
100
AcDbLine
 10
33.12110557948063
 20
11.36249967951294
 30
0.0
 11
33.12110557948063
 21
3.837499679512941
 31
0.0
  0
ARC
  5
918
330
1A
100
AcDbEntity
  8
ZUWAKU
100
AcDbCircle
 10
24.89610557948066
 20
9.317398666835291
 30
0.0
 40
0.7
100
AcDbArc
 50
180.0000000000016
 51
224.9999999999988
  0
ARC
  5
919
330
1A
100
AcDbEntity
  8
ZUWAKU
100
AcDbCircle
 10
24.89610557948066
 20
9.317398666835291
 30
0.0
 40
2.099999999999999
100
AcDbArc
 50
180.0
 51
225.0
  0
LINE
  5
91A
330
1A
100
AcDbEntity
  8
ZUWAKU
100
AcDbLine
 10
18.65742882056963
 20
9.602523276294654
 30
0.0
 11
18.02505294790171
 21
7.599999679512951
 31
0.0
  0
LINE
  5
91B
330
1A
100
AcDbEntity
  8
ZUWAKU
100
AcDbLine
 10
20.34610557948065
 20
11.36249967951294
 30
0.0
 11
20.34610557948065
 21
3.837499679512941
 31
0.0
  0
LINE
  5
91C
330
1A
100
AcDbEntity
  8
ZUWAKU
100
AcDbLine
 10
21.74610557948063
 20
3.837499679512941
 30
0.0
 11
21.74610557948063
 21
11.36249967951294
 31
0.0
  0
LINE
  5
91D
330
1A
100
AcDbEntity
  8
ZUWAKU
100
AcDbLine
 10
27.52110557948066
 20
11.36249967951294
 30
0.0
 11
27.52110557948066
 21
4.97499967951294
 31
0.0
  0
LINE
  5
91E
330
1A
100
AcDbEntity
  8
ZUWAKU
100
AcDbLine
 10
28.92110557948064
 20
5.499999679512939
 30
0.0
 11
28.92110557948064
 21
11.36249967951294
 31
0.0
  0
LINE
  5
91F
330
1A
100
AcDbEntity
  8
ZUWAKU
100
AcDbLine
 10
16.32110557948067
 20
8.562499679512942
 30
0.0
 11
16.32110557948067
 21
11.36249967951294
 31
0.0
  0
LINE
  5
920
330
1A
100
AcDbEntity
  8
ZUWAKU
100
AcDbLine
 10
14.92110557948064
 20
11.36249967951294
 30
0.0
 11
14.92110557948064
 21
3.837499679512941
 31
0.0
  0
LINE
  5
921
330
1A
100
AcDbEntity
  8
ZUWAKU
100
AcDbLine
 10
17.83817304813857
 20
11.44154666359642
 30
0.0
 11
16.90403811082268
 21
8.483452695429456
 31
0.0
  0
LINE
  5
922
330
1A
100
AcDbEntity
  8
ZUWAKU
100
AcDbLine
 10
30.14610557948066
 20
4.97499967951294
 30
0.0
 11
29.44610557948067
 21
4.97499967951294
 31
0.0
  0
LINE
  5
923
330
1A
100
AcDbEntity
  8
ZUWAKU
100
AcDbLine
 10
28.92110557948064
 20
3.574999679512941
 30
0.0
 11
30.67110557948064
 21
3.574999679512941
 31
0.0
  0
LINE
  5
924
330
1A
100
AcDbEntity
  8
ZUWAKU
100
AcDbLine
 10
20.60860557948064
 20
3.574999679512941
 30
0.0
 11
21.48360557948064
 21
3.574999679512941
 31
0.0
  0
LINE
  5
925
330
1A
100
AcDbEntity
  8
ZUWAKU
100
AcDbLine
 10
17.83817304813857
 20
3.758452695429454
 30
0.0
 11
16.90403811082268
 21
6.716546663596425
 31
0.0
  0
ARC
  5
926
330
1A
100
AcDbEntity
  8
ZUWAKU
100
AcDbCircle
 10
16.653722661225
 20
8.562499679512942
 30
0.0
 40
0.2625
100
AcDbArc
 50
270.0
 51
342.474431626277
  0
LINE
  5
927
330
1A
100
AcDbEntity
  8
ZUWAKU
100
AcDbLine
 10
16.653722661225
 20
8.299999679512939
 30
0.0
 11
16.58360557948066
 21
8.299999679512939
 31
0.0
  0
LINE
  5
928
330
1A
100
AcDbEntity
  8
ZUWAKU
100
AcDbLine
 10
16.58360557948066
 20
6.899999679512941
 30
0.0
 11
16.653722661225
 21
6.899999679512941
 31
0.0
  0
ARC
  5
929
330
1A
100
AcDbEntity
  8
ZUWAKU
100
AcDbCircle
 10
16.58360557948066
 20
8.562499679512942
 30
0.0
 40
0.2625
100
AcDbArc
 50
180.0
 51
270.0
  0
LINE
  5
92A
330
1A
100
AcDbEntity
  8
ZUWAKU
100
AcDbLine
 10
15.18360557948063
 20
3.574999679512941
 30
0.0
 11
16.05860557948062
 21
3.574999679512941
 31
0.0
  0
ARC
  5
92B
330
1A
100
AcDbEntity
  8
ZUWAKU
100
AcDbCircle
 10
16.05860557948062
 20
3.837499679512941
 30
0.0
 40
0.2625
100
AcDbArc
 50
270.0
 51
0.0
  0
LINE
  5
92C
330
1A
100
AcDbEntity
  8
ZUWAKU
100
AcDbLine
 10
16.32110557948067
 20
3.837499679512941
 30
0.0
 11
16.32110557948067
 21
6.637499679512941
 31
0.0
  0
LINE
  5
92D
330
1A
100
AcDbEntity
  8
ZUWAKU
100
AcDbLine
 10
13.69610557948067
 20
4.712499679512941
 30
0.0
 11
13.69610557948067
 21
3.837499679512941
 31
0.0
  0
ARC
  5
92E
330
1A
100
AcDbEntity
  8
ZUWAKU
100
AcDbCircle
 10
13.43360557948062
 20
3.837499679512941
 30
0.0
 40
0.2625
100
AcDbArc
 50
270.0
 51
0.0
  0
ARC
  5
92F
330
1A
100
AcDbEntity
  8
ZUWAKU
100
AcDbCircle
 10
13.43360557948062
 20
4.712499679512941
 30
0.0
 40
0.2625
100
AcDbArc
 50
0.0
 51
90.0
  0
ARC
  5
930
330
1A
100
AcDbEntity
  8
ZUWAKU
100
AcDbCircle
 10
15.18360557948063
 20
3.837499679512941
 30
0.0
 40
0.2625
100
AcDbArc
 50
180.0
 51
270.0
  0
ARC
  5
931
330
1A
100
AcDbEntity
  8
ZUWAKU
100
AcDbCircle
 10
16.653722661225
 20
6.637499679512941
 30
0.0
 40
0.2625
100
AcDbArc
 50
17.52556837372303
 51
90.0
  0
ARC
  5
932
330
1A
100
AcDbEntity
  8
ZUWAKU
100
AcDbCircle
 10
16.58360557948066
 20
6.637499679512941
 30
0.0
 40
0.2625
100
AcDbArc
 50
90.0
 51
180.0
  0
ARC
  5
933
330
1A
100
AcDbEntity
  8
ZUWAKU
100
AcDbCircle
 10
20.60860557948064
 20
3.837499679512941
 30
0.0
 40
0.2625
100
AcDbArc
 50
180.0
 51
270.0
  0
LINE
  5
934
330
1A
100
AcDbEntity
  8
ZUWAKU
100
AcDbLine
 10
18.08848849773631
 20
3.574999679512941
 30
0.0
 11
18.93793318754081
 21
3.574999679512941
 31
0.0
  0
ARC
  5
935
330
1A
100
AcDbEntity
  8
ZUWAKU
100
AcDbCircle
 10
18.93793318754081
 20
3.837499679512941
 30
0.0
 40
0.2625
100
AcDbArc
 50
270.0
 51
17.52556837372303
  0
LINE
  5
936
330
1A
100
AcDbEntity
  8
ZUWAKU
100
AcDbLine
 10
19.18824863713854
 20
3.916546663596427
 30
0.0
 11
18.02505294790171
 21
7.599999679512951
 31
0.0
  0
ARC
  5
937
330
1A
100
AcDbEntity
  8
ZUWAKU
100
AcDbCircle
 10
18.08848849773631
 20
3.837499679512941
 30
0.0
 40
0.2625
100
AcDbArc
 50
197.525568373723
 51
270.0
  0
ARC
  5
938
330
1A
100
AcDbEntity
  8
ZUWAKU
100
AcDbCircle
 10
28.92110557948064
 20
4.97499967951294
 30
0.0
 40
1.399999999999999
100
AcDbArc
 50
180.0
 51
270.0
  0
ARC
  5
939
330
1A
100
AcDbEntity
  8
ZUWAKU
100
AcDbCircle
 10
25.07110557948067
 20
4.97499967951294
 30
0.0
 40
1.399999999999999
100
AcDbArc
 50
270.0
 51
0.0
  0
LINE
  5
93A
330
1A
100
AcDbEntity
  8
ZUWAKU
100
AcDbLine
 10
25.85602981997244
 20
7.367524932682353
 30
0.0
 11
24.40113083265004
 21
8.822423920004691
 31
0.0
  0
LINE
  5
93B
330
1A
100
AcDbEntity
  8
ZUWAKU
100
AcDbLine
 10
25.07110557948067
 20
5.237499679512943
 30
0.0
 11
25.07110557948067
 21
5.882600692190614
 31
0.0
  0
ARC
  5
93C
330
1A
100
AcDbEntity
  8
ZUWAKU
100
AcDbCircle
 10
24.37110557948063
 20
5.882600692190614
 30
0.0
 40
0.7
100
AcDbArc
 50
0.0
 51
45.0
  0
ARC
  5
93D
330
1A
100
AcDbEntity
  8
ZUWAKU
100
AcDbCircle
 10
24.80860557948063
 20
5.237499679512943
 30
0.0
 40
0.2625
100
AcDbArc
 50
270.0
 51
0.0
  0
LINE
  5
93E
330
1A
100
AcDbEntity
  8
ZUWAKU
100
AcDbLine
 10
23.05860557948063
 20
3.837499679512941
 30
0.0
 11
23.05860557948063
 21
4.712499679512941
 31
0.0
  0
ARC
  5
93F
330
1A
100
AcDbEntity
  8
ZUWAKU
100
AcDbCircle
 10
23.32110557948067
 20
3.837499679512941
 30
0.0
 40
0.2625
100
AcDbArc
 50
180.0
 51
270.0
  0
ARC
  5
940
330
1A
100
AcDbEntity
  8
ZUWAKU
100
AcDbCircle
 10
21.48360557948064
 20
3.837499679512941
 30
0.0
 40
0.2625
100
AcDbArc
 50
270.0
 51
0.0
  0
ARC
  5
941
330
1A
100
AcDbEntity
  8
ZUWAKU
100
AcDbCircle
 10
23.32110557948067
 20
4.712499679512941
 30
0.0
 40
0.2625
100
AcDbArc
 50
90.0
 51
180.0
  0
LINE
  5
942
330
1A
100
AcDbEntity
  8
ZUWAKU
100
AcDbLine
 10
23.32110557948067
 20
4.97499967951294
 30
0.0
 11
24.80860557948063
 21
4.97499967951294
 31
0.0
  0
LINE
  5
943
330
1A
100
AcDbEntity
  8
ZUWAKU
100
AcDbLine
 10
23.32110557948067
 20
3.574999679512941
 30
0.0
 11
25.07110557948067
 21
3.574999679512941
 31
0.0
  0
LINE
  5
944
330
1A
100
AcDbEntity
  8
ZUWAKU
100
AcDbLine
 10
23.41118133898891
 20
7.83247442634353
 30
0.0
 11
24.86608032631125
 21
6.3775754390212
 31
0.0
  0
LINE
  5
945
330
1A
100
AcDbEntity
  8
ZUWAKU
100
AcDbLine
 10
26.47110557948065
 20
4.97499967951294
 30
0.0
 11
26.47110557948065
 21
5.882600692190614
 31
0.0
  0
ARC
  5
946
330
1A
100
AcDbEntity
  8
ZUWAKU
100
AcDbCircle
 10
24.37110557948063
 20
5.882600692190592
 30
0.0
 40
2.099999999999999
100
AcDbArc
 50
0.0
 51
45.0
  0
ARC
  5
947
330
1A
100
AcDbEntity
  8
ZUWAKU
100
AcDbCircle
 10
29.44610557948067
 20
5.499999679512939
 30
0.0
 40
0.525
100
AcDbArc
 50
180.0
 51
270.0
  0
ARC
  5
948
330
1A
100
AcDbEntity
  8
ZUWAKU
100
AcDbCircle
 10
30.67110557948064
 20
4.97499967951294
 30
0.0
 40
1.399999999999999
100
AcDbArc
 50
270.0
 51
0.0
  0
LINE
  5
949
330
1A
100
AcDbEntity
  8
ZUWAKU
100
AcDbLine
 10
33.38360557948067
 20
3.574999679512941
 30
0.0
 11
34.25860557948067
 21
3.574999679512941
 31
0.0
  0
ARC
  5
94A
330
1A
100
AcDbEntity
  8
ZUWAKU
100
AcDbCircle
 10
33.38360557948067
 20
3.837499679512941
 30
0.0
 40
0.2625
100
AcDbArc
 50
180.0
 51
270.0
  0
ARC
  5
94B
330
1A
100
AcDbEntity
  8
ZUWAKU
100
AcDbCircle
 10
30.14610557948066
 20
5.499999679512939
 30
0.0
 40
0.525
100
AcDbArc
 50
270.0
 51
0.0
  0
ARC
  5
94C
330
1A
100
AcDbEntity
  8
ZUWAKU
100
AcDbCircle
 10
34.25860557948067
 20
3.837499679512941
 30
0.0
 40
0.2625
100
AcDbArc
 50
270.0
 51
0.0
  0
LINE
  5
94D
330
1A
100
AcDbEntity
  8
ZUWAKU
100
AcDbLine
 10
21.48360557948064
 20
11.62499967951294
 30
0.0
 11
20.60860557948064
 21
11.62499967951294
 31
0.0
  0
ARC
  5
94E
330
1A
100
AcDbEntity
  8
ZUWAKU
100
AcDbCircle
 10
16.05860557948062
 20
11.36249967951294
 30
0.0
 40
0.2625
100
AcDbArc
 50
0.0
 51
90.0
  0
LINE
  5
94F
330
1A
100
AcDbEntity
  8
ZUWAKU
100
AcDbLine
 10
16.05860557948062
 20
11.62499967951294
 30
0.0
 11
15.18360557948063
 21
11.62499967951294
 31
0.0
  0
ARC
  5
950
330
1A
100
AcDbEntity
  8
ZUWAKU
100
AcDbCircle
 10
13.43360557948062
 20
11.36249967951294
 30
0.0
 40
0.2625
100
AcDbArc
 50
0.0
 51
90.0
  0
ARC
  5
951
330
1A
100
AcDbEntity
  8
ZUWAKU
100
AcDbCircle
 10
15.18360557948063
 20
11.36249967951294
 30
0.0
 40
0.2625
100
AcDbArc
 50
90.0
 51
180.0
  0
ARC
  5
952
330
1A
100
AcDbEntity
  8
ZUWAKU
100
AcDbCircle
 10
13.43360557948062
 20
10.48749967951294
 30
0.0
 40
0.2625
100
AcDbArc
 50
270.0
 51
0.0
  0
LINE
  5
953
330
1A
100
AcDbEntity
  8
ZUWAKU
100
AcDbLine
 10
13.69610557948067
 20
11.36249967951294
 30
0.0
 11
13.69610557948067
 21
10.48749967951294
 31
0.0
  0
ARC
  5
954
330
1A
100
AcDbEntity
  8
ZUWAKU
100
AcDbCircle
 10
20.60860557948064
 20
11.36249967951294
 30
0.0
 40
0.2625
100
AcDbArc
 50
90.0
 51
180.0
  0
LINE
  5
955
330
1A
100
AcDbEntity
  8
ZUWAKU
100
AcDbLine
 10
18.08848849773631
 20
11.62499967951294
 30
0.0
 11
18.93793318754081
 21
11.62499967951294
 31
0.0
  0
ARC
  5
956
330
1A
100
AcDbEntity
  8
ZUWAKU
100
AcDbCircle
 10
18.93793318754081
 20
11.36249967951294
 30
0.0
 40
0.2625
100
AcDbArc
 50
342.474431626277
 51
90.0
  0
LINE
  5
957
330
1A
100
AcDbEntity
  8
ZUWAKU
100
AcDbLine
 10
19.18824863713854
 20
11.28345269542945
 30
0.0
 11
18.65742882056963
 21
9.602523276294654
 31
0.0
  0
ARC
  5
958
330
1A
100
AcDbEntity
  8
ZUWAKU
100
AcDbCircle
 10
18.08848849773631
 20
11.36249967951294
 30
0.0
 40
0.2625
100
AcDbArc
 50
90.0
 51
162.474431626277
  0
LINE
  5
959
330
1A
100
AcDbEntity
  8
ZUWAKU
100
AcDbLine
 10
24.19610557948067
 20
11.62499967951294
 30
0.0
 11
25.94610557948068
 21
11.62499967951294
 31
0.0
  0
LINE
  5
95A
330
1A
100
AcDbEntity
  8
ZUWAKU
100
AcDbLine
 10
25.94610557948068
 20
10.22499967951294
 30
0.0
 11
24.45860557948066
 21
10.22499967951294
 31
0.0
  0
ARC
  5
95B
330
1A
100
AcDbEntity
  8
ZUWAKU
100
AcDbCircle
 10
24.45860557948066
 20
9.962499679512941
 30
0.0
 40
0.2625
100
AcDbArc
 50
90.0
 51
180.0
  0
LINE
  5
95C
330
1A
100
AcDbEntity
  8
ZUWAKU
100
AcDbLine
 10
24.19610557948067
 20
9.962499679512941
 30
0.0
 11
24.19610557948067
 21
9.31739866683527
 31
0.0
  0
ARC
  5
95D
330
1A
100
AcDbEntity
  8
ZUWAKU
100
AcDbCircle
 10
21.48360557948064
 20
11.36249967951294
 30
0.0
 40
0.2625
100
AcDbArc
 50
0.0
 51
90.0
  0
LINE
  5
95E
330
1A
100
AcDbEntity
  8
ZUWAKU
100
AcDbLine
 10
22.79610557948064
 20
10.22499967951294
 30
0.0
 11
22.79610557948064
 21
9.31739866683527
 31
0.0
  0
ARC
  5
95F
330
1A
100
AcDbEntity
  8
ZUWAKU
100
AcDbCircle
 10
24.19610557948067
 20
10.22499967951294
 30
0.0
 40
1.399999999999999
100
AcDbArc
 50
90.0
 51
180.0
  0
ARC
  5
960
330
1A
100
AcDbEntity
  8
ZUWAKU
100
AcDbCircle
 10
28.65860557948065
 20
11.36249967951294
 30
0.0
 40
0.2625
100
AcDbArc
 50
0.0
 51
90.0
  0
ARC
  5
961
330
1A
100
AcDbEntity
  8
ZUWAKU
100
AcDbCircle
 10
27.78360557948065
 20
11.36249967951294
 30
0.0
 40
0.2625
100
AcDbArc
 50
90.0
 51
180.0
  0
LINE
  5
962
330
1A
100
AcDbEntity
  8
ZUWAKU
100
AcDbLine
 10
28.65860557948065
 20
11.62499967951294
 30
0.0
 11
27.78360557948065
 21
11.62499967951294
 31
0.0
  0
ARC
  5
963
330
1A
100
AcDbEntity
  8
ZUWAKU
100
AcDbCircle
 10
25.94610557948068
 20
11.36249967951294
 30
0.0
 40
0.2625
100
AcDbArc
 50
0.0
 51
90.0
  0
ARC
  5
964
330
1A
100
AcDbEntity
  8
ZUWAKU
100
AcDbCircle
 10
25.94610557948068
 20
10.48749967951294
 30
0.0
 40
0.2625
100
AcDbArc
 50
270.0
 51
0.0
  0
LINE
  5
965
330
1A
100
AcDbEntity
  8
ZUWAKU
100
AcDbLine
 10
26.20860557948066
 20
11.36249967951294
 30
0.0
 11
26.20860557948066
 21
10.48749967951294
 31
0.0
  0
LINE
  5
966
330
1A
100
AcDbEntity
  8
ZUWAKU
100
AcDbLine
 10
34.25860557948067
 20
11.62499967951294
 30
0.0
 11
33.38360557948067
 21
11.62499967951294
 31
0.0
  0
ARC
  5
967
330
1A
100
AcDbEntity
  8
ZUWAKU
100
AcDbCircle
 10
33.38360557948067
 20
11.36249967951294
 30
0.0
 40
0.2625
100
AcDbArc
 50
90.0
 51
180.0
  0
ARC
  5
968
330
1A
100
AcDbEntity
  8
ZUWAKU
100
AcDbCircle
 10
31.80860557948063
 20
11.36249967951294
 30
0.0
 40
0.2625
100
AcDbArc
 50
0.0
 51
90.0
  0
LINE
  5
969
330
1A
100
AcDbEntity
  8
ZUWAKU
100
AcDbLine
 10
31.80860557948063
 20
11.62499967951294
 30
0.0
 11
30.93360557948063
 21
11.62499967951294
 31
0.0
  0
ARC
  5
96A
330
1A
100
AcDbEntity
  8
ZUWAKU
100
AcDbCircle
 10
30.93360557948063
 20
11.36249967951294
 30
0.0
 40
0.2625
100
AcDbArc
 50
90.0
 51
180.0
  0
ARC
  5
96B
330
1A
100
AcDbEntity
  8
ZUWAKU
100
AcDbCircle
 10
34.25860557948067
 20
11.36249967951294
 30
0.0
 40
0.2625
100
AcDbArc
 50
0.0
 51
90.0
  0
TEXT
  5
96C
330
1A
100
AcDbEntity
  8
moji
100
AcDbText
 10
119.9136008425156
 20
9.002460208216632
 30
0.0
 40
2.799999999999999
  1
ステンレス金具正面打（受）固定式
 41
0.9
  7
ｽﾀｲﾙ1
100
AcDbText
  0
TEXT
  5
96D
330
1A
100
AcDbEntity
  8
moji
100
AcDbText
 10
119.9136008425156
 20
1.602460208216649
 30
0.0
 40
2.799999999999999
  1
Ｘ４０－４寸－２０m/m（６分）
 41
0.9
  7
ｽﾀｲﾙ1
100
AcDbText
  0
LINE
  5
96E
330
1A
100
AcDbEntity
  8
ZUWAKU
100
AcDbLine
 10
104.123300147124
 20
14.99999967951294
 30
0.0
 11
104.123300147124
 21
0.3999996795129732
 31
0.0
  0
LINE
  5
96F
330
1A
100
AcDbEntity
  8
ZUWAKU
100
AcDbLine
 10
104.3233001471239
 20
14.99999967951294
 30
0.0
 11
104.3233001471241
 21
0.3999996795129732
 31
0.0
  0
LINE
  5
970
330
1A
100
AcDbEntity
  8
ZUWAKU
100
AcDbLine
 10
104.2233001471239
 20
14.99999967951294
 30
0.0
 11
104.223300147124
 21
0.3999996795129732
 31
0.0
  0
TEXT
  5
971
330
1A
100
AcDbEntity
  8
ZUWAKU
100
AcDbText
 10
104.8620226582288
 20
4.827677948705748
 30
0.0
 40
2.0
  1
サイズ
 41
0.9
  7
ｽﾀｲﾙ1
100
AcDbText
  0
TEXT
  5
972
330
1A
100
AcDbEntity
  8
ZUWAKU
100
AcDbText
 10
104.8620226582287
 20
12.02767794870573
 30
0.0
 40
2.0
  1
品名
 41
0.9
  7
ｽﾀｲﾙ1
100
AcDbText
  0
LINE
  5
973
330
1A
100
AcDbEntity
  8
ZUWAKU
100
AcDbLine
 10
324.4086007571922
 20
7.599999679512954
 30
0.0
 11
348.6245047763607
 21
7.599999679512956
 31
0.0
  0
LINE
  5
974
330
1A
100
AcDbEntity
  8
ZUWAKU
100
AcDbLine
 10
324.4086007571923
 20
7.699999679512957
 30
0.0
 11
348.6245047763607
 21
7.699999679512956
 31
0.0
  0
LINE
  5
975
330
1A
100
AcDbEntity
  8
ZUWAKU
100
AcDbLine
 10
324.4086007571922
 20
7.799999679512955
 30
0.0
 11
348.6245047763607
 21
7.799999679512955
 31
0.0
  0
TEXT
  5
976
330
1A
100
AcDbEntity
  8
ZUWAKU
100
AcDbText
 10
329.1019683457413
 20
9.002460208216632
 30
0.0
 40
2.799999999999999
  1
　　．　　．　　
 41
0.9
  7
ｽﾀｲﾙ1
100
AcDbText
  0
LINE
  5
977
330
1A
100
AcDbEntity
  8
ZUWAKU
100
AcDbLine
 10
252.5995892511605
 20
7.599999679512958
 30
0.0
 11
276.2634773851463
 21
7.599999679512958
 31
0.0
  0
LINE
  5
978
330
1A
100
AcDbEntity
  8
ZUWAKU
100
AcDbLine
 10
252.5995892511605
 20
7.699999679512956
 30
0.0
 11
276.2634773851463
 21
7.699999679512956
 31
0.0
  0
LINE
  5
979
330
1A
100
AcDbEntity
  8
ZUWAKU
100
AcDbLine
 10
252.5995892511605
 20
7.799999679512955
 30
0.0
 11
276.2634773851463
 21
7.799999679512955
 31
0.0
  0
TEXT
  5
97A
330
1A
100
AcDbEntity
  8
moji
100
AcDbText
 10
231.2836386630844
 20
5.971308540342931
 30
0.0
 40
2.799999999999999
  1
ＬＤ０５□
 41
0.9
  7
ｽﾀｲﾙ1
100
AcDbText
  0
LINE
  5
97B
330
1A
100
AcDbEntity
  8
ZUWAKU
100
AcDbLine
 10
223.8121814875857
 20
14.99999967951294
 30
0.0
 11
223.8121814875858
 21
0.3999996795129732
 31
0.0
  0
LINE
  5
97C
330
1A
100
AcDbEntity
  8
ZUWAKU
100
AcDbLine
 10
223.9121814875857
 20
14.99999967951294
 30
0.0
 11
223.9121814875858
 21
0.3999996795129732
 31
0.0
  0
LINE
  5
97D
330
1A
100
AcDbEntity
  8
ZUWAKU
100
AcDbLine
 10
223.7121814875858
 20
14.99999967951294
 30
0.0
 11
223.7121814875858
 21
0.3999996795129732
 31
0.0
  0
TEXT
  5
97E
330
1A
100
AcDbEntity
  8
moji
100
AcDbText
 10
264.0204534882465
 20
9.002460208216632
 30
0.0
 40
2.799999999999999
  1
Ａ３
 41
0.9
  7
ｽﾀｲﾙ1
100
AcDbText
  0
LINE
  5
97F
330
1A
100
AcDbEntity
  8
ZUWAKU
100
AcDbLine
 10
252.4995892511605
 20
14.99999967951294
 30
0.0
 11
252.4995892511606
 21
0.3999996795129732
 31
0.0
  0
LINE
  5
980
330
1A
100
AcDbEntity
  8
ZUWAKU
100
AcDbLine
 10
252.5995892511605
 20
14.99999967951294
 30
0.0
 11
252.5995892511606
 21
0.3999996795129732
 31
0.0
  0
LINE
  5
981
330
1A
100
AcDbEntity
  8
ZUWAKU
100
AcDbLine
 10
252.3995892511606
 20
14.99999967951294
 30
0.0
 11
252.3995892511606
 21
0.3999996795129732
 31
0.0
  0
TEXT
  5
982
330
1A
100
AcDbEntity
  8
ZUWAKU
100
AcDbText
 10
230.8507805316366
 20
1.623757161355399
 30
0.0
 40
1.5
  1
□には色品番が入ります
 41
0.9
  7
ｽﾀｲﾙ1
100
AcDbText
  0
TEXT
  5
983
330
1A
100
AcDbEntity
  8
ZUWAKU
100
AcDbText
 10
253.3383117622654
 20
4.827677948705748
 30
0.0
 40
2.0
  1
縮尺
 41
0.9
  7
ｽﾀｲﾙ1
100
AcDbText
  0
TEXT
  5
984
330
1A
100
AcDbEntity
  8
moji
100
AcDbText
 10
264.0204534882465
 20
1.602460208216649
 30
0.0
 40
2.799999999999999
  1
１/１
 41
0.9
  7
ｽﾀｲﾙ1
100
AcDbText
  0
TEXT
  5
985
330
1A
100
AcDbEntity
  8
ZUWAKU
100
AcDbText
 10
224.6509039986905
 20
12.02767794870573
 30
0.0
 40
2.0
  1
品番
 41
0.9
  7
ｽﾀｲﾙ1
100
AcDbText
  0
TEXT
  5
986
330
1A
100
AcDbEntity
  8
ZUWAKU
100
AcDbText
 10
253.3383117622654
 20
12.02767794870573
 30
0.0
 40
2.0
  1
用紙
 41
0.9
  7
ｽﾀｲﾙ1
100
AcDbText
  0
LINE
  5
987
330
1A
100
AcDbEntity
  8
ZUWAKU
100
AcDbLine
 10
324.3086007571923
 20
14.99999967951294
 30
0.0
 11
324.3086007571924
 21
0.3999996795129732
 31
0.0
  0
LINE
  5
988
330
1A
100
AcDbEntity
  8
ZUWAKU
100
AcDbLine
 10
324.4086007571923
 20
14.99999967951294
 30
0.0
 11
324.4086007571924
 21
0.3999996795129732
 31
0.0
  0
LINE
  5
989
330
1A
100
AcDbEntity
  8
ZUWAKU
100
AcDbLine
 10
324.2086007571924
 20
14.99999967951294
 30
0.0
 11
324.2086007571924
 21
0.3999996795129732
 31
0.0
  0
LINE
  5
98A
330
1A
100
AcDbEntity
  8
ZUWAKU
100
AcDbLine
 10
276.3634773851462
 20
14.99999967951294
 30
0.0
 11
276.3634773851463
 21
0.3999996795129732
 31
0.0
  0
LINE
  5
98B
330
1A
100
AcDbEntity
  8
ZUWAKU
100
AcDbLine
 10
276.4634773851462
 20
14.99999967951294
 30
0.0
 11
276.4634773851463
 21
0.3999996795129732
 31
0.0
  0
LINE
  5
98C
330
1A
100
AcDbEntity
  8
ZUWAKU
100
AcDbLine
 10
276.2634773851463
 20
14.99999967951294
 30
0.0
 11
276.2634773851463
 21
0.3999996795129732
 31
0.0
  0
TEXT
  5
98D
330
1A
100
AcDbEntity
  8
ZUWAKU
100
AcDbText
 10
325.1473232682971
 20
12.02767794870573
 30
0.0
 40
2.0
  1
DATE
 41
0.9
  7
ｽﾀｲﾙ1
100
AcDbText
  0
LINE
  5
98E
330
1A
100
AcDbEntity
  8
ZUWAKU
100
AcDbLine
 10
348.6245047763607
 20
14.99999967951294
 30
0.0
 11
348.6245047763607
 21
0.3999996795129732
 31
0.0
  0
LINE
  5
98F
330
1A
100
AcDbEntity
  8
ZUWAKU
100
AcDbLine
 10
348.7245047763607
 20
14.99999967951294
 30
0.0
 11
348.7245047763607
 21
0.3999996795129732
 31
0.0
  0
LINE
  5
990
330
1A
100
AcDbEntity
  8
ZUWAKU
100
AcDbLine
 10
348.8245047763606
 20
14.99999967951294
 30
0.0
 11
348.8245047763608
 21
0.3999996795129732
 31
0.0
  0
LINE
  5
991
330
1A
100
AcDbEntity
  8
ZUWAKU
100
AcDbLine
 10
348.9245047763607
 20
14.99999967951294
 30
0.0
 11
348.9245047763608
 21
0.3999996795129732
 31
0.0
  0
TEXT
  5
992
330
1A
100
AcDbEntity
  8
ZUWAKU
100
AcDbText
 10
354.264041598212
 20
6.17691934735634
 30
0.0
 40
3.0
  1
積水化学工業株式会社
 41
0.9
  7
ｽﾀｲﾙ1
100
AcDbText
  0
ELLIPSE
  5
EE5
330
1A
100
AcDbEntity
  8
SEIHIN
100
AcDbEllipse
 10
249.2401935786347
 20
227.02325169163
 30
0.0
 11
0.0
 21
2.0
 31
0.0
210
0.0
220
0.0
230
1.0
 40
0.3654521941469682
 41
0.0
 42
6.283185307179586
  0
ELLIPSE
  5
EE6
330
1A
100
AcDbEntity
  8
SEIHIN
100
AcDbEllipse
 10
257.4102935786346
 20
227.023239368295
 30
0.0
 11
0.0
 21
2.0
 31
0.0
210
0.0
220
0.0
230
1.0
 40
0.3654521941469682
 41
0.0
 42
6.283185307179586
  0
ELLIPSE
  5
EE7
330
1A
100
AcDbEntity
  8
SEIHIN
100
AcDbEllipse
 10
257.4101935786346
 20
186.023239368295
 30
0.0
 11
0.0
 21
2.0
 31
0.0
210
0.0
220
0.0
230
1.0
 40
0.3654521941469682
 41
0.0
 42
6.283185307179586
  0
ELLIPSE
  5
EE8
330
1A
100
AcDbEntity
  8
SEIHIN
100
AcDbEllipse
 10
249.2400935786347
 20
186.02325169163
 30
0.0
 11
0.0
 21
2.0
 31
0.0
210
0.0
220
0.0
230
1.0
 40
0.3654521941469682
 41
0.0
 42
6.283185307179586
  0
LINE
  5
EE9
330
1A
100
AcDbEntity
  8
CENTER L
  6
CENTER
 62
     1
 48
5.0
100
AcDbLine
 10
249.2236234966221
 20
183.0047516916299
 30
0.0
 11
249.2236234966221
 21
190.3751516916297
 31
0.0
  0
CIRCLE
  5
1535
330
1A
100
AcDbEntity
  8
SEIHIN
100
AcDbCircle
 10
357.2444516248648
 20
150.9455053761802
 30
0.0
 40
1.25
  0
CIRCLE
  5
1536
330
1A
100
AcDbEntity
  8
SEIHIN
100
AcDbCircle
 10
365.4145844439415
 20
130.5188020932757
 30
0.0
 40
1.25
  0
CIRCLE
  5
1537
330
1A
100
AcDbEntity
  8
SEIHIN
100
AcDbCircle
 10
319.1766097632761
 20
135.7194572650227
 30
0.0
 40
1.25
  0
CIRCLE
  5
1538
330
1A
100
AcDbEntity
  8
SEIHIN
100
AcDbCircle
 10
327.3467425823529
 20
115.2927539821182
 30
0.0
 40
1.25
  0
LINE
  5
1539
330
1A
100
AcDbEntity
  8
CENTER L
  6
CENTER
 62
     1
 48
5.0
100
AcDbLine
 10
360.1670894231958
 20
152.1144521863852
 30
0.0
 11
353.9282894231957
 21
149.6190521863852
 31
0.0
  0
ARC
  5
153A
330
1A
100
AcDbEntity
  8
SEIHIN
  6
Continuous
 62
     3
 48
16.0
100
AcDbCircle
 10
358.3588135600461
 20
153.5451418413576
 30
0.0
 40
2.000031640999765
100
AcDbArc
 50
21.80194144971668
 51
111.799281577313
  0
LINE
  5
153B
330
1A
100
AcDbEntity
  8
SEIHIN
  6
Continuous
 62
     3
 48
16.0
100
AcDbLine
 10
342.1104089472061
 20
154.5858154519725
 30
0.0
 11
343.2245609646799
 21
155.0314489306621
 31
0.0
  0
ARC
  5
153C
330
1A
100
AcDbEntity
  8
SEIHIN
  6
Continuous
 62
     3
 48
16.0
100
AcDbCircle
 10
342.2217505010191
 20
151.6146862006892
 30
0.0
 40
1.0
100
AcDbArc
 50
291.8001979499083
 51
21.79994302077455
  0
ARC
  5
153D
330
1A
100
AcDbEntity
  8
SEIHIN
  6
Continuous
 62
     3
 48
16.0
100
AcDbCircle
 10
346.1957652863452
 20
152.9884625314129
 30
0.0
 40
2.000031640999778
100
AcDbArc
 50
201.8019414497209
 51
291.7992815773163
  0
LINE
  5
153E
330
1A
100
AcDbEntity
  8
SEIHIN
  6
Continuous
 62
     3
 48
16.0
100
AcDbLine
 10
345.0814894231957
 20
147.1576521863853
 30
0.0
 11
346.8455894231956
 21
146.7861521863852
 31
0.0
  0
LINE
  5
153F
330
1A
100
AcDbEntity
  8
SEIHIN
  6
Continuous
 62
     3
 48
16.0
100
AcDbLine
 10
344.3387894231957
 20
152.2456521863852
 30
0.0
 11
343.2245609646799
 21
155.0314489306621
 31
0.0
  0
LINE
  5
1540
330
1A
100
AcDbEntity
  8
SEIHIN
  6
Continuous
 62
     3
 48
16.0
100
AcDbLine
 10
326.5118672454147
 20
148.3467813775976
 30
0.0
 11
327.6260318307179
 21
148.7924198831105
 31
0.0
  0
LINE
  5
1541
330
1A
100
AcDbEntity
  8
SEIHIN
  6
Continuous
 62
     3
 48
16.0
100
AcDbLine
 10
357.6160894231957
 20
155.4021521863853
 30
0.0
 11
346.9384894231957
 21
151.1314521863852
 31
0.0
  0
ARC
  5
1542
330
1A
100
AcDbEntity
  8
SEIHIN
  6
Continuous
 62
     3
 48
16.0
100
AcDbCircle
 10
368.0143894231957
 20
129.4045521863854
 30
0.0
 40
2.000013072457389
100
AcDbArc
 50
291.7987496139462
 51
21.7987496139433
  0
LINE
  5
1543
330
1A
100
AcDbEntity
  8
SEIHIN
  6
Continuous
 62
     3
 48
16.0
100
AcDbLine
 10
353.9942894231955
 20
124.8741521863853
 30
0.0
 11
355.0155894231959
 21
126.3596521863853
 31
0.0
  0
LINE
  5
1544
330
1A
100
AcDbEntity
  8
SEIHIN
  6
Continuous
 62
     3
 48
16.0
100
AcDbLine
 10
353.2515894231957
 20
126.7309521863852
 30
0.0
 11
355.0156894231959
 21
126.3594521863853
 31
0.0
  0
LINE
  5
1545
330
1A
100
AcDbEntity
  8
CENTER L
  6
CENTER
 62
     1
 48
5.0
100
AcDbLine
 10
366.5149894231956
 20
127.7675521863853
 30
0.0
 11
363.5577692306232
 21
135.1612408127168
 31
0.0
  0
LINE
  5
1546
330
1A
100
AcDbEntity
  8
CENTER L
  6
CENTER
 62
     1
 48
5.0
100
AcDbLine
 10
368.3371894231959
 20
131.6877521863852
 30
0.0
 11
361.9766894231958
 21
129.1437521863853
 31
0.0
  0
ARC
  5
1547
330
1A
100
AcDbEntity
  8
SEIHIN
  6
Continuous
 62
     3
 48
16.0
100
AcDbCircle
 10
325.7690635587416
 20
144.8182918421821
 30
0.0
 40
1.999966648471878
100
AcDbArc
 50
291.8000795760785
 51
21.80114345094855
  0
ARC
  5
1548
330
1A
100
AcDbEntity
  8
SEIHIN
  6
Continuous
 62
     3
 48
16.0
100
AcDbCircle
 10
329.5943435302611
 20
146.5640331417234
 30
0.0
 40
1.0
100
AcDbArc
 50
201.7999663384796
 51
291.8001979499083
  0
LINE
  5
1549
330
1A
100
AcDbEntity
  8
SEIHIN
  6
Continuous
 62
     3
 48
16.0
100
AcDbLine
 10
331.3396894231957
 20
139.5074521863853
 30
0.0
 11
329.5755894231956
 21
139.8788521863853
 31
0.0
  0
LINE
  5
154A
330
1A
100
AcDbEntity
  8
SEIHIN
  6
Continuous
 62
     3
 48
16.0
100
AcDbLine
 10
330.5969894231959
 20
141.3642521863853
 30
0.0
 11
329.5755894231956
 21
139.8787521863852
 31
0.0
  0
LINE
  5
154B
330
1A
100
AcDbEntity
  8
CENTER L
  6
CENTER
 62
     1
 48
5.0
100
AcDbLine
 10
321.0335965403278
 20
131.0766786547971
 30
0.0
 11
318.0202894231958
 21
138.6104521863852
 31
0.0
  0
LINE
  5
154C
330
1A
100
AcDbEntity
  8
SEIHIN
  6
Continuous
 62
     3
 48
16.0
100
AcDbLine
 10
339.5096894231958
 20
119.0807521863852
 30
0.0
 11
337.7455894231959
 21
119.4521521863853
 31
0.0
  0
LINE
  5
154D
330
1A
100
AcDbEntity
  8
SEIHIN
  6
Continuous
 62
     3
 48
16.0
100
AcDbLine
 10
338.7670894231957
 20
120.9375521863852
 30
0.0
 11
337.7455894231959
 21
119.4519521863852
 31
0.0
  0
LINE
  5
154E
330
1A
100
AcDbEntity
  8
CENTER L
  6
CENTER
 62
     1
 48
5.0
100
AcDbLine
 10
328.4471894231955
 20
112.5414521863852
 30
0.0
 11
325.4898592957855
 21
119.9352738487636
 31
0.0
  0
LINE
  5
154F
330
1A
100
AcDbEntity
  8
CENTER L
  6
CENTER
 62
     1
 48
5.0
100
AcDbLine
 10
324.4241894231956
 20
114.1238521863852
 30
0.0
 11
330.7845894231959
 21
116.6677521863852
 31
0.0
  0
ARC
  5
1550
330
1A
100
AcDbEntity
  8
SEIHIN
  6
Continuous
 62
     3
 48
16.0
100
AcDbCircle
 10
326.2324894231958
 20
112.6930521863853
 30
0.0
 40
2.000013072457372
100
AcDbArc
 50
201.7987496139483
 51
291.7987496139498
  0
LINE
  5
1551
330
1A
100
AcDbEntity
  8
SEIHIN
  6
Continuous
 62
     3
 48
16.0
100
AcDbLine
 10
347.8661894231956
 20
119.1918521863853
 30
0.0
 11
326.9751894231958
 21
110.8360521863853
 31
0.0
  0
ARC
  5
1552
330
1A
100
AcDbEntity
  8
SEIHIN
  6
Continuous
 62
     3
 48
16.0
100
AcDbCircle
 10
316.5769997682234
 20
136.8336763232358
 30
0.0
 40
2.000031640999715
100
AcDbArc
 50
111.8019414497188
 51
201.7992815773153
  0
DIMENSION
  5
1553
330
1A
100
AcDbEntity
  8
SUNPOU
  6
Continuous
100
AcDbDimension
  2
*D18
 10
312.7516197480098
 20
109.4551902160809
 30
0.0
 11
310.9878066712381
 21
120.5969616088224
 31
0.0
 70
    33
 71
     5
 42
22.00000966708008
  3
STANDARD
100
AcDbAlignedDimension
 13
315.4627031434606
 23
134.2340255812974
 33
0.0
 14
323.6327618215272
 24
113.8073134976417
 34
0.0
1001
ACAD
1000
DSTYLE
1002
{
1070
   140
1040
3.0
1070
    74
1070
     0
1070
   172
1070
     1
1070
    73
1070
     0
1070
   272
1070
     2
1070
    77
1070
     3
1070
   173
1070
     1
1070
   147
1040
1.0
1070
    42
1040
3.0
1070
    44
1040
1.5
1070
    43
1040
7.0
1070
   271
1070
     0
1070
   178
1070
     4
1070
   177
1070
     4
1070
   176
1070
     4
1070
   141
1040
150.0
1070
     7
1000
_OPEN
1070
     6
1000
_OPEN
1070
    41
1040
3.0
1002
}
  0
LINE
  5
1554
330
1A
100
AcDbEntity
  8
SEIHIN
  6
Continuous
 62
     3
 48
16.0
100
AcDbLine
 10
324.3754894231956
 20
111.9503521863853
 30
0.0
 11
314.7199894231957
 21
136.0909521863853
 31
0.0
  0
LINE
  5
1555
330
1A
100
AcDbEntity
  8
SEIHIN
  6
Continuous
 62
     3
 48
16.0
100
AcDbLine
 10
315.8341894231957
 20
138.6906521863853
 30
0.0
 11
326.5117894231957
 21
142.9613521863853
 31
0.0
  0
LINE
  5
1556
330
1A
100
AcDbEntity
  8
CENTER L
  6
CENTER
 62
     1
 48
5.0
100
AcDbLine
 10
316.2540894231956
 20
134.5505521863853
 30
0.0
 11
322.4928894231958
 21
137.0458521863853
 31
0.0
  0
LINE
  5
1557
330
1A
100
AcDbEntity
  8
SEIHIN
  6
Continuous
 62
     3
 48
16.0
100
AcDbLine
 10
347.8660894231959
 20
119.1918521863853
 30
0.0
 11
368.7570894231957
 21
127.5475521863852
 31
0.0
  0
LINE
  5
1558
330
1A
100
AcDbEntity
  8
SEIHIN
  6
Continuous
 62
     3
 48
16.0
100
AcDbLine
 10
342.1104089472061
 20
154.5858154519725
 30
0.0
 11
355.1083627589293
 21
122.0885188520015
 31
0.0
  0
LINE
  5
1559
330
1A
100
AcDbEntity
  8
CENTER L
  6
CENTER
 62
     1
 48
5.0
100
AcDbLine
 10
359.1014199000499
 20
146.3030757843492
 30
0.0
 11
356.0882894231958
 21
153.8365521863853
 31
0.0
  0
DIMENSION
  5
155A
330
1A
100
AcDbEntity
  8
SUNPOU
  6
Continuous
100
AcDbDimension
  2
*D19
 10
302.9137766165947
 20
165.6087214158987
 30
0.0
 11
324.7332719165235
 21
177.0284128084839
 31
0.0
 70
    33
 71
     5
 42
48.99998884267223
  3
STANDARD
100
AcDbAlignedDimension
 13
359.4730753292126
 23
156.1448874179754
 33
0.0
 14
313.9772525885752
 24
137.9479365817912
 34
0.0
1001
ACAD
1000
DSTYLE
1002
{
1070
   140
1040
3.0
1070
    74
1070
     0
1070
   172
1070
     1
1070
    73
1070
     0
1070
   272
1070
     2
1070
    77
1070
     3
1070
   173
1070
     1
1070
   147
1040
1.0
1070
    42
1040
3.0
1070
    44
1040
1.5
1070
    43
1040
7.0
1070
   271
1070
     0
1070
   178
1070
     4
1070
   177
1070
     4
1070
   176
1070
     4
1070
   141
1040
150.0
1070
     7
1000
_OPEN
1070
     6
1000
_OPEN
1070
    41
1040
3.0
1002
}
  0
DIMENSION
  5
155B
330
1A
100
AcDbEntity
  8
SUNPOU
  6
Continuous
100
AcDbDimension
  2
*D20
 10
310.2862783470982
 20
157.9469232712779
 30
0.0
 11
328.3918715898015
 21
167.8811721003839
 31
0.0
 70
    33
 71
     5
 42
41.00008812033536
  3
STANDARD
100
AcDbAlignedDimension
 13
355.7591624901162
 23
154.6594405420924
 33
0.0
 14
317.6911426549762
 24
139.4333743493213
 34
0.0
1001
ACAD
1000
DSTYLE
1002
{
1070
   140
1040
3.0
1070
    74
1070
     0
1070
   172
1070
     1
1070
    73
1070
     0
1070
   272
1070
     2
1070
    77
1070
     3
1070
   173
1070
     1
1070
   147
1040
1.0
1070
    42
1040
3.0
1070
    44
1040
1.5
1070
    43
1040
7.0
1070
   271
1070
     0
1070
   178
1070
     4
1070
   177
1070
     4
1070
   176
1070
     4
1070
   141
1040
150.0
1070
     7
1000
_OPEN
1070
     6
1000
_OPEN
1070
    41
1040
3.0
1002
}
  0
LINE
  5
155C
330
1A
100
AcDbEntity
  8
SEIHIN
  6
Continuous
 62
     3
 48
16.0
100
AcDbLine
 10
369.8712894231957
 20
130.1472521863853
 30
0.0
 11
360.2157894231956
 21
154.2879521863852
 31
0.0
  0
LINE
  5
155D
330
1A
100
AcDbEntity
  8
CENTER L
  6
CENTER
 62
     1
 48
5.0
100
AcDbLine
 10
349.6036894231958
 20
114.8476521863853
 30
0.0
 11
331.9900218798712
 21
158.8849938327251
 31
0.0
  0
LINE
  5
155E
330
1A
100
AcDbEntity
  8
SEIHIN
  6
Continuous
 62
     3
 48
16.0
100
AcDbLine
 10
327.6260318307179
 20
148.7924198831105
 30
0.0
 11
340.6239540240262
 21
116.2952406907727
 31
0.0
  0
LINE
  5
155F
330
1A
100
AcDbEntity
  8
SEIHIN
  6
Continuous
 62
     3
 48
16.0
100
AcDbLine
 10
327.6260894231957
 20
145.5610521863852
 30
0.0
 11
326.5118672454147
 21
148.3467813775976
 31
0.0
  0
LINE
  5
1560
330
1A
100
AcDbEntity
  8
SEIHIN
  6
Continuous
 62
     3
 48
16.0
100
AcDbLine
 10
329.965714573614
 20
145.6355485978785
 30
0.0
 11
342.593121544372
 21
150.6862016568443
 31
0.0
  0
LINE
  5
1561
330
1A
100
AcDbEntity
  8
SEIHIN
  6
Continuous
 62
     3
 48
16.0
100
AcDbLine
 10
345.8241894231957
 20
145.3007521863853
 30
0.0
 11
346.8455894231956
 21
146.7863521863852
 31
0.0
  0
MTEXT
  5
1562
330
1A
100
AcDbEntity
  8
SUNPOU
  6
Continuous
 62
     4
100
AcDbMText
 10
299.1593294825992
 20
147.9787770990677
 30
0.0
 40
3.0
 41
0.0
 71
     9
 72
     5
  1
4-φ2.5
 73
     1
 44
1.0
1001
ACAD
1000
MTEXTBEGIN
1070
    73
1070
     1
1070
    44
1040
1.0
1070
    74
1070
     0
1000
MTEXTEND
  0
LEADER
  5
1563
330
1A
100
AcDbEntity
  8
SUNPOU
  6
Continuous
 62
     4
100
AcDbLeader
  3
STANDARD
 73
     0
 40
3.0
 41
15.6
 76
     3
 10
318.0274688735476
 20
136.2111758163506
 30
0.0
 10
303.0764388758376
 20
146.9787770990676
 30
0.0
 10
300.1593294825992
 20
146.9787770990676
 30
0.0
1001
ACAD
1000
DSTYLE
1002
{
1070
     6
1000
OPEN
1070
    41
1040
3.0
1070
    42
1040
3.0
1070
    43
1040
7.0
1070
    44
1040
1.5
1070
    73
1070
     0
1070
    74
1070
     0
1070
    77
1070
     3
1070
   140
1040
3.0
1070
   141
1040
150.0
1070
   147
1040
1.0
1070
   172
1070
     1
1070
   173
1070
     1
1070
   176
1070
     4
1070
   177
1070
     4
1070
   178
1070
     4
1070
   271
1070
     0
1070
   272
1070
     2
1070
   341
1005
B2
1070
   343
1005
B2
1070
   344
1005
B2
1002
}
  0
DIMENSION
  5
1564
330
1A
100
AcDbEntity
  8
SUNPOU
  6
Continuous
100
AcDbDimension
  2
*D21
 10
305.2983880027327
 20
102.1659925035803
 30
0.0
 11
302.0491092346561
 21
117.0217127407643
 31
0.0
 70
    33
 71
     5
 42
30.00001575187278
  3
STANDARD
100
AcDbAlignedDimension
 13
313.9772525885752
 23
137.9479365817912
 33
0.0
 14
325.1182426492515
 24
110.0933268092505
 34
0.0
1001
ACAD
1000
DSTYLE
1002
{
1070
   140
1040
3.0
1070
    74
1070
     0
1070
   172
1070
     1
1070
    73
1070
     0
1070
   272
1070
     2
1070
    77
1070
     3
1070
   173
1070
     1
1070
   147
1040
1.0
1070
    42
1040
3.0
1070
    44
1040
1.5
1070
    43
1040
7.0
1070
   271
1070
     0
1070
   178
1070
     4
1070
   177
1070
     4
1070
   176
1070
     4
1070
   141
1040
150.0
1070
     7
1000
_OPEN
1070
     6
1000
_OPEN
1070
    41
1040
3.0
1002
}
  0
ARC
  5
15F0
330
1A
100
AcDbEntity
  8
SEIHIN
100
AcDbCircle
 10
58.10839099556611
 20
86.86609052583429
 30
0.0
 40
1.25
100
AcDbArc
 50
359.5867620429297
 51
173.6767982698249
  0
ARC
  5
15F1
330
1A
100
AcDbEntity
  8
SEIHIN
100
AcDbCircle
 10
58.11596293756216
 20
87.34070083952559
 30
0.0
 40
1.25
100
AcDbArc
 50
190.031077120664
 51
348.1408820482196
  0
ARC
  5
15F2
330
1A
100
AcDbEntity
  8
SEIHIN
100
AcDbCircle
 10
58.11596293756216
 20
86.99474615428409
 30
0.0
 40
1.25
100
AcDbArc
 50
179.5867620429297
 51
353.676798269825
  0
ARC
  5
15FB
330
1A
100
AcDbEntity
  8
SEIHIN
100
AcDbCircle
 10
58.03393518265811
 20
107.2927687940486
 30
0.0
 40
1.25
100
AcDbArc
 50
359.5867620429297
 51
173.6767982698249
  0
ARC
  5
15FC
330
1A
100
AcDbEntity
  8
SEIHIN
100
AcDbCircle
 10
58.04150712465416
 20
107.7673791077399
 30
0.0
 40
1.25
100
AcDbArc
 50
190.031077120664
 51
348.1408820482196
  0
ARC
  5
15FD
330
1A
100
AcDbEntity
  8
SEIHIN
100
AcDbCircle
 10
58.04150712465416
 20
107.4214244224984
 30
0.0
 40
1.25
100
AcDbArc
 50
179.5867620429297
 51
353.676798269825
  0
ARC
  5
1606
330
1A
100
AcDbEntity
  8
SEIHIN
100
AcDbCircle
 10
99.10836911701021
 20
107.2927687940486
 30
0.0
 40
1.25
100
AcDbArc
 50
359.5867620429297
 51
173.6767982698249
  0
ARC
  5
1607
330
1A
100
AcDbEntity
  8
SEIHIN
100
AcDbCircle
 10
99.11594105900626
 20
107.7673791077399
 30
0.0
 40
1.25
100
AcDbArc
 50
190.031077120664
 51
348.1408820482196
  0
ARC
  5
1608
330
1A
100
AcDbEntity
  8
SEIHIN
100
AcDbCircle
 10
99.11594105900626
 20
107.4214244224984
 30
0.0
 40
1.25
100
AcDbArc
 50
179.5867620429297
 51
353.676798269825
  0
ARC
  5
1611
330
1A
100
AcDbEntity
  8
SEIHIN
100
AcDbCircle
 10
99.18288083146883
 20
86.86603442365422
 30
0.0
 40
1.25
100
AcDbArc
 50
359.5867620429297
 51
173.6767982698249
  0
ARC
  5
1612
330
1A
100
AcDbEntity
  8
SEIHIN
100
AcDbCircle
 10
99.19045277346489
 20
87.34064473734552
 30
0.0
 40
1.25
100
AcDbArc
 50
190.031077120664
 51
348.1408820482196
  0
ARC
  5
1613
330
1A
100
AcDbEntity
  8
SEIHIN
100
AcDbCircle
 10
99.19045277346489
 20
86.99469005210401
 30
0.0
 40
1.25
100
AcDbArc
 50
179.5867620429297
 51
353.676798269825
  0
VIEWPORT
  5
22
102
{ACAD_XDICTIONARY
360
161C
102
}
330
17
100
AcDbEntity
 67
     1
  8
0
100
AcDbViewport
 10
313.6808219178083
 20
148.5
 30
0.0
 40
627.3616438356165
 41
297.0
 68
     2
 69
     1
 12
313.6808219178083
 22
148.5
 13
0.0
 23
0.0
 14
1.0
 24
1.0
 15
10.0
 25
10.0
 16
0.0
 26
0.0
 36
1.0
 17
0.0
 27
0.0
 37
0.0
 42
50.0
 43
0.0
 44
0.0
 45
297.0
 50
0.0
 51
0.0
 72
   100
 90
    32768
  1

281
     0
 71
     1
 74
     0
110
0.0
120
0.0
130
0.0
111
1.0
121
0.0
131
0.0
112
0.0
122
1.0
132
0.0
 79
     0
146
0.0
  0
VIEWPORT
  5
64
102
{ACAD_XDICTIONARY
360
161E
102
}
330
17
100
AcDbEntity
 67
     1
  8
VIEWPORT
100
AcDbViewport
 10
210.0
 20
148.5
 30
0.0
 40
420.0
 41
297.0
 68
     1
 69
     2
 12
210.0
 22
148.5
 13
0.0
 23
0.0
 14
5.0
 24
5.0
 15
0.0
 25
0.0
 16
0.0
 26
0.0
 36
1.0
 17
0.0
 27
0.0
 37
0.0
 42
50.0
 43
0.0
 44
0.0
 45
302.9399999999999
 50
0.0
 51
0.0
 72
   100
 90
    32768
  1

281
     0
 71
     1
 74
     0
110
0.0
120
0.0
130
0.0
111
1.0
121
0.0
131
0.0
112
0.0
122
1.0
132
0.0
 79
     0
146
0.0
  0
ENDSEC
  0
SECTION
  2
OBJECTS
  0
DICTIONARY
  5
C
330
0
100
AcDbDictionary
281
     1
  3
ACAD_COLOR
350
14C2
  3
ACAD_GROUP
350
D
  3
ACAD_LAYOUT
350
7AE
  3
ACAD_MATERIAL
350
14C1
  3
ACAD_MLINESTYLE
350
E
  3
ACAD_PLOTSETTINGS
350
7AF
  3
ACAD_PLOTSTYLENAME
350
7AC
  3
ACDBHEADERROUNDTRIPXREC
350
1619
  3
AcDbVariableDictionary
350
1615
  0
DICTIONARY
  5
7DF
330
1A
100
AcDbDictionary
280
     1
281
     1
  3
ACAD_LAYOUTSELFREF
360
149E
  0
DICTIONARY
  5
7DD
330
17
100
AcDbDictionary
280
     1
281
     1
  3
ACAD_LAYOUTSELFREF
360
149D
  0
DICTIONARY
  5
161C
330
22
100
AcDbDictionary
280
     1
281
     1
  3
ACAD_XREC_ROUNDTRIP
360
161D
  0
DICTIONARY
  5
161E
330
64
100
AcDbDictionary
280
     1
281
     1
  3
ACAD_XREC_ROUNDTRIP
360
161F
  0
DICTIONARY
  5
14C2
102
{ACAD_REACTORS
330
C
102
}
330
C
100
AcDbDictionary
281
     1
  0
DICTIONARY
  5
D
102
{ACAD_REACTORS
330
C
102
}
330
C
100
AcDbDictionary
281
     1
  0
DICTIONARY
  5
7AE
102
{ACAD_REACTORS
330
C
102
}
330
C
100
AcDbDictionary
281
     1
  3
Model
350
7B0
  3
ﾚｲｱｳﾄ1
350
7B1
  0
DICTIONARY
  5
14C1
102
{ACAD_REACTORS
330
C
102
}
330
C
100
AcDbDictionary
281
     1
  0
DICTIONARY
  5
E
102
{ACAD_REACTORS
330
C
102
}
330
C
100
AcDbDictionary
281
     1
  3
STANDARD
350
13
  0
DICTIONARY
  5
7AF
102
{ACAD_REACTORS
330
C
102
}
330
C
100
AcDbDictionary
281
     1
  0
ACDBDICTIONARYWDFLT
  5
7AC
102
{ACAD_REACTORS
330
C
102
}
330
C
100
AcDbDictionary
281
     1
  3
Normal
350
7AD
100
AcDbDictionaryWithDefault
340
7AD
1001
ACAD
1000
TREAT_AS_HARD
1070
     0
1000
TREAT_AS_HARD
1070
     0
1000
TREAT_AS_HARD
1070
     0
1000
TREAT_AS_HARD
1070
     0
  0
DICTIONARY
  5
1619
102
{ACAD_REACTORS
330
C
102
}
330
C
100
AcDbDictionary
281
     1
  3
COLORDICT
350
161B
  3
MATERIALDICT
350
161A
  0
DICTIONARY
  5
1615
102
{ACAD_REACTORS
330
C
102
}
330
C
100
AcDbDictionary
281
     1
  3
DIMASSOC
350
1616
  3
PROJECTNAME
350
1617
  0
XRECORD
  5
149E
102
{ACAD_REACTORS
330
7DF
102
}
330
7DF
100
AcDbXrecord
280
     1
340
1A
  0
XRECORD
  5
149D
102
{ACAD_REACTORS
330
7DD
102
}
330
7DD
100
AcDbXrecord
280
     1
340
17
  0
XRECORD
  5
161D
102
{ACAD_REACTORS
330
161C
102
}
330
161C
100
AcDbXrecord
280
     1
102
SHADEPLOT
 70
     0
  0
XRECORD
  5
161F
102
{ACAD_REACTORS
330
161E
102
}
330
161E
100
AcDbXrecord
280
     1
102
SHADEPLOT
 70
     0
  0
LAYOUT
  5
7B0
102
{ACAD_XDICTIONARY
360
1620
102
}
102
{ACAD_REACTORS
330
7AE
102
}
330
7AE
100
AcDbPlotSettings
  1

  2
CubePDF
  4
A3
  6

 40
3.174999999999999
 41
3.174999999999999
 42
3.174987999999999
 43
3.174987999999999
 44
420.1583249999999
 45
297.03183
 46
3.0
 47
0.0
 48
0.0
 49
0.0
140
0.0
141
0.0
142
1.0
143
0.9638253505678976
 70
 28336
 72
     1
 73
     0
 74
     1
  7
monochrome.ctb
 75
     0
147
1.03753236975017
148
0.0161156019444206
149
0.014849887049536
100
AcDbLayout
  1
Model
 70
     1
 71
     0
 10
0.0
 20
0.0
 11
12.0
 21
9.0
 12
0.0
 22
0.0
 32
0.0
 14
0.0
 24
0.0
 34
0.0
 15
0.0
 25
0.0
 35
0.0
146
0.0
 13
0.0
 23
0.0
 33
0.0
 16
1.0
 26
0.0
 36
0.0
 17
0.0
 27
1.0
 37
0.0
 76
     0
330
1A
  0
LAYOUT
  5
7B1
102
{ACAD_XDICTIONARY
360
1622
102
}
102
{ACAD_REACTORS
330
7AE
102
}
330
7AE
100
AcDbPlotSettings
  1

  2
C:\PROGRAM FILES\ACAD LT 2000\plotters\DWF ePlot.pc3
  4

  6

 40
0.0
 41
0.0
 42
0.0
 43
0.0
 44
0.0
 45
0.0
 46
0.0
 47
0.0
 48
0.0
 49
0.0
140
0.0
141
0.0
142
1.0
143
1.0
 70
   688
 72
     0
 73
     0
 74
     5
  7
print.ctb
 75
    16
147
1.0
148
0.0
149
0.0
100
AcDbLayout
  1
ﾚｲｱｳﾄ1
 70
     1
 71
     1
 10
0.0
 20
0.0
 11
420.0
 21
297.0
 12
0.0
 22
0.0
 32
0.0
 14
0.0
 24
0.0
 34
0.0
 15
420.0
 25
297.0
 35
0.0
146
0.0
 13
0.0
 23
0.0
 33
0.0
 16
1.0
 26
0.0
 36
0.0
 17
0.0
 27
1.0
 37
0.0
 76
     0
330
17
331
64
  0
MLINESTYLE
  5
13
102
{ACAD_REACTORS
330
E
102
}
330
E
100
AcDbMlineStyle
  2
STANDARD
 70
     0
  3

 62
     0
 51
90.0
 52
90.0
 71
     2
 49
0.5
 62
   256
  6
BYLAYER
 49
-0.5
 62
   256
  6
BYLAYER
  0
ACDBPLACEHOLDER
  5
7AD
102
{ACAD_REACTORS
330
7AC
102
}
330
7AC
  0
XRECORD
  5
161B
102
{ACAD_REACTORS
330
1619
102
}
330
1619
100
AcDbXrecord
280
     1
340
14C2
  0
XRECORD
  5
161A
102
{ACAD_REACTORS
330
1619
102
}
330
1619
100
AcDbXrecord
280
     1
340
14C1
  0
DICTIONARYVAR
  5
1616
102
{ACAD_REACTORS
330
1615
102
}
330
1615
100
DictionaryVariables
280
     0
  1
1
  0
DICTIONARYVAR
  5
1617
102
{ACAD_REACTORS
330
1615
102
}
330
1615
100
DictionaryVariables
280
     0
  1

  0
DICTIONARY
  5
1620
330
7B0
100
AcDbDictionary
280
     1
281
     1
  3
ACAD_XREC_ROUNDTRIP
360
1621
  0
DICTIONARY
  5
1622
330
7B1
100
AcDbDictionary
280
     1
281
     1
  3
ACAD_XREC_ROUNDTRIP
360
1623
  0
XRECORD
  5
1621
102
{ACAD_REACTORS
330
1620
102
}
330
1620
100
AcDbXrecord
280
     1
102
SHADEPLOT
 70
     1
102
SHADEPLOTRESLEVEL
 70
     2
102
SHADEPLOTCUSTOMDPI
 70
   300
  0
XRECORD
  5
1623
102
{ACAD_REACTORS
330
1622
102
}
330
1622
100
AcDbXrecord
280
     1
102
SHADEPLOT
 70
     0
102
SHADEPLOTRESLEVEL
 70
     2
102
SHADEPLOTCUSTOMDPI
 70
   300
  0
ENDSEC
  0
EOF
