  0
SECTION
  2
HEADER
  9
$ACADVER
  1
AC1014
  9
$ACADMAINTVER
 70
     9
  9
$DWGCODEPAGE
  3
ANSI_932
  9
$INSBASE
 10
0.0
 20
0.0
 30
0.0
  9
$EXTMIN
 10
-0.0128168413908725
 20
-0.0090633266842133
 30
-0.0015258207003583
  9
$EXTMAX
 10
398.800049759304
 20
275.822617222791
 30
0.0000000349246037
  9
$LIMMIN
 10
0.0
 20
0.0
  9
$LIMMAX
 10
420.0
 20
297.0
  9
$ORTHOMODE
 70
     0
  9
$REGENMODE
 70
     1
  9
$FILLMODE
 70
     1
  9
$QTEXTMODE
 70
     0
  9
$MIRRTEXT
 70
     1
  9
$DRAGMODE
 70
     2
  9
$LTSCALE
 40
1.0
  9
$OSMODE
 70
    37
  9
$ATTMODE
 70
     1
  9
$TEXTSIZE
 40
2.5
  9
$TRACEWID
 40
1.0
  9
$TEXTSTYLE
  7
STANDARD
  9
$CLAYER
  8
SUNPOU_L
  9
$CELTYPE
  6
BYLAYER
  9
$CECOLOR
 62
   256
  9
$CELTSCALE
 40
1.0
  9
$DELOBJ
 70
     1
  9
$DISPSILH
 70
     0
  9
$DIMSCALE
 40
1.0
  9
$DIMASZ
 40
3.0
  9
$DIMEXO
 40
3.0
  9
$DIMDLI
 40
7.0
  9
$DIMRND
 40
0.0
  9
$DIMDLE
 40
0.0
  9
$DIMEXE
 40
1.5
  9
$DIMTP
 40
0.0
  9
$DIMTM
 40
0.0
  9
$DIMTXT
 40
3.0
  9
$DIMCEN
 40
150.0
  9
$DIMTSZ
 40
0.0
  9
$DIMTOL
 70
     0
  9
$DIMLIM
 70
     0
  9
$DIMTIH
 70
     0
  9
$DIMTOH
 70
     0
  9
$DIMSE1
 70
     0
  9
$DIMSE2
 70
     0
  9
$DIMTAD
 70
     3
  9
$DIMZIN
 70
     0
  9
$DIMBLK
  1

  9
$DIMASO
 70
     1
  9
$DIMSHO
 70
     1
  9
$DIMPOST
  1

  9
$DIMAPOST
  1

  9
$DIMALT
 70
     0
  9
$DIMALTD
 70
     2
  9
$DIMALTF
 40
25.4
  9
$DIMLFAC
 40
1.0
  9
$DIMTOFL
 70
     1
  9
$DIMTVP
 40
0.0
  9
$DIMTIX
 70
     0
  9
$DIMSOXD
 70
     0
  9
$DIMSAH
 70
     1
  9
$DIMBLK1
  1
OPEN
  9
$DIMBLK2
  1
OPEN
  9
$DIMSTYLE
  2
STANDARD
  9
$DIMCLRD
 70
   256
  9
$DIMCLRE
 70
   256
  9
$DIMCLRT
 70
   256
  9
$DIMTFAC
 40
1.0
  9
$DIMGAP
 40
1.0
  9
$DIMJUST
 70
     0
  9
$DIMSD1
 70
     0
  9
$DIMSD2
 70
     0
  9
$DIMTOLJ
 70
     1
  9
$DIMTZIN
 70
     0
  9
$DIMALTZ
 70
     0
  9
$DIMALTTZ
 70
     0
  9
$DIMFIT
 70
     3
  9
$DIMUPT
 70
     0
  9
$DIMUNIT
 70
     2
  9
$DIMDEC
 70
     0
  9
$DIMTDEC
 70
     0
  9
$DIMALTU
 70
     2
  9
$DIMALTTD
 70
     2
  9
$DIMTXSTY
  7
STANDARD
  9
$DIMAUNIT
 70
     0
  9
$LUNITS
 70
     2
  9
$LUPREC
 70
     4
  9
$SKETCHINC
 40
1.0
  9
$FILLETRAD
 40
10.0
  9
$AUNITS
 70
     0
  9
$AUPREC
 70
     0
  9
$MENU
  1
.
  9
$ELEVATION
 40
0.0
  9
$PELEVATION
 40
0.0
  9
$THICKNESS
 40
0.0
  9
$LIMCHECK
 70
     0
  9
$BLIPMODE
 70
     0
  9
$CHAMFERA
 40
10.0
  9
$CHAMFERB
 40
10.0
  9
$CHAMFERC
 40
20.0
  9
$CHAMFERD
 40
0.0
  9
$SKPOLY
 70
     0
  9
$TDCREATE
 40
2450994.350997107
  9
$TDUPDATE
 40
2454484.388553992
  9
$TDINDWG
 40
0.0177066435
  9
$TDUSRTIMER
 40
0.0177066435
  9
$USRTIMER
 70
     1
  9
$ANGBASE
 50
0.0
  9
$ANGDIR
 70
     0
  9
$PDMODE
 70
     1
  9
$PDSIZE
 40
0.0
  9
$PLINEWID
 40
0.0
  9
$COORDS
 70
     1
  9
$SPLFRAME
 70
     0
  9
$SPLINETYPE
 70
     6
  9
$SPLINESEGS
 70
     8
  9
$ATTDIA
 70
     0
  9
$ATTREQ
 70
     1
  9
$HANDLING
 70
 10241
  9
$HANDSEED
  5
831
  9
$SURFTAB1
 70
     6
  9
$SURFTAB2
 70
     6
  9
$SURFTYPE
 70
     6
  9
$SURFU
 70
     6
  9
$SURFV
 70
     6
  9
$UCSNAME
  2

  9
$UCSORG
 10
0.0
 20
0.0
 30
0.0
  9
$UCSXDIR
 10
1.0
 20
0.0
 30
0.0
  9
$UCSYDIR
 10
0.0
 20
1.0
 30
0.0
  9
$PUCSNAME
  2

  9
$PUCSORG
 10
0.0
 20
0.0
 30
0.0
  9
$PUCSXDIR
 10
1.0
 20
0.0
 30
0.0
  9
$PUCSYDIR
 10
0.0
 20
1.0
 30
0.0
  9
$USERI1
 70
     0
  9
$USERI2
 70
     0
  9
$USERI3
 70
     0
  9
$USERI4
 70
     0
  9
$USERI5
 70
     0
  9
$USERR1
 40
0.0
  9
$USERR2
 40
0.0
  9
$USERR3
 40
0.0
  9
$USERR4
 40
0.0
  9
$USERR5
 40
0.0
  9
$WORLDVIEW
 70
     1
  9
$SHADEDGE
 70
     3
  9
$SHADEDIF
 70
    70
  9
$TILEMODE
 70
     1
  9
$MAXACTVP
 70
    16
  9
$PINSBASE
 10
0.0
 20
0.0
 30
0.0
  9
$PLIMCHECK
 70
     0
  9
$PEXTMIN
 10
-0.0128164049386896
 20
-0.0090630292066862
 30
-0.0015258207003583
  9
$PEXTMAX
 10
420.0128183607161
 20
297.0090644122207
 30
0.0000000349246037
  9
$PLIMMIN
 10
-4.642133609171732
 20
-4.638397962476942
  9
$PLIMMAX
 10
428.2932683769037
 20
301.6384038646573
  9
$UNITMODE
 70
     0
  9
$VISRETAIN
 70
     0
  9
$PLINEGEN
 70
     0
  9
$PSLTSCALE
 70
     1
  9
$TREEDEPTH
 70
  3020
  9
$PICKSTYLE
 70
     1
  9
$CMLSTYLE
  2
STANDARD
  9
$CMLJUST
 70
     0
  9
$CMLSCALE
 40
1.0
  9
$PROXYGRAPHICS
 70
     1
  9
$MEASUREMENT
 70
     1
  0
ENDSEC
  0
SECTION
  2
CLASSES
  0
CLASS
  1
ACDBDICTIONARYWDFLT
  2
AcDbDictionaryWithDefault
  3
AutoCAD 2000
 90
        0
280
     0
281
     0
  0
CLASS
  1
ACDBPLACEHOLDER
  2
AcDbPlaceHolder
  3
AutoCAD 2000
 90
        0
280
     0
281
     0
  0
CLASS
  1
LAYOUT
  2
AcDbLayout
  3
AutoCAD 2000
 90
        0
280
     0
281
     0
  0
CLASS
  1
LONG_TRANSACTION
  2
AcDbLongTransaction
  3
AutoCAD 2000
 90
        0
280
     0
281
     0
  0
CLASS
  1
LWPOLYLINE
  2
AcDbPolyline
  3
AutoCAD 2000
 90
        0
280
     0
281
     1
  0
CLASS
  1
HATCH
  2
AcDbHatch
  3
AutoCAD 2000
 90
        0
280
     0
281
     1
  0
CLASS
  1
XRECORD
  2
AcDbXrecord
  3
AutoCAD 2000
 90
        0
280
     0
281
     0
  0
CLASS
  1
LONG_TRANSACTION
  2
AcDbLongTransaction
  3
AutoCAD 2000
 90
        0
280
     0
281
     0
  0
CLASS
  1
LWPOLYLINE
  2
AcDbPolyline
  3
AutoCAD 2000
 90
        0
280
     0
281
     1
  0
CLASS
  1
HATCH
  2
AcDbHatch
  3
AutoCAD 2000
 90
        0
280
     0
281
     1
  0
CLASS
  1
XRECORD
  2
AcDbXrecord
  3
AutoCAD 2000
 90
        0
280
     0
281
     0
  0
CLASS
  1
LONG_TRANSACTION
  2
AcDbLongTransaction
  3
AutoCAD 2000
 90
        0
280
     0
281
     0
  0
CLASS
  1
LWPOLYLINE
  2
AcDbPolyline
  3
AutoCAD 2000
 90
        0
280
     0
281
     1
  0
CLASS
  1
HATCH
  2
AcDbHatch
  3
AutoCAD 2000
 90
        0
280
     0
281
     1
  0
CLASS
  1
XRECORD
  2
AcDbXrecord
  3
AutoCAD 2000
 90
        0
280
     0
281
     0
  0
ENDSEC
  0
SECTION
  2
TABLES
  0
TABLE
  2
VPORT
  5
8
330
0
100
AcDbSymbolTable
 70
     2
  0
VPORT
  5
805
330
8
100
AcDbSymbolTableRecord
100
AcDbViewportTableRecord
  2
*ACTIVE
 70
     0
 10
0.0
 20
0.0
 11
1.0
 21
1.0
 12
202.2251491729499
 22
151.7903001129247
 13
0.0
 23
0.0
 14
5.0
 24
5.0
 15
0.0
 25
0.0
 16
0.0
 26
0.0
 36
1.0
 17
0.0
 27
0.0
 37
0.0
 40
342.5152178616702
 41
1.570153061224489
 42
50.0
 43
0.0
 44
0.0
 50
0.0
 51
0.0
 71
     0
 72
   100
 73
     1
 74
     0
 75
     0
 76
     0
 77
     0
 78
     0
  0
ENDTAB
  0
TABLE
  2
LTYPE
  5
5
330
0
100
AcDbSymbolTable
 70
     4
  0
LTYPE
  5
14
330
5
100
AcDbSymbolTableRecord
100
AcDbLinetypeTableRecord
  2
BYBLOCK
 70
     0
  3

 72
    65
 73
     0
 40
0.0
  0
LTYPE
  5
15
330
5
100
AcDbSymbolTableRecord
100
AcDbLinetypeTableRecord
  2
BYLAYER
 70
     0
  3

 72
    65
 73
     0
 40
0.0
  0
LTYPE
  5
16
330
5
100
AcDbSymbolTableRecord
100
AcDbLinetypeTableRecord
  2
CONTINUOUS
 70
     0
  3
Solid line
 72
    65
 73
     0
 40
0.0
  0
LTYPE
  5
120
330
5
100
AcDbSymbolTableRecord
100
AcDbLinetypeTableRecord
  2
CENTER
 70
     0
  3
____ _ ____ _ ____ _ ____ _ ____ _ ____ _ ____ 
 72
    65
 73
     4
 40
2.0
 49
1.25
 74
     0
 49
-0.25
 74
     0
 49
0.25
 74
     0
 49
-0.25
 74
     0
  0
LTYPE
  5
122
330
5
100
AcDbSymbolTableRecord
100
AcDbLinetypeTableRecord
  2
PHANTOM
 70
     0
  3
______  __  __  ______  __  __  ______  __  __ 
 72
    65
 73
     6
 40
2.5
 49
1.25
 74
     0
 49
-0.25
 74
     0
 49
0.25
 74
     0
 49
-0.25
 74
     0
 49
0.25
 74
     0
 49
-0.25
 74
     0
  0
LTYPE
  5
2C2
330
5
100
AcDbSymbolTableRecord
100
AcDbLinetypeTableRecord
  2
ACAD_ISO04W100
 70
     0
  3
____ . ____ . ____ . ____ . ____ . ____ . ____ 
 72
    65
 73
     4
 40
30.5
 49
24.0
 74
     0
 49
-3.0
 74
     0
 49
0.5
 74
     0
 49
-3.0
 74
     0
  0
ENDTAB
  0
TABLE
  2
LAYER
  5
2
330
0
100
AcDbSymbolTable
 70
    10
  0
LAYER
  5
F
330
2
100
AcDbSymbolTableRecord
100
AcDbLayerTableRecord
  2
0
 70
     0
 62
     7
  6
CONTINUOUS
  0
LAYER
  5
62
330
2
100
AcDbSymbolTableRecord
100
AcDbLayerTableRecord
  2
VIEWPORT
 70
     0
 62
     7
  6
CONTINUOUS
  0
LAYER
  5
6B
330
2
100
AcDbSymbolTableRecord
100
AcDbLayerTableRecord
  2
ZUWAKU
 70
     0
 62
     7
  6
CONTINUOUS
  0
LAYER
  5
146
330
2
100
AcDbSymbolTableRecord
100
AcDbLayerTableRecord
  2
SUNPOU_L
 70
     0
 62
     4
  6
CONTINUOUS
  0
LAYER
  5
185
330
2
100
AcDbSymbolTableRecord
100
AcDbLayerTableRecord
  2
CENTER_L
 70
     0
 62
     1
  6
CENTER
  0
LAYER
  5
18C
330
2
100
AcDbSymbolTableRecord
100
AcDbLayerTableRecord
  2
DEFPOINTS
 70
     0
 62
     7
  6
CONTINUOUS
  0
LAYER
  5
2C3
330
2
100
AcDbSymbolTableRecord
100
AcDbLayerTableRecord
  2
SUNPOU
 70
     0
 62
     4
  6
CONTINUOUS
  0
LAYER
  5
2C4
330
2
100
AcDbSymbolTableRecord
100
AcDbLayerTableRecord
  2
SEIHIN
 70
     0
 62
     3
  6
CONTINUOUS
  0
LAYER
  5
2C5
330
2
100
AcDbSymbolTableRecord
100
AcDbLayerTableRecord
  2
NOKITOI
 70
     0
 62
     8
  6
PHANTOM
  0
LAYER
  5
68E
330
2
100
AcDbSymbolTableRecord
100
AcDbLayerTableRecord
  2
MOJI
 70
     0
 62
     2
  6
CONTINUOUS
  0
ENDTAB
  0
TABLE
  2
STYLE
  5
3
330
0
100
AcDbSymbolTable
 70
     2
  0
STYLE
  5
10
330
3
100
AcDbSymbolTableRecord
100
AcDbTextStyleTableRecord
  2
STANDARD
 70
     0
 40
0.0
 41
1.0
 50
0.0
 71
     0
 42
2.5
  3
TXT
  4
bigfont.shx
  0
STYLE
  5
68F
330
3
100
AcDbSymbolTableRecord
100
AcDbTextStyleTableRecord
  2
ｽﾀｲﾙ1
 70
     0
 40
0.0
 41
1.0
 50
0.0
 71
     0
 42
2.5
  3
MS PGothic.ttf
  4

1001
ACAD
1000
MS PGothic
1071
    32818
  0
ENDTAB
  0
TABLE
  2
VIEW
  5
6
330
0
100
AcDbSymbolTable
 70
     0
  0
ENDTAB
  0
TABLE
  2
UCS
  5
7
330
0
100
AcDbSymbolTable
 70
     0
  0
ENDTAB
  0
TABLE
  2
APPID
  5
9
330
0
100
AcDbSymbolTable
 70
     1
  0
APPID
  5
11
330
9
100
AcDbSymbolTableRecord
100
AcDbRegAppTableRecord
  2
ACAD
 70
     0
  0
ENDTAB
  0
TABLE
  2
DIMSTYLE
  5
A
330
0
100
AcDbSymbolTable
 70
     1
  0
DIMSTYLE
105
1D
102
{ACAD_REACTORS
330
3ED
330
401
330
402
330
435
330
4B0
330
4B4
330
4FC
330
501
330
502
330
507
102
}
330
A
100
AcDbSymbolTableRecord
100
AcDbDimStyleTableRecord
  2
STANDARD
 70
     0
  3

  4

  5

  6

  7

 40
1.0
 41
0.18
 42
0.0625
 43
0.38
 44
0.18
 45
0.0
 46
0.0
 47
0.0
 48
0.0
140
0.18
141
0.09
142
0.0
143
25.4
144
1.0
145
0.0
146
1.0
147
0.09
 71
     0
 72
     0
 73
     1
 74
     1
 75
     0
 76
     0
 77
     0
 78
     0
170
     0
171
     2
172
     0
173
     0
174
     0
175
     0
176
     0
177
     0
178
     0
270
     2
271
     4
272
     4
273
     2
274
     2
340
10
275
     0
280
     0
281
     0
282
     0
283
     1
284
     0
285
     0
286
     0
287
     3
288
     0
  0
ENDTAB
  0
TABLE
  2
BLOCK_RECORD
  5
1
330
0
100
AcDbSymbolTable
 70
    11
  0
BLOCK_RECORD
  5
1A
102
{ACAD_XDICTIONARY
360
63A
102
}
330
1
100
AcDbSymbolTableRecord
100
AcDbBlockTableRecord
  2
*MODEL_SPACE
  0
BLOCK_RECORD
  5
17
102
{ACAD_XDICTIONARY
360
638
102
}
330
1
100
AcDbSymbolTableRecord
100
AcDbBlockTableRecord
  2
*PAPER_SPACE
  0
BLOCK_RECORD
  5
B2
330
1
100
AcDbSymbolTableRecord
100
AcDbBlockTableRecord
  2
_OPEN
  0
BLOCK_RECORD
  5
510
330
1
100
AcDbSymbolTableRecord
100
AcDbBlockTableRecord
  2
*D1
  0
BLOCK_RECORD
  5
51C
330
1
100
AcDbSymbolTableRecord
100
AcDbBlockTableRecord
  2
*D2
  0
BLOCK_RECORD
  5
528
330
1
100
AcDbSymbolTableRecord
100
AcDbBlockTableRecord
  2
*D3
  0
BLOCK_RECORD
  5
534
330
1
100
AcDbSymbolTableRecord
100
AcDbBlockTableRecord
  2
*D4
  0
BLOCK_RECORD
  5
540
330
1
100
AcDbSymbolTableRecord
100
AcDbBlockTableRecord
  2
*D5
  0
BLOCK_RECORD
  5
54C
330
1
100
AcDbSymbolTableRecord
100
AcDbBlockTableRecord
  2
*D6
  0
BLOCK_RECORD
  5
558
330
1
100
AcDbSymbolTableRecord
100
AcDbBlockTableRecord
  2
*D7
  0
BLOCK_RECORD
  5
566
330
1
100
AcDbSymbolTableRecord
100
AcDbBlockTableRecord
  2
*D8
  0
BLOCK_RECORD
  5
571
330
1
100
AcDbSymbolTableRecord
100
AcDbBlockTableRecord
  2
*D9
  0
BLOCK_RECORD
  5
57F
330
1
100
AcDbSymbolTableRecord
100
AcDbBlockTableRecord
  2
*D10
  0
ENDTAB
  0
ENDSEC
  0
SECTION
  2
BLOCKS
  0
BLOCK
  5
1B
330
1A
100
AcDbEntity
  8
0
100
AcDbBlockBegin
  2
*MODEL_SPACE
 70
     0
 10
0.0
 20
0.0
 30
0.0
  3
*MODEL_SPACE
  1

  0
ENDBLK
  5
1C
330
1A
100
AcDbEntity
  8
0
100
AcDbBlockEnd
  0
BLOCK
  5
18
330
17
100
AcDbEntity
 67
     1
  8
0
100
AcDbBlockBegin
  2
*PAPER_SPACE
 70
     0
 10
0.0
 20
0.0
 30
0.0
  3
*PAPER_SPACE
  1

  0
ENDBLK
  5
19
330
17
100
AcDbEntity
 67
     1
  8
0
100
AcDbBlockEnd
  0
BLOCK
  5
B3
330
B2
100
AcDbEntity
  8
0
100
AcDbBlockBegin
  2
_OPEN
 70
     0
 10
0.0
 20
0.0
 30
0.0
  3
_OPEN
  1

  0
LINE
  5
B4
330
B2
100
AcDbEntity
  8
0
  6
BYBLOCK
 62
     0
100
AcDbLine
 10
-1.0
 20
0.1666666666666666
 30
0.0
 11
0.0
 21
0.0
 31
0.0
  0
LINE
  5
B5
330
B2
100
AcDbEntity
  8
0
  6
BYBLOCK
 62
     0
100
AcDbLine
 10
0.0
 20
0.0
 30
0.0
 11
-1.0
 21
-0.1666666666666666
 31
0.0
  0
LINE
  5
B6
330
B2
100
AcDbEntity
  8
0
  6
BYBLOCK
 62
     0
100
AcDbLine
 10
0.0
 20
0.0
 30
0.0
 11
-1.0
 21
0.0
 31
0.0
  0
ENDBLK
  5
B7
330
B2
100
AcDbEntity
  8
0
100
AcDbBlockEnd
  0
BLOCK
  5
58D
330
510
100
AcDbEntity
  8
0
100
AcDbBlockBegin
  2
*D1
 70
     1
 10
0.0
 20
0.0
 30
0.0
  3
*D1
  1

  0
LINE
  5
58E
330
510
100
AcDbEntity
  8
0
  6
BYBLOCK
 62
     4
100
AcDbLine
 10
346.0635996705089
 20
148.3478262038528
 30
0.0
 11
358.0450114530329
 21
118.3921421172583
 31
0.0
  0
LINE
  5
58F
330
510
100
AcDbEntity
  8
0
  6
BYBLOCK
 62
     4
100
AcDbLine
 10
142.1037661144372
 20
66.76976089023288
 30
0.0
 11
154.0851778969609
 21
36.81407680363911
 31
0.0
  0
LINE
  5
590
330
510
100
AcDbEntity
  8
0
  6
BYBLOCK
 62
     4
100
AcDbLine
 10
354.7025022755066
 20
118.6707680280277
 30
0.0
 11
156.3135841320923
 21
39.32090859919854
 31
0.0
  0
INSERT
  5
591
330
510
100
AcDbEntity
  8
0
  6
BYBLOCK
 62
     4
100
AcDbBlockReference
  2
_OPEN
 10
357.4879599818354
 20
119.7848709704227
 30
0.0
 41
3.0
 42
3.0
 43
3.0
 50
21.79998839348006
  0
INSERT
  5
592
330
510
100
AcDbEntity
  8
0
  6
BYBLOCK
 62
     4
100
AcDbBlockReference
  2
_OPEN
 10
153.5281264257634
 20
38.20680565680352
 30
0.0
 41
3.0
 42
3.0
 43
3.0
 50
201.79998839348
  0
MTEXT
  5
593
330
510
100
AcDbEntity
  8
0
  6
BYBLOCK
 62
     4
100
AcDbMText
 10
254.5796240851369
 20
81.31705306888719
 30
0.0
 40
3.0
 41
0.0
 71
     5
 72
     5
  1
\A1;220
 11
0.9284859021096153
 21
0.3713676474650072
 31
0.0
1001
ACAD
1000
MTEXTBEGIN
1070
    73
1070
     1
1070
    44
1040
1.0
1070
    74
1070
     0
1000
MTEXTEND
1000
MTEXTBEGIN
1070
    73
1070
     1
1070
    44
1040
1.0
1070
    74
1070
     0
1000
MTEXTEND
1000
MTEXTBEGIN
1070
    73
1070
     1
1070
    44
1040
1.0
1070
    74
1070
     0
1000
MTEXTEND
  0
POINT
  5
594
330
510
100
AcDbEntity
  8
DEFPOINTS
  6
BYBLOCK
 62
     0
100
AcDbPoint
 10
344.9494967281139
 20
151.1332839101816
 30
0.0
  0
POINT
  5
595
330
510
100
AcDbEntity
  8
DEFPOINTS
  6
BYBLOCK
 62
     0
100
AcDbPoint
 10
140.9896631720422
 20
69.55521859656172
 30
0.0
  0
POINT
  5
596
330
510
100
AcDbEntity
  8
DEFPOINTS
  6
BYBLOCK
 62
     0
100
AcDbPoint
 10
153.5281264257634
 20
38.20680565680352
 30
0.0
  0
ENDBLK
  5
597
330
510
100
AcDbEntity
  8
0
100
AcDbBlockEnd
  0
BLOCK
  5
598
330
51C
100
AcDbEntity
  8
0
100
AcDbBlockBegin
  2
*D2
 70
     1
 10
0.0
 20
0.0
 30
0.0
  3
*D2
  1

  0
LINE
  5
599
330
51C
100
AcDbEntity
  8
0
  6
BYBLOCK
 62
     4
100
AcDbLine
 10
182.0118855815507
 20
149.88179847
 30
0.0
 11
155.1291756931892
 21
149.88179847
 31
0.0
  0
LINE
  5
59A
330
51C
100
AcDbEntity
  8
0
  6
BYBLOCK
 62
     4
100
AcDbLine
 10
163.0118855815505
 20
106.8817390717758
 30
0.0
 11
155.1291756931892
 21
106.8817390717758
 31
0.0
  0
LINE
  5
59B
330
51C
100
AcDbEntity
  8
0
  6
BYBLOCK
 62
     4
100
AcDbLine
 10
156.6291756931892
 20
146.88179847
 30
0.0
 11
156.6291756931892
 21
109.8817390717758
 31
0.0
  0
INSERT
  5
59C
330
51C
100
AcDbEntity
  8
0
  6
BYBLOCK
 62
     4
100
AcDbBlockReference
  2
_OPEN
 10
156.6291756931892
 20
149.88179847
 30
0.0
 41
3.0
 42
3.0
 43
3.0
 50
90.0
  0
INSERT
  5
59D
330
51C
100
AcDbEntity
  8
0
  6
BYBLOCK
 62
     4
100
AcDbBlockReference
  2
_OPEN
 10
156.6291756931892
 20
106.8817390717758
 30
0.0
 41
3.0
 42
3.0
 43
3.0
 50
270.0
  0
MTEXT
  5
59E
330
51C
100
AcDbEntity
  8
0
  6
BYBLOCK
 62
     4
100
AcDbMText
 10
154.1291756931892
 20
128.3817687708879
 30
0.0
 40
3.0
 41
0.0
 71
     5
 72
     5
  1
\A1;43
 11
0.0
 21
1.0
 31
0.0
1001
ACAD
1000
MTEXTBEGIN
1070
    73
1070
     1
1070
    44
1040
1.0
1070
    74
1070
     0
1000
MTEXTEND
1000
MTEXTBEGIN
1070
    73
1070
     1
1070
    44
1040
1.0
1070
    74
1070
     0
1000
MTEXTEND
1000
MTEXTBEGIN
1070
    73
1070
     1
1070
    44
1040
1.0
1070
    74
1070
     0
1000
MTEXTEND
  0
POINT
  5
59F
330
51C
100
AcDbEntity
  8
DEFPOINTS
  6
BYBLOCK
 62
     0
100
AcDbPoint
 10
185.0118855815507
 20
149.88179847
 30
0.0
  0
POINT
  5
5A0
330
51C
100
AcDbEntity
  8
DEFPOINTS
  6
BYBLOCK
 62
     0
100
AcDbPoint
 10
166.0118855815505
 20
106.8817390717758
 30
0.0
  0
POINT
  5
5A1
330
51C
100
AcDbEntity
  8
DEFPOINTS
  6
BYBLOCK
 62
     0
100
AcDbPoint
 10
156.6291756931892
 20
106.8817390717758
 30
0.0
  0
ENDBLK
  5
5A2
330
51C
100
AcDbEntity
  8
0
100
AcDbBlockEnd
  0
BLOCK
  5
5A3
330
528
100
AcDbEntity
  8
0
100
AcDbBlockBegin
  2
*D3
 70
     1
 10
0.0
 20
0.0
 30
0.0
  3
*D3
  1

  0
LINE
  5
5A4
330
528
100
AcDbEntity
  8
0
  6
BYBLOCK
 62
     4
100
AcDbLine
 10
95.41198558155073
 20
166.3817390717756
 30
0.0
 11
86.94799401511696
 21
166.3817390717756
 31
0.0
  0
LINE
  5
5A5
330
528
100
AcDbEntity
  8
0
  6
BYBLOCK
 62
     4
100
AcDbLine
 10
113.5490855815506
 20
106.0817390717757
 30
0.0
 11
86.94799401511696
 21
106.0817390717757
 31
0.0
  0
LINE
  5
5A6
330
528
100
AcDbEntity
  8
0
  6
BYBLOCK
 62
     4
100
AcDbLine
 10
88.44799401511696
 20
163.3817390717756
 30
0.0
 11
88.44799401511696
 21
109.0817390717757
 31
0.0
  0
INSERT
  5
5A7
330
528
100
AcDbEntity
  8
0
  6
BYBLOCK
 62
     4
100
AcDbBlockReference
  2
_OPEN
 10
88.44799401511696
 20
166.3817390717756
 30
0.0
 41
3.0
 42
3.0
 43
3.0
 50
90.0
  0
INSERT
  5
5A8
330
528
100
AcDbEntity
  8
0
  6
BYBLOCK
 62
     4
100
AcDbBlockReference
  2
_OPEN
 10
88.44799401511696
 20
106.0817390717757
 30
0.0
 41
3.0
 42
3.0
 43
3.0
 50
270.0
  0
MTEXT
  5
5A9
330
528
100
AcDbEntity
  8
0
  6
BYBLOCK
 62
     4
100
AcDbMText
 10
85.94799401511696
 20
136.2317390717757
 30
0.0
 40
3.0
 41
0.0
 71
     5
 72
     5
  1
\A1;60
 11
0.0
 21
1.0
 31
0.0
1001
ACAD
1000
MTEXTBEGIN
1070
    73
1070
     1
1070
    44
1040
1.0
1070
    74
1070
     0
1000
MTEXTEND
1000
MTEXTBEGIN
1070
    73
1070
     1
1070
    44
1040
1.0
1070
    74
1070
     0
1000
MTEXTEND
1000
MTEXTBEGIN
1070
    73
1070
     1
1070
    44
1040
1.0
1070
    74
1070
     0
1000
MTEXTEND
  0
POINT
  5
5AA
330
528
100
AcDbEntity
  8
DEFPOINTS
  6
BYBLOCK
 62
     0
100
AcDbPoint
 10
98.41198558155074
 20
166.3817390717756
 30
0.0
  0
POINT
  5
5AB
330
528
100
AcDbEntity
  8
DEFPOINTS
  6
BYBLOCK
 62
     0
100
AcDbPoint
 10
116.5490855815505
 20
106.0817390717757
 30
0.0
  0
POINT
  5
5AC
330
528
100
AcDbEntity
  8
DEFPOINTS
  6
BYBLOCK
 62
     0
100
AcDbPoint
 10
88.44799401511696
 20
106.0817390717757
 30
0.0
  0
ENDBLK
  5
5AD
330
528
100
AcDbEntity
  8
0
100
AcDbBlockEnd
  0
BLOCK
  5
5AE
330
534
100
AcDbEntity
  8
0
100
AcDbBlockBegin
  2
*D4
 70
     1
 10
0.0
 20
0.0
 30
0.0
  3
*D4
  1

  0
LINE
  5
5AF
330
534
100
AcDbEntity
  8
0
  6
BYBLOCK
 62
     4
100
AcDbLine
 10
113.5490855815506
 20
106.0817390717757
 30
0.0
 11
86.94799401511696
 21
106.0817390717757
 31
0.0
  0
LINE
  5
5B0
330
534
100
AcDbEntity
  8
0
  6
BYBLOCK
 62
     4
100
AcDbLine
 10
155.8619627820176
 20
58.88176626183746
 30
0.0
 11
86.94799401511696
 21
58.88176626183746
 31
0.0
  0
LINE
  5
5B1
330
534
100
AcDbEntity
  8
0
  6
BYBLOCK
 62
     4
100
AcDbLine
 10
88.44799401511696
 20
103.0817390717757
 30
0.0
 11
88.44799401511696
 21
61.88176626183746
 31
0.0
  0
INSERT
  5
5B2
330
534
100
AcDbEntity
  8
0
  6
BYBLOCK
 62
     4
100
AcDbBlockReference
  2
_OPEN
 10
88.44799401511696
 20
106.0817390717757
 30
0.0
 41
3.0
 42
3.0
 43
3.0
 50
90.0
  0
INSERT
  5
5B3
330
534
100
AcDbEntity
  8
0
  6
BYBLOCK
 62
     4
100
AcDbBlockReference
  2
_OPEN
 10
88.44799401511696
 20
58.88176626183746
 30
0.0
 41
3.0
 42
3.0
 43
3.0
 50
270.0
  0
MTEXT
  5
5B4
330
534
100
AcDbEntity
  8
0
  6
BYBLOCK
 62
     4
100
AcDbMText
 10
85.94799401511696
 20
82.48175266680663
 30
0.0
 40
3.0
 41
0.0
 71
     5
 72
     5
  1
\A1;47
 11
0.0
 21
1.0
 31
0.0
1001
ACAD
1000
MTEXTBEGIN
1070
    73
1070
     1
1070
    44
1040
1.0
1070
    74
1070
     0
1000
MTEXTEND
1000
MTEXTBEGIN
1070
    73
1070
     1
1070
    44
1040
1.0
1070
    74
1070
     0
1000
MTEXTEND
1000
MTEXTBEGIN
1070
    73
1070
     1
1070
    44
1040
1.0
1070
    74
1070
     0
1000
MTEXTEND
  0
POINT
  5
5B5
330
534
100
AcDbEntity
  8
DEFPOINTS
  6
BYBLOCK
 62
     0
100
AcDbPoint
 10
116.5490855815505
 20
106.0817390717757
 30
0.0
  0
POINT
  5
5B6
330
534
100
AcDbEntity
  8
DEFPOINTS
  6
BYBLOCK
 62
     0
100
AcDbPoint
 10
158.8619627820176
 20
58.88176626183746
 30
0.0
  0
POINT
  5
5B7
330
534
100
AcDbEntity
  8
DEFPOINTS
  6
BYBLOCK
 62
     0
100
AcDbPoint
 10
88.44799401511696
 20
58.88176626183746
 30
0.0
  0
ENDBLK
  5
5B8
330
534
100
AcDbEntity
  8
0
100
AcDbBlockEnd
  0
BLOCK
  5
5B9
330
540
100
AcDbEntity
  8
0
100
AcDbBlockBegin
  2
*D5
 70
     1
 10
0.0
 20
0.0
 30
0.0
  3
*D5
  1

  0
LINE
  5
5BA
330
540
100
AcDbEntity
  8
0
  6
BYBLOCK
 62
     4
100
AcDbLine
 10
95.41198558155073
 20
246.8817390717756
 30
0.0
 11
87.04231236747105
 21
246.8817390717756
 31
0.0
  0
LINE
  5
5BB
330
540
100
AcDbEntity
  8
0
  6
BYBLOCK
 62
     4
100
AcDbLine
 10
95.41198558155073
 20
226.8818390717757
 30
0.0
 11
87.04231236747105
 21
226.8818390717757
 31
0.0
  0
LINE
  5
5BC
330
540
100
AcDbEntity
  8
0
  6
BYBLOCK
 62
     4
100
AcDbLine
 10
88.54231236747105
 20
243.8817390717756
 30
0.0
 11
88.54231236747105
 21
229.8818390717757
 31
0.0
  0
INSERT
  5
5BD
330
540
100
AcDbEntity
  8
0
  6
BYBLOCK
 62
     4
100
AcDbBlockReference
  2
_OPEN
 10
88.54231236747105
 20
246.8817390717756
 30
0.0
 41
3.0
 42
3.0
 43
3.0
 50
90.0
  0
INSERT
  5
5BE
330
540
100
AcDbEntity
  8
0
  6
BYBLOCK
 62
     4
100
AcDbBlockReference
  2
_OPEN
 10
88.54231236747105
 20
226.8818390717757
 30
0.0
 41
3.0
 42
3.0
 43
3.0
 50
270.0
  0
MTEXT
  5
5BF
330
540
100
AcDbEntity
  8
0
  6
BYBLOCK
 62
     4
100
AcDbMText
 10
86.04231236747105
 20
236.8817890717756
 30
0.0
 40
3.0
 41
0.0
 71
     5
 72
     5
  1
\A1;20
 11
0.0
 21
1.0
 31
0.0
1001
ACAD
1000
MTEXTBEGIN
1070
    73
1070
     1
1070
    44
1040
1.0
1070
    74
1070
     0
1000
MTEXTEND
1000
MTEXTBEGIN
1070
    73
1070
     1
1070
    44
1040
1.0
1070
    74
1070
     0
1000
MTEXTEND
1000
MTEXTBEGIN
1070
    73
1070
     1
1070
    44
1040
1.0
1070
    74
1070
     0
1000
MTEXTEND
  0
POINT
  5
5C0
330
540
100
AcDbEntity
  8
DEFPOINTS
  6
BYBLOCK
 62
     0
100
AcDbPoint
 10
98.41198558155074
 20
246.8817390717756
 30
0.0
  0
POINT
  5
5C1
330
540
100
AcDbEntity
  8
DEFPOINTS
  6
BYBLOCK
 62
     0
100
AcDbPoint
 10
98.41198558155074
 20
226.8818390717757
 30
0.0
  0
POINT
  5
5C2
330
540
100
AcDbEntity
  8
DEFPOINTS
  6
BYBLOCK
 62
     0
100
AcDbPoint
 10
88.54231236747105
 20
226.8818390717757
 30
0.0
  0
ENDBLK
  5
5C3
330
540
100
AcDbEntity
  8
0
100
AcDbBlockEnd
  0
BLOCK
  5
5C4
330
54C
100
AcDbEntity
  8
0
100
AcDbBlockBegin
  2
*D6
 70
     1
 10
0.0
 20
0.0
 30
0.0
  3
*D6
  1

  0
LINE
  5
5C5
330
54C
100
AcDbEntity
  8
0
  6
BYBLOCK
 62
     4
100
AcDbLine
 10
185.0118855815507
 20
150.5359390717757
 30
0.0
 11
185.0118855815507
 21
178.108957719218
 31
0.0
  0
LINE
  5
5C6
330
54C
100
AcDbEntity
  8
0
  6
BYBLOCK
 62
     4
100
AcDbLine
 10
98.41198558155074
 20
169.3817390717756
 30
0.0
 11
98.41198558155074
 21
178.108957719218
 31
0.0
  0
LINE
  5
5C7
330
54C
100
AcDbEntity
  8
0
  6
BYBLOCK
 62
     4
100
AcDbLine
 10
182.0118855815507
 20
176.608957719218
 30
0.0
 11
101.4119855815507
 21
176.608957719218
 31
0.0
  0
INSERT
  5
5C8
330
54C
100
AcDbEntity
  8
0
  6
BYBLOCK
 62
     4
100
AcDbBlockReference
  2
_OPEN
 10
185.0118855815507
 20
176.608957719218
 30
0.0
 41
3.0
 42
3.0
 43
3.0
  0
INSERT
  5
5C9
330
54C
100
AcDbEntity
  8
0
  6
BYBLOCK
 62
     4
100
AcDbBlockReference
  2
_OPEN
 10
98.41198558155074
 20
176.608957719218
 30
0.0
 41
3.0
 42
3.0
 43
3.0
 50
180.0
  0
MTEXT
  5
5CA
330
54C
100
AcDbEntity
  8
0
  6
BYBLOCK
 62
     4
100
AcDbMText
 10
141.7119355815507
 20
179.108957719218
 30
0.0
 40
3.0
 41
0.0
 71
     5
 72
     5
  1
\A1;87
1001
ACAD
1000
MTEXTBEGIN
1070
    73
1070
     1
1070
    44
1040
1.0
1070
    74
1070
     0
1000
MTEXTEND
1000
MTEXTBEGIN
1070
    73
1070
     1
1070
    44
1040
1.0
1070
    74
1070
     0
1000
MTEXTEND
1000
MTEXTBEGIN
1070
    73
1070
     1
1070
    44
1040
1.0
1070
    74
1070
     0
1000
MTEXTEND
  0
POINT
  5
5CB
330
54C
100
AcDbEntity
  8
DEFPOINTS
  6
BYBLOCK
 62
     0
100
AcDbPoint
 10
185.0118855815507
 20
147.5359390717757
 30
0.0
  0
POINT
  5
5CC
330
54C
100
AcDbEntity
  8
DEFPOINTS
  6
BYBLOCK
 62
     0
100
AcDbPoint
 10
98.41198558155074
 20
166.3817390717756
 30
0.0
  0
POINT
  5
5CD
330
54C
100
AcDbEntity
  8
DEFPOINTS
  6
BYBLOCK
 62
     0
100
AcDbPoint
 10
98.41198558155074
 20
176.608957719218
 30
0.0
  0
ENDBLK
  5
5CE
330
54C
100
AcDbEntity
  8
0
100
AcDbBlockEnd
  0
BLOCK
  5
5CF
330
558
100
AcDbEntity
  8
0
100
AcDbBlockBegin
  2
*D7
 70
     1
 10
0.0
 20
0.0
 30
0.0
  3
*D7
  1

  0
LINE
  5
5D0
330
558
100
AcDbEntity
  8
0
  6
BYBLOCK
 62
     4
100
AcDbLine
 10
336.0718694496788
 20
181.4068266206848
 30
0.0
 11
354.1840685533989
 21
188.6512771001226
 31
0.0
  0
LINE
  5
5D1
330
558
100
AcDbEntity
  8
0
  6
BYBLOCK
 62
     4
100
AcDbLine
 10
339.785590139467
 20
172.12197489315
 30
0.0
 11
357.8977892431871
 21
179.3664253725878
 31
0.0
  0
LINE
  5
5D2
330
558
100
AcDbEntity
  8
0
  6
BYBLOCK
 62
     4
100
AcDbLine
 10
351.6772270059827
 20
190.8796723649148
 30
0.0
 11
350.5631118739667
 21
193.665125195715
 31
0.0
  0
LINE
  5
5D3
330
558
100
AcDbEntity
  8
0
  6
BYBLOCK
 62
     4
100
AcDbLine
 10
357.6191779598031
 20
176.0239149757796
 30
0.0
 11
358.7332930918191
 21
173.2384621449794
 31
0.0
  0
LINE
  5
5D4
330
558
100
AcDbEntity
  8
0
  6
BYBLOCK
 62
     4
100
AcDbLine
 10
352.7913421379988
 20
188.0942195341146
 30
0.0
 11
356.505062827787
 21
178.8093678065798
 31
0.0
  0
INSERT
  5
5D5
330
558
100
AcDbEntity
  8
0
  6
BYBLOCK
 62
     4
100
AcDbBlockReference
  2
_OPEN
 10
352.7913421379988
 20
188.0942195341146
 30
0.0
 41
3.0
 42
3.0
 43
3.0
 50
291.8002391294537
  0
INSERT
  5
5D6
330
558
100
AcDbEntity
  8
0
  6
BYBLOCK
 62
     4
100
AcDbBlockReference
  2
_OPEN
 10
356.505062827787
 20
178.8093678065798
 30
0.0
 41
3.0
 42
3.0
 43
3.0
 50
111.8002391294536
  0
MTEXT
  5
5D7
330
558
100
AcDbEntity
  8
0
  6
BYBLOCK
 62
     4
100
AcDbMText
 10
356.9694131752264
 20
184.3802229470272
 30
0.0
 40
3.0
 41
0.0
 71
     5
 72
     5
  1
\A1;10
 11
0.3713717106720166
 21
-0.9284842769334007
 31
0.0
1001
ACAD
1000
MTEXTBEGIN
1070
    73
1070
     1
1070
    44
1040
1.0
1070
    74
1070
     0
1000
MTEXTEND
1000
MTEXTBEGIN
1070
    73
1070
     1
1070
    44
1040
1.0
1070
    74
1070
     0
1000
MTEXTEND
1000
MTEXTBEGIN
1070
    73
1070
     1
1070
    44
1040
1.0
1070
    74
1070
     0
1000
MTEXTEND
  0
POINT
  5
5D8
330
558
100
AcDbEntity
  8
DEFPOINTS
  6
BYBLOCK
 62
     0
100
AcDbPoint
 10
333.2864166188786
 20
180.2927114886687
 30
0.0
  0
POINT
  5
5D9
330
558
100
AcDbEntity
  8
DEFPOINTS
  6
BYBLOCK
 62
     0
100
AcDbPoint
 10
337.0001373086668
 20
171.0078597611339
 30
0.0
  0
POINT
  5
5DA
330
558
100
AcDbEntity
  8
DEFPOINTS
  6
BYBLOCK
 62
     0
100
AcDbPoint
 10
356.505062827787
 20
178.8093678065798
 30
0.0
  0
ENDBLK
  5
5DB
330
558
100
AcDbEntity
  8
0
100
AcDbBlockEnd
  0
BLOCK
  5
5DC
330
566
100
AcDbEntity
  8
0
100
AcDbBlockBegin
  2
*D8
 70
     1
 10
0.0
 20
0.0
 30
0.0
  3
*D8
  1

  0
LINE
  5
829
330
566
100
AcDbEntity
  8
SUNPOU
  6
CONTINUOUS
 62
     4
100
AcDbLine
 10
265.3215801076008
 20
161.7248895196286
 30
0.0
 11
261.4505943429005
 21
171.4030422417393
 31
0.0
  0
LINE
  5
82A
330
566
100
AcDbEntity
  8
SUNPOU
  6
CONTINUOUS
 62
     4
100
AcDbLine
 10
314.9312787453498
 20
191.1782609892631
 30
0.0
 11
264.7931035979868
 21
171.1244172614113
 31
0.0
  0
INSERT
  5
82B
330
566
100
AcDbEntity
  8
SUNPOU
  6
CONTINUOUS
 62
     4
100
AcDbBlockReference
  2
_OPEN
 10
317.71673614155
 20
192.2923647070352
 30
0.0
 41
3.0
 42
3.0
 43
3.0
 50
21.80000434268586
  0
INSERT
  5
82C
330
566
100
AcDbEntity
  8
SUNPOU
  6
CONTINUOUS
 62
     4
100
AcDbBlockReference
  2
_OPEN
 10
262.0076462017866
 20
170.0103135436392
 30
0.0
 41
3.0
 42
3.0
 43
3.0
 50
201.8000043426858
  0
MTEXT
  5
82D
330
566
100
AcDbEntity
  8
SUNPOU
  6
CONTINUOUS
 62
     4
100
AcDbMText
 10
288.9337714068581
 20
183.4725536221707
 30
0.0
 40
3.0
 41
0.0
 71
     5
 72
     1
  1
\A1;60
 11
0.9284857987333952
 21
0.3713679059240434
 31
0.0
  0
POINT
  5
82E
330
566
100
AcDbEntity
  8
DEFPOINTS
  6
CONTINUOUS
 62
     0
100
AcDbPoint
 10
322.1447737651362
 20
181.2214832868248
 30
0.0
  0
POINT
  5
82F
330
566
100
AcDbEntity
  8
DEFPOINTS
  6
CONTINUOUS
 62
     0
100
AcDbPoint
 10
266.4356838253729
 20
158.9394321234284
 30
0.0
  0
POINT
  5
830
330
566
100
AcDbEntity
  8
DEFPOINTS
  6
CONTINUOUS
 62
     0
100
AcDbPoint
 10
262.0076462017866
 20
170.0103135436392
 30
0.0
  0
ENDBLK
  5
5E5
330
566
100
AcDbEntity
  8
0
100
AcDbBlockEnd
  0
BLOCK
  5
5E6
330
571
100
AcDbEntity
  8
0
100
AcDbBlockBegin
  2
*D9
 70
     1
 10
0.0
 20
0.0
 30
0.0
  3
*D9
  1

  0
LINE
  5
5E7
330
571
100
AcDbEntity
  8
0
  6
BYBLOCK
 62
     4
100
AcDbLine
 10
330.3154543477307
 20
187.7205902695748
 30
0.0
 11
326.4444685830306
 21
197.3987429916851
 31
0.0
  0
LINE
  5
5E8
330
571
100
AcDbEntity
  8
0
  6
BYBLOCK
 62
     4
100
AcDbLine
 10
321.030670047364
 20
184.006940683025
 30
0.0
 11
317.1596842826639
 21
193.6850934051354
 31
0.0
  0
LINE
  5
5E9
330
571
100
AcDbEntity
  8
0
  6
BYBLOCK
 62
     4
100
AcDbLine
 10
329.7869778381167
 20
197.1201180113572
 30
0.0
 11
332.572435234317
 21
198.2342217291293
 31
0.0
  0
LINE
  5
5EA
330
571
100
AcDbEntity
  8
0
  6
BYBLOCK
 62
     4
100
AcDbLine
 10
314.9312787453498
 20
191.1782609892632
 30
0.0
 11
312.1458213491496
 21
190.0641572714911
 31
0.0
  0
LINE
  5
5EB
330
571
100
AcDbEntity
  8
0
  6
BYBLOCK
 62
     4
100
AcDbLine
 10
327.0015204419166
 20
196.0060142935851
 30
0.0
 11
317.7167361415499
 21
192.2923647070353
 31
0.0
  0
INSERT
  5
5EC
330
571
100
AcDbEntity
  8
0
  6
BYBLOCK
 62
     4
100
AcDbBlockReference
  2
_OPEN
 10
327.0015204419166
 20
196.0060142935851
 30
0.0
 41
3.0
 42
3.0
 43
3.0
 50
201.8000043426858
  0
INSERT
  5
5ED
330
571
100
AcDbEntity
  8
0
  6
BYBLOCK
 62
     4
100
AcDbBlockReference
  2
_OPEN
 10
317.7167361415499
 20
192.2923647070353
 30
0.0
 41
3.0
 42
3.0
 43
3.0
 50
21.80000434268587
  0
MTEXT
  5
5EE
330
571
100
AcDbEntity
  8
0
  6
BYBLOCK
 62
     4
100
AcDbMText
 10
321.4307085269232
 20
196.4704039971437
 30
0.0
 40
3.0
 41
0.0
 71
     5
 72
     5
  1
\A1;10
 11
0.9284857987333952
 21
0.3713679059240434
 31
0.0
1001
ACAD
1000
MTEXTBEGIN
1070
    73
1070
     1
1070
    44
1040
1.0
1070
    74
1070
     0
1000
MTEXTEND
1000
MTEXTBEGIN
1070
    73
1070
     1
1070
    44
1040
1.0
1070
    74
1070
     0
1000
MTEXTEND
1000
MTEXTBEGIN
1070
    73
1070
     1
1070
    44
1040
1.0
1070
    74
1070
     0
1000
MTEXTEND
  0
POINT
  5
5EF
330
571
100
AcDbEntity
  8
DEFPOINTS
  6
BYBLOCK
 62
     0
100
AcDbPoint
 10
331.4295580655028
 20
184.9351328733746
 30
0.0
  0
POINT
  5
5F0
330
571
100
AcDbEntity
  8
DEFPOINTS
  6
BYBLOCK
 62
     0
100
AcDbPoint
 10
322.1447737651362
 20
181.2214832868248
 30
0.0
  0
POINT
  5
5F1
330
571
100
AcDbEntity
  8
DEFPOINTS
  6
BYBLOCK
 62
     0
100
AcDbPoint
 10
317.7167361415499
 20
192.2923647070353
 30
0.0
  0
ENDBLK
  5
5F2
330
571
100
AcDbEntity
  8
0
100
AcDbBlockEnd
  0
BLOCK
  5
5F3
330
57F
100
AcDbEntity
  8
0
100
AcDbBlockBegin
  2
*D10
 70
     1
 10
0.0
 20
0.0
 30
0.0
  3
*D10
  1

  0
LINE
  5
5F4
330
57F
100
AcDbEntity
  8
0
  6
BYBLOCK
 62
     4
100
AcDbLine
 10
338.1754855815505
 20
238.1815390717755
 30
0.0
 11
351.2364335119583
 21
238.1815390717755
 31
0.0
  0
LINE
  5
5F5
330
57F
100
AcDbEntity
  8
0
  6
BYBLOCK
 62
     4
100
AcDbLine
 10
338.1754855815505
 20
235.5815390717757
 30
0.0
 11
351.2364335119583
 21
235.5815390717757
 31
0.0
  0
LINE
  5
5F6
330
57F
100
AcDbEntity
  8
0
  6
BYBLOCK
 62
     4
100
AcDbLine
 10
349.7364335119583
 20
241.1815390717755
 30
0.0
 11
349.7364335119583
 21
244.1815390717755
 31
0.0
  0
LINE
  5
5F7
330
57F
100
AcDbEntity
  8
0
  6
BYBLOCK
 62
     4
100
AcDbLine
 10
349.7364335119583
 20
232.5815390717757
 30
0.0
 11
349.7364335119583
 21
218.5815390717757
 31
0.0
  0
LINE
  5
5F8
330
57F
100
AcDbEntity
  8
0
  6
BYBLOCK
 62
     4
100
AcDbLine
 10
349.7364335119583
 20
238.1815390717755
 30
0.0
 11
349.7364335119583
 21
235.5815390717757
 31
0.0
  0
INSERT
  5
5F9
330
57F
100
AcDbEntity
  8
0
  6
BYBLOCK
 62
     4
100
AcDbBlockReference
  2
_OPEN
 10
349.7364335119583
 20
238.1815390717755
 30
0.0
 41
3.0
 42
3.0
 43
3.0
 50
270.0
  0
INSERT
  5
5FA
330
57F
100
AcDbEntity
  8
0
  6
BYBLOCK
 62
     4
100
AcDbBlockReference
  2
_OPEN
 10
349.7364335119583
 20
235.5815390717757
 30
0.0
 41
3.0
 42
3.0
 43
3.0
 50
90.0
  0
MTEXT
  5
5FB
330
57F
100
AcDbEntity
  8
0
  6
BYBLOCK
 62
     4
100
AcDbMText
 10
347.2364335119583
 20
224.0815390717757
 30
0.0
 40
3.0
 41
0.0
 71
     5
 72
     5
  1
\A1;t2.6
 11
0.0
 21
1.0
 31
0.0
1001
ACAD
1000
MTEXTBEGIN
1070
    73
1070
     1
1070
    44
1040
1.0
1070
    74
1070
     0
1000
MTEXTEND
1000
MTEXTBEGIN
1070
    73
1070
     1
1070
    44
1040
1.0
1070
    74
1070
     0
1000
MTEXTEND
1000
MTEXTBEGIN
1070
    73
1070
     1
1070
    44
1040
1.0
1070
    74
1070
     0
1000
MTEXTEND
  0
POINT
  5
5FC
330
57F
100
AcDbEntity
  8
DEFPOINTS
  6
BYBLOCK
 62
     0
100
AcDbPoint
 10
335.1754855815505
 20
238.1815390717755
 30
0.0
  0
POINT
  5
5FD
330
57F
100
AcDbEntity
  8
DEFPOINTS
  6
BYBLOCK
 62
     0
100
AcDbPoint
 10
335.1754855815505
 20
235.5815390717757
 30
0.0
  0
POINT
  5
5FE
330
57F
100
AcDbEntity
  8
DEFPOINTS
  6
BYBLOCK
 62
     0
100
AcDbPoint
 10
349.7364335119583
 20
235.5815390717757
 30
0.0
  0
ENDBLK
  5
5FF
330
57F
100
AcDbEntity
  8
0
100
AcDbBlockEnd
  0
ENDSEC
  0
SECTION
  2
ENTITIES
  0
POINT
  5
1A1
330
1A
100
AcDbEntity
  8
SUNPOU_L
  6
CONTINUOUS
100
AcDbPoint
 10
205.9553251990115
 20
146.5650665787895
 30
0.0
  0
POINT
  5
1A2
330
1A
100
AcDbEntity
  8
SUNPOU_L
  6
CONTINUOUS
100
AcDbPoint
 10
205.4553267650654
 20
145.6990402718312
 30
0.0
  0
DIMENSION
  5
3ED
330
1A
100
AcDbEntity
  8
SUNPOU
  6
CONTINUOUS
100
AcDbDimension
  2
*D1
 10
153.5281264257634
 20
38.20680565680352
 30
0.0
 11
254.5796240851369
 21
81.31705306888719
 31
0.0
 70
    33
  3
STANDARD
100
AcDbAlignedDimension
 13
344.9494967281139
 23
151.1332839101816
 33
0.0
 14
140.9896631720422
 24
69.55521859656172
 34
0.0
1001
ACAD
1000
DSTYLE
1002
{
1070
   140
1040
3.0
1070
    74
1070
     0
1070
   172
1070
     1
1070
    73
1070
     0
1070
   272
1070
     2
1070
    77
1070
     3
1070
   173
1070
     1
1070
   147
1040
1.0
1070
    42
1040
3.0
1070
    44
1040
1.5
1070
    43
1040
7.0
1070
   271
1070
     0
1070
   178
1070
     4
1070
   177
1070
     4
1070
   176
1070
     4
1070
   141
1040
150.0
1070
     7
1000
_OPEN
1070
     6
1000
_OPEN
1070
    41
1040
3.0
1002
}
  0
LINE
  5
3EE
330
1A
100
AcDbEntity
  8
SEIHIN
  6
CONTINUOUS
 62
     3
 48
16.0
100
AcDbLine
 10
335.1754855815505
 20
235.5815390717757
 30
0.0
 11
185.0121855815505
 21
235.5817390717756
 31
0.0
  0
LINE
  5
3EF
330
1A
100
AcDbEntity
  8
SEIHIN
  6
CONTINUOUS
 62
     3
 48
16.0
100
AcDbLine
 10
335.1754855815505
 20
238.1815390717755
 30
0.0
 11
185.0121855815505
 21
238.1817390717757
 31
0.0
  0
LINE
  5
3F0
330
1A
100
AcDbEntity
  8
CENTER_L
  6
CENTER
 62
     1
 48
5.0
100
AcDbLine
 10
91.41198558155073
 20
236.8817891035053
 30
0.0
 11
342.7853855815504
 21
236.8815390717756
 31
0.0
  0
LINE
  5
3F1
330
1A
100
AcDbEntity
  8
SEIHIN
  6
CONTINUOUS
 62
     3
 48
16.0
100
AcDbLine
 10
198.3033855815506
 20
126.3033390717757
 30
0.0
 11
333.2864855815504
 21
180.2927390717756
 31
0.0
  0
LINE
  5
3F2
330
1A
100
AcDbEntity
  8
CENTER_L
  6
CENTER
 62
     1
 48
5.0
100
AcDbLine
 10
198.5840855815507
 20
121.0304390717757
 30
0.0
 11
343.0680594292752
 21
178.8199186168026
 31
0.0
  0
LINE
  5
3F3
330
1A
100
AcDbEntity
  8
SEIHIN
  6
CONTINUOUS
 62
     3
 48
16.0
100
AcDbLine
 10
198.6658855815505
 20
115.6781390717757
 30
0.0
 11
337.0000855815507
 21
171.0078390717757
 31
0.0
  0
LINE
  5
3F4
330
1A
100
AcDbEntity
  8
NOKITOI
  6
PHANTOM
 62
     8
 48
5.0
100
AcDbLine
 10
183.0118855815505
 20
145.6816390717756
 30
0.0
 11
183.0118855815505
 21
141.0816390717757
 31
0.0
  0
LINE
  5
3F5
330
1A
100
AcDbEntity
  8
NOKITOI
  6
PHANTOM
 62
     8
 48
5.0
100
AcDbLine
 10
180.2955855815506
 20
145.6816390717756
 30
0.0
 11
179.3567855815507
 21
141.0816390717757
 31
0.0
  0
LINE
  5
3F6
330
1A
100
AcDbEntity
  8
NOKITOI
  6
PHANTOM
 62
     8
 48
5.0
100
AcDbLine
 10
100.4119855815506
 20
145.6817390717758
 30
0.0
 11
100.4119855815506
 21
141.0817390717757
 31
0.0
  0
LINE
  5
3F7
330
1A
100
AcDbEntity
  8
NOKITOI
  6
PHANTOM
 62
     8
 48
5.0
100
AcDbLine
 10
103.1282855815505
 20
145.6817390717758
 30
0.0
 11
104.0669855815507
 21
141.0817390717757
 31
0.0
  0
LINE
  5
3F8
330
1A
100
AcDbEntity
  8
SEIHIN
  6
CONTINUOUS
 62
     3
 48
16.0
100
AcDbLine
 10
99.21198558155076
 20
138.8817390717756
 30
0.0
 11
99.21198558155076
 21
166.3818390717757
 31
0.0
  0
LINE
  5
3F9
330
1A
100
AcDbEntity
  8
SEIHIN
  6
CONTINUOUS
 62
     3
 48
16.0
100
AcDbLine
 10
98.41198558155074
 20
138.5817390717756
 30
0.0
 11
98.41198558155074
 21
166.3817390717756
 31
0.0
  0
LINE
  5
3FA
330
1A
100
AcDbEntity
  8
SEIHIN
  6
CONTINUOUS
 62
     3
 48
16.0
100
AcDbLine
 10
51.71198558155063
 20
166.3818390717757
 30
0.0
 11
51.71198558155063
 21
137.5818390717757
 31
0.0
  0
LINE
  5
3FB
330
1A
100
AcDbEntity
  8
NOKITOI
  6
PHANTOM
 62
     8
 48
5.0
100
AcDbLine
 10
104.1103855815506
 20
146.8817390717758
 30
0.0
 11
110.3444855815506
 21
116.3343390717757
 31
0.0
  0
LINE
  5
3FC
330
1A
100
AcDbEntity
  8
NOKITOI
  6
PHANTOM
 62
     8
 48
5.0
100
AcDbLine
 10
99.21188558155073
 20
139.8817390717757
 30
0.0
 11
99.21198558155058
 21
146.8817390717758
 31
0.0
  0
LINE
  5
3FD
330
1A
100
AcDbEntity
  8
NOKITOI
  6
PHANTOM
 62
     8
 48
5.0
100
AcDbLine
 10
179.3134855815506
 20
146.8816390717756
 30
0.0
 11
173.0792855815507
 21
116.3342390717758
 31
0.0
  0
LINE
  5
3FE
330
1A
100
AcDbEntity
  8
NOKITOI
  6
PHANTOM
 62
     8
 48
5.0
100
AcDbLine
 10
184.2118855815507
 20
139.8816390717756
 30
0.0
 11
184.2118855815507
 21
146.8816390717756
 31
0.0
  0
LINE
  5
3FF
330
1A
100
AcDbEntity
  8
SEIHIN
  6
CONTINUOUS
 62
     3
 48
16.0
100
AcDbLine
 10
184.2118855815505
 20
138.8817390717756
 30
0.0
 11
184.2118855815505
 21
147.5359390717757
 31
0.0
  0
LINE
  5
400
330
1A
100
AcDbEntity
  8
SEIHIN
  6
CONTINUOUS
 62
     3
 48
16.0
100
AcDbLine
 10
185.0118855815507
 20
138.5817390717756
 30
0.0
 11
185.0118855815507
 21
147.5359390717757
 31
0.0
  0
DIMENSION
  5
401
330
1A
100
AcDbEntity
  8
SUNPOU
  6
CONTINUOUS
100
AcDbDimension
  2
*D2
 10
156.6291756931892
 20
106.8817390717758
 30
0.0
 11
154.1291756931892
 21
128.3817687708879
 31
0.0
 70
    32
  3
STANDARD
100
AcDbAlignedDimension
 13
185.0118855815507
 23
149.88179847
 33
0.0
 14
166.0118855815505
 24
106.8817390717758
 34
0.0
 50
90.0
100
AcDbRotatedDimension
1001
ACAD
1000
DSTYLE
1002
{
1070
   140
1040
3.0
1070
    74
1070
     0
1070
   172
1070
     1
1070
    73
1070
     0
1070
   272
1070
     2
1070
    77
1070
     3
1070
   173
1070
     1
1070
   147
1040
1.0
1070
    42
1040
3.0
1070
    44
1040
1.5
1070
    43
1040
7.0
1070
   271
1070
     0
1070
   178
1070
     4
1070
   177
1070
     4
1070
   176
1070
     4
1070
   141
1040
150.0
1070
     7
1000
_OPEN
1070
     6
1000
_OPEN
1070
    41
1040
3.0
1002
}
  0
DIMENSION
  5
402
330
1A
100
AcDbEntity
  8
SUNPOU
  6
CONTINUOUS
100
AcDbDimension
  2
*D3
 10
88.44799401511696
 20
106.0817390717757
 30
0.0
 11
85.94799401511696
 21
136.2317390717757
 31
0.0
 70
    32
  3
STANDARD
100
AcDbAlignedDimension
 13
98.41198558155074
 23
166.3817390717756
 33
0.0
 14
116.5490855815505
 24
106.0817390717757
 34
0.0
 50
90.0
100
AcDbRotatedDimension
1001
ACAD
1000
DSTYLE
1002
{
1070
   140
1040
3.0
1070
    74
1070
     0
1070
   172
1070
     1
1070
    73
1070
     0
1070
   272
1070
     2
1070
    77
1070
     3
1070
   173
1070
     1
1070
   147
1040
1.0
1070
    42
1040
3.0
1070
    44
1040
1.5
1070
    43
1040
7.0
1070
   271
1070
     0
1070
   178
1070
     4
1070
   177
1070
     4
1070
   176
1070
     4
1070
   141
1040
150.0
1070
     7
1000
_OPEN
1070
     6
1000
_OPEN
1070
    41
1040
3.0
1002
}
  0
ARC
  5
403
330
1A
100
AcDbEntity
  8
SEIHIN
  6
CONTINUOUS
 62
     3
 48
16.0
100
AcDbCircle
 10
41.71198558155063
 20
142.2157390717756
 30
0.0
 40
1.0
100
AcDbArc
 50
0.0
 51
180.0
  0
LINE
  5
404
330
1A
100
AcDbEntity
  8
CENTER_L
  6
CENTER
 62
     1
 48
5.0
100
AcDbLine
 10
41.71188558155072
 20
54.94313907177577
 30
0.0
 11
41.71198558155069
 21
187.2750390717756
 31
0.0
  0
LINE
  5
405
330
1A
100
AcDbEntity
  8
SEIHIN
  6
CONTINUOUS
 62
     3
 48
16.0
100
AcDbLine
 10
31.71198558155072
 20
166.3818390717757
 30
0.0
 11
31.71198558155072
 21
137.5818390717757
 31
0.0
  0
LINE
  5
406
330
1A
100
AcDbEntity
  8
SEIHIN
  6
CONTINUOUS
 62
     3
 48
16.0
100
AcDbLine
 10
39.35658558155066
 20
63.88183907177571
 30
0.0
 11
39.36188558155069
 21
98.38183907177572
 31
0.0
  0
LINE
  5
407
330
1A
100
AcDbEntity
  8
SEIHIN
  6
CONTINUOUS
 62
     3
 48
16.0
100
AcDbLine
 10
44.0565855815507
 20
63.88183907177571
 30
0.0
 11
44.06198558155071
 21
98.38183907177572
 31
0.0
  0
ARC
  5
408
330
1A
100
AcDbEntity
  8
SEIHIN
  6
CONTINUOUS
 62
     3
 48
16.0
100
AcDbCircle
 10
41.70658558155068
 20
63.88183907177571
 30
0.0
 40
2.350000000000036
100
AcDbArc
 50
180.0
 51
0.0
  0
LINE
  5
409
330
1A
100
AcDbEntity
  8
SEIHIN
  6
CONTINUOUS
 62
     3
 48
16.0
100
AcDbLine
 10
39.71198558155069
 20
113.4645390717757
 30
0.0
 11
43.71196214440783
 21
113.4645390717757
 31
0.0
  0
LINE
  5
40A
330
1A
100
AcDbEntity
  8
SEIHIN
  6
CONTINUOUS
 62
     3
 48
16.0
100
AcDbLine
 10
43.71198558155085
 20
106.0818390717757
 30
0.0
 11
39.71198558155069
 21
106.0818390717757
 31
0.0
  0
LINE
  5
40B
330
1A
100
AcDbEntity
  8
SEIHIN
  6
CONTINUOUS
 62
     3
 48
16.0
100
AcDbLine
 10
44.06198558155071
 20
98.38183907177572
 30
0.0
 11
39.36188558155069
 21
98.38183907177572
 31
0.0
  0
LINE
  5
40C
330
1A
100
AcDbEntity
  8
SEIHIN
  6
CONTINUOUS
 62
     3
 48
16.0
100
AcDbLine
 10
46.71198558155069
 20
103.3824273070698
 30
0.0
 11
37.46198558155069
 21
103.3813390717757
 31
0.0
  0
LINE
  5
40D
330
1A
100
AcDbEntity
  8
SEIHIN
  6
CONTINUOUS
 62
     3
 48
16.0
100
AcDbLine
 10
46.71198558155069
 20
102.3818390717757
 30
0.0
 11
36.71188558155066
 21
102.3818390717757
 31
0.0
  0
LINE
  5
40E
330
1A
100
AcDbEntity
  8
SEIHIN
  6
CONTINUOUS
 62
     3
 48
16.0
100
AcDbLine
 10
51.71198558155063
 20
137.5818390717757
 30
0.0
 11
31.71198558155072
 21
137.5818390717757
 31
0.0
  0
LINE
  5
40F
330
1A
100
AcDbEntity
  8
SEIHIN
  6
CONTINUOUS
 62
     3
 48
16.0
100
AcDbLine
 10
35.21198558155063
 20
137.5818390717757
 30
0.0
 11
35.21198558155063
 21
106.0818390717757
 31
0.0
  0
LINE
  5
410
330
1A
100
AcDbEntity
  8
SEIHIN
  6
CONTINUOUS
 62
     3
 48
16.0
100
AcDbLine
 10
39.71198558155069
 20
106.0818390717757
 30
0.0
 11
39.71198558155069
 21
137.5818390717757
 31
0.0
  0
LINE
  5
411
330
1A
100
AcDbEntity
  8
SEIHIN
  6
CONTINUOUS
 62
     3
 48
16.0
100
AcDbLine
 10
32.71198558155063
 20
106.0818390717757
 30
0.0
 11
32.71198558155063
 21
137.5818390717757
 31
0.0
  0
ARC
  5
412
330
1A
100
AcDbEntity
  8
SEIHIN
  6
CONTINUOUS
 62
     3
 48
16.0
100
AcDbCircle
 10
37.46198558155069
 20
105.6689390717757
 30
0.0
 40
2.287572164981949
100
AcDbArc
 50
169.6012878060621
 51
10.39871219393784
  0
LINE
  5
413
330
1A
100
AcDbEntity
  8
SEIHIN
  6
CONTINUOUS
 62
     3
 48
16.0
100
AcDbLine
 10
36.71188558155066
 20
102.3818390717757
 30
0.0
 11
39.36188558155069
 21
98.38183907177572
 31
0.0
  0
LINE
  5
414
330
1A
100
AcDbEntity
  8
SEIHIN
  6
CONTINUOUS
 62
     3
 48
16.0
100
AcDbLine
 10
35.21198558155063
 20
106.0818390717757
 30
0.0
 11
32.71198558155063
 21
106.0818390717757
 31
0.0
  0
LINE
  5
415
330
1A
100
AcDbEntity
  8
SEIHIN
  6
CONTINUOUS
 62
     3
 48
16.0
100
AcDbLine
 10
36.71188558155066
 20
102.3818390717757
 30
0.0
 11
36.71188558155066
 21
103.3818390717757
 31
0.0
  0
ARC
  5
416
330
1A
100
AcDbEntity
  8
SEIHIN
100
AcDbCircle
 10
37.46203558155071
 20
113.7301078223825
 30
0.0
 40
2.265568750622844
100
AcDbArc
 50
186.731656852122
 51
353.268343147878
  0
LINE
  5
417
330
1A
100
AcDbEntity
  8
SEIHIN
  6
CONTINUOUS
 62
     3
 48
16.0
100
AcDbLine
 10
32.71198558155063
 20
113.4645390717757
 30
0.0
 11
35.21198558155063
 21
113.4645390717757
 31
0.0
  0
ARC
  5
418
330
1A
100
AcDbEntity
  8
SEIHIN
  6
CONTINUOUS
 62
     3
 48
16.0
100
AcDbCircle
 10
35.9751574001431
 20
140.6137529799081
 30
0.0
 40
0.8000345929061422
100
AcDbArc
 50
194.2635044630389
 51
293.2047550821392
  0
ARC
  5
419
330
1A
100
AcDbEntity
  8
SEIHIN
  6
CONTINUOUS
 62
     3
 48
16.0
100
AcDbCircle
 10
35.97516667740663
 20
140.6137122206925
 30
0.0
 40
0.8000335429435061
100
AcDbArc
 50
95.4425364140595
 51
194.2605117095231
  0
ARC
  5
41A
330
1A
100
AcDbEntity
  8
SEIHIN
  6
CONTINUOUS
 62
     3
 48
16.0
100
AcDbCircle
 10
39.11234689751657
 20
141.4146675402388
 30
0.0
 40
0.3000245494240687
100
AcDbArc
 50
11.8424742334153
 51
95.4434513951937
  0
ARC
  5
41B
330
1A
100
AcDbEntity
  8
SEIHIN
  6
CONTINUOUS
 62
     3
 48
16.0
100
AcDbCircle
 10
39.11239394812
 20
141.4146551628037
 30
0.0
 40
0.2999810411755784
100
AcDbArc
 50
293.2034348480818
 51
11.84663221983273
  0
LINE
  5
41C
330
1A
100
AcDbEntity
  8
SEIHIN
  6
CONTINUOUS
 62
     3
 48
16.0
100
AcDbLine
 10
35.89928558155063
 20
141.4101390717757
 30
0.0
 11
39.08388558155073
 21
141.7133390717757
 31
0.0
  0
LINE
  5
41D
330
1A
100
AcDbEntity
  8
SEIHIN
  6
CONTINUOUS
 62
     3
 48
16.0
100
AcDbLine
 10
36.29038558155073
 20
139.8784390717757
 30
0.0
 11
39.23058558155068
 21
141.1389390717757
 31
0.0
  0
LINE
  5
41E
330
1A
100
AcDbEntity
  8
SEIHIN
  6
CONTINUOUS
 62
     3
 48
16.0
100
AcDbLine
 10
48.21188558155066
 20
137.5818390717757
 30
0.0
 11
48.21188558155066
 21
106.0818390717757
 31
0.0
  0
LINE
  5
41F
330
1A
100
AcDbEntity
  8
SEIHIN
  6
CONTINUOUS
 62
     3
 48
16.0
100
AcDbLine
 10
50.71198558155069
 20
106.0818390717757
 30
0.0
 11
50.71198558155069
 21
137.5818390717757
 31
0.0
  0
LINE
  5
420
330
1A
100
AcDbEntity
  8
SEIHIN
  6
CONTINUOUS
 62
     3
 48
16.0
100
AcDbLine
 10
43.71198558155069
 20
106.0818390717757
 30
0.0
 11
43.71188558155071
 21
137.5818390717757
 31
0.0
  0
ARC
  5
421
330
1A
100
AcDbEntity
  8
SEIHIN
  6
CONTINUOUS
 62
     3
 48
16.0
100
AcDbCircle
 10
45.96198558155069
 20
105.6689390717757
 30
0.0
 40
2.287572164981906
100
AcDbArc
 50
169.6012878060621
 51
10.39871219393784
  0
LINE
  5
422
330
1A
100
AcDbEntity
  8
SEIHIN
  6
CONTINUOUS
 62
     3
 48
16.0
100
AcDbLine
 10
46.71198558155069
 20
102.3818390717757
 30
0.0
 11
44.06198558155071
 21
98.38183907177572
 31
0.0
  0
LINE
  5
423
330
1A
100
AcDbEntity
  8
SEIHIN
  6
CONTINUOUS
 62
     3
 48
16.0
100
AcDbLine
 10
46.71198558155069
 20
102.3818390717757
 30
0.0
 11
46.71198558155069
 21
103.3818390717757
 31
0.0
  0
LINE
  5
424
330
1A
100
AcDbEntity
  8
SEIHIN
  6
CONTINUOUS
 62
     3
 48
16.0
100
AcDbLine
 10
48.21188558155066
 20
106.0818390717757
 30
0.0
 11
50.71198558155069
 21
106.0818390717757
 31
0.0
  0
ARC
  5
425
330
1A
100
AcDbEntity
  8
SEIHIN
100
AcDbCircle
 10
45.96193558155067
 20
113.7301078223825
 30
0.0
 40
2.265568750622844
100
AcDbArc
 50
186.731656852122
 51
353.268343147878
  0
LINE
  5
426
330
1A
100
AcDbEntity
  8
SEIHIN
  6
CONTINUOUS
 62
     3
 48
16.0
100
AcDbLine
 10
50.71198558155069
 20
113.4645390717757
 30
0.0
 11
48.21188558155066
 21
113.4645390717757
 31
0.0
  0
ARC
  5
427
330
1A
100
AcDbEntity
  8
SEIHIN
  6
CONTINUOUS
 62
     3
 48
16.0
100
AcDbCircle
 10
47.4487565903901
 20
140.6137247645678
 30
0.0
 40
0.7999861341533095
100
AcDbArc
 50
246.7982121817283
 51
345.737698314064
  0
ARC
  5
428
330
1A
100
AcDbEntity
  8
SEIHIN
  6
CONTINUOUS
 62
     3
 48
16.0
100
AcDbCircle
 10
47.44877134327228
 20
140.6137592935414
 30
0.0
 40
0.799980343449913
100
AcDbArc
 50
345.7350412097582
 51
84.56191066667004
  0
ARC
  5
429
330
1A
100
AcDbEntity
  8
SEIHIN
  6
CONTINUOUS
 62
     3
 48
16.0
100
AcDbCircle
 10
41.71198558155063
 20
142.2157390717756
 30
0.0
 40
1.0
100
AcDbArc
 50
180.0
 51
0.0
  0
ARC
  5
42A
330
1A
100
AcDbEntity
  8
SEIHIN
  6
CONTINUOUS
 62
     3
 48
16.0
100
AcDbCircle
 10
44.31154158518345
 20
141.4147236808405
 30
0.0
 40
0.3000299848206265
100
AcDbArc
 50
168.1686973337289
 51
246.8079742114879
  0
ARC
  5
42B
330
1A
100
AcDbEntity
  8
SEIHIN
  6
CONTINUOUS
 62
     3
 48
16.0
100
AcDbCircle
 10
44.31155940672633
 20
141.4146198010501
 30
0.0
 40
0.300068742320863
100
AcDbArc
 50
84.56409299043707
 51
168.1499813809538
  0
LINE
  5
42C
330
1A
100
AcDbEntity
  8
SEIHIN
  6
CONTINUOUS
 62
     3
 48
16.0
100
AcDbLine
 10
47.52458558155066
 20
141.4101390717757
 30
0.0
 11
44.33998558155074
 21
141.7133390717757
 31
0.0
  0
LINE
  5
42D
330
1A
100
AcDbEntity
  8
SEIHIN
  6
CONTINUOUS
 62
     3
 48
16.0
100
AcDbLine
 10
47.1335855815507
 20
139.8784390717757
 30
0.0
 11
44.1933855815507
 21
141.1389390717757
 31
0.0
  0
LINE
  5
42E
330
1A
100
AcDbEntity
  8
SEIHIN
  6
CONTINUOUS
 62
     3
 48
16.0
100
AcDbLine
 10
136.7119855815507
 20
102.3817390717757
 30
0.0
 11
138.5619855815505
 21
98.3817390717758
 31
0.0
  0
LINE
  5
42F
330
1A
100
AcDbEntity
  8
SEIHIN
  6
CONTINUOUS
 62
     3
 48
16.0
100
AcDbLine
 10
141.7119855815507
 20
102.3817390717757
 30
0.0
 11
136.7119855815507
 21
102.3817390717757
 31
0.0
  0
LINE
  5
430
330
1A
100
AcDbEntity
  8
NOKITOI
  6
PHANTOM
 62
     8
 48
5.0
100
AcDbLine
 10
141.7118855815507
 20
108.0817390717758
 30
0.0
 11
122.2118855815507
 21
108.0817390717758
 31
0.0
  0
LINE
  5
431
330
1A
100
AcDbEntity
  8
NOKITOI
  6
PHANTOM
 62
     8
 48
5.0
100
AcDbLine
 10
117.4118855815507
 20
106.8817390717758
 30
0.0
 11
141.7118855815507
 21
106.8817390717758
 31
0.0
  0
LINE
  5
432
330
1A
100
AcDbEntity
  8
SEIHIN
  6
CONTINUOUS
 62
     3
 48
16.0
100
AcDbLine
 10
116.7831855815507
 20
106.8817390717758
 30
0.0
 11
141.7119855815507
 21
106.8817390717758
 31
0.0
  0
LINE
  5
433
330
1A
100
AcDbEntity
  8
SEIHIN
  6
CONTINUOUS
 62
     3
 48
16.0
100
AcDbLine
 10
141.7119855815507
 20
106.0817390717757
 30
0.0
 11
116.5490855815505
 21
106.0817390717757
 31
0.0
  0
LINE
  5
434
330
1A
100
AcDbEntity
  8
SEIHIN
  6
CONTINUOUS
 62
     3
 48
16.0
100
AcDbLine
 10
141.7119855815507
 20
103.3817390717757
 30
0.0
 11
117.1616855815507
 21
103.3817390717757
 31
0.0
  0
DIMENSION
  5
435
330
1A
100
AcDbEntity
  8
SUNPOU
  6
CONTINUOUS
100
AcDbDimension
  2
*D4
 10
88.44799401511696
 20
58.88176626183746
 30
0.0
 11
85.94799401511696
 21
82.48175266680663
 31
0.0
 70
    32
  3
STANDARD
100
AcDbAlignedDimension
 13
116.5490855815505
 23
106.0817390717757
 33
0.0
 14
158.8619627820176
 24
58.88176626183746
 34
0.0
 50
90.0
100
AcDbRotatedDimension
1001
ACAD
1000
DSTYLE
1002
{
1070
   140
1040
3.0
1070
    74
1070
     0
1070
   172
1070
     1
1070
    73
1070
     0
1070
   272
1070
     2
1070
    77
1070
     3
1070
   173
1070
     1
1070
   147
1040
1.0
1070
    42
1040
3.0
1070
    44
1040
1.5
1070
    43
1040
7.0
1070
   271
1070
     0
1070
   178
1070
     4
1070
   177
1070
     4
1070
   176
1070
     4
1070
   141
1040
150.0
1070
     7
1000
_OPEN
1070
     6
1000
_OPEN
1070
    41
1040
3.0
1002
}
  0
ARC
  5
436
330
1A
100
AcDbEntity
  8
SEIHIN
  6
CONTINUOUS
 62
     3
 48
16.0
100
AcDbCircle
 10
158.8619627820176
 20
79.181743462305
 30
0.0
 40
20.29997720046754
100
AcDbArc
 50
180.000012392073
 51
338.1998607874617
  0
POINT
  5
437
330
1A
100
AcDbEntity
  8
DEFPOINTS
  6
BYBLOCK
 62
     0
100
AcDbPoint
 10
136.4468920226423
 20
80.022108979782
 30
0.0
  0
LINE
  5
438
330
1A
100
AcDbEntity
  8
NOKITOI
  6
PHANTOM
 62
     8
 48
5.0
100
AcDbLine
 10
104.3119855815507
 20
139.8817390717757
 30
0.0
 11
109.3118855815507
 21
115.3817390717758
 31
0.0
  0
LINE
  5
439
330
1A
100
AcDbEntity
  8
SEIHIN
  6
CONTINUOUS
 62
     3
 48
16.0
100
AcDbLine
 10
104.6997855815507
 20
137.9817390717757
 30
0.0
 11
109.4778855815506
 21
114.5689390717756
 31
0.0
  0
LINE
  5
43A
330
1A
100
AcDbEntity
  8
SEIHIN
  6
CONTINUOUS
 62
     3
 48
16.0
100
AcDbLine
 10
108.7288855815506
 20
114.2378390717758
 30
0.0
 11
104.0464855815507
 21
137.1817390717757
 31
0.0
  0
LINE
  5
43B
330
1A
100
AcDbEntity
  8
SEIHIN
  6
CONTINUOUS
 62
     3
 48
16.0
100
AcDbLine
 10
105.9917855815507
 20
114.1471390717758
 30
0.0
 11
101.2092855815507
 21
137.5817390717756
 31
0.0
  0
LINE
  5
43C
330
1A
100
AcDbEntity
  8
NOKITOI
  6
PHANTOM
 62
     8
 48
5.0
100
AcDbLine
 10
104.0669855815507
 20
141.0817390717757
 30
0.0
 11
100.4119855815506
 21
141.0817390717757
 31
0.0
  0
LINE
  5
43D
330
1A
100
AcDbEntity
  8
SEIHIN
  6
CONTINUOUS
 62
     3
 48
16.0
100
AcDbLine
 10
99.41198558155074
 20
137.5817390717756
 30
0.0
 11
103.5565855815505
 21
137.5817390717756
 31
0.0
  0
LINE
  5
43E
330
1A
100
AcDbEntity
  8
NOKITOI
  6
PHANTOM
 62
     8
 48
5.0
100
AcDbLine
 10
99.21188558155073
 20
139.8817390717757
 30
0.0
 11
104.3119855815507
 21
139.8817390717757
 31
0.0
  0
LINE
  5
43F
330
1A
100
AcDbEntity
  8
SEIHIN
  6
CONTINUOUS
 62
     3
 48
16.0
100
AcDbLine
 10
104.2098855815505
 20
138.3817390717757
 30
0.0
 11
99.71198558155075
 21
138.3817390717757
 31
0.0
  0
ARC
  5
440
330
1A
100
AcDbEntity
  8
SEIHIN
  6
CONTINUOUS
 62
     3
 48
16.0
100
AcDbCircle
 10
99.41198558155074
 20
138.5817390717756
 30
0.0
 40
1.0
100
AcDbArc
 50
180.0
 51
270.0
  0
ARC
  5
441
330
1A
100
AcDbEntity
  8
SEIHIN
  6
CONTINUOUS
 62
     3
 48
16.0
100
AcDbCircle
 10
99.71198558155069
 20
138.8817390717756
 30
0.0
 40
0.4999999999999716
100
AcDbArc
 50
180.0000000000032
 51
270.0000000000032
  0
ARC
  5
442
330
1A
100
AcDbEntity
  8
SEIHIN
  6
CONTINUOUS
 62
     3
 48
16.0
100
AcDbCircle
 10
104.2098868124157
 20
137.8817380667776
 30
0.0
 40
0.5000010049995884
100
AcDbArc
 50
11.53705306386288
 51
90.00014104647483
  0
ARC
  5
443
330
1A
100
AcDbEntity
  8
SEIHIN
  6
CONTINUOUS
 62
     3
 48
16.0
100
AcDbCircle
 10
103.5565868124158
 20
137.0817380667776
 30
0.0
 40
0.5000010049995522
100
AcDbArc
 50
11.53705306386705
 51
90.00014104647972
  0
LINE
  5
444
330
1A
100
AcDbEntity
  8
NOKITOI
  6
PHANTOM
 62
     8
 48
5.0
100
AcDbLine
 10
114.7897855815507
 20
113.7817390717757
 30
0.0
 11
122.2118855815507
 21
113.7817390717757
 31
0.0
  0
ARC
  5
445
330
1A
100
AcDbEntity
  8
SEIHIN
  6
CONTINUOUS
 62
     3
 48
16.0
100
AcDbCircle
 10
106.6275775176844
 20
104.7143476180332
 30
0.0
 40
6.499988080764745
100
AcDbArc
 50
16.73452782795942
 51
69.93825309449403
  0
ARC
  5
446
330
1A
100
AcDbEntity
  8
SEIHIN
  6
CONTINUOUS
 62
     3
 48
16.0
100
AcDbCircle
 10
106.6276127399039
 20
104.7143098654412
 30
0.0
 40
9.200009032105342
100
AcDbArc
 50
13.42078464100221
 51
72.41785477507689
  0
ARC
  5
447
330
1A
100
AcDbEntity
  8
SEIHIN
  6
CONTINUOUS
 62
     3
 48
16.0
100
AcDbCircle
 10
106.6276552617116
 20
104.7142645680882
 30
0.0
 40
10.00001234077768
100
AcDbArc
 50
14.71713087881751
 51
71.45178070032286
  0
ARC
  5
448
330
1A
100
AcDbEntity
  8
NOKITOI
  6
PHANTOM
 62
     8
 48
5.0
100
AcDbCircle
 10
106.6275814686806
 20
104.7143433877466
 30
0.0
 40
10.99994632941524
100
AcDbArc
 50
11.36374015671925
 51
75.87555169639184
  0
ARC
  5
449
330
1A
100
AcDbEntity
  8
SEIHIN
  6
CONTINUOUS
 62
     3
 48
16.0
100
AcDbCircle
 10
117.1616836388875
 20
107.8817405162197
 30
0.0
 40
4.500001444444392
100
AcDbArc
 50
196.7356113084866
 51
270.0000247347474
  0
ARC
  5
44A
330
1A
100
AcDbEntity
  8
SEIHIN
  6
CONTINUOUS
 62
     3
 48
16.0
100
AcDbCircle
 10
116.7831869040056
 20
107.3817380517738
 30
0.0
 40
0.4999989799997499
100
AcDbArc
 50
194.7142483898234
 51
269.999848457523
  0
ARC
  5
44B
330
1A
100
AcDbEntity
  8
SEIHIN
  6
CONTINUOUS
 62
     3
 48
16.0
100
AcDbCircle
 10
116.549080609818
 20
107.0817429967602
 30
0.0
 40
1.00000392499687
100
AcDbArc
 50
193.4209166549712
 51
270.0002848581743
  0
ARC
  5
44C
330
1A
100
AcDbEntity
  8
NOKITOI
  6
PHANTOM
 62
     8
 48
5.0
100
AcDbCircle
 10
106.6275437945745
 20
104.7143630666647
 30
0.0
 40
12.19997945109428
100
AcDbArc
 50
48.00719042627341
 51
72.26181654227993
  0
ARC
  5
44D
330
1A
100
AcDbEntity
  8
SEIHIN
  6
CONTINUOUS
 62
     3
 48
16.0
100
AcDbCircle
 10
110.4009173193985
 20
115.046902220911
 30
0.0
 40
4.500001822915042
100
AcDbArc
 50
191.5338764488921
 51
249.9384667501963
  0
ARC
  5
44E
330
1A
100
AcDbEntity
  8
SEIHIN
  6
CONTINUOUS
 62
     3
 48
16.0
100
AcDbCircle
 10
109.7086911384989
 20
114.4378328951092
 30
0.0
 40
0.9999882349476017
100
AcDbArc
 50
191.5308877041036
 51
252.4216850299809
  0
ARC
  5
44F
330
1A
100
AcDbEntity
  8
SEIHIN
  6
CONTINUOUS
 62
     3
 48
16.0
100
AcDbCircle
 10
109.9678397177483
 20
114.6688778668953
 30
0.0
 40
0.5000428165139756
100
AcDbArc
 50
191.5288001456644
 51
251.4410001095868
  0
LINE
  5
450
330
1A
100
AcDbEntity
  8
NOKITOI
  6
PHANTOM
 62
     8
 48
5.0
100
AcDbLine
 10
115.9518855815506
 20
112.5817390717757
 30
0.0
 11
121.0118855815505
 21
112.5817390717757
 31
0.0
  0
ARC
  5
451
330
1A
100
AcDbEntity
  8
NOKITOI
  6
PHANTOM
 62
     8
 48
5.0
100
AcDbCircle
 10
106.6275812204251
 20
104.7143472430835
 30
0.0
 40
12.19993877054614
100
AcDbArc
 50
16.02263637925393
 51
40.15603560521631
  0
LINE
  5
452
330
1A
100
AcDbEntity
  8
NOKITOI
  6
PHANTOM
 62
     8
 48
5.0
100
AcDbLine
 10
121.0118855815505
 20
108.0817390717758
 30
0.0
 11
118.3535855815506
 21
108.0817390717758
 31
0.0
  0
LINE
  5
453
330
1A
100
AcDbEntity
  8
NOKITOI
  6
PHANTOM
 62
     8
 48
5.0
100
AcDbLine
 10
121.0118855815505
 20
108.0817390717758
 30
0.0
 11
121.0118855815505
 21
112.5817390717757
 31
0.0
  0
LINE
  5
454
330
1A
100
AcDbEntity
  8
SEIHIN
  6
CONTINUOUS
 62
     3
 48
16.0
100
AcDbLine
 10
136.7119855815507
 20
102.3817390717757
 30
0.0
 11
136.7119855815507
 21
103.3817390717757
 31
0.0
  0
LINE
  5
455
330
1A
100
AcDbEntity
  8
NOKITOI
  6
PHANTOM
 62
     8
 48
5.0
100
AcDbLine
 10
122.2118855815507
 20
108.0817390717758
 30
0.0
 11
122.2118855815507
 21
113.7817390717757
 31
0.0
  0
LINE
  5
456
330
1A
100
AcDbEntity
  8
SEIHIN
  6
CONTINUOUS
 62
     3
 48
16.0
100
AcDbLine
 10
171.8607855815507
 20
73.98253907177579
 30
0.0
 11
189.1108855815507
 21
117.1108390717757
 31
0.0
  0
LINE
  5
457
330
1A
100
AcDbEntity
  8
CENTER_L
  6
CENTER
 62
     1
 48
5.0
100
AcDbLine
 10
174.7854855815505
 20
72.8127390717757
 30
0.0
 11
191.0629855815507
 21
113.5094390717757
 31
0.0
  0
LINE
  5
458
330
1A
100
AcDbEntity
  8
SEIHIN
  6
CONTINUOUS
 62
     3
 48
16.0
100
AcDbLine
 10
177.7101855815507
 20
71.64293907177571
 30
0.0
 11
193.0947855815505
 21
110.1069390717757
 31
0.0
  0
LINE
  5
459
330
1A
100
AcDbEntity
  8
CENTER_L
  6
CENTER
 62
     1
 48
5.0
100
AcDbLine
 10
141.7119855815507
 20
79.18173907177569
 30
0.0
 11
141.7119855815507
 21
118.6308390717758
 31
0.0
  0
LINE
  5
45A
330
1A
100
AcDbEntity
  8
SEIHIN
  6
CONTINUOUS
 62
     3
 48
16.0
100
AcDbLine
 10
138.5619855815505
 20
79.18173907177569
 30
0.0
 11
138.5619855815505
 21
98.3817390717758
 31
0.0
  0
LINE
  5
45B
330
1A
100
AcDbEntity
  8
SEIHIN
  6
CONTINUOUS
 62
     3
 48
16.0
100
AcDbLine
 10
144.8619855815507
 20
79.18173907177569
 30
0.0
 11
144.8619855815507
 21
98.3817390717758
 31
0.0
  0
ARC
  5
45C
330
1A
100
AcDbEntity
  8
CENTER_L
  6
CENTER
 62
     1
 48
5.0
100
AcDbCircle
 10
158.8619784860666
 20
79.18174043816134
 30
0.0
 40
17.14999290451596
100
AcDbArc
 50
180.0000045649074
 51
338.1998358444985
  0
ARC
  5
45D
330
1A
100
AcDbEntity
  8
CENTER_L
  6
ACAD_ISO04W100
 62
     1
 48
16.0
100
AcDbCircle
 10
158.8619784860666
 20
79.18174043816134
 30
0.0
 40
17.14999290451596
100
AcDbArc
 50
180.0000045649074
 51
338.1998358444985
  0
ARC
  5
45E
330
1A
100
AcDbEntity
  8
SEIHIN
  6
CONTINUOUS
 62
     3
 48
16.0
100
AcDbCircle
 10
158.8619941901168
 20
79.1817374140121
 30
0.0
 40
14.00000860856623
100
AcDbArc
 50
179.9999932155143
 51
338.1997996772851
  0
ARC
  5
45F
330
1A
100
AcDbEntity
  8
SEIHIN
  6
CONTINUOUS
 62
     3
 48
16.0
100
AcDbCircle
 10
176.796343561835
 20
104.7143005192874
 30
0.0
 40
6.500049444756101
100
AcDbArc
 50
110.0620177913414
 51
163.2652012862091
  0
ARC
  5
460
330
1A
100
AcDbEntity
  8
SEIHIN
  6
CONTINUOUS
 62
     3
 48
16.0
100
AcDbCircle
 10
176.7963535762205
 20
104.7143117728791
 30
0.0
 40
10.00001138376534
100
AcDbArc
 50
108.549053178389
 51
165.2837397092516
  0
ARC
  5
461
330
1A
100
AcDbEntity
  8
SEIHIN
  6
CONTINUOUS
 62
     3
 48
16.0
100
AcDbCircle
 10
176.7962874038174
 20
104.71424103141
 30
0.0
 40
9.200053197944173
100
AcDbArc
 50
107.5815941013156
 51
166.5788402739127
  0
ARC
  5
462
330
1A
100
AcDbEntity
  8
SEIHIN
  6
CONTINUOUS
 62
     3
 48
16.0
100
AcDbCircle
 10
166.2621875242138
 20
107.8817405162198
 30
0.0
 40
4.500001444444498
100
AcDbArc
 50
269.9999752652514
 51
343.2643886915124
  0
ARC
  5
463
330
1A
100
AcDbEntity
  8
NOKITOI
  6
PHANTOM
 62
     8
 48
5.0
100
AcDbCircle
 10
176.7961896944207
 20
104.7142433877465
 30
0.0
 40
10.99994632941526
100
AcDbArc
 50
104.1244483036074
 51
168.6362598432798
  0
ARC
  5
464
330
1A
100
AcDbEntity
  8
NOKITOI
  6
PHANTOM
 62
     8
 48
5.0
100
AcDbCircle
 10
176.7962273685269
 20
104.7142630666651
 30
0.0
 40
12.19997945109404
100
AcDbArc
 50
107.7381834577211
 51
131.9928095737274
  0
LINE
  5
465
330
1A
100
AcDbEntity
  8
NOKITOI
  6
PHANTOM
 62
     8
 48
5.0
100
AcDbLine
 10
166.0118855815505
 20
106.8817390717758
 30
0.0
 11
141.7118855815507
 21
106.8817390717758
 31
0.0
  0
LINE
  5
466
330
1A
100
AcDbEntity
  8
SEIHIN
  6
CONTINUOUS
 62
     3
 48
16.0
100
AcDbLine
 10
166.6406855815507
 20
106.8817390717758
 30
0.0
 11
141.7118855815507
 21
106.8817390717758
 31
0.0
  0
LINE
  5
467
330
1A
100
AcDbEntity
  8
SEIHIN
  6
CONTINUOUS
 62
     3
 48
16.0
100
AcDbLine
 10
141.7119855815507
 20
103.3817390717757
 30
0.0
 11
166.2621855815505
 21
103.3817390717757
 31
0.0
  0
LINE
  5
468
330
1A
100
AcDbEntity
  8
SEIHIN
  6
CONTINUOUS
 62
     3
 48
16.0
100
AcDbLine
 10
141.7118855815507
 20
106.0817390717757
 30
0.0
 11
166.8747855815505
 21
106.0817390717757
 31
0.0
  0
LINE
  5
469
330
1A
100
AcDbEntity
  8
SEIHIN
  6
CONTINUOUS
 62
     3
 48
16.0
100
AcDbLine
 10
162.6406855815507
 20
106.8817390717758
 30
0.0
 11
154.2298855815507
 21
106.8817390717758
 31
0.0
  0
LINE
  5
46A
330
1A
100
AcDbEntity
  8
NOKITOI
  6
PHANTOM
 62
     8
 48
5.0
100
AcDbLine
 10
141.7118855815507
 20
108.0817390717758
 30
0.0
 11
161.2118855815507
 21
108.0817390717758
 31
0.0
  0
LINE
  5
46B
330
1A
100
AcDbEntity
  8
SEIHIN
  6
CONTINUOUS
 62
     3
 48
16.0
100
AcDbLine
 10
146.7119855815507
 20
102.3817390717757
 30
0.0
 11
144.8619855815507
 21
98.3817390717758
 31
0.0
  0
LINE
  5
46C
330
1A
100
AcDbEntity
  8
SEIHIN
  6
CONTINUOUS
 62
     3
 48
16.0
100
AcDbLine
 10
141.7119855815507
 20
102.3817390717757
 30
0.0
 11
146.7119855815507
 21
102.3817390717757
 31
0.0
  0
LINE
  5
46D
330
1A
100
AcDbEntity
  8
SEIHIN
  6
CONTINUOUS
 62
     3
 48
16.0
100
AcDbLine
 10
141.7119855815507
 20
98.3817390717758
 30
0.0
 11
144.8619855815507
 21
98.3817390717758
 31
0.0
  0
LINE
  5
46E
330
1A
100
AcDbEntity
  8
SEIHIN
  6
CONTINUOUS
 62
     3
 48
16.0
100
AcDbLine
 10
141.7119855815507
 20
98.3817390717758
 30
0.0
 11
138.5619855815505
 21
98.3817390717758
 31
0.0
  0
LINE
  5
46F
330
1A
100
AcDbEntity
  8
SEIHIN
  6
CONTINUOUS
 62
     3
 48
16.0
100
AcDbLine
 10
146.7119855815507
 20
102.3817390717757
 30
0.0
 11
146.7119855815507
 21
103.3817390717757
 31
0.0
  0
ARC
  5
470
330
1A
100
AcDbEntity
  8
SEIHIN
  6
CONTINUOUS
 62
     3
 48
16.0
100
AcDbCircle
 10
166.6406842590957
 20
107.3817380517737
 30
0.0
 40
0.4999989799996901
100
AcDbArc
 50
270.0001515424851
 51
345.2857516101825
  0
ARC
  5
471
330
1A
100
AcDbEntity
  8
SEIHIN
  6
CONTINUOUS
 62
     3
 48
16.0
100
AcDbCircle
 10
166.8747905532833
 20
107.0817429967604
 30
0.0
 40
1.000003924997041
100
AcDbArc
 50
269.9997151418171
 51
346.5790833450209
  0
LINE
  5
472
330
1A
100
AcDbEntity
  8
NOKITOI
  6
PHANTOM
 62
     8
 48
5.0
100
AcDbLine
 10
167.4718855815507
 20
112.5817390717757
 30
0.0
 11
162.4118855815507
 21
112.5817390717757
 31
0.0
  0
LINE
  5
473
330
1A
100
AcDbEntity
  8
NOKITOI
  6
PHANTOM
 62
     8
 48
5.0
100
AcDbLine
 10
168.6339855815507
 20
113.7816390717758
 30
0.0
 11
161.2118855815507
 21
113.7817390717757
 31
0.0
  0
LINE
  5
474
330
1A
100
AcDbEntity
  8
NOKITOI
  6
PHANTOM
 62
     8
 48
5.0
100
AcDbLine
 10
162.4118855815507
 20
108.0817390717758
 30
0.0
 11
165.0701855815507
 21
108.0817390717758
 31
0.0
  0
LINE
  5
475
330
1A
100
AcDbEntity
  8
NOKITOI
  6
PHANTOM
 62
     8
 48
5.0
100
AcDbLine
 10
161.2118855815507
 20
108.0816390717757
 30
0.0
 11
161.2118855815507
 21
113.7817390717757
 31
0.0
  0
LINE
  5
476
330
1A
100
AcDbEntity
  8
NOKITOI
  6
PHANTOM
 62
     8
 48
5.0
100
AcDbLine
 10
162.4118855815507
 20
108.0817390717758
 30
0.0
 11
162.4118855815507
 21
112.5817390717757
 31
0.0
  0
ARC
  5
477
330
1A
100
AcDbEntity
  8
NOKITOI
  6
PHANTOM
 62
     8
 48
5.0
100
AcDbCircle
 10
176.7962625652214
 20
104.7143833126411
 30
0.0
 40
12.19997101530972
100
AcDbArc
 50
139.8443138052131
 51
163.9780719705774
  0
LINE
  5
478
330
1A
100
AcDbEntity
  8
NOKITOI
  6
PHANTOM
 62
     8
 48
5.0
100
AcDbLine
 10
179.1118855815506
 20
139.8816390717756
 30
0.0
 11
174.1118855815507
 21
115.3817390717758
 31
0.0
  0
ARC
  5
479
330
1A
100
AcDbEntity
  8
SEIHIN
  6
CONTINUOUS
 62
     3
 48
16.0
100
AcDbCircle
 10
204.4309355817475
 20
110.983289071579
 30
0.0
 40
16.50002427311676
100
AcDbArc
 50
111.7998941578099
 51
158.2001058421908
  0
ARC
  5
47A
330
1A
100
AcDbEntity
  8
CENTER_L
  6
CENTER
 62
     1
 48
5.0
100
AcDbCircle
 10
203.5975022518775
 20
108.4958557418735
 30
0.0
 40
13.50000466535383
100
AcDbArc
 50
111.7997675994736
 51
158.1994705949342
  0
LINE
  5
47B
330
1A
100
AcDbEntity
  8
SEIHIN
  6
CONTINUOUS
 62
     3
 48
16.0
100
AcDbLine
 10
177.4320855815507
 20
114.1470390717757
 30
0.0
 11
182.2146855815505
 21
137.5817390717756
 31
0.0
  0
LINE
  5
47C
330
1A
100
AcDbEntity
  8
SEIHIN
  6
CONTINUOUS
 62
     3
 48
16.0
100
AcDbLine
 10
178.7241855815507
 20
137.9817390717757
 30
0.0
 11
173.9460855815505
 21
114.5689390717756
 31
0.0
  0
LINE
  5
47D
330
1A
100
AcDbEntity
  8
SEIHIN
  6
CONTINUOUS
 62
     3
 48
16.0
100
AcDbLine
 10
174.6949855815505
 20
114.2378390717758
 30
0.0
 11
179.3773855815507
 21
137.1817390717757
 31
0.0
  0
ARC
  5
47E
330
1A
100
AcDbEntity
  8
SEIHIN
  6
CONTINUOUS
 62
     3
 48
16.0
100
AcDbCircle
 10
173.7151932216808
 20
114.4378475631067
 30
0.0
 40
0.9999982325301946
100
AcDbArc
 50
287.5773403263863
 51
348.462523744667
  0
ARC
  5
47F
330
1A
100
AcDbEntity
  8
SEIHIN
  6
CONTINUOUS
 62
     3
 48
16.0
100
AcDbCircle
 10
173.0230166636544
 20
115.0468751615332
 30
0.0
 40
4.499954856572312
100
AcDbArc
 50
290.0609001100455
 51
348.4650536577353
  0
ARC
  5
480
330
1A
100
AcDbEntity
  8
SEIHIN
  6
CONTINUOUS
 62
     3
 48
16.0
100
AcDbCircle
 10
173.4562154416903
 20
114.6688728265344
 30
0.0
 40
0.4999795055978623
100
AcDbArc
 50
288.5391949506456
 51
348.4586135965892
  0
ARC
  5
481
330
1A
100
AcDbEntity
  8
SEIHIN
  6
CONTINUOUS
 62
     3
 48
16.0
100
AcDbCircle
 10
202.3796689114487
 20
106.3933224013644
 30
0.0
 40
10.00000036122888
100
AcDbArc
 50
111.8006469583976
 51
158.2003814788112
  0
LINE
  5
482
330
1A
100
AcDbEntity
  8
NOKITOI
  6
PHANTOM
 62
     8
 48
5.0
100
AcDbLine
 10
184.2118855815507
 20
139.8816390717756
 30
0.0
 11
179.1118855815506
 21
139.8816390717756
 31
0.0
  0
LINE
  5
483
330
1A
100
AcDbEntity
  8
SEIHIN
  6
CONTINUOUS
 62
     3
 48
16.0
100
AcDbLine
 10
179.2140855815507
 20
138.3817390717757
 30
0.0
 11
183.7118855815505
 21
138.3817390717757
 31
0.0
  0
ARC
  5
484
330
1A
100
AcDbEntity
  8
SEIHIN
  6
CONTINUOUS
 62
     3
 48
16.0
100
AcDbCircle
 10
179.2140843506856
 20
137.8817380667777
 30
0.0
 40
0.5000010049995128
100
AcDbArc
 50
89.99985895353168
 51
168.4629469361437
  0
LINE
  5
485
330
1A
100
AcDbEntity
  8
SEIHIN
  6
CONTINUOUS
 62
     3
 48
16.0
100
AcDbLine
 10
184.0118855815507
 20
137.5817390717756
 30
0.0
 11
179.8672855815505
 21
137.5817390717756
 31
0.0
  0
LINE
  5
486
330
1A
100
AcDbEntity
  8
NOKITOI
  6
PHANTOM
 62
     8
 48
5.0
100
AcDbLine
 10
179.3567855815507
 20
141.0816390717757
 30
0.0
 11
183.0118855815505
 21
141.0816390717757
 31
0.0
  0
ARC
  5
487
330
1A
100
AcDbEntity
  8
SEIHIN
  6
CONTINUOUS
 62
     3
 48
16.0
100
AcDbCircle
 10
179.8672843506855
 20
137.0817380667778
 30
0.0
 40
0.5000010049993849
100
AcDbArc
 50
89.99985895353818
 51
168.4629469361491
  0
ARC
  5
488
330
1A
100
AcDbEntity
  8
SEIHIN
  6
CONTINUOUS
 62
     3
 48
16.0
100
AcDbCircle
 10
184.0118855815507
 20
138.5817390717756
 30
0.0
 40
1.0
100
AcDbArc
 50
270.0
 51
0.0
  0
ARC
  5
489
330
1A
100
AcDbEntity
  8
SEIHIN
  6
CONTINUOUS
 62
     3
 48
16.0
100
AcDbCircle
 10
183.7118855815506
 20
138.8817390717756
 30
0.0
 40
0.4999999999999716
100
AcDbArc
 50
269.9999999999967
 51
359.9999999999967
  0
LINE
  5
48A
330
1A
100
AcDbEntity
  8
SEIHIN
  6
CONTINUOUS
 62
     3
 48
16.0
100
AcDbLine
 10
35.21198558155063
 20
149.8819390717757
 30
0.0
 11
48.21198558155069
 21
149.8819390717757
 31
0.0
  0
LINE
  5
48B
330
1A
100
AcDbEntity
  8
SEIHIN
  6
CONTINUOUS
 62
     3
 48
16.0
100
AcDbLine
 10
46.21198558155069
 20
147.3818390717757
 30
0.0
 11
37.21198558155063
 21
147.3818390717757
 31
0.0
  0
ARC
  5
48C
330
1A
100
AcDbEntity
  8
SEIHIN
  6
CONTINUOUS
 62
     3
 48
16.0
100
AcDbCircle
 10
34.21198558155063
 20
165.3819390717757
 30
0.0
 40
1.000000000000014
100
AcDbArc
 50
359.9999999999943
 51
89.99999999999429
  0
LINE
  5
48D
330
1A
100
AcDbEntity
  8
SEIHIN
  6
CONTINUOUS
 62
     3
 48
16.0
100
AcDbLine
 10
35.21198558155063
 20
149.3818390717757
 30
0.0
 11
35.21198558155063
 21
165.3819390717756
 31
0.0
  0
ARC
  5
48E
330
1A
100
AcDbEntity
  8
SEIHIN
  6
CONTINUOUS
 62
     3
 48
16.0
100
AcDbCircle
 10
37.21198558155063
 20
149.3818390717757
 30
0.0
 40
2.0
100
AcDbArc
 50
180.0
 51
270.0
  0
ARC
  5
48F
330
1A
100
AcDbEntity
  8
SEIHIN
  6
CONTINUOUS
 62
     3
 48
16.0
100
AcDbCircle
 10
35.90848573587894
 20
145.4196595272838
 30
0.0
 40
0.8000094437057423
100
AcDbArc
 50
56.59913740782207
 51
146.4978748253907
  0
LINE
  5
490
330
1A
100
AcDbEntity
  8
SEIHIN
  6
CONTINUOUS
 62
     3
 48
16.0
100
AcDbLine
 10
35.66278558155076
 20
144.6583390717757
 30
0.0
 11
39.15378558155074
 21
143.5321390717757
 31
0.0
  0
ARC
  5
491
330
1A
100
AcDbEntity
  8
SEIHIN
  6
CONTINUOUS
 62
     3
 48
16.0
100
AcDbCircle
 10
35.90838525601006
 20
145.4196400010443
 30
0.0
 40
0.7999364380997652
100
AcDbArc
 50
146.4927361374526
 51
252.1200266769127
  0
ARC
  5
492
330
1A
100
AcDbEntity
  8
SEIHIN
  6
CONTINUOUS
 62
     3
 48
16.0
100
AcDbCircle
 10
39.24590624880542
 20
143.8176479118038
 30
0.0
 40
0.3000025251054579
100
AcDbArc
 50
252.1174788821403
 51
334.1918515621244
  0
ARC
  5
493
330
1A
100
AcDbEntity
  8
SEIHIN
  6
CONTINUOUS
 62
     3
 48
16.0
100
AcDbCircle
 10
39.24588629043805
 20
143.8176364987847
 30
0.0
 40
0.3000155245999041
100
AcDbArc
 50
334.1954731758403
 51
56.61223227605979
  0
LINE
  5
494
330
1A
100
AcDbEntity
  8
SEIHIN
  6
CONTINUOUS
 62
     3
 48
16.0
100
AcDbLine
 10
36.34878558155068
 20
146.0875390717757
 30
0.0
 11
39.41098558155065
 21
144.0681390717756
 31
0.0
  0
LINE
  5
495
330
1A
100
AcDbEntity
  8
SEIHIN
  6
CONTINUOUS
 62
     3
 48
16.0
100
AcDbLine
 10
34.21198558155069
 20
166.3818390717757
 30
0.0
 11
31.71198558155072
 21
166.3818390717757
 31
0.0
  0
ARC
  5
496
330
1A
100
AcDbEntity
  8
SEIHIN
  6
CONTINUOUS
 62
     3
 48
16.0
100
AcDbCircle
 10
49.21198558155069
 20
165.3818390717758
 30
0.0
 40
0.9999999999999573
100
AcDbArc
 50
90.00000000000245
 51
180.0000000000024
  0
LINE
  5
497
330
1A
100
AcDbEntity
  8
SEIHIN
  6
CONTINUOUS
 62
     3
 48
16.0
100
AcDbLine
 10
40.41198558155073
 20
179.2930390717757
 30
0.0
 11
40.41198558155073
 21
149.8819390717757
 31
0.0
  0
LINE
  5
498
330
1A
100
AcDbEntity
  8
SEIHIN
  6
CONTINUOUS
 62
     3
 48
16.0
100
AcDbLine
 10
43.01198558155076
 20
179.2930390717757
 30
0.0
 11
43.01198558155076
 21
149.8819390717757
 31
0.0
  0
LINE
  5
499
330
1A
100
AcDbEntity
  8
SEIHIN
  6
CONTINUOUS
 62
     3
 48
16.0
100
AcDbLine
 10
48.21198558155069
 20
149.3818390717757
 30
0.0
 11
48.21198558155069
 21
165.3818390717757
 31
0.0
  0
ARC
  5
49A
330
1A
100
AcDbEntity
  8
SEIHIN
  6
CONTINUOUS
 62
     3
 48
16.0
100
AcDbCircle
 10
46.21198558155069
 20
149.3818390717757
 30
0.0
 40
2.0
100
AcDbArc
 50
270.0
 51
0.0
  0
ARC
  5
49B
330
1A
100
AcDbEntity
  8
SEIHIN
  6
CONTINUOUS
 62
     3
 48
16.0
100
AcDbCircle
 10
47.5154814211676
 20
145.4196399218675
 30
0.0
 40
0.8000236059017472
100
AcDbArc
 50
33.50313763733201
 51
123.3998501294571
  0
ARC
  5
49C
330
1A
100
AcDbEntity
  8
SEIHIN
  6
CONTINUOUS
 62
     3
 48
16.0
100
AcDbCircle
 10
47.51550321130949
 20
145.4196893910513
 30
0.0
 40
0.799978130472554
100
AcDbArc
 50
287.8777077593881
 51
33.50104468163908
  0
ARC
  5
49D
330
1A
100
AcDbEntity
  8
SEIHIN
  6
CONTINUOUS
 62
     3
 48
16.0
100
AcDbCircle
 10
44.17810474839072
 20
143.8177086371259
 30
0.0
 40
0.3000212920612555
100
AcDbArc
 50
123.4144637516614
 51
205.7980843013433
  0
ARC
  5
49E
330
1A
100
AcDbEntity
  8
SEIHIN
  6
CONTINUOUS
 62
     3
 48
16.0
100
AcDbCircle
 10
44.17809538259322
 20
143.8176348778247
 30
0.0
 40
0.2999807660761266
100
AcDbArc
 50
205.7861790119682
 51
287.8777473054459
  0
LINE
  5
49F
330
1A
100
AcDbEntity
  8
SEIHIN
  6
CONTINUOUS
 62
     3
 48
16.0
100
AcDbLine
 10
47.07508558155061
 20
146.0875390717757
 30
0.0
 11
44.01288558155076
 21
144.0681390717756
 31
0.0
  0
LINE
  5
4A0
330
1A
100
AcDbEntity
  8
SEIHIN
  6
CONTINUOUS
 62
     3
 48
16.0
100
AcDbLine
 10
47.76108558155075
 20
144.6583390717757
 30
0.0
 11
44.27018558155075
 21
143.5321390717757
 31
0.0
  0
LINE
  5
4A1
330
1A
100
AcDbEntity
  8
SEIHIN
  6
CONTINUOUS
 62
     3
 48
16.0
100
AcDbLine
 10
49.21198558155063
 20
166.3818390717757
 30
0.0
 11
51.71198558155063
 21
166.3818390717757
 31
0.0
  0
ARC
  5
4A2
330
1A
100
AcDbEntity
  8
SEIHIN
  6
CONTINUOUS
 62
     3
 48
16.0
100
AcDbCircle
 10
41.41198558155074
 20
179.2930390717757
 30
0.0
 40
1.0
100
AcDbArc
 50
90.0
 51
180.0
  0
LINE
  5
4A3
330
1A
100
AcDbEntity
  8
SEIHIN
  6
CONTINUOUS
 62
     3
 48
16.0
100
AcDbLine
 10
42.01198558155076
 20
180.2930390717757
 30
0.0
 11
41.41198558155074
 21
180.2930390717757
 31
0.0
  0
ARC
  5
4A4
330
1A
100
AcDbEntity
  8
SEIHIN
  6
CONTINUOUS
 62
     3
 48
16.0
100
AcDbCircle
 10
42.01198558155076
 20
179.2930390717757
 30
0.0
 40
1.0
100
AcDbArc
 50
0.0
 51
90.0
  0
LINE
  5
4A5
330
1A
100
AcDbEntity
  8
SEIHIN
  6
CONTINUOUS
 62
     3
 48
16.0
100
AcDbLine
 10
177.5121855815507
 20
232.3817390717756
 30
0.0
 11
177.5121855815507
 21
241.3816390717757
 31
0.0
  0
LINE
  5
4A6
330
1A
100
AcDbEntity
  8
SEIHIN
  6
CONTINUOUS
 62
     3
 48
16.0
100
AcDbLine
 10
174.1121633601926
 20
234.8817390717756
 30
0.0
 11
174.1122078041452
 21
238.8816503511945
 31
0.0
  0
LINE
  5
4A7
330
1A
100
AcDbEntity
  8
SEIHIN
  6
CONTINUOUS
 62
     3
 48
16.0
100
AcDbLine
 10
166.0121633593283
 20
234.8817390717755
 30
0.0
 11
166.0122078030855
 21
238.8816772229268
 31
0.0
  0
LINE
  5
4A8
330
1A
100
AcDbEntity
  8
SEIHIN
  6
CONTINUOUS
 62
     3
 48
16.0
100
AcDbLine
 10
185.0121855815505
 20
226.8816390717757
 30
0.0
 11
185.0121855815505
 21
236.8816390717757
 31
0.0
  0
ARC
  5
4A9
330
1A
100
AcDbEntity
  8
SEIHIN
  6
CONTINUOUS
 62
     3
 48
16.0
100
AcDbCircle
 10
141.7119855815507
 20
236.8817390717756
 30
0.0
 40
4.5
100
AcDbArc
 50
180.0
 51
0.0
  0
LINE
  5
4AA
330
1A
100
AcDbEntity
  8
SEIHIN
  6
CONTINUOUS
 62
     3
 48
16.0
100
AcDbLine
 10
143.7121855815505
 20
238.8817390717756
 30
0.0
 11
143.7121855815505
 21
234.8817390717756
 31
0.0
  0
LINE
  5
4AB
330
1A
100
AcDbEntity
  8
SEIHIN
  6
CONTINUOUS
 62
     3
 48
16.0
100
AcDbLine
 10
139.7119855815507
 20
238.8817390717756
 30
0.0
 11
139.7119855815507
 21
234.8817390717756
 31
0.0
  0
ARC
  5
4AC
330
1A
100
AcDbEntity
  8
SEIHIN
  6
CONTINUOUS
 62
     3
 48
16.0
100
AcDbCircle
 10
141.7119855815507
 20
236.8817390717756
 30
0.0
 40
6.0
100
AcDbArc
 50
180.0
 51
0.0
  0
LINE
  5
4AD
330
1A
100
AcDbEntity
  8
SEIHIN
  6
CONTINUOUS
 62
     3
 48
16.0
100
AcDbLine
 10
104.6997855815507
 20
234.8817390717756
 30
0.0
 11
104.6997855815507
 21
238.881880626753
 31
0.0
  0
LINE
  5
4AE
330
1A
100
AcDbEntity
  8
SEIHIN
  6
CONTINUOUS
 62
     3
 48
16.0
100
AcDbLine
 10
109.3119855815505
 20
234.8817390717755
 30
0.0
 11
109.3119855815505
 21
238.8818653257896
 31
0.0
  0
LINE
  5
4AF
330
1A
100
AcDbEntity
  8
SEIHIN
  6
CONTINUOUS
 62
     3
 48
16.0
100
AcDbLine
 10
117.4119855815507
 20
234.8817390717756
 30
0.0
 11
117.4119855815507
 21
238.8818384540573
 31
0.0
  0
DIMENSION
  5
4B0
330
1A
100
AcDbEntity
  8
SUNPOU
  6
CONTINUOUS
100
AcDbDimension
  2
*D5
 10
88.54231236747105
 20
226.8818390717757
 30
0.0
 11
86.04231236747105
 21
236.8817890717756
 31
0.0
 70
    32
  3
STANDARD
100
AcDbAlignedDimension
 13
98.41198558155074
 23
246.8817390717756
 33
0.0
 14
98.41198558155074
 24
226.8818390717757
 34
0.0
 50
90.0
100
AcDbRotatedDimension
1001
ACAD
1000
DSTYLE
1002
{
1070
   140
1040
3.0
1070
    74
1070
     0
1070
   172
1070
     1
1070
    73
1070
     0
1070
   272
1070
     2
1070
    77
1070
     3
1070
   173
1070
     1
1070
   147
1040
1.0
1070
    42
1040
3.0
1070
    44
1040
1.5
1070
    43
1040
7.0
1070
   271
1070
     0
1070
   178
1070
     4
1070
   177
1070
     4
1070
   176
1070
     4
1070
   141
1040
150.0
1070
     7
1000
_OPEN
1070
     6
1000
_OPEN
1070
    41
1040
3.0
1002
}
  0
LINE
  5
4B1
330
1A
100
AcDbEntity
  8
SEIHIN
  6
CONTINUOUS
 62
     3
 48
16.0
100
AcDbLine
 10
98.41198558155074
 20
226.8818390717757
 30
0.0
 11
98.4119855815507
 21
246.8817390717756
 31
0.0
  0
LINE
  5
4B2
330
1A
100
AcDbEntity
  8
SEIHIN
  6
CONTINUOUS
 62
     3
 48
16.0
100
AcDbLine
 10
99.21208558155072
 20
226.8818390717757
 30
0.0
 11
99.21208558155072
 21
246.8817390717756
 31
0.0
  0
LINE
  5
4B3
330
1A
100
AcDbEntity
  8
CENTER_L
  6
CENTER
 62
     1
 48
5.0
100
AcDbLine
 10
141.7119855815507
 20
252.8817390717757
 30
0.0
 11
141.7119855815507
 21
220.8817390717756
 31
0.0
  0
DIMENSION
  5
4B4
330
1A
100
AcDbEntity
  8
SUNPOU
  6
CONTINUOUS
100
AcDbDimension
  2
*D6
 10
98.41198558155074
 20
176.608957719218
 30
0.0
 11
141.7119355815507
 21
179.108957719218
 31
0.0
 70
    32
  3
STANDARD
100
AcDbAlignedDimension
 13
185.0118855815507
 23
147.5359390717757
 33
0.0
 14
98.41198558155074
 24
166.3817390717756
 34
0.0
100
AcDbRotatedDimension
1001
ACAD
1000
DSTYLE
1002
{
1070
   140
1040
3.0
1070
    74
1070
     0
1070
   172
1070
     1
1070
    73
1070
     0
1070
   272
1070
     2
1070
    77
1070
     3
1070
   173
1070
     1
1070
   147
1040
1.0
1070
    42
1040
3.0
1070
    44
1040
1.5
1070
    43
1040
7.0
1070
   271
1070
     0
1070
   178
1070
     4
1070
   177
1070
     4
1070
   176
1070
     4
1070
   141
1040
150.0
1070
     7
1000
_OPEN
1070
     6
1000
_OPEN
1070
    41
1040
3.0
1002
}
  0
LINE
  5
4B5
330
1A
100
AcDbEntity
  8
SEIHIN
  6
CONTINUOUS
 62
     3
 48
16.0
100
AcDbLine
 10
117.4119855815507
 20
227.8817390717756
 30
0.0
 11
166.0120855815507
 21
227.8817390717756
 31
0.0
  0
LINE
  5
4B6
330
1A
100
AcDbEntity
  8
SEIHIN
  6
CONTINUOUS
 62
     3
 48
16.0
100
AcDbLine
 10
104.9161680292452
 20
230.3817390717756
 30
0.0
 11
179.7060855815507
 21
230.3817390717756
 31
0.0
  0
LINE
  5
4B7
330
1A
100
AcDbEntity
  8
NOKITOI
  6
PHANTOM
 62
     8
 48
5.0
100
AcDbLine
 10
103.1282855815505
 20
145.6817390717758
 30
0.0
 11
100.4119855815506
 21
145.6817390717758
 31
0.0
  0
LINE
  5
4B8
330
1A
100
AcDbEntity
  8
NOKITOI
  6
PHANTOM
 62
     8
 48
5.0
100
AcDbLine
 10
99.21198558155058
 20
146.8817390717758
 30
0.0
 11
104.1103855815506
 21
146.8817390717758
 31
0.0
  0
LINE
  5
4B9
330
1A
100
AcDbEntity
  8
SEIHIN
  6
CONTINUOUS
 62
     3
 48
16.0
100
AcDbLine
 10
99.21208558155072
 20
166.3818390717757
 30
0.0
 11
98.41198558155074
 21
166.3818390717757
 31
0.0
  0
LINE
  5
4BA
330
1A
100
AcDbEntity
  8
SEIHIN
  6
CONTINUOUS
 62
     3
 48
16.0
100
AcDbLine
 10
136.0551855815506
 20
234.8817390717756
 30
0.0
 11
104.9179855815505
 21
234.8818390717757
 31
0.0
  0
LINE
  5
4BB
330
1A
100
AcDbEntity
  8
SEIHIN
  6
CONTINUOUS
 62
     3
 48
16.0
100
AcDbLine
 10
109.3119855815505
 20
227.8818390717757
 30
0.0
 11
99.21208558155072
 21
227.8818390717757
 31
0.0
  0
ARC
  5
4BC
330
1A
100
AcDbEntity
  8
SEIHIN
  6
CONTINUOUS
 62
     3
 48
16.0
100
AcDbCircle
 10
104.6694855814293
 20
232.6318890717757
 30
0.0
 40
2.263631430370302
100
AcDbArc
 50
83.69740344296623
 51
276.3025965570337
  0
LINE
  5
4BD
330
1A
100
AcDbEntity
  8
SEIHIN
  6
CONTINUOUS
 62
     3
 48
16.0
100
AcDbLine
 10
104.6997855815507
 20
227.8817390717756
 30
0.0
 11
104.6997855815507
 21
230.3817390717756
 31
0.0
  0
LINE
  5
4BE
330
1A
100
AcDbEntity
  8
SEIHIN
  6
CONTINUOUS
 62
     3
 48
16.0
100
AcDbLine
 10
99.21208558155072
 20
226.8818390717757
 30
0.0
 11
98.41208558155072
 21
226.8818390717757
 31
0.0
  0
LINE
  5
4BF
330
1A
100
AcDbEntity
  8
SEIHIN
  6
CONTINUOUS
 62
     3
 48
16.0
100
AcDbLine
 10
99.21208558155072
 20
230.3818390717757
 30
0.0
 11
98.41208558155072
 21
230.3818390717757
 31
0.0
  0
ARC
  5
4C0
330
1A
100
AcDbEntity
  8
SEIHIN
  6
CONTINUOUS
 62
     3
 48
16.0
100
AcDbCircle
 10
113.3620855815507
 20
211.2937390712067
 30
0.0
 40
17.07525238521743
100
AcDbArc
 50
76.27952224061047
 51
103.7204777593895
  0
LINE
  5
4C1
330
1A
100
AcDbEntity
  8
SEIHIN
  6
CONTINUOUS
 62
     3
 48
16.0
100
AcDbLine
 10
109.3119855815505
 20
227.8817390717756
 30
0.0
 11
109.3119855815505
 21
230.3817390717756
 31
0.0
  0
ARC
  5
4C2
330
1A
100
AcDbEntity
  8
SEIHIN
100
AcDbCircle
 10
110.2494548480244
 20
232.6317595600959
 30
0.0
 40
2.437469267203474
100
AcDbArc
 50
112.6193833216257
 51
247.3806166783735
  0
LINE
  5
4C3
330
1A
100
AcDbEntity
  8
SEIHIN
  6
CONTINUOUS
 62
     3
 48
16.0
100
AcDbLine
 10
117.4119855815507
 20
227.8817390717756
 30
0.0
 11
117.4119855815507
 21
230.3817390717755
 31
0.0
  0
ARC
  5
4C4
330
1A
100
AcDbEntity
  8
SEIHIN
100
AcDbCircle
 10
120.4119324440834
 20
232.6317354646239
 30
0.0
 40
3.749946862832026
100
AcDbArc
 50
143.1298317181791
 51
216.8701682818208
  0
LINE
  5
4C5
330
1A
100
AcDbEntity
  8
SEIHIN
  6
CONTINUOUS
 62
     3
 48
16.0
100
AcDbLine
 10
182.9530855815505
 20
148.5018390717757
 30
0.0
 11
177.9744855815507
 21
147.1678390717757
 31
0.0
  0
LINE
  5
4C6
330
1A
100
AcDbEntity
  8
SEIHIN
  6
CONTINUOUS
 62
     3
 48
16.0
100
AcDbLine
 10
182.7460855815507
 20
149.2746390717756
 30
0.0
 11
177.7674855815507
 21
147.9405390717757
 31
0.0
  0
LINE
  5
4C7
330
1A
100
AcDbEntity
  8
SEIHIN
  6
CONTINUOUS
 62
     3
 48
16.0
100
AcDbLine
 10
183.5198855815505
 20
148.4873390717757
 30
0.0
 11
178.1451855815507
 21
146.5311390717757
 31
0.0
  0
LINE
  5
4C8
330
1A
100
AcDbEntity
  8
SEIHIN
  6
CONTINUOUS
 62
     3
 48
16.0
100
AcDbLine
 10
178.1451855815507
 20
146.5311390717757
 30
0.0
 11
177.7674855815507
 21
147.9405390717757
 31
0.0
  0
ARC
  5
4C9
330
1A
100
AcDbEntity
  8
SEIHIN
  6
CONTINUOUS
 62
     3
 48
16.0
100
AcDbCircle
 10
183.2119005192737
 20
147.5359276095187
 30
0.0
 40
0.999985062342556
100
AcDbArc
 50
0.0006567487629207
 51
104.9999856908052
  0
ARC
  5
4CA
330
1A
100
AcDbEntity
  8
SEIHIN
  6
CONTINUOUS
 62
     3
 48
16.0
100
AcDbCircle
 10
183.2118790079636
 20
147.5359441160998
 30
0.0
 40
1.800006573594151
100
AcDbArc
 50
359.9998394347638
 51
104.9972794833067
  0
LINE
  5
4CB
330
1A
100
AcDbEntity
  8
NOKITOI
  6
PHANTOM
 62
     8
 48
5.0
100
AcDbLine
 10
184.2118855815507
 20
146.8816390717756
 30
0.0
 11
179.3134855815506
 21
146.8816390717756
 31
0.0
  0
LINE
  5
4CC
330
1A
100
AcDbEntity
  8
NOKITOI
  6
PHANTOM
 62
     8
 48
5.0
100
AcDbLine
 10
180.2955855815506
 20
145.6816390717756
 30
0.0
 11
183.0118855815505
 21
145.6816390717756
 31
0.0
  0
ARC
  5
4CD
330
1A
100
AcDbEntity
  8
SEIHIN
  6
CONTINUOUS
 62
     3
 48
16.0
100
AcDbCircle
 10
170.0620855815506
 20
211.2936390717758
 30
0.0
 40
17.07534953112208
100
AcDbArc
 50
76.27960182693543
 51
103.7203981730645
  0
LINE
  5
4CE
330
1A
100
AcDbEntity
  8
SEIHIN
  6
CONTINUOUS
 62
     3
 48
16.0
100
AcDbLine
 10
147.3689855815506
 20
234.8817390717756
 30
0.0
 11
177.5121855815507
 21
234.8817390717756
 31
0.0
  0
LINE
  5
4CF
330
1A
100
AcDbEntity
  8
SEIHIN
  6
CONTINUOUS
 62
     3
 48
16.0
100
AcDbLine
 10
139.7119855815507
 20
234.8817390717756
 30
0.0
 11
143.7121855815505
 21
234.8817390717756
 31
0.0
  0
LINE
  5
4D0
330
1A
100
AcDbEntity
  8
SEIHIN
  6
CONTINUOUS
 62
     3
 48
16.0
100
AcDbLine
 10
166.0120855815507
 20
227.8817390717756
 30
0.0
 11
166.0121133593284
 21
230.3817390717756
 31
0.0
  0
ARC
  5
4D1
330
1A
100
AcDbEntity
  8
SEIHIN
100
AcDbCircle
 10
163.0121415225998
 20
232.6317734595619
 30
0.0
 40
3.749996836930897
100
AcDbArc
 50
323.1294496248567
 51
36.86927713559971
  0
ARC
  5
4D2
330
1A
100
AcDbEntity
  8
SEIHIN
  6
CONTINUOUS
 62
     3
 48
16.0
100
AcDbCircle
 10
179.5121855815507
 20
232.3817390717756
 30
0.0
 40
2.0
100
AcDbArc
 50
180.0
 51
270.0
  0
LINE
  5
4D3
330
1A
100
AcDbEntity
  8
SEIHIN
  6
CONTINUOUS
 62
     3
 48
16.0
100
AcDbLine
 10
174.1120855815506
 20
227.8817390717756
 30
0.0
 11
184.2119855815507
 21
227.8817390717756
 31
0.0
  0
LINE
  5
4D4
330
1A
100
AcDbEntity
  8
SEIHIN
  6
CONTINUOUS
 62
     3
 48
16.0
100
AcDbLine
 10
178.7243855815505
 20
227.8817390717756
 30
0.0
 11
178.7243855815505
 21
230.5434390717756
 31
0.0
  0
LINE
  5
4D5
330
1A
100
AcDbEntity
  8
SEIHIN
  6
CONTINUOUS
 62
     3
 48
16.0
100
AcDbLine
 10
174.1120855815506
 20
227.8817390717756
 30
0.0
 11
174.112113359637
 21
230.3817390717755
 31
0.0
  0
ARC
  5
4D6
330
1A
100
AcDbEntity
  8
SEIHIN
100
AcDbCircle
 10
173.1746357779493
 20
232.6317264476029
 30
0.0
 40
2.437502582848008
100
AcDbArc
 50
292.6192687952511
 51
67.37945795105467
  0
LINE
  5
4D7
330
1A
100
AcDbEntity
  8
SEIHIN
  6
CONTINUOUS
 62
     3
 48
16.0
100
AcDbLine
 10
184.2120855815507
 20
226.8816390717757
 30
0.0
 11
184.2120855815507
 21
230.3817390717756
 31
0.0
  0
LINE
  5
4D8
330
1A
100
AcDbEntity
  8
SEIHIN
  6
CONTINUOUS
 62
     3
 48
16.0
100
AcDbLine
 10
184.2120855815507
 20
226.8816390717757
 30
0.0
 11
185.0119855815506
 21
226.8816390717757
 31
0.0
  0
LINE
  5
4D9
330
1A
100
AcDbEntity
  8
SEIHIN
  6
CONTINUOUS
 62
     3
 48
16.0
100
AcDbLine
 10
179.5121855815507
 20
230.3817390717756
 30
0.0
 11
185.0119855815506
 21
230.3817390717756
 31
0.0
  0
ARC
  5
4DA
330
1A
100
AcDbEntity
  8
SEIHIN
  6
CONTINUOUS
 62
     3
 48
16.0
100
AcDbCircle
 10
179.9546939384189
 20
232.6318390331858
 30
0.0
 40
2.263593592378674
100
AcDbArc
 50
263.6945382651647
 51
276.2591995011374
  0
LINE
  5
4DB
330
1A
100
AcDbEntity
  8
SEIHIN
  6
CONTINUOUS
 62
     3
 48
16.0
100
AcDbLine
 10
117.4119855815507
 20
245.8817390717757
 30
0.0
 11
166.0120855815507
 21
245.8817390717757
 31
0.0
  0
LINE
  5
4DC
330
1A
100
AcDbEntity
  8
SEIHIN
  6
CONTINUOUS
 62
     3
 48
16.0
100
AcDbLine
 10
104.9161672367985
 20
243.3818390773509
 30
0.0
 11
179.7060855815507
 21
243.3816390717757
 31
0.0
  0
ARC
  5
4DD
330
1A
100
AcDbEntity
  8
SEIHIN
  6
CONTINUOUS
 62
     3
 48
16.0
100
AcDbCircle
 10
141.7119855815507
 20
236.8817390717756
 30
0.0
 40
4.5
100
AcDbArc
 50
0.0
 51
180.0
  0
ARC
  5
4DE
330
1A
100
AcDbEntity
  8
SEIHIN
  6
CONTINUOUS
 62
     3
 48
16.0
100
AcDbCircle
 10
141.7119855815507
 20
236.8817390717756
 30
0.0
 40
6.0
100
AcDbArc
 50
0.0
 51
180.0
  0
LINE
  5
4DF
330
1A
100
AcDbEntity
  8
SEIHIN
  6
CONTINUOUS
 62
     3
 48
16.0
100
AcDbLine
 10
109.3119855815505
 20
245.8818390717757
 30
0.0
 11
99.21218558155064
 21
245.8817390717757
 31
0.0
  0
LINE
  5
4E0
330
1A
100
AcDbEntity
  8
SEIHIN
  6
CONTINUOUS
 62
     3
 48
16.0
100
AcDbLine
 10
136.0551855815506
 20
238.8817390717756
 30
0.0
 11
104.9179855815505
 21
238.8817390717756
 31
0.0
  0
ARC
  5
4E1
330
1A
100
AcDbEntity
  8
SEIHIN
  6
CONTINUOUS
 62
     3
 48
16.0
100
AcDbCircle
 10
104.6695855826349
 20
241.1316835505419
 30
0.0
 40
2.263625942374752
100
AcDbArc
 50
83.69993466723116
 51
276.3026118684512
  0
LINE
  5
4E2
330
1A
100
AcDbEntity
  8
SEIHIN
  6
CONTINUOUS
 62
     3
 48
16.0
100
AcDbLine
 10
99.21218558155064
 20
243.3817390717756
 30
0.0
 11
98.41218558155075
 21
243.3817390717756
 31
0.0
  0
LINE
  5
4E3
330
1A
100
AcDbEntity
  8
SEIHIN
  6
CONTINUOUS
 62
     3
 48
16.0
100
AcDbLine
 10
99.21208558155072
 20
246.8817390717756
 30
0.0
 11
98.41208558155072
 21
246.8817390717756
 31
0.0
  0
LINE
  5
4E4
330
1A
100
AcDbEntity
  8
SEIHIN
  6
CONTINUOUS
 62
     3
 48
16.0
100
AcDbLine
 10
104.6997855815507
 20
243.381836488466
 30
0.0
 11
104.6997855815507
 21
245.8817934055249
 31
0.0
  0
ARC
  5
4E5
330
1A
100
AcDbEntity
  8
SEIHIN
  6
CONTINUOUS
 62
     3
 48
16.0
100
AcDbCircle
 10
113.3622903722915
 20
262.4698390716335
 30
0.0
 40
17.0753009590525
100
AcDbArc
 50
256.2788546782437
 51
283.7197306111506
  0
ARC
  5
4E6
330
1A
100
AcDbEntity
  8
SEIHIN
100
AcDbCircle
 10
110.2494548480245
 20
241.1318448374693
 30
0.0
 40
2.437469267203474
100
AcDbArc
 50
112.6193833216257
 51
247.3806166783735
  0
LINE
  5
4E7
330
1A
100
AcDbEntity
  8
SEIHIN
  6
CONTINUOUS
 62
     3
 48
16.0
100
AcDbLine
 10
109.3119855815505
 20
243.3818243491489
 30
0.0
 11
109.3119855815505
 21
245.8818390717758
 31
0.0
  0
ARC
  5
4E8
330
1A
100
AcDbEntity
  8
SEIHIN
100
AcDbCircle
 10
120.4119324440835
 20
241.1318207419973
 30
0.0
 40
3.749946862832026
100
AcDbArc
 50
143.1298317181791
 51
216.8701682818208
  0
LINE
  5
4E9
330
1A
100
AcDbEntity
  8
SEIHIN
  6
CONTINUOUS
 62
     3
 48
16.0
100
AcDbLine
 10
117.4119855815507
 20
243.3818030299372
 30
0.0
 11
117.4119855815507
 21
245.8817390717757
 31
0.0
  0
ARC
  5
4EA
330
1A
100
AcDbEntity
  8
SEIHIN
  6
CONTINUOUS
 62
     3
 48
16.0
100
AcDbCircle
 10
170.0620855815506
 20
262.4698390717755
 30
0.0
 40
17.07534953112204
100
AcDbArc
 50
256.2796018269354
 51
283.7203981730645
  0
LINE
  5
4EB
330
1A
100
AcDbEntity
  8
SEIHIN
  6
CONTINUOUS
 62
     3
 48
16.0
100
AcDbLine
 10
147.3689855815506
 20
238.8817390717756
 30
0.0
 11
177.5121855815507
 21
238.8816390717757
 31
0.0
  0
LINE
  5
4EC
330
1A
100
AcDbEntity
  8
SEIHIN
  6
CONTINUOUS
 62
     3
 48
16.0
100
AcDbLine
 10
143.7121855815505
 20
238.8817390717756
 30
0.0
 11
139.7119855815507
 21
238.8817390717756
 31
0.0
  0
ARC
  5
4ED
330
1A
100
AcDbEntity
  8
SEIHIN
100
AcDbCircle
 10
163.0122359663335
 20
241.1317095017366
 30
0.0
 40
3.749996836930897
100
AcDbArc
 50
323.1294496248567
 51
36.86927713559971
  0
LINE
  5
4EE
330
1A
100
AcDbEntity
  8
SEIHIN
  6
CONTINUOUS
 62
     3
 48
16.0
100
AcDbLine
 10
166.012257803062
 20
243.3816751139503
 30
0.0
 11
166.0122855815504
 21
245.8817390717757
 31
0.0
  0
LINE
  5
4EF
330
1A
100
AcDbEntity
  8
SEIHIN
  6
CONTINUOUS
 62
     3
 48
16.0
100
AcDbLine
 10
174.1120855815506
 20
245.8817390717757
 30
0.0
 11
184.2120855815507
 21
245.8816390717756
 31
0.0
  0
ARC
  5
4F0
330
1A
100
AcDbEntity
  8
SEIHIN
  6
CONTINUOUS
 62
     3
 48
16.0
100
AcDbCircle
 10
179.5121855815507
 20
241.3816390717757
 30
0.0
 40
2.0
100
AcDbArc
 50
90.0
 51
180.0
  0
ARC
  5
4F1
330
1A
100
AcDbEntity
  8
SEIHIN
100
AcDbCircle
 10
173.174730221683
 20
241.1316624897776
 30
0.0
 40
2.437502582848008
100
AcDbArc
 50
292.6192687952511
 51
67.37945795105467
  0
LINE
  5
4F2
330
1A
100
AcDbEntity
  8
SEIHIN
  6
CONTINUOUS
 62
     3
 48
16.0
100
AcDbLine
 10
174.1122578047391
 20
243.3816537947385
 30
0.0
 11
174.1122855837731
 21
245.8817390697956
 31
0.0
  0
LINE
  5
4F3
330
1A
100
AcDbEntity
  8
SEIHIN
  6
CONTINUOUS
 62
     3
 48
16.0
100
AcDbLine
 10
178.7243855815505
 20
245.8817390717757
 30
0.0
 11
178.7243855815505
 21
243.2199390717757
 31
0.0
  0
LINE
  5
4F4
330
1A
100
AcDbEntity
  8
SEIHIN
  6
CONTINUOUS
 62
     3
 48
16.0
100
AcDbLine
 10
185.0121855815505
 20
246.8816390717757
 30
0.0
 11
185.0121855815505
 21
236.8817390717756
 31
0.0
  0
LINE
  5
4F5
330
1A
100
AcDbEntity
  8
SEIHIN
  6
CONTINUOUS
 62
     3
 48
16.0
100
AcDbLine
 10
179.5121855815507
 20
243.3816390717757
 30
0.0
 11
185.0119855815506
 21
243.3816390717757
 31
0.0
  0
ARC
  5
4F6
330
1A
100
AcDbEntity
  8
SEIHIN
  6
CONTINUOUS
 62
     3
 48
16.0
100
AcDbCircle
 10
179.9546390176639
 20
241.1316390812912
 30
0.0
 40
2.263587590040538
100
AcDbArc
 50
83.71901391138047
 51
96.30407991321508
  0
LINE
  5
4F7
330
1A
100
AcDbEntity
  8
SEIHIN
  6
CONTINUOUS
 62
     3
 48
16.0
100
AcDbLine
 10
184.2120855815507
 20
246.8816390717757
 30
0.0
 11
184.2120855815507
 21
243.3816390717757
 31
0.0
  0
LINE
  5
4F8
330
1A
100
AcDbEntity
  8
SEIHIN
  6
CONTINUOUS
 62
     3
 48
16.0
100
AcDbLine
 10
184.2120855815507
 20
246.8816390717757
 30
0.0
 11
185.0119855815506
 21
246.8816390717757
 31
0.0
  0
LINE
  5
4F9
330
1A
100
AcDbEntity
  8
CENTER_L
  6
CENTER
 62
     1
 48
5.0
100
AcDbLine
 10
275.5374855815505
 20
136.1830390717757
 30
0.0
 11
264.9352855815507
 21
162.6907390717756
 31
0.0
  0
LINE
  5
4FA
330
1A
100
AcDbEntity
  8
SEIHIN
  6
CONTINUOUS
 62
     3
 48
16.0
100
AcDbLine
 10
337.0001855815504
 20
171.0077390717757
 30
0.0
 11
333.2864855815504
 21
180.2925390717757
 31
0.0
  0
LEADER
  5
4FB
330
1A
100
AcDbEntity
  8
SUNPOU
  6
CONTINUOUS
 62
     4
100
AcDbLeader
  3
STANDARD
 73
     0
 74
     0
 40
3.0
 41
11.59999999999999
 76
     3
 10
325.8584855815507
 20
173.4365390717756
 30
0.0
 10
338.7403620614142
 20
196.3674106933762
 30
0.0
 10
342.0932608905442
 20
196.3674106933762
 30
0.0
1001
ACAD
1000
DSTYLE
1002
{
1070
     6
1000
OPEN
1070
    41
1040
3.0
1070
    42
1040
3.0
1070
    43
1040
7.0
1070
    44
1040
1.5
1070
    73
1070
     0
1070
    74
1070
     0
1070
    77
1070
     3
1070
   140
1040
3.0
1070
   141
1040
150.0
1070
   147
1040
1.0
1070
   172
1070
     1
1070
   173
1070
     1
1070
   176
1070
     4
1070
   177
1070
     4
1070
   178
1070
     4
1070
   271
1070
     0
1070
   272
1070
     2
1070
   341
1005
B2
1070
   343
1005
B2
1070
   344
1005
B2
1002
}
  0
DIMENSION
  5
4FC
330
1A
100
AcDbEntity
  8
SUNPOU
  6
CONTINUOUS
100
AcDbDimension
  2
*D7
 10
356.505062827787
 20
178.8093678065798
 30
0.0
 11
356.9694131752264
 21
184.3802229470272
 31
0.0
 70
    33
  3
STANDARD
100
AcDbAlignedDimension
 13
333.2864166188786
 23
180.2927114886687
 33
0.0
 14
337.0001373086668
 24
171.0078597611339
 34
0.0
1001
ACAD
1000
DSTYLE
1002
{
1070
   140
1040
3.0
1070
    74
1070
     0
1070
   172
1070
     1
1070
    73
1070
     0
1070
   272
1070
     2
1070
    77
1070
     3
1070
   173
1070
     1
1070
   147
1040
1.0
1070
    42
1040
3.0
1070
    44
1040
1.5
1070
    43
1040
7.0
1070
   271
1070
     0
1070
   178
1070
     4
1070
   177
1070
     4
1070
   176
1070
     4
1070
   141
1040
150.0
1070
     7
1000
_OPEN
1070
     6
1000
_OPEN
1070
    41
1040
3.0
1002
}
  0
LINE
  5
4FD
330
1A
100
AcDbEntity
  8
CENTER_L
 48
5.0
100
AcDbLine
 10
325.8584855815507
 20
228.5815514809268
 30
0.0
 11
325.8584855815507
 21
245.181551480939
 31
0.0
  0
LINE
  5
4FE
330
1A
100
AcDbEntity
  8
CENTER_L
 48
5.0
100
AcDbLine
 10
270.1492855815506
 20
228.581625679083
 30
0.0
 11
270.1492855815506
 21
245.1816256790953
 31
0.0
  0
ARC
  5
4FF
330
1A
100
AcDbEntity
  8
SEIHIN
  6
CONTINUOUS
 62
     3
 48
16.0
100
AcDbCircle
 10
270.1492855815506
 20
149.6544390717756
 30
0.0
 40
1.499999999999914
100
AcDbArc
 50
0.0
 51
180.0
  0
ARC
  5
500
330
1A
100
AcDbEntity
  8
SEIHIN
  6
CONTINUOUS
 62
     3
 48
16.0
100
AcDbCircle
 10
270.1492855815506
 20
149.6544390717756
 30
0.0
 40
1.499999999999914
100
AcDbArc
 50
180.0
 51
0.0
  0
DIMENSION
  5
501
330
1A
100
AcDbEntity
  8
SUNPOU
  6
CONTINUOUS
100
AcDbDimension
  2
*D8
 10
262.0076462017866
 20
170.0103135436392
 30
0.0
 11
288.9337714068581
 21
183.4725536221707
 31
0.0
 70
    32
  3
STANDARD
100
AcDbAlignedDimension
 13
322.1447737651361
 23
181.2214832868248
 33
0.0
 14
266.4356838253729
 24
158.9394321234284
 34
0.0
 50
21.80000434268587
100
AcDbRotatedDimension
1001
ACAD
1000
DSTYLE
1002
{
1070
   287
1070
     4
1070
   287
1070
     4
1070
   287
1070
     4
1070
    41
1040
3.0
1070
    42
1040
3.0
1070
    43
1040
7.0
1070
    44
1040
1.5
1070
    73
1070
     0
1070
    74
1070
     0
1070
    75
1070
     1
1070
    77
1070
     3
1070
   140
1040
3.0
1070
   141
1040
150.0
1070
   147
1040
1.0
1070
   172
1070
     1
1070
   173
1070
     1
1070
   176
1070
     4
1070
   177
1070
     4
1070
   178
1070
     4
1070
   271
1070
     0
1070
   272
1070
     2
1070
   279
1070
     1
1070
     6
1000
OPEN
1070
     7
1000
OPEN
1002
}
  0
DIMENSION
  5
502
330
1A
100
AcDbEntity
  8
SUNPOU
  6
CONTINUOUS
100
AcDbDimension
  2
*D9
 10
317.7167361415499
 20
192.2923647070353
 30
0.0
 11
321.4307085269232
 21
196.4704039971437
 31
0.0
 70
    33
  3
STANDARD
100
AcDbAlignedDimension
 13
331.4295580655028
 23
184.9351328733746
 33
0.0
 14
322.1447737651361
 24
181.2214832868248
 34
0.0
1001
ACAD
1000
DSTYLE
1002
{
1070
   140
1040
3.0
1070
    74
1070
     0
1070
   172
1070
     1
1070
    73
1070
     0
1070
   272
1070
     2
1070
    77
1070
     3
1070
   173
1070
     1
1070
   147
1040
1.0
1070
    42
1040
3.0
1070
    44
1040
1.5
1070
    43
1040
7.0
1070
   271
1070
     0
1070
   178
1070
     4
1070
   177
1070
     4
1070
   176
1070
     4
1070
   141
1040
150.0
1070
     7
1000
_OPEN
1070
     6
1000
_OPEN
1070
    41
1040
3.0
1002
}
  0
LINE
  5
503
330
1A
100
AcDbEntity
  8
CENTER_L
  6
CENTER
 62
     1
 48
5.0
100
AcDbLine
 10
331.2466855815504
 20
158.4650390717756
 30
0.0
 11
320.8580855815506
 21
184.4384390717757
 31
0.0
  0
ARC
  5
504
330
1A
100
AcDbEntity
  8
SEIHIN
  6
CONTINUOUS
 62
     3
 48
16.0
100
AcDbCircle
 10
325.8584855815507
 20
171.9365390717756
 30
0.0
 40
1.5
100
AcDbArc
 50
180.0
 51
0.0
  0
ARC
  5
505
330
1A
100
AcDbEntity
  8
SEIHIN
  6
CONTINUOUS
 62
     3
 48
16.0
100
AcDbCircle
 10
325.8584855815507
 20
171.9365390717756
 30
0.0
 40
1.5
100
AcDbArc
 50
0.0
 51
180.0
  0
LINE
  5
506
330
1A
100
AcDbEntity
  8
SEIHIN
  6
CONTINUOUS
 62
     3
 48
16.0
100
AcDbLine
 10
331.4617855815507
 20
235.5815390717757
 30
0.0
 11
331.4617855815507
 21
238.1815390717755
 31
0.0
  0
DIMENSION
  5
507
330
1A
100
AcDbEntity
  8
SUNPOU
  6
CONTINUOUS
100
AcDbDimension
  2
*D10
 10
349.7364335119583
 20
235.5815390717757
 30
0.0
 11
347.2364335119583
 21
224.0815390717757
 31
0.0
 70
    32
  1
t<>
  3
STANDARD
100
AcDbAlignedDimension
 13
335.1754855815505
 23
238.1815390717755
 33
0.0
 14
335.1754855815505
 24
235.5815390717757
 34
0.0
 50
90.0
100
AcDbRotatedDimension
1001
ACAD
1000
DSTYLE
1002
{
1070
   140
1040
3.0
1070
    74
1070
     0
1070
   172
1070
     1
1070
    73
1070
     0
1070
   272
1070
     2
1070
    77
1070
     3
1070
   173
1070
     1
1070
   147
1040
1.0
1070
    42
1040
3.0
1070
    44
1040
1.5
1070
    43
1040
7.0
1070
   271
1070
     1
1070
   178
1070
     4
1070
   177
1070
     4
1070
   176
1070
     4
1070
   141
1040
150.0
1070
     7
1000
_OPEN
1070
     6
1000
_OPEN
1070
    41
1040
3.0
1002
}
  0
TEXT
  5
508
330
1A
100
AcDbEntity
  8
SUNPOU
  6
CONTINUOUS
 62
     4
100
AcDbText
 10
365.6508297585525
 20
186.3070379315442
 30
0.0
 40
3.0
  1
10
100
AcDbText
  0
POINT
  5
509
330
1A
100
AcDbEntity
  8
DEFPOINTS
  6
BYBLOCK
 62
     0
100
AcDbPoint
 10
340.7138544154227
 20
161.723016991711
 30
0.0
  0
LINE
  5
50A
330
1A
100
AcDbEntity
  8
SUNPOU
  6
CONTINUOUS
 62
     4
 48
16.0
100
AcDbLine
 10
371.1411087873136
 20
195.4335556867632
 30
0.0
 11
361.1410081330607
 21
191.4335556867631
 31
0.0
  0
LINE
  5
50B
330
1A
100
AcDbEntity
  8
SUNPOU
  6
CONTINUOUS
100
AcDbLine
 10
371.1411087873136
 20
191.4335556867631
 30
0.0
 11
361.1410081330609
 21
191.4335556867631
 31
0.0
  0
MTEXT
  5
50C
330
1A
100
AcDbEntity
  8
SUNPOU
  6
CONTINUOUS
 62
     4
100
AcDbMText
 10
339.5266818362
 20
197.235424188783
 30
0.0
 40
3.0
 41
0.0
 71
     7
 72
     5
  1
2-φ3.0
1001
ACAD
1000
MTEXTBEGIN
1070
    73
1070
     1
1070
    44
1040
1.0
1070
    74
1070
     0
1000
MTEXTEND
1000
MTEXTBEGIN
1070
    73
1070
     1
1070
    44
1040
1.0
1070
    74
1070
     0
1000
MTEXTEND
1000
MTEXTBEGIN
1070
    73
1070
     1
1070
    44
1040
1.0
1070
    74
1070
     0
1000
MTEXTEND
  0
TEXT
  5
50D
330
1A
100
AcDbEntity
  8
SUNPOU
  6
CONTINUOUS
 62
     4
100
AcDbText
 10
373.3577007382564
 20
192.3808803536401
 30
0.0
 40
3.0
  1
4
100
AcDbText
  0
LINE
  5
50E
330
1A
100
AcDbEntity
  8
SUNPOU
  6
CONTINUOUS
100
AcDbLine
 10
371.1411087873136
 20
195.4335556867631
 30
0.0
 11
371.1411087873136
 21
191.4335556867631
 31
0.0
  0
LINE
  5
50F
330
1A
100
AcDbEntity
  8
SEIHIN
  6
CONTINUOUS
 62
     3
 48
16.0
100
AcDbLine
 10
335.1754855815505
 20
235.5815390717757
 30
0.0
 11
335.1754855815505
 21
238.1815390717755
 31
0.0
  0
LWPOLYLINE
  5
74A
330
1A
100
AcDbEntity
  8
ZUWAKU
100
AcDbPolyline
 90
        4
 70
     1
 43
0.0
 10
0.3999995635609821
 20
275.3999997025315
 10
0.3999995635609821
 20
0.399999702531602
 10
398.3999995635609
 20
0.399999702531602
 10
398.3999995635609
 20
275.3999997025315
  0
LWPOLYLINE
  5
74B
330
1A
100
AcDbEntity
  8
ZUWAKU
100
AcDbPolyline
 90
        4
 70
     1
 43
0.0
 10
0.1999995635609935
 20
275.5999997025316
 10
0.1999995635609935
 20
0.1999997025316134
 10
398.599999563561
 20
0.1999997025316018
 10
398.599999563561
 20
275.5999997025316
  0
LWPOLYLINE
  5
74C
330
1A
100
AcDbEntity
  8
ZUWAKU
100
AcDbPolyline
 90
        4
 70
     1
 43
0.0
 10
-0.0000004364389952
 20
275.7999997025315
 10
-0.0000004364389952
 20
-0.0000002974684321
 10
398.799999563561
 20
-0.0000002974683984
 10
398.799999563561
 20
275.7999997025316
  0
LWPOLYLINE
  5
74D
330
1A
100
AcDbEntity
  8
ZUWAKU
100
AcDbPolyline
 90
        4
 70
     1
 43
0.0
 10
0.2999995635609593
 20
275.4999997025316
 10
0.2999995635609593
 20
0.2999997025315792
 10
398.4999995635611
 20
0.2999997025316023
 10
398.499999563561
 20
275.4999997025316
  0
LWPOLYLINE
  5
74E
330
1A
100
AcDbEntity
  8
ZUWAKU
100
AcDbPolyline
 90
        4
 70
     1
 43
0.0
 10
0.0999995635609707
 20
275.6999997025316
 10
0.0999995635609707
 20
0.0999997025315906
 10
398.6999995635609
 20
0.0999997025316022
 10
398.699999563561
 20
275.6999997025316
  0
LINE
  5
74F
330
1A
100
AcDbEntity
  8
ZUWAKU
100
AcDbLine
 10
-0.0000004364389952
 20
14.99999970253156
 30
0.0
 11
398.6999995635609
 21
14.99999970253156
 31
0.0
  0
LINE
  5
750
330
1A
100
AcDbEntity
  8
ZUWAKU
100
AcDbLine
 10
-0.0000004364389952
 20
15.09999970253157
 30
0.0
 11
398.6999995635609
 21
15.09999970253157
 31
0.0
  0
LINE
  5
751
330
1A
100
AcDbEntity
  8
ZUWAKU
100
AcDbLine
 10
-0.0000004364389952
 20
15.19999970253157
 30
0.0
 11
398.6999995635609
 21
15.19999970253157
 31
0.0
  0
LINE
  5
752
330
1A
100
AcDbEntity
  8
ZUWAKU
100
AcDbLine
 10
-0.0000004364389952
 20
15.29999970253157
 30
0.0
 11
398.6999995635609
 21
15.29999970253157
 31
0.0
  0
LINE
  5
753
330
1A
100
AcDbEntity
  8
ZUWAKU
100
AcDbLine
 10
-0.0000004364389952
 20
15.39999970253157
 30
0.0
 11
398.6999995635609
 21
15.39999970253157
 31
0.0
  0
LINE
  5
754
330
1A
100
AcDbEntity
  8
ZUWAKU
100
AcDbLine
 10
104.323300208595
 20
7.699999702531584
 30
0.0
 11
223.7121815490567
 21
7.699999702531584
 31
0.0
  0
LINE
  5
755
330
1A
100
AcDbEntity
  8
ZUWAKU
100
AcDbLine
 10
104.323300208595
 20
7.799999702531584
 30
0.0
 11
223.7121815490567
 21
7.799999702531588
 31
0.0
  0
LINE
  5
756
330
1A
100
AcDbEntity
  8
ZUWAKU
100
AcDbLine
 10
104.323300208595
 20
7.599999702531587
 30
0.0
 11
223.7121815490567
 21
7.599999702531583
 31
0.0
  0
CIRCLE
  5
757
330
1A
100
AcDbEntity
  8
ZUWAKU
100
AcDbCircle
 10
12.99610564095155
 20
7.599999702531569
 30
0.0
 40
0.875
  0
LINE
  5
758
330
1A
100
AcDbEntity
  8
ZUWAKU
100
AcDbLine
 10
13.43360564095155
 20
3.57499970253157
 30
0.0
 11
12.47110564095157
 21
3.57499970253157
 31
0.0
  0
LINE
  5
759
330
1A
100
AcDbEntity
  8
ZUWAKU
100
AcDbLine
 10
12.47110564095157
 20
4.974999702531569
 30
0.0
 11
13.43360564095155
 21
4.974999702531569
 31
0.0
  0
LINE
  5
75A
330
1A
100
AcDbEntity
  8
ZUWAKU
100
AcDbLine
 10
13.43360564095155
 20
10.22499970253156
 30
0.0
 11
12.47110564095157
 21
10.22499970253156
 31
0.0
  0
LINE
  5
75B
330
1A
100
AcDbEntity
  8
ZUWAKU
100
AcDbLine
 10
12.47110564095157
 20
11.62499970253155
 30
0.0
 11
13.43360564095155
 21
11.62499970253157
 31
0.0
  0
HATCH
  5
75C
330
1A
100
AcDbEntity
  8
ZUWAKU
100
AcDbHatch
 10
0.0
 20
0.0
 30
0.0
210
0.0
220
0.0
230
1.0
  2
ANSI37
 70
     0
 71
     0
 91
        8
 92
        7
 72
     1
 73
     1
 93
       24
 10
7.251130894120933
 20
8.822423943023359
 42
-0.1989123673796348
 10
7.046105640951566
 20
9.317398689853884
 42
0.0
 10
7.046105640951566
 20
9.962499702531573
 42
-0.4142135623730912
 10
7.308605640951554
 20
10.22499970253156
 42
0.0
 10
8.796105640951509
 20
10.22499970253156
 42
0.4142135623731546
 10
9.058605640951554
 20
10.48749970253156
 42
0.0
 10
9.058605640951554
 20
11.36249970253157
 42
0.4142135623731586
 10
8.796105640951509
 20
11.62499970253157
 42
0.0
 10
7.046105640951566
 20
11.62499970253157
 42
0.4142135623730928
 10
5.646105640951589
 20
10.22499970253158
 42
0.0
 10
5.646105640951589
 20
9.317398689853948
 42
0.1989123673796619
 10
6.261181400459804
 20
7.832474449362145
 42
0.0
 10
7.716080387782142
 20
6.377575462039816
 42
-0.1989123673796613
 10
7.921105640951566
 20
5.882600715209223
 42
0.0
 10
7.921105640951566
 20
5.237499702531565
 42
-0.4142135623730911
 10
7.658605640951577
 20
4.974999702531569
 42
0.0
 10
6.171105640951623
 20
4.974999702531569
 42
0.4142135623731526
 10
5.908605640951577
 20
4.712499702531575
 42
0.0
 10
5.908605640951577
 20
3.837499702531564
 42
0.4142135623731526
 10
6.171105640951623
 20
3.57499970253157
 42
0.0
 10
7.921105640951566
 20
3.57499970253157
 42
0.4142135623731044
 10
9.3211056409516
 20
4.974999702531558
 42
0.0
 10
9.3211056409516
 20
5.882600715209195
 42
0.1989123673796604
 10
8.706029881443328
 20
7.367524955700964
 42
0.0
 97
        0
 92
        7
 72
     1
 73
     1
 93
       16
 10
11.77110564095158
 20
9.524999702531573
 42
-0.4142135623730935
 10
12.47110564095157
 20
10.22499970253156
 42
0.0
 10
13.43360564095155
 20
10.22499970253156
 42
0.4142135623731546
 10
13.6961056409516
 20
10.48749970253156
 42
0.0
 10
13.6961056409516
 20
11.36249970253157
 42
0.4142135623730951
 10
13.43360564095161
 20
11.62499970253157
 42
0.0
 10
12.47110564095152
 20
11.62499970253155
 42
0.4142135623730892
 10
10.37110564095155
 20
9.524999702531538
 42
0.0
 10
10.37110564095155
 20
5.674999702531582
 42
0.4142135623730969
 10
12.47110564095157
 20
3.57499970253157
 42
0.0
 10
13.43360564095155
 20
3.57499970253157
 42
0.4142135623731526
 10
13.6961056409516
 20
3.837499702531564
 42
0.0
 10
13.6961056409516
 20
4.712499702531575
 42
0.4142135623730891
 10
13.43360564095161
 20
4.974999702531569
 42
0.0
 10
12.47110564095157
 20
4.974999702531569
 42
-0.4142135623730928
 10
11.77110564095158
 20
5.674999702531563
 42
0.0
 97
        0
 92
        7
 72
     1
 73
     1
 93
        2
 10
12.12110564095155
 20
7.599999702531569
 42
1.0
 10
13.87110564095155
 20
7.599999702531569
 42
1.0
 97
        0
 92
        7
 72
     1
 73
     1
 93
       26
 10
18.65742888204056
 20
9.602523299313283
 42
0.0
 10
19.18824869860947
 20
11.28345271844807
 42
0.5069206636600134
 10
18.93793324901179
 20
11.62499970253157
 42
0.0
 10
18.08848855920717
 20
11.62499970253157
 42
0.3272098845218764
 10
17.8381731096095
 20
11.44154668661505
 42
0.0
 10
16.90403817229361
 20
8.483452718448109
 42
-0.3272098845219541
 10
16.65372272269587
 20
8.299999702531568
 42
0.0
 10
16.58360564095164
 20
8.299999702531568
 42
-0.4142135623731526
 10
16.3211056409516
 20
8.562499702531562
 42
0.0
 10
16.3211056409516
 20
11.36249970253157
 42
0.4142135623730951
 10
16.05860564095161
 20
11.62499970253157
 42
0.0
 10
15.18360564095155
 20
11.62499970253157
 42
0.4142135623730871
 10
14.92110564095156
 20
11.36249970253157
 42
0.0
 10
14.92110564095156
 20
3.837499702531564
 42
0.4142135623730891
 10
15.18360564095155
 20
3.57499970253157
 42
0.0
 10
16.05860564095155
 20
3.57499970253157
 42
0.4142135623731526
 10
16.3211056409516
 20
3.837499702531564
 42
0.0
 10
16.3211056409516
 20
6.637499702531576
 42
-0.4142135623731526
 10
16.58360564095164
 20
6.89999970253157
 42
0.0
 10
16.65372272269593
 20
6.89999970253157
 42
-0.3272098845218915
 10
16.90403817229361
 20
6.716546686615032
 42
0.0
 10
17.8381731096095
 20
3.758452718448106
 42
0.3272098845218902
 10
18.08848855920717
 20
3.57499970253157
 42
0.0
 10
18.93793324901179
 20
3.57499970253157
 42
0.5069206636600335
 10
19.18824869860947
 20
3.916546686615074
 42
0.0
 10
18.02505300937264
 20
7.599999702531638
 42
0.0
 97
        0
 92
        7
 72
     1
 73
     1
 93
        8
 10
21.74610564095155
 20
11.36249970253157
 42
0.4142135623731546
 10
21.4836056409515
 20
11.62499970253157
 42
0.0
 10
20.60860564095162
 20
11.62499970253157
 42
0.4142135623731507
 10
20.34610564095157
 20
11.36249970253157
 42
0.0
 10
20.34610564095157
 20
3.837499702531564
 42
0.4142135623731526
 10
20.60860564095162
 20
3.57499970253157
 42
0.0
 10
21.4836056409515
 20
3.57499970253157
 42
0.4142135623731526
 10
21.74610564095155
 20
3.837499702531564
 42
0.0
 97
        0
 92
        7
 72
     1
 73
     1
 93
       24
 10
24.1961056409516
 20
9.962499702531573
 42
-0.4142135623731546
 10
24.45860564095164
 20
10.22499970253156
 42
0.0
 10
25.9461056409516
 20
10.22499970253156
 42
0.4142135623730911
 10
26.20860564095158
 20
10.48749970253156
 42
0.0
 10
26.20860564095158
 20
11.36249970253157
 42
0.4142135623730952
 10
25.9461056409516
 20
11.62499970253157
 42
0.0
 10
24.1961056409516
 20
11.62499970253157
 42
0.4142135623731048
 10
22.79610564095156
 20
10.22499970253158
 42
0.0
 10
22.79610564095156
 20
9.317398689853948
 42
0.1989123673796613
 10
23.41118140045983
 20
7.832474449362173
 42
0.0
 10
24.86608038778217
 20
6.377575462039839
 42
-0.1989123673796402
 10
25.0711056409516
 20
5.882600715209303
 42
0.0
 10
25.0711056409516
 20
5.237499702531565
 42
-0.4142135623730911
 10
24.80860564095161
 20
4.974999702531569
 42
0.0
 10
23.3211056409516
 20
4.974999702531569
 42
0.4142135623731526
 10
23.05860564095155
 20
4.712499702531575
 42
0.0
 10
23.05860564095155
 20
3.837499702531564
 42
0.4142135623730891
 10
23.32110564095154
 20
3.57499970253157
 42
0.0
 10
25.0711056409516
 20
3.57499970253157
 42
0.4142135623730925
 10
26.47110564095157
 20
4.974999702531558
 42
0.0
 10
26.47110564095157
 20
5.882600715209195
 42
0.1989123673796675
 10
25.8560298814433
 20
7.367524955701021
 42
0.0
 10
24.40113089412102
 20
8.822423943023279
 42
-0.1989123673796652
 10
24.1961056409516
 20
9.317398689853863
 42
0.0
 97
        0
 92
        7
 72
     1
 73
     1
 93
       16
 10
28.92110564095156
 20
11.36249970253156
 42
0.414213562373103
 10
28.65860564095157
 20
11.62499970253157
 42
0.0
 10
27.78360564095157
 20
11.62499970253157
 42
0.4142135623730871
 10
27.52110564095159
 20
11.36249970253157
 42
0.0
 10
27.52110564095159
 20
4.974999702531558
 42
0.4142135623730926
 10
28.92110564095156
 20
3.57499970253157
 42
0.0
 10
30.67110564095156
 20
3.57499970253157
 42
0.4142135623731044
 10
32.0711056409516
 20
4.974999702531558
 42
0.0
 10
32.0711056409516
 20
11.36249970253157
 42
0.4142135623730951
 10
31.80860564095161
 20
11.62499970253157
 42
0.0
 10
30.93360564095155
 20
11.62499970253157
 42
0.4142135623730871
 10
30.67110564095156
 20
11.36249970253157
 42
0.0
 10
30.67110564095156
 20
5.499999702531557
 42
-0.414213562373088
 10
30.14610564095159
 20
4.974999702531569
 42
0.0
 10
29.4461056409516
 20
4.974999702531569
 42
-0.4142135623731197
 10
28.92110564095156
 20
5.499999702531557
 42
0.0
 97
        0
 92
        7
 72
     1
 73
     1
 93
        8
 10
34.52110564095159
 20
11.36249970253157
 42
0.4142135623730871
 10
34.2586056409516
 20
11.62499970253157
 42
0.0
 10
33.3836056409516
 20
11.62499970253157
 42
0.4142135623731507
 10
33.12110564095155
 20
11.36249970253157
 42
0.0
 10
33.12110564095155
 20
3.837499702531564
 42
0.4142135623730891
 10
33.38360564095154
 20
3.57499970253157
 42
0.0
 10
34.2586056409516
 20
3.57499970253157
 42
0.4142135623730891
 10
34.52110564095159
 20
3.837499702531564
 42
0.0
 97
        0
 75
     0
 76
     1
 52
0.0
 41
0.1
 77
     0
 78
     2
 53
45.0
 43
-450.4711526037785
 44
-6.600000297468398
 45
-0.2245064030267288
 46
0.2245064030267288
 79
     0
 53
135.0
 43
-450.4711526037785
 44
-6.600000297468398
 45
-0.2245064030267288
 46
-0.2245064030267288
 79
     0
 47
0.057451373970553
 98
        8
 10
8.039927045072658
 20
7.583586525474345
 10
11.20225706678058
 20
9.422030793757073
 10
12.58218350639083
 20
7.755940525566927
 10
15.45702955437957
 20
8.100648525752319
 10
20.91923557303937
 20
8.330454659523127
 10
23.44910001112578
 20
9.709287860735173
 10
28.27884254976117
 20
9.364578660079075
 10
33.91353937337237
 20
9.594384793849883
  0
ARC
  5
75D
330
1A
100
AcDbEntity
  8
ZUWAKU
100
AcDbCircle
 10
7.746105640951554
 20
9.31739868985392
 30
0.0
 40
2.099999999999999
100
AcDbArc
 50
180.0
 51
225.0
  0
LINE
  5
75E
330
1A
100
AcDbEntity
  8
ZUWAKU
100
AcDbLine
 10
10.37110564095155
 20
5.674999702531572
 30
0.0
 11
10.37110564095155
 21
9.524999702531548
 31
0.0
  0
LINE
  5
75F
330
1A
100
AcDbEntity
  8
ZUWAKU
100
AcDbLine
 10
11.77110564095158
 20
9.52499970253157
 30
0.0
 11
11.77110564095158
 21
5.674999702531572
 31
0.0
  0
ARC
  5
760
330
1A
100
AcDbEntity
  8
ZUWAKU
100
AcDbCircle
 10
7.746105640951554
 20
9.31739868985392
 30
0.0
 40
0.7
100
AcDbArc
 50
180.0000000000016
 51
224.9999999999988
  0
ARC
  5
761
330
1A
100
AcDbEntity
  8
ZUWAKU
100
AcDbCircle
 10
12.47110564095157
 20
5.674999702531572
 30
0.0
 40
2.099999999999999
100
AcDbArc
 50
180.0
 51
270.0
  0
ARC
  5
762
330
1A
100
AcDbEntity
  8
ZUWAKU
100
AcDbCircle
 10
7.921105640951566
 20
4.974999702531569
 30
0.0
 40
1.399999999999999
100
AcDbArc
 50
270.0
 51
0.0
  0
ARC
  5
763
330
1A
100
AcDbEntity
  8
ZUWAKU
100
AcDbCircle
 10
7.221105640951577
 20
5.882600715209221
 30
0.0
 40
2.099999999999999
100
AcDbArc
 50
0.0
 51
45.0
  0
LINE
  5
764
330
1A
100
AcDbEntity
  8
ZUWAKU
100
AcDbLine
 10
6.261181400459804
 20
7.832474449362159
 30
0.0
 11
7.716080387782142
 21
6.377575462039828
 31
0.0
  0
LINE
  5
765
330
1A
100
AcDbEntity
  8
ZUWAKU
100
AcDbLine
 10
6.171105640951566
 20
4.974999702531569
 30
0.0
 11
7.658605640951577
 21
4.974999702531569
 31
0.0
  0
LINE
  5
766
330
1A
100
AcDbEntity
  8
ZUWAKU
100
AcDbLine
 10
6.171105640951566
 20
3.57499970253157
 30
0.0
 11
7.921105640951566
 21
3.57499970253157
 31
0.0
  0
ARC
  5
767
330
1A
100
AcDbEntity
  8
ZUWAKU
100
AcDbCircle
 10
6.171105640951566
 20
4.71249970253157
 30
0.0
 40
0.2625
100
AcDbArc
 50
90.0
 51
180.0
  0
ARC
  5
768
330
1A
100
AcDbEntity
  8
ZUWAKU
100
AcDbCircle
 10
6.171105640951566
 20
3.83749970253157
 30
0.0
 40
0.2625
100
AcDbArc
 50
180.0
 51
270.0
  0
LINE
  5
769
330
1A
100
AcDbEntity
  8
ZUWAKU
100
AcDbLine
 10
5.908605640951577
 20
3.83749970253157
 30
0.0
 11
5.908605640951577
 21
4.71249970253157
 31
0.0
  0
ARC
  5
76A
330
1A
100
AcDbEntity
  8
ZUWAKU
100
AcDbCircle
 10
7.221105640951577
 20
5.882600715209242
 30
0.0
 40
0.7
100
AcDbArc
 50
0.0
 51
45.0
  0
ARC
  5
76B
330
1A
100
AcDbEntity
  8
ZUWAKU
100
AcDbCircle
 10
7.658605640951577
 20
5.237499702531572
 30
0.0
 40
0.2625
100
AcDbArc
 50
270.0
 51
0.0
  0
LINE
  5
76C
330
1A
100
AcDbEntity
  8
ZUWAKU
100
AcDbLine
 10
7.921105640951566
 20
5.237499702531572
 30
0.0
 11
7.921105640951566
 21
5.882600715209242
 31
0.0
  0
LINE
  5
76D
330
1A
100
AcDbEntity
  8
ZUWAKU
100
AcDbLine
 10
8.706029881443328
 20
7.367524955700982
 30
0.0
 11
7.25113089412099
 21
8.82242394302332
 31
0.0
  0
ARC
  5
76E
330
1A
100
AcDbEntity
  8
ZUWAKU
100
AcDbCircle
 10
12.47110564095157
 20
5.674999702531572
 30
0.0
 40
0.7
100
AcDbArc
 50
180.0
 51
270.0
  0
LINE
  5
76F
330
1A
100
AcDbEntity
  8
ZUWAKU
100
AcDbLine
 10
9.3211056409516
 20
4.974999702531569
 30
0.0
 11
9.3211056409516
 21
5.882600715209242
 31
0.0
  0
ARC
  5
770
330
1A
100
AcDbEntity
  8
ZUWAKU
100
AcDbCircle
 10
8.796105640951566
 20
10.48749970253156
 30
0.0
 40
0.2625
100
AcDbArc
 50
270.0
 51
0.0
  0
ARC
  5
771
330
1A
100
AcDbEntity
  8
ZUWAKU
100
AcDbCircle
 10
8.796105640951566
 20
11.36249970253156
 30
0.0
 40
0.2625
100
AcDbArc
 50
0.0
 51
90.0
  0
ARC
  5
772
330
1A
100
AcDbEntity
  8
ZUWAKU
100
AcDbCircle
 10
7.046105640951566
 20
10.22499970253156
 30
0.0
 40
1.399999999999999
100
AcDbArc
 50
90.0
 51
180.0
  0
LINE
  5
773
330
1A
100
AcDbEntity
  8
ZUWAKU
100
AcDbLine
 10
5.646105640951589
 20
10.22499970253156
 30
0.0
 11
5.646105640951589
 21
9.317398689853899
 31
0.0
  0
LINE
  5
774
330
1A
100
AcDbEntity
  8
ZUWAKU
100
AcDbLine
 10
8.796105640951566
 20
10.22499970253156
 30
0.0
 11
7.308605640951554
 21
10.22499970253156
 31
0.0
  0
LINE
  5
775
330
1A
100
AcDbEntity
  8
ZUWAKU
100
AcDbLine
 10
7.046105640951566
 20
9.96249970253157
 30
0.0
 11
7.046105640951566
 21
9.317398689853899
 31
0.0
  0
ARC
  5
776
330
1A
100
AcDbEntity
  8
ZUWAKU
100
AcDbCircle
 10
7.308605640951554
 20
9.96249970253157
 30
0.0
 40
0.2625
100
AcDbArc
 50
90.0
 51
180.0
  0
LINE
  5
777
330
1A
100
AcDbEntity
  8
ZUWAKU
100
AcDbLine
 10
7.046105640951566
 20
11.62499970253157
 30
0.0
 11
8.796105640951566
 21
11.62499970253157
 31
0.0
  0
ARC
  5
778
330
1A
100
AcDbEntity
  8
ZUWAKU
100
AcDbCircle
 10
12.47110564095157
 20
9.524999702531548
 30
0.0
 40
2.099999999999999
100
AcDbArc
 50
90.0
 51
180.0
  0
ARC
  5
779
330
1A
100
AcDbEntity
  8
ZUWAKU
100
AcDbCircle
 10
12.47110564095157
 20
9.52499970253157
 30
0.0
 40
0.7
100
AcDbArc
 50
90.0
 51
180.0
  0
LINE
  5
77A
330
1A
100
AcDbEntity
  8
ZUWAKU
100
AcDbLine
 10
9.058605640951554
 20
11.36249970253156
 30
0.0
 11
9.058605640951554
 21
10.48749970253156
 31
0.0
  0
LINE
  5
77B
330
1A
100
AcDbEntity
  8
ZUWAKU
100
AcDbLine
 10
17.8381731096095
 20
11.44154668661505
 30
0.0
 11
16.90403817229361
 21
8.483452718448084
 31
0.0
  0
LINE
  5
77C
330
1A
100
AcDbEntity
  8
ZUWAKU
100
AcDbLine
 10
14.92110564095156
 20
11.36249970253156
 30
0.0
 11
14.92110564095156
 21
3.83749970253157
 31
0.0
  0
LINE
  5
77D
330
1A
100
AcDbEntity
  8
ZUWAKU
100
AcDbLine
 10
16.3211056409516
 20
8.562499702531571
 30
0.0
 11
16.3211056409516
 21
11.36249970253156
 31
0.0
  0
LINE
  5
77E
330
1A
100
AcDbEntity
  8
ZUWAKU
100
AcDbLine
 10
28.92110564095156
 20
5.499999702531567
 30
0.0
 11
28.92110564095156
 21
11.36249970253156
 31
0.0
  0
LINE
  5
77F
330
1A
100
AcDbEntity
  8
ZUWAKU
100
AcDbLine
 10
27.52110564095159
 20
11.36249970253156
 30
0.0
 11
27.52110564095159
 21
4.974999702531569
 31
0.0
  0
LINE
  5
780
330
1A
100
AcDbEntity
  8
ZUWAKU
100
AcDbLine
 10
21.74610564095155
 20
3.83749970253157
 30
0.0
 11
21.74610564095155
 21
11.36249970253156
 31
0.0
  0
LINE
  5
781
330
1A
100
AcDbEntity
  8
ZUWAKU
100
AcDbLine
 10
20.34610564095157
 20
11.36249970253156
 30
0.0
 11
20.34610564095157
 21
3.83749970253157
 31
0.0
  0
LINE
  5
782
330
1A
100
AcDbEntity
  8
ZUWAKU
100
AcDbLine
 10
18.65742888204056
 20
9.602523299313283
 30
0.0
 11
18.02505300937264
 21
7.599999702531579
 31
0.0
  0
ARC
  5
783
330
1A
100
AcDbEntity
  8
ZUWAKU
100
AcDbCircle
 10
24.89610564095158
 20
9.31739868985392
 30
0.0
 40
2.099999999999999
100
AcDbArc
 50
180.0
 51
225.0
  0
ARC
  5
784
330
1A
100
AcDbEntity
  8
ZUWAKU
100
AcDbCircle
 10
24.89610564095158
 20
9.31739868985392
 30
0.0
 40
0.7
100
AcDbArc
 50
180.0000000000016
 51
224.9999999999988
  0
LINE
  5
785
330
1A
100
AcDbEntity
  8
ZUWAKU
100
AcDbLine
 10
33.12110564095155
 20
11.36249970253156
 30
0.0
 11
33.12110564095155
 21
3.83749970253157
 31
0.0
  0
LINE
  5
786
330
1A
100
AcDbEntity
  8
ZUWAKU
100
AcDbLine
 10
34.52110564095159
 20
3.83749970253157
 30
0.0
 11
34.52110564095159
 21
11.36249970253156
 31
0.0
  0
LINE
  5
787
330
1A
100
AcDbEntity
  8
ZUWAKU
100
AcDbLine
 10
30.67110564095156
 20
11.36249970253156
 30
0.0
 11
30.67110564095156
 21
5.499999702531567
 31
0.0
  0
LINE
  5
788
330
1A
100
AcDbEntity
  8
ZUWAKU
100
AcDbLine
 10
32.0711056409516
 20
4.974999702531569
 30
0.0
 11
32.0711056409516
 21
11.36249970253156
 31
0.0
  0
LINE
  5
789
330
1A
100
AcDbEntity
  8
ZUWAKU
100
AcDbLine
 10
39.56331433755519
 20
14.99999970253156
 30
0.0
 11
39.56331433755519
 21
0.399999702531602
 31
0.0
  0
LINE
  5
78A
330
1A
100
AcDbEntity
  8
ZUWAKU
100
AcDbLine
 10
39.76331433755513
 20
14.99999970253156
 30
0.0
 11
39.76331433755524
 21
0.399999702531602
 31
0.0
  0
LINE
  5
78B
330
1A
100
AcDbEntity
  8
ZUWAKU
100
AcDbLine
 10
39.6633143375551
 20
14.99999970253156
 30
0.0
 11
39.66331433755522
 21
0.399999702531602
 31
0.0
  0
TEXT
  5
78C
330
1A
100
AcDbEntity
  8
MOJI
100
AcDbText
 10
46.47889435764557
 20
6.370588767668948
 30
0.0
 40
3.0
  1
ライナートップ
 41
0.9
  7
ｽﾀｲﾙ1
100
AcDbText
  0
LINE
  5
78D
330
1A
100
AcDbEntity
  8
ZUWAKU
100
AcDbLine
 10
28.92110564095156
 20
3.57499970253157
 30
0.0
 11
30.67110564095156
 21
3.57499970253157
 31
0.0
  0
LINE
  5
78E
330
1A
100
AcDbEntity
  8
ZUWAKU
100
AcDbLine
 10
30.14610564095159
 20
4.974999702531569
 30
0.0
 11
29.4461056409516
 21
4.974999702531569
 31
0.0
  0
LINE
  5
78F
330
1A
100
AcDbEntity
  8
ZUWAKU
100
AcDbLine
 10
20.60860564095156
 20
3.57499970253157
 30
0.0
 11
21.48360564095156
 21
3.57499970253157
 31
0.0
  0
LINE
  5
790
330
1A
100
AcDbEntity
  8
ZUWAKU
100
AcDbLine
 10
17.8381731096095
 20
3.758452718448083
 30
0.0
 11
16.90403817229361
 21
6.716546686615053
 31
0.0
  0
ARC
  5
791
330
1A
100
AcDbEntity
  8
ZUWAKU
100
AcDbCircle
 10
16.58360564095159
 20
6.63749970253157
 30
0.0
 40
0.2625
100
AcDbArc
 50
90.0
 51
180.0
  0
ARC
  5
792
330
1A
100
AcDbEntity
  8
ZUWAKU
100
AcDbCircle
 10
16.65372272269593
 20
6.63749970253157
 30
0.0
 40
0.2625
100
AcDbArc
 50
17.52556837372303
 51
90.0
  0
ARC
  5
793
330
1A
100
AcDbEntity
  8
ZUWAKU
100
AcDbCircle
 10
15.18360564095155
 20
3.83749970253157
 30
0.0
 40
0.2625
100
AcDbArc
 50
180.0
 51
270.0
  0
ARC
  5
794
330
1A
100
AcDbEntity
  8
ZUWAKU
100
AcDbCircle
 10
13.43360564095155
 20
4.71249970253157
 30
0.0
 40
0.2625
100
AcDbArc
 50
0.0
 51
90.0
  0
ARC
  5
795
330
1A
100
AcDbEntity
  8
ZUWAKU
100
AcDbCircle
 10
13.43360564095155
 20
3.83749970253157
 30
0.0
 40
0.2625
100
AcDbArc
 50
270.0
 51
0.0
  0
LINE
  5
796
330
1A
100
AcDbEntity
  8
ZUWAKU
100
AcDbLine
 10
13.6961056409516
 20
4.71249970253157
 30
0.0
 11
13.6961056409516
 21
3.83749970253157
 31
0.0
  0
LINE
  5
797
330
1A
100
AcDbEntity
  8
ZUWAKU
100
AcDbLine
 10
16.3211056409516
 20
3.83749970253157
 30
0.0
 11
16.3211056409516
 21
6.63749970253157
 31
0.0
  0
ARC
  5
798
330
1A
100
AcDbEntity
  8
ZUWAKU
100
AcDbCircle
 10
16.05860564095155
 20
3.83749970253157
 30
0.0
 40
0.2625
100
AcDbArc
 50
270.0
 51
0.0
  0
LINE
  5
799
330
1A
100
AcDbEntity
  8
ZUWAKU
100
AcDbLine
 10
15.18360564095155
 20
3.57499970253157
 30
0.0
 11
16.05860564095155
 21
3.57499970253157
 31
0.0
  0
ARC
  5
79A
330
1A
100
AcDbEntity
  8
ZUWAKU
100
AcDbCircle
 10
16.58360564095159
 20
8.562499702531571
 30
0.0
 40
0.2625
100
AcDbArc
 50
180.0
 51
270.0
  0
LINE
  5
79B
330
1A
100
AcDbEntity
  8
ZUWAKU
100
AcDbLine
 10
16.58360564095159
 20
6.89999970253157
 30
0.0
 11
16.65372272269593
 21
6.89999970253157
 31
0.0
  0
LINE
  5
79C
330
1A
100
AcDbEntity
  8
ZUWAKU
100
AcDbLine
 10
16.65372272269593
 20
8.299999702531568
 30
0.0
 11
16.58360564095159
 21
8.299999702531568
 31
0.0
  0
ARC
  5
79D
330
1A
100
AcDbEntity
  8
ZUWAKU
100
AcDbCircle
 10
16.65372272269593
 20
8.562499702531571
 30
0.0
 40
0.2625
100
AcDbArc
 50
270.0
 51
342.4744316262769
  0
ARC
  5
79E
330
1A
100
AcDbEntity
  8
ZUWAKU
100
AcDbCircle
 10
18.08848855920723
 20
3.83749970253157
 30
0.0
 40
0.2625
100
AcDbArc
 50
197.525568373723
 51
270.0
  0
LINE
  5
79F
330
1A
100
AcDbEntity
  8
ZUWAKU
100
AcDbLine
 10
19.18824869860947
 20
3.916546686615056
 30
0.0
 11
18.02505300937264
 21
7.599999702531579
 31
0.0
  0
ARC
  5
7A0
330
1A
100
AcDbEntity
  8
ZUWAKU
100
AcDbCircle
 10
18.93793324901173
 20
3.83749970253157
 30
0.0
 40
0.2625
100
AcDbArc
 50
270.0
 51
17.52556837372303
  0
LINE
  5
7A1
330
1A
100
AcDbEntity
  8
ZUWAKU
100
AcDbLine
 10
18.08848855920723
 20
3.57499970253157
 30
0.0
 11
18.93793324901173
 21
3.57499970253157
 31
0.0
  0
ARC
  5
7A2
330
1A
100
AcDbEntity
  8
ZUWAKU
100
AcDbCircle
 10
20.60860564095156
 20
3.83749970253157
 30
0.0
 40
0.2625
100
AcDbArc
 50
180.0
 51
270.0
  0
ARC
  5
7A3
330
1A
100
AcDbEntity
  8
ZUWAKU
100
AcDbCircle
 10
25.0711056409516
 20
4.974999702531569
 30
0.0
 40
1.399999999999999
100
AcDbArc
 50
270.0
 51
0.0
  0
ARC
  5
7A4
330
1A
100
AcDbEntity
  8
ZUWAKU
100
AcDbCircle
 10
28.92110564095156
 20
4.974999702531569
 30
0.0
 40
1.399999999999999
100
AcDbArc
 50
180.0
 51
270.0
  0
LINE
  5
7A5
330
1A
100
AcDbEntity
  8
ZUWAKU
100
AcDbLine
 10
25.85602988144336
 20
7.367524955700982
 30
0.0
 11
24.40113089412097
 21
8.82242394302332
 31
0.0
  0
LINE
  5
7A6
330
1A
100
AcDbEntity
  8
ZUWAKU
100
AcDbLine
 10
23.41118140045983
 20
7.832474449362159
 30
0.0
 11
24.86608038778217
 21
6.377575462039828
 31
0.0
  0
LINE
  5
7A7
330
1A
100
AcDbEntity
  8
ZUWAKU
100
AcDbLine
 10
23.3211056409516
 20
3.57499970253157
 30
0.0
 11
25.0711056409516
 21
3.57499970253157
 31
0.0
  0
LINE
  5
7A8
330
1A
100
AcDbEntity
  8
ZUWAKU
100
AcDbLine
 10
23.3211056409516
 20
4.974999702531569
 30
0.0
 11
24.80860564095155
 21
4.974999702531569
 31
0.0
  0
ARC
  5
7A9
330
1A
100
AcDbEntity
  8
ZUWAKU
100
AcDbCircle
 10
23.3211056409516
 20
4.71249970253157
 30
0.0
 40
0.2625
100
AcDbArc
 50
90.0
 51
180.0
  0
ARC
  5
7AA
330
1A
100
AcDbEntity
  8
ZUWAKU
100
AcDbCircle
 10
21.48360564095156
 20
3.83749970253157
 30
0.0
 40
0.2625
100
AcDbArc
 50
270.0
 51
0.0
  0
ARC
  5
7AB
330
1A
100
AcDbEntity
  8
ZUWAKU
100
AcDbCircle
 10
23.3211056409516
 20
3.83749970253157
 30
0.0
 40
0.2625
100
AcDbArc
 50
180.0
 51
270.0
  0
LINE
  5
7AC
330
1A
100
AcDbEntity
  8
ZUWAKU
100
AcDbLine
 10
23.05860564095155
 20
3.83749970253157
 30
0.0
 11
23.05860564095155
 21
4.71249970253157
 31
0.0
  0
ARC
  5
7AD
330
1A
100
AcDbEntity
  8
ZUWAKU
100
AcDbCircle
 10
24.80860564095155
 20
5.237499702531572
 30
0.0
 40
0.2625
100
AcDbArc
 50
270.0
 51
0.0
  0
ARC
  5
7AE
330
1A
100
AcDbEntity
  8
ZUWAKU
100
AcDbCircle
 10
24.37110564095155
 20
5.882600715209242
 30
0.0
 40
0.7
100
AcDbArc
 50
0.0
 51
45.0
  0
LINE
  5
7AF
330
1A
100
AcDbEntity
  8
ZUWAKU
100
AcDbLine
 10
25.0711056409516
 20
5.237499702531572
 30
0.0
 11
25.0711056409516
 21
5.882600715209242
 31
0.0
  0
ARC
  5
7B0
330
1A
100
AcDbEntity
  8
ZUWAKU
100
AcDbCircle
 10
29.4461056409516
 20
5.499999702531567
 30
0.0
 40
0.525
100
AcDbArc
 50
180.0
 51
270.0
  0
ARC
  5
7B1
330
1A
100
AcDbEntity
  8
ZUWAKU
100
AcDbCircle
 10
24.37110564095155
 20
5.882600715209221
 30
0.0
 40
2.099999999999999
100
AcDbArc
 50
0.0
 51
45.0
  0
LINE
  5
7B2
330
1A
100
AcDbEntity
  8
ZUWAKU
100
AcDbLine
 10
26.47110564095157
 20
4.974999702531569
 30
0.0
 11
26.47110564095157
 21
5.882600715209242
 31
0.0
  0
ARC
  5
7B3
330
1A
100
AcDbEntity
  8
ZUWAKU
100
AcDbCircle
 10
30.67110564095156
 20
4.974999702531569
 30
0.0
 40
1.399999999999999
100
AcDbArc
 50
270.0
 51
0.0
  0
LINE
  5
7B4
330
1A
100
AcDbEntity
  8
ZUWAKU
100
AcDbLine
 10
33.3836056409516
 20
3.57499970253157
 30
0.0
 11
34.2586056409516
 21
3.57499970253157
 31
0.0
  0
ARC
  5
7B5
330
1A
100
AcDbEntity
  8
ZUWAKU
100
AcDbCircle
 10
30.14610564095159
 20
5.499999702531567
 30
0.0
 40
0.525
100
AcDbArc
 50
270.0
 51
0.0
  0
ARC
  5
7B6
330
1A
100
AcDbEntity
  8
ZUWAKU
100
AcDbCircle
 10
33.3836056409516
 20
3.83749970253157
 30
0.0
 40
0.2625
100
AcDbArc
 50
180.0
 51
270.0
  0
ARC
  5
7B7
330
1A
100
AcDbEntity
  8
ZUWAKU
100
AcDbCircle
 10
34.2586056409516
 20
3.83749970253157
 30
0.0
 40
0.2625
100
AcDbArc
 50
270.0
 51
0.0
  0
LINE
  5
7B8
330
1A
100
AcDbEntity
  8
ZUWAKU
100
AcDbLine
 10
21.48360564095156
 20
11.62499970253157
 30
0.0
 11
20.60860564095156
 21
11.62499970253157
 31
0.0
  0
LINE
  5
7B9
330
1A
100
AcDbEntity
  8
ZUWAKU
100
AcDbLine
 10
13.6961056409516
 20
11.36249970253156
 30
0.0
 11
13.6961056409516
 21
10.48749970253156
 31
0.0
  0
ARC
  5
7BA
330
1A
100
AcDbEntity
  8
ZUWAKU
100
AcDbCircle
 10
13.43360564095155
 20
10.48749970253156
 30
0.0
 40
0.2625
100
AcDbArc
 50
270.0
 51
0.0
  0
ARC
  5
7BB
330
1A
100
AcDbEntity
  8
ZUWAKU
100
AcDbCircle
 10
15.18360564095155
 20
11.36249970253156
 30
0.0
 40
0.2625
100
AcDbArc
 50
90.0
 51
180.0
  0
ARC
  5
7BC
330
1A
100
AcDbEntity
  8
ZUWAKU
100
AcDbCircle
 10
13.43360564095155
 20
11.36249970253156
 30
0.0
 40
0.2625
100
AcDbArc
 50
0.0
 51
90.0
  0
LINE
  5
7BD
330
1A
100
AcDbEntity
  8
ZUWAKU
100
AcDbLine
 10
16.05860564095155
 20
11.62499970253157
 30
0.0
 11
15.18360564095155
 21
11.62499970253157
 31
0.0
  0
ARC
  5
7BE
330
1A
100
AcDbEntity
  8
ZUWAKU
100
AcDbCircle
 10
16.05860564095155
 20
11.36249970253156
 30
0.0
 40
0.2625
100
AcDbArc
 50
0.0
 51
90.0
  0
ARC
  5
7BF
330
1A
100
AcDbEntity
  8
ZUWAKU
100
AcDbCircle
 10
18.08848855920723
 20
11.36249970253156
 30
0.0
 40
0.2625
100
AcDbArc
 50
90.0
 51
162.4744316262769
  0
LINE
  5
7C0
330
1A
100
AcDbEntity
  8
ZUWAKU
100
AcDbLine
 10
19.18824869860947
 20
11.28345271844808
 30
0.0
 11
18.65742888204056
 21
9.602523299313283
 31
0.0
  0
ARC
  5
7C1
330
1A
100
AcDbEntity
  8
ZUWAKU
100
AcDbCircle
 10
18.93793324901173
 20
11.36249970253156
 30
0.0
 40
0.2625
100
AcDbArc
 50
342.4744316262769
 51
90.0
  0
LINE
  5
7C2
330
1A
100
AcDbEntity
  8
ZUWAKU
100
AcDbLine
 10
18.08848855920723
 20
11.62499970253157
 30
0.0
 11
18.93793324901173
 21
11.62499970253157
 31
0.0
  0
ARC
  5
7C3
330
1A
100
AcDbEntity
  8
ZUWAKU
100
AcDbCircle
 10
20.60860564095156
 20
11.36249970253156
 30
0.0
 40
0.2625
100
AcDbArc
 50
90.0
 51
180.0
  0
LINE
  5
7C4
330
1A
100
AcDbEntity
  8
ZUWAKU
100
AcDbLine
 10
25.9461056409516
 20
10.22499970253156
 30
0.0
 11
24.45860564095159
 21
10.22499970253156
 31
0.0
  0
LINE
  5
7C5
330
1A
100
AcDbEntity
  8
ZUWAKU
100
AcDbLine
 10
24.1961056409516
 20
11.62499970253157
 30
0.0
 11
25.9461056409516
 21
11.62499970253157
 31
0.0
  0
ARC
  5
7C6
330
1A
100
AcDbEntity
  8
ZUWAKU
100
AcDbCircle
 10
24.1961056409516
 20
10.22499970253156
 30
0.0
 40
1.399999999999999
100
AcDbArc
 50
90.0
 51
180.0
  0
LINE
  5
7C7
330
1A
100
AcDbEntity
  8
ZUWAKU
100
AcDbLine
 10
22.79610564095156
 20
10.22499970253156
 30
0.0
 11
22.79610564095156
 21
9.317398689853899
 31
0.0
  0
ARC
  5
7C8
330
1A
100
AcDbEntity
  8
ZUWAKU
100
AcDbCircle
 10
21.48360564095156
 20
11.36249970253156
 30
0.0
 40
0.2625
100
AcDbArc
 50
0.0
 51
90.0
  0
LINE
  5
7C9
330
1A
100
AcDbEntity
  8
ZUWAKU
100
AcDbLine
 10
24.1961056409516
 20
9.96249970253157
 30
0.0
 11
24.1961056409516
 21
9.317398689853899
 31
0.0
  0
ARC
  5
7CA
330
1A
100
AcDbEntity
  8
ZUWAKU
100
AcDbCircle
 10
24.45860564095159
 20
9.96249970253157
 30
0.0
 40
0.2625
100
AcDbArc
 50
90.0
 51
180.0
  0
LINE
  5
7CB
330
1A
100
AcDbEntity
  8
ZUWAKU
100
AcDbLine
 10
26.20860564095158
 20
11.36249970253156
 30
0.0
 11
26.20860564095158
 21
10.48749970253156
 31
0.0
  0
ARC
  5
7CC
330
1A
100
AcDbEntity
  8
ZUWAKU
100
AcDbCircle
 10
25.9461056409516
 20
10.48749970253156
 30
0.0
 40
0.2625
100
AcDbArc
 50
270.0
 51
0.0
  0
ARC
  5
7CD
330
1A
100
AcDbEntity
  8
ZUWAKU
100
AcDbCircle
 10
25.9461056409516
 20
11.36249970253156
 30
0.0
 40
0.2625
100
AcDbArc
 50
0.0
 51
90.0
  0
LINE
  5
7CE
330
1A
100
AcDbEntity
  8
ZUWAKU
100
AcDbLine
 10
28.65860564095157
 20
11.62499970253157
 30
0.0
 11
27.78360564095157
 21
11.62499970253157
 31
0.0
  0
ARC
  5
7CF
330
1A
100
AcDbEntity
  8
ZUWAKU
100
AcDbCircle
 10
27.78360564095157
 20
11.36249970253156
 30
0.0
 40
0.2625
100
AcDbArc
 50
90.0
 51
180.0
  0
ARC
  5
7D0
330
1A
100
AcDbEntity
  8
ZUWAKU
100
AcDbCircle
 10
28.65860564095157
 20
11.36249970253156
 30
0.0
 40
0.2625
100
AcDbArc
 50
0.0
 51
90.0
  0
LINE
  5
7D1
330
1A
100
AcDbEntity
  8
ZUWAKU
100
AcDbLine
 10
34.2586056409516
 20
11.62499970253157
 30
0.0
 11
33.3836056409516
 21
11.62499970253157
 31
0.0
  0
ARC
  5
7D2
330
1A
100
AcDbEntity
  8
ZUWAKU
100
AcDbCircle
 10
30.93360564095155
 20
11.36249970253156
 30
0.0
 40
0.2625
100
AcDbArc
 50
90.0
 51
180.0
  0
LINE
  5
7D3
330
1A
100
AcDbEntity
  8
ZUWAKU
100
AcDbLine
 10
31.80860564095155
 20
11.62499970253157
 30
0.0
 11
30.93360564095155
 21
11.62499970253157
 31
0.0
  0
ARC
  5
7D4
330
1A
100
AcDbEntity
  8
ZUWAKU
100
AcDbCircle
 10
31.80860564095155
 20
11.36249970253156
 30
0.0
 40
0.2625
100
AcDbArc
 50
0.0
 51
90.0
  0
ARC
  5
7D5
330
1A
100
AcDbEntity
  8
ZUWAKU
100
AcDbCircle
 10
33.3836056409516
 20
11.36249970253156
 30
0.0
 40
0.2625
100
AcDbArc
 50
90.0
 51
180.0
  0
ARC
  5
7D6
330
1A
100
AcDbEntity
  8
ZUWAKU
100
AcDbCircle
 10
34.2586056409516
 20
11.36249970253156
 30
0.0
 40
0.2625
100
AcDbArc
 50
0.0
 51
90.0
  0
TEXT
  5
7D7
330
1A
100
AcDbEntity
  8
MOJI
100
AcDbText
 10
119.9136009039865
 20
9.002460231235261
 30
0.0
 40
2.799999999999999
  1
ステンレス金具横打鶴首
 41
0.9
  7
ｽﾀｲﾙ1
100
AcDbText
  0
LINE
  5
7D8
330
1A
100
AcDbEntity
  8
ZUWAKU
100
AcDbLine
 10
104.2233002085948
 20
14.99999970253156
 30
0.0
 11
104.223300208595
 21
0.399999702531602
 31
0.0
  0
LINE
  5
7D9
330
1A
100
AcDbEntity
  8
ZUWAKU
100
AcDbLine
 10
104.3233002085949
 20
14.99999970253156
 30
0.0
 11
104.323300208595
 21
0.399999702531602
 31
0.0
  0
LINE
  5
7DA
330
1A
100
AcDbEntity
  8
ZUWAKU
100
AcDbLine
 10
104.1233002085949
 20
14.99999970253156
 30
0.0
 11
104.1233002085949
 21
0.399999702531602
 31
0.0
  0
TEXT
  5
7DB
330
1A
100
AcDbEntity
  8
ZUWAKU
100
AcDbText
 10
104.8620227196997
 20
4.827677971724376
 30
0.0
 40
2.0
  1
サイズ
 41
0.9
  7
ｽﾀｲﾙ1
100
AcDbText
  0
TEXT
  5
7DC
330
1A
100
AcDbEntity
  8
MOJI
100
AcDbText
 10
119.9136009039865
 20
1.602460231235278
 30
0.0
 40
2.799999999999999
  1
Ｘ４０－Ｌ２２０
 41
0.9
  7
ｽﾀｲﾙ1
100
AcDbText
  0
TEXT
  5
7DD
330
1A
100
AcDbEntity
  8
ZUWAKU
100
AcDbText
 10
104.8620227196996
 20
12.02767797172435
 30
0.0
 40
2.0
  1
品名
 41
0.9
  7
ｽﾀｲﾙ1
100
AcDbText
  0
TEXT
  5
7DE
330
1A
100
AcDbEntity
  8
ZUWAKU
100
AcDbText
 10
329.1019684072121
 20
9.002460231235261
 30
0.0
 40
2.799999999999999
  1
　　．　　．　　
 41
0.9
  7
ｽﾀｲﾙ1
100
AcDbText
  0
LINE
  5
7DF
330
1A
100
AcDbEntity
  8
ZUWAKU
100
AcDbLine
 10
324.4086008186631
 20
7.799999702531584
 30
0.0
 11
348.6245048378316
 21
7.799999702531584
 31
0.0
  0
LINE
  5
7E0
330
1A
100
AcDbEntity
  8
ZUWAKU
100
AcDbLine
 10
324.4086008186632
 20
7.699999702531586
 30
0.0
 11
348.6245048378316
 21
7.699999702531584
 31
0.0
  0
LINE
  5
7E1
330
1A
100
AcDbEntity
  8
ZUWAKU
100
AcDbLine
 10
324.4086008186631
 20
7.599999702531583
 30
0.0
 11
348.6245048378316
 21
7.599999702531585
 31
0.0
  0
LINE
  5
7E2
330
1A
100
AcDbEntity
  8
ZUWAKU
100
AcDbLine
 10
252.5995893126314
 20
7.799999702531584
 30
0.0
 11
276.2634774466172
 21
7.799999702531584
 31
0.0
  0
LINE
  5
7E3
330
1A
100
AcDbEntity
  8
ZUWAKU
100
AcDbLine
 10
252.5995893126314
 20
7.699999702531584
 30
0.0
 11
276.2634774466172
 21
7.699999702531584
 31
0.0
  0
LINE
  5
7E4
330
1A
100
AcDbEntity
  8
ZUWAKU
100
AcDbLine
 10
252.5995893126314
 20
7.599999702531587
 30
0.0
 11
276.2634774466172
 21
7.599999702531587
 31
0.0
  0
LINE
  5
7E5
330
1A
100
AcDbEntity
  8
ZUWAKU
100
AcDbLine
 10
252.3995893126315
 20
14.99999970253156
 30
0.0
 11
252.3995893126315
 21
0.399999702531602
 31
0.0
  0
LINE
  5
7E6
330
1A
100
AcDbEntity
  8
ZUWAKU
100
AcDbLine
 10
252.5995893126314
 20
14.99999970253156
 30
0.0
 11
252.5995893126315
 21
0.399999702531602
 31
0.0
  0
LINE
  5
7E7
330
1A
100
AcDbEntity
  8
ZUWAKU
100
AcDbLine
 10
252.4995893126314
 20
14.99999970253156
 30
0.0
 11
252.4995893126315
 21
0.399999702531602
 31
0.0
  0
TEXT
  5
7E8
330
1A
100
AcDbEntity
  8
MOJI
100
AcDbText
 10
264.0204535497174
 20
9.002460231235261
 30
0.0
 40
2.799999999999999
  1
Ａ３
 41
0.9
  7
ｽﾀｲﾙ1
100
AcDbText
  0
LINE
  5
7E9
330
1A
100
AcDbEntity
  8
ZUWAKU
100
AcDbLine
 10
223.7121815490567
 20
14.99999970253156
 30
0.0
 11
223.7121815490567
 21
0.399999702531602
 31
0.0
  0
LINE
  5
7EA
330
1A
100
AcDbEntity
  8
ZUWAKU
100
AcDbLine
 10
223.9121815490566
 20
14.99999970253156
 30
0.0
 11
223.9121815490567
 21
0.399999702531602
 31
0.0
  0
LINE
  5
7EB
330
1A
100
AcDbEntity
  8
ZUWAKU
100
AcDbLine
 10
223.8121815490566
 20
14.99999970253156
 30
0.0
 11
223.8121815490567
 21
0.399999702531602
 31
0.0
  0
TEXT
  5
7EC
330
1A
100
AcDbEntity
  8
MOJI
100
AcDbText
 10
231.2836387245553
 20
5.97130856336156
 30
0.0
 40
2.799999999999999
  1
ＬＤ０８□
 41
0.9
  7
ｽﾀｲﾙ1
100
AcDbText
  0
TEXT
  5
7ED
330
1A
100
AcDbEntity
  8
ZUWAKU
100
AcDbText
 10
230.8507805931075
 20
1.623757184374028
 30
0.0
 40
1.5
  1
□には色品番が入ります
 41
0.9
  7
ｽﾀｲﾙ1
100
AcDbText
  0
TEXT
  5
7EE
330
1A
100
AcDbEntity
  8
ZUWAKU
100
AcDbText
 10
253.3383118237363
 20
4.827677971724376
 30
0.0
 40
2.0
  1
縮尺
 41
0.9
  7
ｽﾀｲﾙ1
100
AcDbText
  0
TEXT
  5
7EF
330
1A
100
AcDbEntity
  8
MOJI
100
AcDbText
 10
264.0204535497174
 20
1.602460231235278
 30
0.0
 40
2.799999999999999
  1
１/１
 41
0.9
  7
ｽﾀｲﾙ1
100
AcDbText
  0
TEXT
  5
7F0
330
1A
100
AcDbEntity
  8
ZUWAKU
100
AcDbText
 10
224.6509040601614
 20
12.02767797172435
 30
0.0
 40
2.0
  1
品番
 41
0.9
  7
ｽﾀｲﾙ1
100
AcDbText
  0
TEXT
  5
7F1
330
1A
100
AcDbEntity
  8
ZUWAKU
100
AcDbText
 10
253.3383118237362
 20
12.02767797172435
 30
0.0
 40
2.0
  1
用紙
 41
0.9
  7
ｽﾀｲﾙ1
100
AcDbText
  0
LINE
  5
7F2
330
1A
100
AcDbEntity
  8
ZUWAKU
100
AcDbLine
 10
276.2634774466172
 20
14.99999970253156
 30
0.0
 11
276.2634774466172
 21
0.399999702531602
 31
0.0
  0
LINE
  5
7F3
330
1A
100
AcDbEntity
  8
ZUWAKU
100
AcDbLine
 10
276.4634774466171
 20
14.99999970253156
 30
0.0
 11
276.4634774466173
 21
0.399999702531602
 31
0.0
  0
LINE
  5
7F4
330
1A
100
AcDbEntity
  8
ZUWAKU
100
AcDbLine
 10
276.3634774466171
 20
14.99999970253156
 30
0.0
 11
276.3634774466172
 21
0.399999702531602
 31
0.0
  0
LINE
  5
7F5
330
1A
100
AcDbEntity
  8
ZUWAKU
100
AcDbLine
 10
324.2086008186632
 20
14.99999970253156
 30
0.0
 11
324.2086008186632
 21
0.399999702531602
 31
0.0
  0
LINE
  5
7F6
330
1A
100
AcDbEntity
  8
ZUWAKU
100
AcDbLine
 10
324.4086008186632
 20
14.99999970253156
 30
0.0
 11
324.4086008186633
 21
0.399999702531602
 31
0.0
  0
LINE
  5
7F7
330
1A
100
AcDbEntity
  8
ZUWAKU
100
AcDbLine
 10
324.3086008186632
 20
14.99999970253156
 30
0.0
 11
324.3086008186633
 21
0.399999702531602
 31
0.0
  0
TEXT
  5
7F8
330
1A
100
AcDbEntity
  8
ZUWAKU
100
AcDbText
 10
325.147323329768
 20
12.02767797172435
 30
0.0
 40
2.0
  1
DATE
 41
0.9
  7
ｽﾀｲﾙ1
100
AcDbText
  0
TEXT
  5
7F9
330
1A
100
AcDbEntity
  8
ZUWAKU
100
AcDbText
 10
354.2640416596829
 20
8.776919370374969
 30
0.0
 40
3.0
  1
積水化学工業株式会社
 41
0.9
  7
ｽﾀｲﾙ1
100
AcDbText
  0
LINE
  5
7FA
330
1A
100
AcDbEntity
  8
ZUWAKU
100
AcDbLine
 10
348.9245048378315
 20
14.99999970253156
 30
0.0
 11
348.9245048378317
 21
0.399999702531602
 31
0.0
  0
LINE
  5
7FB
330
1A
100
AcDbEntity
  8
ZUWAKU
100
AcDbLine
 10
348.8245048378315
 20
14.99999970253156
 30
0.0
 11
348.8245048378316
 21
0.399999702531602
 31
0.0
  0
LINE
  5
7FC
330
1A
100
AcDbEntity
  8
ZUWAKU
100
AcDbLine
 10
348.7245048378316
 20
14.99999970253156
 30
0.0
 11
348.7245048378316
 21
0.399999702531602
 31
0.0
  0
LINE
  5
7FD
330
1A
100
AcDbEntity
  8
ZUWAKU
100
AcDbLine
 10
348.6245048378316
 20
14.99999970253156
 30
0.0
 11
348.6245048378316
 21
0.399999702531602
 31
0.0
  0
TEXT
  5
7FE
330
1A
100
AcDbEntity
  8
ZUWAKU
100
AcDbText
 10
354.2640416596829
 20
3.3244198594586
 30
0.0
 40
3.0
  1
建材事業部
 41
0.9
  7
ｽﾀｲﾙ1
100
AcDbText
  0
VIEWPORT
  5
22
330
17
100
AcDbEntity
 67
     1
  8
0
100
AcDbViewport
 10
313.6808219178082
 20
179.1517444462087
 30
0.0
 40
627.3616438356165
 41
358.3034888924174
 68
     2
 69
     1
1001
ACAD
1000
MVIEW
1002
{
1070
    16
1010
0.0
1020
0.0
1030
0.0
1010
0.0
1020
0.0
1030
1.0
1040
0.0
1040
358.3034888924174
1040
313.6808219178082
1040
179.1517444462087
1040
50.0
1040
0.0
1040
0.0
1070
     0
1070
   100
1070
     1
1070
     0
1070
     0
1070
     0
1070
     0
1070
     0
1040
0.0
1040
0.0
1040
0.0
1040
1.0
1040
1.0
1040
10.0
1040
10.0
1070
     0
1002
{
1002
}
1002
}
  0
VIEWPORT
  5
64
330
17
100
AcDbEntity
 67
     1
  8
VIEWPORT
100
AcDbViewport
 10
210.0
 20
148.5
 30
0.0
 40
420.0
 41
297.0
 68
     1
 69
     2
1001
ACAD
1000
MVIEW
1002
{
1070
    16
1010
0.0
1020
0.0
1030
0.0
1010
0.0
1020
0.0
1030
1.0
1040
0.0
1040
302.9399998589335
1040
193.515098554293
1040
135.2422607881295
1040
50.0
1040
0.0
1040
0.0
1070
     0
1070
   100
1070
     1
1070
     0
1070
     0
1070
     0
1070
     0
1070
     0
1040
0.0
1040
0.0
1040
0.0
1040
5.0
1040
5.0
1040
0.0
1040
0.0
1070
     0
1002
{
1002
}
1002
}
  0
ENDSEC
  0
SECTION
  2
OBJECTS
  0
DICTIONARY
  5
C
330
0
100
AcDbDictionary
  3
ACAD_GROUP
350
D
  3
ACAD_LAYOUT
350
608
  3
ACAD_MLINESTYLE
350
E
  3
ACAD_PLOTSETTINGS
350
609
  3
ACAD_PLOTSTYLENAME
350
606
  3
ACDBHEADERROUNDTRIPXREC
350
806
  0
DICTIONARY
  5
63A
330
1A
100
AcDbDictionary
280
     1
  3
ACAD_LAYOUTSELFREF
360
828
  0
DICTIONARY
  5
638
330
17
100
AcDbDictionary
280
     1
  3
ACAD_LAYOUTSELFREF
360
827
  0
DICTIONARY
  5
D
102
{ACAD_REACTORS
330
C
102
}
330
C
100
AcDbDictionary
  0
DICTIONARY
  5
608
102
{ACAD_REACTORS
330
C
102
}
330
C
100
AcDbDictionary
  0
DICTIONARY
  5
E
102
{ACAD_REACTORS
330
C
102
}
330
C
100
AcDbDictionary
  3
STANDARD
350
13
  0
DICTIONARY
  5
609
102
{ACAD_REACTORS
330
C
102
}
330
C
100
AcDbDictionary
  0
ACDBDICTIONARYWDFLT
  5
606
102
{ACAD_REACTORS
330
C
102
}
330
C
100
AcDbDictionary
281
     1
  3
Normal
350
607
100
AcDbDictionaryWithDefault
340
607
1001
ACAD
1000
TREAT_AS_HARD
1070
     0
1000
TREAT_AS_HARD
1070
     0
  0
DICTIONARY
  5
806
102
{ACAD_REACTORS
330
C
102
}
330
C
100
AcDbDictionary
  3
TSTACKALIGN
350
807
  3
TSTACKSIZE
350
808
  3
HYPERLINKBASE
350
809
  3
STYLESHEET
350
80A
  3
LAYOUTDICT
350
80B
  3
PLOTSETDICT
350
80C
  3
PLOTSTYLNAMDICT
350
80D
  3
LWETCUNION
350
80E
  3
INSUNITS
350
80F
  3
CEPSNTYPE
350
810
  3
FINGERPRINTGUID
350
811
  3
VERSIONGUID
350
812
  3
PSVPSCALE
350
813
  3
DIMSTYLEDATA
350
814
  3
PUCSORTHOREF
350
815
  3
PUCSORTHOVIEW
350
816
  3
PUCSBASE
350
817
  3
PUCSORGTOP
350
818
  3
PUCSORGBOTTOM
350
819
  3
PUCSORGLEFT
350
81A
  3
PUCSORGRIGHT
350
81B
  3
PUCSORGFRONT
350
81C
  3
PUCSORGBACK
350
81D
  3
UCSORTHOREF
350
81E
  3
UCSORTHOVIEW
350
81F
  3
UCSBASE
350
820
  3
UCSORGTOP
350
821
  3
UCSORGBOTTOM
350
822
  3
UCSORGLEFT
350
823
  3
UCSORGRIGHT
350
824
  3
UCSORGFRONT
350
825
  3
UCSORGBACK
350
826
  0
XRECORD
  5
828
102
{ACAD_REACTORS
330
63A
102
}
330
63A
100
AcDbXrecord
340
1A
  0
XRECORD
  5
827
102
{ACAD_REACTORS
330
638
102
}
330
638
100
AcDbXrecord
340
17
  0
MLINESTYLE
  5
13
102
{ACAD_REACTORS
330
E
102
}
330
E
100
AcDbMlineStyle
  2
STANDARD
 70
     0
  3

 62
     0
 51
90.0
 52
90.0
 71
     2
 49
0.5
 62
   256
  6
BYLAYER
 49
-0.5
 62
   256
  6
BYLAYER
  0
ACDBPLACEHOLDER
  5
607
102
{ACAD_REACTORS
330
606
102
}
330
606
100
AcDbPlaceHolder
280
     0
  0
XRECORD
  5
807
102
{ACAD_REACTORS
330
806
102
}
330
806
100
AcDbXrecord
 90
        1
  0
XRECORD
  5
808
102
{ACAD_REACTORS
330
806
102
}
330
806
100
AcDbXrecord
 90
       70
  0
XRECORD
  5
809
102
{ACAD_REACTORS
330
806
102
}
330
806
100
AcDbXrecord
  1

  0
XRECORD
  5
80A
102
{ACAD_REACTORS
330
806
102
}
330
806
100
AcDbXrecord
  1
systemprinter.ctb
  0
XRECORD
  5
80B
102
{ACAD_REACTORS
330
806
102
}
330
806
100
AcDbXrecord
340
608
  0
XRECORD
  5
80C
102
{ACAD_REACTORS
330
806
102
}
330
806
100
AcDbXrecord
340
609
  0
XRECORD
  5
80D
102
{ACAD_REACTORS
330
806
102
}
330
806
100
AcDbXrecord
340
606
  0
XRECORD
  5
80E
102
{ACAD_REACTORS
330
806
102
}
330
806
100
AcDbXrecord
 90
    10781
  0
XRECORD
  5
80F
102
{ACAD_REACTORS
330
806
102
}
330
806
100
AcDbXrecord
 90
        0
  0
XRECORD
  5
810
102
{ACAD_REACTORS
330
806
102
}
330
806
100
AcDbXrecord
 90
        0
  0
XRECORD
  5
811
102
{ACAD_REACTORS
330
806
102
}
330
806
100
AcDbXrecord
  1
{84B38D3E-7261-4973-B346-5C5E9E815A69}
  0
XRECORD
  5
812
102
{ACAD_REACTORS
330
806
102
}
330
806
100
AcDbXrecord
  1
{31BCCA75-37B4-4CDC-AC2B-ACC9501B3074}
  0
XRECORD
  5
813
102
{ACAD_REACTORS
330
806
102
}
330
806
100
AcDbXrecord
 40
0.0
  0
XRECORD
  5
814
102
{ACAD_REACTORS
330
806
102
}
330
806
100
AcDbXrecord
1000
DSTYLE
1002
{
1070
   341
340
B2
1070
   343
340
B2
1070
   344
340
B2
1070
   371
 70
    -1
1070
   372
 70
    -1
1002
}
  0
XRECORD
  5
815
102
{ACAD_REACTORS
330
806
102
}
330
806
100
AcDbXrecord
340
0
  0
XRECORD
  5
816
102
{ACAD_REACTORS
330
806
102
}
330
806
100
AcDbXrecord
 70
     0
  0
XRECORD
  5
817
102
{ACAD_REACTORS
330
806
102
}
330
806
100
AcDbXrecord
340
0
  0
XRECORD
  5
818
102
{ACAD_REACTORS
330
806
102
}
330
806
100
AcDbXrecord
 10
0.0
 20
0.0
 30
0.0
  0
XRECORD
  5
819
102
{ACAD_REACTORS
330
806
102
}
330
806
100
AcDbXrecord
 10
0.0
 20
0.0
 30
0.0
  0
XRECORD
  5
81A
102
{ACAD_REACTORS
330
806
102
}
330
806
100
AcDbXrecord
 10
0.0
 20
0.0
 30
0.0
  0
XRECORD
  5
81B
102
{ACAD_REACTORS
330
806
102
}
330
806
100
AcDbXrecord
 10
0.0
 20
0.0
 30
0.0
  0
XRECORD
  5
81C
102
{ACAD_REACTORS
330
806
102
}
330
806
100
AcDbXrecord
 10
0.0
 20
0.0
 30
0.0
  0
XRECORD
  5
81D
102
{ACAD_REACTORS
330
806
102
}
330
806
100
AcDbXrecord
 10
0.0
 20
0.0
 30
0.0
  0
XRECORD
  5
81E
102
{ACAD_REACTORS
330
806
102
}
330
806
100
AcDbXrecord
340
0
  0
XRECORD
  5
81F
102
{ACAD_REACTORS
330
806
102
}
330
806
100
AcDbXrecord
 70
     0
  0
XRECORD
  5
820
102
{ACAD_REACTORS
330
806
102
}
330
806
100
AcDbXrecord
340
0
  0
XRECORD
  5
821
102
{ACAD_REACTORS
330
806
102
}
330
806
100
AcDbXrecord
 10
0.0
 20
0.0
 30
0.0
  0
XRECORD
  5
822
102
{ACAD_REACTORS
330
806
102
}
330
806
100
AcDbXrecord
 10
0.0
 20
0.0
 30
0.0
  0
XRECORD
  5
823
102
{ACAD_REACTORS
330
806
102
}
330
806
100
AcDbXrecord
 10
0.0
 20
0.0
 30
0.0
  0
XRECORD
  5
824
102
{ACAD_REACTORS
330
806
102
}
330
806
100
AcDbXrecord
 10
0.0
 20
0.0
 30
0.0
  0
XRECORD
  5
825
102
{ACAD_REACTORS
330
806
102
}
330
806
100
AcDbXrecord
 10
0.0
 20
0.0
 30
0.0
  0
XRECORD
  5
826
102
{ACAD_REACTORS
330
806
102
}
330
806
100
AcDbXrecord
 10
0.0
 20
0.0
 30
0.0
  0
ENDSEC
  0
EOF
