  0
SECTION
  2
HEADER
  9
$ACADVER
  1
AC1014
  9
$ACADMAINTVER
 70
     9
  9
$DWGCODEPAGE
  3
ANSI_932
  9
$INSBASE
 10
0.0
 20
0.0
 30
0.0
  9
$EXTMIN
 10
-0.0128169028637331
 20
-0.0090633497035242
 30
-0.0015258207003583
  9
$EXTMAX
 10
398.8000497562013
 20
275.8226172211495
 30
0.0000000349246037
  9
$LIMMIN
 10
0.0
 20
0.0
  9
$LIMMAX
 10
420.0
 20
297.0
  9
$ORTHOMODE
 70
     0
  9
$REGENMODE
 70
     1
  9
$FILLMODE
 70
     1
  9
$QTEXTMODE
 70
     0
  9
$MIRRTEXT
 70
     1
  9
$DRAGMODE
 70
     2
  9
$LTSCALE
 40
1.0
  9
$OSMODE
 70
    37
  9
$ATTMODE
 70
     1
  9
$TEXTSIZE
 40
2.5
  9
$TRACEWID
 40
1.0
  9
$TEXTSTYLE
  7
STANDARD
  9
$CLAYER
  8
SUNPOU
  9
$CELTYPE
  6
BYLAYER
  9
$CECOLOR
 62
   256
  9
$CELTSCALE
 40
1.0
  9
$DELOBJ
 70
     1
  9
$DISPSILH
 70
     0
  9
$DIMSCALE
 40
1.0
  9
$DIMASZ
 40
3.0
  9
$DIMEXO
 40
3.0
  9
$DIMDLI
 40
7.0
  9
$DIMRND
 40
0.0
  9
$DIMDLE
 40
0.0
  9
$DIMEXE
 40
1.5
  9
$DIMTP
 40
0.0
  9
$DIMTM
 40
0.0
  9
$DIMTXT
 40
3.0
  9
$DIMCEN
 40
150.0
  9
$DIMTSZ
 40
0.0
  9
$DIMTOL
 70
     0
  9
$DIMLIM
 70
     0
  9
$DIMTIH
 70
     0
  9
$DIMTOH
 70
     0
  9
$DIMSE1
 70
     0
  9
$DIMSE2
 70
     0
  9
$DIMTAD
 70
     3
  9
$DIMZIN
 70
     0
  9
$DIMBLK
  1

  9
$DIMASO
 70
     1
  9
$DIMSHO
 70
     1
  9
$DIMPOST
  1

  9
$DIMAPOST
  1

  9
$DIMALT
 70
     0
  9
$DIMALTD
 70
     2
  9
$DIMALTF
 40
25.4
  9
$DIMLFAC
 40
1.0
  9
$DIMTOFL
 70
     1
  9
$DIMTVP
 40
0.0
  9
$DIMTIX
 70
     0
  9
$DIMSOXD
 70
     0
  9
$DIMSAH
 70
     1
  9
$DIMBLK1
  1
OPEN
  9
$DIMBLK2
  1
OPEN
  9
$DIMSTYLE
  2
STANDARD
  9
$DIMCLRD
 70
   256
  9
$DIMCLRE
 70
   256
  9
$DIMCLRT
 70
   256
  9
$DIMTFAC
 40
1.0
  9
$DIMGAP
 40
1.0
  9
$DIMJUST
 70
     0
  9
$DIMSD1
 70
     0
  9
$DIMSD2
 70
     0
  9
$DIMTOLJ
 70
     1
  9
$DIMTZIN
 70
     0
  9
$DIMALTZ
 70
     0
  9
$DIMALTTZ
 70
     0
  9
$DIMFIT
 70
     3
  9
$DIMUPT
 70
     0
  9
$DIMUNIT
 70
     2
  9
$DIMDEC
 70
     0
  9
$DIMTDEC
 70
     0
  9
$DIMALTU
 70
     2
  9
$DIMALTTD
 70
     2
  9
$DIMTXSTY
  7
STANDARD
  9
$DIMAUNIT
 70
     0
  9
$LUNITS
 70
     2
  9
$LUPREC
 70
     4
  9
$SKETCHINC
 40
1.0
  9
$FILLETRAD
 40
10.0
  9
$AUNITS
 70
     0
  9
$AUPREC
 70
     0
  9
$MENU
  1
.
  9
$ELEVATION
 40
0.0
  9
$PELEVATION
 40
0.0
  9
$THICKNESS
 40
0.0
  9
$LIMCHECK
 70
     0
  9
$BLIPMODE
 70
     0
  9
$CHAMFERA
 40
10.0
  9
$CHAMFERB
 40
10.0
  9
$CHAMFERC
 40
20.0
  9
$CHAMFERD
 40
0.0
  9
$SKPOLY
 70
     0
  9
$TDCREATE
 40
2450994.350997107
  9
$TDUPDATE
 40
2454484.389293992
  9
$TDINDWG
 40
0.0174225116
  9
$TDUSRTIMER
 40
0.0174225116
  9
$USRTIMER
 70
     1
  9
$ANGBASE
 50
0.0
  9
$ANGDIR
 70
     0
  9
$PDMODE
 70
     1
  9
$PDSIZE
 40
0.0
  9
$PLINEWID
 40
0.0
  9
$COORDS
 70
     1
  9
$SPLFRAME
 70
     0
  9
$SPLINETYPE
 70
     6
  9
$SPLINESEGS
 70
     8
  9
$ATTDIA
 70
     0
  9
$ATTREQ
 70
     1
  9
$HANDLING
 70
 10241
  9
$HANDSEED
  5
7A4
  9
$SURFTAB1
 70
     6
  9
$SURFTAB2
 70
     6
  9
$SURFTYPE
 70
     6
  9
$SURFU
 70
     6
  9
$SURFV
 70
     6
  9
$UCSNAME
  2

  9
$UCSORG
 10
0.0
 20
0.0
 30
0.0
  9
$UCSXDIR
 10
1.0
 20
0.0
 30
0.0
  9
$UCSYDIR
 10
0.0
 20
1.0
 30
0.0
  9
$PUCSNAME
  2

  9
$PUCSORG
 10
0.0
 20
0.0
 30
0.0
  9
$PUCSXDIR
 10
1.0
 20
0.0
 30
0.0
  9
$PUCSYDIR
 10
0.0
 20
1.0
 30
0.0
  9
$USERI1
 70
     0
  9
$USERI2
 70
     0
  9
$USERI3
 70
     0
  9
$USERI4
 70
     0
  9
$USERI5
 70
     0
  9
$USERR1
 40
0.0
  9
$USERR2
 40
0.0
  9
$USERR3
 40
0.0
  9
$USERR4
 40
0.0
  9
$USERR5
 40
0.0
  9
$WORLDVIEW
 70
     1
  9
$SHADEDGE
 70
     3
  9
$SHADEDIF
 70
    70
  9
$TILEMODE
 70
     1
  9
$MAXACTVP
 70
    16
  9
$PINSBASE
 10
0.0
 20
0.0
 30
0.0
  9
$PLIMCHECK
 70
     0
  9
$PEXTMIN
 10
0.0
 20
0.0
 30
0.0
  9
$PEXTMAX
 10
420.0
 20
297.0
 30
0.0
  9
$PLIMMIN
 10
0.0
 20
0.0
  9
$PLIMMAX
 10
420.0
 20
297.0
  9
$UNITMODE
 70
     0
  9
$VISRETAIN
 70
     0
  9
$PLINEGEN
 70
     0
  9
$PSLTSCALE
 70
     1
  9
$TREEDEPTH
 70
  3020
  9
$PICKSTYLE
 70
     1
  9
$CMLSTYLE
  2
STANDARD
  9
$CMLJUST
 70
     0
  9
$CMLSCALE
 40
1.0
  9
$PROXYGRAPHICS
 70
     1
  9
$MEASUREMENT
 70
     1
  0
ENDSEC
  0
SECTION
  2
CLASSES
  0
CLASS
  1
ACDBDICTIONARYWDFLT
  2
AcDbDictionaryWithDefault
  3
AutoCAD 2000
 90
        0
280
     0
281
     0
  0
CLASS
  1
ACDBPLACEHOLDER
  2
AcDbPlaceHolder
  3
AutoCAD 2000
 90
        0
280
     0
281
     0
  0
CLASS
  1
LAYOUT
  2
AcDbLayout
  3
AutoCAD 2000
 90
        0
280
     0
281
     0
  0
CLASS
  1
LONG_TRANSACTION
  2
AcDbLongTransaction
  3
AutoCAD 2000
 90
        0
280
     0
281
     0
  0
CLASS
  1
LWPOLYLINE
  2
AcDbPolyline
  3
AutoCAD 2000
 90
        0
280
     0
281
     1
  0
CLASS
  1
HATCH
  2
AcDbHatch
  3
AutoCAD 2000
 90
        0
280
     0
281
     1
  0
CLASS
  1
XRECORD
  2
AcDbXrecord
  3
AutoCAD 2000
 90
        0
280
     0
281
     0
  0
CLASS
  1
LONG_TRANSACTION
  2
AcDbLongTransaction
  3
AutoCAD 2000
 90
        0
280
     0
281
     0
  0
CLASS
  1
LWPOLYLINE
  2
AcDbPolyline
  3
AutoCAD 2000
 90
        0
280
     0
281
     1
  0
CLASS
  1
HATCH
  2
AcDbHatch
  3
AutoCAD 2000
 90
        0
280
     0
281
     1
  0
CLASS
  1
XRECORD
  2
AcDbXrecord
  3
AutoCAD 2000
 90
        0
280
     0
281
     0
  0
CLASS
  1
LONG_TRANSACTION
  2
AcDbLongTransaction
  3
AutoCAD 2000
 90
        0
280
     0
281
     0
  0
CLASS
  1
LWPOLYLINE
  2
AcDbPolyline
  3
AutoCAD 2000
 90
        0
280
     0
281
     1
  0
CLASS
  1
HATCH
  2
AcDbHatch
  3
AutoCAD 2000
 90
        0
280
     0
281
     1
  0
CLASS
  1
XRECORD
  2
AcDbXrecord
  3
AutoCAD 2000
 90
        0
280
     0
281
     0
  0
ENDSEC
  0
SECTION
  2
TABLES
  0
TABLE
  2
VPORT
  5
8
330
0
100
AcDbSymbolTable
 70
     2
  0
VPORT
  5
780
330
8
100
AcDbSymbolTableRecord
100
AcDbViewportTableRecord
  2
*ACTIVE
 70
     0
 10
0.0
 20
0.0
 11
1.0
 21
1.0
 12
211.586804553963
 22
142.5342888105685
 13
0.0
 23
0.0
 14
5.0
 24
5.0
 15
0.0
 25
0.0
 16
0.0
 26
0.0
 36
1.0
 17
0.0
 27
0.0
 37
0.0
 40
341.712028425765
 41
1.570153061224489
 42
50.0
 43
0.0
 44
0.0
 50
0.0
 51
0.0
 71
     0
 72
   100
 73
     1
 74
     0
 75
     0
 76
     0
 77
     0
 78
     0
  0
ENDTAB
  0
TABLE
  2
LTYPE
  5
5
330
0
100
AcDbSymbolTable
 70
     3
  0
LTYPE
  5
14
330
5
100
AcDbSymbolTableRecord
100
AcDbLinetypeTableRecord
  2
BYBLOCK
 70
     0
  3

 72
    65
 73
     0
 40
0.0
  0
LTYPE
  5
15
330
5
100
AcDbSymbolTableRecord
100
AcDbLinetypeTableRecord
  2
BYLAYER
 70
     0
  3

 72
    65
 73
     0
 40
0.0
  0
LTYPE
  5
16
330
5
100
AcDbSymbolTableRecord
100
AcDbLinetypeTableRecord
  2
CONTINUOUS
 70
     0
  3
Solid line
 72
    65
 73
     0
 40
0.0
  0
LTYPE
  5
120
330
5
100
AcDbSymbolTableRecord
100
AcDbLinetypeTableRecord
  2
CENTER
 70
     0
  3
____ _ ____ _ ____ _ ____ _ ____ _ ____ _ ____ 
 72
    65
 73
     4
 40
2.0
 49
1.25
 74
     0
 49
-0.25
 74
     0
 49
0.25
 74
     0
 49
-0.25
 74
     0
  0
LTYPE
  5
122
330
5
100
AcDbSymbolTableRecord
100
AcDbLinetypeTableRecord
  2
PHANTOM
 70
     0
  3
______  __  __  ______  __  __  ______  __  __ 
 72
    65
 73
     6
 40
2.5
 49
1.25
 74
     0
 49
-0.25
 74
     0
 49
0.25
 74
     0
 49
-0.25
 74
     0
 49
0.25
 74
     0
 49
-0.25
 74
     0
  0
ENDTAB
  0
TABLE
  2
LAYER
  5
2
330
0
100
AcDbSymbolTable
 70
    10
  0
LAYER
  5
F
330
2
100
AcDbSymbolTableRecord
100
AcDbLayerTableRecord
  2
0
 70
     0
 62
     7
  6
CONTINUOUS
  0
LAYER
  5
62
330
2
100
AcDbSymbolTableRecord
100
AcDbLayerTableRecord
  2
VIEWPORT
 70
     0
 62
     7
  6
CONTINUOUS
  0
LAYER
  5
6B
330
2
100
AcDbSymbolTableRecord
100
AcDbLayerTableRecord
  2
ZUWAKU
 70
     0
 62
     7
  6
CONTINUOUS
  0
LAYER
  5
146
330
2
100
AcDbSymbolTableRecord
100
AcDbLayerTableRecord
  2
SUNPOU_L
 70
     0
 62
     4
  6
CONTINUOUS
  0
LAYER
  5
185
330
2
100
AcDbSymbolTableRecord
100
AcDbLayerTableRecord
  2
CENTER_L
 70
     0
 62
     1
  6
CENTER
  0
LAYER
  5
18C
330
2
100
AcDbSymbolTableRecord
100
AcDbLayerTableRecord
  2
DEFPOINTS
 70
     0
 62
     7
  6
CONTINUOUS
  0
LAYER
  5
2A9
330
2
100
AcDbSymbolTableRecord
100
AcDbLayerTableRecord
  2
SUNPOU
 70
     0
 62
     4
  6
CONTINUOUS
  0
LAYER
  5
2AA
330
2
100
AcDbSymbolTableRecord
100
AcDbLayerTableRecord
  2
SEIHIN
 70
     0
 62
     3
  6
CONTINUOUS
  0
LAYER
  5
2AB
330
2
100
AcDbSymbolTableRecord
100
AcDbLayerTableRecord
  2
NOKITOI
 70
     0
 62
     8
  6
PHANTOM
  0
LAYER
  5
609
330
2
100
AcDbSymbolTableRecord
100
AcDbLayerTableRecord
  2
MOJI
 70
     0
 62
     2
  6
CONTINUOUS
  0
ENDTAB
  0
TABLE
  2
STYLE
  5
3
330
0
100
AcDbSymbolTable
 70
     2
  0
STYLE
  5
10
330
3
100
AcDbSymbolTableRecord
100
AcDbTextStyleTableRecord
  2
STANDARD
 70
     0
 40
0.0
 41
1.0
 50
0.0
 71
     0
 42
2.5
  3
TXT
  4
bigfont.shx
  0
STYLE
  5
60A
330
3
100
AcDbSymbolTableRecord
100
AcDbTextStyleTableRecord
  2
ｽﾀｲﾙ1
 70
     0
 40
0.0
 41
1.0
 50
0.0
 71
     0
 42
2.5
  3
MS PGothic.ttf
  4

1001
ACAD
1000
MS PGothic
1071
    32818
  0
ENDTAB
  0
TABLE
  2
VIEW
  5
6
330
0
100
AcDbSymbolTable
 70
     0
  0
ENDTAB
  0
TABLE
  2
UCS
  5
7
330
0
100
AcDbSymbolTable
 70
     0
  0
ENDTAB
  0
TABLE
  2
APPID
  5
9
330
0
100
AcDbSymbolTable
 70
     1
  0
APPID
  5
11
330
9
100
AcDbSymbolTableRecord
100
AcDbRegAppTableRecord
  2
ACAD
 70
     0
  0
ENDTAB
  0
TABLE
  2
DIMSTYLE
  5
A
330
0
100
AcDbSymbolTable
 70
     1
  0
DIMSTYLE
105
1D
102
{ACAD_REACTORS
330
3C8
330
3DA
330
3DB
330
3E4
330
41E
330
47B
330
4B5
330
4C7
102
}
330
A
100
AcDbSymbolTableRecord
100
AcDbDimStyleTableRecord
  2
STANDARD
 70
     0
  3

  4

  5

  6

  7

 40
1.0
 41
0.18
 42
0.0625
 43
0.38
 44
0.18
 45
0.0
 46
0.0
 47
0.0
 48
0.0
140
0.18
141
0.09
142
0.0
143
25.4
144
1.0
145
0.0
146
1.0
147
0.09
 71
     0
 72
     0
 73
     1
 74
     1
 75
     0
 76
     0
 77
     0
 78
     0
170
     0
171
     2
172
     0
173
     0
174
     0
175
     0
176
     0
177
     0
178
     0
270
     2
271
     4
272
     4
273
     2
274
     2
340
10
275
     0
280
     0
281
     0
282
     0
283
     1
284
     0
285
     0
286
     0
287
     3
288
     0
  0
ENDTAB
  0
TABLE
  2
BLOCK_RECORD
  5
1
330
0
100
AcDbSymbolTable
 70
     9
  0
BLOCK_RECORD
  5
1A
102
{ACAD_XDICTIONARY
360
5C5
102
}
330
1
100
AcDbSymbolTableRecord
100
AcDbBlockTableRecord
  2
*MODEL_SPACE
  0
BLOCK_RECORD
  5
17
102
{ACAD_XDICTIONARY
360
5C3
102
}
330
1
100
AcDbSymbolTableRecord
100
AcDbBlockTableRecord
  2
*PAPER_SPACE
  0
BLOCK_RECORD
  5
B2
330
1
100
AcDbSymbolTableRecord
100
AcDbBlockTableRecord
  2
_OPEN
  0
BLOCK_RECORD
  5
4D0
330
1
100
AcDbSymbolTableRecord
100
AcDbBlockTableRecord
  2
*D1
  0
BLOCK_RECORD
  5
4DC
330
1
100
AcDbSymbolTableRecord
100
AcDbBlockTableRecord
  2
*D2
  0
BLOCK_RECORD
  5
4E8
330
1
100
AcDbSymbolTableRecord
100
AcDbBlockTableRecord
  2
*D3
  0
BLOCK_RECORD
  5
4F4
330
1
100
AcDbSymbolTableRecord
100
AcDbBlockTableRecord
  2
*D4
  0
BLOCK_RECORD
  5
500
330
1
100
AcDbSymbolTableRecord
100
AcDbBlockTableRecord
  2
*D5
  0
BLOCK_RECORD
  5
50C
330
1
100
AcDbSymbolTableRecord
100
AcDbBlockTableRecord
  2
*D6
  0
BLOCK_RECORD
  5
518
330
1
100
AcDbSymbolTableRecord
100
AcDbBlockTableRecord
  2
*D7
  0
BLOCK_RECORD
  5
526
330
1
100
AcDbSymbolTableRecord
100
AcDbBlockTableRecord
  2
*D8
  0
ENDTAB
  0
ENDSEC
  0
SECTION
  2
BLOCKS
  0
BLOCK
  5
1B
330
1A
100
AcDbEntity
  8
0
100
AcDbBlockBegin
  2
*MODEL_SPACE
 70
     0
 10
0.0
 20
0.0
 30
0.0
  3
*MODEL_SPACE
  1

  0
ENDBLK
  5
1C
330
1A
100
AcDbEntity
  8
0
100
AcDbBlockEnd
  0
BLOCK
  5
18
330
17
100
AcDbEntity
 67
     1
  8
0
100
AcDbBlockBegin
  2
*PAPER_SPACE
 70
     0
 10
0.0
 20
0.0
 30
0.0
  3
*PAPER_SPACE
  1

  0
ENDBLK
  5
19
330
17
100
AcDbEntity
 67
     1
  8
0
100
AcDbBlockEnd
  0
BLOCK
  5
B3
330
B2
100
AcDbEntity
  8
0
100
AcDbBlockBegin
  2
_OPEN
 70
     0
 10
0.0
 20
0.0
 30
0.0
  3
_OPEN
  1

  0
LINE
  5
B4
330
B2
100
AcDbEntity
  8
0
  6
BYBLOCK
 62
     0
100
AcDbLine
 10
-1.0
 20
0.1666666666666666
 30
0.0
 11
0.0
 21
0.0
 31
0.0
  0
LINE
  5
B5
330
B2
100
AcDbEntity
  8
0
  6
BYBLOCK
 62
     0
100
AcDbLine
 10
0.0
 20
0.0
 30
0.0
 11
-1.0
 21
-0.1666666666666666
 31
0.0
  0
LINE
  5
B6
330
B2
100
AcDbEntity
  8
0
  6
BYBLOCK
 62
     0
100
AcDbLine
 10
0.0
 20
0.0
 30
0.0
 11
-1.0
 21
0.0
 31
0.0
  0
ENDBLK
  5
B7
330
B2
100
AcDbEntity
  8
0
100
AcDbBlockEnd
  0
BLOCK
  5
534
330
4D0
100
AcDbEntity
  8
0
100
AcDbBlockBegin
  2
*D1
 70
     1
 10
0.0
 20
0.0
 30
0.0
  3
*D1
  1

  0
LINE
  5
535
330
4D0
100
AcDbEntity
  8
0
  6
BYBLOCK
 62
     4
100
AcDbLine
 10
291.8227941104733
 20
117.2127771133727
 30
0.0
 11
298.5464945357739
 21
100.4022343274995
 31
0.0
  0
LINE
  5
536
330
4D0
100
AcDbEntity
  8
0
  6
BYBLOCK
 62
     4
100
AcDbLine
 10
180.4044933868039
 20
72.64888137815913
 30
0.0
 11
187.1281938121043
 21
55.83833859228622
 31
0.0
  0
LINE
  5
537
330
4D0
100
AcDbEntity
  8
0
  6
BYBLOCK
 62
     4
100
AcDbLine
 10
295.2039858302707
 20
100.6808659007916
 30
0.0
 11
189.3566042940399
 21
58.34516661271353
 31
0.0
  0
INSERT
  5
538
330
4D0
100
AcDbEntity
  8
0
  6
BYBLOCK
 62
     4
100
AcDbBlockReference
  2
_OPEN
 10
297.98944542399
 20
101.7949641243592
 30
0.0
 41
3.0
 42
3.0
 43
3.0
 50
21.79989132907187
  0
INSERT
  5
539
330
4D0
100
AcDbEntity
  8
0
  6
BYBLOCK
 62
     4
100
AcDbBlockReference
  2
_OPEN
 10
186.5711447003205
 20
57.23106838914592
 30
0.0
 41
3.0
 42
3.0
 43
3.0
 50
201.7998913290719
  0
MTEXT
  5
53A
330
4D0
100
AcDbEntity
  8
0
  6
BYBLOCK
 62
     4
100
AcDbMText
 10
241.3518798758489
 20
81.83423258485209
 30
0.0
 40
3.0
 41
0.0
 71
     5
 72
     5
  1
\A1;120
 11
0.9284865312398036
 21
0.3713660745225351
 31
0.0
1001
ACAD
1000
MTEXTBEGIN
1070
    73
1070
     1
1070
    44
1040
1.0
1070
    74
1070
     0
1000
MTEXTEND
1000
MTEXTBEGIN
1070
    73
1070
     1
1070
    44
1040
1.0
1070
    74
1070
     0
1000
MTEXTEND
1000
MTEXTBEGIN
1070
    73
1070
     1
1070
    44
1040
1.0
1070
    74
1070
     0
1000
MTEXTEND
  0
POINT
  5
53B
330
4D0
100
AcDbEntity
  8
DEFPOINTS
  6
BYBLOCK
 62
     0
100
AcDbPoint
 10
290.7086958869058
 20
119.9982367070921
 30
0.0
  0
POINT
  5
53C
330
4D0
100
AcDbEntity
  8
DEFPOINTS
  6
BYBLOCK
 62
     0
100
AcDbPoint
 10
179.2903951632363
 20
75.43434097187854
 30
0.0
  0
POINT
  5
53D
330
4D0
100
AcDbEntity
  8
DEFPOINTS
  6
BYBLOCK
 62
     0
100
AcDbPoint
 10
186.5711447003205
 20
57.23106838914592
 30
0.0
  0
ENDBLK
  5
53E
330
4D0
100
AcDbEntity
  8
0
100
AcDbBlockEnd
  0
BLOCK
  5
53F
330
4DC
100
AcDbEntity
  8
0
100
AcDbBlockBegin
  2
*D2
 70
     1
 10
0.0
 20
0.0
 30
0.0
  3
*D2
  1

  0
LINE
  5
540
330
4DC
100
AcDbEntity
  8
0
  6
BYBLOCK
 62
     4
100
AcDbLine
 10
224.3540459496524
 20
144.8320608271479
 30
0.0
 11
224.3540459496524
 21
173.2020785457109
 31
0.0
  0
LINE
  5
541
330
4DC
100
AcDbEntity
  8
0
  6
BYBLOCK
 62
     4
100
AcDbLine
 10
137.7542459496526
 20
163.6779608271479
 30
0.0
 11
137.7542459496526
 21
173.2020785457109
 31
0.0
  0
LINE
  5
542
330
4DC
100
AcDbEntity
  8
0
  6
BYBLOCK
 62
     4
100
AcDbLine
 10
221.3540459496524
 20
171.7020785457109
 30
0.0
 11
140.7542459496526
 21
171.7020785457109
 31
0.0
  0
INSERT
  5
543
330
4DC
100
AcDbEntity
  8
0
  6
BYBLOCK
 62
     4
100
AcDbBlockReference
  2
_OPEN
 10
224.3540459496524
 20
171.7020785457109
 30
0.0
 41
3.0
 42
3.0
 43
3.0
  0
INSERT
  5
544
330
4DC
100
AcDbEntity
  8
0
  6
BYBLOCK
 62
     4
100
AcDbBlockReference
  2
_OPEN
 10
137.7542459496526
 20
171.7020785457109
 30
0.0
 41
3.0
 42
3.0
 43
3.0
 50
180.0
  0
MTEXT
  5
545
330
4DC
100
AcDbEntity
  8
0
  6
BYBLOCK
 62
     4
100
AcDbMText
 10
181.0541459496525
 20
174.2020785457109
 30
0.0
 40
3.0
 41
0.0
 71
     5
 72
     5
  1
\A1;87
1001
ACAD
1000
MTEXTBEGIN
1070
    73
1070
     1
1070
    44
1040
1.0
1070
    74
1070
     0
1000
MTEXTEND
1000
MTEXTBEGIN
1070
    73
1070
     1
1070
    44
1040
1.0
1070
    74
1070
     0
1000
MTEXTEND
1000
MTEXTBEGIN
1070
    73
1070
     1
1070
    44
1040
1.0
1070
    74
1070
     0
1000
MTEXTEND
  0
POINT
  5
546
330
4DC
100
AcDbEntity
  8
DEFPOINTS
  6
BYBLOCK
 62
     0
100
AcDbPoint
 10
224.3540459496524
 20
141.8320608271479
 30
0.0
  0
POINT
  5
547
330
4DC
100
AcDbEntity
  8
DEFPOINTS
  6
BYBLOCK
 62
     0
100
AcDbPoint
 10
137.7542459496526
 20
160.6779608271479
 30
0.0
  0
POINT
  5
548
330
4DC
100
AcDbEntity
  8
DEFPOINTS
  6
BYBLOCK
 62
     0
100
AcDbPoint
 10
137.7542459496526
 20
171.7020785457109
 30
0.0
  0
ENDBLK
  5
549
330
4DC
100
AcDbEntity
  8
0
100
AcDbBlockEnd
  0
BLOCK
  5
54A
330
4E8
100
AcDbEntity
  8
0
100
AcDbBlockBegin
  2
*D3
 70
     1
 10
0.0
 20
0.0
 30
0.0
  3
*D3
  1

  0
LINE
  5
54B
330
4E8
100
AcDbEntity
  8
0
  6
BYBLOCK
 62
     4
100
AcDbLine
 10
221.3540459496524
 20
144.177886909301
 30
0.0
 11
192.1597515880205
 21
144.177886909301
 31
0.0
  0
LINE
  5
54C
330
4E8
100
AcDbEntity
  8
0
  6
BYBLOCK
 62
     4
100
AcDbLine
 10
202.3541459496524
 20
101.177760827148
 30
0.0
 11
192.1597515880205
 21
101.177760827148
 31
0.0
  0
LINE
  5
54D
330
4E8
100
AcDbEntity
  8
0
  6
BYBLOCK
 62
     4
100
AcDbLine
 10
193.6597515880205
 20
141.177886909301
 30
0.0
 11
193.6597515880205
 21
104.177760827148
 31
0.0
  0
INSERT
  5
54E
330
4E8
100
AcDbEntity
  8
0
  6
BYBLOCK
 62
     4
100
AcDbBlockReference
  2
_OPEN
 10
193.6597515880205
 20
144.177886909301
 30
0.0
 41
3.0
 42
3.0
 43
3.0
 50
90.0
  0
INSERT
  5
54F
330
4E8
100
AcDbEntity
  8
0
  6
BYBLOCK
 62
     4
100
AcDbBlockReference
  2
_OPEN
 10
193.6597515880205
 20
101.177760827148
 30
0.0
 41
3.0
 42
3.0
 43
3.0
 50
270.0
  0
MTEXT
  5
550
330
4E8
100
AcDbEntity
  8
0
  6
BYBLOCK
 62
     4
100
AcDbMText
 10
191.1597515880205
 20
122.6778238682245
 30
0.0
 40
3.0
 41
0.0
 71
     5
 72
     5
  1
\A1;43
 11
0.0
 21
1.0
 31
0.0
1001
ACAD
1000
MTEXTBEGIN
1070
    73
1070
     1
1070
    44
1040
1.0
1070
    74
1070
     0
1000
MTEXTEND
1000
MTEXTBEGIN
1070
    73
1070
     1
1070
    44
1040
1.0
1070
    74
1070
     0
1000
MTEXTEND
1000
MTEXTBEGIN
1070
    73
1070
     1
1070
    44
1040
1.0
1070
    74
1070
     0
1000
MTEXTEND
  0
POINT
  5
551
330
4E8
100
AcDbEntity
  8
DEFPOINTS
  6
BYBLOCK
 62
     0
100
AcDbPoint
 10
224.3540459496524
 20
144.177886909301
 30
0.0
  0
POINT
  5
552
330
4E8
100
AcDbEntity
  8
DEFPOINTS
  6
BYBLOCK
 62
     0
100
AcDbPoint
 10
205.3541459496524
 20
101.177760827148
 30
0.0
  0
POINT
  5
553
330
4E8
100
AcDbEntity
  8
DEFPOINTS
  6
BYBLOCK
 62
     0
100
AcDbPoint
 10
193.6597515880205
 20
101.177760827148
 30
0.0
  0
ENDBLK
  5
554
330
4E8
100
AcDbEntity
  8
0
100
AcDbBlockEnd
  0
BLOCK
  5
555
330
4F4
100
AcDbEntity
  8
0
100
AcDbBlockBegin
  2
*D4
 70
     1
 10
0.0
 20
0.0
 30
0.0
  3
*D4
  1

  0
LINE
  5
556
330
4F4
100
AcDbEntity
  8
0
  6
BYBLOCK
 62
     4
100
AcDbLine
 10
134.7542459496526
 20
160.6779608271479
 30
0.0
 11
112.6868723970968
 21
160.6779608271479
 31
0.0
  0
LINE
  5
557
330
4F4
100
AcDbEntity
  8
0
  6
BYBLOCK
 62
     4
100
AcDbLine
 10
152.8912459496524
 20
100.3779608271478
 30
0.0
 11
112.6868723970968
 21
100.3779608271478
 31
0.0
  0
LINE
  5
558
330
4F4
100
AcDbEntity
  8
0
  6
BYBLOCK
 62
     4
100
AcDbLine
 10
114.1868723970968
 20
157.6779608271479
 30
0.0
 11
114.1868723970968
 21
103.3779608271478
 31
0.0
  0
INSERT
  5
559
330
4F4
100
AcDbEntity
  8
0
  6
BYBLOCK
 62
     4
100
AcDbBlockReference
  2
_OPEN
 10
114.1868723970968
 20
160.6779608271479
 30
0.0
 41
3.0
 42
3.0
 43
3.0
 50
90.0
  0
INSERT
  5
55A
330
4F4
100
AcDbEntity
  8
0
  6
BYBLOCK
 62
     4
100
AcDbBlockReference
  2
_OPEN
 10
114.1868723970968
 20
100.3779608271478
 30
0.0
 41
3.0
 42
3.0
 43
3.0
 50
270.0
  0
MTEXT
  5
55B
330
4F4
100
AcDbEntity
  8
0
  6
BYBLOCK
 62
     4
100
AcDbMText
 10
111.6868723970968
 20
130.5279608271479
 30
0.0
 40
3.0
 41
0.0
 71
     5
 72
     5
  1
\A1;60
 11
0.0
 21
1.0
 31
0.0
1001
ACAD
1000
MTEXTBEGIN
1070
    73
1070
     1
1070
    44
1040
1.0
1070
    74
1070
     0
1000
MTEXTEND
1000
MTEXTBEGIN
1070
    73
1070
     1
1070
    44
1040
1.0
1070
    74
1070
     0
1000
MTEXTEND
1000
MTEXTBEGIN
1070
    73
1070
     1
1070
    44
1040
1.0
1070
    74
1070
     0
1000
MTEXTEND
  0
POINT
  5
55C
330
4F4
100
AcDbEntity
  8
DEFPOINTS
  6
BYBLOCK
 62
     0
100
AcDbPoint
 10
137.7542459496526
 20
160.6779608271479
 30
0.0
  0
POINT
  5
55D
330
4F4
100
AcDbEntity
  8
DEFPOINTS
  6
BYBLOCK
 62
     0
100
AcDbPoint
 10
155.8912459496524
 20
100.3779608271478
 30
0.0
  0
POINT
  5
55E
330
4F4
100
AcDbEntity
  8
DEFPOINTS
  6
BYBLOCK
 62
     0
100
AcDbPoint
 10
114.1868723970968
 20
100.3779608271478
 30
0.0
  0
ENDBLK
  5
55F
330
4F4
100
AcDbEntity
  8
0
100
AcDbBlockEnd
  0
BLOCK
  5
560
330
500
100
AcDbEntity
  8
0
100
AcDbBlockBegin
  2
*D5
 70
     1
 10
0.0
 20
0.0
 30
0.0
  3
*D5
  1

  0
LINE
  5
561
330
500
100
AcDbEntity
  8
0
  6
BYBLOCK
 62
     4
100
AcDbLine
 10
152.0675879007397
 20
100.3779641004512
 30
0.0
 11
112.6868723970968
 21
100.3779641004512
 31
0.0
  0
LINE
  5
562
330
500
100
AcDbEntity
  8
0
  6
BYBLOCK
 62
     4
100
AcDbLine
 10
177.4602459496525
 20
72.50967312985162
 30
0.0
 11
112.6868723970968
 21
72.50967312985162
 31
0.0
  0
LINE
  5
563
330
500
100
AcDbEntity
  8
0
  6
BYBLOCK
 62
     4
100
AcDbLine
 10
114.1868723970968
 20
97.37796410045126
 30
0.0
 11
114.1868723970968
 21
75.50967312985162
 31
0.0
  0
INSERT
  5
564
330
500
100
AcDbEntity
  8
0
  6
BYBLOCK
 62
     4
100
AcDbBlockReference
  2
_OPEN
 10
114.1868723970968
 20
100.3779641004512
 30
0.0
 41
3.0
 42
3.0
 43
3.0
 50
90.0
  0
INSERT
  5
565
330
500
100
AcDbEntity
  8
0
  6
BYBLOCK
 62
     4
100
AcDbBlockReference
  2
_OPEN
 10
114.1868723970968
 20
72.50967312985162
 30
0.0
 41
3.0
 42
3.0
 43
3.0
 50
270.0
  0
MTEXT
  5
566
330
500
100
AcDbEntity
  8
0
  6
BYBLOCK
 62
     4
100
AcDbMText
 10
111.6868723970968
 20
86.44381861515142
 30
0.0
 40
3.0
 41
0.0
 71
     5
 72
     5
  1
\A1;28
 11
0.0
 21
1.0
 31
0.0
1001
ACAD
1000
MTEXTBEGIN
1070
    73
1070
     1
1070
    44
1040
1.0
1070
    74
1070
     0
1000
MTEXTEND
1000
MTEXTBEGIN
1070
    73
1070
     1
1070
    44
1040
1.0
1070
    74
1070
     0
1000
MTEXTEND
1000
MTEXTBEGIN
1070
    73
1070
     1
1070
    44
1040
1.0
1070
    74
1070
     0
1000
MTEXTEND
  0
POINT
  5
567
330
500
100
AcDbEntity
  8
DEFPOINTS
  6
BYBLOCK
 62
     0
100
AcDbPoint
 10
155.0675879007397
 20
100.3779641004512
 30
0.0
  0
POINT
  5
568
330
500
100
AcDbEntity
  8
DEFPOINTS
  6
BYBLOCK
 62
     0
100
AcDbPoint
 10
180.4602459496525
 20
72.50967312985162
 30
0.0
  0
POINT
  5
569
330
500
100
AcDbEntity
  8
DEFPOINTS
  6
BYBLOCK
 62
     0
100
AcDbPoint
 10
114.1868723970968
 20
72.50967312985162
 30
0.0
  0
ENDBLK
  5
56A
330
500
100
AcDbEntity
  8
0
100
AcDbBlockEnd
  0
BLOCK
  5
56B
330
50C
100
AcDbEntity
  8
0
100
AcDbBlockBegin
  2
*D6
 70
     1
 10
0.0
 20
0.0
 30
0.0
  3
*D6
  1

  0
LINE
  5
56C
330
50C
100
AcDbEntity
  8
0
  6
BYBLOCK
 62
     4
100
AcDbLine
 10
134.7543459496525
 20
221.1779608271478
 30
0.0
 11
112.64988680375
 21
221.1779608271478
 31
0.0
  0
LINE
  5
56D
330
50C
100
AcDbEntity
  8
0
  6
BYBLOCK
 62
     4
100
AcDbLine
 10
134.7543459496525
 20
201.1780608271479
 30
0.0
 11
112.64988680375
 21
201.1780608271479
 31
0.0
  0
LINE
  5
56E
330
50C
100
AcDbEntity
  8
0
  6
BYBLOCK
 62
     4
100
AcDbLine
 10
114.14988680375
 20
218.1779608271478
 30
0.0
 11
114.14988680375
 21
204.1780608271479
 31
0.0
  0
INSERT
  5
56F
330
50C
100
AcDbEntity
  8
0
  6
BYBLOCK
 62
     4
100
AcDbBlockReference
  2
_OPEN
 10
114.14988680375
 20
221.1779608271478
 30
0.0
 41
3.0
 42
3.0
 43
3.0
 50
90.0
  0
INSERT
  5
570
330
50C
100
AcDbEntity
  8
0
  6
BYBLOCK
 62
     4
100
AcDbBlockReference
  2
_OPEN
 10
114.14988680375
 20
201.1780608271479
 30
0.0
 41
3.0
 42
3.0
 43
3.0
 50
270.0
  0
MTEXT
  5
571
330
50C
100
AcDbEntity
  8
0
  6
BYBLOCK
 62
     4
100
AcDbMText
 10
111.64988680375
 20
211.1780108271478
 30
0.0
 40
3.0
 41
0.0
 71
     5
 72
     5
  1
\A1;20
 11
0.0
 21
1.0
 31
0.0
1001
ACAD
1000
MTEXTBEGIN
1070
    73
1070
     1
1070
    44
1040
1.0
1070
    74
1070
     0
1000
MTEXTEND
1000
MTEXTBEGIN
1070
    73
1070
     1
1070
    44
1040
1.0
1070
    74
1070
     0
1000
MTEXTEND
1000
MTEXTBEGIN
1070
    73
1070
     1
1070
    44
1040
1.0
1070
    74
1070
     0
1000
MTEXTEND
  0
POINT
  5
572
330
50C
100
AcDbEntity
  8
DEFPOINTS
  6
BYBLOCK
 62
     0
100
AcDbPoint
 10
137.7543459496525
 20
221.1779608271478
 30
0.0
  0
POINT
  5
573
330
50C
100
AcDbEntity
  8
DEFPOINTS
  6
BYBLOCK
 62
     0
100
AcDbPoint
 10
137.7543459496525
 20
201.1780608271479
 30
0.0
  0
POINT
  5
574
330
50C
100
AcDbEntity
  8
DEFPOINTS
  6
BYBLOCK
 62
     0
100
AcDbPoint
 10
114.14988680375
 20
201.1780608271479
 30
0.0
  0
ENDBLK
  5
575
330
50C
100
AcDbEntity
  8
0
100
AcDbBlockEnd
  0
BLOCK
  5
576
330
518
100
AcDbEntity
  8
0
100
AcDbBlockBegin
  2
*D7
 70
     1
 10
0.0
 20
0.0
 30
0.0
  3
*D7
  1

  0
LINE
  5
577
330
518
100
AcDbEntity
  8
0
  6
BYBLOCK
 62
     4
100
AcDbLine
 10
278.3972252807252
 20
118.4665220049767
 30
0.0
 11
311.1262510668326
 21
131.5564537643747
 31
0.0
  0
LINE
  5
578
330
518
100
AcDbEntity
  8
0
  6
BYBLOCK
 62
     4
100
AcDbLine
 10
280.7367252807252
 20
112.6170220049766
 30
0.0
 11
313.4657510668326
 21
125.7069537643746
 31
0.0
  0
LINE
  5
579
330
518
100
AcDbEntity
  8
0
  6
BYBLOCK
 62
     4
100
AcDbLine
 10
308.6194625261712
 20
133.7849086578847
 30
0.0
 11
307.5054136510461
 21
136.5703879889572
 31
0.0
  0
LINE
  5
57A
330
518
100
AcDbEntity
  8
0
  6
BYBLOCK
 62
     4
100
AcDbLine
 10
313.1870602764215
 20
122.3644499957395
 30
0.0
 11
317.2719061518802
 21
112.1510257818067
 31
0.0
  0
LINE
  5
57B
330
518
100
AcDbEntity
  8
0
  6
BYBLOCK
 62
     4
100
AcDbLine
 10
309.7335114012963
 20
130.9994293268121
 30
0.0
 11
312.0730114012963
 21
125.149929326812
 31
0.0
  0
INSERT
  5
57C
330
518
100
AcDbEntity
  8
0
  6
BYBLOCK
 62
     4
100
AcDbBlockReference
  2
_OPEN
 10
309.7335114012963
 20
130.9994293268121
 30
0.0
 41
3.0
 42
3.0
 43
3.0
 50
291.7988762551251
  0
INSERT
  5
57D
330
518
100
AcDbEntity
  8
0
  6
BYBLOCK
 62
     4
100
AcDbBlockReference
  2
_OPEN
 10
312.0730114012963
 20
125.149929326812
 30
0.0
 41
3.0
 42
3.0
 43
3.0
 50
111.7988762551251
  0
MTEXT
  5
57E
330
518
100
AcDbEntity
  8
0
  6
BYBLOCK
 62
     4
100
AcDbMText
 10
318.1077404276072
 20
116.7933722858411
 30
0.0
 40
3.0
 41
0.0
 71
     5
 72
     5
  1
\A1;6.3
 11
0.3713496250417018
 21
-0.9284931103575232
 31
0.0
1001
ACAD
1000
MTEXTBEGIN
1070
    73
1070
     1
1070
    44
1040
1.0
1070
    74
1070
     0
1000
MTEXTEND
1000
MTEXTBEGIN
1070
    73
1070
     1
1070
    44
1040
1.0
1070
    74
1070
     0
1000
MTEXTEND
1000
MTEXTBEGIN
1070
    73
1070
     1
1070
    44
1040
1.0
1070
    74
1070
     0
1000
MTEXTEND
  0
POINT
  5
57F
330
518
100
AcDbEntity
  8
DEFPOINTS
  6
BYBLOCK
 62
     0
100
AcDbPoint
 10
275.6117459496526
 20
117.3524731298516
 30
0.0
  0
POINT
  5
580
330
518
100
AcDbEntity
  8
DEFPOINTS
  6
BYBLOCK
 62
     0
100
AcDbPoint
 10
277.9512459496526
 20
111.5029731298515
 30
0.0
  0
POINT
  5
581
330
518
100
AcDbEntity
  8
DEFPOINTS
  6
BYBLOCK
 62
     0
100
AcDbPoint
 10
312.0730114012963
 20
125.149929326812
 30
0.0
  0
ENDBLK
  5
582
330
518
100
AcDbEntity
  8
0
100
AcDbBlockEnd
  0
BLOCK
  5
583
330
526
100
AcDbEntity
  8
0
100
AcDbBlockBegin
  2
*D8
 70
     1
 10
0.0
 20
0.0
 30
0.0
  3
*D8
  1

  0
LINE
  5
584
330
526
100
AcDbEntity
  8
0
  6
BYBLOCK
 62
     4
100
AcDbLine
 10
278.7089459496523
 20
213.5277772400386
 30
0.0
 11
323.4019323716286
 21
213.5277772400386
 31
0.0
  0
LINE
  5
585
330
526
100
AcDbEntity
  8
0
  6
BYBLOCK
 62
     4
100
AcDbLine
 10
278.7089459496523
 20
208.8277772400386
 30
0.0
 11
323.4019323716286
 21
208.8277772400386
 31
0.0
  0
LINE
  5
586
330
526
100
AcDbEntity
  8
0
  6
BYBLOCK
 62
     4
100
AcDbLine
 10
321.9019323716286
 20
216.5277772400386
 30
0.0
 11
321.9019323716286
 21
219.5277772400386
 31
0.0
  0
LINE
  5
587
330
526
100
AcDbEntity
  8
0
  6
BYBLOCK
 62
     4
100
AcDbLine
 10
321.9019323716286
 20
205.8277772400387
 30
0.0
 11
321.9019323716286
 21
194.8277772400387
 31
0.0
  0
LINE
  5
588
330
526
100
AcDbEntity
  8
0
  6
BYBLOCK
 62
     4
100
AcDbLine
 10
321.9019323716286
 20
213.5277772400386
 30
0.0
 11
321.9019323716286
 21
208.8277772400386
 31
0.0
  0
INSERT
  5
589
330
526
100
AcDbEntity
  8
0
  6
BYBLOCK
 62
     4
100
AcDbBlockReference
  2
_OPEN
 10
321.9019323716286
 20
213.5277772400386
 30
0.0
 41
3.0
 42
3.0
 43
3.0
 50
270.0
  0
INSERT
  5
58A
330
526
100
AcDbEntity
  8
0
  6
BYBLOCK
 62
     4
100
AcDbBlockReference
  2
_OPEN
 10
321.9019323716286
 20
208.8277772400386
 30
0.0
 41
3.0
 42
3.0
 43
3.0
 50
90.0
  0
MTEXT
  5
58B
330
526
100
AcDbEntity
  8
0
  6
BYBLOCK
 62
     4
100
AcDbMText
 10
319.4019323716286
 20
198.8277772400387
 30
0.0
 40
3.0
 41
0.0
 71
     5
 72
     5
  1
\A1;4.7
 11
0.0
 21
1.0
 31
0.0
1001
ACAD
1000
MTEXTBEGIN
1070
    73
1070
     1
1070
    44
1040
1.0
1070
    74
1070
     0
1000
MTEXTEND
1000
MTEXTBEGIN
1070
    73
1070
     1
1070
    44
1040
1.0
1070
    74
1070
     0
1000
MTEXTEND
1000
MTEXTBEGIN
1070
    73
1070
     1
1070
    44
1040
1.0
1070
    74
1070
     0
1000
MTEXTEND
  0
POINT
  5
58C
330
526
100
AcDbEntity
  8
DEFPOINTS
  6
BYBLOCK
 62
     0
100
AcDbPoint
 10
275.7089459496524
 20
213.5277772400386
 30
0.0
  0
POINT
  5
58D
330
526
100
AcDbEntity
  8
DEFPOINTS
  6
BYBLOCK
 62
     0
100
AcDbPoint
 10
275.7089459496524
 20
208.8277772400386
 30
0.0
  0
POINT
  5
58E
330
526
100
AcDbEntity
  8
DEFPOINTS
  6
BYBLOCK
 62
     0
100
AcDbPoint
 10
321.9019323716286
 20
208.8277772400386
 30
0.0
  0
ENDBLK
  5
58F
330
526
100
AcDbEntity
  8
0
100
AcDbBlockEnd
  0
ENDSEC
  0
SECTION
  2
ENTITIES
  0
POINT
  5
1A1
330
1A
100
AcDbEntity
  8
SUNPOU_L
  6
CONTINUOUS
100
AcDbPoint
 10
205.9553251990115
 20
146.5650665787895
 30
0.0
  0
POINT
  5
1A2
330
1A
100
AcDbEntity
  8
SUNPOU_L
  6
CONTINUOUS
100
AcDbPoint
 10
205.4553267650654
 20
145.6990402718312
 30
0.0
  0
LINE
  5
3C4
330
1A
100
AcDbEntity
  8
SEIHIN
  6
CONTINUOUS
 62
     3
 48
16.0
100
AcDbLine
 10
180.4602459496525
 20
72.50967312985162
 30
0.0
 11
277.9512459496527
 21
111.5029731298515
 31
0.0
  0
LINE
  5
3C5
330
1A
100
AcDbEntity
  8
SEIHIN
  6
CONTINUOUS
 62
     3
 48
16.0
100
AcDbLine
 10
178.1206459496527
 20
78.35907312985156
 30
0.0
 11
275.6117459496526
 21
117.3524731298515
 31
0.0
  0
LINE
  5
3C6
330
1A
100
AcDbEntity
  8
SEIHIN
  6
CONTINUOUS
 62
     3
 48
16.0
100
AcDbLine
 10
180.0888459496527
 20
73.43817312985155
 30
0.0
 11
277.5799459496527
 21
112.4314731298516
 31
0.0
  0
LINE
  5
3C7
330
1A
100
AcDbEntity
  8
SEIHIN
  6
CONTINUOUS
 62
     3
 48
16.0
100
AcDbLine
 10
178.4919459496528
 20
77.43057312985164
 30
0.0
 11
275.9830459496527
 21
116.4240731298516
 31
0.0
  0
DIMENSION
  5
3C8
330
1A
100
AcDbEntity
  8
SUNPOU
  6
CONTINUOUS
 62
     4
100
AcDbDimension
  2
*D1
 10
186.5711447003205
 20
57.23106838914592
 30
0.0
 11
241.3518798758489
 21
81.83423258485209
 31
0.0
 70
    33
  3
STANDARD
100
AcDbAlignedDimension
 13
290.7086958869058
 23
119.9982367070921
 33
0.0
 14
179.2903951632363
 24
75.43434097187854
 34
0.0
1001
ACAD
1000
DSTYLE
1002
{
1070
   140
1040
3.0
1070
    74
1070
     0
1070
   172
1070
     1
1070
    73
1070
     0
1070
   272
1070
     2
1070
    77
1070
     3
1070
   173
1070
     1
1070
   147
1040
1.0
1070
    42
1040
3.0
1070
    44
1040
1.5
1070
    43
1040
7.0
1070
   271
1070
     0
1070
   178
1070
     4
1070
   177
1070
     4
1070
   176
1070
     4
1070
   141
1040
150.0
1070
     7
1000
_OPEN
1070
     6
1000
_OPEN
1070
    41
1040
3.0
1002
}
  0
ARC
  5
3C9
330
1A
100
AcDbEntity
  8
SEIHIN
  6
CONTINUOUS
 62
     3
 48
16.0
100
AcDbCircle
 10
219.2969993857658
 20
215.4278608366633
 30
0.0
 40
2.263587590040538
100
AcDbArc
 50
83.71901391138047
 51
96.30407991321508
  0
LINE
  5
3CA
330
1A
100
AcDbEntity
  8
SEIHIN
  6
CONTINUOUS
 62
     3
 48
16.0
100
AcDbLine
 10
213.4544459496524
 20
220.1779608271479
 30
0.0
 11
223.5544459496525
 21
220.1778608271477
 31
0.0
  0
LINE
  5
3CB
330
1A
100
AcDbEntity
  8
SEIHIN
  6
CONTINUOUS
 62
     3
 48
16.0
100
AcDbLine
 10
218.8545459496525
 20
217.6778608271479
 30
0.0
 11
224.3543459496525
 21
217.6778608271479
 31
0.0
  0
ARC
  5
3CC
330
1A
100
AcDbEntity
  8
SEIHIN
  6
CONTINUOUS
 62
     3
 48
16.0
100
AcDbCircle
 10
219.2970543065208
 20
206.9280607885579
 30
0.0
 40
2.263593592378674
100
AcDbArc
 50
263.6945382651647
 51
276.2591995011374
  0
LINE
  5
3CD
330
1A
100
AcDbEntity
  8
SEIHIN
  6
CONTINUOUS
 62
     3
 48
16.0
100
AcDbLine
 10
213.4544459496524
 20
202.1779608271478
 30
0.0
 11
223.5543459496525
 21
202.1779608271478
 31
0.0
  0
LINE
  5
3CE
330
1A
100
AcDbEntity
  8
SEIHIN
  6
CONTINUOUS
 62
     3
 48
16.0
100
AcDbLine
 10
218.8545459496525
 20
204.6779608271478
 30
0.0
 11
224.3543459496525
 21
204.6779608271478
 31
0.0
  0
LINE
  5
3CF
330
1A
100
AcDbEntity
  8
NOKITOI
  6
PHANTOM
 62
     8
 48
5.0
100
AcDbLine
 10
223.5541459496526
 20
141.1777608271478
 30
0.0
 11
218.6557459496525
 21
141.1777608271478
 31
0.0
  0
LINE
  5
3D0
330
1A
100
AcDbEntity
  8
SEIHIN
  6
CONTINUOUS
 62
     3
 48
16.0
100
AcDbLine
 10
222.2953459496524
 20
142.7980608271479
 30
0.0
 11
217.3167459496526
 21
141.4640608271479
 31
0.0
  0
LINE
  5
3D1
330
1A
100
AcDbEntity
  8
SEIHIN
  6
CONTINUOUS
 62
     3
 48
16.0
100
AcDbLine
 10
222.0882459496524
 20
143.5707608271478
 30
0.0
 11
217.1097459496524
 21
142.2367608271479
 31
0.0
  0
LINE
  5
3D2
330
1A
100
AcDbEntity
  8
NOKITOI
  6
PHANTOM
 62
     8
 48
5.0
100
AcDbLine
 10
219.6378459496524
 20
139.9777608271479
 30
0.0
 11
218.6990459496525
 21
135.377760827148
 31
0.0
  0
LINE
  5
3D3
330
1A
100
AcDbEntity
  8
NOKITOI
  6
PHANTOM
 62
     8
 48
5.0
100
AcDbLine
 10
218.6990459496525
 20
135.377760827148
 30
0.0
 11
222.3541459496524
 21
135.377760827148
 31
0.0
  0
LINE
  5
3D4
330
1A
100
AcDbEntity
  8
NOKITOI
  6
PHANTOM
 62
     8
 48
5.0
100
AcDbLine
 10
223.5541459496526
 20
134.1777608271478
 30
0.0
 11
218.4541459496525
 21
134.1777608271478
 31
0.0
  0
LINE
  5
3D5
330
1A
100
AcDbEntity
  8
SEIHIN
  6
CONTINUOUS
 62
     3
 48
16.0
100
AcDbLine
 10
223.3540459496524
 20
131.8778608271479
 30
0.0
 11
219.2095459496524
 21
131.8778608271479
 31
0.0
  0
LINE
  5
3D6
330
1A
100
AcDbEntity
  8
SEIHIN
  6
CONTINUOUS
 62
     3
 48
16.0
100
AcDbLine
 10
218.5563459496526
 20
132.6779608271479
 30
0.0
 11
223.0541459496524
 21
132.6779608271479
 31
0.0
  0
LINE
  5
3D7
330
1A
100
AcDbEntity
  8
SEIHIN
  6
CONTINUOUS
 62
     3
 48
16.0
100
AcDbLine
 10
216.7743459496524
 20
108.4432608271479
 30
0.0
 11
221.5569459496524
 21
131.8778608271479
 31
0.0
  0
LINE
  5
3D8
330
1A
100
AcDbEntity
  8
SEIHIN
  6
CONTINUOUS
 62
     3
 48
16.0
100
AcDbLine
 10
222.8620459496525
 20
142.783560827148
 30
0.0
 11
217.4873459496524
 21
140.827260827148
 31
0.0
  0
LINE
  5
3D9
330
1A
100
AcDbEntity
  8
CENTER_L
  6
CENTER
 62
     1
 48
5.0
100
AcDbLine
 10
173.0487459496525
 20
72.93786082714799
 30
0.0
 11
297.7087735796185
 21
122.7982319046068
 31
0.0
  0
DIMENSION
  5
3DA
330
1A
100
AcDbEntity
  8
SUNPOU
100
AcDbDimension
  2
*D2
 10
137.7542459496526
 20
171.7020785457109
 30
0.0
 11
181.0541459496525
 21
174.2020785457109
 31
0.0
 70
    32
  3
STANDARD
100
AcDbAlignedDimension
 13
224.3540459496524
 23
141.8320608271479
 33
0.0
 14
137.7542459496526
 24
160.6779608271479
 34
0.0
100
AcDbRotatedDimension
1001
ACAD
1000
DSTYLE
1002
{
1070
   140
1040
3.0
1070
    74
1070
     0
1070
   172
1070
     1
1070
    73
1070
     0
1070
   272
1070
     2
1070
    77
1070
     3
1070
   173
1070
     1
1070
   147
1040
1.0
1070
    42
1040
3.0
1070
    44
1040
1.5
1070
    43
1040
7.0
1070
   271
1070
     0
1070
   178
1070
     4
1070
   177
1070
     4
1070
   176
1070
     4
1070
   141
1040
150.0
1070
     7
1000
_OPEN
1070
     6
1000
_OPEN
1070
    41
1040
3.0
1002
}
  0
DIMENSION
  5
3DB
330
1A
100
AcDbEntity
  8
SUNPOU
100
AcDbDimension
  2
*D3
 10
193.6597515880205
 20
101.177760827148
 30
0.0
 11
191.1597515880205
 21
122.6778238682245
 31
0.0
 70
    32
  3
STANDARD
100
AcDbAlignedDimension
 13
224.3540459496524
 23
144.177886909301
 33
0.0
 14
205.3541459496524
 24
101.177760827148
 34
0.0
 50
90.0
100
AcDbRotatedDimension
1001
ACAD
1000
DSTYLE
1002
{
1070
   140
1040
3.0
1070
    74
1070
     0
1070
   172
1070
     1
1070
    73
1070
     0
1070
   272
1070
     2
1070
    77
1070
     3
1070
   173
1070
     1
1070
   147
1040
1.0
1070
    42
1040
3.0
1070
    44
1040
1.5
1070
    43
1040
7.0
1070
   271
1070
     0
1070
   178
1070
     4
1070
   177
1070
     4
1070
   176
1070
     4
1070
   141
1040
150.0
1070
     7
1000
_OPEN
1070
     6
1000
_OPEN
1070
    41
1040
3.0
1002
}
  0
LINE
  5
3DC
330
1A
100
AcDbEntity
  8
CENTER_L
  6
CENTER
 62
     1
 48
5.0
100
AcDbLine
 10
130.7543459496525
 20
211.1780368999751
 30
0.0
 11
297.7088917456407
 21
211.1778136769845
 31
0.0
  0
LINE
  5
3DD
330
1A
100
AcDbEntity
  8
SEIHIN
  6
CONTINUOUS
 62
     3
 48
16.0
100
AcDbLine
 10
77.55419594965258
 20
143.678060827148
 30
0.0
 11
77.55419594965258
 21
159.678060827148
 31
0.0
  0
LINE
  5
3DE
330
1A
100
AcDbEntity
  8
SEIHIN
  6
CONTINUOUS
 62
     3
 48
16.0
100
AcDbLine
 10
64.55419594965253
 20
143.678060827148
 30
0.0
 11
64.55419594965253
 21
159.6781608271479
 31
0.0
  0
LINE
  5
3DF
330
1A
100
AcDbEntity
  8
SEIHIN
  6
CONTINUOUS
 62
     3
 48
16.0
100
AcDbLine
 10
138.5541459496525
 20
133.1779608271479
 30
0.0
 11
138.5542459496524
 21
160.6779608271479
 31
0.0
  0
LINE
  5
3E0
330
1A
100
AcDbEntity
  8
SEIHIN
  6
CONTINUOUS
 62
     3
 48
16.0
100
AcDbLine
 10
137.7542459496526
 20
132.8779608271478
 30
0.0
 11
137.7542459496526
 21
160.6779608271479
 31
0.0
  0
LINE
  5
3E1
330
1A
100
AcDbEntity
  8
CENTER_L
  6
CENTER
 62
     1
 48
5.0
100
AcDbLine
 10
71.05414594965259
 20
69.23926082714799
 30
0.0
 11
71.05414594965259
 21
167.678060827148
 31
0.0
  0
LINE
  5
3E2
330
1A
100
AcDbEntity
  8
SEIHIN
  6
CONTINUOUS
 62
     3
 48
16.0
100
AcDbLine
 10
61.05419594965261
 20
160.678060827148
 30
0.0
 11
61.05419594965261
 21
131.878060827148
 31
0.0
  0
LINE
  5
3E3
330
1A
100
AcDbEntity
  8
SEIHIN
  6
CONTINUOUS
 62
     3
 48
16.0
100
AcDbLine
 10
81.05419594965253
 20
160.678060827148
 30
0.0
 11
81.05419594965253
 21
131.878060827148
 31
0.0
  0
DIMENSION
  5
3E4
330
1A
100
AcDbEntity
  8
SUNPOU
100
AcDbDimension
  2
*D4
 10
114.1868723970968
 20
100.3779608271478
 30
0.0
 11
111.6868723970968
 21
130.5279608271479
 31
0.0
 70
    32
  3
STANDARD
100
AcDbAlignedDimension
 13
137.7542459496526
 23
160.6779608271479
 33
0.0
 14
155.8912459496524
 24
100.3779608271478
 34
0.0
 50
90.0
100
AcDbRotatedDimension
1001
ACAD
1000
DSTYLE
1002
{
1070
   140
1040
3.0
1070
    74
1070
     0
1070
   172
1070
     1
1070
    73
1070
     0
1070
   272
1070
     2
1070
    77
1070
     3
1070
   173
1070
     1
1070
   147
1040
1.0
1070
    42
1040
3.0
1070
    44
1040
1.5
1070
    43
1040
7.0
1070
   271
1070
     0
1070
   178
1070
     4
1070
   177
1070
     4
1070
   176
1070
     4
1070
   141
1040
150.0
1070
     7
1000
_OPEN
1070
     6
1000
_OPEN
1070
    41
1040
3.0
1002
}
  0
ARC
  5
3E5
330
1A
100
AcDbEntity
  8
SEIHIN
  6
CONTINUOUS
 62
     3
 48
16.0
100
AcDbCircle
 10
75.30419594965258
 20
99.96516082714805
 30
0.0
 40
2.287572164981906
100
AcDbArc
 50
169.6012878060621
 51
10.39871219393784
  0
ARC
  5
3E6
330
1A
100
AcDbEntity
  8
SEIHIN
  6
CONTINUOUS
 62
     3
 48
16.0
100
AcDbCircle
 10
66.80419594965258
 20
99.96516082714805
 30
0.0
 40
2.287572164981949
100
AcDbArc
 50
169.6012878060621
 51
10.39871219393784
  0
LINE
  5
3E7
330
1A
100
AcDbEntity
  8
SEIHIN
  6
CONTINUOUS
 62
     3
 48
16.0
100
AcDbLine
 10
73.05419594965258
 20
100.378060827148
 30
0.0
 11
73.05409594965261
 21
131.878060827148
 31
0.0
  0
LINE
  5
3E8
330
1A
100
AcDbEntity
  8
SEIHIN
  6
CONTINUOUS
 62
     3
 48
16.0
100
AcDbLine
 10
62.05419594965253
 20
100.378060827148
 30
0.0
 11
62.05419594965253
 21
131.878060827148
 31
0.0
  0
LINE
  5
3E9
330
1A
100
AcDbEntity
  8
SEIHIN
  6
CONTINUOUS
 62
     3
 48
16.0
100
AcDbLine
 10
69.05419594965258
 20
100.378060827148
 30
0.0
 11
69.05419594965258
 21
131.878060827148
 31
0.0
  0
LINE
  5
3EA
330
1A
100
AcDbEntity
  8
SEIHIN
  6
CONTINUOUS
 62
     3
 48
16.0
100
AcDbLine
 10
64.55419594965253
 20
131.878060827148
 30
0.0
 11
64.55419594965253
 21
100.378060827148
 31
0.0
  0
LINE
  5
3EB
330
1A
100
AcDbEntity
  8
SEIHIN
  6
CONTINUOUS
 62
     3
 48
16.0
100
AcDbLine
 10
80.05419594965259
 20
100.378060827148
 30
0.0
 11
80.05419594965259
 21
131.878060827148
 31
0.0
  0
LINE
  5
3EC
330
1A
100
AcDbEntity
  8
SEIHIN
  6
CONTINUOUS
 62
     3
 48
16.0
100
AcDbLine
 10
77.55409594965255
 20
131.878060827148
 30
0.0
 11
77.55409594965255
 21
100.378060827148
 31
0.0
  0
LINE
  5
3ED
330
1A
100
AcDbEntity
  8
SEIHIN
  6
CONTINUOUS
 62
     3
 48
16.0
100
AcDbLine
 10
73.40414594965261
 20
73.17796082714789
 30
0.0
 11
73.40414594965261
 21
92.67806082714797
 31
0.0
  0
LINE
  5
3EE
330
1A
100
AcDbEntity
  8
SEIHIN
  6
CONTINUOUS
 62
     3
 48
16.0
100
AcDbLine
 10
68.70404594965259
 20
73.17796082714789
 30
0.0
 11
68.70404594965259
 21
92.67806082714797
 31
0.0
  0
LINE
  5
3EF
330
1A
100
AcDbEntity
  8
SEIHIN
  6
CONTINUOUS
 62
     3
 48
16.0
100
AcDbLine
 10
68.70404594965259
 20
73.17806082714795
 30
0.0
 11
73.40414594965261
 21
73.17806082714797
 31
0.0
  0
LINE
  5
3F0
330
1A
100
AcDbEntity
  8
SEIHIN
  6
CONTINUOUS
 62
     3
 48
16.0
100
AcDbLine
 10
73.05419594965275
 20
100.378060827148
 30
0.0
 11
69.05419594965258
 21
100.378060827148
 31
0.0
  0
LINE
  5
3F1
330
1A
100
AcDbEntity
  8
SEIHIN
  6
CONTINUOUS
 62
     3
 48
16.0
100
AcDbLine
 10
76.05419594965258
 20
96.67806082714797
 30
0.0
 11
66.05409594965255
 21
96.67806082714797
 31
0.0
  0
LINE
  5
3F2
330
1A
100
AcDbEntity
  8
SEIHIN
  6
CONTINUOUS
 62
     3
 48
16.0
100
AcDbLine
 10
76.05419594965258
 20
97.67864906244215
 30
0.0
 11
66.80419594965258
 21
97.67756082714804
 31
0.0
  0
LINE
  5
3F3
330
1A
100
AcDbEntity
  8
SEIHIN
  6
CONTINUOUS
 62
     3
 48
16.0
100
AcDbLine
 10
73.4041959496526
 20
92.67806082714797
 30
0.0
 11
68.70409594965258
 21
92.67806082714797
 31
0.0
  0
LINE
  5
3F4
330
1A
100
AcDbEntity
  8
SEIHIN
  6
CONTINUOUS
 62
     3
 48
16.0
100
AcDbLine
 10
64.55419594965253
 20
100.378060827148
 30
0.0
 11
62.05419594965253
 21
100.378060827148
 31
0.0
  0
LINE
  5
3F5
330
1A
100
AcDbEntity
  8
SEIHIN
  6
CONTINUOUS
 62
     3
 48
16.0
100
AcDbLine
 10
66.05409594965255
 20
96.67806082714797
 30
0.0
 11
68.70409594965258
 21
92.67806082714797
 31
0.0
  0
LINE
  5
3F6
330
1A
100
AcDbEntity
  8
SEIHIN
  6
CONTINUOUS
 62
     3
 48
16.0
100
AcDbLine
 10
66.05409594965255
 20
96.67806082714797
 30
0.0
 11
66.05409594965255
 21
97.67806082714804
 31
0.0
  0
LINE
  5
3F7
330
1A
100
AcDbEntity
  8
SEIHIN
  6
CONTINUOUS
 62
     3
 48
16.0
100
AcDbLine
 10
77.55409594965255
 20
100.378060827148
 30
0.0
 11
80.05419594965259
 21
100.378060827148
 31
0.0
  0
LINE
  5
3F8
330
1A
100
AcDbEntity
  8
SEIHIN
  6
CONTINUOUS
 62
     3
 48
16.0
100
AcDbLine
 10
76.05419594965258
 20
96.67806082714797
 30
0.0
 11
73.4041959496526
 21
92.67806082714797
 31
0.0
  0
LINE
  5
3F9
330
1A
100
AcDbEntity
  8
SEIHIN
  6
CONTINUOUS
 62
     3
 48
16.0
100
AcDbLine
 10
76.05419594965258
 20
96.67806082714797
 30
0.0
 11
76.05419594965258
 21
97.67806082714804
 31
0.0
  0
LINE
  5
3FA
330
1A
100
AcDbEntity
  8
SEIHIN
  6
CONTINUOUS
 62
     3
 48
16.0
100
AcDbLine
 10
69.05419594965258
 20
107.760760827148
 30
0.0
 11
73.05417251250972
 21
107.760760827148
 31
0.0
  0
LINE
  5
3FB
330
1A
100
AcDbEntity
  8
SEIHIN
  6
CONTINUOUS
 62
     3
 48
16.0
100
AcDbLine
 10
62.05419594965253
 20
107.760760827148
 30
0.0
 11
64.55419594965253
 21
107.760760827148
 31
0.0
  0
ARC
  5
3FC
330
1A
100
AcDbEntity
  8
SEIHIN
100
AcDbCircle
 10
66.80424594965259
 20
108.0263295777548
 30
0.0
 40
2.265568750622844
100
AcDbArc
 50
186.731656852122
 51
353.268343147878
  0
LINE
  5
3FD
330
1A
100
AcDbEntity
  8
SEIHIN
  6
CONTINUOUS
 62
     3
 48
16.0
100
AcDbLine
 10
80.05419594965259
 20
107.760760827148
 30
0.0
 11
77.55409594965255
 21
107.760760827148
 31
0.0
  0
ARC
  5
3FE
330
1A
100
AcDbEntity
  8
SEIHIN
100
AcDbCircle
 10
75.30414594965257
 20
108.0263295777548
 30
0.0
 40
2.265568750622844
100
AcDbArc
 50
186.731656852122
 51
353.268343147878
  0
LINE
  5
3FF
330
1A
100
AcDbEntity
  8
SEIHIN
  6
CONTINUOUS
 62
     3
 48
16.0
100
AcDbLine
 10
75.55419594965258
 20
141.678060827148
 30
0.0
 11
66.55419594965252
 21
141.678060827148
 31
0.0
  0
LINE
  5
400
330
1A
100
AcDbEntity
  8
SEIHIN
  6
CONTINUOUS
 62
     3
 48
16.0
100
AcDbLine
 10
64.55419594965253
 20
144.178160827148
 30
0.0
 11
77.55419594965258
 21
144.178160827148
 31
0.0
  0
ARC
  5
401
330
1A
100
AcDbEntity
  8
SEIHIN
  6
CONTINUOUS
 62
     3
 48
16.0
100
AcDbCircle
 10
71.05419594965252
 20
136.5119608271479
 30
0.0
 40
1.0
100
AcDbArc
 50
180.0
 51
0.0
  0
ARC
  5
402
330
1A
100
AcDbEntity
  8
SEIHIN
  6
CONTINUOUS
 62
     3
 48
16.0
100
AcDbCircle
 10
71.05419594965252
 20
136.5119608271479
 30
0.0
 40
1.0
100
AcDbArc
 50
0.0
 51
180.0
  0
LINE
  5
403
330
1A
100
AcDbEntity
  8
SEIHIN
  6
CONTINUOUS
 62
     3
 48
16.0
100
AcDbLine
 10
81.05419594965253
 20
131.878060827148
 30
0.0
 11
61.05419594965261
 21
131.878060827148
 31
0.0
  0
ARC
  5
404
330
1A
100
AcDbEntity
  8
SEIHIN
  6
CONTINUOUS
 62
     3
 48
16.0
100
AcDbCircle
 10
68.45460431622189
 20
135.710876918176
 30
0.0
 40
0.2999810411755784
100
AcDbArc
 50
293.2034348480818
 51
11.84663221983273
  0
ARC
  5
405
330
1A
100
AcDbEntity
  8
SEIHIN
  6
CONTINUOUS
 62
     3
 48
16.0
100
AcDbCircle
 10
65.31737704550852
 20
134.9099339760647
 30
0.0
 40
0.8000335429435061
100
AcDbArc
 50
95.4425364140595
 51
194.2605117095231
  0
LINE
  5
406
330
1A
100
AcDbEntity
  8
SEIHIN
  6
CONTINUOUS
 62
     3
 48
16.0
100
AcDbLine
 10
65.24149594965251
 20
135.706360827148
 30
0.0
 11
68.42609594965262
 21
136.009560827148
 31
0.0
  0
LINE
  5
407
330
1A
100
AcDbEntity
  8
SEIHIN
  6
CONTINUOUS
 62
     3
 48
16.0
100
AcDbLine
 10
65.63259594965263
 20
134.174660827148
 30
0.0
 11
68.57279594965257
 21
135.435160827148
 31
0.0
  0
ARC
  5
408
330
1A
100
AcDbEntity
  8
SEIHIN
  6
CONTINUOUS
 62
     3
 48
16.0
100
AcDbCircle
 10
65.31736776824499
 20
134.9099747352804
 30
0.0
 40
0.8000345929061422
100
AcDbArc
 50
194.2635044630389
 51
293.2047550821392
  0
ARC
  5
409
330
1A
100
AcDbEntity
  8
SEIHIN
  6
CONTINUOUS
 62
     3
 48
16.0
100
AcDbCircle
 10
66.55419594965252
 20
143.678060827148
 30
0.0
 40
2.0
100
AcDbArc
 50
180.0
 51
270.0
  0
LINE
  5
40A
330
1A
100
AcDbEntity
  8
SEIHIN
  6
CONTINUOUS
 62
     3
 48
16.0
100
AcDbLine
 10
65.69099594965257
 20
140.383760827148
 30
0.0
 11
68.75319594965254
 21
138.3643608271479
 31
0.0
  0
LINE
  5
40B
330
1A
100
AcDbEntity
  8
SEIHIN
  6
CONTINUOUS
 62
     3
 48
16.0
100
AcDbLine
 10
65.00499594965265
 20
138.954560827148
 30
0.0
 11
68.49599594965264
 21
137.8283608271479
 31
0.0
  0
ARC
  5
40C
330
1A
100
AcDbEntity
  8
SEIHIN
  6
CONTINUOUS
 62
     3
 48
16.0
100
AcDbCircle
 10
65.25059562411195
 20
139.7158617564165
 30
0.0
 40
0.7999364380997652
100
AcDbArc
 50
146.4927361374526
 51
252.1200266769127
  0
ARC
  5
40D
330
1A
100
AcDbEntity
  8
SEIHIN
  6
CONTINUOUS
 62
     3
 48
16.0
100
AcDbCircle
 10
65.25069610398083
 20
139.7158812826561
 30
0.0
 40
0.8000094437057423
100
AcDbArc
 50
56.59913740782207
 51
146.4978748253907
  0
ARC
  5
40E
330
1A
100
AcDbEntity
  8
SEIHIN
  6
CONTINUOUS
 62
     3
 48
16.0
100
AcDbCircle
 10
68.58811661690731
 20
138.1138696671761
 30
0.0
 40
0.3000025251054579
100
AcDbArc
 50
252.1174788821403
 51
334.1918515621244
  0
ARC
  5
40F
330
1A
100
AcDbEntity
  8
SEIHIN
  6
CONTINUOUS
 62
     3
 48
16.0
100
AcDbCircle
 10
68.45455726561846
 20
135.7108892956111
 30
0.0
 40
0.3000245494240687
100
AcDbArc
 50
11.8424742334153
 51
95.4434513951937
  0
ARC
  5
410
330
1A
100
AcDbEntity
  8
SEIHIN
  6
CONTINUOUS
 62
     3
 48
16.0
100
AcDbCircle
 10
68.58809665853994
 20
138.113858254157
 30
0.0
 40
0.3000155245999041
100
AcDbArc
 50
334.1954731758403
 51
56.61223227605979
  0
ARC
  5
411
330
1A
100
AcDbEntity
  8
SEIHIN
  6
CONTINUOUS
 62
     3
 48
16.0
100
AcDbCircle
 10
76.79098171137417
 20
134.9099810489137
 30
0.0
 40
0.799980343449913
100
AcDbArc
 50
345.7350412097582
 51
84.56191066667004
  0
ARC
  5
412
330
1A
100
AcDbEntity
  8
SEIHIN
  6
CONTINUOUS
 62
     3
 48
16.0
100
AcDbCircle
 10
73.65375195328534
 20
135.7109454362128
 30
0.0
 40
0.3000299848206265
100
AcDbArc
 50
168.1686973337289
 51
246.8079742114879
  0
LINE
  5
413
330
1A
100
AcDbEntity
  8
SEIHIN
  6
CONTINUOUS
 62
     3
 48
16.0
100
AcDbLine
 10
76.86679594965255
 20
135.706360827148
 30
0.0
 11
73.68219594965262
 21
136.009560827148
 31
0.0
  0
LINE
  5
414
330
1A
100
AcDbEntity
  8
SEIHIN
  6
CONTINUOUS
 62
     3
 48
16.0
100
AcDbLine
 10
76.47579594965259
 20
134.174660827148
 30
0.0
 11
73.53559594965259
 21
135.435160827148
 31
0.0
  0
ARC
  5
415
330
1A
100
AcDbEntity
  8
SEIHIN
  6
CONTINUOUS
 62
     3
 48
16.0
100
AcDbCircle
 10
76.79096695849199
 20
134.9099465199401
 30
0.0
 40
0.7999861341533095
100
AcDbArc
 50
246.7982121817283
 51
345.737698314064
  0
ARC
  5
416
330
1A
100
AcDbEntity
  8
SEIHIN
  6
CONTINUOUS
 62
     3
 48
16.0
100
AcDbCircle
 10
75.55419594965258
 20
143.678060827148
 30
0.0
 40
2.0
100
AcDbArc
 50
270.0
 51
0.0
  0
LINE
  5
417
330
1A
100
AcDbEntity
  8
SEIHIN
  6
CONTINUOUS
 62
     3
 48
16.0
100
AcDbLine
 10
77.10329594965265
 20
138.954560827148
 30
0.0
 11
73.61239594965264
 21
137.8283608271479
 31
0.0
  0
LINE
  5
418
330
1A
100
AcDbEntity
  8
SEIHIN
  6
CONTINUOUS
 62
     3
 48
16.0
100
AcDbLine
 10
76.4172959496525
 20
140.383760827148
 30
0.0
 11
73.35509594965265
 21
138.3643608271479
 31
0.0
  0
ARC
  5
419
330
1A
100
AcDbEntity
  8
SEIHIN
  6
CONTINUOUS
 62
     3
 48
16.0
100
AcDbCircle
 10
73.52030575069512
 20
138.113856633197
 30
0.0
 40
0.2999807660761266
100
AcDbArc
 50
205.7861790119682
 51
287.8777473054459
  0
ARC
  5
41A
330
1A
100
AcDbEntity
  8
SEIHIN
  6
CONTINUOUS
 62
     3
 48
16.0
100
AcDbCircle
 10
73.65376977482822
 20
135.7108415564223
 30
0.0
 40
0.300068742320863
100
AcDbArc
 50
84.56409299043707
 51
168.1499813809538
  0
ARC
  5
41B
330
1A
100
AcDbEntity
  8
SEIHIN
  6
CONTINUOUS
 62
     3
 48
16.0
100
AcDbCircle
 10
73.52031511649261
 20
138.1139303924982
 30
0.0
 40
0.3000212920612555
100
AcDbArc
 50
123.4144637516614
 51
205.7980843013433
  0
ARC
  5
41C
330
1A
100
AcDbEntity
  8
SEIHIN
  6
CONTINUOUS
 62
     3
 48
16.0
100
AcDbCircle
 10
76.85771357941138
 20
139.7159111464236
 30
0.0
 40
0.799978130472554
100
AcDbArc
 50
287.8777077593881
 51
33.50104468163908
  0
ARC
  5
41D
330
1A
100
AcDbEntity
  8
SEIHIN
  6
CONTINUOUS
 62
     3
 48
16.0
100
AcDbCircle
 10
76.8576917892695
 20
139.7158616772398
 30
0.0
 40
0.8000236059017472
100
AcDbArc
 50
33.50313763733201
 51
123.3998501294571
  0
DIMENSION
  5
41E
330
1A
100
AcDbEntity
  8
SUNPOU
100
AcDbDimension
  2
*D5
 10
114.1868723970968
 20
72.50967312985162
 30
0.0
 11
111.6868723970968
 21
86.44381861515142
 31
0.0
 70
    32
  3
STANDARD
100
AcDbAlignedDimension
 13
155.0675879007397
 23
100.3779641004512
 33
0.0
 14
180.4602459496525
 24
72.50967312985162
 34
0.0
 50
90.0
100
AcDbRotatedDimension
1001
ACAD
1000
DSTYLE
1002
{
1070
   140
1040
3.0
1070
    74
1070
     0
1070
   172
1070
     1
1070
    73
1070
     0
1070
   272
1070
     2
1070
    77
1070
     3
1070
   173
1070
     1
1070
   147
1040
1.0
1070
    42
1040
3.0
1070
    44
1040
1.5
1070
    43
1040
7.0
1070
   271
1070
     0
1070
   178
1070
     4
1070
   177
1070
     4
1070
   176
1070
     4
1070
   141
1040
150.0
1070
     7
1000
_OPEN
1070
     6
1000
_OPEN
1070
    41
1040
3.0
1002
}
  0
ARC
  5
41F
330
1A
100
AcDbEntity
  8
NOKITOI
  6
PHANTOM
 62
     8
 48
5.0
100
AcDbCircle
 10
145.9698041626763
 20
99.01048482203698
 30
0.0
 40
12.19997945109428
100
AcDbArc
 50
48.00719042627341
 51
72.26181654227993
  0
ARC
  5
420
330
1A
100
AcDbEntity
  8
SEIHIN
  6
CONTINUOUS
 62
     3
 48
16.0
100
AcDbCircle
 10
156.5039440069893
 20
102.1779622715917
 30
0.0
 40
4.500001444444297
100
AcDbArc
 50
196.7356113084857
 51
270.0000247347468
  0
ARC
  5
421
330
1A
100
AcDbEntity
  8
NOKITOI
  6
PHANTOM
 62
     8
 48
5.0
100
AcDbCircle
 10
145.9698418367825
 20
99.01046514311882
 30
0.0
 40
10.99994632941524
100
AcDbArc
 50
11.36374015671925
 51
75.87555169639184
  0
ARC
  5
422
330
1A
100
AcDbEntity
  8
SEIHIN
  6
CONTINUOUS
 62
     3
 48
16.0
100
AcDbCircle
 10
145.9698267363411
 20
99.01058148904681
 30
0.0
 40
9.199945293881421
100
AcDbArc
 50
13.42056006984956
 51
72.41807934622672
  0
ARC
  5
423
330
1A
100
AcDbEntity
  8
SEIHIN
  6
CONTINUOUS
 62
     3
 48
16.0
100
AcDbCircle
 10
145.9698461045625
 20
99.01056066151474
 30
0.0
 40
9.999963980685205
100
AcDbArc
 50
14.71676328417721
 51
71.45126755184699
  0
ARC
  5
424
330
1A
100
AcDbEntity
  8
SEIHIN
  6
CONTINUOUS
 62
     3
 48
16.0
100
AcDbCircle
 10
145.9698641716748
 20
99.01054151533918
 30
0.0
 40
6.499970929582921
100
AcDbArc
 50
16.73482970711813
 51
69.93938296814767
  0
LINE
  5
425
330
1A
100
AcDbEntity
  8
SEIHIN
  6
CONTINUOUS
 62
     3
 48
16.0
100
AcDbLine
 10
145.3339459496524
 20
108.4432608271479
 30
0.0
 11
140.5514459496525
 21
131.8779608271478
 31
0.0
  0
LINE
  5
426
330
1A
100
AcDbEntity
  8
NOKITOI
  6
PHANTOM
 62
     8
 48
5.0
100
AcDbLine
 10
143.6542459496525
 20
134.177860827148
 30
0.0
 11
148.6541459496526
 21
109.677860827148
 31
0.0
  0
LINE
  5
427
330
1A
100
AcDbEntity
  8
SEIHIN
  6
CONTINUOUS
 62
     3
 48
16.0
100
AcDbLine
 10
144.0419459496525
 20
132.2779608271479
 30
0.0
 11
148.8200459496525
 21
108.8651608271479
 31
0.0
  0
LINE
  5
428
330
1A
100
AcDbEntity
  8
SEIHIN
  6
CONTINUOUS
 62
     3
 48
16.0
100
AcDbLine
 10
148.0711459496525
 20
108.5340608271479
 30
0.0
 11
143.3887459496524
 21
131.4779608271479
 31
0.0
  0
LINE
  5
429
330
1A
100
AcDbEntity
  8
NOKITOI
  6
PHANTOM
 62
     8
 48
5.0
100
AcDbLine
 10
143.4526459496525
 20
141.177860827148
 30
0.0
 11
149.6867459496525
 21
110.6304608271479
 31
0.0
  0
ARC
  5
42A
330
1A
100
AcDbEntity
  8
SEIHIN
  6
CONTINUOUS
 62
     3
 48
16.0
100
AcDbCircle
 10
149.7431378090437
 20
109.3430702794939
 30
0.0
 40
4.499972008255389
100
AcDbArc
 50
191.5345556217938
 51
249.9375131742009
  0
ARC
  5
42B
330
1A
100
AcDbEntity
  8
SEIHIN
  6
CONTINUOUS
 62
     3
 48
16.0
100
AcDbCircle
 10
149.309929355431
 20
108.9650795894362
 30
0.0
 40
0.4999695093846522
100
AcDbArc
 50
191.5281707198886
 51
251.458817405489
  0
ARC
  5
42C
330
1A
100
AcDbEntity
  8
SEIHIN
  6
CONTINUOUS
 62
     3
 48
16.0
100
AcDbCircle
 10
149.0509582466273
 20
108.7340471588349
 30
0.0
 40
1.000013334993361
100
AcDbArc
 50
191.5360038029055
 51
252.4157252969602
  0
LINE
  5
42D
330
1A
100
AcDbEntity
  8
NOKITOI
  6
PHANTOM
 62
     8
 48
5.0
100
AcDbLine
 10
142.4705459496524
 20
139.977860827148
 30
0.0
 11
143.4092459496525
 21
135.3778608271479
 31
0.0
  0
LINE
  5
42E
330
1A
100
AcDbEntity
  8
NOKITOI
  6
PHANTOM
 62
     8
 48
5.0
100
AcDbLine
 10
139.7542459496525
 20
139.977860827148
 30
0.0
 11
139.7542459496525
 21
135.3778608271479
 31
0.0
  0
LINE
  5
42F
330
1A
100
AcDbEntity
  8
NOKITOI
  6
PHANTOM
 62
     8
 48
5.0
100
AcDbLine
 10
138.5541459496525
 20
134.177860827148
 30
0.0
 11
138.5542459496524
 21
141.177860827148
 31
0.0
  0
LINE
  5
430
330
1A
100
AcDbEntity
  8
NOKITOI
  6
PHANTOM
 62
     8
 48
5.0
100
AcDbLine
 10
143.4092459496525
 20
135.3778608271479
 30
0.0
 11
139.7542459496525
 21
135.3778608271479
 31
0.0
  0
LINE
  5
431
330
1A
100
AcDbEntity
  8
NOKITOI
  6
PHANTOM
 62
     8
 48
5.0
100
AcDbLine
 10
138.5541459496525
 20
134.177860827148
 30
0.0
 11
143.6542459496525
 21
134.177860827148
 31
0.0
  0
LINE
  5
432
330
1A
100
AcDbEntity
  8
SEIHIN
  6
CONTINUOUS
 62
     3
 48
16.0
100
AcDbLine
 10
138.7542459496526
 20
131.8779608271478
 30
0.0
 11
142.8988459496525
 21
131.8779608271478
 31
0.0
  0
LINE
  5
433
330
1A
100
AcDbEntity
  8
SEIHIN
  6
CONTINUOUS
 62
     3
 48
16.0
100
AcDbLine
 10
143.5520459496526
 20
132.6779608271479
 30
0.0
 11
139.0541459496524
 21
132.6779608271479
 31
0.0
  0
ARC
  5
434
330
1A
100
AcDbEntity
  8
SEIHIN
  6
CONTINUOUS
 62
     3
 48
16.0
100
AcDbCircle
 10
138.7542459496526
 20
132.8779608271478
 30
0.0
 40
1.0
100
AcDbArc
 50
180.0
 51
270.0
  0
ARC
  5
435
330
1A
100
AcDbEntity
  8
SEIHIN
  6
CONTINUOUS
 62
     3
 48
16.0
100
AcDbCircle
 10
139.0541459496525
 20
133.1779608271478
 30
0.0
 40
0.4999999999999432
100
AcDbArc
 50
179.9999999999934
 51
269.9999999999934
  0
ARC
  5
436
330
1A
100
AcDbEntity
  8
SEIHIN
  6
CONTINUOUS
 62
     3
 48
16.0
100
AcDbCircle
 10
143.5520471805177
 20
132.1779598221499
 30
0.0
 40
0.5000010049994628
100
AcDbArc
 50
11.53705306385751
 51
90.00014104646831
  0
ARC
  5
437
330
1A
100
AcDbEntity
  8
SEIHIN
  6
CONTINUOUS
 62
     3
 48
16.0
100
AcDbCircle
 10
142.8988471805175
 20
131.3779598221499
 30
0.0
 40
0.5000010049994151
100
AcDbArc
 50
11.53705306384699
 51
90.00014104645858
  0
LINE
  5
438
330
1A
100
AcDbEntity
  8
NOKITOI
  6
PHANTOM
 62
     8
 48
5.0
100
AcDbLine
 10
138.5542459496524
 20
141.177860827148
 30
0.0
 11
143.4526459496525
 21
141.177860827148
 31
0.0
  0
LINE
  5
439
330
1A
100
AcDbEntity
  8
NOKITOI
  6
PHANTOM
 62
     8
 48
5.0
100
AcDbLine
 10
142.4705459496524
 20
139.977860827148
 30
0.0
 11
139.7542459496525
 21
139.977860827148
 31
0.0
  0
ARC
  5
43A
330
1A
100
AcDbEntity
  8
SEIHIN
  6
CONTINUOUS
 62
     3
 48
16.0
100
AcDbCircle
 10
206.2169893152953
 20
101.3779161176489
 30
0.0
 40
0.9999552921048582
100
AcDbArc
 50
270.0032450547215
 51
346.5812833143991
  0
ARC
  5
43B
330
1A
100
AcDbEntity
  8
SEIHIN
  6
CONTINUOUS
 62
     3
 48
16.0
100
AcDbCircle
 10
155.8912409779198
 20
101.3779647521324
 30
0.0
 40
1.000003924996877
100
AcDbArc
 50
193.4209166549711
 51
270.000284858174
  0
LINE
  5
43C
330
1A
100
AcDbEntity
  8
CENTER_L
  6
CENTER
 62
     1
 48
5.0
100
AcDbLine
 10
181.0541459496525
 20
67.866260827148
 30
0.0
 11
181.0541459496525
 21
112.9270608271479
 31
0.0
  0
ARC
  5
43D
330
1A
100
AcDbEntity
  8
SEIHIN
  6
CONTINUOUS
 62
     3
 48
16.0
100
AcDbCircle
 10
216.1385319478322
 20
99.01044598793889
 30
0.0
 40
6.500002478095645
100
AcDbArc
 50
110.0614934925781
 51
163.2643746186527
  0
LINE
  5
43E
330
1A
100
AcDbEntity
  8
SEIHIN
  6
CONTINUOUS
 62
     3
 48
16.0
100
AcDbLine
 10
181.0541459496525
 20
97.67786082714799
 30
0.0
 11
205.6043459496526
 21
97.67786082714799
 31
0.0
  0
LINE
  5
43F
330
1A
100
AcDbEntity
  8
SEIHIN
  6
CONTINUOUS
 62
     3
 48
16.0
100
AcDbLine
 10
181.0541459496525
 20
100.3778608271479
 30
0.0
 11
206.2170459496524
 21
100.3779608271478
 31
0.0
  0
LINE
  5
440
330
1A
100
AcDbEntity
  8
SEIHIN
  6
CONTINUOUS
 62
     3
 48
16.0
100
AcDbLine
 10
178.1206459496527
 20
78.35907312985156
 30
0.0
 11
180.4602459496525
 21
72.50967312985162
 31
0.0
  0
LINE
  5
441
330
1A
100
AcDbEntity
  8
SEIHIN
  6
CONTINUOUS
 62
     3
 48
16.0
100
AcDbLine
 10
181.0541459496525
 20
100.3778608271479
 30
0.0
 11
155.8912459496524
 21
100.3779608271478
 31
0.0
  0
LINE
  5
442
330
1A
100
AcDbEntity
  8
SEIHIN
  6
CONTINUOUS
 62
     3
 48
16.0
100
AcDbLine
 10
181.0541459496525
 20
97.67786082714799
 30
0.0
 11
156.5039459496524
 21
97.67796082714792
 31
0.0
  0
LINE
  5
443
330
1A
100
AcDbEntity
  8
SEIHIN
  6
CONTINUOUS
 62
     3
 48
16.0
100
AcDbLine
 10
183.8391459496524
 20
80.2154608271479
 30
0.0
 11
183.8391459496524
 21
92.67796082714792
 31
0.0
  0
LINE
  5
444
330
1A
100
AcDbEntity
  8
SEIHIN
  6
CONTINUOUS
 62
     3
 48
16.0
100
AcDbLine
 10
178.2691459496524
 20
77.98766082714791
 30
0.0
 11
178.2691459496524
 21
92.67796082714792
 31
0.0
  0
LINE
  5
445
330
1A
100
AcDbEntity
  8
SEIHIN
  6
CONTINUOUS
 62
     3
 48
16.0
100
AcDbLine
 10
181.0541459496525
 20
96.67786082714799
 30
0.0
 11
176.0541459496526
 21
96.67796082714792
 31
0.0
  0
LINE
  5
446
330
1A
100
AcDbEntity
  8
SEIHIN
  6
CONTINUOUS
 62
     3
 48
16.0
100
AcDbLine
 10
178.2691459496524
 20
92.67796082714792
 30
0.0
 11
183.8391459496524
 21
92.67796082714792
 31
0.0
  0
LINE
  5
447
330
1A
100
AcDbEntity
  8
SEIHIN
  6
CONTINUOUS
 62
     3
 48
16.0
100
AcDbLine
 10
176.0541459496526
 20
96.67786082714799
 30
0.0
 11
178.2691459496524
 21
92.67796082714792
 31
0.0
  0
LINE
  5
448
330
1A
100
AcDbEntity
  8
SEIHIN
  6
CONTINUOUS
 62
     3
 48
16.0
100
AcDbLine
 10
176.0541459496526
 20
96.67786082714799
 30
0.0
 11
176.0541459496526
 21
97.67786082714799
 31
0.0
  0
LINE
  5
449
330
1A
100
AcDbEntity
  8
SEIHIN
  6
CONTINUOUS
 62
     3
 48
16.0
100
AcDbLine
 10
186.0542459496524
 20
96.67796082714792
 30
0.0
 11
183.8391459496524
 21
92.67796082714792
 31
0.0
  0
LINE
  5
44A
330
1A
100
AcDbEntity
  8
SEIHIN
  6
CONTINUOUS
 62
     3
 48
16.0
100
AcDbLine
 10
181.0541459496525
 20
96.67786082714799
 30
0.0
 11
186.0542459496524
 21
96.67796082714792
 31
0.0
  0
LINE
  5
44B
330
1A
100
AcDbEntity
  8
SEIHIN
  6
CONTINUOUS
 62
     3
 48
16.0
100
AcDbLine
 10
186.0542459496524
 20
96.67796082714792
 30
0.0
 11
186.0542459496524
 21
97.67796082714792
 31
0.0
  0
ARC
  5
44C
330
1A
100
AcDbEntity
  8
SEIHIN
  6
CONTINUOUS
 62
     3
 48
16.0
100
AcDbCircle
 10
205.6043285295257
 20
102.1778478743329
 30
0.0
 40
4.499987047218606
100
AcDbArc
 50
270.0002218005818
 51
343.2658545438558
  0
LINE
  5
44D
330
1A
100
AcDbEntity
  8
NOKITOI
  6
PHANTOM
 62
     8
 48
5.0
100
AcDbLine
 10
205.3541459496524
 20
101.1778608271479
 30
0.0
 11
181.0541459496525
 21
101.1778608271479
 31
0.0
  0
LINE
  5
44E
330
1A
100
AcDbEntity
  8
SEIHIN
  6
CONTINUOUS
 62
     3
 48
16.0
100
AcDbLine
 10
205.9829459496524
 20
101.1778608271479
 30
0.0
 11
181.0541459496525
 21
101.1778608271479
 31
0.0
  0
LINE
  5
44F
330
1A
100
AcDbEntity
  8
NOKITOI
  6
PHANTOM
 62
     8
 48
5.0
100
AcDbLine
 10
181.0541459496525
 20
102.377860827148
 30
0.0
 11
200.5541459496526
 21
102.377860827148
 31
0.0
  0
LINE
  5
450
330
1A
100
AcDbEntity
  8
NOKITOI
  6
PHANTOM
 62
     8
 48
5.0
100
AcDbLine
 10
181.0541459496525
 20
102.377860827148
 30
0.0
 11
161.5541459496526
 21
102.377860827148
 31
0.0
  0
LINE
  5
451
330
1A
100
AcDbEntity
  8
NOKITOI
  6
PHANTOM
 62
     8
 48
5.0
100
AcDbLine
 10
156.7541459496526
 20
101.1778608271479
 30
0.0
 11
181.0541459496525
 21
101.1778608271479
 31
0.0
  0
LINE
  5
452
330
1A
100
AcDbEntity
  8
SEIHIN
  6
CONTINUOUS
 62
     3
 48
16.0
100
AcDbLine
 10
156.1253459496524
 20
101.1779608271479
 30
0.0
 11
181.0541459496525
 21
101.1778608271479
 31
0.0
  0
ARC
  5
453
330
1A
100
AcDbEntity
  8
NOKITOI
  6
PHANTOM
 62
     8
 48
5.0
100
AcDbCircle
 10
145.969841588527
 20
99.01046899845573
 30
0.0
 40
12.19993877054614
100
AcDbArc
 50
16.02263637925393
 51
40.15603560521631
  0
LINE
  5
454
330
1A
100
AcDbEntity
  8
NOKITOI
  6
PHANTOM
 62
     8
 48
5.0
100
AcDbLine
 10
160.3541459496524
 20
102.377860827148
 30
0.0
 11
160.3541459496524
 21
106.8778608271479
 31
0.0
  0
LINE
  5
455
330
1A
100
AcDbEntity
  8
NOKITOI
  6
PHANTOM
 62
     8
 48
5.0
100
AcDbLine
 10
161.5541459496526
 20
102.377860827148
 30
0.0
 11
161.5541459496526
 21
108.0778608271479
 31
0.0
  0
LINE
  5
456
330
1A
100
AcDbEntity
  8
NOKITOI
  6
PHANTOM
 62
     8
 48
5.0
100
AcDbLine
 10
160.3541459496524
 20
102.377860827148
 30
0.0
 11
157.6958459496524
 21
102.377860827148
 31
0.0
  0
ARC
  5
457
330
1A
100
AcDbEntity
  8
SEIHIN
  6
CONTINUOUS
 62
     3
 48
16.0
100
AcDbCircle
 10
156.1253472721074
 20
101.6779598071457
 30
0.0
 40
0.4999989799995632
100
AcDbArc
 50
194.7142483898061
 51
269.9998484575067
  0
LINE
  5
458
330
1A
100
AcDbEntity
  8
NOKITOI
  6
PHANTOM
 62
     8
 48
5.0
100
AcDbLine
 10
154.1320459496525
 20
108.0778608271479
 30
0.0
 11
161.5541459496526
 21
108.0778608271479
 31
0.0
  0
LINE
  5
459
330
1A
100
AcDbEntity
  8
NOKITOI
  6
PHANTOM
 62
     8
 48
5.0
100
AcDbLine
 10
155.2941459496524
 20
106.8778608271479
 30
0.0
 11
160.3541459496524
 21
106.8778608271479
 31
0.0
  0
LINE
  5
45A
330
1A
100
AcDbEntity
  8
NOKITOI
  6
PHANTOM
 62
     8
 48
5.0
100
AcDbLine
 10
218.4541459496525
 20
134.1777608271478
 30
0.0
 11
213.4541459496525
 21
109.677860827148
 31
0.0
  0
LINE
  5
45B
330
1A
100
AcDbEntity
  8
SEIHIN
  6
CONTINUOUS
 62
     3
 48
16.0
100
AcDbLine
 10
218.0664459496524
 20
132.2779608271479
 30
0.0
 11
213.2882459496524
 21
108.8650608271479
 31
0.0
  0
LINE
  5
45C
330
1A
100
AcDbEntity
  8
SEIHIN
  6
CONTINUOUS
 62
     3
 48
16.0
100
AcDbLine
 10
214.0371459496526
 20
108.5340608271479
 30
0.0
 11
218.7196459496525
 21
131.4778608271479
 31
0.0
  0
LINE
  5
45D
330
1A
100
AcDbEntity
  8
NOKITOI
  6
PHANTOM
 62
     8
 48
5.0
100
AcDbLine
 10
218.6557459496525
 20
141.1777608271478
 30
0.0
 11
212.4215459496525
 21
110.630360827148
 31
0.0
  0
LINE
  5
45E
330
1A
100
AcDbEntity
  8
NOKITOI
  6
PHANTOM
 62
     8
 48
5.0
100
AcDbLine
 10
207.9762459496525
 20
108.077760827148
 30
0.0
 11
200.5541459496526
 21
108.0778608271479
 31
0.0
  0
LINE
  5
45F
330
1A
100
AcDbEntity
  8
NOKITOI
  6
PHANTOM
 62
     8
 48
5.0
100
AcDbLine
 10
206.8141459496525
 20
106.8778608271479
 30
0.0
 11
201.7541459496526
 21
106.8778608271479
 31
0.0
  0
LINE
  5
460
330
1A
100
AcDbEntity
  8
NOKITOI
  6
PHANTOM
 62
     8
 48
5.0
100
AcDbLine
 10
201.7541459496526
 20
102.377860827148
 30
0.0
 11
204.4124459496525
 21
102.377860827148
 31
0.0
  0
LINE
  5
461
330
1A
100
AcDbEntity
  8
SEIHIN
  6
CONTINUOUS
 62
     3
 48
16.0
100
AcDbLine
 10
201.9829459496524
 20
101.1778608271479
 30
0.0
 11
193.5720459496526
 21
101.1778608271479
 31
0.0
  0
LINE
  5
462
330
1A
100
AcDbEntity
  8
NOKITOI
  6
PHANTOM
 62
     8
 48
5.0
100
AcDbLine
 10
201.7541459496526
 20
102.377860827148
 30
0.0
 11
201.7541459496526
 21
106.8778608271479
 31
0.0
  0
LINE
  5
463
330
1A
100
AcDbEntity
  8
NOKITOI
  6
PHANTOM
 62
     8
 48
5.0
100
AcDbLine
 10
200.5541459496526
 20
102.3777608271479
 30
0.0
 11
200.5541459496526
 21
108.0778608271479
 31
0.0
  0
ARC
  5
464
330
1A
100
AcDbEntity
  8
NOKITOI
  6
PHANTOM
 62
     8
 48
5.0
100
AcDbCircle
 10
216.1384877366288
 20
99.01038482203738
 30
0.0
 40
12.19997945109404
100
AcDbArc
 50
107.7381834577211
 51
131.9928095737274
  0
ARC
  5
465
330
1A
100
AcDbEntity
  8
SEIHIN
  6
CONTINUOUS
 62
     3
 48
16.0
100
AcDbCircle
 10
216.1385444189047
 20
99.01045919044141
 30
0.0
 40
10.00005974307162
100
AcDbArc
 50
108.5485400303348
 51
165.2833721150334
  0
ARC
  5
466
330
1A
100
AcDbEntity
  8
NOKITOI
  6
PHANTOM
 62
     8
 48
5.0
100
AcDbCircle
 10
216.1384500625225
 20
99.0103651431187
 30
0.0
 40
10.99994632941526
100
AcDbArc
 50
104.1244483036074
 51
168.6362598432798
  0
ARC
  5
467
330
1A
100
AcDbEntity
  8
SEIHIN
  6
CONTINUOUS
 62
     3
 48
16.0
100
AcDbCircle
 10
216.1385027413909
 20
99.01041436109192
 30
0.0
 40
9.200020637317884
100
AcDbArc
 50
107.5820174691518
 51
166.5784818329253
  0
ARC
  5
468
330
1A
100
AcDbEntity
  8
NOKITOI
  6
PHANTOM
 62
     8
 48
5.0
100
AcDbCircle
 10
216.1385229333233
 20
99.01050506801331
 30
0.0
 40
12.19997101530972
100
AcDbArc
 50
139.8443138052131
 51
163.9780719705774
  0
ARC
  5
469
330
1A
100
AcDbEntity
  8
SEIHIN
  6
CONTINUOUS
 62
     3
 48
16.0
100
AcDbCircle
 10
205.9829446271974
 20
101.6778598071458
 30
0.0
 40
0.4999989799996439
100
AcDbArc
 50
270.0001515424867
 51
345.2857516101863
  0
ARC
  5
46A
330
1A
100
AcDbEntity
  8
SEIHIN
  6
CONTINUOUS
 62
     3
 48
16.0
100
AcDbCircle
 10
212.3651567977719
 20
109.3430734232388
 30
0.0
 40
4.500067964502843
100
AcDbArc
 50
290.062003942498
 51
348.465652858411
  0
ARC
  5
46B
330
1A
100
AcDbEntity
  8
SEIHIN
  6
CONTINUOUS
 62
     3
 48
16.0
100
AcDbCircle
 10
213.0573204579756
 20
108.7339324898894
 30
0.0
 40
1.000003337847921
100
AcDbArc
 50
287.5852492878878
 51
348.4705846895445
  0
ARC
  5
46C
330
1A
100
AcDbEntity
  8
SEIHIN
  6
CONTINUOUS
 62
     3
 48
16.0
100
AcDbCircle
 10
212.7983547069039
 20
108.965070728488
 30
0.0
 40
0.4999954100666085
100
AcDbArc
 50
288.5532213949857
 51
348.4617755835556
  0
ARC
  5
46D
330
1A
100
AcDbEntity
  8
SEIHIN
  6
CONTINUOUS
 62
     3
 48
16.0
100
AcDbCircle
 10
219.2095569580956
 20
131.3779698173096
 30
0.0
 40
0.4999910099593997
100
AcDbArc
 50
90.00126149735825
 51
168.4755775196243
  0
ARC
  5
46E
330
1A
100
AcDbEntity
  8
SEIHIN
  6
CONTINUOUS
 62
     3
 48
16.0
100
AcDbCircle
 10
218.5563569580957
 20
132.1779698173094
 30
0.0
 40
0.4999910099596626
100
AcDbArc
 50
90.00126149733871
 51
168.4755775196127
  0
LINE
  5
46F
330
1A
100
AcDbEntity
  8
SEIHIN
  6
CONTINUOUS
 62
     3
 48
16.0
100
AcDbLine
 10
217.4873459496524
 20
140.827260827148
 30
0.0
 11
217.1097459496524
 21
142.2367608271479
 31
0.0
  0
LINE
  5
470
330
1A
100
AcDbEntity
  8
SEIHIN
  6
CONTINUOUS
 62
     3
 48
16.0
100
AcDbLine
 10
63.55419594965258
 20
160.678060827148
 30
0.0
 11
61.05419594965261
 21
160.678060827148
 31
0.0
  0
ARC
  5
471
330
1A
100
AcDbEntity
  8
SEIHIN
  6
CONTINUOUS
 62
     3
 48
16.0
100
AcDbCircle
 10
63.55419594965252
 20
159.678160827148
 30
0.0
 40
1.000000000000014
100
AcDbArc
 50
359.9999999999943
 51
89.99999999999429
  0
LINE
  5
472
330
1A
100
AcDbEntity
  8
SEIHIN
  6
CONTINUOUS
 62
     3
 48
16.0
100
AcDbLine
 10
78.55419594965252
 20
160.678060827148
 30
0.0
 11
81.05419594965253
 21
160.678060827148
 31
0.0
  0
ARC
  5
473
330
1A
100
AcDbEntity
  8
SEIHIN
  6
CONTINUOUS
 62
     3
 48
16.0
100
AcDbCircle
 10
78.55419594965258
 20
159.6780608271481
 30
0.0
 40
0.9999999999999573
100
AcDbArc
 50
90.00000000000245
 51
180.0000000000024
  0
ARC
  5
474
330
1A
100
AcDbEntity
  8
SEIHIN
  6
CONTINUOUS
 62
     3
 48
16.0
100
AcDbCircle
 10
152.7046507403933
 20
236.7660608270057
 30
0.0
 40
17.0753009590525
100
AcDbArc
 50
256.2788546782437
 51
283.7197306111506
  0
ARC
  5
475
330
1A
100
AcDbEntity
  8
SEIHIN
  6
CONTINUOUS
 62
     3
 48
16.0
100
AcDbCircle
 10
152.7044459496526
 20
185.5899608265788
 30
0.0
 40
17.07525238521743
100
AcDbArc
 50
76.27952224061047
 51
103.7204777593895
  0
LINE
  5
476
330
1A
100
AcDbEntity
  8
SEIHIN
  6
CONTINUOUS
 62
     3
 48
16.0
100
AcDbLine
 10
175.3975459496524
 20
213.1779608271478
 30
0.0
 11
144.2603459496524
 21
213.1779608271478
 31
0.0
  0
LINE
  5
477
330
1A
100
AcDbEntity
  8
SEIHIN
  6
CONTINUOUS
 62
     3
 48
16.0
100
AcDbLine
 10
175.3975459496524
 20
209.1779608271478
 30
0.0
 11
144.2603459496524
 21
209.1780608271479
 31
0.0
  0
LINE
  5
478
330
1A
100
AcDbEntity
  8
SEIHIN
  6
CONTINUOUS
 62
     3
 48
16.0
100
AcDbLine
 10
144.2585276049004
 20
217.6780608327231
 30
0.0
 11
219.0484459496526
 21
217.6778608271479
 31
0.0
  0
LINE
  5
479
330
1A
100
AcDbEntity
  8
SEIHIN
  6
CONTINUOUS
 62
     3
 48
16.0
100
AcDbLine
 10
144.2585283973471
 20
204.6779608271478
 30
0.0
 11
219.0484459496526
 21
204.6779608271478
 31
0.0
  0
LINE
  5
47A
330
1A
100
AcDbEntity
  8
SEIHIN
  6
CONTINUOUS
 62
     3
 48
16.0
100
AcDbLine
 10
138.5542459496524
 20
160.6779608271479
 30
0.0
 11
137.7542459496526
 21
160.6779608271479
 31
0.0
  0
DIMENSION
  5
47B
330
1A
100
AcDbEntity
  8
SUNPOU
  6
CONTINUOUS
100
AcDbDimension
  2
*D6
 10
114.14988680375
 20
201.1780608271479
 30
0.0
 11
111.64988680375
 21
211.1780108271478
 31
0.0
 70
    32
  3
STANDARD
100
AcDbAlignedDimension
 13
137.7543459496525
 23
221.1779608271478
 33
0.0
 14
137.7543459496525
 24
201.1780608271479
 34
0.0
 50
90.0
100
AcDbRotatedDimension
1001
ACAD
1000
DSTYLE
1002
{
1070
   140
1040
3.0
1070
    74
1070
     0
1070
   172
1070
     1
1070
    73
1070
     0
1070
   272
1070
     2
1070
    77
1070
     3
1070
   173
1070
     1
1070
   147
1040
1.0
1070
    42
1040
3.0
1070
    44
1040
1.5
1070
    43
1040
7.0
1070
   271
1070
     0
1070
   178
1070
     4
1070
   177
1070
     4
1070
   176
1070
     4
1070
   141
1040
150.0
1070
     7
1000
_OPEN
1070
     6
1000
_OPEN
1070
    41
1040
3.0
1002
}
  0
ARC
  5
47C
330
1A
100
AcDbEntity
  8
SEIHIN
  6
CONTINUOUS
 62
     3
 48
16.0
100
AcDbCircle
 10
144.0119459507368
 20
215.427905305914
 30
0.0
 40
2.263625942374752
100
AcDbArc
 50
83.69993466723116
 51
276.3026118684512
  0
LINE
  5
47D
330
1A
100
AcDbEntity
  8
SEIHIN
  6
CONTINUOUS
 62
     3
 48
16.0
100
AcDbLine
 10
138.5544459496525
 20
201.1780608271479
 30
0.0
 11
138.5544459496525
 21
221.1779608271478
 31
0.0
  0
LINE
  5
47E
330
1A
100
AcDbEntity
  8
SEIHIN
  6
CONTINUOUS
 62
     3
 48
16.0
100
AcDbLine
 10
137.7543459496525
 20
201.1780608271479
 30
0.0
 11
137.7543459496525
 21
221.1779608271478
 31
0.0
  0
ARC
  5
47F
330
1A
100
AcDbEntity
  8
SEIHIN
100
AcDbCircle
 10
149.5918152161263
 20
215.4280665928415
 30
0.0
 40
2.437469267203474
100
AcDbArc
 50
112.6193833216257
 51
247.3806166783735
  0
ARC
  5
480
330
1A
100
AcDbEntity
  8
SEIHIN
  6
CONTINUOUS
 62
     3
 48
16.0
100
AcDbCircle
 10
144.0118459495312
 20
206.9281108271479
 30
0.0
 40
2.263631430370302
100
AcDbArc
 50
83.69740344296623
 51
276.3025965570337
  0
ARC
  5
481
330
1A
100
AcDbEntity
  8
SEIHIN
100
AcDbCircle
 10
149.5918152161263
 20
206.9279813154681
 30
0.0
 40
2.437469267203474
100
AcDbArc
 50
112.6193833216257
 51
247.3806166783735
  0
LINE
  5
482
330
1A
100
AcDbEntity
  8
SEIHIN
  6
CONTINUOUS
 62
     3
 48
16.0
100
AcDbLine
 10
148.6543459496524
 20
202.1780608271479
 30
0.0
 11
138.5544459496525
 21
202.1780608271479
 31
0.0
  0
LINE
  5
483
330
1A
100
AcDbEntity
  8
SEIHIN
  6
CONTINUOUS
 62
     3
 48
16.0
100
AcDbLine
 10
138.5544459496525
 20
204.6780608271479
 30
0.0
 11
137.7544459496525
 21
204.6780608271479
 31
0.0
  0
LINE
  5
484
330
1A
100
AcDbEntity
  8
SEIHIN
  6
CONTINUOUS
 62
     3
 48
16.0
100
AcDbLine
 10
138.5544459496525
 20
201.1780608271479
 30
0.0
 11
137.7544459496525
 21
201.1780608271479
 31
0.0
  0
LINE
  5
485
330
1A
100
AcDbEntity
  8
SEIHIN
  6
CONTINUOUS
 62
     3
 48
16.0
100
AcDbLine
 10
144.0421459496525
 20
202.1779608271478
 30
0.0
 11
144.0421459496525
 21
204.6779608271478
 31
0.0
  0
LINE
  5
486
330
1A
100
AcDbEntity
  8
SEIHIN
  6
CONTINUOUS
 62
     3
 48
16.0
100
AcDbLine
 10
148.6543459496524
 20
202.1779608271478
 30
0.0
 11
148.6543459496524
 21
204.6779608271478
 31
0.0
  0
LINE
  5
487
330
1A
100
AcDbEntity
  8
SEIHIN
  6
CONTINUOUS
 62
     3
 48
16.0
100
AcDbLine
 10
144.0421459496525
 20
209.1779608271478
 30
0.0
 11
144.0421459496525
 21
213.1781023821251
 31
0.0
  0
LINE
  5
488
330
1A
100
AcDbEntity
  8
SEIHIN
  6
CONTINUOUS
 62
     3
 48
16.0
100
AcDbLine
 10
148.6543459496524
 20
209.1779608271477
 30
0.0
 11
148.6543459496524
 21
213.1780870811617
 31
0.0
  0
LINE
  5
489
330
1A
100
AcDbEntity
  8
SEIHIN
  6
CONTINUOUS
 62
     3
 48
16.0
100
AcDbLine
 10
148.6543459496524
 20
220.1780608271479
 30
0.0
 11
138.5545459496524
 21
220.1779608271479
 31
0.0
  0
LINE
  5
48A
330
1A
100
AcDbEntity
  8
SEIHIN
  6
CONTINUOUS
 62
     3
 48
16.0
100
AcDbLine
 10
138.5544459496525
 20
221.1779608271478
 30
0.0
 11
137.7544459496525
 21
221.1779608271478
 31
0.0
  0
LINE
  5
48B
330
1A
100
AcDbEntity
  8
SEIHIN
  6
CONTINUOUS
 62
     3
 48
16.0
100
AcDbLine
 10
138.5545459496524
 20
217.6779608271478
 30
0.0
 11
137.7545459496525
 21
217.6779608271478
 31
0.0
  0
LINE
  5
48C
330
1A
100
AcDbEntity
  8
SEIHIN
  6
CONTINUOUS
 62
     3
 48
16.0
100
AcDbLine
 10
144.0421459496525
 20
217.6780582438382
 30
0.0
 11
144.0421459496525
 21
220.1780151608971
 31
0.0
  0
LINE
  5
48D
330
1A
100
AcDbEntity
  8
SEIHIN
  6
CONTINUOUS
 62
     3
 48
16.0
100
AcDbLine
 10
148.6543459496524
 20
217.6780461045211
 30
0.0
 11
148.6543459496524
 21
220.178060827148
 31
0.0
  0
ARC
  5
48E
330
1A
100
AcDbEntity
  8
SEIHIN
  6
CONTINUOUS
 62
     3
 48
16.0
100
AcDbCircle
 10
181.0543459496525
 20
211.1779608271478
 30
0.0
 40
6.0
100
AcDbArc
 50
0.0
 51
180.0
  0
LINE
  5
48F
330
1A
100
AcDbEntity
  8
SEIHIN
  6
CONTINUOUS
 62
     3
 48
16.0
100
AcDbLine
 10
156.7543459496525
 20
220.1779608271479
 30
0.0
 11
205.3544459496525
 21
220.1779608271479
 31
0.0
  0
LINE
  5
490
330
1A
100
AcDbEntity
  8
SEIHIN
  6
CONTINUOUS
 62
     3
 48
16.0
100
AcDbLine
 10
156.7543459496525
 20
202.1779608271478
 30
0.0
 11
205.3544459496525
 21
202.1779608271478
 31
0.0
  0
ARC
  5
491
330
1A
100
AcDbEntity
  8
SEIHIN
  6
CONTINUOUS
 62
     3
 48
16.0
100
AcDbCircle
 10
181.0543459496525
 20
211.1779608271478
 30
0.0
 40
6.0
100
AcDbArc
 50
180.0
 51
0.0
  0
LINE
  5
492
330
1A
100
AcDbEntity
  8
CENTER_L
  6
CENTER
 62
     1
 48
5.0
100
AcDbLine
 10
181.0543459496525
 20
227.1779608271479
 30
0.0
 11
181.0543459496525
 21
195.1779608271478
 31
0.0
  0
ARC
  5
493
330
1A
100
AcDbEntity
  8
SEIHIN
100
AcDbCircle
 10
159.7542928121853
 20
215.4280424973695
 30
0.0
 40
3.749946862832026
100
AcDbArc
 50
143.1298317181791
 51
216.8701682818208
  0
ARC
  5
494
330
1A
100
AcDbEntity
  8
SEIHIN
100
AcDbCircle
 10
159.7542928121853
 20
206.9279572199961
 30
0.0
 40
3.749946862832026
100
AcDbArc
 50
143.1298317181791
 51
216.8701682818208
  0
LINE
  5
495
330
1A
100
AcDbEntity
  8
SEIHIN
  6
CONTINUOUS
 62
     3
 48
16.0
100
AcDbLine
 10
156.7543459496525
 20
202.1779608271478
 30
0.0
 11
156.7543459496525
 21
204.6779608271477
 31
0.0
  0
LINE
  5
496
330
1A
100
AcDbEntity
  8
SEIHIN
  6
CONTINUOUS
 62
     3
 48
16.0
100
AcDbLine
 10
156.7543459496525
 20
209.1779608271478
 30
0.0
 11
156.7543459496525
 21
213.1780602094295
 31
0.0
  0
ARC
  5
497
330
1A
100
AcDbEntity
  8
SEIHIN
  6
CONTINUOUS
 62
     3
 48
16.0
100
AcDbCircle
 10
181.0543459496525
 20
211.1779608271478
 30
0.0
 40
4.5
100
AcDbArc
 50
0.0
 51
180.0
  0
ARC
  5
498
330
1A
100
AcDbEntity
  8
SEIHIN
  6
CONTINUOUS
 62
     3
 48
16.0
100
AcDbCircle
 10
181.0543459496525
 20
211.1779608271478
 30
0.0
 40
4.5
100
AcDbArc
 50
180.0
 51
0.0
  0
LINE
  5
499
330
1A
100
AcDbEntity
  8
SEIHIN
  6
CONTINUOUS
 62
     3
 48
16.0
100
AcDbLine
 10
183.0545459496524
 20
213.1779608271478
 30
0.0
 11
183.0545459496524
 21
209.1779608271478
 31
0.0
  0
LINE
  5
49A
330
1A
100
AcDbEntity
  8
SEIHIN
  6
CONTINUOUS
 62
     3
 48
16.0
100
AcDbLine
 10
179.0543459496525
 20
213.1779608271478
 30
0.0
 11
179.0543459496525
 21
209.1779608271478
 31
0.0
  0
LINE
  5
49B
330
1A
100
AcDbEntity
  8
SEIHIN
  6
CONTINUOUS
 62
     3
 48
16.0
100
AcDbLine
 10
179.0543459496525
 20
209.1779608271478
 30
0.0
 11
183.0545459496524
 21
209.1779608271478
 31
0.0
  0
LINE
  5
49C
330
1A
100
AcDbEntity
  8
SEIHIN
  6
CONTINUOUS
 62
     3
 48
16.0
100
AcDbLine
 10
183.0545459496524
 20
213.1779608271478
 30
0.0
 11
179.0543459496525
 21
213.1779608271478
 31
0.0
  0
LINE
  5
49D
330
1A
100
AcDbEntity
  8
SEIHIN
  6
CONTINUOUS
 62
     3
 48
16.0
100
AcDbLine
 10
156.7543459496525
 20
217.6780247853094
 30
0.0
 11
156.7543459496525
 21
220.1779608271479
 31
0.0
  0
ARC
  5
49E
330
1A
100
AcDbEntity
  8
SEIHIN
  6
CONTINUOUS
 62
     3
 48
16.0
100
AcDbCircle
 10
218.8545459496525
 20
215.6778608271479
 30
0.0
 40
2.0
100
AcDbArc
 50
90.0
 51
180.0
  0
ARC
  5
49F
330
1A
100
AcDbEntity
  8
SEIHIN
100
AcDbCircle
 10
212.5170905897848
 20
215.4278842451498
 30
0.0
 40
2.437502582848008
100
AcDbArc
 50
292.6192687952511
 51
67.37945795105467
  0
ARC
  5
4A0
330
1A
100
AcDbEntity
  8
SEIHIN
100
AcDbCircle
 10
202.3545963344354
 20
215.4279312571088
 30
0.0
 40
3.749996836930897
100
AcDbArc
 50
323.1294496248567
 51
36.86927713559971
  0
LINE
  5
4A1
330
1A
100
AcDbEntity
  8
SEIHIN
  6
CONTINUOUS
 62
     3
 48
16.0
100
AcDbLine
 10
186.7113459496524
 20
213.1779608271478
 30
0.0
 11
216.8545459496525
 21
213.177860827148
 31
0.0
  0
LINE
  5
4A2
330
1A
100
AcDbEntity
  8
SEIHIN
  6
CONTINUOUS
 62
     3
 48
16.0
100
AcDbLine
 10
186.7113459496524
 20
209.1779608271478
 30
0.0
 11
216.8545459496525
 21
209.1779608271478
 31
0.0
  0
ARC
  5
4A3
330
1A
100
AcDbEntity
  8
SEIHIN
  6
CONTINUOUS
 62
     3
 48
16.0
100
AcDbCircle
 10
218.8545459496525
 20
206.6779608271478
 30
0.0
 40
2.0
100
AcDbArc
 50
180.0
 51
270.0
  0
ARC
  5
4A4
330
1A
100
AcDbEntity
  8
SEIHIN
100
AcDbCircle
 10
212.5169961460511
 20
206.9279482029751
 30
0.0
 40
2.437502582848008
100
AcDbArc
 50
292.6192687952511
 51
67.37945795105467
  0
ARC
  5
4A5
330
1A
100
AcDbEntity
  8
SEIHIN
100
AcDbCircle
 10
202.3545018907017
 20
206.9279952149341
 30
0.0
 40
3.749996836930897
100
AcDbArc
 50
323.1294496248567
 51
36.86927713559971
  0
ARC
  5
4A6
330
1A
100
AcDbEntity
  8
SEIHIN
  6
CONTINUOUS
 62
     3
 48
16.0
100
AcDbCircle
 10
209.4044459496525
 20
185.589860827148
 30
0.0
 40
17.07534953112208
100
AcDbArc
 50
76.27960182693543
 51
103.7203981730645
  0
LINE
  5
4A7
330
1A
100
AcDbEntity
  8
SEIHIN
  6
CONTINUOUS
 62
     3
 48
16.0
100
AcDbLine
 10
205.3544459496525
 20
202.1779608271478
 30
0.0
 11
205.3544737274303
 21
204.6779608271478
 31
0.0
  0
LINE
  5
4A8
330
1A
100
AcDbEntity
  8
SEIHIN
  6
CONTINUOUS
 62
     3
 48
16.0
100
AcDbLine
 10
213.4544459496524
 20
202.1779608271478
 30
0.0
 11
213.4544737277388
 21
204.6779608271477
 31
0.0
  0
LINE
  5
4A9
330
1A
100
AcDbEntity
  8
SEIHIN
  6
CONTINUOUS
 62
     3
 48
16.0
100
AcDbLine
 10
218.0667459496524
 20
202.1779608271478
 30
0.0
 11
218.0667459496524
 21
204.8396608271478
 31
0.0
  0
LINE
  5
4AA
330
1A
100
AcDbEntity
  8
SEIHIN
  6
CONTINUOUS
 62
     3
 48
16.0
100
AcDbLine
 10
205.3545237274302
 20
209.1779608271477
 30
0.0
 11
205.3545681711874
 21
213.177898978299
 31
0.0
  0
LINE
  5
4AB
330
1A
100
AcDbEntity
  8
SEIHIN
  6
CONTINUOUS
 62
     3
 48
16.0
100
AcDbLine
 10
213.4545237282944
 20
209.1779608271478
 30
0.0
 11
213.454568172247
 21
213.1778721065667
 31
0.0
  0
LINE
  5
4AC
330
1A
100
AcDbEntity
  8
SEIHIN
  6
CONTINUOUS
 62
     3
 48
16.0
100
AcDbLine
 10
216.8545459496525
 20
206.6779608271478
 30
0.0
 11
216.8545459496525
 21
215.6778608271479
 31
0.0
  0
ARC
  5
4AD
330
1A
100
AcDbEntity
  8
SEIHIN
  6
CONTINUOUS
 62
     3
 48
16.0
100
AcDbCircle
 10
209.4044459496525
 20
236.7660608271476
 30
0.0
 40
17.07534953112204
100
AcDbArc
 50
256.2796018269354
 51
283.7203981730645
  0
LINE
  5
4AE
330
1A
100
AcDbEntity
  8
SEIHIN
  6
CONTINUOUS
 62
     3
 48
16.0
100
AcDbLine
 10
205.3546181711639
 20
217.6778968693225
 30
0.0
 11
205.3546459496522
 21
220.1779608271479
 31
0.0
  0
LINE
  5
4AF
330
1A
100
AcDbEntity
  8
SEIHIN
  6
CONTINUOUS
 62
     3
 48
16.0
100
AcDbLine
 10
213.4546181728409
 20
217.6778755501107
 30
0.0
 11
213.4546459518749
 21
220.1779608251677
 31
0.0
  0
LINE
  5
4B0
330
1A
100
AcDbEntity
  8
SEIHIN
  6
CONTINUOUS
 62
     3
 48
16.0
100
AcDbLine
 10
218.0667459496524
 20
220.1779608271479
 30
0.0
 11
218.0667459496524
 21
217.5161608271479
 31
0.0
  0
LINE
  5
4B1
330
1A
100
AcDbEntity
  8
SEIHIN
  6
CONTINUOUS
 62
     3
 48
16.0
100
AcDbLine
 10
277.9512459496527
 20
111.5029731298515
 30
0.0
 11
290.7088459496528
 21
119.9982731298515
 31
0.0
  0
LINE
  5
4B2
330
1A
100
AcDbEntity
  8
SEIHIN
  6
CONTINUOUS
 62
     3
 48
16.0
100
AcDbLine
 10
275.6117459496526
 20
117.3525731298516
 30
0.0
 11
290.7088459496528
 21
119.9982731298515
 31
0.0
  0
LINE
  5
4B3
330
1A
100
AcDbEntity
  8
SEIHIN
  6
CONTINUOUS
 62
     3
 48
16.0
100
AcDbLine
 10
290.7088459496528
 20
119.9982731298515
 30
0.0
 11
275.9830459496527
 21
116.4240731298516
 31
0.0
  0
LINE
  5
4B4
330
1A
100
AcDbEntity
  8
SEIHIN
  6
CONTINUOUS
 62
     3
 48
16.0
100
AcDbLine
 10
290.7088459496528
 20
119.9982731298515
 30
0.0
 11
277.5799459496527
 21
112.4314731298516
 31
0.0
  0
DIMENSION
  5
4B5
330
1A
100
AcDbEntity
  8
SUNPOU
  6
CONTINUOUS
 62
     4
100
AcDbDimension
  2
*D7
 10
312.0730114012963
 20
125.149929326812
 30
0.0
 11
318.1077404276072
 21
116.7933722858411
 31
0.0
 70
    33
  3
STANDARD
100
AcDbAlignedDimension
 13
275.6117459496526
 23
117.3524731298516
 33
0.0
 14
277.9512459496527
 24
111.5029731298515
 34
0.0
1001
ACAD
1000
DSTYLE
1002
{
1070
   140
1040
3.0
1070
    74
1070
     0
1070
   172
1070
     1
1070
    73
1070
     0
1070
   272
1070
     2
1070
    77
1070
     3
1070
   173
1070
     1
1070
   147
1040
1.0
1070
    42
1040
3.0
1070
    44
1040
1.5
1070
    43
1040
7.0
1070
   271
1070
     1
1070
   178
1070
     4
1070
   177
1070
     4
1070
   176
1070
     4
1070
   141
1040
150.0
1070
     7
1000
_OPEN
1070
     6
1000
_OPEN
1070
    41
1040
3.0
1002
}
  0
LINE
  5
4B6
330
1A
100
AcDbEntity
  8
NOKITOI
  6
PHANTOM
 62
     8
 48
5.0
100
AcDbLine
 10
222.3541459496524
 20
139.9777608271479
 30
0.0
 11
222.3541459496524
 21
135.377760827148
 31
0.0
  0
LINE
  5
4B7
330
1A
100
AcDbEntity
  8
NOKITOI
  6
PHANTOM
 62
     8
 48
5.0
100
AcDbLine
 10
223.5541459496526
 20
134.1777608271478
 30
0.0
 11
223.5541459496526
 21
141.1777608271478
 31
0.0
  0
LINE
  5
4B8
330
1A
100
AcDbEntity
  8
SEIHIN
  6
CONTINUOUS
 62
     3
 48
16.0
100
AcDbLine
 10
224.3540459496524
 20
132.8778608271479
 30
0.0
 11
224.3540459496524
 21
141.8320608271479
 31
0.0
  0
LINE
  5
4B9
330
1A
100
AcDbEntity
  8
SEIHIN
  6
CONTINUOUS
 62
     3
 48
16.0
100
AcDbLine
 10
223.5541459496526
 20
133.1779608271479
 30
0.0
 11
223.5541459496526
 21
141.8320608271479
 31
0.0
  0
ARC
  5
4BA
330
1A
100
AcDbEntity
  8
SEIHIN
  6
CONTINUOUS
 62
     3
 48
16.0
100
AcDbCircle
 10
223.0541459496524
 20
133.177960827148
 30
0.0
 40
0.5000000000000853
100
AcDbArc
 50
269.9999999999902
 51
359.9999999999902
  0
ARC
  5
4BB
330
1A
100
AcDbEntity
  8
SEIHIN
  6
CONTINUOUS
 62
     3
 48
16.0
100
AcDbCircle
 10
223.3540459496524
 20
132.8778608271479
 30
0.0
 40
0.9999999999999715
100
AcDbArc
 50
269.9999999999983
 51
359.9999999999983
  0
LINE
  5
4BC
330
1A
100
AcDbEntity
  8
NOKITOI
  6
PHANTOM
 62
     8
 48
5.0
100
AcDbLine
 10
219.6378459496524
 20
139.9777608271479
 30
0.0
 11
222.3541459496524
 21
139.9777608271479
 31
0.0
  0
ARC
  5
4BD
330
1A
100
AcDbEntity
  8
SEIHIN
  6
CONTINUOUS
 62
     3
 48
16.0
100
AcDbCircle
 10
222.5541125907653
 20
141.8320864253185
 30
0.0
 40
1.000033359214887
100
AcDbArc
 50
359.9985333817891
 51
104.9963795636845
  0
ARC
  5
4BE
330
1A
100
AcDbEntity
  8
SEIHIN
  6
CONTINUOUS
 62
     3
 48
16.0
100
AcDbCircle
 10
222.5540764359751
 20
141.8321141663725
 30
0.0
 40
1.799969514467608
100
AcDbArc
 50
359.998302130993
 51
104.9988167870791
  0
LINE
  5
4BF
330
1A
100
AcDbEntity
  8
SEIHIN
  6
CONTINUOUS
 62
     3
 48
16.0
100
AcDbLine
 10
275.6123459496525
 20
117.3510731298515
 30
0.0
 11
277.9518459496525
 21
111.5014731298515
 31
0.0
  0
TEXT
  5
4C0
330
1A
100
AcDbEntity
  8
SUNPOU
  6
CONTINUOUS
 62
     4
100
AcDbText
 10
332.3580175123975
 20
129.7264189518733
 30
0.0
 40
3.0
  1
10
100
AcDbText
  0
LINE
  5
4C1
330
1A
100
AcDbEntity
  8
SUNPOU
  6
CONTINUOUS
 62
     4
100
AcDbLine
 10
337.8482965411586
 20
134.8529367070922
 30
0.0
 11
327.8481958869058
 21
134.8529367070922
 31
0.0
  0
LINE
  5
4C2
330
1A
100
AcDbEntity
  8
SUNPOU
  6
CONTINUOUS
 62
     4
100
AcDbLine
 10
337.8482965411586
 20
138.8529367070923
 30
0.0
 11
327.8481958869057
 21
134.8529367070922
 31
0.0
  0
LINE
  5
4C3
330
1A
100
AcDbEntity
  8
SUNPOU
  6
CONTINUOUS
 62
     4
100
AcDbLine
 10
337.8482965411586
 20
138.8529367070922
 30
0.0
 11
337.8482965411586
 21
134.8529367070922
 31
0.0
  0
TEXT
  5
4C4
330
1A
100
AcDbEntity
  8
SUNPOU
  6
CONTINUOUS
 62
     4
100
AcDbText
 10
340.0648884921014
 20
135.8002613739692
 30
0.0
 40
3.0
  1
4
100
AcDbText
  0
LINE
  5
4C5
330
1A
100
AcDbEntity
  8
SEIHIN
  6
CONTINUOUS
 62
     3
 48
16.0
100
AcDbLine
 10
275.7089459496524
 20
213.5278772400384
 30
0.0
 11
290.7089459496526
 21
211.1778772400386
 31
0.0
  0
LINE
  5
4C6
330
1A
100
AcDbEntity
  8
SEIHIN
  6
CONTINUOUS
 62
     3
 48
16.0
100
AcDbLine
 10
275.7089459496524
 20
208.8276772400385
 30
0.0
 11
290.7089459496526
 21
211.1777772400385
 31
0.0
  0
DIMENSION
  5
4C7
330
1A
100
AcDbEntity
  8
SUNPOU
  6
CONTINUOUS
 62
     4
100
AcDbDimension
  2
*D8
 10
321.9019323716286
 20
208.8277772400386
 30
0.0
 11
319.4019323716286
 21
198.8277772400387
 31
0.0
 70
    32
  3
STANDARD
100
AcDbAlignedDimension
 13
275.7089459496524
 23
213.5277772400386
 33
0.0
 14
275.7089459496524
 24
208.8277772400386
 34
0.0
 50
90.0
100
AcDbRotatedDimension
1001
ACAD
1000
DSTYLE
1002
{
1070
   140
1040
3.0
1070
    74
1070
     0
1070
   172
1070
     1
1070
    73
1070
     0
1070
   272
1070
     2
1070
    77
1070
     3
1070
   173
1070
     1
1070
   147
1040
1.0
1070
    42
1040
3.0
1070
    44
1040
1.5
1070
    43
1040
7.0
1070
   271
1070
     1
1070
   178
1070
     4
1070
   177
1070
     4
1070
   176
1070
     4
1070
   141
1040
150.0
1070
     7
1000
_OPEN
1070
     6
1000
_OPEN
1070
    41
1040
3.0
1002
}
  0
LINE
  5
4C8
330
1A
100
AcDbEntity
  8
SEIHIN
  6
CONTINUOUS
 62
     3
 48
16.0
100
AcDbLine
 10
224.3545459496524
 20
208.8278772400385
 30
0.0
 11
275.7089459496524
 21
208.8277772400386
 31
0.0
  0
LINE
  5
4C9
330
1A
100
AcDbEntity
  8
SEIHIN
  6
CONTINUOUS
 62
     3
 48
16.0
100
AcDbLine
 10
224.3545459496524
 20
213.5278772400384
 30
0.0
 11
275.7089459496524
 21
213.5277772400386
 31
0.0
  0
LINE
  5
4CA
330
1A
100
AcDbEntity
  8
SEIHIN
  6
CONTINUOUS
 62
     3
 48
16.0
100
AcDbLine
 10
224.3545459496524
 20
221.1778608271479
 30
0.0
 11
224.3545459496524
 21
211.1779608271478
 31
0.0
  0
LINE
  5
4CB
330
1A
100
AcDbEntity
  8
SEIHIN
  6
CONTINUOUS
 62
     3
 48
16.0
100
AcDbLine
 10
224.3545459496524
 20
201.1778608271479
 30
0.0
 11
224.3545459496524
 21
211.177860827148
 31
0.0
  0
LINE
  5
4CC
330
1A
100
AcDbEntity
  8
SEIHIN
  6
CONTINUOUS
 62
     3
 48
16.0
100
AcDbLine
 10
223.5544459496525
 20
201.1778608271479
 30
0.0
 11
224.3543459496525
 21
201.1778608271479
 31
0.0
  0
LINE
  5
4CD
330
1A
100
AcDbEntity
  8
SEIHIN
  6
CONTINUOUS
 62
     3
 48
16.0
100
AcDbLine
 10
223.5544459496525
 20
201.1778608271479
 30
0.0
 11
223.5544459496525
 21
204.6779608271478
 31
0.0
  0
LINE
  5
4CE
330
1A
100
AcDbEntity
  8
SEIHIN
  6
CONTINUOUS
 62
     3
 48
16.0
100
AcDbLine
 10
223.5544459496525
 20
221.1778608271479
 30
0.0
 11
224.3543459496525
 21
221.1778608271479
 31
0.0
  0
LINE
  5
4CF
330
1A
100
AcDbEntity
  8
SEIHIN
  6
CONTINUOUS
 62
     3
 48
16.0
100
AcDbLine
 10
223.5544459496525
 20
221.1778608271479
 30
0.0
 11
223.5544459496525
 21
217.6778608271479
 31
0.0
  0
LINE
  5
6C5
330
1A
100
AcDbEntity
  8
ZUWAKU
100
AcDbLine
 10
104.323300147124
 20
7.599999679512958
 30
0.0
 11
223.7121814875858
 21
7.599999679512954
 31
0.0
  0
LINE
  5
6C6
330
1A
100
AcDbEntity
  8
ZUWAKU
100
AcDbLine
 10
104.323300147124
 20
7.799999679512955
 30
0.0
 11
223.7121814875858
 21
7.799999679512959
 31
0.0
  0
LINE
  5
6C7
330
1A
100
AcDbEntity
  8
ZUWAKU
100
AcDbLine
 10
104.323300147124
 20
7.699999679512956
 30
0.0
 11
223.7121814875858
 21
7.699999679512956
 31
0.0
  0
LINE
  5
6C8
330
1A
100
AcDbEntity
  8
ZUWAKU
100
AcDbLine
 10
-0.0000004979099231
 20
15.39999967951294
 30
0.0
 11
398.69999950209
 21
15.39999967951294
 31
0.0
  0
LINE
  5
6C9
330
1A
100
AcDbEntity
  8
ZUWAKU
100
AcDbLine
 10
-0.0000004979099231
 20
15.29999967951294
 30
0.0
 11
398.69999950209
 21
15.29999967951294
 31
0.0
  0
LINE
  5
6CA
330
1A
100
AcDbEntity
  8
ZUWAKU
100
AcDbLine
 10
-0.0000004979099231
 20
15.19999967951294
 30
0.0
 11
398.69999950209
 21
15.19999967951294
 31
0.0
  0
LINE
  5
6CB
330
1A
100
AcDbEntity
  8
ZUWAKU
100
AcDbLine
 10
-0.0000004979099231
 20
15.09999967951294
 30
0.0
 11
398.69999950209
 21
15.09999967951294
 31
0.0
  0
LINE
  5
6CC
330
1A
100
AcDbEntity
  8
ZUWAKU
100
AcDbLine
 10
-0.0000004979099231
 20
14.99999967951294
 30
0.0
 11
398.69999950209
 21
14.99999967951294
 31
0.0
  0
LWPOLYLINE
  5
6CD
330
1A
100
AcDbEntity
  8
ZUWAKU
100
AcDbPolyline
 90
        4
 70
     1
 43
0.0
 10
0.0999995020900428
 20
275.6999996795129
 10
0.0999995020900428
 20
0.0999996795129619
 10
398.69999950209
 20
0.0999996795129734
 10
398.6999995020901
 20
275.6999996795129
  0
LWPOLYLINE
  5
6CE
330
1A
100
AcDbEntity
  8
ZUWAKU
100
AcDbPolyline
 90
        4
 70
     1
 43
0.0
 10
0.2999995020900314
 20
275.499999679513
 10
0.2999995020900314
 20
0.2999996795129505
 10
398.4999995020901
 20
0.2999996795129736
 10
398.4999995020901
 20
275.499999679513
  0
LWPOLYLINE
  5
6CF
330
1A
100
AcDbEntity
  8
ZUWAKU
100
AcDbPolyline
 90
        4
 70
     1
 43
0.0
 10
-0.0000004979099231
 20
275.7999996795129
 10
-0.0000004979099231
 20
-0.0000003204870609
 10
398.7999995020901
 20
-0.0000003204870271
 10
398.7999995020901
 20
275.799999679513
  0
LWPOLYLINE
  5
6D0
330
1A
100
AcDbEntity
  8
ZUWAKU
100
AcDbPolyline
 90
        4
 70
     1
 43
0.0
 10
0.1999995020900655
 20
275.5999996795129
 10
0.1999995020900655
 20
0.1999996795129846
 10
398.5999995020901
 20
0.199999679512973
 10
398.5999995020901
 20
275.5999996795129
  0
LWPOLYLINE
  5
6D1
330
1A
100
AcDbEntity
  8
ZUWAKU
100
AcDbPolyline
 90
        4
 70
     1
 43
0.0
 10
0.3999995020900542
 20
275.3999996795129
 10
0.3999995020900542
 20
0.3999996795129732
 10
398.39999950209
 20
0.3999996795129732
 10
398.39999950209
 20
275.3999996795129
  0
HATCH
  5
6D2
330
1A
100
AcDbEntity
  8
ZUWAKU
100
AcDbHatch
 10
0.0
 20
0.0
 30
0.0
210
0.0
220
0.0
230
1.0
  2
ANSI37
 70
     0
 71
     0
 91
        8
 92
        7
 72
     1
 73
     1
 93
       24
 10
7.251130832650005
 20
8.82242392000473
 42
-0.1989123673796348
 10
7.046105579480638
 20
9.317398666835256
 42
0.0
 10
7.046105579480638
 20
9.962499679512944
 42
-0.4142135623730912
 10
7.308605579480627
 20
10.22499967951294
 42
0.0
 10
8.796105579480581
 20
10.22499967951294
 42
0.4142135623731546
 10
9.058605579480627
 20
10.48749967951293
 42
0.0
 10
9.058605579480627
 20
11.36249967951294
 42
0.4142135623731586
 10
8.796105579480581
 20
11.62499967951294
 42
0.0
 10
7.046105579480638
 20
11.62499967951294
 42
0.4142135623730928
 10
5.646105579480661
 20
10.22499967951295
 42
0.0
 10
5.646105579480661
 20
9.31739866683532
 42
0.1989123673796619
 10
6.261181338988876
 20
7.832474426343516
 42
0.0
 10
7.716080326311214
 20
6.377575439021187
 42
-0.1989123673796613
 10
7.921105579480638
 20
5.882600692190594
 42
0.0
 10
7.921105579480638
 20
5.237499679512936
 42
-0.4142135623730911
 10
7.658605579480649
 20
4.97499967951294
 42
0.0
 10
6.171105579480695
 20
4.97499967951294
 42
0.4142135623731526
 10
5.908605579480649
 20
4.712499679512946
 42
0.0
 10
5.908605579480649
 20
3.837499679512935
 42
0.4142135623731526
 10
6.171105579480695
 20
3.574999679512941
 42
0.0
 10
7.921105579480638
 20
3.574999679512941
 42
0.4142135623731044
 10
9.321105579480672
 20
4.974999679512929
 42
0.0
 10
9.321105579480672
 20
5.882600692190566
 42
0.1989123673796604
 10
8.7060298199724
 20
7.367524932682336
 42
0.0
 97
        0
 92
        7
 72
     1
 73
     1
 93
       16
 10
11.77110557948066
 20
9.524999679512944
 42
-0.4142135623730935
 10
12.47110557948065
 20
10.22499967951294
 42
0.0
 10
13.43360557948062
 20
10.22499967951294
 42
0.4142135623731546
 10
13.69610557948067
 20
10.48749967951293
 42
0.0
 10
13.69610557948067
 20
11.36249967951294
 42
0.4142135623730951
 10
13.43360557948068
 20
11.62499967951294
 42
0.0
 10
12.47110557948059
 20
11.62499967951292
 42
0.4142135623730892
 10
10.37110557948062
 20
9.524999679512909
 42
0.0
 10
10.37110557948062
 20
5.674999679512954
 42
0.4142135623730969
 10
12.47110557948065
 20
3.574999679512941
 42
0.0
 10
13.43360557948062
 20
3.574999679512941
 42
0.4142135623731526
 10
13.69610557948067
 20
3.837499679512935
 42
0.0
 10
13.69610557948067
 20
4.712499679512946
 42
0.4142135623730891
 10
13.43360557948068
 20
4.97499967951294
 42
0.0
 10
12.47110557948065
 20
4.97499967951294
 42
-0.4142135623730928
 10
11.77110557948066
 20
5.674999679512934
 42
0.0
 97
        0
 92
        7
 72
     1
 73
     1
 93
        2
 10
12.12110557948062
 20
7.59999967951294
 42
1.0
 10
13.87110557948062
 20
7.59999967951294
 42
1.0
 97
        0
 92
        7
 72
     1
 73
     1
 93
       26
 10
18.65742882056963
 20
9.602523276294654
 42
0.0
 10
19.18824863713854
 20
11.28345269542945
 42
0.5069206636600134
 10
18.93793318754086
 20
11.62499967951294
 42
0.0
 10
18.08848849773625
 20
11.62499967951294
 42
0.3272098845218764
 10
17.83817304813857
 20
11.44154666359642
 42
0.0
 10
16.90403811082268
 20
8.48345269542948
 42
-0.3272098845219541
 10
16.65372266122494
 20
8.299999679512939
 42
0.0
 10
16.58360557948071
 20
8.299999679512939
 42
-0.4142135623731526
 10
16.32110557948067
 20
8.562499679512933
 42
0.0
 10
16.32110557948067
 20
11.36249967951294
 42
0.4142135623730951
 10
16.05860557948068
 20
11.62499967951294
 42
0.0
 10
15.18360557948062
 20
11.62499967951294
 42
0.4142135623730871
 10
14.92110557948064
 20
11.36249967951295
 42
0.0
 10
14.92110557948064
 20
3.837499679512935
 42
0.4142135623730891
 10
15.18360557948062
 20
3.574999679512941
 42
0.0
 10
16.05860557948062
 20
3.574999679512941
 42
0.4142135623731526
 10
16.32110557948067
 20
3.837499679512935
 42
0.0
 10
16.32110557948067
 20
6.637499679512947
 42
-0.4142135623731526
 10
16.58360557948071
 20
6.899999679512941
 42
0.0
 10
16.653722661225
 20
6.899999679512941
 42
-0.3272098845218915
 10
16.90403811082268
 20
6.716546663596403
 42
0.0
 10
17.83817304813857
 20
3.758452695429477
 42
0.3272098845218902
 10
18.08848849773625
 20
3.574999679512941
 42
0.0
 10
18.93793318754086
 20
3.574999679512941
 42
0.5069206636600335
 10
19.18824863713854
 20
3.916546663596445
 42
0.0
 10
18.02505294790171
 20
7.599999679513009
 42
0.0
 97
        0
 92
        7
 72
     1
 73
     1
 93
        8
 10
21.74610557948062
 20
11.36249967951294
 42
0.4142135623731546
 10
21.48360557948058
 20
11.62499967951294
 42
0.0
 10
20.60860557948069
 20
11.62499967951294
 42
0.4142135623731507
 10
20.34610557948064
 20
11.36249967951295
 42
0.0
 10
20.34610557948064
 20
3.837499679512935
 42
0.4142135623731526
 10
20.60860557948069
 20
3.574999679512941
 42
0.0
 10
21.48360557948058
 20
3.574999679512941
 42
0.4142135623731526
 10
21.74610557948062
 20
3.837499679512935
 42
0.0
 97
        0
 92
        7
 72
     1
 73
     1
 93
       24
 10
24.19610557948067
 20
9.962499679512944
 42
-0.4142135623731546
 10
24.45860557948071
 20
10.22499967951294
 42
0.0
 10
25.94610557948067
 20
10.22499967951294
 42
0.4142135623730911
 10
26.20860557948066
 20
10.48749967951293
 42
0.0
 10
26.20860557948066
 20
11.36249967951294
 42
0.4142135623730952
 10
25.94610557948067
 20
11.62499967951294
 42
0.0
 10
24.19610557948067
 20
11.62499967951294
 42
0.4142135623731048
 10
22.79610557948064
 20
10.22499967951295
 42
0.0
 10
22.79610557948064
 20
9.31739866683532
 42
0.1989123673796613
 10
23.41118133898891
 20
7.832474426343544
 42
0.0
 10
24.86608032631124
 20
6.37757543902121
 42
-0.1989123673796402
 10
25.07110557948067
 20
5.882600692190674
 42
0.0
 10
25.07110557948067
 20
5.237499679512936
 42
-0.4142135623730911
 10
24.80860557948068
 20
4.97499967951294
 42
0.0
 10
23.32110557948067
 20
4.97499967951294
 42
0.4142135623731526
 10
23.05860557948062
 20
4.712499679512946
 42
0.0
 10
23.05860557948062
 20
3.837499679512935
 42
0.4142135623730891
 10
23.32110557948061
 20
3.574999679512941
 42
0.0
 10
25.07110557948067
 20
3.574999679512941
 42
0.4142135623730925
 10
26.47110557948065
 20
4.974999679512929
 42
0.0
 10
26.47110557948065
 20
5.882600692190566
 42
0.1989123673796675
 10
25.85602981997237
 20
7.367524932682393
 42
0.0
 10
24.40113083265009
 20
8.82242392000465
 42
-0.1989123673796652
 10
24.19610557948067
 20
9.317398666835234
 42
0.0
 97
        0
 92
        7
 72
     1
 73
     1
 93
       16
 10
28.92110557948063
 20
11.36249967951293
 42
0.414213562373103
 10
28.65860557948065
 20
11.62499967951294
 42
0.0
 10
27.78360557948065
 20
11.62499967951294
 42
0.4142135623730871
 10
27.52110557948066
 20
11.36249967951295
 42
0.0
 10
27.52110557948066
 20
4.974999679512929
 42
0.4142135623730926
 10
28.92110557948063
 20
3.574999679512941
 42
0.0
 10
30.67110557948064
 20
3.574999679512941
 42
0.4142135623731044
 10
32.07110557948067
 20
4.974999679512929
 42
0.0
 10
32.07110557948067
 20
11.36249967951294
 42
0.4142135623730951
 10
31.80860557948068
 20
11.62499967951294
 42
0.0
 10
30.93360557948062
 20
11.62499967951294
 42
0.4142135623730871
 10
30.67110557948064
 20
11.36249967951295
 42
0.0
 10
30.67110557948064
 20
5.499999679512928
 42
-0.414213562373088
 10
30.14610557948066
 20
4.97499967951294
 42
0.0
 10
29.44610557948067
 20
4.97499967951294
 42
-0.4142135623731197
 10
28.92110557948063
 20
5.499999679512928
 42
0.0
 97
        0
 92
        7
 72
     1
 73
     1
 93
        8
 10
34.52110557948066
 20
11.36249967951295
 42
0.4142135623730871
 10
34.25860557948067
 20
11.62499967951294
 42
0.0
 10
33.38360557948067
 20
11.62499967951294
 42
0.4142135623731507
 10
33.12110557948062
 20
11.36249967951295
 42
0.0
 10
33.12110557948062
 20
3.837499679512935
 42
0.4142135623730891
 10
33.38360557948061
 20
3.574999679512941
 42
0.0
 10
34.25860557948067
 20
3.574999679512941
 42
0.4142135623730891
 10
34.52110557948066
 20
3.837499679512935
 42
0.0
 97
        0
 75
     0
 76
     1
 52
0.0
 41
0.1
 77
     0
 78
     2
 53
45.0
 43
-450.4711526652494
 44
-6.600000320487026
 45
-0.2245064030267288
 46
0.2245064030267288
 79
     0
 53
135.0
 43
-450.4711526652494
 44
-6.600000320487026
 45
-0.2245064030267288
 46
-0.2245064030267288
 79
     0
 47
0.057451373970553
 98
        8
 10
8.039926983601731
 20
7.583586502455716
 10
11.20225700530966
 20
9.422030770738444
 10
12.5821834449199
 20
7.755940502548298
 10
15.45702949290864
 20
8.10064850273369
 10
20.91923551156844
 20
8.330454636504498
 10
23.44909994965485
 20
9.709287837716544
 10
28.27884248829025
 20
9.364578637060446
 10
33.91353931190144
 20
9.594384770831254
  0
LINE
  5
6D3
330
1A
100
AcDbEntity
  8
ZUWAKU
100
AcDbLine
 10
12.47110557948065
 20
11.62499967951292
 30
0.0
 11
13.43360557948062
 21
11.62499967951294
 31
0.0
  0
LINE
  5
6D4
330
1A
100
AcDbEntity
  8
ZUWAKU
100
AcDbLine
 10
13.43360557948062
 20
10.22499967951294
 30
0.0
 11
12.47110557948065
 21
10.22499967951294
 31
0.0
  0
LINE
  5
6D5
330
1A
100
AcDbEntity
  8
ZUWAKU
100
AcDbLine
 10
12.47110557948065
 20
4.97499967951294
 30
0.0
 11
13.43360557948062
 21
4.97499967951294
 31
0.0
  0
LINE
  5
6D6
330
1A
100
AcDbEntity
  8
ZUWAKU
100
AcDbLine
 10
13.43360557948062
 20
3.574999679512941
 30
0.0
 11
12.47110557948065
 21
3.574999679512941
 31
0.0
  0
CIRCLE
  5
6D7
330
1A
100
AcDbEntity
  8
ZUWAKU
100
AcDbCircle
 10
12.99610557948062
 20
7.59999967951294
 30
0.0
 40
0.875
  0
ARC
  5
6D8
330
1A
100
AcDbEntity
  8
ZUWAKU
100
AcDbCircle
 10
7.746105579480627
 20
9.317398666835291
 30
0.0
 40
0.7
100
AcDbArc
 50
180.0000000000016
 51
224.9999999999988
  0
LINE
  5
6D9
330
1A
100
AcDbEntity
  8
ZUWAKU
100
AcDbLine
 10
11.77110557948066
 20
9.524999679512941
 30
0.0
 11
11.77110557948066
 21
5.674999679512943
 31
0.0
  0
LINE
  5
6DA
330
1A
100
AcDbEntity
  8
ZUWAKU
100
AcDbLine
 10
10.37110557948062
 20
5.674999679512943
 30
0.0
 11
10.37110557948062
 21
9.524999679512919
 31
0.0
  0
ARC
  5
6DB
330
1A
100
AcDbEntity
  8
ZUWAKU
100
AcDbCircle
 10
7.746105579480627
 20
9.317398666835291
 30
0.0
 40
2.099999999999999
100
AcDbArc
 50
180.0
 51
225.0
  0
ARC
  5
6DC
330
1A
100
AcDbEntity
  8
ZUWAKU
100
AcDbCircle
 10
7.921105579480638
 20
4.97499967951294
 30
0.0
 40
1.399999999999999
100
AcDbArc
 50
270.0
 51
0.0
  0
ARC
  5
6DD
330
1A
100
AcDbEntity
  8
ZUWAKU
100
AcDbCircle
 10
12.47110557948065
 20
5.674999679512943
 30
0.0
 40
2.099999999999999
100
AcDbArc
 50
180.0
 51
270.0
  0
ARC
  5
6DE
330
1A
100
AcDbEntity
  8
ZUWAKU
100
AcDbCircle
 10
7.221105579480649
 20
5.882600692190592
 30
0.0
 40
2.099999999999999
100
AcDbArc
 50
0.0
 51
45.0
  0
LINE
  5
6DF
330
1A
100
AcDbEntity
  8
ZUWAKU
100
AcDbLine
 10
8.7060298199724
 20
7.367524932682353
 30
0.0
 11
7.251130832650062
 21
8.822423920004691
 31
0.0
  0
LINE
  5
6E0
330
1A
100
AcDbEntity
  8
ZUWAKU
100
AcDbLine
 10
7.921105579480638
 20
5.237499679512943
 30
0.0
 11
7.921105579480638
 21
5.882600692190614
 31
0.0
  0
ARC
  5
6E1
330
1A
100
AcDbEntity
  8
ZUWAKU
100
AcDbCircle
 10
7.658605579480649
 20
5.237499679512943
 30
0.0
 40
0.2625
100
AcDbArc
 50
270.0
 51
0.0
  0
ARC
  5
6E2
330
1A
100
AcDbEntity
  8
ZUWAKU
100
AcDbCircle
 10
7.221105579480649
 20
5.882600692190614
 30
0.0
 40
0.7
100
AcDbArc
 50
0.0
 51
45.0
  0
LINE
  5
6E3
330
1A
100
AcDbEntity
  8
ZUWAKU
100
AcDbLine
 10
5.908605579480649
 20
3.837499679512941
 30
0.0
 11
5.908605579480649
 21
4.712499679512941
 31
0.0
  0
ARC
  5
6E4
330
1A
100
AcDbEntity
  8
ZUWAKU
100
AcDbCircle
 10
6.171105579480638
 20
3.837499679512941
 30
0.0
 40
0.2625
100
AcDbArc
 50
180.0
 51
270.0
  0
ARC
  5
6E5
330
1A
100
AcDbEntity
  8
ZUWAKU
100
AcDbCircle
 10
6.171105579480638
 20
4.712499679512941
 30
0.0
 40
0.2625
100
AcDbArc
 50
90.0
 51
180.0
  0
LINE
  5
6E6
330
1A
100
AcDbEntity
  8
ZUWAKU
100
AcDbLine
 10
6.171105579480638
 20
3.574999679512941
 30
0.0
 11
7.921105579480638
 21
3.574999679512941
 31
0.0
  0
LINE
  5
6E7
330
1A
100
AcDbEntity
  8
ZUWAKU
100
AcDbLine
 10
6.171105579480638
 20
4.97499967951294
 30
0.0
 11
7.658605579480649
 21
4.97499967951294
 31
0.0
  0
LINE
  5
6E8
330
1A
100
AcDbEntity
  8
ZUWAKU
100
AcDbLine
 10
6.261181338988876
 20
7.83247442634353
 30
0.0
 11
7.716080326311214
 21
6.3775754390212
 31
0.0
  0
LINE
  5
6E9
330
1A
100
AcDbEntity
  8
ZUWAKU
100
AcDbLine
 10
9.321105579480672
 20
4.97499967951294
 30
0.0
 11
9.321105579480672
 21
5.882600692190614
 31
0.0
  0
ARC
  5
6EA
330
1A
100
AcDbEntity
  8
ZUWAKU
100
AcDbCircle
 10
12.47110557948065
 20
5.674999679512943
 30
0.0
 40
0.7
100
AcDbArc
 50
180.0
 51
270.0
  0
ARC
  5
6EB
330
1A
100
AcDbEntity
  8
ZUWAKU
100
AcDbCircle
 10
8.796105579480638
 20
11.36249967951294
 30
0.0
 40
0.2625
100
AcDbArc
 50
0.0
 51
90.0
  0
ARC
  5
6EC
330
1A
100
AcDbEntity
  8
ZUWAKU
100
AcDbCircle
 10
8.796105579480638
 20
10.48749967951293
 30
0.0
 40
0.2625
100
AcDbArc
 50
270.0
 51
0.0
  0
LINE
  5
6ED
330
1A
100
AcDbEntity
  8
ZUWAKU
100
AcDbLine
 10
7.046105579480638
 20
11.62499967951294
 30
0.0
 11
8.796105579480638
 21
11.62499967951294
 31
0.0
  0
ARC
  5
6EE
330
1A
100
AcDbEntity
  8
ZUWAKU
100
AcDbCircle
 10
7.308605579480627
 20
9.962499679512941
 30
0.0
 40
0.2625
100
AcDbArc
 50
90.0
 51
180.0
  0
LINE
  5
6EF
330
1A
100
AcDbEntity
  8
ZUWAKU
100
AcDbLine
 10
7.046105579480638
 20
9.962499679512941
 30
0.0
 11
7.046105579480638
 21
9.31739866683527
 31
0.0
  0
LINE
  5
6F0
330
1A
100
AcDbEntity
  8
ZUWAKU
100
AcDbLine
 10
8.796105579480638
 20
10.22499967951294
 30
0.0
 11
7.308605579480627
 21
10.22499967951294
 31
0.0
  0
LINE
  5
6F1
330
1A
100
AcDbEntity
  8
ZUWAKU
100
AcDbLine
 10
5.646105579480661
 20
10.22499967951294
 30
0.0
 11
5.646105579480661
 21
9.31739866683527
 31
0.0
  0
ARC
  5
6F2
330
1A
100
AcDbEntity
  8
ZUWAKU
100
AcDbCircle
 10
7.046105579480638
 20
10.22499967951294
 30
0.0
 40
1.399999999999999
100
AcDbArc
 50
90.0
 51
180.0
  0
LINE
  5
6F3
330
1A
100
AcDbEntity
  8
ZUWAKU
100
AcDbLine
 10
9.058605579480627
 20
11.36249967951294
 30
0.0
 11
9.058605579480627
 21
10.48749967951293
 31
0.0
  0
ARC
  5
6F4
330
1A
100
AcDbEntity
  8
ZUWAKU
100
AcDbCircle
 10
12.47110557948065
 20
9.524999679512941
 30
0.0
 40
0.7
100
AcDbArc
 50
90.0
 51
180.0
  0
ARC
  5
6F5
330
1A
100
AcDbEntity
  8
ZUWAKU
100
AcDbCircle
 10
12.47110557948065
 20
9.524999679512919
 30
0.0
 40
2.099999999999999
100
AcDbArc
 50
90.0
 51
180.0
  0
TEXT
  5
6F6
330
1A
100
AcDbEntity
  8
MOJI
100
AcDbText
 10
46.47889429617464
 20
6.370588744650319
 30
0.0
 40
3.0
  1
ライナートップ
 41
0.9
  7
ｽﾀｲﾙ1
100
AcDbText
  0
LINE
  5
6F7
330
1A
100
AcDbEntity
  8
ZUWAKU
100
AcDbLine
 10
39.66331427608418
 20
14.99999967951294
 30
0.0
 11
39.66331427608429
 21
0.3999996795129732
 31
0.0
  0
LINE
  5
6F8
330
1A
100
AcDbEntity
  8
ZUWAKU
100
AcDbLine
 10
39.7633142760842
 20
14.99999967951294
 30
0.0
 11
39.76331427608431
 21
0.3999996795129732
 31
0.0
  0
LINE
  5
6F9
330
1A
100
AcDbEntity
  8
ZUWAKU
100
AcDbLine
 10
39.56331427608427
 20
14.99999967951294
 30
0.0
 11
39.56331427608427
 21
0.3999996795129732
 31
0.0
  0
LINE
  5
6FA
330
1A
100
AcDbEntity
  8
ZUWAKU
100
AcDbLine
 10
32.07110557948067
 20
4.97499967951294
 30
0.0
 11
32.07110557948067
 21
11.36249967951294
 31
0.0
  0
LINE
  5
6FB
330
1A
100
AcDbEntity
  8
ZUWAKU
100
AcDbLine
 10
30.67110557948064
 20
11.36249967951294
 30
0.0
 11
30.67110557948064
 21
5.499999679512939
 31
0.0
  0
LINE
  5
6FC
330
1A
100
AcDbEntity
  8
ZUWAKU
100
AcDbLine
 10
34.52110557948066
 20
3.837499679512941
 30
0.0
 11
34.52110557948066
 21
11.36249967951294
 31
0.0
  0
LINE
  5
6FD
330
1A
100
AcDbEntity
  8
ZUWAKU
100
AcDbLine
 10
33.12110557948062
 20
11.36249967951294
 30
0.0
 11
33.12110557948062
 21
3.837499679512941
 31
0.0
  0
ARC
  5
6FE
330
1A
100
AcDbEntity
  8
ZUWAKU
100
AcDbCircle
 10
24.89610557948066
 20
9.317398666835291
 30
0.0
 40
0.7
100
AcDbArc
 50
180.0000000000016
 51
224.9999999999988
  0
ARC
  5
6FF
330
1A
100
AcDbEntity
  8
ZUWAKU
100
AcDbCircle
 10
24.89610557948066
 20
9.317398666835291
 30
0.0
 40
2.099999999999999
100
AcDbArc
 50
180.0
 51
225.0
  0
LINE
  5
700
330
1A
100
AcDbEntity
  8
ZUWAKU
100
AcDbLine
 10
18.65742882056963
 20
9.602523276294654
 30
0.0
 11
18.02505294790171
 21
7.599999679512951
 31
0.0
  0
LINE
  5
701
330
1A
100
AcDbEntity
  8
ZUWAKU
100
AcDbLine
 10
20.34610557948064
 20
11.36249967951294
 30
0.0
 11
20.34610557948064
 21
3.837499679512941
 31
0.0
  0
LINE
  5
702
330
1A
100
AcDbEntity
  8
ZUWAKU
100
AcDbLine
 10
21.74610557948062
 20
3.837499679512941
 30
0.0
 11
21.74610557948062
 21
11.36249967951294
 31
0.0
  0
LINE
  5
703
330
1A
100
AcDbEntity
  8
ZUWAKU
100
AcDbLine
 10
27.52110557948066
 20
11.36249967951294
 30
0.0
 11
27.52110557948066
 21
4.97499967951294
 31
0.0
  0
LINE
  5
704
330
1A
100
AcDbEntity
  8
ZUWAKU
100
AcDbLine
 10
28.92110557948063
 20
5.499999679512939
 30
0.0
 11
28.92110557948063
 21
11.36249967951294
 31
0.0
  0
LINE
  5
705
330
1A
100
AcDbEntity
  8
ZUWAKU
100
AcDbLine
 10
16.32110557948067
 20
8.562499679512942
 30
0.0
 11
16.32110557948067
 21
11.36249967951294
 31
0.0
  0
LINE
  5
706
330
1A
100
AcDbEntity
  8
ZUWAKU
100
AcDbLine
 10
14.92110557948064
 20
11.36249967951294
 30
0.0
 11
14.92110557948064
 21
3.837499679512941
 31
0.0
  0
LINE
  5
707
330
1A
100
AcDbEntity
  8
ZUWAKU
100
AcDbLine
 10
17.83817304813857
 20
11.44154666359642
 30
0.0
 11
16.90403811082268
 21
8.483452695429456
 31
0.0
  0
LINE
  5
708
330
1A
100
AcDbEntity
  8
ZUWAKU
100
AcDbLine
 10
30.14610557948066
 20
4.97499967951294
 30
0.0
 11
29.44610557948067
 21
4.97499967951294
 31
0.0
  0
LINE
  5
709
330
1A
100
AcDbEntity
  8
ZUWAKU
100
AcDbLine
 10
28.92110557948063
 20
3.574999679512941
 30
0.0
 11
30.67110557948064
 21
3.574999679512941
 31
0.0
  0
LINE
  5
70A
330
1A
100
AcDbEntity
  8
ZUWAKU
100
AcDbLine
 10
20.60860557948064
 20
3.574999679512941
 30
0.0
 11
21.48360557948064
 21
3.574999679512941
 31
0.0
  0
LINE
  5
70B
330
1A
100
AcDbEntity
  8
ZUWAKU
100
AcDbLine
 10
17.83817304813857
 20
3.758452695429454
 30
0.0
 11
16.90403811082268
 21
6.716546663596425
 31
0.0
  0
ARC
  5
70C
330
1A
100
AcDbEntity
  8
ZUWAKU
100
AcDbCircle
 10
16.653722661225
 20
8.562499679512942
 30
0.0
 40
0.2625
100
AcDbArc
 50
270.0
 51
342.4744316262769
  0
LINE
  5
70D
330
1A
100
AcDbEntity
  8
ZUWAKU
100
AcDbLine
 10
16.653722661225
 20
8.299999679512939
 30
0.0
 11
16.58360557948066
 21
8.299999679512939
 31
0.0
  0
LINE
  5
70E
330
1A
100
AcDbEntity
  8
ZUWAKU
100
AcDbLine
 10
16.58360557948066
 20
6.899999679512941
 30
0.0
 11
16.653722661225
 21
6.899999679512941
 31
0.0
  0
ARC
  5
70F
330
1A
100
AcDbEntity
  8
ZUWAKU
100
AcDbCircle
 10
16.58360557948066
 20
8.562499679512942
 30
0.0
 40
0.2625
100
AcDbArc
 50
180.0
 51
270.0
  0
LINE
  5
710
330
1A
100
AcDbEntity
  8
ZUWAKU
100
AcDbLine
 10
15.18360557948062
 20
3.574999679512941
 30
0.0
 11
16.05860557948062
 21
3.574999679512941
 31
0.0
  0
ARC
  5
711
330
1A
100
AcDbEntity
  8
ZUWAKU
100
AcDbCircle
 10
16.05860557948062
 20
3.837499679512941
 30
0.0
 40
0.2625
100
AcDbArc
 50
270.0
 51
0.0
  0
LINE
  5
712
330
1A
100
AcDbEntity
  8
ZUWAKU
100
AcDbLine
 10
16.32110557948067
 20
3.837499679512941
 30
0.0
 11
16.32110557948067
 21
6.637499679512941
 31
0.0
  0
LINE
  5
713
330
1A
100
AcDbEntity
  8
ZUWAKU
100
AcDbLine
 10
13.69610557948067
 20
4.712499679512941
 30
0.0
 11
13.69610557948067
 21
3.837499679512941
 31
0.0
  0
ARC
  5
714
330
1A
100
AcDbEntity
  8
ZUWAKU
100
AcDbCircle
 10
13.43360557948062
 20
3.837499679512941
 30
0.0
 40
0.2625
100
AcDbArc
 50
270.0
 51
0.0
  0
ARC
  5
715
330
1A
100
AcDbEntity
  8
ZUWAKU
100
AcDbCircle
 10
13.43360557948062
 20
4.712499679512941
 30
0.0
 40
0.2625
100
AcDbArc
 50
0.0
 51
90.0
  0
ARC
  5
716
330
1A
100
AcDbEntity
  8
ZUWAKU
100
AcDbCircle
 10
15.18360557948062
 20
3.837499679512941
 30
0.0
 40
0.2625
100
AcDbArc
 50
180.0
 51
270.0
  0
ARC
  5
717
330
1A
100
AcDbEntity
  8
ZUWAKU
100
AcDbCircle
 10
16.653722661225
 20
6.637499679512941
 30
0.0
 40
0.2625
100
AcDbArc
 50
17.52556837372303
 51
90.0
  0
ARC
  5
718
330
1A
100
AcDbEntity
  8
ZUWAKU
100
AcDbCircle
 10
16.58360557948066
 20
6.637499679512941
 30
0.0
 40
0.2625
100
AcDbArc
 50
90.0
 51
180.0
  0
ARC
  5
719
330
1A
100
AcDbEntity
  8
ZUWAKU
100
AcDbCircle
 10
20.60860557948064
 20
3.837499679512941
 30
0.0
 40
0.2625
100
AcDbArc
 50
180.0
 51
270.0
  0
LINE
  5
71A
330
1A
100
AcDbEntity
  8
ZUWAKU
100
AcDbLine
 10
18.0884884977363
 20
3.574999679512941
 30
0.0
 11
18.9379331875408
 21
3.574999679512941
 31
0.0
  0
ARC
  5
71B
330
1A
100
AcDbEntity
  8
ZUWAKU
100
AcDbCircle
 10
18.9379331875408
 20
3.837499679512941
 30
0.0
 40
0.2625
100
AcDbArc
 50
270.0
 51
17.52556837372303
  0
LINE
  5
71C
330
1A
100
AcDbEntity
  8
ZUWAKU
100
AcDbLine
 10
19.18824863713854
 20
3.916546663596427
 30
0.0
 11
18.02505294790171
 21
7.599999679512951
 31
0.0
  0
ARC
  5
71D
330
1A
100
AcDbEntity
  8
ZUWAKU
100
AcDbCircle
 10
18.0884884977363
 20
3.837499679512941
 30
0.0
 40
0.2625
100
AcDbArc
 50
197.525568373723
 51
270.0
  0
ARC
  5
71E
330
1A
100
AcDbEntity
  8
ZUWAKU
100
AcDbCircle
 10
28.92110557948063
 20
4.97499967951294
 30
0.0
 40
1.399999999999999
100
AcDbArc
 50
180.0
 51
270.0
  0
ARC
  5
71F
330
1A
100
AcDbEntity
  8
ZUWAKU
100
AcDbCircle
 10
25.07110557948067
 20
4.97499967951294
 30
0.0
 40
1.399999999999999
100
AcDbArc
 50
270.0
 51
0.0
  0
LINE
  5
720
330
1A
100
AcDbEntity
  8
ZUWAKU
100
AcDbLine
 10
25.85602981997243
 20
7.367524932682353
 30
0.0
 11
24.40113083265003
 21
8.822423920004691
 31
0.0
  0
LINE
  5
721
330
1A
100
AcDbEntity
  8
ZUWAKU
100
AcDbLine
 10
25.07110557948067
 20
5.237499679512943
 30
0.0
 11
25.07110557948067
 21
5.882600692190614
 31
0.0
  0
ARC
  5
722
330
1A
100
AcDbEntity
  8
ZUWAKU
100
AcDbCircle
 10
24.37110557948062
 20
5.882600692190614
 30
0.0
 40
0.7
100
AcDbArc
 50
0.0
 51
45.0
  0
ARC
  5
723
330
1A
100
AcDbEntity
  8
ZUWAKU
100
AcDbCircle
 10
24.80860557948062
 20
5.237499679512943
 30
0.0
 40
0.2625
100
AcDbArc
 50
270.0
 51
0.0
  0
LINE
  5
724
330
1A
100
AcDbEntity
  8
ZUWAKU
100
AcDbLine
 10
23.05860557948062
 20
3.837499679512941
 30
0.0
 11
23.05860557948062
 21
4.712499679512941
 31
0.0
  0
ARC
  5
725
330
1A
100
AcDbEntity
  8
ZUWAKU
100
AcDbCircle
 10
23.32110557948067
 20
3.837499679512941
 30
0.0
 40
0.2625
100
AcDbArc
 50
180.0
 51
270.0
  0
ARC
  5
726
330
1A
100
AcDbEntity
  8
ZUWAKU
100
AcDbCircle
 10
21.48360557948064
 20
3.837499679512941
 30
0.0
 40
0.2625
100
AcDbArc
 50
270.0
 51
0.0
  0
ARC
  5
727
330
1A
100
AcDbEntity
  8
ZUWAKU
100
AcDbCircle
 10
23.32110557948067
 20
4.712499679512941
 30
0.0
 40
0.2625
100
AcDbArc
 50
90.0
 51
180.0
  0
LINE
  5
728
330
1A
100
AcDbEntity
  8
ZUWAKU
100
AcDbLine
 10
23.32110557948067
 20
4.97499967951294
 30
0.0
 11
24.80860557948062
 21
4.97499967951294
 31
0.0
  0
LINE
  5
729
330
1A
100
AcDbEntity
  8
ZUWAKU
100
AcDbLine
 10
23.32110557948067
 20
3.574999679512941
 30
0.0
 11
25.07110557948067
 21
3.574999679512941
 31
0.0
  0
LINE
  5
72A
330
1A
100
AcDbEntity
  8
ZUWAKU
100
AcDbLine
 10
23.41118133898891
 20
7.83247442634353
 30
0.0
 11
24.86608032631124
 21
6.3775754390212
 31
0.0
  0
LINE
  5
72B
330
1A
100
AcDbEntity
  8
ZUWAKU
100
AcDbLine
 10
26.47110557948065
 20
4.97499967951294
 30
0.0
 11
26.47110557948065
 21
5.882600692190614
 31
0.0
  0
ARC
  5
72C
330
1A
100
AcDbEntity
  8
ZUWAKU
100
AcDbCircle
 10
24.37110557948062
 20
5.882600692190592
 30
0.0
 40
2.099999999999999
100
AcDbArc
 50
0.0
 51
45.0
  0
ARC
  5
72D
330
1A
100
AcDbEntity
  8
ZUWAKU
100
AcDbCircle
 10
29.44610557948067
 20
5.499999679512939
 30
0.0
 40
0.525
100
AcDbArc
 50
180.0
 51
270.0
  0
ARC
  5
72E
330
1A
100
AcDbEntity
  8
ZUWAKU
100
AcDbCircle
 10
30.67110557948064
 20
4.97499967951294
 30
0.0
 40
1.399999999999999
100
AcDbArc
 50
270.0
 51
0.0
  0
LINE
  5
72F
330
1A
100
AcDbEntity
  8
ZUWAKU
100
AcDbLine
 10
33.38360557948067
 20
3.574999679512941
 30
0.0
 11
34.25860557948067
 21
3.574999679512941
 31
0.0
  0
ARC
  5
730
330
1A
100
AcDbEntity
  8
ZUWAKU
100
AcDbCircle
 10
33.38360557948067
 20
3.837499679512941
 30
0.0
 40
0.2625
100
AcDbArc
 50
180.0
 51
270.0
  0
ARC
  5
731
330
1A
100
AcDbEntity
  8
ZUWAKU
100
AcDbCircle
 10
30.14610557948066
 20
5.499999679512939
 30
0.0
 40
0.525
100
AcDbArc
 50
270.0
 51
0.0
  0
ARC
  5
732
330
1A
100
AcDbEntity
  8
ZUWAKU
100
AcDbCircle
 10
34.25860557948067
 20
3.837499679512941
 30
0.0
 40
0.2625
100
AcDbArc
 50
270.0
 51
0.0
  0
LINE
  5
733
330
1A
100
AcDbEntity
  8
ZUWAKU
100
AcDbLine
 10
21.48360557948064
 20
11.62499967951294
 30
0.0
 11
20.60860557948064
 21
11.62499967951294
 31
0.0
  0
ARC
  5
734
330
1A
100
AcDbEntity
  8
ZUWAKU
100
AcDbCircle
 10
16.05860557948062
 20
11.36249967951294
 30
0.0
 40
0.2625
100
AcDbArc
 50
0.0
 51
90.0
  0
LINE
  5
735
330
1A
100
AcDbEntity
  8
ZUWAKU
100
AcDbLine
 10
16.05860557948062
 20
11.62499967951294
 30
0.0
 11
15.18360557948062
 21
11.62499967951294
 31
0.0
  0
ARC
  5
736
330
1A
100
AcDbEntity
  8
ZUWAKU
100
AcDbCircle
 10
13.43360557948062
 20
11.36249967951294
 30
0.0
 40
0.2625
100
AcDbArc
 50
0.0
 51
90.0
  0
ARC
  5
737
330
1A
100
AcDbEntity
  8
ZUWAKU
100
AcDbCircle
 10
15.18360557948062
 20
11.36249967951294
 30
0.0
 40
0.2625
100
AcDbArc
 50
90.0
 51
180.0
  0
ARC
  5
738
330
1A
100
AcDbEntity
  8
ZUWAKU
100
AcDbCircle
 10
13.43360557948062
 20
10.48749967951293
 30
0.0
 40
0.2625
100
AcDbArc
 50
270.0
 51
0.0
  0
LINE
  5
739
330
1A
100
AcDbEntity
  8
ZUWAKU
100
AcDbLine
 10
13.69610557948067
 20
11.36249967951294
 30
0.0
 11
13.69610557948067
 21
10.48749967951293
 31
0.0
  0
ARC
  5
73A
330
1A
100
AcDbEntity
  8
ZUWAKU
100
AcDbCircle
 10
20.60860557948064
 20
11.36249967951294
 30
0.0
 40
0.2625
100
AcDbArc
 50
90.0
 51
180.0
  0
LINE
  5
73B
330
1A
100
AcDbEntity
  8
ZUWAKU
100
AcDbLine
 10
18.0884884977363
 20
11.62499967951294
 30
0.0
 11
18.9379331875408
 21
11.62499967951294
 31
0.0
  0
ARC
  5
73C
330
1A
100
AcDbEntity
  8
ZUWAKU
100
AcDbCircle
 10
18.9379331875408
 20
11.36249967951294
 30
0.0
 40
0.2625
100
AcDbArc
 50
342.4744316262769
 51
90.0
  0
LINE
  5
73D
330
1A
100
AcDbEntity
  8
ZUWAKU
100
AcDbLine
 10
19.18824863713854
 20
11.28345269542945
 30
0.0
 11
18.65742882056963
 21
9.602523276294654
 31
0.0
  0
ARC
  5
73E
330
1A
100
AcDbEntity
  8
ZUWAKU
100
AcDbCircle
 10
18.0884884977363
 20
11.36249967951294
 30
0.0
 40
0.2625
100
AcDbArc
 50
90.0
 51
162.4744316262769
  0
LINE
  5
73F
330
1A
100
AcDbEntity
  8
ZUWAKU
100
AcDbLine
 10
24.19610557948067
 20
11.62499967951294
 30
0.0
 11
25.94610557948067
 21
11.62499967951294
 31
0.0
  0
LINE
  5
740
330
1A
100
AcDbEntity
  8
ZUWAKU
100
AcDbLine
 10
25.94610557948067
 20
10.22499967951294
 30
0.0
 11
24.45860557948066
 21
10.22499967951294
 31
0.0
  0
ARC
  5
741
330
1A
100
AcDbEntity
  8
ZUWAKU
100
AcDbCircle
 10
24.45860557948066
 20
9.962499679512941
 30
0.0
 40
0.2625
100
AcDbArc
 50
90.0
 51
180.0
  0
LINE
  5
742
330
1A
100
AcDbEntity
  8
ZUWAKU
100
AcDbLine
 10
24.19610557948067
 20
9.962499679512941
 30
0.0
 11
24.19610557948067
 21
9.31739866683527
 31
0.0
  0
ARC
  5
743
330
1A
100
AcDbEntity
  8
ZUWAKU
100
AcDbCircle
 10
21.48360557948064
 20
11.36249967951294
 30
0.0
 40
0.2625
100
AcDbArc
 50
0.0
 51
90.0
  0
LINE
  5
744
330
1A
100
AcDbEntity
  8
ZUWAKU
100
AcDbLine
 10
22.79610557948064
 20
10.22499967951294
 30
0.0
 11
22.79610557948064
 21
9.31739866683527
 31
0.0
  0
ARC
  5
745
330
1A
100
AcDbEntity
  8
ZUWAKU
100
AcDbCircle
 10
24.19610557948067
 20
10.22499967951294
 30
0.0
 40
1.399999999999999
100
AcDbArc
 50
90.0
 51
180.0
  0
ARC
  5
746
330
1A
100
AcDbEntity
  8
ZUWAKU
100
AcDbCircle
 10
28.65860557948065
 20
11.36249967951294
 30
0.0
 40
0.2625
100
AcDbArc
 50
0.0
 51
90.0
  0
ARC
  5
747
330
1A
100
AcDbEntity
  8
ZUWAKU
100
AcDbCircle
 10
27.78360557948065
 20
11.36249967951294
 30
0.0
 40
0.2625
100
AcDbArc
 50
90.0
 51
180.0
  0
LINE
  5
748
330
1A
100
AcDbEntity
  8
ZUWAKU
100
AcDbLine
 10
28.65860557948065
 20
11.62499967951294
 30
0.0
 11
27.78360557948065
 21
11.62499967951294
 31
0.0
  0
ARC
  5
749
330
1A
100
AcDbEntity
  8
ZUWAKU
100
AcDbCircle
 10
25.94610557948067
 20
11.36249967951294
 30
0.0
 40
0.2625
100
AcDbArc
 50
0.0
 51
90.0
  0
ARC
  5
74A
330
1A
100
AcDbEntity
  8
ZUWAKU
100
AcDbCircle
 10
25.94610557948067
 20
10.48749967951293
 30
0.0
 40
0.2625
100
AcDbArc
 50
270.0
 51
0.0
  0
LINE
  5
74B
330
1A
100
AcDbEntity
  8
ZUWAKU
100
AcDbLine
 10
26.20860557948066
 20
11.36249967951294
 30
0.0
 11
26.20860557948066
 21
10.48749967951293
 31
0.0
  0
LINE
  5
74C
330
1A
100
AcDbEntity
  8
ZUWAKU
100
AcDbLine
 10
34.25860557948067
 20
11.62499967951294
 30
0.0
 11
33.38360557948067
 21
11.62499967951294
 31
0.0
  0
ARC
  5
74D
330
1A
100
AcDbEntity
  8
ZUWAKU
100
AcDbCircle
 10
33.38360557948067
 20
11.36249967951294
 30
0.0
 40
0.2625
100
AcDbArc
 50
90.0
 51
180.0
  0
ARC
  5
74E
330
1A
100
AcDbEntity
  8
ZUWAKU
100
AcDbCircle
 10
31.80860557948062
 20
11.36249967951294
 30
0.0
 40
0.2625
100
AcDbArc
 50
0.0
 51
90.0
  0
LINE
  5
74F
330
1A
100
AcDbEntity
  8
ZUWAKU
100
AcDbLine
 10
31.80860557948062
 20
11.62499967951294
 30
0.0
 11
30.93360557948062
 21
11.62499967951294
 31
0.0
  0
ARC
  5
750
330
1A
100
AcDbEntity
  8
ZUWAKU
100
AcDbCircle
 10
30.93360557948062
 20
11.36249967951294
 30
0.0
 40
0.2625
100
AcDbArc
 50
90.0
 51
180.0
  0
ARC
  5
751
330
1A
100
AcDbEntity
  8
ZUWAKU
100
AcDbCircle
 10
34.25860557948067
 20
11.36249967951294
 30
0.0
 40
0.2625
100
AcDbArc
 50
0.0
 51
90.0
  0
TEXT
  5
752
330
1A
100
AcDbEntity
  8
MOJI
100
AcDbText
 10
119.9136008425156
 20
9.002460208216632
 30
0.0
 40
2.799999999999999
  1
ステンレス金具打込丸足
 41
0.9
  7
ｽﾀｲﾙ1
100
AcDbText
  0
TEXT
  5
753
330
1A
100
AcDbEntity
  8
MOJI
100
AcDbText
 10
119.9136008425156
 20
1.602460208216649
 30
0.0
 40
2.799999999999999
  1
Ｘ４０－Ｌ１２０
 41
0.9
  7
ｽﾀｲﾙ1
100
AcDbText
  0
LINE
  5
754
330
1A
100
AcDbEntity
  8
ZUWAKU
100
AcDbLine
 10
104.123300147124
 20
14.99999967951294
 30
0.0
 11
104.123300147124
 21
0.3999996795129732
 31
0.0
  0
LINE
  5
755
330
1A
100
AcDbEntity
  8
ZUWAKU
100
AcDbLine
 10
104.3233001471239
 20
14.99999967951294
 30
0.0
 11
104.323300147124
 21
0.3999996795129732
 31
0.0
  0
LINE
  5
756
330
1A
100
AcDbEntity
  8
ZUWAKU
100
AcDbLine
 10
104.2233001471239
 20
14.99999967951294
 30
0.0
 11
104.223300147124
 21
0.3999996795129732
 31
0.0
  0
TEXT
  5
757
330
1A
100
AcDbEntity
  8
ZUWAKU
100
AcDbText
 10
104.8620226582288
 20
4.827677948705748
 30
0.0
 40
2.0
  1
サイズ
 41
0.9
  7
ｽﾀｲﾙ1
100
AcDbText
  0
TEXT
  5
758
330
1A
100
AcDbEntity
  8
ZUWAKU
100
AcDbText
 10
104.8620226582287
 20
12.02767794870573
 30
0.0
 40
2.0
  1
品名
 41
0.9
  7
ｽﾀｲﾙ1
100
AcDbText
  0
LINE
  5
759
330
1A
100
AcDbEntity
  8
ZUWAKU
100
AcDbLine
 10
324.4086007571922
 20
7.599999679512954
 30
0.0
 11
348.6245047763607
 21
7.599999679512956
 31
0.0
  0
LINE
  5
75A
330
1A
100
AcDbEntity
  8
ZUWAKU
100
AcDbLine
 10
324.4086007571922
 20
7.699999679512957
 30
0.0
 11
348.6245047763607
 21
7.699999679512956
 31
0.0
  0
LINE
  5
75B
330
1A
100
AcDbEntity
  8
ZUWAKU
100
AcDbLine
 10
324.4086007571922
 20
7.799999679512955
 30
0.0
 11
348.6245047763607
 21
7.799999679512955
 31
0.0
  0
TEXT
  5
75C
330
1A
100
AcDbEntity
  8
ZUWAKU
100
AcDbText
 10
329.1019683457412
 20
9.002460208216632
 30
0.0
 40
2.799999999999999
  1
　　．　　．　　
 41
0.9
  7
ｽﾀｲﾙ1
100
AcDbText
  0
LINE
  5
75D
330
1A
100
AcDbEntity
  8
ZUWAKU
100
AcDbLine
 10
252.5995892511605
 20
7.599999679512958
 30
0.0
 11
276.2634773851463
 21
7.599999679512958
 31
0.0
  0
LINE
  5
75E
330
1A
100
AcDbEntity
  8
ZUWAKU
100
AcDbLine
 10
252.5995892511605
 20
7.699999679512956
 30
0.0
 11
276.2634773851463
 21
7.699999679512956
 31
0.0
  0
LINE
  5
75F
330
1A
100
AcDbEntity
  8
ZUWAKU
100
AcDbLine
 10
252.5995892511605
 20
7.799999679512955
 30
0.0
 11
276.2634773851463
 21
7.799999679512955
 31
0.0
  0
TEXT
  5
760
330
1A
100
AcDbEntity
  8
MOJI
100
AcDbText
 10
231.2836386630844
 20
5.971308540342931
 30
0.0
 40
2.799999999999999
  1
ＬＤ０９□
 41
0.9
  7
ｽﾀｲﾙ1
100
AcDbText
  0
LINE
  5
761
330
1A
100
AcDbEntity
  8
ZUWAKU
100
AcDbLine
 10
223.8121814875857
 20
14.99999967951294
 30
0.0
 11
223.8121814875857
 21
0.3999996795129732
 31
0.0
  0
LINE
  5
762
330
1A
100
AcDbEntity
  8
ZUWAKU
100
AcDbLine
 10
223.9121814875857
 20
14.99999967951294
 30
0.0
 11
223.9121814875858
 21
0.3999996795129732
 31
0.0
  0
LINE
  5
763
330
1A
100
AcDbEntity
  8
ZUWAKU
100
AcDbLine
 10
223.7121814875858
 20
14.99999967951294
 30
0.0
 11
223.7121814875858
 21
0.3999996795129732
 31
0.0
  0
TEXT
  5
764
330
1A
100
AcDbEntity
  8
MOJI
100
AcDbText
 10
264.0204534882465
 20
9.002460208216632
 30
0.0
 40
2.799999999999999
  1
Ａ３
 41
0.9
  7
ｽﾀｲﾙ1
100
AcDbText
  0
LINE
  5
765
330
1A
100
AcDbEntity
  8
ZUWAKU
100
AcDbLine
 10
252.4995892511605
 20
14.99999967951294
 30
0.0
 11
252.4995892511606
 21
0.3999996795129732
 31
0.0
  0
LINE
  5
766
330
1A
100
AcDbEntity
  8
ZUWAKU
100
AcDbLine
 10
252.5995892511605
 20
14.99999967951294
 30
0.0
 11
252.5995892511606
 21
0.3999996795129732
 31
0.0
  0
LINE
  5
767
330
1A
100
AcDbEntity
  8
ZUWAKU
100
AcDbLine
 10
252.3995892511606
 20
14.99999967951294
 30
0.0
 11
252.3995892511606
 21
0.3999996795129732
 31
0.0
  0
TEXT
  5
768
330
1A
100
AcDbEntity
  8
ZUWAKU
100
AcDbText
 10
230.8507805316366
 20
1.623757161355399
 30
0.0
 40
1.5
  1
□には色品番が入ります
 41
0.9
  7
ｽﾀｲﾙ1
100
AcDbText
  0
TEXT
  5
769
330
1A
100
AcDbEntity
  8
ZUWAKU
100
AcDbText
 10
253.3383117622654
 20
4.827677948705748
 30
0.0
 40
2.0
  1
縮尺
 41
0.9
  7
ｽﾀｲﾙ1
100
AcDbText
  0
TEXT
  5
76A
330
1A
100
AcDbEntity
  8
MOJI
100
AcDbText
 10
264.0204534882465
 20
1.602460208216649
 30
0.0
 40
2.799999999999999
  1
１/１
 41
0.9
  7
ｽﾀｲﾙ1
100
AcDbText
  0
TEXT
  5
76B
330
1A
100
AcDbEntity
  8
ZUWAKU
100
AcDbText
 10
224.6509039986905
 20
12.02767794870573
 30
0.0
 40
2.0
  1
品番
 41
0.9
  7
ｽﾀｲﾙ1
100
AcDbText
  0
TEXT
  5
76C
330
1A
100
AcDbEntity
  8
ZUWAKU
100
AcDbText
 10
253.3383117622653
 20
12.02767794870573
 30
0.0
 40
2.0
  1
用紙
 41
0.9
  7
ｽﾀｲﾙ1
100
AcDbText
  0
LINE
  5
76D
330
1A
100
AcDbEntity
  8
ZUWAKU
100
AcDbLine
 10
324.3086007571922
 20
14.99999967951294
 30
0.0
 11
324.3086007571923
 21
0.3999996795129732
 31
0.0
  0
LINE
  5
76E
330
1A
100
AcDbEntity
  8
ZUWAKU
100
AcDbLine
 10
324.4086007571922
 20
14.99999967951294
 30
0.0
 11
324.4086007571924
 21
0.3999996795129732
 31
0.0
  0
LINE
  5
76F
330
1A
100
AcDbEntity
  8
ZUWAKU
100
AcDbLine
 10
324.2086007571923
 20
14.99999967951294
 30
0.0
 11
324.2086007571923
 21
0.3999996795129732
 31
0.0
  0
LINE
  5
770
330
1A
100
AcDbEntity
  8
ZUWAKU
100
AcDbLine
 10
276.3634773851462
 20
14.99999967951294
 30
0.0
 11
276.3634773851463
 21
0.3999996795129732
 31
0.0
  0
LINE
  5
771
330
1A
100
AcDbEntity
  8
ZUWAKU
100
AcDbLine
 10
276.4634773851462
 20
14.99999967951294
 30
0.0
 11
276.4634773851463
 21
0.3999996795129732
 31
0.0
  0
LINE
  5
772
330
1A
100
AcDbEntity
  8
ZUWAKU
100
AcDbLine
 10
276.2634773851463
 20
14.99999967951294
 30
0.0
 11
276.2634773851463
 21
0.3999996795129732
 31
0.0
  0
TEXT
  5
773
330
1A
100
AcDbEntity
  8
ZUWAKU
100
AcDbText
 10
325.147323268297
 20
12.02767794870573
 30
0.0
 40
2.0
  1
DATE
 41
0.9
  7
ｽﾀｲﾙ1
100
AcDbText
  0
LINE
  5
774
330
1A
100
AcDbEntity
  8
ZUWAKU
100
AcDbLine
 10
348.6245047763607
 20
14.99999967951294
 30
0.0
 11
348.6245047763607
 21
0.3999996795129732
 31
0.0
  0
LINE
  5
775
330
1A
100
AcDbEntity
  8
ZUWAKU
100
AcDbLine
 10
348.7245047763607
 20
14.99999967951294
 30
0.0
 11
348.7245047763607
 21
0.3999996795129732
 31
0.0
  0
LINE
  5
776
330
1A
100
AcDbEntity
  8
ZUWAKU
100
AcDbLine
 10
348.8245047763606
 20
14.99999967951294
 30
0.0
 11
348.8245047763607
 21
0.3999996795129732
 31
0.0
  0
LINE
  5
777
330
1A
100
AcDbEntity
  8
ZUWAKU
100
AcDbLine
 10
348.9245047763606
 20
14.99999967951294
 30
0.0
 11
348.9245047763607
 21
0.3999996795129732
 31
0.0
  0
TEXT
  5
778
330
1A
100
AcDbEntity
  8
ZUWAKU
100
AcDbText
 10
354.2640415982119
 20
8.77691934735634
 30
0.0
 40
3.0
  1
積水化学工業株式会社
 41
0.9
  7
ｽﾀｲﾙ1
100
AcDbText
  0
TEXT
  5
779
330
1A
100
AcDbEntity
  8
ZUWAKU
100
AcDbText
 10
354.2640415982119
 20
3.324419836439972
 30
0.0
 40
3.0
  1
建材事業部
 41
0.9
  7
ｽﾀｲﾙ1
100
AcDbText
  0
VIEWPORT
  5
22
330
17
100
AcDbEntity
 67
     1
  8
0
100
AcDbViewport
 10
313.6808219178082
 20
148.5
 30
0.0
 40
627.3616438356165
 41
297.0
 68
     2
 69
     1
1001
ACAD
1000
MVIEW
1002
{
1070
    16
1010
0.0
1020
0.0
1030
0.0
1010
0.0
1020
0.0
1030
1.0
1040
0.0
1040
297.0
1040
313.6808219178082
1040
148.5
1040
50.0
1040
0.0
1040
0.0
1070
     0
1070
   100
1070
     1
1070
     0
1070
     0
1070
     0
1070
     0
1070
     0
1040
0.0
1040
0.0
1040
0.0
1040
1.0
1040
1.0
1040
10.0
1040
10.0
1070
     0
1002
{
1002
}
1002
}
  0
VIEWPORT
  5
64
330
17
100
AcDbEntity
 67
     1
  8
VIEWPORT
100
AcDbViewport
 10
210.0
 20
148.5
 30
0.0
 40
420.0
 41
297.0
 68
     1
 69
     2
1001
ACAD
1000
MVIEW
1002
{
1070
    16
1010
0.0
1020
0.0
1030
0.0
1010
0.0
1020
0.0
1030
1.0
1040
0.0
1040
302.9399999999998
1040
210.0
1040
148.5
1040
50.0
1040
0.0
1040
0.0
1070
     0
1070
   100
1070
     1
1070
     0
1070
     0
1070
     0
1070
     0
1070
     0
1040
0.0
1040
0.0
1040
0.0
1040
5.0
1040
5.0
1040
0.0
1040
0.0
1070
     0
1002
{
1002
}
1002
}
  0
ENDSEC
  0
SECTION
  2
OBJECTS
  0
DICTIONARY
  5
C
330
0
100
AcDbDictionary
  3
ACAD_GROUP
350
D
  3
ACAD_LAYOUT
350
594
  3
ACAD_MLINESTYLE
350
E
  3
ACAD_PLOTSETTINGS
350
595
  3
ACAD_PLOTSTYLENAME
350
592
  3
ACDBHEADERROUNDTRIPXREC
350
781
  0
DICTIONARY
  5
5C5
330
1A
100
AcDbDictionary
280
     1
  3
ACAD_LAYOUTSELFREF
360
7A3
  0
DICTIONARY
  5
5C3
330
17
100
AcDbDictionary
280
     1
  3
ACAD_LAYOUTSELFREF
360
7A2
  0
DICTIONARY
  5
D
102
{ACAD_REACTORS
330
C
102
}
330
C
100
AcDbDictionary
  0
DICTIONARY
  5
594
102
{ACAD_REACTORS
330
C
102
}
330
C
100
AcDbDictionary
  0
DICTIONARY
  5
E
102
{ACAD_REACTORS
330
C
102
}
330
C
100
AcDbDictionary
  3
STANDARD
350
13
  0
DICTIONARY
  5
595
102
{ACAD_REACTORS
330
C
102
}
330
C
100
AcDbDictionary
  0
ACDBDICTIONARYWDFLT
  5
592
102
{ACAD_REACTORS
330
C
102
}
330
C
100
AcDbDictionary
281
     1
  3
Normal
350
593
100
AcDbDictionaryWithDefault
340
593
1001
ACAD
1000
TREAT_AS_HARD
1070
     0
1000
TREAT_AS_HARD
1070
     0
  0
DICTIONARY
  5
781
102
{ACAD_REACTORS
330
C
102
}
330
C
100
AcDbDictionary
  3
TSTACKALIGN
350
782
  3
TSTACKSIZE
350
783
  3
HYPERLINKBASE
350
784
  3
STYLESHEET
350
785
  3
LAYOUTDICT
350
786
  3
PLOTSETDICT
350
787
  3
PLOTSTYLNAMDICT
350
788
  3
LWETCUNION
350
789
  3
INSUNITS
350
78A
  3
CEPSNTYPE
350
78B
  3
FINGERPRINTGUID
350
78C
  3
VERSIONGUID
350
78D
  3
PSVPSCALE
350
78E
  3
DIMSTYLEDATA
350
78F
  3
PUCSORTHOREF
350
790
  3
PUCSORTHOVIEW
350
791
  3
PUCSBASE
350
792
  3
PUCSORGTOP
350
793
  3
PUCSORGBOTTOM
350
794
  3
PUCSORGLEFT
350
795
  3
PUCSORGRIGHT
350
796
  3
PUCSORGFRONT
350
797
  3
PUCSORGBACK
350
798
  3
UCSORTHOREF
350
799
  3
UCSORTHOVIEW
350
79A
  3
UCSBASE
350
79B
  3
UCSORGTOP
350
79C
  3
UCSORGBOTTOM
350
79D
  3
UCSORGLEFT
350
79E
  3
UCSORGRIGHT
350
79F
  3
UCSORGFRONT
350
7A0
  3
UCSORGBACK
350
7A1
  0
XRECORD
  5
7A3
102
{ACAD_REACTORS
330
5C5
102
}
330
5C5
100
AcDbXrecord
340
1A
  0
XRECORD
  5
7A2
102
{ACAD_REACTORS
330
5C3
102
}
330
5C3
100
AcDbXrecord
340
17
  0
MLINESTYLE
  5
13
102
{ACAD_REACTORS
330
E
102
}
330
E
100
AcDbMlineStyle
  2
STANDARD
 70
     0
  3

 62
     0
 51
90.0
 52
90.0
 71
     2
 49
0.5
 62
   256
  6
BYLAYER
 49
-0.5
 62
   256
  6
BYLAYER
  0
ACDBPLACEHOLDER
  5
593
102
{ACAD_REACTORS
330
592
102
}
330
592
100
AcDbPlaceHolder
280
     0
  0
XRECORD
  5
782
102
{ACAD_REACTORS
330
781
102
}
330
781
100
AcDbXrecord
 90
        1
  0
XRECORD
  5
783
102
{ACAD_REACTORS
330
781
102
}
330
781
100
AcDbXrecord
 90
       70
  0
XRECORD
  5
784
102
{ACAD_REACTORS
330
781
102
}
330
781
100
AcDbXrecord
  1

  0
XRECORD
  5
785
102
{ACAD_REACTORS
330
781
102
}
330
781
100
AcDbXrecord
  1
systemprinter.ctb
  0
XRECORD
  5
786
102
{ACAD_REACTORS
330
781
102
}
330
781
100
AcDbXrecord
340
594
  0
XRECORD
  5
787
102
{ACAD_REACTORS
330
781
102
}
330
781
100
AcDbXrecord
340
595
  0
XRECORD
  5
788
102
{ACAD_REACTORS
330
781
102
}
330
781
100
AcDbXrecord
340
592
  0
XRECORD
  5
789
102
{ACAD_REACTORS
330
781
102
}
330
781
100
AcDbXrecord
 90
    10781
  0
XRECORD
  5
78A
102
{ACAD_REACTORS
330
781
102
}
330
781
100
AcDbXrecord
 90
        0
  0
XRECORD
  5
78B
102
{ACAD_REACTORS
330
781
102
}
330
781
100
AcDbXrecord
 90
        0
  0
XRECORD
  5
78C
102
{ACAD_REACTORS
330
781
102
}
330
781
100
AcDbXrecord
  1
{F336412A-59DF-4A94-8162-6B9924A162B9}
  0
XRECORD
  5
78D
102
{ACAD_REACTORS
330
781
102
}
330
781
100
AcDbXrecord
  1
{11D96C85-A6D0-48BD-92EC-BA1C0802A873}
  0
XRECORD
  5
78E
102
{ACAD_REACTORS
330
781
102
}
330
781
100
AcDbXrecord
 40
0.0
  0
XRECORD
  5
78F
102
{ACAD_REACTORS
330
781
102
}
330
781
100
AcDbXrecord
1000
DSTYLE
1002
{
1070
   341
340
B2
1070
   343
340
B2
1070
   344
340
B2
1070
   371
 70
    -1
1070
   372
 70
    -1
1002
}
  0
XRECORD
  5
790
102
{ACAD_REACTORS
330
781
102
}
330
781
100
AcDbXrecord
340
0
  0
XRECORD
  5
791
102
{ACAD_REACTORS
330
781
102
}
330
781
100
AcDbXrecord
 70
     0
  0
XRECORD
  5
792
102
{ACAD_REACTORS
330
781
102
}
330
781
100
AcDbXrecord
340
0
  0
XRECORD
  5
793
102
{ACAD_REACTORS
330
781
102
}
330
781
100
AcDbXrecord
 10
0.0
 20
0.0
 30
0.0
  0
XRECORD
  5
794
102
{ACAD_REACTORS
330
781
102
}
330
781
100
AcDbXrecord
 10
0.0
 20
0.0
 30
0.0
  0
XRECORD
  5
795
102
{ACAD_REACTORS
330
781
102
}
330
781
100
AcDbXrecord
 10
0.0
 20
0.0
 30
0.0
  0
XRECORD
  5
796
102
{ACAD_REACTORS
330
781
102
}
330
781
100
AcDbXrecord
 10
0.0
 20
0.0
 30
0.0
  0
XRECORD
  5
797
102
{ACAD_REACTORS
330
781
102
}
330
781
100
AcDbXrecord
 10
0.0
 20
0.0
 30
0.0
  0
XRECORD
  5
798
102
{ACAD_REACTORS
330
781
102
}
330
781
100
AcDbXrecord
 10
0.0
 20
0.0
 30
0.0
  0
XRECORD
  5
799
102
{ACAD_REACTORS
330
781
102
}
330
781
100
AcDbXrecord
340
0
  0
XRECORD
  5
79A
102
{ACAD_REACTORS
330
781
102
}
330
781
100
AcDbXrecord
 70
     0
  0
XRECORD
  5
79B
102
{ACAD_REACTORS
330
781
102
}
330
781
100
AcDbXrecord
340
0
  0
XRECORD
  5
79C
102
{ACAD_REACTORS
330
781
102
}
330
781
100
AcDbXrecord
 10
0.0
 20
0.0
 30
0.0
  0
XRECORD
  5
79D
102
{ACAD_REACTORS
330
781
102
}
330
781
100
AcDbXrecord
 10
0.0
 20
0.0
 30
0.0
  0
XRECORD
  5
79E
102
{ACAD_REACTORS
330
781
102
}
330
781
100
AcDbXrecord
 10
0.0
 20
0.0
 30
0.0
  0
XRECORD
  5
79F
102
{ACAD_REACTORS
330
781
102
}
330
781
100
AcDbXrecord
 10
0.0
 20
0.0
 30
0.0
  0
XRECORD
  5
7A0
102
{ACAD_REACTORS
330
781
102
}
330
781
100
AcDbXrecord
 10
0.0
 20
0.0
 30
0.0
  0
XRECORD
  5
7A1
102
{ACAD_REACTORS
330
781
102
}
330
781
100
AcDbXrecord
 10
0.0
 20
0.0
 30
0.0
  0
ENDSEC
  0
EOF
