  0
SECTION
  2
HEADER
  9
$ACADVER
  1
AC1014
  9
$ACADMAINTVER
 70
     9
  9
$DWGCODEPAGE
  3
ANSI_932
  9
$INSBASE
 10
0.0
 20
0.0
 30
0.0
  9
$EXTMIN
 10
-0.0128168413908725
 20
-0.0090633266842133
 30
-0.0015258207003583
  9
$EXTMAX
 10
398.800049759304
 20
275.822617222791
 30
0.0000000349246037
  9
$LIMMIN
 10
0.0
 20
0.0
  9
$LIMMAX
 10
420.0
 20
297.0
  9
$ORTHOMODE
 70
     0
  9
$REGENMODE
 70
     1
  9
$FILLMODE
 70
     1
  9
$QTEXTMODE
 70
     0
  9
$MIRRTEXT
 70
     1
  9
$DRAGMODE
 70
     2
  9
$LTSCALE
 40
1.0
  9
$OSMODE
 70
    37
  9
$ATTMODE
 70
     1
  9
$TEXTSIZE
 40
2.5
  9
$TRACEWID
 40
1.0
  9
$TEXTSTYLE
  7
STANDARD
  9
$CLAYER
  8
SEIHIN
  9
$CELTYPE
  6
BYLAYER
  9
$CECOLOR
 62
   256
  9
$CELTSCALE
 40
1.0
  9
$DELOBJ
 70
     1
  9
$DISPSILH
 70
     0
  9
$DIMSCALE
 40
1.0
  9
$DIMASZ
 40
3.0
  9
$DIMEXO
 40
3.0
  9
$DIMDLI
 40
7.0
  9
$DIMRND
 40
0.0
  9
$DIMDLE
 40
0.0
  9
$DIMEXE
 40
1.5
  9
$DIMTP
 40
0.0
  9
$DIMTM
 40
0.0
  9
$DIMTXT
 40
3.0
  9
$DIMCEN
 40
150.0
  9
$DIMTSZ
 40
0.0
  9
$DIMTOL
 70
     0
  9
$DIMLIM
 70
     0
  9
$DIMTIH
 70
     0
  9
$DIMTOH
 70
     0
  9
$DIMSE1
 70
     0
  9
$DIMSE2
 70
     0
  9
$DIMTAD
 70
     3
  9
$DIMZIN
 70
     0
  9
$DIMBLK
  1

  9
$DIMASO
 70
     1
  9
$DIMSHO
 70
     1
  9
$DIMPOST
  1

  9
$DIMAPOST
  1

  9
$DIMALT
 70
     0
  9
$DIMALTD
 70
     2
  9
$DIMALTF
 40
25.4
  9
$DIMLFAC
 40
1.0
  9
$DIMTOFL
 70
     1
  9
$DIMTVP
 40
0.0
  9
$DIMTIX
 70
     0
  9
$DIMSOXD
 70
     0
  9
$DIMSAH
 70
     1
  9
$DIMBLK1
  1
OPEN
  9
$DIMBLK2
  1
OPEN
  9
$DIMSTYLE
  2
STANDARD
  9
$DIMCLRD
 70
     4
  9
$DIMCLRE
 70
     4
  9
$DIMCLRT
 70
     4
  9
$DIMTFAC
 40
1.0
  9
$DIMGAP
 40
1.0
  9
$DIMJUST
 70
     0
  9
$DIMSD1
 70
     0
  9
$DIMSD2
 70
     0
  9
$DIMTOLJ
 70
     1
  9
$DIMTZIN
 70
     0
  9
$DIMALTZ
 70
     0
  9
$DIMALTTZ
 70
     0
  9
$DIMFIT
 70
     3
  9
$DIMUPT
 70
     0
  9
$DIMUNIT
 70
     2
  9
$DIMDEC
 70
     0
  9
$DIMTDEC
 70
     2
  9
$DIMALTU
 70
     2
  9
$DIMALTTD
 70
     2
  9
$DIMTXSTY
  7
STANDARD
  9
$DIMAUNIT
 70
     0
  9
$LUNITS
 70
     2
  9
$LUPREC
 70
     4
  9
$SKETCHINC
 40
1.0
  9
$FILLETRAD
 40
10.0
  9
$AUNITS
 70
     0
  9
$AUPREC
 70
     0
  9
$MENU
  1
.
  9
$ELEVATION
 40
0.0
  9
$PELEVATION
 40
0.0
  9
$THICKNESS
 40
0.0
  9
$LIMCHECK
 70
     0
  9
$BLIPMODE
 70
     0
  9
$CHAMFERA
 40
10.0
  9
$CHAMFERB
 40
10.0
  9
$CHAMFERC
 40
20.0
  9
$CHAMFERD
 40
0.0
  9
$SKPOLY
 70
     0
  9
$TDCREATE
 40
2450994.350997107
  9
$TDUPDATE
 40
2454484.389945370
  9
$TDINDWG
 40
0.0229725463
  9
$TDUSRTIMER
 40
0.0229725463
  9
$USRTIMER
 70
     1
  9
$ANGBASE
 50
0.0
  9
$ANGDIR
 70
     0
  9
$PDMODE
 70
     1
  9
$PDSIZE
 40
0.0
  9
$PLINEWID
 40
0.0
  9
$COORDS
 70
     1
  9
$SPLFRAME
 70
     0
  9
$SPLINETYPE
 70
     6
  9
$SPLINESEGS
 70
     8
  9
$ATTDIA
 70
     0
  9
$ATTREQ
 70
     1
  9
$HANDLING
 70
 10241
  9
$HANDSEED
  5
7AD
  9
$SURFTAB1
 70
     6
  9
$SURFTAB2
 70
     6
  9
$SURFTYPE
 70
     6
  9
$SURFU
 70
     6
  9
$SURFV
 70
     6
  9
$UCSNAME
  2

  9
$UCSORG
 10
0.0
 20
0.0
 30
0.0
  9
$UCSXDIR
 10
1.0
 20
0.0
 30
0.0
  9
$UCSYDIR
 10
0.0
 20
1.0
 30
0.0
  9
$PUCSNAME
  2

  9
$PUCSORG
 10
0.0
 20
0.0
 30
0.0
  9
$PUCSXDIR
 10
1.0
 20
0.0
 30
0.0
  9
$PUCSYDIR
 10
0.0
 20
1.0
 30
0.0
  9
$USERI1
 70
     0
  9
$USERI2
 70
     0
  9
$USERI3
 70
     0
  9
$USERI4
 70
     0
  9
$USERI5
 70
     0
  9
$USERR1
 40
0.0
  9
$USERR2
 40
0.0
  9
$USERR3
 40
0.0
  9
$USERR4
 40
0.0
  9
$USERR5
 40
0.0
  9
$WORLDVIEW
 70
     1
  9
$SHADEDGE
 70
     3
  9
$SHADEDIF
 70
    70
  9
$TILEMODE
 70
     1
  9
$MAXACTVP
 70
    16
  9
$PINSBASE
 10
0.0
 20
0.0
 30
0.0
  9
$PLIMCHECK
 70
     0
  9
$PEXTMIN
 10
0.0
 20
0.0
 30
0.0
  9
$PEXTMAX
 10
420.0
 20
297.0
 30
0.0
  9
$PLIMMIN
 10
0.0
 20
0.0
  9
$PLIMMAX
 10
420.0
 20
297.0
  9
$UNITMODE
 70
     0
  9
$VISRETAIN
 70
     0
  9
$PLINEGEN
 70
     0
  9
$PSLTSCALE
 70
     1
  9
$TREEDEPTH
 70
  3020
  9
$PICKSTYLE
 70
     1
  9
$CMLSTYLE
  2
STANDARD
  9
$CMLJUST
 70
     0
  9
$CMLSCALE
 40
1.0
  9
$PROXYGRAPHICS
 70
     1
  9
$MEASUREMENT
 70
     1
  0
ENDSEC
  0
SECTION
  2
CLASSES
  0
CLASS
  1
ACDBDICTIONARYWDFLT
  2
AcDbDictionaryWithDefault
  3
AutoCAD 2000
 90
        0
280
     0
281
     0
  0
CLASS
  1
ACDBPLACEHOLDER
  2
AcDbPlaceHolder
  3
AutoCAD 2000
 90
        0
280
     0
281
     0
  0
CLASS
  1
LAYOUT
  2
AcDbLayout
  3
AutoCAD 2000
 90
        0
280
     0
281
     0
  0
CLASS
  1
LONG_TRANSACTION
  2
AcDbLongTransaction
  3
AutoCAD 2000
 90
        0
280
     0
281
     0
  0
CLASS
  1
LWPOLYLINE
  2
AcDbPolyline
  3
AutoCAD 2000
 90
        0
280
     0
281
     1
  0
CLASS
  1
HATCH
  2
AcDbHatch
  3
AutoCAD 2000
 90
        0
280
     0
281
     1
  0
CLASS
  1
XRECORD
  2
AcDbXrecord
  3
AutoCAD 2000
 90
        0
280
     0
281
     0
  0
CLASS
  1
LONG_TRANSACTION
  2
AcDbLongTransaction
  3
AutoCAD 2000
 90
        0
280
     0
281
     0
  0
CLASS
  1
LWPOLYLINE
  2
AcDbPolyline
  3
AutoCAD 2000
 90
        0
280
     0
281
     1
  0
CLASS
  1
HATCH
  2
AcDbHatch
  3
AutoCAD 2000
 90
        0
280
     0
281
     1
  0
CLASS
  1
XRECORD
  2
AcDbXrecord
  3
AutoCAD 2000
 90
        0
280
     0
281
     0
  0
CLASS
  1
LONG_TRANSACTION
  2
AcDbLongTransaction
  3
AutoCAD 2000
 90
        0
280
     0
281
     0
  0
CLASS
  1
LWPOLYLINE
  2
AcDbPolyline
  3
AutoCAD 2000
 90
        0
280
     0
281
     1
  0
CLASS
  1
HATCH
  2
AcDbHatch
  3
AutoCAD 2000
 90
        0
280
     0
281
     1
  0
CLASS
  1
XRECORD
  2
AcDbXrecord
  3
AutoCAD 2000
 90
        0
280
     0
281
     0
  0
ENDSEC
  0
SECTION
  2
TABLES
  0
TABLE
  2
VPORT
  5
8
330
0
100
AcDbSymbolTable
 70
     2
  0
VPORT
  5
781
330
8
100
AcDbSymbolTableRecord
100
AcDbViewportTableRecord
  2
*ACTIVE
 70
     0
 10
0.0
 20
0.0
 11
1.0
 21
1.0
 12
206.5939660599304
 22
141.7420217113818
 13
0.0
 23
0.0
 14
5.0
 24
5.0
 15
0.0
 25
0.0
 16
0.0
 26
0.0
 36
1.0
 17
0.0
 27
0.0
 37
0.0
 40
342.5152178616702
 41
1.570153061224489
 42
50.0
 43
0.0
 44
0.0
 50
0.0
 51
0.0
 71
     0
 72
   100
 73
     1
 74
     0
 75
     0
 76
     0
 77
     0
 78
     0
  0
ENDTAB
  0
TABLE
  2
LTYPE
  5
5
330
0
100
AcDbSymbolTable
 70
     3
  0
LTYPE
  5
14
330
5
100
AcDbSymbolTableRecord
100
AcDbLinetypeTableRecord
  2
BYBLOCK
 70
     0
  3

 72
    65
 73
     0
 40
0.0
  0
LTYPE
  5
15
330
5
100
AcDbSymbolTableRecord
100
AcDbLinetypeTableRecord
  2
BYLAYER
 70
     0
  3

 72
    65
 73
     0
 40
0.0
  0
LTYPE
  5
16
330
5
100
AcDbSymbolTableRecord
100
AcDbLinetypeTableRecord
  2
CONTINUOUS
 70
     0
  3
Solid line
 72
    65
 73
     0
 40
0.0
  0
LTYPE
  5
120
330
5
100
AcDbSymbolTableRecord
100
AcDbLinetypeTableRecord
  2
CENTER
 70
     0
  3
____ _ ____ _ ____ _ ____ _ ____ _ ____ _ ____ 
 72
    65
 73
     4
 40
2.0
 49
1.25
 74
     0
 49
-0.25
 74
     0
 49
0.25
 74
     0
 49
-0.25
 74
     0
  0
LTYPE
  5
122
330
5
100
AcDbSymbolTableRecord
100
AcDbLinetypeTableRecord
  2
PHANTOM
 70
     0
  3
______  __  __  ______  __  __  ______  __  __ 
 72
    65
 73
     6
 40
2.5
 49
1.25
 74
     0
 49
-0.25
 74
     0
 49
0.25
 74
     0
 49
-0.25
 74
     0
 49
0.25
 74
     0
 49
-0.25
 74
     0
  0
ENDTAB
  0
TABLE
  2
LAYER
  5
2
330
0
100
AcDbSymbolTable
 70
    10
  0
LAYER
  5
F
330
2
100
AcDbSymbolTableRecord
100
AcDbLayerTableRecord
  2
0
 70
     0
 62
     7
  6
CONTINUOUS
  0
LAYER
  5
62
330
2
100
AcDbSymbolTableRecord
100
AcDbLayerTableRecord
  2
VIEWPORT
 70
     0
 62
     7
  6
CONTINUOUS
  0
LAYER
  5
6B
330
2
100
AcDbSymbolTableRecord
100
AcDbLayerTableRecord
  2
ZUWAKU
 70
     0
 62
     7
  6
CONTINUOUS
  0
LAYER
  5
146
330
2
100
AcDbSymbolTableRecord
100
AcDbLayerTableRecord
  2
SUNPOU_L
 70
     0
 62
     4
  6
CONTINUOUS
  0
LAYER
  5
185
330
2
100
AcDbSymbolTableRecord
100
AcDbLayerTableRecord
  2
CENTER_L
 70
     0
 62
     1
  6
CENTER
  0
LAYER
  5
18C
330
2
100
AcDbSymbolTableRecord
100
AcDbLayerTableRecord
  2
DEFPOINTS
 70
     0
 62
     7
  6
CONTINUOUS
  0
LAYER
  5
2A8
330
2
100
AcDbSymbolTableRecord
100
AcDbLayerTableRecord
  2
SUNPOU
 70
     0
 62
     4
  6
CONTINUOUS
  0
LAYER
  5
2A9
330
2
100
AcDbSymbolTableRecord
100
AcDbLayerTableRecord
  2
SEIHIN
 70
     0
 62
     3
  6
CONTINUOUS
  0
LAYER
  5
2AA
330
2
100
AcDbSymbolTableRecord
100
AcDbLayerTableRecord
  2
NOKITOI
 70
     0
 62
     8
  6
PHANTOM
  0
LAYER
  5
60A
330
2
100
AcDbSymbolTableRecord
100
AcDbLayerTableRecord
  2
MOJI
 70
     0
 62
     2
  6
CONTINUOUS
  0
ENDTAB
  0
TABLE
  2
STYLE
  5
3
330
0
100
AcDbSymbolTable
 70
     2
  0
STYLE
  5
10
330
3
100
AcDbSymbolTableRecord
100
AcDbTextStyleTableRecord
  2
STANDARD
 70
     0
 40
0.0
 41
1.0
 50
0.0
 71
     0
 42
2.5
  3
TXT
  4
bigfont.shx
  0
STYLE
  5
60B
330
3
100
AcDbSymbolTableRecord
100
AcDbTextStyleTableRecord
  2
ｽﾀｲﾙ1
 70
     0
 40
0.0
 41
1.0
 50
0.0
 71
     0
 42
2.5
  3
MS PGothic.ttf
  4

1001
ACAD
1000
MS PGothic
1071
    32818
  0
ENDTAB
  0
TABLE
  2
VIEW
  5
6
330
0
100
AcDbSymbolTable
 70
     0
  0
ENDTAB
  0
TABLE
  2
UCS
  5
7
330
0
100
AcDbSymbolTable
 70
     0
  0
ENDTAB
  0
TABLE
  2
APPID
  5
9
330
0
100
AcDbSymbolTable
 70
     1
  0
APPID
  5
11
330
9
100
AcDbSymbolTableRecord
100
AcDbRegAppTableRecord
  2
ACAD
 70
     0
  0
ENDTAB
  0
TABLE
  2
DIMSTYLE
  5
A
330
0
100
AcDbSymbolTable
 70
     1
  0
DIMSTYLE
105
1D
102
{ACAD_REACTORS
330
3CA
330
3CB
330
3CC
330
3D5
330
415
330
46D
330
4A5
330
4B6
102
}
330
A
100
AcDbSymbolTableRecord
100
AcDbDimStyleTableRecord
  2
STANDARD
 70
     0
  3

  4

  5

  6

  7

 40
1.0
 41
0.18
 42
0.0625
 43
0.38
 44
0.18
 45
0.0
 46
0.0
 47
0.0
 48
0.0
140
0.18
141
0.09
142
0.0
143
25.4
144
1.0
145
0.0
146
1.0
147
0.09
 71
     0
 72
     0
 73
     1
 74
     1
 75
     0
 76
     0
 77
     0
 78
     0
170
     0
171
     2
172
     0
173
     0
174
     0
175
     0
176
     0
177
     0
178
     0
270
     2
271
     4
272
     4
273
     2
274
     2
340
10
275
     0
280
     0
281
     0
282
     0
283
     1
284
     0
285
     0
286
     0
287
     3
288
     0
  0
ENDTAB
  0
TABLE
  2
BLOCK_RECORD
  5
1
330
0
100
AcDbSymbolTable
 70
     9
  0
BLOCK_RECORD
  5
1A
102
{ACAD_XDICTIONARY
360
5B6
102
}
330
1
100
AcDbSymbolTableRecord
100
AcDbBlockTableRecord
  2
*MODEL_SPACE
  0
BLOCK_RECORD
  5
17
102
{ACAD_XDICTIONARY
360
5B4
102
}
330
1
100
AcDbSymbolTableRecord
100
AcDbBlockTableRecord
  2
*PAPER_SPACE
  0
BLOCK_RECORD
  5
B2
330
1
100
AcDbSymbolTableRecord
100
AcDbBlockTableRecord
  2
_OPEN
  0
BLOCK_RECORD
  5
4BF
330
1
100
AcDbSymbolTableRecord
100
AcDbBlockTableRecord
  2
*D1
  0
BLOCK_RECORD
  5
4CB
330
1
100
AcDbSymbolTableRecord
100
AcDbBlockTableRecord
  2
*D2
  0
BLOCK_RECORD
  5
4D7
330
1
100
AcDbSymbolTableRecord
100
AcDbBlockTableRecord
  2
*D3
  0
BLOCK_RECORD
  5
4E3
330
1
100
AcDbSymbolTableRecord
100
AcDbBlockTableRecord
  2
*D4
  0
BLOCK_RECORD
  5
4EF
330
1
100
AcDbSymbolTableRecord
100
AcDbBlockTableRecord
  2
*D5
  0
BLOCK_RECORD
  5
4FA
330
1
100
AcDbSymbolTableRecord
100
AcDbBlockTableRecord
  2
*D6
  0
BLOCK_RECORD
  5
506
330
1
100
AcDbSymbolTableRecord
100
AcDbBlockTableRecord
  2
*D7
  0
BLOCK_RECORD
  5
514
330
1
100
AcDbSymbolTableRecord
100
AcDbBlockTableRecord
  2
*D8
  0
ENDTAB
  0
ENDSEC
  0
SECTION
  2
BLOCKS
  0
BLOCK
  5
1B
330
1A
100
AcDbEntity
  8
0
100
AcDbBlockBegin
  2
*MODEL_SPACE
 70
     0
 10
0.0
 20
0.0
 30
0.0
  3
*MODEL_SPACE
  1

  0
ENDBLK
  5
1C
330
1A
100
AcDbEntity
  8
0
100
AcDbBlockEnd
  0
BLOCK
  5
18
330
17
100
AcDbEntity
 67
     1
  8
0
100
AcDbBlockBegin
  2
*PAPER_SPACE
 70
     0
 10
0.0
 20
0.0
 30
0.0
  3
*PAPER_SPACE
  1

  0
ENDBLK
  5
19
330
17
100
AcDbEntity
 67
     1
  8
0
100
AcDbBlockEnd
  0
BLOCK
  5
B3
330
B2
100
AcDbEntity
  8
0
100
AcDbBlockBegin
  2
_OPEN
 70
     0
 10
0.0
 20
0.0
 30
0.0
  3
_OPEN
  1

  0
LINE
  5
B4
330
B2
100
AcDbEntity
  8
0
  6
BYBLOCK
 62
     0
100
AcDbLine
 10
-1.0
 20
0.1666666666666666
 30
0.0
 11
0.0
 21
0.0
 31
0.0
  0
LINE
  5
B5
330
B2
100
AcDbEntity
  8
0
  6
BYBLOCK
 62
     0
100
AcDbLine
 10
0.0
 20
0.0
 30
0.0
 11
-1.0
 21
-0.1666666666666666
 31
0.0
  0
LINE
  5
B6
330
B2
100
AcDbEntity
  8
0
  6
BYBLOCK
 62
     0
100
AcDbLine
 10
0.0
 20
0.0
 30
0.0
 11
-1.0
 21
0.0
 31
0.0
  0
ENDBLK
  5
B7
330
B2
100
AcDbEntity
  8
0
100
AcDbBlockEnd
  0
BLOCK
  5
522
330
4BF
100
AcDbEntity
  8
0
100
AcDbBlockBegin
  2
*D1
 70
     1
 10
0.0
 20
0.0
 30
0.0
  3
*D1
  1

  0
LINE
  5
523
330
4BF
100
AcDbEntity
  8
0
  6
BYBLOCK
 62
     4
100
AcDbLine
 10
230.7247101780404
 20
143.5246112023051
 30
0.0
 11
230.7247101780404
 21
171.894628920868
 31
0.0
  0
LINE
  5
524
330
4BF
100
AcDbEntity
  8
0
  6
BYBLOCK
 62
     4
100
AcDbLine
 10
144.1249101780406
 20
162.370511202305
 30
0.0
 11
144.1249101780406
 21
171.894628920868
 31
0.0
  0
LINE
  5
525
330
4BF
100
AcDbEntity
  8
0
  6
BYBLOCK
 62
     4
100
AcDbLine
 10
227.7247101780404
 20
170.394628920868
 30
0.0
 11
147.1249101780406
 21
170.394628920868
 31
0.0
  0
INSERT
  5
526
330
4BF
100
AcDbEntity
  8
0
  6
BYBLOCK
 62
     4
100
AcDbBlockReference
  2
_OPEN
 10
230.7247101780404
 20
170.394628920868
 30
0.0
 41
3.0
 42
3.0
 43
3.0
  0
INSERT
  5
527
330
4BF
100
AcDbEntity
  8
0
  6
BYBLOCK
 62
     4
100
AcDbBlockReference
  2
_OPEN
 10
144.1249101780406
 20
170.394628920868
 30
0.0
 41
3.0
 42
3.0
 43
3.0
 50
180.0
  0
MTEXT
  5
528
330
4BF
100
AcDbEntity
  8
0
  6
BYBLOCK
 62
     4
100
AcDbMText
 10
187.4248101780405
 20
172.894628920868
 30
0.0
 40
3.0
 41
0.0
 71
     5
 72
     5
  1
\A1;87
1001
ACAD
1000
MTEXTBEGIN
1070
    73
1070
     1
1070
    44
1040
1.0
1070
    74
1070
     0
1000
MTEXTEND
1000
MTEXTBEGIN
1070
    73
1070
     1
1070
    44
1040
1.0
1070
    74
1070
     0
1000
MTEXTEND
1000
MTEXTBEGIN
1070
    73
1070
     1
1070
    44
1040
1.0
1070
    74
1070
     0
1000
MTEXTEND
  0
POINT
  5
529
330
4BF
100
AcDbEntity
  8
DEFPOINTS
  6
BYBLOCK
 62
     0
100
AcDbPoint
 10
230.7247101780404
 20
140.5246112023051
 30
0.0
  0
POINT
  5
52A
330
4BF
100
AcDbEntity
  8
DEFPOINTS
  6
BYBLOCK
 62
     0
100
AcDbPoint
 10
144.1249101780406
 20
159.370511202305
 30
0.0
  0
POINT
  5
52B
330
4BF
100
AcDbEntity
  8
DEFPOINTS
  6
BYBLOCK
 62
     0
100
AcDbPoint
 10
144.1249101780406
 20
170.394628920868
 30
0.0
  0
ENDBLK
  5
52C
330
4BF
100
AcDbEntity
  8
0
100
AcDbBlockEnd
  0
BLOCK
  5
52D
330
4CB
100
AcDbEntity
  8
0
100
AcDbBlockBegin
  2
*D2
 70
     1
 10
0.0
 20
0.0
 30
0.0
  3
*D2
  1

  0
LINE
  5
52E
330
4CB
100
AcDbEntity
  8
0
  6
BYBLOCK
 62
     4
100
AcDbLine
 10
227.7247101780404
 20
142.8704372844582
 30
0.0
 11
198.5304158164085
 21
142.8704372844582
 31
0.0
  0
LINE
  5
52F
330
4CB
100
AcDbEntity
  8
0
  6
BYBLOCK
 62
     4
100
AcDbLine
 10
208.7248101780404
 20
99.87031120230517
 30
0.0
 11
198.5304158164085
 21
99.87031120230517
 31
0.0
  0
LINE
  5
530
330
4CB
100
AcDbEntity
  8
0
  6
BYBLOCK
 62
     4
100
AcDbLine
 10
200.0304158164085
 20
139.8704372844582
 30
0.0
 11
200.0304158164085
 21
102.8703112023051
 31
0.0
  0
INSERT
  5
531
330
4CB
100
AcDbEntity
  8
0
  6
BYBLOCK
 62
     4
100
AcDbBlockReference
  2
_OPEN
 10
200.0304158164085
 20
142.8704372844582
 30
0.0
 41
3.0
 42
3.0
 43
3.0
 50
90.0
  0
INSERT
  5
532
330
4CB
100
AcDbEntity
  8
0
  6
BYBLOCK
 62
     4
100
AcDbBlockReference
  2
_OPEN
 10
200.0304158164085
 20
99.87031120230517
 30
0.0
 41
3.0
 42
3.0
 43
3.0
 50
270.0
  0
MTEXT
  5
533
330
4CB
100
AcDbEntity
  8
0
  6
BYBLOCK
 62
     4
100
AcDbMText
 10
197.5304158164085
 20
121.3703742433816
 30
0.0
 40
3.0
 41
0.0
 71
     5
 72
     5
  1
\A1;43
 11
0.0
 21
1.0
 31
0.0
1001
ACAD
1000
MTEXTBEGIN
1070
    73
1070
     1
1070
    44
1040
1.0
1070
    74
1070
     0
1000
MTEXTEND
1000
MTEXTBEGIN
1070
    73
1070
     1
1070
    44
1040
1.0
1070
    74
1070
     0
1000
MTEXTEND
1000
MTEXTBEGIN
1070
    73
1070
     1
1070
    44
1040
1.0
1070
    74
1070
     0
1000
MTEXTEND
  0
POINT
  5
534
330
4CB
100
AcDbEntity
  8
DEFPOINTS
  6
BYBLOCK
 62
     0
100
AcDbPoint
 10
230.7247101780404
 20
142.8704372844582
 30
0.0
  0
POINT
  5
535
330
4CB
100
AcDbEntity
  8
DEFPOINTS
  6
BYBLOCK
 62
     0
100
AcDbPoint
 10
211.7248101780404
 20
99.87031120230517
 30
0.0
  0
POINT
  5
536
330
4CB
100
AcDbEntity
  8
DEFPOINTS
  6
BYBLOCK
 62
     0
100
AcDbPoint
 10
200.0304158164085
 20
99.87031120230517
 30
0.0
  0
ENDBLK
  5
537
330
4CB
100
AcDbEntity
  8
0
100
AcDbBlockEnd
  0
BLOCK
  5
538
330
4D7
100
AcDbEntity
  8
0
100
AcDbBlockBegin
  2
*D3
 70
     1
 10
0.0
 20
0.0
 30
0.0
  3
*D3
  1

  0
LINE
  5
539
330
4D7
100
AcDbEntity
  8
0
  6
BYBLOCK
 62
     4
100
AcDbLine
 10
298.1935128587475
 20
115.9055533913084
 30
0.0
 11
304.4279778184423
 21
100.3182655945075
 31
0.0
  0
LINE
  5
53A
330
4D7
100
AcDbEntity
  8
0
  6
BYBLOCK
 62
     4
100
AcDbLine
 10
186.775127905423
 20
71.34141715974017
 30
0.0
 11
193.0095928651177
 21
55.75412936293958
 31
0.0
  0
LINE
  5
53B
330
4D7
100
AcDbEntity
  8
0
  6
BYBLOCK
 62
     4
100
AcDbLine
 10
301.0854686670924
 20
100.5968918192988
 30
0.0
 11
195.2379993357608
 21
58.26096094914477
 31
0.0
  0
INSERT
  5
53C
330
4D7
100
AcDbEntity
  8
0
  6
BYBLOCK
 62
     4
100
AcDbBlockReference
  2
_OPEN
 10
303.8709264780889
 20
101.7109945000058
 30
0.0
 41
3.0
 42
3.0
 43
3.0
 50
21.79998301065795
  0
INSERT
  5
53D
330
4D7
100
AcDbEntity
  8
0
  6
BYBLOCK
 62
     4
100
AcDbBlockReference
  2
_OPEN
 10
192.4525415247643
 20
57.14685826843785
 30
0.0
 41
3.0
 42
3.0
 43
3.0
 50
201.7999830106579
  0
MTEXT
  5
53E
330
4D7
100
AcDbEntity
  8
0
  6
BYBLOCK
 62
     4
100
AcDbMText
 10
247.2333151008375
 20
81.75014122671896
 30
0.0
 40
3.0
 41
0.0
 71
     5
 72
     5
  1
\A1;120
 11
0.9284859369988472
 21
0.3713675602356413
 31
0.0
1001
ACAD
1000
MTEXTBEGIN
1070
    73
1070
     1
1070
    44
1040
1.0
1070
    74
1070
     0
1000
MTEXTEND
1000
MTEXTBEGIN
1070
    73
1070
     1
1070
    44
1040
1.0
1070
    74
1070
     0
1000
MTEXTEND
1000
MTEXTBEGIN
1070
    73
1070
     1
1070
    44
1040
1.0
1070
    74
1070
     0
1000
MTEXTEND
  0
POINT
  5
53F
330
4D7
100
AcDbEntity
  8
DEFPOINTS
  6
BYBLOCK
 62
     0
100
AcDbPoint
 10
297.0794101780406
 20
118.691011202305
 30
0.0
  0
POINT
  5
540
330
4D7
100
AcDbEntity
  8
DEFPOINTS
  6
BYBLOCK
 62
     0
100
AcDbPoint
 10
185.6610252247161
 20
74.12687497073672
 30
0.0
  0
POINT
  5
541
330
4D7
100
AcDbEntity
  8
DEFPOINTS
  6
BYBLOCK
 62
     0
100
AcDbPoint
 10
192.4525415247643
 20
57.14685826843785
 30
0.0
  0
ENDBLK
  5
542
330
4D7
100
AcDbEntity
  8
0
100
AcDbBlockEnd
  0
BLOCK
  5
543
330
4E3
100
AcDbEntity
  8
0
100
AcDbBlockBegin
  2
*D4
 70
     1
 10
0.0
 20
0.0
 30
0.0
  3
*D4
  1

  0
LINE
  5
544
330
4E3
100
AcDbEntity
  8
0
  6
BYBLOCK
 62
     4
100
AcDbLine
 10
141.1249101780406
 20
159.370511202305
 30
0.0
 11
119.0575366254847
 21
159.370511202305
 31
0.0
  0
LINE
  5
545
330
4E3
100
AcDbEntity
  8
0
  6
BYBLOCK
 62
     4
100
AcDbLine
 10
159.2619101780404
 20
99.07051120230503
 30
0.0
 11
119.0575366254847
 21
99.07051120230503
 31
0.0
  0
LINE
  5
546
330
4E3
100
AcDbEntity
  8
0
  6
BYBLOCK
 62
     4
100
AcDbLine
 10
120.5575366254848
 20
156.370511202305
 30
0.0
 11
120.5575366254848
 21
102.070511202305
 31
0.0
  0
INSERT
  5
547
330
4E3
100
AcDbEntity
  8
0
  6
BYBLOCK
 62
     4
100
AcDbBlockReference
  2
_OPEN
 10
120.5575366254848
 20
159.370511202305
 30
0.0
 41
3.0
 42
3.0
 43
3.0
 50
90.0
  0
INSERT
  5
548
330
4E3
100
AcDbEntity
  8
0
  6
BYBLOCK
 62
     4
100
AcDbBlockReference
  2
_OPEN
 10
120.5575366254848
 20
99.07051120230503
 30
0.0
 41
3.0
 42
3.0
 43
3.0
 50
270.0
  0
MTEXT
  5
549
330
4E3
100
AcDbEntity
  8
0
  6
BYBLOCK
 62
     4
100
AcDbMText
 10
118.0575366254847
 20
129.220511202305
 30
0.0
 40
3.0
 41
0.0
 71
     5
 72
     5
  1
\A1;60
 11
0.0
 21
1.0
 31
0.0
1001
ACAD
1000
MTEXTBEGIN
1070
    73
1070
     1
1070
    44
1040
1.0
1070
    74
1070
     0
1000
MTEXTEND
1000
MTEXTBEGIN
1070
    73
1070
     1
1070
    44
1040
1.0
1070
    74
1070
     0
1000
MTEXTEND
1000
MTEXTBEGIN
1070
    73
1070
     1
1070
    44
1040
1.0
1070
    74
1070
     0
1000
MTEXTEND
  0
POINT
  5
54A
330
4E3
100
AcDbEntity
  8
DEFPOINTS
  6
BYBLOCK
 62
     0
100
AcDbPoint
 10
144.1249101780406
 20
159.370511202305
 30
0.0
  0
POINT
  5
54B
330
4E3
100
AcDbEntity
  8
DEFPOINTS
  6
BYBLOCK
 62
     0
100
AcDbPoint
 10
162.2619101780404
 20
99.07051120230503
 30
0.0
  0
POINT
  5
54C
330
4E3
100
AcDbEntity
  8
DEFPOINTS
  6
BYBLOCK
 62
     0
100
AcDbPoint
 10
120.5575366254848
 20
99.07051120230503
 30
0.0
  0
ENDBLK
  5
54D
330
4E3
100
AcDbEntity
  8
0
100
AcDbBlockEnd
  0
BLOCK
  5
54E
330
4EF
100
AcDbEntity
  8
0
100
AcDbBlockBegin
  2
*D5
 70
     1
 10
0.0
 20
0.0
 30
0.0
  3
*D5
  1

  0
LINE
  5
7A5
330
4EF
100
AcDbEntity
  8
SUNPOU
 62
     4
100
AcDbLine
 10
180.4248101780405
 20
71.87051120230504
 30
0.0
 11
119.0575366254847
 21
71.87051120230505
 31
0.0
  0
LINE
  5
7A6
330
4EF
100
AcDbEntity
  8
SUNPOU
 62
     4
100
AcDbLine
 10
120.5575366254848
 20
96.07051120230504
 30
0.0
 11
120.5575366254848
 21
74.87051120230505
 31
0.0
  0
INSERT
  5
7A7
330
4EF
100
AcDbEntity
  8
SUNPOU
 62
     4
100
AcDbBlockReference
  2
_OPEN
 10
120.5575366254848
 20
99.07051120230505
 30
0.0
 41
3.0
 42
3.0
 43
3.0
 50
90.0
  0
INSERT
  5
7A8
330
4EF
100
AcDbEntity
  8
SUNPOU
 62
     4
100
AcDbBlockReference
  2
_OPEN
 10
120.5575366254848
 20
71.87051120230505
 30
0.0
 41
3.0
 42
3.0
 43
3.0
 50
270.0
  0
MTEXT
  5
7A9
330
4EF
100
AcDbEntity
  8
SUNPOU
 62
     4
100
AcDbMText
 10
118.0575366254847
 20
85.47051120230506
 30
0.0
 40
3.0
 41
0.0
 71
     5
 72
     1
  1
\A1;27
 11
0.0000000000000001
 21
1.0
 31
0.0
  0
POINT
  5
7AA
330
4EF
100
AcDbEntity
  8
DEFPOINTS
 62
     0
100
AcDbPoint
 10
162.2619101780404
 20
99.07051120230503
 30
0.0
  0
POINT
  5
7AB
330
4EF
100
AcDbEntity
  8
DEFPOINTS
 62
     0
100
AcDbPoint
 10
183.4248101780405
 20
71.87051120230504
 30
0.0
  0
POINT
  5
7AC
330
4EF
100
AcDbEntity
  8
DEFPOINTS
 62
     0
100
AcDbPoint
 10
120.5575366254848
 20
71.87051120230505
 30
0.0
  0
ENDBLK
  5
557
330
4EF
100
AcDbEntity
  8
0
100
AcDbBlockEnd
  0
BLOCK
  5
558
330
4FA
100
AcDbEntity
  8
0
100
AcDbBlockBegin
  2
*D6
 70
     1
 10
0.0
 20
0.0
 30
0.0
  3
*D6
  1

  0
LINE
  5
559
330
4FA
100
AcDbEntity
  8
0
  6
BYBLOCK
 62
     4
100
AcDbLine
 10
141.1250101780405
 20
219.8705112023049
 30
0.0
 11
119.020551032138
 21
219.8705112023049
 31
0.0
  0
LINE
  5
55A
330
4FA
100
AcDbEntity
  8
0
  6
BYBLOCK
 62
     4
100
AcDbLine
 10
141.1250101780405
 20
199.870611202305
 30
0.0
 11
119.020551032138
 21
199.870611202305
 31
0.0
  0
LINE
  5
55B
330
4FA
100
AcDbEntity
  8
0
  6
BYBLOCK
 62
     4
100
AcDbLine
 10
120.520551032138
 20
216.8705112023049
 30
0.0
 11
120.520551032138
 21
202.870611202305
 31
0.0
  0
INSERT
  5
55C
330
4FA
100
AcDbEntity
  8
0
  6
BYBLOCK
 62
     4
100
AcDbBlockReference
  2
_OPEN
 10
120.520551032138
 20
219.8705112023049
 30
0.0
 41
3.0
 42
3.0
 43
3.0
 50
90.0
  0
INSERT
  5
55D
330
4FA
100
AcDbEntity
  8
0
  6
BYBLOCK
 62
     4
100
AcDbBlockReference
  2
_OPEN
 10
120.520551032138
 20
199.870611202305
 30
0.0
 41
3.0
 42
3.0
 43
3.0
 50
270.0
  0
MTEXT
  5
55E
330
4FA
100
AcDbEntity
  8
0
  6
BYBLOCK
 62
     4
100
AcDbMText
 10
118.0205510321379
 20
209.8705612023049
 30
0.0
 40
3.0
 41
0.0
 71
     5
 72
     5
  1
\A1;20
 11
0.0
 21
1.0
 31
0.0
1001
ACAD
1000
MTEXTBEGIN
1070
    73
1070
     1
1070
    44
1040
1.0
1070
    74
1070
     0
1000
MTEXTEND
1000
MTEXTBEGIN
1070
    73
1070
     1
1070
    44
1040
1.0
1070
    74
1070
     0
1000
MTEXTEND
1000
MTEXTBEGIN
1070
    73
1070
     1
1070
    44
1040
1.0
1070
    74
1070
     0
1000
MTEXTEND
  0
POINT
  5
55F
330
4FA
100
AcDbEntity
  8
DEFPOINTS
  6
BYBLOCK
 62
     0
100
AcDbPoint
 10
144.1250101780405
 20
219.8705112023049
 30
0.0
  0
POINT
  5
560
330
4FA
100
AcDbEntity
  8
DEFPOINTS
  6
BYBLOCK
 62
     0
100
AcDbPoint
 10
144.1250101780405
 20
199.870611202305
 30
0.0
  0
POINT
  5
561
330
4FA
100
AcDbEntity
  8
DEFPOINTS
  6
BYBLOCK
 62
     0
100
AcDbPoint
 10
120.520551032138
 20
199.870611202305
 30
0.0
  0
ENDBLK
  5
562
330
4FA
100
AcDbEntity
  8
0
100
AcDbBlockEnd
  0
BLOCK
  5
563
330
506
100
AcDbEntity
  8
0
100
AcDbBlockBegin
  2
*D7
 70
     1
 10
0.0
 20
0.0
 30
0.0
  3
*D7
  1

  0
LINE
  5
564
330
506
100
AcDbEntity
  8
0
  6
BYBLOCK
 62
     4
100
AcDbLine
 10
284.9163741051027
 20
116.7878985916218
 30
0.0
 11
318.9752413027045
 21
130.4102449701245
 31
0.0
  0
LINE
  5
565
330
506
100
AcDbEntity
  8
0
  6
BYBLOCK
 62
     4
100
AcDbLine
 10
286.9588741051027
 20
111.6811985916219
 30
0.0
 11
321.0177413027044
 21
125.3035449701246
 31
0.0
  0
LINE
  5
566
330
506
100
AcDbEntity
  8
0
  6
BYBLOCK
 62
     4
100
AcDbLine
 10
316.4684219498565
 20
132.6386652025283
 30
0.0
 11
315.3543345605396
 21
135.4241291295906
 31
0.0
  0
LINE
  5
567
330
506
100
AcDbEntity
  8
0
  6
BYBLOCK
 62
     4
100
AcDbLine
 10
320.7390967284902
 20
121.9610373484039
 30
0.0
 11
324.8240838226521
 21
111.7476696158423
 31
0.0
  0
LINE
  5
568
330
506
100
AcDbEntity
  8
0
  6
BYBLOCK
 62
     4
100
AcDbLine
 10
317.5825093391734
 20
129.8532012754661
 30
0.0
 11
319.6250093391733
 21
124.7465012754662
 31
0.0
  0
INSERT
  5
569
330
506
100
AcDbEntity
  8
0
  6
BYBLOCK
 62
     4
100
AcDbBlockReference
  2
_OPEN
 10
317.5825093391734
 20
129.8532012754661
 30
0.0
 41
3.0
 42
3.0
 43
3.0
 50
291.7996684730809
  0
INSERT
  5
56A
330
506
100
AcDbEntity
  8
0
  6
BYBLOCK
 62
     4
100
AcDbBlockReference
  2
_OPEN
 10
319.6250093391733
 20
124.7465012754662
 30
0.0
 41
3.0
 42
3.0
 43
3.0
 50
111.7996684730809
  0
MTEXT
  5
56B
330
506
100
AcDbEntity
  8
0
  6
BYBLOCK
 62
     4
100
AcDbMText
 10
325.6598539094481
 20
116.3900276763561
 30
0.0
 40
3.0
 41
0.0
 71
     5
 72
     5
  1
\A1;5.5
 11
0.3713624631056262
 21
-0.9284879756874197
 31
0.0
1001
ACAD
1000
MTEXTBEGIN
1070
    73
1070
     1
1070
    44
1040
1.0
1070
    74
1070
     0
1000
MTEXTEND
1000
MTEXTBEGIN
1070
    73
1070
     1
1070
    44
1040
1.0
1070
    74
1070
     0
1000
MTEXTEND
1000
MTEXTBEGIN
1070
    73
1070
     1
1070
    44
1040
1.0
1070
    74
1070
     0
1000
MTEXTEND
  0
POINT
  5
56C
330
506
100
AcDbEntity
  8
DEFPOINTS
  6
BYBLOCK
 62
     0
100
AcDbPoint
 10
282.1309101780404
 20
115.6738112023049
 30
0.0
  0
POINT
  5
56D
330
506
100
AcDbEntity
  8
DEFPOINTS
  6
BYBLOCK
 62
     0
100
AcDbPoint
 10
284.1734101780404
 20
110.5671112023051
 30
0.0
  0
POINT
  5
56E
330
506
100
AcDbEntity
  8
DEFPOINTS
  6
BYBLOCK
 62
     0
100
AcDbPoint
 10
319.6250093391733
 20
124.7465012754662
 30
0.0
  0
ENDBLK
  5
56F
330
506
100
AcDbEntity
  8
0
100
AcDbBlockEnd
  0
BLOCK
  5
570
330
514
100
AcDbEntity
  8
0
100
AcDbBlockBegin
  2
*D8
 70
     1
 10
0.0
 20
0.0
 30
0.0
  3
*D8
  1

  0
LINE
  5
571
330
514
100
AcDbEntity
  8
0
  6
BYBLOCK
 62
     4
100
AcDbLine
 10
285.0795101780404
 20
212.120411202305
 30
0.0
 11
321.9760573064509
 21
212.120411202305
 31
0.0
  0
LINE
  5
572
330
514
100
AcDbEntity
  8
0
  6
BYBLOCK
 62
     4
100
AcDbLine
 10
285.0795101780404
 20
207.620411202305
 30
0.0
 11
321.9760573064509
 21
207.620411202305
 31
0.0
  0
LINE
  5
573
330
514
100
AcDbEntity
  8
0
  6
BYBLOCK
 62
     4
100
AcDbLine
 10
320.4760573064509
 20
215.1204112023051
 30
0.0
 11
320.4760573064509
 21
218.120411202305
 31
0.0
  0
LINE
  5
574
330
514
100
AcDbEntity
  8
0
  6
BYBLOCK
 62
     4
100
AcDbLine
 10
320.4760573064509
 20
204.620411202305
 30
0.0
 11
320.4760573064509
 21
193.620411202305
 31
0.0
  0
LINE
  5
575
330
514
100
AcDbEntity
  8
0
  6
BYBLOCK
 62
     4
100
AcDbLine
 10
320.4760573064509
 20
212.120411202305
 30
0.0
 11
320.4760573064509
 21
207.620411202305
 31
0.0
  0
INSERT
  5
576
330
514
100
AcDbEntity
  8
0
  6
BYBLOCK
 62
     4
100
AcDbBlockReference
  2
_OPEN
 10
320.4760573064509
 20
212.120411202305
 30
0.0
 41
3.0
 42
3.0
 43
3.0
 50
270.0
  0
INSERT
  5
577
330
514
100
AcDbEntity
  8
0
  6
BYBLOCK
 62
     4
100
AcDbBlockReference
  2
_OPEN
 10
320.4760573064509
 20
207.620411202305
 30
0.0
 41
3.0
 42
3.0
 43
3.0
 50
90.0
  0
MTEXT
  5
578
330
514
100
AcDbEntity
  8
0
  6
BYBLOCK
 62
     4
100
AcDbMText
 10
317.9760573064509
 20
197.620411202305
 30
0.0
 40
3.0
 41
0.0
 71
     5
 72
     5
  1
\A1;4.5
 11
0.0
 21
1.0
 31
0.0
1001
ACAD
1000
MTEXTBEGIN
1070
    73
1070
     1
1070
    44
1040
1.0
1070
    74
1070
     0
1000
MTEXTEND
1000
MTEXTBEGIN
1070
    73
1070
     1
1070
    44
1040
1.0
1070
    74
1070
     0
1000
MTEXTEND
1000
MTEXTBEGIN
1070
    73
1070
     1
1070
    44
1040
1.0
1070
    74
1070
     0
1000
MTEXTEND
  0
POINT
  5
579
330
514
100
AcDbEntity
  8
DEFPOINTS
  6
BYBLOCK
 62
     0
100
AcDbPoint
 10
282.0795101780404
 20
212.120411202305
 30
0.0
  0
POINT
  5
57A
330
514
100
AcDbEntity
  8
DEFPOINTS
  6
BYBLOCK
 62
     0
100
AcDbPoint
 10
282.0795101780404
 20
207.620411202305
 30
0.0
  0
POINT
  5
57B
330
514
100
AcDbEntity
  8
DEFPOINTS
  6
BYBLOCK
 62
     0
100
AcDbPoint
 10
320.4760573064509
 20
207.620411202305
 30
0.0
  0
ENDBLK
  5
57C
330
514
100
AcDbEntity
  8
0
100
AcDbBlockEnd
  0
ENDSEC
  0
SECTION
  2
ENTITIES
  0
POINT
  5
1A1
330
1A
100
AcDbEntity
  8
SUNPOU_L
  6
CONTINUOUS
100
AcDbPoint
 10
205.9553251990115
 20
146.5650665787895
 30
0.0
  0
POINT
  5
1A2
330
1A
100
AcDbEntity
  8
SUNPOU_L
  6
CONTINUOUS
100
AcDbPoint
 10
205.4553267650654
 20
145.6990402718312
 30
0.0
  0
ARC
  5
3B7
330
1A
100
AcDbEntity
  8
SEIHIN
  6
CONTINUOUS
 62
     3
 48
16.0
100
AcDbCircle
 10
225.6676636141537
 20
214.1204112118204
 30
0.0
 40
2.263587590040538
100
AcDbArc
 50
83.71901391138047
 51
96.30407991321508
  0
LINE
  5
3B8
330
1A
100
AcDbEntity
  8
SEIHIN
  6
CONTINUOUS
 62
     3
 48
16.0
100
AcDbLine
 10
219.8251101780404
 20
218.870511202305
 30
0.0
 11
229.9251101780405
 21
218.8704112023048
 31
0.0
  0
LINE
  5
3B9
330
1A
100
AcDbEntity
  8
SEIHIN
  6
CONTINUOUS
 62
     3
 48
16.0
100
AcDbLine
 10
225.2252101780405
 20
216.370411202305
 30
0.0
 11
230.7250101780405
 21
216.370411202305
 31
0.0
  0
ARC
  5
3BA
330
1A
100
AcDbEntity
  8
SEIHIN
  6
CONTINUOUS
 62
     3
 48
16.0
100
AcDbCircle
 10
225.6677185349087
 20
205.620611163715
 30
0.0
 40
2.263593592378674
100
AcDbArc
 50
263.6945382651647
 51
276.2591995011374
  0
LINE
  5
3BB
330
1A
100
AcDbEntity
  8
SEIHIN
  6
CONTINUOUS
 62
     3
 48
16.0
100
AcDbLine
 10
219.8251101780404
 20
200.8705112023049
 30
0.0
 11
229.9250101780406
 21
200.8705112023049
 31
0.0
  0
LINE
  5
3BC
330
1A
100
AcDbEntity
  8
SEIHIN
  6
CONTINUOUS
 62
     3
 48
16.0
100
AcDbLine
 10
225.2252101780405
 20
203.3705112023049
 30
0.0
 11
230.7250101780405
 21
203.3705112023049
 31
0.0
  0
LINE
  5
3BD
330
1A
100
AcDbEntity
  8
NOKITOI
  6
PHANTOM
 62
     8
 48
5.0
100
AcDbLine
 10
229.9248101780405
 20
139.8703112023049
 30
0.0
 11
225.0264101780405
 21
139.8703112023049
 31
0.0
  0
LINE
  5
3BE
330
1A
100
AcDbEntity
  8
SEIHIN
  6
CONTINUOUS
 62
     3
 48
16.0
100
AcDbLine
 10
228.6660101780404
 20
141.4906112023051
 30
0.0
 11
223.6874101780406
 21
140.156611202305
 31
0.0
  0
LINE
  5
3BF
330
1A
100
AcDbEntity
  8
SEIHIN
  6
CONTINUOUS
 62
     3
 48
16.0
100
AcDbLine
 10
228.4589101780404
 20
142.2633112023049
 30
0.0
 11
223.4804101780404
 21
140.9293112023051
 31
0.0
  0
LINE
  5
3C0
330
1A
100
AcDbEntity
  8
NOKITOI
  6
PHANTOM
 62
     8
 48
5.0
100
AcDbLine
 10
226.0085101780405
 20
138.670311202305
 30
0.0
 11
225.0697101780406
 21
134.0703112023051
 31
0.0
  0
LINE
  5
3C1
330
1A
100
AcDbEntity
  8
NOKITOI
  6
PHANTOM
 62
     8
 48
5.0
100
AcDbLine
 10
225.0697101780406
 20
134.0703112023051
 30
0.0
 11
228.7248101780404
 21
134.0703112023051
 31
0.0
  0
LINE
  5
3C2
330
1A
100
AcDbEntity
  8
NOKITOI
  6
PHANTOM
 62
     8
 48
5.0
100
AcDbLine
 10
229.9248101780405
 20
132.8703112023049
 30
0.0
 11
224.8248101780405
 21
132.8703112023049
 31
0.0
  0
LINE
  5
3C3
330
1A
100
AcDbEntity
  8
SEIHIN
  6
CONTINUOUS
 62
     3
 48
16.0
100
AcDbLine
 10
229.7247101780404
 20
130.570411202305
 30
0.0
 11
225.5802101780404
 21
130.570411202305
 31
0.0
  0
LINE
  5
3C4
330
1A
100
AcDbEntity
  8
SEIHIN
  6
CONTINUOUS
 62
     3
 48
16.0
100
AcDbLine
 10
224.9270101780405
 20
131.370511202305
 30
0.0
 11
229.4248101780404
 21
131.370511202305
 31
0.0
  0
LINE
  5
3C5
330
1A
100
AcDbEntity
  8
SEIHIN
  6
CONTINUOUS
 62
     3
 48
16.0
100
AcDbLine
 10
223.1450101780404
 20
107.1358112023051
 30
0.0
 11
227.9276101780404
 21
130.570411202305
 31
0.0
  0
LINE
  5
3C6
330
1A
100
AcDbEntity
  8
SEIHIN
  6
CONTINUOUS
 62
     3
 48
16.0
100
AcDbLine
 10
229.2327101780406
 20
141.476111202305
 30
0.0
 11
223.8580101780404
 21
139.519811202305
 31
0.0
  0
LINE
  5
3C7
330
1A
100
AcDbEntity
  8
SEIHIN
  6
CONTINUOUS
 62
     3
 48
16.0
100
AcDbLine
 10
186.6824101780404
 20
71.57351120230504
 30
0.0
 11
284.1734101780403
 21
110.5671112023051
 31
0.0
  0
LINE
  5
3C8
330
1A
100
AcDbEntity
  8
CENTER_L
  6
CENTER
 62
     1
 48
5.0
100
AcDbLine
 10
179.4194101780405
 20
71.63041120230511
 30
0.0
 11
304.0795101780405
 21
121.4908112256644
 31
0.0
  0
LINE
  5
3C9
330
1A
100
AcDbEntity
  8
SEIHIN
  6
CONTINUOUS
 62
     3
 48
16.0
100
AcDbLine
 10
184.6398101780404
 20
76.68021120230503
 30
0.0
 11
282.1309101780406
 21
115.6738112023049
 31
0.0
  0
DIMENSION
  5
3CA
330
1A
100
AcDbEntity
  8
SUNPOU
100
AcDbDimension
  2
*D1
 10
144.1249101780406
 20
170.394628920868
 30
0.0
 11
187.4248101780405
 21
172.894628920868
 31
0.0
 70
    32
  3
STANDARD
100
AcDbAlignedDimension
 13
230.7247101780404
 23
140.5246112023051
 33
0.0
 14
144.1249101780406
 24
159.370511202305
 34
0.0
100
AcDbRotatedDimension
1001
ACAD
1000
DSTYLE
1002
{
1070
   140
1040
3.0
1070
    74
1070
     0
1070
   172
1070
     1
1070
    73
1070
     0
1070
   272
1070
     2
1070
    77
1070
     3
1070
   173
1070
     1
1070
   147
1040
1.0
1070
    42
1040
3.0
1070
    44
1040
1.5
1070
    43
1040
7.0
1070
   271
1070
     0
1070
   178
1070
     4
1070
   177
1070
     4
1070
   176
1070
     4
1070
   141
1040
150.0
1070
     7
1000
_OPEN
1070
     6
1000
_OPEN
1070
    41
1040
3.0
1002
}
  0
DIMENSION
  5
3CB
330
1A
100
AcDbEntity
  8
SUNPOU
100
AcDbDimension
  2
*D2
 10
200.0304158164085
 20
99.87031120230517
 30
0.0
 11
197.5304158164085
 21
121.3703742433816
 31
0.0
 70
    32
  3
STANDARD
100
AcDbAlignedDimension
 13
230.7247101780404
 23
142.8704372844582
 33
0.0
 14
211.7248101780404
 24
99.87031120230517
 34
0.0
 50
90.0
100
AcDbRotatedDimension
1001
ACAD
1000
DSTYLE
1002
{
1070
   140
1040
3.0
1070
    74
1070
     0
1070
   172
1070
     1
1070
    73
1070
     0
1070
   272
1070
     2
1070
    77
1070
     3
1070
   173
1070
     1
1070
   147
1040
1.0
1070
    42
1040
3.0
1070
    44
1040
1.5
1070
    43
1040
7.0
1070
   271
1070
     0
1070
   178
1070
     4
1070
   177
1070
     4
1070
   176
1070
     4
1070
   141
1040
150.0
1070
     7
1000
_OPEN
1070
     6
1000
_OPEN
1070
    41
1040
3.0
1002
}
  0
DIMENSION
  5
3CC
330
1A
100
AcDbEntity
  8
SUNPOU
100
AcDbDimension
  2
*D3
 10
192.4525415247643
 20
57.14685826843785
 30
0.0
 11
247.2333151008375
 21
81.75014122671896
 31
0.0
 70
    33
  3
STANDARD
100
AcDbAlignedDimension
 13
297.0794101780405
 23
118.691011202305
 33
0.0
 14
185.661025224716
 24
74.12687497073671
 34
0.0
1001
ACAD
1000
DSTYLE
1002
{
1070
   140
1040
3.0
1070
    74
1070
     0
1070
   172
1070
     1
1070
    73
1070
     0
1070
   272
1070
     2
1070
    77
1070
     3
1070
   173
1070
     1
1070
   147
1040
1.0
1070
    42
1040
3.0
1070
    44
1040
1.5
1070
    43
1040
7.0
1070
   271
1070
     0
1070
   178
1070
     4
1070
   177
1070
     4
1070
   176
1070
     4
1070
   141
1040
150.0
1070
     7
1000
_OPEN
1070
     6
1000
_OPEN
1070
    41
1040
3.0
1002
}
  0
LINE
  5
3CD
330
1A
100
AcDbEntity
  8
CENTER_L
  6
CENTER
 62
     1
 48
5.0
100
AcDbLine
 10
137.1250101780405
 20
209.8705872751322
 30
0.0
 11
304.0795101780405
 21
209.8703347761095
 31
0.0
  0
LINE
  5
3CE
330
1A
100
AcDbEntity
  8
SEIHIN
  6
CONTINUOUS
 62
     3
 48
16.0
100
AcDbLine
 10
83.92486017804058
 20
142.3706112023051
 30
0.0
 11
83.92486017804058
 21
158.3706112023051
 31
0.0
  0
LINE
  5
3CF
330
1A
100
AcDbEntity
  8
SEIHIN
  6
CONTINUOUS
 62
     3
 48
16.0
100
AcDbLine
 10
70.92486017804052
 20
142.3706112023051
 30
0.0
 11
70.92486017804052
 21
158.370711202305
 31
0.0
  0
LINE
  5
3D0
330
1A
100
AcDbEntity
  8
SEIHIN
  6
CONTINUOUS
 62
     3
 48
16.0
100
AcDbLine
 10
144.9248101780406
 20
131.870511202305
 30
0.0
 11
144.9249101780404
 21
159.370511202305
 31
0.0
  0
LINE
  5
3D1
330
1A
100
AcDbEntity
  8
SEIHIN
  6
CONTINUOUS
 62
     3
 48
16.0
100
AcDbLine
 10
144.1249101780406
 20
131.570511202305
 30
0.0
 11
144.1249101780406
 21
159.370511202305
 31
0.0
  0
LINE
  5
3D2
330
1A
100
AcDbEntity
  8
CENTER_L
  6
CENTER
 62
     1
 48
5.0
100
AcDbLine
 10
77.42481017804059
 20
67.93181120230511
 30
0.0
 11
77.42481017804059
 21
166.3706112023051
 31
0.0
  0
LINE
  5
3D3
330
1A
100
AcDbEntity
  8
SEIHIN
  6
CONTINUOUS
 62
     3
 48
16.0
100
AcDbLine
 10
67.4248601780406
 20
159.3706112023051
 30
0.0
 11
67.4248601780406
 21
130.5706112023051
 31
0.0
  0
LINE
  5
3D4
330
1A
100
AcDbEntity
  8
SEIHIN
  6
CONTINUOUS
 62
     3
 48
16.0
100
AcDbLine
 10
87.42486017804052
 20
159.3706112023051
 30
0.0
 11
87.42486017804052
 21
130.5706112023051
 31
0.0
  0
DIMENSION
  5
3D5
330
1A
100
AcDbEntity
  8
SUNPOU
100
AcDbDimension
  2
*D4
 10
120.5575366254848
 20
99.07051120230503
 30
0.0
 11
118.0575366254847
 21
129.220511202305
 31
0.0
 70
    32
  3
STANDARD
100
AcDbAlignedDimension
 13
144.1249101780406
 23
159.370511202305
 33
0.0
 14
162.2619101780404
 24
99.07051120230503
 34
0.0
 50
90.0
100
AcDbRotatedDimension
1001
ACAD
1000
DSTYLE
1002
{
1070
   140
1040
3.0
1070
    74
1070
     0
1070
   172
1070
     1
1070
    73
1070
     0
1070
   272
1070
     2
1070
    77
1070
     3
1070
   173
1070
     1
1070
   147
1040
1.0
1070
    42
1040
3.0
1070
    44
1040
1.5
1070
    43
1040
7.0
1070
   271
1070
     0
1070
   178
1070
     4
1070
   177
1070
     4
1070
   176
1070
     4
1070
   141
1040
150.0
1070
     7
1000
_OPEN
1070
     6
1000
_OPEN
1070
    41
1040
3.0
1002
}
  0
ARC
  5
3D6
330
1A
100
AcDbEntity
  8
SEIHIN
  6
CONTINUOUS
 62
     3
 48
16.0
100
AcDbCircle
 10
81.67486017804057
 20
98.65771120230517
 30
0.0
 40
2.287572164981906
100
AcDbArc
 50
169.6012878060621
 51
10.39871219393784
  0
ARC
  5
3D7
330
1A
100
AcDbEntity
  8
SEIHIN
  6
CONTINUOUS
 62
     3
 48
16.0
100
AcDbCircle
 10
73.17486017804057
 20
98.65771120230517
 30
0.0
 40
2.287572164981949
100
AcDbArc
 50
169.6012878060621
 51
10.39871219393784
  0
LINE
  5
3D8
330
1A
100
AcDbEntity
  8
SEIHIN
  6
CONTINUOUS
 62
     3
 48
16.0
100
AcDbLine
 10
79.42486017804057
 20
99.07061120230521
 30
0.0
 11
79.4247601780406
 21
130.5706112023051
 31
0.0
  0
LINE
  5
3D9
330
1A
100
AcDbEntity
  8
SEIHIN
  6
CONTINUOUS
 62
     3
 48
16.0
100
AcDbLine
 10
68.42486017804052
 20
99.07061120230521
 30
0.0
 11
68.42486017804052
 21
130.5706112023051
 31
0.0
  0
LINE
  5
3DA
330
1A
100
AcDbEntity
  8
SEIHIN
  6
CONTINUOUS
 62
     3
 48
16.0
100
AcDbLine
 10
75.42486017804058
 20
99.07061120230521
 30
0.0
 11
75.42486017804058
 21
130.5706112023051
 31
0.0
  0
LINE
  5
3DB
330
1A
100
AcDbEntity
  8
SEIHIN
  6
CONTINUOUS
 62
     3
 48
16.0
100
AcDbLine
 10
70.92486017804052
 20
130.5706112023051
 30
0.0
 11
70.92486017804052
 21
99.07061120230521
 31
0.0
  0
LINE
  5
3DC
330
1A
100
AcDbEntity
  8
SEIHIN
  6
CONTINUOUS
 62
     3
 48
16.0
100
AcDbLine
 10
86.42486017804058
 20
99.07061120230521
 30
0.0
 11
86.42486017804058
 21
130.5706112023051
 31
0.0
  0
LINE
  5
3DD
330
1A
100
AcDbEntity
  8
SEIHIN
  6
CONTINUOUS
 62
     3
 48
16.0
100
AcDbLine
 10
83.92476017804055
 20
130.5706112023051
 30
0.0
 11
83.92476017804055
 21
99.07061120230521
 31
0.0
  0
LINE
  5
3DE
330
1A
100
AcDbEntity
  8
SEIHIN
  6
CONTINUOUS
 62
     3
 48
16.0
100
AcDbLine
 10
75.17481017804058
 20
71.87041120230512
 30
0.0
 11
75.17481017804058
 21
91.3706112023051
 31
0.0
  0
LINE
  5
3DF
330
1A
100
AcDbEntity
  8
SEIHIN
  6
CONTINUOUS
 62
     3
 48
16.0
100
AcDbLine
 10
79.67481017804058
 20
71.87041120230512
 30
0.0
 11
79.67481017804058
 21
91.3706112023051
 31
0.0
  0
LINE
  5
3E0
330
1A
100
AcDbEntity
  8
SEIHIN
  6
CONTINUOUS
 62
     3
 48
16.0
100
AcDbLine
 10
77.42481017804059
 20
71.87061120230509
 30
0.0
 11
79.67481017804058
 21
71.87061120230509
 31
0.0
  0
LINE
  5
3E1
330
1A
100
AcDbEntity
  8
SEIHIN
  6
CONTINUOUS
 62
     3
 48
16.0
100
AcDbLine
 10
77.42481017804059
 20
71.87061120230509
 30
0.0
 11
75.17481017804058
 21
71.87061120230509
 31
0.0
  0
LINE
  5
3E2
330
1A
100
AcDbEntity
  8
SEIHIN
  6
CONTINUOUS
 62
     3
 48
16.0
100
AcDbLine
 10
79.42486017804075
 20
99.07061120230521
 30
0.0
 11
75.42486017804058
 21
99.07061120230521
 31
0.0
  0
LINE
  5
3E3
330
1A
100
AcDbEntity
  8
SEIHIN
  6
CONTINUOUS
 62
     3
 48
16.0
100
AcDbLine
 10
82.42486017804058
 20
95.37061120230509
 30
0.0
 11
72.42476017804055
 21
95.37061120230509
 31
0.0
  0
LINE
  5
3E4
330
1A
100
AcDbEntity
  8
SEIHIN
  6
CONTINUOUS
 62
     3
 48
16.0
100
AcDbLine
 10
82.42486017804058
 20
96.37119943759927
 30
0.0
 11
73.17486017804057
 21
96.37011120230518
 31
0.0
  0
LINE
  5
3E5
330
1A
100
AcDbEntity
  8
SEIHIN
  6
CONTINUOUS
 62
     3
 48
16.0
100
AcDbLine
 10
79.7748601780406
 20
91.3706112023051
 30
0.0
 11
75.07476017804058
 21
91.3706112023051
 31
0.0
  0
LINE
  5
3E6
330
1A
100
AcDbEntity
  8
SEIHIN
  6
CONTINUOUS
 62
     3
 48
16.0
100
AcDbLine
 10
70.92486017804052
 20
99.07061120230521
 30
0.0
 11
68.42486017804052
 21
99.07061120230521
 31
0.0
  0
LINE
  5
3E7
330
1A
100
AcDbEntity
  8
SEIHIN
  6
CONTINUOUS
 62
     3
 48
16.0
100
AcDbLine
 10
72.42476017804055
 20
95.37061120230509
 30
0.0
 11
75.07476017804058
 21
91.3706112023051
 31
0.0
  0
LINE
  5
3E8
330
1A
100
AcDbEntity
  8
SEIHIN
  6
CONTINUOUS
 62
     3
 48
16.0
100
AcDbLine
 10
72.42476017804055
 20
95.37061120230509
 30
0.0
 11
72.42476017804055
 21
96.37061120230516
 31
0.0
  0
LINE
  5
3E9
330
1A
100
AcDbEntity
  8
SEIHIN
  6
CONTINUOUS
 62
     3
 48
16.0
100
AcDbLine
 10
83.92476017804055
 20
99.07061120230521
 30
0.0
 11
86.42486017804058
 21
99.07061120230521
 31
0.0
  0
LINE
  5
3EA
330
1A
100
AcDbEntity
  8
SEIHIN
  6
CONTINUOUS
 62
     3
 48
16.0
100
AcDbLine
 10
82.42486017804058
 20
95.37061120230509
 30
0.0
 11
79.7748601780406
 21
91.3706112023051
 31
0.0
  0
LINE
  5
3EB
330
1A
100
AcDbEntity
  8
SEIHIN
  6
CONTINUOUS
 62
     3
 48
16.0
100
AcDbLine
 10
82.42486017804058
 20
95.37061120230509
 30
0.0
 11
82.42486017804058
 21
96.37061120230516
 31
0.0
  0
LINE
  5
3EC
330
1A
100
AcDbEntity
  8
SEIHIN
  6
CONTINUOUS
 62
     3
 48
16.0
100
AcDbLine
 10
75.42486017804058
 20
106.4533112023052
 30
0.0
 11
79.42483674089771
 21
106.4533112023052
 31
0.0
  0
LINE
  5
3ED
330
1A
100
AcDbEntity
  8
SEIHIN
  6
CONTINUOUS
 62
     3
 48
16.0
100
AcDbLine
 10
68.42486017804052
 20
106.4533112023052
 30
0.0
 11
70.92486017804052
 21
106.4533112023052
 31
0.0
  0
ARC
  5
3EE
330
1A
100
AcDbEntity
  8
SEIHIN
100
AcDbCircle
 10
73.17491017804059
 20
106.7188799529119
 30
0.0
 40
2.265568750622844
100
AcDbArc
 50
186.731656852122
 51
353.268343147878
  0
LINE
  5
3EF
330
1A
100
AcDbEntity
  8
SEIHIN
  6
CONTINUOUS
 62
     3
 48
16.0
100
AcDbLine
 10
86.42486017804058
 20
106.4533112023052
 30
0.0
 11
83.92476017804055
 21
106.4533112023052
 31
0.0
  0
ARC
  5
3F0
330
1A
100
AcDbEntity
  8
SEIHIN
100
AcDbCircle
 10
81.67481017804055
 20
106.7188799529119
 30
0.0
 40
2.265568750622844
100
AcDbArc
 50
186.731656852122
 51
353.268343147878
  0
LINE
  5
3F1
330
1A
100
AcDbEntity
  8
SEIHIN
  6
CONTINUOUS
 62
     3
 48
16.0
100
AcDbLine
 10
81.92486017804057
 20
140.3706112023051
 30
0.0
 11
72.92486017804051
 21
140.3706112023051
 31
0.0
  0
LINE
  5
3F2
330
1A
100
AcDbEntity
  8
SEIHIN
  6
CONTINUOUS
 62
     3
 48
16.0
100
AcDbLine
 10
70.92486017804052
 20
142.8707112023051
 30
0.0
 11
83.92486017804058
 21
142.8707112023051
 31
0.0
  0
ARC
  5
3F3
330
1A
100
AcDbEntity
  8
SEIHIN
  6
CONTINUOUS
 62
     3
 48
16.0
100
AcDbCircle
 10
77.42486017804051
 20
135.204511202305
 30
0.0
 40
1.0
100
AcDbArc
 50
180.0
 51
0.0
  0
ARC
  5
3F4
330
1A
100
AcDbEntity
  8
SEIHIN
  6
CONTINUOUS
 62
     3
 48
16.0
100
AcDbCircle
 10
77.42486017804051
 20
135.204511202305
 30
0.0
 40
1.0
100
AcDbArc
 50
0.0
 51
180.0
  0
LINE
  5
3F5
330
1A
100
AcDbEntity
  8
SEIHIN
  6
CONTINUOUS
 62
     3
 48
16.0
100
AcDbLine
 10
87.42486017804052
 20
130.5706112023051
 30
0.0
 11
67.4248601780406
 21
130.5706112023051
 31
0.0
  0
ARC
  5
3F6
330
1A
100
AcDbEntity
  8
SEIHIN
  6
CONTINUOUS
 62
     3
 48
16.0
100
AcDbCircle
 10
74.82526854460989
 20
134.4034272933331
 30
0.0
 40
0.2999810411755784
100
AcDbArc
 50
293.2034348480818
 51
11.84663221983273
  0
ARC
  5
3F7
330
1A
100
AcDbEntity
  8
SEIHIN
  6
CONTINUOUS
 62
     3
 48
16.0
100
AcDbCircle
 10
71.68804127389652
 20
133.6024843512219
 30
0.0
 40
0.8000335429435061
100
AcDbArc
 50
95.4425364140595
 51
194.2605117095231
  0
LINE
  5
3F8
330
1A
100
AcDbEntity
  8
SEIHIN
  6
CONTINUOUS
 62
     3
 48
16.0
100
AcDbLine
 10
71.61216017804051
 20
134.3989112023051
 30
0.0
 11
74.79676017804061
 21
134.7021112023051
 31
0.0
  0
LINE
  5
3F9
330
1A
100
AcDbEntity
  8
SEIHIN
  6
CONTINUOUS
 62
     3
 48
16.0
100
AcDbLine
 10
72.00326017804062
 20
132.8672112023051
 30
0.0
 11
74.94346017804057
 21
134.1277112023051
 31
0.0
  0
ARC
  5
3FA
330
1A
100
AcDbEntity
  8
SEIHIN
  6
CONTINUOUS
 62
     3
 48
16.0
100
AcDbCircle
 10
71.68803199663298
 20
133.6025251104375
 30
0.0
 40
0.8000345929061422
100
AcDbArc
 50
194.2635044630389
 51
293.2047550821392
  0
ARC
  5
3FB
330
1A
100
AcDbEntity
  8
SEIHIN
  6
CONTINUOUS
 62
     3
 48
16.0
100
AcDbCircle
 10
72.92486017804051
 20
142.3706112023051
 30
0.0
 40
2.0
100
AcDbArc
 50
180.0
 51
270.0
  0
LINE
  5
3FC
330
1A
100
AcDbEntity
  8
SEIHIN
  6
CONTINUOUS
 62
     3
 48
16.0
100
AcDbLine
 10
72.06166017804057
 20
139.0763112023051
 30
0.0
 11
75.12386017804053
 21
137.056911202305
 31
0.0
  0
LINE
  5
3FD
330
1A
100
AcDbEntity
  8
SEIHIN
  6
CONTINUOUS
 62
     3
 48
16.0
100
AcDbLine
 10
71.37566017804065
 20
137.6471112023051
 30
0.0
 11
74.86666017804063
 21
136.5209112023051
 31
0.0
  0
ARC
  5
3FE
330
1A
100
AcDbEntity
  8
SEIHIN
  6
CONTINUOUS
 62
     3
 48
16.0
100
AcDbCircle
 10
71.62125985249994
 20
138.4084121315737
 30
0.0
 40
0.7999364380997652
100
AcDbArc
 50
146.4927361374526
 51
252.1200266769127
  0
ARC
  5
3FF
330
1A
100
AcDbEntity
  8
SEIHIN
  6
CONTINUOUS
 62
     3
 48
16.0
100
AcDbCircle
 10
71.62136033236882
 20
138.4084316578132
 30
0.0
 40
0.8000094437057423
100
AcDbArc
 50
56.59913740782207
 51
146.4978748253907
  0
ARC
  5
400
330
1A
100
AcDbEntity
  8
SEIHIN
  6
CONTINUOUS
 62
     3
 48
16.0
100
AcDbCircle
 10
74.95878084529531
 20
136.8064200423332
 30
0.0
 40
0.3000025251054579
100
AcDbArc
 50
252.1174788821403
 51
334.1918515621244
  0
ARC
  5
401
330
1A
100
AcDbEntity
  8
SEIHIN
  6
CONTINUOUS
 62
     3
 48
16.0
100
AcDbCircle
 10
74.82522149400645
 20
134.4034396707682
 30
0.0
 40
0.3000245494240687
100
AcDbArc
 50
11.8424742334153
 51
95.4434513951937
  0
ARC
  5
402
330
1A
100
AcDbEntity
  8
SEIHIN
  6
CONTINUOUS
 62
     3
 48
16.0
100
AcDbCircle
 10
74.95876088692793
 20
136.8064086293141
 30
0.0
 40
0.3000155245999041
100
AcDbArc
 50
334.1954731758403
 51
56.61223227605979
  0
ARC
  5
403
330
1A
100
AcDbEntity
  8
SEIHIN
  6
CONTINUOUS
 62
     3
 48
16.0
100
AcDbCircle
 10
83.16164593976216
 20
133.6025314240708
 30
0.0
 40
0.799980343449913
100
AcDbArc
 50
345.7350412097582
 51
84.56191066667004
  0
ARC
  5
404
330
1A
100
AcDbEntity
  8
SEIHIN
  6
CONTINUOUS
 62
     3
 48
16.0
100
AcDbCircle
 10
80.02441618167333
 20
134.4034958113698
 30
0.0
 40
0.3000299848206265
100
AcDbArc
 50
168.1686973337289
 51
246.8079742114879
  0
LINE
  5
405
330
1A
100
AcDbEntity
  8
SEIHIN
  6
CONTINUOUS
 62
     3
 48
16.0
100
AcDbLine
 10
83.23746017804054
 20
134.3989112023051
 30
0.0
 11
80.05286017804062
 21
134.7021112023051
 31
0.0
  0
LINE
  5
406
330
1A
100
AcDbEntity
  8
SEIHIN
  6
CONTINUOUS
 62
     3
 48
16.0
100
AcDbLine
 10
82.84646017804059
 20
132.8672112023051
 30
0.0
 11
79.90626017804058
 21
134.1277112023051
 31
0.0
  0
ARC
  5
407
330
1A
100
AcDbEntity
  8
SEIHIN
  6
CONTINUOUS
 62
     3
 48
16.0
100
AcDbCircle
 10
83.16163118687999
 20
133.6024968950972
 30
0.0
 40
0.7999861341533095
100
AcDbArc
 50
246.7982121817283
 51
345.737698314064
  0
ARC
  5
408
330
1A
100
AcDbEntity
  8
SEIHIN
  6
CONTINUOUS
 62
     3
 48
16.0
100
AcDbCircle
 10
81.92486017804057
 20
142.3706112023051
 30
0.0
 40
2.0
100
AcDbArc
 50
270.0
 51
0.0
  0
LINE
  5
409
330
1A
100
AcDbEntity
  8
SEIHIN
  6
CONTINUOUS
 62
     3
 48
16.0
100
AcDbLine
 10
83.47396017804063
 20
137.6471112023051
 30
0.0
 11
79.98306017804063
 21
136.5209112023051
 31
0.0
  0
LINE
  5
40A
330
1A
100
AcDbEntity
  8
SEIHIN
  6
CONTINUOUS
 62
     3
 48
16.0
100
AcDbLine
 10
82.78796017804049
 20
139.0763112023051
 30
0.0
 11
79.72576017804064
 21
137.056911202305
 31
0.0
  0
ARC
  5
40B
330
1A
100
AcDbEntity
  8
SEIHIN
  6
CONTINUOUS
 62
     3
 48
16.0
100
AcDbCircle
 10
79.89096997908311
 20
136.8064070083541
 30
0.0
 40
0.2999807660761266
100
AcDbArc
 50
205.7861790119682
 51
287.8777473054459
  0
ARC
  5
40C
330
1A
100
AcDbEntity
  8
SEIHIN
  6
CONTINUOUS
 62
     3
 48
16.0
100
AcDbCircle
 10
80.02443400321622
 20
134.4033919315795
 30
0.0
 40
0.300068742320863
100
AcDbArc
 50
84.56409299043707
 51
168.1499813809538
  0
ARC
  5
40D
330
1A
100
AcDbEntity
  8
SEIHIN
  6
CONTINUOUS
 62
     3
 48
16.0
100
AcDbCircle
 10
79.89097934488061
 20
136.8064807676553
 30
0.0
 40
0.3000212920612555
100
AcDbArc
 50
123.4144637516614
 51
205.7980843013433
  0
ARC
  5
40E
330
1A
100
AcDbEntity
  8
SEIHIN
  6
CONTINUOUS
 62
     3
 48
16.0
100
AcDbCircle
 10
83.22837780779938
 20
138.4084615215807
 30
0.0
 40
0.799978130472554
100
AcDbArc
 50
287.8777077593881
 51
33.50104468163908
  0
ARC
  5
40F
330
1A
100
AcDbEntity
  8
SEIHIN
  6
CONTINUOUS
 62
     3
 48
16.0
100
AcDbCircle
 10
83.22835601765749
 20
138.4084120523969
 30
0.0
 40
0.8000236059017472
100
AcDbArc
 50
33.50313763733201
 51
123.3998501294571
  0
ARC
  5
410
330
1A
100
AcDbEntity
  8
NOKITOI
  6
PHANTOM
 62
     8
 48
5.0
100
AcDbCircle
 10
152.3404683910643
 20
97.70303519719412
 30
0.0
 40
12.19997945109428
100
AcDbArc
 50
48.00719042627341
 51
72.26181654227993
  0
ARC
  5
411
330
1A
100
AcDbEntity
  8
SEIHIN
  6
CONTINUOUS
 62
     3
 48
16.0
100
AcDbCircle
 10
162.8746082353773
 20
100.8705126467489
 30
0.0
 40
4.500001444444297
100
AcDbArc
 50
196.7356113084857
 51
270.0000247347468
  0
ARC
  5
412
330
1A
100
AcDbEntity
  8
NOKITOI
  6
PHANTOM
 62
     8
 48
5.0
100
AcDbCircle
 10
152.3405060651705
 20
97.70301551827595
 30
0.0
 40
10.99994632941524
100
AcDbArc
 50
11.36374015671925
 51
75.87555169639184
  0
ARC
  5
413
330
1A
100
AcDbEntity
  8
SEIHIN
  6
CONTINUOUS
 62
     3
 48
16.0
100
AcDbCircle
 10
152.3404909647291
 20
97.70313186420393
 30
0.0
 40
9.199945293881421
100
AcDbArc
 50
13.42056006984956
 51
72.41807934622672
  0
ARC
  5
414
330
1A
100
AcDbEntity
  8
SEIHIN
  6
CONTINUOUS
 62
     3
 48
16.0
100
AcDbCircle
 10
152.3405103329505
 20
97.70311103667186
 30
0.0
 40
9.999963980685205
100
AcDbArc
 50
14.71676328417721
 51
71.45126755184699
  0
DIMENSION
  5
415
330
1A
100
AcDbEntity
  8
SUNPOU
100
AcDbDimension
  2
*D5
 10
120.5575366254848
 20
71.87051120230505
 30
0.0
 11
118.0575366254847
 21
85.47051120230506
 31
0.0
 70
    32
  3
STANDARD
100
AcDbAlignedDimension
 13
162.2619101780404
 23
99.07051120230503
 33
0.0
 14
183.4248101780405
 24
71.87051120230504
 34
0.0
 50
90.0
100
AcDbRotatedDimension
1001
ACAD
1000
DSTYLE
1002
{
1070
   287
1070
     4
1070
   287
1070
     4
1070
   287
1070
     4
1070
    41
1040
3.0
1070
    42
1040
3.0
1070
    43
1040
7.0
1070
    44
1040
1.5
1070
    73
1070
     0
1070
    74
1070
     0
1070
    75
1070
     1
1070
    77
1070
     3
1070
   140
1040
3.0
1070
   141
1040
150.0
1070
   147
1040
1.0
1070
   172
1070
     1
1070
   173
1070
     1
1070
   176
1070
     4
1070
   177
1070
     4
1070
   178
1070
     4
1070
   271
1070
     0
1070
   272
1070
     2
1070
   279
1070
     1
1070
     6
1000
OPEN
1070
     7
1000
OPEN
1002
}
  0
ARC
  5
416
330
1A
100
AcDbEntity
  8
SEIHIN
  6
CONTINUOUS
 62
     3
 48
16.0
100
AcDbCircle
 10
152.3405284000628
 20
97.7030918904963
 30
0.0
 40
6.499970929582921
100
AcDbArc
 50
16.73482970711813
 51
69.93938296814767
  0
LINE
  5
417
330
1A
100
AcDbEntity
  8
SEIHIN
  6
CONTINUOUS
 62
     3
 48
16.0
100
AcDbLine
 10
151.7046101780404
 20
107.1358112023051
 30
0.0
 11
146.9221101780405
 21
130.570511202305
 31
0.0
  0
LINE
  5
418
330
1A
100
AcDbEntity
  8
NOKITOI
  6
PHANTOM
 62
     8
 48
5.0
100
AcDbLine
 10
150.0249101780405
 20
132.8704112023051
 30
0.0
 11
155.0248101780406
 21
108.3704112023051
 31
0.0
  0
LINE
  5
419
330
1A
100
AcDbEntity
  8
SEIHIN
  6
CONTINUOUS
 62
     3
 48
16.0
100
AcDbLine
 10
150.4126101780405
 20
130.970511202305
 30
0.0
 11
155.1907101780405
 21
107.5577112023051
 31
0.0
  0
LINE
  5
41A
330
1A
100
AcDbEntity
  8
SEIHIN
  6
CONTINUOUS
 62
     3
 48
16.0
100
AcDbLine
 10
154.4418101780405
 20
107.226611202305
 30
0.0
 11
149.7594101780404
 21
130.170511202305
 31
0.0
  0
LINE
  5
41B
330
1A
100
AcDbEntity
  8
NOKITOI
  6
PHANTOM
 62
     8
 48
5.0
100
AcDbLine
 10
149.8233101780404
 20
139.8704112023051
 30
0.0
 11
156.0574101780405
 21
109.323011202305
 31
0.0
  0
ARC
  5
41C
330
1A
100
AcDbEntity
  8
SEIHIN
  6
CONTINUOUS
 62
     3
 48
16.0
100
AcDbCircle
 10
156.1138020374317
 20
108.035620654651
 30
0.0
 40
4.499972008255389
100
AcDbArc
 50
191.5345556217938
 51
249.9375131742009
  0
ARC
  5
41D
330
1A
100
AcDbEntity
  8
SEIHIN
  6
CONTINUOUS
 62
     3
 48
16.0
100
AcDbCircle
 10
155.680593583819
 20
107.6576299645933
 30
0.0
 40
0.4999695093846522
100
AcDbArc
 50
191.5281707198886
 51
251.458817405489
  0
ARC
  5
41E
330
1A
100
AcDbEntity
  8
SEIHIN
  6
CONTINUOUS
 62
     3
 48
16.0
100
AcDbCircle
 10
155.4216224750153
 20
107.426597533992
 30
0.0
 40
1.000013334993361
100
AcDbArc
 50
191.5360038029055
 51
252.4157252969602
  0
LINE
  5
41F
330
1A
100
AcDbEntity
  8
NOKITOI
  6
PHANTOM
 62
     8
 48
5.0
100
AcDbLine
 10
148.8412101780404
 20
138.6704112023051
 30
0.0
 11
149.7799101780405
 21
134.070411202305
 31
0.0
  0
LINE
  5
420
330
1A
100
AcDbEntity
  8
NOKITOI
  6
PHANTOM
 62
     8
 48
5.0
100
AcDbLine
 10
146.1249101780405
 20
138.6704112023051
 30
0.0
 11
146.1249101780405
 21
134.070411202305
 31
0.0
  0
LINE
  5
421
330
1A
100
AcDbEntity
  8
NOKITOI
  6
PHANTOM
 62
     8
 48
5.0
100
AcDbLine
 10
144.9248101780406
 20
132.8704112023051
 30
0.0
 11
144.9249101780404
 21
139.8704112023051
 31
0.0
  0
LINE
  5
422
330
1A
100
AcDbEntity
  8
NOKITOI
  6
PHANTOM
 62
     8
 48
5.0
100
AcDbLine
 10
149.7799101780405
 20
134.070411202305
 30
0.0
 11
146.1249101780405
 21
134.070411202305
 31
0.0
  0
LINE
  5
423
330
1A
100
AcDbEntity
  8
NOKITOI
  6
PHANTOM
 62
     8
 48
5.0
100
AcDbLine
 10
144.9248101780406
 20
132.8704112023051
 30
0.0
 11
150.0249101780405
 21
132.8704112023051
 31
0.0
  0
LINE
  5
424
330
1A
100
AcDbEntity
  8
SEIHIN
  6
CONTINUOUS
 62
     3
 48
16.0
100
AcDbLine
 10
145.1249101780406
 20
130.570511202305
 30
0.0
 11
149.2695101780405
 21
130.570511202305
 31
0.0
  0
LINE
  5
425
330
1A
100
AcDbEntity
  8
SEIHIN
  6
CONTINUOUS
 62
     3
 48
16.0
100
AcDbLine
 10
149.9227101780405
 20
131.370511202305
 30
0.0
 11
145.4248101780404
 21
131.370511202305
 31
0.0
  0
ARC
  5
426
330
1A
100
AcDbEntity
  8
SEIHIN
  6
CONTINUOUS
 62
     3
 48
16.0
100
AcDbCircle
 10
145.1249101780406
 20
131.570511202305
 30
0.0
 40
1.0
100
AcDbArc
 50
180.0
 51
270.0
  0
ARC
  5
427
330
1A
100
AcDbEntity
  8
SEIHIN
  6
CONTINUOUS
 62
     3
 48
16.0
100
AcDbCircle
 10
145.4248101780405
 20
131.8705112023049
 30
0.0
 40
0.4999999999999432
100
AcDbArc
 50
179.9999999999934
 51
269.9999999999934
  0
ARC
  5
428
330
1A
100
AcDbEntity
  8
SEIHIN
  6
CONTINUOUS
 62
     3
 48
16.0
100
AcDbCircle
 10
149.9227114089057
 20
130.870510197307
 30
0.0
 40
0.5000010049994628
100
AcDbArc
 50
11.53705306385751
 51
90.00014104646831
  0
ARC
  5
429
330
1A
100
AcDbEntity
  8
SEIHIN
  6
CONTINUOUS
 62
     3
 48
16.0
100
AcDbCircle
 10
149.2695114089055
 20
130.0705101973071
 30
0.0
 40
0.5000010049994151
100
AcDbArc
 50
11.53705306384699
 51
90.00014104645858
  0
LINE
  5
42A
330
1A
100
AcDbEntity
  8
NOKITOI
  6
PHANTOM
 62
     8
 48
5.0
100
AcDbLine
 10
144.9249101780404
 20
139.8704112023051
 30
0.0
 11
149.8233101780404
 21
139.8704112023051
 31
0.0
  0
LINE
  5
42B
330
1A
100
AcDbEntity
  8
NOKITOI
  6
PHANTOM
 62
     8
 48
5.0
100
AcDbLine
 10
148.8412101780404
 20
138.6704112023051
 30
0.0
 11
146.1249101780405
 21
138.6704112023051
 31
0.0
  0
ARC
  5
42C
330
1A
100
AcDbEntity
  8
SEIHIN
  6
CONTINUOUS
 62
     3
 48
16.0
100
AcDbCircle
 10
212.5876535436833
 20
100.070466492806
 30
0.0
 40
0.9999552921048582
100
AcDbArc
 50
270.0032450547215
 51
346.5812833143991
  0
ARC
  5
42D
330
1A
100
AcDbEntity
  8
SEIHIN
  6
CONTINUOUS
 62
     3
 48
16.0
100
AcDbCircle
 10
162.2619052063078
 20
100.0705151272895
 30
0.0
 40
1.000003924996877
100
AcDbArc
 50
193.4209166549711
 51
270.000284858174
  0
LINE
  5
42E
330
1A
100
AcDbEntity
  8
CENTER_L
  6
CENTER
 62
     1
 48
5.0
100
AcDbLine
 10
187.4248101780406
 20
66.55881120230512
 30
0.0
 11
187.4248101780406
 21
111.619611202305
 31
0.0
  0
ARC
  5
42F
330
1A
100
AcDbEntity
  8
SEIHIN
  6
CONTINUOUS
 62
     3
 48
16.0
100
AcDbCircle
 10
222.5091961762202
 20
97.70299636309601
 30
0.0
 40
6.500002478095645
100
AcDbArc
 50
110.0614934925781
 51
163.2643746186527
  0
LINE
  5
430
330
1A
100
AcDbEntity
  8
SEIHIN
  6
CONTINUOUS
 62
     3
 48
16.0
100
AcDbLine
 10
187.4248101780406
 20
96.37041120230513
 30
0.0
 11
211.9750101780406
 21
96.37041120230513
 31
0.0
  0
LINE
  5
431
330
1A
100
AcDbEntity
  8
SEIHIN
  6
CONTINUOUS
 62
     3
 48
16.0
100
AcDbLine
 10
187.4248101780406
 20
99.07041120230511
 30
0.0
 11
212.5877101780404
 21
99.07051120230503
 31
0.0
  0
LINE
  5
432
330
1A
100
AcDbEntity
  8
SEIHIN
  6
CONTINUOUS
 62
     3
 48
16.0
100
AcDbLine
 10
184.6398101780404
 20
76.68021120230503
 30
0.0
 11
186.6823101780405
 21
71.57351120230504
 31
0.0
  0
LINE
  5
433
330
1A
100
AcDbEntity
  8
SEIHIN
  6
CONTINUOUS
 62
     3
 48
16.0
100
AcDbLine
 10
187.4248101780406
 20
99.07041120230511
 30
0.0
 11
162.2619101780404
 21
99.07051120230503
 31
0.0
  0
LINE
  5
434
330
1A
100
AcDbEntity
  8
SEIHIN
  6
CONTINUOUS
 62
     3
 48
16.0
100
AcDbLine
 10
187.4248101780406
 20
96.37041120230513
 30
0.0
 11
162.8746101780404
 21
96.37051120230504
 31
0.0
  0
LINE
  5
435
330
1A
100
AcDbEntity
  8
SEIHIN
  6
CONTINUOUS
 62
     3
 48
16.0
100
AcDbLine
 10
190.2098101780404
 20
78.90801120230503
 30
0.0
 11
190.2098101780404
 21
91.37051120230504
 31
0.0
  0
LINE
  5
436
330
1A
100
AcDbEntity
  8
SEIHIN
  6
CONTINUOUS
 62
     3
 48
16.0
100
AcDbLine
 10
184.6398101780404
 20
76.68021120230503
 30
0.0
 11
184.6398101780404
 21
91.37051120230504
 31
0.0
  0
LINE
  5
437
330
1A
100
AcDbEntity
  8
SEIHIN
  6
CONTINUOUS
 62
     3
 48
16.0
100
AcDbLine
 10
187.4248101780406
 20
95.37041120230512
 30
0.0
 11
182.4248101780406
 21
95.37051120230504
 31
0.0
  0
LINE
  5
438
330
1A
100
AcDbEntity
  8
SEIHIN
  6
CONTINUOUS
 62
     3
 48
16.0
100
AcDbLine
 10
184.6398101780404
 20
91.37051120230504
 30
0.0
 11
190.2098101780404
 21
91.37051120230504
 31
0.0
  0
LINE
  5
439
330
1A
100
AcDbEntity
  8
SEIHIN
  6
CONTINUOUS
 62
     3
 48
16.0
100
AcDbLine
 10
182.4248101780406
 20
95.37041120230512
 30
0.0
 11
184.6398101780404
 21
91.37051120230504
 31
0.0
  0
LINE
  5
43A
330
1A
100
AcDbEntity
  8
SEIHIN
  6
CONTINUOUS
 62
     3
 48
16.0
100
AcDbLine
 10
182.4248101780406
 20
95.37041120230512
 30
0.0
 11
182.4248101780406
 21
96.37041120230513
 31
0.0
  0
LINE
  5
43B
330
1A
100
AcDbEntity
  8
SEIHIN
  6
CONTINUOUS
 62
     3
 48
16.0
100
AcDbLine
 10
192.4249101780404
 20
95.37051120230504
 30
0.0
 11
190.2098101780404
 21
91.37051120230504
 31
0.0
  0
LINE
  5
43C
330
1A
100
AcDbEntity
  8
SEIHIN
  6
CONTINUOUS
 62
     3
 48
16.0
100
AcDbLine
 10
187.4248101780406
 20
95.37041120230512
 30
0.0
 11
192.4249101780404
 21
95.37051120230504
 31
0.0
  0
LINE
  5
43D
330
1A
100
AcDbEntity
  8
SEIHIN
  6
CONTINUOUS
 62
     3
 48
16.0
100
AcDbLine
 10
192.4249101780404
 20
95.37051120230504
 30
0.0
 11
192.4249101780404
 21
96.37051120230504
 31
0.0
  0
ARC
  5
43E
330
1A
100
AcDbEntity
  8
SEIHIN
  6
CONTINUOUS
 62
     3
 48
16.0
100
AcDbCircle
 10
211.9749927579138
 20
100.87039824949
 30
0.0
 40
4.499987047218606
100
AcDbArc
 50
270.0002218005818
 51
343.2658545438558
  0
LINE
  5
43F
330
1A
100
AcDbEntity
  8
NOKITOI
  6
PHANTOM
 62
     8
 48
5.0
100
AcDbLine
 10
211.7248101780404
 20
99.87041120230513
 30
0.0
 11
187.4248101780406
 21
99.87041120230513
 31
0.0
  0
LINE
  5
440
330
1A
100
AcDbEntity
  8
SEIHIN
  6
CONTINUOUS
 62
     3
 48
16.0
100
AcDbLine
 10
212.3536101780404
 20
99.87041120230513
 30
0.0
 11
187.4248101780406
 21
99.87041120230513
 31
0.0
  0
LINE
  5
441
330
1A
100
AcDbEntity
  8
NOKITOI
  6
PHANTOM
 62
     8
 48
5.0
100
AcDbLine
 10
187.4248101780406
 20
101.0704112023051
 30
0.0
 11
206.9248101780405
 21
101.0704112023051
 31
0.0
  0
LINE
  5
442
330
1A
100
AcDbEntity
  8
NOKITOI
  6
PHANTOM
 62
     8
 48
5.0
100
AcDbLine
 10
187.4248101780406
 20
101.0704112023051
 30
0.0
 11
167.9248101780405
 21
101.0704112023051
 31
0.0
  0
LINE
  5
443
330
1A
100
AcDbEntity
  8
NOKITOI
  6
PHANTOM
 62
     8
 48
5.0
100
AcDbLine
 10
163.1248101780406
 20
99.87041120230513
 30
0.0
 11
187.4248101780406
 21
99.87041120230513
 31
0.0
  0
LINE
  5
444
330
1A
100
AcDbEntity
  8
SEIHIN
  6
CONTINUOUS
 62
     3
 48
16.0
100
AcDbLine
 10
162.4960101780404
 20
99.87051120230503
 30
0.0
 11
187.4248101780406
 21
99.87041120230513
 31
0.0
  0
ARC
  5
445
330
1A
100
AcDbEntity
  8
NOKITOI
  6
PHANTOM
 62
     8
 48
5.0
100
AcDbCircle
 10
152.340505816915
 20
97.70301937361285
 30
0.0
 40
12.19993877054614
100
AcDbArc
 50
16.02263637925393
 51
40.15603560521631
  0
LINE
  5
446
330
1A
100
AcDbEntity
  8
NOKITOI
  6
PHANTOM
 62
     8
 48
5.0
100
AcDbLine
 10
166.7248101780404
 20
101.0704112023051
 30
0.0
 11
166.7248101780404
 21
105.570411202305
 31
0.0
  0
LINE
  5
447
330
1A
100
AcDbEntity
  8
NOKITOI
  6
PHANTOM
 62
     8
 48
5.0
100
AcDbLine
 10
167.9248101780405
 20
101.0704112023051
 30
0.0
 11
167.9248101780405
 21
106.770411202305
 31
0.0
  0
LINE
  5
448
330
1A
100
AcDbEntity
  8
NOKITOI
  6
PHANTOM
 62
     8
 48
5.0
100
AcDbLine
 10
166.7248101780404
 20
101.0704112023051
 30
0.0
 11
164.0665101780404
 21
101.0704112023051
 31
0.0
  0
ARC
  5
449
330
1A
100
AcDbEntity
  8
SEIHIN
  6
CONTINUOUS
 62
     3
 48
16.0
100
AcDbCircle
 10
162.4960115004954
 20
100.3705101823028
 30
0.0
 40
0.4999989799995632
100
AcDbArc
 50
194.7142483898061
 51
269.9998484575067
  0
LINE
  5
44A
330
1A
100
AcDbEntity
  8
NOKITOI
  6
PHANTOM
 62
     8
 48
5.0
100
AcDbLine
 10
160.5027101780405
 20
106.770411202305
 30
0.0
 11
167.9248101780405
 21
106.770411202305
 31
0.0
  0
LINE
  5
44B
330
1A
100
AcDbEntity
  8
NOKITOI
  6
PHANTOM
 62
     8
 48
5.0
100
AcDbLine
 10
161.6648101780404
 20
105.570411202305
 30
0.0
 11
166.7248101780404
 21
105.570411202305
 31
0.0
  0
LINE
  5
44C
330
1A
100
AcDbEntity
  8
NOKITOI
  6
PHANTOM
 62
     8
 48
5.0
100
AcDbLine
 10
224.8248101780405
 20
132.8703112023049
 30
0.0
 11
219.8248101780405
 21
108.3704112023051
 31
0.0
  0
LINE
  5
44D
330
1A
100
AcDbEntity
  8
SEIHIN
  6
CONTINUOUS
 62
     3
 48
16.0
100
AcDbLine
 10
224.4371101780404
 20
130.970511202305
 30
0.0
 11
219.6589101780404
 21
107.5576112023051
 31
0.0
  0
LINE
  5
44E
330
1A
100
AcDbEntity
  8
SEIHIN
  6
CONTINUOUS
 62
     3
 48
16.0
100
AcDbLine
 10
220.4078101780405
 20
107.226611202305
 30
0.0
 11
225.0903101780405
 21
130.1704112023051
 31
0.0
  0
LINE
  5
44F
330
1A
100
AcDbEntity
  8
NOKITOI
  6
PHANTOM
 62
     8
 48
5.0
100
AcDbLine
 10
225.0264101780405
 20
139.8703112023049
 30
0.0
 11
218.7922101780405
 21
109.3229112023051
 31
0.0
  0
LINE
  5
450
330
1A
100
AcDbEntity
  8
NOKITOI
  6
PHANTOM
 62
     8
 48
5.0
100
AcDbLine
 10
214.3469101780405
 20
106.7703112023051
 30
0.0
 11
206.9248101780405
 21
106.770411202305
 31
0.0
  0
LINE
  5
451
330
1A
100
AcDbEntity
  8
NOKITOI
  6
PHANTOM
 62
     8
 48
5.0
100
AcDbLine
 10
213.1848101780405
 20
105.570411202305
 30
0.0
 11
208.1248101780406
 21
105.570411202305
 31
0.0
  0
LINE
  5
452
330
1A
100
AcDbEntity
  8
NOKITOI
  6
PHANTOM
 62
     8
 48
5.0
100
AcDbLine
 10
208.1248101780406
 20
101.0704112023051
 30
0.0
 11
210.7831101780405
 21
101.0704112023051
 31
0.0
  0
LINE
  5
453
330
1A
100
AcDbEntity
  8
SEIHIN
  6
CONTINUOUS
 62
     3
 48
16.0
100
AcDbLine
 10
208.3536101780404
 20
99.87041120230513
 30
0.0
 11
199.9427101780405
 21
99.87041120230513
 31
0.0
  0
LINE
  5
454
330
1A
100
AcDbEntity
  8
NOKITOI
  6
PHANTOM
 62
     8
 48
5.0
100
AcDbLine
 10
208.1248101780406
 20
101.0704112023051
 30
0.0
 11
208.1248101780406
 21
105.570411202305
 31
0.0
  0
LINE
  5
455
330
1A
100
AcDbEntity
  8
NOKITOI
  6
PHANTOM
 62
     8
 48
5.0
100
AcDbLine
 10
206.9248101780405
 20
101.070311202305
 30
0.0
 11
206.9248101780405
 21
106.770411202305
 31
0.0
  0
ARC
  5
456
330
1A
100
AcDbEntity
  8
NOKITOI
  6
PHANTOM
 62
     8
 48
5.0
100
AcDbCircle
 10
222.5091519650168
 20
97.70293519719452
 30
0.0
 40
12.19997945109404
100
AcDbArc
 50
107.7381834577211
 51
131.9928095737274
  0
ARC
  5
457
330
1A
100
AcDbEntity
  8
SEIHIN
  6
CONTINUOUS
 62
     3
 48
16.0
100
AcDbCircle
 10
222.5092086472927
 20
97.70300956559854
 30
0.0
 40
10.00005974307162
100
AcDbArc
 50
108.5485400303348
 51
165.2833721150334
  0
ARC
  5
458
330
1A
100
AcDbEntity
  8
NOKITOI
  6
PHANTOM
 62
     8
 48
5.0
100
AcDbCircle
 10
222.5091142909105
 20
97.70291551827583
 30
0.0
 40
10.99994632941526
100
AcDbArc
 50
104.1244483036074
 51
168.6362598432798
  0
ARC
  5
459
330
1A
100
AcDbEntity
  8
SEIHIN
  6
CONTINUOUS
 62
     3
 48
16.0
100
AcDbCircle
 10
222.5091669697789
 20
97.70296473624904
 30
0.0
 40
9.200020637317884
100
AcDbArc
 50
107.5820174691518
 51
166.5784818329253
  0
ARC
  5
45A
330
1A
100
AcDbEntity
  8
NOKITOI
  6
PHANTOM
 62
     8
 48
5.0
100
AcDbCircle
 10
222.5091871617113
 20
97.70305544317043
 30
0.0
 40
12.19997101530972
100
AcDbArc
 50
139.8443138052131
 51
163.9780719705774
  0
ARC
  5
45B
330
1A
100
AcDbEntity
  8
SEIHIN
  6
CONTINUOUS
 62
     3
 48
16.0
100
AcDbCircle
 10
212.3536088555854
 20
100.370410182303
 30
0.0
 40
0.4999989799996439
100
AcDbArc
 50
270.0001515424867
 51
345.2857516101863
  0
ARC
  5
45C
330
1A
100
AcDbEntity
  8
SEIHIN
  6
CONTINUOUS
 62
     3
 48
16.0
100
AcDbCircle
 10
218.7358210261599
 20
108.0356237983959
 30
0.0
 40
4.500067964502843
100
AcDbArc
 50
290.062003942498
 51
348.465652858411
  0
ARC
  5
45D
330
1A
100
AcDbEntity
  8
SEIHIN
  6
CONTINUOUS
 62
     3
 48
16.0
100
AcDbCircle
 10
219.4279846863636
 20
107.4264828650465
 30
0.0
 40
1.000003337847921
100
AcDbArc
 50
287.5852492878878
 51
348.4705846895445
  0
ARC
  5
45E
330
1A
100
AcDbEntity
  8
SEIHIN
  6
CONTINUOUS
 62
     3
 48
16.0
100
AcDbCircle
 10
219.1690189352919
 20
107.6576211036451
 30
0.0
 40
0.4999954100666085
100
AcDbArc
 50
288.5532213949857
 51
348.4617755835556
  0
ARC
  5
45F
330
1A
100
AcDbEntity
  8
SEIHIN
  6
CONTINUOUS
 62
     3
 48
16.0
100
AcDbCircle
 10
225.5802211864836
 20
130.0705201924668
 30
0.0
 40
0.4999910099593997
100
AcDbArc
 50
90.00126149735825
 51
168.4755775196243
  0
ARC
  5
460
330
1A
100
AcDbEntity
  8
SEIHIN
  6
CONTINUOUS
 62
     3
 48
16.0
100
AcDbCircle
 10
224.9270211864836
 20
130.8705201924665
 30
0.0
 40
0.4999910099596626
100
AcDbArc
 50
90.00126149733871
 51
168.4755775196127
  0
LINE
  5
461
330
1A
100
AcDbEntity
  8
SEIHIN
  6
CONTINUOUS
 62
     3
 48
16.0
100
AcDbLine
 10
223.8580101780404
 20
139.519811202305
 30
0.0
 11
223.4804101780404
 21
140.9293112023051
 31
0.0
  0
LINE
  5
462
330
1A
100
AcDbEntity
  8
SEIHIN
  6
CONTINUOUS
 62
     3
 48
16.0
100
AcDbLine
 10
69.92486017804058
 20
159.3706112023051
 30
0.0
 11
67.4248601780406
 21
159.3706112023051
 31
0.0
  0
ARC
  5
463
330
1A
100
AcDbEntity
  8
SEIHIN
  6
CONTINUOUS
 62
     3
 48
16.0
100
AcDbCircle
 10
69.92486017804051
 20
158.3707112023051
 30
0.0
 40
1.000000000000014
100
AcDbArc
 50
359.9999999999943
 51
89.99999999999429
  0
LINE
  5
464
330
1A
100
AcDbEntity
  8
SEIHIN
  6
CONTINUOUS
 62
     3
 48
16.0
100
AcDbLine
 10
84.92486017804052
 20
159.3706112023051
 30
0.0
 11
87.42486017804052
 21
159.3706112023051
 31
0.0
  0
ARC
  5
465
330
1A
100
AcDbEntity
  8
SEIHIN
  6
CONTINUOUS
 62
     3
 48
16.0
100
AcDbCircle
 10
84.92486017804058
 20
158.3706112023052
 30
0.0
 40
0.9999999999999573
100
AcDbArc
 50
90.00000000000245
 51
180.0000000000024
  0
ARC
  5
466
330
1A
100
AcDbEntity
  8
SEIHIN
  6
CONTINUOUS
 62
     3
 48
16.0
100
AcDbCircle
 10
159.0753149687813
 20
235.4586112021628
 30
0.0
 40
17.0753009590525
100
AcDbArc
 50
256.2788546782437
 51
283.7197306111506
  0
ARC
  5
467
330
1A
100
AcDbEntity
  8
SEIHIN
  6
CONTINUOUS
 62
     3
 48
16.0
100
AcDbCircle
 10
159.0751101780406
 20
184.282511201736
 30
0.0
 40
17.07525238521743
100
AcDbArc
 50
76.27952224061047
 51
103.7204777593895
  0
LINE
  5
468
330
1A
100
AcDbEntity
  8
SEIHIN
  6
CONTINUOUS
 62
     3
 48
16.0
100
AcDbLine
 10
181.7682101780404
 20
211.8705112023049
 30
0.0
 11
150.6310101780404
 21
211.8705112023049
 31
0.0
  0
LINE
  5
469
330
1A
100
AcDbEntity
  8
SEIHIN
  6
CONTINUOUS
 62
     3
 48
16.0
100
AcDbLine
 10
181.7682101780404
 20
207.8705112023049
 30
0.0
 11
150.6310101780404
 21
207.870611202305
 31
0.0
  0
LINE
  5
46A
330
1A
100
AcDbEntity
  8
SEIHIN
  6
CONTINUOUS
 62
     3
 48
16.0
100
AcDbLine
 10
150.6291918332884
 20
216.3706112078802
 30
0.0
 11
225.4191101780405
 21
216.370411202305
 31
0.0
  0
LINE
  5
46B
330
1A
100
AcDbEntity
  8
SEIHIN
  6
CONTINUOUS
 62
     3
 48
16.0
100
AcDbLine
 10
150.6291926257351
 20
203.3705112023049
 30
0.0
 11
225.4191101780405
 21
203.3705112023049
 31
0.0
  0
LINE
  5
46C
330
1A
100
AcDbEntity
  8
SEIHIN
  6
CONTINUOUS
 62
     3
 48
16.0
100
AcDbLine
 10
144.9249101780404
 20
159.370511202305
 30
0.0
 11
144.1249101780406
 21
159.370511202305
 31
0.0
  0
DIMENSION
  5
46D
330
1A
100
AcDbEntity
  8
SUNPOU
  6
CONTINUOUS
100
AcDbDimension
  2
*D6
 10
120.520551032138
 20
199.870611202305
 30
0.0
 11
118.0205510321379
 21
209.8705612023049
 31
0.0
 70
    32
  3
STANDARD
100
AcDbAlignedDimension
 13
144.1250101780405
 23
219.8705112023049
 33
0.0
 14
144.1250101780405
 24
199.870611202305
 34
0.0
 50
90.0
100
AcDbRotatedDimension
1001
ACAD
1000
DSTYLE
1002
{
1070
   140
1040
3.0
1070
    74
1070
     0
1070
   172
1070
     1
1070
    73
1070
     0
1070
   272
1070
     2
1070
    77
1070
     3
1070
   173
1070
     1
1070
   147
1040
1.0
1070
    42
1040
3.0
1070
    44
1040
1.5
1070
    43
1040
7.0
1070
   271
1070
     0
1070
   178
1070
     4
1070
   177
1070
     4
1070
   176
1070
     4
1070
   141
1040
150.0
1070
     7
1000
_OPEN
1070
     6
1000
_OPEN
1070
    41
1040
3.0
1002
}
  0
ARC
  5
46E
330
1A
100
AcDbEntity
  8
SEIHIN
  6
CONTINUOUS
 62
     3
 48
16.0
100
AcDbCircle
 10
150.3826101791248
 20
214.1204556810711
 30
0.0
 40
2.263625942374752
100
AcDbArc
 50
83.69993466723116
 51
276.3026118684512
  0
LINE
  5
46F
330
1A
100
AcDbEntity
  8
SEIHIN
  6
CONTINUOUS
 62
     3
 48
16.0
100
AcDbLine
 10
144.9251101780405
 20
199.870611202305
 30
0.0
 11
144.9251101780405
 21
219.8705112023049
 31
0.0
  0
LINE
  5
470
330
1A
100
AcDbEntity
  8
SEIHIN
  6
CONTINUOUS
 62
     3
 48
16.0
100
AcDbLine
 10
144.1250101780405
 20
199.870611202305
 30
0.0
 11
144.1250101780405
 21
219.8705112023049
 31
0.0
  0
ARC
  5
471
330
1A
100
AcDbEntity
  8
SEIHIN
100
AcDbCircle
 10
155.9624794445143
 20
214.1206169679986
 30
0.0
 40
2.437469267203474
100
AcDbArc
 50
112.6193833216257
 51
247.3806166783735
  0
ARC
  5
472
330
1A
100
AcDbEntity
  8
SEIHIN
  6
CONTINUOUS
 62
     3
 48
16.0
100
AcDbCircle
 10
150.3825101779192
 20
205.620661202305
 30
0.0
 40
2.263631430370302
100
AcDbArc
 50
83.69740344296623
 51
276.3025965570337
  0
ARC
  5
473
330
1A
100
AcDbEntity
  8
SEIHIN
100
AcDbCircle
 10
155.9624794445143
 20
205.6205316906252
 30
0.0
 40
2.437469267203474
100
AcDbArc
 50
112.6193833216257
 51
247.3806166783735
  0
LINE
  5
474
330
1A
100
AcDbEntity
  8
SEIHIN
  6
CONTINUOUS
 62
     3
 48
16.0
100
AcDbLine
 10
155.0250101780404
 20
200.870611202305
 30
0.0
 11
144.9251101780405
 21
200.870611202305
 31
0.0
  0
LINE
  5
475
330
1A
100
AcDbEntity
  8
SEIHIN
  6
CONTINUOUS
 62
     3
 48
16.0
100
AcDbLine
 10
144.9251101780405
 20
203.370611202305
 30
0.0
 11
144.1251101780405
 21
203.370611202305
 31
0.0
  0
LINE
  5
476
330
1A
100
AcDbEntity
  8
SEIHIN
  6
CONTINUOUS
 62
     3
 48
16.0
100
AcDbLine
 10
144.9251101780405
 20
199.870611202305
 30
0.0
 11
144.1251101780405
 21
199.870611202305
 31
0.0
  0
LINE
  5
477
330
1A
100
AcDbEntity
  8
SEIHIN
  6
CONTINUOUS
 62
     3
 48
16.0
100
AcDbLine
 10
150.4128101780406
 20
200.8705112023049
 30
0.0
 11
150.4128101780406
 21
203.3705112023049
 31
0.0
  0
LINE
  5
478
330
1A
100
AcDbEntity
  8
SEIHIN
  6
CONTINUOUS
 62
     3
 48
16.0
100
AcDbLine
 10
155.0250101780404
 20
200.8705112023049
 30
0.0
 11
155.0250101780404
 21
203.3705112023049
 31
0.0
  0
LINE
  5
479
330
1A
100
AcDbEntity
  8
SEIHIN
  6
CONTINUOUS
 62
     3
 48
16.0
100
AcDbLine
 10
150.4128101780406
 20
207.8705112023049
 30
0.0
 11
150.4128101780406
 21
211.8706527572823
 31
0.0
  0
LINE
  5
47A
330
1A
100
AcDbEntity
  8
SEIHIN
  6
CONTINUOUS
 62
     3
 48
16.0
100
AcDbLine
 10
155.0250101780404
 20
207.8705112023048
 30
0.0
 11
155.0250101780404
 21
211.8706374563188
 31
0.0
  0
LINE
  5
47B
330
1A
100
AcDbEntity
  8
SEIHIN
  6
CONTINUOUS
 62
     3
 48
16.0
100
AcDbLine
 10
155.0250101780404
 20
218.870611202305
 30
0.0
 11
144.9252101780404
 21
218.870511202305
 31
0.0
  0
LINE
  5
47C
330
1A
100
AcDbEntity
  8
SEIHIN
  6
CONTINUOUS
 62
     3
 48
16.0
100
AcDbLine
 10
144.9251101780405
 20
219.8705112023049
 30
0.0
 11
144.1251101780405
 21
219.8705112023049
 31
0.0
  0
LINE
  5
47D
330
1A
100
AcDbEntity
  8
SEIHIN
  6
CONTINUOUS
 62
     3
 48
16.0
100
AcDbLine
 10
144.9252101780404
 20
216.3705112023049
 30
0.0
 11
144.1252101780405
 21
216.3705112023049
 31
0.0
  0
LINE
  5
47E
330
1A
100
AcDbEntity
  8
SEIHIN
  6
CONTINUOUS
 62
     3
 48
16.0
100
AcDbLine
 10
150.4128101780406
 20
216.3706086189953
 30
0.0
 11
150.4128101780406
 21
218.8705655360542
 31
0.0
  0
LINE
  5
47F
330
1A
100
AcDbEntity
  8
SEIHIN
  6
CONTINUOUS
 62
     3
 48
16.0
100
AcDbLine
 10
155.0250101780404
 20
216.3705964796782
 30
0.0
 11
155.0250101780404
 21
218.8706112023051
 31
0.0
  0
ARC
  5
480
330
1A
100
AcDbEntity
  8
SEIHIN
  6
CONTINUOUS
 62
     3
 48
16.0
100
AcDbCircle
 10
187.4250101780406
 20
209.8705112023049
 30
0.0
 40
6.0
100
AcDbArc
 50
0.0
 51
180.0
  0
LINE
  5
481
330
1A
100
AcDbEntity
  8
SEIHIN
  6
CONTINUOUS
 62
     3
 48
16.0
100
AcDbLine
 10
163.1250101780405
 20
218.870511202305
 30
0.0
 11
211.7251101780405
 21
218.870511202305
 31
0.0
  0
LINE
  5
482
330
1A
100
AcDbEntity
  8
SEIHIN
  6
CONTINUOUS
 62
     3
 48
16.0
100
AcDbLine
 10
163.1250101780405
 20
200.8705112023049
 30
0.0
 11
211.7251101780405
 21
200.8705112023049
 31
0.0
  0
ARC
  5
483
330
1A
100
AcDbEntity
  8
SEIHIN
  6
CONTINUOUS
 62
     3
 48
16.0
100
AcDbCircle
 10
187.4250101780406
 20
209.8705112023049
 30
0.0
 40
6.0
100
AcDbArc
 50
180.0
 51
0.0
  0
LINE
  5
484
330
1A
100
AcDbEntity
  8
CENTER_L
  6
CENTER
 62
     1
 48
5.0
100
AcDbLine
 10
187.4250101780406
 20
225.870511202305
 30
0.0
 11
187.4250101780406
 21
193.8705112023049
 31
0.0
  0
ARC
  5
485
330
1A
100
AcDbEntity
  8
SEIHIN
100
AcDbCircle
 10
166.1249570405733
 20
214.1205928725266
 30
0.0
 40
3.749946862832026
100
AcDbArc
 50
143.1298317181791
 51
216.8701682818208
  0
ARC
  5
486
330
1A
100
AcDbEntity
  8
SEIHIN
100
AcDbCircle
 10
166.1249570405733
 20
205.6205075951532
 30
0.0
 40
3.749946862832026
100
AcDbArc
 50
143.1298317181791
 51
216.8701682818208
  0
LINE
  5
487
330
1A
100
AcDbEntity
  8
SEIHIN
  6
CONTINUOUS
 62
     3
 48
16.0
100
AcDbLine
 10
163.1250101780405
 20
200.8705112023049
 30
0.0
 11
163.1250101780405
 21
203.3705112023048
 31
0.0
  0
LINE
  5
488
330
1A
100
AcDbEntity
  8
SEIHIN
  6
CONTINUOUS
 62
     3
 48
16.0
100
AcDbLine
 10
163.1250101780405
 20
207.8705112023049
 30
0.0
 11
163.1250101780405
 21
211.8706105845867
 31
0.0
  0
ARC
  5
489
330
1A
100
AcDbEntity
  8
SEIHIN
  6
CONTINUOUS
 62
     3
 48
16.0
100
AcDbCircle
 10
187.4250101780406
 20
209.8705112023049
 30
0.0
 40
4.5
100
AcDbArc
 50
0.0
 51
180.0
  0
ARC
  5
48A
330
1A
100
AcDbEntity
  8
SEIHIN
  6
CONTINUOUS
 62
     3
 48
16.0
100
AcDbCircle
 10
187.4250101780406
 20
209.8705112023049
 30
0.0
 40
4.5
100
AcDbArc
 50
180.0
 51
0.0
  0
LINE
  5
48B
330
1A
100
AcDbEntity
  8
SEIHIN
  6
CONTINUOUS
 62
     3
 48
16.0
100
AcDbLine
 10
189.4252101780404
 20
211.8705112023049
 30
0.0
 11
189.4252101780404
 21
207.8705112023049
 31
0.0
  0
LINE
  5
48C
330
1A
100
AcDbEntity
  8
SEIHIN
  6
CONTINUOUS
 62
     3
 48
16.0
100
AcDbLine
 10
185.4250101780406
 20
211.8705112023049
 30
0.0
 11
185.4250101780406
 21
207.8705112023049
 31
0.0
  0
LINE
  5
48D
330
1A
100
AcDbEntity
  8
SEIHIN
  6
CONTINUOUS
 62
     3
 48
16.0
100
AcDbLine
 10
185.4250101780406
 20
207.8705112023049
 30
0.0
 11
189.4252101780404
 21
207.8705112023049
 31
0.0
  0
LINE
  5
48E
330
1A
100
AcDbEntity
  8
SEIHIN
  6
CONTINUOUS
 62
     3
 48
16.0
100
AcDbLine
 10
189.4252101780404
 20
211.8705112023049
 30
0.0
 11
185.4250101780406
 21
211.8705112023049
 31
0.0
  0
LINE
  5
48F
330
1A
100
AcDbEntity
  8
SEIHIN
  6
CONTINUOUS
 62
     3
 48
16.0
100
AcDbLine
 10
163.1250101780405
 20
216.3705751604665
 30
0.0
 11
163.1250101780405
 21
218.870511202305
 31
0.0
  0
ARC
  5
490
330
1A
100
AcDbEntity
  8
SEIHIN
  6
CONTINUOUS
 62
     3
 48
16.0
100
AcDbCircle
 10
225.2252101780405
 20
214.370411202305
 30
0.0
 40
2.0
100
AcDbArc
 50
90.0
 51
180.0
  0
ARC
  5
491
330
1A
100
AcDbEntity
  8
SEIHIN
100
AcDbCircle
 10
218.8877548181728
 20
214.1204346203069
 30
0.0
 40
2.437502582848008
100
AcDbArc
 50
292.6192687952511
 51
67.37945795105467
  0
ARC
  5
492
330
1A
100
AcDbEntity
  8
SEIHIN
100
AcDbCircle
 10
208.7252605628234
 20
214.1204816322659
 30
0.0
 40
3.749996836930897
100
AcDbArc
 50
323.1294496248567
 51
36.86927713559971
  0
LINE
  5
493
330
1A
100
AcDbEntity
  8
SEIHIN
  6
CONTINUOUS
 62
     3
 48
16.0
100
AcDbLine
 10
193.0820101780404
 20
211.8705112023049
 30
0.0
 11
223.2252101780405
 21
211.870411202305
 31
0.0
  0
LINE
  5
494
330
1A
100
AcDbEntity
  8
SEIHIN
  6
CONTINUOUS
 62
     3
 48
16.0
100
AcDbLine
 10
193.0820101780404
 20
207.8705112023049
 30
0.0
 11
223.2252101780405
 21
207.8705112023049
 31
0.0
  0
ARC
  5
495
330
1A
100
AcDbEntity
  8
SEIHIN
  6
CONTINUOUS
 62
     3
 48
16.0
100
AcDbCircle
 10
225.2252101780405
 20
205.3705112023049
 30
0.0
 40
2.0
100
AcDbArc
 50
180.0
 51
270.0
  0
ARC
  5
496
330
1A
100
AcDbEntity
  8
SEIHIN
100
AcDbCircle
 10
218.8876603744391
 20
205.6204985781322
 30
0.0
 40
2.437502582848008
100
AcDbArc
 50
292.6192687952511
 51
67.37945795105467
  0
ARC
  5
497
330
1A
100
AcDbEntity
  8
SEIHIN
100
AcDbCircle
 10
208.7251661190897
 20
205.6205455900912
 30
0.0
 40
3.749996836930897
100
AcDbArc
 50
323.1294496248567
 51
36.86927713559971
  0
ARC
  5
498
330
1A
100
AcDbEntity
  8
SEIHIN
  6
CONTINUOUS
 62
     3
 48
16.0
100
AcDbCircle
 10
215.7751101780405
 20
184.2824112023051
 30
0.0
 40
17.07534953112208
100
AcDbArc
 50
76.27960182693543
 51
103.7203981730645
  0
LINE
  5
499
330
1A
100
AcDbEntity
  8
SEIHIN
  6
CONTINUOUS
 62
     3
 48
16.0
100
AcDbLine
 10
211.7251101780405
 20
200.8705112023049
 30
0.0
 11
211.7251379558183
 21
203.3705112023049
 31
0.0
  0
LINE
  5
49A
330
1A
100
AcDbEntity
  8
SEIHIN
  6
CONTINUOUS
 62
     3
 48
16.0
100
AcDbLine
 10
219.8251101780404
 20
200.8705112023049
 30
0.0
 11
219.8251379561269
 21
203.3705112023048
 31
0.0
  0
LINE
  5
49B
330
1A
100
AcDbEntity
  8
SEIHIN
  6
CONTINUOUS
 62
     3
 48
16.0
100
AcDbLine
 10
224.4374101780404
 20
200.8705112023049
 30
0.0
 11
224.4374101780404
 21
203.5322112023049
 31
0.0
  0
LINE
  5
49C
330
1A
100
AcDbEntity
  8
SEIHIN
  6
CONTINUOUS
 62
     3
 48
16.0
100
AcDbLine
 10
211.7251879558182
 20
207.8705112023048
 30
0.0
 11
211.7252323995754
 21
211.8704493534561
 31
0.0
  0
LINE
  5
49D
330
1A
100
AcDbEntity
  8
SEIHIN
  6
CONTINUOUS
 62
     3
 48
16.0
100
AcDbLine
 10
219.8251879566825
 20
207.8705112023049
 30
0.0
 11
219.825232400635
 21
211.8704224817238
 31
0.0
  0
LINE
  5
49E
330
1A
100
AcDbEntity
  8
SEIHIN
  6
CONTINUOUS
 62
     3
 48
16.0
100
AcDbLine
 10
223.2252101780405
 20
205.3705112023049
 30
0.0
 11
223.2252101780405
 21
214.370411202305
 31
0.0
  0
ARC
  5
49F
330
1A
100
AcDbEntity
  8
SEIHIN
  6
CONTINUOUS
 62
     3
 48
16.0
100
AcDbCircle
 10
215.7751101780405
 20
235.4586112023048
 30
0.0
 40
17.07534953112204
100
AcDbArc
 50
256.2796018269354
 51
283.7203981730645
  0
LINE
  5
4A0
330
1A
100
AcDbEntity
  8
SEIHIN
  6
CONTINUOUS
 62
     3
 48
16.0
100
AcDbLine
 10
211.7252823995519
 20
216.3704472444796
 30
0.0
 11
211.7253101780403
 21
218.870511202305
 31
0.0
  0
LINE
  5
4A1
330
1A
100
AcDbEntity
  8
SEIHIN
  6
CONTINUOUS
 62
     3
 48
16.0
100
AcDbLine
 10
219.8252824012289
 20
216.3704259252678
 30
0.0
 11
219.8253101802629
 21
218.8705112003248
 31
0.0
  0
LINE
  5
4A2
330
1A
100
AcDbEntity
  8
SEIHIN
  6
CONTINUOUS
 62
     3
 48
16.0
100
AcDbLine
 10
224.4374101780404
 20
218.870511202305
 30
0.0
 11
224.4374101780404
 21
216.208711202305
 31
0.0
  0
LINE
  5
4A3
330
1A
100
AcDbEntity
  8
SEIHIN
  6
CONTINUOUS
 62
     3
 48
16.0
100
AcDbLine
 10
284.1734101780403
 20
110.5671112023051
 30
0.0
 11
297.0794101780405
 21
118.691011202305
 31
0.0
  0
LINE
  5
4A4
330
1A
100
AcDbEntity
  8
SEIHIN
  6
CONTINUOUS
 62
     3
 48
16.0
100
AcDbLine
 10
282.1309101780406
 20
115.6738112023049
 30
0.0
 11
297.0794101780405
 21
118.691011202305
 31
0.0
  0
DIMENSION
  5
4A5
330
1A
100
AcDbEntity
  8
SUNPOU
100
AcDbDimension
  2
*D7
 10
319.6250093391733
 20
124.7465012754662
 30
0.0
 11
325.6598539094481
 21
116.3900276763561
 31
0.0
 70
    33
  3
STANDARD
100
AcDbAlignedDimension
 13
282.1309101780404
 23
115.6738112023049
 33
0.0
 14
284.1734101780403
 24
110.5671112023051
 34
0.0
1001
ACAD
1000
DSTYLE
1002
{
1070
   140
1040
3.0
1070
    74
1070
     0
1070
   172
1070
     1
1070
    73
1070
     0
1070
   272
1070
     2
1070
    77
1070
     3
1070
   173
1070
     1
1070
   147
1040
1.0
1070
    42
1040
3.0
1070
    44
1040
1.5
1070
    43
1040
7.0
1070
   271
1070
     1
1070
   178
1070
     4
1070
   177
1070
     4
1070
   176
1070
     4
1070
   141
1040
150.0
1070
     7
1000
_OPEN
1070
     6
1000
_OPEN
1070
    41
1040
3.0
1002
}
  0
LINE
  5
4A6
330
1A
100
AcDbEntity
  8
NOKITOI
  6
PHANTOM
 62
     8
 48
5.0
100
AcDbLine
 10
228.7248101780404
 20
138.670311202305
 30
0.0
 11
228.7248101780404
 21
134.0703112023051
 31
0.0
  0
LINE
  5
4A7
330
1A
100
AcDbEntity
  8
NOKITOI
  6
PHANTOM
 62
     8
 48
5.0
100
AcDbLine
 10
229.9248101780405
 20
132.8703112023049
 30
0.0
 11
229.9248101780405
 21
139.8703112023049
 31
0.0
  0
LINE
  5
4A8
330
1A
100
AcDbEntity
  8
SEIHIN
  6
CONTINUOUS
 62
     3
 48
16.0
100
AcDbLine
 10
230.7247101780404
 20
131.570411202305
 30
0.0
 11
230.7247101780404
 21
140.5246112023051
 31
0.0
  0
LINE
  5
4A9
330
1A
100
AcDbEntity
  8
SEIHIN
  6
CONTINUOUS
 62
     3
 48
16.0
100
AcDbLine
 10
229.9248101780405
 20
131.870511202305
 30
0.0
 11
229.9248101780405
 21
140.5246112023051
 31
0.0
  0
ARC
  5
4AA
330
1A
100
AcDbEntity
  8
SEIHIN
  6
CONTINUOUS
 62
     3
 48
16.0
100
AcDbCircle
 10
229.4248101780404
 20
131.8705112023051
 30
0.0
 40
0.5000000000000853
100
AcDbArc
 50
269.9999999999902
 51
359.9999999999902
  0
ARC
  5
4AB
330
1A
100
AcDbEntity
  8
SEIHIN
  6
CONTINUOUS
 62
     3
 48
16.0
100
AcDbCircle
 10
229.7247101780404
 20
131.570411202305
 30
0.0
 40
0.9999999999999715
100
AcDbArc
 50
269.9999999999983
 51
359.9999999999983
  0
LINE
  5
4AC
330
1A
100
AcDbEntity
  8
NOKITOI
  6
PHANTOM
 62
     8
 48
5.0
100
AcDbLine
 10
226.0085101780405
 20
138.670311202305
 30
0.0
 11
228.7248101780404
 21
138.670311202305
 31
0.0
  0
ARC
  5
4AD
330
1A
100
AcDbEntity
  8
SEIHIN
  6
CONTINUOUS
 62
     3
 48
16.0
100
AcDbCircle
 10
228.9247768191533
 20
140.5246368004756
 30
0.0
 40
1.000033359214887
100
AcDbArc
 50
359.9985333817891
 51
104.9963795636845
  0
ARC
  5
4AE
330
1A
100
AcDbEntity
  8
SEIHIN
  6
CONTINUOUS
 62
     3
 48
16.0
100
AcDbCircle
 10
228.9247406643631
 20
140.5246645415296
 30
0.0
 40
1.799969514467608
100
AcDbArc
 50
359.998302130993
 51
104.9988167870791
  0
TEXT
  5
4AF
330
1A
100
AcDbEntity
  8
SUNPOU
  6
CONTINUOUS
 62
     4
100
AcDbText
 10
338.7287318035323
 20
128.4191934470862
 30
0.0
 40
3.0
  1
10
100
AcDbText
  0
LINE
  5
4B0
330
1A
100
AcDbEntity
  8
SUNPOU
  6
CONTINUOUS
100
AcDbLine
 10
344.2190108322935
 20
133.5457112023051
 30
0.0
 11
334.2189101780407
 21
133.5457112023051
 31
0.0
  0
LINE
  5
4B1
330
1A
100
AcDbEntity
  8
SUNPOU
  6
CONTINUOUS
 62
     4
 48
16.0
100
AcDbLine
 10
344.2190108322935
 20
137.5457112023052
 30
0.0
 11
334.2189101780405
 21
133.545711202305
 31
0.0
  0
LINE
  5
4B2
330
1A
100
AcDbEntity
  8
SUNPOU
  6
CONTINUOUS
100
AcDbLine
 10
344.2190108322935
 20
137.5457112023051
 30
0.0
 11
344.2190108322935
 21
133.5457112023051
 31
0.0
  0
TEXT
  5
4B3
330
1A
100
AcDbEntity
  8
SUNPOU
  6
CONTINUOUS
 62
     4
100
AcDbText
 10
346.4356027832362
 20
134.4930358691821
 30
0.0
 40
3.0
  1
4
100
AcDbText
  0
LINE
  5
4B4
330
1A
100
AcDbEntity
  8
SEIHIN
  6
CONTINUOUS
 62
     3
 48
16.0
100
AcDbLine
 10
282.0795101780404
 20
207.6203112023049
 30
0.0
 11
297.0795101780405
 21
209.8703112023049
 31
0.0
  0
LINE
  5
4B5
330
1A
100
AcDbEntity
  8
SEIHIN
  6
CONTINUOUS
 62
     3
 48
16.0
100
AcDbLine
 10
282.0795101780404
 20
212.1205112023049
 30
0.0
 11
297.0795101780405
 21
209.870411202305
 31
0.0
  0
DIMENSION
  5
4B6
330
1A
100
AcDbEntity
  8
SUNPOU
100
AcDbDimension
  2
*D8
 10
320.4760573064509
 20
207.620411202305
 30
0.0
 11
317.9760573064509
 21
197.620411202305
 31
0.0
 70
    32
  3
STANDARD
100
AcDbAlignedDimension
 13
282.0795101780404
 23
212.120411202305
 33
0.0
 14
282.0795101780404
 24
207.620411202305
 34
0.0
 50
90.0
100
AcDbRotatedDimension
1001
ACAD
1000
DSTYLE
1002
{
1070
   140
1040
3.0
1070
    74
1070
     0
1070
   172
1070
     1
1070
    73
1070
     0
1070
   272
1070
     2
1070
    77
1070
     3
1070
   173
1070
     1
1070
   147
1040
1.0
1070
    42
1040
3.0
1070
    44
1040
1.5
1070
    43
1040
7.0
1070
   271
1070
     1
1070
   178
1070
     4
1070
   177
1070
     4
1070
   176
1070
     4
1070
   141
1040
150.0
1070
     7
1000
_OPEN
1070
     6
1000
_OPEN
1070
    41
1040
3.0
1002
}
  0
LINE
  5
4B7
330
1A
100
AcDbEntity
  8
SEIHIN
  6
CONTINUOUS
 62
     3
 48
16.0
100
AcDbLine
 10
230.7250101780404
 20
207.620411202305
 30
0.0
 11
282.0795101780404
 21
207.620411202305
 31
0.0
  0
LINE
  5
4B8
330
1A
100
AcDbEntity
  8
SEIHIN
  6
CONTINUOUS
 62
     3
 48
16.0
100
AcDbLine
 10
230.7250101780404
 20
212.120411202305
 30
0.0
 11
282.0795101780404
 21
212.120411202305
 31
0.0
  0
LINE
  5
4B9
330
1A
100
AcDbEntity
  8
SEIHIN
  6
CONTINUOUS
 62
     3
 48
16.0
100
AcDbLine
 10
230.7252101780404
 20
219.8704112023051
 30
0.0
 11
230.7252101780404
 21
209.8705112023049
 31
0.0
  0
LINE
  5
4BA
330
1A
100
AcDbEntity
  8
SEIHIN
  6
CONTINUOUS
 62
     3
 48
16.0
100
AcDbLine
 10
230.7252101780404
 20
199.870411202305
 30
0.0
 11
230.7252101780404
 21
209.870411202305
 31
0.0
  0
LINE
  5
4BB
330
1A
100
AcDbEntity
  8
SEIHIN
  6
CONTINUOUS
 62
     3
 48
16.0
100
AcDbLine
 10
229.9251101780405
 20
199.870411202305
 30
0.0
 11
230.7250101780405
 21
199.870411202305
 31
0.0
  0
LINE
  5
4BC
330
1A
100
AcDbEntity
  8
SEIHIN
  6
CONTINUOUS
 62
     3
 48
16.0
100
AcDbLine
 10
229.9251101780405
 20
199.870411202305
 30
0.0
 11
229.9251101780405
 21
203.3705112023049
 31
0.0
  0
LINE
  5
4BD
330
1A
100
AcDbEntity
  8
SEIHIN
  6
CONTINUOUS
 62
     3
 48
16.0
100
AcDbLine
 10
229.9251101780405
 20
219.8704112023051
 30
0.0
 11
230.7250101780405
 21
219.8704112023051
 31
0.0
  0
LINE
  5
4BE
330
1A
100
AcDbEntity
  8
SEIHIN
  6
CONTINUOUS
 62
     3
 48
16.0
100
AcDbLine
 10
229.9251101780405
 20
219.8704112023051
 30
0.0
 11
229.9251101780405
 21
216.370411202305
 31
0.0
  0
LWPOLYLINE
  5
6C6
330
1A
100
AcDbEntity
  8
ZUWAKU
100
AcDbPolyline
 90
        4
 70
     1
 43
0.0
 10
0.3999995635609821
 20
275.3999997025315
 10
0.3999995635609821
 20
0.399999702531602
 10
398.3999995635609
 20
0.399999702531602
 10
398.3999995635609
 20
275.3999997025315
  0
LWPOLYLINE
  5
6C7
330
1A
100
AcDbEntity
  8
ZUWAKU
100
AcDbPolyline
 90
        4
 70
     1
 43
0.0
 10
0.1999995635609935
 20
275.5999997025316
 10
0.1999995635609935
 20
0.1999997025316134
 10
398.599999563561
 20
0.1999997025316018
 10
398.599999563561
 20
275.5999997025316
  0
LWPOLYLINE
  5
6C8
330
1A
100
AcDbEntity
  8
ZUWAKU
100
AcDbPolyline
 90
        4
 70
     1
 43
0.0
 10
-0.0000004364389952
 20
275.7999997025315
 10
-0.0000004364389952
 20
-0.0000002974684321
 10
398.799999563561
 20
-0.0000002974683984
 10
398.799999563561
 20
275.7999997025316
  0
LWPOLYLINE
  5
6C9
330
1A
100
AcDbEntity
  8
ZUWAKU
100
AcDbPolyline
 90
        4
 70
     1
 43
0.0
 10
0.2999995635609593
 20
275.4999997025316
 10
0.2999995635609593
 20
0.2999997025315792
 10
398.4999995635611
 20
0.2999997025316023
 10
398.499999563561
 20
275.4999997025316
  0
LWPOLYLINE
  5
6CA
330
1A
100
AcDbEntity
  8
ZUWAKU
100
AcDbPolyline
 90
        4
 70
     1
 43
0.0
 10
0.0999995635609707
 20
275.6999997025316
 10
0.0999995635609707
 20
0.0999997025315906
 10
398.6999995635609
 20
0.0999997025316022
 10
398.699999563561
 20
275.6999997025316
  0
LINE
  5
6CB
330
1A
100
AcDbEntity
  8
ZUWAKU
100
AcDbLine
 10
-0.0000004364389952
 20
14.99999970253156
 30
0.0
 11
398.6999995635609
 21
14.99999970253156
 31
0.0
  0
LINE
  5
6CC
330
1A
100
AcDbEntity
  8
ZUWAKU
100
AcDbLine
 10
-0.0000004364389952
 20
15.09999970253157
 30
0.0
 11
398.6999995635609
 21
15.09999970253157
 31
0.0
  0
LINE
  5
6CD
330
1A
100
AcDbEntity
  8
ZUWAKU
100
AcDbLine
 10
-0.0000004364389952
 20
15.19999970253157
 30
0.0
 11
398.6999995635609
 21
15.19999970253157
 31
0.0
  0
LINE
  5
6CE
330
1A
100
AcDbEntity
  8
ZUWAKU
100
AcDbLine
 10
-0.0000004364389952
 20
15.29999970253157
 30
0.0
 11
398.6999995635609
 21
15.29999970253157
 31
0.0
  0
LINE
  5
6CF
330
1A
100
AcDbEntity
  8
ZUWAKU
100
AcDbLine
 10
-0.0000004364389952
 20
15.39999970253157
 30
0.0
 11
398.6999995635609
 21
15.39999970253157
 31
0.0
  0
LINE
  5
6D0
330
1A
100
AcDbEntity
  8
ZUWAKU
100
AcDbLine
 10
104.323300208595
 20
7.699999702531584
 30
0.0
 11
223.7121815490567
 21
7.699999702531584
 31
0.0
  0
LINE
  5
6D1
330
1A
100
AcDbEntity
  8
ZUWAKU
100
AcDbLine
 10
104.323300208595
 20
7.799999702531584
 30
0.0
 11
223.7121815490567
 21
7.799999702531588
 31
0.0
  0
LINE
  5
6D2
330
1A
100
AcDbEntity
  8
ZUWAKU
100
AcDbLine
 10
104.323300208595
 20
7.599999702531587
 30
0.0
 11
223.7121815490567
 21
7.599999702531583
 31
0.0
  0
CIRCLE
  5
6D3
330
1A
100
AcDbEntity
  8
ZUWAKU
100
AcDbCircle
 10
12.99610564095155
 20
7.599999702531569
 30
0.0
 40
0.875
  0
LINE
  5
6D4
330
1A
100
AcDbEntity
  8
ZUWAKU
100
AcDbLine
 10
13.43360564095155
 20
3.57499970253157
 30
0.0
 11
12.47110564095157
 21
3.57499970253157
 31
0.0
  0
LINE
  5
6D5
330
1A
100
AcDbEntity
  8
ZUWAKU
100
AcDbLine
 10
12.47110564095157
 20
4.974999702531569
 30
0.0
 11
13.43360564095155
 21
4.974999702531569
 31
0.0
  0
LINE
  5
6D6
330
1A
100
AcDbEntity
  8
ZUWAKU
100
AcDbLine
 10
13.43360564095155
 20
10.22499970253156
 30
0.0
 11
12.47110564095157
 21
10.22499970253156
 31
0.0
  0
LINE
  5
6D7
330
1A
100
AcDbEntity
  8
ZUWAKU
100
AcDbLine
 10
12.47110564095157
 20
11.62499970253155
 30
0.0
 11
13.43360564095155
 21
11.62499970253157
 31
0.0
  0
HATCH
  5
6D8
330
1A
100
AcDbEntity
  8
ZUWAKU
100
AcDbHatch
 10
0.0
 20
0.0
 30
0.0
210
0.0
220
0.0
230
1.0
  2
ANSI37
 70
     0
 71
     0
 91
        8
 92
        7
 72
     1
 73
     1
 93
       24
 10
7.251130894120933
 20
8.822423943023359
 42
-0.1989123673796348
 10
7.046105640951566
 20
9.317398689853884
 42
0.0
 10
7.046105640951566
 20
9.962499702531573
 42
-0.4142135623730912
 10
7.308605640951554
 20
10.22499970253156
 42
0.0
 10
8.796105640951509
 20
10.22499970253156
 42
0.4142135623731546
 10
9.058605640951554
 20
10.48749970253156
 42
0.0
 10
9.058605640951554
 20
11.36249970253157
 42
0.4142135623731586
 10
8.796105640951509
 20
11.62499970253157
 42
0.0
 10
7.046105640951566
 20
11.62499970253157
 42
0.4142135623730928
 10
5.646105640951589
 20
10.22499970253158
 42
0.0
 10
5.646105640951589
 20
9.317398689853948
 42
0.1989123673796619
 10
6.261181400459804
 20
7.832474449362145
 42
0.0
 10
7.716080387782142
 20
6.377575462039816
 42
-0.1989123673796613
 10
7.921105640951566
 20
5.882600715209223
 42
0.0
 10
7.921105640951566
 20
5.237499702531565
 42
-0.4142135623730911
 10
7.658605640951577
 20
4.974999702531569
 42
0.0
 10
6.171105640951623
 20
4.974999702531569
 42
0.4142135623731526
 10
5.908605640951577
 20
4.712499702531575
 42
0.0
 10
5.908605640951577
 20
3.837499702531564
 42
0.4142135623731526
 10
6.171105640951623
 20
3.57499970253157
 42
0.0
 10
7.921105640951566
 20
3.57499970253157
 42
0.4142135623731044
 10
9.3211056409516
 20
4.974999702531558
 42
0.0
 10
9.3211056409516
 20
5.882600715209195
 42
0.1989123673796604
 10
8.706029881443328
 20
7.367524955700964
 42
0.0
 97
        0
 92
        7
 72
     1
 73
     1
 93
       16
 10
11.77110564095158
 20
9.524999702531573
 42
-0.4142135623730935
 10
12.47110564095157
 20
10.22499970253156
 42
0.0
 10
13.43360564095155
 20
10.22499970253156
 42
0.4142135623731546
 10
13.6961056409516
 20
10.48749970253156
 42
0.0
 10
13.6961056409516
 20
11.36249970253157
 42
0.4142135623730951
 10
13.43360564095161
 20
11.62499970253157
 42
0.0
 10
12.47110564095152
 20
11.62499970253155
 42
0.4142135623730892
 10
10.37110564095155
 20
9.524999702531538
 42
0.0
 10
10.37110564095155
 20
5.674999702531582
 42
0.4142135623730969
 10
12.47110564095157
 20
3.57499970253157
 42
0.0
 10
13.43360564095155
 20
3.57499970253157
 42
0.4142135623731526
 10
13.6961056409516
 20
3.837499702531564
 42
0.0
 10
13.6961056409516
 20
4.712499702531575
 42
0.4142135623730891
 10
13.43360564095161
 20
4.974999702531569
 42
0.0
 10
12.47110564095157
 20
4.974999702531569
 42
-0.4142135623730928
 10
11.77110564095158
 20
5.674999702531563
 42
0.0
 97
        0
 92
        7
 72
     1
 73
     1
 93
        2
 10
12.12110564095155
 20
7.599999702531569
 42
1.0
 10
13.87110564095155
 20
7.599999702531569
 42
1.0
 97
        0
 92
        7
 72
     1
 73
     1
 93
       26
 10
18.65742888204056
 20
9.602523299313283
 42
0.0
 10
19.18824869860947
 20
11.28345271844807
 42
0.5069206636600134
 10
18.93793324901179
 20
11.62499970253157
 42
0.0
 10
18.08848855920717
 20
11.62499970253157
 42
0.3272098845218764
 10
17.8381731096095
 20
11.44154668661505
 42
0.0
 10
16.90403817229361
 20
8.483452718448109
 42
-0.3272098845219541
 10
16.65372272269587
 20
8.299999702531568
 42
0.0
 10
16.58360564095164
 20
8.299999702531568
 42
-0.4142135623731526
 10
16.3211056409516
 20
8.562499702531562
 42
0.0
 10
16.3211056409516
 20
11.36249970253157
 42
0.4142135623730951
 10
16.05860564095161
 20
11.62499970253157
 42
0.0
 10
15.18360564095155
 20
11.62499970253157
 42
0.4142135623730871
 10
14.92110564095156
 20
11.36249970253157
 42
0.0
 10
14.92110564095156
 20
3.837499702531564
 42
0.4142135623730891
 10
15.18360564095155
 20
3.57499970253157
 42
0.0
 10
16.05860564095155
 20
3.57499970253157
 42
0.4142135623731526
 10
16.3211056409516
 20
3.837499702531564
 42
0.0
 10
16.3211056409516
 20
6.637499702531576
 42
-0.4142135623731526
 10
16.58360564095164
 20
6.89999970253157
 42
0.0
 10
16.65372272269593
 20
6.89999970253157
 42
-0.3272098845218915
 10
16.90403817229361
 20
6.716546686615032
 42
0.0
 10
17.8381731096095
 20
3.758452718448106
 42
0.3272098845218902
 10
18.08848855920717
 20
3.57499970253157
 42
0.0
 10
18.93793324901179
 20
3.57499970253157
 42
0.5069206636600335
 10
19.18824869860947
 20
3.916546686615074
 42
0.0
 10
18.02505300937264
 20
7.599999702531638
 42
0.0
 97
        0
 92
        7
 72
     1
 73
     1
 93
        8
 10
21.74610564095155
 20
11.36249970253157
 42
0.4142135623731546
 10
21.4836056409515
 20
11.62499970253157
 42
0.0
 10
20.60860564095162
 20
11.62499970253157
 42
0.4142135623731507
 10
20.34610564095157
 20
11.36249970253157
 42
0.0
 10
20.34610564095157
 20
3.837499702531564
 42
0.4142135623731526
 10
20.60860564095162
 20
3.57499970253157
 42
0.0
 10
21.4836056409515
 20
3.57499970253157
 42
0.4142135623731526
 10
21.74610564095155
 20
3.837499702531564
 42
0.0
 97
        0
 92
        7
 72
     1
 73
     1
 93
       24
 10
24.1961056409516
 20
9.962499702531573
 42
-0.4142135623731546
 10
24.45860564095164
 20
10.22499970253156
 42
0.0
 10
25.9461056409516
 20
10.22499970253156
 42
0.4142135623730911
 10
26.20860564095158
 20
10.48749970253156
 42
0.0
 10
26.20860564095158
 20
11.36249970253157
 42
0.4142135623730952
 10
25.9461056409516
 20
11.62499970253157
 42
0.0
 10
24.1961056409516
 20
11.62499970253157
 42
0.4142135623731048
 10
22.79610564095156
 20
10.22499970253158
 42
0.0
 10
22.79610564095156
 20
9.317398689853948
 42
0.1989123673796613
 10
23.41118140045983
 20
7.832474449362173
 42
0.0
 10
24.86608038778217
 20
6.377575462039839
 42
-0.1989123673796402
 10
25.0711056409516
 20
5.882600715209303
 42
0.0
 10
25.0711056409516
 20
5.237499702531565
 42
-0.4142135623730911
 10
24.80860564095161
 20
4.974999702531569
 42
0.0
 10
23.3211056409516
 20
4.974999702531569
 42
0.4142135623731526
 10
23.05860564095155
 20
4.712499702531575
 42
0.0
 10
23.05860564095155
 20
3.837499702531564
 42
0.4142135623730891
 10
23.32110564095154
 20
3.57499970253157
 42
0.0
 10
25.0711056409516
 20
3.57499970253157
 42
0.4142135623730925
 10
26.47110564095157
 20
4.974999702531558
 42
0.0
 10
26.47110564095157
 20
5.882600715209195
 42
0.1989123673796675
 10
25.8560298814433
 20
7.367524955701021
 42
0.0
 10
24.40113089412102
 20
8.822423943023279
 42
-0.1989123673796652
 10
24.1961056409516
 20
9.317398689853863
 42
0.0
 97
        0
 92
        7
 72
     1
 73
     1
 93
       16
 10
28.92110564095156
 20
11.36249970253156
 42
0.414213562373103
 10
28.65860564095157
 20
11.62499970253157
 42
0.0
 10
27.78360564095157
 20
11.62499970253157
 42
0.4142135623730871
 10
27.52110564095159
 20
11.36249970253157
 42
0.0
 10
27.52110564095159
 20
4.974999702531558
 42
0.4142135623730926
 10
28.92110564095156
 20
3.57499970253157
 42
0.0
 10
30.67110564095156
 20
3.57499970253157
 42
0.4142135623731044
 10
32.0711056409516
 20
4.974999702531558
 42
0.0
 10
32.0711056409516
 20
11.36249970253157
 42
0.4142135623730951
 10
31.80860564095161
 20
11.62499970253157
 42
0.0
 10
30.93360564095155
 20
11.62499970253157
 42
0.4142135623730871
 10
30.67110564095156
 20
11.36249970253157
 42
0.0
 10
30.67110564095156
 20
5.499999702531557
 42
-0.414213562373088
 10
30.14610564095159
 20
4.974999702531569
 42
0.0
 10
29.4461056409516
 20
4.974999702531569
 42
-0.4142135623731197
 10
28.92110564095156
 20
5.499999702531557
 42
0.0
 97
        0
 92
        7
 72
     1
 73
     1
 93
        8
 10
34.52110564095159
 20
11.36249970253157
 42
0.4142135623730871
 10
34.2586056409516
 20
11.62499970253157
 42
0.0
 10
33.3836056409516
 20
11.62499970253157
 42
0.4142135623731507
 10
33.12110564095155
 20
11.36249970253157
 42
0.0
 10
33.12110564095155
 20
3.837499702531564
 42
0.4142135623730891
 10
33.38360564095154
 20
3.57499970253157
 42
0.0
 10
34.2586056409516
 20
3.57499970253157
 42
0.4142135623730891
 10
34.52110564095159
 20
3.837499702531564
 42
0.0
 97
        0
 75
     0
 76
     1
 52
0.0
 41
0.1
 77
     0
 78
     2
 53
45.0
 43
-450.4711526037785
 44
-6.600000297468398
 45
-0.2245064030267288
 46
0.2245064030267288
 79
     0
 53
135.0
 43
-450.4711526037785
 44
-6.600000297468398
 45
-0.2245064030267288
 46
-0.2245064030267288
 79
     0
 47
0.057451373970553
 98
        8
 10
8.039927045072658
 20
7.583586525474345
 10
11.20225706678058
 20
9.422030793757073
 10
12.58218350639083
 20
7.755940525566927
 10
15.45702955437957
 20
8.100648525752319
 10
20.91923557303937
 20
8.330454659523127
 10
23.44910001112578
 20
9.709287860735173
 10
28.27884254976117
 20
9.364578660079075
 10
33.91353937337237
 20
9.594384793849883
  0
ARC
  5
6D9
330
1A
100
AcDbEntity
  8
ZUWAKU
100
AcDbCircle
 10
7.746105640951554
 20
9.31739868985392
 30
0.0
 40
2.099999999999999
100
AcDbArc
 50
180.0
 51
225.0
  0
LINE
  5
6DA
330
1A
100
AcDbEntity
  8
ZUWAKU
100
AcDbLine
 10
10.37110564095155
 20
5.674999702531572
 30
0.0
 11
10.37110564095155
 21
9.524999702531548
 31
0.0
  0
LINE
  5
6DB
330
1A
100
AcDbEntity
  8
ZUWAKU
100
AcDbLine
 10
11.77110564095158
 20
9.52499970253157
 30
0.0
 11
11.77110564095158
 21
5.674999702531572
 31
0.0
  0
ARC
  5
6DC
330
1A
100
AcDbEntity
  8
ZUWAKU
100
AcDbCircle
 10
7.746105640951554
 20
9.31739868985392
 30
0.0
 40
0.7
100
AcDbArc
 50
180.0000000000016
 51
224.9999999999988
  0
ARC
  5
6DD
330
1A
100
AcDbEntity
  8
ZUWAKU
100
AcDbCircle
 10
12.47110564095157
 20
5.674999702531572
 30
0.0
 40
2.099999999999999
100
AcDbArc
 50
180.0
 51
270.0
  0
ARC
  5
6DE
330
1A
100
AcDbEntity
  8
ZUWAKU
100
AcDbCircle
 10
7.921105640951566
 20
4.974999702531569
 30
0.0
 40
1.399999999999999
100
AcDbArc
 50
270.0
 51
0.0
  0
ARC
  5
6DF
330
1A
100
AcDbEntity
  8
ZUWAKU
100
AcDbCircle
 10
7.221105640951577
 20
5.882600715209221
 30
0.0
 40
2.099999999999999
100
AcDbArc
 50
0.0
 51
45.0
  0
LINE
  5
6E0
330
1A
100
AcDbEntity
  8
ZUWAKU
100
AcDbLine
 10
6.261181400459804
 20
7.832474449362159
 30
0.0
 11
7.716080387782142
 21
6.377575462039828
 31
0.0
  0
LINE
  5
6E1
330
1A
100
AcDbEntity
  8
ZUWAKU
100
AcDbLine
 10
6.171105640951566
 20
4.974999702531569
 30
0.0
 11
7.658605640951577
 21
4.974999702531569
 31
0.0
  0
LINE
  5
6E2
330
1A
100
AcDbEntity
  8
ZUWAKU
100
AcDbLine
 10
6.171105640951566
 20
3.57499970253157
 30
0.0
 11
7.921105640951566
 21
3.57499970253157
 31
0.0
  0
ARC
  5
6E3
330
1A
100
AcDbEntity
  8
ZUWAKU
100
AcDbCircle
 10
6.171105640951566
 20
4.71249970253157
 30
0.0
 40
0.2625
100
AcDbArc
 50
90.0
 51
180.0
  0
ARC
  5
6E4
330
1A
100
AcDbEntity
  8
ZUWAKU
100
AcDbCircle
 10
6.171105640951566
 20
3.83749970253157
 30
0.0
 40
0.2625
100
AcDbArc
 50
180.0
 51
270.0
  0
LINE
  5
6E5
330
1A
100
AcDbEntity
  8
ZUWAKU
100
AcDbLine
 10
5.908605640951577
 20
3.83749970253157
 30
0.0
 11
5.908605640951577
 21
4.71249970253157
 31
0.0
  0
ARC
  5
6E6
330
1A
100
AcDbEntity
  8
ZUWAKU
100
AcDbCircle
 10
7.221105640951577
 20
5.882600715209242
 30
0.0
 40
0.7
100
AcDbArc
 50
0.0
 51
45.0
  0
ARC
  5
6E7
330
1A
100
AcDbEntity
  8
ZUWAKU
100
AcDbCircle
 10
7.658605640951577
 20
5.237499702531572
 30
0.0
 40
0.2625
100
AcDbArc
 50
270.0
 51
0.0
  0
LINE
  5
6E8
330
1A
100
AcDbEntity
  8
ZUWAKU
100
AcDbLine
 10
7.921105640951566
 20
5.237499702531572
 30
0.0
 11
7.921105640951566
 21
5.882600715209242
 31
0.0
  0
LINE
  5
6E9
330
1A
100
AcDbEntity
  8
ZUWAKU
100
AcDbLine
 10
8.706029881443328
 20
7.367524955700982
 30
0.0
 11
7.25113089412099
 21
8.82242394302332
 31
0.0
  0
ARC
  5
6EA
330
1A
100
AcDbEntity
  8
ZUWAKU
100
AcDbCircle
 10
12.47110564095157
 20
5.674999702531572
 30
0.0
 40
0.7
100
AcDbArc
 50
180.0
 51
270.0
  0
LINE
  5
6EB
330
1A
100
AcDbEntity
  8
ZUWAKU
100
AcDbLine
 10
9.3211056409516
 20
4.974999702531569
 30
0.0
 11
9.3211056409516
 21
5.882600715209242
 31
0.0
  0
ARC
  5
6EC
330
1A
100
AcDbEntity
  8
ZUWAKU
100
AcDbCircle
 10
8.796105640951566
 20
10.48749970253156
 30
0.0
 40
0.2625
100
AcDbArc
 50
270.0
 51
0.0
  0
ARC
  5
6ED
330
1A
100
AcDbEntity
  8
ZUWAKU
100
AcDbCircle
 10
8.796105640951566
 20
11.36249970253156
 30
0.0
 40
0.2625
100
AcDbArc
 50
0.0
 51
90.0
  0
ARC
  5
6EE
330
1A
100
AcDbEntity
  8
ZUWAKU
100
AcDbCircle
 10
7.046105640951566
 20
10.22499970253156
 30
0.0
 40
1.399999999999999
100
AcDbArc
 50
90.0
 51
180.0
  0
LINE
  5
6EF
330
1A
100
AcDbEntity
  8
ZUWAKU
100
AcDbLine
 10
5.646105640951589
 20
10.22499970253156
 30
0.0
 11
5.646105640951589
 21
9.317398689853899
 31
0.0
  0
LINE
  5
6F0
330
1A
100
AcDbEntity
  8
ZUWAKU
100
AcDbLine
 10
8.796105640951566
 20
10.22499970253156
 30
0.0
 11
7.308605640951554
 21
10.22499970253156
 31
0.0
  0
LINE
  5
6F1
330
1A
100
AcDbEntity
  8
ZUWAKU
100
AcDbLine
 10
7.046105640951566
 20
9.96249970253157
 30
0.0
 11
7.046105640951566
 21
9.317398689853899
 31
0.0
  0
ARC
  5
6F2
330
1A
100
AcDbEntity
  8
ZUWAKU
100
AcDbCircle
 10
7.308605640951554
 20
9.96249970253157
 30
0.0
 40
0.2625
100
AcDbArc
 50
90.0
 51
180.0
  0
LINE
  5
6F3
330
1A
100
AcDbEntity
  8
ZUWAKU
100
AcDbLine
 10
7.046105640951566
 20
11.62499970253157
 30
0.0
 11
8.796105640951566
 21
11.62499970253157
 31
0.0
  0
ARC
  5
6F4
330
1A
100
AcDbEntity
  8
ZUWAKU
100
AcDbCircle
 10
12.47110564095157
 20
9.524999702531548
 30
0.0
 40
2.099999999999999
100
AcDbArc
 50
90.0
 51
180.0
  0
ARC
  5
6F5
330
1A
100
AcDbEntity
  8
ZUWAKU
100
AcDbCircle
 10
12.47110564095157
 20
9.52499970253157
 30
0.0
 40
0.7
100
AcDbArc
 50
90.0
 51
180.0
  0
LINE
  5
6F6
330
1A
100
AcDbEntity
  8
ZUWAKU
100
AcDbLine
 10
9.058605640951554
 20
11.36249970253156
 30
0.0
 11
9.058605640951554
 21
10.48749970253156
 31
0.0
  0
LINE
  5
6F7
330
1A
100
AcDbEntity
  8
ZUWAKU
100
AcDbLine
 10
17.8381731096095
 20
11.44154668661505
 30
0.0
 11
16.90403817229361
 21
8.483452718448084
 31
0.0
  0
LINE
  5
6F8
330
1A
100
AcDbEntity
  8
ZUWAKU
100
AcDbLine
 10
14.92110564095156
 20
11.36249970253156
 30
0.0
 11
14.92110564095156
 21
3.83749970253157
 31
0.0
  0
LINE
  5
6F9
330
1A
100
AcDbEntity
  8
ZUWAKU
100
AcDbLine
 10
16.3211056409516
 20
8.562499702531571
 30
0.0
 11
16.3211056409516
 21
11.36249970253156
 31
0.0
  0
LINE
  5
6FA
330
1A
100
AcDbEntity
  8
ZUWAKU
100
AcDbLine
 10
28.92110564095156
 20
5.499999702531567
 30
0.0
 11
28.92110564095156
 21
11.36249970253156
 31
0.0
  0
LINE
  5
6FB
330
1A
100
AcDbEntity
  8
ZUWAKU
100
AcDbLine
 10
27.52110564095159
 20
11.36249970253156
 30
0.0
 11
27.52110564095159
 21
4.974999702531569
 31
0.0
  0
LINE
  5
6FC
330
1A
100
AcDbEntity
  8
ZUWAKU
100
AcDbLine
 10
21.74610564095155
 20
3.83749970253157
 30
0.0
 11
21.74610564095155
 21
11.36249970253156
 31
0.0
  0
LINE
  5
6FD
330
1A
100
AcDbEntity
  8
ZUWAKU
100
AcDbLine
 10
20.34610564095157
 20
11.36249970253156
 30
0.0
 11
20.34610564095157
 21
3.83749970253157
 31
0.0
  0
LINE
  5
6FE
330
1A
100
AcDbEntity
  8
ZUWAKU
100
AcDbLine
 10
18.65742888204056
 20
9.602523299313283
 30
0.0
 11
18.02505300937264
 21
7.599999702531579
 31
0.0
  0
ARC
  5
6FF
330
1A
100
AcDbEntity
  8
ZUWAKU
100
AcDbCircle
 10
24.89610564095158
 20
9.31739868985392
 30
0.0
 40
2.099999999999999
100
AcDbArc
 50
180.0
 51
225.0
  0
ARC
  5
700
330
1A
100
AcDbEntity
  8
ZUWAKU
100
AcDbCircle
 10
24.89610564095158
 20
9.31739868985392
 30
0.0
 40
0.7
100
AcDbArc
 50
180.0000000000016
 51
224.9999999999988
  0
LINE
  5
701
330
1A
100
AcDbEntity
  8
ZUWAKU
100
AcDbLine
 10
33.12110564095155
 20
11.36249970253156
 30
0.0
 11
33.12110564095155
 21
3.83749970253157
 31
0.0
  0
LINE
  5
702
330
1A
100
AcDbEntity
  8
ZUWAKU
100
AcDbLine
 10
34.52110564095159
 20
3.83749970253157
 30
0.0
 11
34.52110564095159
 21
11.36249970253156
 31
0.0
  0
LINE
  5
703
330
1A
100
AcDbEntity
  8
ZUWAKU
100
AcDbLine
 10
30.67110564095156
 20
11.36249970253156
 30
0.0
 11
30.67110564095156
 21
5.499999702531567
 31
0.0
  0
LINE
  5
704
330
1A
100
AcDbEntity
  8
ZUWAKU
100
AcDbLine
 10
32.0711056409516
 20
4.974999702531569
 30
0.0
 11
32.0711056409516
 21
11.36249970253156
 31
0.0
  0
LINE
  5
705
330
1A
100
AcDbEntity
  8
ZUWAKU
100
AcDbLine
 10
39.56331433755519
 20
14.99999970253156
 30
0.0
 11
39.56331433755519
 21
0.399999702531602
 31
0.0
  0
LINE
  5
706
330
1A
100
AcDbEntity
  8
ZUWAKU
100
AcDbLine
 10
39.76331433755513
 20
14.99999970253156
 30
0.0
 11
39.76331433755524
 21
0.399999702531602
 31
0.0
  0
LINE
  5
707
330
1A
100
AcDbEntity
  8
ZUWAKU
100
AcDbLine
 10
39.6633143375551
 20
14.99999970253156
 30
0.0
 11
39.66331433755522
 21
0.399999702531602
 31
0.0
  0
TEXT
  5
708
330
1A
100
AcDbEntity
  8
MOJI
100
AcDbText
 10
46.47889435764557
 20
6.370588767668948
 30
0.0
 40
3.0
  1
ライナートップ
 41
0.9
  7
ｽﾀｲﾙ1
100
AcDbText
  0
LINE
  5
709
330
1A
100
AcDbEntity
  8
ZUWAKU
100
AcDbLine
 10
28.92110564095156
 20
3.57499970253157
 30
0.0
 11
30.67110564095156
 21
3.57499970253157
 31
0.0
  0
LINE
  5
70A
330
1A
100
AcDbEntity
  8
ZUWAKU
100
AcDbLine
 10
30.14610564095159
 20
4.974999702531569
 30
0.0
 11
29.4461056409516
 21
4.974999702531569
 31
0.0
  0
LINE
  5
70B
330
1A
100
AcDbEntity
  8
ZUWAKU
100
AcDbLine
 10
20.60860564095156
 20
3.57499970253157
 30
0.0
 11
21.48360564095156
 21
3.57499970253157
 31
0.0
  0
LINE
  5
70C
330
1A
100
AcDbEntity
  8
ZUWAKU
100
AcDbLine
 10
17.8381731096095
 20
3.758452718448083
 30
0.0
 11
16.90403817229361
 21
6.716546686615053
 31
0.0
  0
ARC
  5
70D
330
1A
100
AcDbEntity
  8
ZUWAKU
100
AcDbCircle
 10
16.58360564095159
 20
6.63749970253157
 30
0.0
 40
0.2625
100
AcDbArc
 50
90.0
 51
180.0
  0
ARC
  5
70E
330
1A
100
AcDbEntity
  8
ZUWAKU
100
AcDbCircle
 10
16.65372272269593
 20
6.63749970253157
 30
0.0
 40
0.2625
100
AcDbArc
 50
17.52556837372303
 51
90.0
  0
ARC
  5
70F
330
1A
100
AcDbEntity
  8
ZUWAKU
100
AcDbCircle
 10
15.18360564095155
 20
3.83749970253157
 30
0.0
 40
0.2625
100
AcDbArc
 50
180.0
 51
270.0
  0
ARC
  5
710
330
1A
100
AcDbEntity
  8
ZUWAKU
100
AcDbCircle
 10
13.43360564095155
 20
4.71249970253157
 30
0.0
 40
0.2625
100
AcDbArc
 50
0.0
 51
90.0
  0
ARC
  5
711
330
1A
100
AcDbEntity
  8
ZUWAKU
100
AcDbCircle
 10
13.43360564095155
 20
3.83749970253157
 30
0.0
 40
0.2625
100
AcDbArc
 50
270.0
 51
0.0
  0
LINE
  5
712
330
1A
100
AcDbEntity
  8
ZUWAKU
100
AcDbLine
 10
13.6961056409516
 20
4.71249970253157
 30
0.0
 11
13.6961056409516
 21
3.83749970253157
 31
0.0
  0
LINE
  5
713
330
1A
100
AcDbEntity
  8
ZUWAKU
100
AcDbLine
 10
16.3211056409516
 20
3.83749970253157
 30
0.0
 11
16.3211056409516
 21
6.63749970253157
 31
0.0
  0
ARC
  5
714
330
1A
100
AcDbEntity
  8
ZUWAKU
100
AcDbCircle
 10
16.05860564095155
 20
3.83749970253157
 30
0.0
 40
0.2625
100
AcDbArc
 50
270.0
 51
0.0
  0
LINE
  5
715
330
1A
100
AcDbEntity
  8
ZUWAKU
100
AcDbLine
 10
15.18360564095155
 20
3.57499970253157
 30
0.0
 11
16.05860564095155
 21
3.57499970253157
 31
0.0
  0
ARC
  5
716
330
1A
100
AcDbEntity
  8
ZUWAKU
100
AcDbCircle
 10
16.58360564095159
 20
8.562499702531571
 30
0.0
 40
0.2625
100
AcDbArc
 50
180.0
 51
270.0
  0
LINE
  5
717
330
1A
100
AcDbEntity
  8
ZUWAKU
100
AcDbLine
 10
16.58360564095159
 20
6.89999970253157
 30
0.0
 11
16.65372272269593
 21
6.89999970253157
 31
0.0
  0
LINE
  5
718
330
1A
100
AcDbEntity
  8
ZUWAKU
100
AcDbLine
 10
16.65372272269593
 20
8.299999702531568
 30
0.0
 11
16.58360564095159
 21
8.299999702531568
 31
0.0
  0
ARC
  5
719
330
1A
100
AcDbEntity
  8
ZUWAKU
100
AcDbCircle
 10
16.65372272269593
 20
8.562499702531571
 30
0.0
 40
0.2625
100
AcDbArc
 50
270.0
 51
342.4744316262769
  0
ARC
  5
71A
330
1A
100
AcDbEntity
  8
ZUWAKU
100
AcDbCircle
 10
18.08848855920723
 20
3.83749970253157
 30
0.0
 40
0.2625
100
AcDbArc
 50
197.525568373723
 51
270.0
  0
LINE
  5
71B
330
1A
100
AcDbEntity
  8
ZUWAKU
100
AcDbLine
 10
19.18824869860947
 20
3.916546686615056
 30
0.0
 11
18.02505300937264
 21
7.599999702531579
 31
0.0
  0
ARC
  5
71C
330
1A
100
AcDbEntity
  8
ZUWAKU
100
AcDbCircle
 10
18.93793324901173
 20
3.83749970253157
 30
0.0
 40
0.2625
100
AcDbArc
 50
270.0
 51
17.52556837372303
  0
LINE
  5
71D
330
1A
100
AcDbEntity
  8
ZUWAKU
100
AcDbLine
 10
18.08848855920723
 20
3.57499970253157
 30
0.0
 11
18.93793324901173
 21
3.57499970253157
 31
0.0
  0
ARC
  5
71E
330
1A
100
AcDbEntity
  8
ZUWAKU
100
AcDbCircle
 10
20.60860564095156
 20
3.83749970253157
 30
0.0
 40
0.2625
100
AcDbArc
 50
180.0
 51
270.0
  0
ARC
  5
71F
330
1A
100
AcDbEntity
  8
ZUWAKU
100
AcDbCircle
 10
25.0711056409516
 20
4.974999702531569
 30
0.0
 40
1.399999999999999
100
AcDbArc
 50
270.0
 51
0.0
  0
ARC
  5
720
330
1A
100
AcDbEntity
  8
ZUWAKU
100
AcDbCircle
 10
28.92110564095156
 20
4.974999702531569
 30
0.0
 40
1.399999999999999
100
AcDbArc
 50
180.0
 51
270.0
  0
LINE
  5
721
330
1A
100
AcDbEntity
  8
ZUWAKU
100
AcDbLine
 10
25.85602988144336
 20
7.367524955700982
 30
0.0
 11
24.40113089412097
 21
8.82242394302332
 31
0.0
  0
LINE
  5
722
330
1A
100
AcDbEntity
  8
ZUWAKU
100
AcDbLine
 10
23.41118140045983
 20
7.832474449362159
 30
0.0
 11
24.86608038778217
 21
6.377575462039828
 31
0.0
  0
LINE
  5
723
330
1A
100
AcDbEntity
  8
ZUWAKU
100
AcDbLine
 10
23.3211056409516
 20
3.57499970253157
 30
0.0
 11
25.0711056409516
 21
3.57499970253157
 31
0.0
  0
LINE
  5
724
330
1A
100
AcDbEntity
  8
ZUWAKU
100
AcDbLine
 10
23.3211056409516
 20
4.974999702531569
 30
0.0
 11
24.80860564095155
 21
4.974999702531569
 31
0.0
  0
ARC
  5
725
330
1A
100
AcDbEntity
  8
ZUWAKU
100
AcDbCircle
 10
23.3211056409516
 20
4.71249970253157
 30
0.0
 40
0.2625
100
AcDbArc
 50
90.0
 51
180.0
  0
ARC
  5
726
330
1A
100
AcDbEntity
  8
ZUWAKU
100
AcDbCircle
 10
21.48360564095156
 20
3.83749970253157
 30
0.0
 40
0.2625
100
AcDbArc
 50
270.0
 51
0.0
  0
ARC
  5
727
330
1A
100
AcDbEntity
  8
ZUWAKU
100
AcDbCircle
 10
23.3211056409516
 20
3.83749970253157
 30
0.0
 40
0.2625
100
AcDbArc
 50
180.0
 51
270.0
  0
LINE
  5
728
330
1A
100
AcDbEntity
  8
ZUWAKU
100
AcDbLine
 10
23.05860564095155
 20
3.83749970253157
 30
0.0
 11
23.05860564095155
 21
4.71249970253157
 31
0.0
  0
ARC
  5
729
330
1A
100
AcDbEntity
  8
ZUWAKU
100
AcDbCircle
 10
24.80860564095155
 20
5.237499702531572
 30
0.0
 40
0.2625
100
AcDbArc
 50
270.0
 51
0.0
  0
ARC
  5
72A
330
1A
100
AcDbEntity
  8
ZUWAKU
100
AcDbCircle
 10
24.37110564095155
 20
5.882600715209242
 30
0.0
 40
0.7
100
AcDbArc
 50
0.0
 51
45.0
  0
LINE
  5
72B
330
1A
100
AcDbEntity
  8
ZUWAKU
100
AcDbLine
 10
25.0711056409516
 20
5.237499702531572
 30
0.0
 11
25.0711056409516
 21
5.882600715209242
 31
0.0
  0
ARC
  5
72C
330
1A
100
AcDbEntity
  8
ZUWAKU
100
AcDbCircle
 10
29.4461056409516
 20
5.499999702531567
 30
0.0
 40
0.525
100
AcDbArc
 50
180.0
 51
270.0
  0
ARC
  5
72D
330
1A
100
AcDbEntity
  8
ZUWAKU
100
AcDbCircle
 10
24.37110564095155
 20
5.882600715209221
 30
0.0
 40
2.099999999999999
100
AcDbArc
 50
0.0
 51
45.0
  0
LINE
  5
72E
330
1A
100
AcDbEntity
  8
ZUWAKU
100
AcDbLine
 10
26.47110564095157
 20
4.974999702531569
 30
0.0
 11
26.47110564095157
 21
5.882600715209242
 31
0.0
  0
ARC
  5
72F
330
1A
100
AcDbEntity
  8
ZUWAKU
100
AcDbCircle
 10
30.67110564095156
 20
4.974999702531569
 30
0.0
 40
1.399999999999999
100
AcDbArc
 50
270.0
 51
0.0
  0
LINE
  5
730
330
1A
100
AcDbEntity
  8
ZUWAKU
100
AcDbLine
 10
33.3836056409516
 20
3.57499970253157
 30
0.0
 11
34.2586056409516
 21
3.57499970253157
 31
0.0
  0
ARC
  5
731
330
1A
100
AcDbEntity
  8
ZUWAKU
100
AcDbCircle
 10
30.14610564095159
 20
5.499999702531567
 30
0.0
 40
0.525
100
AcDbArc
 50
270.0
 51
0.0
  0
ARC
  5
732
330
1A
100
AcDbEntity
  8
ZUWAKU
100
AcDbCircle
 10
33.3836056409516
 20
3.83749970253157
 30
0.0
 40
0.2625
100
AcDbArc
 50
180.0
 51
270.0
  0
ARC
  5
733
330
1A
100
AcDbEntity
  8
ZUWAKU
100
AcDbCircle
 10
34.2586056409516
 20
3.83749970253157
 30
0.0
 40
0.2625
100
AcDbArc
 50
270.0
 51
0.0
  0
LINE
  5
734
330
1A
100
AcDbEntity
  8
ZUWAKU
100
AcDbLine
 10
21.48360564095156
 20
11.62499970253157
 30
0.0
 11
20.60860564095156
 21
11.62499970253157
 31
0.0
  0
LINE
  5
735
330
1A
100
AcDbEntity
  8
ZUWAKU
100
AcDbLine
 10
13.6961056409516
 20
11.36249970253156
 30
0.0
 11
13.6961056409516
 21
10.48749970253156
 31
0.0
  0
ARC
  5
736
330
1A
100
AcDbEntity
  8
ZUWAKU
100
AcDbCircle
 10
13.43360564095155
 20
10.48749970253156
 30
0.0
 40
0.2625
100
AcDbArc
 50
270.0
 51
0.0
  0
ARC
  5
737
330
1A
100
AcDbEntity
  8
ZUWAKU
100
AcDbCircle
 10
15.18360564095155
 20
11.36249970253156
 30
0.0
 40
0.2625
100
AcDbArc
 50
90.0
 51
180.0
  0
ARC
  5
738
330
1A
100
AcDbEntity
  8
ZUWAKU
100
AcDbCircle
 10
13.43360564095155
 20
11.36249970253156
 30
0.0
 40
0.2625
100
AcDbArc
 50
0.0
 51
90.0
  0
LINE
  5
739
330
1A
100
AcDbEntity
  8
ZUWAKU
100
AcDbLine
 10
16.05860564095155
 20
11.62499970253157
 30
0.0
 11
15.18360564095155
 21
11.62499970253157
 31
0.0
  0
ARC
  5
73A
330
1A
100
AcDbEntity
  8
ZUWAKU
100
AcDbCircle
 10
16.05860564095155
 20
11.36249970253156
 30
0.0
 40
0.2625
100
AcDbArc
 50
0.0
 51
90.0
  0
ARC
  5
73B
330
1A
100
AcDbEntity
  8
ZUWAKU
100
AcDbCircle
 10
18.08848855920723
 20
11.36249970253156
 30
0.0
 40
0.2625
100
AcDbArc
 50
90.0
 51
162.4744316262769
  0
LINE
  5
73C
330
1A
100
AcDbEntity
  8
ZUWAKU
100
AcDbLine
 10
19.18824869860947
 20
11.28345271844808
 30
0.0
 11
18.65742888204056
 21
9.602523299313283
 31
0.0
  0
ARC
  5
73D
330
1A
100
AcDbEntity
  8
ZUWAKU
100
AcDbCircle
 10
18.93793324901173
 20
11.36249970253156
 30
0.0
 40
0.2625
100
AcDbArc
 50
342.4744316262769
 51
90.0
  0
LINE
  5
73E
330
1A
100
AcDbEntity
  8
ZUWAKU
100
AcDbLine
 10
18.08848855920723
 20
11.62499970253157
 30
0.0
 11
18.93793324901173
 21
11.62499970253157
 31
0.0
  0
ARC
  5
73F
330
1A
100
AcDbEntity
  8
ZUWAKU
100
AcDbCircle
 10
20.60860564095156
 20
11.36249970253156
 30
0.0
 40
0.2625
100
AcDbArc
 50
90.0
 51
180.0
  0
LINE
  5
740
330
1A
100
AcDbEntity
  8
ZUWAKU
100
AcDbLine
 10
25.9461056409516
 20
10.22499970253156
 30
0.0
 11
24.45860564095159
 21
10.22499970253156
 31
0.0
  0
LINE
  5
741
330
1A
100
AcDbEntity
  8
ZUWAKU
100
AcDbLine
 10
24.1961056409516
 20
11.62499970253157
 30
0.0
 11
25.9461056409516
 21
11.62499970253157
 31
0.0
  0
ARC
  5
742
330
1A
100
AcDbEntity
  8
ZUWAKU
100
AcDbCircle
 10
24.1961056409516
 20
10.22499970253156
 30
0.0
 40
1.399999999999999
100
AcDbArc
 50
90.0
 51
180.0
  0
LINE
  5
743
330
1A
100
AcDbEntity
  8
ZUWAKU
100
AcDbLine
 10
22.79610564095156
 20
10.22499970253156
 30
0.0
 11
22.79610564095156
 21
9.317398689853899
 31
0.0
  0
ARC
  5
744
330
1A
100
AcDbEntity
  8
ZUWAKU
100
AcDbCircle
 10
21.48360564095156
 20
11.36249970253156
 30
0.0
 40
0.2625
100
AcDbArc
 50
0.0
 51
90.0
  0
LINE
  5
745
330
1A
100
AcDbEntity
  8
ZUWAKU
100
AcDbLine
 10
24.1961056409516
 20
9.96249970253157
 30
0.0
 11
24.1961056409516
 21
9.317398689853899
 31
0.0
  0
ARC
  5
746
330
1A
100
AcDbEntity
  8
ZUWAKU
100
AcDbCircle
 10
24.45860564095159
 20
9.96249970253157
 30
0.0
 40
0.2625
100
AcDbArc
 50
90.0
 51
180.0
  0
LINE
  5
747
330
1A
100
AcDbEntity
  8
ZUWAKU
100
AcDbLine
 10
26.20860564095158
 20
11.36249970253156
 30
0.0
 11
26.20860564095158
 21
10.48749970253156
 31
0.0
  0
ARC
  5
748
330
1A
100
AcDbEntity
  8
ZUWAKU
100
AcDbCircle
 10
25.9461056409516
 20
10.48749970253156
 30
0.0
 40
0.2625
100
AcDbArc
 50
270.0
 51
0.0
  0
ARC
  5
749
330
1A
100
AcDbEntity
  8
ZUWAKU
100
AcDbCircle
 10
25.9461056409516
 20
11.36249970253156
 30
0.0
 40
0.2625
100
AcDbArc
 50
0.0
 51
90.0
  0
LINE
  5
74A
330
1A
100
AcDbEntity
  8
ZUWAKU
100
AcDbLine
 10
28.65860564095157
 20
11.62499970253157
 30
0.0
 11
27.78360564095157
 21
11.62499970253157
 31
0.0
  0
ARC
  5
74B
330
1A
100
AcDbEntity
  8
ZUWAKU
100
AcDbCircle
 10
27.78360564095157
 20
11.36249970253156
 30
0.0
 40
0.2625
100
AcDbArc
 50
90.0
 51
180.0
  0
ARC
  5
74C
330
1A
100
AcDbEntity
  8
ZUWAKU
100
AcDbCircle
 10
28.65860564095157
 20
11.36249970253156
 30
0.0
 40
0.2625
100
AcDbArc
 50
0.0
 51
90.0
  0
LINE
  5
74D
330
1A
100
AcDbEntity
  8
ZUWAKU
100
AcDbLine
 10
34.2586056409516
 20
11.62499970253157
 30
0.0
 11
33.3836056409516
 21
11.62499970253157
 31
0.0
  0
ARC
  5
74E
330
1A
100
AcDbEntity
  8
ZUWAKU
100
AcDbCircle
 10
30.93360564095155
 20
11.36249970253156
 30
0.0
 40
0.2625
100
AcDbArc
 50
90.0
 51
180.0
  0
LINE
  5
74F
330
1A
100
AcDbEntity
  8
ZUWAKU
100
AcDbLine
 10
31.80860564095155
 20
11.62499970253157
 30
0.0
 11
30.93360564095155
 21
11.62499970253157
 31
0.0
  0
ARC
  5
750
330
1A
100
AcDbEntity
  8
ZUWAKU
100
AcDbCircle
 10
31.80860564095155
 20
11.36249970253156
 30
0.0
 40
0.2625
100
AcDbArc
 50
0.0
 51
90.0
  0
ARC
  5
751
330
1A
100
AcDbEntity
  8
ZUWAKU
100
AcDbCircle
 10
33.3836056409516
 20
11.36249970253156
 30
0.0
 40
0.2625
100
AcDbArc
 50
90.0
 51
180.0
  0
ARC
  5
752
330
1A
100
AcDbEntity
  8
ZUWAKU
100
AcDbCircle
 10
34.2586056409516
 20
11.36249970253156
 30
0.0
 40
0.2625
100
AcDbArc
 50
0.0
 51
90.0
  0
TEXT
  5
753
330
1A
100
AcDbEntity
  8
MOJI
100
AcDbText
 10
119.9136009039865
 20
9.002460231235261
 30
0.0
 40
2.799999999999999
  1
ステンレス金具打込角足
 41
0.9
  7
ｽﾀｲﾙ1
100
AcDbText
  0
LINE
  5
754
330
1A
100
AcDbEntity
  8
ZUWAKU
100
AcDbLine
 10
104.2233002085948
 20
14.99999970253156
 30
0.0
 11
104.223300208595
 21
0.399999702531602
 31
0.0
  0
LINE
  5
755
330
1A
100
AcDbEntity
  8
ZUWAKU
100
AcDbLine
 10
104.3233002085949
 20
14.99999970253156
 30
0.0
 11
104.323300208595
 21
0.399999702531602
 31
0.0
  0
LINE
  5
756
330
1A
100
AcDbEntity
  8
ZUWAKU
100
AcDbLine
 10
104.1233002085949
 20
14.99999970253156
 30
0.0
 11
104.1233002085949
 21
0.399999702531602
 31
0.0
  0
TEXT
  5
757
330
1A
100
AcDbEntity
  8
ZUWAKU
100
AcDbText
 10
104.8620227196997
 20
4.827677971724376
 30
0.0
 40
2.0
  1
サイズ
 41
0.9
  7
ｽﾀｲﾙ1
100
AcDbText
  0
TEXT
  5
758
330
1A
100
AcDbEntity
  8
MOJI
100
AcDbText
 10
119.9136009039865
 20
1.602460231235278
 30
0.0
 40
2.799999999999999
  1
Ｘ４０－Ｌ１２０
 41
0.9
  7
ｽﾀｲﾙ1
100
AcDbText
  0
TEXT
  5
759
330
1A
100
AcDbEntity
  8
ZUWAKU
100
AcDbText
 10
104.8620227196996
 20
12.02767797172435
 30
0.0
 40
2.0
  1
品名
 41
0.9
  7
ｽﾀｲﾙ1
100
AcDbText
  0
TEXT
  5
75A
330
1A
100
AcDbEntity
  8
ZUWAKU
100
AcDbText
 10
329.1019684072121
 20
9.002460231235261
 30
0.0
 40
2.799999999999999
  1
　　．　　．　　
 41
0.9
  7
ｽﾀｲﾙ1
100
AcDbText
  0
LINE
  5
75B
330
1A
100
AcDbEntity
  8
ZUWAKU
100
AcDbLine
 10
324.4086008186631
 20
7.799999702531584
 30
0.0
 11
348.6245048378316
 21
7.799999702531584
 31
0.0
  0
LINE
  5
75C
330
1A
100
AcDbEntity
  8
ZUWAKU
100
AcDbLine
 10
324.4086008186632
 20
7.699999702531586
 30
0.0
 11
348.6245048378316
 21
7.699999702531584
 31
0.0
  0
LINE
  5
75D
330
1A
100
AcDbEntity
  8
ZUWAKU
100
AcDbLine
 10
324.4086008186631
 20
7.599999702531583
 30
0.0
 11
348.6245048378316
 21
7.599999702531585
 31
0.0
  0
LINE
  5
75E
330
1A
100
AcDbEntity
  8
ZUWAKU
100
AcDbLine
 10
252.5995893126314
 20
7.799999702531584
 30
0.0
 11
276.2634774466172
 21
7.799999702531584
 31
0.0
  0
LINE
  5
75F
330
1A
100
AcDbEntity
  8
ZUWAKU
100
AcDbLine
 10
252.5995893126314
 20
7.699999702531584
 30
0.0
 11
276.2634774466172
 21
7.699999702531584
 31
0.0
  0
LINE
  5
760
330
1A
100
AcDbEntity
  8
ZUWAKU
100
AcDbLine
 10
252.5995893126314
 20
7.599999702531587
 30
0.0
 11
276.2634774466172
 21
7.599999702531587
 31
0.0
  0
LINE
  5
761
330
1A
100
AcDbEntity
  8
ZUWAKU
100
AcDbLine
 10
252.3995893126315
 20
14.99999970253156
 30
0.0
 11
252.3995893126315
 21
0.399999702531602
 31
0.0
  0
LINE
  5
762
330
1A
100
AcDbEntity
  8
ZUWAKU
100
AcDbLine
 10
252.5995893126314
 20
14.99999970253156
 30
0.0
 11
252.5995893126315
 21
0.399999702531602
 31
0.0
  0
LINE
  5
763
330
1A
100
AcDbEntity
  8
ZUWAKU
100
AcDbLine
 10
252.4995893126314
 20
14.99999970253156
 30
0.0
 11
252.4995893126315
 21
0.399999702531602
 31
0.0
  0
TEXT
  5
764
330
1A
100
AcDbEntity
  8
MOJI
100
AcDbText
 10
264.0204535497174
 20
9.002460231235261
 30
0.0
 40
2.799999999999999
  1
Ａ３
 41
0.9
  7
ｽﾀｲﾙ1
100
AcDbText
  0
LINE
  5
765
330
1A
100
AcDbEntity
  8
ZUWAKU
100
AcDbLine
 10
223.7121815490567
 20
14.99999970253156
 30
0.0
 11
223.7121815490567
 21
0.399999702531602
 31
0.0
  0
LINE
  5
766
330
1A
100
AcDbEntity
  8
ZUWAKU
100
AcDbLine
 10
223.9121815490566
 20
14.99999970253156
 30
0.0
 11
223.9121815490567
 21
0.399999702531602
 31
0.0
  0
LINE
  5
767
330
1A
100
AcDbEntity
  8
ZUWAKU
100
AcDbLine
 10
223.8121815490566
 20
14.99999970253156
 30
0.0
 11
223.8121815490567
 21
0.399999702531602
 31
0.0
  0
TEXT
  5
768
330
1A
100
AcDbEntity
  8
MOJI
100
AcDbText
 10
231.2836387245553
 20
5.97130856336156
 30
0.0
 40
2.799999999999999
  1
ＬＤ１０□
 41
0.9
  7
ｽﾀｲﾙ1
100
AcDbText
  0
TEXT
  5
769
330
1A
100
AcDbEntity
  8
ZUWAKU
100
AcDbText
 10
230.8507805931075
 20
1.623757184374028
 30
0.0
 40
1.5
  1
□には色品番が入ります
 41
0.9
  7
ｽﾀｲﾙ1
100
AcDbText
  0
TEXT
  5
76A
330
1A
100
AcDbEntity
  8
ZUWAKU
100
AcDbText
 10
253.3383118237363
 20
4.827677971724376
 30
0.0
 40
2.0
  1
縮尺
 41
0.9
  7
ｽﾀｲﾙ1
100
AcDbText
  0
TEXT
  5
76B
330
1A
100
AcDbEntity
  8
MOJI
100
AcDbText
 10
264.0204535497174
 20
1.602460231235278
 30
0.0
 40
2.799999999999999
  1
１/１
 41
0.9
  7
ｽﾀｲﾙ1
100
AcDbText
  0
TEXT
  5
76C
330
1A
100
AcDbEntity
  8
ZUWAKU
100
AcDbText
 10
224.6509040601614
 20
12.02767797172435
 30
0.0
 40
2.0
  1
品番
 41
0.9
  7
ｽﾀｲﾙ1
100
AcDbText
  0
TEXT
  5
76D
330
1A
100
AcDbEntity
  8
ZUWAKU
100
AcDbText
 10
253.3383118237362
 20
12.02767797172435
 30
0.0
 40
2.0
  1
用紙
 41
0.9
  7
ｽﾀｲﾙ1
100
AcDbText
  0
LINE
  5
76E
330
1A
100
AcDbEntity
  8
ZUWAKU
100
AcDbLine
 10
276.2634774466172
 20
14.99999970253156
 30
0.0
 11
276.2634774466172
 21
0.399999702531602
 31
0.0
  0
LINE
  5
76F
330
1A
100
AcDbEntity
  8
ZUWAKU
100
AcDbLine
 10
276.4634774466171
 20
14.99999970253156
 30
0.0
 11
276.4634774466173
 21
0.399999702531602
 31
0.0
  0
LINE
  5
770
330
1A
100
AcDbEntity
  8
ZUWAKU
100
AcDbLine
 10
276.3634774466171
 20
14.99999970253156
 30
0.0
 11
276.3634774466172
 21
0.399999702531602
 31
0.0
  0
LINE
  5
771
330
1A
100
AcDbEntity
  8
ZUWAKU
100
AcDbLine
 10
324.2086008186632
 20
14.99999970253156
 30
0.0
 11
324.2086008186632
 21
0.399999702531602
 31
0.0
  0
LINE
  5
772
330
1A
100
AcDbEntity
  8
ZUWAKU
100
AcDbLine
 10
324.4086008186632
 20
14.99999970253156
 30
0.0
 11
324.4086008186633
 21
0.399999702531602
 31
0.0
  0
LINE
  5
773
330
1A
100
AcDbEntity
  8
ZUWAKU
100
AcDbLine
 10
324.3086008186632
 20
14.99999970253156
 30
0.0
 11
324.3086008186633
 21
0.399999702531602
 31
0.0
  0
TEXT
  5
774
330
1A
100
AcDbEntity
  8
ZUWAKU
100
AcDbText
 10
325.147323329768
 20
12.02767797172435
 30
0.0
 40
2.0
  1
DATE
 41
0.9
  7
ｽﾀｲﾙ1
100
AcDbText
  0
TEXT
  5
775
330
1A
100
AcDbEntity
  8
ZUWAKU
100
AcDbText
 10
354.2640416596829
 20
8.776919370374969
 30
0.0
 40
3.0
  1
積水化学工業株式会社
 41
0.9
  7
ｽﾀｲﾙ1
100
AcDbText
  0
LINE
  5
776
330
1A
100
AcDbEntity
  8
ZUWAKU
100
AcDbLine
 10
348.9245048378315
 20
14.99999970253156
 30
0.0
 11
348.9245048378317
 21
0.399999702531602
 31
0.0
  0
LINE
  5
777
330
1A
100
AcDbEntity
  8
ZUWAKU
100
AcDbLine
 10
348.8245048378315
 20
14.99999970253156
 30
0.0
 11
348.8245048378316
 21
0.399999702531602
 31
0.0
  0
LINE
  5
778
330
1A
100
AcDbEntity
  8
ZUWAKU
100
AcDbLine
 10
348.7245048378316
 20
14.99999970253156
 30
0.0
 11
348.7245048378316
 21
0.399999702531602
 31
0.0
  0
LINE
  5
779
330
1A
100
AcDbEntity
  8
ZUWAKU
100
AcDbLine
 10
348.6245048378316
 20
14.99999970253156
 30
0.0
 11
348.6245048378316
 21
0.399999702531602
 31
0.0
  0
TEXT
  5
77A
330
1A
100
AcDbEntity
  8
ZUWAKU
100
AcDbText
 10
354.2640416596829
 20
3.3244198594586
 30
0.0
 40
3.0
  1
建材事業部
 41
0.9
  7
ｽﾀｲﾙ1
100
AcDbText
  0
VIEWPORT
  5
22
330
17
100
AcDbEntity
 67
     1
  8
0
100
AcDbViewport
 10
313.6808219178082
 20
148.5
 30
0.0
 40
627.3616438356165
 41
297.0
 68
     2
 69
     1
1001
ACAD
1000
MVIEW
1002
{
1070
    16
1010
0.0
1020
0.0
1030
0.0
1010
0.0
1020
0.0
1030
1.0
1040
0.0
1040
297.0
1040
313.6808219178082
1040
148.5
1040
50.0
1040
0.0
1040
0.0
1070
     0
1070
   100
1070
     1
1070
     0
1070
     0
1070
     0
1070
     0
1070
     0
1040
0.0
1040
0.0
1040
0.0
1040
1.0
1040
1.0
1040
10.0
1040
10.0
1070
     0
1002
{
1002
}
1002
}
  0
VIEWPORT
  5
64
330
17
100
AcDbEntity
 67
     1
  8
VIEWPORT
100
AcDbViewport
 10
210.0
 20
148.5
 30
0.0
 40
420.0
 41
297.0
 68
     1
 69
     2
1001
ACAD
1000
MVIEW
1002
{
1070
    16
1010
0.0
1020
0.0
1030
0.0
1010
0.0
1020
0.0
1030
1.0
1040
0.0
1040
302.9399999999998
1040
210.0
1040
148.5
1040
50.0
1040
0.0
1040
0.0
1070
     0
1070
   100
1070
     1
1070
     0
1070
     0
1070
     0
1070
     0
1070
     0
1040
0.0
1040
0.0
1040
0.0
1040
5.0
1040
5.0
1040
0.0
1040
0.0
1070
     0
1002
{
1002
}
1002
}
  0
ENDSEC
  0
SECTION
  2
OBJECTS
  0
DICTIONARY
  5
C
330
0
100
AcDbDictionary
  3
ACAD_GROUP
350
D
  3
ACAD_LAYOUT
350
585
  3
ACAD_MLINESTYLE
350
E
  3
ACAD_PLOTSETTINGS
350
586
  3
ACAD_PLOTSTYLENAME
350
583
  3
ACDBHEADERROUNDTRIPXREC
350
782
  0
DICTIONARY
  5
5B6
330
1A
100
AcDbDictionary
280
     1
  3
ACAD_LAYOUTSELFREF
360
7A4
  0
DICTIONARY
  5
5B4
330
17
100
AcDbDictionary
280
     1
  3
ACAD_LAYOUTSELFREF
360
7A3
  0
DICTIONARY
  5
D
102
{ACAD_REACTORS
330
C
102
}
330
C
100
AcDbDictionary
  0
DICTIONARY
  5
585
102
{ACAD_REACTORS
330
C
102
}
330
C
100
AcDbDictionary
  0
DICTIONARY
  5
E
102
{ACAD_REACTORS
330
C
102
}
330
C
100
AcDbDictionary
  3
STANDARD
350
13
  0
DICTIONARY
  5
586
102
{ACAD_REACTORS
330
C
102
}
330
C
100
AcDbDictionary
  0
ACDBDICTIONARYWDFLT
  5
583
102
{ACAD_REACTORS
330
C
102
}
330
C
100
AcDbDictionary
281
     1
  3
Normal
350
584
100
AcDbDictionaryWithDefault
340
584
1001
ACAD
1000
TREAT_AS_HARD
1070
     0
1000
TREAT_AS_HARD
1070
     0
  0
DICTIONARY
  5
782
102
{ACAD_REACTORS
330
C
102
}
330
C
100
AcDbDictionary
  3
TSTACKALIGN
350
783
  3
TSTACKSIZE
350
784
  3
HYPERLINKBASE
350
785
  3
STYLESHEET
350
786
  3
LAYOUTDICT
350
787
  3
PLOTSETDICT
350
788
  3
PLOTSTYLNAMDICT
350
789
  3
LWETCUNION
350
78A
  3
INSUNITS
350
78B
  3
CEPSNTYPE
350
78C
  3
FINGERPRINTGUID
350
78D
  3
VERSIONGUID
350
78E
  3
PSVPSCALE
350
78F
  3
DIMSTYLEDATA
350
790
  3
PUCSORTHOREF
350
791
  3
PUCSORTHOVIEW
350
792
  3
PUCSBASE
350
793
  3
PUCSORGTOP
350
794
  3
PUCSORGBOTTOM
350
795
  3
PUCSORGLEFT
350
796
  3
PUCSORGRIGHT
350
797
  3
PUCSORGFRONT
350
798
  3
PUCSORGBACK
350
799
  3
UCSORTHOREF
350
79A
  3
UCSORTHOVIEW
350
79B
  3
UCSBASE
350
79C
  3
UCSORGTOP
350
79D
  3
UCSORGBOTTOM
350
79E
  3
UCSORGLEFT
350
79F
  3
UCSORGRIGHT
350
7A0
  3
UCSORGFRONT
350
7A1
  3
UCSORGBACK
350
7A2
  0
XRECORD
  5
7A4
102
{ACAD_REACTORS
330
5B6
102
}
330
5B6
100
AcDbXrecord
340
1A
  0
XRECORD
  5
7A3
102
{ACAD_REACTORS
330
5B4
102
}
330
5B4
100
AcDbXrecord
340
17
  0
MLINESTYLE
  5
13
102
{ACAD_REACTORS
330
E
102
}
330
E
100
AcDbMlineStyle
  2
STANDARD
 70
     0
  3

 62
     0
 51
90.0
 52
90.0
 71
     2
 49
0.5
 62
   256
  6
BYLAYER
 49
-0.5
 62
   256
  6
BYLAYER
  0
ACDBPLACEHOLDER
  5
584
102
{ACAD_REACTORS
330
583
102
}
330
583
100
AcDbPlaceHolder
280
     0
  0
XRECORD
  5
783
102
{ACAD_REACTORS
330
782
102
}
330
782
100
AcDbXrecord
 90
        1
  0
XRECORD
  5
784
102
{ACAD_REACTORS
330
782
102
}
330
782
100
AcDbXrecord
 90
       70
  0
XRECORD
  5
785
102
{ACAD_REACTORS
330
782
102
}
330
782
100
AcDbXrecord
  1

  0
XRECORD
  5
786
102
{ACAD_REACTORS
330
782
102
}
330
782
100
AcDbXrecord
  1
systemprinter.ctb
  0
XRECORD
  5
787
102
{ACAD_REACTORS
330
782
102
}
330
782
100
AcDbXrecord
340
585
  0
XRECORD
  5
788
102
{ACAD_REACTORS
330
782
102
}
330
782
100
AcDbXrecord
340
586
  0
XRECORD
  5
789
102
{ACAD_REACTORS
330
782
102
}
330
782
100
AcDbXrecord
340
583
  0
XRECORD
  5
78A
102
{ACAD_REACTORS
330
782
102
}
330
782
100
AcDbXrecord
 90
    10781
  0
XRECORD
  5
78B
102
{ACAD_REACTORS
330
782
102
}
330
782
100
AcDbXrecord
 90
        0
  0
XRECORD
  5
78C
102
{ACAD_REACTORS
330
782
102
}
330
782
100
AcDbXrecord
 90
        0
  0
XRECORD
  5
78D
102
{ACAD_REACTORS
330
782
102
}
330
782
100
AcDbXrecord
  1
{49CC95B5-EC49-439A-99BE-A716BC0A5471}
  0
XRECORD
  5
78E
102
{ACAD_REACTORS
330
782
102
}
330
782
100
AcDbXrecord
  1
{659F47A5-9D54-45DF-8678-21440CF1C6A3}
  0
XRECORD
  5
78F
102
{ACAD_REACTORS
330
782
102
}
330
782
100
AcDbXrecord
 40
0.0
  0
XRECORD
  5
790
102
{ACAD_REACTORS
330
782
102
}
330
782
100
AcDbXrecord
1000
DSTYLE
1002
{
1070
   341
340
B2
1070
   343
340
B2
1070
   344
340
B2
1002
}
  0
XRECORD
  5
791
102
{ACAD_REACTORS
330
782
102
}
330
782
100
AcDbXrecord
340
0
  0
XRECORD
  5
792
102
{ACAD_REACTORS
330
782
102
}
330
782
100
AcDbXrecord
 70
     0
  0
XRECORD
  5
793
102
{ACAD_REACTORS
330
782
102
}
330
782
100
AcDbXrecord
340
0
  0
XRECORD
  5
794
102
{ACAD_REACTORS
330
782
102
}
330
782
100
AcDbXrecord
 10
0.0
 20
0.0
 30
0.0
  0
XRECORD
  5
795
102
{ACAD_REACTORS
330
782
102
}
330
782
100
AcDbXrecord
 10
0.0
 20
0.0
 30
0.0
  0
XRECORD
  5
796
102
{ACAD_REACTORS
330
782
102
}
330
782
100
AcDbXrecord
 10
0.0
 20
0.0
 30
0.0
  0
XRECORD
  5
797
102
{ACAD_REACTORS
330
782
102
}
330
782
100
AcDbXrecord
 10
0.0
 20
0.0
 30
0.0
  0
XRECORD
  5
798
102
{ACAD_REACTORS
330
782
102
}
330
782
100
AcDbXrecord
 10
0.0
 20
0.0
 30
0.0
  0
XRECORD
  5
799
102
{ACAD_REACTORS
330
782
102
}
330
782
100
AcDbXrecord
 10
0.0
 20
0.0
 30
0.0
  0
XRECORD
  5
79A
102
{ACAD_REACTORS
330
782
102
}
330
782
100
AcDbXrecord
340
0
  0
XRECORD
  5
79B
102
{ACAD_REACTORS
330
782
102
}
330
782
100
AcDbXrecord
 70
     0
  0
XRECORD
  5
79C
102
{ACAD_REACTORS
330
782
102
}
330
782
100
AcDbXrecord
340
0
  0
XRECORD
  5
79D
102
{ACAD_REACTORS
330
782
102
}
330
782
100
AcDbXrecord
 10
0.0
 20
0.0
 30
0.0
  0
XRECORD
  5
79E
102
{ACAD_REACTORS
330
782
102
}
330
782
100
AcDbXrecord
 10
0.0
 20
0.0
 30
0.0
  0
XRECORD
  5
79F
102
{ACAD_REACTORS
330
782
102
}
330
782
100
AcDbXrecord
 10
0.0
 20
0.0
 30
0.0
  0
XRECORD
  5
7A0
102
{ACAD_REACTORS
330
782
102
}
330
782
100
AcDbXrecord
 10
0.0
 20
0.0
 30
0.0
  0
XRECORD
  5
7A1
102
{ACAD_REACTORS
330
782
102
}
330
782
100
AcDbXrecord
 10
0.0
 20
0.0
 30
0.0
  0
XRECORD
  5
7A2
102
{ACAD_REACTORS
330
782
102
}
330
782
100
AcDbXrecord
 10
0.0
 20
0.0
 30
0.0
  0
ENDSEC
  0
EOF
