  0
SECTION
  2
HEADER
  9
$ACADVER
  1
AC1014
  9
$ACADMAINTVER
 70
     9
  9
$DWGCODEPAGE
  3
ANSI_932
  9
$INSBASE
 10
0.0
 20
0.0
 30
0.0
  9
$EXTMIN
 10
-0.025633200973175
 20
-0.0181263349739993
 30
-0.0000000000000058
  9
$EXTMAX
 10
398.8314472944385
 20
275.8219710108755
 30
0.0000000000000104
  9
$LIMMIN
 10
0.0
 20
0.0
  9
$LIMMAX
 10
420.0
 20
297.0
  9
$ORTHOMODE
 70
     0
  9
$REGENMODE
 70
     1
  9
$FILLMODE
 70
     1
  9
$QTEXTMODE
 70
     0
  9
$MIRRTEXT
 70
     1
  9
$DRAGMODE
 70
     2
  9
$LTSCALE
 40
1.0
  9
$OSMODE
 70
    35
  9
$ATTMODE
 70
     1
  9
$TEXTSIZE
 40
2.5
  9
$TRACEWID
 40
1.0
  9
$TEXTSTYLE
  7
STANDARD
  9
$CLAYER
  8
SEIHIN
  9
$CELTYPE
  6
BYLAYER
  9
$CECOLOR
 62
   256
  9
$CELTSCALE
 40
1.0
  9
$DELOBJ
 70
     1
  9
$DISPSILH
 70
     0
  9
$DIMSCALE
 40
1.0
  9
$DIMASZ
 40
3.0
  9
$DIMEXO
 40
3.0
  9
$DIMDLI
 40
7.0
  9
$DIMRND
 40
0.0
  9
$DIMDLE
 40
0.0
  9
$DIMEXE
 40
1.5
  9
$DIMTP
 40
0.0
  9
$DIMTM
 40
0.0
  9
$DIMTXT
 40
3.0
  9
$DIMCEN
 40
150.0
  9
$DIMTSZ
 40
0.0
  9
$DIMTOL
 70
     0
  9
$DIMLIM
 70
     0
  9
$DIMTIH
 70
     0
  9
$DIMTOH
 70
     0
  9
$DIMSE1
 70
     0
  9
$DIMSE2
 70
     0
  9
$DIMTAD
 70
     3
  9
$DIMZIN
 70
     0
  9
$DIMBLK
  1

  9
$DIMASO
 70
     1
  9
$DIMSHO
 70
     1
  9
$DIMPOST
  1

  9
$DIMAPOST
  1

  9
$DIMALT
 70
     0
  9
$DIMALTD
 70
     2
  9
$DIMALTF
 40
25.4
  9
$DIMLFAC
 40
1.0
  9
$DIMTOFL
 70
     1
  9
$DIMTVP
 40
0.0
  9
$DIMTIX
 70
     0
  9
$DIMSOXD
 70
     0
  9
$DIMSAH
 70
     1
  9
$DIMBLK1
  1
OPEN
  9
$DIMBLK2
  1
OPEN
  9
$DIMSTYLE
  2
STANDARD
  9
$DIMCLRD
 70
   256
  9
$DIMCLRE
 70
   256
  9
$DIMCLRT
 70
   256
  9
$DIMTFAC
 40
1.0
  9
$DIMGAP
 40
1.0
  9
$DIMJUST
 70
     0
  9
$DIMSD1
 70
     0
  9
$DIMSD2
 70
     0
  9
$DIMTOLJ
 70
     1
  9
$DIMTZIN
 70
     0
  9
$DIMALTZ
 70
     0
  9
$DIMALTTZ
 70
     0
  9
$DIMFIT
 70
     3
  9
$DIMUPT
 70
     0
  9
$DIMUNIT
 70
     2
  9
$DIMDEC
 70
     0
  9
$DIMTDEC
 70
     0
  9
$DIMALTU
 70
     2
  9
$DIMALTTD
 70
     2
  9
$DIMTXSTY
  7
STANDARD
  9
$DIMAUNIT
 70
     0
  9
$LUNITS
 70
     2
  9
$LUPREC
 70
     4
  9
$SKETCHINC
 40
1.0
  9
$FILLETRAD
 40
10.0
  9
$AUNITS
 70
     0
  9
$AUPREC
 70
     0
  9
$MENU
  1
.
  9
$ELEVATION
 40
0.0
  9
$PELEVATION
 40
0.0
  9
$THICKNESS
 40
0.0
  9
$LIMCHECK
 70
     0
  9
$BLIPMODE
 70
     0
  9
$CHAMFERA
 40
10.0
  9
$CHAMFERB
 40
10.0
  9
$CHAMFERC
 40
20.0
  9
$CHAMFERD
 40
0.0
  9
$SKPOLY
 70
     0
  9
$TDCREATE
 40
2450994.350997107
  9
$TDUPDATE
 40
2453817.704973958
  9
$TDINDWG
 40
0.0245352315
  9
$TDUSRTIMER
 40
0.0245352315
  9
$USRTIMER
 70
     1
  9
$ANGBASE
 50
0.0
  9
$ANGDIR
 70
     0
  9
$PDMODE
 70
     1
  9
$PDSIZE
 40
0.0
  9
$PLINEWID
 40
0.0
  9
$COORDS
 70
     1
  9
$SPLFRAME
 70
     0
  9
$SPLINETYPE
 70
     6
  9
$SPLINESEGS
 70
     8
  9
$ATTDIA
 70
     0
  9
$ATTREQ
 70
     1
  9
$HANDLING
 70
 10241
  9
$HANDSEED
  5
8A7
  9
$SURFTAB1
 70
     6
  9
$SURFTAB2
 70
     6
  9
$SURFTYPE
 70
     6
  9
$SURFU
 70
     6
  9
$SURFV
 70
     6
  9
$UCSNAME
  2

  9
$UCSORG
 10
0.0
 20
0.0
 30
0.0
  9
$UCSXDIR
 10
1.0
 20
0.0
 30
0.0
  9
$UCSYDIR
 10
0.0
 20
1.0
 30
0.0
  9
$PUCSNAME
  2

  9
$PUCSORG
 10
0.0
 20
0.0
 30
0.0
  9
$PUCSXDIR
 10
1.0
 20
0.0
 30
0.0
  9
$PUCSYDIR
 10
0.0
 20
1.0
 30
0.0
  9
$USERI1
 70
     0
  9
$USERI2
 70
     0
  9
$USERI3
 70
     0
  9
$USERI4
 70
     0
  9
$USERI5
 70
     0
  9
$USERR1
 40
0.0
  9
$USERR2
 40
0.0
  9
$USERR3
 40
0.0
  9
$USERR4
 40
0.0
  9
$USERR5
 40
0.0
  9
$WORLDVIEW
 70
     1
  9
$SHADEDGE
 70
     3
  9
$SHADEDIF
 70
    70
  9
$TILEMODE
 70
     1
  9
$MAXACTVP
 70
    16
  9
$PINSBASE
 10
0.0
 20
0.0
 30
0.0
  9
$PLIMCHECK
 70
     0
  9
$PEXTMIN
 10
0.0
 20
0.0
 30
0.0
  9
$PEXTMAX
 10
420.0
 20
297.0
 30
0.0
  9
$PLIMMIN
 10
0.0
 20
0.0
  9
$PLIMMAX
 10
420.0
 20
297.0
  9
$UNITMODE
 70
     0
  9
$VISRETAIN
 70
     0
  9
$PLINEGEN
 70
     0
  9
$PSLTSCALE
 70
     1
  9
$TREEDEPTH
 70
  3020
  9
$PICKSTYLE
 70
     1
  9
$CMLSTYLE
  2
STANDARD
  9
$CMLJUST
 70
     0
  9
$CMLSCALE
 40
1.0
  9
$PROXYGRAPHICS
 70
     1
  9
$MEASUREMENT
 70
     1
  0
ENDSEC
  0
SECTION
  2
CLASSES
  0
CLASS
  1
ACDBDICTIONARYWDFLT
  2
AcDbDictionaryWithDefault
  3
AutoCAD 2000
 90
        0
280
     0
281
     0
  0
CLASS
  1
ACDBPLACEHOLDER
  2
AcDbPlaceHolder
  3
AutoCAD 2000
 90
        0
280
     0
281
     0
  0
CLASS
  1
LAYOUT
  2
AcDbLayout
  3
AutoCAD 2000
 90
        0
280
     0
281
     0
  0
CLASS
  1
LONG_TRANSACTION
  2
AcDbLongTransaction
  3
AutoCAD 2000
 90
        0
280
     0
281
     0
  0
CLASS
  1
LWPOLYLINE
  2
AcDbPolyline
  3
AutoCAD 2000
 90
        0
280
     0
281
     1
  0
CLASS
  1
HATCH
  2
AcDbHatch
  3
AutoCAD 2000
 90
        0
280
     0
281
     1
  0
CLASS
  1
XRECORD
  2
AcDbXrecord
  3
AutoCAD 2000
 90
        0
280
     0
281
     0
  0
CLASS
  1
LONG_TRANSACTION
  2
AcDbLongTransaction
  3
AutoCAD 2000
 90
        0
280
     0
281
     0
  0
CLASS
  1
LWPOLYLINE
  2
AcDbPolyline
  3
AutoCAD 2000
 90
        0
280
     0
281
     1
  0
CLASS
  1
HATCH
  2
AcDbHatch
  3
AutoCAD 2000
 90
        0
280
     0
281
     1
  0
CLASS
  1
XRECORD
  2
AcDbXrecord
  3
AutoCAD 2000
 90
        0
280
     0
281
     0
  0
CLASS
  1
LONG_TRANSACTION
  2
AcDbLongTransaction
  3
AutoCAD 2000
 90
        0
280
     0
281
     0
  0
CLASS
  1
LWPOLYLINE
  2
AcDbPolyline
  3
AutoCAD 2000
 90
        0
280
     0
281
     1
  0
CLASS
  1
HATCH
  2
AcDbHatch
  3
AutoCAD 2000
 90
        0
280
     0
281
     1
  0
CLASS
  1
XRECORD
  2
AcDbXrecord
  3
AutoCAD 2000
 90
        0
280
     0
281
     0
  0
ENDSEC
  0
SECTION
  2
TABLES
  0
TABLE
  2
VPORT
  5
8
330
0
100
AcDbSymbolTable
 70
     2
  0
VPORT
  5
883
330
8
100
AcDbSymbolTableRecord
100
AcDbViewportTableRecord
  2
*ACTIVE
 70
     0
 10
0.0
 20
0.0
 11
1.0
 21
1.0
 12
212.8380759898315
 22
139.3931104878554
 13
0.0
 23
0.0
 14
5.0
 24
5.0
 15
0.0
 25
0.0
 16
0.0
 26
0.0
 36
1.0
 17
0.0
 27
0.0
 37
0.0
 40
300.3777858478396
 41
1.795454545454545
 42
50.0
 43
0.0
 44
0.0
 50
0.0
 51
0.0
 71
     0
 72
   100
 73
     1
 74
     0
 75
     0
 76
     0
 77
     0
 78
     0
  0
ENDTAB
  0
TABLE
  2
LTYPE
  5
5
330
0
100
AcDbSymbolTable
 70
     3
  0
LTYPE
  5
14
330
5
100
AcDbSymbolTableRecord
100
AcDbLinetypeTableRecord
  2
BYBLOCK
 70
     0
  3

 72
    65
 73
     0
 40
0.0
  0
LTYPE
  5
15
330
5
100
AcDbSymbolTableRecord
100
AcDbLinetypeTableRecord
  2
BYLAYER
 70
     0
  3

 72
    65
 73
     0
 40
0.0
  0
LTYPE
  5
16
330
5
100
AcDbSymbolTableRecord
100
AcDbLinetypeTableRecord
  2
CONTINUOUS
 70
     0
  3
Solid line
 72
    65
 73
     0
 40
0.0
  0
LTYPE
  5
120
330
5
100
AcDbSymbolTableRecord
100
AcDbLinetypeTableRecord
  2
CENTER
 70
     0
  3
____ _ ____ _ ____ _ ____ _ ____ _ ____ _ ____ 
 72
    65
 73
     4
 40
2.0
 49
1.25
 74
     0
 49
-0.25
 74
     0
 49
0.25
 74
     0
 49
-0.25
 74
     0
  0
LTYPE
  5
122
330
5
100
AcDbSymbolTableRecord
100
AcDbLinetypeTableRecord
  2
PHANTOM
 70
     0
  3
______  __  __  ______  __  __  ______  __  __ 
 72
    65
 73
     6
 40
2.5
 49
1.25
 74
     0
 49
-0.25
 74
     0
 49
0.25
 74
     0
 49
-0.25
 74
     0
 49
0.25
 74
     0
 49
-0.25
 74
     0
  0
ENDTAB
  0
TABLE
  2
LAYER
  5
2
330
0
100
AcDbSymbolTable
 70
    10
  0
LAYER
  5
F
330
2
100
AcDbSymbolTableRecord
100
AcDbLayerTableRecord
  2
0
 70
     0
 62
     7
  6
CONTINUOUS
  0
LAYER
  5
62
330
2
100
AcDbSymbolTableRecord
100
AcDbLayerTableRecord
  2
VIEWPORT
 70
     0
 62
     7
  6
CONTINUOUS
  0
LAYER
  5
6B
330
2
100
AcDbSymbolTableRecord
100
AcDbLayerTableRecord
  2
ZUWAKU
 70
     0
 62
     7
  6
CONTINUOUS
  0
LAYER
  5
146
330
2
100
AcDbSymbolTableRecord
100
AcDbLayerTableRecord
  2
SUNPOU_L
 70
     0
 62
     4
  6
CONTINUOUS
  0
LAYER
  5
185
330
2
100
AcDbSymbolTableRecord
100
AcDbLayerTableRecord
  2
CENTER_L
 70
     0
 62
     1
  6
CENTER
  0
LAYER
  5
18C
330
2
100
AcDbSymbolTableRecord
100
AcDbLayerTableRecord
  2
DEFPOINTS
 70
     0
 62
     7
  6
CONTINUOUS
  0
LAYER
  5
2D8
330
2
100
AcDbSymbolTableRecord
100
AcDbLayerTableRecord
  2
SUNPOU
 70
     0
 62
     4
  6
CONTINUOUS
  0
LAYER
  5
2D9
330
2
100
AcDbSymbolTableRecord
100
AcDbLayerTableRecord
  2
SEIHIN
 70
     0
 62
     3
  6
CONTINUOUS
  0
LAYER
  5
2DA
330
2
100
AcDbSymbolTableRecord
100
AcDbLayerTableRecord
  2
NOKITOI
 70
     0
 62
     8
  6
PHANTOM
  0
LAYER
  5
70E
330
2
100
AcDbSymbolTableRecord
100
AcDbLayerTableRecord
  2
MOJI
 70
     0
 62
     2
  6
CONTINUOUS
  0
ENDTAB
  0
TABLE
  2
STYLE
  5
3
330
0
100
AcDbSymbolTable
 70
     2
  0
STYLE
  5
10
330
3
100
AcDbSymbolTableRecord
100
AcDbTextStyleTableRecord
  2
STANDARD
 70
     0
 40
0.0
 41
1.0
 50
0.0
 71
     0
 42
2.5
  3
TXT
  4
bigfont.shx
  0
STYLE
  5
70F
330
3
100
AcDbSymbolTableRecord
100
AcDbTextStyleTableRecord
  2
ｽﾀｲﾙ1
 70
     0
 40
0.0
 41
1.0
 50
0.0
 71
     0
 42
2.5
  3
MS PGothic.ttf
  4

1001
ACAD
1000
MS PGothic
1071
    32818
  0
ENDTAB
  0
TABLE
  2
VIEW
  5
6
330
0
100
AcDbSymbolTable
 70
     0
  0
ENDTAB
  0
TABLE
  2
UCS
  5
7
330
0
100
AcDbSymbolTable
 70
     0
  0
ENDTAB
  0
TABLE
  2
APPID
  5
9
330
0
100
AcDbSymbolTable
 70
     1
  0
APPID
  5
11
330
9
100
AcDbSymbolTableRecord
100
AcDbRegAppTableRecord
  2
ACAD
 70
     0
  0
ENDTAB
  0
TABLE
  2
DIMSTYLE
  5
A
330
0
100
AcDbSymbolTable
 70
     1
  0
DIMSTYLE
105
1D
102
{ACAD_REACTORS
330
3F4
330
3F5
330
3F6
330
3F7
330
3FF
330
400
330
482
330
4C8
330
4C9
330
4CA
330
4D6
330
4DF
102
}
330
A
100
AcDbSymbolTableRecord
100
AcDbDimStyleTableRecord
  2
STANDARD
 70
     0
  3

  4

  5

  6

  7

 40
1.0
 41
0.18
 42
0.0625
 43
0.38
 44
0.18
 45
0.0
 46
0.0
 47
0.0
 48
0.0
140
0.18
141
0.09
142
0.0
143
25.4
144
1.0
145
0.0
146
1.0
147
0.09
 71
     0
 72
     0
 73
     1
 74
     1
 75
     0
 76
     0
 77
     0
 78
     0
170
     0
171
     2
172
     0
173
     0
174
     0
175
     0
176
     0
177
     0
178
     0
270
     2
271
     4
272
     4
273
     2
274
     2
340
10
275
     0
280
     0
281
     0
282
     0
283
     1
284
     0
285
     0
286
     0
287
     3
288
     0
  0
ENDTAB
  0
TABLE
  2
BLOCK_RECORD
  5
1
330
0
100
AcDbSymbolTable
 70
    13
  0
BLOCK_RECORD
  5
1A
102
{ACAD_XDICTIONARY
360
65A
102
}
330
1
100
AcDbSymbolTableRecord
100
AcDbBlockTableRecord
  2
*MODEL_SPACE
  0
BLOCK_RECORD
  5
17
102
{ACAD_XDICTIONARY
360
658
102
}
330
1
100
AcDbSymbolTableRecord
100
AcDbBlockTableRecord
  2
*PAPER_SPACE
  0
BLOCK_RECORD
  5
B2
330
1
100
AcDbSymbolTableRecord
100
AcDbBlockTableRecord
  2
_OPEN
  0
BLOCK_RECORD
  5
501
330
1
100
AcDbSymbolTableRecord
100
AcDbBlockTableRecord
  2
*D1
  0
BLOCK_RECORD
  5
50D
330
1
100
AcDbSymbolTableRecord
100
AcDbBlockTableRecord
  2
*D2
  0
BLOCK_RECORD
  5
51B
330
1
100
AcDbSymbolTableRecord
100
AcDbBlockTableRecord
  2
*D3
  0
BLOCK_RECORD
  5
527
330
1
100
AcDbSymbolTableRecord
100
AcDbBlockTableRecord
  2
*D4
  0
BLOCK_RECORD
  5
535
330
1
100
AcDbSymbolTableRecord
100
AcDbBlockTableRecord
  2
*D5
  0
BLOCK_RECORD
  5
541
330
1
100
AcDbSymbolTableRecord
100
AcDbBlockTableRecord
  2
*D6
  0
BLOCK_RECORD
  5
54D
330
1
100
AcDbSymbolTableRecord
100
AcDbBlockTableRecord
  2
*D7
  0
BLOCK_RECORD
  5
559
330
1
100
AcDbSymbolTableRecord
100
AcDbBlockTableRecord
  2
*D8
  0
BLOCK_RECORD
  5
565
330
1
100
AcDbSymbolTableRecord
100
AcDbBlockTableRecord
  2
*D9
  0
BLOCK_RECORD
  5
571
330
1
100
AcDbSymbolTableRecord
100
AcDbBlockTableRecord
  2
*D10
  0
BLOCK_RECORD
  5
57D
330
1
100
AcDbSymbolTableRecord
100
AcDbBlockTableRecord
  2
*D11
  0
BLOCK_RECORD
  5
58B
330
1
100
AcDbSymbolTableRecord
100
AcDbBlockTableRecord
  2
*D12
  0
ENDTAB
  0
ENDSEC
  0
SECTION
  2
BLOCKS
  0
BLOCK
  5
1B
330
1A
100
AcDbEntity
  8
0
100
AcDbBlockBegin
  2
*MODEL_SPACE
 70
     0
 10
0.0
 20
0.0
 30
0.0
  3
*MODEL_SPACE
  1

  0
ENDBLK
  5
1C
330
1A
100
AcDbEntity
  8
0
100
AcDbBlockEnd
  0
BLOCK
  5
18
330
17
100
AcDbEntity
 67
     1
  8
0
100
AcDbBlockBegin
  2
*PAPER_SPACE
 70
     0
 10
0.0
 20
0.0
 30
0.0
  3
*PAPER_SPACE
  1

  0
ENDBLK
  5
19
330
17
100
AcDbEntity
 67
     1
  8
0
100
AcDbBlockEnd
  0
BLOCK
  5
B3
330
B2
100
AcDbEntity
  8
0
100
AcDbBlockBegin
  2
_OPEN
 70
     0
 10
0.0
 20
0.0
 30
0.0
  3
_OPEN
  1

  0
LINE
  5
B4
330
B2
100
AcDbEntity
  8
0
  6
BYBLOCK
 62
     0
100
AcDbLine
 10
-1.0
 20
0.1666666666666666
 30
0.0
 11
0.0
 21
0.0
 31
0.0
  0
LINE
  5
B5
330
B2
100
AcDbEntity
  8
0
  6
BYBLOCK
 62
     0
100
AcDbLine
 10
0.0
 20
0.0
 30
0.0
 11
-1.0
 21
-0.1666666666666666
 31
0.0
  0
LINE
  5
B6
330
B2
100
AcDbEntity
  8
0
  6
BYBLOCK
 62
     0
100
AcDbLine
 10
0.0
 20
0.0
 30
0.0
 11
-1.0
 21
0.0
 31
0.0
  0
ENDBLK
  5
B7
330
B2
100
AcDbEntity
  8
0
100
AcDbBlockEnd
  0
BLOCK
  5
597
330
501
100
AcDbEntity
  8
0
100
AcDbBlockBegin
  2
*D1
 70
     1
 10
0.0
 20
0.0
 30
0.0
  3
*D1
  1

  0
LINE
  5
67C
330
501
100
AcDbEntity
  8
SUNPOU
  6
CONTINUOUS
 62
     4
100
AcDbLine
 10
202.6263436879472
 20
243.2885605372872
 30
0.0
 11
222.7229379191777
 21
243.2885605372872
 31
0.0
  0
LINE
  5
67D
330
501
100
AcDbEntity
  8
SUNPOU
  6
CONTINUOUS
 62
     4
100
AcDbLine
 10
202.6262436879471
 20
183.2885605372872
 30
0.0
 11
222.7229379191777
 21
183.2885605372872
 31
0.0
  0
LINE
  5
67E
330
501
100
AcDbEntity
  8
SUNPOU
  6
CONTINUOUS
 62
     4
100
AcDbLine
 10
221.2229379191777
 20
240.2885605372872
 30
0.0
 11
221.2229379191777
 21
186.2885605372872
 31
0.0
  0
INSERT
  5
67F
330
501
100
AcDbEntity
  8
SUNPOU
  6
CONTINUOUS
 62
     4
100
AcDbBlockReference
  2
_OPEN
 10
221.2229379191777
 20
243.2885605372872
 30
0.0
 41
3.0
 42
3.0
 43
3.0
 50
90.0
  0
INSERT
  5
680
330
501
100
AcDbEntity
  8
SUNPOU
  6
CONTINUOUS
 62
     4
100
AcDbBlockReference
  2
_OPEN
 10
221.2229379191777
 20
183.2885605372872
 30
0.0
 41
3.0
 42
3.0
 43
3.0
 50
270.0
  0
MTEXT
  5
681
330
501
100
AcDbEntity
  8
SUNPOU
  6
CONTINUOUS
 62
     4
100
AcDbMText
 10
218.7229379191777
 20
213.2885605372873
 30
0.0
 40
3.0
 41
0.0
 71
     5
 72
     5
  1
\A1;60
 11
0.0000000000000001
 21
1.0
 31
0.0
1001
ACAD
1000
MTEXTBEGIN
1070
    73
1070
     1
1070
    44
1040
1.0
1070
    74
1070
     0
1000
MTEXTEND
1000
MTEXTBEGIN
1070
    73
1070
     1
1070
    44
1040
1.0
1070
    74
1070
     0
1000
MTEXTEND
  0
POINT
  5
682
330
501
100
AcDbEntity
  8
DEFPOINTS
  6
CONTINUOUS
 62
     0
100
AcDbPoint
 10
199.6263436879472
 20
243.2885605372872
 30
0.0
  0
POINT
  5
683
330
501
100
AcDbEntity
  8
DEFPOINTS
  6
CONTINUOUS
 62
     0
100
AcDbPoint
 10
199.6262436879471
 20
183.2885605372872
 30
0.0
  0
POINT
  5
684
330
501
100
AcDbEntity
  8
DEFPOINTS
  6
CONTINUOUS
 62
     0
100
AcDbPoint
 10
221.2229379191777
 20
183.2885605372872
 30
0.0
  0
ENDBLK
  5
5A1
330
501
100
AcDbEntity
  8
0
100
AcDbBlockEnd
  0
BLOCK
  5
5A2
330
50D
100
AcDbEntity
  8
0
100
AcDbBlockBegin
  2
*D2
 70
     1
 10
0.0
 20
0.0
 30
0.0
  3
*D2
  1

  0
LINE
  5
697
330
50D
100
AcDbEntity
  8
SUNPOU
  6
CONTINUOUS
 62
     4
100
AcDbLine
 10
199.6262436879471
 20
126.2885605372871
 30
0.0
 11
199.6262436879471
 21
142.4583006548271
 31
0.0
  0
LINE
  5
698
330
50D
100
AcDbEntity
  8
SUNPOU
  6
CONTINUOUS
 62
     4
100
AcDbLine
 10
189.6262407219751
 20
109.9187570852392
 30
0.0
 11
189.6262407219751
 21
142.4583006548271
 31
0.0
  0
LINE
  5
699
330
50D
100
AcDbEntity
  8
SUNPOU
  6
CONTINUOUS
 62
     4
100
AcDbLine
 10
196.6262436879471
 20
140.9583006548271
 30
0.0
 11
192.6262407219751
 21
140.9583006548271
 31
0.0
  0
INSERT
  5
69A
330
50D
100
AcDbEntity
  8
SUNPOU
  6
CONTINUOUS
 62
     4
100
AcDbBlockReference
  2
_OPEN
 10
199.6262436879471
 20
140.9583006548271
 30
0.0
 41
3.0
 42
3.0
 43
3.0
  0
INSERT
  5
69B
330
50D
100
AcDbEntity
  8
SUNPOU
  6
CONTINUOUS
 62
     4
100
AcDbBlockReference
  2
_OPEN
 10
189.6262407219751
 20
140.9583006548271
 30
0.0
 41
3.0
 42
3.0
 43
3.0
 50
180.0
  0
MTEXT
  5
69C
330
50D
100
AcDbEntity
  8
SUNPOU
  6
CONTINUOUS
 62
     4
100
AcDbMText
 10
194.6262422049611
 20
143.4583006548271
 30
0.0
 40
3.0
 41
0.0
 71
     5
 72
     5
  1
\A1;10
1001
ACAD
1000
MTEXTBEGIN
1070
    73
1070
     1
1070
    44
1040
1.0
1070
    74
1070
     0
1000
MTEXTEND
1000
MTEXTBEGIN
1070
    73
1070
     1
1070
    44
1040
1.0
1070
    74
1070
     0
1000
MTEXTEND
  0
POINT
  5
69D
330
50D
100
AcDbEntity
  8
DEFPOINTS
  6
CONTINUOUS
 62
     0
100
AcDbPoint
 10
199.6262436879471
 20
123.2885605372871
 30
0.0
  0
POINT
  5
69E
330
50D
100
AcDbEntity
  8
DEFPOINTS
  6
CONTINUOUS
 62
     0
100
AcDbPoint
 10
189.6262407219751
 20
106.9187570852392
 30
0.0
  0
POINT
  5
69F
330
50D
100
AcDbEntity
  8
DEFPOINTS
  6
CONTINUOUS
 62
     0
100
AcDbPoint
 10
189.6262407219751
 20
140.9583006548271
 30
0.0
  0
ENDBLK
  5
5AE
330
50D
100
AcDbEntity
  8
0
100
AcDbBlockEnd
  0
BLOCK
  5
5AF
330
51B
100
AcDbEntity
  8
0
100
AcDbBlockBegin
  2
*D3
 70
     1
 10
0.0
 20
0.0
 30
0.0
  3
*D3
  1

  0
LINE
  5
673
330
51B
100
AcDbEntity
  8
SUNPOU
  6
CONTINUOUS
 62
     4
100
AcDbLine
 10
197.6262436879472
 20
128.2885605372872
 30
0.0
 11
222.8921390797415
 21
128.2885605372872
 31
0.0
  0
LINE
  5
674
330
51B
100
AcDbEntity
  8
SUNPOU
  6
CONTINUOUS
 62
     4
100
AcDbLine
 10
202.6262436879471
 20
83.28856053728728
 30
0.0
 11
222.8921390797415
 21
83.28856053728728
 31
0.0
  0
LINE
  5
675
330
51B
100
AcDbEntity
  8
SUNPOU
  6
CONTINUOUS
 62
     4
100
AcDbLine
 10
221.3921390797414
 20
125.2885605372872
 30
0.0
 11
221.3921390797414
 21
86.28856053728728
 31
0.0
  0
INSERT
  5
676
330
51B
100
AcDbEntity
  8
SUNPOU
  6
CONTINUOUS
 62
     4
100
AcDbBlockReference
  2
_OPEN
 10
221.3921390797414
 20
128.2885605372872
 30
0.0
 41
3.0
 42
3.0
 43
3.0
 50
90.0
  0
INSERT
  5
677
330
51B
100
AcDbEntity
  8
SUNPOU
  6
CONTINUOUS
 62
     4
100
AcDbBlockReference
  2
_OPEN
 10
221.3921390797414
 20
83.28856053728728
 30
0.0
 41
3.0
 42
3.0
 43
3.0
 50
270.0
  0
MTEXT
  5
678
330
51B
100
AcDbEntity
  8
SUNPOU
  6
CONTINUOUS
 62
     4
100
AcDbMText
 10
218.8921390797414
 20
105.7885605372873
 30
0.0
 40
3.0
 41
0.0
 71
     5
 72
     5
  1
\A1;45
 11
0.0000000000000001
 21
1.0
 31
0.0
1001
ACAD
1000
MTEXTBEGIN
1070
    73
1070
     1
1070
    44
1040
1.0
1070
    74
1070
     0
1000
MTEXTEND
1000
MTEXTBEGIN
1070
    73
1070
     1
1070
    44
1040
1.0
1070
    74
1070
     0
1000
MTEXTEND
  0
POINT
  5
679
330
51B
100
AcDbEntity
  8
DEFPOINTS
  6
CONTINUOUS
 62
     0
100
AcDbPoint
 10
194.6262436879472
 20
128.2885605372872
 30
0.0
  0
POINT
  5
67A
330
51B
100
AcDbEntity
  8
DEFPOINTS
  6
CONTINUOUS
 62
     0
100
AcDbPoint
 10
199.6262436879471
 20
83.28856053728728
 30
0.0
  0
POINT
  5
67B
330
51B
100
AcDbEntity
  8
DEFPOINTS
  6
CONTINUOUS
 62
     0
100
AcDbPoint
 10
221.3921390797414
 20
83.28856053728728
 30
0.0
  0
ENDBLK
  5
5B9
330
51B
100
AcDbEntity
  8
0
100
AcDbBlockEnd
  0
BLOCK
  5
5BA
330
527
100
AcDbEntity
  8
0
100
AcDbBlockBegin
  2
*D4
 70
     1
 10
0.0
 20
0.0
 30
0.0
  3
*D4
  1

  0
LINE
  5
668
330
527
100
AcDbEntity
  8
SUNPOU
  6
CONTINUOUS
 62
     4
100
AcDbLine
 10
198.426243687947
 20
80.28856053728729
 30
0.0
 11
198.426243687947
 21
67.84806277599821
 31
0.0
  0
LINE
  5
669
330
527
100
AcDbEntity
  8
SUNPOU
  6
CONTINUOUS
 62
     4
100
AcDbLine
 10
199.6262436879471
 20
80.28856053728729
 30
0.0
 11
199.6262436879471
 21
67.84806277599821
 31
0.0
  0
LINE
  5
66A
330
527
100
AcDbEntity
  8
SUNPOU
  6
CONTINUOUS
 62
     4
100
AcDbLine
 10
195.426243687947
 20
69.34806277599822
 30
0.0
 11
192.426243687947
 21
69.34806277599822
 31
0.0
  0
LINE
  5
66B
330
527
100
AcDbEntity
  8
SUNPOU
  6
CONTINUOUS
 62
     4
100
AcDbLine
 10
202.6262436879471
 20
69.34806277599822
 30
0.0
 11
215.6262436879471
 21
69.34806277599822
 31
0.0
  0
LINE
  5
66C
330
527
100
AcDbEntity
  8
SUNPOU
  6
CONTINUOUS
 62
     4
100
AcDbLine
 10
198.426243687947
 20
69.34806277599822
 30
0.0
 11
199.6262436879471
 21
69.34806277599822
 31
0.0
  0
INSERT
  5
66D
330
527
100
AcDbEntity
  8
SUNPOU
  6
CONTINUOUS
 62
     4
100
AcDbBlockReference
  2
_OPEN
 10
198.426243687947
 20
69.34806277599822
 30
0.0
 41
3.0
 42
3.0
 43
3.0
  0
INSERT
  5
66E
330
527
100
AcDbEntity
  8
SUNPOU
  6
CONTINUOUS
 62
     4
100
AcDbBlockReference
  2
_OPEN
 10
199.6262436879471
 20
69.34806277599822
 30
0.0
 41
3.0
 42
3.0
 43
3.0
 50
180.0
  0
MTEXT
  5
66F
330
527
100
AcDbEntity
  8
SUNPOU
  6
CONTINUOUS
 62
     4
100
AcDbMText
 10
210.6262436879471
 20
71.84806277599822
 30
0.0
 40
3.0
 41
0.0
 71
     5
 72
     5
  1
\A1;t1.2
1001
ACAD
1000
MTEXTBEGIN
1070
    73
1070
     1
1070
    44
1040
1.0
1070
    74
1070
     0
1000
MTEXTEND
1000
MTEXTBEGIN
1070
    73
1070
     1
1070
    44
1040
1.0
1070
    74
1070
     0
1000
MTEXTEND
  0
POINT
  5
670
330
527
100
AcDbEntity
  8
DEFPOINTS
  6
CONTINUOUS
 62
     0
100
AcDbPoint
 10
198.426243687947
 20
83.28856053728728
 30
0.0
  0
POINT
  5
671
330
527
100
AcDbEntity
  8
DEFPOINTS
  6
CONTINUOUS
 62
     0
100
AcDbPoint
 10
199.6262436879471
 20
83.28856053728728
 30
0.0
  0
POINT
  5
672
330
527
100
AcDbEntity
  8
DEFPOINTS
  6
CONTINUOUS
 62
     0
100
AcDbPoint
 10
199.6262436879471
 20
69.34806277599822
 30
0.0
  0
ENDBLK
  5
5C6
330
527
100
AcDbEntity
  8
0
100
AcDbBlockEnd
  0
BLOCK
  5
5C7
330
535
100
AcDbEntity
  8
0
100
AcDbBlockBegin
  2
*D5
 70
     1
 10
0.0
 20
0.0
 30
0.0
  3
*D5
  1

  0
LINE
  5
68E
330
535
100
AcDbEntity
  8
SUNPOU
  6
CONTINUOUS
 62
     4
100
AcDbLine
 10
195.426243687947
 20
83.28856053728728
 30
0.0
 11
86.93766386255935
 21
83.28856053728731
 31
0.0
  0
LINE
  5
68F
330
535
100
AcDbEntity
  8
SUNPOU
  6
CONTINUOUS
 62
     4
100
AcDbLine
 10
106.6262436879472
 20
114.2888605372872
 30
0.0
 11
86.93766386255935
 21
114.2888605372872
 31
0.0
  0
LINE
  5
690
330
535
100
AcDbEntity
  8
SUNPOU
  6
CONTINUOUS
 62
     4
100
AcDbLine
 10
88.43766386255934
 20
86.2885605372873
 30
0.0
 11
88.43766386255936
 21
111.2888605372872
 31
0.0
  0
INSERT
  5
691
330
535
100
AcDbEntity
  8
SUNPOU
  6
CONTINUOUS
 62
     4
100
AcDbBlockReference
  2
_OPEN
 10
88.43766386255934
 20
83.28856053728731
 30
0.0
 41
3.0
 42
3.0
 43
3.0
 50
270.0
  0
INSERT
  5
692
330
535
100
AcDbEntity
  8
SUNPOU
  6
CONTINUOUS
 62
     4
100
AcDbBlockReference
  2
_OPEN
 10
88.43766386255936
 20
114.2888605372872
 30
0.0
 41
3.0
 42
3.0
 43
3.0
 50
90.0
  0
MTEXT
  5
693
330
535
100
AcDbEntity
  8
SUNPOU
  6
CONTINUOUS
 62
     4
100
AcDbMText
 10
85.93766386255934
 20
98.7887105372873
 30
0.0
 40
3.0
 41
0.0
 71
     5
 72
     5
  1
\A1;31
 11
0.0000000000000001
 21
1.0
 31
0.0
1001
ACAD
1000
MTEXTBEGIN
1070
    73
1070
     1
1070
    44
1040
1.0
1070
    74
1070
     0
1000
MTEXTEND
1000
MTEXTBEGIN
1070
    73
1070
     1
1070
    44
1040
1.0
1070
    74
1070
     0
1000
MTEXTEND
  0
POINT
  5
694
330
535
100
AcDbEntity
  8
DEFPOINTS
  6
CONTINUOUS
 62
     0
100
AcDbPoint
 10
198.426243687947
 20
83.28856053728728
 30
0.0
  0
POINT
  5
695
330
535
100
AcDbEntity
  8
DEFPOINTS
  6
CONTINUOUS
 62
     0
100
AcDbPoint
 10
109.6262436879472
 20
114.2888605372872
 30
0.0
  0
POINT
  5
696
330
535
100
AcDbEntity
  8
DEFPOINTS
  6
CONTINUOUS
 62
     0
100
AcDbPoint
 10
88.43766386255936
 20
114.2888605372872
 30
0.0
  0
ENDBLK
  5
5D1
330
535
100
AcDbEntity
  8
0
100
AcDbBlockEnd
  0
BLOCK
  5
5D2
330
541
100
AcDbEntity
  8
0
100
AcDbBlockBegin
  2
*D6
 70
     1
 10
0.0
 20
0.0
 30
0.0
  3
*D6
  1

  0
LINE
  5
685
330
541
100
AcDbEntity
  8
SUNPOU
  6
CONTINUOUS
 62
     4
100
AcDbLine
 10
199.6262436879471
 20
126.2885605372871
 30
0.0
 11
199.6262436879471
 21
151.8604873252982
 31
0.0
  0
LINE
  5
686
330
541
100
AcDbEntity
  8
SUNPOU
  6
CONTINUOUS
 62
     4
100
AcDbLine
 10
104.0262436879472
 20
111.1888605372872
 30
0.0
 11
104.0262436879472
 21
151.8604873252982
 31
0.0
  0
LINE
  5
687
330
541
100
AcDbEntity
  8
SUNPOU
  6
CONTINUOUS
 62
     4
100
AcDbLine
 10
196.6262436879471
 20
150.3604873252982
 30
0.0
 11
107.0262436879472
 21
150.3604873252982
 31
0.0
  0
INSERT
  5
688
330
541
100
AcDbEntity
  8
SUNPOU
  6
CONTINUOUS
 62
     4
100
AcDbBlockReference
  2
_OPEN
 10
199.6262436879471
 20
150.3604873252982
 30
0.0
 41
3.0
 42
3.0
 43
3.0
  0
INSERT
  5
689
330
541
100
AcDbEntity
  8
SUNPOU
  6
CONTINUOUS
 62
     4
100
AcDbBlockReference
  2
_OPEN
 10
104.0262436879472
 20
150.3604873252982
 30
0.0
 41
3.0
 42
3.0
 43
3.0
 50
180.0
  0
MTEXT
  5
68A
330
541
100
AcDbEntity
  8
SUNPOU
  6
CONTINUOUS
 62
     4
100
AcDbMText
 10
151.8262436879471
 20
152.8604873252982
 30
0.0
 40
3.0
 41
0.0
 71
     5
 72
     5
  1
\A1;96
1001
ACAD
1000
MTEXTBEGIN
1070
    73
1070
     1
1070
    44
1040
1.0
1070
    74
1070
     0
1000
MTEXTEND
1000
MTEXTBEGIN
1070
    73
1070
     1
1070
    44
1040
1.0
1070
    74
1070
     0
1000
MTEXTEND
  0
POINT
  5
68B
330
541
100
AcDbEntity
  8
DEFPOINTS
  6
CONTINUOUS
 62
     0
100
AcDbPoint
 10
199.6262436879471
 20
123.2885605372871
 30
0.0
  0
POINT
  5
68C
330
541
100
AcDbEntity
  8
DEFPOINTS
  6
CONTINUOUS
 62
     0
100
AcDbPoint
 10
104.0262436879472
 20
108.1888605372872
 30
0.0
  0
POINT
  5
68D
330
541
100
AcDbEntity
  8
DEFPOINTS
  6
CONTINUOUS
 62
     0
100
AcDbPoint
 10
104.0262436879472
 20
150.3604873252982
 30
0.0
  0
ENDBLK
  5
5DC
330
541
100
AcDbEntity
  8
0
100
AcDbBlockEnd
  0
BLOCK
  5
5DD
330
54D
100
AcDbEntity
  8
0
100
AcDbBlockBegin
  2
*D7
 70
     1
 10
0.0
 20
0.0
 30
0.0
  3
*D7
  1

  0
LINE
  5
6A0
330
54D
100
AcDbEntity
  8
SUNPOU
  6
CONTINUOUS
 62
     4
100
AcDbLine
 10
102.0262436879472
 20
220.8386605372871
 30
0.0
 11
87.09164083803546
 21
220.8386605372871
 31
0.0
  0
LINE
  5
6A1
330
54D
100
AcDbEntity
  8
SUNPOU
  6
CONTINUOUS
 62
     4
100
AcDbLine
 10
102.0262436879472
 20
205.7386605372872
 30
0.0
 11
87.09164083803546
 21
205.7386605372872
 31
0.0
  0
LINE
  5
6A2
330
54D
100
AcDbEntity
  8
SUNPOU
  6
CONTINUOUS
 62
     4
100
AcDbLine
 10
88.59164083803547
 20
217.8386605372871
 30
0.0
 11
88.59164083803547
 21
208.7386605372873
 31
0.0
  0
INSERT
  5
6A3
330
54D
100
AcDbEntity
  8
SUNPOU
  6
CONTINUOUS
 62
     4
100
AcDbBlockReference
  2
_OPEN
 10
88.59164083803547
 20
220.8386605372871
 30
0.0
 41
3.0
 42
3.0
 43
3.0
 50
90.0
  0
INSERT
  5
6A4
330
54D
100
AcDbEntity
  8
SUNPOU
  6
CONTINUOUS
 62
     4
100
AcDbBlockReference
  2
_OPEN
 10
88.59164083803547
 20
205.7386605372872
 30
0.0
 41
3.0
 42
3.0
 43
3.0
 50
270.0
  0
MTEXT
  5
6A5
330
54D
100
AcDbEntity
  8
SUNPOU
  6
CONTINUOUS
 62
     4
100
AcDbMText
 10
86.09164083803543
 20
213.2886605372872
 30
0.0
 40
3.0
 41
0.0
 71
     5
 72
     5
  1
\A1;15
 11
0.0000000000000001
 21
1.0
 31
0.0
1001
ACAD
1000
MTEXTBEGIN
1070
    73
1070
     1
1070
    44
1040
1.0
1070
    74
1070
     0
1000
MTEXTEND
1000
MTEXTBEGIN
1070
    73
1070
     1
1070
    44
1040
1.0
1070
    74
1070
     0
1000
MTEXTEND
  0
POINT
  5
6A6
330
54D
100
AcDbEntity
  8
DEFPOINTS
  6
CONTINUOUS
 62
     0
100
AcDbPoint
 10
105.0262436879472
 20
220.8386605372871
 30
0.0
  0
POINT
  5
6A7
330
54D
100
AcDbEntity
  8
DEFPOINTS
  6
CONTINUOUS
 62
     0
100
AcDbPoint
 10
105.0262436879472
 20
205.7386605372872
 30
0.0
  0
POINT
  5
6A8
330
54D
100
AcDbEntity
  8
DEFPOINTS
  6
CONTINUOUS
 62
     0
100
AcDbPoint
 10
88.59164083803547
 20
205.7386605372872
 30
0.0
  0
ENDBLK
  5
5E7
330
54D
100
AcDbEntity
  8
0
100
AcDbBlockEnd
  0
BLOCK
  5
5E8
330
559
100
AcDbEntity
  8
0
100
AcDbBlockBegin
  2
*D8
 70
     1
 10
0.0
 20
0.0
 30
0.0
  3
*D8
  1

  0
LINE
  5
6C4
330
559
100
AcDbEntity
  8
SUNPOU
  6
CONTINUOUS
 62
     4
100
AcDbLine
 10
324.626243687947
 20
124.2885605372871
 30
0.0
 11
324.626243687947
 21
151.7276088359406
 31
0.0
  0
LINE
  5
6C5
330
559
100
AcDbEntity
  8
SUNPOU
  6
CONTINUOUS
 62
     4
100
AcDbLine
 10
264.6262436879471
 20
124.2885605372871
 30
0.0
 11
264.6262436879471
 21
151.7276088359406
 31
0.0
  0
LINE
  5
6C6
330
559
100
AcDbEntity
  8
SUNPOU
  6
CONTINUOUS
 62
     4
100
AcDbLine
 10
321.626243687947
 20
150.2276088359406
 30
0.0
 11
267.6262436879472
 21
150.2276088359406
 31
0.0
  0
INSERT
  5
6C7
330
559
100
AcDbEntity
  8
SUNPOU
  6
CONTINUOUS
 62
     4
100
AcDbBlockReference
  2
_OPEN
 10
324.626243687947
 20
150.2276088359406
 30
0.0
 41
3.0
 42
3.0
 43
3.0
  0
INSERT
  5
6C8
330
559
100
AcDbEntity
  8
SUNPOU
  6
CONTINUOUS
 62
     4
100
AcDbBlockReference
  2
_OPEN
 10
264.6262436879471
 20
150.2276088359406
 30
0.0
 41
3.0
 42
3.0
 43
3.0
 50
180.0
  0
MTEXT
  5
6C9
330
559
100
AcDbEntity
  8
SUNPOU
  6
CONTINUOUS
 62
     4
100
AcDbMText
 10
294.6262436879471
 20
152.7276088359406
 30
0.0
 40
3.0
 41
0.0
 71
     5
 72
     5
  1
\A1;60
1001
ACAD
1000
MTEXTBEGIN
1070
    73
1070
     1
1070
    44
1040
1.0
1070
    74
1070
     0
1000
MTEXTEND
1000
MTEXTBEGIN
1070
    73
1070
     1
1070
    44
1040
1.0
1070
    74
1070
     0
1000
MTEXTEND
  0
POINT
  5
6CA
330
559
100
AcDbEntity
  8
DEFPOINTS
  6
CONTINUOUS
 62
     0
100
AcDbPoint
 10
324.626243687947
 20
121.2885605372871
 30
0.0
  0
POINT
  5
6CB
330
559
100
AcDbEntity
  8
DEFPOINTS
  6
CONTINUOUS
 62
     0
100
AcDbPoint
 10
264.6262436879471
 20
121.2885605372871
 30
0.0
  0
POINT
  5
6CC
330
559
100
AcDbEntity
  8
DEFPOINTS
  6
CONTINUOUS
 62
     0
100
AcDbPoint
 10
264.6262436879471
 20
150.2276088359406
 30
0.0
  0
ENDBLK
  5
5F2
330
559
100
AcDbEntity
  8
0
100
AcDbBlockEnd
  0
BLOCK
  5
5F3
330
565
100
AcDbEntity
  8
0
100
AcDbBlockBegin
  2
*D9
 70
     1
 10
0.0
 20
0.0
 30
0.0
  3
*D9
  1

  0
LINE
  5
6BB
330
565
100
AcDbEntity
  8
SUNPOU
  6
CONTINUOUS
 62
     4
100
AcDbLine
 10
285.626243687947
 20
128.2885605372872
 30
0.0
 11
247.8495305739506
 21
128.2885605372872
 31
0.0
  0
LINE
  5
6BC
330
565
100
AcDbEntity
  8
SUNPOU
  6
CONTINUOUS
 62
     4
100
AcDbLine
 10
261.6262436879472
 20
115.2885605372871
 30
0.0
 11
247.8495305739506
 21
115.2885605372871
 31
0.0
  0
LINE
  5
6BD
330
565
100
AcDbEntity
  8
SUNPOU
  6
CONTINUOUS
 62
     4
100
AcDbLine
 10
249.3495305739505
 20
125.2885605372872
 30
0.0
 11
249.3495305739505
 21
118.2885605372871
 31
0.0
  0
INSERT
  5
6BE
330
565
100
AcDbEntity
  8
SUNPOU
  6
CONTINUOUS
 62
     4
100
AcDbBlockReference
  2
_OPEN
 10
249.3495305739505
 20
128.2885605372872
 30
0.0
 41
3.0
 42
3.0
 43
3.0
 50
90.0
  0
INSERT
  5
6BF
330
565
100
AcDbEntity
  8
SUNPOU
  6
CONTINUOUS
 62
     4
100
AcDbBlockReference
  2
_OPEN
 10
249.3495305739505
 20
115.2885605372871
 30
0.0
 41
3.0
 42
3.0
 43
3.0
 50
270.0
  0
MTEXT
  5
6C0
330
565
100
AcDbEntity
  8
SUNPOU
  6
CONTINUOUS
 62
     4
100
AcDbMText
 10
246.8495305739505
 20
121.7885605372872
 30
0.0
 40
3.0
 41
0.0
 71
     5
 72
     5
  1
\A1;13
 11
0.0000000000000001
 21
1.0
 31
0.0
1001
ACAD
1000
MTEXTBEGIN
1070
    73
1070
     1
1070
    44
1040
1.0
1070
    74
1070
     0
1000
MTEXTEND
1000
MTEXTBEGIN
1070
    73
1070
     1
1070
    44
1040
1.0
1070
    74
1070
     0
1000
MTEXTEND
  0
POINT
  5
6C1
330
565
100
AcDbEntity
  8
DEFPOINTS
  6
CONTINUOUS
 62
     0
100
AcDbPoint
 10
288.626243687947
 20
128.2885605372872
 30
0.0
  0
POINT
  5
6C2
330
565
100
AcDbEntity
  8
DEFPOINTS
  6
CONTINUOUS
 62
     0
100
AcDbPoint
 10
264.6262436879471
 20
115.2885605372871
 30
0.0
  0
POINT
  5
6C3
330
565
100
AcDbEntity
  8
DEFPOINTS
  6
CONTINUOUS
 62
     0
100
AcDbPoint
 10
249.3495305739505
 20
115.2885605372871
 30
0.0
  0
ENDBLK
  5
5FD
330
565
100
AcDbEntity
  8
0
100
AcDbBlockEnd
  0
BLOCK
  5
5FE
330
571
100
AcDbEntity
  8
0
100
AcDbBlockBegin
  2
*D10
 70
     1
 10
0.0
 20
0.0
 30
0.0
  3
*D10
  1

  0
LINE
  5
6B2
330
571
100
AcDbEntity
  8
SUNPOU
  6
CONTINUOUS
 62
     4
100
AcDbLine
 10
285.626243687947
 20
128.2885605372872
 30
0.0
 11
237.8703311287314
 21
128.2885605372872
 31
0.0
  0
LINE
  5
6B3
330
571
100
AcDbEntity
  8
SUNPOU
  6
CONTINUOUS
 62
     4
100
AcDbLine
 10
285.626243687947
 20
83.28856053728729
 30
0.0
 11
237.8703311287314
 21
83.28856053728729
 31
0.0
  0
LINE
  5
6B4
330
571
100
AcDbEntity
  8
SUNPOU
  6
CONTINUOUS
 62
     4
100
AcDbLine
 10
239.3703311287314
 20
125.2885605372872
 30
0.0
 11
239.3703311287314
 21
86.2885605372873
 31
0.0
  0
INSERT
  5
6B5
330
571
100
AcDbEntity
  8
SUNPOU
  6
CONTINUOUS
 62
     4
100
AcDbBlockReference
  2
_OPEN
 10
239.3703311287314
 20
128.2885605372872
 30
0.0
 41
3.0
 42
3.0
 43
3.0
 50
90.0
  0
INSERT
  5
6B6
330
571
100
AcDbEntity
  8
SUNPOU
  6
CONTINUOUS
 62
     4
100
AcDbBlockReference
  2
_OPEN
 10
239.3703311287314
 20
83.28856053728729
 30
0.0
 41
3.0
 42
3.0
 43
3.0
 50
270.0
  0
MTEXT
  5
6B7
330
571
100
AcDbEntity
  8
SUNPOU
  6
CONTINUOUS
 62
     4
100
AcDbMText
 10
236.8703311287314
 20
105.7885605372873
 30
0.0
 40
3.0
 41
0.0
 71
     5
 72
     5
  1
\A1;45
 11
0.0000000000000001
 21
1.0
 31
0.0
1001
ACAD
1000
MTEXTBEGIN
1070
    73
1070
     1
1070
    44
1040
1.0
1070
    74
1070
     0
1000
MTEXTEND
1000
MTEXTBEGIN
1070
    73
1070
     1
1070
    44
1040
1.0
1070
    74
1070
     0
1000
MTEXTEND
  0
POINT
  5
6B8
330
571
100
AcDbEntity
  8
DEFPOINTS
  6
CONTINUOUS
 62
     0
100
AcDbPoint
 10
288.626243687947
 20
128.2885605372872
 30
0.0
  0
POINT
  5
6B9
330
571
100
AcDbEntity
  8
DEFPOINTS
  6
CONTINUOUS
 62
     0
100
AcDbPoint
 10
288.626243687947
 20
83.28856053728728
 30
0.0
  0
POINT
  5
6BA
330
571
100
AcDbEntity
  8
DEFPOINTS
  6
CONTINUOUS
 62
     0
100
AcDbPoint
 10
239.3703311287314
 20
83.28856053728729
 30
0.0
  0
ENDBLK
  5
608
330
571
100
AcDbEntity
  8
0
100
AcDbBlockEnd
  0
BLOCK
  5
609
330
57D
100
AcDbEntity
  8
0
100
AcDbBlockBegin
  2
*D11
 70
     1
 10
0.0
 20
0.0
 30
0.0
  3
*D11
  1

  0
LINE
  5
6CD
330
57D
100
AcDbEntity
  8
SUNPOU
  6
CONTINUOUS
 62
     4
100
AcDbLine
 10
285.626243687947
 20
88.2885605372874
 30
0.0
 11
277.8504671597867
 21
88.2885605372874
 31
0.0
  0
LINE
  5
6CE
330
57D
100
AcDbEntity
  8
SUNPOU
  6
CONTINUOUS
 62
     4
100
AcDbLine
 10
285.626243687947
 20
83.28856053728729
 30
0.0
 11
277.8504671597867
 21
83.28856053728729
 31
0.0
  0
LINE
  5
6CF
330
57D
100
AcDbEntity
  8
SUNPOU
  6
CONTINUOUS
 62
     4
100
AcDbLine
 10
279.3504671597867
 20
91.28856053728741
 30
0.0
 11
279.3504671597867
 21
94.28856053728742
 31
0.0
  0
LINE
  5
6D0
330
57D
100
AcDbEntity
  8
SUNPOU
  6
CONTINUOUS
 62
     4
100
AcDbLine
 10
279.3504671597867
 20
80.28856053728729
 30
0.0
 11
279.3504671597867
 21
77.2885605372873
 31
0.0
  0
LINE
  5
6D1
330
57D
100
AcDbEntity
  8
SUNPOU
  6
CONTINUOUS
 62
     4
100
AcDbLine
 10
279.3504671597867
 20
88.2885605372874
 30
0.0
 11
279.3504671597867
 21
83.28856053728729
 31
0.0
  0
INSERT
  5
6D2
330
57D
100
AcDbEntity
  8
SUNPOU
  6
CONTINUOUS
 62
     4
100
AcDbBlockReference
  2
_OPEN
 10
279.3504671597867
 20
88.2885605372874
 30
0.0
 41
3.0
 42
3.0
 43
3.0
 50
270.0
  0
INSERT
  5
6D3
330
57D
100
AcDbEntity
  8
SUNPOU
  6
CONTINUOUS
 62
     4
100
AcDbBlockReference
  2
_OPEN
 10
279.3504671597867
 20
83.28856053728729
 30
0.0
 41
3.0
 42
3.0
 43
3.0
 50
90.0
  0
MTEXT
  5
6D4
330
57D
100
AcDbEntity
  8
SUNPOU
  6
CONTINUOUS
 62
     4
100
AcDbMText
 10
276.8504671597867
 20
85.7885605372874
 30
0.0
 40
3.0
 41
0.0
 71
     5
 72
     5
  1
\A1;5
 11
0.0000000000000001
 21
1.0
 31
0.0
1001
ACAD
1000
MTEXTBEGIN
1070
    73
1070
     1
1070
    44
1040
1.0
1070
    74
1070
     0
1000
MTEXTEND
1000
MTEXTBEGIN
1070
    73
1070
     1
1070
    44
1040
1.0
1070
    74
1070
     0
1000
MTEXTEND
  0
POINT
  5
6D5
330
57D
100
AcDbEntity
  8
DEFPOINTS
  6
CONTINUOUS
 62
     0
100
AcDbPoint
 10
288.626243687947
 20
88.2885605372874
 30
0.0
  0
POINT
  5
6D6
330
57D
100
AcDbEntity
  8
DEFPOINTS
  6
CONTINUOUS
 62
     0
100
AcDbPoint
 10
288.626243687947
 20
83.28856053728728
 30
0.0
  0
POINT
  5
6D7
330
57D
100
AcDbEntity
  8
DEFPOINTS
  6
CONTINUOUS
 62
     0
100
AcDbPoint
 10
279.3504671597867
 20
83.28856053728729
 30
0.0
  0
ENDBLK
  5
615
330
57D
100
AcDbEntity
  8
0
100
AcDbBlockEnd
  0
BLOCK
  5
616
330
58B
100
AcDbEntity
  8
0
100
AcDbBlockBegin
  2
*D12
 70
     1
 10
0.0
 20
0.0
 30
0.0
  3
*D12
  1

  0
LINE
  5
6A9
330
58B
100
AcDbEntity
  8
SUNPOU
  6
CONTINUOUS
 62
     4
100
AcDbLine
 10
319.6262436879472
 20
124.2885605372871
 30
0.0
 11
319.6262436879472
 21
142.3671339421914
 31
0.0
  0
LINE
  5
6AA
330
58B
100
AcDbEntity
  8
SUNPOU
  6
CONTINUOUS
 62
     4
100
AcDbLine
 10
269.6262436879471
 20
124.2885605372871
 30
0.0
 11
269.6262436879471
 21
142.3671339421914
 31
0.0
  0
LINE
  5
6AB
330
58B
100
AcDbEntity
  8
SUNPOU
  6
CONTINUOUS
 62
     4
100
AcDbLine
 10
316.6262436879473
 20
140.8671339421914
 30
0.0
 11
272.6262436879471
 21
140.8671339421914
 31
0.0
  0
INSERT
  5
6AC
330
58B
100
AcDbEntity
  8
SUNPOU
  6
CONTINUOUS
 62
     4
100
AcDbBlockReference
  2
_OPEN
 10
319.6262436879472
 20
140.8671339421914
 30
0.0
 41
3.0
 42
3.0
 43
3.0
  0
INSERT
  5
6AD
330
58B
100
AcDbEntity
  8
SUNPOU
  6
CONTINUOUS
 62
     4
100
AcDbBlockReference
  2
_OPEN
 10
269.6262436879471
 20
140.8671339421914
 30
0.0
 41
3.0
 42
3.0
 43
3.0
 50
180.0
  0
MTEXT
  5
6AE
330
58B
100
AcDbEntity
  8
SUNPOU
  6
CONTINUOUS
 62
     4
100
AcDbMText
 10
294.6262436879472
 20
143.3671339421914
 30
0.0
 40
3.0
 41
0.0
 71
     5
 72
     5
  1
\A1;50
1001
ACAD
1000
MTEXTBEGIN
1070
    73
1070
     1
1070
    44
1040
1.0
1070
    74
1070
     0
1000
MTEXTEND
1000
MTEXTBEGIN
1070
    73
1070
     1
1070
    44
1040
1.0
1070
    74
1070
     0
1000
MTEXTEND
  0
POINT
  5
6AF
330
58B
100
AcDbEntity
  8
DEFPOINTS
  6
CONTINUOUS
 62
     0
100
AcDbPoint
 10
319.6262436879472
 20
121.2885605372871
 30
0.0
  0
POINT
  5
6B0
330
58B
100
AcDbEntity
  8
DEFPOINTS
  6
CONTINUOUS
 62
     0
100
AcDbPoint
 10
269.6262436879471
 20
121.2885605372871
 30
0.0
  0
POINT
  5
6B1
330
58B
100
AcDbEntity
  8
DEFPOINTS
  6
CONTINUOUS
 62
     0
100
AcDbPoint
 10
269.6262436879471
 20
140.8671339421914
 30
0.0
  0
ENDBLK
  5
620
330
58B
100
AcDbEntity
  8
0
100
AcDbBlockEnd
  0
ENDSEC
  0
SECTION
  2
ENTITIES
  0
POINT
  5
1A1
330
1A
100
AcDbEntity
  8
SUNPOU_L
  6
CONTINUOUS
100
AcDbPoint
 10
205.9553251990115
 20
146.5650665787895
 30
0.0
  0
POINT
  5
1A2
330
1A
100
AcDbEntity
  8
SUNPOU_L
  6
CONTINUOUS
100
AcDbPoint
 10
205.4553267650654
 20
145.6990402718312
 30
0.0
  0
ARC
  5
3F0
330
1A
100
AcDbEntity
  8
SEIHIN
 62
     3
 48
16.0
100
AcDbCircle
 10
194.6262436879471
 20
123.2885605372872
 30
0.0
 40
4.999999999999985
100
AcDbArc
 50
359.9999999999988
 51
89.99999999999884
  0
LINE
  5
3F1
330
1A
100
AcDbEntity
  8
CENTER_L
  6
CENTER
 62
     1
 48
5.0
100
AcDbLine
 10
209.1577436879471
 20
213.2885605372871
 30
0.0
 11
94.47174368794719
 21
213.2886605372871
 31
0.0
  0
ARC
  5
3F2
330
1A
100
AcDbEntity
  8
SEIHIN
 62
     3
 48
16.0
100
AcDbCircle
 10
198.6262436879471
 20
205.7385448706205
 30
0.0
 40
0.9999999999999431
100
AcDbArc
 50
0.0000000000032569
 51
90.00000000000325
  0
ARC
  5
3F3
330
1A
100
AcDbEntity
  8
SEIHIN
 62
     3
 48
16.0
100
AcDbCircle
 10
198.6263436879472
 20
220.8386448706206
 30
0.0
 40
1.0
100
AcDbArc
 50
270.0
 51
0.0
  0
DIMENSION
  5
3F4
330
1A
100
AcDbEntity
  8
SUNPOU
  6
CONTINUOUS
 62
     4
100
AcDbDimension
  2
*D1
 10
221.2229379191777
 20
183.2885605372872
 30
0.0
 11
218.7229379191777
 21
213.2885605372873
 31
0.0
 70
    32
  3
STANDARD
100
AcDbAlignedDimension
 13
199.6263436879472
 23
243.2885605372872
 33
0.0
 14
199.6262436879471
 24
183.2885605372872
 34
0.0
 50
90.0
100
AcDbRotatedDimension
1001
ACAD
1000
DSTYLE
1002
{
1070
   140
1040
3.0
1070
    74
1070
     0
1070
   172
1070
     1
1070
    73
1070
     0
1070
   272
1070
     2
1070
    77
1070
     3
1070
   173
1070
     1
1070
   147
1040
1.0
1070
    42
1040
3.0
1070
    44
1040
1.5
1070
    43
1040
7.0
1070
   271
1070
     0
1070
   178
1070
     4
1070
   177
1070
     4
1070
   176
1070
     4
1070
   141
1040
150.0
1070
     7
1000
_OPEN
1070
     6
1000
_OPEN
1070
    41
1040
3.0
1002
}
  0
DIMENSION
  5
3F5
330
1A
100
AcDbEntity
  8
SUNPOU
  6
CONTINUOUS
 62
     4
100
AcDbDimension
  2
*D2
 10
189.6262407219751
 20
140.9583006548271
 30
0.0
 11
194.6262422049611
 21
143.4583006548271
 31
0.0
 70
    32
  3
STANDARD
100
AcDbAlignedDimension
 13
199.6262436879471
 23
123.2885605372871
 33
0.0
 14
189.6262407219751
 24
106.9187570852392
 34
0.0
100
AcDbRotatedDimension
1001
ACAD
1000
DSTYLE
1002
{
1070
   140
1040
3.0
1070
    74
1070
     0
1070
   172
1070
     1
1070
    73
1070
     0
1070
   272
1070
     2
1070
    77
1070
     3
1070
   173
1070
     1
1070
   147
1040
1.0
1070
    42
1040
3.0
1070
    44
1040
1.5
1070
    43
1040
7.0
1070
   271
1070
     0
1070
   178
1070
     4
1070
   177
1070
     4
1070
   176
1070
     4
1070
   141
1040
150.0
1070
     7
1000
_OPEN
1070
     6
1000
_OPEN
1070
    41
1040
3.0
1002
}
  0
DIMENSION
  5
3F6
330
1A
100
AcDbEntity
  8
SUNPOU
  6
CONTINUOUS
 62
     4
100
AcDbDimension
  2
*D3
 10
221.3921390797414
 20
83.28856053728728
 30
0.0
 11
218.8921390797414
 21
105.7885605372873
 31
0.0
 70
    32
  3
STANDARD
100
AcDbAlignedDimension
 13
194.6262436879472
 23
128.2885605372872
 33
0.0
 14
199.6262436879471
 24
83.28856053728728
 34
0.0
 50
90.0
100
AcDbRotatedDimension
1001
ACAD
1000
DSTYLE
1002
{
1070
   140
1040
3.0
1070
    74
1070
     0
1070
   172
1070
     1
1070
    73
1070
     0
1070
   272
1070
     2
1070
    77
1070
     3
1070
   173
1070
     1
1070
   147
1040
1.0
1070
    42
1040
3.0
1070
    44
1040
1.5
1070
    43
1040
7.0
1070
   271
1070
     0
1070
   178
1070
     4
1070
   177
1070
     4
1070
   176
1070
     4
1070
   141
1040
150.0
1070
     7
1000
_OPEN
1070
     6
1000
_OPEN
1070
    41
1040
3.0
1002
}
  0
DIMENSION
  5
3F7
330
1A
100
AcDbEntity
  8
SUNPOU
  6
CONTINUOUS
 62
     4
100
AcDbDimension
  2
*D4
 10
199.6262436879471
 20
69.34806277599822
 30
0.0
 11
210.6262436879471
 21
71.84806277599822
 31
0.0
 70
    32
  1
t<>
  3
STANDARD
100
AcDbAlignedDimension
 13
198.426243687947
 23
83.28856053728728
 33
0.0
 14
199.6262436879471
 24
83.28856053728728
 34
0.0
100
AcDbRotatedDimension
1001
ACAD
1000
DSTYLE
1002
{
1070
   140
1040
3.0
1070
    74
1070
     0
1070
   172
1070
     1
1070
    73
1070
     0
1070
   272
1070
     2
1070
    77
1070
     3
1070
   173
1070
     1
1070
   147
1040
1.0
1070
    42
1040
3.0
1070
    44
1040
1.5
1070
    43
1040
7.0
1070
   271
1070
     1
1070
   178
1070
     4
1070
   177
1070
     4
1070
   176
1070
     4
1070
   141
1040
150.0
1070
     7
1000
_OPEN
1070
     6
1000
_OPEN
1070
    41
1040
3.0
1002
}
  0
LINE
  5
3F8
330
1A
100
AcDbEntity
  8
CENTER_L
  6
CENTER
 62
     1
 48
5.0
100
AcDbLine
 10
195.4609436879471
 20
88.28856053728717
 30
0.0
 11
206.6262436879471
 21
88.28856053728717
 31
0.0
  0
LINE
  5
3F9
330
1A
100
AcDbEntity
  8
CENTER_L
  6
CENTER
 62
     1
 48
5.0
100
AcDbLine
 10
194.4081436879471
 20
115.2885605372871
 30
0.0
 11
206.6262436879471
 21
115.2885605372871
 31
0.0
  0
LINE
  5
3FA
330
1A
100
AcDbEntity
  8
CENTER_L
  6
CENTER
 62
     1
 48
5.0
100
AcDbLine
 10
206.6262436879471
 20
188.2885605372871
 30
0.0
 11
194.952043687947
 21
188.2885605372871
 31
0.0
  0
LINE
  5
3FB
330
1A
100
AcDbEntity
  8
CENTER_L
  6
CENTER
 62
     1
 48
5.0
100
AcDbLine
 10
206.6263270213194
 20
238.2885605372871
 30
0.0
 11
194.9521436879472
 21
238.2885605372871
 31
0.0
  0
LINE
  5
3FC
330
1A
100
AcDbEntity
  8
CENTER_L
  6
CENTER
 62
     1
 48
5.0
100
AcDbLine
 10
147.1262407219751
 20
75.1188570852394
 30
0.0
 11
147.1262407219751
 21
59.91885708523941
 31
0.0
  0
LINE
  5
3FD
330
1A
100
AcDbEntity
  8
SEIHIN
 62
     3
 48
16.0
100
AcDbLine
 10
128.7885436879471
 20
105.2888605372872
 30
0.0
 11
147.1262436879472
 21
105.2887605372872
 31
0.0
  0
LINE
  5
3FE
330
1A
100
AcDbEntity
  8
SEIHIN
 62
     3
 48
16.0
100
AcDbLine
 10
125.4218436879472
 20
101.2888605372872
 30
0.0
 11
147.1262436879472
 21
101.2887605372872
 31
0.0
  0
DIMENSION
  5
3FF
330
1A
100
AcDbEntity
  8
SUNPOU
  6
CONTINUOUS
 62
     4
100
AcDbDimension
  2
*D5
 10
88.43766386255936
 20
114.2888605372872
 30
0.0
 11
85.93766386255934
 21
98.7887105372873
 31
0.0
 70
    32
  3
STANDARD
100
AcDbAlignedDimension
 13
198.426243687947
 23
83.28856053728728
 33
0.0
 14
109.6262436879472
 24
114.2888605372872
 34
0.0
 50
90.0
100
AcDbRotatedDimension
1001
ACAD
1000
DSTYLE
1002
{
1070
   140
1040
3.0
1070
    74
1070
     0
1070
   172
1070
     1
1070
    73
1070
     0
1070
   272
1070
     2
1070
    77
1070
     3
1070
   173
1070
     1
1070
   147
1040
1.0
1070
    42
1040
3.0
1070
    44
1040
1.5
1070
    43
1040
7.0
1070
   271
1070
     0
1070
   178
1070
     4
1070
   177
1070
     4
1070
   176
1070
     4
1070
   141
1040
150.0
1070
     7
1000
_OPEN
1070
     6
1000
_OPEN
1070
    41
1040
3.0
1002
}
  0
DIMENSION
  5
400
330
1A
100
AcDbEntity
  8
SUNPOU
  6
CONTINUOUS
 62
     4
100
AcDbDimension
  2
*D6
 10
104.0262436879472
 20
150.3604873252982
 30
0.0
 11
151.8262436879471
 21
152.8604873252982
 31
0.0
 70
    32
  3
STANDARD
100
AcDbAlignedDimension
 13
199.6262436879471
 23
123.2885605372871
 33
0.0
 14
104.0262436879472
 24
108.1888605372872
 34
0.0
100
AcDbRotatedDimension
1001
ACAD
1000
DSTYLE
1002
{
1070
   140
1040
3.0
1070
    74
1070
     0
1070
   172
1070
     1
1070
    73
1070
     0
1070
   272
1070
     2
1070
    77
1070
     3
1070
   173
1070
     1
1070
   147
1040
1.0
1070
    42
1040
3.0
1070
    44
1040
1.5
1070
    43
1040
7.0
1070
   271
1070
     0
1070
   178
1070
     4
1070
   177
1070
     4
1070
   176
1070
     4
1070
   141
1040
150.0
1070
     7
1000
_OPEN
1070
     6
1000
_OPEN
1070
    41
1040
3.0
1002
}
  0
LINE
  5
401
330
1A
100
AcDbEntity
  8
NOKITOI
  6
PHANTOM
 62
     8
 48
5.0
100
AcDbLine
 10
122.8262407219751
 20
66.9188570852394
 30
0.0
 11
147.1262407219751
 21
66.9188570852394
 31
0.0
  0
LINE
  5
402
330
1A
100
AcDbEntity
  8
NOKITOI
  6
PHANTOM
 62
     8
 48
5.0
100
AcDbLine
 10
147.1262407219751
 20
68.1188570852394
 30
0.0
 11
127.6262407219751
 21
68.1188570852394
 31
0.0
  0
LINE
  5
403
330
1A
100
AcDbEntity
  8
SEIHIN
 62
     3
 48
16.0
100
AcDbLine
 10
125.2217436879472
 20
109.5023605372872
 30
0.0
 11
125.9424436879472
 21
107.3401605372871
 31
0.0
  0
ARC
  5
404
330
1A
100
AcDbEntity
  8
SEIHIN
 62
     3
 48
16.0
100
AcDbCircle
 10
118.4638925803104
 20
106.1888973744061
 30
0.0
 40
2.999963163316432
100
AcDbArc
 50
18.4327647962193
 51
89.99902390405233
  0
LINE
  5
405
330
1A
100
AcDbEntity
  8
SEIHIN
 62
     3
 48
16.0
100
AcDbLine
 10
113.6262436879471
 20
109.1888605372872
 30
0.0
 11
113.6262436879471
 21
99.03166053728719
 31
0.0
  0
LINE
  5
406
330
1A
100
AcDbEntity
  8
SEIHIN
 62
     3
 48
16.0
100
AcDbLine
 10
113.1262436879471
 20
109.1888605372872
 30
0.0
 11
113.1262436879471
 21
99.03166053728719
 31
0.0
  0
LINE
  5
407
330
1A
100
AcDbEntity
  8
SEIHIN
 62
     3
 48
16.0
100
AcDbLine
 10
112.6262436879471
 20
109.1888605372872
 30
0.0
 11
112.6262436879471
 21
99.32826053728726
 31
0.0
  0
ARC
  5
408
330
1A
100
AcDbEntity
  8
SEIHIN
 62
     3
 48
16.0
100
AcDbCircle
 10
105.6262436879471
 20
108.1888605372872
 30
0.0
 40
1.0
100
AcDbArc
 50
90.0
 51
180.0
  0
ARC
  5
409
330
1A
100
AcDbEntity
  8
SEIHIN
 62
     3
 48
16.0
100
AcDbCircle
 10
105.6262289893746
 20
108.1888300111842
 30
0.0
 40
1.59998530171863
100
AcDbArc
 50
128.5765029246842
 51
179.9989068544157
  0
LINE
  5
40A
330
1A
100
AcDbEntity
  8
SEIHIN
 62
     3
 48
16.0
100
AcDbLine
 10
104.6262436879471
 20
100.1888605372873
 30
0.0
 11
104.6262436879471
 21
109.2888605372872
 31
0.0
  0
LINE
  5
40B
330
1A
100
AcDbEntity
  8
NOKITOI
  6
PHANTOM
 62
     8
 48
5.0
100
AcDbLine
 10
109.524740721975
 20
106.9188570852394
 30
0.0
 11
115.758840721975
 21
76.37145708523931
 31
0.0
  0
LINE
  5
40C
330
1A
100
AcDbEntity
  8
NOKITOI
  6
PHANTOM
 62
     8
 48
5.0
100
AcDbLine
 10
109.7263407219751
 20
99.91885708523941
 30
0.0
 11
114.7262407219751
 21
75.41885708523941
 31
0.0
  0
ARC
  5
40D
330
1A
100
AcDbEntity
  8
NOKITOI
  6
PHANTOM
 62
     8
 48
5.0
100
AcDbCircle
 10
112.0418989349989
 20
64.7514810801284
 30
0.0
 40
12.19997945109428
100
AcDbArc
 50
48.00719042627341
 51
72.26181654227993
  0
ARC
  5
40E
330
1A
100
AcDbEntity
  8
NOKITOI
  6
PHANTOM
 62
     8
 48
5.0
100
AcDbCircle
 10
112.041936609105
 20
64.75146140121021
 30
0.0
 40
10.99994632941524
100
AcDbArc
 50
11.36374015671925
 51
75.87555169639184
  0
LINE
  5
40F
330
1A
100
AcDbEntity
  8
NOKITOI
  6
PHANTOM
 62
     8
 48
5.0
100
AcDbLine
 10
127.6262407219751
 20
68.1188570852394
 30
0.0
 11
127.6262407219751
 21
73.81885708523933
 31
0.0
  0
LINE
  5
410
330
1A
100
AcDbEntity
  8
NOKITOI
  6
PHANTOM
 62
     8
 48
5.0
100
AcDbLine
 10
121.366240721975
 20
72.61885708523934
 30
0.0
 11
126.4262407219749
 21
72.61885708523934
 31
0.0
  0
LINE
  5
411
330
1A
100
AcDbEntity
  8
NOKITOI
  6
PHANTOM
 62
     8
 48
5.0
100
AcDbLine
 10
126.4262407219749
 20
68.1188570852394
 30
0.0
 11
123.767940721975
 21
68.1188570852394
 31
0.0
  0
ARC
  5
412
330
1A
100
AcDbEntity
  8
NOKITOI
  6
PHANTOM
 62
     8
 48
5.0
100
AcDbCircle
 10
112.0419363608496
 20
64.75146525654711
 30
0.0
 40
12.19993877054614
100
AcDbArc
 50
16.02263637925393
 51
40.15603560521631
  0
LINE
  5
413
330
1A
100
AcDbEntity
  8
NOKITOI
  6
PHANTOM
 62
     8
 48
5.0
100
AcDbLine
 10
126.4262407219749
 20
68.1188570852394
 30
0.0
 11
126.4262407219749
 21
72.61885708523934
 31
0.0
  0
LINE
  5
414
330
1A
100
AcDbEntity
  8
NOKITOI
  6
PHANTOM
 62
     8
 48
5.0
100
AcDbLine
 10
120.2041407219751
 20
73.81885708523933
 30
0.0
 11
127.6262407219751
 21
73.81885708523933
 31
0.0
  0
LINE
  5
415
330
1A
100
AcDbEntity
  8
SEIHIN
 62
     3
 48
16.0
100
AcDbLine
 10
114.1055436879472
 20
98.45066053728729
 30
0.0
 11
122.6581436879472
 21
103.1216605372872
 31
0.0
  0
LINE
  5
416
330
1A
100
AcDbEntity
  8
SEIHIN
 62
     3
 48
16.0
100
AcDbLine
 10
114.6055436879472
 20
98.15396053728726
 30
0.0
 11
122.8904436879472
 21
102.6787605372872
 31
0.0
  0
LINE
  5
417
330
1A
100
AcDbEntity
  8
NOKITOI
  6
PHANTOM
 62
     8
 48
5.0
100
AcDbLine
 10
104.626340721975
 20
106.9188570852394
 30
0.0
 11
109.524740721975
 21
106.9188570852394
 31
0.0
  0
LINE
  5
418
330
1A
100
AcDbEntity
  8
NOKITOI
  6
PHANTOM
 62
     8
 48
5.0
100
AcDbLine
 10
109.4813407219751
 20
101.1188570852393
 30
0.0
 11
105.826340721975
 21
101.1188570852393
 31
0.0
  0
LINE
  5
419
330
1A
100
AcDbEntity
  8
SEIHIN
 62
     3
 48
16.0
100
AcDbLine
 10
109.4262436879471
 20
99.1888605372873
 30
0.0
 11
105.6262436879471
 21
99.1888605372873
 31
0.0
  0
LINE
  5
41A
330
1A
100
AcDbEntity
  8
SEIHIN
 62
     3
 48
16.0
100
AcDbLine
 10
109.4262436879471
 20
98.58886053728728
 30
0.0
 11
105.6262436879471
 21
98.58886053728728
 31
0.0
  0
LINE
  5
41B
330
1A
100
AcDbEntity
  8
NOKITOI
  6
PHANTOM
 62
     8
 48
5.0
100
AcDbLine
 10
108.5426407219749
 20
105.7188570852394
 30
0.0
 11
109.4813407219751
 21
101.1188570852393
 31
0.0
  0
LINE
  5
41C
330
1A
100
AcDbEntity
  8
NOKITOI
  6
PHANTOM
 62
     8
 48
5.0
100
AcDbLine
 10
104.6262407219751
 20
99.91885708523941
 30
0.0
 11
109.7263407219751
 21
99.91885708523941
 31
0.0
  0
LINE
  5
41D
330
1A
100
AcDbEntity
  8
NOKITOI
  6
PHANTOM
 62
     8
 48
5.0
100
AcDbLine
 10
105.826340721975
 20
105.7188570852394
 30
0.0
 11
105.826340721975
 21
101.1188570852393
 31
0.0
  0
LINE
  5
41E
330
1A
100
AcDbEntity
  8
NOKITOI
  6
PHANTOM
 62
     8
 48
5.0
100
AcDbLine
 10
104.6262407219751
 20
99.91885708523941
 30
0.0
 11
104.626340721975
 21
106.9188570852394
 31
0.0
  0
LINE
  5
41F
330
1A
100
AcDbEntity
  8
SEIHIN
 62
     3
 48
16.0
100
AcDbLine
 10
104.0262436879472
 20
100.1888605372873
 30
0.0
 11
104.0262436879472
 21
108.1888605372872
 31
0.0
  0
ARC
  5
420
330
1A
100
AcDbEntity
  8
SEIHIN
 62
     3
 48
16.0
100
AcDbCircle
 10
105.6262436879471
 20
100.1888605372873
 30
0.0
 40
1.0
100
AcDbArc
 50
180.0
 51
270.0
  0
ARC
  5
421
330
1A
100
AcDbEntity
  8
SEIHIN
 62
     3
 48
16.0
100
AcDbCircle
 10
105.6262436879472
 20
100.1888605372872
 30
0.0
 40
1.599999999999965
100
AcDbArc
 50
179.9999999999979
 51
269.9999999999979
  0
LINE
  5
422
330
1A
100
AcDbEntity
  8
NOKITOI
  6
PHANTOM
 62
     8
 48
5.0
100
AcDbLine
 10
108.5426407219749
 20
105.7188570852394
 30
0.0
 11
105.826340721975
 21
105.7188570852394
 31
0.0
  0
ARC
  5
423
330
1A
100
AcDbEntity
  8
SEIHIN
 62
     3
 48
16.0
100
AcDbCircle
 10
114.1262643720915
 20
99.03164826340512
 30
0.0
 40
0.5000206842949451
100
AcDbArc
 50
179.9985935749023
 51
298.6291714612406
  0
ARC
  5
424
330
1A
100
AcDbEntity
  8
SEIHIN
 62
     3
 48
16.0
100
AcDbCircle
 10
114.1262651324873
 20
99.03164781415657
 30
0.0
 40
1.000021444621075
100
AcDbArc
 50
179.9992710339463
 51
298.6376229809406
  0
ARC
  5
425
330
1A
100
AcDbEntity
  8
SEIHIN
 62
     3
 48
16.0
100
AcDbCircle
 10
113.6262477704304
 20
99.32825533200267
 30
0.0
 40
1.000004082496862
100
AcDbArc
 50
179.999701760377
 51
256.2135898631999
  0
LINE
  5
426
330
1A
100
AcDbEntity
  8
SEIHIN
 62
     3
 48
16.0
100
AcDbLine
 10
109.4262436879471
 20
99.1888605372873
 30
0.0
 11
109.4262436879471
 21
98.58886053728728
 31
0.0
  0
ARC
  5
427
330
1A
100
AcDbEntity
  8
SEIHIN
 62
     3
 48
16.0
100
AcDbCircle
 10
128.7885728602611
 20
108.2888395113065
 30
0.0
 40
2.999978974161096
100
AcDbArc
 50
198.4349956278715
 51
269.9994428459384
  0
ARC
  5
428
330
1A
100
AcDbEntity
  8
SEIHIN
 62
     3
 48
16.0
100
AcDbCircle
 10
125.4218070486643
 20
104.2888869453882
 30
0.0
 40
3.000026408324658
100
AcDbArc
 50
198.4356485755204
 51
270.0006997525986
  0
LINE
  5
429
330
1A
100
AcDbEntity
  8
SEIHIN
 62
     3
 48
16.0
100
AcDbLine
 10
121.3100436879472
 20
107.1374605372871
 30
0.0
 11
122.5757436879471
 21
103.3401605372871
 31
0.0
  0
LINE
  5
42A
330
1A
100
AcDbEntity
  8
SEIHIN
 62
     3
 48
16.0
100
AcDbLine
 10
118.5809436879472
 20
114.2888605372872
 30
0.0
 11
109.6262436879472
 21
114.2888605372872
 31
0.0
  0
LINE
  5
42B
330
1A
100
AcDbEntity
  8
SEIHIN
 62
     3
 48
16.0
100
AcDbLine
 10
105.6262436879471
 20
109.1888605372872
 30
0.0
 11
118.4639436879472
 21
109.1888605372872
 31
0.0
  0
ARC
  5
42C
330
1A
100
AcDbEntity
  8
SEIHIN
 62
     3
 48
16.0
100
AcDbCircle
 10
109.6262436879471
 20
109.2888605372872
 30
0.0
 40
5.000000000000028
100
AcDbArc
 50
89.99999999999968
 51
179.9999999999996
  0
LINE
  5
42D
330
1A
100
AcDbEntity
  8
SEIHIN
 62
     3
 48
16.0
100
AcDbLine
 10
113.6262436879471
 20
117.2888605372872
 30
0.0
 11
112.6262436879471
 21
117.2888605372872
 31
0.0
  0
LINE
  5
42E
330
1A
100
AcDbEntity
  8
SEIHIN
 62
     3
 48
16.0
100
AcDbLine
 10
112.6262436879471
 20
114.2888605372872
 30
0.0
 11
112.6262436879471
 21
117.2888605372872
 31
0.0
  0
LINE
  5
42F
330
1A
100
AcDbEntity
  8
SEIHIN
 62
     3
 48
16.0
100
AcDbLine
 10
113.1262436879471
 20
114.2888605372872
 30
0.0
 11
113.1262436879471
 21
117.2888605372872
 31
0.0
  0
LINE
  5
430
330
1A
100
AcDbEntity
  8
SEIHIN
 62
     3
 48
16.0
100
AcDbLine
 10
113.6262436879471
 20
114.2888605372872
 30
0.0
 11
113.6262436879471
 21
117.2888605372872
 31
0.0
  0
ARC
  5
431
330
1A
100
AcDbEntity
  8
SEIHIN
 62
     3
 48
16.0
100
AcDbCircle
 10
118.5808902442489
 20
107.288899057142
 30
0.0
 40
6.999961480349233
100
AcDbArc
 50
18.43477021668964
 51
89.99956255497123
  0
ARC
  5
432
330
1A
100
AcDbEntity
  8
SEIHIN
 62
     3
 48
16.0
100
AcDbCircle
 10
188.6263436879472
 20
108.1886605372872
 30
0.0
 40
1.0
100
AcDbArc
 50
0.0
 51
90.0
  0
ARC
  5
433
330
1A
100
AcDbEntity
  8
SEIHIN
 62
     3
 48
16.0
100
AcDbCircle
 10
188.6262272068669
 20
108.1886947674547
 30
0.0
 40
1.600016481446414
100
AcDbArc
 50
359.9987742350459
 51
51.41837873503466
  0
LINE
  5
434
330
1A
100
AcDbEntity
  8
SEIHIN
 62
     3
 48
16.0
100
AcDbLine
 10
189.6262436879471
 20
100.1886605372872
 30
0.0
 11
189.6263436879472
 21
109.2886605372872
 31
0.0
  0
LINE
  5
435
330
1A
100
AcDbEntity
  8
SEIHIN
 62
     3
 48
16.0
100
AcDbLine
 10
193.9965436879472
 20
109.2885605372871
 30
0.0
 11
193.9965436879472
 21
100.2358428376746
 31
0.0
  0
ARC
  5
436
330
1A
100
AcDbEntity
  8
SEIHIN
 62
     3
 48
16.0
100
AcDbCircle
 10
175.7885728602613
 20
106.1887815632679
 30
0.0
 40
2.999978974161185
100
AcDbArc
 50
90.00055715406373
 51
161.5650043721306
  0
LINE
  5
437
330
1A
100
AcDbEntity
  8
SEIHIN
 62
     3
 48
16.0
100
AcDbLine
 10
180.6263436879472
 20
109.1886605372872
 30
0.0
 11
180.6262436879471
 21
99.03146053728725
 31
0.0
  0
LINE
  5
438
330
1A
100
AcDbEntity
  8
SEIHIN
 62
     3
 48
16.0
100
AcDbLine
 10
181.1263436879472
 20
109.1886605372872
 30
0.0
 11
181.1262436879471
 21
99.03146053728725
 31
0.0
  0
LINE
  5
439
330
1A
100
AcDbEntity
  8
SEIHIN
 62
     3
 48
16.0
100
AcDbLine
 10
181.6263436879472
 20
109.1886605372872
 30
0.0
 11
181.6262436879471
 21
99.3280605372872
 31
0.0
  0
LINE
  5
43A
330
1A
100
AcDbEntity
  8
SEIHIN
 62
     3
 48
16.0
100
AcDbLine
 10
169.0308436879472
 20
109.5023605372872
 30
0.0
 11
168.3100436879472
 21
107.3400605372872
 31
0.0
  0
ARC
  5
43B
330
1A
100
AcDbEntity
  8
SEIHIN
 62
     3
 48
16.0
100
AcDbCircle
 10
160.1177798196671
 20
109.7887890478496
 30
0.0
 40
3.000028510779921
100
AcDbArc
 50
269.9993099415386
 51
346.5513409606533
  0
LINE
  5
43C
330
1A
100
AcDbEntity
  8
SEIHIN
 62
     3
 48
16.0
100
AcDbLine
 10
199.6262436879471
 20
123.2885605372871
 30
0.0
 11
199.6262436879471
 21
83.28856053728728
 31
0.0
  0
LINE
  5
43D
330
1A
100
AcDbEntity
  8
SEIHIN
 62
     3
 48
16.0
100
AcDbLine
 10
171.0210436879472
 20
120.9863605372871
 30
0.0
 11
167.4460436879472
 21
106.0367605372872
 31
0.0
  0
LINE
  5
43E
330
1A
100
AcDbEntity
  8
SEIHIN
 62
     3
 48
16.0
100
AcDbLine
 10
168.8306436879472
 20
101.2887605372872
 30
0.0
 11
147.1262436879472
 21
101.2887605372872
 31
0.0
  0
ARC
  5
43F
330
1A
100
AcDbEntity
  8
SEIHIN
 62
     3
 48
16.0
100
AcDbCircle
 10
165.4640145156331
 20
108.2887395113066
 30
0.0
 40
2.999978974161223
100
AcDbArc
 50
270.0005571540616
 51
341.5650043721285
  0
LINE
  5
440
330
1A
100
AcDbEntity
  8
NOKITOI
  6
PHANTOM
 62
     8
 48
5.0
100
AcDbLine
 10
171.4262407219749
 20
66.9188570852394
 30
0.0
 11
147.1262407219751
 21
66.9188570852394
 31
0.0
  0
LINE
  5
441
330
1A
100
AcDbEntity
  8
NOKITOI
  6
PHANTOM
 62
     8
 48
5.0
100
AcDbLine
 10
174.0483407219751
 20
73.81875708523941
 30
0.0
 11
166.6262407219751
 21
73.81885708523933
 31
0.0
  0
LINE
  5
442
330
1A
100
AcDbEntity
  8
NOKITOI
  6
PHANTOM
 62
     8
 48
5.0
100
AcDbLine
 10
147.1262407219751
 20
68.1188570852394
 30
0.0
 11
166.6262407219751
 21
68.1188570852394
 31
0.0
  0
LINE
  5
443
330
1A
100
AcDbEntity
  8
NOKITOI
  6
PHANTOM
 62
     8
 48
5.0
100
AcDbLine
 10
166.6262407219751
 20
68.11875708523931
 30
0.0
 11
166.6262407219751
 21
73.81885708523933
 31
0.0
  0
LINE
  5
444
330
1A
100
AcDbEntity
  8
SEIHIN
 62
     3
 48
16.0
100
AcDbLine
 10
165.4639436879472
 20
105.2887605372872
 30
0.0
 11
147.1262436879472
 21
105.2887605372872
 31
0.0
  0
LINE
  5
445
330
1A
100
AcDbEntity
  8
SEIHIN
 62
     3
 48
16.0
100
AcDbLine
 10
160.1177436879472
 20
106.7887605372872
 30
0.0
 11
139.6262436879471
 21
106.7888605372872
 31
0.0
  0
LINE
  5
446
330
1A
100
AcDbEntity
  8
SEIHIN
 62
     3
 48
16.0
100
AcDbLine
 10
139.6262436879471
 20
106.7888605372872
 30
0.0
 11
139.6262436879471
 21
105.2887605372872
 31
0.0
  0
LINE
  5
447
330
1A
100
AcDbEntity
  8
NOKITOI
  6
PHANTOM
 62
     8
 48
5.0
100
AcDbLine
 10
184.727840721975
 20
106.9187570852392
 30
0.0
 11
178.4936407219751
 21
76.37135708523939
 31
0.0
  0
LINE
  5
448
330
1A
100
AcDbEntity
  8
NOKITOI
  6
PHANTOM
 62
     8
 48
5.0
100
AcDbLine
 10
184.5262407219751
 20
99.91875708523927
 30
0.0
 11
179.5262407219751
 21
75.41885708523941
 31
0.0
  0
LINE
  5
449
330
1A
100
AcDbEntity
  8
SEIHIN
 62
     3
 48
16.0
100
AcDbLine
 10
198.426243687947
 20
98.2710614581773
 30
0.0
 11
198.426243687947
 21
83.28856053728728
 31
0.0
  0
ARC
  5
44A
330
1A
100
AcDbEntity
  8
NOKITOI
  6
PHANTOM
 62
     8
 48
5.0
100
AcDbCircle
 10
182.2105448348451
 20
64.75136140121012
 30
0.0
 40
10.99994632941526
100
AcDbArc
 50
104.1244483036074
 51
168.6362598432798
  0
LINE
  5
44B
330
1A
100
AcDbEntity
  8
NOKITOI
  6
PHANTOM
 62
     8
 48
5.0
100
AcDbLine
 10
172.8862407219751
 20
72.61885708523934
 30
0.0
 11
167.8262407219751
 21
72.61885708523934
 31
0.0
  0
ARC
  5
44C
330
1A
100
AcDbEntity
  8
NOKITOI
  6
PHANTOM
 62
     8
 48
5.0
100
AcDbCircle
 10
182.2106177056458
 20
64.75150132610472
 30
0.0
 40
12.19997101530972
100
AcDbArc
 50
139.8443138052131
 51
163.9780719705774
  0
LINE
  5
44D
330
1A
100
AcDbEntity
  8
NOKITOI
  6
PHANTOM
 62
     8
 48
5.0
100
AcDbLine
 10
167.8262407219751
 20
68.1188570852394
 30
0.0
 11
170.4845407219751
 21
68.1188570852394
 31
0.0
  0
LINE
  5
44E
330
1A
100
AcDbEntity
  8
NOKITOI
  6
PHANTOM
 62
     8
 48
5.0
100
AcDbLine
 10
167.8262407219751
 20
68.1188570852394
 30
0.0
 11
167.8262407219751
 21
72.61885708523934
 31
0.0
  0
ARC
  5
44F
330
1A
100
AcDbEntity
  8
NOKITOI
  6
PHANTOM
 62
     8
 48
5.0
100
AcDbCircle
 10
182.2105825089513
 20
64.75138108012877
 30
0.0
 40
12.19997945109404
100
AcDbArc
 50
107.7381834577211
 51
131.9928095737274
  0
LINE
  5
450
330
1A
100
AcDbEntity
  8
SEIHIN
 62
     3
 48
16.0
100
AcDbLine
 10
198.426243687947
 20
83.28856053728728
 30
0.0
 11
199.6262436879471
 21
83.28856053728728
 31
0.0
  0
LINE
  5
451
330
1A
100
AcDbEntity
  8
SEIHIN
 62
     3
 48
16.0
100
AcDbLine
 10
180.1469436879472
 20
98.4505605372872
 30
0.0
 11
171.5943436879471
 21
103.1215605372872
 31
0.0
  0
LINE
  5
452
330
1A
100
AcDbEntity
  8
SEIHIN
 62
     3
 48
16.0
100
AcDbLine
 10
179.6469436879472
 20
98.15386053728722
 30
0.0
 11
171.3620436879472
 21
102.6786605372871
 31
0.0
  0
ARC
  5
453
330
1A
100
AcDbEntity
  8
SEIHIN
 62
     3
 48
16.0
100
AcDbCircle
 10
168.83068032723
 20
104.2887869453881
 30
0.0
 40
3.000026408324598
100
AcDbArc
 50
269.9993002474043
 51
341.5643514244822
  0
LINE
  5
454
330
1A
100
AcDbEntity
  8
SEIHIN
 62
     3
 48
16.0
100
AcDbLine
 10
172.9425436879472
 20
107.1373605372872
 30
0.0
 11
171.6767436879472
 21
103.3399605372872
 31
0.0
  0
ARC
  5
455
330
1A
100
AcDbEntity
  8
SEIHIN
 62
     3
 48
16.0
100
AcDbCircle
 10
180.1262429229483
 20
99.03146008348054
 30
0.0
 40
0.5000007649989659
100
AcDbArc
 50
241.3539253752825
 51
0.0000520023369477
  0
ARC
  5
456
330
1A
100
AcDbEntity
  8
SEIHIN
 62
     3
 48
16.0
100
AcDbCircle
 10
180.1262421579495
 20
99.03145962967389
 30
0.0
 40
1.000001529998031
100
AcDbArc
 50
241.353925375281
 51
0.0000520023375584
  0
ARC
  5
457
330
1A
100
AcDbEntity
  8
SEIHIN
 62
     3
 48
16.0
100
AcDbCircle
 10
180.6262515180084
 20
99.32807051984415
 30
0.0
 40
0.9999921699885041
100
AcDbArc
 50
283.7799753264952
 51
359.99942803714
  0
LINE
  5
458
330
1A
100
AcDbEntity
  8
NOKITOI
  6
PHANTOM
 62
     8
 48
5.0
100
AcDbLine
 10
188.4262407219749
 20
105.7187570852392
 30
0.0
 11
188.4262407219749
 21
101.1187570852393
 31
0.0
  0
LINE
  5
459
330
1A
100
AcDbEntity
  8
NOKITOI
  6
PHANTOM
 62
     8
 48
5.0
100
AcDbLine
 10
189.6262407219751
 20
99.91875708523927
 30
0.0
 11
189.6262407219751
 21
106.9187570852392
 31
0.0
  0
LINE
  5
45A
330
1A
100
AcDbEntity
  8
NOKITOI
  6
PHANTOM
 62
     8
 48
5.0
100
AcDbLine
 10
185.709940721975
 20
105.7187570852392
 30
0.0
 11
184.7711407219751
 21
101.1187570852393
 31
0.0
  0
LINE
  5
45B
330
1A
100
AcDbEntity
  8
SEIHIN
 62
     3
 48
16.0
100
AcDbLine
 10
190.2262436879472
 20
100.1886605372872
 30
0.0
 11
190.2262436879472
 21
108.1886605372872
 31
0.0
  0
LINE
  5
45C
330
1A
100
AcDbEntity
  8
NOKITOI
  6
PHANTOM
 62
     8
 48
5.0
100
AcDbLine
 10
189.6262407219751
 20
99.91875708523927
 30
0.0
 11
184.5262407219751
 21
99.91875708523927
 31
0.0
  0
LINE
  5
45D
330
1A
100
AcDbEntity
  8
NOKITOI
  6
PHANTOM
 62
     8
 48
5.0
100
AcDbLine
 10
184.7711407219751
 20
101.1187570852393
 30
0.0
 11
188.4262407219749
 21
101.1187570852393
 31
0.0
  0
LINE
  5
45E
330
1A
100
AcDbEntity
  8
SEIHIN
 62
     3
 48
16.0
100
AcDbLine
 10
184.8262436879472
 20
99.18866053728718
 30
0.0
 11
188.6262436879472
 21
99.18866053728718
 31
0.0
  0
LINE
  5
45F
330
1A
100
AcDbEntity
  8
SEIHIN
 62
     3
 48
16.0
100
AcDbLine
 10
184.8262436879472
 20
98.58866053728727
 30
0.0
 11
188.6262436879472
 21
98.58866053728727
 31
0.0
  0
LINE
  5
460
330
1A
100
AcDbEntity
  8
SEIHIN
 62
     3
 48
16.0
100
AcDbLine
 10
184.8262436879472
 20
99.18866053728718
 30
0.0
 11
184.8262436879472
 21
98.58866053728727
 31
0.0
  0
ARC
  5
461
330
1A
100
AcDbEntity
  8
SEIHIN
 62
     3
 48
16.0
100
AcDbCircle
 10
188.6262436879472
 20
100.1886605372872
 30
0.0
 40
1.600000000000008
100
AcDbArc
 50
269.9999999999994
 51
359.9999999999994
  0
ARC
  5
462
330
1A
100
AcDbEntity
  8
SEIHIN
 62
     3
 48
16.0
100
AcDbCircle
 10
188.6262436879471
 20
100.1886605372871
 30
0.0
 40
0.9999999999999857
100
AcDbArc
 50
270.0000000000057
 51
0.0000000000056996
  0
LINE
  5
463
330
1A
100
AcDbEntity
  8
NOKITOI
  6
PHANTOM
 62
     8
 48
5.0
100
AcDbLine
 10
185.709940721975
 20
105.7187570852392
 30
0.0
 11
188.4262407219749
 21
105.7187570852392
 31
0.0
  0
LINE
  5
464
330
1A
100
AcDbEntity
  8
NOKITOI
  6
PHANTOM
 62
     8
 48
5.0
100
AcDbLine
 10
189.6262407219751
 20
106.9187570852392
 30
0.0
 11
184.727840721975
 21
106.9187570852392
 31
0.0
  0
ARC
  5
465
330
1A
100
AcDbEntity
  8
SEIHIN
 62
     3
 48
16.0
100
AcDbCircle
 10
195.9965436879472
 20
100.2358428376746
 30
0.0
 40
2.0
100
AcDbArc
 50
180.0
 51
270.8354602647736
  0
LINE
  5
466
330
1A
100
AcDbEntity
  8
SEIHIN
 62
     3
 48
16.0
100
AcDbLine
 10
198.426243687947
 20
98.2710614581773
 30
0.0
 11
196.0257057192909
 21
98.23605545499422
 31
0.0
  0
ARC
  5
467
330
1A
100
AcDbEntity
  8
SEIHIN
 62
     3
 48
16.0
100
AcDbCircle
 10
171.57155000865
 20
123.2886655247922
 30
0.0
 40
4.99999501249899
100
AcDbArc
 50
90.00007242999082
 51
166.5522084513844
  0
LINE
  5
468
330
1A
100
AcDbEntity
  8
SEIHIN
 62
     3
 48
16.0
100
AcDbLine
 10
166.7087436879472
 20
124.4515605372872
 30
0.0
 11
163.0355436879472
 21
109.0909605372872
 31
0.0
  0
LINE
  5
469
330
1A
100
AcDbEntity
  8
SEIHIN
 62
     3
 48
16.0
100
AcDbLine
 10
171.5716436879471
 20
128.2886605372872
 30
0.0
 11
194.6262436879472
 21
128.2885605372872
 31
0.0
  0
LINE
  5
46A
330
1A
100
AcDbEntity
  8
SEIHIN
 62
     3
 48
16.0
100
AcDbLine
 10
173.9387436879471
 20
123.2886605372872
 30
0.0
 11
191.9966436879472
 21
123.2885605372871
 31
0.0
  0
LINE
  5
46B
330
1A
100
AcDbEntity
  8
SEIHIN
 62
     3
 48
16.0
100
AcDbLine
 10
175.6716436879472
 20
114.2887605372871
 30
0.0
 11
184.6263436879472
 21
114.2886605372872
 31
0.0
  0
LINE
  5
46C
330
1A
100
AcDbEntity
  8
SEIHIN
 62
     3
 48
16.0
100
AcDbLine
 10
188.6263436879472
 20
109.1886605372872
 30
0.0
 11
175.7885436879472
 21
109.1886605372872
 31
0.0
  0
ARC
  5
46D
330
1A
100
AcDbEntity
  8
SEIHIN
 62
     3
 48
16.0
100
AcDbCircle
 10
175.6715971316453
 20
107.2886990571421
 30
0.0
 40
6.999961480349099
100
AcDbArc
 50
90.00043744502926
 51
161.5652297833106
  0
LINE
  5
46E
330
1A
100
AcDbEntity
  8
SEIHIN
 62
     3
 48
16.0
100
AcDbLine
 10
180.6262737863535
 20
116.2887052074723
 30
0.0
 11
181.6262716838753
 21
116.2886940401758
 31
0.0
  0
LINE
  5
46F
330
1A
100
AcDbEntity
  8
SEIHIN
 62
     3
 48
16.0
100
AcDbLine
 10
181.6262919666168
 20
114.2886940398246
 30
0.0
 11
181.6262716838753
 21
116.2886940401758
 31
0.0
  0
LINE
  5
470
330
1A
100
AcDbEntity
  8
SEIHIN
 62
     3
 48
16.0
100
AcDbLine
 10
181.1262934768743
 20
114.2886996234677
 30
0.0
 11
181.1262737864084
 21
116.2886996238123
 31
0.0
  0
LINE
  5
471
330
1A
100
AcDbEntity
  8
SEIHIN
 62
     3
 48
16.0
100
AcDbLine
 10
180.6262934768194
 20
114.2887052071277
 30
0.0
 11
180.6262737863535
 21
116.2887052074723
 31
0.0
  0
ARC
  5
472
330
1A
100
AcDbEntity
  8
SEIHIN
 62
     3
 48
16.0
100
AcDbCircle
 10
173.9387691844858
 20
120.2886806557555
 30
0.0
 40
2.999979881640051
100
AcDbArc
 50
90.00048695128514
 51
166.5520738032693
  0
LINE
  5
473
330
1A
100
AcDbEntity
  8
SEIHIN
 62
     3
 48
16.0
100
AcDbLine
 10
198.426243687947
 20
121.2885605372871
 30
0.0
 11
198.426243687947
 21
109.2885605372871
 31
0.0
  0
LINE
  5
474
330
1A
100
AcDbEntity
  8
SEIHIN
 62
     3
 48
16.0
100
AcDbLine
 10
192.7965436879471
 20
109.2885605372871
 30
0.0
 11
192.7965436879471
 21
121.2885605372871
 31
0.0
  0
ARC
  5
475
330
1A
100
AcDbEntity
  8
SEIHIN
 62
     3
 48
16.0
100
AcDbCircle
 10
184.6263436879472
 20
109.2886605372872
 30
0.0
 40
5.000000000000042
100
AcDbArc
 50
359.9999999999994
 51
89.99999999999952
  0
ARC
  5
476
330
1A
100
AcDbEntity
  8
SEIHIN
 62
     3
 48
16.0
100
AcDbCircle
 10
200.6662436875526
 20
115.2909975135823
 30
0.0
 40
3.767175495593479
100
AcDbArc
 50
126.4848306795284
 51
233.5170609570268
  0
LINE
  5
477
330
1A
100
AcDbEntity
  8
SEIHIN
 62
     3
 48
16.0
100
AcDbLine
 10
199.6262436879471
 20
109.2885605372871
 30
0.0
 11
192.7965436879471
 21
109.2885605372871
 31
0.0
  0
LINE
  5
478
330
1A
100
AcDbEntity
  8
SEIHIN
 62
     3
 48
16.0
100
AcDbLine
 10
199.6262436879471
 20
121.2885605372871
 30
0.0
 11
192.7965436879471
 21
121.2885605372871
 31
0.0
  0
ARC
  5
479
330
1A
100
AcDbEntity
  8
SEIHIN
 62
     3
 48
16.0
100
AcDbCircle
 10
191.9966436879472
 20
121.2885605372871
 30
0.0
 40
2.0
100
AcDbArc
 50
0.0
 51
90.0
  0
LINE
  5
47A
330
1A
100
AcDbEntity
  8
SEIHIN
 62
     3
 48
16.0
100
AcDbLine
 10
190.226343687947
 20
205.73855934964
 30
0.0
 11
105.0262436879472
 21
205.7386605372872
 31
0.0
  0
LINE
  5
47B
330
1A
100
AcDbEntity
  8
SEIHIN
 62
     3
 48
16.0
100
AcDbLine
 10
199.6262436879471
 20
206.7385496325307
 30
0.0
 11
104.0263436879472
 21
206.7386605372873
 31
0.0
  0
LINE
  5
47C
330
1A
100
AcDbEntity
  8
SEIHIN
 62
     3
 48
16.0
100
AcDbLine
 10
190.226343687947
 20
220.8386605372871
 30
0.0
 11
105.0262436879472
 21
220.8386605372871
 31
0.0
  0
LINE
  5
47D
330
1A
100
AcDbEntity
  8
SEIHIN
 62
     3
 48
16.0
100
AcDbLine
 10
199.6262655216138
 20
219.8386605372872
 30
0.0
 11
104.0263436879472
 21
219.8386605372872
 31
0.0
  0
LINE
  5
47E
330
1A
100
AcDbEntity
  8
SEIHIN
 62
     3
 48
16.0
100
AcDbLine
 10
139.6263436879472
 20
209.2386605372873
 30
0.0
 11
124.6262436879471
 21
209.2386605372873
 31
0.0
  0
LINE
  5
47F
330
1A
100
AcDbEntity
  8
SEIHIN
 62
     3
 48
16.0
100
AcDbLine
 10
139.6263436879472
 20
211.2386605372873
 30
0.0
 11
130.6262436879471
 21
211.2386605372873
 31
0.0
  0
LINE
  5
480
330
1A
100
AcDbEntity
  8
SEIHIN
 62
     3
 48
16.0
100
AcDbLine
 10
139.6264436879472
 20
217.3386605372871
 30
0.0
 11
124.6262436879471
 21
217.3386605372871
 31
0.0
  0
LINE
  5
481
330
1A
100
AcDbEntity
  8
SEIHIN
 62
     3
 48
16.0
100
AcDbLine
 10
139.6264436879472
 20
215.3386605372871
 30
0.0
 11
130.6262436879471
 21
215.3386605372871
 31
0.0
  0
DIMENSION
  5
482
330
1A
100
AcDbEntity
  8
SUNPOU
  6
CONTINUOUS
 62
     4
100
AcDbDimension
  2
*D7
 10
88.59164083803547
 20
205.7386605372872
 30
0.0
 11
86.09164083803543
 21
213.2886605372872
 31
0.0
 70
    32
  3
STANDARD
100
AcDbAlignedDimension
 13
105.0262436879472
 23
220.8386605372871
 33
0.0
 14
105.0262436879472
 24
205.7386605372872
 34
0.0
 50
90.0
100
AcDbRotatedDimension
1001
ACAD
1000
DSTYLE
1002
{
1070
   140
1040
3.0
1070
    74
1070
     0
1070
   172
1070
     1
1070
    73
1070
     0
1070
   272
1070
     2
1070
    77
1070
     3
1070
   173
1070
     1
1070
   147
1040
1.0
1070
    42
1040
3.0
1070
    44
1040
1.5
1070
    43
1040
7.0
1070
   271
1070
     0
1070
   178
1070
     4
1070
   177
1070
     4
1070
   176
1070
     4
1070
   141
1040
150.0
1070
     7
1000
_OPEN
1070
     6
1000
_OPEN
1070
    41
1040
3.0
1002
}
  0
LINE
  5
483
330
1A
100
AcDbEntity
  8
SEIHIN
 62
     3
 48
16.0
100
AcDbLine
 10
115.6262436879472
 20
209.2385605372872
 30
0.0
 11
115.6262436879472
 21
217.3386605372871
 31
0.0
  0
LINE
  5
484
330
1A
100
AcDbEntity
  8
SEIHIN
 62
     3
 48
16.0
100
AcDbLine
 10
110.6262436879471
 20
209.2385605372872
 30
0.0
 11
110.6262436879471
 21
217.3387605372873
 31
0.0
  0
LINE
  5
485
330
1A
100
AcDbEntity
  8
SEIHIN
 62
     3
 48
16.0
100
AcDbLine
 10
104.0262436879472
 20
206.7386605372873
 30
0.0
 11
104.0264436879472
 21
219.8386605372872
 31
0.0
  0
ARC
  5
486
330
1A
100
AcDbEntity
  8
SEIHIN
100
AcDbCircle
 10
122.1787436876956
 20
213.2886605372871
 30
0.0
 40
9.5524999997616
100
AcDbArc
 50
161.3801196495462
 51
198.6198803504537
  0
ARC
  5
487
330
1A
100
AcDbEntity
  8
SEIHIN
100
AcDbCircle
 10
122.6787436876956
 20
213.2886605372871
 30
0.0
 40
9.5524999997616
100
AcDbArc
 50
161.3801196495462
 51
198.6198803504537
  0
LINE
  5
488
330
1A
100
AcDbEntity
  8
SEIHIN
 62
     3
 48
16.0
100
AcDbLine
 10
105.0262436879472
 20
205.7385605372871
 30
0.0
 11
105.0262436879472
 21
206.7385605372871
 31
0.0
  0
LINE
  5
489
330
1A
100
AcDbEntity
  8
SEIHIN
 62
     3
 48
16.0
100
AcDbLine
 10
104.0263436879472
 20
211.2386605372873
 30
0.0
 11
106.5263436879472
 21
209.7386605372872
 31
0.0
  0
LINE
  5
48A
330
1A
100
AcDbEntity
  8
SEIHIN
 62
     3
 48
16.0
100
AcDbLine
 10
106.5263436879472
 20
209.7386605372872
 30
0.0
 11
104.0263436879472
 21
208.2386605372873
 31
0.0
  0
LINE
  5
48B
330
1A
100
AcDbEntity
  8
SEIHIN
100
AcDbLine
 10
106.5263436879472
 20
209.7386605372872
 30
0.0
 11
104.0262894894739
 21
209.7386605372872
 31
0.0
  0
LINE
  5
48C
330
1A
100
AcDbEntity
  8
SEIHIN
 62
     3
 48
16.0
100
AcDbLine
 10
115.6262436879472
 20
209.2386605372873
 30
0.0
 11
110.6262436879471
 21
209.2386605372873
 31
0.0
  0
LINE
  5
48D
330
1A
100
AcDbEntity
  8
SEIHIN
 62
     3
 48
16.0
100
AcDbLine
 10
115.6262436879472
 20
210.2386605372873
 30
0.0
 11
113.1262436879471
 21
210.2386605372873
 31
0.0
  0
LINE
  5
48E
330
1A
100
AcDbEntity
  8
SEIHIN
 62
     3
 48
16.0
100
AcDbLine
 10
104.0263436879472
 20
215.3386605372871
 30
0.0
 11
106.5263436879472
 21
216.8386605372871
 31
0.0
  0
LINE
  5
48F
330
1A
100
AcDbEntity
  8
SEIHIN
 62
     3
 48
16.0
100
AcDbLine
 10
106.5263436879472
 20
216.8386605372871
 30
0.0
 11
104.0263436879472
 21
218.3386605372871
 31
0.0
  0
LINE
  5
490
330
1A
100
AcDbEntity
  8
SEIHIN
100
AcDbLine
 10
106.5263436879472
 20
216.8386605372871
 30
0.0
 11
104.0263978864205
 21
216.8386605372871
 31
0.0
  0
LINE
  5
491
330
1A
100
AcDbEntity
  8
SEIHIN
 62
     3
 48
16.0
100
AcDbLine
 10
105.0262436879472
 20
220.8388605372872
 30
0.0
 11
105.0262436879472
 21
219.8388605372871
 31
0.0
  0
LINE
  5
492
330
1A
100
AcDbEntity
  8
SEIHIN
 62
     3
 48
16.0
100
AcDbLine
 10
115.6262436879472
 20
217.3386605372871
 30
0.0
 11
110.6262436879471
 21
217.3387605372873
 31
0.0
  0
LINE
  5
493
330
1A
100
AcDbEntity
  8
SEIHIN
 62
     3
 48
16.0
100
AcDbLine
 10
115.6262436879472
 20
216.3386605372871
 30
0.0
 11
113.1262436879471
 21
216.3386605372871
 31
0.0
  0
LINE
  5
494
330
1A
100
AcDbEntity
  8
SEIHIN
 62
     3
 48
16.0
100
AcDbLine
 10
124.6262436879471
 20
217.3386605372871
 30
0.0
 11
124.6262436879471
 21
209.2385605372872
 31
0.0
  0
LINE
  5
495
330
1A
100
AcDbEntity
  8
SEIHIN
 62
     3
 48
16.0
100
AcDbLine
 10
130.6262436879471
 20
209.2385605372872
 30
0.0
 11
130.6262436879471
 21
216.3386605372871
 31
0.0
  0
LINE
  5
496
330
1A
100
AcDbEntity
  8
SEIHIN
100
AcDbLine
 10
123.2594710205372
 20
207.7386382250752
 30
0.0
 11
123.2594710205372
 21
218.8386605372872
 31
0.0
  0
LINE
  5
497
330
1A
100
AcDbEntity
  8
SEIHIN
100
AcDbLine
 10
120.6262797030106
 20
207.7386412798215
 30
0.0
 11
120.6262797030106
 21
218.8386605372872
 31
0.0
  0
LINE
  5
498
330
1A
100
AcDbEntity
  8
SEIHIN
 62
     3
 48
16.0
100
AcDbLine
 10
130.6262436879471
 20
210.2386605372873
 30
0.0
 11
124.6262436879471
 21
210.2386605372873
 31
0.0
  0
LINE
  5
499
330
1A
100
AcDbEntity
  8
SEIHIN
100
AcDbLine
 10
123.6263174785309
 20
205.7386384469646
 30
0.0
 11
123.6263174785309
 21
206.7386377994986
 31
0.0
  0
LINE
  5
49A
330
1A
100
AcDbEntity
  8
SEIHIN
100
AcDbLine
 10
126.6261748004972
 20
205.7386348841928
 30
0.0
 11
126.6261748004972
 21
206.7386343193857
 31
0.0
  0
LINE
  5
49B
330
1A
100
AcDbEntity
  8
SEIHIN
 62
     3
 48
16.0
100
AcDbLine
 10
130.6262436879471
 20
216.3386605372871
 30
0.0
 11
124.6262436879471
 21
216.3386605372871
 31
0.0
  0
LINE
  5
49C
330
1A
100
AcDbEntity
  8
SEIHIN
100
AcDbLine
 10
123.6263174785309
 20
219.8386605372872
 30
0.0
 11
123.6263174785309
 21
220.8386605372871
 31
0.0
  0
LINE
  5
49D
330
1A
100
AcDbEntity
  8
SEIHIN
100
AcDbLine
 10
126.6261748004972
 20
219.8386605372872
 30
0.0
 11
126.6261748004972
 21
220.8386605372871
 31
0.0
  0
LINE
  5
49E
330
1A
100
AcDbEntity
  8
SEIHIN
 62
     3
 48
16.0
100
AcDbLine
 10
196.926332570473
 20
204.5432602523557
 30
0.0
 11
196.926243687947
 21
192.5885605372871
 31
0.0
  0
LINE
  5
49F
330
1A
100
AcDbEntity
  8
SEIHIN
 62
     3
 48
16.0
100
AcDbLine
 10
198.426243687947
 20
183.2885605372872
 30
0.0
 11
198.4263371104145
 21
204.5421718558885
 31
0.0
  0
LINE
  5
4A0
330
1A
100
AcDbEntity
  8
SEIHIN
 62
     3
 48
16.0
100
AcDbLine
 10
199.6262436879471
 20
183.2885605372872
 30
0.0
 11
199.6262436879471
 21
205.7385448706205
 31
0.0
  0
LINE
  5
4A1
330
1A
100
AcDbEntity
  8
SEIHIN
 62
     3
 48
16.0
100
AcDbLine
 10
199.6262436879471
 20
183.2885605372872
 30
0.0
 11
198.426243687947
 21
183.2885605372872
 31
0.0
  0
LINE
  5
4A2
330
1A
100
AcDbEntity
  8
SEIHIN
 62
     3
 48
16.0
100
AcDbLine
 10
198.4263436879473
 20
191.2885605372872
 30
0.0
 11
198.2262436879472
 21
191.2885605372872
 31
0.0
  0
ARC
  5
4A3
330
1A
100
AcDbEntity
  8
SEIHIN
 62
     3
 48
16.0
100
AcDbCircle
 10
198.2262936879472
 20
192.5885105372872
 30
0.0
 40
1.299950000961514
100
AcDbArc
 50
179.9977962314151
 51
269.9977962314151
  0
LINE
  5
4A4
330
1A
100
AcDbEntity
  8
SEIHIN
 62
     3
 48
16.0
100
AcDbLine
 10
154.6263436879472
 20
216.3386605372871
 30
0.0
 11
139.6263436879472
 21
216.3386605372871
 31
0.0
  0
LINE
  5
4A5
330
1A
100
AcDbEntity
  8
SEIHIN
 62
     3
 48
16.0
100
AcDbLine
 10
154.6263436879472
 20
214.3386605372871
 30
0.0
 11
139.6263436879472
 21
214.3386605372871
 31
0.0
  0
LINE
  5
4A6
330
1A
100
AcDbEntity
  8
SEIHIN
 62
     3
 48
16.0
100
AcDbLine
 10
154.6263436879472
 20
212.2385605372871
 30
0.0
 11
139.6263436879472
 21
212.2386605372873
 31
0.0
  0
LINE
  5
4A7
330
1A
100
AcDbEntity
  8
SEIHIN
 62
     3
 48
16.0
100
AcDbLine
 10
154.6263436879472
 20
210.2385605372871
 30
0.0
 11
139.6263436879472
 21
210.2386605372873
 31
0.0
  0
LINE
  5
4A8
330
1A
100
AcDbEntity
  8
SEIHIN
 62
     3
 48
16.0
100
AcDbLine
 10
139.6263436879472
 20
206.7386192379832
 30
0.0
 11
139.6263436879472
 21
219.8386605372872
 31
0.0
  0
ARC
  5
4A9
330
1A
100
AcDbEntity
  8
SEIHIN
 62
     3
 48
16.0
100
AcDbCircle
 10
154.6263646396984
 20
214.238573037209
 30
0.0
 40
2.000012500031608
100
AcDbArc
 50
269.9993997802945
 51
331.6404363341647
  0
ARC
  5
4AA
330
1A
100
AcDbEntity
  8
SEIHIN
 62
     3
 48
16.0
100
AcDbCircle
 10
154.6263126550161
 20
214.2385361777638
 30
0.0
 40
3.999975640597015
100
AcDbArc
 50
270.0004445167018
 51
346.2612387191818
  0
LINE
  5
4AB
330
1A
100
AcDbEntity
  8
SEIHIN
100
AcDbLine
 10
162.4850128835229
 20
207.7385927198061
 30
0.0
 11
162.4850128835229
 21
218.8386605372872
 31
0.0
  0
ARC
  5
4AC
330
1A
100
AcDbEntity
  8
SEIHIN
 62
     3
 48
16.0
100
AcDbCircle
 10
154.6262975285242
 20
212.3386967713654
 30
0.0
 40
3.999963766188102
100
AcDbArc
 50
13.73715317214901
 51
89.99933880898005
  0
ARC
  5
4AD
330
1A
100
AcDbEntity
  8
SEIHIN
 62
     3
 48
16.0
100
AcDbCircle
 10
154.6263248341851
 20
212.3386717861004
 30
0.0
 40
1.999988751275602
100
AcDbArc
 50
28.35590231145058
 51
89.99945987646563
  0
LINE
  5
4AE
330
1A
100
AcDbEntity
  8
SEIHIN
 62
     3
 48
16.0
100
AcDbLine
 10
196.9263436879472
 20
222.0386448706205
 30
0.0
 11
196.9263436879472
 21
233.9885605372872
 31
0.0
  0
LINE
  5
4AF
330
1A
100
AcDbEntity
  8
SEIHIN
 62
     3
 48
16.0
100
AcDbLine
 10
198.4263436879473
 20
243.2885605372872
 30
0.0
 11
198.4263436879472
 21
222.0386448706205
 31
0.0
  0
LINE
  5
4B0
330
1A
100
AcDbEntity
  8
SEIHIN
 62
     3
 48
16.0
100
AcDbLine
 10
199.6263436879472
 20
243.2885605372872
 30
0.0
 11
199.6262688141052
 21
220.8264079560567
 31
0.0
  0
LINE
  5
4B1
330
1A
100
AcDbEntity
  8
SEIHIN
100
AcDbLine
 10
167.6263184297761
 20
207.7385867554146
 30
0.0
 11
167.6263184297761
 21
218.8386605372872
 31
0.0
  0
LINE
  5
4B2
330
1A
100
AcDbEntity
  8
SEIHIN
100
AcDbLine
 10
167.6262453990881
 20
205.73858619058
 30
0.0
 11
167.6262453990881
 21
206.7385867554986
 31
0.0
  0
LINE
  5
4B3
330
1A
100
AcDbEntity
  8
SEIHIN
100
AcDbLine
 10
170.6264029217179
 20
205.7385826274518
 30
0.0
 11
170.6264029217179
 21
206.7385832750374
 31
0.0
  0
LINE
  5
4B4
330
1A
100
AcDbEntity
  8
SEIHIN
100
AcDbLine
 10
170.6264029217179
 20
219.8386605372872
 30
0.0
 11
170.6264029217179
 21
220.8386605372871
 31
0.0
  0
LINE
  5
4B5
330
1A
100
AcDbEntity
  8
SEIHIN
100
AcDbLine
 10
167.6262453990881
 20
219.8386605372872
 30
0.0
 11
167.6262453990881
 21
220.8386605372871
 31
0.0
  0
LINE
  5
4B6
330
1A
100
AcDbEntity
  8
SEIHIN
 62
     3
 48
16.0
100
AcDbLine
 10
199.6262655216138
 20
219.8386605372872
 30
0.0
 11
199.6262218545774
 21
206.738549632556
 31
0.0
  0
LINE
  5
4B7
330
1A
100
AcDbEntity
  8
SEIHIN
 62
     3
 48
16.0
100
AcDbLine
 10
190.2263436879471
 20
205.73855934964
 30
0.0
 11
190.2263436879471
 21
206.7385448706204
 31
0.0
  0
LINE
  5
4B8
330
1A
100
AcDbEntity
  8
SEIHIN
 62
     3
 48
16.0
100
AcDbLine
 10
197.4263436879472
 20
205.5385448706204
 30
0.0
 11
193.7966436879472
 21
205.5385448706204
 31
0.0
  0
LINE
  5
4B9
330
1A
100
AcDbEntity
  8
SEIHIN
 62
     3
 48
16.0
100
AcDbLine
 10
192.7966436879472
 20
206.5385448706205
 30
0.0
 11
192.7966436879472
 21
206.7385448706204
 31
0.0
  0
ARC
  5
4BA
330
1A
100
AcDbEntity
  8
SEIHIN
 62
     3
 48
16.0
100
AcDbCircle
 10
193.7966436879473
 20
206.5385448706205
 30
0.0
 40
1.000000000000056
100
AcDbArc
 50
179.9999999999967
 51
269.9999999999967
  0
ARC
  5
4BB
330
1A
100
AcDbEntity
  8
SEIHIN
 62
     3
 48
16.0
100
AcDbCircle
 10
197.4263436879473
 20
204.5385448706205
 30
0.0
 40
0.9999999999999431
100
AcDbArc
 50
0.0000000000032569
 51
90.00000000000325
  0
ARC
  5
4BC
330
1A
100
AcDbEntity
  8
SEIHIN
 62
     3
 48
16.0
100
AcDbCircle
 10
195.9263436879473
 20
204.5385448706205
 30
0.0
 40
0.9999999999999431
100
AcDbArc
 50
0.0000000000032569
 51
90.00000000000325
  0
LINE
  5
4BD
330
1A
100
AcDbEntity
  8
SEIHIN
 62
     3
 48
16.0
100
AcDbLine
 10
190.2263436879471
 20
220.8386605372871
 30
0.0
 11
190.2263436879471
 21
219.8387448706204
 31
0.0
  0
LINE
  5
4BE
330
1A
100
AcDbEntity
  8
SEIHIN
 62
     3
 48
16.0
100
AcDbLine
 10
197.4263436879472
 20
221.0386448706204
 30
0.0
 11
193.7966436879472
 21
221.0386448706204
 31
0.0
  0
LINE
  5
4BF
330
1A
100
AcDbEntity
  8
SEIHIN
 62
     3
 48
16.0
100
AcDbLine
 10
192.7966436879472
 20
220.0386448706205
 30
0.0
 11
192.7966436879472
 21
219.8386448706206
 31
0.0
  0
ARC
  5
4C0
330
1A
100
AcDbEntity
  8
SEIHIN
 62
     3
 48
16.0
100
AcDbCircle
 10
193.7966436879472
 20
220.0386448706205
 30
0.0
 40
0.9999999999999431
100
AcDbArc
 50
89.99999999999674
 51
179.9999999999967
  0
ARC
  5
4C1
330
1A
100
AcDbEntity
  8
SEIHIN
 62
     3
 48
16.0
100
AcDbCircle
 10
197.4263436879472
 20
222.0386448706205
 30
0.0
 40
1.000000000000056
100
AcDbArc
 50
270.0000000000032
 51
0.0000000000032569
  0
ARC
  5
4C2
330
1A
100
AcDbEntity
  8
SEIHIN
 62
     3
 48
16.0
100
AcDbCircle
 10
195.9263436879472
 20
222.0386448706205
 30
0.0
 40
1.000000000000056
100
AcDbArc
 50
270.0000000000032
 51
0.0000000000032569
  0
LINE
  5
4C3
330
1A
100
AcDbEntity
  8
SEIHIN
 62
     3
 48
16.0
100
AcDbLine
 10
198.4263436879473
 20
235.2885605372872
 30
0.0
 11
198.2263436879471
 21
235.2885605372872
 31
0.0
  0
ARC
  5
4C4
330
1A
100
AcDbEntity
  8
SEIHIN
 62
     3
 48
16.0
100
AcDbCircle
 10
198.2263436879471
 20
233.9885605372873
 30
0.0
 40
1.299999999999926
100
AcDbArc
 50
90.00000000000374
 51
180.0000000000037
  0
LINE
  5
4C5
330
1A
100
AcDbEntity
  8
SEIHIN
 62
     3
 48
16.0
100
AcDbLine
 10
199.6263436879472
 20
243.2885605372872
 30
0.0
 11
198.4263436879473
 21
243.2885605372872
 31
0.0
  0
ARC
  5
4C6
330
1A
100
AcDbEntity
  8
SEIHIN
 62
     3
 48
16.0
100
AcDbCircle
 10
265.6262436879472
 20
120.2885605372872
 30
0.0
 40
0.9999999999999573
100
AcDbArc
 50
89.99999999999674
 51
179.9999999999975
  0
ARC
  5
4C7
330
1A
100
AcDbEntity
  8
SEIHIN
 62
     3
 48
16.0
100
AcDbCircle
 10
265.6262436879472
 20
110.2885605372872
 30
0.0
 40
1.000000000000056
100
AcDbArc
 50
179.9999999999975
 51
269.9999999999967
  0
DIMENSION
  5
4C8
330
1A
100
AcDbEntity
  8
SUNPOU
  6
CONTINUOUS
 62
     4
100
AcDbDimension
  2
*D8
 10
264.6262436879471
 20
150.2276088359406
 30
0.0
 11
294.6262436879471
 21
152.7276088359406
 31
0.0
 70
    32
  3
STANDARD
100
AcDbAlignedDimension
 13
324.626243687947
 23
121.2885605372871
 33
0.0
 14
264.6262436879471
 24
121.2885605372871
 34
0.0
100
AcDbRotatedDimension
1001
ACAD
1000
DSTYLE
1002
{
1070
   140
1040
3.0
1070
    74
1070
     0
1070
   172
1070
     1
1070
    73
1070
     0
1070
   272
1070
     2
1070
    77
1070
     3
1070
   173
1070
     1
1070
   147
1040
1.0
1070
    42
1040
3.0
1070
    44
1040
1.5
1070
    43
1040
7.0
1070
   271
1070
     0
1070
   178
1070
     4
1070
   177
1070
     4
1070
   176
1070
     4
1070
   141
1040
150.0
1070
     7
1000
_OPEN
1070
     6
1000
_OPEN
1070
    41
1040
3.0
1002
}
  0
DIMENSION
  5
4C9
330
1A
100
AcDbEntity
  8
SUNPOU
  6
CONTINUOUS
 62
     4
100
AcDbDimension
  2
*D9
 10
249.3495305739505
 20
115.2885605372871
 30
0.0
 11
246.8495305739505
 21
121.7885605372872
 31
0.0
 70
    32
  3
STANDARD
100
AcDbAlignedDimension
 13
288.626243687947
 23
128.2885605372872
 33
0.0
 14
264.6262436879471
 24
115.2885605372871
 34
0.0
 50
90.0
100
AcDbRotatedDimension
1001
ACAD
1000
DSTYLE
1002
{
1070
   140
1040
3.0
1070
    74
1070
     0
1070
   172
1070
     1
1070
    73
1070
     0
1070
   272
1070
     2
1070
    77
1070
     3
1070
   173
1070
     1
1070
   147
1040
1.0
1070
    42
1040
3.0
1070
    44
1040
1.5
1070
    43
1040
7.0
1070
   271
1070
     0
1070
   178
1070
     4
1070
   177
1070
     4
1070
   176
1070
     4
1070
   141
1040
150.0
1070
     7
1000
_OPEN
1070
     6
1000
_OPEN
1070
    41
1040
3.0
1002
}
  0
DIMENSION
  5
4CA
330
1A
100
AcDbEntity
  8
SUNPOU
  6
CONTINUOUS
 62
     4
100
AcDbDimension
  2
*D10
 10
239.3703311287314
 20
83.28856053728729
 30
0.0
 11
236.8703311287314
 21
105.7885605372873
 31
0.0
 70
    32
  3
STANDARD
100
AcDbAlignedDimension
 13
288.626243687947
 23
128.2885605372872
 33
0.0
 14
288.626243687947
 24
83.28856053728728
 34
0.0
 50
90.0
100
AcDbRotatedDimension
1001
ACAD
1000
DSTYLE
1002
{
1070
   140
1040
3.0
1070
    74
1070
     0
1070
   172
1070
     1
1070
    73
1070
     0
1070
   272
1070
     2
1070
    77
1070
     3
1070
   173
1070
     1
1070
   147
1040
1.0
1070
    42
1040
3.0
1070
    44
1040
1.5
1070
    43
1040
7.0
1070
   271
1070
     0
1070
   178
1070
     4
1070
   177
1070
     4
1070
   176
1070
     4
1070
   141
1040
150.0
1070
     7
1000
_OPEN
1070
     6
1000
_OPEN
1070
    41
1040
3.0
1002
}
  0
LEADER
  5
4CB
330
1A
100
AcDbEntity
  8
SUNPOU
  6
CONTINUOUS
 62
     4
100
AcDbLeader
  3
STANDARD
 73
     0
 40
3.0
 41
15.59999999999999
 76
     3
 10
268.5757947090113
 20
116.6882236905682
 30
0.0
 10
259.4811187409221
 20
138.1347689220213
 30
0.0
 10
256.4993886003266
 20
138.1347689220213
 30
0.0
1001
ACAD
1000
DSTYLE
1002
{
1070
     6
1000
OPEN
1070
    41
1040
3.0
1070
    42
1040
3.0
1070
    43
1040
7.0
1070
    44
1040
1.5
1070
    73
1070
     0
1070
    74
1070
     0
1070
    77
1070
     3
1070
   140
1040
3.0
1070
   141
1040
150.0
1070
   147
1040
1.0
1070
   172
1070
     1
1070
   173
1070
     1
1070
   176
1070
     4
1070
   177
1070
     4
1070
   178
1070
     4
1070
   271
1070
     0
1070
   272
1070
     2
1070
   341
1005
B2
1070
   343
1005
B2
1070
   344
1005
B2
1002
}
  0
LINE
  5
4CC
330
1A
100
AcDbEntity
  8
SEIHIN
 62
     3
 48
16.0
100
AcDbLine
 10
264.6262436879471
 20
110.2885605372872
 30
0.0
 11
264.6262436879471
 21
120.2885605372872
 31
0.0
  0
MTEXT
  5
4CD
330
1A
100
AcDbEntity
  8
SUNPOU
  6
CONTINUOUS
 62
     4
100
AcDbMText
 10
255.4993886003265
 20
139.1347689220213
 30
0.0
 40
3.0
 41
0.0
 71
     9
 72
     5
  1
3-φ3.5
1001
ACAD
1000
MTEXTBEGIN
1070
    73
1070
     1
1070
    44
1040
1.0
1070
    74
1070
     0
1000
MTEXTEND
1000
MTEXTBEGIN
1070
    73
1070
     1
1070
    44
1040
1.0
1070
    74
1070
     0
1000
MTEXTEND
1000
MTEXTBEGIN
1070
    73
1070
     1
1070
    44
1040
1.0
1070
    74
1070
     0
1000
MTEXTEND
  0
LINE
  5
4CE
330
1A
100
AcDbEntity
  8
CENTER_L
  6
CENTER
 62
     1
 48
5.0
100
AcDbLine
 10
294.6262436879471
 20
134.3850605372872
 30
0.0
 11
294.6262436879471
 21
78.28856053728739
 31
0.0
  0
LINE
  5
4CF
330
1A
100
AcDbEntity
  8
SEIHIN
 62
     3
 48
16.0
100
AcDbLine
 10
297.6262436879471
 20
122.7110605372872
 30
0.0
 11
297.6262436879471
 21
103.7110605372872
 31
0.0
  0
LINE
  5
4D0
330
1A
100
AcDbEntity
  8
SEIHIN
 62
     3
 48
16.0
100
AcDbLine
 10
291.626243687947
 20
122.7110605372872
 30
0.0
 11
291.626243687947
 21
103.7110605372872
 31
0.0
  0
LINE
  5
4D1
330
1A
100
AcDbEntity
  8
SEIHIN
 62
     3
 48
16.0
100
AcDbLine
 10
288.626243687947
 20
84.2885605372874
 30
0.0
 11
288.626243687947
 21
127.2885605372871
 31
0.0
  0
LINE
  5
4D2
330
1A
100
AcDbEntity
  8
SEIHIN
 62
     3
 48
16.0
100
AcDbLine
 10
300.626243687947
 20
84.2885605372874
 30
0.0
 11
300.626243687947
 21
127.2885605372871
 31
0.0
  0
ARC
  5
4D3
330
1A
100
AcDbEntity
  8
SEIHIN
 62
     3
 48
16.0
100
AcDbCircle
 10
294.6262436879471
 20
103.7110605372872
 30
0.0
 40
3.0
100
AcDbArc
 50
270.0
 51
0.0000000000000042
  0
LINE
  5
4D4
330
1A
100
AcDbEntity
  8
CENTER_L
  6
CENTER
 62
     1
 48
5.0
100
AcDbLine
 10
290.4330436879472
 20
88.2885605372874
 30
0.0
 11
298.4699436879472
 21
88.2885605372874
 31
0.0
  0
LINE
  5
4D5
330
1A
100
AcDbEntity
  8
SEIHIN
 62
     3
 48
16.0
100
AcDbLine
 10
299.626243687947
 20
83.28856053728728
 30
0.0
 11
294.6262436879471
 21
83.28856053728728
 31
0.0
  0
DIMENSION
  5
4D6
330
1A
100
AcDbEntity
  8
SUNPOU
  6
CONTINUOUS
 62
     4
100
AcDbDimension
  2
*D11
 10
279.3504671597867
 20
83.28856053728729
 30
0.0
 11
276.8504671597867
 21
85.7885605372874
 31
0.0
 70
    32
  3
STANDARD
100
AcDbAlignedDimension
 13
288.626243687947
 23
88.2885605372874
 33
0.0
 14
288.626243687947
 24
83.28856053728728
 34
0.0
 50
90.0
100
AcDbRotatedDimension
1001
ACAD
1000
DSTYLE
1002
{
1070
   140
1040
3.0
1070
    74
1070
     0
1070
   172
1070
     1
1070
    73
1070
     0
1070
   272
1070
     2
1070
    77
1070
     3
1070
   173
1070
     1
1070
   147
1040
1.0
1070
    42
1040
3.0
1070
    44
1040
1.5
1070
    43
1040
7.0
1070
   271
1070
     0
1070
   178
1070
     4
1070
   177
1070
     4
1070
   176
1070
     4
1070
   141
1040
150.0
1070
     7
1000
_OPEN
1070
     6
1000
_OPEN
1070
    41
1040
3.0
1002
}
  0
LINE
  5
4D7
330
1A
100
AcDbEntity
  8
SEIHIN
 62
     3
 48
16.0
100
AcDbLine
 10
289.6262436879471
 20
83.28856053728728
 30
0.0
 11
294.6262436879471
 21
83.28856053728728
 31
0.0
  0
ARC
  5
4D8
330
1A
100
AcDbEntity
  8
SEIHIN
 62
     3
 48
16.0
100
AcDbCircle
 10
289.6262436879471
 20
84.2885605372874
 30
0.0
 40
1.000000000000113
100
AcDbArc
 50
180.0000000000007
 51
270.0
  0
ARC
  5
4D9
330
1A
100
AcDbEntity
  8
SEIHIN
 62
     3
 48
16.0
100
AcDbCircle
 10
294.6262436879471
 20
88.2885605372874
 30
0.0
 40
1.75
100
AcDbArc
 50
0.0
 51
180.0
  0
ARC
  5
4DA
330
1A
100
AcDbEntity
  8
SEIHIN
 62
     3
 48
16.0
100
AcDbCircle
 10
294.6262436879471
 20
88.2885605372874
 30
0.0
 40
1.75
100
AcDbArc
 50
180.0
 51
0.0
  0
ARC
  5
4DB
330
1A
100
AcDbEntity
  8
SEIHIN
 62
     3
 48
16.0
100
AcDbCircle
 10
294.6262436879471
 20
103.7110605372872
 30
0.0
 40
3.000000000000056
100
AcDbArc
 50
180.0000000000011
 51
270.000000000001
  0
ARC
  5
4DC
330
1A
100
AcDbEntity
  8
SEIHIN
 62
     3
 48
16.0
100
AcDbCircle
 10
299.626243687947
 20
84.28856053728734
 30
0.0
 40
1.000000000000042
100
AcDbArc
 50
270.0000000000032
 51
0.0000000000024427
  0
LINE
  5
4DD
330
1A
100
AcDbEntity
  8
SEIHIN
 62
     3
 48
16.0
100
AcDbLine
 10
299.626243687947
 20
128.2885605372872
 30
0.0
 11
294.6262436879471
 21
128.2885605372872
 31
0.0
  0
ARC
  5
4DE
330
1A
100
AcDbEntity
  8
SEIHIN
 62
     3
 48
16.0
100
AcDbCircle
 10
294.6262436879471
 20
122.7110605372872
 30
0.0
 40
3.0
100
AcDbArc
 50
0.0
 51
90.0
  0
DIMENSION
  5
4DF
330
1A
100
AcDbEntity
  8
SUNPOU
  6
CONTINUOUS
 62
     4
100
AcDbDimension
  2
*D12
 10
269.6262436879471
 20
140.8671339421914
 30
0.0
 11
294.6262436879472
 21
143.3671339421914
 31
0.0
 70
    32
  3
STANDARD
100
AcDbAlignedDimension
 13
319.6262436879472
 23
121.2885605372871
 33
0.0
 14
269.6262436879471
 24
121.2885605372871
 34
0.0
100
AcDbRotatedDimension
1001
ACAD
1000
DSTYLE
1002
{
1070
   140
1040
3.0
1070
    74
1070
     0
1070
   172
1070
     1
1070
    73
1070
     0
1070
   272
1070
     2
1070
    77
1070
     3
1070
   173
1070
     1
1070
   147
1040
1.0
1070
    42
1040
3.0
1070
    44
1040
1.5
1070
    43
1040
7.0
1070
   271
1070
     0
1070
   178
1070
     4
1070
   177
1070
     4
1070
   176
1070
     4
1070
   141
1040
150.0
1070
     7
1000
_OPEN
1070
     6
1000
_OPEN
1070
    41
1040
3.0
1002
}
  0
LINE
  5
4E0
330
1A
100
AcDbEntity
  8
SEIHIN
 62
     3
 48
16.0
100
AcDbLine
 10
265.6262436879472
 20
121.2885605372871
 30
0.0
 11
288.626243687947
 21
121.2885605372871
 31
0.0
  0
LINE
  5
4E1
330
1A
100
AcDbEntity
  8
SEIHIN
 62
     3
 48
16.0
100
AcDbLine
 10
288.626243687947
 20
117.7885605372872
 30
0.0
 11
274.626243687947
 21
117.7885605372872
 31
0.0
  0
LINE
  5
4E2
330
1A
100
AcDbEntity
  8
SEIHIN
 62
     3
 48
16.0
100
AcDbLine
 10
265.6262436879472
 20
109.2885605372871
 30
0.0
 11
288.626243687947
 21
109.2885605372871
 31
0.0
  0
LINE
  5
4E3
330
1A
100
AcDbEntity
  8
SEIHIN
 62
     3
 48
16.0
100
AcDbLine
 10
288.626243687947
 20
112.7885605372871
 30
0.0
 11
274.626243687947
 21
112.7885605372871
 31
0.0
  0
LINE
  5
4E4
330
1A
100
AcDbEntity
  8
CENTER_L
  6
CENTER
 62
     1
 48
5.0
100
AcDbLine
 10
269.6262436879471
 20
119.9883605372872
 30
0.0
 11
269.6262436879471
 21
110.5396605372872
 31
0.0
  0
LINE
  5
4E5
330
1A
100
AcDbEntity
  8
CENTER_L
  6
CENTER
 62
     1
 48
5.0
100
AcDbLine
 10
265.8065436879472
 20
115.2885605372871
 30
0.0
 11
276.2213436879471
 21
115.2885605372871
 31
0.0
  0
ARC
  5
4E6
330
1A
100
AcDbEntity
  8
SEIHIN
 62
     3
 48
16.0
100
AcDbCircle
 10
274.626243687947
 20
115.2885605372871
 30
0.0
 40
2.5
100
AcDbArc
 50
180.0
 51
270.0
  0
ARC
  5
4E7
330
1A
100
AcDbEntity
  8
SEIHIN
 62
     3
 48
16.0
100
AcDbCircle
 10
274.6262436879471
 20
115.2885605372872
 30
0.0
 40
2.500000000000042
100
AcDbArc
 50
90.00000000000129
 51
180.0000000000009
  0
ARC
  5
4E8
330
1A
100
AcDbEntity
  8
SEIHIN
 62
     3
 48
16.0
100
AcDbCircle
 10
269.6262436879471
 20
115.2885605372871
 30
0.0
 40
1.75
100
AcDbArc
 50
180.0
 51
0.0
  0
ARC
  5
4E9
330
1A
100
AcDbEntity
  8
SEIHIN
 62
     3
 48
16.0
100
AcDbCircle
 10
269.6262436879471
 20
115.2885605372871
 30
0.0
 40
1.75
100
AcDbArc
 50
0.0
 51
180.0
  0
LINE
  5
4EA
330
1A
100
AcDbEntity
  8
SEIHIN
 62
     3
 48
16.0
100
AcDbLine
 10
296.626243687947
 20
118.2885605372872
 30
0.0
 11
296.626243687947
 21
111.2885605372871
 31
0.0
  0
LINE
  5
4EB
330
1A
100
AcDbEntity
  8
SEIHIN
 62
     3
 48
16.0
100
AcDbLine
 10
292.626243687947
 20
118.2885605372872
 30
0.0
 11
292.626243687947
 21
111.2885605372871
 31
0.0
  0
LINE
  5
4EC
330
1A
100
AcDbEntity
  8
SEIHIN
 62
     3
 48
16.0
100
AcDbLine
 10
292.626243687947
 20
111.2885605372871
 30
0.0
 11
294.6262436879471
 21
111.2885605372871
 31
0.0
  0
LINE
  5
4ED
330
1A
100
AcDbEntity
  8
SEIHIN
 62
     3
 48
16.0
100
AcDbLine
 10
296.626243687947
 20
111.2885605372871
 30
0.0
 11
294.6262436879471
 21
111.2885605372871
 31
0.0
  0
LINE
  5
4EE
330
1A
100
AcDbEntity
  8
SEIHIN
 62
     3
 48
16.0
100
AcDbLine
 10
292.626243687947
 20
118.2885605372872
 30
0.0
 11
294.6262436879471
 21
118.2885605372872
 31
0.0
  0
LINE
  5
4EF
330
1A
100
AcDbEntity
  8
SEIHIN
 62
     3
 48
16.0
100
AcDbLine
 10
296.626243687947
 20
118.2885605372872
 30
0.0
 11
294.6262436879471
 21
118.2885605372872
 31
0.0
  0
LINE
  5
4F0
330
1A
100
AcDbEntity
  8
SEIHIN
 62
     3
 48
16.0
100
AcDbLine
 10
289.6262436879471
 20
128.2885605372872
 30
0.0
 11
294.6262436879471
 21
128.2885605372872
 31
0.0
  0
ARC
  5
4F1
330
1A
100
AcDbEntity
  8
SEIHIN
 62
     3
 48
16.0
100
AcDbCircle
 10
289.6262436879471
 20
127.2885605372871
 30
0.0
 40
1.000000000000099
100
AcDbArc
 50
90.0
 51
179.9999999999991
  0
ARC
  5
4F2
330
1A
100
AcDbEntity
  8
SEIHIN
 62
     3
 48
16.0
100
AcDbCircle
 10
294.6262436879471
 20
122.7110605372871
 30
0.0
 40
3.000000000000056
100
AcDbArc
 50
89.99999999999891
 51
179.9999999999988
  0
LINE
  5
4F3
330
1A
100
AcDbEntity
  8
SEIHIN
 62
     3
 48
16.0
100
AcDbLine
 10
323.6262436879473
 20
121.2885605372871
 30
0.0
 11
300.626243687947
 21
121.2885605372871
 31
0.0
  0
LINE
  5
4F4
330
1A
100
AcDbEntity
  8
SEIHIN
 62
     3
 48
16.0
100
AcDbLine
 10
300.626243687947
 20
117.7885605372872
 30
0.0
 11
314.6262436879473
 21
117.7885605372872
 31
0.0
  0
LINE
  5
4F5
330
1A
100
AcDbEntity
  8
CENTER_L
  6
CENTER
 62
     1
 48
5.0
100
AcDbLine
 10
323.4459436879473
 20
115.2885605372871
 30
0.0
 11
313.1475436879471
 21
115.2885605372871
 31
0.0
  0
LINE
  5
4F6
330
1A
100
AcDbEntity
  8
SEIHIN
 62
     3
 48
16.0
100
AcDbLine
 10
323.6262436879473
 20
109.2885605372871
 30
0.0
 11
300.626243687947
 21
109.2885605372871
 31
0.0
  0
LINE
  5
4F7
330
1A
100
AcDbEntity
  8
SEIHIN
 62
     3
 48
16.0
100
AcDbLine
 10
300.626243687947
 20
112.7885605372871
 30
0.0
 11
314.6262436879473
 21
112.7885605372871
 31
0.0
  0
ARC
  5
4F8
330
1A
100
AcDbEntity
  8
SEIHIN
 62
     3
 48
16.0
100
AcDbCircle
 10
299.626243687947
 20
127.2885605372872
 30
0.0
 40
1.000000000000056
100
AcDbArc
 50
359.9999999999975
 51
89.99999999999674
  0
LINE
  5
4F9
330
1A
100
AcDbEntity
  8
SEIHIN
 62
     3
 48
16.0
100
AcDbLine
 10
324.626243687947
 20
110.2885605372872
 30
0.0
 11
324.626243687947
 21
120.2885605372872
 31
0.0
  0
LINE
  5
4FA
330
1A
100
AcDbEntity
  8
CENTER_L
  6
CENTER
 62
     1
 48
5.0
100
AcDbLine
 10
319.6262436879472
 20
119.9883605372872
 30
0.0
 11
319.6262436879472
 21
110.5396605372872
 31
0.0
  0
ARC
  5
4FB
330
1A
100
AcDbEntity
  8
SEIHIN
 62
     3
 48
16.0
100
AcDbCircle
 10
314.626243687947
 20
115.2885605372871
 30
0.0
 40
2.499999999999943
100
AcDbArc
 50
270.0000000000013
 51
0.0000000000013028
  0
ARC
  5
4FC
330
1A
100
AcDbEntity
  8
SEIHIN
 62
     3
 48
16.0
100
AcDbCircle
 10
319.6262436879472
 20
115.2885605372871
 30
0.0
 40
1.75
100
AcDbArc
 50
180.0
 51
0.0
  0
ARC
  5
4FD
330
1A
100
AcDbEntity
  8
SEIHIN
 62
     3
 48
16.0
100
AcDbCircle
 10
319.6262436879472
 20
115.2885605372871
 30
0.0
 40
1.75
100
AcDbArc
 50
0.0
 51
180.0
  0
ARC
  5
4FE
330
1A
100
AcDbEntity
  8
SEIHIN
 62
     3
 48
16.0
100
AcDbCircle
 10
314.626243687947
 20
115.2885605372872
 30
0.0
 40
2.5
100
AcDbArc
 50
359.9999999999977
 51
89.99999999999738
  0
ARC
  5
4FF
330
1A
100
AcDbEntity
  8
SEIHIN
 62
     3
 48
16.0
100
AcDbCircle
 10
323.626243687947
 20
110.2885605372871
 30
0.0
 40
0.9999999999999857
100
AcDbArc
 50
270.0000000000065
 51
0.0000000000056996
  0
ARC
  5
500
330
1A
100
AcDbEntity
  8
SEIHIN
 62
     3
 48
16.0
100
AcDbCircle
 10
323.6262436879473
 20
120.2885605372872
 30
0.0
 40
0.9999999999998863
100
AcDbArc
 50
359.9999999999992
 51
90.0
  0
LINE
  5
7C9
330
1A
100
AcDbEntity
  8
ZUWAKU
100
AcDbLine
 10
104.3233002469811
 20
7.600000314153245
 30
0.0
 11
223.7121815874428
 21
7.600000314153241
 31
0.0
  0
LINE
  5
7CA
330
1A
100
AcDbEntity
  8
ZUWAKU
100
AcDbLine
 10
104.3233002469811
 20
7.800000314153242
 30
0.0
 11
223.7121815874428
 21
7.800000314153246
 31
0.0
  0
LINE
  5
7CB
330
1A
100
AcDbEntity
  8
ZUWAKU
100
AcDbLine
 10
104.3233002469811
 20
7.700000314153243
 30
0.0
 11
223.7121815874428
 21
7.700000314153243
 31
0.0
  0
LINE
  5
7CC
330
1A
100
AcDbEntity
  8
ZUWAKU
100
AcDbLine
 10
-0.0000003980528618
 20
15.40000031415323
 30
0.0
 11
398.699999601947
 21
15.40000031415323
 31
0.0
  0
LINE
  5
7CD
330
1A
100
AcDbEntity
  8
ZUWAKU
100
AcDbLine
 10
-0.0000003980528618
 20
15.30000031415323
 30
0.0
 11
398.699999601947
 21
15.30000031415323
 31
0.0
  0
LINE
  5
7CE
330
1A
100
AcDbEntity
  8
ZUWAKU
100
AcDbLine
 10
-0.0000003980528618
 20
15.20000031415323
 30
0.0
 11
398.699999601947
 21
15.20000031415323
 31
0.0
  0
LINE
  5
7CF
330
1A
100
AcDbEntity
  8
ZUWAKU
100
AcDbLine
 10
-0.0000003980528618
 20
15.10000031415322
 30
0.0
 11
398.699999601947
 21
15.10000031415322
 31
0.0
  0
LINE
  5
7D0
330
1A
100
AcDbEntity
  8
ZUWAKU
100
AcDbLine
 10
-0.0000003980528618
 20
15.00000031415322
 30
0.0
 11
398.699999601947
 21
15.00000031415322
 31
0.0
  0
LWPOLYLINE
  5
7D1
330
1A
100
AcDbEntity
  8
ZUWAKU
100
AcDbPolyline
 90
        4
 70
     1
 43
0.0
 10
0.0999996019471041
 20
275.7000003141532
 10
0.0999996019471041
 20
0.1000003141532488
 10
398.699999601947
 20
0.1000003141532604
 10
398.6999996019471
 20
275.7000003141532
  0
LWPOLYLINE
  5
7D2
330
1A
100
AcDbEntity
  8
ZUWAKU
100
AcDbPolyline
 90
        4
 70
     1
 43
0.0
 10
0.2999996019470927
 20
275.5000003141532
 10
0.2999996019470927
 20
0.3000003141532375
 10
398.4999996019472
 20
0.3000003141532606
 10
398.4999996019471
 20
275.5000003141532
  0
LWPOLYLINE
  5
7D3
330
1A
100
AcDbEntity
  8
ZUWAKU
100
AcDbPolyline
 90
        4
 70
     1
 43
0.0
 10
-0.0000003980528618
 20
275.8000003141532
 10
-0.0000003980528618
 20
0.0000003141532261
 10
398.7999996019471
 20
0.0000003141532599
 10
398.7999996019471
 20
275.8000003141532
  0
LWPOLYLINE
  5
7D4
330
1A
100
AcDbEntity
  8
ZUWAKU
100
AcDbPolyline
 90
        4
 70
     1
 43
0.0
 10
0.1999996019471268
 20
275.6000003141532
 10
0.1999996019471268
 20
0.2000003141532716
 10
398.5999996019471
 20
0.20000031415326
 10
398.5999996019471
 20
275.6000003141532
  0
LWPOLYLINE
  5
7D5
330
1A
100
AcDbEntity
  8
ZUWAKU
100
AcDbPolyline
 90
        4
 70
     1
 43
0.0
 10
0.3999996019471155
 20
275.4000003141532
 10
0.3999996019471155
 20
0.4000003141532602
 10
398.3999996019471
 20
0.4000003141532602
 10
398.3999996019471
 20
275.4000003141532
  0
TEXT
  5
7D6
330
1A
100
AcDbEntity
  8
MOJI
100
AcDbText
 10
46.4788943960317
 20
6.370589379290606
 30
0.0
 40
3.0
  1
ライナートップ
 41
0.9
  7
ｽﾀｲﾙ1
100
AcDbText
  0
HATCH
  5
7D7
330
1A
100
AcDbEntity
  8
ZUWAKU
100
AcDbHatch
 10
0.0
 20
0.0
 30
0.0
210
0.0
220
0.0
230
1.0
  2
ANSI37
 70
     0
 71
     0
 91
        8
 92
        7
 72
     1
 73
     1
 93
       24
 10
7.251130932507066
 20
8.822424554645017
 42
-0.1989123673796348
 10
7.046105679337699
 20
9.317399301475543
 42
0.0
 10
7.046105679337699
 20
9.962500314153231
 42
-0.4142135623730912
 10
7.308605679337688
 20
10.22500031415322
 42
0.0
 10
8.796105679337642
 20
10.22500031415322
 42
0.4142135623731546
 10
9.058605679337688
 20
10.48750031415322
 42
0.0
 10
9.058605679337688
 20
11.36250031415322
 42
0.4142135623731586
 10
8.796105679337642
 20
11.62500031415323
 42
0.0
 10
7.046105679337699
 20
11.62500031415323
 42
0.4142135623730928
 10
5.646105679337722
 20
10.22500031415324
 42
0.0
 10
5.646105679337722
 20
9.317399301475607
 42
0.1989123673796619
 10
6.261181438845937
 20
7.832475060983803
 42
0.0
 10
7.716080426168275
 20
6.377576073661474
 42
-0.1989123673796613
 10
7.921105679337699
 20
5.882601326830881
 42
0.0
 10
7.921105679337699
 20
5.237500314153223
 42
-0.4142135623730911
 10
7.658605679337711
 20
4.975000314153227
 42
0.0
 10
6.171105679337756
 20
4.975000314153227
 42
0.4142135623731526
 10
5.908605679337711
 20
4.712500314153233
 42
0.0
 10
5.908605679337711
 20
3.837500314153222
 42
0.4142135623731526
 10
6.171105679337756
 20
3.575000314153228
 42
0.0
 10
7.921105679337699
 20
3.575000314153228
 42
0.4142135623731044
 10
9.321105679337733
 20
4.975000314153216
 42
0.0
 10
9.321105679337733
 20
5.882601326830853
 42
0.1989123673796604
 10
8.706029919829461
 20
7.367525567322623
 42
0.0
 97
        0
 92
        7
 72
     1
 73
     1
 93
       16
 10
11.77110567933772
 20
9.525000314153231
 42
-0.4142135623730935
 10
12.47110567933771
 20
10.22500031415322
 42
0.0
 10
13.43360567933769
 20
10.22500031415322
 42
0.4142135623731546
 10
13.69610567933773
 20
10.48750031415322
 42
0.0
 10
13.69610567933773
 20
11.36250031415322
 42
0.4142135623730951
 10
13.43360567933774
 20
11.62500031415323
 42
0.0
 10
12.47110567933765
 20
11.6250003141532
 42
0.4142135623730892
 10
10.37110567933768
 20
9.525000314153196
 42
0.0
 10
10.37110567933768
 20
5.675000314153241
 42
0.4142135623730969
 10
12.47110567933771
 20
3.575000314153228
 42
0.0
 10
13.43360567933769
 20
3.575000314153228
 42
0.4142135623731526
 10
13.69610567933773
 20
3.837500314153222
 42
0.0
 10
13.69610567933773
 20
4.712500314153233
 42
0.4142135623730891
 10
13.43360567933774
 20
4.975000314153227
 42
0.0
 10
12.47110567933771
 20
4.975000314153227
 42
-0.4142135623730928
 10
11.77110567933772
 20
5.675000314153221
 42
0.0
 97
        0
 92
        7
 72
     1
 73
     1
 93
        2
 10
12.12110567933768
 20
7.600000314153227
 42
1.0
 10
13.87110567933768
 20
7.600000314153227
 42
1.0
 97
        0
 92
        7
 72
     1
 73
     1
 93
       26
 10
18.65742892042669
 20
9.602523910934941
 42
0.0
 10
19.1882487369956
 20
11.28345333006973
 42
0.5069206636600134
 10
18.93793328739792
 20
11.62500031415323
 42
0.0
 10
18.08848859759331
 20
11.62500031415323
 42
0.3272098845218764
 10
17.83817314799563
 20
11.44154729823671
 42
0.0
 10
16.90403821067974
 20
8.483453330069767
 42
-0.3272098845219541
 10
16.653722761082
 20
8.300000314153226
 42
0.0
 10
16.58360567933778
 20
8.300000314153226
 42
-0.4142135623731526
 10
16.32110567933773
 20
8.56250031415322
 42
0.0
 10
16.32110567933773
 20
11.36250031415322
 42
0.4142135623730951
 10
16.05860567933774
 20
11.62500031415323
 42
0.0
 10
15.18360567933768
 20
11.62500031415323
 42
0.4142135623730871
 10
14.9211056793377
 20
11.36250031415323
 42
0.0
 10
14.9211056793377
 20
3.837500314153222
 42
0.4142135623730891
 10
15.18360567933768
 20
3.575000314153228
 42
0.0
 10
16.05860567933769
 20
3.575000314153228
 42
0.4142135623731526
 10
16.32110567933773
 20
3.837500314153222
 42
0.0
 10
16.32110567933773
 20
6.637500314153234
 42
-0.4142135623731526
 10
16.58360567933778
 20
6.900000314153228
 42
0.0
 10
16.65372276108206
 20
6.900000314153228
 42
-0.3272098845218915
 10
16.90403821067974
 20
6.71654729823669
 42
0.0
 10
17.83817314799563
 20
3.758453330069764
 42
0.3272098845218902
 10
18.08848859759331
 20
3.575000314153228
 42
0.0
 10
18.93793328739792
 20
3.575000314153228
 42
0.5069206636600335
 10
19.1882487369956
 20
3.916547298236732
 42
0.0
 10
18.02505304775877
 20
7.600000314153296
 42
0.0
 97
        0
 92
        7
 72
     1
 73
     1
 93
        8
 10
21.74610567933768
 20
11.36250031415323
 42
0.4142135623731546
 10
21.48360567933764
 20
11.62500031415323
 42
0.0
 10
20.60860567933775
 20
11.62500031415323
 42
0.4142135623731507
 10
20.34610567933771
 20
11.36250031415323
 42
0.0
 10
20.34610567933771
 20
3.837500314153222
 42
0.4142135623731526
 10
20.60860567933775
 20
3.575000314153228
 42
0.0
 10
21.48360567933764
 20
3.575000314153228
 42
0.4142135623731526
 10
21.74610567933768
 20
3.837500314153222
 42
0.0
 97
        0
 92
        7
 72
     1
 73
     1
 93
       24
 10
24.19610567933773
 20
9.962500314153231
 42
-0.4142135623731546
 10
24.45860567933777
 20
10.22500031415322
 42
0.0
 10
25.94610567933773
 20
10.22500031415322
 42
0.4142135623730911
 10
26.20860567933772
 20
10.48750031415322
 42
0.0
 10
26.20860567933772
 20
11.36250031415322
 42
0.4142135623730952
 10
25.94610567933773
 20
11.62500031415323
 42
0.0
 10
24.19610567933773
 20
11.62500031415323
 42
0.4142135623731048
 10
22.7961056793377
 20
10.22500031415324
 42
0.0
 10
22.7961056793377
 20
9.317399301475607
 42
0.1989123673796613
 10
23.41118143884597
 20
7.832475060983831
 42
0.0
 10
24.86608042616831
 20
6.377576073661497
 42
-0.1989123673796402
 10
25.07110567933773
 20
5.882601326830961
 42
0.0
 10
25.07110567933773
 20
5.237500314153223
 42
-0.4142135623730911
 10
24.80860567933774
 20
4.975000314153227
 42
0.0
 10
23.32110567933773
 20
4.975000314153227
 42
0.4142135623731526
 10
23.05860567933768
 20
4.712500314153233
 42
0.0
 10
23.05860567933768
 20
3.837500314153222
 42
0.4142135623730891
 10
23.32110567933767
 20
3.575000314153228
 42
0.0
 10
25.07110567933773
 20
3.575000314153228
 42
0.4142135623730925
 10
26.47110567933771
 20
4.975000314153216
 42
0.0
 10
26.47110567933771
 20
5.882601326830853
 42
0.1989123673796675
 10
25.85602991982943
 20
7.36752556732268
 42
0.0
 10
24.40113093250715
 20
8.822424554644937
 42
-0.1989123673796652
 10
24.19610567933773
 20
9.317399301475521
 42
0.0
 97
        0
 92
        7
 72
     1
 73
     1
 93
       16
 10
28.92110567933769
 20
11.36250031415322
 42
0.414213562373103
 10
28.65860567933771
 20
11.62500031415323
 42
0.0
 10
27.78360567933771
 20
11.62500031415323
 42
0.4142135623730871
 10
27.52110567933772
 20
11.36250031415323
 42
0.0
 10
27.52110567933772
 20
4.975000314153216
 42
0.4142135623730926
 10
28.92110567933769
 20
3.575000314153228
 42
0.0
 10
30.6711056793377
 20
3.575000314153228
 42
0.4142135623731044
 10
32.07110567933773
 20
4.975000314153216
 42
0.0
 10
32.07110567933773
 20
11.36250031415322
 42
0.4142135623730951
 10
31.80860567933774
 20
11.62500031415323
 42
0.0
 10
30.93360567933769
 20
11.62500031415323
 42
0.4142135623730871
 10
30.6711056793377
 20
11.36250031415323
 42
0.0
 10
30.6711056793377
 20
5.500000314153215
 42
-0.414213562373088
 10
30.14610567933772
 20
4.975000314153227
 42
0.0
 10
29.44610567933773
 20
4.975000314153227
 42
-0.4142135623731197
 10
28.92110567933769
 20
5.500000314153215
 42
0.0
 97
        0
 92
        7
 72
     1
 73
     1
 93
        8
 10
34.52110567933772
 20
11.36250031415323
 42
0.4142135623730871
 10
34.25860567933773
 20
11.62500031415323
 42
0.0
 10
33.38360567933773
 20
11.62500031415323
 42
0.4142135623731507
 10
33.12110567933769
 20
11.36250031415323
 42
0.0
 10
33.12110567933769
 20
3.837500314153222
 42
0.4142135623730891
 10
33.38360567933767
 20
3.575000314153228
 42
0.0
 10
34.25860567933773
 20
3.575000314153228
 42
0.4142135623730891
 10
34.52110567933772
 20
3.837500314153222
 42
0.0
 97
        0
 75
     0
 76
     1
 52
0.0
 41
0.1
 77
     0
 78
     2
 53
45.0
 43
-450.4711525653923
 44
-6.599999685846739
 45
-0.2245064030267288
 46
0.2245064030267288
 79
     0
 53
135.0
 43
-450.4711525653923
 44
-6.599999685846739
 45
-0.2245064030267288
 46
-0.2245064030267288
 79
     0
 47
0.057451373970553
 98
        8
 10
8.039927083458792
 20
7.583587137096003
 10
11.20225710516672
 20
9.422031405378731
 10
12.58218354477696
 20
7.755941137188585
 10
15.4570295927657
 20
8.100649137373977
 10
20.9192356114255
 20
8.330455271144785
 10
23.44910004951191
 20
9.709288472356831
 10
28.27884258814731
 20
9.364579271700733
 10
33.9135394117585
 20
9.594385405471541
  0
LINE
  5
7D8
330
1A
100
AcDbEntity
  8
ZUWAKU
100
AcDbLine
 10
12.47110567933771
 20
11.6250003141532
 30
0.0
 11
13.43360567933769
 21
11.62500031415323
 31
0.0
  0
LINE
  5
7D9
330
1A
100
AcDbEntity
  8
ZUWAKU
100
AcDbLine
 10
13.43360567933769
 20
10.22500031415322
 30
0.0
 11
12.47110567933771
 21
10.22500031415322
 31
0.0
  0
LINE
  5
7DA
330
1A
100
AcDbEntity
  8
ZUWAKU
100
AcDbLine
 10
12.47110567933771
 20
4.975000314153227
 30
0.0
 11
13.43360567933769
 21
4.975000314153227
 31
0.0
  0
LINE
  5
7DB
330
1A
100
AcDbEntity
  8
ZUWAKU
100
AcDbLine
 10
13.43360567933769
 20
3.575000314153228
 30
0.0
 11
12.47110567933771
 21
3.575000314153228
 31
0.0
  0
CIRCLE
  5
7DC
330
1A
100
AcDbEntity
  8
ZUWAKU
100
AcDbCircle
 10
12.99610567933768
 20
7.600000314153227
 30
0.0
 40
0.875
  0
ARC
  5
7DD
330
1A
100
AcDbEntity
  8
ZUWAKU
100
AcDbCircle
 10
7.746105679337688
 20
9.317399301475578
 30
0.0
 40
0.7
100
AcDbArc
 50
180.0000000000016
 51
224.9999999999988
  0
LINE
  5
7DE
330
1A
100
AcDbEntity
  8
ZUWAKU
100
AcDbLine
 10
11.77110567933772
 20
9.525000314153228
 30
0.0
 11
11.77110567933772
 21
5.67500031415323
 31
0.0
  0
LINE
  5
7DF
330
1A
100
AcDbEntity
  8
ZUWAKU
100
AcDbLine
 10
10.37110567933768
 20
5.67500031415323
 30
0.0
 11
10.37110567933768
 21
9.525000314153206
 31
0.0
  0
ARC
  5
7E0
330
1A
100
AcDbEntity
  8
ZUWAKU
100
AcDbCircle
 10
7.746105679337688
 20
9.317399301475578
 30
0.0
 40
2.099999999999999
100
AcDbArc
 50
180.0
 51
225.0
  0
ARC
  5
7E1
330
1A
100
AcDbEntity
  8
ZUWAKU
100
AcDbCircle
 10
7.921105679337699
 20
4.975000314153227
 30
0.0
 40
1.399999999999999
100
AcDbArc
 50
270.0
 51
0.0
  0
ARC
  5
7E2
330
1A
100
AcDbEntity
  8
ZUWAKU
100
AcDbCircle
 10
12.47110567933771
 20
5.67500031415323
 30
0.0
 40
2.099999999999999
100
AcDbArc
 50
180.0
 51
270.0
  0
ARC
  5
7E3
330
1A
100
AcDbEntity
  8
ZUWAKU
100
AcDbCircle
 10
7.221105679337711
 20
5.882601326830879
 30
0.0
 40
2.099999999999999
100
AcDbArc
 50
0.0
 51
45.0
  0
LINE
  5
7E4
330
1A
100
AcDbEntity
  8
ZUWAKU
100
AcDbLine
 10
8.706029919829461
 20
7.36752556732264
 30
0.0
 11
7.251130932507123
 21
8.822424554644978
 31
0.0
  0
LINE
  5
7E5
330
1A
100
AcDbEntity
  8
ZUWAKU
100
AcDbLine
 10
7.921105679337699
 20
5.23750031415323
 30
0.0
 11
7.921105679337699
 21
5.882601326830901
 31
0.0
  0
ARC
  5
7E6
330
1A
100
AcDbEntity
  8
ZUWAKU
100
AcDbCircle
 10
7.658605679337711
 20
5.23750031415323
 30
0.0
 40
0.2625
100
AcDbArc
 50
270.0
 51
0.0
  0
ARC
  5
7E7
330
1A
100
AcDbEntity
  8
ZUWAKU
100
AcDbCircle
 10
7.221105679337711
 20
5.882601326830901
 30
0.0
 40
0.7
100
AcDbArc
 50
0.0
 51
45.0
  0
LINE
  5
7E8
330
1A
100
AcDbEntity
  8
ZUWAKU
100
AcDbLine
 10
5.908605679337711
 20
3.837500314153228
 30
0.0
 11
5.908605679337711
 21
4.712500314153228
 31
0.0
  0
ARC
  5
7E9
330
1A
100
AcDbEntity
  8
ZUWAKU
100
AcDbCircle
 10
6.171105679337699
 20
3.837500314153228
 30
0.0
 40
0.2625
100
AcDbArc
 50
180.0
 51
270.0
  0
ARC
  5
7EA
330
1A
100
AcDbEntity
  8
ZUWAKU
100
AcDbCircle
 10
6.171105679337699
 20
4.712500314153228
 30
0.0
 40
0.2625
100
AcDbArc
 50
90.0
 51
180.0
  0
LINE
  5
7EB
330
1A
100
AcDbEntity
  8
ZUWAKU
100
AcDbLine
 10
6.171105679337699
 20
3.575000314153228
 30
0.0
 11
7.921105679337699
 21
3.575000314153228
 31
0.0
  0
LINE
  5
7EC
330
1A
100
AcDbEntity
  8
ZUWAKU
100
AcDbLine
 10
6.171105679337699
 20
4.975000314153227
 30
0.0
 11
7.658605679337711
 21
4.975000314153227
 31
0.0
  0
LINE
  5
7ED
330
1A
100
AcDbEntity
  8
ZUWAKU
100
AcDbLine
 10
6.261181438845937
 20
7.832475060983817
 30
0.0
 11
7.716080426168275
 21
6.377576073661487
 31
0.0
  0
LINE
  5
7EE
330
1A
100
AcDbEntity
  8
ZUWAKU
100
AcDbLine
 10
9.321105679337733
 20
4.975000314153227
 30
0.0
 11
9.321105679337733
 21
5.882601326830901
 31
0.0
  0
ARC
  5
7EF
330
1A
100
AcDbEntity
  8
ZUWAKU
100
AcDbCircle
 10
12.47110567933771
 20
5.67500031415323
 30
0.0
 40
0.7
100
AcDbArc
 50
180.0
 51
270.0
  0
ARC
  5
7F0
330
1A
100
AcDbEntity
  8
ZUWAKU
100
AcDbCircle
 10
8.796105679337699
 20
11.36250031415322
 30
0.0
 40
0.2625
100
AcDbArc
 50
0.0
 51
90.0
  0
ARC
  5
7F1
330
1A
100
AcDbEntity
  8
ZUWAKU
100
AcDbCircle
 10
8.796105679337699
 20
10.48750031415322
 30
0.0
 40
0.2625
100
AcDbArc
 50
270.0
 51
0.0
  0
LINE
  5
7F2
330
1A
100
AcDbEntity
  8
ZUWAKU
100
AcDbLine
 10
7.046105679337699
 20
11.62500031415323
 30
0.0
 11
8.796105679337699
 21
11.62500031415323
 31
0.0
  0
ARC
  5
7F3
330
1A
100
AcDbEntity
  8
ZUWAKU
100
AcDbCircle
 10
7.308605679337688
 20
9.962500314153228
 30
0.0
 40
0.2625
100
AcDbArc
 50
90.0
 51
180.0
  0
LINE
  5
7F4
330
1A
100
AcDbEntity
  8
ZUWAKU
100
AcDbLine
 10
7.046105679337699
 20
9.962500314153228
 30
0.0
 11
7.046105679337699
 21
9.317399301475557
 31
0.0
  0
LINE
  5
7F5
330
1A
100
AcDbEntity
  8
ZUWAKU
100
AcDbLine
 10
8.796105679337699
 20
10.22500031415322
 30
0.0
 11
7.308605679337688
 21
10.22500031415322
 31
0.0
  0
LINE
  5
7F6
330
1A
100
AcDbEntity
  8
ZUWAKU
100
AcDbLine
 10
5.646105679337722
 20
10.22500031415322
 30
0.0
 11
5.646105679337722
 21
9.317399301475557
 31
0.0
  0
ARC
  5
7F7
330
1A
100
AcDbEntity
  8
ZUWAKU
100
AcDbCircle
 10
7.046105679337699
 20
10.22500031415322
 30
0.0
 40
1.399999999999999
100
AcDbArc
 50
90.0
 51
180.0
  0
LINE
  5
7F8
330
1A
100
AcDbEntity
  8
ZUWAKU
100
AcDbLine
 10
9.058605679337688
 20
11.36250031415322
 30
0.0
 11
9.058605679337688
 21
10.48750031415322
 31
0.0
  0
ARC
  5
7F9
330
1A
100
AcDbEntity
  8
ZUWAKU
100
AcDbCircle
 10
12.47110567933771
 20
9.525000314153228
 30
0.0
 40
0.7
100
AcDbArc
 50
90.0
 51
180.0
  0
ARC
  5
7FA
330
1A
100
AcDbEntity
  8
ZUWAKU
100
AcDbCircle
 10
12.47110567933771
 20
9.525000314153206
 30
0.0
 40
2.099999999999999
100
AcDbArc
 50
90.0
 51
180.0
  0
LINE
  5
7FB
330
1A
100
AcDbEntity
  8
ZUWAKU
100
AcDbLine
 10
39.66331437594124
 20
15.00000031415322
 30
0.0
 11
39.66331437594135
 21
0.4000003141532602
 31
0.0
  0
LINE
  5
7FC
330
1A
100
AcDbEntity
  8
ZUWAKU
100
AcDbLine
 10
39.76331437594126
 20
15.00000031415322
 30
0.0
 11
39.76331437594137
 21
0.4000003141532602
 31
0.0
  0
LINE
  5
7FD
330
1A
100
AcDbEntity
  8
ZUWAKU
100
AcDbLine
 10
39.56331437594133
 20
15.00000031415322
 30
0.0
 11
39.56331437594133
 21
0.4000003141532602
 31
0.0
  0
LINE
  5
7FE
330
1A
100
AcDbEntity
  8
ZUWAKU
100
AcDbLine
 10
32.07110567933773
 20
4.975000314153227
 30
0.0
 11
32.07110567933773
 21
11.36250031415322
 31
0.0
  0
LINE
  5
7FF
330
1A
100
AcDbEntity
  8
ZUWAKU
100
AcDbLine
 10
30.6711056793377
 20
11.36250031415322
 30
0.0
 11
30.6711056793377
 21
5.500000314153226
 31
0.0
  0
LINE
  5
800
330
1A
100
AcDbEntity
  8
ZUWAKU
100
AcDbLine
 10
34.52110567933772
 20
3.837500314153228
 30
0.0
 11
34.52110567933772
 21
11.36250031415322
 31
0.0
  0
LINE
  5
801
330
1A
100
AcDbEntity
  8
ZUWAKU
100
AcDbLine
 10
33.12110567933769
 20
11.36250031415322
 30
0.0
 11
33.12110567933769
 21
3.837500314153228
 31
0.0
  0
ARC
  5
802
330
1A
100
AcDbEntity
  8
ZUWAKU
100
AcDbCircle
 10
24.89610567933772
 20
9.317399301475578
 30
0.0
 40
0.7
100
AcDbArc
 50
180.0000000000016
 51
224.9999999999988
  0
ARC
  5
803
330
1A
100
AcDbEntity
  8
ZUWAKU
100
AcDbCircle
 10
24.89610567933772
 20
9.317399301475578
 30
0.0
 40
2.099999999999999
100
AcDbArc
 50
180.0
 51
225.0
  0
LINE
  5
804
330
1A
100
AcDbEntity
  8
ZUWAKU
100
AcDbLine
 10
18.65742892042669
 20
9.602523910934941
 30
0.0
 11
18.02505304775877
 21
7.600000314153238
 31
0.0
  0
LINE
  5
805
330
1A
100
AcDbEntity
  8
ZUWAKU
100
AcDbLine
 10
20.34610567933771
 20
11.36250031415322
 30
0.0
 11
20.34610567933771
 21
3.837500314153228
 31
0.0
  0
LINE
  5
806
330
1A
100
AcDbEntity
  8
ZUWAKU
100
AcDbLine
 10
21.74610567933768
 20
3.837500314153228
 30
0.0
 11
21.74610567933768
 21
11.36250031415322
 31
0.0
  0
LINE
  5
807
330
1A
100
AcDbEntity
  8
ZUWAKU
100
AcDbLine
 10
27.52110567933772
 20
11.36250031415322
 30
0.0
 11
27.52110567933772
 21
4.975000314153227
 31
0.0
  0
LINE
  5
808
330
1A
100
AcDbEntity
  8
ZUWAKU
100
AcDbLine
 10
28.92110567933769
 20
5.500000314153226
 30
0.0
 11
28.92110567933769
 21
11.36250031415322
 31
0.0
  0
LINE
  5
809
330
1A
100
AcDbEntity
  8
ZUWAKU
100
AcDbLine
 10
16.32110567933773
 20
8.562500314153229
 30
0.0
 11
16.32110567933773
 21
11.36250031415322
 31
0.0
  0
LINE
  5
80A
330
1A
100
AcDbEntity
  8
ZUWAKU
100
AcDbLine
 10
14.9211056793377
 20
11.36250031415322
 30
0.0
 11
14.9211056793377
 21
3.837500314153228
 31
0.0
  0
LINE
  5
80B
330
1A
100
AcDbEntity
  8
ZUWAKU
100
AcDbLine
 10
17.83817314799563
 20
11.44154729823671
 30
0.0
 11
16.90403821067974
 21
8.483453330069743
 31
0.0
  0
LINE
  5
80C
330
1A
100
AcDbEntity
  8
ZUWAKU
100
AcDbLine
 10
30.14610567933772
 20
4.975000314153227
 30
0.0
 11
29.44610567933773
 21
4.975000314153227
 31
0.0
  0
LINE
  5
80D
330
1A
100
AcDbEntity
  8
ZUWAKU
100
AcDbLine
 10
28.92110567933769
 20
3.575000314153228
 30
0.0
 11
30.6711056793377
 21
3.575000314153228
 31
0.0
  0
LINE
  5
80E
330
1A
100
AcDbEntity
  8
ZUWAKU
100
AcDbLine
 10
20.6086056793377
 20
3.575000314153228
 30
0.0
 11
21.4836056793377
 21
3.575000314153228
 31
0.0
  0
LINE
  5
80F
330
1A
100
AcDbEntity
  8
ZUWAKU
100
AcDbLine
 10
17.83817314799563
 20
3.758453330069741
 30
0.0
 11
16.90403821067974
 21
6.716547298236712
 31
0.0
  0
ARC
  5
810
330
1A
100
AcDbEntity
  8
ZUWAKU
100
AcDbCircle
 10
16.65372276108206
 20
8.562500314153229
 30
0.0
 40
0.2625
100
AcDbArc
 50
270.0
 51
342.4744316262769
  0
LINE
  5
811
330
1A
100
AcDbEntity
  8
ZUWAKU
100
AcDbLine
 10
16.65372276108206
 20
8.300000314153226
 30
0.0
 11
16.58360567933772
 21
8.300000314153226
 31
0.0
  0
LINE
  5
812
330
1A
100
AcDbEntity
  8
ZUWAKU
100
AcDbLine
 10
16.58360567933772
 20
6.900000314153228
 30
0.0
 11
16.65372276108206
 21
6.900000314153228
 31
0.0
  0
ARC
  5
813
330
1A
100
AcDbEntity
  8
ZUWAKU
100
AcDbCircle
 10
16.58360567933772
 20
8.562500314153229
 30
0.0
 40
0.2625
100
AcDbArc
 50
180.0
 51
270.0
  0
LINE
  5
814
330
1A
100
AcDbEntity
  8
ZUWAKU
100
AcDbLine
 10
15.18360567933768
 20
3.575000314153228
 30
0.0
 11
16.05860567933769
 21
3.575000314153228
 31
0.0
  0
ARC
  5
815
330
1A
100
AcDbEntity
  8
ZUWAKU
100
AcDbCircle
 10
16.05860567933769
 20
3.837500314153228
 30
0.0
 40
0.2625
100
AcDbArc
 50
270.0
 51
0.0
  0
LINE
  5
816
330
1A
100
AcDbEntity
  8
ZUWAKU
100
AcDbLine
 10
16.32110567933773
 20
3.837500314153228
 30
0.0
 11
16.32110567933773
 21
6.637500314153228
 31
0.0
  0
LINE
  5
817
330
1A
100
AcDbEntity
  8
ZUWAKU
100
AcDbLine
 10
13.69610567933773
 20
4.712500314153228
 30
0.0
 11
13.69610567933773
 21
3.837500314153228
 31
0.0
  0
ARC
  5
818
330
1A
100
AcDbEntity
  8
ZUWAKU
100
AcDbCircle
 10
13.43360567933769
 20
3.837500314153228
 30
0.0
 40
0.2625
100
AcDbArc
 50
270.0
 51
0.0
  0
ARC
  5
819
330
1A
100
AcDbEntity
  8
ZUWAKU
100
AcDbCircle
 10
13.43360567933769
 20
4.712500314153228
 30
0.0
 40
0.2625
100
AcDbArc
 50
0.0
 51
90.0
  0
ARC
  5
81A
330
1A
100
AcDbEntity
  8
ZUWAKU
100
AcDbCircle
 10
15.18360567933768
 20
3.837500314153228
 30
0.0
 40
0.2625
100
AcDbArc
 50
180.0
 51
270.0
  0
ARC
  5
81B
330
1A
100
AcDbEntity
  8
ZUWAKU
100
AcDbCircle
 10
16.65372276108206
 20
6.637500314153228
 30
0.0
 40
0.2625
100
AcDbArc
 50
17.52556837372303
 51
90.0
  0
ARC
  5
81C
330
1A
100
AcDbEntity
  8
ZUWAKU
100
AcDbCircle
 10
16.58360567933772
 20
6.637500314153228
 30
0.0
 40
0.2625
100
AcDbArc
 50
90.0
 51
180.0
  0
ARC
  5
81D
330
1A
100
AcDbEntity
  8
ZUWAKU
100
AcDbCircle
 10
20.6086056793377
 20
3.837500314153228
 30
0.0
 40
0.2625
100
AcDbArc
 50
180.0
 51
270.0
  0
LINE
  5
81E
330
1A
100
AcDbEntity
  8
ZUWAKU
100
AcDbLine
 10
18.08848859759336
 20
3.575000314153228
 30
0.0
 11
18.93793328739787
 21
3.575000314153228
 31
0.0
  0
ARC
  5
81F
330
1A
100
AcDbEntity
  8
ZUWAKU
100
AcDbCircle
 10
18.93793328739787
 20
3.837500314153228
 30
0.0
 40
0.2625
100
AcDbArc
 50
270.0
 51
17.52556837372303
  0
LINE
  5
820
330
1A
100
AcDbEntity
  8
ZUWAKU
100
AcDbLine
 10
19.1882487369956
 20
3.916547298236714
 30
0.0
 11
18.02505304775877
 21
7.600000314153238
 31
0.0
  0
ARC
  5
821
330
1A
100
AcDbEntity
  8
ZUWAKU
100
AcDbCircle
 10
18.08848859759336
 20
3.837500314153228
 30
0.0
 40
0.2625
100
AcDbArc
 50
197.525568373723
 51
270.0
  0
ARC
  5
822
330
1A
100
AcDbEntity
  8
ZUWAKU
100
AcDbCircle
 10
28.92110567933769
 20
4.975000314153227
 30
0.0
 40
1.399999999999999
100
AcDbArc
 50
180.0
 51
270.0
  0
ARC
  5
823
330
1A
100
AcDbEntity
  8
ZUWAKU
100
AcDbCircle
 10
25.07110567933773
 20
4.975000314153227
 30
0.0
 40
1.399999999999999
100
AcDbArc
 50
270.0
 51
0.0
  0
LINE
  5
824
330
1A
100
AcDbEntity
  8
ZUWAKU
100
AcDbLine
 10
25.85602991982949
 20
7.36752556732264
 30
0.0
 11
24.4011309325071
 21
8.822424554644978
 31
0.0
  0
LINE
  5
825
330
1A
100
AcDbEntity
  8
ZUWAKU
100
AcDbLine
 10
25.07110567933773
 20
5.23750031415323
 30
0.0
 11
25.07110567933773
 21
5.882601326830901
 31
0.0
  0
ARC
  5
826
330
1A
100
AcDbEntity
  8
ZUWAKU
100
AcDbCircle
 10
24.37110567933769
 20
5.882601326830901
 30
0.0
 40
0.7
100
AcDbArc
 50
0.0
 51
45.0
  0
ARC
  5
827
330
1A
100
AcDbEntity
  8
ZUWAKU
100
AcDbCircle
 10
24.80860567933769
 20
5.23750031415323
 30
0.0
 40
0.2625
100
AcDbArc
 50
270.0
 51
0.0
  0
LINE
  5
828
330
1A
100
AcDbEntity
  8
ZUWAKU
100
AcDbLine
 10
23.05860567933768
 20
3.837500314153228
 30
0.0
 11
23.05860567933768
 21
4.712500314153228
 31
0.0
  0
ARC
  5
829
330
1A
100
AcDbEntity
  8
ZUWAKU
100
AcDbCircle
 10
23.32110567933773
 20
3.837500314153228
 30
0.0
 40
0.2625
100
AcDbArc
 50
180.0
 51
270.0
  0
ARC
  5
82A
330
1A
100
AcDbEntity
  8
ZUWAKU
100
AcDbCircle
 10
21.4836056793377
 20
3.837500314153228
 30
0.0
 40
0.2625
100
AcDbArc
 50
270.0
 51
0.0
  0
ARC
  5
82B
330
1A
100
AcDbEntity
  8
ZUWAKU
100
AcDbCircle
 10
23.32110567933773
 20
4.712500314153228
 30
0.0
 40
0.2625
100
AcDbArc
 50
90.0
 51
180.0
  0
LINE
  5
82C
330
1A
100
AcDbEntity
  8
ZUWAKU
100
AcDbLine
 10
23.32110567933773
 20
4.975000314153227
 30
0.0
 11
24.80860567933769
 21
4.975000314153227
 31
0.0
  0
LINE
  5
82D
330
1A
100
AcDbEntity
  8
ZUWAKU
100
AcDbLine
 10
23.32110567933773
 20
3.575000314153228
 30
0.0
 11
25.07110567933773
 21
3.575000314153228
 31
0.0
  0
LINE
  5
82E
330
1A
100
AcDbEntity
  8
ZUWAKU
100
AcDbLine
 10
23.41118143884597
 20
7.832475060983817
 30
0.0
 11
24.86608042616831
 21
6.377576073661487
 31
0.0
  0
LINE
  5
82F
330
1A
100
AcDbEntity
  8
ZUWAKU
100
AcDbLine
 10
26.47110567933771
 20
4.975000314153227
 30
0.0
 11
26.47110567933771
 21
5.882601326830901
 31
0.0
  0
ARC
  5
830
330
1A
100
AcDbEntity
  8
ZUWAKU
100
AcDbCircle
 10
24.37110567933769
 20
5.882601326830879
 30
0.0
 40
2.099999999999999
100
AcDbArc
 50
0.0
 51
45.0
  0
ARC
  5
831
330
1A
100
AcDbEntity
  8
ZUWAKU
100
AcDbCircle
 10
29.44610567933773
 20
5.500000314153226
 30
0.0
 40
0.525
100
AcDbArc
 50
180.0
 51
270.0
  0
ARC
  5
832
330
1A
100
AcDbEntity
  8
ZUWAKU
100
AcDbCircle
 10
30.6711056793377
 20
4.975000314153227
 30
0.0
 40
1.399999999999999
100
AcDbArc
 50
270.0
 51
0.0
  0
LINE
  5
833
330
1A
100
AcDbEntity
  8
ZUWAKU
100
AcDbLine
 10
33.38360567933773
 20
3.575000314153228
 30
0.0
 11
34.25860567933773
 21
3.575000314153228
 31
0.0
  0
ARC
  5
834
330
1A
100
AcDbEntity
  8
ZUWAKU
100
AcDbCircle
 10
33.38360567933773
 20
3.837500314153228
 30
0.0
 40
0.2625
100
AcDbArc
 50
180.0
 51
270.0
  0
ARC
  5
835
330
1A
100
AcDbEntity
  8
ZUWAKU
100
AcDbCircle
 10
30.14610567933772
 20
5.500000314153226
 30
0.0
 40
0.525
100
AcDbArc
 50
270.0
 51
0.0
  0
ARC
  5
836
330
1A
100
AcDbEntity
  8
ZUWAKU
100
AcDbCircle
 10
34.25860567933773
 20
3.837500314153228
 30
0.0
 40
0.2625
100
AcDbArc
 50
270.0
 51
0.0
  0
LINE
  5
837
330
1A
100
AcDbEntity
  8
ZUWAKU
100
AcDbLine
 10
21.4836056793377
 20
11.62500031415323
 30
0.0
 11
20.6086056793377
 21
11.62500031415323
 31
0.0
  0
ARC
  5
838
330
1A
100
AcDbEntity
  8
ZUWAKU
100
AcDbCircle
 10
16.05860567933769
 20
11.36250031415322
 30
0.0
 40
0.2625
100
AcDbArc
 50
0.0
 51
90.0
  0
LINE
  5
839
330
1A
100
AcDbEntity
  8
ZUWAKU
100
AcDbLine
 10
16.05860567933769
 20
11.62500031415323
 30
0.0
 11
15.18360567933768
 21
11.62500031415323
 31
0.0
  0
ARC
  5
83A
330
1A
100
AcDbEntity
  8
ZUWAKU
100
AcDbCircle
 10
13.43360567933769
 20
11.36250031415322
 30
0.0
 40
0.2625
100
AcDbArc
 50
0.0
 51
90.0
  0
ARC
  5
83B
330
1A
100
AcDbEntity
  8
ZUWAKU
100
AcDbCircle
 10
15.18360567933768
 20
11.36250031415322
 30
0.0
 40
0.2625
100
AcDbArc
 50
90.0
 51
180.0
  0
ARC
  5
83C
330
1A
100
AcDbEntity
  8
ZUWAKU
100
AcDbCircle
 10
13.43360567933769
 20
10.48750031415322
 30
0.0
 40
0.2625
100
AcDbArc
 50
270.0
 51
0.0
  0
LINE
  5
83D
330
1A
100
AcDbEntity
  8
ZUWAKU
100
AcDbLine
 10
13.69610567933773
 20
11.36250031415322
 30
0.0
 11
13.69610567933773
 21
10.48750031415322
 31
0.0
  0
ARC
  5
83E
330
1A
100
AcDbEntity
  8
ZUWAKU
100
AcDbCircle
 10
20.6086056793377
 20
11.36250031415322
 30
0.0
 40
0.2625
100
AcDbArc
 50
90.0
 51
180.0
  0
LINE
  5
83F
330
1A
100
AcDbEntity
  8
ZUWAKU
100
AcDbLine
 10
18.08848859759336
 20
11.62500031415323
 30
0.0
 11
18.93793328739787
 21
11.62500031415323
 31
0.0
  0
ARC
  5
840
330
1A
100
AcDbEntity
  8
ZUWAKU
100
AcDbCircle
 10
18.93793328739787
 20
11.36250031415322
 30
0.0
 40
0.2625
100
AcDbArc
 50
342.4744316262769
 51
90.0
  0
LINE
  5
841
330
1A
100
AcDbEntity
  8
ZUWAKU
100
AcDbLine
 10
19.1882487369956
 20
11.28345333006974
 30
0.0
 11
18.65742892042669
 21
9.602523910934941
 31
0.0
  0
ARC
  5
842
330
1A
100
AcDbEntity
  8
ZUWAKU
100
AcDbCircle
 10
18.08848859759336
 20
11.36250031415322
 30
0.0
 40
0.2625
100
AcDbArc
 50
90.0
 51
162.4744316262769
  0
LINE
  5
843
330
1A
100
AcDbEntity
  8
ZUWAKU
100
AcDbLine
 10
24.19610567933773
 20
11.62500031415323
 30
0.0
 11
25.94610567933773
 21
11.62500031415323
 31
0.0
  0
LINE
  5
844
330
1A
100
AcDbEntity
  8
ZUWAKU
100
AcDbLine
 10
25.94610567933773
 20
10.22500031415322
 30
0.0
 11
24.45860567933772
 21
10.22500031415322
 31
0.0
  0
ARC
  5
845
330
1A
100
AcDbEntity
  8
ZUWAKU
100
AcDbCircle
 10
24.45860567933772
 20
9.962500314153228
 30
0.0
 40
0.2625
100
AcDbArc
 50
90.0
 51
180.0
  0
LINE
  5
846
330
1A
100
AcDbEntity
  8
ZUWAKU
100
AcDbLine
 10
24.19610567933773
 20
9.962500314153228
 30
0.0
 11
24.19610567933773
 21
9.317399301475557
 31
0.0
  0
ARC
  5
847
330
1A
100
AcDbEntity
  8
ZUWAKU
100
AcDbCircle
 10
21.4836056793377
 20
11.36250031415322
 30
0.0
 40
0.2625
100
AcDbArc
 50
0.0
 51
90.0
  0
LINE
  5
848
330
1A
100
AcDbEntity
  8
ZUWAKU
100
AcDbLine
 10
22.7961056793377
 20
10.22500031415322
 30
0.0
 11
22.7961056793377
 21
9.317399301475557
 31
0.0
  0
ARC
  5
849
330
1A
100
AcDbEntity
  8
ZUWAKU
100
AcDbCircle
 10
24.19610567933773
 20
10.22500031415322
 30
0.0
 40
1.399999999999999
100
AcDbArc
 50
90.0
 51
180.0
  0
ARC
  5
84A
330
1A
100
AcDbEntity
  8
ZUWAKU
100
AcDbCircle
 10
28.65860567933771
 20
11.36250031415322
 30
0.0
 40
0.2625
100
AcDbArc
 50
0.0
 51
90.0
  0
ARC
  5
84B
330
1A
100
AcDbEntity
  8
ZUWAKU
100
AcDbCircle
 10
27.78360567933771
 20
11.36250031415322
 30
0.0
 40
0.2625
100
AcDbArc
 50
90.0
 51
180.0
  0
LINE
  5
84C
330
1A
100
AcDbEntity
  8
ZUWAKU
100
AcDbLine
 10
28.65860567933771
 20
11.62500031415323
 30
0.0
 11
27.78360567933771
 21
11.62500031415323
 31
0.0
  0
ARC
  5
84D
330
1A
100
AcDbEntity
  8
ZUWAKU
100
AcDbCircle
 10
25.94610567933773
 20
11.36250031415322
 30
0.0
 40
0.2625
100
AcDbArc
 50
0.0
 51
90.0
  0
ARC
  5
84E
330
1A
100
AcDbEntity
  8
ZUWAKU
100
AcDbCircle
 10
25.94610567933773
 20
10.48750031415322
 30
0.0
 40
0.2625
100
AcDbArc
 50
270.0
 51
0.0
  0
LINE
  5
84F
330
1A
100
AcDbEntity
  8
ZUWAKU
100
AcDbLine
 10
26.20860567933772
 20
11.36250031415322
 30
0.0
 11
26.20860567933772
 21
10.48750031415322
 31
0.0
  0
LINE
  5
850
330
1A
100
AcDbEntity
  8
ZUWAKU
100
AcDbLine
 10
34.25860567933773
 20
11.62500031415323
 30
0.0
 11
33.38360567933773
 21
11.62500031415323
 31
0.0
  0
ARC
  5
851
330
1A
100
AcDbEntity
  8
ZUWAKU
100
AcDbCircle
 10
33.38360567933773
 20
11.36250031415322
 30
0.0
 40
0.2625
100
AcDbArc
 50
90.0
 51
180.0
  0
ARC
  5
852
330
1A
100
AcDbEntity
  8
ZUWAKU
100
AcDbCircle
 10
31.80860567933768
 20
11.36250031415322
 30
0.0
 40
0.2625
100
AcDbArc
 50
0.0
 51
90.0
  0
LINE
  5
853
330
1A
100
AcDbEntity
  8
ZUWAKU
100
AcDbLine
 10
31.80860567933768
 20
11.62500031415323
 30
0.0
 11
30.93360567933769
 21
11.62500031415323
 31
0.0
  0
ARC
  5
854
330
1A
100
AcDbEntity
  8
ZUWAKU
100
AcDbCircle
 10
30.93360567933769
 20
11.36250031415322
 30
0.0
 40
0.2625
100
AcDbArc
 50
90.0
 51
180.0
  0
ARC
  5
855
330
1A
100
AcDbEntity
  8
ZUWAKU
100
AcDbCircle
 10
34.25860567933773
 20
11.36250031415322
 30
0.0
 40
0.2625
100
AcDbArc
 50
0.0
 51
90.0
  0
TEXT
  5
856
330
1A
100
AcDbEntity
  8
MOJI
100
AcDbText
 10
119.9136009423726
 20
9.002460842856919
 30
0.0
 40
2.799999999999999
  1
ステンレス金具正面打（吊）固定式
 41
0.9
  7
ｽﾀｲﾙ1
100
AcDbText
  0
TEXT
  5
857
330
1A
100
AcDbEntity
  8
MOJI
100
AcDbText
 10
119.9136009423726
 20
1.602460842856936
 30
0.0
 40
2.799999999999999
  1
Ｘ４０－０寸－１０m/m（３分）
 41
0.9
  7
ｽﾀｲﾙ1
100
AcDbText
  0
LINE
  5
858
330
1A
100
AcDbEntity
  8
ZUWAKU
100
AcDbLine
 10
104.1233002469811
 20
15.00000031415322
 30
0.0
 11
104.1233002469811
 21
0.4000003141532602
 31
0.0
  0
LINE
  5
859
330
1A
100
AcDbEntity
  8
ZUWAKU
100
AcDbLine
 10
104.323300246981
 20
15.00000031415322
 30
0.0
 11
104.3233002469811
 21
0.4000003141532602
 31
0.0
  0
LINE
  5
85A
330
1A
100
AcDbEntity
  8
ZUWAKU
100
AcDbLine
 10
104.223300246981
 20
15.00000031415322
 30
0.0
 11
104.2233002469811
 21
0.4000003141532602
 31
0.0
  0
TEXT
  5
85B
330
1A
100
AcDbEntity
  8
ZUWAKU
100
AcDbText
 10
104.8620227580859
 20
4.827678583346035
 30
0.0
 40
2.0
  1
サイズ
 41
0.9
  7
ｽﾀｲﾙ1
100
AcDbText
  0
TEXT
  5
85C
330
1A
100
AcDbEntity
  8
ZUWAKU
100
AcDbText
 10
104.8620227580858
 20
12.02767858334601
 30
0.0
 40
2.0
  1
品名
 41
0.9
  7
ｽﾀｲﾙ1
100
AcDbText
  0
LINE
  5
85D
330
1A
100
AcDbEntity
  8
ZUWAKU
100
AcDbLine
 10
324.4086008570492
 20
7.600000314153241
 30
0.0
 11
348.6245048762177
 21
7.600000314153243
 31
0.0
  0
LINE
  5
85E
330
1A
100
AcDbEntity
  8
ZUWAKU
100
AcDbLine
 10
324.4086008570493
 20
7.700000314153244
 30
0.0
 11
348.6245048762177
 21
7.700000314153243
 31
0.0
  0
LINE
  5
85F
330
1A
100
AcDbEntity
  8
ZUWAKU
100
AcDbLine
 10
324.4086008570492
 20
7.800000314153242
 30
0.0
 11
348.6245048762177
 21
7.800000314153242
 31
0.0
  0
TEXT
  5
860
330
1A
100
AcDbEntity
  8
ZUWAKU
100
AcDbText
 10
329.1019684455983
 20
9.002460842856919
 30
0.0
 40
2.799999999999999
  1
　　．　　．　　
 41
0.9
  7
ｽﾀｲﾙ1
100
AcDbText
  0
LINE
  5
861
330
1A
100
AcDbEntity
  8
ZUWAKU
100
AcDbLine
 10
252.5995893510176
 20
7.600000314153245
 30
0.0
 11
276.2634774850033
 21
7.600000314153245
 31
0.0
  0
LINE
  5
862
330
1A
100
AcDbEntity
  8
ZUWAKU
100
AcDbLine
 10
252.5995893510176
 20
7.700000314153243
 30
0.0
 11
276.2634774850033
 21
7.700000314153243
 31
0.0
  0
LINE
  5
863
330
1A
100
AcDbEntity
  8
ZUWAKU
100
AcDbLine
 10
252.5995893510176
 20
7.800000314153242
 30
0.0
 11
276.2634774850033
 21
7.800000314153242
 31
0.0
  0
TEXT
  5
864
330
1A
100
AcDbEntity
  8
MOJI
100
AcDbText
 10
231.2836387629414
 20
5.971309174983218
 30
0.0
 40
2.799999999999999
  1
ＬＤ１３Ｇ
 41
0.9
  7
ｽﾀｲﾙ1
100
AcDbText
  0
LINE
  5
865
330
1A
100
AcDbEntity
  8
ZUWAKU
100
AcDbLine
 10
223.8121815874427
 20
15.00000031415322
 30
0.0
 11
223.8121815874428
 21
0.4000003141532602
 31
0.0
  0
LINE
  5
866
330
1A
100
AcDbEntity
  8
ZUWAKU
100
AcDbLine
 10
223.9121815874427
 20
15.00000031415322
 30
0.0
 11
223.9121815874428
 21
0.4000003141532602
 31
0.0
  0
LINE
  5
867
330
1A
100
AcDbEntity
  8
ZUWAKU
100
AcDbLine
 10
223.7121815874428
 20
15.00000031415322
 30
0.0
 11
223.7121815874428
 21
0.4000003141532602
 31
0.0
  0
TEXT
  5
868
330
1A
100
AcDbEntity
  8
MOJI
100
AcDbText
 10
264.0204535881035
 20
9.002460842856919
 30
0.0
 40
2.799999999999999
  1
Ａ３
 41
0.9
  7
ｽﾀｲﾙ1
100
AcDbText
  0
LINE
  5
869
330
1A
100
AcDbEntity
  8
ZUWAKU
100
AcDbLine
 10
252.4995893510175
 20
15.00000031415322
 30
0.0
 11
252.4995893510176
 21
0.4000003141532602
 31
0.0
  0
LINE
  5
86A
330
1A
100
AcDbEntity
  8
ZUWAKU
100
AcDbLine
 10
252.5995893510176
 20
15.00000031415322
 30
0.0
 11
252.5995893510176
 21
0.4000003141532602
 31
0.0
  0
LINE
  5
86B
330
1A
100
AcDbEntity
  8
ZUWAKU
100
AcDbLine
 10
252.3995893510176
 20
15.00000031415322
 30
0.0
 11
252.3995893510176
 21
0.4000003141532602
 31
0.0
  0
TEXT
  5
86C
330
1A
100
AcDbEntity
  8
ZUWAKU
100
AcDbText
 10
253.3383118621225
 20
4.827678583346035
 30
0.0
 40
2.0
  1
縮尺
 41
0.9
  7
ｽﾀｲﾙ1
100
AcDbText
  0
TEXT
  5
86D
330
1A
100
AcDbEntity
  8
MOJI
100
AcDbText
 10
264.0204535881035
 20
1.602460842856936
 30
0.0
 40
2.799999999999999
  1
１/１
 41
0.9
  7
ｽﾀｲﾙ1
100
AcDbText
  0
TEXT
  5
86E
330
1A
100
AcDbEntity
  8
ZUWAKU
100
AcDbText
 10
224.6509040985475
 20
12.02767858334601
 30
0.0
 40
2.0
  1
品番
 41
0.9
  7
ｽﾀｲﾙ1
100
AcDbText
  0
TEXT
  5
86F
330
1A
100
AcDbEntity
  8
ZUWAKU
100
AcDbText
 10
253.3383118621224
 20
12.02767858334601
 30
0.0
 40
2.0
  1
用紙
 41
0.9
  7
ｽﾀｲﾙ1
100
AcDbText
  0
LINE
  5
870
330
1A
100
AcDbEntity
  8
ZUWAKU
100
AcDbLine
 10
324.3086008570493
 20
15.00000031415322
 30
0.0
 11
324.3086008570494
 21
0.4000003141532602
 31
0.0
  0
LINE
  5
871
330
1A
100
AcDbEntity
  8
ZUWAKU
100
AcDbLine
 10
324.4086008570493
 20
15.00000031415322
 30
0.0
 11
324.4086008570494
 21
0.4000003141532602
 31
0.0
  0
LINE
  5
872
330
1A
100
AcDbEntity
  8
ZUWAKU
100
AcDbLine
 10
324.2086008570494
 20
15.00000031415322
 30
0.0
 11
324.2086008570494
 21
0.4000003141532602
 31
0.0
  0
LINE
  5
873
330
1A
100
AcDbEntity
  8
ZUWAKU
100
AcDbLine
 10
276.3634774850032
 20
15.00000031415322
 30
0.0
 11
276.3634774850034
 21
0.4000003141532602
 31
0.0
  0
LINE
  5
874
330
1A
100
AcDbEntity
  8
ZUWAKU
100
AcDbLine
 10
276.4634774850033
 20
15.00000031415322
 30
0.0
 11
276.4634774850033
 21
0.4000003141532602
 31
0.0
  0
LINE
  5
875
330
1A
100
AcDbEntity
  8
ZUWAKU
100
AcDbLine
 10
276.2634774850033
 20
15.00000031415322
 30
0.0
 11
276.2634774850033
 21
0.4000003141532602
 31
0.0
  0
TEXT
  5
876
330
1A
100
AcDbEntity
  8
ZUWAKU
100
AcDbText
 10
325.1473233681541
 20
12.02767858334601
 30
0.0
 40
2.0
  1
DATE
 41
0.9
  7
ｽﾀｲﾙ1
100
AcDbText
  0
LINE
  5
877
330
1A
100
AcDbEntity
  8
ZUWAKU
100
AcDbLine
 10
348.6245048762177
 20
15.00000031415322
 30
0.0
 11
348.6245048762177
 21
0.4000003141532602
 31
0.0
  0
LINE
  5
878
330
1A
100
AcDbEntity
  8
ZUWAKU
100
AcDbLine
 10
348.7245048762178
 20
15.00000031415322
 30
0.0
 11
348.7245048762178
 21
0.4000003141532602
 31
0.0
  0
LINE
  5
879
330
1A
100
AcDbEntity
  8
ZUWAKU
100
AcDbLine
 10
348.8245048762177
 20
15.00000031415322
 30
0.0
 11
348.8245048762178
 21
0.4000003141532602
 31
0.0
  0
LINE
  5
87A
330
1A
100
AcDbEntity
  8
ZUWAKU
100
AcDbLine
 10
348.9245048762177
 20
15.00000031415322
 30
0.0
 11
348.9245048762178
 21
0.4000003141532602
 31
0.0
  0
TEXT
  5
87B
330
1A
100
AcDbEntity
  8
ZUWAKU
100
AcDbText
 10
354.264041698069
 20
8.776919981996627
 30
0.0
 40
3.0
  1
積水化学工業株式会社
 41
0.9
  7
ｽﾀｲﾙ1
100
AcDbText
  0
TEXT
  5
87C
330
1A
100
AcDbEntity
  8
ZUWAKU
100
AcDbText
 10
354.264041698069
 20
3.324420471080259
 30
0.0
 40
3.0
  1
建材事業部
 41
0.9
  7
ｽﾀｲﾙ1
100
AcDbText
  0
VIEWPORT
  5
22
330
17
100
AcDbEntity
 67
     1
  8
0
100
AcDbViewport
 10
313.6808219178082
 20
148.5
 30
0.0
 40
627.3616438356165
 41
297.0
 68
     2
 69
     1
1001
ACAD
1000
MVIEW
1002
{
1070
    16
1010
0.0
1020
0.0
1030
0.0
1010
0.0
1020
0.0
1030
1.0
1040
0.0
1040
297.0
1040
313.6808219178082
1040
148.5
1040
50.0
1040
0.0
1040
0.0
1070
     0
1070
   100
1070
     1
1070
     0
1070
     0
1070
     0
1070
     0
1070
     0
1040
0.0
1040
0.0
1040
0.0
1040
1.0
1040
1.0
1040
10.0
1040
10.0
1070
     0
1002
{
1002
}
1002
}
  0
VIEWPORT
  5
64
330
17
100
AcDbEntity
 67
     1
  8
VIEWPORT
100
AcDbViewport
 10
210.0
 20
148.5
 30
0.0
 40
420.0
 41
297.0
 68
     1
 69
     2
1001
ACAD
1000
MVIEW
1002
{
1070
    16
1010
0.0
1020
0.0
1030
0.0
1010
0.0
1020
0.0
1030
1.0
1040
0.0
1040
302.9399999999998
1040
210.0
1040
148.5
1040
50.0
1040
0.0
1040
0.0
1070
     0
1070
   100
1070
     1
1070
     0
1070
     0
1070
     0
1070
     0
1070
     0
1040
0.0
1040
0.0
1040
0.0
1040
5.0
1040
5.0
1040
0.0
1040
0.0
1070
     0
1002
{
1002
}
1002
}
  0
ENDSEC
  0
SECTION
  2
OBJECTS
  0
DICTIONARY
  5
C
330
0
100
AcDbDictionary
  3
ACAD_GROUP
350
D
  3
ACAD_LAYOUT
350
629
  3
ACAD_MLINESTYLE
350
E
  3
ACAD_PLOTSETTINGS
350
62A
  3
ACAD_PLOTSTYLENAME
350
627
  3
ACDBHEADERROUNDTRIPXREC
350
884
  0
DICTIONARY
  5
65A
330
1A
100
AcDbDictionary
280
     1
  3
ACAD_LAYOUTSELFREF
360
8A6
  0
DICTIONARY
  5
658
330
17
100
AcDbDictionary
280
     1
  3
ACAD_LAYOUTSELFREF
360
8A5
  0
DICTIONARY
  5
D
102
{ACAD_REACTORS
330
C
102
}
330
C
100
AcDbDictionary
  0
DICTIONARY
  5
629
102
{ACAD_REACTORS
330
C
102
}
330
C
100
AcDbDictionary
  0
DICTIONARY
  5
E
102
{ACAD_REACTORS
330
C
102
}
330
C
100
AcDbDictionary
  3
STANDARD
350
13
  0
DICTIONARY
  5
62A
102
{ACAD_REACTORS
330
C
102
}
330
C
100
AcDbDictionary
  0
ACDBDICTIONARYWDFLT
  5
627
102
{ACAD_REACTORS
330
C
102
}
330
C
100
AcDbDictionary
281
     1
  3
Normal
350
628
100
AcDbDictionaryWithDefault
340
628
1001
ACAD
1000
TREAT_AS_HARD
1070
     0
1000
TREAT_AS_HARD
1070
     0
  0
DICTIONARY
  5
884
102
{ACAD_REACTORS
330
C
102
}
330
C
100
AcDbDictionary
  3
TSTACKALIGN
350
885
  3
TSTACKSIZE
350
886
  3
HYPERLINKBASE
350
887
  3
STYLESHEET
350
888
  3
LAYOUTDICT
350
889
  3
PLOTSETDICT
350
88A
  3
PLOTSTYLNAMDICT
350
88B
  3
LWETCUNION
350
88C
  3
INSUNITS
350
88D
  3
CEPSNTYPE
350
88E
  3
FINGERPRINTGUID
350
88F
  3
VERSIONGUID
350
890
  3
PSVPSCALE
350
891
  3
DIMSTYLEDATA
350
892
  3
PUCSORTHOREF
350
893
  3
PUCSORTHOVIEW
350
894
  3
PUCSBASE
350
895
  3
PUCSORGTOP
350
896
  3
PUCSORGBOTTOM
350
897
  3
PUCSORGLEFT
350
898
  3
PUCSORGRIGHT
350
899
  3
PUCSORGFRONT
350
89A
  3
PUCSORGBACK
350
89B
  3
UCSORTHOREF
350
89C
  3
UCSORTHOVIEW
350
89D
  3
UCSBASE
350
89E
  3
UCSORGTOP
350
89F
  3
UCSORGBOTTOM
350
8A0
  3
UCSORGLEFT
350
8A1
  3
UCSORGRIGHT
350
8A2
  3
UCSORGFRONT
350
8A3
  3
UCSORGBACK
350
8A4
  0
XRECORD
  5
8A6
102
{ACAD_REACTORS
330
65A
102
}
330
65A
100
AcDbXrecord
340
1A
  0
XRECORD
  5
8A5
102
{ACAD_REACTORS
330
658
102
}
330
658
100
AcDbXrecord
340
17
  0
MLINESTYLE
  5
13
102
{ACAD_REACTORS
330
E
102
}
330
E
100
AcDbMlineStyle
  2
STANDARD
 70
     0
  3

 62
     0
 51
90.0
 52
90.0
 71
     2
 49
0.5
 62
   256
  6
BYLAYER
 49
-0.5
 62
   256
  6
BYLAYER
  0
ACDBPLACEHOLDER
  5
628
102
{ACAD_REACTORS
330
627
102
}
330
627
100
AcDbPlaceHolder
280
     0
  0
XRECORD
  5
885
102
{ACAD_REACTORS
330
884
102
}
330
884
100
AcDbXrecord
 90
        1
  0
XRECORD
  5
886
102
{ACAD_REACTORS
330
884
102
}
330
884
100
AcDbXrecord
 90
       70
  0
XRECORD
  5
887
102
{ACAD_REACTORS
330
884
102
}
330
884
100
AcDbXrecord
  1

  0
XRECORD
  5
888
102
{ACAD_REACTORS
330
884
102
}
330
884
100
AcDbXrecord
  1
systemprinter.ctb
  0
XRECORD
  5
889
102
{ACAD_REACTORS
330
884
102
}
330
884
100
AcDbXrecord
340
629
  0
XRECORD
  5
88A
102
{ACAD_REACTORS
330
884
102
}
330
884
100
AcDbXrecord
340
62A
  0
XRECORD
  5
88B
102
{ACAD_REACTORS
330
884
102
}
330
884
100
AcDbXrecord
340
627
  0
XRECORD
  5
88C
102
{ACAD_REACTORS
330
884
102
}
330
884
100
AcDbXrecord
 90
    10781
  0
XRECORD
  5
88D
102
{ACAD_REACTORS
330
884
102
}
330
884
100
AcDbXrecord
 90
        0
  0
XRECORD
  5
88E
102
{ACAD_REACTORS
330
884
102
}
330
884
100
AcDbXrecord
 90
        0
  0
XRECORD
  5
88F
102
{ACAD_REACTORS
330
884
102
}
330
884
100
AcDbXrecord
  1
{7B650999-53D2-4F50-A6A1-459185F7DEAD}
  0
XRECORD
  5
890
102
{ACAD_REACTORS
330
884
102
}
330
884
100
AcDbXrecord
  1
{2695C890-95BB-4AB8-8A86-8AFCA147443B}
  0
XRECORD
  5
891
102
{ACAD_REACTORS
330
884
102
}
330
884
100
AcDbXrecord
 40
0.0
  0
XRECORD
  5
892
102
{ACAD_REACTORS
330
884
102
}
330
884
100
AcDbXrecord
1000
DSTYLE
1002
{
1070
   341
340
B2
1070
   343
340
B2
1070
   344
340
B2
1070
   371
 70
    -1
1070
   372
 70
    -1
1002
}
  0
XRECORD
  5
893
102
{ACAD_REACTORS
330
884
102
}
330
884
100
AcDbXrecord
340
0
  0
XRECORD
  5
894
102
{ACAD_REACTORS
330
884
102
}
330
884
100
AcDbXrecord
 70
     0
  0
XRECORD
  5
895
102
{ACAD_REACTORS
330
884
102
}
330
884
100
AcDbXrecord
340
0
  0
XRECORD
  5
896
102
{ACAD_REACTORS
330
884
102
}
330
884
100
AcDbXrecord
 10
0.0
 20
0.0
 30
0.0
  0
XRECORD
  5
897
102
{ACAD_REACTORS
330
884
102
}
330
884
100
AcDbXrecord
 10
0.0
 20
0.0
 30
0.0
  0
XRECORD
  5
898
102
{ACAD_REACTORS
330
884
102
}
330
884
100
AcDbXrecord
 10
0.0
 20
0.0
 30
0.0
  0
XRECORD
  5
899
102
{ACAD_REACTORS
330
884
102
}
330
884
100
AcDbXrecord
 10
0.0
 20
0.0
 30
0.0
  0
XRECORD
  5
89A
102
{ACAD_REACTORS
330
884
102
}
330
884
100
AcDbXrecord
 10
0.0
 20
0.0
 30
0.0
  0
XRECORD
  5
89B
102
{ACAD_REACTORS
330
884
102
}
330
884
100
AcDbXrecord
 10
0.0
 20
0.0
 30
0.0
  0
XRECORD
  5
89C
102
{ACAD_REACTORS
330
884
102
}
330
884
100
AcDbXrecord
340
0
  0
XRECORD
  5
89D
102
{ACAD_REACTORS
330
884
102
}
330
884
100
AcDbXrecord
 70
     0
  0
XRECORD
  5
89E
102
{ACAD_REACTORS
330
884
102
}
330
884
100
AcDbXrecord
340
0
  0
XRECORD
  5
89F
102
{ACAD_REACTORS
330
884
102
}
330
884
100
AcDbXrecord
 10
0.0
 20
0.0
 30
0.0
  0
XRECORD
  5
8A0
102
{ACAD_REACTORS
330
884
102
}
330
884
100
AcDbXrecord
 10
0.0
 20
0.0
 30
0.0
  0
XRECORD
  5
8A1
102
{ACAD_REACTORS
330
884
102
}
330
884
100
AcDbXrecord
 10
0.0
 20
0.0
 30
0.0
  0
XRECORD
  5
8A2
102
{ACAD_REACTORS
330
884
102
}
330
884
100
AcDbXrecord
 10
0.0
 20
0.0
 30
0.0
  0
XRECORD
  5
8A3
102
{ACAD_REACTORS
330
884
102
}
330
884
100
AcDbXrecord
 10
0.0
 20
0.0
 30
0.0
  0
XRECORD
  5
8A4
102
{ACAD_REACTORS
330
884
102
}
330
884
100
AcDbXrecord
 10
0.0
 20
0.0
 30
0.0
  0
ENDSEC
  0
EOF
