  0
SECTION
  2
HEADER
  9
$ACADVER
  1
AC1014
  9
$ACADMAINTVER
 70
     9
  9
$DWGCODEPAGE
  3
ANSI_932
  9
$INSBASE
 10
0.0
 20
0.0
 30
0.0
  9
$EXTMIN
 10
-0.0128164049386896
 20
-0.009063274602795
 30
-0.0015258207003583
  9
$EXTMAX
 10
398.8000497813338
 20
275.8226172265043
 30
0.0000000349246037
  9
$LIMMIN
 10
0.0
 20
0.0
  9
$LIMMAX
 10
420.0
 20
297.0
  9
$ORTHOMODE
 70
     0
  9
$REGENMODE
 70
     1
  9
$FILLMODE
 70
     1
  9
$QTEXTMODE
 70
     0
  9
$MIRRTEXT
 70
     1
  9
$DRAGMODE
 70
     2
  9
$LTSCALE
 40
1.0
  9
$OSMODE
 70
    35
  9
$ATTMODE
 70
     1
  9
$TEXTSIZE
 40
2.5
  9
$TRACEWID
 40
1.0
  9
$TEXTSTYLE
  7
STANDARD
  9
$CLAYER
  8
ZUWAKU
  9
$CELTYPE
  6
BYLAYER
  9
$CECOLOR
 62
   256
  9
$CELTSCALE
 40
1.0
  9
$DELOBJ
 70
     1
  9
$DISPSILH
 70
     0
  9
$DIMSCALE
 40
1.0
  9
$DIMASZ
 40
3.0
  9
$DIMEXO
 40
3.0
  9
$DIMDLI
 40
7.0
  9
$DIMRND
 40
0.0
  9
$DIMDLE
 40
0.0
  9
$DIMEXE
 40
1.5
  9
$DIMTP
 40
0.0
  9
$DIMTM
 40
0.0
  9
$DIMTXT
 40
3.0
  9
$DIMCEN
 40
150.0
  9
$DIMTSZ
 40
0.0
  9
$DIMTOL
 70
     0
  9
$DIMLIM
 70
     0
  9
$DIMTIH
 70
     0
  9
$DIMTOH
 70
     0
  9
$DIMSE1
 70
     0
  9
$DIMSE2
 70
     0
  9
$DIMTAD
 70
     3
  9
$DIMZIN
 70
     0
  9
$DIMBLK
  1

  9
$DIMASO
 70
     1
  9
$DIMSHO
 70
     1
  9
$DIMPOST
  1

  9
$DIMAPOST
  1

  9
$DIMALT
 70
     0
  9
$DIMALTD
 70
     2
  9
$DIMALTF
 40
25.4
  9
$DIMLFAC
 40
1.0
  9
$DIMTOFL
 70
     1
  9
$DIMTVP
 40
0.0
  9
$DIMTIX
 70
     0
  9
$DIMSOXD
 70
     0
  9
$DIMSAH
 70
     1
  9
$DIMBLK1
  1
OPEN
  9
$DIMBLK2
  1
OPEN
  9
$DIMSTYLE
  2
STANDARD
  9
$DIMCLRD
 70
   256
  9
$DIMCLRE
 70
   256
  9
$DIMCLRT
 70
   256
  9
$DIMTFAC
 40
1.0
  9
$DIMGAP
 40
1.0
  9
$DIMJUST
 70
     0
  9
$DIMSD1
 70
     0
  9
$DIMSD2
 70
     0
  9
$DIMTOLJ
 70
     1
  9
$DIMTZIN
 70
     0
  9
$DIMALTZ
 70
     0
  9
$DIMALTTZ
 70
     0
  9
$DIMFIT
 70
     3
  9
$DIMUPT
 70
     0
  9
$DIMUNIT
 70
     2
  9
$DIMDEC
 70
     0
  9
$DIMTDEC
 70
     0
  9
$DIMALTU
 70
     2
  9
$DIMALTTD
 70
     2
  9
$DIMTXSTY
  7
STANDARD
  9
$DIMAUNIT
 70
     0
  9
$LUNITS
 70
     2
  9
$LUPREC
 70
     4
  9
$SKETCHINC
 40
1.0
  9
$FILLETRAD
 40
10.0
  9
$AUNITS
 70
     0
  9
$AUPREC
 70
     0
  9
$MENU
  1
.
  9
$ELEVATION
 40
0.0
  9
$PELEVATION
 40
0.0
  9
$THICKNESS
 40
0.0
  9
$LIMCHECK
 70
     0
  9
$BLIPMODE
 70
     0
  9
$CHAMFERA
 40
10.0
  9
$CHAMFERB
 40
10.0
  9
$CHAMFERC
 40
20.0
  9
$CHAMFERD
 40
0.0
  9
$SKPOLY
 70
     0
  9
$TDCREATE
 40
2450994.350997107
  9
$TDUPDATE
 40
2453817.705639467
  9
$TDINDWG
 40
0.0161961458
  9
$TDUSRTIMER
 40
0.0161961458
  9
$USRTIMER
 70
     1
  9
$ANGBASE
 50
0.0
  9
$ANGDIR
 70
     0
  9
$PDMODE
 70
     1
  9
$PDSIZE
 40
0.0
  9
$PLINEWID
 40
0.0
  9
$COORDS
 70
     1
  9
$SPLFRAME
 70
     0
  9
$SPLINETYPE
 70
     6
  9
$SPLINESEGS
 70
     8
  9
$ATTDIA
 70
     0
  9
$ATTREQ
 70
     1
  9
$HANDLING
 70
 10241
  9
$HANDSEED
  5
8A4
  9
$SURFTAB1
 70
     6
  9
$SURFTAB2
 70
     6
  9
$SURFTYPE
 70
     6
  9
$SURFU
 70
     6
  9
$SURFV
 70
     6
  9
$UCSNAME
  2

  9
$UCSORG
 10
0.0
 20
0.0
 30
0.0
  9
$UCSXDIR
 10
1.0
 20
0.0
 30
0.0
  9
$UCSYDIR
 10
0.0
 20
1.0
 30
0.0
  9
$PUCSNAME
  2

  9
$PUCSORG
 10
0.0
 20
0.0
 30
0.0
  9
$PUCSXDIR
 10
1.0
 20
0.0
 30
0.0
  9
$PUCSYDIR
 10
0.0
 20
1.0
 30
0.0
  9
$USERI1
 70
     0
  9
$USERI2
 70
     0
  9
$USERI3
 70
     0
  9
$USERI4
 70
     0
  9
$USERI5
 70
     0
  9
$USERR1
 40
0.0
  9
$USERR2
 40
0.0
  9
$USERR3
 40
0.0
  9
$USERR4
 40
0.0
  9
$USERR5
 40
0.0
  9
$WORLDVIEW
 70
     1
  9
$SHADEDGE
 70
     3
  9
$SHADEDIF
 70
    70
  9
$TILEMODE
 70
     1
  9
$MAXACTVP
 70
    16
  9
$PINSBASE
 10
0.0
 20
0.0
 30
0.0
  9
$PLIMCHECK
 70
     0
  9
$PEXTMIN
 10
0.0
 20
0.0
 30
0.0
  9
$PEXTMAX
 10
420.0
 20
297.0
 30
0.0
  9
$PLIMMIN
 10
0.0
 20
0.0
  9
$PLIMMAX
 10
420.0
 20
297.0
  9
$UNITMODE
 70
     0
  9
$VISRETAIN
 70
     0
  9
$PLINEGEN
 70
     0
  9
$PSLTSCALE
 70
     1
  9
$TREEDEPTH
 70
  3020
  9
$PICKSTYLE
 70
     1
  9
$CMLSTYLE
  2
STANDARD
  9
$CMLJUST
 70
     0
  9
$CMLSCALE
 40
1.0
  9
$PROXYGRAPHICS
 70
     1
  9
$MEASUREMENT
 70
     1
  0
ENDSEC
  0
SECTION
  2
CLASSES
  0
CLASS
  1
ACDBDICTIONARYWDFLT
  2
AcDbDictionaryWithDefault
  3
AutoCAD 2000
 90
        0
280
     0
281
     0
  0
CLASS
  1
ACDBPLACEHOLDER
  2
AcDbPlaceHolder
  3
AutoCAD 2000
 90
        0
280
     0
281
     0
  0
CLASS
  1
LAYOUT
  2
AcDbLayout
  3
AutoCAD 2000
 90
        0
280
     0
281
     0
  0
CLASS
  1
LONG_TRANSACTION
  2
AcDbLongTransaction
  3
AutoCAD 2000
 90
        0
280
     0
281
     0
  0
CLASS
  1
LWPOLYLINE
  2
AcDbPolyline
  3
AutoCAD 2000
 90
        0
280
     0
281
     1
  0
CLASS
  1
HATCH
  2
AcDbHatch
  3
AutoCAD 2000
 90
        0
280
     0
281
     1
  0
CLASS
  1
XRECORD
  2
AcDbXrecord
  3
AutoCAD 2000
 90
        0
280
     0
281
     0
  0
CLASS
  1
LONG_TRANSACTION
  2
AcDbLongTransaction
  3
AutoCAD 2000
 90
        0
280
     0
281
     0
  0
CLASS
  1
LWPOLYLINE
  2
AcDbPolyline
  3
AutoCAD 2000
 90
        0
280
     0
281
     1
  0
CLASS
  1
HATCH
  2
AcDbHatch
  3
AutoCAD 2000
 90
        0
280
     0
281
     1
  0
CLASS
  1
XRECORD
  2
AcDbXrecord
  3
AutoCAD 2000
 90
        0
280
     0
281
     0
  0
CLASS
  1
LONG_TRANSACTION
  2
AcDbLongTransaction
  3
AutoCAD 2000
 90
        0
280
     0
281
     0
  0
CLASS
  1
LWPOLYLINE
  2
AcDbPolyline
  3
AutoCAD 2000
 90
        0
280
     0
281
     1
  0
CLASS
  1
HATCH
  2
AcDbHatch
  3
AutoCAD 2000
 90
        0
280
     0
281
     1
  0
CLASS
  1
XRECORD
  2
AcDbXrecord
  3
AutoCAD 2000
 90
        0
280
     0
281
     0
  0
ENDSEC
  0
SECTION
  2
TABLES
  0
TABLE
  2
VPORT
  5
8
330
0
100
AcDbSymbolTable
 70
     2
  0
VPORT
  5
880
330
8
100
AcDbSymbolTableRecord
100
AcDbViewportTableRecord
  2
*ACTIVE
 70
     0
 10
0.0
 20
0.0
 11
1.0
 21
1.0
 12
229.2098027922881
 22
137.7028103051231
 13
0.0
 23
0.0
 14
5.0
 24
5.0
 15
0.0
 25
0.0
 16
0.0
 26
0.0
 36
1.0
 17
0.0
 27
0.0
 37
0.0
 40
329.2834593067269
 41
1.795454545454545
 42
50.0
 43
0.0
 44
0.0
 50
0.0
 51
0.0
 71
     0
 72
   100
 73
     1
 74
     0
 75
     0
 76
     0
 77
     0
 78
     0
  0
ENDTAB
  0
TABLE
  2
LTYPE
  5
5
330
0
100
AcDbSymbolTable
 70
     3
  0
LTYPE
  5
14
330
5
100
AcDbSymbolTableRecord
100
AcDbLinetypeTableRecord
  2
BYBLOCK
 70
     0
  3

 72
    65
 73
     0
 40
0.0
  0
LTYPE
  5
15
330
5
100
AcDbSymbolTableRecord
100
AcDbLinetypeTableRecord
  2
BYLAYER
 70
     0
  3

 72
    65
 73
     0
 40
0.0
  0
LTYPE
  5
16
330
5
100
AcDbSymbolTableRecord
100
AcDbLinetypeTableRecord
  2
CONTINUOUS
 70
     0
  3
Solid line
 72
    65
 73
     0
 40
0.0
  0
LTYPE
  5
120
330
5
100
AcDbSymbolTableRecord
100
AcDbLinetypeTableRecord
  2
CENTER
 70
     0
  3
____ _ ____ _ ____ _ ____ _ ____ _ ____ _ ____ 
 72
    65
 73
     4
 40
2.0
 49
1.25
 74
     0
 49
-0.25
 74
     0
 49
0.25
 74
     0
 49
-0.25
 74
     0
  0
LTYPE
  5
122
330
5
100
AcDbSymbolTableRecord
100
AcDbLinetypeTableRecord
  2
PHANTOM
 70
     0
  3
______  __  __  ______  __  __  ______  __  __ 
 72
    65
 73
     6
 40
2.5
 49
1.25
 74
     0
 49
-0.25
 74
     0
 49
0.25
 74
     0
 49
-0.25
 74
     0
 49
0.25
 74
     0
 49
-0.25
 74
     0
  0
ENDTAB
  0
TABLE
  2
LAYER
  5
2
330
0
100
AcDbSymbolTable
 70
    10
  0
LAYER
  5
F
330
2
100
AcDbSymbolTableRecord
100
AcDbLayerTableRecord
  2
0
 70
     0
 62
     7
  6
CONTINUOUS
  0
LAYER
  5
62
330
2
100
AcDbSymbolTableRecord
100
AcDbLayerTableRecord
  2
VIEWPORT
 70
     0
 62
     7
  6
CONTINUOUS
  0
LAYER
  5
6B
330
2
100
AcDbSymbolTableRecord
100
AcDbLayerTableRecord
  2
ZUWAKU
 70
     0
 62
     7
  6
CONTINUOUS
  0
LAYER
  5
146
330
2
100
AcDbSymbolTableRecord
100
AcDbLayerTableRecord
  2
SUNPOU_L
 70
     0
 62
     4
  6
CONTINUOUS
  0
LAYER
  5
185
330
2
100
AcDbSymbolTableRecord
100
AcDbLayerTableRecord
  2
CENTER_L
 70
     0
 62
     1
  6
CENTER
  0
LAYER
  5
18C
330
2
100
AcDbSymbolTableRecord
100
AcDbLayerTableRecord
  2
DEFPOINTS
 70
     0
 62
     7
  6
CONTINUOUS
  0
LAYER
  5
2D9
330
2
100
AcDbSymbolTableRecord
100
AcDbLayerTableRecord
  2
SUNPOU
 70
     0
 62
     4
  6
CONTINUOUS
  0
LAYER
  5
2DA
330
2
100
AcDbSymbolTableRecord
100
AcDbLayerTableRecord
  2
SEIHIN
 70
     0
 62
     3
  6
CONTINUOUS
  0
LAYER
  5
2DB
330
2
100
AcDbSymbolTableRecord
100
AcDbLayerTableRecord
  2
NOKITOI
 70
     0
 62
     8
  6
PHANTOM
  0
LAYER
  5
70B
330
2
100
AcDbSymbolTableRecord
100
AcDbLayerTableRecord
  2
MOJI
 70
     0
 62
     2
  6
CONTINUOUS
  0
ENDTAB
  0
TABLE
  2
STYLE
  5
3
330
0
100
AcDbSymbolTable
 70
     2
  0
STYLE
  5
10
330
3
100
AcDbSymbolTableRecord
100
AcDbTextStyleTableRecord
  2
STANDARD
 70
     0
 40
0.0
 41
1.0
 50
0.0
 71
     0
 42
2.5
  3
TXT
  4
bigfont.shx
  0
STYLE
  5
70C
330
3
100
AcDbSymbolTableRecord
100
AcDbTextStyleTableRecord
  2
ｽﾀｲﾙ1
 70
     0
 40
0.0
 41
1.0
 50
0.0
 71
     0
 42
2.5
  3
MS PGothic.ttf
  4

1001
ACAD
1000
MS PGothic
1071
    32818
  0
ENDTAB
  0
TABLE
  2
VIEW
  5
6
330
0
100
AcDbSymbolTable
 70
     0
  0
ENDTAB
  0
TABLE
  2
UCS
  5
7
330
0
100
AcDbSymbolTable
 70
     0
  0
ENDTAB
  0
TABLE
  2
APPID
  5
9
330
0
100
AcDbSymbolTable
 70
     1
  0
APPID
  5
11
330
9
100
AcDbSymbolTableRecord
100
AcDbRegAppTableRecord
  2
ACAD
 70
     0
  0
ENDTAB
  0
TABLE
  2
DIMSTYLE
  5
A
330
0
100
AcDbSymbolTable
 70
     1
  0
DIMSTYLE
105
1D
102
{ACAD_REACTORS
330
3F5
330
3F6
330
3F8
330
46D
330
49F
330
4A1
330
4A2
330
4A6
330
4A8
330
4BA
330
4C5
330
4E9
102
}
330
A
100
AcDbSymbolTableRecord
100
AcDbDimStyleTableRecord
  2
STANDARD
 70
     0
  3

  4

  5

  6

  7

 40
1.0
 41
0.18
 42
0.0625
 43
0.38
 44
0.18
 45
0.0
 46
0.0
 47
0.0
 48
0.0
140
0.18
141
0.09
142
0.0
143
25.4
144
1.0
145
0.0
146
1.0
147
0.09
 71
     0
 72
     0
 73
     1
 74
     1
 75
     0
 76
     0
 77
     0
 78
     0
170
     0
171
     2
172
     0
173
     0
174
     0
175
     0
176
     0
177
     0
178
     0
270
     2
271
     4
272
     4
273
     2
274
     2
340
10
275
     0
280
     0
281
     0
282
     0
283
     1
284
     0
285
     0
286
     0
287
     3
288
     0
  0
ENDTAB
  0
TABLE
  2
BLOCK_RECORD
  5
1
330
0
100
AcDbSymbolTable
 70
    13
  0
BLOCK_RECORD
  5
1A
102
{ACAD_XDICTIONARY
360
657
102
}
330
1
100
AcDbSymbolTableRecord
100
AcDbBlockTableRecord
  2
*MODEL_SPACE
  0
BLOCK_RECORD
  5
17
102
{ACAD_XDICTIONARY
360
655
102
}
330
1
100
AcDbSymbolTableRecord
100
AcDbBlockTableRecord
  2
*PAPER_SPACE
  0
BLOCK_RECORD
  5
B2
330
1
100
AcDbSymbolTableRecord
100
AcDbBlockTableRecord
  2
_OPEN
  0
BLOCK_RECORD
  5
502
330
1
100
AcDbSymbolTableRecord
100
AcDbBlockTableRecord
  2
*D1
  0
BLOCK_RECORD
  5
50E
330
1
100
AcDbSymbolTableRecord
100
AcDbBlockTableRecord
  2
*D2
  0
BLOCK_RECORD
  5
51A
330
1
100
AcDbSymbolTableRecord
100
AcDbBlockTableRecord
  2
*D3
  0
BLOCK_RECORD
  5
526
330
1
100
AcDbSymbolTableRecord
100
AcDbBlockTableRecord
  2
*D4
  0
BLOCK_RECORD
  5
532
330
1
100
AcDbSymbolTableRecord
100
AcDbBlockTableRecord
  2
*D5
  0
BLOCK_RECORD
  5
53E
330
1
100
AcDbSymbolTableRecord
100
AcDbBlockTableRecord
  2
*D6
  0
BLOCK_RECORD
  5
54A
330
1
100
AcDbSymbolTableRecord
100
AcDbBlockTableRecord
  2
*D7
  0
BLOCK_RECORD
  5
556
330
1
100
AcDbSymbolTableRecord
100
AcDbBlockTableRecord
  2
*D8
  0
BLOCK_RECORD
  5
562
330
1
100
AcDbSymbolTableRecord
100
AcDbBlockTableRecord
  2
*D9
  0
BLOCK_RECORD
  5
570
330
1
100
AcDbSymbolTableRecord
100
AcDbBlockTableRecord
  2
*D10
  0
BLOCK_RECORD
  5
57E
330
1
100
AcDbSymbolTableRecord
100
AcDbBlockTableRecord
  2
*D11
  0
BLOCK_RECORD
  5
58A
330
1
100
AcDbSymbolTableRecord
100
AcDbBlockTableRecord
  2
*D12
  0
ENDTAB
  0
ENDSEC
  0
SECTION
  2
BLOCKS
  0
BLOCK
  5
1B
330
1A
100
AcDbEntity
  8
0
100
AcDbBlockBegin
  2
*MODEL_SPACE
 70
     0
 10
0.0
 20
0.0
 30
0.0
  3
*MODEL_SPACE
  1

  0
ENDBLK
  5
1C
330
1A
100
AcDbEntity
  8
0
100
AcDbBlockEnd
  0
BLOCK
  5
18
330
17
100
AcDbEntity
 67
     1
  8
0
100
AcDbBlockBegin
  2
*PAPER_SPACE
 70
     0
 10
0.0
 20
0.0
 30
0.0
  3
*PAPER_SPACE
  1

  0
ENDBLK
  5
19
330
17
100
AcDbEntity
 67
     1
  8
0
100
AcDbBlockEnd
  0
BLOCK
  5
B3
330
B2
100
AcDbEntity
  8
0
100
AcDbBlockBegin
  2
_OPEN
 70
     0
 10
0.0
 20
0.0
 30
0.0
  3
_OPEN
  1

  0
LINE
  5
B4
330
B2
100
AcDbEntity
  8
0
  6
BYBLOCK
 62
     0
100
AcDbLine
 10
-1.0
 20
0.1666666666666666
 30
0.0
 11
0.0
 21
0.0
 31
0.0
  0
LINE
  5
B5
330
B2
100
AcDbEntity
  8
0
  6
BYBLOCK
 62
     0
100
AcDbLine
 10
0.0
 20
0.0
 30
0.0
 11
-1.0
 21
-0.1666666666666666
 31
0.0
  0
LINE
  5
B6
330
B2
100
AcDbEntity
  8
0
  6
BYBLOCK
 62
     0
100
AcDbLine
 10
0.0
 20
0.0
 30
0.0
 11
-1.0
 21
0.0
 31
0.0
  0
ENDBLK
  5
B7
330
B2
100
AcDbEntity
  8
0
100
AcDbBlockEnd
  0
BLOCK
  5
596
330
502
100
AcDbEntity
  8
0
100
AcDbBlockBegin
  2
*D1
 70
     1
 10
0.0
 20
0.0
 30
0.0
  3
*D1
  1

  0
LINE
  5
68B
330
502
100
AcDbEntity
  8
SUNPOU
  6
CONTINUOUS
 62
     4
100
AcDbLine
 10
203.8138617408594
 20
80.33451060742454
 30
0.0
 11
85.32528191547164
 21
80.33451060742457
 31
0.0
  0
LINE
  5
68C
330
502
100
AcDbEntity
  8
SUNPOU
  6
CONTINUOUS
 62
     4
100
AcDbLine
 10
105.0138617408595
 20
111.3348106074244
 30
0.0
 11
85.32528191547166
 21
111.3348106074245
 31
0.0
  0
LINE
  5
68D
330
502
100
AcDbEntity
  8
SUNPOU
  6
CONTINUOUS
 62
     4
100
AcDbLine
 10
86.82528191547165
 20
83.33451060742458
 30
0.0
 11
86.82528191547167
 21
108.3348106074245
 31
0.0
  0
INSERT
  5
68E
330
502
100
AcDbEntity
  8
SUNPOU
  6
CONTINUOUS
 62
     4
100
AcDbBlockReference
  2
_OPEN
 10
86.82528191547165
 20
80.33451060742457
 30
0.0
 41
3.0
 42
3.0
 43
3.0
 50
270.0
  0
INSERT
  5
68F
330
502
100
AcDbEntity
  8
SUNPOU
  6
CONTINUOUS
 62
     4
100
AcDbBlockReference
  2
_OPEN
 10
86.82528191547167
 20
111.3348106074245
 30
0.0
 41
3.0
 42
3.0
 43
3.0
 50
90.0
  0
MTEXT
  5
690
330
502
100
AcDbEntity
  8
SUNPOU
  6
CONTINUOUS
 62
     4
100
AcDbMText
 10
84.32528191547163
 20
95.83466060742455
 30
0.0
 40
3.0
 41
0.0
 71
     5
 72
     5
  1
\A1;31
 11
0.0000000000000001
 21
1.0
 31
0.0
1001
ACAD
1000
MTEXTBEGIN
1070
    73
1070
     1
1070
    44
1040
1.0
1070
    74
1070
     0
1000
MTEXTEND
1000
MTEXTBEGIN
1070
    73
1070
     1
1070
    44
1040
1.0
1070
    74
1070
     0
1000
MTEXTEND
  0
POINT
  5
691
330
502
100
AcDbEntity
  8
DEFPOINTS
  6
CONTINUOUS
 62
     0
100
AcDbPoint
 10
206.8138617408593
 20
80.33451060742454
 30
0.0
  0
POINT
  5
692
330
502
100
AcDbEntity
  8
DEFPOINTS
  6
CONTINUOUS
 62
     0
100
AcDbPoint
 10
108.0138617408595
 20
111.3348106074244
 30
0.0
  0
POINT
  5
693
330
502
100
AcDbEntity
  8
DEFPOINTS
  6
CONTINUOUS
 62
     0
100
AcDbPoint
 10
86.82528191547167
 20
111.3348106074245
 30
0.0
  0
ENDBLK
  5
5A0
330
502
100
AcDbEntity
  8
0
100
AcDbBlockEnd
  0
BLOCK
  5
5A1
330
50E
100
AcDbEntity
  8
0
100
AcDbBlockBegin
  2
*D2
 70
     1
 10
0.0
 20
0.0
 30
0.0
  3
*D2
  1

  0
LINE
  5
682
330
50E
100
AcDbEntity
  8
SUNPOU
  6
CONTINUOUS
 62
     4
100
AcDbLine
 10
208.0138617408594
 20
123.3345106074244
 30
0.0
 11
208.0138617408594
 21
156.9250928057636
 31
0.0
  0
LINE
  5
683
330
50E
100
AcDbEntity
  8
SUNPOU
  6
CONTINUOUS
 62
     4
100
AcDbLine
 10
102.4138617408595
 20
108.2348106074245
 30
0.0
 11
102.4138617408595
 21
156.9250928057636
 31
0.0
  0
LINE
  5
684
330
50E
100
AcDbEntity
  8
SUNPOU
  6
CONTINUOUS
 62
     4
100
AcDbLine
 10
205.0138617408594
 20
155.4250928057636
 30
0.0
 11
105.4138617408595
 21
155.4250928057636
 31
0.0
  0
INSERT
  5
685
330
50E
100
AcDbEntity
  8
SUNPOU
  6
CONTINUOUS
 62
     4
100
AcDbBlockReference
  2
_OPEN
 10
208.0138617408594
 20
155.4250928057636
 30
0.0
 41
3.0
 42
3.0
 43
3.0
  0
INSERT
  5
686
330
50E
100
AcDbEntity
  8
SUNPOU
  6
CONTINUOUS
 62
     4
100
AcDbBlockReference
  2
_OPEN
 10
102.4138617408595
 20
155.4250928057636
 30
0.0
 41
3.0
 42
3.0
 43
3.0
 50
180.0
  0
MTEXT
  5
687
330
50E
100
AcDbEntity
  8
SUNPOU
  6
CONTINUOUS
 62
     4
100
AcDbMText
 10
155.2138617408594
 20
157.9250928057636
 30
0.0
 40
3.0
 41
0.0
 71
     5
 72
     5
  1
\A1;106
1001
ACAD
1000
MTEXTBEGIN
1070
    73
1070
     1
1070
    44
1040
1.0
1070
    74
1070
     0
1000
MTEXTEND
1000
MTEXTBEGIN
1070
    73
1070
     1
1070
    44
1040
1.0
1070
    74
1070
     0
1000
MTEXTEND
  0
POINT
  5
688
330
50E
100
AcDbEntity
  8
DEFPOINTS
  6
CONTINUOUS
 62
     0
100
AcDbPoint
 10
208.0138617408594
 20
120.3345106074244
 30
0.0
  0
POINT
  5
689
330
50E
100
AcDbEntity
  8
DEFPOINTS
  6
CONTINUOUS
 62
     0
100
AcDbPoint
 10
102.4138617408595
 20
105.2348106074245
 30
0.0
  0
POINT
  5
68A
330
50E
100
AcDbEntity
  8
DEFPOINTS
  6
CONTINUOUS
 62
     0
100
AcDbPoint
 10
102.4138617408595
 20
155.4250928057636
 30
0.0
  0
ENDBLK
  5
5AB
330
50E
100
AcDbEntity
  8
0
100
AcDbBlockEnd
  0
BLOCK
  5
5AC
330
51A
100
AcDbEntity
  8
0
100
AcDbBlockBegin
  2
*D3
 70
     1
 10
0.0
 20
0.0
 30
0.0
  3
*D3
  1

  0
LINE
  5
694
330
51A
100
AcDbEntity
  8
SUNPOU
  6
CONTINUOUS
 62
     4
100
AcDbLine
 10
208.0138617408594
 20
123.3345106074244
 30
0.0
 11
208.0138617408594
 21
139.5042507249643
 31
0.0
  0
LINE
  5
695
330
51A
100
AcDbEntity
  8
SUNPOU
  6
CONTINUOUS
 62
     4
100
AcDbLine
 10
188.0138587748874
 20
106.9647071553765
 30
0.0
 11
188.0138587748874
 21
139.5042507249643
 31
0.0
  0
LINE
  5
696
330
51A
100
AcDbEntity
  8
SUNPOU
  6
CONTINUOUS
 62
     4
100
AcDbLine
 10
205.0138617408594
 20
138.0042507249643
 30
0.0
 11
191.0138587748874
 21
138.0042507249643
 31
0.0
  0
INSERT
  5
697
330
51A
100
AcDbEntity
  8
SUNPOU
  6
CONTINUOUS
 62
     4
100
AcDbBlockReference
  2
_OPEN
 10
208.0138617408594
 20
138.0042507249643
 30
0.0
 41
3.0
 42
3.0
 43
3.0
  0
INSERT
  5
698
330
51A
100
AcDbEntity
  8
SUNPOU
  6
CONTINUOUS
 62
     4
100
AcDbBlockReference
  2
_OPEN
 10
188.0138587748874
 20
138.0042507249643
 30
0.0
 41
3.0
 42
3.0
 43
3.0
 50
180.0
  0
MTEXT
  5
699
330
51A
100
AcDbEntity
  8
SUNPOU
  6
CONTINUOUS
 62
     4
100
AcDbMText
 10
198.0138602578734
 20
140.5042507249643
 30
0.0
 40
3.0
 41
0.0
 71
     5
 72
     5
  1
\A1;20
1001
ACAD
1000
MTEXTBEGIN
1070
    73
1070
     1
1070
    44
1040
1.0
1070
    74
1070
     0
1000
MTEXTEND
1000
MTEXTBEGIN
1070
    73
1070
     1
1070
    44
1040
1.0
1070
    74
1070
     0
1000
MTEXTEND
  0
POINT
  5
69A
330
51A
100
AcDbEntity
  8
DEFPOINTS
  6
CONTINUOUS
 62
     0
100
AcDbPoint
 10
208.0138617408594
 20
120.3345106074244
 30
0.0
  0
POINT
  5
69B
330
51A
100
AcDbEntity
  8
DEFPOINTS
  6
CONTINUOUS
 62
     0
100
AcDbPoint
 10
188.0138587748874
 20
103.9647071553765
 30
0.0
  0
POINT
  5
69C
330
51A
100
AcDbEntity
  8
DEFPOINTS
  6
CONTINUOUS
 62
     0
100
AcDbPoint
 10
188.0138587748874
 20
138.0042507249643
 30
0.0
  0
ENDBLK
  5
5B6
330
51A
100
AcDbEntity
  8
0
100
AcDbBlockEnd
  0
BLOCK
  5
5B7
330
526
100
AcDbEntity
  8
0
100
AcDbBlockBegin
  2
*D4
 70
     1
 10
0.0
 20
0.0
 30
0.0
  3
*D4
  1

  0
LINE
  5
69D
330
526
100
AcDbEntity
  8
SUNPOU
  6
CONTINUOUS
 62
     4
100
AcDbLine
 10
100.4138617408595
 20
217.8846106074244
 30
0.0
 11
85.47925889094775
 21
217.8846106074244
 31
0.0
  0
LINE
  5
69E
330
526
100
AcDbEntity
  8
SUNPOU
  6
CONTINUOUS
 62
     4
100
AcDbLine
 10
100.4138617408595
 20
202.7846106074245
 30
0.0
 11
85.47925889094775
 21
202.7846106074245
 31
0.0
  0
LINE
  5
69F
330
526
100
AcDbEntity
  8
SUNPOU
  6
CONTINUOUS
 62
     4
100
AcDbLine
 10
86.97925889094776
 20
214.8846106074244
 30
0.0
 11
86.97925889094776
 21
205.7846106074245
 31
0.0
  0
INSERT
  5
6A0
330
526
100
AcDbEntity
  8
SUNPOU
  6
CONTINUOUS
 62
     4
100
AcDbBlockReference
  2
_OPEN
 10
86.97925889094776
 20
217.8846106074244
 30
0.0
 41
3.0
 42
3.0
 43
3.0
 50
90.0
  0
INSERT
  5
6A1
330
526
100
AcDbEntity
  8
SUNPOU
  6
CONTINUOUS
 62
     4
100
AcDbBlockReference
  2
_OPEN
 10
86.97925889094776
 20
202.7846106074245
 30
0.0
 41
3.0
 42
3.0
 43
3.0
 50
270.0
  0
MTEXT
  5
6A2
330
526
100
AcDbEntity
  8
SUNPOU
  6
CONTINUOUS
 62
     4
100
AcDbMText
 10
84.47925889094774
 20
210.3346106074245
 30
0.0
 40
3.0
 41
0.0
 71
     5
 72
     5
  1
\A1;15
 11
0.0000000000000001
 21
1.0
 31
0.0
1001
ACAD
1000
MTEXTBEGIN
1070
    73
1070
     1
1070
    44
1040
1.0
1070
    74
1070
     0
1000
MTEXTEND
1000
MTEXTBEGIN
1070
    73
1070
     1
1070
    44
1040
1.0
1070
    74
1070
     0
1000
MTEXTEND
  0
POINT
  5
6A3
330
526
100
AcDbEntity
  8
DEFPOINTS
  6
CONTINUOUS
 62
     0
100
AcDbPoint
 10
103.4138617408595
 20
217.8846106074244
 30
0.0
  0
POINT
  5
6A4
330
526
100
AcDbEntity
  8
DEFPOINTS
  6
CONTINUOUS
 62
     0
100
AcDbPoint
 10
103.4138617408595
 20
202.7846106074245
 30
0.0
  0
POINT
  5
6A5
330
526
100
AcDbEntity
  8
DEFPOINTS
  6
CONTINUOUS
 62
     0
100
AcDbPoint
 10
86.97925889094776
 20
202.7846106074245
 30
0.0
  0
ENDBLK
  5
5C1
330
526
100
AcDbEntity
  8
0
100
AcDbBlockEnd
  0
BLOCK
  5
5C2
330
532
100
AcDbEntity
  8
0
100
AcDbBlockBegin
  2
*D5
 70
     1
 10
0.0
 20
0.0
 30
0.0
  3
*D5
  1

  0
LINE
  5
6B8
330
532
100
AcDbEntity
  8
SUNPOU
  6
CONTINUOUS
 62
     4
100
AcDbLine
 10
333.0138617408593
 20
121.3345106074244
 30
0.0
 11
333.0138617408593
 21
148.7735589060778
 31
0.0
  0
LINE
  5
6B9
330
532
100
AcDbEntity
  8
SUNPOU
  6
CONTINUOUS
 62
     4
100
AcDbLine
 10
273.0138617408595
 20
121.3345106074244
 30
0.0
 11
273.0138617408595
 21
148.7735589060778
 31
0.0
  0
LINE
  5
6BA
330
532
100
AcDbEntity
  8
SUNPOU
  6
CONTINUOUS
 62
     4
100
AcDbLine
 10
330.0138617408594
 20
147.2735589060778
 30
0.0
 11
276.0138617408595
 21
147.2735589060778
 31
0.0
  0
INSERT
  5
6BB
330
532
100
AcDbEntity
  8
SUNPOU
  6
CONTINUOUS
 62
     4
100
AcDbBlockReference
  2
_OPEN
 10
333.0138617408593
 20
147.2735589060778
 30
0.0
 41
3.0
 42
3.0
 43
3.0
  0
INSERT
  5
6BC
330
532
100
AcDbEntity
  8
SUNPOU
  6
CONTINUOUS
 62
     4
100
AcDbBlockReference
  2
_OPEN
 10
273.0138617408595
 20
147.2735589060778
 30
0.0
 41
3.0
 42
3.0
 43
3.0
 50
180.0
  0
MTEXT
  5
6BD
330
532
100
AcDbEntity
  8
SUNPOU
  6
CONTINUOUS
 62
     4
100
AcDbMText
 10
303.0138617408594
 20
149.7735589060778
 30
0.0
 40
3.0
 41
0.0
 71
     5
 72
     5
  1
\A1;60
1001
ACAD
1000
MTEXTBEGIN
1070
    73
1070
     1
1070
    44
1040
1.0
1070
    74
1070
     0
1000
MTEXTEND
1000
MTEXTBEGIN
1070
    73
1070
     1
1070
    44
1040
1.0
1070
    74
1070
     0
1000
MTEXTEND
  0
POINT
  5
6BE
330
532
100
AcDbEntity
  8
DEFPOINTS
  6
CONTINUOUS
 62
     0
100
AcDbPoint
 10
333.0138617408593
 20
118.3345106074244
 30
0.0
  0
POINT
  5
6BF
330
532
100
AcDbEntity
  8
DEFPOINTS
  6
CONTINUOUS
 62
     0
100
AcDbPoint
 10
273.0138617408595
 20
118.3345106074244
 30
0.0
  0
POINT
  5
6C0
330
532
100
AcDbEntity
  8
DEFPOINTS
  6
CONTINUOUS
 62
     0
100
AcDbPoint
 10
273.0138617408595
 20
147.2735589060778
 30
0.0
  0
ENDBLK
  5
5CC
330
532
100
AcDbEntity
  8
0
100
AcDbBlockEnd
  0
BLOCK
  5
5CD
330
53E
100
AcDbEntity
  8
0
100
AcDbBlockBegin
  2
*D6
 70
     1
 10
0.0
 20
0.0
 30
0.0
  3
*D6
  1

  0
LINE
  5
6AF
330
53E
100
AcDbEntity
  8
SUNPOU
  6
CONTINUOUS
 62
     4
100
AcDbLine
 10
294.0138617408594
 20
125.3345106074245
 30
0.0
 11
256.2371486268629
 21
125.3345106074245
 31
0.0
  0
LINE
  5
6B0
330
53E
100
AcDbEntity
  8
SUNPOU
  6
CONTINUOUS
 62
     4
100
AcDbLine
 10
270.0138617408595
 20
112.3345106074244
 30
0.0
 11
256.2371486268629
 21
112.3345106074244
 31
0.0
  0
LINE
  5
6B1
330
53E
100
AcDbEntity
  8
SUNPOU
  6
CONTINUOUS
 62
     4
100
AcDbLine
 10
257.7371486268629
 20
122.3345106074245
 30
0.0
 11
257.7371486268629
 21
115.3345106074244
 31
0.0
  0
INSERT
  5
6B2
330
53E
100
AcDbEntity
  8
SUNPOU
  6
CONTINUOUS
 62
     4
100
AcDbBlockReference
  2
_OPEN
 10
257.7371486268629
 20
125.3345106074245
 30
0.0
 41
3.0
 42
3.0
 43
3.0
 50
90.0
  0
INSERT
  5
6B3
330
53E
100
AcDbEntity
  8
SUNPOU
  6
CONTINUOUS
 62
     4
100
AcDbBlockReference
  2
_OPEN
 10
257.7371486268629
 20
112.3345106074244
 30
0.0
 41
3.0
 42
3.0
 43
3.0
 50
270.0
  0
MTEXT
  5
6B4
330
53E
100
AcDbEntity
  8
SUNPOU
  6
CONTINUOUS
 62
     4
100
AcDbMText
 10
255.2371486268629
 20
118.8345106074245
 30
0.0
 40
3.0
 41
0.0
 71
     5
 72
     5
  1
\A1;13
 11
0.0000000000000001
 21
1.0
 31
0.0
1001
ACAD
1000
MTEXTBEGIN
1070
    73
1070
     1
1070
    44
1040
1.0
1070
    74
1070
     0
1000
MTEXTEND
1000
MTEXTBEGIN
1070
    73
1070
     1
1070
    44
1040
1.0
1070
    74
1070
     0
1000
MTEXTEND
  0
POINT
  5
6B5
330
53E
100
AcDbEntity
  8
DEFPOINTS
  6
CONTINUOUS
 62
     0
100
AcDbPoint
 10
297.0138617408593
 20
125.3345106074245
 30
0.0
  0
POINT
  5
6B6
330
53E
100
AcDbEntity
  8
DEFPOINTS
  6
CONTINUOUS
 62
     0
100
AcDbPoint
 10
273.0138617408595
 20
112.3345106074244
 30
0.0
  0
POINT
  5
6B7
330
53E
100
AcDbEntity
  8
DEFPOINTS
  6
CONTINUOUS
 62
     0
100
AcDbPoint
 10
257.7371486268629
 20
112.3345106074244
 30
0.0
  0
ENDBLK
  5
5D7
330
53E
100
AcDbEntity
  8
0
100
AcDbBlockEnd
  0
BLOCK
  5
5D8
330
54A
100
AcDbEntity
  8
0
100
AcDbBlockBegin
  2
*D7
 70
     1
 10
0.0
 20
0.0
 30
0.0
  3
*D7
  1

  0
LINE
  5
6A6
330
54A
100
AcDbEntity
  8
SUNPOU
  6
CONTINUOUS
 62
     4
100
AcDbLine
 10
294.0138617408594
 20
125.3345106074245
 30
0.0
 11
246.2579491816437
 21
125.3345106074245
 31
0.0
  0
LINE
  5
6A7
330
54A
100
AcDbEntity
  8
SUNPOU
  6
CONTINUOUS
 62
     4
100
AcDbLine
 10
294.0138617408594
 20
80.33451060742454
 30
0.0
 11
246.2579491816437
 21
80.33451060742455
 31
0.0
  0
LINE
  5
6A8
330
54A
100
AcDbEntity
  8
SUNPOU
  6
CONTINUOUS
 62
     4
100
AcDbLine
 10
247.7579491816437
 20
122.3345106074245
 30
0.0
 11
247.7579491816437
 21
83.33451060742454
 31
0.0
  0
INSERT
  5
6A9
330
54A
100
AcDbEntity
  8
SUNPOU
  6
CONTINUOUS
 62
     4
100
AcDbBlockReference
  2
_OPEN
 10
247.7579491816437
 20
125.3345106074245
 30
0.0
 41
3.0
 42
3.0
 43
3.0
 50
90.0
  0
INSERT
  5
6AA
330
54A
100
AcDbEntity
  8
SUNPOU
  6
CONTINUOUS
 62
     4
100
AcDbBlockReference
  2
_OPEN
 10
247.7579491816437
 20
80.33451060742455
 30
0.0
 41
3.0
 42
3.0
 43
3.0
 50
270.0
  0
MTEXT
  5
6AB
330
54A
100
AcDbEntity
  8
SUNPOU
  6
CONTINUOUS
 62
     4
100
AcDbMText
 10
245.2579491816437
 20
102.8345106074245
 30
0.0
 40
3.0
 41
0.0
 71
     5
 72
     5
  1
\A1;45
 11
0.0000000000000001
 21
1.0
 31
0.0
1001
ACAD
1000
MTEXTBEGIN
1070
    73
1070
     1
1070
    44
1040
1.0
1070
    74
1070
     0
1000
MTEXTEND
1000
MTEXTBEGIN
1070
    73
1070
     1
1070
    44
1040
1.0
1070
    74
1070
     0
1000
MTEXTEND
  0
POINT
  5
6AC
330
54A
100
AcDbEntity
  8
DEFPOINTS
  6
CONTINUOUS
 62
     0
100
AcDbPoint
 10
297.0138617408593
 20
125.3345106074245
 30
0.0
  0
POINT
  5
6AD
330
54A
100
AcDbEntity
  8
DEFPOINTS
  6
CONTINUOUS
 62
     0
100
AcDbPoint
 10
297.0138617408593
 20
80.33451060742454
 30
0.0
  0
POINT
  5
6AE
330
54A
100
AcDbEntity
  8
DEFPOINTS
  6
CONTINUOUS
 62
     0
100
AcDbPoint
 10
247.7579491816437
 20
80.33451060742455
 30
0.0
  0
ENDBLK
  5
5E2
330
54A
100
AcDbEntity
  8
0
100
AcDbBlockEnd
  0
BLOCK
  5
5E3
330
556
100
AcDbEntity
  8
0
100
AcDbBlockBegin
  2
*D8
 70
     1
 10
0.0
 20
0.0
 30
0.0
  3
*D8
  1

  0
LINE
  5
679
330
556
100
AcDbEntity
  8
SUNPOU
  6
CONTINUOUS
 62
     4
100
AcDbLine
 10
206.0138617408595
 20
125.3345106074245
 30
0.0
 11
231.2797571326537
 21
125.3345106074245
 31
0.0
  0
LINE
  5
67A
330
556
100
AcDbEntity
  8
SUNPOU
  6
CONTINUOUS
 62
     4
100
AcDbLine
 10
211.0138617408594
 20
80.33451060742454
 30
0.0
 11
231.2797571326537
 21
80.33451060742452
 31
0.0
  0
LINE
  5
67B
330
556
100
AcDbEntity
  8
SUNPOU
  6
CONTINUOUS
 62
     4
100
AcDbLine
 10
229.7797571326538
 20
122.3345106074245
 30
0.0
 11
229.7797571326538
 21
83.33451060742453
 31
0.0
  0
INSERT
  5
67C
330
556
100
AcDbEntity
  8
SUNPOU
  6
CONTINUOUS
 62
     4
100
AcDbBlockReference
  2
_OPEN
 10
229.7797571326538
 20
125.3345106074245
 30
0.0
 41
3.0
 42
3.0
 43
3.0
 50
90.0
  0
INSERT
  5
67D
330
556
100
AcDbEntity
  8
SUNPOU
  6
CONTINUOUS
 62
     4
100
AcDbBlockReference
  2
_OPEN
 10
229.7797571326538
 20
80.33451060742452
 30
0.0
 41
3.0
 42
3.0
 43
3.0
 50
270.0
  0
MTEXT
  5
67E
330
556
100
AcDbEntity
  8
SUNPOU
  6
CONTINUOUS
 62
     4
100
AcDbMText
 10
227.2797571326537
 20
102.8345106074245
 30
0.0
 40
3.0
 41
0.0
 71
     5
 72
     5
  1
\A1;45
 11
0.0000000000000001
 21
1.0
 31
0.0
1001
ACAD
1000
MTEXTBEGIN
1070
    73
1070
     1
1070
    44
1040
1.0
1070
    74
1070
     0
1000
MTEXTEND
1000
MTEXTBEGIN
1070
    73
1070
     1
1070
    44
1040
1.0
1070
    74
1070
     0
1000
MTEXTEND
  0
POINT
  5
67F
330
556
100
AcDbEntity
  8
DEFPOINTS
  6
CONTINUOUS
 62
     0
100
AcDbPoint
 10
203.0138617408595
 20
125.3345106074245
 30
0.0
  0
POINT
  5
680
330
556
100
AcDbEntity
  8
DEFPOINTS
  6
CONTINUOUS
 62
     0
100
AcDbPoint
 10
208.0138617408594
 20
80.33451060742454
 30
0.0
  0
POINT
  5
681
330
556
100
AcDbEntity
  8
DEFPOINTS
  6
CONTINUOUS
 62
     0
100
AcDbPoint
 10
229.7797571326538
 20
80.33451060742452
 30
0.0
  0
ENDBLK
  5
5ED
330
556
100
AcDbEntity
  8
0
100
AcDbBlockEnd
  0
BLOCK
  5
5EE
330
562
100
AcDbEntity
  8
0
100
AcDbBlockBegin
  2
*D9
 70
     1
 10
0.0
 20
0.0
 30
0.0
  3
*D9
  1

  0
LINE
  5
66E
330
562
100
AcDbEntity
  8
SUNPOU
  6
CONTINUOUS
 62
     4
100
AcDbLine
 10
206.8138617408593
 20
77.33451060742453
 30
0.0
 11
206.8138617408593
 21
64.89401284613546
 31
0.0
  0
LINE
  5
66F
330
562
100
AcDbEntity
  8
SUNPOU
  6
CONTINUOUS
 62
     4
100
AcDbLine
 10
208.0138617408594
 20
77.33451060742453
 30
0.0
 11
208.0138617408594
 21
64.89401284613546
 31
0.0
  0
LINE
  5
670
330
562
100
AcDbEntity
  8
SUNPOU
  6
CONTINUOUS
 62
     4
100
AcDbLine
 10
203.8138617408594
 20
66.39401284613547
 30
0.0
 11
200.8138617408593
 21
66.39401284613547
 31
0.0
  0
LINE
  5
671
330
562
100
AcDbEntity
  8
SUNPOU
  6
CONTINUOUS
 62
     4
100
AcDbLine
 10
211.0138617408594
 20
66.39401284613547
 30
0.0
 11
224.0138617408594
 21
66.39401284613547
 31
0.0
  0
LINE
  5
672
330
562
100
AcDbEntity
  8
SUNPOU
  6
CONTINUOUS
 62
     4
100
AcDbLine
 10
206.8138617408593
 20
66.39401284613547
 30
0.0
 11
208.0138617408594
 21
66.39401284613547
 31
0.0
  0
INSERT
  5
673
330
562
100
AcDbEntity
  8
SUNPOU
  6
CONTINUOUS
 62
     4
100
AcDbBlockReference
  2
_OPEN
 10
206.8138617408593
 20
66.39401284613547
 30
0.0
 41
3.0
 42
3.0
 43
3.0
  0
INSERT
  5
674
330
562
100
AcDbEntity
  8
SUNPOU
  6
CONTINUOUS
 62
     4
100
AcDbBlockReference
  2
_OPEN
 10
208.0138617408594
 20
66.39401284613547
 30
0.0
 41
3.0
 42
3.0
 43
3.0
 50
180.0
  0
MTEXT
  5
675
330
562
100
AcDbEntity
  8
SUNPOU
  6
CONTINUOUS
 62
     4
100
AcDbMText
 10
219.0138617408594
 20
68.89401284613547
 30
0.0
 40
3.0
 41
0.0
 71
     5
 72
     5
  1
\A1;t1.2
1001
ACAD
1000
MTEXTBEGIN
1070
    73
1070
     1
1070
    44
1040
1.0
1070
    74
1070
     0
1000
MTEXTEND
1000
MTEXTBEGIN
1070
    73
1070
     1
1070
    44
1040
1.0
1070
    74
1070
     0
1000
MTEXTEND
  0
POINT
  5
676
330
562
100
AcDbEntity
  8
DEFPOINTS
  6
CONTINUOUS
 62
     0
100
AcDbPoint
 10
206.8138617408593
 20
80.33451060742454
 30
0.0
  0
POINT
  5
677
330
562
100
AcDbEntity
  8
DEFPOINTS
  6
CONTINUOUS
 62
     0
100
AcDbPoint
 10
208.0138617408594
 20
80.33451060742454
 30
0.0
  0
POINT
  5
678
330
562
100
AcDbEntity
  8
DEFPOINTS
  6
CONTINUOUS
 62
     0
100
AcDbPoint
 10
208.0138617408594
 20
66.39401284613547
 30
0.0
  0
ENDBLK
  5
5FA
330
562
100
AcDbEntity
  8
0
100
AcDbBlockEnd
  0
BLOCK
  5
5FB
330
570
100
AcDbEntity
  8
0
100
AcDbBlockBegin
  2
*D10
 70
     1
 10
0.0
 20
0.0
 30
0.0
  3
*D10
  1

  0
LINE
  5
6C1
330
570
100
AcDbEntity
  8
SUNPOU
  6
CONTINUOUS
 62
     4
100
AcDbLine
 10
294.0138617408594
 20
85.33451060742462
 30
0.0
 11
286.2380852126989
 21
85.33451060742464
 31
0.0
  0
LINE
  5
6C2
330
570
100
AcDbEntity
  8
SUNPOU
  6
CONTINUOUS
 62
     4
100
AcDbLine
 10
294.0138617408594
 20
80.33451060742454
 30
0.0
 11
286.2380852126989
 21
80.33451060742455
 31
0.0
  0
LINE
  5
6C3
330
570
100
AcDbEntity
  8
SUNPOU
  6
CONTINUOUS
 62
     4
100
AcDbLine
 10
287.7380852126989
 20
88.33451060742465
 30
0.0
 11
287.7380852126989
 21
91.33451060742464
 31
0.0
  0
LINE
  5
6C4
330
570
100
AcDbEntity
  8
SUNPOU
  6
CONTINUOUS
 62
     4
100
AcDbLine
 10
287.7380852126989
 20
77.33451060742455
 30
0.0
 11
287.7380852126989
 21
74.33451060742455
 31
0.0
  0
LINE
  5
6C5
330
570
100
AcDbEntity
  8
SUNPOU
  6
CONTINUOUS
 62
     4
100
AcDbLine
 10
287.7380852126989
 20
85.33451060742464
 30
0.0
 11
287.7380852126989
 21
80.33451060742455
 31
0.0
  0
INSERT
  5
6C6
330
570
100
AcDbEntity
  8
SUNPOU
  6
CONTINUOUS
 62
     4
100
AcDbBlockReference
  2
_OPEN
 10
287.7380852126989
 20
85.33451060742464
 30
0.0
 41
3.0
 42
3.0
 43
3.0
 50
270.0
  0
INSERT
  5
6C7
330
570
100
AcDbEntity
  8
SUNPOU
  6
CONTINUOUS
 62
     4
100
AcDbBlockReference
  2
_OPEN
 10
287.7380852126989
 20
80.33451060742455
 30
0.0
 41
3.0
 42
3.0
 43
3.0
 50
90.0
  0
MTEXT
  5
6C8
330
570
100
AcDbEntity
  8
SUNPOU
  6
CONTINUOUS
 62
     4
100
AcDbMText
 10
285.2380852126989
 20
82.83451060742462
 30
0.0
 40
3.0
 41
0.0
 71
     5
 72
     5
  1
\A1;5
 11
0.0000000000000001
 21
1.0
 31
0.0
1001
ACAD
1000
MTEXTBEGIN
1070
    73
1070
     1
1070
    44
1040
1.0
1070
    74
1070
     0
1000
MTEXTEND
1000
MTEXTBEGIN
1070
    73
1070
     1
1070
    44
1040
1.0
1070
    74
1070
     0
1000
MTEXTEND
  0
POINT
  5
6C9
330
570
100
AcDbEntity
  8
DEFPOINTS
  6
CONTINUOUS
 62
     0
100
AcDbPoint
 10
297.0138617408593
 20
85.33451060742462
 30
0.0
  0
POINT
  5
6CA
330
570
100
AcDbEntity
  8
DEFPOINTS
  6
CONTINUOUS
 62
     0
100
AcDbPoint
 10
297.0138617408593
 20
80.33451060742454
 30
0.0
  0
POINT
  5
6CB
330
570
100
AcDbEntity
  8
DEFPOINTS
  6
CONTINUOUS
 62
     0
100
AcDbPoint
 10
287.7380852126989
 20
80.33451060742455
 30
0.0
  0
ENDBLK
  5
607
330
570
100
AcDbEntity
  8
0
100
AcDbBlockEnd
  0
BLOCK
  5
608
330
57E
100
AcDbEntity
  8
0
100
AcDbBlockBegin
  2
*D11
 70
     1
 10
0.0
 20
0.0
 30
0.0
  3
*D11
  1

  0
LINE
  5
6CC
330
57E
100
AcDbEntity
  8
SUNPOU
  6
CONTINUOUS
 62
     4
100
AcDbLine
 10
328.0138617408596
 20
121.3345106074244
 30
0.0
 11
328.0138617408596
 21
139.4130840123287
 31
0.0
  0
LINE
  5
6CD
330
57E
100
AcDbEntity
  8
SUNPOU
  6
CONTINUOUS
 62
     4
100
AcDbLine
 10
278.0138617408595
 20
121.3345106074244
 30
0.0
 11
278.0138617408595
 21
139.4130840123287
 31
0.0
  0
LINE
  5
6CE
330
57E
100
AcDbEntity
  8
SUNPOU
  6
CONTINUOUS
 62
     4
100
AcDbLine
 10
325.0138617408596
 20
137.9130840123287
 30
0.0
 11
281.0138617408595
 21
137.9130840123287
 31
0.0
  0
INSERT
  5
6CF
330
57E
100
AcDbEntity
  8
SUNPOU
  6
CONTINUOUS
 62
     4
100
AcDbBlockReference
  2
_OPEN
 10
328.0138617408596
 20
137.9130840123287
 30
0.0
 41
3.0
 42
3.0
 43
3.0
  0
INSERT
  5
6D0
330
57E
100
AcDbEntity
  8
SUNPOU
  6
CONTINUOUS
 62
     4
100
AcDbBlockReference
  2
_OPEN
 10
278.0138617408595
 20
137.9130840123287
 30
0.0
 41
3.0
 42
3.0
 43
3.0
 50
180.0
  0
MTEXT
  5
6D1
330
57E
100
AcDbEntity
  8
SUNPOU
  6
CONTINUOUS
 62
     4
100
AcDbMText
 10
303.0138617408595
 20
140.4130840123287
 30
0.0
 40
3.0
 41
0.0
 71
     5
 72
     5
  1
\A1;50
1001
ACAD
1000
MTEXTBEGIN
1070
    73
1070
     1
1070
    44
1040
1.0
1070
    74
1070
     0
1000
MTEXTEND
1000
MTEXTBEGIN
1070
    73
1070
     1
1070
    44
1040
1.0
1070
    74
1070
     0
1000
MTEXTEND
  0
POINT
  5
6D2
330
57E
100
AcDbEntity
  8
DEFPOINTS
  6
CONTINUOUS
 62
     0
100
AcDbPoint
 10
328.0138617408596
 20
118.3345106074244
 30
0.0
  0
POINT
  5
6D3
330
57E
100
AcDbEntity
  8
DEFPOINTS
  6
CONTINUOUS
 62
     0
100
AcDbPoint
 10
278.0138617408595
 20
118.3345106074244
 30
0.0
  0
POINT
  5
6D4
330
57E
100
AcDbEntity
  8
DEFPOINTS
  6
CONTINUOUS
 62
     0
100
AcDbPoint
 10
278.0138617408595
 20
137.9130840123287
 30
0.0
  0
ENDBLK
  5
612
330
57E
100
AcDbEntity
  8
0
100
AcDbBlockEnd
  0
BLOCK
  5
613
330
58A
100
AcDbEntity
  8
0
100
AcDbBlockBegin
  2
*D12
 70
     1
 10
0.0
 20
0.0
 30
0.0
  3
*D12
  1

  0
LINE
  5
665
330
58A
100
AcDbEntity
  8
SUNPOU
  6
CONTINUOUS
 62
     4
100
AcDbLine
 10
211.0139617408595
 20
240.3345106074245
 30
0.0
 11
231.11055597209
 21
240.3345106074245
 31
0.0
  0
LINE
  5
666
330
58A
100
AcDbEntity
  8
SUNPOU
  6
CONTINUOUS
 62
     4
100
AcDbLine
 10
211.0138617408594
 20
180.3345106074245
 30
0.0
 11
231.11055597209
 21
180.3345106074245
 31
0.0
  0
LINE
  5
667
330
58A
100
AcDbEntity
  8
SUNPOU
  6
CONTINUOUS
 62
     4
100
AcDbLine
 10
229.6105559720901
 20
237.3345106074245
 30
0.0
 11
229.61055597209
 21
183.3345106074245
 31
0.0
  0
INSERT
  5
668
330
58A
100
AcDbEntity
  8
SUNPOU
  6
CONTINUOUS
 62
     4
100
AcDbBlockReference
  2
_OPEN
 10
229.6105559720901
 20
240.3345106074245
 30
0.0
 41
3.0
 42
3.0
 43
3.0
 50
90.0
  0
INSERT
  5
669
330
58A
100
AcDbEntity
  8
SUNPOU
  6
CONTINUOUS
 62
     4
100
AcDbBlockReference
  2
_OPEN
 10
229.61055597209
 20
180.3345106074245
 30
0.0
 41
3.0
 42
3.0
 43
3.0
 50
270.0
  0
MTEXT
  5
66A
330
58A
100
AcDbEntity
  8
SUNPOU
  6
CONTINUOUS
 62
     4
100
AcDbMText
 10
227.11055597209
 20
210.3345106074245
 30
0.0
 40
3.0
 41
0.0
 71
     5
 72
     5
  1
\A1;60
 11
0.0000000000000001
 21
1.0
 31
0.0
1001
ACAD
1000
MTEXTBEGIN
1070
    73
1070
     1
1070
    44
1040
1.0
1070
    74
1070
     0
1000
MTEXTEND
1000
MTEXTBEGIN
1070
    73
1070
     1
1070
    44
1040
1.0
1070
    74
1070
     0
1000
MTEXTEND
  0
POINT
  5
66B
330
58A
100
AcDbEntity
  8
DEFPOINTS
  6
CONTINUOUS
 62
     0
100
AcDbPoint
 10
208.0139617408595
 20
240.3345106074245
 30
0.0
  0
POINT
  5
66C
330
58A
100
AcDbEntity
  8
DEFPOINTS
  6
CONTINUOUS
 62
     0
100
AcDbPoint
 10
208.0138617408594
 20
180.3345106074245
 30
0.0
  0
POINT
  5
66D
330
58A
100
AcDbEntity
  8
DEFPOINTS
  6
CONTINUOUS
 62
     0
100
AcDbPoint
 10
229.61055597209
 20
180.3345106074245
 30
0.0
  0
ENDBLK
  5
61D
330
58A
100
AcDbEntity
  8
0
100
AcDbBlockEnd
  0
ENDSEC
  0
SECTION
  2
ENTITIES
  0
POINT
  5
1A1
330
1A
100
AcDbEntity
  8
SUNPOU_L
  6
CONTINUOUS
100
AcDbPoint
 10
205.9553251990115
 20
146.5650665787895
 30
0.0
  0
POINT
  5
1A2
330
1A
100
AcDbEntity
  8
SUNPOU_L
  6
CONTINUOUS
100
AcDbPoint
 10
205.4553267650654
 20
145.6990402718312
 30
0.0
  0
LINE
  5
3F1
330
1A
100
AcDbEntity
  8
SEIHIN
  6
CONTINUOUS
 62
     3
 48
16.0
100
AcDbLine
 10
208.0138617408594
 20
203.784499702668
 30
0.0
 11
102.4139617408595
 21
203.7846106074245
 31
0.0
  0
LINE
  5
3F2
330
1A
100
AcDbEntity
  8
SEIHIN
  6
CONTINUOUS
 62
     3
 48
16.0
100
AcDbLine
 10
208.0138835745261
 20
216.8846106074245
 30
0.0
 11
102.4139617408595
 21
216.8846106074245
 31
0.0
  0
LINE
  5
3F3
330
1A
100
AcDbEntity
  8
SEIHIN
  6
CONTINUOUS
 62
     3
 48
16.0
100
AcDbLine
 10
169.9592617408594
 20
125.3346106074244
 30
0.0
 11
203.0138617408595
 21
125.3345106074245
 31
0.0
  0
LINE
  5
3F4
330
1A
100
AcDbEntity
  8
SEIHIN
  6
CONTINUOUS
 62
     3
 48
16.0
100
AcDbLine
 10
172.3263617408594
 20
120.3346106074244
 30
0.0
 11
200.3842617408595
 21
120.3345106074244
 31
0.0
  0
DIMENSION
  5
3F5
330
1A
100
AcDbEntity
  8
SUNPOU
  6
CONTINUOUS
 62
     4
100
AcDbDimension
  2
*D1
 10
86.82528191547167
 20
111.3348106074245
 30
0.0
 11
84.32528191547163
 21
95.83466060742455
 31
0.0
 70
    32
  3
STANDARD
100
AcDbAlignedDimension
 13
206.8138617408593
 23
80.33451060742454
 33
0.0
 14
108.0138617408595
 24
111.3348106074244
 34
0.0
 50
90.0
100
AcDbRotatedDimension
1001
ACAD
1000
DSTYLE
1002
{
1070
   140
1040
3.0
1070
    74
1070
     0
1070
   172
1070
     1
1070
    73
1070
     0
1070
   272
1070
     2
1070
    77
1070
     3
1070
   173
1070
     1
1070
   147
1040
1.0
1070
    42
1040
3.0
1070
    44
1040
1.5
1070
    43
1040
7.0
1070
   271
1070
     0
1070
   178
1070
     4
1070
   177
1070
     4
1070
   176
1070
     4
1070
   141
1040
150.0
1070
     7
1000
_OPEN
1070
     6
1000
_OPEN
1070
    41
1040
3.0
1002
}
  0
DIMENSION
  5
3F6
330
1A
100
AcDbEntity
  8
SUNPOU
  6
CONTINUOUS
 62
     4
100
AcDbDimension
  2
*D2
 10
102.4138617408595
 20
155.4250928057636
 30
0.0
 11
155.2138617408594
 21
157.9250928057636
 31
0.0
 70
    32
  3
STANDARD
100
AcDbAlignedDimension
 13
208.0138617408594
 23
120.3345106074244
 33
0.0
 14
102.4138617408595
 24
105.2348106074245
 34
0.0
100
AcDbRotatedDimension
1001
ACAD
1000
DSTYLE
1002
{
1070
   140
1040
3.0
1070
    74
1070
     0
1070
   172
1070
     1
1070
    73
1070
     0
1070
   272
1070
     2
1070
    77
1070
     3
1070
   173
1070
     1
1070
   147
1040
1.0
1070
    42
1040
3.0
1070
    44
1040
1.5
1070
    43
1040
7.0
1070
   271
1070
     0
1070
   178
1070
     4
1070
   177
1070
     4
1070
   176
1070
     4
1070
   141
1040
150.0
1070
     7
1000
_OPEN
1070
     6
1000
_OPEN
1070
    41
1040
3.0
1002
}
  0
LINE
  5
3F7
330
1A
100
AcDbEntity
  8
CENTER_L
  6
CENTER
 62
     1
 48
5.0
100
AcDbLine
 10
217.5453617408594
 20
210.3345106074244
 30
0.0
 11
92.85936174085952
 21
210.3346106074243
 31
0.0
  0
DIMENSION
  5
3F8
330
1A
100
AcDbEntity
  8
SUNPOU
  6
CONTINUOUS
 62
     4
100
AcDbDimension
  2
*D3
 10
188.0138587748874
 20
138.0042507249643
 30
0.0
 11
198.0138602578734
 21
140.5042507249643
 31
0.0
 70
    32
  3
STANDARD
100
AcDbAlignedDimension
 13
208.0138617408594
 23
120.3345106074244
 33
0.0
 14
188.0138587748874
 24
103.9647071553765
 34
0.0
100
AcDbRotatedDimension
1001
ACAD
1000
DSTYLE
1002
{
1070
   140
1040
3.0
1070
    74
1070
     0
1070
   172
1070
     1
1070
    73
1070
     0
1070
   272
1070
     2
1070
    77
1070
     3
1070
   173
1070
     1
1070
   147
1040
1.0
1070
    42
1040
3.0
1070
    44
1040
1.5
1070
    43
1040
7.0
1070
   271
1070
     0
1070
   178
1070
     4
1070
   177
1070
     4
1070
   176
1070
     4
1070
   141
1040
150.0
1070
     7
1000
_OPEN
1070
     6
1000
_OPEN
1070
    41
1040
3.0
1002
}
  0
LINE
  5
3F9
330
1A
100
AcDbEntity
  8
CENTER_L
  6
CENTER
 62
     1
 48
5.0
100
AcDbLine
 10
145.5138587748874
 20
72.16480715537665
 30
0.0
 11
145.5138587748874
 21
56.96480715537665
 31
0.0
  0
LINE
  5
3FA
330
1A
100
AcDbEntity
  8
SEIHIN
  6
CONTINUOUS
 62
     3
 48
16.0
100
AcDbLine
 10
127.1761617408594
 20
102.3348106074245
 30
0.0
 11
145.5138617408595
 21
102.3347106074245
 31
0.0
  0
LINE
  5
3FB
330
1A
100
AcDbEntity
  8
SEIHIN
  6
CONTINUOUS
 62
     3
 48
16.0
100
AcDbLine
 10
123.8094617408595
 20
98.3348106074245
 30
0.0
 11
145.5138617408595
 21
98.33471060742454
 31
0.0
  0
LINE
  5
3FC
330
1A
100
AcDbEntity
  8
NOKITOI
  6
PHANTOM
 62
     8
 48
5.0
100
AcDbLine
 10
121.2138587748874
 20
63.96480715537665
 30
0.0
 11
145.5138587748874
 21
63.96480715537665
 31
0.0
  0
LINE
  5
3FD
330
1A
100
AcDbEntity
  8
NOKITOI
  6
PHANTOM
 62
     8
 48
5.0
100
AcDbLine
 10
145.5138587748874
 20
65.16480715537665
 30
0.0
 11
126.0138587748874
 21
65.16480715537665
 31
0.0
  0
LINE
  5
3FE
330
1A
100
AcDbEntity
  8
SEIHIN
  6
CONTINUOUS
 62
     3
 48
16.0
100
AcDbLine
 10
123.6093617408595
 20
106.5483106074244
 30
0.0
 11
124.3300617408595
 21
104.3861106074244
 31
0.0
  0
ARC
  5
3FF
330
1A
100
AcDbEntity
  8
SEIHIN
  6
CONTINUOUS
 62
     3
 48
16.0
100
AcDbCircle
 10
116.8515106332227
 20
103.2348474445434
 30
0.0
 40
2.999963163316432
100
AcDbArc
 50
18.4327647962193
 51
89.99902390405233
  0
LINE
  5
400
330
1A
100
AcDbEntity
  8
SEIHIN
  6
CONTINUOUS
 62
     3
 48
16.0
100
AcDbLine
 10
112.0138617408594
 20
106.2348106074245
 30
0.0
 11
112.0138617408594
 21
96.07761060742443
 31
0.0
  0
LINE
  5
401
330
1A
100
AcDbEntity
  8
SEIHIN
  6
CONTINUOUS
 62
     3
 48
16.0
100
AcDbLine
 10
111.5138617408595
 20
106.2348106074245
 30
0.0
 11
111.5138617408595
 21
96.07761060742443
 31
0.0
  0
LINE
  5
402
330
1A
100
AcDbEntity
  8
SEIHIN
  6
CONTINUOUS
 62
     3
 48
16.0
100
AcDbLine
 10
111.0138617408595
 20
106.2348106074245
 30
0.0
 11
111.0138617408595
 21
96.3742106074245
 31
0.0
  0
ARC
  5
403
330
1A
100
AcDbEntity
  8
SEIHIN
  6
CONTINUOUS
 62
     3
 48
16.0
100
AcDbCircle
 10
104.0138617408595
 20
105.2348106074245
 30
0.0
 40
1.0
100
AcDbArc
 50
90.0
 51
180.0
  0
ARC
  5
404
330
1A
100
AcDbEntity
  8
SEIHIN
  6
CONTINUOUS
 62
     3
 48
16.0
100
AcDbCircle
 10
104.013847042287
 20
105.2347800813214
 30
0.0
 40
1.59998530171863
100
AcDbArc
 50
128.5765029246842
 51
179.9989068544157
  0
LINE
  5
405
330
1A
100
AcDbEntity
  8
SEIHIN
  6
CONTINUOUS
 62
     3
 48
16.0
100
AcDbLine
 10
103.0138617408595
 20
97.23481060742454
 30
0.0
 11
103.0138617408595
 21
106.3348106074245
 31
0.0
  0
LINE
  5
406
330
1A
100
AcDbEntity
  8
NOKITOI
  6
PHANTOM
 62
     8
 48
5.0
100
AcDbLine
 10
107.9123587748873
 20
103.9648071553766
 30
0.0
 11
114.1464587748873
 21
73.41740715537657
 31
0.0
  0
LINE
  5
407
330
1A
100
AcDbEntity
  8
NOKITOI
  6
PHANTOM
 62
     8
 48
5.0
100
AcDbLine
 10
108.1139587748874
 20
96.96480715537665
 30
0.0
 11
113.1138587748874
 21
72.46480715537666
 31
0.0
  0
ARC
  5
408
330
1A
100
AcDbEntity
  8
NOKITOI
  6
PHANTOM
 62
     8
 48
5.0
100
AcDbCircle
 10
110.4295169879112
 20
61.79743115026564
 30
0.0
 40
12.19997945109428
100
AcDbArc
 50
48.00719042627341
 51
72.26181654227993
  0
ARC
  5
409
330
1A
100
AcDbEntity
  8
NOKITOI
  6
PHANTOM
 62
     8
 48
5.0
100
AcDbCircle
 10
110.4295546620173
 20
61.79741147134745
 30
0.0
 40
10.99994632941524
100
AcDbArc
 50
11.36374015671925
 51
75.87555169639184
  0
LINE
  5
40A
330
1A
100
AcDbEntity
  8
NOKITOI
  6
PHANTOM
 62
     8
 48
5.0
100
AcDbLine
 10
126.0138587748874
 20
65.16480715537665
 30
0.0
 11
126.0138587748874
 21
70.86480715537658
 31
0.0
  0
LINE
  5
40B
330
1A
100
AcDbEntity
  8
NOKITOI
  6
PHANTOM
 62
     8
 48
5.0
100
AcDbLine
 10
119.7538587748873
 20
69.6648071553766
 30
0.0
 11
124.8138587748872
 21
69.6648071553766
 31
0.0
  0
LINE
  5
40C
330
1A
100
AcDbEntity
  8
NOKITOI
  6
PHANTOM
 62
     8
 48
5.0
100
AcDbLine
 10
124.8138587748872
 20
65.16480715537665
 30
0.0
 11
122.1555587748873
 21
65.16480715537665
 31
0.0
  0
ARC
  5
40D
330
1A
100
AcDbEntity
  8
NOKITOI
  6
PHANTOM
 62
     8
 48
5.0
100
AcDbCircle
 10
110.4295544137619
 20
61.79741532668435
 30
0.0
 40
12.19993877054614
100
AcDbArc
 50
16.02263637925393
 51
40.15603560521631
  0
LINE
  5
40E
330
1A
100
AcDbEntity
  8
NOKITOI
  6
PHANTOM
 62
     8
 48
5.0
100
AcDbLine
 10
124.8138587748872
 20
65.16480715537665
 30
0.0
 11
124.8138587748872
 21
69.6648071553766
 31
0.0
  0
LINE
  5
40F
330
1A
100
AcDbEntity
  8
NOKITOI
  6
PHANTOM
 62
     8
 48
5.0
100
AcDbLine
 10
118.5917587748874
 20
70.86480715537658
 30
0.0
 11
126.0138587748874
 21
70.86480715537658
 31
0.0
  0
LINE
  5
410
330
1A
100
AcDbEntity
  8
SEIHIN
  6
CONTINUOUS
 62
     3
 48
16.0
100
AcDbLine
 10
112.4931617408595
 20
95.49661060742453
 30
0.0
 11
121.0457617408595
 21
100.1676106074245
 31
0.0
  0
LINE
  5
411
330
1A
100
AcDbEntity
  8
SEIHIN
  6
CONTINUOUS
 62
     3
 48
16.0
100
AcDbLine
 10
112.9931617408595
 20
95.19991060742448
 30
0.0
 11
121.2780617408595
 21
99.72471060742451
 31
0.0
  0
LINE
  5
412
330
1A
100
AcDbEntity
  8
NOKITOI
  6
PHANTOM
 62
     8
 48
5.0
100
AcDbLine
 10
103.0139587748873
 20
103.9648071553766
 30
0.0
 11
107.9123587748873
 21
103.9648071553766
 31
0.0
  0
LINE
  5
413
330
1A
100
AcDbEntity
  8
NOKITOI
  6
PHANTOM
 62
     8
 48
5.0
100
AcDbLine
 10
107.8689587748874
 20
98.16480715537664
 30
0.0
 11
104.2139587748873
 21
98.16480715537664
 31
0.0
  0
LINE
  5
414
330
1A
100
AcDbEntity
  8
SEIHIN
  6
CONTINUOUS
 62
     3
 48
16.0
100
AcDbLine
 10
107.8138617408594
 20
96.23481060742454
 30
0.0
 11
104.0138617408595
 21
96.23481060742454
 31
0.0
  0
LINE
  5
415
330
1A
100
AcDbEntity
  8
SEIHIN
  6
CONTINUOUS
 62
     3
 48
16.0
100
AcDbLine
 10
107.8138617408594
 20
95.63481060742452
 30
0.0
 11
104.0138617408595
 21
95.63481060742452
 31
0.0
  0
LINE
  5
416
330
1A
100
AcDbEntity
  8
NOKITOI
  6
PHANTOM
 62
     8
 48
5.0
100
AcDbLine
 10
106.9302587748873
 20
102.7648071553766
 30
0.0
 11
107.8689587748874
 21
98.16480715537664
 31
0.0
  0
LINE
  5
417
330
1A
100
AcDbEntity
  8
NOKITOI
  6
PHANTOM
 62
     8
 48
5.0
100
AcDbLine
 10
103.0138587748874
 20
96.96480715537665
 30
0.0
 11
108.1139587748874
 21
96.96480715537665
 31
0.0
  0
LINE
  5
418
330
1A
100
AcDbEntity
  8
NOKITOI
  6
PHANTOM
 62
     8
 48
5.0
100
AcDbLine
 10
104.2139587748873
 20
102.7648071553766
 30
0.0
 11
104.2139587748873
 21
98.16480715537664
 31
0.0
  0
LINE
  5
419
330
1A
100
AcDbEntity
  8
NOKITOI
  6
PHANTOM
 62
     8
 48
5.0
100
AcDbLine
 10
103.0138587748874
 20
96.96480715537665
 30
0.0
 11
103.0139587748873
 21
103.9648071553766
 31
0.0
  0
LINE
  5
41A
330
1A
100
AcDbEntity
  8
SEIHIN
  6
CONTINUOUS
 62
     3
 48
16.0
100
AcDbLine
 10
102.4138617408596
 20
97.23481060742454
 30
0.0
 11
102.4138617408596
 21
105.2348106074245
 31
0.0
  0
ARC
  5
41B
330
1A
100
AcDbEntity
  8
SEIHIN
  6
CONTINUOUS
 62
     3
 48
16.0
100
AcDbCircle
 10
104.0138617408595
 20
97.23481060742454
 30
0.0
 40
1.0
100
AcDbArc
 50
180.0
 51
270.0
  0
ARC
  5
41C
330
1A
100
AcDbEntity
  8
SEIHIN
  6
CONTINUOUS
 62
     3
 48
16.0
100
AcDbCircle
 10
104.0138617408595
 20
97.23481060742448
 30
0.0
 40
1.599999999999965
100
AcDbArc
 50
179.9999999999979
 51
269.9999999999979
  0
LINE
  5
41D
330
1A
100
AcDbEntity
  8
NOKITOI
  6
PHANTOM
 62
     8
 48
5.0
100
AcDbLine
 10
106.9302587748873
 20
102.7648071553766
 30
0.0
 11
104.2139587748873
 21
102.7648071553766
 31
0.0
  0
ARC
  5
41E
330
1A
100
AcDbEntity
  8
SEIHIN
  6
CONTINUOUS
 62
     3
 48
16.0
100
AcDbCircle
 10
112.5138824250037
 20
96.07759833354236
 30
0.0
 40
0.5000206842949451
100
AcDbArc
 50
179.9985935749023
 51
298.6291714612406
  0
ARC
  5
41F
330
1A
100
AcDbEntity
  8
SEIHIN
  6
CONTINUOUS
 62
     3
 48
16.0
100
AcDbCircle
 10
112.5138831853996
 20
96.07759788429381
 30
0.0
 40
1.000021444621075
100
AcDbArc
 50
179.9992710339463
 51
298.6376229809406
  0
ARC
  5
420
330
1A
100
AcDbEntity
  8
SEIHIN
  6
CONTINUOUS
 62
     3
 48
16.0
100
AcDbCircle
 10
112.0138658233428
 20
96.37420540213991
 30
0.0
 40
1.000004082496862
100
AcDbArc
 50
179.999701760377
 51
256.2135898631999
  0
LINE
  5
421
330
1A
100
AcDbEntity
  8
SEIHIN
  6
CONTINUOUS
 62
     3
 48
16.0
100
AcDbLine
 10
107.8138617408594
 20
96.23481060742454
 30
0.0
 11
107.8138617408594
 21
95.63481060742452
 31
0.0
  0
ARC
  5
422
330
1A
100
AcDbEntity
  8
SEIHIN
  6
CONTINUOUS
 62
     3
 48
16.0
100
AcDbCircle
 10
127.1761909131734
 20
105.3347895814437
 30
0.0
 40
2.999978974161096
100
AcDbArc
 50
198.4349956278715
 51
269.9994428459384
  0
ARC
  5
423
330
1A
100
AcDbEntity
  8
SEIHIN
  6
CONTINUOUS
 62
     3
 48
16.0
100
AcDbCircle
 10
123.8094251015766
 20
101.3348370155254
 30
0.0
 40
3.000026408324658
100
AcDbArc
 50
198.4356485755204
 51
270.0006997525986
  0
LINE
  5
424
330
1A
100
AcDbEntity
  8
SEIHIN
  6
CONTINUOUS
 62
     3
 48
16.0
100
AcDbLine
 10
119.6976617408595
 20
104.1834106074244
 30
0.0
 11
120.9633617408594
 21
100.3861106074244
 31
0.0
  0
LINE
  5
425
330
1A
100
AcDbEntity
  8
SEIHIN
  6
CONTINUOUS
 62
     3
 48
16.0
100
AcDbLine
 10
116.9685617408595
 20
111.3348106074244
 30
0.0
 11
108.0138617408595
 21
111.3348106074244
 31
0.0
  0
LINE
  5
426
330
1A
100
AcDbEntity
  8
SEIHIN
  6
CONTINUOUS
 62
     3
 48
16.0
100
AcDbLine
 10
104.0138617408595
 20
106.2348106074245
 30
0.0
 11
116.8515617408595
 21
106.2348106074245
 31
0.0
  0
ARC
  5
427
330
1A
100
AcDbEntity
  8
SEIHIN
  6
CONTINUOUS
 62
     3
 48
16.0
100
AcDbCircle
 10
108.0138617408595
 20
106.3348106074245
 30
0.0
 40
5.000000000000028
100
AcDbArc
 50
89.99999999999968
 51
179.9999999999996
  0
LINE
  5
428
330
1A
100
AcDbEntity
  8
SEIHIN
  6
CONTINUOUS
 62
     3
 48
16.0
100
AcDbLine
 10
112.0138617408594
 20
114.3348106074244
 30
0.0
 11
111.0138617408595
 21
114.3348106074244
 31
0.0
  0
LINE
  5
429
330
1A
100
AcDbEntity
  8
SEIHIN
  6
CONTINUOUS
 62
     3
 48
16.0
100
AcDbLine
 10
111.0138617408594
 20
111.3348106074245
 30
0.0
 11
111.0138617408594
 21
114.3348106074244
 31
0.0
  0
LINE
  5
42A
330
1A
100
AcDbEntity
  8
SEIHIN
  6
CONTINUOUS
 62
     3
 48
16.0
100
AcDbLine
 10
111.5138617408595
 20
111.3348106074245
 30
0.0
 11
111.5138617408595
 21
114.3348106074244
 31
0.0
  0
LINE
  5
42B
330
1A
100
AcDbEntity
  8
SEIHIN
  6
CONTINUOUS
 62
     3
 48
16.0
100
AcDbLine
 10
112.0138617408594
 20
111.3348106074245
 30
0.0
 11
112.0138617408595
 21
114.3348106074244
 31
0.0
  0
ARC
  5
42C
330
1A
100
AcDbEntity
  8
SEIHIN
  6
CONTINUOUS
 62
     3
 48
16.0
100
AcDbCircle
 10
116.9685082971612
 20
104.3348491272793
 30
0.0
 40
6.999961480349233
100
AcDbArc
 50
18.43477021668964
 51
89.99956255497123
  0
ARC
  5
42D
330
1A
100
AcDbEntity
  8
SEIHIN
  6
CONTINUOUS
 62
     3
 48
16.0
100
AcDbCircle
 10
187.0139617408595
 20
105.2346106074245
 30
0.0
 40
1.0
100
AcDbArc
 50
0.0
 51
90.0
  0
ARC
  5
42E
330
1A
100
AcDbEntity
  8
SEIHIN
  6
CONTINUOUS
 62
     3
 48
16.0
100
AcDbCircle
 10
187.0138452597792
 20
105.2346448375919
 30
0.0
 40
1.600016481446414
100
AcDbArc
 50
359.9987742350459
 51
51.41837873503466
  0
LINE
  5
42F
330
1A
100
AcDbEntity
  8
SEIHIN
  6
CONTINUOUS
 62
     3
 48
16.0
100
AcDbLine
 10
188.0138617408594
 20
97.23461060742453
 30
0.0
 11
188.0139617408595
 21
106.3346106074244
 31
0.0
  0
ARC
  5
430
330
1A
100
AcDbEntity
  8
SEIHIN
  6
CONTINUOUS
 62
     3
 48
16.0
100
AcDbCircle
 10
174.1761909131736
 20
103.2347316334051
 30
0.0
 40
2.999978974161185
100
AcDbArc
 50
90.00055715406373
 51
161.5650043721306
  0
LINE
  5
431
330
1A
100
AcDbEntity
  8
SEIHIN
  6
CONTINUOUS
 62
     3
 48
16.0
100
AcDbLine
 10
179.0139617408595
 20
106.2346106074245
 30
0.0
 11
179.0138617408594
 21
96.07741060742448
 31
0.0
  0
LINE
  5
432
330
1A
100
AcDbEntity
  8
SEIHIN
  6
CONTINUOUS
 62
     3
 48
16.0
100
AcDbLine
 10
179.5139617408595
 20
106.2346106074245
 30
0.0
 11
179.5138617408594
 21
96.07741060742448
 31
0.0
  0
LINE
  5
433
330
1A
100
AcDbEntity
  8
SEIHIN
  6
CONTINUOUS
 62
     3
 48
16.0
100
AcDbLine
 10
180.0139617408595
 20
106.2346106074245
 30
0.0
 11
180.0138617408594
 21
96.37401060742444
 31
0.0
  0
LINE
  5
434
330
1A
100
AcDbEntity
  8
SEIHIN
  6
CONTINUOUS
 62
     3
 48
16.0
100
AcDbLine
 10
167.4184617408595
 20
106.5483106074244
 30
0.0
 11
166.6976617408595
 21
104.3860106074244
 31
0.0
  0
ARC
  5
435
330
1A
100
AcDbEntity
  8
SEIHIN
  6
CONTINUOUS
 62
     3
 48
16.0
100
AcDbCircle
 10
158.5053978725794
 20
106.8347391179868
 30
0.0
 40
3.000028510779921
100
AcDbArc
 50
269.9993099415386
 51
346.5513409606533
  0
LINE
  5
436
330
1A
100
AcDbEntity
  8
SEIHIN
  6
CONTINUOUS
 62
     3
 48
16.0
100
AcDbLine
 10
169.4086617408595
 20
118.0323106074244
 30
0.0
 11
165.8336617408595
 21
103.0827106074245
 31
0.0
  0
LINE
  5
437
330
1A
100
AcDbEntity
  8
SEIHIN
  6
CONTINUOUS
 62
     3
 48
16.0
100
AcDbLine
 10
167.2182617408595
 20
98.33471060742454
 30
0.0
 11
145.5138617408595
 21
98.33471060742454
 31
0.0
  0
ARC
  5
438
330
1A
100
AcDbEntity
  8
SEIHIN
  6
CONTINUOUS
 62
     3
 48
16.0
100
AcDbCircle
 10
163.8516325685454
 20
105.3346895814438
 30
0.0
 40
2.999978974161223
100
AcDbArc
 50
270.0005571540616
 51
341.5650043721285
  0
LINE
  5
439
330
1A
100
AcDbEntity
  8
NOKITOI
  6
PHANTOM
 62
     8
 48
5.0
100
AcDbLine
 10
169.8138587748872
 20
63.96480715537665
 30
0.0
 11
145.5138587748874
 21
63.96480715537665
 31
0.0
  0
LINE
  5
43A
330
1A
100
AcDbEntity
  8
NOKITOI
  6
PHANTOM
 62
     8
 48
5.0
100
AcDbLine
 10
172.4359587748874
 20
70.86470715537666
 30
0.0
 11
165.0138587748874
 21
70.86480715537658
 31
0.0
  0
LINE
  5
43B
330
1A
100
AcDbEntity
  8
NOKITOI
  6
PHANTOM
 62
     8
 48
5.0
100
AcDbLine
 10
145.5138587748874
 20
65.16480715537665
 30
0.0
 11
165.0138587748874
 21
65.16480715537665
 31
0.0
  0
LINE
  5
43C
330
1A
100
AcDbEntity
  8
NOKITOI
  6
PHANTOM
 62
     8
 48
5.0
100
AcDbLine
 10
165.0138587748874
 20
65.16470715537656
 30
0.0
 11
165.0138587748874
 21
70.86480715537658
 31
0.0
  0
LINE
  5
43D
330
1A
100
AcDbEntity
  8
SEIHIN
  6
CONTINUOUS
 62
     3
 48
16.0
100
AcDbLine
 10
163.8515617408595
 20
102.3347106074245
 30
0.0
 11
145.5138617408595
 21
102.3347106074245
 31
0.0
  0
LINE
  5
43E
330
1A
100
AcDbEntity
  8
SEIHIN
  6
CONTINUOUS
 62
     3
 48
16.0
100
AcDbLine
 10
158.5053617408595
 20
103.8347106074245
 30
0.0
 11
138.0138617408594
 21
103.8348106074244
 31
0.0
  0
LINE
  5
43F
330
1A
100
AcDbEntity
  8
SEIHIN
  6
CONTINUOUS
 62
     3
 48
16.0
100
AcDbLine
 10
138.0138617408594
 20
103.8348106074244
 30
0.0
 11
138.0138617408594
 21
102.3347106074245
 31
0.0
  0
LINE
  5
440
330
1A
100
AcDbEntity
  8
NOKITOI
  6
PHANTOM
 62
     8
 48
5.0
100
AcDbLine
 10
183.1154587748874
 20
103.9647071553765
 30
0.0
 11
176.8812587748874
 21
73.41730715537664
 31
0.0
  0
LINE
  5
441
330
1A
100
AcDbEntity
  8
NOKITOI
  6
PHANTOM
 62
     8
 48
5.0
100
AcDbLine
 10
182.9138587748874
 20
96.9647071553765
 30
0.0
 11
177.9138587748874
 21
72.46480715537666
 31
0.0
  0
ARC
  5
442
330
1A
100
AcDbEntity
  8
NOKITOI
  6
PHANTOM
 62
     8
 48
5.0
100
AcDbCircle
 10
180.5981628877574
 20
61.79731147134736
 30
0.0
 40
10.99994632941526
100
AcDbArc
 50
104.1244483036074
 51
168.6362598432798
  0
LINE
  5
443
330
1A
100
AcDbEntity
  8
NOKITOI
  6
PHANTOM
 62
     8
 48
5.0
100
AcDbLine
 10
171.2738587748874
 20
69.6648071553766
 30
0.0
 11
166.2138587748874
 21
69.6648071553766
 31
0.0
  0
ARC
  5
444
330
1A
100
AcDbEntity
  8
NOKITOI
  6
PHANTOM
 62
     8
 48
5.0
100
AcDbCircle
 10
180.5982357585581
 20
61.79745139624196
 30
0.0
 40
12.19997101530972
100
AcDbArc
 50
139.8443138052131
 51
163.9780719705774
  0
LINE
  5
445
330
1A
100
AcDbEntity
  8
NOKITOI
  6
PHANTOM
 62
     8
 48
5.0
100
AcDbLine
 10
166.2138587748874
 20
65.16480715537665
 30
0.0
 11
168.8721587748874
 21
65.16480715537665
 31
0.0
  0
LINE
  5
446
330
1A
100
AcDbEntity
  8
NOKITOI
  6
PHANTOM
 62
     8
 48
5.0
100
AcDbLine
 10
166.2138587748874
 20
65.16480715537665
 30
0.0
 11
166.2138587748874
 21
69.6648071553766
 31
0.0
  0
ARC
  5
447
330
1A
100
AcDbEntity
  8
NOKITOI
  6
PHANTOM
 62
     8
 48
5.0
100
AcDbCircle
 10
180.5982005618636
 20
61.79733115026601
 30
0.0
 40
12.19997945109404
100
AcDbArc
 50
107.7381834577211
 51
131.9928095737274
  0
LINE
  5
448
330
1A
100
AcDbEntity
  8
SEIHIN
  6
CONTINUOUS
 62
     3
 48
16.0
100
AcDbLine
 10
178.5345617408595
 20
95.49651060742444
 30
0.0
 11
169.9819617408594
 21
100.1675106074244
 31
0.0
  0
LINE
  5
449
330
1A
100
AcDbEntity
  8
SEIHIN
  6
CONTINUOUS
 62
     3
 48
16.0
100
AcDbLine
 10
178.0345617408595
 20
95.19981060742445
 30
0.0
 11
169.7496617408595
 21
99.72461060742443
 31
0.0
  0
ARC
  5
44A
330
1A
100
AcDbEntity
  8
SEIHIN
  6
CONTINUOUS
 62
     3
 48
16.0
100
AcDbCircle
 10
167.2182983801423
 20
101.3347370155253
 30
0.0
 40
3.000026408324598
100
AcDbArc
 50
269.9993002474043
 51
341.5643514244822
  0
LINE
  5
44B
330
1A
100
AcDbEntity
  8
SEIHIN
  6
CONTINUOUS
 62
     3
 48
16.0
100
AcDbLine
 10
171.3301617408595
 20
104.1833106074244
 30
0.0
 11
170.0643617408595
 21
100.3859106074245
 31
0.0
  0
ARC
  5
44C
330
1A
100
AcDbEntity
  8
SEIHIN
  6
CONTINUOUS
 62
     3
 48
16.0
100
AcDbCircle
 10
178.5138609758606
 20
96.07741015361778
 30
0.0
 40
0.5000007649989659
100
AcDbArc
 50
241.3539253752825
 51
0.0000520023369477
  0
ARC
  5
44D
330
1A
100
AcDbEntity
  8
SEIHIN
  6
CONTINUOUS
 62
     3
 48
16.0
100
AcDbCircle
 10
178.5138602108617
 20
96.07740969981113
 30
0.0
 40
1.000001529998031
100
AcDbArc
 50
241.353925375281
 51
0.0000520023375584
  0
ARC
  5
44E
330
1A
100
AcDbEntity
  8
SEIHIN
  6
CONTINUOUS
 62
     3
 48
16.0
100
AcDbCircle
 10
179.0138695709207
 20
96.37402058998139
 30
0.0
 40
0.9999921699885041
100
AcDbArc
 50
283.7799753264952
 51
359.99942803714
  0
LINE
  5
44F
330
1A
100
AcDbEntity
  8
NOKITOI
  6
PHANTOM
 62
     8
 48
5.0
100
AcDbLine
 10
186.8138587748872
 20
102.7647071553765
 30
0.0
 11
186.8138587748872
 21
98.16470715537661
 31
0.0
  0
LINE
  5
450
330
1A
100
AcDbEntity
  8
NOKITOI
  6
PHANTOM
 62
     8
 48
5.0
100
AcDbLine
 10
188.0138587748874
 20
96.9647071553765
 30
0.0
 11
188.0138587748874
 21
103.9647071553765
 31
0.0
  0
LINE
  5
451
330
1A
100
AcDbEntity
  8
NOKITOI
  6
PHANTOM
 62
     8
 48
5.0
100
AcDbLine
 10
184.0975587748873
 20
102.7647071553765
 30
0.0
 11
183.1587587748874
 21
98.16470715537661
 31
0.0
  0
LINE
  5
452
330
1A
100
AcDbEntity
  8
SEIHIN
  6
CONTINUOUS
 62
     3
 48
16.0
100
AcDbLine
 10
188.6138617408595
 20
97.23461060742453
 30
0.0
 11
188.6138617408595
 21
105.2346106074245
 31
0.0
  0
LINE
  5
453
330
1A
100
AcDbEntity
  8
NOKITOI
  6
PHANTOM
 62
     8
 48
5.0
100
AcDbLine
 10
188.0138587748874
 20
96.9647071553765
 30
0.0
 11
182.9138587748874
 21
96.9647071553765
 31
0.0
  0
LINE
  5
454
330
1A
100
AcDbEntity
  8
NOKITOI
  6
PHANTOM
 62
     8
 48
5.0
100
AcDbLine
 10
183.1587587748874
 20
98.16470715537661
 30
0.0
 11
186.8138587748872
 21
98.16470715537661
 31
0.0
  0
LINE
  5
455
330
1A
100
AcDbEntity
  8
SEIHIN
  6
CONTINUOUS
 62
     3
 48
16.0
100
AcDbLine
 10
183.2138617408595
 20
96.23461060742442
 30
0.0
 11
187.0138617408595
 21
96.23461060742442
 31
0.0
  0
LINE
  5
456
330
1A
100
AcDbEntity
  8
SEIHIN
  6
CONTINUOUS
 62
     3
 48
16.0
100
AcDbLine
 10
183.2138617408595
 20
95.63461060742451
 30
0.0
 11
187.0138617408595
 21
95.63461060742451
 31
0.0
  0
LINE
  5
457
330
1A
100
AcDbEntity
  8
SEIHIN
  6
CONTINUOUS
 62
     3
 48
16.0
100
AcDbLine
 10
183.2138617408595
 20
96.23461060742442
 30
0.0
 11
183.2138617408595
 21
95.63461060742451
 31
0.0
  0
ARC
  5
458
330
1A
100
AcDbEntity
  8
SEIHIN
  6
CONTINUOUS
 62
     3
 48
16.0
100
AcDbCircle
 10
187.0138617408595
 20
97.23461060742453
 30
0.0
 40
1.600000000000008
100
AcDbArc
 50
269.9999999999994
 51
359.9999999999994
  0
ARC
  5
459
330
1A
100
AcDbEntity
  8
SEIHIN
  6
CONTINUOUS
 62
     3
 48
16.0
100
AcDbCircle
 10
187.0138617408594
 20
97.23461060742442
 30
0.0
 40
0.9999999999999857
100
AcDbArc
 50
270.0000000000057
 51
0.0000000000056996
  0
LINE
  5
45A
330
1A
100
AcDbEntity
  8
NOKITOI
  6
PHANTOM
 62
     8
 48
5.0
100
AcDbLine
 10
184.0975587748873
 20
102.7647071553765
 30
0.0
 11
186.8138587748872
 21
102.7647071553765
 31
0.0
  0
LINE
  5
45B
330
1A
100
AcDbEntity
  8
NOKITOI
  6
PHANTOM
 62
     8
 48
5.0
100
AcDbLine
 10
188.0138587748874
 20
103.9647071553765
 30
0.0
 11
183.1154587748874
 21
103.9647071553765
 31
0.0
  0
ARC
  5
45C
330
1A
100
AcDbEntity
  8
SEIHIN
  6
CONTINUOUS
 62
     3
 48
16.0
100
AcDbCircle
 10
169.9591680615623
 20
120.3346155949294
 30
0.0
 40
4.99999501249899
100
AcDbArc
 50
90.00007242999082
 51
166.5522084513844
  0
LINE
  5
45D
330
1A
100
AcDbEntity
  8
SEIHIN
  6
CONTINUOUS
 62
     3
 48
16.0
100
AcDbLine
 10
165.0963617408595
 20
121.4975106074245
 30
0.0
 11
161.4231617408595
 21
106.1369106074244
 31
0.0
  0
LINE
  5
45E
330
1A
100
AcDbEntity
  8
SEIHIN
  6
CONTINUOUS
 62
     3
 48
16.0
100
AcDbLine
 10
174.0592617408595
 20
111.3347106074244
 30
0.0
 11
183.0139617408595
 21
111.3346106074244
 31
0.0
  0
LINE
  5
45F
330
1A
100
AcDbEntity
  8
SEIHIN
  6
CONTINUOUS
 62
     3
 48
16.0
100
AcDbLine
 10
187.0139617408595
 20
106.2346106074245
 30
0.0
 11
174.1761617408595
 21
106.2346106074245
 31
0.0
  0
ARC
  5
460
330
1A
100
AcDbEntity
  8
SEIHIN
  6
CONTINUOUS
 62
     3
 48
16.0
100
AcDbCircle
 10
174.0592151845577
 20
104.3346491272794
 30
0.0
 40
6.999961480349099
100
AcDbArc
 50
90.00043744502926
 51
161.5652297833106
  0
LINE
  5
461
330
1A
100
AcDbEntity
  8
SEIHIN
  6
CONTINUOUS
 62
     3
 48
16.0
100
AcDbLine
 10
179.0138918392658
 20
113.3346552776095
 30
0.0
 11
180.0138897367876
 21
113.3346441103131
 31
0.0
  0
LINE
  5
462
330
1A
100
AcDbEntity
  8
SEIHIN
  6
CONTINUOUS
 62
     3
 48
16.0
100
AcDbLine
 10
180.0139100195291
 20
111.3346441099618
 30
0.0
 11
180.0138897367876
 21
113.3346441103131
 31
0.0
  0
LINE
  5
463
330
1A
100
AcDbEntity
  8
SEIHIN
  6
CONTINUOUS
 62
     3
 48
16.0
100
AcDbLine
 10
179.5139115297866
 20
111.3346496936049
 30
0.0
 11
179.5138918393207
 21
113.3346496939496
 31
0.0
  0
LINE
  5
464
330
1A
100
AcDbEntity
  8
SEIHIN
  6
CONTINUOUS
 62
     3
 48
16.0
100
AcDbLine
 10
179.0139115297317
 20
111.3346552772649
 30
0.0
 11
179.0138918392658
 21
113.3346552776095
 31
0.0
  0
ARC
  5
465
330
1A
100
AcDbEntity
  8
SEIHIN
  6
CONTINUOUS
 62
     3
 48
16.0
100
AcDbCircle
 10
172.3263872373981
 20
117.3346307258927
 30
0.0
 40
2.999979881640051
100
AcDbArc
 50
90.00048695128514
 51
166.5520738032693
  0
ARC
  5
466
330
1A
100
AcDbEntity
  8
SEIHIN
  6
CONTINUOUS
 62
     3
 48
16.0
100
AcDbCircle
 10
183.0139617408595
 20
106.3346106074245
 30
0.0
 40
5.000000000000042
100
AcDbArc
 50
359.9999999999994
 51
89.99999999999952
  0
LINE
  5
467
330
1A
100
AcDbEntity
  8
SEIHIN
  6
CONTINUOUS
 62
     3
 48
16.0
100
AcDbLine
 10
188.6139617408593
 20
202.7845094197773
 30
0.0
 11
103.4138617408596
 21
202.7846106074245
 31
0.0
  0
LINE
  5
468
330
1A
100
AcDbEntity
  8
SEIHIN
  6
CONTINUOUS
 62
     3
 48
16.0
100
AcDbLine
 10
188.6139617408593
 20
217.8846106074244
 30
0.0
 11
103.4138617408596
 21
217.8846106074244
 31
0.0
  0
LINE
  5
469
330
1A
100
AcDbEntity
  8
SEIHIN
  6
CONTINUOUS
 62
     3
 48
16.0
100
AcDbLine
 10
138.0139617408595
 20
206.2846106074245
 30
0.0
 11
123.0138617408594
 21
206.2846106074245
 31
0.0
  0
LINE
  5
46A
330
1A
100
AcDbEntity
  8
SEIHIN
  6
CONTINUOUS
 62
     3
 48
16.0
100
AcDbLine
 10
138.0139617408595
 20
208.2846106074245
 30
0.0
 11
129.0138617408594
 21
208.2846106074245
 31
0.0
  0
LINE
  5
46B
330
1A
100
AcDbEntity
  8
SEIHIN
  6
CONTINUOUS
 62
     3
 48
16.0
100
AcDbLine
 10
138.0140617408595
 20
214.3846106074243
 30
0.0
 11
123.0138617408594
 21
214.3846106074243
 31
0.0
  0
LINE
  5
46C
330
1A
100
AcDbEntity
  8
SEIHIN
  6
CONTINUOUS
 62
     3
 48
16.0
100
AcDbLine
 10
138.0140617408595
 20
212.3846106074243
 30
0.0
 11
129.0138617408594
 21
212.3846106074243
 31
0.0
  0
DIMENSION
  5
46D
330
1A
100
AcDbEntity
  8
SUNPOU
  6
CONTINUOUS
 62
     4
100
AcDbDimension
  2
*D4
 10
86.97925889094776
 20
202.7846106074245
 30
0.0
 11
84.47925889094774
 21
210.3346106074245
 31
0.0
 70
    32
  3
STANDARD
100
AcDbAlignedDimension
 13
103.4138617408595
 23
217.8846106074244
 33
0.0
 14
103.4138617408595
 24
202.7846106074245
 34
0.0
 50
90.0
100
AcDbRotatedDimension
1001
ACAD
1000
DSTYLE
1002
{
1070
   140
1040
3.0
1070
    74
1070
     0
1070
   172
1070
     1
1070
    73
1070
     0
1070
   272
1070
     2
1070
    77
1070
     3
1070
   173
1070
     1
1070
   147
1040
1.0
1070
    42
1040
3.0
1070
    44
1040
1.5
1070
    43
1040
7.0
1070
   271
1070
     0
1070
   178
1070
     4
1070
   177
1070
     4
1070
   176
1070
     4
1070
   141
1040
150.0
1070
     7
1000
_OPEN
1070
     6
1000
_OPEN
1070
    41
1040
3.0
1002
}
  0
LINE
  5
46E
330
1A
100
AcDbEntity
  8
SEIHIN
  6
CONTINUOUS
 62
     3
 48
16.0
100
AcDbLine
 10
114.0138617408595
 20
206.2845106074245
 30
0.0
 11
114.0138617408595
 21
214.3846106074243
 31
0.0
  0
LINE
  5
46F
330
1A
100
AcDbEntity
  8
SEIHIN
  6
CONTINUOUS
 62
     3
 48
16.0
100
AcDbLine
 10
109.0138617408595
 20
206.2845106074245
 30
0.0
 11
109.0138617408594
 21
214.3847106074245
 31
0.0
  0
LINE
  5
470
330
1A
100
AcDbEntity
  8
SEIHIN
  6
CONTINUOUS
 62
     3
 48
16.0
100
AcDbLine
 10
102.4138617408596
 20
203.7846106074245
 30
0.0
 11
102.4140617408595
 21
216.8846106074245
 31
0.0
  0
ARC
  5
471
330
1A
100
AcDbEntity
  8
SEIHIN
100
AcDbCircle
 10
120.5663617406079
 20
210.3346106074244
 30
0.0
 40
9.5524999997616
100
AcDbArc
 50
161.3801196495462
 51
198.6198803504537
  0
ARC
  5
472
330
1A
100
AcDbEntity
  8
SEIHIN
100
AcDbCircle
 10
121.0663617406079
 20
210.3346106074244
 30
0.0
 40
9.5524999997616
100
AcDbArc
 50
161.3801196495462
 51
198.6198803504537
  0
LINE
  5
473
330
1A
100
AcDbEntity
  8
SEIHIN
  6
CONTINUOUS
 62
     3
 48
16.0
100
AcDbLine
 10
103.4138617408596
 20
202.7845106074244
 30
0.0
 11
103.4138617408596
 21
203.7845106074243
 31
0.0
  0
LINE
  5
474
330
1A
100
AcDbEntity
  8
SEIHIN
  6
CONTINUOUS
 62
     3
 48
16.0
100
AcDbLine
 10
102.4139617408595
 20
208.2846106074245
 30
0.0
 11
104.9139617408595
 21
206.7846106074245
 31
0.0
  0
LINE
  5
475
330
1A
100
AcDbEntity
  8
SEIHIN
  6
CONTINUOUS
 62
     3
 48
16.0
100
AcDbLine
 10
104.9139617408595
 20
206.7846106074245
 30
0.0
 11
102.4139617408595
 21
205.2846106074245
 31
0.0
  0
LINE
  5
476
330
1A
100
AcDbEntity
  8
SEIHIN
100
AcDbLine
 10
104.9139617408595
 20
206.7846106074245
 30
0.0
 11
102.4139075423862
 21
206.7846106074245
 31
0.0
  0
LINE
  5
477
330
1A
100
AcDbEntity
  8
SEIHIN
  6
CONTINUOUS
 62
     3
 48
16.0
100
AcDbLine
 10
114.0138617408595
 20
206.2846106074245
 30
0.0
 11
109.0138617408595
 21
206.2846106074245
 31
0.0
  0
LINE
  5
478
330
1A
100
AcDbEntity
  8
SEIHIN
  6
CONTINUOUS
 62
     3
 48
16.0
100
AcDbLine
 10
114.0138617408595
 20
207.2846106074245
 30
0.0
 11
111.5138617408595
 21
207.2846106074245
 31
0.0
  0
LINE
  5
479
330
1A
100
AcDbEntity
  8
SEIHIN
  6
CONTINUOUS
 62
     3
 48
16.0
100
AcDbLine
 10
102.4139617408595
 20
212.3846106074243
 30
0.0
 11
104.9139617408595
 21
213.8846106074244
 31
0.0
  0
LINE
  5
47A
330
1A
100
AcDbEntity
  8
SEIHIN
  6
CONTINUOUS
 62
     3
 48
16.0
100
AcDbLine
 10
104.9139617408595
 20
213.8846106074244
 30
0.0
 11
102.4139617408595
 21
215.3846106074244
 31
0.0
  0
LINE
  5
47B
330
1A
100
AcDbEntity
  8
SEIHIN
100
AcDbLine
 10
104.9139617408595
 20
213.8846106074244
 30
0.0
 11
102.4140159393328
 21
213.8846106074243
 31
0.0
  0
LINE
  5
47C
330
1A
100
AcDbEntity
  8
SEIHIN
  6
CONTINUOUS
 62
     3
 48
16.0
100
AcDbLine
 10
103.4138617408596
 20
217.8848106074245
 30
0.0
 11
103.4138617408596
 21
216.8848106074244
 31
0.0
  0
LINE
  5
47D
330
1A
100
AcDbEntity
  8
SEIHIN
  6
CONTINUOUS
 62
     3
 48
16.0
100
AcDbLine
 10
114.0138617408595
 20
214.3846106074243
 30
0.0
 11
109.0138617408595
 21
214.3847106074245
 31
0.0
  0
LINE
  5
47E
330
1A
100
AcDbEntity
  8
SEIHIN
  6
CONTINUOUS
 62
     3
 48
16.0
100
AcDbLine
 10
114.0138617408595
 20
213.3846106074244
 30
0.0
 11
111.5138617408595
 21
213.3846106074244
 31
0.0
  0
LINE
  5
47F
330
1A
100
AcDbEntity
  8
SEIHIN
  6
CONTINUOUS
 62
     3
 48
16.0
100
AcDbLine
 10
123.0138617408594
 20
214.3846106074243
 30
0.0
 11
123.0138617408594
 21
206.2845106074245
 31
0.0
  0
LINE
  5
480
330
1A
100
AcDbEntity
  8
SEIHIN
  6
CONTINUOUS
 62
     3
 48
16.0
100
AcDbLine
 10
129.0138617408594
 20
206.2845106074245
 30
0.0
 11
129.0138617408594
 21
213.3846106074244
 31
0.0
  0
LINE
  5
481
330
1A
100
AcDbEntity
  8
SEIHIN
100
AcDbLine
 10
121.6470890734495
 20
204.7845882952124
 30
0.0
 11
121.6470890734495
 21
215.8846106074245
 31
0.0
  0
LINE
  5
482
330
1A
100
AcDbEntity
  8
SEIHIN
100
AcDbLine
 10
119.0138977559229
 20
204.7845913499588
 30
0.0
 11
119.0138977559229
 21
215.8846106074245
 31
0.0
  0
LINE
  5
483
330
1A
100
AcDbEntity
  8
SEIHIN
  6
CONTINUOUS
 62
     3
 48
16.0
100
AcDbLine
 10
129.0138617408594
 20
207.2846106074245
 30
0.0
 11
123.0138617408594
 21
207.2846106074245
 31
0.0
  0
LINE
  5
484
330
1A
100
AcDbEntity
  8
SEIHIN
100
AcDbLine
 10
122.0139355314431
 20
202.7845885171018
 30
0.0
 11
122.0139355314431
 21
203.7845878696358
 31
0.0
  0
LINE
  5
485
330
1A
100
AcDbEntity
  8
SEIHIN
100
AcDbLine
 10
125.0137928534095
 20
202.7845849543301
 30
0.0
 11
125.0137928534095
 21
203.784584389523
 31
0.0
  0
LINE
  5
486
330
1A
100
AcDbEntity
  8
SEIHIN
  6
CONTINUOUS
 62
     3
 48
16.0
100
AcDbLine
 10
129.0138617408594
 20
213.3846106074244
 30
0.0
 11
123.0138617408594
 21
213.3846106074244
 31
0.0
  0
LINE
  5
487
330
1A
100
AcDbEntity
  8
SEIHIN
100
AcDbLine
 10
122.0139355314431
 20
216.8846106074245
 30
0.0
 11
122.0139355314431
 21
217.8846106074244
 31
0.0
  0
LINE
  5
488
330
1A
100
AcDbEntity
  8
SEIHIN
100
AcDbLine
 10
125.0137928534095
 20
216.8846106074245
 30
0.0
 11
125.0137928534095
 21
217.8846106074244
 31
0.0
  0
LINE
  5
489
330
1A
100
AcDbEntity
  8
SEIHIN
  6
CONTINUOUS
 62
     3
 48
16.0
100
AcDbLine
 10
153.0139617408595
 20
213.3846106074244
 30
0.0
 11
138.0139617408595
 21
213.3846106074244
 31
0.0
  0
LINE
  5
48A
330
1A
100
AcDbEntity
  8
SEIHIN
  6
CONTINUOUS
 62
     3
 48
16.0
100
AcDbLine
 10
153.0139617408595
 20
211.3846106074244
 30
0.0
 11
138.0139617408595
 21
211.3846106074244
 31
0.0
  0
LINE
  5
48B
330
1A
100
AcDbEntity
  8
SEIHIN
  6
CONTINUOUS
 62
     3
 48
16.0
100
AcDbLine
 10
153.0139617408595
 20
209.2845106074244
 30
0.0
 11
138.0139617408595
 21
209.2846106074245
 31
0.0
  0
LINE
  5
48C
330
1A
100
AcDbEntity
  8
SEIHIN
  6
CONTINUOUS
 62
     3
 48
16.0
100
AcDbLine
 10
153.0139617408595
 20
207.2845106074244
 30
0.0
 11
138.0139617408595
 21
207.2846106074245
 31
0.0
  0
LINE
  5
48D
330
1A
100
AcDbEntity
  8
SEIHIN
  6
CONTINUOUS
 62
     3
 48
16.0
100
AcDbLine
 10
138.0139617408595
 20
203.7845693081205
 30
0.0
 11
138.0139617408595
 21
216.8846106074245
 31
0.0
  0
ARC
  5
48E
330
1A
100
AcDbEntity
  8
SEIHIN
  6
CONTINUOUS
 62
     3
 48
16.0
100
AcDbCircle
 10
153.0139826926107
 20
211.2845231073462
 30
0.0
 40
2.000012500031608
100
AcDbArc
 50
269.9993997802945
 51
331.6404363341647
  0
ARC
  5
48F
330
1A
100
AcDbEntity
  8
SEIHIN
  6
CONTINUOUS
 62
     3
 48
16.0
100
AcDbCircle
 10
153.0139307079284
 20
211.284486247901
 30
0.0
 40
3.999975640597015
100
AcDbArc
 50
270.0004445167018
 51
346.2612387191818
  0
LINE
  5
490
330
1A
100
AcDbEntity
  8
SEIHIN
100
AcDbLine
 10
160.8726309364352
 20
204.7845427899434
 30
0.0
 11
160.8726309364352
 21
215.8846106074245
 31
0.0
  0
ARC
  5
491
330
1A
100
AcDbEntity
  8
SEIHIN
  6
CONTINUOUS
 62
     3
 48
16.0
100
AcDbCircle
 10
153.0139155814365
 20
209.3846468415026
 30
0.0
 40
3.999963766188102
100
AcDbArc
 50
13.73715317214901
 51
89.99933880898005
  0
ARC
  5
492
330
1A
100
AcDbEntity
  8
SEIHIN
  6
CONTINUOUS
 62
     3
 48
16.0
100
AcDbCircle
 10
153.0139428870975
 20
209.3846218562376
 30
0.0
 40
1.999988751275602
100
AcDbArc
 50
28.35590231145058
 51
89.99945987646563
  0
LINE
  5
493
330
1A
100
AcDbEntity
  8
SEIHIN
100
AcDbLine
 10
166.0139364826884
 20
204.7845368255518
 30
0.0
 11
166.0139364826884
 21
215.8846106074245
 31
0.0
  0
LINE
  5
494
330
1A
100
AcDbEntity
  8
SEIHIN
100
AcDbLine
 10
166.0138634520004
 20
202.7845362607173
 30
0.0
 11
166.0138634520004
 21
203.7845368256359
 31
0.0
  0
LINE
  5
495
330
1A
100
AcDbEntity
  8
SEIHIN
100
AcDbLine
 10
169.0140209746302
 20
202.7845326975891
 30
0.0
 11
169.0140209746302
 21
203.7845333451747
 31
0.0
  0
LINE
  5
496
330
1A
100
AcDbEntity
  8
SEIHIN
100
AcDbLine
 10
169.0140209746302
 20
216.8846106074245
 30
0.0
 11
169.0140209746302
 21
217.8846106074244
 31
0.0
  0
LINE
  5
497
330
1A
100
AcDbEntity
  8
SEIHIN
100
AcDbLine
 10
166.0138634520004
 20
216.8846106074245
 30
0.0
 11
166.0138634520004
 21
217.8846106074244
 31
0.0
  0
LINE
  5
498
330
1A
100
AcDbEntity
  8
SEIHIN
  6
CONTINUOUS
 62
     3
 48
16.0
100
AcDbLine
 10
188.6139617408594
 20
202.7845094197773
 30
0.0
 11
188.6139617408594
 21
203.7844949407577
 31
0.0
  0
LINE
  5
499
330
1A
100
AcDbEntity
  8
SEIHIN
  6
CONTINUOUS
 62
     3
 48
16.0
100
AcDbLine
 10
188.6139617408594
 20
217.8846106074244
 30
0.0
 11
188.6139617408594
 21
216.8846949407577
 31
0.0
  0
LINE
  5
49A
330
1A
100
AcDbEntity
  8
SEIHIN
  6
CONTINUOUS
 62
     3
 48
16.0
100
AcDbLine
 10
332.0138617408596
 20
118.3345106074244
 30
0.0
 11
309.0138617408593
 21
118.3345106074244
 31
0.0
  0
ARC
  5
49B
330
1A
100
AcDbEntity
  8
SEIHIN
  6
CONTINUOUS
 62
     3
 48
16.0
100
AcDbCircle
 10
328.0138617408596
 20
112.3345106074244
 30
0.0
 40
1.75
100
AcDbArc
 50
0.0
 51
180.0
  0
ARC
  5
49C
330
1A
100
AcDbEntity
  8
SEIHIN
  6
CONTINUOUS
 62
     3
 48
16.0
100
AcDbCircle
 10
328.0138617408596
 20
112.3345106074244
 30
0.0
 40
1.75
100
AcDbArc
 50
180.0
 51
0.0
  0
LINE
  5
49D
330
1A
100
AcDbEntity
  8
CENTER_L
  6
CENTER
 62
     1
 48
5.0
100
AcDbLine
 10
331.8335617408596
 20
112.3345106074244
 30
0.0
 11
321.5351617408594
 21
112.3345106074244
 31
0.0
  0
LINE
  5
49E
330
1A
100
AcDbEntity
  8
SEIHIN
  6
CONTINUOUS
 62
     3
 48
16.0
100
AcDbLine
 10
332.0138617408596
 20
106.3345106074244
 30
0.0
 11
309.0138617408593
 21
106.3345106074244
 31
0.0
  0
DIMENSION
  5
49F
330
1A
100
AcDbEntity
  8
SUNPOU
  6
CONTINUOUS
 62
     4
100
AcDbDimension
  2
*D5
 10
273.0138617408595
 20
147.2735589060778
 30
0.0
 11
303.0138617408594
 21
149.7735589060778
 31
0.0
 70
    32
  3
STANDARD
100
AcDbAlignedDimension
 13
333.0138617408593
 23
118.3345106074244
 33
0.0
 14
273.0138617408595
 24
118.3345106074244
 34
0.0
100
AcDbRotatedDimension
1001
ACAD
1000
DSTYLE
1002
{
1070
   140
1040
3.0
1070
    74
1070
     0
1070
   172
1070
     1
1070
    73
1070
     0
1070
   272
1070
     2
1070
    77
1070
     3
1070
   173
1070
     1
1070
   147
1040
1.0
1070
    42
1040
3.0
1070
    44
1040
1.5
1070
    43
1040
7.0
1070
   271
1070
     0
1070
   178
1070
     4
1070
   177
1070
     4
1070
   176
1070
     4
1070
   141
1040
150.0
1070
     7
1000
_OPEN
1070
     6
1000
_OPEN
1070
    41
1040
3.0
1002
}
  0
MTEXT
  5
4A0
330
1A
100
AcDbEntity
  8
SUNPOU
  6
CONTINUOUS
 62
     4
100
AcDbMText
 10
263.8870066532389
 20
136.1807189921585
 30
0.0
 40
3.0
 41
0.0
 71
     9
 72
     5
  1
3-φ3.5
1001
ACAD
1000
MTEXTBEGIN
1070
    73
1070
     1
1070
    44
1040
1.0
1070
    74
1070
     0
1000
MTEXTEND
1000
MTEXTBEGIN
1070
    73
1070
     1
1070
    44
1040
1.0
1070
    74
1070
     0
1000
MTEXTEND
1000
MTEXTBEGIN
1070
    73
1070
     1
1070
    44
1040
1.0
1070
    74
1070
     0
1000
MTEXTEND
  0
DIMENSION
  5
4A1
330
1A
100
AcDbEntity
  8
SUNPOU
  6
CONTINUOUS
 62
     4
100
AcDbDimension
  2
*D6
 10
257.7371486268629
 20
112.3345106074244
 30
0.0
 11
255.2371486268629
 21
118.8345106074245
 31
0.0
 70
    32
  3
STANDARD
100
AcDbAlignedDimension
 13
297.0138617408593
 23
125.3345106074245
 33
0.0
 14
273.0138617408595
 24
112.3345106074244
 34
0.0
 50
90.0
100
AcDbRotatedDimension
1001
ACAD
1000
DSTYLE
1002
{
1070
   140
1040
3.0
1070
    74
1070
     0
1070
   172
1070
     1
1070
    73
1070
     0
1070
   272
1070
     2
1070
    77
1070
     3
1070
   173
1070
     1
1070
   147
1040
1.0
1070
    42
1040
3.0
1070
    44
1040
1.5
1070
    43
1040
7.0
1070
   271
1070
     0
1070
   178
1070
     4
1070
   177
1070
     4
1070
   176
1070
     4
1070
   141
1040
150.0
1070
     7
1000
_OPEN
1070
     6
1000
_OPEN
1070
    41
1040
3.0
1002
}
  0
DIMENSION
  5
4A2
330
1A
100
AcDbEntity
  8
SUNPOU
  6
CONTINUOUS
 62
     4
100
AcDbDimension
  2
*D7
 10
247.7579491816437
 20
80.33451060742455
 30
0.0
 11
245.2579491816437
 21
102.8345106074245
 31
0.0
 70
    32
  3
STANDARD
100
AcDbAlignedDimension
 13
297.0138617408593
 23
125.3345106074245
 33
0.0
 14
297.0138617408593
 24
80.33451060742454
 34
0.0
 50
90.0
100
AcDbRotatedDimension
1001
ACAD
1000
DSTYLE
1002
{
1070
   140
1040
3.0
1070
    74
1070
     0
1070
   172
1070
     1
1070
    73
1070
     0
1070
   272
1070
     2
1070
    77
1070
     3
1070
   173
1070
     1
1070
   147
1040
1.0
1070
    42
1040
3.0
1070
    44
1040
1.5
1070
    43
1040
7.0
1070
   271
1070
     0
1070
   178
1070
     4
1070
   177
1070
     4
1070
   176
1070
     4
1070
   141
1040
150.0
1070
     7
1000
_OPEN
1070
     6
1000
_OPEN
1070
    41
1040
3.0
1002
}
  0
LEADER
  5
4A3
330
1A
100
AcDbEntity
  8
SUNPOU
  6
CONTINUOUS
 62
     4
100
AcDbLeader
  3
STANDARD
 73
     0
 40
3.0
 41
15.59999999999999
 76
     3
 10
276.9634127619236
 20
113.7341737607054
 30
0.0
 10
267.8687367938345
 20
135.1807189921585
 30
0.0
 10
264.8870066532389
 20
135.1807189921585
 30
0.0
1001
ACAD
1000
DSTYLE
1002
{
1070
     6
1000
OPEN
1070
    41
1040
3.0
1070
    42
1040
3.0
1070
    43
1040
7.0
1070
    44
1040
1.5
1070
    73
1070
     0
1070
    74
1070
     0
1070
    77
1070
     3
1070
   140
1040
3.0
1070
   141
1040
150.0
1070
   147
1040
1.0
1070
   172
1070
     1
1070
   173
1070
     1
1070
   176
1070
     4
1070
   177
1070
     4
1070
   178
1070
     4
1070
   271
1070
     0
1070
   272
1070
     2
1070
   341
1005
B2
1070
   343
1005
B2
1070
   344
1005
B2
1002
}
  0
LINE
  5
4A4
330
1A
100
AcDbEntity
  8
SEIHIN
  6
CONTINUOUS
 62
     3
 48
16.0
100
AcDbLine
 10
202.3841617408595
 20
106.3345106074244
 30
0.0
 11
202.3841617408595
 21
97.28179290781191
 31
0.0
  0
LINE
  5
4A5
330
1A
100
AcDbEntity
  8
SEIHIN
  6
CONTINUOUS
 62
     3
 48
16.0
100
AcDbLine
 10
208.0138617408594
 20
120.3345106074244
 30
0.0
 11
208.0138617408594
 21
80.33451060742454
 31
0.0
  0
DIMENSION
  5
4A6
330
1A
100
AcDbEntity
  8
SUNPOU
  6
CONTINUOUS
 62
     4
100
AcDbDimension
  2
*D8
 10
229.7797571326538
 20
80.33451060742452
 30
0.0
 11
227.2797571326537
 21
102.8345106074245
 31
0.0
 70
    32
  3
STANDARD
100
AcDbAlignedDimension
 13
203.0138617408595
 23
125.3345106074245
 33
0.0
 14
208.0138617408594
 24
80.33451060742454
 34
0.0
 50
90.0
100
AcDbRotatedDimension
1001
ACAD
1000
DSTYLE
1002
{
1070
   140
1040
3.0
1070
    74
1070
     0
1070
   172
1070
     1
1070
    73
1070
     0
1070
   272
1070
     2
1070
    77
1070
     3
1070
   173
1070
     1
1070
   147
1040
1.0
1070
    42
1040
3.0
1070
    44
1040
1.5
1070
    43
1040
7.0
1070
   271
1070
     0
1070
   178
1070
     4
1070
   177
1070
     4
1070
   176
1070
     4
1070
   141
1040
150.0
1070
     7
1000
_OPEN
1070
     6
1000
_OPEN
1070
    41
1040
3.0
1002
}
  0
LINE
  5
4A7
330
1A
100
AcDbEntity
  8
SEIHIN
  6
CONTINUOUS
 62
     3
 48
16.0
100
AcDbLine
 10
206.8138617408593
 20
95.31701152831455
 30
0.0
 11
206.8138617408593
 21
80.33451060742454
 31
0.0
  0
DIMENSION
  5
4A8
330
1A
100
AcDbEntity
  8
SUNPOU
  6
CONTINUOUS
 62
     4
100
AcDbDimension
  2
*D9
 10
208.0138617408594
 20
66.39401284613547
 30
0.0
 11
219.0138617408594
 21
68.89401284613547
 31
0.0
 70
    32
  1
t<>
  3
STANDARD
100
AcDbAlignedDimension
 13
206.8138617408593
 23
80.33451060742454
 33
0.0
 14
208.0138617408594
 24
80.33451060742454
 34
0.0
100
AcDbRotatedDimension
1001
ACAD
1000
DSTYLE
1002
{
1070
   140
1040
3.0
1070
    74
1070
     0
1070
   172
1070
     1
1070
    73
1070
     0
1070
   272
1070
     2
1070
    77
1070
     3
1070
   173
1070
     1
1070
   147
1040
1.0
1070
    42
1040
3.0
1070
    44
1040
1.5
1070
    43
1040
7.0
1070
   271
1070
     1
1070
   178
1070
     4
1070
   177
1070
     4
1070
   176
1070
     4
1070
   141
1040
150.0
1070
     7
1000
_OPEN
1070
     6
1000
_OPEN
1070
    41
1040
3.0
1002
}
  0
LINE
  5
4A9
330
1A
100
AcDbEntity
  8
SEIHIN
  6
CONTINUOUS
 62
     3
 48
16.0
100
AcDbLine
 10
206.8138617408593
 20
80.33451060742454
 30
0.0
 11
208.0138617408594
 21
80.33451060742454
 31
0.0
  0
LINE
  5
4AA
330
1A
100
AcDbEntity
  8
CENTER_L
  6
CENTER
 62
     1
 48
5.0
100
AcDbLine
 10
203.8485617408594
 20
85.33451060742441
 30
0.0
 11
215.0138617408594
 21
85.33451060742441
 31
0.0
  0
LINE
  5
4AB
330
1A
100
AcDbEntity
  8
SEIHIN
  6
CONTINUOUS
 62
     3
 48
16.0
100
AcDbLine
 10
206.8138617408593
 20
95.31701152831455
 30
0.0
 11
204.4133237722032
 21
95.28200552513146
 31
0.0
  0
ARC
  5
4AC
330
1A
100
AcDbEntity
  8
SEIHIN
  6
CONTINUOUS
 62
     3
 48
16.0
100
AcDbCircle
 10
204.3841617408595
 20
97.28179290781191
 30
0.0
 40
2.0
100
AcDbArc
 50
180.0
 51
270.8354602647736
  0
LINE
  5
4AD
330
1A
100
AcDbEntity
  8
CENTER_L
  6
CENTER
 62
     1
 48
5.0
100
AcDbLine
 10
202.7957617408594
 20
112.3345106074244
 30
0.0
 11
215.0138617408594
 21
112.3345106074244
 31
0.0
  0
LINE
  5
4AE
330
1A
100
AcDbEntity
  8
SEIHIN
  6
CONTINUOUS
 62
     3
 48
16.0
100
AcDbLine
 10
206.8138617408593
 20
118.3345106074244
 30
0.0
 11
206.8138617408593
 21
106.3345106074244
 31
0.0
  0
LINE
  5
4AF
330
1A
100
AcDbEntity
  8
SEIHIN
  6
CONTINUOUS
 62
     3
 48
16.0
100
AcDbLine
 10
201.1841617408594
 20
106.3345106074244
 30
0.0
 11
201.1841617408594
 21
118.3345106074244
 31
0.0
  0
LINE
  5
4B0
330
1A
100
AcDbEntity
  8
SEIHIN
  6
CONTINUOUS
 62
     3
 48
16.0
100
AcDbLine
 10
208.0138617408594
 20
106.3345106074244
 30
0.0
 11
201.1841617408594
 21
106.3345106074244
 31
0.0
  0
ARC
  5
4B1
330
1A
100
AcDbEntity
  8
SEIHIN
  6
CONTINUOUS
 62
     3
 48
16.0
100
AcDbCircle
 10
209.0538617404649
 20
112.3369475837195
 30
0.0
 40
3.767175495593479
100
AcDbArc
 50
126.4848306795284
 51
233.5170609570268
  0
LINE
  5
4B2
330
1A
100
AcDbEntity
  8
SEIHIN
  6
CONTINUOUS
 62
     3
 48
16.0
100
AcDbLine
 10
208.0138617408594
 20
118.3345106074244
 30
0.0
 11
201.1841617408594
 21
118.3345106074244
 31
0.0
  0
ARC
  5
4B3
330
1A
100
AcDbEntity
  8
SEIHIN
  6
CONTINUOUS
 62
     3
 48
16.0
100
AcDbCircle
 10
203.0138617408594
 20
120.3345106074245
 30
0.0
 40
4.999999999999985
100
AcDbArc
 50
359.9999999999988
 51
89.99999999999884
  0
ARC
  5
4B4
330
1A
100
AcDbEntity
  8
SEIHIN
  6
CONTINUOUS
 62
     3
 48
16.0
100
AcDbCircle
 10
200.3842617408595
 20
118.3345106074244
 30
0.0
 40
2.0
100
AcDbArc
 50
0.0
 51
90.0
  0
LINE
  5
4B5
330
1A
100
AcDbEntity
  8
CENTER_L
  6
CENTER
 62
     1
 48
5.0
100
AcDbLine
 10
303.0138617408595
 20
131.4310106074245
 30
0.0
 11
303.0138617408595
 21
75.33451060742464
 31
0.0
  0
LINE
  5
4B6
330
1A
100
AcDbEntity
  8
SEIHIN
  6
CONTINUOUS
 62
     3
 48
16.0
100
AcDbLine
 10
306.0138617408595
 20
119.7570106074244
 30
0.0
 11
306.0138617408595
 21
100.7570106074244
 31
0.0
  0
LINE
  5
4B7
330
1A
100
AcDbEntity
  8
SEIHIN
  6
CONTINUOUS
 62
     3
 48
16.0
100
AcDbLine
 10
300.0138617408594
 20
119.7570106074244
 30
0.0
 11
300.0138617408594
 21
100.7570106074244
 31
0.0
  0
LINE
  5
4B8
330
1A
100
AcDbEntity
  8
SEIHIN
  6
CONTINUOUS
 62
     3
 48
16.0
100
AcDbLine
 10
297.0138617408593
 20
81.33451060742464
 30
0.0
 11
297.0138617408593
 21
124.3345106074243
 31
0.0
  0
LINE
  5
4B9
330
1A
100
AcDbEntity
  8
SEIHIN
  6
CONTINUOUS
 62
     3
 48
16.0
100
AcDbLine
 10
309.0138617408593
 20
81.33451060742464
 30
0.0
 11
309.0138617408593
 21
124.3345106074243
 31
0.0
  0
DIMENSION
  5
4BA
330
1A
100
AcDbEntity
  8
SUNPOU
  6
CONTINUOUS
 62
     4
100
AcDbDimension
  2
*D10
 10
287.7380852126989
 20
80.33451060742455
 30
0.0
 11
285.2380852126989
 21
82.83451060742462
 31
0.0
 70
    32
  3
STANDARD
100
AcDbAlignedDimension
 13
297.0138617408593
 23
85.33451060742462
 33
0.0
 14
297.0138617408593
 24
80.33451060742454
 34
0.0
 50
90.0
100
AcDbRotatedDimension
1001
ACAD
1000
DSTYLE
1002
{
1070
   140
1040
3.0
1070
    74
1070
     0
1070
   172
1070
     1
1070
    73
1070
     0
1070
   272
1070
     2
1070
    77
1070
     3
1070
   173
1070
     1
1070
   147
1040
1.0
1070
    42
1040
3.0
1070
    44
1040
1.5
1070
    43
1040
7.0
1070
   271
1070
     0
1070
   178
1070
     4
1070
   177
1070
     4
1070
   176
1070
     4
1070
   141
1040
150.0
1070
     7
1000
_OPEN
1070
     6
1000
_OPEN
1070
    41
1040
3.0
1002
}
  0
LINE
  5
4BB
330
1A
100
AcDbEntity
  8
SEIHIN
  6
CONTINUOUS
 62
     3
 48
16.0
100
AcDbLine
 10
308.0138617408593
 20
80.33451060742454
 30
0.0
 11
303.0138617408595
 21
80.33451060742454
 31
0.0
  0
LINE
  5
4BC
330
1A
100
AcDbEntity
  8
SEIHIN
  6
CONTINUOUS
 62
     3
 48
16.0
100
AcDbLine
 10
298.0138617408595
 20
80.33451060742454
 30
0.0
 11
303.0138617408595
 21
80.33451060742454
 31
0.0
  0
ARC
  5
4BD
330
1A
100
AcDbEntity
  8
SEIHIN
  6
CONTINUOUS
 62
     3
 48
16.0
100
AcDbCircle
 10
298.0138617408595
 20
81.33451060742464
 30
0.0
 40
1.000000000000113
100
AcDbArc
 50
180.0000000000007
 51
270.0
  0
ARC
  5
4BE
330
1A
100
AcDbEntity
  8
SEIHIN
  6
CONTINUOUS
 62
     3
 48
16.0
100
AcDbCircle
 10
308.0138617408593
 20
81.33451060742459
 30
0.0
 40
1.000000000000042
100
AcDbArc
 50
270.0000000000032
 51
0.0000000000024427
  0
ARC
  5
4BF
330
1A
100
AcDbEntity
  8
SEIHIN
  6
CONTINUOUS
 62
     3
 48
16.0
100
AcDbCircle
 10
303.0138617408595
 20
85.33451060742462
 30
0.0
 40
1.75
100
AcDbArc
 50
0.0
 51
180.0
  0
ARC
  5
4C0
330
1A
100
AcDbEntity
  8
SEIHIN
  6
CONTINUOUS
 62
     3
 48
16.0
100
AcDbCircle
 10
303.0138617408595
 20
85.33451060742462
 30
0.0
 40
1.75
100
AcDbArc
 50
180.0
 51
0.0
  0
LINE
  5
4C1
330
1A
100
AcDbEntity
  8
CENTER_L
  6
CENTER
 62
     1
 48
5.0
100
AcDbLine
 10
298.8206617408595
 20
85.33451060742462
 30
0.0
 11
306.8575617408595
 21
85.33451060742462
 31
0.0
  0
ARC
  5
4C2
330
1A
100
AcDbEntity
  8
SEIHIN
  6
CONTINUOUS
 62
     3
 48
16.0
100
AcDbCircle
 10
303.0138617408595
 20
100.7570106074244
 30
0.0
 40
3.0
100
AcDbArc
 50
270.0
 51
0.0000000000000042
  0
ARC
  5
4C3
330
1A
100
AcDbEntity
  8
SEIHIN
  6
CONTINUOUS
 62
     3
 48
16.0
100
AcDbCircle
 10
303.0138617408594
 20
100.7570106074245
 30
0.0
 40
3.000000000000056
100
AcDbArc
 50
180.0000000000011
 51
270.000000000001
  0
LINE
  5
4C4
330
1A
100
AcDbEntity
  8
SEIHIN
  6
CONTINUOUS
 62
     3
 48
16.0
100
AcDbLine
 10
274.0138617408595
 20
118.3345106074244
 30
0.0
 11
297.0138617408593
 21
118.3345106074244
 31
0.0
  0
DIMENSION
  5
4C5
330
1A
100
AcDbEntity
  8
SUNPOU
  6
CONTINUOUS
 62
     4
100
AcDbDimension
  2
*D11
 10
278.0138617408595
 20
137.9130840123287
 30
0.0
 11
303.0138617408595
 21
140.4130840123287
 31
0.0
 70
    32
  3
STANDARD
100
AcDbAlignedDimension
 13
328.0138617408596
 23
118.3345106074244
 33
0.0
 14
278.0138617408595
 24
118.3345106074244
 34
0.0
100
AcDbRotatedDimension
1001
ACAD
1000
DSTYLE
1002
{
1070
   140
1040
3.0
1070
    74
1070
     0
1070
   172
1070
     1
1070
    73
1070
     0
1070
   272
1070
     2
1070
    77
1070
     3
1070
   173
1070
     1
1070
   147
1040
1.0
1070
    42
1040
3.0
1070
    44
1040
1.5
1070
    43
1040
7.0
1070
   271
1070
     0
1070
   178
1070
     4
1070
   177
1070
     4
1070
   176
1070
     4
1070
   141
1040
150.0
1070
     7
1000
_OPEN
1070
     6
1000
_OPEN
1070
    41
1040
3.0
1002
}
  0
LINE
  5
4C6
330
1A
100
AcDbEntity
  8
SEIHIN
  6
CONTINUOUS
 62
     3
 48
16.0
100
AcDbLine
 10
297.0138617408593
 20
114.8345106074245
 30
0.0
 11
283.0138617408593
 21
114.8345106074245
 31
0.0
  0
LINE
  5
4C7
330
1A
100
AcDbEntity
  8
SEIHIN
  6
CONTINUOUS
 62
     3
 48
16.0
100
AcDbLine
 10
274.0138617408595
 20
106.3345106074244
 30
0.0
 11
297.0138617408593
 21
106.3345106074244
 31
0.0
  0
LINE
  5
4C8
330
1A
100
AcDbEntity
  8
SEIHIN
  6
CONTINUOUS
 62
     3
 48
16.0
100
AcDbLine
 10
297.0138617408593
 20
109.8345106074244
 30
0.0
 11
283.0138617408593
 21
109.8345106074244
 31
0.0
  0
LINE
  5
4C9
330
1A
100
AcDbEntity
  8
CENTER_L
  6
CENTER
 62
     1
 48
5.0
100
AcDbLine
 10
274.1941617408595
 20
112.3345106074244
 30
0.0
 11
284.6089617408594
 21
112.3345106074244
 31
0.0
  0
ARC
  5
4CA
330
1A
100
AcDbEntity
  8
SEIHIN
  6
CONTINUOUS
 62
     3
 48
16.0
100
AcDbCircle
 10
283.0138617408593
 20
112.3345106074244
 30
0.0
 40
2.5
100
AcDbArc
 50
180.0
 51
270.0
  0
ARC
  5
4CB
330
1A
100
AcDbEntity
  8
SEIHIN
  6
CONTINUOUS
 62
     3
 48
16.0
100
AcDbCircle
 10
283.0138617408594
 20
112.3345106074244
 30
0.0
 40
2.500000000000042
100
AcDbArc
 50
90.00000000000129
 51
180.0000000000009
  0
LINE
  5
4CC
330
1A
100
AcDbEntity
  8
CENTER_L
  6
CENTER
 62
     1
 48
5.0
100
AcDbLine
 10
278.0138617408595
 20
117.0343106074245
 30
0.0
 11
278.0138617408595
 21
107.5856106074245
 31
0.0
  0
LINE
  5
4CD
330
1A
100
AcDbEntity
  8
SEIHIN
  6
CONTINUOUS
 62
     3
 48
16.0
100
AcDbLine
 10
273.0138617408595
 20
107.3345106074245
 30
0.0
 11
273.0138617408595
 21
117.3345106074245
 31
0.0
  0
ARC
  5
4CE
330
1A
100
AcDbEntity
  8
SEIHIN
  6
CONTINUOUS
 62
     3
 48
16.0
100
AcDbCircle
 10
278.0138617408595
 20
112.3345106074244
 30
0.0
 40
1.75
100
AcDbArc
 50
180.0
 51
0.0
  0
ARC
  5
4CF
330
1A
100
AcDbEntity
  8
SEIHIN
  6
CONTINUOUS
 62
     3
 48
16.0
100
AcDbCircle
 10
274.0138617408596
 20
107.3345106074244
 30
0.0
 40
1.000000000000056
100
AcDbArc
 50
179.9999999999975
 51
269.9999999999967
  0
ARC
  5
4D0
330
1A
100
AcDbEntity
  8
SEIHIN
  6
CONTINUOUS
 62
     3
 48
16.0
100
AcDbCircle
 10
278.0138617408595
 20
112.3345106074244
 30
0.0
 40
1.75
100
AcDbArc
 50
0.0
 51
180.0
  0
ARC
  5
4D1
330
1A
100
AcDbEntity
  8
SEIHIN
  6
CONTINUOUS
 62
     3
 48
16.0
100
AcDbCircle
 10
274.0138617408595
 20
117.3345106074244
 30
0.0
 40
0.9999999999999573
100
AcDbArc
 50
89.99999999999674
 51
179.9999999999975
  0
LINE
  5
4D2
330
1A
100
AcDbEntity
  8
SEIHIN
  6
CONTINUOUS
 62
     3
 48
16.0
100
AcDbLine
 10
309.0138617408593
 20
114.8345106074245
 30
0.0
 11
323.0138617408596
 21
114.8345106074245
 31
0.0
  0
LINE
  5
4D3
330
1A
100
AcDbEntity
  8
SEIHIN
  6
CONTINUOUS
 62
     3
 48
16.0
100
AcDbLine
 10
309.0138617408593
 20
109.8345106074244
 30
0.0
 11
323.0138617408596
 21
109.8345106074244
 31
0.0
  0
LINE
  5
4D4
330
1A
100
AcDbEntity
  8
SEIHIN
  6
CONTINUOUS
 62
     3
 48
16.0
100
AcDbLine
 10
305.0138617408594
 20
115.3345106074245
 30
0.0
 11
303.0138617408595
 21
115.3345106074245
 31
0.0
  0
LINE
  5
4D5
330
1A
100
AcDbEntity
  8
SEIHIN
  6
CONTINUOUS
 62
     3
 48
16.0
100
AcDbLine
 10
305.0138617408594
 20
108.3345106074244
 30
0.0
 11
303.0138617408595
 21
108.3345106074244
 31
0.0
  0
LINE
  5
4D6
330
1A
100
AcDbEntity
  8
SEIHIN
  6
CONTINUOUS
 62
     3
 48
16.0
100
AcDbLine
 10
301.0138617408594
 20
115.3345106074245
 30
0.0
 11
301.0138617408594
 21
108.3345106074244
 31
0.0
  0
LINE
  5
4D7
330
1A
100
AcDbEntity
  8
SEIHIN
  6
CONTINUOUS
 62
     3
 48
16.0
100
AcDbLine
 10
301.0138617408594
 20
108.3345106074244
 30
0.0
 11
303.0138617408595
 21
108.3345106074244
 31
0.0
  0
LINE
  5
4D8
330
1A
100
AcDbEntity
  8
SEIHIN
  6
CONTINUOUS
 62
     3
 48
16.0
100
AcDbLine
 10
301.0138617408594
 20
115.3345106074245
 30
0.0
 11
303.0138617408595
 21
115.3345106074245
 31
0.0
  0
LINE
  5
4D9
330
1A
100
AcDbEntity
  8
SEIHIN
  6
CONTINUOUS
 62
     3
 48
16.0
100
AcDbLine
 10
305.0138617408594
 20
115.3345106074245
 30
0.0
 11
305.0138617408594
 21
108.3345106074244
 31
0.0
  0
LINE
  5
4DA
330
1A
100
AcDbEntity
  8
SEIHIN
  6
CONTINUOUS
 62
     3
 48
16.0
100
AcDbLine
 10
308.0138617408593
 20
125.3345106074245
 30
0.0
 11
303.0138617408595
 21
125.3345106074245
 31
0.0
  0
ARC
  5
4DB
330
1A
100
AcDbEntity
  8
SEIHIN
  6
CONTINUOUS
 62
     3
 48
16.0
100
AcDbCircle
 10
303.0138617408595
 20
119.7570106074244
 30
0.0
 40
3.0
100
AcDbArc
 50
0.0
 51
90.0
  0
ARC
  5
4DC
330
1A
100
AcDbEntity
  8
SEIHIN
  6
CONTINUOUS
 62
     3
 48
16.0
100
AcDbCircle
 10
303.0138617408594
 20
119.7570106074244
 30
0.0
 40
3.000000000000056
100
AcDbArc
 50
89.99999999999891
 51
179.9999999999988
  0
LINE
  5
4DD
330
1A
100
AcDbEntity
  8
SEIHIN
  6
CONTINUOUS
 62
     3
 48
16.0
100
AcDbLine
 10
298.0138617408595
 20
125.3345106074245
 30
0.0
 11
303.0138617408595
 21
125.3345106074245
 31
0.0
  0
ARC
  5
4DE
330
1A
100
AcDbEntity
  8
SEIHIN
  6
CONTINUOUS
 62
     3
 48
16.0
100
AcDbCircle
 10
298.0138617408595
 20
124.3345106074243
 30
0.0
 40
1.000000000000099
100
AcDbArc
 50
90.0
 51
179.9999999999991
  0
ARC
  5
4DF
330
1A
100
AcDbEntity
  8
SEIHIN
  6
CONTINUOUS
 62
     3
 48
16.0
100
AcDbCircle
 10
308.0138617408593
 20
124.3345106074244
 30
0.0
 40
1.000000000000056
100
AcDbArc
 50
359.9999999999975
 51
89.99999999999674
  0
LINE
  5
4E0
330
1A
100
AcDbEntity
  8
CENTER_L
  6
CENTER
 62
     1
 48
5.0
100
AcDbLine
 10
328.0138617408596
 20
117.0343106074245
 30
0.0
 11
328.0138617408596
 21
107.5856106074245
 31
0.0
  0
ARC
  5
4E1
330
1A
100
AcDbEntity
  8
SEIHIN
  6
CONTINUOUS
 62
     3
 48
16.0
100
AcDbCircle
 10
323.0138617408594
 20
112.3345106074243
 30
0.0
 40
2.499999999999943
100
AcDbArc
 50
270.0000000000013
 51
0.0000000000013028
  0
ARC
  5
4E2
330
1A
100
AcDbEntity
  8
SEIHIN
  6
CONTINUOUS
 62
     3
 48
16.0
100
AcDbCircle
 10
323.0138617408594
 20
112.3345106074245
 30
0.0
 40
2.5
100
AcDbArc
 50
359.9999999999977
 51
89.99999999999738
  0
LINE
  5
4E3
330
1A
100
AcDbEntity
  8
SEIHIN
  6
CONTINUOUS
 62
     3
 48
16.0
100
AcDbLine
 10
333.0138617408593
 20
107.3345106074245
 30
0.0
 11
333.0138617408593
 21
117.3345106074245
 31
0.0
  0
ARC
  5
4E4
330
1A
100
AcDbEntity
  8
SEIHIN
  6
CONTINUOUS
 62
     3
 48
16.0
100
AcDbCircle
 10
332.0138617408594
 20
107.3345106074244
 30
0.0
 40
0.9999999999999857
100
AcDbArc
 50
270.0000000000065
 51
0.0000000000056996
  0
ARC
  5
4E5
330
1A
100
AcDbEntity
  8
SEIHIN
  6
CONTINUOUS
 62
     3
 48
16.0
100
AcDbCircle
 10
332.0138617408596
 20
117.3345106074245
 30
0.0
 40
0.9999999999998863
100
AcDbArc
 50
359.9999999999992
 51
90.0
  0
LINE
  5
4E6
330
1A
100
AcDbEntity
  8
SEIHIN
  6
CONTINUOUS
 62
     3
 48
16.0
100
AcDbLine
 10
205.3139506233853
 20
201.5892103224929
 30
0.0
 11
205.3138617408593
 21
189.6345106074244
 31
0.0
  0
LINE
  5
4E7
330
1A
100
AcDbEntity
  8
SEIHIN
  6
CONTINUOUS
 62
     3
 48
16.0
100
AcDbLine
 10
206.8138617408593
 20
180.3345106074245
 30
0.0
 11
206.8139551633268
 21
201.5881219260258
 31
0.0
  0
LINE
  5
4E8
330
1A
100
AcDbEntity
  8
SEIHIN
  6
CONTINUOUS
 62
     3
 48
16.0
100
AcDbLine
 10
208.0138617408594
 20
180.3345106074245
 30
0.0
 11
208.0138617408594
 21
202.7844949407577
 31
0.0
  0
DIMENSION
  5
4E9
330
1A
100
AcDbEntity
  8
SUNPOU
  6
CONTINUOUS
 62
     4
100
AcDbDimension
  2
*D12
 10
229.61055597209
 20
180.3345106074245
 30
0.0
 11
227.11055597209
 21
210.3345106074245
 31
0.0
 70
    32
  3
STANDARD
100
AcDbAlignedDimension
 13
208.0139617408595
 23
240.3345106074245
 33
0.0
 14
208.0138617408594
 24
180.3345106074245
 34
0.0
 50
90.0
100
AcDbRotatedDimension
1001
ACAD
1000
DSTYLE
1002
{
1070
   140
1040
3.0
1070
    74
1070
     0
1070
   172
1070
     1
1070
    73
1070
     0
1070
   272
1070
     2
1070
    77
1070
     3
1070
   173
1070
     1
1070
   147
1040
1.0
1070
    42
1040
3.0
1070
    44
1040
1.5
1070
    43
1040
7.0
1070
   271
1070
     0
1070
   178
1070
     4
1070
   177
1070
     4
1070
   176
1070
     4
1070
   141
1040
150.0
1070
     7
1000
_OPEN
1070
     6
1000
_OPEN
1070
    41
1040
3.0
1002
}
  0
LINE
  5
4EA
330
1A
100
AcDbEntity
  8
CENTER_L
  6
CENTER
 62
     1
 48
5.0
100
AcDbLine
 10
215.0138617408594
 20
185.3345106074244
 30
0.0
 11
203.3396617408593
 21
185.3345106074244
 31
0.0
  0
LINE
  5
4EB
330
1A
100
AcDbEntity
  8
SEIHIN
  6
CONTINUOUS
 62
     3
 48
16.0
100
AcDbLine
 10
208.0138617408594
 20
180.3345106074245
 30
0.0
 11
206.8138617408593
 21
180.3345106074245
 31
0.0
  0
ARC
  5
4EC
330
1A
100
AcDbEntity
  8
SEIHIN
  6
CONTINUOUS
 62
     3
 48
16.0
100
AcDbCircle
 10
206.6139117408595
 20
189.6344606074245
 30
0.0
 40
1.299950000961514
100
AcDbArc
 50
179.9977962314151
 51
269.9977962314151
  0
LINE
  5
4ED
330
1A
100
AcDbEntity
  8
SEIHIN
  6
CONTINUOUS
 62
     3
 48
16.0
100
AcDbLine
 10
206.8139617408595
 20
188.3345106074245
 30
0.0
 11
206.6138617408595
 21
188.3345106074245
 31
0.0
  0
LINE
  5
4EE
330
1A
100
AcDbEntity
  8
SEIHIN
  6
CONTINUOUS
 62
     3
 48
16.0
100
AcDbLine
 10
205.3139617408596
 20
219.0845949407577
 30
0.0
 11
205.3139617408596
 21
231.0345106074245
 31
0.0
  0
LINE
  5
4EF
330
1A
100
AcDbEntity
  8
SEIHIN
  6
CONTINUOUS
 62
     3
 48
16.0
100
AcDbLine
 10
206.8139617408595
 20
240.3345106074245
 30
0.0
 11
206.8139617408595
 21
219.0845949407577
 31
0.0
  0
LINE
  5
4F0
330
1A
100
AcDbEntity
  8
SEIHIN
  6
CONTINUOUS
 62
     3
 48
16.0
100
AcDbLine
 10
208.0139617408595
 20
240.3345106074245
 30
0.0
 11
208.0138868670175
 21
217.8723580261939
 31
0.0
  0
LINE
  5
4F1
330
1A
100
AcDbEntity
  8
SEIHIN
  6
CONTINUOUS
 62
     3
 48
16.0
100
AcDbLine
 10
208.0138835745261
 20
216.8846106074245
 30
0.0
 11
208.0138399074896
 21
203.7844997026933
 31
0.0
  0
ARC
  5
4F2
330
1A
100
AcDbEntity
  8
SEIHIN
  6
CONTINUOUS
 62
     3
 48
16.0
100
AcDbCircle
 10
205.8139617408596
 20
201.5844949407577
 30
0.0
 40
0.9999999999999431
100
AcDbArc
 50
0.0000000000032569
 51
90.00000000000325
  0
ARC
  5
4F3
330
1A
100
AcDbEntity
  8
SEIHIN
  6
CONTINUOUS
 62
     3
 48
16.0
100
AcDbCircle
 10
202.1842617408596
 20
203.5844949407577
 30
0.0
 40
1.000000000000056
100
AcDbArc
 50
179.9999999999967
 51
269.9999999999967
  0
LINE
  5
4F4
330
1A
100
AcDbEntity
  8
SEIHIN
  6
CONTINUOUS
 62
     3
 48
16.0
100
AcDbLine
 10
201.1842617408595
 20
203.5844949407578
 30
0.0
 11
201.1842617408595
 21
203.7844949407577
 31
0.0
  0
ARC
  5
4F5
330
1A
100
AcDbEntity
  8
SEIHIN
  6
CONTINUOUS
 62
     3
 48
16.0
100
AcDbCircle
 10
204.3139617408596
 20
201.5844949407577
 30
0.0
 40
0.9999999999999431
100
AcDbArc
 50
0.0000000000032569
 51
90.00000000000325
  0
LINE
  5
4F6
330
1A
100
AcDbEntity
  8
SEIHIN
  6
CONTINUOUS
 62
     3
 48
16.0
100
AcDbLine
 10
205.8139617408595
 20
202.5844949407577
 30
0.0
 11
202.1842617408595
 21
202.5844949407577
 31
0.0
  0
ARC
  5
4F7
330
1A
100
AcDbEntity
  8
SEIHIN
  6
CONTINUOUS
 62
     3
 48
16.0
100
AcDbCircle
 10
207.0138617408594
 20
202.7844949407577
 30
0.0
 40
0.9999999999999431
100
AcDbArc
 50
0.0000000000032569
 51
90.00000000000325
  0
ARC
  5
4F8
330
1A
100
AcDbEntity
  8
SEIHIN
  6
CONTINUOUS
 62
     3
 48
16.0
100
AcDbCircle
 10
205.8139617408595
 20
219.0845949407577
 30
0.0
 40
1.000000000000056
100
AcDbArc
 50
270.0000000000032
 51
0.0000000000032569
  0
ARC
  5
4F9
330
1A
100
AcDbEntity
  8
SEIHIN
  6
CONTINUOUS
 62
     3
 48
16.0
100
AcDbCircle
 10
202.1842617408595
 20
217.0845949407577
 30
0.0
 40
0.9999999999999431
100
AcDbArc
 50
89.99999999999674
 51
179.9999999999967
  0
LINE
  5
4FA
330
1A
100
AcDbEntity
  8
SEIHIN
  6
CONTINUOUS
 62
     3
 48
16.0
100
AcDbLine
 10
201.1842617408595
 20
217.0845949407578
 30
0.0
 11
201.1842617408595
 21
216.8845949407578
 31
0.0
  0
ARC
  5
4FB
330
1A
100
AcDbEntity
  8
SEIHIN
  6
CONTINUOUS
 62
     3
 48
16.0
100
AcDbCircle
 10
204.3139617408595
 20
219.0845949407577
 30
0.0
 40
1.000000000000056
100
AcDbArc
 50
270.0000000000032
 51
0.0000000000032569
  0
LINE
  5
4FC
330
1A
100
AcDbEntity
  8
SEIHIN
  6
CONTINUOUS
 62
     3
 48
16.0
100
AcDbLine
 10
205.8139617408595
 20
218.0845949407577
 30
0.0
 11
202.1842617408595
 21
218.0845949407577
 31
0.0
  0
ARC
  5
4FD
330
1A
100
AcDbEntity
  8
SEIHIN
  6
CONTINUOUS
 62
     3
 48
16.0
100
AcDbCircle
 10
207.0139617408595
 20
217.8845949407578
 30
0.0
 40
1.0
100
AcDbArc
 50
270.0
 51
0.0
  0
LINE
  5
4FE
330
1A
100
AcDbEntity
  8
CENTER_L
  6
CENTER
 62
     1
 48
5.0
100
AcDbLine
 10
215.0139450742317
 20
235.3345106074243
 30
0.0
 11
203.3397617408595
 21
235.3345106074243
 31
0.0
  0
ARC
  5
4FF
330
1A
100
AcDbEntity
  8
SEIHIN
  6
CONTINUOUS
 62
     3
 48
16.0
100
AcDbCircle
 10
206.6139617408594
 20
231.0345106074246
 30
0.0
 40
1.299999999999926
100
AcDbArc
 50
90.00000000000374
 51
180.0000000000037
  0
LINE
  5
500
330
1A
100
AcDbEntity
  8
SEIHIN
  6
CONTINUOUS
 62
     3
 48
16.0
100
AcDbLine
 10
206.8139617408595
 20
232.3345106074245
 30
0.0
 11
206.6139617408594
 21
232.3345106074245
 31
0.0
  0
LINE
  5
501
330
1A
100
AcDbEntity
  8
SEIHIN
  6
CONTINUOUS
 62
     3
 48
16.0
100
AcDbLine
 10
208.0139617408595
 20
240.3345106074245
 30
0.0
 11
206.8139617408595
 21
240.3345106074245
 31
0.0
  0
LWPOLYLINE
  5
7C6
330
1A
100
AcDbEntity
  8
ZUWAKU
100
AcDbPolyline
 90
        4
 70
     1
 43
0.0
 10
0.4000000874406169
 20
275.3999997546114
 10
0.4000000874406169
 20
0.3999997546114287
 10
398.4000000874406
 20
0.3999997546114287
 10
398.4000000874406
 20
275.3999997546114
  0
LWPOLYLINE
  5
7C7
330
1A
100
AcDbEntity
  8
ZUWAKU
100
AcDbPolyline
 90
        4
 70
     1
 43
0.0
 10
0.2000000874406282
 20
275.5999997546114
 10
0.2000000874406282
 20
0.19999975461144
 10
398.6000000874406
 20
0.1999997546114285
 10
398.6000000874406
 20
275.5999997546114
  0
LWPOLYLINE
  5
7C8
330
1A
100
AcDbEntity
  8
ZUWAKU
100
AcDbPolyline
 90
        4
 70
     1
 43
0.0
 10
0.0000000874406396
 20
275.7999997546114
 10
0.0000000874406396
 20
-0.0000002453886054
 10
398.8000000874407
 20
-0.0000002453885717
 10
398.8000000874407
 20
275.7999997546114
  0
LWPOLYLINE
  5
7C9
330
1A
100
AcDbEntity
  8
ZUWAKU
100
AcDbPolyline
 90
        4
 70
     1
 43
0.0
 10
0.3000000874405941
 20
275.4999997546114
 10
0.3000000874405941
 20
0.2999997546114059
 10
398.5000000874407
 20
0.299999754611429
 10
398.5000000874406
 20
275.4999997546114
  0
LWPOLYLINE
  5
7CA
330
1A
100
AcDbEntity
  8
ZUWAKU
100
AcDbPolyline
 90
        4
 70
     1
 43
0.0
 10
0.1000000874406055
 20
275.6999997546114
 10
0.1000000874406055
 20
0.0999997546114173
 10
398.7000000874406
 20
0.0999997546114289
 10
398.7000000874406
 20
275.6999997546114
  0
LINE
  5
7CB
330
1A
100
AcDbEntity
  8
ZUWAKU
100
AcDbLine
 10
0.0000000874406396
 20
14.99999975461139
 30
0.0
 11
398.7000000874406
 21
14.99999975461139
 31
0.0
  0
LINE
  5
7CC
330
1A
100
AcDbEntity
  8
ZUWAKU
100
AcDbLine
 10
0.0000000874406396
 20
15.09999975461139
 30
0.0
 11
398.7000000874406
 21
15.09999975461139
 31
0.0
  0
LINE
  5
7CD
330
1A
100
AcDbEntity
  8
ZUWAKU
100
AcDbLine
 10
0.0000000874406396
 20
15.19999975461139
 30
0.0
 11
398.7000000874406
 21
15.19999975461139
 31
0.0
  0
LINE
  5
7CE
330
1A
100
AcDbEntity
  8
ZUWAKU
100
AcDbLine
 10
0.0000000874406396
 20
15.29999975461139
 30
0.0
 11
398.7000000874406
 21
15.29999975461139
 31
0.0
  0
LINE
  5
7CF
330
1A
100
AcDbEntity
  8
ZUWAKU
100
AcDbLine
 10
0.0000000874406396
 20
15.3999997546114
 30
0.0
 11
398.7000000874406
 21
15.3999997546114
 31
0.0
  0
LINE
  5
7D0
330
1A
100
AcDbEntity
  8
ZUWAKU
100
AcDbLine
 10
104.3233007324746
 20
7.699999754611411
 30
0.0
 11
223.7121820729363
 21
7.699999754611411
 31
0.0
  0
LINE
  5
7D1
330
1A
100
AcDbEntity
  8
ZUWAKU
100
AcDbLine
 10
104.3233007324746
 20
7.799999754611411
 30
0.0
 11
223.7121820729363
 21
7.799999754611414
 31
0.0
  0
LINE
  5
7D2
330
1A
100
AcDbEntity
  8
ZUWAKU
100
AcDbLine
 10
104.3233007324746
 20
7.599999754611413
 30
0.0
 11
223.7121820729363
 21
7.59999975461141
 31
0.0
  0
CIRCLE
  5
7D3
330
1A
100
AcDbEntity
  8
ZUWAKU
100
AcDbCircle
 10
12.99610616483119
 20
7.599999754611395
 30
0.0
 40
0.875
  0
LINE
  5
7D4
330
1A
100
AcDbEntity
  8
ZUWAKU
100
AcDbLine
 10
13.43360616483119
 20
3.574999754611397
 30
0.0
 11
12.47110616483121
 21
3.574999754611397
 31
0.0
  0
LINE
  5
7D5
330
1A
100
AcDbEntity
  8
ZUWAKU
100
AcDbLine
 10
12.47110616483121
 20
4.974999754611395
 30
0.0
 11
13.43360616483119
 21
4.974999754611395
 31
0.0
  0
LINE
  5
7D6
330
1A
100
AcDbEntity
  8
ZUWAKU
100
AcDbLine
 10
13.43360616483119
 20
10.22499975461139
 30
0.0
 11
12.47110616483121
 21
10.22499975461139
 31
0.0
  0
LINE
  5
7D7
330
1A
100
AcDbEntity
  8
ZUWAKU
100
AcDbLine
 10
12.47110616483121
 20
11.62499975461137
 30
0.0
 11
13.43360616483119
 21
11.62499975461139
 31
0.0
  0
HATCH
  5
7D8
330
1A
100
AcDbEntity
  8
ZUWAKU
100
AcDbHatch
 10
0.0
 20
0.0
 30
0.0
210
0.0
220
0.0
230
1.0
  2
ANSI37
 70
     0
 71
     0
 91
        8
 92
        7
 72
     1
 73
     1
 93
       24
 10
7.251131418000568
 20
8.822423995103186
 42
-0.1989123673796348
 10
7.046106164831201
 20
9.317398741933711
 42
0.0
 10
7.046106164831201
 20
9.9624997546114
 42
-0.4142135623730912
 10
7.308606164831189
 20
10.22499975461139
 42
0.0
 10
8.796106164831144
 20
10.22499975461139
 42
0.4142135623731546
 10
9.058606164831189
 20
10.48749975461139
 42
0.0
 10
9.058606164831189
 20
11.36249975461139
 42
0.4142135623731586
 10
8.796106164831144
 20
11.62499975461139
 42
0.0
 10
7.046106164831201
 20
11.62499975461139
 42
0.4142135623730928
 10
5.646106164831223
 20
10.22499975461141
 42
0.0
 10
5.646106164831223
 20
9.317398741933775
 42
0.1989123673796619
 10
6.261181924339439
 20
7.832474501441971
 42
0.0
 10
7.716080911661777
 20
6.377575514119643
 42
-0.1989123673796613
 10
7.921106164831201
 20
5.88260076728905
 42
0.0
 10
7.921106164831201
 20
5.237499754611391
 42
-0.4142135623730911
 10
7.658606164831212
 20
4.974999754611395
 42
0.0
 10
6.171106164831257
 20
4.974999754611395
 42
0.4142135623731526
 10
5.908606164831212
 20
4.712499754611402
 42
0.0
 10
5.908606164831212
 20
3.837499754611391
 42
0.4142135623731526
 10
6.171106164831257
 20
3.574999754611397
 42
0.0
 10
7.921106164831201
 20
3.574999754611397
 42
0.4142135623731044
 10
9.321106164831235
 20
4.974999754611385
 42
0.0
 10
9.321106164831235
 20
5.882600767289021
 42
0.1989123673796604
 10
8.706030405322962
 20
7.367525007780791
 42
0.0
 97
        0
 92
        7
 72
     1
 73
     1
 93
       16
 10
11.77110616483122
 20
9.5249997546114
 42
-0.4142135623730935
 10
12.47110616483121
 20
10.22499975461139
 42
0.0
 10
13.43360616483119
 20
10.22499975461139
 42
0.4142135623731546
 10
13.69610616483123
 20
10.48749975461139
 42
0.0
 10
13.69610616483123
 20
11.36249975461139
 42
0.4142135623730951
 10
13.43360616483124
 20
11.62499975461139
 42
0.0
 10
12.47110616483115
 20
11.62499975461137
 42
0.4142135623730892
 10
10.37110616483118
 20
9.524999754611364
 42
0.0
 10
10.37110616483118
 20
5.674999754611409
 42
0.4142135623730969
 10
12.47110616483121
 20
3.574999754611397
 42
0.0
 10
13.43360616483119
 20
3.574999754611397
 42
0.4142135623731526
 10
13.69610616483123
 20
3.837499754611391
 42
0.0
 10
13.69610616483123
 20
4.712499754611402
 42
0.4142135623730891
 10
13.43360616483124
 20
4.974999754611395
 42
0.0
 10
12.47110616483121
 20
4.974999754611395
 42
-0.4142135623730928
 10
11.77110616483122
 20
5.674999754611389
 42
0.0
 97
        0
 92
        7
 72
     1
 73
     1
 93
        2
 10
12.12110616483119
 20
7.599999754611395
 42
1.0
 10
13.87110616483119
 20
7.599999754611395
 42
1.0
 97
        0
 92
        7
 72
     1
 73
     1
 93
       26
 10
18.65742940592019
 20
9.602523351393109
 42
0.0
 10
19.1882492224891
 20
11.2834527705279
 42
0.5069206636600134
 10
18.93793377289142
 20
11.62499975461139
 42
0.0
 10
18.08848908308681
 20
11.62499975461139
 42
0.3272098845218764
 10
17.83817363348913
 20
11.44154673869488
 42
0.0
 10
16.90403869617324
 20
8.483452770527936
 42
-0.3272098845219541
 10
16.65372324657551
 20
8.299999754611395
 42
0.0
 10
16.58360616483128
 20
8.299999754611395
 42
-0.4142135623731526
 10
16.32110616483123
 20
8.562499754611389
 42
0.0
 10
16.32110616483123
 20
11.36249975461139
 42
0.4142135623730951
 10
16.05860616483124
 20
11.62499975461139
 42
0.0
 10
15.18360616483119
 20
11.62499975461139
 42
0.4142135623730871
 10
14.9211061648312
 20
11.3624997546114
 42
0.0
 10
14.9211061648312
 20
3.837499754611391
 42
0.4142135623730891
 10
15.18360616483119
 20
3.574999754611397
 42
0.0
 10
16.05860616483119
 20
3.574999754611397
 42
0.4142135623731526
 10
16.32110616483123
 20
3.837499754611391
 42
0.0
 10
16.32110616483123
 20
6.637499754611402
 42
-0.4142135623731526
 10
16.58360616483128
 20
6.899999754611396
 42
0.0
 10
16.65372324657556
 20
6.899999754611396
 42
-0.3272098845218915
 10
16.90403869617324
 20
6.716546738694859
 42
0.0
 10
17.83817363348913
 20
3.758452770527933
 42
0.3272098845218902
 10
18.08848908308681
 20
3.574999754611397
 42
0.0
 10
18.93793377289142
 20
3.574999754611397
 42
0.5069206636600335
 10
19.1882492224891
 20
3.916546738694901
 42
0.0
 10
18.02505353325227
 20
7.599999754611465
 42
0.0
 97
        0
 92
        7
 72
     1
 73
     1
 93
        8
 10
21.74610616483119
 20
11.3624997546114
 42
0.4142135623731546
 10
21.48360616483114
 20
11.62499975461139
 42
0.0
 10
20.60860616483125
 20
11.62499975461139
 42
0.4142135623731507
 10
20.34610616483121
 20
11.3624997546114
 42
0.0
 10
20.34610616483121
 20
3.837499754611391
 42
0.4142135623731526
 10
20.60860616483125
 20
3.574999754611397
 42
0.0
 10
21.48360616483114
 20
3.574999754611397
 42
0.4142135623731526
 10
21.74610616483119
 20
3.837499754611391
 42
0.0
 97
        0
 92
        7
 72
     1
 73
     1
 93
       24
 10
24.19610616483123
 20
9.9624997546114
 42
-0.4142135623731546
 10
24.45860616483128
 20
10.22499975461139
 42
0.0
 10
25.94610616483123
 20
10.22499975461139
 42
0.4142135623730911
 10
26.20860616483122
 20
10.48749975461139
 42
0.0
 10
26.20860616483122
 20
11.36249975461139
 42
0.4142135623730952
 10
25.94610616483123
 20
11.62499975461139
 42
0.0
 10
24.19610616483123
 20
11.62499975461139
 42
0.4142135623731048
 10
22.7961061648312
 20
10.22499975461141
 42
0.0
 10
22.7961061648312
 20
9.317398741933775
 42
0.1989123673796613
 10
23.41118192433947
 20
7.832474501442
 42
0.0
 10
24.86608091166181
 20
6.377575514119666
 42
-0.1989123673796402
 10
25.07110616483123
 20
5.88260076728913
 42
0.0
 10
25.07110616483123
 20
5.237499754611391
 42
-0.4142135623730911
 10
24.80860616483124
 20
4.974999754611395
 42
0.0
 10
23.32110616483123
 20
4.974999754611395
 42
0.4142135623731526
 10
23.05860616483119
 20
4.712499754611402
 42
0.0
 10
23.05860616483119
 20
3.837499754611391
 42
0.4142135623730891
 10
23.32110616483118
 20
3.574999754611397
 42
0.0
 10
25.07110616483123
 20
3.574999754611397
 42
0.4142135623730925
 10
26.47110616483121
 20
4.974999754611385
 42
0.0
 10
26.47110616483121
 20
5.882600767289021
 42
0.1989123673796675
 10
25.85603040532294
 20
7.367525007780848
 42
0.0
 10
24.40113141800066
 20
8.822423995103106
 42
-0.1989123673796652
 10
24.19610616483123
 20
9.31739874193369
 42
0.0
 97
        0
 92
        7
 72
     1
 73
     1
 93
       16
 10
28.9211061648312
 20
11.36249975461139
 42
0.414213562373103
 10
28.65860616483121
 20
11.62499975461139
 42
0.0
 10
27.78360616483121
 20
11.62499975461139
 42
0.4142135623730871
 10
27.52110616483122
 20
11.3624997546114
 42
0.0
 10
27.52110616483122
 20
4.974999754611385
 42
0.4142135623730926
 10
28.9211061648312
 20
3.574999754611397
 42
0.0
 10
30.6711061648312
 20
3.574999754611397
 42
0.4142135623731044
 10
32.07110616483123
 20
4.974999754611385
 42
0.0
 10
32.07110616483123
 20
11.36249975461139
 42
0.4142135623730951
 10
31.80860616483125
 20
11.62499975461139
 42
0.0
 10
30.93360616483119
 20
11.62499975461139
 42
0.4142135623730871
 10
30.6711061648312
 20
11.3624997546114
 42
0.0
 10
30.6711061648312
 20
5.499999754611383
 42
-0.414213562373088
 10
30.14610616483122
 20
4.974999754611395
 42
0.0
 10
29.44610616483123
 20
4.974999754611395
 42
-0.4142135623731197
 10
28.9211061648312
 20
5.499999754611383
 42
0.0
 97
        0
 92
        7
 72
     1
 73
     1
 93
        8
 10
34.52110616483122
 20
11.3624997546114
 42
0.4142135623730871
 10
34.25860616483123
 20
11.62499975461139
 42
0.0
 10
33.38360616483123
 20
11.62499975461139
 42
0.4142135623731507
 10
33.12110616483119
 20
11.3624997546114
 42
0.0
 10
33.12110616483119
 20
3.837499754611391
 42
0.4142135623730891
 10
33.38360616483118
 20
3.574999754611397
 42
0.0
 10
34.25860616483123
 20
3.574999754611397
 42
0.4142135623730891
 10
34.52110616483122
 20
3.837499754611391
 42
0.0
 97
        0
 75
     0
 76
     1
 52
0.0
 41
0.1
 77
     0
 78
     2
 53
45.0
 43
-450.4711520798988
 44
-6.600000245388571
 45
-0.2245064030267288
 46
0.2245064030267288
 79
     0
 53
135.0
 43
-450.4711520798988
 44
-6.600000245388571
 45
-0.2245064030267288
 46
-0.2245064030267288
 79
     0
 47
0.057451373970553
 98
        8
 10
8.039927568952293
 20
7.583586577554171
 10
11.20225759066022
 20
9.4220308458369
 10
12.58218403027046
 20
7.755940577646754
 10
15.4570300782592
 20
8.100648577832146
 10
20.919236096919
 20
8.330454711602953
 10
23.44910053500541
 20
9.709287912815
 10
28.27884307364081
 20
9.364578712158902
 10
33.913539897252
 20
9.59438484592971
  0
ARC
  5
7D9
330
1A
100
AcDbEntity
  8
ZUWAKU
100
AcDbCircle
 10
7.746106164831189
 20
9.317398741933747
 30
0.0
 40
2.099999999999999
100
AcDbArc
 50
180.0
 51
225.0
  0
LINE
  5
7DA
330
1A
100
AcDbEntity
  8
ZUWAKU
100
AcDbLine
 10
10.37110616483118
 20
5.674999754611398
 30
0.0
 11
10.37110616483118
 21
9.524999754611375
 31
0.0
  0
LINE
  5
7DB
330
1A
100
AcDbEntity
  8
ZUWAKU
100
AcDbLine
 10
11.77110616483122
 20
9.524999754611396
 30
0.0
 11
11.77110616483122
 21
5.674999754611398
 31
0.0
  0
ARC
  5
7DC
330
1A
100
AcDbEntity
  8
ZUWAKU
100
AcDbCircle
 10
7.746106164831189
 20
9.317398741933747
 30
0.0
 40
0.7
100
AcDbArc
 50
180.0000000000016
 51
224.9999999999988
  0
ARC
  5
7DD
330
1A
100
AcDbEntity
  8
ZUWAKU
100
AcDbCircle
 10
12.47110616483121
 20
5.674999754611398
 30
0.0
 40
2.099999999999999
100
AcDbArc
 50
180.0
 51
270.0
  0
ARC
  5
7DE
330
1A
100
AcDbEntity
  8
ZUWAKU
100
AcDbCircle
 10
7.921106164831201
 20
4.974999754611395
 30
0.0
 40
1.399999999999999
100
AcDbArc
 50
270.0
 51
0.0
  0
ARC
  5
7DF
330
1A
100
AcDbEntity
  8
ZUWAKU
100
AcDbCircle
 10
7.221106164831212
 20
5.882600767289048
 30
0.0
 40
2.099999999999999
100
AcDbArc
 50
0.0
 51
45.0
  0
LINE
  5
7E0
330
1A
100
AcDbEntity
  8
ZUWAKU
100
AcDbLine
 10
6.261181924339439
 20
7.832474501441986
 30
0.0
 11
7.716080911661777
 21
6.377575514119655
 31
0.0
  0
LINE
  5
7E1
330
1A
100
AcDbEntity
  8
ZUWAKU
100
AcDbLine
 10
6.171106164831201
 20
4.974999754611395
 30
0.0
 11
7.658606164831212
 21
4.974999754611395
 31
0.0
  0
LINE
  5
7E2
330
1A
100
AcDbEntity
  8
ZUWAKU
100
AcDbLine
 10
6.171106164831201
 20
3.574999754611397
 30
0.0
 11
7.921106164831201
 21
3.574999754611397
 31
0.0
  0
ARC
  5
7E3
330
1A
100
AcDbEntity
  8
ZUWAKU
100
AcDbCircle
 10
6.171106164831201
 20
4.712499754611396
 30
0.0
 40
0.2625
100
AcDbArc
 50
90.0
 51
180.0
  0
ARC
  5
7E4
330
1A
100
AcDbEntity
  8
ZUWAKU
100
AcDbCircle
 10
6.171106164831201
 20
3.837499754611396
 30
0.0
 40
0.2625
100
AcDbArc
 50
180.0
 51
270.0
  0
LINE
  5
7E5
330
1A
100
AcDbEntity
  8
ZUWAKU
100
AcDbLine
 10
5.908606164831212
 20
3.837499754611396
 30
0.0
 11
5.908606164831212
 21
4.712499754611396
 31
0.0
  0
ARC
  5
7E6
330
1A
100
AcDbEntity
  8
ZUWAKU
100
AcDbCircle
 10
7.221106164831212
 20
5.882600767289069
 30
0.0
 40
0.7
100
AcDbArc
 50
0.0
 51
45.0
  0
ARC
  5
7E7
330
1A
100
AcDbEntity
  8
ZUWAKU
100
AcDbCircle
 10
7.658606164831212
 20
5.237499754611398
 30
0.0
 40
0.2625
100
AcDbArc
 50
270.0
 51
0.0
  0
LINE
  5
7E8
330
1A
100
AcDbEntity
  8
ZUWAKU
100
AcDbLine
 10
7.921106164831201
 20
5.237499754611398
 30
0.0
 11
7.921106164831201
 21
5.882600767289069
 31
0.0
  0
LINE
  5
7E9
330
1A
100
AcDbEntity
  8
ZUWAKU
100
AcDbLine
 10
8.706030405322962
 20
7.367525007780809
 30
0.0
 11
7.251131418000625
 21
8.822423995103147
 31
0.0
  0
ARC
  5
7EA
330
1A
100
AcDbEntity
  8
ZUWAKU
100
AcDbCircle
 10
12.47110616483121
 20
5.674999754611398
 30
0.0
 40
0.7
100
AcDbArc
 50
180.0
 51
270.0
  0
LINE
  5
7EB
330
1A
100
AcDbEntity
  8
ZUWAKU
100
AcDbLine
 10
9.321106164831235
 20
4.974999754611395
 30
0.0
 11
9.321106164831235
 21
5.882600767289069
 31
0.0
  0
ARC
  5
7EC
330
1A
100
AcDbEntity
  8
ZUWAKU
100
AcDbCircle
 10
8.796106164831201
 20
10.48749975461139
 30
0.0
 40
0.2625
100
AcDbArc
 50
270.0
 51
0.0
  0
ARC
  5
7ED
330
1A
100
AcDbEntity
  8
ZUWAKU
100
AcDbCircle
 10
8.796106164831201
 20
11.36249975461139
 30
0.0
 40
0.2625
100
AcDbArc
 50
0.0
 51
90.0
  0
ARC
  5
7EE
330
1A
100
AcDbEntity
  8
ZUWAKU
100
AcDbCircle
 10
7.046106164831201
 20
10.22499975461139
 30
0.0
 40
1.399999999999999
100
AcDbArc
 50
90.0
 51
180.0
  0
LINE
  5
7EF
330
1A
100
AcDbEntity
  8
ZUWAKU
100
AcDbLine
 10
5.646106164831223
 20
10.22499975461139
 30
0.0
 11
5.646106164831223
 21
9.317398741933725
 31
0.0
  0
LINE
  5
7F0
330
1A
100
AcDbEntity
  8
ZUWAKU
100
AcDbLine
 10
8.796106164831201
 20
10.22499975461139
 30
0.0
 11
7.308606164831189
 21
10.22499975461139
 31
0.0
  0
LINE
  5
7F1
330
1A
100
AcDbEntity
  8
ZUWAKU
100
AcDbLine
 10
7.046106164831201
 20
9.962499754611396
 30
0.0
 11
7.046106164831201
 21
9.317398741933725
 31
0.0
  0
ARC
  5
7F2
330
1A
100
AcDbEntity
  8
ZUWAKU
100
AcDbCircle
 10
7.308606164831189
 20
9.962499754611396
 30
0.0
 40
0.2625
100
AcDbArc
 50
90.0
 51
180.0
  0
LINE
  5
7F3
330
1A
100
AcDbEntity
  8
ZUWAKU
100
AcDbLine
 10
7.046106164831201
 20
11.62499975461139
 30
0.0
 11
8.796106164831201
 21
11.62499975461139
 31
0.0
  0
ARC
  5
7F4
330
1A
100
AcDbEntity
  8
ZUWAKU
100
AcDbCircle
 10
12.47110616483121
 20
9.524999754611375
 30
0.0
 40
2.099999999999999
100
AcDbArc
 50
90.0
 51
180.0
  0
ARC
  5
7F5
330
1A
100
AcDbEntity
  8
ZUWAKU
100
AcDbCircle
 10
12.47110616483121
 20
9.524999754611396
 30
0.0
 40
0.7
100
AcDbArc
 50
90.0
 51
180.0
  0
LINE
  5
7F6
330
1A
100
AcDbEntity
  8
ZUWAKU
100
AcDbLine
 10
9.058606164831189
 20
11.36249975461139
 30
0.0
 11
9.058606164831189
 21
10.48749975461139
 31
0.0
  0
LINE
  5
7F7
330
1A
100
AcDbEntity
  8
ZUWAKU
100
AcDbLine
 10
17.83817363348913
 20
11.44154673869488
 30
0.0
 11
16.90403869617324
 21
8.483452770527911
 31
0.0
  0
LINE
  5
7F8
330
1A
100
AcDbEntity
  8
ZUWAKU
100
AcDbLine
 10
14.9211061648312
 20
11.36249975461139
 30
0.0
 11
14.9211061648312
 21
3.837499754611396
 31
0.0
  0
LINE
  5
7F9
330
1A
100
AcDbEntity
  8
ZUWAKU
100
AcDbLine
 10
16.32110616483123
 20
8.562499754611398
 30
0.0
 11
16.32110616483123
 21
11.36249975461139
 31
0.0
  0
LINE
  5
7FA
330
1A
100
AcDbEntity
  8
ZUWAKU
100
AcDbLine
 10
28.9211061648312
 20
5.499999754611394
 30
0.0
 11
28.9211061648312
 21
11.36249975461139
 31
0.0
  0
LINE
  5
7FB
330
1A
100
AcDbEntity
  8
ZUWAKU
100
AcDbLine
 10
27.52110616483122
 20
11.36249975461139
 30
0.0
 11
27.52110616483122
 21
4.974999754611395
 31
0.0
  0
LINE
  5
7FC
330
1A
100
AcDbEntity
  8
ZUWAKU
100
AcDbLine
 10
21.74610616483119
 20
3.837499754611396
 30
0.0
 11
21.74610616483119
 21
11.36249975461139
 31
0.0
  0
LINE
  5
7FD
330
1A
100
AcDbEntity
  8
ZUWAKU
100
AcDbLine
 10
20.34610616483121
 20
11.36249975461139
 30
0.0
 11
20.34610616483121
 21
3.837499754611396
 31
0.0
  0
LINE
  5
7FE
330
1A
100
AcDbEntity
  8
ZUWAKU
100
AcDbLine
 10
18.65742940592019
 20
9.602523351393109
 30
0.0
 11
18.02505353325227
 21
7.599999754611406
 31
0.0
  0
ARC
  5
7FF
330
1A
100
AcDbEntity
  8
ZUWAKU
100
AcDbCircle
 10
24.89610616483122
 20
9.317398741933747
 30
0.0
 40
2.099999999999999
100
AcDbArc
 50
180.0
 51
225.0
  0
ARC
  5
800
330
1A
100
AcDbEntity
  8
ZUWAKU
100
AcDbCircle
 10
24.89610616483122
 20
9.317398741933747
 30
0.0
 40
0.7
100
AcDbArc
 50
180.0000000000016
 51
224.9999999999988
  0
LINE
  5
801
330
1A
100
AcDbEntity
  8
ZUWAKU
100
AcDbLine
 10
33.12110616483119
 20
11.36249975461139
 30
0.0
 11
33.12110616483119
 21
3.837499754611396
 31
0.0
  0
LINE
  5
802
330
1A
100
AcDbEntity
  8
ZUWAKU
100
AcDbLine
 10
34.52110616483122
 20
3.837499754611396
 30
0.0
 11
34.52110616483122
 21
11.36249975461139
 31
0.0
  0
LINE
  5
803
330
1A
100
AcDbEntity
  8
ZUWAKU
100
AcDbLine
 10
30.6711061648312
 20
11.36249975461139
 30
0.0
 11
30.6711061648312
 21
5.499999754611394
 31
0.0
  0
LINE
  5
804
330
1A
100
AcDbEntity
  8
ZUWAKU
100
AcDbLine
 10
32.07110616483123
 20
4.974999754611395
 30
0.0
 11
32.07110616483123
 21
11.36249975461139
 31
0.0
  0
LINE
  5
805
330
1A
100
AcDbEntity
  8
ZUWAKU
100
AcDbLine
 10
39.56331486143483
 20
14.99999975461139
 30
0.0
 11
39.56331486143483
 21
0.3999997546114287
 31
0.0
  0
LINE
  5
806
330
1A
100
AcDbEntity
  8
ZUWAKU
100
AcDbLine
 10
39.76331486143476
 20
14.99999975461139
 30
0.0
 11
39.76331486143488
 21
0.3999997546114287
 31
0.0
  0
LINE
  5
807
330
1A
100
AcDbEntity
  8
ZUWAKU
100
AcDbLine
 10
39.66331486143474
 20
14.99999975461139
 30
0.0
 11
39.66331486143485
 21
0.3999997546114287
 31
0.0
  0
TEXT
  5
808
330
1A
100
AcDbEntity
  8
MOJI
100
AcDbText
 10
46.47889488152521
 20
6.370588819748775
 30
0.0
 40
3.0
  1
ライナートップ
 41
0.9
  7
ｽﾀｲﾙ1
100
AcDbText
  0
LINE
  5
809
330
1A
100
AcDbEntity
  8
ZUWAKU
100
AcDbLine
 10
28.9211061648312
 20
3.574999754611397
 30
0.0
 11
30.6711061648312
 21
3.574999754611397
 31
0.0
  0
LINE
  5
80A
330
1A
100
AcDbEntity
  8
ZUWAKU
100
AcDbLine
 10
30.14610616483122
 20
4.974999754611395
 30
0.0
 11
29.44610616483123
 21
4.974999754611395
 31
0.0
  0
LINE
  5
80B
330
1A
100
AcDbEntity
  8
ZUWAKU
100
AcDbLine
 10
20.6086061648312
 20
3.574999754611397
 30
0.0
 11
21.4836061648312
 21
3.574999754611397
 31
0.0
  0
LINE
  5
80C
330
1A
100
AcDbEntity
  8
ZUWAKU
100
AcDbLine
 10
17.83817363348913
 20
3.75845277052791
 30
0.0
 11
16.90403869617324
 21
6.71654673869488
 31
0.0
  0
ARC
  5
80D
330
1A
100
AcDbEntity
  8
ZUWAKU
100
AcDbCircle
 10
16.58360616483122
 20
6.637499754611397
 30
0.0
 40
0.2625
100
AcDbArc
 50
90.0
 51
180.0
  0
ARC
  5
80E
330
1A
100
AcDbEntity
  8
ZUWAKU
100
AcDbCircle
 10
16.65372324657556
 20
6.637499754611397
 30
0.0
 40
0.2625
100
AcDbArc
 50
17.52556837372303
 51
90.0
  0
ARC
  5
80F
330
1A
100
AcDbEntity
  8
ZUWAKU
100
AcDbCircle
 10
15.18360616483119
 20
3.837499754611396
 30
0.0
 40
0.2625
100
AcDbArc
 50
180.0
 51
270.0
  0
ARC
  5
810
330
1A
100
AcDbEntity
  8
ZUWAKU
100
AcDbCircle
 10
13.43360616483119
 20
4.712499754611396
 30
0.0
 40
0.2625
100
AcDbArc
 50
0.0
 51
90.0
  0
ARC
  5
811
330
1A
100
AcDbEntity
  8
ZUWAKU
100
AcDbCircle
 10
13.43360616483119
 20
3.837499754611396
 30
0.0
 40
0.2625
100
AcDbArc
 50
270.0
 51
0.0
  0
LINE
  5
812
330
1A
100
AcDbEntity
  8
ZUWAKU
100
AcDbLine
 10
13.69610616483123
 20
4.712499754611396
 30
0.0
 11
13.69610616483123
 21
3.837499754611396
 31
0.0
  0
LINE
  5
813
330
1A
100
AcDbEntity
  8
ZUWAKU
100
AcDbLine
 10
16.32110616483123
 20
3.837499754611396
 30
0.0
 11
16.32110616483123
 21
6.637499754611397
 31
0.0
  0
ARC
  5
814
330
1A
100
AcDbEntity
  8
ZUWAKU
100
AcDbCircle
 10
16.05860616483119
 20
3.837499754611396
 30
0.0
 40
0.2625
100
AcDbArc
 50
270.0
 51
0.0
  0
LINE
  5
815
330
1A
100
AcDbEntity
  8
ZUWAKU
100
AcDbLine
 10
15.18360616483119
 20
3.574999754611397
 30
0.0
 11
16.05860616483119
 21
3.574999754611397
 31
0.0
  0
ARC
  5
816
330
1A
100
AcDbEntity
  8
ZUWAKU
100
AcDbCircle
 10
16.58360616483122
 20
8.562499754611398
 30
0.0
 40
0.2625
100
AcDbArc
 50
180.0
 51
270.0
  0
LINE
  5
817
330
1A
100
AcDbEntity
  8
ZUWAKU
100
AcDbLine
 10
16.58360616483122
 20
6.899999754611396
 30
0.0
 11
16.65372324657556
 21
6.899999754611396
 31
0.0
  0
LINE
  5
818
330
1A
100
AcDbEntity
  8
ZUWAKU
100
AcDbLine
 10
16.65372324657556
 20
8.299999754611395
 30
0.0
 11
16.58360616483122
 21
8.299999754611395
 31
0.0
  0
ARC
  5
819
330
1A
100
AcDbEntity
  8
ZUWAKU
100
AcDbCircle
 10
16.65372324657556
 20
8.562499754611398
 30
0.0
 40
0.2625
100
AcDbArc
 50
270.0
 51
342.4744316262769
  0
ARC
  5
81A
330
1A
100
AcDbEntity
  8
ZUWAKU
100
AcDbCircle
 10
18.08848908308687
 20
3.837499754611396
 30
0.0
 40
0.2625
100
AcDbArc
 50
197.525568373723
 51
270.0
  0
LINE
  5
81B
330
1A
100
AcDbEntity
  8
ZUWAKU
100
AcDbLine
 10
19.1882492224891
 20
3.916546738694883
 30
0.0
 11
18.02505353325227
 21
7.599999754611406
 31
0.0
  0
ARC
  5
81C
330
1A
100
AcDbEntity
  8
ZUWAKU
100
AcDbCircle
 10
18.93793377289137
 20
3.837499754611396
 30
0.0
 40
0.2625
100
AcDbArc
 50
270.0
 51
17.52556837372303
  0
LINE
  5
81D
330
1A
100
AcDbEntity
  8
ZUWAKU
100
AcDbLine
 10
18.08848908308687
 20
3.574999754611397
 30
0.0
 11
18.93793377289137
 21
3.574999754611397
 31
0.0
  0
ARC
  5
81E
330
1A
100
AcDbEntity
  8
ZUWAKU
100
AcDbCircle
 10
20.6086061648312
 20
3.837499754611396
 30
0.0
 40
0.2625
100
AcDbArc
 50
180.0
 51
270.0
  0
ARC
  5
81F
330
1A
100
AcDbEntity
  8
ZUWAKU
100
AcDbCircle
 10
25.07110616483123
 20
4.974999754611395
 30
0.0
 40
1.399999999999999
100
AcDbArc
 50
270.0
 51
0.0
  0
ARC
  5
820
330
1A
100
AcDbEntity
  8
ZUWAKU
100
AcDbCircle
 10
28.9211061648312
 20
4.974999754611395
 30
0.0
 40
1.399999999999999
100
AcDbArc
 50
180.0
 51
270.0
  0
LINE
  5
821
330
1A
100
AcDbEntity
  8
ZUWAKU
100
AcDbLine
 10
25.856030405323
 20
7.367525007780809
 30
0.0
 11
24.4011314180006
 21
8.822423995103147
 31
0.0
  0
LINE
  5
822
330
1A
100
AcDbEntity
  8
ZUWAKU
100
AcDbLine
 10
23.41118192433947
 20
7.832474501441986
 30
0.0
 11
24.86608091166181
 21
6.377575514119655
 31
0.0
  0
LINE
  5
823
330
1A
100
AcDbEntity
  8
ZUWAKU
100
AcDbLine
 10
23.32110616483123
 20
3.574999754611397
 30
0.0
 11
25.07110616483123
 21
3.574999754611397
 31
0.0
  0
LINE
  5
824
330
1A
100
AcDbEntity
  8
ZUWAKU
100
AcDbLine
 10
23.32110616483123
 20
4.974999754611395
 30
0.0
 11
24.80860616483119
 21
4.974999754611395
 31
0.0
  0
ARC
  5
825
330
1A
100
AcDbEntity
  8
ZUWAKU
100
AcDbCircle
 10
23.32110616483123
 20
4.712499754611396
 30
0.0
 40
0.2625
100
AcDbArc
 50
90.0
 51
180.0
  0
ARC
  5
826
330
1A
100
AcDbEntity
  8
ZUWAKU
100
AcDbCircle
 10
21.4836061648312
 20
3.837499754611396
 30
0.0
 40
0.2625
100
AcDbArc
 50
270.0
 51
0.0
  0
ARC
  5
827
330
1A
100
AcDbEntity
  8
ZUWAKU
100
AcDbCircle
 10
23.32110616483123
 20
3.837499754611396
 30
0.0
 40
0.2625
100
AcDbArc
 50
180.0
 51
270.0
  0
LINE
  5
828
330
1A
100
AcDbEntity
  8
ZUWAKU
100
AcDbLine
 10
23.05860616483119
 20
3.837499754611396
 30
0.0
 11
23.05860616483119
 21
4.712499754611396
 31
0.0
  0
ARC
  5
829
330
1A
100
AcDbEntity
  8
ZUWAKU
100
AcDbCircle
 10
24.80860616483119
 20
5.237499754611398
 30
0.0
 40
0.2625
100
AcDbArc
 50
270.0
 51
0.0
  0
ARC
  5
82A
330
1A
100
AcDbEntity
  8
ZUWAKU
100
AcDbCircle
 10
24.37110616483119
 20
5.882600767289069
 30
0.0
 40
0.7
100
AcDbArc
 50
0.0
 51
45.0
  0
LINE
  5
82B
330
1A
100
AcDbEntity
  8
ZUWAKU
100
AcDbLine
 10
25.07110616483123
 20
5.237499754611398
 30
0.0
 11
25.07110616483123
 21
5.882600767289069
 31
0.0
  0
ARC
  5
82C
330
1A
100
AcDbEntity
  8
ZUWAKU
100
AcDbCircle
 10
29.44610616483123
 20
5.499999754611394
 30
0.0
 40
0.525
100
AcDbArc
 50
180.0
 51
270.0
  0
ARC
  5
82D
330
1A
100
AcDbEntity
  8
ZUWAKU
100
AcDbCircle
 10
24.37110616483119
 20
5.882600767289048
 30
0.0
 40
2.099999999999999
100
AcDbArc
 50
0.0
 51
45.0
  0
LINE
  5
82E
330
1A
100
AcDbEntity
  8
ZUWAKU
100
AcDbLine
 10
26.47110616483121
 20
4.974999754611395
 30
0.0
 11
26.47110616483121
 21
5.882600767289069
 31
0.0
  0
ARC
  5
82F
330
1A
100
AcDbEntity
  8
ZUWAKU
100
AcDbCircle
 10
30.6711061648312
 20
4.974999754611395
 30
0.0
 40
1.399999999999999
100
AcDbArc
 50
270.0
 51
0.0
  0
LINE
  5
830
330
1A
100
AcDbEntity
  8
ZUWAKU
100
AcDbLine
 10
33.38360616483123
 20
3.574999754611397
 30
0.0
 11
34.25860616483123
 21
3.574999754611397
 31
0.0
  0
ARC
  5
831
330
1A
100
AcDbEntity
  8
ZUWAKU
100
AcDbCircle
 10
30.14610616483122
 20
5.499999754611394
 30
0.0
 40
0.525
100
AcDbArc
 50
270.0
 51
0.0
  0
ARC
  5
832
330
1A
100
AcDbEntity
  8
ZUWAKU
100
AcDbCircle
 10
33.38360616483123
 20
3.837499754611396
 30
0.0
 40
0.2625
100
AcDbArc
 50
180.0
 51
270.0
  0
ARC
  5
833
330
1A
100
AcDbEntity
  8
ZUWAKU
100
AcDbCircle
 10
34.25860616483123
 20
3.837499754611396
 30
0.0
 40
0.2625
100
AcDbArc
 50
270.0
 51
0.0
  0
LINE
  5
834
330
1A
100
AcDbEntity
  8
ZUWAKU
100
AcDbLine
 10
21.4836061648312
 20
11.62499975461139
 30
0.0
 11
20.6086061648312
 21
11.62499975461139
 31
0.0
  0
LINE
  5
835
330
1A
100
AcDbEntity
  8
ZUWAKU
100
AcDbLine
 10
13.69610616483123
 20
11.36249975461139
 30
0.0
 11
13.69610616483123
 21
10.48749975461139
 31
0.0
  0
ARC
  5
836
330
1A
100
AcDbEntity
  8
ZUWAKU
100
AcDbCircle
 10
13.43360616483119
 20
10.48749975461139
 30
0.0
 40
0.2625
100
AcDbArc
 50
270.0
 51
0.0
  0
ARC
  5
837
330
1A
100
AcDbEntity
  8
ZUWAKU
100
AcDbCircle
 10
15.18360616483119
 20
11.36249975461139
 30
0.0
 40
0.2625
100
AcDbArc
 50
90.0
 51
180.0
  0
ARC
  5
838
330
1A
100
AcDbEntity
  8
ZUWAKU
100
AcDbCircle
 10
13.43360616483119
 20
11.36249975461139
 30
0.0
 40
0.2625
100
AcDbArc
 50
0.0
 51
90.0
  0
LINE
  5
839
330
1A
100
AcDbEntity
  8
ZUWAKU
100
AcDbLine
 10
16.05860616483119
 20
11.62499975461139
 30
0.0
 11
15.18360616483119
 21
11.62499975461139
 31
0.0
  0
ARC
  5
83A
330
1A
100
AcDbEntity
  8
ZUWAKU
100
AcDbCircle
 10
16.05860616483119
 20
11.36249975461139
 30
0.0
 40
0.2625
100
AcDbArc
 50
0.0
 51
90.0
  0
ARC
  5
83B
330
1A
100
AcDbEntity
  8
ZUWAKU
100
AcDbCircle
 10
18.08848908308687
 20
11.36249975461139
 30
0.0
 40
0.2625
100
AcDbArc
 50
90.0
 51
162.4744316262769
  0
LINE
  5
83C
330
1A
100
AcDbEntity
  8
ZUWAKU
100
AcDbLine
 10
19.1882492224891
 20
11.28345277052791
 30
0.0
 11
18.65742940592019
 21
9.602523351393109
 31
0.0
  0
ARC
  5
83D
330
1A
100
AcDbEntity
  8
ZUWAKU
100
AcDbCircle
 10
18.93793377289137
 20
11.36249975461139
 30
0.0
 40
0.2625
100
AcDbArc
 50
342.4744316262769
 51
90.0
  0
LINE
  5
83E
330
1A
100
AcDbEntity
  8
ZUWAKU
100
AcDbLine
 10
18.08848908308687
 20
11.62499975461139
 30
0.0
 11
18.93793377289137
 21
11.62499975461139
 31
0.0
  0
ARC
  5
83F
330
1A
100
AcDbEntity
  8
ZUWAKU
100
AcDbCircle
 10
20.6086061648312
 20
11.36249975461139
 30
0.0
 40
0.2625
100
AcDbArc
 50
90.0
 51
180.0
  0
LINE
  5
840
330
1A
100
AcDbEntity
  8
ZUWAKU
100
AcDbLine
 10
25.94610616483123
 20
10.22499975461139
 30
0.0
 11
24.45860616483122
 21
10.22499975461139
 31
0.0
  0
LINE
  5
841
330
1A
100
AcDbEntity
  8
ZUWAKU
100
AcDbLine
 10
24.19610616483123
 20
11.62499975461139
 30
0.0
 11
25.94610616483123
 21
11.62499975461139
 31
0.0
  0
ARC
  5
842
330
1A
100
AcDbEntity
  8
ZUWAKU
100
AcDbCircle
 10
24.19610616483123
 20
10.22499975461139
 30
0.0
 40
1.399999999999999
100
AcDbArc
 50
90.0
 51
180.0
  0
LINE
  5
843
330
1A
100
AcDbEntity
  8
ZUWAKU
100
AcDbLine
 10
22.7961061648312
 20
10.22499975461139
 30
0.0
 11
22.7961061648312
 21
9.317398741933725
 31
0.0
  0
ARC
  5
844
330
1A
100
AcDbEntity
  8
ZUWAKU
100
AcDbCircle
 10
21.4836061648312
 20
11.36249975461139
 30
0.0
 40
0.2625
100
AcDbArc
 50
0.0
 51
90.0
  0
LINE
  5
845
330
1A
100
AcDbEntity
  8
ZUWAKU
100
AcDbLine
 10
24.19610616483123
 20
9.962499754611396
 30
0.0
 11
24.19610616483123
 21
9.317398741933725
 31
0.0
  0
ARC
  5
846
330
1A
100
AcDbEntity
  8
ZUWAKU
100
AcDbCircle
 10
24.45860616483122
 20
9.962499754611396
 30
0.0
 40
0.2625
100
AcDbArc
 50
90.0
 51
180.0
  0
LINE
  5
847
330
1A
100
AcDbEntity
  8
ZUWAKU
100
AcDbLine
 10
26.20860616483122
 20
11.36249975461139
 30
0.0
 11
26.20860616483122
 21
10.48749975461139
 31
0.0
  0
ARC
  5
848
330
1A
100
AcDbEntity
  8
ZUWAKU
100
AcDbCircle
 10
25.94610616483123
 20
10.48749975461139
 30
0.0
 40
0.2625
100
AcDbArc
 50
270.0
 51
0.0
  0
ARC
  5
849
330
1A
100
AcDbEntity
  8
ZUWAKU
100
AcDbCircle
 10
25.94610616483123
 20
11.36249975461139
 30
0.0
 40
0.2625
100
AcDbArc
 50
0.0
 51
90.0
  0
LINE
  5
84A
330
1A
100
AcDbEntity
  8
ZUWAKU
100
AcDbLine
 10
28.65860616483121
 20
11.62499975461139
 30
0.0
 11
27.78360616483121
 21
11.62499975461139
 31
0.0
  0
ARC
  5
84B
330
1A
100
AcDbEntity
  8
ZUWAKU
100
AcDbCircle
 10
27.78360616483121
 20
11.36249975461139
 30
0.0
 40
0.2625
100
AcDbArc
 50
90.0
 51
180.0
  0
ARC
  5
84C
330
1A
100
AcDbEntity
  8
ZUWAKU
100
AcDbCircle
 10
28.65860616483121
 20
11.36249975461139
 30
0.0
 40
0.2625
100
AcDbArc
 50
0.0
 51
90.0
  0
LINE
  5
84D
330
1A
100
AcDbEntity
  8
ZUWAKU
100
AcDbLine
 10
34.25860616483123
 20
11.62499975461139
 30
0.0
 11
33.38360616483123
 21
11.62499975461139
 31
0.0
  0
ARC
  5
84E
330
1A
100
AcDbEntity
  8
ZUWAKU
100
AcDbCircle
 10
30.93360616483119
 20
11.36249975461139
 30
0.0
 40
0.2625
100
AcDbArc
 50
90.0
 51
180.0
  0
LINE
  5
84F
330
1A
100
AcDbEntity
  8
ZUWAKU
100
AcDbLine
 10
31.80860616483119
 20
11.62499975461139
 30
0.0
 11
30.93360616483119
 21
11.62499975461139
 31
0.0
  0
ARC
  5
850
330
1A
100
AcDbEntity
  8
ZUWAKU
100
AcDbCircle
 10
31.80860616483119
 20
11.36249975461139
 30
0.0
 40
0.2625
100
AcDbArc
 50
0.0
 51
90.0
  0
ARC
  5
851
330
1A
100
AcDbEntity
  8
ZUWAKU
100
AcDbCircle
 10
33.38360616483123
 20
11.36249975461139
 30
0.0
 40
0.2625
100
AcDbArc
 50
90.0
 51
180.0
  0
ARC
  5
852
330
1A
100
AcDbEntity
  8
ZUWAKU
100
AcDbCircle
 10
34.25860616483123
 20
11.36249975461139
 30
0.0
 40
0.2625
100
AcDbArc
 50
0.0
 51
90.0
  0
TEXT
  5
853
330
1A
100
AcDbEntity
  8
MOJI
100
AcDbText
 10
119.9136014278661
 20
1.602460283315105
 30
0.0
 40
2.799999999999999
  1
Ｘ４０－０寸－２０m/m（６分）
 41
0.9
  7
ｽﾀｲﾙ1
100
AcDbText
  0
TEXT
  5
854
330
1A
100
AcDbEntity
  8
MOJI
100
AcDbText
 10
119.9136014278661
 20
9.002460283315087
 30
0.0
 40
2.799999999999999
  1
ステンレス金具正面打（吊）固定式
 41
0.9
  7
ｽﾀｲﾙ1
100
AcDbText
  0
LINE
  5
855
330
1A
100
AcDbEntity
  8
ZUWAKU
100
AcDbLine
 10
104.2233007324745
 20
14.99999975461139
 30
0.0
 11
104.2233007324746
 21
0.3999997546114287
 31
0.0
  0
LINE
  5
856
330
1A
100
AcDbEntity
  8
ZUWAKU
100
AcDbLine
 10
104.3233007324745
 20
14.99999975461139
 30
0.0
 11
104.3233007324746
 21
0.3999997546114287
 31
0.0
  0
LINE
  5
857
330
1A
100
AcDbEntity
  8
ZUWAKU
100
AcDbLine
 10
104.1233007324745
 20
14.99999975461139
 30
0.0
 11
104.1233007324745
 21
0.3999997546114287
 31
0.0
  0
TEXT
  5
858
330
1A
100
AcDbEntity
  8
ZUWAKU
100
AcDbText
 10
104.8620232435794
 20
4.827678023804203
 30
0.0
 40
2.0
  1
サイズ
 41
0.9
  7
ｽﾀｲﾙ1
100
AcDbText
  0
TEXT
  5
859
330
1A
100
AcDbEntity
  8
ZUWAKU
100
AcDbText
 10
104.8620232435792
 20
12.02767802380418
 30
0.0
 40
2.0
  1
品名
 41
0.9
  7
ｽﾀｲﾙ1
100
AcDbText
  0
TEXT
  5
85A
330
1A
100
AcDbEntity
  8
ZUWAKU
100
AcDbText
 10
329.1019689310918
 20
9.002460283315087
 30
0.0
 40
2.799999999999999
  1
　　．　　．　　
 41
0.9
  7
ｽﾀｲﾙ1
100
AcDbText
  0
LINE
  5
85B
330
1A
100
AcDbEntity
  8
ZUWAKU
100
AcDbLine
 10
324.4086013425427
 20
7.799999754611411
 30
0.0
 11
348.6245053617112
 21
7.799999754611411
 31
0.0
  0
LINE
  5
85C
330
1A
100
AcDbEntity
  8
ZUWAKU
100
AcDbLine
 10
324.4086013425428
 20
7.699999754611413
 30
0.0
 11
348.6245053617112
 21
7.699999754611411
 31
0.0
  0
LINE
  5
85D
330
1A
100
AcDbEntity
  8
ZUWAKU
100
AcDbLine
 10
324.4086013425427
 20
7.59999975461141
 30
0.0
 11
348.6245053617112
 21
7.599999754611411
 31
0.0
  0
LINE
  5
85E
330
1A
100
AcDbEntity
  8
ZUWAKU
100
AcDbLine
 10
252.599589836511
 20
7.799999754611411
 30
0.0
 11
276.2634779704968
 21
7.799999754611411
 31
0.0
  0
LINE
  5
85F
330
1A
100
AcDbEntity
  8
ZUWAKU
100
AcDbLine
 10
252.599589836511
 20
7.699999754611411
 30
0.0
 11
276.2634779704968
 21
7.699999754611411
 31
0.0
  0
LINE
  5
860
330
1A
100
AcDbEntity
  8
ZUWAKU
100
AcDbLine
 10
252.599589836511
 20
7.599999754611413
 30
0.0
 11
276.2634779704968
 21
7.599999754611413
 31
0.0
  0
LINE
  5
861
330
1A
100
AcDbEntity
  8
ZUWAKU
100
AcDbLine
 10
252.3995898365111
 20
14.99999975461139
 30
0.0
 11
252.3995898365111
 21
0.3999997546114287
 31
0.0
  0
LINE
  5
862
330
1A
100
AcDbEntity
  8
ZUWAKU
100
AcDbLine
 10
252.599589836511
 20
14.99999975461139
 30
0.0
 11
252.5995898365112
 21
0.3999997546114287
 31
0.0
  0
LINE
  5
863
330
1A
100
AcDbEntity
  8
ZUWAKU
100
AcDbLine
 10
252.499589836511
 20
14.99999975461139
 30
0.0
 11
252.4995898365111
 21
0.3999997546114287
 31
0.0
  0
TEXT
  5
864
330
1A
100
AcDbEntity
  8
MOJI
100
AcDbText
 10
264.020454073597
 20
9.002460283315087
 30
0.0
 40
2.799999999999999
  1
Ａ３
 41
0.9
  7
ｽﾀｲﾙ1
100
AcDbText
  0
LINE
  5
865
330
1A
100
AcDbEntity
  8
ZUWAKU
100
AcDbLine
 10
223.7121820729363
 20
14.99999975461139
 30
0.0
 11
223.7121820729363
 21
0.3999997546114287
 31
0.0
  0
LINE
  5
866
330
1A
100
AcDbEntity
  8
ZUWAKU
100
AcDbLine
 10
223.9121820729362
 20
14.99999975461139
 30
0.0
 11
223.9121820729363
 21
0.3999997546114287
 31
0.0
  0
LINE
  5
867
330
1A
100
AcDbEntity
  8
ZUWAKU
100
AcDbLine
 10
223.8121820729362
 20
14.99999975461139
 30
0.0
 11
223.8121820729363
 21
0.3999997546114287
 31
0.0
  0
TEXT
  5
868
330
1A
100
AcDbEntity
  8
MOJI
100
AcDbText
 10
231.2836392484349
 20
5.971308615441387
 30
0.0
 40
2.799999999999999
  1
ＬＤ１４Ｇ
 41
0.9
  7
ｽﾀｲﾙ1
100
AcDbText
  0
TEXT
  5
869
330
1A
100
AcDbEntity
  8
ZUWAKU
100
AcDbText
 10
253.338312347616
 20
4.827678023804203
 30
0.0
 40
2.0
  1
縮尺
 41
0.9
  7
ｽﾀｲﾙ1
100
AcDbText
  0
TEXT
  5
86A
330
1A
100
AcDbEntity
  8
MOJI
100
AcDbText
 10
264.020454073597
 20
1.602460283315105
 30
0.0
 40
2.799999999999999
  1
１/１
 41
0.9
  7
ｽﾀｲﾙ1
100
AcDbText
  0
TEXT
  5
86B
330
1A
100
AcDbEntity
  8
ZUWAKU
100
AcDbText
 10
224.6509045840411
 20
12.02767802380418
 30
0.0
 40
2.0
  1
品番
 41
0.9
  7
ｽﾀｲﾙ1
100
AcDbText
  0
TEXT
  5
86C
330
1A
100
AcDbEntity
  8
ZUWAKU
100
AcDbText
 10
253.3383123476159
 20
12.02767802380418
 30
0.0
 40
2.0
  1
用紙
 41
0.9
  7
ｽﾀｲﾙ1
100
AcDbText
  0
LINE
  5
86D
330
1A
100
AcDbEntity
  8
ZUWAKU
100
AcDbLine
 10
276.2634779704968
 20
14.99999975461139
 30
0.0
 11
276.2634779704968
 21
0.3999997546114287
 31
0.0
  0
LINE
  5
86E
330
1A
100
AcDbEntity
  8
ZUWAKU
100
AcDbLine
 10
276.4634779704968
 20
14.99999975461139
 30
0.0
 11
276.4634779704969
 21
0.3999997546114287
 31
0.0
  0
LINE
  5
86F
330
1A
100
AcDbEntity
  8
ZUWAKU
100
AcDbLine
 10
276.3634779704967
 20
14.99999975461139
 30
0.0
 11
276.3634779704968
 21
0.3999997546114287
 31
0.0
  0
LINE
  5
870
330
1A
100
AcDbEntity
  8
ZUWAKU
100
AcDbLine
 10
324.2086013425429
 20
14.99999975461139
 30
0.0
 11
324.2086013425429
 21
0.3999997546114287
 31
0.0
  0
LINE
  5
871
330
1A
100
AcDbEntity
  8
ZUWAKU
100
AcDbLine
 10
324.4086013425428
 20
14.99999975461139
 30
0.0
 11
324.4086013425429
 21
0.3999997546114287
 31
0.0
  0
LINE
  5
872
330
1A
100
AcDbEntity
  8
ZUWAKU
100
AcDbLine
 10
324.3086013425428
 20
14.99999975461139
 30
0.0
 11
324.3086013425429
 21
0.3999997546114287
 31
0.0
  0
TEXT
  5
873
330
1A
100
AcDbEntity
  8
ZUWAKU
100
AcDbText
 10
325.1473238536476
 20
12.02767802380418
 30
0.0
 40
2.0
  1
DATE
 41
0.9
  7
ｽﾀｲﾙ1
100
AcDbText
  0
TEXT
  5
874
330
1A
100
AcDbEntity
  8
ZUWAKU
100
AcDbText
 10
354.2640421835625
 20
8.776919422454795
 30
0.0
 40
3.0
  1
積水化学工業株式会社
 41
0.9
  7
ｽﾀｲﾙ1
100
AcDbText
  0
LINE
  5
875
330
1A
100
AcDbEntity
  8
ZUWAKU
100
AcDbLine
 10
348.9245053617112
 20
14.99999975461139
 30
0.0
 11
348.9245053617113
 21
0.3999997546114287
 31
0.0
  0
LINE
  5
876
330
1A
100
AcDbEntity
  8
ZUWAKU
100
AcDbLine
 10
348.8245053617112
 20
14.99999975461139
 30
0.0
 11
348.8245053617113
 21
0.3999997546114287
 31
0.0
  0
LINE
  5
877
330
1A
100
AcDbEntity
  8
ZUWAKU
100
AcDbLine
 10
348.7245053617113
 20
14.99999975461139
 30
0.0
 11
348.7245053617113
 21
0.3999997546114287
 31
0.0
  0
LINE
  5
878
330
1A
100
AcDbEntity
  8
ZUWAKU
100
AcDbLine
 10
348.6245053617112
 20
14.99999975461139
 30
0.0
 11
348.6245053617112
 21
0.3999997546114287
 31
0.0
  0
TEXT
  5
879
330
1A
100
AcDbEntity
  8
ZUWAKU
100
AcDbText
 10
354.2640421835625
 20
3.324419911538427
 30
0.0
 40
3.0
  1
建材事業部
 41
0.9
  7
ｽﾀｲﾙ1
100
AcDbText
  0
VIEWPORT
  5
22
330
17
100
AcDbEntity
 67
     1
  8
0
100
AcDbViewport
 10
313.6808219178082
 20
148.5
 30
0.0
 40
627.3616438356165
 41
297.0
 68
     2
 69
     1
1001
ACAD
1000
MVIEW
1002
{
1070
    16
1010
0.0
1020
0.0
1030
0.0
1010
0.0
1020
0.0
1030
1.0
1040
0.0
1040
297.0
1040
313.6808219178082
1040
148.5
1040
50.0
1040
0.0
1040
0.0
1070
     0
1070
   100
1070
     1
1070
     0
1070
     0
1070
     0
1070
     0
1070
     0
1040
0.0
1040
0.0
1040
0.0
1040
1.0
1040
1.0
1040
10.0
1040
10.0
1070
     0
1002
{
1002
}
1002
}
  0
VIEWPORT
  5
64
330
17
100
AcDbEntity
 67
     1
  8
VIEWPORT
100
AcDbViewport
 10
210.0
 20
148.5
 30
0.0
 40
420.0
 41
297.0
 68
     1
 69
     2
1001
ACAD
1000
MVIEW
1002
{
1070
    16
1010
0.0
1020
0.0
1030
0.0
1010
0.0
1020
0.0
1030
1.0
1040
0.0
1040
302.9399999999998
1040
210.0
1040
148.5
1040
50.0
1040
0.0
1040
0.0
1070
     0
1070
   100
1070
     1
1070
     0
1070
     0
1070
     0
1070
     0
1070
     0
1040
0.0
1040
0.0
1040
0.0
1040
5.0
1040
5.0
1040
0.0
1040
0.0
1070
     0
1002
{
1002
}
1002
}
  0
ENDSEC
  0
SECTION
  2
OBJECTS
  0
DICTIONARY
  5
C
330
0
100
AcDbDictionary
  3
ACAD_GROUP
350
D
  3
ACAD_LAYOUT
350
626
  3
ACAD_MLINESTYLE
350
E
  3
ACAD_PLOTSETTINGS
350
627
  3
ACAD_PLOTSTYLENAME
350
624
  3
ACDBHEADERROUNDTRIPXREC
350
881
  0
DICTIONARY
  5
657
330
1A
100
AcDbDictionary
280
     1
  3
ACAD_LAYOUTSELFREF
360
8A3
  0
DICTIONARY
  5
655
330
17
100
AcDbDictionary
280
     1
  3
ACAD_LAYOUTSELFREF
360
8A2
  0
DICTIONARY
  5
D
102
{ACAD_REACTORS
330
C
102
}
330
C
100
AcDbDictionary
  0
DICTIONARY
  5
626
102
{ACAD_REACTORS
330
C
102
}
330
C
100
AcDbDictionary
  0
DICTIONARY
  5
E
102
{ACAD_REACTORS
330
C
102
}
330
C
100
AcDbDictionary
  3
STANDARD
350
13
  0
DICTIONARY
  5
627
102
{ACAD_REACTORS
330
C
102
}
330
C
100
AcDbDictionary
  0
ACDBDICTIONARYWDFLT
  5
624
102
{ACAD_REACTORS
330
C
102
}
330
C
100
AcDbDictionary
281
     1
  3
Normal
350
625
100
AcDbDictionaryWithDefault
340
625
1001
ACAD
1000
TREAT_AS_HARD
1070
     0
1000
TREAT_AS_HARD
1070
     0
  0
DICTIONARY
  5
881
102
{ACAD_REACTORS
330
C
102
}
330
C
100
AcDbDictionary
  3
TSTACKALIGN
350
882
  3
TSTACKSIZE
350
883
  3
HYPERLINKBASE
350
884
  3
STYLESHEET
350
885
  3
LAYOUTDICT
350
886
  3
PLOTSETDICT
350
887
  3
PLOTSTYLNAMDICT
350
888
  3
LWETCUNION
350
889
  3
INSUNITS
350
88A
  3
CEPSNTYPE
350
88B
  3
FINGERPRINTGUID
350
88C
  3
VERSIONGUID
350
88D
  3
PSVPSCALE
350
88E
  3
DIMSTYLEDATA
350
88F
  3
PUCSORTHOREF
350
890
  3
PUCSORTHOVIEW
350
891
  3
PUCSBASE
350
892
  3
PUCSORGTOP
350
893
  3
PUCSORGBOTTOM
350
894
  3
PUCSORGLEFT
350
895
  3
PUCSORGRIGHT
350
896
  3
PUCSORGFRONT
350
897
  3
PUCSORGBACK
350
898
  3
UCSORTHOREF
350
899
  3
UCSORTHOVIEW
350
89A
  3
UCSBASE
350
89B
  3
UCSORGTOP
350
89C
  3
UCSORGBOTTOM
350
89D
  3
UCSORGLEFT
350
89E
  3
UCSORGRIGHT
350
89F
  3
UCSORGFRONT
350
8A0
  3
UCSORGBACK
350
8A1
  0
XRECORD
  5
8A3
102
{ACAD_REACTORS
330
657
102
}
330
657
100
AcDbXrecord
340
1A
  0
XRECORD
  5
8A2
102
{ACAD_REACTORS
330
655
102
}
330
655
100
AcDbXrecord
340
17
  0
MLINESTYLE
  5
13
102
{ACAD_REACTORS
330
E
102
}
330
E
100
AcDbMlineStyle
  2
STANDARD
 70
     0
  3

 62
     0
 51
90.0
 52
90.0
 71
     2
 49
0.5
 62
   256
  6
BYLAYER
 49
-0.5
 62
   256
  6
BYLAYER
  0
ACDBPLACEHOLDER
  5
625
102
{ACAD_REACTORS
330
624
102
}
330
624
100
AcDbPlaceHolder
280
     0
  0
XRECORD
  5
882
102
{ACAD_REACTORS
330
881
102
}
330
881
100
AcDbXrecord
 90
        1
  0
XRECORD
  5
883
102
{ACAD_REACTORS
330
881
102
}
330
881
100
AcDbXrecord
 90
       70
  0
XRECORD
  5
884
102
{ACAD_REACTORS
330
881
102
}
330
881
100
AcDbXrecord
  1

  0
XRECORD
  5
885
102
{ACAD_REACTORS
330
881
102
}
330
881
100
AcDbXrecord
  1
systemprinter.ctb
  0
XRECORD
  5
886
102
{ACAD_REACTORS
330
881
102
}
330
881
100
AcDbXrecord
340
626
  0
XRECORD
  5
887
102
{ACAD_REACTORS
330
881
102
}
330
881
100
AcDbXrecord
340
627
  0
XRECORD
  5
888
102
{ACAD_REACTORS
330
881
102
}
330
881
100
AcDbXrecord
340
624
  0
XRECORD
  5
889
102
{ACAD_REACTORS
330
881
102
}
330
881
100
AcDbXrecord
 90
    10781
  0
XRECORD
  5
88A
102
{ACAD_REACTORS
330
881
102
}
330
881
100
AcDbXrecord
 90
        0
  0
XRECORD
  5
88B
102
{ACAD_REACTORS
330
881
102
}
330
881
100
AcDbXrecord
 90
        0
  0
XRECORD
  5
88C
102
{ACAD_REACTORS
330
881
102
}
330
881
100
AcDbXrecord
  1
{B4A10C59-E6FE-4829-A865-0AE562E86BE0}
  0
XRECORD
  5
88D
102
{ACAD_REACTORS
330
881
102
}
330
881
100
AcDbXrecord
  1
{93578FCF-4247-42ED-86D1-08EC3C41ABB4}
  0
XRECORD
  5
88E
102
{ACAD_REACTORS
330
881
102
}
330
881
100
AcDbXrecord
 40
0.0
  0
XRECORD
  5
88F
102
{ACAD_REACTORS
330
881
102
}
330
881
100
AcDbXrecord
1000
DSTYLE
1002
{
1070
   341
340
B2
1070
   343
340
B2
1070
   344
340
B2
1070
   371
 70
    -1
1070
   372
 70
    -1
1002
}
  0
XRECORD
  5
890
102
{ACAD_REACTORS
330
881
102
}
330
881
100
AcDbXrecord
340
0
  0
XRECORD
  5
891
102
{ACAD_REACTORS
330
881
102
}
330
881
100
AcDbXrecord
 70
     0
  0
XRECORD
  5
892
102
{ACAD_REACTORS
330
881
102
}
330
881
100
AcDbXrecord
340
0
  0
XRECORD
  5
893
102
{ACAD_REACTORS
330
881
102
}
330
881
100
AcDbXrecord
 10
0.0
 20
0.0
 30
0.0
  0
XRECORD
  5
894
102
{ACAD_REACTORS
330
881
102
}
330
881
100
AcDbXrecord
 10
0.0
 20
0.0
 30
0.0
  0
XRECORD
  5
895
102
{ACAD_REACTORS
330
881
102
}
330
881
100
AcDbXrecord
 10
0.0
 20
0.0
 30
0.0
  0
XRECORD
  5
896
102
{ACAD_REACTORS
330
881
102
}
330
881
100
AcDbXrecord
 10
0.0
 20
0.0
 30
0.0
  0
XRECORD
  5
897
102
{ACAD_REACTORS
330
881
102
}
330
881
100
AcDbXrecord
 10
0.0
 20
0.0
 30
0.0
  0
XRECORD
  5
898
102
{ACAD_REACTORS
330
881
102
}
330
881
100
AcDbXrecord
 10
0.0
 20
0.0
 30
0.0
  0
XRECORD
  5
899
102
{ACAD_REACTORS
330
881
102
}
330
881
100
AcDbXrecord
340
0
  0
XRECORD
  5
89A
102
{ACAD_REACTORS
330
881
102
}
330
881
100
AcDbXrecord
 70
     0
  0
XRECORD
  5
89B
102
{ACAD_REACTORS
330
881
102
}
330
881
100
AcDbXrecord
340
0
  0
XRECORD
  5
89C
102
{ACAD_REACTORS
330
881
102
}
330
881
100
AcDbXrecord
 10
0.0
 20
0.0
 30
0.0
  0
XRECORD
  5
89D
102
{ACAD_REACTORS
330
881
102
}
330
881
100
AcDbXrecord
 10
0.0
 20
0.0
 30
0.0
  0
XRECORD
  5
89E
102
{ACAD_REACTORS
330
881
102
}
330
881
100
AcDbXrecord
 10
0.0
 20
0.0
 30
0.0
  0
XRECORD
  5
89F
102
{ACAD_REACTORS
330
881
102
}
330
881
100
AcDbXrecord
 10
0.0
 20
0.0
 30
0.0
  0
XRECORD
  5
8A0
102
{ACAD_REACTORS
330
881
102
}
330
881
100
AcDbXrecord
 10
0.0
 20
0.0
 30
0.0
  0
XRECORD
  5
8A1
102
{ACAD_REACTORS
330
881
102
}
330
881
100
AcDbXrecord
 10
0.0
 20
0.0
 30
0.0
  0
ENDSEC
  0
EOF
