  0
SECTION
  2
HEADER
  9
$ACADVER
  1
AC1014
  9
$ACADMAINTVER
 70
     9
  9
$DWGCODEPAGE
  3
ANSI_932
  9
$INSBASE
 10
0.0
 20
0.0
 30
0.0
  9
$EXTMIN
 10
-0.0128164049386896
 20
-0.009063274602795
 30
-0.0015258207003583
  9
$EXTMAX
 10
398.8000497813338
 20
275.8226172265043
 30
0.0000000349246037
  9
$LIMMIN
 10
0.0
 20
0.0
  9
$LIMMAX
 10
420.0
 20
297.0
  9
$ORTHOMODE
 70
     0
  9
$REGENMODE
 70
     1
  9
$FILLMODE
 70
     1
  9
$QTEXTMODE
 70
     0
  9
$MIRRTEXT
 70
     1
  9
$DRAGMODE
 70
     2
  9
$LTSCALE
 40
1.0
  9
$OSMODE
 70
    35
  9
$ATTMODE
 70
     1
  9
$TEXTSIZE
 40
2.5
  9
$TRACEWID
 40
1.0
  9
$TEXTSTYLE
  7
STANDARD
  9
$CLAYER
  8
SUNPOU
  9
$CELTYPE
  6
BYLAYER
  9
$CECOLOR
 62
   256
  9
$CELTSCALE
 40
1.0
  9
$DELOBJ
 70
     1
  9
$DISPSILH
 70
     0
  9
$DIMSCALE
 40
1.0
  9
$DIMASZ
 40
3.0
  9
$DIMEXO
 40
3.0
  9
$DIMDLI
 40
7.0
  9
$DIMRND
 40
0.0
  9
$DIMDLE
 40
0.0
  9
$DIMEXE
 40
1.5
  9
$DIMTP
 40
0.0
  9
$DIMTM
 40
0.0
  9
$DIMTXT
 40
3.0
  9
$DIMCEN
 40
150.0
  9
$DIMTSZ
 40
0.0
  9
$DIMTOL
 70
     0
  9
$DIMLIM
 70
     0
  9
$DIMTIH
 70
     0
  9
$DIMTOH
 70
     0
  9
$DIMSE1
 70
     0
  9
$DIMSE2
 70
     0
  9
$DIMTAD
 70
     3
  9
$DIMZIN
 70
     0
  9
$DIMBLK
  1

  9
$DIMASO
 70
     1
  9
$DIMSHO
 70
     1
  9
$DIMPOST
  1

  9
$DIMAPOST
  1

  9
$DIMALT
 70
     0
  9
$DIMALTD
 70
     2
  9
$DIMALTF
 40
25.4
  9
$DIMLFAC
 40
1.0
  9
$DIMTOFL
 70
     1
  9
$DIMTVP
 40
0.0
  9
$DIMTIX
 70
     0
  9
$DIMSOXD
 70
     0
  9
$DIMSAH
 70
     1
  9
$DIMBLK1
  1
OPEN
  9
$DIMBLK2
  1
OPEN
  9
$DIMSTYLE
  2
STANDARD
  9
$DIMCLRD
 70
   256
  9
$DIMCLRE
 70
   256
  9
$DIMCLRT
 70
   256
  9
$DIMTFAC
 40
1.0
  9
$DIMGAP
 40
1.0
  9
$DIMJUST
 70
     0
  9
$DIMSD1
 70
     0
  9
$DIMSD2
 70
     0
  9
$DIMTOLJ
 70
     1
  9
$DIMTZIN
 70
     0
  9
$DIMALTZ
 70
     0
  9
$DIMALTTZ
 70
     0
  9
$DIMFIT
 70
     3
  9
$DIMUPT
 70
     0
  9
$DIMUNIT
 70
     2
  9
$DIMDEC
 70
     0
  9
$DIMTDEC
 70
     0
  9
$DIMALTU
 70
     2
  9
$DIMALTTD
 70
     2
  9
$DIMTXSTY
  7
STANDARD
  9
$DIMAUNIT
 70
     0
  9
$LUNITS
 70
     2
  9
$LUPREC
 70
     4
  9
$SKETCHINC
 40
1.0
  9
$FILLETRAD
 40
10.0
  9
$AUNITS
 70
     0
  9
$AUPREC
 70
     0
  9
$MENU
  1
.
  9
$ELEVATION
 40
0.0
  9
$PELEVATION
 40
0.0
  9
$THICKNESS
 40
0.0
  9
$LIMCHECK
 70
     0
  9
$BLIPMODE
 70
     0
  9
$CHAMFERA
 40
10.0
  9
$CHAMFERB
 40
10.0
  9
$CHAMFERC
 40
20.0
  9
$CHAMFERD
 40
0.0
  9
$SKPOLY
 70
     0
  9
$TDCREATE
 40
2450994.350997107
  9
$TDUPDATE
 40
2453817.708345439
  9
$TDINDWG
 40
0.0179620023
  9
$TDUSRTIMER
 40
0.0179620023
  9
$USRTIMER
 70
     1
  9
$ANGBASE
 50
0.0
  9
$ANGDIR
 70
     0
  9
$PDMODE
 70
     1
  9
$PDSIZE
 40
0.0
  9
$PLINEWID
 40
0.0
  9
$COORDS
 70
     1
  9
$SPLFRAME
 70
     0
  9
$SPLINETYPE
 70
     6
  9
$SPLINESEGS
 70
     8
  9
$ATTDIA
 70
     0
  9
$ATTREQ
 70
     1
  9
$HANDLING
 70
 10241
  9
$HANDSEED
  5
A2C
  9
$SURFTAB1
 70
     6
  9
$SURFTAB2
 70
     6
  9
$SURFTYPE
 70
     6
  9
$SURFU
 70
     6
  9
$SURFV
 70
     6
  9
$UCSNAME
  2

  9
$UCSORG
 10
0.0
 20
0.0
 30
0.0
  9
$UCSXDIR
 10
1.0
 20
0.0
 30
0.0
  9
$UCSYDIR
 10
0.0
 20
1.0
 30
0.0
  9
$PUCSNAME
  2

  9
$PUCSORG
 10
0.0
 20
0.0
 30
0.0
  9
$PUCSXDIR
 10
1.0
 20
0.0
 30
0.0
  9
$PUCSYDIR
 10
0.0
 20
1.0
 30
0.0
  9
$USERI1
 70
     0
  9
$USERI2
 70
     0
  9
$USERI3
 70
     0
  9
$USERI4
 70
     0
  9
$USERI5
 70
     0
  9
$USERR1
 40
0.0
  9
$USERR2
 40
0.0
  9
$USERR3
 40
0.0
  9
$USERR4
 40
0.0
  9
$USERR5
 40
0.0
  9
$WORLDVIEW
 70
     1
  9
$SHADEDGE
 70
     3
  9
$SHADEDIF
 70
    70
  9
$TILEMODE
 70
     1
  9
$MAXACTVP
 70
    16
  9
$PINSBASE
 10
0.0
 20
0.0
 30
0.0
  9
$PLIMCHECK
 70
     0
  9
$PEXTMIN
 10
0.0
 20
0.0
 30
0.0
  9
$PEXTMAX
 10
420.0
 20
297.0
 30
0.0
  9
$PLIMMIN
 10
0.0
 20
0.0
  9
$PLIMMAX
 10
420.0
 20
297.0
  9
$UNITMODE
 70
     0
  9
$VISRETAIN
 70
     0
  9
$PLINEGEN
 70
     0
  9
$PSLTSCALE
 70
     1
  9
$TREEDEPTH
 70
  3020
  9
$PICKSTYLE
 70
     1
  9
$CMLSTYLE
  2
STANDARD
  9
$CMLJUST
 70
     0
  9
$CMLSCALE
 40
1.0
  9
$PROXYGRAPHICS
 70
     1
  9
$MEASUREMENT
 70
     1
  0
ENDSEC
  0
SECTION
  2
CLASSES
  0
CLASS
  1
ACDBDICTIONARYWDFLT
  2
AcDbDictionaryWithDefault
  3
AutoCAD 2000
 90
        0
280
     0
281
     0
  0
CLASS
  1
ACDBPLACEHOLDER
  2
AcDbPlaceHolder
  3
AutoCAD 2000
 90
        0
280
     0
281
     0
  0
CLASS
  1
LAYOUT
  2
AcDbLayout
  3
AutoCAD 2000
 90
        0
280
     0
281
     0
  0
CLASS
  1
LONG_TRANSACTION
  2
AcDbLongTransaction
  3
AutoCAD 2000
 90
        0
280
     0
281
     0
  0
CLASS
  1
LWPOLYLINE
  2
AcDbPolyline
  3
AutoCAD 2000
 90
        0
280
     0
281
     1
  0
CLASS
  1
HATCH
  2
AcDbHatch
  3
AutoCAD 2000
 90
        0
280
     0
281
     1
  0
CLASS
  1
XRECORD
  2
AcDbXrecord
  3
AutoCAD 2000
 90
        0
280
     0
281
     0
  0
CLASS
  1
LONG_TRANSACTION
  2
AcDbLongTransaction
  3
AutoCAD 2000
 90
        0
280
     0
281
     0
  0
CLASS
  1
LWPOLYLINE
  2
AcDbPolyline
  3
AutoCAD 2000
 90
        0
280
     0
281
     1
  0
CLASS
  1
HATCH
  2
AcDbHatch
  3
AutoCAD 2000
 90
        0
280
     0
281
     1
  0
CLASS
  1
XRECORD
  2
AcDbXrecord
  3
AutoCAD 2000
 90
        0
280
     0
281
     0
  0
CLASS
  1
LONG_TRANSACTION
  2
AcDbLongTransaction
  3
AutoCAD 2000
 90
        0
280
     0
281
     0
  0
CLASS
  1
LWPOLYLINE
  2
AcDbPolyline
  3
AutoCAD 2000
 90
        0
280
     0
281
     1
  0
CLASS
  1
HATCH
  2
AcDbHatch
  3
AutoCAD 2000
 90
        0
280
     0
281
     1
  0
CLASS
  1
XRECORD
  2
AcDbXrecord
  3
AutoCAD 2000
 90
        0
280
     0
281
     0
  0
ENDSEC
  0
SECTION
  2
TABLES
  0
TABLE
  2
VPORT
  5
8
330
0
100
AcDbSymbolTable
 70
     2
  0
VPORT
  5
A08
330
8
100
AcDbSymbolTableRecord
100
AcDbViewportTableRecord
  2
*ACTIVE
 70
     0
 10
0.0
 20
0.0
 11
1.0
 21
1.0
 12
219.6576697298858
 22
139.2893277253433
 13
0.0
 23
0.0
 14
5.0
 24
5.0
 15
0.0
 25
0.0
 16
0.0
 26
0.0
 36
1.0
 17
0.0
 27
0.0
 37
0.0
 40
307.484098040341
 41
1.795454545454545
 42
50.0
 43
0.0
 44
0.0
 50
0.0
 51
0.0
 71
     0
 72
   100
 73
     1
 74
     0
 75
     0
 76
     0
 77
     0
 78
     0
  0
ENDTAB
  0
TABLE
  2
LTYPE
  5
5
330
0
100
AcDbSymbolTable
 70
     3
  0
LTYPE
  5
14
330
5
100
AcDbSymbolTableRecord
100
AcDbLinetypeTableRecord
  2
BYBLOCK
 70
     0
  3

 72
    65
 73
     0
 40
0.0
  0
LTYPE
  5
15
330
5
100
AcDbSymbolTableRecord
100
AcDbLinetypeTableRecord
  2
BYLAYER
 70
     0
  3

 72
    65
 73
     0
 40
0.0
  0
LTYPE
  5
16
330
5
100
AcDbSymbolTableRecord
100
AcDbLinetypeTableRecord
  2
CONTINUOUS
 70
     0
  3
Solid line
 72
    65
 73
     0
 40
0.0
  0
LTYPE
  5
120
330
5
100
AcDbSymbolTableRecord
100
AcDbLinetypeTableRecord
  2
CENTER
 70
     0
  3
____ _ ____ _ ____ _ ____ _ ____ _ ____ _ ____ 
 72
    65
 73
     4
 40
2.0
 49
1.25
 74
     0
 49
-0.25
 74
     0
 49
0.25
 74
     0
 49
-0.25
 74
     0
  0
LTYPE
  5
122
330
5
100
AcDbSymbolTableRecord
100
AcDbLinetypeTableRecord
  2
PHANTOM
 70
     0
  3
______  __  __  ______  __  __  ______  __  __ 
 72
    65
 73
     6
 40
2.5
 49
1.25
 74
     0
 49
-0.25
 74
     0
 49
0.25
 74
     0
 49
-0.25
 74
     0
 49
0.25
 74
     0
 49
-0.25
 74
     0
  0
ENDTAB
  0
TABLE
  2
LAYER
  5
2
330
0
100
AcDbSymbolTable
 70
    10
  0
LAYER
  5
F
330
2
100
AcDbSymbolTableRecord
100
AcDbLayerTableRecord
  2
0
 70
     0
 62
     7
  6
CONTINUOUS
  0
LAYER
  5
62
330
2
100
AcDbSymbolTableRecord
100
AcDbLayerTableRecord
  2
VIEWPORT
 70
     0
 62
     7
  6
CONTINUOUS
  0
LAYER
  5
6B
330
2
100
AcDbSymbolTableRecord
100
AcDbLayerTableRecord
  2
ZUWAKU
 70
     0
 62
     7
  6
CONTINUOUS
  0
LAYER
  5
146
330
2
100
AcDbSymbolTableRecord
100
AcDbLayerTableRecord
  2
SUNPOU_L
 70
     0
 62
     4
  6
CONTINUOUS
  0
LAYER
  5
185
330
2
100
AcDbSymbolTableRecord
100
AcDbLayerTableRecord
  2
CENTER_L
 70
     0
 62
     1
  6
CENTER
  0
LAYER
  5
18C
330
2
100
AcDbSymbolTableRecord
100
AcDbLayerTableRecord
  2
DEFPOINTS
 70
     0
 62
     7
  6
CONTINUOUS
  0
LAYER
  5
2D9
330
2
100
AcDbSymbolTableRecord
100
AcDbLayerTableRecord
  2
SUNPOU
 70
     0
 62
     4
  6
CONTINUOUS
  0
LAYER
  5
2DA
330
2
100
AcDbSymbolTableRecord
100
AcDbLayerTableRecord
  2
SEIHIN
 70
     0
 62
     3
  6
CONTINUOUS
  0
LAYER
  5
2DB
330
2
100
AcDbSymbolTableRecord
100
AcDbLayerTableRecord
  2
NOKITOI
 70
     0
 62
     8
  6
PHANTOM
  0
LAYER
  5
893
330
2
100
AcDbSymbolTableRecord
100
AcDbLayerTableRecord
  2
MOJI
 70
     0
 62
     2
  6
CONTINUOUS
  0
ENDTAB
  0
TABLE
  2
STYLE
  5
3
330
0
100
AcDbSymbolTable
 70
     2
  0
STYLE
  5
10
330
3
100
AcDbSymbolTableRecord
100
AcDbTextStyleTableRecord
  2
STANDARD
 70
     0
 40
0.0
 41
1.0
 50
0.0
 71
     0
 42
2.5
  3
TXT
  4
bigfont.shx
  0
STYLE
  5
894
330
3
100
AcDbSymbolTableRecord
100
AcDbTextStyleTableRecord
  2
ｽﾀｲﾙ1
 70
     0
 40
0.0
 41
1.0
 50
0.0
 71
     0
 42
2.5
  3
MS PGothic.ttf
  4

1001
ACAD
1000
MS PGothic
1071
    32818
  0
ENDTAB
  0
TABLE
  2
VIEW
  5
6
330
0
100
AcDbSymbolTable
 70
     0
  0
ENDTAB
  0
TABLE
  2
UCS
  5
7
330
0
100
AcDbSymbolTable
 70
     0
  0
ENDTAB
  0
TABLE
  2
APPID
  5
9
330
0
100
AcDbSymbolTable
 70
     1
  0
APPID
  5
11
330
9
100
AcDbSymbolTableRecord
100
AcDbRegAppTableRecord
  2
ACAD
 70
     0
  0
ENDTAB
  0
TABLE
  2
DIMSTYLE
  5
A
330
0
100
AcDbSymbolTable
 70
     1
  0
DIMSTYLE
105
1D
102
{ACAD_REACTORS
330
412
330
413
330
414
330
489
330
4BE
330
4BF
330
4C0
330
4C1
330
4C8
330
4CA
330
4DC
330
4F8
102
}
330
A
100
AcDbSymbolTableRecord
100
AcDbDimStyleTableRecord
  2
STANDARD
 70
     0
  3

  4

  5

  6

  7

 40
1.0
 41
0.18
 42
0.0625
 43
0.38
 44
0.18
 45
0.0
 46
0.0
 47
0.0
 48
0.0
140
0.18
141
0.09
142
0.0
143
25.4
144
1.0
145
0.0
146
1.0
147
0.09
 71
     0
 72
     0
 73
     1
 74
     1
 75
     0
 76
     0
 77
     0
 78
     0
170
     0
171
     2
172
     0
173
     0
174
     0
175
     0
176
     0
177
     0
178
     0
270
     2
271
     4
272
     4
273
     2
274
     2
340
10
275
     0
280
     0
281
     0
282
     0
283
     1
284
     0
285
     0
286
     0
287
     3
288
     0
  0
ENDTAB
  0
TABLE
  2
BLOCK_RECORD
  5
1
330
0
100
AcDbSymbolTable
 70
    13
  0
BLOCK_RECORD
  5
1A
102
{ACAD_XDICTIONARY
360
84F
102
}
330
1
100
AcDbSymbolTableRecord
100
AcDbBlockTableRecord
  2
*MODEL_SPACE
  0
BLOCK_RECORD
  5
17
102
{ACAD_XDICTIONARY
360
84D
102
}
330
1
100
AcDbSymbolTableRecord
100
AcDbBlockTableRecord
  2
*PAPER_SPACE
  0
BLOCK_RECORD
  5
B2
330
1
100
AcDbSymbolTableRecord
100
AcDbBlockTableRecord
  2
_OPEN
  0
BLOCK_RECORD
  5
53A
330
1
100
AcDbSymbolTableRecord
100
AcDbBlockTableRecord
  2
*D1
  0
BLOCK_RECORD
  5
546
330
1
100
AcDbSymbolTableRecord
100
AcDbBlockTableRecord
  2
*D2
  0
BLOCK_RECORD
  5
552
330
1
100
AcDbSymbolTableRecord
100
AcDbBlockTableRecord
  2
*D3
  0
BLOCK_RECORD
  5
55E
330
1
100
AcDbSymbolTableRecord
100
AcDbBlockTableRecord
  2
*D4
  0
BLOCK_RECORD
  5
56A
330
1
100
AcDbSymbolTableRecord
100
AcDbBlockTableRecord
  2
*D5
  0
BLOCK_RECORD
  5
576
330
1
100
AcDbSymbolTableRecord
100
AcDbBlockTableRecord
  2
*D6
  0
BLOCK_RECORD
  5
582
330
1
100
AcDbSymbolTableRecord
100
AcDbBlockTableRecord
  2
*D7
  0
BLOCK_RECORD
  5
58E
330
1
100
AcDbSymbolTableRecord
100
AcDbBlockTableRecord
  2
*D8
  0
BLOCK_RECORD
  5
59A
330
1
100
AcDbSymbolTableRecord
100
AcDbBlockTableRecord
  2
*D9
  0
BLOCK_RECORD
  5
5A6
330
1
100
AcDbSymbolTableRecord
100
AcDbBlockTableRecord
  2
*D10
  0
BLOCK_RECORD
  5
5B4
330
1
100
AcDbSymbolTableRecord
100
AcDbBlockTableRecord
  2
*D11
  0
BLOCK_RECORD
  5
5C2
330
1
100
AcDbSymbolTableRecord
100
AcDbBlockTableRecord
  2
*D12
  0
ENDTAB
  0
ENDSEC
  0
SECTION
  2
BLOCKS
  0
BLOCK
  5
1B
330
1A
100
AcDbEntity
  8
0
100
AcDbBlockBegin
  2
*MODEL_SPACE
 70
     0
 10
0.0
 20
0.0
 30
0.0
  3
*MODEL_SPACE
  1

  0
ENDBLK
  5
1C
330
1A
100
AcDbEntity
  8
0
100
AcDbBlockEnd
  0
BLOCK
  5
18
330
17
100
AcDbEntity
 67
     1
  8
0
100
AcDbBlockBegin
  2
*PAPER_SPACE
 70
     0
 10
0.0
 20
0.0
 30
0.0
  3
*PAPER_SPACE
  1

  0
ENDBLK
  5
19
330
17
100
AcDbEntity
 67
     1
  8
0
100
AcDbBlockEnd
  0
BLOCK
  5
B3
330
B2
100
AcDbEntity
  8
0
100
AcDbBlockBegin
  2
_OPEN
 70
     0
 10
0.0
 20
0.0
 30
0.0
  3
_OPEN
  1

  0
LINE
  5
B4
330
B2
100
AcDbEntity
  8
0
  6
BYBLOCK
 62
     0
100
AcDbLine
 10
-1.0
 20
0.1666666666666666
 30
0.0
 11
0.0
 21
0.0
 31
0.0
  0
LINE
  5
B5
330
B2
100
AcDbEntity
  8
0
  6
BYBLOCK
 62
     0
100
AcDbLine
 10
0.0
 20
0.0
 30
0.0
 11
-1.0
 21
-0.1666666666666666
 31
0.0
  0
LINE
  5
B6
330
B2
100
AcDbEntity
  8
0
  6
BYBLOCK
 62
     0
100
AcDbLine
 10
0.0
 20
0.0
 30
0.0
 11
-1.0
 21
0.0
 31
0.0
  0
ENDBLK
  5
B7
330
B2
100
AcDbEntity
  8
0
100
AcDbBlockEnd
  0
BLOCK
  5
5CE
330
53A
100
AcDbEntity
  8
0
100
AcDbBlockBegin
  2
*D1
 70
     1
 10
0.0
 20
0.0
 30
0.0
  3
*D1
  1

  0
LINE
  5
7D0
330
53A
100
AcDbEntity
  8
SUNPOU
 62
     4
100
AcDbLine
 10
209.5065560548721
 20
125.8084283055
 30
0.0
 11
209.5065560548721
 21
140.4296033066425
 31
0.0
  0
LINE
  5
7D1
330
53A
100
AcDbEntity
  8
SUNPOU
 62
     4
100
AcDbLine
 10
189.506531609158
 20
104.4386385758024
 30
0.0
 11
189.506531609158
 21
140.4296033066425
 31
0.0
  0
LINE
  5
7D2
330
53A
100
AcDbEntity
  8
SUNPOU
 62
     4
100
AcDbLine
 10
206.506556054872
 20
138.9296033066425
 30
0.0
 11
192.506531609158
 21
138.9296033066425
 31
0.0
  0
INSERT
  5
7D3
330
53A
100
AcDbEntity
  8
SUNPOU
 62
     4
100
AcDbBlockReference
  2
_OPEN
 10
209.5065560548721
 20
138.9296033066425
 30
0.0
 41
3.0
 42
3.0
 43
3.0
  0
INSERT
  5
7D4
330
53A
100
AcDbEntity
  8
SUNPOU
 62
     4
100
AcDbBlockReference
  2
_OPEN
 10
189.506531609158
 20
138.9296033066425
 30
0.0
 41
3.0
 42
3.0
 43
3.0
 50
180.0
  0
MTEXT
  5
7D5
330
53A
100
AcDbEntity
  8
SUNPOU
 62
     4
100
AcDbMText
 10
199.506543832015
 20
141.4296033066425
 30
0.0
 40
3.0
 41
0.0
 71
     5
 72
     5
  1
\A1;20
1001
ACAD
1000
MTEXTBEGIN
1070
    73
1070
     1
1070
    44
1040
1.0
1070
    74
1070
     0
1000
MTEXTEND
1000
MTEXTBEGIN
1070
    73
1070
     1
1070
    44
1040
1.0
1070
    74
1070
     0
1000
MTEXTEND
1000
MTEXTBEGIN
1070
    73
1070
     1
1070
    44
1040
1.0
1070
    74
1070
     0
1000
MTEXTEND
  0
POINT
  5
7D6
330
53A
100
AcDbEntity
  8
DEFPOINTS
 62
     0
100
AcDbPoint
 10
209.5065560548721
 20
122.8084283055
 30
0.0
  0
POINT
  5
7D7
330
53A
100
AcDbEntity
  8
DEFPOINTS
 62
     0
100
AcDbPoint
 10
189.506531609158
 20
101.4386385758024
 30
0.0
  0
POINT
  5
7D8
330
53A
100
AcDbEntity
  8
DEFPOINTS
 62
     0
100
AcDbPoint
 10
189.506531609158
 20
138.9296033066425
 30
0.0
  0
ENDBLK
  5
5D8
330
53A
100
AcDbEntity
  8
0
100
AcDbBlockEnd
  0
BLOCK
  5
5D9
330
546
100
AcDbEntity
  8
0
100
AcDbBlockBegin
  2
*D2
 70
     1
 10
0.0
 20
0.0
 30
0.0
  3
*D2
  1

  0
LINE
  5
7C7
330
546
100
AcDbEntity
  8
SUNPOU
 62
     4
100
AcDbLine
 10
209.5065560548721
 20
125.8084283055
 30
0.0
 11
209.5065560548721
 21
156.6013741265473
 31
0.0
  0
LINE
  5
7C8
330
546
100
AcDbEntity
  8
SUNPOU
 62
     4
100
AcDbLine
 10
103.90653457513
 20
105.7087420278503
 30
0.0
 11
103.90653457513
 21
156.6013741265473
 31
0.0
  0
LINE
  5
7C9
330
546
100
AcDbEntity
  8
SUNPOU
 62
     4
100
AcDbLine
 10
206.5065560548721
 20
155.1013741265473
 30
0.0
 11
106.90653457513
 21
155.1013741265473
 31
0.0
  0
INSERT
  5
7CA
330
546
100
AcDbEntity
  8
SUNPOU
 62
     4
100
AcDbBlockReference
  2
_OPEN
 10
209.5065560548721
 20
155.1013741265473
 30
0.0
 41
3.0
 42
3.0
 43
3.0
  0
INSERT
  5
7CB
330
546
100
AcDbEntity
  8
SUNPOU
 62
     4
100
AcDbBlockReference
  2
_OPEN
 10
103.90653457513
 20
155.1013741265473
 30
0.0
 41
3.0
 42
3.0
 43
3.0
 50
180.0
  0
MTEXT
  5
7CC
330
546
100
AcDbEntity
  8
SUNPOU
 62
     4
100
AcDbMText
 10
156.706545315001
 20
157.6013741265473
 30
0.0
 40
3.0
 41
0.0
 71
     5
 72
     5
  1
\A1;106
1001
ACAD
1000
MTEXTBEGIN
1070
    73
1070
     1
1070
    44
1040
1.0
1070
    74
1070
     0
1000
MTEXTEND
1000
MTEXTBEGIN
1070
    73
1070
     1
1070
    44
1040
1.0
1070
    74
1070
     0
1000
MTEXTEND
1000
MTEXTBEGIN
1070
    73
1070
     1
1070
    44
1040
1.0
1070
    74
1070
     0
1000
MTEXTEND
  0
POINT
  5
7CD
330
546
100
AcDbEntity
  8
DEFPOINTS
 62
     0
100
AcDbPoint
 10
209.5065560548721
 20
122.8084283055
 30
0.0
  0
POINT
  5
7CE
330
546
100
AcDbEntity
  8
DEFPOINTS
 62
     0
100
AcDbPoint
 10
103.90653457513
 20
102.7087420278503
 30
0.0
  0
POINT
  5
7CF
330
546
100
AcDbEntity
  8
DEFPOINTS
 62
     0
100
AcDbPoint
 10
103.90653457513
 20
155.1013741265473
 30
0.0
  0
ENDBLK
  5
5E3
330
546
100
AcDbEntity
  8
0
100
AcDbBlockEnd
  0
BLOCK
  5
5E4
330
552
100
AcDbEntity
  8
0
100
AcDbBlockBegin
  2
*D3
 70
     1
 10
0.0
 20
0.0
 30
0.0
  3
*D3
  1

  0
LINE
  5
7BE
330
552
100
AcDbEntity
  8
SUNPOU
 62
     4
100
AcDbLine
 10
222.1038345751299
 20
80.58094202785039
 30
0.0
 11
87.98985574495189
 21
80.58094202785042
 31
0.0
  0
LINE
  5
7BF
330
552
100
AcDbEntity
  8
SUNPOU
 62
     4
100
AcDbLine
 10
106.50653457513
 20
108.8087420278503
 30
0.0
 11
87.98985574495189
 21
108.8087420278503
 31
0.0
  0
LINE
  5
7C0
330
552
100
AcDbEntity
  8
SUNPOU
 62
     4
100
AcDbLine
 10
89.48985574495187
 20
83.58094202785043
 30
0.0
 11
89.48985574495189
 21
105.8087420278503
 31
0.0
  0
INSERT
  5
7C1
330
552
100
AcDbEntity
  8
SUNPOU
 62
     4
100
AcDbBlockReference
  2
_OPEN
 10
89.48985574495187
 20
80.58094202785042
 30
0.0
 41
3.0
 42
3.0
 43
3.0
 50
270.0
  0
INSERT
  5
7C2
330
552
100
AcDbEntity
  8
SUNPOU
 62
     4
100
AcDbBlockReference
  2
_OPEN
 10
89.48985574495189
 20
108.8087420278503
 30
0.0
 41
3.0
 42
3.0
 43
3.0
 50
90.0
  0
MTEXT
  5
7C3
330
552
100
AcDbEntity
  8
SUNPOU
 62
     4
100
AcDbMText
 10
86.98985574495187
 20
94.69484202785043
 30
0.0
 40
3.0
 41
0.0
 71
     5
 72
     5
  1
\A1;28
 11
0.0000000000000001
 21
1.0
 31
0.0
1001
ACAD
1000
MTEXTBEGIN
1070
    73
1070
     1
1070
    44
1040
1.0
1070
    74
1070
     0
1000
MTEXTEND
1000
MTEXTBEGIN
1070
    73
1070
     1
1070
    44
1040
1.0
1070
    74
1070
     0
1000
MTEXTEND
1000
MTEXTBEGIN
1070
    73
1070
     1
1070
    44
1040
1.0
1070
    74
1070
     0
1000
MTEXTEND
  0
POINT
  5
7C4
330
552
100
AcDbEntity
  8
DEFPOINTS
 62
     0
100
AcDbPoint
 10
225.1038345751299
 20
80.58094202785037
 30
0.0
  0
POINT
  5
7C5
330
552
100
AcDbEntity
  8
DEFPOINTS
 62
     0
100
AcDbPoint
 10
109.50653457513
 20
108.8087420278503
 30
0.0
  0
POINT
  5
7C6
330
552
100
AcDbEntity
  8
DEFPOINTS
 62
     0
100
AcDbPoint
 10
89.48985574495189
 20
108.8087420278503
 30
0.0
  0
ENDBLK
  5
5EE
330
552
100
AcDbEntity
  8
0
100
AcDbBlockEnd
  0
BLOCK
  5
5EF
330
55E
100
AcDbEntity
  8
0
100
AcDbBlockBegin
  2
*D4
 70
     1
 10
0.0
 20
0.0
 30
0.0
  3
*D4
  1

  0
LINE
  5
7D9
330
55E
100
AcDbEntity
  8
SUNPOU
 62
     4
100
AcDbLine
 10
101.9065345751299
 20
215.3585420278502
 30
0.0
 11
87.89708315362348
 21
215.3585420278502
 31
0.0
  0
LINE
  5
7DA
330
55E
100
AcDbEntity
  8
SUNPOU
 62
     4
100
AcDbLine
 10
101.9065345751299
 20
200.2585420278503
 30
0.0
 11
87.89708315362348
 21
200.2585420278503
 31
0.0
  0
LINE
  5
7DB
330
55E
100
AcDbEntity
  8
SUNPOU
 62
     4
100
AcDbLine
 10
89.39708315362349
 20
212.3585420278502
 30
0.0
 11
89.39708315362349
 21
203.2585420278503
 31
0.0
  0
INSERT
  5
7DC
330
55E
100
AcDbEntity
  8
SUNPOU
 62
     4
100
AcDbBlockReference
  2
_OPEN
 10
89.39708315362349
 20
215.3585420278502
 30
0.0
 41
3.0
 42
3.0
 43
3.0
 50
90.0
  0
INSERT
  5
7DD
330
55E
100
AcDbEntity
  8
SUNPOU
 62
     4
100
AcDbBlockReference
  2
_OPEN
 10
89.39708315362349
 20
200.2585420278503
 30
0.0
 41
3.0
 42
3.0
 43
3.0
 50
270.0
  0
MTEXT
  5
7DE
330
55E
100
AcDbEntity
  8
SUNPOU
 62
     4
100
AcDbMText
 10
86.89708315362345
 20
207.8085420278503
 30
0.0
 40
3.0
 41
0.0
 71
     5
 72
     5
  1
\A1;15
 11
0.0000000000000001
 21
1.0
 31
0.0
1001
ACAD
1000
MTEXTBEGIN
1070
    73
1070
     1
1070
    44
1040
1.0
1070
    74
1070
     0
1000
MTEXTEND
1000
MTEXTBEGIN
1070
    73
1070
     1
1070
    44
1040
1.0
1070
    74
1070
     0
1000
MTEXTEND
1000
MTEXTBEGIN
1070
    73
1070
     1
1070
    44
1040
1.0
1070
    74
1070
     0
1000
MTEXTEND
  0
POINT
  5
7DF
330
55E
100
AcDbEntity
  8
DEFPOINTS
 62
     0
100
AcDbPoint
 10
104.9065345751299
 20
215.3585420278502
 30
0.0
  0
POINT
  5
7E0
330
55E
100
AcDbEntity
  8
DEFPOINTS
 62
     0
100
AcDbPoint
 10
104.9065345751299
 20
200.2585420278503
 30
0.0
  0
POINT
  5
7E1
330
55E
100
AcDbEntity
  8
DEFPOINTS
 62
     0
100
AcDbPoint
 10
89.39708315362349
 20
200.2585420278503
 30
0.0
  0
ENDBLK
  5
5F9
330
55E
100
AcDbEntity
  8
0
100
AcDbBlockEnd
  0
BLOCK
  5
5FA
330
56A
100
AcDbEntity
  8
0
100
AcDbBlockBegin
  2
*D5
 70
     1
 10
0.0
 20
0.0
 30
0.0
  3
*D5
  1

  0
LINE
  5
7FD
330
56A
100
AcDbEntity
  8
SUNPOU
 62
     4
100
AcDbLine
 10
283.785579720721
 20
152.9030363992833
 30
0.0
 11
249.3410064771577
 21
139.1261900096248
 31
0.0
  0
LINE
  5
7FE
330
56A
100
AcDbEntity
  8
SUNPOU
 62
     4
100
AcDbLine
 10
267.4255246683183
 20
132.3583023787754
 30
0.0
 11
254.168749761912
 21
127.0559707105504
 31
0.0
  0
LINE
  5
7FF
330
56A
100
AcDbEntity
  8
SUNPOU
 62
     4
100
AcDbLine
 10
251.8478387241298
 20
136.8977842823073
 30
0.0
 11
254.4473749955827
 21
130.3984799445185
 31
0.0
  0
INSERT
  5
800
330
56A
100
AcDbEntity
  8
SUNPOU
 62
     4
100
AcDbBlockReference
  2
_OPEN
 10
250.7337352174791
 20
139.6832417629501
 30
0.0
 41
3.0
 42
3.0
 43
3.0
 50
111.7999999999998
  0
INSERT
  5
801
330
56A
100
AcDbEntity
  8
SUNPOU
 62
     4
100
AcDbBlockReference
  2
_OPEN
 10
255.5614785022334
 20
127.6130224638757
 30
0.0
 41
3.0
 42
3.0
 43
3.0
 50
291.7999999999998
  0
MTEXT
  5
802
330
56A
100
AcDbEntity
  8
SUNPOU
 62
     4
100
AcDbMText
 10
255.4688214270585
 20
134.5765517022885
 30
0.0
 40
3.0
 41
0.0
 71
     5
 72
     5
  1
\A1;13
 11
0.3713678355502318
 21
-0.9284858268809147
 31
0.0
1001
ACAD
1000
MTEXTBEGIN
1070
    73
1070
     1
1070
    44
1040
1.0
1070
    74
1070
     0
1000
MTEXTEND
1000
MTEXTBEGIN
1070
    73
1070
     1
1070
    44
1040
1.0
1070
    74
1070
     0
1000
MTEXTEND
1000
MTEXTBEGIN
1070
    73
1070
     1
1070
    44
1040
1.0
1070
    74
1070
     0
1000
MTEXTEND
  0
POINT
  5
803
330
56A
100
AcDbEntity
  8
DEFPOINTS
 62
     0
100
AcDbPoint
 10
286.5710372013638
 20
154.017139905934
 30
0.0
  0
POINT
  5
804
330
56A
100
AcDbEntity
  8
DEFPOINTS
 62
     0
100
AcDbPoint
 10
270.210982148961
 20
133.4724058854261
 30
0.0
  0
POINT
  5
805
330
56A
100
AcDbEntity
  8
DEFPOINTS
 62
     0
100
AcDbPoint
 10
255.5614785022334
 20
127.6130224638757
 30
0.0
  0
ENDBLK
  5
604
330
56A
100
AcDbEntity
  8
0
100
AcDbBlockEnd
  0
BLOCK
  5
605
330
576
100
AcDbEntity
  8
0
100
AcDbBlockBegin
  2
*D6
 70
     1
 10
0.0
 20
0.0
 30
0.0
  3
*D6
  1

  0
LINE
  5
7F4
330
576
100
AcDbEntity
  8
SUNPOU
 62
     4
100
AcDbLine
 10
283.785579720721
 20
152.9030363992833
 30
0.0
 11
241.9134306196508
 21
136.1553716193713
 31
0.0
  0
LINE
  5
7F5
330
576
100
AcDbEntity
  8
SUNPOU
 62
     4
100
AcDbLine
 10
300.4970281022207
 20
111.1211909487525
 30
0.0
 11
258.6249630675418
 21
94.37355979299807
 31
0.0
  0
LINE
  5
7F6
330
576
100
AcDbEntity
  8
SUNPOU
 62
     4
100
AcDbLine
 10
244.4202628666229
 20
133.9269658920539
 30
0.0
 11
258.9035883012125
 21
97.71606902696618
 31
0.0
  0
INSERT
  5
7F7
330
576
100
AcDbEntity
  8
SUNPOU
 62
     4
100
AcDbBlockReference
  2
_OPEN
 10
243.3061593599722
 20
136.7124233726966
 30
0.0
 41
3.0
 42
3.0
 43
3.0
 50
111.7999999999998
  0
INSERT
  5
7F8
330
576
100
AcDbEntity
  8
SUNPOU
 62
     4
100
AcDbBlockReference
  2
_OPEN
 10
260.0176918078632
 20
94.93061154632343
 30
0.0
 41
3.0
 42
3.0
 43
3.0
 50
291.7999999999998
  0
MTEXT
  5
7F9
330
576
100
AcDbEntity
  8
SUNPOU
 62
     4
100
AcDbMText
 10
253.9831401511199
 20
116.7499370483856
 30
0.0
 40
3.0
 41
0.0
 71
     5
 72
     5
  1
\A1;45
 11
0.3713678355502318
 21
-0.9284858268809147
 31
0.0
1001
ACAD
1000
MTEXTBEGIN
1070
    73
1070
     1
1070
    44
1040
1.0
1070
    74
1070
     0
1000
MTEXTEND
1000
MTEXTBEGIN
1070
    73
1070
     1
1070
    44
1040
1.0
1070
    74
1070
     0
1000
MTEXTEND
1000
MTEXTBEGIN
1070
    73
1070
     1
1070
    44
1040
1.0
1070
    74
1070
     0
1000
MTEXTEND
  0
POINT
  5
7FA
330
576
100
AcDbEntity
  8
DEFPOINTS
 62
     0
100
AcDbPoint
 10
286.5710372013638
 20
154.017139905934
 30
0.0
  0
POINT
  5
7FB
330
576
100
AcDbEntity
  8
DEFPOINTS
 62
     0
100
AcDbPoint
 10
303.2824855828635
 20
112.2352944554032
 30
0.0
  0
POINT
  5
7FC
330
576
100
AcDbEntity
  8
DEFPOINTS
 62
     0
100
AcDbPoint
 10
260.0176918078632
 20
94.93061154632343
 30
0.0
  0
ENDBLK
  5
60F
330
576
100
AcDbEntity
  8
0
100
AcDbBlockEnd
  0
BLOCK
  5
610
330
582
100
AcDbEntity
  8
0
100
AcDbBlockBegin
  2
*D7
 70
     1
 10
0.0
 20
0.0
 30
0.0
  3
*D7
  1

  0
LINE
  5
7EB
330
582
100
AcDbEntity
  8
SUNPOU
 62
     4
100
AcDbLine
 10
321.4819269853756
 20
163.6724131393126
 30
0.0
 11
311.2836067804913
 21
189.1700842208649
 31
0.0
  0
LINE
  5
7EC
330
582
100
AcDbEntity
  8
SUNPOU
 62
     4
100
AcDbLine
 10
265.7728374056052
 20
141.3904120875328
 30
0.0
 11
255.5745172007208
 21
166.8880831690851
 31
0.0
  0
LINE
  5
7ED
330
582
100
AcDbEntity
  8
SUNPOU
 62
     4
100
AcDbLine
 10
309.0551993047991
 20
186.6632535280819
 30
0.0
 11
258.9170262403626
 21
166.6094556042011
 31
0.0
  0
INSERT
  5
7EE
330
582
100
AcDbEntity
  8
SUNPOU
 62
     4
100
AcDbBlockReference
  2
_OPEN
 10
311.8406575624661
 20
187.7773550920314
 30
0.0
 41
3.0
 42
3.0
 43
3.0
 50
21.79996003939554
  0
INSERT
  5
7EF
330
582
100
AcDbEntity
  8
SUNPOU
 62
     4
100
AcDbBlockReference
  2
_OPEN
 10
256.1315679826956
 20
165.4953540402517
 30
0.0
 41
3.0
 42
3.0
 43
3.0
 50
201.7999600393955
  0
MTEXT
  5
7F0
330
582
100
AcDbEntity
  8
SUNPOU
 62
     4
100
AcDbMText
 10
283.0576948026229
 20
178.9575697808641
 30
0.0
 40
3.0
 41
0.0
 71
     5
 72
     5
  1
\A1;60
 11
0.9284860858890006
 21
0.3713671879831649
 31
0.0
1001
ACAD
1000
MTEXTBEGIN
1070
    73
1070
     1
1070
    44
1040
1.0
1070
    74
1070
     0
1000
MTEXTEND
1000
MTEXTBEGIN
1070
    73
1070
     1
1070
    44
1040
1.0
1070
    74
1070
     0
1000
MTEXTEND
1000
MTEXTBEGIN
1070
    73
1070
     1
1070
    44
1040
1.0
1070
    74
1070
     0
1000
MTEXTEND
  0
POINT
  5
7F1
330
582
100
AcDbEntity
  8
DEFPOINTS
 62
     0
100
AcDbPoint
 10
322.5960285493251
 20
160.8869548816457
 30
0.0
  0
POINT
  5
7F2
330
582
100
AcDbEntity
  8
DEFPOINTS
 62
     0
100
AcDbPoint
 10
266.8869389695546
 20
138.6049538298659
 30
0.0
  0
POINT
  5
7F3
330
582
100
AcDbEntity
  8
DEFPOINTS
 62
     0
100
AcDbPoint
 10
256.1315679826956
 20
165.4953540402517
 30
0.0
  0
ENDBLK
  5
61A
330
582
100
AcDbEntity
  8
0
100
AcDbBlockEnd
  0
BLOCK
  5
61B
330
58E
100
AcDbEntity
  8
0
100
AcDbBlockBegin
  2
*D8
 70
     1
 10
0.0
 20
0.0
 30
0.0
  3
*D8
  1

  0
LINE
  5
7E2
330
58E
100
AcDbEntity
  8
SUNPOU
 62
     4
100
AcDbLine
 10
316.8395270428536
 20
161.8156009872813
 30
0.0
 11
310.4487005800958
 21
177.7938380984925
 31
0.0
  0
LINE
  5
7E3
330
58E
100
AcDbEntity
  8
SUNPOU
 62
     4
100
AcDbLine
 10
270.4152129508566
 20
143.2472362202859
 30
0.0
 11
264.0243864880989
 21
159.2254733314971
 31
0.0
  0
LINE
  5
7E4
330
58E
100
AcDbEntity
  8
SUNPOU
 62
     4
100
AcDbLine
 10
308.2202931718611
 20
175.2870073457442
 30
0.0
 11
267.3668955352383
 21
158.9468458565583
 31
0.0
  0
INSERT
  5
7E5
330
58E
100
AcDbEntity
  8
SUNPOU
 62
     4
100
AcDbBlockReference
  2
_OPEN
 10
311.0057513995482
 20
176.401108984649
 30
0.0
 41
3.0
 42
3.0
 43
3.0
 50
21.79996158119559
  0
INSERT
  5
7E6
330
58E
100
AcDbEntity
  8
SUNPOU
 62
     4
100
AcDbBlockReference
  2
_OPEN
 10
264.5814373075512
 20
157.8327442176536
 30
0.0
 41
3.0
 42
3.0
 43
3.0
 50
201.7999615811955
  0
MTEXT
  5
7E7
330
58E
100
AcDbEntity
  8
SUNPOU
 62
     4
100
AcDbMText
 10
286.8651763211291
 20
169.4381417908905
 30
0.0
 40
3.0
 41
0.0
 71
     5
 72
     5
  1
\A1;50
 11
0.9284860758956996
 21
0.3713672129682491
 31
0.0
1001
ACAD
1000
MTEXTBEGIN
1070
    73
1070
     1
1070
    44
1040
1.0
1070
    74
1070
     0
1000
MTEXTEND
1000
MTEXTBEGIN
1070
    73
1070
     1
1070
    44
1040
1.0
1070
    74
1070
     0
1000
MTEXTEND
1000
MTEXTBEGIN
1070
    73
1070
     1
1070
    44
1040
1.0
1070
    74
1070
     0
1000
MTEXTEND
  0
POINT
  5
7E8
330
58E
100
AcDbEntity
  8
DEFPOINTS
 62
     0
100
AcDbPoint
 10
317.9536286817583
 20
159.0301427595942
 30
0.0
  0
POINT
  5
7E9
330
58E
100
AcDbEntity
  8
DEFPOINTS
 62
     0
100
AcDbPoint
 10
271.5293145897613
 20
140.4617779925988
 30
0.0
  0
POINT
  5
7EA
330
58E
100
AcDbEntity
  8
DEFPOINTS
 62
     0
100
AcDbPoint
 10
264.5814373075512
 20
157.8327442176536
 30
0.0
  0
ENDBLK
  5
625
330
58E
100
AcDbEntity
  8
0
100
AcDbBlockEnd
  0
BLOCK
  5
626
330
59A
100
AcDbEntity
  8
0
100
AcDbBlockBegin
  2
*D9
 70
     1
 10
0.0
 20
0.0
 30
0.0
  3
*D9
  1

  0
LINE
  5
7B5
330
59A
100
AcDbEntity
  8
SUNPOU
 62
     4
100
AcDbLine
 10
212.2920154596878
 20
123.9225270013631
 30
0.0
 11
223.5336622665596
 21
128.4188424117532
 31
0.0
  0
LINE
  5
7B6
330
59A
100
AcDbEntity
  8
SUNPOU
 62
     4
100
AcDbLine
 10
229.0034939799457
 20
82.14064072371334
 30
0.0
 11
240.2451407868176
 21
86.63695613410348
 31
0.0
  0
LINE
  5
7B7
330
59A
100
AcDbEntity
  8
SUNPOU
 62
     4
100
AcDbLine
 10
223.2550312600148
 20
125.076333659006
 30
0.0
 11
237.7383123885467
 21
88.86536619098768
 31
0.0
  0
INSERT
  5
7B8
330
59A
100
AcDbEntity
  8
SUNPOU
 62
     4
100
AcDbBlockReference
  2
_OPEN
 10
222.1409325641518
 20
127.8617930638217
 30
0.0
 41
3.0
 42
3.0
 43
3.0
 50
111.7999010439989
  0
INSERT
  5
7B9
330
59A
100
AcDbEntity
  8
SUNPOU
 62
     4
100
AcDbBlockReference
  2
_OPEN
 10
238.8524110844097
 20
86.07990678617197
 30
0.0
 41
3.0
 42
3.0
 43
3.0
 50
291.799901043999
  0
MTEXT
  5
7BA
330
59A
100
AcDbEntity
  8
SUNPOU
 62
     4
100
AcDbMText
 10
232.8178879949605
 20
107.8992655048827
 30
0.0
 40
3.0
 41
0.0
 71
     5
 72
     5
  1
\A1;45
 11
0.3713662319543516
 21
-0.9284864682719005
 31
0.0
1001
ACAD
1000
MTEXTBEGIN
1070
    73
1070
     1
1070
    44
1040
1.0
1070
    74
1070
     0
1000
MTEXTEND
1000
MTEXTBEGIN
1070
    73
1070
     1
1070
    44
1040
1.0
1070
    74
1070
     0
1000
MTEXTEND
1000
MTEXTBEGIN
1070
    73
1070
     1
1070
    44
1040
1.0
1070
    74
1070
     0
1000
MTEXTEND
  0
POINT
  5
7BB
330
59A
100
AcDbEntity
  8
DEFPOINTS
 62
     0
100
AcDbPoint
 10
209.5065560548721
 20
122.8084283055
 30
0.0
  0
POINT
  5
7BC
330
59A
100
AcDbEntity
  8
DEFPOINTS
 62
     0
100
AcDbPoint
 10
226.21803457513
 20
81.0265420278503
 30
0.0
  0
POINT
  5
7BD
330
59A
100
AcDbEntity
  8
DEFPOINTS
 62
     0
100
AcDbPoint
 10
238.8524110844097
 20
86.07990678617197
 30
0.0
  0
ENDBLK
  5
630
330
59A
100
AcDbEntity
  8
0
100
AcDbBlockEnd
  0
BLOCK
  5
631
330
5A6
100
AcDbEntity
  8
0
100
AcDbBlockBegin
  2
*D10
 70
     1
 10
0.0
 20
0.0
 30
0.0
  3
*D10
  1

  0
LINE
  5
806
330
5A6
100
AcDbEntity
  8
SUNPOU
 62
     4
100
AcDbLine
 10
226.2178341883241
 20
77.79544299503722
 30
0.0
 11
230.9539900271819
 21
65.9529276546937
 31
0.0
  0
LINE
  5
807
330
5A6
100
AcDbEntity
  8
SUNPOU
 62
     4
100
AcDbLine
 10
227.3320341883243
 20
78.24104299503712
 30
0.0
 11
232.0681900271821
 21
66.39852765469362
 31
0.0
  0
LINE
  5
808
330
5A6
100
AcDbEntity
  8
SUNPOU
 62
     4
100
AcDbLine
 10
227.6114911877716
 20
66.23167755790593
 30
0.0
 11
224.8259921549585
 21
65.11767794471158
 31
0.0
  0
LINE
  5
809
330
5A6
100
AcDbEntity
  8
SUNPOU
 62
     4
100
AcDbLine
 10
234.296689253398
 20
68.90527678429451
 30
0.0
 11
246.3671850622549
 21
73.73260844146996
 31
0.0
  0
LINE
  5
80A
330
5A6
100
AcDbEntity
  8
SUNPOU
 62
     4
100
AcDbLine
 10
230.3969902205847
 20
67.34567717110026
 30
0.0
 11
231.5111902205849
 21
67.79127717110018
 31
0.0
  0
INSERT
  5
80B
330
5A6
100
AcDbEntity
  8
SUNPOU
 62
     4
100
AcDbBlockReference
  2
_OPEN
 10
230.3969902205847
 20
67.34567717110026
 30
0.0
 41
3.0
 42
3.0
 43
3.0
 50
21.79786296785696
  0
INSERT
  5
80C
330
5A6
100
AcDbEntity
  8
SUNPOU
 62
     4
100
AcDbBlockReference
  2
_OPEN
 10
231.5111902205849
 20
67.79127717110018
 30
0.0
 41
3.0
 42
3.0
 43
3.0
 50
201.797862967857
  0
MTEXT
  5
80D
330
5A6
100
AcDbEntity
  8
SUNPOU
 62
     4
100
AcDbMText
 10
240.7963536632378
 20
74.19719161349035
 30
0.0
 40
3.0
 41
0.0
 71
     5
 72
     5
  1
\A1;t1.2
 11
0.9284996776043763
 21
0.3713332043981113
 31
0.0
1001
ACAD
1000
MTEXTBEGIN
1070
    73
1070
     1
1070
    44
1040
1.0
1070
    74
1070
     0
1000
MTEXTEND
1000
MTEXTBEGIN
1070
    73
1070
     1
1070
    44
1040
1.0
1070
    74
1070
     0
1000
MTEXTEND
1000
MTEXTBEGIN
1070
    73
1070
     1
1070
    44
1040
1.0
1070
    74
1070
     0
1000
MTEXTEND
  0
POINT
  5
80E
330
5A6
100
AcDbEntity
  8
DEFPOINTS
 62
     0
100
AcDbPoint
 10
225.1038345751298
 20
80.58094202785035
 30
0.0
  0
POINT
  5
80F
330
5A6
100
AcDbEntity
  8
DEFPOINTS
 62
     0
100
AcDbPoint
 10
226.2180345751299
 20
81.02654202785025
 30
0.0
  0
POINT
  5
810
330
5A6
100
AcDbEntity
  8
DEFPOINTS
 62
     0
100
AcDbPoint
 10
231.5111902205849
 20
67.79127717110018
 30
0.0
  0
ENDBLK
  5
63D
330
5A6
100
AcDbEntity
  8
0
100
AcDbBlockEnd
  0
BLOCK
  5
63E
330
5B4
100
AcDbEntity
  8
0
100
AcDbBlockBegin
  2
*D11
 70
     1
 10
0.0
 20
0.0
 30
0.0
  3
*D11
  1

  0
LINE
  5
811
330
5B4
100
AcDbEntity
  8
SUNPOU
 62
     4
100
AcDbLine
 10
300.3178638460692
 20
116.4345732443707
 30
0.0
 11
287.303736738094
 21
111.2292937713387
 31
0.0
  0
LINE
  5
812
330
5B4
100
AcDbEntity
  8
SUNPOU
 62
     4
100
AcDbLine
 10
300.4970281022207
 20
111.1211909487525
 30
0.0
 11
289.1605521469283
 21
106.5869240634658
 31
0.0
  0
LINE
  5
813
330
5B4
100
AcDbEntity
  8
SUNPOU
 62
     4
100
AcDbLine
 10
287.5823619717647
 20
114.5718030053068
 30
0.0
 11
286.468258465114
 21
117.3572604859496
 31
0.0
  0
LINE
  5
814
330
5B4
100
AcDbEntity
  8
SUNPOU
 62
     4
100
AcDbLine
 10
291.6673843939004
 20
104.3585183361484
 30
0.0
 11
292.7814879005511
 21
101.5730608555057
 31
0.0
  0
LINE
  5
815
330
5B4
100
AcDbEntity
  8
SUNPOU
 62
     4
100
AcDbLine
 10
288.6964654784154
 20
111.7863455246641
 30
0.0
 11
290.5532808872497
 21
107.1439758167912
 31
0.0
  0
INSERT
  5
816
330
5B4
100
AcDbEntity
  8
SUNPOU
 62
     4
100
AcDbBlockReference
  2
_OPEN
 10
288.6964654784154
 20
111.7863455246641
 30
0.0
 41
3.0
 42
3.0
 43
3.0
 50
291.7999999999998
  0
INSERT
  5
817
330
5B4
100
AcDbEntity
  8
SUNPOU
 62
     4
100
AcDbBlockReference
  2
_OPEN
 10
290.5532808872497
 20
107.1439758167912
 30
0.0
 41
3.0
 42
3.0
 43
3.0
 50
111.7999999999998
  0
MTEXT
  5
818
330
5B4
100
AcDbEntity
  8
SUNPOU
 62
     4
100
AcDbMText
 10
291.9460877500349
 20
110.3935802596032
 30
0.0
 40
3.0
 41
0.0
 71
     5
 72
     5
  1
\A1;5
 11
0.3713678355502318
 21
-0.9284858268809147
 31
0.0
1001
ACAD
1000
MTEXTBEGIN
1070
    73
1070
     1
1070
    44
1040
1.0
1070
    74
1070
     0
1000
MTEXTEND
1000
MTEXTBEGIN
1070
    73
1070
     1
1070
    44
1040
1.0
1070
    74
1070
     0
1000
MTEXTEND
1000
MTEXTBEGIN
1070
    73
1070
     1
1070
    44
1040
1.0
1070
    74
1070
     0
1000
MTEXTEND
  0
POINT
  5
819
330
5B4
100
AcDbEntity
  8
DEFPOINTS
 62
     0
100
AcDbPoint
 10
303.1033213267119
 20
117.5486767510214
 30
0.0
  0
POINT
  5
81A
330
5B4
100
AcDbEntity
  8
DEFPOINTS
 62
     0
100
AcDbPoint
 10
303.2824855828635
 20
112.2352944554032
 30
0.0
  0
POINT
  5
81B
330
5B4
100
AcDbEntity
  8
DEFPOINTS
 62
     0
100
AcDbPoint
 10
290.5532808872497
 20
107.1439758167912
 30
0.0
  0
ENDBLK
  5
64A
330
5B4
100
AcDbEntity
  8
0
100
AcDbBlockEnd
  0
BLOCK
  5
64B
330
5C2
100
AcDbEntity
  8
0
100
AcDbBlockBegin
  2
*D12
 70
     1
 10
0.0
 20
0.0
 30
0.0
  3
*D12
  1

  0
LINE
  5
81C
330
5C2
100
AcDbEntity
  8
SUNPOU
 62
     4
100
AcDbLine
 10
219.5626345751299
 20
237.8083420278503
 30
0.0
 11
242.8791863571334
 21
237.8083420278503
 31
0.0
  0
LINE
  5
81D
330
5C2
100
AcDbEntity
  8
SUNPOU
 62
     4
100
AcDbLine
 10
219.5625345751298
 20
177.8084420278502
 30
0.0
 11
242.8791863571334
 21
177.8084420278502
 31
0.0
  0
LINE
  5
81E
330
5C2
100
AcDbEntity
  8
SUNPOU
 62
     4
100
AcDbLine
 10
241.3791863571334
 20
234.8083420278503
 30
0.0
 11
241.3791863571334
 21
180.8084420278502
 31
0.0
  0
INSERT
  5
81F
330
5C2
100
AcDbEntity
  8
SUNPOU
 62
     4
100
AcDbBlockReference
  2
_OPEN
 10
241.3791863571334
 20
237.8083420278503
 30
0.0
 41
3.0
 42
3.0
 43
3.0
 50
90.0
  0
INSERT
  5
820
330
5C2
100
AcDbEntity
  8
SUNPOU
 62
     4
100
AcDbBlockReference
  2
_OPEN
 10
241.3791863571334
 20
177.8084420278502
 30
0.0
 41
3.0
 42
3.0
 43
3.0
 50
270.0
  0
MTEXT
  5
821
330
5C2
100
AcDbEntity
  8
SUNPOU
 62
     4
100
AcDbMText
 10
238.8791863571334
 20
207.8083920278503
 30
0.0
 40
3.0
 41
0.0
 71
     5
 72
     5
  1
\A1;60
 11
0.0000000000000001
 21
1.0
 31
0.0
1001
ACAD
1000
MTEXTBEGIN
1070
    73
1070
     1
1070
    44
1040
1.0
1070
    74
1070
     0
1000
MTEXTEND
1000
MTEXTBEGIN
1070
    73
1070
     1
1070
    44
1040
1.0
1070
    74
1070
     0
1000
MTEXTEND
1000
MTEXTBEGIN
1070
    73
1070
     1
1070
    44
1040
1.0
1070
    74
1070
     0
1000
MTEXTEND
  0
POINT
  5
822
330
5C2
100
AcDbEntity
  8
DEFPOINTS
 62
     0
100
AcDbPoint
 10
216.5626345751298
 20
237.8083420278503
 30
0.0
  0
POINT
  5
823
330
5C2
100
AcDbEntity
  8
DEFPOINTS
 62
     0
100
AcDbPoint
 10
216.5625345751298
 20
177.8084420278502
 30
0.0
  0
POINT
  5
824
330
5C2
100
AcDbEntity
  8
DEFPOINTS
 62
     0
100
AcDbPoint
 10
241.3791863571334
 20
177.8084420278502
 30
0.0
  0
ENDBLK
  5
655
330
5C2
100
AcDbEntity
  8
0
100
AcDbBlockEnd
  0
ENDSEC
  0
SECTION
  2
ENTITIES
  0
POINT
  5
1A1
330
1A
100
AcDbEntity
  8
SUNPOU_L
  6
CONTINUOUS
100
AcDbPoint
 10
205.9553251990115
 20
146.5650665787895
 30
0.0
  0
POINT
  5
1A2
330
1A
100
AcDbEntity
  8
SUNPOU_L
  6
CONTINUOUS
100
AcDbPoint
 10
205.4553267650654
 20
145.6990402718312
 30
0.0
  0
LINE
  5
40D
330
1A
100
AcDbEntity
  8
SEIHIN
 62
     3
 48
16.0
100
AcDbLine
 10
171.45193457513
 20
122.8085420278503
 30
0.0
 11
206.12133457513
 21
122.8084420278503
 31
0.0
  0
LINE
  5
40E
330
1A
100
AcDbEntity
  8
SEIHIN
 62
     3
 48
16.0
100
AcDbLine
 10
173.81903457513
 20
117.8085420278502
 30
0.0
 11
204.08903457513
 21
117.8084420278503
 31
0.0
  0
LINE
  5
40F
330
1A
100
AcDbEntity
  8
CENTER_L
 62
     1
 48
5.0
100
AcDbLine
 10
230.15203457513
 20
207.8084420278503
 30
0.0
 11
94.35203457512999
 21
207.8085420278504
 31
0.0
  0
LINE
  5
410
330
1A
100
AcDbEntity
  8
SEIHIN
 62
     3
 48
16.0
100
AcDbLine
 10
225.7181339950836
 20
201.2584123161339
 30
0.0
 11
103.90663457513
 21
201.2585420278504
 31
0.0
  0
LINE
  5
411
330
1A
100
AcDbEntity
  8
SEIHIN
 62
     3
 48
16.0
100
AcDbLine
 10
225.7181351551764
 20
214.3584123161328
 30
0.0
 11
103.90663457513
 21
214.3585420278502
 31
0.0
  0
DIMENSION
  5
412
330
1A
100
AcDbEntity
  8
SUNPOU
100
AcDbDimension
  2
*D1
 10
189.506531609158
 20
138.9296033066425
 30
0.0
 11
199.506543832015
 21
141.4296033066425
 31
0.0
 70
    32
  3
STANDARD
100
AcDbAlignedDimension
 13
209.5065560548721
 23
122.8084283055
 33
0.0
 14
189.506531609158
 24
101.4386385758024
 34
0.0
100
AcDbRotatedDimension
1001
ACAD
1000
DSTYLE
1002
{
1070
   140
1040
3.0
1070
    74
1070
     0
1070
   172
1070
     1
1070
    73
1070
     0
1070
   272
1070
     2
1070
    77
1070
     3
1070
   173
1070
     1
1070
   147
1040
1.0
1070
    42
1040
3.0
1070
    44
1040
1.5
1070
    43
1040
7.0
1070
   271
1070
     0
1070
   178
1070
     4
1070
   177
1070
     4
1070
   176
1070
     4
1070
   141
1040
150.0
1070
     7
1000
_OPEN
1070
     6
1000
_OPEN
1070
    41
1040
3.0
1002
}
  0
DIMENSION
  5
413
330
1A
100
AcDbEntity
  8
SUNPOU
100
AcDbDimension
  2
*D2
 10
103.90653457513
 20
155.1013741265473
 30
0.0
 11
156.706545315001
 21
157.6013741265473
 31
0.0
 70
    32
  3
STANDARD
100
AcDbAlignedDimension
 13
209.5065560548721
 23
122.8084283055
 33
0.0
 14
103.90653457513
 24
102.7087420278503
 34
0.0
100
AcDbRotatedDimension
1001
ACAD
1000
DSTYLE
1002
{
1070
   140
1040
3.0
1070
    74
1070
     0
1070
   172
1070
     1
1070
    73
1070
     0
1070
   272
1070
     2
1070
    77
1070
     3
1070
   173
1070
     1
1070
   147
1040
1.0
1070
    42
1040
3.0
1070
    44
1040
1.5
1070
    43
1040
7.0
1070
   271
1070
     0
1070
   178
1070
     4
1070
   177
1070
     4
1070
   176
1070
     4
1070
   141
1040
150.0
1070
     7
1000
_OPEN
1070
     6
1000
_OPEN
1070
    41
1040
3.0
1002
}
  0
DIMENSION
  5
414
330
1A
100
AcDbEntity
  8
SUNPOU
100
AcDbDimension
  2
*D3
 10
89.48985574495189
 20
108.8087420278503
 30
0.0
 11
86.98985574495187
 21
94.69484202785043
 31
0.0
 70
    32
  3
STANDARD
100
AcDbAlignedDimension
 13
225.1038345751299
 23
80.58094202785037
 33
0.0
 14
109.50653457513
 24
108.8087420278503
 34
0.0
 50
90.0
100
AcDbRotatedDimension
1001
ACAD
1000
DSTYLE
1002
{
1070
   140
1040
3.0
1070
    74
1070
     0
1070
   172
1070
     1
1070
    73
1070
     0
1070
   272
1070
     2
1070
    77
1070
     3
1070
   173
1070
     1
1070
   147
1040
1.0
1070
    42
1040
3.0
1070
    44
1040
1.5
1070
    43
1040
7.0
1070
   271
1070
     0
1070
   178
1070
     4
1070
   177
1070
     4
1070
   176
1070
     4
1070
   141
1040
150.0
1070
     7
1000
_OPEN
1070
     6
1000
_OPEN
1070
    41
1040
3.0
1002
}
  0
LINE
  5
415
330
1A
100
AcDbEntity
  8
SEIHIN
 62
     3
 48
16.0
100
AcDbLine
 10
128.6688345751299
 20
99.80864202785028
 30
0.0
 11
147.00653457513
 21
99.80864202785028
 31
0.0
  0
LINE
  5
416
330
1A
100
AcDbEntity
  8
SEIHIN
 62
     3
 48
16.0
100
AcDbLine
 10
125.3021345751299
 20
95.80864202785036
 30
0.0
 11
147.00653457513
 21
95.80864202785036
 31
0.0
  0
LINE
  5
417
330
1A
100
AcDbEntity
  8
NOKITOI
 62
     8
 48
5.0
100
AcDbLine
 10
147.006531609158
 20
62.63873857580259
 30
0.0
 11
127.506531609158
 21
62.63873857580259
 31
0.0
  0
LINE
  5
418
330
1A
100
AcDbEntity
  8
NOKITOI
 62
     8
 48
5.0
100
AcDbLine
 10
122.706531609158
 20
61.43873857580257
 30
0.0
 11
147.006531609158
 21
61.43873857580257
 31
0.0
  0
ARC
  5
419
330
1A
100
AcDbEntity
  8
SEIHIN
 62
     3
 48
16.0
100
AcDbCircle
 10
125.3021856827667
 20
98.80860519073138
 30
0.0
 40
2.999963163316352
100
AcDbArc
 50
198.4327647962198
 51
269.9990239040528
  0
LINE
  5
41A
330
1A
100
AcDbEntity
  8
SEIHIN
 62
     3
 48
16.0
100
AcDbLine
 10
113.50653457513
 20
103.7086420278503
 30
0.0
 11
113.50653457513
 21
93.55144202785036
 31
0.0
  0
LINE
  5
41B
330
1A
100
AcDbEntity
  8
SEIHIN
 62
     3
 48
16.0
100
AcDbLine
 10
113.00653457513
 20
103.7086420278503
 30
0.0
 11
113.00653457513
 21
93.55144202785036
 31
0.0
  0
LINE
  5
41C
330
1A
100
AcDbEntity
  8
SEIHIN
 62
     3
 48
16.0
100
AcDbLine
 10
112.50653457513
 20
103.7086420278503
 30
0.0
 11
112.50653457513
 21
93.84814202785028
 31
0.0
  0
LINE
  5
41D
330
1A
100
AcDbEntity
  8
NOKITOI
 62
     8
 48
5.0
100
AcDbLine
 10
108.4229316091578
 20
100.2387385758026
 30
0.0
 11
109.361631609158
 21
95.6387385758026
 31
0.0
  0
LINE
  5
41E
330
1A
100
AcDbEntity
  8
NOKITOI
 62
     8
 48
5.0
100
AcDbLine
 10
105.7066316091579
 20
100.2387385758026
 30
0.0
 11
105.7066316091579
 21
95.6387385758026
 31
0.0
  0
LINE
  5
41F
330
1A
100
AcDbEntity
  8
NOKITOI
 62
     8
 48
5.0
100
AcDbLine
 10
104.506531609158
 20
94.4387385758026
 30
0.0
 11
104.5066316091579
 21
101.4387385758026
 31
0.0
  0
LINE
  5
420
330
1A
100
AcDbEntity
  8
SEIHIN
 62
     3
 48
16.0
100
AcDbLine
 10
104.50653457513
 20
94.70874202785038
 30
0.0
 11
104.50653457513
 21
103.8087420278503
 31
0.0
  0
LINE
  5
421
330
1A
100
AcDbEntity
  8
SEIHIN
 62
     3
 48
16.0
100
AcDbLine
 10
103.90653457513
 20
94.70874202785038
 30
0.0
 11
103.90653457513
 21
102.7087420278503
 31
0.0
  0
LINE
  5
422
330
1A
100
AcDbEntity
  8
SEIHIN
 62
     3
 48
16.0
100
AcDbLine
 10
113.9858345751299
 20
92.97044202785036
 30
0.0
 11
122.5385345751299
 21
97.64154202785029
 31
0.0
  0
LINE
  5
423
330
1A
100
AcDbEntity
  8
SEIHIN
 62
     3
 48
16.0
100
AcDbLine
 10
114.4858345751299
 20
92.67384202785029
 30
0.0
 11
122.7707345751299
 21
97.1986420278503
 31
0.0
  0
LINE
  5
424
330
1A
100
AcDbEntity
  8
NOKITOI
 62
     8
 48
5.0
100
AcDbLine
 10
109.4050316091579
 20
101.4387385758026
 30
0.0
 11
115.6391316091579
 21
70.8913385758025
 31
0.0
  0
LINE
  5
425
330
1A
100
AcDbEntity
  8
NOKITOI
 62
     8
 48
5.0
100
AcDbLine
 10
109.606631609158
 20
94.4387385758026
 30
0.0
 11
114.606531609158
 21
69.9387385758026
 31
0.0
  0
ARC
  5
426
330
1A
100
AcDbEntity
  8
NOKITOI
 62
     8
 48
5.0
100
AcDbCircle
 10
111.9222274962879
 20
59.2713428917734
 30
0.0
 40
10.99994632941524
100
AcDbArc
 50
11.36374015671925
 51
75.87555169639184
  0
LINE
  5
427
330
1A
100
AcDbEntity
  8
NOKITOI
 62
     8
 48
5.0
100
AcDbLine
 10
121.2465316091579
 20
67.13873857580253
 30
0.0
 11
126.3065316091578
 21
67.13873857580253
 31
0.0
  0
LINE
  5
428
330
1A
100
AcDbEntity
  8
NOKITOI
 62
     8
 48
5.0
100
AcDbLine
 10
120.084431609158
 20
68.33873857580252
 30
0.0
 11
127.506531609158
 21
68.33873857580252
 31
0.0
  0
LINE
  5
429
330
1A
100
AcDbEntity
  8
NOKITOI
 62
     8
 48
5.0
100
AcDbLine
 10
126.3065316091578
 20
62.63873857580259
 30
0.0
 11
123.6482316091579
 21
62.63873857580259
 31
0.0
  0
ARC
  5
42A
330
1A
100
AcDbEntity
  8
NOKITOI
 62
     8
 48
5.0
100
AcDbCircle
 10
111.9222272480325
 20
59.2713467471103
 30
0.0
 40
12.19993877054614
100
AcDbArc
 50
16.02263637925393
 51
40.15603560521631
  0
ARC
  5
42B
330
1A
100
AcDbEntity
  8
NOKITOI
 62
     8
 48
5.0
100
AcDbCircle
 10
111.9221898221818
 20
59.27136257069157
 30
0.0
 40
12.19997945109428
100
AcDbArc
 50
48.00719042627341
 51
72.26181654227993
  0
LINE
  5
42C
330
1A
100
AcDbEntity
  8
NOKITOI
 62
     8
 48
5.0
100
AcDbLine
 10
126.3065316091578
 20
62.63873857580259
 30
0.0
 11
126.3065316091578
 21
67.13873857580253
 31
0.0
  0
LINE
  5
42D
330
1A
100
AcDbEntity
  8
NOKITOI
 62
     8
 48
5.0
100
AcDbLine
 10
127.506531609158
 20
62.63873857580259
 30
0.0
 11
127.506531609158
 21
68.33873857580252
 31
0.0
  0
LINE
  5
42E
330
1A
100
AcDbEntity
  8
SEIHIN
 62
     3
 48
16.0
100
AcDbLine
 10
109.3065345751299
 20
93.70874202785037
 30
0.0
 11
105.50653457513
 21
93.70874202785037
 31
0.0
  0
LINE
  5
42F
330
1A
100
AcDbEntity
  8
SEIHIN
 62
     3
 48
16.0
100
AcDbLine
 10
109.3065345751299
 20
93.10874202785029
 30
0.0
 11
105.50653457513
 21
93.10874202785029
 31
0.0
  0
LINE
  5
430
330
1A
100
AcDbEntity
  8
NOKITOI
 62
     8
 48
5.0
100
AcDbLine
 10
109.361631609158
 20
95.6387385758026
 30
0.0
 11
105.7066316091579
 21
95.6387385758026
 31
0.0
  0
LINE
  5
431
330
1A
100
AcDbEntity
  8
NOKITOI
 62
     8
 48
5.0
100
AcDbLine
 10
104.506531609158
 20
94.4387385758026
 30
0.0
 11
109.606631609158
 21
94.4387385758026
 31
0.0
  0
ARC
  5
432
330
1A
100
AcDbEntity
  8
SEIHIN
 62
     3
 48
16.0
100
AcDbCircle
 10
105.50653457513
 20
94.70874202785038
 30
0.0
 40
1.0
100
AcDbArc
 50
180.0
 51
270.0
  0
ARC
  5
433
330
1A
100
AcDbEntity
  8
SEIHIN
 62
     3
 48
16.0
100
AcDbCircle
 10
105.50653457513
 20
94.70874202785035
 30
0.0
 40
1.600000000000051
100
AcDbArc
 50
179.9999999999989
 51
269.9999999999989
  0
LINE
  5
434
330
1A
100
AcDbEntity
  8
SEIHIN
 62
     3
 48
16.0
100
AcDbLine
 10
109.3065345751299
 20
93.70874202785037
 30
0.0
 11
109.3065345751299
 21
93.10874202785029
 31
0.0
  0
ARC
  5
435
330
1A
100
AcDbEntity
  8
SEIHIN
 62
     3
 48
16.0
100
AcDbCircle
 10
114.0065113740534
 20
93.55145579376591
 30
0.0
 40
0.4999767991129506
100
AcDbArc
 50
180.0015775309251
 51
298.6376467001073
  0
ARC
  5
436
330
1A
100
AcDbEntity
  8
SEIHIN
 62
     3
 48
16.0
100
AcDbCircle
 10
114.0065121371265
 20
93.5514553396797
 30
0.0
 40
0.9999775620851208
100
AcDbArc
 50
180.0007627287535
 51
298.6418608679199
  0
ARC
  5
437
330
1A
100
AcDbEntity
  8
SEIHIN
 62
     3
 48
16.0
100
AcDbCircle
 10
113.5065267450686
 20
93.84815201040726
 30
0.0
 40
0.9999921699884623
100
AcDbArc
 50
180.0005719628614
 51
256.2200246735066
  0
LINE
  5
438
330
1A
100
AcDbEntity
  8
SEIHIN
 62
     3
 48
16.0
100
AcDbLine
 10
105.50653457513
 20
103.7087420278503
 30
0.0
 11
118.34423457513
 21
103.7086420278503
 31
0.0
  0
LINE
  5
439
330
1A
100
AcDbEntity
  8
SEIHIN
 62
     3
 48
16.0
100
AcDbLine
 10
118.46123457513
 20
108.8087420278503
 30
0.0
 11
109.50653457513
 21
108.8087420278503
 31
0.0
  0
ARC
  5
43A
330
1A
100
AcDbEntity
  8
SEIHIN
 62
     3
 48
16.0
100
AcDbCircle
 10
109.50653457513
 20
103.8087420278503
 30
0.0
 40
5.0
100
AcDbArc
 50
90.0
 51
180.0
  0
LINE
  5
43B
330
1A
100
AcDbEntity
  8
NOKITOI
 62
     8
 48
5.0
100
AcDbLine
 10
108.4229316091578
 20
100.2387385758026
 30
0.0
 11
105.7066316091579
 21
100.2387385758026
 31
0.0
  0
LINE
  5
43C
330
1A
100
AcDbEntity
  8
NOKITOI
 62
     8
 48
5.0
100
AcDbLine
 10
104.5066316091579
 20
101.4387385758026
 30
0.0
 11
109.4050316091579
 21
101.4387385758026
 31
0.0
  0
ARC
  5
43D
330
1A
100
AcDbEntity
  8
SEIHIN
 62
     3
 48
16.0
100
AcDbCircle
 10
105.5065198765574
 20
102.7087115017472
 30
0.0
 40
1.599985301718659
100
AcDbArc
 50
128.5765029246821
 51
179.9989068544136
  0
ARC
  5
43E
330
1A
100
AcDbEntity
  8
SEIHIN
 62
     3
 48
16.0
100
AcDbCircle
 10
105.50653457513
 20
102.7087420278503
 30
0.0
 40
1.0
100
AcDbArc
 50
90.0
 51
180.0
  0
LINE
  5
43F
330
1A
100
AcDbEntity
  8
SEIHIN
 62
     3
 48
16.0
100
AcDbLine
 10
113.50653457513
 20
111.8087420278503
 30
0.0
 11
112.50653457513
 21
111.8087420278503
 31
0.0
  0
LINE
  5
440
330
1A
100
AcDbEntity
  8
SEIHIN
 62
     3
 48
16.0
100
AcDbLine
 10
112.50653457513
 20
108.8087420278503
 30
0.0
 11
112.50653457513
 21
111.8087420278503
 31
0.0
  0
LINE
  5
441
330
1A
100
AcDbEntity
  8
SEIHIN
 62
     3
 48
16.0
100
AcDbLine
 10
113.00653457513
 20
108.8087420278503
 30
0.0
 11
113.00653457513
 21
111.8087420278503
 31
0.0
  0
LINE
  5
442
330
1A
100
AcDbEntity
  8
SEIHIN
 62
     3
 48
16.0
100
AcDbLine
 10
113.50653457513
 20
108.8087420278503
 30
0.0
 11
113.50653457513
 21
111.8087420278503
 31
0.0
  0
ARC
  5
443
330
1A
100
AcDbEntity
  8
SEIHIN
 62
     3
 48
16.0
100
AcDbCircle
 10
118.4612469430249
 20
101.808733113576
 30
0.0
 40
7.000008914285215
100
AcDbArc
 50
18.43505005538998
 51
90.00010123246797
  0
ARC
  5
444
330
1A
100
AcDbEntity
  8
SEIHIN
 62
     3
 48
16.0
100
AcDbCircle
 10
118.3442054028158
 20
100.7086630538311
 30
0.0
 40
2.999978974161103
100
AcDbArc
 50
18.43499562786981
 51
89.99944284593667
  0
LINE
  5
445
330
1A
100
AcDbEntity
  8
SEIHIN
 62
     3
 48
16.0
100
AcDbLine
 10
121.1902345751299
 20
101.6573420278503
 30
0.0
 11
122.45613457513
 21
97.86004202785036
 31
0.0
  0
ARC
  5
446
330
1A
100
AcDbEntity
  8
SEIHIN
 62
     3
 48
16.0
100
AcDbCircle
 10
128.6688856827666
 20
102.8086051907314
 30
0.0
 40
2.999963163316471
100
AcDbArc
 50
198.4327647962198
 51
269.9990239040528
  0
LINE
  5
447
330
1A
100
AcDbEntity
  8
SEIHIN
 62
     3
 48
16.0
100
AcDbLine
 10
125.1020345751298
 20
104.0222420278503
 30
0.0
 11
125.8227345751298
 21
101.8600420278503
 31
0.0
  0
LINE
  5
448
330
1A
100
AcDbEntity
  8
NOKITOI
 62
     8
 48
5.0
100
AcDbLine
 10
185.5902316091579
 20
100.2386385758024
 30
0.0
 11
184.651431609158
 21
95.63863857580257
 31
0.0
  0
LINE
  5
449
330
1A
100
AcDbEntity
  8
NOKITOI
 62
     8
 48
5.0
100
AcDbLine
 10
188.3065316091579
 20
100.2386385758024
 30
0.0
 11
188.3065316091579
 21
95.63863857580257
 31
0.0
  0
LINE
  5
44A
330
1A
100
AcDbEntity
  8
NOKITOI
 62
     8
 48
5.0
100
AcDbLine
 10
189.506531609158
 20
94.43863857580245
 30
0.0
 11
189.506531609158
 21
101.4386385758024
 31
0.0
  0
LINE
  5
44B
330
1A
100
AcDbEntity
  8
SEIHIN
 62
     3
 48
16.0
100
AcDbLine
 10
189.50653457513
 20
94.70854202785037
 30
0.0
 11
189.50663457513
 21
103.8085420278503
 31
0.0
  0
LINE
  5
44C
330
1A
100
AcDbEntity
  8
SEIHIN
 62
     3
 48
16.0
100
AcDbLine
 10
190.1065345751298
 20
94.70854202785037
 30
0.0
 11
190.1065345751298
 21
102.7085420278503
 31
0.0
  0
ARC
  5
44D
330
1A
100
AcDbEntity
  8
SEIHIN
 62
     3
 48
16.0
100
AcDbCircle
 10
168.7109712144128
 20
98.80856843595124
 30
0.0
 40
3.000026408324595
100
AcDbArc
 50
269.9993002474029
 51
341.5643514244811
  0
LINE
  5
44E
330
1A
100
AcDbEntity
  8
SEIHIN
 62
     3
 48
16.0
100
AcDbLine
 10
180.02723457513
 20
92.97034202785027
 30
0.0
 11
171.47463457513
 21
97.64134202785037
 31
0.0
  0
LINE
  5
44F
330
1A
100
AcDbEntity
  8
SEIHIN
 62
     3
 48
16.0
100
AcDbLine
 10
179.5272345751299
 20
92.67374202785038
 30
0.0
 11
171.2423345751299
 21
97.19854202785038
 31
0.0
  0
LINE
  5
450
330
1A
100
AcDbEntity
  8
SEIHIN
 62
     3
 48
16.0
100
AcDbLine
 10
180.50663457513
 20
103.7085420278502
 30
0.0
 11
180.50653457513
 21
93.55134202785038
 31
0.0
  0
LINE
  5
451
330
1A
100
AcDbEntity
  8
SEIHIN
 62
     3
 48
16.0
100
AcDbLine
 10
181.00663457513
 20
103.7085420278502
 30
0.0
 11
181.00653457513
 21
93.55134202785038
 31
0.0
  0
LINE
  5
452
330
1A
100
AcDbEntity
  8
SEIHIN
 62
     3
 48
16.0
100
AcDbLine
 10
181.5066345751299
 20
103.7085420278502
 30
0.0
 11
181.50653457513
 21
93.84794202785036
 31
0.0
  0
LINE
  5
453
330
1A
100
AcDbEntity
  8
NOKITOI
 62
     8
 48
5.0
100
AcDbLine
 10
184.608131609158
 20
101.4386385758024
 30
0.0
 11
178.373931609158
 21
70.89123857580259
 31
0.0
  0
LINE
  5
454
330
1A
100
AcDbEntity
  8
SEIHIN
 62
     3
 48
16.0
100
AcDbLine
 10
168.71093457513
 20
95.80854202785037
 30
0.0
 11
147.00653457513
 21
95.80864202785036
 31
0.0
  0
LINE
  5
455
330
1A
100
AcDbEntity
  8
NOKITOI
 62
     8
 48
5.0
100
AcDbLine
 10
171.3065316091578
 20
61.43873857580257
 30
0.0
 11
147.006531609158
 21
61.43873857580257
 31
0.0
  0
LINE
  5
456
330
1A
100
AcDbEntity
  8
NOKITOI
 62
     8
 48
5.0
100
AcDbLine
 10
147.006531609158
 20
62.63873857580259
 30
0.0
 11
166.506531609158
 21
62.63873857580259
 31
0.0
  0
LINE
  5
457
330
1A
100
AcDbEntity
  8
CENTER_L
 62
     1
 48
5.0
100
AcDbLine
 10
147.006531609158
 20
54.43873857580257
 30
0.0
 11
147.006531609158
 21
69.63873857580259
 31
0.0
  0
LINE
  5
458
330
1A
100
AcDbEntity
  8
NOKITOI
 62
     8
 48
5.0
100
AcDbLine
 10
184.406531609158
 20
94.43863857580245
 30
0.0
 11
179.406531609158
 21
69.9387385758026
 31
0.0
  0
LINE
  5
459
330
1A
100
AcDbEntity
  8
NOKITOI
 62
     8
 48
5.0
100
AcDbLine
 10
173.928631609158
 20
68.33863857580261
 30
0.0
 11
166.506531609158
 21
68.33873857580252
 31
0.0
  0
ARC
  5
45A
330
1A
100
AcDbEntity
  8
NOKITOI
 62
     8
 48
5.0
100
AcDbCircle
 10
182.090835722028
 20
59.27124289177328
 30
0.0
 40
10.99994632941526
100
AcDbArc
 50
104.1244483036074
 51
168.6362598432798
  0
LINE
  5
45B
330
1A
100
AcDbEntity
  8
NOKITOI
 62
     8
 48
5.0
100
AcDbLine
 10
167.7065316091581
 20
62.63873857580259
 30
0.0
 11
167.7065316091581
 21
67.13873857580253
 31
0.0
  0
LINE
  5
45C
330
1A
100
AcDbEntity
  8
NOKITOI
 62
     8
 48
5.0
100
AcDbLine
 10
166.506531609158
 20
62.6386385758025
 30
0.0
 11
166.506531609158
 21
68.33873857580252
 31
0.0
  0
ARC
  5
45D
330
1A
100
AcDbEntity
  8
NOKITOI
 62
     8
 48
5.0
100
AcDbCircle
 10
182.0909085928287
 20
59.27138281666788
 30
0.0
 40
12.19997101530972
100
AcDbArc
 50
139.8443138052131
 51
163.9780719705774
  0
LINE
  5
45E
330
1A
100
AcDbEntity
  8
NOKITOI
 62
     8
 48
5.0
100
AcDbLine
 10
167.7065316091581
 20
62.63873857580259
 30
0.0
 11
170.364831609158
 21
62.63873857580259
 31
0.0
  0
LINE
  5
45F
330
1A
100
AcDbEntity
  8
NOKITOI
 62
     8
 48
5.0
100
AcDbLine
 10
172.766531609158
 20
67.13873857580253
 30
0.0
 11
167.7065316091581
 21
67.13873857580253
 31
0.0
  0
ARC
  5
460
330
1A
100
AcDbEntity
  8
NOKITOI
 62
     8
 48
5.0
100
AcDbCircle
 10
182.0908733961342
 20
59.27126257069196
 30
0.0
 40
12.19997945109404
100
AcDbArc
 50
107.7381834577211
 51
131.9928095737274
  0
ARC
  5
461
330
1A
100
AcDbEntity
  8
SEIHIN
 62
     3
 48
16.0
100
AcDbCircle
 10
180.0065570131334
 20
93.55135533967981
 30
0.0
 40
0.999977562085202
100
AcDbArc
 50
241.3581391320733
 51
359.9992372712423
  0
ARC
  5
462
330
1A
100
AcDbEntity
  8
SEIHIN
 62
     3
 48
16.0
100
AcDbCircle
 10
180.5065424051913
 20
93.84795201040725
 30
0.0
 40
0.9999921699885575
100
AcDbArc
 50
283.7799753264978
 51
359.9994280371426
  0
ARC
  5
463
330
1A
100
AcDbEntity
  8
SEIHIN
 62
     3
 48
16.0
100
AcDbCircle
 10
180.0065338101311
 20
93.55134157404373
 30
0.0
 40
0.5000007649991042
100
AcDbArc
 50
241.3539253752726
 51
0.0000520023310446
  0
ARC
  5
464
330
1A
100
AcDbEntity
  8
SEIHIN
 62
     3
 48
16.0
100
AcDbCircle
 10
188.50653457513
 20
94.70854202785037
 30
0.0
 40
1.0
100
AcDbArc
 50
270.0
 51
0.0
  0
LINE
  5
465
330
1A
100
AcDbEntity
  8
NOKITOI
 62
     8
 48
5.0
100
AcDbLine
 10
189.506531609158
 20
94.43863857580245
 30
0.0
 11
184.406531609158
 21
94.43863857580245
 31
0.0
  0
ARC
  5
466
330
1A
100
AcDbEntity
  8
SEIHIN
 62
     3
 48
16.0
100
AcDbCircle
 10
188.5065345751299
 20
94.70854202785025
 30
0.0
 40
1.599999999999965
100
AcDbArc
 50
270.0000000000041
 51
0.0000000000040711
  0
LINE
  5
467
330
1A
100
AcDbEntity
  8
NOKITOI
 62
     8
 48
5.0
100
AcDbLine
 10
184.651431609158
 20
95.63863857580257
 30
0.0
 11
188.3065316091579
 21
95.63863857580257
 31
0.0
  0
LINE
  5
468
330
1A
100
AcDbEntity
  8
SEIHIN
 62
     3
 48
16.0
100
AcDbLine
 10
184.70653457513
 20
93.70854202785038
 30
0.0
 11
188.50653457513
 21
93.70854202785038
 31
0.0
  0
LINE
  5
469
330
1A
100
AcDbEntity
  8
SEIHIN
 62
     3
 48
16.0
100
AcDbLine
 10
184.70653457513
 20
93.10854202785028
 30
0.0
 11
188.50653457513
 21
93.10854202785028
 31
0.0
  0
LINE
  5
46A
330
1A
100
AcDbEntity
  8
SEIHIN
 62
     3
 48
16.0
100
AcDbLine
 10
184.70653457513
 20
93.70854202785038
 30
0.0
 11
184.70653457513
 21
93.10854202785028
 31
0.0
  0
LINE
  5
46B
330
1A
100
AcDbEntity
  8
SEIHIN
 62
     3
 48
16.0
100
AcDbLine
 10
165.34423457513
 20
99.80854202785037
 30
0.0
 11
147.00653457513
 21
99.80864202785028
 31
0.0
  0
LINE
  5
46C
330
1A
100
AcDbEntity
  8
SEIHIN
 62
     3
 48
16.0
100
AcDbLine
 10
166.58903457513
 20
118.9713420278502
 30
0.0
 11
162.91583457513
 21
103.6108420278503
 31
0.0
  0
LINE
  5
46D
330
1A
100
AcDbEntity
  8
SEIHIN
 62
     3
 48
16.0
100
AcDbLine
 10
159.99803457513
 20
101.3086420278502
 30
0.0
 11
139.50653457513
 21
101.3086420278502
 31
0.0
  0
LINE
  5
46E
330
1A
100
AcDbEntity
  8
SEIHIN
 62
     3
 48
16.0
100
AcDbLine
 10
139.50653457513
 20
101.3086420278502
 30
0.0
 11
139.50653457513
 21
99.80864202785028
 31
0.0
  0
ARC
  5
46F
330
1A
100
AcDbEntity
  8
SEIHIN
 62
     3
 48
16.0
100
AcDbCircle
 10
159.9980090785914
 20
104.308621909382
 30
0.0
 40
2.99997988164015
100
AcDbArc
 50
270.0004869512834
 51
346.5520738032679
  0
ARC
  5
470
330
1A
100
AcDbEntity
  8
SEIHIN
 62
     3
 48
16.0
100
AcDbCircle
 10
171.4519025241468
 20
117.8085956444252
 30
0.0
 40
4.999946383886803
100
AcDbArc
 50
90.00077864672652
 51
166.5526481677431
  0
LINE
  5
471
330
1A
100
AcDbEntity
  8
SEIHIN
 62
     3
 48
16.0
100
AcDbLine
 10
180.5066650953521
 20
110.8085420278503
 30
0.0
 11
181.506666013379
 21
110.8085420278503
 31
0.0
  0
LINE
  5
472
330
1A
100
AcDbEntity
  8
SEIHIN
 62
     3
 48
16.0
100
AcDbLine
 10
188.5066345751298
 20
103.7085420278502
 30
0.0
 11
175.66893457513
 21
103.7085420278502
 31
0.0
  0
LINE
  5
473
330
1A
100
AcDbEntity
  8
SEIHIN
 62
     3
 48
16.0
100
AcDbLine
 10
175.55193457513
 20
108.8085420278503
 30
0.0
 11
184.5066345751298
 21
108.8085420278503
 31
0.0
  0
ARC
  5
474
330
1A
100
AcDbEntity
  8
SEIHIN
 62
     3
 48
16.0
100
AcDbCircle
 10
175.5519222072349
 20
101.8085331135759
 30
0.0
 40
7.000008914285379
100
AcDbArc
 50
89.99989876753039
 51
161.5649499446083
  0
LINE
  5
475
330
1A
100
AcDbEntity
  8
SEIHIN
 62
     3
 48
16.0
100
AcDbLine
 10
170.9013345751299
 20
115.5062420278503
 30
0.0
 11
167.3264345751299
 21
100.5566420278503
 31
0.0
  0
ARC
  5
476
330
1A
100
AcDbEntity
  8
SEIHIN
 62
     3
 48
16.0
100
AcDbCircle
 10
175.6688856827666
 20
100.7086788649693
 30
0.0
 40
2.999963163316346
100
AcDbArc
 50
90.0009760959471
 51
161.5672352037801
  0
ARC
  5
477
330
1A
100
AcDbEntity
  8
SEIHIN
 62
     3
 48
16.0
100
AcDbCircle
 10
165.3443054028158
 20
102.8085210018696
 30
0.0
 40
2.999978974161116
100
AcDbArc
 50
270.0005571540621
 51
341.5650043721288
  0
LINE
  5
478
330
1A
100
AcDbEntity
  8
SEIHIN
 62
     3
 48
16.0
100
AcDbLine
 10
172.8228345751299
 20
101.6572420278503
 30
0.0
 11
171.55703457513
 21
97.8598420278503
 31
0.0
  0
LINE
  5
479
330
1A
100
AcDbEntity
  8
SEIHIN
 62
     3
 48
16.0
100
AcDbLine
 10
168.9111345751298
 20
104.0221420278503
 30
0.0
 11
168.1903345751299
 21
101.8599420278503
 31
0.0
  0
ARC
  5
47A
330
1A
100
AcDbEntity
  8
SEIHIN
 62
     3
 48
16.0
100
AcDbCircle
 10
173.8190600716684
 20
114.8085621463184
 30
0.0
 40
2.999979881640136
100
AcDbArc
 50
90.00048695128025
 51
166.5520738032647
  0
LINE
  5
47B
330
1A
100
AcDbEntity
  8
SEIHIN
 62
     3
 48
16.0
100
AcDbLine
 10
181.0066847858179
 20
108.8085420278503
 30
0.0
 11
181.0066650953521
 21
110.8085420278503
 31
0.0
  0
LINE
  5
47C
330
1A
100
AcDbEntity
  8
SEIHIN
 62
     3
 48
16.0
100
AcDbLine
 10
180.5066847858179
 20
108.8085420278503
 30
0.0
 11
180.5066650953521
 21
110.8085420278503
 31
0.0
  0
ARC
  5
47D
330
1A
100
AcDbEntity
  8
SEIHIN
 62
     3
 48
16.0
100
AcDbCircle
 10
184.5066345751299
 20
103.8085420278503
 30
0.0
 40
5.000000000000056
100
AcDbArc
 50
0.0000000000006514
 51
90.00000000000063
  0
ARC
  5
47E
330
1A
100
AcDbEntity
  8
SEIHIN
 62
     3
 48
16.0
100
AcDbCircle
 10
188.5066345751299
 20
102.7085420278502
 30
0.0
 40
1.000000000000042
100
AcDbArc
 50
0.000000000007328
 51
90.00000000000733
  0
LINE
  5
47F
330
1A
100
AcDbEntity
  8
NOKITOI
 62
     8
 48
5.0
100
AcDbLine
 10
189.506531609158
 20
101.4386385758024
 30
0.0
 11
184.608131609158
 21
101.4386385758024
 31
0.0
  0
LINE
  5
480
330
1A
100
AcDbEntity
  8
NOKITOI
 62
     8
 48
5.0
100
AcDbLine
 10
185.5902316091579
 20
100.2386385758024
 30
0.0
 11
188.3065316091579
 21
100.2386385758024
 31
0.0
  0
ARC
  5
481
330
1A
100
AcDbEntity
  8
SEIHIN
 62
     3
 48
16.0
100
AcDbCircle
 10
188.5066492737024
 20
102.708511501747
 30
0.0
 40
1.599985301718769
100
AcDbArc
 50
0.0010931455947831
 51
51.42349707532636
  0
LINE
  5
482
330
1A
100
AcDbEntity
  8
SEIHIN
 62
     3
 48
16.0
100
AcDbLine
 10
181.5066862961204
 20
108.8085420278503
 30
0.0
 11
181.506666013379
 21
110.8085420278503
 31
0.0
  0
LINE
  5
483
330
1A
100
AcDbEntity
  8
SEIHIN
 62
     3
 48
16.0
100
AcDbLine
 10
190.10663457513
 20
200.2584408402031
 30
0.0
 11
104.9065345751299
 21
200.2585420278503
 31
0.0
  0
LINE
  5
484
330
1A
100
AcDbEntity
  8
SEIHIN
 62
     3
 48
16.0
100
AcDbLine
 10
139.50663457513
 20
203.7585420278503
 30
0.0
 11
124.50653457513
 21
203.7585420278503
 31
0.0
  0
LINE
  5
485
330
1A
100
AcDbEntity
  8
SEIHIN
 62
     3
 48
16.0
100
AcDbLine
 10
139.50663457513
 20
205.7585420278503
 30
0.0
 11
130.5065345751299
 21
205.7585420278503
 31
0.0
  0
LINE
  5
486
330
1A
100
AcDbEntity
  8
SEIHIN
 62
     3
 48
16.0
100
AcDbLine
 10
139.50663457513
 20
209.8585420278502
 30
0.0
 11
130.5065345751299
 21
209.8585420278502
 31
0.0
  0
LINE
  5
487
330
1A
100
AcDbEntity
  8
SEIHIN
 62
     3
 48
16.0
100
AcDbLine
 10
139.50663457513
 20
211.8585420278502
 30
0.0
 11
124.50653457513
 21
211.8585420278502
 31
0.0
  0
LINE
  5
488
330
1A
100
AcDbEntity
  8
SEIHIN
 62
     3
 48
16.0
100
AcDbLine
 10
190.10663457513
 20
215.3584408403234
 30
0.0
 11
104.9065345751299
 21
215.3585420278502
 31
0.0
  0
DIMENSION
  5
489
330
1A
100
AcDbEntity
  8
SUNPOU
100
AcDbDimension
  2
*D4
 10
89.39708315362349
 20
200.2585420278503
 30
0.0
 11
86.89708315362345
 21
207.8085420278503
 31
0.0
 70
    32
  3
STANDARD
100
AcDbAlignedDimension
 13
104.9065345751299
 23
215.3585420278502
 33
0.0
 14
104.9065345751299
 24
200.2585420278503
 34
0.0
 50
90.0
100
AcDbRotatedDimension
1001
ACAD
1000
DSTYLE
1002
{
1070
   140
1040
3.0
1070
    74
1070
     0
1070
   172
1070
     1
1070
    73
1070
     0
1070
   272
1070
     2
1070
    77
1070
     3
1070
   173
1070
     1
1070
   147
1040
1.0
1070
    42
1040
3.0
1070
    44
1040
1.5
1070
    43
1040
7.0
1070
   271
1070
     0
1070
   178
1070
     4
1070
   177
1070
     4
1070
   176
1070
     4
1070
   141
1040
150.0
1070
     7
1000
_OPEN
1070
     6
1000
_OPEN
1070
    41
1040
3.0
1002
}
  0
LINE
  5
48A
330
1A
100
AcDbEntity
  8
SEIHIN
 62
     3
 48
16.0
100
AcDbLine
 10
106.40663457513
 20
211.3585420278502
 30
0.0
 11
103.90663457513
 21
212.8585420278502
 31
0.0
  0
LINE
  5
48B
330
1A
100
AcDbEntity
  8
SEIHIN
 62
     3
 48
16.0
100
AcDbLine
 10
103.90663457513
 20
201.2585420278504
 30
0.0
 11
103.90663457513
 21
214.3585420278502
 31
0.0
  0
LINE
  5
48C
330
1A
100
AcDbEntity
  8
SEIHIN
100
AcDbLine
 10
123.1400066052566
 20
202.2585197153544
 30
0.0
 11
123.1400066052566
 21
213.358519715353
 31
0.0
  0
LINE
  5
48D
330
1A
100
AcDbEntity
  8
SEIHIN
100
AcDbLine
 10
120.506401496547
 20
202.2585227705808
 30
0.0
 11
120.506401496547
 21
213.3585227705793
 31
0.0
  0
LINE
  5
48E
330
1A
100
AcDbEntity
  8
SEIHIN
 62
     3
 48
16.0
100
AcDbLine
 10
104.9065345751299
 20
200.2584420278502
 30
0.0
 11
104.9065345751299
 21
201.2584420278502
 31
0.0
  0
LINE
  5
48F
330
1A
100
AcDbEntity
  8
SEIHIN
 62
     3
 48
16.0
100
AcDbLine
 10
103.90663457513
 20
205.7585420278503
 30
0.0
 11
106.40663457513
 21
204.2585420278503
 31
0.0
  0
LINE
  5
490
330
1A
100
AcDbEntity
  8
SEIHIN
100
AcDbLine
 10
106.40663457513
 20
204.2585420278503
 30
0.0
 11
103.90663457513
 21
204.2585420278503
 31
0.0
  0
LINE
  5
491
330
1A
100
AcDbEntity
  8
SEIHIN
 62
     3
 48
16.0
100
AcDbLine
 10
106.40663457513
 20
204.2585420278503
 30
0.0
 11
103.90663457513
 21
202.7585420278503
 31
0.0
  0
LINE
  5
492
330
1A
100
AcDbEntity
  8
SEIHIN
 62
     3
 48
16.0
100
AcDbLine
 10
103.90663457513
 20
209.8585420278502
 30
0.0
 11
106.40663457513
 21
211.3585420278502
 31
0.0
  0
LINE
  5
493
330
1A
100
AcDbEntity
  8
SEIHIN
100
AcDbLine
 10
106.40663457513
 20
211.3585420278502
 30
0.0
 11
103.90663457513
 21
211.3585420278502
 31
0.0
  0
ARC
  5
494
330
1A
100
AcDbEntity
  8
SEIHIN
100
AcDbCircle
 10
122.0590345749216
 20
207.8085420278503
 30
0.0
 40
9.552499999802478
100
AcDbArc
 50
161.3801196496292
 51
198.6198803503707
  0
ARC
  5
495
330
1A
100
AcDbEntity
  8
SEIHIN
100
AcDbCircle
 10
122.5590345749215
 20
207.8085420278503
 30
0.0
 40
9.552499999802478
100
AcDbArc
 50
161.3801196496292
 51
198.6198803503707
  0
LINE
  5
496
330
1A
100
AcDbEntity
  8
SEIHIN
 62
     3
 48
16.0
100
AcDbLine
 10
110.50653457513
 20
203.7584420278502
 30
0.0
 11
110.50653457513
 21
211.8585420278502
 31
0.0
  0
LINE
  5
497
330
1A
100
AcDbEntity
  8
SEIHIN
 62
     3
 48
16.0
100
AcDbLine
 10
115.50653457513
 20
203.7584420278502
 30
0.0
 11
115.50653457513
 21
211.8585420278502
 31
0.0
  0
LINE
  5
498
330
1A
100
AcDbEntity
  8
SEIHIN
 62
     3
 48
16.0
100
AcDbLine
 10
115.50653457513
 20
203.7585420278503
 30
0.0
 11
110.50653457513
 21
203.7585420278503
 31
0.0
  0
LINE
  5
499
330
1A
100
AcDbEntity
  8
SEIHIN
 62
     3
 48
16.0
100
AcDbLine
 10
115.50653457513
 20
204.7585420278503
 30
0.0
 11
113.00653457513
 21
204.7585420278503
 31
0.0
  0
LINE
  5
49A
330
1A
100
AcDbEntity
  8
SEIHIN
 62
     3
 48
16.0
100
AcDbLine
 10
115.50653457513
 20
211.8585420278502
 30
0.0
 11
110.50653457513
 21
211.8585420278502
 31
0.0
  0
LINE
  5
49B
330
1A
100
AcDbEntity
  8
SEIHIN
 62
     3
 48
16.0
100
AcDbLine
 10
115.50653457513
 20
210.8585420278502
 30
0.0
 11
113.00653457513
 21
210.8585420278502
 31
0.0
  0
LINE
  5
49C
330
1A
100
AcDbEntity
  8
SEIHIN
100
AcDbLine
 10
126.5065029499333
 20
200.2585163747117
 30
0.0
 11
126.5065029499333
 21
201.2585158099056
 31
0.0
  0
LINE
  5
49D
330
1A
100
AcDbEntity
  8
SEIHIN
100
AcDbLine
 10
123.5066083657134
 20
200.2585199375276
 30
0.0
 11
123.5066083657134
 21
201.2585192900617
 31
0.0
  0
LINE
  5
49E
330
1A
100
AcDbEntity
  8
SEIHIN
 62
     3
 48
16.0
100
AcDbLine
 10
130.5065345751299
 20
203.7584420278502
 30
0.0
 11
130.5065345751299
 21
211.8585420278502
 31
0.0
  0
LINE
  5
49F
330
1A
100
AcDbEntity
  8
SEIHIN
 62
     3
 48
16.0
100
AcDbLine
 10
124.50653457513
 20
211.8585420278502
 30
0.0
 11
124.50653457513
 21
203.7584420278502
 31
0.0
  0
LINE
  5
4A0
330
1A
100
AcDbEntity
  8
SEIHIN
 62
     3
 48
16.0
100
AcDbLine
 10
130.5065345751299
 20
204.7585420278503
 30
0.0
 11
124.50653457513
 21
204.7585420278503
 31
0.0
  0
LINE
  5
4A1
330
1A
100
AcDbEntity
  8
SEIHIN
 62
     3
 48
16.0
100
AcDbLine
 10
130.5065345751299
 20
210.8585420278502
 30
0.0
 11
124.50653457513
 21
210.8585420278502
 31
0.0
  0
LINE
  5
4A2
330
1A
100
AcDbEntity
  8
SEIHIN
 62
     3
 48
16.0
100
AcDbLine
 10
104.9065345751299
 20
215.3587420278502
 30
0.0
 11
104.9065345751299
 21
214.3587420278502
 31
0.0
  0
LINE
  5
4A3
330
1A
100
AcDbEntity
  8
SEIHIN
100
AcDbLine
 10
123.5066083657134
 20
214.3585192900616
 30
0.0
 11
123.5066083657134
 21
215.3585199375537
 31
0.0
  0
LINE
  5
4A4
330
1A
100
AcDbEntity
  8
SEIHIN
100
AcDbLine
 10
126.5065029499333
 20
214.3585158099055
 30
0.0
 11
126.5065029499333
 21
215.3585163747421
 31
0.0
  0
LINE
  5
4A5
330
1A
100
AcDbEntity
  8
SEIHIN
 62
     3
 48
16.0
100
AcDbLine
 10
139.50663457513
 20
201.2585007285463
 30
0.0
 11
139.50663457513
 21
214.3585007285463
 31
0.0
  0
LINE
  5
4A6
330
1A
100
AcDbEntity
  8
SEIHIN
100
AcDbLine
 10
162.3653029492063
 20
202.2584742103702
 30
0.0
 11
162.3653029492063
 21
213.3584742103689
 31
0.0
  0
LINE
  5
4A7
330
1A
100
AcDbEntity
  8
SEIHIN
 62
     3
 48
16.0
100
AcDbLine
 10
154.5066345751299
 20
206.7584420278502
 30
0.0
 11
139.50663457513
 21
206.7584420278502
 31
0.0
  0
LINE
  5
4A8
330
1A
100
AcDbEntity
  8
SEIHIN
 62
     3
 48
16.0
100
AcDbLine
 10
154.5066345751299
 20
204.7584420278502
 30
0.0
 11
139.50663457513
 21
204.7584420278502
 31
0.0
  0
LINE
  5
4A9
330
1A
100
AcDbEntity
  8
SEIHIN
 62
     3
 48
16.0
100
AcDbLine
 10
154.5066345751299
 20
210.8585420278502
 30
0.0
 11
139.50663457513
 21
210.8585420278502
 31
0.0
  0
LINE
  5
4AA
330
1A
100
AcDbEntity
  8
SEIHIN
 62
     3
 48
16.0
100
AcDbLine
 10
154.5066345751299
 20
208.8585420278502
 30
0.0
 11
139.50663457513
 21
208.8585420278502
 31
0.0
  0
ARC
  5
4AB
330
1A
100
AcDbEntity
  8
SEIHIN
 62
     3
 48
16.0
100
AcDbCircle
 10
154.5066654171999
 20
206.8585178179968
 30
0.0
 40
4.000024209972323
100
AcDbArc
 50
13.73930738124134
 51
90.00044177743701
  0
ARC
  5
4AC
330
1A
100
AcDbEntity
  8
SEIHIN
 62
     3
 48
16.0
100
AcDbCircle
 10
154.5066654171997
 20
208.7584662377037
 30
0.0
 40
4.000024209972438
100
AcDbArc
 50
269.9995582225652
 51
346.2606926187616
  0
ARC
  5
4AD
330
1A
100
AcDbEntity
  8
SEIHIN
 62
     3
 48
16.0
100
AcDbCircle
 10
154.5066555268809
 20
208.7584545277721
 30
0.0
 40
2.000012500031665
100
AcDbArc
 50
269.9993997802969
 51
331.6404363341673
  0
ARC
  5
4AE
330
1A
100
AcDbEntity
  8
SEIHIN
 62
     3
 48
16.0
100
AcDbCircle
 10
154.5066555268811
 20
206.8585295279283
 30
0.0
 40
2.000012500031574
100
AcDbArc
 50
28.35956366584006
 51
90.00060021970874
  0
LINE
  5
4AF
330
1A
100
AcDbEntity
  8
SEIHIN
100
AcDbLine
 10
167.5066389359434
 20
202.2584682459433
 30
0.0
 11
167.5066389359434
 21
213.358468245942
 31
0.0
  0
LINE
  5
4B0
330
1A
100
AcDbEntity
  8
SEIHIN
100
AcDbLine
 10
170.5067488198805
 20
200.2584641179496
 30
0.0
 11
170.5067488198805
 21
201.2584647655367
 31
0.0
  0
LINE
  5
4B1
330
1A
100
AcDbEntity
  8
SEIHIN
100
AcDbLine
 10
167.5064673939769
 20
200.258467681225
 30
0.0
 11
167.5064673939769
 21
201.2584682461417
 31
0.0
  0
LINE
  5
4B2
330
1A
100
AcDbEntity
  8
SEIHIN
 62
     3
 48
16.0
100
AcDbLine
 10
190.10663457513
 20
200.2584408402031
 30
0.0
 11
190.10663457513
 21
201.2584084220295
 31
0.0
  0
LINE
  5
4B3
330
1A
100
AcDbEntity
  8
SEIHIN
100
AcDbLine
 10
167.5064673939769
 20
214.3584682461417
 30
0.0
 11
167.5064673939769
 21
215.3584676813133
 31
0.0
  0
LINE
  5
4B4
330
1A
100
AcDbEntity
  8
SEIHIN
100
AcDbLine
 10
170.5067488198805
 20
214.3584647655368
 30
0.0
 11
170.5067488198805
 21
215.3584641180422
 31
0.0
  0
LINE
  5
4B5
330
1A
100
AcDbEntity
  8
SEIHIN
 62
     3
 48
16.0
100
AcDbLine
 10
190.10663457513
 20
215.3584408403233
 30
0.0
 11
190.10663457513
 21
214.3584084220298
 31
0.0
  0
LINE
  5
4B6
330
1A
100
AcDbEntity
  8
SEIHIN
 62
     3
 48
16.0
100
AcDbLine
 10
296.9986821489611
 20
152.1808058854261
 30
0.0
 11
304.054682148961
 21
134.5396058854261
 31
0.0
  0
LINE
  5
4B7
330
1A
100
AcDbEntity
  8
SEIHIN
 62
     3
 48
16.0
100
AcDbLine
 10
293.998582148961
 20
146.2178058854261
 30
0.0
 11
296.598182148961
 21
139.7184058854261
 31
0.0
  0
LINE
  5
4B8
330
1A
100
AcDbEntity
  8
SEIHIN
 62
     3
 48
16.0
100
AcDbLine
 10
297.712582148961
 20
147.7032058854262
 30
0.0
 11
300.312082148961
 21
141.203805885426
 31
0.0
  0
LINE
  5
4B9
330
1A
100
AcDbEntity
  8
SEIHIN
 62
     3
 48
16.0
100
AcDbLine
 10
290.4703821489611
 20
144.268105885426
 30
0.0
 11
277.471482148961
 21
139.068905885426
 31
0.0
  0
LINE
  5
4BA
330
1A
100
AcDbEntity
  8
SEIHIN
 62
     3
 48
16.0
100
AcDbLine
 10
291.4277821489611
 20
149.952605885426
 30
0.0
 11
298.4837821489609
 21
132.311405885426
 31
0.0
  0
LINE
  5
4BB
330
1A
100
AcDbEntity
  8
SEIHIN
 62
     3
 48
16.0
100
AcDbLine
 10
302.9111213267122
 20
113.1637767510215
 30
0.0
 11
286.942382148961
 21
153.088705885426
 31
0.0
  0
LINE
  5
4BC
330
1A
100
AcDbEntity
  8
SEIHIN
 62
     3
 48
16.0
100
AcDbLine
 10
326.1239821489609
 20
149.373805885426
 30
0.0
 11
304.7687821489611
 21
140.8323058854261
 31
0.0
  0
LINE
  5
4BD
330
1A
100
AcDbEntity
  8
SEIHIN
 62
     3
 48
16.0
100
AcDbLine
 10
267.815382148961
 20
138.9763058854261
 30
0.0
 11
289.170582148961
 21
147.5178058854261
 31
0.0
  0
DIMENSION
  5
4BE
330
1A
100
AcDbEntity
  8
SUNPOU
100
AcDbDimension
  2
*D5
 10
255.5614785022334
 20
127.6130224638757
 30
0.0
 11
255.4688214270585
 21
134.5765517022885
 31
0.0
 70
    32
  3
STANDARD
100
AcDbAlignedDimension
 13
286.5710372013637
 23
154.017139905934
 33
0.0
 14
270.210982148961
 24
133.4724058854261
 34
0.0
 50
111.7999999999998
100
AcDbRotatedDimension
1001
ACAD
1000
DSTYLE
1002
{
1070
   140
1040
3.0
1070
    74
1070
     0
1070
   172
1070
     1
1070
    73
1070
     0
1070
   272
1070
     2
1070
    77
1070
     3
1070
   173
1070
     1
1070
   147
1040
1.0
1070
    42
1040
3.0
1070
    44
1040
1.5
1070
    43
1040
7.0
1070
   271
1070
     0
1070
   178
1070
     4
1070
   177
1070
     4
1070
   176
1070
     4
1070
   141
1040
150.0
1070
     7
1000
_OPEN
1070
     6
1000
_OPEN
1070
    41
1040
3.0
1002
}
  0
DIMENSION
  5
4BF
330
1A
100
AcDbEntity
  8
SUNPOU
100
AcDbDimension
  2
*D6
 10
260.0176918078632
 20
94.93061154632343
 30
0.0
 11
253.9831401511199
 21
116.7499370483856
 31
0.0
 70
    32
  3
STANDARD
100
AcDbAlignedDimension
 13
286.5710372013637
 23
154.017139905934
 33
0.0
 14
303.2824855828635
 24
112.2352944554032
 34
0.0
 50
111.7999999999998
100
AcDbRotatedDimension
1001
ACAD
1000
DSTYLE
1002
{
1070
   140
1040
3.0
1070
    74
1070
     0
1070
   172
1070
     1
1070
    73
1070
     0
1070
   272
1070
     2
1070
    77
1070
     3
1070
   173
1070
     1
1070
   147
1040
1.0
1070
    42
1040
3.0
1070
    44
1040
1.5
1070
    43
1040
7.0
1070
   271
1070
     0
1070
   178
1070
     4
1070
   177
1070
     4
1070
   176
1070
     4
1070
   141
1040
150.0
1070
     7
1000
_OPEN
1070
     6
1000
_OPEN
1070
    41
1040
3.0
1002
}
  0
DIMENSION
  5
4C0
330
1A
100
AcDbEntity
  8
SUNPOU
100
AcDbDimension
  2
*D7
 10
256.1315679826956
 20
165.4953540402517
 30
0.0
 11
283.0576948026229
 21
178.9575697808641
 31
0.0
 70
    33
  3
STANDARD
100
AcDbAlignedDimension
 13
322.5960285493251
 23
160.8869548816457
 33
0.0
 14
266.8869389695546
 24
138.6049538298659
 34
0.0
1001
ACAD
1000
DSTYLE
1002
{
1070
   140
1040
3.0
1070
    74
1070
     0
1070
   172
1070
     1
1070
    73
1070
     0
1070
   272
1070
     2
1070
    77
1070
     3
1070
   173
1070
     1
1070
   147
1040
1.0
1070
    42
1040
3.0
1070
    44
1040
1.5
1070
    43
1040
7.0
1070
   271
1070
     0
1070
   178
1070
     4
1070
   177
1070
     4
1070
   176
1070
     4
1070
   141
1040
150.0
1070
     7
1000
_OPEN
1070
     6
1000
_OPEN
1070
    41
1040
3.0
1002
}
  0
DIMENSION
  5
4C1
330
1A
100
AcDbEntity
  8
SUNPOU
100
AcDbDimension
  2
*D8
 10
264.5814373075512
 20
157.8327442176536
 30
0.0
 11
286.8651763211291
 21
169.4381417908905
 31
0.0
 70
    33
  3
STANDARD
100
AcDbAlignedDimension
 13
317.9536286817583
 23
159.0301427595942
 33
0.0
 14
271.5293145897613
 24
140.4617779925988
 34
0.0
1001
ACAD
1000
DSTYLE
1002
{
1070
   140
1040
3.0
1070
    74
1070
     0
1070
   172
1070
     1
1070
    73
1070
     0
1070
   272
1070
     2
1070
    77
1070
     3
1070
   173
1070
     1
1070
   147
1040
1.0
1070
    42
1040
3.0
1070
    44
1040
1.5
1070
    43
1040
7.0
1070
   271
1070
     0
1070
   178
1070
     4
1070
   177
1070
     4
1070
   176
1070
     4
1070
   141
1040
150.0
1070
     7
1000
_OPEN
1070
     6
1000
_OPEN
1070
    41
1040
3.0
1002
}
  0
LINE
  5
4C2
330
1A
100
AcDbEntity
  8
CENTER_L
 62
     1
 48
5.0
100
AcDbLine
 10
289.877882148961
 20
161.9059058854261
 30
0.0
 11
310.7103213267122
 21
109.8210767510215
 31
0.0
  0
LINE
  5
4C3
330
1A
100
AcDbEntity
  8
SEIHIN
 62
     3
 48
16.0
100
AcDbLine
 10
314.053021326712
 20
117.6201767510215
 30
0.0
 11
298.0841821489609
 21
157.545105885426
 31
0.0
  0
TEXT
  5
4C4
330
1A
100
AcDbEntity
  8
SUNPOU
 62
     4
100
AcDbText
 10
235.3152748635834
 20
46.38140402181921
 30
0.0
 40
3.0
  1
4
100
AcDbText
  0
LEADER
  5
4C5
330
1A
100
AcDbEntity
  8
SUNPOU
 62
     4
100
AcDbLeader
  3
STANDARD
 73
     0
 74
     0
 40
3.0
 41
15.59999999999999
 76
     3
 10
273.0280905804912
 20
133.3001551381858
 30
0.0
 10
260.8936787734528
 20
118.2756661097523
 30
0.0
 10
265.5362940102154
 20
118.2756661097523
 30
0.0
211
1.0
221
-0.0000000000000003
231
0.0
1001
ACAD
1000
DSTYLE
1002
{
1070
     6
1000
OPEN
1070
    41
1040
3.0
1070
    42
1040
3.0
1070
    43
1040
7.0
1070
    44
1040
1.5
1070
    73
1070
     0
1070
    74
1070
     0
1070
    77
1070
     3
1070
   140
1040
3.0
1070
   141
1040
150.0
1070
   147
1040
1.0
1070
   172
1070
     1
1070
   173
1070
     1
1070
   176
1070
     4
1070
   177
1070
     4
1070
   178
1070
     4
1070
   271
1070
     0
1070
   272
1070
     2
1070
   341
1005
B2
1070
   343
1005
B2
1070
   344
1005
B2
1002
}
  0
LINE
  5
4C6
330
1A
100
AcDbEntity
  8
SEIHIN
 62
     3
 48
16.0
100
AcDbLine
 10
211.33543457513
 20
103.0765420278503
 30
0.0
 11
215.07413457513
 21
93.72914202785038
 31
0.0
  0
LINE
  5
4C7
330
1A
100
AcDbEntity
  8
SEIHIN
 62
     3
 48
16.0
100
AcDbLine
 10
210.7637345751299
 20
119.6652420278502
 30
0.0
 11
226.21803457513
 21
81.0265420278503
 31
0.0
  0
DIMENSION
  5
4C8
330
1A
100
AcDbEntity
  8
SUNPOU
100
AcDbDimension
  2
*D9
 10
238.8524110844097
 20
86.07990678617197
 30
0.0
 11
232.8178879949605
 21
107.8992655048827
 31
0.0
 70
    33
  3
STANDARD
100
AcDbAlignedDimension
 13
209.5065560548721
 23
122.8084283055
 33
0.0
 14
226.21803457513
 24
81.0265420278503
 34
0.0
1001
ACAD
1000
DSTYLE
1002
{
1070
   140
1040
3.0
1070
    74
1070
     0
1070
   172
1070
     1
1070
    73
1070
     0
1070
   272
1070
     2
1070
    77
1070
     3
1070
   173
1070
     1
1070
   147
1040
1.0
1070
    42
1040
3.0
1070
    44
1040
1.5
1070
    43
1040
7.0
1070
   271
1070
     0
1070
   178
1070
     4
1070
   177
1070
     4
1070
   176
1070
     4
1070
   141
1040
150.0
1070
     7
1000
_OPEN
1070
     6
1000
_OPEN
1070
    41
1040
3.0
1002
}
  0
LINE
  5
4C9
330
1A
100
AcDbEntity
  8
CENTER_L
 62
     1
 48
5.0
100
AcDbLine
 10
220.49383457513
 20
84.12214202785037
 30
0.0
 11
230.8605999478405
 21
88.26855985811205
 31
0.0
  0
DIMENSION
  5
4CA
330
1A
100
AcDbEntity
  8
SUNPOU
100
AcDbDimension
  2
*D10
 10
231.5111902205849
 20
67.79127717110018
 30
0.0
 11
240.7963536632378
 21
74.19719161349035
 31
0.0
 70
    33
  1
t<>
  3
STANDARD
100
AcDbAlignedDimension
 13
225.1038345751298
 23
80.58094202785033
 33
0.0
 14
226.2180345751299
 24
81.02654202785027
 34
0.0
1001
ACAD
1000
DSTYLE
1002
{
1070
   140
1040
3.0
1070
    74
1070
     0
1070
   172
1070
     1
1070
    73
1070
     0
1070
   272
1070
     2
1070
    77
1070
     3
1070
   173
1070
     1
1070
   147
1040
1.0
1070
    42
1040
3.0
1070
    44
1040
1.5
1070
    43
1040
7.0
1070
   271
1070
     1
1070
   178
1070
     4
1070
   177
1070
     4
1070
   176
1070
     4
1070
   141
1040
150.0
1070
     7
1000
_OPEN
1070
     6
1000
_OPEN
1070
    41
1040
3.0
1002
}
  0
TEXT
  5
4CB
330
1A
100
AcDbEntity
  8
SUNPOU
 62
     4
100
AcDbText
 10
229.7425174868405
 20
53.52812431905443
 30
0.0
 40
3.0
  1
10
100
AcDbText
  0
LINE
  5
4CC
330
1A
100
AcDbEntity
  8
SUNPOU
 62
     4
 48
16.0
100
AcDbLine
 10
238.4572460523521
 20
50.42802072259503
 30
0.0
 11
227.3321306380157
 21
78.24108920598053
 31
0.0
  0
LINE
  5
4CD
330
1A
100
AcDbEntity
  8
SEIHIN
 62
     3
 48
16.0
100
AcDbLine
 10
219.5398365289142
 20
94.49193714303868
 30
0.0
 11
225.1038345751299
 21
80.58094202785037
 31
0.0
  0
LINE
  5
4CE
330
1A
100
AcDbEntity
  8
SEIHIN
 62
     3
 48
16.0
100
AcDbLine
 10
225.1038345751299
 20
80.58094202785037
 30
0.0
 11
226.21803457513
 21
81.0265420278503
 31
0.0
  0
LINE
  5
4CF
330
1A
100
AcDbEntity
  8
SEIHIN
 62
     3
 48
16.0
100
AcDbLine
 10
219.5398365289142
 20
94.49193714303868
 30
0.0
 11
216.38753457513
 21
93.1774420278503
 31
0.0
  0
ARC
  5
4D0
330
1A
100
AcDbEntity
  8
SEIHIN
 62
     3
 48
16.0
100
AcDbCircle
 10
216.0026075472912
 20
94.10045337962069
 30
0.0
 40
0.9999670894521393
100
AcDbArc
 50
201.7972685882302
 51
292.6399965942565
  0
LINE
  5
4D1
330
1A
100
AcDbEntity
  8
SUNPOU
100
AcDbLine
 10
234.457246052352
 20
50.42802072259503
 30
0.0
 11
234.457246052352
 21
60.42812137684785
 31
0.0
  0
LINE
  5
4D2
330
1A
100
AcDbEntity
  8
SUNPOU
100
AcDbLine
 10
238.457246052352
 20
50.42802072259503
 30
0.0
 11
234.457246052352
 21
50.42802072259503
 31
0.0
  0
LINE
  5
4D3
330
1A
100
AcDbEntity
  8
SEIHIN
 62
     3
 48
16.0
100
AcDbLine
 10
216.5625345751298
 20
105.1672420278502
 30
0.0
 11
210.2213345751299
 21
102.6309420278503
 31
0.0
  0
LINE
  5
4D4
330
1A
100
AcDbEntity
  8
SEIHIN
 62
     3
 48
16.0
100
AcDbLine
 10
210.99193457513
 20
115.8634420278503
 30
0.0
 11
215.44833457513
 21
104.7215420278503
 31
0.0
  0
ARC
  5
4D5
330
1A
100
AcDbEntity
  8
SEIHIN
 62
     3
 48
16.0
100
AcDbCircle
 10
215.2990179438795
 20
111.1265836094162
 30
0.0
 40
3.767170040549268
100
AcDbArc
 50
148.2835997223415
 51
255.3167603849423
  0
LINE
  5
4D6
330
1A
100
AcDbEntity
  8
CENTER_L
 62
     1
 48
5.0
100
AcDbLine
 10
209.48933457513
 20
108.8002420278502
 30
0.0
 11
220.8337130225503
 21
113.3376911575048
 31
0.0
  0
LINE
  5
4D7
330
1A
100
AcDbEntity
  8
SEIHIN
 62
     3
 48
16.0
100
AcDbLine
 10
210.2213345751299
 20
102.6309420278503
 30
0.0
 11
205.7648345751299
 21
113.7727420278502
 31
0.0
  0
ARC
  5
4D8
330
1A
100
AcDbEntity
  8
SEIHIN
 62
     3
 48
16.0
100
AcDbCircle
 10
204.0890442288724
 20
115.8084354916217
 30
0.0
 40
2.000006536251957
100
AcDbArc
 50
21.7990261723942
 51
90.00027655844609
  0
LINE
  5
4D9
330
1A
100
AcDbEntity
  8
SEIHIN
 62
     3
 48
16.0
100
AcDbLine
 10
212.10613457513
 20
116.3090420278503
 30
0.0
 11
205.7648345751299
 21
113.7727420278502
 31
0.0
  0
LINE
  5
4DA
330
1A
100
AcDbEntity
  8
SEIHIN
 62
     3
 48
16.0
100
AcDbLine
 10
205.94603457513
 20
116.5511420278503
 30
0.0
 11
206.87903457513
 21
114.2183420278503
 31
0.0
  0
ARC
  5
4DB
330
1A
100
AcDbEntity
  8
SEIHIN
 62
     3
 48
16.0
100
AcDbCircle
 10
206.1213038536996
 20
117.8084628279369
 30
0.0
 40
4.999979200007757
100
AcDbArc
 50
21.79935509959807
 51
89.99964795687477
  0
DIMENSION
  5
4DC
330
1A
100
AcDbEntity
  8
SUNPOU
100
AcDbDimension
  2
*D11
 10
290.5532808872497
 20
107.1439758167912
 30
0.0
 11
291.9460877500349
 21
110.3935802596032
 31
0.0
 70
    32
  3
STANDARD
100
AcDbAlignedDimension
 13
303.103321326712
 23
117.5486767510214
 33
0.0
 14
303.2824855828635
 24
112.2352944554032
 34
0.0
 50
111.7999999999998
100
AcDbRotatedDimension
1001
ACAD
1000
DSTYLE
1002
{
1070
   140
1040
3.0
1070
    74
1070
     0
1070
   172
1070
     1
1070
    73
1070
     0
1070
   272
1070
     2
1070
    77
1070
     3
1070
   173
1070
     1
1070
   147
1040
1.0
1070
    42
1040
3.0
1070
    44
1040
1.5
1070
    43
1040
7.0
1070
   271
1070
     0
1070
   178
1070
     4
1070
   177
1070
     4
1070
   176
1070
     4
1070
   141
1040
150.0
1070
     7
1000
_OPEN
1070
     6
1000
_OPEN
1070
    41
1040
3.0
1002
}
  0
LINE
  5
4DD
330
1A
100
AcDbEntity
  8
SEIHIN
 62
     3
 48
16.0
100
AcDbLine
 10
292.3271821489608
 20
139.6256058854261
 30
0.0
 11
279.3283821489609
 21
134.4265058854261
 31
0.0
  0
MTEXT
  5
4DE
330
1A
100
AcDbEntity
  8
SUNPOU
 62
     4
100
AcDbMText
 10
266.5362940102154
 20
119.2756661097524
 30
0.0
 40
3.0
 41
0.0
 71
     7
 72
     5
  1
3-φ3.5
1001
ACAD
1000
MTEXTBEGIN
1070
    73
1070
     1
1070
    44
1040
1.0
1070
    74
1070
     0
1000
MTEXTEND
1000
MTEXTBEGIN
1070
    73
1070
     1
1070
    44
1040
1.0
1070
    74
1070
     0
1000
MTEXTEND
1000
MTEXTBEGIN
1070
    73
1070
     1
1070
    44
1040
1.0
1070
    74
1070
     0
1000
MTEXTEND
  0
LINE
  5
4DF
330
1A
100
AcDbEntity
  8
SEIHIN
 62
     3
 48
16.0
100
AcDbLine
 10
272.271782148961
 20
127.8345058854261
 30
0.0
 11
293.626982148961
 21
136.375905885426
 31
0.0
  0
LINE
  5
4E0
330
1A
100
AcDbEntity
  8
CENTER_L
 62
     1
 48
5.0
100
AcDbLine
 10
270.210982148961
 20
133.4724058854261
 30
0.0
 11
279.8809821489611
 21
137.340105885426
 31
0.0
  0
LINE
  5
4E1
330
1A
100
AcDbEntity
  8
SEIHIN
 62
     3
 48
16.0
100
AcDbLine
 10
270.9718821489609
 20
128.3916058854261
 30
0.0
 11
267.258282148961
 21
137.6765058854261
 31
0.0
  0
LINE
  5
4E2
330
1A
100
AcDbEntity
  8
CENTER_L
 62
     1
 48
5.0
100
AcDbLine
 10
272.0121821489609
 20
139.2545058854261
 30
0.0
 11
275.5210821489611
 21
130.4815058854261
 31
0.0
  0
ARC
  5
4E3
330
1A
100
AcDbEntity
  8
SEIHIN
 62
     3
 48
16.0
100
AcDbCircle
 10
271.900382148961
 20
128.7630058854261
 30
0.0
 40
1.000025104684966
100
AcDbArc
 50
201.8014094863535
 51
291.8014094863548
  0
ARC
  5
4E4
330
1A
100
AcDbEntity
  8
SEIHIN
 62
     3
 48
16.0
100
AcDbCircle
 10
268.1867924941887
 20
138.0478300211959
 30
0.0
 40
1.00000653747867
100
AcDbArc
 50
111.8024734106089
 51
201.7971535670257
  0
ARC
  5
4E5
330
1A
100
AcDbEntity
  8
SEIHIN
 62
     3
 48
16.0
100
AcDbCircle
 10
278.3999666299713
 20
136.7476696763075
 30
0.0
 40
2.5000441936094
100
AcDbArc
 50
111.8011966428166
 51
201.7982176426233
  0
ARC
  5
4E6
330
1A
100
AcDbEntity
  8
SEIHIN
 62
     3
 48
16.0
100
AcDbCircle
 10
273.7574821489611
 20
134.890905885426
 30
0.0
 40
1.75
100
AcDbArc
 50
359.9999999999999
 51
179.9999999999999
  0
ARC
  5
4E7
330
1A
100
AcDbEntity
  8
SEIHIN
 62
     3
 48
16.0
100
AcDbCircle
 10
273.7574821489611
 20
134.890905885426
 30
0.0
 40
1.75
100
AcDbArc
 50
179.9999999999999
 51
359.9999999999999
  0
ARC
  5
4E8
330
1A
100
AcDbEntity
  8
SEIHIN
 62
     3
 48
16.0
100
AcDbCircle
 10
278.3999218046454
 20
136.7477317499283
 30
0.0
 40
2.500025624868653
100
AcDbArc
 50
201.7999200107535
 51
291.8007710877349
  0
LINE
  5
4E9
330
1A
100
AcDbEntity
  8
CENTER_L
 62
     1
 48
5.0
100
AcDbLine
 10
303.103321326712
 20
117.5486767510214
 30
0.0
 11
310.5654213267123
 21
120.5333767510215
 31
0.0
  0
ARC
  5
4EA
330
1A
100
AcDbEntity
  8
SEIHIN
 62
     3
 48
16.0
100
AcDbCircle
 10
306.9966213267121
 20
119.1059767510214
 30
0.0
 40
1.749999999999914
100
AcDbArc
 50
359.9999999999999
 51
179.9999999999999
  0
LINE
  5
4EB
330
1A
100
AcDbEntity
  8
SEIHIN
 62
     3
 48
16.0
100
AcDbLine
 10
313.4959213267121
 20
116.3203767510214
 30
0.0
 11
308.8534213267122
 21
114.4634767510215
 31
0.0
  0
LINE
  5
4EC
330
1A
100
AcDbEntity
  8
SEIHIN
 62
     3
 48
16.0
100
AcDbLine
 10
304.211021326712
 20
112.6066767510214
 30
0.0
 11
308.8534213267122
 21
114.4634767510215
 31
0.0
  0
ARC
  5
4ED
330
1A
100
AcDbEntity
  8
SEIHIN
 62
     3
 48
16.0
100
AcDbCircle
 10
303.8396213267121
 20
113.5351767510214
 30
0.0
 40
1.000025104684821
100
AcDbArc
 50
201.8014094863458
 51
291.8014094863461
  0
ARC
  5
4EE
330
1A
100
AcDbEntity
  8
SEIHIN
 62
     3
 48
16.0
100
AcDbCircle
 10
306.9966213267121
 20
119.1059767510214
 30
0.0
 40
1.749999999999914
100
AcDbArc
 50
179.9999999999999
 51
359.9999999999999
  0
ARC
  5
4EF
330
1A
100
AcDbEntity
  8
SEIHIN
 62
     3
 48
16.0
100
AcDbCircle
 10
313.1245471879485
 20
117.2488370970016
 30
0.0
 40
0.9999786822728623
100
AcDbArc
 50
291.8008775168202
 51
21.79874946082991
  0
ARC
  5
4F0
330
1A
100
AcDbEntity
  8
SEIHIN
 62
     3
 48
16.0
100
AcDbCircle
 10
301.2692424941191
 20
133.4254800214467
 30
0.0
 40
2.999991752488617
100
AcDbArc
 50
201.7994588589235
 51
291.7987495969359
  0
ARC
  5
4F1
330
1A
100
AcDbEntity
  8
SEIHIN
 62
     3
 48
16.0
100
AcDbCircle
 10
301.2691821489609
 20
133.4255058854261
 30
0.0
 40
3.000038176423814
100
AcDbArc
 50
291.7996362490559
 51
21.7996362490554
  0
LINE
  5
4F2
330
1A
100
AcDbEntity
  8
SEIHIN
 62
     3
 48
16.0
100
AcDbLine
 10
300.312082148961
 20
141.203805885426
 30
0.0
 11
298.455182148961
 21
140.4611058854259
 31
0.0
  0
LINE
  5
4F3
330
1A
100
AcDbEntity
  8
SEIHIN
 62
     3
 48
16.0
100
AcDbLine
 10
296.598182148961
 20
139.7184058854261
 30
0.0
 11
298.455182148961
 21
140.4611058854259
 31
0.0
  0
LINE
  5
4F4
330
1A
100
AcDbEntity
  8
CENTER_L
 62
     1
 48
5.0
100
AcDbLine
 10
214.33443457513
 20
235.9826420278503
 30
0.0
 11
214.33443457513
 21
227.1711420278503
 31
0.0
  0
LINE
  5
4F5
330
1A
100
AcDbEntity
  8
SEIHIN
 62
     3
 48
16.0
100
AcDbLine
 10
210.99203457513
 20
237.8083420278503
 30
0.0
 11
210.99203457513
 21
216.5583084220298
 31
0.0
  0
LINE
  5
4F6
330
1A
100
AcDbEntity
  8
SEIHIN
 62
     3
 48
16.0
100
AcDbLine
 10
216.5626345751298
 20
237.8083420278503
 30
0.0
 11
216.5626345751298
 21
215.3584084220297
 31
0.0
  0
LINE
  5
4F7
330
1A
100
AcDbEntity
  8
SEIHIN
 62
     3
 48
16.0
100
AcDbLine
 10
212.10623457513
 20
237.8083420278503
 30
0.0
 11
212.10623457513
 21
215.3584084220297
 31
0.0
  0
DIMENSION
  5
4F8
330
1A
100
AcDbEntity
  8
SUNPOU
100
AcDbDimension
  2
*D12
 10
241.3791863571334
 20
177.8084420278502
 30
0.0
 11
238.8791863571334
 21
207.8083920278503
 31
0.0
 70
    32
  3
STANDARD
100
AcDbAlignedDimension
 13
216.5626345751298
 23
237.8083420278503
 33
0.0
 14
216.5625345751298
 24
177.8084420278502
 34
0.0
 50
90.0
100
AcDbRotatedDimension
1001
ACAD
1000
DSTYLE
1002
{
1070
   140
1040
3.0
1070
    74
1070
     0
1070
   172
1070
     1
1070
    73
1070
     0
1070
   272
1070
     2
1070
    77
1070
     3
1070
   173
1070
     1
1070
   147
1040
1.0
1070
    42
1040
3.0
1070
    44
1040
1.5
1070
    43
1040
7.0
1070
   271
1070
     0
1070
   178
1070
     4
1070
   177
1070
     4
1070
   176
1070
     4
1070
   141
1040
150.0
1070
     7
1000
_OPEN
1070
     6
1000
_OPEN
1070
    41
1040
3.0
1002
}
  0
LINE
  5
4F9
330
1A
100
AcDbEntity
  8
SEIHIN
 62
     3
 48
16.0
100
AcDbLine
 10
210.99193457513
 20
177.8084420278502
 30
0.0
 11
210.9920279975186
 21
199.0620354290053
 31
0.0
  0
LINE
  5
4FA
330
1A
100
AcDbEntity
  8
SEIHIN
 62
     3
 48
16.0
100
AcDbLine
 10
216.5625345751298
 20
177.8084420278502
 30
0.0
 11
216.5626283267018
 21
200.2619435057596
 31
0.0
  0
LINE
  5
4FB
330
1A
100
AcDbEntity
  8
SEIHIN
 62
     3
 48
16.0
100
AcDbLine
 10
212.10613457513
 20
177.8084420278502
 30
0.0
 11
212.10613457513
 21
200.2584084220295
 31
0.0
  0
ARC
  5
4FC
330
1A
100
AcDbEntity
  8
SEIHIN
100
AcDbCircle
 10
216.3651666685288
 20
182.8084420278523
 30
0.0
 40
2.680741098157723
100
AcDbArc
 50
139.246611419024
 51
220.753388581043
  0
LINE
  5
4FD
330
1A
100
AcDbEntity
  8
SEIHIN
 62
     3
 48
16.0
100
AcDbLine
 10
216.5625345751298
 20
177.8084420278502
 30
0.0
 11
210.99193457513
 21
177.8084420278502
 31
0.0
  0
LINE
  5
4FE
330
1A
100
AcDbEntity
  8
CENTER_L
 62
     1
 48
5.0
100
AcDbLine
 10
219.21733457513
 20
182.8084420278503
 30
0.0
 11
208.13753457513
 21
182.8084420278503
 31
0.0
  0
ARC
  5
4FF
330
1A
100
AcDbEntity
  8
SEIHIN
100
AcDbCircle
 10
211.1895147377413
 20
182.8084429135342
 30
0.0
 40
2.680741098157723
100
AcDbArc
 50
344.870793689617
 51
15.12918670093857
  0
ARC
  5
500
330
1A
100
AcDbEntity
  8
SEIHIN
100
AcDbCircle
 10
212.3037024817311
 20
182.8084420278523
 30
0.0
 40
2.680741098157723
100
AcDbArc
 50
319.2466114189568
 51
40.75338858097591
  0
LINE
  5
501
330
1A
100
AcDbEntity
  8
CENTER_L
 62
     1
 48
5.0
100
AcDbLine
 10
214.33443457513
 20
177.8167420278503
 30
0.0
 11
214.33443457513
 21
188.0087420278503
 31
0.0
  0
LINE
  5
502
330
1A
100
AcDbEntity
  8
SEIHIN
 62
     3
 48
16.0
100
AcDbLine
 10
226.21813457513
 20
213.8584123161332
 30
0.0
 11
226.21813457513
 21
207.8083420278503
 31
0.0
  0
ARC
  5
503
330
1A
100
AcDbEntity
  8
SEIHIN
 62
     3
 48
16.0
100
AcDbCircle
 10
215.5551166861097
 20
208.7787894206398
 30
0.0
 40
3.61546601571246
100
AcDbArc
 50
344.4316389860807
 51
56.926389367025
  0
ARC
  5
504
330
1A
100
AcDbEntity
  8
SEIHIN
 62
     3
 48
16.0
100
AcDbCircle
 10
215.1549412372541
 20
208.5466549815199
 30
0.0
 40
3.559400056195171
100
AcDbArc
 50
113.5965622146118
 51
191.9699200674006
  0
LINE
  5
505
330
1A
100
AcDbEntity
  8
CENTER_L
 62
     1
 48
5.0
100
AcDbLine
 10
224.3613345751299
 20
203.1382420278503
 30
0.0
 11
224.3613345751299
 21
212.2786420278504
 31
0.0
  0
LINE
  5
506
330
1A
100
AcDbEntity
  8
SEIHIN
100
AcDbLine
 10
209.5065560548721
 20
202.2584311230696
 30
0.0
 11
209.5065560548721
 21
213.3584311230684
 31
0.0
  0
LINE
  5
507
330
1A
100
AcDbEntity
  8
SEIHIN
 62
     3
 48
5.0
100
AcDbLine
 10
215.6868721647008
 20
205.808453526389
 30
0.0
 11
213.0873053441384
 21
205.8084555928173
 31
0.0
  0
LINE
  5
508
330
1A
100
AcDbEntity
  8
SEIHIN
 62
     3
 48
5.0
100
AcDbLine
 10
215.6868721647008
 20
209.8084535263903
 30
0.0
 11
213.0873053441384
 21
209.8084555928186
 31
0.0
  0
LINE
  5
509
330
1A
100
AcDbEntity
  8
SEIHIN
 62
     3
 48
16.0
100
AcDbLine
 10
217.52813457513
 20
203.8084420278503
 30
0.0
 11
213.7301345751298
 21
203.8084420278503
 31
0.0
  0
LINE
  5
50A
330
1A
100
AcDbEntity
  8
SEIHIN
 62
     3
 48
16.0
100
AcDbLine
 10
217.52813457513
 20
211.8084420278503
 30
0.0
 11
213.73023457513
 21
211.8084420278503
 31
0.0
  0
ARC
  5
50B
330
1A
100
AcDbEntity
  8
SEIHIN
 62
     3
 48
16.0
100
AcDbCircle
 10
211.1061345751299
 20
200.2584084220295
 30
0.0
 40
1.000000000000056
100
AcDbArc
 50
359.9999999999967
 51
89.99999999999674
  0
ARC
  5
50C
330
1A
100
AcDbEntity
  8
SEIHIN
 62
     3
 48
16.0
100
AcDbCircle
 10
203.6769345751298
 20
201.0584084220296
 30
0.0
 40
1.000000000000028
100
AcDbArc
 50
180.0000000000081
 51
270.0000000000081
  0
LINE
  5
50D
330
1A
100
AcDbEntity
  8
SEIHIN
 62
     3
 48
16.0
100
AcDbLine
 10
209.9920222542232
 20
200.0586076845551
 30
0.0
 11
203.6769222540722
 21
200.0585177244597
 31
0.0
  0
ARC
  5
50E
330
1A
100
AcDbEntity
  8
SEIHIN
 62
     3
 48
16.0
100
AcDbCircle
 10
209.99203457513
 20
199.0584084220295
 30
0.0
 40
1.000000000000056
100
AcDbArc
 50
359.9999999999967
 51
89.99999999999674
  0
LINE
  5
50F
330
1A
100
AcDbEntity
  8
SEIHIN
 62
     3
 48
16.0
100
AcDbLine
 10
202.6769345751298
 20
201.0584084220294
 30
0.0
 11
202.6769345751298
 21
201.2584084220295
 31
0.0
  0
LINE
  5
510
330
1A
100
AcDbEntity
  8
SEIHIN
100
AcDbLine
 10
213.0873053441383
 20
205.8084555928172
 30
0.0
 11
213.0873053441384
 21
209.8084555928186
 31
0.0
  0
ARC
  5
511
330
1A
100
AcDbEntity
  8
SEIHIN
 62
     3
 48
16.0
100
AcDbCircle
 10
215.1549744036448
 20
207.0701645873414
 30
0.0
 40
3.559445876330672
100
AcDbArc
 50
168.0291751939445
 51
246.4031773784447
  0
ARC
  5
512
330
1A
100
AcDbEntity
  8
SEIHIN
 62
     3
 48
16.0
100
AcDbCircle
 10
215.5626345751298
 20
200.2584084220295
 30
0.0
 40
1.000000000000056
100
AcDbArc
 50
359.9999999999967
 51
89.99999999999674
  0
LINE
  5
513
330
1A
100
AcDbEntity
  8
SEIHIN
100
AcDbLine
 10
215.6868721647008
 20
205.808453526389
 30
0.0
 11
215.6868721647008
 21
209.8084535263903
 31
0.0
  0
ARC
  5
514
330
1A
100
AcDbEntity
  8
SEIHIN
 62
     3
 48
16.0
100
AcDbCircle
 10
215.5551417103498
 20
206.8380609313841
 30
0.0
 40
3.615424116908353
100
AcDbArc
 50
303.0735697948563
 51
15.56745535919487
  0
ARC
  5
515
330
1A
100
AcDbEntity
  8
SEIHIN
100
AcDbCircle
 10
226.3920666685287
 20
207.8084466309525
 30
0.0
 40
2.680741098157723
100
AcDbArc
 50
139.246611419024
 51
220.753388581043
  0
ARC
  5
516
330
1A
100
AcDbEntity
  8
SEIHIN
100
AcDbCircle
 10
222.330602481731
 20
207.8084466309525
 30
0.0
 40
2.680741098157723
100
AcDbArc
 50
319.2466114189568
 51
40.75338858097591
  0
LINE
  5
517
330
1A
100
AcDbEntity
  8
SEIHIN
 62
     3
 48
16.0
100
AcDbLine
 10
226.21813457513
 20
201.7584123161336
 30
0.0
 11
226.21813457513
 21
207.8084420278503
 31
0.0
  0
ARC
  5
518
330
1A
100
AcDbEntity
  8
SEIHIN
 62
     3
 48
16.0
100
AcDbCircle
 10
225.71813457513
 20
201.7584123161336
 30
0.0
 40
0.5
100
AcDbArc
 50
269.9999335315781
 51
0.0
  0
ARC
  5
519
330
1A
100
AcDbEntity
  8
SEIHIN
100
AcDbCircle
 10
221.2164147377412
 20
207.8084475166343
 30
0.0
 40
2.680741098157723
100
AcDbArc
 50
344.870793689617
 51
15.12918670093857
  0
ARC
  5
51A
330
1A
100
AcDbEntity
  8
SEIHIN
100
AcDbCircle
 10
216.3651666685288
 20
232.8083895135211
 30
0.0
 40
2.680741098157723
100
AcDbArc
 50
139.246611419024
 51
220.753388581043
  0
LINE
  5
51B
330
1A
100
AcDbEntity
  8
CENTER_L
 62
     1
 48
5.0
100
AcDbLine
 10
220.2240345751298
 20
232.8083420278503
 30
0.0
 11
207.82113457513
 21
232.8084420278503
 31
0.0
  0
LINE
  5
51C
330
1A
100
AcDbEntity
  8
SEIHIN
 62
     3
 48
16.0
100
AcDbLine
 10
209.99203457513
 20
215.5583084220297
 30
0.0
 11
203.67693457513
 21
215.5584084220297
 31
0.0
  0
LINE
  5
51D
330
1A
100
AcDbEntity
  8
SEIHIN
 62
     3
 48
16.0
100
AcDbLine
 10
202.6769345751298
 20
214.5584084220296
 30
0.0
 11
202.6769345751298
 21
214.3584084220298
 31
0.0
  0
ARC
  5
51E
330
1A
100
AcDbEntity
  8
SEIHIN
 62
     3
 48
16.0
100
AcDbCircle
 10
203.6769345751299
 20
214.5584084220296
 30
0.0
 40
1.000000000000142
100
AcDbArc
 50
89.99999999999836
 51
179.9999999999983
  0
ARC
  5
51F
330
1A
100
AcDbEntity
  8
SEIHIN
 62
     3
 48
16.0
100
AcDbCircle
 10
209.99203457513
 20
216.5583084220298
 30
0.0
 40
1.0
100
AcDbArc
 50
270.0
 51
0.0
  0
ARC
  5
520
330
1A
100
AcDbEntity
  8
SEIHIN
 62
     3
 48
16.0
100
AcDbCircle
 10
211.10623457513
 20
215.3584084220297
 30
0.0
 40
1.0
100
AcDbArc
 50
270.0
 51
0.0
  0
ARC
  5
521
330
1A
100
AcDbEntity
  8
SEIHIN
100
AcDbCircle
 10
211.1895147377413
 20
232.8083903992029
 30
0.0
 40
2.680741098157723
100
AcDbArc
 50
344.870793689617
 51
15.12918670093857
  0
ARC
  5
522
330
1A
100
AcDbEntity
  8
SEIHIN
 62
     3
 48
16.0
100
AcDbCircle
 10
215.5626345751298
 20
215.3584084220297
 30
0.0
 40
1.0
100
AcDbArc
 50
270.0
 51
0.0
  0
ARC
  5
523
330
1A
100
AcDbEntity
  8
SEIHIN
 62
     3
 48
16.0
100
AcDbCircle
 10
225.71813457513
 20
213.8584123161332
 30
0.0
 40
0.5
100
AcDbArc
 50
0.0
 51
89.9999335315784
  0
ARC
  5
524
330
1A
100
AcDbEntity
  8
SEIHIN
100
AcDbCircle
 10
212.3037024817311
 20
232.8083895135211
 30
0.0
 40
2.680741098157723
100
AcDbArc
 50
319.2466114189568
 51
40.75338858097591
  0
ARC
  5
525
330
1A
100
AcDbEntity
  8
SEIHIN
 62
     3
 48
16.0
100
AcDbCircle
 10
294.213182148961
 20
151.066705885426
 30
0.0
 40
3.000038176423883
100
AcDbArc
 50
21.79963624905868
 51
111.7996362490589
  0
LINE
  5
526
330
1A
100
AcDbEntity
  8
SEIHIN
 62
     3
 48
16.0
100
AcDbLine
 10
297.712582148961
 20
147.7032058854262
 30
0.0
 11
295.855582148961
 21
146.9605058854261
 31
0.0
  0
LINE
  5
527
330
1A
100
AcDbEntity
  8
SEIHIN
 62
     3
 48
16.0
100
AcDbLine
 10
296.7843821489609
 20
158.1022058854262
 30
0.0
 11
292.141882148961
 21
156.2454058854261
 31
0.0
  0
ARC
  5
528
330
1A
100
AcDbEntity
  8
SEIHIN
 62
     3
 48
16.0
100
AcDbCircle
 10
287.870782148961
 20
153.4600058854261
 30
0.0
 40
0.9999879699275954
100
AcDbArc
 50
111.79608964277
 51
201.7960896427699
  0
ARC
  5
529
330
1A
100
AcDbEntity
  8
SEIHIN
 62
     3
 48
16.0
100
AcDbCircle
 10
294.2132080126201
 20
151.0667662298375
 30
0.0
 40
2.999991752488644
100
AcDbArc
 50
111.8005228792327
 51
201.8012321412213
  0
LINE
  5
52A
330
1A
100
AcDbEntity
  8
SEIHIN
 62
     3
 48
16.0
100
AcDbLine
 10
293.998582148961
 20
146.2178058854261
 30
0.0
 11
295.855582148961
 21
146.9605058854261
 31
0.0
  0
LINE
  5
52B
330
1A
100
AcDbEntity
  8
SEIHIN
 62
     3
 48
16.0
100
AcDbLine
 10
287.4994821489611
 20
154.388505885426
 30
0.0
 11
292.141882148961
 21
156.2454058854261
 31
0.0
  0
LINE
  5
52C
330
1A
100
AcDbEntity
  8
SEIHIN
 62
     3
 48
16.0
100
AcDbLine
 10
301.6121821489609
 20
148.7245058854261
 30
0.0
 11
314.610982148961
 21
153.9236058854261
 31
0.0
  0
LINE
  5
52D
330
1A
100
AcDbEntity
  8
SEIHIN
 62
     3
 48
16.0
100
AcDbLine
 10
303.4689821489611
 20
144.0820058854261
 30
0.0
 11
316.467782148961
 21
149.2812058854261
 31
0.0
  0
LINE
  5
52E
330
1A
100
AcDbEntity
  8
SEIHIN
 62
     3
 48
16.0
100
AcDbLine
 10
321.6675821489611
 20
160.5156058854261
 30
0.0
 11
300.3123821489608
 21
151.974205885426
 31
0.0
  0
ARC
  5
52F
330
1A
100
AcDbEntity
  8
SEIHIN
 62
     3
 48
16.0
100
AcDbCircle
 10
297.1557062847307
 20
157.1736955401984
 30
0.0
 40
1.000006537478687
100
AcDbArc
 50
21.80247341060403
 51
111.7971535670226
  0
ARC
  5
530
330
1A
100
AcDbEntity
  8
SEIHIN
 62
     3
 48
16.0
100
AcDbCircle
 10
320.181782148961
 20
153.459205885426
 30
0.0
 40
1.75
100
AcDbArc
 50
359.9999999999999
 51
179.9999999999999
  0
LINE
  5
531
330
1A
100
AcDbEntity
  8
CENTER_L
 62
     1
 48
5.0
100
AcDbLine
 10
323.7283821489609
 20
154.877705885426
 30
0.0
 11
314.166382148961
 21
151.0533058854261
 31
0.0
  0
ARC
  5
532
330
1A
100
AcDbEntity
  8
SEIHIN
 62
     3
 48
16.0
100
AcDbCircle
 10
315.539382148961
 20
151.6024058854261
 30
0.0
 40
2.499979199913488
100
AcDbArc
 50
21.79970714272234
 51
111.7997071427222
  0
LINE
  5
533
330
1A
100
AcDbEntity
  8
SEIHIN
 62
     3
 48
16.0
100
AcDbLine
 10
326.6810821489609
 20
150.6736058854261
 30
0.0
 11
322.9673821489611
 21
159.9585058854261
 31
0.0
  0
LINE
  5
534
330
1A
100
AcDbEntity
  8
CENTER_L
 62
     1
 48
5.0
100
AcDbLine
 10
318.4364821489609
 20
157.822905885426
 30
0.0
 11
321.945382148961
 21
149.0499058854261
 31
0.0
  0
ARC
  5
535
330
1A
100
AcDbEntity
  8
SEIHIN
 62
     3
 48
16.0
100
AcDbCircle
 10
320.181782148961
 20
153.459205885426
 30
0.0
 40
1.75
100
AcDbArc
 50
179.9999999999999
 51
359.9999999999999
  0
ARC
  5
536
330
1A
100
AcDbEntity
  8
SEIHIN
 62
     3
 48
16.0
100
AcDbCircle
 10
315.539382148961
 20
151.602405885426
 30
0.0
 40
2.499979199913408
100
AcDbArc
 50
291.7997071427222
 51
21.79970714272306
  0
ARC
  5
537
330
1A
100
AcDbEntity
  8
SEIHIN
 62
     3
 48
16.0
100
AcDbCircle
 10
325.7525718037332
 20
150.3022817496562
 30
0.0
 40
1.000006537478665
100
AcDbArc
 50
291.8024734106055
 51
21.7971535670248
  0
ARC
  5
538
330
1A
100
AcDbEntity
  8
SEIHIN
 62
     3
 48
16.0
100
AcDbCircle
 10
322.038882148961
 20
159.587205885426
 30
0.0
 40
0.9999879699276851
100
AcDbArc
 50
21.79608964276963
 51
111.7960896427667
  0
LINE
  5
539
330
1A
100
AcDbEntity
  8
SEIHIN
 62
     3
 48
16.0
100
AcDbLine
 10
216.5626345751298
 20
237.8083420278503
 30
0.0
 11
210.99203457513
 21
237.8083420278503
 31
0.0
  0
LWPOLYLINE
  5
94E
330
1A
100
AcDbEntity
  8
ZUWAKU
100
AcDbPolyline
 90
        4
 70
     1
 43
0.0
 10
0.4000000874406169
 20
275.3999997546114
 10
0.4000000874406169
 20
0.3999997546114287
 10
398.4000000874406
 20
0.3999997546114287
 10
398.4000000874406
 20
275.3999997546114
  0
LWPOLYLINE
  5
94F
330
1A
100
AcDbEntity
  8
ZUWAKU
100
AcDbPolyline
 90
        4
 70
     1
 43
0.0
 10
0.2000000874406282
 20
275.5999997546114
 10
0.2000000874406282
 20
0.19999975461144
 10
398.6000000874406
 20
0.1999997546114285
 10
398.6000000874406
 20
275.5999997546114
  0
LWPOLYLINE
  5
950
330
1A
100
AcDbEntity
  8
ZUWAKU
100
AcDbPolyline
 90
        4
 70
     1
 43
0.0
 10
0.0000000874406396
 20
275.7999997546114
 10
0.0000000874406396
 20
-0.0000002453886054
 10
398.8000000874407
 20
-0.0000002453885717
 10
398.8000000874407
 20
275.7999997546114
  0
LWPOLYLINE
  5
951
330
1A
100
AcDbEntity
  8
ZUWAKU
100
AcDbPolyline
 90
        4
 70
     1
 43
0.0
 10
0.3000000874405941
 20
275.4999997546114
 10
0.3000000874405941
 20
0.2999997546114059
 10
398.5000000874407
 20
0.299999754611429
 10
398.5000000874406
 20
275.4999997546114
  0
LWPOLYLINE
  5
952
330
1A
100
AcDbEntity
  8
ZUWAKU
100
AcDbPolyline
 90
        4
 70
     1
 43
0.0
 10
0.1000000874406055
 20
275.6999997546114
 10
0.1000000874406055
 20
0.0999997546114173
 10
398.7000000874406
 20
0.0999997546114289
 10
398.7000000874406
 20
275.6999997546114
  0
LINE
  5
953
330
1A
100
AcDbEntity
  8
ZUWAKU
100
AcDbLine
 10
0.0000000874406396
 20
14.99999975461139
 30
0.0
 11
398.7000000874406
 21
14.99999975461139
 31
0.0
  0
LINE
  5
954
330
1A
100
AcDbEntity
  8
ZUWAKU
100
AcDbLine
 10
0.0000000874406396
 20
15.09999975461139
 30
0.0
 11
398.7000000874406
 21
15.09999975461139
 31
0.0
  0
LINE
  5
955
330
1A
100
AcDbEntity
  8
ZUWAKU
100
AcDbLine
 10
0.0000000874406396
 20
15.19999975461139
 30
0.0
 11
398.7000000874406
 21
15.19999975461139
 31
0.0
  0
LINE
  5
956
330
1A
100
AcDbEntity
  8
ZUWAKU
100
AcDbLine
 10
0.0000000874406396
 20
15.29999975461139
 30
0.0
 11
398.7000000874406
 21
15.29999975461139
 31
0.0
  0
LINE
  5
957
330
1A
100
AcDbEntity
  8
ZUWAKU
100
AcDbLine
 10
0.0000000874406396
 20
15.3999997546114
 30
0.0
 11
398.7000000874406
 21
15.3999997546114
 31
0.0
  0
LINE
  5
958
330
1A
100
AcDbEntity
  8
ZUWAKU
100
AcDbLine
 10
104.3233007324746
 20
7.699999754611411
 30
0.0
 11
223.7121820729363
 21
7.699999754611411
 31
0.0
  0
LINE
  5
959
330
1A
100
AcDbEntity
  8
ZUWAKU
100
AcDbLine
 10
104.3233007324746
 20
7.799999754611411
 30
0.0
 11
223.7121820729363
 21
7.799999754611414
 31
0.0
  0
LINE
  5
95A
330
1A
100
AcDbEntity
  8
ZUWAKU
100
AcDbLine
 10
104.3233007324746
 20
7.599999754611413
 30
0.0
 11
223.7121820729363
 21
7.59999975461141
 31
0.0
  0
CIRCLE
  5
95B
330
1A
100
AcDbEntity
  8
ZUWAKU
100
AcDbCircle
 10
12.99610616483119
 20
7.599999754611395
 30
0.0
 40
0.875
  0
LINE
  5
95C
330
1A
100
AcDbEntity
  8
ZUWAKU
100
AcDbLine
 10
13.43360616483119
 20
3.574999754611397
 30
0.0
 11
12.47110616483121
 21
3.574999754611397
 31
0.0
  0
LINE
  5
95D
330
1A
100
AcDbEntity
  8
ZUWAKU
100
AcDbLine
 10
12.47110616483121
 20
4.974999754611395
 30
0.0
 11
13.43360616483119
 21
4.974999754611395
 31
0.0
  0
LINE
  5
95E
330
1A
100
AcDbEntity
  8
ZUWAKU
100
AcDbLine
 10
13.43360616483119
 20
10.22499975461139
 30
0.0
 11
12.47110616483121
 21
10.22499975461139
 31
0.0
  0
LINE
  5
95F
330
1A
100
AcDbEntity
  8
ZUWAKU
100
AcDbLine
 10
12.47110616483121
 20
11.62499975461137
 30
0.0
 11
13.43360616483119
 21
11.62499975461139
 31
0.0
  0
HATCH
  5
960
330
1A
100
AcDbEntity
  8
ZUWAKU
100
AcDbHatch
 10
0.0
 20
0.0
 30
0.0
210
0.0
220
0.0
230
1.0
  2
ANSI37
 70
     0
 71
     0
 91
        8
 92
        7
 72
     1
 73
     1
 93
       24
 10
7.251131418000568
 20
8.822423995103186
 42
-0.1989123673796348
 10
7.046106164831201
 20
9.317398741933711
 42
0.0
 10
7.046106164831201
 20
9.9624997546114
 42
-0.4142135623730912
 10
7.308606164831189
 20
10.22499975461139
 42
0.0
 10
8.796106164831144
 20
10.22499975461139
 42
0.4142135623731546
 10
9.058606164831189
 20
10.48749975461139
 42
0.0
 10
9.058606164831189
 20
11.36249975461139
 42
0.4142135623731586
 10
8.796106164831144
 20
11.62499975461139
 42
0.0
 10
7.046106164831201
 20
11.62499975461139
 42
0.4142135623730928
 10
5.646106164831223
 20
10.22499975461141
 42
0.0
 10
5.646106164831223
 20
9.317398741933775
 42
0.1989123673796619
 10
6.261181924339439
 20
7.832474501441971
 42
0.0
 10
7.716080911661777
 20
6.377575514119643
 42
-0.1989123673796613
 10
7.921106164831201
 20
5.88260076728905
 42
0.0
 10
7.921106164831201
 20
5.237499754611391
 42
-0.4142135623730911
 10
7.658606164831212
 20
4.974999754611395
 42
0.0
 10
6.171106164831257
 20
4.974999754611395
 42
0.4142135623731526
 10
5.908606164831212
 20
4.712499754611402
 42
0.0
 10
5.908606164831212
 20
3.837499754611391
 42
0.4142135623731526
 10
6.171106164831257
 20
3.574999754611397
 42
0.0
 10
7.921106164831201
 20
3.574999754611397
 42
0.4142135623731044
 10
9.321106164831235
 20
4.974999754611385
 42
0.0
 10
9.321106164831235
 20
5.882600767289021
 42
0.1989123673796604
 10
8.706030405322962
 20
7.367525007780791
 42
0.0
 97
        0
 92
        7
 72
     1
 73
     1
 93
       16
 10
11.77110616483122
 20
9.5249997546114
 42
-0.4142135623730935
 10
12.47110616483121
 20
10.22499975461139
 42
0.0
 10
13.43360616483119
 20
10.22499975461139
 42
0.4142135623731546
 10
13.69610616483123
 20
10.48749975461139
 42
0.0
 10
13.69610616483123
 20
11.36249975461139
 42
0.4142135623730951
 10
13.43360616483124
 20
11.62499975461139
 42
0.0
 10
12.47110616483115
 20
11.62499975461137
 42
0.4142135623730892
 10
10.37110616483118
 20
9.524999754611364
 42
0.0
 10
10.37110616483118
 20
5.674999754611409
 42
0.4142135623730969
 10
12.47110616483121
 20
3.574999754611397
 42
0.0
 10
13.43360616483119
 20
3.574999754611397
 42
0.4142135623731526
 10
13.69610616483123
 20
3.837499754611391
 42
0.0
 10
13.69610616483123
 20
4.712499754611402
 42
0.4142135623730891
 10
13.43360616483124
 20
4.974999754611395
 42
0.0
 10
12.47110616483121
 20
4.974999754611395
 42
-0.4142135623730928
 10
11.77110616483122
 20
5.674999754611389
 42
0.0
 97
        0
 92
        7
 72
     1
 73
     1
 93
        2
 10
12.12110616483119
 20
7.599999754611395
 42
1.0
 10
13.87110616483119
 20
7.599999754611395
 42
1.0
 97
        0
 92
        7
 72
     1
 73
     1
 93
       26
 10
18.65742940592019
 20
9.602523351393109
 42
0.0
 10
19.1882492224891
 20
11.2834527705279
 42
0.5069206636600134
 10
18.93793377289142
 20
11.62499975461139
 42
0.0
 10
18.08848908308681
 20
11.62499975461139
 42
0.3272098845218764
 10
17.83817363348913
 20
11.44154673869488
 42
0.0
 10
16.90403869617324
 20
8.483452770527936
 42
-0.3272098845219541
 10
16.65372324657551
 20
8.299999754611395
 42
0.0
 10
16.58360616483128
 20
8.299999754611395
 42
-0.4142135623731526
 10
16.32110616483123
 20
8.562499754611389
 42
0.0
 10
16.32110616483123
 20
11.36249975461139
 42
0.4142135623730951
 10
16.05860616483124
 20
11.62499975461139
 42
0.0
 10
15.18360616483119
 20
11.62499975461139
 42
0.4142135623730871
 10
14.9211061648312
 20
11.3624997546114
 42
0.0
 10
14.9211061648312
 20
3.837499754611391
 42
0.4142135623730891
 10
15.18360616483119
 20
3.574999754611397
 42
0.0
 10
16.05860616483119
 20
3.574999754611397
 42
0.4142135623731526
 10
16.32110616483123
 20
3.837499754611391
 42
0.0
 10
16.32110616483123
 20
6.637499754611402
 42
-0.4142135623731526
 10
16.58360616483128
 20
6.899999754611396
 42
0.0
 10
16.65372324657556
 20
6.899999754611396
 42
-0.3272098845218915
 10
16.90403869617324
 20
6.716546738694859
 42
0.0
 10
17.83817363348913
 20
3.758452770527933
 42
0.3272098845218902
 10
18.08848908308681
 20
3.574999754611397
 42
0.0
 10
18.93793377289142
 20
3.574999754611397
 42
0.5069206636600335
 10
19.1882492224891
 20
3.916546738694901
 42
0.0
 10
18.02505353325227
 20
7.599999754611465
 42
0.0
 97
        0
 92
        7
 72
     1
 73
     1
 93
        8
 10
21.74610616483119
 20
11.3624997546114
 42
0.4142135623731546
 10
21.48360616483114
 20
11.62499975461139
 42
0.0
 10
20.60860616483125
 20
11.62499975461139
 42
0.4142135623731507
 10
20.34610616483121
 20
11.3624997546114
 42
0.0
 10
20.34610616483121
 20
3.837499754611391
 42
0.4142135623731526
 10
20.60860616483125
 20
3.574999754611397
 42
0.0
 10
21.48360616483114
 20
3.574999754611397
 42
0.4142135623731526
 10
21.74610616483119
 20
3.837499754611391
 42
0.0
 97
        0
 92
        7
 72
     1
 73
     1
 93
       24
 10
24.19610616483123
 20
9.9624997546114
 42
-0.4142135623731546
 10
24.45860616483128
 20
10.22499975461139
 42
0.0
 10
25.94610616483123
 20
10.22499975461139
 42
0.4142135623730911
 10
26.20860616483122
 20
10.48749975461139
 42
0.0
 10
26.20860616483122
 20
11.36249975461139
 42
0.4142135623730952
 10
25.94610616483123
 20
11.62499975461139
 42
0.0
 10
24.19610616483123
 20
11.62499975461139
 42
0.4142135623731048
 10
22.7961061648312
 20
10.22499975461141
 42
0.0
 10
22.7961061648312
 20
9.317398741933775
 42
0.1989123673796613
 10
23.41118192433947
 20
7.832474501442
 42
0.0
 10
24.86608091166181
 20
6.377575514119666
 42
-0.1989123673796402
 10
25.07110616483123
 20
5.88260076728913
 42
0.0
 10
25.07110616483123
 20
5.237499754611391
 42
-0.4142135623730911
 10
24.80860616483124
 20
4.974999754611395
 42
0.0
 10
23.32110616483123
 20
4.974999754611395
 42
0.4142135623731526
 10
23.05860616483119
 20
4.712499754611402
 42
0.0
 10
23.05860616483119
 20
3.837499754611391
 42
0.4142135623730891
 10
23.32110616483118
 20
3.574999754611397
 42
0.0
 10
25.07110616483123
 20
3.574999754611397
 42
0.4142135623730925
 10
26.47110616483121
 20
4.974999754611385
 42
0.0
 10
26.47110616483121
 20
5.882600767289021
 42
0.1989123673796675
 10
25.85603040532294
 20
7.367525007780848
 42
0.0
 10
24.40113141800066
 20
8.822423995103106
 42
-0.1989123673796652
 10
24.19610616483123
 20
9.31739874193369
 42
0.0
 97
        0
 92
        7
 72
     1
 73
     1
 93
       16
 10
28.9211061648312
 20
11.36249975461139
 42
0.414213562373103
 10
28.65860616483121
 20
11.62499975461139
 42
0.0
 10
27.78360616483121
 20
11.62499975461139
 42
0.4142135623730871
 10
27.52110616483122
 20
11.3624997546114
 42
0.0
 10
27.52110616483122
 20
4.974999754611385
 42
0.4142135623730926
 10
28.9211061648312
 20
3.574999754611397
 42
0.0
 10
30.6711061648312
 20
3.574999754611397
 42
0.4142135623731044
 10
32.07110616483123
 20
4.974999754611385
 42
0.0
 10
32.07110616483123
 20
11.36249975461139
 42
0.4142135623730951
 10
31.80860616483125
 20
11.62499975461139
 42
0.0
 10
30.93360616483119
 20
11.62499975461139
 42
0.4142135623730871
 10
30.6711061648312
 20
11.3624997546114
 42
0.0
 10
30.6711061648312
 20
5.499999754611383
 42
-0.414213562373088
 10
30.14610616483122
 20
4.974999754611395
 42
0.0
 10
29.44610616483123
 20
4.974999754611395
 42
-0.4142135623731197
 10
28.9211061648312
 20
5.499999754611383
 42
0.0
 97
        0
 92
        7
 72
     1
 73
     1
 93
        8
 10
34.52110616483122
 20
11.3624997546114
 42
0.4142135623730871
 10
34.25860616483123
 20
11.62499975461139
 42
0.0
 10
33.38360616483123
 20
11.62499975461139
 42
0.4142135623731507
 10
33.12110616483119
 20
11.3624997546114
 42
0.0
 10
33.12110616483119
 20
3.837499754611391
 42
0.4142135623730891
 10
33.38360616483118
 20
3.574999754611397
 42
0.0
 10
34.25860616483123
 20
3.574999754611397
 42
0.4142135623730891
 10
34.52110616483122
 20
3.837499754611391
 42
0.0
 97
        0
 75
     0
 76
     1
 52
0.0
 41
0.1
 77
     0
 78
     2
 53
45.0
 43
-450.4711520798988
 44
-6.600000245388571
 45
-0.2245064030267288
 46
0.2245064030267288
 79
     0
 53
135.0
 43
-450.4711520798988
 44
-6.600000245388571
 45
-0.2245064030267288
 46
-0.2245064030267288
 79
     0
 47
0.057451373970553
 98
        8
 10
8.039927568952293
 20
7.583586577554171
 10
11.20225759066022
 20
9.4220308458369
 10
12.58218403027046
 20
7.755940577646754
 10
15.4570300782592
 20
8.100648577832146
 10
20.919236096919
 20
8.330454711602953
 10
23.44910053500541
 20
9.709287912815
 10
28.27884307364081
 20
9.364578712158902
 10
33.913539897252
 20
9.59438484592971
  0
ARC
  5
961
330
1A
100
AcDbEntity
  8
ZUWAKU
100
AcDbCircle
 10
7.746106164831189
 20
9.317398741933747
 30
0.0
 40
2.099999999999999
100
AcDbArc
 50
180.0
 51
225.0
  0
LINE
  5
962
330
1A
100
AcDbEntity
  8
ZUWAKU
100
AcDbLine
 10
10.37110616483118
 20
5.674999754611398
 30
0.0
 11
10.37110616483118
 21
9.524999754611375
 31
0.0
  0
LINE
  5
963
330
1A
100
AcDbEntity
  8
ZUWAKU
100
AcDbLine
 10
11.77110616483122
 20
9.524999754611396
 30
0.0
 11
11.77110616483122
 21
5.674999754611398
 31
0.0
  0
ARC
  5
964
330
1A
100
AcDbEntity
  8
ZUWAKU
100
AcDbCircle
 10
7.746106164831189
 20
9.317398741933747
 30
0.0
 40
0.7
100
AcDbArc
 50
180.0000000000016
 51
224.9999999999988
  0
ARC
  5
965
330
1A
100
AcDbEntity
  8
ZUWAKU
100
AcDbCircle
 10
12.47110616483121
 20
5.674999754611398
 30
0.0
 40
2.099999999999999
100
AcDbArc
 50
180.0
 51
270.0
  0
ARC
  5
966
330
1A
100
AcDbEntity
  8
ZUWAKU
100
AcDbCircle
 10
7.921106164831201
 20
4.974999754611395
 30
0.0
 40
1.399999999999999
100
AcDbArc
 50
270.0
 51
0.0
  0
ARC
  5
967
330
1A
100
AcDbEntity
  8
ZUWAKU
100
AcDbCircle
 10
7.221106164831212
 20
5.882600767289048
 30
0.0
 40
2.099999999999999
100
AcDbArc
 50
0.0
 51
45.0
  0
LINE
  5
968
330
1A
100
AcDbEntity
  8
ZUWAKU
100
AcDbLine
 10
6.261181924339439
 20
7.832474501441986
 30
0.0
 11
7.716080911661777
 21
6.377575514119655
 31
0.0
  0
LINE
  5
969
330
1A
100
AcDbEntity
  8
ZUWAKU
100
AcDbLine
 10
6.171106164831201
 20
4.974999754611395
 30
0.0
 11
7.658606164831212
 21
4.974999754611395
 31
0.0
  0
LINE
  5
96A
330
1A
100
AcDbEntity
  8
ZUWAKU
100
AcDbLine
 10
6.171106164831201
 20
3.574999754611397
 30
0.0
 11
7.921106164831201
 21
3.574999754611397
 31
0.0
  0
ARC
  5
96B
330
1A
100
AcDbEntity
  8
ZUWAKU
100
AcDbCircle
 10
6.171106164831201
 20
4.712499754611396
 30
0.0
 40
0.2625
100
AcDbArc
 50
90.0
 51
180.0
  0
ARC
  5
96C
330
1A
100
AcDbEntity
  8
ZUWAKU
100
AcDbCircle
 10
6.171106164831201
 20
3.837499754611396
 30
0.0
 40
0.2625
100
AcDbArc
 50
180.0
 51
270.0
  0
LINE
  5
96D
330
1A
100
AcDbEntity
  8
ZUWAKU
100
AcDbLine
 10
5.908606164831212
 20
3.837499754611396
 30
0.0
 11
5.908606164831212
 21
4.712499754611396
 31
0.0
  0
ARC
  5
96E
330
1A
100
AcDbEntity
  8
ZUWAKU
100
AcDbCircle
 10
7.221106164831212
 20
5.882600767289069
 30
0.0
 40
0.7
100
AcDbArc
 50
0.0
 51
45.0
  0
ARC
  5
96F
330
1A
100
AcDbEntity
  8
ZUWAKU
100
AcDbCircle
 10
7.658606164831212
 20
5.237499754611398
 30
0.0
 40
0.2625
100
AcDbArc
 50
270.0
 51
0.0
  0
LINE
  5
970
330
1A
100
AcDbEntity
  8
ZUWAKU
100
AcDbLine
 10
7.921106164831201
 20
5.237499754611398
 30
0.0
 11
7.921106164831201
 21
5.882600767289069
 31
0.0
  0
LINE
  5
971
330
1A
100
AcDbEntity
  8
ZUWAKU
100
AcDbLine
 10
8.706030405322962
 20
7.367525007780809
 30
0.0
 11
7.251131418000625
 21
8.822423995103147
 31
0.0
  0
ARC
  5
972
330
1A
100
AcDbEntity
  8
ZUWAKU
100
AcDbCircle
 10
12.47110616483121
 20
5.674999754611398
 30
0.0
 40
0.7
100
AcDbArc
 50
180.0
 51
270.0
  0
LINE
  5
973
330
1A
100
AcDbEntity
  8
ZUWAKU
100
AcDbLine
 10
9.321106164831235
 20
4.974999754611395
 30
0.0
 11
9.321106164831235
 21
5.882600767289069
 31
0.0
  0
ARC
  5
974
330
1A
100
AcDbEntity
  8
ZUWAKU
100
AcDbCircle
 10
8.796106164831201
 20
10.48749975461139
 30
0.0
 40
0.2625
100
AcDbArc
 50
270.0
 51
0.0
  0
ARC
  5
975
330
1A
100
AcDbEntity
  8
ZUWAKU
100
AcDbCircle
 10
8.796106164831201
 20
11.36249975461139
 30
0.0
 40
0.2625
100
AcDbArc
 50
0.0
 51
90.0
  0
ARC
  5
976
330
1A
100
AcDbEntity
  8
ZUWAKU
100
AcDbCircle
 10
7.046106164831201
 20
10.22499975461139
 30
0.0
 40
1.399999999999999
100
AcDbArc
 50
90.0
 51
180.0
  0
LINE
  5
977
330
1A
100
AcDbEntity
  8
ZUWAKU
100
AcDbLine
 10
5.646106164831223
 20
10.22499975461139
 30
0.0
 11
5.646106164831223
 21
9.317398741933725
 31
0.0
  0
LINE
  5
978
330
1A
100
AcDbEntity
  8
ZUWAKU
100
AcDbLine
 10
8.796106164831201
 20
10.22499975461139
 30
0.0
 11
7.308606164831189
 21
10.22499975461139
 31
0.0
  0
LINE
  5
979
330
1A
100
AcDbEntity
  8
ZUWAKU
100
AcDbLine
 10
7.046106164831201
 20
9.962499754611396
 30
0.0
 11
7.046106164831201
 21
9.317398741933725
 31
0.0
  0
ARC
  5
97A
330
1A
100
AcDbEntity
  8
ZUWAKU
100
AcDbCircle
 10
7.308606164831189
 20
9.962499754611396
 30
0.0
 40
0.2625
100
AcDbArc
 50
90.0
 51
180.0
  0
LINE
  5
97B
330
1A
100
AcDbEntity
  8
ZUWAKU
100
AcDbLine
 10
7.046106164831201
 20
11.62499975461139
 30
0.0
 11
8.796106164831201
 21
11.62499975461139
 31
0.0
  0
ARC
  5
97C
330
1A
100
AcDbEntity
  8
ZUWAKU
100
AcDbCircle
 10
12.47110616483121
 20
9.524999754611375
 30
0.0
 40
2.099999999999999
100
AcDbArc
 50
90.0
 51
180.0
  0
ARC
  5
97D
330
1A
100
AcDbEntity
  8
ZUWAKU
100
AcDbCircle
 10
12.47110616483121
 20
9.524999754611396
 30
0.0
 40
0.7
100
AcDbArc
 50
90.0
 51
180.0
  0
LINE
  5
97E
330
1A
100
AcDbEntity
  8
ZUWAKU
100
AcDbLine
 10
9.058606164831189
 20
11.36249975461139
 30
0.0
 11
9.058606164831189
 21
10.48749975461139
 31
0.0
  0
LINE
  5
97F
330
1A
100
AcDbEntity
  8
ZUWAKU
100
AcDbLine
 10
17.83817363348913
 20
11.44154673869488
 30
0.0
 11
16.90403869617324
 21
8.483452770527911
 31
0.0
  0
LINE
  5
980
330
1A
100
AcDbEntity
  8
ZUWAKU
100
AcDbLine
 10
14.9211061648312
 20
11.36249975461139
 30
0.0
 11
14.9211061648312
 21
3.837499754611396
 31
0.0
  0
LINE
  5
981
330
1A
100
AcDbEntity
  8
ZUWAKU
100
AcDbLine
 10
16.32110616483123
 20
8.562499754611398
 30
0.0
 11
16.32110616483123
 21
11.36249975461139
 31
0.0
  0
LINE
  5
982
330
1A
100
AcDbEntity
  8
ZUWAKU
100
AcDbLine
 10
28.9211061648312
 20
5.499999754611394
 30
0.0
 11
28.9211061648312
 21
11.36249975461139
 31
0.0
  0
LINE
  5
983
330
1A
100
AcDbEntity
  8
ZUWAKU
100
AcDbLine
 10
27.52110616483122
 20
11.36249975461139
 30
0.0
 11
27.52110616483122
 21
4.974999754611395
 31
0.0
  0
LINE
  5
984
330
1A
100
AcDbEntity
  8
ZUWAKU
100
AcDbLine
 10
21.74610616483119
 20
3.837499754611396
 30
0.0
 11
21.74610616483119
 21
11.36249975461139
 31
0.0
  0
LINE
  5
985
330
1A
100
AcDbEntity
  8
ZUWAKU
100
AcDbLine
 10
20.34610616483121
 20
11.36249975461139
 30
0.0
 11
20.34610616483121
 21
3.837499754611396
 31
0.0
  0
LINE
  5
986
330
1A
100
AcDbEntity
  8
ZUWAKU
100
AcDbLine
 10
18.65742940592019
 20
9.602523351393109
 30
0.0
 11
18.02505353325227
 21
7.599999754611406
 31
0.0
  0
ARC
  5
987
330
1A
100
AcDbEntity
  8
ZUWAKU
100
AcDbCircle
 10
24.89610616483122
 20
9.317398741933747
 30
0.0
 40
2.099999999999999
100
AcDbArc
 50
180.0
 51
225.0
  0
ARC
  5
988
330
1A
100
AcDbEntity
  8
ZUWAKU
100
AcDbCircle
 10
24.89610616483122
 20
9.317398741933747
 30
0.0
 40
0.7
100
AcDbArc
 50
180.0000000000016
 51
224.9999999999988
  0
LINE
  5
989
330
1A
100
AcDbEntity
  8
ZUWAKU
100
AcDbLine
 10
33.12110616483119
 20
11.36249975461139
 30
0.0
 11
33.12110616483119
 21
3.837499754611396
 31
0.0
  0
LINE
  5
98A
330
1A
100
AcDbEntity
  8
ZUWAKU
100
AcDbLine
 10
34.52110616483122
 20
3.837499754611396
 30
0.0
 11
34.52110616483122
 21
11.36249975461139
 31
0.0
  0
LINE
  5
98B
330
1A
100
AcDbEntity
  8
ZUWAKU
100
AcDbLine
 10
30.6711061648312
 20
11.36249975461139
 30
0.0
 11
30.6711061648312
 21
5.499999754611394
 31
0.0
  0
LINE
  5
98C
330
1A
100
AcDbEntity
  8
ZUWAKU
100
AcDbLine
 10
32.07110616483123
 20
4.974999754611395
 30
0.0
 11
32.07110616483123
 21
11.36249975461139
 31
0.0
  0
LINE
  5
98D
330
1A
100
AcDbEntity
  8
ZUWAKU
100
AcDbLine
 10
39.56331486143483
 20
14.99999975461139
 30
0.0
 11
39.56331486143483
 21
0.3999997546114287
 31
0.0
  0
LINE
  5
98E
330
1A
100
AcDbEntity
  8
ZUWAKU
100
AcDbLine
 10
39.76331486143476
 20
14.99999975461139
 30
0.0
 11
39.76331486143488
 21
0.3999997546114287
 31
0.0
  0
LINE
  5
98F
330
1A
100
AcDbEntity
  8
ZUWAKU
100
AcDbLine
 10
39.66331486143474
 20
14.99999975461139
 30
0.0
 11
39.66331486143485
 21
0.3999997546114287
 31
0.0
  0
TEXT
  5
990
330
1A
100
AcDbEntity
  8
MOJI
100
AcDbText
 10
46.47889488152521
 20
6.370588819748775
 30
0.0
 40
3.0
  1
ライナートップ
 41
0.9
  7
ｽﾀｲﾙ1
100
AcDbText
  0
LINE
  5
991
330
1A
100
AcDbEntity
  8
ZUWAKU
100
AcDbLine
 10
28.9211061648312
 20
3.574999754611397
 30
0.0
 11
30.6711061648312
 21
3.574999754611397
 31
0.0
  0
LINE
  5
992
330
1A
100
AcDbEntity
  8
ZUWAKU
100
AcDbLine
 10
30.14610616483122
 20
4.974999754611395
 30
0.0
 11
29.44610616483123
 21
4.974999754611395
 31
0.0
  0
LINE
  5
993
330
1A
100
AcDbEntity
  8
ZUWAKU
100
AcDbLine
 10
20.6086061648312
 20
3.574999754611397
 30
0.0
 11
21.4836061648312
 21
3.574999754611397
 31
0.0
  0
LINE
  5
994
330
1A
100
AcDbEntity
  8
ZUWAKU
100
AcDbLine
 10
17.83817363348913
 20
3.75845277052791
 30
0.0
 11
16.90403869617324
 21
6.71654673869488
 31
0.0
  0
ARC
  5
995
330
1A
100
AcDbEntity
  8
ZUWAKU
100
AcDbCircle
 10
16.58360616483122
 20
6.637499754611397
 30
0.0
 40
0.2625
100
AcDbArc
 50
90.0
 51
180.0
  0
ARC
  5
996
330
1A
100
AcDbEntity
  8
ZUWAKU
100
AcDbCircle
 10
16.65372324657556
 20
6.637499754611397
 30
0.0
 40
0.2625
100
AcDbArc
 50
17.52556837372303
 51
90.0
  0
ARC
  5
997
330
1A
100
AcDbEntity
  8
ZUWAKU
100
AcDbCircle
 10
15.18360616483119
 20
3.837499754611396
 30
0.0
 40
0.2625
100
AcDbArc
 50
180.0
 51
270.0
  0
ARC
  5
998
330
1A
100
AcDbEntity
  8
ZUWAKU
100
AcDbCircle
 10
13.43360616483119
 20
4.712499754611396
 30
0.0
 40
0.2625
100
AcDbArc
 50
0.0
 51
90.0
  0
ARC
  5
999
330
1A
100
AcDbEntity
  8
ZUWAKU
100
AcDbCircle
 10
13.43360616483119
 20
3.837499754611396
 30
0.0
 40
0.2625
100
AcDbArc
 50
270.0
 51
0.0
  0
LINE
  5
99A
330
1A
100
AcDbEntity
  8
ZUWAKU
100
AcDbLine
 10
13.69610616483123
 20
4.712499754611396
 30
0.0
 11
13.69610616483123
 21
3.837499754611396
 31
0.0
  0
LINE
  5
99B
330
1A
100
AcDbEntity
  8
ZUWAKU
100
AcDbLine
 10
16.32110616483123
 20
3.837499754611396
 30
0.0
 11
16.32110616483123
 21
6.637499754611397
 31
0.0
  0
ARC
  5
99C
330
1A
100
AcDbEntity
  8
ZUWAKU
100
AcDbCircle
 10
16.05860616483119
 20
3.837499754611396
 30
0.0
 40
0.2625
100
AcDbArc
 50
270.0
 51
0.0
  0
LINE
  5
99D
330
1A
100
AcDbEntity
  8
ZUWAKU
100
AcDbLine
 10
15.18360616483119
 20
3.574999754611397
 30
0.0
 11
16.05860616483119
 21
3.574999754611397
 31
0.0
  0
ARC
  5
99E
330
1A
100
AcDbEntity
  8
ZUWAKU
100
AcDbCircle
 10
16.58360616483122
 20
8.562499754611398
 30
0.0
 40
0.2625
100
AcDbArc
 50
180.0
 51
270.0
  0
LINE
  5
99F
330
1A
100
AcDbEntity
  8
ZUWAKU
100
AcDbLine
 10
16.58360616483122
 20
6.899999754611396
 30
0.0
 11
16.65372324657556
 21
6.899999754611396
 31
0.0
  0
LINE
  5
9A0
330
1A
100
AcDbEntity
  8
ZUWAKU
100
AcDbLine
 10
16.65372324657556
 20
8.299999754611395
 30
0.0
 11
16.58360616483122
 21
8.299999754611395
 31
0.0
  0
ARC
  5
9A1
330
1A
100
AcDbEntity
  8
ZUWAKU
100
AcDbCircle
 10
16.65372324657556
 20
8.562499754611398
 30
0.0
 40
0.2625
100
AcDbArc
 50
270.0
 51
342.4744316262769
  0
ARC
  5
9A2
330
1A
100
AcDbEntity
  8
ZUWAKU
100
AcDbCircle
 10
18.08848908308687
 20
3.837499754611396
 30
0.0
 40
0.2625
100
AcDbArc
 50
197.525568373723
 51
270.0
  0
LINE
  5
9A3
330
1A
100
AcDbEntity
  8
ZUWAKU
100
AcDbLine
 10
19.1882492224891
 20
3.916546738694883
 30
0.0
 11
18.02505353325227
 21
7.599999754611406
 31
0.0
  0
ARC
  5
9A4
330
1A
100
AcDbEntity
  8
ZUWAKU
100
AcDbCircle
 10
18.93793377289137
 20
3.837499754611396
 30
0.0
 40
0.2625
100
AcDbArc
 50
270.0
 51
17.52556837372303
  0
LINE
  5
9A5
330
1A
100
AcDbEntity
  8
ZUWAKU
100
AcDbLine
 10
18.08848908308687
 20
3.574999754611397
 30
0.0
 11
18.93793377289137
 21
3.574999754611397
 31
0.0
  0
ARC
  5
9A6
330
1A
100
AcDbEntity
  8
ZUWAKU
100
AcDbCircle
 10
20.6086061648312
 20
3.837499754611396
 30
0.0
 40
0.2625
100
AcDbArc
 50
180.0
 51
270.0
  0
ARC
  5
9A7
330
1A
100
AcDbEntity
  8
ZUWAKU
100
AcDbCircle
 10
25.07110616483123
 20
4.974999754611395
 30
0.0
 40
1.399999999999999
100
AcDbArc
 50
270.0
 51
0.0
  0
ARC
  5
9A8
330
1A
100
AcDbEntity
  8
ZUWAKU
100
AcDbCircle
 10
28.9211061648312
 20
4.974999754611395
 30
0.0
 40
1.399999999999999
100
AcDbArc
 50
180.0
 51
270.0
  0
LINE
  5
9A9
330
1A
100
AcDbEntity
  8
ZUWAKU
100
AcDbLine
 10
25.856030405323
 20
7.367525007780809
 30
0.0
 11
24.4011314180006
 21
8.822423995103147
 31
0.0
  0
LINE
  5
9AA
330
1A
100
AcDbEntity
  8
ZUWAKU
100
AcDbLine
 10
23.41118192433947
 20
7.832474501441986
 30
0.0
 11
24.86608091166181
 21
6.377575514119655
 31
0.0
  0
LINE
  5
9AB
330
1A
100
AcDbEntity
  8
ZUWAKU
100
AcDbLine
 10
23.32110616483123
 20
3.574999754611397
 30
0.0
 11
25.07110616483123
 21
3.574999754611397
 31
0.0
  0
LINE
  5
9AC
330
1A
100
AcDbEntity
  8
ZUWAKU
100
AcDbLine
 10
23.32110616483123
 20
4.974999754611395
 30
0.0
 11
24.80860616483119
 21
4.974999754611395
 31
0.0
  0
ARC
  5
9AD
330
1A
100
AcDbEntity
  8
ZUWAKU
100
AcDbCircle
 10
23.32110616483123
 20
4.712499754611396
 30
0.0
 40
0.2625
100
AcDbArc
 50
90.0
 51
180.0
  0
ARC
  5
9AE
330
1A
100
AcDbEntity
  8
ZUWAKU
100
AcDbCircle
 10
21.4836061648312
 20
3.837499754611396
 30
0.0
 40
0.2625
100
AcDbArc
 50
270.0
 51
0.0
  0
ARC
  5
9AF
330
1A
100
AcDbEntity
  8
ZUWAKU
100
AcDbCircle
 10
23.32110616483123
 20
3.837499754611396
 30
0.0
 40
0.2625
100
AcDbArc
 50
180.0
 51
270.0
  0
LINE
  5
9B0
330
1A
100
AcDbEntity
  8
ZUWAKU
100
AcDbLine
 10
23.05860616483119
 20
3.837499754611396
 30
0.0
 11
23.05860616483119
 21
4.712499754611396
 31
0.0
  0
ARC
  5
9B1
330
1A
100
AcDbEntity
  8
ZUWAKU
100
AcDbCircle
 10
24.80860616483119
 20
5.237499754611398
 30
0.0
 40
0.2625
100
AcDbArc
 50
270.0
 51
0.0
  0
ARC
  5
9B2
330
1A
100
AcDbEntity
  8
ZUWAKU
100
AcDbCircle
 10
24.37110616483119
 20
5.882600767289069
 30
0.0
 40
0.7
100
AcDbArc
 50
0.0
 51
45.0
  0
LINE
  5
9B3
330
1A
100
AcDbEntity
  8
ZUWAKU
100
AcDbLine
 10
25.07110616483123
 20
5.237499754611398
 30
0.0
 11
25.07110616483123
 21
5.882600767289069
 31
0.0
  0
ARC
  5
9B4
330
1A
100
AcDbEntity
  8
ZUWAKU
100
AcDbCircle
 10
29.44610616483123
 20
5.499999754611394
 30
0.0
 40
0.525
100
AcDbArc
 50
180.0
 51
270.0
  0
ARC
  5
9B5
330
1A
100
AcDbEntity
  8
ZUWAKU
100
AcDbCircle
 10
24.37110616483119
 20
5.882600767289048
 30
0.0
 40
2.099999999999999
100
AcDbArc
 50
0.0
 51
45.0
  0
LINE
  5
9B6
330
1A
100
AcDbEntity
  8
ZUWAKU
100
AcDbLine
 10
26.47110616483121
 20
4.974999754611395
 30
0.0
 11
26.47110616483121
 21
5.882600767289069
 31
0.0
  0
ARC
  5
9B7
330
1A
100
AcDbEntity
  8
ZUWAKU
100
AcDbCircle
 10
30.6711061648312
 20
4.974999754611395
 30
0.0
 40
1.399999999999999
100
AcDbArc
 50
270.0
 51
0.0
  0
LINE
  5
9B8
330
1A
100
AcDbEntity
  8
ZUWAKU
100
AcDbLine
 10
33.38360616483123
 20
3.574999754611397
 30
0.0
 11
34.25860616483123
 21
3.574999754611397
 31
0.0
  0
ARC
  5
9B9
330
1A
100
AcDbEntity
  8
ZUWAKU
100
AcDbCircle
 10
30.14610616483122
 20
5.499999754611394
 30
0.0
 40
0.525
100
AcDbArc
 50
270.0
 51
0.0
  0
ARC
  5
9BA
330
1A
100
AcDbEntity
  8
ZUWAKU
100
AcDbCircle
 10
33.38360616483123
 20
3.837499754611396
 30
0.0
 40
0.2625
100
AcDbArc
 50
180.0
 51
270.0
  0
ARC
  5
9BB
330
1A
100
AcDbEntity
  8
ZUWAKU
100
AcDbCircle
 10
34.25860616483123
 20
3.837499754611396
 30
0.0
 40
0.2625
100
AcDbArc
 50
270.0
 51
0.0
  0
LINE
  5
9BC
330
1A
100
AcDbEntity
  8
ZUWAKU
100
AcDbLine
 10
21.4836061648312
 20
11.62499975461139
 30
0.0
 11
20.6086061648312
 21
11.62499975461139
 31
0.0
  0
LINE
  5
9BD
330
1A
100
AcDbEntity
  8
ZUWAKU
100
AcDbLine
 10
13.69610616483123
 20
11.36249975461139
 30
0.0
 11
13.69610616483123
 21
10.48749975461139
 31
0.0
  0
ARC
  5
9BE
330
1A
100
AcDbEntity
  8
ZUWAKU
100
AcDbCircle
 10
13.43360616483119
 20
10.48749975461139
 30
0.0
 40
0.2625
100
AcDbArc
 50
270.0
 51
0.0
  0
ARC
  5
9BF
330
1A
100
AcDbEntity
  8
ZUWAKU
100
AcDbCircle
 10
15.18360616483119
 20
11.36249975461139
 30
0.0
 40
0.2625
100
AcDbArc
 50
90.0
 51
180.0
  0
ARC
  5
9C0
330
1A
100
AcDbEntity
  8
ZUWAKU
100
AcDbCircle
 10
13.43360616483119
 20
11.36249975461139
 30
0.0
 40
0.2625
100
AcDbArc
 50
0.0
 51
90.0
  0
LINE
  5
9C1
330
1A
100
AcDbEntity
  8
ZUWAKU
100
AcDbLine
 10
16.05860616483119
 20
11.62499975461139
 30
0.0
 11
15.18360616483119
 21
11.62499975461139
 31
0.0
  0
ARC
  5
9C2
330
1A
100
AcDbEntity
  8
ZUWAKU
100
AcDbCircle
 10
16.05860616483119
 20
11.36249975461139
 30
0.0
 40
0.2625
100
AcDbArc
 50
0.0
 51
90.0
  0
ARC
  5
9C3
330
1A
100
AcDbEntity
  8
ZUWAKU
100
AcDbCircle
 10
18.08848908308687
 20
11.36249975461139
 30
0.0
 40
0.2625
100
AcDbArc
 50
90.0
 51
162.4744316262769
  0
LINE
  5
9C4
330
1A
100
AcDbEntity
  8
ZUWAKU
100
AcDbLine
 10
19.1882492224891
 20
11.28345277052791
 30
0.0
 11
18.65742940592019
 21
9.602523351393109
 31
0.0
  0
ARC
  5
9C5
330
1A
100
AcDbEntity
  8
ZUWAKU
100
AcDbCircle
 10
18.93793377289137
 20
11.36249975461139
 30
0.0
 40
0.2625
100
AcDbArc
 50
342.4744316262769
 51
90.0
  0
LINE
  5
9C6
330
1A
100
AcDbEntity
  8
ZUWAKU
100
AcDbLine
 10
18.08848908308687
 20
11.62499975461139
 30
0.0
 11
18.93793377289137
 21
11.62499975461139
 31
0.0
  0
ARC
  5
9C7
330
1A
100
AcDbEntity
  8
ZUWAKU
100
AcDbCircle
 10
20.6086061648312
 20
11.36249975461139
 30
0.0
 40
0.2625
100
AcDbArc
 50
90.0
 51
180.0
  0
LINE
  5
9C8
330
1A
100
AcDbEntity
  8
ZUWAKU
100
AcDbLine
 10
25.94610616483123
 20
10.22499975461139
 30
0.0
 11
24.45860616483122
 21
10.22499975461139
 31
0.0
  0
LINE
  5
9C9
330
1A
100
AcDbEntity
  8
ZUWAKU
100
AcDbLine
 10
24.19610616483123
 20
11.62499975461139
 30
0.0
 11
25.94610616483123
 21
11.62499975461139
 31
0.0
  0
ARC
  5
9CA
330
1A
100
AcDbEntity
  8
ZUWAKU
100
AcDbCircle
 10
24.19610616483123
 20
10.22499975461139
 30
0.0
 40
1.399999999999999
100
AcDbArc
 50
90.0
 51
180.0
  0
LINE
  5
9CB
330
1A
100
AcDbEntity
  8
ZUWAKU
100
AcDbLine
 10
22.7961061648312
 20
10.22499975461139
 30
0.0
 11
22.7961061648312
 21
9.317398741933725
 31
0.0
  0
ARC
  5
9CC
330
1A
100
AcDbEntity
  8
ZUWAKU
100
AcDbCircle
 10
21.4836061648312
 20
11.36249975461139
 30
0.0
 40
0.2625
100
AcDbArc
 50
0.0
 51
90.0
  0
LINE
  5
9CD
330
1A
100
AcDbEntity
  8
ZUWAKU
100
AcDbLine
 10
24.19610616483123
 20
9.962499754611396
 30
0.0
 11
24.19610616483123
 21
9.317398741933725
 31
0.0
  0
ARC
  5
9CE
330
1A
100
AcDbEntity
  8
ZUWAKU
100
AcDbCircle
 10
24.45860616483122
 20
9.962499754611396
 30
0.0
 40
0.2625
100
AcDbArc
 50
90.0
 51
180.0
  0
LINE
  5
9CF
330
1A
100
AcDbEntity
  8
ZUWAKU
100
AcDbLine
 10
26.20860616483122
 20
11.36249975461139
 30
0.0
 11
26.20860616483122
 21
10.48749975461139
 31
0.0
  0
ARC
  5
9D0
330
1A
100
AcDbEntity
  8
ZUWAKU
100
AcDbCircle
 10
25.94610616483123
 20
10.48749975461139
 30
0.0
 40
0.2625
100
AcDbArc
 50
270.0
 51
0.0
  0
ARC
  5
9D1
330
1A
100
AcDbEntity
  8
ZUWAKU
100
AcDbCircle
 10
25.94610616483123
 20
11.36249975461139
 30
0.0
 40
0.2625
100
AcDbArc
 50
0.0
 51
90.0
  0
LINE
  5
9D2
330
1A
100
AcDbEntity
  8
ZUWAKU
100
AcDbLine
 10
28.65860616483121
 20
11.62499975461139
 30
0.0
 11
27.78360616483121
 21
11.62499975461139
 31
0.0
  0
ARC
  5
9D3
330
1A
100
AcDbEntity
  8
ZUWAKU
100
AcDbCircle
 10
27.78360616483121
 20
11.36249975461139
 30
0.0
 40
0.2625
100
AcDbArc
 50
90.0
 51
180.0
  0
ARC
  5
9D4
330
1A
100
AcDbEntity
  8
ZUWAKU
100
AcDbCircle
 10
28.65860616483121
 20
11.36249975461139
 30
0.0
 40
0.2625
100
AcDbArc
 50
0.0
 51
90.0
  0
LINE
  5
9D5
330
1A
100
AcDbEntity
  8
ZUWAKU
100
AcDbLine
 10
34.25860616483123
 20
11.62499975461139
 30
0.0
 11
33.38360616483123
 21
11.62499975461139
 31
0.0
  0
ARC
  5
9D6
330
1A
100
AcDbEntity
  8
ZUWAKU
100
AcDbCircle
 10
30.93360616483119
 20
11.36249975461139
 30
0.0
 40
0.2625
100
AcDbArc
 50
90.0
 51
180.0
  0
LINE
  5
9D7
330
1A
100
AcDbEntity
  8
ZUWAKU
100
AcDbLine
 10
31.80860616483119
 20
11.62499975461139
 30
0.0
 11
30.93360616483119
 21
11.62499975461139
 31
0.0
  0
ARC
  5
9D8
330
1A
100
AcDbEntity
  8
ZUWAKU
100
AcDbCircle
 10
31.80860616483119
 20
11.36249975461139
 30
0.0
 40
0.2625
100
AcDbArc
 50
0.0
 51
90.0
  0
ARC
  5
9D9
330
1A
100
AcDbEntity
  8
ZUWAKU
100
AcDbCircle
 10
33.38360616483123
 20
11.36249975461139
 30
0.0
 40
0.2625
100
AcDbArc
 50
90.0
 51
180.0
  0
ARC
  5
9DA
330
1A
100
AcDbEntity
  8
ZUWAKU
100
AcDbCircle
 10
34.25860616483123
 20
11.36249975461139
 30
0.0
 40
0.2625
100
AcDbArc
 50
0.0
 51
90.0
  0
TEXT
  5
9DB
330
1A
100
AcDbEntity
  8
MOJI
100
AcDbText
 10
119.9136014278661
 20
1.602460283315105
 30
0.0
 40
2.799999999999999
  1
Ｘ４０－４寸－２０m/m（６分）
 41
0.9
  7
ｽﾀｲﾙ1
100
AcDbText
  0
TEXT
  5
9DC
330
1A
100
AcDbEntity
  8
MOJI
100
AcDbText
 10
119.9136014278661
 20
9.002460283315087
 30
0.0
 40
2.799999999999999
  1
ステンレス金具正面打（吊）固定式
 41
0.9
  7
ｽﾀｲﾙ1
100
AcDbText
  0
LINE
  5
9DD
330
1A
100
AcDbEntity
  8
ZUWAKU
100
AcDbLine
 10
104.2233007324745
 20
14.99999975461139
 30
0.0
 11
104.2233007324746
 21
0.3999997546114287
 31
0.0
  0
LINE
  5
9DE
330
1A
100
AcDbEntity
  8
ZUWAKU
100
AcDbLine
 10
104.3233007324745
 20
14.99999975461139
 30
0.0
 11
104.3233007324746
 21
0.3999997546114287
 31
0.0
  0
LINE
  5
9DF
330
1A
100
AcDbEntity
  8
ZUWAKU
100
AcDbLine
 10
104.1233007324745
 20
14.99999975461139
 30
0.0
 11
104.1233007324745
 21
0.3999997546114287
 31
0.0
  0
TEXT
  5
9E0
330
1A
100
AcDbEntity
  8
ZUWAKU
100
AcDbText
 10
104.8620232435794
 20
4.827678023804203
 30
0.0
 40
2.0
  1
サイズ
 41
0.9
  7
ｽﾀｲﾙ1
100
AcDbText
  0
TEXT
  5
9E1
330
1A
100
AcDbEntity
  8
ZUWAKU
100
AcDbText
 10
104.8620232435792
 20
12.02767802380418
 30
0.0
 40
2.0
  1
品名
 41
0.9
  7
ｽﾀｲﾙ1
100
AcDbText
  0
TEXT
  5
9E2
330
1A
100
AcDbEntity
  8
ZUWAKU
100
AcDbText
 10
329.1019689310918
 20
9.002460283315087
 30
0.0
 40
2.799999999999999
  1
　　．　　．　　
 41
0.9
  7
ｽﾀｲﾙ1
100
AcDbText
  0
LINE
  5
9E3
330
1A
100
AcDbEntity
  8
ZUWAKU
100
AcDbLine
 10
324.4086013425427
 20
7.799999754611411
 30
0.0
 11
348.6245053617112
 21
7.799999754611411
 31
0.0
  0
LINE
  5
9E4
330
1A
100
AcDbEntity
  8
ZUWAKU
100
AcDbLine
 10
324.4086013425428
 20
7.699999754611413
 30
0.0
 11
348.6245053617112
 21
7.699999754611411
 31
0.0
  0
LINE
  5
9E5
330
1A
100
AcDbEntity
  8
ZUWAKU
100
AcDbLine
 10
324.4086013425427
 20
7.59999975461141
 30
0.0
 11
348.6245053617112
 21
7.599999754611411
 31
0.0
  0
LINE
  5
9E6
330
1A
100
AcDbEntity
  8
ZUWAKU
100
AcDbLine
 10
252.599589836511
 20
7.799999754611411
 30
0.0
 11
276.2634779704968
 21
7.799999754611411
 31
0.0
  0
LINE
  5
9E7
330
1A
100
AcDbEntity
  8
ZUWAKU
100
AcDbLine
 10
252.599589836511
 20
7.699999754611411
 30
0.0
 11
276.2634779704968
 21
7.699999754611411
 31
0.0
  0
LINE
  5
9E8
330
1A
100
AcDbEntity
  8
ZUWAKU
100
AcDbLine
 10
252.599589836511
 20
7.599999754611413
 30
0.0
 11
276.2634779704968
 21
7.599999754611413
 31
0.0
  0
LINE
  5
9E9
330
1A
100
AcDbEntity
  8
ZUWAKU
100
AcDbLine
 10
252.3995898365111
 20
14.99999975461139
 30
0.0
 11
252.3995898365111
 21
0.3999997546114287
 31
0.0
  0
LINE
  5
9EA
330
1A
100
AcDbEntity
  8
ZUWAKU
100
AcDbLine
 10
252.599589836511
 20
14.99999975461139
 30
0.0
 11
252.5995898365112
 21
0.3999997546114287
 31
0.0
  0
LINE
  5
9EB
330
1A
100
AcDbEntity
  8
ZUWAKU
100
AcDbLine
 10
252.499589836511
 20
14.99999975461139
 30
0.0
 11
252.4995898365111
 21
0.3999997546114287
 31
0.0
  0
TEXT
  5
9EC
330
1A
100
AcDbEntity
  8
MOJI
100
AcDbText
 10
264.020454073597
 20
9.002460283315087
 30
0.0
 40
2.799999999999999
  1
Ａ３
 41
0.9
  7
ｽﾀｲﾙ1
100
AcDbText
  0
LINE
  5
9ED
330
1A
100
AcDbEntity
  8
ZUWAKU
100
AcDbLine
 10
223.7121820729363
 20
14.99999975461139
 30
0.0
 11
223.7121820729363
 21
0.3999997546114287
 31
0.0
  0
LINE
  5
9EE
330
1A
100
AcDbEntity
  8
ZUWAKU
100
AcDbLine
 10
223.9121820729362
 20
14.99999975461139
 30
0.0
 11
223.9121820729363
 21
0.3999997546114287
 31
0.0
  0
LINE
  5
9EF
330
1A
100
AcDbEntity
  8
ZUWAKU
100
AcDbLine
 10
223.8121820729362
 20
14.99999975461139
 30
0.0
 11
223.8121820729363
 21
0.3999997546114287
 31
0.0
  0
TEXT
  5
9F0
330
1A
100
AcDbEntity
  8
MOJI
100
AcDbText
 10
231.2836392484349
 20
5.971308615441387
 30
0.0
 40
2.799999999999999
  1
ＬＤ１８Ｇ
 41
0.9
  7
ｽﾀｲﾙ1
100
AcDbText
  0
TEXT
  5
9F1
330
1A
100
AcDbEntity
  8
ZUWAKU
100
AcDbText
 10
253.338312347616
 20
4.827678023804203
 30
0.0
 40
2.0
  1
縮尺
 41
0.9
  7
ｽﾀｲﾙ1
100
AcDbText
  0
TEXT
  5
9F2
330
1A
100
AcDbEntity
  8
MOJI
100
AcDbText
 10
264.020454073597
 20
1.602460283315105
 30
0.0
 40
2.799999999999999
  1
１/１
 41
0.9
  7
ｽﾀｲﾙ1
100
AcDbText
  0
TEXT
  5
9F3
330
1A
100
AcDbEntity
  8
ZUWAKU
100
AcDbText
 10
224.6509045840411
 20
12.02767802380418
 30
0.0
 40
2.0
  1
品番
 41
0.9
  7
ｽﾀｲﾙ1
100
AcDbText
  0
TEXT
  5
9F4
330
1A
100
AcDbEntity
  8
ZUWAKU
100
AcDbText
 10
253.3383123476159
 20
12.02767802380418
 30
0.0
 40
2.0
  1
用紙
 41
0.9
  7
ｽﾀｲﾙ1
100
AcDbText
  0
LINE
  5
9F5
330
1A
100
AcDbEntity
  8
ZUWAKU
100
AcDbLine
 10
276.2634779704968
 20
14.99999975461139
 30
0.0
 11
276.2634779704968
 21
0.3999997546114287
 31
0.0
  0
LINE
  5
9F6
330
1A
100
AcDbEntity
  8
ZUWAKU
100
AcDbLine
 10
276.4634779704968
 20
14.99999975461139
 30
0.0
 11
276.4634779704969
 21
0.3999997546114287
 31
0.0
  0
LINE
  5
9F7
330
1A
100
AcDbEntity
  8
ZUWAKU
100
AcDbLine
 10
276.3634779704967
 20
14.99999975461139
 30
0.0
 11
276.3634779704968
 21
0.3999997546114287
 31
0.0
  0
LINE
  5
9F8
330
1A
100
AcDbEntity
  8
ZUWAKU
100
AcDbLine
 10
324.2086013425429
 20
14.99999975461139
 30
0.0
 11
324.2086013425429
 21
0.3999997546114287
 31
0.0
  0
LINE
  5
9F9
330
1A
100
AcDbEntity
  8
ZUWAKU
100
AcDbLine
 10
324.4086013425428
 20
14.99999975461139
 30
0.0
 11
324.4086013425429
 21
0.3999997546114287
 31
0.0
  0
LINE
  5
9FA
330
1A
100
AcDbEntity
  8
ZUWAKU
100
AcDbLine
 10
324.3086013425428
 20
14.99999975461139
 30
0.0
 11
324.3086013425429
 21
0.3999997546114287
 31
0.0
  0
TEXT
  5
9FB
330
1A
100
AcDbEntity
  8
ZUWAKU
100
AcDbText
 10
325.1473238536476
 20
12.02767802380418
 30
0.0
 40
2.0
  1
DATE
 41
0.9
  7
ｽﾀｲﾙ1
100
AcDbText
  0
TEXT
  5
9FC
330
1A
100
AcDbEntity
  8
ZUWAKU
100
AcDbText
 10
354.2640421835625
 20
8.776919422454795
 30
0.0
 40
3.0
  1
積水化学工業株式会社
 41
0.9
  7
ｽﾀｲﾙ1
100
AcDbText
  0
LINE
  5
9FD
330
1A
100
AcDbEntity
  8
ZUWAKU
100
AcDbLine
 10
348.9245053617112
 20
14.99999975461139
 30
0.0
 11
348.9245053617113
 21
0.3999997546114287
 31
0.0
  0
LINE
  5
9FE
330
1A
100
AcDbEntity
  8
ZUWAKU
100
AcDbLine
 10
348.8245053617112
 20
14.99999975461139
 30
0.0
 11
348.8245053617113
 21
0.3999997546114287
 31
0.0
  0
LINE
  5
9FF
330
1A
100
AcDbEntity
  8
ZUWAKU
100
AcDbLine
 10
348.7245053617113
 20
14.99999975461139
 30
0.0
 11
348.7245053617113
 21
0.3999997546114287
 31
0.0
  0
LINE
  5
A00
330
1A
100
AcDbEntity
  8
ZUWAKU
100
AcDbLine
 10
348.6245053617112
 20
14.99999975461139
 30
0.0
 11
348.6245053617112
 21
0.3999997546114287
 31
0.0
  0
TEXT
  5
A01
330
1A
100
AcDbEntity
  8
ZUWAKU
100
AcDbText
 10
354.2640421835625
 20
3.324419911538427
 30
0.0
 40
3.0
  1
建材事業部
 41
0.9
  7
ｽﾀｲﾙ1
100
AcDbText
  0
VIEWPORT
  5
22
330
17
100
AcDbEntity
 67
     1
  8
0
100
AcDbViewport
 10
313.6808219178082
 20
148.5
 30
0.0
 40
627.3616438356165
 41
297.0
 68
     2
 69
     1
1001
ACAD
1000
MVIEW
1002
{
1070
    16
1010
0.0
1020
0.0
1030
0.0
1010
0.0
1020
0.0
1030
1.0
1040
0.0
1040
297.0
1040
313.6808219178082
1040
148.5
1040
50.0
1040
0.0
1040
0.0
1070
     0
1070
   100
1070
     1
1070
     0
1070
     0
1070
     0
1070
     0
1070
     0
1040
0.0
1040
0.0
1040
0.0
1040
1.0
1040
1.0
1040
10.0
1040
10.0
1070
     0
1002
{
1002
}
1002
}
  0
VIEWPORT
  5
64
330
17
100
AcDbEntity
 67
     1
  8
VIEWPORT
100
AcDbViewport
 10
210.0
 20
148.5
 30
0.0
 40
420.0
 41
297.0
 68
     1
 69
     2
1001
ACAD
1000
MVIEW
1002
{
1070
    16
1010
0.0
1020
0.0
1030
0.0
1010
0.0
1020
0.0
1030
1.0
1040
0.0
1040
302.9399999999998
1040
210.0
1040
148.5
1040
50.0
1040
0.0
1040
0.0
1070
     0
1070
   100
1070
     1
1070
     0
1070
     0
1070
     0
1070
     0
1070
     0
1040
0.0
1040
0.0
1040
0.0
1040
5.0
1040
5.0
1040
0.0
1040
0.0
1070
     0
1002
{
1002
}
1002
}
  0
ENDSEC
  0
SECTION
  2
OBJECTS
  0
DICTIONARY
  5
C
330
0
100
AcDbDictionary
  3
ACAD_GROUP
350
D
  3
ACAD_LAYOUT
350
65E
  3
ACAD_MLINESTYLE
350
E
  3
ACAD_PLOTSETTINGS
350
65F
  3
ACAD_PLOTSTYLENAME
350
65C
  3
ACDBHEADERROUNDTRIPXREC
350
A09
  0
DICTIONARY
  5
84F
330
1A
100
AcDbDictionary
280
     1
  3
ACAD_LAYOUTSELFREF
360
A2B
  0
DICTIONARY
  5
84D
330
17
100
AcDbDictionary
280
     1
  3
ACAD_LAYOUTSELFREF
360
A2A
  0
DICTIONARY
  5
D
102
{ACAD_REACTORS
330
C
102
}
330
C
100
AcDbDictionary
  0
DICTIONARY
  5
65E
102
{ACAD_REACTORS
330
C
102
}
330
C
100
AcDbDictionary
  0
DICTIONARY
  5
E
102
{ACAD_REACTORS
330
C
102
}
330
C
100
AcDbDictionary
  3
STANDARD
350
13
  0
DICTIONARY
  5
65F
102
{ACAD_REACTORS
330
C
102
}
330
C
100
AcDbDictionary
  0
ACDBDICTIONARYWDFLT
  5
65C
102
{ACAD_REACTORS
330
C
102
}
330
C
100
AcDbDictionary
281
     1
  3
Normal
350
65D
100
AcDbDictionaryWithDefault
340
65D
1001
ACAD
1000
TREAT_AS_HARD
1070
     0
1000
TREAT_AS_HARD
1070
     0
  0
DICTIONARY
  5
A09
102
{ACAD_REACTORS
330
C
102
}
330
C
100
AcDbDictionary
  3
TSTACKALIGN
350
A0A
  3
TSTACKSIZE
350
A0B
  3
HYPERLINKBASE
350
A0C
  3
STYLESHEET
350
A0D
  3
LAYOUTDICT
350
A0E
  3
PLOTSETDICT
350
A0F
  3
PLOTSTYLNAMDICT
350
A10
  3
LWETCUNION
350
A11
  3
INSUNITS
350
A12
  3
CEPSNTYPE
350
A13
  3
FINGERPRINTGUID
350
A14
  3
VERSIONGUID
350
A15
  3
PSVPSCALE
350
A16
  3
DIMSTYLEDATA
350
A17
  3
PUCSORTHOREF
350
A18
  3
PUCSORTHOVIEW
350
A19
  3
PUCSBASE
350
A1A
  3
PUCSORGTOP
350
A1B
  3
PUCSORGBOTTOM
350
A1C
  3
PUCSORGLEFT
350
A1D
  3
PUCSORGRIGHT
350
A1E
  3
PUCSORGFRONT
350
A1F
  3
PUCSORGBACK
350
A20
  3
UCSORTHOREF
350
A21
  3
UCSORTHOVIEW
350
A22
  3
UCSBASE
350
A23
  3
UCSORGTOP
350
A24
  3
UCSORGBOTTOM
350
A25
  3
UCSORGLEFT
350
A26
  3
UCSORGRIGHT
350
A27
  3
UCSORGFRONT
350
A28
  3
UCSORGBACK
350
A29
  0
XRECORD
  5
A2B
102
{ACAD_REACTORS
330
84F
102
}
330
84F
100
AcDbXrecord
340
1A
  0
XRECORD
  5
A2A
102
{ACAD_REACTORS
330
84D
102
}
330
84D
100
AcDbXrecord
340
17
  0
MLINESTYLE
  5
13
102
{ACAD_REACTORS
330
E
102
}
330
E
100
AcDbMlineStyle
  2
STANDARD
 70
     0
  3

 62
     0
 51
90.0
 52
90.0
 71
     2
 49
0.5
 62
   256
  6
BYLAYER
 49
-0.5
 62
   256
  6
BYLAYER
  0
ACDBPLACEHOLDER
  5
65D
102
{ACAD_REACTORS
330
65C
102
}
330
65C
100
AcDbPlaceHolder
280
     0
  0
XRECORD
  5
A0A
102
{ACAD_REACTORS
330
A09
102
}
330
A09
100
AcDbXrecord
 90
        1
  0
XRECORD
  5
A0B
102
{ACAD_REACTORS
330
A09
102
}
330
A09
100
AcDbXrecord
 90
       70
  0
XRECORD
  5
A0C
102
{ACAD_REACTORS
330
A09
102
}
330
A09
100
AcDbXrecord
  1

  0
XRECORD
  5
A0D
102
{ACAD_REACTORS
330
A09
102
}
330
A09
100
AcDbXrecord
  1
systemprinter.ctb
  0
XRECORD
  5
A0E
102
{ACAD_REACTORS
330
A09
102
}
330
A09
100
AcDbXrecord
340
65E
  0
XRECORD
  5
A0F
102
{ACAD_REACTORS
330
A09
102
}
330
A09
100
AcDbXrecord
340
65F
  0
XRECORD
  5
A10
102
{ACAD_REACTORS
330
A09
102
}
330
A09
100
AcDbXrecord
340
65C
  0
XRECORD
  5
A11
102
{ACAD_REACTORS
330
A09
102
}
330
A09
100
AcDbXrecord
 90
    10781
  0
XRECORD
  5
A12
102
{ACAD_REACTORS
330
A09
102
}
330
A09
100
AcDbXrecord
 90
        0
  0
XRECORD
  5
A13
102
{ACAD_REACTORS
330
A09
102
}
330
A09
100
AcDbXrecord
 90
        0
  0
XRECORD
  5
A14
102
{ACAD_REACTORS
330
A09
102
}
330
A09
100
AcDbXrecord
  1
{1CE03586-4230-4E4C-A35F-A5E887CA129A}
  0
XRECORD
  5
A15
102
{ACAD_REACTORS
330
A09
102
}
330
A09
100
AcDbXrecord
  1
{8E0ADA33-38E8-4DAE-8AA2-EB2BA5899A00}
  0
XRECORD
  5
A16
102
{ACAD_REACTORS
330
A09
102
}
330
A09
100
AcDbXrecord
 40
0.0
  0
XRECORD
  5
A17
102
{ACAD_REACTORS
330
A09
102
}
330
A09
100
AcDbXrecord
1000
DSTYLE
1002
{
1070
   341
340
B2
1070
   343
340
B2
1070
   344
340
B2
1070
   371
 70
    -1
1070
   372
 70
    -1
1002
}
  0
XRECORD
  5
A18
102
{ACAD_REACTORS
330
A09
102
}
330
A09
100
AcDbXrecord
340
0
  0
XRECORD
  5
A19
102
{ACAD_REACTORS
330
A09
102
}
330
A09
100
AcDbXrecord
 70
     0
  0
XRECORD
  5
A1A
102
{ACAD_REACTORS
330
A09
102
}
330
A09
100
AcDbXrecord
340
0
  0
XRECORD
  5
A1B
102
{ACAD_REACTORS
330
A09
102
}
330
A09
100
AcDbXrecord
 10
0.0
 20
0.0
 30
0.0
  0
XRECORD
  5
A1C
102
{ACAD_REACTORS
330
A09
102
}
330
A09
100
AcDbXrecord
 10
0.0
 20
0.0
 30
0.0
  0
XRECORD
  5
A1D
102
{ACAD_REACTORS
330
A09
102
}
330
A09
100
AcDbXrecord
 10
0.0
 20
0.0
 30
0.0
  0
XRECORD
  5
A1E
102
{ACAD_REACTORS
330
A09
102
}
330
A09
100
AcDbXrecord
 10
0.0
 20
0.0
 30
0.0
  0
XRECORD
  5
A1F
102
{ACAD_REACTORS
330
A09
102
}
330
A09
100
AcDbXrecord
 10
0.0
 20
0.0
 30
0.0
  0
XRECORD
  5
A20
102
{ACAD_REACTORS
330
A09
102
}
330
A09
100
AcDbXrecord
 10
0.0
 20
0.0
 30
0.0
  0
XRECORD
  5
A21
102
{ACAD_REACTORS
330
A09
102
}
330
A09
100
AcDbXrecord
340
0
  0
XRECORD
  5
A22
102
{ACAD_REACTORS
330
A09
102
}
330
A09
100
AcDbXrecord
 70
     0
  0
XRECORD
  5
A23
102
{ACAD_REACTORS
330
A09
102
}
330
A09
100
AcDbXrecord
340
0
  0
XRECORD
  5
A24
102
{ACAD_REACTORS
330
A09
102
}
330
A09
100
AcDbXrecord
 10
0.0
 20
0.0
 30
0.0
  0
XRECORD
  5
A25
102
{ACAD_REACTORS
330
A09
102
}
330
A09
100
AcDbXrecord
 10
0.0
 20
0.0
 30
0.0
  0
XRECORD
  5
A26
102
{ACAD_REACTORS
330
A09
102
}
330
A09
100
AcDbXrecord
 10
0.0
 20
0.0
 30
0.0
  0
XRECORD
  5
A27
102
{ACAD_REACTORS
330
A09
102
}
330
A09
100
AcDbXrecord
 10
0.0
 20
0.0
 30
0.0
  0
XRECORD
  5
A28
102
{ACAD_REACTORS
330
A09
102
}
330
A09
100
AcDbXrecord
 10
0.0
 20
0.0
 30
0.0
  0
XRECORD
  5
A29
102
{ACAD_REACTORS
330
A09
102
}
330
A09
100
AcDbXrecord
 10
0.0
 20
0.0
 30
0.0
  0
ENDSEC
  0
EOF
