  0
SECTION
  2
HEADER
  9
$ACADVER
  1
AC1014
  9
$ACADMAINTVER
 70
     9
  9
$DWGCODEPAGE
  3
ANSI_932
  9
$INSBASE
 10
0.0
 20
0.0
 30
0.0
  9
$EXTMIN
 10
-0.0128164049386896
 20
-0.009063274602795
 30
-0.0015258207003583
  9
$EXTMAX
 10
398.8000497813338
 20
275.8226172265043
 30
0.0000000349246037
  9
$LIMMIN
 10
0.0
 20
0.0
  9
$LIMMAX
 10
420.0
 20
297.0
  9
$ORTHOMODE
 70
     0
  9
$REGENMODE
 70
     1
  9
$FILLMODE
 70
     1
  9
$QTEXTMODE
 70
     0
  9
$MIRRTEXT
 70
     1
  9
$DRAGMODE
 70
     2
  9
$LTSCALE
 40
1.0
  9
$OSMODE
 70
    37
  9
$ATTMODE
 70
     1
  9
$TEXTSIZE
 40
2.5
  9
$TRACEWID
 40
1.0
  9
$TEXTSTYLE
  7
STANDARD
  9
$CLAYER
  8
SUNPOU
  9
$CELTYPE
  6
BYLAYER
  9
$CECOLOR
 62
   256
  9
$CELTSCALE
 40
1.0
  9
$DELOBJ
 70
     1
  9
$DISPSILH
 70
     0
  9
$DIMSCALE
 40
1.0
  9
$DIMASZ
 40
3.0
  9
$DIMEXO
 40
3.0
  9
$DIMDLI
 40
7.0
  9
$DIMRND
 40
0.0
  9
$DIMDLE
 40
0.0
  9
$DIMEXE
 40
1.5
  9
$DIMTP
 40
0.0
  9
$DIMTM
 40
0.0
  9
$DIMTXT
 40
3.0
  9
$DIMCEN
 40
150.0
  9
$DIMTSZ
 40
0.0
  9
$DIMTOL
 70
     0
  9
$DIMLIM
 70
     0
  9
$DIMTIH
 70
     0
  9
$DIMTOH
 70
     0
  9
$DIMSE1
 70
     0
  9
$DIMSE2
 70
     0
  9
$DIMTAD
 70
     3
  9
$DIMZIN
 70
     0
  9
$DIMBLK
  1

  9
$DIMASO
 70
     1
  9
$DIMSHO
 70
     1
  9
$DIMPOST
  1

  9
$DIMAPOST
  1

  9
$DIMALT
 70
     0
  9
$DIMALTD
 70
     2
  9
$DIMALTF
 40
25.4
  9
$DIMLFAC
 40
1.0
  9
$DIMTOFL
 70
     1
  9
$DIMTVP
 40
0.0
  9
$DIMTIX
 70
     0
  9
$DIMSOXD
 70
     0
  9
$DIMSAH
 70
     1
  9
$DIMBLK1
  1
OPEN
  9
$DIMBLK2
  1
OPEN
  9
$DIMSTYLE
  2
STANDARD
  9
$DIMCLRD
 70
   256
  9
$DIMCLRE
 70
   256
  9
$DIMCLRT
 70
   256
  9
$DIMTFAC
 40
1.0
  9
$DIMGAP
 40
1.0
  9
$DIMJUST
 70
     0
  9
$DIMSD1
 70
     0
  9
$DIMSD2
 70
     0
  9
$DIMTOLJ
 70
     1
  9
$DIMTZIN
 70
     0
  9
$DIMALTZ
 70
     0
  9
$DIMALTTZ
 70
     0
  9
$DIMFIT
 70
     3
  9
$DIMUPT
 70
     0
  9
$DIMUNIT
 70
     2
  9
$DIMDEC
 70
     0
  9
$DIMTDEC
 70
     0
  9
$DIMALTU
 70
     2
  9
$DIMALTTD
 70
     2
  9
$DIMTXSTY
  7
STANDARD
  9
$DIMAUNIT
 70
     0
  9
$LUNITS
 70
     2
  9
$LUPREC
 70
     4
  9
$SKETCHINC
 40
1.0
  9
$FILLETRAD
 40
10.0
  9
$AUNITS
 70
     0
  9
$AUPREC
 70
     0
  9
$MENU
  1
.
  9
$ELEVATION
 40
0.0
  9
$PELEVATION
 40
0.0
  9
$THICKNESS
 40
0.0
  9
$LIMCHECK
 70
     0
  9
$BLIPMODE
 70
     0
  9
$CHAMFERA
 40
10.0
  9
$CHAMFERB
 40
10.0
  9
$CHAMFERC
 40
20.0
  9
$CHAMFERD
 40
0.0
  9
$SKPOLY
 70
     0
  9
$TDCREATE
 40
2450994.350997107
  9
$TDUPDATE
 40
2454484.391849999
  9
$TDINDWG
 40
0.1086217824
  9
$TDUSRTIMER
 40
0.1086217824
  9
$USRTIMER
 70
     1
  9
$ANGBASE
 50
0.0
  9
$ANGDIR
 70
     0
  9
$PDMODE
 70
     1
  9
$PDSIZE
 40
0.0
  9
$PLINEWID
 40
0.0
  9
$COORDS
 70
     1
  9
$SPLFRAME
 70
     0
  9
$SPLINETYPE
 70
     6
  9
$SPLINESEGS
 70
     8
  9
$ATTDIA
 70
     0
  9
$ATTREQ
 70
     1
  9
$HANDLING
 70
 10241
  9
$HANDSEED
  5
86D
  9
$SURFTAB1
 70
     6
  9
$SURFTAB2
 70
     6
  9
$SURFTYPE
 70
     6
  9
$SURFU
 70
     6
  9
$SURFV
 70
     6
  9
$UCSNAME
  2

  9
$UCSORG
 10
0.0
 20
0.0
 30
0.0
  9
$UCSXDIR
 10
1.0
 20
0.0
 30
0.0
  9
$UCSYDIR
 10
0.0
 20
1.0
 30
0.0
  9
$PUCSNAME
  2

  9
$PUCSORG
 10
0.0
 20
0.0
 30
0.0
  9
$PUCSXDIR
 10
1.0
 20
0.0
 30
0.0
  9
$PUCSYDIR
 10
0.0
 20
1.0
 30
0.0
  9
$USERI1
 70
     0
  9
$USERI2
 70
     0
  9
$USERI3
 70
     0
  9
$USERI4
 70
     0
  9
$USERI5
 70
     0
  9
$USERR1
 40
0.0
  9
$USERR2
 40
0.0
  9
$USERR3
 40
0.0
  9
$USERR4
 40
0.0
  9
$USERR5
 40
0.0
  9
$WORLDVIEW
 70
     1
  9
$SHADEDGE
 70
     3
  9
$SHADEDIF
 70
    70
  9
$TILEMODE
 70
     1
  9
$MAXACTVP
 70
    16
  9
$PINSBASE
 10
0.0
 20
0.0
 30
0.0
  9
$PLIMCHECK
 70
     0
  9
$PEXTMIN
 10
0.0
 20
0.0
 30
0.0
  9
$PEXTMAX
 10
420.0
 20
297.0
 30
0.0
  9
$PLIMMIN
 10
0.0
 20
0.0
  9
$PLIMMAX
 10
420.0
 20
297.0
  9
$UNITMODE
 70
     0
  9
$VISRETAIN
 70
     0
  9
$PLINEGEN
 70
     0
  9
$PSLTSCALE
 70
     1
  9
$TREEDEPTH
 70
  3020
  9
$PICKSTYLE
 70
     1
  9
$CMLSTYLE
  2
STANDARD
  9
$CMLJUST
 70
     0
  9
$CMLSCALE
 40
1.0
  9
$PROXYGRAPHICS
 70
     1
  9
$MEASUREMENT
 70
     1
  0
ENDSEC
  0
SECTION
  2
CLASSES
  0
CLASS
  1
ACDBDICTIONARYWDFLT
  2
AcDbDictionaryWithDefault
  3
AutoCAD 2000
 90
        0
280
     0
281
     0
  0
CLASS
  1
ACDBPLACEHOLDER
  2
AcDbPlaceHolder
  3
AutoCAD 2000
 90
        0
280
     0
281
     0
  0
CLASS
  1
LAYOUT
  2
AcDbLayout
  3
AutoCAD 2000
 90
        0
280
     0
281
     0
  0
CLASS
  1
LONG_TRANSACTION
  2
AcDbLongTransaction
  3
AutoCAD 2000
 90
        0
280
     0
281
     0
  0
CLASS
  1
LWPOLYLINE
  2
AcDbPolyline
  3
AutoCAD 2000
 90
        0
280
     0
281
     1
  0
CLASS
  1
HATCH
  2
AcDbHatch
  3
AutoCAD 2000
 90
        0
280
     0
281
     1
  0
CLASS
  1
XRECORD
  2
AcDbXrecord
  3
AutoCAD 2000
 90
        0
280
     0
281
     0
  0
CLASS
  1
LONG_TRANSACTION
  2
AcDbLongTransaction
  3
AutoCAD 2000
 90
        0
280
     0
281
     0
  0
CLASS
  1
LWPOLYLINE
  2
AcDbPolyline
  3
AutoCAD 2000
 90
        0
280
     0
281
     1
  0
CLASS
  1
HATCH
  2
AcDbHatch
  3
AutoCAD 2000
 90
        0
280
     0
281
     1
  0
CLASS
  1
XRECORD
  2
AcDbXrecord
  3
AutoCAD 2000
 90
        0
280
     0
281
     0
  0
CLASS
  1
LONG_TRANSACTION
  2
AcDbLongTransaction
  3
AutoCAD 2000
 90
        0
280
     0
281
     0
  0
CLASS
  1
LWPOLYLINE
  2
AcDbPolyline
  3
AutoCAD 2000
 90
        0
280
     0
281
     1
  0
CLASS
  1
HATCH
  2
AcDbHatch
  3
AutoCAD 2000
 90
        0
280
     0
281
     1
  0
CLASS
  1
XRECORD
  2
AcDbXrecord
  3
AutoCAD 2000
 90
        0
280
     0
281
     0
  0
ENDSEC
  0
SECTION
  2
TABLES
  0
TABLE
  2
VPORT
  5
8
330
0
100
AcDbSymbolTable
 70
     2
  0
VPORT
  5
849
330
8
100
AcDbSymbolTableRecord
100
AcDbViewportTableRecord
  2
*ACTIVE
 70
     0
 10
0.0
 20
0.0
 11
1.0
 21
1.0
 12
228.393011727978
 22
161.3497953091227
 13
0.0
 23
0.0
 14
5.0
 24
5.0
 15
0.0
 25
0.0
 16
0.0
 26
0.0
 36
1.0
 17
0.0
 27
0.0
 37
0.0
 40
351.605034639734
 41
1.570153061224489
 42
50.0
 43
0.0
 44
0.0
 50
0.0
 51
0.0
 71
     0
 72
   100
 73
     1
 74
     0
 75
     0
 76
     0
 77
     0
 78
     0
  0
ENDTAB
  0
TABLE
  2
LTYPE
  5
5
330
0
100
AcDbSymbolTable
 70
     3
  0
LTYPE
  5
14
330
5
100
AcDbSymbolTableRecord
100
AcDbLinetypeTableRecord
  2
BYBLOCK
 70
     0
  3

 72
    65
 73
     0
 40
0.0
  0
LTYPE
  5
15
330
5
100
AcDbSymbolTableRecord
100
AcDbLinetypeTableRecord
  2
BYLAYER
 70
     0
  3

 72
    65
 73
     0
 40
0.0
  0
LTYPE
  5
16
330
5
100
AcDbSymbolTableRecord
100
AcDbLinetypeTableRecord
  2
CONTINUOUS
 70
     0
  3
Solid line
 72
    65
 73
     0
 40
0.0
  0
LTYPE
  5
120
330
5
100
AcDbSymbolTableRecord
100
AcDbLinetypeTableRecord
  2
CENTER
 70
     0
  3
____ _ ____ _ ____ _ ____ _ ____ _ ____ _ ____ 
 72
    65
 73
     4
 40
2.0
 49
1.25
 74
     0
 49
-0.25
 74
     0
 49
0.25
 74
     0
 49
-0.25
 74
     0
  0
LTYPE
  5
122
330
5
100
AcDbSymbolTableRecord
100
AcDbLinetypeTableRecord
  2
PHANTOM
 70
     0
  3
______  __  __  ______  __  __  ______  __  __ 
 72
    65
 73
     6
 40
2.5
 49
1.25
 74
     0
 49
-0.25
 74
     0
 49
0.25
 74
     0
 49
-0.25
 74
     0
 49
0.25
 74
     0
 49
-0.25
 74
     0
  0
ENDTAB
  0
TABLE
  2
LAYER
  5
2
330
0
100
AcDbSymbolTable
 70
    10
  0
LAYER
  5
F
330
2
100
AcDbSymbolTableRecord
100
AcDbLayerTableRecord
  2
0
 70
     0
 62
     7
  6
CONTINUOUS
  0
LAYER
  5
62
330
2
100
AcDbSymbolTableRecord
100
AcDbLayerTableRecord
  2
VIEWPORT
 70
     0
 62
     7
  6
CONTINUOUS
  0
LAYER
  5
6B
330
2
100
AcDbSymbolTableRecord
100
AcDbLayerTableRecord
  2
ZUWAKU
 70
     0
 62
     7
  6
CONTINUOUS
  0
LAYER
  5
146
330
2
100
AcDbSymbolTableRecord
100
AcDbLayerTableRecord
  2
SUNPOU_L
 70
     0
 62
     4
  6
CONTINUOUS
  0
LAYER
  5
185
330
2
100
AcDbSymbolTableRecord
100
AcDbLayerTableRecord
  2
CENTER_L
 70
     0
 62
     1
  6
CENTER
  0
LAYER
  5
18C
330
2
100
AcDbSymbolTableRecord
100
AcDbLayerTableRecord
  2
DEFPOINTS
 70
     0
 62
     7
  6
CONTINUOUS
  0
LAYER
  5
2D9
330
2
100
AcDbSymbolTableRecord
100
AcDbLayerTableRecord
  2
SUNPOU
 70
     0
 62
     4
  6
CONTINUOUS
  0
LAYER
  5
2DA
330
2
100
AcDbSymbolTableRecord
100
AcDbLayerTableRecord
  2
SEIHIN
 70
     0
 62
     3
  6
CONTINUOUS
  0
LAYER
  5
2DB
330
2
100
AcDbSymbolTableRecord
100
AcDbLayerTableRecord
  2
NOKITOI
 70
     0
 62
     8
  6
PHANTOM
  0
LAYER
  5
6D4
330
2
100
AcDbSymbolTableRecord
100
AcDbLayerTableRecord
  2
MOJI
 70
     0
 62
     2
  6
CONTINUOUS
  0
ENDTAB
  0
TABLE
  2
STYLE
  5
3
330
0
100
AcDbSymbolTable
 70
     2
  0
STYLE
  5
10
330
3
100
AcDbSymbolTableRecord
100
AcDbTextStyleTableRecord
  2
STANDARD
 70
     0
 40
0.0
 41
1.0
 50
0.0
 71
     0
 42
2.5
  3
TXT
  4
bigfont.shx
  0
STYLE
  5
6D5
330
3
100
AcDbSymbolTableRecord
100
AcDbTextStyleTableRecord
  2
ｽﾀｲﾙ1
 70
     0
 40
0.0
 41
1.0
 50
0.0
 71
     0
 42
2.5
  3
MS PGothic.ttf
  4

1001
ACAD
1000
MS PGothic
1071
    32818
  0
ENDTAB
  0
TABLE
  2
VIEW
  5
6
330
0
100
AcDbSymbolTable
 70
     0
  0
ENDTAB
  0
TABLE
  2
UCS
  5
7
330
0
100
AcDbSymbolTable
 70
     0
  0
ENDTAB
  0
TABLE
  2
APPID
  5
9
330
0
100
AcDbSymbolTable
 70
     1
  0
APPID
  5
11
330
9
100
AcDbSymbolTableRecord
100
AcDbRegAppTableRecord
  2
ACAD
 70
     0
  0
ENDTAB
  0
TABLE
  2
DIMSTYLE
  5
A
330
0
100
AcDbSymbolTable
 70
     1
  0
DIMSTYLE
105
1D
102
{ACAD_REACTORS
330
412
330
413
330
414
330
489
330
4BE
330
4BF
330
4C0
330
4C1
330
4C7
330
4CB
330
4EA
330
4FD
102
}
330
A
100
AcDbSymbolTableRecord
100
AcDbDimStyleTableRecord
  2
STANDARD
 70
     0
  3

  4

  5

  6

  7

 40
1.0
 41
0.18
 42
0.0625
 43
0.38
 44
0.18
 45
0.0
 46
0.0
 47
0.0
 48
0.0
140
0.18
141
0.09
142
0.0
143
25.4
144
1.0
145
0.0
146
1.0
147
0.09
 71
     0
 72
     0
 73
     1
 74
     1
 75
     0
 76
     0
 77
     0
 78
     0
170
     0
171
     2
172
     0
173
     0
174
     0
175
     0
176
     0
177
     0
178
     0
270
     2
271
     4
272
     4
273
     2
274
     2
340
10
275
     0
280
     0
281
     0
282
     0
283
     1
284
     0
285
     0
286
     0
287
     3
288
     0
  0
ENDTAB
  0
TABLE
  2
BLOCK_RECORD
  5
1
330
0
100
AcDbSymbolTable
 70
    13
  0
BLOCK_RECORD
  5
1A
102
{ACAD_XDICTIONARY
360
68F
102
}
330
1
100
AcDbSymbolTableRecord
100
AcDbBlockTableRecord
  2
*MODEL_SPACE
  0
BLOCK_RECORD
  5
17
102
{ACAD_XDICTIONARY
360
68D
102
}
330
1
100
AcDbSymbolTableRecord
100
AcDbBlockTableRecord
  2
*PAPER_SPACE
  0
BLOCK_RECORD
  5
B2
330
1
100
AcDbSymbolTableRecord
100
AcDbBlockTableRecord
  2
_OPEN
  0
BLOCK_RECORD
  5
53A
330
1
100
AcDbSymbolTableRecord
100
AcDbBlockTableRecord
  2
*D1
  0
BLOCK_RECORD
  5
546
330
1
100
AcDbSymbolTableRecord
100
AcDbBlockTableRecord
  2
*D2
  0
BLOCK_RECORD
  5
552
330
1
100
AcDbSymbolTableRecord
100
AcDbBlockTableRecord
  2
*D3
  0
BLOCK_RECORD
  5
55E
330
1
100
AcDbSymbolTableRecord
100
AcDbBlockTableRecord
  2
*D4
  0
BLOCK_RECORD
  5
56A
330
1
100
AcDbSymbolTableRecord
100
AcDbBlockTableRecord
  2
*D5
  0
BLOCK_RECORD
  5
576
330
1
100
AcDbSymbolTableRecord
100
AcDbBlockTableRecord
  2
*D6
  0
BLOCK_RECORD
  5
582
330
1
100
AcDbSymbolTableRecord
100
AcDbBlockTableRecord
  2
*D7
  0
BLOCK_RECORD
  5
58E
330
1
100
AcDbSymbolTableRecord
100
AcDbBlockTableRecord
  2
*D8
  0
BLOCK_RECORD
  5
59A
330
1
100
AcDbSymbolTableRecord
100
AcDbBlockTableRecord
  2
*D9
  0
BLOCK_RECORD
  5
5A6
330
1
100
AcDbSymbolTableRecord
100
AcDbBlockTableRecord
  2
*D10
  0
BLOCK_RECORD
  5
5B4
330
1
100
AcDbSymbolTableRecord
100
AcDbBlockTableRecord
  2
*D11
  0
BLOCK_RECORD
  5
5C2
330
1
100
AcDbSymbolTableRecord
100
AcDbBlockTableRecord
  2
*D12
  0
ENDTAB
  0
ENDSEC
  0
SECTION
  2
BLOCKS
  0
BLOCK
  5
1B
330
1A
100
AcDbEntity
  8
0
100
AcDbBlockBegin
  2
*MODEL_SPACE
 70
     0
 10
0.0
 20
0.0
 30
0.0
  3
*MODEL_SPACE
  1

  0
ENDBLK
  5
1C
330
1A
100
AcDbEntity
  8
0
100
AcDbBlockEnd
  0
BLOCK
  5
18
330
17
100
AcDbEntity
 67
     1
  8
0
100
AcDbBlockBegin
  2
*PAPER_SPACE
 70
     0
 10
0.0
 20
0.0
 30
0.0
  3
*PAPER_SPACE
  1

  0
ENDBLK
  5
19
330
17
100
AcDbEntity
 67
     1
  8
0
100
AcDbBlockEnd
  0
BLOCK
  5
B3
330
B2
100
AcDbEntity
  8
0
100
AcDbBlockBegin
  2
_OPEN
 70
     0
 10
0.0
 20
0.0
 30
0.0
  3
_OPEN
  1

  0
LINE
  5
B4
330
B2
100
AcDbEntity
  8
0
  6
BYBLOCK
 62
     0
100
AcDbLine
 10
-1.0
 20
0.1666666666666666
 30
0.0
 11
0.0
 21
0.0
 31
0.0
  0
LINE
  5
B5
330
B2
100
AcDbEntity
  8
0
  6
BYBLOCK
 62
     0
100
AcDbLine
 10
0.0
 20
0.0
 30
0.0
 11
-1.0
 21
-0.1666666666666666
 31
0.0
  0
LINE
  5
B6
330
B2
100
AcDbEntity
  8
0
  6
BYBLOCK
 62
     0
100
AcDbLine
 10
0.0
 20
0.0
 30
0.0
 11
-1.0
 21
0.0
 31
0.0
  0
ENDBLK
  5
B7
330
B2
100
AcDbEntity
  8
0
100
AcDbBlockEnd
  0
BLOCK
  5
5CE
330
53A
100
AcDbEntity
  8
0
100
AcDbBlockBegin
  2
*D1
 70
     1
 10
0.0
 20
0.0
 30
0.0
  3
*D1
  1

  0
LINE
  5
5CF
330
53A
100
AcDbEntity
  8
0
  6
BYBLOCK
 62
     4
100
AcDbLine
 10
222.4445769306157
 20
123.8081194351534
 30
0.0
 11
222.4445769306157
 21
138.4292944362959
 31
0.0
  0
LINE
  5
5D0
330
53A
100
AcDbEntity
  8
0
  6
BYBLOCK
 62
     4
100
AcDbLine
 10
192.4445524849016
 20
102.4383297054558
 30
0.0
 11
192.4445524849016
 21
138.4292944362959
 31
0.0
  0
LINE
  5
5D1
330
53A
100
AcDbEntity
  8
0
  6
BYBLOCK
 62
     4
100
AcDbLine
 10
219.4445769306156
 20
136.9292944362959
 30
0.0
 11
195.4445524849016
 21
136.9292944362959
 31
0.0
  0
INSERT
  5
5D2
330
53A
100
AcDbEntity
  8
0
  6
BYBLOCK
 62
     4
100
AcDbBlockReference
  2
_OPEN
 10
222.4445769306157
 20
136.9292944362959
 30
0.0
 41
3.0
 42
3.0
 43
3.0
  0
INSERT
  5
5D3
330
53A
100
AcDbEntity
  8
0
  6
BYBLOCK
 62
     4
100
AcDbBlockReference
  2
_OPEN
 10
192.4445524849016
 20
136.9292944362959
 30
0.0
 41
3.0
 42
3.0
 43
3.0
 50
180.0
  0
MTEXT
  5
5D4
330
53A
100
AcDbEntity
  8
0
  6
BYBLOCK
 62
     4
100
AcDbMText
 10
207.4445647077586
 20
139.4292944362959
 30
0.0
 40
3.0
 41
0.0
 71
     5
 72
     5
  1
\A1;30
1001
ACAD
1000
MTEXTBEGIN
1070
    73
1070
     1
1070
    44
1040
1.0
1070
    74
1070
     0
1000
MTEXTEND
1000
MTEXTBEGIN
1070
    73
1070
     1
1070
    44
1040
1.0
1070
    74
1070
     0
1000
MTEXTEND
1000
MTEXTBEGIN
1070
    73
1070
     1
1070
    44
1040
1.0
1070
    74
1070
     0
1000
MTEXTEND
  0
POINT
  5
5D5
330
53A
100
AcDbEntity
  8
DEFPOINTS
  6
BYBLOCK
 62
     0
100
AcDbPoint
 10
222.4445769306157
 20
120.8081194351534
 30
0.0
  0
POINT
  5
5D6
330
53A
100
AcDbEntity
  8
DEFPOINTS
  6
BYBLOCK
 62
     0
100
AcDbPoint
 10
192.4445524849016
 20
99.43832970545585
 30
0.0
  0
POINT
  5
5D7
330
53A
100
AcDbEntity
  8
DEFPOINTS
  6
BYBLOCK
 62
     0
100
AcDbPoint
 10
192.4445524849016
 20
136.9292944362959
 30
0.0
  0
ENDBLK
  5
5D8
330
53A
100
AcDbEntity
  8
0
100
AcDbBlockEnd
  0
BLOCK
  5
5D9
330
546
100
AcDbEntity
  8
0
100
AcDbBlockBegin
  2
*D2
 70
     1
 10
0.0
 20
0.0
 30
0.0
  3
*D2
  1

  0
LINE
  5
5DA
330
546
100
AcDbEntity
  8
0
  6
BYBLOCK
 62
     4
100
AcDbLine
 10
222.4445769306157
 20
123.8081194351534
 30
0.0
 11
222.4445769306157
 21
154.6010652562007
 31
0.0
  0
LINE
  5
5DB
330
546
100
AcDbEntity
  8
0
  6
BYBLOCK
 62
     4
100
AcDbLine
 10
106.8445554508736
 20
103.7084331575037
 30
0.0
 11
106.8445554508736
 21
154.6010652562007
 31
0.0
  0
LINE
  5
5DC
330
546
100
AcDbEntity
  8
0
  6
BYBLOCK
 62
     4
100
AcDbLine
 10
219.4445769306157
 20
153.1010652562007
 30
0.0
 11
109.8445554508736
 21
153.1010652562007
 31
0.0
  0
INSERT
  5
5DD
330
546
100
AcDbEntity
  8
0
  6
BYBLOCK
 62
     4
100
AcDbBlockReference
  2
_OPEN
 10
222.4445769306157
 20
153.1010652562007
 30
0.0
 41
3.0
 42
3.0
 43
3.0
  0
INSERT
  5
5DE
330
546
100
AcDbEntity
  8
0
  6
BYBLOCK
 62
     4
100
AcDbBlockReference
  2
_OPEN
 10
106.8445554508736
 20
153.1010652562007
 30
0.0
 41
3.0
 42
3.0
 43
3.0
 50
180.0
  0
MTEXT
  5
5DF
330
546
100
AcDbEntity
  8
0
  6
BYBLOCK
 62
     4
100
AcDbMText
 10
164.6445661907446
 20
155.6010652562007
 30
0.0
 40
3.0
 41
0.0
 71
     5
 72
     5
  1
\A1;116
1001
ACAD
1000
MTEXTBEGIN
1070
    73
1070
     1
1070
    44
1040
1.0
1070
    74
1070
     0
1000
MTEXTEND
1000
MTEXTBEGIN
1070
    73
1070
     1
1070
    44
1040
1.0
1070
    74
1070
     0
1000
MTEXTEND
1000
MTEXTBEGIN
1070
    73
1070
     1
1070
    44
1040
1.0
1070
    74
1070
     0
1000
MTEXTEND
  0
POINT
  5
5E0
330
546
100
AcDbEntity
  8
DEFPOINTS
  6
BYBLOCK
 62
     0
100
AcDbPoint
 10
222.4445769306157
 20
120.8081194351534
 30
0.0
  0
POINT
  5
5E1
330
546
100
AcDbEntity
  8
DEFPOINTS
  6
BYBLOCK
 62
     0
100
AcDbPoint
 10
106.8445554508736
 20
100.7084331575037
 30
0.0
  0
POINT
  5
5E2
330
546
100
AcDbEntity
  8
DEFPOINTS
  6
BYBLOCK
 62
     0
100
AcDbPoint
 10
106.8445554508736
 20
153.1010652562007
 30
0.0
  0
ENDBLK
  5
5E3
330
546
100
AcDbEntity
  8
0
100
AcDbBlockEnd
  0
BLOCK
  5
5E4
330
552
100
AcDbEntity
  8
0
100
AcDbBlockBegin
  2
*D3
 70
     1
 10
0.0
 20
0.0
 30
0.0
  3
*D3
  1

  0
LINE
  5
5E5
330
552
100
AcDbEntity
  8
0
  6
BYBLOCK
 62
     4
100
AcDbLine
 10
235.0418554508734
 20
78.58063315750377
 30
0.0
 11
90.92787662069552
 21
78.58063315750377
 31
0.0
  0
LINE
  5
5E6
330
552
100
AcDbEntity
  8
0
  6
BYBLOCK
 62
     4
100
AcDbLine
 10
109.4445554508736
 20
106.8084331575037
 30
0.0
 11
90.9278766206955
 21
106.8084331575037
 31
0.0
  0
LINE
  5
5E7
330
552
100
AcDbEntity
  8
0
  6
BYBLOCK
 62
     4
100
AcDbLine
 10
92.42787662069551
 20
81.58063315750377
 30
0.0
 11
92.42787662069551
 21
103.8084331575037
 31
0.0
  0
INSERT
  5
5E8
330
552
100
AcDbEntity
  8
0
  6
BYBLOCK
 62
     4
100
AcDbBlockReference
  2
_OPEN
 10
92.42787662069551
 20
78.58063315750377
 30
0.0
 41
3.0
 42
3.0
 43
3.0
 50
270.0
  0
INSERT
  5
5E9
330
552
100
AcDbEntity
  8
0
  6
BYBLOCK
 62
     4
100
AcDbBlockReference
  2
_OPEN
 10
92.42787662069551
 20
106.8084331575037
 30
0.0
 41
3.0
 42
3.0
 43
3.0
 50
90.0
  0
MTEXT
  5
5EA
330
552
100
AcDbEntity
  8
0
  6
BYBLOCK
 62
     4
100
AcDbMText
 10
89.92787662069551
 20
92.69453315750377
 30
0.0
 40
3.0
 41
0.0
 71
     5
 72
     5
  1
\A1;28
 11
0.0
 21
1.0
 31
0.0
1001
ACAD
1000
MTEXTBEGIN
1070
    73
1070
     1
1070
    44
1040
1.0
1070
    74
1070
     0
1000
MTEXTEND
1000
MTEXTBEGIN
1070
    73
1070
     1
1070
    44
1040
1.0
1070
    74
1070
     0
1000
MTEXTEND
1000
MTEXTBEGIN
1070
    73
1070
     1
1070
    44
1040
1.0
1070
    74
1070
     0
1000
MTEXTEND
  0
POINT
  5
5EB
330
552
100
AcDbEntity
  8
DEFPOINTS
  6
BYBLOCK
 62
     0
100
AcDbPoint
 10
238.0418554508735
 20
78.58063315750377
 30
0.0
  0
POINT
  5
5EC
330
552
100
AcDbEntity
  8
DEFPOINTS
  6
BYBLOCK
 62
     0
100
AcDbPoint
 10
112.4445554508736
 20
106.8084331575037
 30
0.0
  0
POINT
  5
5ED
330
552
100
AcDbEntity
  8
DEFPOINTS
  6
BYBLOCK
 62
     0
100
AcDbPoint
 10
92.42787662069551
 20
106.8084331575037
 30
0.0
  0
ENDBLK
  5
5EE
330
552
100
AcDbEntity
  8
0
100
AcDbBlockEnd
  0
BLOCK
  5
5EF
330
55E
100
AcDbEntity
  8
0
100
AcDbBlockBegin
  2
*D4
 70
     1
 10
0.0
 20
0.0
 30
0.0
  3
*D4
  1

  0
LINE
  5
5F0
330
55E
100
AcDbEntity
  8
0
  6
BYBLOCK
 62
     4
100
AcDbLine
 10
104.8445554508735
 20
213.3582331575036
 30
0.0
 11
90.83510402936708
 21
213.3582331575036
 31
0.0
  0
LINE
  5
5F1
330
55E
100
AcDbEntity
  8
0
  6
BYBLOCK
 62
     4
100
AcDbLine
 10
104.8445554508735
 20
198.2582331575038
 30
0.0
 11
90.83510402936708
 21
198.2582331575038
 31
0.0
  0
LINE
  5
5F2
330
55E
100
AcDbEntity
  8
0
  6
BYBLOCK
 62
     4
100
AcDbLine
 10
92.33510402936708
 20
210.3582331575036
 30
0.0
 11
92.33510402936708
 21
201.2582331575037
 31
0.0
  0
INSERT
  5
5F3
330
55E
100
AcDbEntity
  8
0
  6
BYBLOCK
 62
     4
100
AcDbBlockReference
  2
_OPEN
 10
92.33510402936708
 20
213.3582331575036
 30
0.0
 41
3.0
 42
3.0
 43
3.0
 50
90.0
  0
INSERT
  5
5F4
330
55E
100
AcDbEntity
  8
0
  6
BYBLOCK
 62
     4
100
AcDbBlockReference
  2
_OPEN
 10
92.33510402936708
 20
198.2582331575038
 30
0.0
 41
3.0
 42
3.0
 43
3.0
 50
270.0
  0
MTEXT
  5
5F5
330
55E
100
AcDbEntity
  8
0
  6
BYBLOCK
 62
     4
100
AcDbMText
 10
89.83510402936708
 20
205.8082331575036
 30
0.0
 40
3.0
 41
0.0
 71
     5
 72
     5
  1
\A1;15
 11
0.0
 21
1.0
 31
0.0
1001
ACAD
1000
MTEXTBEGIN
1070
    73
1070
     1
1070
    44
1040
1.0
1070
    74
1070
     0
1000
MTEXTEND
1000
MTEXTBEGIN
1070
    73
1070
     1
1070
    44
1040
1.0
1070
    74
1070
     0
1000
MTEXTEND
1000
MTEXTBEGIN
1070
    73
1070
     1
1070
    44
1040
1.0
1070
    74
1070
     0
1000
MTEXTEND
  0
POINT
  5
5F6
330
55E
100
AcDbEntity
  8
DEFPOINTS
  6
BYBLOCK
 62
     0
100
AcDbPoint
 10
107.8445554508735
 20
213.3582331575036
 30
0.0
  0
POINT
  5
5F7
330
55E
100
AcDbEntity
  8
DEFPOINTS
  6
BYBLOCK
 62
     0
100
AcDbPoint
 10
107.8445554508735
 20
198.2582331575038
 30
0.0
  0
POINT
  5
5F8
330
55E
100
AcDbEntity
  8
DEFPOINTS
  6
BYBLOCK
 62
     0
100
AcDbPoint
 10
92.33510402936708
 20
198.2582331575038
 30
0.0
  0
ENDBLK
  5
5F9
330
55E
100
AcDbEntity
  8
0
100
AcDbBlockEnd
  0
BLOCK
  5
5FA
330
56A
100
AcDbEntity
  8
0
100
AcDbBlockBegin
  2
*D5
 70
     1
 10
0.0
 20
0.0
 30
0.0
  3
*D5
  1

  0
LINE
  5
5FB
330
56A
100
AcDbEntity
  8
0
  6
BYBLOCK
 62
     4
100
AcDbLine
 10
296.7236005964645
 20
150.9027275289367
 30
0.0
 11
262.2790273529013
 21
137.1258811392781
 31
0.0
  0
LINE
  5
5FC
330
56A
100
AcDbEntity
  8
0
  6
BYBLOCK
 62
     4
100
AcDbLine
 10
280.3635455440619
 20
130.3579935084288
 30
0.0
 11
267.1067706376556
 21
125.0556618402038
 31
0.0
  0
LINE
  5
5FD
330
56A
100
AcDbEntity
  8
0
  6
BYBLOCK
 62
     4
100
AcDbLine
 10
264.7858595998733
 20
134.8974754119607
 30
0.0
 11
267.3853958713262
 21
128.3981710741719
 31
0.0
  0
INSERT
  5
5FE
330
56A
100
AcDbEntity
  8
0
  6
BYBLOCK
 62
     4
100
AcDbBlockReference
  2
_OPEN
 10
263.6717560932227
 20
137.6829328926035
 30
0.0
 41
3.0
 42
3.0
 43
3.0
 50
111.7999999999998
  0
INSERT
  5
5FF
330
56A
100
AcDbEntity
  8
0
  6
BYBLOCK
 62
     4
100
AcDbBlockReference
  2
_OPEN
 10
268.4994993779769
 20
125.6127135935292
 30
0.0
 41
3.0
 42
3.0
 43
3.0
 50
291.7999999999998
  0
MTEXT
  5
600
330
56A
100
AcDbEntity
  8
0
  6
BYBLOCK
 62
     4
100
AcDbMText
 10
268.4068423028021
 20
132.5762428319419
 30
0.0
 40
3.0
 41
0.0
 71
     5
 72
     5
  1
\A1;13
 11
0.3713678355502318
 21
-0.9284858268809147
 31
0.0
1001
ACAD
1000
MTEXTBEGIN
1070
    73
1070
     1
1070
    44
1040
1.0
1070
    74
1070
     0
1000
MTEXTEND
1000
MTEXTBEGIN
1070
    73
1070
     1
1070
    44
1040
1.0
1070
    74
1070
     0
1000
MTEXTEND
1000
MTEXTBEGIN
1070
    73
1070
     1
1070
    44
1040
1.0
1070
    74
1070
     0
1000
MTEXTEND
  0
POINT
  5
601
330
56A
100
AcDbEntity
  8
DEFPOINTS
  6
BYBLOCK
 62
     0
100
AcDbPoint
 10
299.5090580771072
 20
152.0168310355874
 30
0.0
  0
POINT
  5
602
330
56A
100
AcDbEntity
  8
DEFPOINTS
  6
BYBLOCK
 62
     0
100
AcDbPoint
 10
283.1490030247046
 20
131.4720970150795
 30
0.0
  0
POINT
  5
603
330
56A
100
AcDbEntity
  8
DEFPOINTS
  6
BYBLOCK
 62
     0
100
AcDbPoint
 10
268.4994993779769
 20
125.6127135935292
 30
0.0
  0
ENDBLK
  5
604
330
56A
100
AcDbEntity
  8
0
100
AcDbBlockEnd
  0
BLOCK
  5
605
330
576
100
AcDbEntity
  8
0
100
AcDbBlockBegin
  2
*D6
 70
     1
 10
0.0
 20
0.0
 30
0.0
  3
*D6
  1

  0
LINE
  5
606
330
576
100
AcDbEntity
  8
0
  6
BYBLOCK
 62
     4
100
AcDbLine
 10
296.7236005964645
 20
150.9027275289367
 30
0.0
 11
254.8514514953944
 21
134.1550627490247
 31
0.0
  0
LINE
  5
607
330
576
100
AcDbEntity
  8
0
  6
BYBLOCK
 62
     4
100
AcDbLine
 10
313.4350489779643
 20
109.1208820784059
 30
0.0
 11
271.5629839432854
 21
92.37325092265153
 31
0.0
  0
LINE
  5
608
330
576
100
AcDbEntity
  8
0
  6
BYBLOCK
 62
     4
100
AcDbLine
 10
257.3582837423665
 20
131.9266570217073
 30
0.0
 11
271.8416091769561
 21
95.71576015661962
 31
0.0
  0
INSERT
  5
609
330
576
100
AcDbEntity
  8
0
  6
BYBLOCK
 62
     4
100
AcDbBlockReference
  2
_OPEN
 10
256.2441802357158
 20
134.7121145023501
 30
0.0
 41
3.0
 42
3.0
 43
3.0
 50
111.7999999999998
  0
INSERT
  5
60A
330
576
100
AcDbEntity
  8
0
  6
BYBLOCK
 62
     4
100
AcDbBlockReference
  2
_OPEN
 10
272.9557126836068
 20
92.93030267597687
 30
0.0
 41
3.0
 42
3.0
 43
3.0
 50
291.7999999999998
  0
MTEXT
  5
60B
330
576
100
AcDbEntity
  8
0
  6
BYBLOCK
 62
     4
100
AcDbMText
 10
266.9211610268636
 20
114.749628178039
 30
0.0
 40
3.0
 41
0.0
 71
     5
 72
     5
  1
\A1;45
 11
0.3713678355502318
 21
-0.9284858268809147
 31
0.0
1001
ACAD
1000
MTEXTBEGIN
1070
    73
1070
     1
1070
    44
1040
1.0
1070
    74
1070
     0
1000
MTEXTEND
1000
MTEXTBEGIN
1070
    73
1070
     1
1070
    44
1040
1.0
1070
    74
1070
     0
1000
MTEXTEND
1000
MTEXTBEGIN
1070
    73
1070
     1
1070
    44
1040
1.0
1070
    74
1070
     0
1000
MTEXTEND
  0
POINT
  5
60C
330
576
100
AcDbEntity
  8
DEFPOINTS
  6
BYBLOCK
 62
     0
100
AcDbPoint
 10
299.5090580771072
 20
152.0168310355874
 30
0.0
  0
POINT
  5
60D
330
576
100
AcDbEntity
  8
DEFPOINTS
  6
BYBLOCK
 62
     0
100
AcDbPoint
 10
316.220506458607
 20
110.2349855850566
 30
0.0
  0
POINT
  5
60E
330
576
100
AcDbEntity
  8
DEFPOINTS
  6
BYBLOCK
 62
     0
100
AcDbPoint
 10
272.9557126836068
 20
92.93030267597687
 30
0.0
  0
ENDBLK
  5
60F
330
576
100
AcDbEntity
  8
0
100
AcDbBlockEnd
  0
BLOCK
  5
610
330
582
100
AcDbEntity
  8
0
100
AcDbBlockBegin
  2
*D7
 70
     1
 10
0.0
 20
0.0
 30
0.0
  3
*D7
  1

  0
LINE
  5
611
330
582
100
AcDbEntity
  8
0
  6
BYBLOCK
 62
     4
100
AcDbLine
 10
334.4199478611192
 20
161.672104268966
 30
0.0
 11
324.221627656235
 21
187.1697753505182
 31
0.0
  0
LINE
  5
612
330
582
100
AcDbEntity
  8
0
  6
BYBLOCK
 62
     4
100
AcDbLine
 10
278.7108582813488
 20
139.3901032171863
 30
0.0
 11
268.5125380764645
 21
164.8877742987386
 31
0.0
  0
LINE
  5
613
330
582
100
AcDbEntity
  8
0
  6
BYBLOCK
 62
     4
100
AcDbLine
 10
321.9932201805427
 20
184.6629446577352
 30
0.0
 11
271.8550471161062
 21
164.6091467338546
 31
0.0
  0
INSERT
  5
614
330
582
100
AcDbEntity
  8
0
  6
BYBLOCK
 62
     4
100
AcDbBlockReference
  2
_OPEN
 10
324.7786784382098
 20
185.7770462216847
 30
0.0
 41
3.0
 42
3.0
 43
3.0
 50
21.79996003939538
  0
INSERT
  5
615
330
582
100
AcDbEntity
  8
0
  6
BYBLOCK
 62
     4
100
AcDbBlockReference
  2
_OPEN
 10
269.0695888584392
 20
163.4950451699051
 30
0.0
 41
3.0
 42
3.0
 43
3.0
 50
201.7999600393953
  0
MTEXT
  5
616
330
582
100
AcDbEntity
  8
0
  6
BYBLOCK
 62
     4
100
AcDbMText
 10
295.9957156783666
 20
176.9572609105174
 30
0.0
 40
3.0
 41
0.0
 71
     5
 72
     5
  1
\A1;60
 11
0.9284860858890016
 21
0.3713671879831624
 31
0.0
1001
ACAD
1000
MTEXTBEGIN
1070
    73
1070
     1
1070
    44
1040
1.0
1070
    74
1070
     0
1000
MTEXTEND
1000
MTEXTBEGIN
1070
    73
1070
     1
1070
    44
1040
1.0
1070
    74
1070
     0
1000
MTEXTEND
1000
MTEXTBEGIN
1070
    73
1070
     1
1070
    44
1040
1.0
1070
    74
1070
     0
1000
MTEXTEND
  0
POINT
  5
617
330
582
100
AcDbEntity
  8
DEFPOINTS
  6
BYBLOCK
 62
     0
100
AcDbPoint
 10
335.5340494250687
 20
158.886646011299
 30
0.0
  0
POINT
  5
618
330
582
100
AcDbEntity
  8
DEFPOINTS
  6
BYBLOCK
 62
     0
100
AcDbPoint
 10
279.8249598452982
 20
136.6046449595193
 30
0.0
  0
POINT
  5
619
330
582
100
AcDbEntity
  8
DEFPOINTS
  6
BYBLOCK
 62
     0
100
AcDbPoint
 10
269.0695888584392
 20
163.4950451699051
 30
0.0
  0
ENDBLK
  5
61A
330
582
100
AcDbEntity
  8
0
100
AcDbBlockEnd
  0
BLOCK
  5
61B
330
58E
100
AcDbEntity
  8
0
100
AcDbBlockBegin
  2
*D8
 70
     1
 10
0.0
 20
0.0
 30
0.0
  3
*D8
  1

  0
LINE
  5
61C
330
58E
100
AcDbEntity
  8
0
  6
BYBLOCK
 62
     4
100
AcDbLine
 10
329.7775479185972
 20
159.8152921169347
 30
0.0
 11
323.3867214558395
 21
175.7935292281458
 31
0.0
  0
LINE
  5
61D
330
58E
100
AcDbEntity
  8
0
  6
BYBLOCK
 62
     4
100
AcDbLine
 10
283.3532338266002
 20
141.2469273499393
 30
0.0
 11
276.9624073638425
 21
157.2251644611505
 31
0.0
  0
LINE
  5
61E
330
58E
100
AcDbEntity
  8
0
  6
BYBLOCK
 62
     4
100
AcDbLine
 10
321.1583140476047
 20
173.2866984753975
 30
0.0
 11
280.3049164109819
 21
156.9465369862117
 31
0.0
  0
INSERT
  5
61F
330
58E
100
AcDbEntity
  8
0
  6
BYBLOCK
 62
     4
100
AcDbBlockReference
  2
_OPEN
 10
323.9437722752918
 20
174.4008001143023
 30
0.0
 41
3.0
 42
3.0
 43
3.0
 50
21.79996158119543
  0
INSERT
  5
620
330
58E
100
AcDbEntity
  8
0
  6
BYBLOCK
 62
     4
100
AcDbBlockReference
  2
_OPEN
 10
277.5194581832948
 20
155.832435347307
 30
0.0
 41
3.0
 42
3.0
 43
3.0
 50
201.7999615811954
  0
MTEXT
  5
621
330
58E
100
AcDbEntity
  8
0
  6
BYBLOCK
 62
     4
100
AcDbMText
 10
299.8031971968727
 20
167.4378329205439
 30
0.0
 40
3.0
 41
0.0
 71
     5
 72
     5
  1
\A1;50
 11
0.9284860758957007
 21
0.3713672129682466
 31
0.0
1001
ACAD
1000
MTEXTBEGIN
1070
    73
1070
     1
1070
    44
1040
1.0
1070
    74
1070
     0
1000
MTEXTEND
1000
MTEXTBEGIN
1070
    73
1070
     1
1070
    44
1040
1.0
1070
    74
1070
     0
1000
MTEXTEND
1000
MTEXTBEGIN
1070
    73
1070
     1
1070
    44
1040
1.0
1070
    74
1070
     0
1000
MTEXTEND
  0
POINT
  5
622
330
58E
100
AcDbEntity
  8
DEFPOINTS
  6
BYBLOCK
 62
     0
100
AcDbPoint
 10
330.8916495575019
 20
157.0298338892476
 30
0.0
  0
POINT
  5
623
330
58E
100
AcDbEntity
  8
DEFPOINTS
  6
BYBLOCK
 62
     0
100
AcDbPoint
 10
284.467335465505
 20
138.4614691222522
 30
0.0
  0
POINT
  5
624
330
58E
100
AcDbEntity
  8
DEFPOINTS
  6
BYBLOCK
 62
     0
100
AcDbPoint
 10
277.5194581832948
 20
155.832435347307
 30
0.0
  0
ENDBLK
  5
625
330
58E
100
AcDbEntity
  8
0
100
AcDbBlockEnd
  0
BLOCK
  5
626
330
59A
100
AcDbEntity
  8
0
100
AcDbBlockBegin
  2
*D9
 70
     1
 10
0.0
 20
0.0
 30
0.0
  3
*D9
  1

  0
LINE
  5
627
330
59A
100
AcDbEntity
  8
0
  6
BYBLOCK
 62
     4
100
AcDbLine
 10
225.2300363354314
 20
121.9222181310165
 30
0.0
 11
236.4716831423031
 21
126.4185335414066
 31
0.0
  0
LINE
  5
628
330
59A
100
AcDbEntity
  8
0
  6
BYBLOCK
 62
     4
100
AcDbLine
 10
241.9415148556893
 20
80.14033185336677
 30
0.0
 11
253.1831616625611
 21
84.63664726375688
 31
0.0
  0
LINE
  5
629
330
59A
100
AcDbEntity
  8
0
  6
BYBLOCK
 62
     4
100
AcDbLine
 10
236.1930521357584
 20
123.0760247886594
 30
0.0
 11
250.6763332642902
 21
86.86505732064107
 31
0.0
  0
INSERT
  5
62A
330
59A
100
AcDbEntity
  8
0
  6
BYBLOCK
 62
     4
100
AcDbBlockReference
  2
_OPEN
 10
235.0789534398953
 20
125.8614841934751
 30
0.0
 41
3.0
 42
3.0
 43
3.0
 50
111.7999010439989
  0
INSERT
  5
62B
330
59A
100
AcDbEntity
  8
0
  6
BYBLOCK
 62
     4
100
AcDbBlockReference
  2
_OPEN
 10
251.7904319601532
 20
84.07959791582536
 30
0.0
 41
3.0
 42
3.0
 43
3.0
 50
291.799901043999
  0
MTEXT
  5
62C
330
59A
100
AcDbEntity
  8
0
  6
BYBLOCK
 62
     4
100
AcDbMText
 10
245.755908870704
 20
105.8989566345361
 30
0.0
 40
3.0
 41
0.0
 71
     5
 72
     5
  1
\A1;45
 11
0.3713662319543515
 21
-0.9284864682719005
 31
0.0
1001
ACAD
1000
MTEXTBEGIN
1070
    73
1070
     1
1070
    44
1040
1.0
1070
    74
1070
     0
1000
MTEXTEND
1000
MTEXTBEGIN
1070
    73
1070
     1
1070
    44
1040
1.0
1070
    74
1070
     0
1000
MTEXTEND
1000
MTEXTBEGIN
1070
    73
1070
     1
1070
    44
1040
1.0
1070
    74
1070
     0
1000
MTEXTEND
  0
POINT
  5
62D
330
59A
100
AcDbEntity
  8
DEFPOINTS
  6
BYBLOCK
 62
     0
100
AcDbPoint
 10
222.4445769306157
 20
120.8081194351535
 30
0.0
  0
POINT
  5
62E
330
59A
100
AcDbEntity
  8
DEFPOINTS
  6
BYBLOCK
 62
     0
100
AcDbPoint
 10
239.1560554508736
 20
79.02623315750371
 30
0.0
  0
POINT
  5
62F
330
59A
100
AcDbEntity
  8
DEFPOINTS
  6
BYBLOCK
 62
     0
100
AcDbPoint
 10
251.7904319601532
 20
84.07959791582536
 30
0.0
  0
ENDBLK
  5
630
330
59A
100
AcDbEntity
  8
0
100
AcDbBlockEnd
  0
BLOCK
  5
631
330
5A6
100
AcDbEntity
  8
0
100
AcDbBlockBegin
  2
*D10
 70
     1
 10
0.0
 20
0.0
 30
0.0
  3
*D10
  1

  0
LINE
  5
632
330
5A6
100
AcDbEntity
  8
0
  6
BYBLOCK
 62
     4
100
AcDbLine
 10
239.1558550640677
 20
75.79513412469061
 30
0.0
 11
243.8920109029254
 21
63.95261878434709
 31
0.0
  0
LINE
  5
633
330
5A6
100
AcDbEntity
  8
0
  6
BYBLOCK
 62
     4
100
AcDbLine
 10
240.2700550640679
 20
76.24073412469053
 30
0.0
 11
245.0062109029257
 21
64.39821878434702
 31
0.0
  0
LINE
  5
634
330
5A6
100
AcDbEntity
  8
0
  6
BYBLOCK
 62
     4
100
AcDbLine
 10
240.5495120635152
 20
64.23136868755934
 30
0.0
 11
237.764013030702
 21
63.11736907436501
 31
0.0
  0
LINE
  5
635
330
5A6
100
AcDbEntity
  8
0
  6
BYBLOCK
 62
     4
100
AcDbLine
 10
247.2347101291416
 20
66.90496791394791
 30
0.0
 11
259.3052059379985
 21
71.73229957112333
 31
0.0
  0
LINE
  5
636
330
5A6
100
AcDbEntity
  8
0
  6
BYBLOCK
 62
     4
100
AcDbLine
 10
243.3350110963283
 20
65.34536830075366
 30
0.0
 11
244.4492110963285
 21
65.79096830075359
 31
0.0
  0
INSERT
  5
637
330
5A6
100
AcDbEntity
  8
0
  6
BYBLOCK
 62
     4
100
AcDbBlockReference
  2
_OPEN
 10
243.3350110963283
 20
65.34536830075366
 30
0.0
 41
3.0
 42
3.0
 43
3.0
 50
21.7978629678568
  0
INSERT
  5
638
330
5A6
100
AcDbEntity
  8
0
  6
BYBLOCK
 62
     4
100
AcDbBlockReference
  2
_OPEN
 10
244.4492110963285
 20
65.79096830075359
 30
0.0
 41
3.0
 42
3.0
 43
3.0
 50
201.7978629678567
  0
MTEXT
  5
639
330
5A6
100
AcDbEntity
  8
0
  6
BYBLOCK
 62
     4
100
AcDbMText
 10
253.7343745389814
 20
72.19688274314373
 30
0.0
 40
3.0
 41
0.0
 71
     5
 72
     5
  1
\A1;t1.2
 11
0.9284996776043772
 21
0.3713332043981086
 31
0.0
1001
ACAD
1000
MTEXTBEGIN
1070
    73
1070
     1
1070
    44
1040
1.0
1070
    74
1070
     0
1000
MTEXTEND
1000
MTEXTBEGIN
1070
    73
1070
     1
1070
    44
1040
1.0
1070
    74
1070
     0
1000
MTEXTEND
1000
MTEXTBEGIN
1070
    73
1070
     1
1070
    44
1040
1.0
1070
    74
1070
     0
1000
MTEXTEND
  0
POINT
  5
63A
330
5A6
100
AcDbEntity
  8
DEFPOINTS
  6
BYBLOCK
 62
     0
100
AcDbPoint
 10
238.0418554508734
 20
78.58063315750372
 30
0.0
  0
POINT
  5
63B
330
5A6
100
AcDbEntity
  8
DEFPOINTS
  6
BYBLOCK
 62
     0
100
AcDbPoint
 10
239.1560554508736
 20
79.02623315750367
 30
0.0
  0
POINT
  5
63C
330
5A6
100
AcDbEntity
  8
DEFPOINTS
  6
BYBLOCK
 62
     0
100
AcDbPoint
 10
244.4492110963285
 20
65.79096830075359
 30
0.0
  0
ENDBLK
  5
63D
330
5A6
100
AcDbEntity
  8
0
100
AcDbBlockEnd
  0
BLOCK
  5
63E
330
5B4
100
AcDbEntity
  8
0
100
AcDbBlockBegin
  2
*D11
 70
     1
 10
0.0
 20
0.0
 30
0.0
  3
*D11
  1

  0
LINE
  5
63F
330
5B4
100
AcDbEntity
  8
0
  6
BYBLOCK
 62
     4
100
AcDbLine
 10
313.2558847218129
 20
114.4342643740241
 30
0.0
 11
300.2417576138378
 21
109.2289849009922
 31
0.0
  0
LINE
  5
640
330
5B4
100
AcDbEntity
  8
0
  6
BYBLOCK
 62
     4
100
AcDbLine
 10
313.4350489779643
 20
109.1208820784059
 30
0.0
 11
302.0985730226721
 21
104.5866151931193
 31
0.0
  0
LINE
  5
641
330
5B4
100
AcDbEntity
  8
0
  6
BYBLOCK
 62
     4
100
AcDbLine
 10
300.5203828475085
 20
112.5714941349603
 30
0.0
 11
299.4062793408578
 21
115.356951615603
 31
0.0
  0
LINE
  5
642
330
5B4
100
AcDbEntity
  8
0
  6
BYBLOCK
 62
     4
100
AcDbLine
 10
304.6054052696442
 20
102.3582094658019
 30
0.0
 11
305.7195087762949
 21
99.57275198515919
 31
0.0
  0
LINE
  5
643
330
5B4
100
AcDbEntity
  8
0
  6
BYBLOCK
 62
     4
100
AcDbLine
 10
301.6344863541592
 20
109.7860366543176
 30
0.0
 11
303.4913017629935
 21
105.1436669464446
 31
0.0
  0
INSERT
  5
644
330
5B4
100
AcDbEntity
  8
0
  6
BYBLOCK
 62
     4
100
AcDbBlockReference
  2
_OPEN
 10
301.6344863541592
 20
109.7860366543176
 30
0.0
 41
3.0
 42
3.0
 43
3.0
 50
291.7999999999998
  0
INSERT
  5
645
330
5B4
100
AcDbEntity
  8
0
  6
BYBLOCK
 62
     4
100
AcDbBlockReference
  2
_OPEN
 10
303.4913017629935
 20
105.1436669464446
 30
0.0
 41
3.0
 42
3.0
 43
3.0
 50
111.7999999999998
  0
MTEXT
  5
646
330
5B4
100
AcDbEntity
  8
0
  6
BYBLOCK
 62
     4
100
AcDbMText
 10
304.8841086257786
 20
108.3932713892567
 30
0.0
 40
3.0
 41
0.0
 71
     5
 72
     5
  1
\A1;5
 11
0.3713678355502318
 21
-0.9284858268809147
 31
0.0
1001
ACAD
1000
MTEXTBEGIN
1070
    73
1070
     1
1070
    44
1040
1.0
1070
    74
1070
     0
1000
MTEXTEND
1000
MTEXTBEGIN
1070
    73
1070
     1
1070
    44
1040
1.0
1070
    74
1070
     0
1000
MTEXTEND
1000
MTEXTBEGIN
1070
    73
1070
     1
1070
    44
1040
1.0
1070
    74
1070
     0
1000
MTEXTEND
  0
POINT
  5
647
330
5B4
100
AcDbEntity
  8
DEFPOINTS
  6
BYBLOCK
 62
     0
100
AcDbPoint
 10
316.0413422024557
 20
115.5483678806748
 30
0.0
  0
POINT
  5
648
330
5B4
100
AcDbEntity
  8
DEFPOINTS
  6
BYBLOCK
 62
     0
100
AcDbPoint
 10
316.220506458607
 20
110.2349855850566
 30
0.0
  0
POINT
  5
649
330
5B4
100
AcDbEntity
  8
DEFPOINTS
  6
BYBLOCK
 62
     0
100
AcDbPoint
 10
303.4913017629935
 20
105.1436669464446
 30
0.0
  0
ENDBLK
  5
64A
330
5B4
100
AcDbEntity
  8
0
100
AcDbBlockEnd
  0
BLOCK
  5
64B
330
5C2
100
AcDbEntity
  8
0
100
AcDbBlockBegin
  2
*D12
 70
     1
 10
0.0
 20
0.0
 30
0.0
  3
*D12
  1

  0
LINE
  5
64C
330
5C2
100
AcDbEntity
  8
0
  6
BYBLOCK
 62
     4
100
AcDbLine
 10
232.5006554508735
 20
235.8080331575037
 30
0.0
 11
255.817207232877
 21
235.8080331575037
 31
0.0
  0
LINE
  5
64D
330
5C2
100
AcDbEntity
  8
0
  6
BYBLOCK
 62
     4
100
AcDbLine
 10
232.5005554508734
 20
175.8081331575036
 30
0.0
 11
255.817207232877
 21
175.8081331575036
 31
0.0
  0
LINE
  5
64E
330
5C2
100
AcDbEntity
  8
0
  6
BYBLOCK
 62
     4
100
AcDbLine
 10
254.317207232877
 20
232.8080331575038
 30
0.0
 11
254.317207232877
 21
178.8081331575036
 31
0.0
  0
INSERT
  5
64F
330
5C2
100
AcDbEntity
  8
0
  6
BYBLOCK
 62
     4
100
AcDbBlockReference
  2
_OPEN
 10
254.317207232877
 20
235.8080331575037
 30
0.0
 41
3.0
 42
3.0
 43
3.0
 50
90.0
  0
INSERT
  5
650
330
5C2
100
AcDbEntity
  8
0
  6
BYBLOCK
 62
     4
100
AcDbBlockReference
  2
_OPEN
 10
254.317207232877
 20
175.8081331575036
 30
0.0
 41
3.0
 42
3.0
 43
3.0
 50
270.0
  0
MTEXT
  5
651
330
5C2
100
AcDbEntity
  8
0
  6
BYBLOCK
 62
     4
100
AcDbMText
 10
251.817207232877
 20
205.8080831575037
 30
0.0
 40
3.0
 41
0.0
 71
     5
 72
     5
  1
\A1;60
 11
0.0
 21
1.0
 31
0.0
1001
ACAD
1000
MTEXTBEGIN
1070
    73
1070
     1
1070
    44
1040
1.0
1070
    74
1070
     0
1000
MTEXTEND
1000
MTEXTBEGIN
1070
    73
1070
     1
1070
    44
1040
1.0
1070
    74
1070
     0
1000
MTEXTEND
1000
MTEXTBEGIN
1070
    73
1070
     1
1070
    44
1040
1.0
1070
    74
1070
     0
1000
MTEXTEND
  0
POINT
  5
652
330
5C2
100
AcDbEntity
  8
DEFPOINTS
  6
BYBLOCK
 62
     0
100
AcDbPoint
 10
229.5006554508734
 20
235.8080331575037
 30
0.0
  0
POINT
  5
653
330
5C2
100
AcDbEntity
  8
DEFPOINTS
  6
BYBLOCK
 62
     0
100
AcDbPoint
 10
229.5005554508734
 20
175.8081331575036
 30
0.0
  0
POINT
  5
654
330
5C2
100
AcDbEntity
  8
DEFPOINTS
  6
BYBLOCK
 62
     0
100
AcDbPoint
 10
254.317207232877
 20
175.8081331575036
 30
0.0
  0
ENDBLK
  5
655
330
5C2
100
AcDbEntity
  8
0
100
AcDbBlockEnd
  0
ENDSEC
  0
SECTION
  2
ENTITIES
  0
POINT
  5
1A1
330
1A
100
AcDbEntity
  8
SUNPOU_L
  6
CONTINUOUS
100
AcDbPoint
 10
205.9553251990115
 20
146.5650665787895
 30
0.0
  0
POINT
  5
1A2
330
1A
100
AcDbEntity
  8
SUNPOU_L
  6
CONTINUOUS
100
AcDbPoint
 10
205.4553267650654
 20
145.6990402718312
 30
0.0
  0
LINE
  5
40D
330
1A
100
AcDbEntity
  8
SEIHIN
  6
CONTINUOUS
 62
     3
 48
16.0
100
AcDbLine
 10
174.3899554508736
 20
120.8082331575037
 30
0.0
 11
219.0593554508736
 21
120.8081331575037
 31
0.0
  0
LINE
  5
40E
330
1A
100
AcDbEntity
  8
SEIHIN
  6
CONTINUOUS
 62
     3
 48
16.0
100
AcDbLine
 10
176.7570554508736
 20
115.8082331575036
 30
0.0
 11
217.0270554508736
 21
115.8081331575037
 31
0.0
  0
LINE
  5
40F
330
1A
100
AcDbEntity
  8
CENTER_L
  6
CENTER
 62
     1
 48
5.0
100
AcDbLine
 10
243.0900554508736
 20
205.8081331575037
 30
0.0
 11
97.2900554508736
 21
205.8082331575037
 31
0.0
  0
LINE
  5
410
330
1A
100
AcDbEntity
  8
SEIHIN
  6
CONTINUOUS
 62
     3
 48
16.0
100
AcDbLine
 10
238.6561548708272
 20
199.2581034457873
 30
0.0
 11
106.8446554508736
 21
199.2582331575037
 31
0.0
  0
LINE
  5
411
330
1A
100
AcDbEntity
  8
SEIHIN
  6
CONTINUOUS
 62
     3
 48
16.0
100
AcDbLine
 10
238.65615603092
 20
212.3581034457862
 30
0.0
 11
106.8446554508736
 21
212.3582331575036
 31
0.0
  0
DIMENSION
  5
412
330
1A
100
AcDbEntity
  8
SUNPOU
  6
CONTINUOUS
100
AcDbDimension
  2
*D1
 10
192.4445524849016
 20
136.9292944362959
 30
0.0
 11
207.4445647077586
 21
139.4292944362959
 31
0.0
 70
    32
  3
STANDARD
100
AcDbAlignedDimension
 13
222.4445769306157
 23
120.8081194351534
 33
0.0
 14
192.4445524849016
 24
99.43832970545585
 34
0.0
100
AcDbRotatedDimension
1001
ACAD
1000
DSTYLE
1002
{
1070
   140
1040
3.0
1070
    74
1070
     0
1070
   172
1070
     1
1070
    73
1070
     0
1070
   272
1070
     2
1070
    77
1070
     3
1070
   173
1070
     1
1070
   147
1040
1.0
1070
    42
1040
3.0
1070
    44
1040
1.5
1070
    43
1040
7.0
1070
   271
1070
     0
1070
   178
1070
     4
1070
   177
1070
     4
1070
   176
1070
     4
1070
   141
1040
150.0
1070
     7
1000
_OPEN
1070
     6
1000
_OPEN
1070
    41
1040
3.0
1002
}
  0
DIMENSION
  5
413
330
1A
100
AcDbEntity
  8
SUNPOU
  6
CONTINUOUS
100
AcDbDimension
  2
*D2
 10
106.8445554508736
 20
153.1010652562007
 30
0.0
 11
164.6445661907446
 21
155.6010652562007
 31
0.0
 70
    32
  3
STANDARD
100
AcDbAlignedDimension
 13
222.4445769306157
 23
120.8081194351534
 33
0.0
 14
106.8445554508736
 24
100.7084331575037
 34
0.0
100
AcDbRotatedDimension
1001
ACAD
1000
DSTYLE
1002
{
1070
   140
1040
3.0
1070
    74
1070
     0
1070
   172
1070
     1
1070
    73
1070
     0
1070
   272
1070
     2
1070
    77
1070
     3
1070
   173
1070
     1
1070
   147
1040
1.0
1070
    42
1040
3.0
1070
    44
1040
1.5
1070
    43
1040
7.0
1070
   271
1070
     0
1070
   178
1070
     4
1070
   177
1070
     4
1070
   176
1070
     4
1070
   141
1040
150.0
1070
     7
1000
_OPEN
1070
     6
1000
_OPEN
1070
    41
1040
3.0
1002
}
  0
DIMENSION
  5
414
330
1A
100
AcDbEntity
  8
SUNPOU
  6
CONTINUOUS
100
AcDbDimension
  2
*D3
 10
92.42787662069551
 20
106.8084331575037
 30
0.0
 11
89.92787662069551
 21
92.69453315750377
 31
0.0
 70
    32
  3
STANDARD
100
AcDbAlignedDimension
 13
238.0418554508735
 23
78.58063315750377
 33
0.0
 14
112.4445554508736
 24
106.8084331575037
 34
0.0
 50
90.0
100
AcDbRotatedDimension
1001
ACAD
1000
DSTYLE
1002
{
1070
   140
1040
3.0
1070
    74
1070
     0
1070
   172
1070
     1
1070
    73
1070
     0
1070
   272
1070
     2
1070
    77
1070
     3
1070
   173
1070
     1
1070
   147
1040
1.0
1070
    42
1040
3.0
1070
    44
1040
1.5
1070
    43
1040
7.0
1070
   271
1070
     0
1070
   178
1070
     4
1070
   177
1070
     4
1070
   176
1070
     4
1070
   141
1040
150.0
1070
     7
1000
_OPEN
1070
     6
1000
_OPEN
1070
    41
1040
3.0
1002
}
  0
LINE
  5
415
330
1A
100
AcDbEntity
  8
SEIHIN
  6
CONTINUOUS
 62
     3
 48
16.0
100
AcDbLine
 10
131.6068554508735
 20
97.80833315750369
 30
0.0
 11
149.9445554508736
 21
97.80833315750369
 31
0.0
  0
LINE
  5
416
330
1A
100
AcDbEntity
  8
SEIHIN
  6
CONTINUOUS
 62
     3
 48
16.0
100
AcDbLine
 10
128.2401554508735
 20
93.80833315750377
 30
0.0
 11
149.9445554508736
 21
93.80833315750377
 31
0.0
  0
LINE
  5
417
330
1A
100
AcDbEntity
  8
NOKITOI
  6
PHANTOM
 62
     8
 48
5.0
100
AcDbLine
 10
149.9445524849016
 20
60.63842970545599
 30
0.0
 11
130.4445524849016
 21
60.63842970545599
 31
0.0
  0
LINE
  5
418
330
1A
100
AcDbEntity
  8
NOKITOI
  6
PHANTOM
 62
     8
 48
5.0
100
AcDbLine
 10
125.6445524849016
 20
59.43842970545597
 30
0.0
 11
149.9445524849016
 21
59.43842970545597
 31
0.0
  0
ARC
  5
419
330
1A
100
AcDbEntity
  8
SEIHIN
  6
CONTINUOUS
 62
     3
 48
16.0
100
AcDbCircle
 10
128.2402065585103
 20
96.80829632038479
 30
0.0
 40
2.999963163316352
100
AcDbArc
 50
198.4327647962198
 51
269.9990239040528
  0
LINE
  5
41A
330
1A
100
AcDbEntity
  8
SEIHIN
  6
CONTINUOUS
 62
     3
 48
16.0
100
AcDbLine
 10
116.4445554508736
 20
101.7083331575037
 30
0.0
 11
116.4445554508736
 21
91.55113315750375
 31
0.0
  0
LINE
  5
41B
330
1A
100
AcDbEntity
  8
SEIHIN
  6
CONTINUOUS
 62
     3
 48
16.0
100
AcDbLine
 10
115.9445554508736
 20
101.7083331575037
 30
0.0
 11
115.9445554508736
 21
91.55113315750375
 31
0.0
  0
LINE
  5
41C
330
1A
100
AcDbEntity
  8
SEIHIN
  6
CONTINUOUS
 62
     3
 48
16.0
100
AcDbLine
 10
115.4445554508736
 20
101.7083331575037
 30
0.0
 11
115.4445554508736
 21
91.84783315750369
 31
0.0
  0
LINE
  5
41D
330
1A
100
AcDbEntity
  8
NOKITOI
  6
PHANTOM
 62
     8
 48
5.0
100
AcDbLine
 10
111.3609524849014
 20
98.23842970545602
 30
0.0
 11
112.2996524849016
 21
93.63842970545599
 31
0.0
  0
LINE
  5
41E
330
1A
100
AcDbEntity
  8
NOKITOI
  6
PHANTOM
 62
     8
 48
5.0
100
AcDbLine
 10
108.6446524849015
 20
98.23842970545602
 30
0.0
 11
108.6446524849015
 21
93.63842970545599
 31
0.0
  0
LINE
  5
41F
330
1A
100
AcDbEntity
  8
NOKITOI
  6
PHANTOM
 62
     8
 48
5.0
100
AcDbLine
 10
107.4445524849016
 20
92.438429705456
 30
0.0
 11
107.4446524849015
 21
99.43842970545601
 31
0.0
  0
LINE
  5
420
330
1A
100
AcDbEntity
  8
SEIHIN
  6
CONTINUOUS
 62
     3
 48
16.0
100
AcDbLine
 10
107.4445554508736
 20
92.70843315750378
 30
0.0
 11
107.4445554508736
 21
101.8084331575037
 31
0.0
  0
LINE
  5
421
330
1A
100
AcDbEntity
  8
SEIHIN
  6
CONTINUOUS
 62
     3
 48
16.0
100
AcDbLine
 10
106.8445554508736
 20
92.70843315750378
 30
0.0
 11
106.8445554508736
 21
100.7084331575037
 31
0.0
  0
LINE
  5
422
330
1A
100
AcDbEntity
  8
SEIHIN
  6
CONTINUOUS
 62
     3
 48
16.0
100
AcDbLine
 10
116.9238554508735
 20
90.97013315750377
 30
0.0
 11
125.4765554508735
 21
95.64123315750368
 31
0.0
  0
LINE
  5
423
330
1A
100
AcDbEntity
  8
SEIHIN
  6
CONTINUOUS
 62
     3
 48
16.0
100
AcDbLine
 10
117.4238554508735
 20
90.6735331575037
 30
0.0
 11
125.7087554508735
 21
95.1983331575037
 31
0.0
  0
LINE
  5
424
330
1A
100
AcDbEntity
  8
NOKITOI
  6
PHANTOM
 62
     8
 48
5.0
100
AcDbLine
 10
112.3430524849015
 20
99.43842970545601
 30
0.0
 11
118.5771524849015
 21
68.8910297054559
 31
0.0
  0
LINE
  5
425
330
1A
100
AcDbEntity
  8
NOKITOI
  6
PHANTOM
 62
     8
 48
5.0
100
AcDbLine
 10
112.5446524849016
 20
92.438429705456
 30
0.0
 11
117.5445524849016
 21
67.938429705456
 31
0.0
  0
ARC
  5
426
330
1A
100
AcDbEntity
  8
NOKITOI
  6
PHANTOM
 62
     8
 48
5.0
100
AcDbCircle
 10
114.8602483720315
 20
57.2710340214268
 30
0.0
 40
10.99994632941524
100
AcDbArc
 50
11.36374015671925
 51
75.87555169639184
  0
LINE
  5
427
330
1A
100
AcDbEntity
  8
NOKITOI
  6
PHANTOM
 62
     8
 48
5.0
100
AcDbLine
 10
124.1845524849015
 20
65.13842970545593
 30
0.0
 11
129.2445524849014
 21
65.13842970545593
 31
0.0
  0
LINE
  5
428
330
1A
100
AcDbEntity
  8
NOKITOI
  6
PHANTOM
 62
     8
 48
5.0
100
AcDbLine
 10
123.0224524849016
 20
66.33842970545592
 30
0.0
 11
130.4445524849016
 21
66.33842970545592
 31
0.0
  0
LINE
  5
429
330
1A
100
AcDbEntity
  8
NOKITOI
  6
PHANTOM
 62
     8
 48
5.0
100
AcDbLine
 10
129.2445524849014
 20
60.63842970545599
 30
0.0
 11
126.5862524849015
 21
60.63842970545599
 31
0.0
  0
ARC
  5
42A
330
1A
100
AcDbEntity
  8
NOKITOI
  6
PHANTOM
 62
     8
 48
5.0
100
AcDbCircle
 10
114.8602481237761
 20
57.27103787676369
 30
0.0
 40
12.19993877054614
100
AcDbArc
 50
16.02263637925393
 51
40.15603560521631
  0
ARC
  5
42B
330
1A
100
AcDbEntity
  8
NOKITOI
  6
PHANTOM
 62
     8
 48
5.0
100
AcDbCircle
 10
114.8602106979254
 20
57.27105370034497
 30
0.0
 40
12.19997945109428
100
AcDbArc
 50
48.00719042627341
 51
72.26181654227993
  0
LINE
  5
42C
330
1A
100
AcDbEntity
  8
NOKITOI
  6
PHANTOM
 62
     8
 48
5.0
100
AcDbLine
 10
129.2445524849014
 20
60.63842970545599
 30
0.0
 11
129.2445524849014
 21
65.13842970545593
 31
0.0
  0
LINE
  5
42D
330
1A
100
AcDbEntity
  8
NOKITOI
  6
PHANTOM
 62
     8
 48
5.0
100
AcDbLine
 10
130.4445524849016
 20
60.63842970545599
 30
0.0
 11
130.4445524849016
 21
66.33842970545592
 31
0.0
  0
LINE
  5
42E
330
1A
100
AcDbEntity
  8
SEIHIN
  6
CONTINUOUS
 62
     3
 48
16.0
100
AcDbLine
 10
112.2445554508735
 20
91.70843315750378
 30
0.0
 11
108.4445554508736
 21
91.70843315750378
 31
0.0
  0
LINE
  5
42F
330
1A
100
AcDbEntity
  8
SEIHIN
  6
CONTINUOUS
 62
     3
 48
16.0
100
AcDbLine
 10
112.2445554508735
 20
91.1084331575037
 30
0.0
 11
108.4445554508736
 21
91.1084331575037
 31
0.0
  0
LINE
  5
430
330
1A
100
AcDbEntity
  8
NOKITOI
  6
PHANTOM
 62
     8
 48
5.0
100
AcDbLine
 10
112.2996524849016
 20
93.63842970545599
 30
0.0
 11
108.6446524849015
 21
93.63842970545599
 31
0.0
  0
LINE
  5
431
330
1A
100
AcDbEntity
  8
NOKITOI
  6
PHANTOM
 62
     8
 48
5.0
100
AcDbLine
 10
107.4445524849016
 20
92.438429705456
 30
0.0
 11
112.5446524849016
 21
92.438429705456
 31
0.0
  0
ARC
  5
432
330
1A
100
AcDbEntity
  8
SEIHIN
  6
CONTINUOUS
 62
     3
 48
16.0
100
AcDbCircle
 10
108.4445554508736
 20
92.70843315750378
 30
0.0
 40
1.0
100
AcDbArc
 50
180.0
 51
270.0
  0
ARC
  5
433
330
1A
100
AcDbEntity
  8
SEIHIN
  6
CONTINUOUS
 62
     3
 48
16.0
100
AcDbCircle
 10
108.4445554508737
 20
92.70843315750374
 30
0.0
 40
1.600000000000051
100
AcDbArc
 50
179.9999999999989
 51
269.9999999999989
  0
LINE
  5
434
330
1A
100
AcDbEntity
  8
SEIHIN
  6
CONTINUOUS
 62
     3
 48
16.0
100
AcDbLine
 10
112.2445554508735
 20
91.70843315750378
 30
0.0
 11
112.2445554508735
 21
91.1084331575037
 31
0.0
  0
ARC
  5
435
330
1A
100
AcDbEntity
  8
SEIHIN
  6
CONTINUOUS
 62
     3
 48
16.0
100
AcDbCircle
 10
116.944532249797
 20
91.5511469234193
 30
0.0
 40
0.4999767991129506
100
AcDbArc
 50
180.0015775309251
 51
298.6376467001073
  0
ARC
  5
436
330
1A
100
AcDbEntity
  8
SEIHIN
  6
CONTINUOUS
 62
     3
 48
16.0
100
AcDbCircle
 10
116.9445330128701
 20
91.55114646933311
 30
0.0
 40
0.9999775620851208
100
AcDbArc
 50
180.0007627287535
 51
298.6418608679199
  0
ARC
  5
437
330
1A
100
AcDbEntity
  8
SEIHIN
  6
CONTINUOUS
 62
     3
 48
16.0
100
AcDbCircle
 10
116.4445476208122
 20
91.84784314006066
 30
0.0
 40
0.9999921699884623
100
AcDbArc
 50
180.0005719628614
 51
256.2200246735066
  0
LINE
  5
438
330
1A
100
AcDbEntity
  8
SEIHIN
  6
CONTINUOUS
 62
     3
 48
16.0
100
AcDbLine
 10
108.4445554508736
 20
101.7084331575037
 30
0.0
 11
121.2822554508736
 21
101.7083331575037
 31
0.0
  0
LINE
  5
439
330
1A
100
AcDbEntity
  8
SEIHIN
  6
CONTINUOUS
 62
     3
 48
16.0
100
AcDbLine
 10
121.3992554508736
 20
106.8084331575037
 30
0.0
 11
112.4445554508736
 21
106.8084331575037
 31
0.0
  0
ARC
  5
43A
330
1A
100
AcDbEntity
  8
SEIHIN
  6
CONTINUOUS
 62
     3
 48
16.0
100
AcDbCircle
 10
112.4445554508736
 20
101.8084331575037
 30
0.0
 40
5.0
100
AcDbArc
 50
90.0
 51
180.0
  0
LINE
  5
43B
330
1A
100
AcDbEntity
  8
NOKITOI
  6
PHANTOM
 62
     8
 48
5.0
100
AcDbLine
 10
111.3609524849014
 20
98.23842970545602
 30
0.0
 11
108.6446524849015
 21
98.23842970545602
 31
0.0
  0
LINE
  5
43C
330
1A
100
AcDbEntity
  8
NOKITOI
  6
PHANTOM
 62
     8
 48
5.0
100
AcDbLine
 10
107.4446524849015
 20
99.43842970545601
 30
0.0
 11
112.3430524849015
 21
99.43842970545601
 31
0.0
  0
ARC
  5
43D
330
1A
100
AcDbEntity
  8
SEIHIN
  6
CONTINUOUS
 62
     3
 48
16.0
100
AcDbCircle
 10
108.444540752301
 20
100.7084026314007
 30
0.0
 40
1.599985301718659
100
AcDbArc
 50
128.5765029246821
 51
179.9989068544136
  0
ARC
  5
43E
330
1A
100
AcDbEntity
  8
SEIHIN
  6
CONTINUOUS
 62
     3
 48
16.0
100
AcDbCircle
 10
108.4445554508736
 20
100.7084331575037
 30
0.0
 40
1.0
100
AcDbArc
 50
90.0
 51
180.0
  0
LINE
  5
43F
330
1A
100
AcDbEntity
  8
SEIHIN
  6
CONTINUOUS
 62
     3
 48
16.0
100
AcDbLine
 10
116.4445554508736
 20
109.8084331575037
 30
0.0
 11
115.4445554508736
 21
109.8084331575037
 31
0.0
  0
LINE
  5
440
330
1A
100
AcDbEntity
  8
SEIHIN
  6
CONTINUOUS
 62
     3
 48
16.0
100
AcDbLine
 10
115.4445554508736
 20
106.8084331575037
 30
0.0
 11
115.4445554508736
 21
109.8084331575037
 31
0.0
  0
LINE
  5
441
330
1A
100
AcDbEntity
  8
SEIHIN
  6
CONTINUOUS
 62
     3
 48
16.0
100
AcDbLine
 10
115.9445554508736
 20
106.8084331575037
 30
0.0
 11
115.9445554508736
 21
109.8084331575037
 31
0.0
  0
LINE
  5
442
330
1A
100
AcDbEntity
  8
SEIHIN
  6
CONTINUOUS
 62
     3
 48
16.0
100
AcDbLine
 10
116.4445554508736
 20
106.8084331575037
 30
0.0
 11
116.4445554508736
 21
109.8084331575037
 31
0.0
  0
ARC
  5
443
330
1A
100
AcDbEntity
  8
SEIHIN
  6
CONTINUOUS
 62
     3
 48
16.0
100
AcDbCircle
 10
121.3992678187685
 20
99.8084242432295
 30
0.0
 40
7.000008914285215
100
AcDbArc
 50
18.43505005538998
 51
90.00010123246797
  0
ARC
  5
444
330
1A
100
AcDbEntity
  8
SEIHIN
  6
CONTINUOUS
 62
     3
 48
16.0
100
AcDbCircle
 10
121.2822262785595
 20
98.70835418348452
 30
0.0
 40
2.999978974161103
100
AcDbArc
 50
18.43499562786981
 51
89.99944284593667
  0
LINE
  5
445
330
1A
100
AcDbEntity
  8
SEIHIN
  6
CONTINUOUS
 62
     3
 48
16.0
100
AcDbLine
 10
124.1282554508735
 20
99.65703315750378
 30
0.0
 11
125.3941554508736
 21
95.85973315750377
 31
0.0
  0
ARC
  5
446
330
1A
100
AcDbEntity
  8
SEIHIN
  6
CONTINUOUS
 62
     3
 48
16.0
100
AcDbCircle
 10
131.6069065585102
 20
100.8082963203848
 30
0.0
 40
2.999963163316471
100
AcDbArc
 50
198.4327647962198
 51
269.9990239040528
  0
LINE
  5
447
330
1A
100
AcDbEntity
  8
SEIHIN
  6
CONTINUOUS
 62
     3
 48
16.0
100
AcDbLine
 10
128.0400554508734
 20
102.0219331575037
 30
0.0
 11
128.7607554508734
 21
99.85973315750378
 31
0.0
  0
LINE
  5
448
330
1A
100
AcDbEntity
  8
NOKITOI
  6
PHANTOM
 62
     8
 48
5.0
100
AcDbLine
 10
188.5282524849015
 20
98.23832970545588
 30
0.0
 11
187.5894524849016
 21
93.63832970545596
 31
0.0
  0
LINE
  5
449
330
1A
100
AcDbEntity
  8
NOKITOI
  6
PHANTOM
 62
     8
 48
5.0
100
AcDbLine
 10
191.2445524849015
 20
98.23832970545588
 30
0.0
 11
191.2445524849015
 21
93.63832970545596
 31
0.0
  0
LINE
  5
44A
330
1A
100
AcDbEntity
  8
NOKITOI
  6
PHANTOM
 62
     8
 48
5.0
100
AcDbLine
 10
192.4445524849016
 20
92.43832970545586
 30
0.0
 11
192.4445524849016
 21
99.43832970545585
 31
0.0
  0
LINE
  5
44B
330
1A
100
AcDbEntity
  8
SEIHIN
  6
CONTINUOUS
 62
     3
 48
16.0
100
AcDbLine
 10
192.4445554508736
 20
92.70823315750376
 30
0.0
 11
192.4446554508736
 21
101.8082331575037
 31
0.0
  0
LINE
  5
44C
330
1A
100
AcDbEntity
  8
SEIHIN
  6
CONTINUOUS
 62
     3
 48
16.0
100
AcDbLine
 10
193.0445554508735
 20
92.70823315750376
 30
0.0
 11
193.0445554508735
 21
100.7082331575037
 31
0.0
  0
ARC
  5
44D
330
1A
100
AcDbEntity
  8
SEIHIN
  6
CONTINUOUS
 62
     3
 48
16.0
100
AcDbCircle
 10
171.6489920901564
 20
96.80825956560463
 30
0.0
 40
3.000026408324595
100
AcDbArc
 50
269.9993002474029
 51
341.5643514244811
  0
LINE
  5
44E
330
1A
100
AcDbEntity
  8
SEIHIN
  6
CONTINUOUS
 62
     3
 48
16.0
100
AcDbLine
 10
182.9652554508736
 20
90.97003315750368
 30
0.0
 11
174.4126554508736
 21
95.64103315750376
 31
0.0
  0
LINE
  5
44F
330
1A
100
AcDbEntity
  8
SEIHIN
  6
CONTINUOUS
 62
     3
 48
16.0
100
AcDbLine
 10
182.4652554508735
 20
90.67343315750377
 30
0.0
 11
174.1803554508735
 21
95.19823315750377
 31
0.0
  0
LINE
  5
450
330
1A
100
AcDbEntity
  8
SEIHIN
  6
CONTINUOUS
 62
     3
 48
16.0
100
AcDbLine
 10
183.4446554508736
 20
101.7082331575036
 30
0.0
 11
183.4445554508736
 21
91.55103315750379
 31
0.0
  0
LINE
  5
451
330
1A
100
AcDbEntity
  8
SEIHIN
  6
CONTINUOUS
 62
     3
 48
16.0
100
AcDbLine
 10
183.9446554508736
 20
101.7082331575036
 30
0.0
 11
183.9445554508736
 21
91.55103315750379
 31
0.0
  0
LINE
  5
452
330
1A
100
AcDbEntity
  8
SEIHIN
  6
CONTINUOUS
 62
     3
 48
16.0
100
AcDbLine
 10
184.4446554508735
 20
101.7082331575036
 30
0.0
 11
184.4445554508736
 21
91.84763315750377
 31
0.0
  0
LINE
  5
453
330
1A
100
AcDbEntity
  8
NOKITOI
  6
PHANTOM
 62
     8
 48
5.0
100
AcDbLine
 10
187.5461524849016
 20
99.43832970545585
 30
0.0
 11
181.3119524849016
 21
68.89092970545599
 31
0.0
  0
LINE
  5
454
330
1A
100
AcDbEntity
  8
SEIHIN
  6
CONTINUOUS
 62
     3
 48
16.0
100
AcDbLine
 10
171.6489554508736
 20
93.80823315750376
 30
0.0
 11
149.9445554508736
 21
93.80833315750377
 31
0.0
  0
LINE
  5
455
330
1A
100
AcDbEntity
  8
NOKITOI
  6
PHANTOM
 62
     8
 48
5.0
100
AcDbLine
 10
174.2445524849015
 20
59.43842970545597
 30
0.0
 11
149.9445524849016
 21
59.43842970545597
 31
0.0
  0
LINE
  5
456
330
1A
100
AcDbEntity
  8
NOKITOI
  6
PHANTOM
 62
     8
 48
5.0
100
AcDbLine
 10
149.9445524849016
 20
60.63842970545599
 30
0.0
 11
169.4445524849016
 21
60.63842970545599
 31
0.0
  0
LINE
  5
457
330
1A
100
AcDbEntity
  8
CENTER_L
  6
CENTER
 48
5.0
100
AcDbLine
 10
149.9445524849016
 20
52.43842970545597
 30
0.0
 11
149.9445524849016
 21
67.63842970545599
 31
0.0
  0
LINE
  5
458
330
1A
100
AcDbEntity
  8
NOKITOI
  6
PHANTOM
 62
     8
 48
5.0
100
AcDbLine
 10
187.3445524849016
 20
92.43832970545586
 30
0.0
 11
182.3445524849016
 21
67.938429705456
 31
0.0
  0
LINE
  5
459
330
1A
100
AcDbEntity
  8
NOKITOI
  6
PHANTOM
 62
     8
 48
5.0
100
AcDbLine
 10
176.8666524849016
 20
66.33832970545601
 30
0.0
 11
169.4445524849016
 21
66.33842970545592
 31
0.0
  0
ARC
  5
45A
330
1A
100
AcDbEntity
  8
NOKITOI
  6
PHANTOM
 62
     8
 48
5.0
100
AcDbCircle
 10
185.0288565977716
 20
57.27093402142668
 30
0.0
 40
10.99994632941526
100
AcDbArc
 50
104.1244483036074
 51
168.6362598432798
  0
LINE
  5
45B
330
1A
100
AcDbEntity
  8
NOKITOI
  6
PHANTOM
 62
     8
 48
5.0
100
AcDbLine
 10
170.6445524849017
 20
60.63842970545599
 30
0.0
 11
170.6445524849017
 21
65.13842970545593
 31
0.0
  0
LINE
  5
45C
330
1A
100
AcDbEntity
  8
NOKITOI
  6
PHANTOM
 62
     8
 48
5.0
100
AcDbLine
 10
169.4445524849016
 20
60.6383297054559
 30
0.0
 11
169.4445524849016
 21
66.33842970545592
 31
0.0
  0
ARC
  5
45D
330
1A
100
AcDbEntity
  8
NOKITOI
  6
PHANTOM
 62
     8
 48
5.0
100
AcDbCircle
 10
185.0289294685723
 20
57.27107394632128
 30
0.0
 40
12.19997101530972
100
AcDbArc
 50
139.8443138052131
 51
163.9780719705774
  0
LINE
  5
45E
330
1A
100
AcDbEntity
  8
NOKITOI
  6
PHANTOM
 62
     8
 48
5.0
100
AcDbLine
 10
170.6445524849017
 20
60.63842970545599
 30
0.0
 11
173.3028524849016
 21
60.63842970545599
 31
0.0
  0
LINE
  5
45F
330
1A
100
AcDbEntity
  8
NOKITOI
  6
PHANTOM
 62
     8
 48
5.0
100
AcDbLine
 10
175.7045524849016
 20
65.13842970545593
 30
0.0
 11
170.6445524849017
 21
65.13842970545593
 31
0.0
  0
ARC
  5
460
330
1A
100
AcDbEntity
  8
NOKITOI
  6
PHANTOM
 62
     8
 48
5.0
100
AcDbCircle
 10
185.0288942718778
 20
57.27095370034536
 30
0.0
 40
12.19997945109404
100
AcDbArc
 50
107.7381834577211
 51
131.9928095737274
  0
ARC
  5
461
330
1A
100
AcDbEntity
  8
SEIHIN
  6
CONTINUOUS
 62
     3
 48
16.0
100
AcDbCircle
 10
182.944577888877
 20
91.55104646933322
 30
0.0
 40
0.999977562085202
100
AcDbArc
 50
241.3581391320733
 51
359.9992372712423
  0
ARC
  5
462
330
1A
100
AcDbEntity
  8
SEIHIN
  6
CONTINUOUS
 62
     3
 48
16.0
100
AcDbCircle
 10
183.4445632809349
 20
91.84764314006065
 30
0.0
 40
0.9999921699885575
100
AcDbArc
 50
283.7799753264978
 51
359.9994280371426
  0
ARC
  5
463
330
1A
100
AcDbEntity
  8
SEIHIN
  6
CONTINUOUS
 62
     3
 48
16.0
100
AcDbCircle
 10
182.9445546858747
 20
91.55103270369712
 30
0.0
 40
0.5000007649991042
100
AcDbArc
 50
241.3539253752726
 51
0.0000520023310446
  0
ARC
  5
464
330
1A
100
AcDbEntity
  8
SEIHIN
  6
CONTINUOUS
 62
     3
 48
16.0
100
AcDbCircle
 10
191.4445554508736
 20
92.70823315750376
 30
0.0
 40
1.0
100
AcDbArc
 50
270.0
 51
0.0
  0
LINE
  5
465
330
1A
100
AcDbEntity
  8
NOKITOI
  6
PHANTOM
 62
     8
 48
5.0
100
AcDbLine
 10
192.4445524849016
 20
92.43832970545586
 30
0.0
 11
187.3445524849016
 21
92.43832970545586
 31
0.0
  0
ARC
  5
466
330
1A
100
AcDbEntity
  8
SEIHIN
  6
CONTINUOUS
 62
     3
 48
16.0
100
AcDbCircle
 10
191.4445554508735
 20
92.70823315750366
 30
0.0
 40
1.599999999999965
100
AcDbArc
 50
270.0000000000041
 51
0.0000000000040711
  0
LINE
  5
467
330
1A
100
AcDbEntity
  8
NOKITOI
  6
PHANTOM
 62
     8
 48
5.0
100
AcDbLine
 10
187.5894524849016
 20
93.63832970545596
 30
0.0
 11
191.2445524849015
 21
93.63832970545596
 31
0.0
  0
LINE
  5
468
330
1A
100
AcDbEntity
  8
SEIHIN
  6
CONTINUOUS
 62
     3
 48
16.0
100
AcDbLine
 10
187.6445554508736
 20
91.70823315750377
 30
0.0
 11
191.4445554508736
 21
91.70823315750377
 31
0.0
  0
LINE
  5
469
330
1A
100
AcDbEntity
  8
SEIHIN
  6
CONTINUOUS
 62
     3
 48
16.0
100
AcDbLine
 10
187.6445554508736
 20
91.10823315750369
 30
0.0
 11
191.4445554508736
 21
91.10823315750369
 31
0.0
  0
LINE
  5
46A
330
1A
100
AcDbEntity
  8
SEIHIN
  6
CONTINUOUS
 62
     3
 48
16.0
100
AcDbLine
 10
187.6445554508736
 20
91.70823315750377
 30
0.0
 11
187.6445554508736
 21
91.10823315750369
 31
0.0
  0
LINE
  5
46B
330
1A
100
AcDbEntity
  8
SEIHIN
  6
CONTINUOUS
 62
     3
 48
16.0
100
AcDbLine
 10
168.2822554508736
 20
97.80823315750376
 30
0.0
 11
149.9445554508736
 21
97.80833315750369
 31
0.0
  0
LINE
  5
46C
330
1A
100
AcDbEntity
  8
SEIHIN
  6
CONTINUOUS
 62
     3
 48
16.0
100
AcDbLine
 10
169.5270554508736
 20
116.9710331575036
 30
0.0
 11
165.8538554508736
 21
101.6105331575037
 31
0.0
  0
LINE
  5
46D
330
1A
100
AcDbEntity
  8
SEIHIN
  6
CONTINUOUS
 62
     3
 48
16.0
100
AcDbLine
 10
162.9360554508736
 20
99.30833315750369
 30
0.0
 11
142.4445554508736
 21
99.30833315750369
 31
0.0
  0
LINE
  5
46E
330
1A
100
AcDbEntity
  8
SEIHIN
  6
CONTINUOUS
 62
     3
 48
16.0
100
AcDbLine
 10
142.4445554508736
 20
99.30833315750369
 30
0.0
 11
142.4445554508736
 21
97.80833315750369
 31
0.0
  0
ARC
  5
46F
330
1A
100
AcDbEntity
  8
SEIHIN
  6
CONTINUOUS
 62
     3
 48
16.0
100
AcDbCircle
 10
162.936029954335
 20
102.3083130390354
 30
0.0
 40
2.99997988164015
100
AcDbArc
 50
270.0004869512834
 51
346.5520738032679
  0
ARC
  5
470
330
1A
100
AcDbEntity
  8
SEIHIN
  6
CONTINUOUS
 62
     3
 48
16.0
100
AcDbCircle
 10
174.3899233998904
 20
115.8082867740786
 30
0.0
 40
4.999946383886803
100
AcDbArc
 50
90.00077864672652
 51
166.5526481677431
  0
LINE
  5
471
330
1A
100
AcDbEntity
  8
SEIHIN
  6
CONTINUOUS
 62
     3
 48
16.0
100
AcDbLine
 10
183.4446859710957
 20
108.8082331575037
 30
0.0
 11
184.4446868891226
 21
108.8082331575037
 31
0.0
  0
LINE
  5
472
330
1A
100
AcDbEntity
  8
SEIHIN
  6
CONTINUOUS
 62
     3
 48
16.0
100
AcDbLine
 10
191.4446554508734
 20
101.7082331575036
 30
0.0
 11
178.6069554508736
 21
101.7082331575036
 31
0.0
  0
LINE
  5
473
330
1A
100
AcDbEntity
  8
SEIHIN
  6
CONTINUOUS
 62
     3
 48
16.0
100
AcDbLine
 10
178.4899554508736
 20
106.8082331575037
 30
0.0
 11
187.4446554508735
 21
106.8082331575037
 31
0.0
  0
ARC
  5
474
330
1A
100
AcDbEntity
  8
SEIHIN
  6
CONTINUOUS
 62
     3
 48
16.0
100
AcDbCircle
 10
178.4899430829785
 20
99.80822424322932
 30
0.0
 40
7.000008914285379
100
AcDbArc
 50
89.99989876753039
 51
161.5649499446083
  0
LINE
  5
475
330
1A
100
AcDbEntity
  8
SEIHIN
  6
CONTINUOUS
 62
     3
 48
16.0
100
AcDbLine
 10
173.8393554508735
 20
113.5059331575037
 30
0.0
 11
170.2644554508735
 21
98.55633315750376
 31
0.0
  0
ARC
  5
476
330
1A
100
AcDbEntity
  8
SEIHIN
  6
CONTINUOUS
 62
     3
 48
16.0
100
AcDbCircle
 10
178.6069065585101
 20
98.70836999462277
 30
0.0
 40
2.999963163316346
100
AcDbArc
 50
90.0009760959471
 51
161.5672352037801
  0
ARC
  5
477
330
1A
100
AcDbEntity
  8
SEIHIN
  6
CONTINUOUS
 62
     3
 48
16.0
100
AcDbCircle
 10
168.2823262785594
 20
100.808212131523
 30
0.0
 40
2.999978974161116
100
AcDbArc
 50
270.0005571540621
 51
341.5650043721288
  0
LINE
  5
478
330
1A
100
AcDbEntity
  8
SEIHIN
  6
CONTINUOUS
 62
     3
 48
16.0
100
AcDbLine
 10
175.7608554508735
 20
99.65693315750378
 30
0.0
 11
174.4950554508736
 21
95.85953315750371
 31
0.0
  0
LINE
  5
479
330
1A
100
AcDbEntity
  8
SEIHIN
  6
CONTINUOUS
 62
     3
 48
16.0
100
AcDbLine
 10
171.8491554508734
 20
102.0218331575037
 30
0.0
 11
171.1283554508734
 21
99.85963315750376
 31
0.0
  0
ARC
  5
47A
330
1A
100
AcDbEntity
  8
SEIHIN
  6
CONTINUOUS
 62
     3
 48
16.0
100
AcDbCircle
 10
176.757080947412
 20
112.8082532759718
 30
0.0
 40
2.999979881640136
100
AcDbArc
 50
90.00048695128025
 51
166.5520738032647
  0
LINE
  5
47B
330
1A
100
AcDbEntity
  8
SEIHIN
  6
CONTINUOUS
 62
     3
 48
16.0
100
AcDbLine
 10
183.9447056615615
 20
106.8082331575037
 30
0.0
 11
183.9446859710957
 21
108.8082331575037
 31
0.0
  0
LINE
  5
47C
330
1A
100
AcDbEntity
  8
SEIHIN
  6
CONTINUOUS
 62
     3
 48
16.0
100
AcDbLine
 10
183.4447056615615
 20
106.8082331575037
 30
0.0
 11
183.4446859710957
 21
108.8082331575037
 31
0.0
  0
ARC
  5
47D
330
1A
100
AcDbEntity
  8
SEIHIN
  6
CONTINUOUS
 62
     3
 48
16.0
100
AcDbCircle
 10
187.4446554508735
 20
101.8082331575037
 30
0.0
 40
5.000000000000056
100
AcDbArc
 50
0.0000000000006514
 51
90.00000000000063
  0
ARC
  5
47E
330
1A
100
AcDbEntity
  8
SEIHIN
  6
CONTINUOUS
 62
     3
 48
16.0
100
AcDbCircle
 10
191.4446554508735
 20
100.7082331575036
 30
0.0
 40
1.000000000000042
100
AcDbArc
 50
0.000000000007328
 51
90.00000000000733
  0
LINE
  5
47F
330
1A
100
AcDbEntity
  8
NOKITOI
  6
PHANTOM
 62
     8
 48
5.0
100
AcDbLine
 10
192.4445524849016
 20
99.43832970545585
 30
0.0
 11
187.5461524849016
 21
99.43832970545585
 31
0.0
  0
LINE
  5
480
330
1A
100
AcDbEntity
  8
NOKITOI
  6
PHANTOM
 62
     8
 48
5.0
100
AcDbLine
 10
188.5282524849015
 20
98.23832970545588
 30
0.0
 11
191.2445524849015
 21
98.23832970545588
 31
0.0
  0
ARC
  5
481
330
1A
100
AcDbEntity
  8
SEIHIN
  6
CONTINUOUS
 62
     3
 48
16.0
100
AcDbCircle
 10
191.444670149446
 20
100.7082026314004
 30
0.0
 40
1.599985301718769
100
AcDbArc
 50
0.0010931455947831
 51
51.42349707532636
  0
LINE
  5
482
330
1A
100
AcDbEntity
  8
SEIHIN
  6
CONTINUOUS
 62
     3
 48
16.0
100
AcDbLine
 10
184.444707171864
 20
106.8082331575037
 30
0.0
 11
184.4446868891226
 21
108.8082331575037
 31
0.0
  0
LINE
  5
483
330
1A
100
AcDbEntity
  8
SEIHIN
  6
CONTINUOUS
 62
     3
 48
16.0
100
AcDbLine
 10
193.0446554508736
 20
198.2581319698566
 30
0.0
 11
107.8445554508735
 21
198.2582331575038
 31
0.0
  0
LINE
  5
484
330
1A
100
AcDbEntity
  8
SEIHIN
  6
CONTINUOUS
 62
     3
 48
16.0
100
AcDbLine
 10
142.4446554508736
 20
201.7582331575037
 30
0.0
 11
127.4445554508736
 21
201.7582331575037
 31
0.0
  0
LINE
  5
485
330
1A
100
AcDbEntity
  8
SEIHIN
  6
CONTINUOUS
 62
     3
 48
16.0
100
AcDbLine
 10
142.4446554508736
 20
203.7582331575037
 30
0.0
 11
133.4445554508735
 21
203.7582331575037
 31
0.0
  0
LINE
  5
486
330
1A
100
AcDbEntity
  8
SEIHIN
  6
CONTINUOUS
 62
     3
 48
16.0
100
AcDbLine
 10
142.4446554508736
 20
207.8582331575036
 30
0.0
 11
133.4445554508735
 21
207.8582331575036
 31
0.0
  0
LINE
  5
487
330
1A
100
AcDbEntity
  8
SEIHIN
  6
CONTINUOUS
 62
     3
 48
16.0
100
AcDbLine
 10
142.4446554508736
 20
209.8582331575036
 30
0.0
 11
127.4445554508736
 21
209.8582331575036
 31
0.0
  0
LINE
  5
488
330
1A
100
AcDbEntity
  8
SEIHIN
  6
CONTINUOUS
 62
     3
 48
16.0
100
AcDbLine
 10
193.0446554508736
 20
213.3581319699768
 30
0.0
 11
107.8445554508735
 21
213.3582331575036
 31
0.0
  0
DIMENSION
  5
489
330
1A
100
AcDbEntity
  8
SUNPOU
  6
CONTINUOUS
100
AcDbDimension
  2
*D4
 10
92.33510402936708
 20
198.2582331575038
 30
0.0
 11
89.83510402936708
 21
205.8082331575036
 31
0.0
 70
    32
  3
STANDARD
100
AcDbAlignedDimension
 13
107.8445554508735
 23
213.3582331575036
 33
0.0
 14
107.8445554508735
 24
198.2582331575038
 34
0.0
 50
90.0
100
AcDbRotatedDimension
1001
ACAD
1000
DSTYLE
1002
{
1070
   140
1040
3.0
1070
    74
1070
     0
1070
   172
1070
     1
1070
    73
1070
     0
1070
   272
1070
     2
1070
    77
1070
     3
1070
   173
1070
     1
1070
   147
1040
1.0
1070
    42
1040
3.0
1070
    44
1040
1.5
1070
    43
1040
7.0
1070
   271
1070
     0
1070
   178
1070
     4
1070
   177
1070
     4
1070
   176
1070
     4
1070
   141
1040
150.0
1070
     7
1000
_OPEN
1070
     6
1000
_OPEN
1070
    41
1040
3.0
1002
}
  0
LINE
  5
48A
330
1A
100
AcDbEntity
  8
SEIHIN
  6
CONTINUOUS
 62
     3
 48
16.0
100
AcDbLine
 10
109.3446554508736
 20
209.3582331575036
 30
0.0
 11
106.8446554508736
 21
210.8582331575036
 31
0.0
  0
LINE
  5
48B
330
1A
100
AcDbEntity
  8
SEIHIN
  6
CONTINUOUS
 62
     3
 48
16.0
100
AcDbLine
 10
106.8446554508736
 20
199.2582331575037
 30
0.0
 11
106.8446554508736
 21
212.3582331575036
 31
0.0
  0
LINE
  5
48C
330
1A
100
AcDbEntity
  8
SEIHIN
100
AcDbLine
 10
126.0780274810002
 20
200.2582108450078
 30
0.0
 11
126.0780274810002
 21
211.3582108450064
 31
0.0
  0
LINE
  5
48D
330
1A
100
AcDbEntity
  8
SEIHIN
100
AcDbLine
 10
123.4444223722906
 20
200.2582139002341
 30
0.0
 11
123.4444223722906
 21
211.3582139002327
 31
0.0
  0
LINE
  5
48E
330
1A
100
AcDbEntity
  8
SEIHIN
  6
CONTINUOUS
 62
     3
 48
16.0
100
AcDbLine
 10
107.8445554508735
 20
198.2581331575036
 30
0.0
 11
107.8445554508735
 21
199.2581331575036
 31
0.0
  0
LINE
  5
48F
330
1A
100
AcDbEntity
  8
SEIHIN
  6
CONTINUOUS
 62
     3
 48
16.0
100
AcDbLine
 10
106.8446554508736
 20
203.7582331575037
 30
0.0
 11
109.3446554508736
 21
202.2582331575037
 31
0.0
  0
LINE
  5
490
330
1A
100
AcDbEntity
  8
SEIHIN
100
AcDbLine
 10
109.3446554508736
 20
202.2582331575037
 30
0.0
 11
106.8446554508736
 21
202.2582331575037
 31
0.0
  0
LINE
  5
491
330
1A
100
AcDbEntity
  8
SEIHIN
  6
CONTINUOUS
 62
     3
 48
16.0
100
AcDbLine
 10
109.3446554508736
 20
202.2582331575037
 30
0.0
 11
106.8446554508736
 21
200.7582331575037
 31
0.0
  0
LINE
  5
492
330
1A
100
AcDbEntity
  8
SEIHIN
  6
CONTINUOUS
 62
     3
 48
16.0
100
AcDbLine
 10
106.8446554508736
 20
207.8582331575036
 30
0.0
 11
109.3446554508736
 21
209.3582331575036
 31
0.0
  0
LINE
  5
493
330
1A
100
AcDbEntity
  8
SEIHIN
100
AcDbLine
 10
109.3446554508736
 20
209.3582331575036
 30
0.0
 11
106.8446554508736
 21
209.3582331575036
 31
0.0
  0
ARC
  5
494
330
1A
100
AcDbEntity
  8
SEIHIN
100
AcDbCircle
 10
124.9970554506652
 20
205.8082331575036
 30
0.0
 40
9.552499999802478
100
AcDbArc
 50
161.3801196496292
 51
198.6198803503707
  0
ARC
  5
495
330
1A
100
AcDbEntity
  8
SEIHIN
100
AcDbCircle
 10
125.4970554506651
 20
205.8082331575036
 30
0.0
 40
9.552499999802478
100
AcDbArc
 50
161.3801196496292
 51
198.6198803503707
  0
LINE
  5
496
330
1A
100
AcDbEntity
  8
SEIHIN
  6
CONTINUOUS
 62
     3
 48
16.0
100
AcDbLine
 10
113.4445554508736
 20
201.7581331575036
 30
0.0
 11
113.4445554508736
 21
209.8582331575036
 31
0.0
  0
LINE
  5
497
330
1A
100
AcDbEntity
  8
SEIHIN
  6
CONTINUOUS
 62
     3
 48
16.0
100
AcDbLine
 10
118.4445554508736
 20
201.7581331575036
 30
0.0
 11
118.4445554508736
 21
209.8582331575036
 31
0.0
  0
LINE
  5
498
330
1A
100
AcDbEntity
  8
SEIHIN
  6
CONTINUOUS
 62
     3
 48
16.0
100
AcDbLine
 10
118.4445554508736
 20
201.7582331575037
 30
0.0
 11
113.4445554508736
 21
201.7582331575037
 31
0.0
  0
LINE
  5
499
330
1A
100
AcDbEntity
  8
SEIHIN
  6
CONTINUOUS
 62
     3
 48
16.0
100
AcDbLine
 10
118.4445554508736
 20
202.7582331575037
 30
0.0
 11
115.9445554508736
 21
202.7582331575037
 31
0.0
  0
LINE
  5
49A
330
1A
100
AcDbEntity
  8
SEIHIN
  6
CONTINUOUS
 62
     3
 48
16.0
100
AcDbLine
 10
118.4445554508736
 20
209.8582331575036
 30
0.0
 11
113.4445554508736
 21
209.8582331575036
 31
0.0
  0
LINE
  5
49B
330
1A
100
AcDbEntity
  8
SEIHIN
  6
CONTINUOUS
 62
     3
 48
16.0
100
AcDbLine
 10
118.4445554508736
 20
208.8582331575036
 30
0.0
 11
115.9445554508736
 21
208.8582331575036
 31
0.0
  0
LINE
  5
49C
330
1A
100
AcDbEntity
  8
SEIHIN
100
AcDbLine
 10
129.4445238256769
 20
198.2582075043651
 30
0.0
 11
129.4445238256769
 21
199.258206939559
 31
0.0
  0
LINE
  5
49D
330
1A
100
AcDbEntity
  8
SEIHIN
100
AcDbLine
 10
126.4446292414571
 20
198.258211067181
 30
0.0
 11
126.4446292414571
 21
199.2582104197151
 31
0.0
  0
LINE
  5
49E
330
1A
100
AcDbEntity
  8
SEIHIN
  6
CONTINUOUS
 62
     3
 48
16.0
100
AcDbLine
 10
133.4445554508735
 20
201.7581331575036
 30
0.0
 11
133.4445554508735
 21
209.8582331575036
 31
0.0
  0
LINE
  5
49F
330
1A
100
AcDbEntity
  8
SEIHIN
  6
CONTINUOUS
 62
     3
 48
16.0
100
AcDbLine
 10
127.4445554508736
 20
209.8582331575036
 30
0.0
 11
127.4445554508736
 21
201.7581331575036
 31
0.0
  0
LINE
  5
4A0
330
1A
100
AcDbEntity
  8
SEIHIN
  6
CONTINUOUS
 62
     3
 48
16.0
100
AcDbLine
 10
133.4445554508735
 20
202.7582331575037
 30
0.0
 11
127.4445554508736
 21
202.7582331575037
 31
0.0
  0
LINE
  5
4A1
330
1A
100
AcDbEntity
  8
SEIHIN
  6
CONTINUOUS
 62
     3
 48
16.0
100
AcDbLine
 10
133.4445554508735
 20
208.8582331575036
 30
0.0
 11
127.4445554508736
 21
208.8582331575036
 31
0.0
  0
LINE
  5
4A2
330
1A
100
AcDbEntity
  8
SEIHIN
  6
CONTINUOUS
 62
     3
 48
16.0
100
AcDbLine
 10
107.8445554508735
 20
213.3584331575036
 30
0.0
 11
107.8445554508735
 21
212.3584331575036
 31
0.0
  0
LINE
  5
4A3
330
1A
100
AcDbEntity
  8
SEIHIN
100
AcDbLine
 10
126.4446292414571
 20
212.358210419715
 30
0.0
 11
126.4446292414571
 21
213.3582110672072
 31
0.0
  0
LINE
  5
4A4
330
1A
100
AcDbEntity
  8
SEIHIN
100
AcDbLine
 10
129.4445238256769
 20
212.3582069395589
 30
0.0
 11
129.4445238256769
 21
213.3582075043955
 31
0.0
  0
LINE
  5
4A5
330
1A
100
AcDbEntity
  8
SEIHIN
  6
CONTINUOUS
 62
     3
 48
16.0
100
AcDbLine
 10
142.4446554508736
 20
199.2581918581997
 30
0.0
 11
142.4446554508736
 21
212.3581918581997
 31
0.0
  0
LINE
  5
4A6
330
1A
100
AcDbEntity
  8
SEIHIN
100
AcDbLine
 10
165.3033238249499
 20
200.2581653400236
 30
0.0
 11
165.3033238249499
 21
211.3581653400223
 31
0.0
  0
LINE
  5
4A7
330
1A
100
AcDbEntity
  8
SEIHIN
  6
CONTINUOUS
 62
     3
 48
16.0
100
AcDbLine
 10
157.4446554508735
 20
204.7581331575036
 30
0.0
 11
142.4446554508736
 21
204.7581331575036
 31
0.0
  0
LINE
  5
4A8
330
1A
100
AcDbEntity
  8
SEIHIN
  6
CONTINUOUS
 62
     3
 48
16.0
100
AcDbLine
 10
157.4446554508735
 20
202.7581331575036
 30
0.0
 11
142.4446554508736
 21
202.7581331575036
 31
0.0
  0
LINE
  5
4A9
330
1A
100
AcDbEntity
  8
SEIHIN
  6
CONTINUOUS
 62
     3
 48
16.0
100
AcDbLine
 10
157.4446554508735
 20
208.8582331575036
 30
0.0
 11
142.4446554508736
 21
208.8582331575036
 31
0.0
  0
LINE
  5
4AA
330
1A
100
AcDbEntity
  8
SEIHIN
  6
CONTINUOUS
 62
     3
 48
16.0
100
AcDbLine
 10
157.4446554508735
 20
206.8582331575036
 30
0.0
 11
142.4446554508736
 21
206.8582331575036
 31
0.0
  0
ARC
  5
4AB
330
1A
100
AcDbEntity
  8
SEIHIN
  6
CONTINUOUS
 62
     3
 48
16.0
100
AcDbCircle
 10
157.4446862929435
 20
204.8582089476502
 30
0.0
 40
4.000024209972323
100
AcDbArc
 50
13.73930738124134
 51
90.00044177743701
  0
ARC
  5
4AC
330
1A
100
AcDbEntity
  8
SEIHIN
  6
CONTINUOUS
 62
     3
 48
16.0
100
AcDbCircle
 10
157.4446862929433
 20
206.7581573673571
 30
0.0
 40
4.000024209972438
100
AcDbArc
 50
269.9995582225652
 51
346.2606926187616
  0
ARC
  5
4AD
330
1A
100
AcDbEntity
  8
SEIHIN
  6
CONTINUOUS
 62
     3
 48
16.0
100
AcDbCircle
 10
157.4446764026246
 20
206.7581456574255
 30
0.0
 40
2.000012500031665
100
AcDbArc
 50
269.9993997802969
 51
331.6404363341673
  0
ARC
  5
4AE
330
1A
100
AcDbEntity
  8
SEIHIN
  6
CONTINUOUS
 62
     3
 48
16.0
100
AcDbCircle
 10
157.4446764026247
 20
204.8582206575817
 30
0.0
 40
2.000012500031574
100
AcDbArc
 50
28.35956366584006
 51
90.00060021970874
  0
LINE
  5
4AF
330
1A
100
AcDbEntity
  8
SEIHIN
100
AcDbLine
 10
170.444659811687
 20
200.2581593755967
 30
0.0
 11
170.444659811687
 21
211.3581593755955
 31
0.0
  0
LINE
  5
4B0
330
1A
100
AcDbEntity
  8
SEIHIN
100
AcDbLine
 10
173.4447696956241
 20
198.258155247603
 30
0.0
 11
173.4447696956241
 21
199.2581558951901
 31
0.0
  0
LINE
  5
4B1
330
1A
100
AcDbEntity
  8
SEIHIN
100
AcDbLine
 10
170.4444882697205
 20
198.2581588108784
 30
0.0
 11
170.4444882697205
 21
199.258159375795
 31
0.0
  0
LINE
  5
4B2
330
1A
100
AcDbEntity
  8
SEIHIN
  6
CONTINUOUS
 62
     3
 48
16.0
100
AcDbLine
 10
193.0446554508736
 20
198.2581319698565
 30
0.0
 11
193.0446554508736
 21
199.2580995516829
 31
0.0
  0
LINE
  5
4B3
330
1A
100
AcDbEntity
  8
SEIHIN
100
AcDbLine
 10
170.4444882697205
 20
212.3581593757951
 30
0.0
 11
170.4444882697205
 21
213.3581588109667
 31
0.0
  0
LINE
  5
4B4
330
1A
100
AcDbEntity
  8
SEIHIN
100
AcDbLine
 10
173.4447696956241
 20
212.3581558951902
 30
0.0
 11
173.4447696956241
 21
213.3581552476955
 31
0.0
  0
LINE
  5
4B5
330
1A
100
AcDbEntity
  8
SEIHIN
  6
CONTINUOUS
 62
     3
 48
16.0
100
AcDbLine
 10
193.0446554508736
 20
213.3581319699767
 30
0.0
 11
193.0446554508736
 21
212.3580995516831
 31
0.0
  0
LINE
  5
4B6
330
1A
100
AcDbEntity
  8
SEIHIN
  6
CONTINUOUS
 62
     3
 48
16.0
100
AcDbLine
 10
309.9367030247047
 20
150.1804970150796
 30
0.0
 11
316.9927030247046
 21
132.5392970150795
 31
0.0
  0
LINE
  5
4B7
330
1A
100
AcDbEntity
  8
SEIHIN
  6
CONTINUOUS
 62
     3
 48
16.0
100
AcDbLine
 10
306.9366030247046
 20
144.2174970150795
 30
0.0
 11
309.5362030247046
 21
137.7180970150795
 31
0.0
  0
LINE
  5
4B8
330
1A
100
AcDbEntity
  8
SEIHIN
  6
CONTINUOUS
 62
     3
 48
16.0
100
AcDbLine
 10
310.6506030247046
 20
145.7028970150796
 30
0.0
 11
313.2501030247046
 21
139.2034970150794
 31
0.0
  0
LINE
  5
4B9
330
1A
100
AcDbEntity
  8
SEIHIN
  6
CONTINUOUS
 62
     3
 48
16.0
100
AcDbLine
 10
303.4084030247047
 20
142.2677970150794
 30
0.0
 11
290.4095030247046
 21
137.0685970150794
 31
0.0
  0
LINE
  5
4BA
330
1A
100
AcDbEntity
  8
SEIHIN
  6
CONTINUOUS
 62
     3
 48
16.0
100
AcDbLine
 10
304.3658030247046
 20
147.9522970150794
 30
0.0
 11
311.4218030247045
 21
130.3110970150794
 31
0.0
  0
LINE
  5
4BB
330
1A
100
AcDbEntity
  8
SEIHIN
  6
CONTINUOUS
 62
     3
 48
16.0
100
AcDbLine
 10
315.8491422024557
 20
111.1634678806749
 30
0.0
 11
299.8804030247046
 21
151.0883970150794
 31
0.0
  0
LINE
  5
4BC
330
1A
100
AcDbEntity
  8
SEIHIN
  6
CONTINUOUS
 62
     3
 48
16.0
100
AcDbLine
 10
339.0620030247045
 20
147.3734970150794
 30
0.0
 11
317.7068030247046
 21
138.8319970150795
 31
0.0
  0
LINE
  5
4BD
330
1A
100
AcDbEntity
  8
SEIHIN
  6
CONTINUOUS
 62
     3
 48
16.0
100
AcDbLine
 10
280.7534030247046
 20
136.9759970150795
 30
0.0
 11
302.1086030247047
 21
145.5174970150795
 31
0.0
  0
DIMENSION
  5
4BE
330
1A
100
AcDbEntity
  8
SUNPOU
100
AcDbDimension
  2
*D5
 10
268.4994993779769
 20
125.6127135935292
 30
0.0
 11
268.4068423028021
 21
132.5762428319419
 31
0.0
 70
    32
  3
STANDARD
100
AcDbAlignedDimension
 13
299.5090580771073
 23
152.0168310355874
 33
0.0
 14
283.1490030247046
 24
131.4720970150795
 34
0.0
 50
111.7999999999998
100
AcDbRotatedDimension
1001
ACAD
1000
DSTYLE
1002
{
1070
   140
1040
3.0
1070
    74
1070
     0
1070
   172
1070
     1
1070
    73
1070
     0
1070
   272
1070
     2
1070
    77
1070
     3
1070
   173
1070
     1
1070
   147
1040
1.0
1070
    42
1040
3.0
1070
    44
1040
1.5
1070
    43
1040
7.0
1070
   271
1070
     0
1070
   178
1070
     4
1070
   177
1070
     4
1070
   176
1070
     4
1070
   141
1040
150.0
1070
     7
1000
_OPEN
1070
     6
1000
_OPEN
1070
    41
1040
3.0
1002
}
  0
DIMENSION
  5
4BF
330
1A
100
AcDbEntity
  8
SUNPOU
100
AcDbDimension
  2
*D6
 10
272.9557126836068
 20
92.93030267597687
 30
0.0
 11
266.9211610268636
 21
114.749628178039
 31
0.0
 70
    32
  3
STANDARD
100
AcDbAlignedDimension
 13
299.5090580771073
 23
152.0168310355874
 33
0.0
 14
316.220506458607
 24
110.2349855850566
 34
0.0
 50
111.7999999999998
100
AcDbRotatedDimension
1001
ACAD
1000
DSTYLE
1002
{
1070
   140
1040
3.0
1070
    74
1070
     0
1070
   172
1070
     1
1070
    73
1070
     0
1070
   272
1070
     2
1070
    77
1070
     3
1070
   173
1070
     1
1070
   147
1040
1.0
1070
    42
1040
3.0
1070
    44
1040
1.5
1070
    43
1040
7.0
1070
   271
1070
     0
1070
   178
1070
     4
1070
   177
1070
     4
1070
   176
1070
     4
1070
   141
1040
150.0
1070
     7
1000
_OPEN
1070
     6
1000
_OPEN
1070
    41
1040
3.0
1002
}
  0
DIMENSION
  5
4C0
330
1A
100
AcDbEntity
  8
SUNPOU
  6
CONTINUOUS
100
AcDbDimension
  2
*D7
 10
269.0695888584392
 20
163.4950451699051
 30
0.0
 11
295.9957156783666
 21
176.9572609105174
 31
0.0
 70
    33
  3
STANDARD
100
AcDbAlignedDimension
 13
335.5340494250687
 23
158.886646011299
 33
0.0
 14
279.8249598452982
 24
136.6046449595193
 34
0.0
1001
ACAD
1000
DSTYLE
1002
{
1070
   140
1040
3.0
1070
    74
1070
     0
1070
   172
1070
     1
1070
    73
1070
     0
1070
   272
1070
     2
1070
    77
1070
     3
1070
   173
1070
     1
1070
   147
1040
1.0
1070
    42
1040
3.0
1070
    44
1040
1.5
1070
    43
1040
7.0
1070
   271
1070
     0
1070
   178
1070
     4
1070
   177
1070
     4
1070
   176
1070
     4
1070
   141
1040
150.0
1070
     7
1000
_OPEN
1070
     6
1000
_OPEN
1070
    41
1040
3.0
1002
}
  0
DIMENSION
  5
4C1
330
1A
100
AcDbEntity
  8
SUNPOU
  6
CONTINUOUS
100
AcDbDimension
  2
*D8
 10
277.5194581832948
 20
155.832435347307
 30
0.0
 11
299.8031971968727
 21
167.4378329205439
 31
0.0
 70
    33
  3
STANDARD
100
AcDbAlignedDimension
 13
330.8916495575019
 23
157.0298338892476
 33
0.0
 14
284.4673354655049
 24
138.4614691222522
 34
0.0
1001
ACAD
1000
DSTYLE
1002
{
1070
   140
1040
3.0
1070
    74
1070
     0
1070
   172
1070
     1
1070
    73
1070
     0
1070
   272
1070
     2
1070
    77
1070
     3
1070
   173
1070
     1
1070
   147
1040
1.0
1070
    42
1040
3.0
1070
    44
1040
1.5
1070
    43
1040
7.0
1070
   271
1070
     0
1070
   178
1070
     4
1070
   177
1070
     4
1070
   176
1070
     4
1070
   141
1040
150.0
1070
     7
1000
_OPEN
1070
     6
1000
_OPEN
1070
    41
1040
3.0
1002
}
  0
LINE
  5
4C2
330
1A
100
AcDbEntity
  8
CENTER_L
  6
CENTER
 62
     1
 48
5.0
100
AcDbLine
 10
302.8159030247046
 20
159.9055970150795
 30
0.0
 11
323.6483422024558
 21
107.8207678806749
 31
0.0
  0
LINE
  5
4C3
330
1A
100
AcDbEntity
  8
SEIHIN
  6
CONTINUOUS
 62
     3
 48
16.0
100
AcDbLine
 10
326.9910422024556
 20
115.6198678806749
 30
0.0
 11
311.0222030247045
 21
155.5447970150794
 31
0.0
  0
TEXT
  5
4C4
330
1A
100
AcDbEntity
  8
SUNPOU
  6
CONTINUOUS
 62
     4
100
AcDbText
 10
248.253295739327
 20
44.38109515147261
 30
0.0
 40
3.0
  1
4
100
AcDbText
  0
LINE
  5
4C5
330
1A
100
AcDbEntity
  8
SEIHIN
  6
CONTINUOUS
 62
     3
 48
16.0
100
AcDbLine
 10
224.2734554508736
 20
101.0762331575037
 30
0.0
 11
228.0121554508736
 21
91.72883315750377
 31
0.0
  0
LINE
  5
4C6
330
1A
100
AcDbEntity
  8
SEIHIN
  6
CONTINUOUS
 62
     3
 48
16.0
100
AcDbLine
 10
223.7017554508735
 20
117.6649331575037
 30
0.0
 11
239.1560554508736
 21
79.0262331575037
 31
0.0
  0
DIMENSION
  5
4C7
330
1A
100
AcDbEntity
  8
SUNPOU
  6
CONTINUOUS
100
AcDbDimension
  2
*D9
 10
251.7904319601532
 20
84.07959791582536
 30
0.0
 11
245.755908870704
 21
105.8989566345361
 31
0.0
 70
    33
  3
STANDARD
100
AcDbAlignedDimension
 13
222.4445769306157
 23
120.8081194351534
 33
0.0
 14
239.1560554508736
 24
79.0262331575037
 34
0.0
1001
ACAD
1000
DSTYLE
1002
{
1070
   140
1040
3.0
1070
    74
1070
     0
1070
   172
1070
     1
1070
    73
1070
     0
1070
   272
1070
     2
1070
    77
1070
     3
1070
   173
1070
     1
1070
   147
1040
1.0
1070
    42
1040
3.0
1070
    44
1040
1.5
1070
    43
1040
7.0
1070
   271
1070
     0
1070
   178
1070
     4
1070
   177
1070
     4
1070
   176
1070
     4
1070
   141
1040
150.0
1070
     7
1000
_OPEN
1070
     6
1000
_OPEN
1070
    41
1040
3.0
1002
}
  0
LINE
  5
4C8
330
1A
100
AcDbEntity
  8
SEIHIN
  6
CONTINUOUS
 62
     3
 48
16.0
100
AcDbLine
 10
232.4778574046578
 20
92.49162827269209
 30
0.0
 11
238.0418554508735
 21
78.58063315750377
 31
0.0
  0
ARC
  5
4C9
330
1A
100
AcDbEntity
  8
SEIHIN
  6
CONTINUOUS
 62
     3
 48
16.0
100
AcDbCircle
 10
228.9406284230348
 20
92.10014450927408
 30
0.0
 40
0.9999670894521393
100
AcDbArc
 50
201.7972685882302
 51
292.6399965942565
  0
LINE
  5
4CA
330
1A
100
AcDbEntity
  8
SEIHIN
  6
CONTINUOUS
 62
     3
 48
16.0
100
AcDbLine
 10
232.4778574046578
 20
92.49162827269211
 30
0.0
 11
229.3255554508736
 21
91.1771331575037
 31
0.0
  0
DIMENSION
  5
4CB
330
1A
100
AcDbEntity
  8
SUNPOU
  6
CONTINUOUS
100
AcDbDimension
  2
*D10
 10
244.4492110963285
 20
65.79096830075359
 30
0.0
 11
253.7343745389814
 21
72.19688274314373
 31
0.0
 70
    33
  1
t<>
  3
STANDARD
100
AcDbAlignedDimension
 13
238.0418554508734
 23
78.58063315750374
 33
0.0
 14
239.1560554508735
 24
79.02623315750367
 34
0.0
1001
ACAD
1000
DSTYLE
1002
{
1070
   140
1040
3.0
1070
    74
1070
     0
1070
   172
1070
     1
1070
    73
1070
     0
1070
   272
1070
     2
1070
    77
1070
     3
1070
   173
1070
     1
1070
   147
1040
1.0
1070
    42
1040
3.0
1070
    44
1040
1.5
1070
    43
1040
7.0
1070
   271
1070
     1
1070
   178
1070
     4
1070
   177
1070
     4
1070
   176
1070
     4
1070
   141
1040
150.0
1070
     7
1000
_OPEN
1070
     6
1000
_OPEN
1070
    41
1040
3.0
1002
}
  0
LINE
  5
4CC
330
1A
100
AcDbEntity
  8
SUNPOU
  6
CONTINUOUS
 62
     4
 48
16.0
100
AcDbLine
 10
251.3952669280957
 20
48.42771185224843
 30
0.0
 11
240.2701515137593
 21
76.24078033563392
 31
0.0
  0
LINE
  5
4CD
330
1A
100
AcDbEntity
  8
SUNPOU
  6
CONTINUOUS
100
AcDbLine
 10
251.3952669280956
 20
48.42771185224843
 30
0.0
 11
247.3952669280956
 21
48.42771185224843
 31
0.0
  0
TEXT
  5
4CE
330
1A
100
AcDbEntity
  8
SUNPOU
  6
CONTINUOUS
 62
     4
100
AcDbText
 10
242.6805383625841
 20
51.52781544870784
 30
0.0
 40
3.0
  1
10
100
AcDbText
  0
LINE
  5
4CF
330
1A
100
AcDbEntity
  8
SUNPOU
  6
CONTINUOUS
100
AcDbLine
 10
247.3952669280956
 20
48.42771185224843
 30
0.0
 11
247.3952669280956
 21
58.42781250650125
 31
0.0
  0
LINE
  5
4D0
330
1A
100
AcDbEntity
  8
CENTER_L
  6
CENTER
 62
     1
 48
5.0
100
AcDbLine
 10
233.4318554508736
 20
82.12183315750378
 30
0.0
 11
243.7986208235841
 21
86.26825098776544
 31
0.0
  0
LINE
  5
4D1
330
1A
100
AcDbEntity
  8
SEIHIN
  6
CONTINUOUS
 62
     3
 48
16.0
100
AcDbLine
 10
238.0418554508735
 20
78.58063315750377
 30
0.0
 11
239.1560554508736
 21
79.0262331575037
 31
0.0
  0
LINE
  5
4D2
330
1A
100
AcDbEntity
  8
CENTER_L
  6
CENTER
 62
     1
 48
5.0
100
AcDbLine
 10
222.4273554508736
 20
106.7999331575036
 30
0.0
 11
233.7717338982939
 21
111.3373822871582
 31
0.0
  0
LINE
  5
4D3
330
1A
100
AcDbEntity
  8
SEIHIN
  6
CONTINUOUS
 62
     3
 48
16.0
100
AcDbLine
 10
223.9299554508736
 20
113.8631331575037
 30
0.0
 11
228.3863554508736
 21
102.7212331575037
 31
0.0
  0
ARC
  5
4D4
330
1A
100
AcDbEntity
  8
SEIHIN
  6
CONTINUOUS
 62
     3
 48
16.0
100
AcDbCircle
 10
228.2370388196231
 20
109.1262747390696
 30
0.0
 40
3.767170040549268
100
AcDbArc
 50
148.2835997223415
 51
255.3167603849423
  0
LINE
  5
4D5
330
1A
100
AcDbEntity
  8
SEIHIN
  6
CONTINUOUS
 62
     3
 48
16.0
100
AcDbLine
 10
223.1593554508735
 20
100.6306331575036
 30
0.0
 11
218.7028554508735
 21
111.7724331575036
 31
0.0
  0
LINE
  5
4D6
330
1A
100
AcDbEntity
  8
SEIHIN
  6
CONTINUOUS
 62
     3
 48
16.0
100
AcDbLine
 10
229.5005554508734
 20
103.1669331575036
 30
0.0
 11
223.1593554508735
 21
100.6306331575036
 31
0.0
  0
LINE
  5
4D7
330
1A
100
AcDbEntity
  8
SEIHIN
  6
CONTINUOUS
 62
     3
 48
16.0
100
AcDbLine
 10
225.0441554508736
 20
114.3087331575037
 30
0.0
 11
218.7028554508735
 21
111.7724331575036
 31
0.0
  0
ARC
  5
4D8
330
1A
100
AcDbEntity
  8
SEIHIN
  6
CONTINUOUS
 62
     3
 48
16.0
100
AcDbCircle
 10
217.027065104616
 20
113.8081266212751
 30
0.0
 40
2.000006536251957
100
AcDbArc
 50
21.7990261723942
 51
90.00027655844609
  0
LINE
  5
4D9
330
1A
100
AcDbEntity
  8
SEIHIN
  6
CONTINUOUS
 62
     3
 48
16.0
100
AcDbLine
 10
218.8840554508736
 20
114.5508331575037
 30
0.0
 11
219.8170554508736
 21
112.2180331575036
 31
0.0
  0
ARC
  5
4DA
330
1A
100
AcDbEntity
  8
SEIHIN
  6
CONTINUOUS
 62
     3
 48
16.0
100
AcDbCircle
 10
219.0593247294432
 20
115.8081539575903
 30
0.0
 40
4.999979200007757
100
AcDbArc
 50
21.79935509959807
 51
89.99964795687477
  0
LINE
  5
4DB
330
1A
100
AcDbEntity
  8
SEIHIN
  6
CONTINUOUS
 62
     3
 48
16.0
100
AcDbLine
 10
305.2652030247045
 20
137.6252970150795
 30
0.0
 11
292.2664030247045
 21
132.4261970150795
 31
0.0
  0
LINE
  5
4DC
330
1A
100
AcDbEntity
  8
SEIHIN
  6
CONTINUOUS
 62
     3
 48
16.0
100
AcDbLine
 10
285.2098030247046
 20
125.8341970150795
 30
0.0
 11
306.5650030247045
 21
134.3755970150794
 31
0.0
  0
LEADER
  5
4DD
330
1A
100
AcDbEntity
  8
SUNPOU
  6
CONTINUOUS
 62
     4
100
AcDbLeader
  3
STANDARD
 73
     0
 74
     0
 40
3.0
 41
15.59999999999999
 76
     3
 10
285.9661114562348
 20
131.2998462678392
 30
0.0
 10
273.8316996491964
 20
116.2753572394057
 30
0.0
 10
278.474314885959
 20
116.2753572394057
 30
0.0
211
1.0
221
-0.0000000000000003
231
0.0
1001
ACAD
1000
DSTYLE
1002
{
1070
     6
1000
OPEN
1070
    41
1040
3.0
1070
    42
1040
3.0
1070
    43
1040
7.0
1070
    44
1040
1.5
1070
    73
1070
     0
1070
    74
1070
     0
1070
    77
1070
     3
1070
   140
1040
3.0
1070
   141
1040
150.0
1070
   147
1040
1.0
1070
   172
1070
     1
1070
   173
1070
     1
1070
   176
1070
     4
1070
   177
1070
     4
1070
   178
1070
     4
1070
   271
1070
     0
1070
   272
1070
     2
1070
   341
1005
B2
1070
   343
1005
B2
1070
   344
1005
B2
1002
}
  0
LINE
  5
4DE
330
1A
100
AcDbEntity
  8
SEIHIN
  6
CONTINUOUS
 62
     3
 48
16.0
100
AcDbLine
 10
283.9099030247045
 20
126.3912970150795
 30
0.0
 11
280.1963030247046
 21
135.6761970150795
 31
0.0
  0
MTEXT
  5
4DF
330
1A
100
AcDbEntity
  8
SUNPOU
  6
CONTINUOUS
 62
     4
100
AcDbMText
 10
279.474314885959
 20
117.2753572394058
 30
0.0
 40
3.0
 41
0.0
 71
     7
 72
     5
  1
3-φ3.5
1001
ACAD
1000
MTEXTBEGIN
1070
    73
1070
     1
1070
    44
1040
1.0
1070
    74
1070
     0
1000
MTEXTEND
1000
MTEXTBEGIN
1070
    73
1070
     1
1070
    44
1040
1.0
1070
    74
1070
     0
1000
MTEXTEND
1000
MTEXTBEGIN
1070
    73
1070
     1
1070
    44
1040
1.0
1070
    74
1070
     0
1000
MTEXTEND
  0
ARC
  5
4E0
330
1A
100
AcDbEntity
  8
SEIHIN
  6
CONTINUOUS
 62
     3
 48
16.0
100
AcDbCircle
 10
281.1248133699324
 20
136.0475211508493
 30
0.0
 40
1.00000653747867
100
AcDbArc
 50
111.8024734106089
 51
201.7971535670257
  0
LINE
  5
4E1
330
1A
100
AcDbEntity
  8
CENTER_L
  6
CENTER
 62
     1
 48
5.0
100
AcDbLine
 10
284.9502030247045
 20
137.2541970150795
 30
0.0
 11
288.4591030247046
 21
128.4811970150795
 31
0.0
  0
ARC
  5
4E2
330
1A
100
AcDbEntity
  8
SEIHIN
  6
CONTINUOUS
 62
     3
 48
16.0
100
AcDbCircle
 10
284.8384030247046
 20
126.7626970150795
 30
0.0
 40
1.000025104684966
100
AcDbArc
 50
201.8014094863535
 51
291.8014094863548
  0
ARC
  5
4E3
330
1A
100
AcDbEntity
  8
SEIHIN
  6
CONTINUOUS
 62
     3
 48
16.0
100
AcDbCircle
 10
291.3379426803891
 20
134.7474228795817
 30
0.0
 40
2.500025624868653
100
AcDbArc
 50
201.7999200107535
 51
291.8007710877349
  0
LINE
  5
4E4
330
1A
100
AcDbEntity
  8
CENTER_L
  6
CENTER
 62
     1
 48
5.0
100
AcDbLine
 10
283.1490030247046
 20
131.4720970150795
 30
0.0
 11
292.8190030247047
 21
135.3397970150794
 31
0.0
  0
ARC
  5
4E5
330
1A
100
AcDbEntity
  8
SEIHIN
  6
CONTINUOUS
 62
     3
 48
16.0
100
AcDbCircle
 10
291.3379875057149
 20
134.7473608059609
 30
0.0
 40
2.5000441936094
100
AcDbArc
 50
111.8011966428166
 51
201.7982176426233
  0
ARC
  5
4E6
330
1A
100
AcDbEntity
  8
SEIHIN
  6
CONTINUOUS
 62
     3
 48
16.0
100
AcDbCircle
 10
286.6955030247046
 20
132.8905970150794
 30
0.0
 40
1.75
100
AcDbArc
 50
359.9999999999999
 51
179.9999999999999
  0
ARC
  5
4E7
330
1A
100
AcDbEntity
  8
SEIHIN
  6
CONTINUOUS
 62
     3
 48
16.0
100
AcDbCircle
 10
286.6955030247046
 20
132.8905970150794
 30
0.0
 40
1.75
100
AcDbArc
 50
179.9999999999999
 51
359.9999999999999
  0
LINE
  5
4E8
330
1A
100
AcDbEntity
  8
CENTER_L
  6
CENTER
 62
     1
 48
5.0
100
AcDbLine
 10
316.0413422024556
 20
115.5483678806748
 30
0.0
 11
323.5034422024559
 21
118.5330678806749
 31
0.0
  0
ARC
  5
4E9
330
1A
100
AcDbEntity
  8
SEIHIN
  6
CONTINUOUS
 62
     3
 48
16.0
100
AcDbCircle
 10
319.9346422024556
 20
117.1056678806748
 30
0.0
 40
1.749999999999914
100
AcDbArc
 50
359.9999999999999
 51
179.9999999999999
  0
DIMENSION
  5
4EA
330
1A
100
AcDbEntity
  8
SUNPOU
100
AcDbDimension
  2
*D11
 10
303.4913017629935
 20
105.1436669464446
 30
0.0
 11
304.8841086257786
 21
108.3932713892567
 31
0.0
 70
    32
  3
STANDARD
100
AcDbAlignedDimension
 13
316.0413422024556
 23
115.5483678806748
 33
0.0
 14
316.220506458607
 24
110.2349855850566
 34
0.0
 50
111.7999999999998
100
AcDbRotatedDimension
1001
ACAD
1000
DSTYLE
1002
{
1070
   140
1040
3.0
1070
    74
1070
     0
1070
   172
1070
     1
1070
    73
1070
     0
1070
   272
1070
     2
1070
    77
1070
     3
1070
   173
1070
     1
1070
   147
1040
1.0
1070
    42
1040
3.0
1070
    44
1040
1.5
1070
    43
1040
7.0
1070
   271
1070
     0
1070
   178
1070
     4
1070
   177
1070
     4
1070
   176
1070
     4
1070
   141
1040
150.0
1070
     7
1000
_OPEN
1070
     6
1000
_OPEN
1070
    41
1040
3.0
1002
}
  0
LINE
  5
4EB
330
1A
100
AcDbEntity
  8
SEIHIN
  6
CONTINUOUS
 62
     3
 48
16.0
100
AcDbLine
 10
326.4339422024558
 20
114.3200678806748
 30
0.0
 11
321.7914422024558
 21
112.4631678806749
 31
0.0
  0
LINE
  5
4EC
330
1A
100
AcDbEntity
  8
SEIHIN
  6
CONTINUOUS
 62
     3
 48
16.0
100
AcDbLine
 10
317.1490422024556
 20
110.6063678806748
 30
0.0
 11
321.7914422024558
 21
112.4631678806749
 31
0.0
  0
ARC
  5
4ED
330
1A
100
AcDbEntity
  8
SEIHIN
  6
CONTINUOUS
 62
     3
 48
16.0
100
AcDbCircle
 10
316.7776422024558
 20
111.5348678806748
 30
0.0
 40
1.000025104684821
100
AcDbArc
 50
201.8014094863458
 51
291.8014094863461
  0
ARC
  5
4EE
330
1A
100
AcDbEntity
  8
SEIHIN
  6
CONTINUOUS
 62
     3
 48
16.0
100
AcDbCircle
 10
319.9346422024556
 20
117.1056678806748
 30
0.0
 40
1.749999999999914
100
AcDbArc
 50
179.9999999999999
 51
359.9999999999999
  0
ARC
  5
4EF
330
1A
100
AcDbEntity
  8
SEIHIN
  6
CONTINUOUS
 62
     3
 48
16.0
100
AcDbCircle
 10
326.0625680636922
 20
115.248528226655
 30
0.0
 40
0.9999786822728623
100
AcDbArc
 50
291.8008775168202
 51
21.79874946082991
  0
ARC
  5
4F0
330
1A
100
AcDbEntity
  8
SEIHIN
  6
CONTINUOUS
 62
     3
 48
16.0
100
AcDbCircle
 10
314.2072030247045
 20
131.4251970150795
 30
0.0
 40
3.000038176423814
100
AcDbArc
 50
291.7996362490559
 51
21.7996362490554
  0
ARC
  5
4F1
330
1A
100
AcDbEntity
  8
SEIHIN
  6
CONTINUOUS
 62
     3
 48
16.0
100
AcDbCircle
 10
314.2072633698627
 20
131.4251711511001
 30
0.0
 40
2.999991752488617
100
AcDbArc
 50
201.7994588589235
 51
291.7987495969359
  0
LINE
  5
4F2
330
1A
100
AcDbEntity
  8
SEIHIN
  6
CONTINUOUS
 62
     3
 48
16.0
100
AcDbLine
 10
309.5362030247046
 20
137.7180970150795
 30
0.0
 11
311.3932030247046
 21
138.4607970150793
 31
0.0
  0
LINE
  5
4F3
330
1A
100
AcDbEntity
  8
SEIHIN
  6
CONTINUOUS
 62
     3
 48
16.0
100
AcDbLine
 10
313.2501030247046
 20
139.2034970150794
 30
0.0
 11
311.3932030247046
 21
138.4607970150793
 31
0.0
  0
ARC
  5
4F4
330
1A
100
AcDbEntity
  8
SEIHIN
  6
CONTINUOUS
 62
     3
 48
16.0
100
AcDbCircle
 10
333.1198030247045
 20
151.4588970150794
 30
0.0
 40
1.75
100
AcDbArc
 50
179.9999999999999
 51
359.9999999999999
  0
ARC
  5
4F5
330
1A
100
AcDbEntity
  8
SEIHIN
  6
CONTINUOUS
 62
     3
 48
16.0
100
AcDbCircle
 10
333.1198030247045
 20
151.4588970150794
 30
0.0
 40
1.75
100
AcDbArc
 50
359.9999999999999
 51
179.9999999999999
  0
LINE
  5
4F6
330
1A
100
AcDbEntity
  8
CENTER_L
  6
CENTER
 62
     1
 48
5.0
100
AcDbLine
 10
336.6664030247044
 20
152.8773970150794
 30
0.0
 11
327.1044030247046
 21
149.0529970150795
 31
0.0
  0
LINE
  5
4F7
330
1A
100
AcDbEntity
  8
SEIHIN
  6
CONTINUOUS
 62
     3
 48
16.0
100
AcDbLine
 10
334.6056030247047
 20
158.5152970150795
 30
0.0
 11
313.2504030247044
 21
149.9738970150794
 31
0.0
  0
LINE
  5
4F8
330
1A
100
AcDbEntity
  8
CENTER_L
  6
CENTER
 62
     1
 48
5.0
100
AcDbLine
 10
331.3745030247045
 20
155.8225970150794
 30
0.0
 11
334.8834030247045
 21
147.0495970150795
 31
0.0
  0
LINE
  5
4F9
330
1A
100
AcDbEntity
  8
CENTER_L
  6
CENTER
 62
     1
 48
5.0
100
AcDbLine
 10
227.2724554508736
 20
233.9823331575036
 30
0.0
 11
227.2724554508736
 21
225.1708331575037
 31
0.0
  0
LINE
  5
4FA
330
1A
100
AcDbEntity
  8
SEIHIN
  6
CONTINUOUS
 62
     3
 48
16.0
100
AcDbLine
 10
223.9300554508736
 20
235.8080331575037
 30
0.0
 11
223.9300554508736
 21
214.5579995516832
 31
0.0
  0
LINE
  5
4FB
330
1A
100
AcDbEntity
  8
SEIHIN
  6
CONTINUOUS
 62
     3
 48
16.0
100
AcDbLine
 10
229.5006554508734
 20
235.8080331575037
 30
0.0
 11
229.5006554508734
 21
213.3580995516831
 31
0.0
  0
LINE
  5
4FC
330
1A
100
AcDbEntity
  8
SEIHIN
  6
CONTINUOUS
 62
     3
 48
16.0
100
AcDbLine
 10
225.0442554508736
 20
235.8080331575037
 30
0.0
 11
225.0442554508736
 21
213.3580995516831
 31
0.0
  0
DIMENSION
  5
4FD
330
1A
100
AcDbEntity
  8
SUNPOU
  6
CONTINUOUS
100
AcDbDimension
  2
*D12
 10
254.317207232877
 20
175.8081331575036
 30
0.0
 11
251.817207232877
 21
205.8080831575037
 31
0.0
 70
    32
  3
STANDARD
100
AcDbAlignedDimension
 13
229.5006554508734
 23
235.8080331575037
 33
0.0
 14
229.5005554508734
 24
175.8081331575036
 34
0.0
 50
90.0
100
AcDbRotatedDimension
1001
ACAD
1000
DSTYLE
1002
{
1070
   140
1040
3.0
1070
    74
1070
     0
1070
   172
1070
     1
1070
    73
1070
     0
1070
   272
1070
     2
1070
    77
1070
     3
1070
   173
1070
     1
1070
   147
1040
1.0
1070
    42
1040
3.0
1070
    44
1040
1.5
1070
    43
1040
7.0
1070
   271
1070
     0
1070
   178
1070
     4
1070
   177
1070
     4
1070
   176
1070
     4
1070
   141
1040
150.0
1070
     7
1000
_OPEN
1070
     6
1000
_OPEN
1070
    41
1040
3.0
1002
}
  0
LINE
  5
4FE
330
1A
100
AcDbEntity
  8
SEIHIN
  6
CONTINUOUS
 62
     3
 48
16.0
100
AcDbLine
 10
223.9299554508736
 20
175.8081331575036
 30
0.0
 11
223.9300488732622
 21
197.0617265586587
 31
0.0
  0
LINE
  5
4FF
330
1A
100
AcDbEntity
  8
SEIHIN
  6
CONTINUOUS
 62
     3
 48
16.0
100
AcDbLine
 10
229.5005554508734
 20
175.8081331575036
 30
0.0
 11
229.5006492024454
 21
198.261634635413
 31
0.0
  0
LINE
  5
500
330
1A
100
AcDbEntity
  8
SEIHIN
  6
CONTINUOUS
 62
     3
 48
16.0
100
AcDbLine
 10
225.0441554508736
 20
175.8081331575036
 30
0.0
 11
225.0441554508736
 21
198.2580995516829
 31
0.0
  0
LINE
  5
501
330
1A
100
AcDbEntity
  8
SEIHIN
  6
CONTINUOUS
 62
     3
 48
16.0
100
AcDbLine
 10
229.5005554508734
 20
175.8081331575036
 30
0.0
 11
223.9299554508736
 21
175.8081331575036
 31
0.0
  0
LINE
  5
502
330
1A
100
AcDbEntity
  8
CENTER_L
  6
CENTER
 62
     1
 48
5.0
100
AcDbLine
 10
232.1553554508736
 20
180.8081331575037
 30
0.0
 11
221.0755554508736
 21
180.8081331575037
 31
0.0
  0
ARC
  5
503
330
1A
100
AcDbEntity
  8
SEIHIN
  6
CONTINUOUS
100
AcDbCircle
 10
224.1275356134849
 20
180.8081340431876
 30
0.0
 40
2.680741098157723
100
AcDbArc
 50
344.870793689617
 51
15.12918670093857
  0
ARC
  5
504
330
1A
100
AcDbEntity
  8
SEIHIN
  6
CONTINUOUS
100
AcDbCircle
 10
225.2417233574747
 20
180.8081331575058
 30
0.0
 40
2.680741098157723
100
AcDbArc
 50
319.2466114189568
 51
40.75338858097591
  0
ARC
  5
505
330
1A
100
AcDbEntity
  8
SEIHIN
  6
CONTINUOUS
100
AcDbCircle
 10
229.3031875442725
 20
180.8081331575058
 30
0.0
 40
2.680741098157723
100
AcDbArc
 50
139.246611419024
 51
220.753388581043
  0
LINE
  5
506
330
1A
100
AcDbEntity
  8
CENTER_L
  6
CENTER
 62
     1
 48
5.0
100
AcDbLine
 10
227.2724554508736
 20
175.8164331575037
 30
0.0
 11
227.2724554508736
 21
186.0084331575037
 31
0.0
  0
ARC
  5
507
330
1A
100
AcDbEntity
  8
SEIHIN
  6
CONTINUOUS
 62
     3
 48
16.0
100
AcDbCircle
 10
228.4931375618533
 20
206.7784805502931
 30
0.0
 40
3.61546601571246
100
AcDbArc
 50
344.4316389860807
 51
56.926389367025
  0
ARC
  5
508
330
1A
100
AcDbEntity
  8
SEIHIN
  6
CONTINUOUS
 62
     3
 48
16.0
100
AcDbCircle
 10
228.0929621129977
 20
206.5463461111733
 30
0.0
 40
3.559400056195171
100
AcDbArc
 50
113.5965622146118
 51
191.9699200674006
  0
LINE
  5
509
330
1A
100
AcDbEntity
  8
SEIHIN
100
AcDbLine
 10
222.4445769306157
 20
200.2581222527229
 30
0.0
 11
222.4445769306157
 21
211.3581222527218
 31
0.0
  0
LINE
  5
50A
330
1A
100
AcDbEntity
  8
SEIHIN
  6
CONTINUOUS
 62
     3
 48
16.0
100
AcDbLine
 10
222.9300431299668
 20
198.0582988142085
 30
0.0
 11
216.6149431298158
 21
198.0582088541132
 31
0.0
  0
ARC
  5
50B
330
1A
100
AcDbEntity
  8
SEIHIN
  6
CONTINUOUS
 62
     3
 48
16.0
100
AcDbCircle
 10
216.6149554508734
 20
199.058099551683
 30
0.0
 40
1.000000000000028
100
AcDbArc
 50
180.0000000000081
 51
270.0000000000081
  0
LINE
  5
50C
330
1A
100
AcDbEntity
  8
SEIHIN
  6
CONTINUOUS
 62
     3
 48
16.0
100
AcDbLine
 10
215.6149554508734
 20
199.0580995516829
 30
0.0
 11
215.6149554508734
 21
199.2580995516829
 31
0.0
  0
ARC
  5
50D
330
1A
100
AcDbEntity
  8
SEIHIN
  6
CONTINUOUS
 62
     3
 48
16.0
100
AcDbCircle
 10
228.5006554508734
 20
198.2580995516829
 30
0.0
 40
1.000000000000056
100
AcDbArc
 50
359.9999999999967
 51
89.99999999999674
  0
ARC
  5
50E
330
1A
100
AcDbEntity
  8
SEIHIN
  6
CONTINUOUS
 62
     3
 48
16.0
100
AcDbCircle
 10
224.0441554508735
 20
198.2580995516829
 30
0.0
 40
1.000000000000056
100
AcDbArc
 50
359.9999999999967
 51
89.99999999999674
  0
ARC
  5
50F
330
1A
100
AcDbEntity
  8
SEIHIN
  6
CONTINUOUS
 62
     3
 48
16.0
100
AcDbCircle
 10
222.9300554508736
 20
197.0580995516829
 30
0.0
 40
1.000000000000056
100
AcDbArc
 50
359.9999999999967
 51
89.99999999999674
  0
ARC
  5
510
330
1A
100
AcDbEntity
  8
SEIHIN
  6
CONTINUOUS
 62
     3
 48
16.0
100
AcDbCircle
 10
228.0929952793884
 20
205.0698557169948
 30
0.0
 40
3.559445876330672
100
AcDbArc
 50
168.0291751939445
 51
246.4031773784447
  0
LINE
  5
511
330
1A
100
AcDbEntity
  8
SEIHIN
100
AcDbLine
 10
228.6248930404444
 20
203.8081446560424
 30
0.0
 11
228.6248930404444
 21
207.8081446560436
 31
0.0
  0
LINE
  5
512
330
1A
100
AcDbEntity
  8
SEIHIN
100
AcDbLine
 10
226.0253262198819
 20
203.8081467224706
 30
0.0
 11
226.025326219882
 21
207.8081467224719
 31
0.0
  0
ARC
  5
513
330
1A
100
AcDbEntity
  8
SEIHIN
  6
CONTINUOUS
 62
     3
 48
16.0
100
AcDbCircle
 10
228.4931625860934
 20
204.8377520610375
 30
0.0
 40
3.615424116908353
100
AcDbArc
 50
303.0735697948563
 51
15.56745535919487
  0
LINE
  5
514
330
1A
100
AcDbEntity
  8
SEIHIN
  6
CONTINUOUS
 62
     3
 48
16.0
100
AcDbLine
 10
230.4661554508736
 20
201.8081331575037
 30
0.0
 11
226.6681554508734
 21
201.8081331575037
 31
0.0
  0
LINE
  5
515
330
1A
100
AcDbEntity
  8
SEIHIN
  6
CONTINUOUS
 62
     3
 48
5.0
100
AcDbLine
 10
228.6248930404444
 20
203.8081446560424
 30
0.0
 11
226.025326219882
 21
203.8081467224707
 31
0.0
  0
LINE
  5
516
330
1A
100
AcDbEntity
  8
SEIHIN
  6
CONTINUOUS
 62
     3
 48
16.0
100
AcDbLine
 10
230.4661554508736
 20
209.8081331575037
 30
0.0
 11
226.6682554508736
 21
209.8081331575037
 31
0.0
  0
LINE
  5
517
330
1A
100
AcDbEntity
  8
SEIHIN
  6
CONTINUOUS
 62
     3
 48
5.0
100
AcDbLine
 10
228.6248930404444
 20
207.8081446560436
 30
0.0
 11
226.025326219882
 21
207.8081467224719
 31
0.0
  0
LINE
  5
518
330
1A
100
AcDbEntity
  8
SEIHIN
  6
CONTINUOUS
 62
     3
 48
16.0
100
AcDbLine
 10
222.9300554508736
 20
213.5579995516831
 30
0.0
 11
216.6149554508736
 21
213.5580995516831
 31
0.0
  0
LINE
  5
519
330
1A
100
AcDbEntity
  8
SEIHIN
  6
CONTINUOUS
 62
     3
 48
16.0
100
AcDbLine
 10
215.6149554508734
 20
212.558099551683
 30
0.0
 11
215.6149554508734
 21
212.3580995516831
 31
0.0
  0
ARC
  5
51A
330
1A
100
AcDbEntity
  8
SEIHIN
  6
CONTINUOUS
 62
     3
 48
16.0
100
AcDbCircle
 10
216.6149554508735
 20
212.558099551683
 30
0.0
 40
1.000000000000142
100
AcDbArc
 50
89.99999999999836
 51
179.9999999999983
  0
ARC
  5
51B
330
1A
100
AcDbEntity
  8
SEIHIN
  6
CONTINUOUS
 62
     3
 48
16.0
100
AcDbCircle
 10
224.0442554508736
 20
213.3580995516831
 30
0.0
 40
1.0
100
AcDbArc
 50
270.0
 51
0.0
  0
ARC
  5
51C
330
1A
100
AcDbEntity
  8
SEIHIN
  6
CONTINUOUS
 62
     3
 48
16.0
100
AcDbCircle
 10
222.9300554508736
 20
214.5579995516832
 30
0.0
 40
1.0
100
AcDbArc
 50
270.0
 51
0.0
  0
ARC
  5
51D
330
1A
100
AcDbEntity
  8
SEIHIN
  6
CONTINUOUS
 62
     3
 48
16.0
100
AcDbCircle
 10
228.5006554508735
 20
213.3580995516831
 30
0.0
 40
1.0
100
AcDbArc
 50
270.0
 51
0.0
  0
LINE
  5
51E
330
1A
100
AcDbEntity
  8
CENTER_L
  6
CENTER
 62
     1
 48
5.0
100
AcDbLine
 10
233.1620554508734
 20
230.8080331575038
 30
0.0
 11
220.7591554508736
 21
230.8081331575037
 31
0.0
  0
ARC
  5
51F
330
1A
100
AcDbEntity
  8
SEIHIN
  6
CONTINUOUS
100
AcDbCircle
 10
224.1275356134849
 20
230.8080815288563
 30
0.0
 40
2.680741098157723
100
AcDbArc
 50
344.870793689617
 51
15.12918670093857
  0
ARC
  5
520
330
1A
100
AcDbEntity
  8
SEIHIN
  6
CONTINUOUS
100
AcDbCircle
 10
225.2417233574747
 20
230.8080806431745
 30
0.0
 40
2.680741098157723
100
AcDbArc
 50
319.2466114189568
 51
40.75338858097591
  0
ARC
  5
521
330
1A
100
AcDbEntity
  8
SEIHIN
  6
CONTINUOUS
100
AcDbCircle
 10
229.3031875442725
 20
230.8080806431745
 30
0.0
 40
2.680741098157723
100
AcDbArc
 50
139.246611419024
 51
220.753388581043
  0
LINE
  5
522
330
1A
100
AcDbEntity
  8
SEIHIN
  6
CONTINUOUS
 62
     3
 48
16.0
100
AcDbLine
 10
239.1561554508736
 20
211.8581034457865
 30
0.0
 11
239.1561554508736
 21
205.8080331575038
 31
0.0
  0
LINE
  5
523
330
1A
100
AcDbEntity
  8
CENTER_L
  6
CENTER
 62
     1
 48
5.0
100
AcDbLine
 10
237.2993554508735
 20
201.1379331575037
 30
0.0
 11
237.2993554508735
 21
210.2783331575038
 31
0.0
  0
ARC
  5
524
330
1A
100
AcDbEntity
  8
SEIHIN
  6
CONTINUOUS
100
AcDbCircle
 10
239.3300875442723
 20
205.8081377606059
 30
0.0
 40
2.680741098157723
100
AcDbArc
 50
139.246611419024
 51
220.753388581043
  0
ARC
  5
525
330
1A
100
AcDbEntity
  8
SEIHIN
  6
CONTINUOUS
100
AcDbCircle
 10
235.2686233574746
 20
205.8081377606059
 30
0.0
 40
2.680741098157723
100
AcDbArc
 50
319.2466114189568
 51
40.75338858097591
  0
LINE
  5
526
330
1A
100
AcDbEntity
  8
SEIHIN
  6
CONTINUOUS
 62
     3
 48
16.0
100
AcDbLine
 10
239.1561554508736
 20
199.7581034457869
 30
0.0
 11
239.1561554508736
 21
205.8081331575037
 31
0.0
  0
ARC
  5
527
330
1A
100
AcDbEntity
  8
SEIHIN
  6
CONTINUOUS
 62
     3
 48
16.0
100
AcDbCircle
 10
238.6561554508736
 20
199.7581034457869
 30
0.0
 40
0.5
100
AcDbArc
 50
269.9999335315781
 51
0.0
  0
ARC
  5
528
330
1A
100
AcDbEntity
  8
SEIHIN
  6
CONTINUOUS
100
AcDbCircle
 10
234.1544356134848
 20
205.8081386462877
 30
0.0
 40
2.680741098157723
100
AcDbArc
 50
344.870793689617
 51
15.12918670093857
  0
ARC
  5
529
330
1A
100
AcDbEntity
  8
SEIHIN
  6
CONTINUOUS
 62
     3
 48
16.0
100
AcDbCircle
 10
238.6561554508736
 20
211.8581034457865
 30
0.0
 40
0.5
100
AcDbArc
 50
0.0
 51
89.9999335315784
  0
LINE
  5
52A
330
1A
100
AcDbEntity
  8
SEIHIN
  6
CONTINUOUS
 62
     3
 48
16.0
100
AcDbLine
 10
314.5502030247046
 20
146.7241970150795
 30
0.0
 11
327.5490030247046
 21
151.9232970150795
 31
0.0
  0
ARC
  5
52B
330
1A
100
AcDbEntity
  8
SEIHIN
  6
CONTINUOUS
 62
     3
 48
16.0
100
AcDbCircle
 10
307.1512030247045
 20
149.0663970150794
 30
0.0
 40
3.000038176423883
100
AcDbArc
 50
21.79963624905868
 51
111.7996362490589
  0
ARC
  5
52C
330
1A
100
AcDbEntity
  8
SEIHIN
  6
CONTINUOUS
 62
     3
 48
16.0
100
AcDbCircle
 10
300.8088030247046
 20
151.4596970150794
 30
0.0
 40
0.9999879699275954
100
AcDbArc
 50
111.79608964277
 51
201.7960896427699
  0
ARC
  5
52D
330
1A
100
AcDbEntity
  8
SEIHIN
  6
CONTINUOUS
 62
     3
 48
16.0
100
AcDbCircle
 10
307.1512288883637
 20
149.0664573594909
 30
0.0
 40
2.999991752488644
100
AcDbArc
 50
111.8005228792327
 51
201.8012321412213
  0
LINE
  5
52E
330
1A
100
AcDbEntity
  8
SEIHIN
  6
CONTINUOUS
 62
     3
 48
16.0
100
AcDbLine
 10
306.9366030247046
 20
144.2174970150795
 30
0.0
 11
308.7936030247046
 21
144.9601970150795
 31
0.0
  0
LINE
  5
52F
330
1A
100
AcDbEntity
  8
SEIHIN
  6
CONTINUOUS
 62
     3
 48
16.0
100
AcDbLine
 10
310.6506030247046
 20
145.7028970150796
 30
0.0
 11
308.7936030247046
 21
144.9601970150795
 31
0.0
  0
LINE
  5
530
330
1A
100
AcDbEntity
  8
SEIHIN
  6
CONTINUOUS
 62
     3
 48
16.0
100
AcDbLine
 10
309.7224030247045
 20
156.1018970150795
 30
0.0
 11
305.0799030247046
 21
154.2450970150795
 31
0.0
  0
LINE
  5
531
330
1A
100
AcDbEntity
  8
SEIHIN
  6
CONTINUOUS
 62
     3
 48
16.0
100
AcDbLine
 10
300.4375030247046
 20
152.3881970150794
 30
0.0
 11
305.0799030247046
 21
154.2450970150795
 31
0.0
  0
ARC
  5
532
330
1A
100
AcDbEntity
  8
SEIHIN
  6
CONTINUOUS
 62
     3
 48
16.0
100
AcDbCircle
 10
310.0937271604743
 20
155.1733866698518
 30
0.0
 40
1.000006537478687
100
AcDbArc
 50
21.80247341060403
 51
111.7971535670226
  0
ARC
  5
533
330
1A
100
AcDbEntity
  8
SEIHIN
  6
CONTINUOUS
 62
     3
 48
16.0
100
AcDbCircle
 10
328.4774030247046
 20
149.6020970150794
 30
0.0
 40
2.499979199913488
100
AcDbArc
 50
21.79970714272234
 51
111.7997071427222
  0
LINE
  5
534
330
1A
100
AcDbEntity
  8
SEIHIN
  6
CONTINUOUS
 62
     3
 48
16.0
100
AcDbLine
 10
316.4070030247046
 20
142.0816970150795
 30
0.0
 11
329.4058030247046
 21
147.2808970150795
 31
0.0
  0
ARC
  5
535
330
1A
100
AcDbEntity
  8
SEIHIN
  6
CONTINUOUS
 62
     3
 48
16.0
100
AcDbCircle
 10
328.4774030247047
 20
149.6020970150794
 30
0.0
 40
2.499979199913408
100
AcDbArc
 50
291.7997071427222
 51
21.79970714272306
  0
LINE
  5
536
330
1A
100
AcDbEntity
  8
SEIHIN
  6
CONTINUOUS
 62
     3
 48
16.0
100
AcDbLine
 10
229.5006554508734
 20
235.8080331575037
 30
0.0
 11
223.9300554508736
 21
235.8080331575037
 31
0.0
  0
LINE
  5
537
330
1A
100
AcDbEntity
  8
SEIHIN
  6
CONTINUOUS
 62
     3
 48
16.0
100
AcDbLine
 10
339.6191030247045
 20
148.6732970150795
 30
0.0
 11
335.9054030247047
 21
157.9581970150795
 31
0.0
  0
ARC
  5
538
330
1A
100
AcDbEntity
  8
SEIHIN
  6
CONTINUOUS
 62
     3
 48
16.0
100
AcDbCircle
 10
338.6905926794768
 20
148.3019728793096
 30
0.0
 40
1.000006537478665
100
AcDbArc
 50
291.8024734106055
 51
21.7971535670248
  0
ARC
  5
539
330
1A
100
AcDbEntity
  8
SEIHIN
  6
CONTINUOUS
 62
     3
 48
16.0
100
AcDbCircle
 10
334.9769030247046
 20
157.5868970150794
 30
0.0
 40
0.9999879699276851
100
AcDbArc
 50
21.79608964276963
 51
111.7960896427667
  0
LWPOLYLINE
  5
78F
330
1A
100
AcDbEntity
  8
ZUWAKU
100
AcDbPolyline
 90
        4
 70
     1
 43
0.0
 10
0.4000000874406169
 20
275.3999997546114
 10
0.4000000874406169
 20
0.3999997546114287
 10
398.4000000874406
 20
0.3999997546114287
 10
398.4000000874406
 20
275.3999997546114
  0
LWPOLYLINE
  5
790
330
1A
100
AcDbEntity
  8
ZUWAKU
100
AcDbPolyline
 90
        4
 70
     1
 43
0.0
 10
0.2000000874406282
 20
275.5999997546114
 10
0.2000000874406282
 20
0.19999975461144
 10
398.6000000874406
 20
0.1999997546114285
 10
398.6000000874406
 20
275.5999997546114
  0
LWPOLYLINE
  5
791
330
1A
100
AcDbEntity
  8
ZUWAKU
100
AcDbPolyline
 90
        4
 70
     1
 43
0.0
 10
0.0000000874406396
 20
275.7999997546114
 10
0.0000000874406396
 20
-0.0000002453886054
 10
398.8000000874407
 20
-0.0000002453885717
 10
398.8000000874407
 20
275.7999997546114
  0
LWPOLYLINE
  5
792
330
1A
100
AcDbEntity
  8
ZUWAKU
100
AcDbPolyline
 90
        4
 70
     1
 43
0.0
 10
0.3000000874405941
 20
275.4999997546114
 10
0.3000000874405941
 20
0.2999997546114059
 10
398.5000000874407
 20
0.299999754611429
 10
398.5000000874406
 20
275.4999997546114
  0
LWPOLYLINE
  5
793
330
1A
100
AcDbEntity
  8
ZUWAKU
100
AcDbPolyline
 90
        4
 70
     1
 43
0.0
 10
0.1000000874406055
 20
275.6999997546114
 10
0.1000000874406055
 20
0.0999997546114173
 10
398.7000000874406
 20
0.0999997546114289
 10
398.7000000874406
 20
275.6999997546114
  0
LINE
  5
794
330
1A
100
AcDbEntity
  8
ZUWAKU
100
AcDbLine
 10
0.0000000874406396
 20
14.99999975461139
 30
0.0
 11
398.7000000874406
 21
14.99999975461139
 31
0.0
  0
LINE
  5
795
330
1A
100
AcDbEntity
  8
ZUWAKU
100
AcDbLine
 10
0.0000000874406396
 20
15.09999975461139
 30
0.0
 11
398.7000000874406
 21
15.09999975461139
 31
0.0
  0
LINE
  5
796
330
1A
100
AcDbEntity
  8
ZUWAKU
100
AcDbLine
 10
0.0000000874406396
 20
15.19999975461139
 30
0.0
 11
398.7000000874406
 21
15.19999975461139
 31
0.0
  0
LINE
  5
797
330
1A
100
AcDbEntity
  8
ZUWAKU
100
AcDbLine
 10
0.0000000874406396
 20
15.29999975461139
 30
0.0
 11
398.7000000874406
 21
15.29999975461139
 31
0.0
  0
LINE
  5
798
330
1A
100
AcDbEntity
  8
ZUWAKU
100
AcDbLine
 10
0.0000000874406396
 20
15.3999997546114
 30
0.0
 11
398.7000000874406
 21
15.3999997546114
 31
0.0
  0
LINE
  5
799
330
1A
100
AcDbEntity
  8
ZUWAKU
100
AcDbLine
 10
104.3233007324746
 20
7.699999754611411
 30
0.0
 11
223.7121820729363
 21
7.699999754611411
 31
0.0
  0
LINE
  5
79A
330
1A
100
AcDbEntity
  8
ZUWAKU
100
AcDbLine
 10
104.3233007324746
 20
7.799999754611411
 30
0.0
 11
223.7121820729363
 21
7.799999754611414
 31
0.0
  0
LINE
  5
79B
330
1A
100
AcDbEntity
  8
ZUWAKU
100
AcDbLine
 10
104.3233007324746
 20
7.599999754611413
 30
0.0
 11
223.7121820729363
 21
7.59999975461141
 31
0.0
  0
CIRCLE
  5
79C
330
1A
100
AcDbEntity
  8
ZUWAKU
100
AcDbCircle
 10
12.99610616483119
 20
7.599999754611395
 30
0.0
 40
0.875
  0
LINE
  5
79D
330
1A
100
AcDbEntity
  8
ZUWAKU
100
AcDbLine
 10
13.43360616483119
 20
3.574999754611397
 30
0.0
 11
12.47110616483121
 21
3.574999754611397
 31
0.0
  0
LINE
  5
79E
330
1A
100
AcDbEntity
  8
ZUWAKU
100
AcDbLine
 10
12.47110616483121
 20
4.974999754611395
 30
0.0
 11
13.43360616483119
 21
4.974999754611395
 31
0.0
  0
LINE
  5
79F
330
1A
100
AcDbEntity
  8
ZUWAKU
100
AcDbLine
 10
13.43360616483119
 20
10.22499975461139
 30
0.0
 11
12.47110616483121
 21
10.22499975461139
 31
0.0
  0
LINE
  5
7A0
330
1A
100
AcDbEntity
  8
ZUWAKU
100
AcDbLine
 10
12.47110616483121
 20
11.62499975461137
 30
0.0
 11
13.43360616483119
 21
11.62499975461139
 31
0.0
  0
HATCH
  5
7A1
330
1A
100
AcDbEntity
  8
ZUWAKU
100
AcDbHatch
 10
0.0
 20
0.0
 30
0.0
210
0.0
220
0.0
230
1.0
  2
ANSI37
 70
     0
 71
     0
 91
        8
 92
        7
 72
     1
 73
     1
 93
       24
 10
7.251131418000568
 20
8.822423995103186
 42
-0.1989123673796348
 10
7.046106164831201
 20
9.317398741933711
 42
0.0
 10
7.046106164831201
 20
9.9624997546114
 42
-0.4142135623730912
 10
7.308606164831189
 20
10.22499975461139
 42
0.0
 10
8.796106164831144
 20
10.22499975461139
 42
0.4142135623731546
 10
9.058606164831189
 20
10.48749975461139
 42
0.0
 10
9.058606164831189
 20
11.36249975461139
 42
0.4142135623731586
 10
8.796106164831144
 20
11.62499975461139
 42
0.0
 10
7.046106164831201
 20
11.62499975461139
 42
0.4142135623730928
 10
5.646106164831223
 20
10.22499975461141
 42
0.0
 10
5.646106164831223
 20
9.317398741933775
 42
0.1989123673796619
 10
6.261181924339439
 20
7.832474501441971
 42
0.0
 10
7.716080911661777
 20
6.377575514119643
 42
-0.1989123673796613
 10
7.921106164831201
 20
5.88260076728905
 42
0.0
 10
7.921106164831201
 20
5.237499754611391
 42
-0.4142135623730911
 10
7.658606164831212
 20
4.974999754611395
 42
0.0
 10
6.171106164831257
 20
4.974999754611395
 42
0.4142135623731526
 10
5.908606164831212
 20
4.712499754611402
 42
0.0
 10
5.908606164831212
 20
3.837499754611391
 42
0.4142135623731526
 10
6.171106164831257
 20
3.574999754611397
 42
0.0
 10
7.921106164831201
 20
3.574999754611397
 42
0.4142135623731044
 10
9.321106164831235
 20
4.974999754611385
 42
0.0
 10
9.321106164831235
 20
5.882600767289021
 42
0.1989123673796604
 10
8.706030405322962
 20
7.367525007780791
 42
0.0
 97
        0
 92
        7
 72
     1
 73
     1
 93
       16
 10
11.77110616483122
 20
9.5249997546114
 42
-0.4142135623730935
 10
12.47110616483121
 20
10.22499975461139
 42
0.0
 10
13.43360616483119
 20
10.22499975461139
 42
0.4142135623731546
 10
13.69610616483123
 20
10.48749975461139
 42
0.0
 10
13.69610616483123
 20
11.36249975461139
 42
0.4142135623730951
 10
13.43360616483124
 20
11.62499975461139
 42
0.0
 10
12.47110616483115
 20
11.62499975461137
 42
0.4142135623730892
 10
10.37110616483118
 20
9.524999754611364
 42
0.0
 10
10.37110616483118
 20
5.674999754611409
 42
0.4142135623730969
 10
12.47110616483121
 20
3.574999754611397
 42
0.0
 10
13.43360616483119
 20
3.574999754611397
 42
0.4142135623731526
 10
13.69610616483123
 20
3.837499754611391
 42
0.0
 10
13.69610616483123
 20
4.712499754611402
 42
0.4142135623730891
 10
13.43360616483124
 20
4.974999754611395
 42
0.0
 10
12.47110616483121
 20
4.974999754611395
 42
-0.4142135623730928
 10
11.77110616483122
 20
5.674999754611389
 42
0.0
 97
        0
 92
        7
 72
     1
 73
     1
 93
        2
 10
12.12110616483119
 20
7.599999754611395
 42
1.0
 10
13.87110616483119
 20
7.599999754611395
 42
1.0
 97
        0
 92
        7
 72
     1
 73
     1
 93
       26
 10
18.65742940592019
 20
9.602523351393109
 42
0.0
 10
19.1882492224891
 20
11.2834527705279
 42
0.5069206636600134
 10
18.93793377289142
 20
11.62499975461139
 42
0.0
 10
18.08848908308681
 20
11.62499975461139
 42
0.3272098845218764
 10
17.83817363348913
 20
11.44154673869488
 42
0.0
 10
16.90403869617324
 20
8.483452770527936
 42
-0.3272098845219541
 10
16.65372324657551
 20
8.299999754611395
 42
0.0
 10
16.58360616483128
 20
8.299999754611395
 42
-0.4142135623731526
 10
16.32110616483123
 20
8.562499754611389
 42
0.0
 10
16.32110616483123
 20
11.36249975461139
 42
0.4142135623730951
 10
16.05860616483124
 20
11.62499975461139
 42
0.0
 10
15.18360616483119
 20
11.62499975461139
 42
0.4142135623730871
 10
14.9211061648312
 20
11.3624997546114
 42
0.0
 10
14.9211061648312
 20
3.837499754611391
 42
0.4142135623730891
 10
15.18360616483119
 20
3.574999754611397
 42
0.0
 10
16.05860616483119
 20
3.574999754611397
 42
0.4142135623731526
 10
16.32110616483123
 20
3.837499754611391
 42
0.0
 10
16.32110616483123
 20
6.637499754611402
 42
-0.4142135623731526
 10
16.58360616483128
 20
6.899999754611396
 42
0.0
 10
16.65372324657556
 20
6.899999754611396
 42
-0.3272098845218915
 10
16.90403869617324
 20
6.716546738694859
 42
0.0
 10
17.83817363348913
 20
3.758452770527933
 42
0.3272098845218902
 10
18.08848908308681
 20
3.574999754611397
 42
0.0
 10
18.93793377289142
 20
3.574999754611397
 42
0.5069206636600335
 10
19.1882492224891
 20
3.916546738694901
 42
0.0
 10
18.02505353325227
 20
7.599999754611465
 42
0.0
 97
        0
 92
        7
 72
     1
 73
     1
 93
        8
 10
21.74610616483119
 20
11.3624997546114
 42
0.4142135623731546
 10
21.48360616483114
 20
11.62499975461139
 42
0.0
 10
20.60860616483125
 20
11.62499975461139
 42
0.4142135623731507
 10
20.34610616483121
 20
11.3624997546114
 42
0.0
 10
20.34610616483121
 20
3.837499754611391
 42
0.4142135623731526
 10
20.60860616483125
 20
3.574999754611397
 42
0.0
 10
21.48360616483114
 20
3.574999754611397
 42
0.4142135623731526
 10
21.74610616483119
 20
3.837499754611391
 42
0.0
 97
        0
 92
        7
 72
     1
 73
     1
 93
       24
 10
24.19610616483123
 20
9.9624997546114
 42
-0.4142135623731546
 10
24.45860616483128
 20
10.22499975461139
 42
0.0
 10
25.94610616483123
 20
10.22499975461139
 42
0.4142135623730911
 10
26.20860616483122
 20
10.48749975461139
 42
0.0
 10
26.20860616483122
 20
11.36249975461139
 42
0.4142135623730952
 10
25.94610616483123
 20
11.62499975461139
 42
0.0
 10
24.19610616483123
 20
11.62499975461139
 42
0.4142135623731048
 10
22.7961061648312
 20
10.22499975461141
 42
0.0
 10
22.7961061648312
 20
9.317398741933775
 42
0.1989123673796613
 10
23.41118192433947
 20
7.832474501442
 42
0.0
 10
24.86608091166181
 20
6.377575514119666
 42
-0.1989123673796402
 10
25.07110616483123
 20
5.88260076728913
 42
0.0
 10
25.07110616483123
 20
5.237499754611391
 42
-0.4142135623730911
 10
24.80860616483124
 20
4.974999754611395
 42
0.0
 10
23.32110616483123
 20
4.974999754611395
 42
0.4142135623731526
 10
23.05860616483119
 20
4.712499754611402
 42
0.0
 10
23.05860616483119
 20
3.837499754611391
 42
0.4142135623730891
 10
23.32110616483118
 20
3.574999754611397
 42
0.0
 10
25.07110616483123
 20
3.574999754611397
 42
0.4142135623730925
 10
26.47110616483121
 20
4.974999754611385
 42
0.0
 10
26.47110616483121
 20
5.882600767289021
 42
0.1989123673796675
 10
25.85603040532294
 20
7.367525007780848
 42
0.0
 10
24.40113141800066
 20
8.822423995103106
 42
-0.1989123673796652
 10
24.19610616483123
 20
9.31739874193369
 42
0.0
 97
        0
 92
        7
 72
     1
 73
     1
 93
       16
 10
28.9211061648312
 20
11.36249975461139
 42
0.414213562373103
 10
28.65860616483121
 20
11.62499975461139
 42
0.0
 10
27.78360616483121
 20
11.62499975461139
 42
0.4142135623730871
 10
27.52110616483122
 20
11.3624997546114
 42
0.0
 10
27.52110616483122
 20
4.974999754611385
 42
0.4142135623730926
 10
28.9211061648312
 20
3.574999754611397
 42
0.0
 10
30.6711061648312
 20
3.574999754611397
 42
0.4142135623731044
 10
32.07110616483123
 20
4.974999754611385
 42
0.0
 10
32.07110616483123
 20
11.36249975461139
 42
0.4142135623730951
 10
31.80860616483125
 20
11.62499975461139
 42
0.0
 10
30.93360616483119
 20
11.62499975461139
 42
0.4142135623730871
 10
30.6711061648312
 20
11.3624997546114
 42
0.0
 10
30.6711061648312
 20
5.499999754611383
 42
-0.414213562373088
 10
30.14610616483122
 20
4.974999754611395
 42
0.0
 10
29.44610616483123
 20
4.974999754611395
 42
-0.4142135623731197
 10
28.9211061648312
 20
5.499999754611383
 42
0.0
 97
        0
 92
        7
 72
     1
 73
     1
 93
        8
 10
34.52110616483122
 20
11.3624997546114
 42
0.4142135623730871
 10
34.25860616483123
 20
11.62499975461139
 42
0.0
 10
33.38360616483123
 20
11.62499975461139
 42
0.4142135623731507
 10
33.12110616483119
 20
11.3624997546114
 42
0.0
 10
33.12110616483119
 20
3.837499754611391
 42
0.4142135623730891
 10
33.38360616483118
 20
3.574999754611397
 42
0.0
 10
34.25860616483123
 20
3.574999754611397
 42
0.4142135623730891
 10
34.52110616483122
 20
3.837499754611391
 42
0.0
 97
        0
 75
     0
 76
     1
 52
0.0
 41
0.1
 77
     0
 78
     2
 53
45.0
 43
-450.4711520798988
 44
-6.600000245388571
 45
-0.2245064030267288
 46
0.2245064030267288
 79
     0
 53
135.0
 43
-450.4711520798988
 44
-6.600000245388571
 45
-0.2245064030267288
 46
-0.2245064030267288
 79
     0
 47
0.057451373970553
 98
        8
 10
8.039927568952293
 20
7.583586577554171
 10
11.20225759066022
 20
9.4220308458369
 10
12.58218403027046
 20
7.755940577646754
 10
15.4570300782592
 20
8.100648577832146
 10
20.919236096919
 20
8.330454711602953
 10
23.44910053500541
 20
9.709287912815
 10
28.27884307364081
 20
9.364578712158902
 10
33.913539897252
 20
9.59438484592971
  0
ARC
  5
7A2
330
1A
100
AcDbEntity
  8
ZUWAKU
100
AcDbCircle
 10
7.746106164831189
 20
9.317398741933747
 30
0.0
 40
2.099999999999999
100
AcDbArc
 50
180.0
 51
225.0
  0
LINE
  5
7A3
330
1A
100
AcDbEntity
  8
ZUWAKU
100
AcDbLine
 10
10.37110616483118
 20
5.674999754611398
 30
0.0
 11
10.37110616483118
 21
9.524999754611375
 31
0.0
  0
LINE
  5
7A4
330
1A
100
AcDbEntity
  8
ZUWAKU
100
AcDbLine
 10
11.77110616483122
 20
9.524999754611396
 30
0.0
 11
11.77110616483122
 21
5.674999754611398
 31
0.0
  0
ARC
  5
7A5
330
1A
100
AcDbEntity
  8
ZUWAKU
100
AcDbCircle
 10
7.746106164831189
 20
9.317398741933747
 30
0.0
 40
0.7
100
AcDbArc
 50
180.0000000000016
 51
224.9999999999988
  0
ARC
  5
7A6
330
1A
100
AcDbEntity
  8
ZUWAKU
100
AcDbCircle
 10
12.47110616483121
 20
5.674999754611398
 30
0.0
 40
2.099999999999999
100
AcDbArc
 50
180.0
 51
270.0
  0
ARC
  5
7A7
330
1A
100
AcDbEntity
  8
ZUWAKU
100
AcDbCircle
 10
7.921106164831201
 20
4.974999754611395
 30
0.0
 40
1.399999999999999
100
AcDbArc
 50
270.0
 51
0.0
  0
ARC
  5
7A8
330
1A
100
AcDbEntity
  8
ZUWAKU
100
AcDbCircle
 10
7.221106164831212
 20
5.882600767289048
 30
0.0
 40
2.099999999999999
100
AcDbArc
 50
0.0
 51
45.0
  0
LINE
  5
7A9
330
1A
100
AcDbEntity
  8
ZUWAKU
100
AcDbLine
 10
6.261181924339439
 20
7.832474501441986
 30
0.0
 11
7.716080911661777
 21
6.377575514119655
 31
0.0
  0
LINE
  5
7AA
330
1A
100
AcDbEntity
  8
ZUWAKU
100
AcDbLine
 10
6.171106164831201
 20
4.974999754611395
 30
0.0
 11
7.658606164831212
 21
4.974999754611395
 31
0.0
  0
LINE
  5
7AB
330
1A
100
AcDbEntity
  8
ZUWAKU
100
AcDbLine
 10
6.171106164831201
 20
3.574999754611397
 30
0.0
 11
7.921106164831201
 21
3.574999754611397
 31
0.0
  0
ARC
  5
7AC
330
1A
100
AcDbEntity
  8
ZUWAKU
100
AcDbCircle
 10
6.171106164831201
 20
4.712499754611396
 30
0.0
 40
0.2625
100
AcDbArc
 50
90.0
 51
180.0
  0
ARC
  5
7AD
330
1A
100
AcDbEntity
  8
ZUWAKU
100
AcDbCircle
 10
6.171106164831201
 20
3.837499754611396
 30
0.0
 40
0.2625
100
AcDbArc
 50
180.0
 51
270.0
  0
LINE
  5
7AE
330
1A
100
AcDbEntity
  8
ZUWAKU
100
AcDbLine
 10
5.908606164831212
 20
3.837499754611396
 30
0.0
 11
5.908606164831212
 21
4.712499754611396
 31
0.0
  0
ARC
  5
7AF
330
1A
100
AcDbEntity
  8
ZUWAKU
100
AcDbCircle
 10
7.221106164831212
 20
5.882600767289069
 30
0.0
 40
0.7
100
AcDbArc
 50
0.0
 51
45.0
  0
ARC
  5
7B0
330
1A
100
AcDbEntity
  8
ZUWAKU
100
AcDbCircle
 10
7.658606164831212
 20
5.237499754611398
 30
0.0
 40
0.2625
100
AcDbArc
 50
270.0
 51
0.0
  0
LINE
  5
7B1
330
1A
100
AcDbEntity
  8
ZUWAKU
100
AcDbLine
 10
7.921106164831201
 20
5.237499754611398
 30
0.0
 11
7.921106164831201
 21
5.882600767289069
 31
0.0
  0
LINE
  5
7B2
330
1A
100
AcDbEntity
  8
ZUWAKU
100
AcDbLine
 10
8.706030405322962
 20
7.367525007780809
 30
0.0
 11
7.251131418000625
 21
8.822423995103147
 31
0.0
  0
ARC
  5
7B3
330
1A
100
AcDbEntity
  8
ZUWAKU
100
AcDbCircle
 10
12.47110616483121
 20
5.674999754611398
 30
0.0
 40
0.7
100
AcDbArc
 50
180.0
 51
270.0
  0
LINE
  5
7B4
330
1A
100
AcDbEntity
  8
ZUWAKU
100
AcDbLine
 10
9.321106164831235
 20
4.974999754611395
 30
0.0
 11
9.321106164831235
 21
5.882600767289069
 31
0.0
  0
ARC
  5
7B5
330
1A
100
AcDbEntity
  8
ZUWAKU
100
AcDbCircle
 10
8.796106164831201
 20
10.48749975461139
 30
0.0
 40
0.2625
100
AcDbArc
 50
270.0
 51
0.0
  0
ARC
  5
7B6
330
1A
100
AcDbEntity
  8
ZUWAKU
100
AcDbCircle
 10
8.796106164831201
 20
11.36249975461139
 30
0.0
 40
0.2625
100
AcDbArc
 50
0.0
 51
90.0
  0
ARC
  5
7B7
330
1A
100
AcDbEntity
  8
ZUWAKU
100
AcDbCircle
 10
7.046106164831201
 20
10.22499975461139
 30
0.0
 40
1.399999999999999
100
AcDbArc
 50
90.0
 51
180.0
  0
LINE
  5
7B8
330
1A
100
AcDbEntity
  8
ZUWAKU
100
AcDbLine
 10
5.646106164831223
 20
10.22499975461139
 30
0.0
 11
5.646106164831223
 21
9.317398741933725
 31
0.0
  0
LINE
  5
7B9
330
1A
100
AcDbEntity
  8
ZUWAKU
100
AcDbLine
 10
8.796106164831201
 20
10.22499975461139
 30
0.0
 11
7.308606164831189
 21
10.22499975461139
 31
0.0
  0
LINE
  5
7BA
330
1A
100
AcDbEntity
  8
ZUWAKU
100
AcDbLine
 10
7.046106164831201
 20
9.962499754611396
 30
0.0
 11
7.046106164831201
 21
9.317398741933725
 31
0.0
  0
ARC
  5
7BB
330
1A
100
AcDbEntity
  8
ZUWAKU
100
AcDbCircle
 10
7.308606164831189
 20
9.962499754611396
 30
0.0
 40
0.2625
100
AcDbArc
 50
90.0
 51
180.0
  0
LINE
  5
7BC
330
1A
100
AcDbEntity
  8
ZUWAKU
100
AcDbLine
 10
7.046106164831201
 20
11.62499975461139
 30
0.0
 11
8.796106164831201
 21
11.62499975461139
 31
0.0
  0
ARC
  5
7BD
330
1A
100
AcDbEntity
  8
ZUWAKU
100
AcDbCircle
 10
12.47110616483121
 20
9.524999754611375
 30
0.0
 40
2.099999999999999
100
AcDbArc
 50
90.0
 51
180.0
  0
ARC
  5
7BE
330
1A
100
AcDbEntity
  8
ZUWAKU
100
AcDbCircle
 10
12.47110616483121
 20
9.524999754611396
 30
0.0
 40
0.7
100
AcDbArc
 50
90.0
 51
180.0
  0
LINE
  5
7BF
330
1A
100
AcDbEntity
  8
ZUWAKU
100
AcDbLine
 10
9.058606164831189
 20
11.36249975461139
 30
0.0
 11
9.058606164831189
 21
10.48749975461139
 31
0.0
  0
LINE
  5
7C0
330
1A
100
AcDbEntity
  8
ZUWAKU
100
AcDbLine
 10
17.83817363348913
 20
11.44154673869488
 30
0.0
 11
16.90403869617324
 21
8.483452770527911
 31
0.0
  0
LINE
  5
7C1
330
1A
100
AcDbEntity
  8
ZUWAKU
100
AcDbLine
 10
14.9211061648312
 20
11.36249975461139
 30
0.0
 11
14.9211061648312
 21
3.837499754611396
 31
0.0
  0
LINE
  5
7C2
330
1A
100
AcDbEntity
  8
ZUWAKU
100
AcDbLine
 10
16.32110616483123
 20
8.562499754611398
 30
0.0
 11
16.32110616483123
 21
11.36249975461139
 31
0.0
  0
LINE
  5
7C3
330
1A
100
AcDbEntity
  8
ZUWAKU
100
AcDbLine
 10
28.9211061648312
 20
5.499999754611394
 30
0.0
 11
28.9211061648312
 21
11.36249975461139
 31
0.0
  0
LINE
  5
7C4
330
1A
100
AcDbEntity
  8
ZUWAKU
100
AcDbLine
 10
27.52110616483122
 20
11.36249975461139
 30
0.0
 11
27.52110616483122
 21
4.974999754611395
 31
0.0
  0
LINE
  5
7C5
330
1A
100
AcDbEntity
  8
ZUWAKU
100
AcDbLine
 10
21.74610616483119
 20
3.837499754611396
 30
0.0
 11
21.74610616483119
 21
11.36249975461139
 31
0.0
  0
LINE
  5
7C6
330
1A
100
AcDbEntity
  8
ZUWAKU
100
AcDbLine
 10
20.34610616483121
 20
11.36249975461139
 30
0.0
 11
20.34610616483121
 21
3.837499754611396
 31
0.0
  0
LINE
  5
7C7
330
1A
100
AcDbEntity
  8
ZUWAKU
100
AcDbLine
 10
18.65742940592019
 20
9.602523351393109
 30
0.0
 11
18.02505353325227
 21
7.599999754611406
 31
0.0
  0
ARC
  5
7C8
330
1A
100
AcDbEntity
  8
ZUWAKU
100
AcDbCircle
 10
24.89610616483122
 20
9.317398741933747
 30
0.0
 40
2.099999999999999
100
AcDbArc
 50
180.0
 51
225.0
  0
ARC
  5
7C9
330
1A
100
AcDbEntity
  8
ZUWAKU
100
AcDbCircle
 10
24.89610616483122
 20
9.317398741933747
 30
0.0
 40
0.7
100
AcDbArc
 50
180.0000000000016
 51
224.9999999999988
  0
LINE
  5
7CA
330
1A
100
AcDbEntity
  8
ZUWAKU
100
AcDbLine
 10
33.12110616483119
 20
11.36249975461139
 30
0.0
 11
33.12110616483119
 21
3.837499754611396
 31
0.0
  0
LINE
  5
7CB
330
1A
100
AcDbEntity
  8
ZUWAKU
100
AcDbLine
 10
34.52110616483122
 20
3.837499754611396
 30
0.0
 11
34.52110616483122
 21
11.36249975461139
 31
0.0
  0
LINE
  5
7CC
330
1A
100
AcDbEntity
  8
ZUWAKU
100
AcDbLine
 10
30.6711061648312
 20
11.36249975461139
 30
0.0
 11
30.6711061648312
 21
5.499999754611394
 31
0.0
  0
LINE
  5
7CD
330
1A
100
AcDbEntity
  8
ZUWAKU
100
AcDbLine
 10
32.07110616483123
 20
4.974999754611395
 30
0.0
 11
32.07110616483123
 21
11.36249975461139
 31
0.0
  0
LINE
  5
7CE
330
1A
100
AcDbEntity
  8
ZUWAKU
100
AcDbLine
 10
39.56331486143483
 20
14.99999975461139
 30
0.0
 11
39.56331486143483
 21
0.3999997546114287
 31
0.0
  0
LINE
  5
7CF
330
1A
100
AcDbEntity
  8
ZUWAKU
100
AcDbLine
 10
39.76331486143476
 20
14.99999975461139
 30
0.0
 11
39.76331486143488
 21
0.3999997546114287
 31
0.0
  0
LINE
  5
7D0
330
1A
100
AcDbEntity
  8
ZUWAKU
100
AcDbLine
 10
39.66331486143474
 20
14.99999975461139
 30
0.0
 11
39.66331486143485
 21
0.3999997546114287
 31
0.0
  0
TEXT
  5
7D1
330
1A
100
AcDbEntity
  8
MOJI
100
AcDbText
 10
46.47889488152521
 20
6.370588819748775
 30
0.0
 40
3.0
  1
ライナートップ
 41
0.9
  7
ｽﾀｲﾙ1
100
AcDbText
  0
LINE
  5
7D2
330
1A
100
AcDbEntity
  8
ZUWAKU
100
AcDbLine
 10
28.9211061648312
 20
3.574999754611397
 30
0.0
 11
30.6711061648312
 21
3.574999754611397
 31
0.0
  0
LINE
  5
7D3
330
1A
100
AcDbEntity
  8
ZUWAKU
100
AcDbLine
 10
30.14610616483122
 20
4.974999754611395
 30
0.0
 11
29.44610616483123
 21
4.974999754611395
 31
0.0
  0
LINE
  5
7D4
330
1A
100
AcDbEntity
  8
ZUWAKU
100
AcDbLine
 10
20.6086061648312
 20
3.574999754611397
 30
0.0
 11
21.4836061648312
 21
3.574999754611397
 31
0.0
  0
LINE
  5
7D5
330
1A
100
AcDbEntity
  8
ZUWAKU
100
AcDbLine
 10
17.83817363348913
 20
3.75845277052791
 30
0.0
 11
16.90403869617324
 21
6.71654673869488
 31
0.0
  0
ARC
  5
7D6
330
1A
100
AcDbEntity
  8
ZUWAKU
100
AcDbCircle
 10
16.58360616483122
 20
6.637499754611397
 30
0.0
 40
0.2625
100
AcDbArc
 50
90.0
 51
180.0
  0
ARC
  5
7D7
330
1A
100
AcDbEntity
  8
ZUWAKU
100
AcDbCircle
 10
16.65372324657556
 20
6.637499754611397
 30
0.0
 40
0.2625
100
AcDbArc
 50
17.52556837372303
 51
90.0
  0
ARC
  5
7D8
330
1A
100
AcDbEntity
  8
ZUWAKU
100
AcDbCircle
 10
15.18360616483119
 20
3.837499754611396
 30
0.0
 40
0.2625
100
AcDbArc
 50
180.0
 51
270.0
  0
ARC
  5
7D9
330
1A
100
AcDbEntity
  8
ZUWAKU
100
AcDbCircle
 10
13.43360616483119
 20
4.712499754611396
 30
0.0
 40
0.2625
100
AcDbArc
 50
0.0
 51
90.0
  0
ARC
  5
7DA
330
1A
100
AcDbEntity
  8
ZUWAKU
100
AcDbCircle
 10
13.43360616483119
 20
3.837499754611396
 30
0.0
 40
0.2625
100
AcDbArc
 50
270.0
 51
0.0
  0
LINE
  5
7DB
330
1A
100
AcDbEntity
  8
ZUWAKU
100
AcDbLine
 10
13.69610616483123
 20
4.712499754611396
 30
0.0
 11
13.69610616483123
 21
3.837499754611396
 31
0.0
  0
LINE
  5
7DC
330
1A
100
AcDbEntity
  8
ZUWAKU
100
AcDbLine
 10
16.32110616483123
 20
3.837499754611396
 30
0.0
 11
16.32110616483123
 21
6.637499754611397
 31
0.0
  0
ARC
  5
7DD
330
1A
100
AcDbEntity
  8
ZUWAKU
100
AcDbCircle
 10
16.05860616483119
 20
3.837499754611396
 30
0.0
 40
0.2625
100
AcDbArc
 50
270.0
 51
0.0
  0
LINE
  5
7DE
330
1A
100
AcDbEntity
  8
ZUWAKU
100
AcDbLine
 10
15.18360616483119
 20
3.574999754611397
 30
0.0
 11
16.05860616483119
 21
3.574999754611397
 31
0.0
  0
ARC
  5
7DF
330
1A
100
AcDbEntity
  8
ZUWAKU
100
AcDbCircle
 10
16.58360616483122
 20
8.562499754611398
 30
0.0
 40
0.2625
100
AcDbArc
 50
180.0
 51
270.0
  0
LINE
  5
7E0
330
1A
100
AcDbEntity
  8
ZUWAKU
100
AcDbLine
 10
16.58360616483122
 20
6.899999754611396
 30
0.0
 11
16.65372324657556
 21
6.899999754611396
 31
0.0
  0
LINE
  5
7E1
330
1A
100
AcDbEntity
  8
ZUWAKU
100
AcDbLine
 10
16.65372324657556
 20
8.299999754611395
 30
0.0
 11
16.58360616483122
 21
8.299999754611395
 31
0.0
  0
ARC
  5
7E2
330
1A
100
AcDbEntity
  8
ZUWAKU
100
AcDbCircle
 10
16.65372324657556
 20
8.562499754611398
 30
0.0
 40
0.2625
100
AcDbArc
 50
270.0
 51
342.4744316262769
  0
ARC
  5
7E3
330
1A
100
AcDbEntity
  8
ZUWAKU
100
AcDbCircle
 10
18.08848908308687
 20
3.837499754611396
 30
0.0
 40
0.2625
100
AcDbArc
 50
197.525568373723
 51
270.0
  0
LINE
  5
7E4
330
1A
100
AcDbEntity
  8
ZUWAKU
100
AcDbLine
 10
19.1882492224891
 20
3.916546738694883
 30
0.0
 11
18.02505353325227
 21
7.599999754611406
 31
0.0
  0
ARC
  5
7E5
330
1A
100
AcDbEntity
  8
ZUWAKU
100
AcDbCircle
 10
18.93793377289137
 20
3.837499754611396
 30
0.0
 40
0.2625
100
AcDbArc
 50
270.0
 51
17.52556837372303
  0
LINE
  5
7E6
330
1A
100
AcDbEntity
  8
ZUWAKU
100
AcDbLine
 10
18.08848908308687
 20
3.574999754611397
 30
0.0
 11
18.93793377289137
 21
3.574999754611397
 31
0.0
  0
ARC
  5
7E7
330
1A
100
AcDbEntity
  8
ZUWAKU
100
AcDbCircle
 10
20.6086061648312
 20
3.837499754611396
 30
0.0
 40
0.2625
100
AcDbArc
 50
180.0
 51
270.0
  0
ARC
  5
7E8
330
1A
100
AcDbEntity
  8
ZUWAKU
100
AcDbCircle
 10
25.07110616483123
 20
4.974999754611395
 30
0.0
 40
1.399999999999999
100
AcDbArc
 50
270.0
 51
0.0
  0
ARC
  5
7E9
330
1A
100
AcDbEntity
  8
ZUWAKU
100
AcDbCircle
 10
28.9211061648312
 20
4.974999754611395
 30
0.0
 40
1.399999999999999
100
AcDbArc
 50
180.0
 51
270.0
  0
LINE
  5
7EA
330
1A
100
AcDbEntity
  8
ZUWAKU
100
AcDbLine
 10
25.856030405323
 20
7.367525007780809
 30
0.0
 11
24.4011314180006
 21
8.822423995103147
 31
0.0
  0
LINE
  5
7EB
330
1A
100
AcDbEntity
  8
ZUWAKU
100
AcDbLine
 10
23.41118192433947
 20
7.832474501441986
 30
0.0
 11
24.86608091166181
 21
6.377575514119655
 31
0.0
  0
LINE
  5
7EC
330
1A
100
AcDbEntity
  8
ZUWAKU
100
AcDbLine
 10
23.32110616483123
 20
3.574999754611397
 30
0.0
 11
25.07110616483123
 21
3.574999754611397
 31
0.0
  0
LINE
  5
7ED
330
1A
100
AcDbEntity
  8
ZUWAKU
100
AcDbLine
 10
23.32110616483123
 20
4.974999754611395
 30
0.0
 11
24.80860616483119
 21
4.974999754611395
 31
0.0
  0
ARC
  5
7EE
330
1A
100
AcDbEntity
  8
ZUWAKU
100
AcDbCircle
 10
23.32110616483123
 20
4.712499754611396
 30
0.0
 40
0.2625
100
AcDbArc
 50
90.0
 51
180.0
  0
ARC
  5
7EF
330
1A
100
AcDbEntity
  8
ZUWAKU
100
AcDbCircle
 10
21.4836061648312
 20
3.837499754611396
 30
0.0
 40
0.2625
100
AcDbArc
 50
270.0
 51
0.0
  0
ARC
  5
7F0
330
1A
100
AcDbEntity
  8
ZUWAKU
100
AcDbCircle
 10
23.32110616483123
 20
3.837499754611396
 30
0.0
 40
0.2625
100
AcDbArc
 50
180.0
 51
270.0
  0
LINE
  5
7F1
330
1A
100
AcDbEntity
  8
ZUWAKU
100
AcDbLine
 10
23.05860616483119
 20
3.837499754611396
 30
0.0
 11
23.05860616483119
 21
4.712499754611396
 31
0.0
  0
ARC
  5
7F2
330
1A
100
AcDbEntity
  8
ZUWAKU
100
AcDbCircle
 10
24.80860616483119
 20
5.237499754611398
 30
0.0
 40
0.2625
100
AcDbArc
 50
270.0
 51
0.0
  0
ARC
  5
7F3
330
1A
100
AcDbEntity
  8
ZUWAKU
100
AcDbCircle
 10
24.37110616483119
 20
5.882600767289069
 30
0.0
 40
0.7
100
AcDbArc
 50
0.0
 51
45.0
  0
LINE
  5
7F4
330
1A
100
AcDbEntity
  8
ZUWAKU
100
AcDbLine
 10
25.07110616483123
 20
5.237499754611398
 30
0.0
 11
25.07110616483123
 21
5.882600767289069
 31
0.0
  0
ARC
  5
7F5
330
1A
100
AcDbEntity
  8
ZUWAKU
100
AcDbCircle
 10
29.44610616483123
 20
5.499999754611394
 30
0.0
 40
0.525
100
AcDbArc
 50
180.0
 51
270.0
  0
ARC
  5
7F6
330
1A
100
AcDbEntity
  8
ZUWAKU
100
AcDbCircle
 10
24.37110616483119
 20
5.882600767289048
 30
0.0
 40
2.099999999999999
100
AcDbArc
 50
0.0
 51
45.0
  0
LINE
  5
7F7
330
1A
100
AcDbEntity
  8
ZUWAKU
100
AcDbLine
 10
26.47110616483121
 20
4.974999754611395
 30
0.0
 11
26.47110616483121
 21
5.882600767289069
 31
0.0
  0
ARC
  5
7F8
330
1A
100
AcDbEntity
  8
ZUWAKU
100
AcDbCircle
 10
30.6711061648312
 20
4.974999754611395
 30
0.0
 40
1.399999999999999
100
AcDbArc
 50
270.0
 51
0.0
  0
LINE
  5
7F9
330
1A
100
AcDbEntity
  8
ZUWAKU
100
AcDbLine
 10
33.38360616483123
 20
3.574999754611397
 30
0.0
 11
34.25860616483123
 21
3.574999754611397
 31
0.0
  0
ARC
  5
7FA
330
1A
100
AcDbEntity
  8
ZUWAKU
100
AcDbCircle
 10
30.14610616483122
 20
5.499999754611394
 30
0.0
 40
0.525
100
AcDbArc
 50
270.0
 51
0.0
  0
ARC
  5
7FB
330
1A
100
AcDbEntity
  8
ZUWAKU
100
AcDbCircle
 10
33.38360616483123
 20
3.837499754611396
 30
0.0
 40
0.2625
100
AcDbArc
 50
180.0
 51
270.0
  0
ARC
  5
7FC
330
1A
100
AcDbEntity
  8
ZUWAKU
100
AcDbCircle
 10
34.25860616483123
 20
3.837499754611396
 30
0.0
 40
0.2625
100
AcDbArc
 50
270.0
 51
0.0
  0
LINE
  5
7FD
330
1A
100
AcDbEntity
  8
ZUWAKU
100
AcDbLine
 10
21.4836061648312
 20
11.62499975461139
 30
0.0
 11
20.6086061648312
 21
11.62499975461139
 31
0.0
  0
LINE
  5
7FE
330
1A
100
AcDbEntity
  8
ZUWAKU
100
AcDbLine
 10
13.69610616483123
 20
11.36249975461139
 30
0.0
 11
13.69610616483123
 21
10.48749975461139
 31
0.0
  0
ARC
  5
7FF
330
1A
100
AcDbEntity
  8
ZUWAKU
100
AcDbCircle
 10
13.43360616483119
 20
10.48749975461139
 30
0.0
 40
0.2625
100
AcDbArc
 50
270.0
 51
0.0
  0
ARC
  5
800
330
1A
100
AcDbEntity
  8
ZUWAKU
100
AcDbCircle
 10
15.18360616483119
 20
11.36249975461139
 30
0.0
 40
0.2625
100
AcDbArc
 50
90.0
 51
180.0
  0
ARC
  5
801
330
1A
100
AcDbEntity
  8
ZUWAKU
100
AcDbCircle
 10
13.43360616483119
 20
11.36249975461139
 30
0.0
 40
0.2625
100
AcDbArc
 50
0.0
 51
90.0
  0
LINE
  5
802
330
1A
100
AcDbEntity
  8
ZUWAKU
100
AcDbLine
 10
16.05860616483119
 20
11.62499975461139
 30
0.0
 11
15.18360616483119
 21
11.62499975461139
 31
0.0
  0
ARC
  5
803
330
1A
100
AcDbEntity
  8
ZUWAKU
100
AcDbCircle
 10
16.05860616483119
 20
11.36249975461139
 30
0.0
 40
0.2625
100
AcDbArc
 50
0.0
 51
90.0
  0
ARC
  5
804
330
1A
100
AcDbEntity
  8
ZUWAKU
100
AcDbCircle
 10
18.08848908308687
 20
11.36249975461139
 30
0.0
 40
0.2625
100
AcDbArc
 50
90.0
 51
162.4744316262769
  0
LINE
  5
805
330
1A
100
AcDbEntity
  8
ZUWAKU
100
AcDbLine
 10
19.1882492224891
 20
11.28345277052791
 30
0.0
 11
18.65742940592019
 21
9.602523351393109
 31
0.0
  0
ARC
  5
806
330
1A
100
AcDbEntity
  8
ZUWAKU
100
AcDbCircle
 10
18.93793377289137
 20
11.36249975461139
 30
0.0
 40
0.2625
100
AcDbArc
 50
342.4744316262769
 51
90.0
  0
LINE
  5
807
330
1A
100
AcDbEntity
  8
ZUWAKU
100
AcDbLine
 10
18.08848908308687
 20
11.62499975461139
 30
0.0
 11
18.93793377289137
 21
11.62499975461139
 31
0.0
  0
ARC
  5
808
330
1A
100
AcDbEntity
  8
ZUWAKU
100
AcDbCircle
 10
20.6086061648312
 20
11.36249975461139
 30
0.0
 40
0.2625
100
AcDbArc
 50
90.0
 51
180.0
  0
LINE
  5
809
330
1A
100
AcDbEntity
  8
ZUWAKU
100
AcDbLine
 10
25.94610616483123
 20
10.22499975461139
 30
0.0
 11
24.45860616483122
 21
10.22499975461139
 31
0.0
  0
LINE
  5
80A
330
1A
100
AcDbEntity
  8
ZUWAKU
100
AcDbLine
 10
24.19610616483123
 20
11.62499975461139
 30
0.0
 11
25.94610616483123
 21
11.62499975461139
 31
0.0
  0
ARC
  5
80B
330
1A
100
AcDbEntity
  8
ZUWAKU
100
AcDbCircle
 10
24.19610616483123
 20
10.22499975461139
 30
0.0
 40
1.399999999999999
100
AcDbArc
 50
90.0
 51
180.0
  0
LINE
  5
80C
330
1A
100
AcDbEntity
  8
ZUWAKU
100
AcDbLine
 10
22.7961061648312
 20
10.22499975461139
 30
0.0
 11
22.7961061648312
 21
9.317398741933725
 31
0.0
  0
ARC
  5
80D
330
1A
100
AcDbEntity
  8
ZUWAKU
100
AcDbCircle
 10
21.4836061648312
 20
11.36249975461139
 30
0.0
 40
0.2625
100
AcDbArc
 50
0.0
 51
90.0
  0
LINE
  5
80E
330
1A
100
AcDbEntity
  8
ZUWAKU
100
AcDbLine
 10
24.19610616483123
 20
9.962499754611396
 30
0.0
 11
24.19610616483123
 21
9.317398741933725
 31
0.0
  0
ARC
  5
80F
330
1A
100
AcDbEntity
  8
ZUWAKU
100
AcDbCircle
 10
24.45860616483122
 20
9.962499754611396
 30
0.0
 40
0.2625
100
AcDbArc
 50
90.0
 51
180.0
  0
LINE
  5
810
330
1A
100
AcDbEntity
  8
ZUWAKU
100
AcDbLine
 10
26.20860616483122
 20
11.36249975461139
 30
0.0
 11
26.20860616483122
 21
10.48749975461139
 31
0.0
  0
ARC
  5
811
330
1A
100
AcDbEntity
  8
ZUWAKU
100
AcDbCircle
 10
25.94610616483123
 20
10.48749975461139
 30
0.0
 40
0.2625
100
AcDbArc
 50
270.0
 51
0.0
  0
ARC
  5
812
330
1A
100
AcDbEntity
  8
ZUWAKU
100
AcDbCircle
 10
25.94610616483123
 20
11.36249975461139
 30
0.0
 40
0.2625
100
AcDbArc
 50
0.0
 51
90.0
  0
LINE
  5
813
330
1A
100
AcDbEntity
  8
ZUWAKU
100
AcDbLine
 10
28.65860616483121
 20
11.62499975461139
 30
0.0
 11
27.78360616483121
 21
11.62499975461139
 31
0.0
  0
ARC
  5
814
330
1A
100
AcDbEntity
  8
ZUWAKU
100
AcDbCircle
 10
27.78360616483121
 20
11.36249975461139
 30
0.0
 40
0.2625
100
AcDbArc
 50
90.0
 51
180.0
  0
ARC
  5
815
330
1A
100
AcDbEntity
  8
ZUWAKU
100
AcDbCircle
 10
28.65860616483121
 20
11.36249975461139
 30
0.0
 40
0.2625
100
AcDbArc
 50
0.0
 51
90.0
  0
LINE
  5
816
330
1A
100
AcDbEntity
  8
ZUWAKU
100
AcDbLine
 10
34.25860616483123
 20
11.62499975461139
 30
0.0
 11
33.38360616483123
 21
11.62499975461139
 31
0.0
  0
ARC
  5
817
330
1A
100
AcDbEntity
  8
ZUWAKU
100
AcDbCircle
 10
30.93360616483119
 20
11.36249975461139
 30
0.0
 40
0.2625
100
AcDbArc
 50
90.0
 51
180.0
  0
LINE
  5
818
330
1A
100
AcDbEntity
  8
ZUWAKU
100
AcDbLine
 10
31.80860616483119
 20
11.62499975461139
 30
0.0
 11
30.93360616483119
 21
11.62499975461139
 31
0.0
  0
ARC
  5
819
330
1A
100
AcDbEntity
  8
ZUWAKU
100
AcDbCircle
 10
31.80860616483119
 20
11.36249975461139
 30
0.0
 40
0.2625
100
AcDbArc
 50
0.0
 51
90.0
  0
ARC
  5
81A
330
1A
100
AcDbEntity
  8
ZUWAKU
100
AcDbCircle
 10
33.38360616483123
 20
11.36249975461139
 30
0.0
 40
0.2625
100
AcDbArc
 50
90.0
 51
180.0
  0
ARC
  5
81B
330
1A
100
AcDbEntity
  8
ZUWAKU
100
AcDbCircle
 10
34.25860616483123
 20
11.36249975461139
 30
0.0
 40
0.2625
100
AcDbArc
 50
0.0
 51
90.0
  0
TEXT
  5
81C
330
1A
100
AcDbEntity
  8
MOJI
100
AcDbText
 10
119.9136014278661
 20
1.602460283315105
 30
0.0
 40
2.799999999999999
  1
Ｘ４０－４寸－３０m/m（１寸）
 41
0.9
  7
ｽﾀｲﾙ1
100
AcDbText
  0
TEXT
  5
81D
330
1A
100
AcDbEntity
  8
MOJI
100
AcDbText
 10
119.9136014278661
 20
9.002460283315087
 30
0.0
 40
2.799999999999999
  1
ステンレス金具正面打（吊）固定式
 41
0.9
  7
ｽﾀｲﾙ1
100
AcDbText
  0
LINE
  5
81E
330
1A
100
AcDbEntity
  8
ZUWAKU
100
AcDbLine
 10
104.2233007324745
 20
14.99999975461139
 30
0.0
 11
104.2233007324746
 21
0.3999997546114287
 31
0.0
  0
LINE
  5
81F
330
1A
100
AcDbEntity
  8
ZUWAKU
100
AcDbLine
 10
104.3233007324745
 20
14.99999975461139
 30
0.0
 11
104.3233007324746
 21
0.3999997546114287
 31
0.0
  0
LINE
  5
820
330
1A
100
AcDbEntity
  8
ZUWAKU
100
AcDbLine
 10
104.1233007324745
 20
14.99999975461139
 30
0.0
 11
104.1233007324745
 21
0.3999997546114287
 31
0.0
  0
TEXT
  5
821
330
1A
100
AcDbEntity
  8
ZUWAKU
100
AcDbText
 10
104.8620232435794
 20
4.827678023804203
 30
0.0
 40
2.0
  1
サイズ
 41
0.9
  7
ｽﾀｲﾙ1
100
AcDbText
  0
TEXT
  5
822
330
1A
100
AcDbEntity
  8
ZUWAKU
100
AcDbText
 10
104.8620232435792
 20
12.02767802380418
 30
0.0
 40
2.0
  1
品名
 41
0.9
  7
ｽﾀｲﾙ1
100
AcDbText
  0
TEXT
  5
823
330
1A
100
AcDbEntity
  8
ZUWAKU
100
AcDbText
 10
329.1019689310918
 20
9.002460283315087
 30
0.0
 40
2.799999999999999
  1
　　．　　．　　
 41
0.9
  7
ｽﾀｲﾙ1
100
AcDbText
  0
LINE
  5
824
330
1A
100
AcDbEntity
  8
ZUWAKU
100
AcDbLine
 10
324.4086013425427
 20
7.799999754611411
 30
0.0
 11
348.6245053617112
 21
7.799999754611411
 31
0.0
  0
LINE
  5
825
330
1A
100
AcDbEntity
  8
ZUWAKU
100
AcDbLine
 10
324.4086013425428
 20
7.699999754611413
 30
0.0
 11
348.6245053617112
 21
7.699999754611411
 31
0.0
  0
LINE
  5
826
330
1A
100
AcDbEntity
  8
ZUWAKU
100
AcDbLine
 10
324.4086013425427
 20
7.59999975461141
 30
0.0
 11
348.6245053617112
 21
7.599999754611411
 31
0.0
  0
LINE
  5
827
330
1A
100
AcDbEntity
  8
ZUWAKU
100
AcDbLine
 10
252.599589836511
 20
7.799999754611411
 30
0.0
 11
276.2634779704968
 21
7.799999754611411
 31
0.0
  0
LINE
  5
828
330
1A
100
AcDbEntity
  8
ZUWAKU
100
AcDbLine
 10
252.599589836511
 20
7.699999754611411
 30
0.0
 11
276.2634779704968
 21
7.699999754611411
 31
0.0
  0
LINE
  5
829
330
1A
100
AcDbEntity
  8
ZUWAKU
100
AcDbLine
 10
252.599589836511
 20
7.599999754611413
 30
0.0
 11
276.2634779704968
 21
7.599999754611413
 31
0.0
  0
LINE
  5
82A
330
1A
100
AcDbEntity
  8
ZUWAKU
100
AcDbLine
 10
252.3995898365111
 20
14.99999975461139
 30
0.0
 11
252.3995898365111
 21
0.3999997546114287
 31
0.0
  0
LINE
  5
82B
330
1A
100
AcDbEntity
  8
ZUWAKU
100
AcDbLine
 10
252.599589836511
 20
14.99999975461139
 30
0.0
 11
252.5995898365112
 21
0.3999997546114287
 31
0.0
  0
LINE
  5
82C
330
1A
100
AcDbEntity
  8
ZUWAKU
100
AcDbLine
 10
252.499589836511
 20
14.99999975461139
 30
0.0
 11
252.4995898365111
 21
0.3999997546114287
 31
0.0
  0
TEXT
  5
82D
330
1A
100
AcDbEntity
  8
MOJI
100
AcDbText
 10
264.020454073597
 20
9.002460283315087
 30
0.0
 40
2.799999999999999
  1
Ａ３
 41
0.9
  7
ｽﾀｲﾙ1
100
AcDbText
  0
LINE
  5
82E
330
1A
100
AcDbEntity
  8
ZUWAKU
100
AcDbLine
 10
223.7121820729363
 20
14.99999975461139
 30
0.0
 11
223.7121820729363
 21
0.3999997546114287
 31
0.0
  0
LINE
  5
82F
330
1A
100
AcDbEntity
  8
ZUWAKU
100
AcDbLine
 10
223.9121820729362
 20
14.99999975461139
 30
0.0
 11
223.9121820729363
 21
0.3999997546114287
 31
0.0
  0
LINE
  5
830
330
1A
100
AcDbEntity
  8
ZUWAKU
100
AcDbLine
 10
223.8121820729362
 20
14.99999975461139
 30
0.0
 11
223.8121820729363
 21
0.3999997546114287
 31
0.0
  0
TEXT
  5
831
330
1A
100
AcDbEntity
  8
MOJI
100
AcDbText
 10
231.2836392484349
 20
5.971308615441387
 30
0.0
 40
2.799999999999999
  1
ＬＤ１９Ｇ
 41
0.9
  7
ｽﾀｲﾙ1
100
AcDbText
  0
TEXT
  5
832
330
1A
100
AcDbEntity
  8
ZUWAKU
100
AcDbText
 10
253.338312347616
 20
4.827678023804203
 30
0.0
 40
2.0
  1
縮尺
 41
0.9
  7
ｽﾀｲﾙ1
100
AcDbText
  0
TEXT
  5
833
330
1A
100
AcDbEntity
  8
MOJI
100
AcDbText
 10
264.020454073597
 20
1.602460283315105
 30
0.0
 40
2.799999999999999
  1
１/１
 41
0.9
  7
ｽﾀｲﾙ1
100
AcDbText
  0
TEXT
  5
834
330
1A
100
AcDbEntity
  8
ZUWAKU
100
AcDbText
 10
224.6509045840411
 20
12.02767802380418
 30
0.0
 40
2.0
  1
品番
 41
0.9
  7
ｽﾀｲﾙ1
100
AcDbText
  0
TEXT
  5
835
330
1A
100
AcDbEntity
  8
ZUWAKU
100
AcDbText
 10
253.3383123476159
 20
12.02767802380418
 30
0.0
 40
2.0
  1
用紙
 41
0.9
  7
ｽﾀｲﾙ1
100
AcDbText
  0
LINE
  5
836
330
1A
100
AcDbEntity
  8
ZUWAKU
100
AcDbLine
 10
276.2634779704968
 20
14.99999975461139
 30
0.0
 11
276.2634779704968
 21
0.3999997546114287
 31
0.0
  0
LINE
  5
837
330
1A
100
AcDbEntity
  8
ZUWAKU
100
AcDbLine
 10
276.4634779704968
 20
14.99999975461139
 30
0.0
 11
276.4634779704969
 21
0.3999997546114287
 31
0.0
  0
LINE
  5
838
330
1A
100
AcDbEntity
  8
ZUWAKU
100
AcDbLine
 10
276.3634779704967
 20
14.99999975461139
 30
0.0
 11
276.3634779704968
 21
0.3999997546114287
 31
0.0
  0
LINE
  5
839
330
1A
100
AcDbEntity
  8
ZUWAKU
100
AcDbLine
 10
324.2086013425429
 20
14.99999975461139
 30
0.0
 11
324.2086013425429
 21
0.3999997546114287
 31
0.0
  0
LINE
  5
83A
330
1A
100
AcDbEntity
  8
ZUWAKU
100
AcDbLine
 10
324.4086013425428
 20
14.99999975461139
 30
0.0
 11
324.4086013425429
 21
0.3999997546114287
 31
0.0
  0
LINE
  5
83B
330
1A
100
AcDbEntity
  8
ZUWAKU
100
AcDbLine
 10
324.3086013425428
 20
14.99999975461139
 30
0.0
 11
324.3086013425429
 21
0.3999997546114287
 31
0.0
  0
TEXT
  5
83C
330
1A
100
AcDbEntity
  8
ZUWAKU
100
AcDbText
 10
325.1473238536476
 20
12.02767802380418
 30
0.0
 40
2.0
  1
DATE
 41
0.9
  7
ｽﾀｲﾙ1
100
AcDbText
  0
TEXT
  5
83D
330
1A
100
AcDbEntity
  8
ZUWAKU
100
AcDbText
 10
354.2640421835625
 20
8.776919422454795
 30
0.0
 40
3.0
  1
積水化学工業株式会社
 41
0.9
  7
ｽﾀｲﾙ1
100
AcDbText
  0
LINE
  5
83E
330
1A
100
AcDbEntity
  8
ZUWAKU
100
AcDbLine
 10
348.9245053617112
 20
14.99999975461139
 30
0.0
 11
348.9245053617113
 21
0.3999997546114287
 31
0.0
  0
LINE
  5
83F
330
1A
100
AcDbEntity
  8
ZUWAKU
100
AcDbLine
 10
348.8245053617112
 20
14.99999975461139
 30
0.0
 11
348.8245053617113
 21
0.3999997546114287
 31
0.0
  0
LINE
  5
840
330
1A
100
AcDbEntity
  8
ZUWAKU
100
AcDbLine
 10
348.7245053617113
 20
14.99999975461139
 30
0.0
 11
348.7245053617113
 21
0.3999997546114287
 31
0.0
  0
LINE
  5
841
330
1A
100
AcDbEntity
  8
ZUWAKU
100
AcDbLine
 10
348.6245053617112
 20
14.99999975461139
 30
0.0
 11
348.6245053617112
 21
0.3999997546114287
 31
0.0
  0
TEXT
  5
842
330
1A
100
AcDbEntity
  8
ZUWAKU
100
AcDbText
 10
354.2640421835625
 20
3.324419911538427
 30
0.0
 40
3.0
  1
建材事業部
 41
0.9
  7
ｽﾀｲﾙ1
100
AcDbText
  0
VIEWPORT
  5
22
330
17
100
AcDbEntity
 67
     1
  8
0
100
AcDbViewport
 10
313.6808219178082
 20
148.5
 30
0.0
 40
627.3616438356165
 41
297.0
 68
     2
 69
     1
1001
ACAD
1000
MVIEW
1002
{
1070
    16
1010
0.0
1020
0.0
1030
0.0
1010
0.0
1020
0.0
1030
1.0
1040
0.0
1040
297.0
1040
313.6808219178082
1040
148.5
1040
50.0
1040
0.0
1040
0.0
1070
     0
1070
   100
1070
     1
1070
     0
1070
     0
1070
     0
1070
     0
1070
     0
1040
0.0
1040
0.0
1040
0.0
1040
1.0
1040
1.0
1040
10.0
1040
10.0
1070
     0
1002
{
1002
}
1002
}
  0
VIEWPORT
  5
64
330
17
100
AcDbEntity
 67
     1
  8
VIEWPORT
100
AcDbViewport
 10
210.0
 20
148.5
 30
0.0
 40
420.0
 41
297.0
 68
     1
 69
     2
1001
ACAD
1000
MVIEW
1002
{
1070
    16
1010
0.0
1020
0.0
1030
0.0
1010
0.0
1020
0.0
1030
1.0
1040
0.0
1040
302.9399999999998
1040
210.0
1040
148.5
1040
50.0
1040
0.0
1040
0.0
1070
     0
1070
   100
1070
     1
1070
     0
1070
     0
1070
     0
1070
     0
1070
     0
1040
0.0
1040
0.0
1040
0.0
1040
5.0
1040
5.0
1040
0.0
1040
0.0
1070
     0
1002
{
1002
}
1002
}
  0
ENDSEC
  0
SECTION
  2
OBJECTS
  0
DICTIONARY
  5
C
330
0
100
AcDbDictionary
  3
ACAD_GROUP
350
D
  3
ACAD_LAYOUT
350
65E
  3
ACAD_MLINESTYLE
350
E
  3
ACAD_PLOTSETTINGS
350
65F
  3
ACAD_PLOTSTYLENAME
350
65C
  3
ACDBHEADERROUNDTRIPXREC
350
84A
  0
DICTIONARY
  5
68F
330
1A
100
AcDbDictionary
280
     1
  3
ACAD_LAYOUTSELFREF
360
86C
  0
DICTIONARY
  5
68D
330
17
100
AcDbDictionary
280
     1
  3
ACAD_LAYOUTSELFREF
360
86B
  0
DICTIONARY
  5
D
102
{ACAD_REACTORS
330
C
102
}
330
C
100
AcDbDictionary
  0
DICTIONARY
  5
65E
102
{ACAD_REACTORS
330
C
102
}
330
C
100
AcDbDictionary
  0
DICTIONARY
  5
E
102
{ACAD_REACTORS
330
C
102
}
330
C
100
AcDbDictionary
  3
STANDARD
350
13
  0
DICTIONARY
  5
65F
102
{ACAD_REACTORS
330
C
102
}
330
C
100
AcDbDictionary
  0
ACDBDICTIONARYWDFLT
  5
65C
102
{ACAD_REACTORS
330
C
102
}
330
C
100
AcDbDictionary
281
     1
  3
Normal
350
65D
100
AcDbDictionaryWithDefault
340
65D
1001
ACAD
1000
TREAT_AS_HARD
1070
     0
1000
TREAT_AS_HARD
1070
     0
  0
DICTIONARY
  5
84A
102
{ACAD_REACTORS
330
C
102
}
330
C
100
AcDbDictionary
  3
TSTACKALIGN
350
84B
  3
TSTACKSIZE
350
84C
  3
HYPERLINKBASE
350
84D
  3
STYLESHEET
350
84E
  3
LAYOUTDICT
350
84F
  3
PLOTSETDICT
350
850
  3
PLOTSTYLNAMDICT
350
851
  3
LWETCUNION
350
852
  3
INSUNITS
350
853
  3
CEPSNTYPE
350
854
  3
FINGERPRINTGUID
350
855
  3
VERSIONGUID
350
856
  3
PSVPSCALE
350
857
  3
DIMSTYLEDATA
350
858
  3
PUCSORTHOREF
350
859
  3
PUCSORTHOVIEW
350
85A
  3
PUCSBASE
350
85B
  3
PUCSORGTOP
350
85C
  3
PUCSORGBOTTOM
350
85D
  3
PUCSORGLEFT
350
85E
  3
PUCSORGRIGHT
350
85F
  3
PUCSORGFRONT
350
860
  3
PUCSORGBACK
350
861
  3
UCSORTHOREF
350
862
  3
UCSORTHOVIEW
350
863
  3
UCSBASE
350
864
  3
UCSORGTOP
350
865
  3
UCSORGBOTTOM
350
866
  3
UCSORGLEFT
350
867
  3
UCSORGRIGHT
350
868
  3
UCSORGFRONT
350
869
  3
UCSORGBACK
350
86A
  0
XRECORD
  5
86C
102
{ACAD_REACTORS
330
68F
102
}
330
68F
100
AcDbXrecord
340
1A
  0
XRECORD
  5
86B
102
{ACAD_REACTORS
330
68D
102
}
330
68D
100
AcDbXrecord
340
17
  0
MLINESTYLE
  5
13
102
{ACAD_REACTORS
330
E
102
}
330
E
100
AcDbMlineStyle
  2
STANDARD
 70
     0
  3

 62
     0
 51
90.0
 52
90.0
 71
     2
 49
0.5
 62
   256
  6
BYLAYER
 49
-0.5
 62
   256
  6
BYLAYER
  0
ACDBPLACEHOLDER
  5
65D
102
{ACAD_REACTORS
330
65C
102
}
330
65C
100
AcDbPlaceHolder
280
     0
  0
XRECORD
  5
84B
102
{ACAD_REACTORS
330
84A
102
}
330
84A
100
AcDbXrecord
 90
        1
  0
XRECORD
  5
84C
102
{ACAD_REACTORS
330
84A
102
}
330
84A
100
AcDbXrecord
 90
       70
  0
XRECORD
  5
84D
102
{ACAD_REACTORS
330
84A
102
}
330
84A
100
AcDbXrecord
  1

  0
XRECORD
  5
84E
102
{ACAD_REACTORS
330
84A
102
}
330
84A
100
AcDbXrecord
  1
systemprinter.ctb
  0
XRECORD
  5
84F
102
{ACAD_REACTORS
330
84A
102
}
330
84A
100
AcDbXrecord
340
65E
  0
XRECORD
  5
850
102
{ACAD_REACTORS
330
84A
102
}
330
84A
100
AcDbXrecord
340
65F
  0
XRECORD
  5
851
102
{ACAD_REACTORS
330
84A
102
}
330
84A
100
AcDbXrecord
340
65C
  0
XRECORD
  5
852
102
{ACAD_REACTORS
330
84A
102
}
330
84A
100
AcDbXrecord
 90
    10781
  0
XRECORD
  5
853
102
{ACAD_REACTORS
330
84A
102
}
330
84A
100
AcDbXrecord
 90
        0
  0
XRECORD
  5
854
102
{ACAD_REACTORS
330
84A
102
}
330
84A
100
AcDbXrecord
 90
        0
  0
XRECORD
  5
855
102
{ACAD_REACTORS
330
84A
102
}
330
84A
100
AcDbXrecord
  1
{B03681CB-6418-49D9-9341-B0D9E714BB65}
  0
XRECORD
  5
856
102
{ACAD_REACTORS
330
84A
102
}
330
84A
100
AcDbXrecord
  1
{FB6473D8-6774-4BD5-8071-80FEE0FE4540}
  0
XRECORD
  5
857
102
{ACAD_REACTORS
330
84A
102
}
330
84A
100
AcDbXrecord
 40
0.0
  0
XRECORD
  5
858
102
{ACAD_REACTORS
330
84A
102
}
330
84A
100
AcDbXrecord
1000
DSTYLE
1002
{
1070
   341
340
B2
1070
   343
340
B2
1070
   344
340
B2
1070
   371
 70
    -1
1070
   372
 70
    -1
1002
}
  0
XRECORD
  5
859
102
{ACAD_REACTORS
330
84A
102
}
330
84A
100
AcDbXrecord
340
0
  0
XRECORD
  5
85A
102
{ACAD_REACTORS
330
84A
102
}
330
84A
100
AcDbXrecord
 70
     0
  0
XRECORD
  5
85B
102
{ACAD_REACTORS
330
84A
102
}
330
84A
100
AcDbXrecord
340
0
  0
XRECORD
  5
85C
102
{ACAD_REACTORS
330
84A
102
}
330
84A
100
AcDbXrecord
 10
0.0
 20
0.0
 30
0.0
  0
XRECORD
  5
85D
102
{ACAD_REACTORS
330
84A
102
}
330
84A
100
AcDbXrecord
 10
0.0
 20
0.0
 30
0.0
  0
XRECORD
  5
85E
102
{ACAD_REACTORS
330
84A
102
}
330
84A
100
AcDbXrecord
 10
0.0
 20
0.0
 30
0.0
  0
XRECORD
  5
85F
102
{ACAD_REACTORS
330
84A
102
}
330
84A
100
AcDbXrecord
 10
0.0
 20
0.0
 30
0.0
  0
XRECORD
  5
860
102
{ACAD_REACTORS
330
84A
102
}
330
84A
100
AcDbXrecord
 10
0.0
 20
0.0
 30
0.0
  0
XRECORD
  5
861
102
{ACAD_REACTORS
330
84A
102
}
330
84A
100
AcDbXrecord
 10
0.0
 20
0.0
 30
0.0
  0
XRECORD
  5
862
102
{ACAD_REACTORS
330
84A
102
}
330
84A
100
AcDbXrecord
340
0
  0
XRECORD
  5
863
102
{ACAD_REACTORS
330
84A
102
}
330
84A
100
AcDbXrecord
 70
     0
  0
XRECORD
  5
864
102
{ACAD_REACTORS
330
84A
102
}
330
84A
100
AcDbXrecord
340
0
  0
XRECORD
  5
865
102
{ACAD_REACTORS
330
84A
102
}
330
84A
100
AcDbXrecord
 10
0.0
 20
0.0
 30
0.0
  0
XRECORD
  5
866
102
{ACAD_REACTORS
330
84A
102
}
330
84A
100
AcDbXrecord
 10
0.0
 20
0.0
 30
0.0
  0
XRECORD
  5
867
102
{ACAD_REACTORS
330
84A
102
}
330
84A
100
AcDbXrecord
 10
0.0
 20
0.0
 30
0.0
  0
XRECORD
  5
868
102
{ACAD_REACTORS
330
84A
102
}
330
84A
100
AcDbXrecord
 10
0.0
 20
0.0
 30
0.0
  0
XRECORD
  5
869
102
{ACAD_REACTORS
330
84A
102
}
330
84A
100
AcDbXrecord
 10
0.0
 20
0.0
 30
0.0
  0
XRECORD
  5
86A
102
{ACAD_REACTORS
330
84A
102
}
330
84A
100
AcDbXrecord
 10
0.0
 20
0.0
 30
0.0
  0
ENDSEC
  0
EOF
