  0
SECTION
  2
HEADER
  9
$ACADVER
  1
AC1014
  9
$ACADMAINTVER
 70
     9
  9
$DWGCODEPAGE
  3
ANSI_932
  9
$INSBASE
 10
0.0
 20
0.0
 30
0.0
  9
$EXTMIN
 10
-0.0128164049386896
 20
-0.009063274602795
 30
-0.0015258207003583
  9
$EXTMAX
 10
398.8000497813338
 20
275.8226172265043
 30
0.0000000349246037
  9
$LIMMIN
 10
0.0
 20
0.0
  9
$LIMMAX
 10
420.0
 20
297.0
  9
$ORTHOMODE
 70
     0
  9
$REGENMODE
 70
     1
  9
$FILLMODE
 70
     1
  9
$QTEXTMODE
 70
     0
  9
$MIRRTEXT
 70
     1
  9
$DRAGMODE
 70
     2
  9
$LTSCALE
 40
1.0
  9
$OSMODE
 70
    35
  9
$ATTMODE
 70
     1
  9
$TEXTSIZE
 40
2.5
  9
$TRACEWID
 40
1.0
  9
$TEXTSTYLE
  7
STANDARD
  9
$CLAYER
  8
SUNPOU
  9
$CELTYPE
  6
BYLAYER
  9
$CECOLOR
 62
   256
  9
$CELTSCALE
 40
1.0
  9
$DELOBJ
 70
     1
  9
$DISPSILH
 70
     0
  9
$DIMSCALE
 40
1.0
  9
$DIMASZ
 40
3.0
  9
$DIMEXO
 40
3.0
  9
$DIMDLI
 40
7.0
  9
$DIMRND
 40
0.0
  9
$DIMDLE
 40
0.0
  9
$DIMEXE
 40
1.5
  9
$DIMTP
 40
0.0
  9
$DIMTM
 40
0.0
  9
$DIMTXT
 40
3.0
  9
$DIMCEN
 40
150.0
  9
$DIMTSZ
 40
0.0
  9
$DIMTOL
 70
     0
  9
$DIMLIM
 70
     0
  9
$DIMTIH
 70
     0
  9
$DIMTOH
 70
     0
  9
$DIMSE1
 70
     0
  9
$DIMSE2
 70
     0
  9
$DIMTAD
 70
     3
  9
$DIMZIN
 70
     0
  9
$DIMBLK
  1

  9
$DIMASO
 70
     1
  9
$DIMSHO
 70
     1
  9
$DIMPOST
  1

  9
$DIMAPOST
  1

  9
$DIMALT
 70
     0
  9
$DIMALTD
 70
     2
  9
$DIMALTF
 40
25.4
  9
$DIMLFAC
 40
1.0
  9
$DIMTOFL
 70
     1
  9
$DIMTVP
 40
0.0
  9
$DIMTIX
 70
     0
  9
$DIMSOXD
 70
     0
  9
$DIMSAH
 70
     1
  9
$DIMBLK1
  1
OPEN
  9
$DIMBLK2
  1
OPEN
  9
$DIMSTYLE
  2
STANDARD
  9
$DIMCLRD
 70
     4
  9
$DIMCLRE
 70
     4
  9
$DIMCLRT
 70
     4
  9
$DIMTFAC
 40
1.0
  9
$DIMGAP
 40
1.0
  9
$DIMJUST
 70
     0
  9
$DIMSD1
 70
     0
  9
$DIMSD2
 70
     0
  9
$DIMTOLJ
 70
     1
  9
$DIMTZIN
 70
     0
  9
$DIMALTZ
 70
     0
  9
$DIMALTTZ
 70
     0
  9
$DIMFIT
 70
     3
  9
$DIMUPT
 70
     0
  9
$DIMUNIT
 70
     2
  9
$DIMDEC
 70
     0
  9
$DIMTDEC
 70
     2
  9
$DIMALTU
 70
     2
  9
$DIMALTTD
 70
     2
  9
$DIMTXSTY
  7
STANDARD
  9
$DIMAUNIT
 70
     0
  9
$LUNITS
 70
     2
  9
$LUPREC
 70
     4
  9
$SKETCHINC
 40
1.0
  9
$FILLETRAD
 40
10.0
  9
$AUNITS
 70
     0
  9
$AUPREC
 70
     0
  9
$MENU
  1
.
  9
$ELEVATION
 40
0.0
  9
$PELEVATION
 40
0.0
  9
$THICKNESS
 40
0.0
  9
$LIMCHECK
 70
     0
  9
$BLIPMODE
 70
     0
  9
$CHAMFERA
 40
0.0
  9
$CHAMFERB
 40
0.0
  9
$CHAMFERC
 40
20.0
  9
$CHAMFERD
 40
0.0
  9
$SKPOLY
 70
     0
  9
$TDCREATE
 40
2450994.350997107
  9
$TDUPDATE
 40
2454218.474620578
  9
$TDINDWG
 40
0.0177263657
  9
$TDUSRTIMER
 40
0.0177263657
  9
$USRTIMER
 70
     1
  9
$ANGBASE
 50
0.0
  9
$ANGDIR
 70
     0
  9
$PDMODE
 70
     1
  9
$PDSIZE
 40
0.0
  9
$PLINEWID
 40
0.0
  9
$COORDS
 70
     0
  9
$SPLFRAME
 70
     0
  9
$SPLINETYPE
 70
     6
  9
$SPLINESEGS
 70
     8
  9
$ATTDIA
 70
     0
  9
$ATTREQ
 70
     1
  9
$HANDLING
 70
 10241
  9
$HANDSEED
  5
879
  9
$SURFTAB1
 70
     6
  9
$SURFTAB2
 70
     6
  9
$SURFTYPE
 70
     6
  9
$SURFU
 70
     6
  9
$SURFV
 70
     6
  9
$UCSNAME
  2

  9
$UCSORG
 10
0.0
 20
0.0
 30
0.0
  9
$UCSXDIR
 10
1.0
 20
0.0
 30
0.0
  9
$UCSYDIR
 10
0.0
 20
1.0
 30
0.0
  9
$PUCSNAME
  2

  9
$PUCSORG
 10
0.0
 20
0.0
 30
0.0
  9
$PUCSXDIR
 10
1.0
 20
0.0
 30
0.0
  9
$PUCSYDIR
 10
0.0
 20
1.0
 30
0.0
  9
$USERI1
 70
     0
  9
$USERI2
 70
     0
  9
$USERI3
 70
     0
  9
$USERI4
 70
     0
  9
$USERI5
 70
     0
  9
$USERR1
 40
0.0
  9
$USERR2
 40
0.0
  9
$USERR3
 40
0.0
  9
$USERR4
 40
0.0
  9
$USERR5
 40
0.0
  9
$WORLDVIEW
 70
     1
  9
$SHADEDGE
 70
     3
  9
$SHADEDIF
 70
    70
  9
$TILEMODE
 70
     1
  9
$MAXACTVP
 70
    16
  9
$PINSBASE
 10
0.0
 20
0.0
 30
0.0
  9
$PLIMCHECK
 70
     0
  9
$PEXTMIN
 10
0.0
 20
0.0
 30
0.0
  9
$PEXTMAX
 10
420.0
 20
297.0
 30
0.0
  9
$PLIMMIN
 10
0.0
 20
0.0
  9
$PLIMMAX
 10
420.0
 20
297.0
  9
$UNITMODE
 70
     0
  9
$VISRETAIN
 70
     0
  9
$PLINEGEN
 70
     0
  9
$PSLTSCALE
 70
     1
  9
$TREEDEPTH
 70
  3020
  9
$PICKSTYLE
 70
     1
  9
$CMLSTYLE
  2
STANDARD
  9
$CMLJUST
 70
     0
  9
$CMLSCALE
 40
1.0
  9
$PROXYGRAPHICS
 70
     1
  9
$MEASUREMENT
 70
     1
  0
ENDSEC
  0
SECTION
  2
CLASSES
  0
CLASS
  1
ACDBDICTIONARYWDFLT
  2
AcDbDictionaryWithDefault
  3
AutoCAD 2000
 90
        0
280
     0
281
     0
  0
CLASS
  1
ACDBPLACEHOLDER
  2
AcDbPlaceHolder
  3
AutoCAD 2000
 90
        0
280
     0
281
     0
  0
CLASS
  1
LAYOUT
  2
AcDbLayout
  3
AutoCAD 2000
 90
        0
280
     0
281
     0
  0
CLASS
  1
LONG_TRANSACTION
  2
AcDbLongTransaction
  3
AutoCAD 2000
 90
        0
280
     0
281
     0
  0
CLASS
  1
LWPOLYLINE
  2
AcDbPolyline
  3
AutoCAD 2000
 90
        0
280
     0
281
     1
  0
CLASS
  1
HATCH
  2
AcDbHatch
  3
AutoCAD 2000
 90
        0
280
     0
281
     1
  0
CLASS
  1
XRECORD
  2
AcDbXrecord
  3
AutoCAD 2000
 90
        0
280
     0
281
     0
  0
CLASS
  1
LONG_TRANSACTION
  2
AcDbLongTransaction
  3
AutoCAD 2000
 90
        0
280
     0
281
     0
  0
CLASS
  1
LWPOLYLINE
  2
AcDbPolyline
  3
AutoCAD 2000
 90
        0
280
     0
281
     1
  0
CLASS
  1
HATCH
  2
AcDbHatch
  3
AutoCAD 2000
 90
        0
280
     0
281
     1
  0
CLASS
  1
XRECORD
  2
AcDbXrecord
  3
AutoCAD 2000
 90
        0
280
     0
281
     0
  0
CLASS
  1
LONG_TRANSACTION
  2
AcDbLongTransaction
  3
AutoCAD 2000
 90
        0
280
     0
281
     0
  0
CLASS
  1
LWPOLYLINE
  2
AcDbPolyline
  3
AutoCAD 2000
 90
        0
280
     0
281
     1
  0
CLASS
  1
HATCH
  2
AcDbHatch
  3
AutoCAD 2000
 90
        0
280
     0
281
     1
  0
CLASS
  1
XRECORD
  2
AcDbXrecord
  3
AutoCAD 2000
 90
        0
280
     0
281
     0
  0
ENDSEC
  0
SECTION
  2
TABLES
  0
TABLE
  2
VPORT
  5
8
330
0
100
AcDbSymbolTable
 70
     3
  0
VPORT
  5
855
330
8
100
AcDbSymbolTableRecord
100
AcDbViewportTableRecord
  2
*ACTIVE
 70
     0
 10
0.0
 20
0.0
 11
1.0
 21
1.0
 12
211.9673665723421
 22
141.5130605395511
 13
0.0
 23
0.0
 14
5.0
 24
5.0
 15
0.0
 25
0.0
 16
0.0
 26
0.0
 36
1.0
 17
0.0
 27
0.0
 37
0.0
 40
361.3151540666736
 41
1.566326530612244
 42
50.0
 43
0.0
 44
0.0
 50
0.0
 51
0.0
 71
     0
 72
   100
 73
     1
 74
     0
 75
     0
 76
     0
 77
     0
 78
     0
  0
ENDTAB
  0
TABLE
  2
LTYPE
  5
5
330
0
100
AcDbSymbolTable
 70
     3
  0
LTYPE
  5
14
330
5
100
AcDbSymbolTableRecord
100
AcDbLinetypeTableRecord
  2
BYBLOCK
 70
     0
  3

 72
    65
 73
     0
 40
0.0
  0
LTYPE
  5
15
330
5
100
AcDbSymbolTableRecord
100
AcDbLinetypeTableRecord
  2
BYLAYER
 70
     0
  3

 72
    65
 73
     0
 40
0.0
  0
LTYPE
  5
16
330
5
100
AcDbSymbolTableRecord
100
AcDbLinetypeTableRecord
  2
CONTINUOUS
 70
     0
  3
Solid line
 72
    65
 73
     0
 40
0.0
  0
LTYPE
  5
120
330
5
100
AcDbSymbolTableRecord
100
AcDbLinetypeTableRecord
  2
CENTER
 70
     0
  3
____ _ ____ _ ____ _ ____ _ ____ _ ____ _ ____ 
 72
    65
 73
     4
 40
2.0
 49
1.25
 74
     0
 49
-0.25
 74
     0
 49
0.25
 74
     0
 49
-0.25
 74
     0
  0
LTYPE
  5
122
330
5
100
AcDbSymbolTableRecord
100
AcDbLinetypeTableRecord
  2
PHANTOM
 70
     0
  3
______  __  __  ______  __  __  ______  __  __ 
 72
    65
 73
     6
 40
2.5
 49
1.25
 74
     0
 49
-0.25
 74
     0
 49
0.25
 74
     0
 49
-0.25
 74
     0
 49
0.25
 74
     0
 49
-0.25
 74
     0
  0
ENDTAB
  0
TABLE
  2
LAYER
  5
2
330
0
100
AcDbSymbolTable
 70
    10
  0
LAYER
  5
F
330
2
100
AcDbSymbolTableRecord
100
AcDbLayerTableRecord
  2
0
 70
     0
 62
     7
  6
CONTINUOUS
  0
LAYER
  5
62
330
2
100
AcDbSymbolTableRecord
100
AcDbLayerTableRecord
  2
VIEWPORT
 70
     0
 62
     7
  6
CONTINUOUS
  0
LAYER
  5
6B
330
2
100
AcDbSymbolTableRecord
100
AcDbLayerTableRecord
  2
ZUWAKU
 70
     0
 62
     7
  6
CONTINUOUS
  0
LAYER
  5
146
330
2
100
AcDbSymbolTableRecord
100
AcDbLayerTableRecord
  2
SUNPOU_L
 70
     0
 62
     4
  6
CONTINUOUS
  0
LAYER
  5
185
330
2
100
AcDbSymbolTableRecord
100
AcDbLayerTableRecord
  2
CENTER_L
 70
     0
 62
     1
  6
CENTER
  0
LAYER
  5
18C
330
2
100
AcDbSymbolTableRecord
100
AcDbLayerTableRecord
  2
DEFPOINTS
 70
     0
 62
     7
  6
CONTINUOUS
  0
LAYER
  5
2D9
330
2
100
AcDbSymbolTableRecord
100
AcDbLayerTableRecord
  2
SUNPOU
 70
     0
 62
     4
  6
CONTINUOUS
  0
LAYER
  5
2DA
330
2
100
AcDbSymbolTableRecord
100
AcDbLayerTableRecord
  2
SEIHIN
 70
     0
 62
     3
  6
CONTINUOUS
  0
LAYER
  5
2DB
330
2
100
AcDbSymbolTableRecord
100
AcDbLayerTableRecord
  2
NOKITOI
 70
     0
 62
     8
  6
PHANTOM
  0
LAYER
  5
6D3
330
2
100
AcDbSymbolTableRecord
100
AcDbLayerTableRecord
  2
MOJI
 70
     0
 62
     2
  6
CONTINUOUS
  0
ENDTAB
  0
TABLE
  2
STYLE
  5
3
330
0
100
AcDbSymbolTable
 70
     2
  0
STYLE
  5
10
330
3
100
AcDbSymbolTableRecord
100
AcDbTextStyleTableRecord
  2
STANDARD
 70
     0
 40
0.0
 41
1.0
 50
0.0
 71
     0
 42
2.5
  3
TXT
  4
bigfont.shx
  0
STYLE
  5
6D4
330
3
100
AcDbSymbolTableRecord
100
AcDbTextStyleTableRecord
  2
ｽﾀｲﾙ1
 70
     0
 40
0.0
 41
1.0
 50
0.0
 71
     0
 42
2.5
  3
MS PGothic.ttf
  4

1001
ACAD
1000
MS PGothic
1071
    32818
  0
ENDTAB
  0
TABLE
  2
VIEW
  5
6
330
0
100
AcDbSymbolTable
 70
     0
  0
ENDTAB
  0
TABLE
  2
UCS
  5
7
330
0
100
AcDbSymbolTable
 70
     0
  0
ENDTAB
  0
TABLE
  2
APPID
  5
9
330
0
100
AcDbSymbolTable
 70
     1
  0
APPID
  5
11
330
9
100
AcDbSymbolTableRecord
100
AcDbRegAppTableRecord
  2
ACAD
 70
     0
  0
ENDTAB
  0
TABLE
  2
DIMSTYLE
  5
A
330
0
100
AcDbSymbolTable
 70
     1
  0
DIMSTYLE
105
1D
102
{ACAD_REACTORS
330
412
330
413
330
414
330
483
330
4BF
330
4C0
330
4C1
330
4C2
330
4CB
330
4CD
330
4DC
330
4F9
102
}
330
A
100
AcDbSymbolTableRecord
100
AcDbDimStyleTableRecord
  2
STANDARD
 70
     0
  3

  4

  5

  6

  7

 40
1.0
 41
0.18
 42
0.0625
 43
0.38
 44
0.18
 45
0.0
 46
0.0
 47
0.0
 48
0.0
140
0.18
141
0.09
142
0.0
143
25.4
144
1.0
145
0.0
146
1.0
147
0.09
 71
     0
 72
     0
 73
     1
 74
     1
 75
     0
 76
     0
 77
     0
 78
     0
170
     0
171
     2
172
     0
173
     0
174
     0
175
     0
176
     0
177
     0
178
     0
270
     2
271
     4
272
     4
273
     2
274
     2
340
10
275
     0
280
     0
281
     0
282
     0
283
     1
284
     0
285
     0
286
     0
287
     3
288
     0
  0
ENDTAB
  0
TABLE
  2
BLOCK_RECORD
  5
1
330
0
100
AcDbSymbolTable
 70
    13
  0
BLOCK_RECORD
  5
1A
102
{ACAD_XDICTIONARY
360
68F
102
}
330
1
100
AcDbSymbolTableRecord
100
AcDbBlockTableRecord
  2
*MODEL_SPACE
  0
BLOCK_RECORD
  5
17
102
{ACAD_XDICTIONARY
360
68D
102
}
330
1
100
AcDbSymbolTableRecord
100
AcDbBlockTableRecord
  2
*PAPER_SPACE
  0
BLOCK_RECORD
  5
B2
330
1
100
AcDbSymbolTableRecord
100
AcDbBlockTableRecord
  2
_OPEN
  0
BLOCK_RECORD
  5
53A
330
1
100
AcDbSymbolTableRecord
100
AcDbBlockTableRecord
  2
*D1
  0
BLOCK_RECORD
  5
546
330
1
100
AcDbSymbolTableRecord
100
AcDbBlockTableRecord
  2
*D2
  0
BLOCK_RECORD
  5
552
330
1
100
AcDbSymbolTableRecord
100
AcDbBlockTableRecord
  2
*D3
  0
BLOCK_RECORD
  5
55E
330
1
100
AcDbSymbolTableRecord
100
AcDbBlockTableRecord
  2
*D4
  0
BLOCK_RECORD
  5
56A
330
1
100
AcDbSymbolTableRecord
100
AcDbBlockTableRecord
  2
*D5
  0
BLOCK_RECORD
  5
576
330
1
100
AcDbSymbolTableRecord
100
AcDbBlockTableRecord
  2
*D6
  0
BLOCK_RECORD
  5
582
330
1
100
AcDbSymbolTableRecord
100
AcDbBlockTableRecord
  2
*D7
  0
BLOCK_RECORD
  5
58E
330
1
100
AcDbSymbolTableRecord
100
AcDbBlockTableRecord
  2
*D8
  0
BLOCK_RECORD
  5
59A
330
1
100
AcDbSymbolTableRecord
100
AcDbBlockTableRecord
  2
*D9
  0
BLOCK_RECORD
  5
5A6
330
1
100
AcDbSymbolTableRecord
100
AcDbBlockTableRecord
  2
*D10
  0
BLOCK_RECORD
  5
5B4
330
1
100
AcDbSymbolTableRecord
100
AcDbBlockTableRecord
  2
*D11
  0
BLOCK_RECORD
  5
5C2
330
1
100
AcDbSymbolTableRecord
100
AcDbBlockTableRecord
  2
*D12
  0
ENDTAB
  0
ENDSEC
  0
SECTION
  2
BLOCKS
  0
BLOCK
  5
1B
330
1A
100
AcDbEntity
  8
0
100
AcDbBlockBegin
  2
*MODEL_SPACE
 70
     0
 10
0.0
 20
0.0
 30
0.0
  3
*MODEL_SPACE
  1

  0
ENDBLK
  5
1C
330
1A
100
AcDbEntity
  8
0
100
AcDbBlockEnd
  0
BLOCK
  5
18
330
17
100
AcDbEntity
 67
     1
  8
0
100
AcDbBlockBegin
  2
*PAPER_SPACE
 70
     0
 10
0.0
 20
0.0
 30
0.0
  3
*PAPER_SPACE
  1

  0
ENDBLK
  5
19
330
17
100
AcDbEntity
 67
     1
  8
0
100
AcDbBlockEnd
  0
BLOCK
  5
B3
330
B2
100
AcDbEntity
  8
0
100
AcDbBlockBegin
  2
_OPEN
 70
     0
 10
0.0
 20
0.0
 30
0.0
  3
_OPEN
  1

  0
LINE
  5
B4
330
B2
100
AcDbEntity
  8
0
  6
BYBLOCK
 62
     0
100
AcDbLine
 10
-1.0
 20
0.1666666666666666
 30
0.0
 11
0.0
 21
0.0
 31
0.0
  0
LINE
  5
B5
330
B2
100
AcDbEntity
  8
0
  6
BYBLOCK
 62
     0
100
AcDbLine
 10
0.0
 20
0.0
 30
0.0
 11
-1.0
 21
-0.1666666666666666
 31
0.0
  0
LINE
  5
B6
330
B2
100
AcDbEntity
  8
0
  6
BYBLOCK
 62
     0
100
AcDbLine
 10
0.0
 20
0.0
 30
0.0
 11
-1.0
 21
0.0
 31
0.0
  0
ENDBLK
  5
B7
330
B2
100
AcDbEntity
  8
0
100
AcDbBlockEnd
  0
BLOCK
  5
5CE
330
53A
100
AcDbEntity
  8
0
100
AcDbBlockBegin
  2
*D1
 70
     1
 10
0.0
 20
0.0
 30
0.0
  3
*D1
  1

  0
LINE
  5
5CF
330
53A
100
AcDbEntity
  8
0
  6
BYBLOCK
 62
     4
100
AcDbLine
 10
218.6340019537583
 20
125.9736314355007
 30
0.0
 11
218.6340019537583
 21
140.5948064366431
 31
0.0
  0
LINE
  5
5D0
330
53A
100
AcDbEntity
  8
0
  6
BYBLOCK
 62
     4
100
AcDbLine
 10
173.6339775080442
 20
104.6038417058031
 30
0.0
 11
173.6339775080442
 21
140.5948064366431
 31
0.0
  0
LINE
  5
5D1
330
53A
100
AcDbEntity
  8
0
  6
BYBLOCK
 62
     4
100
AcDbLine
 10
215.6340019537583
 20
139.0948064366431
 30
0.0
 11
176.6339775080442
 21
139.0948064366431
 31
0.0
  0
INSERT
  5
5D2
330
53A
100
AcDbEntity
  8
0
  6
BYBLOCK
 62
     4
100
AcDbBlockReference
  2
_OPEN
 10
218.6340019537583
 20
139.0948064366431
 30
0.0
 41
3.0
 42
3.0
 43
3.0
  0
INSERT
  5
5D3
330
53A
100
AcDbEntity
  8
0
  6
BYBLOCK
 62
     4
100
AcDbBlockReference
  2
_OPEN
 10
173.6339775080442
 20
139.0948064366431
 30
0.0
 41
3.0
 42
3.0
 43
3.0
 50
180.0
  0
MTEXT
  5
5D4
330
53A
100
AcDbEntity
  8
0
  6
BYBLOCK
 62
     4
100
AcDbMText
 10
196.1339897309013
 20
141.5948064366431
 30
0.0
 40
3.0
 41
0.0
 71
     5
 72
     5
  1
\A1;45
1001
ACAD
1000
MTEXTBEGIN
1070
    73
1070
     1
1070
    44
1040
1.0
1070
    74
1070
     0
1000
MTEXTEND
1000
MTEXTBEGIN
1070
    73
1070
     1
1070
    44
1040
1.0
1070
    74
1070
     0
1000
MTEXTEND
1000
MTEXTBEGIN
1070
    73
1070
     1
1070
    44
1040
1.0
1070
    74
1070
     0
1000
MTEXTEND
  0
POINT
  5
5D5
330
53A
100
AcDbEntity
  8
DEFPOINTS
  6
BYBLOCK
 62
     0
100
AcDbPoint
 10
218.6340019537583
 20
122.9736314355007
 30
0.0
  0
POINT
  5
5D6
330
53A
100
AcDbEntity
  8
DEFPOINTS
  6
BYBLOCK
 62
     0
100
AcDbPoint
 10
173.6339775080442
 20
101.603841705803
 30
0.0
  0
POINT
  5
5D7
330
53A
100
AcDbEntity
  8
DEFPOINTS
  6
BYBLOCK
 62
     0
100
AcDbPoint
 10
173.6339775080442
 20
139.0948064366431
 30
0.0
  0
ENDBLK
  5
5D8
330
53A
100
AcDbEntity
  8
0
100
AcDbBlockEnd
  0
BLOCK
  5
5D9
330
546
100
AcDbEntity
  8
0
100
AcDbBlockBegin
  2
*D2
 70
     1
 10
0.0
 20
0.0
 30
0.0
  3
*D2
  1

  0
LINE
  5
5DA
330
546
100
AcDbEntity
  8
0
  6
BYBLOCK
 62
     4
100
AcDbLine
 10
218.6340019537583
 20
125.9736314355006
 30
0.0
 11
218.6340019537583
 21
156.766577256548
 31
0.0
  0
LINE
  5
5DB
330
546
100
AcDbEntity
  8
0
  6
BYBLOCK
 62
     4
100
AcDbLine
 10
88.0339804740162
 20
105.873945157851
 30
0.0
 11
88.0339804740162
 21
156.766577256548
 31
0.0
  0
LINE
  5
5DC
330
546
100
AcDbEntity
  8
0
  6
BYBLOCK
 62
     4
100
AcDbLine
 10
215.6340019537583
 20
155.266577256548
 30
0.0
 11
91.0339804740162
 21
155.266577256548
 31
0.0
  0
INSERT
  5
5DD
330
546
100
AcDbEntity
  8
0
  6
BYBLOCK
 62
     4
100
AcDbBlockReference
  2
_OPEN
 10
218.6340019537583
 20
155.266577256548
 30
0.0
 41
3.0
 42
3.0
 43
3.0
  0
INSERT
  5
5DE
330
546
100
AcDbEntity
  8
0
  6
BYBLOCK
 62
     4
100
AcDbBlockReference
  2
_OPEN
 10
88.0339804740162
 20
155.266577256548
 30
0.0
 41
3.0
 42
3.0
 43
3.0
 50
180.0
  0
MTEXT
  5
5DF
330
546
100
AcDbEntity
  8
0
  6
BYBLOCK
 62
     4
100
AcDbMText
 10
153.3339912138872
 20
157.766577256548
 30
0.0
 40
3.0
 41
0.0
 71
     5
 72
     5
  1
\A1;131
1001
ACAD
1000
MTEXTBEGIN
1070
    73
1070
     1
1070
    44
1040
1.0
1070
    74
1070
     0
1000
MTEXTEND
1000
MTEXTBEGIN
1070
    73
1070
     1
1070
    44
1040
1.0
1070
    74
1070
     0
1000
MTEXTEND
1000
MTEXTBEGIN
1070
    73
1070
     1
1070
    44
1040
1.0
1070
    74
1070
     0
1000
MTEXTEND
  0
POINT
  5
5E0
330
546
100
AcDbEntity
  8
DEFPOINTS
  6
BYBLOCK
 62
     0
100
AcDbPoint
 10
218.6340019537583
 20
122.9736314355006
 30
0.0
  0
POINT
  5
5E1
330
546
100
AcDbEntity
  8
DEFPOINTS
  6
BYBLOCK
 62
     0
100
AcDbPoint
 10
88.0339804740162
 20
102.873945157851
 30
0.0
  0
POINT
  5
5E2
330
546
100
AcDbEntity
  8
DEFPOINTS
  6
BYBLOCK
 62
     0
100
AcDbPoint
 10
88.0339804740162
 20
155.266577256548
 30
0.0
  0
ENDBLK
  5
5E3
330
546
100
AcDbEntity
  8
0
100
AcDbBlockEnd
  0
BLOCK
  5
5E4
330
552
100
AcDbEntity
  8
0
100
AcDbBlockBegin
  2
*D3
 70
     1
 10
0.0
 20
0.0
 30
0.0
  3
*D3
  1

  0
LINE
  5
5E5
330
552
100
AcDbEntity
  8
0
  6
BYBLOCK
 62
     4
100
AcDbLine
 10
231.2312804740161
 20
80.746145157851
 30
0.0
 11
72.11730164383808
 21
80.746145157851
 31
0.0
  0
LINE
  5
5E6
330
552
100
AcDbEntity
  8
0
  6
BYBLOCK
 62
     4
100
AcDbLine
 10
90.63398047401623
 20
108.973945157851
 30
0.0
 11
72.11730164383808
 21
108.973945157851
 31
0.0
  0
LINE
  5
5E7
330
552
100
AcDbEntity
  8
0
  6
BYBLOCK
 62
     4
100
AcDbLine
 10
73.61730164383809
 20
83.74614515785101
 30
0.0
 11
73.61730164383809
 21
105.973945157851
 31
0.0
  0
INSERT
  5
5E8
330
552
100
AcDbEntity
  8
0
  6
BYBLOCK
 62
     4
100
AcDbBlockReference
  2
_OPEN
 10
73.61730164383809
 20
80.746145157851
 30
0.0
 41
3.0
 42
3.0
 43
3.0
 50
270.0
  0
INSERT
  5
5E9
330
552
100
AcDbEntity
  8
0
  6
BYBLOCK
 62
     4
100
AcDbBlockReference
  2
_OPEN
 10
73.61730164383809
 20
108.973945157851
 30
0.0
 41
3.0
 42
3.0
 43
3.0
 50
90.0
  0
MTEXT
  5
5EA
330
552
100
AcDbEntity
  8
0
  6
BYBLOCK
 62
     4
100
AcDbMText
 10
71.11730164383809
 20
94.86004515785101
 30
0.0
 40
3.0
 41
0.0
 71
     5
 72
     5
  1
\A1;28
 11
0.0
 21
1.0
 31
0.0
1001
ACAD
1000
MTEXTBEGIN
1070
    73
1070
     1
1070
    44
1040
1.0
1070
    74
1070
     0
1000
MTEXTEND
1000
MTEXTBEGIN
1070
    73
1070
     1
1070
    44
1040
1.0
1070
    74
1070
     0
1000
MTEXTEND
1000
MTEXTBEGIN
1070
    73
1070
     1
1070
    44
1040
1.0
1070
    74
1070
     0
1000
MTEXTEND
  0
POINT
  5
5EB
330
552
100
AcDbEntity
  8
DEFPOINTS
  6
BYBLOCK
 62
     0
100
AcDbPoint
 10
234.231280474016
 20
80.746145157851
 30
0.0
  0
POINT
  5
5EC
330
552
100
AcDbEntity
  8
DEFPOINTS
  6
BYBLOCK
 62
     0
100
AcDbPoint
 10
93.63398047401622
 20
108.973945157851
 30
0.0
  0
POINT
  5
5ED
330
552
100
AcDbEntity
  8
DEFPOINTS
  6
BYBLOCK
 62
     0
100
AcDbPoint
 10
73.61730164383809
 20
108.973945157851
 30
0.0
  0
ENDBLK
  5
5EE
330
552
100
AcDbEntity
  8
0
100
AcDbBlockEnd
  0
BLOCK
  5
5EF
330
55E
100
AcDbEntity
  8
0
100
AcDbBlockBegin
  2
*D4
 70
     1
 10
0.0
 20
0.0
 30
0.0
  3
*D4
  1

  0
LINE
  5
5F0
330
55E
100
AcDbEntity
  8
0
  6
BYBLOCK
 62
     4
100
AcDbLine
 10
86.03398047401615
 20
215.5237451578508
 30
0.0
 11
72.02452905250968
 21
215.5237451578508
 31
0.0
  0
LINE
  5
5F1
330
55E
100
AcDbEntity
  8
0
  6
BYBLOCK
 62
     4
100
AcDbLine
 10
86.03398047401615
 20
200.423745157851
 30
0.0
 11
72.02452905250968
 21
200.423745157851
 31
0.0
  0
LINE
  5
5F2
330
55E
100
AcDbEntity
  8
0
  6
BYBLOCK
 62
     4
100
AcDbLine
 10
73.52452905250967
 20
212.5237451578508
 30
0.0
 11
73.52452905250967
 21
203.423745157851
 31
0.0
  0
INSERT
  5
5F3
330
55E
100
AcDbEntity
  8
0
  6
BYBLOCK
 62
     4
100
AcDbBlockReference
  2
_OPEN
 10
73.52452905250967
 20
215.5237451578508
 30
0.0
 41
3.0
 42
3.0
 43
3.0
 50
90.0
  0
INSERT
  5
5F4
330
55E
100
AcDbEntity
  8
0
  6
BYBLOCK
 62
     4
100
AcDbBlockReference
  2
_OPEN
 10
73.52452905250967
 20
200.423745157851
 30
0.0
 41
3.0
 42
3.0
 43
3.0
 50
270.0
  0
MTEXT
  5
5F5
330
55E
100
AcDbEntity
  8
0
  6
BYBLOCK
 62
     4
100
AcDbMText
 10
71.02452905250967
 20
207.9737451578509
 30
0.0
 40
3.0
 41
0.0
 71
     5
 72
     5
  1
\A1;15
 11
0.0
 21
1.0
 31
0.0
1001
ACAD
1000
MTEXTBEGIN
1070
    73
1070
     1
1070
    44
1040
1.0
1070
    74
1070
     0
1000
MTEXTEND
1000
MTEXTBEGIN
1070
    73
1070
     1
1070
    44
1040
1.0
1070
    74
1070
     0
1000
MTEXTEND
1000
MTEXTBEGIN
1070
    73
1070
     1
1070
    44
1040
1.0
1070
    74
1070
     0
1000
MTEXTEND
  0
POINT
  5
5F6
330
55E
100
AcDbEntity
  8
DEFPOINTS
  6
BYBLOCK
 62
     0
100
AcDbPoint
 10
89.03398047401614
 20
215.5237451578508
 30
0.0
  0
POINT
  5
5F7
330
55E
100
AcDbEntity
  8
DEFPOINTS
  6
BYBLOCK
 62
     0
100
AcDbPoint
 10
89.03398047401614
 20
200.423745157851
 30
0.0
  0
POINT
  5
5F8
330
55E
100
AcDbEntity
  8
DEFPOINTS
  6
BYBLOCK
 62
     0
100
AcDbPoint
 10
73.52452905250967
 20
200.423745157851
 30
0.0
  0
ENDBLK
  5
5F9
330
55E
100
AcDbEntity
  8
0
100
AcDbBlockEnd
  0
BLOCK
  5
5FA
330
56A
100
AcDbEntity
  8
0
100
AcDbBlockBegin
  2
*D5
 70
     1
 10
0.0
 20
0.0
 30
0.0
  3
*D5
  1

  0
LINE
  5
5FB
330
56A
100
AcDbEntity
  8
0
  6
BYBLOCK
 62
     4
100
AcDbLine
 10
292.9130256196072
 20
153.068239529284
 30
0.0
 11
258.4684523760439
 21
139.2913931396253
 31
0.0
  0
LINE
  5
5FC
330
56A
100
AcDbEntity
  8
0
  6
BYBLOCK
 62
     4
100
AcDbLine
 10
276.5529705672045
 20
132.523505508776
 30
0.0
 11
263.2961956607982
 21
127.221173840551
 31
0.0
  0
LINE
  5
5FD
330
56A
100
AcDbEntity
  8
0
  6
BYBLOCK
 62
     4
100
AcDbLine
 10
260.975284623016
 20
137.062987412308
 30
0.0
 11
263.5748208944689
 21
130.5636830745191
 31
0.0
  0
INSERT
  5
5FE
330
56A
100
AcDbEntity
  8
0
  6
BYBLOCK
 62
     4
100
AcDbBlockReference
  2
_OPEN
 10
259.8611811163654
 20
139.8484448929507
 30
0.0
 41
3.0
 42
3.0
 43
3.0
 50
111.7999999999998
  0
INSERT
  5
5FF
330
56A
100
AcDbEntity
  8
0
  6
BYBLOCK
 62
     4
100
AcDbBlockReference
  2
_OPEN
 10
264.6889244011196
 20
127.7782255938764
 30
0.0
 41
3.0
 42
3.0
 43
3.0
 50
291.7999999999998
  0
MTEXT
  5
600
330
56A
100
AcDbEntity
  8
0
  6
BYBLOCK
 62
     4
100
AcDbMText
 10
264.5962673259447
 20
134.7417548322891
 30
0.0
 40
3.0
 41
0.0
 71
     5
 72
     5
  1
\A1;13
 11
0.3713678355502318
 21
-0.9284858268809147
 31
0.0
1001
ACAD
1000
MTEXTBEGIN
1070
    73
1070
     1
1070
    44
1040
1.0
1070
    74
1070
     0
1000
MTEXTEND
1000
MTEXTBEGIN
1070
    73
1070
     1
1070
    44
1040
1.0
1070
    74
1070
     0
1000
MTEXTEND
1000
MTEXTBEGIN
1070
    73
1070
     1
1070
    44
1040
1.0
1070
    74
1070
     0
1000
MTEXTEND
  0
POINT
  5
601
330
56A
100
AcDbEntity
  8
DEFPOINTS
  6
BYBLOCK
 62
     0
100
AcDbPoint
 10
295.6984831002499
 20
154.1823430359346
 30
0.0
  0
POINT
  5
602
330
56A
100
AcDbEntity
  8
DEFPOINTS
  6
BYBLOCK
 62
     0
100
AcDbPoint
 10
279.3384280478472
 20
133.6376090154267
 30
0.0
  0
POINT
  5
603
330
56A
100
AcDbEntity
  8
DEFPOINTS
  6
BYBLOCK
 62
     0
100
AcDbPoint
 10
264.6889244011196
 20
127.7782255938764
 30
0.0
  0
ENDBLK
  5
604
330
56A
100
AcDbEntity
  8
0
100
AcDbBlockEnd
  0
BLOCK
  5
605
330
576
100
AcDbEntity
  8
0
100
AcDbBlockBegin
  2
*D6
 70
     1
 10
0.0
 20
0.0
 30
0.0
  3
*D6
  1

  0
LINE
  5
606
330
576
100
AcDbEntity
  8
0
  6
BYBLOCK
 62
     4
100
AcDbLine
 10
292.9130256196072
 20
153.068239529284
 30
0.0
 11
251.0408765185371
 21
136.3205747493719
 31
0.0
  0
LINE
  5
607
330
576
100
AcDbEntity
  8
0
  6
BYBLOCK
 62
     4
100
AcDbLine
 10
309.6244740011069
 20
111.2863940787531
 30
0.0
 11
267.752408966428
 21
94.53876292299872
 31
0.0
  0
LINE
  5
608
330
576
100
AcDbEntity
  8
0
  6
BYBLOCK
 62
     4
100
AcDbLine
 10
253.5477087655091
 20
134.0921690220545
 30
0.0
 11
268.0310342000987
 21
97.88127215696682
 31
0.0
  0
INSERT
  5
609
330
576
100
AcDbEntity
  8
0
  6
BYBLOCK
 62
     4
100
AcDbBlockReference
  2
_OPEN
 10
252.4336052588584
 20
136.8776265026973
 30
0.0
 41
3.0
 42
3.0
 43
3.0
 50
111.7999999999998
  0
INSERT
  5
60A
330
576
100
AcDbEntity
  8
0
  6
BYBLOCK
 62
     4
100
AcDbBlockReference
  2
_OPEN
 10
269.1451377067493
 20
95.09581467632408
 30
0.0
 41
3.0
 42
3.0
 43
3.0
 50
291.7999999999998
  0
MTEXT
  5
60B
330
576
100
AcDbEntity
  8
0
  6
BYBLOCK
 62
     4
100
AcDbMText
 10
263.1105860500062
 20
116.9151401783862
 30
0.0
 40
3.0
 41
0.0
 71
     5
 72
     5
  1
\A1;45
 11
0.3713678355502318
 21
-0.9284858268809147
 31
0.0
1001
ACAD
1000
MTEXTBEGIN
1070
    73
1070
     1
1070
    44
1040
1.0
1070
    74
1070
     0
1000
MTEXTEND
1000
MTEXTBEGIN
1070
    73
1070
     1
1070
    44
1040
1.0
1070
    74
1070
     0
1000
MTEXTEND
1000
MTEXTBEGIN
1070
    73
1070
     1
1070
    44
1040
1.0
1070
    74
1070
     0
1000
MTEXTEND
  0
POINT
  5
60C
330
576
100
AcDbEntity
  8
DEFPOINTS
  6
BYBLOCK
 62
     0
100
AcDbPoint
 10
295.6984831002499
 20
154.1823430359346
 30
0.0
  0
POINT
  5
60D
330
576
100
AcDbEntity
  8
DEFPOINTS
  6
BYBLOCK
 62
     0
100
AcDbPoint
 10
312.4099314817496
 20
112.4004975854038
 30
0.0
  0
POINT
  5
60E
330
576
100
AcDbEntity
  8
DEFPOINTS
  6
BYBLOCK
 62
     0
100
AcDbPoint
 10
269.1451377067493
 20
95.09581467632408
 30
0.0
  0
ENDBLK
  5
60F
330
576
100
AcDbEntity
  8
0
100
AcDbBlockEnd
  0
BLOCK
  5
610
330
582
100
AcDbEntity
  8
0
100
AcDbBlockBegin
  2
*D7
 70
     1
 10
0.0
 20
0.0
 30
0.0
  3
*D7
  1

  0
LINE
  5
611
330
582
100
AcDbEntity
  8
0
  6
BYBLOCK
 62
     4
100
AcDbLine
 10
330.6093728842618
 20
163.8376162693133
 30
0.0
 11
320.4110526793777
 21
189.3352873508654
 31
0.0
  0
LINE
  5
612
330
582
100
AcDbEntity
  8
0
  6
BYBLOCK
 62
     4
100
AcDbLine
 10
274.9002833044913
 20
141.5556152175335
 30
0.0
 11
264.7019630996071
 21
167.0532862990858
 31
0.0
  0
LINE
  5
613
330
582
100
AcDbEntity
  8
0
  6
BYBLOCK
 62
     4
100
AcDbLine
 10
318.1826452036854
 20
186.8284566580824
 30
0.0
 11
268.0444721392489
 21
166.7746587342018
 31
0.0
  0
INSERT
  5
614
330
582
100
AcDbEntity
  8
0
  6
BYBLOCK
 62
     4
100
AcDbBlockReference
  2
_OPEN
 10
320.9681034613524
 20
187.9425582220319
 30
0.0
 41
3.0
 42
3.0
 43
3.0
 50
21.79996003939538
  0
INSERT
  5
615
330
582
100
AcDbEntity
  8
0
  6
BYBLOCK
 62
     4
100
AcDbBlockReference
  2
_OPEN
 10
265.2590138815819
 20
165.6605571702523
 30
0.0
 41
3.0
 42
3.0
 43
3.0
 50
201.7999600393953
  0
MTEXT
  5
616
330
582
100
AcDbEntity
  8
0
  6
BYBLOCK
 62
     4
100
AcDbMText
 10
292.1851407015092
 20
179.1227729108646
 30
0.0
 40
3.0
 41
0.0
 71
     5
 72
     5
  1
\A1;60
 11
0.9284860858890016
 21
0.3713671879831624
 31
0.0
1001
ACAD
1000
MTEXTBEGIN
1070
    73
1070
     1
1070
    44
1040
1.0
1070
    74
1070
     0
1000
MTEXTEND
1000
MTEXTBEGIN
1070
    73
1070
     1
1070
    44
1040
1.0
1070
    74
1070
     0
1000
MTEXTEND
1000
MTEXTBEGIN
1070
    73
1070
     1
1070
    44
1040
1.0
1070
    74
1070
     0
1000
MTEXTEND
  0
POINT
  5
617
330
582
100
AcDbEntity
  8
DEFPOINTS
  6
BYBLOCK
 62
     0
100
AcDbPoint
 10
331.7234744482114
 20
161.0521580116462
 30
0.0
  0
POINT
  5
618
330
582
100
AcDbEntity
  8
DEFPOINTS
  6
BYBLOCK
 62
     0
100
AcDbPoint
 10
276.0143848684409
 20
138.7701569598665
 30
0.0
  0
POINT
  5
619
330
582
100
AcDbEntity
  8
DEFPOINTS
  6
BYBLOCK
 62
     0
100
AcDbPoint
 10
265.2590138815819
 20
165.6605571702523
 30
0.0
  0
ENDBLK
  5
61A
330
582
100
AcDbEntity
  8
0
100
AcDbBlockEnd
  0
BLOCK
  5
61B
330
58E
100
AcDbEntity
  8
0
100
AcDbBlockBegin
  2
*D8
 70
     1
 10
0.0
 20
0.0
 30
0.0
  3
*D8
  1

  0
LINE
  5
61C
330
58E
100
AcDbEntity
  8
0
  6
BYBLOCK
 62
     4
100
AcDbLine
 10
325.9669729417398
 20
161.9808041172819
 30
0.0
 11
319.5761464789821
 21
177.959041228493
 31
0.0
  0
LINE
  5
61D
330
58E
100
AcDbEntity
  8
0
  6
BYBLOCK
 62
     4
100
AcDbLine
 10
279.5426588497428
 20
143.4124393502866
 30
0.0
 11
273.1518323869851
 21
159.3906764614977
 31
0.0
  0
LINE
  5
61E
330
58E
100
AcDbEntity
  8
0
  6
BYBLOCK
 62
     4
100
AcDbLine
 10
317.3477390707473
 20
175.4522104757447
 30
0.0
 11
276.4943414341246
 21
159.1120489865589
 31
0.0
  0
INSERT
  5
61F
330
58E
100
AcDbEntity
  8
0
  6
BYBLOCK
 62
     4
100
AcDbBlockReference
  2
_OPEN
 10
320.1331972984344
 20
176.5663121146495
 30
0.0
 41
3.0
 42
3.0
 43
3.0
 50
21.79996158119543
  0
INSERT
  5
620
330
58E
100
AcDbEntity
  8
0
  6
BYBLOCK
 62
     4
100
AcDbBlockReference
  2
_OPEN
 10
273.7088832064375
 20
157.9979473476542
 30
0.0
 41
3.0
 42
3.0
 43
3.0
 50
201.7999615811954
  0
MTEXT
  5
621
330
58E
100
AcDbEntity
  8
0
  6
BYBLOCK
 62
     4
100
AcDbMText
 10
295.9926222200154
 20
169.6033449208911
 30
0.0
 40
3.0
 41
0.0
 71
     5
 72
     5
  1
\A1;50
 11
0.9284860758957007
 21
0.3713672129682466
 31
0.0
1001
ACAD
1000
MTEXTBEGIN
1070
    73
1070
     1
1070
    44
1040
1.0
1070
    74
1070
     0
1000
MTEXTEND
1000
MTEXTBEGIN
1070
    73
1070
     1
1070
    44
1040
1.0
1070
    74
1070
     0
1000
MTEXTEND
1000
MTEXTBEGIN
1070
    73
1070
     1
1070
    44
1040
1.0
1070
    74
1070
     0
1000
MTEXTEND
  0
POINT
  5
622
330
58E
100
AcDbEntity
  8
DEFPOINTS
  6
BYBLOCK
 62
     0
100
AcDbPoint
 10
327.0810745806445
 20
159.1953458895948
 30
0.0
  0
POINT
  5
623
330
58E
100
AcDbEntity
  8
DEFPOINTS
  6
BYBLOCK
 62
     0
100
AcDbPoint
 10
280.6567604886475
 20
140.6269811225994
 30
0.0
  0
POINT
  5
624
330
58E
100
AcDbEntity
  8
DEFPOINTS
  6
BYBLOCK
 62
     0
100
AcDbPoint
 10
273.7088832064375
 20
157.9979473476542
 30
0.0
  0
ENDBLK
  5
625
330
58E
100
AcDbEntity
  8
0
100
AcDbBlockEnd
  0
BLOCK
  5
626
330
59A
100
AcDbEntity
  8
0
100
AcDbBlockBegin
  2
*D9
 70
     1
 10
0.0
 20
0.0
 30
0.0
  3
*D9
  1

  0
LINE
  5
627
330
59A
100
AcDbEntity
  8
0
  6
BYBLOCK
 62
     4
100
AcDbLine
 10
221.419461358574
 20
124.0877301313637
 30
0.0
 11
232.6611081654457
 21
128.5840455417538
 31
0.0
  0
LINE
  5
628
330
59A
100
AcDbEntity
  8
0
  6
BYBLOCK
 62
     4
100
AcDbLine
 10
238.130939878832
 20
82.305843853714
 30
0.0
 11
249.3725866857037
 21
86.8021592641041
 31
0.0
  0
LINE
  5
629
330
59A
100
AcDbEntity
  8
0
  6
BYBLOCK
 62
     4
100
AcDbLine
 10
232.3824771589009
 20
125.2415367890066
 30
0.0
 11
246.8657582874327
 21
89.03056932098825
 31
0.0
  0
INSERT
  5
62A
330
59A
100
AcDbEntity
  8
0
  6
BYBLOCK
 62
     4
100
AcDbBlockReference
  2
_OPEN
 10
231.2683784630379
 20
128.0269961938223
 30
0.0
 41
3.0
 42
3.0
 43
3.0
 50
111.7999010439989
  0
INSERT
  5
62B
330
59A
100
AcDbEntity
  8
0
  6
BYBLOCK
 62
     4
100
AcDbBlockReference
  2
_OPEN
 10
247.9798569832958
 20
86.24510991617256
 30
0.0
 41
3.0
 42
3.0
 43
3.0
 50
291.799901043999
  0
MTEXT
  5
62C
330
59A
100
AcDbEntity
  8
0
  6
BYBLOCK
 62
     4
100
AcDbMText
 10
241.9453338938466
 20
108.0644686348833
 30
0.0
 40
3.0
 41
0.0
 71
     5
 72
     5
  1
\A1;45
 11
0.3713662319543515
 21
-0.9284864682719005
 31
0.0
1001
ACAD
1000
MTEXTBEGIN
1070
    73
1070
     1
1070
    44
1040
1.0
1070
    74
1070
     0
1000
MTEXTEND
1000
MTEXTBEGIN
1070
    73
1070
     1
1070
    44
1040
1.0
1070
    74
1070
     0
1000
MTEXTEND
1000
MTEXTBEGIN
1070
    73
1070
     1
1070
    44
1040
1.0
1070
    74
1070
     0
1000
MTEXTEND
  0
POINT
  5
62D
330
59A
100
AcDbEntity
  8
DEFPOINTS
  6
BYBLOCK
 62
     0
100
AcDbPoint
 10
218.6340019537583
 20
122.9736314355007
 30
0.0
  0
POINT
  5
62E
330
59A
100
AcDbEntity
  8
DEFPOINTS
  6
BYBLOCK
 62
     0
100
AcDbPoint
 10
235.3454804740163
 20
81.19174515785095
 30
0.0
  0
POINT
  5
62F
330
59A
100
AcDbEntity
  8
DEFPOINTS
  6
BYBLOCK
 62
     0
100
AcDbPoint
 10
247.9798569832958
 20
86.24510991617256
 30
0.0
  0
ENDBLK
  5
630
330
59A
100
AcDbEntity
  8
0
100
AcDbBlockEnd
  0
BLOCK
  5
631
330
5A6
100
AcDbEntity
  8
0
100
AcDbBlockBegin
  2
*D10
 70
     1
 10
0.0
 20
0.0
 30
0.0
  3
*D10
  1

  0
LINE
  5
849
330
5A6
100
AcDbEntity
  8
SUNPOU
  6
CONTINUOUS
 62
     4
100
AcDbLine
 10
235.0667543495124
 20
77.84924433521211
 30
0.0
 11
239.8029944383517
 21
66.00676268954813
 31
0.0
  0
LINE
  5
84A
330
5A6
100
AcDbEntity
  8
SUNPOU
  6
CONTINUOUS
 62
     4
100
AcDbLine
 10
236.4594999038295
 20
78.40625405034431
 30
0.0
 11
241.1957399926688
 21
66.56377240468032
 31
0.0
  0
LINE
  5
84B
330
5A6
100
AcDbEntity
  8
SUNPOU
  6
CONTINUOUS
 62
     4
100
AcDbLine
 10
236.4604936159384
 20
66.28548881348805
 30
0.0
 11
233.6750025084318
 21
65.17146938367467
 31
0.0
  0
LINE
  5
84C
330
5A6
100
AcDbEntity
  8
SUNPOU
  6
CONTINUOUS
 62
     4
100
AcDbLine
 10
243.4242213852687
 20
69.070537388247
 30
0.0
 11
255.4946828511306
 21
73.89795491743832
 31
0.0
  0
LINE
  5
84D
330
5A6
100
AcDbEntity
  8
SUNPOU
  6
CONTINUOUS
 62
     4
100
AcDbLine
 10
239.245984723445
 20
67.39950824330143
 30
0.0
 11
240.6387302777621
 21
67.95651795843362
 31
0.0
  0
INSERT
  5
84E
330
5A6
100
AcDbEntity
  8
SUNPOU
  6
CONTINUOUS
 62
     4
100
AcDbBlockReference
  2
_OPEN
 10
239.245984723445
 20
67.39950824330143
 30
0.0
 41
3.0
 42
3.0
 43
3.0
 50
21.79827058252051
  0
INSERT
  5
84F
330
5A6
100
AcDbEntity
  8
SUNPOU
  6
CONTINUOUS
 62
     4
100
AcDbBlockReference
  2
_OPEN
 10
240.6387302777621
 20
67.95651795843362
 30
0.0
 41
3.0
 42
3.0
 43
3.0
 50
201.7982705825204
  0
MTEXT
  5
850
330
5A6
100
AcDbEntity
  8
SUNPOU
  6
CONTINUOUS
 62
     4
100
AcDbMText
 10
249.9238481471084
 20
74.36249845733816
 30
0.0
 40
3.0
 41
0.0
 71
     5
 72
     1
  1
\A1;t1.5
 11
0.9284970358355286
 21
0.3713398099377939
 31
0.0
1001
ACAD
1000
MTEXTBEGIN
1070
    73
1070
     1
1070
    44
1040
1.0
1070
    74
1070
     0
1000
MTEXTEND
  0
POINT
  5
851
330
5A6
100
AcDbEntity
  8
DEFPOINTS
  6
CONTINUOUS
 62
     0
100
AcDbPoint
 10
233.952734919699
 20
80.6347354427187
 30
0.0
  0
POINT
  5
852
330
5A6
100
AcDbEntity
  8
DEFPOINTS
  6
CONTINUOUS
 62
     0
100
AcDbPoint
 10
235.3454804740161
 20
81.1917451578509
 30
0.0
  0
POINT
  5
853
330
5A6
100
AcDbEntity
  8
DEFPOINTS
  6
CONTINUOUS
 62
     0
100
AcDbPoint
 10
240.6387302777621
 20
67.95651795843362
 30
0.0
  0
ENDBLK
  5
63D
330
5A6
100
AcDbEntity
  8
0
100
AcDbBlockEnd
  0
BLOCK
  5
63E
330
5B4
100
AcDbEntity
  8
0
100
AcDbBlockBegin
  2
*D11
 70
     1
 10
0.0
 20
0.0
 30
0.0
  3
*D11
  1

  0
LINE
  5
63F
330
5B4
100
AcDbEntity
  8
0
  6
BYBLOCK
 62
     4
100
AcDbLine
 10
309.4453097449554
 20
116.5997763743713
 30
0.0
 11
296.4311826369804
 21
111.3944969013394
 31
0.0
  0
LINE
  5
640
330
5B4
100
AcDbEntity
  8
0
  6
BYBLOCK
 62
     4
100
AcDbLine
 10
309.6244740011069
 20
111.2863940787531
 30
0.0
 11
298.2879980458146
 21
106.7521271934665
 31
0.0
  0
LINE
  5
641
330
5B4
100
AcDbEntity
  8
0
  6
BYBLOCK
 62
     4
100
AcDbLine
 10
296.7098078706511
 20
114.7370061353075
 30
0.0
 11
295.5957043640004
 21
117.5224636159503
 31
0.0
  0
LINE
  5
642
330
5B4
100
AcDbEntity
  8
0
  6
BYBLOCK
 62
     4
100
AcDbLine
 10
300.7948302927867
 20
104.5237214661491
 30
0.0
 11
301.9089337994374
 21
101.7382639855064
 31
0.0
  0
LINE
  5
643
330
5B4
100
AcDbEntity
  8
0
  6
BYBLOCK
 62
     4
100
AcDbLine
 10
297.8239113773017
 20
111.9515486546648
 30
0.0
 11
299.680726786136
 21
107.3091789467918
 31
0.0
  0
INSERT
  5
644
330
5B4
100
AcDbEntity
  8
0
  6
BYBLOCK
 62
     4
100
AcDbBlockReference
  2
_OPEN
 10
297.8239113773017
 20
111.9515486546648
 30
0.0
 41
3.0
 42
3.0
 43
3.0
 50
291.7999999999998
  0
INSERT
  5
645
330
5B4
100
AcDbEntity
  8
0
  6
BYBLOCK
 62
     4
100
AcDbBlockReference
  2
_OPEN
 10
299.680726786136
 20
107.3091789467918
 30
0.0
 41
3.0
 42
3.0
 43
3.0
 50
111.7999999999998
  0
MTEXT
  5
646
330
5B4
100
AcDbEntity
  8
0
  6
BYBLOCK
 62
     4
100
AcDbMText
 10
301.0735336489212
 20
110.5587833896039
 30
0.0
 40
3.0
 41
0.0
 71
     5
 72
     5
  1
\A1;5
 11
0.3713678355502318
 21
-0.9284858268809147
 31
0.0
1001
ACAD
1000
MTEXTBEGIN
1070
    73
1070
     1
1070
    44
1040
1.0
1070
    74
1070
     0
1000
MTEXTEND
1000
MTEXTBEGIN
1070
    73
1070
     1
1070
    44
1040
1.0
1070
    74
1070
     0
1000
MTEXTEND
1000
MTEXTBEGIN
1070
    73
1070
     1
1070
    44
1040
1.0
1070
    74
1070
     0
1000
MTEXTEND
  0
POINT
  5
647
330
5B4
100
AcDbEntity
  8
DEFPOINTS
  6
BYBLOCK
 62
     0
100
AcDbPoint
 10
312.2307672255982
 20
117.713879881022
 30
0.0
  0
POINT
  5
648
330
5B4
100
AcDbEntity
  8
DEFPOINTS
  6
BYBLOCK
 62
     0
100
AcDbPoint
 10
312.4099314817496
 20
112.4004975854038
 30
0.0
  0
POINT
  5
649
330
5B4
100
AcDbEntity
  8
DEFPOINTS
  6
BYBLOCK
 62
     0
100
AcDbPoint
 10
299.680726786136
 20
107.3091789467918
 30
0.0
  0
ENDBLK
  5
64A
330
5B4
100
AcDbEntity
  8
0
100
AcDbBlockEnd
  0
BLOCK
  5
64B
330
5C2
100
AcDbEntity
  8
0
100
AcDbBlockBegin
  2
*D12
 70
     1
 10
0.0
 20
0.0
 30
0.0
  3
*D12
  1

  0
LINE
  5
64C
330
5C2
100
AcDbEntity
  8
0
  6
BYBLOCK
 62
     4
100
AcDbLine
 10
228.690080474016
 20
237.973545157851
 30
0.0
 11
252.0066322560196
 21
237.973545157851
 31
0.0
  0
LINE
  5
64D
330
5C2
100
AcDbEntity
  8
0
  6
BYBLOCK
 62
     4
100
AcDbLine
 10
228.689980474016
 20
177.9736451578508
 30
0.0
 11
252.0066322560196
 21
177.9736451578508
 31
0.0
  0
LINE
  5
64E
330
5C2
100
AcDbEntity
  8
0
  6
BYBLOCK
 62
     4
100
AcDbLine
 10
250.5066322560196
 20
234.973545157851
 30
0.0
 11
250.5066322560196
 21
180.9736451578508
 31
0.0
  0
INSERT
  5
64F
330
5C2
100
AcDbEntity
  8
0
  6
BYBLOCK
 62
     4
100
AcDbBlockReference
  2
_OPEN
 10
250.5066322560196
 20
237.973545157851
 30
0.0
 41
3.0
 42
3.0
 43
3.0
 50
90.0
  0
INSERT
  5
650
330
5C2
100
AcDbEntity
  8
0
  6
BYBLOCK
 62
     4
100
AcDbBlockReference
  2
_OPEN
 10
250.5066322560196
 20
177.9736451578508
 30
0.0
 41
3.0
 42
3.0
 43
3.0
 50
270.0
  0
MTEXT
  5
651
330
5C2
100
AcDbEntity
  8
0
  6
BYBLOCK
 62
     4
100
AcDbMText
 10
248.0066322560196
 20
207.9735951578509
 30
0.0
 40
3.0
 41
0.0
 71
     5
 72
     5
  1
\A1;60
 11
0.0
 21
1.0
 31
0.0
1001
ACAD
1000
MTEXTBEGIN
1070
    73
1070
     1
1070
    44
1040
1.0
1070
    74
1070
     0
1000
MTEXTEND
1000
MTEXTBEGIN
1070
    73
1070
     1
1070
    44
1040
1.0
1070
    74
1070
     0
1000
MTEXTEND
1000
MTEXTBEGIN
1070
    73
1070
     1
1070
    44
1040
1.0
1070
    74
1070
     0
1000
MTEXTEND
  0
POINT
  5
652
330
5C2
100
AcDbEntity
  8
DEFPOINTS
  6
BYBLOCK
 62
     0
100
AcDbPoint
 10
225.6900804740161
 20
237.973545157851
 30
0.0
  0
POINT
  5
653
330
5C2
100
AcDbEntity
  8
DEFPOINTS
  6
BYBLOCK
 62
     0
100
AcDbPoint
 10
225.689980474016
 20
177.9736451578508
 30
0.0
  0
POINT
  5
654
330
5C2
100
AcDbEntity
  8
DEFPOINTS
  6
BYBLOCK
 62
     0
100
AcDbPoint
 10
250.5066322560196
 20
177.9736451578508
 30
0.0
  0
ENDBLK
  5
655
330
5C2
100
AcDbEntity
  8
0
100
AcDbBlockEnd
  0
ENDSEC
  0
SECTION
  2
ENTITIES
  0
POINT
  5
1A1
330
1A
100
AcDbEntity
  8
SUNPOU_L
  6
CONTINUOUS
100
AcDbPoint
 10
205.9553251990115
 20
146.5650665787895
 30
0.0
  0
POINT
  5
1A2
330
1A
100
AcDbEntity
  8
SUNPOU_L
  6
CONTINUOUS
100
AcDbPoint
 10
205.4553267650654
 20
145.6990402718312
 30
0.0
  0
LINE
  5
40D
330
1A
100
AcDbEntity
  8
SEIHIN
  6
CONTINUOUS
 62
     3
 48
16.0
100
AcDbLine
 10
155.5793804740162
 20
122.9737451578509
 30
0.0
 11
215.2487804740162
 21
122.973645157851
 31
0.0
  0
LINE
  5
40E
330
1A
100
AcDbEntity
  8
SEIHIN
  6
CONTINUOUS
 62
     3
 48
16.0
100
AcDbLine
 10
157.9464804740162
 20
117.9737451578509
 30
0.0
 11
213.2164804740162
 21
117.973645157851
 31
0.0
  0
LINE
  5
40F
330
1A
100
AcDbEntity
  8
CENTER_L
  6
CENTER
 62
     1
 48
5.0
100
AcDbLine
 10
239.2794804740162
 20
207.973645157851
 30
0.0
 11
78.47948047401619
 21
207.973745157851
 31
0.0
  0
LINE
  5
410
330
1A
100
AcDbEntity
  8
SEIHIN
  6
CONTINUOUS
 62
     3
 48
16.0
100
AcDbLine
 10
234.8455798939698
 20
201.4236154461345
 30
0.0
 11
88.03408047401623
 21
201.423745157851
 31
0.0
  0
LINE
  5
411
330
1A
100
AcDbEntity
  8
SEIHIN
  6
CONTINUOUS
 62
     3
 48
16.0
100
AcDbLine
 10
234.8455810540626
 20
214.5236154461334
 30
0.0
 11
88.03408047401623
 21
214.5237451578508
 31
0.0
  0
DIMENSION
  5
412
330
1A
100
AcDbEntity
  8
SUNPOU
  6
CONTINUOUS
100
AcDbDimension
  2
*D1
 10
173.6339775080442
 20
139.0948064366431
 30
0.0
 11
196.1339897309013
 21
141.5948064366431
 31
0.0
 70
    32
  3
STANDARD
100
AcDbAlignedDimension
 13
218.6340019537583
 23
122.9736314355007
 33
0.0
 14
173.6339775080442
 24
101.603841705803
 34
0.0
100
AcDbRotatedDimension
1001
ACAD
1000
DSTYLE
1002
{
1070
   140
1040
3.0
1070
    74
1070
     0
1070
   172
1070
     1
1070
    73
1070
     0
1070
   272
1070
     2
1070
    77
1070
     3
1070
   173
1070
     1
1070
   147
1040
1.0
1070
    42
1040
3.0
1070
    44
1040
1.5
1070
    43
1040
7.0
1070
   271
1070
     0
1070
   178
1070
     4
1070
   177
1070
     4
1070
   176
1070
     4
1070
   141
1040
150.0
1070
     7
1000
_OPEN
1070
     6
1000
_OPEN
1070
    41
1040
3.0
1002
}
  0
DIMENSION
  5
413
330
1A
100
AcDbEntity
  8
SUNPOU
  6
CONTINUOUS
100
AcDbDimension
  2
*D2
 10
88.0339804740162
 20
155.266577256548
 30
0.0
 11
153.3339912138872
 21
157.766577256548
 31
0.0
 70
    32
  3
STANDARD
100
AcDbAlignedDimension
 13
218.6340019537583
 23
122.9736314355006
 33
0.0
 14
88.0339804740162
 24
102.873945157851
 34
0.0
100
AcDbRotatedDimension
1001
ACAD
1000
DSTYLE
1002
{
1070
   140
1040
3.0
1070
    74
1070
     0
1070
   172
1070
     1
1070
    73
1070
     0
1070
   272
1070
     2
1070
    77
1070
     3
1070
   173
1070
     1
1070
   147
1040
1.0
1070
    42
1040
3.0
1070
    44
1040
1.5
1070
    43
1040
7.0
1070
   271
1070
     0
1070
   178
1070
     4
1070
   177
1070
     4
1070
   176
1070
     4
1070
   141
1040
150.0
1070
     7
1000
_OPEN
1070
     6
1000
_OPEN
1070
    41
1040
3.0
1002
}
  0
DIMENSION
  5
414
330
1A
100
AcDbEntity
  8
SUNPOU
  6
CONTINUOUS
100
AcDbDimension
  2
*D3
 10
73.61730164383809
 20
108.973945157851
 30
0.0
 11
71.11730164383809
 21
94.86004515785101
 31
0.0
 70
    32
  3
STANDARD
100
AcDbAlignedDimension
 13
234.231280474016
 23
80.746145157851
 33
0.0
 14
93.63398047401622
 24
108.973945157851
 34
0.0
 50
90.0
100
AcDbRotatedDimension
1001
ACAD
1000
DSTYLE
1002
{
1070
   140
1040
3.0
1070
    74
1070
     0
1070
   172
1070
     1
1070
    73
1070
     0
1070
   272
1070
     2
1070
    77
1070
     3
1070
   173
1070
     1
1070
   147
1040
1.0
1070
    42
1040
3.0
1070
    44
1040
1.5
1070
    43
1040
7.0
1070
   271
1070
     0
1070
   178
1070
     4
1070
   177
1070
     4
1070
   176
1070
     4
1070
   141
1040
150.0
1070
     7
1000
_OPEN
1070
     6
1000
_OPEN
1070
    41
1040
3.0
1002
}
  0
LINE
  5
415
330
1A
100
AcDbEntity
  8
SEIHIN
  6
CONTINUOUS
 62
     3
 48
16.0
100
AcDbLine
 10
149.4716804740162
 20
99.973745157851
 30
0.0
 11
131.1339804740162
 21
99.97384515785093
 31
0.0
  0
LINE
  5
416
330
1A
100
AcDbEntity
  8
SEIHIN
  6
CONTINUOUS
 62
     3
 48
16.0
100
AcDbLine
 10
144.1254804740162
 20
101.4738451578509
 30
0.0
 11
123.6339804740162
 21
101.4738451578509
 31
0.0
  0
LINE
  5
417
330
1A
100
AcDbEntity
  8
SEIHIN
  6
CONTINUOUS
 62
     3
 48
16.0
100
AcDbLine
 10
152.8383804740162
 20
95.973745157851
 30
0.0
 11
131.1339804740162
 21
95.97384515785099
 31
0.0
  0
LINE
  5
418
330
1A
100
AcDbEntity
  8
NOKITOI
  6
PHANTOM
 62
     8
 48
5.0
100
AcDbLine
 10
155.4339775080441
 20
61.60394170580321
 30
0.0
 11
131.1339775080442
 21
61.60394170580321
 31
0.0
  0
LINE
  5
419
330
1A
100
AcDbEntity
  8
NOKITOI
  6
PHANTOM
 62
     8
 48
5.0
100
AcDbLine
 10
131.1339775080442
 20
62.80394170580322
 30
0.0
 11
150.6339775080442
 21
62.80394170580322
 31
0.0
  0
ARC
  5
41A
330
1A
100
AcDbEntity
  8
SEIHIN
  6
CONTINUOUS
 62
     3
 48
16.0
100
AcDbCircle
 10
109.4296315816529
 20
98.97380832073203
 30
0.0
 40
2.999963163316352
100
AcDbArc
 50
198.4327647962198
 51
269.9990239040528
  0
LINE
  5
41B
330
1A
100
AcDbEntity
  8
SEIHIN
  6
CONTINUOUS
 62
     3
 48
16.0
100
AcDbLine
 10
97.63398047401622
 20
103.873845157851
 30
0.0
 11
97.63398047401622
 21
93.71664515785099
 31
0.0
  0
LINE
  5
41C
330
1A
100
AcDbEntity
  8
SEIHIN
  6
CONTINUOUS
 62
     3
 48
16.0
100
AcDbLine
 10
97.13398047401623
 20
103.873845157851
 30
0.0
 11
97.13398047401623
 21
93.71664515785099
 31
0.0
  0
LINE
  5
41D
330
1A
100
AcDbEntity
  8
SEIHIN
  6
CONTINUOUS
 62
     3
 48
16.0
100
AcDbLine
 10
96.63398047401623
 20
103.873845157851
 30
0.0
 11
96.63398047401623
 21
94.01334515785093
 31
0.0
  0
LINE
  5
41E
330
1A
100
AcDbEntity
  8
NOKITOI
  6
PHANTOM
 62
     8
 48
5.0
100
AcDbLine
 10
92.55037750804408
 20
100.4039417058032
 30
0.0
 11
93.48907750804423
 21
95.80394170580323
 31
0.0
  0
LINE
  5
41F
330
1A
100
AcDbEntity
  8
NOKITOI
  6
PHANTOM
 62
     8
 48
5.0
100
AcDbLine
 10
89.83407750804415
 20
100.4039417058032
 30
0.0
 11
89.83407750804415
 21
95.80394170580323
 31
0.0
  0
LINE
  5
420
330
1A
100
AcDbEntity
  8
NOKITOI
  6
PHANTOM
 62
     8
 48
5.0
100
AcDbLine
 10
88.63397750804423
 20
94.60394170580324
 30
0.0
 11
88.63407750804411
 21
101.6039417058032
 31
0.0
  0
LINE
  5
421
330
1A
100
AcDbEntity
  8
SEIHIN
  6
CONTINUOUS
 62
     3
 48
16.0
100
AcDbLine
 10
88.63398047401622
 20
94.87394515785101
 30
0.0
 11
88.63398047401622
 21
103.973945157851
 31
0.0
  0
LINE
  5
422
330
1A
100
AcDbEntity
  8
SEIHIN
  6
CONTINUOUS
 62
     3
 48
16.0
100
AcDbLine
 10
88.0339804740162
 20
94.87394515785101
 30
0.0
 11
88.0339804740162
 21
102.873945157851
 31
0.0
  0
LINE
  5
423
330
1A
100
AcDbEntity
  8
NOKITOI
  6
PHANTOM
 62
     8
 48
5.0
100
AcDbLine
 10
93.53247750804413
 20
101.6039417058032
 30
0.0
 11
99.76657750804415
 21
71.05654170580314
 31
0.0
  0
LINE
  5
424
330
1A
100
AcDbEntity
  8
SEIHIN
  6
CONTINUOUS
 62
     3
 48
16.0
100
AcDbLine
 10
98.11328047401614
 20
93.13564515785101
 30
0.0
 11
106.6659804740161
 21
97.80674515785092
 31
0.0
  0
LINE
  5
425
330
1A
100
AcDbEntity
  8
SEIHIN
  6
CONTINUOUS
 62
     3
 48
16.0
100
AcDbLine
 10
98.61328047401613
 20
92.83904515785094
 30
0.0
 11
106.8981804740161
 21
97.36384515785093
 31
0.0
  0
LINE
  5
426
330
1A
100
AcDbEntity
  8
NOKITOI
  6
PHANTOM
 62
     8
 48
5.0
100
AcDbLine
 10
104.2118775080442
 20
68.50394170580315
 30
0.0
 11
111.6339775080442
 21
68.50394170580315
 31
0.0
  0
ARC
  5
427
330
1A
100
AcDbEntity
  8
NOKITOI
  6
PHANTOM
 62
     8
 48
5.0
100
AcDbCircle
 10
96.04967339517415
 20
59.43654602177403
 30
0.0
 40
10.99994632941524
100
AcDbArc
 50
11.36374015671925
 51
75.87555169639184
  0
LINE
  5
428
330
1A
100
AcDbEntity
  8
NOKITOI
  6
PHANTOM
 62
     8
 48
5.0
100
AcDbLine
 10
93.73407750804423
 20
94.60394170580324
 30
0.0
 11
98.73397750804427
 21
70.10394170580323
 31
0.0
  0
ARC
  5
429
330
1A
100
AcDbEntity
  8
NOKITOI
  6
PHANTOM
 62
     8
 48
5.0
100
AcDbCircle
 10
96.04963572106804
 20
59.4365657006922
 30
0.0
 40
12.19997945109428
100
AcDbArc
 50
48.00719042627341
 51
72.26181654227993
  0
ARC
  5
42A
330
1A
100
AcDbEntity
  8
SEIHIN
  6
CONTINUOUS
 62
     3
 48
16.0
100
AcDbCircle
 10
89.63398047401623
 20
94.87394515785101
 30
0.0
 40
1.0
100
AcDbArc
 50
180.0
 51
270.0
  0
ARC
  5
42B
330
1A
100
AcDbEntity
  8
SEIHIN
  6
CONTINUOUS
 62
     3
 48
16.0
100
AcDbCircle
 10
89.63398047401629
 20
94.87394515785098
 30
0.0
 40
1.600000000000051
100
AcDbArc
 50
179.9999999999989
 51
269.9999999999989
  0
LINE
  5
42C
330
1A
100
AcDbEntity
  8
NOKITOI
  6
PHANTOM
 62
     8
 48
5.0
100
AcDbLine
 10
88.63397750804423
 20
94.60394170580324
 30
0.0
 11
93.73407750804423
 21
94.60394170580324
 31
0.0
  0
ARC
  5
42D
330
1A
100
AcDbEntity
  8
SEIHIN
  6
CONTINUOUS
 62
     3
 48
16.0
100
AcDbCircle
 10
98.13395803601274
 20
93.71665846968033
 30
0.0
 40
0.9999775620851208
100
AcDbArc
 50
180.0007627287535
 51
298.6418608679199
  0
ARC
  5
42E
330
1A
100
AcDbEntity
  8
SEIHIN
  6
CONTINUOUS
 62
     3
 48
16.0
100
AcDbCircle
 10
97.63397264395488
 20
94.01335514040789
 30
0.0
 40
0.9999921699884623
100
AcDbArc
 50
180.0005719628614
 51
256.2200246735066
  0
LINE
  5
42F
330
1A
100
AcDbEntity
  8
SEIHIN
  6
CONTINUOUS
 62
     3
 48
16.0
100
AcDbLine
 10
93.43398047401612
 20
93.87394515785102
 30
0.0
 11
89.63398047401623
 21
93.87394515785102
 31
0.0
  0
LINE
  5
430
330
1A
100
AcDbEntity
  8
SEIHIN
  6
CONTINUOUS
 62
     3
 48
16.0
100
AcDbLine
 10
93.43398047401612
 20
93.27394515785092
 30
0.0
 11
89.63398047401623
 21
93.27394515785092
 31
0.0
  0
LINE
  5
431
330
1A
100
AcDbEntity
  8
NOKITOI
  6
PHANTOM
 62
     8
 48
5.0
100
AcDbLine
 10
93.48907750804423
 20
95.80394170580323
 30
0.0
 11
89.83407750804415
 21
95.80394170580323
 31
0.0
  0
LINE
  5
432
330
1A
100
AcDbEntity
  8
SEIHIN
  6
CONTINUOUS
 62
     3
 48
16.0
100
AcDbLine
 10
93.43398047401612
 20
93.87394515785102
 30
0.0
 11
93.43398047401612
 21
93.27394515785092
 31
0.0
  0
ARC
  5
433
330
1A
100
AcDbEntity
  8
SEIHIN
  6
CONTINUOUS
 62
     3
 48
16.0
100
AcDbCircle
 10
98.13395727293968
 20
93.71665892376654
 30
0.0
 40
0.4999767991129506
100
AcDbArc
 50
180.0015775309251
 51
298.6376467001073
  0
LINE
  5
434
330
1A
100
AcDbEntity
  8
NOKITOI
  6
PHANTOM
 62
     8
 48
5.0
100
AcDbLine
 10
131.1339775080442
 20
62.80394170580322
 30
0.0
 11
111.6339775080442
 21
62.80394170580322
 31
0.0
  0
LINE
  5
435
330
1A
100
AcDbEntity
  8
NOKITOI
  6
PHANTOM
 62
     8
 48
5.0
100
AcDbLine
 10
106.8339775080442
 20
61.60394170580321
 30
0.0
 11
131.1339775080442
 21
61.60394170580321
 31
0.0
  0
ARC
  5
436
330
1A
100
AcDbEntity
  8
NOKITOI
  6
PHANTOM
 62
     8
 48
5.0
100
AcDbCircle
 10
96.04967314691871
 20
59.43654987711093
 30
0.0
 40
12.19993877054614
100
AcDbArc
 50
16.02263637925393
 51
40.15603560521631
  0
LINE
  5
437
330
1A
100
AcDbEntity
  8
NOKITOI
  6
PHANTOM
 62
     8
 48
5.0
100
AcDbLine
 10
110.433977508044
 20
62.80394170580322
 30
0.0
 11
110.433977508044
 21
67.30394170580317
 31
0.0
  0
LINE
  5
438
330
1A
100
AcDbEntity
  8
NOKITOI
  6
PHANTOM
 62
     8
 48
5.0
100
AcDbLine
 10
111.6339775080442
 20
62.80394170580322
 30
0.0
 11
111.6339775080442
 21
68.50394170580315
 31
0.0
  0
LINE
  5
439
330
1A
100
AcDbEntity
  8
NOKITOI
  6
PHANTOM
 62
     8
 48
5.0
100
AcDbLine
 10
110.433977508044
 20
62.80394170580322
 30
0.0
 11
107.7756775080441
 21
62.80394170580322
 31
0.0
  0
LINE
  5
43A
330
1A
100
AcDbEntity
  8
NOKITOI
  6
PHANTOM
 62
     8
 48
5.0
100
AcDbLine
 10
105.3739775080441
 20
67.30394170580317
 30
0.0
 11
110.433977508044
 21
67.30394170580317
 31
0.0
  0
LINE
  5
43B
330
1A
100
AcDbEntity
  8
CENTER_L
  6
CENTER
 48
5.0
100
AcDbLine
 10
131.1339775080442
 20
54.60394170580321
 30
0.0
 11
131.1339775080442
 21
69.80394170580322
 31
0.0
  0
LINE
  5
43C
330
1A
100
AcDbEntity
  8
SEIHIN
  6
CONTINUOUS
 62
     3
 48
16.0
100
AcDbLine
 10
109.4295804740162
 20
95.97384515785099
 30
0.0
 11
131.1339804740162
 21
95.97384515785099
 31
0.0
  0
ARC
  5
43D
330
1A
100
AcDbEntity
  8
SEIHIN
  6
CONTINUOUS
 62
     3
 48
16.0
100
AcDbCircle
 10
102.4716513017021
 20
100.8738661838317
 30
0.0
 40
2.999978974161103
100
AcDbArc
 50
18.43499562786981
 51
89.99944284593667
  0
ARC
  5
43E
330
1A
100
AcDbEntity
  8
SEIHIN
  6
CONTINUOUS
 62
     3
 48
16.0
100
AcDbCircle
 10
102.5886928419111
 20
101.9739362435767
 30
0.0
 40
7.000008914285215
100
AcDbArc
 50
18.43505005538998
 51
90.00010123246797
  0
ARC
  5
43F
330
1A
100
AcDbEntity
  8
SEIHIN
  6
CONTINUOUS
 62
     3
 48
16.0
100
AcDbCircle
 10
89.63398047401623
 20
102.873945157851
 30
0.0
 40
1.0
100
AcDbArc
 50
90.0
 51
180.0
  0
ARC
  5
440
330
1A
100
AcDbEntity
  8
SEIHIN
  6
CONTINUOUS
 62
     3
 48
16.0
100
AcDbCircle
 10
93.63398047401622
 20
103.973945157851
 30
0.0
 40
5.0
100
AcDbArc
 50
90.0
 51
180.0
  0
LINE
  5
441
330
1A
100
AcDbEntity
  8
NOKITOI
  6
PHANTOM
 62
     8
 48
5.0
100
AcDbLine
 10
88.63407750804411
 20
101.6039417058032
 30
0.0
 11
93.53247750804413
 21
101.6039417058032
 31
0.0
  0
ARC
  5
442
330
1A
100
AcDbEntity
  8
SEIHIN
  6
CONTINUOUS
 62
     3
 48
16.0
100
AcDbCircle
 10
89.63396577544367
 20
102.8739146317479
 30
0.0
 40
1.599985301718659
100
AcDbArc
 50
128.5765029246821
 51
179.9989068544136
  0
LINE
  5
443
330
1A
100
AcDbEntity
  8
SEIHIN
  6
CONTINUOUS
 62
     3
 48
16.0
100
AcDbLine
 10
96.63398047401623
 20
108.973945157851
 30
0.0
 11
96.63398047401628
 21
111.973945157851
 31
0.0
  0
LINE
  5
444
330
1A
100
AcDbEntity
  8
SEIHIN
  6
CONTINUOUS
 62
     3
 48
16.0
100
AcDbLine
 10
97.13398047401623
 20
108.973945157851
 30
0.0
 11
97.13398047401623
 21
111.973945157851
 31
0.0
  0
LINE
  5
445
330
1A
100
AcDbEntity
  8
SEIHIN
  6
CONTINUOUS
 62
     3
 48
16.0
100
AcDbLine
 10
97.63398047401622
 20
108.973945157851
 30
0.0
 11
97.63398047401622
 21
111.973945157851
 31
0.0
  0
LINE
  5
446
330
1A
100
AcDbEntity
  8
SEIHIN
  6
CONTINUOUS
 62
     3
 48
16.0
100
AcDbLine
 10
89.63398047401623
 20
103.873945157851
 30
0.0
 11
102.4716804740162
 21
103.873845157851
 31
0.0
  0
LINE
  5
447
330
1A
100
AcDbEntity
  8
SEIHIN
  6
CONTINUOUS
 62
     3
 48
16.0
100
AcDbLine
 10
102.5886804740162
 20
108.973945157851
 30
0.0
 11
93.63398047401622
 21
108.973945157851
 31
0.0
  0
LINE
  5
448
330
1A
100
AcDbEntity
  8
NOKITOI
  6
PHANTOM
 62
     8
 48
5.0
100
AcDbLine
 10
92.55037750804408
 20
100.4039417058032
 30
0.0
 11
89.83407750804415
 21
100.4039417058032
 31
0.0
  0
LINE
  5
449
330
1A
100
AcDbEntity
  8
SEIHIN
  6
CONTINUOUS
 62
     3
 48
16.0
100
AcDbLine
 10
97.63398047401622
 20
111.973945157851
 30
0.0
 11
96.63398047401623
 21
111.973945157851
 31
0.0
  0
LINE
  5
44A
330
1A
100
AcDbEntity
  8
SEIHIN
  6
CONTINUOUS
 62
     3
 48
16.0
100
AcDbLine
 10
112.7962804740161
 20
99.97384515785093
 30
0.0
 11
131.1339804740162
 21
99.97384515785093
 31
0.0
  0
LINE
  5
44B
330
1A
100
AcDbEntity
  8
SEIHIN
  6
CONTINUOUS
 62
     3
 48
16.0
100
AcDbLine
 10
109.229480474016
 20
104.187445157851
 30
0.0
 11
109.9501804740161
 21
102.025245157851
 31
0.0
  0
LINE
  5
44C
330
1A
100
AcDbEntity
  8
SEIHIN
  6
CONTINUOUS
 62
     3
 48
16.0
100
AcDbLine
 10
105.3176804740161
 20
101.822545157851
 30
0.0
 11
106.5835804740161
 21
98.02524515785101
 31
0.0
  0
ARC
  5
44D
330
1A
100
AcDbEntity
  8
SEIHIN
  6
CONTINUOUS
 62
     3
 48
16.0
100
AcDbCircle
 10
112.7963315816528
 20
102.973808320732
 30
0.0
 40
2.999963163316471
100
AcDbArc
 50
198.4327647962198
 51
269.9990239040528
  0
LINE
  5
44E
330
1A
100
AcDbEntity
  8
SEIHIN
  6
CONTINUOUS
 62
     3
 48
16.0
100
AcDbLine
 10
123.6339804740162
 20
101.4738451578509
 30
0.0
 11
123.6339804740162
 21
99.97384515785093
 31
0.0
  0
LINE
  5
44F
330
1A
100
AcDbEntity
  8
NOKITOI
  6
PHANTOM
 62
     8
 48
5.0
100
AcDbLine
 10
169.7176775080441
 20
100.403841705803
 30
0.0
 11
168.7788775080442
 21
95.8038417058032
 31
0.0
  0
LINE
  5
450
330
1A
100
AcDbEntity
  8
NOKITOI
  6
PHANTOM
 62
     8
 48
5.0
100
AcDbLine
 10
172.4339775080441
 20
100.403841705803
 30
0.0
 11
172.4339775080441
 21
95.8038417058032
 31
0.0
  0
LINE
  5
451
330
1A
100
AcDbEntity
  8
NOKITOI
  6
PHANTOM
 62
     8
 48
5.0
100
AcDbLine
 10
173.6339775080442
 20
94.6038417058031
 30
0.0
 11
173.6339775080442
 21
101.603841705803
 31
0.0
  0
LINE
  5
452
330
1A
100
AcDbEntity
  8
SEIHIN
  6
CONTINUOUS
 62
     3
 48
16.0
100
AcDbLine
 10
173.6339804740162
 20
94.873745157851
 30
0.0
 11
173.6340804740162
 21
103.973745157851
 31
0.0
  0
LINE
  5
453
330
1A
100
AcDbEntity
  8
SEIHIN
  6
CONTINUOUS
 62
     3
 48
16.0
100
AcDbLine
 10
174.2339804740161
 20
94.873745157851
 30
0.0
 11
174.2339804740161
 21
102.873745157851
 31
0.0
  0
ARC
  5
454
330
1A
100
AcDbEntity
  8
SEIHIN
  6
CONTINUOUS
 62
     3
 48
16.0
100
AcDbCircle
 10
152.838417113299
 20
98.97377156595187
 30
0.0
 40
3.000026408324595
100
AcDbArc
 50
269.9993002474029
 51
341.5643514244811
  0
LINE
  5
455
330
1A
100
AcDbEntity
  8
SEIHIN
  6
CONTINUOUS
 62
     3
 48
16.0
100
AcDbLine
 10
164.6340804740162
 20
103.8737451578509
 30
0.0
 11
164.6339804740162
 21
93.71654515785101
 31
0.0
  0
LINE
  5
456
330
1A
100
AcDbEntity
  8
SEIHIN
  6
CONTINUOUS
 62
     3
 48
16.0
100
AcDbLine
 10
165.1340804740162
 20
103.8737451578509
 30
0.0
 11
165.1339804740162
 21
93.71654515785101
 31
0.0
  0
LINE
  5
457
330
1A
100
AcDbEntity
  8
SEIHIN
  6
CONTINUOUS
 62
     3
 48
16.0
100
AcDbLine
 10
165.6340804740161
 20
103.8737451578509
 30
0.0
 11
165.6339804740162
 21
94.01314515785101
 31
0.0
  0
LINE
  5
458
330
1A
100
AcDbEntity
  8
NOKITOI
  6
PHANTOM
 62
     8
 48
5.0
100
AcDbLine
 10
168.7355775080442
 20
101.603841705803
 30
0.0
 11
162.5013775080442
 21
71.05644170580323
 31
0.0
  0
LINE
  5
459
330
1A
100
AcDbEntity
  8
NOKITOI
  6
PHANTOM
 62
     8
 48
5.0
100
AcDbLine
 10
168.7788775080442
 20
95.8038417058032
 30
0.0
 11
172.4339775080441
 21
95.8038417058032
 31
0.0
  0
LINE
  5
45A
330
1A
100
AcDbEntity
  8
NOKITOI
  6
PHANTOM
 62
     8
 48
5.0
100
AcDbLine
 10
173.6339775080442
 20
94.6038417058031
 30
0.0
 11
168.5339775080442
 21
94.6038417058031
 31
0.0
  0
LINE
  5
45B
330
1A
100
AcDbEntity
  8
SEIHIN
  6
CONTINUOUS
 62
     3
 48
16.0
100
AcDbLine
 10
168.8339804740162
 20
93.87374515785101
 30
0.0
 11
172.6339804740162
 21
93.87374515785101
 31
0.0
  0
LINE
  5
45C
330
1A
100
AcDbEntity
  8
SEIHIN
  6
CONTINUOUS
 62
     3
 48
16.0
100
AcDbLine
 10
168.8339804740162
 20
93.27374515785093
 30
0.0
 11
172.6339804740162
 21
93.27374515785093
 31
0.0
  0
LINE
  5
45D
330
1A
100
AcDbEntity
  8
NOKITOI
  6
PHANTOM
 62
     8
 48
5.0
100
AcDbLine
 10
168.5339775080442
 20
94.6038417058031
 30
0.0
 11
163.5339775080442
 21
70.10394170580323
 31
0.0
  0
LINE
  5
45E
330
1A
100
AcDbEntity
  8
NOKITOI
  6
PHANTOM
 62
     8
 48
5.0
100
AcDbLine
 10
158.0560775080442
 20
68.50384170580324
 30
0.0
 11
150.6339775080442
 21
68.50394170580315
 31
0.0
  0
LINE
  5
45F
330
1A
100
AcDbEntity
  8
NOKITOI
  6
PHANTOM
 62
     8
 48
5.0
100
AcDbLine
 10
156.8939775080442
 20
67.30394170580317
 30
0.0
 11
151.8339775080443
 21
67.30394170580317
 31
0.0
  0
LINE
  5
460
330
1A
100
AcDbEntity
  8
NOKITOI
  6
PHANTOM
 62
     8
 48
5.0
100
AcDbLine
 10
151.8339775080443
 20
62.80394170580322
 30
0.0
 11
154.4922775080442
 21
62.80394170580322
 31
0.0
  0
ARC
  5
461
330
1A
100
AcDbEntity
  8
NOKITOI
  6
PHANTOM
 62
     8
 48
5.0
100
AcDbCircle
 10
166.2182816209142
 20
59.43644602177392
 30
0.0
 40
10.99994632941526
100
AcDbArc
 50
104.1244483036074
 51
168.6362598432798
  0
ARC
  5
462
330
1A
100
AcDbEntity
  8
NOKITOI
  6
PHANTOM
 62
     8
 48
5.0
100
AcDbCircle
 10
166.218354491715
 20
59.43658594666851
 30
0.0
 40
12.19997101530972
100
AcDbArc
 50
139.8443138052131
 51
163.9780719705774
  0
LINE
  5
463
330
1A
100
AcDbEntity
  8
NOKITOI
  6
PHANTOM
 62
     8
 48
5.0
100
AcDbLine
 10
151.8339775080443
 20
62.80394170580322
 30
0.0
 11
151.8339775080443
 21
67.30394170580317
 31
0.0
  0
LINE
  5
464
330
1A
100
AcDbEntity
  8
NOKITOI
  6
PHANTOM
 62
     8
 48
5.0
100
AcDbLine
 10
150.6339775080442
 20
62.80384170580314
 30
0.0
 11
150.6339775080442
 21
68.50394170580315
 31
0.0
  0
ARC
  5
465
330
1A
100
AcDbEntity
  8
NOKITOI
  6
PHANTOM
 62
     8
 48
5.0
100
AcDbCircle
 10
166.2183192950204
 20
59.43646570069259
 30
0.0
 40
12.19997945109404
100
AcDbArc
 50
107.7381834577211
 51
131.9928095737274
  0
LINE
  5
466
330
1A
100
AcDbEntity
  8
SEIHIN
  6
CONTINUOUS
 62
     3
 48
16.0
100
AcDbLine
 10
164.1546804740162
 20
93.1355451578509
 30
0.0
 11
155.6020804740162
 21
97.806545157851
 31
0.0
  0
LINE
  5
467
330
1A
100
AcDbEntity
  8
SEIHIN
  6
CONTINUOUS
 62
     3
 48
16.0
100
AcDbLine
 10
163.6546804740161
 20
92.83894515785101
 30
0.0
 11
155.3697804740161
 21
97.36374515785101
 31
0.0
  0
ARC
  5
468
330
1A
100
AcDbEntity
  8
SEIHIN
  6
CONTINUOUS
 62
     3
 48
16.0
100
AcDbCircle
 10
164.1339797090173
 20
93.71654470404436
 30
0.0
 40
0.5000007649991042
100
AcDbArc
 50
241.3539253752726
 51
0.0000520023310446
  0
ARC
  5
469
330
1A
100
AcDbEntity
  8
SEIHIN
  6
CONTINUOUS
 62
     3
 48
16.0
100
AcDbCircle
 10
164.1340029120196
 20
93.71655846968044
 30
0.0
 40
0.999977562085202
100
AcDbArc
 50
241.3581391320733
 51
359.9992372712423
  0
ARC
  5
46A
330
1A
100
AcDbEntity
  8
SEIHIN
  6
CONTINUOUS
 62
     3
 48
16.0
100
AcDbCircle
 10
164.6339883040775
 20
94.01315514040788
 30
0.0
 40
0.9999921699885575
100
AcDbArc
 50
283.7799753264978
 51
359.9994280371426
  0
LINE
  5
46B
330
1A
100
AcDbEntity
  8
SEIHIN
  6
CONTINUOUS
 62
     3
 48
16.0
100
AcDbLine
 10
168.8339804740162
 20
93.87374515785101
 30
0.0
 11
168.8339804740162
 21
93.27374515785093
 31
0.0
  0
ARC
  5
46C
330
1A
100
AcDbEntity
  8
SEIHIN
  6
CONTINUOUS
 62
     3
 48
16.0
100
AcDbCircle
 10
172.6339804740162
 20
94.873745157851
 30
0.0
 40
1.0
100
AcDbArc
 50
270.0
 51
0.0
  0
ARC
  5
46D
330
1A
100
AcDbEntity
  8
SEIHIN
  6
CONTINUOUS
 62
     3
 48
16.0
100
AcDbCircle
 10
172.6339804740161
 20
94.8737451578509
 30
0.0
 40
1.599999999999965
100
AcDbArc
 50
270.0000000000041
 51
0.0000000000040711
  0
LINE
  5
46E
330
1A
100
AcDbEntity
  8
NOKITOI
  6
PHANTOM
 62
     8
 48
5.0
100
AcDbLine
 10
173.6339775080442
 20
101.603841705803
 30
0.0
 11
168.7355775080442
 21
101.603841705803
 31
0.0
  0
LINE
  5
46F
330
1A
100
AcDbEntity
  8
NOKITOI
  6
PHANTOM
 62
     8
 48
5.0
100
AcDbLine
 10
169.7176775080441
 20
100.403841705803
 30
0.0
 11
172.4339775080441
 21
100.403841705803
 31
0.0
  0
ARC
  5
470
330
1A
100
AcDbEntity
  8
SEIHIN
  6
CONTINUOUS
 62
     3
 48
16.0
100
AcDbCircle
 10
168.6340804740161
 20
103.9737451578509
 30
0.0
 40
5.000000000000056
100
AcDbArc
 50
0.0000000000006514
 51
90.00000000000063
  0
LINE
  5
471
330
1A
100
AcDbEntity
  8
SEIHIN
  6
CONTINUOUS
 62
     3
 48
16.0
100
AcDbLine
 10
172.634080474016
 20
103.8737451578509
 30
0.0
 11
159.7963804740162
 21
103.8737451578509
 31
0.0
  0
ARC
  5
472
330
1A
100
AcDbEntity
  8
SEIHIN
  6
CONTINUOUS
 62
     3
 48
16.0
100
AcDbCircle
 10
155.579348423033
 20
117.9737987744259
 30
0.0
 40
4.999946383886803
100
AcDbArc
 50
90.00077864672652
 51
166.5526481677431
  0
ARC
  5
473
330
1A
100
AcDbEntity
  8
SEIHIN
  6
CONTINUOUS
 62
     3
 48
16.0
100
AcDbCircle
 10
159.6793681061211
 20
101.9737362435765
 30
0.0
 40
7.000008914285379
100
AcDbArc
 50
89.99989876753039
 51
161.5649499446083
  0
LINE
  5
474
330
1A
100
AcDbEntity
  8
SEIHIN
  6
CONTINUOUS
 62
     3
 48
16.0
100
AcDbLine
 10
155.0287804740161
 20
115.6714451578509
 30
0.0
 11
151.4538804740161
 21
100.7218451578509
 31
0.0
  0
LINE
  5
475
330
1A
100
AcDbEntity
  8
SEIHIN
  6
CONTINUOUS
 62
     3
 48
16.0
100
AcDbLine
 10
150.7164804740162
 20
119.1365451578509
 30
0.0
 11
147.0432804740162
 21
103.7760451578509
 31
0.0
  0
ARC
  5
476
330
1A
100
AcDbEntity
  8
SEIHIN
  6
CONTINUOUS
 62
     3
 48
16.0
100
AcDbCircle
 10
144.1254549774775
 20
104.4738250393827
 30
0.0
 40
2.99997988164015
100
AcDbArc
 50
270.0004869512834
 51
346.5520738032679
  0
LINE
  5
477
330
1A
100
AcDbEntity
  8
SEIHIN
  6
CONTINUOUS
 62
     3
 48
16.0
100
AcDbLine
 10
153.0385804740161
 20
104.187345157851
 30
0.0
 11
152.3177804740161
 21
102.0251451578509
 31
0.0
  0
ARC
  5
478
330
1A
100
AcDbEntity
  8
SEIHIN
  6
CONTINUOUS
 62
     3
 48
16.0
100
AcDbCircle
 10
149.471751301702
 20
102.9737241318702
 30
0.0
 40
2.999978974161116
100
AcDbArc
 50
270.0005571540621
 51
341.5650043721288
  0
LINE
  5
479
330
1A
100
AcDbEntity
  8
SEIHIN
  6
CONTINUOUS
 62
     3
 48
16.0
100
AcDbLine
 10
165.6341321950066
 20
108.973745157851
 30
0.0
 11
165.6341119122652
 21
110.973745157851
 31
0.0
  0
LINE
  5
47A
330
1A
100
AcDbEntity
  8
SEIHIN
  6
CONTINUOUS
 62
     3
 48
16.0
100
AcDbLine
 10
165.1341306847041
 20
108.973745157851
 30
0.0
 11
165.1341109942383
 21
110.973745157851
 31
0.0
  0
LINE
  5
47B
330
1A
100
AcDbEntity
  8
SEIHIN
  6
CONTINUOUS
 62
     3
 48
16.0
100
AcDbLine
 10
164.6341306847041
 20
108.973745157851
 30
0.0
 11
164.6341109942383
 21
110.973745157851
 31
0.0
  0
LINE
  5
47C
330
1A
100
AcDbEntity
  8
SEIHIN
  6
CONTINUOUS
 62
     3
 48
16.0
100
AcDbLine
 10
159.6793804740162
 20
108.973745157851
 30
0.0
 11
168.6340804740161
 21
108.973745157851
 31
0.0
  0
ARC
  5
47D
330
1A
100
AcDbEntity
  8
SEIHIN
  6
CONTINUOUS
 62
     3
 48
16.0
100
AcDbCircle
 10
159.7963315816528
 20
100.8738819949699
 30
0.0
 40
2.999963163316346
100
AcDbArc
 50
90.0009760959471
 51
161.5672352037801
  0
LINE
  5
47E
330
1A
100
AcDbEntity
  8
SEIHIN
  6
CONTINUOUS
 62
     3
 48
16.0
100
AcDbLine
 10
156.950280474016
 20
101.822445157851
 30
0.0
 11
155.6844804740162
 21
98.02504515785095
 31
0.0
  0
ARC
  5
47F
330
1A
100
AcDbEntity
  8
SEIHIN
  6
CONTINUOUS
 62
     3
 48
16.0
100
AcDbCircle
 10
157.9465059705546
 20
114.9737652763191
 30
0.0
 40
2.999979881640136
100
AcDbArc
 50
90.00048695128025
 51
166.5520738032647
  0
LINE
  5
480
330
1A
100
AcDbEntity
  8
SEIHIN
  6
CONTINUOUS
 62
     3
 48
16.0
100
AcDbLine
 10
164.6341109942383
 20
110.973745157851
 30
0.0
 11
165.6341119122652
 21
110.973745157851
 31
0.0
  0
ARC
  5
481
330
1A
100
AcDbEntity
  8
SEIHIN
  6
CONTINUOUS
 62
     3
 48
16.0
100
AcDbCircle
 10
172.6340804740161
 20
102.8737451578508
 30
0.0
 40
1.000000000000042
100
AcDbArc
 50
0.000000000007328
 51
90.00000000000733
  0
ARC
  5
482
330
1A
100
AcDbEntity
  8
SEIHIN
  6
CONTINUOUS
 62
     3
 48
16.0
100
AcDbCircle
 10
172.6340951725886
 20
102.8737146317477
 30
0.0
 40
1.599985301718769
100
AcDbArc
 50
0.0010931455947831
 51
51.42349707532636
  0
DIMENSION
  5
483
330
1A
100
AcDbEntity
  8
SUNPOU
  6
CONTINUOUS
100
AcDbDimension
  2
*D4
 10
73.52452905250967
 20
200.423745157851
 30
0.0
 11
71.02452905250967
 21
207.9737451578509
 31
0.0
 70
    32
  3
STANDARD
100
AcDbAlignedDimension
 13
89.03398047401614
 23
215.5237451578508
 33
0.0
 14
89.03398047401614
 24
200.423745157851
 34
0.0
 50
90.0
100
AcDbRotatedDimension
1001
ACAD
1000
DSTYLE
1002
{
1070
   140
1040
3.0
1070
    74
1070
     0
1070
   172
1070
     1
1070
    73
1070
     0
1070
   272
1070
     2
1070
    77
1070
     3
1070
   173
1070
     1
1070
   147
1040
1.0
1070
    42
1040
3.0
1070
    44
1040
1.5
1070
    43
1040
7.0
1070
   271
1070
     0
1070
   178
1070
     4
1070
   177
1070
     4
1070
   176
1070
     4
1070
   141
1040
150.0
1070
     7
1000
_OPEN
1070
     6
1000
_OPEN
1070
    41
1040
3.0
1002
}
  0
LINE
  5
484
330
1A
100
AcDbEntity
  8
SEIHIN
  6
CONTINUOUS
 62
     3
 48
16.0
100
AcDbLine
 10
138.6340804740161
 20
206.9236451578508
 30
0.0
 11
123.6340804740162
 21
206.9236451578508
 31
0.0
  0
LINE
  5
485
330
1A
100
AcDbEntity
  8
SEIHIN
  6
CONTINUOUS
 62
     3
 48
16.0
100
AcDbLine
 10
138.6340804740161
 20
204.9236451578508
 30
0.0
 11
123.6340804740162
 21
204.9236451578508
 31
0.0
  0
LINE
  5
486
330
1A
100
AcDbEntity
  8
SEIHIN
  6
CONTINUOUS
 62
     3
 48
16.0
100
AcDbLine
 10
138.6340804740161
 20
211.0237451578508
 30
0.0
 11
123.6340804740162
 21
211.0237451578508
 31
0.0
  0
LINE
  5
487
330
1A
100
AcDbEntity
  8
SEIHIN
  6
CONTINUOUS
 62
     3
 48
16.0
100
AcDbLine
 10
138.6340804740161
 20
209.0237451578508
 30
0.0
 11
123.6340804740162
 21
209.0237451578508
 31
0.0
  0
LINE
  5
488
330
1A
100
AcDbEntity
  8
SEIHIN
  6
CONTINUOUS
 62
     3
 48
16.0
100
AcDbLine
 10
174.2340804740162
 20
200.4236439702038
 30
0.0
 11
89.03398047401614
 21
200.423745157851
 31
0.0
  0
LINE
  5
489
330
1A
100
AcDbEntity
  8
SEIHIN
  6
CONTINUOUS
 62
     3
 48
16.0
100
AcDbLine
 10
174.2340804740162
 20
215.523643970324
 30
0.0
 11
89.03398047401614
 21
215.5237451578508
 31
0.0
  0
LINE
  5
48A
330
1A
100
AcDbEntity
  8
SEIHIN
  6
CONTINUOUS
 62
     3
 48
16.0
100
AcDbLine
 10
88.03408047401623
 20
201.423745157851
 30
0.0
 11
88.03408047401623
 21
214.5237451578509
 31
0.0
  0
LINE
  5
48B
330
1A
100
AcDbEntity
  8
SEIHIN
  6
CONTINUOUS
 62
     3
 48
16.0
100
AcDbLine
 10
88.03408047401623
 20
210.0237451578508
 30
0.0
 11
90.53408047401623
 21
211.5237451578508
 31
0.0
  0
LINE
  5
48C
330
1A
100
AcDbEntity
  8
SEIHIN
  6
CONTINUOUS
 62
     3
 48
16.0
100
AcDbLine
 10
90.53408047401623
 20
211.5237451578508
 30
0.0
 11
88.03408047401623
 21
213.0237451578508
 31
0.0
  0
LINE
  5
48D
330
1A
100
AcDbEntity
  8
SEIHIN
100
AcDbLine
 10
90.53408047401623
 20
211.5237451578508
 30
0.0
 11
88.03408047401623
 21
211.5237451578508
 31
0.0
  0
LINE
  5
48E
330
1A
100
AcDbEntity
  8
SEIHIN
  6
CONTINUOUS
 62
     3
 48
16.0
100
AcDbLine
 10
88.03408047401623
 20
205.923745157851
 30
0.0
 11
90.53408047401623
 21
204.423745157851
 31
0.0
  0
LINE
  5
48F
330
1A
100
AcDbEntity
  8
SEIHIN
100
AcDbLine
 10
90.53408047401623
 20
204.423745157851
 30
0.0
 11
88.03408047401623
 21
204.423745157851
 31
0.0
  0
LINE
  5
490
330
1A
100
AcDbEntity
  8
SEIHIN
  6
CONTINUOUS
 62
     3
 48
16.0
100
AcDbLine
 10
90.53408047401623
 20
204.423745157851
 30
0.0
 11
88.03408047401623
 21
202.923745157851
 31
0.0
  0
LINE
  5
491
330
1A
100
AcDbEntity
  8
SEIHIN
  6
CONTINUOUS
 62
     3
 48
16.0
100
AcDbLine
 10
89.03398047401614
 20
200.4236451578508
 30
0.0
 11
89.03398047401614
 21
201.4236451578508
 31
0.0
  0
LINE
  5
492
330
1A
100
AcDbEntity
  8
SEIHIN
  6
CONTINUOUS
 62
     3
 48
16.0
100
AcDbLine
 10
99.63398047401623
 20
212.0237451578508
 30
0.0
 11
94.63398047401623
 21
212.0237451578508
 31
0.0
  0
LINE
  5
493
330
1A
100
AcDbEntity
  8
SEIHIN
  6
CONTINUOUS
 62
     3
 48
16.0
100
AcDbLine
 10
99.63398047401623
 20
203.923745157851
 30
0.0
 11
94.63398047401623
 21
203.923745157851
 31
0.0
  0
ARC
  5
494
330
1A
100
AcDbEntity
  8
SEIHIN
100
AcDbCircle
 10
106.1864804738078
 20
207.9737451578509
 30
0.0
 40
9.552499999802478
100
AcDbArc
 50
161.3801196496292
 51
198.6198803503707
  0
LINE
  5
495
330
1A
100
AcDbEntity
  8
SEIHIN
  6
CONTINUOUS
 62
     3
 48
16.0
100
AcDbLine
 10
94.63398047401623
 20
203.9236451578508
 30
0.0
 11
94.63398047401623
 21
212.0237451578508
 31
0.0
  0
ARC
  5
496
330
1A
100
AcDbEntity
  8
SEIHIN
100
AcDbCircle
 10
106.6864804738077
 20
207.9737451578509
 30
0.0
 40
9.552499999802478
100
AcDbArc
 50
161.3801196496292
 51
198.6198803503707
  0
LINE
  5
497
330
1A
100
AcDbEntity
  8
SEIHIN
  6
CONTINUOUS
 62
     3
 48
16.0
100
AcDbLine
 10
99.63398047401623
 20
203.9236451578508
 30
0.0
 11
99.63398047401623
 21
212.0237451578508
 31
0.0
  0
LINE
  5
498
330
1A
100
AcDbEntity
  8
SEIHIN
100
AcDbLine
 10
104.6338473954331
 20
202.4237259005814
 30
0.0
 11
104.6338473954331
 21
213.52372590058
 31
0.0
  0
LINE
  5
499
330
1A
100
AcDbEntity
  8
SEIHIN
  6
CONTINUOUS
 62
     3
 48
16.0
100
AcDbLine
 10
99.63398047401623
 20
204.923745157851
 30
0.0
 11
97.13398047401623
 21
204.923745157851
 31
0.0
  0
LINE
  5
49A
330
1A
100
AcDbEntity
  8
SEIHIN
  6
CONTINUOUS
 62
     3
 48
16.0
100
AcDbLine
 10
99.63398047401623
 20
211.0237451578508
 30
0.0
 11
97.13398047401623
 21
211.0237451578508
 31
0.0
  0
LINE
  5
49B
330
1A
100
AcDbEntity
  8
SEIHIN
  6
CONTINUOUS
 62
     3
 48
16.0
100
AcDbLine
 10
89.03398047401614
 20
215.5239451578508
 30
0.0
 11
89.03398047401614
 21
214.5239451578508
 31
0.0
  0
LINE
  5
49C
330
1A
100
AcDbEntity
  8
SEIHIN
  6
CONTINUOUS
 62
     3
 48
16.0
100
AcDbLine
 10
123.6340804740162
 20
201.4237038585469
 30
0.0
 11
123.6340804740162
 21
214.5237038585469
 31
0.0
  0
LINE
  5
49D
330
1A
100
AcDbEntity
  8
SEIHIN
  6
CONTINUOUS
 62
     3
 48
16.0
100
AcDbLine
 10
123.6340804740162
 20
203.923745157851
 30
0.0
 11
108.6339804740162
 21
203.923745157851
 31
0.0
  0
LINE
  5
49E
330
1A
100
AcDbEntity
  8
SEIHIN
  6
CONTINUOUS
 62
     3
 48
16.0
100
AcDbLine
 10
123.6340804740162
 20
205.923745157851
 30
0.0
 11
114.6339804740161
 21
205.923745157851
 31
0.0
  0
LINE
  5
49F
330
1A
100
AcDbEntity
  8
SEIHIN
  6
CONTINUOUS
 62
     3
 48
16.0
100
AcDbLine
 10
123.6340804740162
 20
210.0237451578508
 30
0.0
 11
114.6339804740161
 21
210.0237451578508
 31
0.0
  0
LINE
  5
4A0
330
1A
100
AcDbEntity
  8
SEIHIN
  6
CONTINUOUS
 62
     3
 48
16.0
100
AcDbLine
 10
123.6340804740162
 20
212.0237451578508
 30
0.0
 11
108.6339804740162
 21
212.0237451578508
 31
0.0
  0
LINE
  5
4A1
330
1A
100
AcDbEntity
  8
SEIHIN
100
AcDbLine
 10
107.6340542645997
 20
200.4237230675283
 30
0.0
 11
107.6340542645997
 21
201.4237224200623
 31
0.0
  0
LINE
  5
4A2
330
1A
100
AcDbEntity
  8
SEIHIN
100
AcDbLine
 10
110.6339488488195
 20
200.4237195047123
 30
0.0
 11
110.6339488488195
 21
201.4237189399062
 31
0.0
  0
LINE
  5
4A3
330
1A
100
AcDbEntity
  8
SEIHIN
  6
CONTINUOUS
 62
     3
 48
16.0
100
AcDbLine
 10
114.6339804740161
 20
204.923745157851
 30
0.0
 11
108.6339804740162
 21
204.923745157851
 31
0.0
  0
LINE
  5
4A4
330
1A
100
AcDbEntity
  8
SEIHIN
  6
CONTINUOUS
 62
     3
 48
16.0
100
AcDbLine
 10
114.6339804740161
 20
211.0237451578508
 30
0.0
 11
108.6339804740162
 21
211.0237451578508
 31
0.0
  0
LINE
  5
4A5
330
1A
100
AcDbEntity
  8
SEIHIN
  6
CONTINUOUS
 62
     3
 48
16.0
100
AcDbLine
 10
108.6339804740162
 20
212.0237451578508
 30
0.0
 11
108.6339804740162
 21
203.9236451578508
 31
0.0
  0
LINE
  5
4A6
330
1A
100
AcDbEntity
  8
SEIHIN
100
AcDbLine
 10
107.2674525041428
 20
202.4237228453551
 30
0.0
 11
107.2674525041428
 21
213.5237228453537
 31
0.0
  0
LINE
  5
4A7
330
1A
100
AcDbEntity
  8
SEIHIN
  6
CONTINUOUS
 62
     3
 48
16.0
100
AcDbLine
 10
114.6339804740161
 20
203.9236451578508
 30
0.0
 11
114.6339804740161
 21
212.0237451578508
 31
0.0
  0
LINE
  5
4A8
330
1A
100
AcDbEntity
  8
SEIHIN
100
AcDbLine
 10
107.6340542645997
 20
214.5237224200622
 30
0.0
 11
107.6340542645997
 21
215.5237230675544
 31
0.0
  0
LINE
  5
4A9
330
1A
100
AcDbEntity
  8
SEIHIN
100
AcDbLine
 10
110.6339488488195
 20
214.5237189399061
 30
0.0
 11
110.6339488488195
 21
215.5237195047427
 31
0.0
  0
LINE
  5
4AA
330
1A
100
AcDbEntity
  8
SEIHIN
100
AcDbLine
 10
151.6339132928631
 20
200.4236708112256
 30
0.0
 11
151.6339132928631
 21
201.4236713761423
 31
0.0
  0
ARC
  5
4AB
330
1A
100
AcDbEntity
  8
SEIHIN
  6
CONTINUOUS
 62
     3
 48
16.0
100
AcDbCircle
 10
138.6341014257673
 20
207.0237326579289
 30
0.0
 40
2.000012500031574
100
AcDbArc
 50
28.35956366584006
 51
90.00060021970874
  0
ARC
  5
4AC
330
1A
100
AcDbEntity
  8
SEIHIN
  6
CONTINUOUS
 62
     3
 48
16.0
100
AcDbCircle
 10
138.6341113160861
 20
207.0237209479974
 30
0.0
 40
4.000024209972323
100
AcDbArc
 50
13.73930738124134
 51
90.00044177743701
  0
ARC
  5
4AD
330
1A
100
AcDbEntity
  8
SEIHIN
  6
CONTINUOUS
 62
     3
 48
16.0
100
AcDbCircle
 10
138.6341113160859
 20
208.9236693677043
 30
0.0
 40
4.000024209972438
100
AcDbArc
 50
269.9995582225652
 51
346.2606926187616
  0
ARC
  5
4AE
330
1A
100
AcDbEntity
  8
SEIHIN
  6
CONTINUOUS
 62
     3
 48
16.0
100
AcDbCircle
 10
138.6341014257671
 20
208.9236576577727
 30
0.0
 40
2.000012500031665
100
AcDbArc
 50
269.9993997802969
 51
331.6404363341673
  0
LINE
  5
4AF
330
1A
100
AcDbEntity
  8
SEIHIN
100
AcDbLine
 10
146.4927488480925
 20
202.4236773403708
 30
0.0
 11
146.4927488480925
 21
213.5236773403696
 31
0.0
  0
LINE
  5
4B0
330
1A
100
AcDbEntity
  8
SEIHIN
100
AcDbLine
 10
151.6340848348296
 20
202.4236713759439
 30
0.0
 11
151.6340848348296
 21
213.5236713759427
 31
0.0
  0
LINE
  5
4B1
330
1A
100
AcDbEntity
  8
SEIHIN
100
AcDbLine
 10
154.6341947187667
 20
200.4236672479502
 30
0.0
 11
154.6341947187667
 21
201.4236678955374
 31
0.0
  0
LINE
  5
4B2
330
1A
100
AcDbEntity
  8
SEIHIN
100
AcDbLine
 10
151.6339132928631
 20
214.5236713761423
 30
0.0
 11
151.6339132928631
 21
215.5236708113139
 31
0.0
  0
LINE
  5
4B3
330
1A
100
AcDbEntity
  8
SEIHIN
100
AcDbLine
 10
154.6341947187667
 20
214.5236678955374
 30
0.0
 11
154.6341947187667
 21
215.5236672480428
 31
0.0
  0
LINE
  5
4B4
330
1A
100
AcDbEntity
  8
SEIHIN
  6
CONTINUOUS
 62
     3
 48
16.0
100
AcDbLine
 10
174.2340804740162
 20
200.4236439702038
 30
0.0
 11
174.2340804740162
 21
201.4236115520302
 31
0.0
  0
LINE
  5
4B5
330
1A
100
AcDbEntity
  8
SEIHIN
  6
CONTINUOUS
 62
     3
 48
16.0
100
AcDbLine
 10
174.2340804740162
 20
215.523643970324
 30
0.0
 11
174.2340804740162
 21
214.5236115520304
 31
0.0
  0
LINE
  5
4B6
330
1A
100
AcDbEntity
  8
SEIHIN
  6
CONTINUOUS
 62
     3
 48
16.0
100
AcDbLine
 10
306.1261280478473
 20
152.3460090154268
 30
0.0
 11
313.1821280478472
 21
134.7048090154267
 31
0.0
  0
LINE
  5
4B7
330
1A
100
AcDbEntity
  8
SEIHIN
  6
CONTINUOUS
 62
     3
 48
16.0
100
AcDbLine
 10
303.1260280478472
 20
146.3830090154267
 30
0.0
 11
305.7256280478473
 21
139.8836090154267
 31
0.0
  0
LINE
  5
4B8
330
1A
100
AcDbEntity
  8
SEIHIN
  6
CONTINUOUS
 62
     3
 48
16.0
100
AcDbLine
 10
306.8400280478472
 20
147.8684090154268
 30
0.0
 11
309.4395280478472
 21
141.3690090154266
 31
0.0
  0
LINE
  5
4B9
330
1A
100
AcDbEntity
  8
SEIHIN
  6
CONTINUOUS
 62
     3
 48
16.0
100
AcDbLine
 10
299.5978280478473
 20
144.4333090154266
 30
0.0
 11
286.5989280478472
 21
139.2341090154266
 31
0.0
  0
LINE
  5
4BA
330
1A
100
AcDbEntity
  8
SEIHIN
  6
CONTINUOUS
 62
     3
 48
16.0
100
AcDbLine
 10
300.5552280478473
 20
150.1178090154267
 30
0.0
 11
307.6112280478471
 21
132.4766090154266
 31
0.0
  0
LINE
  5
4BB
330
1A
100
AcDbEntity
  8
SEIHIN
  6
CONTINUOUS
 62
     3
 48
16.0
100
AcDbLine
 10
312.0385672255983
 20
113.3289798810221
 30
0.0
 11
296.0698280478473
 21
153.2539090154267
 31
0.0
  0
LINE
  5
4BC
330
1A
100
AcDbEntity
  8
SEIHIN
  6
CONTINUOUS
 62
     3
 48
16.0
100
AcDbLine
 10
312.5964280478473
 20
144.2472090154267
 30
0.0
 11
325.5952280478473
 21
149.4464090154267
 31
0.0
  0
LINE
  5
4BD
330
1A
100
AcDbEntity
  8
SEIHIN
  6
CONTINUOUS
 62
     3
 48
16.0
100
AcDbLine
 10
335.2514280478471
 20
149.5390090154266
 30
0.0
 11
313.8962280478473
 21
140.9975090154267
 31
0.0
  0
LINE
  5
4BE
330
1A
100
AcDbEntity
  8
SEIHIN
  6
CONTINUOUS
 62
     3
 48
16.0
100
AcDbLine
 10
276.9428280478472
 20
139.1415090154267
 30
0.0
 11
298.2980280478473
 21
147.6830090154267
 31
0.0
  0
DIMENSION
  5
4BF
330
1A
100
AcDbEntity
  8
SUNPOU
100
AcDbDimension
  2
*D5
 10
264.6889244011196
 20
127.7782255938764
 30
0.0
 11
264.5962673259447
 21
134.7417548322891
 31
0.0
 70
    32
  3
STANDARD
100
AcDbAlignedDimension
 13
295.6984831002499
 23
154.1823430359347
 33
0.0
 14
279.3384280478472
 24
133.6376090154267
 34
0.0
 50
111.7999999999998
100
AcDbRotatedDimension
1001
ACAD
1000
DSTYLE
1002
{
1070
   140
1040
3.0
1070
    74
1070
     0
1070
   172
1070
     1
1070
    73
1070
     0
1070
   272
1070
     2
1070
    77
1070
     3
1070
   173
1070
     1
1070
   147
1040
1.0
1070
    42
1040
3.0
1070
    44
1040
1.5
1070
    43
1040
7.0
1070
   271
1070
     0
1070
   178
1070
     4
1070
   177
1070
     4
1070
   176
1070
     4
1070
   141
1040
150.0
1070
     7
1000
_OPEN
1070
     6
1000
_OPEN
1070
    41
1040
3.0
1002
}
  0
DIMENSION
  5
4C0
330
1A
100
AcDbEntity
  8
SUNPOU
100
AcDbDimension
  2
*D6
 10
269.1451377067493
 20
95.09581467632408
 30
0.0
 11
263.1105860500062
 21
116.9151401783862
 31
0.0
 70
    32
  3
STANDARD
100
AcDbAlignedDimension
 13
295.6984831002499
 23
154.1823430359347
 33
0.0
 14
312.4099314817497
 24
112.4004975854038
 34
0.0
 50
111.7999999999998
100
AcDbRotatedDimension
1001
ACAD
1000
DSTYLE
1002
{
1070
   140
1040
3.0
1070
    74
1070
     0
1070
   172
1070
     1
1070
    73
1070
     0
1070
   272
1070
     2
1070
    77
1070
     3
1070
   173
1070
     1
1070
   147
1040
1.0
1070
    42
1040
3.0
1070
    44
1040
1.5
1070
    43
1040
7.0
1070
   271
1070
     0
1070
   178
1070
     4
1070
   177
1070
     4
1070
   176
1070
     4
1070
   141
1040
150.0
1070
     7
1000
_OPEN
1070
     6
1000
_OPEN
1070
    41
1040
3.0
1002
}
  0
DIMENSION
  5
4C1
330
1A
100
AcDbEntity
  8
SUNPOU
  6
CONTINUOUS
100
AcDbDimension
  2
*D7
 10
265.2590138815819
 20
165.6605571702523
 30
0.0
 11
292.1851407015092
 21
179.1227729108646
 31
0.0
 70
    33
  3
STANDARD
100
AcDbAlignedDimension
 13
331.7234744482114
 23
161.0521580116463
 33
0.0
 14
276.0143848684408
 24
138.7701569598665
 34
0.0
1001
ACAD
1000
DSTYLE
1002
{
1070
   140
1040
3.0
1070
    74
1070
     0
1070
   172
1070
     1
1070
    73
1070
     0
1070
   272
1070
     2
1070
    77
1070
     3
1070
   173
1070
     1
1070
   147
1040
1.0
1070
    42
1040
3.0
1070
    44
1040
1.5
1070
    43
1040
7.0
1070
   271
1070
     0
1070
   178
1070
     4
1070
   177
1070
     4
1070
   176
1070
     4
1070
   141
1040
150.0
1070
     7
1000
_OPEN
1070
     6
1000
_OPEN
1070
    41
1040
3.0
1002
}
  0
DIMENSION
  5
4C2
330
1A
100
AcDbEntity
  8
SUNPOU
  6
CONTINUOUS
100
AcDbDimension
  2
*D8
 10
273.7088832064375
 20
157.9979473476542
 30
0.0
 11
295.9926222200154
 21
169.6033449208911
 31
0.0
 70
    33
  3
STANDARD
100
AcDbAlignedDimension
 13
327.0810745806445
 23
159.1953458895948
 33
0.0
 14
280.6567604886475
 24
140.6269811225994
 34
0.0
1001
ACAD
1000
DSTYLE
1002
{
1070
   140
1040
3.0
1070
    74
1070
     0
1070
   172
1070
     1
1070
    73
1070
     0
1070
   272
1070
     2
1070
    77
1070
     3
1070
   173
1070
     1
1070
   147
1040
1.0
1070
    42
1040
3.0
1070
    44
1040
1.5
1070
    43
1040
7.0
1070
   271
1070
     0
1070
   178
1070
     4
1070
   177
1070
     4
1070
   176
1070
     4
1070
   141
1040
150.0
1070
     7
1000
_OPEN
1070
     6
1000
_OPEN
1070
    41
1040
3.0
1002
}
  0
LINE
  5
4C3
330
1A
100
AcDbEntity
  8
CENTER_L
  6
CENTER
 62
     1
 48
5.0
100
AcDbLine
 10
299.0053280478472
 20
162.0711090154267
 30
0.0
 11
319.8377672255984
 21
109.9862798810221
 31
0.0
  0
LINE
  5
4C4
330
1A
100
AcDbEntity
  8
SEIHIN
  6
CONTINUOUS
 62
     3
 48
16.0
100
AcDbLine
 10
323.1804672255982
 20
117.7853798810221
 30
0.0
 11
307.2116280478471
 21
157.7103090154266
 31
0.0
  0
LINE
  5
4C5
330
1A
100
AcDbEntity
  8
SUNPOU
  6
CONTINUOUS
100
AcDbLine
 10
243.5846919512382
 20
50.59322385259566
 30
0.0
 11
243.5846919512382
 21
60.59332450684848
 31
0.0
  0
LINE
  5
4C6
330
1A
100
AcDbEntity
  8
SUNPOU
  6
CONTINUOUS
 62
     4
 48
16.0
100
AcDbLine
 10
247.5846919512383
 20
50.59322385259566
 30
0.0
 11
236.4595765369019
 21
78.40629233598116
 31
0.0
  0
LINE
  5
4C7
330
1A
100
AcDbEntity
  8
SUNPOU
  6
CONTINUOUS
100
AcDbLine
 10
247.5846919512382
 20
50.59322385259566
 30
0.0
 11
243.5846919512382
 21
50.59322385259566
 31
0.0
  0
TEXT
  5
4C8
330
1A
100
AcDbEntity
  8
SUNPOU
  6
CONTINUOUS
 62
     4
100
AcDbText
 10
244.4427207624696
 20
46.54660715181985
 30
0.0
 40
3.0
  1
4
100
AcDbText
  0
LINE
  5
4C9
330
1A
100
AcDbEntity
  8
SEIHIN
  6
CONTINUOUS
 62
     3
 48
16.0
100
AcDbLine
 10
220.4628804740162
 20
103.241745157851
 30
0.0
 11
224.2015804740162
 21
93.89434515785101
 31
0.0
  0
LINE
  5
4CA
330
1A
100
AcDbEntity
  8
SEIHIN
  6
CONTINUOUS
 62
     3
 48
16.0
100
AcDbLine
 10
219.8911804740161
 20
119.8304451578509
 30
0.0
 11
235.3454804740162
 21
81.19174515785093
 31
0.0
  0
DIMENSION
  5
4CB
330
1A
100
AcDbEntity
  8
SUNPOU
  6
CONTINUOUS
100
AcDbDimension
  2
*D9
 10
247.9798569832958
 20
86.24510991617256
 30
0.0
 11
241.9453338938466
 21
108.0644686348833
 31
0.0
 70
    33
  3
STANDARD
100
AcDbAlignedDimension
 13
218.6340019537583
 23
122.9736314355007
 33
0.0
 14
235.3454804740162
 24
81.19174515785093
 34
0.0
1001
ACAD
1000
DSTYLE
1002
{
1070
   140
1040
3.0
1070
    74
1070
     0
1070
   172
1070
     1
1070
    73
1070
     0
1070
   272
1070
     2
1070
    77
1070
     3
1070
   173
1070
     1
1070
   147
1040
1.0
1070
    42
1040
3.0
1070
    44
1040
1.5
1070
    43
1040
7.0
1070
   271
1070
     0
1070
   178
1070
     4
1070
   177
1070
     4
1070
   176
1070
     4
1070
   141
1040
150.0
1070
     7
1000
_OPEN
1070
     6
1000
_OPEN
1070
    41
1040
3.0
1002
}
  0
LINE
  5
4CC
330
1A
100
AcDbEntity
  8
CENTER_L
  6
CENTER
 62
     1
 48
5.0
100
AcDbLine
 10
229.6212804740162
 20
84.287345157851
 30
0.0
 11
239.9880458467268
 21
88.43376298811268
 31
0.0
  0
DIMENSION
  5
4CD
330
1A
100
AcDbEntity
  8
SUNPOU
  6
CONTINUOUS
100
AcDbDimension
  2
*D10
 10
240.6387302777621
 20
67.95651795843362
 30
0.0
 11
249.9238481471084
 21
74.36249845733816
 31
0.0
 70
    33
  1
t<>
  3
STANDARD
100
AcDbAlignedDimension
 13
233.952734919699
 23
80.6347354427187
 33
0.0
 14
235.3454804740162
 24
81.1917451578509
 34
0.0
1001
ACAD
1000
DSTYLE
1002
{
1070
   140
1040
3.0
1070
    74
1070
     0
1070
   172
1070
     1
1070
    73
1070
     0
1070
   272
1070
     2
1070
    77
1070
     3
1070
   173
1070
     1
1070
   147
1040
1.0
1070
    42
1040
3.0
1070
    44
1040
1.5
1070
    43
1040
7.0
1070
   271
1070
     1
1070
   178
1070
     4
1070
   177
1070
     4
1070
   176
1070
     4
1070
   141
1040
150.0
1070
     7
1000
_OPEN
1070
     6
1000
_OPEN
1070
    41
1040
3.0
1002
}
  0
LINE
  5
4CF
330
1A
100
AcDbEntity
  8
SEIHIN
  6
CONTINUOUS
 62
     3
 48
16.0
100
AcDbLine
 10
233.9527309567285
 20
80.63474535090138
 30
0.0
 11
235.3454804740162
 21
81.19174515785093
 31
0.0
  0
LINE
  5
4D0
330
1A
100
AcDbEntity
  8
SEIHIN
  6
CONTINUOUS
 62
     3
 48
16.0
100
AcDbLine
 10
228.3903838576785
 20
94.54167486929181
 30
0.0
 11
225.5149804740162
 21
93.34264515785093
 31
0.0
  0
ARC
  5
4D1
330
1A
100
AcDbEntity
  8
SEIHIN
  6
CONTINUOUS
 62
     3
 48
16.0
100
AcDbCircle
 10
225.1300534461774
 20
94.26565650962132
 30
0.0
 40
0.9999670894521393
100
AcDbArc
 50
201.7972685882302
 51
292.6399965942565
  0
TEXT
  5
4D2
330
1A
100
AcDbEntity
  8
SUNPOU
  6
CONTINUOUS
 62
     4
100
AcDbText
 10
238.8699633857267
 20
53.69332744905507
 30
0.0
 40
3.0
  1
10
100
AcDbText
  0
ARC
  5
4D3
330
1A
100
AcDbEntity
  8
SEIHIN
  6
CONTINUOUS
 62
     3
 48
16.0
100
AcDbCircle
 10
215.2487497525858
 20
117.9736659579376
 30
0.0
 40
4.999979200007757
100
AcDbArc
 50
21.79935509959807
 51
89.99964795687477
  0
LINE
  5
4D4
330
1A
100
AcDbEntity
  8
SEIHIN
  6
CONTINUOUS
 62
     3
 48
16.0
100
AcDbLine
 10
225.689980474016
 20
105.3324451578509
 30
0.0
 11
219.3487804740161
 21
102.7961451578509
 31
0.0
  0
ARC
  5
4D5
330
1A
100
AcDbEntity
  8
SEIHIN
  6
CONTINUOUS
 62
     3
 48
16.0
100
AcDbCircle
 10
224.4264638427657
 20
111.2917867394169
 30
0.0
 40
3.767170040549268
100
AcDbArc
 50
148.2835997223415
 51
255.3167603849423
  0
LINE
  5
4D6
330
1A
100
AcDbEntity
  8
CENTER_L
  6
CENTER
 62
     1
 48
5.0
100
AcDbLine
 10
218.6167804740162
 20
108.9654451578509
 30
0.0
 11
229.9611589214366
 21
113.5028942875055
 31
0.0
  0
LINE
  5
4D7
330
1A
100
AcDbEntity
  8
SEIHIN
  6
CONTINUOUS
 62
     3
 48
16.0
100
AcDbLine
 10
221.2335804740162
 20
116.474245157851
 30
0.0
 11
214.892280474016
 21
113.9379451578509
 31
0.0
  0
LINE
  5
4D8
330
1A
100
AcDbEntity
  8
SEIHIN
  6
CONTINUOUS
 62
     3
 48
16.0
100
AcDbLine
 10
219.3487804740161
 20
102.7961451578509
 30
0.0
 11
214.892280474016
 21
113.9379451578509
 31
0.0
  0
LINE
  5
4D9
330
1A
100
AcDbEntity
  8
SEIHIN
  6
CONTINUOUS
 62
     3
 48
16.0
100
AcDbLine
 10
215.0734804740162
 20
116.716345157851
 30
0.0
 11
216.0064804740162
 21
114.3835451578509
 31
0.0
  0
ARC
  5
4DA
330
1A
100
AcDbEntity
  8
SEIHIN
  6
CONTINUOUS
 62
     3
 48
16.0
100
AcDbCircle
 10
213.2164901277586
 20
115.9736386216223
 30
0.0
 40
2.000006536251957
100
AcDbArc
 50
21.7990261723942
 51
90.00027655844609
  0
LINE
  5
4DB
330
1A
100
AcDbEntity
  8
SEIHIN
  6
CONTINUOUS
 62
     3
 48
16.0
100
AcDbLine
 10
220.1193804740162
 20
116.028645157851
 30
0.0
 11
224.5757804740162
 21
104.886745157851
 31
0.0
  0
DIMENSION
  5
4DC
330
1A
100
AcDbEntity
  8
SUNPOU
100
AcDbDimension
  2
*D11
 10
299.680726786136
 20
107.3091789467918
 30
0.0
 11
301.0735336489212
 21
110.5587833896039
 31
0.0
 70
    32
  3
STANDARD
100
AcDbAlignedDimension
 13
312.2307672255982
 23
117.7138798810221
 33
0.0
 14
312.4099314817497
 24
112.4004975854038
 34
0.0
 50
111.7999999999998
100
AcDbRotatedDimension
1001
ACAD
1000
DSTYLE
1002
{
1070
   140
1040
3.0
1070
    74
1070
     0
1070
   172
1070
     1
1070
    73
1070
     0
1070
   272
1070
     2
1070
    77
1070
     3
1070
   173
1070
     1
1070
   147
1040
1.0
1070
    42
1040
3.0
1070
    44
1040
1.5
1070
    43
1040
7.0
1070
   271
1070
     0
1070
   178
1070
     4
1070
   177
1070
     4
1070
   176
1070
     4
1070
   141
1040
150.0
1070
     7
1000
_OPEN
1070
     6
1000
_OPEN
1070
    41
1040
3.0
1002
}
  0
LINE
  5
4DD
330
1A
100
AcDbEntity
  8
SEIHIN
  6
CONTINUOUS
 62
     3
 48
16.0
100
AcDbLine
 10
281.3992280478472
 20
127.9997090154267
 30
0.0
 11
302.7544280478472
 21
136.5411090154266
 31
0.0
  0
MTEXT
  5
4DE
330
1A
100
AcDbEntity
  8
SUNPOU
  6
CONTINUOUS
 62
     4
100
AcDbMText
 10
275.6637399091016
 20
119.440869239753
 30
0.0
 40
3.0
 41
0.0
 71
     7
 72
     5
  1
3-φ3.5
1001
ACAD
1000
MTEXTBEGIN
1070
    73
1070
     1
1070
    44
1040
1.0
1070
    74
1070
     0
1000
MTEXTEND
1000
MTEXTBEGIN
1070
    73
1070
     1
1070
    44
1040
1.0
1070
    74
1070
     0
1000
MTEXTEND
1000
MTEXTBEGIN
1070
    73
1070
     1
1070
    44
1040
1.0
1070
    74
1070
     0
1000
MTEXTEND
  0
LEADER
  5
4DF
330
1A
100
AcDbEntity
  8
SUNPOU
  6
CONTINUOUS
 62
     4
100
AcDbLeader
  3
STANDARD
 73
     0
 74
     0
 40
3.0
 41
15.59999999999999
 76
     3
 10
282.1555364793774
 20
133.4653582681865
 30
0.0
 10
270.021124672339
 20
118.440869239753
 30
0.0
 10
274.6637399091016
 20
118.440869239753
 30
0.0
211
1.0
221
-0.0000000000000003
231
0.0
1001
ACAD
1000
DSTYLE
1002
{
1070
     6
1000
OPEN
1070
    41
1040
3.0
1070
    42
1040
3.0
1070
    43
1040
7.0
1070
    44
1040
1.5
1070
    73
1070
     0
1070
    74
1070
     0
1070
    77
1070
     3
1070
   140
1040
3.0
1070
   141
1040
150.0
1070
   147
1040
1.0
1070
   172
1070
     1
1070
   173
1070
     1
1070
   176
1070
     4
1070
   177
1070
     4
1070
   178
1070
     4
1070
   271
1070
     0
1070
   272
1070
     2
1070
   341
1005
B2
1070
   343
1005
B2
1070
   344
1005
B2
1002
}
  0
ARC
  5
4E0
330
1A
100
AcDbEntity
  8
SEIHIN
  6
CONTINUOUS
 62
     3
 48
16.0
100
AcDbCircle
 10
287.5273677035317
 20
136.9129348799289
 30
0.0
 40
2.500025624868653
100
AcDbArc
 50
201.7999200107535
 51
291.8007710877349
  0
ARC
  5
4E1
330
1A
100
AcDbEntity
  8
SEIHIN
  6
CONTINUOUS
 62
     3
 48
16.0
100
AcDbCircle
 10
287.5274125288575
 20
136.9128728063081
 30
0.0
 40
2.5000441936094
100
AcDbArc
 50
111.8011966428166
 51
201.7982176426233
  0
LINE
  5
4E2
330
1A
100
AcDbEntity
  8
CENTER_L
  6
CENTER
 62
     1
 48
5.0
100
AcDbLine
 10
279.3384280478472
 20
133.6376090154267
 30
0.0
 11
289.0084280478473
 21
137.5053090154267
 31
0.0
  0
LINE
  5
4E3
330
1A
100
AcDbEntity
  8
SEIHIN
  6
CONTINUOUS
 62
     3
 48
16.0
100
AcDbLine
 10
280.0993280478471
 20
128.5568090154267
 30
0.0
 11
276.3857280478472
 21
137.8417090154268
 31
0.0
  0
LINE
  5
4E4
330
1A
100
AcDbEntity
  8
CENTER_L
  6
CENTER
 62
     1
 48
5.0
100
AcDbLine
 10
281.1396280478471
 20
139.4197090154267
 30
0.0
 11
284.6485280478473
 21
130.6467090154267
 31
0.0
  0
ARC
  5
4E5
330
1A
100
AcDbEntity
  8
SEIHIN
  6
CONTINUOUS
 62
     3
 48
16.0
100
AcDbCircle
 10
281.0278280478472
 20
128.9282090154267
 30
0.0
 40
1.000025104684966
100
AcDbArc
 50
201.8014094863535
 51
291.8014094863548
  0
ARC
  5
4E6
330
1A
100
AcDbEntity
  8
SEIHIN
  6
CONTINUOUS
 62
     3
 48
16.0
100
AcDbCircle
 10
277.314238393075
 20
138.2130331511965
 30
0.0
 40
1.00000653747867
100
AcDbArc
 50
111.8024734106089
 51
201.7971535670257
  0
ARC
  5
4E7
330
1A
100
AcDbEntity
  8
SEIHIN
  6
CONTINUOUS
 62
     3
 48
16.0
100
AcDbCircle
 10
282.8849280478473
 20
135.0561090154266
 30
0.0
 40
1.75
100
AcDbArc
 50
359.9999999999999
 51
179.9999999999999
  0
ARC
  5
4E8
330
1A
100
AcDbEntity
  8
SEIHIN
  6
CONTINUOUS
 62
     3
 48
16.0
100
AcDbCircle
 10
282.8849280478473
 20
135.0561090154266
 30
0.0
 40
1.75
100
AcDbArc
 50
179.9999999999999
 51
359.9999999999999
  0
LINE
  5
4E9
330
1A
100
AcDbEntity
  8
SEIHIN
  6
CONTINUOUS
 62
     3
 48
16.0
100
AcDbLine
 10
301.4546280478471
 20
139.7908090154267
 30
0.0
 11
288.4558280478471
 21
134.5917090154267
 31
0.0
  0
LINE
  5
4EA
330
1A
100
AcDbEntity
  8
SEIHIN
  6
CONTINUOUS
 62
     3
 48
16.0
100
AcDbLine
 10
322.6233672255983
 20
116.4855798810221
 30
0.0
 11
317.9808672255984
 21
114.6286798810221
 31
0.0
  0
LINE
  5
4EB
330
1A
100
AcDbEntity
  8
CENTER_L
  6
CENTER
 62
     1
 48
5.0
100
AcDbLine
 10
312.2307672255982
 20
117.7138798810221
 30
0.0
 11
319.6928672255985
 21
120.6985798810221
 31
0.0
  0
LINE
  5
4EC
330
1A
100
AcDbEntity
  8
SEIHIN
  6
CONTINUOUS
 62
     3
 48
16.0
100
AcDbLine
 10
313.3384672255982
 20
112.7718798810221
 30
0.0
 11
317.9808672255984
 21
114.6286798810221
 31
0.0
  0
ARC
  5
4ED
330
1A
100
AcDbEntity
  8
SEIHIN
  6
CONTINUOUS
 62
     3
 48
16.0
100
AcDbCircle
 10
312.9670672255983
 20
113.700379881022
 30
0.0
 40
1.000025104684821
100
AcDbArc
 50
201.8014094863458
 51
291.8014094863461
  0
ARC
  5
4EE
330
1A
100
AcDbEntity
  8
SEIHIN
  6
CONTINUOUS
 62
     3
 48
16.0
100
AcDbCircle
 10
316.1240672255983
 20
119.2711798810221
 30
0.0
 40
1.749999999999914
100
AcDbArc
 50
359.9999999999999
 51
179.9999999999999
  0
ARC
  5
4EF
330
1A
100
AcDbEntity
  8
SEIHIN
  6
CONTINUOUS
 62
     3
 48
16.0
100
AcDbCircle
 10
316.1240672255983
 20
119.2711798810221
 30
0.0
 40
1.749999999999914
100
AcDbArc
 50
179.9999999999999
 51
359.9999999999999
  0
ARC
  5
4F0
330
1A
100
AcDbEntity
  8
SEIHIN
  6
CONTINUOUS
 62
     3
 48
16.0
100
AcDbCircle
 10
322.2519930868347
 20
117.4140402270023
 30
0.0
 40
0.9999786822728623
100
AcDbArc
 50
291.8008775168202
 51
21.79874946082991
  0
ARC
  5
4F1
330
1A
100
AcDbEntity
  8
SEIHIN
  6
CONTINUOUS
 62
     3
 48
16.0
100
AcDbCircle
 10
310.3966280478471
 20
133.5907090154268
 30
0.0
 40
3.000038176423814
100
AcDbArc
 50
291.7996362490559
 51
21.7996362490554
  0
ARC
  5
4F2
330
1A
100
AcDbEntity
  8
SEIHIN
  6
CONTINUOUS
 62
     3
 48
16.0
100
AcDbCircle
 10
310.3966883930053
 20
133.5906831514473
 30
0.0
 40
2.999991752488617
100
AcDbArc
 50
201.7994588589235
 51
291.7987495969359
  0
LINE
  5
4F3
330
1A
100
AcDbEntity
  8
SEIHIN
  6
CONTINUOUS
 62
     3
 48
16.0
100
AcDbLine
 10
305.7256280478473
 20
139.8836090154267
 30
0.0
 11
307.5826280478472
 21
140.6263090154266
 31
0.0
  0
LINE
  5
4F4
330
1A
100
AcDbEntity
  8
SEIHIN
  6
CONTINUOUS
 62
     3
 48
16.0
100
AcDbLine
 10
309.4395280478472
 20
141.3690090154266
 30
0.0
 11
307.5826280478472
 21
140.6263090154266
 31
0.0
  0
LINE
  5
4F5
330
1A
100
AcDbEntity
  8
SEIHIN
  6
CONTINUOUS
 62
     3
 48
16.0
100
AcDbLine
 10
335.8085280478471
 20
150.8388090154267
 30
0.0
 11
332.0948280478473
 21
160.1237090154267
 31
0.0
  0
LINE
  5
4F6
330
1A
100
AcDbEntity
  8
SEIHIN
  6
CONTINUOUS
 62
     3
 48
16.0
100
AcDbLine
 10
220.1194804740162
 20
237.973545157851
 30
0.0
 11
220.1194804740162
 21
216.7235115520304
 31
0.0
  0
LINE
  5
4F7
330
1A
100
AcDbEntity
  8
SEIHIN
  6
CONTINUOUS
 62
     3
 48
16.0
100
AcDbLine
 10
225.6900804740161
 20
237.973545157851
 30
0.0
 11
225.690080474016
 21
215.5236115520304
 31
0.0
  0
LINE
  5
4F8
330
1A
100
AcDbEntity
  8
SEIHIN
  6
CONTINUOUS
 62
     3
 48
16.0
100
AcDbLine
 10
221.2336804740162
 20
237.973545157851
 30
0.0
 11
221.2336804740162
 21
215.5236115520304
 31
0.0
  0
DIMENSION
  5
4F9
330
1A
100
AcDbEntity
  8
SUNPOU
  6
CONTINUOUS
100
AcDbDimension
  2
*D12
 10
250.5066322560196
 20
177.9736451578508
 30
0.0
 11
248.0066322560196
 21
207.9735951578509
 31
0.0
 70
    32
  3
STANDARD
100
AcDbAlignedDimension
 13
225.6900804740161
 23
237.973545157851
 33
0.0
 14
225.689980474016
 24
177.9736451578508
 34
0.0
 50
90.0
100
AcDbRotatedDimension
1001
ACAD
1000
DSTYLE
1002
{
1070
   140
1040
3.0
1070
    74
1070
     0
1070
   172
1070
     1
1070
    73
1070
     0
1070
   272
1070
     2
1070
    77
1070
     3
1070
   173
1070
     1
1070
   147
1040
1.0
1070
    42
1040
3.0
1070
    44
1040
1.5
1070
    43
1040
7.0
1070
   271
1070
     0
1070
   178
1070
     4
1070
   177
1070
     4
1070
   176
1070
     4
1070
   141
1040
150.0
1070
     7
1000
_OPEN
1070
     6
1000
_OPEN
1070
    41
1040
3.0
1002
}
  0
LINE
  5
4FA
330
1A
100
AcDbEntity
  8
SEIHIN
  6
CONTINUOUS
 62
     3
 48
16.0
100
AcDbLine
 10
220.1193804740162
 20
177.9736451578508
 30
0.0
 11
220.1194738964048
 21
199.2272385590059
 31
0.0
  0
LINE
  5
4FB
330
1A
100
AcDbEntity
  8
SEIHIN
  6
CONTINUOUS
 62
     3
 48
16.0
100
AcDbLine
 10
225.689980474016
 20
177.9736451578508
 30
0.0
 11
225.6900742255881
 21
200.4271466357603
 31
0.0
  0
LINE
  5
4FC
330
1A
100
AcDbEntity
  8
SEIHIN
  6
CONTINUOUS
 62
     3
 48
16.0
100
AcDbLine
 10
221.2335804740162
 20
177.9736451578508
 30
0.0
 11
221.2335804740162
 21
200.4236115520301
 31
0.0
  0
LINE
  5
4FD
330
1A
100
AcDbEntity
  8
CENTER_L
  6
CENTER
 62
     1
 48
5.0
100
AcDbLine
 10
228.3447804740162
 20
182.9736451578509
 30
0.0
 11
217.2649804740162
 21
182.9736451578509
 31
0.0
  0
LINE
  5
4FE
330
1A
100
AcDbEntity
  8
CENTER_L
  6
CENTER
 62
     1
 48
5.0
100
AcDbLine
 10
223.4618804740162
 20
177.981945157851
 30
0.0
 11
223.4618804740162
 21
188.173945157851
 31
0.0
  0
LINE
  5
4FF
330
1A
100
AcDbEntity
  8
SEIHIN
  6
CONTINUOUS
 62
     3
 48
16.0
100
AcDbLine
 10
225.689980474016
 20
177.9736451578508
 30
0.0
 11
220.1193804740162
 21
177.9736451578508
 31
0.0
  0
ARC
  5
500
330
1A
100
AcDbEntity
  8
SEIHIN
  6
CONTINUOUS
100
AcDbCircle
 10
220.3169606366275
 20
182.9736460435348
 30
0.0
 40
2.680741098157723
100
AcDbArc
 50
344.870793689617
 51
15.12918670093857
  0
ARC
  5
501
330
1A
100
AcDbEntity
  8
SEIHIN
  6
CONTINUOUS
100
AcDbCircle
 10
221.4311483806174
 20
182.973645157853
 30
0.0
 40
2.680741098157723
100
AcDbArc
 50
319.2466114189568
 51
40.75338858097591
  0
ARC
  5
502
330
1A
100
AcDbEntity
  8
SEIHIN
  6
CONTINUOUS
100
AcDbCircle
 10
225.4926125674151
 20
182.973645157853
 30
0.0
 40
2.680741098157723
100
AcDbArc
 50
139.246611419024
 51
220.753388581043
  0
LINE
  5
503
330
1A
100
AcDbEntity
  8
SEIHIN
  6
CONTINUOUS
 62
     3
 48
16.0
100
AcDbLine
 10
235.3455804740162
 20
214.0236154461338
 30
0.0
 11
235.3455804740162
 21
207.973545157851
 31
0.0
  0
ARC
  5
504
330
1A
100
AcDbEntity
  8
SEIHIN
  6
CONTINUOUS
 62
     3
 48
16.0
100
AcDbCircle
 10
219.1194804740161
 20
199.2236115520301
 30
0.0
 40
1.000000000000056
100
AcDbArc
 50
359.9999999999967
 51
89.99999999999674
  0
ARC
  5
505
330
1A
100
AcDbEntity
  8
SEIHIN
  6
CONTINUOUS
 62
     3
 48
16.0
100
AcDbCircle
 10
212.804380474016
 20
201.2236115520302
 30
0.0
 40
1.000000000000028
100
AcDbArc
 50
180.0000000000081
 51
270.0000000000081
  0
LINE
  5
506
330
1A
100
AcDbEntity
  8
SEIHIN
  6
CONTINUOUS
 62
     3
 48
16.0
100
AcDbLine
 10
211.804380474016
 20
201.2236115520301
 30
0.0
 11
211.804380474016
 21
201.4236115520302
 31
0.0
  0
LINE
  5
507
330
1A
100
AcDbEntity
  8
SEIHIN
  6
CONTINUOUS
 62
     3
 48
16.0
100
AcDbLine
 10
219.1194681531094
 20
200.2238108145557
 30
0.0
 11
212.8043681529584
 21
200.2237208544604
 31
0.0
  0
LINE
  5
508
330
1A
100
AcDbEntity
  8
SEIHIN
100
AcDbLine
 10
218.6340019537583
 20
202.4236342530702
 30
0.0
 11
218.6340019537583
 21
213.5236342530691
 31
0.0
  0
LINE
  5
509
330
1A
100
AcDbEntity
  8
SEIHIN
  6
CONTINUOUS
 62
     3
 48
16.0
100
AcDbLine
 10
235.3455804740162
 20
201.9236154461342
 30
0.0
 11
235.3455804740162
 21
207.973645157851
 31
0.0
  0
ARC
  5
50A
330
1A
100
AcDbEntity
  8
SEIHIN
  6
CONTINUOUS
 62
     3
 48
16.0
100
AcDbCircle
 10
220.2335804740162
 20
200.4236115520301
 30
0.0
 40
1.000000000000056
100
AcDbArc
 50
359.9999999999967
 51
89.99999999999674
  0
ARC
  5
50B
330
1A
100
AcDbEntity
  8
SEIHIN
  6
CONTINUOUS
 62
     3
 48
16.0
100
AcDbCircle
 10
224.690080474016
 20
200.4236115520301
 30
0.0
 40
1.000000000000056
100
AcDbArc
 50
359.9999999999967
 51
89.99999999999674
  0
ARC
  5
50C
330
1A
100
AcDbEntity
  8
SEIHIN
  6
CONTINUOUS
 62
     3
 48
16.0
100
AcDbCircle
 10
234.8455804740162
 20
201.9236154461342
 30
0.0
 40
0.5
100
AcDbArc
 50
269.9999335315781
 51
0.0
  0
ARC
  5
50D
330
1A
100
AcDbEntity
  8
SEIHIN
  6
CONTINUOUS
 62
     3
 48
16.0
100
AcDbCircle
 10
224.682587609236
 20
207.0032640613848
 30
0.0
 40
3.615424116908353
100
AcDbArc
 50
303.0735697948563
 51
15.56745535919487
  0
ARC
  5
50E
330
1A
100
AcDbEntity
  8
SEIHIN
  6
CONTINUOUS
 62
     3
 48
16.0
100
AcDbCircle
 10
224.682562584996
 20
208.9439925506404
 30
0.0
 40
3.61546601571246
100
AcDbArc
 50
344.4316389860807
 51
56.926389367025
  0
LINE
  5
50F
330
1A
100
AcDbEntity
  8
SEIHIN
100
AcDbLine
 10
224.814318063587
 20
205.9736566563896
 30
0.0
 11
224.814318063587
 21
209.9736566563909
 31
0.0
  0
LINE
  5
510
330
1A
100
AcDbEntity
  8
SEIHIN
100
AcDbLine
 10
222.2147512430245
 20
205.9736587228179
 30
0.0
 11
222.2147512430246
 21
209.9736587228192
 31
0.0
  0
ARC
  5
511
330
1A
100
AcDbEntity
  8
SEIHIN
  6
CONTINUOUS
 62
     3
 48
16.0
100
AcDbCircle
 10
224.2823871361403
 20
208.7118581115206
 30
0.0
 40
3.559400056195171
100
AcDbArc
 50
113.5965622146118
 51
191.9699200674006
  0
LINE
  5
512
330
1A
100
AcDbEntity
  8
SEIHIN
  6
CONTINUOUS
 62
     3
 48
5.0
100
AcDbLine
 10
224.814318063587
 20
205.9736566563896
 30
0.0
 11
222.2147512430246
 21
205.9736587228179
 31
0.0
  0
LINE
  5
513
330
1A
100
AcDbEntity
  8
SEIHIN
  6
CONTINUOUS
 62
     3
 48
16.0
100
AcDbLine
 10
226.6555804740162
 20
203.973645157851
 30
0.0
 11
222.857580474016
 21
203.973645157851
 31
0.0
  0
ARC
  5
514
330
1A
100
AcDbEntity
  8
SEIHIN
  6
CONTINUOUS
 62
     3
 48
16.0
100
AcDbCircle
 10
224.282420302531
 20
207.2353677173421
 30
0.0
 40
3.559445876330672
100
AcDbArc
 50
168.0291751939445
 51
246.4031773784447
  0
LINE
  5
515
330
1A
100
AcDbEntity
  8
SEIHIN
  6
CONTINUOUS
 62
     3
 48
5.0
100
AcDbLine
 10
224.814318063587
 20
209.9736566563909
 30
0.0
 11
222.2147512430246
 21
209.9736587228192
 31
0.0
  0
LINE
  5
516
330
1A
100
AcDbEntity
  8
SEIHIN
  6
CONTINUOUS
 62
     3
 48
16.0
100
AcDbLine
 10
226.6555804740162
 20
211.973645157851
 30
0.0
 11
222.8576804740161
 21
211.973645157851
 31
0.0
  0
ARC
  5
517
330
1A
100
AcDbEntity
  8
SEIHIN
  6
CONTINUOUS
100
AcDbCircle
 10
230.3438606366274
 20
207.9736506466349
 30
0.0
 40
2.680741098157723
100
AcDbArc
 50
344.870793689617
 51
15.12918670093857
  0
ARC
  5
518
330
1A
100
AcDbEntity
  8
SEIHIN
  6
CONTINUOUS
100
AcDbCircle
 10
235.5195125674149
 20
207.9736497609531
 30
0.0
 40
2.680741098157723
100
AcDbArc
 50
139.246611419024
 51
220.753388581043
  0
ARC
  5
519
330
1A
100
AcDbEntity
  8
SEIHIN
  6
CONTINUOUS
100
AcDbCircle
 10
231.4580483806172
 20
207.9736497609531
 30
0.0
 40
2.680741098157723
100
AcDbArc
 50
319.2466114189568
 51
40.75338858097591
  0
LINE
  5
51A
330
1A
100
AcDbEntity
  8
CENTER_L
  6
CENTER
 62
     1
 48
5.0
100
AcDbLine
 10
233.488780474016
 20
203.303445157851
 30
0.0
 11
233.488780474016
 21
212.443845157851
 31
0.0
  0
ARC
  5
51B
330
1A
100
AcDbEntity
  8
SEIHIN
  6
CONTINUOUS
 62
     3
 48
16.0
100
AcDbCircle
 10
219.1194804740162
 20
216.7235115520304
 30
0.0
 40
1.0
100
AcDbArc
 50
270.0
 51
0.0
  0
LINE
  5
51C
330
1A
100
AcDbEntity
  8
CENTER_L
  6
CENTER
 62
     1
 48
5.0
100
AcDbLine
 10
229.351480474016
 20
232.973545157851
 30
0.0
 11
216.9485804740162
 21
232.973645157851
 31
0.0
  0
ARC
  5
51D
330
1A
100
AcDbEntity
  8
SEIHIN
  6
CONTINUOUS
 62
     3
 48
16.0
100
AcDbCircle
 10
212.8043804740161
 20
214.7236115520303
 30
0.0
 40
1.000000000000142
100
AcDbArc
 50
89.99999999999836
 51
179.9999999999983
  0
LINE
  5
51E
330
1A
100
AcDbEntity
  8
SEIHIN
  6
CONTINUOUS
 62
     3
 48
16.0
100
AcDbLine
 10
211.804380474016
 20
214.7236115520303
 30
0.0
 11
211.804380474016
 21
214.5236115520304
 31
0.0
  0
LINE
  5
51F
330
1A
100
AcDbEntity
  8
SEIHIN
  6
CONTINUOUS
 62
     3
 48
16.0
100
AcDbLine
 10
219.1194804740162
 20
215.7235115520304
 30
0.0
 11
212.8043804740162
 21
215.7236115520304
 31
0.0
  0
ARC
  5
520
330
1A
100
AcDbEntity
  8
SEIHIN
  6
CONTINUOUS
 62
     3
 48
16.0
100
AcDbCircle
 10
220.2336804740162
 20
215.5236115520304
 30
0.0
 40
1.0
100
AcDbArc
 50
270.0
 51
0.0
  0
ARC
  5
521
330
1A
100
AcDbEntity
  8
SEIHIN
  6
CONTINUOUS
 62
     3
 48
16.0
100
AcDbCircle
 10
224.690080474016
 20
215.5236115520304
 30
0.0
 40
1.0
100
AcDbArc
 50
270.0
 51
0.0
  0
ARC
  5
522
330
1A
100
AcDbEntity
  8
SEIHIN
  6
CONTINUOUS
 62
     3
 48
16.0
100
AcDbCircle
 10
234.8455804740162
 20
214.0236154461338
 30
0.0
 40
0.5
100
AcDbArc
 50
0.0
 51
89.9999335315784
  0
ARC
  5
523
330
1A
100
AcDbEntity
  8
SEIHIN
  6
CONTINUOUS
100
AcDbCircle
 10
221.4311483806174
 20
232.9735926435217
 30
0.0
 40
2.680741098157723
100
AcDbArc
 50
319.2466114189568
 51
40.75338858097591
  0
ARC
  5
524
330
1A
100
AcDbEntity
  8
SEIHIN
  6
CONTINUOUS
100
AcDbCircle
 10
225.4926125674151
 20
232.9735926435217
 30
0.0
 40
2.680741098157723
100
AcDbArc
 50
139.246611419024
 51
220.753388581043
  0
LINE
  5
525
330
1A
100
AcDbEntity
  8
CENTER_L
  6
CENTER
 62
     1
 48
5.0
100
AcDbLine
 10
223.4618804740162
 20
236.1478451578509
 30
0.0
 11
223.4618804740162
 21
227.336345157851
 31
0.0
  0
ARC
  5
526
330
1A
100
AcDbEntity
  8
SEIHIN
  6
CONTINUOUS
100
AcDbCircle
 10
220.3169606366275
 20
232.9735935292035
 30
0.0
 40
2.680741098157723
100
AcDbArc
 50
344.870793689617
 51
15.12918670093857
  0
ARC
  5
527
330
1A
100
AcDbEntity
  8
SEIHIN
  6
CONTINUOUS
 62
     3
 48
16.0
100
AcDbCircle
 10
303.3406539115063
 20
151.2319693598381
 30
0.0
 40
2.999991752488644
100
AcDbArc
 50
111.8005228792327
 51
201.8012321412213
  0
LINE
  5
528
330
1A
100
AcDbEntity
  8
SEIHIN
  6
CONTINUOUS
 62
     3
 48
16.0
100
AcDbLine
 10
305.9118280478471
 20
158.2674090154268
 30
0.0
 11
301.2693280478472
 21
156.4106090154267
 31
0.0
  0
LINE
  5
529
330
1A
100
AcDbEntity
  8
SEIHIN
  6
CONTINUOUS
 62
     3
 48
16.0
100
AcDbLine
 10
296.6269280478472
 20
154.5537090154266
 30
0.0
 11
301.2693280478472
 21
156.4106090154267
 31
0.0
  0
ARC
  5
52A
330
1A
100
AcDbEntity
  8
SEIHIN
  6
CONTINUOUS
 62
     3
 48
16.0
100
AcDbCircle
 10
296.9982280478473
 20
153.6252090154267
 30
0.0
 40
0.9999879699275954
100
AcDbArc
 50
111.79608964277
 51
201.7960896427699
  0
LINE
  5
52B
330
1A
100
AcDbEntity
  8
SEIHIN
  6
CONTINUOUS
 62
     3
 48
16.0
100
AcDbLine
 10
310.7396280478472
 20
148.8897090154267
 30
0.0
 11
323.7384280478472
 21
154.0888090154267
 31
0.0
  0
LINE
  5
52C
330
1A
100
AcDbEntity
  8
SEIHIN
  6
CONTINUOUS
 62
     3
 48
16.0
100
AcDbLine
 10
330.7950280478473
 20
160.6808090154268
 30
0.0
 11
309.439828047847
 21
152.1394090154266
 31
0.0
  0
LINE
  5
52D
330
1A
100
AcDbEntity
  8
SEIHIN
  6
CONTINUOUS
 62
     3
 48
16.0
100
AcDbLine
 10
306.8400280478472
 20
147.8684090154268
 30
0.0
 11
304.9830280478472
 21
147.1257090154267
 31
0.0
  0
LINE
  5
52E
330
1A
100
AcDbEntity
  8
SEIHIN
  6
CONTINUOUS
 62
     3
 48
16.0
100
AcDbLine
 10
303.1260280478472
 20
146.3830090154267
 30
0.0
 11
304.9830280478472
 21
147.1257090154267
 31
0.0
  0
ARC
  5
52F
330
1A
100
AcDbEntity
  8
SEIHIN
  6
CONTINUOUS
 62
     3
 48
16.0
100
AcDbCircle
 10
303.3406280478471
 20
151.2319090154266
 30
0.0
 40
3.000038176423883
100
AcDbArc
 50
21.79963624905868
 51
111.7996362490589
  0
ARC
  5
530
330
1A
100
AcDbEntity
  8
SEIHIN
  6
CONTINUOUS
 62
     3
 48
16.0
100
AcDbCircle
 10
306.2831521836169
 20
157.338898670199
 30
0.0
 40
1.000006537478687
100
AcDbArc
 50
21.80247341060403
 51
111.7971535670226
  0
LINE
  5
531
330
1A
100
AcDbEntity
  8
CENTER_L
  6
CENTER
 62
     1
 48
5.0
100
AcDbLine
 10
327.5639280478471
 20
157.9881090154266
 30
0.0
 11
331.0728280478472
 21
149.2151090154267
 31
0.0
  0
ARC
  5
532
330
1A
100
AcDbEntity
  8
SEIHIN
  6
CONTINUOUS
 62
     3
 48
16.0
100
AcDbCircle
 10
324.6668280478473
 20
151.7676090154266
 30
0.0
 40
2.499979199913408
100
AcDbArc
 50
291.7997071427222
 51
21.79970714272306
  0
LINE
  5
533
330
1A
100
AcDbEntity
  8
CENTER_L
  6
CENTER
 62
     1
 48
5.0
100
AcDbLine
 10
332.8558280478471
 20
155.0429090154266
 30
0.0
 11
323.2938280478472
 21
151.2185090154267
 31
0.0
  0
ARC
  5
534
330
1A
100
AcDbEntity
  8
SEIHIN
  6
CONTINUOUS
 62
     3
 48
16.0
100
AcDbCircle
 10
324.6668280478473
 20
151.7676090154267
 30
0.0
 40
2.499979199913488
100
AcDbArc
 50
21.79970714272234
 51
111.7997071427222
  0
ARC
  5
535
330
1A
100
AcDbEntity
  8
SEIHIN
  6
CONTINUOUS
 62
     3
 48
16.0
100
AcDbCircle
 10
329.3092280478472
 20
153.6244090154266
 30
0.0
 40
1.75
100
AcDbArc
 50
179.9999999999999
 51
359.9999999999999
  0
ARC
  5
536
330
1A
100
AcDbEntity
  8
SEIHIN
  6
CONTINUOUS
 62
     3
 48
16.0
100
AcDbCircle
 10
329.3092280478472
 20
153.6244090154266
 30
0.0
 40
1.75
100
AcDbArc
 50
359.9999999999999
 51
179.9999999999999
  0
ARC
  5
537
330
1A
100
AcDbEntity
  8
SEIHIN
  6
CONTINUOUS
 62
     3
 48
16.0
100
AcDbCircle
 10
331.1663280478473
 20
159.7524090154267
 30
0.0
 40
0.9999879699276851
100
AcDbArc
 50
21.79608964276963
 51
111.7960896427667
  0
LINE
  5
538
330
1A
100
AcDbEntity
  8
SEIHIN
  6
CONTINUOUS
 62
     3
 48
16.0
100
AcDbLine
 10
225.6900804740161
 20
237.973545157851
 30
0.0
 11
220.1194804740162
 21
237.973545157851
 31
0.0
  0
ARC
  5
539
330
1A
100
AcDbEntity
  8
SEIHIN
  6
CONTINUOUS
 62
     3
 48
16.0
100
AcDbCircle
 10
334.8800177026193
 20
150.4674848796568
 30
0.0
 40
1.000006537478665
100
AcDbArc
 50
291.8024734106055
 51
21.7971535670248
  0
LWPOLYLINE
  5
78E
330
1A
100
AcDbEntity
  8
ZUWAKU
100
AcDbPolyline
 90
        4
 70
     1
 43
0.0
 10
0.4000000874406169
 20
275.3999997546114
 10
0.4000000874406169
 20
0.3999997546114287
 10
398.4000000874406
 20
0.3999997546114287
 10
398.4000000874406
 20
275.3999997546114
  0
LWPOLYLINE
  5
78F
330
1A
100
AcDbEntity
  8
ZUWAKU
100
AcDbPolyline
 90
        4
 70
     1
 43
0.0
 10
0.2000000874406282
 20
275.5999997546114
 10
0.2000000874406282
 20
0.19999975461144
 10
398.6000000874406
 20
0.1999997546114285
 10
398.6000000874406
 20
275.5999997546114
  0
LWPOLYLINE
  5
790
330
1A
100
AcDbEntity
  8
ZUWAKU
100
AcDbPolyline
 90
        4
 70
     1
 43
0.0
 10
0.0000000874406396
 20
275.7999997546114
 10
0.0000000874406396
 20
-0.0000002453886054
 10
398.8000000874407
 20
-0.0000002453885717
 10
398.8000000874407
 20
275.7999997546114
  0
LWPOLYLINE
  5
791
330
1A
100
AcDbEntity
  8
ZUWAKU
100
AcDbPolyline
 90
        4
 70
     1
 43
0.0
 10
0.3000000874405941
 20
275.4999997546114
 10
0.3000000874405941
 20
0.2999997546114059
 10
398.5000000874407
 20
0.299999754611429
 10
398.5000000874406
 20
275.4999997546114
  0
LWPOLYLINE
  5
792
330
1A
100
AcDbEntity
  8
ZUWAKU
100
AcDbPolyline
 90
        4
 70
     1
 43
0.0
 10
0.1000000874406055
 20
275.6999997546114
 10
0.1000000874406055
 20
0.0999997546114173
 10
398.7000000874406
 20
0.0999997546114289
 10
398.7000000874406
 20
275.6999997546114
  0
LINE
  5
793
330
1A
100
AcDbEntity
  8
ZUWAKU
100
AcDbLine
 10
0.0000000874406396
 20
14.99999975461139
 30
0.0
 11
398.7000000874406
 21
14.99999975461139
 31
0.0
  0
LINE
  5
794
330
1A
100
AcDbEntity
  8
ZUWAKU
100
AcDbLine
 10
0.0000000874406396
 20
15.09999975461139
 30
0.0
 11
398.7000000874406
 21
15.09999975461139
 31
0.0
  0
LINE
  5
795
330
1A
100
AcDbEntity
  8
ZUWAKU
100
AcDbLine
 10
0.0000000874406396
 20
15.19999975461139
 30
0.0
 11
398.7000000874406
 21
15.19999975461139
 31
0.0
  0
LINE
  5
796
330
1A
100
AcDbEntity
  8
ZUWAKU
100
AcDbLine
 10
0.0000000874406396
 20
15.29999975461139
 30
0.0
 11
398.7000000874406
 21
15.29999975461139
 31
0.0
  0
LINE
  5
797
330
1A
100
AcDbEntity
  8
ZUWAKU
100
AcDbLine
 10
0.0000000874406396
 20
15.3999997546114
 30
0.0
 11
398.7000000874406
 21
15.3999997546114
 31
0.0
  0
LINE
  5
798
330
1A
100
AcDbEntity
  8
ZUWAKU
100
AcDbLine
 10
104.3233007324746
 20
7.699999754611411
 30
0.0
 11
223.7121820729363
 21
7.699999754611411
 31
0.0
  0
LINE
  5
799
330
1A
100
AcDbEntity
  8
ZUWAKU
100
AcDbLine
 10
104.3233007324746
 20
7.799999754611411
 30
0.0
 11
223.7121820729363
 21
7.799999754611414
 31
0.0
  0
LINE
  5
79A
330
1A
100
AcDbEntity
  8
ZUWAKU
100
AcDbLine
 10
104.3233007324746
 20
7.599999754611413
 30
0.0
 11
223.7121820729363
 21
7.59999975461141
 31
0.0
  0
CIRCLE
  5
79B
330
1A
100
AcDbEntity
  8
ZUWAKU
100
AcDbCircle
 10
12.99610616483119
 20
7.599999754611395
 30
0.0
 40
0.875
  0
LINE
  5
79C
330
1A
100
AcDbEntity
  8
ZUWAKU
100
AcDbLine
 10
13.43360616483119
 20
3.574999754611397
 30
0.0
 11
12.47110616483121
 21
3.574999754611397
 31
0.0
  0
LINE
  5
79D
330
1A
100
AcDbEntity
  8
ZUWAKU
100
AcDbLine
 10
12.47110616483121
 20
4.974999754611395
 30
0.0
 11
13.43360616483119
 21
4.974999754611395
 31
0.0
  0
LINE
  5
79E
330
1A
100
AcDbEntity
  8
ZUWAKU
100
AcDbLine
 10
13.43360616483119
 20
10.22499975461139
 30
0.0
 11
12.47110616483121
 21
10.22499975461139
 31
0.0
  0
LINE
  5
79F
330
1A
100
AcDbEntity
  8
ZUWAKU
100
AcDbLine
 10
12.47110616483121
 20
11.62499975461137
 30
0.0
 11
13.43360616483119
 21
11.62499975461139
 31
0.0
  0
HATCH
  5
7A0
330
1A
100
AcDbEntity
  8
ZUWAKU
100
AcDbHatch
 10
0.0
 20
0.0
 30
0.0
210
0.0
220
0.0
230
1.0
  2
ANSI37
 70
     0
 71
     0
 91
        8
 92
        7
 72
     1
 73
     1
 93
       24
 10
7.251131418000568
 20
8.822423995103186
 42
-0.1989123673796348
 10
7.046106164831201
 20
9.317398741933711
 42
0.0
 10
7.046106164831201
 20
9.9624997546114
 42
-0.4142135623730912
 10
7.308606164831189
 20
10.22499975461139
 42
0.0
 10
8.796106164831144
 20
10.22499975461139
 42
0.4142135623731546
 10
9.058606164831189
 20
10.48749975461139
 42
0.0
 10
9.058606164831189
 20
11.36249975461139
 42
0.4142135623731586
 10
8.796106164831144
 20
11.62499975461139
 42
0.0
 10
7.046106164831201
 20
11.62499975461139
 42
0.4142135623730928
 10
5.646106164831223
 20
10.22499975461141
 42
0.0
 10
5.646106164831223
 20
9.317398741933775
 42
0.1989123673796619
 10
6.261181924339439
 20
7.832474501441971
 42
0.0
 10
7.716080911661777
 20
6.377575514119643
 42
-0.1989123673796613
 10
7.921106164831201
 20
5.88260076728905
 42
0.0
 10
7.921106164831201
 20
5.237499754611391
 42
-0.4142135623730911
 10
7.658606164831212
 20
4.974999754611395
 42
0.0
 10
6.171106164831257
 20
4.974999754611395
 42
0.4142135623731526
 10
5.908606164831212
 20
4.712499754611402
 42
0.0
 10
5.908606164831212
 20
3.837499754611391
 42
0.4142135623731526
 10
6.171106164831257
 20
3.574999754611397
 42
0.0
 10
7.921106164831201
 20
3.574999754611397
 42
0.4142135623731044
 10
9.321106164831235
 20
4.974999754611385
 42
0.0
 10
9.321106164831235
 20
5.882600767289021
 42
0.1989123673796604
 10
8.706030405322962
 20
7.367525007780791
 42
0.0
 97
        0
 92
        7
 72
     1
 73
     1
 93
       16
 10
11.77110616483122
 20
9.5249997546114
 42
-0.4142135623730935
 10
12.47110616483121
 20
10.22499975461139
 42
0.0
 10
13.43360616483119
 20
10.22499975461139
 42
0.4142135623731546
 10
13.69610616483123
 20
10.48749975461139
 42
0.0
 10
13.69610616483123
 20
11.36249975461139
 42
0.4142135623730951
 10
13.43360616483124
 20
11.62499975461139
 42
0.0
 10
12.47110616483115
 20
11.62499975461137
 42
0.4142135623730892
 10
10.37110616483118
 20
9.524999754611364
 42
0.0
 10
10.37110616483118
 20
5.674999754611409
 42
0.4142135623730969
 10
12.47110616483121
 20
3.574999754611397
 42
0.0
 10
13.43360616483119
 20
3.574999754611397
 42
0.4142135623731526
 10
13.69610616483123
 20
3.837499754611391
 42
0.0
 10
13.69610616483123
 20
4.712499754611402
 42
0.4142135623730891
 10
13.43360616483124
 20
4.974999754611395
 42
0.0
 10
12.47110616483121
 20
4.974999754611395
 42
-0.4142135623730928
 10
11.77110616483122
 20
5.674999754611389
 42
0.0
 97
        0
 92
        7
 72
     1
 73
     1
 93
        2
 10
12.12110616483119
 20
7.599999754611395
 42
1.0
 10
13.87110616483119
 20
7.599999754611395
 42
1.0
 97
        0
 92
        7
 72
     1
 73
     1
 93
       26
 10
18.65742940592019
 20
9.602523351393109
 42
0.0
 10
19.1882492224891
 20
11.2834527705279
 42
0.5069206636600134
 10
18.93793377289142
 20
11.62499975461139
 42
0.0
 10
18.08848908308681
 20
11.62499975461139
 42
0.3272098845218764
 10
17.83817363348913
 20
11.44154673869488
 42
0.0
 10
16.90403869617324
 20
8.483452770527936
 42
-0.3272098845219541
 10
16.65372324657551
 20
8.299999754611395
 42
0.0
 10
16.58360616483128
 20
8.299999754611395
 42
-0.4142135623731526
 10
16.32110616483123
 20
8.562499754611389
 42
0.0
 10
16.32110616483123
 20
11.36249975461139
 42
0.4142135623730951
 10
16.05860616483124
 20
11.62499975461139
 42
0.0
 10
15.18360616483119
 20
11.62499975461139
 42
0.4142135623730871
 10
14.9211061648312
 20
11.3624997546114
 42
0.0
 10
14.9211061648312
 20
3.837499754611391
 42
0.4142135623730891
 10
15.18360616483119
 20
3.574999754611397
 42
0.0
 10
16.05860616483119
 20
3.574999754611397
 42
0.4142135623731526
 10
16.32110616483123
 20
3.837499754611391
 42
0.0
 10
16.32110616483123
 20
6.637499754611402
 42
-0.4142135623731526
 10
16.58360616483128
 20
6.899999754611396
 42
0.0
 10
16.65372324657556
 20
6.899999754611396
 42
-0.3272098845218915
 10
16.90403869617324
 20
6.716546738694859
 42
0.0
 10
17.83817363348913
 20
3.758452770527933
 42
0.3272098845218902
 10
18.08848908308681
 20
3.574999754611397
 42
0.0
 10
18.93793377289142
 20
3.574999754611397
 42
0.5069206636600335
 10
19.1882492224891
 20
3.916546738694901
 42
0.0
 10
18.02505353325227
 20
7.599999754611465
 42
0.0
 97
        0
 92
        7
 72
     1
 73
     1
 93
        8
 10
21.74610616483119
 20
11.3624997546114
 42
0.4142135623731546
 10
21.48360616483114
 20
11.62499975461139
 42
0.0
 10
20.60860616483125
 20
11.62499975461139
 42
0.4142135623731507
 10
20.34610616483121
 20
11.3624997546114
 42
0.0
 10
20.34610616483121
 20
3.837499754611391
 42
0.4142135623731526
 10
20.60860616483125
 20
3.574999754611397
 42
0.0
 10
21.48360616483114
 20
3.574999754611397
 42
0.4142135623731526
 10
21.74610616483119
 20
3.837499754611391
 42
0.0
 97
        0
 92
        7
 72
     1
 73
     1
 93
       24
 10
24.19610616483123
 20
9.9624997546114
 42
-0.4142135623731546
 10
24.45860616483128
 20
10.22499975461139
 42
0.0
 10
25.94610616483123
 20
10.22499975461139
 42
0.4142135623730911
 10
26.20860616483122
 20
10.48749975461139
 42
0.0
 10
26.20860616483122
 20
11.36249975461139
 42
0.4142135623730952
 10
25.94610616483123
 20
11.62499975461139
 42
0.0
 10
24.19610616483123
 20
11.62499975461139
 42
0.4142135623731048
 10
22.7961061648312
 20
10.22499975461141
 42
0.0
 10
22.7961061648312
 20
9.317398741933775
 42
0.1989123673796613
 10
23.41118192433947
 20
7.832474501442
 42
0.0
 10
24.86608091166181
 20
6.377575514119666
 42
-0.1989123673796402
 10
25.07110616483123
 20
5.88260076728913
 42
0.0
 10
25.07110616483123
 20
5.237499754611391
 42
-0.4142135623730911
 10
24.80860616483124
 20
4.974999754611395
 42
0.0
 10
23.32110616483123
 20
4.974999754611395
 42
0.4142135623731526
 10
23.05860616483119
 20
4.712499754611402
 42
0.0
 10
23.05860616483119
 20
3.837499754611391
 42
0.4142135623730891
 10
23.32110616483118
 20
3.574999754611397
 42
0.0
 10
25.07110616483123
 20
3.574999754611397
 42
0.4142135623730925
 10
26.47110616483121
 20
4.974999754611385
 42
0.0
 10
26.47110616483121
 20
5.882600767289021
 42
0.1989123673796675
 10
25.85603040532294
 20
7.367525007780848
 42
0.0
 10
24.40113141800066
 20
8.822423995103106
 42
-0.1989123673796652
 10
24.19610616483123
 20
9.31739874193369
 42
0.0
 97
        0
 92
        7
 72
     1
 73
     1
 93
       16
 10
28.9211061648312
 20
11.36249975461139
 42
0.414213562373103
 10
28.65860616483121
 20
11.62499975461139
 42
0.0
 10
27.78360616483121
 20
11.62499975461139
 42
0.4142135623730871
 10
27.52110616483122
 20
11.3624997546114
 42
0.0
 10
27.52110616483122
 20
4.974999754611385
 42
0.4142135623730926
 10
28.9211061648312
 20
3.574999754611397
 42
0.0
 10
30.6711061648312
 20
3.574999754611397
 42
0.4142135623731044
 10
32.07110616483123
 20
4.974999754611385
 42
0.0
 10
32.07110616483123
 20
11.36249975461139
 42
0.4142135623730951
 10
31.80860616483125
 20
11.62499975461139
 42
0.0
 10
30.93360616483119
 20
11.62499975461139
 42
0.4142135623730871
 10
30.6711061648312
 20
11.3624997546114
 42
0.0
 10
30.6711061648312
 20
5.499999754611383
 42
-0.414213562373088
 10
30.14610616483122
 20
4.974999754611395
 42
0.0
 10
29.44610616483123
 20
4.974999754611395
 42
-0.4142135623731197
 10
28.9211061648312
 20
5.499999754611383
 42
0.0
 97
        0
 92
        7
 72
     1
 73
     1
 93
        8
 10
34.52110616483122
 20
11.3624997546114
 42
0.4142135623730871
 10
34.25860616483123
 20
11.62499975461139
 42
0.0
 10
33.38360616483123
 20
11.62499975461139
 42
0.4142135623731507
 10
33.12110616483119
 20
11.3624997546114
 42
0.0
 10
33.12110616483119
 20
3.837499754611391
 42
0.4142135623730891
 10
33.38360616483118
 20
3.574999754611397
 42
0.0
 10
34.25860616483123
 20
3.574999754611397
 42
0.4142135623730891
 10
34.52110616483122
 20
3.837499754611391
 42
0.0
 97
        0
 75
     0
 76
     1
 52
0.0
 41
0.1
 77
     0
 78
     2
 53
45.0
 43
-450.4711520798988
 44
-6.600000245388571
 45
-0.2245064030267288
 46
0.2245064030267288
 79
     0
 53
135.0
 43
-450.4711520798988
 44
-6.600000245388571
 45
-0.2245064030267288
 46
-0.2245064030267288
 79
     0
 47
0.057451373970553
 98
        8
 10
8.039927568952293
 20
7.583586577554171
 10
11.20225759066022
 20
9.4220308458369
 10
12.58218403027046
 20
7.755940577646754
 10
15.4570300782592
 20
8.100648577832146
 10
20.919236096919
 20
8.330454711602953
 10
23.44910053500541
 20
9.709287912815
 10
28.27884307364081
 20
9.364578712158902
 10
33.913539897252
 20
9.59438484592971
  0
ARC
  5
7A1
330
1A
100
AcDbEntity
  8
ZUWAKU
100
AcDbCircle
 10
7.746106164831189
 20
9.317398741933747
 30
0.0
 40
2.099999999999999
100
AcDbArc
 50
180.0
 51
225.0
  0
LINE
  5
7A2
330
1A
100
AcDbEntity
  8
ZUWAKU
100
AcDbLine
 10
10.37110616483118
 20
5.674999754611398
 30
0.0
 11
10.37110616483118
 21
9.524999754611375
 31
0.0
  0
LINE
  5
7A3
330
1A
100
AcDbEntity
  8
ZUWAKU
100
AcDbLine
 10
11.77110616483122
 20
9.524999754611396
 30
0.0
 11
11.77110616483122
 21
5.674999754611398
 31
0.0
  0
ARC
  5
7A4
330
1A
100
AcDbEntity
  8
ZUWAKU
100
AcDbCircle
 10
7.746106164831189
 20
9.317398741933747
 30
0.0
 40
0.7
100
AcDbArc
 50
180.0000000000016
 51
224.9999999999988
  0
ARC
  5
7A5
330
1A
100
AcDbEntity
  8
ZUWAKU
100
AcDbCircle
 10
12.47110616483121
 20
5.674999754611398
 30
0.0
 40
2.099999999999999
100
AcDbArc
 50
180.0
 51
270.0
  0
ARC
  5
7A6
330
1A
100
AcDbEntity
  8
ZUWAKU
100
AcDbCircle
 10
7.921106164831201
 20
4.974999754611395
 30
0.0
 40
1.399999999999999
100
AcDbArc
 50
270.0
 51
0.0
  0
ARC
  5
7A7
330
1A
100
AcDbEntity
  8
ZUWAKU
100
AcDbCircle
 10
7.221106164831212
 20
5.882600767289048
 30
0.0
 40
2.099999999999999
100
AcDbArc
 50
0.0
 51
45.0
  0
LINE
  5
7A8
330
1A
100
AcDbEntity
  8
ZUWAKU
100
AcDbLine
 10
6.261181924339439
 20
7.832474501441986
 30
0.0
 11
7.716080911661777
 21
6.377575514119655
 31
0.0
  0
LINE
  5
7A9
330
1A
100
AcDbEntity
  8
ZUWAKU
100
AcDbLine
 10
6.171106164831201
 20
4.974999754611395
 30
0.0
 11
7.658606164831212
 21
4.974999754611395
 31
0.0
  0
LINE
  5
7AA
330
1A
100
AcDbEntity
  8
ZUWAKU
100
AcDbLine
 10
6.171106164831201
 20
3.574999754611397
 30
0.0
 11
7.921106164831201
 21
3.574999754611397
 31
0.0
  0
ARC
  5
7AB
330
1A
100
AcDbEntity
  8
ZUWAKU
100
AcDbCircle
 10
6.171106164831201
 20
4.712499754611396
 30
0.0
 40
0.2625
100
AcDbArc
 50
90.0
 51
180.0
  0
ARC
  5
7AC
330
1A
100
AcDbEntity
  8
ZUWAKU
100
AcDbCircle
 10
6.171106164831201
 20
3.837499754611396
 30
0.0
 40
0.2625
100
AcDbArc
 50
180.0
 51
270.0
  0
LINE
  5
7AD
330
1A
100
AcDbEntity
  8
ZUWAKU
100
AcDbLine
 10
5.908606164831212
 20
3.837499754611396
 30
0.0
 11
5.908606164831212
 21
4.712499754611396
 31
0.0
  0
ARC
  5
7AE
330
1A
100
AcDbEntity
  8
ZUWAKU
100
AcDbCircle
 10
7.221106164831212
 20
5.882600767289069
 30
0.0
 40
0.7
100
AcDbArc
 50
0.0
 51
45.0
  0
ARC
  5
7AF
330
1A
100
AcDbEntity
  8
ZUWAKU
100
AcDbCircle
 10
7.658606164831212
 20
5.237499754611398
 30
0.0
 40
0.2625
100
AcDbArc
 50
270.0
 51
0.0
  0
LINE
  5
7B0
330
1A
100
AcDbEntity
  8
ZUWAKU
100
AcDbLine
 10
7.921106164831201
 20
5.237499754611398
 30
0.0
 11
7.921106164831201
 21
5.882600767289069
 31
0.0
  0
LINE
  5
7B1
330
1A
100
AcDbEntity
  8
ZUWAKU
100
AcDbLine
 10
8.706030405322962
 20
7.367525007780809
 30
0.0
 11
7.251131418000625
 21
8.822423995103147
 31
0.0
  0
ARC
  5
7B2
330
1A
100
AcDbEntity
  8
ZUWAKU
100
AcDbCircle
 10
12.47110616483121
 20
5.674999754611398
 30
0.0
 40
0.7
100
AcDbArc
 50
180.0
 51
270.0
  0
LINE
  5
7B3
330
1A
100
AcDbEntity
  8
ZUWAKU
100
AcDbLine
 10
9.321106164831235
 20
4.974999754611395
 30
0.0
 11
9.321106164831235
 21
5.882600767289069
 31
0.0
  0
ARC
  5
7B4
330
1A
100
AcDbEntity
  8
ZUWAKU
100
AcDbCircle
 10
8.796106164831201
 20
10.48749975461139
 30
0.0
 40
0.2625
100
AcDbArc
 50
270.0
 51
0.0
  0
ARC
  5
7B5
330
1A
100
AcDbEntity
  8
ZUWAKU
100
AcDbCircle
 10
8.796106164831201
 20
11.36249975461139
 30
0.0
 40
0.2625
100
AcDbArc
 50
0.0
 51
90.0
  0
ARC
  5
7B6
330
1A
100
AcDbEntity
  8
ZUWAKU
100
AcDbCircle
 10
7.046106164831201
 20
10.22499975461139
 30
0.0
 40
1.399999999999999
100
AcDbArc
 50
90.0
 51
180.0
  0
LINE
  5
7B7
330
1A
100
AcDbEntity
  8
ZUWAKU
100
AcDbLine
 10
5.646106164831223
 20
10.22499975461139
 30
0.0
 11
5.646106164831223
 21
9.317398741933725
 31
0.0
  0
LINE
  5
7B8
330
1A
100
AcDbEntity
  8
ZUWAKU
100
AcDbLine
 10
8.796106164831201
 20
10.22499975461139
 30
0.0
 11
7.308606164831189
 21
10.22499975461139
 31
0.0
  0
LINE
  5
7B9
330
1A
100
AcDbEntity
  8
ZUWAKU
100
AcDbLine
 10
7.046106164831201
 20
9.962499754611396
 30
0.0
 11
7.046106164831201
 21
9.317398741933725
 31
0.0
  0
ARC
  5
7BA
330
1A
100
AcDbEntity
  8
ZUWAKU
100
AcDbCircle
 10
7.308606164831189
 20
9.962499754611396
 30
0.0
 40
0.2625
100
AcDbArc
 50
90.0
 51
180.0
  0
LINE
  5
7BB
330
1A
100
AcDbEntity
  8
ZUWAKU
100
AcDbLine
 10
7.046106164831201
 20
11.62499975461139
 30
0.0
 11
8.796106164831201
 21
11.62499975461139
 31
0.0
  0
ARC
  5
7BC
330
1A
100
AcDbEntity
  8
ZUWAKU
100
AcDbCircle
 10
12.47110616483121
 20
9.524999754611375
 30
0.0
 40
2.099999999999999
100
AcDbArc
 50
90.0
 51
180.0
  0
ARC
  5
7BD
330
1A
100
AcDbEntity
  8
ZUWAKU
100
AcDbCircle
 10
12.47110616483121
 20
9.524999754611396
 30
0.0
 40
0.7
100
AcDbArc
 50
90.0
 51
180.0
  0
LINE
  5
7BE
330
1A
100
AcDbEntity
  8
ZUWAKU
100
AcDbLine
 10
9.058606164831189
 20
11.36249975461139
 30
0.0
 11
9.058606164831189
 21
10.48749975461139
 31
0.0
  0
LINE
  5
7BF
330
1A
100
AcDbEntity
  8
ZUWAKU
100
AcDbLine
 10
17.83817363348913
 20
11.44154673869488
 30
0.0
 11
16.90403869617324
 21
8.483452770527911
 31
0.0
  0
LINE
  5
7C0
330
1A
100
AcDbEntity
  8
ZUWAKU
100
AcDbLine
 10
14.9211061648312
 20
11.36249975461139
 30
0.0
 11
14.9211061648312
 21
3.837499754611396
 31
0.0
  0
LINE
  5
7C1
330
1A
100
AcDbEntity
  8
ZUWAKU
100
AcDbLine
 10
16.32110616483123
 20
8.562499754611398
 30
0.0
 11
16.32110616483123
 21
11.36249975461139
 31
0.0
  0
LINE
  5
7C2
330
1A
100
AcDbEntity
  8
ZUWAKU
100
AcDbLine
 10
28.9211061648312
 20
5.499999754611394
 30
0.0
 11
28.9211061648312
 21
11.36249975461139
 31
0.0
  0
LINE
  5
7C3
330
1A
100
AcDbEntity
  8
ZUWAKU
100
AcDbLine
 10
27.52110616483122
 20
11.36249975461139
 30
0.0
 11
27.52110616483122
 21
4.974999754611395
 31
0.0
  0
LINE
  5
7C4
330
1A
100
AcDbEntity
  8
ZUWAKU
100
AcDbLine
 10
21.74610616483119
 20
3.837499754611396
 30
0.0
 11
21.74610616483119
 21
11.36249975461139
 31
0.0
  0
LINE
  5
7C5
330
1A
100
AcDbEntity
  8
ZUWAKU
100
AcDbLine
 10
20.34610616483121
 20
11.36249975461139
 30
0.0
 11
20.34610616483121
 21
3.837499754611396
 31
0.0
  0
LINE
  5
7C6
330
1A
100
AcDbEntity
  8
ZUWAKU
100
AcDbLine
 10
18.65742940592019
 20
9.602523351393109
 30
0.0
 11
18.02505353325227
 21
7.599999754611406
 31
0.0
  0
ARC
  5
7C7
330
1A
100
AcDbEntity
  8
ZUWAKU
100
AcDbCircle
 10
24.89610616483122
 20
9.317398741933747
 30
0.0
 40
2.099999999999999
100
AcDbArc
 50
180.0
 51
225.0
  0
ARC
  5
7C8
330
1A
100
AcDbEntity
  8
ZUWAKU
100
AcDbCircle
 10
24.89610616483122
 20
9.317398741933747
 30
0.0
 40
0.7
100
AcDbArc
 50
180.0000000000016
 51
224.9999999999988
  0
LINE
  5
7C9
330
1A
100
AcDbEntity
  8
ZUWAKU
100
AcDbLine
 10
33.12110616483119
 20
11.36249975461139
 30
0.0
 11
33.12110616483119
 21
3.837499754611396
 31
0.0
  0
LINE
  5
7CA
330
1A
100
AcDbEntity
  8
ZUWAKU
100
AcDbLine
 10
34.52110616483122
 20
3.837499754611396
 30
0.0
 11
34.52110616483122
 21
11.36249975461139
 31
0.0
  0
LINE
  5
7CB
330
1A
100
AcDbEntity
  8
ZUWAKU
100
AcDbLine
 10
30.6711061648312
 20
11.36249975461139
 30
0.0
 11
30.6711061648312
 21
5.499999754611394
 31
0.0
  0
LINE
  5
7CC
330
1A
100
AcDbEntity
  8
ZUWAKU
100
AcDbLine
 10
32.07110616483123
 20
4.974999754611395
 30
0.0
 11
32.07110616483123
 21
11.36249975461139
 31
0.0
  0
LINE
  5
7CD
330
1A
100
AcDbEntity
  8
ZUWAKU
100
AcDbLine
 10
39.56331486143483
 20
14.99999975461139
 30
0.0
 11
39.56331486143483
 21
0.3999997546114287
 31
0.0
  0
LINE
  5
7CE
330
1A
100
AcDbEntity
  8
ZUWAKU
100
AcDbLine
 10
39.76331486143476
 20
14.99999975461139
 30
0.0
 11
39.76331486143488
 21
0.3999997546114287
 31
0.0
  0
LINE
  5
7CF
330
1A
100
AcDbEntity
  8
ZUWAKU
100
AcDbLine
 10
39.66331486143474
 20
14.99999975461139
 30
0.0
 11
39.66331486143485
 21
0.3999997546114287
 31
0.0
  0
TEXT
  5
7D0
330
1A
100
AcDbEntity
  8
MOJI
100
AcDbText
 10
46.47889488152521
 20
6.370588819748775
 30
0.0
 40
3.0
  1
ライナートップ
 41
0.9
  7
ｽﾀｲﾙ1
100
AcDbText
  0
LINE
  5
7D1
330
1A
100
AcDbEntity
  8
ZUWAKU
100
AcDbLine
 10
28.9211061648312
 20
3.574999754611397
 30
0.0
 11
30.6711061648312
 21
3.574999754611397
 31
0.0
  0
LINE
  5
7D2
330
1A
100
AcDbEntity
  8
ZUWAKU
100
AcDbLine
 10
30.14610616483122
 20
4.974999754611395
 30
0.0
 11
29.44610616483123
 21
4.974999754611395
 31
0.0
  0
LINE
  5
7D3
330
1A
100
AcDbEntity
  8
ZUWAKU
100
AcDbLine
 10
20.6086061648312
 20
3.574999754611397
 30
0.0
 11
21.4836061648312
 21
3.574999754611397
 31
0.0
  0
LINE
  5
7D4
330
1A
100
AcDbEntity
  8
ZUWAKU
100
AcDbLine
 10
17.83817363348913
 20
3.75845277052791
 30
0.0
 11
16.90403869617324
 21
6.71654673869488
 31
0.0
  0
ARC
  5
7D5
330
1A
100
AcDbEntity
  8
ZUWAKU
100
AcDbCircle
 10
16.58360616483122
 20
6.637499754611397
 30
0.0
 40
0.2625
100
AcDbArc
 50
90.0
 51
180.0
  0
ARC
  5
7D6
330
1A
100
AcDbEntity
  8
ZUWAKU
100
AcDbCircle
 10
16.65372324657556
 20
6.637499754611397
 30
0.0
 40
0.2625
100
AcDbArc
 50
17.52556837372303
 51
90.0
  0
ARC
  5
7D7
330
1A
100
AcDbEntity
  8
ZUWAKU
100
AcDbCircle
 10
15.18360616483119
 20
3.837499754611396
 30
0.0
 40
0.2625
100
AcDbArc
 50
180.0
 51
270.0
  0
ARC
  5
7D8
330
1A
100
AcDbEntity
  8
ZUWAKU
100
AcDbCircle
 10
13.43360616483119
 20
4.712499754611396
 30
0.0
 40
0.2625
100
AcDbArc
 50
0.0
 51
90.0
  0
ARC
  5
7D9
330
1A
100
AcDbEntity
  8
ZUWAKU
100
AcDbCircle
 10
13.43360616483119
 20
3.837499754611396
 30
0.0
 40
0.2625
100
AcDbArc
 50
270.0
 51
0.0
  0
LINE
  5
7DA
330
1A
100
AcDbEntity
  8
ZUWAKU
100
AcDbLine
 10
13.69610616483123
 20
4.712499754611396
 30
0.0
 11
13.69610616483123
 21
3.837499754611396
 31
0.0
  0
LINE
  5
7DB
330
1A
100
AcDbEntity
  8
ZUWAKU
100
AcDbLine
 10
16.32110616483123
 20
3.837499754611396
 30
0.0
 11
16.32110616483123
 21
6.637499754611397
 31
0.0
  0
ARC
  5
7DC
330
1A
100
AcDbEntity
  8
ZUWAKU
100
AcDbCircle
 10
16.05860616483119
 20
3.837499754611396
 30
0.0
 40
0.2625
100
AcDbArc
 50
270.0
 51
0.0
  0
LINE
  5
7DD
330
1A
100
AcDbEntity
  8
ZUWAKU
100
AcDbLine
 10
15.18360616483119
 20
3.574999754611397
 30
0.0
 11
16.05860616483119
 21
3.574999754611397
 31
0.0
  0
ARC
  5
7DE
330
1A
100
AcDbEntity
  8
ZUWAKU
100
AcDbCircle
 10
16.58360616483122
 20
8.562499754611398
 30
0.0
 40
0.2625
100
AcDbArc
 50
180.0
 51
270.0
  0
LINE
  5
7DF
330
1A
100
AcDbEntity
  8
ZUWAKU
100
AcDbLine
 10
16.58360616483122
 20
6.899999754611396
 30
0.0
 11
16.65372324657556
 21
6.899999754611396
 31
0.0
  0
LINE
  5
7E0
330
1A
100
AcDbEntity
  8
ZUWAKU
100
AcDbLine
 10
16.65372324657556
 20
8.299999754611395
 30
0.0
 11
16.58360616483122
 21
8.299999754611395
 31
0.0
  0
ARC
  5
7E1
330
1A
100
AcDbEntity
  8
ZUWAKU
100
AcDbCircle
 10
16.65372324657556
 20
8.562499754611398
 30
0.0
 40
0.2625
100
AcDbArc
 50
270.0
 51
342.4744316262769
  0
ARC
  5
7E2
330
1A
100
AcDbEntity
  8
ZUWAKU
100
AcDbCircle
 10
18.08848908308687
 20
3.837499754611396
 30
0.0
 40
0.2625
100
AcDbArc
 50
197.525568373723
 51
270.0
  0
LINE
  5
7E3
330
1A
100
AcDbEntity
  8
ZUWAKU
100
AcDbLine
 10
19.1882492224891
 20
3.916546738694883
 30
0.0
 11
18.02505353325227
 21
7.599999754611406
 31
0.0
  0
ARC
  5
7E4
330
1A
100
AcDbEntity
  8
ZUWAKU
100
AcDbCircle
 10
18.93793377289137
 20
3.837499754611396
 30
0.0
 40
0.2625
100
AcDbArc
 50
270.0
 51
17.52556837372303
  0
LINE
  5
7E5
330
1A
100
AcDbEntity
  8
ZUWAKU
100
AcDbLine
 10
18.08848908308687
 20
3.574999754611397
 30
0.0
 11
18.93793377289137
 21
3.574999754611397
 31
0.0
  0
ARC
  5
7E6
330
1A
100
AcDbEntity
  8
ZUWAKU
100
AcDbCircle
 10
20.6086061648312
 20
3.837499754611396
 30
0.0
 40
0.2625
100
AcDbArc
 50
180.0
 51
270.0
  0
ARC
  5
7E7
330
1A
100
AcDbEntity
  8
ZUWAKU
100
AcDbCircle
 10
25.07110616483123
 20
4.974999754611395
 30
0.0
 40
1.399999999999999
100
AcDbArc
 50
270.0
 51
0.0
  0
ARC
  5
7E8
330
1A
100
AcDbEntity
  8
ZUWAKU
100
AcDbCircle
 10
28.9211061648312
 20
4.974999754611395
 30
0.0
 40
1.399999999999999
100
AcDbArc
 50
180.0
 51
270.0
  0
LINE
  5
7E9
330
1A
100
AcDbEntity
  8
ZUWAKU
100
AcDbLine
 10
25.856030405323
 20
7.367525007780809
 30
0.0
 11
24.4011314180006
 21
8.822423995103147
 31
0.0
  0
LINE
  5
7EA
330
1A
100
AcDbEntity
  8
ZUWAKU
100
AcDbLine
 10
23.41118192433947
 20
7.832474501441986
 30
0.0
 11
24.86608091166181
 21
6.377575514119655
 31
0.0
  0
LINE
  5
7EB
330
1A
100
AcDbEntity
  8
ZUWAKU
100
AcDbLine
 10
23.32110616483123
 20
3.574999754611397
 30
0.0
 11
25.07110616483123
 21
3.574999754611397
 31
0.0
  0
LINE
  5
7EC
330
1A
100
AcDbEntity
  8
ZUWAKU
100
AcDbLine
 10
23.32110616483123
 20
4.974999754611395
 30
0.0
 11
24.80860616483119
 21
4.974999754611395
 31
0.0
  0
ARC
  5
7ED
330
1A
100
AcDbEntity
  8
ZUWAKU
100
AcDbCircle
 10
23.32110616483123
 20
4.712499754611396
 30
0.0
 40
0.2625
100
AcDbArc
 50
90.0
 51
180.0
  0
ARC
  5
7EE
330
1A
100
AcDbEntity
  8
ZUWAKU
100
AcDbCircle
 10
21.4836061648312
 20
3.837499754611396
 30
0.0
 40
0.2625
100
AcDbArc
 50
270.0
 51
0.0
  0
ARC
  5
7EF
330
1A
100
AcDbEntity
  8
ZUWAKU
100
AcDbCircle
 10
23.32110616483123
 20
3.837499754611396
 30
0.0
 40
0.2625
100
AcDbArc
 50
180.0
 51
270.0
  0
LINE
  5
7F0
330
1A
100
AcDbEntity
  8
ZUWAKU
100
AcDbLine
 10
23.05860616483119
 20
3.837499754611396
 30
0.0
 11
23.05860616483119
 21
4.712499754611396
 31
0.0
  0
ARC
  5
7F1
330
1A
100
AcDbEntity
  8
ZUWAKU
100
AcDbCircle
 10
24.80860616483119
 20
5.237499754611398
 30
0.0
 40
0.2625
100
AcDbArc
 50
270.0
 51
0.0
  0
ARC
  5
7F2
330
1A
100
AcDbEntity
  8
ZUWAKU
100
AcDbCircle
 10
24.37110616483119
 20
5.882600767289069
 30
0.0
 40
0.7
100
AcDbArc
 50
0.0
 51
45.0
  0
LINE
  5
7F3
330
1A
100
AcDbEntity
  8
ZUWAKU
100
AcDbLine
 10
25.07110616483123
 20
5.237499754611398
 30
0.0
 11
25.07110616483123
 21
5.882600767289069
 31
0.0
  0
ARC
  5
7F4
330
1A
100
AcDbEntity
  8
ZUWAKU
100
AcDbCircle
 10
29.44610616483123
 20
5.499999754611394
 30
0.0
 40
0.525
100
AcDbArc
 50
180.0
 51
270.0
  0
ARC
  5
7F5
330
1A
100
AcDbEntity
  8
ZUWAKU
100
AcDbCircle
 10
24.37110616483119
 20
5.882600767289048
 30
0.0
 40
2.099999999999999
100
AcDbArc
 50
0.0
 51
45.0
  0
LINE
  5
7F6
330
1A
100
AcDbEntity
  8
ZUWAKU
100
AcDbLine
 10
26.47110616483121
 20
4.974999754611395
 30
0.0
 11
26.47110616483121
 21
5.882600767289069
 31
0.0
  0
ARC
  5
7F7
330
1A
100
AcDbEntity
  8
ZUWAKU
100
AcDbCircle
 10
30.6711061648312
 20
4.974999754611395
 30
0.0
 40
1.399999999999999
100
AcDbArc
 50
270.0
 51
0.0
  0
LINE
  5
7F8
330
1A
100
AcDbEntity
  8
ZUWAKU
100
AcDbLine
 10
33.38360616483123
 20
3.574999754611397
 30
0.0
 11
34.25860616483123
 21
3.574999754611397
 31
0.0
  0
ARC
  5
7F9
330
1A
100
AcDbEntity
  8
ZUWAKU
100
AcDbCircle
 10
30.14610616483122
 20
5.499999754611394
 30
0.0
 40
0.525
100
AcDbArc
 50
270.0
 51
0.0
  0
ARC
  5
7FA
330
1A
100
AcDbEntity
  8
ZUWAKU
100
AcDbCircle
 10
33.38360616483123
 20
3.837499754611396
 30
0.0
 40
0.2625
100
AcDbArc
 50
180.0
 51
270.0
  0
ARC
  5
7FB
330
1A
100
AcDbEntity
  8
ZUWAKU
100
AcDbCircle
 10
34.25860616483123
 20
3.837499754611396
 30
0.0
 40
0.2625
100
AcDbArc
 50
270.0
 51
0.0
  0
LINE
  5
7FC
330
1A
100
AcDbEntity
  8
ZUWAKU
100
AcDbLine
 10
21.4836061648312
 20
11.62499975461139
 30
0.0
 11
20.6086061648312
 21
11.62499975461139
 31
0.0
  0
LINE
  5
7FD
330
1A
100
AcDbEntity
  8
ZUWAKU
100
AcDbLine
 10
13.69610616483123
 20
11.36249975461139
 30
0.0
 11
13.69610616483123
 21
10.48749975461139
 31
0.0
  0
ARC
  5
7FE
330
1A
100
AcDbEntity
  8
ZUWAKU
100
AcDbCircle
 10
13.43360616483119
 20
10.48749975461139
 30
0.0
 40
0.2625
100
AcDbArc
 50
270.0
 51
0.0
  0
ARC
  5
7FF
330
1A
100
AcDbEntity
  8
ZUWAKU
100
AcDbCircle
 10
15.18360616483119
 20
11.36249975461139
 30
0.0
 40
0.2625
100
AcDbArc
 50
90.0
 51
180.0
  0
ARC
  5
800
330
1A
100
AcDbEntity
  8
ZUWAKU
100
AcDbCircle
 10
13.43360616483119
 20
11.36249975461139
 30
0.0
 40
0.2625
100
AcDbArc
 50
0.0
 51
90.0
  0
LINE
  5
801
330
1A
100
AcDbEntity
  8
ZUWAKU
100
AcDbLine
 10
16.05860616483119
 20
11.62499975461139
 30
0.0
 11
15.18360616483119
 21
11.62499975461139
 31
0.0
  0
ARC
  5
802
330
1A
100
AcDbEntity
  8
ZUWAKU
100
AcDbCircle
 10
16.05860616483119
 20
11.36249975461139
 30
0.0
 40
0.2625
100
AcDbArc
 50
0.0
 51
90.0
  0
ARC
  5
803
330
1A
100
AcDbEntity
  8
ZUWAKU
100
AcDbCircle
 10
18.08848908308687
 20
11.36249975461139
 30
0.0
 40
0.2625
100
AcDbArc
 50
90.0
 51
162.4744316262769
  0
LINE
  5
804
330
1A
100
AcDbEntity
  8
ZUWAKU
100
AcDbLine
 10
19.1882492224891
 20
11.28345277052791
 30
0.0
 11
18.65742940592019
 21
9.602523351393109
 31
0.0
  0
ARC
  5
805
330
1A
100
AcDbEntity
  8
ZUWAKU
100
AcDbCircle
 10
18.93793377289137
 20
11.36249975461139
 30
0.0
 40
0.2625
100
AcDbArc
 50
342.4744316262769
 51
90.0
  0
LINE
  5
806
330
1A
100
AcDbEntity
  8
ZUWAKU
100
AcDbLine
 10
18.08848908308687
 20
11.62499975461139
 30
0.0
 11
18.93793377289137
 21
11.62499975461139
 31
0.0
  0
ARC
  5
807
330
1A
100
AcDbEntity
  8
ZUWAKU
100
AcDbCircle
 10
20.6086061648312
 20
11.36249975461139
 30
0.0
 40
0.2625
100
AcDbArc
 50
90.0
 51
180.0
  0
LINE
  5
808
330
1A
100
AcDbEntity
  8
ZUWAKU
100
AcDbLine
 10
25.94610616483123
 20
10.22499975461139
 30
0.0
 11
24.45860616483122
 21
10.22499975461139
 31
0.0
  0
LINE
  5
809
330
1A
100
AcDbEntity
  8
ZUWAKU
100
AcDbLine
 10
24.19610616483123
 20
11.62499975461139
 30
0.0
 11
25.94610616483123
 21
11.62499975461139
 31
0.0
  0
ARC
  5
80A
330
1A
100
AcDbEntity
  8
ZUWAKU
100
AcDbCircle
 10
24.19610616483123
 20
10.22499975461139
 30
0.0
 40
1.399999999999999
100
AcDbArc
 50
90.0
 51
180.0
  0
LINE
  5
80B
330
1A
100
AcDbEntity
  8
ZUWAKU
100
AcDbLine
 10
22.7961061648312
 20
10.22499975461139
 30
0.0
 11
22.7961061648312
 21
9.317398741933725
 31
0.0
  0
ARC
  5
80C
330
1A
100
AcDbEntity
  8
ZUWAKU
100
AcDbCircle
 10
21.4836061648312
 20
11.36249975461139
 30
0.0
 40
0.2625
100
AcDbArc
 50
0.0
 51
90.0
  0
LINE
  5
80D
330
1A
100
AcDbEntity
  8
ZUWAKU
100
AcDbLine
 10
24.19610616483123
 20
9.962499754611396
 30
0.0
 11
24.19610616483123
 21
9.317398741933725
 31
0.0
  0
ARC
  5
80E
330
1A
100
AcDbEntity
  8
ZUWAKU
100
AcDbCircle
 10
24.45860616483122
 20
9.962499754611396
 30
0.0
 40
0.2625
100
AcDbArc
 50
90.0
 51
180.0
  0
LINE
  5
80F
330
1A
100
AcDbEntity
  8
ZUWAKU
100
AcDbLine
 10
26.20860616483122
 20
11.36249975461139
 30
0.0
 11
26.20860616483122
 21
10.48749975461139
 31
0.0
  0
ARC
  5
810
330
1A
100
AcDbEntity
  8
ZUWAKU
100
AcDbCircle
 10
25.94610616483123
 20
10.48749975461139
 30
0.0
 40
0.2625
100
AcDbArc
 50
270.0
 51
0.0
  0
ARC
  5
811
330
1A
100
AcDbEntity
  8
ZUWAKU
100
AcDbCircle
 10
25.94610616483123
 20
11.36249975461139
 30
0.0
 40
0.2625
100
AcDbArc
 50
0.0
 51
90.0
  0
LINE
  5
812
330
1A
100
AcDbEntity
  8
ZUWAKU
100
AcDbLine
 10
28.65860616483121
 20
11.62499975461139
 30
0.0
 11
27.78360616483121
 21
11.62499975461139
 31
0.0
  0
ARC
  5
813
330
1A
100
AcDbEntity
  8
ZUWAKU
100
AcDbCircle
 10
27.78360616483121
 20
11.36249975461139
 30
0.0
 40
0.2625
100
AcDbArc
 50
90.0
 51
180.0
  0
ARC
  5
814
330
1A
100
AcDbEntity
  8
ZUWAKU
100
AcDbCircle
 10
28.65860616483121
 20
11.36249975461139
 30
0.0
 40
0.2625
100
AcDbArc
 50
0.0
 51
90.0
  0
LINE
  5
815
330
1A
100
AcDbEntity
  8
ZUWAKU
100
AcDbLine
 10
34.25860616483123
 20
11.62499975461139
 30
0.0
 11
33.38360616483123
 21
11.62499975461139
 31
0.0
  0
ARC
  5
816
330
1A
100
AcDbEntity
  8
ZUWAKU
100
AcDbCircle
 10
30.93360616483119
 20
11.36249975461139
 30
0.0
 40
0.2625
100
AcDbArc
 50
90.0
 51
180.0
  0
LINE
  5
817
330
1A
100
AcDbEntity
  8
ZUWAKU
100
AcDbLine
 10
31.80860616483119
 20
11.62499975461139
 30
0.0
 11
30.93360616483119
 21
11.62499975461139
 31
0.0
  0
ARC
  5
818
330
1A
100
AcDbEntity
  8
ZUWAKU
100
AcDbCircle
 10
31.80860616483119
 20
11.36249975461139
 30
0.0
 40
0.2625
100
AcDbArc
 50
0.0
 51
90.0
  0
ARC
  5
819
330
1A
100
AcDbEntity
  8
ZUWAKU
100
AcDbCircle
 10
33.38360616483123
 20
11.36249975461139
 30
0.0
 40
0.2625
100
AcDbArc
 50
90.0
 51
180.0
  0
ARC
  5
81A
330
1A
100
AcDbEntity
  8
ZUWAKU
100
AcDbCircle
 10
34.25860616483123
 20
11.36249975461139
 30
0.0
 40
0.2625
100
AcDbArc
 50
0.0
 51
90.0
  0
TEXT
  5
81B
330
1A
100
AcDbEntity
  8
MOJI
100
AcDbText
 10
119.9136014278661
 20
1.602460283315105
 30
0.0
 40
2.799999999999999
  1
Ｘ４０－４寸－４５m/m（１.５寸）
 41
0.9
  7
ｽﾀｲﾙ1
100
AcDbText
  0
TEXT
  5
81C
330
1A
100
AcDbEntity
  8
MOJI
100
AcDbText
 10
119.9136014278661
 20
9.002460283315087
 30
0.0
 40
2.799999999999999
  1
ステンレス金具正面打（吊）固定式
 41
0.9
  7
ｽﾀｲﾙ1
100
AcDbText
  0
LINE
  5
81D
330
1A
100
AcDbEntity
  8
ZUWAKU
100
AcDbLine
 10
104.2233007324745
 20
14.99999975461139
 30
0.0
 11
104.2233007324746
 21
0.3999997546114287
 31
0.0
  0
LINE
  5
81E
330
1A
100
AcDbEntity
  8
ZUWAKU
100
AcDbLine
 10
104.3233007324745
 20
14.99999975461139
 30
0.0
 11
104.3233007324746
 21
0.3999997546114287
 31
0.0
  0
LINE
  5
81F
330
1A
100
AcDbEntity
  8
ZUWAKU
100
AcDbLine
 10
104.1233007324745
 20
14.99999975461139
 30
0.0
 11
104.1233007324745
 21
0.3999997546114287
 31
0.0
  0
TEXT
  5
820
330
1A
100
AcDbEntity
  8
ZUWAKU
100
AcDbText
 10
104.8620232435794
 20
4.827678023804203
 30
0.0
 40
2.0
  1
サイズ
 41
0.9
  7
ｽﾀｲﾙ1
100
AcDbText
  0
TEXT
  5
821
330
1A
100
AcDbEntity
  8
ZUWAKU
100
AcDbText
 10
104.8620232435792
 20
12.02767802380418
 30
0.0
 40
2.0
  1
品名
 41
0.9
  7
ｽﾀｲﾙ1
100
AcDbText
  0
TEXT
  5
822
330
1A
100
AcDbEntity
  8
ZUWAKU
100
AcDbText
 10
329.1019689310918
 20
9.002460283315087
 30
0.0
 40
2.799999999999999
  1
　　．　　．　　
 41
0.9
  7
ｽﾀｲﾙ1
100
AcDbText
  0
LINE
  5
823
330
1A
100
AcDbEntity
  8
ZUWAKU
100
AcDbLine
 10
324.4086013425427
 20
7.799999754611411
 30
0.0
 11
348.6245053617112
 21
7.799999754611411
 31
0.0
  0
LINE
  5
824
330
1A
100
AcDbEntity
  8
ZUWAKU
100
AcDbLine
 10
324.4086013425428
 20
7.699999754611413
 30
0.0
 11
348.6245053617112
 21
7.699999754611411
 31
0.0
  0
LINE
  5
825
330
1A
100
AcDbEntity
  8
ZUWAKU
100
AcDbLine
 10
324.4086013425427
 20
7.59999975461141
 30
0.0
 11
348.6245053617112
 21
7.599999754611411
 31
0.0
  0
LINE
  5
826
330
1A
100
AcDbEntity
  8
ZUWAKU
100
AcDbLine
 10
252.599589836511
 20
7.799999754611411
 30
0.0
 11
276.2634779704968
 21
7.799999754611411
 31
0.0
  0
LINE
  5
827
330
1A
100
AcDbEntity
  8
ZUWAKU
100
AcDbLine
 10
252.599589836511
 20
7.699999754611411
 30
0.0
 11
276.2634779704968
 21
7.699999754611411
 31
0.0
  0
LINE
  5
828
330
1A
100
AcDbEntity
  8
ZUWAKU
100
AcDbLine
 10
252.599589836511
 20
7.599999754611413
 30
0.0
 11
276.2634779704968
 21
7.599999754611413
 31
0.0
  0
LINE
  5
829
330
1A
100
AcDbEntity
  8
ZUWAKU
100
AcDbLine
 10
252.3995898365111
 20
14.99999975461139
 30
0.0
 11
252.3995898365111
 21
0.3999997546114287
 31
0.0
  0
LINE
  5
82A
330
1A
100
AcDbEntity
  8
ZUWAKU
100
AcDbLine
 10
252.599589836511
 20
14.99999975461139
 30
0.0
 11
252.5995898365112
 21
0.3999997546114287
 31
0.0
  0
LINE
  5
82B
330
1A
100
AcDbEntity
  8
ZUWAKU
100
AcDbLine
 10
252.499589836511
 20
14.99999975461139
 30
0.0
 11
252.4995898365111
 21
0.3999997546114287
 31
0.0
  0
TEXT
  5
82C
330
1A
100
AcDbEntity
  8
MOJI
100
AcDbText
 10
264.020454073597
 20
9.002460283315087
 30
0.0
 40
2.799999999999999
  1
Ａ３
 41
0.9
  7
ｽﾀｲﾙ1
100
AcDbText
  0
LINE
  5
82D
330
1A
100
AcDbEntity
  8
ZUWAKU
100
AcDbLine
 10
223.7121820729363
 20
14.99999975461139
 30
0.0
 11
223.7121820729363
 21
0.3999997546114287
 31
0.0
  0
LINE
  5
82E
330
1A
100
AcDbEntity
  8
ZUWAKU
100
AcDbLine
 10
223.9121820729362
 20
14.99999975461139
 30
0.0
 11
223.9121820729363
 21
0.3999997546114287
 31
0.0
  0
LINE
  5
82F
330
1A
100
AcDbEntity
  8
ZUWAKU
100
AcDbLine
 10
223.8121820729362
 20
14.99999975461139
 30
0.0
 11
223.8121820729363
 21
0.3999997546114287
 31
0.0
  0
TEXT
  5
830
330
1A
100
AcDbEntity
  8
MOJI
100
AcDbText
 10
231.2836392484349
 20
5.971308615441387
 30
0.0
 40
2.799999999999999
  1
ＬＤ２０Ｇ
 41
0.9
  7
ｽﾀｲﾙ1
100
AcDbText
  0
TEXT
  5
831
330
1A
100
AcDbEntity
  8
ZUWAKU
100
AcDbText
 10
253.338312347616
 20
4.827678023804203
 30
0.0
 40
2.0
  1
縮尺
 41
0.9
  7
ｽﾀｲﾙ1
100
AcDbText
  0
TEXT
  5
832
330
1A
100
AcDbEntity
  8
MOJI
100
AcDbText
 10
264.020454073597
 20
1.602460283315105
 30
0.0
 40
2.799999999999999
  1
１/１
 41
0.9
  7
ｽﾀｲﾙ1
100
AcDbText
  0
TEXT
  5
833
330
1A
100
AcDbEntity
  8
ZUWAKU
100
AcDbText
 10
224.6509045840411
 20
12.02767802380418
 30
0.0
 40
2.0
  1
品番
 41
0.9
  7
ｽﾀｲﾙ1
100
AcDbText
  0
TEXT
  5
834
330
1A
100
AcDbEntity
  8
ZUWAKU
100
AcDbText
 10
253.3383123476159
 20
12.02767802380418
 30
0.0
 40
2.0
  1
用紙
 41
0.9
  7
ｽﾀｲﾙ1
100
AcDbText
  0
LINE
  5
835
330
1A
100
AcDbEntity
  8
ZUWAKU
100
AcDbLine
 10
276.2634779704968
 20
14.99999975461139
 30
0.0
 11
276.2634779704968
 21
0.3999997546114287
 31
0.0
  0
LINE
  5
836
330
1A
100
AcDbEntity
  8
ZUWAKU
100
AcDbLine
 10
276.4634779704968
 20
14.99999975461139
 30
0.0
 11
276.4634779704969
 21
0.3999997546114287
 31
0.0
  0
LINE
  5
837
330
1A
100
AcDbEntity
  8
ZUWAKU
100
AcDbLine
 10
276.3634779704967
 20
14.99999975461139
 30
0.0
 11
276.3634779704968
 21
0.3999997546114287
 31
0.0
  0
LINE
  5
838
330
1A
100
AcDbEntity
  8
ZUWAKU
100
AcDbLine
 10
324.2086013425429
 20
14.99999975461139
 30
0.0
 11
324.2086013425429
 21
0.3999997546114287
 31
0.0
  0
LINE
  5
839
330
1A
100
AcDbEntity
  8
ZUWAKU
100
AcDbLine
 10
324.4086013425428
 20
14.99999975461139
 30
0.0
 11
324.4086013425429
 21
0.3999997546114287
 31
0.0
  0
LINE
  5
83A
330
1A
100
AcDbEntity
  8
ZUWAKU
100
AcDbLine
 10
324.3086013425428
 20
14.99999975461139
 30
0.0
 11
324.3086013425429
 21
0.3999997546114287
 31
0.0
  0
TEXT
  5
83B
330
1A
100
AcDbEntity
  8
ZUWAKU
100
AcDbText
 10
325.1473238536476
 20
12.02767802380418
 30
0.0
 40
2.0
  1
DATE
 41
0.9
  7
ｽﾀｲﾙ1
100
AcDbText
  0
TEXT
  5
83C
330
1A
100
AcDbEntity
  8
ZUWAKU
100
AcDbText
 10
354.2640421835625
 20
8.776919422454795
 30
0.0
 40
3.0
  1
積水化学工業株式会社
 41
0.9
  7
ｽﾀｲﾙ1
100
AcDbText
  0
LINE
  5
83D
330
1A
100
AcDbEntity
  8
ZUWAKU
100
AcDbLine
 10
348.9245053617112
 20
14.99999975461139
 30
0.0
 11
348.9245053617113
 21
0.3999997546114287
 31
0.0
  0
LINE
  5
83E
330
1A
100
AcDbEntity
  8
ZUWAKU
100
AcDbLine
 10
348.8245053617112
 20
14.99999975461139
 30
0.0
 11
348.8245053617113
 21
0.3999997546114287
 31
0.0
  0
LINE
  5
83F
330
1A
100
AcDbEntity
  8
ZUWAKU
100
AcDbLine
 10
348.7245053617113
 20
14.99999975461139
 30
0.0
 11
348.7245053617113
 21
0.3999997546114287
 31
0.0
  0
LINE
  5
840
330
1A
100
AcDbEntity
  8
ZUWAKU
100
AcDbLine
 10
348.6245053617112
 20
14.99999975461139
 30
0.0
 11
348.6245053617112
 21
0.3999997546114287
 31
0.0
  0
TEXT
  5
841
330
1A
100
AcDbEntity
  8
ZUWAKU
100
AcDbText
 10
354.2640421835625
 20
3.324419911538427
 30
0.0
 40
3.0
  1
建材事業部
 41
0.9
  7
ｽﾀｲﾙ1
100
AcDbText
  0
LINE
  5
848
330
1A
100
AcDbEntity
  8
SEIHIN
  6
CONTINUOUS
 62
     3
 48
16.0
100
AcDbLine
 10
228.3903838576785
 20
94.54167486929181
 30
0.0
 11
233.9527309567285
 21
80.63474535090138
 31
0.0
  0
VIEWPORT
  5
22
330
17
100
AcDbEntity
 67
     1
  8
0
100
AcDbViewport
 10
313.6808219178082
 20
148.5
 30
0.0
 40
627.3616438356165
 41
297.0
 68
     2
 69
     1
1001
ACAD
1000
MVIEW
1002
{
1070
    16
1010
0.0
1020
0.0
1030
0.0
1010
0.0
1020
0.0
1030
1.0
1040
0.0
1040
297.0
1040
313.6808219178082
1040
148.5
1040
50.0
1040
0.0
1040
0.0
1070
     0
1070
   100
1070
     1
1070
     0
1070
     0
1070
     0
1070
     0
1070
     0
1040
0.0
1040
0.0
1040
0.0
1040
1.0
1040
1.0
1040
10.0
1040
10.0
1070
     0
1002
{
1002
}
1002
}
  0
VIEWPORT
  5
64
330
17
100
AcDbEntity
 67
     1
  8
VIEWPORT
100
AcDbViewport
 10
210.0
 20
148.5
 30
0.0
 40
420.0
 41
297.0
 68
     1
 69
     2
1001
ACAD
1000
MVIEW
1002
{
1070
    16
1010
0.0
1020
0.0
1030
0.0
1010
0.0
1020
0.0
1030
1.0
1040
0.0
1040
302.9399999999998
1040
210.0
1040
148.5
1040
50.0
1040
0.0
1040
0.0
1070
     0
1070
   100
1070
     1
1070
     0
1070
     0
1070
     0
1070
     0
1070
     0
1040
0.0
1040
0.0
1040
0.0
1040
5.0
1040
5.0
1040
0.0
1040
0.0
1070
     0
1002
{
1002
}
1002
}
  0
ENDSEC
  0
SECTION
  2
OBJECTS
  0
DICTIONARY
  5
C
330
0
100
AcDbDictionary
  3
ACAD_GROUP
350
D
  3
ACAD_LAYOUT
350
65E
  3
ACAD_MLINESTYLE
350
E
  3
ACAD_PLOTSETTINGS
350
65F
  3
ACAD_PLOTSTYLENAME
350
65C
  3
ACDBHEADERROUNDTRIPXREC
350
856
  0
DICTIONARY
  5
68F
330
1A
100
AcDbDictionary
280
     1
  3
ACAD_LAYOUTSELFREF
360
878
  0
DICTIONARY
  5
68D
330
17
100
AcDbDictionary
280
     1
  3
ACAD_LAYOUTSELFREF
360
877
  0
DICTIONARY
  5
D
102
{ACAD_REACTORS
330
C
102
}
330
C
100
AcDbDictionary
  0
DICTIONARY
  5
65E
102
{ACAD_REACTORS
330
C
102
}
330
C
100
AcDbDictionary
  0
DICTIONARY
  5
E
102
{ACAD_REACTORS
330
C
102
}
330
C
100
AcDbDictionary
  3
STANDARD
350
13
  0
DICTIONARY
  5
65F
102
{ACAD_REACTORS
330
C
102
}
330
C
100
AcDbDictionary
  0
ACDBDICTIONARYWDFLT
  5
65C
102
{ACAD_REACTORS
330
C
102
}
330
C
100
AcDbDictionary
281
     1
  3
Normal
350
65D
100
AcDbDictionaryWithDefault
340
65D
1001
ACAD
1000
TREAT_AS_HARD
1070
     0
1000
TREAT_AS_HARD
1070
     0
  0
DICTIONARY
  5
856
102
{ACAD_REACTORS
330
C
102
}
330
C
100
AcDbDictionary
  3
TSTACKALIGN
350
857
  3
TSTACKSIZE
350
858
  3
HYPERLINKBASE
350
859
  3
STYLESHEET
350
85A
  3
LAYOUTDICT
350
85B
  3
PLOTSETDICT
350
85C
  3
PLOTSTYLNAMDICT
350
85D
  3
LWETCUNION
350
85E
  3
INSUNITS
350
85F
  3
CEPSNTYPE
350
860
  3
FINGERPRINTGUID
350
861
  3
VERSIONGUID
350
862
  3
PSVPSCALE
350
863
  3
DIMSTYLEDATA
350
864
  3
PUCSORTHOREF
350
865
  3
PUCSORTHOVIEW
350
866
  3
PUCSBASE
350
867
  3
PUCSORGTOP
350
868
  3
PUCSORGBOTTOM
350
869
  3
PUCSORGLEFT
350
86A
  3
PUCSORGRIGHT
350
86B
  3
PUCSORGFRONT
350
86C
  3
PUCSORGBACK
350
86D
  3
UCSORTHOREF
350
86E
  3
UCSORTHOVIEW
350
86F
  3
UCSBASE
350
870
  3
UCSORGTOP
350
871
  3
UCSORGBOTTOM
350
872
  3
UCSORGLEFT
350
873
  3
UCSORGRIGHT
350
874
  3
UCSORGFRONT
350
875
  3
UCSORGBACK
350
876
  0
XRECORD
  5
878
102
{ACAD_REACTORS
330
68F
102
}
330
68F
100
AcDbXrecord
340
1A
  0
XRECORD
  5
877
102
{ACAD_REACTORS
330
68D
102
}
330
68D
100
AcDbXrecord
340
17
  0
MLINESTYLE
  5
13
102
{ACAD_REACTORS
330
E
102
}
330
E
100
AcDbMlineStyle
  2
STANDARD
 70
     0
  3

 62
     0
 51
90.0
 52
90.0
 71
     2
 49
0.5
 62
   256
  6
BYLAYER
 49
-0.5
 62
   256
  6
BYLAYER
  0
ACDBPLACEHOLDER
  5
65D
102
{ACAD_REACTORS
330
65C
102
}
330
65C
100
AcDbPlaceHolder
280
     0
  0
XRECORD
  5
857
102
{ACAD_REACTORS
330
856
102
}
330
856
100
AcDbXrecord
 90
        1
  0
XRECORD
  5
858
102
{ACAD_REACTORS
330
856
102
}
330
856
100
AcDbXrecord
 90
       70
  0
XRECORD
  5
859
102
{ACAD_REACTORS
330
856
102
}
330
856
100
AcDbXrecord
  1

  0
XRECORD
  5
85A
102
{ACAD_REACTORS
330
856
102
}
330
856
100
AcDbXrecord
  1
systemprinter.ctb
  0
XRECORD
  5
85B
102
{ACAD_REACTORS
330
856
102
}
330
856
100
AcDbXrecord
340
65E
  0
XRECORD
  5
85C
102
{ACAD_REACTORS
330
856
102
}
330
856
100
AcDbXrecord
340
65F
  0
XRECORD
  5
85D
102
{ACAD_REACTORS
330
856
102
}
330
856
100
AcDbXrecord
340
65C
  0
XRECORD
  5
85E
102
{ACAD_REACTORS
330
856
102
}
330
856
100
AcDbXrecord
 90
    10781
  0
XRECORD
  5
85F
102
{ACAD_REACTORS
330
856
102
}
330
856
100
AcDbXrecord
 90
        0
  0
XRECORD
  5
860
102
{ACAD_REACTORS
330
856
102
}
330
856
100
AcDbXrecord
 90
        0
  0
XRECORD
  5
861
102
{ACAD_REACTORS
330
856
102
}
330
856
100
AcDbXrecord
  1
{9FCDD941-E46A-4176-9CCB-86241101691B}
  0
XRECORD
  5
862
102
{ACAD_REACTORS
330
856
102
}
330
856
100
AcDbXrecord
  1
{5D2D9C30-2EA0-45FA-9230-5D3A13BA10C9}
  0
XRECORD
  5
863
102
{ACAD_REACTORS
330
856
102
}
330
856
100
AcDbXrecord
 40
0.0
  0
XRECORD
  5
864
102
{ACAD_REACTORS
330
856
102
}
330
856
100
AcDbXrecord
1000
DSTYLE
1002
{
1070
   341
340
B2
1070
   343
340
B2
1070
   344
340
B2
1002
}
  0
XRECORD
  5
865
102
{ACAD_REACTORS
330
856
102
}
330
856
100
AcDbXrecord
340
0
  0
XRECORD
  5
866
102
{ACAD_REACTORS
330
856
102
}
330
856
100
AcDbXrecord
 70
     0
  0
XRECORD
  5
867
102
{ACAD_REACTORS
330
856
102
}
330
856
100
AcDbXrecord
340
0
  0
XRECORD
  5
868
102
{ACAD_REACTORS
330
856
102
}
330
856
100
AcDbXrecord
 10
0.0
 20
0.0
 30
0.0
  0
XRECORD
  5
869
102
{ACAD_REACTORS
330
856
102
}
330
856
100
AcDbXrecord
 10
0.0
 20
0.0
 30
0.0
  0
XRECORD
  5
86A
102
{ACAD_REACTORS
330
856
102
}
330
856
100
AcDbXrecord
 10
0.0
 20
0.0
 30
0.0
  0
XRECORD
  5
86B
102
{ACAD_REACTORS
330
856
102
}
330
856
100
AcDbXrecord
 10
0.0
 20
0.0
 30
0.0
  0
XRECORD
  5
86C
102
{ACAD_REACTORS
330
856
102
}
330
856
100
AcDbXrecord
 10
0.0
 20
0.0
 30
0.0
  0
XRECORD
  5
86D
102
{ACAD_REACTORS
330
856
102
}
330
856
100
AcDbXrecord
 10
0.0
 20
0.0
 30
0.0
  0
XRECORD
  5
86E
102
{ACAD_REACTORS
330
856
102
}
330
856
100
AcDbXrecord
340
0
  0
XRECORD
  5
86F
102
{ACAD_REACTORS
330
856
102
}
330
856
100
AcDbXrecord
 70
     0
  0
XRECORD
  5
870
102
{ACAD_REACTORS
330
856
102
}
330
856
100
AcDbXrecord
340
0
  0
XRECORD
  5
871
102
{ACAD_REACTORS
330
856
102
}
330
856
100
AcDbXrecord
 10
0.0
 20
0.0
 30
0.0
  0
XRECORD
  5
872
102
{ACAD_REACTORS
330
856
102
}
330
856
100
AcDbXrecord
 10
0.0
 20
0.0
 30
0.0
  0
XRECORD
  5
873
102
{ACAD_REACTORS
330
856
102
}
330
856
100
AcDbXrecord
 10
0.0
 20
0.0
 30
0.0
  0
XRECORD
  5
874
102
{ACAD_REACTORS
330
856
102
}
330
856
100
AcDbXrecord
 10
0.0
 20
0.0
 30
0.0
  0
XRECORD
  5
875
102
{ACAD_REACTORS
330
856
102
}
330
856
100
AcDbXrecord
 10
0.0
 20
0.0
 30
0.0
  0
XRECORD
  5
876
102
{ACAD_REACTORS
330
856
102
}
330
856
100
AcDbXrecord
 10
0.0
 20
0.0
 30
0.0
  0
ENDSEC
  0
EOF
