  0
SECTION
  2
HEADER
  9
$ACADVER
  1
AC1014
  9
$ACADMAINTVER
 70
     9
  9
$DWGCODEPAGE
  3
ANSI_932
  9
$INSBASE
 10
0.0
 20
0.0
 30
0.0
  9
$EXTMIN
 10
-0.0256333571728646
 20
-0.0181262487631102
 30
-0.0000000100021362
  9
$EXTMAX
 10
797.6000995350432
 20
551.6452344744309
 30
0.0000000100021363
  9
$LIMMIN
 10
0.0
 20
0.0
  9
$LIMMAX
 10
840.0
 20
594.0
  9
$ORTHOMODE
 70
     0
  9
$REGENMODE
 70
     1
  9
$FILLMODE
 70
     1
  9
$QTEXTMODE
 70
     0
  9
$MIRRTEXT
 70
     1
  9
$DRAGMODE
 70
     2
  9
$LTSCALE
 40
2.0
  9
$OSMODE
 70
    37
  9
$ATTMODE
 70
     1
  9
$TEXTSIZE
 40
5.0
  9
$TRACEWID
 40
1.0
  9
$TEXTSTYLE
  7
STANDARD
  9
$CLAYER
  8
SUNPOU
  9
$CELTYPE
  6
BYLAYER
  9
$CECOLOR
 62
   256
  9
$CELTSCALE
 40
1.0
  9
$DELOBJ
 70
     1
  9
$DISPSILH
 70
     0
  9
$DIMSCALE
 40
1.0
  9
$DIMASZ
 40
7.0
  9
$DIMEXO
 40
6.0
  9
$DIMDLI
 40
14.0
  9
$DIMRND
 40
0.0
  9
$DIMDLE
 40
0.0
  9
$DIMEXE
 40
3.0
  9
$DIMTP
 40
0.0
  9
$DIMTM
 40
0.0
  9
$DIMTXT
 40
6.0
  9
$DIMCEN
 40
150.0
  9
$DIMTSZ
 40
0.0
  9
$DIMTOL
 70
     0
  9
$DIMLIM
 70
     0
  9
$DIMTIH
 70
     0
  9
$DIMTOH
 70
     0
  9
$DIMSE1
 70
     0
  9
$DIMSE2
 70
     0
  9
$DIMTAD
 70
     3
  9
$DIMZIN
 70
     0
  9
$DIMBLK
  1

  9
$DIMASO
 70
     1
  9
$DIMSHO
 70
     1
  9
$DIMPOST
  1

  9
$DIMAPOST
  1

  9
$DIMALT
 70
     0
  9
$DIMALTD
 70
     2
  9
$DIMALTF
 40
25.4
  9
$DIMLFAC
 40
1.0
  9
$DIMTOFL
 70
     1
  9
$DIMTVP
 40
0.0
  9
$DIMTIX
 70
     0
  9
$DIMSOXD
 70
     0
  9
$DIMSAH
 70
     1
  9
$DIMBLK1
  1
OPEN
  9
$DIMBLK2
  1
OPEN
  9
$DIMSTYLE
  2
STANDARD
  9
$DIMCLRD
 70
   256
  9
$DIMCLRE
 70
   256
  9
$DIMCLRT
 70
   256
  9
$DIMTFAC
 40
1.0
  9
$DIMGAP
 40
2.0
  9
$DIMJUST
 70
     0
  9
$DIMSD1
 70
     0
  9
$DIMSD2
 70
     0
  9
$DIMTOLJ
 70
     1
  9
$DIMTZIN
 70
     0
  9
$DIMALTZ
 70
     0
  9
$DIMALTTZ
 70
     0
  9
$DIMFIT
 70
     3
  9
$DIMUPT
 70
     0
  9
$DIMUNIT
 70
     2
  9
$DIMDEC
 70
     0
  9
$DIMTDEC
 70
     0
  9
$DIMALTU
 70
     2
  9
$DIMALTTD
 70
     2
  9
$DIMTXSTY
  7
STANDARD
  9
$DIMAUNIT
 70
     0
  9
$LUNITS
 70
     2
  9
$LUPREC
 70
     4
  9
$SKETCHINC
 40
1.0
  9
$FILLETRAD
 40
1.0
  9
$AUNITS
 70
     0
  9
$AUPREC
 70
     0
  9
$MENU
  1
.
  9
$ELEVATION
 40
0.0
  9
$PELEVATION
 40
0.0
  9
$THICKNESS
 40
0.0
  9
$LIMCHECK
 70
     0
  9
$BLIPMODE
 70
     0
  9
$CHAMFERA
 40
20.0
  9
$CHAMFERB
 40
20.0
  9
$CHAMFERC
 40
40.0
  9
$CHAMFERD
 40
0.0
  9
$SKPOLY
 70
     0
  9
$TDCREATE
 40
2450994.354346065
  9
$TDUPDATE
 40
2454512.741281562
  9
$TDINDWG
 40
0.0551570255
  9
$TDUSRTIMER
 40
0.0551570255
  9
$USRTIMER
 70
     1
  9
$ANGBASE
 50
0.0
  9
$ANGDIR
 70
     0
  9
$PDMODE
 70
     1
  9
$PDSIZE
 40
0.0
  9
$PLINEWID
 40
0.0
  9
$COORDS
 70
     2
  9
$SPLFRAME
 70
     0
  9
$SPLINETYPE
 70
     6
  9
$SPLINESEGS
 70
     8
  9
$ATTDIA
 70
     0
  9
$ATTREQ
 70
     1
  9
$HANDLING
 70
 10241
  9
$HANDSEED
  5
C32
  9
$SURFTAB1
 70
     6
  9
$SURFTAB2
 70
     6
  9
$SURFTYPE
 70
     6
  9
$SURFU
 70
     6
  9
$SURFV
 70
     6
  9
$UCSNAME
  2

  9
$UCSORG
 10
0.0
 20
0.0
 30
0.0
  9
$UCSXDIR
 10
1.0
 20
0.0
 30
0.0
  9
$UCSYDIR
 10
0.0
 20
1.0
 30
0.0
  9
$PUCSNAME
  2

  9
$PUCSORG
 10
0.0
 20
0.0
 30
0.0
  9
$PUCSXDIR
 10
1.0
 20
0.0
 30
0.0
  9
$PUCSYDIR
 10
0.0
 20
1.0
 30
0.0
  9
$USERI1
 70
     0
  9
$USERI2
 70
     0
  9
$USERI3
 70
     0
  9
$USERI4
 70
     0
  9
$USERI5
 70
     0
  9
$USERR1
 40
0.0
  9
$USERR2
 40
0.0
  9
$USERR3
 40
0.0
  9
$USERR4
 40
0.0
  9
$USERR5
 40
0.0
  9
$WORLDVIEW
 70
     1
  9
$SHADEDGE
 70
     3
  9
$SHADEDIF
 70
    70
  9
$TILEMODE
 70
     1
  9
$MAXACTVP
 70
    16
  9
$PINSBASE
 10
0.0
 20
0.0
 30
0.0
  9
$PLIMCHECK
 70
     0
  9
$PEXTMIN
 10
0.0
 20
0.0
 30
0.0
  9
$PEXTMAX
 10
420.0
 20
297.0
 30
0.0
  9
$PLIMMIN
 10
0.0
 20
0.0
  9
$PLIMMAX
 10
420.0
 20
297.0
  9
$UNITMODE
 70
     0
  9
$VISRETAIN
 70
     0
  9
$PLINEGEN
 70
     0
  9
$PSLTSCALE
 70
     1
  9
$TREEDEPTH
 70
  3020
  9
$PICKSTYLE
 70
     1
  9
$CMLSTYLE
  2
STANDARD
  9
$CMLJUST
 70
     0
  9
$CMLSCALE
 40
1.0
  9
$PROXYGRAPHICS
 70
     1
  9
$MEASUREMENT
 70
     1
  0
ENDSEC
  0
SECTION
  2
CLASSES
  0
CLASS
  1
ACDBDICTIONARYWDFLT
  2
AcDbDictionaryWithDefault
  3
AutoCAD 2000
 90
        0
280
     0
281
     0
  0
CLASS
  1
ACDBPLACEHOLDER
  2
AcDbPlaceHolder
  3
AutoCAD 2000
 90
        0
280
     0
281
     0
  0
CLASS
  1
LAYOUT
  2
AcDbLayout
  3
AutoCAD 2000
 90
        0
280
     0
281
     0
  0
CLASS
  1
LONG_TRANSACTION
  2
AcDbLongTransaction
  3
AutoCAD 2000
 90
        0
280
     0
281
     0
  0
CLASS
  1
LWPOLYLINE
  2
AcDbPolyline
  3
AutoCAD 2000
 90
        0
280
     0
281
     1
  0
CLASS
  1
HATCH
  2
AcDbHatch
  3
AutoCAD 2000
 90
        0
280
     0
281
     1
  0
CLASS
  1
XRECORD
  2
AcDbXrecord
  3
AutoCAD 2000
 90
        0
280
     0
281
     0
  0
CLASS
  1
LONG_TRANSACTION
  2
AcDbLongTransaction
  3
AutoCAD 2000
 90
        0
280
     0
281
     0
  0
CLASS
  1
LWPOLYLINE
  2
AcDbPolyline
  3
AutoCAD 2000
 90
        0
280
     0
281
     1
  0
CLASS
  1
HATCH
  2
AcDbHatch
  3
AutoCAD 2000
 90
        0
280
     0
281
     1
  0
CLASS
  1
XRECORD
  2
AcDbXrecord
  3
AutoCAD 2000
 90
        0
280
     0
281
     0
  0
CLASS
  1
LONG_TRANSACTION
  2
AcDbLongTransaction
  3
AutoCAD 2000
 90
        0
280
     0
281
     0
  0
CLASS
  1
LWPOLYLINE
  2
AcDbPolyline
  3
AutoCAD 2000
 90
        0
280
     0
281
     1
  0
CLASS
  1
HATCH
  2
AcDbHatch
  3
AutoCAD 2000
 90
        0
280
     0
281
     1
  0
CLASS
  1
XRECORD
  2
AcDbXrecord
  3
AutoCAD 2000
 90
        0
280
     0
281
     0
  0
ENDSEC
  0
SECTION
  2
TABLES
  0
TABLE
  2
VPORT
  5
8
330
0
100
AcDbSymbolTable
 70
     2
  0
VPORT
  5
C0E
330
8
100
AcDbSymbolTableRecord
100
AcDbViewportTableRecord
  2
*ACTIVE
 70
     0
 10
0.0
 20
0.0
 11
1.0
 21
1.0
 12
409.0549863418904
 22
275.0357231756386
 13
0.0
 23
0.0
 14
5.0
 24
5.0
 15
0.0
 25
0.0
 16
0.0
 26
0.0
 36
1.0
 17
0.0
 27
0.0
 37
0.0
 40
646.5225416234389
 41
1.570153061224489
 42
50.0
 43
0.0
 44
0.0
 50
0.0
 51
0.0
 71
     0
 72
   100
 73
     1
 74
     0
 75
     0
 76
     0
 77
     0
 78
     0
  0
ENDTAB
  0
TABLE
  2
LTYPE
  5
5
330
0
100
AcDbSymbolTable
 70
     3
  0
LTYPE
  5
14
330
5
100
AcDbSymbolTableRecord
100
AcDbLinetypeTableRecord
  2
BYBLOCK
 70
     0
  3

 72
    65
 73
     0
 40
0.0
  0
LTYPE
  5
15
330
5
100
AcDbSymbolTableRecord
100
AcDbLinetypeTableRecord
  2
BYLAYER
 70
     0
  3

 72
    65
 73
     0
 40
0.0
  0
LTYPE
  5
16
330
5
100
AcDbSymbolTableRecord
100
AcDbLinetypeTableRecord
  2
CONTINUOUS
 70
     0
  3
Solid line
 72
    65
 73
     0
 40
0.0
  0
LTYPE
  5
115
330
5
100
AcDbSymbolTableRecord
100
AcDbLinetypeTableRecord
  2
PHANTOM
 70
     0
  3
______  __  __  ______  __  __  ______  __  __ 
 72
    65
 73
     6
 40
2.5
 49
1.25
 74
     0
 49
-0.25
 74
     0
 49
0.25
 74
     0
 49
-0.25
 74
     0
 49
0.25
 74
     0
 49
-0.25
 74
     0
  0
LTYPE
  5
135
330
5
100
AcDbSymbolTableRecord
100
AcDbLinetypeTableRecord
  2
CENTER
 70
     0
  3
____ _ ____ _ ____ _ ____ _ ____ _ ____ _ ____ 
 72
    65
 73
     4
 40
2.0
 49
1.25
 74
     0
 49
-0.25
 74
     0
 49
0.25
 74
     0
 49
-0.25
 74
     0
  0
ENDTAB
  0
TABLE
  2
LAYER
  5
2
330
0
100
AcDbSymbolTable
 70
     9
  0
LAYER
  5
F
330
2
100
AcDbSymbolTableRecord
100
AcDbLayerTableRecord
  2
0
 70
     0
 62
     7
  6
CONTINUOUS
  0
LAYER
  5
62
330
2
100
AcDbSymbolTableRecord
100
AcDbLayerTableRecord
  2
VIEWPORT
 70
     0
 62
     7
  6
CONTINUOUS
  0
LAYER
  5
65
330
2
100
AcDbSymbolTableRecord
100
AcDbLayerTableRecord
  2
ZUWAKU
 70
     0
 62
     7
  6
CONTINUOUS
  0
LAYER
  5
154
330
2
100
AcDbSymbolTableRecord
100
AcDbLayerTableRecord
  2
NOKITOI
 70
     0
 62
     8
  6
PHANTOM
  0
LAYER
  5
155
330
2
100
AcDbSymbolTableRecord
100
AcDbLayerTableRecord
  2
SUNPOU
 70
     0
 62
     4
  6
CONTINUOUS
  0
LAYER
  5
156
330
2
100
AcDbSymbolTableRecord
100
AcDbLayerTableRecord
  2
SEIHIN
 70
     0
 62
     3
  6
CONTINUOUS
  0
LAYER
  5
157
330
2
100
AcDbSymbolTableRecord
100
AcDbLayerTableRecord
  2
CENTER_L
 70
     0
 62
     1
  6
CENTER
  0
LAYER
  5
5B9
330
2
100
AcDbSymbolTableRecord
100
AcDbLayerTableRecord
  2
DEFPOINTS
 70
     0
 62
     7
  6
CONTINUOUS
  0
LAYER
  5
A97
330
2
100
AcDbSymbolTableRecord
100
AcDbLayerTableRecord
  2
MOJI
 70
     0
 62
     2
  6
CONTINUOUS
  0
ENDTAB
  0
TABLE
  2
STYLE
  5
3
330
0
100
AcDbSymbolTable
 70
     2
  0
STYLE
  5
10
330
3
100
AcDbSymbolTableRecord
100
AcDbTextStyleTableRecord
  2
STANDARD
 70
     0
 40
0.0
 41
1.0
 50
0.0
 71
     0
 42
5.0
  3
TXT
  4
bigfont.shx
  0
STYLE
  5
A98
330
3
100
AcDbSymbolTableRecord
100
AcDbTextStyleTableRecord
  2
ｽﾀｲﾙ1
 70
     0
 40
0.0
 41
1.0
 50
0.0
 71
     0
 42
2.5
  3
MS PGothic.ttf
  4

1001
ACAD
1000
MS PGothic
1071
    32818
  0
ENDTAB
  0
TABLE
  2
VIEW
  5
6
330
0
100
AcDbSymbolTable
 70
     0
  0
ENDTAB
  0
TABLE
  2
UCS
  5
7
330
0
100
AcDbSymbolTable
 70
     0
  0
ENDTAB
  0
TABLE
  2
APPID
  5
9
330
0
100
AcDbSymbolTable
 70
     1
  0
APPID
  5
11
330
9
100
AcDbSymbolTableRecord
100
AcDbRegAppTableRecord
  2
ACAD
 70
     0
  0
ENDTAB
  0
TABLE
  2
DIMSTYLE
  5
A
330
0
100
AcDbSymbolTable
 70
     1
  0
DIMSTYLE
105
1D
102
{ACAD_REACTORS
330
5E7
330
5E8
330
6D1
330
6DE
330
6EB
330
6FA
330
70B
330
718
330
768
330
775
330
854
330
943
330
9FB
102
}
330
A
100
AcDbSymbolTableRecord
100
AcDbDimStyleTableRecord
  2
STANDARD
 70
     0
  3

  4

  5

  6

  7

 40
1.0
 41
0.18
 42
0.0625
 43
0.38
 44
0.18
 45
0.0
 46
0.0
 47
0.0
 48
0.0
140
0.18
141
0.09
142
0.0
143
25.4
144
1.0
145
0.0
146
1.0
147
0.09
 71
     0
 72
     0
 73
     1
 74
     1
 75
     0
 76
     0
 77
     0
 78
     0
170
     0
171
     2
172
     0
173
     0
174
     0
175
     0
176
     0
177
     0
178
     0
270
     2
271
     4
272
     4
273
     2
274
     2
340
10
275
     0
280
     0
281
     0
282
     0
283
     1
284
     0
285
     0
286
     0
287
     3
288
     0
  0
ENDTAB
  0
TABLE
  2
BLOCK_RECORD
  5
1
330
0
100
AcDbSymbolTable
 70
    15
  0
BLOCK_RECORD
  5
1A
102
{ACAD_XDICTIONARY
360
A55
102
}
330
1
100
AcDbSymbolTableRecord
100
AcDbBlockTableRecord
  2
*MODEL_SPACE
  0
BLOCK_RECORD
  5
17
102
{ACAD_XDICTIONARY
360
A53
102
}
330
1
100
AcDbSymbolTableRecord
100
AcDbBlockTableRecord
  2
*PAPER_SPACE
  0
BLOCK_RECORD
  5
6D
330
1
100
AcDbSymbolTableRecord
100
AcDbBlockTableRecord
  2
_OPEN
  0
BLOCK_RECORD
  5
163
330
1
100
AcDbSymbolTableRecord
100
AcDbBlockTableRecord
  2
A$C1305
  0
BLOCK_RECORD
  5
61A
330
1
100
AcDbSymbolTableRecord
100
AcDbBlockTableRecord
  2
*D2
  0
BLOCK_RECORD
  5
626
330
1
100
AcDbSymbolTableRecord
100
AcDbBlockTableRecord
  2
*D3
  0
BLOCK_RECORD
  5
6C3
330
1
100
AcDbSymbolTableRecord
100
AcDbBlockTableRecord
  2
*D4
  0
BLOCK_RECORD
  5
6D2
330
1
100
AcDbSymbolTableRecord
100
AcDbBlockTableRecord
  2
*D5
  0
BLOCK_RECORD
  5
6DF
330
1
100
AcDbSymbolTableRecord
100
AcDbBlockTableRecord
  2
*D6
  0
BLOCK_RECORD
  5
6EC
330
1
100
AcDbSymbolTableRecord
100
AcDbBlockTableRecord
  2
*D7
  0
BLOCK_RECORD
  5
6FD
330
1
100
AcDbSymbolTableRecord
100
AcDbBlockTableRecord
  2
*D8
  0
BLOCK_RECORD
  5
70C
330
1
100
AcDbSymbolTableRecord
100
AcDbBlockTableRecord
  2
*D9
  0
BLOCK_RECORD
  5
75C
330
1
100
AcDbSymbolTableRecord
100
AcDbBlockTableRecord
  2
*D10
  0
BLOCK_RECORD
  5
769
330
1
100
AcDbSymbolTableRecord
100
AcDbBlockTableRecord
  2
*D11
  0
BLOCK_RECORD
  5
848
330
1
100
AcDbSymbolTableRecord
100
AcDbBlockTableRecord
  2
*D12
  0
BLOCK_RECORD
  5
935
330
1
100
AcDbSymbolTableRecord
100
AcDbBlockTableRecord
  2
*D13
  0
BLOCK_RECORD
  5
9EF
330
1
100
AcDbSymbolTableRecord
100
AcDbBlockTableRecord
  2
*D14
  0
ENDTAB
  0
ENDSEC
  0
SECTION
  2
BLOCKS
  0
BLOCK
  5
1B
330
1A
100
AcDbEntity
  8
0
100
AcDbBlockBegin
  2
*MODEL_SPACE
 70
     0
 10
0.0
 20
0.0
 30
0.0
  3
*MODEL_SPACE
  1

  0
ENDBLK
  5
1C
330
1A
100
AcDbEntity
  8
0
100
AcDbBlockEnd
  0
BLOCK
  5
18
330
17
100
AcDbEntity
 67
     1
  8
0
100
AcDbBlockBegin
  2
*PAPER_SPACE
 70
     0
 10
0.0
 20
0.0
 30
0.0
  3
*PAPER_SPACE
  1

  0
ENDBLK
  5
19
330
17
100
AcDbEntity
 67
     1
  8
0
100
AcDbBlockEnd
  0
BLOCK
  5
6E
330
6D
100
AcDbEntity
  8
0
100
AcDbBlockBegin
  2
_OPEN
 70
     0
 10
0.0
 20
0.0
 30
0.0
  3
_OPEN
  1

  0
LINE
  5
6F
330
6D
100
AcDbEntity
  8
0
  6
BYBLOCK
 62
     0
100
AcDbLine
 10
-1.0
 20
0.1666666666666666
 30
0.0
 11
0.0
 21
0.0
 31
0.0
  0
LINE
  5
70
330
6D
100
AcDbEntity
  8
0
  6
BYBLOCK
 62
     0
100
AcDbLine
 10
0.0
 20
0.0
 30
0.0
 11
-1.0
 21
-0.1666666666666666
 31
0.0
  0
LINE
  5
71
330
6D
100
AcDbEntity
  8
0
  6
BYBLOCK
 62
     0
100
AcDbLine
 10
0.0
 20
0.0
 30
0.0
 11
-1.0
 21
0.0
 31
0.0
  0
ENDBLK
  5
72
330
6D
100
AcDbEntity
  8
0
100
AcDbBlockEnd
  0
BLOCK
  5
1AB
330
163
100
AcDbEntity
  8
0
100
AcDbBlockBegin
  2
A$C1305
 70
     0
 10
0.0
 20
0.0
 30
0.0
  3
A$C1305
  1

  0
LINE
  5
164
330
163
100
AcDbEntity
  8
NOKITOI
  6
PHANTOM
 62
     8
 48
5.0
100
AcDbLine
 10
29.18435908443393
 20
10.10187063730222
 30
0.0
 11
19.27365908443391
 21
10.10187063730222
 31
0.0
  0
LINE
  5
165
330
163
100
AcDbEntity
  8
NOKITOI
  6
PHANTOM
 62
     8
 48
5.0
100
AcDbLine
 10
90.2981590844339
 20
0.1120706373022813
 30
0.0
 11
24.06755908443392
 21
0.1121706373021425
 31
0.0
  0
LINE
  5
166
330
163
100
AcDbEntity
  8
NOKITOI
  6
PHANTOM
 62
     8
 48
5.0
100
AcDbLine
 10
24.06755908443392
 20
0.1121706373021425
 30
0.0
 11
90.2981590844339
 21
0.1120706373022813
 31
0.0
  0
LINE
  5
167
330
163
100
AcDbEntity
  8
NOKITOI
  6
PHANTOM
 62
     8
 48
5.0
100
AcDbLine
 10
13.05735908443387
 20
12.22087063730214
 30
0.0
 11
7.218759084433713
 21
39.95217063730228
 31
0.0
  0
LINE
  5
168
330
163
100
AcDbEntity
  8
NOKITOI
  6
PHANTOM
 62
     8
 48
5.0
100
AcDbLine
 10
14.16595908443378
 20
13.23377063730208
 30
0.0
 11
8.234959084433853
 21
41.4036706373023
 31
0.0
  0
ARC
  5
169
330
163
100
AcDbEntity
  8
NOKITOI
  6
PHANTOM
 62
     8
 48
5.0
100
AcDbCircle
 10
15.13957896620524
 20
13.43874830022218
 30
0.0
 40
0.995060928010462
100
AcDbArc
 50
191.8877567214145
 51
251.4524867922934
  0
ARC
  5
16A
330
163
100
AcDbEntity
  8
NOKITOI
  6
PHANTOM
 62
     8
 48
5.0
100
AcDbCircle
 10
10.29733292322475
 20
-0.9941694721817384
 30
0.0
 40
14.22848866365036
100
AcDbArc
 50
51.52529185494254
 51
71.45345265407107
  0
ARC
  5
16B
330
163
100
AcDbEntity
  8
NOKITOI
  6
PHANTOM
 62
     8
 48
5.0
100
AcDbCircle
 10
10.29726615422066
 20
-0.9941373355915743
 30
0.0
 40
12.93471022655885
100
AcDbArc
 50
8.676219579622015
 51
74.45245455808978
  0
ARC
  5
16C
330
163
100
AcDbEntity
  8
NOKITOI
  6
PHANTOM
 62
     8
 48
5.0
100
AcDbCircle
 10
24.06756669845151
 20
1.107164097058216
 30
0.0
 40
0.9949934597852239
100
AcDbArc
 50
188.67611256506
 51
269.9995615538235
  0
ARC
  5
16D
330
163
100
AcDbEntity
  8
NOKITOI
  6
PHANTOM
 62
     8
 48
5.0
100
AcDbCircle
 10
19.27366239679292
 20
10.30086948151677
 30
0.0
 40
0.1989988442421132
100
AcDbArc
 50
231.5280949042412
 51
269.9990463050557
  0
ARC
  5
16E
330
163
100
AcDbEntity
  8
NOKITOI
  6
PHANTOM
 62
     8
 48
5.0
100
AcDbCircle
 10
14.03099910882133
 20
12.42582797307631
 30
0.0
 40
0.9949785960395137
100
AcDbArc
 50
191.8875585738773
 51
254.4495841050105
  0
LINE
  5
16F
330
163
100
AcDbEntity
  8
NOKITOI
  6
PHANTOM
 62
     8
 48
5.0
100
AcDbLine
 10
27.88425908443378
 20
1.91217063730221
 30
0.0
 11
27.88425908443378
 21
8.439470637302292
 31
0.0
  0
LINE
  5
170
330
163
100
AcDbEntity
  8
NOKITOI
  6
PHANTOM
 62
     8
 48
5.0
100
AcDbLine
 10
28.37925908443378
 20
9.296770637302074
 30
0.0
 11
27.88425908443378
 21
8.439470637302292
 31
0.0
  0
LINE
  5
171
330
163
100
AcDbEntity
  8
NOKITOI
  6
PHANTOM
 62
     8
 48
5.0
100
AcDbLine
 10
28.37925908443378
 20
9.296770637302074
 30
0.0
 11
27.52195908443377
 21
8.801870637302272
 31
0.0
  0
ARC
  5
172
330
163
100
AcDbEntity
  8
NOKITOI
  6
PHANTOM
 62
     8
 48
5.0
100
AcDbCircle
 10
21.30106274373702
 20
8.501878629181817
 30
0.0
 40
0.2999920081427447
100
AcDbArc
 50
90.00069889403098
 51
220.79672841758
  0
ARC
  5
173
330
163
100
AcDbEntity
  8
NOKITOI
  6
PHANTOM
 62
     8
 48
5.0
100
AcDbCircle
 10
10.29726428144715
 20
-0.9941399784659097
 30
0.0
 40
14.23472333170272
100
AcDbArc
 50
11.37541821407357
 51
40.79334907830751
  0
LINE
  5
174
330
163
100
AcDbEntity
  8
NOKITOI
  6
PHANTOM
 62
     8
 48
5.0
100
AcDbLine
 10
27.52195908443377
 20
8.801870637302272
 30
0.0
 11
21.30105908443386
 21
8.801870637302272
 31
0.0
  0
LINE
  5
175
330
163
100
AcDbEntity
  8
NOKITOI
  6
PHANTOM
 62
     8
 48
5.0
100
AcDbLine
 10
24.74245908443378
 20
1.412170637302097
 30
0.0
 11
27.38425908443378
 21
1.412170637302097
 31
0.0
  0
ARC
  5
176
330
163
100
AcDbEntity
  8
NOKITOI
  6
PHANTOM
 62
     8
 48
5.0
100
AcDbCircle
 10
24.74253604330567
 20
1.912189501590432
 30
0.0
 40
0.5000188648192144
100
AcDbArc
 50
191.3867288554411
 51
270.0026402191985
  0
ARC
  5
177
330
163
100
AcDbEntity
  8
NOKITOI
  6
PHANTOM
 62
     8
 48
5.0
100
AcDbCircle
 10
27.38425908443366
 20
1.91217063730221
 30
0.0
 40
0.5000000000000569
100
AcDbArc
 50
270.0000000000065
 51
0.0000000000065138
  0
LINE
  5
178
330
163
100
AcDbEntity
  8
NOKITOI
  6
PHANTOM
 62
     8
 48
5.0
100
AcDbLine
 10
0.1808590844339051
 20
41.10517063730208
 30
0.0
 11
0.1808590844339051
 21
49.11467063730208
 31
0.0
  0
ARC
  5
179
330
163
100
AcDbEntity
  8
NOKITOI
  6
PHANTOM
 62
     8
 48
5.0
100
AcDbCircle
 10
3.6160590844338
 20
47.32377063730223
 30
0.0
 40
1.492399999999918
100
AcDbArc
 50
0.0000000000021823
 51
90.00000000000218
  0
ARC
  5
17A
330
163
100
AcDbEntity
  8
NOKITOI
  6
PHANTOM
 62
     8
 48
5.0
100
AcDbCircle
 10
2.966809084433748
 20
47.32372063730212
 30
0.0
 40
1.49245000083754
100
AcDbArc
 50
89.99808047909008
 51
179.99808047909
  0
LINE
  5
17B
330
163
100
AcDbEntity
  8
NOKITOI
  6
PHANTOM
 62
     8
 48
5.0
100
AcDbLine
 10
6.401959084433769
 20
49.11467063730208
 30
0.0
 11
6.401959084433769
 21
44.90987063730222
 31
0.0
  0
LINE
  5
17C
330
163
100
AcDbEntity
  8
NOKITOI
  6
PHANTOM
 62
     8
 48
5.0
100
AcDbLine
 10
3.464359084433908
 20
41.4036706373023
 30
0.0
 11
8.234959084433853
 21
41.4036706373023
 31
0.0
  0
LINE
  5
17D
330
163
100
AcDbEntity
  8
NOKITOI
  6
PHANTOM
 62
     8
 48
5.0
100
AcDbLine
 10
7.024059084433929
 20
40.11017063730207
 30
0.0
 11
1.175859084433909
 21
40.11017063730207
 31
0.0
  0
ARC
  5
17E
330
163
100
AcDbEntity
  8
NOKITOI
  6
PHANTOM
 62
     8
 48
5.0
100
AcDbCircle
 10
3.464309084433807
 20
43.39362063730232
 30
0.0
 40
1.989950000628206
100
AcDbArc
 50
180.0014396286234
 51
270.0014396286234
  0
LINE
  5
17F
330
163
100
AcDbEntity
  8
NOKITOI
  6
PHANTOM
 62
     8
 48
5.0
100
AcDbLine
 10
1.474359084433785
 20
47.32377063730223
 30
0.0
 11
1.474359084433785
 21
43.39357063730221
 31
0.0
  0
ARC
  5
180
330
163
100
AcDbEntity
  8
NOKITOI
  6
PHANTOM
 62
     8
 48
5.0
100
AcDbCircle
 10
1.175859084433909
 20
41.10517063730208
 30
0.0
 40
0.9950000000000045
100
AcDbArc
 50
180.0
 51
270.0
  0
LINE
  5
181
330
163
100
AcDbEntity
  8
NOKITOI
  6
PHANTOM
 62
     8
 48
5.0
100
AcDbLine
 10
5.108559084433863
 20
44.90987063730222
 30
0.0
 11
5.108559084433863
 21
47.32377063730223
 31
0.0
  0
LINE
  5
182
330
163
100
AcDbEntity
  8
NOKITOI
  6
PHANTOM
 62
     8
 48
5.0
100
AcDbLine
 10
6.401959084433769
 20
44.90987063730222
 30
0.0
 11
5.108559084433863
 21
44.90987063730222
 31
0.0
  0
ARC
  5
183
330
163
100
AcDbEntity
  8
NOKITOI
  6
PHANTOM
 62
     8
 48
5.0
100
AcDbCircle
 10
7.024040641819624
 20
39.91118560073897
 30
0.0
 40
0.1989850374177657
100
AcDbArc
 50
11.88631382809314
 51
89.99468963106556
  0
LINE
  5
184
330
163
100
AcDbEntity
  8
NOKITOI
  6
PHANTOM
 62
     8
 48
5.0
100
AcDbLine
 10
1.175859084433909
 20
50.1096706373022
 30
0.0
 11
5.407059084433853
 21
50.1096706373022
 31
0.0
  0
ARC
  5
185
330
163
100
AcDbEntity
  8
NOKITOI
  6
PHANTOM
 62
     8
 48
5.0
100
AcDbCircle
 10
1.175859084433909
 20
49.1146706373022
 30
0.0
 40
0.9950000000000613
100
AcDbArc
 50
90.00000000000328
 51
180.0000000000032
  0
LINE
  5
186
330
163
100
AcDbEntity
  8
NOKITOI
  6
PHANTOM
 62
     8
 48
5.0
100
AcDbLine
 10
3.6160590844338
 20
48.81617063730209
 30
0.0
 11
2.966859084433849
 21
48.81617063730209
 31
0.0
  0
ARC
  5
187
330
163
100
AcDbEntity
  8
NOKITOI
  6
PHANTOM
 62
     8
 48
5.0
100
AcDbCircle
 10
5.407009084433752
 20
49.11472063730224
 30
0.0
 40
0.9949500012563332
100
AcDbArc
 50
359.9971206704048
 51
89.99712067040489
  0
LINE
  5
188
330
163
100
AcDbEntity
  8
NOKITOI
  6
PHANTOM
 62
     8
 48
5.0
100
AcDbLine
 10
85.18155908443374
 20
10.10157063730207
 30
0.0
 11
95.16205908443373
 21
10.10147063730221
 31
0.0
  0
ARC
  5
189
330
163
100
AcDbEntity
  8
NOKITOI
  6
PHANTOM
 62
     8
 48
5.0
100
AcDbCircle
 10
104.068453551022
 20
-0.9942356029631582
 30
0.0
 40
12.93461262833301
100
AcDbArc
 50
105.5476727870198
 51
171.3237222126366
  0
ARC
  5
18A
330
163
100
AcDbEntity
  8
NOKITOI
  6
PHANTOM
 62
     8
 48
5.0
100
AcDbCircle
 10
104.0683479281129
 20
-0.994141944171929
 30
0.0
 40
12.93449408578155
100
AcDbArc
 50
105.5473332353544
 51
171.3240617643019
  0
LINE
  5
18B
330
163
100
AcDbEntity
  8
NOKITOI
  6
PHANTOM
 62
     8
 48
5.0
100
AcDbLine
 10
29.38325908443392
 20
1.405570637302162
 30
0.0
 11
84.98245908443392
 21
1.405470637302073
 31
0.0
  0
ARC
  5
18C
330
163
100
AcDbEntity
  8
NOKITOI
  6
PHANTOM
 62
     8
 48
5.0
100
AcDbCircle
 10
29.38325908443392
 20
1.604570637302231
 30
0.0
 40
0.1990000000000691
100
AcDbArc
 50
179.9999999999836
 51
269.9999999999836
  0
LINE
  5
18D
330
163
100
AcDbEntity
  8
NOKITOI
  6
PHANTOM
 62
     8
 48
5.0
100
AcDbLine
 10
29.18425908443385
 20
1.604570637302231
 30
0.0
 11
29.18435908443393
 21
10.10187063730222
 31
0.0
  0
LINE
  5
18E
330
163
100
AcDbEntity
  8
NOKITOI
  6
PHANTOM
 62
     8
 48
5.0
100
AcDbLine
 10
80.98245908443391
 20
1.405470637302073
 30
0.0
 11
66.22805908443377
 21
1.405470637302073
 31
0.0
  0
ARC
  5
18F
330
163
100
AcDbEntity
  8
NOKITOI
  6
PHANTOM
 62
     8
 48
5.0
100
AcDbCircle
 10
90.2982090125298
 20
1.107113524900853
 30
0.0
 40
0.9950428888512103
100
AcDbArc
 50
269.9971250795227
 51
351.3214426795068
  0
LINE
  5
190
330
163
100
AcDbEntity
  8
NOKITOI
  6
PHANTOM
 62
     8
 48
5.0
100
AcDbLine
 10
85.98655908443367
 20
9.296470637302149
 30
0.0
 11
86.4815590844339
 21
8.43917063730214
 31
0.0
  0
LINE
  5
191
330
163
100
AcDbEntity
  8
NOKITOI
  6
PHANTOM
 62
     8
 48
5.0
100
AcDbLine
 10
85.98655908443367
 20
9.296470637302149
 30
0.0
 11
86.84385908443392
 21
8.801470637302145
 31
0.0
  0
ARC
  5
192
330
163
100
AcDbEntity
  8
NOKITOI
  6
PHANTOM
 62
     8
 48
5.0
100
AcDbCircle
 10
84.98240908443381
 20
1.604520637302186
 30
0.0
 40
0.1990500062799141
100
AcDbArc
 50
270.0143923080611
 51
0.014392308061115
  0
LINE
  5
193
330
163
100
AcDbEntity
  8
NOKITOI
  6
PHANTOM
 62
     8
 48
5.0
100
AcDbLine
 10
85.18145908443386
 20
1.604570637302231
 30
0.0
 11
85.18155908443374
 21
10.10157063730207
 31
0.0
  0
LINE
  5
194
330
163
100
AcDbEntity
  8
NOKITOI
  6
PHANTOM
 62
     8
 48
5.0
100
AcDbLine
 10
86.4815590844339
 20
8.43917063730214
 30
0.0
 11
86.4815590844339
 21
1.912070637302122
 31
0.0
  0
ARC
  5
195
330
163
100
AcDbEntity
  8
NOKITOI
  6
PHANTOM
 62
     8
 48
5.0
100
AcDbCircle
 10
104.0684175391246
 20
-0.9943142272541081
 30
0.0
 40
14.23462403148678
100
AcDbArc
 50
139.2075062369005
 51
168.6237859483839
  0
LINE
  5
196
330
163
100
AcDbEntity
  8
NOKITOI
  6
PHANTOM
 62
     8
 48
5.0
100
AcDbLine
 10
93.06445908443368
 20
8.801470637302145
 30
0.0
 11
86.84385908443392
 21
8.801470637302145
 31
0.0
  0
ARC
  5
197
330
163
100
AcDbEntity
  8
NOKITOI
  6
PHANTOM
 62
     8
 48
5.0
100
AcDbCircle
 10
93.06447276228515
 20
8.501440773608294
 30
0.0
 40
0.3000298640056128
100
AcDbArc
 50
319.2190584222776
 51
90.00261201719956
  0
LINE
  5
198
330
163
100
AcDbEntity
  8
NOKITOI
  6
PHANTOM
 62
     8
 48
5.0
100
AcDbLine
 10
89.62325908443393
 20
1.412070637302235
 30
0.0
 11
86.98155908443391
 21
1.412070637302235
 31
0.0
  0
ARC
  5
199
330
163
100
AcDbEntity
  8
NOKITOI
  6
PHANTOM
 62
     8
 48
5.0
100
AcDbCircle
 10
86.9815590844338
 20
1.912070637302235
 30
0.0
 40
0.4999999999999432
100
AcDbArc
 50
180.0000000000065
 51
270.0000000000065
  0
ARC
  5
19A
330
163
100
AcDbEntity
  8
NOKITOI
  6
PHANTOM
 62
     8
 48
5.0
100
AcDbCircle
 10
89.62328212556213
 20
1.912089501590457
 30
0.0
 40
0.5000188648190603
100
AcDbArc
 50
269.9973597808039
 51
348.6132711445602
  0
LINE
  5
19B
330
163
100
AcDbEntity
  8
NOKITOI
  6
PHANTOM
 62
     8
 48
5.0
100
AcDbLine
 10
100.1997590844339
 20
13.23317063730223
 30
0.0
 11
105.6547590844337
 21
39.14207063730214
 31
0.0
  0
LINE
  5
19C
330
163
100
AcDbEntity
  8
NOKITOI
  6
PHANTOM
 62
     8
 48
5.0
100
AcDbLine
 10
101.3084590844339
 20
12.22067063730207
 30
0.0
 11
107.1471590844337
 21
39.95207063730208
 31
0.0
  0
ARC
  5
19D
330
163
100
AcDbEntity
  8
NOKITOI
  6
PHANTOM
 62
     8
 48
5.0
100
AcDbCircle
 10
99.22620265398496
 20
13.43821958907108
 30
0.0
 40
0.9950135261271753
100
AcDbArc
 50
288.5445751594487
 51
348.1074736523478
  0
ARC
  5
19E
330
163
100
AcDbEntity
  8
NOKITOI
  6
PHANTOM
 62
     8
 48
5.0
100
AcDbCircle
 10
104.0684735879824
 20
-0.9942214385093848
 30
0.0
 40
14.22809199964113
100
AcDbArc
 50
108.5474584936555
 51
128.7537062451648
  0
ARC
  5
19F
330
163
100
AcDbEntity
  8
NOKITOI
  6
PHANTOM
 62
     8
 48
5.0
100
AcDbCircle
 10
100.334833421286
 20
12.42574988868966
 30
0.0
 40
0.9949690575286499
100
AcDbArc
 50
285.5437330810338
 51
348.1110361155302
  0
LINE
  5
1A0
330
163
100
AcDbEntity
  8
NOKITOI
  6
PHANTOM
 62
     8
 48
5.0
100
AcDbLine
 10
112.8850590844339
 20
41.40997063730208
 30
0.0
 11
107.4607590844339
 21
41.41007063730216
 31
0.0
  0
LINE
  5
1A1
330
163
100
AcDbEntity
  8
NOKITOI
  6
PHANTOM
 62
     8
 48
5.0
100
AcDbLine
 10
113.1900590844338
 20
50.10957063730223
 30
0.0
 11
107.9863590844338
 21
50.10947063730213
 31
0.0
  0
LINE
  5
1A2
330
163
100
AcDbEntity
  8
NOKITOI
  6
PHANTOM
 62
     8
 48
5.0
100
AcDbLine
 10
112.8850590844339
 20
48.80947063730229
 30
0.0
 11
109.0186590844336
 21
48.80947063730229
 31
0.0
  0
LINE
  5
1A3
330
163
100
AcDbEntity
  8
NOKITOI
  6
PHANTOM
 62
     8
 48
5.0
100
AcDbLine
 10
107.3418590844337
 20
40.10997063730224
 30
0.0
 11
113.1900590844338
 21
40.10997063730224
 31
0.0
  0
LINE
  5
1A4
330
163
100
AcDbEntity
  8
NOKITOI
  6
PHANTOM
 62
     8
 48
5.0
100
AcDbLine
 10
109.0186590844336
 20
48.80947063730229
 30
0.0
 11
107.4607590844339
 21
41.41007063730216
 31
0.0
  0
LINE
  5
1A5
330
163
100
AcDbEntity
  8
NOKITOI
  6
PHANTOM
 62
     8
 48
5.0
100
AcDbLine
 10
105.6547590844337
 20
39.14207063730214
 30
0.0
 11
107.9638590844336
 21
50.10947063730213
 31
0.0
  0
ARC
  5
1A6
330
163
100
AcDbEntity
  8
NOKITOI
  6
PHANTOM
 62
     8
 48
5.0
100
AcDbCircle
 10
107.341877527048
 20
39.91108560073894
 30
0.0
 40
0.1989850374179911
100
AcDbArc
 50
90.00531036897127
 51
168.1136861719432
  0
LINE
  5
1A7
330
163
100
AcDbEntity
  8
NOKITOI
  6
PHANTOM
 62
     8
 48
5.0
100
AcDbLine
 10
114.1850590844338
 20
41.10497063730213
 30
0.0
 11
114.1850590844338
 21
49.1145706373021
 31
0.0
  0
LINE
  5
1A8
330
163
100
AcDbEntity
  8
NOKITOI
  6
PHANTOM
 62
     8
 48
5.0
100
AcDbLine
 10
112.8850590844339
 20
41.40997063730208
 30
0.0
 11
112.8850590844339
 21
48.80947063730229
 31
0.0
  0
ARC
  5
1A9
330
163
100
AcDbEntity
  8
NOKITOI
  6
PHANTOM
 62
     8
 48
5.0
100
AcDbCircle
 10
113.1900590844339
 20
41.10497063730218
 30
0.0
 40
0.9949999999999192
100
AcDbArc
 50
269.9999999999951
 51
359.9999999999951
  0
ARC
  5
1AA
330
163
100
AcDbEntity
  8
NOKITOI
  6
PHANTOM
 62
     8
 48
5.0
100
AcDbCircle
 10
113.1900590844338
 20
49.11457063730222
 30
0.0
 40
0.9950000000000613
100
AcDbArc
 50
359.9999999999967
 51
89.99999999999673
  0
ENDBLK
  5
1AC
330
163
100
AcDbEntity
  8
0
100
AcDbBlockEnd
  0
BLOCK
  5
69E
330
61A
100
AcDbEntity
  8
0
100
AcDbBlockBegin
  2
*D2
 70
     1
 10
0.0
 20
0.0
 30
0.0
  3
*D2
  1

  0
LINE
  5
69F
330
61A
100
AcDbEntity
  8
0
  6
BYBLOCK
 62
     4
100
AcDbLine
 10
672.1368976271307
 20
252.6564152566552
 30
0.0
 11
660.3986931216541
 21
282.0055057303297
 31
0.0
  0
LINE
  5
6A0
330
61A
100
AcDbEntity
  8
0
  6
BYBLOCK
 62
     4
100
AcDbLine
 10
616.4272848569467
 20
230.3755031335807
 30
0.0
 11
604.6891546217961
 21
259.7244079087937
 31
0.0
  0
LINE
  5
6A1
330
61A
100
AcDbEntity
  8
0
  6
BYBLOCK
 62
     4
100
AcDbLine
 10
655.0133018544141
 20
276.6205673928242
 30
0.0
 11
612.3026556711898
 21
259.5383923963133
 31
0.0
  0
INSERT
  5
6A2
330
61A
100
AcDbEntity
  8
0
  6
BYBLOCK
 62
     4
100
AcDbBlockReference
  2
_OPEN
 10
661.5127480127308
 20
279.2200288053368
 30
0.0
 41
7.0
 42
7.0
 43
7.0
 50
21.7989999999998
  0
INSERT
  5
6A3
330
61A
100
AcDbEntity
  8
0
  6
BYBLOCK
 62
     4
100
AcDbBlockReference
  2
_OPEN
 10
605.8032095128729
 20
256.9389309838008
 30
0.0
 41
7.0
 42
7.0
 43
7.0
 50
201.7989999999998
  0
MTEXT
  5
6A4
330
61A
100
AcDbEntity
  8
0
  6
BYBLOCK
 62
     4
100
AcDbMText
 10
631.8012206110072
 20
272.7219414362236
 30
0.0
 40
6.0
 41
0.0
 71
     5
 72
     5
  1
\A1;60
 11
0.9284923083309642
 21
0.3713516303589332
 31
0.0
1001
ACAD
1000
MTEXTBEGIN
1070
    73
1070
     1
1070
    44
1040
1.0
1070
    74
1070
     0
1000
MTEXTEND
1000
MTEXTBEGIN
1070
    73
1070
     1
1070
    44
1040
1.0
1070
    74
1070
     0
1000
MTEXTEND
1000
MTEXTBEGIN
1070
    73
1070
     1
1070
    44
1040
1.0
1070
    74
1070
     0
1000
MTEXTEND
  0
POINT
  5
6A5
330
61A
100
AcDbEntity
  8
DEFPOINTS
  6
BYBLOCK
 62
     0
100
AcDbPoint
 10
674.3650074092843
 20
247.0854614066694
 30
0.0
  0
POINT
  5
6A6
330
61A
100
AcDbEntity
  8
DEFPOINTS
  6
BYBLOCK
 62
     0
100
AcDbPoint
 10
618.6553946391003
 20
224.8045492835949
 30
0.0
  0
POINT
  5
6A7
330
61A
100
AcDbEntity
  8
DEFPOINTS
  6
BYBLOCK
 62
     0
100
AcDbPoint
 10
605.8032095128729
 20
256.9389309838008
 30
0.0
  0
ENDBLK
  5
6A8
330
61A
100
AcDbEntity
  8
0
100
AcDbBlockEnd
  0
BLOCK
  5
990
330
626
100
AcDbEntity
  8
0
100
AcDbBlockBegin
  2
*D3
 70
     1
 10
0.0
 20
0.0
 30
0.0
  3
*D3
  1

  0
LINE
  5
991
330
626
100
AcDbEntity
  8
0
  6
BYBLOCK
 62
     4
100
AcDbLine
 10
626.3629631610036
 20
366.4044034677408
 30
0.0
 11
620.1947943944865
 21
381.8267061803012
 31
0.0
  0
LINE
  5
992
330
626
100
AcDbEntity
  8
0
  6
BYBLOCK
 62
     4
100
AcDbLine
 10
579.9382858527517
 20
347.836976698606
 30
0.0
 11
573.7701789781731
 21
363.2591246624484
 31
0.0
  0
LINE
  5
993
330
626
100
AcDbEntity
  8
0
  6
BYBLOCK
 62
     4
100
AcDbLine
 10
614.8094031272466
 20
376.4417678427958
 30
0.0
 11
581.3836800275665
 21
363.073109149968
 31
0.0
  0
INSERT
  5
994
330
626
100
AcDbEntity
  8
0
  6
BYBLOCK
 62
     4
100
AcDbBlockReference
  2
_OPEN
 10
621.3088492855633
 20
379.0412292553083
 30
0.0
 41
7.0
 42
7.0
 43
7.0
 50
21.7989999999998
  0
INSERT
  5
995
330
626
100
AcDbEntity
  8
0
  6
BYBLOCK
 62
     4
100
AcDbBlockReference
  2
_OPEN
 10
574.8842338692498
 20
360.4736477374555
 30
0.0
 41
7.0
 42
7.0
 43
7.0
 50
201.7989999999998
  0
MTEXT
  5
996
330
626
100
AcDbEntity
  8
0
  6
BYBLOCK
 62
     4
100
AcDbMText
 10
595.8728854343237
 20
374.2531587392475
 30
0.0
 40
6.0
 41
0.0
 71
     5
 72
     5
  1
\A1;50
 11
0.9284923083309642
 21
0.3713516303589332
 31
0.0
1001
ACAD
1000
MTEXTBEGIN
1070
    73
1070
     1
1070
    44
1040
1.0
1070
    74
1070
     0
1000
MTEXTEND
1000
MTEXTBEGIN
1070
    73
1070
     1
1070
    44
1040
1.0
1070
    74
1070
     0
1000
MTEXTEND
1000
MTEXTBEGIN
1070
    73
1070
     1
1070
    44
1040
1.0
1070
    74
1070
     0
1000
MTEXTEND
  0
POINT
  5
997
330
626
100
AcDbEntity
  8
DEFPOINTS
  6
BYBLOCK
 62
     0
100
AcDbPoint
 10
628.5910729431572
 20
360.833449617755
 30
0.0
  0
POINT
  5
998
330
626
100
AcDbEntity
  8
DEFPOINTS
  6
BYBLOCK
 62
     0
100
AcDbPoint
 10
582.1663956349054
 20
342.2660228486201
 30
0.0
  0
POINT
  5
999
330
626
100
AcDbEntity
  8
DEFPOINTS
  6
BYBLOCK
 62
     0
100
AcDbPoint
 10
574.8842338692498
 20
360.4736477374555
 30
0.0
  0
ENDBLK
  5
99A
330
626
100
AcDbEntity
  8
0
100
AcDbBlockEnd
  0
BLOCK
  5
99B
330
6C3
100
AcDbEntity
  8
0
100
AcDbBlockBegin
  2
*D4
 70
     1
 10
0.0
 20
0.0
 30
0.0
  3
*D4
  1

  0
LINE
  5
99C
330
6C3
100
AcDbEntity
  8
0
  6
BYBLOCK
 62
     4
100
AcDbLine
 10
573.8097030262594
 20
333.5387187177912
 30
0.0
 11
550.4345503568749
 21
324.1898882989096
 31
0.0
  0
LINE
  5
99D
330
6C3
100
AcDbEntity
  8
0
  6
BYBLOCK
 62
     4
100
AcDbLine
 10
581.2366737339511
 20
314.9688477943966
 30
0.0
 11
557.8615210645663
 21
305.620017375515
 31
0.0
  0
LINE
  5
99E
330
6C3
100
AcDbEntity
  8
0
  6
BYBLOCK
 62
     4
100
AcDbLine
 10
550.6205912476909
 20
331.8033887282092
 30
0.0
 11
548.0211515000134
 21
338.3028435513612
 31
0.0
  0
LINE
  5
99F
330
6C3
100
AcDbEntity
  8
0
  6
BYBLOCK
 62
     4
100
AcDbLine
 10
563.2464414507376
 20
300.2346081585105
 30
0.0
 11
565.8458811984152
 21
293.7351533353585
 31
0.0
  0
LINE
  5
9A0
330
6C3
100
AcDbEntity
  8
0
  6
BYBLOCK
 62
     4
100
AcDbLine
 10
553.2200309953686
 20
325.3039339050571
 30
0.0
 11
560.64700170306
 21
306.7340629816625
 31
0.0
  0
INSERT
  5
9A1
330
6C3
100
AcDbEntity
  8
0
  6
BYBLOCK
 62
     4
100
AcDbBlockReference
  2
_OPEN
 10
553.2200309953686
 20
325.3039339050571
 30
0.0
 41
7.0
 42
7.0
 43
7.0
 50
291.7988090140681
  0
INSERT
  5
9A2
330
6C3
100
AcDbEntity
  8
0
  6
BYBLOCK
 62
     4
100
AcDbBlockReference
  2
_OPEN
 10
560.64700170306
 20
306.7340629816625
 30
0.0
 41
7.0
 42
7.0
 43
7.0
 50
111.7988090140681
  0
MTEXT
  5
9A3
330
6C3
100
AcDbEntity
  8
0
  6
BYBLOCK
 62
     4
100
AcDbMText
 10
561.5759840800372
 20
317.8757411202724
 30
0.0
 40
6.0
 41
0.0
 71
     5
 72
     5
  1
\A1;20
 11
0.3713485353825094
 21
-0.9284935461645737
 31
0.0
1001
ACAD
1000
MTEXTBEGIN
1070
    73
1070
     1
1070
    44
1040
1.0
1070
    74
1070
     0
1000
MTEXTEND
1000
MTEXTBEGIN
1070
    73
1070
     1
1070
    44
1040
1.0
1070
    74
1070
     0
1000
MTEXTEND
1000
MTEXTBEGIN
1070
    73
1070
     1
1070
    44
1040
1.0
1070
    74
1070
     0
1000
MTEXTEND
  0
POINT
  5
9A4
330
6C3
100
AcDbEntity
  8
DEFPOINTS
  6
BYBLOCK
 62
     0
100
AcDbPoint
 10
579.3806643032469
 20
335.7668099300862
 30
0.0
  0
POINT
  5
9A5
330
6C3
100
AcDbEntity
  8
DEFPOINTS
  6
BYBLOCK
 62
     0
100
AcDbPoint
 10
586.8076350109385
 20
317.1969390066916
 30
0.0
  0
POINT
  5
9A6
330
6C3
100
AcDbEntity
  8
DEFPOINTS
  6
BYBLOCK
 62
     0
100
AcDbPoint
 10
560.64700170306
 20
306.7340629816625
 30
0.0
  0
ENDBLK
  5
9A7
330
6C3
100
AcDbEntity
  8
0
100
AcDbBlockEnd
  0
BLOCK
  5
6D3
330
6D2
100
AcDbEntity
  8
0
100
AcDbBlockBegin
  2
*D5
 70
     1
 10
0.0
 20
0.0
 30
0.0
  3
*D5
  1

  0
LINE
  5
6D4
330
6D2
100
AcDbEntity
  8
0
  6
BYBLOCK
 62
     4
100
AcDbLine
 10
570.817101778296
 20
356.3398891962465
 30
0.0
 11
535.2001572278286
 21
342.094986527562
 31
0.0
  0
LINE
  5
6D5
330
6D2
100
AcDbEntity
  8
0
  6
BYBLOCK
 62
     4
100
AcDbLine
 10
581.9575578398331
 20
328.4850828111545
 30
0.0
 11
546.3406132893658
 21
314.24018014247
 31
0.0
  0
LINE
  5
6D6
330
6D2
100
AcDbEntity
  8
0
  6
BYBLOCK
 62
     4
100
AcDbLine
 10
540.585077614
 20
336.7095773105575
 30
0.0
 11
546.526654180182
 21
321.8536805717695
 31
0.0
  0
INSERT
  5
6D7
330
6D2
100
AcDbEntity
  8
0
  6
BYBLOCK
 62
     4
100
AcDbBlockReference
  2
_OPEN
 10
537.9856378663224
 20
343.2090321337095
 30
0.0
 41
7.0
 42
7.0
 43
7.0
 50
111.7988090140681
  0
INSERT
  5
6D8
330
6D2
100
AcDbEntity
  8
0
  6
BYBLOCK
 62
     4
100
AcDbBlockReference
  2
_OPEN
 10
549.1260939278596
 20
315.3542257486175
 30
0.0
 41
7.0
 42
7.0
 43
7.0
 50
291.7988090140681
  0
MTEXT
  5
6D9
330
6D2
100
AcDbEntity
  8
0
  6
BYBLOCK
 62
     4
100
AcDbMText
 10
548.1983336279138
 20
331.1383716180761
 30
0.0
 40
6.0
 41
0.0
 71
     5
 72
     5
  1
\A1;30
 11
0.3713485353825094
 21
-0.9284935461645737
 31
0.0
1001
ACAD
1000
MTEXTBEGIN
1070
    73
1070
     1
1070
    44
1040
1.0
1070
    74
1070
     0
1000
MTEXTEND
1000
MTEXTBEGIN
1070
    73
1070
     1
1070
    44
1040
1.0
1070
    74
1070
     0
1000
MTEXTEND
1000
MTEXTBEGIN
1070
    73
1070
     1
1070
    44
1040
1.0
1070
    74
1070
     0
1000
MTEXTEND
  0
POINT
  5
6DA
330
6D2
100
AcDbEntity
  8
DEFPOINTS
  6
BYBLOCK
 62
     0
100
AcDbPoint
 10
576.3880630552834
 20
358.5679804085415
 30
0.0
  0
POINT
  5
6DB
330
6D2
100
AcDbEntity
  8
DEFPOINTS
  6
BYBLOCK
 62
     0
100
AcDbPoint
 10
587.5285191168205
 20
330.7131740234495
 30
0.0
  0
POINT
  5
6DC
330
6D2
100
AcDbEntity
  8
DEFPOINTS
  6
BYBLOCK
 62
     0
100
AcDbPoint
 10
549.1260939278596
 20
315.3542257486175
 30
0.0
  0
ENDBLK
  5
6DD
330
6D2
100
AcDbEntity
  8
0
100
AcDbBlockEnd
  0
BLOCK
  5
6E0
330
6DF
100
AcDbEntity
  8
0
100
AcDbBlockBegin
  2
*D6
 70
     1
 10
0.0
 20
0.0
 30
0.0
  3
*D6
  1

  0
LINE
  5
6E1
330
6DF
100
AcDbEntity
  8
0
  6
BYBLOCK
 62
     4
100
AcDbLine
 10
474.2611315211974
 20
418.0632254766902
 30
0.0
 11
512.822750057408
 21
418.0632254766902
 31
0.0
  0
LINE
  5
6E2
330
6DF
100
AcDbEntity
  8
0
  6
BYBLOCK
 62
     4
100
AcDbLine
 10
474.2611315211974
 20
358.0632254766904
 30
0.0
 11
512.822750057408
 21
358.0632254766904
 31
0.0
  0
LINE
  5
6E3
330
6DF
100
AcDbEntity
  8
0
  6
BYBLOCK
 62
     4
100
AcDbLine
 10
509.822750057408
 20
411.0632254766902
 30
0.0
 11
509.822750057408
 21
365.0632254766904
 31
0.0
  0
INSERT
  5
6E4
330
6DF
100
AcDbEntity
  8
0
  6
BYBLOCK
 62
     4
100
AcDbBlockReference
  2
_OPEN
 10
509.822750057408
 20
418.0632254766902
 30
0.0
 41
7.0
 42
7.0
 43
7.0
 50
90.0
  0
INSERT
  5
6E5
330
6DF
100
AcDbEntity
  8
0
  6
BYBLOCK
 62
     4
100
AcDbBlockReference
  2
_OPEN
 10
509.822750057408
 20
358.0632254766904
 30
0.0
 41
7.0
 42
7.0
 43
7.0
 50
270.0
  0
MTEXT
  5
6E6
330
6DF
100
AcDbEntity
  8
0
  6
BYBLOCK
 62
     4
100
AcDbMText
 10
504.822750057408
 20
388.0632254766903
 30
0.0
 40
6.0
 41
0.0
 71
     5
 72
     5
  1
\A1;60
 11
0.0
 21
1.0
 31
0.0
1001
ACAD
1000
MTEXTBEGIN
1070
    73
1070
     1
1070
    44
1040
1.0
1070
    74
1070
     0
1000
MTEXTEND
1000
MTEXTBEGIN
1070
    73
1070
     1
1070
    44
1040
1.0
1070
    74
1070
     0
1000
MTEXTEND
1000
MTEXTBEGIN
1070
    73
1070
     1
1070
    44
1040
1.0
1070
    74
1070
     0
1000
MTEXTEND
  0
POINT
  5
6E7
330
6DF
100
AcDbEntity
  8
DEFPOINTS
  6
BYBLOCK
 62
     0
100
AcDbPoint
 10
468.2611315211974
 20
418.0632254766902
 30
0.0
  0
POINT
  5
6E8
330
6DF
100
AcDbEntity
  8
DEFPOINTS
  6
BYBLOCK
 62
     0
100
AcDbPoint
 10
468.2611315211974
 20
358.0632254766904
 30
0.0
  0
POINT
  5
6E9
330
6DF
100
AcDbEntity
  8
DEFPOINTS
  6
BYBLOCK
 62
     0
100
AcDbPoint
 10
509.822750057408
 20
358.0632254766904
 30
0.0
  0
ENDBLK
  5
6EA
330
6DF
100
AcDbEntity
  8
0
100
AcDbBlockEnd
  0
BLOCK
  5
8CB
330
6EC
100
AcDbEntity
  8
0
100
AcDbBlockBegin
  2
*D7
 70
     1
 10
0.0
 20
0.0
 30
0.0
  3
*D7
  1

  0
LINE
  5
8CC
330
6EC
100
AcDbEntity
  8
0
  6
BYBLOCK
 62
     4
100
AcDbLine
 10
340.1553900922381
 20
422.4045227290836
 30
0.0
 11
305.0558278406092
 21
422.4045227290836
 31
0.0
  0
LINE
  5
8CD
330
6EC
100
AcDbEntity
  8
0
  6
BYBLOCK
 62
     4
100
AcDbLine
 10
340.1553900922381
 20
397.4045227290836
 30
0.0
 11
305.0558278406092
 21
397.4045227290836
 31
0.0
  0
LINE
  5
8CE
330
6EC
100
AcDbEntity
  8
0
  6
BYBLOCK
 62
     4
100
AcDbLine
 10
308.0558278406092
 20
429.4045227290836
 30
0.0
 11
308.0558278406092
 21
436.4045227290836
 31
0.0
  0
LINE
  5
8CF
330
6EC
100
AcDbEntity
  8
0
  6
BYBLOCK
 62
     4
100
AcDbLine
 10
308.0558278406092
 20
390.4045227290836
 30
0.0
 11
308.0558278406092
 21
383.4045227290836
 31
0.0
  0
LINE
  5
8D0
330
6EC
100
AcDbEntity
  8
0
  6
BYBLOCK
 62
     4
100
AcDbLine
 10
308.0558278406092
 20
422.4045227290836
 30
0.0
 11
308.0558278406092
 21
397.4045227290836
 31
0.0
  0
INSERT
  5
8D1
330
6EC
100
AcDbEntity
  8
0
  6
BYBLOCK
 62
     4
100
AcDbBlockReference
  2
_OPEN
 10
308.0558278406092
 20
422.4045227290836
 30
0.0
 41
7.0
 42
7.0
 43
7.0
 50
270.0
  0
INSERT
  5
8D2
330
6EC
100
AcDbEntity
  8
0
  6
BYBLOCK
 62
     4
100
AcDbBlockReference
  2
_OPEN
 10
308.0558278406092
 20
397.4045227290836
 30
0.0
 41
7.0
 42
7.0
 43
7.0
 50
90.0
  0
MTEXT
  5
8D3
330
6EC
100
AcDbEntity
  8
0
  6
BYBLOCK
 62
     4
100
AcDbMText
 10
303.0558278406092
 20
409.9045227290836
 30
0.0
 40
6.0
 41
0.0
 71
     5
 72
     5
  1
\A1;25
 11
0.0
 21
1.0
 31
0.0
1001
ACAD
1000
MTEXTBEGIN
1070
    73
1070
     1
1070
    44
1040
1.0
1070
    74
1070
     0
1000
MTEXTEND
1000
MTEXTBEGIN
1070
    73
1070
     1
1070
    44
1040
1.0
1070
    74
1070
     0
1000
MTEXTEND
1000
MTEXTBEGIN
1070
    73
1070
     1
1070
    44
1040
1.0
1070
    74
1070
     0
1000
MTEXTEND
  0
POINT
  5
8D4
330
6EC
100
AcDbEntity
  8
DEFPOINTS
  6
BYBLOCK
 62
     0
100
AcDbPoint
 10
346.1553900922381
 20
422.4045227290836
 30
0.0
  0
POINT
  5
8D5
330
6EC
100
AcDbEntity
  8
DEFPOINTS
  6
BYBLOCK
 62
     0
100
AcDbPoint
 10
346.1553900922381
 20
397.4045227290836
 30
0.0
  0
POINT
  5
8D6
330
6EC
100
AcDbEntity
  8
DEFPOINTS
  6
BYBLOCK
 62
     0
100
AcDbPoint
 10
308.0558278406092
 20
397.4045227290836
 30
0.0
  0
ENDBLK
  5
8D7
330
6EC
100
AcDbEntity
  8
0
100
AcDbBlockEnd
  0
BLOCK
  5
983
330
6FD
100
AcDbEntity
  8
0
100
AcDbBlockBegin
  2
*D8
 70
     1
 10
0.0
 20
0.0
 30
0.0
  3
*D8
  1

  0
LINE
  5
984
330
6FD
100
AcDbEntity
  8
0
  6
BYBLOCK
 62
     4
100
AcDbLine
 10
470.8638900922383
 20
266.0373227290838
 30
0.0
 11
470.8638900922383
 21
328.2286035589856
 31
0.0
  0
LINE
  5
985
330
6FD
100
AcDbEntity
  8
0
  6
BYBLOCK
 62
     4
100
AcDbLine
 10
460.9574900922381
 20
259.9070727290837
 30
0.0
 11
460.9574900922381
 21
328.2286035589856
 31
0.0
  0
LINE
  5
986
330
6FD
100
AcDbEntity
  8
0
  6
BYBLOCK
 62
     4
100
AcDbLine
 10
477.8638900922383
 20
325.2286035589857
 30
0.0
 11
484.8638900922384
 21
325.2286035589857
 31
0.0
  0
LINE
  5
987
330
6FD
100
AcDbEntity
  8
0
  6
BYBLOCK
 62
     4
100
AcDbLine
 10
453.9574900922382
 20
325.2286035589857
 30
0.0
 11
435.9574900922381
 21
325.2286035589857
 31
0.0
  0
LINE
  5
988
330
6FD
100
AcDbEntity
  8
0
  6
BYBLOCK
 62
     4
100
AcDbLine
 10
470.8638900922383
 20
325.2286035589857
 30
0.0
 11
460.9574900922381
 21
325.2286035589857
 31
0.0
  0
INSERT
  5
989
330
6FD
100
AcDbEntity
  8
0
  6
BYBLOCK
 62
     4
100
AcDbBlockReference
  2
_OPEN
 10
470.8638900922383
 20
325.2286035589857
 30
0.0
 41
7.0
 42
7.0
 43
7.0
 50
180.0
  0
INSERT
  5
98A
330
6FD
100
AcDbEntity
  8
0
  6
BYBLOCK
 62
     4
100
AcDbBlockReference
  2
_OPEN
 10
460.9574900922381
 20
325.2286035589857
 30
0.0
 41
7.0
 42
7.0
 43
7.0
  0
MTEXT
  5
98B
330
6FD
100
AcDbEntity
  8
0
  6
BYBLOCK
 62
     4
100
AcDbMText
 10
441.4574900922382
 20
330.2286035589856
 30
0.0
 40
6.0
 41
0.0
 71
     5
 72
     5
  1
\A1;10
1001
ACAD
1000
MTEXTBEGIN
1070
    73
1070
     1
1070
    44
1040
1.0
1070
    74
1070
     0
1000
MTEXTEND
1000
MTEXTBEGIN
1070
    73
1070
     1
1070
    44
1040
1.0
1070
    74
1070
     0
1000
MTEXTEND
1000
MTEXTBEGIN
1070
    73
1070
     1
1070
    44
1040
1.0
1070
    74
1070
     0
1000
MTEXTEND
  0
POINT
  5
98C
330
6FD
100
AcDbEntity
  8
DEFPOINTS
  6
BYBLOCK
 62
     0
100
AcDbPoint
 10
470.8638900922383
 20
260.0373227290838
 30
0.0
  0
POINT
  5
98D
330
6FD
100
AcDbEntity
  8
DEFPOINTS
  6
BYBLOCK
 62
     0
100
AcDbPoint
 10
460.9574900922381
 20
253.9070727290837
 30
0.0
  0
POINT
  5
98E
330
6FD
100
AcDbEntity
  8
DEFPOINTS
  6
BYBLOCK
 62
     0
100
AcDbPoint
 10
460.9574900922381
 20
325.2286035589857
 30
0.0
  0
ENDBLK
  5
98F
330
6FD
100
AcDbEntity
  8
0
100
AcDbBlockEnd
  0
BLOCK
  5
96B
330
70C
100
AcDbEntity
  8
0
100
AcDbBlockBegin
  2
*D9
 70
     1
 10
0.0
 20
0.0
 30
0.0
  3
*D9
  1

  0
LINE
  5
96C
330
70C
100
AcDbEntity
  8
0
  6
BYBLOCK
 62
     4
100
AcDbLine
 10
470.8638900922383
 20
266.0373227290838
 30
0.0
 11
470.8638900922383
 21
344.9646267078944
 31
0.0
  0
LINE
  5
96D
330
70C
100
AcDbEntity
  8
0
  6
BYBLOCK
 62
     4
100
AcDbLine
 10
345.4552900922383
 20
283.9046227290838
 30
0.0
 11
345.4552900922383
 21
344.9646267078944
 31
0.0
  0
LINE
  5
96E
330
70C
100
AcDbEntity
  8
0
  6
BYBLOCK
 62
     4
100
AcDbLine
 10
463.8638900922384
 20
341.9646267078944
 30
0.0
 11
352.4552900922383
 21
341.9646267078944
 31
0.0
  0
INSERT
  5
96F
330
70C
100
AcDbEntity
  8
0
  6
BYBLOCK
 62
     4
100
AcDbBlockReference
  2
_OPEN
 10
470.8638900922383
 20
341.9646267078944
 30
0.0
 41
7.0
 42
7.0
 43
7.0
  0
INSERT
  5
970
330
70C
100
AcDbEntity
  8
0
  6
BYBLOCK
 62
     4
100
AcDbBlockReference
  2
_OPEN
 10
345.4552900922383
 20
341.9646267078944
 30
0.0
 41
7.0
 42
7.0
 43
7.0
 50
180.0
  0
MTEXT
  5
971
330
70C
100
AcDbEntity
  8
0
  6
BYBLOCK
 62
     4
100
AcDbMText
 10
408.1595900922383
 20
346.9646267078944
 30
0.0
 40
6.0
 41
0.0
 71
     5
 72
     5
  1
\A1;125
1001
ACAD
1000
MTEXTBEGIN
1070
    73
1070
     1
1070
    44
1040
1.0
1070
    74
1070
     0
1000
MTEXTEND
1000
MTEXTBEGIN
1070
    73
1070
     1
1070
    44
1040
1.0
1070
    74
1070
     0
1000
MTEXTEND
1000
MTEXTBEGIN
1070
    73
1070
     1
1070
    44
1040
1.0
1070
    74
1070
     0
1000
MTEXTEND
  0
POINT
  5
972
330
70C
100
AcDbEntity
  8
DEFPOINTS
  6
BYBLOCK
 62
     0
100
AcDbPoint
 10
470.8638900922383
 20
260.0373227290838
 30
0.0
  0
POINT
  5
973
330
70C
100
AcDbEntity
  8
DEFPOINTS
  6
BYBLOCK
 62
     0
100
AcDbPoint
 10
345.4552900922383
 20
277.9046227290838
 30
0.0
  0
POINT
  5
974
330
70C
100
AcDbEntity
  8
DEFPOINTS
  6
BYBLOCK
 62
     0
100
AcDbPoint
 10
345.4552900922383
 20
341.9646267078944
 30
0.0
  0
ENDBLK
  5
975
330
70C
100
AcDbEntity
  8
0
100
AcDbBlockEnd
  0
BLOCK
  5
830
330
75C
100
AcDbEntity
  8
0
100
AcDbBlockBegin
  2
*D10
 70
     1
 10
0.0
 20
0.0
 30
0.0
  3
*D10
  1

  0
LINE
  5
831
330
75C
100
AcDbEntity
  8
0
  6
BYBLOCK
 62
     4
100
AcDbLine
 10
450.6595315211974
 20
310.8674254766904
 30
0.0
 11
431.1942726453035
 21
310.8674254766904
 31
0.0
  0
LINE
  5
832
330
75C
100
AcDbEntity
  8
0
  6
BYBLOCK
 62
     4
100
AcDbLine
 10
452.8266315211972
 20
273.0607754766904
 30
0.0
 11
431.1942726453035
 21
273.0607754766904
 31
0.0
  0
LINE
  5
833
330
75C
100
AcDbEntity
  8
0
  6
BYBLOCK
 62
     4
100
AcDbLine
 10
434.1942726453035
 20
303.8674254766904
 30
0.0
 11
434.1942726453035
 21
280.0607754766904
 31
0.0
  0
INSERT
  5
834
330
75C
100
AcDbEntity
  8
0
  6
BYBLOCK
 62
     4
100
AcDbBlockReference
  2
_OPEN
 10
434.1942726453035
 20
310.8674254766904
 30
0.0
 41
7.0
 42
7.0
 43
7.0
 50
90.0
  0
INSERT
  5
835
330
75C
100
AcDbEntity
  8
0
  6
BYBLOCK
 62
     4
100
AcDbBlockReference
  2
_OPEN
 10
434.1942726453035
 20
273.0607754766904
 30
0.0
 41
7.0
 42
7.0
 43
7.0
 50
270.0
  0
MTEXT
  5
836
330
75C
100
AcDbEntity
  8
0
  6
BYBLOCK
 62
     4
100
AcDbMText
 10
429.1942726453036
 20
291.9641004766904
 30
0.0
 40
6.0
 41
0.0
 71
     5
 72
     5
  1
\A1;38
 11
0.0
 21
1.0
 31
0.0
1001
ACAD
1000
MTEXTBEGIN
1070
    73
1070
     1
1070
    44
1040
1.0
1070
    74
1070
     0
1000
MTEXTEND
1000
MTEXTBEGIN
1070
    73
1070
     1
1070
    44
1040
1.0
1070
    74
1070
     0
1000
MTEXTEND
1000
MTEXTBEGIN
1070
    73
1070
     1
1070
    44
1040
1.0
1070
    74
1070
     0
1000
MTEXTEND
  0
POINT
  5
837
330
75C
100
AcDbEntity
  8
DEFPOINTS
  6
BYBLOCK
 62
     0
100
AcDbPoint
 10
456.6595315211975
 20
310.8674254766904
 30
0.0
  0
POINT
  5
838
330
75C
100
AcDbEntity
  8
DEFPOINTS
  6
BYBLOCK
 62
     0
100
AcDbPoint
 10
458.8266315211972
 20
273.0607754766904
 30
0.0
  0
POINT
  5
839
330
75C
100
AcDbEntity
  8
DEFPOINTS
  6
BYBLOCK
 62
     0
100
AcDbPoint
 10
434.1942726453035
 20
273.0607754766904
 30
0.0
  0
ENDBLK
  5
83A
330
75C
100
AcDbEntity
  8
0
100
AcDbBlockEnd
  0
BLOCK
  5
8C0
330
769
100
AcDbEntity
  8
0
100
AcDbBlockBegin
  2
*D11
 70
     1
 10
0.0
 20
0.0
 30
0.0
  3
*D11
  1

  0
LINE
  5
8C1
330
769
100
AcDbEntity
  8
0
  6
BYBLOCK
 62
     4
100
AcDbLine
 10
339.4552900922383
 20
277.9046227290838
 30
0.0
 11
305.0640975995011
 21
277.9046227290838
 31
0.0
  0
LINE
  5
8C2
330
769
100
AcDbEntity
  8
0
  6
BYBLOCK
 62
     4
100
AcDbLine
 10
363.6997900922383
 20
203.4046227290837
 30
0.0
 11
305.0640975995011
 21
203.4046227290837
 31
0.0
  0
LINE
  5
8C3
330
769
100
AcDbEntity
  8
0
  6
BYBLOCK
 62
     4
100
AcDbLine
 10
308.0640975995011
 20
270.9046227290838
 30
0.0
 11
308.0640975995011
 21
210.4046227290837
 31
0.0
  0
INSERT
  5
8C4
330
769
100
AcDbEntity
  8
0
  6
BYBLOCK
 62
     4
100
AcDbBlockReference
  2
_OPEN
 10
308.0640975995011
 20
277.9046227290838
 30
0.0
 41
7.0
 42
7.0
 43
7.0
 50
90.0
  0
INSERT
  5
8C5
330
769
100
AcDbEntity
  8
0
  6
BYBLOCK
 62
     4
100
AcDbBlockReference
  2
_OPEN
 10
308.0640975995011
 20
203.4046227290837
 30
0.0
 41
7.0
 42
7.0
 43
7.0
 50
270.0
  0
MTEXT
  5
8C6
330
769
100
AcDbEntity
  8
0
  6
BYBLOCK
 62
     4
100
AcDbMText
 10
303.0640975995011
 20
240.6546227290837
 30
0.0
 40
6.0
 41
0.0
 71
     5
 72
     5
  1
\A1;75
 11
0.0
 21
1.0
 31
0.0
1001
ACAD
1000
MTEXTBEGIN
1070
    73
1070
     1
1070
    44
1040
1.0
1070
    74
1070
     0
1000
MTEXTEND
1000
MTEXTBEGIN
1070
    73
1070
     1
1070
    44
1040
1.0
1070
    74
1070
     0
1000
MTEXTEND
1000
MTEXTBEGIN
1070
    73
1070
     1
1070
    44
1040
1.0
1070
    74
1070
     0
1000
MTEXTEND
  0
POINT
  5
8C7
330
769
100
AcDbEntity
  8
DEFPOINTS
  6
BYBLOCK
 62
     0
100
AcDbPoint
 10
345.4552900922383
 20
277.9046227290838
 30
0.0
  0
POINT
  5
8C8
330
769
100
AcDbEntity
  8
DEFPOINTS
  6
BYBLOCK
 62
     0
100
AcDbPoint
 10
369.6997900922383
 20
203.4046227290837
 30
0.0
  0
POINT
  5
8C9
330
769
100
AcDbEntity
  8
DEFPOINTS
  6
BYBLOCK
 62
     0
100
AcDbPoint
 10
308.0640975995011
 20
203.4046227290837
 30
0.0
  0
ENDBLK
  5
8CA
330
769
100
AcDbEntity
  8
0
100
AcDbBlockEnd
  0
BLOCK
  5
9FC
330
848
100
AcDbEntity
  8
0
100
AcDbBlockBegin
  2
*D12
 70
     1
 10
0.0
 20
0.0
 30
0.0
  3
*D12
  1

  0
LINE
  5
9FD
330
848
100
AcDbEntity
  8
0
  6
BYBLOCK
 62
     4
100
AcDbLine
 10
463.3662585133862
 20
294.9370460975067
 30
0.0
 11
473.6760641788069
 21
299.0609239476717
 31
0.0
  0
LINE
  5
9FE
330
848
100
AcDbEntity
  8
0
  6
BYBLOCK
 62
     4
100
AcDbLine
 10
474.5078585133862
 20
267.0827460975067
 30
0.0
 11
484.8176641788069
 21
271.2066239476716
 31
0.0
  0
LINE
  5
9FF
330
848
100
AcDbEntity
  8
0
  6
BYBLOCK
 62
     4
100
AcDbLine
 10
473.4903405647263
 20
291.4474157721213
 30
0.0
 11
479.4325193717398
 21
276.5918087547992
 31
0.0
  0
INSERT
  5
A00
330
848
100
AcDbEntity
  8
0
  6
BYBLOCK
 62
     4
100
AcDbBlockReference
  2
_OPEN
 10
470.8906299682331
 20
297.9467622634603
 30
0.0
 41
7.0
 42
7.0
 43
7.0
 50
111.801196694847
  0
INSERT
  5
A01
330
848
100
AcDbEntity
  8
0
  6
BYBLOCK
 62
     4
100
AcDbBlockReference
  2
_OPEN
 10
482.032229968233
 20
270.0924622634602
 30
0.0
 41
7.0
 42
7.0
 43
7.0
 50
291.8011966948469
  0
MTEXT
  5
A02
330
848
100
AcDbEntity
  8
0
  6
BYBLOCK
 62
     4
100
AcDbMText
 10
480.5467478981409
 20
287.2692444562303
 30
0.0
 40
6.0
 41
0.0
 71
     5
 72
     5
  1
\A1;30
 11
0.3713872280704665
 21
-0.9284780701912863
 31
0.0
1001
ACAD
1000
MTEXTBEGIN
1070
    73
1070
     1
1070
    44
1040
1.0
1070
    74
1070
     0
1000
MTEXTEND
1000
MTEXTBEGIN
1070
    73
1070
     1
1070
    44
1040
1.0
1070
    74
1070
     0
1000
MTEXTEND
1000
MTEXTBEGIN
1070
    73
1070
     1
1070
    44
1040
1.0
1070
    74
1070
     0
1000
MTEXTEND
  0
POINT
  5
A03
330
848
100
AcDbEntity
  8
DEFPOINTS
  6
BYBLOCK
 62
     0
100
AcDbPoint
 10
457.7953900922385
 20
292.7087227290839
 30
0.0
  0
POINT
  5
A04
330
848
100
AcDbEntity
  8
DEFPOINTS
  6
BYBLOCK
 62
     0
100
AcDbPoint
 10
468.9369900922384
 20
264.8544227290838
 30
0.0
  0
POINT
  5
A05
330
848
100
AcDbEntity
  8
DEFPOINTS
  6
BYBLOCK
 62
     0
100
AcDbPoint
 10
482.032229968233
 20
270.0924622634602
 30
0.0
  0
ENDBLK
  5
A06
330
848
100
AcDbEntity
  8
0
100
AcDbBlockEnd
  0
BLOCK
  5
95E
330
935
100
AcDbEntity
  8
0
100
AcDbBlockBegin
  2
*D13
 70
     1
 10
0.0
 20
0.0
 30
0.0
  3
*D13
  1

  0
LINE
  5
95F
330
935
100
AcDbEntity
  8
0
  6
BYBLOCK
 62
     4
100
AcDbLine
 10
469.772627253822
 20
258.7264798251559
 30
0.0
 11
486.8544189642322
 21
216.02200054913
 31
0.0
  0
LINE
  5
960
330
935
100
AcDbEntity
  8
0
  6
BYBLOCK
 62
     4
100
AcDbLine
 10
471.1653807903132
 20
259.2835812397523
 30
0.0
 11
488.2471725007233
 21
216.5791019637265
 31
0.0
  0
LINE
  5
961
330
935
100
AcDbEntity
  8
0
  6
BYBLOCK
 62
     4
100
AcDbLine
 10
479.2409100989731
 20
216.2076958873071
 30
0.0
 11
472.7415732627762
 21
213.6079611528284
 31
0.0
  0
LINE
  5
962
330
935
100
AcDbEntity
  8
0
  6
BYBLOCK
 62
     4
100
AcDbLine
 10
493.6323373078578
 20
221.964266770861
 30
0.0
 11
518.7012079617598
 21
231.9918150324217
 31
0.0
  0
LINE
  5
963
330
935
100
AcDbEntity
  8
0
  6
BYBLOCK
 62
     4
100
AcDbLine
 10
485.74024693517
 20
218.8074306217858
 30
0.0
 11
487.133000471661
 21
219.3645320363823
 31
0.0
  0
INSERT
  5
964
330
935
100
AcDbEntity
  8
0
  6
BYBLOCK
 62
     4
100
AcDbBlockReference
  2
_OPEN
 10
485.74024693517
 20
218.8074306217858
 30
0.0
 41
7.0
 42
7.0
 43
7.0
 50
21.80140948635168
  0
INSERT
  5
965
330
935
100
AcDbEntity
  8
0
  6
BYBLOCK
 62
     4
100
AcDbBlockReference
  2
_OPEN
 10
487.133000471661
 20
219.3645320363823
 30
0.0
 41
7.0
 42
7.0
 43
7.0
 50
201.8014094863516
  0
MTEXT
  5
966
330
935
100
AcDbEntity
  8
0
  6
BYBLOCK
 62
     4
100
AcDbMText
 10
507.5594876711368
 20
232.920291723307
 30
0.0
 40
6.0
 41
0.0
 71
     5
 72
     5
  1
\A1;t1.5
 11
0.9284766908852603
 21
0.3713906763541011
 31
0.0
1001
ACAD
1000
MTEXTBEGIN
1070
    73
1070
     1
1070
    44
1040
1.0
1070
    74
1070
     0
1000
MTEXTEND
1000
MTEXTBEGIN
1070
    73
1070
     1
1070
    44
1040
1.0
1070
    74
1070
     0
1000
MTEXTEND
1000
MTEXTBEGIN
1070
    73
1070
     1
1070
    44
1040
1.0
1070
    74
1070
     0
1000
MTEXTEND
  0
POINT
  5
967
330
935
100
AcDbEntity
  8
DEFPOINTS
  6
BYBLOCK
 62
     0
100
AcDbPoint
 10
467.5442831956974
 20
264.2973399704674
 30
0.0
  0
POINT
  5
968
330
935
100
AcDbEntity
  8
DEFPOINTS
  6
BYBLOCK
 62
     0
100
AcDbPoint
 10
468.9370367321886
 20
264.8544413850639
 30
0.0
  0
POINT
  5
969
330
935
100
AcDbEntity
  8
DEFPOINTS
  6
BYBLOCK
 62
     0
100
AcDbPoint
 10
487.133000471661
 20
219.3645320363823
 30
0.0
  0
ENDBLK
  5
96A
330
935
100
AcDbEntity
  8
0
100
AcDbBlockEnd
  0
BLOCK
  5
9F0
330
9EF
100
AcDbEntity
  8
0
100
AcDbBlockBegin
  2
*D14
 70
     1
 10
0.0
 20
0.0
 30
0.0
  3
*D14
  1

  0
LINE
  5
9F1
330
9EF
100
AcDbEntity
  8
0
  6
BYBLOCK
 62
     4
100
AcDbLine
 10
463.7953900922384
 20
292.7087227290838
 30
0.0
 11
536.234716372659
 21
292.7087227290838
 31
0.0
  0
LINE
  5
9F2
330
9EF
100
AcDbEntity
  8
0
  6
BYBLOCK
 62
     4
100
AcDbLine
 10
443.9553183677258
 20
161.2045921523262
 30
0.0
 11
536.234716372659
 21
161.2045921523262
 31
0.0
  0
LINE
  5
9F3
330
9EF
100
AcDbEntity
  8
0
  6
BYBLOCK
 62
     4
100
AcDbLine
 10
533.234716372659
 20
285.7087227290838
 30
0.0
 11
533.234716372659
 21
168.2045921523262
 31
0.0
  0
INSERT
  5
9F4
330
9EF
100
AcDbEntity
  8
0
  6
BYBLOCK
 62
     4
100
AcDbBlockReference
  2
_OPEN
 10
533.234716372659
 20
292.7087227290838
 30
0.0
 41
7.0
 42
7.0
 43
7.0
 50
90.0
  0
INSERT
  5
9F5
330
9EF
100
AcDbEntity
  8
0
  6
BYBLOCK
 62
     4
100
AcDbBlockReference
  2
_OPEN
 10
533.234716372659
 20
161.2045921523262
 30
0.0
 41
7.0
 42
7.0
 43
7.0
 50
270.0
  0
MTEXT
  5
9F6
330
9EF
100
AcDbEntity
  8
0
  6
BYBLOCK
 62
     4
100
AcDbMText
 10
528.234716372659
 20
226.956657440705
 30
0.0
 40
6.0
 41
0.0
 71
     5
 72
     5
  1
\A1;132
 11
0.0
 21
1.0
 31
0.0
1001
ACAD
1000
MTEXTBEGIN
1070
    73
1070
     1
1070
    44
1040
1.0
1070
    74
1070
     0
1000
MTEXTEND
1000
MTEXTBEGIN
1070
    73
1070
     1
1070
    44
1040
1.0
1070
    74
1070
     0
1000
MTEXTEND
1000
MTEXTBEGIN
1070
    73
1070
     1
1070
    44
1040
1.0
1070
    74
1070
     0
1000
MTEXTEND
  0
POINT
  5
9F7
330
9EF
100
AcDbEntity
  8
DEFPOINTS
  6
BYBLOCK
 62
     0
100
AcDbPoint
 10
457.7953900922383
 20
292.7087227290838
 30
0.0
  0
POINT
  5
9F8
330
9EF
100
AcDbEntity
  8
DEFPOINTS
  6
BYBLOCK
 62
     0
100
AcDbPoint
 10
437.9553183677257
 20
161.2045921523262
 30
0.0
  0
POINT
  5
9F9
330
9EF
100
AcDbEntity
  8
DEFPOINTS
  6
BYBLOCK
 62
     0
100
AcDbPoint
 10
533.234716372659
 20
161.2045921523262
 30
0.0
  0
ENDBLK
  5
9FA
330
9EF
100
AcDbEntity
  8
0
100
AcDbBlockEnd
  0
ENDSEC
  0
SECTION
  2
ENTITIES
  0
INSERT
  5
39A
330
1A
100
AcDbEntity
  8
0
100
AcDbBlockReference
  2
A$C1305
 10
346.7724310078043
 20
171.5811604068486
 30
0.0
  0
LINE
  5
39C
330
1A
100
AcDbEntity
  8
SEIHIN
  6
CONTINUOUS
 62
     3
 48
16.0
100
AcDbLine
 10
397.9552900922383
 20
162.1932810441508
 30
0.0
 11
411.9552900922383
 21
162.1932810441508
 31
0.0
  0
LINE
  5
39D
330
1A
100
AcDbEntity
  8
SEIHIN
  6
CONTINUOUS
 62
     3
 48
16.0
100
AcDbLine
 10
403.9552900922382
 20
170.1932810441508
 30
0.0
 11
438.2108900922383
 21
170.1932810441508
 31
0.0
  0
LINE
  5
39E
330
1A
100
AcDbEntity
  8
SEIHIN
  6
CONTINUOUS
 62
     3
 48
16.0
100
AcDbLine
 10
403.9552900922382
 20
171.6932810441508
 30
0.0
 11
437.0758900922381
 21
171.6932810441508
 31
0.0
  0
LINE
  5
39F
330
1A
100
AcDbEntity
  8
SEIHIN
  6
CONTINUOUS
 62
     3
 48
16.0
100
AcDbLine
 10
410.4937900922383
 20
401.2042881204733
 30
0.0
 11
449.4348900922382
 21
401.2042881204733
 31
0.0
  0
LINE
  5
3A0
330
1A
100
AcDbEntity
  8
SEIHIN
  6
CONTINUOUS
 62
     3
 48
16.0
100
AcDbLine
 10
403.9553900922383
 20
396.2042881204734
 30
0.0
 11
449.4348900922382
 21
396.2042881204734
 31
0.0
  0
LINE
  5
3A1
330
1A
100
AcDbEntity
  8
CENTER_L
  6
CENTER
 62
     1
 48
5.0
100
AcDbLine
 10
403.9553900922383
 20
403.7042881204732
 30
0.0
 11
492.3436900922383
 21
403.7042881204732
 31
0.0
  0
LINE
  5
3A2
330
1A
100
AcDbEntity
  8
SEIHIN
  6
CONTINUOUS
 62
     3
 48
16.0
100
AcDbLine
 10
403.9553900922383
 20
411.2043881204734
 30
0.0
 11
449.4348900922382
 21
411.2042881204734
 31
0.0
  0
LINE
  5
3A3
330
1A
100
AcDbEntity
  8
SEIHIN
  6
CONTINUOUS
 62
     3
 48
16.0
100
AcDbLine
 10
403.9553900922383
 20
392.7042881204734
 30
0.0
 11
437.0758900922381
 21
392.7042881204734
 31
0.0
  0
LINE
  5
3A4
330
1A
100
AcDbEntity
  8
SEIHIN
  6
CONTINUOUS
 62
     3
 48
16.0
100
AcDbLine
 10
403.9553900922383
 20
414.7043881204734
 30
0.0
 11
437.0758900922381
 21
414.7043881204734
 31
0.0
  0
LINE
  5
3A5
330
1A
100
AcDbEntity
  8
SEIHIN
  6
CONTINUOUS
 62
     3
 48
16.0
100
AcDbLine
 10
410.4937900922383
 20
406.2043881204735
 30
0.0
 11
449.4348900922382
 21
406.2042881204734
 31
0.0
  0
LINE
  5
3AC
330
1A
100
AcDbEntity
  8
SEIHIN
  6
CONTINUOUS
 62
     3
 48
16.0
100
AcDbLine
 10
239.6774078088032
 20
244.6932810441509
 30
0.0
 11
236.1774078088032
 21
244.6932810441509
 31
0.0
  0
LINE
  5
3AD
330
1A
100
AcDbEntity
  8
SEIHIN
  6
CONTINUOUS
 62
     3
 48
16.0
100
AcDbLine
 10
256.1775069131323
 20
259.4975810441507
 30
0.0
 11
235.6775069131322
 21
259.4975810441507
 31
0.0
  0
LINE
  5
3AE
330
1A
100
AcDbEntity
  8
SEIHIN
  6
CONTINUOUS
 62
     3
 48
16.0
100
AcDbLine
 10
237.1775069131322
 20
258.9975810441507
 30
0.0
 11
256.1775069131323
 21
258.9975810441507
 31
0.0
  0
LINE
  5
3AF
330
1A
100
AcDbEntity
  8
SEIHIN
  6
CONTINUOUS
 62
     3
 48
16.0
100
AcDbLine
 10
238.6774069131321
 20
207.8933810441508
 30
0.0
 11
227.1774069131321
 21
207.8933810441508
 31
0.0
  0
ARC
  5
3B0
330
1A
100
AcDbEntity
  8
SEIHIN
  6
CONTINUOUS
 62
     3
 48
16.0
100
AcDbCircle
 10
197.9471069126308
 20
176.0733810441508
 30
0.0
 40
19.0651576995387
100
AcDbArc
 50
342.9814976594928
 51
17.01850234050716
  0
ARC
  5
3B1
330
1A
100
AcDbEntity
  8
SEIHIN
  6
CONTINUOUS
 62
     3
 48
16.0
100
AcDbCircle
 10
256.4078069132576
 20
176.0734310441509
 30
0.0
 40
19.06517233326444
100
AcDbArc
 50
162.9813539761858
 51
197.0186460238141
  0
LINE
  5
3B2
330
1A
100
AcDbEntity
  8
SEIHIN
  6
CONTINUOUS
 62
     3
 48
16.0
100
AcDbLine
 10
229.1774069131321
 20
169.9933810441509
 30
0.0
 11
229.1774069131321
 21
207.8933810441508
 31
0.0
  0
LINE
  5
3B3
330
1A
100
AcDbEntity
  8
SEIHIN
  6
CONTINUOUS
 62
     3
 48
16.0
100
AcDbLine
 10
235.1774069131321
 20
169.9933810441509
 30
0.0
 11
235.1774069131321
 21
207.8933810441508
 31
0.0
  0
LINE
  5
3B6
330
1A
100
AcDbEntity
  8
SEIHIN
  6
CONTINUOUS
 62
     3
 48
16.0
100
AcDbLine
 10
219.1774069131322
 20
169.9933810441509
 30
0.0
 11
219.1775069131322
 21
207.8933810441508
 31
0.0
  0
LINE
  5
3B7
330
1A
100
AcDbEntity
  8
SEIHIN
  6
CONTINUOUS
 62
     3
 48
16.0
100
AcDbLine
 10
225.1774069131321
 20
169.9933810441509
 30
0.0
 11
225.1775069131322
 21
207.8933810441508
 31
0.0
  0
LINE
  5
3BA
330
1A
100
AcDbEntity
  8
CENTER_L
  6
CENTER
 62
     1
 48
5.0
100
AcDbLine
 10
227.1774069131321
 20
122.1358810441508
 30
0.0
 11
227.1775069131322
 21
267.2672810441507
 31
0.0
  0
ARC
  5
3BB
330
1A
100
AcDbEntity
  8
SEIHIN
  6
CONTINUOUS
 62
     3
 48
16.0
100
AcDbCircle
 10
234.6790069131322
 20
129.9934810441508
 30
0.0
 40
2.000000000000042
100
AcDbArc
 50
270.0000000000012
 51
0.0000000000012213
  0
ARC
  5
3BC
330
1A
100
AcDbEntity
  8
SEIHIN
  6
CONTINUOUS
 62
     3
 48
16.0
100
AcDbCircle
 10
219.6755069131323
 20
129.9934810441508
 30
0.0
 40
2.000000000000042
100
AcDbArc
 50
179.9999999999987
 51
269.9999999999987
  0
LINE
  5
3C3
330
1A
100
AcDbEntity
  8
SEIHIN
  6
CONTINUOUS
 62
     3
 48
16.0
100
AcDbLine
 10
234.6790069131322
 20
127.9934810441508
 30
0.0
 11
219.6755069131322
 21
127.9934810441508
 31
0.0
  0
LINE
  5
3C4
330
1A
100
AcDbEntity
  8
SEIHIN
  6
CONTINUOUS
 62
     3
 48
16.0
100
AcDbLine
 10
236.6790069131322
 20
129.9934810441509
 30
0.0
 11
236.6792069131321
 21
169.7525810441508
 31
0.0
  0
LINE
  5
3C5
330
1A
100
AcDbEntity
  8
SEIHIN
  6
CONTINUOUS
 62
     3
 48
16.0
100
AcDbLine
 10
217.6755069131322
 20
129.9934810441509
 30
0.0
 11
217.6757069131322
 21
169.7525810441508
 31
0.0
  0
LINE
  5
3C6
330
1A
100
AcDbEntity
  8
SEIHIN
  6
CONTINUOUS
 62
     3
 48
16.0
100
AcDbLine
 10
223.0392069131322
 20
165.2170810441508
 30
0.0
 11
221.8156069131322
 21
162.7697810441508
 31
0.0
  0
ARC
  5
3C7
330
1A
100
AcDbEntity
  8
SEIHIN
  6
CONTINUOUS
 62
     3
 48
16.0
100
AcDbCircle
 10
222.4864192103774
 20
166.4934886442665
 30
0.0
 40
0.4999924000356015
100
AcDbArc
 50
90.00140918192562
 51
153.4363580048741
  0
LINE
  5
3C8
330
1A
100
AcDbEntity
  8
SEIHIN
  6
CONTINUOUS
 62
     3
 48
16.0
100
AcDbLine
 10
227.1774069131321
 20
166.9933810441509
 30
0.0
 11
222.1774069131321
 21
166.9933810441509
 31
0.0
  0
LINE
  5
3C9
330
1A
100
AcDbEntity
  8
SEIHIN
  6
CONTINUOUS
 62
     3
 48
16.0
100
AcDbLine
 10
227.1774069131321
 20
166.9933810441509
 30
0.0
 11
222.1774069131321
 21
166.9933810441509
 31
0.0
  0
ARC
  5
3CA
330
1A
100
AcDbEntity
  8
SEIHIN
  6
CONTINUOUS
 62
     3
 48
16.0
100
AcDbCircle
 10
222.1774069131321
 20
169.9933810441509
 30
0.0
 40
3.0
100
AcDbArc
 50
180.0
 51
0.0
  0
ARC
  5
3CB
330
1A
100
AcDbEntity
  8
SEIHIN
  6
CONTINUOUS
 62
     3
 48
16.0
100
AcDbCircle
 10
219.6757069131322
 20
164.4932810441508
 30
0.0
 40
2.000000000000028
100
AcDbArc
 50
180.0000000000007
 51
270.0000000000008
  0
ARC
  5
3CC
330
1A
100
AcDbEntity
  8
SEIHIN
  6
CONTINUOUS
 62
     3
 48
16.0
100
AcDbCircle
 10
220.1757069131322
 20
164.9934810441508
 30
0.0
 40
0.9999999999999715
100
AcDbArc
 50
179.9999999999983
 51
269.9999999999983
  0
ARC
  5
3CD
330
1A
100
AcDbEntity
  8
SEIHIN
  6
CONTINUOUS
 62
     3
 48
16.0
100
AcDbCircle
 10
220.3683946158871
 20
164.4934734440353
 30
0.0
 40
0.4999924000356584
100
AcDbArc
 50
270.0014091819138
 51
333.4363580048484
  0
LINE
  5
3CE
330
1A
100
AcDbEntity
  8
SEIHIN
  6
CONTINUOUS
 62
     3
 48
16.0
100
AcDbLine
 10
219.6757069131322
 20
162.4932810441508
 30
0.0
 11
221.3684069131322
 21
162.4933810441509
 31
0.0
  0
LINE
  5
3CF
330
1A
100
AcDbEntity
  8
SEIHIN
  6
CONTINUOUS
 62
     3
 48
16.0
100
AcDbLine
 10
220.3684069131322
 20
163.9934810441509
 30
0.0
 11
220.1757069131322
 21
163.9934810441509
 31
0.0
  0
ARC
  5
3D0
330
1A
100
AcDbEntity
  8
SEIHIN
  6
CONTINUOUS
 62
     3
 48
16.0
100
AcDbCircle
 10
221.368394615887
 20
162.9933734440354
 30
0.0
 40
0.4999924000357507
100
AcDbArc
 50
270.0014091819187
 51
333.4363580048528
  0
LINE
  5
3D1
330
1A
100
AcDbEntity
  8
SEIHIN
  6
CONTINUOUS
 62
     3
 48
16.0
100
AcDbLine
 10
216.1774069131321
 20
170.4933810441509
 30
0.0
 11
219.1774069131322
 21
170.4933810441509
 31
0.0
  0
LINE
  5
3D2
330
1A
100
AcDbEntity
  8
SEIHIN
  6
CONTINUOUS
 62
     3
 48
16.0
100
AcDbLine
 10
219.1757069131322
 20
164.9934810441509
 30
0.0
 11
219.1757069131322
 21
170.4934810441509
 31
0.0
  0
LINE
  5
3D3
330
1A
100
AcDbEntity
  8
SEIHIN
  6
CONTINUOUS
 62
     3
 48
16.0
100
AcDbLine
 10
219.1757069131322
 20
170.4934810441509
 30
0.0
 11
218.6757069131322
 21
170.4934810441509
 31
0.0
  0
LINE
  5
3D4
330
1A
100
AcDbEntity
  8
SEIHIN
  6
CONTINUOUS
 62
     3
 48
16.0
100
AcDbLine
 10
222.0392069131322
 20
166.7170810441508
 30
0.0
 11
220.8156069131323
 21
164.2698810441508
 31
0.0
  0
ARC
  5
3D5
330
1A
100
AcDbEntity
  8
SEIHIN
  6
CONTINUOUS
 62
     3
 48
16.0
100
AcDbCircle
 10
218.6757069131322
 20
169.4934810441508
 30
0.0
 40
1.000000000000028
100
AcDbArc
 50
89.99999999999836
 51
179.9999999999983
  0
LINE
  5
3D6
330
1A
100
AcDbEntity
  8
SEIHIN
  6
CONTINUOUS
 62
     3
 48
16.0
100
AcDbLine
 10
231.3156069131323
 20
165.2169810441509
 30
0.0
 11
232.5392069131322
 21
162.7696810441508
 31
0.0
  0
ARC
  5
3D7
330
1A
100
AcDbEntity
  8
SEIHIN
  6
CONTINUOUS
 62
     3
 48
16.0
100
AcDbCircle
 10
234.6791069131322
 20
164.4932810441508
 30
0.0
 40
2.0
100
AcDbArc
 50
270.0
 51
0.0
  0
ARC
  5
3D8
330
1A
100
AcDbEntity
  8
SEIHIN
  6
CONTINUOUS
 62
     3
 48
16.0
100
AcDbCircle
 10
234.1792069131321
 20
164.9933810441508
 30
0.0
 40
0.9999999999999715
100
AcDbArc
 50
270.0000000000016
 51
0.0000000000016284
  0
ARC
  5
3D9
330
1A
100
AcDbEntity
  8
SEIHIN
  6
CONTINUOUS
 62
     3
 48
16.0
100
AcDbCircle
 10
233.9864192103774
 20
164.4933734440354
 30
0.0
 40
0.499992400035752
100
AcDbArc
 50
206.5636419951471
 51
269.9985908180812
  0
LINE
  5
3DA
330
1A
100
AcDbEntity
  8
SEIHIN
  6
CONTINUOUS
 62
     3
 48
16.0
100
AcDbLine
 10
230.1774069131321
 20
162.4933810441509
 30
0.0
 11
230.1774069131321
 21
165.4933810441508
 31
0.0
  0
LINE
  5
3DB
330
1A
100
AcDbEntity
  8
SEIHIN
  6
CONTINUOUS
 62
     3
 48
16.0
100
AcDbLine
 10
224.1774069131321
 20
162.4933810441509
 30
0.0
 11
224.1774069131321
 21
165.4933810441508
 31
0.0
  0
LINE
  5
3DC
330
1A
100
AcDbEntity
  8
SEIHIN
  6
CONTINUOUS
 62
     3
 48
16.0
100
AcDbLine
 10
227.1774069131321
 20
162.4933810441509
 30
0.0
 11
230.1774069131321
 21
162.4934810441509
 31
0.0
  0
LINE
  5
3DD
330
1A
100
AcDbEntity
  8
SEIHIN
  6
CONTINUOUS
 62
     3
 48
16.0
100
AcDbLine
 10
227.1774069131321
 20
162.4933810441509
 30
0.0
 11
224.1774069131321
 21
162.4934810441509
 31
0.0
  0
LINE
  5
3DE
330
1A
100
AcDbEntity
  8
SEIHIN
  6
CONTINUOUS
 62
     3
 48
16.0
100
AcDbLine
 10
233.9864069131322
 20
163.9933810441509
 30
0.0
 11
234.1792069131322
 21
163.9933810441509
 31
0.0
  0
LINE
  5
3DF
330
1A
100
AcDbEntity
  8
SEIHIN
  6
CONTINUOUS
 62
     3
 48
16.0
100
AcDbLine
 10
234.6791069131322
 20
162.4932810441508
 30
0.0
 11
232.9864069131322
 21
162.4932810441508
 31
0.0
  0
ARC
  5
3E0
330
1A
100
AcDbEntity
  8
SEIHIN
  6
CONTINUOUS
 62
     3
 48
16.0
100
AcDbCircle
 10
232.9864192103774
 20
162.9932734440352
 30
0.0
 40
0.4999924000356599
100
AcDbArc
 50
206.5636419951405
 51
269.9985908180747
  0
LINE
  5
3E1
330
1A
100
AcDbEntity
  8
SEIHIN
  6
CONTINUOUS
 62
     3
 48
16.0
100
AcDbLine
 10
227.1774069131321
 20
165.4933810441508
 30
0.0
 11
230.8684069131322
 21
165.4933810441508
 31
0.0
  0
LINE
  5
3E2
330
1A
100
AcDbEntity
  8
SEIHIN
  6
CONTINUOUS
 62
     3
 48
16.0
100
AcDbLine
 10
227.1774069131321
 20
166.9933810441509
 30
0.0
 11
232.1774069131322
 21
166.9933810441509
 31
0.0
  0
LINE
  5
3E3
330
1A
100
AcDbEntity
  8
SEIHIN
  6
CONTINUOUS
 62
     3
 48
16.0
100
AcDbLine
 10
227.1774069131321
 20
166.9933810441509
 30
0.0
 11
231.8684069131322
 21
166.9933810441509
 31
0.0
  0
ARC
  5
3E4
330
1A
100
AcDbEntity
  8
SEIHIN
  6
CONTINUOUS
 62
     3
 48
16.0
100
AcDbCircle
 10
232.1774069131322
 20
169.9933810441509
 30
0.0
 40
3.0
100
AcDbArc
 50
180.0
 51
0.0
  0
LINE
  5
3E5
330
1A
100
AcDbEntity
  8
SEIHIN
  6
CONTINUOUS
 62
     3
 48
16.0
100
AcDbLine
 10
229.1774069131321
 20
170.4933810441509
 30
0.0
 11
227.1774069131321
 21
170.4933810441509
 31
0.0
  0
LINE
  5
3E6
330
1A
100
AcDbEntity
  8
SEIHIN
  6
CONTINUOUS
 62
     3
 48
16.0
100
AcDbLine
 10
225.1774069131321
 20
170.4933810441509
 30
0.0
 11
227.1774069131321
 21
170.4933810441509
 31
0.0
  0
ARC
  5
3E7
330
1A
100
AcDbEntity
  8
SEIHIN
  6
CONTINUOUS
 62
     3
 48
16.0
100
AcDbCircle
 10
223.4864192103774
 20
164.9934886442664
 30
0.0
 40
0.4999924000356584
100
AcDbArc
 50
90.00140918191382
 51
153.436358004863
  0
LINE
  5
3E8
330
1A
100
AcDbEntity
  8
SEIHIN
  6
CONTINUOUS
 62
     3
 48
16.0
100
AcDbLine
 10
227.1774069131321
 20
165.4933810441508
 30
0.0
 11
223.4864069131322
 21
165.4934810441509
 31
0.0
  0
LINE
  5
3E9
330
1A
100
AcDbEntity
  8
SEIHIN
  6
CONTINUOUS
 62
     3
 48
16.0
100
AcDbLine
 10
238.1774069131322
 20
170.4933810441509
 30
0.0
 11
235.1774069131321
 21
170.4933810441509
 31
0.0
  0
LINE
  5
3EA
330
1A
100
AcDbEntity
  8
SEIHIN
  6
CONTINUOUS
 62
     3
 48
16.0
100
AcDbLine
 10
235.1792069131322
 20
164.9933810441509
 30
0.0
 11
235.1792069131322
 21
170.4933810441509
 31
0.0
  0
LINE
  5
3EB
330
1A
100
AcDbEntity
  8
SEIHIN
  6
CONTINUOUS
 62
     3
 48
16.0
100
AcDbLine
 10
235.1792069131322
 20
170.4933810441509
 30
0.0
 11
235.6792069131321
 21
170.4933810441509
 31
0.0
  0
LINE
  5
3EC
330
1A
100
AcDbEntity
  8
SEIHIN
  6
CONTINUOUS
 62
     3
 48
16.0
100
AcDbLine
 10
232.3156069131322
 20
166.7170810441508
 30
0.0
 11
233.5392069131322
 21
164.2697810441509
 31
0.0
  0
ARC
  5
3ED
330
1A
100
AcDbEntity
  8
SEIHIN
  6
CONTINUOUS
 62
     3
 48
16.0
100
AcDbCircle
 10
235.6792069131321
 20
169.4933810441508
 30
0.0
 40
1.000000000000042
100
AcDbArc
 50
359.9999999999975
 51
89.99999999999756
  0
ARC
  5
3EE
330
1A
100
AcDbEntity
  8
SEIHIN
  6
CONTINUOUS
 62
     3
 48
16.0
100
AcDbCircle
 10
231.868394615887
 20
166.4933886442663
 30
0.0
 40
0.499992400035752
100
AcDbArc
 50
26.56364199514717
 51
89.9985908180813
  0
ARC
  5
3EF
330
1A
100
AcDbEntity
  8
SEIHIN
  6
CONTINUOUS
 62
     3
 48
16.0
100
AcDbCircle
 10
230.8683946158871
 20
164.9933886442664
 30
0.0
 40
0.4999924000356614
100
AcDbArc
 50
26.56364199515144
 51
89.99859081808599
  0
ARC
  5
3F0
330
1A
100
AcDbEntity
  8
SEIHIN
  6
CONTINUOUS
 62
     3
 48
16.0
100
AcDbCircle
 10
233.6774069131322
 20
223.8933810441507
 30
0.0
 40
2.5
100
AcDbArc
 50
270.0
 51
0.0
  0
ARC
  5
3F1
330
1A
100
AcDbEntity
  8
SEIHIN
  6
CONTINUOUS
 62
     3
 48
16.0
100
AcDbCircle
 10
220.6776069131322
 20
223.8933810441507
 30
0.0
 40
2.5
100
AcDbArc
 50
180.0
 51
270.0
  0
LINE
  5
3F2
330
1A
100
AcDbEntity
  8
SEIHIN
  6
CONTINUOUS
 62
     3
 48
16.0
100
AcDbLine
 10
214.6775069131322
 20
208.8933810441508
 30
0.0
 11
214.6776106809582
 21
244.6932810441509
 31
0.0
  0
LINE
  5
3F3
330
1A
100
AcDbEntity
  8
SEIHIN
  6
CONTINUOUS
 62
     3
 48
16.0
100
AcDbLine
 10
238.1774069131322
 20
181.6533810441508
 30
0.0
 11
238.1774069131322
 21
207.8933810441508
 31
0.0
  0
LINE
  5
3F4
330
1A
100
AcDbEntity
  8
SEIHIN
  6
CONTINUOUS
 62
     3
 48
16.0
100
AcDbLine
 10
216.1775069131322
 20
181.6533810441508
 30
0.0
 11
216.1775069131322
 21
207.8933810441508
 31
0.0
  0
LINE
  5
3F5
330
1A
100
AcDbEntity
  8
SEIHIN
  6
CONTINUOUS
 62
     3
 48
16.0
100
AcDbLine
 10
227.1775069131322
 20
181.6533810441508
 30
0.0
 11
225.1774376783036
 21
181.6533810441508
 31
0.0
  0
LINE
  5
3F6
330
1A
100
AcDbEntity
  8
SEIHIN
  6
CONTINUOUS
 62
     3
 48
16.0
100
AcDbLine
 10
227.1774069131321
 20
181.6533810441508
 30
0.0
 11
229.1774069131322
 21
181.6533810441508
 31
0.0
  0
LINE
  5
3F7
330
1A
100
AcDbEntity
  8
SEIHIN
  6
CONTINUOUS
 62
     3
 48
16.0
100
AcDbLine
 10
227.1775069131322
 20
221.3933810441507
 30
0.0
 11
220.6776069131322
 21
221.3933810441507
 31
0.0
  0
LINE
  5
3F8
330
1A
100
AcDbEntity
  8
SEIHIN
  6
CONTINUOUS
 62
     3
 48
16.0
100
AcDbLine
 10
219.9306069131322
 20
219.9803810441507
 30
0.0
 11
223.9899069131321
 21
217.0599810441508
 31
0.0
  0
LINE
  5
3F9
330
1A
100
AcDbEntity
  8
SEIHIN
  6
CONTINUOUS
 62
     3
 48
16.0
100
AcDbLine
 10
218.9321069131322
 20
211.0358810441509
 30
0.0
 11
223.4909069131322
 21
213.0911810441509
 31
0.0
  0
LINE
  5
3FA
330
1A
100
AcDbEntity
  8
SEIHIN
  6
CONTINUOUS
 62
     3
 48
16.0
100
AcDbLine
 10
219.9306069131322
 20
209.3064810441509
 30
0.0
 11
223.9899069131321
 21
212.2268810441509
 31
0.0
  0
LINE
  5
3FB
330
1A
100
AcDbEntity
  8
SEIHIN
  6
CONTINUOUS
 62
     3
 48
16.0
100
AcDbLine
 10
218.9321069131322
 20
218.2509810441508
 30
0.0
 11
223.4909069131322
 21
216.1956810441509
 31
0.0
  0
LINE
  5
3FC
330
1A
100
AcDbEntity
  8
SEIHIN
  6
CONTINUOUS
 62
     3
 48
16.0
100
AcDbLine
 10
215.6775069131322
 20
207.8933810441508
 30
0.0
 11
227.1775069131322
 21
207.8933810441508
 31
0.0
  0
ARC
  5
3FD
330
1A
100
AcDbEntity
  8
SEIHIN
  6
CONTINUOUS
 62
     3
 48
16.0
100
AcDbCircle
 10
219.3832159008026
 20
210.14341120646
 30
0.0
 40
1.000000864972137
100
AcDbArc
 50
116.814832685127
 51
210.0019669270597
  0
ARC
  5
3FE
330
1A
100
AcDbEntity
  8
SEIHIN
  6
CONTINUOUS
 62
     3
 48
16.0
100
AcDbCircle
 10
219.3832378330747
 20
210.1433736747438
 30
0.0
 40
1.000001092471332
100
AcDbArc
 50
209.9994763072543
 51
303.1866664820282
  0
ARC
  5
3FF
330
1A
100
AcDbEntity
  8
SEIHIN
  6
CONTINUOUS
 62
     3
 48
16.0
100
AcDbCircle
 10
215.6775069131322
 20
208.8933810441508
 30
0.0
 40
1.000000000000028
100
AcDbArc
 50
179.9999999999983
 51
269.9999999999983
  0
ARC
  5
400
330
1A
100
AcDbEntity
  8
SEIHIN
  6
CONTINUOUS
 62
     3
 48
16.0
100
AcDbCircle
 10
219.3832938632644
 20
219.1434017702134
 30
0.0
 40
1.00004293885627
100
AcDbArc
 50
56.81873725413652
 51
150.0027914720764
  0
ARC
  5
401
330
1A
100
AcDbEntity
  8
SEIHIN
  6
CONTINUOUS
 62
     3
 48
16.0
100
AcDbCircle
 10
219.3831983608761
 20
219.1434097475901
 30
0.0
 40
0.999956241517639
100
AcDbArc
 50
150.0004515040481
 51
243.1850010253526
  0
ARC
  5
402
330
1A
100
AcDbEntity
  8
SEIHIN
  6
CONTINUOUS
 62
     3
 48
16.0
100
AcDbCircle
 10
234.9716979254617
 20
210.14341120646
 30
0.0
 40
1.000000864972127
100
AcDbArc
 50
329.998033072938
 51
63.18516731487076
  0
LINE
  5
403
330
1A
100
AcDbEntity
  8
SEIHIN
  6
CONTINUOUS
 62
     3
 48
16.0
100
AcDbLine
 10
234.4243069131322
 20
209.3064810441509
 30
0.0
 11
230.3650069131322
 21
212.2268810441509
 31
0.0
  0
ARC
  5
404
330
1A
100
AcDbEntity
  8
SEIHIN
  6
CONTINUOUS
 62
     3
 48
16.0
100
AcDbCircle
 10
234.9716759931897
 20
210.1433736747438
 30
0.0
 40
1.000001092471239
100
AcDbArc
 50
236.8133335179747
 51
330.0005236927458
  0
LINE
  5
405
330
1A
100
AcDbEntity
  8
SEIHIN
  6
CONTINUOUS
 62
     3
 48
16.0
100
AcDbLine
 10
227.1774069131321
 20
221.3933810441507
 30
0.0
 11
233.6774069131322
 21
221.3933810441507
 31
0.0
  0
LINE
  5
406
330
1A
100
AcDbEntity
  8
SEIHIN
  6
CONTINUOUS
 62
     3
 48
16.0
100
AcDbLine
 10
234.4243069131322
 20
219.9802810441509
 30
0.0
 11
230.3650069131322
 21
217.0599810441508
 31
0.0
  0
ARC
  5
407
330
1A
100
AcDbEntity
  8
SEIHIN
  6
CONTINUOUS
 62
     3
 48
16.0
100
AcDbCircle
 10
230.6415426175494
 20
216.6434004456434
 30
0.0
 40
0.4999430220354683
100
AcDbArc
 50
210.0063377412119
 51
296.4220143421521
  0
ARC
  5
408
330
1A
100
AcDbEntity
  8
SEIHIN
  6
CONTINUOUS
 62
     3
 48
16.0
100
AcDbCircle
 10
230.6416052350374
 20
212.6433805376964
 30
0.0
 40
0.4999877998513575
100
AcDbArc
 50
63.58854742402712
 51
149.999125805976
  0
ARC
  5
409
330
1A
100
AcDbEntity
  8
SEIHIN
  6
CONTINUOUS
 62
     3
 48
16.0
100
AcDbCircle
 10
227.1775069131322
 20
214.6433810441508
 30
0.0
 40
1.0
100
AcDbArc
 50
0.0
 51
180.0
  0
ARC
  5
40A
330
1A
100
AcDbEntity
  8
SEIHIN
  6
CONTINUOUS
 62
     3
 48
16.0
100
AcDbCircle
 10
227.1775069131322
 20
214.6433810441508
 30
0.0
 40
1.0
100
AcDbArc
 50
180.0
 51
0.0
  0
ARC
  5
40B
330
1A
100
AcDbEntity
  8
SEIHIN
  6
CONTINUOUS
 62
     3
 48
16.0
100
AcDbCircle
 10
230.6416053798406
 20
212.6433875785743
 30
0.0
 40
0.4999844047595905
100
AcDbArc
 50
149.9998328497912
 51
236.4121996014873
  0
ARC
  5
40C
330
1A
100
AcDbEntity
  8
SEIHIN
  6
CONTINUOUS
 62
     3
 48
16.0
100
AcDbCircle
 10
223.7133228996097
 20
212.6434491583538
 30
0.0
 40
0.5000277095389901
100
AcDbArc
 50
303.5825172324771
 51
29.98915514640474
  0
ARC
  5
40D
330
1A
100
AcDbEntity
  8
SEIHIN
  6
CONTINUOUS
 62
     3
 48
16.0
100
AcDbCircle
 10
223.7134400955586
 20
216.6433910538604
 30
0.0
 40
0.4999652688686344
100
AcDbArc
 50
243.5704369723797
 51
329.9963774149846
  0
ARC
  5
40E
330
1A
100
AcDbEntity
  8
SEIHIN
  6
CONTINUOUS
 62
     3
 48
16.0
100
AcDbCircle
 10
223.7133774868647
 20
212.6433899222177
 30
0.0
 40
0.5000100449581026
100
AcDbArc
 50
29.9981607485637
 51
116.4190015875494
  0
ARC
  5
40F
330
1A
100
AcDbEntity
  8
SEIHIN
  6
CONTINUOUS
 62
     3
 48
16.0
100
AcDbCircle
 10
230.6416192807276
 20
216.6434337379823
 30
0.0
 40
0.5000260595038953
100
AcDbArc
 50
123.58654276141
 51
210.0052481740171
  0
ARC
  5
410
330
1A
100
AcDbEntity
  8
SEIHIN
  6
CONTINUOUS
 62
     3
 48
16.0
100
AcDbCircle
 10
223.7133945455368
 20
216.6434337379823
 30
0.0
 40
0.5000260595039347
100
AcDbArc
 50
329.994751825987
 51
56.41345723858556
  0
ARC
  5
411
330
1A
100
AcDbEntity
  8
SEIHIN
  6
CONTINUOUS
 62
     3
 48
16.0
100
AcDbCircle
 10
234.971619963
 20
219.1434017702134
 30
0.0
 40
1.000042938856179
100
AcDbArc
 50
29.99720852792347
 51
123.1812627458606
  0
ARC
  5
412
330
1A
100
AcDbEntity
  8
SEIHIN
  6
CONTINUOUS
 62
     3
 48
16.0
100
AcDbCircle
 10
234.9717154653883
 20
219.1434097475901
 30
0.0
 40
0.9999562415176306
100
AcDbArc
 50
296.8149989746496
 51
29.99954849595388
  0
LINE
  5
413
330
1A
100
AcDbEntity
  8
SEIHIN
  6
CONTINUOUS
 62
     3
 48
16.0
100
AcDbLine
 10
235.4228069131322
 20
211.0357810441509
 30
0.0
 11
230.8640069131322
 21
213.0911810441509
 31
0.0
  0
LINE
  5
414
330
1A
100
AcDbEntity
  8
SEIHIN
  6
CONTINUOUS
 62
     3
 48
16.0
100
AcDbLine
 10
235.4228069131322
 20
218.2509810441508
 30
0.0
 11
230.8640069131322
 21
216.1956810441509
 31
0.0
  0
LINE
  5
415
330
1A
100
AcDbEntity
  8
CENTER_L
  6
CENTER
 62
     1
 48
5.0
100
AcDbLine
 10
206.8045412674147
 20
235.7283600351858
 30
0.0
 11
197.8646684073195
 21
235.7283600351858
 31
0.0
  0
LINE
  5
416
330
1A
100
AcDbEntity
  8
CENTER_L
  6
CENTER
 62
     1
 48
5.0
100
AcDbLine
 10
207.0558312464841
 20
254.2978830931931
 30
0.0
 11
198.0068841003108
 21
254.2978830931932
 31
0.0
  0
LINE
  5
417
330
1A
100
AcDbEntity
  8
SEIHIN
  6
CONTINUOUS
 62
     3
 48
16.0
100
AcDbLine
 10
198.1775069131322
 20
259.4975810441507
 30
0.0
 11
218.6775069131322
 21
259.4975810441507
 31
0.0
  0
LINE
  5
418
330
1A
100
AcDbEntity
  8
SEIHIN
  6
CONTINUOUS
 62
     3
 48
16.0
100
AcDbLine
 10
217.1775069131322
 20
258.9976810441509
 30
0.0
 11
198.1775019131322
 21
258.9975860441258
 31
0.0
  0
LINE
  5
419
330
1A
100
AcDbEntity
  8
SEIHIN
  6
CONTINUOUS
 62
     3
 48
16.0
100
AcDbLine
 10
198.1775069131322
 20
231.0862810441507
 30
0.0
 11
214.6775069131322
 21
231.0862810441507
 31
0.0
  0
LINE
  5
41A
330
1A
100
AcDbEntity
  8
SEIHIN
  6
CONTINUOUS
 62
     3
 48
16.0
100
AcDbLine
 10
197.1775069131322
 20
258.4975810441507
 30
0.0
 11
197.1775069131322
 21
232.0862810441507
 31
0.0
  0
LINE
  5
41B
330
1A
100
AcDbEntity
  8
CENTER_L
  6
CENTER
 62
     1
 48
5.0
100
AcDbLine
 10
202.1775069131322
 20
239.5768025090056
 30
0.0
 11
202.1775069131322
 21
232.1599810441509
 31
0.0
  0
ELLIPSE
  5
41C
330
1A
100
AcDbEntity
  8
SEIHIN
  6
CONTINUOUS
100
AcDbEllipse
 10
202.1775069131322
 20
236.2854546336397
 30
0.0
 11
1.999999999999997
 21
0.0000000000004432
 31
0.0
210
0.0
220
0.0
230
1.0
 40
0.9284769207922364
 41
-2.991022080640115
 42
-0.1505705729502793
  0
ELLIPSE
  5
41D
330
1A
100
AcDbEntity
  8
SEIHIN
  6
CONTINUOUS
100
AcDbEllipse
 10
202.177463450582
 20
235.7283944867542
 30
0.0
 11
1.999999999998101
 21
-0.0000027561230744
 31
0.0
210
0.0
220
0.0
230
-1.0
 40
0.9284769207922352
 41
0.0000000000000341
 42
6.283185307179619
  0
LINE
  5
41E
330
1A
100
AcDbEntity
  8
CENTER_L
  6
CENTER
 62
     1
 48
5.0
100
AcDbLine
 10
202.1775069131322
 20
258.0794810441509
 30
0.0
 11
202.1775069131322
 21
250.3931013662143
 31
0.0
  0
ELLIPSE
  5
41F
330
1A
100
AcDbEntity
  8
SEIHIN
  6
CONTINUOUS
100
AcDbEllipse
 10
202.1775069131322
 20
254.8549776916471
 30
0.0
 11
1.999999999999997
 21
0.0000000000004432
 31
0.0
210
0.0
220
0.0
230
1.0
 40
0.9284769207922364
 41
-2.991022080640115
 42
-0.1505705729502793
  0
ELLIPSE
  5
420
330
1A
100
AcDbEntity
  8
SEIHIN
  6
CONTINUOUS
100
AcDbEllipse
 10
202.1774890405275
 20
254.2979175447439
 30
0.0
 11
1.999999999998101
 21
-0.0000027561230744
 31
0.0
210
0.0
220
0.0
230
-1.0
 40
0.9284769207922352
 41
0.0000000000000341
 42
6.283185307179619
  0
ELLIPSE
  5
421
330
1A
100
AcDbEntity
  8
SEIHIN
  6
CONTINUOUS
 62
     3
100
AcDbEllipse
 10
227.1774895322743
 20
242.0421985333321
 30
0.0
 11
4.000000000088387
 21
0.0001269148967352
 31
0.0
210
0.0
220
0.0
230
0.9999999999999998
 40
0.9284432707879034
 41
-0.100202384659213
 42
3.241734842156406
  0
LINE
  5
422
330
1A
100
AcDbEntity
  8
SEIHIN
  6
CONTINUOUS
 62
     3
 48
16.0
100
AcDbLine
 10
236.6775069131322
 20
258.4975810441507
 30
0.0
 11
236.6775069131322
 21
244.6932810441509
 31
0.0
  0
LINE
  5
423
330
1A
100
AcDbEntity
  8
SEIHIN
  6
CONTINUOUS
 62
     3
 48
16.0
100
AcDbLine
 10
217.6775069131323
 20
258.4976810441509
 30
0.0
 11
217.6775069131323
 21
244.6932810441509
 31
0.0
  0
LINE
  5
424
330
1A
100
AcDbEntity
  8
SEIHIN
  6
CONTINUOUS
 62
     3
 48
16.0
100
AcDbLine
 10
218.1776069131322
 20
228.1150810441507
 30
0.0
 11
227.1774069131321
 21
228.1150810441507
 31
0.0
  0
LINE
  5
425
330
1A
100
AcDbEntity
  8
SEIHIN
  6
CONTINUOUS
 62
     3
 48
16.0
100
AcDbLine
 10
236.1774069131322
 20
225.7898810441508
 30
0.0
 11
218.1776069131322
 21
225.7899810441509
 31
0.0
  0
LINE
  5
426
330
1A
100
AcDbEntity
  8
SEIHIN
  6
CONTINUOUS
 62
     3
 48
16.0
100
AcDbLine
 10
218.1776069131322
 20
244.6932810441509
 30
0.0
 11
218.1776069131322
 21
223.8933810441507
 31
0.0
  0
LINE
  5
427
330
1A
100
AcDbEntity
  8
SEIHIN
  6
CONTINUOUS
 62
     3
 48
16.0
100
AcDbLine
 10
214.6775078088034
 20
244.6932810441509
 30
0.0
 11
218.1776078088033
 21
244.6932810441509
 31
0.0
  0
LINE
  5
428
330
1A
100
AcDbEntity
  8
SEIHIN
  6
CONTINUOUS
 62
     3
 48
16.0
100
AcDbLine
 10
236.1774069131322
 20
244.6932810441509
 30
0.0
 11
236.1774069131322
 21
223.8933810441507
 31
0.0
  0
LINE
  5
429
330
1A
100
AcDbEntity
  8
SEIHIN
  6
CONTINUOUS
 62
     3
 48
16.0
100
AcDbLine
 10
236.1774069131322
 20
228.1150810441507
 30
0.0
 11
227.1775069131322
 21
228.1150810441507
 31
0.0
  0
ELLIPSE
  5
42A
330
1A
100
AcDbEntity
  8
SEIHIN
  6
CONTINUOUS
100
AcDbEllipse
 10
227.1774890204687
 20
241.2994079590486
 30
0.0
 11
-4.000000000088391
 21
-0.0001269148978622
 31
0.0
210
0.0
220
0.0
230
0.9999999999999998
 40
0.9284432707879066
 41
0.0000000000000153
 42
6.283185307179601
  0
LINE
  5
42B
330
1A
100
AcDbEntity
  8
SEIHIN
  6
CONTINUOUS
 62
     3
 48
16.0
100
AcDbLine
 10
221.1775069131322
 20
258.9404810441507
 30
0.0
 11
227.1775069131322
 21
258.9404810441507
 31
0.0
  0
LINE
  5
42C
330
1A
100
AcDbEntity
  8
SEIHIN
  6
CONTINUOUS
 62
     3
 48
16.0
100
AcDbLine
 10
219.6775069131323
 20
259.4975810441507
 30
0.0
 11
227.1775069131322
 21
259.4975810441507
 31
0.0
  0
LINE
  5
42D
330
1A
100
AcDbEntity
  8
SEIHIN
  6
CONTINUOUS
 62
     3
 48
16.0
100
AcDbLine
 10
227.1774069131321
 20
256.4693810441509
 30
0.0
 11
219.6775069131323
 21
256.4693810441509
 31
0.0
  0
LINE
  5
42E
330
1A
100
AcDbEntity
  8
SEIHIN
  6
CONTINUOUS
 62
     3
 48
16.0
100
AcDbLine
 10
218.1775069131322
 20
255.9693810441507
 30
0.0
 11
227.1774069131321
 21
255.9693810441507
 31
0.0
  0
LINE
  5
42F
330
1A
100
AcDbEntity
  8
SEIHIN
  6
CONTINUOUS
 62
     3
 48
16.0
100
AcDbLine
 10
219.1775069131322
 20
258.9975810441507
 30
0.0
 11
219.1775069131322
 21
256.9693810441509
 31
0.0
  0
LINE
  5
430
330
1A
100
AcDbEntity
  8
SEIHIN
  6
CONTINUOUS
 62
     3
 48
16.0
100
AcDbLine
 10
220.6775069131322
 20
258.4404810441507
 30
0.0
 11
220.6775069131322
 21
256.4693810441509
 31
0.0
  0
LINE
  5
431
330
1A
100
AcDbEntity
  8
SEIHIN
  6
CONTINUOUS
 62
     3
 48
16.0
100
AcDbLine
 10
217.6775069131323
 20
256.0571810441509
 30
0.0
 11
215.9158069131322
 21
254.9975810441508
 31
0.0
  0
LINE
  5
432
330
1A
100
AcDbEntity
  8
SEIHIN
  6
CONTINUOUS
 62
     3
 48
16.0
100
AcDbLine
 10
215.9158069131322
 20
254.9975810441508
 30
0.0
 11
217.6775069131323
 21
253.8962810441507
 31
0.0
  0
ARC
  5
433
330
1A
100
AcDbEntity
  8
SEIHIN
  6
CONTINUOUS
 62
     3
 48
16.0
100
AcDbCircle
 10
219.6775069131323
 20
256.9693810441509
 30
0.0
 40
0.5000000000000285
100
AcDbArc
 50
180.0000000000032
 51
270.0000000000032
  0
ARC
  5
434
330
1A
100
AcDbEntity
  8
SEIHIN
  6
CONTINUOUS
 62
     3
 48
16.0
100
AcDbCircle
 10
218.1775069131323
 20
256.4693810441508
 30
0.0
 40
0.5000000000000569
100
AcDbArc
 50
179.9999999999934
 51
269.9999999999934
  0
ARC
  5
435
330
1A
100
AcDbEntity
  8
SEIHIN
  6
CONTINUOUS
 62
     3
 48
16.0
100
AcDbCircle
 10
221.1775069131322
 20
258.4404810441507
 30
0.0
 40
0.4999999999999716
100
AcDbArc
 50
90.00000000000325
 51
180.0000000000032
  0
ARC
  5
436
330
1A
100
AcDbEntity
  8
SEIHIN
  6
CONTINUOUS
 62
     3
 48
16.0
100
AcDbCircle
 10
219.6775069131323
 20
258.9975810441507
 30
0.0
 40
0.5000000000000285
100
AcDbArc
 50
89.99999999999674
 51
179.9999999999967
  0
ARC
  5
437
330
1A
100
AcDbEntity
  8
SEIHIN
  6
CONTINUOUS
 62
     3
 48
16.0
100
AcDbCircle
 10
218.6775069131322
 20
258.9975810441507
 30
0.0
 40
0.4999999999999716
100
AcDbArc
 50
359.9999999999967
 51
89.99999999999674
  0
ARC
  5
438
330
1A
100
AcDbEntity
  8
SEIHIN
  6
CONTINUOUS
 62
     3
 48
16.0
100
AcDbCircle
 10
217.1775069131322
 20
258.4976810441508
 30
0.0
 40
0.5000000000000285
100
AcDbArc
 50
0.0000000000032569
 51
90.00000000000325
  0
LINE
  5
439
330
1A
100
AcDbEntity
  8
SEIHIN
  6
CONTINUOUS
 62
     3
 48
16.0
100
AcDbLine
 10
235.1775069131322
 20
258.9975810441507
 30
0.0
 11
235.1775069131322
 21
256.9693810441509
 31
0.0
  0
LINE
  5
43A
330
1A
100
AcDbEntity
  8
SEIHIN
  6
CONTINUOUS
 62
     3
 48
16.0
100
AcDbLine
 10
233.6775069131322
 20
258.4404810441507
 30
0.0
 11
233.6775069131322
 21
256.4693810441509
 31
0.0
  0
LINE
  5
43B
330
1A
100
AcDbEntity
  8
SEIHIN
  6
CONTINUOUS
 62
     3
 48
16.0
100
AcDbLine
 10
236.1775069131322
 20
255.9693810441507
 30
0.0
 11
227.1776069131322
 21
255.9693810441507
 31
0.0
  0
LINE
  5
43C
330
1A
100
AcDbEntity
  8
SEIHIN
  6
CONTINUOUS
 62
     3
 48
16.0
100
AcDbLine
 10
227.1776069131322
 20
256.4693810441509
 30
0.0
 11
234.6775069131322
 21
256.4693810441509
 31
0.0
  0
LINE
  5
43D
330
1A
100
AcDbEntity
  8
SEIHIN
  6
CONTINUOUS
 62
     3
 48
16.0
100
AcDbLine
 10
236.6775069131322
 20
256.0571810441509
 30
0.0
 11
238.4392069131322
 21
254.9975810441508
 31
0.0
  0
LINE
  5
43E
330
1A
100
AcDbEntity
  8
SEIHIN
  6
CONTINUOUS
 62
     3
 48
16.0
100
AcDbLine
 10
238.4392069131322
 20
254.9975810441508
 30
0.0
 11
236.6775069131322
 21
253.8962810441507
 31
0.0
  0
ARC
  5
43F
330
1A
100
AcDbEntity
  8
SEIHIN
  6
CONTINUOUS
 62
     3
 48
16.0
100
AcDbCircle
 10
234.6775069131322
 20
256.9693810441509
 30
0.0
 40
0.5
100
AcDbArc
 50
270.0
 51
0.0
  0
ARC
  5
440
330
1A
100
AcDbEntity
  8
SEIHIN
  6
CONTINUOUS
 62
     3
 48
16.0
100
AcDbCircle
 10
236.1775069131321
 20
256.4693810441509
 30
0.0
 40
0.5000000000000853
100
AcDbArc
 50
270.0000000000032
 51
0.0000000000032569
  0
LINE
  5
441
330
1A
100
AcDbEntity
  8
SEIHIN
  6
CONTINUOUS
 62
     3
 48
16.0
100
AcDbLine
 10
233.1775069131322
 20
258.9404810441507
 30
0.0
 11
227.1776069131322
 21
258.9404810441507
 31
0.0
  0
LINE
  5
442
330
1A
100
AcDbEntity
  8
SEIHIN
  6
CONTINUOUS
 62
     3
 48
16.0
100
AcDbLine
 10
234.6775069131322
 20
259.4975810441507
 30
0.0
 11
227.1776069131322
 21
259.4975810441507
 31
0.0
  0
ARC
  5
443
330
1A
100
AcDbEntity
  8
SEIHIN
  6
CONTINUOUS
 62
     3
 48
16.0
100
AcDbCircle
 10
233.1775069131322
 20
258.4404810441507
 30
0.0
 40
0.4999999999999716
100
AcDbArc
 50
359.9999999999967
 51
89.99999999999674
  0
ARC
  5
444
330
1A
100
AcDbEntity
  8
SEIHIN
  6
CONTINUOUS
 62
     3
 48
16.0
100
AcDbCircle
 10
234.6775069131322
 20
258.9975810441507
 30
0.0
 40
0.5
100
AcDbArc
 50
0.0
 51
90.0
  0
ARC
  5
445
330
1A
100
AcDbEntity
  8
SEIHIN
  6
CONTINUOUS
 62
     3
 48
16.0
100
AcDbCircle
 10
235.6775069131322
 20
258.9975810441507
 30
0.0
 40
0.5
100
AcDbArc
 50
90.0
 51
180.0
  0
ARC
  5
446
330
1A
100
AcDbEntity
  8
SEIHIN
  6
CONTINUOUS
 62
     3
 48
16.0
100
AcDbCircle
 10
237.1775069131322
 20
258.4975810441507
 30
0.0
 40
0.5
100
AcDbArc
 50
90.0
 51
180.0
  0
LINE
  5
447
330
1A
100
AcDbEntity
  8
CENTER_L
  6
CENTER
 62
     1
 48
5.0
100
AcDbLine
 10
403.9552900922382
 20
181.5141810441508
 30
0.0
 11
403.9552900922382
 21
159.4088810441508
 31
0.0
  0
ARC
  5
448
330
1A
100
AcDbEntity
  8
SEIHIN
  6
CONTINUOUS
 62
     3
 48
16.0
100
AcDbCircle
 10
357.0016854918153
 20
170.5379862354904
 30
0.0
 40
12.99998939865028
100
AcDbArc
 50
8.856111933885177
 51
74.23680372393803
  0
ARC
  5
449
330
1A
100
AcDbEntity
  8
SEIHIN
  6
CONTINUOUS
 62
     3
 48
16.0
100
AcDbCircle
 10
356.3016351845807
 20
169.8380425052354
 30
0.0
 40
9.000029432884009
100
AcDbArc
 50
8.855157446863916
 51
74.69742798123546
  0
ARC
  5
44A
330
1A
100
AcDbEntity
  8
SEIHIN
  6
CONTINUOUS
 62
     3
 48
16.0
100
AcDbCircle
 10
356.3016698881943
 20
169.8380040596195
 30
0.0
 40
12.19997457457791
100
AcDbArc
 50
7.042937452311904
 51
75.51314301765875
  0
LINE
  5
44B
330
1A
100
AcDbEntity
  8
SEIHIN
  6
CONTINUOUS
 62
     3
 48
16.0
100
AcDbLine
 10
403.9552900922382
 20
170.1932810441508
 30
0.0
 11
369.6997900922383
 21
170.1932810441508
 31
0.0
  0
LINE
  5
44C
330
1A
100
AcDbEntity
  8
SEIHIN
  6
CONTINUOUS
 62
     3
 48
16.0
100
AcDbLine
 10
370.1347900922383
 20
166.9932810441508
 30
0.0
 11
397.9552900922383
 21
166.9932810441508
 31
0.0
  0
LINE
  5
44D
330
1A
100
AcDbEntity
  8
SEIHIN
  6
CONTINUOUS
 62
     3
 48
16.0
100
AcDbLine
 10
403.9552900922382
 20
171.6932810441508
 30
0.0
 11
370.8347900922382
 21
171.6932810441508
 31
0.0
  0
ARC
  5
44E
330
1A
100
AcDbEntity
  8
SEIHIN
  6
CONTINUOUS
 62
     3
 48
16.0
100
AcDbCircle
 10
370.8347822621223
 20
172.6932877491058
 30
0.0
 40
1.000006704985649
100
AcDbArc
 50
188.8533344002562
 51
270.0004486295848
  0
ARC
  5
44F
330
1A
100
AcDbEntity
  8
SEIHIN
  6
CONTINUOUS
 62
     3
 48
16.0
100
AcDbCircle
 10
369.6997847845549
 20
171.4932857364415
 30
0.0
 40
1.30000469230157
100
AcDbArc
 50
187.0432508395385
 51
270.000233928278
  0
ARC
  5
450
330
1A
100
AcDbEntity
  8
SEIHIN
  6
CONTINUOUS
 62
     3
 48
16.0
100
AcDbCircle
 10
370.1347906615704
 20
171.9932805566508
 30
0.0
 40
4.999999512500058
100
AcDbArc
 50
188.8553201291494
 51
269.9999934759342
  0
LINE
  5
451
330
1A
100
AcDbEntity
  8
SEIHIN
  6
CONTINUOUS
 62
     3
 48
16.0
100
AcDbLine
 10
397.9552900922383
 20
162.1932810441508
 30
0.0
 11
397.9552900922383
 21
170.1932810441508
 31
0.0
  0
LINE
  5
452
330
1A
100
AcDbEntity
  8
SEIHIN
  6
CONTINUOUS
 62
     3
 48
16.0
100
AcDbLine
 10
346.9552900922382
 20
244.6932810441509
 30
0.0
 11
345.4552900922383
 21
244.6932810441509
 31
0.0
  0
ARC
  5
453
330
1A
100
AcDbEntity
  8
SEIHIN
  6
CONTINUOUS
 62
     3
 48
16.0
100
AcDbCircle
 10
346.7552900922382
 20
209.9932810441508
 30
0.0
 40
1.299999999999897
100
AcDbArc
 50
180.0
 51
270.0
  0
LINE
  5
455
330
1A
100
AcDbEntity
  8
SEIHIN
  6
CONTINUOUS
 62
     3
 48
16.0
100
AcDbLine
 10
345.4552900922383
 20
244.6932810441509
 30
0.0
 11
345.4552900922383
 21
209.9932810441508
 31
0.0
  0
LINE
  5
456
330
1A
100
AcDbEntity
  8
SEIHIN
  6
CONTINUOUS
 62
     3
 48
16.0
100
AcDbLine
 10
239.6774069131321
 20
208.8933810441508
 30
0.0
 11
239.6774069131321
 21
244.6932810441509
 31
0.0
  0
ARC
  5
458
330
1A
100
AcDbEntity
  8
SEIHIN
  6
CONTINUOUS
 62
     3
 48
16.0
100
AcDbCircle
 10
238.6774069131321
 20
208.8933810441508
 30
0.0
 40
1.0
100
AcDbArc
 50
270.0000000000032
 51
0.0000000000032569
  0
LINE
  5
45C
330
1A
100
AcDbEntity
  8
SEIHIN
  6
CONTINUOUS
 62
     3
 48
16.0
100
AcDbLine
 10
257.1775069131323
 20
258.4975810441507
 30
0.0
 11
257.1775069131323
 21
232.0861867584529
 31
0.0
  0
LINE
  5
45D
330
1A
100
AcDbEntity
  8
CENTER_L
  6
CENTER
 62
     1
 48
5.0
100
AcDbLine
 10
256.6790970261556
 20
235.7283600351858
 30
0.0
 11
247.6139770023755
 21
235.7283600351858
 31
0.0
  0
LINE
  5
45E
330
1A
100
AcDbEntity
  8
SEIHIN
  6
CONTINUOUS
 62
     3
 48
16.0
100
AcDbLine
 10
256.1775011988465
 20
231.0861867584693
 30
0.0
 11
239.6775069131322
 21
231.0862810441507
 31
0.0
  0
LINE
  5
45F
330
1A
100
AcDbEntity
  8
CENTER_L
  6
CENTER
 62
     1
 48
5.0
100
AcDbLine
 10
252.1775069131322
 20
239.5332375131981
 30
0.0
 11
252.1775069131322
 21
232.1598810441508
 31
0.0
  0
ELLIPSE
  5
460
330
1A
100
AcDbEntity
  8
SEIHIN
  6
CONTINUOUS
100
AcDbEllipse
 10
252.1775069131322
 20
236.2854546336397
 30
0.0
 11
-1.999999999999997
 21
0.0000000000008367
 31
0.0
210
0.0
220
0.0
230
1.0
 40
0.9284769207922364
 41
0.1505705729503673
 42
2.991022080640203
  0
ELLIPSE
  5
461
330
1A
100
AcDbEntity
  8
SEIHIN
  6
CONTINUOUS
100
AcDbEllipse
 10
252.1775069131322
 20
235.7283600351858
 30
0.0
 11
-2.0
 21
0.0
 31
0.0
210
0.0
220
0.0
230
1.0
 40
0.9284769207922352
 41
0.0
 42
6.283185307179586
  0
ELLIPSE
  5
462
330
1A
100
AcDbEntity
  8
SEIHIN
  6
CONTINUOUS
100
AcDbEllipse
 10
252.1775069131322
 20
235.7283600351858
 30
0.0
 11
-2.0
 21
0.0
 31
0.0
210
0.0
220
0.0
230
1.0
 40
0.9284769207922352
 41
0.0
 42
6.283185307179586
  0
LINE
  5
463
330
1A
100
AcDbEntity
  8
CENTER_L
  6
CENTER
 62
     1
 48
5.0
100
AcDbLine
 10
256.4834402025076
 20
254.2978830931931
 30
0.0
 11
247.1454505564384
 21
254.2978830931932
 31
0.0
  0
LINE
  5
464
330
1A
100
AcDbEntity
  8
CENTER_L
  6
CENTER
 62
     1
 48
5.0
100
AcDbLine
 10
252.1775069131322
 20
258.0794810441509
 30
0.0
 11
252.1775069131322
 21
250.0258680220422
 31
0.0
  0
ELLIPSE
  5
465
330
1A
100
AcDbEntity
  8
SEIHIN
  6
CONTINUOUS
100
AcDbEllipse
 10
252.1775069131322
 20
254.8549776916471
 30
0.0
 11
-1.999999999999997
 21
0.0000000000008367
 31
0.0
210
0.0
220
0.0
230
1.0
 40
0.9284769207922364
 41
0.1505705729503673
 42
2.991022080640203
  0
ELLIPSE
  5
466
330
1A
100
AcDbEntity
  8
SEIHIN
  6
CONTINUOUS
100
AcDbEllipse
 10
252.1775069131322
 20
254.2978830931931
 30
0.0
 11
-2.0
 21
0.0
 31
0.0
210
0.0
220
0.0
230
1.0
 40
0.9284769207922352
 41
0.0
 42
6.283185307179586
  0
ELLIPSE
  5
467
330
1A
100
AcDbEntity
  8
SEIHIN
  6
CONTINUOUS
100
AcDbEllipse
 10
252.1775069131322
 20
254.2978830931931
 30
0.0
 11
-2.0
 21
0.0
 31
0.0
210
0.0
220
0.0
230
1.0
 40
0.9284769207922352
 41
0.0
 42
6.283185307179586
  0
LINE
  5
46B
330
1A
100
AcDbEntity
  8
SEIHIN
  6
CONTINUOUS
 62
     3
 48
16.0
100
AcDbLine
 10
346.9552900922382
 20
244.6932810441509
 30
0.0
 11
346.9552900922382
 21
210.6932810441509
 31
0.0
  0
LINE
  5
46C
330
1A
100
AcDbEntity
  8
SEIHIN
  6
CONTINUOUS
 62
     3
 48
16.0
100
AcDbLine
 10
358.4066900922383
 20
182.6409810441509
 30
0.0
 11
353.1727900922383
 21
207.5022810441508
 31
0.0
  0
LINE
  5
46D
330
1A
100
AcDbEntity
  8
SEIHIN
  6
CONTINUOUS
 62
     3
 48
16.0
100
AcDbLine
 10
359.8264900922383
 20
183.8054810441508
 30
0.0
 11
354.4883900922383
 21
209.1610810441508
 31
0.0
  0
LINE
  5
46E
330
1A
100
AcDbEntity
  8
SEIHIN
  6
CONTINUOUS
 62
     3
 48
16.0
100
AcDbLine
 10
355.1036900922383
 20
182.3115810441509
 30
0.0
 11
349.5496900922382
 21
208.6932810441509
 31
0.0
  0
ARC
  5
46F
330
1A
100
AcDbEntity
  8
SEIHIN
  6
CONTINUOUS
 62
     3
 48
16.0
100
AcDbCircle
 10
360.8050350734307
 20
184.0114329118225
 30
0.0
 40
0.9999832258664399
100
AcDbArc
 50
191.8854284242354
 51
254.2315987939403
  0
ARC
  5
470
330
1A
100
AcDbEntity
  8
SEIHIN
  6
CONTINUOUS
 62
     3
 48
16.0
100
AcDbCircle
 10
359.9964362414859
 20
183.3417382029578
 30
0.0
 40
5.000018865246202
100
AcDbArc
 50
191.8898392265341
 51
254.6979100123475
  0
ARC
  5
471
330
1A
100
AcDbEntity
  8
SEIHIN
  6
CONTINUOUS
 62
     3
 48
16.0
100
AcDbCircle
 10
359.6788217186901
 20
182.908747950082
 30
0.0
 40
1.300006919570335
100
AcDbArc
 50
191.8864896219392
 51
255.5120229390801
  0
ARC
  5
472
330
1A
100
AcDbEntity
  8
SEIHIN
  6
CONTINUOUS
 62
     3
 48
16.0
100
AcDbCircle
 10
347.4552900922382
 20
210.6932810441509
 30
0.0
 40
0.5
100
AcDbArc
 50
180.0
 51
270.0
  0
ARC
  5
473
330
1A
100
AcDbEntity
  8
SEIHIN
  6
CONTINUOUS
 62
     3
 48
16.0
100
AcDbCircle
 10
353.2162794861017
 20
208.8932896499769
 30
0.0
 40
1.299991394217214
100
AcDbArc
 50
11.88773659713012
 51
89.9995325454798
  0
ARC
  5
474
330
1A
100
AcDbEntity
  8
SEIHIN
  6
CONTINUOUS
 62
     3
 48
16.0
100
AcDbCircle
 10
351.7049335155646
 20
207.1932458099785
 30
0.0
 40
1.5000352348009
100
AcDbArc
 50
11.88913635189099
 51
90.00165860992503
  0
LINE
  5
475
330
1A
100
AcDbEntity
  8
SEIHIN
  6
CONTINUOUS
 62
     3
 48
16.0
100
AcDbLine
 10
353.2162900922382
 20
210.1932810441509
 30
0.0
 11
347.4552900922382
 21
210.1932810441509
 31
0.0
  0
LINE
  5
476
330
1A
100
AcDbEntity
  8
SEIHIN
  6
CONTINUOUS
 62
     3
 48
16.0
100
AcDbLine
 10
351.7048900922383
 20
208.6932810441509
 30
0.0
 11
346.7552900922382
 21
208.6932810441509
 31
0.0
  0
LINE
  5
47D
330
1A
100
AcDbEntity
  8
CENTER_L
  6
CENTER
 62
     1
 48
5.0
100
AcDbLine
 10
403.9553900922383
 20
403.7042881204732
 30
0.0
 11
340.1216900922382
 21
403.7043881204734
 31
0.0
  0
LINE
  5
486
330
1A
100
AcDbEntity
  8
SEIHIN
  6
CONTINUOUS
 62
     3
 48
16.0
100
AcDbLine
 10
397.4170900922383
 20
401.2042881204733
 30
0.0
 11
353.7884900922382
 21
401.2043881204735
 31
0.0
  0
LINE
  5
487
330
1A
100
AcDbEntity
  8
SEIHIN
  6
CONTINUOUS
 62
     3
 48
16.0
100
AcDbLine
 10
403.9553900922383
 20
396.2042881204734
 30
0.0
 11
353.7884900922382
 21
396.2043881204735
 31
0.0
  0
LINE
  5
488
330
1A
100
AcDbEntity
  8
SEIHIN
  6
CONTINUOUS
 62
     3
 48
16.0
100
AcDbLine
 10
403.9553900922383
 20
414.7043881204734
 30
0.0
 11
370.8348900922383
 21
414.7042881204734
 31
0.0
  0
LINE
  5
489
330
1A
100
AcDbEntity
  8
SEIHIN
  6
CONTINUOUS
 62
     3
 48
16.0
100
AcDbLine
 10
403.9553900922383
 20
411.2043881204734
 30
0.0
 11
353.7884900922382
 21
411.2042881204734
 31
0.0
  0
LINE
  5
48A
330
1A
100
AcDbEntity
  8
SEIHIN
  6
CONTINUOUS
 62
     3
 48
16.0
100
AcDbLine
 10
397.4170900922383
 20
406.2042881204734
 30
0.0
 11
353.7884900922382
 21
406.2042881204734
 31
0.0
  0
LINE
  5
48B
330
1A
100
AcDbEntity
  8
SEIHIN
  6
CONTINUOUS
 62
     3
 48
16.0
100
AcDbLine
 10
403.9553900922383
 20
392.7042881204734
 30
0.0
 11
370.8348900922383
 21
392.7042881204734
 31
0.0
  0
LINE
  5
48C
330
1A
100
AcDbEntity
  8
SEIHIN
  6
CONTINUOUS
 62
     3
 48
16.0
100
AcDbLine
 10
370.8348900922383
 20
406.2042881204734
 30
0.0
 11
370.8348900922383
 21
403.7042881204732
 31
0.0
  0
LINE
  5
48D
330
1A
100
AcDbEntity
  8
SEIHIN
  6
CONTINUOUS
 62
     3
 48
16.0
100
AcDbLine
 10
354.4884900922383
 20
406.2042881204734
 30
0.0
 11
354.4884900922383
 21
403.7042881204732
 31
0.0
  0
LINE
  5
48E
330
1A
100
AcDbEntity
  8
SEIHIN
  6
CONTINUOUS
 62
     3
 48
16.0
100
AcDbLine
 10
359.8264900922383
 20
406.2042881204734
 30
0.0
 11
359.8264900922383
 21
403.7042881204732
 31
0.0
  0
LINE
  5
48F
330
1A
100
AcDbEntity
  8
SEIHIN
  6
CONTINUOUS
 62
     3
 48
16.0
100
AcDbLine
 10
346.9553900922383
 20
403.7043881204734
 30
0.0
 11
346.9553900922383
 21
416.2042881204732
 31
0.0
  0
LINE
  5
490
330
1A
100
AcDbEntity
  8
SEIHIN
  6
CONTINUOUS
 62
     3
 48
16.0
100
AcDbLine
 10
346.1553900922381
 20
416.2042881204732
 30
0.0
 11
346.1553900922381
 21
403.7043881204734
 31
0.0
  0
ARC
  5
491
330
1A
100
AcDbEntity
  8
SEIHIN
  6
CONTINUOUS
 62
     3
 48
16.0
100
AcDbCircle
 10
365.3306900922383
 20
363.3312881204734
 30
0.0
 40
29.88426587085584
100
AcDbArc
 50
79.38644552492011
 51
100.6135544750798
  0
LINE
  5
492
330
1A
100
AcDbEntity
  8
SEIHIN
  6
CONTINUOUS
 62
     3
 48
16.0
100
AcDbLine
 10
354.4884900922383
 20
392.7042881204734
 30
0.0
 11
354.4884900922383
 21
396.2042881204734
 31
0.0
  0
LINE
  5
493
330
1A
100
AcDbEntity
  8
SEIHIN
  6
CONTINUOUS
 62
     3
 48
16.0
100
AcDbLine
 10
359.8264900922383
 20
392.7042881204734
 30
0.0
 11
359.8264900922383
 21
396.2042881204734
 31
0.0
  0
LINE
  5
494
330
1A
100
AcDbEntity
  8
SEIHIN
  6
CONTINUOUS
 62
     3
 48
16.0
100
AcDbLine
 10
346.1553900922381
 20
391.2042881204732
 30
0.0
 11
346.1553900922381
 21
403.7041881204734
 31
0.0
  0
LINE
  5
495
330
1A
100
AcDbEntity
  8
SEIHIN
  6
CONTINUOUS
 62
     3
 48
16.0
100
AcDbLine
 10
346.9553900922383
 20
403.7042881204732
 30
0.0
 11
346.9553900922383
 21
391.2042881204732
 31
0.0
  0
LINE
  5
496
330
1A
100
AcDbEntity
  8
SEIHIN
  6
CONTINUOUS
 62
     3
 48
16.0
100
AcDbLine
 10
359.8264900922383
 20
392.7042881204734
 30
0.0
 11
346.9553900922383
 21
392.7043881204734
 31
0.0
  0
LINE
  5
497
330
1A
100
AcDbEntity
  8
SEIHIN
  6
CONTINUOUS
 62
     3
 48
16.0
100
AcDbLine
 10
346.9553900922383
 20
391.2043881204735
 30
0.0
 11
346.1554900922383
 21
391.2043881204735
 31
0.0
  0
ARC
  5
498
330
1A
100
AcDbEntity
  8
SEIHIN
  6
CONTINUOUS
 62
     3
 48
16.0
100
AcDbCircle
 10
353.7884900922382
 20
398.7043881204734
 30
0.0
 40
2.5
100
AcDbArc
 50
90.0
 51
270.0
  0
LINE
  5
499
330
1A
100
AcDbEntity
  8
SEIHIN
  6
CONTINUOUS
 62
     3
 48
16.0
100
AcDbLine
 10
359.8264900922383
 20
401.2042881204733
 30
0.0
 11
359.8264900922383
 21
403.7042881204732
 31
0.0
  0
LINE
  5
49A
330
1A
100
AcDbEntity
  8
SEIHIN
  6
CONTINUOUS
 62
     3
 48
16.0
100
AcDbLine
 10
354.4884900922383
 20
401.2042881204733
 30
0.0
 11
354.4884900922383
 21
403.7042881204732
 31
0.0
  0
LINE
  5
49B
330
1A
100
AcDbEntity
  8
SEIHIN
  6
CONTINUOUS
 62
     3
 48
16.0
100
AcDbLine
 10
370.8348900922383
 20
392.7042881204734
 30
0.0
 11
370.8348900922383
 21
396.2042881204734
 31
0.0
  0
LINE
  5
49C
330
1A
100
AcDbEntity
  8
SEIHIN
  6
CONTINUOUS
 62
     3
 48
16.0
100
AcDbLine
 10
370.8348900922383
 20
401.2042881204733
 30
0.0
 11
370.8348900922383
 21
403.7042881204732
 31
0.0
  0
ARC
  5
49D
330
1A
100
AcDbEntity
  8
SEIHIN
  6
CONTINUOUS
 62
     3
 48
16.0
100
AcDbCircle
 10
365.3306400922383
 20
444.0773881205554
 30
0.0
 40
29.88425666178287
100
AcDbArc
 50
259.3865397477246
 51
280.6134602522753
  0
LINE
  5
49E
330
1A
100
AcDbEntity
  8
SEIHIN
  6
CONTINUOUS
 62
     3
 48
16.0
100
AcDbLine
 10
359.8264900922383
 20
414.7042881204734
 30
0.0
 11
346.9553900922383
 21
414.7042881204734
 31
0.0
  0
ARC
  5
49F
330
1A
100
AcDbEntity
  8
SEIHIN
  6
CONTINUOUS
 62
     3
 48
16.0
100
AcDbCircle
 10
353.7884900922382
 20
408.7042881204734
 30
0.0
 40
2.5
100
AcDbArc
 50
90.0
 51
270.0
  0
LINE
  5
4A0
330
1A
100
AcDbEntity
  8
SEIHIN
  6
CONTINUOUS
 62
     3
 48
16.0
100
AcDbLine
 10
346.9553900922383
 20
416.2042881204732
 30
0.0
 11
346.1554900922383
 21
416.2042881204732
 31
0.0
  0
LINE
  5
4A1
330
1A
100
AcDbEntity
  8
SEIHIN
  6
CONTINUOUS
 62
     3
 48
16.0
100
AcDbLine
 10
359.8264900922383
 20
414.7042881204734
 30
0.0
 11
359.8264900922383
 21
411.2042881204734
 31
0.0
  0
LINE
  5
4A2
330
1A
100
AcDbEntity
  8
SEIHIN
  6
CONTINUOUS
 62
     3
 48
16.0
100
AcDbLine
 10
354.4884900922383
 20
414.7042881204734
 30
0.0
 11
354.4884900922383
 21
411.2042881204734
 31
0.0
  0
LINE
  5
4A3
330
1A
100
AcDbEntity
  8
SEIHIN
  6
CONTINUOUS
 62
     3
 48
16.0
100
AcDbLine
 10
370.8348900922383
 20
414.7042881204734
 30
0.0
 11
370.8348900922383
 21
411.2042881204734
 31
0.0
  0
LINE
  5
4A4
330
1A
100
AcDbEntity
  8
SEIHIN
  6
CONTINUOUS
 62
     3
 48
16.0
100
AcDbLine
 10
405.9553900922382
 20
405.7042881204734
 30
0.0
 11
405.9553900922382
 21
403.7042881204732
 31
0.0
  0
LINE
  5
4A5
330
1A
100
AcDbEntity
  8
SEIHIN
  6
CONTINUOUS
 62
     3
 48
16.0
100
AcDbLine
 10
401.9553900922383
 20
405.7042881204734
 30
0.0
 11
401.9553900922383
 21
403.7042881204732
 31
0.0
  0
ARC
  5
4A6
330
1A
100
AcDbEntity
  8
SEIHIN
  6
CONTINUOUS
 62
     3
 48
16.0
100
AcDbCircle
 10
403.9553900922382
 20
403.7042881204732
 30
0.0
 40
4.999999999999914
100
AcDbArc
 50
0.0
 51
180.0
  0
LINE
  5
4A7
330
1A
100
AcDbEntity
  8
CENTER_L
  6
CENTER
 62
     1
 48
5.0
100
AcDbLine
 10
403.9553900922383
 20
421.1826881204734
 30
0.0
 11
403.9553900922383
 21
387.0243881204734
 31
0.0
  0
LINE
  5
4A8
330
1A
100
AcDbEntity
  8
SEIHIN
  6
CONTINUOUS
 62
     3
 48
16.0
100
AcDbLine
 10
401.9553900922383
 20
401.7042881204733
 30
0.0
 11
405.9553900922382
 21
401.7042881204733
 31
0.0
  0
ARC
  5
4A9
330
1A
100
AcDbEntity
  8
SEIHIN
  6
CONTINUOUS
 62
     3
 48
16.0
100
AcDbCircle
 10
403.9553900922382
 20
403.7042881204732
 30
0.0
 40
4.999999999999914
100
AcDbArc
 50
180.0
 51
0.0
  0
ARC
  5
4AA
330
1A
100
AcDbEntity
  8
SEIHIN
  6
CONTINUOUS
 62
     3
 48
16.0
100
AcDbCircle
 10
403.9554400922383
 20
403.7042881206008
 30
0.0
 40
7.000001480223952
100
AcDbArc
 50
200.9248277961659
 51
339.075172203834
  0
LINE
  5
4AB
330
1A
100
AcDbEntity
  8
SEIHIN
  6
CONTINUOUS
 62
     3
 48
16.0
100
AcDbLine
 10
401.9553900922383
 20
401.7042881204733
 30
0.0
 11
401.9553900922383
 21
403.7042881204732
 31
0.0
  0
LINE
  5
4AC
330
1A
100
AcDbEntity
  8
SEIHIN
  6
CONTINUOUS
 62
     3
 48
16.0
100
AcDbLine
 10
405.9553900922382
 20
401.7042881204733
 30
0.0
 11
405.9553900922382
 21
403.7042881204732
 31
0.0
  0
LINE
  5
4AD
330
1A
100
AcDbEntity
  8
SEIHIN
  6
CONTINUOUS
 62
     3
 48
16.0
100
AcDbLine
 10
401.9553900922383
 20
405.7042881204734
 30
0.0
 11
405.9553900922382
 21
405.7042881204734
 31
0.0
  0
ARC
  5
4AE
330
1A
100
AcDbEntity
  8
SEIHIN
  6
CONTINUOUS
 62
     3
 48
16.0
100
AcDbCircle
 10
403.9554400922383
 20
403.7042881203459
 30
0.0
 40
7.000037195125301
100
AcDbArc
 50
20.92559232226868
 51
159.0744076777313
  0
ARC
  5
4BF
330
1A
100
AcDbEntity
  8
SEIHIN
  6
CONTINUOUS
 62
     3
 48
16.0
100
AcDbCircle
 10
451.6090355645771
 20
169.838031943215
 30
0.0
 40
9.00003713030709
100
AcDbArc
 50
105.3024963359054
 51
171.144137839356
  0
ARC
  5
4C0
330
1A
100
AcDbEntity
  8
SEIHIN
  6
CONTINUOUS
 62
     3
 48
16.0
100
AcDbCircle
 10
451.6089521067737
 20
169.8379377729043
 30
0.0
 40
12.200024197362
100
AcDbArc
 50
104.4865145161787
 51
172.9567776659507
  0
ARC
  5
4C1
330
1A
100
AcDbEntity
  8
SEIHIN
  6
CONTINUOUS
 62
     3
 48
16.0
100
AcDbCircle
 10
450.9089946926612
 20
170.5379862354903
 30
0.0
 40
12.9999893986503
100
AcDbArc
 50
105.7631962760616
 51
171.1438880661146
  0
LINE
  5
4C3
330
1A
100
AcDbEntity
  8
SEIHIN
  6
CONTINUOUS
 62
     3
 48
16.0
100
AcDbLine
 10
470.3885900922382
 20
189.6179810441509
 30
0.0
 11
461.5950900922383
 21
147.9325810441508
 31
0.0
  0
LINE
  5
4C4
330
1A
100
AcDbEntity
  8
SEIHIN
  6
CONTINUOUS
 62
     3
 48
16.0
100
AcDbLine
 10
453.7851900922383
 20
149.6661810441509
 30
0.0
 11
461.9105900922382
 21
188.3417810441509
 31
0.0
  0
ARC
  5
4C5
330
1A
100
AcDbEntity
  8
SEIHIN
  6
CONTINUOUS
 62
     3
 48
16.0
100
AcDbCircle
 10
437.9553183677257
 20
151.993278742881
 30
0.0
 40
24.00002827548769
100
AcDbArc
 50
179.9999945061295
 51
350.6941906243789
  0
ARC
  5
4C6
330
1A
100
AcDbEntity
  8
SEIHIN
  6
CONTINUOUS
 62
     3
 48
16.0
100
AcDbCircle
 10
437.9553077237813
 20
151.9932797551013
 30
0.0
 40
16.00001763154318
100
AcDbArc
 50
179.9999953839365
 51
351.6370373407513
  0
LINE
  5
4C7
330
1A
100
AcDbEntity
  8
SEIHIN
  6
CONTINUOUS
 62
     3
 48
16.0
100
AcDbLine
 10
413.9552900922382
 20
151.9932810441508
 30
0.0
 11
413.9552900922382
 21
160.1932810441508
 31
0.0
  0
LINE
  5
4C8
330
1A
100
AcDbEntity
  8
SEIHIN
  6
CONTINUOUS
 62
     3
 48
16.0
100
AcDbLine
 10
421.9552900922382
 20
151.9932810441508
 30
0.0
 11
421.9552900922382
 21
165.1932810441508
 31
0.0
  0
LINE
  5
4C9
330
1A
100
AcDbEntity
  8
SEIHIN
  6
CONTINUOUS
 62
     3
 48
16.0
100
AcDbLine
 10
437.7758900922382
 20
166.9932810441508
 30
0.0
 11
421.6199900922381
 21
166.9932810441508
 31
0.0
  0
LINE
  5
4CA
330
1A
100
AcDbEntity
  8
SEIHIN
  6
CONTINUOUS
 62
     3
 48
16.0
100
AcDbLine
 10
433.0758900922382
 20
171.6932810441508
 30
0.0
 11
422.3890900922383
 21
171.6932810441508
 31
0.0
  0
ARC
  5
4CB
330
1A
100
AcDbEntity
  8
SEIHIN
  6
CONTINUOUS
 62
     3
 48
16.0
100
AcDbCircle
 10
411.9552900922382
 20
160.1932810441508
 30
0.0
 40
1.999999999999943
100
AcDbArc
 50
359.9999999999983
 51
89.99999999999836
  0
ARC
  5
4CC
330
1A
100
AcDbEntity
  8
SEIHIN
  6
CONTINUOUS
 62
     3
 48
16.0
100
AcDbCircle
 10
416.9552900922382
 20
165.1932810441508
 30
0.0
 40
4.999999999999971
100
AcDbArc
 50
0.0000000000003257
 51
90.00000000000033
  0
ARC
  5
4CF
330
1A
100
AcDbEntity
  8
SEIHIN
  6
CONTINUOUS
 62
     3
 48
16.0
100
AcDbCircle
 10
438.2108392687465
 20
171.4932361137517
 30
0.0
 40
1.299955070594461
100
AcDbArc
 50
270.00224005556
 51
352.9586826997641
  0
ARC
  5
4D0
330
1A
100
AcDbEntity
  8
SEIHIN
  6
CONTINUOUS
 62
     3
 48
16.0
100
AcDbCircle
 10
437.7758985126702
 20
171.9932882541405
 30
0.0
 40
5.000007209996808
100
AcDbArc
 50
269.9999035090966
 51
351.1434446026494
  0
ARC
  5
4D1
330
1A
100
AcDbEntity
  8
SEIHIN
  6
CONTINUOUS
 62
     3
 48
16.0
100
AcDbCircle
 10
437.0758402267497
 20
172.6932383448276
 30
0.0
 40
0.9999573019201054
100
AcDbArc
 50
270.0028572040314
 51
351.1490895878292
  0
LINE
  5
4D2
330
1A
100
AcDbEntity
  8
SEIHIN
  6
CONTINUOUS
 62
     3
 48
16.0
100
AcDbLine
 10
450.8218007856166
 20
222.3172796711454
 30
0.0
 11
460.3909155912426
 21
223.5615959904665
 31
0.0
  0
LINE
  5
4D3
330
1A
100
AcDbEntity
  8
SEIHIN
  6
CONTINUOUS
 62
     3
 48
16.0
100
AcDbLine
 10
460.9203707166558
 20
224.9362689758924
 30
0.0
 11
450.6547693157743
 21
223.6013981111976
 31
0.0
  0
LINE
  5
4D4
330
1A
100
AcDbEntity
  8
SEIHIN
  6
CONTINUOUS
 62
     3
 48
16.0
100
AcDbLine
 10
451.0492079617304
 20
220.5687153525536
 30
0.0
 11
460.5673226516972
 21
223.5530804450026
 31
0.0
  0
LINE
  5
4D5
330
1A
100
AcDbEntity
  8
SEIHIN
  6
CONTINUOUS
 62
     3
 48
16.0
100
AcDbLine
 10
461.9953900922384
 20
223.6558847684622
 30
0.0
 11
461.9953900922383
 21
209.9932810441508
 31
0.0
  0
LINE
  5
4D6
330
1A
100
AcDbEntity
  8
SEIHIN
  6
CONTINUOUS
 62
     3
 48
16.0
100
AcDbLine
 10
460.9553900922382
 20
223.0657703772501
 30
0.0
 11
460.9553900922383
 21
210.6932810441509
 31
0.0
  0
LINE
  5
4D9
330
1A
100
AcDbEntity
  8
SEIHIN
  6
CONTINUOUS
 62
     3
 48
16.0
100
AcDbLine
 10
462.3858900922382
 20
226.4804810441509
 30
0.0
 11
462.3857900922383
 21
192.6758810441509
 31
0.0
  0
LINE
  5
4DA
330
1A
100
AcDbEntity
  8
SEIHIN
  6
CONTINUOUS
 62
     3
 48
16.0
100
AcDbLine
 10
470.8638900922383
 20
226.8259810441509
 30
0.0
 11
470.8638900922383
 21
193.9520810441508
 31
0.0
  0
LINE
  5
4DC
330
1A
100
AcDbEntity
  8
SEIHIN
  6
CONTINUOUS
 62
     3
 48
16.0
100
AcDbLine
 10
449.5039900922384
 20
182.6409810441509
 30
0.0
 11
454.7378900922382
 21
207.5022810441508
 31
0.0
  0
LINE
  5
4DD
330
1A
100
AcDbEntity
  8
SEIHIN
  6
CONTINUOUS
 62
     3
 48
16.0
100
AcDbLine
 10
452.8069900922384
 20
182.3115810441509
 30
0.0
 11
458.3609900922383
 21
208.6932810441509
 31
0.0
  0
LINE
  5
4DE
330
1A
100
AcDbEntity
  8
SEIHIN
  6
CONTINUOUS
 62
     3
 48
16.0
100
AcDbLine
 10
448.0841900922383
 20
183.8054810441508
 30
0.0
 11
453.4221900922383
 21
209.1610810441508
 31
0.0
  0
ARC
  5
4DF
330
1A
100
AcDbEntity
  8
SEIHIN
  6
CONTINUOUS
 62
     3
 48
16.0
100
AcDbCircle
 10
447.9142439429907
 20
183.341738202958
 30
0.0
 40
5.000018865246306
100
AcDbArc
 50
285.3020899876509
 51
348.1101607734645
  0
ARC
  5
4E0
330
1A
100
AcDbEntity
  8
SEIHIN
  6
CONTINUOUS
 62
     3
 48
16.0
100
AcDbCircle
 10
448.2318225913743
 20
182.90881505194
 30
0.0
 40
1.300055847255436
100
AcDbArc
 50
284.4845009547528
 51
348.1109421453309
  0
ARC
  5
4E1
330
1A
100
AcDbEntity
  8
SEIHIN
  6
CONTINUOUS
 62
     3
 48
16.0
100
AcDbCircle
 10
447.1056451110459
 20
184.0114329118225
 30
0.0
 40
0.9999832258665094
100
AcDbArc
 50
285.7684012060518
 51
348.1145715757594
  0
ARC
  5
4E2
330
1A
100
AcDbEntity
  8
SEIHIN
  6
CONTINUOUS
 62
     3
 48
16.0
100
AcDbCircle
 10
442.3858000961994
 20
192.6760722707301
 30
0.0
 40
19.99998999695307
100
AcDbArc
 50
347.4838573263843
 51
359.9994521759297
  0
ARC
  5
4E3
330
1A
100
AcDbEntity
  8
SEIHIN
  6
CONTINUOUS
 62
     3
 48
16.0
100
AcDbCircle
 10
450.8639000961998
 20
193.9522722707306
 30
0.0
 40
19.9999899969528
100
AcDbArc
 50
347.4838573263827
 51
359.9994521759281
  0
LINE
  5
4E4
330
1A
100
AcDbEntity
  8
SEIHIN
  6
CONTINUOUS
 62
     3
 48
16.0
100
AcDbLine
 10
456.2057900922384
 20
208.6932810441509
 30
0.0
 11
460.6952900922383
 21
208.6932810441509
 31
0.0
  0
ARC
  5
4E5
330
1A
100
AcDbEntity
  8
SEIHIN
  6
CONTINUOUS
 62
     3
 48
16.0
100
AcDbCircle
 10
460.4553900922383
 20
210.6932810441509
 30
0.0
 40
0.5
100
AcDbArc
 50
270.0
 51
0.0
  0
LINE
  5
4E6
330
1A
100
AcDbEntity
  8
SEIHIN
  6
CONTINUOUS
 62
     3
 48
16.0
100
AcDbLine
 10
454.6943900922383
 20
210.1932810441509
 30
0.0
 11
460.4553900922383
 21
210.1932810441509
 31
0.0
  0
ARC
  5
4E7
330
1A
100
AcDbEntity
  8
SEIHIN
  6
CONTINUOUS
 62
     3
 48
16.0
100
AcDbCircle
 10
454.6943403989425
 20
208.8932407223246
 30
0.0
 40
1.300040322776047
100
AcDbArc
 50
89.99780990168735
 51
168.1105137234756
  0
ARC
  5
4E8
330
1A
100
AcDbEntity
  8
SEIHIN
  6
CONTINUOUS
 62
     3
 48
16.0
100
AcDbCircle
 10
456.205746668912
 20
207.1932458099784
 30
0.0
 40
1.500035234800998
100
AcDbArc
 50
89.99834139007171
 51
168.110863648106
  0
LINE
  5
4E9
330
1A
100
AcDbEntity
  8
SEIHIN
  6
CONTINUOUS
 62
     3
 48
16.0
100
AcDbLine
 10
450.654756105752
 20
223.6012989875613
 30
0.0
 11
451.0492079617304
 21
220.5687153525536
 31
0.0
  0
ARC
  5
4EA
330
1A
100
AcDbEntity
  8
SEIHIN
  6
CONTINUOUS
 62
     3
 48
16.0
100
AcDbCircle
 10
460.6952900922383
 20
209.9932810441507
 30
0.0
 40
1.299999999999869
100
AcDbArc
 50
270.0000000000012
 51
0.0000000000012526
  0
LINE
  5
4EC
330
1A
100
AcDbEntity
  8
SEIHIN
  6
CONTINUOUS
100
AcDbLine
 10
453.0600665292158
 20
245.7559716184343
 30
0.0
 11
451.2031900922384
 21
245.0131810441507
 31
0.0
  0
LINE
  5
4ED
330
1A
100
AcDbEntity
  8
SEIHIN
  6
CONTINUOUS
 62
     3
 48
16.0
100
AcDbLine
 10
453.0600900922384
 20
245.7559810441509
 30
0.0
 11
451.2031900922384
 21
245.0131810441507
 31
0.0
  0
LINE
  5
4EE
330
1A
100
AcDbEntity
  8
SEIHIN
  6
CONTINUOUS
 62
     3
 48
16.0
100
AcDbLine
 10
470.8638900922383
 20
226.8259810441509
 30
0.0
 11
457.7952900922383
 21
259.4973810441509
 31
0.0
  0
LINE
  5
4EF
330
1A
100
AcDbEntity
  8
SEIHIN
  6
CONTINUOUS
 62
     3
 48
16.0
100
AcDbLine
 10
456.4025900922383
 20
258.9402810441507
 30
0.0
 11
467.5442900922382
 21
231.0859810441509
 31
0.0
  0
LINE
  5
4F0
330
1A
100
AcDbEntity
  8
SEIHIN
  6
CONTINUOUS
 62
     3
 48
16.0
100
AcDbLine
 10
448.9747900922382
 20
255.9691810441508
 30
0.0
 11
460.1164900922383
 21
228.1148810441507
 31
0.0
  0
LINE
  5
4F2
330
1A
100
AcDbEntity
  8
SEIHIN
  6
CONTINUOUS
 62
     3
 48
16.0
100
AcDbLine
 10
460.1164900922383
 20
228.1148810441507
 30
0.0
 11
468.9369900922383
 21
231.6430810441509
 31
0.0
  0
LINE
  5
4F4
330
1A
100
AcDbEntity
  8
SEIHIN
  6
CONTINUOUS
 62
     3
 48
16.0
100
AcDbLine
 10
451.2031900922384
 20
245.0131810441507
 30
0.0
 11
454.1742900922383
 21
237.5853810441507
 31
0.0
  0
LINE
  5
4F5
330
1A
100
AcDbEntity
  8
SEIHIN
  6
CONTINUOUS
 62
     3
 48
16.0
100
AcDbLine
 10
454.1742900922383
 20
237.5852810441509
 30
0.0
 11
456.0311900922382
 21
238.3280810441509
 31
0.0
  0
LINE
  5
4F6
330
1A
100
AcDbEntity
  8
CENTER_L
  6
CENTER
 62
     1
 48
5.0
100
AcDbLine
 10
473.5794356496304
 20
238.8851650223497
 30
0.0
 11
460.4235900922383
 21
233.6228810441509
 31
0.0
  0
LINE
  5
4F7
330
1A
100
AcDbEntity
  8
SEIHIN
  6
CONTINUOUS
 62
     3
 48
16.0
100
AcDbLine
 10
462.3858900922382
 20
226.4804810441509
 30
0.0
 11
461.5091900922382
 21
228.6719810441509
 31
0.0
  0
LINE
  5
4F8
330
1A
100
AcDbEntity
  8
SEIHIN
  6
CONTINUOUS
 62
     3
 48
16.0
100
AcDbLine
 10
465.1781900922383
 20
237.0014810441509
 30
0.0
 11
464.5821900922383
 21
235.2862810441507
 31
0.0
  0
LINE
  5
4F9
330
1A
100
AcDbEntity
  8
SEIHIN
  6
CONTINUOUS
 62
     3
 48
16.0
100
AcDbLine
 10
466.1965900922382
 20
234.4552810441509
 30
0.0
 11
464.5821900922383
 21
235.2862810441507
 31
0.0
  0
LINE
  5
4FA
330
1A
100
AcDbEntity
  8
CENTER_L
  6
CENTER
 62
     1
 48
5.0
100
AcDbLine
 10
466.1516211583101
 20
257.4546444135406
 30
0.0
 11
453.6356900922382
 21
252.4483810441509
 31
0.0
  0
LINE
  5
4FB
330
1A
100
AcDbEntity
  8
SEIHIN
  6
CONTINUOUS
 62
     3
 48
16.0
100
AcDbLine
 10
448.9747900922382
 20
255.9691810441508
 30
0.0
 11
457.7953900922383
 21
259.4973810441509
 31
0.0
  0
LINE
  5
4FC
330
1A
100
AcDbEntity
  8
SEIHIN
  6
CONTINUOUS
 62
     3
 48
16.0
100
AcDbLine
 10
457.6812900922382
 20
255.7435810441509
 30
0.0
 11
457.2288900922382
 21
253.8856810441507
 31
0.0
  0
LINE
  5
4FD
330
1A
100
AcDbEntity
  8
SEIHIN
  6
CONTINUOUS
 62
     3
 48
16.0
100
AcDbLine
 10
458.8378900922382
 20
252.8520810441509
 30
0.0
 11
457.2289900922382
 21
253.8853810441509
 31
0.0
  0
ELLIPSE
  5
512
330
1A
100
AcDbEntity
  8
SEIHIN
  6
CONTINUOUS
100
AcDbEllipse
 10
458.7195392394754
 20
428.7042881204732
 30
0.0
 11
0.0
 21
-2.0
 31
0.0
210
0.0
220
0.0
230
1.0
 40
0.3714043055254592
 41
1.215345544544833
 42
1.926247109045172
  0
ELLIPSE
  5
513
330
1A
100
AcDbEntity
  8
SEIHIN
  6
CONTINUOUS
100
AcDbEllipse
 10
466.1473387198191
 20
428.7042881204732
 30
0.0
 11
0.0
 21
-2.0
 31
0.0
210
0.0
220
0.0
230
1.0
 40
0.3714043055254592
 41
1.215345544544833
 42
1.926247109045172
  0
ELLIPSE
  5
514
330
1A
100
AcDbEntity
  8
SEIHIN
  6
CONTINUOUS
100
AcDbEllipse
 10
467.5400895725821
 20
428.7042881204732
 30
0.0
 11
0.0
 21
-2.0
 31
0.0
210
0.0
220
0.0
230
1.0
 40
0.3714043055254592
 41
0.0
 42
6.283185307179586
  0
ELLIPSE
  5
515
330
1A
100
AcDbEntity
  8
SEIHIN
  6
CONTINUOUS
100
AcDbEllipse
 10
460.1122900922383
 20
428.7042881204732
 30
0.0
 11
0.0
 21
-2.0
 31
0.0
210
0.0
220
0.0
230
1.0
 40
0.3714043055254592
 41
0.0
 42
6.283185307179586
  0
LINE
  5
516
330
1A
100
AcDbEntity
  8
CENTER_L
  6
CENTER
 62
     1
 48
5.0
100
AcDbLine
 10
467.5400895725821
 20
432.0012881204735
 30
0.0
 11
467.5400895725821
 21
425.0882881204734
 31
0.0
  0
LINE
  5
517
330
1A
100
AcDbEntity
  8
CENTER_L
  6
CENTER
 62
     1
 48
5.0
100
AcDbLine
 10
460.1122900922383
 20
432.0919881204734
 30
0.0
 11
460.1122900922383
 21
425.0100881204734
 31
0.0
  0
LINE
  5
518
330
1A
100
AcDbEntity
  8
SEIHIN
  6
CONTINUOUS
 62
     3
 48
16.0
100
AcDbLine
 10
458.2553900922383
 20
432.7042881204732
 30
0.0
 11
458.2553900922383
 21
413.7042881204734
 31
0.0
  0
LINE
  5
519
330
1A
100
AcDbEntity
  8
SEIHIN
  6
CONTINUOUS
 62
     3
 48
16.0
100
AcDbLine
 10
456.8626900922383
 20
432.7042881204732
 30
0.0
 11
456.8626900922383
 21
414.2042881204734
 31
0.0
  0
LINE
  5
51A
330
1A
100
AcDbEntity
  8
SEIHIN
  6
CONTINUOUS
 62
     3
 48
16.0
100
AcDbLine
 10
469.3970900922382
 20
432.7042881204732
 30
0.0
 11
469.3970900922382
 21
411.7042881204732
 31
0.0
  0
LINE
  5
51B
330
1A
100
AcDbEntity
  8
CENTER_L
  6
CENTER
 62
     1
 48
5.0
100
AcDbLine
 10
467.4553900922382
 20
375.4073881204734
 30
0.0
 11
467.4553900922382
 21
382.3203881204734
 31
0.0
  0
LINE
  5
51C
330
1A
100
AcDbEntity
  8
CENTER_L
  6
CENTER
 62
     1
 48
5.0
100
AcDbLine
 10
460.1122900922383
 20
375.3166881204734
 30
0.0
 11
460.1122900922383
 21
382.3984881204734
 31
0.0
  0
LINE
  5
51D
330
1A
100
AcDbEntity
  8
SEIHIN
  6
CONTINUOUS
 62
     3
 48
16.0
100
AcDbLine
 10
458.2553900922384
 20
374.7042881204734
 30
0.0
 11
458.2553900922383
 21
393.7042881204734
 31
0.0
  0
LINE
  5
51E
330
1A
100
AcDbEntity
  8
SEIHIN
  6
CONTINUOUS
 62
     3
 48
16.0
100
AcDbLine
 10
456.8626900922383
 20
374.7042881204735
 30
0.0
 11
456.8626900922383
 21
393.2042881204732
 31
0.0
  0
LINE
  5
51F
330
1A
100
AcDbEntity
  8
SEIHIN
  6
CONTINUOUS
 62
     3
 48
16.0
100
AcDbLine
 10
469.3970900922382
 20
374.7042881204734
 30
0.0
 11
469.3970900922382
 21
395.7042881204734
 31
0.0
  0
ELLIPSE
  5
528
330
1A
100
AcDbEntity
  8
SEIHIN
  6
CONTINUOUS
100
AcDbEllipse
 10
460.1122900922383
 20
378.7042881204732
 30
0.0
 11
0.0
 21
2.0
 31
0.0
210
0.0
220
0.0
230
-1.0
 40
0.3714043055254592
 41
0.0
 42
6.283185307179586
  0
LINE
  5
529
330
1A
100
AcDbEntity
  8
SEIHIN
  6
CONTINUOUS
 62
     3
 48
16.0
100
AcDbLine
 10
468.3970900922382
 20
373.7042881204734
 30
0.0
 11
457.8626900922383
 21
373.7042881204735
 31
0.0
  0
LINE
  5
52A
330
1A
100
AcDbEntity
  8
CENTER_L
  6
CENTER
 62
     1
 48
5.0
100
AcDbLine
 10
469.3969900922383
 20
378.7042881204732
 30
0.0
 11
465.4553900922381
 21
378.7042881204732
 31
0.0
  0
ELLIPSE
  5
52B
330
1A
100
AcDbEntity
  8
SEIHIN
  6
CONTINUOUS
100
AcDbEllipse
 10
458.6348397591315
 20
378.7042881204732
 30
0.0
 11
0.0
 21
-2.0
 31
0.0
210
0.0
220
0.0
230
1.0
 40
0.3714043055254592
 41
1.215345544544833
 42
1.926247109045172
  0
ELLIPSE
  5
52C
330
1A
100
AcDbEntity
  8
SEIHIN
  6
CONTINUOUS
100
AcDbEllipse
 10
466.0626392394752
 20
378.7042881204732
 30
0.0
 11
0.0
 21
-2.0
 31
0.0
210
0.0
220
0.0
230
1.0
 40
0.3714043055254592
 41
1.215345544544833
 42
1.926247109045172
  0
ELLIPSE
  5
52D
330
1A
100
AcDbEntity
  8
SEIHIN
  6
CONTINUOUS
100
AcDbEllipse
 10
467.4553900922382
 20
378.7042881204732
 30
0.0
 11
0.0
 21
2.0
 31
0.0
210
0.0
220
0.0
230
-1.0
 40
0.3714043055254592
 41
0.0
 42
6.283185307179586
  0
ARC
  5
52E
330
1A
100
AcDbEntity
  8
SEIHIN
  6
CONTINUOUS
 62
     3
 48
16.0
100
AcDbCircle
 10
442.5799900922383
 20
444.0773881208023
 30
0.0
 40
29.88426587117917
100
AcDbArc
 50
259.3864455250362
 51
280.6135544749637
  0
ARC
  5
52F
330
1A
100
AcDbEntity
  8
SEIHIN
  6
CONTINUOUS
 62
     3
 48
16.0
100
AcDbCircle
 10
442.5800900922382
 20
363.331188120473
 30
0.0
 40
29.88426587085628
100
AcDbArc
 50
79.38644552492009
 51
100.6135544750799
  0
LINE
  5
530
330
1A
100
AcDbEntity
  8
SEIHIN
  6
CONTINUOUS
 62
     3
 48
16.0
100
AcDbLine
 10
437.0758900922381
 20
406.2043881204735
 30
0.0
 11
437.0758900922381
 21
403.7043881204734
 31
0.0
  0
LINE
  5
531
330
1A
100
AcDbEntity
  8
SEIHIN
  6
CONTINUOUS
 62
     3
 48
16.0
100
AcDbLine
 10
437.0758900922381
 20
392.7042881204734
 30
0.0
 11
437.0758900922381
 21
396.2042881204734
 31
0.0
  0
LINE
  5
532
330
1A
100
AcDbEntity
  8
SEIHIN
  6
CONTINUOUS
 62
     3
 48
16.0
100
AcDbLine
 10
437.0758900922381
 20
401.2042881204733
 30
0.0
 11
437.0758900922381
 21
403.7042881204732
 31
0.0
  0
LINE
  5
533
330
1A
100
AcDbEntity
  8
SEIHIN
  6
CONTINUOUS
 62
     3
 48
16.0
100
AcDbLine
 10
437.0758900922381
 20
414.7043881204734
 30
0.0
 11
437.0758900922381
 21
411.2043881204734
 31
0.0
  0
LINE
  5
534
330
1A
100
AcDbEntity
  8
SEIHIN
  6
CONTINUOUS
 62
     3
 48
16.0
100
AcDbLine
 10
471.4553900922381
 20
409.7042881204734
 30
0.0
 11
471.4553900922381
 21
403.7043881204734
 31
0.0
  0
LINE
  5
535
330
1A
100
AcDbEntity
  8
SEIHIN
  6
CONTINUOUS
 62
     3
 48
16.0
100
AcDbLine
 10
449.4348900922382
 20
411.2042881204734
 30
0.0
 11
449.4348900922382
 21
403.7043881204734
 31
0.0
  0
LINE
  5
536
330
1A
100
AcDbEntity
  8
SEIHIN
  6
CONTINUOUS
 62
     3
 48
16.0
100
AcDbLine
 10
448.0842900922383
 20
406.2043881204735
 30
0.0
 11
448.0842900922383
 21
403.7043881204734
 31
0.0
  0
LINE
  5
537
330
1A
100
AcDbEntity
  8
SEIHIN
  6
CONTINUOUS
 62
     3
 48
16.0
100
AcDbLine
 10
458.2553900922383
 20
409.7042881204734
 30
0.0
 11
458.2553900922383
 21
403.7043881204734
 31
0.0
  0
LINE
  5
538
330
1A
100
AcDbEntity
  8
SEIHIN
  6
CONTINUOUS
 62
     3
 48
16.0
100
AcDbLine
 10
456.8626900922383
 20
409.2042881204732
 30
0.0
 11
456.8626900922383
 21
403.7043881204734
 31
0.0
  0
LINE
  5
539
330
1A
100
AcDbEntity
  8
SEIHIN
  6
CONTINUOUS
 62
     3
 48
16.0
100
AcDbLine
 10
450.9348900922382
 20
403.7043881204734
 30
0.0
 11
450.9348900922382
 21
410.7042881204734
 31
0.0
  0
LINE
  5
53A
330
1A
100
AcDbEntity
  8
SEIHIN
  6
CONTINUOUS
 62
     3
 48
16.0
100
AcDbLine
 10
469.4553900922383
 20
395.7042881204734
 30
0.0
 11
451.9348900922383
 21
395.7042881204734
 31
0.0
  0
LINE
  5
53B
330
1A
100
AcDbEntity
  8
SEIHIN
  6
CONTINUOUS
 62
     3
 48
16.0
100
AcDbLine
 10
448.0842900922383
 20
392.7042881204734
 30
0.0
 11
448.0842900922383
 21
396.2042881204734
 31
0.0
  0
LINE
  5
53C
330
1A
100
AcDbEntity
  8
SEIHIN
  6
CONTINUOUS
 62
     3
 48
16.0
100
AcDbLine
 10
453.4222900922383
 20
392.7042881204734
 30
0.0
 11
453.4222900922383
 21
394.2042881204734
 31
0.0
  0
ARC
  5
53D
330
1A
100
AcDbEntity
  8
SEIHIN
  6
CONTINUOUS
 62
     3
 48
16.0
100
AcDbCircle
 10
455.8626900922383
 20
393.2042881204734
 30
0.0
 40
1.000000000000085
100
AcDbArc
 50
359.9999999999951
 51
89.99999999999511
  0
LINE
  5
53E
330
1A
100
AcDbEntity
  8
SEIHIN
  6
CONTINUOUS
 62
     3
 48
16.0
100
AcDbLine
 10
448.0842900922383
 20
392.7042881204734
 30
0.0
 11
456.8626900922383
 21
392.7042881204734
 31
0.0
  0
LINE
  5
53F
330
1A
100
AcDbEntity
  8
SEIHIN
  6
CONTINUOUS
 62
     3
 48
16.0
100
AcDbLine
 10
455.8626900922384
 20
394.2042881204734
 30
0.0
 11
451.4348900922382
 21
394.2042881204734
 31
0.0
  0
LINE
  5
540
330
1A
100
AcDbEntity
  8
SEIHIN
  6
CONTINUOUS
 62
     3
 48
16.0
100
AcDbLine
 10
450.9348900922382
 20
397.2042881204732
 30
0.0
 11
455.8626900922384
 21
397.2042881204732
 31
0.0
  0
LINE
  5
541
330
1A
100
AcDbEntity
  8
SEIHIN
  6
CONTINUOUS
 62
     3
 48
16.0
100
AcDbLine
 10
448.0842900922383
 20
401.2042881204733
 30
0.0
 11
448.0842900922383
 21
403.7042881204732
 31
0.0
  0
LINE
  5
542
330
1A
100
AcDbEntity
  8
SEIHIN
  6
CONTINUOUS
 62
     3
 48
16.0
100
AcDbLine
 10
449.4348900922382
 20
396.2042881204734
 30
0.0
 11
449.4348900922382
 21
403.7042881204732
 31
0.0
  0
LINE
  5
543
330
1A
100
AcDbEntity
  8
SEIHIN
  6
CONTINUOUS
 62
     3
 48
16.0
100
AcDbLine
 10
450.9348900922382
 20
403.7042881204732
 30
0.0
 11
450.9348900922382
 21
396.7042881204733
 31
0.0
  0
ARC
  5
544
330
1A
100
AcDbEntity
  8
SEIHIN
  6
CONTINUOUS
 62
     3
 48
16.0
100
AcDbCircle
 10
451.9348900922381
 20
396.7042881204733
 30
0.0
 40
0.9999999999999715
100
AcDbArc
 50
180.0000000000081
 51
270.0000000000081
  0
ARC
  5
545
330
1A
100
AcDbEntity
  8
SEIHIN
  6
CONTINUOUS
 62
     3
 48
16.0
100
AcDbCircle
 10
451.4348900922382
 20
396.2042881204734
 30
0.0
 40
2.0
100
AcDbArc
 50
180.0
 51
270.0
  0
LINE
  5
546
330
1A
100
AcDbEntity
  8
SEIHIN
  6
CONTINUOUS
 62
     3
 48
16.0
100
AcDbLine
 10
456.8626900922383
 20
398.2042881204734
 30
0.0
 11
456.8626900922383
 21
403.7042881204732
 31
0.0
  0
LINE
  5
547
330
1A
100
AcDbEntity
  8
SEIHIN
  6
CONTINUOUS
 62
     3
 48
16.0
100
AcDbLine
 10
458.2553900922383
 20
397.7042881204732
 30
0.0
 11
458.2553900922383
 21
403.7042881204732
 31
0.0
  0
ARC
  5
548
330
1A
100
AcDbEntity
  8
SEIHIN
  6
CONTINUOUS
 62
     3
 48
16.0
100
AcDbCircle
 10
455.8626900922383
 20
398.2042881204733
 30
0.0
 40
1.000000000000085
100
AcDbArc
 50
270.0000000000049
 51
0.0000000000048853
  0
ARC
  5
549
330
1A
100
AcDbEntity
  8
SEIHIN
  6
CONTINUOUS
 62
     3
 48
16.0
100
AcDbCircle
 10
456.2553900922384
 20
397.7042881204734
 30
0.0
 40
1.999999999999914
100
AcDbArc
 50
269.9999999999975
 51
359.9999999999975
  0
ARC
  5
54A
330
1A
100
AcDbEntity
  8
SEIHIN
  6
CONTINUOUS
 62
     3
 48
16.0
100
AcDbCircle
 10
456.2553900922384
 20
393.7042881204734
 30
0.0
 40
2.0
100
AcDbArc
 50
0.0
 51
90.0
  0
LINE
  5
54B
330
1A
100
AcDbEntity
  8
SEIHIN
  6
CONTINUOUS
 62
     3
 48
16.0
100
AcDbLine
 10
471.4553900922381
 20
397.7042881204732
 30
0.0
 11
471.4553900922381
 21
403.7042881204732
 31
0.0
  0
ARC
  5
54C
330
1A
100
AcDbEntity
  8
SEIHIN
  6
CONTINUOUS
 62
     3
 48
16.0
100
AcDbCircle
 10
469.4553900922383
 20
397.7042881204732
 30
0.0
 40
1.999999999999829
100
AcDbArc
 50
270.0
 51
0.0
  0
LINE
  5
54D
330
1A
100
AcDbEntity
  8
SEIHIN
  6
CONTINUOUS
 62
     3
 48
16.0
100
AcDbLine
 10
469.3970900922382
 20
411.7042881204732
 30
0.0
 11
451.9348900922383
 21
411.7042881204732
 31
0.0
  0
LINE
  5
54E
330
1A
100
AcDbEntity
  8
SEIHIN
  6
CONTINUOUS
 62
     3
 48
16.0
100
AcDbLine
 10
448.0842900922383
 20
414.7043881204734
 30
0.0
 11
456.8626900922383
 21
414.7043881204734
 31
0.0
  0
LINE
  5
54F
330
1A
100
AcDbEntity
  8
SEIHIN
  6
CONTINUOUS
 62
     3
 48
16.0
100
AcDbLine
 10
450.9348900922382
 20
410.2042881204734
 30
0.0
 11
455.8626900922384
 21
410.2042881204734
 31
0.0
  0
LINE
  5
550
330
1A
100
AcDbEntity
  8
SEIHIN
  6
CONTINUOUS
 62
     3
 48
16.0
100
AcDbLine
 10
455.8626900922384
 20
413.2042881204732
 30
0.0
 11
451.4348900922382
 21
413.2042881204732
 31
0.0
  0
LINE
  5
551
330
1A
100
AcDbEntity
  8
SEIHIN
  6
CONTINUOUS
 62
     3
 48
16.0
100
AcDbLine
 10
448.0842900922383
 20
414.7043881204734
 30
0.0
 11
448.0842900922383
 21
411.2043881204734
 31
0.0
  0
ARC
  5
552
330
1A
100
AcDbEntity
  8
SEIHIN
  6
CONTINUOUS
 62
     3
 48
16.0
100
AcDbCircle
 10
451.4348900922382
 20
411.2042881204733
 30
0.0
 40
1.999999999999914
100
AcDbArc
 50
89.99999999999756
 51
179.9999999999975
  0
ARC
  5
553
330
1A
100
AcDbEntity
  8
SEIHIN
  6
CONTINUOUS
 62
     3
 48
16.0
100
AcDbCircle
 10
451.9348900922381
 20
410.7042881204733
 30
0.0
 40
0.9999999999999715
100
AcDbArc
 50
89.99999999999186
 51
179.9999999999918
  0
LINE
  5
554
330
1A
100
AcDbEntity
  8
SEIHIN
  6
CONTINUOUS
 62
     3
 48
16.0
100
AcDbLine
 10
453.4222900922383
 20
414.7043881204734
 30
0.0
 11
453.4222900922383
 21
413.2042881204732
 31
0.0
  0
ARC
  5
555
330
1A
100
AcDbEntity
  8
SEIHIN
  6
CONTINUOUS
 62
     3
 48
16.0
100
AcDbCircle
 10
456.2553900922383
 20
413.7042881204734
 30
0.0
 40
2.000000000000085
100
AcDbArc
 50
270.0000000000024
 51
0.0000000000024427
  0
ARC
  5
556
330
1A
100
AcDbEntity
  8
SEIHIN
  6
CONTINUOUS
 62
     3
 48
16.0
100
AcDbCircle
 10
455.8626900922383
 20
414.2042881204734
 30
0.0
 40
1.000000000000085
100
AcDbArc
 50
270.0000000000049
 51
0.0000000000048853
  0
ARC
  5
557
330
1A
100
AcDbEntity
  8
SEIHIN
  6
CONTINUOUS
 62
     3
 48
16.0
100
AcDbCircle
 10
456.2553900922384
 20
409.7042881204734
 30
0.0
 40
1.999999999999914
100
AcDbArc
 50
0.0000000000024427
 51
90.00000000000245
  0
ARC
  5
558
330
1A
100
AcDbEntity
  8
SEIHIN
  6
CONTINUOUS
 62
     3
 48
16.0
100
AcDbCircle
 10
455.8626900922383
 20
409.2042881204734
 30
0.0
 40
1.000000000000085
100
AcDbArc
 50
359.9999999999951
 51
89.99999999999511
  0
ARC
  5
559
330
1A
100
AcDbEntity
  8
SEIHIN
  6
CONTINUOUS
 62
     3
 48
16.0
100
AcDbCircle
 10
469.4553900922383
 20
409.7042881204734
 30
0.0
 40
1.999999999999829
100
AcDbArc
 50
0.0
 51
90.0
  0
LINE
  5
56A
330
1A
100
AcDbEntity
  8
CENTER_L
  6
CENTER
 62
     1
 48
5.0
100
AcDbLine
 10
469.3969900922383
 20
428.7042881204732
 30
0.0
 11
465.4553900922381
 21
428.7042881204732
 31
0.0
  0
LINE
  5
56B
330
1A
100
AcDbEntity
  8
SEIHIN
  6
CONTINUOUS
 62
     3
 48
16.0
100
AcDbLine
 10
468.3970900922382
 20
433.7042881204732
 30
0.0
 11
457.8626900922383
 21
433.7042881204732
 31
0.0
  0
DIMENSION
  5
5E7
330
1A
100
AcDbEntity
  8
SUNPOU
  6
CONTINUOUS
100
AcDbDimension
  2
*D2
 10
579.0633801880936
 20
345.0882174639456
 30
0.0
 11
605.0613912862279
 21
360.8712279163684
 31
0.0
 12
-26.73982932477929
 22
88.14928648014477
 32
0.0
 70
    32
  3
STANDARD
100
AcDbAlignedDimension
 13
647.6251780845049
 23
335.2347478868141
 33
0.0
 14
591.915565314321
 24
312.9538357637397
 34
0.0
 50
21.79899999999983
100
AcDbRotatedDimension
1001
ACAD
1000
DSTYLE
1002
{
1070
   140
1040
6.0
1070
    74
1070
     0
1070
   172
1070
     1
1070
    73
1070
     0
1070
   272
1070
     2
1070
    77
1070
     3
1070
   173
1070
     1
1070
   147
1040
2.0
1070
    42
1040
6.0
1070
    44
1040
3.0
1070
    43
1040
14.0
1070
   271
1070
     0
1070
   178
1070
     4
1070
   177
1070
     4
1070
   176
1070
     4
1070
   141
1040
150.0
1070
     7
1000
_OPEN
1070
     6
1000
_OPEN
1070
    41
1040
7.0
1002
}
  0
DIMENSION
  5
5E8
330
1A
100
AcDbEntity
  8
SUNPOU
  6
CONTINUOUS
100
AcDbDimension
  2
*D3
 10
589.2758775572466
 20
333.0182058402604
 30
0.0
 11
612.1212872741152
 21
342.1552553003975
 31
0.0
 12
14.39164368799674
 22
-27.45544189719515
 32
0.0
 70
   160
  3
STANDARD
100
AcDbAlignedDimension
 13
642.982716631154
 23
333.3780077205598
 33
0.0
 14
596.558039322902
 24
314.810580951425
 34
0.0
 50
21.79899999999983
100
AcDbRotatedDimension
1001
ACAD
1000
DSTYLE
1002
{
1070
   140
1040
6.0
1070
    74
1070
     0
1070
   172
1070
     1
1070
    73
1070
     0
1070
   272
1070
     2
1070
    77
1070
     3
1070
   173
1070
     1
1070
   147
1040
2.0
1070
    42
1040
6.0
1070
    44
1040
3.0
1070
    43
1040
14.0
1070
   271
1070
     0
1070
   178
1070
     4
1070
   177
1070
     4
1070
   176
1070
     4
1070
   141
1040
150.0
1070
     7
1000
_OPEN
1070
     6
1000
_OPEN
1070
    41
1040
7.0
1002
}
  0
LINE
  5
5E9
330
1A
100
AcDbEntity
  8
CENTER_L
  6
CENTER
 62
     1
 48
5.0
100
AcDbLine
 10
616.7016332316158
 20
331.7670737136316
 30
0.0
 11
640.9372898366631
 21
271.1701803391778
 31
0.0
  0
LINE
  5
5EB
330
1A
100
AcDbEntity
  8
SEIHIN
  6
CONTINUOUS
 62
     3
 48
16.0
100
AcDbLine
 10
619.7703716994131
 20
324.0942918252769
 30
0.0
 11
646.6966845383405
 21
334.8633993514316
 31
0.0
  0
LINE
  5
5EC
330
1A
100
AcDbEntity
  8
SEIHIN
  6
CONTINUOUS
 62
     3
 48
16.0
100
AcDbLine
 10
639.4529683856155
 20
299.6558919656845
 30
0.0
 11
657.8371405998775
 21
307.0085929663397
 31
0.0
  0
LINE
  5
5ED
330
1A
100
AcDbEntity
  8
CENTER_L
  6
CENTER
 62
     1
 48
5.0
100
AcDbLine
 10
597.2203324887209
 20
313.1546278836262
 30
0.0
 11
600.2716565882661
 21
305.5253033423696
 31
0.0
  0
LINE
  5
5EE
330
1A
100
AcDbEntity
  8
SEIHIN
  6
CONTINUOUS
 62
     3
 48
16.0
100
AcDbLine
 10
592.2869138497036
 20
312.025342217575
 30
0.0
 11
602.6846728404758
 21
286.0275229248123
 31
0.0
  0
LINE
  5
5F0
330
1A
100
AcDbEntity
  8
SEIHIN
  6
CONTINUOUS
 62
     3
 48
16.0
100
AcDbLine
 10
610.9496947702689
 20
320.566451336867
 30
0.0
 11
622.0901508318062
 21
292.711644951775
 31
0.0
  0
LINE
  5
5F1
330
1A
100
AcDbEntity
  8
SEIHIN
  6
CONTINUOUS
 62
     3
 48
16.0
100
AcDbLine
 10
622.3686871362851
 20
292.8230789146855
 30
0.0
 11
603.9845149220228
 21
285.4703779140302
 31
0.0
  0
ARC
  5
5F2
330
1A
100
AcDbEntity
  8
SEIHIN
  6
CONTINUOUS
 62
     3
 48
16.0
100
AcDbCircle
 10
605.8418176149493
 20
291.5982862072604
 30
0.0
 40
2.0
100
AcDbArc
 50
201.7989999999998
 51
21.79899999999983
  0
ARC
  5
5F3
330
1A
100
AcDbEntity
  8
SEIHIN
  6
CONTINUOUS
 62
     3
 48
16.0
100
AcDbCircle
 10
605.8418176149493
 20
291.5982862072604
 30
0.0
 40
2.0
100
AcDbArc
 50
21.79899999999983
 51
201.7989999999998
  0
LINE
  5
5F4
330
1A
100
AcDbEntity
  8
CENTER_L
  6
CENTER
 62
     1
 48
5.0
100
AcDbLine
 10
610.2559628979856
 20
293.3637289931498
 30
0.0
 11
602.434622240298
 21
290.2355742644952
 31
0.0
  0
LINE
  5
5F5
330
1A
100
AcDbEntity
  8
SEIHIN
  6
CONTINUOUS
 62
     3
 48
16.0
100
AcDbLine
 10
620.9760588055662
 20
295.4972147259989
 30
0.0
 11
618.3763709281865
 21
296.611496081943
 31
0.0
  0
LINE
  5
5F6
330
1A
100
AcDbEntity
  8
SEIHIN
  6
CONTINUOUS
 62
     3
 48
16.0
100
AcDbLine
 10
619.4906894192936
 20
299.2110911100918
 30
0.0
 11
618.3764080633495
 21
296.611403232712
 31
0.0
  0
LINE
  5
5F7
330
1A
100
AcDbEntity
  8
SEIHIN
  6
CONTINUOUS
 62
     3
 48
16.0
100
AcDbLine
 10
619.7703716994131
 20
324.0942918252769
 30
0.0
 11
592.8440588604856
 21
313.3251842991222
 31
0.0
  0
ARC
  5
5F8
330
1A
100
AcDbEntity
  8
SEIHIN
  6
CONTINUOUS
 62
     3
 48
16.0
100
AcDbCircle
 10
598.4147850077706
 20
310.1681323738796
 30
0.0
 40
2.0
100
AcDbArc
 50
201.7989999999998
 51
21.79899999999983
  0
ARC
  5
5F9
330
1A
100
AcDbEntity
  8
SEIHIN
  6
CONTINUOUS
 62
     3
 48
16.0
100
AcDbCircle
 10
598.4147850077706
 20
310.1681323738796
 30
0.0
 40
2.0
100
AcDbArc
 50
21.79899999999983
 51
201.7989999999998
  0
LINE
  5
5FA
330
1A
100
AcDbEntity
  8
CENTER_L
  6
CENTER
 62
     1
 48
5.0
100
AcDbLine
 10
602.8290231400377
 20
311.933612294932
 30
0.0
 11
595.2210500148046
 21
308.890794170934
 31
0.0
  0
LINE
  5
5FB
330
1A
100
AcDbEntity
  8
SEIHIN
  6
CONTINUOUS
 62
     3
 48
16.0
100
AcDbLine
 10
613.5491190476184
 20
314.0670980277812
 30
0.0
 11
610.9494311702385
 21
315.1813793837253
 31
0.0
  0
LINE
  5
5FC
330
1A
100
AcDbEntity
  8
SEIHIN
  6
CONTINUOUS
 62
     3
 48
16.0
100
AcDbLine
 10
612.0637496613457
 20
317.780974411874
 30
0.0
 11
610.9494683054016
 21
315.1812865344942
 31
0.0
  0
LINE
  5
5FD
330
1A
100
AcDbEntity
  8
CENTER_L
  6
CENTER
 62
     1
 48
5.0
100
AcDbLine
 10
643.6449850404324
 20
331.722116552342
 30
0.0
 11
646.6962101138144
 21
324.0930396094097
 31
0.0
  0
LINE
  5
5FF
330
1A
100
AcDbEntity
  8
SEIHIN
  6
CONTINUOUS
 62
     3
 48
16.0
100
AcDbLine
 10
628.5910486285573
 20
327.6221323136867
 30
0.0
 11
639.7315046900945
 21
299.7673259285948
 31
0.0
  0
LINE
  5
600
330
1A
100
AcDbEntity
  8
SEIHIN
  6
CONTINUOUS
 62
     3
 48
16.0
100
AcDbLine
 10
647.9965266198875
 20
334.3062543406496
 30
0.0
 11
658.3942856106595
 21
308.3084350478869
 31
0.0
  0
LINE
  5
601
330
1A
100
AcDbEntity
  8
SEIHIN
  6
CONTINUOUS
 62
     3
 48
16.0
100
AcDbLine
 10
638.6174497990176
 20
302.5528028535878
 30
0.0
 11
639.7317311549617
 21
305.1524907309675
 31
0.0
  0
LINE
  5
602
330
1A
100
AcDbEntity
  8
SEIHIN
  6
CONTINUOUS
 62
     3
 48
16.0
100
AcDbLine
 10
637.1320432775819
 20
306.2667720869116
 30
0.0
 11
639.7317311549617
 21
305.1524907309675
 31
0.0
  0
ARC
  5
603
330
1A
100
AcDbEntity
  8
SEIHIN
  6
CONTINUOUS
 62
     3
 48
16.0
100
AcDbCircle
 10
652.2664144525927
 20
310.1656448915825
 30
0.0
 40
2.0
100
AcDbArc
 50
201.7989999999998
 51
21.79899999999983
  0
LINE
  5
604
330
1A
100
AcDbEntity
  8
CENTER_L
  6
CENTER
 62
     1
 48
5.0
100
AcDbLine
 10
647.8521763203258
 20
308.40016497053
 30
0.0
 11
655.673609827244
 21
311.5283568343475
 31
0.0
  0
ARC
  5
605
330
1A
100
AcDbEntity
  8
SEIHIN
  6
CONTINUOUS
 62
     3
 48
16.0
100
AcDbCircle
 10
652.2664144525927
 20
310.1656448915825
 30
0.0
 40
2.0
100
AcDbArc
 50
21.79899999999983
 51
201.7989999999998
  0
LINE
  5
606
330
1A
100
AcDbEntity
  8
SEIHIN
  6
CONTINUOUS
 62
     3
 48
16.0
100
AcDbLine
 10
631.1905100410697
 20
321.1226861553699
 30
0.0
 11
632.3047913970137
 21
323.7223740327499
 31
0.0
  0
LINE
  5
607
330
1A
100
AcDbEntity
  8
SEIHIN
  6
CONTINUOUS
 62
     3
 48
16.0
100
AcDbLine
 10
629.7050106704032
 20
324.8366182535308
 30
0.0
 11
632.304698547783
 21
323.7223368975867
 31
0.0
  0
ARC
  5
608
330
1A
100
AcDbEntity
  8
SEIHIN
  6
CONTINUOUS
 62
     3
 48
16.0
100
AcDbCircle
 10
644.8394746946449
 20
328.7355281933648
 30
0.0
 40
2.0
100
AcDbArc
 50
201.7989999999998
 51
21.79899999999983
  0
ARC
  5
609
330
1A
100
AcDbEntity
  8
SEIHIN
  6
CONTINUOUS
 62
     3
 48
16.0
100
AcDbCircle
 10
644.8394746946449
 20
328.7355281933648
 30
0.0
 40
2.0
100
AcDbArc
 50
21.79899999999983
 51
201.7989999999998
  0
LINE
  5
60A
330
1A
100
AcDbEntity
  8
CENTER_L
  6
CENTER
 62
     1
 48
5.0
100
AcDbLine
 10
640.425143713147
 20
326.9700111371493
 30
0.0
 11
648.0332096876107
 21
330.0128663963103
 31
0.0
  0
LEADER
  5
6C1
330
1A
100
AcDbEntity
  8
SUNPOU
  6
CONTINUOUS
 62
     4
100
AcDbLeader
  3
STANDARD
 73
     0
 40
6.0
 41
30.19999999999999
 76
     3
 10
596.5765280807069
 20
310.9560482768173
 30
0.0
 10
577.1060871786148
 20
325.7417997365292
 30
0.0
 10
574.3178921316439
 20
325.7417997365292
 30
0.0
1001
ACAD
1000
DSTYLE
1002
{
1070
     6
1000
OPEN
1070
    41
1040
7.0
1070
    42
1040
6.0
1070
    43
1040
14.0
1070
    44
1040
3.0
1070
    73
1070
     0
1070
    74
1070
     0
1070
    77
1070
     3
1070
   140
1040
6.0
1070
   141
1040
150.0
1070
   147
1040
2.0
1070
   172
1070
     1
1070
   173
1070
     1
1070
   176
1070
     4
1070
   177
1070
     4
1070
   178
1070
     4
1070
   271
1070
     0
1070
   272
1070
     2
1070
   341
1005
6D
1070
   343
1005
6D
1070
   344
1005
6D
1002
}
  0
MTEXT
  5
6C2
330
1A
100
AcDbEntity
  8
SUNPOU
  6
CONTINUOUS
 62
     4
100
AcDbMText
 10
572.3178921316439
 20
327.7417997365292
 30
0.0
 40
6.0
 41
0.0
 71
     9
 72
     5
  1
4-φ4.0
1001
ACAD
1000
MTEXTBEGIN
1070
    73
1070
     1
1070
    44
1040
1.0
1070
    74
1070
     0
1000
MTEXTEND
1000
MTEXTBEGIN
1070
    73
1070
     1
1070
    44
1040
1.0
1070
    74
1070
     0
1000
MTEXTEND
1000
MTEXTBEGIN
1070
    73
1070
     1
1070
    44
1040
1.0
1070
    74
1070
     0
1000
MTEXTEND
  0
DIMENSION
  5
6D1
330
1A
100
AcDbEntity
  8
SUNPOU
  6
CONTINUOUS
100
AcDbDimension
  2
*D4
 10
575.0386453910567
 20
279.2786210844673
 30
0.0
 11
575.9676277680339
 21
290.4202992230772
 31
0.0
 12
14.39164368799674
 22
-27.45544189719515
 32
0.0
 70
    33
  3
STANDARD
100
AcDbAlignedDimension
 13
593.7723079912437
 23
308.3113680328911
 33
0.0
 14
601.1992786989353
 24
289.7414971094964
 34
0.0
1001
ACAD
1000
DSTYLE
1002
{
1070
   140
1040
6.0
1070
    74
1070
     0
1070
   172
1070
     1
1070
    73
1070
     0
1070
   272
1070
     2
1070
    77
1070
     3
1070
   173
1070
     1
1070
   147
1040
2.0
1070
    42
1040
6.0
1070
    44
1040
3.0
1070
    43
1040
14.0
1070
   271
1070
     0
1070
   178
1070
     4
1070
   177
1070
     4
1070
   176
1070
     4
1070
   141
1040
150.0
1070
     7
1000
_OPEN
1070
     6
1000
_OPEN
1070
    41
1040
7.0
1002
}
  0
DIMENSION
  5
6DE
330
1A
100
AcDbEntity
  8
SUNPOU
  6
CONTINUOUS
100
AcDbDimension
  2
*D5
 10
564.6535961868972
 20
269.7400811038157
 30
0.0
 11
563.7258358869514
 21
285.5242269732743
 31
0.0
 12
15.52750225903764
 22
-45.61414464480179
 32
0.0
 70
    33
  3
STANDARD
100
AcDbAlignedDimension
 13
591.9155653143211
 23
312.9538357637398
 33
0.0
 14
603.0560213758583
 24
285.0990293786478
 34
0.0
1001
ACAD
1000
DSTYLE
1002
{
1070
   140
1040
6.0
1070
    74
1070
     0
1070
   172
1070
     1
1070
    73
1070
     0
1070
   272
1070
     2
1070
    77
1070
     3
1070
   173
1070
     1
1070
   147
1040
2.0
1070
    42
1040
6.0
1070
    44
1040
3.0
1070
    43
1040
14.0
1070
   271
1070
     0
1070
   178
1070
     4
1070
   177
1070
     4
1070
   176
1070
     4
1070
   141
1040
150.0
1070
     7
1000
_OPEN
1070
     6
1000
_OPEN
1070
    41
1040
7.0
1002
}
  0
DIMENSION
  5
6EB
330
1A
100
AcDbEntity
  8
SUNPOU
  6
CONTINUOUS
100
AcDbDimension
  2
*D6
 10
510.9586086284489
 20
373.7042881204734
 30
0.0
 11
505.9586086284489
 21
403.7042881204733
 31
0.0
 12
1.135858571040898
 22
15.64106264378301
 32
0.0
 70
    32
  3
STANDARD
100
AcDbAlignedDimension
 13
469.3969900922383
 23
433.7042881204732
 33
0.0
 14
469.3969900922383
 24
373.7042881204734
 34
0.0
 50
90.0
100
AcDbRotatedDimension
1001
ACAD
1000
DSTYLE
1002
{
1070
   140
1040
6.0
1070
    74
1070
     0
1070
   172
1070
     1
1070
    73
1070
     0
1070
   272
1070
     2
1070
    77
1070
     3
1070
   173
1070
     1
1070
   147
1040
2.0
1070
    42
1040
6.0
1070
    44
1040
3.0
1070
    43
1040
14.0
1070
   271
1070
     0
1070
   178
1070
     4
1070
   177
1070
     4
1070
   176
1070
     4
1070
   141
1040
150.0
1070
     7
1000
_OPEN
1070
     6
1000
_OPEN
1070
    41
1040
7.0
1002
}
  0
DIMENSION
  5
6FA
330
1A
100
AcDbEntity
  8
SUNPOU
  6
CONTINUOUS
100
AcDbDimension
  2
*D7
 10
308.0558278406092
 20
391.2042881204732
 30
0.0
 11
303.0558278406092
 21
403.7042881204732
 31
0.0
 12
0.0
 22
-6.200234608610344
 32
0.0
 70
    32
  3
STANDARD
100
AcDbAlignedDimension
 13
346.1553900922381
 23
416.2042881204732
 33
0.0
 14
346.1553900922381
 24
391.2042881204732
 34
0.0
 50
90.0
100
AcDbRotatedDimension
1001
ACAD
1000
DSTYLE
1002
{
1070
   140
1040
6.0
1070
    74
1070
     0
1070
   172
1070
     1
1070
    73
1070
     0
1070
   272
1070
     2
1070
    77
1070
     3
1070
   173
1070
     1
1070
   147
1040
2.0
1070
    42
1040
6.0
1070
    44
1040
3.0
1070
    43
1040
14.0
1070
   271
1070
     0
1070
   178
1070
     4
1070
   177
1070
     4
1070
   176
1070
     4
1070
   141
1040
150.0
1070
     7
1000
_OPEN
1070
     6
1000
_OPEN
1070
    41
1040
7.0
1002
}
  0
ARC
  5
6FB
330
1A
100
AcDbEntity
  8
SEIHIN
  6
CONTINUOUS
 62
     3
 48
16.0
100
AcDbCircle
 10
460.6953900922384
 20
223.6558847684622
 30
0.0
 40
1.3
100
AcDbArc
 50
0.0
 51
80.03410073683488
  0
ARC
  5
6FC
330
1A
100
AcDbEntity
  8
SEIHIN
  6
CONTINUOUS
 62
     3
 48
16.0
100
AcDbCircle
 10
460.4553900922383
 20
223.0657703772501
 30
0.0
 40
0.5
100
AcDbArc
 50
0.0
 51
97.40886339284941
  0
DIMENSION
  5
70B
330
1A
100
AcDbEntity
  8
SUNPOU
  6
CONTINUOUS
100
AcDbDimension
  2
*D8
 10
460.9574900922381
 20
292.0172618740528
 30
0.0
 11
441.4574900922382
 21
297.0172618740527
 31
0.0
 12
0.0
 22
-33.2113416849329
 32
0.0
 70
    32
  3
STANDARD
100
AcDbAlignedDimension
 13
470.8638900922383
 23
226.8259810441509
 33
0.0
 14
460.9574900922381
 24
220.6957310441509
 34
0.0
100
AcDbRotatedDimension
1001
ACAD
1000
DSTYLE
1002
{
1070
   140
1040
6.0
1070
    74
1070
     0
1070
   172
1070
     1
1070
    73
1070
     0
1070
   272
1070
     2
1070
    77
1070
     3
1070
   173
1070
     1
1070
   147
1040
2.0
1070
    42
1040
6.0
1070
    44
1040
3.0
1070
    43
1040
14.0
1070
   271
1070
     0
1070
   178
1070
     4
1070
   177
1070
     4
1070
   176
1070
     4
1070
   141
1040
150.0
1070
     7
1000
_OPEN
1070
     6
1000
_OPEN
1070
    41
1040
7.0
1002
}
  0
DIMENSION
  5
718
330
1A
100
AcDbEntity
  8
SUNPOU
  6
CONTINUOUS
100
AcDbDimension
  2
*D9
 10
345.4552900922383
 20
308.7532850229615
 30
0.0
 11
408.1595900922383
 21
313.7532850229615
 31
0.0
 12
0.0
 22
-33.2113416849329
 32
0.0
 70
    32
  3
STANDARD
100
AcDbAlignedDimension
 13
470.8638900922383
 23
226.8259810441509
 33
0.0
 14
345.4552900922383
 24
244.6932810441509
 34
0.0
100
AcDbRotatedDimension
1001
ACAD
1000
DSTYLE
1002
{
1070
   140
1040
6.0
1070
    74
1070
     0
1070
   172
1070
     1
1070
    73
1070
     0
1070
   272
1070
     2
1070
    77
1070
     3
1070
   173
1070
     1
1070
   147
1040
2.0
1070
    42
1040
6.0
1070
    44
1040
3.0
1070
    43
1040
14.0
1070
   271
1070
     0
1070
   178
1070
     4
1070
   177
1070
     4
1070
   176
1070
     4
1070
   141
1040
150.0
1070
     7
1000
_OPEN
1070
     6
1000
_OPEN
1070
    41
1040
7.0
1002
}
  0
DIMENSION
  5
768
330
1A
100
AcDbEntity
  8
SUNPOU
  6
CONTINUOUS
100
AcDbDimension
  2
*D10
 10
435.3301312163444
 20
221.6907310441508
 30
0.0
 11
430.3301312163444
 21
240.5940560441508
 31
0.0
 12
1.135858571040898
 22
-51.37004443253954
 32
0.0
 70
    32
  3
STANDARD
100
AcDbAlignedDimension
 13
457.7953900922383
 23
259.4973810441509
 33
0.0
 14
459.9624900922381
 24
221.6907310441508
 34
0.0
 50
90.0
100
AcDbRotatedDimension
1001
ACAD
1000
DSTYLE
1002
{
1070
   140
1040
6.0
1070
    74
1070
     0
1070
   172
1070
     1
1070
    73
1070
     0
1070
   272
1070
     2
1070
    77
1070
     3
1070
   173
1070
     1
1070
   147
1040
2.0
1070
    42
1040
6.0
1070
    44
1040
3.0
1070
    43
1040
14.0
1070
   271
1070
     0
1070
   178
1070
     4
1070
   177
1070
     4
1070
   176
1070
     4
1070
   141
1040
150.0
1070
     7
1000
_OPEN
1070
     6
1000
_OPEN
1070
    41
1040
7.0
1002
}
  0
DIMENSION
  5
775
330
1A
100
AcDbEntity
  8
SUNPOU
  6
CONTINUOUS
100
AcDbDimension
  2
*D11
 10
308.0640975995011
 20
170.1932810441508
 30
0.0
 11
303.0640975995011
 21
207.4432810441508
 31
0.0
 12
0.0
 22
-33.2113416849329
 32
0.0
 70
    32
  3
STANDARD
100
AcDbAlignedDimension
 13
345.4552900922383
 23
244.6932810441509
 33
0.0
 14
369.6997900922383
 24
170.1932810441508
 34
0.0
 50
90.0
100
AcDbRotatedDimension
1001
ACAD
1000
DSTYLE
1002
{
1070
   140
1040
6.0
1070
    74
1070
     0
1070
   172
1070
     1
1070
    73
1070
     0
1070
   272
1070
     2
1070
    77
1070
     3
1070
   173
1070
     1
1070
   147
1040
2.0
1070
    42
1040
6.0
1070
    44
1040
3.0
1070
    43
1040
14.0
1070
   271
1070
     0
1070
   178
1070
     4
1070
   177
1070
     4
1070
   176
1070
     4
1070
   141
1040
150.0
1070
     7
1000
_OPEN
1070
     6
1000
_OPEN
1070
    41
1040
7.0
1002
}
  0
DIMENSION
  5
854
330
1A
100
AcDbEntity
  8
SUNPOU
  6
CONTINUOUS
100
AcDbDimension
  2
*D12
 10
482.032229968233
 20
236.8811205785273
 30
0.0
 11
475.9043575471844
 21
252.200966630945
 31
0.0
 12
0.0
 22
-33.2113416849329
 32
0.0
 70
   161
  3
STANDARD
100
AcDbAlignedDimension
 13
457.7953900922385
 23
259.4973810441509
 33
0.0
 14
468.9369900922384
 24
231.6430810441509
 34
0.0
1001
ACAD
1000
DSTYLE
1002
{
1070
   140
1040
6.0
1070
    74
1070
     0
1070
   172
1070
     1
1070
    73
1070
     0
1070
   272
1070
     2
1070
    77
1070
     3
1070
   173
1070
     1
1070
   147
1040
2.0
1070
    42
1040
6.0
1070
    44
1040
3.0
1070
    43
1040
14.0
1070
   271
1070
     0
1070
   178
1070
     4
1070
   177
1070
     4
1070
   176
1070
     4
1070
   141
1040
150.0
1070
     7
1000
_OPEN
1070
     6
1000
_OPEN
1070
    41
1040
7.0
1002
}
  0
ARC
  5
8B0
330
1A
100
AcDbEntity
  8
SEIHIN
  6
CONTINUOUS
 62
     3
 48
16.0
100
AcDbCircle
 10
353.7884900922383
 20
408.7042881204732
 30
0.0
 40
2.5
100
AcDbArc
 50
90.0
 51
270.0
  0
ARC
  5
8B1
330
1A
100
AcDbEntity
  8
SEIHIN
  6
CONTINUOUS
 62
     3
 48
16.0
100
AcDbCircle
 10
353.7884900922383
 20
398.7043881204732
 30
0.0
 40
2.500000000000085
100
AcDbArc
 50
90.0
 51
270.0
  0
ARC
  5
8B3
330
1A
100
AcDbEntity
  8
SEIHIN
  6
CONTINUOUS
100
AcDbCircle
 10
373.4598900922382
 20
408.7042881204732
 30
0.0
 40
3.625000000000041
100
AcDbArc
 50
136.3971810272969
 51
223.602818972703
  0
ARC
  5
8B4
330
1A
100
AcDbEntity
  8
SEIHIN
  6
CONTINUOUS
100
AcDbCircle
 10
360.7372043779524
 20
408.7042881204732
 30
0.0
 40
2.660714285714282
100
AcDbArc
 50
110.0159596028825
 51
249.9840403971174
  0
ARC
  5
8B5
330
1A
100
AcDbEntity
  8
SEIHIN
  6
CONTINUOUS
100
AcDbCircle
 10
360.7372043779524
 20
398.7042881204732
 30
0.0
 40
2.660714285714282
100
AcDbArc
 50
110.0159596028825
 51
249.9840403971174
  0
ARC
  5
8B6
330
1A
100
AcDbEntity
  8
SEIHIN
  6
CONTINUOUS
100
AcDbCircle
 10
373.4598900922382
 20
398.7042881204732
 30
0.0
 40
3.625000000000041
100
AcDbArc
 50
136.3971810272969
 51
223.602818972703
  0
ARC
  5
8B7
330
1A
100
AcDbEntity
  8
SEIHIN
  6
CONTINUOUS
100
AcDbCircle
 10
434.4508900922384
 20
408.7042881204732
 30
0.0
 40
3.625000000000041
100
AcDbArc
 50
316.397181027297
 51
43.60281897270302
  0
ARC
  5
8B8
330
1A
100
AcDbEntity
  8
SEIHIN
  6
CONTINUOUS
100
AcDbCircle
 10
434.4508900922384
 20
398.7042881204732
 30
0.0
 40
3.625000000000041
100
AcDbArc
 50
316.397181027297
 51
43.60281897270302
  0
ARC
  5
8B9
330
1A
100
AcDbEntity
  8
SEIHIN
  6
CONTINUOUS
100
AcDbCircle
 10
447.1735758065242
 20
408.7042881204732
 30
0.0
 40
2.660714285714282
100
AcDbArc
 50
290.0159596028825
 51
69.98404039711745
  0
ARC
  5
8BA
330
1A
100
AcDbEntity
  8
SEIHIN
  6
CONTINUOUS
100
AcDbCircle
 10
447.1735758065242
 20
398.7042881204732
 30
0.0
 40
2.660714285714282
100
AcDbArc
 50
290.0159596028825
 51
69.98404039711745
  0
LINE
  5
8BE
330
1A
100
AcDbEntity
  8
SEIHIN
  6
CONTINUOUS
 62
     3
 48
16.0
100
AcDbLine
 10
628.3125005647079
 20
327.510727753072
 30
0.0
 11
646.8799390932657
 21
281.0860210423931
 31
0.0
  0
LINE
  5
8BF
330
1A
100
AcDbEntity
  8
SEIHIN
  6
CONTINUOUS
 62
     3
 48
16.0
100
AcDbLine
 10
611.2282428341183
 20
320.6778558974817
 30
0.0
 11
629.7956578439356
 21
274.253207991394
 31
0.0
  0
DIMENSION
  5
943
330
1A
100
AcDbEntity
  8
SUNPOU
  6
CONTINUOUS
100
AcDbDimension
  2
*D13
 10
487.133000471661
 20
186.1531903514494
 30
0.0
 11
507.5594876711368
 21
199.7089500383741
 31
0.0
 12
0.0
 22
-33.2113416849329
 32
0.0
 70
    33
  1
t<>
  3
STANDARD
100
AcDbAlignedDimension
 13
467.5442831956973
 23
231.0859982855345
 33
0.0
 14
468.9370367321884
 24
231.6430997001309
 34
0.0
1001
ACAD
1000
DSTYLE
1002
{
1070
   140
1040
6.0
1070
    74
1070
     0
1070
   172
1070
     1
1070
    73
1070
     0
1070
   272
1070
     2
1070
    77
1070
     3
1070
   173
1070
     1
1070
   147
1040
2.0
1070
    42
1040
6.0
1070
    44
1040
3.0
1070
    43
1040
14.0
1070
   271
1070
     1
1070
   178
1070
     4
1070
   177
1070
     4
1070
   176
1070
     4
1070
   141
1040
150.0
1070
     7
1000
_OPEN
1070
     6
1000
_OPEN
1070
    41
1040
7.0
1002
}
  0
LINE
  5
9A8
330
1A
100
AcDbEntity
  8
SEIHIN
  6
CONTINUOUS
 62
     3
 48
16.0
100
AcDbLine
 10
219.1774376783036
 20
181.6533810441508
 30
0.0
 11
216.1775069131322
 21
181.6533810441508
 31
0.0
  0
LINE
  5
9A9
330
1A
100
AcDbEntity
  8
SEIHIN
  6
CONTINUOUS
 62
     3
 48
16.0
100
AcDbLine
 10
235.1774069131322
 20
181.6533810441508
 30
0.0
 11
238.1774069131322
 21
181.6533810441508
 31
0.0
  0
ARC
  5
9AB
330
1A
100
AcDbEntity
  8
SEIHIN
  6
CONTINUOUS
 62
     3
100
AcDbCircle
 10
232.1774069131322
 20
181.8313700347914
 30
0.0
 40
3.00527537520096
100
AcDbArc
 50
183.3953591556151
 51
356.6046408443849
  0
ARC
  5
9AE
330
1A
100
AcDbEntity
  8
SEIHIN
  6
CONTINUOUS
 62
     3
100
AcDbCircle
 10
222.1774376783037
 20
181.8313700347914
 30
0.0
 40
3.00527537520096
100
AcDbArc
 50
183.3953591556151
 51
356.6046408443849
  0
LINE
  5
9BB
330
1A
100
AcDbEntity
  8
SEIHIN
  6
CONTINUOUS
100
AcDbLine
 10
459.4573036672258
 20
413.0079911792377
 30
0.0
 11
459.715896076818
 21
414.7042881204733
 31
0.0
  0
LINE
  5
9BC
330
1A
100
AcDbEntity
  8
SEIHIN
  6
CONTINUOUS
100
AcDbLine
 10
459.715896076818
 20
414.7042881204733
 30
0.0
 11
459.998023512874
 21
413.5647855859195
 31
0.0
  0
ARC
  5
9BD
330
1A
100
AcDbEntity
  8
SEIHIN
  6
CONTINUOUS
 48
16.0
100
AcDbCircle
 10
457.582424852575
 20
413.7042881204733
 30
0.0
 40
2.0
100
AcDbArc
 50
270.0
 51
339.6258909479275
  0
ARC
  5
9C0
330
1A
100
AcDbEntity
  8
SEIHIN
  6
CONTINUOUS
 48
16.0
100
AcDbCircle
 10
458.5419872573479
 20
413.2042881204732
 30
0.0
 40
1.5
100
AcDbArc
 50
270.0
 51
13.90611505765883
  0
ARC
  5
9C1
330
1A
100
AcDbEntity
  8
SEIHIN
  6
CONTINUOUS
 48
16.0
100
AcDbCircle
 10
465.9698203915712
 20
413.2042881204732
 30
0.0
 40
1.5
100
AcDbArc
 50
270.0
 51
13.90611505765883
  0
LINE
  5
9C2
330
1A
100
AcDbEntity
  8
SEIHIN
  6
CONTINUOUS
100
AcDbLine
 10
467.1437292110414
 20
414.7042881204733
 30
0.0
 11
467.4258566470975
 21
413.5647855859195
 31
0.0
  0
LINE
  5
9C3
330
1A
100
AcDbEntity
  8
SEIHIN
  6
CONTINUOUS
100
AcDbLine
 10
466.8851368014492
 20
413.0079911792377
 30
0.0
 11
467.1437292110414
 21
414.7042881204733
 31
0.0
  0
ARC
  5
9C4
330
1A
100
AcDbEntity
  8
SEIHIN
  6
CONTINUOUS
 48
16.0
100
AcDbCircle
 10
465.0102579867985
 20
413.7042881204733
 30
0.0
 40
2.0
100
AcDbArc
 50
270.0
 51
339.6258909479275
  0
LINE
  5
9C6
330
1A
100
AcDbEntity
  8
SEIHIN
  6
CONTINUOUS
100
AcDbLine
 10
466.8851368014492
 20
394.4005850617087
 30
0.0
 11
467.1437292110414
 21
392.7042881204732
 31
0.0
  0
LINE
  5
9C7
330
1A
100
AcDbEntity
  8
SEIHIN
  6
CONTINUOUS
100
AcDbLine
 10
467.1437292110414
 20
392.7042881204732
 30
0.0
 11
467.4258566470975
 21
393.843790655027
 31
0.0
  0
ARC
  5
9C8
330
1A
100
AcDbEntity
  8
SEIHIN
  6
CONTINUOUS
 48
16.0
100
AcDbCircle
 10
465.0102579867985
 20
393.7042881204732
 30
0.0
 40
2.0
100
AcDbArc
 50
20.3741090520725
 51
90.0
  0
ARC
  5
9C9
330
1A
100
AcDbEntity
  8
SEIHIN
  6
CONTINUOUS
 48
16.0
100
AcDbCircle
 10
465.9698203915712
 20
394.2042881204733
 30
0.0
 40
1.5
100
AcDbArc
 50
346.0938849423411
 51
90.0
  0
ARC
  5
9CA
330
1A
100
AcDbEntity
  8
SEIHIN
  6
CONTINUOUS
 48
16.0
100
AcDbCircle
 10
458.5419872573479
 20
394.2042881204733
 30
0.0
 40
1.5
100
AcDbArc
 50
346.0938849423411
 51
90.0
  0
LINE
  5
9CB
330
1A
100
AcDbEntity
  8
SEIHIN
  6
CONTINUOUS
100
AcDbLine
 10
459.4573036672258
 20
394.4005850617087
 30
0.0
 11
459.715896076818
 21
392.7042881204732
 31
0.0
  0
LINE
  5
9CC
330
1A
100
AcDbEntity
  8
SEIHIN
  6
CONTINUOUS
100
AcDbLine
 10
459.715896076818
 20
392.7042881204732
 30
0.0
 11
459.998023512874
 21
393.843790655027
 31
0.0
  0
ARC
  5
9CD
330
1A
100
AcDbEntity
  8
SEIHIN
  6
CONTINUOUS
 48
16.0
100
AcDbCircle
 10
457.582424852575
 20
393.7042881204732
 30
0.0
 40
2.0
100
AcDbArc
 50
20.3741090520725
 51
90.0
  0
ARC
  5
9CE
330
1A
100
AcDbEntity
  8
SEIHIN
  6
CONTINUOUS
 62
     3
 48
16.0
100
AcDbCircle
 10
657.465792064495
 20
307.9370865125043
 30
0.0
 40
1.0
100
AcDbArc
 50
291.7988090140685
 51
21.79880901406846
  0
ARC
  5
9CF
330
1A
100
AcDbEntity
  8
SEIHIN
  6
CONTINUOUS
 62
     3
 48
16.0
100
AcDbCircle
 10
647.068033073723
 20
333.9349058052671
 30
0.0
 40
1.0
100
AcDbArc
 50
21.79880901406828
 51
111.7988090140682
  0
ARC
  5
9D0
330
1A
100
AcDbEntity
  8
SEIHIN
  6
CONTINUOUS
 62
     3
 48
16.0
100
AcDbCircle
 10
593.2154073958681
 20
312.3966907529576
 30
0.0
 40
1.0
100
AcDbArc
 50
111.7988090140679
 51
201.7988090140683
  0
ARC
  5
9D1
330
1A
100
AcDbEntity
  8
SEIHIN
  6
CONTINUOUS
 62
     3
 48
16.0
100
AcDbCircle
 10
603.6131663866403
 20
286.3988714601948
 30
0.0
 40
1.0
100
AcDbArc
 50
201.7988090140682
 51
291.798809014068
  0
ARC
  5
9D2
330
1A
100
AcDbEntity
  8
SEIHIN
  6
CONTINUOUS
 62
     3
 48
16.0
100
AcDbCircle
 10
468.3970900922382
 20
432.7042881204732
 30
0.0
 40
1.0
100
AcDbArc
 50
0.0
 51
90.0
  0
ARC
  5
9D3
330
1A
100
AcDbEntity
  8
SEIHIN
  6
CONTINUOUS
 62
     3
 48
16.0
100
AcDbCircle
 10
468.3970900922382
 20
374.7042881204734
 30
0.0
 40
1.0
100
AcDbArc
 50
270.0
 51
0.0
  0
ARC
  5
9D4
330
1A
100
AcDbEntity
  8
SEIHIN
  6
CONTINUOUS
 62
     3
 48
16.0
100
AcDbCircle
 10
459.2553900922384
 20
374.7042881204734
 30
0.0
 40
1.0
100
AcDbArc
 50
180.0
 51
270.0
  0
ARC
  5
9D5
330
1A
100
AcDbEntity
  8
SEIHIN
  6
CONTINUOUS
 62
     3
 48
16.0
100
AcDbCircle
 10
457.8626900922383
 20
374.7042881204735
 30
0.0
 40
1.0
100
AcDbArc
 50
180.0
 51
269.9999999999996
  0
ARC
  5
9D6
330
1A
100
AcDbEntity
  8
SEIHIN
  6
CONTINUOUS
 62
     3
 48
16.0
100
AcDbCircle
 10
459.2553900922383
 20
432.7042881204732
 30
0.0
 40
1.0
100
AcDbArc
 50
90.0
 51
180.0
  0
ARC
  5
9D7
330
1A
100
AcDbEntity
  8
SEIHIN
  6
CONTINUOUS
 62
     3
 48
16.0
100
AcDbCircle
 10
457.8626900922383
 20
432.7042881204732
 30
0.0
 40
1.0
100
AcDbArc
 50
90.0
 51
180.0
  0
LINE
  5
9DA
330
1A
100
AcDbEntity
  8
CENTER_L
  6
CENTER
 62
     1
 48
5.0
100
AcDbLine
 10
462.1122900922383
 20
378.7042881204732
 30
0.0
 11
458.2553900922383
 21
378.7042881204732
 31
0.0
  0
LINE
  5
9DB
330
1A
100
AcDbEntity
  8
CENTER_L
  6
CENTER
 62
     1
 48
5.0
100
AcDbLine
 10
462.1122900922383
 20
428.7042881204733
 30
0.0
 11
458.2553900922383
 21
428.7042881204732
 31
0.0
  0
ARC
  5
9DE
330
1A
100
AcDbEntity
  8
SEIHIN
  6
CONTINUOUS
 62
     3
 48
16.0
100
AcDbCircle
 10
256.1775069131322
 20
232.0861867584529
 30
0.0
 40
1.0
100
AcDbArc
 50
269.9996725955461
 51
0.0
  0
ARC
  5
9DF
330
1A
100
AcDbEntity
  8
SEIHIN
  6
CONTINUOUS
 62
     3
 48
16.0
100
AcDbCircle
 10
198.1775069131322
 20
232.0862810441507
 30
0.0
 40
1.0
100
AcDbArc
 50
180.0
 51
270.0
  0
ARC
  5
9E0
330
1A
100
AcDbEntity
  8
SEIHIN
  6
CONTINUOUS
 62
     3
 48
16.0
100
AcDbCircle
 10
256.1775069131323
 20
257.9975810441507
 30
0.0
 40
1.0
100
AcDbArc
 50
0.0
 51
90.0
  0
ARC
  5
9E1
330
1A
100
AcDbEntity
  8
SEIHIN
  6
CONTINUOUS
 62
     3
 48
16.0
100
AcDbCircle
 10
256.1775069131323
 20
258.4975810441507
 30
0.0
 40
1.0
100
AcDbArc
 50
359.9999999999998
 51
90.0
  0
ARC
  5
9E2
330
1A
100
AcDbEntity
  8
SEIHIN
  6
CONTINUOUS
 62
     3
 48
16.0
100
AcDbCircle
 10
198.1775069131322
 20
257.9975860441383
 30
0.0
 40
1.0
100
AcDbArc
 50
90.00028647889799
 51
180.0
  0
ARC
  5
9E3
330
1A
100
AcDbEntity
  8
SEIHIN
  6
CONTINUOUS
 62
     3
 48
16.0
100
AcDbCircle
 10
198.1775069131322
 20
258.4975810441507
 30
0.0
 40
1.0
100
AcDbArc
 50
90.0
 51
180.0
  0
LINE
  5
9E9
330
1A
100
AcDbEntity
  8
SEIHIN
  6
CONTINUOUS
 62
     3
 48
16.0
100
AcDbLine
 10
346.9553900922383
 20
395.2043881204734
 30
0.0
 11
346.1554900922383
 21
395.2043881204734
 31
0.0
  0
LINE
  5
9EA
330
1A
100
AcDbEntity
  8
SEIHIN
  6
CONTINUOUS
 62
     3
 48
16.0
100
AcDbLine
 10
346.9553900922383
 20
412.2042881204732
 30
0.0
 11
346.1554900922383
 21
412.2042881204732
 31
0.0
  0
DIMENSION
  5
9FB
330
1A
100
AcDbEntity
  8
SUNPOU
  6
CONTINUOUS
100
AcDbDimension
  2
*D14
 10
533.234716372659
 20
127.9932504673933
 30
0.0
 11
528.234716372659
 21
193.7453157557721
 31
0.0
 12
0.0
 22
-33.2113416849329
 32
0.0
 70
    32
  3
STANDARD
100
AcDbAlignedDimension
 13
457.7953900922383
 23
259.4973810441509
 33
0.0
 14
437.9553183677257
 24
127.9932504673933
 34
0.0
 50
90.0
100
AcDbRotatedDimension
1001
ACAD
1000
DSTYLE
1002
{
1070
   140
1040
6.0
1070
    74
1070
     0
1070
   172
1070
     1
1070
    73
1070
     0
1070
   272
1070
     2
1070
    77
1070
     3
1070
   173
1070
     1
1070
   147
1040
2.0
1070
    42
1040
6.0
1070
    44
1040
3.0
1070
    43
1040
14.0
1070
   271
1070
     0
1070
   178
1070
     4
1070
   177
1070
     4
1070
   176
1070
     4
1070
   141
1040
150.0
1070
     7
1000
_OPEN
1070
     6
1000
_OPEN
1070
    41
1040
7.0
1002
}
  0
LINE
  5
A14
330
1A
100
AcDbEntity
  8
CENTER_L
  6
CENTER
 62
     1
 48
5.0
100
AcDbLine
 10
650.4096800748672
 20
314.8081303100977
 30
0.0
 11
653.4404797671355
 21
307.2301236095632
 31
0.0
  0
LINE
  5
A15
330
1A
100
AcDbEntity
  8
CENTER_L
  6
CENTER
 62
     1
 48
5.0
100
AcDbLine
 10
603.9849747165176
 20
296.2407736755317
 30
0.0
 11
607.0158272154243
 21
288.6626349408473
 31
0.0
  0
TEXT
  5
A1D
330
1A
100
AcDbEntity
  8
SUNPOU
  6
CONTINUOUS
 62
     4
100
AcDbText
 10
477.3074528357356
 20
163.5082951143314
 30
0.0
 40
6.0
  1
10
100
AcDbText
  0
LINE
  5
A1E
330
1A
100
AcDbEntity
  8
SUNPOU
  6
CONTINUOUS
 62
     4
 48
16.0
100
AcDbLine
 10
498.4038428291795
 20
157.9755257791811
 30
0.0
 11
474.5079226987915
 21
217.7159274116473
 31
0.0
  0
LINE
  5
A1F
330
1A
100
AcDbEntity
  8
SUNPOU
  6
CONTINUOUS
 62
     4
 48
16.0
100
AcDbLine
 10
490.4039226987834
 20
177.9755257791811
 30
0.0
 11
490.4038226987834
 21
157.9755257791811
 31
0.0
  0
TEXT
  5
A20
330
1A
100
AcDbEntity
  8
SUNPOU
  6
CONTINUOUS
 62
     4
100
AcDbText
 10
491.114860412876
 20
146.8127447046593
 30
0.0
 40
6.0
  1
4
100
AcDbText
  0
LINE
  5
A21
330
1A
100
AcDbEntity
  8
SUNPOU
  6
CONTINUOUS
 62
     4
 48
16.0
100
AcDbLine
 10
490.4038226987834
 20
157.9755257791811
 30
0.0
 11
498.4038428291795
 21
157.9755257791811
 31
0.0
  0
LWPOLYLINE
  5
B53
330
1A
100
AcDbEntity
  8
ZUWAKU
100
AcDbPolyline
 90
        4
 70
     1
 43
0.0
 10
0.7999994527210675
 20
550.7999998096563
 10
0.7999994527210675
 20
0.7999998096563559
 10
796.799999452721
 20
0.7999998096563559
 10
796.799999452721
 20
550.7999998096563
  0
LWPOLYLINE
  5
B54
330
1A
100
AcDbEntity
  8
ZUWAKU
100
AcDbPolyline
 90
        4
 70
     1
 43
0.0
 10
0.3999994527210902
 20
551.1999998096563
 10
0.3999994527210902
 20
0.3999998096563786
 10
797.1999994527211
 20
0.3999998096563555
 10
797.1999994527211
 20
551.1999998096563
  0
LWPOLYLINE
  5
B55
330
1A
100
AcDbEntity
  8
ZUWAKU
100
AcDbPolyline
 90
        4
 70
     1
 43
0.0
 10
-0.0000005472788871
 20
551.5999998096563
 10
-0.0000005472788871
 20
-0.0000001903437123
 10
797.5999994527212
 20
-0.0000001903436448
 10
797.5999994527212
 20
551.5999998096564
  0
LWPOLYLINE
  5
B56
330
1A
100
AcDbEntity
  8
ZUWAKU
100
AcDbPolyline
 90
        4
 70
     1
 43
0.0
 10
0.599999452721022
 20
550.9999998096564
 10
0.599999452721022
 20
0.5999998096563104
 10
796.9999994527213
 20
0.5999998096563566
 10
796.9999994527211
 20
550.9999998096564
  0
LWPOLYLINE
  5
B57
330
1A
100
AcDbEntity
  8
ZUWAKU
100
AcDbPolyline
 90
        4
 70
     1
 43
0.0
 10
0.1999994527210447
 20
551.3999998096563
 10
0.1999994527210447
 20
0.1999998096563331
 10
797.3999994527209
 20
0.1999998096563562
 10
797.3999994527212
 20
551.3999998096563
  0
LINE
  5
B58
330
1A
100
AcDbEntity
  8
ZUWAKU
100
AcDbLine
 10
-0.0000005472788871
 20
29.99999980965629
 30
0.0
 11
797.3999994527209
 21
29.99999980965629
 31
0.0
  0
LINE
  5
B59
330
1A
100
AcDbEntity
  8
ZUWAKU
100
AcDbLine
 10
-0.0000005472788871
 20
30.19999980965629
 30
0.0
 11
797.3999994527209
 21
30.19999980965629
 31
0.0
  0
LINE
  5
B5A
330
1A
100
AcDbEntity
  8
ZUWAKU
100
AcDbLine
 10
-0.0000005472788871
 20
30.39999980965629
 30
0.0
 11
797.3999994527209
 21
30.39999980965629
 31
0.0
  0
LINE
  5
B5B
330
1A
100
AcDbEntity
  8
ZUWAKU
100
AcDbLine
 10
-0.0000005472788871
 20
30.59999980965629
 30
0.0
 11
797.3999994527209
 21
30.59999980965629
 31
0.0
  0
LINE
  5
B5C
330
1A
100
AcDbEntity
  8
ZUWAKU
100
AcDbLine
 10
-0.0000005472788871
 20
30.79999980965629
 30
0.0
 11
797.3999994527209
 21
30.79999980965629
 31
0.0
  0
LINE
  5
B5D
330
1A
100
AcDbEntity
  8
ZUWAKU
100
AcDbLine
 10
208.6466007427891
 20
15.39999980965632
 30
0.0
 11
447.4243634237125
 21
15.39999980965632
 31
0.0
  0
LINE
  5
B5E
330
1A
100
AcDbEntity
  8
ZUWAKU
100
AcDbLine
 10
208.6466007427891
 20
15.59999980965632
 30
0.0
 11
447.4243634237125
 21
15.59999980965632
 31
0.0
  0
LINE
  5
B5F
330
1A
100
AcDbEntity
  8
ZUWAKU
100
AcDbLine
 10
208.6466007427891
 20
15.19999980965632
 30
0.0
 11
447.4243634237125
 21
15.19999980965631
 31
0.0
  0
TEXT
  5
B60
330
1A
100
AcDbEntity
  8
MOJI
100
AcDbText
 10
92.95778904089024
 20
12.74117793993104
 30
0.0
 40
6.0
  1
ライナートップＸ７０Ｕ
 41
0.9
  7
ｽﾀｲﾙ1
100
AcDbText
  0
CIRCLE
  5
B61
330
1A
100
AcDbEntity
  8
ZUWAKU
100
AcDbCircle
 10
25.99221160750221
 20
15.19999980965629
 30
0.0
 40
1.75
  0
LINE
  5
B62
330
1A
100
AcDbEntity
  8
ZUWAKU
100
AcDbLine
 10
26.86721160750221
 20
7.149999809656293
 30
0.0
 11
24.94221160750226
 21
7.149999809656293
 31
0.0
  0
LINE
  5
B63
330
1A
100
AcDbEntity
  8
ZUWAKU
100
AcDbLine
 10
24.94221160750226
 20
9.94999980965629
 30
0.0
 11
26.86721160750221
 21
9.94999980965629
 31
0.0
  0
LINE
  5
B64
330
1A
100
AcDbEntity
  8
ZUWAKU
100
AcDbLine
 10
26.86721160750221
 20
20.44999980965628
 30
0.0
 11
24.94221160750226
 21
20.44999980965628
 31
0.0
  0
LINE
  5
B65
330
1A
100
AcDbEntity
  8
ZUWAKU
100
AcDbLine
 10
24.94221160750226
 20
23.24999980965625
 30
0.0
 11
26.86721160750221
 21
23.24999980965629
 31
0.0
  0
HATCH
  5
B66
330
1A
100
AcDbEntity
  8
ZUWAKU
100
AcDbHatch
 10
0.0
 20
0.0
 30
0.0
210
0.0
220
0.0
230
1.0
  2
ANSI37
 70
     0
 71
     0
 91
        8
 92
        7
 72
     1
 73
     1
 93
       24
 10
14.50226211384097
 20
17.64484829063987
 42
-0.1989123673796348
 10
14.09221160750223
 20
18.63479778430092
 42
0.0
 10
14.09221160750223
 20
19.9249998096563
 42
-0.4142135623730912
 10
14.61721160750221
 20
20.44999980965628
 42
0.0
 10
17.59221160750212
 20
20.44999980965628
 42
0.4142135623731546
 10
18.11721160750221
 20
20.97499980965628
 42
0.0
 10
18.11721160750221
 20
22.72499980965629
 42
0.4142135623731586
 10
17.59221160750212
 20
23.24999980965629
 42
0.0
 10
14.09221160750223
 20
23.24999980965629
 42
0.4142135623730928
 10
11.29221160750228
 20
20.44999980965632
 42
0.0
 10
11.29221160750228
 20
18.63479778430105
 42
0.1989123673796619
 10
12.52236312651871
 20
15.66494930331744
 42
0.0
 10
15.43216110116338
 20
12.75515132867278
 42
-0.1989123673796613
 10
15.84221160750223
 20
11.76520183501159
 42
0.0
 10
15.84221160750223
 20
10.47499980965628
 42
-0.4142135623730911
 10
15.31721160750225
 20
9.94999980965629
 42
0.0
 10
12.34221160750235
 20
9.94999980965629
 42
0.4142135623731526
 10
11.81721160750225
 20
9.424999809656302
 42
0.0
 10
11.81721160750225
 20
7.674999809656281
 42
0.4142135623731526
 10
12.34221160750235
 20
7.149999809656293
 42
0.0
 10
15.84221160750223
 20
7.149999809656293
 42
0.4142135623731044
 10
18.6422116075023
 20
9.949999809656269
 42
0.0
 10
18.6422116075023
 20
11.76520183501154
 42
0.1989123673796604
 10
17.41206008848576
 20
14.73505031599508
 42
0.0
 97
        0
 92
        7
 72
     1
 73
     1
 93
       16
 10
23.54221160750228
 20
19.04999980965629
 42
-0.4142135623730935
 10
24.94221160750226
 20
20.44999980965628
 42
0.0
 10
26.86721160750221
 20
20.44999980965628
 42
0.4142135623731546
 10
27.3922116075023
 20
20.97499980965628
 42
0.0
 10
27.3922116075023
 20
22.72499980965629
 42
0.4142135623730951
 10
26.86721160750233
 20
23.24999980965629
 42
0.0
 10
24.94221160750214
 20
23.24999980965625
 42
0.4142135623730892
 10
20.74221160750221
 20
19.04999980965622
 42
0.0
 10
20.74221160750221
 20
11.34999980965631
 42
0.4142135623730969
 10
24.94221160750226
 20
7.149999809656293
 42
0.0
 10
26.86721160750221
 20
7.149999809656293
 42
0.4142135623731526
 10
27.3922116075023
 20
7.674999809656281
 42
0.0
 10
27.3922116075023
 20
9.424999809656302
 42
0.4142135623730891
 10
26.86721160750233
 20
9.94999980965629
 42
0.0
 10
24.94221160750226
 20
9.94999980965629
 42
-0.4142135623730928
 10
23.54221160750228
 20
11.34999980965627
 42
0.0
 97
        0
 92
        7
 72
     1
 73
     1
 93
        2
 10
24.24221160750221
 20
15.19999980965629
 42
1.0
 10
27.74221160750221
 20
15.19999980965629
 42
1.0
 97
        0
 92
        7
 72
     1
 73
     1
 93
       26
 10
37.31485808968022
 20
19.20504700321972
 42
0.0
 10
38.37649772281804
 20
22.5669058414893
 42
0.5069206636600134
 10
37.87586682362269
 20
23.24999980965629
 42
0.0
 10
36.17697744401346
 20
23.24999980965629
 42
0.3272098845218764
 10
35.6763465448181
 20
22.88309377782326
 42
0.0
 10
33.80807667018632
 20
16.96690584148937
 42
-0.3272098845219541
 10
33.30744577099085
 20
16.59999980965628
 42
0.0
 10
33.16721160750239
 20
16.59999980965628
 42
-0.4142135623731526
 10
32.6422116075023
 20
17.12499980965627
 42
0.0
 10
32.6422116075023
 20
22.72499980965629
 42
0.4142135623730951
 10
32.11721160750232
 20
23.24999980965629
 42
0.0
 10
30.36721160750221
 20
23.24999980965629
 42
0.4142135623730871
 10
29.84221160750223
 20
22.72499980965631
 42
0.0
 10
29.84221160750223
 20
7.674999809656281
 42
0.4142135623730891
 10
30.36721160750221
 20
7.149999809656293
 42
0.0
 10
32.11721160750221
 20
7.149999809656293
 42
0.4142135623731526
 10
32.6422116075023
 20
7.674999809656281
 42
0.0
 10
32.6422116075023
 20
13.2749998096563
 42
-0.4142135623731526
 10
33.16721160750239
 20
13.79999980965629
 42
0.0
 10
33.30744577099096
 20
13.79999980965629
 42
-0.3272098845218915
 10
33.80807667018632
 20
13.43309377782321
 42
0.0
 10
35.6763465448181
 20
7.516905841489364
 42
0.3272098845218902
 10
36.17697744401346
 20
7.149999809656293
 42
0.0
 10
37.87586682362269
 20
7.149999809656293
 42
0.5069206636600335
 10
38.37649772281804
 20
7.8330937778233
 42
0.0
 10
36.05010634434438
 20
15.19999980965643
 42
0.0
 97
        0
 92
        7
 72
     1
 73
     1
 93
        8
 10
43.49221160750221
 20
22.7249998096563
 42
0.4142135623731546
 10
42.96721160750212
 20
23.24999980965629
 42
0.0
 10
41.21721160750235
 20
23.24999980965629
 42
0.4142135623731507
 10
40.69221160750226
 20
22.72499980965631
 42
0.0
 10
40.69221160750226
 20
7.674999809656281
 42
0.4142135623731526
 10
41.21721160750235
 20
7.149999809656293
 42
0.0
 10
42.96721160750212
 20
7.149999809656293
 42
0.4142135623731526
 10
43.49221160750221
 20
7.674999809656281
 42
0.0
 97
        0
 92
        7
 72
     1
 73
     1
 93
       24
 10
48.39221160750231
 20
19.9249998096563
 42
-0.4142135623731546
 10
48.9172116075024
 20
20.44999980965628
 42
0.0
 10
51.8922116075023
 20
20.44999980965628
 42
0.4142135623730911
 10
52.41721160750228
 20
20.97499980965628
 42
0.0
 10
52.41721160750228
 20
22.72499980965629
 42
0.4142135623730952
 10
51.8922116075023
 20
23.24999980965629
 42
0.0
 10
48.39221160750231
 20
23.24999980965629
 42
0.4142135623731048
 10
45.59221160750223
 20
20.44999980965632
 42
0.0
 10
45.59221160750223
 20
18.63479778430105
 42
0.1989123673796613
 10
46.82236312651878
 20
15.66494930331749
 42
0.0
 10
49.73216110116346
 20
12.75515132867283
 42
-0.1989123673796402
 10
50.1422116075023
 20
11.76520183501175
 42
0.0
 10
50.1422116075023
 20
10.47499980965628
 42
-0.4142135623730911
 10
49.61721160750233
 20
9.94999980965629
 42
0.0
 10
46.6422116075023
 20
9.94999980965629
 42
0.4142135623731526
 10
46.11721160750221
 20
9.424999809656302
 42
0.0
 10
46.11721160750221
 20
7.674999809656281
 42
0.4142135623730891
 10
46.64221160750218
 20
7.149999809656293
 42
0.0
 10
50.1422116075023
 20
7.149999809656293
 42
0.4142135623730925
 10
52.94221160750225
 20
9.949999809656269
 42
0.0
 10
52.94221160750225
 20
11.76520183501154
 42
0.1989123673796675
 10
51.71206008848571
 20
14.73505031599519
 42
0.0
 10
48.80226211384115
 20
17.64484829063971
 42
-0.1989123673796652
 10
48.39221160750231
 20
18.63479778430088
 42
0.0
 97
        0
 92
        7
 72
     1
 73
     1
 93
       16
 10
57.84221160750224
 20
22.72499980965628
 42
0.414213562373103
 10
57.31721160750225
 20
23.24999980965629
 42
0.0
 10
55.56721160750226
 20
23.24999980965629
 42
0.4142135623730871
 10
55.04221160750228
 20
22.72499980965631
 42
0.0
 10
55.04221160750228
 20
9.949999809656269
 42
0.4142135623730926
 10
57.84221160750224
 20
7.149999809656293
 42
0.0
 10
61.34221160750223
 20
7.149999809656293
 42
0.4142135623731044
 10
64.1422116075023
 20
9.949999809656269
 42
0.0
 10
64.1422116075023
 20
22.72499980965629
 42
0.4142135623730951
 10
63.61721160750232
 20
23.24999980965629
 42
0.0
 10
61.86721160750221
 20
23.24999980965629
 42
0.4142135623730871
 10
61.34221160750223
 20
22.72499980965631
 42
0.0
 10
61.34221160750223
 20
10.99999980965626
 42
-0.414213562373088
 10
60.29221160750228
 20
9.94999980965629
 42
0.0
 10
58.8922116075023
 20
9.94999980965629
 42
-0.4142135623731197
 10
57.84221160750224
 20
10.99999980965626
 42
0.0
 97
        0
 92
        7
 72
     1
 73
     1
 93
        8
 10
69.04221160750228
 20
22.72499980965631
 42
0.4142135623730871
 10
68.5172116075023
 20
23.24999980965629
 42
0.0
 10
66.7672116075023
 20
23.24999980965629
 42
0.4142135623731507
 10
66.24221160750221
 20
22.72499980965631
 42
0.0
 10
66.24221160750221
 20
7.674999809656281
 42
0.4142135623730891
 10
66.76721160750219
 20
7.149999809656293
 42
0.0
 10
68.5172116075023
 20
7.149999809656293
 42
0.4142135623730891
 10
69.04221160750228
 20
7.674999809656281
 42
0.0
 97
        0
 75
     0
 76
     1
 52
0.0
 41
0.2
 77
     0
 78
     2
 53
45.0
 43
-900.9423048819579
 44
-13.20000019034364
 45
-0.4490128060534576
 46
0.4490128060534577
 79
     0
 53
135.0
 43
-900.9423048819579
 44
-13.20000019034364
 45
-0.4490128060534577
 46
-0.4490128060534576
 79
     0
 47
0.057451373970553
 98
        8
 10
16.07985441574442
 20
15.16717345554184
 10
22.40451445916028
 20
18.84406199210729
 10
25.16436733838077
 20
15.511881455727
 10
30.91405943435825
 20
16.20129745609779
 10
41.83847147167784
 20
16.6609097236394
 10
46.89820034785066
 20
19.4185761260635
 10
56.55768542512146
 20
18.7291577247513
 10
67.82707907234385
 20
19.18876999229292
  0
ARC
  5
B67
330
1A
100
AcDbEntity
  8
ZUWAKU
100
AcDbCircle
 10
15.49221160750221
 20
18.63479778430099
 30
0.0
 40
4.199999999999999
100
AcDbArc
 50
180.0
 51
225.0
  0
LINE
  5
B68
330
1A
100
AcDbEntity
  8
ZUWAKU
100
AcDbLine
 10
20.74221160750221
 20
11.34999980965629
 30
0.0
 11
20.74221160750221
 21
19.04999980965625
 31
0.0
  0
LINE
  5
B69
330
1A
100
AcDbEntity
  8
ZUWAKU
100
AcDbLine
 10
23.54221160750228
 20
19.04999980965629
 30
0.0
 11
23.54221160750228
 21
11.34999980965629
 31
0.0
  0
ARC
  5
B6A
330
1A
100
AcDbEntity
  8
ZUWAKU
100
AcDbCircle
 10
15.49221160750221
 20
18.63479778430099
 30
0.0
 40
1.399999999999999
100
AcDbArc
 50
180.0000000000016
 51
224.9999999999988
  0
ARC
  5
B6B
330
1A
100
AcDbEntity
  8
ZUWAKU
100
AcDbCircle
 10
24.94221160750226
 20
11.34999980965629
 30
0.0
 40
4.199999999999999
100
AcDbArc
 50
180.0
 51
270.0
  0
ARC
  5
B6C
330
1A
100
AcDbEntity
  8
ZUWAKU
100
AcDbCircle
 10
15.84221160750223
 20
9.94999980965629
 30
0.0
 40
2.799999999999999
100
AcDbArc
 50
270.0
 51
0.0
  0
ARC
  5
B6D
330
1A
100
AcDbEntity
  8
ZUWAKU
100
AcDbCircle
 10
14.44221160750226
 20
11.76520183501159
 30
0.0
 40
4.199999999999999
100
AcDbArc
 50
0.0
 51
45.0
  0
LINE
  5
B6E
330
1A
100
AcDbEntity
  8
ZUWAKU
100
AcDbLine
 10
12.52236312651871
 20
15.66494930331747
 30
0.0
 11
15.43216110116338
 21
12.75515132867281
 31
0.0
  0
LINE
  5
B6F
330
1A
100
AcDbEntity
  8
ZUWAKU
100
AcDbLine
 10
12.34221160750223
 20
9.94999980965629
 30
0.0
 11
15.31721160750225
 21
9.94999980965629
 31
0.0
  0
LINE
  5
B70
330
1A
100
AcDbEntity
  8
ZUWAKU
100
AcDbLine
 10
12.34221160750223
 20
7.149999809656293
 30
0.0
 11
15.84221160750223
 21
7.149999809656293
 31
0.0
  0
ARC
  5
B71
330
1A
100
AcDbEntity
  8
ZUWAKU
100
AcDbCircle
 10
12.34221160750223
 20
9.424999809656291
 30
0.0
 40
0.525
100
AcDbArc
 50
90.0
 51
180.0
  0
ARC
  5
B72
330
1A
100
AcDbEntity
  8
ZUWAKU
100
AcDbCircle
 10
12.34221160750223
 20
7.674999809656291
 30
0.0
 40
0.525
100
AcDbArc
 50
180.0
 51
270.0
  0
LINE
  5
B73
330
1A
100
AcDbEntity
  8
ZUWAKU
100
AcDbLine
 10
11.81721160750225
 20
7.674999809656291
 30
0.0
 11
11.81721160750225
 21
9.424999809656291
 31
0.0
  0
ARC
  5
B74
330
1A
100
AcDbEntity
  8
ZUWAKU
100
AcDbCircle
 10
14.44221160750226
 20
11.76520183501163
 30
0.0
 40
1.399999999999999
100
AcDbArc
 50
0.0
 51
45.0
  0
ARC
  5
B75
330
1A
100
AcDbEntity
  8
ZUWAKU
100
AcDbCircle
 10
15.31721160750225
 20
10.47499980965629
 30
0.0
 40
0.525
100
AcDbArc
 50
270.0
 51
0.0
  0
LINE
  5
B76
330
1A
100
AcDbEntity
  8
ZUWAKU
100
AcDbLine
 10
15.84221160750223
 20
10.47499980965629
 30
0.0
 11
15.84221160750223
 21
11.76520183501163
 31
0.0
  0
LINE
  5
B77
330
1A
100
AcDbEntity
  8
ZUWAKU
100
AcDbLine
 10
17.41206008848576
 20
14.73505031599511
 30
0.0
 11
14.50226211384108
 21
17.64484829063979
 31
0.0
  0
ARC
  5
B78
330
1A
100
AcDbEntity
  8
ZUWAKU
100
AcDbCircle
 10
24.94221160750226
 20
11.34999980965629
 30
0.0
 40
1.399999999999999
100
AcDbArc
 50
180.0
 51
270.0
  0
LINE
  5
B79
330
1A
100
AcDbEntity
  8
ZUWAKU
100
AcDbLine
 10
18.6422116075023
 20
9.94999980965629
 30
0.0
 11
18.6422116075023
 21
11.76520183501163
 31
0.0
  0
ARC
  5
B7A
330
1A
100
AcDbEntity
  8
ZUWAKU
100
AcDbCircle
 10
17.59221160750223
 20
20.97499980965629
 30
0.0
 40
0.525
100
AcDbArc
 50
270.0
 51
0.0
  0
ARC
  5
B7B
330
1A
100
AcDbEntity
  8
ZUWAKU
100
AcDbCircle
 10
17.59221160750223
 20
22.72499980965628
 30
0.0
 40
0.525
100
AcDbArc
 50
0.0
 51
90.0
  0
ARC
  5
B7C
330
1A
100
AcDbEntity
  8
ZUWAKU
100
AcDbCircle
 10
14.09221160750223
 20
20.44999980965628
 30
0.0
 40
2.799999999999999
100
AcDbArc
 50
90.0
 51
180.0
  0
LINE
  5
B7D
330
1A
100
AcDbEntity
  8
ZUWAKU
100
AcDbLine
 10
11.29221160750228
 20
20.44999980965628
 30
0.0
 11
11.29221160750228
 21
18.63479778430095
 31
0.0
  0
LINE
  5
B7E
330
1A
100
AcDbEntity
  8
ZUWAKU
100
AcDbLine
 10
17.59221160750223
 20
20.44999980965628
 30
0.0
 11
14.61721160750221
 21
20.44999980965628
 31
0.0
  0
LINE
  5
B7F
330
1A
100
AcDbEntity
  8
ZUWAKU
100
AcDbLine
 10
14.09221160750223
 20
19.92499980965629
 30
0.0
 11
14.09221160750223
 21
18.63479778430095
 31
0.0
  0
ARC
  5
B80
330
1A
100
AcDbEntity
  8
ZUWAKU
100
AcDbCircle
 10
14.61721160750221
 20
19.92499980965629
 30
0.0
 40
0.525
100
AcDbArc
 50
90.0
 51
180.0
  0
LINE
  5
B81
330
1A
100
AcDbEntity
  8
ZUWAKU
100
AcDbLine
 10
14.09221160750223
 20
23.24999980965629
 30
0.0
 11
17.59221160750223
 21
23.24999980965629
 31
0.0
  0
ARC
  5
B82
330
1A
100
AcDbEntity
  8
ZUWAKU
100
AcDbCircle
 10
24.94221160750226
 20
19.04999980965625
 30
0.0
 40
4.199999999999999
100
AcDbArc
 50
90.0
 51
180.0
  0
ARC
  5
B83
330
1A
100
AcDbEntity
  8
ZUWAKU
100
AcDbCircle
 10
24.94221160750226
 20
19.04999980965629
 30
0.0
 40
1.399999999999999
100
AcDbArc
 50
90.0
 51
180.0
  0
LINE
  5
B84
330
1A
100
AcDbEntity
  8
ZUWAKU
100
AcDbLine
 10
18.11721160750221
 20
22.72499980965628
 30
0.0
 11
18.11721160750221
 21
20.97499980965629
 31
0.0
  0
LINE
  5
B85
330
1A
100
AcDbEntity
  8
ZUWAKU
100
AcDbLine
 10
35.6763465448181
 20
22.88309377782326
 30
0.0
 11
33.80807667018632
 21
16.96690584148932
 31
0.0
  0
LINE
  5
B86
330
1A
100
AcDbEntity
  8
ZUWAKU
100
AcDbLine
 10
29.84221160750223
 20
22.72499980965628
 30
0.0
 11
29.84221160750223
 21
7.674999809656291
 31
0.0
  0
LINE
  5
B87
330
1A
100
AcDbEntity
  8
ZUWAKU
100
AcDbLine
 10
32.6422116075023
 20
17.12499980965629
 30
0.0
 11
32.6422116075023
 21
22.72499980965628
 31
0.0
  0
LINE
  5
B88
330
1A
100
AcDbEntity
  8
ZUWAKU
100
AcDbLine
 10
57.84221160750224
 20
10.99999980965628
 30
0.0
 11
57.84221160750224
 21
22.72499980965628
 31
0.0
  0
LINE
  5
B89
330
1A
100
AcDbEntity
  8
ZUWAKU
100
AcDbLine
 10
55.04221160750228
 20
22.72499980965628
 30
0.0
 11
55.04221160750228
 21
9.94999980965629
 31
0.0
  0
LINE
  5
B8A
330
1A
100
AcDbEntity
  8
ZUWAKU
100
AcDbLine
 10
43.49221160750221
 20
7.674999809656291
 30
0.0
 11
43.49221160750221
 21
22.72499980965628
 31
0.0
  0
LINE
  5
B8B
330
1A
100
AcDbEntity
  8
ZUWAKU
100
AcDbLine
 10
40.69221160750226
 20
22.72499980965628
 30
0.0
 11
40.69221160750226
 21
7.674999809656291
 31
0.0
  0
LINE
  5
B8C
330
1A
100
AcDbEntity
  8
ZUWAKU
100
AcDbLine
 10
37.31485808968022
 20
19.20504700321972
 30
0.0
 11
36.05010634434438
 21
15.19999980965631
 31
0.0
  0
ARC
  5
B8D
330
1A
100
AcDbEntity
  8
ZUWAKU
100
AcDbCircle
 10
49.79221160750228
 20
18.63479778430099
 30
0.0
 40
4.199999999999999
100
AcDbArc
 50
180.0
 51
225.0
  0
ARC
  5
B8E
330
1A
100
AcDbEntity
  8
ZUWAKU
100
AcDbCircle
 10
49.79221160750228
 20
18.63479778430099
 30
0.0
 40
1.399999999999999
100
AcDbArc
 50
180.0000000000016
 51
224.9999999999988
  0
LINE
  5
B8F
330
1A
100
AcDbEntity
  8
ZUWAKU
100
AcDbLine
 10
66.24221160750221
 20
22.72499980965628
 30
0.0
 11
66.24221160750221
 21
7.674999809656291
 31
0.0
  0
LINE
  5
B90
330
1A
100
AcDbEntity
  8
ZUWAKU
100
AcDbLine
 10
69.04221160750228
 20
7.674999809656291
 30
0.0
 11
69.04221160750228
 21
22.72499980965628
 31
0.0
  0
LINE
  5
B91
330
1A
100
AcDbEntity
  8
ZUWAKU
100
AcDbLine
 10
61.34221160750223
 20
22.72499980965628
 30
0.0
 11
61.34221160750223
 21
10.99999980965628
 31
0.0
  0
LINE
  5
B92
330
1A
100
AcDbEntity
  8
ZUWAKU
100
AcDbLine
 10
64.1422116075023
 20
9.94999980965629
 30
0.0
 11
64.1422116075023
 21
22.72499980965628
 31
0.0
  0
LINE
  5
B93
330
1A
100
AcDbEntity
  8
ZUWAKU
100
AcDbLine
 10
79.1266290007095
 20
29.99999980965629
 30
0.0
 11
79.1266290007095
 21
0.7999998096563559
 31
0.0
  0
LINE
  5
B94
330
1A
100
AcDbEntity
  8
ZUWAKU
100
AcDbLine
 10
79.52662900070937
 20
29.99999980965629
 30
0.0
 11
79.52662900070959
 21
0.7999998096563559
 31
0.0
  0
LINE
  5
B95
330
1A
100
AcDbEntity
  8
ZUWAKU
100
AcDbLine
 10
79.32662900070932
 20
29.99999980965629
 30
0.0
 11
79.32662900070955
 21
0.7999998096563559
 31
0.0
  0
LINE
  5
B96
330
1A
100
AcDbEntity
  8
ZUWAKU
100
AcDbLine
 10
57.84221160750224
 20
7.149999809656293
 30
0.0
 11
61.34221160750223
 21
7.149999809656293
 31
0.0
  0
LINE
  5
B97
330
1A
100
AcDbEntity
  8
ZUWAKU
100
AcDbLine
 10
60.29221160750228
 20
9.94999980965629
 30
0.0
 11
58.8922116075023
 21
9.94999980965629
 31
0.0
  0
LINE
  5
B98
330
1A
100
AcDbEntity
  8
ZUWAKU
100
AcDbLine
 10
41.21721160750223
 20
7.149999809656293
 30
0.0
 11
42.96721160750223
 21
7.149999809656293
 31
0.0
  0
LINE
  5
B99
330
1A
100
AcDbEntity
  8
ZUWAKU
100
AcDbLine
 10
35.6763465448181
 20
7.516905841489318
 30
0.0
 11
33.80807667018632
 21
13.43309377782325
 31
0.0
  0
ARC
  5
B9A
330
1A
100
AcDbEntity
  8
ZUWAKU
100
AcDbCircle
 10
33.16721160750228
 20
13.27499980965629
 30
0.0
 40
0.525
100
AcDbArc
 50
90.0
 51
180.0
  0
ARC
  5
B9B
330
1A
100
AcDbEntity
  8
ZUWAKU
100
AcDbCircle
 10
33.30744577099096
 20
13.27499980965629
 30
0.0
 40
0.525
100
AcDbArc
 50
17.52556837372303
 51
90.0
  0
ARC
  5
B9C
330
1A
100
AcDbEntity
  8
ZUWAKU
100
AcDbCircle
 10
30.36721160750221
 20
7.674999809656291
 30
0.0
 40
0.525
100
AcDbArc
 50
180.0
 51
270.0
  0
ARC
  5
B9D
330
1A
100
AcDbEntity
  8
ZUWAKU
100
AcDbCircle
 10
26.86721160750221
 20
9.424999809656291
 30
0.0
 40
0.525
100
AcDbArc
 50
0.0
 51
90.0
  0
ARC
  5
B9E
330
1A
100
AcDbEntity
  8
ZUWAKU
100
AcDbCircle
 10
26.86721160750221
 20
7.674999809656291
 30
0.0
 40
0.525
100
AcDbArc
 50
270.0
 51
0.0
  0
LINE
  5
B9F
330
1A
100
AcDbEntity
  8
ZUWAKU
100
AcDbLine
 10
27.3922116075023
 20
9.424999809656291
 30
0.0
 11
27.3922116075023
 21
7.674999809656291
 31
0.0
  0
LINE
  5
BA0
330
1A
100
AcDbEntity
  8
ZUWAKU
100
AcDbLine
 10
32.6422116075023
 20
7.674999809656291
 30
0.0
 11
32.6422116075023
 21
13.27499980965629
 31
0.0
  0
ARC
  5
BA1
330
1A
100
AcDbEntity
  8
ZUWAKU
100
AcDbCircle
 10
32.11721160750221
 20
7.674999809656291
 30
0.0
 40
0.525
100
AcDbArc
 50
270.0
 51
0.0
  0
LINE
  5
BA2
330
1A
100
AcDbEntity
  8
ZUWAKU
100
AcDbLine
 10
30.36721160750221
 20
7.149999809656293
 30
0.0
 11
32.11721160750221
 21
7.149999809656293
 31
0.0
  0
ARC
  5
BA3
330
1A
100
AcDbEntity
  8
ZUWAKU
100
AcDbCircle
 10
33.16721160750228
 20
17.12499980965629
 30
0.0
 40
0.525
100
AcDbArc
 50
180.0
 51
270.0
  0
LINE
  5
BA4
330
1A
100
AcDbEntity
  8
ZUWAKU
100
AcDbLine
 10
33.16721160750228
 20
13.79999980965629
 30
0.0
 11
33.30744577099096
 21
13.79999980965629
 31
0.0
  0
LINE
  5
BA5
330
1A
100
AcDbEntity
  8
ZUWAKU
100
AcDbLine
 10
33.30744577099096
 20
16.59999980965628
 30
0.0
 11
33.16721160750228
 21
16.59999980965628
 31
0.0
  0
ARC
  5
BA6
330
1A
100
AcDbEntity
  8
ZUWAKU
100
AcDbCircle
 10
33.30744577099096
 20
17.12499980965629
 30
0.0
 40
0.525
100
AcDbArc
 50
270.0
 51
342.4744316262769
  0
ARC
  5
BA7
330
1A
100
AcDbEntity
  8
ZUWAKU
100
AcDbCircle
 10
36.17697744401357
 20
7.674999809656291
 30
0.0
 40
0.525
100
AcDbArc
 50
197.525568373723
 51
270.0
  0
LINE
  5
BA8
330
1A
100
AcDbEntity
  8
ZUWAKU
100
AcDbLine
 10
38.37649772281804
 20
7.833093777823265
 30
0.0
 11
36.05010634434438
 21
15.19999980965631
 31
0.0
  0
ARC
  5
BA9
330
1A
100
AcDbEntity
  8
ZUWAKU
100
AcDbCircle
 10
37.87586682362257
 20
7.674999809656291
 30
0.0
 40
0.525
100
AcDbArc
 50
270.0
 51
17.52556837372303
  0
LINE
  5
BAA
330
1A
100
AcDbEntity
  8
ZUWAKU
100
AcDbLine
 10
36.17697744401357
 20
7.149999809656293
 30
0.0
 11
37.87586682362257
 21
7.149999809656293
 31
0.0
  0
ARC
  5
BAB
330
1A
100
AcDbEntity
  8
ZUWAKU
100
AcDbCircle
 10
41.21721160750223
 20
7.674999809656291
 30
0.0
 40
0.525
100
AcDbArc
 50
180.0
 51
270.0
  0
ARC
  5
BAC
330
1A
100
AcDbEntity
  8
ZUWAKU
100
AcDbCircle
 10
50.1422116075023
 20
9.94999980965629
 30
0.0
 40
2.799999999999999
100
AcDbArc
 50
270.0
 51
0.0
  0
ARC
  5
BAD
330
1A
100
AcDbEntity
  8
ZUWAKU
100
AcDbCircle
 10
57.84221160750224
 20
9.94999980965629
 30
0.0
 40
2.799999999999999
100
AcDbArc
 50
180.0
 51
270.0
  0
LINE
  5
BAE
330
1A
100
AcDbEntity
  8
ZUWAKU
100
AcDbLine
 10
51.71206008848582
 20
14.73505031599511
 30
0.0
 11
48.80226211384104
 21
17.64484829063979
 31
0.0
  0
LINE
  5
BAF
330
1A
100
AcDbEntity
  8
ZUWAKU
100
AcDbLine
 10
46.82236312651878
 20
15.66494930331747
 30
0.0
 11
49.73216110116346
 21
12.75515132867281
 31
0.0
  0
LINE
  5
BB0
330
1A
100
AcDbEntity
  8
ZUWAKU
100
AcDbLine
 10
46.6422116075023
 20
7.149999809656293
 30
0.0
 11
50.1422116075023
 21
7.149999809656293
 31
0.0
  0
LINE
  5
BB1
330
1A
100
AcDbEntity
  8
ZUWAKU
100
AcDbLine
 10
46.6422116075023
 20
9.94999980965629
 30
0.0
 11
49.61721160750221
 21
9.94999980965629
 31
0.0
  0
ARC
  5
BB2
330
1A
100
AcDbEntity
  8
ZUWAKU
100
AcDbCircle
 10
46.6422116075023
 20
9.424999809656291
 30
0.0
 40
0.525
100
AcDbArc
 50
90.0
 51
180.0
  0
ARC
  5
BB3
330
1A
100
AcDbEntity
  8
ZUWAKU
100
AcDbCircle
 10
42.96721160750223
 20
7.674999809656291
 30
0.0
 40
0.525
100
AcDbArc
 50
270.0
 51
0.0
  0
ARC
  5
BB4
330
1A
100
AcDbEntity
  8
ZUWAKU
100
AcDbCircle
 10
46.6422116075023
 20
7.674999809656291
 30
0.0
 40
0.525
100
AcDbArc
 50
180.0
 51
270.0
  0
LINE
  5
BB5
330
1A
100
AcDbEntity
  8
ZUWAKU
100
AcDbLine
 10
46.11721160750221
 20
7.674999809656291
 30
0.0
 11
46.11721160750221
 21
9.424999809656291
 31
0.0
  0
ARC
  5
BB6
330
1A
100
AcDbEntity
  8
ZUWAKU
100
AcDbCircle
 10
49.61721160750221
 20
10.47499980965629
 30
0.0
 40
0.525
100
AcDbArc
 50
270.0
 51
0.0
  0
ARC
  5
BB7
330
1A
100
AcDbEntity
  8
ZUWAKU
100
AcDbCircle
 10
48.74221160750221
 20
11.76520183501163
 30
0.0
 40
1.399999999999999
100
AcDbArc
 50
0.0
 51
45.0
  0
LINE
  5
BB8
330
1A
100
AcDbEntity
  8
ZUWAKU
100
AcDbLine
 10
50.1422116075023
 20
10.47499980965629
 30
0.0
 11
50.1422116075023
 21
11.76520183501163
 31
0.0
  0
ARC
  5
BB9
330
1A
100
AcDbEntity
  8
ZUWAKU
100
AcDbCircle
 10
58.8922116075023
 20
10.99999980965628
 30
0.0
 40
1.049999999999999
100
AcDbArc
 50
180.0
 51
270.0
  0
ARC
  5
BBA
330
1A
100
AcDbEntity
  8
ZUWAKU
100
AcDbCircle
 10
48.74221160750221
 20
11.76520183501159
 30
0.0
 40
4.199999999999999
100
AcDbArc
 50
0.0
 51
45.0
  0
LINE
  5
BBB
330
1A
100
AcDbEntity
  8
ZUWAKU
100
AcDbLine
 10
52.94221160750225
 20
9.94999980965629
 30
0.0
 11
52.94221160750225
 21
11.76520183501163
 31
0.0
  0
ARC
  5
BBC
330
1A
100
AcDbEntity
  8
ZUWAKU
100
AcDbCircle
 10
61.34221160750223
 20
9.94999980965629
 30
0.0
 40
2.799999999999999
100
AcDbArc
 50
270.0
 51
0.0
  0
LINE
  5
BBD
330
1A
100
AcDbEntity
  8
ZUWAKU
100
AcDbLine
 10
66.7672116075023
 20
7.149999809656293
 30
0.0
 11
68.5172116075023
 21
7.149999809656293
 31
0.0
  0
ARC
  5
BBE
330
1A
100
AcDbEntity
  8
ZUWAKU
100
AcDbCircle
 10
60.29221160750228
 20
10.99999980965628
 30
0.0
 40
1.049999999999999
100
AcDbArc
 50
270.0
 51
0.0
  0
ARC
  5
BBF
330
1A
100
AcDbEntity
  8
ZUWAKU
100
AcDbCircle
 10
66.7672116075023
 20
7.674999809656291
 30
0.0
 40
0.525
100
AcDbArc
 50
180.0
 51
270.0
  0
ARC
  5
BC0
330
1A
100
AcDbEntity
  8
ZUWAKU
100
AcDbCircle
 10
68.5172116075023
 20
7.674999809656291
 30
0.0
 40
0.525
100
AcDbArc
 50
270.0
 51
0.0
  0
LINE
  5
BC1
330
1A
100
AcDbEntity
  8
ZUWAKU
100
AcDbLine
 10
42.96721160750223
 20
23.24999980965629
 30
0.0
 11
41.21721160750223
 21
23.24999980965629
 31
0.0
  0
LINE
  5
BC2
330
1A
100
AcDbEntity
  8
ZUWAKU
100
AcDbLine
 10
27.3922116075023
 20
22.72499980965628
 30
0.0
 11
27.3922116075023
 21
20.97499980965629
 31
0.0
  0
ARC
  5
BC3
330
1A
100
AcDbEntity
  8
ZUWAKU
100
AcDbCircle
 10
26.86721160750221
 20
20.97499980965629
 30
0.0
 40
0.525
100
AcDbArc
 50
270.0
 51
0.0
  0
ARC
  5
BC4
330
1A
100
AcDbEntity
  8
ZUWAKU
100
AcDbCircle
 10
30.36721160750221
 20
22.72499980965628
 30
0.0
 40
0.525
100
AcDbArc
 50
90.0
 51
180.0
  0
ARC
  5
BC5
330
1A
100
AcDbEntity
  8
ZUWAKU
100
AcDbCircle
 10
26.86721160750221
 20
22.72499980965628
 30
0.0
 40
0.525
100
AcDbArc
 50
0.0
 51
90.0
  0
LINE
  5
BC6
330
1A
100
AcDbEntity
  8
ZUWAKU
100
AcDbLine
 10
32.11721160750221
 20
23.24999980965629
 30
0.0
 11
30.36721160750221
 21
23.24999980965629
 31
0.0
  0
ARC
  5
BC7
330
1A
100
AcDbEntity
  8
ZUWAKU
100
AcDbCircle
 10
32.11721160750221
 20
22.72499980965628
 30
0.0
 40
0.525
100
AcDbArc
 50
0.0
 51
90.0
  0
ARC
  5
BC8
330
1A
100
AcDbEntity
  8
ZUWAKU
100
AcDbCircle
 10
36.17697744401357
 20
22.72499980965628
 30
0.0
 40
0.525
100
AcDbArc
 50
90.0
 51
162.4744316262769
  0
LINE
  5
BC9
330
1A
100
AcDbEntity
  8
ZUWAKU
100
AcDbLine
 10
38.37649772281804
 20
22.56690584148932
 30
0.0
 11
37.31485808968022
 21
19.20504700321972
 31
0.0
  0
ARC
  5
BCA
330
1A
100
AcDbEntity
  8
ZUWAKU
100
AcDbCircle
 10
37.87586682362257
 20
22.72499980965628
 30
0.0
 40
0.525
100
AcDbArc
 50
342.4744316262769
 51
90.0
  0
LINE
  5
BCB
330
1A
100
AcDbEntity
  8
ZUWAKU
100
AcDbLine
 10
36.17697744401357
 20
23.24999980965629
 30
0.0
 11
37.87586682362257
 21
23.24999980965629
 31
0.0
  0
ARC
  5
BCC
330
1A
100
AcDbEntity
  8
ZUWAKU
100
AcDbCircle
 10
41.21721160750223
 20
22.72499980965628
 30
0.0
 40
0.525
100
AcDbArc
 50
90.0
 51
180.0
  0
LINE
  5
BCD
330
1A
100
AcDbEntity
  8
ZUWAKU
100
AcDbLine
 10
51.8922116075023
 20
20.44999980965628
 30
0.0
 11
48.91721160750228
 21
20.44999980965628
 31
0.0
  0
LINE
  5
BCE
330
1A
100
AcDbEntity
  8
ZUWAKU
100
AcDbLine
 10
48.39221160750231
 20
23.24999980965629
 30
0.0
 11
51.8922116075023
 21
23.24999980965629
 31
0.0
  0
ARC
  5
BCF
330
1A
100
AcDbEntity
  8
ZUWAKU
100
AcDbCircle
 10
48.39221160750231
 20
20.44999980965628
 30
0.0
 40
2.799999999999999
100
AcDbArc
 50
90.0
 51
180.0
  0
LINE
  5
BD0
330
1A
100
AcDbEntity
  8
ZUWAKU
100
AcDbLine
 10
45.59221160750223
 20
20.44999980965628
 30
0.0
 11
45.59221160750223
 21
18.63479778430095
 31
0.0
  0
ARC
  5
BD1
330
1A
100
AcDbEntity
  8
ZUWAKU
100
AcDbCircle
 10
42.96721160750223
 20
22.72499980965628
 30
0.0
 40
0.525
100
AcDbArc
 50
0.0
 51
90.0
  0
LINE
  5
BD2
330
1A
100
AcDbEntity
  8
ZUWAKU
100
AcDbLine
 10
48.39221160750231
 20
19.92499980965629
 30
0.0
 11
48.39221160750231
 21
18.63479778430095
 31
0.0
  0
ARC
  5
BD3
330
1A
100
AcDbEntity
  8
ZUWAKU
100
AcDbCircle
 10
48.91721160750228
 20
19.92499980965629
 30
0.0
 40
0.525
100
AcDbArc
 50
90.0
 51
180.0
  0
LINE
  5
BD4
330
1A
100
AcDbEntity
  8
ZUWAKU
100
AcDbLine
 10
52.41721160750228
 20
22.72499980965628
 30
0.0
 11
52.41721160750228
 21
20.97499980965629
 31
0.0
  0
ARC
  5
BD5
330
1A
100
AcDbEntity
  8
ZUWAKU
100
AcDbCircle
 10
51.8922116075023
 20
20.97499980965629
 30
0.0
 40
0.525
100
AcDbArc
 50
270.0
 51
0.0
  0
ARC
  5
BD6
330
1A
100
AcDbEntity
  8
ZUWAKU
100
AcDbCircle
 10
51.8922116075023
 20
22.72499980965628
 30
0.0
 40
0.525
100
AcDbArc
 50
0.0
 51
90.0
  0
LINE
  5
BD7
330
1A
100
AcDbEntity
  8
ZUWAKU
100
AcDbLine
 10
57.31721160750225
 20
23.24999980965629
 30
0.0
 11
55.56721160750226
 21
23.24999980965629
 31
0.0
  0
ARC
  5
BD8
330
1A
100
AcDbEntity
  8
ZUWAKU
100
AcDbCircle
 10
55.56721160750226
 20
22.72499980965628
 30
0.0
 40
0.525
100
AcDbArc
 50
90.0
 51
180.0
  0
ARC
  5
BD9
330
1A
100
AcDbEntity
  8
ZUWAKU
100
AcDbCircle
 10
57.31721160750225
 20
22.72499980965628
 30
0.0
 40
0.525
100
AcDbArc
 50
0.0
 51
90.0
  0
LINE
  5
BDA
330
1A
100
AcDbEntity
  8
ZUWAKU
100
AcDbLine
 10
68.5172116075023
 20
23.24999980965629
 30
0.0
 11
66.7672116075023
 21
23.24999980965629
 31
0.0
  0
ARC
  5
BDB
330
1A
100
AcDbEntity
  8
ZUWAKU
100
AcDbCircle
 10
61.86721160750221
 20
22.72499980965628
 30
0.0
 40
0.525
100
AcDbArc
 50
90.0
 51
180.0
  0
LINE
  5
BDC
330
1A
100
AcDbEntity
  8
ZUWAKU
100
AcDbLine
 10
63.61721160750221
 20
23.24999980965629
 30
0.0
 11
61.86721160750221
 21
23.24999980965629
 31
0.0
  0
ARC
  5
BDD
330
1A
100
AcDbEntity
  8
ZUWAKU
100
AcDbCircle
 10
63.61721160750221
 20
22.72499980965628
 30
0.0
 40
0.525
100
AcDbArc
 50
0.0
 51
90.0
  0
ARC
  5
BDE
330
1A
100
AcDbEntity
  8
ZUWAKU
100
AcDbCircle
 10
66.7672116075023
 20
22.72499980965628
 30
0.0
 40
0.525
100
AcDbArc
 50
90.0
 51
180.0
  0
ARC
  5
BDF
330
1A
100
AcDbEntity
  8
ZUWAKU
100
AcDbCircle
 10
68.5172116075023
 20
22.72499980965628
 30
0.0
 40
0.525
100
AcDbArc
 50
0.0
 51
90.0
  0
TEXT
  5
BE0
330
1A
100
AcDbEntity
  8
MOJI
100
AcDbText
 10
239.8272021335722
 20
18.00492086706367
 30
0.0
 40
5.599999999999999
  1
ステンレス金具正面打（受）ストロング高強度金具
 41
0.9
  7
ｽﾀｲﾙ1
100
AcDbText
  0
TEXT
  5
BE1
330
1A
100
AcDbEntity
  8
MOJI
100
AcDbText
 10
239.8272021335722
 20
3.204920867063709
 30
0.0
 40
5.599999999999999
  1
Ｘ７０Ｕ－４寸－１０m/m（3分）
 41
0.9
  7
ｽﾀｲﾙ1
100
AcDbText
  0
LINE
  5
BE2
330
1A
100
AcDbEntity
  8
ZUWAKU
100
AcDbLine
 10
208.4466007427888
 20
29.99999980965629
 30
0.0
 11
208.4466007427891
 21
0.7999998096563559
 31
0.0
  0
LINE
  5
BE3
330
1A
100
AcDbEntity
  8
ZUWAKU
100
AcDbLine
 10
208.6466007427889
 20
29.99999980965629
 30
0.0
 11
208.6466007427891
 21
0.7999998096563559
 31
0.0
  0
LINE
  5
BE4
330
1A
100
AcDbEntity
  8
ZUWAKU
100
AcDbLine
 10
208.246600742789
 20
29.99999980965629
 30
0.0
 11
208.246600742789
 21
0.7999998096563559
 31
0.0
  0
TEXT
  5
BE5
330
1A
100
AcDbEntity
  8
ZUWAKU
100
AcDbText
 10
209.7240457649986
 20
9.655356348041905
 30
0.0
 40
4.0
  1
サイズ
 41
0.9
  7
ｽﾀｲﾙ1
100
AcDbText
  0
TEXT
  5
BE6
330
1A
100
AcDbEntity
  8
ZUWAKU
100
AcDbText
 10
209.7240457649984
 20
24.05535634804186
 30
0.0
 40
4.0
  1
品名
 41
0.9
  7
ｽﾀｲﾙ1
100
AcDbText
  0
TEXT
  5
BE7
330
1A
100
AcDbEntity
  8
ZUWAKU
100
AcDbText
 10
658.2039371400234
 20
18.00492086706367
 30
0.0
 40
5.599999999999999
  1
　　．　　．　　
 41
0.9
  7
ｽﾀｲﾙ1
100
AcDbText
  0
LINE
  5
BE8
330
1A
100
AcDbEntity
  8
ZUWAKU
100
AcDbLine
 10
648.8172019629253
 20
15.59999980965632
 30
0.0
 11
697.2490100012623
 21
15.59999980965632
 31
0.0
  0
LINE
  5
BE9
330
1A
100
AcDbEntity
  8
ZUWAKU
100
AcDbLine
 10
648.8172019629255
 20
15.39999980965632
 30
0.0
 11
697.2490100012623
 21
15.39999980965632
 31
0.0
  0
LINE
  5
BEA
330
1A
100
AcDbEntity
  8
ZUWAKU
100
AcDbLine
 10
648.8172019629253
 20
15.19999980965631
 30
0.0
 11
697.2490100012623
 21
15.19999980965632
 31
0.0
  0
LINE
  5
BEB
330
1A
100
AcDbEntity
  8
ZUWAKU
100
AcDbLine
 10
505.199178950862
 20
15.59999980965632
 30
0.0
 11
552.5269552188335
 21
15.59999980965632
 31
0.0
  0
LINE
  5
BEC
330
1A
100
AcDbEntity
  8
ZUWAKU
100
AcDbLine
 10
505.199178950862
 20
15.39999980965632
 30
0.0
 11
552.5269552188335
 21
15.39999980965632
 31
0.0
  0
LINE
  5
BED
330
1A
100
AcDbEntity
  8
ZUWAKU
100
AcDbLine
 10
505.199178950862
 20
15.19999980965632
 30
0.0
 11
552.5269552188335
 21
15.19999980965632
 31
0.0
  0
LINE
  5
BEE
330
1A
100
AcDbEntity
  8
ZUWAKU
100
AcDbLine
 10
504.7991789508621
 20
29.99999980965629
 30
0.0
 11
504.7991789508621
 21
0.7999998096563559
 31
0.0
  0
LINE
  5
BEF
330
1A
100
AcDbEntity
  8
ZUWAKU
100
AcDbLine
 10
505.199178950862
 20
29.99999980965629
 30
0.0
 11
505.1991789508622
 21
0.7999998096563559
 31
0.0
  0
LINE
  5
BF0
330
1A
100
AcDbEntity
  8
ZUWAKU
100
AcDbLine
 10
504.9991789508619
 20
29.99999980965629
 30
0.0
 11
504.9991789508622
 21
0.7999998096563559
 31
0.0
  0
TEXT
  5
BF1
330
1A
100
AcDbEntity
  8
MOJI
100
AcDbText
 10
528.0409074250339
 20
18.00492086706367
 30
0.0
 40
5.599999999999999
  1
Ａ３
 41
0.9
  7
ｽﾀｲﾙ1
100
AcDbText
  0
LINE
  5
BF2
330
1A
100
AcDbEntity
  8
ZUWAKU
100
AcDbLine
 10
447.4243634237125
 20
29.99999980965629
 30
0.0
 11
447.4243634237125
 21
0.7999998096563559
 31
0.0
  0
LINE
  5
BF3
330
1A
100
AcDbEntity
  8
ZUWAKU
100
AcDbLine
 10
447.8243634237124
 20
29.99999980965629
 30
0.0
 11
447.8243634237125
 21
0.7999998096563559
 31
0.0
  0
LINE
  5
BF4
330
1A
100
AcDbEntity
  8
ZUWAKU
100
AcDbLine
 10
447.6243634237123
 20
29.99999980965629
 30
0.0
 11
447.6243634237126
 21
0.7999998096563559
 31
0.0
  0
TEXT
  5
BF5
330
1A
100
AcDbEntity
  8
MOJI
100
AcDbText
 10
463.2464314437231
 20
11.94261753131627
 30
0.0
 40
5.599999999999999
  1
ＬＤ３１□
 41
0.9
  7
ｽﾀｲﾙ1
100
AcDbText
  0
TEXT
  5
BF6
330
1A
100
AcDbEntity
  8
ZUWAKU
100
AcDbText
 10
461.6981346806335
 20
2.9083290495455
 30
0.0
 40
3.0
  1
□には色品番が入ります
 41
0.9
  7
ｽﾀｲﾙ1
100
AcDbText
  0
TEXT
  5
BF7
330
1A
100
AcDbEntity
  8
ZUWAKU
100
AcDbText
 10
506.6766239730718
 20
9.655356348041905
 30
0.0
 40
4.0
  1
縮尺
 41
0.9
  7
ｽﾀｲﾙ1
100
AcDbText
  0
TEXT
  5
BF8
330
1A
100
AcDbEntity
  8
MOJI
100
AcDbText
 10
528.0409074250339
 20
3.204920867063709
 30
0.0
 40
5.599999999999999
  1
１/２
 41
0.9
  7
ｽﾀｲﾙ1
100
AcDbText
  0
TEXT
  5
BF9
330
1A
100
AcDbEntity
  8
ZUWAKU
100
AcDbText
 10
449.301808445922
 20
24.05535634804186
 30
0.0
 40
4.0
  1
品番
 41
0.9
  7
ｽﾀｲﾙ1
100
AcDbText
  0
TEXT
  5
BFA
330
1A
100
AcDbEntity
  8
ZUWAKU
100
AcDbText
 10
506.6766239730716
 20
24.05535634804186
 30
0.0
 40
4.0
  1
用紙
 41
0.9
  7
ｽﾀｲﾙ1
100
AcDbText
  0
LINE
  5
BFB
330
1A
100
AcDbEntity
  8
ZUWAKU
100
AcDbLine
 10
552.5269552188335
 20
29.99999980965629
 30
0.0
 11
552.5269552188335
 21
0.7999998096563559
 31
0.0
  0
LINE
  5
BFC
330
1A
100
AcDbEntity
  8
ZUWAKU
100
AcDbLine
 10
552.9269552188334
 20
29.99999980965629
 30
0.0
 11
552.9269552188337
 21
0.7999998096563559
 31
0.0
  0
LINE
  5
BFD
330
1A
100
AcDbEntity
  8
ZUWAKU
100
AcDbLine
 10
552.7269552188333
 20
29.99999980965629
 30
0.0
 11
552.7269552188336
 21
0.7999998096563559
 31
0.0
  0
LINE
  5
BFE
330
1A
100
AcDbEntity
  8
ZUWAKU
100
AcDbLine
 10
648.4172019629256
 20
29.99999980965629
 30
0.0
 11
648.4172019629256
 21
0.7999998096563559
 31
0.0
  0
LINE
  5
BFF
330
1A
100
AcDbEntity
  8
ZUWAKU
100
AcDbLine
 10
648.8172019629255
 20
29.99999980965629
 30
0.0
 11
648.8172019629257
 21
0.7999998096563559
 31
0.0
  0
LINE
  5
C00
330
1A
100
AcDbEntity
  8
ZUWAKU
100
AcDbLine
 10
648.6172019629255
 20
29.99999980965629
 30
0.0
 11
648.6172019629257
 21
0.7999998096563559
 31
0.0
  0
TEXT
  5
C01
330
1A
100
AcDbEntity
  8
ZUWAKU
100
AcDbText
 10
650.2946469851352
 20
24.05535634804186
 30
0.0
 40
4.0
  1
DATE
 41
0.9
  7
ｽﾀｲﾙ1
100
AcDbText
  0
TEXT
  5
C02
330
1A
100
AcDbEntity
  8
ZUWAKU
100
AcDbText
 10
708.5280836449649
 20
17.55383914534309
 30
0.0
 40
6.0
  1
積水化学工業株式会社
 41
0.9
  7
ｽﾀｲﾙ1
100
AcDbText
  0
LINE
  5
C03
330
1A
100
AcDbEntity
  8
ZUWAKU
100
AcDbLine
 10
697.8490100012622
 20
29.99999980965629
 30
0.0
 11
697.8490100012625
 21
0.7999998096563559
 31
0.0
  0
LINE
  5
C04
330
1A
100
AcDbEntity
  8
ZUWAKU
100
AcDbLine
 10
697.6490100012622
 20
29.99999980965629
 30
0.0
 11
697.6490100012624
 21
0.7999998096563559
 31
0.0
  0
LINE
  5
C05
330
1A
100
AcDbEntity
  8
ZUWAKU
100
AcDbLine
 10
697.4490100012624
 20
29.99999980965629
 30
0.0
 11
697.4490100012624
 21
0.7999998096563559
 31
0.0
  0
LINE
  5
C06
330
1A
100
AcDbEntity
  8
ZUWAKU
100
AcDbLine
 10
697.2490100012623
 20
29.99999980965629
 30
0.0
 11
697.2490100012623
 21
0.7999998096563559
 31
0.0
  0
TEXT
  5
C07
330
1A
100
AcDbEntity
  8
ZUWAKU
100
AcDbText
 10
708.5280836449649
 20
6.648840123510353
 30
0.0
 40
6.0
  1
建材事業部
 41
0.9
  7
ｽﾀｲﾙ1
100
AcDbText
  0
VIEWPORT
  5
22
330
17
100
AcDbEntity
 67
     1
  8
0
100
AcDbViewport
 10
313.6808219178082
 20
148.5
 30
0.0
 40
627.3616438356165
 41
297.0
 68
     2
 69
     1
1001
ACAD
1000
MVIEW
1002
{
1070
    16
1010
0.0
1020
0.0
1030
0.0
1010
0.0
1020
0.0
1030
1.0
1040
0.0
1040
297.0
1040
313.6808219178082
1040
148.5
1040
50.0
1040
0.0
1040
0.0
1070
     0
1070
   100
1070
     1
1070
     0
1070
     0
1070
     0
1070
     0
1070
     0
1040
0.0
1040
0.0
1040
0.0
1040
1.0
1040
1.0
1040
10.0
1040
10.0
1070
     0
1002
{
1002
}
1002
}
  0
VIEWPORT
  5
64
330
17
100
AcDbEntity
 67
     1
  8
VIEWPORT
100
AcDbViewport
 10
210.0
 20
148.5
 30
0.0
 40
420.0
 41
297.0
 68
     1
 69
     2
1001
ACAD
1000
MVIEW
1002
{
1070
    16
1010
0.0
1020
0.0
1030
0.0
1010
0.0
1020
0.0
1030
1.0
1040
0.0
1040
605.8799999999998
1040
420.0
1040
297.0
1040
50.0
1040
0.0
1040
0.0
1070
     0
1070
   100
1070
     1
1070
     0
1070
     0
1070
     0
1070
     0
1070
     0
1040
0.0
1040
0.0
1040
0.0
1040
10.0
1040
10.0
1040
0.0
1040
0.0
1070
     0
1002
{
1002
}
1002
}
  0
ENDSEC
  0
SECTION
  2
OBJECTS
  0
DICTIONARY
  5
C
330
0
100
AcDbDictionary
  3
ACAD_GROUP
350
D
  3
ACAD_LAYOUT
350
A26
  3
ACAD_MLINESTYLE
350
E
  3
ACAD_PLOTSETTINGS
350
A27
  3
ACAD_PLOTSTYLENAME
350
A24
  3
ACDBHEADERROUNDTRIPXREC
350
C0F
  0
DICTIONARY
  5
A55
330
1A
100
AcDbDictionary
280
     1
  3
ACAD_LAYOUTSELFREF
360
C31
  0
DICTIONARY
  5
A53
330
17
100
AcDbDictionary
280
     1
  3
ACAD_LAYOUTSELFREF
360
C30
  0
DICTIONARY
  5
D
102
{ACAD_REACTORS
330
C
102
}
330
C
100
AcDbDictionary
  0
DICTIONARY
  5
A26
102
{ACAD_REACTORS
330
C
102
}
330
C
100
AcDbDictionary
  0
DICTIONARY
  5
E
102
{ACAD_REACTORS
330
C
102
}
330
C
100
AcDbDictionary
  3
STANDARD
350
13
  0
DICTIONARY
  5
A27
102
{ACAD_REACTORS
330
C
102
}
330
C
100
AcDbDictionary
  0
ACDBDICTIONARYWDFLT
  5
A24
102
{ACAD_REACTORS
330
C
102
}
330
C
100
AcDbDictionary
281
     1
  3
Normal
350
A25
100
AcDbDictionaryWithDefault
340
A25
1001
ACAD
1000
TREAT_AS_HARD
1070
     0
1000
TREAT_AS_HARD
1070
     0
  0
DICTIONARY
  5
C0F
102
{ACAD_REACTORS
330
C
102
}
330
C
100
AcDbDictionary
  3
TSTACKALIGN
350
C10
  3
TSTACKSIZE
350
C11
  3
HYPERLINKBASE
350
C12
  3
STYLESHEET
350
C13
  3
LAYOUTDICT
350
C14
  3
PLOTSETDICT
350
C15
  3
PLOTSTYLNAMDICT
350
C16
  3
LWETCUNION
350
C17
  3
INSUNITS
350
C18
  3
CEPSNTYPE
350
C19
  3
FINGERPRINTGUID
350
C1A
  3
VERSIONGUID
350
C1B
  3
PSVPSCALE
350
C1C
  3
DIMSTYLEDATA
350
C1D
  3
PUCSORTHOREF
350
C1E
  3
PUCSORTHOVIEW
350
C1F
  3
PUCSBASE
350
C20
  3
PUCSORGTOP
350
C21
  3
PUCSORGBOTTOM
350
C22
  3
PUCSORGLEFT
350
C23
  3
PUCSORGRIGHT
350
C24
  3
PUCSORGFRONT
350
C25
  3
PUCSORGBACK
350
C26
  3
UCSORTHOREF
350
C27
  3
UCSORTHOVIEW
350
C28
  3
UCSBASE
350
C29
  3
UCSORGTOP
350
C2A
  3
UCSORGBOTTOM
350
C2B
  3
UCSORGLEFT
350
C2C
  3
UCSORGRIGHT
350
C2D
  3
UCSORGFRONT
350
C2E
  3
UCSORGBACK
350
C2F
  0
XRECORD
  5
C31
102
{ACAD_REACTORS
330
A55
102
}
330
A55
100
AcDbXrecord
340
1A
  0
XRECORD
  5
C30
102
{ACAD_REACTORS
330
A53
102
}
330
A53
100
AcDbXrecord
340
17
  0
MLINESTYLE
  5
13
102
{ACAD_REACTORS
330
E
102
}
330
E
100
AcDbMlineStyle
  2
STANDARD
 70
     0
  3

 62
     0
 51
90.0
 52
90.0
 71
     2
 49
0.5
 62
   256
  6
BYLAYER
 49
-0.5
 62
   256
  6
BYLAYER
  0
ACDBPLACEHOLDER
  5
A25
102
{ACAD_REACTORS
330
A24
102
}
330
A24
100
AcDbPlaceHolder
280
     0
  0
XRECORD
  5
C10
102
{ACAD_REACTORS
330
C0F
102
}
330
C0F
100
AcDbXrecord
 90
        1
  0
XRECORD
  5
C11
102
{ACAD_REACTORS
330
C0F
102
}
330
C0F
100
AcDbXrecord
 90
       70
  0
XRECORD
  5
C12
102
{ACAD_REACTORS
330
C0F
102
}
330
C0F
100
AcDbXrecord
  1

  0
XRECORD
  5
C13
102
{ACAD_REACTORS
330
C0F
102
}
330
C0F
100
AcDbXrecord
  1
systemprinter.ctb
  0
XRECORD
  5
C14
102
{ACAD_REACTORS
330
C0F
102
}
330
C0F
100
AcDbXrecord
340
A26
  0
XRECORD
  5
C15
102
{ACAD_REACTORS
330
C0F
102
}
330
C0F
100
AcDbXrecord
340
A27
  0
XRECORD
  5
C16
102
{ACAD_REACTORS
330
C0F
102
}
330
C0F
100
AcDbXrecord
340
A24
  0
XRECORD
  5
C17
102
{ACAD_REACTORS
330
C0F
102
}
330
C0F
100
AcDbXrecord
 90
    10781
  0
XRECORD
  5
C18
102
{ACAD_REACTORS
330
C0F
102
}
330
C0F
100
AcDbXrecord
 90
        0
  0
XRECORD
  5
C19
102
{ACAD_REACTORS
330
C0F
102
}
330
C0F
100
AcDbXrecord
 90
        0
  0
XRECORD
  5
C1A
102
{ACAD_REACTORS
330
C0F
102
}
330
C0F
100
AcDbXrecord
  1
{337007A1-1159-468A-AF42-BE14FAE17305}
  0
XRECORD
  5
C1B
102
{ACAD_REACTORS
330
C0F
102
}
330
C0F
100
AcDbXrecord
  1
{44FF9FD1-A495-4125-8935-1FB851131705}
  0
XRECORD
  5
C1C
102
{ACAD_REACTORS
330
C0F
102
}
330
C0F
100
AcDbXrecord
 40
0.0
  0
XRECORD
  5
C1D
102
{ACAD_REACTORS
330
C0F
102
}
330
C0F
100
AcDbXrecord
1000
DSTYLE
1002
{
1070
   341
340
6D
1070
   343
340
6D
1070
   344
340
6D
1070
   371
 70
    -1
1070
   372
 70
    -1
1002
}
  0
XRECORD
  5
C1E
102
{ACAD_REACTORS
330
C0F
102
}
330
C0F
100
AcDbXrecord
340
0
  0
XRECORD
  5
C1F
102
{ACAD_REACTORS
330
C0F
102
}
330
C0F
100
AcDbXrecord
 70
     0
  0
XRECORD
  5
C20
102
{ACAD_REACTORS
330
C0F
102
}
330
C0F
100
AcDbXrecord
340
0
  0
XRECORD
  5
C21
102
{ACAD_REACTORS
330
C0F
102
}
330
C0F
100
AcDbXrecord
 10
0.0
 20
0.0
 30
0.0
  0
XRECORD
  5
C22
102
{ACAD_REACTORS
330
C0F
102
}
330
C0F
100
AcDbXrecord
 10
0.0
 20
0.0
 30
0.0
  0
XRECORD
  5
C23
102
{ACAD_REACTORS
330
C0F
102
}
330
C0F
100
AcDbXrecord
 10
0.0
 20
0.0
 30
0.0
  0
XRECORD
  5
C24
102
{ACAD_REACTORS
330
C0F
102
}
330
C0F
100
AcDbXrecord
 10
0.0
 20
0.0
 30
0.0
  0
XRECORD
  5
C25
102
{ACAD_REACTORS
330
C0F
102
}
330
C0F
100
AcDbXrecord
 10
0.0
 20
0.0
 30
0.0
  0
XRECORD
  5
C26
102
{ACAD_REACTORS
330
C0F
102
}
330
C0F
100
AcDbXrecord
 10
0.0
 20
0.0
 30
0.0
  0
XRECORD
  5
C27
102
{ACAD_REACTORS
330
C0F
102
}
330
C0F
100
AcDbXrecord
340
0
  0
XRECORD
  5
C28
102
{ACAD_REACTORS
330
C0F
102
}
330
C0F
100
AcDbXrecord
 70
     0
  0
XRECORD
  5
C29
102
{ACAD_REACTORS
330
C0F
102
}
330
C0F
100
AcDbXrecord
340
0
  0
XRECORD
  5
C2A
102
{ACAD_REACTORS
330
C0F
102
}
330
C0F
100
AcDbXrecord
 10
0.0
 20
0.0
 30
0.0
  0
XRECORD
  5
C2B
102
{ACAD_REACTORS
330
C0F
102
}
330
C0F
100
AcDbXrecord
 10
0.0
 20
0.0
 30
0.0
  0
XRECORD
  5
C2C
102
{ACAD_REACTORS
330
C0F
102
}
330
C0F
100
AcDbXrecord
 10
0.0
 20
0.0
 30
0.0
  0
XRECORD
  5
C2D
102
{ACAD_REACTORS
330
C0F
102
}
330
C0F
100
AcDbXrecord
 10
0.0
 20
0.0
 30
0.0
  0
XRECORD
  5
C2E
102
{ACAD_REACTORS
330
C0F
102
}
330
C0F
100
AcDbXrecord
 10
0.0
 20
0.0
 30
0.0
  0
XRECORD
  5
C2F
102
{ACAD_REACTORS
330
C0F
102
}
330
C0F
100
AcDbXrecord
 10
0.0
 20
0.0
 30
0.0
  0
ENDSEC
  0
EOF
