  0
SECTION
  2
HEADER
  9
$ACADVER
  1
AC1014
  9
$ACADMAINTVER
 70
     9
  9
$DWGCODEPAGE
  3
ANSI_932
  9
$INSBASE
 10
0.0
 20
0.0
 30
0.0
  9
$EXTMIN
 10
-0.0256333571728646
 20
-0.0181262487631102
 30
-0.0000000100021362
  9
$EXTMAX
 10
797.6000995350432
 20
551.6452344744309
 30
0.0000000100021363
  9
$LIMMIN
 10
0.0
 20
0.0
  9
$LIMMAX
 10
840.0
 20
594.0
  9
$ORTHOMODE
 70
     0
  9
$REGENMODE
 70
     1
  9
$FILLMODE
 70
     1
  9
$QTEXTMODE
 70
     0
  9
$MIRRTEXT
 70
     1
  9
$DRAGMODE
 70
     2
  9
$LTSCALE
 40
2.0
  9
$OSMODE
 70
    37
  9
$ATTMODE
 70
     1
  9
$TEXTSIZE
 40
5.0
  9
$TRACEWID
 40
1.0
  9
$TEXTSTYLE
  7
STANDARD
  9
$CLAYER
  8
NOKITOI
  9
$CELTYPE
  6
BYLAYER
  9
$CECOLOR
 62
   256
  9
$CELTSCALE
 40
1.0
  9
$DELOBJ
 70
     1
  9
$DISPSILH
 70
     0
  9
$DIMSCALE
 40
1.0
  9
$DIMASZ
 40
7.0
  9
$DIMEXO
 40
6.0
  9
$DIMDLI
 40
14.0
  9
$DIMRND
 40
0.0
  9
$DIMDLE
 40
0.0
  9
$DIMEXE
 40
3.0
  9
$DIMTP
 40
0.0
  9
$DIMTM
 40
0.0
  9
$DIMTXT
 40
6.0
  9
$DIMCEN
 40
150.0
  9
$DIMTSZ
 40
0.0
  9
$DIMTOL
 70
     0
  9
$DIMLIM
 70
     0
  9
$DIMTIH
 70
     0
  9
$DIMTOH
 70
     0
  9
$DIMSE1
 70
     0
  9
$DIMSE2
 70
     0
  9
$DIMTAD
 70
     3
  9
$DIMZIN
 70
     0
  9
$DIMBLK
  1

  9
$DIMASO
 70
     1
  9
$DIMSHO
 70
     1
  9
$DIMPOST
  1

  9
$DIMAPOST
  1

  9
$DIMALT
 70
     0
  9
$DIMALTD
 70
     2
  9
$DIMALTF
 40
25.4
  9
$DIMLFAC
 40
1.0
  9
$DIMTOFL
 70
     1
  9
$DIMTVP
 40
0.0
  9
$DIMTIX
 70
     0
  9
$DIMSOXD
 70
     0
  9
$DIMSAH
 70
     1
  9
$DIMBLK1
  1
OPEN
  9
$DIMBLK2
  1
OPEN
  9
$DIMSTYLE
  2
STANDARD
  9
$DIMCLRD
 70
   256
  9
$DIMCLRE
 70
   256
  9
$DIMCLRT
 70
   256
  9
$DIMTFAC
 40
1.0
  9
$DIMGAP
 40
2.0
  9
$DIMJUST
 70
     0
  9
$DIMSD1
 70
     0
  9
$DIMSD2
 70
     0
  9
$DIMTOLJ
 70
     1
  9
$DIMTZIN
 70
     0
  9
$DIMALTZ
 70
     0
  9
$DIMALTTZ
 70
     0
  9
$DIMFIT
 70
     3
  9
$DIMUPT
 70
     0
  9
$DIMUNIT
 70
     2
  9
$DIMDEC
 70
     0
  9
$DIMTDEC
 70
     0
  9
$DIMALTU
 70
     2
  9
$DIMALTTD
 70
     2
  9
$DIMTXSTY
  7
STANDARD
  9
$DIMAUNIT
 70
     0
  9
$LUNITS
 70
     2
  9
$LUPREC
 70
     4
  9
$SKETCHINC
 40
1.0
  9
$FILLETRAD
 40
1.0
  9
$AUNITS
 70
     0
  9
$AUPREC
 70
     0
  9
$MENU
  1
.
  9
$ELEVATION
 40
0.0
  9
$PELEVATION
 40
0.0
  9
$THICKNESS
 40
0.0
  9
$LIMCHECK
 70
     0
  9
$BLIPMODE
 70
     0
  9
$CHAMFERA
 40
20.0
  9
$CHAMFERB
 40
20.0
  9
$CHAMFERC
 40
40.0
  9
$CHAMFERD
 40
0.0
  9
$SKPOLY
 70
     0
  9
$TDCREATE
 40
2450994.354346065
  9
$TDUPDATE
 40
2454512.742318715
  9
$TDINDWG
 40
0.0403237384
  9
$TDUSRTIMER
 40
0.0403237384
  9
$USRTIMER
 70
     1
  9
$ANGBASE
 50
0.0
  9
$ANGDIR
 70
     0
  9
$PDMODE
 70
     1
  9
$PDSIZE
 40
0.0
  9
$PLINEWID
 40
0.0
  9
$COORDS
 70
     2
  9
$SPLFRAME
 70
     0
  9
$SPLINETYPE
 70
     6
  9
$SPLINESEGS
 70
     8
  9
$ATTDIA
 70
     0
  9
$ATTREQ
 70
     1
  9
$HANDLING
 70
 10241
  9
$HANDSEED
  5
A2C
  9
$SURFTAB1
 70
     6
  9
$SURFTAB2
 70
     6
  9
$SURFTYPE
 70
     6
  9
$SURFU
 70
     6
  9
$SURFV
 70
     6
  9
$UCSNAME
  2

  9
$UCSORG
 10
0.0
 20
0.0
 30
0.0
  9
$UCSXDIR
 10
1.0
 20
0.0
 30
0.0
  9
$UCSYDIR
 10
0.0
 20
1.0
 30
0.0
  9
$PUCSNAME
  2

  9
$PUCSORG
 10
0.0
 20
0.0
 30
0.0
  9
$PUCSXDIR
 10
1.0
 20
0.0
 30
0.0
  9
$PUCSYDIR
 10
0.0
 20
1.0
 30
0.0
  9
$USERI1
 70
     0
  9
$USERI2
 70
     0
  9
$USERI3
 70
     0
  9
$USERI4
 70
     0
  9
$USERI5
 70
     0
  9
$USERR1
 40
0.0
  9
$USERR2
 40
0.0
  9
$USERR3
 40
0.0
  9
$USERR4
 40
0.0
  9
$USERR5
 40
0.0
  9
$WORLDVIEW
 70
     1
  9
$SHADEDGE
 70
     3
  9
$SHADEDIF
 70
    70
  9
$TILEMODE
 70
     1
  9
$MAXACTVP
 70
    16
  9
$PINSBASE
 10
0.0
 20
0.0
 30
0.0
  9
$PLIMCHECK
 70
     0
  9
$PEXTMIN
 10
0.0
 20
0.0
 30
0.0
  9
$PEXTMAX
 10
420.0
 20
297.0
 30
0.0
  9
$PLIMMIN
 10
0.0
 20
0.0
  9
$PLIMMAX
 10
420.0
 20
297.0
  9
$UNITMODE
 70
     0
  9
$VISRETAIN
 70
     0
  9
$PLINEGEN
 70
     0
  9
$PSLTSCALE
 70
     1
  9
$TREEDEPTH
 70
  3020
  9
$PICKSTYLE
 70
     1
  9
$CMLSTYLE
  2
STANDARD
  9
$CMLJUST
 70
     0
  9
$CMLSCALE
 40
1.0
  9
$PROXYGRAPHICS
 70
     1
  9
$MEASUREMENT
 70
     1
  0
ENDSEC
  0
SECTION
  2
CLASSES
  0
CLASS
  1
ACDBDICTIONARYWDFLT
  2
AcDbDictionaryWithDefault
  3
AutoCAD 2000
 90
        0
280
     0
281
     0
  0
CLASS
  1
ACDBPLACEHOLDER
  2
AcDbPlaceHolder
  3
AutoCAD 2000
 90
        0
280
     0
281
     0
  0
CLASS
  1
LAYOUT
  2
AcDbLayout
  3
AutoCAD 2000
 90
        0
280
     0
281
     0
  0
CLASS
  1
LONG_TRANSACTION
  2
AcDbLongTransaction
  3
AutoCAD 2000
 90
        0
280
     0
281
     0
  0
CLASS
  1
LWPOLYLINE
  2
AcDbPolyline
  3
AutoCAD 2000
 90
        0
280
     0
281
     1
  0
CLASS
  1
HATCH
  2
AcDbHatch
  3
AutoCAD 2000
 90
        0
280
     0
281
     1
  0
CLASS
  1
XRECORD
  2
AcDbXrecord
  3
AutoCAD 2000
 90
        0
280
     0
281
     0
  0
CLASS
  1
LONG_TRANSACTION
  2
AcDbLongTransaction
  3
AutoCAD 2000
 90
        0
280
     0
281
     0
  0
CLASS
  1
LWPOLYLINE
  2
AcDbPolyline
  3
AutoCAD 2000
 90
        0
280
     0
281
     1
  0
CLASS
  1
HATCH
  2
AcDbHatch
  3
AutoCAD 2000
 90
        0
280
     0
281
     1
  0
CLASS
  1
XRECORD
  2
AcDbXrecord
  3
AutoCAD 2000
 90
        0
280
     0
281
     0
  0
CLASS
  1
LONG_TRANSACTION
  2
AcDbLongTransaction
  3
AutoCAD 2000
 90
        0
280
     0
281
     0
  0
CLASS
  1
LWPOLYLINE
  2
AcDbPolyline
  3
AutoCAD 2000
 90
        0
280
     0
281
     1
  0
CLASS
  1
HATCH
  2
AcDbHatch
  3
AutoCAD 2000
 90
        0
280
     0
281
     1
  0
CLASS
  1
XRECORD
  2
AcDbXrecord
  3
AutoCAD 2000
 90
        0
280
     0
281
     0
  0
ENDSEC
  0
SECTION
  2
TABLES
  0
TABLE
  2
VPORT
  5
8
330
0
100
AcDbSymbolTable
 70
     2
  0
VPORT
  5
A08
330
8
100
AcDbSymbolTableRecord
100
AcDbViewportTableRecord
  2
*ACTIVE
 70
     0
 10
0.0
 20
0.0
 11
1.0
 21
1.0
 12
398.9867604194082
 22
275.2280216512522
 13
0.0
 23
0.0
 14
5.0
 24
5.0
 15
0.0
 25
0.0
 16
0.0
 26
0.0
 36
1.0
 17
0.0
 27
0.0
 37
0.0
 40
646.748501768434
 41
1.570153061224489
 42
50.0
 43
0.0
 44
0.0
 50
0.0
 51
0.0
 71
     0
 72
   100
 73
     1
 74
     0
 75
     0
 76
     0
 77
     0
 78
     0
  0
ENDTAB
  0
TABLE
  2
LTYPE
  5
5
330
0
100
AcDbSymbolTable
 70
     3
  0
LTYPE
  5
14
330
5
100
AcDbSymbolTableRecord
100
AcDbLinetypeTableRecord
  2
BYBLOCK
 70
     0
  3

 72
    65
 73
     0
 40
0.0
  0
LTYPE
  5
15
330
5
100
AcDbSymbolTableRecord
100
AcDbLinetypeTableRecord
  2
BYLAYER
 70
     0
  3

 72
    65
 73
     0
 40
0.0
  0
LTYPE
  5
16
330
5
100
AcDbSymbolTableRecord
100
AcDbLinetypeTableRecord
  2
CONTINUOUS
 70
     0
  3
Solid line
 72
    65
 73
     0
 40
0.0
  0
LTYPE
  5
115
330
5
100
AcDbSymbolTableRecord
100
AcDbLinetypeTableRecord
  2
PHANTOM
 70
     0
  3
______  __  __  ______  __  __  ______  __  __ 
 72
    65
 73
     6
 40
2.5
 49
1.25
 74
     0
 49
-0.25
 74
     0
 49
0.25
 74
     0
 49
-0.25
 74
     0
 49
0.25
 74
     0
 49
-0.25
 74
     0
  0
LTYPE
  5
135
330
5
100
AcDbSymbolTableRecord
100
AcDbLinetypeTableRecord
  2
CENTER
 70
     0
  3
____ _ ____ _ ____ _ ____ _ ____ _ ____ _ ____ 
 72
    65
 73
     4
 40
2.0
 49
1.25
 74
     0
 49
-0.25
 74
     0
 49
0.25
 74
     0
 49
-0.25
 74
     0
  0
ENDTAB
  0
TABLE
  2
LAYER
  5
2
330
0
100
AcDbSymbolTable
 70
     9
  0
LAYER
  5
F
330
2
100
AcDbSymbolTableRecord
100
AcDbLayerTableRecord
  2
0
 70
     0
 62
     7
  6
CONTINUOUS
  0
LAYER
  5
62
330
2
100
AcDbSymbolTableRecord
100
AcDbLayerTableRecord
  2
VIEWPORT
 70
     0
 62
     7
  6
CONTINUOUS
  0
LAYER
  5
65
330
2
100
AcDbSymbolTableRecord
100
AcDbLayerTableRecord
  2
ZUWAKU
 70
     0
 62
     7
  6
CONTINUOUS
  0
LAYER
  5
154
330
2
100
AcDbSymbolTableRecord
100
AcDbLayerTableRecord
  2
NOKITOI
 70
     0
 62
     8
  6
PHANTOM
  0
LAYER
  5
155
330
2
100
AcDbSymbolTableRecord
100
AcDbLayerTableRecord
  2
SUNPOU
 70
     0
 62
     4
  6
CONTINUOUS
  0
LAYER
  5
156
330
2
100
AcDbSymbolTableRecord
100
AcDbLayerTableRecord
  2
SEIHIN
 70
     0
 62
     3
  6
CONTINUOUS
  0
LAYER
  5
157
330
2
100
AcDbSymbolTableRecord
100
AcDbLayerTableRecord
  2
CENTER_L
 70
     0
 62
     1
  6
CENTER
  0
LAYER
  5
5D1
330
2
100
AcDbSymbolTableRecord
100
AcDbLayerTableRecord
  2
DEFPOINTS
 70
     0
 62
     7
  6
CONTINUOUS
  0
LAYER
  5
891
330
2
100
AcDbSymbolTableRecord
100
AcDbLayerTableRecord
  2
MOJI
 70
     0
 62
     2
  6
CONTINUOUS
  0
ENDTAB
  0
TABLE
  2
STYLE
  5
3
330
0
100
AcDbSymbolTable
 70
     2
  0
STYLE
  5
10
330
3
100
AcDbSymbolTableRecord
100
AcDbTextStyleTableRecord
  2
STANDARD
 70
     0
 40
0.0
 41
1.0
 50
0.0
 71
     0
 42
5.0
  3
TXT
  4
bigfont.shx
  0
STYLE
  5
892
330
3
100
AcDbSymbolTableRecord
100
AcDbTextStyleTableRecord
  2
ｽﾀｲﾙ1
 70
     0
 40
0.0
 41
1.0
 50
0.0
 71
     0
 42
2.5
  3
MS PGothic.ttf
  4

1001
ACAD
1000
MS PGothic
1071
    32818
  0
ENDTAB
  0
TABLE
  2
VIEW
  5
6
330
0
100
AcDbSymbolTable
 70
     0
  0
ENDTAB
  0
TABLE
  2
UCS
  5
7
330
0
100
AcDbSymbolTable
 70
     0
  0
ENDTAB
  0
TABLE
  2
APPID
  5
9
330
0
100
AcDbSymbolTable
 70
     1
  0
APPID
  5
11
330
9
100
AcDbSymbolTableRecord
100
AcDbRegAppTableRecord
  2
ACAD
 70
     0
  0
ENDTAB
  0
TABLE
  2
DIMSTYLE
  5
A
330
0
100
AcDbSymbolTable
 70
     1
  0
DIMSTYLE
105
1D
102
{ACAD_REACTORS
330
5FF
330
602
330
603
330
609
330
697
330
6DA
330
70C
330
71B
330
728
330
735
330
744
330
751
330
7FC
102
}
330
A
100
AcDbSymbolTableRecord
100
AcDbDimStyleTableRecord
  2
STANDARD
 70
     0
  3

  4

  5

  6

  7

 40
1.0
 41
0.18
 42
0.0625
 43
0.38
 44
0.18
 45
0.0
 46
0.0
 47
0.0
 48
0.0
140
0.18
141
0.09
142
0.0
143
25.4
144
1.0
145
0.0
146
1.0
147
0.09
 71
     0
 72
     0
 73
     1
 74
     1
 75
     0
 76
     0
 77
     0
 78
     0
170
     0
171
     2
172
     0
173
     0
174
     0
175
     0
176
     0
177
     0
178
     0
270
     2
271
     4
272
     4
273
     2
274
     2
340
10
275
     0
280
     0
281
     0
282
     0
283
     1
284
     0
285
     0
286
     0
287
     3
288
     0
  0
ENDTAB
  0
TABLE
  2
BLOCK_RECORD
  5
1
330
0
100
AcDbSymbolTable
 70
    15
  0
BLOCK_RECORD
  5
1A
102
{ACAD_XDICTIONARY
360
84F
102
}
330
1
100
AcDbSymbolTableRecord
100
AcDbBlockTableRecord
  2
*MODEL_SPACE
  0
BLOCK_RECORD
  5
17
102
{ACAD_XDICTIONARY
360
84D
102
}
330
1
100
AcDbSymbolTableRecord
100
AcDbBlockTableRecord
  2
*PAPER_SPACE
  0
BLOCK_RECORD
  5
6D
330
1
100
AcDbSymbolTableRecord
100
AcDbBlockTableRecord
  2
_OPEN
  0
BLOCK_RECORD
  5
163
330
1
100
AcDbSymbolTableRecord
100
AcDbBlockTableRecord
  2
A$C1305
  0
BLOCK_RECORD
  5
626
330
1
100
AcDbSymbolTableRecord
100
AcDbBlockTableRecord
  2
*D2
  0
BLOCK_RECORD
  5
632
330
1
100
AcDbSymbolTableRecord
100
AcDbBlockTableRecord
  2
*D3
  0
BLOCK_RECORD
  5
63E
330
1
100
AcDbSymbolTableRecord
100
AcDbBlockTableRecord
  2
*D4
  0
BLOCK_RECORD
  5
64A
330
1
100
AcDbSymbolTableRecord
100
AcDbBlockTableRecord
  2
*D5
  0
BLOCK_RECORD
  5
689
330
1
100
AcDbSymbolTableRecord
100
AcDbBlockTableRecord
  2
*D6
  0
BLOCK_RECORD
  5
6CC
330
1
100
AcDbSymbolTableRecord
100
AcDbBlockTableRecord
  2
*D7
  0
BLOCK_RECORD
  5
700
330
1
100
AcDbSymbolTableRecord
100
AcDbBlockTableRecord
  2
*D8
  0
BLOCK_RECORD
  5
70D
330
1
100
AcDbSymbolTableRecord
100
AcDbBlockTableRecord
  2
*D9
  0
BLOCK_RECORD
  5
71C
330
1
100
AcDbSymbolTableRecord
100
AcDbBlockTableRecord
  2
*D10
  0
BLOCK_RECORD
  5
729
330
1
100
AcDbSymbolTableRecord
100
AcDbBlockTableRecord
  2
*D11
  0
BLOCK_RECORD
  5
738
330
1
100
AcDbSymbolTableRecord
100
AcDbBlockTableRecord
  2
*D12
  0
BLOCK_RECORD
  5
745
330
1
100
AcDbSymbolTableRecord
100
AcDbBlockTableRecord
  2
*D13
  0
BLOCK_RECORD
  5
7F0
330
1
100
AcDbSymbolTableRecord
100
AcDbBlockTableRecord
  2
*D14
  0
ENDTAB
  0
ENDSEC
  0
SECTION
  2
BLOCKS
  0
BLOCK
  5
1B
330
1A
100
AcDbEntity
  8
0
100
AcDbBlockBegin
  2
*MODEL_SPACE
 70
     0
 10
0.0
 20
0.0
 30
0.0
  3
*MODEL_SPACE
  1

  0
ENDBLK
  5
1C
330
1A
100
AcDbEntity
  8
0
100
AcDbBlockEnd
  0
BLOCK
  5
18
330
17
100
AcDbEntity
 67
     1
  8
0
100
AcDbBlockBegin
  2
*PAPER_SPACE
 70
     0
 10
0.0
 20
0.0
 30
0.0
  3
*PAPER_SPACE
  1

  0
ENDBLK
  5
19
330
17
100
AcDbEntity
 67
     1
  8
0
100
AcDbBlockEnd
  0
BLOCK
  5
6E
330
6D
100
AcDbEntity
  8
0
100
AcDbBlockBegin
  2
_OPEN
 70
     0
 10
0.0
 20
0.0
 30
0.0
  3
_OPEN
  1

  0
LINE
  5
6F
330
6D
100
AcDbEntity
  8
0
  6
BYBLOCK
 62
     0
100
AcDbLine
 10
-1.0
 20
0.1666666666666666
 30
0.0
 11
0.0
 21
0.0
 31
0.0
  0
LINE
  5
70
330
6D
100
AcDbEntity
  8
0
  6
BYBLOCK
 62
     0
100
AcDbLine
 10
0.0
 20
0.0
 30
0.0
 11
-1.0
 21
-0.1666666666666666
 31
0.0
  0
LINE
  5
71
330
6D
100
AcDbEntity
  8
0
  6
BYBLOCK
 62
     0
100
AcDbLine
 10
0.0
 20
0.0
 30
0.0
 11
-1.0
 21
0.0
 31
0.0
  0
ENDBLK
  5
72
330
6D
100
AcDbEntity
  8
0
100
AcDbBlockEnd
  0
BLOCK
  5
1AB
330
163
100
AcDbEntity
  8
0
100
AcDbBlockBegin
  2
A$C1305
 70
     0
 10
0.0
 20
0.0
 30
0.0
  3
A$C1305
  1

  0
LINE
  5
164
330
163
100
AcDbEntity
  8
NOKITOI
  6
PHANTOM
 62
     8
 48
5.0
100
AcDbLine
 10
29.18435908443393
 20
10.10187063730222
 30
0.0
 11
19.27365908443391
 21
10.10187063730222
 31
0.0
  0
LINE
  5
165
330
163
100
AcDbEntity
  8
NOKITOI
  6
PHANTOM
 62
     8
 48
5.0
100
AcDbLine
 10
90.2981590844339
 20
0.1120706373022813
 30
0.0
 11
24.06755908443392
 21
0.1121706373021425
 31
0.0
  0
LINE
  5
166
330
163
100
AcDbEntity
  8
NOKITOI
  6
PHANTOM
 62
     8
 48
5.0
100
AcDbLine
 10
24.06755908443392
 20
0.1121706373021425
 30
0.0
 11
90.2981590844339
 21
0.1120706373022813
 31
0.0
  0
LINE
  5
167
330
163
100
AcDbEntity
  8
NOKITOI
  6
PHANTOM
 62
     8
 48
5.0
100
AcDbLine
 10
13.05735908443387
 20
12.22087063730214
 30
0.0
 11
7.218759084433713
 21
39.95217063730228
 31
0.0
  0
LINE
  5
168
330
163
100
AcDbEntity
  8
NOKITOI
  6
PHANTOM
 62
     8
 48
5.0
100
AcDbLine
 10
14.16595908443378
 20
13.23377063730208
 30
0.0
 11
8.234959084433853
 21
41.4036706373023
 31
0.0
  0
ARC
  5
169
330
163
100
AcDbEntity
  8
NOKITOI
  6
PHANTOM
 62
     8
 48
5.0
100
AcDbCircle
 10
15.13957896620524
 20
13.43874830022218
 30
0.0
 40
0.995060928010462
100
AcDbArc
 50
191.8877567214145
 51
251.4524867922934
  0
ARC
  5
16A
330
163
100
AcDbEntity
  8
NOKITOI
  6
PHANTOM
 62
     8
 48
5.0
100
AcDbCircle
 10
10.29733292322475
 20
-0.9941694721817384
 30
0.0
 40
14.22848866365036
100
AcDbArc
 50
51.52529185494254
 51
71.45345265407107
  0
ARC
  5
16B
330
163
100
AcDbEntity
  8
NOKITOI
  6
PHANTOM
 62
     8
 48
5.0
100
AcDbCircle
 10
10.29726615422066
 20
-0.9941373355915743
 30
0.0
 40
12.93471022655885
100
AcDbArc
 50
8.676219579622015
 51
74.45245455808978
  0
ARC
  5
16C
330
163
100
AcDbEntity
  8
NOKITOI
  6
PHANTOM
 62
     8
 48
5.0
100
AcDbCircle
 10
24.06756669845151
 20
1.107164097058216
 30
0.0
 40
0.9949934597852239
100
AcDbArc
 50
188.67611256506
 51
269.9995615538235
  0
ARC
  5
16D
330
163
100
AcDbEntity
  8
NOKITOI
  6
PHANTOM
 62
     8
 48
5.0
100
AcDbCircle
 10
19.27366239679292
 20
10.30086948151677
 30
0.0
 40
0.1989988442421132
100
AcDbArc
 50
231.5280949042412
 51
269.9990463050557
  0
ARC
  5
16E
330
163
100
AcDbEntity
  8
NOKITOI
  6
PHANTOM
 62
     8
 48
5.0
100
AcDbCircle
 10
14.03099910882133
 20
12.42582797307631
 30
0.0
 40
0.9949785960395137
100
AcDbArc
 50
191.8875585738773
 51
254.4495841050105
  0
LINE
  5
16F
330
163
100
AcDbEntity
  8
NOKITOI
  6
PHANTOM
 62
     8
 48
5.0
100
AcDbLine
 10
27.88425908443378
 20
1.91217063730221
 30
0.0
 11
27.88425908443378
 21
8.439470637302292
 31
0.0
  0
LINE
  5
170
330
163
100
AcDbEntity
  8
NOKITOI
  6
PHANTOM
 62
     8
 48
5.0
100
AcDbLine
 10
28.37925908443378
 20
9.296770637302074
 30
0.0
 11
27.88425908443378
 21
8.439470637302292
 31
0.0
  0
LINE
  5
171
330
163
100
AcDbEntity
  8
NOKITOI
  6
PHANTOM
 62
     8
 48
5.0
100
AcDbLine
 10
28.37925908443378
 20
9.296770637302074
 30
0.0
 11
27.52195908443377
 21
8.801870637302272
 31
0.0
  0
ARC
  5
172
330
163
100
AcDbEntity
  8
NOKITOI
  6
PHANTOM
 62
     8
 48
5.0
100
AcDbCircle
 10
21.30106274373702
 20
8.501878629181817
 30
0.0
 40
0.2999920081427447
100
AcDbArc
 50
90.00069889403098
 51
220.79672841758
  0
ARC
  5
173
330
163
100
AcDbEntity
  8
NOKITOI
  6
PHANTOM
 62
     8
 48
5.0
100
AcDbCircle
 10
10.29726428144715
 20
-0.9941399784659097
 30
0.0
 40
14.23472333170272
100
AcDbArc
 50
11.37541821407357
 51
40.79334907830751
  0
LINE
  5
174
330
163
100
AcDbEntity
  8
NOKITOI
  6
PHANTOM
 62
     8
 48
5.0
100
AcDbLine
 10
27.52195908443377
 20
8.801870637302272
 30
0.0
 11
21.30105908443386
 21
8.801870637302272
 31
0.0
  0
LINE
  5
175
330
163
100
AcDbEntity
  8
NOKITOI
  6
PHANTOM
 62
     8
 48
5.0
100
AcDbLine
 10
24.74245908443378
 20
1.412170637302097
 30
0.0
 11
27.38425908443378
 21
1.412170637302097
 31
0.0
  0
ARC
  5
176
330
163
100
AcDbEntity
  8
NOKITOI
  6
PHANTOM
 62
     8
 48
5.0
100
AcDbCircle
 10
24.74253604330567
 20
1.912189501590432
 30
0.0
 40
0.5000188648192144
100
AcDbArc
 50
191.3867288554411
 51
270.0026402191985
  0
ARC
  5
177
330
163
100
AcDbEntity
  8
NOKITOI
  6
PHANTOM
 62
     8
 48
5.0
100
AcDbCircle
 10
27.38425908443366
 20
1.91217063730221
 30
0.0
 40
0.5000000000000569
100
AcDbArc
 50
270.0000000000065
 51
0.0000000000065138
  0
LINE
  5
178
330
163
100
AcDbEntity
  8
NOKITOI
  6
PHANTOM
 62
     8
 48
5.0
100
AcDbLine
 10
0.1808590844339051
 20
41.10517063730208
 30
0.0
 11
0.1808590844339051
 21
49.11467063730208
 31
0.0
  0
ARC
  5
179
330
163
100
AcDbEntity
  8
NOKITOI
  6
PHANTOM
 62
     8
 48
5.0
100
AcDbCircle
 10
3.6160590844338
 20
47.32377063730223
 30
0.0
 40
1.492399999999918
100
AcDbArc
 50
0.0000000000021823
 51
90.00000000000218
  0
ARC
  5
17A
330
163
100
AcDbEntity
  8
NOKITOI
  6
PHANTOM
 62
     8
 48
5.0
100
AcDbCircle
 10
2.966809084433748
 20
47.32372063730212
 30
0.0
 40
1.49245000083754
100
AcDbArc
 50
89.99808047909008
 51
179.99808047909
  0
LINE
  5
17B
330
163
100
AcDbEntity
  8
NOKITOI
  6
PHANTOM
 62
     8
 48
5.0
100
AcDbLine
 10
6.401959084433769
 20
49.11467063730208
 30
0.0
 11
6.401959084433769
 21
44.90987063730222
 31
0.0
  0
LINE
  5
17C
330
163
100
AcDbEntity
  8
NOKITOI
  6
PHANTOM
 62
     8
 48
5.0
100
AcDbLine
 10
3.464359084433908
 20
41.4036706373023
 30
0.0
 11
8.234959084433853
 21
41.4036706373023
 31
0.0
  0
LINE
  5
17D
330
163
100
AcDbEntity
  8
NOKITOI
  6
PHANTOM
 62
     8
 48
5.0
100
AcDbLine
 10
7.024059084433929
 20
40.11017063730207
 30
0.0
 11
1.175859084433909
 21
40.11017063730207
 31
0.0
  0
ARC
  5
17E
330
163
100
AcDbEntity
  8
NOKITOI
  6
PHANTOM
 62
     8
 48
5.0
100
AcDbCircle
 10
3.464309084433807
 20
43.39362063730232
 30
0.0
 40
1.989950000628206
100
AcDbArc
 50
180.0014396286234
 51
270.0014396286234
  0
LINE
  5
17F
330
163
100
AcDbEntity
  8
NOKITOI
  6
PHANTOM
 62
     8
 48
5.0
100
AcDbLine
 10
1.474359084433785
 20
47.32377063730223
 30
0.0
 11
1.474359084433785
 21
43.39357063730221
 31
0.0
  0
ARC
  5
180
330
163
100
AcDbEntity
  8
NOKITOI
  6
PHANTOM
 62
     8
 48
5.0
100
AcDbCircle
 10
1.175859084433909
 20
41.10517063730208
 30
0.0
 40
0.9950000000000045
100
AcDbArc
 50
180.0
 51
270.0
  0
LINE
  5
181
330
163
100
AcDbEntity
  8
NOKITOI
  6
PHANTOM
 62
     8
 48
5.0
100
AcDbLine
 10
5.108559084433863
 20
44.90987063730222
 30
0.0
 11
5.108559084433863
 21
47.32377063730223
 31
0.0
  0
LINE
  5
182
330
163
100
AcDbEntity
  8
NOKITOI
  6
PHANTOM
 62
     8
 48
5.0
100
AcDbLine
 10
6.401959084433769
 20
44.90987063730222
 30
0.0
 11
5.108559084433863
 21
44.90987063730222
 31
0.0
  0
ARC
  5
183
330
163
100
AcDbEntity
  8
NOKITOI
  6
PHANTOM
 62
     8
 48
5.0
100
AcDbCircle
 10
7.024040641819624
 20
39.91118560073897
 30
0.0
 40
0.1989850374177657
100
AcDbArc
 50
11.88631382809314
 51
89.99468963106556
  0
LINE
  5
184
330
163
100
AcDbEntity
  8
NOKITOI
  6
PHANTOM
 62
     8
 48
5.0
100
AcDbLine
 10
1.175859084433909
 20
50.1096706373022
 30
0.0
 11
5.407059084433853
 21
50.1096706373022
 31
0.0
  0
ARC
  5
185
330
163
100
AcDbEntity
  8
NOKITOI
  6
PHANTOM
 62
     8
 48
5.0
100
AcDbCircle
 10
1.175859084433909
 20
49.1146706373022
 30
0.0
 40
0.9950000000000613
100
AcDbArc
 50
90.00000000000328
 51
180.0000000000032
  0
LINE
  5
186
330
163
100
AcDbEntity
  8
NOKITOI
  6
PHANTOM
 62
     8
 48
5.0
100
AcDbLine
 10
3.6160590844338
 20
48.81617063730209
 30
0.0
 11
2.966859084433849
 21
48.81617063730209
 31
0.0
  0
ARC
  5
187
330
163
100
AcDbEntity
  8
NOKITOI
  6
PHANTOM
 62
     8
 48
5.0
100
AcDbCircle
 10
5.407009084433752
 20
49.11472063730224
 30
0.0
 40
0.9949500012563332
100
AcDbArc
 50
359.9971206704048
 51
89.99712067040489
  0
LINE
  5
188
330
163
100
AcDbEntity
  8
NOKITOI
  6
PHANTOM
 62
     8
 48
5.0
100
AcDbLine
 10
85.18155908443374
 20
10.10157063730207
 30
0.0
 11
95.16205908443373
 21
10.10147063730221
 31
0.0
  0
ARC
  5
189
330
163
100
AcDbEntity
  8
NOKITOI
  6
PHANTOM
 62
     8
 48
5.0
100
AcDbCircle
 10
104.068453551022
 20
-0.9942356029631582
 30
0.0
 40
12.93461262833301
100
AcDbArc
 50
105.5476727870198
 51
171.3237222126366
  0
ARC
  5
18A
330
163
100
AcDbEntity
  8
NOKITOI
  6
PHANTOM
 62
     8
 48
5.0
100
AcDbCircle
 10
104.0683479281129
 20
-0.994141944171929
 30
0.0
 40
12.93449408578155
100
AcDbArc
 50
105.5473332353544
 51
171.3240617643019
  0
LINE
  5
18B
330
163
100
AcDbEntity
  8
NOKITOI
  6
PHANTOM
 62
     8
 48
5.0
100
AcDbLine
 10
29.38325908443392
 20
1.405570637302162
 30
0.0
 11
84.98245908443392
 21
1.405470637302073
 31
0.0
  0
ARC
  5
18C
330
163
100
AcDbEntity
  8
NOKITOI
  6
PHANTOM
 62
     8
 48
5.0
100
AcDbCircle
 10
29.38325908443392
 20
1.604570637302231
 30
0.0
 40
0.1990000000000691
100
AcDbArc
 50
179.9999999999836
 51
269.9999999999836
  0
LINE
  5
18D
330
163
100
AcDbEntity
  8
NOKITOI
  6
PHANTOM
 62
     8
 48
5.0
100
AcDbLine
 10
29.18425908443385
 20
1.604570637302231
 30
0.0
 11
29.18435908443393
 21
10.10187063730222
 31
0.0
  0
LINE
  5
18E
330
163
100
AcDbEntity
  8
NOKITOI
  6
PHANTOM
 62
     8
 48
5.0
100
AcDbLine
 10
80.98245908443391
 20
1.405470637302073
 30
0.0
 11
66.22805908443377
 21
1.405470637302073
 31
0.0
  0
ARC
  5
18F
330
163
100
AcDbEntity
  8
NOKITOI
  6
PHANTOM
 62
     8
 48
5.0
100
AcDbCircle
 10
90.2982090125298
 20
1.107113524900853
 30
0.0
 40
0.9950428888512103
100
AcDbArc
 50
269.9971250795227
 51
351.3214426795068
  0
LINE
  5
190
330
163
100
AcDbEntity
  8
NOKITOI
  6
PHANTOM
 62
     8
 48
5.0
100
AcDbLine
 10
85.98655908443367
 20
9.296470637302149
 30
0.0
 11
86.4815590844339
 21
8.43917063730214
 31
0.0
  0
LINE
  5
191
330
163
100
AcDbEntity
  8
NOKITOI
  6
PHANTOM
 62
     8
 48
5.0
100
AcDbLine
 10
85.98655908443367
 20
9.296470637302149
 30
0.0
 11
86.84385908443392
 21
8.801470637302145
 31
0.0
  0
ARC
  5
192
330
163
100
AcDbEntity
  8
NOKITOI
  6
PHANTOM
 62
     8
 48
5.0
100
AcDbCircle
 10
84.98240908443381
 20
1.604520637302186
 30
0.0
 40
0.1990500062799141
100
AcDbArc
 50
270.0143923080611
 51
0.014392308061115
  0
LINE
  5
193
330
163
100
AcDbEntity
  8
NOKITOI
  6
PHANTOM
 62
     8
 48
5.0
100
AcDbLine
 10
85.18145908443386
 20
1.604570637302231
 30
0.0
 11
85.18155908443374
 21
10.10157063730207
 31
0.0
  0
LINE
  5
194
330
163
100
AcDbEntity
  8
NOKITOI
  6
PHANTOM
 62
     8
 48
5.0
100
AcDbLine
 10
86.4815590844339
 20
8.43917063730214
 30
0.0
 11
86.4815590844339
 21
1.912070637302122
 31
0.0
  0
ARC
  5
195
330
163
100
AcDbEntity
  8
NOKITOI
  6
PHANTOM
 62
     8
 48
5.0
100
AcDbCircle
 10
104.0684175391246
 20
-0.9943142272541081
 30
0.0
 40
14.23462403148678
100
AcDbArc
 50
139.2075062369005
 51
168.6237859483839
  0
LINE
  5
196
330
163
100
AcDbEntity
  8
NOKITOI
  6
PHANTOM
 62
     8
 48
5.0
100
AcDbLine
 10
93.06445908443368
 20
8.801470637302145
 30
0.0
 11
86.84385908443392
 21
8.801470637302145
 31
0.0
  0
ARC
  5
197
330
163
100
AcDbEntity
  8
NOKITOI
  6
PHANTOM
 62
     8
 48
5.0
100
AcDbCircle
 10
93.06447276228515
 20
8.501440773608294
 30
0.0
 40
0.3000298640056128
100
AcDbArc
 50
319.2190584222776
 51
90.00261201719956
  0
LINE
  5
198
330
163
100
AcDbEntity
  8
NOKITOI
  6
PHANTOM
 62
     8
 48
5.0
100
AcDbLine
 10
89.62325908443393
 20
1.412070637302235
 30
0.0
 11
86.98155908443391
 21
1.412070637302235
 31
0.0
  0
ARC
  5
199
330
163
100
AcDbEntity
  8
NOKITOI
  6
PHANTOM
 62
     8
 48
5.0
100
AcDbCircle
 10
86.9815590844338
 20
1.912070637302235
 30
0.0
 40
0.4999999999999432
100
AcDbArc
 50
180.0000000000065
 51
270.0000000000065
  0
ARC
  5
19A
330
163
100
AcDbEntity
  8
NOKITOI
  6
PHANTOM
 62
     8
 48
5.0
100
AcDbCircle
 10
89.62328212556213
 20
1.912089501590457
 30
0.0
 40
0.5000188648190603
100
AcDbArc
 50
269.9973597808039
 51
348.6132711445602
  0
LINE
  5
19B
330
163
100
AcDbEntity
  8
NOKITOI
  6
PHANTOM
 62
     8
 48
5.0
100
AcDbLine
 10
100.1997590844339
 20
13.23317063730223
 30
0.0
 11
105.6547590844337
 21
39.14207063730214
 31
0.0
  0
LINE
  5
19C
330
163
100
AcDbEntity
  8
NOKITOI
  6
PHANTOM
 62
     8
 48
5.0
100
AcDbLine
 10
101.3084590844339
 20
12.22067063730207
 30
0.0
 11
107.1471590844337
 21
39.95207063730208
 31
0.0
  0
ARC
  5
19D
330
163
100
AcDbEntity
  8
NOKITOI
  6
PHANTOM
 62
     8
 48
5.0
100
AcDbCircle
 10
99.22620265398496
 20
13.43821958907108
 30
0.0
 40
0.9950135261271753
100
AcDbArc
 50
288.5445751594487
 51
348.1074736523478
  0
ARC
  5
19E
330
163
100
AcDbEntity
  8
NOKITOI
  6
PHANTOM
 62
     8
 48
5.0
100
AcDbCircle
 10
104.0684735879824
 20
-0.9942214385093848
 30
0.0
 40
14.22809199964113
100
AcDbArc
 50
108.5474584936555
 51
128.7537062451648
  0
ARC
  5
19F
330
163
100
AcDbEntity
  8
NOKITOI
  6
PHANTOM
 62
     8
 48
5.0
100
AcDbCircle
 10
100.334833421286
 20
12.42574988868966
 30
0.0
 40
0.9949690575286499
100
AcDbArc
 50
285.5437330810338
 51
348.1110361155302
  0
LINE
  5
1A0
330
163
100
AcDbEntity
  8
NOKITOI
  6
PHANTOM
 62
     8
 48
5.0
100
AcDbLine
 10
112.8850590844339
 20
41.40997063730208
 30
0.0
 11
107.4607590844339
 21
41.41007063730216
 31
0.0
  0
LINE
  5
1A1
330
163
100
AcDbEntity
  8
NOKITOI
  6
PHANTOM
 62
     8
 48
5.0
100
AcDbLine
 10
113.1900590844338
 20
50.10957063730223
 30
0.0
 11
107.9863590844338
 21
50.10947063730213
 31
0.0
  0
LINE
  5
1A2
330
163
100
AcDbEntity
  8
NOKITOI
  6
PHANTOM
 62
     8
 48
5.0
100
AcDbLine
 10
112.8850590844339
 20
48.80947063730229
 30
0.0
 11
109.0186590844336
 21
48.80947063730229
 31
0.0
  0
LINE
  5
1A3
330
163
100
AcDbEntity
  8
NOKITOI
  6
PHANTOM
 62
     8
 48
5.0
100
AcDbLine
 10
107.3418590844337
 20
40.10997063730224
 30
0.0
 11
113.1900590844338
 21
40.10997063730224
 31
0.0
  0
LINE
  5
1A4
330
163
100
AcDbEntity
  8
NOKITOI
  6
PHANTOM
 62
     8
 48
5.0
100
AcDbLine
 10
109.0186590844336
 20
48.80947063730229
 30
0.0
 11
107.4607590844339
 21
41.41007063730216
 31
0.0
  0
LINE
  5
1A5
330
163
100
AcDbEntity
  8
NOKITOI
  6
PHANTOM
 62
     8
 48
5.0
100
AcDbLine
 10
105.6547590844337
 20
39.14207063730214
 30
0.0
 11
107.9638590844336
 21
50.10947063730213
 31
0.0
  0
ARC
  5
1A6
330
163
100
AcDbEntity
  8
NOKITOI
  6
PHANTOM
 62
     8
 48
5.0
100
AcDbCircle
 10
107.341877527048
 20
39.91108560073894
 30
0.0
 40
0.1989850374179911
100
AcDbArc
 50
90.00531036897127
 51
168.1136861719432
  0
LINE
  5
1A7
330
163
100
AcDbEntity
  8
NOKITOI
  6
PHANTOM
 62
     8
 48
5.0
100
AcDbLine
 10
114.1850590844338
 20
41.10497063730213
 30
0.0
 11
114.1850590844338
 21
49.1145706373021
 31
0.0
  0
LINE
  5
1A8
330
163
100
AcDbEntity
  8
NOKITOI
  6
PHANTOM
 62
     8
 48
5.0
100
AcDbLine
 10
112.8850590844339
 20
41.40997063730208
 30
0.0
 11
112.8850590844339
 21
48.80947063730229
 31
0.0
  0
ARC
  5
1A9
330
163
100
AcDbEntity
  8
NOKITOI
  6
PHANTOM
 62
     8
 48
5.0
100
AcDbCircle
 10
113.1900590844339
 20
41.10497063730218
 30
0.0
 40
0.9949999999999192
100
AcDbArc
 50
269.9999999999951
 51
359.9999999999951
  0
ARC
  5
1AA
330
163
100
AcDbEntity
  8
NOKITOI
  6
PHANTOM
 62
     8
 48
5.0
100
AcDbCircle
 10
113.1900590844338
 20
49.11457063730222
 30
0.0
 40
0.9950000000000613
100
AcDbArc
 50
359.9999999999967
 51
89.99999999999673
  0
ENDBLK
  5
1AC
330
163
100
AcDbEntity
  8
0
100
AcDbBlockEnd
  0
BLOCK
  5
658
330
626
100
AcDbEntity
  8
0
100
AcDbBlockBegin
  2
*D2
 70
     1
 10
0.0
 20
0.0
 30
0.0
  3
*D2
  1

  0
LINE
  5
659
330
626
100
AcDbEntity
  8
0
  6
BYBLOCK
 62
     4
100
AcDbLine
 10
622.705511159593
 20
225.7800051994383
 30
0.0
 11
587.0885666091257
 21
211.5351025307538
 31
0.0
  0
LINE
  5
65A
330
626
100
AcDbEntity
  8
0
  6
BYBLOCK
 62
     4
100
AcDbLine
 10
633.8459672211302
 20
197.9251988143463
 30
0.0
 11
598.2290226706628
 21
183.6802961456618
 31
0.0
  0
LINE
  5
65B
330
626
100
AcDbEntity
  8
0
  6
BYBLOCK
 62
     4
100
AcDbLine
 10
592.473486995297
 20
206.1496933137493
 30
0.0
 11
598.4150635614789
 21
191.2937965749613
 31
0.0
  0
INSERT
  5
65C
330
626
100
AcDbEntity
  8
0
  6
BYBLOCK
 62
     4
100
AcDbBlockReference
  2
_OPEN
 10
589.8740472476194
 20
212.6491481369013
 30
0.0
 41
7.0
 42
7.0
 43
7.0
 50
111.7988090140681
  0
INSERT
  5
65D
330
626
100
AcDbEntity
  8
0
  6
BYBLOCK
 62
     4
100
AcDbBlockReference
  2
_OPEN
 10
601.0145033091565
 20
184.7943417518093
 30
0.0
 41
7.0
 42
7.0
 43
7.0
 50
291.7988090140681
  0
MTEXT
  5
65E
330
626
100
AcDbEntity
  8
0
  6
BYBLOCK
 62
     4
100
AcDbMText
 10
600.0867430092108
 20
200.5784876212679
 30
0.0
 40
6.0
 41
0.0
 71
     5
 72
     5
  1
\A1;30
 11
0.3713485353825094
 21
-0.9284935461645737
 31
0.0
1001
ACAD
1000
MTEXTBEGIN
1070
    73
1070
     1
1070
    44
1040
1.0
1070
    74
1070
     0
1000
MTEXTEND
1000
MTEXTBEGIN
1070
    73
1070
     1
1070
    44
1040
1.0
1070
    74
1070
     0
1000
MTEXTEND
1000
MTEXTBEGIN
1070
    73
1070
     1
1070
    44
1040
1.0
1070
    74
1070
     0
1000
MTEXTEND
  0
POINT
  5
65F
330
626
100
AcDbEntity
  8
DEFPOINTS
  6
BYBLOCK
 62
     0
100
AcDbPoint
 10
628.2764724365805
 20
228.0080964117334
 30
0.0
  0
POINT
  5
660
330
626
100
AcDbEntity
  8
DEFPOINTS
  6
BYBLOCK
 62
     0
100
AcDbPoint
 10
639.4169284981177
 20
200.1532900266414
 30
0.0
  0
POINT
  5
661
330
626
100
AcDbEntity
  8
DEFPOINTS
  6
BYBLOCK
 62
     0
100
AcDbPoint
 10
601.0145033091565
 20
184.7943417518093
 30
0.0
  0
ENDBLK
  5
662
330
626
100
AcDbEntity
  8
0
100
AcDbBlockEnd
  0
BLOCK
  5
7A3
330
632
100
AcDbEntity
  8
0
100
AcDbBlockBegin
  2
*D3
 70
     1
 10
0.0
 20
0.0
 30
0.0
  3
*D3
  1

  0
LINE
  5
7A4
330
632
100
AcDbEntity
  8
0
  6
BYBLOCK
 62
     4
100
AcDbLine
 10
620.3644646648025
 20
342.2145720192043
 30
0.0
 11
614.536130065869
 21
356.7871856906683
 31
0.0
  0
LINE
  5
7A5
330
632
100
AcDbEntity
  8
0
  6
BYBLOCK
 62
     4
100
AcDbLine
 10
573.9397873565506
 20
323.6471452500695
 30
0.0
 11
568.1115146495555
 21
338.2196041728156
 31
0.0
  0
LINE
  5
7A6
330
632
100
AcDbEntity
  8
0
  6
BYBLOCK
 62
     4
100
AcDbLine
 10
609.150738798629
 20
351.4022473531629
 30
0.0
 11
575.7250156989489
 21
338.0335886603351
 31
0.0
  0
INSERT
  5
7A7
330
632
100
AcDbEntity
  8
0
  6
BYBLOCK
 62
     4
100
AcDbBlockReference
  2
_OPEN
 10
615.6501849569457
 20
354.0017087656754
 30
0.0
 41
7.0
 42
7.0
 43
7.0
 50
21.7989999999998
  0
INSERT
  5
7A8
330
632
100
AcDbEntity
  8
0
  6
BYBLOCK
 62
     4
100
AcDbBlockReference
  2
_OPEN
 10
569.2255695406323
 20
335.4341272478226
 30
0.0
 41
7.0
 42
7.0
 43
7.0
 50
201.7989999999998
  0
MTEXT
  5
7A9
330
632
100
AcDbEntity
  8
0
  6
BYBLOCK
 62
     4
100
AcDbMText
 10
590.4836998071532
 20
349.3214165846977
 30
0.0
 40
6.0
 41
0.0
 71
     5
 72
     5
  1
\A1;50
 11
0.9284923083309642
 21
0.3713516303589332
 31
0.0
1001
ACAD
1000
MTEXTBEGIN
1070
    73
1070
     1
1070
    44
1040
1.0
1070
    74
1070
     0
1000
MTEXTEND
1000
MTEXTBEGIN
1070
    73
1070
     1
1070
    44
1040
1.0
1070
    74
1070
     0
1000
MTEXTEND
1000
MTEXTBEGIN
1070
    73
1070
     1
1070
    44
1040
1.0
1070
    74
1070
     0
1000
MTEXTEND
  0
POINT
  5
7AA
330
632
100
AcDbEntity
  8
DEFPOINTS
  6
BYBLOCK
 62
     0
100
AcDbPoint
 10
622.592574446956
 20
336.6436181692185
 30
0.0
  0
POINT
  5
7AB
330
632
100
AcDbEntity
  8
DEFPOINTS
  6
BYBLOCK
 62
     0
100
AcDbPoint
 10
576.1678971387042
 20
318.0761914000837
 30
0.0
  0
POINT
  5
7AC
330
632
100
AcDbEntity
  8
DEFPOINTS
  6
BYBLOCK
 62
     0
100
AcDbPoint
 10
569.2255695406323
 20
335.4341272478226
 30
0.0
  0
ENDBLK
  5
7AD
330
632
100
AcDbEntity
  8
0
100
AcDbBlockEnd
  0
BLOCK
  5
66E
330
63E
100
AcDbEntity
  8
0
100
AcDbBlockBegin
  2
*D4
 70
     1
 10
0.0
 20
0.0
 30
0.0
  3
*D4
  1

  0
LINE
  5
66F
330
63E
100
AcDbEntity
  8
0
  6
BYBLOCK
 62
     4
100
AcDbLine
 10
681.7579754246106
 20
255.8599623847936
 30
0.0
 11
670.0197709191341
 21
285.2090528584681
 31
0.0
  0
LINE
  5
670
330
63E
100
AcDbEntity
  8
0
  6
BYBLOCK
 62
     4
100
AcDbLine
 10
626.0483626544269
 20
233.5790502617191
 30
0.0
 11
614.3102324192763
 21
262.9279550369321
 31
0.0
  0
LINE
  5
671
330
63E
100
AcDbEntity
  8
0
  6
BYBLOCK
 62
     4
100
AcDbLine
 10
664.6343796518941
 20
279.8241145209626
 30
0.0
 11
621.9237334686697
 21
262.7419395244517
 31
0.0
  0
INSERT
  5
672
330
63E
100
AcDbEntity
  8
0
  6
BYBLOCK
 62
     4
100
AcDbBlockReference
  2
_OPEN
 10
671.1338258102109
 20
282.4235759334752
 30
0.0
 41
7.0
 42
7.0
 43
7.0
 50
21.7989999999998
  0
INSERT
  5
673
330
63E
100
AcDbEntity
  8
0
  6
BYBLOCK
 62
     4
100
AcDbBlockReference
  2
_OPEN
 10
615.424287310353
 20
260.1424781119392
 30
0.0
 41
7.0
 42
7.0
 43
7.0
 50
201.7989999999998
  0
MTEXT
  5
674
330
63E
100
AcDbEntity
  8
0
  6
BYBLOCK
 62
     4
100
AcDbMText
 10
641.4222984084874
 20
275.925488564362
 30
0.0
 40
6.0
 41
0.0
 71
     5
 72
     5
  1
\A1;60
 11
0.9284923083309642
 21
0.3713516303589332
 31
0.0
1001
ACAD
1000
MTEXTBEGIN
1070
    73
1070
     1
1070
    44
1040
1.0
1070
    74
1070
     0
1000
MTEXTEND
1000
MTEXTBEGIN
1070
    73
1070
     1
1070
    44
1040
1.0
1070
    74
1070
     0
1000
MTEXTEND
1000
MTEXTBEGIN
1070
    73
1070
     1
1070
    44
1040
1.0
1070
    74
1070
     0
1000
MTEXTEND
  0
POINT
  5
675
330
63E
100
AcDbEntity
  8
DEFPOINTS
  6
BYBLOCK
 62
     0
100
AcDbPoint
 10
683.9860852067642
 20
250.2890085348078
 30
0.0
  0
POINT
  5
676
330
63E
100
AcDbEntity
  8
DEFPOINTS
  6
BYBLOCK
 62
     0
100
AcDbPoint
 10
628.2764724365804
 20
228.0080964117333
 30
0.0
  0
POINT
  5
677
330
63E
100
AcDbEntity
  8
DEFPOINTS
  6
BYBLOCK
 62
     0
100
AcDbPoint
 10
615.424287310353
 20
260.1424781119392
 30
0.0
  0
ENDBLK
  5
678
330
63E
100
AcDbEntity
  8
0
100
AcDbBlockEnd
  0
BLOCK
  5
7AE
330
64A
100
AcDbEntity
  8
0
100
AcDbBlockBegin
  2
*D5
 70
     1
 10
0.0
 20
0.0
 30
0.0
  3
*D5
  1

  0
LINE
  5
7AF
330
64A
100
AcDbEntity
  8
0
  6
BYBLOCK
 62
     4
100
AcDbLine
 10
567.8112045300584
 20
309.3488872692546
 30
0.0
 11
545.5607679449164
 21
300.4498840703145
 31
0.0
  0
LINE
  5
7B0
330
64A
100
AcDbEntity
  8
0
  6
BYBLOCK
 62
     4
100
AcDbLine
 10
575.2381752377498
 20
290.7790163458601
 30
0.0
 11
552.9877386526078
 21
281.8800131469198
 31
0.0
  0
LINE
  5
7B1
330
64A
100
AcDbEntity
  8
0
  6
BYBLOCK
 62
     4
100
AcDbLine
 10
545.7468088357325
 20
308.063384499614
 30
0.0
 11
543.1473690880549
 21
314.562839322766
 31
0.0
  0
LINE
  5
7B2
330
64A
100
AcDbEntity
  8
0
  6
BYBLOCK
 62
     4
100
AcDbLine
 10
558.3726590387791
 20
276.4946039299153
 30
0.0
 11
560.9720987864566
 21
269.9951491067633
 31
0.0
  0
LINE
  5
7B3
330
64A
100
AcDbEntity
  8
0
  6
BYBLOCK
 62
     4
100
AcDbLine
 10
548.3462485834101
 20
301.563929676462
 30
0.0
 11
555.7732192911015
 21
282.9940587530673
 31
0.0
  0
INSERT
  5
7B4
330
64A
100
AcDbEntity
  8
0
  6
BYBLOCK
 62
     4
100
AcDbBlockReference
  2
_OPEN
 10
548.3462485834101
 20
301.563929676462
 30
0.0
 41
7.0
 42
7.0
 43
7.0
 50
291.7988090140681
  0
INSERT
  5
7B5
330
64A
100
AcDbEntity
  8
0
  6
BYBLOCK
 62
     4
100
AcDbBlockReference
  2
_OPEN
 10
555.7732192911015
 20
282.9940587530673
 30
0.0
 41
7.0
 42
7.0
 43
7.0
 50
111.7988090140681
  0
MTEXT
  5
7B6
330
64A
100
AcDbEntity
  8
0
  6
BYBLOCK
 62
     4
100
AcDbMText
 10
556.7022016680787
 20
294.1357368916772
 30
0.0
 40
6.0
 41
0.0
 71
     5
 72
     5
  1
\A1;20
 11
0.3713485353825094
 21
-0.9284935461645737
 31
0.0
1001
ACAD
1000
MTEXTBEGIN
1070
    73
1070
     1
1070
    44
1040
1.0
1070
    74
1070
     0
1000
MTEXTEND
1000
MTEXTBEGIN
1070
    73
1070
     1
1070
    44
1040
1.0
1070
    74
1070
     0
1000
MTEXTEND
1000
MTEXTBEGIN
1070
    73
1070
     1
1070
    44
1040
1.0
1070
    74
1070
     0
1000
MTEXTEND
  0
POINT
  5
7B7
330
64A
100
AcDbEntity
  8
DEFPOINTS
  6
BYBLOCK
 62
     0
100
AcDbPoint
 10
573.3821658070459
 20
311.5769784815497
 30
0.0
  0
POINT
  5
7B8
330
64A
100
AcDbEntity
  8
DEFPOINTS
  6
BYBLOCK
 62
     0
100
AcDbPoint
 10
580.8091365147373
 20
293.0071075581551
 30
0.0
  0
POINT
  5
7B9
330
64A
100
AcDbEntity
  8
DEFPOINTS
  6
BYBLOCK
 62
     0
100
AcDbPoint
 10
555.7732192911015
 20
282.9940587530673
 30
0.0
  0
ENDBLK
  5
7BA
330
64A
100
AcDbEntity
  8
0
100
AcDbBlockEnd
  0
BLOCK
  5
6BF
330
689
100
AcDbEntity
  8
0
100
AcDbBlockBegin
  2
*D6
 70
     1
 10
0.0
 20
0.0
 30
0.0
  3
*D6
  1

  0
LINE
  5
6C0
330
689
100
AcDbEntity
  8
0
  6
BYBLOCK
 62
     4
100
AcDbLine
 10
481.1117267438978
 20
289.1058659621175
 30
0.0
 11
491.886219755823
 21
262.1696334323041
 31
0.0
  0
LINE
  5
6C1
330
689
100
AcDbEntity
  8
0
  6
BYBLOCK
 62
     4
100
AcDbLine
 10
482.5044773386251
 20
289.6629662000083
 30
0.0
 11
493.2789703505502
 21
262.726733670195
 31
0.0
  0
LINE
  5
6C2
330
689
100
AcDbEntity
  8
0
  6
BYBLOCK
 62
     4
100
AcDbLine
 10
484.272710890564
 20
262.3553287704812
 30
0.0
 11
477.7733740543671
 21
259.7555940360025
 31
0.0
  0
LINE
  5
6C3
330
689
100
AcDbEntity
  8
0
  6
BYBLOCK
 62
     4
100
AcDbLine
 10
498.6641351576848
 20
268.1118984773295
 30
0.0
 11
523.7330058115868
 21
278.1394467388902
 31
0.0
  0
LINE
  5
6C4
330
689
100
AcDbEntity
  8
0
  6
BYBLOCK
 62
     4
100
AcDbLine
 10
490.7720477267607
 20
264.9550635049599
 30
0.0
 11
492.164798321488
 21
265.5121637428508
 31
0.0
  0
INSERT
  5
6C5
330
689
100
AcDbEntity
  8
0
  6
BYBLOCK
 62
     4
100
AcDbBlockReference
  2
_OPEN
 10
490.7720477267607
 20
264.9550635049599
 30
0.0
 41
7.0
 42
7.0
 43
7.0
 50
21.80140948635168
  0
INSERT
  5
6C6
330
689
100
AcDbEntity
  8
0
  6
BYBLOCK
 62
     4
100
AcDbBlockReference
  2
_OPEN
 10
492.164798321488
 20
265.5121637428508
 30
0.0
 41
7.0
 42
7.0
 43
7.0
 50
201.8014094863516
  0
MTEXT
  5
6C7
330
689
100
AcDbEntity
  8
0
  6
BYBLOCK
 62
     4
100
AcDbMText
 10
512.5912855209636
 20
279.0679234297755
 30
0.0
 40
6.0
 41
0.0
 71
     5
 72
     5
  1
\A1;t1.5
 11
0.9284766908852603
 21
0.3713906763541011
 31
0.0
1001
ACAD
1000
MTEXTBEGIN
1070
    73
1070
     1
1070
    44
1040
1.0
1070
    74
1070
     0
1000
MTEXTEND
1000
MTEXTBEGIN
1070
    73
1070
     1
1070
    44
1040
1.0
1070
    74
1070
     0
1000
MTEXTEND
1000
MTEXTBEGIN
1070
    73
1070
     1
1070
    44
1040
1.0
1070
    74
1070
     0
1000
MTEXTEND
  0
POINT
  5
6C8
330
689
100
AcDbEntity
  8
DEFPOINTS
  6
BYBLOCK
 62
     0
100
AcDbPoint
 10
478.8833826857731
 20
294.676726107429
 30
0.0
  0
POINT
  5
6C9
330
689
100
AcDbEntity
  8
DEFPOINTS
  6
BYBLOCK
 62
     0
100
AcDbPoint
 10
480.2761332805004
 20
295.2338263453198
 30
0.0
  0
POINT
  5
6CA
330
689
100
AcDbEntity
  8
DEFPOINTS
  6
BYBLOCK
 62
     0
100
AcDbPoint
 10
492.164798321488
 20
265.5121637428508
 30
0.0
  0
ENDBLK
  5
6CB
330
689
100
AcDbEntity
  8
0
100
AcDbBlockEnd
  0
BLOCK
  5
6F3
330
6CC
100
AcDbEntity
  8
0
100
AcDbBlockBegin
  2
*D7
 70
     1
 10
0.0
 20
0.0
 30
0.0
  3
*D7
  1

  0
LINE
  5
6F4
330
6CC
100
AcDbEntity
  8
0
  6
BYBLOCK
 62
     4
100
AcDbLine
 10
482.4344015113732
 20
296.0881884152245
 30
0.0
 11
482.4344015113732
 21
346.4172425728879
 31
0.0
  0
LINE
  5
6F5
330
6CC
100
AcDbEntity
  8
0
  6
BYBLOCK
 62
     4
100
AcDbLine
 10
462.8365550996091
 20
290.2864450729632
 30
0.0
 11
462.8365550996091
 21
346.4172425728879
 31
0.0
  0
LINE
  5
6F6
330
6CC
100
AcDbEntity
  8
0
  6
BYBLOCK
 62
     4
100
AcDbLine
 10
489.4344015113731
 20
343.4172425728879
 30
0.0
 11
496.4344015113732
 21
343.4172425728879
 31
0.0
  0
LINE
  5
6F7
330
6CC
100
AcDbEntity
  8
0
  6
BYBLOCK
 62
     4
100
AcDbLine
 10
455.8365550996091
 20
343.4172425728879
 30
0.0
 11
448.8365550996091
 21
343.4172425728879
 31
0.0
  0
LINE
  5
6F8
330
6CC
100
AcDbEntity
  8
0
  6
BYBLOCK
 62
     4
100
AcDbLine
 10
482.4344015113732
 20
343.4172425728879
 30
0.0
 11
462.8365550996091
 21
343.4172425728879
 31
0.0
  0
INSERT
  5
6F9
330
6CC
100
AcDbEntity
  8
0
  6
BYBLOCK
 62
     4
100
AcDbBlockReference
  2
_OPEN
 10
482.4344015113732
 20
343.4172425728879
 30
0.0
 41
7.0
 42
7.0
 43
7.0
 50
180.0
  0
INSERT
  5
6FA
330
6CC
100
AcDbEntity
  8
0
  6
BYBLOCK
 62
     4
100
AcDbBlockReference
  2
_OPEN
 10
462.8365550996091
 20
343.4172425728879
 30
0.0
 41
7.0
 42
7.0
 43
7.0
  0
MTEXT
  5
6FB
330
6CC
100
AcDbEntity
  8
0
  6
BYBLOCK
 62
     4
100
AcDbMText
 10
472.6354783054912
 20
348.4172425728879
 30
0.0
 40
6.0
 41
0.0
 71
     5
 72
     5
  1
\A1;20
1001
ACAD
1000
MTEXTBEGIN
1070
    73
1070
     1
1070
    44
1040
1.0
1070
    74
1070
     0
1000
MTEXTEND
1000
MTEXTBEGIN
1070
    73
1070
     1
1070
    44
1040
1.0
1070
    74
1070
     0
1000
MTEXTEND
1000
MTEXTBEGIN
1070
    73
1070
     1
1070
    44
1040
1.0
1070
    74
1070
     0
1000
MTEXTEND
  0
POINT
  5
6FC
330
6CC
100
AcDbEntity
  8
DEFPOINTS
  6
BYBLOCK
 62
     0
100
AcDbPoint
 10
482.4344015113732
 20
290.0881884152245
 30
0.0
  0
POINT
  5
6FD
330
6CC
100
AcDbEntity
  8
DEFPOINTS
  6
BYBLOCK
 62
     0
100
AcDbPoint
 10
462.8365550996091
 20
284.2864450729632
 30
0.0
  0
POINT
  5
6FE
330
6CC
100
AcDbEntity
  8
DEFPOINTS
  6
BYBLOCK
 62
     0
100
AcDbPoint
 10
462.8365550996091
 20
343.4172425728879
 30
0.0
  0
ENDBLK
  5
6FF
330
6CC
100
AcDbEntity
  8
0
100
AcDbBlockEnd
  0
BLOCK
  5
701
330
700
100
AcDbEntity
  8
0
100
AcDbBlockBegin
  2
*D8
 70
     1
 10
0.0
 20
0.0
 30
0.0
  3
*D8
  1

  0
LINE
  5
702
330
700
100
AcDbEntity
  8
0
  6
BYBLOCK
 62
     4
100
AcDbLine
 10
486.3760550996092
 20
460.2839950729634
 30
0.0
 11
516.2582661212336
 21
460.2839950729634
 31
0.0
  0
LINE
  5
703
330
700
100
AcDbEntity
  8
0
  6
BYBLOCK
 62
     4
100
AcDbLine
 10
486.3760550996092
 20
400.2839950729634
 30
0.0
 11
516.2582661212336
 21
400.2839950729634
 31
0.0
  0
LINE
  5
704
330
700
100
AcDbEntity
  8
0
  6
BYBLOCK
 62
     4
100
AcDbLine
 10
513.2582661212336
 20
453.2839950729633
 30
0.0
 11
513.2582661212336
 21
407.2839950729634
 31
0.0
  0
INSERT
  5
705
330
700
100
AcDbEntity
  8
0
  6
BYBLOCK
 62
     4
100
AcDbBlockReference
  2
_OPEN
 10
513.2582661212336
 20
460.2839950729634
 30
0.0
 41
7.0
 42
7.0
 43
7.0
 50
90.0
  0
INSERT
  5
706
330
700
100
AcDbEntity
  8
0
  6
BYBLOCK
 62
     4
100
AcDbBlockReference
  2
_OPEN
 10
513.2582661212336
 20
400.2839950729634
 30
0.0
 41
7.0
 42
7.0
 43
7.0
 50
270.0
  0
MTEXT
  5
707
330
700
100
AcDbEntity
  8
0
  6
BYBLOCK
 62
     4
100
AcDbMText
 10
508.2582661212336
 20
430.2839950729634
 30
0.0
 40
6.0
 41
0.0
 71
     5
 72
     5
  1
\A1;60
 11
0.0
 21
1.0
 31
0.0
1001
ACAD
1000
MTEXTBEGIN
1070
    73
1070
     1
1070
    44
1040
1.0
1070
    74
1070
     0
1000
MTEXTEND
1000
MTEXTBEGIN
1070
    73
1070
     1
1070
    44
1040
1.0
1070
    74
1070
     0
1000
MTEXTEND
1000
MTEXTBEGIN
1070
    73
1070
     1
1070
    44
1040
1.0
1070
    74
1070
     0
1000
MTEXTEND
  0
POINT
  5
708
330
700
100
AcDbEntity
  8
DEFPOINTS
  6
BYBLOCK
 62
     0
100
AcDbPoint
 10
480.3760550996092
 20
460.2839950729634
 30
0.0
  0
POINT
  5
709
330
700
100
AcDbEntity
  8
DEFPOINTS
  6
BYBLOCK
 62
     0
100
AcDbPoint
 10
480.3760550996092
 20
400.2839950729634
 30
0.0
  0
POINT
  5
70A
330
700
100
AcDbEntity
  8
DEFPOINTS
  6
BYBLOCK
 62
     0
100
AcDbPoint
 10
513.2582661212336
 20
400.2839950729634
 30
0.0
  0
ENDBLK
  5
70B
330
700
100
AcDbEntity
  8
0
100
AcDbBlockEnd
  0
BLOCK
  5
7C6
330
70D
100
AcDbEntity
  8
0
100
AcDbBlockBegin
  2
*D9
 70
     1
 10
0.0
 20
0.0
 30
0.0
  3
*D9
  1

  0
LINE
  5
7C7
330
70D
100
AcDbEntity
  8
0
  6
BYBLOCK
 62
     4
100
AcDbLine
 10
337.5474053552566
 20
393.4672837982007
 30
0.0
 11
307.3298458494737
 21
393.4672837982007
 31
0.0
  0
LINE
  5
7C8
330
70D
100
AcDbEntity
  8
0
  6
BYBLOCK
 62
     4
100
AcDbLine
 10
337.5474053552566
 20
368.4672837982007
 30
0.0
 11
307.3298458494737
 21
368.4672837982007
 31
0.0
  0
LINE
  5
7C9
330
70D
100
AcDbEntity
  8
0
  6
BYBLOCK
 62
     4
100
AcDbLine
 10
310.3298458494737
 20
400.4672837982007
 30
0.0
 11
310.3298458494737
 21
407.4672837982007
 31
0.0
  0
LINE
  5
7CA
330
70D
100
AcDbEntity
  8
0
  6
BYBLOCK
 62
     4
100
AcDbLine
 10
310.3298458494737
 20
361.4672837982007
 30
0.0
 11
310.3298458494737
 21
354.4672837982007
 31
0.0
  0
LINE
  5
7CB
330
70D
100
AcDbEntity
  8
0
  6
BYBLOCK
 62
     4
100
AcDbLine
 10
310.3298458494737
 20
393.4672837982007
 30
0.0
 11
310.3298458494737
 21
368.4672837982007
 31
0.0
  0
INSERT
  5
7CC
330
70D
100
AcDbEntity
  8
0
  6
BYBLOCK
 62
     4
100
AcDbBlockReference
  2
_OPEN
 10
310.3298458494737
 20
393.4672837982007
 30
0.0
 41
7.0
 42
7.0
 43
7.0
 50
270.0
  0
INSERT
  5
7CD
330
70D
100
AcDbEntity
  8
0
  6
BYBLOCK
 62
     4
100
AcDbBlockReference
  2
_OPEN
 10
310.3298458494737
 20
368.4672837982007
 30
0.0
 41
7.0
 42
7.0
 43
7.0
 50
90.0
  0
MTEXT
  5
7CE
330
70D
100
AcDbEntity
  8
0
  6
BYBLOCK
 62
     4
100
AcDbMText
 10
305.3298458494737
 20
380.9672837982007
 30
0.0
 40
6.0
 41
0.0
 71
     5
 72
     5
  1
\A1;25
 11
0.0
 21
1.0
 31
0.0
1001
ACAD
1000
MTEXTBEGIN
1070
    73
1070
     1
1070
    44
1040
1.0
1070
    74
1070
     0
1000
MTEXTEND
1000
MTEXTBEGIN
1070
    73
1070
     1
1070
    44
1040
1.0
1070
    74
1070
     0
1000
MTEXTEND
1000
MTEXTBEGIN
1070
    73
1070
     1
1070
    44
1040
1.0
1070
    74
1070
     0
1000
MTEXTEND
  0
POINT
  5
7CF
330
70D
100
AcDbEntity
  8
DEFPOINTS
  6
BYBLOCK
 62
     0
100
AcDbPoint
 10
343.5474053552566
 20
393.4672837982007
 30
0.0
  0
POINT
  5
7D0
330
70D
100
AcDbEntity
  8
DEFPOINTS
  6
BYBLOCK
 62
     0
100
AcDbPoint
 10
343.5474053552566
 20
368.4672837982007
 30
0.0
  0
POINT
  5
7D1
330
70D
100
AcDbEntity
  8
DEFPOINTS
  6
BYBLOCK
 62
     0
100
AcDbPoint
 10
310.3298458494737
 20
368.4672837982007
 30
0.0
  0
ENDBLK
  5
7D2
330
70D
100
AcDbEntity
  8
0
100
AcDbBlockEnd
  0
BLOCK
  5
71D
330
71C
100
AcDbEntity
  8
0
100
AcDbBlockBegin
  2
*D10
 70
     1
 10
0.0
 20
0.0
 30
0.0
  3
*D10
  1

  0
LINE
  5
71E
330
71C
100
AcDbEntity
  8
0
  6
BYBLOCK
 62
     4
100
AcDbLine
 10
482.4356039095171
 20
296.0851824389364
 30
0.0
 11
482.4356039095171
 21
366.678994244
 31
0.0
  0
LINE
  5
71F
330
71C
100
AcDbEntity
  8
0
  6
BYBLOCK
 62
     4
100
AcDbLine
 10
347.334355099609
 20
314.2840950729632
 30
0.0
 11
347.334355099609
 21
366.678994244
 31
0.0
  0
LINE
  5
720
330
71C
100
AcDbEntity
  8
0
  6
BYBLOCK
 62
     4
100
AcDbLine
 10
475.4356039095172
 20
363.678994244
 30
0.0
 11
354.334355099609
 21
363.678994244
 31
0.0
  0
INSERT
  5
721
330
71C
100
AcDbEntity
  8
0
  6
BYBLOCK
 62
     4
100
AcDbBlockReference
  2
_OPEN
 10
482.4356039095171
 20
363.678994244
 30
0.0
 41
7.0
 42
7.0
 43
7.0
  0
INSERT
  5
722
330
71C
100
AcDbEntity
  8
0
  6
BYBLOCK
 62
     4
100
AcDbBlockReference
  2
_OPEN
 10
347.334355099609
 20
363.678994244
 30
0.0
 41
7.0
 42
7.0
 43
7.0
 50
180.0
  0
MTEXT
  5
723
330
71C
100
AcDbEntity
  8
0
  6
BYBLOCK
 62
     4
100
AcDbMText
 10
414.8849795045631
 20
368.678994244
 30
0.0
 40
6.0
 41
0.0
 71
     5
 72
     5
  1
\A1;135
1001
ACAD
1000
MTEXTBEGIN
1070
    73
1070
     1
1070
    44
1040
1.0
1070
    74
1070
     0
1000
MTEXTEND
1000
MTEXTBEGIN
1070
    73
1070
     1
1070
    44
1040
1.0
1070
    74
1070
     0
1000
MTEXTEND
1000
MTEXTBEGIN
1070
    73
1070
     1
1070
    44
1040
1.0
1070
    74
1070
     0
1000
MTEXTEND
  0
POINT
  5
724
330
71C
100
AcDbEntity
  8
DEFPOINTS
  6
BYBLOCK
 62
     0
100
AcDbPoint
 10
482.4356039095171
 20
290.0851824389364
 30
0.0
  0
POINT
  5
725
330
71C
100
AcDbEntity
  8
DEFPOINTS
  6
BYBLOCK
 62
     0
100
AcDbPoint
 10
347.334355099609
 20
308.2840950729632
 30
0.0
  0
POINT
  5
726
330
71C
100
AcDbEntity
  8
DEFPOINTS
  6
BYBLOCK
 62
     0
100
AcDbPoint
 10
347.334355099609
 20
363.678994244
 30
0.0
  0
ENDBLK
  5
727
330
71C
100
AcDbEntity
  8
0
100
AcDbBlockEnd
  0
BLOCK
  5
7BB
330
729
100
AcDbEntity
  8
0
100
AcDbBlockBegin
  2
*D11
 70
     1
 10
0.0
 20
0.0
 30
0.0
  3
*D11
  1

  0
LINE
  5
7BC
330
729
100
AcDbEntity
  8
0
  6
BYBLOCK
 62
     4
100
AcDbLine
 10
336.8473053552564
 20
258.9673837982006
 30
0.0
 11
307.3910195070252
 21
258.9673837982006
 31
0.0
  0
LINE
  5
7BD
330
729
100
AcDbEntity
  8
0
  6
BYBLOCK
 62
     4
100
AcDbLine
 10
361.0918053552566
 20
184.4672837982007
 30
0.0
 11
307.3910195070252
 21
184.4672837982007
 31
0.0
  0
LINE
  5
7BE
330
729
100
AcDbEntity
  8
0
  6
BYBLOCK
 62
     4
100
AcDbLine
 10
310.3910195070252
 20
251.9673837982006
 30
0.0
 11
310.3910195070252
 21
191.4672837982007
 31
0.0
  0
INSERT
  5
7BF
330
729
100
AcDbEntity
  8
0
  6
BYBLOCK
 62
     4
100
AcDbBlockReference
  2
_OPEN
 10
310.3910195070252
 20
258.9673837982006
 30
0.0
 41
7.0
 42
7.0
 43
7.0
 50
90.0
  0
INSERT
  5
7C0
330
729
100
AcDbEntity
  8
0
  6
BYBLOCK
 62
     4
100
AcDbBlockReference
  2
_OPEN
 10
310.3910195070252
 20
184.4672837982007
 30
0.0
 41
7.0
 42
7.0
 43
7.0
 50
270.0
  0
MTEXT
  5
7C1
330
729
100
AcDbEntity
  8
0
  6
BYBLOCK
 62
     4
100
AcDbMText
 10
305.3910195070252
 20
221.7173337982007
 30
0.0
 40
6.0
 41
0.0
 71
     5
 72
     5
  1
\A1;75
 11
0.0
 21
1.0
 31
0.0
1001
ACAD
1000
MTEXTBEGIN
1070
    73
1070
     1
1070
    44
1040
1.0
1070
    74
1070
     0
1000
MTEXTEND
1000
MTEXTBEGIN
1070
    73
1070
     1
1070
    44
1040
1.0
1070
    74
1070
     0
1000
MTEXTEND
1000
MTEXTBEGIN
1070
    73
1070
     1
1070
    44
1040
1.0
1070
    74
1070
     0
1000
MTEXTEND
  0
POINT
  5
7C2
330
729
100
AcDbEntity
  8
DEFPOINTS
  6
BYBLOCK
 62
     0
100
AcDbPoint
 10
342.8473053552564
 20
258.9673837982006
 30
0.0
  0
POINT
  5
7C3
330
729
100
AcDbEntity
  8
DEFPOINTS
  6
BYBLOCK
 62
     0
100
AcDbPoint
 10
367.0918053552566
 20
184.4672837982007
 30
0.0
  0
POINT
  5
7C4
330
729
100
AcDbEntity
  8
DEFPOINTS
  6
BYBLOCK
 62
     0
100
AcDbPoint
 10
310.3910195070252
 20
184.4672837982007
 30
0.0
  0
ENDBLK
  5
7C5
330
729
100
AcDbEntity
  8
0
100
AcDbBlockEnd
  0
BLOCK
  5
739
330
738
100
AcDbEntity
  8
0
100
AcDbBlockBegin
  2
*D12
 70
     1
 10
0.0
 20
0.0
 30
0.0
  3
*D12
  1

  0
LINE
  5
73A
330
738
100
AcDbEntity
  8
0
  6
BYBLOCK
 62
     4
100
AcDbLine
 10
450.6378550996091
 20
285.2813450729632
 30
0.0
 11
436.6445657760364
 21
285.2813450729632
 31
0.0
  0
LINE
  5
73B
330
738
100
AcDbEntity
  8
0
  6
BYBLOCK
 62
     4
100
AcDbLine
 10
463.23433422322
 20
323.0881472636047
 30
0.0
 11
436.6445657760364
 21
323.0881472636047
 31
0.0
  0
LINE
  5
73C
330
738
100
AcDbEntity
  8
0
  6
BYBLOCK
 62
     4
100
AcDbLine
 10
439.6445657760364
 20
292.2813450729632
 30
0.0
 11
439.6445657760364
 21
316.0881472636047
 31
0.0
  0
INSERT
  5
73D
330
738
100
AcDbEntity
  8
0
  6
BYBLOCK
 62
     4
100
AcDbBlockReference
  2
_OPEN
 10
439.6445657760364
 20
285.2813450729632
 30
0.0
 41
7.0
 42
7.0
 43
7.0
 50
270.0
  0
INSERT
  5
73E
330
738
100
AcDbEntity
  8
0
  6
BYBLOCK
 62
     4
100
AcDbBlockReference
  2
_OPEN
 10
439.6445657760364
 20
323.0881472636047
 30
0.0
 41
7.0
 42
7.0
 43
7.0
 50
90.0
  0
MTEXT
  5
73F
330
738
100
AcDbEntity
  8
0
  6
BYBLOCK
 62
     4
100
AcDbMText
 10
434.6445657760364
 20
304.184746168284
 30
0.0
 40
6.0
 41
0.0
 71
     5
 72
     5
  1
\A1;38
 11
0.0
 21
1.0
 31
0.0
1001
ACAD
1000
MTEXTBEGIN
1070
    73
1070
     1
1070
    44
1040
1.0
1070
    74
1070
     0
1000
MTEXTEND
1000
MTEXTBEGIN
1070
    73
1070
     1
1070
    44
1040
1.0
1070
    74
1070
     0
1000
MTEXTEND
1000
MTEXTBEGIN
1070
    73
1070
     1
1070
    44
1040
1.0
1070
    74
1070
     0
1000
MTEXTEND
  0
POINT
  5
740
330
738
100
AcDbEntity
  8
DEFPOINTS
  6
BYBLOCK
 62
     0
100
AcDbPoint
 10
456.637855099609
 20
285.2813450729632
 30
0.0
  0
POINT
  5
741
330
738
100
AcDbEntity
  8
DEFPOINTS
  6
BYBLOCK
 62
     0
100
AcDbPoint
 10
469.23433422322
 20
323.0881472636047
 30
0.0
  0
POINT
  5
742
330
738
100
AcDbEntity
  8
DEFPOINTS
  6
BYBLOCK
 62
     0
100
AcDbPoint
 10
439.6445657760364
 20
323.0881472636047
 30
0.0
  0
ENDBLK
  5
743
330
738
100
AcDbEntity
  8
0
100
AcDbBlockEnd
  0
BLOCK
  5
7FD
330
745
100
AcDbEntity
  8
0
100
AcDbBlockBegin
  2
*D13
 70
     1
 10
0.0
 20
0.0
 30
0.0
  3
*D13
  1

  0
LINE
  5
7FE
330
745
100
AcDbEntity
  8
0
  6
BYBLOCK
 62
     4
100
AcDbLine
 10
470.318276534965
 20
275.9998002701347
 30
0.0
 11
487.4981497777532
 21
282.8716508833898
 31
0.0
  0
LINE
  5
7FF
330
745
100
AcDbEntity
  8
0
  6
BYBLOCK
 62
     4
100
AcDbLine
 10
481.4598765349652
 20
248.1454002701348
 30
0.0
 11
498.6397497777534
 21
255.0172508833899
 31
0.0
  0
LINE
  5
800
330
745
100
AcDbEntity
  8
0
  6
BYBLOCK
 62
     4
100
AcDbLine
 10
487.3124167384887
 20
275.2581429377628
 30
0.0
 11
493.2546116373093
 21
260.4024423570828
 31
0.0
  0
INSERT
  5
801
330
745
100
AcDbEntity
  8
0
  6
BYBLOCK
 62
     4
100
AcDbBlockReference
  2
_OPEN
 10
484.7127141878989
 20
281.7574926474227
 30
0.0
 41
7.0
 42
7.0
 43
7.0
 50
111.8011257652239
  0
INSERT
  5
802
330
745
100
AcDbEntity
  8
0
  6
BYBLOCK
 62
     4
100
AcDbBlockReference
  2
_OPEN
 10
495.8543141878991
 20
253.9030926474228
 30
0.0
 41
7.0
 42
7.0
 43
7.0
 50
291.8011257652239
  0
MTEXT
  5
803
330
745
100
AcDbEntity
  8
0
  6
BYBLOCK
 62
     4
100
AcDbMText
 10
495.4829947758045
 20
268.2944831950454
 30
0.0
 40
6.0
 41
0.0
 71
     5
 72
     5
  1
\A1;30
 11
0.371386078655686
 21
-0.9284785299514213
 31
0.0
1001
ACAD
1000
MTEXTBEGIN
1070
    73
1070
     1
1070
    44
1040
1.0
1070
    74
1070
     0
1000
MTEXTEND
1000
MTEXTBEGIN
1070
    73
1070
     1
1070
    44
1040
1.0
1070
    74
1070
     0
1000
MTEXTEND
1000
MTEXTBEGIN
1070
    73
1070
     1
1070
    44
1040
1.0
1070
    74
1070
     0
1000
MTEXTEND
  0
POINT
  5
804
330
745
100
AcDbEntity
  8
DEFPOINTS
  6
BYBLOCK
 62
     0
100
AcDbPoint
 10
464.7474053552564
 20
273.7714837982006
 30
0.0
  0
POINT
  5
805
330
745
100
AcDbEntity
  8
DEFPOINTS
  6
BYBLOCK
 62
     0
100
AcDbPoint
 10
475.8890053552566
 20
245.9170837982007
 30
0.0
  0
POINT
  5
806
330
745
100
AcDbEntity
  8
DEFPOINTS
  6
BYBLOCK
 62
     0
100
AcDbPoint
 10
495.8543141878991
 20
253.9030926474228
 30
0.0
  0
ENDBLK
  5
807
330
745
100
AcDbEntity
  8
0
100
AcDbBlockEnd
  0
BLOCK
  5
7F1
330
7F0
100
AcDbEntity
  8
0
100
AcDbBlockBegin
  2
*D14
 70
     1
 10
0.0
 20
0.0
 30
0.0
  3
*D14
  1

  0
LINE
  5
7F2
330
7F0
100
AcDbEntity
  8
0
  6
BYBLOCK
 62
     4
100
AcDbLine
 10
470.7474053552565
 20
273.7714837982006
 30
0.0
 11
535.0572110488742
 21
273.7714837982006
 31
0.0
  0
LINE
  5
7F3
330
7F0
100
AcDbEntity
  8
0
  6
BYBLOCK
 62
     4
100
AcDbLine
 10
441.3473255455452
 20
142.2672619644601
 30
0.0
 11
535.0572110488742
 21
142.2672619644601
 31
0.0
  0
LINE
  5
7F4
330
7F0
100
AcDbEntity
  8
0
  6
BYBLOCK
 62
     4
100
AcDbLine
 10
532.0572110488742
 20
266.7714837982006
 30
0.0
 11
532.0572110488742
 21
149.2672619644601
 31
0.0
  0
INSERT
  5
7F5
330
7F0
100
AcDbEntity
  8
0
  6
BYBLOCK
 62
     4
100
AcDbBlockReference
  2
_OPEN
 10
532.0572110488742
 20
273.7714837982006
 30
0.0
 41
7.0
 42
7.0
 43
7.0
 50
90.0
  0
INSERT
  5
7F6
330
7F0
100
AcDbEntity
  8
0
  6
BYBLOCK
 62
     4
100
AcDbBlockReference
  2
_OPEN
 10
532.0572110488742
 20
142.2672619644601
 30
0.0
 41
7.0
 42
7.0
 43
7.0
 50
270.0
  0
MTEXT
  5
7F7
330
7F0
100
AcDbEntity
  8
0
  6
BYBLOCK
 62
     4
100
AcDbMText
 10
527.0572110488742
 20
208.0193728813303
 30
0.0
 40
6.0
 41
0.0
 71
     5
 72
     5
  1
\A1;132
 11
0.0
 21
1.0
 31
0.0
1001
ACAD
1000
MTEXTBEGIN
1070
    73
1070
     1
1070
    44
1040
1.0
1070
    74
1070
     0
1000
MTEXTEND
1000
MTEXTBEGIN
1070
    73
1070
     1
1070
    44
1040
1.0
1070
    74
1070
     0
1000
MTEXTEND
1000
MTEXTBEGIN
1070
    73
1070
     1
1070
    44
1040
1.0
1070
    74
1070
     0
1000
MTEXTEND
  0
POINT
  5
7F8
330
7F0
100
AcDbEntity
  8
DEFPOINTS
  6
BYBLOCK
 62
     0
100
AcDbPoint
 10
464.7474053552564
 20
273.7714837982006
 30
0.0
  0
POINT
  5
7F9
330
7F0
100
AcDbEntity
  8
DEFPOINTS
  6
BYBLOCK
 62
     0
100
AcDbPoint
 10
435.3473255455451
 20
142.2672619644601
 30
0.0
  0
POINT
  5
7FA
330
7F0
100
AcDbEntity
  8
DEFPOINTS
  6
BYBLOCK
 62
     0
100
AcDbPoint
 10
532.0572110488742
 20
142.2672619644601
 30
0.0
  0
ENDBLK
  5
7FB
330
7F0
100
AcDbEntity
  8
0
100
AcDbBlockEnd
  0
ENDSEC
  0
SECTION
  2
ENTITIES
  0
INSERT
  5
39E
330
1A
100
AcDbEntity
  8
0
100
AcDbBlockReference
  2
A$C1305
 10
344.1644462708226
 20
185.8551631608985
 30
0.0
  0
LINE
  5
39F
330
1A
100
AcDbEntity
  8
SEIHIN
  6
CONTINUOUS
 62
     3
 48
16.0
100
AcDbLine
 10
407.8858053552564
 20
393.4671837982005
 30
0.0
 11
448.1474053552564
 21
393.4671837982005
 31
0.0
  0
LINE
  5
3A0
330
1A
100
AcDbEntity
  8
SEIHIN
  6
CONTINUOUS
 62
     3
 48
16.0
100
AcDbLine
 10
407.8858053552564
 20
398.4672837982007
 30
0.0
 11
448.1474053552564
 21
398.4672837982007
 31
0.0
  0
LINE
  5
3A2
330
1A
100
AcDbEntity
  8
SEIHIN
  6
CONTINUOUS
 62
     3
 48
16.0
100
AcDbLine
 10
405.3473053552564
 20
185.9672837982007
 30
0.0
 11
418.7192053552564
 21
185.9672837982007
 31
0.0
  0
ARC
  5
3A3
330
1A
100
AcDbEntity
  8
SEIHIN
  6
CONTINUOUS
 62
     3
 48
16.0
100
AcDbCircle
 10
435.3473255455451
 20
166.2672821549641
 30
0.0
 40
24.00002019050398
100
AcDbArc
 50
179.999757344851
 51
350.6944277856574
  0
LINE
  5
3A4
330
1A
100
AcDbEntity
  8
SEIHIN
  6
CONTINUOUS
 62
     3
 48
16.0
100
AcDbLine
 10
401.3473053552566
 20
184.4672837982007
 30
0.0
 11
435.6028053552564
 21
184.4672837982007
 31
0.0
  0
LINE
  5
3A5
330
1A
100
AcDbEntity
  8
SEIHIN
  6
CONTINUOUS
 62
     3
 48
16.0
100
AcDbLine
 10
401.3473053552566
 20
185.9672837982007
 30
0.0
 11
434.4679053552566
 21
185.9672837982007
 31
0.0
  0
LINE
  5
3A6
330
1A
100
AcDbEntity
  8
SEIHIN
  6
CONTINUOUS
 62
     3
 48
16.0
100
AcDbLine
 10
401.3474053552566
 20
388.4671837982007
 30
0.0
 11
448.1474053552564
 21
388.4671837982007
 31
0.0
  0
LINE
  5
3A7
330
1A
100
AcDbEntity
  8
CENTER_L
  6
CENTER
 62
     1
 48
5.0
100
AcDbLine
 10
336.5474053552566
 20
395.9672837982007
 30
0.0
 11
489.8357053552564
 21
395.9672837982007
 31
0.0
  0
LINE
  5
3A8
330
1A
100
AcDbEntity
  8
SEIHIN
  6
CONTINUOUS
 62
     3
 48
16.0
100
AcDbLine
 10
401.3474053552566
 20
384.9671837982005
 30
0.0
 11
434.4679053552566
 21
384.9671837982005
 31
0.0
  0
LINE
  5
3A9
330
1A
100
AcDbEntity
  8
SEIHIN
  6
CONTINUOUS
 62
     3
 48
16.0
100
AcDbLine
 10
401.3474053552566
 20
406.9672837982007
 30
0.0
 11
434.4679053552566
 21
406.9672837982007
 31
0.0
  0
LINE
  5
3AA
330
1A
100
AcDbEntity
  8
SEIHIN
  6
CONTINUOUS
 62
     3
 48
16.0
100
AcDbLine
 10
401.3474053552566
 20
403.4672837982007
 30
0.0
 11
448.1474053552564
 21
403.4672837982007
 31
0.0
  0
LINE
  5
3AC
330
1A
100
AcDbEntity
  8
CENTER_L
  6
CENTER
 62
     1
 48
5.0
100
AcDbLine
 10
208.1072405961949
 20
272.3535837982009
 30
0.0
 11
208.1072405961949
 21
264.6672041202644
 31
0.0
  0
LINE
  5
3AD
330
1A
100
AcDbEntity
  8
CENTER_L
  6
CENTER
 62
     1
 48
5.0
100
AcDbLine
 10
258.1072405961949
 20
272.3535837982009
 30
0.0
 11
258.1072405961949
 21
264.2999707760923
 31
0.0
  0
ARC
  5
3B2
330
1A
100
AcDbEntity
  8
SEIHIN
  6
CONTINUOUS
 62
     3
 48
16.0
100
AcDbCircle
 10
240.6072405399302
 20
271.2434837982007
 30
0.0
 40
0.4999999999999432
100
AcDbArc
 50
269.9999999999934
 51
359.9999999999934
  0
ARC
  5
3B3
330
1A
100
AcDbEntity
  8
SEIHIN
  6
CONTINUOUS
 62
     3
 48
16.0
100
AcDbCircle
 10
242.1072405399302
 20
270.7434837982007
 30
0.0
 40
0.5000000000000569
100
AcDbArc
 50
270.0000000000065
 51
0.0000000000065138
  0
ARC
  5
3B4
330
1A
100
AcDbEntity
  8
SEIHIN
  6
CONTINUOUS
 62
     3
 48
16.0
100
AcDbCircle
 10
225.6072405399302
 20
271.2434837982007
 30
0.0
 40
0.4999999999999432
100
AcDbArc
 50
180.0000000000065
 51
270.0000000000065
  0
ARC
  5
3B5
330
1A
100
AcDbEntity
  8
SEIHIN
  6
CONTINUOUS
 62
     3
 48
16.0
100
AcDbCircle
 10
224.1072405399301
 20
270.7433837982006
 30
0.0
 40
0.4999999999999006
100
AcDbArc
 50
180.0000000000016
 51
270.0000000000016
  0
LINE
  5
3B6
330
1A
100
AcDbEntity
  8
SEIHIN
  6
CONTINUOUS
 62
     3
 48
16.0
100
AcDbLine
 10
242.6072405399302
 20
272.7716837982006
 30
0.0
 11
242.6072405399302
 21
257.6674837982007
 31
0.0
  0
LINE
  5
3B7
330
1A
100
AcDbEntity
  8
SEIHIN
  6
CONTINUOUS
 62
     3
 48
16.0
100
AcDbLine
 10
223.6072405399302
 20
272.7716837982006
 30
0.0
 11
223.6072405399302
 21
257.6674837982007
 31
0.0
  0
LINE
  5
3B9
330
1A
100
AcDbEntity
  8
CENTER_L
  6
CENTER
 62
     1
 48
5.0
100
AcDbLine
 10
233.1071405399302
 20
134.8684837982007
 30
0.0
 11
233.1072405399301
 21
281.5413837982007
 31
0.0
  0
LINE
  5
3BA
330
1A
100
AcDbEntity
  8
SEIHIN
  6
CONTINUOUS
 62
     3
 48
16.0
100
AcDbLine
 10
263.1072405399302
 20
272.7716837982007
 30
0.0
 11
263.1072405399302
 21
246.3602837982007
 31
0.0
  0
LINE
  5
3BB
330
1A
100
AcDbEntity
  8
SEIHIN
  6
CONTINUOUS
 62
     3
 48
16.0
100
AcDbLine
 10
203.1072405399301
 20
272.7716837982007
 30
0.0
 11
203.1072405399301
 21
246.3602837982007
 31
0.0
  0
LINE
  5
3BC
330
1A
100
AcDbEntity
  8
SEIHIN
  6
CONTINUOUS
 62
     3
 48
16.0
100
AcDbLine
 10
262.1072405399302
 20
245.3602837982007
 30
0.0
 11
245.6071405399302
 21
245.3602837982007
 31
0.0
  0
LINE
  5
3BD
330
1A
100
AcDbEntity
  8
SEIHIN
  6
CONTINUOUS
 62
     3
 48
16.0
100
AcDbLine
 10
237.2453405399302
 20
179.4910837982006
 30
0.0
 11
238.4689405399302
 21
177.0437837982007
 31
0.0
  0
ARC
  5
3BE
330
1A
100
AcDbEntity
  8
SEIHIN
  6
CONTINUOUS
 62
     3
 48
16.0
100
AcDbCircle
 10
240.6088405399302
 20
178.7672837982007
 30
0.0
 40
2.000000000000028
100
AcDbArc
 50
269.9999999999992
 51
359.9999999999992
  0
LINE
  5
3BF
330
1A
100
AcDbEntity
  8
SEIHIN
  6
CONTINUOUS
 62
     3
 48
16.0
100
AcDbLine
 10
236.1071405399302
 20
176.7674837982006
 30
0.0
 11
236.1071405399302
 21
179.7674837982007
 31
0.0
  0
LINE
  5
3C0
330
1A
100
AcDbEntity
  8
SEIHIN
  6
CONTINUOUS
 62
     3
 48
16.0
100
AcDbLine
 10
230.1071405399301
 20
176.7674837982006
 30
0.0
 11
230.1071405399301
 21
179.7674837982007
 31
0.0
  0
ARC
  5
3C1
330
1A
100
AcDbEntity
  8
SEIHIN
  6
CONTINUOUS
 62
     3
 48
16.0
100
AcDbCircle
 10
225.6054405399302
 20
178.7673837982007
 30
0.0
 40
2.0
100
AcDbArc
 50
180.0
 51
270.0
  0
LINE
  5
3C2
330
1A
100
AcDbEntity
  8
SEIHIN
  6
CONTINUOUS
 62
     3
 48
16.0
100
AcDbLine
 10
228.9689405399302
 20
179.4910837982006
 30
0.0
 11
227.7453405399301
 21
177.0437837982007
 31
0.0
  0
LINE
  5
3C3
330
1A
100
AcDbEntity
  8
SEIHIN
  6
CONTINUOUS
 62
     3
 48
16.0
100
AcDbLine
 10
242.6087405399302
 20
144.2674837982007
 30
0.0
 11
242.6089405399302
 21
184.0265837982007
 31
0.0
  0
LINE
  5
3C4
330
1A
100
AcDbEntity
  8
SEIHIN
  6
CONTINUOUS
 62
     3
 48
16.0
100
AcDbLine
 10
223.6052405399301
 20
144.2675837982006
 30
0.0
 11
223.6054405399302
 21
184.0266837982007
 31
0.0
  0
LINE
  5
3CD
330
1A
100
AcDbEntity
  8
SEIHIN
  6
CONTINUOUS
 62
     3
 48
16.0
100
AcDbLine
 10
240.6087405399301
 20
142.2675837982006
 30
0.0
 11
225.6052405399301
 21
142.2675837982006
 31
0.0
  0
ARC
  5
3CE
330
1A
100
AcDbEntity
  8
SEIHIN
  6
CONTINUOUS
 62
     3
 48
16.0
100
AcDbCircle
 10
225.6052405399301
 20
144.2675837982006
 30
0.0
 40
2.0
100
AcDbArc
 50
180.0
 51
270.0
  0
ARC
  5
3CF
330
1A
100
AcDbEntity
  8
SEIHIN
  6
CONTINUOUS
 62
     3
 48
16.0
100
AcDbCircle
 10
240.6087405411802
 20
144.2675837994507
 30
0.0
 40
2.000000001250029
100
AcDbArc
 50
269.9999999641892
 51
359.9971351752166
  0
LINE
  5
3D0
330
1A
100
AcDbEntity
  8
SEIHIN
  6
CONTINUOUS
 62
     3
 48
16.0
100
AcDbLine
 10
233.1071405399302
 20
176.7674837982006
 30
0.0
 11
236.1071405399302
 21
176.7674837982006
 31
0.0
  0
LINE
  5
3D1
330
1A
100
AcDbEntity
  8
SEIHIN
  6
CONTINUOUS
 62
     3
 48
16.0
100
AcDbLine
 10
233.1071405399302
 20
176.7674837982006
 30
0.0
 11
230.1071405399301
 21
176.7674837982006
 31
0.0
  0
LINE
  5
3D2
330
1A
100
AcDbEntity
  8
SEIHIN
  6
CONTINUOUS
 62
     3
 48
16.0
100
AcDbLine
 10
225.6054405399302
 20
176.7673837982007
 30
0.0
 11
227.2981405399302
 21
176.7673837982007
 31
0.0
  0
ARC
  5
3D3
330
1A
100
AcDbEntity
  8
SEIHIN
  6
CONTINUOUS
 62
     3
 48
16.0
100
AcDbCircle
 10
227.2982005989774
 20
177.2674209204445
 30
0.0
 40
0.5000371258506177
100
AcDbArc
 50
269.993118251111
 51
333.4331910035178
  0
LINE
  5
3D4
330
1A
100
AcDbEntity
  8
SEIHIN
  6
CONTINUOUS
 62
     3
 48
16.0
100
AcDbLine
 10
240.6088405399301
 20
176.7672837982007
 30
0.0
 11
238.9161405399302
 21
176.7673837982007
 31
0.0
  0
ARC
  5
3D5
330
1A
100
AcDbEntity
  8
SEIHIN
  6
CONTINUOUS
 62
     3
 48
16.0
100
AcDbCircle
 10
238.9161528371754
 20
177.2673761980852
 30
0.0
 40
0.4999924000356932
100
AcDbArc
 50
206.5636419951432
 51
269.9985908180758
  0
LINE
  5
3D6
330
1A
100
AcDbEntity
  8
SEIHIN
  6
CONTINUOUS
 62
     3
 48
16.0
100
AcDbLine
 10
240.3540405399302
 20
223.5805837982007
 30
0.0
 11
236.2947405399302
 21
226.5008837982006
 31
0.0
  0
LINE
  5
3D7
330
1A
100
AcDbEntity
  8
SEIHIN
  6
CONTINUOUS
 62
     3
 48
16.0
100
AcDbLine
 10
225.8603405399302
 20
223.5805837982007
 30
0.0
 11
229.9196405399301
 21
226.5008837982006
 31
0.0
  0
ARC
  5
3D8
330
1A
100
AcDbEntity
  8
SEIHIN
  6
CONTINUOUS
 62
     3
 48
16.0
100
AcDbCircle
 10
240.9014315522597
 20
224.4175139605099
 30
0.0
 40
1.000000864972128
100
AcDbArc
 50
329.9980330729388
 51
63.18516731486847
  0
ARC
  5
3D9
330
1A
100
AcDbEntity
  8
SEIHIN
  6
CONTINUOUS
 62
     3
 48
16.0
100
AcDbCircle
 10
225.3129495276007
 20
224.4175139605098
 30
0.0
 40
1.000000864972137
100
AcDbArc
 50
116.8148326851265
 51
210.0019669270575
  0
LINE
  5
3DA
330
1A
100
AcDbEntity
  8
SEIHIN
  6
CONTINUOUS
 62
     3
 48
16.0
100
AcDbLine
 10
220.6072405399301
 20
223.1674837982006
 30
0.0
 11
220.6072405399301
 21
257.6674837982007
 31
0.0
  0
LINE
  5
3DB
330
1A
100
AcDbEntity
  8
SEIHIN
  6
CONTINUOUS
 62
     3
 48
16.0
100
AcDbLine
 10
245.6071405399302
 20
223.1674837982006
 30
0.0
 11
245.6071405399302
 21
257.6674837982007
 31
0.0
  0
LINE
  5
3DC
330
1A
100
AcDbEntity
  8
SEIHIN
  6
CONTINUOUS
 62
     3
 48
16.0
100
AcDbLine
 10
235.1071405399302
 20
184.2674837982007
 30
0.0
 11
235.1071405399302
 21
222.1674837982007
 31
0.0
  0
LINE
  5
3DD
330
1A
100
AcDbEntity
  8
SEIHIN
  6
CONTINUOUS
 62
     3
 48
16.0
100
AcDbLine
 10
241.1071405399302
 20
184.2674837982007
 30
0.0
 11
241.1071405399302
 21
222.1674837982007
 31
0.0
  0
LINE
  5
3DE
330
1A
100
AcDbEntity
  8
SEIHIN
  6
CONTINUOUS
 62
     3
 48
16.0
100
AcDbLine
 10
244.1071405399302
 20
195.9274837982007
 30
0.0
 11
244.1071405399302
 21
222.1674837982007
 31
0.0
  0
LINE
  5
3E1
330
1A
100
AcDbEntity
  8
SEIHIN
  6
CONTINUOUS
 62
     3
 48
16.0
100
AcDbLine
 10
225.1071405399302
 20
184.2674837982007
 30
0.0
 11
225.1072405399302
 21
222.1674837982007
 31
0.0
  0
LINE
  5
3E2
330
1A
100
AcDbEntity
  8
SEIHIN
  6
CONTINUOUS
 62
     3
 48
16.0
100
AcDbLine
 10
231.1071405399302
 20
184.2674837982007
 30
0.0
 11
231.1072405399302
 21
222.1673837982006
 31
0.0
  0
LINE
  5
3E3
330
1A
100
AcDbEntity
  8
SEIHIN
  6
CONTINUOUS
 62
     3
 48
16.0
100
AcDbLine
 10
222.1071405399301
 20
195.9274837982007
 30
0.0
 11
222.1072405399301
 21
222.1674837982007
 31
0.0
  0
LINE
  5
3E4
330
1A
100
AcDbEntity
  8
SEIHIN
  6
CONTINUOUS
 62
     3
 48
16.0
100
AcDbLine
 10
233.1071405399302
 20
195.9274837982007
 30
0.0
 11
235.1071405399302
 21
195.9274837982007
 31
0.0
  0
LINE
  5
3E5
330
1A
100
AcDbEntity
  8
SEIHIN
  6
CONTINUOUS
 62
     3
 48
16.0
100
AcDbLine
 10
235.1071405399302
 20
184.7674837982007
 30
0.0
 11
233.1071405399302
 21
184.7674837982007
 31
0.0
  0
LINE
  5
3E6
330
1A
100
AcDbEntity
  8
SEIHIN
  6
CONTINUOUS
 62
     3
 48
16.0
100
AcDbLine
 10
233.1071405399302
 20
181.2674837982007
 30
0.0
 11
238.1071405399302
 21
181.2674837982007
 31
0.0
  0
LINE
  5
3E7
330
1A
100
AcDbEntity
  8
SEIHIN
  6
CONTINUOUS
 62
     3
 48
16.0
100
AcDbLine
 10
233.1071405399302
 20
181.2674837982007
 30
0.0
 11
237.7981405399302
 21
181.2674837982007
 31
0.0
  0
LINE
  5
3E8
330
1A
100
AcDbEntity
  8
SEIHIN
  6
CONTINUOUS
 62
     3
 48
16.0
100
AcDbLine
 10
233.1071405399302
 20
179.7674837982007
 30
0.0
 11
236.7981405399301
 21
179.7674837982007
 31
0.0
  0
ARC
  5
3E9
330
1A
100
AcDbEntity
  8
SEIHIN
  6
CONTINUOUS
 62
     3
 48
16.0
100
AcDbCircle
 10
203.8768405399301
 20
190.3474837982007
 30
0.0
 40
19.0651576990593
100
AcDbArc
 50
342.9814976590517
 51
17.01850234094828
  0
ARC
  5
3EA
330
1A
100
AcDbEntity
  8
SEIHIN
  6
CONTINUOUS
 62
     3
 48
16.0
100
AcDbCircle
 10
228.1071405399302
 20
184.2674837982007
 30
0.0
 40
3.0
100
AcDbArc
 50
180.0
 51
0.0
  0
ARC
  5
3EB
330
1A
100
AcDbEntity
  8
SEIHIN
  6
CONTINUOUS
 62
     3
 48
16.0
100
AcDbCircle
 10
226.1054405399302
 20
179.2674837982007
 30
0.0
 40
1.000000000000028
100
AcDbArc
 50
180.0000000000016
 51
270.0000000000016
  0
LINE
  5
3EC
330
1A
100
AcDbEntity
  8
SEIHIN
  6
CONTINUOUS
 62
     3
 48
16.0
100
AcDbLine
 10
222.1071405399301
 20
184.7674837982007
 30
0.0
 11
225.1071405399302
 21
184.7674837982007
 31
0.0
  0
LINE
  5
3ED
330
1A
100
AcDbEntity
  8
SEIHIN
  6
CONTINUOUS
 62
     3
 48
16.0
100
AcDbLine
 10
225.1054405399302
 20
184.7674837982007
 30
0.0
 11
224.6054405399302
 21
184.7674837982007
 31
0.0
  0
ARC
  5
3EE
330
1A
100
AcDbEntity
  8
SEIHIN
  6
CONTINUOUS
 62
     3
 48
16.0
100
AcDbCircle
 10
224.6054405399302
 20
183.7674837982007
 30
0.0
 40
1.0
100
AcDbArc
 50
90.0
 51
180.0
  0
LINE
  5
3EF
330
1A
100
AcDbEntity
  8
SEIHIN
  6
CONTINUOUS
 62
     3
 48
16.0
100
AcDbLine
 10
225.1054405399302
 20
179.2674837982007
 30
0.0
 11
225.1054405399302
 21
184.7674837982007
 31
0.0
  0
LINE
  5
3F0
330
1A
100
AcDbEntity
  8
SEIHIN
  6
CONTINUOUS
 62
     3
 48
16.0
100
AcDbLine
 10
231.1071405399302
 20
184.7674837982007
 30
0.0
 11
233.1071405399302
 21
184.7674837982007
 31
0.0
  0
ARC
  5
3F1
330
1A
100
AcDbEntity
  8
SEIHIN
  6
CONTINUOUS
 62
     3
 48
16.0
100
AcDbCircle
 10
228.4161528371754
 20
180.7674913983163
 30
0.0
 40
0.4999924000356299
100
AcDbArc
 50
90.00140918192482
 51
153.4363580048722
  0
LINE
  5
3F2
330
1A
100
AcDbEntity
  8
SEIHIN
  6
CONTINUOUS
 62
     3
 48
16.0
100
AcDbLine
 10
233.1071405399302
 20
181.2674837982007
 30
0.0
 11
228.1071405399301
 21
181.2674837982007
 31
0.0
  0
LINE
  5
3F3
330
1A
100
AcDbEntity
  8
SEIHIN
  6
CONTINUOUS
 62
     3
 48
16.0
100
AcDbLine
 10
233.1071405399302
 20
181.2674837982007
 30
0.0
 11
228.1071405399301
 21
181.2674837982007
 31
0.0
  0
LINE
  5
3F4
330
1A
100
AcDbEntity
  8
SEIHIN
  6
CONTINUOUS
 62
     3
 48
16.0
100
AcDbLine
 10
233.1071405399302
 20
179.7674837982007
 30
0.0
 11
229.4161405399302
 21
179.7674837982007
 31
0.0
  0
ARC
  5
3F5
330
1A
100
AcDbEntity
  8
SEIHIN
  6
CONTINUOUS
 62
     3
 48
16.0
100
AcDbCircle
 10
229.4161528371754
 20
179.2674913983163
 30
0.0
 40
0.4999924000355873
100
AcDbArc
 50
90.00140918192807
 51
153.4363580048752
  0
LINE
  5
3F6
330
1A
100
AcDbEntity
  8
SEIHIN
  6
CONTINUOUS
 62
     3
 48
16.0
100
AcDbLine
 10
226.2981405399301
 20
178.2674837982007
 30
0.0
 11
226.1054405399302
 21
178.2674837982007
 31
0.0
  0
ARC
  5
3F7
330
1A
100
AcDbEntity
  8
SEIHIN
  6
CONTINUOUS
 62
     3
 48
16.0
100
AcDbCircle
 10
226.2981282426849
 20
178.7674761980852
 30
0.0
 40
0.499992400035772
100
AcDbArc
 50
270.001409181917
 51
333.4363580048513
  0
LINE
  5
3F8
330
1A
100
AcDbEntity
  8
SEIHIN
  6
CONTINUOUS
 62
     3
 48
16.0
100
AcDbLine
 10
227.9689405399302
 20
180.9910837982006
 30
0.0
 11
226.7453405399302
 21
178.5438837982007
 31
0.0
  0
LINE
  5
3F9
330
1A
100
AcDbEntity
  8
SEIHIN
  6
CONTINUOUS
 62
     3
 48
16.0
100
AcDbLine
 10
233.1072405399301
 20
195.9274837982007
 30
0.0
 11
231.1071713051829
 21
195.9274837982007
 31
0.0
  0
ARC
  5
3FA
330
1A
100
AcDbEntity
  8
SEIHIN
  6
CONTINUOUS
 62
     3
 48
16.0
100
AcDbCircle
 10
262.3375405398048
 20
190.3473204438099
 30
0.0
 40
19.06520551022497
100
AcDbArc
 50
162.9810282348576
 51
197.0179449590573
  0
LINE
  5
3FB
330
1A
100
AcDbEntity
  8
SEIHIN
  6
CONTINUOUS
 62
     3
 48
16.0
100
AcDbLine
 10
244.1071405399302
 20
184.7674837982007
 30
0.0
 11
241.1071405399302
 21
184.7674837982007
 31
0.0
  0
ARC
  5
3FC
330
1A
100
AcDbEntity
  8
SEIHIN
  6
CONTINUOUS
 62
     3
 48
16.0
100
AcDbCircle
 10
241.6089405399302
 20
183.7674837982006
 30
0.0
 40
1.000000000000042
100
AcDbArc
 50
0.0000000000024427
 51
90.00000000000245
  0
LINE
  5
3FD
330
1A
100
AcDbEntity
  8
SEIHIN
  6
CONTINUOUS
 62
     3
 48
16.0
100
AcDbLine
 10
241.1089405399302
 20
184.7674837982007
 30
0.0
 11
241.6089405399301
 21
184.7674837982007
 31
0.0
  0
ARC
  5
3FE
330
1A
100
AcDbEntity
  8
SEIHIN
  6
CONTINUOUS
 62
     3
 48
16.0
100
AcDbCircle
 10
237.798128242685
 20
180.7674913983164
 30
0.0
 40
0.4999924000355741
100
AcDbArc
 50
26.56364199512368
 51
89.99859081807276
  0
ARC
  5
3FF
330
1A
100
AcDbEntity
  8
SEIHIN
  6
CONTINUOUS
 62
     3
 48
16.0
100
AcDbCircle
 10
238.1071405399302
 20
184.2674837982007
 30
0.0
 40
3.0
100
AcDbArc
 50
180.0
 51
0.0
  0
LINE
  5
400
330
1A
100
AcDbEntity
  8
SEIHIN
  6
CONTINUOUS
 62
     3
 48
16.0
100
AcDbLine
 10
239.9161405399302
 20
178.2674837982007
 30
0.0
 11
240.1089405399301
 21
178.2674837982007
 31
0.0
  0
ARC
  5
401
330
1A
100
AcDbEntity
  8
SEIHIN
  6
CONTINUOUS
 62
     3
 48
16.0
100
AcDbCircle
 10
240.1089405399301
 20
179.2674837982008
 30
0.0
 40
1.000000000000042
100
AcDbArc
 50
269.9999999999975
 51
359.9999999999975
  0
ARC
  5
402
330
1A
100
AcDbEntity
  8
SEIHIN
  6
CONTINUOUS
 62
     3
 48
16.0
100
AcDbCircle
 10
239.9161528371754
 20
178.7674761980851
 30
0.0
 40
0.4999924000356463
100
AcDbArc
 50
206.5636419951395
 51
269.9985908180724
  0
ARC
  5
403
330
1A
100
AcDbEntity
  8
SEIHIN
  6
CONTINUOUS
 62
     3
 48
16.0
100
AcDbCircle
 10
236.7981282426849
 20
179.2674913983162
 30
0.0
 40
0.4999924000357139
100
AcDbArc
 50
26.56364199513387
 51
89.99859081808253
  0
LINE
  5
404
330
1A
100
AcDbEntity
  8
SEIHIN
  6
CONTINUOUS
 62
     3
 48
16.0
100
AcDbLine
 10
241.1089405399302
 20
179.2674837982007
 30
0.0
 11
241.1089405399302
 21
184.7674837982007
 31
0.0
  0
LINE
  5
405
330
1A
100
AcDbEntity
  8
SEIHIN
  6
CONTINUOUS
 62
     3
 48
16.0
100
AcDbLine
 10
238.2453405399301
 20
180.9910837982006
 30
0.0
 11
239.4689405399302
 21
178.5438837982007
 31
0.0
  0
LINE
  5
406
330
1A
100
AcDbEntity
  8
SEIHIN
  6
CONTINUOUS
 62
     3
 48
16.0
100
AcDbLine
 10
244.6071405399302
 20
222.1674837982007
 30
0.0
 11
233.1071405399302
 21
222.1674837982007
 31
0.0
  0
ARC
  5
407
330
1A
100
AcDbEntity
  8
SEIHIN
  6
CONTINUOUS
 62
     3
 48
16.0
100
AcDbCircle
 10
225.3129714598727
 20
224.4174764287936
 30
0.0
 40
1.000001092471265
100
AcDbArc
 50
209.9994763072532
 51
303.1866664820243
  0
LINE
  5
408
330
1A
100
AcDbEntity
  8
SEIHIN
  6
CONTINUOUS
 62
     3
 48
16.0
100
AcDbLine
 10
221.6072405399302
 20
222.1674837982007
 30
0.0
 11
233.1072405399301
 21
222.1673837982006
 31
0.0
  0
ARC
  5
409
330
1A
100
AcDbEntity
  8
SEIHIN
  6
CONTINUOUS
 62
     3
 48
16.0
100
AcDbCircle
 10
221.6072405399301
 20
223.1674837982006
 30
0.0
 40
1.000000000000014
100
AcDbArc
 50
180.000000000004
 51
270.0000000000041
  0
ARC
  5
40A
330
1A
100
AcDbEntity
  8
SEIHIN
  6
CONTINUOUS
 62
     3
 48
16.0
100
AcDbCircle
 10
240.9014096199876
 20
224.4174764287936
 30
0.0
 40
1.000001092471244
100
AcDbArc
 50
236.8133335179757
 51
330.0005236927469
  0
ARC
  5
40B
330
1A
100
AcDbEntity
  8
SEIHIN
  6
CONTINUOUS
 62
     3
 48
16.0
100
AcDbCircle
 10
244.6071405399302
 20
223.1674837982006
 30
0.0
 40
1.0
100
AcDbArc
 50
269.9999999999967
 51
359.9999999999967
  0
LINE
  5
40C
330
1A
100
AcDbEntity
  8
SEIHIN
  6
CONTINUOUS
 62
     3
 48
16.0
100
AcDbLine
 10
204.1072405399301
 20
245.3602837982007
 30
0.0
 11
220.6072405399301
 21
245.3602837982007
 31
0.0
  0
LINE
  5
40D
330
1A
100
AcDbEntity
  8
CENTER_L
  6
CENTER
 62
     1
 48
5.0
100
AcDbLine
 10
208.1072405961948
 20
253.8509052630556
 30
0.0
 11
208.1072405961949
 21
246.4340837982009
 31
0.0
  0
ELLIPSE
  5
40E
330
1A
100
AcDbEntity
  8
SEIHIN
  6
CONTINUOUS
100
AcDbEllipse
 10
208.1072405961948
 20
250.5595573876898
 30
0.0
 11
-2.0
 21
0.0
 31
0.0
210
0.0
220
0.0
230
1.0
 40
0.9284769207922352
 41
0.1505705729499162
 42
2.991022080639751
  0
LINE
  5
40F
330
1A
100
AcDbEntity
  8
CENTER_L
  6
CENTER
 62
     1
 48
5.0
100
AcDbLine
 10
212.7342749504774
 20
250.0024627892358
 30
0.0
 11
203.7944020903821
 21
250.0024627892358
 31
0.0
  0
ELLIPSE
  5
410
330
1A
100
AcDbEntity
  8
SEIHIN
  6
CONTINUOUS
100
AcDbEllipse
 10
208.1071971336446
 20
250.0024972408042
 30
0.0
 11
1.999999999998101
 21
-0.0000027561230744
 31
0.0
210
0.0
220
0.0
230
-1.0
 40
0.9284769207922352
 41
0.0000000000000035
 42
6.283185307179589
  0
ELLIPSE
  5
411
330
1A
100
AcDbEntity
  8
SEIHIN
  6
CONTINUOUS
100
AcDbEllipse
 10
208.1072227235901
 20
268.5720202987939
 30
0.0
 11
1.999999999998101
 21
-0.0000027561230744
 31
0.0
210
0.0
220
0.0
230
-1.0
 40
0.9284769207922352
 41
0.0000000000000035
 42
6.283185307179589
  0
ELLIPSE
  5
412
330
1A
100
AcDbEntity
  8
SEIHIN
  6
CONTINUOUS
100
AcDbEllipse
 10
208.1072405961948
 20
269.1290804456972
 30
0.0
 11
-2.0
 21
0.0
 31
0.0
210
0.0
220
0.0
230
1.0
 40
0.9284769207922352
 41
0.1505705729499162
 42
2.991022080639751
  0
LINE
  5
413
330
1A
100
AcDbEntity
  8
CENTER_L
  6
CENTER
 62
     1
 48
5.0
100
AcDbLine
 10
212.9855649295467
 20
268.5719858472431
 30
0.0
 11
203.9366177833735
 21
268.5719858472432
 31
0.0
  0
LINE
  5
414
330
1A
100
AcDbEntity
  8
SEIHIN
  6
CONTINUOUS
 62
     3
 48
16.0
100
AcDbLine
 10
242.1071405399302
 20
257.6674837982007
 30
0.0
 11
242.1071405399302
 21
238.1674837982008
 31
0.0
  0
LINE
  5
415
330
1A
100
AcDbEntity
  8
SEIHIN
  6
CONTINUOUS
 62
     3
 48
16.0
100
AcDbLine
 10
224.1073405399302
 20
257.6674837982007
 30
0.0
 11
224.1072405399301
 21
238.1674837982008
 31
0.0
  0
LINE
  5
416
330
1A
100
AcDbEntity
  8
SEIHIN
  6
CONTINUOUS
 62
     3
 48
16.0
100
AcDbLine
 10
242.1071405399302
 20
242.3891837982007
 30
0.0
 11
233.1072405399301
 21
242.3891837982007
 31
0.0
  0
ARC
  5
417
330
1A
100
AcDbEntity
  8
SEIHIN
  6
CONTINUOUS
 62
     3
 48
16.0
100
AcDbCircle
 10
233.1072405399302
 20
228.9174837982007
 30
0.0
 40
1.0
100
AcDbArc
 50
0.0
 51
180.0
  0
ARC
  5
418
330
1A
100
AcDbEntity
  8
SEIHIN
  6
CONTINUOUS
 62
     3
 48
16.0
100
AcDbCircle
 10
233.1072405399302
 20
228.9174837982007
 30
0.0
 40
1.0
100
AcDbArc
 50
180.0
 51
0.0
  0
LINE
  5
419
330
1A
100
AcDbEntity
  8
SEIHIN
  6
CONTINUOUS
 62
     3
 48
16.0
100
AcDbLine
 10
233.1071405399302
 20
235.6674837982008
 30
0.0
 11
239.6071405399302
 21
235.6674837982008
 31
0.0
  0
LINE
  5
41A
330
1A
100
AcDbEntity
  8
SEIHIN
  6
CONTINUOUS
 62
     3
 48
16.0
100
AcDbLine
 10
242.1071405399302
 20
240.0639837982007
 30
0.0
 11
224.1072405399301
 21
240.0639837982007
 31
0.0
  0
ARC
  5
41B
330
1A
100
AcDbEntity
  8
SEIHIN
  6
CONTINUOUS
 62
     3
 48
16.0
100
AcDbCircle
 10
226.6072405399301
 20
238.1674837982008
 30
0.0
 40
2.5
100
AcDbArc
 50
180.0
 51
270.0
  0
ARC
  5
41C
330
1A
100
AcDbEntity
  8
SEIHIN
  6
CONTINUOUS
 62
     3
 48
16.0
100
AcDbCircle
 10
225.3129714598727
 20
233.4174911676077
 30
0.0
 40
1.000001092471264
100
AcDbArc
 50
56.81333351797611
 51
150.000523692748
  0
LINE
  5
41D
330
1A
100
AcDbEntity
  8
SEIHIN
  6
CONTINUOUS
 62
     3
 48
16.0
100
AcDbLine
 10
224.8618405399302
 20
232.5249837982006
 30
0.0
 11
229.4206405399301
 21
230.4696837982006
 31
0.0
  0
LINE
  5
41E
330
1A
100
AcDbEntity
  8
SEIHIN
  6
CONTINUOUS
 62
     3
 48
16.0
100
AcDbLine
 10
224.8618405399302
 20
225.3099837982007
 30
0.0
 11
229.4206405399301
 21
227.3651837982007
 31
0.0
  0
ARC
  5
41F
330
1A
100
AcDbEntity
  8
SEIHIN
  6
CONTINUOUS
 62
     3
 48
16.0
100
AcDbCircle
 10
225.3129495276007
 20
233.4174536358915
 30
0.0
 40
1.00000086497215
100
AcDbArc
 50
149.9980330729417
 51
243.1851673148736
  0
ARC
  5
420
330
1A
100
AcDbEntity
  8
SEIHIN
  6
CONTINUOUS
 62
     3
 48
16.0
100
AcDbCircle
 10
229.6431420732218
 20
230.9174772637772
 30
0.0
 40
0.4999844047595726
100
AcDbArc
 50
329.999832849798
 51
56.41219960149164
  0
ARC
  5
421
330
1A
100
AcDbEntity
  8
SEIHIN
  6
CONTINUOUS
 62
     3
 48
16.0
100
AcDbCircle
 10
229.6431111136626
 20
230.9174749201339
 30
0.0
 40
0.5000100449581564
100
AcDbArc
 50
243.5809984124539
 51
330.0018392514393
  0
ARC
  5
422
330
1A
100
AcDbEntity
  8
SEIHIN
  6
CONTINUOUS
 62
     3
 48
16.0
100
AcDbCircle
 10
229.6430565264077
 20
226.9175519124037
 30
0.0
 40
0.5000277095390083
100
AcDbArc
 50
303.5825172324813
 51
29.98915514641183
  0
ARC
  5
423
330
1A
100
AcDbEntity
  8
SEIHIN
  6
CONTINUOUS
 62
     3
 48
16.0
100
AcDbCircle
 10
229.6431737223564
 20
226.9174737884911
 30
0.0
 40
0.4999652688686879
100
AcDbArc
 50
30.00362258501226
 51
116.429563027617
  0
LINE
  5
424
330
1A
100
AcDbEntity
  8
SEIHIN
  6
CONTINUOUS
 62
     3
 48
16.0
100
AcDbLine
 10
233.1072405399301
 20
235.6674837982008
 30
0.0
 11
226.6072405399301
 21
235.6674837982008
 31
0.0
  0
LINE
  5
425
330
1A
100
AcDbEntity
  8
SEIHIN
  6
CONTINUOUS
 62
     3
 48
16.0
100
AcDbLine
 10
225.8603405399302
 20
234.2543837982006
 30
0.0
 11
229.9196405399301
 21
231.3339837982007
 31
0.0
  0
LINE
  5
426
330
1A
100
AcDbEntity
  8
SEIHIN
  6
CONTINUOUS
 62
     3
 48
16.0
100
AcDbLine
 10
224.1073405399302
 20
242.3891837982007
 30
0.0
 11
233.1071405399302
 21
242.3890837982007
 31
0.0
  0
ARC
  5
427
330
1A
100
AcDbEntity
  8
SEIHIN
  6
CONTINUOUS
 62
     3
 48
16.0
100
AcDbCircle
 10
239.6071405399302
 20
238.1674837982007
 30
0.0
 40
2.499999999999971
100
AcDbArc
 50
270.0000000000006
 51
0.0000000000006514
  0
ARC
  5
428
330
1A
100
AcDbEntity
  8
SEIHIN
  6
CONTINUOUS
 62
     3
 48
16.0
100
AcDbCircle
 10
240.9014096199876
 20
233.4174911676077
 30
0.0
 40
1.000001092471243
100
AcDbArc
 50
29.99947630725158
 51
123.1866664820235
  0
ARC
  5
429
330
1A
100
AcDbEntity
  8
SEIHIN
  6
CONTINUOUS
 62
     3
 48
16.0
100
AcDbCircle
 10
240.9014315522597
 20
233.4174536358914
 30
0.0
 40
1.000000864972141
100
AcDbArc
 50
296.8148326851314
 51
30.00196692706182
  0
LINE
  5
42A
330
1A
100
AcDbEntity
  8
SEIHIN
  6
CONTINUOUS
 62
     3
 48
16.0
100
AcDbLine
 10
241.3525405399302
 20
232.5249837982006
 30
0.0
 11
236.7937405399302
 21
230.4696837982006
 31
0.0
  0
LINE
  5
42B
330
1A
100
AcDbEntity
  8
SEIHIN
  6
CONTINUOUS
 62
     3
 48
16.0
100
AcDbLine
 10
241.3525405399302
 20
225.3098837982007
 30
0.0
 11
236.7937405399302
 21
227.3651837982007
 31
0.0
  0
ARC
  5
42C
330
1A
100
AcDbEntity
  8
SEIHIN
  6
CONTINUOUS
 62
     3
 48
16.0
100
AcDbCircle
 10
236.5713390066386
 20
226.917490332624
 30
0.0
 40
0.4999844047596228
100
AcDbArc
 50
149.9998328497872
 51
236.4121996014842
  0
ARC
  5
42D
330
1A
100
AcDbEntity
  8
SEIHIN
  6
CONTINUOUS
 62
     3
 48
16.0
100
AcDbCircle
 10
236.5713390066385
 20
230.9174772637772
 30
0.0
 40
0.4999844047595589
100
AcDbArc
 50
123.5878003985152
 51
210.0001671502086
  0
LINE
  5
42E
330
1A
100
AcDbEntity
  8
SEIHIN
  6
CONTINUOUS
 62
     3
 48
16.0
100
AcDbLine
 10
240.3540405399302
 20
234.2543837982006
 30
0.0
 11
236.2947405399302
 21
231.3339837982007
 31
0.0
  0
ARC
  5
42F
330
1A
100
AcDbEntity
  8
SEIHIN
  6
CONTINUOUS
 62
     3
 48
16.0
100
AcDbCircle
 10
236.5713388618355
 20
230.917484304655
 30
0.0
 40
0.4999877998513292
100
AcDbArc
 50
210.0008741940178
 51
296.411452575967
  0
ARC
  5
430
330
1A
100
AcDbEntity
  8
SEIHIN
  6
CONTINUOUS
 62
     3
 48
16.0
100
AcDbCircle
 10
236.5712762443474
 20
226.9174643967082
 30
0.0
 40
0.4999430220354412
100
AcDbArc
 50
63.57798565785392
 51
149.993662258794
  0
ELLIPSE
  5
431
330
1A
100
AcDbEntity
  8
SEIHIN
  6
CONTINUOUS
100
AcDbEllipse
 10
233.1072227035313
 20
255.5735107130987
 30
0.0
 11
-4.000000000088391
 21
-0.0001269148978622
 31
0.0
210
0.0
220
0.0
230
0.9999999999999998
 40
0.9284432707879066
 41
0.0000000000000153
 42
6.283185307179601
  0
ELLIPSE
  5
432
330
1A
100
AcDbEntity
  8
SEIHIN
  6
CONTINUOUS
 62
     3
100
AcDbEllipse
 10
233.1072232153369
 20
256.3163012873821
 30
0.0
 11
-4.000000000088391
 21
-0.0001269148978622
 31
0.0
210
0.0
220
0.0
230
0.9999999999999998
 40
0.9284432707879066
 41
3.0413902689303
 42
6.383327495745904
  0
LINE
  5
433
330
1A
100
AcDbEntity
  8
SEIHIN
  6
CONTINUOUS
 62
     3
 48
16.0
100
AcDbLine
 10
242.1072405399302
 20
270.2434837982006
 30
0.0
 11
233.1072405399301
 21
270.2434837982006
 31
0.0
  0
LINE
  5
434
330
1A
100
AcDbEntity
  8
SEIHIN
  6
CONTINUOUS
 62
     3
 48
16.0
100
AcDbLine
 10
220.6072405399301
 20
257.6674837982007
 30
0.0
 11
224.1073405399302
 21
257.6674837982007
 31
0.0
  0
LINE
  5
435
330
1A
100
AcDbEntity
  8
SEIHIN
  6
CONTINUOUS
 62
     3
 48
16.0
100
AcDbLine
 10
224.1072405399301
 20
270.2434837982006
 30
0.0
 11
233.1071405399302
 21
270.2434837982006
 31
0.0
  0
LINE
  5
436
330
1A
100
AcDbEntity
  8
SEIHIN
  6
CONTINUOUS
 62
     3
 48
16.0
100
AcDbLine
 10
223.6072405399302
 20
270.3312837982006
 30
0.0
 11
221.8455405399302
 21
269.2716837982008
 31
0.0
  0
LINE
  5
437
330
1A
100
AcDbEntity
  8
SEIHIN
  6
CONTINUOUS
 62
     3
 48
16.0
100
AcDbLine
 10
221.8455405399302
 20
269.2716837982008
 30
0.0
 11
223.6072405399302
 21
268.1703837982007
 31
0.0
  0
LINE
  5
438
330
1A
100
AcDbEntity
  8
SEIHIN
  6
CONTINUOUS
 62
     3
 48
16.0
100
AcDbLine
 10
245.6071405399302
 20
257.6674837982007
 30
0.0
 11
242.1071405399302
 21
257.6674837982007
 31
0.0
  0
LINE
  5
439
330
1A
100
AcDbEntity
  8
SEIHIN
  6
CONTINUOUS
 62
     3
 48
16.0
100
AcDbLine
 10
242.6072405399302
 20
270.3311837982007
 30
0.0
 11
244.3689405399301
 21
269.2716837982008
 31
0.0
  0
LINE
  5
43A
330
1A
100
AcDbEntity
  8
SEIHIN
  6
CONTINUOUS
 62
     3
 48
16.0
100
AcDbLine
 10
244.3689405399301
 20
269.2716837982008
 30
0.0
 11
242.6072405399302
 21
268.1702837982006
 31
0.0
  0
LINE
  5
43B
330
1A
100
AcDbEntity
  8
CENTER_L
  6
CENTER
 62
     1
 48
5.0
100
AcDbLine
 10
401.3473053552566
 20
195.7881837982006
 30
0.0
 11
401.3473053552566
 21
173.6828837982007
 31
0.0
  0
LINE
  5
43C
330
1A
100
AcDbEntity
  8
SEIHIN
  6
CONTINUOUS
 62
     3
 48
16.0
100
AcDbLine
 10
395.3473053552566
 20
176.4672837982006
 30
0.0
 11
395.3473053552566
 21
184.4672837982007
 31
0.0
  0
LINE
  5
43D
330
1A
100
AcDbEntity
  8
SEIHIN
  6
CONTINUOUS
 62
     3
 48
16.0
100
AcDbLine
 10
395.3473053552566
 20
176.4672837982006
 30
0.0
 11
409.3473053552564
 21
176.4672837982006
 31
0.0
  0
LINE
  5
43E
330
1A
100
AcDbEntity
  8
SEIHIN
  6
CONTINUOUS
 62
     3
 48
16.0
100
AcDbLine
 10
411.3473053552564
 20
166.2672837982007
 30
0.0
 11
411.3473053552564
 21
174.4672837982006
 31
0.0
  0
ARC
  5
43F
330
1A
100
AcDbEntity
  8
SEIHIN
  6
CONTINUOUS
 62
     3
 48
16.0
100
AcDbCircle
 10
409.3473053552564
 20
174.4672837982006
 30
0.0
 40
2.0
100
AcDbArc
 50
0.0
 51
90.0
  0
LINE
  5
440
330
1A
100
AcDbEntity
  8
SEIHIN
  6
CONTINUOUS
 62
     3
 48
16.0
100
AcDbLine
 10
350.6083053552566
 20
224.4672837982006
 30
0.0
 11
344.8473053552564
 21
224.4672837982006
 31
0.0
  0
LINE
  5
441
330
1A
100
AcDbEntity
  8
SEIHIN
  6
CONTINUOUS
 62
     3
 48
16.0
100
AcDbLine
 10
349.0969053552564
 20
222.9672837982007
 30
0.0
 11
344.1473053552566
 21
222.9672837982007
 31
0.0
  0
LINE
  5
442
330
1A
100
AcDbEntity
  8
SEIHIN
  6
CONTINUOUS
 62
     3
 48
16.0
100
AcDbLine
 10
352.4957053552565
 20
196.5856837982007
 30
0.0
 11
346.9417053552565
 21
222.9672837982007
 31
0.0
  0
LINE
  5
443
330
1A
100
AcDbEntity
  8
SEIHIN
  6
CONTINUOUS
 62
     3
 48
16.0
100
AcDbLine
 10
342.8473053552564
 20
258.9673837982006
 30
0.0
 11
342.8473053552564
 21
224.2672837982007
 31
0.0
  0
ARC
  5
444
330
1A
100
AcDbEntity
  8
SEIHIN
  6
CONTINUOUS
 62
     3
 48
16.0
100
AcDbCircle
 10
344.1473053552565
 20
224.2672837982007
 30
0.0
 40
1.300000000000096
100
AcDbArc
 50
180.0000000000012
 51
270.0000000000012
  0
LINE
  5
445
330
1A
100
AcDbEntity
  8
CENTER_L
  6
CENTER
 62
     1
 48
5.0
100
AcDbLine
 10
258.1072405961949
 20
253.8073402672482
 30
0.0
 11
258.1072405961949
 21
246.4339837982009
 31
0.0
  0
LINE
  5
446
330
1A
100
AcDbEntity
  8
CENTER_L
  6
CENTER
 62
     1
 48
5.0
100
AcDbLine
 10
262.6088307092182
 20
250.0024627892358
 30
0.0
 11
253.5437106854382
 21
250.0024627892358
 31
0.0
  0
ELLIPSE
  5
447
330
1A
100
AcDbEntity
  8
SEIHIN
  6
CONTINUOUS
100
AcDbEllipse
 10
258.1072405961949
 20
250.5595573876898
 30
0.0
 11
-2.0
 21
0.0
 31
0.0
210
0.0
220
0.0
230
1.0
 40
0.9284769207922352
 41
0.1505705729499183
 42
2.991022080639753
  0
ELLIPSE
  5
448
330
1A
100
AcDbEntity
  8
SEIHIN
  6
CONTINUOUS
100
AcDbEllipse
 10
258.1072405961949
 20
250.0024627892358
 30
0.0
 11
-2.0
 21
0.0
 31
0.0
210
0.0
220
0.0
230
1.0
 40
0.9284769207922352
 41
0.0
 42
6.283185307179586
  0
ELLIPSE
  5
449
330
1A
100
AcDbEntity
  8
SEIHIN
  6
CONTINUOUS
100
AcDbEllipse
 10
258.1072405961949
 20
250.0024627892358
 30
0.0
 11
-2.0
 21
0.0
 31
0.0
210
0.0
220
0.0
230
1.0
 40
0.9284769207922352
 41
0.0
 42
6.283185307179586
  0
ELLIPSE
  5
44A
330
1A
100
AcDbEntity
  8
SEIHIN
  6
CONTINUOUS
100
AcDbEllipse
 10
258.1072405961949
 20
268.5719858472431
 30
0.0
 11
-2.0
 21
0.0
 31
0.0
210
0.0
220
0.0
230
1.0
 40
0.9284769207922352
 41
0.0
 42
6.283185307179586
  0
ELLIPSE
  5
44B
330
1A
100
AcDbEntity
  8
SEIHIN
  6
CONTINUOUS
100
AcDbEllipse
 10
258.1072405961949
 20
268.5719858472431
 30
0.0
 11
-2.0
 21
0.0
 31
0.0
210
0.0
220
0.0
230
1.0
 40
0.9284769207922352
 41
0.0
 42
6.283185307179586
  0
ELLIPSE
  5
44C
330
1A
100
AcDbEntity
  8
SEIHIN
  6
CONTINUOUS
100
AcDbEllipse
 10
258.1072405961949
 20
269.1290804456972
 30
0.0
 11
-2.0
 21
0.0
 31
0.0
210
0.0
220
0.0
230
1.0
 40
0.9284769207922352
 41
0.1505705729499183
 42
2.991022080639753
  0
LINE
  5
44D
330
1A
100
AcDbEntity
  8
CENTER_L
  6
CENTER
 62
     1
 48
5.0
100
AcDbLine
 10
262.4131738855702
 20
268.5719858472431
 30
0.0
 11
253.075184239501
 21
268.5719858472432
 31
0.0
  0
LINE
  5
44F
330
1A
100
AcDbEntity
  8
SEIHIN
  6
CONTINUOUS
 62
     3
 48
16.0
100
AcDbLine
 10
344.3473053552565
 20
258.9673837982006
 30
0.0
 11
344.3473053552565
 21
224.9673837982006
 31
0.0
  0
ARC
  5
454
330
1A
100
AcDbEntity
  8
SEIHIN
  6
CONTINUOUS
 62
     3
 48
16.0
100
AcDbCircle
 10
344.8473053552564
 20
224.9673837982006
 30
0.0
 40
0.4999999999999148
100
AcDbArc
 50
179.9999999999967
 51
269.9999999999967
  0
LINE
  5
458
330
1A
100
AcDbEntity
  8
SEIHIN
  6
CONTINUOUS
 62
     3
 48
16.0
100
AcDbLine
 10
344.3473053552565
 20
258.9673837982006
 30
0.0
 11
342.8473053552564
 21
258.9673837982006
 31
0.0
  0
ARC
  5
459
330
1A
100
AcDbEntity
  8
SEIHIN
  6
CONTINUOUS
 62
     3
 48
16.0
100
AcDbCircle
 10
350.6082947491201
 20
223.1672924040269
 30
0.0
 40
1.299991394216943
100
AcDbArc
 50
11.88773659712815
 51
89.99953254547603
  0
LINE
  5
45A
330
1A
100
AcDbEntity
  8
SEIHIN
  6
CONTINUOUS
 62
     3
 48
16.0
100
AcDbLine
 10
401.3473053552566
 20
184.4672837982007
 30
0.0
 11
367.0918053552566
 21
184.4672837982007
 31
0.0
  0
LINE
  5
45B
330
1A
100
AcDbEntity
  8
SEIHIN
  6
CONTINUOUS
 62
     3
 48
16.0
100
AcDbLine
 10
367.5268053552566
 20
181.2672837982007
 30
0.0
 11
395.3473053552566
 21
181.2672837982007
 31
0.0
  0
LINE
  5
45C
330
1A
100
AcDbEntity
  8
SEIHIN
  6
CONTINUOUS
 62
     3
 48
16.0
100
AcDbLine
 10
401.3473053552566
 20
185.9672837982007
 30
0.0
 11
368.2268053552566
 21
185.9672837982007
 31
0.0
  0
LINE
  5
45D
330
1A
100
AcDbEntity
  8
SEIHIN
  6
CONTINUOUS
 62
     3
 48
16.0
100
AcDbLine
 10
355.7987053552566
 20
196.9149837982006
 30
0.0
 11
350.5647053552566
 21
221.7763837982007
 31
0.0
  0
LINE
  5
45E
330
1A
100
AcDbEntity
  8
SEIHIN
  6
CONTINUOUS
 62
     3
 48
16.0
100
AcDbLine
 10
357.2184053552565
 20
198.0795837982007
 30
0.0
 11
351.8804053552564
 21
223.4351837982007
 31
0.0
  0
ARC
  5
45F
330
1A
100
AcDbEntity
  8
SEIHIN
  6
CONTINUOUS
 62
     3
 48
16.0
100
AcDbCircle
 10
354.3936913026239
 20
184.8120996559917
 30
0.0
 40
12.99998170114818
100
AcDbArc
 50
8.85562358673979
 51
74.23675086009679
  0
ARC
  5
460
330
1A
100
AcDbEntity
  8
SEIHIN
  6
CONTINUOUS
 62
     3
 48
16.0
100
AcDbCircle
 10
353.6936779625697
 20
184.1121150028795
 30
0.0
 40
12.19996844404243
100
AcDbArc
 50
7.042429048191538
 51
75.51310070942455
  0
ARC
  5
461
330
1A
100
AcDbEntity
  8
SEIHIN
  6
CONTINUOUS
 62
     3
 48
16.0
100
AcDbCircle
 10
367.5268059245887
 20
186.2672833107007
 30
0.0
 40
4.999999512500058
100
AcDbArc
 50
188.8553201291494
 51
269.9999934759342
  0
ARC
  5
462
330
1A
100
AcDbEntity
  8
SEIHIN
  6
CONTINUOUS
 62
     3
 48
16.0
100
AcDbCircle
 10
353.6937095670821
 20
184.1120790836647
 30
0.0
 40
8.99998120525899
100
AcDbArc
 50
8.855631650214192
 51
74.69773417452486
  0
ARC
  5
463
330
1A
100
AcDbEntity
  8
SEIHIN
  6
CONTINUOUS
 62
     3
 48
16.0
100
AcDbCircle
 10
357.0707735333729
 20
197.1828170974116
 30
0.0
 40
1.299958509315697
100
AcDbArc
 50
191.8899291673768
 51
255.5143599350984
  0
ARC
  5
464
330
1A
100
AcDbEntity
  8
SEIHIN
  6
CONTINUOUS
 62
     3
 48
16.0
100
AcDbCircle
 10
357.3884120832303
 20
197.6156766569546
 30
0.0
 40
4.999946441217568
100
AcDbArc
 50
191.8880899322049
 51
254.6981512804598
  0
ARC
  5
465
330
1A
100
AcDbEntity
  8
SEIHIN
  6
CONTINUOUS
 62
     3
 48
16.0
100
AcDbCircle
 10
358.1969857978578
 20
198.2856047261158
 30
0.0
 40
1.000032152173543
100
AcDbArc
 50
191.8888818863415
 51
254.2362325537117
  0
ARC
  5
466
330
1A
100
AcDbEntity
  8
SEIHIN
  6
CONTINUOUS
 62
     3
 48
16.0
100
AcDbCircle
 10
368.2267975251406
 20
186.9672905031557
 30
0.0
 40
1.000006704985682
100
AcDbArc
 50
188.8533344002577
 51
270.0004486295863
  0
ARC
  5
467
330
1A
100
AcDbEntity
  8
SEIHIN
  6
CONTINUOUS
 62
     3
 48
16.0
100
AcDbCircle
 10
367.091800047573
 20
185.7672884904915
 30
0.0
 40
1.300004692301678
100
AcDbArc
 50
187.0432508395414
 51
270.0002339282812
  0
ARC
  5
468
330
1A
100
AcDbEntity
  8
SEIHIN
  6
CONTINUOUS
 62
     3
 48
16.0
100
AcDbCircle
 10
349.0969011749492
 20
221.4672871898749
 30
0.0
 40
1.499996608331536
100
AcDbArc
 50
11.89184271223171
 51
89.99984032366638
  0
LINE
  5
469
330
1A
100
AcDbEntity
  8
SEIHIN
  6
CONTINUOUS
 62
     3
 48
16.0
100
AcDbLine
 10
262.1072405399302
 20
273.7716837982008
 30
0.0
 11
241.6072405399302
 21
273.7716837982008
 31
0.0
  0
LINE
  5
46A
330
1A
100
AcDbEntity
  8
SEIHIN
  6
CONTINUOUS
 62
     3
 48
16.0
100
AcDbLine
 10
243.1072405399301
 20
273.2716837982008
 30
0.0
 11
262.1072405399302
 21
273.2716837982008
 31
0.0
  0
LINE
  5
46B
330
1A
100
AcDbEntity
  8
SEIHIN
  6
CONTINUOUS
 62
     3
 48
16.0
100
AcDbLine
 10
204.1072405399301
 20
273.7716837982008
 30
0.0
 11
224.6072405399301
 21
273.7716837982008
 31
0.0
  0
LINE
  5
46C
330
1A
100
AcDbEntity
  8
SEIHIN
  6
CONTINUOUS
 62
     3
 48
16.0
100
AcDbLine
 10
223.1072405399302
 20
273.2716837982008
 30
0.0
 11
204.1072405399301
 21
273.2716837982008
 31
0.0
  0
LINE
  5
46E
330
1A
100
AcDbEntity
  8
SEIHIN
  6
CONTINUOUS
 62
     3
 48
16.0
100
AcDbLine
 10
239.1072405399301
 20
273.2145837982008
 30
0.0
 11
233.1072405399301
 21
273.2145837982008
 31
0.0
  0
LINE
  5
46F
330
1A
100
AcDbEntity
  8
SEIHIN
  6
CONTINUOUS
 62
     3
 48
16.0
100
AcDbLine
 10
233.1072405399301
 20
270.7434837982007
 30
0.0
 11
240.6072405399301
 21
270.7434837982007
 31
0.0
  0
LINE
  5
470
330
1A
100
AcDbEntity
  8
SEIHIN
  6
CONTINUOUS
 62
     3
 48
16.0
100
AcDbLine
 10
240.6072405399301
 20
273.7716837982008
 30
0.0
 11
233.1072405399301
 21
273.7716837982008
 31
0.0
  0
ARC
  5
472
330
1A
100
AcDbEntity
  8
SEIHIN
  6
CONTINUOUS
 62
     3
 48
16.0
100
AcDbCircle
 10
225.6072405399302
 20
273.2716837982008
 30
0.0
 40
0.5
100
AcDbArc
 50
90.0
 51
180.0
  0
LINE
  5
473
330
1A
100
AcDbEntity
  8
SEIHIN
  6
CONTINUOUS
 62
     3
 48
16.0
100
AcDbLine
 10
225.1072405399302
 20
273.2716837982008
 30
0.0
 11
225.1072405399302
 21
271.2434837982006
 31
0.0
  0
ARC
  5
474
330
1A
100
AcDbEntity
  8
SEIHIN
  6
CONTINUOUS
 62
     3
 48
16.0
100
AcDbCircle
 10
224.6072405399302
 20
273.2716837982007
 30
0.0
 40
0.5000000000000427
100
AcDbArc
 50
0.0000000000048853
 51
90.00000000000488
  0
ARC
  5
475
330
1A
100
AcDbEntity
  8
SEIHIN
  6
CONTINUOUS
 62
     3
 48
16.0
100
AcDbCircle
 10
223.1072405399302
 20
272.7716837982006
 30
0.0
 40
0.5000000000000569
100
AcDbArc
 50
359.9999999999934
 51
89.99999999999349
  0
LINE
  5
476
330
1A
100
AcDbEntity
  8
SEIHIN
  6
CONTINUOUS
 62
     3
 48
16.0
100
AcDbLine
 10
226.6072405399301
 20
272.7145837982007
 30
0.0
 11
226.6072405399301
 21
270.7434837982007
 31
0.0
  0
ARC
  5
477
330
1A
100
AcDbEntity
  8
SEIHIN
  6
CONTINUOUS
 62
     3
 48
16.0
100
AcDbCircle
 10
227.1072405399302
 20
272.7145837982007
 30
0.0
 40
0.5000000000000427
100
AcDbArc
 50
89.99999999999511
 51
179.9999999999951
  0
LINE
  5
478
330
1A
100
AcDbEntity
  8
SEIHIN
  6
CONTINUOUS
 62
     3
 48
16.0
100
AcDbLine
 10
227.1072405399302
 20
273.2145837982008
 30
0.0
 11
233.1071405399302
 21
273.2145837982008
 31
0.0
  0
LINE
  5
479
330
1A
100
AcDbEntity
  8
SEIHIN
  6
CONTINUOUS
 62
     3
 48
16.0
100
AcDbLine
 10
225.6072405399302
 20
273.7716837982008
 30
0.0
 11
233.1071405399302
 21
273.7716837982008
 31
0.0
  0
LINE
  5
47A
330
1A
100
AcDbEntity
  8
SEIHIN
  6
CONTINUOUS
 62
     3
 48
16.0
100
AcDbLine
 10
233.1071405399302
 20
270.7434837982007
 30
0.0
 11
225.6072405399302
 21
270.7433837982006
 31
0.0
  0
LINE
  5
47D
330
1A
100
AcDbEntity
  8
SEIHIN
  6
CONTINUOUS
 62
     3
 48
16.0
100
AcDbLine
 10
241.1072405399301
 20
273.2716837982008
 30
0.0
 11
241.1072405399301
 21
271.2434837982006
 31
0.0
  0
LINE
  5
47E
330
1A
100
AcDbEntity
  8
SEIHIN
  6
CONTINUOUS
 62
     3
 48
16.0
100
AcDbLine
 10
239.6072405399302
 20
272.7145837982007
 30
0.0
 11
239.6072405399302
 21
270.7434837982007
 31
0.0
  0
ARC
  5
47F
330
1A
100
AcDbEntity
  8
SEIHIN
  6
CONTINUOUS
 62
     3
 48
16.0
100
AcDbCircle
 10
239.1072405399302
 20
272.7145837982007
 30
0.0
 40
0.5000000000000427
100
AcDbArc
 50
0.0000000000048853
 51
90.00000000000488
  0
ARC
  5
480
330
1A
100
AcDbEntity
  8
SEIHIN
  6
CONTINUOUS
 62
     3
 48
16.0
100
AcDbCircle
 10
240.6072405399301
 20
273.2716837982008
 30
0.0
 40
0.5
100
AcDbArc
 50
0.0
 51
90.0
  0
ARC
  5
481
330
1A
100
AcDbEntity
  8
SEIHIN
  6
CONTINUOUS
 62
     3
 48
16.0
100
AcDbCircle
 10
241.6072405399302
 20
273.2716837982007
 30
0.0
 40
0.5000000000000427
100
AcDbArc
 50
89.99999999999511
 51
179.9999999999951
  0
ARC
  5
482
330
1A
100
AcDbEntity
  8
SEIHIN
  6
CONTINUOUS
 62
     3
 48
16.0
100
AcDbCircle
 10
243.1072405399302
 20
272.7716837982007
 30
0.0
 40
0.5000000000000142
100
AcDbArc
 50
90.00000000001138
 51
180.0000000000114
  0
ARC
  5
485
330
1A
100
AcDbEntity
  8
SEIHIN
  6
CONTINUOUS
 62
     3
 48
16.0
100
AcDbCircle
 10
351.1805053552566
 20
400.9671837982006
 30
0.0
 40
2.500000000000085
100
AcDbArc
 50
90.0
 51
270.0
  0
LINE
  5
486
330
1A
100
AcDbEntity
  8
SEIHIN
  6
CONTINUOUS
 62
     3
 48
16.0
100
AcDbLine
 10
357.2185053552566
 20
406.9671837982007
 30
0.0
 11
344.3474053552566
 21
406.9671837982007
 31
0.0
  0
LINE
  5
488
330
1A
100
AcDbEntity
  8
SEIHIN
  6
CONTINUOUS
 62
     3
 48
16.0
100
AcDbLine
 10
357.2185053552566
 20
384.9672837982007
 30
0.0
 11
344.3474053552566
 21
384.9672837982007
 31
0.0
  0
ARC
  5
48B
330
1A
100
AcDbEntity
  8
SEIHIN
  6
CONTINUOUS
 62
     3
 48
16.0
100
AcDbCircle
 10
351.1805053552566
 20
390.9672837982007
 30
0.0
 40
2.5
100
AcDbArc
 50
90.0
 51
270.0
  0
LINE
  5
492
330
1A
100
AcDbEntity
  8
SEIHIN
  6
CONTINUOUS
 62
     3
 48
16.0
100
AcDbLine
 10
343.5474053552566
 20
383.4672837982007
 30
0.0
 11
343.5474053552566
 21
395.9671837982005
 31
0.0
  0
LINE
  5
493
330
1A
100
AcDbEntity
  8
SEIHIN
  6
CONTINUOUS
 62
     3
 48
16.0
100
AcDbLine
 10
344.3474053552566
 20
395.9671837982005
 30
0.0
 11
344.3474053552566
 21
383.4672837982007
 31
0.0
  0
LINE
  5
494
330
1A
100
AcDbEntity
  8
SEIHIN
  6
CONTINUOUS
 62
     3
 48
16.0
100
AcDbLine
 10
344.3474053552566
 20
383.4672837982007
 30
0.0
 11
343.5474053552566
 21
383.4672837982007
 31
0.0
  0
LINE
  5
495
330
1A
100
AcDbEntity
  8
SEIHIN
  6
CONTINUOUS
 62
     3
 48
16.0
100
AcDbLine
 10
344.3474053552566
 20
395.9672837982007
 30
0.0
 11
344.3474053552566
 21
408.4671837982005
 31
0.0
  0
LINE
  5
496
330
1A
100
AcDbEntity
  8
SEIHIN
  6
CONTINUOUS
 62
     3
 48
16.0
100
AcDbLine
 10
343.5474053552566
 20
408.4672837982007
 30
0.0
 11
343.5474053552566
 21
395.9673837982007
 31
0.0
  0
LINE
  5
497
330
1A
100
AcDbEntity
  8
SEIHIN
  6
CONTINUOUS
 62
     3
 48
16.0
100
AcDbLine
 10
344.3474053552566
 20
408.4671837982005
 30
0.0
 11
343.5474053552566
 21
408.4671837982005
 31
0.0
  0
LINE
  5
499
330
1A
100
AcDbEntity
  8
SEIHIN
  6
CONTINUOUS
 62
     3
 48
16.0
100
AcDbLine
 10
394.8091053552564
 20
393.4671837982005
 30
0.0
 11
351.1805053552566
 21
393.4672837982007
 31
0.0
  0
LINE
  5
49A
330
1A
100
AcDbEntity
  8
SEIHIN
  6
CONTINUOUS
 62
     3
 48
16.0
100
AcDbLine
 10
401.3474053552566
 20
406.9672837982007
 30
0.0
 11
368.2269053552564
 21
406.9672837982007
 31
0.0
  0
LINE
  5
49B
330
1A
100
AcDbEntity
  8
SEIHIN
  6
CONTINUOUS
 62
     3
 48
16.0
100
AcDbLine
 10
401.3474053552566
 20
403.4672837982007
 30
0.0
 11
351.1805053552566
 21
403.4671837982007
 31
0.0
  0
LINE
  5
49C
330
1A
100
AcDbEntity
  8
SEIHIN
  6
CONTINUOUS
 62
     3
 48
16.0
100
AcDbLine
 10
394.8091053552564
 20
398.4672837982007
 30
0.0
 11
351.1805053552566
 21
398.4671837982005
 31
0.0
  0
LINE
  5
49D
330
1A
100
AcDbEntity
  8
SEIHIN
  6
CONTINUOUS
 62
     3
 48
16.0
100
AcDbLine
 10
401.3474053552566
 20
388.4671837982007
 30
0.0
 11
351.1805053552566
 21
388.4672837982007
 31
0.0
  0
LINE
  5
49E
330
1A
100
AcDbEntity
  8
SEIHIN
  6
CONTINUOUS
 62
     3
 48
16.0
100
AcDbLine
 10
401.3474053552566
 20
384.9671837982005
 30
0.0
 11
368.2269053552564
 21
384.9672837982007
 31
0.0
  0
LINE
  5
49F
330
1A
100
AcDbEntity
  8
SEIHIN
  6
CONTINUOUS
 62
     3
 48
16.0
100
AcDbLine
 10
368.2269053552564
 20
393.4672837982007
 30
0.0
 11
368.2269053552564
 21
395.9671837982005
 31
0.0
  0
LINE
  5
4A0
330
1A
100
AcDbEntity
  8
SEIHIN
  6
CONTINUOUS
 62
     3
 48
16.0
100
AcDbLine
 10
357.2185053552566
 20
393.4672837982007
 30
0.0
 11
357.2185053552566
 21
395.9672837982007
 31
0.0
  0
LINE
  5
4A1
330
1A
100
AcDbEntity
  8
SEIHIN
  6
CONTINUOUS
 62
     3
 48
16.0
100
AcDbLine
 10
351.8805053552566
 20
393.4672837982007
 30
0.0
 11
351.8805053552566
 21
395.9672837982007
 31
0.0
  0
ARC
  5
4A2
330
1A
100
AcDbEntity
  8
SEIHIN
  6
CONTINUOUS
 62
     3
 48
16.0
100
AcDbCircle
 10
362.7227553552565
 20
355.5941837981187
 30
0.0
 40
29.88425666178281
100
AcDbArc
 50
79.38653974772461
 51
100.6134602522753
  0
LINE
  5
4A3
330
1A
100
AcDbEntity
  8
SEIHIN
  6
CONTINUOUS
 62
     3
 48
16.0
100
AcDbLine
 10
351.8805053552566
 20
384.9672837982007
 30
0.0
 11
351.8805053552566
 21
388.4672837982007
 31
0.0
  0
LINE
  5
4A4
330
1A
100
AcDbEntity
  8
SEIHIN
  6
CONTINUOUS
 62
     3
 48
16.0
100
AcDbLine
 10
357.2185053552566
 20
384.9672837982007
 30
0.0
 11
357.2185053552566
 21
388.4672837982007
 31
0.0
  0
LINE
  5
4A5
330
1A
100
AcDbEntity
  8
SEIHIN
  6
CONTINUOUS
 62
     3
 48
16.0
100
AcDbLine
 10
368.2269053552564
 20
384.9671837982005
 30
0.0
 11
368.2269053552564
 21
388.4672837982007
 31
0.0
  0
ARC
  5
4A6
330
1A
100
AcDbEntity
  8
SEIHIN
  6
CONTINUOUS
 62
     3
 48
16.0
100
AcDbCircle
 10
362.7227053552565
 20
436.3402837982004
 30
0.0
 40
29.88426587085547
100
AcDbArc
 50
259.38644552492
 51
280.6135544750799
  0
LINE
  5
4A7
330
1A
100
AcDbEntity
  8
SEIHIN
  6
CONTINUOUS
 62
     3
 48
16.0
100
AcDbLine
 10
357.2185053552566
 20
406.9672837982007
 30
0.0
 11
357.2185053552566
 21
403.4671837982007
 31
0.0
  0
LINE
  5
4A8
330
1A
100
AcDbEntity
  8
SEIHIN
  6
CONTINUOUS
 62
     3
 48
16.0
100
AcDbLine
 10
351.8805053552566
 20
406.9672837982007
 30
0.0
 11
351.8805053552566
 21
403.4671837982007
 31
0.0
  0
LINE
  5
4A9
330
1A
100
AcDbEntity
  8
SEIHIN
  6
CONTINUOUS
 62
     3
 48
16.0
100
AcDbLine
 10
351.8805053552566
 20
398.4672837982007
 30
0.0
 11
351.8805053552566
 21
395.9672837982007
 31
0.0
  0
LINE
  5
4AA
330
1A
100
AcDbEntity
  8
SEIHIN
  6
CONTINUOUS
 62
     3
 48
16.0
100
AcDbLine
 10
357.2185053552566
 20
398.4672837982007
 30
0.0
 11
357.2185053552566
 21
395.9672837982007
 31
0.0
  0
LINE
  5
4AB
330
1A
100
AcDbEntity
  8
SEIHIN
  6
CONTINUOUS
 62
     3
 48
16.0
100
AcDbLine
 10
368.2269053552564
 20
406.9672837982007
 30
0.0
 11
368.2269053552564
 21
403.4672837982007
 31
0.0
  0
LINE
  5
4AC
330
1A
100
AcDbEntity
  8
SEIHIN
  6
CONTINUOUS
 62
     3
 48
16.0
100
AcDbLine
 10
368.2269053552564
 20
398.4672837982007
 30
0.0
 11
368.2269053552564
 21
395.9672837982007
 31
0.0
  0
LINE
  5
4AD
330
1A
100
AcDbEntity
  8
SEIHIN
  6
CONTINUOUS
 62
     3
 48
16.0
100
AcDbLine
 10
403.3474053552565
 20
393.9672837982007
 30
0.0
 11
403.3474053552565
 21
395.9672837982007
 31
0.0
  0
LINE
  5
4AE
330
1A
100
AcDbEntity
  8
SEIHIN
  6
CONTINUOUS
 62
     3
 48
16.0
100
AcDbLine
 10
399.3474053552566
 20
393.9672837982007
 30
0.0
 11
399.3474053552566
 21
395.9672837982007
 31
0.0
  0
LINE
  5
4AF
330
1A
100
AcDbEntity
  8
CENTER_L
  6
CENTER
 62
     1
 48
5.0
100
AcDbLine
 10
401.3474053552566
 20
413.4455837982007
 30
0.0
 11
401.3474053552566
 21
379.2872837982008
 31
0.0
  0
ARC
  5
4B0
330
1A
100
AcDbEntity
  8
SEIHIN
  6
CONTINUOUS
 62
     3
 48
16.0
100
AcDbCircle
 10
401.3474053552566
 20
395.9672837982007
 30
0.0
 40
5.0
100
AcDbArc
 50
180.0
 51
0.0
  0
ARC
  5
4B1
330
1A
100
AcDbEntity
  8
SEIHIN
  6
CONTINUOUS
 62
     3
 48
16.0
100
AcDbCircle
 10
401.3474553552564
 20
395.9672837983281
 30
0.0
 40
7.000037195125291
100
AcDbArc
 50
200.9255923222684
 51
339.0744076777315
  0
LINE
  5
4B2
330
1A
100
AcDbEntity
  8
SEIHIN
  6
CONTINUOUS
 62
     3
 48
16.0
100
AcDbLine
 10
399.3474053552566
 20
393.9672837982007
 30
0.0
 11
403.3474053552565
 21
393.9672837982007
 31
0.0
  0
ARC
  5
4B3
330
1A
100
AcDbEntity
  8
SEIHIN
  6
CONTINUOUS
 62
     3
 48
16.0
100
AcDbCircle
 10
401.3474553552564
 20
395.9672837980732
 30
0.0
 40
7.000001480223941
100
AcDbArc
 50
20.92482779616575
 51
159.0751722038342
  0
ARC
  5
4B4
330
1A
100
AcDbEntity
  8
SEIHIN
  6
CONTINUOUS
 62
     3
 48
16.0
100
AcDbCircle
 10
401.3474053552566
 20
395.9672837982007
 30
0.0
 40
5.0
100
AcDbArc
 50
0.0
 51
180.0
  0
LINE
  5
4B5
330
1A
100
AcDbEntity
  8
SEIHIN
  6
CONTINUOUS
 62
     3
 48
16.0
100
AcDbLine
 10
403.3474053552565
 20
397.9672837982007
 30
0.0
 11
403.3474053552565
 21
395.9672837982007
 31
0.0
  0
LINE
  5
4B6
330
1A
100
AcDbEntity
  8
SEIHIN
  6
CONTINUOUS
 62
     3
 48
16.0
100
AcDbLine
 10
399.3474053552566
 20
397.9672837982007
 30
0.0
 11
399.3474053552566
 21
395.9672837982007
 31
0.0
  0
LINE
  5
4B7
330
1A
100
AcDbEntity
  8
SEIHIN
  6
CONTINUOUS
 62
     3
 48
16.0
100
AcDbLine
 10
399.3474053552566
 20
397.9672837982007
 30
0.0
 11
403.3474053552565
 21
397.9672837982007
 31
0.0
  0
LINE
  5
4BF
330
1A
100
AcDbEntity
  8
SEIHIN
  6
CONTINUOUS
 62
     3
 48
16.0
100
AcDbLine
 10
455.8268053552565
 20
270.2431837982008
 30
0.0
 11
464.7474053552564
 21
273.7714837982006
 31
0.0
  0
LINE
  5
4C2
330
1A
100
AcDbEntity
  8
SEIHIN
  6
CONTINUOUS
 62
     3
 48
16.0
100
AcDbLine
 10
477.3565053552564
 20
242.2485837982006
 30
0.0
 11
464.7473053552564
 21
273.7713837982007
 31
0.0
  0
LINE
  5
4C3
330
1A
100
AcDbEntity
  8
SEIHIN
  6
CONTINUOUS
 62
     3
 48
16.0
100
AcDbLine
 10
463.3546053552564
 20
273.2143837982007
 30
0.0
 11
474.4963053552566
 21
245.3600837982006
 31
0.0
  0
LINE
  5
4C7
330
1A
100
AcDbEntity
  8
SEIHIN
  6
CONTINUOUS
 62
     3
 48
16.0
100
AcDbLine
 10
419.3473053552564
 20
166.2672837982007
 30
0.0
 11
419.3473053552564
 21
179.4672837982006
 31
0.0
  0
LINE
  5
4C8
330
1A
100
AcDbEntity
  8
SEIHIN
  6
CONTINUOUS
 62
     3
 48
16.0
100
AcDbLine
 10
477.5760053552565
 20
239.2244837982007
 30
0.0
 11
458.2124053552564
 21
158.9741837982006
 31
0.0
  0
LINE
  5
4C9
330
1A
100
AcDbEntity
  8
SEIHIN
  6
CONTINUOUS
 62
     3
 48
16.0
100
AcDbLine
 10
450.4333053552565
 20
160.8414837982007
 30
0.0
 11
469.4256053552566
 21
239.5448837982006
 31
0.0
  0
ARC
  5
4CA
330
1A
100
AcDbEntity
  8
SEIHIN
  6
CONTINUOUS
 62
     3
 48
16.0
100
AcDbCircle
 10
435.347315714781
 20
166.2672830408437
 30
0.0
 40
16.00001035952467
100
AcDbArc
 50
179.9999972879167
 51
351.6373935350779
  0
ARC
  5
4CB
330
1A
100
AcDbEntity
  8
SEIHIN
  6
CONTINUOUS
 62
     3
 48
16.0
100
AcDbCircle
 10
452.0863429617867
 20
223.1672331751719
 30
0.0
 40
1.300050624525888
100
AcDbArc
 50
89.99725019747909
 51
168.1056415048771
  0
LINE
  5
4CC
330
1A
100
AcDbEntity
  8
SEIHIN
  6
CONTINUOUS
 62
     3
 48
16.0
100
AcDbLine
 10
459.8473053552565
 20
237.9440224066216
 30
0.0
 11
459.8473053552564
 21
224.2672837982007
 31
0.0
  0
ARC
  5
4CE
330
1A
100
AcDbEntity
  8
SEIHIN
  6
CONTINUOUS
 62
     3
 48
16.0
100
AcDbCircle
 10
445.3061812621311
 20
197.6156582246374
 30
0.0
 40
4.999959636893492
100
AcDbArc
 50
285.3032016991781
 51
348.1121577504245
  0
LINE
  5
4CF
330
1A
100
AcDbEntity
  8
SEIHIN
  6
CONTINUOUS
 62
     3
 48
16.0
100
AcDbLine
 10
446.8960053552565
 20
196.9149837982006
 30
0.0
 11
452.1299053552565
 21
221.7763837982007
 31
0.0
  0
LINE
  5
4D0
330
1A
100
AcDbEntity
  8
SEIHIN
  6
CONTINUOUS
 62
     3
 48
16.0
100
AcDbLine
 10
445.4762053552565
 20
198.0795837982007
 30
0.0
 11
450.8142053552564
 21
223.4351837982007
 31
0.0
  0
LINE
  5
4D1
330
1A
100
AcDbEntity
  8
SEIHIN
  6
CONTINUOUS
 62
     3
 48
16.0
100
AcDbLine
 10
435.1679053552565
 20
181.2672837982007
 30
0.0
 11
419.0121053552566
 21
181.2672837982007
 31
0.0
  0
ARC
  5
4D4
330
1A
100
AcDbEntity
  8
SEIHIN
  6
CONTINUOUS
 62
     3
 48
16.0
100
AcDbCircle
 10
414.3473053552565
 20
179.4672837982007
 30
0.0
 40
4.999999999999943
100
AcDbArc
 50
359.9999999999987
 51
89.9999999999987
  0
ARC
  5
4D5
330
1A
100
AcDbEntity
  8
SEIHIN
  6
CONTINUOUS
 62
     3
 48
16.0
100
AcDbCircle
 10
449.001001143431
 20
184.1120790836646
 30
0.0
 40
8.999981205259063
100
AcDbArc
 50
105.3022658254746
 51
171.1443683497853
  0
ARC
  5
4D6
330
1A
100
AcDbEntity
  8
SEIHIN
  6
CONTINUOUS
 62
     3
 48
16.0
100
AcDbCircle
 10
449.0009673697918
 20
184.1120405269542
 30
0.0
 40
12.20002419736188
100
AcDbArc
 50
104.4865145161781
 51
172.9567776659503
  0
ARC
  5
4D7
330
1A
100
AcDbEntity
  8
SEIHIN
  6
CONTINUOUS
 62
     3
 48
16.0
100
AcDbCircle
 10
448.3010194078891
 20
184.8120996559918
 30
0.0
 40
12.99998170114807
100
AcDbArc
 50
105.7632491399037
 51
171.1443764132607
  0
ARC
  5
4D8
330
1A
100
AcDbEntity
  8
SEIHIN
  6
CONTINUOUS
 62
     3
 48
16.0
100
AcDbCircle
 10
435.1679047859244
 20
186.2672833107007
 30
0.0
 40
4.999999512499989
100
AcDbArc
 50
270.0000065240664
 51
351.1446798708512
  0
ARC
  5
4D9
330
1A
100
AcDbEntity
  8
SEIHIN
  6
CONTINUOUS
 62
     3
 48
16.0
100
AcDbCircle
 10
435.6028106629399
 20
185.7672884904915
 30
0.0
 40
1.300004692301676
100
AcDbArc
 50
269.9997660717187
 51
352.9567491604586
  0
ARC
  5
4DA
330
1A
100
AcDbEntity
  8
SEIHIN
  6
CONTINUOUS
 62
     3
 48
16.0
100
AcDbCircle
 10
434.4678554897681
 20
186.9672410988774
 30
0.0
 40
0.9999573019200699
100
AcDbArc
 50
270.002857204033
 51
351.1490895878309
  0
ARC
  5
4DB
330
1A
100
AcDbEntity
  8
SEIHIN
  6
CONTINUOUS
 62
     3
 48
16.0
100
AcDbCircle
 10
445.6239371771402
 20
197.1828170974117
 30
0.0
 40
1.299958509315775
100
AcDbArc
 50
284.4856400648986
 51
348.1100708326199
  0
ARC
  5
4DC
330
1A
100
AcDbEntity
  8
SEIHIN
  6
CONTINUOUS
 62
     3
 48
16.0
100
AcDbCircle
 10
444.4976782910845
 20
198.2855548408543
 30
0.0
 40
0.999969642403707
100
AcDbArc
 50
285.7616005428501
 51
348.1132850171118
  0
LINE
  5
4DD
330
1A
100
AcDbEntity
  8
SEIHIN
  6
CONTINUOUS
 62
     3
 48
16.0
100
AcDbLine
 10
450.1990053552565
 20
196.5856837982007
 30
0.0
 11
455.7530053552566
 21
222.9672837982007
 31
0.0
  0
LINE
  5
4DE
330
1A
100
AcDbEntity
  8
SEIHIN
  6
CONTINUOUS
 62
     3
 48
16.0
100
AcDbLine
 10
452.7863053552565
 20
222.9672837982007
 30
0.0
 11
458.5473053552564
 21
222.9672837982007
 31
0.0
  0
ARC
  5
4DF
330
1A
100
AcDbEntity
  8
SEIHIN
  6
CONTINUOUS
 62
     3
 48
16.0
100
AcDbCircle
 10
453.5977095355638
 20
221.467287189875
 30
0.0
 40
1.499996608331466
100
AcDbArc
 50
90.00015967633634
 51
168.1081572877706
  0
ARC
  5
4E0
330
1A
100
AcDbEntity
  8
SEIHIN
  6
CONTINUOUS
 62
     3
 48
16.0
100
AcDbCircle
 10
458.5473053552564
 20
224.2672837982006
 30
0.0
 40
1.300000000000011
100
AcDbArc
 50
270.0000000000025
 51
0.0000000000025053
  0
LINE
  5
4E4
330
1A
100
AcDbEntity
  8
SEIHIN
  6
CONTINUOUS
 62
     3
 48
16.0
100
AcDbLine
 10
455.8268053552565
 20
270.2431837982008
 30
0.0
 11
467.0685053552564
 21
242.3889837982006
 31
0.0
  0
LINE
  5
4E5
330
1A
100
AcDbEntity
  8
SEIHIN
  6
CONTINUOUS
 62
     3
 48
16.0
100
AcDbLine
 10
458.3473053552565
 20
237.3611337205207
 30
0.0
 11
458.3473053552565
 21
224.9673837982006
 31
0.0
  0
LINE
  5
4E6
330
1A
100
AcDbEntity
  8
SEIHIN
  6
CONTINUOUS
 62
     3
 48
16.0
100
AcDbLine
 10
448.0327534010442
 20
237.9871176187973
 30
0.0
 11
448.3984668677776
 21
234.9509342530814
 31
0.0
  0
LINE
  5
4E7
330
1A
100
AcDbEntity
  8
SEIHIN
  6
CONTINUOUS
 62
     3
 48
16.0
100
AcDbLine
 10
448.187630023723
 20
236.7015738576801
 30
0.0
 11
457.7875295629258
 21
237.8575477157417
 31
0.0
  0
LINE
  5
4E8
330
1A
100
AcDbEntity
  8
SEIHIN
  6
CONTINUOUS
 62
     3
 48
16.0
100
AcDbLine
 10
448.3984668677776
 20
234.9509342530814
 30
0.0
 11
457.9570356614564
 21
237.8489444009094
 31
0.0
  0
LINE
  5
4E9
330
1A
100
AcDbEntity
  8
SEIHIN
  6
CONTINUOUS
 62
     3
 48
16.0
100
AcDbLine
 10
452.0864053552564
 20
224.4672837982006
 30
0.0
 11
457.8473053552565
 21
224.4672837982006
 31
0.0
  0
ARC
  5
4EA
330
1A
100
AcDbEntity
  8
SEIHIN
  6
CONTINUOUS
 62
     3
 48
16.0
100
AcDbCircle
 10
457.8473053552565
 20
224.9673837982006
 30
0.0
 40
0.4999999999999716
100
AcDbArc
 50
269.9999999999967
 51
359.9999999999967
  0
LINE
  5
4EB
330
1A
100
AcDbEntity
  8
SEIHIN
  6
CONTINUOUS
 62
     3
 48
16.0
100
AcDbLine
 10
458.3918776661521
 20
239.2346975142531
 30
0.0
 11
448.0327675492447
 21
237.98721661288
 31
0.0
  0
LINE
  5
4EE
330
1A
100
AcDbEntity
  8
SEIHIN
  6
CONTINUOUS
 62
     3
 48
16.0
100
AcDbLine
 10
467.0685053552564
 20
242.3888837982007
 30
0.0
 11
475.8890053552566
 21
245.9170837982008
 31
0.0
  0
LINE
  5
4EF
330
1A
100
AcDbEntity
  8
SEIHIN
  6
CONTINUOUS
 62
     3
 48
16.0
100
AcDbLine
 10
469.3378053552566
 20
240.7544837982007
 30
0.0
 11
468.4612053552566
 21
242.9459837982008
 31
0.0
  0
ARC
  5
4F0
330
1A
100
AcDbEntity
  8
SEIHIN
  6
CONTINUOUS
 62
     3
 48
16.0
100
AcDbCircle
 10
467.4809032918549
 20
240.0117122198553
 30
0.0
 40
1.999948722008471
100
AcDbArc
 50
346.5014830126071
 51
21.80169551122801
  0
ARC
  5
4F1
330
1A
100
AcDbEntity
  8
SEIHIN
  6
CONTINUOUS
 62
     3
 48
16.0
100
AcDbCircle
 10
472.7141082041442
 20
240.3915445456643
 30
0.0
 40
5.000007469620872
100
AcDbArc
 50
346.5019776566847
 51
21.80120086716056
  0
LINE
  5
4F2
330
1A
100
AcDbEntity
  8
CENTER_L
  6
CENTER
 62
     1
 48
5.0
100
AcDbLine
 10
473.1085517358446
 20
271.7163742043023
 30
0.0
 11
460.4877053552564
 21
266.7224837982007
 31
0.0
  0
LINE
  5
4F3
330
1A
100
AcDbEntity
  8
SEIHIN
  6
CONTINUOUS
 62
     3
 48
16.0
100
AcDbLine
 10
458.0552053552565
 20
259.2871837982006
 30
0.0
 11
461.0263053552566
 21
251.8593837982007
 31
0.0
  0
LINE
  5
4F4
330
1A
100
AcDbEntity
  8
SEIHIN
  6
CONTINUOUS
 62
     3
 48
16.0
100
AcDbLine
 10
461.0263053552566
 20
251.8593837982007
 30
0.0
 11
462.9832053552566
 21
252.6021837982006
 31
0.0
  0
LINE
  5
4F5
330
1A
100
AcDbEntity
  8
SEIHIN
  6
CONTINUOUS
 62
     3
 48
16.0
100
AcDbLine
 10
459.9121053552564
 20
260.0299837982007
 30
0.0
 11
458.0551053552566
 21
259.2871837982006
 31
0.0
  0
LINE
  5
4F6
330
1A
100
AcDbEntity
  8
SEIHIN
  6
CONTINUOUS
 62
     3
 48
16.0
100
AcDbLine
 10
472.1302053552566
 20
251.2754837982007
 30
0.0
 11
471.5341053552564
 21
249.5602837982006
 31
0.0
  0
LINE
  5
4F7
330
1A
100
AcDbEntity
  8
CENTER_L
  6
CENTER
 62
     1
 48
5.0
100
AcDbLine
 10
480.5314117283223
 20
253.1593419603159
 30
0.0
 11
467.3756053552565
 21
247.8968837982007
 31
0.0
  0
LINE
  5
4F8
330
1A
100
AcDbEntity
  8
SEIHIN
  6
CONTINUOUS
 62
     3
 48
16.0
100
AcDbLine
 10
473.1486053552566
 20
248.7293837982007
 30
0.0
 11
471.5341053552564
 21
249.5602837982006
 31
0.0
  0
LINE
  5
4F9
330
1A
100
AcDbEntity
  8
SEIHIN
  6
CONTINUOUS
 62
     3
 48
16.0
100
AcDbLine
 10
464.6333053552565
 20
270.0175837982007
 30
0.0
 11
464.1809053552566
 21
268.1596837982005
 31
0.0
  0
LINE
  5
4FA
330
1A
100
AcDbEntity
  8
SEIHIN
  6
CONTINUOUS
 62
     3
 48
16.0
100
AcDbLine
 10
465.7899053552566
 20
267.1260837982007
 30
0.0
 11
464.1810053552564
 21
268.1593837982008
 31
0.0
  0
LINE
  5
507
330
1A
100
AcDbEntity
  8
CENTER_L
  6
CENTER
 62
     1
 48
5.0
100
AcDbLine
 10
474.0321048356005
 20
424.2642837982009
 30
0.0
 11
474.0321048356005
 21
417.3512837982009
 31
0.0
  0
LINE
  5
508
330
1A
100
AcDbEntity
  8
CENTER_L
  6
CENTER
 62
     1
 48
5.0
100
AcDbLine
 10
466.6043053552568
 20
424.3549837982008
 30
0.0
 11
466.6043053552568
 21
417.2730837982009
 31
0.0
  0
LINE
  5
509
330
1A
100
AcDbEntity
  8
SEIHIN
  6
CONTINUOUS
 62
     3
 48
16.0
100
AcDbLine
 10
475.8891053552566
 20
424.9672837982007
 30
0.0
 11
475.8891053552566
 21
403.9672837982007
 31
0.0
  0
LINE
  5
50A
330
1A
100
AcDbEntity
  8
SEIHIN
  6
CONTINUOUS
 62
     3
 48
16.0
100
AcDbLine
 10
463.3547053552566
 20
424.9672837982008
 30
0.0
 11
463.3547053552566
 21
406.4672837982007
 31
0.0
  0
LINE
  5
50B
330
1A
100
AcDbEntity
  8
SEIHIN
  6
CONTINUOUS
 62
     3
 48
16.0
100
AcDbLine
 10
464.7474053552564
 20
424.9672837982007
 30
0.0
 11
464.7474053552564
 21
405.9672837982007
 31
0.0
  0
ELLIPSE
  5
50C
330
1A
100
AcDbEntity
  8
SEIHIN
  6
CONTINUOUS
100
AcDbEllipse
 10
473.9474053552566
 20
370.9672837982007
 30
0.0
 11
0.0
 21
2.0
 31
0.0
210
0.0
220
0.0
230
-1.0
 40
0.3714043055254592
 41
0.0
 42
6.283185307179586
  0
LINE
  5
50D
330
1A
100
AcDbEntity
  8
CENTER_L
  6
CENTER
 62
     1
 48
5.0
100
AcDbLine
 10
473.9474053552566
 20
367.6703837982009
 30
0.0
 11
473.9474053552566
 21
374.5833837982009
 31
0.0
  0
ELLIPSE
  5
50E
330
1A
100
AcDbEntity
  8
SEIHIN
  6
CONTINUOUS
100
AcDbEllipse
 10
466.6043053552568
 20
370.9672837982007
 30
0.0
 11
0.0
 21
2.0
 31
0.0
210
0.0
220
0.0
230
-1.0
 40
0.3714043055254592
 41
0.0
 42
6.283185307179586
  0
LINE
  5
50F
330
1A
100
AcDbEntity
  8
CENTER_L
  6
CENTER
 62
     1
 48
5.0
100
AcDbLine
 10
466.6043053552568
 20
367.5796837982009
 30
0.0
 11
466.6043053552568
 21
374.6614837982009
 31
0.0
  0
LINE
  5
510
330
1A
100
AcDbEntity
  8
SEIHIN
  6
CONTINUOUS
 62
     3
 48
16.0
100
AcDbLine
 10
475.8891053552567
 20
366.9672837982008
 30
0.0
 11
475.8891053552566
 21
387.9672837982007
 31
0.0
  0
LINE
  5
511
330
1A
100
AcDbEntity
  8
SEIHIN
  6
CONTINUOUS
 62
     3
 48
16.0
100
AcDbLine
 10
464.7474053552564
 20
366.9672837982008
 30
0.0
 11
464.7474053552564
 21
385.9672837982007
 31
0.0
  0
LINE
  5
512
330
1A
100
AcDbEntity
  8
SEIHIN
  6
CONTINUOUS
 62
     3
 48
16.0
100
AcDbLine
 10
463.3547053552566
 20
366.9672837982008
 30
0.0
 11
463.3547053552566
 21
385.4672837982007
 31
0.0
  0
LINE
  5
51B
330
1A
100
AcDbEntity
  8
SEIHIN
  6
CONTINUOUS
 62
     3
 48
16.0
100
AcDbLine
 10
474.8891053552567
 20
365.9672837982008
 30
0.0
 11
464.3547053552565
 21
365.9672837982008
 31
0.0
  0
LINE
  5
51C
330
1A
100
AcDbEntity
  8
CENTER_L
  6
CENTER
 62
     1
 48
5.0
100
AcDbLine
 10
475.8890053552568
 20
370.9672837982007
 30
0.0
 11
471.9474053552565
 21
370.9672837982007
 31
0.0
  0
ELLIPSE
  5
51D
330
1A
100
AcDbEntity
  8
SEIHIN
  6
CONTINUOUS
100
AcDbEllipse
 10
465.12685502215
 20
370.9672837982007
 30
0.0
 11
-0.0000000000000033
 21
1.99999999999987
 31
0.0
210
0.0
220
0.0
230
1.0
 40
0.3714043055254832
 41
-1.926247109044981
 42
-1.2153455445446
  0
ELLIPSE
  5
51E
330
1A
100
AcDbEntity
  8
SEIHIN
  6
CONTINUOUS
100
AcDbEllipse
 10
472.5546545024937
 20
370.9672837982007
 30
0.0
 11
-0.0000000000000033
 21
1.99999999999987
 31
0.0
210
0.0
220
0.0
230
1.0
 40
0.3714043055254832
 41
-1.926247109044981
 42
-1.2153455445446
  0
LINE
  5
51F
330
1A
100
AcDbEntity
  8
SEIHIN
  6
CONTINUOUS
 62
     3
 48
16.0
100
AcDbLine
 10
445.4763053552566
 20
406.9672837982007
 30
0.0
 11
458.3474053552566
 21
406.9672837982007
 31
0.0
  0
LINE
  5
520
330
1A
100
AcDbEntity
  8
SEIHIN
  6
CONTINUOUS
 62
     3
 48
16.0
100
AcDbLine
 10
445.4763053552566
 20
384.9671837982005
 30
0.0
 11
458.3474053552566
 21
384.9671837982005
 31
0.0
  0
LINE
  5
521
330
1A
100
AcDbEntity
  8
SEIHIN
  6
CONTINUOUS
 62
     3
 48
16.0
100
AcDbLine
 10
445.4763053552566
 20
393.4671837982005
 30
0.0
 11
445.4763053552566
 21
395.9671837982005
 31
0.0
  0
LINE
  5
522
330
1A
100
AcDbEntity
  8
SEIHIN
  6
CONTINUOUS
 62
     3
 48
16.0
100
AcDbLine
 10
434.4679053552566
 20
393.4671837982005
 30
0.0
 11
434.4679053552566
 21
395.9671837982005
 31
0.0
  0
ARC
  5
523
330
1A
100
AcDbEntity
  8
SEIHIN
  6
CONTINUOUS
 62
     3
 48
16.0
100
AcDbCircle
 10
439.9721053552566
 20
355.5941837982005
 30
0.0
 40
29.88426587085584
100
AcDbArc
 50
79.38644552492011
 51
100.6135544750798
  0
LINE
  5
524
330
1A
100
AcDbEntity
  8
SEIHIN
  6
CONTINUOUS
 62
     3
 48
16.0
100
AcDbLine
 10
434.4679053552566
 20
384.9671837982005
 30
0.0
 11
434.4679053552566
 21
388.4671837982007
 31
0.0
  0
LINE
  5
525
330
1A
100
AcDbEntity
  8
SEIHIN
  6
CONTINUOUS
 62
     3
 48
16.0
100
AcDbLine
 10
445.4763053552566
 20
384.9671837982005
 30
0.0
 11
445.4763053552566
 21
388.4671837982007
 31
0.0
  0
LINE
  5
526
330
1A
100
AcDbEntity
  8
SEIHIN
  6
CONTINUOUS
 62
     3
 48
16.0
100
AcDbLine
 10
445.4763053552566
 20
406.9672837982007
 30
0.0
 11
445.4763053552566
 21
403.4672837982007
 31
0.0
  0
LINE
  5
527
330
1A
100
AcDbEntity
  8
SEIHIN
  6
CONTINUOUS
 62
     3
 48
16.0
100
AcDbLine
 10
434.4679053552566
 20
406.9672837982007
 30
0.0
 11
434.4679053552566
 21
403.4672837982007
 31
0.0
  0
ARC
  5
528
330
1A
100
AcDbEntity
  8
SEIHIN
  6
CONTINUOUS
 62
     3
 48
16.0
100
AcDbCircle
 10
439.9720553552565
 20
436.340383798283
 30
0.0
 40
29.88425666178319
100
AcDbArc
 50
259.3865397477246
 51
280.6134602522753
  0
LINE
  5
529
330
1A
100
AcDbEntity
  8
SEIHIN
  6
CONTINUOUS
 62
     3
 48
16.0
100
AcDbLine
 10
434.4679053552566
 20
398.4672837982007
 30
0.0
 11
434.4679053552566
 21
395.9672837982007
 31
0.0
  0
LINE
  5
52A
330
1A
100
AcDbEntity
  8
SEIHIN
  6
CONTINUOUS
 62
     3
 48
16.0
100
AcDbLine
 10
445.4763053552566
 20
398.4672837982007
 30
0.0
 11
445.4763053552566
 21
395.9672837982007
 31
0.0
  0
LINE
  5
52B
330
1A
100
AcDbEntity
  8
SEIHIN
  6
CONTINUOUS
 62
     3
 48
16.0
100
AcDbLine
 10
463.3547053552566
 20
390.4672837982007
 30
0.0
 11
463.3547053552566
 21
395.9671837982005
 31
0.0
  0
LINE
  5
52C
330
1A
100
AcDbEntity
  8
SEIHIN
  6
CONTINUOUS
 62
     3
 48
16.0
100
AcDbLine
 10
448.1474053552564
 20
395.9672837982007
 30
0.0
 11
448.1474053552564
 21
386.9672837982007
 31
0.0
  0
LINE
  5
52D
330
1A
100
AcDbEntity
  8
SEIHIN
  6
CONTINUOUS
 62
     3
 48
16.0
100
AcDbLine
 10
455.8268053552565
 20
388.4672837982007
 30
0.0
 11
455.8268053552565
 21
395.9671837982005
 31
0.0
  0
LINE
  5
52E
330
1A
100
AcDbEntity
  8
SEIHIN
  6
CONTINUOUS
 62
     3
 48
16.0
100
AcDbLine
 10
477.9474053552566
 20
389.9672837982007
 30
0.0
 11
477.9474053552566
 21
395.9671837982005
 31
0.0
  0
LINE
  5
52F
330
1A
100
AcDbEntity
  8
SEIHIN
  6
CONTINUOUS
 62
     3
 48
16.0
100
AcDbLine
 10
457.3268053552566
 20
395.9671837982005
 30
0.0
 11
457.3268053552566
 21
388.9672837982007
 31
0.0
  0
LINE
  5
530
330
1A
100
AcDbEntity
  8
SEIHIN
  6
CONTINUOUS
 62
     3
 48
16.0
100
AcDbLine
 10
464.7474053552564
 20
389.9672837982007
 30
0.0
 11
464.7474053552564
 21
395.9671837982005
 31
0.0
  0
ARC
  5
531
330
1A
100
AcDbEntity
  8
SEIHIN
  6
CONTINUOUS
 62
     3
 48
16.0
100
AcDbCircle
 10
462.7474053552565
 20
385.9672837982007
 30
0.0
 40
2.0
100
AcDbArc
 50
0.0
 51
90.0
  0
ARC
  5
532
330
1A
100
AcDbEntity
  8
SEIHIN
  6
CONTINUOUS
 62
     3
 48
16.0
100
AcDbCircle
 10
462.7474053552565
 20
389.9672837982007
 30
0.0
 40
2.0
100
AcDbArc
 50
270.0
 51
0.0
  0
LINE
  5
533
330
1A
100
AcDbEntity
  8
SEIHIN
  6
CONTINUOUS
 62
     3
 48
16.0
100
AcDbLine
 10
475.9474053552566
 20
387.9672837982007
 30
0.0
 11
458.3268053552566
 21
387.9672837982007
 31
0.0
  0
LINE
  5
534
330
1A
100
AcDbEntity
  8
SEIHIN
  6
CONTINUOUS
 62
     3
 48
16.0
100
AcDbLine
 10
459.1474053552565
 20
383.4671837982005
 30
0.0
 11
459.1474053552565
 21
386.4672837982007
 31
0.0
  0
LINE
  5
535
330
1A
100
AcDbEntity
  8
SEIHIN
  6
CONTINUOUS
 62
     3
 48
16.0
100
AcDbLine
 10
458.3474053552566
 20
386.4672837982007
 30
0.0
 11
458.3474053552566
 21
383.4671837982005
 31
0.0
  0
LINE
  5
536
330
1A
100
AcDbEntity
  8
SEIHIN
  6
CONTINUOUS
 62
     3
 48
16.0
100
AcDbLine
 10
458.3474053552566
 20
383.4672837982007
 30
0.0
 11
459.1473053552566
 21
383.4672837982007
 31
0.0
  0
LINE
  5
537
330
1A
100
AcDbEntity
  8
SEIHIN
  6
CONTINUOUS
 62
     3
 48
16.0
100
AcDbLine
 10
456.5040053552565
 20
386.9672837982007
 30
0.0
 11
448.1474053552564
 21
386.9672837982007
 31
0.0
  0
LINE
  5
538
330
1A
100
AcDbEntity
  8
SEIHIN
  6
CONTINUOUS
 62
     3
 48
16.0
100
AcDbLine
 10
450.8143053552564
 20
384.9671837982005
 30
0.0
 11
450.8143053552564
 21
386.9672837982007
 31
0.0
  0
LINE
  5
539
330
1A
100
AcDbEntity
  8
SEIHIN
  6
CONTINUOUS
 62
     3
 48
16.0
100
AcDbLine
 10
462.3547053552566
 20
386.4672837982007
 30
0.0
 11
457.8268053552564
 21
386.4672837982007
 31
0.0
  0
ARC
  5
53A
330
1A
100
AcDbEntity
  8
SEIHIN
  6
CONTINUOUS
 62
     3
 48
16.0
100
AcDbCircle
 10
462.3547053552566
 20
385.4672837982007
 30
0.0
 40
1.0
100
AcDbArc
 50
0.0
 51
90.0
  0
LINE
  5
53B
330
1A
100
AcDbEntity
  8
SEIHIN
  6
CONTINUOUS
 62
     3
 48
16.0
100
AcDbLine
 10
457.3268053552566
 20
389.4672837982007
 30
0.0
 11
462.3547053552566
 21
389.4672837982007
 31
0.0
  0
ARC
  5
53C
330
1A
100
AcDbEntity
  8
SEIHIN
  6
CONTINUOUS
 62
     3
 48
16.0
100
AcDbCircle
 10
458.3268053552566
 20
388.9672837982007
 30
0.0
 40
1.0
100
AcDbArc
 50
180.0
 51
270.0
  0
ARC
  5
53D
330
1A
100
AcDbEntity
  8
SEIHIN
  6
CONTINUOUS
 62
     3
 48
16.0
100
AcDbCircle
 10
457.8268053552565
 20
388.4672837982007
 30
0.0
 40
1.999999999999914
100
AcDbArc
 50
179.9999999999975
 51
269.9999999999975
  0
ARC
  5
53E
330
1A
100
AcDbEntity
  8
SEIHIN
  6
CONTINUOUS
 62
     3
 48
16.0
100
AcDbCircle
 10
462.3547053552566
 20
390.4672837982007
 30
0.0
 40
1.0
100
AcDbArc
 50
270.0
 51
0.0
  0
ARC
  5
53F
330
1A
100
AcDbEntity
  8
SEIHIN
  6
CONTINUOUS
 62
     3
 48
16.0
100
AcDbCircle
 10
475.9474053552566
 20
389.9672837982007
 30
0.0
 40
2.0
100
AcDbArc
 50
270.0
 51
0.0
  0
ARC
  5
540
330
1A
100
AcDbEntity
  8
SEIHIN
  6
CONTINUOUS
 62
     3
 48
16.0
100
AcDbCircle
 10
462.7474053552565
 20
405.9672837982007
 30
0.0
 40
2.0
100
AcDbArc
 50
270.0
 51
0.0
  0
ARC
  5
541
330
1A
100
AcDbEntity
  8
SEIHIN
  6
CONTINUOUS
 62
     3
 48
16.0
100
AcDbCircle
 10
462.7474053552565
 20
401.9672837982007
 30
0.0
 40
2.0
100
AcDbArc
 50
0.0
 51
90.0
  0
LINE
  5
542
330
1A
100
AcDbEntity
  8
SEIHIN
  6
CONTINUOUS
 62
     3
 48
16.0
100
AcDbLine
 10
475.9474053552566
 20
403.9672837982007
 30
0.0
 11
458.3268053552566
 21
403.9672837982007
 31
0.0
  0
LINE
  5
543
330
1A
100
AcDbEntity
  8
SEIHIN
  6
CONTINUOUS
 62
     3
 48
16.0
100
AcDbLine
 10
459.1474053552565
 20
408.4672837982007
 30
0.0
 11
459.1474053552565
 21
405.4672837982007
 31
0.0
  0
LINE
  5
544
330
1A
100
AcDbEntity
  8
SEIHIN
  6
CONTINUOUS
 62
     3
 48
16.0
100
AcDbLine
 10
458.3474053552566
 20
405.4672837982007
 30
0.0
 11
458.3474053552566
 21
408.4672837982007
 31
0.0
  0
LINE
  5
545
330
1A
100
AcDbEntity
  8
SEIHIN
  6
CONTINUOUS
 62
     3
 48
16.0
100
AcDbLine
 10
450.8143053552564
 20
406.9672837982007
 30
0.0
 11
450.8143053552564
 21
404.9672837982007
 31
0.0
  0
LINE
  5
546
330
1A
100
AcDbEntity
  8
SEIHIN
  6
CONTINUOUS
 62
     3
 48
16.0
100
AcDbLine
 10
456.5040053552565
 20
404.9672837982007
 30
0.0
 11
448.1474053552564
 21
404.9672837982007
 31
0.0
  0
LINE
  5
547
330
1A
100
AcDbEntity
  8
SEIHIN
  6
CONTINUOUS
 62
     3
 48
16.0
100
AcDbLine
 10
448.1474053552564
 20
395.9672837982007
 30
0.0
 11
448.1474053552564
 21
404.9672837982007
 31
0.0
  0
LINE
  5
548
330
1A
100
AcDbEntity
  8
SEIHIN
  6
CONTINUOUS
 62
     3
 48
16.0
100
AcDbLine
 10
462.3547053552566
 20
405.4672837982007
 30
0.0
 11
457.8268053552564
 21
405.4672837982007
 31
0.0
  0
ARC
  5
549
330
1A
100
AcDbEntity
  8
SEIHIN
  6
CONTINUOUS
 62
     3
 48
16.0
100
AcDbCircle
 10
462.3547053552566
 20
406.4672837982007
 30
0.0
 40
1.0
100
AcDbArc
 50
270.0
 51
0.0
  0
ARC
  5
54A
330
1A
100
AcDbEntity
  8
SEIHIN
  6
CONTINUOUS
 62
     3
 48
16.0
100
AcDbCircle
 10
462.3547053552566
 20
401.4672837982007
 30
0.0
 40
1.0
100
AcDbArc
 50
0.0
 51
90.0
  0
LINE
  5
54B
330
1A
100
AcDbEntity
  8
SEIHIN
  6
CONTINUOUS
 62
     3
 48
16.0
100
AcDbLine
 10
457.3268053552566
 20
402.4672837982008
 30
0.0
 11
462.3547053552566
 21
402.4672837982008
 31
0.0
  0
ARC
  5
54C
330
1A
100
AcDbEntity
  8
SEIHIN
  6
CONTINUOUS
 62
     3
 48
16.0
100
AcDbCircle
 10
458.3268053552566
 20
402.9672837982007
 30
0.0
 40
1.0
100
AcDbArc
 50
90.0
 51
180.0
  0
ARC
  5
54D
330
1A
100
AcDbEntity
  8
SEIHIN
  6
CONTINUOUS
 62
     3
 48
16.0
100
AcDbCircle
 10
457.8268053552565
 20
403.4672837982008
 30
0.0
 40
1.999999999999914
100
AcDbArc
 50
90.00000000000245
 51
180.0000000000024
  0
LINE
  5
54E
330
1A
100
AcDbEntity
  8
SEIHIN
  6
CONTINUOUS
 62
     3
 48
16.0
100
AcDbLine
 10
455.8268053552565
 20
403.4672837982007
 30
0.0
 11
455.8268053552565
 21
395.9672837982007
 31
0.0
  0
LINE
  5
54F
330
1A
100
AcDbEntity
  8
SEIHIN
  6
CONTINUOUS
 62
     3
 48
16.0
100
AcDbLine
 10
457.3268053552566
 20
395.9672837982007
 30
0.0
 11
457.3268053552566
 21
402.9672837982007
 31
0.0
  0
LINE
  5
550
330
1A
100
AcDbEntity
  8
SEIHIN
  6
CONTINUOUS
 62
     3
 48
16.0
100
AcDbLine
 10
463.3547053552566
 20
401.4672837982007
 30
0.0
 11
463.3547053552566
 21
395.9672837982007
 31
0.0
  0
LINE
  5
551
330
1A
100
AcDbEntity
  8
SEIHIN
  6
CONTINUOUS
 62
     3
 48
16.0
100
AcDbLine
 10
458.3474053552566
 20
408.4672837982007
 30
0.0
 11
459.1473053552566
 21
408.4672837982007
 31
0.0
  0
LINE
  5
552
330
1A
100
AcDbEntity
  8
SEIHIN
  6
CONTINUOUS
 62
     3
 48
16.0
100
AcDbLine
 10
464.7474053552564
 20
401.9672837982007
 30
0.0
 11
464.7474053552564
 21
395.9672837982007
 31
0.0
  0
ARC
  5
553
330
1A
100
AcDbEntity
  8
SEIHIN
  6
CONTINUOUS
 62
     3
 48
16.0
100
AcDbCircle
 10
475.9474053552566
 20
401.9672837982007
 30
0.0
 40
2.0
100
AcDbArc
 50
0.0
 51
90.0
  0
LINE
  5
554
330
1A
100
AcDbEntity
  8
SEIHIN
  6
CONTINUOUS
 62
     3
 48
16.0
100
AcDbLine
 10
477.9474053552566
 20
401.9672837982007
 30
0.0
 11
477.9474053552566
 21
395.9672837982007
 31
0.0
  0
LINE
  5
56A
330
1A
100
AcDbEntity
  8
SEIHIN
  6
CONTINUOUS
 62
     3
 48
16.0
100
AcDbLine
 10
474.8891053552565
 20
425.9672837982007
 30
0.0
 11
464.3547053552565
 21
425.9672837982008
 31
0.0
  0
LINE
  5
56B
330
1A
100
AcDbEntity
  8
CENTER_L
  6
CENTER
 62
     1
 48
5.0
100
AcDbLine
 10
475.8890053552568
 20
420.9672837982007
 30
0.0
 11
471.9474053552565
 21
420.9672837982007
 31
0.0
  0
ELLIPSE
  5
56C
330
1A
100
AcDbEntity
  8
SEIHIN
  6
CONTINUOUS
100
AcDbEllipse
 10
465.2115545024939
 20
420.9672837982007
 30
0.0
 11
-0.0000000000000033
 21
1.99999999999987
 31
0.0
210
0.0
220
0.0
230
1.0
 40
0.3714043055254832
 41
-1.926247109044981
 42
-1.2153455445446
  0
ELLIPSE
  5
56D
330
1A
100
AcDbEntity
  8
SEIHIN
  6
CONTINUOUS
100
AcDbEllipse
 10
466.6043053552568
 20
420.9672837982007
 30
0.0
 11
0.0
 21
-2.0
 31
0.0
210
0.0
220
0.0
230
1.0
 40
0.3714043055254592
 41
0.0
 42
6.283185307179586
  0
ELLIPSE
  5
56E
330
1A
100
AcDbEntity
  8
SEIHIN
  6
CONTINUOUS
100
AcDbEllipse
 10
472.6393539828376
 20
420.9672837982007
 30
0.0
 11
-0.0000000000000033
 21
1.99999999999987
 31
0.0
210
0.0
220
0.0
230
1.0
 40
0.3714043055254832
 41
-1.926247109044981
 42
-1.2153455445446
  0
ELLIPSE
  5
56F
330
1A
100
AcDbEntity
  8
SEIHIN
  6
CONTINUOUS
100
AcDbEllipse
 10
474.0321048356005
 20
420.9672837982007
 30
0.0
 11
0.0
 21
-2.0
 31
0.0
210
0.0
220
0.0
230
1.0
 40
0.3714043055254592
 41
0.0
 42
6.283185307179586
  0
DIMENSION
  5
5FF
330
1A
100
AcDbEntity
  8
SUNPOU
  6
CONTINUOUS
100
AcDbDimension
  2
*D2
 10
552.8056104287229
 20
276.4221043976855
 30
0.0
 11
551.8778501287772
 21
292.206250267144
 31
0.0
 12
-48.2088928804336
 22
91.62776264587614
 32
0.0
 70
    33
  3
STANDARD
100
AcDbAlignedDimension
 13
580.0675795561469
 23
319.6358590576096
 33
0.0
 14
591.2080356176841
 24
291.7810526725176
 34
0.0
1001
ACAD
1000
DSTYLE
1002
{
1070
   140
1040
6.0
1070
    74
1070
     0
1070
   172
1070
     1
1070
    73
1070
     0
1070
   272
1070
     2
1070
    77
1070
     3
1070
   173
1070
     1
1070
   147
1040
2.0
1070
    42
1040
6.0
1070
    44
1040
3.0
1070
    43
1040
14.0
1070
   271
1070
     0
1070
   178
1070
     4
1070
   177
1070
     4
1070
   176
1070
     4
1070
   141
1040
150.0
1070
     7
1000
_OPEN
1070
     6
1000
_OPEN
1070
    41
1040
7.0
1002
}
  0
MTEXT
  5
600
330
1A
100
AcDbEntity
  8
SUNPOU
  6
CONTINUOUS
 62
     4
100
AcDbMText
 10
560.4699063734697
 20
334.4238230303989
 30
0.0
 40
6.0
 41
0.0
 71
     9
 72
     5
  1
4-φ4.0
1001
ACAD
1000
MTEXTBEGIN
1070
    73
1070
     1
1070
    44
1040
1.0
1070
    74
1070
     0
1000
MTEXTEND
1000
MTEXTBEGIN
1070
    73
1070
     1
1070
    44
1040
1.0
1070
    74
1070
     0
1000
MTEXTEND
1000
MTEXTBEGIN
1070
    73
1070
     1
1070
    44
1040
1.0
1070
    74
1070
     0
1000
MTEXTEND
  0
LEADER
  5
601
330
1A
100
AcDbEntity
  8
SUNPOU
  6
CONTINUOUS
 62
     4
100
AcDbLeader
  3
STANDARD
 73
     0
 40
6.0
 41
30.19999999999999
 76
     3
 10
584.7285423225327
 20
317.6380715706871
 30
0.0
 10
565.2581014204407
 20
332.4238230303989
 30
0.0
 10
562.4699063734697
 20
332.4238230303989
 30
0.0
1001
ACAD
1000
DSTYLE
1002
{
1070
     6
1000
OPEN
1070
    41
1040
7.0
1070
    42
1040
6.0
1070
    43
1040
14.0
1070
    44
1040
3.0
1070
    73
1070
     0
1070
    74
1070
     0
1070
    77
1070
     3
1070
   140
1040
6.0
1070
   141
1040
150.0
1070
   147
1040
2.0
1070
   172
1070
     1
1070
   173
1070
     1
1070
   176
1070
     4
1070
   177
1070
     4
1070
   178
1070
     4
1070
   271
1070
     0
1070
   272
1070
     2
1070
   341
1005
6D
1070
   343
1005
6D
1070
   344
1005
6D
1002
}
  0
DIMENSION
  5
602
330
1A
100
AcDbEntity
  8
SUNPOU
  6
CONTINUOUS
100
AcDbDimension
  2
*D3
 10
577.7677259666559
 20
338.8505400930337
 30
0.0
 11
600.8826143849716
 21
348.095367888254
 31
0.0
 12
8.542156426023666
 22
3.416412845211084
 32
0.0
 70
   160
  3
STANDARD
100
AcDbAlignedDimension
 13
631.1347308729797
 23
340.0600310144296
 33
0.0
 14
584.7100535647277
 24
321.4926042452947
 34
0.0
 50
21.79899999999983
100
AcDbRotatedDimension
1001
ACAD
1000
DSTYLE
1002
{
1070
   140
1040
6.0
1070
    74
1070
     0
1070
   172
1070
     1
1070
    73
1070
     0
1070
   272
1070
     2
1070
    77
1070
     3
1070
   173
1070
     1
1070
   147
1040
2.0
1070
    42
1040
6.0
1070
    44
1040
3.0
1070
    43
1040
14.0
1070
   271
1070
     0
1070
   178
1070
     4
1070
   177
1070
     4
1070
   176
1070
     4
1070
   141
1040
150.0
1070
     7
1000
_OPEN
1070
     6
1000
_OPEN
1070
    41
1040
7.0
1002
}
  0
DIMENSION
  5
603
330
1A
100
AcDbEntity
  8
SUNPOU
  6
CONTINUOUS
100
AcDbDimension
  2
*D4
 10
567.2153944299195
 20
351.7702407578153
 30
0.0
 11
593.2134055280538
 21
367.5532512102381
 31
0.0
 12
-48.2088928804336
 22
91.62776264587614
 32
0.0
 70
    32
  3
STANDARD
100
AcDbAlignedDimension
 13
635.7771923263307
 23
341.9167711806839
 33
0.0
 14
580.0675795561468
 24
319.6358590576094
 34
0.0
 50
21.79899999999983
100
AcDbRotatedDimension
1001
ACAD
1000
DSTYLE
1002
{
1070
   140
1040
6.0
1070
    74
1070
     0
1070
   172
1070
     1
1070
    73
1070
     0
1070
   272
1070
     2
1070
    77
1070
     3
1070
   173
1070
     1
1070
   147
1040
2.0
1070
    42
1040
6.0
1070
    44
1040
3.0
1070
    43
1040
14.0
1070
   271
1070
     0
1070
   178
1070
     4
1070
   177
1070
     4
1070
   176
1070
     4
1070
   141
1040
150.0
1070
     7
1000
_OPEN
1070
     6
1000
_OPEN
1070
    41
1040
7.0
1002
}
  0
LINE
  5
604
330
1A
100
AcDbEntity
  8
SEIHIN
  6
CONTINUOUS
 62
     3
 48
16.0
100
AcDbLine
 10
616.743062870383
 20
334.3041556075565
 30
0.0
 11
627.8835189319202
 21
306.4493492224646
 31
0.0
  0
LINE
  5
606
330
1A
100
AcDbEntity
  8
SEIHIN
  6
CONTINUOUS
 62
     3
 48
16.0
100
AcDbLine
 10
627.6049826274413
 20
306.3379152595543
 30
0.0
 11
645.9891548417033
 21
313.6906162602095
 31
0.0
  0
LINE
  5
607
330
1A
100
AcDbEntity
  8
SEIHIN
  6
CONTINUOUS
 62
     3
 48
16.0
100
AcDbLine
 10
607.9223859412389
 20
330.7763151191466
 30
0.0
 11
634.848698780166
 21
341.5454226453014
 31
0.0
  0
LINE
  5
608
330
1A
100
AcDbEntity
  8
CENTER_L
  6
CENTER
 62
     1
 48
5.0
100
AcDbLine
 10
604.8536474734417
 20
338.4490970075014
 30
0.0
 11
629.0893040784888
 21
277.8522036330475
 31
0.0
  0
DIMENSION
  5
609
330
1A
100
AcDbEntity
  8
SUNPOU
  6
CONTINUOUS
100
AcDbDimension
  2
*D5
 10
564.3153757171252
 20
286.4104715982784
 30
0.0
 11
560.6018903632794
 21
295.6954070599757
 31
0.0
 12
8.542156426023666
 22
3.416412845211084
 32
0.0
 70
   161
  3
STANDARD
100
AcDbAlignedDimension
 13
581.9243222330696
 23
314.9933913267608
 33
0.0
 14
589.351292940761
 24
296.4235204033662
 34
0.0
1001
ACAD
1000
DSTYLE
1002
{
1070
   140
1040
6.0
1070
    74
1070
     0
1070
   172
1070
     1
1070
    73
1070
     0
1070
   272
1070
     2
1070
    77
1070
     3
1070
   173
1070
     1
1070
   147
1040
2.0
1070
    42
1040
6.0
1070
    44
1040
3.0
1070
    43
1040
14.0
1070
   271
1070
     0
1070
   178
1070
     4
1070
   177
1070
     4
1070
   176
1070
     4
1070
   141
1040
150.0
1070
     7
1000
_OPEN
1070
     6
1000
_OPEN
1070
    41
1040
7.0
1002
}
  0
LINE
  5
60A
330
1A
100
AcDbEntity
  8
SEIHIN
  6
CONTINUOUS
 62
     3
 48
16.0
100
AcDbLine
 10
607.6427036611193
 20
305.8931144039615
 30
0.0
 11
606.5284223051754
 21
303.2934265265817
 31
0.0
  0
LINE
  5
60B
330
1A
100
AcDbEntity
  8
SEIHIN
  6
CONTINUOUS
 62
     3
 48
16.0
100
AcDbLine
 10
599.1017090120947
 20
327.2484746307367
 30
0.0
 11
610.242165073632
 21
299.3936682456448
 31
0.0
  0
LINE
  5
60D
330
1A
100
AcDbEntity
  8
SEIHIN
  6
CONTINUOUS
 62
     3
 48
16.0
100
AcDbLine
 10
580.4389280915293
 20
318.7073655114449
 30
0.0
 11
590.8366870823015
 21
292.709546218682
 31
0.0
  0
LINE
  5
60E
330
1A
100
AcDbEntity
  8
CENTER_L
  6
CENTER
 62
     1
 48
5.0
100
AcDbLine
 10
585.3723467305467
 20
319.8366511774959
 30
0.0
 11
588.4236027495663
 21
312.2074968601835
 31
0.0
  0
LINE
  5
60F
330
1A
100
AcDbEntity
  8
SEIHIN
  6
CONTINUOUS
 62
     3
 48
16.0
100
AcDbLine
 10
610.5207013781111
 20
299.5051022085552
 30
0.0
 11
592.1365291638485
 21
292.1524012078999
 31
0.0
  0
LINE
  5
610
330
1A
100
AcDbEntity
  8
CENTER_L
  6
CENTER
 62
     1
 48
5.0
100
AcDbLine
 10
598.4079771398114
 20
300.0457522870196
 30
0.0
 11
590.5866364821238
 21
296.917597558365
 31
0.0
  0
ARC
  5
611
330
1A
100
AcDbEntity
  8
SEIHIN
  6
CONTINUOUS
 62
     3
 48
16.0
100
AcDbCircle
 10
593.9938318567751
 20
298.2803095011301
 30
0.0
 40
2.0
100
AcDbArc
 50
21.79899999999983
 51
201.7989999999998
  0
ARC
  5
612
330
1A
100
AcDbEntity
  8
SEIHIN
  6
CONTINUOUS
 62
     3
 48
16.0
100
AcDbCircle
 10
593.9938318567751
 20
298.2803095011301
 30
0.0
 40
2.0
100
AcDbArc
 50
201.7989999999998
 51
21.79899999999983
  0
LINE
  5
613
330
1A
100
AcDbEntity
  8
SEIHIN
  6
CONTINUOUS
 62
     3
 48
16.0
100
AcDbLine
 10
609.128073047392
 20
302.1792380198687
 30
0.0
 11
606.5283851700122
 21
303.2935193758127
 31
0.0
  0
LINE
  5
614
330
1A
100
AcDbEntity
  8
CENTER_L
  6
CENTER
 62
     1
 48
5.0
100
AcDbLine
 10
590.9810373818635
 20
318.6156355888018
 30
0.0
 11
583.3730642566304
 21
315.5728174648038
 31
0.0
  0
ARC
  5
615
330
1A
100
AcDbEntity
  8
SEIHIN
  6
CONTINUOUS
 62
     3
 48
16.0
100
AcDbCircle
 10
586.5667992495964
 20
316.8501556677493
 30
0.0
 40
2.0
100
AcDbArc
 50
21.79899999999983
 51
201.7989999999998
  0
ARC
  5
616
330
1A
100
AcDbEntity
  8
SEIHIN
  6
CONTINUOUS
 62
     3
 48
16.0
100
AcDbCircle
 10
586.5667992495964
 20
316.8501556677493
 30
0.0
 40
2.0
100
AcDbArc
 50
201.7989999999998
 51
21.79899999999983
  0
LINE
  5
617
330
1A
100
AcDbEntity
  8
SEIHIN
  6
CONTINUOUS
 62
     3
 48
16.0
100
AcDbLine
 10
607.9223859412389
 20
330.7763151191466
 30
0.0
 11
580.9960731023113
 21
320.007207592992
 31
0.0
  0
LINE
  5
618
330
1A
100
AcDbEntity
  8
SEIHIN
  6
CONTINUOUS
 62
     3
 48
16.0
100
AcDbLine
 10
600.2157639031715
 20
324.4629977057438
 30
0.0
 11
599.1014825472274
 21
321.863309828364
 31
0.0
  0
LINE
  5
619
330
1A
100
AcDbEntity
  8
SEIHIN
  6
CONTINUOUS
 62
     3
 48
16.0
100
AcDbLine
 10
601.7011332894441
 20
320.7491213216509
 30
0.0
 11
599.1014454120643
 21
321.863402677595
 31
0.0
  0
LINE
  5
61A
330
1A
100
AcDbEntity
  8
SEIHIN
  6
CONTINUOUS
 62
     3
 48
16.0
100
AcDbLine
 10
617.857024912229
 20
331.5186415474006
 30
0.0
 11
620.4567127896088
 21
330.4043601914565
 31
0.0
  0
LINE
  5
61B
330
1A
100
AcDbEntity
  8
SEIHIN
  6
CONTINUOUS
 62
     3
 48
16.0
100
AcDbLine
 10
619.3425242828955
 20
327.8047094492397
 30
0.0
 11
620.4568056388396
 21
330.4043973266196
 31
0.0
  0
LINE
  5
61C
330
1A
100
AcDbEntity
  8
SEIHIN
  6
CONTINUOUS
 62
     3
 48
16.0
100
AcDbLine
 10
636.148540861713
 20
340.9882776345194
 30
0.0
 11
646.5462998524854
 21
314.9904583417567
 31
0.0
  0
LINE
  5
61D
330
1A
100
AcDbEntity
  8
CENTER_L
  6
CENTER
 62
     1
 48
5.0
100
AcDbLine
 10
631.7969992822582
 20
338.4041398462117
 30
0.0
 11
634.8482181664667
 21
330.775078378271
 31
0.0
  0
LINE
  5
61E
330
1A
100
AcDbEntity
  8
CENTER_L
  6
CENTER
 62
     1
 48
5.0
100
AcDbLine
 10
636.0041905621516
 20
315.0821882643997
 30
0.0
 11
643.8256240690698
 21
318.2103801282173
 31
0.0
  0
LINE
  5
61F
330
1A
100
AcDbEntity
  8
SEIHIN
  6
CONTINUOUS
 62
     3
 48
16.0
100
AcDbLine
 10
625.2840575194077
 20
312.9487953807814
 30
0.0
 11
627.8837453967875
 21
311.8345140248372
 31
0.0
  0
LINE
  5
620
330
1A
100
AcDbEntity
  8
SEIHIN
  6
CONTINUOUS
 62
     3
 48
16.0
100
AcDbLine
 10
626.7694640408434
 20
309.2348261474575
 30
0.0
 11
627.8837453967875
 21
311.8345140248372
 31
0.0
  0
ARC
  5
621
330
1A
100
AcDbEntity
  8
SEIHIN
  6
CONTINUOUS
 62
     3
 48
16.0
100
AcDbCircle
 10
640.4184286944186
 20
316.8476681854522
 30
0.0
 40
2.0
100
AcDbArc
 50
21.79899999999983
 51
201.7989999999998
  0
ARC
  5
622
330
1A
100
AcDbEntity
  8
SEIHIN
  6
CONTINUOUS
 62
     3
 48
16.0
100
AcDbCircle
 10
640.4184286944186
 20
316.8476681854522
 30
0.0
 40
2.0
100
AcDbArc
 50
201.7989999999998
 51
21.79899999999983
  0
LINE
  5
623
330
1A
100
AcDbEntity
  8
CENTER_L
  6
CENTER
 62
     1
 48
5.0
100
AcDbLine
 10
628.5771579549729
 20
333.6520344310191
 30
0.0
 11
636.1852239294365
 21
336.6948896901801
 31
0.0
  0
ARC
  5
624
330
1A
100
AcDbEntity
  8
SEIHIN
  6
CONTINUOUS
 62
     3
 48
16.0
100
AcDbCircle
 10
632.9914889364706
 20
335.4175514872345
 30
0.0
 40
2.0
100
AcDbArc
 50
21.79899999999983
 51
201.7989999999998
  0
ARC
  5
625
330
1A
100
AcDbEntity
  8
SEIHIN
  6
CONTINUOUS
 62
     3
 48
16.0
100
AcDbCircle
 10
632.9914889364706
 20
335.4175514872345
 30
0.0
 40
2.0
100
AcDbArc
 50
201.7989999999998
 51
21.79899999999983
  0
DIMENSION
  5
697
330
1A
100
AcDbEntity
  8
SUNPOU
  6
CONTINUOUS
100
AcDbDimension
  2
*D6
 10
487.7777485771353
 20
216.1954524680882
 30
0.0
 11
508.1042357766111
 21
229.7512121550129
 31
0.0
 12
-4.387049744352566
 22
-49.31671127476261
 32
0.0
 70
    33
  1
t<>
  3
STANDARD
100
AcDbAlignedDimension
 13
474.4963329414206
 23
245.3600148326663
 33
0.0
 14
475.8890835361476
 24
245.9171150705572
 34
0.0
1001
ACAD
1000
DSTYLE
1002
{
1070
   140
1040
6.0
1070
    74
1070
     0
1070
   172
1070
     1
1070
    73
1070
     0
1070
   272
1070
     2
1070
    77
1070
     3
1070
   173
1070
     1
1070
   147
1040
2.0
1070
    42
1040
6.0
1070
    44
1040
3.0
1070
    43
1040
14.0
1070
   271
1070
     1
1070
   178
1070
     4
1070
   177
1070
     4
1070
   176
1070
     4
1070
   141
1040
150.0
1070
     7
1000
_OPEN
1070
     6
1000
_OPEN
1070
    41
1040
7.0
1002
}
  0
DIMENSION
  5
6DA
330
1A
100
AcDbEntity
  8
SUNPOU
  6
CONTINUOUS
100
AcDbDimension
  2
*D7
 10
458.3495053552566
 20
294.1005312981253
 30
0.0
 11
468.1484285611386
 21
299.1005312981253
 31
0.0
 12
-4.487049744352589
 22
-49.31671127476261
 32
0.0
 70
    32
  3
STANDARD
100
AcDbAlignedDimension
 13
477.9473517670206
 23
240.7714771404619
 33
0.0
 14
458.3495053552566
 24
234.9697337982006
 34
0.0
100
AcDbRotatedDimension
1001
ACAD
1000
DSTYLE
1002
{
1070
   140
1040
6.0
1070
    74
1070
     0
1070
   172
1070
     1
1070
    73
1070
     0
1070
   272
1070
     2
1070
    77
1070
     3
1070
   173
1070
     1
1070
   147
1040
2.0
1070
    42
1040
6.0
1070
    44
1040
3.0
1070
    43
1040
14.0
1070
   271
1070
     0
1070
   178
1070
     4
1070
   177
1070
     4
1070
   176
1070
     4
1070
   141
1040
150.0
1070
     7
1000
_OPEN
1070
     6
1000
_OPEN
1070
    41
1040
7.0
1002
}
  0
DIMENSION
  5
70C
330
1A
100
AcDbEntity
  8
SUNPOU
  6
CONTINUOUS
100
AcDbDimension
  2
*D8
 10
508.771216376881
 20
365.9672837982008
 30
0.0
 11
503.771216376881
 21
395.9672837982008
 31
0.0
 12
-4.487049744352589
 22
-34.31671127476261
 32
0.0
 70
    32
  3
STANDARD
100
AcDbAlignedDimension
 13
475.8890053552566
 23
425.9672837982007
 33
0.0
 14
475.8890053552566
 24
365.9672837982008
 34
0.0
 50
90.0
100
AcDbRotatedDimension
1001
ACAD
1000
DSTYLE
1002
{
1070
   140
1040
6.0
1070
    74
1070
     0
1070
   172
1070
     1
1070
    73
1070
     0
1070
   272
1070
     2
1070
    77
1070
     3
1070
   173
1070
     1
1070
   147
1040
2.0
1070
    42
1040
6.0
1070
    44
1040
3.0
1070
    43
1040
14.0
1070
   271
1070
     0
1070
   178
1070
     4
1070
   177
1070
     4
1070
   176
1070
     4
1070
   141
1040
150.0
1070
     7
1000
_OPEN
1070
     6
1000
_OPEN
1070
    41
1040
7.0
1002
}
  0
DIMENSION
  5
71B
330
1A
100
AcDbEntity
  8
SUNPOU
  6
CONTINUOUS
100
AcDbDimension
  2
*D9
 10
310.3298458494737
 20
383.4672837982007
 30
0.0
 11
305.3298458494737
 21
395.9672837982007
 31
0.0
 12
0.0
 22
15.0
 32
0.0
 70
    32
  3
STANDARD
100
AcDbAlignedDimension
 13
343.5474053552566
 23
408.4672837982007
 33
0.0
 14
343.5474053552566
 24
383.4672837982007
 34
0.0
 50
90.0
100
AcDbRotatedDimension
1001
ACAD
1000
DSTYLE
1002
{
1070
   140
1040
6.0
1070
    74
1070
     0
1070
   172
1070
     1
1070
    73
1070
     0
1070
   272
1070
     2
1070
    77
1070
     3
1070
   173
1070
     1
1070
   147
1040
2.0
1070
    42
1040
6.0
1070
    44
1040
3.0
1070
    43
1040
14.0
1070
   271
1070
     0
1070
   178
1070
     4
1070
   177
1070
     4
1070
   176
1070
     4
1070
   141
1040
150.0
1070
     7
1000
_OPEN
1070
     6
1000
_OPEN
1070
    41
1040
7.0
1002
}
  0
DIMENSION
  5
728
330
1A
100
AcDbEntity
  8
SUNPOU
  6
CONTINUOUS
100
AcDbDimension
  2
*D10
 10
342.8473053552564
 20
314.3622829692374
 30
0.0
 11
410.3979297602105
 21
319.3622829692374
 31
0.0
 12
-4.487049744352589
 22
-49.31671127476261
 32
0.0
 70
    32
  3
STANDARD
100
AcDbAlignedDimension
 13
477.9485541651645
 23
240.7684711641738
 33
0.0
 14
342.8473053552564
 24
258.9673837982006
 34
0.0
100
AcDbRotatedDimension
1001
ACAD
1000
DSTYLE
1002
{
1070
   140
1040
6.0
1070
    74
1070
     0
1070
   172
1070
     1
1070
    73
1070
     0
1070
   272
1070
     2
1070
    77
1070
     3
1070
   173
1070
     1
1070
   147
1040
2.0
1070
    42
1040
6.0
1070
    44
1040
3.0
1070
    43
1040
14.0
1070
   271
1070
     0
1070
   178
1070
     4
1070
   177
1070
     4
1070
   176
1070
     4
1070
   141
1040
150.0
1070
     7
1000
_OPEN
1070
     6
1000
_OPEN
1070
    41
1040
7.0
1002
}
  0
DIMENSION
  5
735
330
1A
100
AcDbEntity
  8
SUNPOU
  6
CONTINUOUS
100
AcDbDimension
  2
*D11
 10
310.3910195070252
 20
184.4672837982007
 30
0.0
 11
305.3910195070252
 21
221.7173337982007
 31
0.0
 70
    32
  3
STANDARD
100
AcDbAlignedDimension
 13
342.8473053552564
 23
258.9673837982006
 33
0.0
 14
367.0918053552566
 24
184.4672837982007
 34
0.0
 50
90.0
100
AcDbRotatedDimension
1001
ACAD
1000
DSTYLE
1002
{
1070
   140
1040
6.0
1070
    74
1070
     0
1070
   172
1070
     1
1070
    73
1070
     0
1070
   272
1070
     2
1070
    77
1070
     3
1070
   173
1070
     1
1070
   147
1040
2.0
1070
    42
1040
6.0
1070
    44
1040
3.0
1070
    43
1040
14.0
1070
   271
1070
     0
1070
   178
1070
     4
1070
   177
1070
     4
1070
   176
1070
     4
1070
   141
1040
150.0
1070
     7
1000
_OPEN
1070
     6
1000
_OPEN
1070
    41
1040
7.0
1002
}
  0
ARC
  5
736
330
1A
100
AcDbEntity
  8
SEIHIN
  6
CONTINUOUS
 62
     3
 48
16.0
100
AcDbCircle
 10
458.5473053552564
 20
237.9440224066216
 30
0.0
 40
1.3
100
AcDbArc
 50
0.0
 51
96.8666958171719
  0
ARC
  5
737
330
1A
100
AcDbEntity
  8
SEIHIN
  6
CONTINUOUS
 62
     3
 48
16.0
100
AcDbCircle
 10
457.8473053552565
 20
237.3611337205207
 30
0.0
 40
0.5
100
AcDbArc
 50
0.0
 51
96.8662239717954
  0
DIMENSION
  5
744
330
1A
100
AcDbEntity
  8
SUNPOU
  6
CONTINUOUS
100
AcDbDimension
  2
*D12
 10
435.1575160316838
 20
273.7714359888421
 30
0.0
 11
430.1575160316838
 21
254.8680348935214
 31
0.0
 12
-4.487049744352589
 22
-49.31671127476261
 32
0.0
 70
    32
  3
STANDARD
100
AcDbAlignedDimension
 13
452.1508053552564
 23
235.9646337982006
 33
0.0
 14
464.7472844788675
 24
273.7714359888421
 34
0.0
 50
90.0
100
AcDbRotatedDimension
1001
ACAD
1000
DSTYLE
1002
{
1070
   140
1040
6.0
1070
    74
1070
     0
1070
   172
1070
     1
1070
    73
1070
     0
1070
   272
1070
     2
1070
    77
1070
     3
1070
   173
1070
     1
1070
   147
1040
2.0
1070
    42
1040
6.0
1070
    44
1040
3.0
1070
    43
1040
14.0
1070
   271
1070
     0
1070
   178
1070
     4
1070
   177
1070
     4
1070
   176
1070
     4
1070
   141
1040
150.0
1070
     7
1000
_OPEN
1070
     6
1000
_OPEN
1070
    41
1040
7.0
1002
}
  0
DIMENSION
  5
751
330
1A
100
AcDbEntity
  8
SUNPOU
  6
CONTINUOUS
100
AcDbDimension
  2
*D13
 10
495.8543141878991
 20
253.9030926474228
 30
0.0
 11
490.8406021260474
 21
266.4375528017671
 31
0.0
 70
   161
  3
STANDARD
100
AcDbAlignedDimension
 13
464.7474053552564
 23
273.7714837982006
 33
0.0
 14
475.8890053552566
 24
245.9170837982007
 34
0.0
1001
ACAD
1000
DSTYLE
1002
{
1070
   140
1040
6.0
1070
    74
1070
     0
1070
   172
1070
     1
1070
    73
1070
     0
1070
   272
1070
     2
1070
    77
1070
     3
1070
   173
1070
     1
1070
   147
1040
2.0
1070
    42
1040
6.0
1070
    44
1040
3.0
1070
    43
1040
14.0
1070
   271
1070
     0
1070
   178
1070
     4
1070
   177
1070
     4
1070
   176
1070
     4
1070
   141
1040
150.0
1070
     7
1000
_OPEN
1070
     6
1000
_OPEN
1070
    41
1040
7.0
1002
}
  0
LINE
  5
77B
330
1A
100
AcDbEntity
  8
SEIHIN
  6
CONTINUOUS
 62
     3
 48
16.0
100
AcDbLine
 10
233.1072405399303
 20
195.9274837982007
 30
0.0
 11
231.1071713051017
 21
195.9274837982007
 31
0.0
  0
ARC
  5
77C
330
1A
100
AcDbEntity
  8
SEIHIN
  6
CONTINUOUS
 62
     3
100
AcDbCircle
 10
228.1071713051017
 20
196.1054727888413
 30
0.0
 40
3.00527537520096
100
AcDbArc
 50
183.3953591556151
 51
356.6046408443849
  0
ARC
  5
77D
330
1A
100
AcDbEntity
  8
SEIHIN
  6
CONTINUOUS
 62
     3
100
AcDbCircle
 10
238.1071405399302
 20
196.1054727888413
 30
0.0
 40
3.00527537520096
100
AcDbArc
 50
183.3953591556151
 51
356.6046408443849
  0
ARC
  5
77E
330
1A
100
AcDbEntity
  8
SEIHIN
  6
CONTINUOUS
 62
     3
 48
16.0
100
AcDbCircle
 10
351.1805053552564
 20
390.9672837982007
 30
0.0
 40
2.5
100
AcDbArc
 50
90.0
 51
270.0
  0
ARC
  5
77F
330
1A
100
AcDbEntity
  8
SEIHIN
  6
CONTINUOUS
 62
     3
 48
16.0
100
AcDbCircle
 10
351.1805053552566
 20
390.9672837982004
 30
0.0
 40
2.500000000000085
100
AcDbArc
 50
90.0
 51
270.0
  0
ARC
  5
780
330
1A
100
AcDbEntity
  8
SEIHIN
  6
CONTINUOUS
 62
     3
 48
16.0
100
AcDbCircle
 10
351.1805053552564
 20
400.9671837982007
 30
0.0
 40
2.5
100
AcDbArc
 50
90.0
 51
270.0
  0
ARC
  5
781
330
1A
100
AcDbEntity
  8
SEIHIN
  6
CONTINUOUS
 62
     3
 48
16.0
100
AcDbCircle
 10
351.1805053552566
 20
400.9671837982005
 30
0.0
 40
2.5
100
AcDbArc
 50
90.0
 51
270.0
  0
ARC
  5
783
330
1A
100
AcDbEntity
  8
SEIHIN
  6
CONTINUOUS
100
AcDbCircle
 10
370.8519053552565
 20
390.9671837982005
 30
0.0
 40
3.625000000000041
100
AcDbArc
 50
136.3971810272969
 51
223.602818972703
  0
ARC
  5
784
330
1A
100
AcDbEntity
  8
SEIHIN
  6
CONTINUOUS
100
AcDbCircle
 10
358.1292196409707
 20
390.9671837982005
 30
0.0
 40
2.660714285714282
100
AcDbArc
 50
110.0159596028825
 51
249.9840403971174
  0
ARC
  5
785
330
1A
100
AcDbEntity
  8
SEIHIN
  6
CONTINUOUS
100
AcDbCircle
 10
370.8519053552565
 20
400.9671837982005
 30
0.0
 40
3.625000000000041
100
AcDbArc
 50
136.3971810272969
 51
223.602818972703
  0
ARC
  5
786
330
1A
100
AcDbEntity
  8
SEIHIN
  6
CONTINUOUS
100
AcDbCircle
 10
358.1292196409707
 20
400.9671837982005
 30
0.0
 40
2.660714285714282
100
AcDbArc
 50
110.0159596028825
 51
249.9840403971174
  0
ARC
  5
788
330
1A
100
AcDbEntity
  8
SEIHIN
  6
CONTINUOUS
100
AcDbCircle
 10
431.8429053552567
 20
390.9671837982005
 30
0.0
 40
3.625000000000041
100
AcDbArc
 50
316.397181027297
 51
43.60281897270302
  0
ARC
  5
789
330
1A
100
AcDbEntity
  8
SEIHIN
  6
CONTINUOUS
100
AcDbCircle
 10
444.5655910695425
 20
390.9671837982005
 30
0.0
 40
2.660714285714282
100
AcDbArc
 50
290.0159596028825
 51
69.98404039711745
  0
ARC
  5
78A
330
1A
100
AcDbEntity
  8
SEIHIN
  6
CONTINUOUS
 48
16.0
100
AcDbCircle
 10
464.0744401155935
 20
385.9672837982007
 30
0.0
 40
2.0
100
AcDbArc
 50
20.3741090520725
 51
90.0
  0
LINE
  5
78B
330
1A
100
AcDbEntity
  8
SEIHIN
  6
CONTINUOUS
100
AcDbLine
 10
466.2079113398365
 20
384.9672837982007
 30
0.0
 11
466.4900387758925
 21
386.1067863327545
 31
0.0
  0
LINE
  5
78C
330
1A
100
AcDbEntity
  8
SEIHIN
  6
CONTINUOUS
100
AcDbLine
 10
465.9493189302443
 20
386.6635807394361
 30
0.0
 11
466.2079113398365
 21
384.9672837982007
 31
0.0
  0
ARC
  5
78D
330
1A
100
AcDbEntity
  8
SEIHIN
  6
CONTINUOUS
 48
16.0
100
AcDbCircle
 10
465.0340025203663
 20
386.4672837982007
 30
0.0
 40
1.5
100
AcDbArc
 50
346.0938849423411
 51
90.0
  0
ARC
  5
78E
330
1A
100
AcDbEntity
  8
SEIHIN
  6
CONTINUOUS
 48
16.0
100
AcDbCircle
 10
472.4618356545897
 20
386.4672837982007
 30
0.0
 40
1.5
100
AcDbArc
 50
346.0938849423411
 51
90.0
  0
ARC
  5
78F
330
1A
100
AcDbEntity
  8
SEIHIN
  6
CONTINUOUS
 48
16.0
100
AcDbCircle
 10
471.5022732498169
 20
385.9672837982007
 30
0.0
 40
2.0
100
AcDbArc
 50
20.3741090520725
 51
90.0
  0
LINE
  5
790
330
1A
100
AcDbEntity
  8
SEIHIN
  6
CONTINUOUS
100
AcDbLine
 10
473.6357444740598
 20
384.9672837982007
 30
0.0
 11
473.9178719101159
 21
386.1067863327545
 31
0.0
  0
LINE
  5
791
330
1A
100
AcDbEntity
  8
SEIHIN
  6
CONTINUOUS
100
AcDbLine
 10
473.3771520644676
 20
386.6635807394361
 30
0.0
 11
473.6357444740598
 21
384.9672837982007
 31
0.0
  0
ARC
  5
792
330
1A
100
AcDbEntity
  8
SEIHIN
  6
CONTINUOUS
100
AcDbCircle
 10
431.8429053552567
 20
400.9671837982005
 30
0.0
 40
3.625000000000041
100
AcDbArc
 50
316.397181027297
 51
43.60281897270302
  0
ARC
  5
793
330
1A
100
AcDbEntity
  8
SEIHIN
  6
CONTINUOUS
100
AcDbCircle
 10
444.5655910695425
 20
400.9671837982005
 30
0.0
 40
2.660714285714282
100
AcDbArc
 50
290.0159596028825
 51
69.98404039711745
  0
LINE
  5
794
330
1A
100
AcDbEntity
  8
SEIHIN
  6
CONTINUOUS
100
AcDbLine
 10
473.3771520644676
 20
405.2709868569652
 30
0.0
 11
473.6357444740598
 21
406.9672837982007
 31
0.0
  0
LINE
  5
795
330
1A
100
AcDbEntity
  8
SEIHIN
  6
CONTINUOUS
100
AcDbLine
 10
473.6357444740598
 20
406.9672837982007
 30
0.0
 11
473.9178719101159
 21
405.827781263647
 31
0.0
  0
LINE
  5
796
330
1A
100
AcDbEntity
  8
SEIHIN
  6
CONTINUOUS
100
AcDbLine
 10
466.2079113398365
 20
406.9672837982007
 30
0.0
 11
466.4900387758925
 21
405.827781263647
 31
0.0
  0
LINE
  5
797
330
1A
100
AcDbEntity
  8
SEIHIN
  6
CONTINUOUS
100
AcDbLine
 10
465.9493189302443
 20
405.2709868569652
 30
0.0
 11
466.2079113398365
 21
406.9672837982007
 31
0.0
  0
ARC
  5
798
330
1A
100
AcDbEntity
  8
SEIHIN
  6
CONTINUOUS
 48
16.0
100
AcDbCircle
 10
465.0340025203663
 20
405.4672837982007
 30
0.0
 40
1.5
100
AcDbArc
 50
270.0
 51
13.90611505765883
  0
ARC
  5
799
330
1A
100
AcDbEntity
  8
SEIHIN
  6
CONTINUOUS
 48
16.0
100
AcDbCircle
 10
464.0744401155935
 20
405.9672837982007
 30
0.0
 40
2.0
100
AcDbArc
 50
270.0
 51
339.6258909479275
  0
ARC
  5
79A
330
1A
100
AcDbEntity
  8
SEIHIN
  6
CONTINUOUS
 48
16.0
100
AcDbCircle
 10
471.5022732498169
 20
405.9672837982007
 30
0.0
 40
2.0
100
AcDbArc
 50
270.0
 51
339.6258909479275
  0
ARC
  5
79B
330
1A
100
AcDbEntity
  8
SEIHIN
  6
CONTINUOUS
 48
16.0
100
AcDbCircle
 10
472.4618356545897
 20
405.4672837982007
 30
0.0
 40
1.5
100
AcDbArc
 50
270.0
 51
13.90611505765883
  0
LINE
  5
79D
330
1A
100
AcDbEntity
  8
SEIHIN
  6
CONTINUOUS
 62
     3
 48
16.0
100
AcDbLine
 10
225.1071713051017
 20
195.9274837982007
 30
0.0
 11
222.1071405399301
 21
195.9274837982007
 31
0.0
  0
LINE
  5
79E
330
1A
100
AcDbEntity
  8
SEIHIN
  6
CONTINUOUS
 62
     3
 48
16.0
100
AcDbLine
 10
241.1071405399301
 20
195.9274837982007
 30
0.0
 11
244.1071405399302
 21
195.9274837982007
 31
0.0
  0
LINE
  5
79F
330
1A
100
AcDbEntity
  8
SEIHIN
  6
CONTINUOUS
 62
     3
 48
16.0
100
AcDbLine
 10
616.4645148065337
 20
334.1927510469417
 30
0.0
 11
635.0319533350915
 21
287.7680443362628
 31
0.0
  0
LINE
  5
7A0
330
1A
100
AcDbEntity
  8
SEIHIN
  6
CONTINUOUS
 62
     3
 48
16.0
100
AcDbLine
 10
599.3802570759441
 20
327.3598791913515
 30
0.0
 11
617.9476720857614
 21
280.9352312852637
 31
0.0
  0
ARC
  5
7D4
330
1A
100
AcDbEntity
  8
SEIHIN
  6
CONTINUOUS
 62
     3
 48
16.0
100
AcDbCircle
 10
645.6178063063208
 20
314.6191098063741
 30
0.0
 40
1.0
100
AcDbArc
 50
291.7988090140685
 51
21.79880901406846
  0
ARC
  5
7D5
330
1A
100
AcDbEntity
  8
SEIHIN
  6
CONTINUOUS
 62
     3
 48
16.0
100
AcDbCircle
 10
635.2200473155485
 20
340.6169290991369
 30
0.0
 40
1.0
100
AcDbArc
 50
21.79880901406832
 51
111.7988090140682
  0
ARC
  5
7D6
330
1A
100
AcDbEntity
  8
SEIHIN
  6
CONTINUOUS
 62
     3
 48
16.0
100
AcDbCircle
 10
581.3674216376938
 20
319.0787140468274
 30
0.0
 40
1.0
100
AcDbArc
 50
111.7988090140679
 51
201.7988090140683
  0
ARC
  5
7D7
330
1A
100
AcDbEntity
  8
SEIHIN
  6
CONTINUOUS
 62
     3
 48
16.0
100
AcDbCircle
 10
591.765180628466
 20
293.0808947540645
 30
0.0
 40
1.0
100
AcDbArc
 50
201.7988090140684
 51
291.7988090140679
  0
LINE
  5
7DC
330
1A
100
AcDbEntity
  8
CENTER_L
  6
CENTER
 62
     1
 48
5.0
100
AcDbLine
 10
592.1370095843044
 20
302.9227453976425
 30
0.0
 11
595.1678414572501
 21
295.344658234717
 31
0.0
  0
LINE
  5
7DD
330
1A
100
AcDbEntity
  8
CENTER_L
  6
CENTER
 62
     1
 48
5.0
100
AcDbLine
 10
638.5616250012045
 20
321.4903269157301
 30
0.0
 11
641.5924940089612
 21
313.9121469034329
 31
0.0
  0
ARC
  5
7DE
330
1A
100
AcDbEntity
  8
SEIHIN
  6
CONTINUOUS
 62
     3
 48
16.0
100
AcDbCircle
 10
474.8891053552565
 20
424.9672837982007
 30
0.0
 40
1.0
100
AcDbArc
 50
0.0
 51
90.0
  0
ARC
  5
7DF
330
1A
100
AcDbEntity
  8
SEIHIN
  6
CONTINUOUS
 62
     3
 48
16.0
100
AcDbCircle
 10
465.7474053552564
 20
424.9672837982007
 30
0.0
 40
1.0
100
AcDbArc
 50
90.0
 51
180.0
  0
ARC
  5
7E0
330
1A
100
AcDbEntity
  8
SEIHIN
  6
CONTINUOUS
 62
     3
 48
16.0
100
AcDbCircle
 10
464.3547053552565
 20
424.9672837982008
 30
0.0
 40
1.0
100
AcDbArc
 50
90.0
 51
180.0
  0
ARC
  5
7E1
330
1A
100
AcDbEntity
  8
SEIHIN
  6
CONTINUOUS
 62
     3
 48
16.0
100
AcDbCircle
 10
474.8891053552567
 20
366.9672837982008
 30
0.0
 40
1.0
100
AcDbArc
 50
270.0
 51
0.0
  0
ARC
  5
7E2
330
1A
100
AcDbEntity
  8
SEIHIN
  6
CONTINUOUS
 62
     3
 48
16.0
100
AcDbCircle
 10
465.7474053552564
 20
366.9672837982008
 30
0.0
 40
1.0
100
AcDbArc
 50
180.0
 51
270.0000000000002
  0
ARC
  5
7E3
330
1A
100
AcDbEntity
  8
SEIHIN
  6
CONTINUOUS
 62
     3
 48
16.0
100
AcDbCircle
 10
464.3547053552565
 20
366.9672837982008
 30
0.0
 40
1.0
100
AcDbArc
 50
180.0
 51
270.0000000000003
  0
LINE
  5
7E8
330
1A
100
AcDbEntity
  8
CENTER_L
  6
CENTER
 62
     1
 48
5.0
100
AcDbLine
 10
468.6043053552568
 20
420.9672837982007
 30
0.0
 11
464.7474053552568
 21
420.9672837982007
 31
0.0
  0
LINE
  5
7E9
330
1A
100
AcDbEntity
  8
CENTER_L
  6
CENTER
 62
     1
 48
5.0
100
AcDbLine
 10
468.6043053552568
 20
370.9672837982007
 30
0.0
 11
464.7474053552568
 21
370.9672837982007
 31
0.0
  0
ARC
  5
7EA
330
1A
100
AcDbEntity
  8
SEIHIN
  6
CONTINUOUS
 62
     3
 48
16.0
100
AcDbCircle
 10
262.1072405399302
 20
246.3602837982007
 30
0.0
 40
1.0
100
AcDbArc
 50
270.0
 51
0.0
  0
ARC
  5
7EB
330
1A
100
AcDbEntity
  8
SEIHIN
  6
CONTINUOUS
 62
     3
 48
16.0
100
AcDbCircle
 10
204.1072405399301
 20
246.3602837982007
 30
0.0
 40
1.0
100
AcDbArc
 50
180.0
 51
270.0
  0
ARC
  5
7EC
330
1A
100
AcDbEntity
  8
SEIHIN
  6
CONTINUOUS
 62
     3
 48
16.0
100
AcDbCircle
 10
262.1072405399302
 20
272.2716837982007
 30
0.0
 40
1.0
100
AcDbArc
 50
0.0
 51
90.0
  0
ARC
  5
7ED
330
1A
100
AcDbEntity
  8
SEIHIN
  6
CONTINUOUS
 62
     3
 48
16.0
100
AcDbCircle
 10
262.1072405399302
 20
272.7716837982007
 30
0.0
 40
1.0
100
AcDbArc
 50
0.0
 51
90.0
  0
ARC
  5
7EE
330
1A
100
AcDbEntity
  8
SEIHIN
  6
CONTINUOUS
 62
     3
 48
16.0
100
AcDbCircle
 10
204.1072405399301
 20
272.2716837982007
 30
0.0
 40
1.0
100
AcDbArc
 50
90.0
 51
179.9999999999999
  0
ARC
  5
7EF
330
1A
100
AcDbEntity
  8
SEIHIN
  6
CONTINUOUS
 62
     3
 48
16.0
100
AcDbCircle
 10
204.1072405399301
 20
272.7716837982007
 30
0.0
 40
1.0
100
AcDbArc
 50
90.0
 51
180.0
  0
DIMENSION
  5
7FC
330
1A
100
AcDbEntity
  8
SUNPOU
  6
CONTINUOUS
100
AcDbDimension
  2
*D14
 10
532.0572110488742
 20
142.2672619644601
 30
0.0
 11
527.0572110488742
 21
208.0193728813303
 31
0.0
 70
    32
  3
STANDARD
100
AcDbAlignedDimension
 13
464.7474053552564
 23
273.7714837982006
 33
0.0
 14
435.3473255455451
 24
142.2672619644601
 34
0.0
 50
90.0
100
AcDbRotatedDimension
1001
ACAD
1000
DSTYLE
1002
{
1070
   140
1040
6.0
1070
    74
1070
     0
1070
   172
1070
     1
1070
    73
1070
     0
1070
   272
1070
     2
1070
    77
1070
     3
1070
   173
1070
     1
1070
   147
1040
2.0
1070
    42
1040
6.0
1070
    44
1040
3.0
1070
    43
1040
14.0
1070
   271
1070
     0
1070
   178
1070
     4
1070
   177
1070
     4
1070
   176
1070
     4
1070
   141
1040
150.0
1070
     7
1000
_OPEN
1070
     6
1000
_OPEN
1070
    41
1040
7.0
1002
}
  0
TEXT
  5
817
330
1A
100
AcDbEntity
  8
SUNPOU
  6
CONTINUOUS
 62
     4
100
AcDbText
 10
482.3025187465497
 20
182.4247789974586
 30
0.0
 40
6.0
  1
10
100
AcDbText
  0
LINE
  5
818
330
1A
100
AcDbEntity
  8
SUNPOU
  6
CONTINUOUS
 62
     4
 48
16.0
100
AcDbLine
 10
503.3989087399937
 20
176.8920096623084
 30
0.0
 11
479.5029886096056
 21
236.6324112947745
 31
0.0
  0
LINE
  5
819
330
1A
100
AcDbEntity
  8
SUNPOU
  6
CONTINUOUS
 62
     4
 48
16.0
100
AcDbLine
 10
495.3989886095976
 20
196.8920096623083
 30
0.0
 11
495.3988886095975
 21
176.8920096623084
 31
0.0
  0
TEXT
  5
81A
330
1A
100
AcDbEntity
  8
SUNPOU
  6
CONTINUOUS
 62
     4
100
AcDbText
 10
496.1099263236901
 20
165.7292285877866
 30
0.0
 40
6.0
  1
4
100
AcDbText
  0
LINE
  5
81B
330
1A
100
AcDbEntity
  8
SUNPOU
  6
CONTINUOUS
 62
     4
 48
16.0
100
AcDbLine
 10
495.3988886095975
 20
176.8920096623084
 30
0.0
 11
503.3989087399937
 21
176.8920096623084
 31
0.0
  0
LWPOLYLINE
  5
94D
330
1A
100
AcDbEntity
  8
ZUWAKU
100
AcDbPolyline
 90
        4
 70
     1
 43
0.0
 10
0.7999994527210675
 20
550.7999998096563
 10
0.7999994527210675
 20
0.7999998096563559
 10
796.799999452721
 20
0.7999998096563559
 10
796.799999452721
 20
550.7999998096563
  0
LWPOLYLINE
  5
94E
330
1A
100
AcDbEntity
  8
ZUWAKU
100
AcDbPolyline
 90
        4
 70
     1
 43
0.0
 10
0.3999994527210902
 20
551.1999998096563
 10
0.3999994527210902
 20
0.3999998096563786
 10
797.1999994527211
 20
0.3999998096563555
 10
797.1999994527211
 20
551.1999998096563
  0
LWPOLYLINE
  5
94F
330
1A
100
AcDbEntity
  8
ZUWAKU
100
AcDbPolyline
 90
        4
 70
     1
 43
0.0
 10
-0.0000005472788871
 20
551.5999998096563
 10
-0.0000005472788871
 20
-0.0000001903437123
 10
797.5999994527212
 20
-0.0000001903436448
 10
797.5999994527212
 20
551.5999998096564
  0
LWPOLYLINE
  5
950
330
1A
100
AcDbEntity
  8
ZUWAKU
100
AcDbPolyline
 90
        4
 70
     1
 43
0.0
 10
0.599999452721022
 20
550.9999998096564
 10
0.599999452721022
 20
0.5999998096563104
 10
796.9999994527213
 20
0.5999998096563566
 10
796.9999994527211
 20
550.9999998096564
  0
LWPOLYLINE
  5
951
330
1A
100
AcDbEntity
  8
ZUWAKU
100
AcDbPolyline
 90
        4
 70
     1
 43
0.0
 10
0.1999994527210447
 20
551.3999998096563
 10
0.1999994527210447
 20
0.1999998096563331
 10
797.3999994527209
 20
0.1999998096563562
 10
797.3999994527212
 20
551.3999998096563
  0
LINE
  5
952
330
1A
100
AcDbEntity
  8
ZUWAKU
100
AcDbLine
 10
-0.0000005472788871
 20
29.99999980965629
 30
0.0
 11
797.3999994527209
 21
29.99999980965629
 31
0.0
  0
LINE
  5
953
330
1A
100
AcDbEntity
  8
ZUWAKU
100
AcDbLine
 10
-0.0000005472788871
 20
30.19999980965629
 30
0.0
 11
797.3999994527209
 21
30.19999980965629
 31
0.0
  0
LINE
  5
954
330
1A
100
AcDbEntity
  8
ZUWAKU
100
AcDbLine
 10
-0.0000005472788871
 20
30.39999980965629
 30
0.0
 11
797.3999994527209
 21
30.39999980965629
 31
0.0
  0
LINE
  5
955
330
1A
100
AcDbEntity
  8
ZUWAKU
100
AcDbLine
 10
-0.0000005472788871
 20
30.59999980965629
 30
0.0
 11
797.3999994527209
 21
30.59999980965629
 31
0.0
  0
LINE
  5
956
330
1A
100
AcDbEntity
  8
ZUWAKU
100
AcDbLine
 10
-0.0000005472788871
 20
30.79999980965629
 30
0.0
 11
797.3999994527209
 21
30.79999980965629
 31
0.0
  0
LINE
  5
957
330
1A
100
AcDbEntity
  8
ZUWAKU
100
AcDbLine
 10
208.6466007427891
 20
15.39999980965632
 30
0.0
 11
447.4243634237125
 21
15.39999980965632
 31
0.0
  0
LINE
  5
958
330
1A
100
AcDbEntity
  8
ZUWAKU
100
AcDbLine
 10
208.6466007427891
 20
15.59999980965632
 30
0.0
 11
447.4243634237125
 21
15.59999980965632
 31
0.0
  0
LINE
  5
959
330
1A
100
AcDbEntity
  8
ZUWAKU
100
AcDbLine
 10
208.6466007427891
 20
15.19999980965632
 30
0.0
 11
447.4243634237125
 21
15.19999980965631
 31
0.0
  0
TEXT
  5
95A
330
1A
100
AcDbEntity
  8
MOJI
100
AcDbText
 10
92.95778904089024
 20
12.74117793993104
 30
0.0
 40
6.0
  1
ライナートップＸ７０Ｕ
 41
0.9
  7
ｽﾀｲﾙ1
100
AcDbText
  0
CIRCLE
  5
95B
330
1A
100
AcDbEntity
  8
ZUWAKU
100
AcDbCircle
 10
25.99221160750221
 20
15.19999980965629
 30
0.0
 40
1.75
  0
LINE
  5
95C
330
1A
100
AcDbEntity
  8
ZUWAKU
100
AcDbLine
 10
26.86721160750221
 20
7.149999809656293
 30
0.0
 11
24.94221160750226
 21
7.149999809656293
 31
0.0
  0
LINE
  5
95D
330
1A
100
AcDbEntity
  8
ZUWAKU
100
AcDbLine
 10
24.94221160750226
 20
9.94999980965629
 30
0.0
 11
26.86721160750221
 21
9.94999980965629
 31
0.0
  0
LINE
  5
95E
330
1A
100
AcDbEntity
  8
ZUWAKU
100
AcDbLine
 10
26.86721160750221
 20
20.44999980965628
 30
0.0
 11
24.94221160750226
 21
20.44999980965628
 31
0.0
  0
LINE
  5
95F
330
1A
100
AcDbEntity
  8
ZUWAKU
100
AcDbLine
 10
24.94221160750226
 20
23.24999980965625
 30
0.0
 11
26.86721160750221
 21
23.24999980965629
 31
0.0
  0
HATCH
  5
960
330
1A
100
AcDbEntity
  8
ZUWAKU
100
AcDbHatch
 10
0.0
 20
0.0
 30
0.0
210
0.0
220
0.0
230
1.0
  2
ANSI37
 70
     0
 71
     0
 91
        8
 92
        7
 72
     1
 73
     1
 93
       24
 10
14.50226211384097
 20
17.64484829063987
 42
-0.1989123673796348
 10
14.09221160750223
 20
18.63479778430092
 42
0.0
 10
14.09221160750223
 20
19.9249998096563
 42
-0.4142135623730912
 10
14.61721160750221
 20
20.44999980965628
 42
0.0
 10
17.59221160750212
 20
20.44999980965628
 42
0.4142135623731546
 10
18.11721160750221
 20
20.97499980965628
 42
0.0
 10
18.11721160750221
 20
22.72499980965629
 42
0.4142135623731586
 10
17.59221160750212
 20
23.24999980965629
 42
0.0
 10
14.09221160750223
 20
23.24999980965629
 42
0.4142135623730928
 10
11.29221160750228
 20
20.44999980965632
 42
0.0
 10
11.29221160750228
 20
18.63479778430105
 42
0.1989123673796619
 10
12.52236312651871
 20
15.66494930331744
 42
0.0
 10
15.43216110116338
 20
12.75515132867278
 42
-0.1989123673796613
 10
15.84221160750223
 20
11.76520183501159
 42
0.0
 10
15.84221160750223
 20
10.47499980965628
 42
-0.4142135623730911
 10
15.31721160750225
 20
9.94999980965629
 42
0.0
 10
12.34221160750235
 20
9.94999980965629
 42
0.4142135623731526
 10
11.81721160750225
 20
9.424999809656302
 42
0.0
 10
11.81721160750225
 20
7.674999809656281
 42
0.4142135623731526
 10
12.34221160750235
 20
7.149999809656293
 42
0.0
 10
15.84221160750223
 20
7.149999809656293
 42
0.4142135623731044
 10
18.6422116075023
 20
9.949999809656269
 42
0.0
 10
18.6422116075023
 20
11.76520183501154
 42
0.1989123673796604
 10
17.41206008848576
 20
14.73505031599508
 42
0.0
 97
        0
 92
        7
 72
     1
 73
     1
 93
       16
 10
23.54221160750228
 20
19.04999980965629
 42
-0.4142135623730935
 10
24.94221160750226
 20
20.44999980965628
 42
0.0
 10
26.86721160750221
 20
20.44999980965628
 42
0.4142135623731546
 10
27.3922116075023
 20
20.97499980965628
 42
0.0
 10
27.3922116075023
 20
22.72499980965629
 42
0.4142135623730951
 10
26.86721160750233
 20
23.24999980965629
 42
0.0
 10
24.94221160750214
 20
23.24999980965625
 42
0.4142135623730892
 10
20.74221160750221
 20
19.04999980965622
 42
0.0
 10
20.74221160750221
 20
11.34999980965631
 42
0.4142135623730969
 10
24.94221160750226
 20
7.149999809656293
 42
0.0
 10
26.86721160750221
 20
7.149999809656293
 42
0.4142135623731526
 10
27.3922116075023
 20
7.674999809656281
 42
0.0
 10
27.3922116075023
 20
9.424999809656302
 42
0.4142135623730891
 10
26.86721160750233
 20
9.94999980965629
 42
0.0
 10
24.94221160750226
 20
9.94999980965629
 42
-0.4142135623730928
 10
23.54221160750228
 20
11.34999980965627
 42
0.0
 97
        0
 92
        7
 72
     1
 73
     1
 93
        2
 10
24.24221160750221
 20
15.19999980965629
 42
1.0
 10
27.74221160750221
 20
15.19999980965629
 42
1.0
 97
        0
 92
        7
 72
     1
 73
     1
 93
       26
 10
37.31485808968022
 20
19.20504700321972
 42
0.0
 10
38.37649772281804
 20
22.5669058414893
 42
0.5069206636600134
 10
37.87586682362269
 20
23.24999980965629
 42
0.0
 10
36.17697744401346
 20
23.24999980965629
 42
0.3272098845218764
 10
35.6763465448181
 20
22.88309377782326
 42
0.0
 10
33.80807667018632
 20
16.96690584148937
 42
-0.3272098845219541
 10
33.30744577099085
 20
16.59999980965628
 42
0.0
 10
33.16721160750239
 20
16.59999980965628
 42
-0.4142135623731526
 10
32.6422116075023
 20
17.12499980965627
 42
0.0
 10
32.6422116075023
 20
22.72499980965629
 42
0.4142135623730951
 10
32.11721160750232
 20
23.24999980965629
 42
0.0
 10
30.36721160750221
 20
23.24999980965629
 42
0.4142135623730871
 10
29.84221160750223
 20
22.72499980965631
 42
0.0
 10
29.84221160750223
 20
7.674999809656281
 42
0.4142135623730891
 10
30.36721160750221
 20
7.149999809656293
 42
0.0
 10
32.11721160750221
 20
7.149999809656293
 42
0.4142135623731526
 10
32.6422116075023
 20
7.674999809656281
 42
0.0
 10
32.6422116075023
 20
13.2749998096563
 42
-0.4142135623731526
 10
33.16721160750239
 20
13.79999980965629
 42
0.0
 10
33.30744577099096
 20
13.79999980965629
 42
-0.3272098845218915
 10
33.80807667018632
 20
13.43309377782321
 42
0.0
 10
35.6763465448181
 20
7.516905841489364
 42
0.3272098845218902
 10
36.17697744401346
 20
7.149999809656293
 42
0.0
 10
37.87586682362269
 20
7.149999809656293
 42
0.5069206636600335
 10
38.37649772281804
 20
7.8330937778233
 42
0.0
 10
36.05010634434438
 20
15.19999980965643
 42
0.0
 97
        0
 92
        7
 72
     1
 73
     1
 93
        8
 10
43.49221160750221
 20
22.7249998096563
 42
0.4142135623731546
 10
42.96721160750212
 20
23.24999980965629
 42
0.0
 10
41.21721160750235
 20
23.24999980965629
 42
0.4142135623731507
 10
40.69221160750226
 20
22.72499980965631
 42
0.0
 10
40.69221160750226
 20
7.674999809656281
 42
0.4142135623731526
 10
41.21721160750235
 20
7.149999809656293
 42
0.0
 10
42.96721160750212
 20
7.149999809656293
 42
0.4142135623731526
 10
43.49221160750221
 20
7.674999809656281
 42
0.0
 97
        0
 92
        7
 72
     1
 73
     1
 93
       24
 10
48.39221160750231
 20
19.9249998096563
 42
-0.4142135623731546
 10
48.9172116075024
 20
20.44999980965628
 42
0.0
 10
51.8922116075023
 20
20.44999980965628
 42
0.4142135623730911
 10
52.41721160750228
 20
20.97499980965628
 42
0.0
 10
52.41721160750228
 20
22.72499980965629
 42
0.4142135623730952
 10
51.8922116075023
 20
23.24999980965629
 42
0.0
 10
48.39221160750231
 20
23.24999980965629
 42
0.4142135623731048
 10
45.59221160750223
 20
20.44999980965632
 42
0.0
 10
45.59221160750223
 20
18.63479778430105
 42
0.1989123673796613
 10
46.82236312651878
 20
15.66494930331749
 42
0.0
 10
49.73216110116346
 20
12.75515132867283
 42
-0.1989123673796402
 10
50.1422116075023
 20
11.76520183501175
 42
0.0
 10
50.1422116075023
 20
10.47499980965628
 42
-0.4142135623730911
 10
49.61721160750233
 20
9.94999980965629
 42
0.0
 10
46.6422116075023
 20
9.94999980965629
 42
0.4142135623731526
 10
46.11721160750221
 20
9.424999809656302
 42
0.0
 10
46.11721160750221
 20
7.674999809656281
 42
0.4142135623730891
 10
46.64221160750218
 20
7.149999809656293
 42
0.0
 10
50.1422116075023
 20
7.149999809656293
 42
0.4142135623730925
 10
52.94221160750225
 20
9.949999809656269
 42
0.0
 10
52.94221160750225
 20
11.76520183501154
 42
0.1989123673796675
 10
51.71206008848571
 20
14.73505031599519
 42
0.0
 10
48.80226211384115
 20
17.64484829063971
 42
-0.1989123673796652
 10
48.39221160750231
 20
18.63479778430088
 42
0.0
 97
        0
 92
        7
 72
     1
 73
     1
 93
       16
 10
57.84221160750224
 20
22.72499980965628
 42
0.414213562373103
 10
57.31721160750225
 20
23.24999980965629
 42
0.0
 10
55.56721160750226
 20
23.24999980965629
 42
0.4142135623730871
 10
55.04221160750228
 20
22.72499980965631
 42
0.0
 10
55.04221160750228
 20
9.949999809656269
 42
0.4142135623730926
 10
57.84221160750224
 20
7.149999809656293
 42
0.0
 10
61.34221160750223
 20
7.149999809656293
 42
0.4142135623731044
 10
64.1422116075023
 20
9.949999809656269
 42
0.0
 10
64.1422116075023
 20
22.72499980965629
 42
0.4142135623730951
 10
63.61721160750232
 20
23.24999980965629
 42
0.0
 10
61.86721160750221
 20
23.24999980965629
 42
0.4142135623730871
 10
61.34221160750223
 20
22.72499980965631
 42
0.0
 10
61.34221160750223
 20
10.99999980965626
 42
-0.414213562373088
 10
60.29221160750228
 20
9.94999980965629
 42
0.0
 10
58.8922116075023
 20
9.94999980965629
 42
-0.4142135623731197
 10
57.84221160750224
 20
10.99999980965626
 42
0.0
 97
        0
 92
        7
 72
     1
 73
     1
 93
        8
 10
69.04221160750228
 20
22.72499980965631
 42
0.4142135623730871
 10
68.5172116075023
 20
23.24999980965629
 42
0.0
 10
66.7672116075023
 20
23.24999980965629
 42
0.4142135623731507
 10
66.24221160750221
 20
22.72499980965631
 42
0.0
 10
66.24221160750221
 20
7.674999809656281
 42
0.4142135623730891
 10
66.76721160750219
 20
7.149999809656293
 42
0.0
 10
68.5172116075023
 20
7.149999809656293
 42
0.4142135623730891
 10
69.04221160750228
 20
7.674999809656281
 42
0.0
 97
        0
 75
     0
 76
     1
 52
0.0
 41
0.2
 77
     0
 78
     2
 53
45.0
 43
-900.9423048819579
 44
-13.20000019034364
 45
-0.4490128060534576
 46
0.4490128060534577
 79
     0
 53
135.0
 43
-900.9423048819579
 44
-13.20000019034364
 45
-0.4490128060534577
 46
-0.4490128060534576
 79
     0
 47
0.057451373970553
 98
        8
 10
16.07985441574442
 20
15.16717345554184
 10
22.40451445916028
 20
18.84406199210729
 10
25.16436733838077
 20
15.511881455727
 10
30.91405943435825
 20
16.20129745609779
 10
41.83847147167784
 20
16.6609097236394
 10
46.89820034785066
 20
19.4185761260635
 10
56.55768542512146
 20
18.7291577247513
 10
67.82707907234385
 20
19.18876999229292
  0
ARC
  5
961
330
1A
100
AcDbEntity
  8
ZUWAKU
100
AcDbCircle
 10
15.49221160750221
 20
18.63479778430099
 30
0.0
 40
4.199999999999999
100
AcDbArc
 50
180.0
 51
225.0
  0
LINE
  5
962
330
1A
100
AcDbEntity
  8
ZUWAKU
100
AcDbLine
 10
20.74221160750221
 20
11.34999980965629
 30
0.0
 11
20.74221160750221
 21
19.04999980965625
 31
0.0
  0
LINE
  5
963
330
1A
100
AcDbEntity
  8
ZUWAKU
100
AcDbLine
 10
23.54221160750228
 20
19.04999980965629
 30
0.0
 11
23.54221160750228
 21
11.34999980965629
 31
0.0
  0
ARC
  5
964
330
1A
100
AcDbEntity
  8
ZUWAKU
100
AcDbCircle
 10
15.49221160750221
 20
18.63479778430099
 30
0.0
 40
1.399999999999999
100
AcDbArc
 50
180.0000000000016
 51
224.9999999999988
  0
ARC
  5
965
330
1A
100
AcDbEntity
  8
ZUWAKU
100
AcDbCircle
 10
24.94221160750226
 20
11.34999980965629
 30
0.0
 40
4.199999999999999
100
AcDbArc
 50
180.0
 51
270.0
  0
ARC
  5
966
330
1A
100
AcDbEntity
  8
ZUWAKU
100
AcDbCircle
 10
15.84221160750223
 20
9.94999980965629
 30
0.0
 40
2.799999999999999
100
AcDbArc
 50
270.0
 51
0.0
  0
ARC
  5
967
330
1A
100
AcDbEntity
  8
ZUWAKU
100
AcDbCircle
 10
14.44221160750226
 20
11.76520183501159
 30
0.0
 40
4.199999999999999
100
AcDbArc
 50
0.0
 51
45.0
  0
LINE
  5
968
330
1A
100
AcDbEntity
  8
ZUWAKU
100
AcDbLine
 10
12.52236312651871
 20
15.66494930331747
 30
0.0
 11
15.43216110116338
 21
12.75515132867281
 31
0.0
  0
LINE
  5
969
330
1A
100
AcDbEntity
  8
ZUWAKU
100
AcDbLine
 10
12.34221160750223
 20
9.94999980965629
 30
0.0
 11
15.31721160750225
 21
9.94999980965629
 31
0.0
  0
LINE
  5
96A
330
1A
100
AcDbEntity
  8
ZUWAKU
100
AcDbLine
 10
12.34221160750223
 20
7.149999809656293
 30
0.0
 11
15.84221160750223
 21
7.149999809656293
 31
0.0
  0
ARC
  5
96B
330
1A
100
AcDbEntity
  8
ZUWAKU
100
AcDbCircle
 10
12.34221160750223
 20
9.424999809656291
 30
0.0
 40
0.525
100
AcDbArc
 50
90.0
 51
180.0
  0
ARC
  5
96C
330
1A
100
AcDbEntity
  8
ZUWAKU
100
AcDbCircle
 10
12.34221160750223
 20
7.674999809656291
 30
0.0
 40
0.525
100
AcDbArc
 50
180.0
 51
270.0
  0
LINE
  5
96D
330
1A
100
AcDbEntity
  8
ZUWAKU
100
AcDbLine
 10
11.81721160750225
 20
7.674999809656291
 30
0.0
 11
11.81721160750225
 21
9.424999809656291
 31
0.0
  0
ARC
  5
96E
330
1A
100
AcDbEntity
  8
ZUWAKU
100
AcDbCircle
 10
14.44221160750226
 20
11.76520183501163
 30
0.0
 40
1.399999999999999
100
AcDbArc
 50
0.0
 51
45.0
  0
ARC
  5
96F
330
1A
100
AcDbEntity
  8
ZUWAKU
100
AcDbCircle
 10
15.31721160750225
 20
10.47499980965629
 30
0.0
 40
0.525
100
AcDbArc
 50
270.0
 51
0.0
  0
LINE
  5
970
330
1A
100
AcDbEntity
  8
ZUWAKU
100
AcDbLine
 10
15.84221160750223
 20
10.47499980965629
 30
0.0
 11
15.84221160750223
 21
11.76520183501163
 31
0.0
  0
LINE
  5
971
330
1A
100
AcDbEntity
  8
ZUWAKU
100
AcDbLine
 10
17.41206008848576
 20
14.73505031599511
 30
0.0
 11
14.50226211384108
 21
17.64484829063979
 31
0.0
  0
ARC
  5
972
330
1A
100
AcDbEntity
  8
ZUWAKU
100
AcDbCircle
 10
24.94221160750226
 20
11.34999980965629
 30
0.0
 40
1.399999999999999
100
AcDbArc
 50
180.0
 51
270.0
  0
LINE
  5
973
330
1A
100
AcDbEntity
  8
ZUWAKU
100
AcDbLine
 10
18.6422116075023
 20
9.94999980965629
 30
0.0
 11
18.6422116075023
 21
11.76520183501163
 31
0.0
  0
ARC
  5
974
330
1A
100
AcDbEntity
  8
ZUWAKU
100
AcDbCircle
 10
17.59221160750223
 20
20.97499980965629
 30
0.0
 40
0.525
100
AcDbArc
 50
270.0
 51
0.0
  0
ARC
  5
975
330
1A
100
AcDbEntity
  8
ZUWAKU
100
AcDbCircle
 10
17.59221160750223
 20
22.72499980965628
 30
0.0
 40
0.525
100
AcDbArc
 50
0.0
 51
90.0
  0
ARC
  5
976
330
1A
100
AcDbEntity
  8
ZUWAKU
100
AcDbCircle
 10
14.09221160750223
 20
20.44999980965628
 30
0.0
 40
2.799999999999999
100
AcDbArc
 50
90.0
 51
180.0
  0
LINE
  5
977
330
1A
100
AcDbEntity
  8
ZUWAKU
100
AcDbLine
 10
11.29221160750228
 20
20.44999980965628
 30
0.0
 11
11.29221160750228
 21
18.63479778430095
 31
0.0
  0
LINE
  5
978
330
1A
100
AcDbEntity
  8
ZUWAKU
100
AcDbLine
 10
17.59221160750223
 20
20.44999980965628
 30
0.0
 11
14.61721160750221
 21
20.44999980965628
 31
0.0
  0
LINE
  5
979
330
1A
100
AcDbEntity
  8
ZUWAKU
100
AcDbLine
 10
14.09221160750223
 20
19.92499980965629
 30
0.0
 11
14.09221160750223
 21
18.63479778430095
 31
0.0
  0
ARC
  5
97A
330
1A
100
AcDbEntity
  8
ZUWAKU
100
AcDbCircle
 10
14.61721160750221
 20
19.92499980965629
 30
0.0
 40
0.525
100
AcDbArc
 50
90.0
 51
180.0
  0
LINE
  5
97B
330
1A
100
AcDbEntity
  8
ZUWAKU
100
AcDbLine
 10
14.09221160750223
 20
23.24999980965629
 30
0.0
 11
17.59221160750223
 21
23.24999980965629
 31
0.0
  0
ARC
  5
97C
330
1A
100
AcDbEntity
  8
ZUWAKU
100
AcDbCircle
 10
24.94221160750226
 20
19.04999980965625
 30
0.0
 40
4.199999999999999
100
AcDbArc
 50
90.0
 51
180.0
  0
ARC
  5
97D
330
1A
100
AcDbEntity
  8
ZUWAKU
100
AcDbCircle
 10
24.94221160750226
 20
19.04999980965629
 30
0.0
 40
1.399999999999999
100
AcDbArc
 50
90.0
 51
180.0
  0
LINE
  5
97E
330
1A
100
AcDbEntity
  8
ZUWAKU
100
AcDbLine
 10
18.11721160750221
 20
22.72499980965628
 30
0.0
 11
18.11721160750221
 21
20.97499980965629
 31
0.0
  0
LINE
  5
97F
330
1A
100
AcDbEntity
  8
ZUWAKU
100
AcDbLine
 10
35.6763465448181
 20
22.88309377782326
 30
0.0
 11
33.80807667018632
 21
16.96690584148932
 31
0.0
  0
LINE
  5
980
330
1A
100
AcDbEntity
  8
ZUWAKU
100
AcDbLine
 10
29.84221160750223
 20
22.72499980965628
 30
0.0
 11
29.84221160750223
 21
7.674999809656291
 31
0.0
  0
LINE
  5
981
330
1A
100
AcDbEntity
  8
ZUWAKU
100
AcDbLine
 10
32.6422116075023
 20
17.12499980965629
 30
0.0
 11
32.6422116075023
 21
22.72499980965628
 31
0.0
  0
LINE
  5
982
330
1A
100
AcDbEntity
  8
ZUWAKU
100
AcDbLine
 10
57.84221160750224
 20
10.99999980965628
 30
0.0
 11
57.84221160750224
 21
22.72499980965628
 31
0.0
  0
LINE
  5
983
330
1A
100
AcDbEntity
  8
ZUWAKU
100
AcDbLine
 10
55.04221160750228
 20
22.72499980965628
 30
0.0
 11
55.04221160750228
 21
9.94999980965629
 31
0.0
  0
LINE
  5
984
330
1A
100
AcDbEntity
  8
ZUWAKU
100
AcDbLine
 10
43.49221160750221
 20
7.674999809656291
 30
0.0
 11
43.49221160750221
 21
22.72499980965628
 31
0.0
  0
LINE
  5
985
330
1A
100
AcDbEntity
  8
ZUWAKU
100
AcDbLine
 10
40.69221160750226
 20
22.72499980965628
 30
0.0
 11
40.69221160750226
 21
7.674999809656291
 31
0.0
  0
LINE
  5
986
330
1A
100
AcDbEntity
  8
ZUWAKU
100
AcDbLine
 10
37.31485808968022
 20
19.20504700321972
 30
0.0
 11
36.05010634434438
 21
15.19999980965631
 31
0.0
  0
ARC
  5
987
330
1A
100
AcDbEntity
  8
ZUWAKU
100
AcDbCircle
 10
49.79221160750228
 20
18.63479778430099
 30
0.0
 40
4.199999999999999
100
AcDbArc
 50
180.0
 51
225.0
  0
ARC
  5
988
330
1A
100
AcDbEntity
  8
ZUWAKU
100
AcDbCircle
 10
49.79221160750228
 20
18.63479778430099
 30
0.0
 40
1.399999999999999
100
AcDbArc
 50
180.0000000000016
 51
224.9999999999988
  0
LINE
  5
989
330
1A
100
AcDbEntity
  8
ZUWAKU
100
AcDbLine
 10
66.24221160750221
 20
22.72499980965628
 30
0.0
 11
66.24221160750221
 21
7.674999809656291
 31
0.0
  0
LINE
  5
98A
330
1A
100
AcDbEntity
  8
ZUWAKU
100
AcDbLine
 10
69.04221160750228
 20
7.674999809656291
 30
0.0
 11
69.04221160750228
 21
22.72499980965628
 31
0.0
  0
LINE
  5
98B
330
1A
100
AcDbEntity
  8
ZUWAKU
100
AcDbLine
 10
61.34221160750223
 20
22.72499980965628
 30
0.0
 11
61.34221160750223
 21
10.99999980965628
 31
0.0
  0
LINE
  5
98C
330
1A
100
AcDbEntity
  8
ZUWAKU
100
AcDbLine
 10
64.1422116075023
 20
9.94999980965629
 30
0.0
 11
64.1422116075023
 21
22.72499980965628
 31
0.0
  0
LINE
  5
98D
330
1A
100
AcDbEntity
  8
ZUWAKU
100
AcDbLine
 10
79.1266290007095
 20
29.99999980965629
 30
0.0
 11
79.1266290007095
 21
0.7999998096563559
 31
0.0
  0
LINE
  5
98E
330
1A
100
AcDbEntity
  8
ZUWAKU
100
AcDbLine
 10
79.52662900070937
 20
29.99999980965629
 30
0.0
 11
79.52662900070959
 21
0.7999998096563559
 31
0.0
  0
LINE
  5
98F
330
1A
100
AcDbEntity
  8
ZUWAKU
100
AcDbLine
 10
79.32662900070932
 20
29.99999980965629
 30
0.0
 11
79.32662900070955
 21
0.7999998096563559
 31
0.0
  0
LINE
  5
990
330
1A
100
AcDbEntity
  8
ZUWAKU
100
AcDbLine
 10
57.84221160750224
 20
7.149999809656293
 30
0.0
 11
61.34221160750223
 21
7.149999809656293
 31
0.0
  0
LINE
  5
991
330
1A
100
AcDbEntity
  8
ZUWAKU
100
AcDbLine
 10
60.29221160750228
 20
9.94999980965629
 30
0.0
 11
58.8922116075023
 21
9.94999980965629
 31
0.0
  0
LINE
  5
992
330
1A
100
AcDbEntity
  8
ZUWAKU
100
AcDbLine
 10
41.21721160750223
 20
7.149999809656293
 30
0.0
 11
42.96721160750223
 21
7.149999809656293
 31
0.0
  0
LINE
  5
993
330
1A
100
AcDbEntity
  8
ZUWAKU
100
AcDbLine
 10
35.6763465448181
 20
7.516905841489318
 30
0.0
 11
33.80807667018632
 21
13.43309377782325
 31
0.0
  0
ARC
  5
994
330
1A
100
AcDbEntity
  8
ZUWAKU
100
AcDbCircle
 10
33.16721160750228
 20
13.27499980965629
 30
0.0
 40
0.525
100
AcDbArc
 50
90.0
 51
180.0
  0
ARC
  5
995
330
1A
100
AcDbEntity
  8
ZUWAKU
100
AcDbCircle
 10
33.30744577099096
 20
13.27499980965629
 30
0.0
 40
0.525
100
AcDbArc
 50
17.52556837372303
 51
90.0
  0
ARC
  5
996
330
1A
100
AcDbEntity
  8
ZUWAKU
100
AcDbCircle
 10
30.36721160750221
 20
7.674999809656291
 30
0.0
 40
0.525
100
AcDbArc
 50
180.0
 51
270.0
  0
ARC
  5
997
330
1A
100
AcDbEntity
  8
ZUWAKU
100
AcDbCircle
 10
26.86721160750221
 20
9.424999809656291
 30
0.0
 40
0.525
100
AcDbArc
 50
0.0
 51
90.0
  0
ARC
  5
998
330
1A
100
AcDbEntity
  8
ZUWAKU
100
AcDbCircle
 10
26.86721160750221
 20
7.674999809656291
 30
0.0
 40
0.525
100
AcDbArc
 50
270.0
 51
0.0
  0
LINE
  5
999
330
1A
100
AcDbEntity
  8
ZUWAKU
100
AcDbLine
 10
27.3922116075023
 20
9.424999809656291
 30
0.0
 11
27.3922116075023
 21
7.674999809656291
 31
0.0
  0
LINE
  5
99A
330
1A
100
AcDbEntity
  8
ZUWAKU
100
AcDbLine
 10
32.6422116075023
 20
7.674999809656291
 30
0.0
 11
32.6422116075023
 21
13.27499980965629
 31
0.0
  0
ARC
  5
99B
330
1A
100
AcDbEntity
  8
ZUWAKU
100
AcDbCircle
 10
32.11721160750221
 20
7.674999809656291
 30
0.0
 40
0.525
100
AcDbArc
 50
270.0
 51
0.0
  0
LINE
  5
99C
330
1A
100
AcDbEntity
  8
ZUWAKU
100
AcDbLine
 10
30.36721160750221
 20
7.149999809656293
 30
0.0
 11
32.11721160750221
 21
7.149999809656293
 31
0.0
  0
ARC
  5
99D
330
1A
100
AcDbEntity
  8
ZUWAKU
100
AcDbCircle
 10
33.16721160750228
 20
17.12499980965629
 30
0.0
 40
0.525
100
AcDbArc
 50
180.0
 51
270.0
  0
LINE
  5
99E
330
1A
100
AcDbEntity
  8
ZUWAKU
100
AcDbLine
 10
33.16721160750228
 20
13.79999980965629
 30
0.0
 11
33.30744577099096
 21
13.79999980965629
 31
0.0
  0
LINE
  5
99F
330
1A
100
AcDbEntity
  8
ZUWAKU
100
AcDbLine
 10
33.30744577099096
 20
16.59999980965628
 30
0.0
 11
33.16721160750228
 21
16.59999980965628
 31
0.0
  0
ARC
  5
9A0
330
1A
100
AcDbEntity
  8
ZUWAKU
100
AcDbCircle
 10
33.30744577099096
 20
17.12499980965629
 30
0.0
 40
0.525
100
AcDbArc
 50
270.0
 51
342.4744316262769
  0
ARC
  5
9A1
330
1A
100
AcDbEntity
  8
ZUWAKU
100
AcDbCircle
 10
36.17697744401357
 20
7.674999809656291
 30
0.0
 40
0.525
100
AcDbArc
 50
197.525568373723
 51
270.0
  0
LINE
  5
9A2
330
1A
100
AcDbEntity
  8
ZUWAKU
100
AcDbLine
 10
38.37649772281804
 20
7.833093777823265
 30
0.0
 11
36.05010634434438
 21
15.19999980965631
 31
0.0
  0
ARC
  5
9A3
330
1A
100
AcDbEntity
  8
ZUWAKU
100
AcDbCircle
 10
37.87586682362257
 20
7.674999809656291
 30
0.0
 40
0.525
100
AcDbArc
 50
270.0
 51
17.52556837372303
  0
LINE
  5
9A4
330
1A
100
AcDbEntity
  8
ZUWAKU
100
AcDbLine
 10
36.17697744401357
 20
7.149999809656293
 30
0.0
 11
37.87586682362257
 21
7.149999809656293
 31
0.0
  0
ARC
  5
9A5
330
1A
100
AcDbEntity
  8
ZUWAKU
100
AcDbCircle
 10
41.21721160750223
 20
7.674999809656291
 30
0.0
 40
0.525
100
AcDbArc
 50
180.0
 51
270.0
  0
ARC
  5
9A6
330
1A
100
AcDbEntity
  8
ZUWAKU
100
AcDbCircle
 10
50.1422116075023
 20
9.94999980965629
 30
0.0
 40
2.799999999999999
100
AcDbArc
 50
270.0
 51
0.0
  0
ARC
  5
9A7
330
1A
100
AcDbEntity
  8
ZUWAKU
100
AcDbCircle
 10
57.84221160750224
 20
9.94999980965629
 30
0.0
 40
2.799999999999999
100
AcDbArc
 50
180.0
 51
270.0
  0
LINE
  5
9A8
330
1A
100
AcDbEntity
  8
ZUWAKU
100
AcDbLine
 10
51.71206008848582
 20
14.73505031599511
 30
0.0
 11
48.80226211384104
 21
17.64484829063979
 31
0.0
  0
LINE
  5
9A9
330
1A
100
AcDbEntity
  8
ZUWAKU
100
AcDbLine
 10
46.82236312651878
 20
15.66494930331747
 30
0.0
 11
49.73216110116346
 21
12.75515132867281
 31
0.0
  0
LINE
  5
9AA
330
1A
100
AcDbEntity
  8
ZUWAKU
100
AcDbLine
 10
46.6422116075023
 20
7.149999809656293
 30
0.0
 11
50.1422116075023
 21
7.149999809656293
 31
0.0
  0
LINE
  5
9AB
330
1A
100
AcDbEntity
  8
ZUWAKU
100
AcDbLine
 10
46.6422116075023
 20
9.94999980965629
 30
0.0
 11
49.61721160750221
 21
9.94999980965629
 31
0.0
  0
ARC
  5
9AC
330
1A
100
AcDbEntity
  8
ZUWAKU
100
AcDbCircle
 10
46.6422116075023
 20
9.424999809656291
 30
0.0
 40
0.525
100
AcDbArc
 50
90.0
 51
180.0
  0
ARC
  5
9AD
330
1A
100
AcDbEntity
  8
ZUWAKU
100
AcDbCircle
 10
42.96721160750223
 20
7.674999809656291
 30
0.0
 40
0.525
100
AcDbArc
 50
270.0
 51
0.0
  0
ARC
  5
9AE
330
1A
100
AcDbEntity
  8
ZUWAKU
100
AcDbCircle
 10
46.6422116075023
 20
7.674999809656291
 30
0.0
 40
0.525
100
AcDbArc
 50
180.0
 51
270.0
  0
LINE
  5
9AF
330
1A
100
AcDbEntity
  8
ZUWAKU
100
AcDbLine
 10
46.11721160750221
 20
7.674999809656291
 30
0.0
 11
46.11721160750221
 21
9.424999809656291
 31
0.0
  0
ARC
  5
9B0
330
1A
100
AcDbEntity
  8
ZUWAKU
100
AcDbCircle
 10
49.61721160750221
 20
10.47499980965629
 30
0.0
 40
0.525
100
AcDbArc
 50
270.0
 51
0.0
  0
ARC
  5
9B1
330
1A
100
AcDbEntity
  8
ZUWAKU
100
AcDbCircle
 10
48.74221160750221
 20
11.76520183501163
 30
0.0
 40
1.399999999999999
100
AcDbArc
 50
0.0
 51
45.0
  0
LINE
  5
9B2
330
1A
100
AcDbEntity
  8
ZUWAKU
100
AcDbLine
 10
50.1422116075023
 20
10.47499980965629
 30
0.0
 11
50.1422116075023
 21
11.76520183501163
 31
0.0
  0
ARC
  5
9B3
330
1A
100
AcDbEntity
  8
ZUWAKU
100
AcDbCircle
 10
58.8922116075023
 20
10.99999980965628
 30
0.0
 40
1.049999999999999
100
AcDbArc
 50
180.0
 51
270.0
  0
ARC
  5
9B4
330
1A
100
AcDbEntity
  8
ZUWAKU
100
AcDbCircle
 10
48.74221160750221
 20
11.76520183501159
 30
0.0
 40
4.199999999999999
100
AcDbArc
 50
0.0
 51
45.0
  0
LINE
  5
9B5
330
1A
100
AcDbEntity
  8
ZUWAKU
100
AcDbLine
 10
52.94221160750225
 20
9.94999980965629
 30
0.0
 11
52.94221160750225
 21
11.76520183501163
 31
0.0
  0
ARC
  5
9B6
330
1A
100
AcDbEntity
  8
ZUWAKU
100
AcDbCircle
 10
61.34221160750223
 20
9.94999980965629
 30
0.0
 40
2.799999999999999
100
AcDbArc
 50
270.0
 51
0.0
  0
LINE
  5
9B7
330
1A
100
AcDbEntity
  8
ZUWAKU
100
AcDbLine
 10
66.7672116075023
 20
7.149999809656293
 30
0.0
 11
68.5172116075023
 21
7.149999809656293
 31
0.0
  0
ARC
  5
9B8
330
1A
100
AcDbEntity
  8
ZUWAKU
100
AcDbCircle
 10
60.29221160750228
 20
10.99999980965628
 30
0.0
 40
1.049999999999999
100
AcDbArc
 50
270.0
 51
0.0
  0
ARC
  5
9B9
330
1A
100
AcDbEntity
  8
ZUWAKU
100
AcDbCircle
 10
66.7672116075023
 20
7.674999809656291
 30
0.0
 40
0.525
100
AcDbArc
 50
180.0
 51
270.0
  0
ARC
  5
9BA
330
1A
100
AcDbEntity
  8
ZUWAKU
100
AcDbCircle
 10
68.5172116075023
 20
7.674999809656291
 30
0.0
 40
0.525
100
AcDbArc
 50
270.0
 51
0.0
  0
LINE
  5
9BB
330
1A
100
AcDbEntity
  8
ZUWAKU
100
AcDbLine
 10
42.96721160750223
 20
23.24999980965629
 30
0.0
 11
41.21721160750223
 21
23.24999980965629
 31
0.0
  0
LINE
  5
9BC
330
1A
100
AcDbEntity
  8
ZUWAKU
100
AcDbLine
 10
27.3922116075023
 20
22.72499980965628
 30
0.0
 11
27.3922116075023
 21
20.97499980965629
 31
0.0
  0
ARC
  5
9BD
330
1A
100
AcDbEntity
  8
ZUWAKU
100
AcDbCircle
 10
26.86721160750221
 20
20.97499980965629
 30
0.0
 40
0.525
100
AcDbArc
 50
270.0
 51
0.0
  0
ARC
  5
9BE
330
1A
100
AcDbEntity
  8
ZUWAKU
100
AcDbCircle
 10
30.36721160750221
 20
22.72499980965628
 30
0.0
 40
0.525
100
AcDbArc
 50
90.0
 51
180.0
  0
ARC
  5
9BF
330
1A
100
AcDbEntity
  8
ZUWAKU
100
AcDbCircle
 10
26.86721160750221
 20
22.72499980965628
 30
0.0
 40
0.525
100
AcDbArc
 50
0.0
 51
90.0
  0
LINE
  5
9C0
330
1A
100
AcDbEntity
  8
ZUWAKU
100
AcDbLine
 10
32.11721160750221
 20
23.24999980965629
 30
0.0
 11
30.36721160750221
 21
23.24999980965629
 31
0.0
  0
ARC
  5
9C1
330
1A
100
AcDbEntity
  8
ZUWAKU
100
AcDbCircle
 10
32.11721160750221
 20
22.72499980965628
 30
0.0
 40
0.525
100
AcDbArc
 50
0.0
 51
90.0
  0
ARC
  5
9C2
330
1A
100
AcDbEntity
  8
ZUWAKU
100
AcDbCircle
 10
36.17697744401357
 20
22.72499980965628
 30
0.0
 40
0.525
100
AcDbArc
 50
90.0
 51
162.4744316262769
  0
LINE
  5
9C3
330
1A
100
AcDbEntity
  8
ZUWAKU
100
AcDbLine
 10
38.37649772281804
 20
22.56690584148932
 30
0.0
 11
37.31485808968022
 21
19.20504700321972
 31
0.0
  0
ARC
  5
9C4
330
1A
100
AcDbEntity
  8
ZUWAKU
100
AcDbCircle
 10
37.87586682362257
 20
22.72499980965628
 30
0.0
 40
0.525
100
AcDbArc
 50
342.4744316262769
 51
90.0
  0
LINE
  5
9C5
330
1A
100
AcDbEntity
  8
ZUWAKU
100
AcDbLine
 10
36.17697744401357
 20
23.24999980965629
 30
0.0
 11
37.87586682362257
 21
23.24999980965629
 31
0.0
  0
ARC
  5
9C6
330
1A
100
AcDbEntity
  8
ZUWAKU
100
AcDbCircle
 10
41.21721160750223
 20
22.72499980965628
 30
0.0
 40
0.525
100
AcDbArc
 50
90.0
 51
180.0
  0
LINE
  5
9C7
330
1A
100
AcDbEntity
  8
ZUWAKU
100
AcDbLine
 10
51.8922116075023
 20
20.44999980965628
 30
0.0
 11
48.91721160750228
 21
20.44999980965628
 31
0.0
  0
LINE
  5
9C8
330
1A
100
AcDbEntity
  8
ZUWAKU
100
AcDbLine
 10
48.39221160750231
 20
23.24999980965629
 30
0.0
 11
51.8922116075023
 21
23.24999980965629
 31
0.0
  0
ARC
  5
9C9
330
1A
100
AcDbEntity
  8
ZUWAKU
100
AcDbCircle
 10
48.39221160750231
 20
20.44999980965628
 30
0.0
 40
2.799999999999999
100
AcDbArc
 50
90.0
 51
180.0
  0
LINE
  5
9CA
330
1A
100
AcDbEntity
  8
ZUWAKU
100
AcDbLine
 10
45.59221160750223
 20
20.44999980965628
 30
0.0
 11
45.59221160750223
 21
18.63479778430095
 31
0.0
  0
ARC
  5
9CB
330
1A
100
AcDbEntity
  8
ZUWAKU
100
AcDbCircle
 10
42.96721160750223
 20
22.72499980965628
 30
0.0
 40
0.525
100
AcDbArc
 50
0.0
 51
90.0
  0
LINE
  5
9CC
330
1A
100
AcDbEntity
  8
ZUWAKU
100
AcDbLine
 10
48.39221160750231
 20
19.92499980965629
 30
0.0
 11
48.39221160750231
 21
18.63479778430095
 31
0.0
  0
ARC
  5
9CD
330
1A
100
AcDbEntity
  8
ZUWAKU
100
AcDbCircle
 10
48.91721160750228
 20
19.92499980965629
 30
0.0
 40
0.525
100
AcDbArc
 50
90.0
 51
180.0
  0
LINE
  5
9CE
330
1A
100
AcDbEntity
  8
ZUWAKU
100
AcDbLine
 10
52.41721160750228
 20
22.72499980965628
 30
0.0
 11
52.41721160750228
 21
20.97499980965629
 31
0.0
  0
ARC
  5
9CF
330
1A
100
AcDbEntity
  8
ZUWAKU
100
AcDbCircle
 10
51.8922116075023
 20
20.97499980965629
 30
0.0
 40
0.525
100
AcDbArc
 50
270.0
 51
0.0
  0
ARC
  5
9D0
330
1A
100
AcDbEntity
  8
ZUWAKU
100
AcDbCircle
 10
51.8922116075023
 20
22.72499980965628
 30
0.0
 40
0.525
100
AcDbArc
 50
0.0
 51
90.0
  0
LINE
  5
9D1
330
1A
100
AcDbEntity
  8
ZUWAKU
100
AcDbLine
 10
57.31721160750225
 20
23.24999980965629
 30
0.0
 11
55.56721160750226
 21
23.24999980965629
 31
0.0
  0
ARC
  5
9D2
330
1A
100
AcDbEntity
  8
ZUWAKU
100
AcDbCircle
 10
55.56721160750226
 20
22.72499980965628
 30
0.0
 40
0.525
100
AcDbArc
 50
90.0
 51
180.0
  0
ARC
  5
9D3
330
1A
100
AcDbEntity
  8
ZUWAKU
100
AcDbCircle
 10
57.31721160750225
 20
22.72499980965628
 30
0.0
 40
0.525
100
AcDbArc
 50
0.0
 51
90.0
  0
LINE
  5
9D4
330
1A
100
AcDbEntity
  8
ZUWAKU
100
AcDbLine
 10
68.5172116075023
 20
23.24999980965629
 30
0.0
 11
66.7672116075023
 21
23.24999980965629
 31
0.0
  0
ARC
  5
9D5
330
1A
100
AcDbEntity
  8
ZUWAKU
100
AcDbCircle
 10
61.86721160750221
 20
22.72499980965628
 30
0.0
 40
0.525
100
AcDbArc
 50
90.0
 51
180.0
  0
LINE
  5
9D6
330
1A
100
AcDbEntity
  8
ZUWAKU
100
AcDbLine
 10
63.61721160750221
 20
23.24999980965629
 30
0.0
 11
61.86721160750221
 21
23.24999980965629
 31
0.0
  0
ARC
  5
9D7
330
1A
100
AcDbEntity
  8
ZUWAKU
100
AcDbCircle
 10
63.61721160750221
 20
22.72499980965628
 30
0.0
 40
0.525
100
AcDbArc
 50
0.0
 51
90.0
  0
ARC
  5
9D8
330
1A
100
AcDbEntity
  8
ZUWAKU
100
AcDbCircle
 10
66.7672116075023
 20
22.72499980965628
 30
0.0
 40
0.525
100
AcDbArc
 50
90.0
 51
180.0
  0
ARC
  5
9D9
330
1A
100
AcDbEntity
  8
ZUWAKU
100
AcDbCircle
 10
68.5172116075023
 20
22.72499980965628
 30
0.0
 40
0.525
100
AcDbArc
 50
0.0
 51
90.0
  0
TEXT
  5
9DA
330
1A
100
AcDbEntity
  8
MOJI
100
AcDbText
 10
239.8272021335722
 20
18.00492086706367
 30
0.0
 40
5.599999999999999
  1
ステンレス金具正面打（受）ストロング高強度金具
 41
0.9
  7
ｽﾀｲﾙ1
100
AcDbText
  0
TEXT
  5
9DB
330
1A
100
AcDbEntity
  8
MOJI
100
AcDbText
 10
239.8272021335722
 20
3.204920867063709
 30
0.0
 40
5.599999999999999
  1
Ｘ７０Ｕ－４寸－２０m/m（6分）
 41
0.9
  7
ｽﾀｲﾙ1
100
AcDbText
  0
LINE
  5
9DC
330
1A
100
AcDbEntity
  8
ZUWAKU
100
AcDbLine
 10
208.4466007427888
 20
29.99999980965629
 30
0.0
 11
208.4466007427891
 21
0.7999998096563559
 31
0.0
  0
LINE
  5
9DD
330
1A
100
AcDbEntity
  8
ZUWAKU
100
AcDbLine
 10
208.6466007427889
 20
29.99999980965629
 30
0.0
 11
208.6466007427891
 21
0.7999998096563559
 31
0.0
  0
LINE
  5
9DE
330
1A
100
AcDbEntity
  8
ZUWAKU
100
AcDbLine
 10
208.246600742789
 20
29.99999980965629
 30
0.0
 11
208.246600742789
 21
0.7999998096563559
 31
0.0
  0
TEXT
  5
9DF
330
1A
100
AcDbEntity
  8
ZUWAKU
100
AcDbText
 10
209.7240457649986
 20
9.655356348041905
 30
0.0
 40
4.0
  1
サイズ
 41
0.9
  7
ｽﾀｲﾙ1
100
AcDbText
  0
TEXT
  5
9E0
330
1A
100
AcDbEntity
  8
ZUWAKU
100
AcDbText
 10
209.7240457649984
 20
24.05535634804186
 30
0.0
 40
4.0
  1
品名
 41
0.9
  7
ｽﾀｲﾙ1
100
AcDbText
  0
TEXT
  5
9E1
330
1A
100
AcDbEntity
  8
ZUWAKU
100
AcDbText
 10
658.2039371400234
 20
18.00492086706367
 30
0.0
 40
5.599999999999999
  1
　　．　　．　　
 41
0.9
  7
ｽﾀｲﾙ1
100
AcDbText
  0
LINE
  5
9E2
330
1A
100
AcDbEntity
  8
ZUWAKU
100
AcDbLine
 10
648.8172019629253
 20
15.59999980965632
 30
0.0
 11
697.2490100012623
 21
15.59999980965632
 31
0.0
  0
LINE
  5
9E3
330
1A
100
AcDbEntity
  8
ZUWAKU
100
AcDbLine
 10
648.8172019629255
 20
15.39999980965632
 30
0.0
 11
697.2490100012623
 21
15.39999980965632
 31
0.0
  0
LINE
  5
9E4
330
1A
100
AcDbEntity
  8
ZUWAKU
100
AcDbLine
 10
648.8172019629253
 20
15.19999980965631
 30
0.0
 11
697.2490100012623
 21
15.19999980965632
 31
0.0
  0
LINE
  5
9E5
330
1A
100
AcDbEntity
  8
ZUWAKU
100
AcDbLine
 10
505.199178950862
 20
15.59999980965632
 30
0.0
 11
552.5269552188335
 21
15.59999980965632
 31
0.0
  0
LINE
  5
9E6
330
1A
100
AcDbEntity
  8
ZUWAKU
100
AcDbLine
 10
505.199178950862
 20
15.39999980965632
 30
0.0
 11
552.5269552188335
 21
15.39999980965632
 31
0.0
  0
LINE
  5
9E7
330
1A
100
AcDbEntity
  8
ZUWAKU
100
AcDbLine
 10
505.199178950862
 20
15.19999980965632
 30
0.0
 11
552.5269552188335
 21
15.19999980965632
 31
0.0
  0
LINE
  5
9E8
330
1A
100
AcDbEntity
  8
ZUWAKU
100
AcDbLine
 10
504.7991789508621
 20
29.99999980965629
 30
0.0
 11
504.7991789508621
 21
0.7999998096563559
 31
0.0
  0
LINE
  5
9E9
330
1A
100
AcDbEntity
  8
ZUWAKU
100
AcDbLine
 10
505.199178950862
 20
29.99999980965629
 30
0.0
 11
505.1991789508622
 21
0.7999998096563559
 31
0.0
  0
LINE
  5
9EA
330
1A
100
AcDbEntity
  8
ZUWAKU
100
AcDbLine
 10
504.9991789508619
 20
29.99999980965629
 30
0.0
 11
504.9991789508622
 21
0.7999998096563559
 31
0.0
  0
TEXT
  5
9EB
330
1A
100
AcDbEntity
  8
MOJI
100
AcDbText
 10
528.0409074250339
 20
18.00492086706367
 30
0.0
 40
5.599999999999999
  1
Ａ３
 41
0.9
  7
ｽﾀｲﾙ1
100
AcDbText
  0
LINE
  5
9EC
330
1A
100
AcDbEntity
  8
ZUWAKU
100
AcDbLine
 10
447.4243634237125
 20
29.99999980965629
 30
0.0
 11
447.4243634237125
 21
0.7999998096563559
 31
0.0
  0
LINE
  5
9ED
330
1A
100
AcDbEntity
  8
ZUWAKU
100
AcDbLine
 10
447.8243634237124
 20
29.99999980965629
 30
0.0
 11
447.8243634237125
 21
0.7999998096563559
 31
0.0
  0
LINE
  5
9EE
330
1A
100
AcDbEntity
  8
ZUWAKU
100
AcDbLine
 10
447.6243634237123
 20
29.99999980965629
 30
0.0
 11
447.6243634237126
 21
0.7999998096563559
 31
0.0
  0
TEXT
  5
9EF
330
1A
100
AcDbEntity
  8
MOJI
100
AcDbText
 10
463.2464314437231
 20
11.94261753131627
 30
0.0
 40
5.599999999999999
  1
ＬＤ３２□
 41
0.9
  7
ｽﾀｲﾙ1
100
AcDbText
  0
TEXT
  5
9F0
330
1A
100
AcDbEntity
  8
ZUWAKU
100
AcDbText
 10
461.6981346806335
 20
2.9083290495455
 30
0.0
 40
3.0
  1
□には色品番が入ります
 41
0.9
  7
ｽﾀｲﾙ1
100
AcDbText
  0
TEXT
  5
9F1
330
1A
100
AcDbEntity
  8
ZUWAKU
100
AcDbText
 10
506.6766239730718
 20
9.655356348041905
 30
0.0
 40
4.0
  1
縮尺
 41
0.9
  7
ｽﾀｲﾙ1
100
AcDbText
  0
TEXT
  5
9F2
330
1A
100
AcDbEntity
  8
MOJI
100
AcDbText
 10
528.0409074250339
 20
3.204920867063709
 30
0.0
 40
5.599999999999999
  1
１/２
 41
0.9
  7
ｽﾀｲﾙ1
100
AcDbText
  0
TEXT
  5
9F3
330
1A
100
AcDbEntity
  8
ZUWAKU
100
AcDbText
 10
449.301808445922
 20
24.05535634804186
 30
0.0
 40
4.0
  1
品番
 41
0.9
  7
ｽﾀｲﾙ1
100
AcDbText
  0
TEXT
  5
9F4
330
1A
100
AcDbEntity
  8
ZUWAKU
100
AcDbText
 10
506.6766239730716
 20
24.05535634804186
 30
0.0
 40
4.0
  1
用紙
 41
0.9
  7
ｽﾀｲﾙ1
100
AcDbText
  0
LINE
  5
9F5
330
1A
100
AcDbEntity
  8
ZUWAKU
100
AcDbLine
 10
552.5269552188335
 20
29.99999980965629
 30
0.0
 11
552.5269552188335
 21
0.7999998096563559
 31
0.0
  0
LINE
  5
9F6
330
1A
100
AcDbEntity
  8
ZUWAKU
100
AcDbLine
 10
552.9269552188334
 20
29.99999980965629
 30
0.0
 11
552.9269552188337
 21
0.7999998096563559
 31
0.0
  0
LINE
  5
9F7
330
1A
100
AcDbEntity
  8
ZUWAKU
100
AcDbLine
 10
552.7269552188333
 20
29.99999980965629
 30
0.0
 11
552.7269552188336
 21
0.7999998096563559
 31
0.0
  0
LINE
  5
9F8
330
1A
100
AcDbEntity
  8
ZUWAKU
100
AcDbLine
 10
648.4172019629256
 20
29.99999980965629
 30
0.0
 11
648.4172019629256
 21
0.7999998096563559
 31
0.0
  0
LINE
  5
9F9
330
1A
100
AcDbEntity
  8
ZUWAKU
100
AcDbLine
 10
648.8172019629255
 20
29.99999980965629
 30
0.0
 11
648.8172019629257
 21
0.7999998096563559
 31
0.0
  0
LINE
  5
9FA
330
1A
100
AcDbEntity
  8
ZUWAKU
100
AcDbLine
 10
648.6172019629255
 20
29.99999980965629
 30
0.0
 11
648.6172019629257
 21
0.7999998096563559
 31
0.0
  0
TEXT
  5
9FB
330
1A
100
AcDbEntity
  8
ZUWAKU
100
AcDbText
 10
650.2946469851352
 20
24.05535634804186
 30
0.0
 40
4.0
  1
DATE
 41
0.9
  7
ｽﾀｲﾙ1
100
AcDbText
  0
TEXT
  5
9FC
330
1A
100
AcDbEntity
  8
ZUWAKU
100
AcDbText
 10
708.5280836449649
 20
17.55383914534309
 30
0.0
 40
6.0
  1
積水化学工業株式会社
 41
0.9
  7
ｽﾀｲﾙ1
100
AcDbText
  0
LINE
  5
9FD
330
1A
100
AcDbEntity
  8
ZUWAKU
100
AcDbLine
 10
697.8490100012622
 20
29.99999980965629
 30
0.0
 11
697.8490100012625
 21
0.7999998096563559
 31
0.0
  0
LINE
  5
9FE
330
1A
100
AcDbEntity
  8
ZUWAKU
100
AcDbLine
 10
697.6490100012622
 20
29.99999980965629
 30
0.0
 11
697.6490100012624
 21
0.7999998096563559
 31
0.0
  0
LINE
  5
9FF
330
1A
100
AcDbEntity
  8
ZUWAKU
100
AcDbLine
 10
697.4490100012624
 20
29.99999980965629
 30
0.0
 11
697.4490100012624
 21
0.7999998096563559
 31
0.0
  0
LINE
  5
A00
330
1A
100
AcDbEntity
  8
ZUWAKU
100
AcDbLine
 10
697.2490100012623
 20
29.99999980965629
 30
0.0
 11
697.2490100012623
 21
0.7999998096563559
 31
0.0
  0
TEXT
  5
A01
330
1A
100
AcDbEntity
  8
ZUWAKU
100
AcDbText
 10
708.5280836449649
 20
6.648840123510353
 30
0.0
 40
6.0
  1
建材事業部
 41
0.9
  7
ｽﾀｲﾙ1
100
AcDbText
  0
VIEWPORT
  5
22
330
17
100
AcDbEntity
 67
     1
  8
0
100
AcDbViewport
 10
313.6808219178082
 20
148.5
 30
0.0
 40
627.3616438356165
 41
297.0
 68
     2
 69
     1
1001
ACAD
1000
MVIEW
1002
{
1070
    16
1010
0.0
1020
0.0
1030
0.0
1010
0.0
1020
0.0
1030
1.0
1040
0.0
1040
297.0
1040
313.6808219178082
1040
148.5
1040
50.0
1040
0.0
1040
0.0
1070
     0
1070
   100
1070
     1
1070
     0
1070
     0
1070
     0
1070
     0
1070
     0
1040
0.0
1040
0.0
1040
0.0
1040
1.0
1040
1.0
1040
10.0
1040
10.0
1070
     0
1002
{
1002
}
1002
}
  0
VIEWPORT
  5
64
330
17
100
AcDbEntity
 67
     1
  8
VIEWPORT
100
AcDbViewport
 10
210.0
 20
148.5
 30
0.0
 40
420.0
 41
297.0
 68
     1
 69
     2
1001
ACAD
1000
MVIEW
1002
{
1070
    16
1010
0.0
1020
0.0
1030
0.0
1010
0.0
1020
0.0
1030
1.0
1040
0.0
1040
605.8799999999998
1040
420.0
1040
297.0
1040
50.0
1040
0.0
1040
0.0
1070
     0
1070
   100
1070
     1
1070
     0
1070
     0
1070
     0
1070
     0
1070
     0
1040
0.0
1040
0.0
1040
0.0
1040
10.0
1040
10.0
1040
0.0
1040
0.0
1070
     0
1002
{
1002
}
1002
}
  0
ENDSEC
  0
SECTION
  2
OBJECTS
  0
DICTIONARY
  5
C
330
0
100
AcDbDictionary
  3
ACAD_GROUP
350
D
  3
ACAD_LAYOUT
350
820
  3
ACAD_MLINESTYLE
350
E
  3
ACAD_PLOTSETTINGS
350
821
  3
ACAD_PLOTSTYLENAME
350
81E
  3
ACDBHEADERROUNDTRIPXREC
350
A09
  0
DICTIONARY
  5
84F
330
1A
100
AcDbDictionary
280
     1
  3
ACAD_LAYOUTSELFREF
360
A2B
  0
DICTIONARY
  5
84D
330
17
100
AcDbDictionary
280
     1
  3
ACAD_LAYOUTSELFREF
360
A2A
  0
DICTIONARY
  5
D
102
{ACAD_REACTORS
330
C
102
}
330
C
100
AcDbDictionary
  0
DICTIONARY
  5
820
102
{ACAD_REACTORS
330
C
102
}
330
C
100
AcDbDictionary
  0
DICTIONARY
  5
E
102
{ACAD_REACTORS
330
C
102
}
330
C
100
AcDbDictionary
  3
STANDARD
350
13
  0
DICTIONARY
  5
821
102
{ACAD_REACTORS
330
C
102
}
330
C
100
AcDbDictionary
  0
ACDBDICTIONARYWDFLT
  5
81E
102
{ACAD_REACTORS
330
C
102
}
330
C
100
AcDbDictionary
281
     1
  3
Normal
350
81F
100
AcDbDictionaryWithDefault
340
81F
1001
ACAD
1000
TREAT_AS_HARD
1070
     0
1000
TREAT_AS_HARD
1070
     0
  0
DICTIONARY
  5
A09
102
{ACAD_REACTORS
330
C
102
}
330
C
100
AcDbDictionary
  3
TSTACKALIGN
350
A0A
  3
TSTACKSIZE
350
A0B
  3
HYPERLINKBASE
350
A0C
  3
STYLESHEET
350
A0D
  3
LAYOUTDICT
350
A0E
  3
PLOTSETDICT
350
A0F
  3
PLOTSTYLNAMDICT
350
A10
  3
LWETCUNION
350
A11
  3
INSUNITS
350
A12
  3
CEPSNTYPE
350
A13
  3
FINGERPRINTGUID
350
A14
  3
VERSIONGUID
350
A15
  3
PSVPSCALE
350
A16
  3
DIMSTYLEDATA
350
A17
  3
PUCSORTHOREF
350
A18
  3
PUCSORTHOVIEW
350
A19
  3
PUCSBASE
350
A1A
  3
PUCSORGTOP
350
A1B
  3
PUCSORGBOTTOM
350
A1C
  3
PUCSORGLEFT
350
A1D
  3
PUCSORGRIGHT
350
A1E
  3
PUCSORGFRONT
350
A1F
  3
PUCSORGBACK
350
A20
  3
UCSORTHOREF
350
A21
  3
UCSORTHOVIEW
350
A22
  3
UCSBASE
350
A23
  3
UCSORGTOP
350
A24
  3
UCSORGBOTTOM
350
A25
  3
UCSORGLEFT
350
A26
  3
UCSORGRIGHT
350
A27
  3
UCSORGFRONT
350
A28
  3
UCSORGBACK
350
A29
  0
XRECORD
  5
A2B
102
{ACAD_REACTORS
330
84F
102
}
330
84F
100
AcDbXrecord
340
1A
  0
XRECORD
  5
A2A
102
{ACAD_REACTORS
330
84D
102
}
330
84D
100
AcDbXrecord
340
17
  0
MLINESTYLE
  5
13
102
{ACAD_REACTORS
330
E
102
}
330
E
100
AcDbMlineStyle
  2
STANDARD
 70
     0
  3

 62
     0
 51
90.0
 52
90.0
 71
     2
 49
0.5
 62
   256
  6
BYLAYER
 49
-0.5
 62
   256
  6
BYLAYER
  0
ACDBPLACEHOLDER
  5
81F
102
{ACAD_REACTORS
330
81E
102
}
330
81E
100
AcDbPlaceHolder
280
     0
  0
XRECORD
  5
A0A
102
{ACAD_REACTORS
330
A09
102
}
330
A09
100
AcDbXrecord
 90
        1
  0
XRECORD
  5
A0B
102
{ACAD_REACTORS
330
A09
102
}
330
A09
100
AcDbXrecord
 90
       70
  0
XRECORD
  5
A0C
102
{ACAD_REACTORS
330
A09
102
}
330
A09
100
AcDbXrecord
  1

  0
XRECORD
  5
A0D
102
{ACAD_REACTORS
330
A09
102
}
330
A09
100
AcDbXrecord
  1
systemprinter.ctb
  0
XRECORD
  5
A0E
102
{ACAD_REACTORS
330
A09
102
}
330
A09
100
AcDbXrecord
340
820
  0
XRECORD
  5
A0F
102
{ACAD_REACTORS
330
A09
102
}
330
A09
100
AcDbXrecord
340
821
  0
XRECORD
  5
A10
102
{ACAD_REACTORS
330
A09
102
}
330
A09
100
AcDbXrecord
340
81E
  0
XRECORD
  5
A11
102
{ACAD_REACTORS
330
A09
102
}
330
A09
100
AcDbXrecord
 90
    10781
  0
XRECORD
  5
A12
102
{ACAD_REACTORS
330
A09
102
}
330
A09
100
AcDbXrecord
 90
        0
  0
XRECORD
  5
A13
102
{ACAD_REACTORS
330
A09
102
}
330
A09
100
AcDbXrecord
 90
        0
  0
XRECORD
  5
A14
102
{ACAD_REACTORS
330
A09
102
}
330
A09
100
AcDbXrecord
  1
{35D6B4AE-9A3B-454E-9B00-F00A859C56D4}
  0
XRECORD
  5
A15
102
{ACAD_REACTORS
330
A09
102
}
330
A09
100
AcDbXrecord
  1
{B8FA353A-06C6-4CBF-A6B0-D8F2CB77CDE4}
  0
XRECORD
  5
A16
102
{ACAD_REACTORS
330
A09
102
}
330
A09
100
AcDbXrecord
 40
0.0
  0
XRECORD
  5
A17
102
{ACAD_REACTORS
330
A09
102
}
330
A09
100
AcDbXrecord
1000
DSTYLE
1002
{
1070
   341
340
6D
1070
   343
340
6D
1070
   344
340
6D
1070
   371
 70
    -1
1070
   372
 70
    -1
1002
}
  0
XRECORD
  5
A18
102
{ACAD_REACTORS
330
A09
102
}
330
A09
100
AcDbXrecord
340
0
  0
XRECORD
  5
A19
102
{ACAD_REACTORS
330
A09
102
}
330
A09
100
AcDbXrecord
 70
     0
  0
XRECORD
  5
A1A
102
{ACAD_REACTORS
330
A09
102
}
330
A09
100
AcDbXrecord
340
0
  0
XRECORD
  5
A1B
102
{ACAD_REACTORS
330
A09
102
}
330
A09
100
AcDbXrecord
 10
0.0
 20
0.0
 30
0.0
  0
XRECORD
  5
A1C
102
{ACAD_REACTORS
330
A09
102
}
330
A09
100
AcDbXrecord
 10
0.0
 20
0.0
 30
0.0
  0
XRECORD
  5
A1D
102
{ACAD_REACTORS
330
A09
102
}
330
A09
100
AcDbXrecord
 10
0.0
 20
0.0
 30
0.0
  0
XRECORD
  5
A1E
102
{ACAD_REACTORS
330
A09
102
}
330
A09
100
AcDbXrecord
 10
0.0
 20
0.0
 30
0.0
  0
XRECORD
  5
A1F
102
{ACAD_REACTORS
330
A09
102
}
330
A09
100
AcDbXrecord
 10
0.0
 20
0.0
 30
0.0
  0
XRECORD
  5
A20
102
{ACAD_REACTORS
330
A09
102
}
330
A09
100
AcDbXrecord
 10
0.0
 20
0.0
 30
0.0
  0
XRECORD
  5
A21
102
{ACAD_REACTORS
330
A09
102
}
330
A09
100
AcDbXrecord
340
0
  0
XRECORD
  5
A22
102
{ACAD_REACTORS
330
A09
102
}
330
A09
100
AcDbXrecord
 70
     0
  0
XRECORD
  5
A23
102
{ACAD_REACTORS
330
A09
102
}
330
A09
100
AcDbXrecord
340
0
  0
XRECORD
  5
A24
102
{ACAD_REACTORS
330
A09
102
}
330
A09
100
AcDbXrecord
 10
0.0
 20
0.0
 30
0.0
  0
XRECORD
  5
A25
102
{ACAD_REACTORS
330
A09
102
}
330
A09
100
AcDbXrecord
 10
0.0
 20
0.0
 30
0.0
  0
XRECORD
  5
A26
102
{ACAD_REACTORS
330
A09
102
}
330
A09
100
AcDbXrecord
 10
0.0
 20
0.0
 30
0.0
  0
XRECORD
  5
A27
102
{ACAD_REACTORS
330
A09
102
}
330
A09
100
AcDbXrecord
 10
0.0
 20
0.0
 30
0.0
  0
XRECORD
  5
A28
102
{ACAD_REACTORS
330
A09
102
}
330
A09
100
AcDbXrecord
 10
0.0
 20
0.0
 30
0.0
  0
XRECORD
  5
A29
102
{ACAD_REACTORS
330
A09
102
}
330
A09
100
AcDbXrecord
 10
0.0
 20
0.0
 30
0.0
  0
ENDSEC
  0
EOF
