  0
SECTION
  2
HEADER
  9
$ACADVER
  1
AC1014
  9
$ACADMAINTVER
 70
     9
  9
$DWGCODEPAGE
  3
ANSI_932
  9
$INSBASE
 10
0.0
 20
0.0
 30
0.0
  9
$EXTMIN
 10
-0.0256333571728646
 20
-0.0181262487631102
 30
-0.0000000100021362
  9
$EXTMAX
 10
797.6000995350432
 20
551.6452344744309
 30
0.0000000100021363
  9
$LIMMIN
 10
0.0
 20
0.0
  9
$LIMMAX
 10
840.0
 20
594.0
  9
$ORTHOMODE
 70
     0
  9
$REGENMODE
 70
     1
  9
$FILLMODE
 70
     1
  9
$QTEXTMODE
 70
     0
  9
$MIRRTEXT
 70
     1
  9
$DRAGMODE
 70
     2
  9
$LTSCALE
 40
2.0
  9
$OSMODE
 70
    37
  9
$ATTMODE
 70
     1
  9
$TEXTSIZE
 40
5.0
  9
$TRACEWID
 40
1.0
  9
$TEXTSTYLE
  7
STANDARD
  9
$CLAYER
  8
SUNPOU
  9
$CELTYPE
  6
BYLAYER
  9
$CECOLOR
 62
   256
  9
$CELTSCALE
 40
1.0
  9
$DELOBJ
 70
     1
  9
$DISPSILH
 70
     0
  9
$DIMSCALE
 40
1.0
  9
$DIMASZ
 40
7.0
  9
$DIMEXO
 40
6.0
  9
$DIMDLI
 40
14.0
  9
$DIMRND
 40
0.0
  9
$DIMDLE
 40
0.0
  9
$DIMEXE
 40
3.0
  9
$DIMTP
 40
0.0
  9
$DIMTM
 40
0.0
  9
$DIMTXT
 40
6.0
  9
$DIMCEN
 40
150.0
  9
$DIMTSZ
 40
0.0
  9
$DIMTOL
 70
     0
  9
$DIMLIM
 70
     0
  9
$DIMTIH
 70
     0
  9
$DIMTOH
 70
     0
  9
$DIMSE1
 70
     0
  9
$DIMSE2
 70
     0
  9
$DIMTAD
 70
     3
  9
$DIMZIN
 70
     0
  9
$DIMBLK
  1

  9
$DIMASO
 70
     1
  9
$DIMSHO
 70
     1
  9
$DIMPOST
  1

  9
$DIMAPOST
  1

  9
$DIMALT
 70
     0
  9
$DIMALTD
 70
     2
  9
$DIMALTF
 40
25.4
  9
$DIMLFAC
 40
1.0
  9
$DIMTOFL
 70
     1
  9
$DIMTVP
 40
0.0
  9
$DIMTIX
 70
     0
  9
$DIMSOXD
 70
     0
  9
$DIMSAH
 70
     1
  9
$DIMBLK1
  1
OPEN
  9
$DIMBLK2
  1
OPEN
  9
$DIMSTYLE
  2
STANDARD
  9
$DIMCLRD
 70
   256
  9
$DIMCLRE
 70
   256
  9
$DIMCLRT
 70
   256
  9
$DIMTFAC
 40
1.0
  9
$DIMGAP
 40
2.0
  9
$DIMJUST
 70
     0
  9
$DIMSD1
 70
     0
  9
$DIMSD2
 70
     0
  9
$DIMTOLJ
 70
     1
  9
$DIMTZIN
 70
     0
  9
$DIMALTZ
 70
     0
  9
$DIMALTTZ
 70
     0
  9
$DIMFIT
 70
     3
  9
$DIMUPT
 70
     0
  9
$DIMUNIT
 70
     2
  9
$DIMDEC
 70
     0
  9
$DIMTDEC
 70
     0
  9
$DIMALTU
 70
     2
  9
$DIMALTTD
 70
     2
  9
$DIMTXSTY
  7
STANDARD
  9
$DIMAUNIT
 70
     0
  9
$LUNITS
 70
     2
  9
$LUPREC
 70
     4
  9
$SKETCHINC
 40
1.0
  9
$FILLETRAD
 40
1.0
  9
$AUNITS
 70
     0
  9
$AUPREC
 70
     0
  9
$MENU
  1
.
  9
$ELEVATION
 40
0.0
  9
$PELEVATION
 40
0.0
  9
$THICKNESS
 40
0.0
  9
$LIMCHECK
 70
     0
  9
$BLIPMODE
 70
     0
  9
$CHAMFERA
 40
20.0
  9
$CHAMFERB
 40
20.0
  9
$CHAMFERC
 40
40.0
  9
$CHAMFERD
 40
0.0
  9
$SKPOLY
 70
     0
  9
$TDCREATE
 40
2450994.354346065
  9
$TDUPDATE
 40
2454515.369946747
  9
$TDINDWG
 40
0.0357782639
  9
$TDUSRTIMER
 40
0.0357782639
  9
$USRTIMER
 70
     1
  9
$ANGBASE
 50
0.0
  9
$ANGDIR
 70
     0
  9
$PDMODE
 70
     1
  9
$PDSIZE
 40
0.0
  9
$PLINEWID
 40
0.0
  9
$COORDS
 70
     2
  9
$SPLFRAME
 70
     0
  9
$SPLINETYPE
 70
     6
  9
$SPLINESEGS
 70
     8
  9
$ATTDIA
 70
     0
  9
$ATTREQ
 70
     1
  9
$HANDLING
 70
 10241
  9
$HANDSEED
  5
A86
  9
$SURFTAB1
 70
     6
  9
$SURFTAB2
 70
     6
  9
$SURFTYPE
 70
     6
  9
$SURFU
 70
     6
  9
$SURFV
 70
     6
  9
$UCSNAME
  2

  9
$UCSORG
 10
0.0
 20
0.0
 30
0.0
  9
$UCSXDIR
 10
1.0
 20
0.0
 30
0.0
  9
$UCSYDIR
 10
0.0
 20
1.0
 30
0.0
  9
$PUCSNAME
  2

  9
$PUCSORG
 10
0.0
 20
0.0
 30
0.0
  9
$PUCSXDIR
 10
1.0
 20
0.0
 30
0.0
  9
$PUCSYDIR
 10
0.0
 20
1.0
 30
0.0
  9
$USERI1
 70
     0
  9
$USERI2
 70
     0
  9
$USERI3
 70
     0
  9
$USERI4
 70
     0
  9
$USERI5
 70
     0
  9
$USERR1
 40
0.0
  9
$USERR2
 40
0.0
  9
$USERR3
 40
0.0
  9
$USERR4
 40
0.0
  9
$USERR5
 40
0.0
  9
$WORLDVIEW
 70
     1
  9
$SHADEDGE
 70
     3
  9
$SHADEDIF
 70
    70
  9
$TILEMODE
 70
     1
  9
$MAXACTVP
 70
    16
  9
$PINSBASE
 10
0.0
 20
0.0
 30
0.0
  9
$PLIMCHECK
 70
     0
  9
$PEXTMIN
 10
0.0
 20
0.0
 30
0.0
  9
$PEXTMAX
 10
420.0
 20
297.0
 30
0.0
  9
$PLIMMIN
 10
0.0
 20
0.0
  9
$PLIMMAX
 10
420.0
 20
297.0
  9
$UNITMODE
 70
     0
  9
$VISRETAIN
 70
     0
  9
$PLINEGEN
 70
     0
  9
$PSLTSCALE
 70
     1
  9
$TREEDEPTH
 70
  3020
  9
$PICKSTYLE
 70
     1
  9
$CMLSTYLE
  2
STANDARD
  9
$CMLJUST
 70
     0
  9
$CMLSCALE
 40
1.0
  9
$PROXYGRAPHICS
 70
     1
  9
$MEASUREMENT
 70
     1
  0
ENDSEC
  0
SECTION
  2
CLASSES
  0
CLASS
  1
ACDBDICTIONARYWDFLT
  2
AcDbDictionaryWithDefault
  3
AutoCAD 2000
 90
        0
280
     0
281
     0
  0
CLASS
  1
ACDBPLACEHOLDER
  2
AcDbPlaceHolder
  3
AutoCAD 2000
 90
        0
280
     0
281
     0
  0
CLASS
  1
LAYOUT
  2
AcDbLayout
  3
AutoCAD 2000
 90
        0
280
     0
281
     0
  0
CLASS
  1
LONG_TRANSACTION
  2
AcDbLongTransaction
  3
AutoCAD 2000
 90
        0
280
     0
281
     0
  0
CLASS
  1
LWPOLYLINE
  2
AcDbPolyline
  3
AutoCAD 2000
 90
        0
280
     0
281
     1
  0
CLASS
  1
HATCH
  2
AcDbHatch
  3
AutoCAD 2000
 90
        0
280
     0
281
     1
  0
CLASS
  1
XRECORD
  2
AcDbXrecord
  3
AutoCAD 2000
 90
        0
280
     0
281
     0
  0
CLASS
  1
LONG_TRANSACTION
  2
AcDbLongTransaction
  3
AutoCAD 2000
 90
        0
280
     0
281
     0
  0
CLASS
  1
LWPOLYLINE
  2
AcDbPolyline
  3
AutoCAD 2000
 90
        0
280
     0
281
     1
  0
CLASS
  1
HATCH
  2
AcDbHatch
  3
AutoCAD 2000
 90
        0
280
     0
281
     1
  0
CLASS
  1
XRECORD
  2
AcDbXrecord
  3
AutoCAD 2000
 90
        0
280
     0
281
     0
  0
CLASS
  1
LONG_TRANSACTION
  2
AcDbLongTransaction
  3
AutoCAD 2000
 90
        0
280
     0
281
     0
  0
CLASS
  1
LWPOLYLINE
  2
AcDbPolyline
  3
AutoCAD 2000
 90
        0
280
     0
281
     1
  0
CLASS
  1
HATCH
  2
AcDbHatch
  3
AutoCAD 2000
 90
        0
280
     0
281
     1
  0
CLASS
  1
XRECORD
  2
AcDbXrecord
  3
AutoCAD 2000
 90
        0
280
     0
281
     0
  0
ENDSEC
  0
SECTION
  2
TABLES
  0
TABLE
  2
VPORT
  5
8
330
0
100
AcDbSymbolTable
 70
     2
  0
VPORT
  5
A62
330
8
100
AcDbSymbolTableRecord
100
AcDbViewportTableRecord
  2
*ACTIVE
 70
     0
 10
0.0
 20
0.0
 11
1.0
 21
1.0
 12
360.6039005863226
 22
265.7543764253886
 13
0.0
 23
0.0
 14
5.0
 24
5.0
 15
0.0
 25
0.0
 16
0.0
 26
0.0
 36
1.0
 17
0.0
 27
0.0
 37
0.0
 40
653.4687782380667
 41
1.570153061224489
 42
50.0
 43
0.0
 44
0.0
 50
0.0
 51
0.0
 71
     0
 72
   100
 73
     1
 74
     0
 75
     0
 76
     0
 77
     0
 78
     0
  0
ENDTAB
  0
TABLE
  2
LTYPE
  5
5
330
0
100
AcDbSymbolTable
 70
     3
  0
LTYPE
  5
14
330
5
100
AcDbSymbolTableRecord
100
AcDbLinetypeTableRecord
  2
BYBLOCK
 70
     0
  3

 72
    65
 73
     0
 40
0.0
  0
LTYPE
  5
15
330
5
100
AcDbSymbolTableRecord
100
AcDbLinetypeTableRecord
  2
BYLAYER
 70
     0
  3

 72
    65
 73
     0
 40
0.0
  0
LTYPE
  5
16
330
5
100
AcDbSymbolTableRecord
100
AcDbLinetypeTableRecord
  2
CONTINUOUS
 70
     0
  3
Solid line
 72
    65
 73
     0
 40
0.0
  0
LTYPE
  5
115
330
5
100
AcDbSymbolTableRecord
100
AcDbLinetypeTableRecord
  2
PHANTOM
 70
     0
  3
______  __  __  ______  __  __  ______  __  __ 
 72
    65
 73
     6
 40
2.5
 49
1.25
 74
     0
 49
-0.25
 74
     0
 49
0.25
 74
     0
 49
-0.25
 74
     0
 49
0.25
 74
     0
 49
-0.25
 74
     0
  0
LTYPE
  5
135
330
5
100
AcDbSymbolTableRecord
100
AcDbLinetypeTableRecord
  2
CENTER
 70
     0
  3
____ _ ____ _ ____ _ ____ _ ____ _ ____ _ ____ 
 72
    65
 73
     4
 40
2.0
 49
1.25
 74
     0
 49
-0.25
 74
     0
 49
0.25
 74
     0
 49
-0.25
 74
     0
  0
ENDTAB
  0
TABLE
  2
LAYER
  5
2
330
0
100
AcDbSymbolTable
 70
     9
  0
LAYER
  5
F
330
2
100
AcDbSymbolTableRecord
100
AcDbLayerTableRecord
  2
0
 70
     0
 62
     7
  6
CONTINUOUS
  0
LAYER
  5
62
330
2
100
AcDbSymbolTableRecord
100
AcDbLayerTableRecord
  2
VIEWPORT
 70
     0
 62
     7
  6
CONTINUOUS
  0
LAYER
  5
65
330
2
100
AcDbSymbolTableRecord
100
AcDbLayerTableRecord
  2
ZUWAKU
 70
     0
 62
     7
  6
CONTINUOUS
  0
LAYER
  5
154
330
2
100
AcDbSymbolTableRecord
100
AcDbLayerTableRecord
  2
NOKITOI
 70
     0
 62
     8
  6
PHANTOM
  0
LAYER
  5
155
330
2
100
AcDbSymbolTableRecord
100
AcDbLayerTableRecord
  2
SUNPOU
 70
     0
 62
     4
  6
CONTINUOUS
  0
LAYER
  5
156
330
2
100
AcDbSymbolTableRecord
100
AcDbLayerTableRecord
  2
SEIHIN
 70
     0
 62
     3
  6
CONTINUOUS
  0
LAYER
  5
157
330
2
100
AcDbSymbolTableRecord
100
AcDbLayerTableRecord
  2
CENTER_L
 70
     0
 62
     1
  6
CENTER
  0
LAYER
  5
5E3
330
2
100
AcDbSymbolTableRecord
100
AcDbLayerTableRecord
  2
DEFPOINTS
 70
     0
 62
     7
  6
CONTINUOUS
  0
LAYER
  5
8EB
330
2
100
AcDbSymbolTableRecord
100
AcDbLayerTableRecord
  2
MOJI
 70
     0
 62
     2
  6
CONTINUOUS
  0
ENDTAB
  0
TABLE
  2
STYLE
  5
3
330
0
100
AcDbSymbolTable
 70
     2
  0
STYLE
  5
10
330
3
100
AcDbSymbolTableRecord
100
AcDbTextStyleTableRecord
  2
STANDARD
 70
     0
 40
0.0
 41
1.0
 50
0.0
 71
     0
 42
5.0
  3
TXT
  4
bigfont.shx
  0
STYLE
  5
8EC
330
3
100
AcDbSymbolTableRecord
100
AcDbTextStyleTableRecord
  2
ｽﾀｲﾙ1
 70
     0
 40
0.0
 41
1.0
 50
0.0
 71
     0
 42
2.5
  3
MS PGothic.ttf
  4

1001
ACAD
1000
MS PGothic
1071
    32818
  0
ENDTAB
  0
TABLE
  2
VIEW
  5
6
330
0
100
AcDbSymbolTable
 70
     0
  0
ENDTAB
  0
TABLE
  2
UCS
  5
7
330
0
100
AcDbSymbolTable
 70
     0
  0
ENDTAB
  0
TABLE
  2
APPID
  5
9
330
0
100
AcDbSymbolTable
 70
     1
  0
APPID
  5
11
330
9
100
AcDbSymbolTableRecord
100
AcDbRegAppTableRecord
  2
ACAD
 70
     0
  0
ENDTAB
  0
TABLE
  2
DIMSTYLE
  5
A
330
0
100
AcDbSymbolTable
 70
     1
  0
DIMSTYLE
105
1D
102
{ACAD_REACTORS
330
611
330
614
330
615
330
61B
330
6A7
330
6E8
330
6F5
330
704
330
711
330
785
330
794
330
7A1
330
850
102
}
330
A
100
AcDbSymbolTableRecord
100
AcDbDimStyleTableRecord
  2
STANDARD
 70
     0
  3

  4

  5

  6

  7

 40
1.0
 41
0.18
 42
0.0625
 43
0.38
 44
0.18
 45
0.0
 46
0.0
 47
0.0
 48
0.0
140
0.18
141
0.09
142
0.0
143
25.4
144
1.0
145
0.0
146
1.0
147
0.09
 71
     0
 72
     0
 73
     1
 74
     1
 75
     0
 76
     0
 77
     0
 78
     0
170
     0
171
     2
172
     0
173
     0
174
     0
175
     0
176
     0
177
     0
178
     0
270
     2
271
     4
272
     4
273
     2
274
     2
340
10
275
     0
280
     0
281
     0
282
     0
283
     1
284
     0
285
     0
286
     0
287
     3
288
     0
  0
ENDTAB
  0
TABLE
  2
BLOCK_RECORD
  5
1
330
0
100
AcDbSymbolTable
 70
    15
  0
BLOCK_RECORD
  5
1A
102
{ACAD_XDICTIONARY
360
8A9
102
}
330
1
100
AcDbSymbolTableRecord
100
AcDbBlockTableRecord
  2
*MODEL_SPACE
  0
BLOCK_RECORD
  5
17
102
{ACAD_XDICTIONARY
360
8A7
102
}
330
1
100
AcDbSymbolTableRecord
100
AcDbBlockTableRecord
  2
*PAPER_SPACE
  0
BLOCK_RECORD
  5
6D
330
1
100
AcDbSymbolTableRecord
100
AcDbBlockTableRecord
  2
_OPEN
  0
BLOCK_RECORD
  5
163
330
1
100
AcDbSymbolTableRecord
100
AcDbBlockTableRecord
  2
A$C1305
  0
BLOCK_RECORD
  5
638
330
1
100
AcDbSymbolTableRecord
100
AcDbBlockTableRecord
  2
*D2
  0
BLOCK_RECORD
  5
644
330
1
100
AcDbSymbolTableRecord
100
AcDbBlockTableRecord
  2
*D3
  0
BLOCK_RECORD
  5
650
330
1
100
AcDbSymbolTableRecord
100
AcDbBlockTableRecord
  2
*D4
  0
BLOCK_RECORD
  5
65C
330
1
100
AcDbSymbolTableRecord
100
AcDbBlockTableRecord
  2
*D5
  0
BLOCK_RECORD
  5
699
330
1
100
AcDbSymbolTableRecord
100
AcDbBlockTableRecord
  2
*D6
  0
BLOCK_RECORD
  5
6DC
330
1
100
AcDbSymbolTableRecord
100
AcDbBlockTableRecord
  2
*D7
  0
BLOCK_RECORD
  5
6E9
330
1
100
AcDbSymbolTableRecord
100
AcDbBlockTableRecord
  2
*D8
  0
BLOCK_RECORD
  5
6F8
330
1
100
AcDbSymbolTableRecord
100
AcDbBlockTableRecord
  2
*D9
  0
BLOCK_RECORD
  5
705
330
1
100
AcDbSymbolTableRecord
100
AcDbBlockTableRecord
  2
*D10
  0
BLOCK_RECORD
  5
779
330
1
100
AcDbSymbolTableRecord
100
AcDbBlockTableRecord
  2
*D11
  0
BLOCK_RECORD
  5
786
330
1
100
AcDbSymbolTableRecord
100
AcDbBlockTableRecord
  2
*D12
  0
BLOCK_RECORD
  5
795
330
1
100
AcDbSymbolTableRecord
100
AcDbBlockTableRecord
  2
*D13
  0
BLOCK_RECORD
  5
844
330
1
100
AcDbSymbolTableRecord
100
AcDbBlockTableRecord
  2
*D14
  0
ENDTAB
  0
ENDSEC
  0
SECTION
  2
BLOCKS
  0
BLOCK
  5
1B
330
1A
100
AcDbEntity
  8
0
100
AcDbBlockBegin
  2
*MODEL_SPACE
 70
     0
 10
0.0
 20
0.0
 30
0.0
  3
*MODEL_SPACE
  1

  0
ENDBLK
  5
1C
330
1A
100
AcDbEntity
  8
0
100
AcDbBlockEnd
  0
BLOCK
  5
18
330
17
100
AcDbEntity
 67
     1
  8
0
100
AcDbBlockBegin
  2
*PAPER_SPACE
 70
     0
 10
0.0
 20
0.0
 30
0.0
  3
*PAPER_SPACE
  1

  0
ENDBLK
  5
19
330
17
100
AcDbEntity
 67
     1
  8
0
100
AcDbBlockEnd
  0
BLOCK
  5
6E
330
6D
100
AcDbEntity
  8
0
100
AcDbBlockBegin
  2
_OPEN
 70
     0
 10
0.0
 20
0.0
 30
0.0
  3
_OPEN
  1

  0
LINE
  5
6F
330
6D
100
AcDbEntity
  8
0
  6
BYBLOCK
 62
     0
100
AcDbLine
 10
-1.0
 20
0.1666666666666666
 30
0.0
 11
0.0
 21
0.0
 31
0.0
  0
LINE
  5
70
330
6D
100
AcDbEntity
  8
0
  6
BYBLOCK
 62
     0
100
AcDbLine
 10
0.0
 20
0.0
 30
0.0
 11
-1.0
 21
-0.1666666666666666
 31
0.0
  0
LINE
  5
71
330
6D
100
AcDbEntity
  8
0
  6
BYBLOCK
 62
     0
100
AcDbLine
 10
0.0
 20
0.0
 30
0.0
 11
-1.0
 21
0.0
 31
0.0
  0
ENDBLK
  5
72
330
6D
100
AcDbEntity
  8
0
100
AcDbBlockEnd
  0
BLOCK
  5
1AB
330
163
100
AcDbEntity
  8
0
100
AcDbBlockBegin
  2
A$C1305
 70
     0
 10
0.0
 20
0.0
 30
0.0
  3
A$C1305
  1

  0
LINE
  5
164
330
163
100
AcDbEntity
  8
NOKITOI
  6
PHANTOM
 62
     8
 48
5.0
100
AcDbLine
 10
29.18435908443393
 20
10.10187063730222
 30
0.0
 11
19.27365908443391
 21
10.10187063730222
 31
0.0
  0
LINE
  5
165
330
163
100
AcDbEntity
  8
NOKITOI
  6
PHANTOM
 62
     8
 48
5.0
100
AcDbLine
 10
90.2981590844339
 20
0.1120706373022813
 30
0.0
 11
24.06755908443392
 21
0.1121706373021425
 31
0.0
  0
LINE
  5
166
330
163
100
AcDbEntity
  8
NOKITOI
  6
PHANTOM
 62
     8
 48
5.0
100
AcDbLine
 10
24.06755908443392
 20
0.1121706373021425
 30
0.0
 11
90.2981590844339
 21
0.1120706373022813
 31
0.0
  0
LINE
  5
167
330
163
100
AcDbEntity
  8
NOKITOI
  6
PHANTOM
 62
     8
 48
5.0
100
AcDbLine
 10
13.05735908443387
 20
12.22087063730214
 30
0.0
 11
7.218759084433713
 21
39.95217063730228
 31
0.0
  0
LINE
  5
168
330
163
100
AcDbEntity
  8
NOKITOI
  6
PHANTOM
 62
     8
 48
5.0
100
AcDbLine
 10
14.16595908443378
 20
13.23377063730208
 30
0.0
 11
8.234959084433853
 21
41.4036706373023
 31
0.0
  0
ARC
  5
169
330
163
100
AcDbEntity
  8
NOKITOI
  6
PHANTOM
 62
     8
 48
5.0
100
AcDbCircle
 10
15.13957896620524
 20
13.43874830022218
 30
0.0
 40
0.995060928010462
100
AcDbArc
 50
191.8877567214145
 51
251.4524867922934
  0
ARC
  5
16A
330
163
100
AcDbEntity
  8
NOKITOI
  6
PHANTOM
 62
     8
 48
5.0
100
AcDbCircle
 10
10.29733292322475
 20
-0.9941694721817384
 30
0.0
 40
14.22848866365036
100
AcDbArc
 50
51.52529185494254
 51
71.45345265407107
  0
ARC
  5
16B
330
163
100
AcDbEntity
  8
NOKITOI
  6
PHANTOM
 62
     8
 48
5.0
100
AcDbCircle
 10
10.29726615422066
 20
-0.9941373355915743
 30
0.0
 40
12.93471022655885
100
AcDbArc
 50
8.676219579622015
 51
74.45245455808978
  0
ARC
  5
16C
330
163
100
AcDbEntity
  8
NOKITOI
  6
PHANTOM
 62
     8
 48
5.0
100
AcDbCircle
 10
24.06756669845151
 20
1.107164097058216
 30
0.0
 40
0.9949934597852239
100
AcDbArc
 50
188.67611256506
 51
269.9995615538235
  0
ARC
  5
16D
330
163
100
AcDbEntity
  8
NOKITOI
  6
PHANTOM
 62
     8
 48
5.0
100
AcDbCircle
 10
19.27366239679292
 20
10.30086948151677
 30
0.0
 40
0.1989988442421132
100
AcDbArc
 50
231.5280949042412
 51
269.9990463050557
  0
ARC
  5
16E
330
163
100
AcDbEntity
  8
NOKITOI
  6
PHANTOM
 62
     8
 48
5.0
100
AcDbCircle
 10
14.03099910882133
 20
12.42582797307631
 30
0.0
 40
0.9949785960395137
100
AcDbArc
 50
191.8875585738773
 51
254.4495841050105
  0
LINE
  5
16F
330
163
100
AcDbEntity
  8
NOKITOI
  6
PHANTOM
 62
     8
 48
5.0
100
AcDbLine
 10
27.88425908443378
 20
1.91217063730221
 30
0.0
 11
27.88425908443378
 21
8.439470637302292
 31
0.0
  0
LINE
  5
170
330
163
100
AcDbEntity
  8
NOKITOI
  6
PHANTOM
 62
     8
 48
5.0
100
AcDbLine
 10
28.37925908443378
 20
9.296770637302074
 30
0.0
 11
27.88425908443378
 21
8.439470637302292
 31
0.0
  0
LINE
  5
171
330
163
100
AcDbEntity
  8
NOKITOI
  6
PHANTOM
 62
     8
 48
5.0
100
AcDbLine
 10
28.37925908443378
 20
9.296770637302074
 30
0.0
 11
27.52195908443377
 21
8.801870637302272
 31
0.0
  0
ARC
  5
172
330
163
100
AcDbEntity
  8
NOKITOI
  6
PHANTOM
 62
     8
 48
5.0
100
AcDbCircle
 10
21.30106274373702
 20
8.501878629181817
 30
0.0
 40
0.2999920081427447
100
AcDbArc
 50
90.00069889403098
 51
220.79672841758
  0
ARC
  5
173
330
163
100
AcDbEntity
  8
NOKITOI
  6
PHANTOM
 62
     8
 48
5.0
100
AcDbCircle
 10
10.29726428144715
 20
-0.9941399784659097
 30
0.0
 40
14.23472333170272
100
AcDbArc
 50
11.37541821407357
 51
40.79334907830751
  0
LINE
  5
174
330
163
100
AcDbEntity
  8
NOKITOI
  6
PHANTOM
 62
     8
 48
5.0
100
AcDbLine
 10
27.52195908443377
 20
8.801870637302272
 30
0.0
 11
21.30105908443386
 21
8.801870637302272
 31
0.0
  0
LINE
  5
175
330
163
100
AcDbEntity
  8
NOKITOI
  6
PHANTOM
 62
     8
 48
5.0
100
AcDbLine
 10
24.74245908443378
 20
1.412170637302097
 30
0.0
 11
27.38425908443378
 21
1.412170637302097
 31
0.0
  0
ARC
  5
176
330
163
100
AcDbEntity
  8
NOKITOI
  6
PHANTOM
 62
     8
 48
5.0
100
AcDbCircle
 10
24.74253604330567
 20
1.912189501590432
 30
0.0
 40
0.5000188648192144
100
AcDbArc
 50
191.3867288554411
 51
270.0026402191985
  0
ARC
  5
177
330
163
100
AcDbEntity
  8
NOKITOI
  6
PHANTOM
 62
     8
 48
5.0
100
AcDbCircle
 10
27.38425908443366
 20
1.91217063730221
 30
0.0
 40
0.5000000000000569
100
AcDbArc
 50
270.0000000000065
 51
0.0000000000065138
  0
LINE
  5
178
330
163
100
AcDbEntity
  8
NOKITOI
  6
PHANTOM
 62
     8
 48
5.0
100
AcDbLine
 10
0.1808590844339051
 20
41.10517063730208
 30
0.0
 11
0.1808590844339051
 21
49.11467063730208
 31
0.0
  0
ARC
  5
179
330
163
100
AcDbEntity
  8
NOKITOI
  6
PHANTOM
 62
     8
 48
5.0
100
AcDbCircle
 10
3.6160590844338
 20
47.32377063730223
 30
0.0
 40
1.492399999999918
100
AcDbArc
 50
0.0000000000021823
 51
90.00000000000218
  0
ARC
  5
17A
330
163
100
AcDbEntity
  8
NOKITOI
  6
PHANTOM
 62
     8
 48
5.0
100
AcDbCircle
 10
2.966809084433748
 20
47.32372063730212
 30
0.0
 40
1.49245000083754
100
AcDbArc
 50
89.99808047909008
 51
179.99808047909
  0
LINE
  5
17B
330
163
100
AcDbEntity
  8
NOKITOI
  6
PHANTOM
 62
     8
 48
5.0
100
AcDbLine
 10
6.401959084433769
 20
49.11467063730208
 30
0.0
 11
6.401959084433769
 21
44.90987063730222
 31
0.0
  0
LINE
  5
17C
330
163
100
AcDbEntity
  8
NOKITOI
  6
PHANTOM
 62
     8
 48
5.0
100
AcDbLine
 10
3.464359084433908
 20
41.4036706373023
 30
0.0
 11
8.234959084433853
 21
41.4036706373023
 31
0.0
  0
LINE
  5
17D
330
163
100
AcDbEntity
  8
NOKITOI
  6
PHANTOM
 62
     8
 48
5.0
100
AcDbLine
 10
7.024059084433929
 20
40.11017063730207
 30
0.0
 11
1.175859084433909
 21
40.11017063730207
 31
0.0
  0
ARC
  5
17E
330
163
100
AcDbEntity
  8
NOKITOI
  6
PHANTOM
 62
     8
 48
5.0
100
AcDbCircle
 10
3.464309084433807
 20
43.39362063730232
 30
0.0
 40
1.989950000628206
100
AcDbArc
 50
180.0014396286234
 51
270.0014396286234
  0
LINE
  5
17F
330
163
100
AcDbEntity
  8
NOKITOI
  6
PHANTOM
 62
     8
 48
5.0
100
AcDbLine
 10
1.474359084433785
 20
47.32377063730223
 30
0.0
 11
1.474359084433785
 21
43.39357063730221
 31
0.0
  0
ARC
  5
180
330
163
100
AcDbEntity
  8
NOKITOI
  6
PHANTOM
 62
     8
 48
5.0
100
AcDbCircle
 10
1.175859084433909
 20
41.10517063730208
 30
0.0
 40
0.9950000000000045
100
AcDbArc
 50
180.0
 51
270.0
  0
LINE
  5
181
330
163
100
AcDbEntity
  8
NOKITOI
  6
PHANTOM
 62
     8
 48
5.0
100
AcDbLine
 10
5.108559084433863
 20
44.90987063730222
 30
0.0
 11
5.108559084433863
 21
47.32377063730223
 31
0.0
  0
LINE
  5
182
330
163
100
AcDbEntity
  8
NOKITOI
  6
PHANTOM
 62
     8
 48
5.0
100
AcDbLine
 10
6.401959084433769
 20
44.90987063730222
 30
0.0
 11
5.108559084433863
 21
44.90987063730222
 31
0.0
  0
ARC
  5
183
330
163
100
AcDbEntity
  8
NOKITOI
  6
PHANTOM
 62
     8
 48
5.0
100
AcDbCircle
 10
7.024040641819624
 20
39.91118560073897
 30
0.0
 40
0.1989850374177657
100
AcDbArc
 50
11.88631382809314
 51
89.99468963106556
  0
LINE
  5
184
330
163
100
AcDbEntity
  8
NOKITOI
  6
PHANTOM
 62
     8
 48
5.0
100
AcDbLine
 10
1.175859084433909
 20
50.1096706373022
 30
0.0
 11
5.407059084433853
 21
50.1096706373022
 31
0.0
  0
ARC
  5
185
330
163
100
AcDbEntity
  8
NOKITOI
  6
PHANTOM
 62
     8
 48
5.0
100
AcDbCircle
 10
1.175859084433909
 20
49.1146706373022
 30
0.0
 40
0.9950000000000613
100
AcDbArc
 50
90.00000000000328
 51
180.0000000000032
  0
LINE
  5
186
330
163
100
AcDbEntity
  8
NOKITOI
  6
PHANTOM
 62
     8
 48
5.0
100
AcDbLine
 10
3.6160590844338
 20
48.81617063730209
 30
0.0
 11
2.966859084433849
 21
48.81617063730209
 31
0.0
  0
ARC
  5
187
330
163
100
AcDbEntity
  8
NOKITOI
  6
PHANTOM
 62
     8
 48
5.0
100
AcDbCircle
 10
5.407009084433752
 20
49.11472063730224
 30
0.0
 40
0.9949500012563332
100
AcDbArc
 50
359.9971206704048
 51
89.99712067040489
  0
LINE
  5
188
330
163
100
AcDbEntity
  8
NOKITOI
  6
PHANTOM
 62
     8
 48
5.0
100
AcDbLine
 10
85.18155908443374
 20
10.10157063730207
 30
0.0
 11
95.16205908443373
 21
10.10147063730221
 31
0.0
  0
ARC
  5
189
330
163
100
AcDbEntity
  8
NOKITOI
  6
PHANTOM
 62
     8
 48
5.0
100
AcDbCircle
 10
104.068453551022
 20
-0.9942356029631582
 30
0.0
 40
12.93461262833301
100
AcDbArc
 50
105.5476727870198
 51
171.3237222126366
  0
ARC
  5
18A
330
163
100
AcDbEntity
  8
NOKITOI
  6
PHANTOM
 62
     8
 48
5.0
100
AcDbCircle
 10
104.0683479281129
 20
-0.994141944171929
 30
0.0
 40
12.93449408578155
100
AcDbArc
 50
105.5473332353544
 51
171.3240617643019
  0
LINE
  5
18B
330
163
100
AcDbEntity
  8
NOKITOI
  6
PHANTOM
 62
     8
 48
5.0
100
AcDbLine
 10
29.38325908443392
 20
1.405570637302162
 30
0.0
 11
84.98245908443392
 21
1.405470637302073
 31
0.0
  0
ARC
  5
18C
330
163
100
AcDbEntity
  8
NOKITOI
  6
PHANTOM
 62
     8
 48
5.0
100
AcDbCircle
 10
29.38325908443392
 20
1.604570637302231
 30
0.0
 40
0.1990000000000691
100
AcDbArc
 50
179.9999999999836
 51
269.9999999999836
  0
LINE
  5
18D
330
163
100
AcDbEntity
  8
NOKITOI
  6
PHANTOM
 62
     8
 48
5.0
100
AcDbLine
 10
29.18425908443385
 20
1.604570637302231
 30
0.0
 11
29.18435908443393
 21
10.10187063730222
 31
0.0
  0
LINE
  5
18E
330
163
100
AcDbEntity
  8
NOKITOI
  6
PHANTOM
 62
     8
 48
5.0
100
AcDbLine
 10
80.98245908443391
 20
1.405470637302073
 30
0.0
 11
66.22805908443377
 21
1.405470637302073
 31
0.0
  0
ARC
  5
18F
330
163
100
AcDbEntity
  8
NOKITOI
  6
PHANTOM
 62
     8
 48
5.0
100
AcDbCircle
 10
90.2982090125298
 20
1.107113524900853
 30
0.0
 40
0.9950428888512103
100
AcDbArc
 50
269.9971250795227
 51
351.3214426795068
  0
LINE
  5
190
330
163
100
AcDbEntity
  8
NOKITOI
  6
PHANTOM
 62
     8
 48
5.0
100
AcDbLine
 10
85.98655908443367
 20
9.296470637302149
 30
0.0
 11
86.4815590844339
 21
8.43917063730214
 31
0.0
  0
LINE
  5
191
330
163
100
AcDbEntity
  8
NOKITOI
  6
PHANTOM
 62
     8
 48
5.0
100
AcDbLine
 10
85.98655908443367
 20
9.296470637302149
 30
0.0
 11
86.84385908443392
 21
8.801470637302145
 31
0.0
  0
ARC
  5
192
330
163
100
AcDbEntity
  8
NOKITOI
  6
PHANTOM
 62
     8
 48
5.0
100
AcDbCircle
 10
84.98240908443381
 20
1.604520637302186
 30
0.0
 40
0.1990500062799141
100
AcDbArc
 50
270.0143923080611
 51
0.014392308061115
  0
LINE
  5
193
330
163
100
AcDbEntity
  8
NOKITOI
  6
PHANTOM
 62
     8
 48
5.0
100
AcDbLine
 10
85.18145908443386
 20
1.604570637302231
 30
0.0
 11
85.18155908443374
 21
10.10157063730207
 31
0.0
  0
LINE
  5
194
330
163
100
AcDbEntity
  8
NOKITOI
  6
PHANTOM
 62
     8
 48
5.0
100
AcDbLine
 10
86.4815590844339
 20
8.43917063730214
 30
0.0
 11
86.4815590844339
 21
1.912070637302122
 31
0.0
  0
ARC
  5
195
330
163
100
AcDbEntity
  8
NOKITOI
  6
PHANTOM
 62
     8
 48
5.0
100
AcDbCircle
 10
104.0684175391246
 20
-0.9943142272541081
 30
0.0
 40
14.23462403148678
100
AcDbArc
 50
139.2075062369005
 51
168.6237859483839
  0
LINE
  5
196
330
163
100
AcDbEntity
  8
NOKITOI
  6
PHANTOM
 62
     8
 48
5.0
100
AcDbLine
 10
93.06445908443368
 20
8.801470637302145
 30
0.0
 11
86.84385908443392
 21
8.801470637302145
 31
0.0
  0
ARC
  5
197
330
163
100
AcDbEntity
  8
NOKITOI
  6
PHANTOM
 62
     8
 48
5.0
100
AcDbCircle
 10
93.06447276228515
 20
8.501440773608294
 30
0.0
 40
0.3000298640056128
100
AcDbArc
 50
319.2190584222776
 51
90.00261201719956
  0
LINE
  5
198
330
163
100
AcDbEntity
  8
NOKITOI
  6
PHANTOM
 62
     8
 48
5.0
100
AcDbLine
 10
89.62325908443393
 20
1.412070637302235
 30
0.0
 11
86.98155908443391
 21
1.412070637302235
 31
0.0
  0
ARC
  5
199
330
163
100
AcDbEntity
  8
NOKITOI
  6
PHANTOM
 62
     8
 48
5.0
100
AcDbCircle
 10
86.9815590844338
 20
1.912070637302235
 30
0.0
 40
0.4999999999999432
100
AcDbArc
 50
180.0000000000065
 51
270.0000000000065
  0
ARC
  5
19A
330
163
100
AcDbEntity
  8
NOKITOI
  6
PHANTOM
 62
     8
 48
5.0
100
AcDbCircle
 10
89.62328212556213
 20
1.912089501590457
 30
0.0
 40
0.5000188648190603
100
AcDbArc
 50
269.9973597808039
 51
348.6132711445602
  0
LINE
  5
19B
330
163
100
AcDbEntity
  8
NOKITOI
  6
PHANTOM
 62
     8
 48
5.0
100
AcDbLine
 10
100.1997590844339
 20
13.23317063730223
 30
0.0
 11
105.6547590844337
 21
39.14207063730214
 31
0.0
  0
LINE
  5
19C
330
163
100
AcDbEntity
  8
NOKITOI
  6
PHANTOM
 62
     8
 48
5.0
100
AcDbLine
 10
101.3084590844339
 20
12.22067063730207
 30
0.0
 11
107.1471590844337
 21
39.95207063730208
 31
0.0
  0
ARC
  5
19D
330
163
100
AcDbEntity
  8
NOKITOI
  6
PHANTOM
 62
     8
 48
5.0
100
AcDbCircle
 10
99.22620265398496
 20
13.43821958907108
 30
0.0
 40
0.9950135261271753
100
AcDbArc
 50
288.5445751594487
 51
348.1074736523478
  0
ARC
  5
19E
330
163
100
AcDbEntity
  8
NOKITOI
  6
PHANTOM
 62
     8
 48
5.0
100
AcDbCircle
 10
104.0684735879824
 20
-0.9942214385093848
 30
0.0
 40
14.22809199964113
100
AcDbArc
 50
108.5474584936555
 51
128.7537062451648
  0
ARC
  5
19F
330
163
100
AcDbEntity
  8
NOKITOI
  6
PHANTOM
 62
     8
 48
5.0
100
AcDbCircle
 10
100.334833421286
 20
12.42574988868966
 30
0.0
 40
0.9949690575286499
100
AcDbArc
 50
285.5437330810338
 51
348.1110361155302
  0
LINE
  5
1A0
330
163
100
AcDbEntity
  8
NOKITOI
  6
PHANTOM
 62
     8
 48
5.0
100
AcDbLine
 10
112.8850590844339
 20
41.40997063730208
 30
0.0
 11
107.4607590844339
 21
41.41007063730216
 31
0.0
  0
LINE
  5
1A1
330
163
100
AcDbEntity
  8
NOKITOI
  6
PHANTOM
 62
     8
 48
5.0
100
AcDbLine
 10
113.1900590844338
 20
50.10957063730223
 30
0.0
 11
107.9863590844338
 21
50.10947063730213
 31
0.0
  0
LINE
  5
1A2
330
163
100
AcDbEntity
  8
NOKITOI
  6
PHANTOM
 62
     8
 48
5.0
100
AcDbLine
 10
112.8850590844339
 20
48.80947063730229
 30
0.0
 11
109.0186590844336
 21
48.80947063730229
 31
0.0
  0
LINE
  5
1A3
330
163
100
AcDbEntity
  8
NOKITOI
  6
PHANTOM
 62
     8
 48
5.0
100
AcDbLine
 10
107.3418590844337
 20
40.10997063730224
 30
0.0
 11
113.1900590844338
 21
40.10997063730224
 31
0.0
  0
LINE
  5
1A4
330
163
100
AcDbEntity
  8
NOKITOI
  6
PHANTOM
 62
     8
 48
5.0
100
AcDbLine
 10
109.0186590844336
 20
48.80947063730229
 30
0.0
 11
107.4607590844339
 21
41.41007063730216
 31
0.0
  0
LINE
  5
1A5
330
163
100
AcDbEntity
  8
NOKITOI
  6
PHANTOM
 62
     8
 48
5.0
100
AcDbLine
 10
105.6547590844337
 20
39.14207063730214
 30
0.0
 11
107.9638590844336
 21
50.10947063730213
 31
0.0
  0
ARC
  5
1A6
330
163
100
AcDbEntity
  8
NOKITOI
  6
PHANTOM
 62
     8
 48
5.0
100
AcDbCircle
 10
107.341877527048
 20
39.91108560073894
 30
0.0
 40
0.1989850374179911
100
AcDbArc
 50
90.00531036897127
 51
168.1136861719432
  0
LINE
  5
1A7
330
163
100
AcDbEntity
  8
NOKITOI
  6
PHANTOM
 62
     8
 48
5.0
100
AcDbLine
 10
114.1850590844338
 20
41.10497063730213
 30
0.0
 11
114.1850590844338
 21
49.1145706373021
 31
0.0
  0
LINE
  5
1A8
330
163
100
AcDbEntity
  8
NOKITOI
  6
PHANTOM
 62
     8
 48
5.0
100
AcDbLine
 10
112.8850590844339
 20
41.40997063730208
 30
0.0
 11
112.8850590844339
 21
48.80947063730229
 31
0.0
  0
ARC
  5
1A9
330
163
100
AcDbEntity
  8
NOKITOI
  6
PHANTOM
 62
     8
 48
5.0
100
AcDbCircle
 10
113.1900590844339
 20
41.10497063730218
 30
0.0
 40
0.9949999999999192
100
AcDbArc
 50
269.9999999999951
 51
359.9999999999951
  0
ARC
  5
1AA
330
163
100
AcDbEntity
  8
NOKITOI
  6
PHANTOM
 62
     8
 48
5.0
100
AcDbCircle
 10
113.1900590844338
 20
49.11457063730222
 30
0.0
 40
0.9950000000000613
100
AcDbArc
 50
359.9999999999967
 51
89.99999999999673
  0
ENDBLK
  5
1AC
330
163
100
AcDbEntity
  8
0
100
AcDbBlockEnd
  0
BLOCK
  5
66A
330
638
100
AcDbEntity
  8
0
100
AcDbBlockBegin
  2
*D2
 70
     1
 10
0.0
 20
0.0
 30
0.0
  3
*D2
  1

  0
LINE
  5
66B
330
638
100
AcDbEntity
  8
0
  6
BYBLOCK
 62
     4
100
AcDbLine
 10
636.5004265176464
 20
417.8643797373475
 30
0.0
 11
600.8834819671792
 21
403.6194770686631
 31
0.0
  0
LINE
  5
66C
330
638
100
AcDbEntity
  8
0
  6
BYBLOCK
 62
     4
100
AcDbLine
 10
647.6408825791836
 20
390.0095733522556
 30
0.0
 11
612.0239380287164
 21
375.7646706835712
 31
0.0
  0
LINE
  5
66D
330
638
100
AcDbEntity
  8
0
  6
BYBLOCK
 62
     4
100
AcDbLine
 10
606.2684023533505
 20
398.2340678516586
 30
0.0
 11
612.2099789195325
 21
383.3781711128707
 31
0.0
  0
INSERT
  5
66E
330
638
100
AcDbEntity
  8
0
  6
BYBLOCK
 62
     4
100
AcDbBlockReference
  2
_OPEN
 10
603.6689626056729
 20
404.7335226748105
 30
0.0
 41
7.0
 42
7.0
 43
7.0
 50
111.7988090140681
  0
INSERT
  5
66F
330
638
100
AcDbEntity
  8
0
  6
BYBLOCK
 62
     4
100
AcDbBlockReference
  2
_OPEN
 10
614.8094186672101
 20
376.8787162897186
 30
0.0
 41
7.0
 42
7.0
 43
7.0
 50
291.7988090140681
  0
MTEXT
  5
670
330
638
100
AcDbEntity
  8
0
  6
BYBLOCK
 62
     4
100
AcDbMText
 10
613.8816583672644
 20
392.6628621591772
 30
0.0
 40
6.0
 41
0.0
 71
     5
 72
     5
  1
\A1;30
 11
0.3713485353825094
 21
-0.9284935461645737
 31
0.0
1001
ACAD
1000
MTEXTBEGIN
1070
    73
1070
     1
1070
    44
1040
1.0
1070
    74
1070
     0
1000
MTEXTEND
1000
MTEXTBEGIN
1070
    73
1070
     1
1070
    44
1040
1.0
1070
    74
1070
     0
1000
MTEXTEND
1000
MTEXTBEGIN
1070
    73
1070
     1
1070
    44
1040
1.0
1070
    74
1070
     0
1000
MTEXTEND
  0
POINT
  5
671
330
638
100
AcDbEntity
  8
DEFPOINTS
  6
BYBLOCK
 62
     0
100
AcDbPoint
 10
642.071387794634
 20
420.0924709496426
 30
0.0
  0
POINT
  5
672
330
638
100
AcDbEntity
  8
DEFPOINTS
  6
BYBLOCK
 62
     0
100
AcDbPoint
 10
653.2118438561711
 20
392.2376645645507
 30
0.0
  0
POINT
  5
673
330
638
100
AcDbEntity
  8
DEFPOINTS
  6
BYBLOCK
 62
     0
100
AcDbPoint
 10
614.8094186672101
 20
376.8787162897186
 30
0.0
  0
ENDBLK
  5
674
330
638
100
AcDbEntity
  8
0
100
AcDbBlockEnd
  0
BLOCK
  5
80B
330
644
100
AcDbEntity
  8
0
100
AcDbBlockBegin
  2
*D3
 70
     1
 10
0.0
 20
0.0
 30
0.0
  3
*D3
  1

  0
LINE
  5
80C
330
644
100
AcDbEntity
  8
0
  6
BYBLOCK
 62
     4
100
AcDbLine
 10
616.2318549686984
 20
346.7719561631774
 30
0.0
 11
610.5705718382183
 21
360.9268902262214
 31
0.0
  0
LINE
  5
80D
330
644
100
AcDbEntity
  8
0
  6
BYBLOCK
 62
     4
100
AcDbLine
 10
569.8071776604465
 20
328.2045293940425
 30
0.0
 11
564.1459564219047
 21
342.3593087083686
 31
0.0
  0
LINE
  5
80E
330
644
100
AcDbEntity
  8
0
  6
BYBLOCK
 62
     4
100
AcDbLine
 10
605.1851805709784
 20
355.541951888716
 30
0.0
 11
571.7594574712984
 21
342.1732931958882
 31
0.0
  0
INSERT
  5
80F
330
644
100
AcDbEntity
  8
0
  6
BYBLOCK
 62
     4
100
AcDbBlockReference
  2
_OPEN
 10
611.6846267292952
 20
358.1414133012285
 30
0.0
 41
7.0
 42
7.0
 43
7.0
 50
21.7989999999998
  0
INSERT
  5
810
330
644
100
AcDbEntity
  8
0
  6
BYBLOCK
 62
     4
100
AcDbBlockReference
  2
_OPEN
 10
565.2600113129816
 20
339.5738317833758
 30
0.0
 41
7.0
 42
7.0
 43
7.0
 50
201.7989999999998
  0
MTEXT
  5
811
330
644
100
AcDbEntity
  8
0
  6
BYBLOCK
 62
     4
100
AcDbMText
 10
586.4096990516495
 20
353.4177493990668
 30
0.0
 40
6.0
 41
0.0
 71
     5
 72
     5
  1
\A1;50
 11
0.9284923083309642
 21
0.3713516303589332
 31
0.0
1001
ACAD
1000
MTEXTBEGIN
1070
    73
1070
     1
1070
    44
1040
1.0
1070
    74
1070
     0
1000
MTEXTEND
1000
MTEXTBEGIN
1070
    73
1070
     1
1070
    44
1040
1.0
1070
    74
1070
     0
1000
MTEXTEND
1000
MTEXTBEGIN
1070
    73
1070
     1
1070
    44
1040
1.0
1070
    74
1070
     0
1000
MTEXTEND
  0
POINT
  5
812
330
644
100
AcDbEntity
  8
DEFPOINTS
  6
BYBLOCK
 62
     0
100
AcDbPoint
 10
618.459964750852
 20
341.2010023131916
 30
0.0
  0
POINT
  5
813
330
644
100
AcDbEntity
  8
DEFPOINTS
  6
BYBLOCK
 62
     0
100
AcDbPoint
 10
572.0352874426001
 20
322.6335755440568
 30
0.0
  0
POINT
  5
814
330
644
100
AcDbEntity
  8
DEFPOINTS
  6
BYBLOCK
 62
     0
100
AcDbPoint
 10
565.2600113129816
 20
339.5738317833758
 30
0.0
  0
ENDBLK
  5
815
330
644
100
AcDbEntity
  8
0
100
AcDbBlockEnd
  0
BLOCK
  5
680
330
650
100
AcDbEntity
  8
0
100
AcDbBlockBegin
  2
*D4
 70
     1
 10
0.0
 20
0.0
 30
0.0
  3
*D4
  1

  0
LINE
  5
681
330
650
100
AcDbEntity
  8
0
  6
BYBLOCK
 62
     4
100
AcDbLine
 10
695.5528907826642
 20
447.9443369227028
 30
0.0
 11
683.8146862771877
 21
477.2934273963774
 31
0.0
  0
LINE
  5
682
330
650
100
AcDbEntity
  8
0
  6
BYBLOCK
 62
     4
100
AcDbLine
 10
639.8432780124803
 20
425.6634247996283
 30
0.0
 11
628.1051477773297
 21
455.0123295748414
 31
0.0
  0
LINE
  5
683
330
650
100
AcDbEntity
  8
0
  6
BYBLOCK
 62
     4
100
AcDbLine
 10
678.4292950099476
 20
471.9084890588719
 30
0.0
 11
635.7186488267233
 21
454.826314062361
 31
0.0
  0
INSERT
  5
684
330
650
100
AcDbEntity
  8
0
  6
BYBLOCK
 62
     4
100
AcDbBlockReference
  2
_OPEN
 10
684.9287411682644
 20
474.5079504713845
 30
0.0
 41
7.0
 42
7.0
 43
7.0
 50
21.7989999999998
  0
INSERT
  5
685
330
650
100
AcDbEntity
  8
0
  6
BYBLOCK
 62
     4
100
AcDbBlockReference
  2
_OPEN
 10
629.2192026684065
 20
452.2268526498485
 30
0.0
 41
7.0
 42
7.0
 43
7.0
 50
201.7989999999998
  0
MTEXT
  5
686
330
650
100
AcDbEntity
  8
0
  6
BYBLOCK
 62
     4
100
AcDbMText
 10
655.2172137665408
 20
468.0098631022714
 30
0.0
 40
6.0
 41
0.0
 71
     5
 72
     5
  1
\A1;60
 11
0.9284923083309642
 21
0.3713516303589332
 31
0.0
1001
ACAD
1000
MTEXTBEGIN
1070
    73
1070
     1
1070
    44
1040
1.0
1070
    74
1070
     0
1000
MTEXTEND
1000
MTEXTBEGIN
1070
    73
1070
     1
1070
    44
1040
1.0
1070
    74
1070
     0
1000
MTEXTEND
1000
MTEXTBEGIN
1070
    73
1070
     1
1070
    44
1040
1.0
1070
    74
1070
     0
1000
MTEXTEND
  0
POINT
  5
687
330
650
100
AcDbEntity
  8
DEFPOINTS
  6
BYBLOCK
 62
     0
100
AcDbPoint
 10
697.7810005648177
 20
442.373383072717
 30
0.0
  0
POINT
  5
688
330
650
100
AcDbEntity
  8
DEFPOINTS
  6
BYBLOCK
 62
     0
100
AcDbPoint
 10
642.0713877946338
 20
420.0924709496425
 30
0.0
  0
POINT
  5
689
330
650
100
AcDbEntity
  8
DEFPOINTS
  6
BYBLOCK
 62
     0
100
AcDbPoint
 10
629.2192026684065
 20
452.2268526498485
 30
0.0
  0
ENDBLK
  5
68A
330
650
100
AcDbEntity
  8
0
100
AcDbBlockEnd
  0
BLOCK
  5
816
330
65C
100
AcDbEntity
  8
0
100
AcDbBlockBegin
  2
*D5
 70
     1
 10
0.0
 20
0.0
 30
0.0
  3
*D5
  1

  0
LINE
  5
817
330
65C
100
AcDbEntity
  8
0
  6
BYBLOCK
 62
     4
100
AcDbLine
 10
563.6785948339544
 20
313.9062714132277
 30
0.0
 11
545.0311518539844
 21
306.4482759668993
 31
0.0
  0
LINE
  5
818
330
65C
100
AcDbEntity
  8
0
  6
BYBLOCK
 62
     4
100
AcDbLine
 10
571.1055655416459
 20
295.3364004898332
 30
0.0
 11
552.4581225616759
 21
287.8784050435047
 31
0.0
  0
LINE
  5
819
330
65C
100
AcDbEntity
  8
0
  6
BYBLOCK
 62
     4
100
AcDbLine
 10
545.2171927448007
 20
314.0617763961989
 30
0.0
 11
542.6177529971231
 21
320.5612312193509
 31
0.0
  0
LINE
  5
81A
330
65C
100
AcDbEntity
  8
0
  6
BYBLOCK
 62
     4
100
AcDbLine
 10
557.8430429478472
 20
282.4929958265002
 30
0.0
 11
560.4424826955249
 21
275.9935410033482
 31
0.0
  0
LINE
  5
81B
330
65C
100
AcDbEntity
  8
0
  6
BYBLOCK
 62
     4
100
AcDbLine
 10
547.8166324924783
 20
307.5623215730469
 30
0.0
 11
555.2436032001698
 21
288.9924506496523
 31
0.0
  0
INSERT
  5
81C
330
65C
100
AcDbEntity
  8
0
  6
BYBLOCK
 62
     4
100
AcDbBlockReference
  2
_OPEN
 10
547.8166324924783
 20
307.5623215730469
 30
0.0
 41
7.0
 42
7.0
 43
7.0
 50
291.7988090140681
  0
INSERT
  5
81D
330
65C
100
AcDbEntity
  8
0
  6
BYBLOCK
 62
     4
100
AcDbBlockReference
  2
_OPEN
 10
555.2436032001698
 20
288.9924506496523
 30
0.0
 41
7.0
 42
7.0
 43
7.0
 50
111.7988090140681
  0
MTEXT
  5
81E
330
65C
100
AcDbEntity
  8
0
  6
BYBLOCK
 62
     4
100
AcDbMText
 10
556.1725855771468
 20
300.1341287882621
 30
0.0
 40
6.0
 41
0.0
 71
     5
 72
     5
  1
\A1;20
 11
0.3713485353825094
 21
-0.9284935461645737
 31
0.0
1001
ACAD
1000
MTEXTBEGIN
1070
    73
1070
     1
1070
    44
1040
1.0
1070
    74
1070
     0
1000
MTEXTEND
1000
MTEXTBEGIN
1070
    73
1070
     1
1070
    44
1040
1.0
1070
    74
1070
     0
1000
MTEXTEND
1000
MTEXTBEGIN
1070
    73
1070
     1
1070
    44
1040
1.0
1070
    74
1070
     0
1000
MTEXTEND
  0
POINT
  5
81F
330
65C
100
AcDbEntity
  8
DEFPOINTS
  6
BYBLOCK
 62
     0
100
AcDbPoint
 10
569.2495561109418
 20
316.1343626255228
 30
0.0
  0
POINT
  5
820
330
65C
100
AcDbEntity
  8
DEFPOINTS
  6
BYBLOCK
 62
     0
100
AcDbPoint
 10
576.6765268186333
 20
297.5644917021282
 30
0.0
  0
POINT
  5
821
330
65C
100
AcDbEntity
  8
DEFPOINTS
  6
BYBLOCK
 62
     0
100
AcDbPoint
 10
555.2436032001698
 20
288.9924506496523
 30
0.0
  0
ENDBLK
  5
822
330
65C
100
AcDbEntity
  8
0
100
AcDbBlockEnd
  0
BLOCK
  5
76C
330
699
100
AcDbEntity
  8
0
100
AcDbBlockBegin
  2
*D6
 70
     1
 10
0.0
 20
0.0
 30
0.0
  3
*D6
  1

  0
LINE
  5
76D
330
699
100
AcDbEntity
  8
0
  6
BYBLOCK
 62
     4
100
AcDbLine
 10
470.7408571547841
 20
282.7455088017658
 30
0.0
 11
479.4588474458399
 21
260.950533074126
 31
0.0
  0
LINE
  5
76E
330
699
100
AcDbEntity
  8
0
  6
BYBLOCK
 62
     4
100
AcDbLine
 10
472.1336117623771
 20
283.302610644803
 30
0.0
 11
480.8516020534329
 21
261.5076349171632
 31
0.0
  0
LINE
  5
76F
330
699
100
AcDbEntity
  8
0
  6
BYBLOCK
 62
     4
100
AcDbLine
 10
471.8453385805807
 20
261.1362284123031
 30
0.0
 11
465.346001744384
 21
258.5364936778244
 31
0.0
  0
LINE
  5
770
330
699
100
AcDbEntity
  8
0
  6
BYBLOCK
 62
     4
100
AcDbLine
 10
486.2367668605674
 20
266.8927997242977
 30
0.0
 11
511.3056375144695
 21
276.9203479858584
 31
0.0
  0
LINE
  5
771
330
699
100
AcDbEntity
  8
0
  6
BYBLOCK
 62
     4
100
AcDbLine
 10
478.3446754167775
 20
263.7359631467818
 30
0.0
 11
479.7374300243706
 21
264.293064989819
 31
0.0
  0
INSERT
  5
772
330
699
100
AcDbEntity
  8
0
  6
BYBLOCK
 62
     4
100
AcDbBlockReference
  2
_OPEN
 10
478.3446754167775
 20
263.7359631467818
 30
0.0
 41
7.0
 42
7.0
 43
7.0
 50
21.80140948635168
  0
INSERT
  5
773
330
699
100
AcDbEntity
  8
0
  6
BYBLOCK
 62
     4
100
AcDbBlockReference
  2
_OPEN
 10
479.7374300243706
 20
264.293064989819
 30
0.0
 41
7.0
 42
7.0
 43
7.0
 50
201.8014094863516
  0
MTEXT
  5
774
330
699
100
AcDbEntity
  8
0
  6
BYBLOCK
 62
     4
100
AcDbMText
 10
500.1639172238464
 20
277.8488246767437
 30
0.0
 40
6.0
 41
0.0
 71
     5
 72
     5
  1
\A1;t1.5
 11
0.9284766908852603
 21
0.3713906763541011
 31
0.0
1001
ACAD
1000
MTEXTBEGIN
1070
    73
1070
     1
1070
    44
1040
1.0
1070
    74
1070
     0
1000
MTEXTEND
1000
MTEXTBEGIN
1070
    73
1070
     1
1070
    44
1040
1.0
1070
    74
1070
     0
1000
MTEXTEND
1000
MTEXTBEGIN
1070
    73
1070
     1
1070
    44
1040
1.0
1070
    74
1070
     0
1000
MTEXTEND
  0
POINT
  5
775
330
699
100
AcDbEntity
  8
DEFPOINTS
  6
BYBLOCK
 62
     0
100
AcDbPoint
 10
468.5125130966595
 20
288.3163689470774
 30
0.0
  0
POINT
  5
776
330
699
100
AcDbEntity
  8
DEFPOINTS
  6
BYBLOCK
 62
     0
100
AcDbPoint
 10
469.9052677042525
 20
288.8734707901146
 30
0.0
  0
POINT
  5
777
330
699
100
AcDbEntity
  8
DEFPOINTS
  6
BYBLOCK
 62
     0
100
AcDbPoint
 10
479.7374300243706
 20
264.293064989819
 30
0.0
  0
ENDBLK
  5
778
330
699
100
AcDbEntity
  8
0
100
AcDbBlockEnd
  0
BLOCK
  5
839
330
6DC
100
AcDbEntity
  8
0
100
AcDbBlockBegin
  2
*D7
 70
     1
 10
0.0
 20
0.0
 30
0.0
  3
*D7
  1

  0
LINE
  5
83A
330
6DC
100
AcDbEntity
  8
0
  6
BYBLOCK
 62
     4
100
AcDbLine
 10
473.2838477870303
 20
250.4156181642857
 30
0.0
 11
473.2838477870303
 21
317.7341696236094
 31
0.0
  0
LINE
  5
83B
330
6DC
100
AcDbEntity
  8
0
  6
BYBLOCK
 62
     4
100
AcDbLine
 10
443.28616088666
 20
245.0540793332478
 30
0.0
 11
443.28616088666
 21
317.7341696236094
 31
0.0
  0
LINE
  5
83C
330
6DC
100
AcDbEntity
  8
0
  6
BYBLOCK
 62
     4
100
AcDbLine
 10
466.2838477870303
 20
314.7341696236094
 30
0.0
 11
450.28616088666
 21
314.7341696236094
 31
0.0
  0
INSERT
  5
83D
330
6DC
100
AcDbEntity
  8
0
  6
BYBLOCK
 62
     4
100
AcDbBlockReference
  2
_OPEN
 10
473.2838477870303
 20
314.7341696236094
 30
0.0
 41
7.0
 42
7.0
 43
7.0
  0
INSERT
  5
83E
330
6DC
100
AcDbEntity
  8
0
  6
BYBLOCK
 62
     4
100
AcDbBlockReference
  2
_OPEN
 10
443.28616088666
 20
314.7341696236094
 30
0.0
 41
7.0
 42
7.0
 43
7.0
 50
180.0
  0
MTEXT
  5
83F
330
6DC
100
AcDbEntity
  8
0
  6
BYBLOCK
 62
     4
100
AcDbMText
 10
458.2850043368451
 20
319.7341696236094
 30
0.0
 40
6.0
 41
0.0
 71
     5
 72
     5
  1
\A1;30
1001
ACAD
1000
MTEXTBEGIN
1070
    73
1070
     1
1070
    44
1040
1.0
1070
    74
1070
     0
1000
MTEXTEND
1000
MTEXTBEGIN
1070
    73
1070
     1
1070
    44
1040
1.0
1070
    74
1070
     0
1000
MTEXTEND
1000
MTEXTBEGIN
1070
    73
1070
     1
1070
    44
1040
1.0
1070
    74
1070
     0
1000
MTEXTEND
  0
POINT
  5
840
330
6DC
100
AcDbEntity
  8
DEFPOINTS
  6
BYBLOCK
 62
     0
100
AcDbPoint
 10
473.2838477870303
 20
244.4156181642857
 30
0.0
  0
POINT
  5
841
330
6DC
100
AcDbEntity
  8
DEFPOINTS
  6
BYBLOCK
 62
     0
100
AcDbPoint
 10
443.28616088666
 20
239.0540793332478
 30
0.0
  0
POINT
  5
842
330
6DC
100
AcDbEntity
  8
DEFPOINTS
  6
BYBLOCK
 62
     0
100
AcDbPoint
 10
443.28616088666
 20
314.7341696236094
 30
0.0
  0
ENDBLK
  5
843
330
6DC
100
AcDbEntity
  8
0
100
AcDbBlockEnd
  0
BLOCK
  5
851
330
6E9
100
AcDbEntity
  8
0
100
AcDbBlockBegin
  2
*D8
 70
     1
 10
0.0
 20
0.0
 30
0.0
  3
*D8
  1

  0
LINE
  5
852
330
6E9
100
AcDbEntity
  8
0
  6
BYBLOCK
 62
     4
100
AcDbLine
 10
465.4786323874003
 20
280.0840450029009
 30
0.0
 11
482.3949332583461
 21
286.8505868166911
 31
0.0
  0
LINE
  5
853
330
6E9
100
AcDbEntity
  8
0
  6
BYBLOCK
 62
     4
100
AcDbLine
 10
476.620366305446
 20
252.2297985697282
 30
0.0
 11
493.5366671763917
 21
258.9963403835184
 31
0.0
  0
LINE
  5
854
330
6E9
100
AcDbEntity
  8
0
  6
BYBLOCK
 62
     4
100
AcDbLine
 10
482.2092462485486
 20
279.2370777483053
 30
0.0
 11
488.1514964784555
 21
264.3814992998447
 31
0.0
  0
INSERT
  5
855
330
6E9
100
AcDbEntity
  8
0
  6
BYBLOCK
 62
     4
100
AcDbBlockReference
  2
_OPEN
 10
479.6095044044792
 20
285.7364117406614
 30
0.0
 41
7.0
 42
7.0
 43
7.0
 50
111.80147216192
  0
INSERT
  5
856
330
6E9
100
AcDbEntity
  8
0
  6
BYBLOCK
 62
     4
100
AcDbBlockReference
  2
_OPEN
 10
490.7512383225249
 20
257.8821653074887
 30
0.0
 41
7.0
 42
7.0
 43
7.0
 50
291.80147216192
  0
MTEXT
  5
857
330
6E9
100
AcDbEntity
  8
0
  6
BYBLOCK
 62
     4
100
AcDbMText
 10
490.3798319035025
 20
272.2735536099392
 30
0.0
 40
6.0
 41
0.0
 71
     5
 72
     5
  1
\A1;30
 11
0.3713916920099159
 21
-0.92847628462229
 31
0.0
1001
ACAD
1000
MTEXTBEGIN
1070
    73
1070
     1
1070
    44
1040
1.0
1070
    74
1070
     0
1000
MTEXTEND
1000
MTEXTBEGIN
1070
    73
1070
     1
1070
    44
1040
1.0
1070
    74
1070
     0
1000
MTEXTEND
1000
MTEXTBEGIN
1070
    73
1070
     1
1070
    44
1040
1.0
1070
    74
1070
     0
1000
MTEXTEND
  0
POINT
  5
858
330
6E9
100
AcDbEntity
  8
DEFPOINTS
  6
BYBLOCK
 62
     0
100
AcDbPoint
 10
459.9077746796666
 20
277.8556948508414
 30
0.0
  0
POINT
  5
859
330
6E9
100
AcDbEntity
  8
DEFPOINTS
  6
BYBLOCK
 62
     0
100
AcDbPoint
 10
471.0495085977123
 20
250.0014484176687
 30
0.0
  0
POINT
  5
85A
330
6E9
100
AcDbEntity
  8
DEFPOINTS
  6
BYBLOCK
 62
     0
100
AcDbPoint
 10
490.7512383225249
 20
257.8821653074887
 30
0.0
  0
ENDBLK
  5
85B
330
6E9
100
AcDbEntity
  8
0
100
AcDbBlockEnd
  0
BLOCK
  5
74B
330
6F8
100
AcDbEntity
  8
0
100
AcDbBlockBegin
  2
*D9
 70
     1
 10
0.0
 20
0.0
 30
0.0
  3
*D9
  1

  0
LINE
  5
74C
330
6F8
100
AcDbEntity
  8
0
  6
BYBLOCK
 62
     4
100
AcDbLine
 10
452.7635337862066
 20
316.7277172232871
 30
0.0
 11
413.4163105315938
 21
316.7277172232871
 31
0.0
  0
LINE
  5
74D
330
6F8
100
AcDbEntity
  8
0
  6
BYBLOCK
 62
     4
100
AcDbLine
 10
429.9432199932
 20
278.9210017056936
 30
0.0
 11
413.4163105315938
 21
278.9210017056936
 31
0.0
  0
LINE
  5
74E
330
6F8
100
AcDbEntity
  8
0
  6
BYBLOCK
 62
     4
100
AcDbLine
 10
416.4163105315938
 20
309.7277172232872
 30
0.0
 11
416.4163105315938
 21
285.9210017056935
 31
0.0
  0
INSERT
  5
74F
330
6F8
100
AcDbEntity
  8
0
  6
BYBLOCK
 62
     4
100
AcDbBlockReference
  2
_OPEN
 10
416.4163105315938
 20
316.7277172232871
 30
0.0
 41
7.0
 42
7.0
 43
7.0
 50
90.0
  0
INSERT
  5
750
330
6F8
100
AcDbEntity
  8
0
  6
BYBLOCK
 62
     4
100
AcDbBlockReference
  2
_OPEN
 10
416.4163105315938
 20
278.9210017056936
 30
0.0
 41
7.0
 42
7.0
 43
7.0
 50
270.0
  0
MTEXT
  5
751
330
6F8
100
AcDbEntity
  8
0
  6
BYBLOCK
 62
     4
100
AcDbMText
 10
411.4163105315937
 20
297.8243594644903
 30
0.0
 40
6.0
 41
0.0
 71
     5
 72
     5
  1
\A1;38
 11
0.0
 21
1.0
 31
0.0
1001
ACAD
1000
MTEXTBEGIN
1070
    73
1070
     1
1070
    44
1040
1.0
1070
    74
1070
     0
1000
MTEXTEND
1000
MTEXTBEGIN
1070
    73
1070
     1
1070
    44
1040
1.0
1070
    74
1070
     0
1000
MTEXTEND
1000
MTEXTBEGIN
1070
    73
1070
     1
1070
    44
1040
1.0
1070
    74
1070
     0
1000
MTEXTEND
  0
POINT
  5
752
330
6F8
100
AcDbEntity
  8
DEFPOINTS
  6
BYBLOCK
 62
     0
100
AcDbPoint
 10
458.7635337862066
 20
316.7277172232871
 30
0.0
  0
POINT
  5
753
330
6F8
100
AcDbEntity
  8
DEFPOINTS
  6
BYBLOCK
 62
     0
100
AcDbPoint
 10
435.9432199932
 20
278.9210017056936
 30
0.0
  0
POINT
  5
754
330
6F8
100
AcDbEntity
  8
DEFPOINTS
  6
BYBLOCK
 62
     0
100
AcDbPoint
 10
416.4163105315938
 20
278.9210017056936
 30
0.0
  0
ENDBLK
  5
755
330
6F8
100
AcDbEntity
  8
0
100
AcDbBlockEnd
  0
BLOCK
  5
82E
330
705
100
AcDbEntity
  8
0
100
AcDbBlockBegin
  2
*D10
 70
     1
 10
0.0
 20
0.0
 30
0.0
  3
*D10
  1

  0
LINE
  5
82F
330
705
100
AcDbEntity
  8
0
  6
BYBLOCK
 62
     4
100
AcDbLine
 10
473.2838477870303
 20
250.4156181642857
 30
0.0
 11
473.2838477870303
 21
335.0763413686349
 31
0.0
  0
LINE
  5
830
330
705
100
AcDbEntity
  8
0
  6
BYBLOCK
 62
     4
100
AcDbLine
 10
327.78396088666
 20
269.0516293332478
 30
0.0
 11
327.78396088666
 21
335.0763413686349
 31
0.0
  0
LINE
  5
831
330
705
100
AcDbEntity
  8
0
  6
BYBLOCK
 62
     4
100
AcDbLine
 10
466.2838477870303
 20
332.0763413686349
 30
0.0
 11
334.78396088666
 21
332.0763413686349
 31
0.0
  0
INSERT
  5
832
330
705
100
AcDbEntity
  8
0
  6
BYBLOCK
 62
     4
100
AcDbBlockReference
  2
_OPEN
 10
473.2838477870303
 20
332.0763413686349
 30
0.0
 41
7.0
 42
7.0
 43
7.0
  0
INSERT
  5
833
330
705
100
AcDbEntity
  8
0
  6
BYBLOCK
 62
     4
100
AcDbBlockReference
  2
_OPEN
 10
327.78396088666
 20
332.0763413686349
 30
0.0
 41
7.0
 42
7.0
 43
7.0
 50
180.0
  0
MTEXT
  5
834
330
705
100
AcDbEntity
  8
0
  6
BYBLOCK
 62
     4
100
AcDbMText
 10
400.5339043368452
 20
337.0763413686349
 30
0.0
 40
6.0
 41
0.0
 71
     5
 72
     5
  1
\A1;145
1001
ACAD
1000
MTEXTBEGIN
1070
    73
1070
     1
1070
    44
1040
1.0
1070
    74
1070
     0
1000
MTEXTEND
1000
MTEXTBEGIN
1070
    73
1070
     1
1070
    44
1040
1.0
1070
    74
1070
     0
1000
MTEXTEND
1000
MTEXTBEGIN
1070
    73
1070
     1
1070
    44
1040
1.0
1070
    74
1070
     0
1000
MTEXTEND
  0
POINT
  5
835
330
705
100
AcDbEntity
  8
DEFPOINTS
  6
BYBLOCK
 62
     0
100
AcDbPoint
 10
473.2838477870303
 20
244.4156181642857
 30
0.0
  0
POINT
  5
836
330
705
100
AcDbEntity
  8
DEFPOINTS
  6
BYBLOCK
 62
     0
100
AcDbPoint
 10
327.78396088666
 20
263.0516293332478
 30
0.0
  0
POINT
  5
837
330
705
100
AcDbEntity
  8
DEFPOINTS
  6
BYBLOCK
 62
     0
100
AcDbPoint
 10
327.78396088666
 20
332.0763413686349
 30
0.0
  0
ENDBLK
  5
838
330
705
100
AcDbEntity
  8
0
100
AcDbBlockEnd
  0
BLOCK
  5
77A
330
779
100
AcDbEntity
  8
0
100
AcDbBlockBegin
  2
*D11
 70
     1
 10
0.0
 20
0.0
 30
0.0
  3
*D11
  1

  0
LINE
  5
77B
330
779
100
AcDbEntity
  8
0
  6
BYBLOCK
 62
     4
100
AcDbLine
 10
476.0814199932002
 20
463.9235517056936
 30
0.0
 11
504.8434550471252
 21
463.9235517056936
 31
0.0
  0
LINE
  5
77C
330
779
100
AcDbEntity
  8
0
  6
BYBLOCK
 62
     4
100
AcDbLine
 10
476.0814199932002
 20
403.9235517056935
 30
0.0
 11
504.8434550471252
 21
403.9235517056935
 31
0.0
  0
LINE
  5
77D
330
779
100
AcDbEntity
  8
0
  6
BYBLOCK
 62
     4
100
AcDbLine
 10
501.8434550471251
 20
456.9235517056935
 30
0.0
 11
501.8434550471251
 21
410.9235517056935
 31
0.0
  0
INSERT
  5
77E
330
779
100
AcDbEntity
  8
0
  6
BYBLOCK
 62
     4
100
AcDbBlockReference
  2
_OPEN
 10
501.8434550471251
 20
463.9235517056936
 30
0.0
 41
7.0
 42
7.0
 43
7.0
 50
90.0
  0
INSERT
  5
77F
330
779
100
AcDbEntity
  8
0
  6
BYBLOCK
 62
     4
100
AcDbBlockReference
  2
_OPEN
 10
501.8434550471251
 20
403.9235517056935
 30
0.0
 41
7.0
 42
7.0
 43
7.0
 50
270.0
  0
MTEXT
  5
780
330
779
100
AcDbEntity
  8
0
  6
BYBLOCK
 62
     4
100
AcDbMText
 10
496.8434550471251
 20
433.9235517056935
 30
0.0
 40
6.0
 41
0.0
 71
     5
 72
     5
  1
\A1;60
 11
0.0
 21
1.0
 31
0.0
1001
ACAD
1000
MTEXTBEGIN
1070
    73
1070
     1
1070
    44
1040
1.0
1070
    74
1070
     0
1000
MTEXTEND
1000
MTEXTBEGIN
1070
    73
1070
     1
1070
    44
1040
1.0
1070
    74
1070
     0
1000
MTEXTEND
1000
MTEXTBEGIN
1070
    73
1070
     1
1070
    44
1040
1.0
1070
    74
1070
     0
1000
MTEXTEND
  0
POINT
  5
781
330
779
100
AcDbEntity
  8
DEFPOINTS
  6
BYBLOCK
 62
     0
100
AcDbPoint
 10
470.0814199932002
 20
463.9235517056936
 30
0.0
  0
POINT
  5
782
330
779
100
AcDbEntity
  8
DEFPOINTS
  6
BYBLOCK
 62
     0
100
AcDbPoint
 10
470.0814199932002
 20
403.9235517056935
 30
0.0
  0
POINT
  5
783
330
779
100
AcDbEntity
  8
DEFPOINTS
  6
BYBLOCK
 62
     0
100
AcDbPoint
 10
501.8434550471251
 20
403.9235517056935
 30
0.0
  0
ENDBLK
  5
784
330
779
100
AcDbEntity
  8
0
100
AcDbBlockEnd
  0
BLOCK
  5
787
330
786
100
AcDbEntity
  8
0
100
AcDbBlockBegin
  2
*D12
 70
     1
 10
0.0
 20
0.0
 30
0.0
  3
*D12
  1

  0
LINE
  5
788
330
786
100
AcDbEntity
  8
0
  6
BYBLOCK
 62
     4
100
AcDbLine
 10
321.3398199932002
 20
446.4235517056935
 30
0.0
 11
306.2910585478975
 21
446.4235517056935
 31
0.0
  0
LINE
  5
789
330
786
100
AcDbEntity
  8
0
  6
BYBLOCK
 62
     4
100
AcDbLine
 10
321.3398199932002
 20
421.4235517056935
 30
0.0
 11
306.2910585478975
 21
421.4235517056935
 31
0.0
  0
LINE
  5
78A
330
786
100
AcDbEntity
  8
0
  6
BYBLOCK
 62
     4
100
AcDbLine
 10
309.2910585478975
 20
453.4235517056935
 30
0.0
 11
309.2910585478975
 21
460.4235517056936
 31
0.0
  0
LINE
  5
78B
330
786
100
AcDbEntity
  8
0
  6
BYBLOCK
 62
     4
100
AcDbLine
 10
309.2910585478975
 20
414.4235517056935
 30
0.0
 11
309.2910585478975
 21
407.4235517056934
 31
0.0
  0
LINE
  5
78C
330
786
100
AcDbEntity
  8
0
  6
BYBLOCK
 62
     4
100
AcDbLine
 10
309.2910585478975
 20
446.4235517056935
 30
0.0
 11
309.2910585478975
 21
421.4235517056935
 31
0.0
  0
INSERT
  5
78D
330
786
100
AcDbEntity
  8
0
  6
BYBLOCK
 62
     4
100
AcDbBlockReference
  2
_OPEN
 10
309.2910585478975
 20
446.4235517056935
 30
0.0
 41
7.0
 42
7.0
 43
7.0
 50
270.0
  0
INSERT
  5
78E
330
786
100
AcDbEntity
  8
0
  6
BYBLOCK
 62
     4
100
AcDbBlockReference
  2
_OPEN
 10
309.2910585478975
 20
421.4235517056935
 30
0.0
 41
7.0
 42
7.0
 43
7.0
 50
90.0
  0
MTEXT
  5
78F
330
786
100
AcDbEntity
  8
0
  6
BYBLOCK
 62
     4
100
AcDbMText
 10
304.2910585478975
 20
433.9235517056935
 30
0.0
 40
6.0
 41
0.0
 71
     5
 72
     5
  1
\A1;25
 11
0.0
 21
1.0
 31
0.0
1001
ACAD
1000
MTEXTBEGIN
1070
    73
1070
     1
1070
    44
1040
1.0
1070
    74
1070
     0
1000
MTEXTEND
1000
MTEXTBEGIN
1070
    73
1070
     1
1070
    44
1040
1.0
1070
    74
1070
     0
1000
MTEXTEND
1000
MTEXTBEGIN
1070
    73
1070
     1
1070
    44
1040
1.0
1070
    74
1070
     0
1000
MTEXTEND
  0
POINT
  5
790
330
786
100
AcDbEntity
  8
DEFPOINTS
  6
BYBLOCK
 62
     0
100
AcDbPoint
 10
327.3398199932002
 20
446.4235517056935
 30
0.0
  0
POINT
  5
791
330
786
100
AcDbEntity
  8
DEFPOINTS
  6
BYBLOCK
 62
     0
100
AcDbPoint
 10
327.3398199932002
 20
421.4235517056935
 30
0.0
  0
POINT
  5
792
330
786
100
AcDbEntity
  8
DEFPOINTS
  6
BYBLOCK
 62
     0
100
AcDbPoint
 10
309.2910585478975
 20
421.4235517056935
 30
0.0
  0
ENDBLK
  5
793
330
786
100
AcDbEntity
  8
0
100
AcDbBlockEnd
  0
BLOCK
  5
796
330
795
100
AcDbEntity
  8
0
100
AcDbBlockBegin
  2
*D13
 70
     1
 10
0.0
 20
0.0
 30
0.0
  3
*D13
  1

  0
LINE
  5
797
330
795
100
AcDbEntity
  8
0
  6
BYBLOCK
 62
     4
100
AcDbLine
 10
320.6397199932001
 20
301.9236517056937
 30
0.0
 11
306.3931346345143
 21
301.9236517056937
 31
0.0
  0
LINE
  5
798
330
795
100
AcDbEntity
  8
0
  6
BYBLOCK
 62
     4
100
AcDbLine
 10
344.8842199932002
 20
227.4236517056935
 30
0.0
 11
306.3931346345143
 21
227.4236517056935
 31
0.0
  0
LINE
  5
799
330
795
100
AcDbEntity
  8
0
  6
BYBLOCK
 62
     4
100
AcDbLine
 10
309.3931346345143
 20
294.9236517056937
 30
0.0
 11
309.3931346345143
 21
234.4236517056935
 31
0.0
  0
INSERT
  5
79A
330
795
100
AcDbEntity
  8
0
  6
BYBLOCK
 62
     4
100
AcDbBlockReference
  2
_OPEN
 10
309.3931346345143
 20
301.9236517056937
 30
0.0
 41
7.0
 42
7.0
 43
7.0
 50
90.0
  0
INSERT
  5
79B
330
795
100
AcDbEntity
  8
0
  6
BYBLOCK
 62
     4
100
AcDbBlockReference
  2
_OPEN
 10
309.3931346345143
 20
227.4236517056935
 30
0.0
 41
7.0
 42
7.0
 43
7.0
 50
270.0
  0
MTEXT
  5
79C
330
795
100
AcDbEntity
  8
0
  6
BYBLOCK
 62
     4
100
AcDbMText
 10
304.3931346345143
 20
264.6736517056936
 30
0.0
 40
6.0
 41
0.0
 71
     5
 72
     5
  1
\A1;75
 11
0.0
 21
1.0
 31
0.0
1001
ACAD
1000
MTEXTBEGIN
1070
    73
1070
     1
1070
    44
1040
1.0
1070
    74
1070
     0
1000
MTEXTEND
1000
MTEXTBEGIN
1070
    73
1070
     1
1070
    44
1040
1.0
1070
    74
1070
     0
1000
MTEXTEND
1000
MTEXTBEGIN
1070
    73
1070
     1
1070
    44
1040
1.0
1070
    74
1070
     0
1000
MTEXTEND
  0
POINT
  5
79D
330
795
100
AcDbEntity
  8
DEFPOINTS
  6
BYBLOCK
 62
     0
100
AcDbPoint
 10
326.6397199932001
 20
301.9236517056937
 30
0.0
  0
POINT
  5
79E
330
795
100
AcDbEntity
  8
DEFPOINTS
  6
BYBLOCK
 62
     0
100
AcDbPoint
 10
350.8842199932002
 20
227.4236517056935
 30
0.0
  0
POINT
  5
79F
330
795
100
AcDbEntity
  8
DEFPOINTS
  6
BYBLOCK
 62
     0
100
AcDbPoint
 10
309.3931346345143
 20
227.4236517056935
 30
0.0
  0
ENDBLK
  5
7A0
330
795
100
AcDbEntity
  8
0
100
AcDbBlockEnd
  0
BLOCK
  5
845
330
844
100
AcDbEntity
  8
0
100
AcDbBlockBegin
  2
*D14
 70
     1
 10
0.0
 20
0.0
 30
0.0
  3
*D14
  1

  0
LINE
  5
846
330
844
100
AcDbEntity
  8
0
  6
BYBLOCK
 62
     4
100
AcDbLine
 10
465.90786088666
 20
277.8557293332478
 30
0.0
 11
523.9400204212347
 21
277.8557293332478
 31
0.0
  0
LINE
  5
847
330
844
100
AcDbEntity
  8
0
  6
BYBLOCK
 62
     4
100
AcDbLine
 10
426.2839891621476
 20
146.3515987564902
 30
0.0
 11
523.9400204212347
 21
146.3515987564902
 31
0.0
  0
LINE
  5
848
330
844
100
AcDbEntity
  8
0
  6
BYBLOCK
 62
     4
100
AcDbLine
 10
520.9400204212347
 20
270.8557293332478
 30
0.0
 11
520.9400204212347
 21
153.3515987564902
 31
0.0
  0
INSERT
  5
849
330
844
100
AcDbEntity
  8
0
  6
BYBLOCK
 62
     4
100
AcDbBlockReference
  2
_OPEN
 10
520.9400204212347
 20
277.8557293332478
 30
0.0
 41
7.0
 42
7.0
 43
7.0
 50
90.0
  0
INSERT
  5
84A
330
844
100
AcDbEntity
  8
0
  6
BYBLOCK
 62
     4
100
AcDbBlockReference
  2
_OPEN
 10
520.9400204212347
 20
146.3515987564902
 30
0.0
 41
7.0
 42
7.0
 43
7.0
 50
270.0
  0
MTEXT
  5
84B
330
844
100
AcDbEntity
  8
0
  6
BYBLOCK
 62
     4
100
AcDbMText
 10
515.9400204212347
 20
212.103664044869
 30
0.0
 40
6.0
 41
0.0
 71
     5
 72
     5
  1
\A1;132
 11
0.0
 21
1.0
 31
0.0
1001
ACAD
1000
MTEXTBEGIN
1070
    73
1070
     1
1070
    44
1040
1.0
1070
    74
1070
     0
1000
MTEXTEND
1000
MTEXTBEGIN
1070
    73
1070
     1
1070
    44
1040
1.0
1070
    74
1070
     0
1000
MTEXTEND
1000
MTEXTBEGIN
1070
    73
1070
     1
1070
    44
1040
1.0
1070
    74
1070
     0
1000
MTEXTEND
  0
POINT
  5
84C
330
844
100
AcDbEntity
  8
DEFPOINTS
  6
BYBLOCK
 62
     0
100
AcDbPoint
 10
459.90786088666
 20
277.8557293332478
 30
0.0
  0
POINT
  5
84D
330
844
100
AcDbEntity
  8
DEFPOINTS
  6
BYBLOCK
 62
     0
100
AcDbPoint
 10
420.2839891621476
 20
146.3515987564902
 30
0.0
  0
POINT
  5
84E
330
844
100
AcDbEntity
  8
DEFPOINTS
  6
BYBLOCK
 62
     0
100
AcDbPoint
 10
520.9400204212347
 20
146.3515987564902
 30
0.0
  0
ENDBLK
  5
84F
330
844
100
AcDbEntity
  8
0
100
AcDbBlockEnd
  0
ENDSEC
  0
SECTION
  2
ENTITIES
  0
INSERT
  5
3A7
330
1A
100
AcDbEntity
  8
0
100
AcDbBlockReference
  2
A$C1305
 10
329.1011018022261
 20
189.9395086959455
 30
0.0
  0
LINE
  5
3A8
330
1A
100
AcDbEntity
  8
SEIHIN
  6
CONTINUOUS
 62
     3
 48
16.0
100
AcDbLine
 10
386.2840608866602
 20
406.0515293332478
 30
0.0
 11
419.4045608866601
 21
406.0516293332478
 31
0.0
  0
LINE
  5
3A9
330
1A
100
AcDbEntity
  8
SEIHIN
  6
CONTINUOUS
 62
     3
 48
16.0
100
AcDbLine
 10
386.2840608866602
 20
384.0515293332476
 30
0.0
 11
419.4045608866601
 21
384.0514293332478
 31
0.0
  0
LINE
  5
3AA
330
1A
100
AcDbEntity
  8
SEIHIN
  6
CONTINUOUS
 62
     3
 48
16.0
100
AcDbLine
 10
420.1044608866602
 20
185.3516293332477
 30
0.0
 11
403.9487608866601
 21
185.3516293332477
 31
0.0
  0
LINE
  5
3AB
330
1A
100
AcDbEntity
  8
SEIHIN
  6
CONTINUOUS
 62
     3
 48
16.0
100
AcDbLine
 10
386.28396088666
 20
188.5516293332477
 30
0.0
 11
420.53946088666
 21
188.5516293332477
 31
0.0
  0
LINE
  5
3AC
330
1A
100
AcDbEntity
  8
SEIHIN
  6
CONTINUOUS
 62
     3
 48
16.0
100
AcDbLine
 10
386.28396088666
 20
190.0516293332477
 30
0.0
 11
419.4045608866601
 21
190.0516293332477
 31
0.0
  0
LINE
  5
3AD
330
1A
100
AcDbEntity
  8
SEIHIN
  6
CONTINUOUS
 62
     3
 48
16.0
100
AcDbLine
 10
392.8223608866602
 20
392.5515293332477
 30
0.0
 11
433.08406088666
 21
392.5515293332477
 31
0.0
  0
LINE
  5
3AE
330
1A
100
AcDbEntity
  8
SEIHIN
  6
CONTINUOUS
 62
     3
 48
16.0
100
AcDbLine
 10
386.2840608866602
 20
387.5515293332477
 30
0.0
 11
433.08406088666
 21
387.5515293332477
 31
0.0
  0
LINE
  5
3AF
330
1A
100
AcDbEntity
  8
CENTER_L
  6
CENTER
 62
     1
 48
5.0
100
AcDbLine
 10
386.2840608866602
 20
395.0515293332477
 30
0.0
 11
485.1722608866602
 21
395.0515293332477
 31
0.0
  0
LINE
  5
3B0
330
1A
100
AcDbEntity
  8
SEIHIN
  6
CONTINUOUS
 62
     3
 48
16.0
100
AcDbLine
 10
386.2840608866602
 20
402.5515293332477
 30
0.0
 11
433.08406088666
 21
402.5515293332477
 31
0.0
  0
LINE
  5
3B1
330
1A
100
AcDbEntity
  8
SEIHIN
  6
CONTINUOUS
 62
     3
 48
16.0
100
AcDbLine
 10
392.8223608866602
 20
397.5515293332477
 30
0.0
 11
433.08406088666
 21
397.5515293332477
 31
0.0
  0
ARC
  5
3B2
330
1A
100
AcDbEntity
  8
SEIHIN
  6
CONTINUOUS
 62
     3
 48
16.0
100
AcDbCircle
 10
420.2839785182032
 20
170.3516280441982
 30
0.0
 40
16.00001763154318
100
AcDbArc
 50
179.9999953839362
 51
351.637037340751
  0
ARC
  5
3B3
330
1A
100
AcDbEntity
  8
SEIHIN
  6
CONTINUOUS
 62
     3
 48
16.0
100
AcDbCircle
 10
420.2839891621476
 20
170.3516270319779
 30
0.0
 40
24.00002827548771
100
AcDbArc
 50
179.9999945061294
 51
350.6941906243787
  0
LINE
  5
3B6
330
1A
100
AcDbEntity
  8
CENTER_L
  6
CENTER
 62
     1
 48
5.0
100
AcDbLine
 10
211.2840609326334
 20
276.437829333248
 30
0.0
 11
211.2840609326334
 21
268.7514496553114
 31
0.0
  0
LINE
  5
3B7
330
1A
100
AcDbEntity
  8
CENTER_L
  6
CENTER
 62
     1
 48
5.0
100
AcDbLine
 10
261.2840609326334
 20
276.437829333248
 30
0.0
 11
261.2840609326334
 21
268.3842163111394
 31
0.0
  0
ARC
  5
3BB
330
1A
100
AcDbEntity
  8
SEIHIN
  6
CONTINUOUS
 62
     3
 48
16.0
100
AcDbCircle
 10
243.78406088666
 20
275.3277293332478
 30
0.0
 40
0.5000000000000853
100
AcDbArc
 50
270.0000000000032
 51
0.0000000000032569
  0
LINE
  5
3BC
330
1A
100
AcDbEntity
  8
SEIHIN
  6
CONTINUOUS
 62
     3
 48
16.0
100
AcDbLine
 10
242.7840608866601
 20
276.7988293332476
 30
0.0
 11
242.7840608866601
 21
274.8277293332477
 31
0.0
  0
ARC
  5
3BD
330
1A
100
AcDbEntity
  8
SEIHIN
  6
CONTINUOUS
 62
     3
 48
16.0
100
AcDbCircle
 10
228.7840608866601
 20
275.3277293332478
 30
0.0
 40
0.5000000000000569
100
AcDbArc
 50
179.9999999999934
 51
269.9999999999934
  0
LINE
  5
3BE
330
1A
100
AcDbEntity
  8
SEIHIN
  6
CONTINUOUS
 62
     3
 48
16.0
100
AcDbLine
 10
229.7840608866601
 20
276.7988293332476
 30
0.0
 11
229.7840608866601
 21
274.8277293332477
 31
0.0
  0
LINE
  5
3C1
330
1A
100
AcDbEntity
  8
CENTER_L
  6
CENTER
 62
     1
 48
5.0
100
AcDbLine
 10
236.2839608866601
 20
139.2371293332478
 30
0.0
 11
236.2840608866601
 21
285.6256293332478
 31
0.0
  0
LINE
  5
3C2
330
1A
100
AcDbEntity
  8
SEIHIN
  6
CONTINUOUS
 62
     3
 48
16.0
100
AcDbLine
 10
266.2840608866602
 20
276.8559293332478
 30
0.0
 11
266.2840608866602
 21
250.4445293332478
 31
0.0
  0
LINE
  5
3C3
330
1A
100
AcDbEntity
  8
SEIHIN
  6
CONTINUOUS
 62
     3
 48
16.0
100
AcDbLine
 10
245.7840608866601
 20
276.8559293332478
 30
0.0
 11
245.7840608866601
 21
261.7517293332476
 31
0.0
  0
LINE
  5
3C4
330
1A
100
AcDbEntity
  8
SEIHIN
  6
CONTINUOUS
 62
     3
 48
16.0
100
AcDbLine
 10
226.7840608866601
 20
276.8560293332477
 30
0.0
 11
226.7840608866601
 21
261.7517293332476
 31
0.0
  0
LINE
  5
3C5
330
1A
100
AcDbEntity
  8
SEIHIN
  6
CONTINUOUS
 62
     3
 48
16.0
100
AcDbLine
 10
206.2840573672982
 20
276.8559328529742
 30
0.0
 11
206.283964406419
 21
250.4445385667249
 31
0.0
  0
LINE
  5
3C6
330
1A
100
AcDbEntity
  8
SEIHIN
  6
CONTINUOUS
 62
     3
 48
16.0
100
AcDbLine
 10
240.42216088666
 20
183.5753293332477
 30
0.0
 11
241.6457608866601
 21
181.1280293332478
 31
0.0
  0
LINE
  5
3C7
330
1A
100
AcDbEntity
  8
SEIHIN
  6
CONTINUOUS
 62
     3
 48
16.0
100
AcDbLine
 10
239.2839608866601
 20
180.8517293332478
 30
0.0
 11
239.2839608866601
 21
183.8517293332477
 31
0.0
  0
ARC
  5
3C8
330
1A
100
AcDbEntity
  8
SEIHIN
  6
CONTINUOUS
 62
     3
 48
16.0
100
AcDbCircle
 10
243.0929731839054
 20
182.8517217331322
 30
0.0
 40
0.4999924000357043
100
AcDbArc
 50
206.5636419951434
 51
269.998590818078
  0
ARC
  5
3C9
330
1A
100
AcDbEntity
  8
SEIHIN
  6
CONTINUOUS
 62
     3
 48
16.0
100
AcDbCircle
 10
243.78566088666
 20
182.8516293332478
 30
0.0
 40
2.0
100
AcDbArc
 50
270.0
 51
0.0
  0
ARC
  5
3CA
330
1A
100
AcDbEntity
  8
SEIHIN
  6
CONTINUOUS
 62
     3
 48
16.0
100
AcDbCircle
 10
243.28566088666
 20
183.3517293332477
 30
0.0
 40
1.000000000000071
100
AcDbArc
 50
270.0000000000008
 51
0.0000000000008142
  0
LINE
  5
3CB
330
1A
100
AcDbEntity
  8
SEIHIN
  6
CONTINUOUS
 62
     3
 48
16.0
100
AcDbLine
 10
232.1457608866601
 20
183.5753293332477
 30
0.0
 11
230.9221608866601
 21
181.1280293332478
 31
0.0
  0
LINE
  5
3CC
330
1A
100
AcDbEntity
  8
SEIHIN
  6
CONTINUOUS
 62
     3
 48
16.0
100
AcDbLine
 10
233.2839608866601
 20
180.8517293332478
 30
0.0
 11
233.2839608866601
 21
183.8517293332477
 31
0.0
  0
ARC
  5
3CD
330
1A
100
AcDbEntity
  8
SEIHIN
  6
CONTINUOUS
 62
     3
 48
16.0
100
AcDbCircle
 10
229.4749485894149
 20
182.8517217331321
 30
0.0
 40
0.499992400035637
100
AcDbArc
 50
270.0014091819268
 51
333.4363580048608
  0
ARC
  5
3CE
330
1A
100
AcDbEntity
  8
SEIHIN
  6
CONTINUOUS
 62
     3
 48
16.0
100
AcDbCircle
 10
228.7822608866601
 20
182.8516293332478
 30
0.0
 40
2.0
100
AcDbArc
 50
180.0
 51
270.0
  0
ARC
  5
3CF
330
1A
100
AcDbEntity
  8
SEIHIN
  6
CONTINUOUS
 62
     3
 48
16.0
100
AcDbCircle
 10
229.2822608866602
 20
183.3518293332477
 30
0.0
 40
1.000000000000014
100
AcDbArc
 50
179.9999999999959
 51
269.9999999999959
  0
LINE
  5
3D0
330
1A
100
AcDbEntity
  8
SEIHIN
  6
CONTINUOUS
 62
     3
 48
16.0
100
AcDbLine
 10
245.7855608866602
 20
148.3518293332478
 30
0.0
 11
245.78566088666
 21
188.1109293332477
 31
0.0
  0
LINE
  5
3D1
330
1A
100
AcDbEntity
  8
SEIHIN
  6
CONTINUOUS
 62
     3
 48
16.0
100
AcDbLine
 10
226.7820608866601
 20
148.3518293332478
 30
0.0
 11
226.7822608866601
 21
188.1109293332477
 31
0.0
  0
LINE
  5
3DA
330
1A
100
AcDbEntity
  8
SEIHIN
  6
CONTINUOUS
 62
     3
 48
16.0
100
AcDbLine
 10
236.2839608866601
 20
180.8517293332478
 30
0.0
 11
233.2839608866601
 21
180.8517293332478
 31
0.0
  0
LINE
  5
3DB
330
1A
100
AcDbEntity
  8
SEIHIN
  6
CONTINUOUS
 62
     3
 48
16.0
100
AcDbLine
 10
243.7855608866602
 20
146.3518293332478
 30
0.0
 11
228.7820608866601
 21
146.3518293332478
 31
0.0
  0
ARC
  5
3DC
330
1A
100
AcDbEntity
  8
SEIHIN
  6
CONTINUOUS
 62
     3
 48
16.0
100
AcDbCircle
 10
228.7820608866601
 20
148.3518293332478
 30
0.0
 40
2.0
100
AcDbArc
 50
180.0
 51
270.0
  0
LINE
  5
3DD
330
1A
100
AcDbEntity
  8
SEIHIN
  6
CONTINUOUS
 62
     3
 48
16.0
100
AcDbLine
 10
229.4749608866601
 20
182.3517293332477
 30
0.0
 11
229.2822608866601
 21
182.3518293332477
 31
0.0
  0
ARC
  5
3DE
330
1A
100
AcDbEntity
  8
SEIHIN
  6
CONTINUOUS
 62
     3
 48
16.0
100
AcDbCircle
 10
230.4749485894149
 20
181.3516217331323
 30
0.0
 40
0.4999924000357507
100
AcDbArc
 50
270.0014091819187
 51
333.4363580048528
  0
LINE
  5
3DF
330
1A
100
AcDbEntity
  8
SEIHIN
  6
CONTINUOUS
 62
     3
 48
16.0
100
AcDbLine
 10
228.7822608866601
 20
180.8516293332478
 30
0.0
 11
230.4749608866601
 21
180.8516293332478
 31
0.0
  0
ARC
  5
3E0
330
1A
100
AcDbEntity
  8
SEIHIN
  6
CONTINUOUS
 62
     3
 48
16.0
100
AcDbCircle
 10
243.7855608866602
 20
148.3518293332478
 30
0.0
 40
2.0
100
AcDbArc
 50
270.0
 51
0.0
  0
LINE
  5
3E1
330
1A
100
AcDbEntity
  8
SEIHIN
  6
CONTINUOUS
 62
     3
 48
16.0
100
AcDbLine
 10
243.78566088666
 20
180.8516293332478
 30
0.0
 11
242.0929608866602
 21
180.8516293332478
 31
0.0
  0
ARC
  5
3E2
330
1A
100
AcDbEntity
  8
SEIHIN
  6
CONTINUOUS
 62
     3
 48
16.0
100
AcDbCircle
 10
242.0929731839054
 20
181.3516217331322
 30
0.0
 40
0.4999924000357043
100
AcDbArc
 50
206.5636419951434
 51
269.998590818078
  0
LINE
  5
3E3
330
1A
100
AcDbEntity
  8
SEIHIN
  6
CONTINUOUS
 62
     3
 48
16.0
100
AcDbLine
 10
236.2839608866601
 20
180.8517293332478
 30
0.0
 11
239.2839608866601
 21
180.8517293332478
 31
0.0
  0
LINE
  5
3E4
330
1A
100
AcDbEntity
  8
SEIHIN
  6
CONTINUOUS
 62
     3
 48
16.0
100
AcDbLine
 10
243.0929608866601
 20
182.3517293332477
 30
0.0
 11
243.28566088666
 21
182.3517293332477
 31
0.0
  0
ARC
  5
3E5
330
1A
100
AcDbEntity
  8
SEIHIN
  6
CONTINUOUS
 62
     3
 48
16.0
100
AcDbCircle
 10
244.0782518989897
 20
228.5017594955569
 30
0.0
 40
1.000000864972104
100
AcDbArc
 50
329.9980330729409
 51
63.18516731487335
  0
LINE
  5
3E6
330
1A
100
AcDbEntity
  8
SEIHIN
  6
CONTINUOUS
 62
     3
 48
16.0
100
AcDbLine
 10
243.5308608866601
 20
227.6648293332478
 30
0.0
 11
239.4715608866601
 21
230.5852293332477
 31
0.0
  0
LINE
  5
3E7
330
1A
100
AcDbEntity
  8
SEIHIN
  6
CONTINUOUS
 62
     3
 48
16.0
100
AcDbLine
 10
229.0371608866601
 20
227.6648293332478
 30
0.0
 11
233.0964608866601
 21
230.5852293332477
 31
0.0
  0
ARC
  5
3E8
330
1A
100
AcDbEntity
  8
SEIHIN
  6
CONTINUOUS
 62
     3
 48
16.0
100
AcDbCircle
 10
228.4897698743306
 20
228.5017594955569
 30
0.0
 40
1.000000864972108
100
AcDbArc
 50
116.8148326851255
 51
210.0019669270579
  0
LINE
  5
3E9
330
1A
100
AcDbEntity
  8
SEIHIN
  6
CONTINUOUS
 62
     3
 48
16.0
100
AcDbLine
 10
223.7840608866601
 20
227.2517293332477
 30
0.0
 11
223.7840608866601
 21
261.7517293332476
 31
0.0
  0
LINE
  5
3EA
330
1A
100
AcDbEntity
  8
SEIHIN
  6
CONTINUOUS
 62
     3
 48
16.0
100
AcDbLine
 10
248.7839608866601
 20
227.2517293332477
 30
0.0
 11
248.7839608866601
 21
261.7517293332476
 31
0.0
  0
LINE
  5
3EB
330
1A
100
AcDbEntity
  8
SEIHIN
  6
CONTINUOUS
 62
     3
 48
16.0
100
AcDbLine
 10
224.7840608866601
 20
226.2517293332477
 30
0.0
 11
236.2840608866601
 21
226.2517293332477
 31
0.0
  0
LINE
  5
3EC
330
1A
100
AcDbEntity
  8
SEIHIN
  6
CONTINUOUS
 62
     3
 48
16.0
100
AcDbLine
 10
236.2839608866601
 20
200.0117293332477
 30
0.0
 11
234.2839916518316
 21
200.0117293332477
 31
0.0
  0
LINE
  5
3ED
330
1A
100
AcDbEntity
  8
SEIHIN
  6
CONTINUOUS
 62
     3
 48
16.0
100
AcDbLine
 10
236.2839608866601
 20
185.3517293332478
 30
0.0
 11
231.2839608866601
 21
185.3517293332478
 31
0.0
  0
LINE
  5
3EE
330
1A
100
AcDbEntity
  8
SEIHIN
  6
CONTINUOUS
 62
     3
 48
16.0
100
AcDbLine
 10
236.2839608866601
 20
185.3517293332478
 30
0.0
 11
231.2839608866601
 21
185.3517293332478
 31
0.0
  0
LINE
  5
3EF
330
1A
100
AcDbEntity
  8
SEIHIN
  6
CONTINUOUS
 62
     3
 48
16.0
100
AcDbLine
 10
236.2839608866601
 20
183.8517293332477
 30
0.0
 11
232.5929608866601
 21
183.8517293332477
 31
0.0
  0
ARC
  5
3F0
330
1A
100
AcDbEntity
  8
SEIHIN
  6
CONTINUOUS
 62
     3
 48
16.0
100
AcDbCircle
 10
231.2839608866601
 20
188.3517293332477
 30
0.0
 40
3.0
100
AcDbArc
 50
180.0
 51
0.0
  0
LINE
  5
3F2
330
1A
100
AcDbEntity
  8
SEIHIN
  6
CONTINUOUS
 62
     3
 48
16.0
100
AcDbLine
 10
228.2839608866601
 20
188.3517293332477
 30
0.0
 11
228.2840608866601
 21
226.2517293332477
 31
0.0
  0
LINE
  5
3F3
330
1A
100
AcDbEntity
  8
SEIHIN
  6
CONTINUOUS
 62
     3
 48
16.0
100
AcDbLine
 10
225.2839608866601
 20
200.0117293332477
 30
0.0
 11
225.2840608866601
 21
226.2517293332477
 31
0.0
  0
ARC
  5
3F4
330
1A
100
AcDbEntity
  8
SEIHIN
  6
CONTINUOUS
 62
     3
 48
16.0
100
AcDbCircle
 10
207.0536608861587
 20
194.4317293332477
 30
0.0
 40
19.06515769953874
100
AcDbArc
 50
342.9814976594929
 51
17.01850234050712
  0
LINE
  5
3F5
330
1A
100
AcDbEntity
  8
SEIHIN
  6
CONTINUOUS
 62
     3
 48
16.0
100
AcDbLine
 10
225.2839608866601
 20
188.8517293332478
 30
0.0
 11
228.2839608866601
 21
188.8517293332478
 31
0.0
  0
LINE
  5
3F6
330
1A
100
AcDbEntity
  8
SEIHIN
  6
CONTINUOUS
 62
     3
 48
16.0
100
AcDbLine
 10
228.2822608866601
 20
188.8517293332478
 30
0.0
 11
227.7822608866601
 21
188.8517293332478
 31
0.0
  0
ARC
  5
3F7
330
1A
100
AcDbEntity
  8
SEIHIN
  6
CONTINUOUS
 62
     3
 48
16.0
100
AcDbCircle
 10
227.78226088666
 20
187.8518293332478
 30
0.0
 40
0.9999999999999289
100
AcDbArc
 50
89.9999999999992
 51
179.9999999999991
  0
LINE
  5
3F8
330
1A
100
AcDbEntity
  8
SEIHIN
  6
CONTINUOUS
 62
     3
 48
16.0
100
AcDbLine
 10
231.1457608866601
 20
185.0753293332478
 30
0.0
 11
229.92216088666
 21
182.6281293332477
 31
0.0
  0
ARC
  5
3F9
330
1A
100
AcDbEntity
  8
SEIHIN
  6
CONTINUOUS
 62
     3
 48
16.0
100
AcDbCircle
 10
232.5929731839053
 20
183.3517369333631
 30
0.0
 40
0.499992400035772
100
AcDbArc
 50
90.00140918191705
 51
153.4363580048513
  0
ARC
  5
3FA
330
1A
100
AcDbEntity
  8
SEIHIN
  6
CONTINUOUS
 62
     3
 48
16.0
100
AcDbCircle
 10
231.5929731839054
 20
184.8517369333633
 30
0.0
 40
0.499992400035701
100
AcDbArc
 50
90.00140918192196
 51
153.4363580048564
  0
LINE
  5
3FB
330
1A
100
AcDbEntity
  8
SEIHIN
  6
CONTINUOUS
 62
     3
 48
16.0
100
AcDbLine
 10
228.2822608866601
 20
183.3518293332478
 30
0.0
 11
228.2822608866601
 21
188.8517293332478
 31
0.0
  0
ARC
  5
3FC
330
1A
100
AcDbEntity
  8
SEIHIN
  6
CONTINUOUS
 62
     3
 48
16.0
100
AcDbCircle
 10
224.7840608866601
 20
227.2517293332476
 30
0.0
 40
0.9999999999999715
100
AcDbArc
 50
179.9999999999983
 51
269.9999999999983
  0
ARC
  5
3FD
330
1A
100
AcDbEntity
  8
SEIHIN
  6
CONTINUOUS
 62
     3
 48
16.0
100
AcDbCircle
 10
228.4897918066026
 20
228.5017219638408
 30
0.0
 40
1.000001092471308
100
AcDbArc
 50
209.9994763072543
 51
303.1866664820268
  0
LINE
  5
3FE
330
1A
100
AcDbEntity
  8
SEIHIN
  6
CONTINUOUS
 62
     3
 48
16.0
100
AcDbLine
 10
238.2839608866601
 20
188.3517293332477
 30
0.0
 11
238.2839608866601
 21
226.2517293332477
 31
0.0
  0
LINE
  5
3FF
330
1A
100
AcDbEntity
  8
SEIHIN
  6
CONTINUOUS
 62
     3
 48
16.0
100
AcDbLine
 10
244.2839608866601
 20
188.3517293332477
 30
0.0
 11
244.2839608866601
 21
226.2517293332477
 31
0.0
  0
LINE
  5
400
330
1A
100
AcDbEntity
  8
SEIHIN
  6
CONTINUOUS
 62
     3
 48
16.0
100
AcDbLine
 10
247.2839608866601
 20
200.0117293332477
 30
0.0
 11
247.2839608866601
 21
226.2517293332477
 31
0.0
  0
LINE
  5
402
330
1A
100
AcDbEntity
  8
SEIHIN
  6
CONTINUOUS
 62
     3
 48
16.0
100
AcDbLine
 10
234.2839608866601
 20
188.3517293332477
 30
0.0
 11
234.2840608866601
 21
226.2517293332477
 31
0.0
  0
ARC
  5
403
330
1A
100
AcDbEntity
  8
SEIHIN
  6
CONTINUOUS
 62
     3
 48
16.0
100
AcDbCircle
 10
265.5143608867855
 20
194.4317793332478
 30
0.0
 40
19.06526795424268
100
AcDbArc
 50
162.9814419345359
 51
197.018558065464
  0
LINE
  5
404
330
1A
100
AcDbEntity
  8
SEIHIN
  6
CONTINUOUS
 62
     3
 48
16.0
100
AcDbLine
 10
241.4221608866601
 20
185.0753293332478
 30
0.0
 11
242.6457608866602
 21
182.6281293332477
 31
0.0
  0
ARC
  5
405
330
1A
100
AcDbEntity
  8
SEIHIN
  6
CONTINUOUS
 62
     3
 48
16.0
100
AcDbCircle
 10
241.2839608866601
 20
188.3517293332477
 30
0.0
 40
3.0
100
AcDbArc
 50
180.0
 51
0.0
  0
ARC
  5
406
330
1A
100
AcDbEntity
  8
SEIHIN
  6
CONTINUOUS
 62
     3
 48
16.0
100
AcDbCircle
 10
239.9749485894149
 20
183.3517369333633
 30
0.0
 40
0.4999924000356376
100
AcDbArc
 50
26.56364199513915
 51
89.99859081807317
  0
ARC
  5
407
330
1A
100
AcDbEntity
  8
SEIHIN
  6
CONTINUOUS
 62
     3
 48
16.0
100
AcDbCircle
 10
240.9749485894149
 20
184.8517369333633
 30
0.0
 40
0.499992400035752
100
AcDbArc
 50
26.56364199514717
 51
89.9985908180813
  0
LINE
  5
408
330
1A
100
AcDbEntity
  8
SEIHIN
  6
CONTINUOUS
 62
     3
 48
16.0
100
AcDbLine
 10
234.2839608866601
 20
188.8517293332478
 30
0.0
 11
236.2839608866601
 21
188.8517293332478
 31
0.0
  0
LINE
  5
409
330
1A
100
AcDbEntity
  8
SEIHIN
  6
CONTINUOUS
 62
     3
 48
16.0
100
AcDbLine
 10
236.2839608866601
 20
185.3517293332478
 30
0.0
 11
241.2839608866601
 21
185.3517293332478
 31
0.0
  0
LINE
  5
40A
330
1A
100
AcDbEntity
  8
SEIHIN
  6
CONTINUOUS
 62
     3
 48
16.0
100
AcDbLine
 10
238.2839608866601
 20
188.8517293332478
 30
0.0
 11
236.2839608866601
 21
188.8517293332478
 31
0.0
  0
LINE
  5
40B
330
1A
100
AcDbEntity
  8
SEIHIN
  6
CONTINUOUS
 62
     3
 48
16.0
100
AcDbLine
 10
236.2839608866601
 20
185.3517293332478
 30
0.0
 11
240.97496088666
 21
185.3517293332478
 31
0.0
  0
LINE
  5
40C
330
1A
100
AcDbEntity
  8
SEIHIN
  6
CONTINUOUS
 62
     3
 48
16.0
100
AcDbLine
 10
236.2839608866601
 20
183.8517293332477
 30
0.0
 11
239.9749608866601
 21
183.8517293332477
 31
0.0
  0
ARC
  5
40D
330
1A
100
AcDbEntity
  8
SEIHIN
  6
CONTINUOUS
 62
     3
 48
16.0
100
AcDbCircle
 10
244.7856608866601
 20
187.8517293332478
 30
0.0
 40
0.9999999999999715
100
AcDbArc
 50
359.9999999999983
 51
89.99999999999836
  0
LINE
  5
40E
330
1A
100
AcDbEntity
  8
SEIHIN
  6
CONTINUOUS
 62
     3
 48
16.0
100
AcDbLine
 10
247.2839608866601
 20
188.8517293332478
 30
0.0
 11
244.2839608866601
 21
188.8517293332478
 31
0.0
  0
LINE
  5
40F
330
1A
100
AcDbEntity
  8
SEIHIN
  6
CONTINUOUS
 62
     3
 48
16.0
100
AcDbLine
 10
244.2856608866601
 20
188.8517293332478
 30
0.0
 11
244.7856608866601
 21
188.8517293332478
 31
0.0
  0
LINE
  5
410
330
1A
100
AcDbEntity
  8
SEIHIN
  6
CONTINUOUS
 62
     3
 48
16.0
100
AcDbLine
 10
244.2856608866601
 20
183.3517293332478
 30
0.0
 11
244.2856608866601
 21
188.8517293332478
 31
0.0
  0
LINE
  5
411
330
1A
100
AcDbEntity
  8
SEIHIN
  6
CONTINUOUS
 62
     3
 48
16.0
100
AcDbLine
 10
236.2839608866601
 20
200.0117293332477
 30
0.0
 11
238.2839608866601
 21
200.0117293332477
 31
0.0
  0
LINE
  5
412
330
1A
100
AcDbEntity
  8
SEIHIN
  6
CONTINUOUS
 62
     3
 48
16.0
100
AcDbLine
 10
247.7839608866601
 20
226.2517293332477
 30
0.0
 11
236.2839608866601
 21
226.2517293332477
 31
0.0
  0
ARC
  5
413
330
1A
100
AcDbEntity
  8
SEIHIN
  6
CONTINUOUS
 62
     3
 48
16.0
100
AcDbCircle
 10
247.7839608866601
 20
227.2517293332476
 30
0.0
 40
0.9999999999999715
100
AcDbArc
 50
270.0000000000016
 51
0.0000000000016284
  0
ARC
  5
414
330
1A
100
AcDbEntity
  8
SEIHIN
  6
CONTINUOUS
 62
     3
 48
16.0
100
AcDbCircle
 10
244.0782299667176
 20
228.5017219638407
 30
0.0
 40
1.000001092471282
100
AcDbArc
 50
236.8133335179734
 51
330.0005236927459
  0
ELLIPSE
  5
415
330
1A
100
AcDbEntity
  8
SEIHIN
  6
CONTINUOUS
 62
     3
100
AcDbEllipse
 10
236.2840435517755
 20
260.4005468224293
 30
0.0
 11
-4.000000000088391
 21
-0.0001269148978622
 31
0.0
210
0.0
220
0.0
230
0.9999999999999998
 40
0.9284432707879066
 41
3.041390268930292
 42
6.383327495745911
  0
ELLIPSE
  5
416
330
1A
100
AcDbEntity
  8
SEIHIN
  6
CONTINUOUS
100
AcDbEllipse
 10
236.2840430399699
 20
259.6577562481458
 30
0.0
 11
-4.000000000088391
 21
-0.0001269148978622
 31
0.0
210
0.0
220
0.0
230
0.9999999999999998
 40
0.9284432707879066
 41
0.0000000000000153
 42
6.283185307179601
  0
LINE
  5
417
330
1A
100
AcDbEntity
  8
SEIHIN
  6
CONTINUOUS
 62
     3
 48
16.0
100
AcDbLine
 10
236.2839608866601
 20
274.8277293332477
 30
0.0
 11
228.7840608866601
 21
274.8277293332477
 31
0.0
  0
LINE
  5
418
330
1A
100
AcDbEntity
  8
SEIHIN
  6
CONTINUOUS
 62
     3
 48
16.0
100
AcDbLine
 10
227.2840608866601
 20
274.3277293332476
 30
0.0
 11
236.2839608866601
 21
274.3277293332476
 31
0.0
  0
LINE
  5
419
330
1A
100
AcDbEntity
  8
SEIHIN
  6
CONTINUOUS
 62
     3
 48
16.0
100
AcDbLine
 10
227.2840608866601
 20
246.4734293332477
 30
0.0
 11
236.2839608866601
 21
246.4734293332477
 31
0.0
  0
LINE
  5
41A
330
1A
100
AcDbEntity
  8
SEIHIN
  6
CONTINUOUS
 62
     3
 48
16.0
100
AcDbLine
 10
245.2838608866601
 20
244.1482293332477
 30
0.0
 11
227.2840608866601
 21
244.1483293332478
 31
0.0
  0
LINE
  5
41B
330
1A
100
AcDbEntity
  8
SEIHIN
  6
CONTINUOUS
 62
     3
 48
16.0
100
AcDbLine
 10
236.2840608866601
 20
239.7517293332477
 30
0.0
 11
229.7840608866601
 21
239.7517293332477
 31
0.0
  0
LINE
  5
41C
330
1A
100
AcDbEntity
  8
CENTER_L
  6
CENTER
 62
     1
 48
5.0
100
AcDbLine
 10
211.2840609326334
 20
257.9351507981027
 30
0.0
 11
211.2840609326334
 21
250.518329333248
 31
0.0
  0
LINE
  5
41D
330
1A
100
AcDbEntity
  8
SEIHIN
  6
CONTINUOUS
 62
     3
 48
16.0
100
AcDbLine
 10
227.2840608866601
 20
261.7517293332476
 30
0.0
 11
227.2840608866601
 21
242.2517293332477
 31
0.0
  0
LINE
  5
41E
330
1A
100
AcDbEntity
  8
SEIHIN
  6
CONTINUOUS
 62
     3
 48
16.0
100
AcDbLine
 10
207.2839701206985
 20
249.4445350470149
 30
0.0
 11
223.7840608866601
 21
249.4446293332476
 31
0.0
  0
ARC
  5
41F
330
1A
100
AcDbEntity
  8
SEIHIN
  6
CONTINUOUS
 62
     3
 48
16.0
100
AcDbCircle
 10
229.7840608866601
 20
242.2517293332477
 30
0.0
 40
2.500000000000056
100
AcDbArc
 50
180.0
 51
270.0
  0
LINE
  5
420
330
1A
100
AcDbEntity
  8
SEIHIN
  6
CONTINUOUS
 62
     3
 48
16.0
100
AcDbLine
 10
229.0371608866601
 20
238.3386293332478
 30
0.0
 11
233.0964608866601
 21
235.4183293332478
 31
0.0
  0
ARC
  5
421
330
1A
100
AcDbEntity
  8
SEIHIN
  6
CONTINUOUS
 62
     3
 48
16.0
100
AcDbCircle
 10
232.8199577470315
 20
235.0017427050571
 30
0.0
 40
0.4999984050092257
100
AcDbArc
 50
329.9981251089968
 51
56.42637693614587
  0
ARC
  5
422
330
1A
100
AcDbEntity
  8
SEIHIN
  6
CONTINUOUS
 62
     3
 48
16.0
100
AcDbCircle
 10
232.8199940690864
 20
235.0017393429573
 30
0.0
 40
0.4999652688686822
100
AcDbArc
 50
243.5704369723819
 51
329.9963774149883
  0
ARC
  5
423
330
1A
100
AcDbEntity
  8
SEIHIN
  6
CONTINUOUS
 62
     3
 48
16.0
100
AcDbCircle
 10
228.489752334404
 20
237.5017580366872
 30
0.0
 40
0.9999562415176216
100
AcDbArc
 50
150.0004515040507
 51
243.1850010253535
  0
LINE
  5
424
330
1A
100
AcDbEntity
  8
SEIHIN
  6
CONTINUOUS
 62
     3
 48
16.0
100
AcDbLine
 10
228.0386608866602
 20
236.6093293332478
 30
0.0
 11
232.5974608866601
 21
234.5540293332477
 31
0.0
  0
ARC
  5
425
330
1A
100
AcDbEntity
  8
SEIHIN
  6
CONTINUOUS
 62
     3
 48
16.0
100
AcDbCircle
 10
228.4897918066027
 20
237.5017367026547
 30
0.0
 40
1.000001092471336
100
AcDbArc
 50
56.81333351797833
 51
150.000523692749
  0
ARC
  5
426
330
1A
100
AcDbEntity
  8
SEIHIN
  6
CONTINUOUS
 62
     3
 48
16.0
100
AcDbCircle
 10
232.8198624199517
 20
231.0017358676712
 30
0.0
 40
0.4999844047596137
100
AcDbArc
 50
303.5878003985152
 51
30.00016715020636
  0
ARC
  5
427
330
1A
100
AcDbEntity
  8
SEIHIN
  6
CONTINUOUS
 62
     3
 48
16.0
100
AcDbCircle
 10
232.8199314603925
 20
231.0017382113145
 30
0.0
 40
0.5000100449581382
100
AcDbArc
 50
29.99816074856426
 51
116.4190015875513
  0
LINE
  5
428
330
1A
100
AcDbEntity
  8
SEIHIN
  6
CONTINUOUS
 62
     3
 48
16.0
100
AcDbLine
 10
228.0386608866602
 20
229.3942293332477
 30
0.0
 11
232.5974608866601
 21
231.4495293332477
 31
0.0
  0
LINE
  5
429
330
1A
100
AcDbEntity
  8
CENTER_L
  6
CENTER
 62
     1
 48
5.0
100
AcDbLine
 10
215.9110952869159
 20
254.0867083242829
 30
0.0
 11
206.9712224268207
 21
254.0867083242829
 31
0.0
  0
ELLIPSE
  5
42A
330
1A
100
AcDbEntity
  8
SEIHIN
  6
CONTINUOUS
100
AcDbEllipse
 10
211.2840174700831
 20
254.0867427758513
 30
0.0
 11
1.999999999998101
 21
-0.0000027561230744
 31
0.0
210
0.0
220
0.0
230
-1.0
 40
0.9284769207922352
 41
0.0000000000000035
 42
6.283185307179589
  0
ELLIPSE
  5
42B
330
1A
100
AcDbEntity
  8
SEIHIN
  6
CONTINUOUS
100
AcDbEllipse
 10
211.2840609326334
 20
254.6438029227369
 30
0.0
 11
-2.0
 21
0.0
 31
0.0
210
0.0
220
0.0
230
1.0
 40
0.9284769207922352
 41
0.1505705729499162
 42
2.991022080639751
  0
LINE
  5
42C
330
1A
100
AcDbEntity
  8
CENTER_L
  6
CENTER
 62
     1
 48
5.0
100
AcDbLine
 10
216.1623852659853
 20
272.6562313822902
 30
0.0
 11
207.113438119812
 21
272.6562313822903
 31
0.0
  0
ELLIPSE
  5
42D
330
1A
100
AcDbEntity
  8
SEIHIN
  6
CONTINUOUS
100
AcDbEllipse
 10
211.2840430600286
 20
272.656265833841
 30
0.0
 11
1.999999999998101
 21
-0.0000027561230744
 31
0.0
210
0.0
220
0.0
230
-1.0
 40
0.9284769207922352
 41
0.0000000000000035
 42
6.283185307179589
  0
ELLIPSE
  5
42E
330
1A
100
AcDbEntity
  8
SEIHIN
  6
CONTINUOUS
100
AcDbEllipse
 10
211.2840609326334
 20
273.2133259807442
 30
0.0
 11
-2.0
 21
0.0
 31
0.0
210
0.0
220
0.0
230
1.0
 40
0.9284769207922352
 41
0.1505705729499162
 42
2.991022080639751
  0
LINE
  5
42F
330
1A
100
AcDbEntity
  8
SEIHIN
  6
CONTINUOUS
 62
     3
 48
16.0
100
AcDbLine
 10
223.7840608866601
 20
261.7517293332476
 30
0.0
 11
227.2840608866601
 21
261.7517293332476
 31
0.0
  0
LINE
  5
430
330
1A
100
AcDbEntity
  8
SEIHIN
  6
CONTINUOUS
 62
     3
 48
16.0
100
AcDbLine
 10
226.7840608866601
 20
274.4155293332478
 30
0.0
 11
225.0222608866601
 21
273.3559293332479
 31
0.0
  0
LINE
  5
431
330
1A
100
AcDbEntity
  8
SEIHIN
  6
CONTINUOUS
 62
     3
 48
16.0
100
AcDbLine
 10
225.0222608866601
 20
273.3559293332479
 30
0.0
 11
226.7840608866601
 21
272.2546293332477
 31
0.0
  0
ARC
  5
432
330
1A
100
AcDbEntity
  8
SEIHIN
  6
CONTINUOUS
 62
     3
 48
16.0
100
AcDbCircle
 10
227.2840608866601
 20
274.8277293332477
 30
0.0
 40
0.5
100
AcDbArc
 50
180.0
 51
270.0
  0
LINE
  5
433
330
1A
100
AcDbEntity
  8
CENTER_L
  6
CENTER
 62
     1
 48
5.0
100
AcDbLine
 10
261.2840609326334
 20
257.8915858022952
 30
0.0
 11
261.2840609326334
 21
250.518229333248
 31
0.0
  0
LINE
  5
434
330
1A
100
AcDbEntity
  8
SEIHIN
  6
CONTINUOUS
 62
     3
 48
16.0
100
AcDbLine
 10
245.2839608866601
 20
261.7517293332476
 30
0.0
 11
245.2838608866601
 21
242.2517293332477
 31
0.0
  0
LINE
  5
435
330
1A
100
AcDbEntity
  8
SEIHIN
  6
CONTINUOUS
 62
     3
 48
16.0
100
AcDbLine
 10
265.2840608866601
 20
249.4445293332478
 30
0.0
 11
248.7839608866601
 21
249.4445293332478
 31
0.0
  0
ARC
  5
436
330
1A
100
AcDbEntity
  8
SEIHIN
  6
CONTINUOUS
 62
     3
 48
16.0
100
AcDbCircle
 10
242.7838608866601
 20
242.2517293332477
 30
0.0
 40
2.500000000000028
100
AcDbArc
 50
270.0000000000006
 51
0.0000000000006514
  0
LINE
  5
437
330
1A
100
AcDbEntity
  8
SEIHIN
  6
CONTINUOUS
 62
     3
 48
16.0
100
AcDbLine
 10
243.5308608866601
 20
238.3386293332478
 30
0.0
 11
239.4715608866601
 21
235.4183293332478
 31
0.0
  0
LINE
  5
438
330
1A
100
AcDbEntity
  8
SEIHIN
  6
CONTINUOUS
 62
     3
 48
16.0
100
AcDbLine
 10
244.5293608866601
 20
236.6093293332478
 30
0.0
 11
239.9705608866601
 21
234.5540293332477
 31
0.0
  0
LINE
  5
439
330
1A
100
AcDbEntity
  8
SEIHIN
  6
CONTINUOUS
 62
     3
 48
16.0
100
AcDbLine
 10
244.5293608866601
 20
229.3942293332477
 30
0.0
 11
239.9705608866601
 21
231.4495293332477
 31
0.0
  0
LINE
  5
43A
330
1A
100
AcDbEntity
  8
SEIHIN
  6
CONTINUOUS
 62
     3
 48
16.0
100
AcDbLine
 10
236.2839608866601
 20
239.7517293332477
 30
0.0
 11
242.7838608866601
 21
239.7517293332477
 31
0.0
  0
ARC
  5
43B
330
1A
100
AcDbEntity
  8
SEIHIN
  6
CONTINUOUS
 62
     3
 48
16.0
100
AcDbCircle
 10
239.7481588022158
 20
235.0017204541832
 30
0.0
 40
0.5000693601943645
100
AcDbArc
 50
123.5812606900169
 51
209.9942372648543
  0
ARC
  5
43C
330
1A
100
AcDbEntity
  8
SEIHIN
  6
CONTINUOUS
 62
     3
 48
16.0
100
AcDbCircle
 10
239.7480360488044
 20
235.0017670104636
 30
0.0
 40
0.4999863308744689
100
AcDbArc
 50
210.0058900869576
 51
296.427295525664
  0
ARC
  5
43D
330
1A
100
AcDbEntity
  8
SEIHIN
  6
CONTINUOUS
 62
     3
 48
16.0
100
AcDbCircle
 10
239.7481449001825
 20
231.0017974474506
 30
0.0
 40
0.5000277095389612
100
AcDbArc
 50
150.0108448535814
 51
236.4174827675089
  0
ARC
  5
43E
330
1A
100
AcDbEntity
  8
SEIHIN
  6
CONTINUOUS
 62
     3
 48
16.0
100
AcDbCircle
 10
239.7480986599607
 20
231.0017105496354
 30
0.0
 40
0.5000311042965838
100
AcDbArc
 50
63.58326522208731
 51
149.999572441803
  0
ARC
  5
43F
330
1A
100
AcDbEntity
  8
SEIHIN
  6
CONTINUOUS
 62
     3
 48
16.0
100
AcDbCircle
 10
236.2839608866601
 20
233.0017293332477
 30
0.0
 40
1.0
100
AcDbArc
 50
0.0
 51
180.0
  0
ARC
  5
440
330
1A
100
AcDbEntity
  8
SEIHIN
  6
CONTINUOUS
 62
     3
 48
16.0
100
AcDbCircle
 10
236.2839608866601
 20
233.0017293332477
 30
0.0
 40
1.0
100
AcDbArc
 50
180.0
 51
0.0
  0
ARC
  5
441
330
1A
100
AcDbEntity
  8
SEIHIN
  6
CONTINUOUS
 62
     3
 48
16.0
100
AcDbCircle
 10
244.0782694389162
 20
237.5017580366872
 30
0.0
 40
0.9999562415176161
100
AcDbArc
 50
296.8149989746475
 51
29.99954849595037
  0
ARC
  5
442
330
1A
100
AcDbEntity
  8
SEIHIN
  6
CONTINUOUS
 62
     3
 48
16.0
100
AcDbCircle
 10
244.0782299667176
 20
237.5017367026547
 30
0.0
 40
1.000001092471321
100
AcDbArc
 50
29.99947630725069
 51
123.1866664820214
  0
LINE
  5
443
330
1A
100
AcDbEntity
  8
SEIHIN
  6
CONTINUOUS
 62
     3
 48
16.0
100
AcDbLine
 10
245.2838608866601
 20
246.4734293332477
 30
0.0
 11
236.2840608866601
 21
246.4734293332477
 31
0.0
  0
LINE
  5
444
330
1A
100
AcDbEntity
  8
SEIHIN
  6
CONTINUOUS
 62
     3
 48
16.0
100
AcDbLine
 10
248.7839608866601
 20
261.7517293332476
 30
0.0
 11
245.2839608866601
 21
261.7517293332476
 31
0.0
  0
LINE
  5
445
330
1A
100
AcDbEntity
  8
SEIHIN
  6
CONTINUOUS
 62
     3
 48
16.0
100
AcDbLine
 10
245.2840608866601
 20
274.3277293332476
 30
0.0
 11
236.2840608866601
 21
274.3277293332476
 31
0.0
  0
LINE
  5
446
330
1A
100
AcDbEntity
  8
SEIHIN
  6
CONTINUOUS
 62
     3
 48
16.0
100
AcDbLine
 10
236.2840608866601
 20
274.8277293332477
 30
0.0
 11
243.7840608866601
 21
274.8277293332477
 31
0.0
  0
LINE
  5
447
330
1A
100
AcDbEntity
  8
SEIHIN
  6
CONTINUOUS
 62
     3
 48
16.0
100
AcDbLine
 10
245.7840608866601
 20
274.4155293332478
 30
0.0
 11
247.5457608866601
 21
273.3559293332479
 31
0.0
  0
LINE
  5
448
330
1A
100
AcDbEntity
  8
SEIHIN
  6
CONTINUOUS
 62
     3
 48
16.0
100
AcDbLine
 10
247.5457608866601
 20
273.3559293332479
 30
0.0
 11
245.7840608866601
 21
272.2546293332477
 31
0.0
  0
ARC
  5
449
330
1A
100
AcDbEntity
  8
SEIHIN
  6
CONTINUOUS
 62
     3
 48
16.0
100
AcDbCircle
 10
245.2840608866601
 20
274.8277293332477
 30
0.0
 40
0.5
100
AcDbArc
 50
270.0
 51
0.0
  0
LINE
  5
44A
330
1A
100
AcDbEntity
  8
CENTER_L
  6
CENTER
 62
     1
 48
5.0
100
AcDbLine
 10
265.7856510456568
 20
254.0867083242829
 30
0.0
 11
256.7205310218767
 21
254.0867083242829
 31
0.0
  0
ELLIPSE
  5
44B
330
1A
100
AcDbEntity
  8
SEIHIN
  6
CONTINUOUS
100
AcDbEllipse
 10
261.2840609326334
 20
254.0867083242829
 30
0.0
 11
-2.0
 21
0.0
 31
0.0
210
0.0
220
0.0
230
1.0
 40
0.9284769207922352
 41
0.0
 42
6.283185307179586
  0
ELLIPSE
  5
44C
330
1A
100
AcDbEntity
  8
SEIHIN
  6
CONTINUOUS
100
AcDbEllipse
 10
261.2840609326334
 20
254.0867083242829
 30
0.0
 11
-2.0
 21
0.0
 31
0.0
210
0.0
220
0.0
230
1.0
 40
0.9284769207922352
 41
0.0
 42
6.283185307179586
  0
ELLIPSE
  5
44D
330
1A
100
AcDbEntity
  8
SEIHIN
  6
CONTINUOUS
100
AcDbEllipse
 10
261.2840609326334
 20
254.6438029227369
 30
0.0
 11
-2.0
 21
0.0
 31
0.0
210
0.0
220
0.0
230
1.0
 40
0.9284769207922352
 41
0.1505705729499183
 42
2.991022080639753
  0
LINE
  5
44E
330
1A
100
AcDbEntity
  8
CENTER_L
  6
CENTER
 62
     1
 48
5.0
100
AcDbLine
 10
265.5899942220087
 20
272.6562313822902
 30
0.0
 11
256.2520045759395
 21
272.6562313822903
 31
0.0
  0
ELLIPSE
  5
44F
330
1A
100
AcDbEntity
  8
SEIHIN
  6
CONTINUOUS
100
AcDbEllipse
 10
261.2840609326334
 20
272.6562313822902
 30
0.0
 11
-2.0
 21
0.0
 31
0.0
210
0.0
220
0.0
230
1.0
 40
0.9284769207922352
 41
0.0
 42
6.283185307179586
  0
ELLIPSE
  5
450
330
1A
100
AcDbEntity
  8
SEIHIN
  6
CONTINUOUS
100
AcDbEllipse
 10
261.2840609326334
 20
272.6562313822902
 30
0.0
 11
-2.0
 21
0.0
 31
0.0
210
0.0
220
0.0
230
1.0
 40
0.9284769207922352
 41
0.0
 42
6.283185307179586
  0
ELLIPSE
  5
451
330
1A
100
AcDbEntity
  8
SEIHIN
  6
CONTINUOUS
100
AcDbEllipse
 10
261.2840609326334
 20
273.2133259807442
 30
0.0
 11
-2.0
 21
0.0
 31
0.0
210
0.0
220
0.0
230
1.0
 40
0.9284769207922352
 41
0.1505705729499183
 42
2.991022080639753
  0
LINE
  5
452
330
1A
100
AcDbEntity
  8
SEIHIN
  6
CONTINUOUS
 62
     3
 48
16.0
100
AcDbLine
 10
380.2839608866601
 20
180.5516293332477
 30
0.0
 11
380.2839608866601
 21
188.5516293332477
 31
0.0
  0
LINE
  5
453
330
1A
100
AcDbEntity
  8
CENTER_L
  6
CENTER
 62
     1
 48
5.0
100
AcDbLine
 10
386.28396088666
 20
199.8724293332478
 30
0.0
 11
386.28396088666
 21
177.7671293332478
 31
0.0
  0
LINE
  5
454
330
1A
100
AcDbEntity
  8
SEIHIN
  6
CONTINUOUS
 62
     3
 48
16.0
100
AcDbLine
 10
404.28396088666
 20
170.3516293332478
 30
0.0
 11
404.28396088666
 21
183.5516293332477
 31
0.0
  0
LINE
  5
455
330
1A
100
AcDbEntity
  8
SEIHIN
  6
CONTINUOUS
 62
     3
 48
16.0
100
AcDbLine
 10
380.2839608866601
 20
180.5516293332477
 30
0.0
 11
394.28396088666
 21
180.5516293332477
 31
0.0
  0
LINE
  5
456
330
1A
100
AcDbEntity
  8
SEIHIN
  6
CONTINUOUS
 62
     3
 48
16.0
100
AcDbLine
 10
396.28396088666
 20
170.3516293332478
 30
0.0
 11
396.28396088666
 21
178.5516293332477
 31
0.0
  0
ARC
  5
457
330
1A
100
AcDbEntity
  8
SEIHIN
  6
CONTINUOUS
 62
     3
 48
16.0
100
AcDbCircle
 10
394.28396088666
 20
178.5516293332477
 30
0.0
 40
2.0
100
AcDbArc
 50
0.0
 51
90.0
  0
ARC
  5
458
330
1A
100
AcDbEntity
  8
SEIHIN
  6
CONTINUOUS
 62
     3
 48
16.0
100
AcDbCircle
 10
353.1634440658318
 20
191.0516437355402
 30
0.0
 40
1.000014402433965
100
AcDbArc
 50
188.8595106762568
 51
270.0009637485872
  0
ARC
  5
459
330
1A
100
AcDbEntity
  8
SEIHIN
  6
CONTINUOUS
 62
     3
 48
16.0
100
AcDbCircle
 10
339.3303562862373
 20
188.8963345245872
 30
0.0
 40
12.99998939865025
100
AcDbArc
 50
8.856111933885584
 51
74.2368037239385
  0
LINE
  5
45A
330
1A
100
AcDbEntity
  8
SEIHIN
  6
CONTINUOUS
 62
     3
 48
16.0
100
AcDbLine
 10
386.28396088666
 20
188.5516293332477
 30
0.0
 11
352.0284608866601
 21
188.5516293332477
 31
0.0
  0
LINE
  5
45B
330
1A
100
AcDbEntity
  8
SEIHIN
  6
CONTINUOUS
 62
     3
 48
16.0
100
AcDbLine
 10
352.4634608866601
 20
185.3516293332477
 30
0.0
 11
380.2839608866601
 21
185.3516293332477
 31
0.0
  0
ARC
  5
45C
330
1A
100
AcDbEntity
  8
SEIHIN
  6
CONTINUOUS
 62
     3
 48
16.0
100
AcDbCircle
 10
329.78396088666
 20
229.0516293332478
 30
0.0
 40
0.5
100
AcDbArc
 50
180.0
 51
270.0
  0
LINE
  5
45F
330
1A
100
AcDbEntity
  8
SEIHIN
  6
CONTINUOUS
 62
     3
 48
16.0
100
AcDbLine
 10
327.78396088666
 20
263.0516293332478
 30
0.0
 11
327.78396088666
 21
228.3516293332478
 31
0.0
  0
LINE
  5
462
330
1A
100
AcDbEntity
  8
SEIHIN
  6
CONTINUOUS
 62
     3
 48
16.0
100
AcDbLine
 10
337.4323608866601
 20
200.6699293332477
 30
0.0
 11
331.87836088666
 21
227.0516293332478
 31
0.0
  0
LINE
  5
463
330
1A
100
AcDbEntity
  8
SEIHIN
  6
CONTINUOUS
 62
     3
 48
16.0
100
AcDbLine
 10
340.7353608866602
 20
200.9993293332478
 30
0.0
 11
335.5013608866601
 21
225.8606293332477
 31
0.0
  0
LINE
  5
464
330
1A
100
AcDbEntity
  8
SEIHIN
  6
CONTINUOUS
 62
     3
 48
16.0
100
AcDbLine
 10
342.15506088666
 20
202.1638293332477
 30
0.0
 11
336.81706088666
 21
227.5194293332478
 31
0.0
  0
ARC
  5
465
330
1A
100
AcDbEntity
  8
SEIHIN
  6
CONTINUOUS
 62
     3
 48
16.0
100
AcDbCircle
 10
338.6303650984857
 20
188.1963246187117
 30
0.0
 40
8.999981205258977
100
AcDbArc
 50
8.855631650214274
 51
74.69773417452493
  0
ARC
  5
466
330
1A
100
AcDbEntity
  8
SEIHIN
  6
CONTINUOUS
 62
     3
 48
16.0
100
AcDbCircle
 10
338.6303406826161
 20
188.1963523487166
 30
0.0
 40
12.19997457457775
100
AcDbArc
 50
7.042937452311695
 51
75.51314301765848
  0
ARC
  5
467
330
1A
100
AcDbEntity
  8
SEIHIN
  6
CONTINUOUS
 62
     3
 48
16.0
100
AcDbCircle
 10
352.0284555789767
 20
189.8516340255386
 30
0.0
 40
1.300004692301715
100
AcDbArc
 50
187.0432508395392
 51
270.0002339282793
  0
ARC
  5
468
330
1A
100
AcDbEntity
  8
SEIHIN
  6
CONTINUOUS
 62
     3
 48
16.0
100
AcDbCircle
 10
352.4634524662282
 20
190.3516365432374
 30
0.0
 40
5.000007209996775
100
AcDbArc
 50
188.8565553973509
 51
270.0000964909039
  0
ARC
  5
469
330
1A
100
AcDbEntity
  8
SEIHIN
  6
CONTINUOUS
 62
     3
 48
16.0
100
AcDbCircle
 10
342.0074925131119
 20
201.2670962391788
 30
0.0
 40
1.300006919570291
100
AcDbArc
 50
191.886489621936
 51
255.5120229390784
  0
ARC
  5
46A
330
1A
100
AcDbEntity
  8
SEIHIN
  6
CONTINUOUS
 62
     3
 48
16.0
100
AcDbCircle
 10
343.1336413292614
 20
202.3698502611628
 30
0.0
 40
1.000032152173591
100
AcDbArc
 50
191.8888818863408
 51
254.2362325537093
  0
ARC
  5
46B
330
1A
100
AcDbEntity
  8
SEIHIN
  6
CONTINUOUS
 62
     3
 48
16.0
100
AcDbCircle
 10
342.3251175267476
 20
201.6999692154846
 30
0.0
 40
5.000004969809289
100
AcDbArc
 50
191.8884994015979
 51
254.6977418110656
  0
ARC
  5
46C
330
1A
100
AcDbEntity
  8
SEIHIN
  6
CONTINUOUS
 62
     3
 48
16.0
100
AcDbCircle
 10
335.5449502805236
 20
227.2516379390741
 30
0.0
 40
1.299991394216982
100
AcDbArc
 50
11.88773659712723
 51
89.99953254547417
  0
ARC
  5
46D
330
1A
100
AcDbEntity
  8
SEIHIN
  6
CONTINUOUS
 62
     3
 48
16.0
100
AcDbCircle
 10
329.0839608866601
 20
228.3516293332478
 30
0.0
 40
1.300000000000068
100
AcDbArc
 50
180.0000000000024
 51
270.0000000000025
  0
LINE
  5
46E
330
1A
100
AcDbEntity
  8
SEIHIN
  6
CONTINUOUS
 62
     3
 48
16.0
100
AcDbLine
 10
334.03356088666
 20
227.0516293332478
 30
0.0
 11
329.0839608866601
 21
227.0516293332478
 31
0.0
  0
LINE
  5
46F
330
1A
100
AcDbEntity
  8
SEIHIN
  6
CONTINUOUS
 62
     3
 48
16.0
100
AcDbLine
 10
335.5449608866602
 20
228.5516293332478
 30
0.0
 11
329.78396088666
 21
228.5516293332478
 31
0.0
  0
ARC
  5
470
330
1A
100
AcDbEntity
  8
SEIHIN
  6
CONTINUOUS
 62
     3
 48
16.0
100
AcDbCircle
 10
334.0335440103205
 20
225.551643026706
 30
0.0
 40
1.499986306636696
100
AcDbArc
 50
11.88761994683787
 51
89.99935536543157
  0
LINE
  5
475
330
1A
100
AcDbEntity
  8
SEIHIN
  6
CONTINUOUS
 62
     3
 48
16.0
100
AcDbLine
 10
329.28396088666
 20
263.0516293332478
 30
0.0
 11
329.28396088666
 21
229.0516293332478
 31
0.0
  0
LINE
  5
476
330
1A
100
AcDbEntity
  8
SEIHIN
  6
CONTINUOUS
 62
     3
 48
16.0
100
AcDbLine
 10
329.28396088666
 20
263.0516293332478
 30
0.0
 11
327.78396088666
 21
263.0516293332478
 31
0.0
  0
LINE
  5
478
330
1A
100
AcDbEntity
  8
SEIHIN
  6
CONTINUOUS
 62
     3
 48
16.0
100
AcDbLine
 10
386.28396088666
 20
190.0516293332477
 30
0.0
 11
353.16346088666
 21
190.0516293332477
 31
0.0
  0
ARC
  5
479
330
1A
100
AcDbEntity
  8
SEIHIN
  6
CONTINUOUS
 62
     3
 48
16.0
100
AcDbCircle
 10
399.2839608866601
 20
183.5516293332478
 30
0.0
 40
4.999999999999943
100
AcDbArc
 50
359.9999999999993
 51
89.99999999999934
  0
LINE
  5
47A
330
1A
100
AcDbEntity
  8
SEIHIN
  6
CONTINUOUS
 62
     3
 48
16.0
100
AcDbLine
 10
415.4045608866601
 20
190.0516293332477
 30
0.0
 11
403.9258608866601
 21
190.0516293332477
 31
0.0
  0
LINE
  5
482
330
1A
100
AcDbEntity
  8
SEIHIN
  6
CONTINUOUS
 62
     3
 48
16.0
100
AcDbLine
 10
230.2840608866601
 20
277.2988293332476
 30
0.0
 11
236.2839608866601
 21
277.2988293332476
 31
0.0
  0
LINE
  5
483
330
1A
100
AcDbEntity
  8
SEIHIN
  6
CONTINUOUS
 62
     3
 48
16.0
100
AcDbLine
 10
228.7840608866601
 20
277.8559293332479
 30
0.0
 11
236.2839608866601
 21
277.8559293332479
 31
0.0
  0
LINE
  5
484
330
1A
100
AcDbEntity
  8
SEIHIN
  6
CONTINUOUS
 62
     3
 48
16.0
100
AcDbLine
 10
207.284057367292
 20
277.8559293332479
 30
0.0
 11
227.7840608866601
 21
277.8559293332479
 31
0.0
  0
LINE
  5
485
330
1A
100
AcDbEntity
  8
SEIHIN
  6
CONTINUOUS
 62
     3
 48
16.0
100
AcDbLine
 10
226.2840608866601
 20
277.3560293332478
 30
0.0
 11
207.2840506074464
 21
277.3559343331965
 31
0.0
  0
ARC
  5
486
330
1A
100
AcDbEntity
  8
SEIHIN
  6
CONTINUOUS
 62
     3
 48
16.0
100
AcDbCircle
 10
230.2840608866601
 20
276.7988293332476
 30
0.0
 40
0.5
100
AcDbArc
 50
90.0
 51
180.0
  0
ARC
  5
487
330
1A
100
AcDbEntity
  8
SEIHIN
  6
CONTINUOUS
 62
     3
 48
16.0
100
AcDbCircle
 10
228.7840608866601
 20
277.3559293332478
 30
0.0
 40
0.5
100
AcDbArc
 50
90.0
 51
180.0
  0
ARC
  5
488
330
1A
100
AcDbEntity
  8
SEIHIN
  6
CONTINUOUS
 62
     3
 48
16.0
100
AcDbCircle
 10
227.7840608866601
 20
277.3559293332478
 30
0.0
 40
0.4999999999999716
100
AcDbArc
 50
359.9999999999967
 51
89.99999999999674
  0
ARC
  5
489
330
1A
100
AcDbEntity
  8
SEIHIN
  6
CONTINUOUS
 62
     3
 48
16.0
100
AcDbCircle
 10
226.28406088666
 20
276.8560293332477
 30
0.0
 40
0.5000000000000569
100
AcDbArc
 50
359.9999999999934
 51
89.99999999999349
  0
LINE
  5
48A
330
1A
100
AcDbEntity
  8
SEIHIN
  6
CONTINUOUS
 62
     3
 48
16.0
100
AcDbLine
 10
228.2840608866601
 20
277.3559293332478
 30
0.0
 11
228.2840608866601
 21
275.3277293332478
 31
0.0
  0
LINE
  5
48D
330
1A
100
AcDbEntity
  8
SEIHIN
  6
CONTINUOUS
 62
     3
 48
16.0
100
AcDbLine
 10
265.2840608866601
 20
277.8559293332478
 30
0.0
 11
244.7840608866601
 21
277.8559293332479
 31
0.0
  0
LINE
  5
48E
330
1A
100
AcDbEntity
  8
SEIHIN
  6
CONTINUOUS
 62
     3
 48
16.0
100
AcDbLine
 10
246.2840608866601
 20
277.3559293332478
 30
0.0
 11
265.2840608866601
 21
277.3559293332478
 31
0.0
  0
LINE
  5
48F
330
1A
100
AcDbEntity
  8
SEIHIN
  6
CONTINUOUS
 62
     3
 48
16.0
100
AcDbLine
 10
242.2840608866601
 20
277.2988293332476
 30
0.0
 11
236.2840608866601
 21
277.2988293332476
 31
0.0
  0
LINE
  5
490
330
1A
100
AcDbEntity
  8
SEIHIN
  6
CONTINUOUS
 62
     3
 48
16.0
100
AcDbLine
 10
243.7840608866601
 20
277.8559293332479
 30
0.0
 11
236.2840608866601
 21
277.8559293332479
 31
0.0
  0
ARC
  5
491
330
1A
100
AcDbEntity
  8
SEIHIN
  6
CONTINUOUS
 62
     3
 48
16.0
100
AcDbCircle
 10
246.2840608866601
 20
276.8559293332478
 30
0.0
 40
0.5000000000000285
100
AcDbArc
 50
89.99999999999674
 51
179.9999999999967
  0
ARC
  5
492
330
1A
100
AcDbEntity
  8
SEIHIN
  6
CONTINUOUS
 62
     3
 48
16.0
100
AcDbCircle
 10
242.2840608866601
 20
276.7988293332476
 30
0.0
 40
0.5
100
AcDbArc
 50
0.0
 51
90.0
  0
ARC
  5
493
330
1A
100
AcDbEntity
  8
SEIHIN
  6
CONTINUOUS
 62
     3
 48
16.0
100
AcDbCircle
 10
243.7840608866601
 20
277.3559293332478
 30
0.0
 40
0.5000000000000285
100
AcDbArc
 50
0.0000000000032569
 51
90.00000000000325
  0
ARC
  5
494
330
1A
100
AcDbEntity
  8
SEIHIN
  6
CONTINUOUS
 62
     3
 48
16.0
100
AcDbCircle
 10
244.7840608866601
 20
277.3559293332478
 30
0.0
 40
0.5
100
AcDbArc
 50
90.0
 51
180.0
  0
LINE
  5
495
330
1A
100
AcDbEntity
  8
SEIHIN
  6
CONTINUOUS
 62
     3
 48
16.0
100
AcDbLine
 10
244.2840608866601
 20
277.3559293332478
 30
0.0
 11
244.2840608866601
 21
275.3277293332478
 31
0.0
  0
ARC
  5
498
330
1A
100
AcDbEntity
  8
SEIHIN
  6
CONTINUOUS
 62
     3
 48
16.0
100
AcDbCircle
 10
347.65931088666
 20
435.42462933333
 30
0.0
 40
29.88435495099956
100
AcDbArc
 50
259.3865750600688
 51
280.6134249399311
  0
ARC
  5
499
330
1A
100
AcDbEntity
  8
SEIHIN
  6
CONTINUOUS
 62
     3
 48
16.0
100
AcDbCircle
 10
347.6593608866601
 20
354.6785293332474
 30
0.0
 40
29.88426587085612
100
AcDbArc
 50
79.38644552492004
 51
100.6135544750799
  0
LINE
  5
49A
330
1A
100
AcDbEntity
  8
CENTER_L
  6
CENTER
 62
     1
 48
5.0
100
AcDbLine
 10
386.28396088666
 20
395.0515293332477
 30
0.0
 11
322.45036088666
 21
395.0515293332477
 31
0.0
  0
LINE
  5
49B
330
1A
100
AcDbEntity
  8
SEIHIN
  6
CONTINUOUS
 62
     3
 48
16.0
100
AcDbLine
 10
379.7457608866602
 20
392.5515293332477
 30
0.0
 11
336.1171608866602
 21
392.5515293332477
 31
0.0
  0
LINE
  5
49C
330
1A
100
AcDbEntity
  8
SEIHIN
  6
CONTINUOUS
 62
     3
 48
16.0
100
AcDbLine
 10
386.28396088666
 20
387.5515293332477
 30
0.0
 11
336.1171608866602
 21
387.5515293332477
 31
0.0
  0
LINE
  5
49D
330
1A
100
AcDbEntity
  8
SEIHIN
  6
CONTINUOUS
 62
     3
 48
16.0
100
AcDbLine
 10
386.28396088666
 20
402.5515293332477
 30
0.0
 11
336.1171608866602
 21
402.5514293332478
 31
0.0
  0
LINE
  5
49E
330
1A
100
AcDbEntity
  8
SEIHIN
  6
CONTINUOUS
 62
     3
 48
16.0
100
AcDbLine
 10
379.7457608866602
 20
397.5515293332477
 30
0.0
 11
336.1171608866602
 21
397.5514293332478
 31
0.0
  0
LINE
  5
4A7
330
1A
100
AcDbEntity
  8
SEIHIN
  6
CONTINUOUS
 62
     3
 48
16.0
100
AcDbLine
 10
342.15516088666
 20
392.5515293332477
 30
0.0
 11
342.15516088666
 21
395.0515293332477
 31
0.0
  0
LINE
  5
4A8
330
1A
100
AcDbEntity
  8
SEIHIN
  6
CONTINUOUS
 62
     3
 48
16.0
100
AcDbLine
 10
336.8171608866601
 20
392.5515293332477
 30
0.0
 11
336.8171608866601
 21
395.0515293332477
 31
0.0
  0
LINE
  5
4A9
330
1A
100
AcDbEntity
  8
SEIHIN
  6
CONTINUOUS
 62
     3
 48
16.0
100
AcDbLine
 10
328.4840608866602
 20
382.5515293332476
 30
0.0
 11
328.4840608866602
 21
395.0514293332478
 31
0.0
  0
LINE
  5
4AA
330
1A
100
AcDbEntity
  8
SEIHIN
  6
CONTINUOUS
 62
     3
 48
16.0
100
AcDbLine
 10
329.2840608866602
 20
395.0515293332477
 30
0.0
 11
329.2840608866602
 21
382.5515293332476
 31
0.0
  0
LINE
  5
4AB
330
1A
100
AcDbEntity
  8
SEIHIN
  6
CONTINUOUS
 62
     3
 48
16.0
100
AcDbLine
 10
342.15516088666
 20
384.0515293332476
 30
0.0
 11
329.2840608866602
 21
384.0515293332476
 31
0.0
  0
LINE
  5
4AD
330
1A
100
AcDbEntity
  8
SEIHIN
  6
CONTINUOUS
 62
     3
 48
16.0
100
AcDbLine
 10
329.2840608866602
 20
382.5515293332476
 30
0.0
 11
328.4840608866602
 21
382.5515293332476
 31
0.0
  0
LINE
  5
4AE
330
1A
100
AcDbEntity
  8
SEIHIN
  6
CONTINUOUS
 62
     3
 48
16.0
100
AcDbLine
 10
336.8171608866601
 20
384.0515293332476
 30
0.0
 11
336.8171608866601
 21
387.5515293332477
 31
0.0
  0
LINE
  5
4AF
330
1A
100
AcDbEntity
  8
SEIHIN
  6
CONTINUOUS
 62
     3
 48
16.0
100
AcDbLine
 10
342.15516088666
 20
384.0515293332476
 30
0.0
 11
342.15516088666
 21
387.5515293332477
 31
0.0
  0
LINE
  5
4B0
330
1A
100
AcDbEntity
  8
SEIHIN
  6
CONTINUOUS
 62
     3
 48
16.0
100
AcDbLine
 10
342.15516088666
 20
406.0515293332478
 30
0.0
 11
329.2840608866602
 21
406.0515293332478
 31
0.0
  0
LINE
  5
4B2
330
1A
100
AcDbEntity
  8
SEIHIN
  6
CONTINUOUS
 62
     3
 48
16.0
100
AcDbLine
 10
329.2840608866602
 20
395.0515293332477
 30
0.0
 11
329.2840608866602
 21
407.5515293332477
 31
0.0
  0
LINE
  5
4B3
330
1A
100
AcDbEntity
  8
SEIHIN
  6
CONTINUOUS
 62
     3
 48
16.0
100
AcDbLine
 10
328.4840608866602
 20
407.5515293332477
 30
0.0
 11
328.4840608866602
 21
395.0516293332478
 31
0.0
  0
LINE
  5
4B4
330
1A
100
AcDbEntity
  8
SEIHIN
  6
CONTINUOUS
 62
     3
 48
16.0
100
AcDbLine
 10
329.2840608866602
 20
407.5515293332477
 30
0.0
 11
328.4840608866602
 21
407.5515293332477
 31
0.0
  0
LINE
  5
4B5
330
1A
100
AcDbEntity
  8
SEIHIN
  6
CONTINUOUS
 62
     3
 48
16.0
100
AcDbLine
 10
336.8171608866601
 20
397.5515293332477
 30
0.0
 11
336.8171608866601
 21
395.0515293332477
 31
0.0
  0
LINE
  5
4B6
330
1A
100
AcDbEntity
  8
SEIHIN
  6
CONTINUOUS
 62
     3
 48
16.0
100
AcDbLine
 10
342.15516088666
 20
397.5515293332477
 30
0.0
 11
342.15516088666
 21
395.0515293332477
 31
0.0
  0
LINE
  5
4B7
330
1A
100
AcDbEntity
  8
SEIHIN
  6
CONTINUOUS
 62
     3
 48
16.0
100
AcDbLine
 10
342.15516088666
 20
406.0515293332478
 30
0.0
 11
342.15516088666
 21
402.5515293332477
 31
0.0
  0
LINE
  5
4B8
330
1A
100
AcDbEntity
  8
SEIHIN
  6
CONTINUOUS
 62
     3
 48
16.0
100
AcDbLine
 10
336.8171608866601
 20
406.0515293332478
 30
0.0
 11
336.8171608866601
 21
402.5515293332477
 31
0.0
  0
LINE
  5
4BA
330
1A
100
AcDbEntity
  8
SEIHIN
  6
CONTINUOUS
 62
     3
 48
16.0
100
AcDbLine
 10
386.28396088666
 20
406.0515293332478
 30
0.0
 11
353.1635608866602
 21
406.0515293332478
 31
0.0
  0
LINE
  5
4BB
330
1A
100
AcDbEntity
  8
SEIHIN
  6
CONTINUOUS
 62
     3
 48
16.0
100
AcDbLine
 10
384.2840608866602
 20
393.0515293332477
 30
0.0
 11
388.2840608866601
 21
393.0515293332477
 31
0.0
  0
LINE
  5
4BC
330
1A
100
AcDbEntity
  8
SEIHIN
  6
CONTINUOUS
 62
     3
 48
16.0
100
AcDbLine
 10
384.2840608866602
 20
397.0515293332477
 30
0.0
 11
388.2840608866601
 21
397.0515293332477
 31
0.0
  0
ARC
  5
4BD
330
1A
100
AcDbEntity
  8
SEIHIN
  6
CONTINUOUS
 62
     3
 48
16.0
100
AcDbCircle
 10
386.2840608866602
 20
395.0515293332477
 30
0.0
 40
5.0
100
AcDbArc
 50
0.0
 51
180.0
  0
ARC
  5
4BE
330
1A
100
AcDbEntity
  8
SEIHIN
  6
CONTINUOUS
 62
     3
 48
16.0
100
AcDbCircle
 10
386.2840608866602
 20
395.0515293332477
 30
0.0
 40
5.0
100
AcDbArc
 50
180.0
 51
0.0
  0
ARC
  5
4BF
330
1A
100
AcDbEntity
  8
SEIHIN
  6
CONTINUOUS
 62
     3
 48
16.0
100
AcDbCircle
 10
386.2840608866602
 20
395.0515293332476
 30
0.0
 40
6.999954777711055
100
AcDbArc
 50
200.9249739588068
 51
339.0750260411931
  0
ARC
  5
4C0
330
1A
100
AcDbEntity
  8
SEIHIN
  6
CONTINUOUS
 62
     3
 48
16.0
100
AcDbCircle
 10
386.2840608866602
 20
395.0515293332477
 30
0.0
 40
6.999954777711055
100
AcDbArc
 50
20.92497395880682
 51
159.0750260411931
  0
LINE
  5
4C1
330
1A
100
AcDbEntity
  8
SEIHIN
  6
CONTINUOUS
 62
     3
 48
16.0
100
AcDbLine
 10
386.28396088666
 20
384.0515293332476
 30
0.0
 11
353.1635608866602
 21
384.0515293332476
 31
0.0
  0
LINE
  5
4C2
330
1A
100
AcDbEntity
  8
SEIHIN
  6
CONTINUOUS
 62
     3
 48
16.0
100
AcDbLine
 10
384.2840608866602
 20
393.0515293332477
 30
0.0
 11
384.2840608866602
 21
395.0515293332477
 31
0.0
  0
LINE
  5
4C3
330
1A
100
AcDbEntity
  8
SEIHIN
  6
CONTINUOUS
 62
     3
 48
16.0
100
AcDbLine
 10
353.1635608866602
 20
392.5515293332477
 30
0.0
 11
353.1635608866602
 21
395.0515293332477
 31
0.0
  0
LINE
  5
4C4
330
1A
100
AcDbEntity
  8
SEIHIN
  6
CONTINUOUS
 62
     3
 48
16.0
100
AcDbLine
 10
353.1635608866602
 20
384.0515293332476
 30
0.0
 11
353.1635608866602
 21
387.5515293332477
 31
0.0
  0
LINE
  5
4C5
330
1A
100
AcDbEntity
  8
SEIHIN
  6
CONTINUOUS
 62
     3
 48
16.0
100
AcDbLine
 10
353.1635608866602
 20
397.5515293332477
 30
0.0
 11
353.1635608866602
 21
395.0515293332477
 31
0.0
  0
LINE
  5
4C6
330
1A
100
AcDbEntity
  8
SEIHIN
  6
CONTINUOUS
 62
     3
 48
16.0
100
AcDbLine
 10
353.1635608866602
 20
406.0515293332478
 30
0.0
 11
353.1635608866602
 21
402.5515293332477
 31
0.0
  0
LINE
  5
4C7
330
1A
100
AcDbEntity
  8
SEIHIN
  6
CONTINUOUS
 62
     3
 48
16.0
100
AcDbLine
 10
384.2840608866602
 20
397.0515293332477
 30
0.0
 11
384.2840608866602
 21
395.0515293332477
 31
0.0
  0
LINE
  5
4C8
330
1A
100
AcDbEntity
  8
SEIHIN
  6
CONTINUOUS
 62
     3
 48
16.0
100
AcDbLine
 10
388.2840608866601
 20
393.0515293332477
 30
0.0
 11
388.2840608866601
 21
395.0515293332477
 31
0.0
  0
LINE
  5
4C9
330
1A
100
AcDbEntity
  8
CENTER_L
  6
CENTER
 62
     1
 48
5.0
100
AcDbLine
 10
386.2840608866602
 20
377.5731293332478
 30
0.0
 11
386.2840608866602
 21
411.7315293332477
 31
0.0
  0
LINE
  5
4CA
330
1A
100
AcDbEntity
  8
SEIHIN
  6
CONTINUOUS
 62
     3
 48
16.0
100
AcDbLine
 10
388.2840608866601
 20
397.0515293332477
 30
0.0
 11
388.2840608866601
 21
395.0515293332477
 31
0.0
  0
LINE
  5
4CC
330
1A
100
AcDbEntity
  8
SEIHIN
  6
CONTINUOUS
 62
     3
 48
16.0
100
AcDbLine
 10
451.08726088666
 20
274.3275293332478
 30
0.0
 11
459.90786088666
 21
277.8557293332478
 31
0.0
  0
LINE
  5
4CD
330
1A
100
AcDbEntity
  8
SEIHIN
  6
CONTINUOUS
 62
     3
 48
16.0
100
AcDbLine
 10
472.5169608866601
 20
246.3328293332478
 30
0.0
 11
459.9077608866601
 21
277.8557293332478
 31
0.0
  0
LINE
  5
4CE
330
1A
100
AcDbEntity
  8
SEIHIN
  6
CONTINUOUS
 62
     3
 48
16.0
100
AcDbLine
 10
458.5150608866602
 20
277.2986293332477
 30
0.0
 11
469.6567608866602
 21
249.4443293332477
 31
0.0
  0
LINE
  5
4D3
330
1A
100
AcDbEntity
  8
SEIHIN
  6
CONTINUOUS
 62
     3
 48
16.0
100
AcDbLine
 10
435.3699608866602
 20
164.9258293332477
 30
0.0
 11
444.7208608866602
 21
203.8806293332477
 31
0.0
  0
LINE
  5
4D4
330
1A
100
AcDbEntity
  8
SEIHIN
  6
CONTINUOUS
 62
     3
 48
16.0
100
AcDbLine
 10
452.50826088666
 20
202.0483293332477
 30
0.0
 11
443.14906088666
 21
163.0585293332477
 31
0.0
  0
LINE
  5
4D5
330
1A
100
AcDbEntity
  8
SEIHIN
  6
CONTINUOUS
 62
     3
 48
16.0
100
AcDbLine
 10
444.7839608866599
 20
242.0206818802153
 30
0.0
 11
444.78396088666
 21
228.3516293332478
 31
0.0
  0
ARC
  5
4D6
330
1A
100
AcDbEntity
  8
SEIHIN
  6
CONTINUOUS
 62
     3
 48
16.0
100
AcDbCircle
 10
442.7839608866602
 20
229.0516293332478
 30
0.0
 40
0.5
100
AcDbArc
 50
270.0
 51
0.0
  0
LINE
  5
4D7
330
1A
100
AcDbEntity
  8
SEIHIN
  6
CONTINUOUS
 62
     3
 48
16.0
100
AcDbLine
 10
472.7364608866602
 20
243.3087293332478
 30
0.0
 11
452.50826088666
 21
202.0483293332477
 31
0.0
  0
LINE
  5
4D8
330
1A
100
AcDbEntity
  8
SEIHIN
  6
CONTINUOUS
 62
     3
 48
16.0
100
AcDbLine
 10
444.7208608866602
 20
203.8806293332477
 30
0.0
 11
464.58606088666
 21
243.6291293332478
 31
0.0
  0
LINE
  5
4D9
330
1A
100
AcDbEntity
  8
SEIHIN
  6
CONTINUOUS
 62
     3
 48
16.0
100
AcDbLine
 10
431.83266088666
 20
200.9993293332478
 30
0.0
 11
437.0664608866602
 21
225.8606293332477
 31
0.0
  0
LINE
  5
4DA
330
1A
100
AcDbEntity
  8
SEIHIN
  6
CONTINUOUS
 62
     3
 48
16.0
100
AcDbLine
 10
435.1355608866602
 20
200.6699293332477
 30
0.0
 11
440.6896608866602
 21
227.0516293332478
 31
0.0
  0
LINE
  5
4DB
330
1A
100
AcDbEntity
  8
SEIHIN
  6
CONTINUOUS
 62
     3
 48
16.0
100
AcDbLine
 10
430.4128608866601
 20
202.1638293332477
 30
0.0
 11
435.7508608866599
 21
227.5194293332478
 31
0.0
  0
ARC
  5
4DC
330
1A
100
AcDbEntity
  8
SEIHIN
  6
CONTINUOUS
 62
     3
 48
16.0
100
AcDbCircle
 10
430.2427868810463
 20
201.6999507822046
 30
0.0
 40
5.000018165499256
100
AcDbArc
 50
285.3036111587088
 51
348.1117482908941
  0
ARC
  5
4DD
330
1A
100
AcDbEntity
  8
SEIHIN
  6
CONTINUOUS
 62
     3
 48
16.0
100
AcDbCircle
 10
433.9376566748345
 20
188.1963246187116
 30
0.0
 40
8.999981205259041
100
AcDbArc
 50
105.3022658254744
 51
171.1443683497851
  0
ARC
  5
4DE
330
1A
100
AcDbEntity
  8
SEIHIN
  6
CONTINUOUS
 62
     3
 48
16.0
100
AcDbCircle
 10
433.9376229011953
 20
188.1962860620013
 30
0.0
 40
12.20002419736191
100
AcDbArc
 50
104.4865145161782
 51
172.9567776659504
  0
ARC
  5
4DF
330
1A
100
AcDbEntity
  8
SEIHIN
  6
CONTINUOUS
 62
     3
 48
16.0
100
AcDbCircle
 10
433.237621500231
 20
188.8962848873139
 30
0.0
 40
13.00005238591244
100
AcDbArc
 50
105.7633744303012
 51
171.1437099118747
  0
ARC
  5
4E0
330
1A
100
AcDbEntity
  8
SEIHIN
  6
CONTINUOUS
 62
     3
 48
16.0
100
AcDbCircle
 10
419.4045200071424
 20
191.0515943320227
 30
0.0
 40
0.9999649996105105
100
AcDbArc
 50
270.0023423058206
 51
351.142912986792
  0
ARC
  5
4E1
330
1A
100
AcDbEntity
  8
SEIHIN
  6
CONTINUOUS
 62
     3
 48
16.0
100
AcDbCircle
 10
420.5394661943435
 20
189.8516340255386
 30
0.0
 40
1.300004692301718
100
AcDbArc
 50
269.9997660717206
 51
352.9567491604606
  0
ARC
  5
4E2
330
1A
100
AcDbEntity
  8
SEIHIN
  6
CONTINUOUS
 62
     3
 48
16.0
100
AcDbCircle
 10
420.1044693070921
 20
190.3516365432373
 30
0.0
 40
5.000007209996687
100
AcDbArc
 50
269.9999035090972
 51
351.1434446026499
  0
ARC
  5
4E3
330
1A
100
AcDbEntity
  8
SEIHIN
  6
CONTINUOUS
 62
     3
 48
16.0
100
AcDbCircle
 10
430.5604933857961
 20
201.2671633410368
 30
0.0
 40
1.300055847255319
100
AcDbArc
 50
284.4845009547555
 51
348.1109421453368
  0
ARC
  5
4E4
330
1A
100
AcDbEntity
  8
SEIHIN
  6
CONTINUOUS
 62
     3
 48
16.0
100
AcDbCircle
 10
429.434333822488
 20
202.3698003759013
 30
0.0
 40
0.9999696424037422
100
AcDbArc
 50
285.7616005428512
 51
348.1132850171122
  0
LINE
  5
4E5
330
1A
100
AcDbEntity
  8
SEIHIN
  6
CONTINUOUS
 62
     3
 48
16.0
100
AcDbLine
 10
437.7229608866602
 20
227.0516293332478
 30
0.0
 11
443.48396088666
 21
227.0516293332478
 31
0.0
  0
LINE
  5
4E6
330
1A
100
AcDbEntity
  8
SEIHIN
  6
CONTINUOUS
 62
     3
 48
16.0
100
AcDbLine
 10
437.02306088666
 20
228.5516293332478
 30
0.0
 11
442.7839608866602
 21
228.5516293332478
 31
0.0
  0
ARC
  5
4E7
330
1A
100
AcDbEntity
  8
SEIHIN
  6
CONTINUOUS
 62
     3
 48
16.0
100
AcDbCircle
 10
438.5343174633338
 20
225.5515940990755
 30
0.0
 40
1.5000352348009
100
AcDbArc
 50
89.99834139007496
 51
168.110863648109
  0
ARC
  5
4E8
330
1A
100
AcDbEntity
  8
SEIHIN
  6
CONTINUOUS
 62
     3
 48
16.0
100
AcDbCircle
 10
437.0230111933642
 20
227.2515890114215
 30
0.0
 40
1.300040322776025
100
AcDbArc
 50
89.99780990168485
 51
168.1105137234712
  0
ARC
  5
4E9
330
1A
100
AcDbEntity
  8
SEIHIN
  6
CONTINUOUS
 62
     3
 48
16.0
100
AcDbCircle
 10
443.48396088666
 20
228.3516293332478
 30
0.0
 40
1.300000000000011
100
AcDbArc
 50
270.0
 51
0.0
  0
LINE
  5
4EA
330
1A
100
AcDbEntity
  8
SEIHIN
  6
CONTINUOUS
 62
     3
 48
16.0
100
AcDbLine
 10
433.1382142402958
 20
240.7261375085548
 30
0.0
 11
442.7216441851189
 21
241.9299392064901
 31
0.0
  0
LINE
  5
4EB
330
1A
100
AcDbEntity
  8
SEIHIN
  6
CONTINUOUS
 62
     3
 48
16.0
100
AcDbLine
 10
433.358016626412
 20
238.976600966765
 30
0.0
 11
442.8947277969832
 21
241.9214141209883
 31
0.0
  0
LINE
  5
4EC
330
1A
100
AcDbEntity
  8
SEIHIN
  6
CONTINUOUS
 62
     3
 48
16.0
100
AcDbLine
 10
443.3219232692471
 20
243.3105438148979
 30
0.0
 11
432.9768666754701
 21
242.0109564114843
 31
0.0
  0
LINE
  5
4ED
330
1A
100
AcDbEntity
  8
SEIHIN
  6
CONTINUOUS
 62
     3
 48
16.0
100
AcDbLine
 10
432.9768666754701
 20
242.0109564114843
 30
0.0
 11
433.358016626412
 21
238.976600966765
 31
0.0
  0
LINE
  5
4EE
330
1A
100
AcDbEntity
  8
SEIHIN
  6
CONTINUOUS
 62
     3
 48
16.0
100
AcDbLine
 10
443.2839608866601
 20
241.4338377766303
 30
0.0
 11
443.2839608866601
 21
229.0516293332478
 31
0.0
  0
LINE
  5
4F1
330
1A
100
AcDbEntity
  8
CENTER_L
  6
CENTER
 62
     1
 48
5.0
100
AcDbLine
 10
475.6918935436219
 20
257.2435481509154
 30
0.0
 11
462.5359608866602
 21
251.9812293332477
 31
0.0
  0
LINE
  5
4F2
330
1A
100
AcDbEntity
  8
SEIHIN
  6
CONTINUOUS
 62
     3
 48
16.0
100
AcDbLine
 10
451.08726088666
 20
274.3275293332478
 30
0.0
 11
462.2289608866601
 21
246.4732293332478
 31
0.0
  0
LINE
  5
4F3
330
1A
100
AcDbEntity
  8
SEIHIN
  6
CONTINUOUS
 62
     3
 48
16.0
100
AcDbLine
 10
462.2289608866601
 20
246.4732293332478
 30
0.0
 11
471.0494608866602
 21
250.0014293332478
 31
0.0
  0
LINE
  5
4F4
330
1A
100
AcDbEntity
  8
SEIHIN
  6
CONTINUOUS
 62
     3
 48
16.0
100
AcDbLine
 10
464.4982608866602
 20
244.8387293332479
 30
0.0
 11
463.62166088666
 21
247.0303293332479
 31
0.0
  0
ARC
  5
4F5
330
1A
100
AcDbEntity
  8
SEIHIN
  6
CONTINUOUS
 62
     3
 48
16.0
100
AcDbCircle
 10
462.6413660417873
 20
244.0959582788666
 30
0.0
 40
1.999941825189408
100
AcDbArc
 50
346.5014201446868
 51
21.80175837913814
  0
ARC
  5
4F6
330
1A
100
AcDbEntity
  8
SEIHIN
  6
CONTINUOUS
 62
     3
 48
16.0
100
AcDbCircle
 10
467.8745593019239
 20
244.4758511652474
 30
0.0
 40
5.000026038971364
100
AcDbArc
 50
346.5013088763564
 51
21.80159604053636
  0
LINE
  5
4F7
330
1A
100
AcDbEntity
  8
SEIHIN
  6
CONTINUOUS
 62
     3
 48
16.0
100
AcDbLine
 10
468.3090608866599
 20
252.8136293332478
 30
0.0
 11
466.69456088666
 21
253.6446293332477
 31
0.0
  0
LINE
  5
4F8
330
1A
100
AcDbEntity
  8
SEIHIN
  6
CONTINUOUS
 62
     3
 48
16.0
100
AcDbLine
 10
467.29056088666
 20
255.3597293332477
 30
0.0
 11
466.69456088666
 21
253.6446293332477
 31
0.0
  0
LINE
  5
4F9
330
1A
100
AcDbEntity
  8
SEIHIN
  6
CONTINUOUS
 62
     3
 48
16.0
100
AcDbLine
 10
455.1725608866602
 20
264.1143293332478
 30
0.0
 11
453.3155608866602
 21
263.3715293332477
 31
0.0
  0
LINE
  5
4FA
330
1A
100
AcDbEntity
  8
SEIHIN
  6
CONTINUOUS
 62
     3
 48
16.0
100
AcDbLine
 10
456.2866608866602
 20
255.9436293332478
 30
0.0
 11
458.14366088666
 21
256.6864293332477
 31
0.0
  0
LINE
  5
4FB
330
1A
100
AcDbEntity
  8
SEIHIN
  6
CONTINUOUS
 62
     3
 48
16.0
100
AcDbLine
 10
453.3155608866602
 20
263.3715293332477
 30
0.0
 11
456.2867608866602
 21
255.9437293332478
 31
0.0
  0
LINE
  5
4FC
330
1A
100
AcDbEntity
  8
CENTER_L
  6
CENTER
 62
     1
 48
5.0
100
AcDbLine
 10
468.2640733284403
 20
275.8130397809279
 30
0.0
 11
455.74816088666
 21
270.8067293332477
 31
0.0
  0
LINE
  5
4FD
330
1A
100
AcDbEntity
  8
SEIHIN
  6
CONTINUOUS
 62
     3
 48
16.0
100
AcDbLine
 10
459.7937608866602
 20
274.1019293332478
 30
0.0
 11
459.34136088666
 21
272.2440293332476
 31
0.0
  0
LINE
  5
4FE
330
1A
100
AcDbEntity
  8
SEIHIN
  6
CONTINUOUS
 62
     3
 48
16.0
100
AcDbLine
 10
460.9503608866599
 20
271.2104293332478
 30
0.0
 11
459.34146088666
 21
272.2437293332478
 31
0.0
  0
LINE
  5
50B
330
1A
100
AcDbEntity
  8
CENTER_L
  6
CENTER
 62
     1
 48
5.0
100
AcDbLine
 10
461.9409608866602
 20
423.4392293332478
 30
0.0
 11
461.9409608866602
 21
416.3573293332479
 31
0.0
  0
LINE
  5
50C
330
1A
100
AcDbEntity
  8
CENTER_L
  6
CENTER
 62
     1
 48
5.0
100
AcDbLine
 10
469.3687603670039
 20
423.3485293332479
 30
0.0
 11
469.3687603670039
 21
416.4355293332479
 31
0.0
  0
LINE
  5
50D
330
1A
100
AcDbEntity
  8
SEIHIN
  6
CONTINUOUS
 62
     3
 48
16.0
100
AcDbLine
 10
471.225665432094
 20
424.0515338787022
 30
0.0
 11
471.22576088666
 21
403.0515293332477
 31
0.0
  0
LINE
  5
50E
330
1A
100
AcDbEntity
  8
SEIHIN
  6
CONTINUOUS
 62
     3
 48
16.0
100
AcDbLine
 10
460.0840608866601
 20
424.0515293332477
 30
0.0
 11
460.08406088666
 21
405.0515293332477
 31
0.0
  0
LINE
  5
50F
330
1A
100
AcDbEntity
  8
SEIHIN
  6
CONTINUOUS
 62
     3
 48
16.0
100
AcDbLine
 10
458.6913557584812
 20
424.051534461453
 30
0.0
 11
458.6912608866602
 21
405.5515293332477
 31
0.0
  0
LINE
  5
510
330
1A
100
AcDbEntity
  8
CENTER_L
  6
CENTER
 62
     1
 48
5.0
100
AcDbLine
 10
461.9409608866602
 20
366.6639293332479
 30
0.0
 11
461.9409608866602
 21
373.7457293332479
 31
0.0
  0
LINE
  5
511
330
1A
100
AcDbEntity
  8
CENTER_L
  6
CENTER
 62
     1
 48
5.0
100
AcDbLine
 10
469.28406088666
 20
366.7546293332479
 30
0.0
 11
469.28406088666
 21
373.6676293332479
 31
0.0
  0
ELLIPSE
  5
512
330
1A
100
AcDbEntity
  8
SEIHIN
  6
CONTINUOUS
100
AcDbEllipse
 10
469.28406088666
 20
370.0515293332477
 30
0.0
 11
0.0
 21
2.0
 31
0.0
210
0.0
220
0.0
230
-1.0
 40
0.3714043055254592
 41
0.0
 42
6.283185307179586
  0
ELLIPSE
  5
513
330
1A
100
AcDbEntity
  8
SEIHIN
  6
CONTINUOUS
100
AcDbEllipse
 10
461.9409608866602
 20
370.0515293332477
 30
0.0
 11
0.0
 21
2.0
 31
0.0
210
0.0
220
0.0
230
-1.0
 40
0.3714043055254592
 41
0.0
 42
6.283185307179586
  0
LINE
  5
514
330
1A
100
AcDbEntity
  8
SEIHIN
  6
CONTINUOUS
 62
     3
 48
16.0
100
AcDbLine
 10
460.0840608866601
 20
366.0515293332476
 30
0.0
 11
460.08406088666
 21
385.0515293332477
 31
0.0
  0
LINE
  5
515
330
1A
100
AcDbEntity
  8
SEIHIN
  6
CONTINUOUS
 62
     3
 48
16.0
100
AcDbLine
 10
471.2256654320939
 20
366.0515247877931
 30
0.0
 11
471.22576088666
 21
387.0515293332477
 31
0.0
  0
LINE
  5
516
330
1A
100
AcDbEntity
  8
SEIHIN
  6
CONTINUOUS
 62
     3
 48
16.0
100
AcDbLine
 10
458.6913557584812
 20
366.0515242050425
 30
0.0
 11
458.6912608866602
 21
384.5515293332476
 31
0.0
  0
LINE
  5
51F
330
1A
100
AcDbEntity
  8
CENTER_L
  6
CENTER
 62
     1
 48
5.0
100
AcDbLine
 10
471.2256608866602
 20
370.0515293332477
 30
0.0
 11
467.28406088666
 21
370.0515293332477
 31
0.0
  0
LINE
  5
520
330
1A
100
AcDbEntity
  8
SEIHIN
  6
CONTINUOUS
 62
     3
 48
16.0
100
AcDbLine
 10
470.2256654321043
 20
365.0515293332476
 30
0.0
 11
459.691355758468
 21
365.0515293332476
 31
0.0
  0
ELLIPSE
  5
521
330
1A
100
AcDbEntity
  8
SEIHIN
  6
CONTINUOUS
100
AcDbEllipse
 10
460.4635105535534
 20
370.0515293332477
 30
0.0
 11
0.0
 21
-2.0
 31
0.0
210
0.0
220
0.0
230
1.0
 40
0.3714043055254592
 41
1.215345544544833
 42
1.926247109045172
  0
ELLIPSE
  5
522
330
1A
100
AcDbEntity
  8
SEIHIN
  6
CONTINUOUS
100
AcDbEllipse
 10
467.891310033897
 20
370.0515293332477
 30
0.0
 11
0.0
 21
-2.0
 31
0.0
210
0.0
220
0.0
230
1.0
 40
0.3714043055254592
 41
1.215345544544833
 42
1.926247109045172
  0
LINE
  5
523
330
1A
100
AcDbEntity
  8
SEIHIN
  6
CONTINUOUS
 62
     3
 48
16.0
100
AcDbLine
 10
451.32696088666
 20
403.0515293332477
 30
0.0
 11
444.0840608866601
 21
403.0515293332477
 31
0.0
  0
ARC
  5
524
330
1A
100
AcDbEntity
  8
SEIHIN
  6
CONTINUOUS
 62
     3
 48
16.0
100
AcDbCircle
 10
453.2634608866601
 20
387.5515293332479
 30
0.0
 40
2.000000000000085
100
AcDbArc
 50
180.0000000000024
 51
270.0000000000024
  0
LINE
  5
525
330
1A
100
AcDbEntity
  8
SEIHIN
  6
CONTINUOUS
 62
     3
 48
16.0
100
AcDbLine
 10
451.32696088666
 20
387.0515293332477
 30
0.0
 11
444.0840608866601
 21
387.0515293332477
 31
0.0
  0
ARC
  5
526
330
1A
100
AcDbEntity
  8
SEIHIN
  6
CONTINUOUS
 62
     3
 48
16.0
100
AcDbCircle
 10
453.2634608866601
 20
402.5515293332476
 30
0.0
 40
2.000000000000085
100
AcDbArc
 50
89.99999999999756
 51
179.9999999999975
  0
LINE
  5
527
330
1A
100
AcDbEntity
  8
SEIHIN
  6
CONTINUOUS
 62
     3
 48
16.0
100
AcDbLine
 10
430.4128608866601
 20
392.5514293332478
 30
0.0
 11
430.4128608866601
 21
395.0514293332478
 31
0.0
  0
LINE
  5
528
330
1A
100
AcDbEntity
  8
SEIHIN
  6
CONTINUOUS
 62
     3
 48
16.0
100
AcDbLine
 10
444.0840608866601
 20
382.5515293332476
 30
0.0
 11
444.0840608866601
 21
395.0515293332477
 31
0.0
  0
LINE
  5
529
330
1A
100
AcDbEntity
  8
SEIHIN
  6
CONTINUOUS
 62
     3
 48
16.0
100
AcDbLine
 10
433.08406088666
 20
395.0515293332477
 30
0.0
 11
433.08406088666
 21
386.0515293332476
 31
0.0
  0
LINE
  5
52A
330
1A
100
AcDbEntity
  8
SEIHIN
  6
CONTINUOUS
 62
     3
 48
16.0
100
AcDbLine
 10
419.4045608866601
 20
392.5514293332478
 30
0.0
 11
419.4045608866601
 21
395.0514293332478
 31
0.0
  0
LINE
  5
52B
330
1A
100
AcDbEntity
  8
SEIHIN
  6
CONTINUOUS
 62
     3
 48
16.0
100
AcDbLine
 10
442.2840608866602
 20
386.0515293332476
 30
0.0
 11
433.08406088666
 21
386.0515293332476
 31
0.0
  0
LINE
  5
52C
330
1A
100
AcDbEntity
  8
SEIHIN
  6
CONTINUOUS
 62
     3
 48
16.0
100
AcDbLine
 10
430.4128608866601
 20
384.0514293332478
 30
0.0
 11
443.2840608866602
 21
384.0514293332478
 31
0.0
  0
ARC
  5
52D
330
1A
100
AcDbEntity
  8
SEIHIN
  6
CONTINUOUS
 62
     3
 48
16.0
100
AcDbCircle
 10
424.9087108866602
 20
354.6784293331656
 30
0.0
 40
29.88425666178311
100
AcDbArc
 50
79.38653974772461
 51
100.6134602522753
  0
LINE
  5
52E
330
1A
100
AcDbEntity
  8
SEIHIN
  6
CONTINUOUS
 62
     3
 48
16.0
100
AcDbLine
 10
419.4045608866601
 20
384.0514293332478
 30
0.0
 11
419.4045608866601
 21
387.5514293332478
 31
0.0
  0
LINE
  5
52F
330
1A
100
AcDbEntity
  8
SEIHIN
  6
CONTINUOUS
 62
     3
 48
16.0
100
AcDbLine
 10
430.4128608866601
 20
384.0514293332478
 30
0.0
 11
430.4128608866601
 21
387.5514293332478
 31
0.0
  0
LINE
  5
530
330
1A
100
AcDbEntity
  8
SEIHIN
  6
CONTINUOUS
 62
     3
 48
16.0
100
AcDbLine
 10
443.2840608866602
 20
385.0515293332477
 30
0.0
 11
443.2840608866602
 21
382.5515293332476
 31
0.0
  0
LINE
  5
531
330
1A
100
AcDbEntity
  8
SEIHIN
  6
CONTINUOUS
 62
     3
 48
16.0
100
AcDbLine
 10
443.2840608866602
 20
382.5515293332476
 30
0.0
 11
444.0839608866602
 21
382.5515293332476
 31
0.0
  0
ARC
  5
532
330
1A
100
AcDbEntity
  8
SEIHIN
  6
CONTINUOUS
 62
     3
 48
16.0
100
AcDbCircle
 10
442.2840608866602
 20
385.0515293332477
 30
0.0
 40
1.0
100
AcDbArc
 50
0.0
 51
90.0
  0
LINE
  5
533
330
1A
100
AcDbEntity
  8
SEIHIN
  6
CONTINUOUS
 62
     3
 48
16.0
100
AcDbLine
 10
435.75096088666
 20
384.0514293332478
 30
0.0
 11
435.75096088666
 21
386.0515293332476
 31
0.0
  0
LINE
  5
534
330
1A
100
AcDbEntity
  8
SEIHIN
  6
CONTINUOUS
 62
     3
 48
16.0
100
AcDbLine
 10
442.2840608866602
 20
404.0515293332478
 30
0.0
 11
433.08406088666
 21
404.0515293332478
 31
0.0
  0
LINE
  5
535
330
1A
100
AcDbEntity
  8
SEIHIN
  6
CONTINUOUS
 62
     3
 48
16.0
100
AcDbLine
 10
430.4128608866601
 20
406.0515293332478
 30
0.0
 11
443.2840608866602
 21
406.0516293332478
 31
0.0
  0
ARC
  5
536
330
1A
100
AcDbEntity
  8
SEIHIN
  6
CONTINUOUS
 62
     3
 48
16.0
100
AcDbCircle
 10
424.90866088666
 20
435.424629333248
 30
0.0
 40
29.8842658708561
100
AcDbArc
 50
259.38644552492
 51
280.6135544750799
  0
LINE
  5
537
330
1A
100
AcDbEntity
  8
SEIHIN
  6
CONTINUOUS
 62
     3
 48
16.0
100
AcDbLine
 10
419.4045608866601
 20
397.5516293332478
 30
0.0
 11
419.4045608866601
 21
395.0515293332477
 31
0.0
  0
LINE
  5
538
330
1A
100
AcDbEntity
  8
SEIHIN
  6
CONTINUOUS
 62
     3
 48
16.0
100
AcDbLine
 10
419.4045608866601
 20
406.0515293332478
 30
0.0
 11
419.4045608866601
 21
402.5516293332477
 31
0.0
  0
LINE
  5
539
330
1A
100
AcDbEntity
  8
SEIHIN
  6
CONTINUOUS
 62
     3
 48
16.0
100
AcDbLine
 10
430.4128608866601
 20
397.5516293332478
 30
0.0
 11
430.4128608866601
 21
395.0516293332478
 31
0.0
  0
LINE
  5
53A
330
1A
100
AcDbEntity
  8
SEIHIN
  6
CONTINUOUS
 62
     3
 48
16.0
100
AcDbLine
 10
433.08406088666
 20
395.0515293332477
 30
0.0
 11
433.08406088666
 21
404.0515293332478
 31
0.0
  0
LINE
  5
53B
330
1A
100
AcDbEntity
  8
SEIHIN
  6
CONTINUOUS
 62
     3
 48
16.0
100
AcDbLine
 10
430.4128608866601
 20
406.0516293332478
 30
0.0
 11
430.4128608866601
 21
402.5515293332477
 31
0.0
  0
LINE
  5
53C
330
1A
100
AcDbEntity
  8
SEIHIN
  6
CONTINUOUS
 62
     3
 48
16.0
100
AcDbLine
 10
443.2840608866602
 20
405.0515293332477
 30
0.0
 11
443.2840608866602
 21
407.5515293332477
 31
0.0
  0
LINE
  5
53D
330
1A
100
AcDbEntity
  8
SEIHIN
  6
CONTINUOUS
 62
     3
 48
16.0
100
AcDbLine
 10
444.0840608866601
 20
407.5515293332477
 30
0.0
 11
444.0840608866601
 21
395.0515293332477
 31
0.0
  0
ARC
  5
53E
330
1A
100
AcDbEntity
  8
SEIHIN
  6
CONTINUOUS
 62
     3
 48
16.0
100
AcDbCircle
 10
442.2840608866602
 20
405.0515293332477
 30
0.0
 40
0.9999999999999431
100
AcDbArc
 50
269.9999999999967
 51
359.9999999999967
  0
LINE
  5
53F
330
1A
100
AcDbEntity
  8
SEIHIN
  6
CONTINUOUS
 62
     3
 48
16.0
100
AcDbLine
 10
435.75096088666
 20
406.0516293332478
 30
0.0
 11
435.75096088666
 21
404.0515293332478
 31
0.0
  0
LINE
  5
540
330
1A
100
AcDbEntity
  8
SEIHIN
  6
CONTINUOUS
 62
     3
 48
16.0
100
AcDbLine
 10
443.2840608866602
 20
407.5515293332477
 30
0.0
 11
444.0839608866602
 21
407.5515293332477
 31
0.0
  0
LINE
  5
541
330
1A
100
AcDbEntity
  8
SEIHIN
  6
CONTINUOUS
 62
     3
 48
16.0
100
AcDbLine
 10
473.10786088666
 20
389.0515293332477
 30
0.0
 11
473.10786088666
 21
395.0514293332478
 31
0.0
  0
LINE
  5
542
330
1A
100
AcDbEntity
  8
SEIHIN
  6
CONTINUOUS
 62
     3
 48
16.0
100
AcDbLine
 10
460.08406088666
 20
389.0515293332477
 30
0.0
 11
460.08406088666
 21
395.0514293332478
 31
0.0
  0
LINE
  5
543
330
1A
100
AcDbEntity
  8
SEIHIN
  6
CONTINUOUS
 62
     3
 48
16.0
100
AcDbLine
 10
451.26346088666
 20
387.5515293332477
 30
0.0
 11
451.26346088666
 21
395.0515293332477
 31
0.0
  0
LINE
  5
544
330
1A
100
AcDbEntity
  8
SEIHIN
  6
CONTINUOUS
 62
     3
 48
16.0
100
AcDbLine
 10
452.7634608866602
 20
395.0515293332477
 30
0.0
 11
452.7634608866602
 21
388.0515293332477
 31
0.0
  0
LINE
  5
545
330
1A
100
AcDbEntity
  8
SEIHIN
  6
CONTINUOUS
 62
     3
 48
16.0
100
AcDbLine
 10
458.69136088666
 20
389.5515293332478
 30
0.0
 11
458.69136088666
 21
395.0514293332478
 31
0.0
  0
LINE
  5
546
330
1A
100
AcDbEntity
  8
SEIHIN
  6
CONTINUOUS
 62
     3
 48
16.0
100
AcDbLine
 10
471.2840608866602
 20
387.0515293332477
 30
0.0
 11
453.7634608866602
 21
387.0515293332477
 31
0.0
  0
ARC
  5
547
330
1A
100
AcDbEntity
  8
SEIHIN
  6
CONTINUOUS
 62
     3
 48
16.0
100
AcDbCircle
 10
458.08406088666
 20
385.0515293332477
 30
0.0
 40
2.0
100
AcDbArc
 50
0.0
 51
90.0
  0
ARC
  5
548
330
1A
100
AcDbEntity
  8
SEIHIN
  6
CONTINUOUS
 62
     3
 48
16.0
100
AcDbCircle
 10
458.08406088666
 20
389.0515293332477
 30
0.0
 40
2.0
100
AcDbArc
 50
270.0
 51
0.0
  0
LINE
  5
549
330
1A
100
AcDbEntity
  8
SEIHIN
  6
CONTINUOUS
 62
     3
 48
16.0
100
AcDbLine
 10
457.6912608866601
 20
385.5515293332477
 30
0.0
 11
453.2634608866602
 21
385.5515293332477
 31
0.0
  0
LINE
  5
54A
330
1A
100
AcDbEntity
  8
SEIHIN
  6
CONTINUOUS
 62
     3
 48
16.0
100
AcDbLine
 10
452.7634608866602
 20
388.5515293332476
 30
0.0
 11
457.69136088666
 21
388.5515293332476
 31
0.0
  0
ARC
  5
54B
330
1A
100
AcDbEntity
  8
SEIHIN
  6
CONTINUOUS
 62
     3
 48
16.0
100
AcDbCircle
 10
453.7634608866602
 20
388.0515293332477
 30
0.0
 40
1.0
100
AcDbArc
 50
180.0
 51
270.0
  0
ARC
  5
54C
330
1A
100
AcDbEntity
  8
SEIHIN
  6
CONTINUOUS
 62
     3
 48
16.0
100
AcDbCircle
 10
457.6912608866601
 20
384.5515293332478
 30
0.0
 40
1.000000000000056
100
AcDbArc
 50
359.9999999999967
 51
89.99999999999674
  0
ARC
  5
54D
330
1A
100
AcDbEntity
  8
SEIHIN
  6
CONTINUOUS
 62
     3
 48
16.0
100
AcDbCircle
 10
457.69136088666
 20
389.5515293332477
 30
0.0
 40
1.000000000000056
100
AcDbArc
 50
270.0000000000032
 51
0.0000000000032569
  0
ARC
  5
54E
330
1A
100
AcDbEntity
  8
SEIHIN
  6
CONTINUOUS
 62
     3
 48
16.0
100
AcDbCircle
 10
471.1078608866601
 20
389.0515293332476
 30
0.0
 40
1.999999999999914
100
AcDbArc
 50
270.0000000000024
 51
0.0000000000024427
  0
LINE
  5
54F
330
1A
100
AcDbEntity
  8
SEIHIN
  6
CONTINUOUS
 62
     3
 48
16.0
100
AcDbLine
 10
471.2840608866602
 20
403.0515293332477
 30
0.0
 11
453.7634608866602
 21
403.0515293332477
 31
0.0
  0
ARC
  5
550
330
1A
100
AcDbEntity
  8
SEIHIN
  6
CONTINUOUS
 62
     3
 48
16.0
100
AcDbCircle
 10
458.08406088666
 20
401.0515293332477
 30
0.0
 40
2.0
100
AcDbArc
 50
0.0
 51
90.0
  0
ARC
  5
551
330
1A
100
AcDbEntity
  8
SEIHIN
  6
CONTINUOUS
 62
     3
 48
16.0
100
AcDbCircle
 10
458.08406088666
 20
405.0515293332477
 30
0.0
 40
2.0
100
AcDbArc
 50
270.0
 51
0.0
  0
LINE
  5
552
330
1A
100
AcDbEntity
  8
SEIHIN
  6
CONTINUOUS
 62
     3
 48
16.0
100
AcDbLine
 10
457.6912608866601
 20
404.5515293332477
 30
0.0
 11
453.2634608866602
 21
404.5515293332477
 31
0.0
  0
ARC
  5
553
330
1A
100
AcDbEntity
  8
SEIHIN
  6
CONTINUOUS
 62
     3
 48
16.0
100
AcDbCircle
 10
457.6912608866601
 20
405.5515293332477
 30
0.0
 40
1.0
100
AcDbArc
 50
270.0
 51
0.0
  0
LINE
  5
554
330
1A
100
AcDbEntity
  8
SEIHIN
  6
CONTINUOUS
 62
     3
 48
16.0
100
AcDbLine
 10
458.69136088666
 20
400.5515293332478
 30
0.0
 11
458.69136088666
 21
395.0515293332477
 31
0.0
  0
LINE
  5
555
330
1A
100
AcDbEntity
  8
SEIHIN
  6
CONTINUOUS
 62
     3
 48
16.0
100
AcDbLine
 10
452.7634608866602
 20
401.5515293332477
 30
0.0
 11
457.69136088666
 21
401.5515293332477
 31
0.0
  0
LINE
  5
556
330
1A
100
AcDbEntity
  8
SEIHIN
  6
CONTINUOUS
 62
     3
 48
16.0
100
AcDbLine
 10
452.7634608866602
 20
395.0515293332477
 30
0.0
 11
452.7634608866602
 21
402.0515293332478
 31
0.0
  0
ARC
  5
557
330
1A
100
AcDbEntity
  8
SEIHIN
  6
CONTINUOUS
 62
     3
 48
16.0
100
AcDbCircle
 10
457.69136088666
 20
400.5515293332477
 30
0.0
 40
0.9999999999999431
100
AcDbArc
 50
0.0000000000032569
 51
90.00000000000325
  0
LINE
  5
558
330
1A
100
AcDbEntity
  8
SEIHIN
  6
CONTINUOUS
 62
     3
 48
16.0
100
AcDbLine
 10
451.26346088666
 20
402.5515293332477
 30
0.0
 11
451.26346088666
 21
395.0515293332477
 31
0.0
  0
ARC
  5
559
330
1A
100
AcDbEntity
  8
SEIHIN
  6
CONTINUOUS
 62
     3
 48
16.0
100
AcDbCircle
 10
453.7634608866601
 20
402.0515293332477
 30
0.0
 40
0.9999999999999431
100
AcDbArc
 50
89.99999999999674
 51
179.9999999999967
  0
LINE
  5
55A
330
1A
100
AcDbEntity
  8
SEIHIN
  6
CONTINUOUS
 62
     3
 48
16.0
100
AcDbLine
 10
460.08406088666
 20
401.0515293332477
 30
0.0
 11
460.08406088666
 21
395.0515293332477
 31
0.0
  0
LINE
  5
55B
330
1A
100
AcDbEntity
  8
SEIHIN
  6
CONTINUOUS
 62
     3
 48
16.0
100
AcDbLine
 10
473.10786088666
 20
401.0515293332477
 30
0.0
 11
473.10786088666
 21
395.0515293332477
 31
0.0
  0
ARC
  5
55C
330
1A
100
AcDbEntity
  8
SEIHIN
  6
CONTINUOUS
 62
     3
 48
16.0
100
AcDbCircle
 10
471.1078608866601
 20
401.0515293332478
 30
0.0
 40
1.999999999999914
100
AcDbArc
 50
359.9999999999975
 51
89.99999999999756
  0
LINE
  5
57C
330
1A
100
AcDbEntity
  8
CENTER_L
  6
CENTER
 62
     1
 48
5.0
100
AcDbLine
 10
471.2256608866602
 20
420.0515293332477
 30
0.0
 11
467.3687603670039
 21
420.0515293332477
 31
0.0
  0
LINE
  5
57D
330
1A
100
AcDbEntity
  8
SEIHIN
  6
CONTINUOUS
 62
     3
 48
16.0
100
AcDbLine
 10
470.2256654321043
 20
425.0515293332477
 30
0.0
 11
459.691355758468
 21
425.0515293332478
 31
0.0
  0
ELLIPSE
  5
57E
330
1A
100
AcDbEntity
  8
SEIHIN
  6
CONTINUOUS
100
AcDbEllipse
 10
460.5482100338972
 20
420.0515293332477
 30
0.0
 11
0.0
 21
-2.0
 31
0.0
210
0.0
220
0.0
230
1.0
 40
0.3714043055254592
 41
1.215345544544833
 42
1.926247109045172
  0
ELLIPSE
  5
57F
330
1A
100
AcDbEntity
  8
SEIHIN
  6
CONTINUOUS
100
AcDbEllipse
 10
461.9409608866602
 20
420.0515293332477
 30
0.0
 11
0.0
 21
-2.0
 31
0.0
210
0.0
220
0.0
230
1.0
 40
0.3714043055254592
 41
0.0
 42
6.283185307179586
  0
ELLIPSE
  5
580
330
1A
100
AcDbEntity
  8
SEIHIN
  6
CONTINUOUS
100
AcDbEllipse
 10
467.976009514241
 20
420.0515293332477
 30
0.0
 11
0.0
 21
-2.0
 31
0.0
210
0.0
220
0.0
230
1.0
 40
0.3714043055254592
 41
1.215345544544833
 42
1.926247109045172
  0
ELLIPSE
  5
581
330
1A
100
AcDbEntity
  8
SEIHIN
  6
CONTINUOUS
100
AcDbEllipse
 10
469.3687603670039
 20
420.0515293332477
 30
0.0
 11
0.0
 21
-2.0
 31
0.0
210
0.0
220
0.0
230
1.0
 40
0.3714043055254592
 41
0.0
 42
6.283185307179586
  0
DIMENSION
  5
611
330
1A
100
AcDbEntity
  8
SUNPOU
  6
CONTINUOUS
100
AcDbDimension
  2
*D2
 10
540.1308443065954
 20
277.5630756964475
 30
0.0
 11
539.2030840066497
 21
293.347221565906
 31
0.0
 12
-74.67857436061468
 22
-99.31564059327115
 32
0.0
 70
    33
  3
STANDARD
100
AcDbAlignedDimension
 13
567.3928134340193
 23
320.7768303563716
 33
0.0
 14
578.5332694955565
 24
292.9220239712796
 34
0.0
1001
ACAD
1000
DSTYLE
1002
{
1070
   140
1040
6.0
1070
    74
1070
     0
1070
   172
1070
     1
1070
    73
1070
     0
1070
   272
1070
     2
1070
    77
1070
     3
1070
   173
1070
     1
1070
   147
1040
2.0
1070
    42
1040
6.0
1070
    44
1040
3.0
1070
    43
1040
14.0
1070
   271
1070
     0
1070
   178
1070
     4
1070
   177
1070
     4
1070
   176
1070
     4
1070
   141
1040
150.0
1070
     7
1000
_OPEN
1070
     6
1000
_OPEN
1070
    41
1040
7.0
1002
}
  0
MTEXT
  5
612
330
1A
100
AcDbEntity
  8
SUNPOU
  6
CONTINUOUS
 62
     4
100
AcDbMText
 10
547.795140251342
 20
335.5647943291609
 30
0.0
 40
6.0
 41
0.0
 71
     9
 72
     5
  1
4-φ4.0
1001
ACAD
1000
MTEXTBEGIN
1070
    73
1070
     1
1070
    44
1040
1.0
1070
    74
1070
     0
1000
MTEXTEND
1000
MTEXTBEGIN
1070
    73
1070
     1
1070
    44
1040
1.0
1070
    74
1070
     0
1000
MTEXTEND
1000
MTEXTBEGIN
1070
    73
1070
     1
1070
    44
1040
1.0
1070
    74
1070
     0
1000
MTEXTEND
  0
LEADER
  5
613
330
1A
100
AcDbEntity
  8
SUNPOU
  6
CONTINUOUS
 62
     4
100
AcDbLeader
  3
STANDARD
 73
     0
 40
6.0
 41
30.19999999999999
 76
     3
 10
572.0537762004051
 20
318.7790428694491
 30
0.0
 10
552.583335298313
 20
333.5647943291609
 30
0.0
 10
549.7951402513421
 20
333.5647943291609
 30
0.0
1001
ACAD
1000
DSTYLE
1002
{
1070
     6
1000
OPEN
1070
    41
1040
7.0
1070
    42
1040
6.0
1070
    43
1040
14.0
1070
    44
1040
3.0
1070
    73
1070
     0
1070
    74
1070
     0
1070
    77
1070
     3
1070
   140
1040
6.0
1070
   141
1040
150.0
1070
   147
1040
2.0
1070
   172
1070
     1
1070
   173
1070
     1
1070
   176
1070
     4
1070
   177
1070
     4
1070
   178
1070
     4
1070
   271
1070
     0
1070
   272
1070
     2
1070
   341
1005
6D
1070
   343
1005
6D
1070
   344
1005
6D
1002
}
  0
DIMENSION
  5
614
330
1A
100
AcDbEntity
  8
SUNPOU
  6
CONTINUOUS
100
AcDbDimension
  2
*D3
 10
565.2600113129816
 20
339.5738317833758
 30
0.0
 11
588.2664572034442
 21
348.7752878574119
 31
0.0
 70
   160
  3
STANDARD
100
AcDbAlignedDimension
 13
618.459964750852
 23
341.2010023131916
 33
0.0
 14
572.0352874426001
 24
322.6335755440568
 34
0.0
 50
21.79899999999983
100
AcDbRotatedDimension
1001
ACAD
1000
DSTYLE
1002
{
1070
   140
1040
6.0
1070
    74
1070
     0
1070
   172
1070
     1
1070
    73
1070
     0
1070
   272
1070
     2
1070
    77
1070
     3
1070
   173
1070
     1
1070
   147
1040
2.0
1070
    42
1040
6.0
1070
    44
1040
3.0
1070
    43
1040
14.0
1070
   271
1070
     0
1070
   178
1070
     4
1070
   177
1070
     4
1070
   176
1070
     4
1070
   141
1040
150.0
1070
     7
1000
_OPEN
1070
     6
1000
_OPEN
1070
    41
1040
7.0
1002
}
  0
DIMENSION
  5
615
330
1A
100
AcDbEntity
  8
SUNPOU
  6
CONTINUOUS
100
AcDbDimension
  2
*D4
 10
554.5406283077918
 20
352.9112120565773
 30
0.0
 11
580.5386394059261
 21
368.6942225090002
 31
0.0
 12
-74.67857436061468
 22
-99.31564059327115
 32
0.0
 70
    32
  3
STANDARD
100
AcDbAlignedDimension
 13
623.1024262042031
 23
343.0577424794459
 33
0.0
 14
567.3928134340192
 24
320.7768303563714
 34
0.0
 50
21.79899999999983
100
AcDbRotatedDimension
1001
ACAD
1000
DSTYLE
1002
{
1070
   140
1040
6.0
1070
    74
1070
     0
1070
   172
1070
     1
1070
    73
1070
     0
1070
   272
1070
     2
1070
    77
1070
     3
1070
   173
1070
     1
1070
   147
1040
2.0
1070
    42
1040
6.0
1070
    44
1040
3.0
1070
    43
1040
14.0
1070
   271
1070
     0
1070
   178
1070
     4
1070
   177
1070
     4
1070
   176
1070
     4
1070
   141
1040
150.0
1070
     7
1000
_OPEN
1070
     6
1000
_OPEN
1070
    41
1040
7.0
1002
}
  0
LINE
  5
616
330
1A
100
AcDbEntity
  8
SEIHIN
  6
CONTINUOUS
 62
     3
 48
16.0
100
AcDbLine
 10
604.0682967482553
 20
335.4451269063185
 30
0.0
 11
615.2087528097927
 21
307.5903205212266
 31
0.0
  0
LINE
  5
618
330
1A
100
AcDbEntity
  8
SEIHIN
  6
CONTINUOUS
 62
     3
 48
16.0
100
AcDbLine
 10
614.9302165053137
 20
307.4788865583163
 30
0.0
 11
634.2428822657403
 21
315.2029360943541
 31
0.0
  0
LINE
  5
619
330
1A
100
AcDbEntity
  8
SEIHIN
  6
CONTINUOUS
 62
     3
 48
16.0
100
AcDbLine
 10
595.2476198191113
 20
331.9172864179086
 30
0.0
 11
623.1024262042031
 21
343.0577424794459
 31
0.0
  0
LINE
  5
61A
330
1A
100
AcDbEntity
  8
CENTER_L
  6
CENTER
 62
     1
 48
5.0
100
AcDbLine
 10
592.178881351314
 20
339.5900683062634
 30
0.0
 11
616.4145379563612
 21
278.9931749318095
 31
0.0
  0
DIMENSION
  5
61B
330
1A
100
AcDbEntity
  8
SUNPOU
  6
CONTINUOUS
100
AcDbDimension
  2
*D5
 10
555.2436032001698
 20
288.9924506496523
 30
0.0
 11
551.530117846324
 21
298.2773861113496
 31
0.0
 70
   161
  3
STANDARD
100
AcDbAlignedDimension
 13
569.2495561109419
 23
316.1343626255229
 33
0.0
 14
576.6765268186333
 24
297.5644917021282
 34
0.0
1001
ACAD
1000
DSTYLE
1002
{
1070
   140
1040
6.0
1070
    74
1070
     0
1070
   172
1070
     1
1070
    73
1070
     0
1070
   272
1070
     2
1070
    77
1070
     3
1070
   173
1070
     1
1070
   147
1040
2.0
1070
    42
1040
6.0
1070
    44
1040
3.0
1070
    43
1040
14.0
1070
   271
1070
     0
1070
   178
1070
     4
1070
   177
1070
     4
1070
   176
1070
     4
1070
   141
1040
150.0
1070
     7
1000
_OPEN
1070
     6
1000
_OPEN
1070
    41
1040
7.0
1002
}
  0
LINE
  5
61C
330
1A
100
AcDbEntity
  8
SEIHIN
  6
CONTINUOUS
 62
     3
 48
16.0
100
AcDbLine
 10
594.9679375389917
 20
307.0340857027235
 30
0.0
 11
593.8536561830477
 21
304.4343978253437
 31
0.0
  0
LINE
  5
61D
330
1A
100
AcDbEntity
  8
SEIHIN
  6
CONTINUOUS
 62
     3
 48
16.0
100
AcDbLine
 10
586.4269428899671
 20
328.3894459294987
 30
0.0
 11
597.5673989515044
 21
300.5346395444068
 31
0.0
  0
LINE
  5
61F
330
1A
100
AcDbEntity
  8
SEIHIN
  6
CONTINUOUS
 62
     3
 48
16.0
100
AcDbLine
 10
567.3928134340192
 20
320.7768303563714
 30
0.0
 11
578.5332694955565
 21
292.9220239712795
 31
0.0
  0
LINE
  5
620
330
1A
100
AcDbEntity
  8
CENTER_L
  6
CENTER
 62
     1
 48
5.0
100
AcDbLine
 10
572.697580608419
 20
320.9776224762579
 30
0.0
 11
575.7488366274386
 21
313.3484681589456
 31
0.0
  0
LINE
  5
621
330
1A
100
AcDbEntity
  8
SEIHIN
  6
CONTINUOUS
 62
     3
 48
16.0
100
AcDbLine
 10
597.8459352559833
 20
300.6460735073172
 30
0.0
 11
578.5332694955565
 21
292.9220239712795
 31
0.0
  0
LINE
  5
622
330
1A
100
AcDbEntity
  8
CENTER_L
  6
CENTER
 62
     1
 48
5.0
100
AcDbLine
 10
585.7332110176838
 20
301.1867235857816
 30
0.0
 11
577.9118703599961
 21
298.058568857127
 31
0.0
  0
ARC
  5
623
330
1A
100
AcDbEntity
  8
SEIHIN
  6
CONTINUOUS
 62
     3
 48
16.0
100
AcDbCircle
 10
581.3190657346475
 20
299.4212807998921
 30
0.0
 40
2.0
100
AcDbArc
 50
21.79899999999983
 51
201.7989999999998
  0
ARC
  5
624
330
1A
100
AcDbEntity
  8
SEIHIN
  6
CONTINUOUS
 62
     3
 48
16.0
100
AcDbCircle
 10
581.3190657346475
 20
299.4212807998921
 30
0.0
 40
2.0
100
AcDbArc
 50
201.7989999999998
 51
21.79899999999983
  0
LINE
  5
625
330
1A
100
AcDbEntity
  8
SEIHIN
  6
CONTINUOUS
 62
     3
 48
16.0
100
AcDbLine
 10
596.4533069252644
 20
303.3202093186307
 30
0.0
 11
593.8536190478846
 21
304.4344906745747
 31
0.0
  0
LINE
  5
626
330
1A
100
AcDbEntity
  8
CENTER_L
  6
CENTER
 62
     1
 48
5.0
100
AcDbLine
 10
578.3062712597359
 20
319.7566068875638
 30
0.0
 11
570.6982981345028
 21
316.7137887635657
 31
0.0
  0
ARC
  5
627
330
1A
100
AcDbEntity
  8
SEIHIN
  6
CONTINUOUS
 62
     3
 48
16.0
100
AcDbCircle
 10
573.8920331274688
 20
317.9911269665113
 30
0.0
 40
2.0
100
AcDbArc
 50
21.79899999999983
 51
201.7989999999998
  0
ARC
  5
628
330
1A
100
AcDbEntity
  8
SEIHIN
  6
CONTINUOUS
 62
     3
 48
16.0
100
AcDbCircle
 10
573.8920331274688
 20
317.9911269665113
 30
0.0
 40
2.0
100
AcDbArc
 50
201.7989999999998
 51
21.79899999999983
  0
LINE
  5
629
330
1A
100
AcDbEntity
  8
SEIHIN
  6
CONTINUOUS
 62
     3
 48
16.0
100
AcDbLine
 10
595.2476198191113
 20
331.9172864179086
 30
0.0
 11
567.3928134340192
 21
320.7768303563714
 31
0.0
  0
LINE
  5
62A
330
1A
100
AcDbEntity
  8
SEIHIN
  6
CONTINUOUS
 62
     3
 48
16.0
100
AcDbLine
 10
587.5409977810439
 20
325.6039690045058
 30
0.0
 11
586.4267164250998
 21
323.004281127126
 31
0.0
  0
LINE
  5
62B
330
1A
100
AcDbEntity
  8
SEIHIN
  6
CONTINUOUS
 62
     3
 48
16.0
100
AcDbLine
 10
589.0263671673166
 20
321.8900926204129
 30
0.0
 11
586.4266792899367
 21
323.004373976357
 31
0.0
  0
LINE
  5
62C
330
1A
100
AcDbEntity
  8
SEIHIN
  6
CONTINUOUS
 62
     3
 48
16.0
100
AcDbLine
 10
605.1822587901014
 20
332.6596128461626
 30
0.0
 11
607.7819466674811
 21
331.5453314902185
 31
0.0
  0
LINE
  5
62D
330
1A
100
AcDbEntity
  8
SEIHIN
  6
CONTINUOUS
 62
     3
 48
16.0
100
AcDbLine
 10
606.6677581607678
 20
328.9456807480017
 30
0.0
 11
607.7820395167119
 21
331.5453686253816
 31
0.0
  0
LINE
  5
62E
330
1A
100
AcDbEntity
  8
SEIHIN
  6
CONTINUOUS
 62
     3
 48
16.0
100
AcDbLine
 10
623.1024262042031
 20
343.0577424794459
 30
0.0
 11
634.2428822657403
 21
315.2029360943541
 31
0.0
  0
LINE
  5
62F
330
1A
100
AcDbEntity
  8
CENTER_L
  6
CENTER
 62
     1
 48
5.0
100
AcDbLine
 10
619.1222331601306
 20
339.5451111449737
 30
0.0
 11
622.173452044339
 21
331.916049677033
 31
0.0
  0
LINE
  5
630
330
1A
100
AcDbEntity
  8
CENTER_L
  6
CENTER
 62
     1
 48
5.0
100
AcDbLine
 10
623.329424440024
 20
316.2231595631618
 30
0.0
 11
631.1508579469422
 21
319.3513514269793
 31
0.0
  0
LINE
  5
631
330
1A
100
AcDbEntity
  8
SEIHIN
  6
CONTINUOUS
 62
     3
 48
16.0
100
AcDbLine
 10
612.6092913972801
 20
314.0897666795434
 30
0.0
 11
615.2089792746599
 21
312.9754853235992
 31
0.0
  0
LINE
  5
632
330
1A
100
AcDbEntity
  8
SEIHIN
  6
CONTINUOUS
 62
     3
 48
16.0
100
AcDbLine
 10
614.0946979187158
 20
310.3757974462195
 30
0.0
 11
615.2089792746599
 21
312.9754853235992
 31
0.0
  0
ARC
  5
633
330
1A
100
AcDbEntity
  8
SEIHIN
  6
CONTINUOUS
 62
     3
 48
16.0
100
AcDbCircle
 10
627.7436625722909
 20
317.9886394842142
 30
0.0
 40
2.0
100
AcDbArc
 50
21.79899999999983
 51
201.7989999999998
  0
ARC
  5
634
330
1A
100
AcDbEntity
  8
SEIHIN
  6
CONTINUOUS
 62
     3
 48
16.0
100
AcDbCircle
 10
627.7436625722909
 20
317.9886394842142
 30
0.0
 40
2.0
100
AcDbArc
 50
201.7989999999998
 51
21.79899999999983
  0
LINE
  5
635
330
1A
100
AcDbEntity
  8
CENTER_L
  6
CENTER
 62
     1
 48
5.0
100
AcDbLine
 10
615.9023918328452
 20
334.7930057297811
 30
0.0
 11
623.5104578073089
 21
337.8358609889421
 31
0.0
  0
ARC
  5
636
330
1A
100
AcDbEntity
  8
SEIHIN
  6
CONTINUOUS
 62
     3
 48
16.0
100
AcDbCircle
 10
620.316722814343
 20
336.5585227859965
 30
0.0
 40
2.0
100
AcDbArc
 50
21.79899999999983
 51
201.7989999999998
  0
ARC
  5
637
330
1A
100
AcDbEntity
  8
SEIHIN
  6
CONTINUOUS
 62
     3
 48
16.0
100
AcDbCircle
 10
620.316722814343
 20
336.5585227859965
 30
0.0
 40
2.0
100
AcDbArc
 50
201.7989999999998
 51
21.79899999999983
  0
DIMENSION
  5
6A7
330
1A
100
AcDbEntity
  8
SUNPOU
  6
CONTINUOUS
100
AcDbDimension
  2
*D6
 10
480.8816709178306
 20
225.4210426173731
 30
0.0
 11
501.3081581173064
 21
238.9768023042979
 31
0.0
 12
1.144240893459937
 22
-38.87202237244583
 32
0.0
 70
    33
  1
t<>
  3
STANDARD
100
AcDbAlignedDimension
 13
469.6567539901193
 23
249.4443465746315
 33
0.0
 14
471.0495085977123
 24
250.0014484176687
 34
0.0
1001
ACAD
1000
DSTYLE
1002
{
1070
   140
1040
6.0
1070
    74
1070
     0
1070
   172
1070
     1
1070
    73
1070
     0
1070
   272
1070
     2
1070
    77
1070
     3
1070
   173
1070
     1
1070
   147
1040
2.0
1070
    42
1040
6.0
1070
    44
1040
3.0
1070
    43
1040
14.0
1070
   271
1070
     1
1070
   178
1070
     4
1070
   177
1070
     4
1070
   176
1070
     4
1070
   141
1040
150.0
1070
     7
1000
_OPEN
1070
     6
1000
_OPEN
1070
    41
1040
7.0
1002
}
  0
DIMENSION
  5
6E8
330
1A
100
AcDbEntity
  8
SUNPOU
  6
CONTINUOUS
100
AcDbDimension
  2
*D7
 10
443.28616088666
 20
314.7341696236094
 30
0.0
 11
458.2850043368451
 21
319.7341696236094
 31
0.0
 70
    32
  3
STANDARD
100
AcDbAlignedDimension
 13
473.2838477870303
 23
244.4156181642857
 33
0.0
 14
443.28616088666
 24
239.0540793332478
 34
0.0
100
AcDbRotatedDimension
1001
ACAD
1000
DSTYLE
1002
{
1070
   140
1040
6.0
1070
    74
1070
     0
1070
   172
1070
     1
1070
    73
1070
     0
1070
   272
1070
     2
1070
    77
1070
     3
1070
   173
1070
     1
1070
   147
1040
2.0
1070
    42
1040
6.0
1070
    44
1040
3.0
1070
    43
1040
14.0
1070
   271
1070
     0
1070
   178
1070
     4
1070
   177
1070
     4
1070
   176
1070
     4
1070
   141
1040
150.0
1070
     7
1000
_OPEN
1070
     6
1000
_OPEN
1070
    41
1040
7.0
1002
}
  0
DIMENSION
  5
6F5
330
1A
100
AcDbEntity
  8
SUNPOU
  6
CONTINUOUS
100
AcDbDimension
  2
*D8
 10
490.7512383225249
 20
257.8821653074887
 30
0.0
 11
485.737450480391
 21
270.4165951498896
 31
0.0
 70
   161
  3
STANDARD
100
AcDbAlignedDimension
 13
459.9077746796665
 23
277.8556948508414
 33
0.0
 14
471.0495085977122
 24
250.0014484176687
 34
0.0
1001
ACAD
1000
DSTYLE
1002
{
1070
   140
1040
6.0
1070
    74
1070
     0
1070
   172
1070
     1
1070
    73
1070
     0
1070
   272
1070
     2
1070
    77
1070
     3
1070
   173
1070
     1
1070
   147
1040
2.0
1070
    42
1040
6.0
1070
    44
1040
3.0
1070
    43
1040
14.0
1070
   271
1070
     0
1070
   178
1070
     4
1070
   177
1070
     4
1070
   176
1070
     4
1070
   141
1040
150.0
1070
     7
1000
_OPEN
1070
     6
1000
_OPEN
1070
    41
1040
7.0
1002
}
  0
ARC
  5
6F6
330
1A
100
AcDbEntity
  8
SEIHIN
  6
CONTINUOUS
 62
     3
 48
16.0
100
AcDbCircle
 10
443.48396088666
 20
242.0206818802153
 30
0.0
 40
1.3
100
AcDbArc
 50
0.0
 51
97.16021624372238
  0
ARC
  5
6F7
330
1A
100
AcDbEntity
  8
SEIHIN
  6
CONTINUOUS
 62
     3
 48
16.0
100
AcDbCircle
 10
442.7839608866602
 20
241.4338377766303
 30
0.0
 40
0.5
100
AcDbArc
 50
0.0
 51
97.15958577185213
  0
DIMENSION
  5
704
330
1A
100
AcDbEntity
  8
SUNPOU
  6
CONTINUOUS
100
AcDbDimension
  2
*D9
 10
417.5605514250537
 20
240.0489793332477
 30
0.0
 11
412.5605514250537
 21
258.9523370920445
 31
0.0
 12
1.144240893459937
 22
-38.87202237244583
 32
0.0
 70
    32
  3
STANDARD
100
AcDbAlignedDimension
 13
459.9077746796665
 23
277.8556948508413
 33
0.0
 14
437.0874608866599
 24
240.0489793332477
 34
0.0
 50
90.0
100
AcDbRotatedDimension
1001
ACAD
1000
DSTYLE
1002
{
1070
   140
1040
6.0
1070
    74
1070
     0
1070
   172
1070
     1
1070
    73
1070
     0
1070
   272
1070
     2
1070
    77
1070
     3
1070
   173
1070
     1
1070
   147
1040
2.0
1070
    42
1040
6.0
1070
    44
1040
3.0
1070
    43
1040
14.0
1070
   271
1070
     0
1070
   178
1070
     4
1070
   177
1070
     4
1070
   176
1070
     4
1070
   141
1040
150.0
1070
     7
1000
_OPEN
1070
     6
1000
_OPEN
1070
    41
1040
7.0
1002
}
  0
DIMENSION
  5
711
330
1A
100
AcDbEntity
  8
SUNPOU
  6
CONTINUOUS
100
AcDbDimension
  2
*D10
 10
327.78396088666
 20
332.0763413686349
 30
0.0
 11
400.5339043368452
 21
337.0763413686349
 31
0.0
 70
    32
  3
STANDARD
100
AcDbAlignedDimension
 13
473.2838477870303
 23
244.4156181642857
 33
0.0
 14
327.78396088666
 24
263.0516293332478
 34
0.0
100
AcDbRotatedDimension
1001
ACAD
1000
DSTYLE
1002
{
1070
   140
1040
6.0
1070
    74
1070
     0
1070
   172
1070
     1
1070
    73
1070
     0
1070
   272
1070
     2
1070
    77
1070
     3
1070
   173
1070
     1
1070
   147
1040
2.0
1070
    42
1040
6.0
1070
    44
1040
3.0
1070
    43
1040
14.0
1070
   271
1070
     0
1070
   178
1070
     4
1070
   177
1070
     4
1070
   176
1070
     4
1070
   141
1040
150.0
1070
     7
1000
_OPEN
1070
     6
1000
_OPEN
1070
    41
1040
7.0
1002
}
  0
DIMENSION
  5
785
330
1A
100
AcDbEntity
  8
SUNPOU
  6
CONTINUOUS
100
AcDbDimension
  2
*D11
 10
502.9876959405851
 20
365.0515293332476
 30
0.0
 11
497.9876959405851
 21
395.0515293332476
 31
0.0
 12
1.144240893459937
 22
-38.87202237244583
 32
0.0
 70
    32
  3
STANDARD
100
AcDbAlignedDimension
 13
471.2256608866602
 23
425.0515293332477
 33
0.0
 14
471.2256608866602
 24
365.0515293332476
 34
0.0
 50
90.0
100
AcDbRotatedDimension
1001
ACAD
1000
DSTYLE
1002
{
1070
   140
1040
6.0
1070
    74
1070
     0
1070
   172
1070
     1
1070
    73
1070
     0
1070
   272
1070
     2
1070
    77
1070
     3
1070
   173
1070
     1
1070
   147
1040
2.0
1070
    42
1040
6.0
1070
    44
1040
3.0
1070
    43
1040
14.0
1070
   271
1070
     0
1070
   178
1070
     4
1070
   177
1070
     4
1070
   176
1070
     4
1070
   141
1040
150.0
1070
     7
1000
_OPEN
1070
     6
1000
_OPEN
1070
    41
1040
7.0
1002
}
  0
DIMENSION
  5
794
330
1A
100
AcDbEntity
  8
SUNPOU
  6
CONTINUOUS
100
AcDbDimension
  2
*D12
 10
310.4352994413575
 20
382.5515293332476
 30
0.0
 11
305.4352994413575
 21
395.0515293332476
 31
0.0
 12
1.144240893459937
 22
-38.87202237244583
 32
0.0
 70
    32
  3
STANDARD
100
AcDbAlignedDimension
 13
328.4840608866602
 23
407.5515293332477
 33
0.0
 14
328.4840608866602
 24
382.5515293332476
 34
0.0
 50
90.0
100
AcDbRotatedDimension
1001
ACAD
1000
DSTYLE
1002
{
1070
   140
1040
6.0
1070
    74
1070
     0
1070
   172
1070
     1
1070
    73
1070
     0
1070
   272
1070
     2
1070
    77
1070
     3
1070
   173
1070
     1
1070
   147
1040
2.0
1070
    42
1040
6.0
1070
    44
1040
3.0
1070
    43
1040
14.0
1070
   271
1070
     0
1070
   178
1070
     4
1070
   177
1070
     4
1070
   176
1070
     4
1070
   141
1040
150.0
1070
     7
1000
_OPEN
1070
     6
1000
_OPEN
1070
    41
1040
7.0
1002
}
  0
DIMENSION
  5
7A1
330
1A
100
AcDbEntity
  8
SUNPOU
  6
CONTINUOUS
100
AcDbDimension
  2
*D13
 10
310.5373755279742
 20
188.5516293332477
 30
0.0
 11
305.5373755279743
 21
225.8016293332478
 31
0.0
 12
1.144240893459937
 22
-38.87202237244583
 32
0.0
 70
    32
  3
STANDARD
100
AcDbAlignedDimension
 13
327.78396088666
 23
263.0516293332478
 33
0.0
 14
352.0284608866601
 24
188.5516293332477
 34
0.0
 50
90.0
100
AcDbRotatedDimension
1001
ACAD
1000
DSTYLE
1002
{
1070
   140
1040
6.0
1070
    74
1070
     0
1070
   172
1070
     1
1070
    73
1070
     0
1070
   272
1070
     2
1070
    77
1070
     3
1070
   173
1070
     1
1070
   147
1040
2.0
1070
    42
1040
6.0
1070
    44
1040
3.0
1070
    43
1040
14.0
1070
   271
1070
     0
1070
   178
1070
     4
1070
   177
1070
     4
1070
   176
1070
     4
1070
   141
1040
150.0
1070
     7
1000
_OPEN
1070
     6
1000
_OPEN
1070
    41
1040
7.0
1002
}
  0
LINE
  5
7CF
330
1A
100
AcDbEntity
  8
SEIHIN
  6
CONTINUOUS
 62
     3
 48
16.0
100
AcDbLine
 10
236.2840608866601
 20
200.0117293332477
 30
0.0
 11
234.2839916518316
 21
200.0117293332477
 31
0.0
  0
ARC
  5
7D0
330
1A
100
AcDbEntity
  8
SEIHIN
  6
CONTINUOUS
 62
     3
100
AcDbCircle
 10
231.2839916518316
 20
200.1897183238883
 30
0.0
 40
3.00527537520096
100
AcDbArc
 50
183.3953591556151
 51
356.6046408443849
  0
ARC
  5
7D1
330
1A
100
AcDbEntity
  8
SEIHIN
  6
CONTINUOUS
 62
     3
100
AcDbCircle
 10
241.2839608866601
 20
200.1897183238883
 30
0.0
 40
3.00527537520096
100
AcDbArc
 50
183.3953591556151
 51
356.6046408443849
  0
ARC
  5
7D2
330
1A
100
AcDbEntity
  8
SEIHIN
  6
CONTINUOUS
 62
     3
 48
16.0
100
AcDbCircle
 10
336.11716088666
 20
390.0516293332479
 30
0.0
 40
2.5
100
AcDbArc
 50
90.0
 51
270.0
  0
ARC
  5
7D3
330
1A
100
AcDbEntity
  8
SEIHIN
  6
CONTINUOUS
 62
     3
 48
16.0
100
AcDbCircle
 10
336.1171608866602
 20
390.0516293332476
 30
0.0
 40
2.500000000000085
100
AcDbArc
 50
90.0
 51
270.0
  0
ARC
  5
7D4
330
1A
100
AcDbEntity
  8
SEIHIN
  6
CONTINUOUS
 62
     3
 48
16.0
100
AcDbCircle
 10
336.11716088666
 20
400.0515293332479
 30
0.0
 40
2.5
100
AcDbArc
 50
90.0
 51
270.0
  0
ARC
  5
7D5
330
1A
100
AcDbEntity
  8
SEIHIN
  6
CONTINUOUS
 62
     3
 48
16.0
100
AcDbCircle
 10
336.1171608866602
 20
400.0515293332477
 30
0.0
 40
2.5
100
AcDbArc
 50
90.0
 51
270.0
  0
ARC
  5
7D7
330
1A
100
AcDbEntity
  8
SEIHIN
  6
CONTINUOUS
100
AcDbCircle
 10
355.78856088666
 20
390.0515293332477
 30
0.0
 40
3.625000000000041
100
AcDbArc
 50
136.3971810272969
 51
223.602818972703
  0
ARC
  5
7D8
330
1A
100
AcDbEntity
  8
SEIHIN
  6
CONTINUOUS
100
AcDbCircle
 10
343.0658751723743
 20
390.0515293332477
 30
0.0
 40
2.660714285714282
100
AcDbArc
 50
110.0159596028825
 51
249.9840403971174
  0
ARC
  5
7D9
330
1A
100
AcDbEntity
  8
SEIHIN
  6
CONTINUOUS
100
AcDbCircle
 10
355.78856088666
 20
400.0515293332477
 30
0.0
 40
3.625000000000041
100
AcDbArc
 50
136.3971810272969
 51
223.602818972703
  0
ARC
  5
7DA
330
1A
100
AcDbEntity
  8
SEIHIN
  6
CONTINUOUS
100
AcDbCircle
 10
343.0658751723743
 20
400.0515293332477
 30
0.0
 40
2.660714285714282
100
AcDbArc
 50
110.0159596028825
 51
249.9840403971174
  0
ARC
  5
7DC
330
1A
100
AcDbEntity
  8
SEIHIN
  6
CONTINUOUS
100
AcDbCircle
 10
416.7795608866603
 20
390.0515293332477
 30
0.0
 40
3.625000000000041
100
AcDbArc
 50
316.397181027297
 51
43.60281897270302
  0
ARC
  5
7DD
330
1A
100
AcDbEntity
  8
SEIHIN
  6
CONTINUOUS
100
AcDbCircle
 10
429.502246600946
 20
390.0515293332477
 30
0.0
 40
2.660714285714282
100
AcDbArc
 50
290.0159596028825
 51
69.98404039711745
  0
ARC
  5
7DE
330
1A
100
AcDbEntity
  8
SEIHIN
  6
CONTINUOUS
 48
16.0
100
AcDbCircle
 10
459.2348956469969
 20
385.0515293332477
 30
0.0
 40
2.0
100
AcDbArc
 50
20.3741090520725
 51
90.0
  0
LINE
  5
7DF
330
1A
100
AcDbEntity
  8
SEIHIN
  6
CONTINUOUS
100
AcDbLine
 10
461.3683668712399
 20
384.0515293332477
 30
0.0
 11
461.650494307296
 21
385.1910318678014
 31
0.0
  0
LINE
  5
7E0
330
1A
100
AcDbEntity
  8
SEIHIN
  6
CONTINUOUS
100
AcDbLine
 10
461.1097744616476
 20
385.7478262744832
 30
0.0
 11
461.3683668712399
 21
384.0515293332477
 31
0.0
  0
ARC
  5
7E1
330
1A
100
AcDbEntity
  8
SEIHIN
  6
CONTINUOUS
 48
16.0
100
AcDbCircle
 10
460.1944580517697
 20
385.5515293332477
 30
0.0
 40
1.5
100
AcDbArc
 50
346.0938849423411
 51
90.0
  0
ARC
  5
7E2
330
1A
100
AcDbEntity
  8
SEIHIN
  6
CONTINUOUS
 48
16.0
100
AcDbCircle
 10
467.622291185993
 20
385.5515293332477
 30
0.0
 40
1.5
100
AcDbArc
 50
346.0938849423411
 51
90.0
  0
ARC
  5
7E3
330
1A
100
AcDbEntity
  8
SEIHIN
  6
CONTINUOUS
 48
16.0
100
AcDbCircle
 10
466.6627287812203
 20
385.0515293332477
 30
0.0
 40
2.0
100
AcDbArc
 50
20.3741090520725
 51
90.0
  0
LINE
  5
7E4
330
1A
100
AcDbEntity
  8
SEIHIN
  6
CONTINUOUS
100
AcDbLine
 10
468.7962000054632
 20
384.0515293332477
 30
0.0
 11
469.0783274415193
 21
385.1910318678014
 31
0.0
  0
LINE
  5
7E5
330
1A
100
AcDbEntity
  8
SEIHIN
  6
CONTINUOUS
100
AcDbLine
 10
468.5376075958711
 20
385.7478262744832
 30
0.0
 11
468.7962000054632
 21
384.0515293332477
 31
0.0
  0
ARC
  5
7E6
330
1A
100
AcDbEntity
  8
SEIHIN
  6
CONTINUOUS
100
AcDbCircle
 10
416.7795608866603
 20
400.0515293332477
 30
0.0
 40
3.625000000000041
100
AcDbArc
 50
316.397181027297
 51
43.60281897270302
  0
ARC
  5
7E7
330
1A
100
AcDbEntity
  8
SEIHIN
  6
CONTINUOUS
100
AcDbCircle
 10
429.502246600946
 20
400.0515293332477
 30
0.0
 40
2.660714285714282
100
AcDbArc
 50
290.0159596028825
 51
69.98404039711745
  0
LINE
  5
7E8
330
1A
100
AcDbEntity
  8
SEIHIN
  6
CONTINUOUS
100
AcDbLine
 10
468.5376075958711
 20
404.3552323920122
 30
0.0
 11
468.7962000054632
 21
406.0515293332477
 31
0.0
  0
LINE
  5
7E9
330
1A
100
AcDbEntity
  8
SEIHIN
  6
CONTINUOUS
100
AcDbLine
 10
468.7962000054632
 20
406.0515293332477
 30
0.0
 11
469.0783274415193
 21
404.912026798694
 31
0.0
  0
LINE
  5
7EA
330
1A
100
AcDbEntity
  8
SEIHIN
  6
CONTINUOUS
100
AcDbLine
 10
461.3683668712399
 20
406.0515293332477
 30
0.0
 11
461.650494307296
 21
404.912026798694
 31
0.0
  0
LINE
  5
7EB
330
1A
100
AcDbEntity
  8
SEIHIN
  6
CONTINUOUS
100
AcDbLine
 10
461.1097744616476
 20
404.3552323920122
 30
0.0
 11
461.3683668712399
 21
406.0515293332477
 31
0.0
  0
ARC
  5
7EC
330
1A
100
AcDbEntity
  8
SEIHIN
  6
CONTINUOUS
 48
16.0
100
AcDbCircle
 10
460.1944580517697
 20
404.5515293332477
 30
0.0
 40
1.5
100
AcDbArc
 50
270.0
 51
13.90611505765883
  0
ARC
  5
7ED
330
1A
100
AcDbEntity
  8
SEIHIN
  6
CONTINUOUS
 48
16.0
100
AcDbCircle
 10
459.2348956469969
 20
405.0515293332477
 30
0.0
 40
2.0
100
AcDbArc
 50
270.0
 51
339.6258909479275
  0
ARC
  5
7EE
330
1A
100
AcDbEntity
  8
SEIHIN
  6
CONTINUOUS
 48
16.0
100
AcDbCircle
 10
466.6627287812203
 20
405.0515293332477
 30
0.0
 40
2.0
100
AcDbArc
 50
270.0
 51
339.6258909479275
  0
ARC
  5
7EF
330
1A
100
AcDbEntity
  8
SEIHIN
  6
CONTINUOUS
 48
16.0
100
AcDbCircle
 10
467.622291185993
 20
404.5515293332477
 30
0.0
 40
1.5
100
AcDbArc
 50
270.0
 51
13.90611505765883
  0
LINE
  5
7F4
330
1A
100
AcDbEntity
  8
CENTER_L
  6
CENTER
 62
     1
 48
5.0
100
AcDbLine
 10
463.9409608866603
 20
370.0515293332478
 30
0.0
 11
460.0840608866602
 21
370.0515293332477
 31
0.0
  0
LINE
  5
7F5
330
1A
100
AcDbEntity
  8
CENTER_L
  6
CENTER
 62
     1
 48
5.0
100
AcDbLine
 10
463.9409608866602
 20
420.0515293332477
 30
0.0
 11
460.0840608866602
 21
420.0515293332477
 31
0.0
  0
ARC
  5
7F6
330
1A
100
AcDbEntity
  8
SEIHIN
  6
CONTINUOUS
 62
     3
 48
16.0
100
AcDbCircle
 10
470.2256654321043
 20
424.0515293332477
 30
0.0
 40
1.0
100
AcDbArc
 50
0.0002604353610524
 51
90.0
  0
ARC
  5
7F7
330
1A
100
AcDbEntity
  8
SEIHIN
  6
CONTINUOUS
 62
     3
 48
16.0
100
AcDbCircle
 10
461.0840608866601
 20
424.0515293332477
 30
0.0
 40
1.0
100
AcDbArc
 50
90.0
 51
180.0
  0
ARC
  5
7F8
330
1A
100
AcDbEntity
  8
SEIHIN
  6
CONTINUOUS
 62
     3
 48
16.0
100
AcDbCircle
 10
459.691355758468
 20
424.0515293332478
 30
0.0
 40
1.0
100
AcDbArc
 50
89.99999999999964
 51
179.99970617549
  0
ARC
  5
7F9
330
1A
100
AcDbEntity
  8
SEIHIN
  6
CONTINUOUS
 62
     3
 48
16.0
100
AcDbCircle
 10
470.2256654321043
 20
366.0515293332476
 30
0.0
 40
1.0
100
AcDbArc
 50
270.0
 51
359.9997395646389
  0
ARC
  5
7FA
330
1A
100
AcDbEntity
  8
SEIHIN
  6
CONTINUOUS
 62
     3
 48
16.0
100
AcDbCircle
 10
461.0840608866601
 20
366.0515293332476
 30
0.0
 40
1.0
100
AcDbArc
 50
180.0
 51
270.0
  0
ARC
  5
7FB
330
1A
100
AcDbEntity
  8
SEIHIN
  6
CONTINUOUS
 62
     3
 48
16.0
100
AcDbCircle
 10
459.691355758468
 20
366.0515293332476
 30
0.0
 40
1.0
100
AcDbArc
 50
180.0002938245098
 51
270.0
  0
LINE
  5
7FC
330
1A
100
AcDbEntity
  8
SEIHIN
  6
CONTINUOUS
 62
     3
 48
16.0
100
AcDbLine
 10
228.2839916518315
 20
200.0117293332477
 30
0.0
 11
225.2839608866601
 21
200.0117293332477
 31
0.0
  0
LINE
  5
7FD
330
1A
100
AcDbEntity
  8
SEIHIN
  6
CONTINUOUS
 62
     3
 48
16.0
100
AcDbLine
 10
244.2839608866601
 20
200.0117293332477
 30
0.0
 11
247.2839608866601
 21
200.0117293332477
 31
0.0
  0
ARC
  5
7FE
330
1A
100
AcDbEntity
  8
SEIHIN
  6
CONTINUOUS
 62
     3
 48
16.0
100
AcDbCircle
 10
265.2840608866601
 20
250.4445293332478
 30
0.0
 40
1.0
100
AcDbArc
 50
270.0
 51
0.0
  0
ARC
  5
7FF
330
1A
100
AcDbEntity
  8
SEIHIN
  6
CONTINUOUS
 62
     3
 48
16.0
100
AcDbCircle
 10
207.2839644064128
 20
250.4445350469986
 30
0.0
 40
1.0
100
AcDbArc
 50
179.9997983345377
 51
270.0003274044538
  0
ARC
  5
800
330
1A
100
AcDbEntity
  8
SEIHIN
  6
CONTINUOUS
 62
     3
 48
16.0
100
AcDbCircle
 10
265.2840608866601
 20
276.3559293332478
 30
0.0
 40
1.0
100
AcDbArc
 50
0.0
 51
90.0
  0
ARC
  5
801
330
1A
100
AcDbEntity
  8
SEIHIN
  6
CONTINUOUS
 62
     3
 48
16.0
100
AcDbCircle
 10
265.2840608866601
 20
276.8559293332478
 30
0.0
 40
1.0
100
AcDbArc
 50
0.0
 51
90.0
  0
ARC
  5
802
330
1A
100
AcDbEntity
  8
SEIHIN
  6
CONTINUOUS
 62
     3
 48
16.0
100
AcDbCircle
 10
207.2840556074464
 20
276.355934333209
 30
0.0
 40
1.0
100
AcDbArc
 50
90.00028647889751
 51
179.9997983345378
  0
ARC
  5
803
330
1A
100
AcDbEntity
  8
SEIHIN
  6
CONTINUOUS
 62
     3
 48
16.0
100
AcDbCircle
 10
207.284057367292
 20
276.8559293332479
 30
0.0
 40
1.0
100
AcDbArc
 50
90.0
 51
179.9997983345378
  0
LINE
  5
804
330
1A
100
AcDbEntity
  8
SEIHIN
  6
CONTINUOUS
 62
     3
 48
16.0
100
AcDbLine
 10
329.2840608866602
 20
386.5515293332476
 30
0.0
 11
328.4840608866602
 21
386.5515293332476
 31
0.0
  0
LINE
  5
806
330
1A
100
AcDbEntity
  8
SEIHIN
  6
CONTINUOUS
 62
     3
 48
16.0
100
AcDbLine
 10
329.2840608866602
 20
403.5515293332477
 30
0.0
 11
328.4840608866602
 21
403.5515293332477
 31
0.0
  0
LINE
  5
807
330
1A
100
AcDbEntity
  8
SEIHIN
  6
CONTINUOUS
 62
     3
 48
16.0
100
AcDbLine
 10
603.789748684406
 20
335.3337223457037
 30
0.0
 11
622.3571872129639
 21
288.9090156350248
 31
0.0
  0
LINE
  5
808
330
1A
100
AcDbEntity
  8
SEIHIN
  6
CONTINUOUS
 62
     3
 48
16.0
100
AcDbLine
 10
586.7054909538165
 20
328.5008504901135
 30
0.0
 11
605.2729059636337
 21
282.0762025840256
 31
0.0
  0
DIMENSION
  5
850
330
1A
100
AcDbEntity
  8
SUNPOU
  6
CONTINUOUS
100
AcDbDimension
  2
*D14
 10
520.9400204212347
 20
146.3515987564902
 30
0.0
 11
515.9400204212347
 21
212.103664044869
 31
0.0
 70
    32
  3
STANDARD
100
AcDbAlignedDimension
 13
459.90786088666
 23
277.8557293332478
 33
0.0
 14
420.2839891621476
 24
146.3515987564902
 34
0.0
 50
90.0
100
AcDbRotatedDimension
1001
ACAD
1000
DSTYLE
1002
{
1070
   140
1040
6.0
1070
    74
1070
     0
1070
   172
1070
     1
1070
    73
1070
     0
1070
   272
1070
     2
1070
    77
1070
     3
1070
   173
1070
     1
1070
   147
1040
2.0
1070
    42
1040
6.0
1070
    44
1040
3.0
1070
    43
1040
14.0
1070
   271
1070
     0
1070
   178
1070
     4
1070
   177
1070
     4
1070
   176
1070
     4
1070
   141
1040
150.0
1070
     7
1000
_OPEN
1070
     6
1000
_OPEN
1070
    41
1040
7.0
1002
}
  0
LINE
  5
861
330
1A
100
AcDbEntity
  8
CENTER_L
  6
CENTER
 62
     1
 48
5.0
100
AcDbLine
 10
625.8869331486989
 20
322.6311125157486
 30
0.0
 11
628.9177278868336
 21
315.0531182021949
 31
0.0
  0
LINE
  5
862
330
1A
100
AcDbEntity
  8
CENTER_L
  6
CENTER
 62
     1
 48
5.0
100
AcDbLine
 10
579.462317731799
 20
304.0635309976613
 30
0.0
 11
582.4930753351225
 21
296.485629533479
 31
0.0
  0
TEXT
  5
871
330
1A
100
AcDbEntity
  8
SUNPOU
  6
CONTINUOUS
 62
     4
100
AcDbText
 10
477.7391529837257
 20
186.509059951683
 30
0.0
 40
6.0
  1
10
100
AcDbText
  0
LINE
  5
872
330
1A
100
AcDbEntity
  8
SUNPOU
  6
CONTINUOUS
 62
     4
 48
16.0
100
AcDbLine
 10
498.8355429771696
 20
180.9762906165328
 30
0.0
 11
474.9396228467816
 21
240.7166922489989
 31
0.0
  0
LINE
  5
873
330
1A
100
AcDbEntity
  8
SUNPOU
  6
CONTINUOUS
 62
     4
 48
16.0
100
AcDbLine
 10
490.8356228467735
 20
200.9762906165328
 30
0.0
 11
490.8355228467735
 21
180.9762906165328
 31
0.0
  0
TEXT
  5
874
330
1A
100
AcDbEntity
  8
SUNPOU
  6
CONTINUOUS
 62
     4
100
AcDbText
 10
491.5465605608661
 20
169.813509542011
 30
0.0
 40
6.0
  1
4
100
AcDbText
  0
LINE
  5
875
330
1A
100
AcDbEntity
  8
SUNPOU
  6
CONTINUOUS
 62
     4
 48
16.0
100
AcDbLine
 10
490.8355228467735
 20
180.9762906165328
 30
0.0
 11
498.8355429771696
 21
180.9762906165328
 31
0.0
  0
LWPOLYLINE
  5
9A7
330
1A
100
AcDbEntity
  8
ZUWAKU
100
AcDbPolyline
 90
        4
 70
     1
 43
0.0
 10
0.7999994527210675
 20
550.7999998096563
 10
0.7999994527210675
 20
0.7999998096563559
 10
796.799999452721
 20
0.7999998096563559
 10
796.799999452721
 20
550.7999998096563
  0
LWPOLYLINE
  5
9A8
330
1A
100
AcDbEntity
  8
ZUWAKU
100
AcDbPolyline
 90
        4
 70
     1
 43
0.0
 10
0.3999994527210902
 20
551.1999998096563
 10
0.3999994527210902
 20
0.3999998096563786
 10
797.1999994527211
 20
0.3999998096563555
 10
797.1999994527211
 20
551.1999998096563
  0
LWPOLYLINE
  5
9A9
330
1A
100
AcDbEntity
  8
ZUWAKU
100
AcDbPolyline
 90
        4
 70
     1
 43
0.0
 10
-0.0000005472788871
 20
551.5999998096563
 10
-0.0000005472788871
 20
-0.0000001903437123
 10
797.5999994527212
 20
-0.0000001903436448
 10
797.5999994527212
 20
551.5999998096564
  0
LWPOLYLINE
  5
9AA
330
1A
100
AcDbEntity
  8
ZUWAKU
100
AcDbPolyline
 90
        4
 70
     1
 43
0.0
 10
0.599999452721022
 20
550.9999998096564
 10
0.599999452721022
 20
0.5999998096563104
 10
796.9999994527213
 20
0.5999998096563566
 10
796.9999994527211
 20
550.9999998096564
  0
LWPOLYLINE
  5
9AB
330
1A
100
AcDbEntity
  8
ZUWAKU
100
AcDbPolyline
 90
        4
 70
     1
 43
0.0
 10
0.1999994527210447
 20
551.3999998096563
 10
0.1999994527210447
 20
0.1999998096563331
 10
797.3999994527209
 20
0.1999998096563562
 10
797.3999994527212
 20
551.3999998096563
  0
LINE
  5
9AC
330
1A
100
AcDbEntity
  8
ZUWAKU
100
AcDbLine
 10
-0.0000005472788871
 20
29.99999980965629
 30
0.0
 11
797.3999994527209
 21
29.99999980965629
 31
0.0
  0
LINE
  5
9AD
330
1A
100
AcDbEntity
  8
ZUWAKU
100
AcDbLine
 10
-0.0000005472788871
 20
30.19999980965629
 30
0.0
 11
797.3999994527209
 21
30.19999980965629
 31
0.0
  0
LINE
  5
9AE
330
1A
100
AcDbEntity
  8
ZUWAKU
100
AcDbLine
 10
-0.0000005472788871
 20
30.39999980965629
 30
0.0
 11
797.3999994527209
 21
30.39999980965629
 31
0.0
  0
LINE
  5
9AF
330
1A
100
AcDbEntity
  8
ZUWAKU
100
AcDbLine
 10
-0.0000005472788871
 20
30.59999980965629
 30
0.0
 11
797.3999994527209
 21
30.59999980965629
 31
0.0
  0
LINE
  5
9B0
330
1A
100
AcDbEntity
  8
ZUWAKU
100
AcDbLine
 10
-0.0000005472788871
 20
30.79999980965629
 30
0.0
 11
797.3999994527209
 21
30.79999980965629
 31
0.0
  0
LINE
  5
9B1
330
1A
100
AcDbEntity
  8
ZUWAKU
100
AcDbLine
 10
208.6466007427891
 20
15.39999980965632
 30
0.0
 11
447.4243634237125
 21
15.39999980965632
 31
0.0
  0
LINE
  5
9B2
330
1A
100
AcDbEntity
  8
ZUWAKU
100
AcDbLine
 10
208.6466007427891
 20
15.59999980965632
 30
0.0
 11
447.4243634237125
 21
15.59999980965632
 31
0.0
  0
LINE
  5
9B3
330
1A
100
AcDbEntity
  8
ZUWAKU
100
AcDbLine
 10
208.6466007427891
 20
15.19999980965632
 30
0.0
 11
447.4243634237125
 21
15.19999980965631
 31
0.0
  0
TEXT
  5
9B4
330
1A
100
AcDbEntity
  8
MOJI
100
AcDbText
 10
92.95778904089024
 20
12.74117793993104
 30
0.0
 40
6.0
  1
ライナートップＸ７０Ｕ
 41
0.9
  7
ｽﾀｲﾙ1
100
AcDbText
  0
CIRCLE
  5
9B5
330
1A
100
AcDbEntity
  8
ZUWAKU
100
AcDbCircle
 10
25.99221160750221
 20
15.19999980965629
 30
0.0
 40
1.75
  0
LINE
  5
9B6
330
1A
100
AcDbEntity
  8
ZUWAKU
100
AcDbLine
 10
26.86721160750221
 20
7.149999809656293
 30
0.0
 11
24.94221160750226
 21
7.149999809656293
 31
0.0
  0
LINE
  5
9B7
330
1A
100
AcDbEntity
  8
ZUWAKU
100
AcDbLine
 10
24.94221160750226
 20
9.94999980965629
 30
0.0
 11
26.86721160750221
 21
9.94999980965629
 31
0.0
  0
LINE
  5
9B8
330
1A
100
AcDbEntity
  8
ZUWAKU
100
AcDbLine
 10
26.86721160750221
 20
20.44999980965628
 30
0.0
 11
24.94221160750226
 21
20.44999980965628
 31
0.0
  0
LINE
  5
9B9
330
1A
100
AcDbEntity
  8
ZUWAKU
100
AcDbLine
 10
24.94221160750226
 20
23.24999980965625
 30
0.0
 11
26.86721160750221
 21
23.24999980965629
 31
0.0
  0
HATCH
  5
9BA
330
1A
100
AcDbEntity
  8
ZUWAKU
100
AcDbHatch
 10
0.0
 20
0.0
 30
0.0
210
0.0
220
0.0
230
1.0
  2
ANSI37
 70
     0
 71
     0
 91
        8
 92
        7
 72
     1
 73
     1
 93
       24
 10
14.50226211384097
 20
17.64484829063987
 42
-0.1989123673796348
 10
14.09221160750223
 20
18.63479778430092
 42
0.0
 10
14.09221160750223
 20
19.9249998096563
 42
-0.4142135623730912
 10
14.61721160750221
 20
20.44999980965628
 42
0.0
 10
17.59221160750212
 20
20.44999980965628
 42
0.4142135623731546
 10
18.11721160750221
 20
20.97499980965628
 42
0.0
 10
18.11721160750221
 20
22.72499980965629
 42
0.4142135623731586
 10
17.59221160750212
 20
23.24999980965629
 42
0.0
 10
14.09221160750223
 20
23.24999980965629
 42
0.4142135623730928
 10
11.29221160750228
 20
20.44999980965632
 42
0.0
 10
11.29221160750228
 20
18.63479778430105
 42
0.1989123673796619
 10
12.52236312651871
 20
15.66494930331744
 42
0.0
 10
15.43216110116338
 20
12.75515132867278
 42
-0.1989123673796613
 10
15.84221160750223
 20
11.76520183501159
 42
0.0
 10
15.84221160750223
 20
10.47499980965628
 42
-0.4142135623730911
 10
15.31721160750225
 20
9.94999980965629
 42
0.0
 10
12.34221160750235
 20
9.94999980965629
 42
0.4142135623731526
 10
11.81721160750225
 20
9.424999809656302
 42
0.0
 10
11.81721160750225
 20
7.674999809656281
 42
0.4142135623731526
 10
12.34221160750235
 20
7.149999809656293
 42
0.0
 10
15.84221160750223
 20
7.149999809656293
 42
0.4142135623731044
 10
18.6422116075023
 20
9.949999809656269
 42
0.0
 10
18.6422116075023
 20
11.76520183501154
 42
0.1989123673796604
 10
17.41206008848576
 20
14.73505031599508
 42
0.0
 97
        0
 92
        7
 72
     1
 73
     1
 93
       16
 10
23.54221160750228
 20
19.04999980965629
 42
-0.4142135623730935
 10
24.94221160750226
 20
20.44999980965628
 42
0.0
 10
26.86721160750221
 20
20.44999980965628
 42
0.4142135623731546
 10
27.3922116075023
 20
20.97499980965628
 42
0.0
 10
27.3922116075023
 20
22.72499980965629
 42
0.4142135623730951
 10
26.86721160750233
 20
23.24999980965629
 42
0.0
 10
24.94221160750214
 20
23.24999980965625
 42
0.4142135623730892
 10
20.74221160750221
 20
19.04999980965622
 42
0.0
 10
20.74221160750221
 20
11.34999980965631
 42
0.4142135623730969
 10
24.94221160750226
 20
7.149999809656293
 42
0.0
 10
26.86721160750221
 20
7.149999809656293
 42
0.4142135623731526
 10
27.3922116075023
 20
7.674999809656281
 42
0.0
 10
27.3922116075023
 20
9.424999809656302
 42
0.4142135623730891
 10
26.86721160750233
 20
9.94999980965629
 42
0.0
 10
24.94221160750226
 20
9.94999980965629
 42
-0.4142135623730928
 10
23.54221160750228
 20
11.34999980965627
 42
0.0
 97
        0
 92
        7
 72
     1
 73
     1
 93
        2
 10
24.24221160750221
 20
15.19999980965629
 42
1.0
 10
27.74221160750221
 20
15.19999980965629
 42
1.0
 97
        0
 92
        7
 72
     1
 73
     1
 93
       26
 10
37.31485808968022
 20
19.20504700321972
 42
0.0
 10
38.37649772281804
 20
22.5669058414893
 42
0.5069206636600134
 10
37.87586682362269
 20
23.24999980965629
 42
0.0
 10
36.17697744401346
 20
23.24999980965629
 42
0.3272098845218764
 10
35.6763465448181
 20
22.88309377782326
 42
0.0
 10
33.80807667018632
 20
16.96690584148937
 42
-0.3272098845219541
 10
33.30744577099085
 20
16.59999980965628
 42
0.0
 10
33.16721160750239
 20
16.59999980965628
 42
-0.4142135623731526
 10
32.6422116075023
 20
17.12499980965627
 42
0.0
 10
32.6422116075023
 20
22.72499980965629
 42
0.4142135623730951
 10
32.11721160750232
 20
23.24999980965629
 42
0.0
 10
30.36721160750221
 20
23.24999980965629
 42
0.4142135623730871
 10
29.84221160750223
 20
22.72499980965631
 42
0.0
 10
29.84221160750223
 20
7.674999809656281
 42
0.4142135623730891
 10
30.36721160750221
 20
7.149999809656293
 42
0.0
 10
32.11721160750221
 20
7.149999809656293
 42
0.4142135623731526
 10
32.6422116075023
 20
7.674999809656281
 42
0.0
 10
32.6422116075023
 20
13.2749998096563
 42
-0.4142135623731526
 10
33.16721160750239
 20
13.79999980965629
 42
0.0
 10
33.30744577099096
 20
13.79999980965629
 42
-0.3272098845218915
 10
33.80807667018632
 20
13.43309377782321
 42
0.0
 10
35.6763465448181
 20
7.516905841489364
 42
0.3272098845218902
 10
36.17697744401346
 20
7.149999809656293
 42
0.0
 10
37.87586682362269
 20
7.149999809656293
 42
0.5069206636600335
 10
38.37649772281804
 20
7.8330937778233
 42
0.0
 10
36.05010634434438
 20
15.19999980965643
 42
0.0
 97
        0
 92
        7
 72
     1
 73
     1
 93
        8
 10
43.49221160750221
 20
22.7249998096563
 42
0.4142135623731546
 10
42.96721160750212
 20
23.24999980965629
 42
0.0
 10
41.21721160750235
 20
23.24999980965629
 42
0.4142135623731507
 10
40.69221160750226
 20
22.72499980965631
 42
0.0
 10
40.69221160750226
 20
7.674999809656281
 42
0.4142135623731526
 10
41.21721160750235
 20
7.149999809656293
 42
0.0
 10
42.96721160750212
 20
7.149999809656293
 42
0.4142135623731526
 10
43.49221160750221
 20
7.674999809656281
 42
0.0
 97
        0
 92
        7
 72
     1
 73
     1
 93
       24
 10
48.39221160750231
 20
19.9249998096563
 42
-0.4142135623731546
 10
48.9172116075024
 20
20.44999980965628
 42
0.0
 10
51.8922116075023
 20
20.44999980965628
 42
0.4142135623730911
 10
52.41721160750228
 20
20.97499980965628
 42
0.0
 10
52.41721160750228
 20
22.72499980965629
 42
0.4142135623730952
 10
51.8922116075023
 20
23.24999980965629
 42
0.0
 10
48.39221160750231
 20
23.24999980965629
 42
0.4142135623731048
 10
45.59221160750223
 20
20.44999980965632
 42
0.0
 10
45.59221160750223
 20
18.63479778430105
 42
0.1989123673796613
 10
46.82236312651878
 20
15.66494930331749
 42
0.0
 10
49.73216110116346
 20
12.75515132867283
 42
-0.1989123673796402
 10
50.1422116075023
 20
11.76520183501175
 42
0.0
 10
50.1422116075023
 20
10.47499980965628
 42
-0.4142135623730911
 10
49.61721160750233
 20
9.94999980965629
 42
0.0
 10
46.6422116075023
 20
9.94999980965629
 42
0.4142135623731526
 10
46.11721160750221
 20
9.424999809656302
 42
0.0
 10
46.11721160750221
 20
7.674999809656281
 42
0.4142135623730891
 10
46.64221160750218
 20
7.149999809656293
 42
0.0
 10
50.1422116075023
 20
7.149999809656293
 42
0.4142135623730925
 10
52.94221160750225
 20
9.949999809656269
 42
0.0
 10
52.94221160750225
 20
11.76520183501154
 42
0.1989123673796675
 10
51.71206008848571
 20
14.73505031599519
 42
0.0
 10
48.80226211384115
 20
17.64484829063971
 42
-0.1989123673796652
 10
48.39221160750231
 20
18.63479778430088
 42
0.0
 97
        0
 92
        7
 72
     1
 73
     1
 93
       16
 10
57.84221160750224
 20
22.72499980965628
 42
0.414213562373103
 10
57.31721160750225
 20
23.24999980965629
 42
0.0
 10
55.56721160750226
 20
23.24999980965629
 42
0.4142135623730871
 10
55.04221160750228
 20
22.72499980965631
 42
0.0
 10
55.04221160750228
 20
9.949999809656269
 42
0.4142135623730926
 10
57.84221160750224
 20
7.149999809656293
 42
0.0
 10
61.34221160750223
 20
7.149999809656293
 42
0.4142135623731044
 10
64.1422116075023
 20
9.949999809656269
 42
0.0
 10
64.1422116075023
 20
22.72499980965629
 42
0.4142135623730951
 10
63.61721160750232
 20
23.24999980965629
 42
0.0
 10
61.86721160750221
 20
23.24999980965629
 42
0.4142135623730871
 10
61.34221160750223
 20
22.72499980965631
 42
0.0
 10
61.34221160750223
 20
10.99999980965626
 42
-0.414213562373088
 10
60.29221160750228
 20
9.94999980965629
 42
0.0
 10
58.8922116075023
 20
9.94999980965629
 42
-0.4142135623731197
 10
57.84221160750224
 20
10.99999980965626
 42
0.0
 97
        0
 92
        7
 72
     1
 73
     1
 93
        8
 10
69.04221160750228
 20
22.72499980965631
 42
0.4142135623730871
 10
68.5172116075023
 20
23.24999980965629
 42
0.0
 10
66.7672116075023
 20
23.24999980965629
 42
0.4142135623731507
 10
66.24221160750221
 20
22.72499980965631
 42
0.0
 10
66.24221160750221
 20
7.674999809656281
 42
0.4142135623730891
 10
66.76721160750219
 20
7.149999809656293
 42
0.0
 10
68.5172116075023
 20
7.149999809656293
 42
0.4142135623730891
 10
69.04221160750228
 20
7.674999809656281
 42
0.0
 97
        0
 75
     0
 76
     1
 52
0.0
 41
0.2
 77
     0
 78
     2
 53
45.0
 43
-900.9423048819579
 44
-13.20000019034364
 45
-0.4490128060534576
 46
0.4490128060534577
 79
     0
 53
135.0
 43
-900.9423048819579
 44
-13.20000019034364
 45
-0.4490128060534577
 46
-0.4490128060534576
 79
     0
 47
0.057451373970553
 98
        8
 10
16.07985441574442
 20
15.16717345554184
 10
22.40451445916028
 20
18.84406199210729
 10
25.16436733838077
 20
15.511881455727
 10
30.91405943435825
 20
16.20129745609779
 10
41.83847147167784
 20
16.6609097236394
 10
46.89820034785066
 20
19.4185761260635
 10
56.55768542512146
 20
18.7291577247513
 10
67.82707907234385
 20
19.18876999229292
  0
ARC
  5
9BB
330
1A
100
AcDbEntity
  8
ZUWAKU
100
AcDbCircle
 10
15.49221160750221
 20
18.63479778430099
 30
0.0
 40
4.199999999999999
100
AcDbArc
 50
180.0
 51
225.0
  0
LINE
  5
9BC
330
1A
100
AcDbEntity
  8
ZUWAKU
100
AcDbLine
 10
20.74221160750221
 20
11.34999980965629
 30
0.0
 11
20.74221160750221
 21
19.04999980965625
 31
0.0
  0
LINE
  5
9BD
330
1A
100
AcDbEntity
  8
ZUWAKU
100
AcDbLine
 10
23.54221160750228
 20
19.04999980965629
 30
0.0
 11
23.54221160750228
 21
11.34999980965629
 31
0.0
  0
ARC
  5
9BE
330
1A
100
AcDbEntity
  8
ZUWAKU
100
AcDbCircle
 10
15.49221160750221
 20
18.63479778430099
 30
0.0
 40
1.399999999999999
100
AcDbArc
 50
180.0000000000016
 51
224.9999999999988
  0
ARC
  5
9BF
330
1A
100
AcDbEntity
  8
ZUWAKU
100
AcDbCircle
 10
24.94221160750226
 20
11.34999980965629
 30
0.0
 40
4.199999999999999
100
AcDbArc
 50
180.0
 51
270.0
  0
ARC
  5
9C0
330
1A
100
AcDbEntity
  8
ZUWAKU
100
AcDbCircle
 10
15.84221160750223
 20
9.94999980965629
 30
0.0
 40
2.799999999999999
100
AcDbArc
 50
270.0
 51
0.0
  0
ARC
  5
9C1
330
1A
100
AcDbEntity
  8
ZUWAKU
100
AcDbCircle
 10
14.44221160750226
 20
11.76520183501159
 30
0.0
 40
4.199999999999999
100
AcDbArc
 50
0.0
 51
45.0
  0
LINE
  5
9C2
330
1A
100
AcDbEntity
  8
ZUWAKU
100
AcDbLine
 10
12.52236312651871
 20
15.66494930331747
 30
0.0
 11
15.43216110116338
 21
12.75515132867281
 31
0.0
  0
LINE
  5
9C3
330
1A
100
AcDbEntity
  8
ZUWAKU
100
AcDbLine
 10
12.34221160750223
 20
9.94999980965629
 30
0.0
 11
15.31721160750225
 21
9.94999980965629
 31
0.0
  0
LINE
  5
9C4
330
1A
100
AcDbEntity
  8
ZUWAKU
100
AcDbLine
 10
12.34221160750223
 20
7.149999809656293
 30
0.0
 11
15.84221160750223
 21
7.149999809656293
 31
0.0
  0
ARC
  5
9C5
330
1A
100
AcDbEntity
  8
ZUWAKU
100
AcDbCircle
 10
12.34221160750223
 20
9.424999809656291
 30
0.0
 40
0.525
100
AcDbArc
 50
90.0
 51
180.0
  0
ARC
  5
9C6
330
1A
100
AcDbEntity
  8
ZUWAKU
100
AcDbCircle
 10
12.34221160750223
 20
7.674999809656291
 30
0.0
 40
0.525
100
AcDbArc
 50
180.0
 51
270.0
  0
LINE
  5
9C7
330
1A
100
AcDbEntity
  8
ZUWAKU
100
AcDbLine
 10
11.81721160750225
 20
7.674999809656291
 30
0.0
 11
11.81721160750225
 21
9.424999809656291
 31
0.0
  0
ARC
  5
9C8
330
1A
100
AcDbEntity
  8
ZUWAKU
100
AcDbCircle
 10
14.44221160750226
 20
11.76520183501163
 30
0.0
 40
1.399999999999999
100
AcDbArc
 50
0.0
 51
45.0
  0
ARC
  5
9C9
330
1A
100
AcDbEntity
  8
ZUWAKU
100
AcDbCircle
 10
15.31721160750225
 20
10.47499980965629
 30
0.0
 40
0.525
100
AcDbArc
 50
270.0
 51
0.0
  0
LINE
  5
9CA
330
1A
100
AcDbEntity
  8
ZUWAKU
100
AcDbLine
 10
15.84221160750223
 20
10.47499980965629
 30
0.0
 11
15.84221160750223
 21
11.76520183501163
 31
0.0
  0
LINE
  5
9CB
330
1A
100
AcDbEntity
  8
ZUWAKU
100
AcDbLine
 10
17.41206008848576
 20
14.73505031599511
 30
0.0
 11
14.50226211384108
 21
17.64484829063979
 31
0.0
  0
ARC
  5
9CC
330
1A
100
AcDbEntity
  8
ZUWAKU
100
AcDbCircle
 10
24.94221160750226
 20
11.34999980965629
 30
0.0
 40
1.399999999999999
100
AcDbArc
 50
180.0
 51
270.0
  0
LINE
  5
9CD
330
1A
100
AcDbEntity
  8
ZUWAKU
100
AcDbLine
 10
18.6422116075023
 20
9.94999980965629
 30
0.0
 11
18.6422116075023
 21
11.76520183501163
 31
0.0
  0
ARC
  5
9CE
330
1A
100
AcDbEntity
  8
ZUWAKU
100
AcDbCircle
 10
17.59221160750223
 20
20.97499980965629
 30
0.0
 40
0.525
100
AcDbArc
 50
270.0
 51
0.0
  0
ARC
  5
9CF
330
1A
100
AcDbEntity
  8
ZUWAKU
100
AcDbCircle
 10
17.59221160750223
 20
22.72499980965628
 30
0.0
 40
0.525
100
AcDbArc
 50
0.0
 51
90.0
  0
ARC
  5
9D0
330
1A
100
AcDbEntity
  8
ZUWAKU
100
AcDbCircle
 10
14.09221160750223
 20
20.44999980965628
 30
0.0
 40
2.799999999999999
100
AcDbArc
 50
90.0
 51
180.0
  0
LINE
  5
9D1
330
1A
100
AcDbEntity
  8
ZUWAKU
100
AcDbLine
 10
11.29221160750228
 20
20.44999980965628
 30
0.0
 11
11.29221160750228
 21
18.63479778430095
 31
0.0
  0
LINE
  5
9D2
330
1A
100
AcDbEntity
  8
ZUWAKU
100
AcDbLine
 10
17.59221160750223
 20
20.44999980965628
 30
0.0
 11
14.61721160750221
 21
20.44999980965628
 31
0.0
  0
LINE
  5
9D3
330
1A
100
AcDbEntity
  8
ZUWAKU
100
AcDbLine
 10
14.09221160750223
 20
19.92499980965629
 30
0.0
 11
14.09221160750223
 21
18.63479778430095
 31
0.0
  0
ARC
  5
9D4
330
1A
100
AcDbEntity
  8
ZUWAKU
100
AcDbCircle
 10
14.61721160750221
 20
19.92499980965629
 30
0.0
 40
0.525
100
AcDbArc
 50
90.0
 51
180.0
  0
LINE
  5
9D5
330
1A
100
AcDbEntity
  8
ZUWAKU
100
AcDbLine
 10
14.09221160750223
 20
23.24999980965629
 30
0.0
 11
17.59221160750223
 21
23.24999980965629
 31
0.0
  0
ARC
  5
9D6
330
1A
100
AcDbEntity
  8
ZUWAKU
100
AcDbCircle
 10
24.94221160750226
 20
19.04999980965625
 30
0.0
 40
4.199999999999999
100
AcDbArc
 50
90.0
 51
180.0
  0
ARC
  5
9D7
330
1A
100
AcDbEntity
  8
ZUWAKU
100
AcDbCircle
 10
24.94221160750226
 20
19.04999980965629
 30
0.0
 40
1.399999999999999
100
AcDbArc
 50
90.0
 51
180.0
  0
LINE
  5
9D8
330
1A
100
AcDbEntity
  8
ZUWAKU
100
AcDbLine
 10
18.11721160750221
 20
22.72499980965628
 30
0.0
 11
18.11721160750221
 21
20.97499980965629
 31
0.0
  0
LINE
  5
9D9
330
1A
100
AcDbEntity
  8
ZUWAKU
100
AcDbLine
 10
35.6763465448181
 20
22.88309377782326
 30
0.0
 11
33.80807667018632
 21
16.96690584148932
 31
0.0
  0
LINE
  5
9DA
330
1A
100
AcDbEntity
  8
ZUWAKU
100
AcDbLine
 10
29.84221160750223
 20
22.72499980965628
 30
0.0
 11
29.84221160750223
 21
7.674999809656291
 31
0.0
  0
LINE
  5
9DB
330
1A
100
AcDbEntity
  8
ZUWAKU
100
AcDbLine
 10
32.6422116075023
 20
17.12499980965629
 30
0.0
 11
32.6422116075023
 21
22.72499980965628
 31
0.0
  0
LINE
  5
9DC
330
1A
100
AcDbEntity
  8
ZUWAKU
100
AcDbLine
 10
57.84221160750224
 20
10.99999980965628
 30
0.0
 11
57.84221160750224
 21
22.72499980965628
 31
0.0
  0
LINE
  5
9DD
330
1A
100
AcDbEntity
  8
ZUWAKU
100
AcDbLine
 10
55.04221160750228
 20
22.72499980965628
 30
0.0
 11
55.04221160750228
 21
9.94999980965629
 31
0.0
  0
LINE
  5
9DE
330
1A
100
AcDbEntity
  8
ZUWAKU
100
AcDbLine
 10
43.49221160750221
 20
7.674999809656291
 30
0.0
 11
43.49221160750221
 21
22.72499980965628
 31
0.0
  0
LINE
  5
9DF
330
1A
100
AcDbEntity
  8
ZUWAKU
100
AcDbLine
 10
40.69221160750226
 20
22.72499980965628
 30
0.0
 11
40.69221160750226
 21
7.674999809656291
 31
0.0
  0
LINE
  5
9E0
330
1A
100
AcDbEntity
  8
ZUWAKU
100
AcDbLine
 10
37.31485808968022
 20
19.20504700321972
 30
0.0
 11
36.05010634434438
 21
15.19999980965631
 31
0.0
  0
ARC
  5
9E1
330
1A
100
AcDbEntity
  8
ZUWAKU
100
AcDbCircle
 10
49.79221160750228
 20
18.63479778430099
 30
0.0
 40
4.199999999999999
100
AcDbArc
 50
180.0
 51
225.0
  0
ARC
  5
9E2
330
1A
100
AcDbEntity
  8
ZUWAKU
100
AcDbCircle
 10
49.79221160750228
 20
18.63479778430099
 30
0.0
 40
1.399999999999999
100
AcDbArc
 50
180.0000000000016
 51
224.9999999999988
  0
LINE
  5
9E3
330
1A
100
AcDbEntity
  8
ZUWAKU
100
AcDbLine
 10
66.24221160750221
 20
22.72499980965628
 30
0.0
 11
66.24221160750221
 21
7.674999809656291
 31
0.0
  0
LINE
  5
9E4
330
1A
100
AcDbEntity
  8
ZUWAKU
100
AcDbLine
 10
69.04221160750228
 20
7.674999809656291
 30
0.0
 11
69.04221160750228
 21
22.72499980965628
 31
0.0
  0
LINE
  5
9E5
330
1A
100
AcDbEntity
  8
ZUWAKU
100
AcDbLine
 10
61.34221160750223
 20
22.72499980965628
 30
0.0
 11
61.34221160750223
 21
10.99999980965628
 31
0.0
  0
LINE
  5
9E6
330
1A
100
AcDbEntity
  8
ZUWAKU
100
AcDbLine
 10
64.1422116075023
 20
9.94999980965629
 30
0.0
 11
64.1422116075023
 21
22.72499980965628
 31
0.0
  0
LINE
  5
9E7
330
1A
100
AcDbEntity
  8
ZUWAKU
100
AcDbLine
 10
79.1266290007095
 20
29.99999980965629
 30
0.0
 11
79.1266290007095
 21
0.7999998096563559
 31
0.0
  0
LINE
  5
9E8
330
1A
100
AcDbEntity
  8
ZUWAKU
100
AcDbLine
 10
79.52662900070937
 20
29.99999980965629
 30
0.0
 11
79.52662900070959
 21
0.7999998096563559
 31
0.0
  0
LINE
  5
9E9
330
1A
100
AcDbEntity
  8
ZUWAKU
100
AcDbLine
 10
79.32662900070932
 20
29.99999980965629
 30
0.0
 11
79.32662900070955
 21
0.7999998096563559
 31
0.0
  0
LINE
  5
9EA
330
1A
100
AcDbEntity
  8
ZUWAKU
100
AcDbLine
 10
57.84221160750224
 20
7.149999809656293
 30
0.0
 11
61.34221160750223
 21
7.149999809656293
 31
0.0
  0
LINE
  5
9EB
330
1A
100
AcDbEntity
  8
ZUWAKU
100
AcDbLine
 10
60.29221160750228
 20
9.94999980965629
 30
0.0
 11
58.8922116075023
 21
9.94999980965629
 31
0.0
  0
LINE
  5
9EC
330
1A
100
AcDbEntity
  8
ZUWAKU
100
AcDbLine
 10
41.21721160750223
 20
7.149999809656293
 30
0.0
 11
42.96721160750223
 21
7.149999809656293
 31
0.0
  0
LINE
  5
9ED
330
1A
100
AcDbEntity
  8
ZUWAKU
100
AcDbLine
 10
35.6763465448181
 20
7.516905841489318
 30
0.0
 11
33.80807667018632
 21
13.43309377782325
 31
0.0
  0
ARC
  5
9EE
330
1A
100
AcDbEntity
  8
ZUWAKU
100
AcDbCircle
 10
33.16721160750228
 20
13.27499980965629
 30
0.0
 40
0.525
100
AcDbArc
 50
90.0
 51
180.0
  0
ARC
  5
9EF
330
1A
100
AcDbEntity
  8
ZUWAKU
100
AcDbCircle
 10
33.30744577099096
 20
13.27499980965629
 30
0.0
 40
0.525
100
AcDbArc
 50
17.52556837372303
 51
90.0
  0
ARC
  5
9F0
330
1A
100
AcDbEntity
  8
ZUWAKU
100
AcDbCircle
 10
30.36721160750221
 20
7.674999809656291
 30
0.0
 40
0.525
100
AcDbArc
 50
180.0
 51
270.0
  0
ARC
  5
9F1
330
1A
100
AcDbEntity
  8
ZUWAKU
100
AcDbCircle
 10
26.86721160750221
 20
9.424999809656291
 30
0.0
 40
0.525
100
AcDbArc
 50
0.0
 51
90.0
  0
ARC
  5
9F2
330
1A
100
AcDbEntity
  8
ZUWAKU
100
AcDbCircle
 10
26.86721160750221
 20
7.674999809656291
 30
0.0
 40
0.525
100
AcDbArc
 50
270.0
 51
0.0
  0
LINE
  5
9F3
330
1A
100
AcDbEntity
  8
ZUWAKU
100
AcDbLine
 10
27.3922116075023
 20
9.424999809656291
 30
0.0
 11
27.3922116075023
 21
7.674999809656291
 31
0.0
  0
LINE
  5
9F4
330
1A
100
AcDbEntity
  8
ZUWAKU
100
AcDbLine
 10
32.6422116075023
 20
7.674999809656291
 30
0.0
 11
32.6422116075023
 21
13.27499980965629
 31
0.0
  0
ARC
  5
9F5
330
1A
100
AcDbEntity
  8
ZUWAKU
100
AcDbCircle
 10
32.11721160750221
 20
7.674999809656291
 30
0.0
 40
0.525
100
AcDbArc
 50
270.0
 51
0.0
  0
LINE
  5
9F6
330
1A
100
AcDbEntity
  8
ZUWAKU
100
AcDbLine
 10
30.36721160750221
 20
7.149999809656293
 30
0.0
 11
32.11721160750221
 21
7.149999809656293
 31
0.0
  0
ARC
  5
9F7
330
1A
100
AcDbEntity
  8
ZUWAKU
100
AcDbCircle
 10
33.16721160750228
 20
17.12499980965629
 30
0.0
 40
0.525
100
AcDbArc
 50
180.0
 51
270.0
  0
LINE
  5
9F8
330
1A
100
AcDbEntity
  8
ZUWAKU
100
AcDbLine
 10
33.16721160750228
 20
13.79999980965629
 30
0.0
 11
33.30744577099096
 21
13.79999980965629
 31
0.0
  0
LINE
  5
9F9
330
1A
100
AcDbEntity
  8
ZUWAKU
100
AcDbLine
 10
33.30744577099096
 20
16.59999980965628
 30
0.0
 11
33.16721160750228
 21
16.59999980965628
 31
0.0
  0
ARC
  5
9FA
330
1A
100
AcDbEntity
  8
ZUWAKU
100
AcDbCircle
 10
33.30744577099096
 20
17.12499980965629
 30
0.0
 40
0.525
100
AcDbArc
 50
270.0
 51
342.4744316262769
  0
ARC
  5
9FB
330
1A
100
AcDbEntity
  8
ZUWAKU
100
AcDbCircle
 10
36.17697744401357
 20
7.674999809656291
 30
0.0
 40
0.525
100
AcDbArc
 50
197.525568373723
 51
270.0
  0
LINE
  5
9FC
330
1A
100
AcDbEntity
  8
ZUWAKU
100
AcDbLine
 10
38.37649772281804
 20
7.833093777823265
 30
0.0
 11
36.05010634434438
 21
15.19999980965631
 31
0.0
  0
ARC
  5
9FD
330
1A
100
AcDbEntity
  8
ZUWAKU
100
AcDbCircle
 10
37.87586682362257
 20
7.674999809656291
 30
0.0
 40
0.525
100
AcDbArc
 50
270.0
 51
17.52556837372303
  0
LINE
  5
9FE
330
1A
100
AcDbEntity
  8
ZUWAKU
100
AcDbLine
 10
36.17697744401357
 20
7.149999809656293
 30
0.0
 11
37.87586682362257
 21
7.149999809656293
 31
0.0
  0
ARC
  5
9FF
330
1A
100
AcDbEntity
  8
ZUWAKU
100
AcDbCircle
 10
41.21721160750223
 20
7.674999809656291
 30
0.0
 40
0.525
100
AcDbArc
 50
180.0
 51
270.0
  0
ARC
  5
A00
330
1A
100
AcDbEntity
  8
ZUWAKU
100
AcDbCircle
 10
50.1422116075023
 20
9.94999980965629
 30
0.0
 40
2.799999999999999
100
AcDbArc
 50
270.0
 51
0.0
  0
ARC
  5
A01
330
1A
100
AcDbEntity
  8
ZUWAKU
100
AcDbCircle
 10
57.84221160750224
 20
9.94999980965629
 30
0.0
 40
2.799999999999999
100
AcDbArc
 50
180.0
 51
270.0
  0
LINE
  5
A02
330
1A
100
AcDbEntity
  8
ZUWAKU
100
AcDbLine
 10
51.71206008848582
 20
14.73505031599511
 30
0.0
 11
48.80226211384104
 21
17.64484829063979
 31
0.0
  0
LINE
  5
A03
330
1A
100
AcDbEntity
  8
ZUWAKU
100
AcDbLine
 10
46.82236312651878
 20
15.66494930331747
 30
0.0
 11
49.73216110116346
 21
12.75515132867281
 31
0.0
  0
LINE
  5
A04
330
1A
100
AcDbEntity
  8
ZUWAKU
100
AcDbLine
 10
46.6422116075023
 20
7.149999809656293
 30
0.0
 11
50.1422116075023
 21
7.149999809656293
 31
0.0
  0
LINE
  5
A05
330
1A
100
AcDbEntity
  8
ZUWAKU
100
AcDbLine
 10
46.6422116075023
 20
9.94999980965629
 30
0.0
 11
49.61721160750221
 21
9.94999980965629
 31
0.0
  0
ARC
  5
A06
330
1A
100
AcDbEntity
  8
ZUWAKU
100
AcDbCircle
 10
46.6422116075023
 20
9.424999809656291
 30
0.0
 40
0.525
100
AcDbArc
 50
90.0
 51
180.0
  0
ARC
  5
A07
330
1A
100
AcDbEntity
  8
ZUWAKU
100
AcDbCircle
 10
42.96721160750223
 20
7.674999809656291
 30
0.0
 40
0.525
100
AcDbArc
 50
270.0
 51
0.0
  0
ARC
  5
A08
330
1A
100
AcDbEntity
  8
ZUWAKU
100
AcDbCircle
 10
46.6422116075023
 20
7.674999809656291
 30
0.0
 40
0.525
100
AcDbArc
 50
180.0
 51
270.0
  0
LINE
  5
A09
330
1A
100
AcDbEntity
  8
ZUWAKU
100
AcDbLine
 10
46.11721160750221
 20
7.674999809656291
 30
0.0
 11
46.11721160750221
 21
9.424999809656291
 31
0.0
  0
ARC
  5
A0A
330
1A
100
AcDbEntity
  8
ZUWAKU
100
AcDbCircle
 10
49.61721160750221
 20
10.47499980965629
 30
0.0
 40
0.525
100
AcDbArc
 50
270.0
 51
0.0
  0
ARC
  5
A0B
330
1A
100
AcDbEntity
  8
ZUWAKU
100
AcDbCircle
 10
48.74221160750221
 20
11.76520183501163
 30
0.0
 40
1.399999999999999
100
AcDbArc
 50
0.0
 51
45.0
  0
LINE
  5
A0C
330
1A
100
AcDbEntity
  8
ZUWAKU
100
AcDbLine
 10
50.1422116075023
 20
10.47499980965629
 30
0.0
 11
50.1422116075023
 21
11.76520183501163
 31
0.0
  0
ARC
  5
A0D
330
1A
100
AcDbEntity
  8
ZUWAKU
100
AcDbCircle
 10
58.8922116075023
 20
10.99999980965628
 30
0.0
 40
1.049999999999999
100
AcDbArc
 50
180.0
 51
270.0
  0
ARC
  5
A0E
330
1A
100
AcDbEntity
  8
ZUWAKU
100
AcDbCircle
 10
48.74221160750221
 20
11.76520183501159
 30
0.0
 40
4.199999999999999
100
AcDbArc
 50
0.0
 51
45.0
  0
LINE
  5
A0F
330
1A
100
AcDbEntity
  8
ZUWAKU
100
AcDbLine
 10
52.94221160750225
 20
9.94999980965629
 30
0.0
 11
52.94221160750225
 21
11.76520183501163
 31
0.0
  0
ARC
  5
A10
330
1A
100
AcDbEntity
  8
ZUWAKU
100
AcDbCircle
 10
61.34221160750223
 20
9.94999980965629
 30
0.0
 40
2.799999999999999
100
AcDbArc
 50
270.0
 51
0.0
  0
LINE
  5
A11
330
1A
100
AcDbEntity
  8
ZUWAKU
100
AcDbLine
 10
66.7672116075023
 20
7.149999809656293
 30
0.0
 11
68.5172116075023
 21
7.149999809656293
 31
0.0
  0
ARC
  5
A12
330
1A
100
AcDbEntity
  8
ZUWAKU
100
AcDbCircle
 10
60.29221160750228
 20
10.99999980965628
 30
0.0
 40
1.049999999999999
100
AcDbArc
 50
270.0
 51
0.0
  0
ARC
  5
A13
330
1A
100
AcDbEntity
  8
ZUWAKU
100
AcDbCircle
 10
66.7672116075023
 20
7.674999809656291
 30
0.0
 40
0.525
100
AcDbArc
 50
180.0
 51
270.0
  0
ARC
  5
A14
330
1A
100
AcDbEntity
  8
ZUWAKU
100
AcDbCircle
 10
68.5172116075023
 20
7.674999809656291
 30
0.0
 40
0.525
100
AcDbArc
 50
270.0
 51
0.0
  0
LINE
  5
A15
330
1A
100
AcDbEntity
  8
ZUWAKU
100
AcDbLine
 10
42.96721160750223
 20
23.24999980965629
 30
0.0
 11
41.21721160750223
 21
23.24999980965629
 31
0.0
  0
LINE
  5
A16
330
1A
100
AcDbEntity
  8
ZUWAKU
100
AcDbLine
 10
27.3922116075023
 20
22.72499980965628
 30
0.0
 11
27.3922116075023
 21
20.97499980965629
 31
0.0
  0
ARC
  5
A17
330
1A
100
AcDbEntity
  8
ZUWAKU
100
AcDbCircle
 10
26.86721160750221
 20
20.97499980965629
 30
0.0
 40
0.525
100
AcDbArc
 50
270.0
 51
0.0
  0
ARC
  5
A18
330
1A
100
AcDbEntity
  8
ZUWAKU
100
AcDbCircle
 10
30.36721160750221
 20
22.72499980965628
 30
0.0
 40
0.525
100
AcDbArc
 50
90.0
 51
180.0
  0
ARC
  5
A19
330
1A
100
AcDbEntity
  8
ZUWAKU
100
AcDbCircle
 10
26.86721160750221
 20
22.72499980965628
 30
0.0
 40
0.525
100
AcDbArc
 50
0.0
 51
90.0
  0
LINE
  5
A1A
330
1A
100
AcDbEntity
  8
ZUWAKU
100
AcDbLine
 10
32.11721160750221
 20
23.24999980965629
 30
0.0
 11
30.36721160750221
 21
23.24999980965629
 31
0.0
  0
ARC
  5
A1B
330
1A
100
AcDbEntity
  8
ZUWAKU
100
AcDbCircle
 10
32.11721160750221
 20
22.72499980965628
 30
0.0
 40
0.525
100
AcDbArc
 50
0.0
 51
90.0
  0
ARC
  5
A1C
330
1A
100
AcDbEntity
  8
ZUWAKU
100
AcDbCircle
 10
36.17697744401357
 20
22.72499980965628
 30
0.0
 40
0.525
100
AcDbArc
 50
90.0
 51
162.4744316262769
  0
LINE
  5
A1D
330
1A
100
AcDbEntity
  8
ZUWAKU
100
AcDbLine
 10
38.37649772281804
 20
22.56690584148932
 30
0.0
 11
37.31485808968022
 21
19.20504700321972
 31
0.0
  0
ARC
  5
A1E
330
1A
100
AcDbEntity
  8
ZUWAKU
100
AcDbCircle
 10
37.87586682362257
 20
22.72499980965628
 30
0.0
 40
0.525
100
AcDbArc
 50
342.4744316262769
 51
90.0
  0
LINE
  5
A1F
330
1A
100
AcDbEntity
  8
ZUWAKU
100
AcDbLine
 10
36.17697744401357
 20
23.24999980965629
 30
0.0
 11
37.87586682362257
 21
23.24999980965629
 31
0.0
  0
ARC
  5
A20
330
1A
100
AcDbEntity
  8
ZUWAKU
100
AcDbCircle
 10
41.21721160750223
 20
22.72499980965628
 30
0.0
 40
0.525
100
AcDbArc
 50
90.0
 51
180.0
  0
LINE
  5
A21
330
1A
100
AcDbEntity
  8
ZUWAKU
100
AcDbLine
 10
51.8922116075023
 20
20.44999980965628
 30
0.0
 11
48.91721160750228
 21
20.44999980965628
 31
0.0
  0
LINE
  5
A22
330
1A
100
AcDbEntity
  8
ZUWAKU
100
AcDbLine
 10
48.39221160750231
 20
23.24999980965629
 30
0.0
 11
51.8922116075023
 21
23.24999980965629
 31
0.0
  0
ARC
  5
A23
330
1A
100
AcDbEntity
  8
ZUWAKU
100
AcDbCircle
 10
48.39221160750231
 20
20.44999980965628
 30
0.0
 40
2.799999999999999
100
AcDbArc
 50
90.0
 51
180.0
  0
LINE
  5
A24
330
1A
100
AcDbEntity
  8
ZUWAKU
100
AcDbLine
 10
45.59221160750223
 20
20.44999980965628
 30
0.0
 11
45.59221160750223
 21
18.63479778430095
 31
0.0
  0
ARC
  5
A25
330
1A
100
AcDbEntity
  8
ZUWAKU
100
AcDbCircle
 10
42.96721160750223
 20
22.72499980965628
 30
0.0
 40
0.525
100
AcDbArc
 50
0.0
 51
90.0
  0
LINE
  5
A26
330
1A
100
AcDbEntity
  8
ZUWAKU
100
AcDbLine
 10
48.39221160750231
 20
19.92499980965629
 30
0.0
 11
48.39221160750231
 21
18.63479778430095
 31
0.0
  0
ARC
  5
A27
330
1A
100
AcDbEntity
  8
ZUWAKU
100
AcDbCircle
 10
48.91721160750228
 20
19.92499980965629
 30
0.0
 40
0.525
100
AcDbArc
 50
90.0
 51
180.0
  0
LINE
  5
A28
330
1A
100
AcDbEntity
  8
ZUWAKU
100
AcDbLine
 10
52.41721160750228
 20
22.72499980965628
 30
0.0
 11
52.41721160750228
 21
20.97499980965629
 31
0.0
  0
ARC
  5
A29
330
1A
100
AcDbEntity
  8
ZUWAKU
100
AcDbCircle
 10
51.8922116075023
 20
20.97499980965629
 30
0.0
 40
0.525
100
AcDbArc
 50
270.0
 51
0.0
  0
ARC
  5
A2A
330
1A
100
AcDbEntity
  8
ZUWAKU
100
AcDbCircle
 10
51.8922116075023
 20
22.72499980965628
 30
0.0
 40
0.525
100
AcDbArc
 50
0.0
 51
90.0
  0
LINE
  5
A2B
330
1A
100
AcDbEntity
  8
ZUWAKU
100
AcDbLine
 10
57.31721160750225
 20
23.24999980965629
 30
0.0
 11
55.56721160750226
 21
23.24999980965629
 31
0.0
  0
ARC
  5
A2C
330
1A
100
AcDbEntity
  8
ZUWAKU
100
AcDbCircle
 10
55.56721160750226
 20
22.72499980965628
 30
0.0
 40
0.525
100
AcDbArc
 50
90.0
 51
180.0
  0
ARC
  5
A2D
330
1A
100
AcDbEntity
  8
ZUWAKU
100
AcDbCircle
 10
57.31721160750225
 20
22.72499980965628
 30
0.0
 40
0.525
100
AcDbArc
 50
0.0
 51
90.0
  0
LINE
  5
A2E
330
1A
100
AcDbEntity
  8
ZUWAKU
100
AcDbLine
 10
68.5172116075023
 20
23.24999980965629
 30
0.0
 11
66.7672116075023
 21
23.24999980965629
 31
0.0
  0
ARC
  5
A2F
330
1A
100
AcDbEntity
  8
ZUWAKU
100
AcDbCircle
 10
61.86721160750221
 20
22.72499980965628
 30
0.0
 40
0.525
100
AcDbArc
 50
90.0
 51
180.0
  0
LINE
  5
A30
330
1A
100
AcDbEntity
  8
ZUWAKU
100
AcDbLine
 10
63.61721160750221
 20
23.24999980965629
 30
0.0
 11
61.86721160750221
 21
23.24999980965629
 31
0.0
  0
ARC
  5
A31
330
1A
100
AcDbEntity
  8
ZUWAKU
100
AcDbCircle
 10
63.61721160750221
 20
22.72499980965628
 30
0.0
 40
0.525
100
AcDbArc
 50
0.0
 51
90.0
  0
ARC
  5
A32
330
1A
100
AcDbEntity
  8
ZUWAKU
100
AcDbCircle
 10
66.7672116075023
 20
22.72499980965628
 30
0.0
 40
0.525
100
AcDbArc
 50
90.0
 51
180.0
  0
ARC
  5
A33
330
1A
100
AcDbEntity
  8
ZUWAKU
100
AcDbCircle
 10
68.5172116075023
 20
22.72499980965628
 30
0.0
 40
0.525
100
AcDbArc
 50
0.0
 51
90.0
  0
TEXT
  5
A34
330
1A
100
AcDbEntity
  8
MOJI
100
AcDbText
 10
239.8272021335722
 20
18.00492086706367
 30
0.0
 40
5.599999999999999
  1
ステンレス金具正面打（受）ストロング高強度金具
 41
0.9
  7
ｽﾀｲﾙ1
100
AcDbText
  0
TEXT
  5
A35
330
1A
100
AcDbEntity
  8
MOJI
100
AcDbText
 10
239.8272021335722
 20
3.204920867063709
 30
0.0
 40
5.599999999999999
  1
Ｘ７０Ｕ－４寸－３０m/m（1寸）
 41
0.9
  7
ｽﾀｲﾙ1
100
AcDbText
  0
LINE
  5
A36
330
1A
100
AcDbEntity
  8
ZUWAKU
100
AcDbLine
 10
208.4466007427888
 20
29.99999980965629
 30
0.0
 11
208.4466007427891
 21
0.7999998096563559
 31
0.0
  0
LINE
  5
A37
330
1A
100
AcDbEntity
  8
ZUWAKU
100
AcDbLine
 10
208.6466007427889
 20
29.99999980965629
 30
0.0
 11
208.6466007427891
 21
0.7999998096563559
 31
0.0
  0
LINE
  5
A38
330
1A
100
AcDbEntity
  8
ZUWAKU
100
AcDbLine
 10
208.246600742789
 20
29.99999980965629
 30
0.0
 11
208.246600742789
 21
0.7999998096563559
 31
0.0
  0
TEXT
  5
A39
330
1A
100
AcDbEntity
  8
ZUWAKU
100
AcDbText
 10
209.7240457649986
 20
9.655356348041905
 30
0.0
 40
4.0
  1
サイズ
 41
0.9
  7
ｽﾀｲﾙ1
100
AcDbText
  0
TEXT
  5
A3A
330
1A
100
AcDbEntity
  8
ZUWAKU
100
AcDbText
 10
209.7240457649984
 20
24.05535634804186
 30
0.0
 40
4.0
  1
品名
 41
0.9
  7
ｽﾀｲﾙ1
100
AcDbText
  0
TEXT
  5
A3B
330
1A
100
AcDbEntity
  8
ZUWAKU
100
AcDbText
 10
658.2039371400234
 20
18.00492086706367
 30
0.0
 40
5.599999999999999
  1
　　．　　．　　
 41
0.9
  7
ｽﾀｲﾙ1
100
AcDbText
  0
LINE
  5
A3C
330
1A
100
AcDbEntity
  8
ZUWAKU
100
AcDbLine
 10
648.8172019629253
 20
15.59999980965632
 30
0.0
 11
697.2490100012623
 21
15.59999980965632
 31
0.0
  0
LINE
  5
A3D
330
1A
100
AcDbEntity
  8
ZUWAKU
100
AcDbLine
 10
648.8172019629255
 20
15.39999980965632
 30
0.0
 11
697.2490100012623
 21
15.39999980965632
 31
0.0
  0
LINE
  5
A3E
330
1A
100
AcDbEntity
  8
ZUWAKU
100
AcDbLine
 10
648.8172019629253
 20
15.19999980965631
 30
0.0
 11
697.2490100012623
 21
15.19999980965632
 31
0.0
  0
LINE
  5
A3F
330
1A
100
AcDbEntity
  8
ZUWAKU
100
AcDbLine
 10
505.199178950862
 20
15.59999980965632
 30
0.0
 11
552.5269552188335
 21
15.59999980965632
 31
0.0
  0
LINE
  5
A40
330
1A
100
AcDbEntity
  8
ZUWAKU
100
AcDbLine
 10
505.199178950862
 20
15.39999980965632
 30
0.0
 11
552.5269552188335
 21
15.39999980965632
 31
0.0
  0
LINE
  5
A41
330
1A
100
AcDbEntity
  8
ZUWAKU
100
AcDbLine
 10
505.199178950862
 20
15.19999980965632
 30
0.0
 11
552.5269552188335
 21
15.19999980965632
 31
0.0
  0
LINE
  5
A42
330
1A
100
AcDbEntity
  8
ZUWAKU
100
AcDbLine
 10
504.7991789508621
 20
29.99999980965629
 30
0.0
 11
504.7991789508621
 21
0.7999998096563559
 31
0.0
  0
LINE
  5
A43
330
1A
100
AcDbEntity
  8
ZUWAKU
100
AcDbLine
 10
505.199178950862
 20
29.99999980965629
 30
0.0
 11
505.1991789508622
 21
0.7999998096563559
 31
0.0
  0
LINE
  5
A44
330
1A
100
AcDbEntity
  8
ZUWAKU
100
AcDbLine
 10
504.9991789508619
 20
29.99999980965629
 30
0.0
 11
504.9991789508622
 21
0.7999998096563559
 31
0.0
  0
TEXT
  5
A45
330
1A
100
AcDbEntity
  8
MOJI
100
AcDbText
 10
528.0409074250339
 20
18.00492086706367
 30
0.0
 40
5.599999999999999
  1
Ａ３
 41
0.9
  7
ｽﾀｲﾙ1
100
AcDbText
  0
LINE
  5
A46
330
1A
100
AcDbEntity
  8
ZUWAKU
100
AcDbLine
 10
447.4243634237125
 20
29.99999980965629
 30
0.0
 11
447.4243634237125
 21
0.7999998096563559
 31
0.0
  0
LINE
  5
A47
330
1A
100
AcDbEntity
  8
ZUWAKU
100
AcDbLine
 10
447.8243634237124
 20
29.99999980965629
 30
0.0
 11
447.8243634237125
 21
0.7999998096563559
 31
0.0
  0
LINE
  5
A48
330
1A
100
AcDbEntity
  8
ZUWAKU
100
AcDbLine
 10
447.6243634237123
 20
29.99999980965629
 30
0.0
 11
447.6243634237126
 21
0.7999998096563559
 31
0.0
  0
TEXT
  5
A49
330
1A
100
AcDbEntity
  8
MOJI
100
AcDbText
 10
463.2464314437231
 20
11.94261753131627
 30
0.0
 40
5.599999999999999
  1
ＬＤ３３□
 41
0.9
  7
ｽﾀｲﾙ1
100
AcDbText
  0
TEXT
  5
A4A
330
1A
100
AcDbEntity
  8
ZUWAKU
100
AcDbText
 10
461.6981346806335
 20
2.9083290495455
 30
0.0
 40
3.0
  1
□には色品番が入ります
 41
0.9
  7
ｽﾀｲﾙ1
100
AcDbText
  0
TEXT
  5
A4B
330
1A
100
AcDbEntity
  8
ZUWAKU
100
AcDbText
 10
506.6766239730718
 20
9.655356348041905
 30
0.0
 40
4.0
  1
縮尺
 41
0.9
  7
ｽﾀｲﾙ1
100
AcDbText
  0
TEXT
  5
A4C
330
1A
100
AcDbEntity
  8
MOJI
100
AcDbText
 10
528.0409074250339
 20
3.204920867063709
 30
0.0
 40
5.599999999999999
  1
１/２
 41
0.9
  7
ｽﾀｲﾙ1
100
AcDbText
  0
TEXT
  5
A4D
330
1A
100
AcDbEntity
  8
ZUWAKU
100
AcDbText
 10
449.301808445922
 20
24.05535634804186
 30
0.0
 40
4.0
  1
品番
 41
0.9
  7
ｽﾀｲﾙ1
100
AcDbText
  0
TEXT
  5
A4E
330
1A
100
AcDbEntity
  8
ZUWAKU
100
AcDbText
 10
506.6766239730716
 20
24.05535634804186
 30
0.0
 40
4.0
  1
用紙
 41
0.9
  7
ｽﾀｲﾙ1
100
AcDbText
  0
LINE
  5
A4F
330
1A
100
AcDbEntity
  8
ZUWAKU
100
AcDbLine
 10
552.5269552188335
 20
29.99999980965629
 30
0.0
 11
552.5269552188335
 21
0.7999998096563559
 31
0.0
  0
LINE
  5
A50
330
1A
100
AcDbEntity
  8
ZUWAKU
100
AcDbLine
 10
552.9269552188334
 20
29.99999980965629
 30
0.0
 11
552.9269552188337
 21
0.7999998096563559
 31
0.0
  0
LINE
  5
A51
330
1A
100
AcDbEntity
  8
ZUWAKU
100
AcDbLine
 10
552.7269552188333
 20
29.99999980965629
 30
0.0
 11
552.7269552188336
 21
0.7999998096563559
 31
0.0
  0
LINE
  5
A52
330
1A
100
AcDbEntity
  8
ZUWAKU
100
AcDbLine
 10
648.4172019629256
 20
29.99999980965629
 30
0.0
 11
648.4172019629256
 21
0.7999998096563559
 31
0.0
  0
LINE
  5
A53
330
1A
100
AcDbEntity
  8
ZUWAKU
100
AcDbLine
 10
648.8172019629255
 20
29.99999980965629
 30
0.0
 11
648.8172019629257
 21
0.7999998096563559
 31
0.0
  0
LINE
  5
A54
330
1A
100
AcDbEntity
  8
ZUWAKU
100
AcDbLine
 10
648.6172019629255
 20
29.99999980965629
 30
0.0
 11
648.6172019629257
 21
0.7999998096563559
 31
0.0
  0
TEXT
  5
A55
330
1A
100
AcDbEntity
  8
ZUWAKU
100
AcDbText
 10
650.2946469851352
 20
24.05535634804186
 30
0.0
 40
4.0
  1
DATE
 41
0.9
  7
ｽﾀｲﾙ1
100
AcDbText
  0
TEXT
  5
A56
330
1A
100
AcDbEntity
  8
ZUWAKU
100
AcDbText
 10
708.5280836449649
 20
17.55383914534309
 30
0.0
 40
6.0
  1
積水化学工業株式会社
 41
0.9
  7
ｽﾀｲﾙ1
100
AcDbText
  0
LINE
  5
A57
330
1A
100
AcDbEntity
  8
ZUWAKU
100
AcDbLine
 10
697.8490100012622
 20
29.99999980965629
 30
0.0
 11
697.8490100012625
 21
0.7999998096563559
 31
0.0
  0
LINE
  5
A58
330
1A
100
AcDbEntity
  8
ZUWAKU
100
AcDbLine
 10
697.6490100012622
 20
29.99999980965629
 30
0.0
 11
697.6490100012624
 21
0.7999998096563559
 31
0.0
  0
LINE
  5
A59
330
1A
100
AcDbEntity
  8
ZUWAKU
100
AcDbLine
 10
697.4490100012624
 20
29.99999980965629
 30
0.0
 11
697.4490100012624
 21
0.7999998096563559
 31
0.0
  0
LINE
  5
A5A
330
1A
100
AcDbEntity
  8
ZUWAKU
100
AcDbLine
 10
697.2490100012623
 20
29.99999980965629
 30
0.0
 11
697.2490100012623
 21
0.7999998096563559
 31
0.0
  0
TEXT
  5
A5B
330
1A
100
AcDbEntity
  8
ZUWAKU
100
AcDbText
 10
708.5280836449649
 20
6.648840123510353
 30
0.0
 40
6.0
  1
建材事業部
 41
0.9
  7
ｽﾀｲﾙ1
100
AcDbText
  0
VIEWPORT
  5
22
330
17
100
AcDbEntity
 67
     1
  8
0
100
AcDbViewport
 10
313.6808219178082
 20
148.5
 30
0.0
 40
627.3616438356165
 41
297.0
 68
     2
 69
     1
1001
ACAD
1000
MVIEW
1002
{
1070
    16
1010
0.0
1020
0.0
1030
0.0
1010
0.0
1020
0.0
1030
1.0
1040
0.0
1040
297.0
1040
313.6808219178082
1040
148.5
1040
50.0
1040
0.0
1040
0.0
1070
     0
1070
   100
1070
     1
1070
     0
1070
     0
1070
     0
1070
     0
1070
     0
1040
0.0
1040
0.0
1040
0.0
1040
1.0
1040
1.0
1040
10.0
1040
10.0
1070
     0
1002
{
1002
}
1002
}
  0
VIEWPORT
  5
64
330
17
100
AcDbEntity
 67
     1
  8
VIEWPORT
100
AcDbViewport
 10
210.0
 20
148.5
 30
0.0
 40
420.0
 41
297.0
 68
     1
 69
     2
1001
ACAD
1000
MVIEW
1002
{
1070
    16
1010
0.0
1020
0.0
1030
0.0
1010
0.0
1020
0.0
1030
1.0
1040
0.0
1040
605.8799999999998
1040
420.0
1040
297.0
1040
50.0
1040
0.0
1040
0.0
1070
     0
1070
   100
1070
     1
1070
     0
1070
     0
1070
     0
1070
     0
1070
     0
1040
0.0
1040
0.0
1040
0.0
1040
10.0
1040
10.0
1040
0.0
1040
0.0
1070
     0
1002
{
1002
}
1002
}
  0
ENDSEC
  0
SECTION
  2
OBJECTS
  0
DICTIONARY
  5
C
330
0
100
AcDbDictionary
  3
ACAD_GROUP
350
D
  3
ACAD_LAYOUT
350
87A
  3
ACAD_MLINESTYLE
350
E
  3
ACAD_PLOTSETTINGS
350
87B
  3
ACAD_PLOTSTYLENAME
350
878
  3
ACDBHEADERROUNDTRIPXREC
350
A63
  0
DICTIONARY
  5
8A9
330
1A
100
AcDbDictionary
280
     1
  3
ACAD_LAYOUTSELFREF
360
A85
  0
DICTIONARY
  5
8A7
330
17
100
AcDbDictionary
280
     1
  3
ACAD_LAYOUTSELFREF
360
A84
  0
DICTIONARY
  5
D
102
{ACAD_REACTORS
330
C
102
}
330
C
100
AcDbDictionary
  0
DICTIONARY
  5
87A
102
{ACAD_REACTORS
330
C
102
}
330
C
100
AcDbDictionary
  0
DICTIONARY
  5
E
102
{ACAD_REACTORS
330
C
102
}
330
C
100
AcDbDictionary
  3
STANDARD
350
13
  0
DICTIONARY
  5
87B
102
{ACAD_REACTORS
330
C
102
}
330
C
100
AcDbDictionary
  0
ACDBDICTIONARYWDFLT
  5
878
102
{ACAD_REACTORS
330
C
102
}
330
C
100
AcDbDictionary
281
     1
  3
Normal
350
879
100
AcDbDictionaryWithDefault
340
879
1001
ACAD
1000
TREAT_AS_HARD
1070
     0
1000
TREAT_AS_HARD
1070
     0
  0
DICTIONARY
  5
A63
102
{ACAD_REACTORS
330
C
102
}
330
C
100
AcDbDictionary
  3
TSTACKALIGN
350
A64
  3
TSTACKSIZE
350
A65
  3
HYPERLINKBASE
350
A66
  3
STYLESHEET
350
A67
  3
LAYOUTDICT
350
A68
  3
PLOTSETDICT
350
A69
  3
PLOTSTYLNAMDICT
350
A6A
  3
LWETCUNION
350
A6B
  3
INSUNITS
350
A6C
  3
CEPSNTYPE
350
A6D
  3
FINGERPRINTGUID
350
A6E
  3
VERSIONGUID
350
A6F
  3
PSVPSCALE
350
A70
  3
DIMSTYLEDATA
350
A71
  3
PUCSORTHOREF
350
A72
  3
PUCSORTHOVIEW
350
A73
  3
PUCSBASE
350
A74
  3
PUCSORGTOP
350
A75
  3
PUCSORGBOTTOM
350
A76
  3
PUCSORGLEFT
350
A77
  3
PUCSORGRIGHT
350
A78
  3
PUCSORGFRONT
350
A79
  3
PUCSORGBACK
350
A7A
  3
UCSORTHOREF
350
A7B
  3
UCSORTHOVIEW
350
A7C
  3
UCSBASE
350
A7D
  3
UCSORGTOP
350
A7E
  3
UCSORGBOTTOM
350
A7F
  3
UCSORGLEFT
350
A80
  3
UCSORGRIGHT
350
A81
  3
UCSORGFRONT
350
A82
  3
UCSORGBACK
350
A83
  0
XRECORD
  5
A85
102
{ACAD_REACTORS
330
8A9
102
}
330
8A9
100
AcDbXrecord
340
1A
  0
XRECORD
  5
A84
102
{ACAD_REACTORS
330
8A7
102
}
330
8A7
100
AcDbXrecord
340
17
  0
MLINESTYLE
  5
13
102
{ACAD_REACTORS
330
E
102
}
330
E
100
AcDbMlineStyle
  2
STANDARD
 70
     0
  3

 62
     0
 51
90.0
 52
90.0
 71
     2
 49
0.5
 62
   256
  6
BYLAYER
 49
-0.5
 62
   256
  6
BYLAYER
  0
ACDBPLACEHOLDER
  5
879
102
{ACAD_REACTORS
330
878
102
}
330
878
100
AcDbPlaceHolder
280
     0
  0
XRECORD
  5
A64
102
{ACAD_REACTORS
330
A63
102
}
330
A63
100
AcDbXrecord
 90
        1
  0
XRECORD
  5
A65
102
{ACAD_REACTORS
330
A63
102
}
330
A63
100
AcDbXrecord
 90
       70
  0
XRECORD
  5
A66
102
{ACAD_REACTORS
330
A63
102
}
330
A63
100
AcDbXrecord
  1

  0
XRECORD
  5
A67
102
{ACAD_REACTORS
330
A63
102
}
330
A63
100
AcDbXrecord
  1
systemprinter.ctb
  0
XRECORD
  5
A68
102
{ACAD_REACTORS
330
A63
102
}
330
A63
100
AcDbXrecord
340
87A
  0
XRECORD
  5
A69
102
{ACAD_REACTORS
330
A63
102
}
330
A63
100
AcDbXrecord
340
87B
  0
XRECORD
  5
A6A
102
{ACAD_REACTORS
330
A63
102
}
330
A63
100
AcDbXrecord
340
878
  0
XRECORD
  5
A6B
102
{ACAD_REACTORS
330
A63
102
}
330
A63
100
AcDbXrecord
 90
    10781
  0
XRECORD
  5
A6C
102
{ACAD_REACTORS
330
A63
102
}
330
A63
100
AcDbXrecord
 90
        0
  0
XRECORD
  5
A6D
102
{ACAD_REACTORS
330
A63
102
}
330
A63
100
AcDbXrecord
 90
        0
  0
XRECORD
  5
A6E
102
{ACAD_REACTORS
330
A63
102
}
330
A63
100
AcDbXrecord
  1
{334CC0FA-96F3-4C02-B173-26762DA5E7F7}
  0
XRECORD
  5
A6F
102
{ACAD_REACTORS
330
A63
102
}
330
A63
100
AcDbXrecord
  1
{0BD77196-DA39-4D5D-A40D-6F7009025348}
  0
XRECORD
  5
A70
102
{ACAD_REACTORS
330
A63
102
}
330
A63
100
AcDbXrecord
 40
0.0
  0
XRECORD
  5
A71
102
{ACAD_REACTORS
330
A63
102
}
330
A63
100
AcDbXrecord
1000
DSTYLE
1002
{
1070
   341
340
6D
1070
   343
340
6D
1070
   344
340
6D
1070
   371
 70
    -1
1070
   372
 70
    -1
1002
}
  0
XRECORD
  5
A72
102
{ACAD_REACTORS
330
A63
102
}
330
A63
100
AcDbXrecord
340
0
  0
XRECORD
  5
A73
102
{ACAD_REACTORS
330
A63
102
}
330
A63
100
AcDbXrecord
 70
     0
  0
XRECORD
  5
A74
102
{ACAD_REACTORS
330
A63
102
}
330
A63
100
AcDbXrecord
340
0
  0
XRECORD
  5
A75
102
{ACAD_REACTORS
330
A63
102
}
330
A63
100
AcDbXrecord
 10
0.0
 20
0.0
 30
0.0
  0
XRECORD
  5
A76
102
{ACAD_REACTORS
330
A63
102
}
330
A63
100
AcDbXrecord
 10
0.0
 20
0.0
 30
0.0
  0
XRECORD
  5
A77
102
{ACAD_REACTORS
330
A63
102
}
330
A63
100
AcDbXrecord
 10
0.0
 20
0.0
 30
0.0
  0
XRECORD
  5
A78
102
{ACAD_REACTORS
330
A63
102
}
330
A63
100
AcDbXrecord
 10
0.0
 20
0.0
 30
0.0
  0
XRECORD
  5
A79
102
{ACAD_REACTORS
330
A63
102
}
330
A63
100
AcDbXrecord
 10
0.0
 20
0.0
 30
0.0
  0
XRECORD
  5
A7A
102
{ACAD_REACTORS
330
A63
102
}
330
A63
100
AcDbXrecord
 10
0.0
 20
0.0
 30
0.0
  0
XRECORD
  5
A7B
102
{ACAD_REACTORS
330
A63
102
}
330
A63
100
AcDbXrecord
340
0
  0
XRECORD
  5
A7C
102
{ACAD_REACTORS
330
A63
102
}
330
A63
100
AcDbXrecord
 70
     0
  0
XRECORD
  5
A7D
102
{ACAD_REACTORS
330
A63
102
}
330
A63
100
AcDbXrecord
340
0
  0
XRECORD
  5
A7E
102
{ACAD_REACTORS
330
A63
102
}
330
A63
100
AcDbXrecord
 10
0.0
 20
0.0
 30
0.0
  0
XRECORD
  5
A7F
102
{ACAD_REACTORS
330
A63
102
}
330
A63
100
AcDbXrecord
 10
0.0
 20
0.0
 30
0.0
  0
XRECORD
  5
A80
102
{ACAD_REACTORS
330
A63
102
}
330
A63
100
AcDbXrecord
 10
0.0
 20
0.0
 30
0.0
  0
XRECORD
  5
A81
102
{ACAD_REACTORS
330
A63
102
}
330
A63
100
AcDbXrecord
 10
0.0
 20
0.0
 30
0.0
  0
XRECORD
  5
A82
102
{ACAD_REACTORS
330
A63
102
}
330
A63
100
AcDbXrecord
 10
0.0
 20
0.0
 30
0.0
  0
XRECORD
  5
A83
102
{ACAD_REACTORS
330
A63
102
}
330
A63
100
AcDbXrecord
 10
0.0
 20
0.0
 30
0.0
  0
ENDSEC
  0
EOF
