  0
SECTION
  2
HEADER
  9
$ACADVER
  1
AC1012
  9
$DWGCODEPAGE
  3
dos932
  9
$INSBASE
 10
0.0
 20
0.0
 30
0.0
  9
$EXTMIN
 10
-0.0256328098773793
 20
-0.0181260584133725
 30
-0.0015258207003583
  9
$EXTMAX
 10
797.6000995626677
 20
551.6452344880035
 30
0.0000000349246037
  9
$LIMMIN
 10
0.0
 20
0.0
  9
$LIMMAX
 10
840.0
 20
594.0
  9
$ORTHOMODE
 70
     1
  9
$REGENMODE
 70
     1
  9
$FILLMODE
 70
     1
  9
$QTEXTMODE
 70
     0
  9
$MIRRTEXT
 70
     1
  9
$DRAGMODE
 70
     2
  9
$LTSCALE
 40
2.0
  9
$OSMODE
 70
    63
  9
$ATTMODE
 70
     1
  9
$TEXTSIZE
 40
5.0
  9
$TRACEWID
 40
1.0
  9
$TEXTSTYLE
  7
STYLE1
  9
$CLAYER
  8
0
  9
$CELTYPE
  6
BYLAYER
  9
$CECOLOR
 62
   256
  9
$CELTSCALE
 40
1.0
  9
$DELOBJ
 70
     1
  9
$DISPSILH
 70
     0
  9
$DIMSCALE
 40
1.0
  9
$DIMASZ
 40
7.0
  9
$DIMEXO
 40
6.0
  9
$DIMDLI
 40
14.0
  9
$DIMRND
 40
0.0
  9
$DIMDLE
 40
0.0
  9
$DIMEXE
 40
3.0
  9
$DIMTP
 40
0.0
  9
$DIMTM
 40
0.0
  9
$DIMTXT
 40
6.0
  9
$DIMCEN
 40
150.0
  9
$DIMTSZ
 40
0.0
  9
$DIMTOL
 70
     0
  9
$DIMLIM
 70
     0
  9
$DIMTIH
 70
     0
  9
$DIMTOH
 70
     0
  9
$DIMSE1
 70
     0
  9
$DIMSE2
 70
     0
  9
$DIMTAD
 70
     3
  9
$DIMZIN
 70
     0
  9
$DIMBLK
  1

  9
$DIMASO
 70
     1
  9
$DIMSHO
 70
     1
  9
$DIMPOST
  1

  9
$DIMAPOST
  1

  9
$DIMALT
 70
     0
  9
$DIMALTD
 70
     2
  9
$DIMALTF
 40
25.4
  9
$DIMLFAC
 40
1.0
  9
$DIMTOFL
 70
     1
  9
$DIMTVP
 40
0.0
  9
$DIMTIX
 70
     0
  9
$DIMSOXD
 70
     0
  9
$DIMSAH
 70
     1
  9
$DIMBLK1
  1
OPEN
  9
$DIMBLK2
  1
OPEN
  9
$DIMSTYLE
  2
STANDARD
  9
$DIMCLRD
 70
   256
  9
$DIMCLRE
 70
   256
  9
$DIMCLRT
 70
   256
  9
$DIMTFAC
 40
1.0
  9
$DIMGAP
 40
2.0
  9
$DIMJUST
 70
     0
  9
$DIMSD1
 70
     0
  9
$DIMSD2
 70
     0
  9
$DIMTOLJ
 70
     1
  9
$DIMTZIN
 70
     0
  9
$DIMALTZ
 70
     0
  9
$DIMALTTZ
 70
     0
  9
$DIMFIT
 70
     3
  9
$DIMUPT
 70
     0
  9
$DIMUNIT
 70
     2
  9
$DIMDEC
 70
     0
  9
$DIMTDEC
 70
     0
  9
$DIMALTU
 70
     2
  9
$DIMALTTD
 70
     2
  9
$DIMTXSTY
  7
STANDARD
  9
$DIMAUNIT
 70
     0
  9
$LUNITS
 70
     2
  9
$LUPREC
 70
     4
  9
$SKETCHINC
 40
1.0
  9
$FILLETRAD
 40
20.0
  9
$AUNITS
 70
     0
  9
$AUPREC
 70
     0
  9
$MENU
  1
.
  9
$ELEVATION
 40
0.0
  9
$PELEVATION
 40
0.0
  9
$THICKNESS
 40
0.0
  9
$LIMCHECK
 70
     0
  9
$BLIPMODE
 70
     0
  9
$CHAMFERA
 40
20.0
  9
$CHAMFERB
 40
20.0
  9
$CHAMFERC
 40
40.0
  9
$CHAMFERD
 40
0.0
  9
$SKPOLY
 70
     0
  9
$TDCREATE
 40
2450994.354346065
  9
$TDUPDATE
 40
2456104.401207500
  9
$TDINDWG
 40
0.0333527778
  9
$TDUSRTIMER
 40
0.0333527778
  9
$USRTIMER
 70
     1
  9
$ANGBASE
 50
0.0
  9
$ANGDIR
 70
     0
  9
$PDMODE
 70
     1
  9
$PDSIZE
 40
0.0
  9
$PLINEWID
 40
0.0
  9
$COORDS
 70
     0
  9
$SPLFRAME
 70
     0
  9
$SPLINETYPE
 70
     6
  9
$SPLINESEGS
 70
     8
  9
$ATTDIA
 70
     0
  9
$ATTREQ
 70
     1
  9
$HANDLING
 70
 10241
  9
$HANDSEED
  5
B53
  9
$SURFTAB1
 70
     6
  9
$SURFTAB2
 70
     6
  9
$SURFTYPE
 70
     6
  9
$SURFU
 70
     6
  9
$SURFV
 70
     6
  9
$UCSNAME
  2

  9
$UCSORG
 10
0.0
 20
0.0
 30
0.0
  9
$UCSXDIR
 10
1.0
 20
0.0
 30
0.0
  9
$UCSYDIR
 10
0.0
 20
1.0
 30
0.0
  9
$PUCSNAME
  2

  9
$PUCSORG
 10
0.0
 20
0.0
 30
0.0
  9
$PUCSXDIR
 10
1.0
 20
0.0
 30
0.0
  9
$PUCSYDIR
 10
0.0
 20
1.0
 30
0.0
  9
$USERI1
 70
     0
  9
$USERI2
 70
     0
  9
$USERI3
 70
     0
  9
$USERI4
 70
     0
  9
$USERI5
 70
     0
  9
$USERR1
 40
0.0
  9
$USERR2
 40
0.0
  9
$USERR3
 40
0.0
  9
$USERR4
 40
0.0
  9
$USERR5
 40
0.0
  9
$WORLDVIEW
 70
     1
  9
$SHADEDGE
 70
     3
  9
$SHADEDIF
 70
    70
  9
$TILEMODE
 70
     1
  9
$MAXACTVP
 70
    16
  9
$PINSBASE
 10
0.0
 20
0.0
 30
0.0
  9
$PLIMCHECK
 70
     0
  9
$PEXTMIN
 10
0.0
 20
0.0
 30
0.0
  9
$PEXTMAX
 10
420.0
 20
297.0
 30
0.0
  9
$PLIMMIN
 10
0.0
 20
0.0
  9
$PLIMMAX
 10
420.0
 20
297.0
  9
$UNITMODE
 70
     0
  9
$VISRETAIN
 70
     0
  9
$PLINEGEN
 70
     0
  9
$PSLTSCALE
 70
     1
  9
$TREEDEPTH
 70
  3020
  9
$PICKSTYLE
 70
     1
  9
$CMLSTYLE
  2
STANDARD
  9
$CMLJUST
 70
     0
  9
$CMLSCALE
 40
1.0
  9
$SAVEIMAGES
 70
     1
  0
ENDSEC
  0
SECTION
  2
CLASSES
  0
CLASS
  1
ACDBDICTIONARYWDFLT
  2
AcDbDictionaryWithDefault
  3
AutoCAD 2000
 90
    32768
280
     0
281
     0
  0
CLASS
  1
ACDBPLACEHOLDER
  2
AcDbPlaceHolder
  3
AutoCAD 2000
 90
    32768
280
     0
281
     0
  0
CLASS
  1
LAYOUT
  2
AcDbLayout
  3
AutoCAD 2000
 90
    32768
280
     0
281
     0
  0
CLASS
  1
LONG_TRANSACTION
  2
AcDbLongTransaction
  3
AutoCAD 2000
 90
    32768
280
     0
281
     0
  0
CLASS
  1
LWPOLYLINE
  2
AcDbPolyline
  3
AutoCAD 2000
 90
    32768
280
     0
281
     1
  0
CLASS
  1
HATCH
  2
AcDbHatch
  3
AutoCAD 2000
 90
    32768
280
     0
281
     1
  0
CLASS
  1
XRECORD
  2
AcDbXrecord
  3
AutoCAD 2000
 90
    32768
280
     0
281
     0
  0
CLASS
  1
LONG_TRANSACTION
  2
AcDbLongTransaction
  3
AutoCAD 2000
 90
    32768
280
     0
281
     0
  0
CLASS
  1
LWPOLYLINE
  2
AcDbPolyline
  3
AutoCAD 2000
 90
    32768
280
     0
281
     1
  0
CLASS
  1
HATCH
  2
AcDbHatch
  3
AutoCAD 2000
 90
    32768
280
     0
281
     1
  0
CLASS
  1
XRECORD
  2
AcDbXrecord
  3
AutoCAD 2000
 90
    32768
280
     0
281
     0
  0
CLASS
  1
LONG_TRANSACTION
  2
AcDbLongTransaction
  3
AutoCAD 2000
 90
    32768
280
     0
281
     0
  0
CLASS
  1
LWPOLYLINE
  2
AcDbPolyline
  3
AutoCAD 2000
 90
    32768
280
     0
281
     1
  0
CLASS
  1
HATCH
  2
AcDbHatch
  3
AutoCAD 2000
 90
    32768
280
     0
281
     1
  0
CLASS
  1
XRECORD
  2
AcDbXrecord
  3
AutoCAD 2000
 90
    32768
280
     0
281
     0
  0
ENDSEC
  0
SECTION
  2
TABLES
  0
TABLE
  2
VPORT
  5
8
330
0
100
AcDbSymbolTable
 70
     3
  0
VPORT
  5
991
330
8
100
AcDbSymbolTableRecord
100
AcDbViewportTableRecord
  2
*ACTIVE
 70
     0
 10
0.0
 20
0.0
 11
1.0
 21
1.0
 12
419.9871835950613
 22
296.9909369707933
 13
0.0
 23
0.0
 14
5.0
 24
5.0
 15
0.0
 25
0.0
 16
0.0
 26
0.0
 36
1.0
 17
0.0
 27
0.0
 37
0.0
 40
598.55839199007
 41
1.535714285714285
 42
50.0
 43
0.0
 44
0.0
 50
0.0
 51
0.0
 71
     0
 72
   100
 73
     1
 74
     0
 75
     0
 76
     0
 77
     0
 78
     0
  0
ENDTAB
  0
TABLE
  2
LTYPE
  5
5
330
0
100
AcDbSymbolTable
 70
     3
  0
LTYPE
  5
14
330
5
100
AcDbSymbolTableRecord
100
AcDbLinetypeTableRecord
  2
BYBLOCK
 70
     0
  3

 72
    65
 73
     0
 40
0.0
  0
LTYPE
  5
15
330
5
100
AcDbSymbolTableRecord
100
AcDbLinetypeTableRecord
  2
BYLAYER
 70
     0
  3

 72
    65
 73
     0
 40
0.0
  0
LTYPE
  5
16
330
5
100
AcDbSymbolTableRecord
100
AcDbLinetypeTableRecord
  2
CONTINUOUS
 70
     0
  3
Solid line
 72
    65
 73
     0
 40
0.0
  0
LTYPE
  5
115
330
5
100
AcDbSymbolTableRecord
100
AcDbLinetypeTableRecord
  2
PHANTOM
 70
     0
  3
______  __  __  ______  __  __  ______  __  __ 
 72
    65
 73
     6
 40
2.5
 49
1.25
 74
     0
 49
-0.25
 74
     0
 49
0.25
 74
     0
 49
-0.25
 74
     0
 49
0.25
 74
     0
 49
-0.25
 74
     0
  0
LTYPE
  5
135
330
5
100
AcDbSymbolTableRecord
100
AcDbLinetypeTableRecord
  2
CENTER
 70
     0
  3
____ _ ____ _ ____ _ ____ _ ____ _ ____ _ ____ 
 72
    65
 73
     4
 40
2.0
 49
1.25
 74
     0
 49
-0.25
 74
     0
 49
0.25
 74
     0
 49
-0.25
 74
     0
  0
ENDTAB
  0
TABLE
  2
LAYER
  5
2
330
0
100
AcDbSymbolTable
 70
     9
  0
LAYER
  5
F
330
2
100
AcDbSymbolTableRecord
100
AcDbLayerTableRecord
  2
0
 70
     0
 62
     7
  6
CONTINUOUS
  0
LAYER
  5
62
330
2
100
AcDbSymbolTableRecord
100
AcDbLayerTableRecord
  2
VIEWPORT
 70
     0
 62
     7
  6
CONTINUOUS
  0
LAYER
  5
65
330
2
100
AcDbSymbolTableRecord
100
AcDbLayerTableRecord
  2
ZUWAKU
 70
     0
 62
     7
  6
CONTINUOUS
  0
LAYER
  5
154
330
2
100
AcDbSymbolTableRecord
100
AcDbLayerTableRecord
  2
NOKITOI
 70
     0
 62
     8
  6
PHANTOM
  0
LAYER
  5
155
330
2
100
AcDbSymbolTableRecord
100
AcDbLayerTableRecord
  2
SUNPOU
 70
     0
 62
     4
  6
CONTINUOUS
  0
LAYER
  5
156
330
2
100
AcDbSymbolTableRecord
100
AcDbLayerTableRecord
  2
SEIHIN
 70
     0
 62
     3
  6
CONTINUOUS
  0
LAYER
  5
157
330
2
100
AcDbSymbolTableRecord
100
AcDbLayerTableRecord
  2
CENTER_L
 70
     0
 62
     1
  6
CENTER
  0
LAYER
  5
418
330
2
100
AcDbSymbolTableRecord
100
AcDbLayerTableRecord
  2
DEFPOINTS
 70
     0
 62
     7
  6
CONTINUOUS
  0
LAYER
  5
622
330
2
100
AcDbSymbolTableRecord
100
AcDbLayerTableRecord
  2
MOJI
 70
     0
 62
     2
  6
CONTINUOUS
  0
ENDTAB
  0
TABLE
  2
STYLE
  5
3
330
0
100
AcDbSymbolTable
 70
     3
  0
STYLE
  5
10
330
3
100
AcDbSymbolTableRecord
100
AcDbTextStyleTableRecord
  2
STANDARD
 70
     0
 40
0.0
 41
1.0
 50
0.0
 71
     0
 42
5.0
  3
TXT
  4
bigfont.shx
  0
STYLE
  5
1AD
330
3
100
AcDbSymbolTableRecord
100
AcDbTextStyleTableRecord
  2
STYLE1
 70
     0
 40
0.0
 41
1.0
 50
0.0
 71
     0
 42
5.0
  3
A:\r13\com\fonts\msgothi1.TTF
  4

  0
STYLE
  5
623
330
3
100
AcDbSymbolTableRecord
100
AcDbTextStyleTableRecord
  2
ｽﾀｲﾙ1
 70
     0
 40
0.0
 41
1.0
 50
0.0
 71
     0
 42
2.5
  3
MS PGothic.ttf
  4

1001
ACAD
1000
MS PGothic
1071
    32818
  0
ENDTAB
  0
TABLE
  2
VIEW
  5
6
330
0
100
AcDbSymbolTable
 70
     0
  0
ENDTAB
  0
TABLE
  2
UCS
  5
7
330
0
100
AcDbSymbolTable
 70
     0
  0
ENDTAB
  0
TABLE
  2
APPID
  5
9
330
0
100
AcDbSymbolTable
 70
     1
  0
APPID
  5
11
330
9
100
AcDbSymbolTableRecord
100
AcDbRegAppTableRecord
  2
ACAD
 70
     0
  0
ENDTAB
  0
TABLE
  2
DIMSTYLE
  5
A
330
0
100
AcDbSymbolTable
 70
     1
  0
DIMSTYLE
105
1D
102
{ACAD_REACTORS
330
41D
330
43B
330
447
330
457
330
47E
330
4A0
330
4E3
330
4F0
330
50D
330
519
102
}
330
A
100
AcDbSymbolTableRecord
100
AcDbDimStyleTableRecord
  2
STANDARD
 70
     0
  3

  4

  5

  6

  7

 40
1.0
 41
0.18
 42
0.0625
 43
0.38
 44
0.18
 45
0.0
 46
0.0
 47
0.0
 48
0.0
140
0.18
141
0.09
142
0.0
143
25.4
144
1.0
145
0.0
146
1.0
147
0.09
 71
     0
 72
     0
 73
     1
 74
     1
 75
     0
 76
     0
 77
     0
 78
     0
170
     0
171
     2
172
     0
173
     0
174
     0
175
     0
176
     0
177
     0
178
     0
270
     2
271
     4
272
     4
273
     2
274
     2
340
10
275
     0
280
     0
281
     0
282
     0
283
     1
284
     0
285
     0
286
     0
287
     3
288
     0
  0
ENDTAB
  0
TABLE
  2
BLOCK_RECORD
  5
1
330
0
100
AcDbSymbolTable
 70
    13
  0
BLOCK_RECORD
  5
1A
102
{ACAD_XDICTIONARY
360
5C0
102
}
330
1
100
AcDbSymbolTableRecord
100
AcDbBlockTableRecord
  2
*MODEL_SPACE
  0
BLOCK_RECORD
  5
17
102
{ACAD_XDICTIONARY
360
5BE
102
}
330
1
100
AcDbSymbolTableRecord
100
AcDbBlockTableRecord
  2
*PAPER_SPACE
  0
BLOCK_RECORD
  5
6D
330
1
100
AcDbSymbolTableRecord
100
AcDbBlockTableRecord
  2
_OPEN
  0
BLOCK_RECORD
  5
163
330
1
100
AcDbSymbolTableRecord
100
AcDbBlockTableRecord
  2
A$C1305
  0
BLOCK_RECORD
  5
410
330
1
100
AcDbSymbolTableRecord
100
AcDbBlockTableRecord
  2
*D2
  0
BLOCK_RECORD
  5
42F
330
1
100
AcDbSymbolTableRecord
100
AcDbBlockTableRecord
  2
*D3
  0
BLOCK_RECORD
  5
43C
330
1
100
AcDbSymbolTableRecord
100
AcDbBlockTableRecord
  2
*D4
  0
BLOCK_RECORD
  5
448
330
1
100
AcDbSymbolTableRecord
100
AcDbBlockTableRecord
  2
*D5
  0
BLOCK_RECORD
  5
470
330
1
100
AcDbSymbolTableRecord
100
AcDbBlockTableRecord
  2
*D6
  0
BLOCK_RECORD
  5
492
330
1
100
AcDbSymbolTableRecord
100
AcDbBlockTableRecord
  2
*D7
  0
BLOCK_RECORD
  5
4D5
330
1
100
AcDbSymbolTableRecord
100
AcDbBlockTableRecord
  2
*D8
  0
BLOCK_RECORD
  5
4E4
330
1
100
AcDbSymbolTableRecord
100
AcDbBlockTableRecord
  2
*D9
  0
BLOCK_RECORD
  5
501
330
1
100
AcDbSymbolTableRecord
100
AcDbBlockTableRecord
  2
*D10
  0
BLOCK_RECORD
  5
50E
330
1
100
AcDbSymbolTableRecord
100
AcDbBlockTableRecord
  2
*D11
  0
BLOCK_RECORD
  5
9BD
330
1
100
AcDbSymbolTableRecord
100
AcDbBlockTableRecord
  2
*X12
  0
ENDTAB
  0
ENDSEC
  0
SECTION
  2
BLOCKS
  0
BLOCK
  5
1B
330
1A
100
AcDbEntity
  8
0
100
AcDbBlockBegin
  2
*MODEL_SPACE
 70
     0
 10
0.0
 20
0.0
 30
0.0
  3
*MODEL_SPACE
  1

  0
ENDBLK
  5
1C
330
1A
100
AcDbEntity
  8
0
100
AcDbBlockEnd
  0
BLOCK
  5
18
330
17
100
AcDbEntity
 67
     1
  8
0
100
AcDbBlockBegin
  2
*PAPER_SPACE
 70
     0
 10
0.0
 20
0.0
 30
0.0
  3
*PAPER_SPACE
  1

  0
ENDBLK
  5
19
330
17
100
AcDbEntity
 67
     1
  8
0
100
AcDbBlockEnd
  0
BLOCK
  5
6E
330
6D
100
AcDbEntity
  8
0
100
AcDbBlockBegin
  2
_OPEN
 70
     0
 10
0.0
 20
0.0
 30
0.0
  3
_OPEN
  1

  0
LINE
  5
6F
330
6D
100
AcDbEntity
  8
0
  6
BYBLOCK
 62
     0
100
AcDbLine
 10
-1.0
 20
0.1666666666666666
 30
0.0
 11
0.0
 21
0.0
 31
0.0
  0
LINE
  5
70
330
6D
100
AcDbEntity
  8
0
  6
BYBLOCK
 62
     0
100
AcDbLine
 10
0.0
 20
0.0
 30
0.0
 11
-1.0
 21
-0.1666666666666666
 31
0.0
  0
LINE
  5
71
330
6D
100
AcDbEntity
  8
0
  6
BYBLOCK
 62
     0
100
AcDbLine
 10
0.0
 20
0.0
 30
0.0
 11
-1.0
 21
0.0
 31
0.0
  0
ENDBLK
  5
72
330
6D
100
AcDbEntity
  8
0
100
AcDbBlockEnd
  0
BLOCK
  5
1AB
330
163
100
AcDbEntity
  8
0
100
AcDbBlockBegin
  2
A$C1305
 70
     0
 10
0.0
 20
0.0
 30
0.0
  3
A$C1305
  1

  0
LINE
  5
164
330
163
100
AcDbEntity
  8
NOKITOI
  6
PHANTOM
 62
     8
 48
5.0
100
AcDbLine
 10
29.18435908443393
 20
10.10187063730222
 30
0.0
 11
19.27365908443391
 21
10.10187063730222
 31
0.0
  0
LINE
  5
165
330
163
100
AcDbEntity
  8
NOKITOI
  6
PHANTOM
 62
     8
 48
5.0
100
AcDbLine
 10
90.2981590844339
 20
0.1120706373022813
 30
0.0
 11
24.06755908443392
 21
0.1121706373021425
 31
0.0
  0
LINE
  5
166
330
163
100
AcDbEntity
  8
NOKITOI
  6
PHANTOM
 62
     8
 48
5.0
100
AcDbLine
 10
24.06755908443392
 20
0.1121706373021425
 30
0.0
 11
90.2981590844339
 21
0.1120706373022813
 31
0.0
  0
LINE
  5
167
330
163
100
AcDbEntity
  8
NOKITOI
  6
PHANTOM
 62
     8
 48
5.0
100
AcDbLine
 10
13.05735908443387
 20
12.22087063730214
 30
0.0
 11
7.218759084433713
 21
39.95217063730228
 31
0.0
  0
LINE
  5
168
330
163
100
AcDbEntity
  8
NOKITOI
  6
PHANTOM
 62
     8
 48
5.0
100
AcDbLine
 10
14.16595908443378
 20
13.23377063730208
 30
0.0
 11
8.234959084433853
 21
41.4036706373023
 31
0.0
  0
ARC
  5
169
330
163
100
AcDbEntity
  8
NOKITOI
  6
PHANTOM
 62
     8
 48
5.0
100
AcDbCircle
 10
15.13957896620524
 20
13.43874830022218
 30
0.0
 40
0.995060928010462
100
AcDbArc
 50
191.8877567214145
 51
251.4524867922934
  0
ARC
  5
16A
330
163
100
AcDbEntity
  8
NOKITOI
  6
PHANTOM
 62
     8
 48
5.0
100
AcDbCircle
 10
10.29733292322475
 20
-0.9941694721817384
 30
0.0
 40
14.22848866365036
100
AcDbArc
 50
51.52529185494254
 51
71.45345265407107
  0
ARC
  5
16B
330
163
100
AcDbEntity
  8
NOKITOI
  6
PHANTOM
 62
     8
 48
5.0
100
AcDbCircle
 10
10.29726615422066
 20
-0.9941373355915743
 30
0.0
 40
12.93471022655885
100
AcDbArc
 50
8.676219579622015
 51
74.45245455808978
  0
ARC
  5
16C
330
163
100
AcDbEntity
  8
NOKITOI
  6
PHANTOM
 62
     8
 48
5.0
100
AcDbCircle
 10
24.06756669845151
 20
1.107164097058216
 30
0.0
 40
0.9949934597852239
100
AcDbArc
 50
188.67611256506
 51
269.9995615538235
  0
ARC
  5
16D
330
163
100
AcDbEntity
  8
NOKITOI
  6
PHANTOM
 62
     8
 48
5.0
100
AcDbCircle
 10
19.27366239679292
 20
10.30086948151677
 30
0.0
 40
0.1989988442421132
100
AcDbArc
 50
231.5280949042412
 51
269.9990463050557
  0
ARC
  5
16E
330
163
100
AcDbEntity
  8
NOKITOI
  6
PHANTOM
 62
     8
 48
5.0
100
AcDbCircle
 10
14.03099910882133
 20
12.42582797307631
 30
0.0
 40
0.9949785960395137
100
AcDbArc
 50
191.8875585738773
 51
254.4495841050105
  0
LINE
  5
16F
330
163
100
AcDbEntity
  8
NOKITOI
  6
PHANTOM
 62
     8
 48
5.0
100
AcDbLine
 10
27.88425908443378
 20
1.91217063730221
 30
0.0
 11
27.88425908443378
 21
8.439470637302292
 31
0.0
  0
LINE
  5
170
330
163
100
AcDbEntity
  8
NOKITOI
  6
PHANTOM
 62
     8
 48
5.0
100
AcDbLine
 10
28.37925908443378
 20
9.296770637302074
 30
0.0
 11
27.88425908443378
 21
8.439470637302292
 31
0.0
  0
LINE
  5
171
330
163
100
AcDbEntity
  8
NOKITOI
  6
PHANTOM
 62
     8
 48
5.0
100
AcDbLine
 10
28.37925908443378
 20
9.296770637302074
 30
0.0
 11
27.52195908443377
 21
8.801870637302272
 31
0.0
  0
ARC
  5
172
330
163
100
AcDbEntity
  8
NOKITOI
  6
PHANTOM
 62
     8
 48
5.0
100
AcDbCircle
 10
21.30106274373702
 20
8.501878629181817
 30
0.0
 40
0.2999920081427447
100
AcDbArc
 50
90.00069889403098
 51
220.79672841758
  0
ARC
  5
173
330
163
100
AcDbEntity
  8
NOKITOI
  6
PHANTOM
 62
     8
 48
5.0
100
AcDbCircle
 10
10.29726428144715
 20
-0.9941399784659097
 30
0.0
 40
14.23472333170272
100
AcDbArc
 50
11.37541821407357
 51
40.79334907830751
  0
LINE
  5
174
330
163
100
AcDbEntity
  8
NOKITOI
  6
PHANTOM
 62
     8
 48
5.0
100
AcDbLine
 10
27.52195908443377
 20
8.801870637302272
 30
0.0
 11
21.30105908443386
 21
8.801870637302272
 31
0.0
  0
LINE
  5
175
330
163
100
AcDbEntity
  8
NOKITOI
  6
PHANTOM
 62
     8
 48
5.0
100
AcDbLine
 10
24.74245908443378
 20
1.412170637302097
 30
0.0
 11
27.38425908443378
 21
1.412170637302097
 31
0.0
  0
ARC
  5
176
330
163
100
AcDbEntity
  8
NOKITOI
  6
PHANTOM
 62
     8
 48
5.0
100
AcDbCircle
 10
24.74253604330567
 20
1.912189501590432
 30
0.0
 40
0.5000188648192144
100
AcDbArc
 50
191.3867288554411
 51
270.0026402191985
  0
ARC
  5
177
330
163
100
AcDbEntity
  8
NOKITOI
  6
PHANTOM
 62
     8
 48
5.0
100
AcDbCircle
 10
27.38425908443366
 20
1.91217063730221
 30
0.0
 40
0.5000000000000569
100
AcDbArc
 50
270.0000000000065
 51
0.0000000000065138
  0
LINE
  5
178
330
163
100
AcDbEntity
  8
NOKITOI
  6
PHANTOM
 62
     8
 48
5.0
100
AcDbLine
 10
0.1808590844339051
 20
41.10517063730208
 30
0.0
 11
0.1808590844339051
 21
49.11467063730208
 31
0.0
  0
ARC
  5
179
330
163
100
AcDbEntity
  8
NOKITOI
  6
PHANTOM
 62
     8
 48
5.0
100
AcDbCircle
 10
3.6160590844338
 20
47.32377063730223
 30
0.0
 40
1.492399999999918
100
AcDbArc
 50
0.0000000000021823
 51
90.00000000000218
  0
ARC
  5
17A
330
163
100
AcDbEntity
  8
NOKITOI
  6
PHANTOM
 62
     8
 48
5.0
100
AcDbCircle
 10
2.966809084433748
 20
47.32372063730212
 30
0.0
 40
1.49245000083754
100
AcDbArc
 50
89.99808047909008
 51
179.99808047909
  0
LINE
  5
17B
330
163
100
AcDbEntity
  8
NOKITOI
  6
PHANTOM
 62
     8
 48
5.0
100
AcDbLine
 10
6.401959084433769
 20
49.11467063730208
 30
0.0
 11
6.401959084433769
 21
44.90987063730222
 31
0.0
  0
LINE
  5
17C
330
163
100
AcDbEntity
  8
NOKITOI
  6
PHANTOM
 62
     8
 48
5.0
100
AcDbLine
 10
3.464359084433908
 20
41.4036706373023
 30
0.0
 11
8.234959084433853
 21
41.4036706373023
 31
0.0
  0
LINE
  5
17D
330
163
100
AcDbEntity
  8
NOKITOI
  6
PHANTOM
 62
     8
 48
5.0
100
AcDbLine
 10
7.024059084433929
 20
40.11017063730207
 30
0.0
 11
1.175859084433909
 21
40.11017063730207
 31
0.0
  0
ARC
  5
17E
330
163
100
AcDbEntity
  8
NOKITOI
  6
PHANTOM
 62
     8
 48
5.0
100
AcDbCircle
 10
3.464309084433807
 20
43.39362063730232
 30
0.0
 40
1.989950000628206
100
AcDbArc
 50
180.0014396286234
 51
270.0014396286234
  0
LINE
  5
17F
330
163
100
AcDbEntity
  8
NOKITOI
  6
PHANTOM
 62
     8
 48
5.0
100
AcDbLine
 10
1.474359084433785
 20
47.32377063730223
 30
0.0
 11
1.474359084433785
 21
43.39357063730221
 31
0.0
  0
ARC
  5
180
330
163
100
AcDbEntity
  8
NOKITOI
  6
PHANTOM
 62
     8
 48
5.0
100
AcDbCircle
 10
1.175859084433909
 20
41.10517063730208
 30
0.0
 40
0.9950000000000045
100
AcDbArc
 50
180.0
 51
270.0
  0
LINE
  5
181
330
163
100
AcDbEntity
  8
NOKITOI
  6
PHANTOM
 62
     8
 48
5.0
100
AcDbLine
 10
5.108559084433863
 20
44.90987063730222
 30
0.0
 11
5.108559084433863
 21
47.32377063730223
 31
0.0
  0
LINE
  5
182
330
163
100
AcDbEntity
  8
NOKITOI
  6
PHANTOM
 62
     8
 48
5.0
100
AcDbLine
 10
6.401959084433769
 20
44.90987063730222
 30
0.0
 11
5.108559084433863
 21
44.90987063730222
 31
0.0
  0
ARC
  5
183
330
163
100
AcDbEntity
  8
NOKITOI
  6
PHANTOM
 62
     8
 48
5.0
100
AcDbCircle
 10
7.024040641819624
 20
39.91118560073897
 30
0.0
 40
0.1989850374177657
100
AcDbArc
 50
11.88631382809314
 51
89.99468963106556
  0
LINE
  5
184
330
163
100
AcDbEntity
  8
NOKITOI
  6
PHANTOM
 62
     8
 48
5.0
100
AcDbLine
 10
1.175859084433909
 20
50.1096706373022
 30
0.0
 11
5.407059084433853
 21
50.1096706373022
 31
0.0
  0
ARC
  5
185
330
163
100
AcDbEntity
  8
NOKITOI
  6
PHANTOM
 62
     8
 48
5.0
100
AcDbCircle
 10
1.175859084433909
 20
49.1146706373022
 30
0.0
 40
0.9950000000000613
100
AcDbArc
 50
90.00000000000328
 51
180.0000000000032
  0
LINE
  5
186
330
163
100
AcDbEntity
  8
NOKITOI
  6
PHANTOM
 62
     8
 48
5.0
100
AcDbLine
 10
3.6160590844338
 20
48.81617063730209
 30
0.0
 11
2.966859084433849
 21
48.81617063730209
 31
0.0
  0
ARC
  5
187
330
163
100
AcDbEntity
  8
NOKITOI
  6
PHANTOM
 62
     8
 48
5.0
100
AcDbCircle
 10
5.407009084433752
 20
49.11472063730224
 30
0.0
 40
0.9949500012563332
100
AcDbArc
 50
359.9971206704048
 51
89.99712067040489
  0
LINE
  5
188
330
163
100
AcDbEntity
  8
NOKITOI
  6
PHANTOM
 62
     8
 48
5.0
100
AcDbLine
 10
85.18155908443374
 20
10.10157063730207
 30
0.0
 11
95.16205908443373
 21
10.10147063730221
 31
0.0
  0
ARC
  5
189
330
163
100
AcDbEntity
  8
NOKITOI
  6
PHANTOM
 62
     8
 48
5.0
100
AcDbCircle
 10
104.068453551022
 20
-0.9942356029631582
 30
0.0
 40
12.93461262833301
100
AcDbArc
 50
105.5476727870198
 51
171.3237222126366
  0
ARC
  5
18A
330
163
100
AcDbEntity
  8
NOKITOI
  6
PHANTOM
 62
     8
 48
5.0
100
AcDbCircle
 10
104.0683479281129
 20
-0.994141944171929
 30
0.0
 40
12.93449408578155
100
AcDbArc
 50
105.5473332353544
 51
171.3240617643019
  0
LINE
  5
18B
330
163
100
AcDbEntity
  8
NOKITOI
  6
PHANTOM
 62
     8
 48
5.0
100
AcDbLine
 10
29.38325908443392
 20
1.405570637302162
 30
0.0
 11
84.98245908443392
 21
1.405470637302073
 31
0.0
  0
ARC
  5
18C
330
163
100
AcDbEntity
  8
NOKITOI
  6
PHANTOM
 62
     8
 48
5.0
100
AcDbCircle
 10
29.38325908443392
 20
1.604570637302231
 30
0.0
 40
0.1990000000000691
100
AcDbArc
 50
179.9999999999836
 51
269.9999999999836
  0
LINE
  5
18D
330
163
100
AcDbEntity
  8
NOKITOI
  6
PHANTOM
 62
     8
 48
5.0
100
AcDbLine
 10
29.18425908443385
 20
1.604570637302231
 30
0.0
 11
29.18435908443393
 21
10.10187063730222
 31
0.0
  0
LINE
  5
18E
330
163
100
AcDbEntity
  8
NOKITOI
  6
PHANTOM
 62
     8
 48
5.0
100
AcDbLine
 10
80.98245908443391
 20
1.405470637302073
 30
0.0
 11
66.22805908443377
 21
1.405470637302073
 31
0.0
  0
ARC
  5
18F
330
163
100
AcDbEntity
  8
NOKITOI
  6
PHANTOM
 62
     8
 48
5.0
100
AcDbCircle
 10
90.2982090125298
 20
1.107113524900853
 30
0.0
 40
0.9950428888512103
100
AcDbArc
 50
269.9971250795227
 51
351.3214426795068
  0
LINE
  5
190
330
163
100
AcDbEntity
  8
NOKITOI
  6
PHANTOM
 62
     8
 48
5.0
100
AcDbLine
 10
85.98655908443367
 20
9.296470637302149
 30
0.0
 11
86.4815590844339
 21
8.43917063730214
 31
0.0
  0
LINE
  5
191
330
163
100
AcDbEntity
  8
NOKITOI
  6
PHANTOM
 62
     8
 48
5.0
100
AcDbLine
 10
85.98655908443367
 20
9.296470637302149
 30
0.0
 11
86.84385908443392
 21
8.801470637302145
 31
0.0
  0
ARC
  5
192
330
163
100
AcDbEntity
  8
NOKITOI
  6
PHANTOM
 62
     8
 48
5.0
100
AcDbCircle
 10
84.98240908443381
 20
1.604520637302186
 30
0.0
 40
0.1990500062799141
100
AcDbArc
 50
270.0143923080611
 51
0.014392308061115
  0
LINE
  5
193
330
163
100
AcDbEntity
  8
NOKITOI
  6
PHANTOM
 62
     8
 48
5.0
100
AcDbLine
 10
85.18145908443386
 20
1.604570637302231
 30
0.0
 11
85.18155908443374
 21
10.10157063730207
 31
0.0
  0
LINE
  5
194
330
163
100
AcDbEntity
  8
NOKITOI
  6
PHANTOM
 62
     8
 48
5.0
100
AcDbLine
 10
86.4815590844339
 20
8.43917063730214
 30
0.0
 11
86.4815590844339
 21
1.912070637302122
 31
0.0
  0
ARC
  5
195
330
163
100
AcDbEntity
  8
NOKITOI
  6
PHANTOM
 62
     8
 48
5.0
100
AcDbCircle
 10
104.0684175391246
 20
-0.9943142272541081
 30
0.0
 40
14.23462403148678
100
AcDbArc
 50
139.2075062369005
 51
168.6237859483839
  0
LINE
  5
196
330
163
100
AcDbEntity
  8
NOKITOI
  6
PHANTOM
 62
     8
 48
5.0
100
AcDbLine
 10
93.06445908443368
 20
8.801470637302145
 30
0.0
 11
86.84385908443392
 21
8.801470637302145
 31
0.0
  0
ARC
  5
197
330
163
100
AcDbEntity
  8
NOKITOI
  6
PHANTOM
 62
     8
 48
5.0
100
AcDbCircle
 10
93.06447276228515
 20
8.501440773608294
 30
0.0
 40
0.3000298640056128
100
AcDbArc
 50
319.2190584222776
 51
90.00261201719956
  0
LINE
  5
198
330
163
100
AcDbEntity
  8
NOKITOI
  6
PHANTOM
 62
     8
 48
5.0
100
AcDbLine
 10
89.62325908443393
 20
1.412070637302235
 30
0.0
 11
86.98155908443391
 21
1.412070637302235
 31
0.0
  0
ARC
  5
199
330
163
100
AcDbEntity
  8
NOKITOI
  6
PHANTOM
 62
     8
 48
5.0
100
AcDbCircle
 10
86.9815590844338
 20
1.912070637302235
 30
0.0
 40
0.4999999999999432
100
AcDbArc
 50
180.0000000000065
 51
270.0000000000065
  0
ARC
  5
19A
330
163
100
AcDbEntity
  8
NOKITOI
  6
PHANTOM
 62
     8
 48
5.0
100
AcDbCircle
 10
89.62328212556213
 20
1.912089501590457
 30
0.0
 40
0.5000188648190603
100
AcDbArc
 50
269.9973597808039
 51
348.6132711445602
  0
LINE
  5
19B
330
163
100
AcDbEntity
  8
NOKITOI
  6
PHANTOM
 62
     8
 48
5.0
100
AcDbLine
 10
100.1997590844339
 20
13.23317063730223
 30
0.0
 11
105.6547590844337
 21
39.14207063730214
 31
0.0
  0
LINE
  5
19C
330
163
100
AcDbEntity
  8
NOKITOI
  6
PHANTOM
 62
     8
 48
5.0
100
AcDbLine
 10
101.3084590844339
 20
12.22067063730207
 30
0.0
 11
107.1471590844337
 21
39.95207063730208
 31
0.0
  0
ARC
  5
19D
330
163
100
AcDbEntity
  8
NOKITOI
  6
PHANTOM
 62
     8
 48
5.0
100
AcDbCircle
 10
99.22620265398496
 20
13.43821958907108
 30
0.0
 40
0.9950135261271753
100
AcDbArc
 50
288.5445751594487
 51
348.1074736523478
  0
ARC
  5
19E
330
163
100
AcDbEntity
  8
NOKITOI
  6
PHANTOM
 62
     8
 48
5.0
100
AcDbCircle
 10
104.0684735879824
 20
-0.9942214385093848
 30
0.0
 40
14.22809199964113
100
AcDbArc
 50
108.5474584936555
 51
128.7537062451648
  0
ARC
  5
19F
330
163
100
AcDbEntity
  8
NOKITOI
  6
PHANTOM
 62
     8
 48
5.0
100
AcDbCircle
 10
100.334833421286
 20
12.42574988868966
 30
0.0
 40
0.9949690575286499
100
AcDbArc
 50
285.5437330810338
 51
348.1110361155302
  0
LINE
  5
1A0
330
163
100
AcDbEntity
  8
NOKITOI
  6
PHANTOM
 62
     8
 48
5.0
100
AcDbLine
 10
112.8850590844339
 20
41.40997063730208
 30
0.0
 11
107.4607590844339
 21
41.41007063730216
 31
0.0
  0
LINE
  5
1A1
330
163
100
AcDbEntity
  8
NOKITOI
  6
PHANTOM
 62
     8
 48
5.0
100
AcDbLine
 10
113.1900590844338
 20
50.10957063730223
 30
0.0
 11
107.9863590844338
 21
50.10947063730213
 31
0.0
  0
LINE
  5
1A2
330
163
100
AcDbEntity
  8
NOKITOI
  6
PHANTOM
 62
     8
 48
5.0
100
AcDbLine
 10
112.8850590844339
 20
48.80947063730229
 30
0.0
 11
109.0186590844336
 21
48.80947063730229
 31
0.0
  0
LINE
  5
1A3
330
163
100
AcDbEntity
  8
NOKITOI
  6
PHANTOM
 62
     8
 48
5.0
100
AcDbLine
 10
107.3418590844337
 20
40.10997063730224
 30
0.0
 11
113.1900590844338
 21
40.10997063730224
 31
0.0
  0
LINE
  5
1A4
330
163
100
AcDbEntity
  8
NOKITOI
  6
PHANTOM
 62
     8
 48
5.0
100
AcDbLine
 10
109.0186590844336
 20
48.80947063730229
 30
0.0
 11
107.4607590844339
 21
41.41007063730216
 31
0.0
  0
LINE
  5
1A5
330
163
100
AcDbEntity
  8
NOKITOI
  6
PHANTOM
 62
     8
 48
5.0
100
AcDbLine
 10
105.6547590844337
 20
39.14207063730214
 30
0.0
 11
107.9638590844336
 21
50.10947063730213
 31
0.0
  0
ARC
  5
1A6
330
163
100
AcDbEntity
  8
NOKITOI
  6
PHANTOM
 62
     8
 48
5.0
100
AcDbCircle
 10
107.341877527048
 20
39.91108560073894
 30
0.0
 40
0.1989850374179911
100
AcDbArc
 50
90.00531036897127
 51
168.1136861719432
  0
LINE
  5
1A7
330
163
100
AcDbEntity
  8
NOKITOI
  6
PHANTOM
 62
     8
 48
5.0
100
AcDbLine
 10
114.1850590844338
 20
41.10497063730213
 30
0.0
 11
114.1850590844338
 21
49.1145706373021
 31
0.0
  0
LINE
  5
1A8
330
163
100
AcDbEntity
  8
NOKITOI
  6
PHANTOM
 62
     8
 48
5.0
100
AcDbLine
 10
112.8850590844339
 20
41.40997063730208
 30
0.0
 11
112.8850590844339
 21
48.80947063730229
 31
0.0
  0
ARC
  5
1A9
330
163
100
AcDbEntity
  8
NOKITOI
  6
PHANTOM
 62
     8
 48
5.0
100
AcDbCircle
 10
113.1900590844339
 20
41.10497063730218
 30
0.0
 40
0.9949999999999192
100
AcDbArc
 50
269.9999999999951
 51
359.9999999999951
  0
ARC
  5
1AA
330
163
100
AcDbEntity
  8
NOKITOI
  6
PHANTOM
 62
     8
 48
5.0
100
AcDbCircle
 10
113.1900590844338
 20
49.11457063730222
 30
0.0
 40
0.9950000000000613
100
AcDbArc
 50
359.9999999999967
 51
89.99999999999673
  0
ENDBLK
  5
1AC
330
163
100
AcDbEntity
  8
0
100
AcDbBlockEnd
  0
BLOCK
  5
411
330
410
100
AcDbEntity
  8
0
100
AcDbBlockBegin
  2
*D2
 70
     1
 10
0.0
 20
0.0
 30
0.0
  3
*D2
  1

  0
LINE
  5
412
330
410
100
AcDbEntity
  8
0
  6
BYBLOCK
 62
     4
100
AcDbLine
 10
351.2192980270893
 20
148.281410354908
 30
0.0
 11
368.6571020069267
 21
104.6837979811328
 31
0.0
  0
LINE
  5
413
330
410
100
AcDbEntity
  8
0
  6
BYBLOCK
 62
     4
100
AcDbLine
 10
611.1955740266329
 20
252.2645207468693
 30
0.0
 11
628.6333780064706
 21
208.6669083730932
 31
0.0
  0
LINE
  5
414
330
410
100
AcDbEntity
  8
0
  6
BYBLOCK
 62
     4
100
AcDbLine
 10
374.0423989553099
 20
110.0688306437761
 30
0.0
 11
621.0198737001544
 21
208.8527905338925
 31
0.0
  0
INSERT
  5
415
330
410
100
AcDbEntity
  8
0
  6
BYBLOCK
 62
     4
100
AcDbBlockReference
  2
_OPEN
 10
367.5429983279602
 20
107.4692553928541
 30
0.0
 41
7.0
 42
7.0
 43
7.0
 50
201.8000035444705
  0
INSERT
  5
416
330
410
100
AcDbEntity
  8
0
  6
BYBLOCK
 62
     4
100
AcDbBlockReference
  2
_OPEN
 10
627.5192743275042
 20
211.4523657848144
 30
0.0
 41
7.0
 42
7.0
 43
7.0
 50
21.80000354447058
  0
MTEXT
  5
417
330
410
100
AcDbEntity
  8
0
  6
BYBLOCK
 62
     4
100
AcDbMText
 10
495.6742968627879
 20
164.1032396083698
 30
0.0
 40
6.0
 41
0.0
 71
     5
 72
     1
  1
\A1;280
 11
0.9284858039071014
 21
0.3713678929888575
 31
0.0
1001
ACAD
1000
MTEXTBEGIN
1070
    73
1070
     1
1070
    44
1040
1.0
1070
    74
1070
     0
1000
MTEXTEND
1000
MTEXTBEGIN
1070
    73
1070
     1
1070
    44
1040
1.0
1070
    74
1070
     0
1000
MTEXTEND
1000
MTEXTBEGIN
1070
    73
1070
     1
1070
    44
1040
1.0
1070
    74
1070
     0
1000
MTEXTEND
  0
POINT
  5
419
330
410
100
AcDbEntity
  8
DEFPOINTS
  6
BYBLOCK
 62
     0
100
AcDbPoint
 10
348.9910906691562
 20
153.8523251783507
 30
0.0
  0
POINT
  5
41A
330
410
100
AcDbEntity
  8
DEFPOINTS
  6
BYBLOCK
 62
     0
100
AcDbPoint
 10
608.9673666686998
 20
257.8354355703118
 30
0.0
  0
POINT
  5
41B
330
410
100
AcDbEntity
  8
DEFPOINTS
  6
BYBLOCK
 62
     0
100
AcDbPoint
 10
627.5192743275042
 20
211.4523657848144
 30
0.0
  0
ENDBLK
  5
41C
330
410
100
AcDbEntity
  8
0
100
AcDbBlockEnd
  0
BLOCK
  5
430
330
42F
100
AcDbEntity
  8
0
100
AcDbBlockBegin
  2
*D3
 70
     1
 10
0.0
 20
0.0
 30
0.0
  3
*D3
  1

  0
LINE
  5
431
330
42F
100
AcDbEntity
  8
0
  6
BYBLOCK
 62
     4
100
AcDbLine
 10
472.2189802475805
 20
276.6003677352674
 30
0.0
 11
462.5637886639523
 21
300.7402364856086
 31
0.0
  0
LINE
  5
432
330
42F
100
AcDbEntity
  8
0
  6
BYBLOCK
 62
     4
100
AcDbLine
 10
523.2857657875492
 20
297.02548284454
 30
0.0
 11
513.6305742039212
 21
321.1653515948811
 31
0.0
  0
LINE
  5
433
330
42F
100
AcDbEntity
  8
0
  6
BYBLOCK
 62
     4
100
AcDbLine
 10
470.1772925135652
 20
300.5543356197418
 30
0.0
 11
508.2452640254571
 21
315.7803321630006
 31
0.0
  0
INSERT
  5
434
330
42F
100
AcDbEntity
  8
0
  6
BYBLOCK
 62
     4
100
AcDbBlockReference
  2
_OPEN
 10
463.6778854995267
 20
297.9547763367349
 30
0.0
 41
7.0
 42
7.0
 43
7.0
 50
201.7998627786146
  0
INSERT
  5
435
330
42F
100
AcDbEntity
  8
0
  6
BYBLOCK
 62
     4
100
AcDbBlockReference
  2
_OPEN
 10
514.7446710394956
 20
318.3798914460075
 30
0.0
 41
7.0
 42
7.0
 43
7.0
 50
21.7998627786146
  0
MTEXT
  5
436
330
42F
100
AcDbEntity
  8
0
  6
BYBLOCK
 62
     4
100
AcDbMText
 10
487.3544502102205
 20
312.8097674728272
 30
0.0
 40
6.0
 41
0.0
 71
     5
 72
     1
  1
\A1;55
 11
0.9284867162912114
 21
0.3713656118581305
 31
0.0
1001
ACAD
1000
MTEXTBEGIN
1070
    73
1070
     1
1070
    44
1040
1.0
1070
    74
1070
     0
1000
MTEXTEND
1000
MTEXTBEGIN
1070
    73
1070
     1
1070
    44
1040
1.0
1070
    74
1070
     0
1000
MTEXTEND
1000
MTEXTBEGIN
1070
    73
1070
     1
1070
    44
1040
1.0
1070
    74
1070
     0
1000
MTEXTEND
  0
POINT
  5
437
330
42F
100
AcDbEntity
  8
DEFPOINTS
  6
BYBLOCK
 62
     0
100
AcDbPoint
 10
474.4471739187292
 20
271.0294474375201
 30
0.0
  0
POINT
  5
438
330
42F
100
AcDbEntity
  8
DEFPOINTS
  6
BYBLOCK
 62
     0
100
AcDbPoint
 10
525.5139594586981
 20
291.4545625467928
 30
0.0
  0
POINT
  5
439
330
42F
100
AcDbEntity
  8
DEFPOINTS
  6
BYBLOCK
 62
     0
100
AcDbPoint
 10
514.7446710394956
 20
318.3798914460075
 30
0.0
  0
ENDBLK
  5
43A
330
42F
100
AcDbEntity
  8
0
100
AcDbBlockEnd
  0
BLOCK
  5
43D
330
43C
100
AcDbEntity
  8
0
100
AcDbBlockBegin
  2
*D4
 70
     1
 10
0.0
 20
0.0
 30
0.0
  3
*D4
  1

  0
LINE
  5
994
330
43C
100
AcDbEntity
  8
SUNPOU
  6
CONTINUOUS
 62
     4
100
AcDbLine
 10
574.3525068558951
 20
317.4505801665561
 30
0.0
 11
564.6973152722671
 21
341.5904489168971
 31
0.0
  0
LINE
  5
995
330
43C
100
AcDbEntity
  8
SUNPOU
  6
CONTINUOUS
 62
     4
100
AcDbLine
 10
521.2440780535342
 20
320.9794507290145
 30
0.0
 11
559.312005093803
 21
336.2054294850166
 31
0.0
  0
INSERT
  5
996
330
43C
100
AcDbEntity
  8
SUNPOU
  6
CONTINUOUS
 62
     4
100
AcDbBlockReference
  2
_OPEN
 10
514.7446710394957
 20
318.3798914460076
 30
0.0
 41
7.0
 42
7.0
 43
7.0
 50
201.7998627786146
  0
INSERT
  5
997
330
43C
100
AcDbEntity
  8
SUNPOU
  6
CONTINUOUS
 62
     4
100
AcDbBlockReference
  2
_OPEN
 10
565.8114121078415
 20
338.8049887680235
 30
0.0
 41
7.0
 42
7.0
 43
7.0
 50
21.7998627786146
  0
MTEXT
  5
998
330
43C
100
AcDbEntity
  8
SUNPOU
  6
CONTINUOUS
 62
     4
100
AcDbMText
 10
538.421213514378
 20
333.2348736884716
 30
0.0
 40
6.0
 41
0.0
 71
     5
 72
     1
  1
\A1;55
 11
0.9284867162912114
 21
0.3713656118581306
 31
0.0
  0
POINT
  5
999
330
43C
100
AcDbEntity
  8
DEFPOINTS
  6
CONTINUOUS
 62
     0
100
AcDbPoint
 10
525.5139594586982
 20
291.4545625467929
 30
0.0
  0
POINT
  5
99A
330
43C
100
AcDbEntity
  8
DEFPOINTS
  6
CONTINUOUS
 62
     0
100
AcDbPoint
 10
576.5807005270439
 20
311.8796598688089
 30
0.0
  0
POINT
  5
99B
330
43C
100
AcDbEntity
  8
DEFPOINTS
  6
CONTINUOUS
 62
     0
100
AcDbPoint
 10
565.8114121078415
 20
338.8049887680235
 30
0.0
  0
ENDBLK
  5
446
330
43C
100
AcDbEntity
  8
0
100
AcDbBlockEnd
  0
BLOCK
  5
464
330
448
100
AcDbEntity
  8
0
100
AcDbBlockBegin
  2
*D5
 70
     1
 10
0.0
 20
0.0
 30
0.0
  3
*D5
  1

  0
LINE
  5
465
330
448
100
AcDbEntity
  8
0
  6
BYBLOCK
 62
     4
100
AcDbLine
 10
583.6373969980082
 20
321.1642454760983
 30
0.0
 11
573.9822054143802
 21
345.3041142264393
 31
0.0
  0
LINE
  5
466
330
448
100
AcDbEntity
  8
0
  6
BYBLOCK
 62
     4
100
AcDbLine
 10
559.312005093804
 20
336.205429485017
 30
0.0
 11
552.8125980797654
 21
333.6058702020101
 31
0.0
  0
LINE
  5
467
330
448
100
AcDbEntity
  8
0
  6
BYBLOCK
 62
     4
100
AcDbLine
 10
581.595709263993
 20
345.1182133605726
 30
0.0
 11
598.3084701572348
 21
351.802794374019
 31
0.0
  0
LINE
  5
468
330
448
100
AcDbEntity
  8
0
  6
BYBLOCK
 62
     4
100
AcDbLine
 10
565.8114121078424
 20
338.8049887680239
 30
0.0
 11
575.0963022499546
 21
342.5186540775657
 31
0.0
  0
INSERT
  5
469
330
448
100
AcDbEntity
  8
0
  6
BYBLOCK
 62
     4
100
AcDbBlockReference
  2
_OPEN
 10
565.8114121078424
 20
338.8049887680239
 30
0.0
 41
7.0
 42
7.0
 43
7.0
 50
21.79986277861459
  0
INSERT
  5
46A
330
448
100
AcDbEntity
  8
0
  6
BYBLOCK
 62
     4
100
AcDbBlockReference
  2
_OPEN
 10
575.0963022499546
 20
342.5186540775657
 30
0.0
 41
7.0
 42
7.0
 43
7.0
 50
201.7998627786146
  0
MTEXT
  5
46B
330
448
100
AcDbEntity
  8
0
  6
BYBLOCK
 62
     4
100
AcDbMText
 10
591.3449651583426
 20
354.4027170902553
 30
0.0
 40
6.0
 41
0.0
 71
     5
 72
     1
  1
\A1;10
 11
0.9284867162912114
 21
0.3713656118581305
 31
0.0
1001
ACAD
1000
MTEXTBEGIN
1070
    73
1070
     1
1070
    44
1040
1.0
1070
    74
1070
     0
1000
MTEXTEND
1000
MTEXTBEGIN
1070
    73
1070
     1
1070
    44
1040
1.0
1070
    74
1070
     0
1000
MTEXTEND
1000
MTEXTBEGIN
1070
    73
1070
     1
1070
    44
1040
1.0
1070
    74
1070
     0
1000
MTEXTEND
  0
POINT
  5
46C
330
448
100
AcDbEntity
  8
DEFPOINTS
  6
BYBLOCK
 62
     0
100
AcDbPoint
 10
576.5807005270448
 20
311.8796598688093
 30
0.0
  0
POINT
  5
46D
330
448
100
AcDbEntity
  8
DEFPOINTS
  6
BYBLOCK
 62
     0
100
AcDbPoint
 10
585.8655906691571
 20
315.593325178351
 30
0.0
  0
POINT
  5
46E
330
448
100
AcDbEntity
  8
DEFPOINTS
  6
BYBLOCK
 62
     0
100
AcDbPoint
 10
575.0963022499546
 20
342.5186540775657
 30
0.0
  0
ENDBLK
  5
46F
330
448
100
AcDbEntity
  8
0
100
AcDbBlockEnd
  0
BLOCK
  5
471
330
470
100
AcDbEntity
  8
0
100
AcDbBlockBegin
  2
*D6
 70
     1
 10
0.0
 20
0.0
 30
0.0
  3
*D6
  1

  0
LINE
  5
472
330
470
100
AcDbEntity
  8
0
  6
BYBLOCK
 62
     4
100
AcDbLine
 10
591.4365017414259
 20
317.8215419148612
 30
0.0
 11
615.985009916026
 21
327.6402943705028
 31
0.0
  0
LINE
  5
473
330
470
100
AcDbEntity
  8
0
  6
BYBLOCK
 62
     4
100
AcDbLine
 10
596.2643017414258
 20
305.751241914861
 30
0.0
 11
620.8128099160258
 21
315.5699943705027
 31
0.0
  0
LINE
  5
474
330
470
100
AcDbEntity
  8
0
  6
BYBLOCK
 62
     4
100
AcDbLine
 10
610.5999681872957
 20
333.0255822532286
 30
0.0
 11
608.0003819947003
 21
339.5249785042097
 31
0.0
  0
LINE
  5
475
330
470
100
AcDbEntity
  8
0
  6
BYBLOCK
 62
     4
100
AcDbLine
 10
620.6269405724867
 20
307.9564897512664
 30
0.0
 11
623.2265267650822
 21
301.4570935002853
 31
0.0
  0
LINE
  5
476
330
470
100
AcDbEntity
  8
0
  6
BYBLOCK
 62
     4
100
AcDbLine
 10
613.1995543798913
 20
326.5261860022476
 30
0.0
 11
618.0273543798912
 21
314.4558860022474
 31
0.0
  0
INSERT
  5
477
330
470
100
AcDbEntity
  8
0
  6
BYBLOCK
 62
     4
100
AcDbBlockReference
  2
_OPEN
 10
613.1995543798913
 20
326.5261860022476
 30
0.0
 41
7.0
 42
7.0
 43
7.0
 50
291.8001000013532
  0
INSERT
  5
478
330
470
100
AcDbEntity
  8
0
  6
BYBLOCK
 62
     4
100
AcDbBlockReference
  2
_OPEN
 10
618.0273543798912
 20
314.4558860022474
 30
0.0
 41
7.0
 42
7.0
 43
7.0
 50
111.8001000013532
  0
MTEXT
  5
479
330
470
100
AcDbEntity
  8
0
  6
BYBLOCK
 62
     4
100
AcDbMText
 10
620.2558802734491
 20
322.3478832826728
 30
0.0
 40
6.0
 41
0.0
 71
     5
 72
     1
  1
\A1;13
 11
0.3713694560850719
 21
-0.9284851787115815
 31
0.0
1001
ACAD
1000
MTEXTBEGIN
1070
    73
1070
     1
1070
    44
1040
1.0
1070
    74
1070
     0
1000
MTEXTEND
1000
MTEXTBEGIN
1070
    73
1070
     1
1070
    44
1040
1.0
1070
    74
1070
     0
1000
MTEXTEND
1000
MTEXTBEGIN
1070
    73
1070
     1
1070
    44
1040
1.0
1070
    74
1070
     0
1000
MTEXTEND
  0
POINT
  5
47A
330
470
100
AcDbEntity
  8
DEFPOINTS
  6
BYBLOCK
 62
     0
100
AcDbPoint
 10
585.8655906691564
 20
315.5933251783507
 30
0.0
  0
POINT
  5
47B
330
470
100
AcDbEntity
  8
DEFPOINTS
  6
BYBLOCK
 62
     0
100
AcDbPoint
 10
590.6933906691563
 20
303.5230251783506
 30
0.0
  0
POINT
  5
47C
330
470
100
AcDbEntity
  8
DEFPOINTS
  6
BYBLOCK
 62
     0
100
AcDbPoint
 10
618.0273543798912
 20
314.4558860022474
 30
0.0
  0
ENDBLK
  5
47D
330
470
100
AcDbEntity
  8
0
100
AcDbBlockEnd
  0
BLOCK
  5
4C8
330
492
100
AcDbEntity
  8
0
100
AcDbBlockBegin
  2
*D7
 70
     1
 10
0.0
 20
0.0
 30
0.0
  3
*D7
  1

  0
LINE
  5
4C9
330
492
100
AcDbEntity
  8
0
  6
BYBLOCK
 62
     4
100
AcDbLine
 10
596.6933906691565
 20
424.8559251783508
 30
0.0
 11
624.9169153720595
 21
424.8559251783508
 31
0.0
  0
LINE
  5
4CA
330
492
100
AcDbEntity
  8
0
  6
BYBLOCK
 62
     4
100
AcDbLine
 10
596.6933906691565
 20
419.8559251783506
 30
0.0
 11
624.9169153720595
 21
419.8559251783506
 31
0.0
  0
LINE
  5
4CB
330
492
100
AcDbEntity
  8
0
  6
BYBLOCK
 62
     4
100
AcDbLine
 10
621.9169153720595
 20
431.8559251783508
 30
0.0
 11
621.9169153720595
 21
438.8559251783507
 31
0.0
  0
LINE
  5
4CC
330
492
100
AcDbEntity
  8
0
  6
BYBLOCK
 62
     4
100
AcDbLine
 10
621.9169153720595
 20
412.8559251783507
 30
0.0
 11
621.9169153720595
 21
384.8559251783506
 31
0.0
  0
LINE
  5
4CD
330
492
100
AcDbEntity
  8
0
  6
BYBLOCK
 62
     4
100
AcDbLine
 10
621.9169153720595
 20
424.8559251783508
 30
0.0
 11
621.9169153720595
 21
419.8559251783506
 31
0.0
  0
INSERT
  5
4CE
330
492
100
AcDbEntity
  8
0
  6
BYBLOCK
 62
     4
100
AcDbBlockReference
  2
_OPEN
 10
621.9169153720595
 20
424.8559251783508
 30
0.0
 41
7.0
 42
7.0
 43
7.0
 50
270.0
  0
INSERT
  5
4CF
330
492
100
AcDbEntity
  8
0
  6
BYBLOCK
 62
     4
100
AcDbBlockReference
  2
_OPEN
 10
621.9169153720595
 20
419.8559251783506
 30
0.0
 41
7.0
 42
7.0
 43
7.0
 50
90.0
  0
MTEXT
  5
4D0
330
492
100
AcDbEntity
  8
0
  6
BYBLOCK
 62
     4
100
AcDbMText
 10
616.9169153720595
 20
395.3559251783506
 30
0.0
 40
6.0
 41
0.0
 71
     5
 72
     1
  1
\A1;t5.0
 11
0.0
 21
1.0
 31
0.0
1001
ACAD
1000
MTEXTBEGIN
1070
    73
1070
     1
1070
    44
1040
1.0
1070
    74
1070
     0
1000
MTEXTEND
1000
MTEXTBEGIN
1070
    73
1070
     1
1070
    44
1040
1.0
1070
    74
1070
     0
1000
MTEXTEND
1000
MTEXTBEGIN
1070
    73
1070
     1
1070
    44
1040
1.0
1070
    74
1070
     0
1000
MTEXTEND
  0
POINT
  5
4D1
330
492
100
AcDbEntity
  8
DEFPOINTS
  6
BYBLOCK
 62
     0
100
AcDbPoint
 10
590.6933906691565
 20
424.8559251783508
 30
0.0
  0
POINT
  5
4D2
330
492
100
AcDbEntity
  8
DEFPOINTS
  6
BYBLOCK
 62
     0
100
AcDbPoint
 10
590.6933906691565
 20
419.8559251783506
 30
0.0
  0
POINT
  5
4D3
330
492
100
AcDbEntity
  8
DEFPOINTS
  6
BYBLOCK
 62
     0
100
AcDbPoint
 10
621.9169153720595
 20
419.8559251783506
 30
0.0
  0
ENDBLK
  5
4D4
330
492
100
AcDbEntity
  8
0
100
AcDbBlockEnd
  0
BLOCK
  5
543
330
4D5
100
AcDbEntity
  8
0
100
AcDbBlockBegin
  2
*D8
 70
     1
 10
0.0
 20
0.0
 30
0.0
  3
*D8
  1

  0
LINE
  5
544
330
4D5
100
AcDbEntity
  8
0
  6
BYBLOCK
 62
     4
100
AcDbLine
 10
290.6350906691565
 20
444.8559251783506
 30
0.0
 11
256.5690713400613
 21
444.8559251783506
 31
0.0
  0
LINE
  5
545
330
4D5
100
AcDbEntity
  8
0
  6
BYBLOCK
 62
     4
100
AcDbLine
 10
290.6350906691565
 20
419.8559251783506
 30
0.0
 11
256.5690713400613
 21
419.8559251783506
 31
0.0
  0
LINE
  5
546
330
4D5
100
AcDbEntity
  8
0
  6
BYBLOCK
 62
     4
100
AcDbLine
 10
259.5690713400613
 20
451.8559251783506
 30
0.0
 11
259.5690713400613
 21
458.8559251783506
 31
0.0
  0
LINE
  5
547
330
4D5
100
AcDbEntity
  8
0
  6
BYBLOCK
 62
     4
100
AcDbLine
 10
259.5690713400613
 20
412.8559251783507
 30
0.0
 11
259.5690713400613
 21
405.8559251783506
 31
0.0
  0
LINE
  5
548
330
4D5
100
AcDbEntity
  8
0
  6
BYBLOCK
 62
     4
100
AcDbLine
 10
259.5690713400613
 20
444.8559251783506
 30
0.0
 11
259.5690713400613
 21
419.8559251783506
 31
0.0
  0
INSERT
  5
549
330
4D5
100
AcDbEntity
  8
0
  6
BYBLOCK
 62
     4
100
AcDbBlockReference
  2
_OPEN
 10
259.5690713400613
 20
444.8559251783506
 30
0.0
 41
7.0
 42
7.0
 43
7.0
 50
270.0
  0
INSERT
  5
54A
330
4D5
100
AcDbEntity
  8
0
  6
BYBLOCK
 62
     4
100
AcDbBlockReference
  2
_OPEN
 10
259.5690713400613
 20
419.8559251783506
 30
0.0
 41
7.0
 42
7.0
 43
7.0
 50
90.0
  0
MTEXT
  5
54B
330
4D5
100
AcDbEntity
  8
0
  6
BYBLOCK
 62
     4
100
AcDbMText
 10
254.5690713400613
 20
432.3559251783506
 30
0.0
 40
6.0
 41
0.0
 71
     5
 72
     1
  1
\A1;25
 11
0.0
 21
1.0
 31
0.0
1001
ACAD
1000
MTEXTBEGIN
1070
    73
1070
     1
1070
    44
1040
1.0
1070
    74
1070
     0
1000
MTEXTEND
1000
MTEXTBEGIN
1070
    73
1070
     1
1070
    44
1040
1.0
1070
    74
1070
     0
1000
MTEXTEND
1000
MTEXTBEGIN
1070
    73
1070
     1
1070
    44
1040
1.0
1070
    74
1070
     0
1000
MTEXTEND
  0
POINT
  5
54C
330
4D5
100
AcDbEntity
  8
DEFPOINTS
  6
BYBLOCK
 62
     0
100
AcDbPoint
 10
296.6350906691565
 20
444.8559251783506
 30
0.0
  0
POINT
  5
54D
330
4D5
100
AcDbEntity
  8
DEFPOINTS
  6
BYBLOCK
 62
     0
100
AcDbPoint
 10
296.6350906691565
 20
419.8559251783506
 30
0.0
  0
POINT
  5
54E
330
4D5
100
AcDbEntity
  8
DEFPOINTS
  6
BYBLOCK
 62
     0
100
AcDbPoint
 10
259.5690713400613
 20
419.8559251783506
 30
0.0
  0
ENDBLK
  5
54F
330
4D5
100
AcDbEntity
  8
0
100
AcDbBlockEnd
  0
BLOCK
  5
4E5
330
4E4
100
AcDbEntity
  8
0
100
AcDbBlockBegin
  2
*D9
 70
     1
 10
0.0
 20
0.0
 30
0.0
  3
*D9
  1

  0
LINE
  5
4E6
330
4E4
100
AcDbEntity
  8
0
  6
BYBLOCK
 62
     4
100
AcDbLine
 10
412.9350906691565
 20
256.9044251783507
 30
0.0
 11
412.9350906691565
 21
299.0235161204002
 31
0.0
  0
LINE
  5
4E7
330
4E4
100
AcDbEntity
  8
0
  6
BYBLOCK
 62
     4
100
AcDbLine
 10
295.9350906691564
 20
276.3560251783508
 30
0.0
 11
295.9350906691564
 21
299.0235161204002
 31
0.0
  0
LINE
  5
4E8
330
4E4
100
AcDbEntity
  8
0
  6
BYBLOCK
 62
     4
100
AcDbLine
 10
405.9350906691565
 20
296.0235161204002
 30
0.0
 11
302.9350906691564
 21
296.0235161204002
 31
0.0
  0
INSERT
  5
4E9
330
4E4
100
AcDbEntity
  8
0
  6
BYBLOCK
 62
     4
100
AcDbBlockReference
  2
_OPEN
 10
412.9350906691565
 20
296.0235161204002
 30
0.0
 41
7.0
 42
7.0
 43
7.0
  0
INSERT
  5
4EA
330
4E4
100
AcDbEntity
  8
0
  6
BYBLOCK
 62
     4
100
AcDbBlockReference
  2
_OPEN
 10
295.9350906691564
 20
296.0235161204002
 30
0.0
 41
7.0
 42
7.0
 43
7.0
 50
180.0
  0
MTEXT
  5
4EB
330
4E4
100
AcDbEntity
  8
0
  6
BYBLOCK
 62
     4
100
AcDbMText
 10
354.4350906691565
 20
301.0235161204002
 30
0.0
 40
6.0
 41
0.0
 71
     5
 72
     1
  1
\A1;117
1001
ACAD
1000
MTEXTBEGIN
1070
    73
1070
     1
1070
    44
1040
1.0
1070
    74
1070
     0
1000
MTEXTEND
1000
MTEXTBEGIN
1070
    73
1070
     1
1070
    44
1040
1.0
1070
    74
1070
     0
1000
MTEXTEND
1000
MTEXTBEGIN
1070
    73
1070
     1
1070
    44
1040
1.0
1070
    74
1070
     0
1000
MTEXTEND
  0
POINT
  5
4EC
330
4E4
100
AcDbEntity
  8
DEFPOINTS
  6
BYBLOCK
 62
     0
100
AcDbPoint
 10
412.9350906691565
 20
250.9044251783507
 30
0.0
  0
POINT
  5
4ED
330
4E4
100
AcDbEntity
  8
DEFPOINTS
  6
BYBLOCK
 62
     0
100
AcDbPoint
 10
295.9350906691564
 20
270.3560251783508
 30
0.0
  0
POINT
  5
4EE
330
4E4
100
AcDbEntity
  8
DEFPOINTS
  6
BYBLOCK
 62
     0
100
AcDbPoint
 10
295.9350906691564
 20
296.0235161204002
 30
0.0
  0
ENDBLK
  5
4EF
330
4E4
100
AcDbEntity
  8
0
100
AcDbBlockEnd
  0
BLOCK
  5
538
330
501
100
AcDbEntity
  8
0
100
AcDbBlockBegin
  2
*D10
 70
     1
 10
0.0
 20
0.0
 30
0.0
  3
*D10
  1

  0
LINE
  5
539
330
501
100
AcDbEntity
  8
0
  6
BYBLOCK
 62
     4
100
AcDbLine
 10
289.9350906691564
 20
270.3560251783508
 30
0.0
 11
256.5004404228384
 21
270.3560251783508
 31
0.0
  0
LINE
  5
53A
330
501
100
AcDbEntity
  8
0
  6
BYBLOCK
 62
     4
100
AcDbLine
 10
314.1795906691565
 20
195.8560251783507
 30
0.0
 11
256.5004404228384
 21
195.8560251783507
 31
0.0
  0
LINE
  5
53B
330
501
100
AcDbEntity
  8
0
  6
BYBLOCK
 62
     4
100
AcDbLine
 10
259.5004404228384
 20
263.3560251783508
 30
0.0
 11
259.5004404228384
 21
202.8560251783507
 31
0.0
  0
INSERT
  5
53C
330
501
100
AcDbEntity
  8
0
  6
BYBLOCK
 62
     4
100
AcDbBlockReference
  2
_OPEN
 10
259.5004404228384
 20
270.3560251783508
 30
0.0
 41
7.0
 42
7.0
 43
7.0
 50
90.0
  0
INSERT
  5
53D
330
501
100
AcDbEntity
  8
0
  6
BYBLOCK
 62
     4
100
AcDbBlockReference
  2
_OPEN
 10
259.5004404228384
 20
195.8560251783507
 30
0.0
 41
7.0
 42
7.0
 43
7.0
 50
270.0
  0
MTEXT
  5
53E
330
501
100
AcDbEntity
  8
0
  6
BYBLOCK
 62
     4
100
AcDbMText
 10
254.5004404228384
 20
233.1060251783507
 30
0.0
 40
6.0
 41
0.0
 71
     5
 72
     1
  1
\A1;75
 11
0.0
 21
1.0
 31
0.0
1001
ACAD
1000
MTEXTBEGIN
1070
    73
1070
     1
1070
    44
1040
1.0
1070
    74
1070
     0
1000
MTEXTEND
1000
MTEXTBEGIN
1070
    73
1070
     1
1070
    44
1040
1.0
1070
    74
1070
     0
1000
MTEXTEND
1000
MTEXTBEGIN
1070
    73
1070
     1
1070
    44
1040
1.0
1070
    74
1070
     0
1000
MTEXTEND
  0
POINT
  5
53F
330
501
100
AcDbEntity
  8
DEFPOINTS
  6
BYBLOCK
 62
     0
100
AcDbPoint
 10
295.9350906691564
 20
270.3560251783508
 30
0.0
  0
POINT
  5
540
330
501
100
AcDbEntity
  8
DEFPOINTS
  6
BYBLOCK
 62
     0
100
AcDbPoint
 10
320.1795906691565
 20
195.8560251783507
 30
0.0
  0
POINT
  5
541
330
501
100
AcDbEntity
  8
DEFPOINTS
  6
BYBLOCK
 62
     0
100
AcDbPoint
 10
259.5004404228384
 20
195.8560251783507
 30
0.0
  0
ENDBLK
  5
542
330
501
100
AcDbEntity
  8
0
100
AcDbBlockEnd
  0
BLOCK
  5
52E
330
50E
100
AcDbEntity
  8
0
100
AcDbBlockBegin
  2
*D11
 70
     1
 10
0.0
 20
0.0
 30
0.0
  3
*D11
  1

  0
LINE
  5
99C
330
50E
100
AcDbEntity
  8
SUNPOU
  6
CONTINUOUS
 62
     4
100
AcDbLine
 10
368.9350953340631
 20
134.6560196151183
 30
0.0
 11
256.5004404228384
 21
134.6560196151184
 31
0.0
  0
LINE
  5
99D
330
50E
100
AcDbEntity
  8
SUNPOU
  6
CONTINUOUS
 62
     4
100
AcDbLine
 10
259.5004404228384
 20
188.8560251783507
 30
0.0
 11
259.5004404228384
 21
141.6560196151184
 31
0.0
  0
INSERT
  5
99E
330
50E
100
AcDbEntity
  8
SUNPOU
  6
CONTINUOUS
 62
     4
100
AcDbBlockReference
  2
_OPEN
 10
259.5004404228384
 20
195.8560251783507
 30
0.0
 41
7.0
 42
7.0
 43
7.0
 50
90.0
  0
INSERT
  5
99F
330
50E
100
AcDbEntity
  8
SUNPOU
  6
CONTINUOUS
 62
     4
100
AcDbBlockReference
  2
_OPEN
 10
259.5004404228384
 20
134.6560196151184
 30
0.0
 41
7.0
 42
7.0
 43
7.0
 50
270.0
  0
MTEXT
  5
9A0
330
50E
100
AcDbEntity
  8
SUNPOU
  6
CONTINUOUS
 62
     4
100
AcDbMText
 10
254.5004404228383
 20
165.2560223967346
 30
0.0
 40
6.0
 41
0.0
 71
     5
 72
     1
  1
\A1;61
 11
0.0000000000000001
 21
1.0
 31
0.0
  0
POINT
  5
9A1
330
50E
100
AcDbEntity
  8
DEFPOINTS
  6
CONTINUOUS
 62
     0
100
AcDbPoint
 10
320.1795906691565
 20
195.8560251783507
 30
0.0
  0
POINT
  5
9A2
330
50E
100
AcDbEntity
  8
DEFPOINTS
  6
CONTINUOUS
 62
     0
100
AcDbPoint
 10
374.9350953340631
 20
134.6560196151183
 30
0.0
  0
POINT
  5
9A3
330
50E
100
AcDbEntity
  8
DEFPOINTS
  6
CONTINUOUS
 62
     0
100
AcDbPoint
 10
259.5004404228384
 20
134.6560196151184
 30
0.0
  0
ENDBLK
  5
537
330
50E
100
AcDbEntity
  8
0
100
AcDbBlockEnd
  0
BLOCK
  5
B51
330
9BD
100
AcDbEntity
  8
0
100
AcDbBlockBegin
  2
*X12
 70
     1
 10
0.0
 20
0.0
 30
0.0
  3
*X12
  1

  0
LINE
  5
9BE
330
9BD
100
AcDbEntity
  8
0
 62
     0
100
AcDbLine
 10
69.04221319493291
 20
22.60416965012274
 30
0.0
 11
68.39638226521805
 21
23.2500005798376
 31
0.0
  0
LINE
  5
9BF
330
9BD
100
AcDbEntity
  8
0
 62
     0
100
AcDbLine
 10
69.04221319493297
 20
21.70614403801573
 30
0.0
 11
67.4983566531111
 21
23.2500005798376
 31
0.0
  0
LINE
  5
9C0
330
9BD
100
AcDbEntity
  8
0
 62
     0
100
AcDbLine
 10
69.04221319493291
 20
20.80811842590879
 30
0.0
 11
66.62107924891796
 21
23.22925237192373
 31
0.0
  0
LINE
  5
9C1
330
9BD
100
AcDbEntity
  8
0
 62
     0
100
AcDbLine
 10
69.04221319493297
 20
19.91009281380195
 30
0.0
 11
66.2422131949329
 21
22.71009281380196
 31
0.0
  0
LINE
  5
9C2
330
9BD
100
AcDbEntity
  8
0
 62
     0
100
AcDbLine
 10
69.04221319493297
 20
19.012067201695
 30
0.0
 11
66.2422131949329
 21
21.81206720169507
 31
0.0
  0
LINE
  5
9C3
330
9BD
100
AcDbEntity
  8
0
 62
     0
100
AcDbLine
 10
69.04221319493291
 20
18.11404158958805
 30
0.0
 11
66.24221319493284
 21
20.91404158958812
 31
0.0
  0
LINE
  5
9C4
330
9BD
100
AcDbEntity
  8
0
 62
     0
100
AcDbLine
 10
64.14221319493288
 20
22.11601597748125
 30
0.0
 11
63.00822859257653
 21
23.25000057983765
 31
0.0
  0
LINE
  5
9C5
330
9BD
100
AcDbEntity
  8
0
 62
     0
100
AcDbLine
 10
69.04221319493297
 20
17.21601597748122
 30
0.0
 11
66.2422131949329
 21
20.01601597748128
 31
0.0
  0
LINE
  5
9C6
330
9BD
100
AcDbEntity
  8
0
 62
     0
100
AcDbLine
 10
64.14221319493288
 20
21.21799036537436
 30
0.0
 11
62.11020298046964
 21
23.25000057983754
 31
0.0
  0
LINE
  5
9C7
330
9BD
100
AcDbEntity
  8
0
 62
     0
100
AcDbLine
 10
69.04221319493291
 20
16.31799036537427
 30
0.0
 11
66.2422131949329
 21
19.11799036537433
 31
0.0
  0
LINE
  5
9C8
330
9BD
100
AcDbEntity
  8
0
 62
     0
100
AcDbLine
 10
64.14221319493288
 20
20.31996475326741
 30
0.0
 11
61.43670222979579
 21
23.02547571840449
 31
0.0
  0
LINE
  5
9C9
330
9BD
100
AcDbEntity
  8
0
 62
     0
100
AcDbLine
 10
69.04221319493297
 20
15.41996475326726
 30
0.0
 11
66.24221319493284
 21
18.21996475326739
 31
0.0
  0
LINE
  5
9CA
330
9BD
100
AcDbEntity
  8
0
 62
     0
100
AcDbLine
 10
64.14221319493299
 20
19.4219391411604
 30
0.0
 11
61.34221319493292
 21
22.22193914116047
 31
0.0
  0
LINE
  5
9CB
330
9BD
100
AcDbEntity
  8
0
 62
     0
100
AcDbLine
 10
69.04221319493302
 20
14.52193914116037
 30
0.0
 11
66.2422131949329
 21
17.3219391411605
 31
0.0
  0
LINE
  5
9CC
330
9BD
100
AcDbEntity
  8
0
 62
     0
100
AcDbLine
 10
64.14221319493293
 20
18.52391352905351
 30
0.0
 11
61.34221319493287
 21
21.32391352905358
 31
0.0
  0
LINE
  5
9CD
330
9BD
100
AcDbEntity
  8
0
 62
     0
100
AcDbLine
 10
69.04221319493302
 20
13.62391352905348
 30
0.0
 11
66.24221319493296
 21
16.42391352905355
 31
0.0
  0
LINE
  5
9CE
330
9BD
100
AcDbEntity
  8
0
 62
     0
100
AcDbLine
 10
64.14221319493293
 20
17.62588791694662
 30
0.0
 11
61.34221319493292
 21
20.42588791694658
 31
0.0
  0
LINE
  5
9CF
330
9BD
100
AcDbEntity
  8
0
 62
     0
100
AcDbLine
 10
69.04221319493297
 20
12.72588791694653
 30
0.0
 11
66.2422131949329
 21
15.5258879169466
 31
0.0
  0
LINE
  5
9D0
330
9BD
100
AcDbEntity
  8
0
 62
     0
100
AcDbLine
 10
64.14221319493288
 20
16.72786230483967
 30
0.0
 11
61.34221319493292
 21
19.52786230483968
 31
0.0
  0
LINE
  5
9D1
330
9BD
100
AcDbEntity
  8
0
 62
     0
100
AcDbLine
 10
69.04221319493297
 20
11.82786230483964
 30
0.0
 11
66.2422131949329
 21
14.6278623048397
 31
0.0
  0
LINE
  5
9D2
330
9BD
100
AcDbEntity
  8
0
 62
     0
100
AcDbLine
 10
64.14221319493293
 20
15.82983669273284
 30
0.0
 11
61.34221319493298
 21
18.62983669273279
 31
0.0
  0
LINE
  5
9D3
330
9BD
100
AcDbEntity
  8
0
 62
     0
100
AcDbLine
 10
57.84221319493287
 20
22.1298366927329
 30
0.0
 11
56.72204930782811
 21
23.2500005798376
 31
0.0
  0
LINE
  5
9D4
330
9BD
100
AcDbEntity
  8
0
 62
     0
100
AcDbLine
 10
69.04221319493297
 20
10.92983669273275
 30
0.0
 11
66.24221319493296
 21
13.72983669273281
 31
0.0
  0
LINE
  5
9D5
330
9BD
100
AcDbEntity
  8
0
 62
     0
100
AcDbLine
 10
64.14221319493293
 20
14.93181108062589
 30
0.0
 11
61.34221319493292
 21
17.73181108062584
 31
0.0
  0
LINE
  5
9D6
330
9BD
100
AcDbEntity
  8
0
 62
     0
100
AcDbLine
 10
57.84221319493292
 20
21.2318110806259
 30
0.0
 11
55.82402369572122
 21
23.2500005798376
 31
0.0
  0
LINE
  5
9D7
330
9BD
100
AcDbEntity
  8
0
 62
     0
100
AcDbLine
 10
69.04221319493297
 20
10.03181108062585
 30
0.0
 11
66.2422131949329
 21
12.83181108062587
 31
0.0
  0
LINE
  5
9D8
330
9BD
100
AcDbEntity
  8
0
 62
     0
100
AcDbLine
 10
64.14221319493288
 20
14.03378546851899
 30
0.0
 11
61.34221319493292
 21
16.83378546851895
 31
0.0
  0
LINE
  5
9D9
330
9BD
100
AcDbEntity
  8
0
 62
     0
100
AcDbLine
 10
57.84221319493287
 20
20.33378546851895
 30
0.0
 11
55.14245047160881
 21
23.03354819184306
 31
0.0
  0
LINE
  5
9DA
330
9BD
100
AcDbEntity
  8
0
 62
     0
100
AcDbLine
 10
69.04221319493302
 20
9.133785468518851
 30
0.0
 11
66.2422131949329
 21
11.93378546851897
 31
0.0
  0
LINE
  5
9DB
330
9BD
100
AcDbEntity
  8
0
 62
     0
100
AcDbLine
 10
64.14221319493293
 20
13.13575985641205
 30
0.0
 11
61.34221319493292
 21
15.935759856412
 31
0.0
  0
LINE
  5
9DC
330
9BD
100
AcDbEntity
  8
0
 62
     0
100
AcDbLine
 10
57.84221319493292
 20
19.43575985641206
 30
0.0
 11
55.04221319493286
 21
22.23575985641212
 31
0.0
  0
LINE
  5
9DD
330
9BD
100
AcDbEntity
  8
0
 62
     0
100
AcDbLine
 10
69.04221319493308
 20
8.235759856411903
 30
0.0
 11
66.2422131949329
 21
11.03575985641202
 31
0.0
  0
LINE
  5
9DE
330
9BD
100
AcDbEntity
  8
0
 62
     0
100
AcDbLine
 10
64.14221319493288
 20
12.23773424430516
 30
0.0
 11
61.34221319493292
 21
15.03773424430517
 31
0.0
  0
LINE
  5
9DF
330
9BD
100
AcDbEntity
  8
0
 62
     0
100
AcDbLine
 10
57.84221319493292
 20
18.53773424430517
 30
0.0
 11
55.04221319493291
 21
21.33773424430518
 31
0.0
  0
LINE
  5
9E0
330
9BD
100
AcDbEntity
  8
0
 62
     0
100
AcDbLine
 10
68.9702478400431
 20
7.409699599194993
 30
0.0
 11
66.2422131949329
 21
10.13773424430519
 31
0.0
  0
LINE
  5
9E1
330
9BD
100
AcDbEntity
  8
0
 62
     0
100
AcDbLine
 10
64.14221319493293
 20
11.33970863219815
 30
0.0
 11
61.34221319493292
 21
14.13970863219822
 31
0.0
  0
LINE
  5
9E2
330
9BD
100
AcDbEntity
  8
0
 62
     0
100
AcDbLine
 10
57.84221319493287
 20
17.63970863219827
 30
0.0
 11
55.04221319493291
 21
20.43970863219823
 31
0.0
  0
LINE
  5
9E3
330
9BD
100
AcDbEntity
  8
0
 62
     0
100
AcDbLine
 10
68.33192124729362
 20
7.150000579837524
 30
0.0
 11
66.24221319493296
 21
9.239708632198187
 31
0.0
  0
LINE
  5
9E4
330
9BD
100
AcDbEntity
  8
0
 62
     0
100
AcDbLine
 10
57.84221319493287
 20
16.74168302009133
 30
0.0
 11
55.04221319493286
 21
19.54168302009128
 31
0.0
  0
LINE
  5
9E5
330
9BD
100
AcDbEntity
  8
0
 62
     0
100
AcDbLine
 10
64.14221319493293
 20
10.44168302009126
 30
0.0
 11
61.34221319493287
 21
13.24168302009127
 31
0.0
  0
LINE
  5
9E6
330
9BD
100
AcDbEntity
  8
0
 62
     0
100
AcDbLine
 10
52.41721319493291
 20
22.16668302009128
 30
0.0
 11
51.33389563518654
 21
23.2500005798376
 31
0.0
  0
LINE
  5
9E7
330
9BD
100
AcDbEntity
  8
0
 62
     0
100
AcDbLine
 10
67.43389563518667
 20
7.150000579837524
 30
0.0
 11
66.24221319493296
 21
8.341683020091238
 31
0.0
  0
LINE
  5
9E8
330
9BD
100
AcDbEntity
  8
0
 62
     0
100
AcDbLine
 10
57.84221319493287
 20
15.84365740798443
 30
0.0
 11
55.04221319493291
 21
18.64365740798445
 31
0.0
  0
LINE
  5
9E9
330
9BD
100
AcDbEntity
  8
0
 62
     0
100
AcDbLine
 10
52.41721319493297
 20
21.26865740798439
 30
0.0
 11
50.4358700230797
 21
23.25000057983765
 31
0.0
  0
LINE
  5
9EA
330
9BD
100
AcDbEntity
  8
0
 62
     0
100
AcDbLine
 10
64.11625489428735
 20
9.56961570863001
 30
0.0
 11
61.34221319493292
 21
12.34365740798443
 31
0.0
  0
LINE
  5
9EB
330
9BD
100
AcDbEntity
  8
0
 62
     0
100
AcDbLine
 10
57.84221319493292
 20
14.94563179587743
 30
0.0
 11
55.04221319493291
 21
17.7456317958775
 31
0.0
  0
LINE
  5
9EC
330
9BD
100
AcDbEntity
  8
0
 62
     0
100
AcDbLine
 10
52.22163264881903
 20
20.56621234199139
 30
0.0
 11
49.53784441097287
 21
23.25000057983754
 31
0.0
  0
LINE
  5
9ED
330
9BD
100
AcDbEntity
  8
0
 62
     0
100
AcDbLine
 10
63.92326959903011
 20
8.864575391780249
 30
0.0
 11
61.34221319493287
 21
11.44563179587748
 31
0.0
  0
LINE
  5
9EE
330
9BD
100
AcDbEntity
  8
0
 62
     0
100
AcDbLine
 10
57.84221319493292
 20
14.04760618377054
 30
0.0
 11
55.04221319493286
 21
16.8476061837706
 31
0.0
  0
LINE
  5
9EF
330
9BD
100
AcDbEntity
  8
0
 62
     0
100
AcDbLine
 10
51.43981879886587
 20
20.45000057983753
 30
0.0
 11
48.63981879886586
 21
23.2500005798376
 31
0.0
  0
LINE
  5
9F0
330
9BD
100
AcDbEntity
  8
0
 62
     0
100
AcDbLine
 10
63.59823772310654
 20
8.291581655596871
 30
0.0
 11
61.2706974557733
 21
10.61912192293016
 31
0.0
  0
LINE
  5
9F1
330
9BD
100
AcDbEntity
  8
0
 62
     0
100
AcDbLine
 10
57.84221319493298
 20
13.14958057166364
 30
0.0
 11
55.04221319493291
 21
15.94958057166371
 31
0.0
  0
LINE
  5
9F2
330
9BD
100
AcDbEntity
  8
0
 62
     0
100
AcDbLine
 10
50.54179318675903
 20
20.45000057983759
 30
0.0
 11
47.80422645758164
 21
23.18756730901498
 31
0.0
  0
LINE
  5
9F3
330
9BD
100
AcDbEntity
  8
0
 62
     0
100
AcDbLine
 10
63.16619592578149
 20
7.825597840815078
 30
0.0
 11
60.86911181730579
 21
10.12268194929077
 31
0.0
  0
LINE
  5
9F4
330
9BD
100
AcDbEntity
  8
0
 62
     0
100
AcDbLine
 10
57.84221319493292
 20
12.25155495955675
 30
0.0
 11
55.04221319493286
 21
15.05155495955676
 31
0.0
  0
LINE
  5
9F5
330
9BD
100
AcDbEntity
  8
0
 62
     0
100
AcDbLine
 10
49.64376757465209
 20
20.45000057983759
 30
0.0
 11
47.13958603304826
 21
22.95418212144136
 31
0.0
  0
LINE
  5
9F6
330
9BD
100
AcDbEntity
  8
0
 62
     0
100
AcDbLine
 10
62.63003358085547
 20
7.463734573634212
 30
0.0
 11
60.14376757465209
 21
9.950000579837535
 31
0.0
  0
LINE
  5
9F7
330
9BD
100
AcDbEntity
  8
0
 62
     0
100
AcDbLine
 10
57.84221319493292
 20
11.3535293474498
 30
0.0
 11
55.04221319493291
 21
14.15352934744976
 31
0.0
  0
LINE
  5
9F8
330
9BD
100
AcDbEntity
  8
0
 62
     0
100
AcDbLine
 10
48.76753179056328
 20
20.42821075181939
 30
0.0
 11
46.59698509583807
 21
22.59875744654459
 31
0.0
  0
LINE
  5
9F9
330
9BD
100
AcDbEntity
  8
0
 62
     0
100
AcDbLine
 10
61.97362102094416
 20
7.222121521438566
 30
0.0
 11
59.24574196254519
 21
9.950000579837535
 31
0.0
  0
LINE
  5
9FA
330
9BD
100
AcDbEntity
  8
0
 62
     0
100
AcDbLine
 10
48.39221319493294
 20
19.90550373534279
 30
0.0
 11
46.15887303679352
 21
22.1388438934822
 31
0.0
  0
LINE
  5
9FB
330
9BD
100
AcDbEntity
  8
0
 62
     0
100
AcDbLine
 10
61.1477163504382
 20
7.150000579837524
 30
0.0
 11
55.04221319493291
 21
13.25550373534287
 31
0.0
  0
LINE
  5
9FC
330
9BD
100
AcDbEntity
  8
0
 62
     0
100
AcDbLine
 10
48.39221319493299
 20
19.00747812323595
 30
0.0
 11
45.8271021244405
 21
21.57258919372844
 31
0.0
  0
LINE
  5
9FD
330
9BD
100
AcDbEntity
  8
0
 62
     0
100
AcDbLine
 10
60.24969073833137
 20
7.15000057983758
 30
0.0
 11
55.04221319493296
 21
12.35747812323597
 31
0.0
  0
LINE
  5
9FE
330
9BD
100
AcDbEntity
  8
0
 62
     0
100
AcDbLine
 10
48.59875747603672
 20
17.90290823002527
 30
0.0
 11
45.62492360507639
 21
20.87674210098555
 31
0.0
  0
LINE
  5
9FF
330
9BD
100
AcDbEntity
  8
0
 62
     0
100
AcDbLine
 10
59.35166512622441
 20
7.150000579837524
 30
0.0
 11
55.04221319493291
 21
11.45945251112908
 31
0.0
  0
LINE
  5
A00
330
9BD
100
AcDbEntity
  8
0
 62
     0
100
AcDbLine
 10
52.81581689762425
 20
12.7878231963308
 30
0.0
 11
45.59221319493286
 21
20.01142689902212
 31
0.0
  0
LINE
  5
A01
330
9BD
100
AcDbEntity
  8
0
 62
     0
100
AcDbLine
 10
43.49221319493278
 20
22.1114268990222
 30
0.0
 11
42.3536395141175
 21
23.25000057983754
 31
0.0
  0
LINE
  5
A02
330
9BD
100
AcDbEntity
  8
0
 62
     0
100
AcDbLine
 10
58.45363951411752
 20
7.150000579837524
 30
0.0
 11
55.04221319493291
 21
10.56142689902213
 31
0.0
  0
LINE
  5
A03
330
9BD
100
AcDbEntity
  8
0
 62
     0
100
AcDbLine
 10
52.94221319493295
 20
11.76340128691526
 30
0.0
 11
45.59221319493292
 21
19.11340128691529
 31
0.0
  0
LINE
  5
A04
330
9BD
100
AcDbEntity
  8
0
 62
     0
100
AcDbLine
 10
43.4922131949329
 20
21.21340128691525
 30
0.0
 11
41.45561390201055
 21
23.25000057983765
 31
0.0
  0
LINE
  5
A05
330
9BD
100
AcDbEntity
  8
0
 62
     0
100
AcDbLine
 10
57.5391660232658
 20
7.166448458582408
 30
0.0
 11
55.05866107367779
 21
9.646953408170418
 31
0.0
  0
LINE
  5
A06
330
9BD
100
AcDbEntity
  8
0
 62
     0
100
AcDbLine
 10
43.4922131949329
 20
20.31537567480836
 30
0.0
 11
40.78482330715758
 21
23.02276556258362
 31
0.0
  0
LINE
  5
A07
330
9BD
100
AcDbEntity
  8
0
 62
     0
100
AcDbLine
 10
52.94221319493289
 20
10.86537567480831
 30
0.0
 11
45.61562386281525
 21
18.19196500692601
 31
0.0
  0
LINE
  5
A08
330
9BD
100
AcDbEntity
  8
0
 62
     0
100
AcDbLine
 10
43.4922131949329
 20
19.41735006270141
 30
0.0
 11
40.69221319493289
 21
22.21735006270137
 31
0.0
  0
LINE
  5
A09
330
9BD
100
AcDbEntity
  8
0
 62
     0
100
AcDbLine
 10
52.94221319493295
 20
9.967350062701314
 30
0.0
 11
45.93374328065528
 21
16.97581997697904
 31
0.0
  0
LINE
  5
A0A
330
9BD
100
AcDbEntity
  8
0
 62
     0
100
AcDbLine
 10
43.4922131949329
 20
18.51932445059452
 30
0.0
 11
40.69221319493294
 21
21.31932445059447
 31
0.0
  0
LINE
  5
A0B
330
9BD
100
AcDbEntity
  8
0
 62
     0
100
AcDbLine
 10
52.83365137734381
 20
9.177886268183613
 30
0.0
 11
50.1380165883055
 21
11.87352105722192
 31
0.0
  0
LINE
  5
A0C
330
9BD
100
AcDbEntity
  8
0
 62
     0
100
AcDbLine
 10
43.4922131949329
 20
17.62129883848763
 30
0.0
 11
40.69221319493289
 21
20.42129883848758
 31
0.0
  0
LINE
  5
A0D
330
9BD
100
AcDbEntity
  8
0
 62
     0
100
AcDbLine
 10
38.40072629435587
 20
22.7127857390646
 30
0.0
 11
37.86351145358287
 21
23.25000057983765
 31
0.0
  0
LINE
  5
A0E
330
9BD
100
AcDbEntity
  8
0
 62
     0
100
AcDbLine
 10
52.56577566958225
 20
8.547736363838282
 30
0.0
 11
50.14221319493299
 21
10.97129883848754
 31
0.0
  0
LINE
  5
A0F
330
9BD
100
AcDbEntity
  8
0
 62
     0
100
AcDbLine
 10
43.49221319493284
 20
16.72327322638068
 30
0.0
 11
40.69221319493289
 21
19.52327322638069
 31
0.0
  0
LINE
  5
A10
330
9BD
100
AcDbEntity
  8
0
 62
     0
100
AcDbLine
 10
38.20179863010327
 20
22.01368779121025
 30
0.0
 11
36.96548584147598
 21
23.2500005798376
 31
0.0
  0
LINE
  5
A11
330
9BD
100
AcDbEntity
  8
0
 62
     0
100
AcDbLine
 10
52.18278887140695
 20
8.032697549906629
 30
0.0
 11
50.04492801204645
 21
10.17055840926712
 31
0.0
  0
LINE
  5
A12
330
9BD
100
AcDbEntity
  8
0
 62
     0
100
AcDbLine
 10
43.49221319493284
 20
15.82524761427379
 30
0.0
 11
40.69221319493289
 21
18.62524761427374
 31
0.0
  0
LINE
  5
A13
330
9BD
100
AcDbEntity
  8
0
 62
     0
100
AcDbLine
 10
37.98627248319758
 20
21.33118832600899
 30
0.0
 11
36.077056919727
 21
23.24040388947963
 31
0.0
  0
LINE
  5
A14
330
9BD
100
AcDbEntity
  8
0
 62
     0
100
AcDbLine
 10
51.69646990629132
 20
7.620990902915252
 30
0.0
 11
49.3674602293691
 21
9.950000579837535
 31
0.0
  0
LINE
  5
A15
330
9BD
100
AcDbEntity
  8
0
 62
     0
100
AcDbLine
 10
43.49221319493295
 20
14.92722200216684
 30
0.0
 11
40.69221319493289
 21
17.72722200216685
 31
0.0
  0
LINE
  5
A16
330
9BD
100
AcDbEntity
  8
0
 62
     0
100
AcDbLine
 10
37.77074633629206
 20
20.64868886080773
 30
0.0
 11
35.64274633629202
 21
22.77668886080778
 31
0.0
  0
LINE
  5
A17
330
9BD
100
AcDbEntity
  8
0
 62
     0
100
AcDbLine
 10
51.10038595783095
 20
7.319049239268792
 30
0.0
 11
48.46943461726221
 21
9.950000579837592
 31
0.0
  0
LINE
  5
A18
330
9BD
100
AcDbEntity
  8
0
 62
     0
100
AcDbLine
 10
43.49221319493295
 20
14.02919639005989
 30
0.0
 11
40.69221319493289
 21
16.82919639005996
 31
0.0
  0
LINE
  5
A19
330
9BD
100
AcDbEntity
  8
0
 62
     0
100
AcDbLine
 10
37.5552201893862
 20
19.96618939560664
 30
0.0
 11
35.42722018938633
 21
22.09418939560652
 31
0.0
  0
LINE
  5
A1A
330
9BD
100
AcDbEntity
  8
0
 62
     0
100
AcDbLine
 10
50.36271330618347
 20
7.158696278809372
 30
0.0
 11
47.57140900515532
 21
9.950000579837535
 31
0.0
  0
LINE
  5
A1B
330
9BD
100
AcDbEntity
  8
0
 62
     0
100
AcDbLine
 10
43.4922131949329
 20
13.131170777953
 30
0.0
 11
40.69221319493283
 21
15.93117077795301
 31
0.0
  0
LINE
  5
A1C
330
9BD
100
AcDbEntity
  8
0
 62
     0
100
AcDbLine
 10
37.33969404248063
 20
19.28368993040527
 30
0.0
 11
35.21169404248064
 21
21.41168993040526
 31
0.0
  0
LINE
  5
A1D
330
9BD
100
AcDbEntity
  8
0
 62
     0
100
AcDbLine
 10
49.47338339304832
 20
7.150000579837524
 30
0.0
 11
46.67338339304836
 21
9.950000579837535
 31
0.0
  0
LINE
  5
A1E
330
9BD
100
AcDbEntity
  8
0
 62
     0
100
AcDbLine
 10
43.49221319493295
 20
12.23314516584611
 30
0.0
 11
40.69221319493289
 21
15.03314516584618
 31
0.0
  0
LINE
  5
A1F
330
9BD
100
AcDbEntity
  8
0
 62
     0
100
AcDbLine
 10
37.12416789557505
 20
18.60119046520401
 30
0.0
 11
34.9961678955749
 21
20.72919046520411
 31
0.0
  0
LINE
  5
A20
330
9BD
100
AcDbEntity
  8
0
 62
     0
100
AcDbLine
 10
48.57535778094149
 20
7.15000057983758
 30
0.0
 11
46.14174608364516
 21
9.583612277133909
 31
0.0
  0
LINE
  5
A21
330
9BD
100
AcDbEntity
  8
0
 62
     0
100
AcDbLine
 10
36.90864174866931
 20
17.91869100000281
 30
0.0
 11
34.78064174866932
 21
20.04669100000279
 31
0.0
  0
LINE
  5
A22
330
9BD
100
AcDbEntity
  8
0
 62
     0
100
AcDbLine
 10
43.4922131949329
 20
11.33511955373916
 30
0.0
 11
40.69221319493289
 21
14.13511955373923
 31
0.0
  0
LINE
  5
A23
330
9BD
100
AcDbEntity
  8
0
 62
     0
100
AcDbLine
 10
32.64221319493299
 20
22.18511955373912
 30
0.0
 11
31.57733216883451
 21
23.2500005798376
 31
0.0
  0
LINE
  5
A24
330
9BD
100
AcDbEntity
  8
0
 62
     0
100
AcDbLine
 10
47.67733216883465
 20
7.150000579837467
 30
0.0
 11
46.1172131949329
 21
8.710119553739218
 31
0.0
  0
LINE
  5
A25
330
9BD
100
AcDbEntity
  8
0
 62
     0
100
AcDbLine
 10
36.69311560176362
 20
17.23619153480155
 30
0.0
 11
34.56511560176363
 21
19.36419153480153
 31
0.0
  0
LINE
  5
A26
330
9BD
100
AcDbEntity
  8
0
 62
     0
100
AcDbLine
 10
43.4922131949329
 20
10.43709394163226
 30
0.0
 11
40.69221319493283
 21
13.23709394163233
 31
0.0
  0
LINE
  5
A27
330
9BD
100
AcDbEntity
  8
0
 62
     0
100
AcDbLine
 10
32.64221319493293
 20
21.28709394163223
 30
0.0
 11
30.67930655672757
 21
23.25000057983754
 31
0.0
  0
LINE
  5
A28
330
9BD
100
AcDbEntity
  8
0
 62
     0
100
AcDbLine
 10
46.77930655672764
 20
7.150000579837524
 30
0.0
 11
46.11721319493284
 21
7.812093941632269
 31
0.0
  0
LINE
  5
A29
330
9BD
100
AcDbEntity
  8
0
 62
     0
100
AcDbLine
 10
36.47758945485793
 20
16.55369206960028
 30
0.0
 11
34.34958945485789
 21
18.68169206960033
 31
0.0
  0
LINE
  5
A2A
330
9BD
100
AcDbEntity
  8
0
 62
     0
100
AcDbLine
 10
32.64221319493293
 20
20.38906832952528
 30
0.0
 11
29.96676826603522
 21
23.064513258423
 31
0.0
  0
LINE
  5
A2B
330
9BD
100
AcDbEntity
  8
0
 62
     0
100
AcDbLine
 10
43.4922131949329
 20
9.539068329525321
 30
0.0
 11
40.69221319493283
 21
12.33906832952539
 31
0.0
  0
LINE
  5
A2C
330
9BD
100
AcDbEntity
  8
0
 62
     0
100
AcDbLine
 10
36.2620633079523
 20
15.87119260439908
 30
0.0
 11
34.13406330795226
 21
17.99919260439912
 31
0.0
  0
LINE
  5
A2D
330
9BD
100
AcDbEntity
  8
0
 62
     0
100
AcDbLine
 10
32.64221319493293
 20
19.49104271741839
 30
0.0
 11
29.84221319493292
 21
22.29104271741846
 31
0.0
  0
LINE
  5
A2E
330
9BD
100
AcDbEntity
  8
0
 62
     0
100
AcDbLine
 10
43.4922131949329
 20
8.641042717418486
 30
0.0
 11
40.69221319493283
 21
11.44104271741849
 31
0.0
  0
LINE
  5
A2F
330
9BD
100
AcDbEntity
  8
0
 62
     0
100
AcDbLine
 10
36.05697479856042
 20
15.17825550168402
 30
0.0
 11
33.91853716104657
 21
17.31669313919786
 31
0.0
  0
LINE
  5
A30
330
9BD
100
AcDbEntity
  8
0
 62
     0
100
AcDbLine
 10
32.64221319493293
 20
18.5930171053115
 30
0.0
 11
29.84221319493286
 21
21.39301710531151
 31
0.0
  0
LINE
  5
A31
330
9BD
100
AcDbEntity
  8
0
 62
     0
100
AcDbLine
 10
43.49221319493295
 20
7.74301710531148
 30
0.0
 11
40.69221319493283
 21
10.5430171053116
 31
0.0
  0
LINE
  5
A32
330
9BD
100
AcDbEntity
  8
0
 62
     0
100
AcDbLine
 10
36.47144815799441
 20
13.86575653014307
 30
0.0
 11
33.62798966536195
 21
16.70921502277553
 31
0.0
  0
LINE
  5
A33
330
9BD
100
AcDbEntity
  8
0
 62
     0
100
AcDbLine
 10
32.64221319493293
 20
17.69499149320455
 30
0.0
 11
29.84221319493286
 21
20.49499149320462
 31
0.0
  0
LINE
  5
A34
330
9BD
100
AcDbEntity
  8
0
 62
     0
100
AcDbLine
 10
43.15316819760044
 20
7.184036490536982
 30
0.0
 11
40.69221319493289
 21
9.644991493204599
 31
0.0
  0
LINE
  5
A35
330
9BD
100
AcDbEntity
  8
0
 62
     0
100
AcDbLine
 10
36.88592151742847
 20
12.55325755860218
 30
0.0
 11
29.84221319493286
 21
19.59696588109773
 31
0.0
  0
LINE
  5
A36
330
9BD
100
AcDbEntity
  8
0
 62
     0
100
AcDbLine
 10
27.39221319493305
 20
22.0469658810976
 30
0.0
 11
26.18917849619299
 21
23.25000057983765
 31
0.0
  0
LINE
  5
A37
330
9BD
100
AcDbEntity
  8
0
 62
     0
100
AcDbLine
 10
42.28917849619313
 20
7.150000579837524
 30
0.0
 11
40.69221319493294
 21
8.746965881097708
 31
0.0
  0
LINE
  5
A38
330
9BD
100
AcDbEntity
  8
0
 62
     0
100
AcDbLine
 10
37.30039487686235
 20
11.24075858706129
 30
0.0
 11
29.84221319493286
 21
18.69894026899084
 31
0.0
  0
LINE
  5
A39
330
9BD
100
AcDbEntity
  8
0
 62
     0
100
AcDbLine
 10
27.39221319493299
 20
21.14894026899071
 30
0.0
 11
25.29115288408604
 21
23.2500005798376
 31
0.0
  0
LINE
  5
A3A
330
9BD
100
AcDbEntity
  8
0
 62
     0
100
AcDbLine
 10
41.39115288408612
 20
7.15000057983758
 30
0.0
 11
40.69221319493289
 21
7.848940268990816
 31
0.0
  0
LINE
  5
A3B
330
9BD
100
AcDbEntity
  8
0
 62
     0
100
AcDbLine
 10
27.12530649954283
 20
20.51782135227392
 30
0.0
 11
24.4250847813314
 21
23.21804307048529
 31
0.0
  0
LINE
  5
A3C
330
9BD
100
AcDbEntity
  8
0
 62
     0
100
AcDbLine
 10
37.71486823629629
 20
9.92825961552046
 30
0.0
 11
29.84221319493286
 21
17.80091465688389
 31
0.0
  0
LINE
  5
A3D
330
9BD
100
AcDbEntity
  8
0
 62
     0
100
AcDbLine
 10
32.97972211727449
 20
13.76538012243537
 30
0.0
 11
29.84221319493298
 21
16.90288904477688
 31
0.0
  0
LINE
  5
A3E
330
9BD
100
AcDbEntity
  8
0
 62
     0
100
AcDbLine
 10
26.29510165987227
 20
20.45000057983759
 30
0.0
 11
23.68704171174414
 21
23.05806052796572
 31
0.0
  0
LINE
  5
A3F
330
9BD
100
AcDbEntity
  8
0
 62
     0
100
AcDbLine
 10
38.12934159573029
 20
8.615760643979569
 30
0.0
 11
34.03703390342241
 21
12.70806833628739
 31
0.0
  0
LINE
  5
A40
330
9BD
100
AcDbEntity
  8
0
 62
     0
100
AcDbLine
 10
32.64221319493293
 20
13.20486343267003
 30
0.0
 11
29.84221319493292
 21
16.00486343267005
 31
0.0
  0
LINE
  5
A41
330
9BD
100
AcDbEntity
  8
0
 62
     0
100
AcDbLine
 10
25.39707604776538
 20
20.45000057983753
 30
0.0
 11
23.04832029591341
 21
22.7987563316895
 31
0.0
  0
LINE
  5
A42
330
9BD
100
AcDbEntity
  8
0
 62
     0
100
AcDbLine
 10
38.3643804534409
 20
7.482696174162015
 30
0.0
 11
34.45150726285635
 21
11.39556936474662
 31
0.0
  0
LINE
  5
A43
330
9BD
100
AcDbEntity
  8
0
 62
     0
100
AcDbLine
 10
32.64221319493287
 20
12.30683782056314
 30
0.0
 11
29.84221319493292
 21
15.1068378205631
 31
0.0
  0
LINE
  5
A44
330
9BD
100
AcDbEntity
  8
0
 62
     0
100
AcDbLine
 10
24.55396254522185
 20
20.39508847027417
 30
0.0
 11
22.48957132057887
 21
22.45947969491715
 31
0.0
  0
LINE
  5
A45
330
9BD
100
AcDbEntity
  8
0
 62
     0
100
AcDbLine
 10
37.79905043565844
 20
7.15000057983758
 30
0.0
 11
34.86598062229029
 21
10.08307039320573
 31
0.0
  0
LINE
  5
A46
330
9BD
100
AcDbEntity
  8
0
 62
     0
100
AcDbLine
 10
32.64221319493287
 20
11.40881220845619
 30
0.0
 11
29.84221319493286
 21
14.20881220845615
 31
0.0
  0
LINE
  5
A47
330
9BD
100
AcDbEntity
  8
0
 62
     0
100
AcDbLine
 10
23.98210635238285
 20
20.06891905100621
 30
0.0
 11
22.00191611196709
 21
22.04910929142198
 31
0.0
  0
LINE
  5
A48
330
9BD
100
AcDbEntity
  8
0
 62
     0
100
AcDbLine
 10
36.90102482355155
 20
7.150000579837524
 30
0.0
 11
35.28045398172435
 21
8.770571421664726
 31
0.0
  0
LINE
  5
A49
330
9BD
100
AcDbEntity
  8
0
 62
     0
100
AcDbLine
 10
27.72764232773062
 20
15.42535746355162
 30
0.0
 11
26.21757007864687
 21
16.93542971263537
 31
0.0
  0
LINE
  5
A4A
330
9BD
100
AcDbEntity
  8
0
 62
     0
100
AcDbLine
 10
32.64221319493299
 20
10.51078659634924
 30
0.0
 11
29.84221319493292
 21
13.31078659634931
 31
0.0
  0
LINE
  5
A4B
330
9BD
100
AcDbEntity
  8
0
 62
     0
100
AcDbLine
 10
23.62598478225391
 20
19.52701500902833
 30
0.0
 11
21.58255008595586
 21
21.57044970532638
 31
0.0
  0
LINE
  5
A4C
330
9BD
100
AcDbEntity
  8
0
 62
     0
100
AcDbLine
 10
35.9526662072401
 20
7.200333584042141
 30
0.0
 11
35.70231203564878
 21
7.450687755633452
 31
0.0
  0
LINE
  5
A4D
330
9BD
100
AcDbEntity
  8
0
 62
     0
100
AcDbLine
 10
27.6411286675887
 20
14.61384551158658
 30
0.0
 11
25.40605812668184
 21
16.84891605249345
 31
0.0
  0
LINE
  5
A4E
330
9BD
100
AcDbEntity
  8
0
 62
     0
100
AcDbLine
 10
23.54221319493297
 20
18.71276098424232
 30
0.0
 11
21.23361106499419
 21
21.0213631141811
 31
0.0
  0
LINE
  5
A4F
330
9BD
100
AcDbEntity
  8
0
 62
     0
100
AcDbLine
 10
32.64221319493293
 20
9.612760984242299
 30
0.0
 11
29.84221319493292
 21
12.41276098424236
 31
0.0
  0
LINE
  5
A50
330
9BD
100
AcDbEntity
  8
0
 62
     0
100
AcDbLine
 10
27.30927310829065
 20
14.04767545877763
 30
0.0
 11
24.83988807387288
 21
16.5170604931954
 31
0.0
  0
LINE
  5
A51
330
9BD
100
AcDbEntity
  8
0
 62
     0
100
AcDbLine
 10
23.54221319493297
 20
17.81473537213537
 30
0.0
 11
20.96303135778402
 21
20.39391720928432
 31
0.0
  0
LINE
  5
A52
330
9BD
100
AcDbEntity
  8
0
 62
     0
100
AcDbLine
 10
32.64221319493293
 20
8.714735372135407
 30
0.0
 11
29.84221319493286
 21
11.51473537213547
 31
0.0
  0
LINE
  5
A53
330
9BD
100
AcDbEntity
  8
0
 62
     0
100
AcDbLine
 10
23.54221319493297
 20
16.91670976002848
 30
0.0
 11
20.78831748485816
 21
19.67060547010333
 31
0.0
  0
LINE
  5
A54
330
9BD
100
AcDbEntity
  8
0
 62
     0
100
AcDbLine
 10
26.80743966615421
 20
13.6514832888073
 30
0.0
 11
24.44369590390255
 21
16.01522705105895
 31
0.0
  0
LINE
  5
A55
330
9BD
100
AcDbEntity
  8
0
 62
     0
100
AcDbLine
 10
18.1172131949329
 20
22.3417097600286
 30
0.0
 11
17.2089223751239
 21
23.2500005798376
 31
0.0
  0
LINE
  5
A56
330
9BD
100
AcDbEntity
  8
0
 62
     0
100
AcDbLine
 10
32.64221319493299
 20
7.816709760028516
 30
0.0
 11
29.84221319493292
 21
10.61670976002858
 31
0.0
  0
LINE
  5
A57
330
9BD
100
AcDbEntity
  8
0
 62
     0
100
AcDbLine
 10
23.54221319493297
 20
16.01868414792159
 30
0.0
 11
20.7422131949329
 21
18.81868414792165
 31
0.0
  0
LINE
  5
A58
330
9BD
100
AcDbEntity
  8
0
 62
     0
100
AcDbLine
 10
26.10712022372678
 20
13.45377711912777
 30
0.0
 11
24.24598973422303
 21
15.31490760863152
 31
0.0
  0
LINE
  5
A59
330
9BD
100
AcDbEntity
  8
0
 62
     0
100
AcDbLine
 10
18.11721319493284
 20
21.44368414792165
 30
0.0
 11
16.31089676301695
 21
23.25000057983754
 31
0.0
  0
LINE
  5
A5A
330
9BD
100
AcDbEntity
  8
0
 62
     0
100
AcDbLine
 10
32.35430939366227
 20
7.206587949192282
 30
0.0
 11
29.84221319493286
 21
9.718684147921635
 31
0.0
  0
LINE
  5
A5B
330
9BD
100
AcDbEntity
  8
0
 62
     0
100
AcDbLine
 10
23.54221319493297
 20
15.12065853581464
 30
0.0
 11
20.7422131949329
 21
17.92065853581471
 31
0.0
  0
LINE
  5
A5C
330
9BD
100
AcDbEntity
  8
0
 62
     0
100
AcDbLine
 10
18.00817922466251
 20
20.65469250608509
 30
0.0
 11
15.41287115090995
 21
23.2500005798376
 31
0.0
  0
LINE
  5
A5D
330
9BD
100
AcDbEntity
  8
0
 62
     0
100
AcDbLine
 10
31.51287115091008
 20
7.150000579837524
 30
0.0
 11
29.84221319493286
 21
8.820658535814743
 31
0.0
  0
LINE
  5
A5E
330
9BD
100
AcDbEntity
  8
0
 62
     0
100
AcDbLine
 10
23.54221319493291
 20
14.22263292370774
 30
0.0
 11
20.74221319493284
 21
17.02263292370776
 31
0.0
  0
LINE
  5
A5F
330
9BD
100
AcDbEntity
  8
0
 62
     0
100
AcDbLine
 10
17.31484553880312
 20
20.45000057983753
 30
0.0
 11
14.51484553880305
 21
23.2500005798376
 31
0.0
  0
LINE
  5
A60
330
9BD
100
AcDbEntity
  8
0
 62
     0
100
AcDbLine
 10
30.61484553880314
 20
7.150000579837467
 30
0.0
 11
29.84221319493286
 21
7.922632923707794
 31
0.0
  0
LINE
  5
A61
330
9BD
100
AcDbEntity
  8
0
 62
     0
100
AcDbLine
 10
23.54221319493302
 20
13.3246073116008
 30
0.0
 11
20.7422131949329
 21
16.12460731160092
 31
0.0
  0
LINE
  5
A62
330
9BD
100
AcDbEntity
  8
0
 62
     0
100
AcDbLine
 10
16.41681992669623
 20
20.45000057983759
 30
0.0
 11
13.65169065459139
 21
23.21512985194243
 31
0.0
  0
LINE
  5
A63
330
9BD
100
AcDbEntity
  8
0
 62
     0
100
AcDbLine
 10
27.38961074609596
 20
9.477209760437801
 30
0.0
 11
26.91942237553325
 21
9.947398131000568
 31
0.0
  0
LINE
  5
A64
330
9BD
100
AcDbEntity
  8
0
 62
     0
100
AcDbLine
 10
23.54221319493302
 20
12.42658169949385
 30
0.0
 11
20.7422131949329
 21
15.22658169949397
 31
0.0
  0
LINE
  5
A65
330
9BD
100
AcDbEntity
  8
0
 62
     0
100
AcDbLine
 10
15.51879431458928
 20
20.45000057983753
 30
0.0
 11
12.95855584611291
 21
23.01023904831396
 31
0.0
  0
LINE
  5
A66
330
9BD
100
AcDbEntity
  8
0
 62
     0
100
AcDbLine
 10
27.39221319493299
 20
8.576581699493885
 30
0.0
 11
26.01879431458934
 21
9.950000579837535
 31
0.0
  0
LINE
  5
A67
330
9BD
100
AcDbEntity
  8
0
 62
     0
100
AcDbLine
 10
23.54221319493297
 20
11.5285560873869
 30
0.0
 11
20.74221319493295
 21
14.32855608738697
 31
0.0
  0
LINE
  5
A68
330
9BD
100
AcDbEntity
  8
0
 62
     0
100
AcDbLine
 10
14.62076870248228
 20
20.45000057983759
 30
0.0
 11
12.39430918626567
 21
22.6764600960542
 31
0.0
  0
LINE
  5
A69
330
9BD
100
AcDbEntity
  8
0
 62
     0
100
AcDbLine
 10
27.39221319493293
 20
7.678556087386937
 30
0.0
 11
25.12076870248233
 21
9.950000579837592
 31
0.0
  0
LINE
  5
A6A
330
9BD
100
AcDbEntity
  8
0
 62
     0
100
AcDbLine
 10
14.11047587486786
 20
20.06226779534523
 30
0.0
 11
11.93621637402492
 21
22.23652729618817
 31
0.0
  0
LINE
  5
A6B
330
9BD
100
AcDbEntity
  8
0
 62
     0
100
AcDbLine
 10
27.00448041044058
 20
7.168263259772515
 30
0.0
 11
20.74221319493295
 21
13.43053047528013
 31
0.0
  0
LINE
  5
A6C
330
9BD
100
AcDbEntity
  8
0
 62
     0
100
AcDbLine
 10
14.09221319493292
 20
19.18250486317322
 30
0.0
 11
11.58273517155584
 21
21.6919828865503
 31
0.0
  0
LINE
  5
A6D
330
9BD
100
AcDbEntity
  8
0
 62
     0
100
AcDbLine
 10
26.12471747826868
 20
7.150000579837467
 30
0.0
 11
20.74221319493295
 21
12.53250486317318
 31
0.0
  0
LINE
  5
A6E
330
9BD
100
AcDbEntity
  8
0
 62
     0
100
AcDbLine
 10
14.15434890306835
 20
18.22234354293078
 30
0.0
 11
11.35185506926211
 21
21.02483737673708
 31
0.0
  0
LINE
  5
A6F
330
9BD
100
AcDbEntity
  8
0
 62
     0
100
AcDbLine
 10
25.22669186616167
 20
7.150000579837524
 30
0.0
 11
20.7422131949329
 21
11.63447925106623
 31
0.0
  0
LINE
  5
A70
330
9BD
100
AcDbEntity
  8
0
 62
     0
100
AcDbLine
 10
18.44658928615558
 20
13.03207754773672
 30
0.0
 11
11.29221319493296
 21
20.18645363895933
 31
0.0
  0
LINE
  5
A71
330
9BD
100
AcDbEntity
  8
0
 62
     0
100
AcDbLine
 10
24.27539416699812
 20
7.203272666894179
 30
0.0
 11
20.79548528198955
 21
10.68318155190274
 31
0.0
  0
LINE
  5
A72
330
9BD
100
AcDbEntity
  8
0
 62
     0
100
AcDbLine
 10
18.6384838002408
 20
11.9421574215446
 30
0.0
 11
11.29221319493291
 21
19.28842802685244
 31
0.0
  0
LINE
  5
A73
330
9BD
100
AcDbEntity
  8
0
 62
     0
100
AcDbLine
 10
22.90158625439653
 20
7.679054967388822
 30
0.0
 11
21.27126758248414
 21
9.30937363930127
 31
0.0
  0
LINE
  5
A74
330
9BD
100
AcDbEntity
  8
0
 62
     0
100
AcDbLine
 10
18.64221319493299
 20
11.04040241474547
 30
0.0
 11
11.29977764235525
 21
18.38283796732315
 31
0.0
  0
LINE
  5
A75
330
9BD
100
AcDbEntity
  8
0
 62
     0
100
AcDbLine
 10
18.64221319493287
 20
10.14237680263863
 30
0.0
 11
11.5230684006791
 21
17.26152159689235
 31
0.0
  0
LINE
  5
A76
330
9BD
100
AcDbEntity
  8
0
 62
     0
100
AcDbLine
 10
18.56969319880096
 20
9.316871186663718
 30
0.0
 11
15.8063015551819
 21
12.08026283028277
 31
0.0
  0
LINE
  5
A77
330
9BD
100
AcDbEntity
  8
0
 62
     0
100
AcDbLine
 10
18.32775525977211
 20
8.660783513585613
 30
0.0
 11
15.84221319493292
 21
11.1463255784248
 31
0.0
  0
LINE
  5
A78
330
9BD
100
AcDbEntity
  8
0
 62
     0
100
AcDbLine
 10
17.96563601239034
 20
8.124877148860434
 30
0.0
 11
15.80631416263219
 21
10.28419899861859
 31
0.0
  0
LINE
  5
A79
330
9BD
100
AcDbEntity
  8
0
 62
     0
100
AcDbLine
 10
17.49940964012347
 20
7.693077909020416
 30
0.0
 11
15.24248696930635
 21
9.950000579837592
 31
0.0
  0
LINE
  5
A7A
330
9BD
100
AcDbEntity
  8
0
 62
     0
100
AcDbLine
 10
16.92614519239066
 20
7.368316744646335
 30
0.0
 11
14.3444613571994
 21
9.950000579837535
 31
0.0
  0
LINE
  5
A7B
330
9BD
100
AcDbEntity
  8
0
 62
     0
100
AcDbLine
 10
16.22073260330472
 20
7.175703721625325
 30
0.0
 11
13.44643574509251
 21
9.950000579837535
 31
0.0
  0
LINE
  5
A7C
330
9BD
100
AcDbEntity
  8
0
 62
     0
100
AcDbLine
 10
15.34841013298557
 20
7.150000579837524
 30
0.0
 11
12.54841013298556
 21
9.950000579837535
 31
0.0
  0
LINE
  5
A7D
330
9BD
100
AcDbEntity
  8
0
 62
     0
100
AcDbLine
 10
14.45038452087874
 20
7.150000579837467
 30
0.0
 11
11.89706062606086
 21
9.703324474655403
 31
0.0
  0
LINE
  5
A7E
330
9BD
100
AcDbEntity
  8
0
 62
     0
100
AcDbLine
 10
13.55235890877173
 20
7.150000579837524
 30
0.0
 11
11.81721319493294
 21
8.885146293676314
 31
0.0
  0
LINE
  5
A7F
330
9BD
100
AcDbEntity
  8
0
 62
     0
100
AcDbLine
 10
12.6543332966649
 20
7.150000579837467
 30
0.0
 11
11.81721319493294
 21
7.987120681569422
 31
0.0
  0
LINE
  5
A80
330
9BD
100
AcDbEntity
  8
0
 62
     0
100
AcDbLine
 10
68.63390047959985
 20
7.163132356955031
 30
0.0
 11
69.02908141781563
 21
7.558313295170819
 31
0.0
  0
LINE
  5
A81
330
9BD
100
AcDbEntity
  8
0
 62
     0
100
AcDbLine
 10
67.72274309037539
 20
7.15000057983741
 30
0.0
 11
69.04221319493308
 21
8.469470684395105
 31
0.0
  0
LINE
  5
A82
330
9BD
100
AcDbEntity
  8
0
 62
     0
100
AcDbLine
 10
66.82471747826849
 20
7.15000057983741
 30
0.0
 11
69.04221319493308
 21
9.367496296501997
 31
0.0
  0
LINE
  5
A83
330
9BD
100
AcDbEntity
  8
0
 62
     0
100
AcDbLine
 10
66.27341075818475
 20
7.496719471860615
 30
0.0
 11
69.04221319493302
 21
10.26552190860894
 31
0.0
  0
LINE
  5
A84
330
9BD
100
AcDbEntity
  8
0
 62
     0
100
AcDbLine
 10
66.24221319493296
 20
8.363547520715769
 30
0.0
 11
69.04221319493302
 21
11.16354752071578
 31
0.0
  0
LINE
  5
A85
330
9BD
100
AcDbEntity
  8
0
 62
     0
100
AcDbLine
 10
66.24221319493301
 20
9.261573132822661
 30
0.0
 11
69.04221319493302
 21
12.06157313282273
 31
0.0
  0
LINE
  5
A86
330
9BD
100
AcDbEntity
  8
0
 62
     0
100
AcDbLine
 10
66.24221319493296
 20
10.1595987449296
 30
0.0
 11
69.04221319493302
 21
12.95959874492967
 31
0.0
  0
LINE
  5
A87
330
9BD
100
AcDbEntity
  8
0
 62
     0
100
AcDbLine
 10
66.24221319493296
 20
11.0576243570365
 30
0.0
 11
69.04221319493302
 21
13.85762435703657
 31
0.0
  0
LINE
  5
A88
330
9BD
100
AcDbEntity
  8
0
 62
     0
100
AcDbLine
 10
62.66877805699824
 20
7.484189219101779
 30
0.0
 11
63.80802455566879
 21
8.623435717772395
 31
0.0
  0
LINE
  5
A89
330
9BD
100
AcDbEntity
  8
0
 62
     0
100
AcDbLine
 10
66.24221319493296
 20
11.95564996914339
 30
0.0
 11
69.04221319493302
 21
14.75564996914346
 31
0.0
  0
LINE
  5
A8A
330
9BD
100
AcDbEntity
  8
0
 62
     0
100
AcDbLine
 10
61.43820989047544
 20
7.15164666468587
 30
0.0
 11
64.14056711008476
 21
9.854003884295138
 31
0.0
  0
LINE
  5
A8B
330
9BD
100
AcDbEntity
  8
0
 62
     0
100
AcDbLine
 10
66.24221319493296
 20
12.85367558125034
 30
0.0
 11
69.04221319493302
 21
15.65367558125035
 31
0.0
  0
LINE
  5
A8C
330
9BD
100
AcDbEntity
  8
0
 62
     0
100
AcDbLine
 10
60.53853819352003
 20
7.15000057983741
 30
0.0
 11
64.14221319493305
 21
10.75367558125037
 31
0.0
  0
LINE
  5
A8D
330
9BD
100
AcDbEntity
  8
0
 62
     0
100
AcDbLine
 10
66.24221319493296
 20
13.75170119335723
 30
0.0
 11
69.04221319493297
 21
16.5517011933573
 31
0.0
  0
LINE
  5
A8E
330
9BD
100
AcDbEntity
  8
0
 62
     0
100
AcDbLine
 10
59.64051258141314
 20
7.15000057983741
 30
0.0
 11
64.14221319493299
 21
11.65170119335732
 31
0.0
  0
LINE
  5
A8F
330
9BD
100
AcDbEntity
  8
0
 62
     0
100
AcDbLine
 10
66.24221319493296
 20
14.64972680546412
 30
0.0
 11
69.04221319493302
 21
17.44972680546419
 31
0.0
  0
LINE
  5
A90
330
9BD
100
AcDbEntity
  8
0
 62
     0
100
AcDbLine
 10
58.7424869693063
 20
7.150000579837467
 30
0.0
 11
64.14221319493305
 21
12.54972680546421
 31
0.0
  0
LINE
  5
A91
330
9BD
100
AcDbEntity
  8
0
 62
     0
100
AcDbLine
 10
61.23762199285192
 20
10.54316121549004
 30
0.0
 11
64.14221319493305
 21
13.44775241757111
 31
0.0
  0
LINE
  5
A92
330
9BD
100
AcDbEntity
  8
0
 62
     0
100
AcDbLine
 10
66.24221319493296
 20
15.54775241757101
 30
0.0
 11
69.04221319493302
 21
18.34775241757108
 31
0.0
  0
LINE
  5
A93
330
9BD
100
AcDbEntity
  8
0
 62
     0
100
AcDbLine
 10
57.84446135719929
 20
7.15000057983741
 30
0.0
 11
60.74905255928041
 21
10.05459178191847
 31
0.0
  0
LINE
  5
A94
330
9BD
100
AcDbEntity
  8
0
 62
     0
100
AcDbLine
 10
61.34221319493292
 20
11.54577802967799
 30
0.0
 11
64.14221319493299
 21
14.34577802967806
 31
0.0
  0
LINE
  5
A95
330
9BD
100
AcDbEntity
  8
0
 62
     0
100
AcDbLine
 10
66.2422131949329
 20
16.44577802967796
 30
0.0
 11
69.04221319493297
 21
19.24577802967803
 31
0.0
  0
LINE
  5
A96
330
9BD
100
AcDbEntity
  8
0
 62
     0
100
AcDbLine
 10
57.05838549646961
 20
7.26195033121462
 30
0.0
 11
59.74643574509247
 21
9.950000579837478
 31
0.0
  0
LINE
  5
A97
330
9BD
100
AcDbEntity
  8
0
 62
     0
100
AcDbLine
 10
61.34221319493298
 20
12.44380364178499
 30
0.0
 11
64.14221319493299
 21
15.24380364178495
 31
0.0
  0
LINE
  5
A98
330
9BD
100
AcDbEntity
  8
0
 62
     0
100
AcDbLine
 10
66.2422131949329
 20
17.34380364178491
 30
0.0
 11
69.04221319493297
 21
20.14380364178492
 31
0.0
  0
LINE
  5
A99
330
9BD
100
AcDbEntity
  8
0
 62
     0
100
AcDbLine
 10
56.43039862925945
 20
7.531989076111472
 30
0.0
 11
58.84928791862989
 21
9.950878365481912
 31
0.0
  0
LINE
  5
A9A
330
9BD
100
AcDbEntity
  8
0
 62
     0
100
AcDbLine
 10
61.34221319493303
 20
13.34182925389188
 30
0.0
 11
64.14221319493299
 21
16.14182925389184
 31
0.0
  0
LINE
  5
A9B
330
9BD
100
AcDbEntity
  8
0
 62
     0
100
AcDbLine
 10
66.24221319493296
 20
18.24182925389175
 30
0.0
 11
69.04221319493297
 21
21.04182925389181
 31
0.0
  0
LINE
  5
A9C
330
9BD
100
AcDbEntity
  8
0
 62
     0
100
AcDbLine
 10
55.9171387478944
 20
7.916754806853191
 30
0.0
 11
58.2058093299172
 21
10.20542538887605
 31
0.0
  0
LINE
  5
A9D
330
9BD
100
AcDbEntity
  8
0
 62
     0
100
AcDbLine
 10
61.34221319493303
 20
14.23985486599877
 30
0.0
 11
64.14221319493299
 21
17.03985486599879
 31
0.0
  0
LINE
  5
A9E
330
9BD
100
AcDbEntity
  8
0
 62
     0
100
AcDbLine
 10
66.2422131949329
 20
19.1398548659987
 30
0.0
 11
69.04221319493297
 21
21.93985486599876
 31
0.0
  0
LINE
  5
A9F
330
9BD
100
AcDbEntity
  8
0
 62
     0
100
AcDbLine
 10
55.50717457266927
 20
8.404816243735012
 30
0.0
 11
57.86857105150779
 21
10.76621272257358
 31
0.0
  0
LINE
  5
AA0
330
9BD
100
AcDbEntity
  8
0
 62
     0
100
AcDbLine
 10
61.34221319493298
 20
15.13788047810573
 30
0.0
 11
64.14221319493305
 21
17.93788047810579
 31
0.0
  0
LINE
  5
AA1
330
9BD
100
AcDbEntity
  8
0
 62
     0
100
AcDbLine
 10
66.2422131949329
 20
20.03788047810559
 30
0.0
 11
69.03206404138251
 21
22.82773132455525
 31
0.0
  0
LINE
  5
AA2
330
9BD
100
AcDbEntity
  8
0
 62
     0
100
AcDbLine
 10
55.20724969423525
 20
9.002916977408006
 30
0.0
 11
57.84221319493298
 21
11.63788047810567
 31
0.0
  0
LINE
  5
AA3
330
9BD
100
AcDbEntity
  8
0
 62
     0
100
AcDbLine
 10
61.34221319493303
 20
16.03590609021256
 30
0.0
 11
64.14221319493311
 21
18.83590609021263
 31
0.0
  0
LINE
  5
AA4
330
9BD
100
AcDbEntity
  8
0
 62
     0
100
AcDbLine
 10
66.2422131949329
 20
20.93590609021248
 30
0.0
 11
68.55494969630303
 21
23.2486425915826
 31
0.0
  0
LINE
  5
AA5
330
9BD
100
AcDbEntity
  8
0
 62
     0
100
AcDbLine
 10
55.04983615927881
 20
9.743529054558393
 30
0.0
 11
57.84221319493298
 21
12.53590609021256
 31
0.0
  0
LINE
  5
AA6
330
9BD
100
AcDbEntity
  8
0
 62
     0
100
AcDbLine
 10
61.34221319493298
 20
16.93393170231951
 30
0.0
 11
64.14221319493305
 21
19.73393170231958
 31
0.0
  0
LINE
  5
AA7
330
9BD
100
AcDbEntity
  8
0
 62
     0
100
AcDbLine
 10
66.24221319493296
 20
21.83393170231949
 30
0.0
 11
67.65828207245096
 21
23.25000057983749
 31
0.0
  0
LINE
  5
AA8
330
9BD
100
AcDbEntity
  8
0
 62
     0
100
AcDbLine
 10
55.04221319493303
 20
10.6339317023195
 30
0.0
 11
57.84221319493304
 21
13.43393170231957
 31
0.0
  0
LINE
  5
AA9
330
9BD
100
AcDbEntity
  8
0
 62
     0
100
AcDbLine
 10
61.34221319493298
 20
17.83195731442646
 30
0.0
 11
64.14221319493305
 21
20.63195731442647
 31
0.0
  0
LINE
  5
AAA
330
9BD
100
AcDbEntity
  8
0
 62
     0
100
AcDbLine
 10
55.04221319493296
 20
11.53195731442645
 30
0.0
 11
57.84221319493304
 21
14.33195731442651
 31
0.0
  0
LINE
  5
AAB
330
9BD
100
AcDbEntity
  8
0
 62
     0
100
AcDbLine
 10
66.2422599096804
 20
22.73200402917388
 30
0.0
 11
66.76020974559668
 21
23.2499538650901
 31
0.0
  0
LINE
  5
AAC
330
9BD
100
AcDbEntity
  8
0
 62
     0
100
AcDbLine
 10
50.72065756422097
 20
7.210401683714394
 30
0.0
 11
52.88181209105613
 21
9.371556210549613
 31
0.0
  0
LINE
  5
AAD
330
9BD
100
AcDbEntity
  8
0
 62
     0
100
AcDbLine
 10
55.04221319493296
 20
12.42998292653334
 30
0.0
 11
57.84221319493304
 21
15.2299829265334
 31
0.0
  0
LINE
  5
AAE
330
9BD
100
AcDbEntity
  8
0
 62
     0
100
AcDbLine
 10
61.34221319493298
 20
18.72998292653335
 30
0.0
 11
64.14221319493299
 21
21.52998292653342
 31
0.0
  0
LINE
  5
AAF
330
9BD
100
AcDbEntity
  8
0
 62
     0
100
AcDbLine
 10
49.76223084823709
 20
7.150000579837524
 30
0.0
 11
52.94221319493295
 21
10.32998292653337
 31
0.0
  0
LINE
  5
AB0
330
9BD
100
AcDbEntity
  8
0
 62
     0
100
AcDbLine
 10
55.04221319493296
 20
13.32800853864023
 30
0.0
 11
57.84221319493304
 21
16.1280085386403
 31
0.0
  0
LINE
  5
AB1
330
9BD
100
AcDbEntity
  8
0
 62
     0
100
AcDbLine
 10
61.34221319493298
 20
19.62800853864024
 30
0.0
 11
64.14221319493305
 21
22.42800853864031
 31
0.0
  0
LINE
  5
AB2
330
9BD
100
AcDbEntity
  8
0
 62
     0
100
AcDbLine
 10
48.8642052361302
 20
7.150000579837467
 30
0.0
 11
52.942213194933
 21
11.22800853864021
 31
0.0
  0
LINE
  5
AB3
330
9BD
100
AcDbEntity
  8
0
 62
     0
100
AcDbLine
 10
55.04221319493296
 20
14.22603415074718
 30
0.0
 11
57.84221319493304
 21
17.02603415074719
 31
0.0
  0
LINE
  5
AB4
330
9BD
100
AcDbEntity
  8
0
 62
     0
100
AcDbLine
 10
61.34221319493298
 20
20.52603415074713
 30
0.0
 11
63.9484757400989
 21
23.13229669591311
 31
0.0
  0
LINE
  5
AB5
330
9BD
100
AcDbEntity
  8
0
 62
     0
100
AcDbLine
 10
47.96617962402331
 20
7.150000579837524
 30
0.0
 11
52.92789459452001
 21
12.11171555033422
 31
0.0
  0
LINE
  5
AB6
330
9BD
100
AcDbEntity
  8
0
 62
     0
100
AcDbLine
 10
55.04221319493296
 20
15.12405976285407
 30
0.0
 11
57.84221319493298
 21
17.92405976285414
 31
0.0
  0
LINE
  5
AB7
330
9BD
100
AcDbEntity
  8
0
 62
     0
100
AcDbLine
 10
61.34221319493292
 20
21.42405976285408
 30
0.0
 11
63.16815401191639
 21
23.25000057983754
 31
0.0
  0
LINE
  5
AB8
330
9BD
100
AcDbEntity
  8
0
 62
     0
100
AcDbLine
 10
47.06815401191636
 20
7.150000579837524
 30
0.0
 11
52.79298222389127
 21
12.87482879181237
 31
0.0
  0
LINE
  5
AB9
330
9BD
100
AcDbEntity
  8
0
 62
     0
100
AcDbLine
 10
55.04221319493296
 20
16.02208537496096
 30
0.0
 11
57.84221319493304
 21
18.82208537496103
 31
0.0
  0
LINE
  5
ABA
330
9BD
100
AcDbEntity
  8
0
 62
     0
100
AcDbLine
 10
50.1422131949331
 20
11.12208537496104
 30
0.0
 11
52.55239476697273
 21
13.53226694700066
 31
0.0
  0
LINE
  5
ABB
330
9BD
100
AcDbEntity
  8
0
 62
     0
100
AcDbLine
 10
61.34221319493298
 20
22.32208537496097
 30
0.0
 11
62.27012839980955
 21
23.25000057983754
 31
0.0
  0
LINE
  5
ABC
330
9BD
100
AcDbEntity
  8
0
 62
     0
100
AcDbLine
 10
46.29838375294059
 20
7.27825593296859
 30
0.0
 11
48.97012839980948
 21
9.950000579837478
 31
0.0
  0
LINE
  5
ABD
330
9BD
100
AcDbEntity
  8
0
 62
     0
100
AcDbLine
 10
50.12234261980569
 20
12.00024041194058
 30
0.0
 11
52.22889546211217
 21
14.10679325424706
 31
0.0
  0
LINE
  5
ABE
330
9BD
100
AcDbEntity
  8
0
 62
     0
100
AcDbLine
 10
55.04221319493296
 20
16.92011098706785
 30
0.0
 11
57.84221319493298
 21
19.72011098706792
 31
0.0
  0
LINE
  5
ABF
330
9BD
100
AcDbEntity
  8
0
 62
     0
100
AcDbLine
 10
46.11721319493301
 20
7.995110987067903
 30
0.0
 11
48.07210278770253
 21
9.950000579837478
 31
0.0
  0
LINE
  5
AC0
330
9BD
100
AcDbEntity
  8
0
 62
     0
100
AcDbLine
 10
49.84795778266681
 20
12.6238811869087
 30
0.0
 11
51.83302434418436
 21
14.60894774842626
 31
0.0
  0
LINE
  5
AC1
330
9BD
100
AcDbEntity
  8
0
 62
     0
100
AcDbLine
 10
55.04221319493291
 20
17.8181365991748
 30
0.0
 11
57.84221319493298
 21
20.61813659917487
 31
0.0
  0
LINE
  5
AC2
330
9BD
100
AcDbEntity
  8
0
 62
     0
100
AcDbLine
 10
46.11721319493296
 20
8.893136599174852
 30
0.0
 11
47.17407717559564
 21
9.950000579837535
 31
0.0
  0
LINE
  5
AC3
330
9BD
100
AcDbEntity
  8
0
 62
     0
100
AcDbLine
 10
55.04221319493296
 20
18.71616221128169
 30
0.0
 11
57.84221319493304
 21
21.51616221128171
 31
0.0
  0
LINE
  5
AC4
330
9BD
100
AcDbEntity
  8
0
 62
     0
100
AcDbLine
 10
49.40668288554974
 20
13.08063190189841
 30
0.0
 11
51.38658187287205
 21
15.06053088922072
 31
0.0
  0
LINE
  5
AC5
330
9BD
100
AcDbEntity
  8
0
 62
     0
100
AcDbLine
 10
48.95767007949626
 20
13.52964470795188
 30
0.0
 11
50.93756906681858
 21
15.5095436952742
 31
0.0
  0
LINE
  5
AC6
330
9BD
100
AcDbEntity
  8
0
 62
     0
100
AcDbLine
 10
55.04221319493291
 20
19.61418782338859
 30
0.0
 11
57.84221319493298
 21
22.41418782338866
 31
0.0
  0
LINE
  5
AC7
330
9BD
100
AcDbEntity
  8
0
 62
     0
100
AcDbLine
 10
42.57802595138179
 20
7.150000579837467
 30
0.0
 11
43.49221319493295
 21
8.064187823388579
 31
0.0
  0
LINE
  5
AC8
330
9BD
100
AcDbEntity
  8
0
 62
     0
100
AcDbLine
 10
48.50865727344279
 20
13.97865751400536
 30
0.0
 11
50.48855626076511
 21
15.95855650132767
 31
0.0
  0
LINE
  5
AC9
330
9BD
100
AcDbEntity
  8
0
 62
     0
100
AcDbLine
 10
55.04221319493291
 20
20.51221343549554
 30
0.0
 11
57.65603228683431
 21
23.12603252739688
 31
0.0
  0
LINE
  5
ACA
330
9BD
100
AcDbEntity
  8
0
 62
     0
100
AcDbLine
 10
41.68000033927484
 20
7.150000579837467
 30
0.0
 11
43.49221319493302
 21
8.962213435495584
 31
0.0
  0
LINE
  5
ACB
330
9BD
100
AcDbEntity
  8
0
 62
     0
100
AcDbLine
 10
48.05964446738932
 20
14.42767032005883
 30
0.0
 11
50.03954345471163
 21
16.40756930738115
 31
0.0
  0
LINE
  5
ACC
330
9BD
100
AcDbEntity
  8
0
 62
     0
100
AcDbLine
 10
55.04221319493291
 20
21.41023904760243
 30
0.0
 11
56.88197472716803
 21
23.2500005798376
 31
0.0
  0
LINE
  5
ACD
330
9BD
100
AcDbEntity
  8
0
 62
     0
100
AcDbLine
 10
40.89358586502993
 20
7.261611717699452
 30
0.0
 11
43.49221319493295
 21
9.860239047602533
 31
0.0
  0
LINE
  5
ACE
330
9BD
100
AcDbEntity
  8
0
 62
     0
100
AcDbLine
 10
47.6106316613359
 20
14.87668312611225
 30
0.0
 11
49.59053064865821
 21
16.85658211343457
 31
0.0
  0
LINE
  5
ACF
330
9BD
100
AcDbEntity
  8
0
 62
     0
100
AcDbLine
 10
55.04221319493291
 20
22.30826465970932
 30
0.0
 11
55.98394911506119
 21
23.25000057983754
 31
0.0
  0
LINE
  5
AD0
330
9BD
100
AcDbEntity
  8
0
 62
     0
100
AcDbLine
 10
40.692213194933
 20
7.958264659709413
 30
0.0
 11
43.49221319493302
 21
10.75826465970936
 31
0.0
  0
LINE
  5
AD1
330
9BD
100
AcDbEntity
  8
0
 62
     0
100
AcDbLine
 10
47.16161885528243
 20
15.32569593216573
 30
0.0
 11
49.14151784260474
 21
17.30559491948804
 31
0.0
  0
LINE
  5
AD2
330
9BD
100
AcDbEntity
  8
0
 62
     0
100
AcDbLine
 10
40.692213194933
 20
8.856290271816362
 30
0.0
 11
43.49221319493295
 21
11.65629027181631
 31
0.0
  0
LINE
  5
AD3
330
9BD
100
AcDbEntity
  8
0
 62
     0
100
AcDbLine
 10
46.71463495424108
 20
15.77673764323139
 30
0.0
 11
48.69860848762312
 21
17.76071117661337
 31
0.0
  0
LINE
  5
AD4
330
9BD
100
AcDbEntity
  8
0
 62
     0
100
AcDbLine
 10
40.692213194933
 20
9.754315883923254
 30
0.0
 11
43.49221319493295
 21
12.55431588392326
 31
0.0
  0
LINE
  5
AD5
330
9BD
100
AcDbEntity
  8
0
 62
     0
100
AcDbLine
 10
51.38789789084717
 20
20.45000057983747
 30
0.0
 11
52.41721319493302
 21
21.47931588392328
 31
0.0
  0
LINE
  5
AD6
330
9BD
100
AcDbEntity
  8
0
 62
     0
100
AcDbLine
 10
38.19955697022277
 20
7.261659659213023
 30
0.0
 11
38.28920933167779
 21
7.351312020668103
 31
0.0
  0
LINE
  5
AD7
330
9BD
100
AcDbEntity
  8
0
 62
     0
100
AcDbLine
 10
46.31663277541912
 20
16.27676107651626
 30
0.0
 11
48.41626705283772
 21
18.37639535393486
 31
0.0
  0
LINE
  5
AD8
330
9BD
100
AcDbEntity
  8
0
 62
     0
100
AcDbLine
 10
40.692213194933
 20
10.65234149603014
 30
0.0
 11
43.49221319493302
 21
13.4523414960301
 31
0.0
  0
LINE
  5
AD9
330
9BD
100
AcDbEntity
  8
0
 62
     0
100
AcDbLine
 10
50.48987227874039
 20
20.45000057983753
 30
0.0
 11
52.41721319493302
 21
22.37734149603017
 31
0.0
  0
LINE
  5
ADA
330
9BD
100
AcDbEntity
  8
0
 62
     0
100
AcDbLine
 10
37.18987227874032
 20
7.150000579837467
 30
0.0
 11
38.25565137504685
 21
8.215779676143995
 31
0.0
  0
LINE
  5
ADB
330
9BD
100
AcDbEntity
  8
0
 62
     0
100
AcDbLine
 10
45.99079851102243
 20
16.84895242422652
 30
0.0
 11
48.39221319493311
 21
19.25036710813719
 31
0.0
  0
LINE
  5
ADC
330
9BD
100
AcDbEntity
  8
0
 62
     0
100
AcDbLine
 10
40.692213194933
 20
11.55036710813703
 30
0.0
 11
43.49221319493295
 21
14.35036710813704
 31
0.0
  0
LINE
  5
ADD
330
9BD
100
AcDbEntity
  8
0
 62
     0
100
AcDbLine
 10
49.59184666663339
 20
20.45000057983747
 30
0.0
 11
52.25054426313511
 21
23.1086981763392
 31
0.0
  0
LINE
  5
ADE
330
9BD
100
AcDbEntity
  8
0
 62
     0
100
AcDbLine
 10
36.29184666663332
 20
7.15000057983741
 30
0.0
 11
38.04012522814116
 21
8.898279141345255
 31
0.0
  0
LINE
  5
ADF
330
9BD
100
AcDbEntity
  8
0
 62
     0
100
AcDbLine
 10
40.69221319493294
 20
12.44839272024398
 30
0.0
 11
43.49221319493295
 21
15.24839272024394
 31
0.0
  0
LINE
  5
AE0
330
9BD
100
AcDbEntity
  8
0
 62
     0
100
AcDbLine
 10
45.74741644835234
 20
17.50359597366338
 30
0.0
 11
51.49382105452651
 21
23.25000057983754
 31
0.0
  0
LINE
  5
AE1
330
9BD
100
AcDbEntity
  8
0
 62
     0
100
AcDbLine
 10
35.69983235597834
 20
7.456011881289384
 30
0.0
 11
37.82459908123547
 21
9.580778606546516
 31
0.0
  0
LINE
  5
AE2
330
9BD
100
AcDbEntity
  8
0
 62
     0
100
AcDbLine
 10
40.69221319493294
 20
13.34641833235093
 30
0.0
 11
43.4922131949329
 21
16.14641833235089
 31
0.0
  0
LINE
  5
AE3
330
9BD
100
AcDbEntity
  8
0
 62
     0
100
AcDbLine
 10
45.60870958926665
 20
18.26291472668464
 30
0.0
 11
50.59579544241961
 21
23.25000057983754
 31
0.0
  0
LINE
  5
AE4
330
9BD
100
AcDbEntity
  8
0
 62
     0
100
AcDbLine
 10
35.48107293432974
 20
8.135278071747734
 30
0.0
 11
37.60907293432978
 21
10.26327807174777
 31
0.0
  0
LINE
  5
AE5
330
9BD
100
AcDbEntity
  8
0
 62
     0
100
AcDbLine
 10
40.692213194933
 20
14.24444394445777
 30
0.0
 11
43.49221319493295
 21
17.04444394445778
 31
0.0
  0
LINE
  5
AE6
330
9BD
100
AcDbEntity
  8
0
 62
     0
100
AcDbLine
 10
45.59221319493298
 20
19.14444394445775
 30
0.0
 11
49.69776983031272
 21
23.25000057983754
 31
0.0
  0
LINE
  5
AE7
330
9BD
100
AcDbEntity
  8
0
 62
     0
100
AcDbLine
 10
35.26554678742411
 20
8.817777536948938
 30
0.0
 11
37.39354678742421
 21
10.94577753694898
 31
0.0
  0
LINE
  5
AE8
330
9BD
100
AcDbEntity
  8
0
 62
     0
100
AcDbLine
 10
40.69221319493294
 20
15.14246955656472
 30
0.0
 11
43.49221319493295
 21
17.94246955656467
 31
0.0
  0
LINE
  5
AE9
330
9BD
100
AcDbEntity
  8
0
 62
     0
100
AcDbLine
 10
45.59221319493303
 20
20.04246955656475
 30
0.0
 11
48.79974421820583
 21
23.25000057983754
 31
0.0
  0
LINE
  5
AEA
330
9BD
100
AcDbEntity
  8
0
 62
     0
100
AcDbLine
 10
35.05002064051836
 20
9.500277002150141
 30
0.0
 11
37.17802064051858
 21
11.62827700215035
 31
0.0
  0
LINE
  5
AEB
330
9BD
100
AcDbEntity
  8
0
 62
     0
100
AcDbLine
 10
40.69221319493294
 20
16.04049516867161
 30
0.0
 11
43.49221319493302
 21
18.84049516867167
 31
0.0
  0
LINE
  5
AEC
330
9BD
100
AcDbEntity
  8
0
 62
     0
100
AcDbLine
 10
34.83449449361273
 20
10.18277646735145
 30
0.0
 11
36.96249449361284
 21
12.3107764673515
 31
0.0
  0
LINE
  5
AED
330
9BD
100
AcDbEntity
  8
0
 62
     0
100
AcDbLine
 10
45.64552986505418
 20
20.99381183879291
 30
0.0
 11
47.84840193597751
 21
23.19668390971622
 31
0.0
  0
LINE
  5
AEE
330
9BD
100
AcDbEntity
  8
0
 62
     0
100
AcDbLine
 10
31.80171860609874
 20
7.150000579837467
 30
0.0
 11
32.64221319493293
 21
7.990495168671657
 31
0.0
  0
LINE
  5
AEF
330
9BD
100
AcDbEntity
  8
0
 62
     0
100
AcDbLine
 10
34.61896834670716
 20
10.86527593255266
 30
0.0
 11
36.7469683467072
 21
12.99327593255276
 31
0.0
  0
LINE
  5
AF0
330
9BD
100
AcDbEntity
  8
0
 62
     0
100
AcDbLine
 10
40.69221319493294
 20
16.9385207807785
 30
0.0
 11
43.49221319493302
 21
19.73852078077857
 31
0.0
  0
LINE
  5
AF1
330
9BD
100
AcDbEntity
  8
0
 62
     0
100
AcDbLine
 10
30.90369299399191
 20
7.15000057983741
 30
0.0
 11
32.64221319493299
 21
8.888520780778549
 31
0.0
  0
LINE
  5
AF2
330
9BD
100
AcDbEntity
  8
0
 62
     0
100
AcDbLine
 10
34.40344219980147
 20
11.54777539775392
 30
0.0
 11
36.53144219980152
 21
13.67577539775402
 31
0.0
  0
LINE
  5
AF3
330
9BD
100
AcDbEntity
  8
0
 62
     0
100
AcDbLine
 10
40.69221319493294
 20
17.83654639288545
 30
0.0
 11
43.49221319493302
 21
20.63654639288546
 31
0.0
  0
LINE
  5
AF4
330
9BD
100
AcDbEntity
  8
0
 62
     0
100
AcDbLine
 10
30.08681712953626
 20
7.231150327488762
 30
0.0
 11
32.64221319493299
 21
9.786546392885441
 31
0.0
  0
LINE
  5
AF5
330
9BD
100
AcDbEntity
  8
0
 62
     0
100
AcDbLine
 10
34.18791605289579
 20
12.23027486295518
 30
0.0
 11
36.31591605289583
 21
14.35827486295528
 31
0.0
  0
LINE
  5
AF6
330
9BD
100
AcDbEntity
  8
0
 62
     0
100
AcDbLine
 10
40.69221319493294
 20
18.73457200499234
 30
0.0
 11
43.49221319493295
 21
21.53457200499241
 31
0.0
  0
LINE
  5
AF7
330
9BD
100
AcDbEntity
  8
0
 62
     0
100
AcDbLine
 10
29.84221319493298
 20
7.884572004992378
 30
0.0
 11
32.64221319493305
 21
10.68457200499244
 31
0.0
  0
LINE
  5
AF8
330
9BD
100
AcDbEntity
  8
0
 62
     0
100
AcDbLine
 10
33.97238990599015
 20
12.91277432815638
 30
0.0
 11
36.10038990599031
 21
15.04077432815654
 31
0.0
  0
LINE
  5
AF9
330
9BD
100
AcDbEntity
  8
0
 62
     0
100
AcDbLine
 10
40.69221319493294
 20
19.63259761709923
 30
0.0
 11
43.49221319493302
 21
22.4325976170993
 31
0.0
  0
LINE
  5
AFA
330
9BD
100
AcDbEntity
  8
0
 62
     0
100
AcDbLine
 10
29.84221319493298
 20
8.78259761709927
 30
0.0
 11
32.64221319493305
 21
11.58259761709933
 31
0.0
  0
LINE
  5
AFB
330
9BD
100
AcDbEntity
  8
0
 62
     0
100
AcDbLine
 10
33.73759111901842
 20
13.57600115329165
 30
0.0
 11
36.36788518694931
 21
16.20629522122254
 31
0.0
  0
LINE
  5
AFC
330
9BD
100
AcDbEntity
  8
0
 62
     0
100
AcDbLine
 10
40.692213194933
 20
20.53062322920624
 30
0.0
 11
43.29593777243457
 21
23.13434780670775
 31
0.0
  0
LINE
  5
AFD
330
9BD
100
AcDbEntity
  8
0
 62
     0
100
AcDbLine
 10
29.84221319493298
 20
9.680623229206219
 30
0.0
 11
32.64221319493305
 21
12.48062322920623
 31
0.0
  0
LINE
  5
AFE
330
9BD
100
AcDbEntity
  8
0
 62
     0
100
AcDbLine
 10
33.05040574915102
 20
13.78684139553121
 30
0.0
 11
36.7823585463833
 21
17.51879419276349
 31
0.0
  0
LINE
  5
AFF
330
9BD
100
AcDbEntity
  8
0
 62
     0
100
AcDbLine
 10
29.84221319493298
 20
10.57864884131311
 30
0.0
 11
32.65537237923928
 21
13.39180802561941
 31
0.0
  0
LINE
  5
B00
330
9BD
100
AcDbEntity
  8
0
 62
     0
100
AcDbLine
 10
40.692213194933
 20
21.42864884131313
 30
0.0
 11
42.51356493345736
 21
23.25000057983754
 31
0.0
  0
LINE
  5
B01
330
9BD
100
AcDbEntity
  8
0
 62
     0
100
AcDbLine
 10
26.41356493345734
 20
7.150000579837467
 30
0.0
 11
27.39221319493299
 21
8.128648841313179
 31
0.0
  0
LINE
  5
B02
330
9BD
100
AcDbEntity
  8
0
 62
     0
100
AcDbLine
 10
29.84221319493292
 20
11.47667445342005
 30
0.0
 11
37.19683190581724
 21
18.83129316430438
 31
0.0
  0
LINE
  5
B03
330
9BD
100
AcDbEntity
  8
0
 62
     0
100
AcDbLine
 10
40.69221319493294
 20
22.32667445342008
 30
0.0
 11
41.61553932135041
 21
23.25000057983754
 31
0.0
  0
LINE
  5
B04
330
9BD
100
AcDbEntity
  8
0
 62
     0
100
AcDbLine
 10
25.51553932135039
 20
7.150000579837524
 30
0.0
 11
27.39221319493305
 21
9.026674453420184
 31
0.0
  0
LINE
  5
B05
330
9BD
100
AcDbEntity
  8
0
 62
     0
100
AcDbLine
 10
29.84221319493298
 20
12.37470006552689
 30
0.0
 11
37.61130526525136
 21
20.14379213584533
 31
0.0
  0
LINE
  5
B06
330
9BD
100
AcDbEntity
  8
0
 62
     0
100
AcDbLine
 10
24.6291943335936
 20
7.161681204187573
 30
0.0
 11
27.25087891132682
 21
9.783365781920736
 31
0.0
  0
LINE
  5
B07
330
9BD
100
AcDbEntity
  8
0
 62
     0
100
AcDbLine
 10
29.84221319493292
 20
13.27272567763384
 30
0.0
 11
33.16948809713659
 21
16.60000057983751
 31
0.0
  0
LINE
  5
B08
330
9BD
100
AcDbEntity
  8
0
 62
     0
100
AcDbLine
 10
33.9334709323773
 20
17.36398341507822
 30
0.0
 11
38.0257786246853
 21
21.45629110738622
 31
0.0
  0
LINE
  5
B09
330
9BD
100
AcDbEntity
  8
0
 62
     0
100
AcDbLine
 10
23.86103381614663
 20
7.291546298847492
 30
0.0
 11
26.51948809713656
 21
9.950000579837478
 31
0.0
  0
LINE
  5
B0A
330
9BD
100
AcDbEntity
  8
0
 62
     0
100
AcDbLine
 10
29.84221319493292
 20
14.17075128974079
 30
0.0
 11
32.66020376564125
 21
16.98874186044906
 31
0.0
  0
LINE
  5
B0B
330
9BD
100
AcDbEntity
  8
0
 62
     0
100
AcDbLine
 10
34.34794429181124
 20
18.67648238661905
 30
0.0
 11
38.40085007648662
 21
22.72938817129448
 31
0.0
  0
LINE
  5
B0C
330
9BD
100
AcDbEntity
  8
0
 62
     0
100
AcDbLine
 10
23.19989955932021
 20
7.528437654128083
 30
0.0
 11
25.62146248502966
 21
9.950000579837478
 31
0.0
  0
LINE
  5
B0D
330
9BD
100
AcDbEntity
  8
0
 62
     0
100
AcDbLine
 10
29.84221319493298
 20
15.06877690184762
 30
0.0
 11
32.64221319493299
 21
17.86877690184769
 31
0.0
  0
LINE
  5
B0E
330
9BD
100
AcDbEntity
  8
0
 62
     0
100
AcDbLine
 10
34.76241765124536
 20
19.98898135816006
 30
0.0
 11
38.00683820391742
 21
23.23340191083212
 31
0.0
  0
LINE
  5
B0F
330
9BD
100
AcDbEntity
  8
0
 62
     0
100
AcDbLine
 10
22.62229627515591
 20
7.848859982070564
 30
0.0
 11
24.73835813364877
 21
9.964921840563476
 31
0.0
  0
LINE
  5
B10
330
9BD
100
AcDbEntity
  8
0
 62
     0
100
AcDbLine
 10
29.84221319493292
 20
15.96680251395457
 30
0.0
 11
32.64221319493299
 21
18.76680251395464
 31
0.0
  0
LINE
  5
B11
330
9BD
100
AcDbEntity
  8
0
 62
     0
100
AcDbLine
 10
35.17689101067929
 20
21.30148032970089
 30
0.0
 11
37.12541126081584
 21
23.25000057983749
 31
0.0
  0
LINE
  5
B12
330
9BD
100
AcDbEntity
  8
0
 62
     0
100
AcDbLine
 10
22.11734130877386
 20
8.241930627795454
 30
0.0
 11
24.10404199263047
 21
10.22863131165206
 31
0.0
  0
LINE
  5
B13
330
9BD
100
AcDbEntity
  8
0
 62
     0
100
AcDbLine
 10
29.84221319493292
 20
16.86482812606146
 30
0.0
 11
32.64221319493299
 21
19.66482812606153
 31
0.0
  0
LINE
  5
B14
330
9BD
100
AcDbEntity
  8
0
 62
     0
100
AcDbLine
 10
26.50384732670943
 20
13.52646225783803
 30
0.0
 11
27.66575151693251
 21
14.68836644806111
 31
0.0
  0
LINE
  5
B15
330
9BD
100
AcDbEntity
  8
0
 62
     0
100
AcDbLine
 10
35.59136437011318
 20
22.61397930124178
 30
0.0
 11
36.22738564870889
 21
23.25000057983749
 31
0.0
  0
LINE
  5
B16
330
9BD
100
AcDbEntity
  8
0
 62
     0
100
AcDbLine
 10
21.68090423544402
 20
8.703519166572618
 30
0.0
 11
23.69379104135828
 21
10.71640597248688
 31
0.0
  0
LINE
  5
B17
330
9BD
100
AcDbEntity
  8
0
 62
     0
100
AcDbLine
 10
25.57887448507961
 20
13.49951502831515
 30
0.0
 11
27.69269874645539
 21
15.61333928969088
 31
0.0
  0
LINE
  5
B18
330
9BD
100
AcDbEntity
  8
0
 62
     0
100
AcDbLine
 10
29.84221319493298
 20
17.76285373816847
 30
0.0
 11
32.64221319493305
 21
20.56285373816854
 31
0.0
  0
LINE
  5
B19
330
9BD
100
AcDbEntity
  8
0
 62
     0
100
AcDbLine
 10
21.31388501050105
 20
9.234525553736546
 30
0.0
 11
23.54221319493297
 21
11.46285373816851
 31
0.0
  0
LINE
  5
B1A
330
9BD
100
AcDbEntity
  8
0
 62
     0
100
AcDbLine
 10
24.96472791565941
 20
13.78339407100173
 30
0.0
 11
27.40881970376875
 21
16.22748585911114
 31
0.0
  0
LINE
  5
B1B
330
9BD
100
AcDbEntity
  8
0
 62
     0
100
AcDbLine
 10
29.84221319493298
 20
18.66087935027536
 30
0.0
 11
32.64221319493305
 21
21.46087935027543
 31
0.0
  0
LINE
  5
B1C
330
9BD
100
AcDbEntity
  8
0
 62
     0
100
AcDbLine
 10
21.02256750057631
 20
9.841233655918699
 30
0.0
 11
23.54221319493297
 21
12.36087935027535
 31
0.0
  0
LINE
  5
B1D
330
9BD
100
AcDbEntity
  8
0
 62
     0
100
AcDbLine
 10
24.52676798866969
 20
14.24345975611902
 30
0.0
 11
26.94875401865152
 21
16.6654457861008
 31
0.0
  0
LINE
  5
B1E
330
9BD
100
AcDbEntity
  8
0
 62
     0
100
AcDbLine
 10
29.84221319493298
 20
19.55890496238231
 30
0.0
 11
32.64221319493305
 21
22.35890496238232
 31
0.0
  0
LINE
  5
B1F
330
9BD
100
AcDbEntity
  8
0
 62
     0
100
AcDbLine
 10
20.82143013640166
 20
10.53812190385099
 30
0.0
 11
23.54221319493297
 21
13.2589049623823
 31
0.0
  0
LINE
  5
B20
330
9BD
100
AcDbEntity
  8
0
 62
     0
100
AcDbLine
 10
24.27071725626132
 20
14.88543463581754
 30
0.0
 11
26.30677913895294
 21
16.92149651850923
 31
0.0
  0
LINE
  5
B21
330
9BD
100
AcDbEntity
  8
0
 62
     0
100
AcDbLine
 10
20.7422131949329
 20
11.35693057448918
 30
0.0
 11
23.54221319493297
 21
14.15693057448919
 31
0.0
  0
LINE
  5
B22
330
9BD
100
AcDbEntity
  8
0
 62
     0
100
AcDbLine
 10
29.84221319493298
 20
20.4569305744892
 30
0.0
 11
32.48496308657786
 21
23.09968046613414
 31
0.0
  0
LINE
  5
B23
330
9BD
100
AcDbEntity
  8
0
 62
     0
100
AcDbLine
 10
16.65621643705731
 20
7.270933816613592
 30
0.0
 11
18.52127995815703
 21
9.13599733771332
 31
0.0
  0
LINE
  5
B24
330
9BD
100
AcDbEntity
  8
0
 62
     0
100
AcDbLine
 10
24.38913033974211
 20
15.90187333140522
 30
0.0
 11
25.29034044336532
 21
16.80308343502844
 31
0.0
  0
LINE
  5
B25
330
9BD
100
AcDbEntity
  8
0
 62
     0
100
AcDbLine
 10
20.7422131949329
 20
12.25495618659601
 30
0.0
 11
23.54221319493297
 21
15.05495618659608
 31
0.0
  0
LINE
  5
B26
330
9BD
100
AcDbEntity
  8
0
 62
     0
100
AcDbLine
 10
29.84221319493298
 20
21.35495618659609
 30
0.0
 11
31.73725758817437
 21
23.25000057983749
 31
0.0
  0
LINE
  5
B27
330
9BD
100
AcDbEntity
  8
0
 62
     0
100
AcDbLine
 10
15.63725758817435
 20
7.150000579837467
 30
0.0
 11
18.6422131949331
 21
10.15495618659616
 31
0.0
  0
LINE
  5
B28
330
9BD
100
AcDbEntity
  8
0
 62
     0
100
AcDbLine
 10
20.7422131949329
 20
13.15298179870296
 30
0.0
 11
23.54221319493297
 21
15.95298179870303
 31
0.0
  0
LINE
  5
B29
330
9BD
100
AcDbEntity
  8
0
 62
     0
100
AcDbLine
 10
29.84221319493298
 20
22.25298179870299
 30
0.0
 11
30.83923197606748
 21
23.25000057983754
 31
0.0
  0
LINE
  5
B2A
330
9BD
100
AcDbEntity
  8
0
 62
     0
100
AcDbLine
 10
14.73923197606734
 20
7.15000057983741
 30
0.0
 11
18.64221319493305
 21
11.05298179870311
 31
0.0
  0
LINE
  5
B2B
330
9BD
100
AcDbEntity
  8
0
 62
     0
100
AcDbLine
 10
20.7422131949329
 20
14.05100741080985
 30
0.0
 11
23.54221319493291
 21
16.85100741080992
 31
0.0
  0
LINE
  5
B2C
330
9BD
100
AcDbEntity
  8
0
 62
     0
100
AcDbLine
 10
13.8412063639605
 20
7.150000579837524
 30
0.0
 11
18.6382738423718
 21
11.94706805824881
 31
0.0
  0
LINE
  5
B2D
330
9BD
100
AcDbEntity
  8
0
 62
     0
100
AcDbLine
 10
20.7422131949329
 20
14.9490330229168
 30
0.0
 11
23.54221319493297
 21
17.74903302291687
 31
0.0
  0
LINE
  5
B2E
330
9BD
100
AcDbEntity
  8
0
 62
     0
100
AcDbLine
 10
26.24318075185368
 20
20.45000057983759
 30
0.0
 11
27.3922131949331
 21
21.59903302291701
 31
0.0
  0
LINE
  5
B2F
330
9BD
100
AcDbEntity
  8
0
 62
     0
100
AcDbLine
 10
12.94318075185356
 20
7.150000579837467
 30
0.0
 11
18.52861200605047
 21
12.73543183403438
 31
0.0
  0
LINE
  5
B30
330
9BD
100
AcDbEntity
  8
0
 62
     0
100
AcDbLine
 10
20.7422131949329
 20
15.8470586350237
 30
0.0
 11
23.54221319493297
 21
18.64705863502371
 31
0.0
  0
LINE
  5
B31
330
9BD
100
AcDbEntity
  8
0
 62
     0
100
AcDbLine
 10
15.84221319493298
 20
10.94705863502378
 30
0.0
 11
18.30627326200635
 21
13.41111870209715
 31
0.0
  0
LINE
  5
B32
330
9BD
100
AcDbEntity
  8
0
 62
     0
100
AcDbLine
 10
25.34515513974668
 20
20.45000057983747
 30
0.0
 11
27.3922131949331
 21
22.49705863502384
 31
0.0
  0
LINE
  5
B33
330
9BD
100
AcDbEntity
  8
0
 62
     0
100
AcDbLine
 10
12.10288101500663
 20
7.207726455097429
 30
0.0
 11
14.84515513974668
 21
9.950000579837478
 31
0.0
  0
LINE
  5
B34
330
9BD
100
AcDbEntity
  8
0
 62
     0
100
AcDbLine
 10
20.74221319493284
 20
16.74508424713059
 30
0.0
 11
23.70802790071263
 21
19.71089895291038
 31
0.0
  0
LINE
  5
B35
330
9BD
100
AcDbEntity
  8
0
 62
     0
100
AcDbLine
 10
15.84005410332372
 20
11.84292515552141
 30
0.0
 11
17.99784172733433
 21
14.00071277953208
 31
0.0
  0
LINE
  5
B36
330
9BD
100
AcDbEntity
  8
0
 62
     0
100
AcDbLine
 10
24.28131482186017
 20
20.28418587405792
 30
0.0
 11
27.15874578001319
 21
23.16161683221088
 31
0.0
  0
LINE
  5
B37
330
9BD
100
AcDbEntity
  8
0
 62
     0
100
AcDbLine
 10
11.817213194933
 20
7.820084247130694
 30
0.0
 11
13.94712952763978
 21
9.950000579837478
 31
0.0
  0
LINE
  5
B38
330
9BD
100
AcDbEntity
  8
0
 62
     0
100
AcDbLine
 10
15.62045108382301
 20
12.52134774812771
 30
0.0
 11
17.61559976249543
 21
14.51649642680013
 31
0.0
  0
LINE
  5
B39
330
9BD
100
AcDbEntity
  8
0
 62
     0
100
AcDbLine
 10
20.74221319493284
 20
17.64310985923754
 30
0.0
 11
26.3491039155329
 21
23.2500005798376
 31
0.0
  0
LINE
  5
B3A
330
9BD
100
AcDbEntity
  8
0
 62
     0
100
AcDbLine
 10
11.81721319493294
 20
8.718109859237642
 30
0.0
 11
13.04910391553284
 21
9.950000579837535
 31
0.0
  0
LINE
  5
B3B
330
9BD
100
AcDbEntity
  8
0
 62
     0
100
AcDbLine
 10
15.1941962555183
 20
12.99311853192983
 30
0.0
 11
17.17409524284067
 21
14.9730175192522
 31
0.0
  0
LINE
  5
B3C
330
9BD
100
AcDbEntity
  8
0
 62
     0
100
AcDbLine
 10
20.7422131949329
 20
18.54113547134437
 30
0.0
 11
25.45107830342584
 21
23.25000057983737
 31
0.0
  0
LINE
  5
B3D
330
9BD
100
AcDbEntity
  8
0
 62
     0
100
AcDbLine
 10
11.88616511695272
 20
9.685087393364256
 30
0.0
 11
12.08212638140634
 21
9.881048657817871
 31
0.0
  0
LINE
  5
B3E
330
9BD
100
AcDbEntity
  8
0
 62
     0
100
AcDbLine
 10
20.76218830908948
 20
19.4591361976079
 30
0.0
 11
24.53307757716248
 21
23.23002546568096
 31
0.0
  0
LINE
  5
B3F
330
9BD
100
AcDbEntity
  8
0
 62
     0
100
AcDbLine
 10
14.74518344946483
 20
13.44213133798331
 30
0.0
 11
16.7250824367872
 21
15.42203032530568
 31
0.0
  0
LINE
  5
B40
330
9BD
100
AcDbEntity
  8
0
 62
     0
100
AcDbLine
 10
21.06165174135526
 20
20.65662524198069
 30
0.0
 11
23.33558853278975
 21
22.93056203341518
 31
0.0
  0
LINE
  5
B41
330
9BD
100
AcDbEntity
  8
0
 62
     0
100
AcDbLine
 10
14.29617064341135
 20
13.89114414403678
 30
0.0
 11
16.27606963073373
 21
15.87104313135915
 31
0.0
  0
LINE
  5
B42
330
9BD
100
AcDbEntity
  8
0
 62
     0
100
AcDbLine
 10
13.84715783735794
 20
14.3401569500902
 30
0.0
 11
15.82705682468025
 21
16.32005593741246
 31
0.0
  0
LINE
  5
B43
330
9BD
100
AcDbEntity
  8
0
 62
     0
100
AcDbLine
 10
13.39814503130446
 20
14.78916975614367
 30
0.0
 11
15.37804401862678
 21
16.76906874346593
 31
0.0
  0
LINE
  5
B44
330
9BD
100
AcDbEntity
  8
0
 62
     0
100
AcDbLine
 10
12.94913222525099
 20
15.23818256219715
 30
0.0
 11
14.9290312125733
 21
17.21808154951941
 31
0.0
  0
LINE
  5
B45
330
9BD
100
AcDbEntity
  8
0
 62
     0
100
AcDbLine
 10
17.26292463078442
 20
20.45000057983747
 30
0.0
 11
18.1172131949329
 21
21.30428914398601
 31
0.0
  0
LINE
  5
B46
330
9BD
100
AcDbEntity
  8
0
 62
     0
100
AcDbLine
 10
12.50020273322564
 20
15.68727868227876
 30
0.0
 11
14.4802683766581
 21
17.66734432571121
 31
0.0
  0
LINE
  5
B47
330
9BD
100
AcDbEntity
  8
0
 62
     0
100
AcDbLine
 10
16.36489901867753
 20
20.45000057983747
 30
0.0
 11
18.11721319493296
 21
22.2023147560929
 31
0.0
  0
LINE
  5
B48
330
9BD
100
AcDbEntity
  8
0
 62
     0
100
AcDbLine
 10
12.08873480867407
 20
16.17383636983396
 30
0.0
 11
14.15037149537016
 21
18.23547305653011
 31
0.0
  0
LINE
  5
B49
330
9BD
100
AcDbEntity
  8
0
 62
     0
100
AcDbLine
 10
15.46687340657058
 20
20.45000057983747
 30
0.0
 11
18.03065429517181
 21
23.0137814684387
 31
0.0
  0
LINE
  5
B4A
330
9BD
100
AcDbEntity
  8
0
 62
     0
100
AcDbLine
 10
11.7482742024116
 20
16.73140137567844
 30
0.0
 11
14.09221319493303
 21
19.07534036819987
 31
0.0
  0
LINE
  5
B4B
330
9BD
100
AcDbEntity
  8
0
 62
     0
100
AcDbLine
 10
14.56638114529357
 20
20.44753393066736
 30
0.0
 11
17.36884779446376
 21
23.25000057983754
 31
0.0
  0
LINE
  5
B4C
330
9BD
100
AcDbEntity
  8
0
 62
     0
100
AcDbLine
 10
11.48758090667951
 20
17.36873369205329
 30
0.0
 11
14.09467984410309
 21
19.97583262947694
 31
0.0
  0
LINE
  5
B4D
330
9BD
100
AcDbEntity
  8
0
 62
     0
100
AcDbLine
 10
11.32576894443144
 20
18.10494734191212
 30
0.0
 11
16.47082218235687
 21
23.25000057983754
 31
0.0
  0
LINE
  5
B4E
330
9BD
100
AcDbEntity
  8
0
 62
     0
100
AcDbLine
 10
11.29221319493302
 20
18.96941720452065
 30
0.0
 11
15.57279657024992
 21
23.25000057983754
 31
0.0
  0
LINE
  5
B4F
330
9BD
100
AcDbEntity
  8
0
 62
     0
100
AcDbLine
 10
11.29221319493302
 20
19.86744281662754
 30
0.0
 11
14.67477095814302
 21
23.25000057983754
 31
0.0
  0
LINE
  5
B50
330
9BD
100
AcDbEntity
  8
0
 62
     0
100
AcDbLine
 10
11.31240520537124
 20
20.78566043917271
 30
0.0
 11
13.75655333559785
 21
23.22980856939932
 31
0.0
  0
ENDBLK
  5
B52
330
9BD
100
AcDbEntity
  8
0
100
AcDbBlockEnd
  0
ENDSEC
  0
SECTION
  2
ENTITIES
  0
LINE
  5
2DE
330
1A
100
AcDbEntity
  8
CENTER_L
  6
CENTER
 62
     1
 48
5.0
100
AcDbLine
 10
354.4351906691565
 20
432.3559251783506
 30
0.0
 11
597.6933906691565
 21
432.3559251783506
 31
0.0
  0
LINE
  5
2DF
330
1A
100
AcDbEntity
  8
SEIHIN
  6
CONTINUOUS
 62
     3
 48
16.0
100
AcDbLine
 10
418.5300906691564
 20
232.9528251783507
 30
0.0
 11
387.9338906691566
 21
156.4568251783507
 31
0.0
  0
LINE
  5
2E0
330
1A
100
AcDbEntity
  8
SEIHIN
  6
CONTINUOUS
 62
     3
 48
16.0
100
AcDbLine
 10
431.2369906691565
 20
229.7168251783507
 30
0.0
 11
400.0041906691565
 21
151.6290251783507
 31
0.0
  0
LINE
  5
2E1
330
1A
100
AcDbEntity
  8
CENTER_L
  6
CENTER
 62
     1
 48
5.0
100
AcDbLine
 10
393.9689906691566
 20
154.0429251783506
 30
0.0
 11
431.0117906691566
 21
246.6559251783507
 31
0.0
  0
LINE
  5
2E2
330
1A
100
AcDbEntity
  8
SEIHIN
  6
CONTINUOUS
 62
     3
 48
16.0
100
AcDbLine
 10
590.6933906691565
 20
429.8559251783506
 30
0.0
 11
412.2350906691566
 21
429.8559251783506
 31
0.0
  0
LINE
  5
2E3
330
1A
100
AcDbEntity
  8
SEIHIN
  6
CONTINUOUS
 62
     3
 48
16.0
100
AcDbLine
 10
590.6933906691565
 20
434.8559251783507
 30
0.0
 11
412.2350906691566
 21
434.8559251783507
 31
0.0
  0
LINE
  5
2E7
330
1A
100
AcDbEntity
  8
SEIHIN
  6
CONTINUOUS
 62
     3
 48
16.0
100
AcDbLine
 10
179.4216074525802
 20
251.4526251783507
 30
0.0
 11
179.4216074525802
 21
315.5937251783506
 31
0.0
  0
LINE
  5
2E8
330
1A
100
AcDbEntity
  8
SEIHIN
  6
CONTINUOUS
 62
     3
 48
16.0
100
AcDbLine
 10
174.4216074525802
 20
251.4526251783507
 30
0.0
 11
174.4216074525802
 21
315.5937251783506
 31
0.0
  0
LINE
  5
2E9
330
1A
100
AcDbEntity
  8
SEIHIN
  6
CONTINUOUS
 62
     3
 48
16.0
100
AcDbLine
 10
295.9350906691564
 20
270.3560251783508
 30
0.0
 11
295.9350906691564
 21
235.6560251783507
 31
0.0
  0
LINE
  5
2EA
330
1A
100
AcDbEntity
  8
SEIHIN
  6
CONTINUOUS
 62
     3
 48
16.0
100
AcDbLine
 10
297.4350906691565
 20
270.3560251783508
 30
0.0
 11
297.4350906691565
 21
236.3560251783507
 31
0.0
  0
LINE
  5
2EB
330
1A
100
AcDbEntity
  8
CENTER_L
  6
CENTER
 62
     1
 48
5.0
100
AcDbLine
 10
176.921505680415
 20
127.6593251783507
 30
0.0
 11
176.9217102253592
 21
322.5937251783506
 31
0.0
  0
LINE
  5
2EC
330
1A
100
AcDbEntity
  8
SEIHIN
  6
CONTINUOUS
 62
     3
 48
16.0
100
AcDbLine
 10
164.4216074525802
 20
234.5561251783507
 30
0.0
 11
164.4217074525802
 21
269.0561251783507
 31
0.0
  0
LINE
  5
2ED
330
1A
100
AcDbEntity
  8
SEIHIN
  6
CONTINUOUS
 62
     3
 48
16.0
100
AcDbLine
 10
189.4216074525801
 20
234.5561251783507
 30
0.0
 11
189.4216074525801
 21
269.0561251783507
 31
0.0
  0
LINE
  5
2EE
330
1A
100
AcDbEntity
  8
SEIHIN
  6
CONTINUOUS
 62
     3
 48
16.0
100
AcDbLine
 10
185.9215074525802
 20
269.0561251783507
 30
0.0
 11
185.9215074525802
 21
249.5561251783507
 31
0.0
  0
LINE
  5
2EF
330
1A
100
AcDbEntity
  8
SEIHIN
  6
CONTINUOUS
 62
     3
 48
16.0
100
AcDbLine
 10
167.9217074525802
 20
269.0561251783507
 30
0.0
 11
167.9217074525802
 21
249.5561251783507
 31
0.0
  0
LINE
  5
2F1
330
1A
100
AcDbEntity
  8
SEIHIN
  6
CONTINUOUS
 62
     3
 48
16.0
100
AcDbLine
 10
174.4216074525802
 20
134.6591251783506
 30
0.0
 11
174.4216074525802
 21
192.6561251783507
 31
0.0
  0
LINE
  5
2F2
330
1A
100
AcDbEntity
  8
SEIHIN
  6
CONTINUOUS
 62
     3
 48
16.0
100
AcDbLine
 10
179.4216074525802
 20
134.6591251783506
 30
0.0
 11
179.4216074525802
 21
192.6561251783507
 31
0.0
  0
LINE
  5
2F3
330
1A
100
AcDbEntity
  8
SEIHIN
  6
CONTINUOUS
 62
     3
 48
16.0
100
AcDbLine
 10
179.4216074525802
 20
134.6593251783507
 30
0.0
 11
174.4216074525802
 21
134.6593251783507
 31
0.0
  0
LINE
  5
2F4
330
1A
100
AcDbEntity
  8
SEIHIN
  6
CONTINUOUS
 62
     3
 48
16.0
100
AcDbLine
 10
187.9216074525802
 20
207.3161251783507
 30
0.0
 11
187.9216074525802
 21
233.5561251783507
 31
0.0
  0
LINE
  5
2F5
330
1A
100
AcDbEntity
  8
SEIHIN
  6
CONTINUOUS
 62
     3
 48
16.0
100
AcDbLine
 10
165.9216074525802
 20
207.3161251783507
 30
0.0
 11
165.9216074525802
 21
233.5561251783507
 31
0.0
  0
LINE
  5
2F6
330
1A
100
AcDbEntity
  8
SEIHIN
  6
CONTINUOUS
 62
     3
 48
16.0
100
AcDbLine
 10
178.9216074525802
 20
195.6561251783506
 30
0.0
 11
178.9216074525802
 21
233.5561251783507
 31
0.0
  0
LINE
  5
2F7
330
1A
100
AcDbEntity
  8
SEIHIN
  6
CONTINUOUS
 62
     3
 48
16.0
100
AcDbLine
 10
184.9216074525802
 20
195.6561251783506
 30
0.0
 11
184.9216074525802
 21
233.5561251783507
 31
0.0
  0
LINE
  5
2FA
330
1A
100
AcDbEntity
  8
SEIHIN
  6
CONTINUOUS
 62
     3
 48
16.0
100
AcDbLine
 10
168.9216074525802
 20
195.6561251783506
 30
0.0
 11
168.9216074525802
 21
233.5561251783507
 31
0.0
  0
LINE
  5
2FB
330
1A
100
AcDbEntity
  8
SEIHIN
  6
CONTINUOUS
 62
     3
 48
16.0
100
AcDbLine
 10
174.9216074525802
 20
195.6561251783506
 30
0.0
 11
174.9216074525802
 21
233.5561251783507
 31
0.0
  0
LINE
  5
2FC
330
1A
100
AcDbEntity
  8
SEIHIN
  6
CONTINUOUS
 62
     3
 48
16.0
100
AcDbLine
 10
176.9216074525802
 20
207.3161251783507
 30
0.0
 11
174.9216074525802
 21
207.3161251783507
 31
0.0
  0
LINE
  5
2FD
330
1A
100
AcDbEntity
  8
SEIHIN
  6
CONTINUOUS
 62
     3
 48
16.0
100
AcDbLine
 10
176.9216074525802
 20
192.6561251783507
 30
0.0
 11
171.9216074525802
 21
192.6561251783507
 31
0.0
  0
ARC
  5
2FE
330
1A
100
AcDbEntity
  8
SEIHIN
  6
CONTINUOUS
 62
     3
 48
16.0
100
AcDbCircle
 10
171.9216074525802
 20
195.6561251783506
 30
0.0
 40
3.0
100
AcDbArc
 50
180.0
 51
0.0
  0
ARC
  5
2FF
330
1A
100
AcDbEntity
  8
SEIHIN
  6
CONTINUOUS
 62
     3
 48
16.0
100
AcDbCircle
 10
147.6912074525803
 20
201.7361251783507
 30
0.0
 40
19.06525332011076
100
AcDbArc
 50
342.9815856167486
 51
17.01841438325136
  0
LINE
  5
300
330
1A
100
AcDbEntity
  8
SEIHIN
  6
CONTINUOUS
 62
     3
 48
16.0
100
AcDbLine
 10
165.9216074525802
 20
196.1561251783507
 30
0.0
 11
168.9216074525802
 21
196.1561251783507
 31
0.0
  0
ARC
  5
301
330
1A
100
AcDbEntity
  8
SEIHIN
  6
CONTINUOUS
 62
     3
 48
16.0
100
AcDbCircle
 10
206.1519074527056
 20
201.7361751783507
 30
0.0
 40
19.06517233326444
100
AcDbArc
 50
162.9813539761858
 51
197.0186460238141
  0
LINE
  5
302
330
1A
100
AcDbEntity
  8
SEIHIN
  6
CONTINUOUS
 62
     3
 48
16.0
100
AcDbLine
 10
176.9216074525802
 20
192.6561251783507
 30
0.0
 11
181.9216074525802
 21
192.6561251783507
 31
0.0
  0
ARC
  5
303
330
1A
100
AcDbEntity
  8
SEIHIN
  6
CONTINUOUS
 62
     3
 48
16.0
100
AcDbCircle
 10
181.9216074525802
 20
195.6561251783506
 30
0.0
 40
3.0
100
AcDbArc
 50
180.0
 51
0.0
  0
LINE
  5
304
330
1A
100
AcDbEntity
  8
SEIHIN
  6
CONTINUOUS
 62
     3
 48
16.0
100
AcDbLine
 10
178.9216074525802
 20
196.1561251783507
 30
0.0
 11
176.9216074525802
 21
196.1561251783507
 31
0.0
  0
LINE
  5
305
330
1A
100
AcDbEntity
  8
SEIHIN
  6
CONTINUOUS
 62
     3
 48
16.0
100
AcDbLine
 10
174.9216074525802
 20
196.1561251783507
 30
0.0
 11
176.9216074525802
 21
196.1561251783507
 31
0.0
  0
LINE
  5
306
330
1A
100
AcDbEntity
  8
SEIHIN
  6
CONTINUOUS
 62
     3
 48
16.0
100
AcDbLine
 10
187.9216074525802
 20
196.1561251783507
 30
0.0
 11
184.9216074525802
 21
196.1561251783507
 31
0.0
  0
LINE
  5
307
330
1A
100
AcDbEntity
  8
SEIHIN
  6
CONTINUOUS
 62
     3
 48
16.0
100
AcDbLine
 10
176.9216074525802
 20
207.3161251783507
 30
0.0
 11
178.9216074525802
 21
207.3161251783507
 31
0.0
  0
LINE
  5
308
330
1A
100
AcDbEntity
  8
SEIHIN
  6
CONTINUOUS
 62
     3
 48
16.0
100
AcDbLine
 10
185.9215074525802
 20
251.4526251783507
 30
0.0
 11
167.9217074525802
 21
251.4526251783507
 31
0.0
  0
LINE
  5
309
330
1A
100
AcDbEntity
  8
SEIHIN
  6
CONTINUOUS
 62
     3
 48
16.0
100
AcDbLine
 10
176.9216074525802
 20
247.0561251783507
 30
0.0
 11
170.4217074525802
 21
247.0561251783507
 31
0.0
  0
LINE
  5
30A
330
1A
100
AcDbEntity
  8
SEIHIN
  6
CONTINUOUS
 62
     3
 48
16.0
100
AcDbLine
 10
169.6747074525801
 20
245.6430251783507
 30
0.0
 11
173.7341074525802
 21
242.7226251783508
 31
0.0
  0
LINE
  5
30B
330
1A
100
AcDbEntity
  8
SEIHIN
  6
CONTINUOUS
 62
     3
 48
16.0
100
AcDbLine
 10
168.6763074525802
 20
243.9136251783508
 30
0.0
 11
173.2351074525802
 21
241.8583251783508
 31
0.0
  0
LINE
  5
30C
330
1A
100
AcDbEntity
  8
SEIHIN
  6
CONTINUOUS
 62
     3
 48
16.0
100
AcDbLine
 10
165.4216074525802
 20
233.5561251783507
 30
0.0
 11
176.9216074525802
 21
233.5561251783507
 31
0.0
  0
LINE
  5
30D
330
1A
100
AcDbEntity
  8
SEIHIN
  6
CONTINUOUS
 62
     3
 48
16.0
100
AcDbLine
 10
169.6747074525801
 20
234.9692251783507
 30
0.0
 11
173.7341074525802
 21
237.8896251783507
 31
0.0
  0
LINE
  5
30E
330
1A
100
AcDbEntity
  8
SEIHIN
  6
CONTINUOUS
 62
     3
 48
16.0
100
AcDbLine
 10
168.6763074525802
 20
236.6986251783506
 30
0.0
 11
173.2351074525802
 21
238.7539251783506
 31
0.0
  0
ARC
  5
30F
330
1A
100
AcDbEntity
  8
SEIHIN
  6
CONTINUOUS
 62
     3
 48
16.0
100
AcDbCircle
 10
165.4216074525802
 20
234.5561251783507
 30
0.0
 40
1.0
100
AcDbArc
 50
180.0
 51
270.0
  0
ARC
  5
310
330
1A
100
AcDbEntity
  8
SEIHIN
  6
CONTINUOUS
 62
     3
 48
16.0
100
AcDbCircle
 10
169.1274017281983
 20
235.8061265429432
 30
0.0
 40
0.9999737246537724
100
AcDbArc
 50
210.0009594920289
 51
303.1833545524783
  0
ARC
  5
311
330
1A
100
AcDbEntity
  8
SEIHIN
  6
CONTINUOUS
 62
     3
 48
16.0
100
AcDbCircle
 10
169.1274164402506
 20
235.8061553406598
 30
0.0
 40
1.000000864972093
100
AcDbArc
 50
116.8148326851269
 51
210.0019669270581
  0
ARC
  5
316
330
1A
100
AcDbEntity
  8
SEIHIN
  6
CONTINUOUS
 62
     3
 48
16.0
100
AcDbCircle
 10
170.4217074525802
 20
249.5561251783507
 30
0.0
 40
2.5
100
AcDbArc
 50
180.0
 51
270.0
  0
ARC
  5
317
330
1A
100
AcDbEntity
  8
SEIHIN
  6
CONTINUOUS
 62
     3
 48
16.0
100
AcDbCircle
 10
169.1274017281984
 20
244.8061238137582
 30
0.0
 40
0.9999737246537712
100
AcDbArc
 50
56.81664544752345
 51
149.9990405079739
  0
ARC
  5
318
330
1A
100
AcDbEntity
  8
SEIHIN
  6
CONTINUOUS
 62
     3
 48
16.0
100
AcDbCircle
 10
169.1274164402506
 20
244.8060950160416
 30
0.0
 40
1.000000864972083
100
AcDbArc
 50
149.9980330729414
 51
243.1851673148738
  0
LINE
  5
319
330
1A
100
AcDbEntity
  8
SEIHIN
  6
CONTINUOUS
 62
     3
 48
16.0
100
AcDbLine
 10
185.1669074525802
 20
243.9136251783508
 30
0.0
 11
180.6082074525802
 21
241.8583251783508
 31
0.0
  0
ARC
  5
31A
330
1A
100
AcDbEntity
  8
SEIHIN
  6
CONTINUOUS
 62
     3
 48
16.0
100
AcDbCircle
 10
180.3857059192885
 20
242.3061186439273
 30
0.0
 40
0.4999844047596037
100
AcDbArc
 50
123.587800398517
 51
210.0001671502092
  0
ARC
  5
31B
330
1A
100
AcDbEntity
  8
SEIHIN
  6
CONTINUOUS
 62
     3
 48
16.0
100
AcDbCircle
 10
173.4575089858718
 20
242.3061186439273
 30
0.0
 40
0.4999844047595989
100
AcDbArc
 50
329.9998328497903
 51
56.41219960148362
  0
ARC
  5
31C
330
1A
100
AcDbEntity
  8
SEIHIN
  6
CONTINUOUS
 62
     3
 48
16.0
100
AcDbCircle
 10
188.4216074525801
 20
234.5561251783507
 30
0.0
 40
0.9999999999999573
100
AcDbArc
 50
270.0000000000024
 51
0.0000000000024427
  0
LINE
  5
31D
330
1A
100
AcDbEntity
  8
SEIHIN
  6
CONTINUOUS
 62
     3
 48
16.0
100
AcDbLine
 10
184.1685074525801
 20
234.9692251783507
 30
0.0
 11
180.1091074525801
 21
237.8896251783507
 31
0.0
  0
LINE
  5
31E
330
1A
100
AcDbEntity
  8
SEIHIN
  6
CONTINUOUS
 62
     3
 48
16.0
100
AcDbLine
 10
185.1669074525802
 20
236.6986251783506
 30
0.0
 11
180.6082074525802
 21
238.7539251783506
 31
0.0
  0
LINE
  5
31F
330
1A
100
AcDbEntity
  8
SEIHIN
  6
CONTINUOUS
 62
     3
 48
16.0
100
AcDbLine
 10
188.4216074525802
 20
233.5561251783507
 30
0.0
 11
176.9216074525802
 21
233.5561251783507
 31
0.0
  0
ARC
  5
320
330
1A
100
AcDbEntity
  8
SEIHIN
  6
CONTINUOUS
 62
     3
 48
16.0
100
AcDbCircle
 10
180.3857368788477
 20
242.3061163002839
 30
0.0
 40
0.5000100449581229
100
AcDbArc
 50
209.998160748566
 51
296.4190015875546
  0
ARC
  5
321
330
1A
100
AcDbEntity
  8
SEIHIN
  6
CONTINUOUS
 62
     3
 48
16.0
100
AcDbCircle
 10
180.3857059192885
 20
238.3061317127741
 30
0.0
 40
0.4999844047596183
100
AcDbArc
 50
149.9998328497897
 51
236.4121996014831
  0
ARC
  5
322
330
1A
100
AcDbEntity
  8
SEIHIN
  6
CONTINUOUS
 62
     3
 48
16.0
100
AcDbCircle
 10
180.3857368788476
 20
238.3061340564176
 30
0.0
 40
0.5000100449581037
100
AcDbArc
 50
63.58099841243866
 51
150.0018392514275
  0
ARC
  5
323
330
1A
100
AcDbEntity
  8
SEIHIN
  6
CONTINUOUS
 62
     3
 48
16.0
100
AcDbCircle
 10
176.9216074525802
 20
240.3061251783507
 30
0.0
 40
1.0
100
AcDbArc
 50
0.0
 51
180.0
  0
ARC
  5
324
330
1A
100
AcDbEntity
  8
SEIHIN
  6
CONTINUOUS
 62
     3
 48
16.0
100
AcDbCircle
 10
173.457509130675
 20
242.3061256848051
 30
0.0
 40
0.4999877998513423
100
AcDbArc
 50
243.5885474240242
 51
329.9991258059747
  0
ARC
  5
325
330
1A
100
AcDbEntity
  8
SEIHIN
  6
CONTINUOUS
 62
     3
 48
16.0
100
AcDbCircle
 10
173.4575089858718
 20
238.3061317127741
 30
0.0
 40
0.4999844047596086
100
AcDbArc
 50
303.5878003985156
 51
30.0001671502114
  0
ARC
  5
326
330
1A
100
AcDbEntity
  8
SEIHIN
  6
CONTINUOUS
 62
     3
 48
16.0
100
AcDbCircle
 10
173.457509130675
 20
238.3061246718963
 30
0.0
 40
0.4999877998513301
100
AcDbArc
 50
30.00087419403194
 51
116.4114525759823
  0
ARC
  5
327
330
1A
100
AcDbEntity
  8
SEIHIN
  6
CONTINUOUS
 62
     3
 48
16.0
100
AcDbCircle
 10
176.9216074525802
 20
240.3061251783507
 30
0.0
 40
1.0
100
AcDbArc
 50
180.0
 51
0.0
  0
ARC
  5
328
330
1A
100
AcDbEntity
  8
SEIHIN
  6
CONTINUOUS
 62
     3
 48
16.0
100
AcDbCircle
 10
184.7158131769619
 20
235.8061265429433
 30
0.0
 40
0.9999737246538613
100
AcDbArc
 50
236.81664544752
 51
329.9990405079702
  0
ARC
  5
329
330
1A
100
AcDbEntity
  8
SEIHIN
  6
CONTINUOUS
 62
     3
 48
16.0
100
AcDbCircle
 10
184.7157984649097
 20
235.8061553406598
 30
0.0
 40
1.000000864972098
100
AcDbArc
 50
329.9980330729424
 51
63.18516731487288
  0
LINE
  5
32A
330
1A
100
AcDbEntity
  8
SEIHIN
  6
CONTINUOUS
 62
     3
 48
16.0
100
AcDbLine
 10
184.1685074525801
 20
245.6430251783507
 30
0.0
 11
180.1091074525801
 21
242.7226251783508
 31
0.0
  0
LINE
  5
32B
330
1A
100
AcDbEntity
  8
SEIHIN
  6
CONTINUOUS
 62
     3
 48
16.0
100
AcDbLine
 10
176.9216074525802
 20
247.0561251783507
 30
0.0
 11
183.4215074525802
 21
247.0561251783507
 31
0.0
  0
ARC
  5
32C
330
1A
100
AcDbEntity
  8
SEIHIN
  6
CONTINUOUS
 62
     3
 48
16.0
100
AcDbCircle
 10
183.4215074525802
 20
249.5561251783507
 30
0.0
 40
2.5
100
AcDbArc
 50
270.0
 51
0.0
  0
ARC
  5
32D
330
1A
100
AcDbEntity
  8
SEIHIN
  6
CONTINUOUS
 62
     3
 48
16.0
100
AcDbCircle
 10
184.7158131769619
 20
244.8061238137581
 30
0.0
 40
0.9999737246538613
100
AcDbArc
 50
30.00095949202723
 51
123.1833545524784
  0
ARC
  5
32E
330
1A
100
AcDbEntity
  8
SEIHIN
  6
CONTINUOUS
 62
     3
 48
16.0
100
AcDbCircle
 10
184.7157984649097
 20
244.8060950160416
 30
0.0
 40
1.000000864972093
100
AcDbArc
 50
296.8148326851269
 51
30.00196692705813
  0
LINE
  5
330
330
1A
100
AcDbEntity
  8
CENTER_L
  6
CENTER
 62
     1
 48
5.0
100
AcDbLine
 10
354.4350906691564
 20
207.1768251783507
 30
0.0
 11
354.4350906691564
 21
161.6560251783507
 31
0.0
  0
LINE
  5
331
330
1A
100
AcDbEntity
  8
SEIHIN
  6
CONTINUOUS
 62
     3
 48
16.0
100
AcDbLine
 10
360.9350906691565
 20
161.6560251783507
 30
0.0
 11
360.9350906691565
 21
192.6560251783507
 31
0.0
  0
LINE
  5
332
330
1A
100
AcDbEntity
  8
SEIHIN
  6
CONTINUOUS
 62
     3
 48
16.0
100
AcDbLine
 10
347.9350906691564
 20
161.6560251783507
 30
0.0
 11
347.9350906691564
 21
192.6560251783507
 31
0.0
  0
ARC
  5
335
330
1A
100
AcDbEntity
  8
SEIHIN
  6
CONTINUOUS
 62
     3
 48
16.0
100
AcDbCircle
 10
374.9350953340631
 20
161.656024280025
 30
0.0
 40
27.00000466490665
100
AcDbArc
 50
179.9999980936939
 51
338.1998495916953
  0
ARC
  5
339
330
1A
100
AcDbEntity
  8
SEIHIN
  6
CONTINUOUS
 62
     3
 48
16.0
100
AcDbCircle
 10
374.9350992777227
 20
161.6560235205871
 30
0.0
 40
14.00000860856623
100
AcDbArc
 50
179.9999932155141
 51
338.1997996772849
  0
ARC
  5
33A
330
1A
100
AcDbEntity
  8
CENTER_L
  6
CENTER
 62
     1
 48
5.0
100
AcDbCircle
 10
374.935092662449
 20
161.6560247944945
 30
0.0
 40
20.50000199329256
100
AcDbArc
 50
179.999998927154
 51
338.1995236458148
  0
INSERT
  5
33F
330
1A
100
AcDbEntity
  8
0
100
AcDbBlockReference
  2
A$C1305
 10
297.2522315847225
 20
197.2439045410485
 30
0.0
  0
LINE
  5
340
330
1A
100
AcDbEntity
  8
SEIHIN
  6
CONTINUOUS
 62
     3
 48
16.0
100
AcDbLine
 10
350.4350906691564
 20
192.6560251783507
 30
0.0
 11
332.4764906691565
 21
192.6560251783507
 31
0.0
  0
LINE
  5
341
330
1A
100
AcDbEntity
  8
SEIHIN
  6
CONTINUOUS
 62
     3
 48
16.0
100
AcDbLine
 10
354.4350906691564
 20
195.8560251783507
 30
0.0
 11
320.1795906691565
 21
195.8560251783507
 31
0.0
  0
LINE
  5
342
330
1A
100
AcDbEntity
  8
SEIHIN
  6
CONTINUOUS
 62
     3
 48
16.0
100
AcDbLine
 10
320.6145906691566
 20
192.6560251783507
 30
0.0
 11
354.4350906691564
 21
192.6560251783507
 31
0.0
  0
LINE
  5
343
330
1A
100
AcDbEntity
  8
SEIHIN
  6
CONTINUOUS
 62
     3
 48
16.0
100
AcDbLine
 10
354.4350906691564
 20
197.3560251783507
 30
0.0
 11
321.3144906691565
 21
197.3560251783507
 31
0.0
  0
LINE
  5
344
330
1A
100
AcDbEntity
  8
SEIHIN
  6
CONTINUOUS
 62
     3
 48
16.0
100
AcDbLine
 10
305.5833906691566
 20
207.9743251783507
 30
0.0
 11
300.0293906691565
 21
234.3560251783507
 31
0.0
  0
LINE
  5
345
330
1A
100
AcDbEntity
  8
SEIHIN
  6
CONTINUOUS
 62
     3
 48
16.0
100
AcDbLine
 10
308.8863906691565
 20
208.3037251783507
 30
0.0
 11
303.6524906691565
 21
233.1650251783508
 31
0.0
  0
LINE
  5
346
330
1A
100
AcDbEntity
  8
SEIHIN
  6
CONTINUOUS
 62
     3
 48
16.0
100
AcDbLine
 10
310.3061906691565
 20
209.4682251783507
 30
0.0
 11
304.9681906691564
 21
234.8238251783507
 31
0.0
  0
ARC
  5
347
330
1A
100
AcDbEntity
  8
SEIHIN
  6
CONTINUOUS
 62
     3
 48
16.0
100
AcDbCircle
 10
306.7813948809821
 20
195.5007204638146
 30
0.0
 40
8.999981205259024
100
AcDbArc
 50
8.855631650215141
 51
74.69773417452579
  0
ARC
  5
348
330
1A
100
AcDbEntity
  8
SEIHIN
  6
CONTINUOUS
 62
     3
 48
16.0
100
AcDbCircle
 10
320.6145822487246
 20
197.6560323883403
 30
0.0
 40
5.000007209996747
100
AcDbArc
 50
188.8565553973499
 51
270.0000964909027
  0
ARC
  5
349
330
1A
100
AcDbEntity
  8
SEIHIN
  6
CONTINUOUS
 62
     3
 48
16.0
100
AcDbCircle
 10
307.4813599367397
 20
196.2007598588186
 30
0.0
 40
12.9999952844566
100
AcDbArc
 50
8.855530300048306
 51
74.23623341217165
  0
ARC
  5
34A
330
1A
100
AcDbEntity
  8
SEIHIN
  6
CONTINUOUS
 62
     3
 48
16.0
100
AcDbCircle
 10
306.781413987311
 20
195.5006986151983
 30
0.0
 40
12.20003670529149
100
AcDbArc
 50
7.043136012624642
 51
75.51294445734507
  0
ARC
  5
34B
330
1A
100
AcDbEntity
  8
SEIHIN
  6
CONTINUOUS
 62
     3
 48
16.0
100
AcDbCircle
 10
310.1585222956084
 20
208.571492084282
 30
0.0
 40
1.300006919570381
100
AcDbArc
 50
191.8864896219403
 51
255.5120229390828
  0
ARC
  5
34C
330
1A
100
AcDbEntity
  8
SEIHIN
  6
CONTINUOUS
 62
     3
 48
16.0
100
AcDbCircle
 10
310.476200285725
 20
209.0044149710899
 30
0.0
 40
5.000067092058857
100
AcDbArc
 50
191.8889339999857
 51
254.6973072126753
  0
ARC
  5
34D
330
1A
100
AcDbEntity
  8
SEIHIN
  6
CONTINUOUS
 62
     3
 48
16.0
100
AcDbCircle
 10
311.2847177333286
 20
209.6741962210043
 30
0.0
 40
0.9999696424037315
100
AcDbArc
 50
191.8867149828884
 51
254.2383994571528
  0
ARC
  5
34E
330
1A
100
AcDbEntity
  8
SEIHIN
  6
CONTINUOUS
 62
     3
 48
16.0
100
AcDbCircle
 10
320.1795853614731
 20
197.1560298706414
 30
0.0
 40
1.300004692301613
100
AcDbArc
 50
187.0432508395389
 51
270.0002339282787
  0
ARC
  5
351
330
1A
100
AcDbEntity
  8
SEIHIN
  6
CONTINUOUS
 62
     3
 48
16.0
100
AcDbCircle
 10
321.3145315486742
 20
198.3559901771256
 30
0.0
 40
0.9999649996105121
100
AcDbArc
 50
188.8570870132117
 51
269.9976576941834
  0
LINE
  5
352
330
1A
100
AcDbEntity
  8
SEIHIN
  6
CONTINUOUS
 62
     3
 48
16.0
100
AcDbLine
 10
302.1846906691564
 20
234.3560251783507
 30
0.0
 11
297.2350906691565
 21
234.3560251783507
 31
0.0
  0
LINE
  5
353
330
1A
100
AcDbEntity
  8
SEIHIN
  6
CONTINUOUS
 62
     3
 48
16.0
100
AcDbLine
 10
303.6959906691565
 20
235.8560251783507
 30
0.0
 11
297.9350906691564
 21
235.8560251783507
 31
0.0
  0
ARC
  5
354
330
1A
100
AcDbEntity
  8
SEIHIN
  6
CONTINUOUS
 62
     3
 48
16.0
100
AcDbCircle
 10
297.9350906691565
 20
236.3560251783506
 30
0.0
 40
0.4999999999999574
100
AcDbArc
 50
179.9999999999951
 51
269.9999999999951
  0
ARC
  5
355
330
1A
100
AcDbEntity
  8
SEIHIN
  6
CONTINUOUS
 62
     3
 48
16.0
100
AcDbCircle
 10
297.2350906691565
 20
235.6560251783507
 30
0.0
 40
1.300000000000039
100
AcDbArc
 50
179.9999999999987
 51
269.9999999999987
  0
ARC
  5
356
330
1A
100
AcDbEntity
  8
SEIHIN
  6
CONTINUOUS
 62
     3
 48
16.0
100
AcDbCircle
 10
303.6960403624523
 20
234.5559848565244
 30
0.0
 40
1.300040322775971
100
AcDbArc
 50
11.88948627652556
 51
90.0021900983128
  0
ARC
  5
357
330
1A
100
AcDbEntity
  8
SEIHIN
  6
CONTINUOUS
 62
     3
 48
16.0
100
AcDbCircle
 10
302.1846737928171
 20
232.856038871809
 30
0.0
 40
1.499986306636612
100
AcDbArc
 50
11.88761994684174
 51
89.99935536543333
  0
LINE
  5
358
330
1A
100
AcDbEntity
  8
SEIHIN
  6
CONTINUOUS
 62
     3
 48
16.0
100
AcDbLine
 10
399.9836906691566
 20
208.3037251783507
 30
0.0
 11
405.2175906691564
 21
233.1650251783508
 31
0.0
  0
LINE
  5
359
330
1A
100
AcDbEntity
  8
SEIHIN
  6
CONTINUOUS
 62
     3
 48
16.0
100
AcDbLine
 10
403.2866906691565
 20
207.9743251783507
 30
0.0
 11
408.8406906691565
 21
234.3560251783507
 31
0.0
  0
LINE
  5
35A
330
1A
100
AcDbEntity
  8
SEIHIN
  6
CONTINUOUS
 62
     3
 48
16.0
100
AcDbLine
 10
398.5639906691565
 20
209.4682251783507
 30
0.0
 11
403.9019906691565
 21
234.8238251783507
 31
0.0
  0
LINE
  5
35C
330
1A
100
AcDbEntity
  8
SEIHIN
  6
CONTINUOUS
 62
     3
 48
16.0
100
AcDbLine
 10
388.2555906691564
 20
192.6560251783507
 30
0.0
 11
354.4350906691564
 21
192.6560251783507
 31
0.0
  0
LINE
  5
35D
330
1A
100
AcDbEntity
  8
SEIHIN
  6
CONTINUOUS
 62
     3
 48
16.0
100
AcDbLine
 10
354.4350906691564
 20
195.8560251783507
 30
0.0
 11
388.6904906691566
 21
195.8560251783507
 31
0.0
  0
LINE
  5
35E
330
1A
100
AcDbEntity
  8
SEIHIN
  6
CONTINUOUS
 62
     3
 48
16.0
100
AcDbLine
 10
354.4350906691564
 20
197.3560251783507
 30
0.0
 11
387.5555906691565
 21
197.3560251783507
 31
0.0
  0
ARC
  5
360
330
1A
100
AcDbEntity
  8
SEIHIN
  6
CONTINUOUS
 62
     3
 48
16.0
100
AcDbCircle
 10
388.6905521070138
 20
197.1560794933891
 30
0.0
 40
1.300054316490085
100
AcDbArc
 50
269.9972923208818
 51
352.9548157716472
  0
ARC
  5
361
330
1A
100
AcDbEntity
  8
SEIHIN
  6
CONTINUOUS
 62
     3
 48
16.0
100
AcDbCircle
 10
388.2555990895884
 20
197.6560323883404
 30
0.0
 40
5.000007209996808
100
AcDbArc
 50
269.9999035090966
 51
351.1434446026494
  0
ARC
  5
362
330
1A
100
AcDbEntity
  8
SEIHIN
  6
CONTINUOUS
 62
     3
 48
16.0
100
AcDbCircle
 10
397.5854102265551
 20
209.6742461062657
 30
0.0
 40
1.000032152173592
100
AcDbArc
 50
285.763767446291
 51
348.1111181136591
  0
ARC
  5
363
330
1A
100
AcDbEntity
  8
SEIHIN
  6
CONTINUOUS
 62
     3
 48
16.0
100
AcDbCircle
 10
402.0886864573308
 20
195.5007204638147
 30
0.0
 40
8.999981205258936
100
AcDbArc
 50
105.3022658254748
 51
171.1443683497854
  0
ARC
  5
364
330
1A
100
AcDbEntity
  8
SEIHIN
  6
CONTINUOUS
 62
     3
 48
16.0
100
AcDbCircle
 10
402.0887108732004
 20
195.5007481938195
 30
0.0
 40
12.19997457457781
100
AcDbArc
 50
104.4868569823417
 51
172.9570625476885
  0
ARC
  5
365
330
1A
100
AcDbEntity
  8
SEIHIN
  6
CONTINUOUS
 62
     3
 48
16.0
100
AcDbCircle
 10
401.388704721789
 20
196.2007410361416
 30
0.0
 40
12.99998170114815
100
AcDbArc
 50
105.7632491399031
 51
171.1443764132601
  0
ARC
  5
366
330
1A
100
AcDbEntity
  8
SEIHIN
  6
CONTINUOUS
 62
     3
 48
16.0
100
AcDbCircle
 10
387.5556074899849
 20
198.3560395806432
 30
0.0
 40
1.000014402433932
100
AcDbArc
 50
269.9990362514103
 51
351.1404893237411
  0
ARC
  5
367
330
1A
100
AcDbEntity
  8
SEIHIN
  6
CONTINUOUS
 62
     3
 48
16.0
100
AcDbCircle
 10
398.7115590427047
 20
208.571492084282
 30
0.0
 40
1.300006919570396
100
AcDbArc
 50
284.4879770609165
 51
348.1135103780589
  0
ARC
  5
368
330
1A
100
AcDbEntity
  8
SEIHIN
  6
CONTINUOUS
 62
     3
 48
16.0
100
AcDbCircle
 10
398.393881052588
 20
209.0044149710901
 30
0.0
 40
5.000067092059001
100
AcDbArc
 50
285.3026927873223
 51
348.1110660000123
  0
LINE
  5
369
330
1A
100
AcDbEntity
  8
SEIHIN
  6
CONTINUOUS
 62
     3
 48
16.0
100
AcDbLine
 10
411.4350906691566
 20
250.2044251783507
 30
0.0
 11
411.4350906691566
 21
236.3560251783507
 31
0.0
  0
LINE
  5
36A
330
1A
100
AcDbEntity
  8
SEIHIN
  6
CONTINUOUS
 62
     3
 48
16.0
100
AcDbLine
 10
412.9350906691565
 20
250.9044251783507
 30
0.0
 11
412.9350906691565
 21
235.6560251783507
 31
0.0
  0
LINE
  5
36B
330
1A
100
AcDbEntity
  8
SEIHIN
  6
CONTINUOUS
 62
     3
 48
16.0
100
AcDbLine
 10
405.8740906691566
 20
234.3560251783507
 30
0.0
 11
411.6350906691566
 21
234.3560251783507
 31
0.0
  0
LINE
  5
36C
330
1A
100
AcDbEntity
  8
SEIHIN
  6
CONTINUOUS
 62
     3
 48
16.0
100
AcDbLine
 10
405.1740906691564
 20
235.8560251783507
 30
0.0
 11
410.9350906691565
 21
235.8560251783507
 31
0.0
  0
ARC
  5
36D
330
1A
100
AcDbEntity
  8
SEIHIN
  6
CONTINUOUS
 62
     3
 48
16.0
100
AcDbCircle
 10
406.6854472458301
 20
232.8559899441783
 30
0.0
 40
1.500035234800946
100
AcDbArc
 50
89.99834139006846
 51
168.1108636481009
  0
ARC
  5
36E
330
1A
100
AcDbEntity
  8
SEIHIN
  6
CONTINUOUS
 62
     3
 48
16.0
100
AcDbCircle
 10
405.174101275293
 20
234.5560337841769
 30
0.0
 40
1.299991394216981
100
AcDbArc
 50
90.00046745452644
 51
168.1122634028743
  0
ARC
  5
36F
330
1A
100
AcDbEntity
  8
SEIHIN
  6
CONTINUOUS
 62
     3
 48
16.0
100
AcDbCircle
 10
410.9350906691565
 20
236.3560251783507
 30
0.0
 40
0.5
100
AcDbArc
 50
270.0
 51
0.0
  0
ARC
  5
370
330
1A
100
AcDbEntity
  8
SEIHIN
  6
CONTINUOUS
 62
     3
 48
16.0
100
AcDbCircle
 10
411.6350906691565
 20
235.6560251783507
 30
0.0
 40
1.300000000000039
100
AcDbArc
 50
270.0000000000012
 51
0.0000000000012526
  0
LINE
  5
371
330
1A
100
AcDbEntity
  8
SEIHIN
  6
CONTINUOUS
 62
     3
 48
16.0
100
AcDbLine
 10
411.2985906691563
 20
252.1601251783508
 30
0.0
 11
401.4405906691564
 21
249.5186251783507
 31
0.0
  0
LINE
  5
372
330
1A
100
AcDbEntity
  8
SEIHIN
  6
CONTINUOUS
 62
     3
 48
16.0
100
AcDbLine
 10
401.7757906691564
 20
248.2678251783507
 30
0.0
 11
410.8056906691563
 21
250.6873251783508
 31
0.0
  0
LINE
  5
373
330
1A
100
AcDbEntity
  8
SEIHIN
  6
CONTINUOUS
 62
     3
 48
16.0
100
AcDbLine
 10
402.2321906691566
 20
246.5646251783508
 30
0.0
 11
411.0700906691564
 21
250.6858251783507
 31
0.0
  0
LINE
  5
374
330
1A
100
AcDbEntity
  8
SEIHIN
  6
CONTINUOUS
 62
     3
 48
16.0
100
AcDbLine
 10
401.4406906691566
 20
249.5186251783507
 30
0.0
 11
402.2321906691566
 21
246.5646251783508
 31
0.0
  0
ARC
  5
375
330
1A
100
AcDbEntity
  8
SEIHIN
  6
CONTINUOUS
 62
     3
 48
16.0
100
AcDbCircle
 10
410.9351222861557
 20
250.2044009181298
 30
0.0
 40
0.4999683835894292
100
AcDbArc
 50
0.0027801923329679
 51
105.0035921810108
  0
ARC
  5
376
330
1A
100
AcDbEntity
  8
SEIHIN
  6
CONTINUOUS
 62
     3
 48
16.0
100
AcDbCircle
 10
411.6350878345472
 20
250.9044273533622
 30
0.0
 40
1.300002834611149
100
AcDbArc
 50
359.9999041394533
 51
105.001445195764
  0
LINE
  5
37A
330
1A
100
AcDbEntity
  8
SEIHIN
  6
CONTINUOUS
 62
     3
 48
16.0
100
AcDbLine
 10
164.4217074525802
 20
269.0561251783507
 30
0.0
 11
167.9217074525802
 21
269.0561251783507
 31
0.0
  0
LINE
  5
37B
330
1A
100
AcDbEntity
  8
SEIHIN
  6
CONTINUOUS
 62
     3
 48
16.0
100
AcDbLine
 10
189.4216074525801
 20
269.0561251783507
 30
0.0
 11
185.9215074525802
 21
269.0561251783507
 31
0.0
  0
LINE
  5
382
330
1A
100
AcDbEntity
  8
SEIHIN
  6
CONTINUOUS
 62
     3
 48
16.0
100
AcDbLine
 10
179.4218074525802
 20
315.5937251783506
 30
0.0
 11
174.4218074525802
 21
315.5937251783506
 31
0.0
  0
LINE
  5
383
330
1A
100
AcDbEntity
  8
SEIHIN
  6
CONTINUOUS
 62
     3
 48
16.0
100
AcDbLine
 10
401.2350906691565
 20
432.3559251783506
 30
0.0
 11
401.2350906691565
 21
441.3559251783508
 31
0.0
  0
LINE
  5
384
330
1A
100
AcDbEntity
  8
SEIHIN
  6
CONTINUOUS
 62
     3
 48
16.0
100
AcDbLine
 10
412.2350906691566
 20
444.8559251783506
 30
0.0
 11
412.2350906691566
 21
432.3560251783507
 31
0.0
  0
ARC
  5
385
330
1A
100
AcDbEntity
  8
SEIHIN
  6
CONTINUOUS
 62
     3
 48
16.0
100
AcDbCircle
 10
304.2681906691565
 20
437.3559251783507
 30
0.0
 40
2.499999999999943
100
AcDbArc
 50
90.0
 51
270.0
  0
LINE
  5
386
330
1A
100
AcDbEntity
  8
SEIHIN
  6
CONTINUOUS
 62
     3
 48
16.0
100
AcDbLine
 10
297.4350906691565
 20
432.3559251783506
 30
0.0
 11
297.4350906691565
 21
444.8559251783506
 31
0.0
  0
LINE
  5
387
330
1A
100
AcDbEntity
  8
SEIHIN
  6
CONTINUOUS
 62
     3
 48
16.0
100
AcDbLine
 10
296.6350906691565
 20
444.8559251783506
 30
0.0
 11
296.6350906691565
 21
432.3560251783507
 31
0.0
  0
ARC
  5
388
330
1A
100
AcDbEntity
  8
SEIHIN
  6
CONTINUOUS
 62
     3
 48
16.0
100
AcDbCircle
 10
354.4351406691565
 20
432.3559251782232
 30
0.0
 40
7.000001480223889
100
AcDbArc
 50
20.92482779616593
 51
159.075172203834
  0
LINE
  5
389
330
1A
100
AcDbEntity
  8
CENTER_L
  6
CENTER
 62
     1
 48
5.0
100
AcDbLine
 10
354.4350906691564
 20
414.8775251783508
 30
0.0
 11
354.4351906691565
 21
449.0359251783507
 31
0.0
  0
LINE
  5
38A
330
1A
100
AcDbEntity
  8
CENTER_L
  6
CENTER
 62
     1
 48
5.0
100
AcDbLine
 10
354.4350906691564
 20
432.3559251783506
 30
0.0
 11
290.6014906691565
 21
432.3559251783506
 31
0.0
  0
LINE
  5
38B
330
1A
100
AcDbEntity
  8
SEIHIN
  6
CONTINUOUS
 62
     3
 48
16.0
100
AcDbLine
 10
354.4350906691564
 20
424.8559251783508
 30
0.0
 11
304.2681906691565
 21
424.8559251783508
 31
0.0
  0
LINE
  5
38C
330
1A
100
AcDbEntity
  8
SEIHIN
  6
CONTINUOUS
 62
     3
 48
16.0
100
AcDbLine
 10
354.4350906691564
 20
421.3559251783506
 30
0.0
 11
321.3145906691565
 21
421.3559251783506
 31
0.0
  0
ARC
  5
38D
330
1A
100
AcDbEntity
  8
SEIHIN
  6
CONTINUOUS
 62
     3
 48
16.0
100
AcDbCircle
 10
354.4351406691565
 20
432.3559251784782
 30
0.0
 40
7.000001480223889
100
AcDbArc
 50
200.9248277961659
 51
339.075172203834
  0
LINE
  5
38E
330
1A
100
AcDbEntity
  8
SEIHIN
  6
CONTINUOUS
 62
     3
 48
16.0
100
AcDbLine
 10
297.4350906691565
 20
270.3560251783508
 30
0.0
 11
295.9350906691564
 21
270.3560251783508
 31
0.0
  0
LINE
  5
38F
330
1A
100
AcDbEntity
  8
SEIHIN
  6
CONTINUOUS
 62
     3
 48
16.0
100
AcDbLine
 10
347.8967906691565
 20
429.8559251783506
 30
0.0
 11
304.2681906691565
 21
429.8559251783506
 31
0.0
  0
LINE
  5
390
330
1A
100
AcDbEntity
  8
SEIHIN
  6
CONTINUOUS
 62
     3
 48
16.0
100
AcDbLine
 10
347.8967906691565
 20
434.8559251783507
 30
0.0
 11
304.2681906691565
 21
434.8558251783505
 31
0.0
  0
ARC
  5
391
330
1A
100
AcDbEntity
  8
SEIHIN
  6
CONTINUOUS
 62
     3
 48
16.0
100
AcDbCircle
 10
315.8104906691564
 20
391.9829251783507
 30
0.0
 40
29.88426587085582
100
AcDbArc
 50
79.38644552492009
 51
100.6135544750799
  0
LINE
  5
392
330
1A
100
AcDbEntity
  8
SEIHIN
  6
CONTINUOUS
 62
     3
 48
16.0
100
AcDbLine
 10
310.3062906691565
 20
421.3559251783506
 30
0.0
 11
297.4350906691565
 21
421.3559251783506
 31
0.0
  0
LINE
  5
393
330
1A
100
AcDbEntity
  8
SEIHIN
  6
CONTINUOUS
 62
     3
 48
16.0
100
AcDbLine
 10
296.6350906691565
 20
419.8559251783506
 30
0.0
 11
296.6350906691565
 21
432.3558251783508
 31
0.0
  0
LINE
  5
394
330
1A
100
AcDbEntity
  8
SEIHIN
  6
CONTINUOUS
 62
     3
 48
16.0
100
AcDbLine
 10
297.4350906691565
 20
432.3559251783506
 30
0.0
 11
297.4350906691565
 21
419.8559251783506
 31
0.0
  0
LINE
  5
395
330
1A
100
AcDbEntity
  8
SEIHIN
  6
CONTINUOUS
 62
     3
 48
16.0
100
AcDbLine
 10
297.4350906691565
 20
419.8559251783506
 30
0.0
 11
296.6351906691566
 21
419.8559251783506
 31
0.0
  0
ARC
  5
396
330
1A
100
AcDbEntity
  8
SEIHIN
  6
CONTINUOUS
 62
     3
 48
16.0
100
AcDbCircle
 10
304.2681906691565
 20
427.3559251783506
 30
0.0
 40
2.499999999999943
100
AcDbArc
 50
90.0
 51
270.0
  0
LINE
  5
397
330
1A
100
AcDbEntity
  8
SEIHIN
  6
CONTINUOUS
 62
     3
 48
16.0
100
AcDbLine
 10
304.9681906691564
 20
421.3559251783506
 30
0.0
 11
304.9681906691564
 21
424.8559251783508
 31
0.0
  0
LINE
  5
398
330
1A
100
AcDbEntity
  8
SEIHIN
  6
CONTINUOUS
 62
     3
 48
16.0
100
AcDbLine
 10
310.3062906691565
 20
421.3559251783506
 30
0.0
 11
310.3062906691565
 21
424.8559251783508
 31
0.0
  0
LINE
  5
399
330
1A
100
AcDbEntity
  8
SEIHIN
  6
CONTINUOUS
 62
     3
 48
16.0
100
AcDbLine
 10
304.9681906691564
 20
429.8559251783506
 30
0.0
 11
304.9681906691564
 21
432.3559251783506
 31
0.0
  0
LINE
  5
39A
330
1A
100
AcDbEntity
  8
SEIHIN
  6
CONTINUOUS
 62
     3
 48
16.0
100
AcDbLine
 10
304.9681906691564
 20
434.8559251783507
 30
0.0
 11
304.9681906691564
 21
432.3559251783506
 31
0.0
  0
LINE
  5
39B
330
1A
100
AcDbEntity
  8
SEIHIN
  6
CONTINUOUS
 62
     3
 48
16.0
100
AcDbLine
 10
310.3062906691565
 20
429.8559251783506
 30
0.0
 11
310.3062906691565
 21
432.3559251783506
 31
0.0
  0
LINE
  5
39C
330
1A
100
AcDbEntity
  8
SEIHIN
  6
CONTINUOUS
 62
     3
 48
16.0
100
AcDbLine
 10
310.3062906691565
 20
434.8559251783507
 30
0.0
 11
310.3062906691565
 21
432.3559251783506
 31
0.0
  0
LINE
  5
39D
330
1A
100
AcDbEntity
  8
SEIHIN
  6
CONTINUOUS
 62
     3
 48
16.0
100
AcDbLine
 10
321.3145906691565
 20
421.3559251783506
 30
0.0
 11
321.3145906691565
 21
424.8559251783508
 31
0.0
  0
LINE
  5
39E
330
1A
100
AcDbEntity
  8
SEIHIN
  6
CONTINUOUS
 62
     3
 48
16.0
100
AcDbLine
 10
321.3145906691565
 20
429.8559251783506
 30
0.0
 11
321.3145906691565
 21
432.3559251783506
 31
0.0
  0
LINE
  5
39F
330
1A
100
AcDbEntity
  8
SEIHIN
  6
CONTINUOUS
 62
     3
 48
16.0
100
AcDbLine
 10
321.3145906691565
 20
434.8559251783507
 30
0.0
 11
321.3145906691565
 21
432.3559251783506
 31
0.0
  0
LINE
  5
3A0
330
1A
100
AcDbEntity
  8
SEIHIN
  6
CONTINUOUS
 62
     3
 48
16.0
100
AcDbLine
 10
360.9734906691564
 20
429.8559251783506
 30
0.0
 11
401.2350906691565
 21
429.8559251783506
 31
0.0
  0
LINE
  5
3A1
330
1A
100
AcDbEntity
  8
SEIHIN
  6
CONTINUOUS
 62
     3
 48
16.0
100
AcDbLine
 10
354.4351906691565
 20
424.8559251783508
 30
0.0
 11
401.2350906691565
 21
424.8559251783508
 31
0.0
  0
LINE
  5
3A2
330
1A
100
AcDbEntity
  8
SEIHIN
  6
CONTINUOUS
 62
     3
 48
16.0
100
AcDbLine
 10
354.4351906691565
 20
421.3559251783506
 30
0.0
 11
387.5556906691564
 21
421.3558251783508
 31
0.0
  0
LINE
  5
3A3
330
1A
100
AcDbEntity
  8
SEIHIN
  6
CONTINUOUS
 62
     3
 48
16.0
100
AcDbLine
 10
360.9734906691564
 20
434.8559251783507
 30
0.0
 11
401.2350906691565
 21
434.8559251783507
 31
0.0
  0
LINE
  5
3A4
330
1A
100
AcDbEntity
  8
SEIHIN
  6
CONTINUOUS
 62
     3
 48
16.0
100
AcDbLine
 10
352.4351418378295
 20
430.3559251783506
 30
0.0
 11
356.4351418378294
 21
430.3559251783506
 31
0.0
  0
LINE
  5
3A5
330
1A
100
AcDbEntity
  8
SEIHIN
  6
CONTINUOUS
 62
     3
 48
16.0
100
AcDbLine
 10
352.4351418378295
 20
434.3559251783506
 30
0.0
 11
356.4351418378294
 21
434.3559251783506
 31
0.0
  0
ARC
  5
3A6
330
1A
100
AcDbEntity
  8
SEIHIN
  6
CONTINUOUS
 62
     3
 48
16.0
100
AcDbCircle
 10
354.4351906691564
 20
432.3559251783506
 30
0.0
 40
5.0
100
AcDbArc
 50
0.0
 51
180.0
  0
ARC
  5
3A7
330
1A
100
AcDbEntity
  8
SEIHIN
  6
CONTINUOUS
 62
     3
 48
16.0
100
AcDbCircle
 10
354.4351906691564
 20
432.3559251783506
 30
0.0
 40
5.0
100
AcDbArc
 50
180.0
 51
0.0
  0
LINE
  5
3A8
330
1A
100
AcDbEntity
  8
SEIHIN
  6
CONTINUOUS
 62
     3
 48
16.0
100
AcDbLine
 10
352.4351418378295
 20
430.3559251783506
 30
0.0
 11
352.4351418378295
 21
434.3559251783506
 31
0.0
  0
LINE
  5
3AA
330
1A
100
AcDbEntity
  8
SEIHIN
  6
CONTINUOUS
 62
     3
 48
16.0
100
AcDbLine
 10
356.4351418378294
 20
430.3559251783506
 30
0.0
 11
356.4351418378294
 21
434.3559251783506
 31
0.0
  0
ARC
  5
3AC
330
1A
100
AcDbEntity
  8
SEIHIN
  6
CONTINUOUS
 62
     3
 48
16.0
100
AcDbCircle
 10
393.0598406691565
 20
391.9828251782682
 30
0.0
 40
29.88425666178345
100
AcDbArc
 50
79.38653974772456
 51
100.6134602522754
  0
LINE
  5
3AD
330
1A
100
AcDbEntity
  8
SEIHIN
  6
CONTINUOUS
 62
     3
 48
16.0
100
AcDbLine
 10
387.5556906691564
 20
421.3558251783508
 30
0.0
 11
387.5556906691564
 21
424.8558251783507
 31
0.0
  0
LINE
  5
3AE
330
1A
100
AcDbEntity
  8
SEIHIN
  6
CONTINUOUS
 62
     3
 48
16.0
100
AcDbLine
 10
387.5556906691564
 20
429.8558251783508
 30
0.0
 11
387.5556906691564
 21
432.3558251783508
 31
0.0
  0
LINE
  5
3AF
330
1A
100
AcDbEntity
  8
SEIHIN
  6
CONTINUOUS
 62
     3
 48
16.0
100
AcDbLine
 10
387.5556906691564
 20
434.8560251783507
 30
0.0
 11
387.5556906691564
 21
432.3559251783506
 31
0.0
  0
LINE
  5
3B0
330
1A
100
AcDbEntity
  8
SEIHIN
  6
CONTINUOUS
 62
     3
 48
16.0
100
AcDbLine
 10
412.2350906691566
 20
419.8559251783506
 30
0.0
 11
412.2350906691566
 21
432.3558251783508
 31
0.0
  0
LINE
  5
3B1
330
1A
100
AcDbEntity
  8
SEIHIN
  6
CONTINUOUS
 62
     3
 48
16.0
100
AcDbLine
 10
401.2350906691565
 20
432.3559251783506
 30
0.0
 11
401.2350906691565
 21
423.3559251783506
 31
0.0
  0
LINE
  5
3B2
330
1A
100
AcDbEntity
  8
SEIHIN
  6
CONTINUOUS
 62
     3
 48
16.0
100
AcDbLine
 10
412.2350906691566
 20
423.3559251783506
 30
0.0
 11
401.2350906691565
 21
423.3559251783506
 31
0.0
  0
LINE
  5
3B3
330
1A
100
AcDbEntity
  8
SEIHIN
  6
CONTINUOUS
 62
     3
 48
16.0
100
AcDbLine
 10
398.5639906691565
 20
421.3558251783508
 30
0.0
 11
411.4350906691566
 21
421.3558251783508
 31
0.0
  0
LINE
  5
3B4
330
1A
100
AcDbEntity
  8
SEIHIN
  6
CONTINUOUS
 62
     3
 48
16.0
100
AcDbLine
 10
398.5639906691565
 20
421.3558251783508
 30
0.0
 11
398.5639906691565
 21
424.8558251783507
 31
0.0
  0
LINE
  5
3B5
330
1A
100
AcDbEntity
  8
SEIHIN
  6
CONTINUOUS
 62
     3
 48
16.0
100
AcDbLine
 10
403.9019906691565
 20
421.3558251783508
 30
0.0
 11
403.9019906691565
 21
423.3559251783506
 31
0.0
  0
LINE
  5
3B6
330
1A
100
AcDbEntity
  8
SEIHIN
  6
CONTINUOUS
 62
     3
 48
16.0
100
AcDbLine
 10
411.4350906691566
 20
419.8559251783506
 30
0.0
 11
412.2350906691566
 21
419.8559251783506
 31
0.0
  0
LINE
  5
3B7
330
1A
100
AcDbEntity
  8
SEIHIN
  6
CONTINUOUS
 62
     3
 48
16.0
100
AcDbLine
 10
411.4350906691566
 20
423.3559251783506
 30
0.0
 11
411.4350906691566
 21
419.8559251783506
 31
0.0
  0
LINE
  5
3B8
330
1A
100
AcDbEntity
  8
SEIHIN
  6
CONTINUOUS
 62
     3
 48
16.0
100
AcDbLine
 10
398.5639906691565
 20
429.8558251783508
 30
0.0
 11
398.5639906691565
 21
432.3558251783508
 31
0.0
  0
LINE
  5
3B9
330
1A
100
AcDbEntity
  8
SEIHIN
  6
CONTINUOUS
 62
     3
 48
16.0
100
AcDbLine
 10
398.5639906691565
 20
434.8560251783507
 30
0.0
 11
398.5639906691565
 21
432.3560251783507
 31
0.0
  0
LINE
  5
3BA
330
1A
100
AcDbEntity
  8
SEIHIN
  6
CONTINUOUS
 62
     3
 48
16.0
100
AcDbLine
 10
354.4350906691564
 20
439.8559251783506
 30
0.0
 11
304.2681906691565
 21
439.8559251783506
 31
0.0
  0
LINE
  5
3BB
330
1A
100
AcDbEntity
  8
SEIHIN
  6
CONTINUOUS
 62
     3
 48
16.0
100
AcDbLine
 10
354.4350906691564
 20
443.3559251783507
 30
0.0
 11
321.3145906691565
 21
443.3559251783507
 31
0.0
  0
ARC
  5
3BC
330
1A
100
AcDbEntity
  8
SEIHIN
  6
CONTINUOUS
 62
     3
 48
16.0
100
AcDbCircle
 10
315.8103906691565
 20
472.7289251786796
 30
0.0
 40
29.88426587117908
100
AcDbArc
 50
259.3864455250362
 51
280.6135544749638
  0
LINE
  5
3BD
330
1A
100
AcDbEntity
  8
SEIHIN
  6
CONTINUOUS
 62
     3
 48
16.0
100
AcDbLine
 10
310.3062906691565
 20
443.3559251783507
 30
0.0
 11
297.4350906691565
 21
443.3559251783507
 31
0.0
  0
LINE
  5
3BE
330
1A
100
AcDbEntity
  8
SEIHIN
  6
CONTINUOUS
 62
     3
 48
16.0
100
AcDbLine
 10
297.4350906691565
 20
444.8559251783506
 30
0.0
 11
296.6351906691566
 21
444.8559251783506
 31
0.0
  0
LINE
  5
3BF
330
1A
100
AcDbEntity
  8
SEIHIN
  6
CONTINUOUS
 62
     3
 48
16.0
100
AcDbLine
 10
304.9681906691564
 20
443.3559251783507
 30
0.0
 11
304.9681906691564
 21
439.8559251783506
 31
0.0
  0
LINE
  5
3C0
330
1A
100
AcDbEntity
  8
SEIHIN
  6
CONTINUOUS
 62
     3
 48
16.0
100
AcDbLine
 10
310.3062906691565
 20
443.3559251783507
 30
0.0
 11
310.3062906691565
 21
439.8559251783506
 31
0.0
  0
LINE
  5
3C1
330
1A
100
AcDbEntity
  8
SEIHIN
  6
CONTINUOUS
 62
     3
 48
16.0
100
AcDbLine
 10
321.3145906691565
 20
443.3559251783507
 30
0.0
 11
321.3145906691565
 21
439.8559251783506
 31
0.0
  0
LINE
  5
3C2
330
1A
100
AcDbEntity
  8
SEIHIN
  6
CONTINUOUS
 62
     3
 48
16.0
100
AcDbLine
 10
354.4351906691565
 20
443.3559251783507
 30
0.0
 11
387.5556906691564
 21
443.3560251783507
 31
0.0
  0
LINE
  5
3C3
330
1A
100
AcDbEntity
  8
SEIHIN
  6
CONTINUOUS
 62
     3
 48
16.0
100
AcDbLine
 10
354.4351906691565
 20
439.8559251783506
 30
0.0
 11
401.2350906691565
 21
439.8559251783506
 31
0.0
  0
ARC
  5
3C4
330
1A
100
AcDbEntity
  8
SEIHIN
  6
CONTINUOUS
 62
     3
 48
16.0
100
AcDbCircle
 10
393.0597906691565
 20
472.7290251783506
 30
0.0
 40
29.88426587085578
100
AcDbArc
 50
259.38644552492
 51
280.6135544750799
  0
LINE
  5
3C5
330
1A
100
AcDbEntity
  8
SEIHIN
  6
CONTINUOUS
 62
     3
 48
16.0
100
AcDbLine
 10
387.5556906691564
 20
443.3560251783507
 30
0.0
 11
387.5556906691564
 21
439.8560251783507
 31
0.0
  0
LINE
  5
3C6
330
1A
100
AcDbEntity
  8
SEIHIN
  6
CONTINUOUS
 62
     3
 48
16.0
100
AcDbLine
 10
412.2350906691566
 20
441.3559251783508
 30
0.0
 11
401.2350906691565
 21
441.3559251783508
 31
0.0
  0
LINE
  5
3C7
330
1A
100
AcDbEntity
  8
SEIHIN
  6
CONTINUOUS
 62
     3
 48
16.0
100
AcDbLine
 10
398.5639906691565
 20
443.3560251783507
 30
0.0
 11
411.4350906691566
 21
443.3560251783507
 31
0.0
  0
LINE
  5
3C8
330
1A
100
AcDbEntity
  8
SEIHIN
  6
CONTINUOUS
 62
     3
 48
16.0
100
AcDbLine
 10
403.9019906691565
 20
443.3560251783507
 30
0.0
 11
403.9019906691565
 21
441.3559251783508
 31
0.0
  0
LINE
  5
3C9
330
1A
100
AcDbEntity
  8
SEIHIN
  6
CONTINUOUS
 62
     3
 48
16.0
100
AcDbLine
 10
398.5639906691565
 20
443.3560251783507
 30
0.0
 11
398.5639906691565
 21
439.8560251783507
 31
0.0
  0
LINE
  5
3CA
330
1A
100
AcDbEntity
  8
SEIHIN
  6
CONTINUOUS
 62
     3
 48
16.0
100
AcDbLine
 10
411.4350906691566
 20
441.3559251783508
 30
0.0
 11
411.4350906691566
 21
444.8559251783506
 31
0.0
  0
LINE
  5
3CB
330
1A
100
AcDbEntity
  8
SEIHIN
  6
CONTINUOUS
 62
     3
 48
16.0
100
AcDbLine
 10
411.4350906691566
 20
444.8559251783506
 30
0.0
 11
412.2350906691566
 21
444.8559251783506
 31
0.0
  0
LINE
  5
3CE
330
1A
100
AcDbEntity
  8
CENTER_L
  6
CENTER
 62
     1
 48
5.0
100
AcDbLine
 10
475.3664906691565
 20
268.7310251783508
 30
0.0
 11
478.5393906691564
 21
260.7983251783508
 31
0.0
  0
ARC
  5
3CF
330
1A
100
AcDbEntity
  8
SEIHIN
  6
CONTINUOUS
 62
     3
 48
16.0
100
AcDbCircle
 10
476.8611906691566
 20
264.9940251783508
 30
0.0
 40
1.75
100
AcDbArc
 50
0.0
 51
180.0
  0
LINE
  5
3D0
330
1A
100
AcDbEntity
  8
SEIHIN
  6
CONTINUOUS
 62
     3
 48
16.0
100
AcDbLine
 10
585.8655906691565
 20
315.5933251783508
 30
0.0
 11
444.7147906691565
 21
259.1374251783507
 31
0.0
  0
LINE
  5
3D3
330
1A
100
AcDbEntity
  8
CENTER_L
  6
CENTER
 62
     1
 48
5.0
100
AcDbLine
 10
431.0117906691566
 20
246.6559251783507
 30
0.0
 11
594.7788970464413
 21
312.157686053376
 31
0.0
  0
LINE
  5
3D4
330
1A
100
AcDbEntity
  8
SEIHIN
  6
CONTINUOUS
 62
     3
 48
16.0
100
AcDbLine
 10
590.6933906691565
 20
303.5230251783506
 30
0.0
 11
447.9505906691564
 21
246.4303251783508
 31
0.0
  0
ARC
  5
3D7
330
1A
100
AcDbEntity
  8
SEIHIN
  6
CONTINUOUS
 62
     3
 48
16.0
100
AcDbCircle
 10
459.0916739984528
 20
218.5759085075443
 30
0.0
 40
29.99996394522105
100
AcDbArc
 50
111.8001268167507
 51
158.2002159936015
  0
ARC
  5
3D8
330
1A
100
AcDbEntity
  8
SEIHIN
  6
CONTINUOUS
 62
     3
 48
16.0
100
AcDbCircle
 10
462.1690073398089
 20
215.4985418489243
 30
0.0
 40
47.00001933856369
100
AcDbArc
 50
111.7998965630343
 51
158.1998846217502
  0
ARC
  5
3D9
330
1A
100
AcDbEntity
  8
SEIHIN
  6
CONTINUOUS
 62
     3
 48
16.0
100
AcDbCircle
 10
476.8611906691566
 20
264.9940251783508
 30
0.0
 40
1.75
100
AcDbArc
 50
180.0
 51
0.0
  0
LINE
  5
3E9
330
1A
100
AcDbEntity
  8
CENTER_L
  6
CENTER
 62
     1
 48
5.0
100
AcDbLine
 10
526.4331906691565
 20
289.1563251783508
 30
0.0
 11
529.6060906691566
 21
281.2235251783508
 31
0.0
  0
ARC
  5
3EA
330
1A
100
AcDbEntity
  8
SEIHIN
  6
CONTINUOUS
 62
     3
 48
16.0
100
AcDbCircle
 10
527.9278906691565
 20
285.4192251783508
 30
0.0
 40
1.75
100
AcDbArc
 50
0.0
 51
180.0
  0
ARC
  5
3EB
330
1A
100
AcDbEntity
  8
SEIHIN
  6
CONTINUOUS
 62
     3
 48
16.0
100
AcDbCircle
 10
527.9278906691565
 20
285.4192251783508
 30
0.0
 40
1.75
100
AcDbArc
 50
180.0
 51
0.0
  0
LINE
  5
3F0
330
1A
100
AcDbEntity
  8
SEIHIN
  6
CONTINUOUS
 62
     3
 48
16.0
100
AcDbLine
 10
590.6933561882461
 20
303.5230113870543
 30
0.0
 11
585.8655906691565
 21
315.5933251783508
 31
0.0
  0
ARC
  5
3F1
330
1A
100
AcDbEntity
  8
SEIHIN
  6
CONTINUOUS
 62
     3
 48
16.0
100
AcDbCircle
 10
578.9945906691566
 20
305.8445251783506
 30
0.0
 40
1.75
100
AcDbArc
 50
0.0
 51
180.0
  0
LINE
  5
3F2
330
1A
100
AcDbEntity
  8
CENTER_L
  6
CENTER
 62
     1
 48
5.0
100
AcDbLine
 10
577.4998906691567
 20
309.5815251783508
 30
0.0
 11
580.6727906691564
 21
301.6487251783506
 31
0.0
  0
ARC
  5
3F3
330
1A
100
AcDbEntity
  8
SEIHIN
  6
CONTINUOUS
 62
     3
 48
16.0
100
AcDbCircle
 10
578.9945906691566
 20
305.8445251783506
 30
0.0
 40
1.75
100
AcDbArc
 50
180.0
 51
0.0
  0
LINE
  5
404
330
1A
100
AcDbEntity
  8
SEIHIN
  6
CONTINUOUS
 62
     3
 48
16.0
100
AcDbLine
 10
585.8655906691565
 20
429.8559251783506
 30
0.0
 11
585.8655906691565
 21
434.8559251783507
 31
0.0
  0
LINE
  5
405
330
1A
100
AcDbEntity
  8
SEIHIN
  6
CONTINUOUS
 62
     3
 48
16.0
100
AcDbLine
 10
590.6933906691565
 20
429.8559251783506
 30
0.0
 11
590.6933906691565
 21
434.8559251783507
 31
0.0
  0
DIMENSION
  5
41D
330
1A
100
AcDbEntity
  8
SUNPOU
  6
CONTINUOUS
100
AcDbDimension
  2
*D2
 10
627.5192743275042
 20
211.4523657848144
 30
0.0
 11
495.6742968627879
 21
164.1032396083698
 31
0.0
 70
    33
  3
STANDARD
100
AcDbAlignedDimension
 13
348.9910906691563
 23
153.8523251783507
 33
0.0
 14
608.9673666686999
 24
257.8354355703119
 34
0.0
1001
ACAD
1000
DSTYLE
1002
{
1070
   140
1040
6.0
1070
    74
1070
     0
1070
   172
1070
     1
1070
    73
1070
     0
1070
   272
1070
     2
1070
    77
1070
     3
1070
   173
1070
     1
1070
   147
1040
2.0
1070
    42
1040
6.0
1070
    44
1040
3.0
1070
    43
1040
14.0
1070
   271
1070
     0
1070
   178
1070
     4
1070
   177
1070
     4
1070
   176
1070
     4
1070
   141
1040
150.0
1070
     7
1000
_OPEN
1070
     6
1000
_OPEN
1070
    41
1040
7.0
1002
}
  0
LINE
  5
41F
330
1A
100
AcDbEntity
  8
SUNPOU
  6
CONTINUOUS
 62
     4
 48
16.0
100
AcDbLine
 10
612.0161274155487
 20
250.2113817424465
 30
0.0
 11
593.7700577467061
 21
295.8309732481481
 31
0.0
  0
DIMENSION
  5
43B
330
1A
100
AcDbEntity
  8
SUNPOU
  6
CONTINUOUS
100
AcDbDimension
  2
*D3
 10
514.7446710394956
 20
318.3798914460075
 30
0.0
 11
487.3544502102205
 21
312.8097674728272
 31
0.0
 70
    33
  3
STANDARD
100
AcDbAlignedDimension
 13
474.447173918729
 23
271.02944743752
 33
0.0
 14
525.5139594586978
 24
291.4545625467927
 34
0.0
1001
ACAD
1000
DSTYLE
1002
{
1070
   140
1040
6.0
1070
    74
1070
     0
1070
   172
1070
     1
1070
    73
1070
     0
1070
   272
1070
     2
1070
    77
1070
     3
1070
   173
1070
     1
1070
   147
1040
2.0
1070
    42
1040
6.0
1070
    44
1040
3.0
1070
    43
1040
14.0
1070
   271
1070
     0
1070
   178
1070
     4
1070
   177
1070
     4
1070
   176
1070
     4
1070
   141
1040
150.0
1070
     7
1000
_OPEN
1070
     6
1000
_OPEN
1070
    41
1040
7.0
1002
}
  0
DIMENSION
  5
447
330
1A
100
AcDbEntity
  8
SUNPOU
  6
CONTINUOUS
100
AcDbDimension
  2
*D4
 10
565.8114121078415
 20
338.8049887680235
 30
0.0
 11
538.421213514378
 21
333.2348736884716
 31
0.0
 70
    32
  3
STANDARD
100
AcDbAlignedDimension
 13
525.5139594586982
 23
291.4545625467929
 33
0.0
 14
576.580700527044
 24
311.8796598688089
 34
0.0
 50
21.7998627786146
100
AcDbRotatedDimension
1001
ACAD
1000
DSTYLE
1002
{
1070
   287
1070
     4
1070
   287
1070
     4
1070
   287
1070
     4
1070
    41
1040
7.0
1070
    42
1040
6.0
1070
    43
1040
14.0
1070
    44
1040
3.0
1070
    73
1070
     0
1070
    74
1070
     0
1070
    75
1070
     1
1070
    77
1070
     3
1070
   140
1040
6.0
1070
   141
1040
150.0
1070
   147
1040
2.0
1070
   172
1070
     1
1070
   173
1070
     1
1070
   176
1070
     4
1070
   177
1070
     4
1070
   178
1070
     4
1070
   271
1070
     0
1070
   272
1070
     2
1070
   279
1070
     1
1070
     6
1000
OPEN
1070
     7
1000
OPEN
1002
}
  0
DIMENSION
  5
457
330
1A
100
AcDbEntity
  8
SUNPOU
  6
CONTINUOUS
100
AcDbDimension
  2
*D5
 10
575.0963022499546
 20
342.5186540775657
 30
0.0
 11
591.3449651583426
 21
354.4027170902553
 31
0.0
 70
    32
  3
STANDARD
100
AcDbAlignedDimension
 13
576.5807005270446
 23
311.8796598688092
 33
0.0
 14
585.8655906691567
 24
315.5933251783509
 34
0.0
 50
21.7998627786146
100
AcDbRotatedDimension
1001
ACAD
1000
DSTYLE
1002
{
1070
   140
1040
6.0
1070
    74
1070
     0
1070
   172
1070
     1
1070
    73
1070
     0
1070
   272
1070
     2
1070
    77
1070
     3
1070
    75
1070
     1
1070
   173
1070
     1
1070
   147
1040
2.0
1070
    42
1040
6.0
1070
    44
1040
3.0
1070
    43
1040
14.0
1070
   271
1070
     0
1070
   178
1070
     4
1070
   177
1070
     4
1070
   176
1070
     4
1070
   141
1040
150.0
1070
     7
1000
_OPEN
1070
     6
1000
_OPEN
1070
    41
1040
7.0
1002
}
  0
DIMENSION
  5
47E
330
1A
100
AcDbEntity
  8
SUNPOU
  6
CONTINUOUS
100
AcDbDimension
  2
*D6
 10
618.0273543798912
 20
314.4558860022474
 30
0.0
 11
620.2558802734491
 21
322.3478832826728
 31
0.0
 70
    33
  3
STANDARD
100
AcDbAlignedDimension
 13
585.8655906691565
 23
315.5933251783508
 33
0.0
 14
590.6933906691564
 24
303.5230251783506
 34
0.0
1001
ACAD
1000
DSTYLE
1002
{
1070
   140
1040
6.0
1070
    74
1070
     0
1070
   172
1070
     1
1070
    73
1070
     0
1070
   272
1070
     2
1070
    77
1070
     3
1070
   173
1070
     1
1070
   147
1040
2.0
1070
    42
1040
6.0
1070
    44
1040
3.0
1070
    43
1040
14.0
1070
   271
1070
     0
1070
   178
1070
     4
1070
   177
1070
     4
1070
   176
1070
     4
1070
   141
1040
150.0
1070
     7
1000
_OPEN
1070
     6
1000
_OPEN
1070
    41
1040
7.0
1002
}
  0
LINE
  5
48B
330
1A
100
AcDbEntity
  8
SUNPOU
  6
CONTINUOUS
 62
     4
 48
16.0
100
AcDbLine
 10
638.909386518707
 20
336.8091825033014
 30
0.0
 11
658.9093865187067
 21
336.8091825033014
 31
0.0
  0
LINE
  5
48C
330
1A
100
AcDbEntity
  8
SUNPOU
  6
CONTINUOUS
 62
     4
 48
16.0
100
AcDbLine
 10
658.9093865187067
 20
344.8091825033015
 30
0.0
 11
638.909386518707
 21
336.8091825033014
 31
0.0
  0
TEXT
  5
48D
330
1A
100
AcDbEntity
  8
SUNPOU
  6
CONTINUOUS
 62
     4
 48
16.0
100
AcDbText
 10
647.0449523356101
 20
326.9237193846803
 30
0.0
 40
6.0
  1
10
100
AcDbText
  0
LINE
  5
48E
330
1A
100
AcDbEntity
  8
SUNPOU
  6
CONTINUOUS
 62
     4
 48
16.0
100
AcDbLine
 10
658.9093865187067
 20
336.8091825033014
 30
0.0
 11
658.9093865187067
 21
344.8091825033015
 31
0.0
  0
TEXT
  5
48F
330
1A
100
AcDbEntity
  8
SUNPOU
  6
CONTINUOUS
 62
     4
 48
16.0
100
AcDbText
 10
663.6751865187069
 20
338.5170825033014
 30
0.0
 40
6.0
  1
4
100
AcDbText
  0
LEADER
  5
490
330
1A
100
AcDbEntity
  8
SUNPOU
  6
CONTINUOUS
 62
     4
100
AcDbLeader
  3
STANDARD
 73
     0
 74
     0
 40
6.0
 41
31.19999999999999
 76
     3
 10
578.9945906691566
 20
307.5945251783506
 30
0.0
 10
602.663337859592
 20
350.4837687878871
 30
0.0
 10
606.5491915897178
 20
350.4837687878871
 30
0.0
1001
ACAD
1000
DSTYLE
1002
{
1070
     6
1000
OPEN
1070
    41
1040
7.0
1070
    42
1040
6.0
1070
    43
1040
14.0
1070
    44
1040
3.0
1070
    73
1070
     0
1070
    74
1070
     0
1070
    77
1070
     3
1070
   140
1040
6.0
1070
   141
1040
150.0
1070
   147
1040
2.0
1070
   172
1070
     1
1070
   173
1070
     1
1070
   176
1070
     4
1070
   177
1070
     4
1070
   178
1070
     4
1070
   271
1070
     0
1070
   272
1070
     2
1070
   341
1005
6D
1070
   343
1005
6D
1070
   344
1005
6D
1002
}
1000
LEANOF
1010
0.0
1020
0.0
1030
0.0
  0
MTEXT
  5
491
330
1A
100
AcDbEntity
  8
SUNPOU
  6
CONTINUOUS
 62
     4
100
AcDbMText
 10
608.5491915897177
 20
352.4837687878871
 30
0.0
 40
6.0
 41
0.0
 71
     7
 72
     1
  1
3-φ3.5
1001
ACAD
1000
MTEXTBEGIN
1070
    73
1070
     1
1070
    44
1040
1.0
1070
    74
1070
     0
1000
MTEXTEND
1000
MTEXTBEGIN
1070
    73
1070
     1
1070
    44
1040
1.0
1070
    74
1070
     0
1000
MTEXTEND
1000
MTEXTBEGIN
1070
    73
1070
     1
1070
    44
1040
1.0
1070
    74
1070
     0
1000
MTEXTEND
  0
DIMENSION
  5
4A0
330
1A
100
AcDbEntity
  8
SUNPOU
  6
CONTINUOUS
100
AcDbDimension
  2
*D7
 10
621.9169153720595
 20
429.8559251783506
 30
0.0
 11
616.9169153720595
 21
405.3559251783506
 31
0.0
 12
0.0
 22
10.0
 32
0.0
 70
    32
  1
t<>
  3
STANDARD
100
AcDbAlignedDimension
 13
590.6933906691565
 23
434.8559251783507
 33
0.0
 14
590.6933906691565
 24
429.8559251783506
 34
0.0
 50
90.0
100
AcDbRotatedDimension
1001
ACAD
1000
DSTYLE
1002
{
1070
   140
1040
6.0
1070
    74
1070
     0
1070
   172
1070
     1
1070
    73
1070
     0
1070
   272
1070
     2
1070
    77
1070
     3
1070
   173
1070
     1
1070
   147
1040
2.0
1070
    42
1040
6.0
1070
    44
1040
3.0
1070
    43
1040
14.0
1070
   271
1070
     1
1070
   178
1070
     4
1070
   177
1070
     4
1070
   176
1070
     4
1070
   141
1040
150.0
1070
     7
1000
_OPEN
1070
     6
1000
_OPEN
1070
    41
1040
7.0
1002
}
  0
DIMENSION
  5
4E3
330
1A
100
AcDbEntity
  8
SUNPOU
  6
CONTINUOUS
100
AcDbDimension
  2
*D8
 10
259.5690713400613
 20
419.8559251783506
 30
0.0
 11
254.5690713400613
 21
432.3559251783506
 31
0.0
 70
    32
  3
STANDARD
100
AcDbAlignedDimension
 13
296.6350906691565
 23
444.8559251783506
 33
0.0
 14
296.6350906691565
 24
419.8559251783506
 34
0.0
 50
90.0
100
AcDbRotatedDimension
1001
ACAD
1000
DSTYLE
1002
{
1070
   140
1040
6.0
1070
    74
1070
     0
1070
   172
1070
     1
1070
    73
1070
     0
1070
   272
1070
     2
1070
    77
1070
     3
1070
   173
1070
     1
1070
   147
1040
2.0
1070
    42
1040
6.0
1070
    44
1040
3.0
1070
    43
1040
14.0
1070
   271
1070
     0
1070
   178
1070
     4
1070
   177
1070
     4
1070
   176
1070
     4
1070
   141
1040
150.0
1070
     7
1000
_OPEN
1070
     6
1000
_OPEN
1070
    41
1040
7.0
1002
}
  0
DIMENSION
  5
4F0
330
1A
100
AcDbEntity
  8
SUNPOU
  6
CONTINUOUS
100
AcDbDimension
  2
*D9
 10
295.9350906691564
 20
296.0235161204002
 30
0.0
 11
354.4350906691565
 21
301.0235161204002
 31
0.0
 70
    32
  3
STANDARD
100
AcDbAlignedDimension
 13
412.9350906691565
 23
250.9044251783507
 33
0.0
 14
295.9350906691564
 24
270.3560251783508
 34
0.0
100
AcDbRotatedDimension
1001
ACAD
1000
DSTYLE
1002
{
1070
   140
1040
6.0
1070
    74
1070
     0
1070
   172
1070
     1
1070
    73
1070
     0
1070
   272
1070
     2
1070
    77
1070
     3
1070
   173
1070
     1
1070
   147
1040
2.0
1070
    42
1040
6.0
1070
    44
1040
3.0
1070
    43
1040
14.0
1070
   271
1070
     0
1070
   178
1070
     4
1070
   177
1070
     4
1070
   176
1070
     4
1070
   141
1040
150.0
1070
     7
1000
_OPEN
1070
     6
1000
_OPEN
1070
    41
1040
7.0
1002
}
  0
DIMENSION
  5
50D
330
1A
100
AcDbEntity
  8
SUNPOU
  6
CONTINUOUS
100
AcDbDimension
  2
*D10
 10
259.5004404228384
 20
195.8560251783507
 30
0.0
 11
254.5004404228384
 21
233.1060251783507
 31
0.0
 70
    32
  3
STANDARD
100
AcDbAlignedDimension
 13
295.9350906691564
 23
270.3560251783508
 33
0.0
 14
320.1795906691565
 24
195.8560251783507
 34
0.0
 50
90.0
100
AcDbRotatedDimension
1001
ACAD
1000
DSTYLE
1002
{
1070
   140
1040
6.0
1070
    74
1070
     0
1070
   172
1070
     1
1070
    73
1070
     0
1070
   272
1070
     2
1070
    77
1070
     3
1070
   173
1070
     1
1070
   147
1040
2.0
1070
    42
1040
6.0
1070
    44
1040
3.0
1070
    43
1040
14.0
1070
   271
1070
     0
1070
   178
1070
     4
1070
   177
1070
     4
1070
   176
1070
     4
1070
   141
1040
150.0
1070
     7
1000
_OPEN
1070
     6
1000
_OPEN
1070
    41
1040
7.0
1002
}
  0
DIMENSION
  5
519
330
1A
100
AcDbEntity
  8
SUNPOU
  6
CONTINUOUS
100
AcDbDimension
  2
*D11
 10
259.5004404228384
 20
134.6560196151184
 30
0.0
 11
254.5004404228383
 21
165.2560223967346
 31
0.0
 70
    32
  3
STANDARD
100
AcDbAlignedDimension
 13
320.1795906691565
 23
195.8560251783507
 33
0.0
 14
374.9350953340631
 24
134.6560196151183
 34
0.0
 50
90.0
100
AcDbRotatedDimension
1001
ACAD
1000
DSTYLE
1002
{
1070
   287
1070
     4
1070
   287
1070
     4
1070
   287
1070
     4
1070
    41
1040
7.0
1070
    42
1040
6.0
1070
    43
1040
14.0
1070
    44
1040
3.0
1070
    73
1070
     0
1070
    74
1070
     0
1070
    75
1070
     1
1070
    77
1070
     3
1070
   140
1040
6.0
1070
   141
1040
150.0
1070
   147
1040
2.0
1070
   172
1070
     1
1070
   173
1070
     1
1070
   176
1070
     4
1070
   177
1070
     4
1070
   178
1070
     4
1070
   271
1070
     0
1070
   272
1070
     2
1070
   279
1070
     1
1070
     6
1000
OPEN
1070
     7
1000
OPEN
1002
}
  0
ARC
  5
567
330
1A
100
AcDbEntity
  8
SEIHIN
  6
CONTINUOUS
 62
     3
100
AcDbCircle
 10
171.9216382177517
 20
207.4941141689913
 30
0.0
 40
3.00527537520096
100
AcDbArc
 50
183.3953591556151
 51
356.6046408443849
  0
ARC
  5
568
330
1A
100
AcDbEntity
  8
SEIHIN
  6
CONTINUOUS
 62
     3
100
AcDbCircle
 10
181.9216074525802
 20
207.4941141689913
 30
0.0
 40
3.00527537520096
100
AcDbArc
 50
183.3953591556151
 51
356.6046408443849
  0
ARC
  5
569
330
1A
100
AcDbEntity
  8
SEIHIN
  6
CONTINUOUS
 62
     3
 48
16.0
100
AcDbCircle
 10
304.2682418378295
 20
427.3560251783505
 30
0.0
 40
2.500000000000085
100
AcDbArc
 50
90.0
 51
270.0
  0
ARC
  5
56A
330
1A
100
AcDbEntity
  8
SEIHIN
  6
CONTINUOUS
 62
     3
 48
16.0
100
AcDbCircle
 10
304.2682418378293
 20
427.3560251783508
 30
0.0
 40
2.5
100
AcDbArc
 50
90.0
 51
270.0
  0
ARC
  5
56B
330
1A
100
AcDbEntity
  8
SEIHIN
  6
CONTINUOUS
 62
     3
 48
16.0
100
AcDbCircle
 10
304.2682418378295
 20
437.3559251783507
 30
0.0
 40
2.5
100
AcDbArc
 50
90.0
 51
270.0
  0
ARC
  5
56C
330
1A
100
AcDbEntity
  8
SEIHIN
  6
CONTINUOUS
 62
     3
 48
16.0
100
AcDbCircle
 10
304.2682418378293
 20
437.3559251783508
 30
0.0
 40
2.5
100
AcDbArc
 50
90.0
 51
270.0
  0
ARC
  5
56E
330
1A
100
AcDbEntity
  8
SEIHIN
  6
CONTINUOUS
100
AcDbCircle
 10
323.9396418378294
 20
427.3559251783506
 30
0.0
 40
3.625000000000041
100
AcDbArc
 50
136.3971810272969
 51
223.602818972703
  0
ARC
  5
56F
330
1A
100
AcDbEntity
  8
SEIHIN
  6
CONTINUOUS
100
AcDbCircle
 10
311.2169561235436
 20
427.3559251783506
 30
0.0
 40
2.660714285714282
100
AcDbArc
 50
110.0159596028825
 51
249.9840403971174
  0
ARC
  5
570
330
1A
100
AcDbEntity
  8
SEIHIN
  6
CONTINUOUS
100
AcDbCircle
 10
323.9396418378294
 20
437.3559251783507
 30
0.0
 40
3.625000000000041
100
AcDbArc
 50
136.3971810272969
 51
223.602818972703
  0
ARC
  5
571
330
1A
100
AcDbEntity
  8
SEIHIN
  6
CONTINUOUS
100
AcDbCircle
 10
311.2169561235436
 20
437.3559251783507
 30
0.0
 40
2.660714285714282
100
AcDbArc
 50
110.0159596028825
 51
249.9840403971174
  0
ARC
  5
572
330
1A
100
AcDbEntity
  8
SEIHIN
  6
CONTINUOUS
100
AcDbCircle
 10
384.9306418378296
 20
427.3559251783506
 30
0.0
 40
3.625000000000041
100
AcDbArc
 50
316.397181027297
 51
43.60281897270302
  0
ARC
  5
573
330
1A
100
AcDbEntity
  8
SEIHIN
  6
CONTINUOUS
100
AcDbCircle
 10
397.6533275521154
 20
427.3559251783506
 30
0.0
 40
2.660714285714282
100
AcDbArc
 50
290.0159596028825
 51
69.98404039711745
  0
ARC
  5
574
330
1A
100
AcDbEntity
  8
SEIHIN
  6
CONTINUOUS
100
AcDbCircle
 10
384.9306418378296
 20
437.3559251783507
 30
0.0
 40
3.625000000000041
100
AcDbArc
 50
316.397181027297
 51
43.60281897270302
  0
ARC
  5
575
330
1A
100
AcDbEntity
  8
SEIHIN
  6
CONTINUOUS
100
AcDbCircle
 10
397.6533275521154
 20
437.3559251783507
 30
0.0
 40
2.660714285714282
100
AcDbArc
 50
290.0159596028825
 51
69.98404039711745
  0
LINE
  5
577
330
1A
100
AcDbEntity
  8
SEIHIN
  6
CONTINUOUS
 62
     3
 48
16.0
100
AcDbLine
 10
168.9216074525802
 20
207.3161251783507
 30
0.0
 11
165.9216074525802
 21
207.3161251783507
 31
0.0
  0
LINE
  5
578
330
1A
100
AcDbEntity
  8
SEIHIN
  6
CONTINUOUS
 62
     3
 48
16.0
100
AcDbLine
 10
184.9216074525802
 20
207.3161251783507
 30
0.0
 11
187.9216074525802
 21
207.3161251783507
 31
0.0
  0
LINE
  5
579
330
1A
100
AcDbEntity
  8
CENTER_L
  6
CENTER
 48
5.0
100
AcDbLine
 10
578.9945906691565
 20
422.8559251783506
 30
0.0
 11
578.9945906691566
 21
441.8559251783507
 31
0.0
  0
LINE
  5
57A
330
1A
100
AcDbEntity
  8
CENTER_L
  6
CENTER
 48
5.0
100
AcDbLine
 10
527.9278906691565
 20
422.8559251783506
 30
0.0
 11
527.9278906691565
 21
441.8559251783507
 31
0.0
  0
LINE
  5
57B
330
1A
100
AcDbEntity
  8
CENTER_L
  6
CENTER
 48
5.0
100
AcDbLine
 10
476.8611906691566
 20
422.8559251783506
 30
0.0
 11
476.8611906691566
 21
441.8559251783507
 31
0.0
  0
POLYLINE
  5
6DE
330
1A
100
AcDbEntity
  8
ZUWAKU
100
AcDb2dPolyline
 66
     1
 10
0.0
 20
0.0
 30
0.0
 70
     1
  0
VERTEX
  5
9A4
330
6DE
100
AcDbEntity
  8
ZUWAKU
100
AcDbVertex
100
AcDb2dVertex
 10
0.2000010401517329
 20
551.4000005798376
 30
0.0
  0
VERTEX
  5
9A5
330
6DE
100
AcDbEntity
  8
ZUWAKU
100
AcDbVertex
100
AcDb2dVertex
 10
0.2000010401517329
 20
0.2000005798375923
 30
0.0
  0
VERTEX
  5
9A6
330
6DE
100
AcDbEntity
  8
ZUWAKU
100
AcDbVertex
100
AcDb2dVertex
 10
797.4000010401517
 20
0.2000005798376154
 30
0.0
  0
VERTEX
  5
9A7
330
6DE
100
AcDbEntity
  8
ZUWAKU
100
AcDbVertex
100
AcDb2dVertex
 10
797.4000010401518
 20
551.4000005798376
 30
0.0
  0
SEQEND
  5
9A8
330
6DE
100
AcDbEntity
  8
ZUWAKU
  0
POLYLINE
  5
6DF
330
1A
100
AcDbEntity
  8
ZUWAKU
100
AcDb2dPolyline
 66
     1
 10
0.0
 20
0.0
 30
0.0
 70
     1
  0
VERTEX
  5
9A9
330
6DF
100
AcDbEntity
  8
ZUWAKU
100
AcDbVertex
100
AcDb2dVertex
 10
0.6000010401517102
 20
551.0000005798376
 30
0.0
  0
VERTEX
  5
9AA
330
6DF
100
AcDbEntity
  8
ZUWAKU
100
AcDbVertex
100
AcDb2dVertex
 10
0.6000010401517102
 20
0.6000005798375696
 30
0.0
  0
VERTEX
  5
9AB
330
6DF
100
AcDbEntity
  8
ZUWAKU
100
AcDbVertex
100
AcDb2dVertex
 10
797.000001040152
 20
0.6000005798376158
 30
0.0
  0
VERTEX
  5
9AC
330
6DF
100
AcDbEntity
  8
ZUWAKU
100
AcDbVertex
100
AcDb2dVertex
 10
797.0000010401518
 20
551.0000005798376
 30
0.0
  0
SEQEND
  5
9AD
330
6DF
100
AcDbEntity
  8
ZUWAKU
  0
POLYLINE
  5
6E0
330
1A
100
AcDbEntity
  8
ZUWAKU
100
AcDb2dPolyline
 66
     1
 10
0.0
 20
0.0
 30
0.0
 70
     1
  0
VERTEX
  5
9AE
330
6E0
100
AcDbEntity
  8
ZUWAKU
100
AcDbVertex
100
AcDb2dVertex
 10
0.0000010401518011
 20
551.6000005798376
 30
0.0
  0
VERTEX
  5
9AF
330
6E0
100
AcDbEntity
  8
ZUWAKU
100
AcDbVertex
100
AcDb2dVertex
 10
0.0000010401518011
 20
0.0000005798375469
 30
0.0
  0
VERTEX
  5
9B0
330
6E0
100
AcDbEntity
  8
ZUWAKU
100
AcDbVertex
100
AcDb2dVertex
 10
797.6000010401519
 20
0.0000005798376144
 30
0.0
  0
VERTEX
  5
9B1
330
6E0
100
AcDbEntity
  8
ZUWAKU
100
AcDbVertex
100
AcDb2dVertex
 10
797.6000010401519
 20
551.6000005798376
 30
0.0
  0
SEQEND
  5
9B2
330
6E0
100
AcDbEntity
  8
ZUWAKU
  0
POLYLINE
  5
6E1
330
1A
100
AcDbEntity
  8
ZUWAKU
100
AcDb2dPolyline
 66
     1
 10
0.0
 20
0.0
 30
0.0
 70
     1
  0
VERTEX
  5
9B3
330
6E1
100
AcDbEntity
  8
ZUWAKU
100
AcDbVertex
100
AcDb2dVertex
 10
0.4000010401517784
 20
551.2000005798376
 30
0.0
  0
VERTEX
  5
9B4
330
6E1
100
AcDbEntity
  8
ZUWAKU
100
AcDbVertex
100
AcDb2dVertex
 10
0.4000010401517784
 20
0.4000005798376379
 30
0.0
  0
VERTEX
  5
9B5
330
6E1
100
AcDbEntity
  8
ZUWAKU
100
AcDbVertex
100
AcDb2dVertex
 10
797.2000010401518
 20
0.4000005798376148
 30
0.0
  0
VERTEX
  5
9B6
330
6E1
100
AcDbEntity
  8
ZUWAKU
100
AcDbVertex
100
AcDb2dVertex
 10
797.2000010401518
 20
551.2000005798376
 30
0.0
  0
SEQEND
  5
9B7
330
6E1
100
AcDbEntity
  8
ZUWAKU
  0
POLYLINE
  5
6E2
330
1A
100
AcDbEntity
  8
ZUWAKU
100
AcDb2dPolyline
 66
     1
 10
0.0
 20
0.0
 30
0.0
 70
     1
  0
VERTEX
  5
9B8
330
6E2
100
AcDbEntity
  8
ZUWAKU
100
AcDbVertex
100
AcDb2dVertex
 10
0.8000010401517556
 20
550.8000005798376
 30
0.0
  0
VERTEX
  5
9B9
330
6E2
100
AcDbEntity
  8
ZUWAKU
100
AcDbVertex
100
AcDb2dVertex
 10
0.8000010401517556
 20
0.800000579837615
 30
0.0
  0
VERTEX
  5
9BA
330
6E2
100
AcDbEntity
  8
ZUWAKU
100
AcDbVertex
100
AcDb2dVertex
 10
796.8000010401517
 20
0.800000579837615
 30
0.0
  0
VERTEX
  5
9BB
330
6E2
100
AcDbEntity
  8
ZUWAKU
100
AcDbVertex
100
AcDb2dVertex
 10
796.8000010401517
 20
550.8000005798376
 30
0.0
  0
SEQEND
  5
9BC
330
6E2
100
AcDbEntity
  8
ZUWAKU
  0
LINE
  5
6E3
330
1A
100
AcDbEntity
  8
ZUWAKU
100
AcDbLine
 10
208.6466023302198
 20
15.20000057983758
 30
0.0
 11
447.4243650111431
 21
15.20000057983757
 31
0.0
  0
LINE
  5
6E4
330
1A
100
AcDbEntity
  8
ZUWAKU
100
AcDbLine
 10
208.6466023302198
 20
15.60000057983758
 30
0.0
 11
447.4243650111431
 21
15.60000057983758
 31
0.0
  0
LINE
  5
6E5
330
1A
100
AcDbEntity
  8
ZUWAKU
100
AcDbLine
 10
208.6466023302198
 20
15.40000057983758
 30
0.0
 11
447.4243650111431
 21
15.40000057983758
 31
0.0
  0
LINE
  5
6E6
330
1A
100
AcDbEntity
  8
ZUWAKU
100
AcDbLine
 10
0.0000010401518011
 20
30.80000057983756
 30
0.0
 11
797.4000010401517
 21
30.80000057983756
 31
0.0
  0
LINE
  5
6E7
330
1A
100
AcDbEntity
  8
ZUWAKU
100
AcDbLine
 10
0.0000010401518011
 20
30.60000057983755
 30
0.0
 11
797.4000010401517
 21
30.60000057983755
 31
0.0
  0
LINE
  5
6E8
330
1A
100
AcDbEntity
  8
ZUWAKU
100
AcDbLine
 10
0.0000010401518011
 20
30.40000057983755
 30
0.0
 11
797.4000010401517
 21
30.40000057983755
 31
0.0
  0
LINE
  5
6E9
330
1A
100
AcDbEntity
  8
ZUWAKU
100
AcDbLine
 10
0.0000010401518011
 20
30.20000057983755
 30
0.0
 11
797.4000010401517
 21
30.20000057983755
 31
0.0
  0
LINE
  5
6EA
330
1A
100
AcDbEntity
  8
ZUWAKU
100
AcDbLine
 10
0.0000010401518011
 20
30.00000057983754
 30
0.0
 11
797.4000010401517
 21
30.00000057983754
 31
0.0
  0
TEXT
  5
6EB
330
1A
100
AcDbEntity
  8
MOJI
100
AcDbText
 10
92.95779062832094
 20
12.7411787101123
 30
0.0
 40
6.0
  1
ライナートップＸ７０Ｕ
 41
0.9
  7
ｽﾀｲﾙ1
100
AcDbText
  0
INSERT
  5
6EC
330
1A
100
AcDbEntity
  8
ZUWAKU
  6
CONTINUOUS
100
AcDbBlockReference
  2
*X12
 10
0.0
 20
0.0
 30
0.0
1001
ACAD
1000
HATCH
1002
{
1070
    19
1000
ANSI37
1040
0.2
1040
0.0
1000
R14_HATCH_DATA
1000
6EC
1011
1.0
1021
0.0
1031
0.0
1011
0.0
1021
1.0
1031
0.0
1011
0.0
1021
0.0
1031
1.0
1040
0.0
1010
0.0
1020
0.0
1030
1.0
1000
ANSI37
1070
     0
1070
     0
1071
        8
1071
        7
1070
     1
1070
     1
1071
       24
1040
14.50226370127166
1040
17.64484906082113
1040
-0.1989123673796348
1040
14.09221319493292
1040
18.63479855448218
1040
0.0
1040
14.09221319493292
1040
19.92500057983756
1040
-0.4142135623730912
1040
14.6172131949329
1040
20.45000057983755
1040
0.0
1040
17.59221319493281
1040
20.45000057983755
1040
0.4142135623731546
1040
18.1172131949329
1040
20.97500057983754
1040
0.0
1040
18.1172131949329
1040
22.72500057983755
1040
0.4142135623731586
1040
17.59221319493281
1040
23.25000057983755
1040
0.0
1040
14.09221319493292
1040
23.25000057983755
1040
0.4142135623730928
1040
11.29221319493296
1040
20.45000057983757
1040
0.0
1040
11.29221319493296
1040
18.63479855448231
1040
0.1989123673796619
1040
12.5223647139494
1040
15.6649500734987
1040
0.0
1040
15.43216268859407
1040
12.75515209885404
1040
-0.1989123673796613
1040
15.84221319493292
1040
11.76520260519285
1040
0.0
1040
15.84221319493292
1040
10.47500057983754
1040
-0.4142135623730911
1040
15.31721319493294
1040
9.950000579837549
1040
0.0
1040
12.34221319493303
1040
9.950000579837549
1040
0.4142135623731526
1040
11.81721319493294
1040
9.425000579837561
1040
0.0
1040
11.81721319493294
1040
7.67500057983754
1040
0.4142135623731526
1040
12.34221319493303
1040
7.150000579837552
1040
0.0
1040
15.84221319493292
1040
7.150000579837552
1040
0.4142135623731044
1040
18.64221319493299
1040
9.950000579837528
1040
0.0
1040
18.64221319493299
1040
11.7652026051928
1040
0.1989123673796604
1040
17.41206167591644
1040
14.73505108617634
1040
0.0
1071
        0
1071
        7
1070
     1
1070
     1
1071
       16
1040
23.54221319493297
1040
19.05000057983755
1040
-0.4142135623730935
1040
24.94221319493294
1040
20.45000057983755
1040
0.0
1040
26.8672131949329
1040
20.45000057983755
1040
0.4142135623731546
1040
27.39221319493299
1040
20.97500057983754
1040
0.0
1040
27.39221319493299
1040
22.72500057983755
1040
0.4142135623730951
1040
26.86721319493301
1040
23.25000057983755
1040
0.0
1040
24.94221319493283
1040
23.25000057983751
1040
0.4142135623730892
1040
20.7422131949329
1040
19.05000057983748
1040
0.0
1040
20.7422131949329
1040
11.35000057983757
1040
0.4142135623730969
1040
24.94221319493294
1040
7.150000579837552
1040
0.0
1040
26.8672131949329
1040
7.150000579837552
1040
0.4142135623731526
1040
27.39221319493299
1040
7.67500057983754
1040
0.0
1040
27.39221319493299
1040
9.425000579837561
1040
0.4142135623730891
1040
26.86721319493301
1040
9.950000579837549
1040
0.0
1040
24.94221319493294
1040
9.950000579837549
1040
-0.4142135623730928
1040
23.54221319493297
1040
11.35000057983753
1040
0.0
1071
        0
1071
        7
1070
     1
1070
     1
1071
        2
1040
24.2422131949329
1040
15.20000057983755
1040
1.0
1040
27.7422131949329
1040
15.20000057983755
1040
1.0
1071
        0
1071
        7
1070
     1
1070
     1
1071
       26
1040
37.31485967711091
1040
19.20504777340097
1040
0.0
1040
38.37649931024873
1040
22.56690661167056
1040
0.5069206636600134
1040
37.87586841105337
1040
23.25000057983755
1040
0.0
1040
36.17697903144414
1040
23.25000057983755
1040
0.3272098845218764
1040
35.67634813224879
1040
22.88309454800452
1040
0.0
1040
33.80807825761701
1040
16.96690661167063
1040
-0.3272098845219541
1040
33.30744735842154
1040
16.60000057983754
1040
0.0
1040
33.16721319493308
1040
16.60000057983754
1040
-0.4142135623731526
1040
32.64221319493299
1040
17.12500057983753
1040
0.0
1040
32.64221319493299
1040
22.72500057983755
1040
0.4142135623730951
1040
32.11721319493301
1040
23.25000057983755
1040
0.0
1040
30.3672131949329
1040
23.25000057983755
1040
0.4142135623730871
1040
29.84221319493292
1040
22.72500057983756
1040
0.0
1040
29.84221319493292
1040
7.67500057983754
1040
0.4142135623730891
1040
30.3672131949329
1040
7.150000579837552
1040
0.0
1040
32.1172131949329
1040
7.150000579837552
1040
0.4142135623731526
1040
32.64221319493299
1040
7.67500057983754
1040
0.0
1040
32.64221319493299
1040
13.27500057983756
1040
-0.4142135623731526
1040
33.16721319493308
1040
13.80000057983755
1040
0.0
1040
33.30744735842165
1040
13.80000057983755
1040
-0.3272098845218915
1040
33.80807825761701
1040
13.43309454800447
1040
0.0
1040
35.67634813224879
1040
7.516906611670624
1040
0.3272098845218902
1040
36.17697903144414
1040
7.150000579837552
1040
0.0
1040
37.87586841105337
1040
7.150000579837552
1040
0.5069206636600335
1040
38.37649931024873
1040
7.833094548004559
1040
0.0
1040
36.05010793177507
1040
15.20000057983768
1040
0.0
1071
        0
1071
        7
1070
     1
1070
     1
1071
        8
1040
43.4922131949329
1040
22.72500057983756
1040
0.4142135623731546
1040
42.96721319493281
1040
23.25000057983755
1040
0.0
1040
41.21721319493303
1040
23.25000057983755
1040
0.4142135623731507
1040
40.69221319493294
1040
22.72500057983756
1040
0.0
1040
40.69221319493294
1040
7.67500057983754
1040
0.4142135623731526
1040
41.21721319493303
1040
7.150000579837552
1040
0.0
1040
42.96721319493281
1040
7.150000579837552
1040
0.4142135623731526
1040
43.4922131949329
1040
7.67500057983754
1040
0.0
1071
        0
1071
        7
1070
     1
1070
     1
1071
       24
1040
48.39221319493299
1040
19.92500057983756
1040
-0.4142135623731546
1040
48.91721319493308
1040
20.45000057983755
1040
0.0
1040
51.89221319493299
1040
20.45000057983755
1040
0.4142135623730911
1040
52.41721319493297
1040
20.97500057983754
1040
0.0
1040
52.41721319493297
1040
22.72500057983755
1040
0.4142135623730952
1040
51.89221319493299
1040
23.25000057983755
1040
0.0
1040
48.39221319493299
1040
23.25000057983755
1040
0.4142135623731048
1040
45.59221319493292
1040
20.45000057983757
1040
0.0
1040
45.59221319493292
1040
18.63479855448231
1040
0.1989123673796613
1040
46.82236471394946
1040
15.66495007349876
1040
0.0
1040
49.73216268859414
1040
12.75515209885409
1040
-0.1989123673796402
1040
50.14221319493299
1040
11.76520260519301
1040
0.0
1040
50.14221319493299
1040
10.47500057983754
1040
-0.4142135623730911
1040
49.61721319493301
1040
9.950000579837549
1040
0.0
1040
46.64221319493299
1040
9.950000579837549
1040
0.4142135623731526
1040
46.1172131949329
1040
9.425000579837561
1040
0.0
1040
46.1172131949329
1040
7.67500057983754
1040
0.4142135623730891
1040
46.64221319493288
1040
7.150000579837552
1040
0.0
1040
50.14221319493299
1040
7.150000579837552
1040
0.4142135623730925
1040
52.94221319493295
1040
9.950000579837528
1040
0.0
1040
52.94221319493295
1040
11.7652026051928
1040
0.1989123673796675
1040
51.7120616759164
1040
14.73505108617645
1040
0.0
1040
48.80226370127184
1040
17.64484906082097
1040
-0.1989123673796652
1040
48.39221319493299
1040
18.63479855448213
1040
0.0
1071
        0
1071
        7
1070
     1
1070
     1
1071
       16
1040
57.84221319493292
1040
22.72500057983754
1040
0.414213562373103
1040
57.31721319493295
1040
23.25000057983755
1040
0.0
1040
55.56721319493295
1040
23.25000057983755
1040
0.4142135623730871
1040
55.04221319493296
1040
22.72500057983756
1040
0.0
1040
55.04221319493296
1040
9.950000579837528
1040
0.4142135623730926
1040
57.84221319493292
1040
7.150000579837552
1040
0.0
1040
61.34221319493292
1040
7.150000579837552
1040
0.4142135623731044
1040
64.14221319493299
1040
9.950000579837528
1040
0.0
1040
64.14221319493299
1040
22.72500057983755
1040
0.4142135623730951
1040
63.61721319493302
1040
23.25000057983755
1040
0.0
1040
61.8672131949329
1040
23.25000057983755
1040
0.4142135623730871
1040
61.34221319493292
1040
22.72500057983756
1040
0.0
1040
61.34221319493292
1040
11.00000057983752
1040
-0.414213562373088
1040
60.29221319493297
1040
9.950000579837549
1040
0.0
1040
58.89221319493299
1040
9.950000579837549
1040
-0.4142135623731197
1040
57.84221319493292
1040
11.00000057983752
1040
0.0
1071
        0
1071
        7
1070
     1
1070
     1
1071
        8
1040
69.04221319493297
1040
22.72500057983756
1040
0.4142135623730871
1040
68.51721319493299
1040
23.25000057983755
1040
0.0
1040
66.76721319493299
1040
23.25000057983755
1040
0.4142135623731507
1040
66.2422131949329
1040
22.72500057983756
1040
0.0
1040
66.2422131949329
1040
7.67500057983754
1040
0.4142135623730891
1040
66.76721319493288
1040
7.150000579837552
1040
0.0
1040
68.51721319493299
1040
7.150000579837552
1040
0.4142135623730891
1040
69.04221319493297
1040
7.67500057983754
1040
0.0
1071
        0
1070
     0
1070
     1
1040
0.0
1040
0.2
1070
     0
1070
     2
1040
0.7853981633974483
1040
-900.9423032945271
1040
-13.19999942016238
1040
-0.4490128060534576
1040
0.4490128060534577
1070
     0
1040
2.356194490192344
1040
-900.9423032945271
1040
-13.19999942016238
1040
-0.4490128060534577
1040
-0.4490128060534576
1070
     0
1040
0.057451373970553
1071
        8
1040
16.07985600317511
1040
15.1671742257231
1040
0.0
1040
22.40451604659097
1040
18.84406276228856
1040
0.0
1040
25.16436892581146
1040
15.51188222590826
1040
0.0
1040
30.91406102178893
1040
16.20129822627905
1040
0.0
1040
41.83847305910854
1040
16.66091049382066
1040
0.0
1040
46.89820193528134
1040
19.41857689624475
1040
0.0
1040
56.55768701255215
1040
18.72915849493256
1040
0.0
1040
67.82708065977454
1040
19.18877076247417
1040
0.0
1002
}
  0
LINE
  5
6ED
330
1A
100
AcDbEntity
  8
ZUWAKU
100
AcDbLine
 10
24.94221319493294
 20
23.25000057983751
 30
0.0
 11
26.8672131949329
 21
23.25000057983755
 31
0.0
  0
LINE
  5
6EE
330
1A
100
AcDbEntity
  8
ZUWAKU
100
AcDbLine
 10
26.8672131949329
 20
20.45000057983755
 30
0.0
 11
24.94221319493294
 21
20.45000057983755
 31
0.0
  0
LINE
  5
6EF
330
1A
100
AcDbEntity
  8
ZUWAKU
100
AcDbLine
 10
24.94221319493294
 20
9.950000579837549
 30
0.0
 11
26.8672131949329
 21
9.950000579837549
 31
0.0
  0
LINE
  5
6F0
330
1A
100
AcDbEntity
  8
ZUWAKU
100
AcDbLine
 10
26.8672131949329
 20
7.150000579837552
 30
0.0
 11
24.94221319493294
 21
7.150000579837552
 31
0.0
  0
CIRCLE
  5
6F1
330
1A
100
AcDbEntity
  8
ZUWAKU
100
AcDbCircle
 10
25.9922131949329
 20
15.20000057983755
 30
0.0
 40
1.75
  0
ARC
  5
6F2
330
1A
100
AcDbEntity
  8
ZUWAKU
100
AcDbCircle
 10
15.4922131949329
 20
18.63479855448225
 30
0.0
 40
1.399999999999999
100
AcDbArc
 50
180.0000000000016
 51
224.9999999999988
  0
LINE
  5
6F3
330
1A
100
AcDbEntity
  8
ZUWAKU
100
AcDbLine
 10
23.54221319493297
 20
19.05000057983755
 30
0.0
 11
23.54221319493297
 21
11.35000057983755
 31
0.0
  0
LINE
  5
6F4
330
1A
100
AcDbEntity
  8
ZUWAKU
100
AcDbLine
 10
20.7422131949329
 20
11.35000057983755
 30
0.0
 11
20.7422131949329
 21
19.0500005798375
 31
0.0
  0
ARC
  5
6F5
330
1A
100
AcDbEntity
  8
ZUWAKU
100
AcDbCircle
 10
15.4922131949329
 20
18.63479855448225
 30
0.0
 40
4.199999999999999
100
AcDbArc
 50
180.0
 51
225.0
  0
ARC
  5
6F6
330
1A
100
AcDbEntity
  8
ZUWAKU
100
AcDbCircle
 10
15.84221319493292
 20
9.950000579837549
 30
0.0
 40
2.799999999999999
100
AcDbArc
 50
270.0
 51
0.0
  0
ARC
  5
6F7
330
1A
100
AcDbEntity
  8
ZUWAKU
100
AcDbCircle
 10
24.94221319493294
 20
11.35000057983755
 30
0.0
 40
4.199999999999999
100
AcDbArc
 50
180.0
 51
270.0
  0
ARC
  5
6F8
330
1A
100
AcDbEntity
  8
ZUWAKU
100
AcDbCircle
 10
14.44221319493294
 20
11.76520260519285
 30
0.0
 40
4.199999999999999
100
AcDbArc
 50
0.0
 51
45.0
  0
LINE
  5
6F9
330
1A
100
AcDbEntity
  8
ZUWAKU
100
AcDbLine
 10
17.41206167591644
 20
14.73505108617637
 30
0.0
 11
14.50226370127177
 21
17.64484906082105
 31
0.0
  0
LINE
  5
6FA
330
1A
100
AcDbEntity
  8
ZUWAKU
100
AcDbLine
 10
15.84221319493292
 20
10.47500057983755
 30
0.0
 11
15.84221319493292
 21
11.76520260519289
 31
0.0
  0
ARC
  5
6FB
330
1A
100
AcDbEntity
  8
ZUWAKU
100
AcDbCircle
 10
15.31721319493294
 20
10.47500057983755
 30
0.0
 40
0.525
100
AcDbArc
 50
270.0
 51
0.0
  0
ARC
  5
6FC
330
1A
100
AcDbEntity
  8
ZUWAKU
100
AcDbCircle
 10
14.44221319493294
 20
11.76520260519289
 30
0.0
 40
1.399999999999999
100
AcDbArc
 50
0.0
 51
45.0
  0
LINE
  5
6FD
330
1A
100
AcDbEntity
  8
ZUWAKU
100
AcDbLine
 10
11.81721319493294
 20
7.675000579837551
 30
0.0
 11
11.81721319493294
 21
9.425000579837551
 31
0.0
  0
ARC
  5
6FE
330
1A
100
AcDbEntity
  8
ZUWAKU
100
AcDbCircle
 10
12.34221319493292
 20
7.675000579837551
 30
0.0
 40
0.525
100
AcDbArc
 50
180.0
 51
270.0
  0
ARC
  5
6FF
330
1A
100
AcDbEntity
  8
ZUWAKU
100
AcDbCircle
 10
12.34221319493292
 20
9.425000579837551
 30
0.0
 40
0.525
100
AcDbArc
 50
90.0
 51
180.0
  0
LINE
  5
700
330
1A
100
AcDbEntity
  8
ZUWAKU
100
AcDbLine
 10
12.34221319493292
 20
7.150000579837552
 30
0.0
 11
15.84221319493292
 21
7.150000579837552
 31
0.0
  0
LINE
  5
701
330
1A
100
AcDbEntity
  8
ZUWAKU
100
AcDbLine
 10
12.34221319493292
 20
9.950000579837549
 30
0.0
 11
15.31721319493294
 21
9.950000579837549
 31
0.0
  0
LINE
  5
702
330
1A
100
AcDbEntity
  8
ZUWAKU
100
AcDbLine
 10
12.5223647139494
 20
15.66495007349873
 30
0.0
 11
15.43216268859407
 21
12.75515209885407
 31
0.0
  0
LINE
  5
703
330
1A
100
AcDbEntity
  8
ZUWAKU
100
AcDbLine
 10
18.64221319493299
 20
9.950000579837549
 30
0.0
 11
18.64221319493299
 21
11.76520260519289
 31
0.0
  0
ARC
  5
704
330
1A
100
AcDbEntity
  8
ZUWAKU
100
AcDbCircle
 10
24.94221319493294
 20
11.35000057983755
 30
0.0
 40
1.399999999999999
100
AcDbArc
 50
180.0
 51
270.0
  0
ARC
  5
705
330
1A
100
AcDbEntity
  8
ZUWAKU
100
AcDbCircle
 10
17.59221319493292
 20
22.72500057983755
 30
0.0
 40
0.525
100
AcDbArc
 50
0.0
 51
90.0
  0
ARC
  5
706
330
1A
100
AcDbEntity
  8
ZUWAKU
100
AcDbCircle
 10
17.59221319493292
 20
20.97500057983754
 30
0.0
 40
0.525
100
AcDbArc
 50
270.0
 51
0.0
  0
LINE
  5
707
330
1A
100
AcDbEntity
  8
ZUWAKU
100
AcDbLine
 10
14.09221319493292
 20
23.25000057983755
 30
0.0
 11
17.59221319493292
 21
23.25000057983755
 31
0.0
  0
ARC
  5
708
330
1A
100
AcDbEntity
  8
ZUWAKU
100
AcDbCircle
 10
14.6172131949329
 20
19.92500057983755
 30
0.0
 40
0.525
100
AcDbArc
 50
90.0
 51
180.0
  0
LINE
  5
709
330
1A
100
AcDbEntity
  8
ZUWAKU
100
AcDbLine
 10
14.09221319493292
 20
19.92500057983755
 30
0.0
 11
14.09221319493292
 21
18.6347985544822
 31
0.0
  0
LINE
  5
70A
330
1A
100
AcDbEntity
  8
ZUWAKU
100
AcDbLine
 10
17.59221319493292
 20
20.45000057983755
 30
0.0
 11
14.6172131949329
 21
20.45000057983755
 31
0.0
  0
LINE
  5
70B
330
1A
100
AcDbEntity
  8
ZUWAKU
100
AcDbLine
 10
11.29221319493296
 20
20.45000057983755
 30
0.0
 11
11.29221319493296
 21
18.6347985544822
 31
0.0
  0
ARC
  5
70C
330
1A
100
AcDbEntity
  8
ZUWAKU
100
AcDbCircle
 10
14.09221319493292
 20
20.45000057983755
 30
0.0
 40
2.799999999999999
100
AcDbArc
 50
90.0
 51
180.0
  0
LINE
  5
70D
330
1A
100
AcDbEntity
  8
ZUWAKU
100
AcDbLine
 10
18.1172131949329
 20
22.72500057983755
 30
0.0
 11
18.1172131949329
 21
20.97500057983754
 31
0.0
  0
ARC
  5
70E
330
1A
100
AcDbEntity
  8
ZUWAKU
100
AcDbCircle
 10
24.94221319493294
 20
19.05000057983755
 30
0.0
 40
1.399999999999999
100
AcDbArc
 50
90.0
 51
180.0
  0
ARC
  5
70F
330
1A
100
AcDbEntity
  8
ZUWAKU
100
AcDbCircle
 10
24.94221319493294
 20
19.0500005798375
 30
0.0
 40
4.199999999999999
100
AcDbArc
 50
90.0
 51
180.0
  0
LINE
  5
710
330
1A
100
AcDbEntity
  8
ZUWAKU
100
AcDbLine
 10
79.32663058814
 20
30.00000057983754
 30
0.0
 11
79.32663058814023
 21
0.800000579837615
 31
0.0
  0
LINE
  5
711
330
1A
100
AcDbEntity
  8
ZUWAKU
100
AcDbLine
 10
79.52663058814005
 20
30.00000057983754
 30
0.0
 11
79.52663058814028
 21
0.800000579837615
 31
0.0
  0
LINE
  5
712
330
1A
100
AcDbEntity
  8
ZUWAKU
100
AcDbLine
 10
79.12663058814018
 20
30.00000057983754
 30
0.0
 11
79.12663058814018
 21
0.800000579837615
 31
0.0
  0
LINE
  5
713
330
1A
100
AcDbEntity
  8
ZUWAKU
100
AcDbLine
 10
64.14221319493299
 20
9.950000579837549
 30
0.0
 11
64.14221319493299
 21
22.72500057983755
 31
0.0
  0
LINE
  5
714
330
1A
100
AcDbEntity
  8
ZUWAKU
100
AcDbLine
 10
61.34221319493292
 20
22.72500057983755
 30
0.0
 11
61.34221319493292
 21
11.00000057983754
 31
0.0
  0
LINE
  5
715
330
1A
100
AcDbEntity
  8
ZUWAKU
100
AcDbLine
 10
69.04221319493297
 20
7.675000579837551
 30
0.0
 11
69.04221319493297
 21
22.72500057983755
 31
0.0
  0
LINE
  5
716
330
1A
100
AcDbEntity
  8
ZUWAKU
100
AcDbLine
 10
66.2422131949329
 20
22.72500057983755
 30
0.0
 11
66.2422131949329
 21
7.675000579837551
 31
0.0
  0
ARC
  5
717
330
1A
100
AcDbEntity
  8
ZUWAKU
100
AcDbCircle
 10
49.79221319493297
 20
18.63479855448225
 30
0.0
 40
1.399999999999999
100
AcDbArc
 50
180.0000000000016
 51
224.9999999999988
  0
ARC
  5
718
330
1A
100
AcDbEntity
  8
ZUWAKU
100
AcDbCircle
 10
49.79221319493297
 20
18.63479855448225
 30
0.0
 40
4.199999999999999
100
AcDbArc
 50
180.0
 51
225.0
  0
LINE
  5
719
330
1A
100
AcDbEntity
  8
ZUWAKU
100
AcDbLine
 10
37.31485967711091
 20
19.20504777340097
 30
0.0
 11
36.05010793177507
 21
15.20000057983757
 31
0.0
  0
LINE
  5
71A
330
1A
100
AcDbEntity
  8
ZUWAKU
100
AcDbLine
 10
40.69221319493294
 20
22.72500057983755
 30
0.0
 11
40.69221319493294
 21
7.675000579837551
 31
0.0
  0
LINE
  5
71B
330
1A
100
AcDbEntity
  8
ZUWAKU
100
AcDbLine
 10
43.4922131949329
 20
7.675000579837551
 30
0.0
 11
43.4922131949329
 21
22.72500057983755
 31
0.0
  0
LINE
  5
71C
330
1A
100
AcDbEntity
  8
ZUWAKU
100
AcDbLine
 10
55.04221319493296
 20
22.72500057983755
 30
0.0
 11
55.04221319493296
 21
9.950000579837549
 31
0.0
  0
LINE
  5
71D
330
1A
100
AcDbEntity
  8
ZUWAKU
100
AcDbLine
 10
57.84221319493292
 20
11.00000057983754
 30
0.0
 11
57.84221319493292
 21
22.72500057983755
 31
0.0
  0
LINE
  5
71E
330
1A
100
AcDbEntity
  8
ZUWAKU
100
AcDbLine
 10
32.64221319493299
 20
17.12500057983755
 30
0.0
 11
32.64221319493299
 21
22.72500057983755
 31
0.0
  0
LINE
  5
71F
330
1A
100
AcDbEntity
  8
ZUWAKU
100
AcDbLine
 10
29.84221319493292
 20
22.72500057983755
 30
0.0
 11
29.84221319493292
 21
7.675000579837551
 31
0.0
  0
LINE
  5
720
330
1A
100
AcDbEntity
  8
ZUWAKU
100
AcDbLine
 10
35.67634813224879
 20
22.88309454800452
 30
0.0
 11
33.80807825761701
 21
16.96690661167058
 31
0.0
  0
LINE
  5
721
330
1A
100
AcDbEntity
  8
ZUWAKU
100
AcDbLine
 10
60.29221319493297
 20
9.950000579837549
 30
0.0
 11
58.89221319493299
 21
9.950000579837549
 31
0.0
  0
LINE
  5
722
330
1A
100
AcDbEntity
  8
ZUWAKU
100
AcDbLine
 10
57.84221319493292
 20
7.150000579837552
 30
0.0
 11
61.34221319493292
 21
7.150000579837552
 31
0.0
  0
LINE
  5
723
330
1A
100
AcDbEntity
  8
ZUWAKU
100
AcDbLine
 10
41.21721319493292
 20
7.150000579837552
 30
0.0
 11
42.96721319493292
 21
7.150000579837552
 31
0.0
  0
LINE
  5
724
330
1A
100
AcDbEntity
  8
ZUWAKU
100
AcDbLine
 10
35.67634813224879
 20
7.516906611670577
 30
0.0
 11
33.80807825761701
 21
13.43309454800452
 31
0.0
  0
ARC
  5
725
330
1A
100
AcDbEntity
  8
ZUWAKU
100
AcDbCircle
 10
33.30744735842165
 20
17.12500057983755
 30
0.0
 40
0.525
100
AcDbArc
 50
270.0
 51
342.4744316262769
  0
LINE
  5
726
330
1A
100
AcDbEntity
  8
ZUWAKU
100
AcDbLine
 10
33.30744735842165
 20
16.60000057983754
 30
0.0
 11
33.16721319493296
 21
16.60000057983754
 31
0.0
  0
LINE
  5
727
330
1A
100
AcDbEntity
  8
ZUWAKU
100
AcDbLine
 10
33.16721319493296
 20
13.80000057983755
 30
0.0
 11
33.30744735842165
 21
13.80000057983755
 31
0.0
  0
ARC
  5
728
330
1A
100
AcDbEntity
  8
ZUWAKU
100
AcDbCircle
 10
33.16721319493296
 20
17.12500057983755
 30
0.0
 40
0.525
100
AcDbArc
 50
180.0
 51
270.0
  0
LINE
  5
729
330
1A
100
AcDbEntity
  8
ZUWAKU
100
AcDbLine
 10
30.3672131949329
 20
7.150000579837552
 30
0.0
 11
32.1172131949329
 21
7.150000579837552
 31
0.0
  0
ARC
  5
72A
330
1A
100
AcDbEntity
  8
ZUWAKU
100
AcDbCircle
 10
32.1172131949329
 20
7.675000579837551
 30
0.0
 40
0.525
100
AcDbArc
 50
270.0
 51
0.0
  0
LINE
  5
72B
330
1A
100
AcDbEntity
  8
ZUWAKU
100
AcDbLine
 10
32.64221319493299
 20
7.675000579837551
 30
0.0
 11
32.64221319493299
 21
13.27500057983755
 31
0.0
  0
LINE
  5
72C
330
1A
100
AcDbEntity
  8
ZUWAKU
100
AcDbLine
 10
27.39221319493299
 20
9.425000579837551
 30
0.0
 11
27.39221319493299
 21
7.675000579837551
 31
0.0
  0
ARC
  5
72D
330
1A
100
AcDbEntity
  8
ZUWAKU
100
AcDbCircle
 10
26.8672131949329
 20
7.675000579837551
 30
0.0
 40
0.525
100
AcDbArc
 50
270.0
 51
0.0
  0
ARC
  5
72E
330
1A
100
AcDbEntity
  8
ZUWAKU
100
AcDbCircle
 10
26.8672131949329
 20
9.425000579837551
 30
0.0
 40
0.525
100
AcDbArc
 50
0.0
 51
90.0
  0
ARC
  5
72F
330
1A
100
AcDbEntity
  8
ZUWAKU
100
AcDbCircle
 10
30.3672131949329
 20
7.675000579837551
 30
0.0
 40
0.525
100
AcDbArc
 50
180.0
 51
270.0
  0
ARC
  5
730
330
1A
100
AcDbEntity
  8
ZUWAKU
100
AcDbCircle
 10
33.30744735842165
 20
13.27500057983755
 30
0.0
 40
0.525
100
AcDbArc
 50
17.52556837372303
 51
90.0
  0
ARC
  5
731
330
1A
100
AcDbEntity
  8
ZUWAKU
100
AcDbCircle
 10
33.16721319493296
 20
13.27500057983755
 30
0.0
 40
0.525
100
AcDbArc
 50
90.0
 51
180.0
  0
ARC
  5
732
330
1A
100
AcDbEntity
  8
ZUWAKU
100
AcDbCircle
 10
41.21721319493292
 20
7.675000579837551
 30
0.0
 40
0.525
100
AcDbArc
 50
180.0
 51
270.0
  0
LINE
  5
733
330
1A
100
AcDbEntity
  8
ZUWAKU
100
AcDbLine
 10
36.17697903144426
 20
7.150000579837552
 30
0.0
 11
37.87586841105326
 21
7.150000579837552
 31
0.0
  0
ARC
  5
734
330
1A
100
AcDbEntity
  8
ZUWAKU
100
AcDbCircle
 10
37.87586841105326
 20
7.675000579837551
 30
0.0
 40
0.525
100
AcDbArc
 50
270.0
 51
17.52556837372303
  0
LINE
  5
735
330
1A
100
AcDbEntity
  8
ZUWAKU
100
AcDbLine
 10
38.37649931024873
 20
7.833094548004524
 30
0.0
 11
36.05010793177507
 21
15.20000057983757
 31
0.0
  0
ARC
  5
736
330
1A
100
AcDbEntity
  8
ZUWAKU
100
AcDbCircle
 10
36.17697903144426
 20
7.675000579837551
 30
0.0
 40
0.525
100
AcDbArc
 50
197.525568373723
 51
270.0
  0
ARC
  5
737
330
1A
100
AcDbEntity
  8
ZUWAKU
100
AcDbCircle
 10
57.84221319493292
 20
9.950000579837549
 30
0.0
 40
2.799999999999999
100
AcDbArc
 50
180.0
 51
270.0
  0
ARC
  5
738
330
1A
100
AcDbEntity
  8
ZUWAKU
100
AcDbCircle
 10
50.14221319493299
 20
9.950000579837549
 30
0.0
 40
2.799999999999999
100
AcDbArc
 50
270.0
 51
0.0
  0
LINE
  5
739
330
1A
100
AcDbEntity
  8
ZUWAKU
100
AcDbLine
 10
51.71206167591652
 20
14.73505108617637
 30
0.0
 11
48.80226370127172
 21
17.64484906082105
 31
0.0
  0
LINE
  5
73A
330
1A
100
AcDbEntity
  8
ZUWAKU
100
AcDbLine
 10
50.14221319493299
 20
10.47500057983755
 30
0.0
 11
50.14221319493299
 21
11.76520260519289
 31
0.0
  0
ARC
  5
73B
330
1A
100
AcDbEntity
  8
ZUWAKU
100
AcDbCircle
 10
48.7422131949329
 20
11.76520260519289
 30
0.0
 40
1.399999999999999
100
AcDbArc
 50
0.0
 51
45.0
  0
ARC
  5
73C
330
1A
100
AcDbEntity
  8
ZUWAKU
100
AcDbCircle
 10
49.6172131949329
 20
10.47500057983755
 30
0.0
 40
0.525
100
AcDbArc
 50
270.0
 51
0.0
  0
LINE
  5
73D
330
1A
100
AcDbEntity
  8
ZUWAKU
100
AcDbLine
 10
46.1172131949329
 20
7.675000579837551
 30
0.0
 11
46.1172131949329
 21
9.425000579837551
 31
0.0
  0
ARC
  5
73E
330
1A
100
AcDbEntity
  8
ZUWAKU
100
AcDbCircle
 10
46.64221319493299
 20
7.675000579837551
 30
0.0
 40
0.525
100
AcDbArc
 50
180.0
 51
270.0
  0
ARC
  5
73F
330
1A
100
AcDbEntity
  8
ZUWAKU
100
AcDbCircle
 10
42.96721319493292
 20
7.675000579837551
 30
0.0
 40
0.525
100
AcDbArc
 50
270.0
 51
0.0
  0
ARC
  5
740
330
1A
100
AcDbEntity
  8
ZUWAKU
100
AcDbCircle
 10
46.64221319493299
 20
9.425000579837551
 30
0.0
 40
0.525
100
AcDbArc
 50
90.0
 51
180.0
  0
LINE
  5
741
330
1A
100
AcDbEntity
  8
ZUWAKU
100
AcDbLine
 10
46.64221319493299
 20
9.950000579837549
 30
0.0
 11
49.6172131949329
 21
9.950000579837549
 31
0.0
  0
LINE
  5
742
330
1A
100
AcDbEntity
  8
ZUWAKU
100
AcDbLine
 10
46.64221319493299
 20
7.150000579837552
 30
0.0
 11
50.14221319493299
 21
7.150000579837552
 31
0.0
  0
LINE
  5
743
330
1A
100
AcDbEntity
  8
ZUWAKU
100
AcDbLine
 10
46.82236471394946
 20
15.66495007349873
 30
0.0
 11
49.73216268859414
 21
12.75515209885407
 31
0.0
  0
LINE
  5
744
330
1A
100
AcDbEntity
  8
ZUWAKU
100
AcDbLine
 10
52.94221319493295
 20
9.950000579837549
 30
0.0
 11
52.94221319493295
 21
11.76520260519289
 31
0.0
  0
ARC
  5
745
330
1A
100
AcDbEntity
  8
ZUWAKU
100
AcDbCircle
 10
48.7422131949329
 20
11.76520260519285
 30
0.0
 40
4.199999999999999
100
AcDbArc
 50
0.0
 51
45.0
  0
ARC
  5
746
330
1A
100
AcDbEntity
  8
ZUWAKU
100
AcDbCircle
 10
58.89221319493299
 20
11.00000057983754
 30
0.0
 40
1.049999999999999
100
AcDbArc
 50
180.0
 51
270.0
  0
ARC
  5
747
330
1A
100
AcDbEntity
  8
ZUWAKU
100
AcDbCircle
 10
61.34221319493292
 20
9.950000579837549
 30
0.0
 40
2.799999999999999
100
AcDbArc
 50
270.0
 51
0.0
  0
LINE
  5
748
330
1A
100
AcDbEntity
  8
ZUWAKU
100
AcDbLine
 10
66.76721319493299
 20
7.150000579837552
 30
0.0
 11
68.51721319493299
 21
7.150000579837552
 31
0.0
  0
ARC
  5
749
330
1A
100
AcDbEntity
  8
ZUWAKU
100
AcDbCircle
 10
66.76721319493299
 20
7.675000579837551
 30
0.0
 40
0.525
100
AcDbArc
 50
180.0
 51
270.0
  0
ARC
  5
74A
330
1A
100
AcDbEntity
  8
ZUWAKU
100
AcDbCircle
 10
60.29221319493297
 20
11.00000057983754
 30
0.0
 40
1.049999999999999
100
AcDbArc
 50
270.0
 51
0.0
  0
ARC
  5
74B
330
1A
100
AcDbEntity
  8
ZUWAKU
100
AcDbCircle
 10
68.51721319493299
 20
7.675000579837551
 30
0.0
 40
0.525
100
AcDbArc
 50
270.0
 51
0.0
  0
LINE
  5
74C
330
1A
100
AcDbEntity
  8
ZUWAKU
100
AcDbLine
 10
42.96721319493292
 20
23.25000057983755
 30
0.0
 11
41.21721319493292
 21
23.25000057983755
 31
0.0
  0
ARC
  5
74D
330
1A
100
AcDbEntity
  8
ZUWAKU
100
AcDbCircle
 10
32.1172131949329
 20
22.72500057983755
 30
0.0
 40
0.525
100
AcDbArc
 50
0.0
 51
90.0
  0
LINE
  5
74E
330
1A
100
AcDbEntity
  8
ZUWAKU
100
AcDbLine
 10
32.1172131949329
 20
23.25000057983755
 30
0.0
 11
30.3672131949329
 21
23.25000057983755
 31
0.0
  0
ARC
  5
74F
330
1A
100
AcDbEntity
  8
ZUWAKU
100
AcDbCircle
 10
26.8672131949329
 20
22.72500057983755
 30
0.0
 40
0.525
100
AcDbArc
 50
0.0
 51
90.0
  0
ARC
  5
750
330
1A
100
AcDbEntity
  8
ZUWAKU
100
AcDbCircle
 10
30.3672131949329
 20
22.72500057983755
 30
0.0
 40
0.525
100
AcDbArc
 50
90.0
 51
180.0
  0
ARC
  5
751
330
1A
100
AcDbEntity
  8
ZUWAKU
100
AcDbCircle
 10
26.8672131949329
 20
20.97500057983754
 30
0.0
 40
0.525
100
AcDbArc
 50
270.0
 51
0.0
  0
LINE
  5
752
330
1A
100
AcDbEntity
  8
ZUWAKU
100
AcDbLine
 10
27.39221319493299
 20
22.72500057983755
 30
0.0
 11
27.39221319493299
 21
20.97500057983754
 31
0.0
  0
ARC
  5
753
330
1A
100
AcDbEntity
  8
ZUWAKU
100
AcDbCircle
 10
41.21721319493292
 20
22.72500057983755
 30
0.0
 40
0.525
100
AcDbArc
 50
90.0
 51
180.0
  0
LINE
  5
754
330
1A
100
AcDbEntity
  8
ZUWAKU
100
AcDbLine
 10
36.17697903144426
 20
23.25000057983755
 30
0.0
 11
37.87586841105326
 21
23.25000057983755
 31
0.0
  0
ARC
  5
755
330
1A
100
AcDbEntity
  8
ZUWAKU
100
AcDbCircle
 10
37.87586841105326
 20
22.72500057983755
 30
0.0
 40
0.525
100
AcDbArc
 50
342.4744316262769
 51
90.0
  0
LINE
  5
756
330
1A
100
AcDbEntity
  8
ZUWAKU
100
AcDbLine
 10
38.37649931024873
 20
22.56690661167058
 30
0.0
 11
37.31485967711091
 21
19.20504777340097
 31
0.0
  0
ARC
  5
757
330
1A
100
AcDbEntity
  8
ZUWAKU
100
AcDbCircle
 10
36.17697903144426
 20
22.72500057983755
 30
0.0
 40
0.525
100
AcDbArc
 50
90.0
 51
162.4744316262769
  0
LINE
  5
758
330
1A
100
AcDbEntity
  8
ZUWAKU
100
AcDbLine
 10
48.39221319493299
 20
23.25000057983755
 30
0.0
 11
51.89221319493299
 21
23.25000057983755
 31
0.0
  0
LINE
  5
759
330
1A
100
AcDbEntity
  8
ZUWAKU
100
AcDbLine
 10
51.89221319493299
 20
20.45000057983755
 30
0.0
 11
48.91721319493297
 21
20.45000057983755
 31
0.0
  0
ARC
  5
75A
330
1A
100
AcDbEntity
  8
ZUWAKU
100
AcDbCircle
 10
48.91721319493297
 20
19.92500057983755
 30
0.0
 40
0.525
100
AcDbArc
 50
90.0
 51
180.0
  0
LINE
  5
75B
330
1A
100
AcDbEntity
  8
ZUWAKU
100
AcDbLine
 10
48.39221319493299
 20
19.92500057983755
 30
0.0
 11
48.39221319493299
 21
18.6347985544822
 31
0.0
  0
ARC
  5
75C
330
1A
100
AcDbEntity
  8
ZUWAKU
100
AcDbCircle
 10
42.96721319493292
 20
22.72500057983755
 30
0.0
 40
0.525
100
AcDbArc
 50
0.0
 51
90.0
  0
LINE
  5
75D
330
1A
100
AcDbEntity
  8
ZUWAKU
100
AcDbLine
 10
45.59221319493292
 20
20.45000057983755
 30
0.0
 11
45.59221319493292
 21
18.6347985544822
 31
0.0
  0
ARC
  5
75E
330
1A
100
AcDbEntity
  8
ZUWAKU
100
AcDbCircle
 10
48.39221319493299
 20
20.45000057983755
 30
0.0
 40
2.799999999999999
100
AcDbArc
 50
90.0
 51
180.0
  0
ARC
  5
75F
330
1A
100
AcDbEntity
  8
ZUWAKU
100
AcDbCircle
 10
57.31721319493295
 20
22.72500057983755
 30
0.0
 40
0.525
100
AcDbArc
 50
0.0
 51
90.0
  0
ARC
  5
760
330
1A
100
AcDbEntity
  8
ZUWAKU
100
AcDbCircle
 10
55.56721319493295
 20
22.72500057983755
 30
0.0
 40
0.525
100
AcDbArc
 50
90.0
 51
180.0
  0
LINE
  5
761
330
1A
100
AcDbEntity
  8
ZUWAKU
100
AcDbLine
 10
57.31721319493295
 20
23.25000057983755
 30
0.0
 11
55.56721319493295
 21
23.25000057983755
 31
0.0
  0
ARC
  5
762
330
1A
100
AcDbEntity
  8
ZUWAKU
100
AcDbCircle
 10
51.89221319493299
 20
22.72500057983755
 30
0.0
 40
0.525
100
AcDbArc
 50
0.0
 51
90.0
  0
ARC
  5
763
330
1A
100
AcDbEntity
  8
ZUWAKU
100
AcDbCircle
 10
51.89221319493299
 20
20.97500057983754
 30
0.0
 40
0.525
100
AcDbArc
 50
270.0
 51
0.0
  0
LINE
  5
764
330
1A
100
AcDbEntity
  8
ZUWAKU
100
AcDbLine
 10
52.41721319493297
 20
22.72500057983755
 30
0.0
 11
52.41721319493297
 21
20.97500057983754
 31
0.0
  0
LINE
  5
765
330
1A
100
AcDbEntity
  8
ZUWAKU
100
AcDbLine
 10
68.51721319493299
 20
23.25000057983755
 30
0.0
 11
66.76721319493299
 21
23.25000057983755
 31
0.0
  0
ARC
  5
766
330
1A
100
AcDbEntity
  8
ZUWAKU
100
AcDbCircle
 10
66.76721319493299
 20
22.72500057983755
 30
0.0
 40
0.525
100
AcDbArc
 50
90.0
 51
180.0
  0
ARC
  5
767
330
1A
100
AcDbEntity
  8
ZUWAKU
100
AcDbCircle
 10
63.6172131949329
 20
22.72500057983755
 30
0.0
 40
0.525
100
AcDbArc
 50
0.0
 51
90.0
  0
LINE
  5
768
330
1A
100
AcDbEntity
  8
ZUWAKU
100
AcDbLine
 10
63.6172131949329
 20
23.25000057983755
 30
0.0
 11
61.8672131949329
 21
23.25000057983755
 31
0.0
  0
ARC
  5
769
330
1A
100
AcDbEntity
  8
ZUWAKU
100
AcDbCircle
 10
61.8672131949329
 20
22.72500057983755
 30
0.0
 40
0.525
100
AcDbArc
 50
90.0
 51
180.0
  0
ARC
  5
76A
330
1A
100
AcDbEntity
  8
ZUWAKU
100
AcDbCircle
 10
68.51721319493299
 20
22.72500057983755
 30
0.0
 40
0.525
100
AcDbArc
 50
0.0
 51
90.0
  0
TEXT
  5
76B
330
1A
100
AcDbEntity
  8
MOJI
100
AcDbText
 10
239.8272037210028
 20
18.00492163724493
 30
0.0
 40
5.599999999999999
  1
ステンレス金具高強度金具平鶴首Ⅱ
 41
0.9
  7
ｽﾀｲﾙ1
100
AcDbText
  0
LINE
  5
76C
330
1A
100
AcDbEntity
  8
ZUWAKU
100
AcDbLine
 10
208.2466023302197
 20
30.00000057983754
 30
0.0
 11
208.2466023302197
 21
0.800000579837615
 31
0.0
  0
LINE
  5
76D
330
1A
100
AcDbEntity
  8
ZUWAKU
100
AcDbLine
 10
208.6466023302195
 20
30.00000057983754
 30
0.0
 11
208.6466023302198
 21
0.800000579837615
 31
0.0
  0
LINE
  5
76E
330
1A
100
AcDbEntity
  8
ZUWAKU
100
AcDbLine
 10
208.4466023302195
 20
30.00000057983754
 30
0.0
 11
208.4466023302197
 21
0.800000579837615
 31
0.0
  0
TEXT
  5
76F
330
1A
100
AcDbEntity
  8
ZUWAKU
100
AcDbText
 10
209.7240473524293
 20
9.655357118223165
 30
0.0
 40
4.0
  1
サイズ
 41
0.9
  7
ｽﾀｲﾙ1
100
AcDbText
  0
TEXT
  5
770
330
1A
100
AcDbEntity
  8
MOJI
100
AcDbText
 10
239.8272037210028
 20
3.204921637244968
 30
0.0
 40
5.599999999999999
  1
Ｘ７０Ｕ－Ｌ２８０
 41
0.9
  7
ｽﾀｲﾙ1
100
AcDbText
  0
TEXT
  5
771
330
1A
100
AcDbEntity
  8
ZUWAKU
100
AcDbText
 10
209.7240473524291
 20
24.05535711822313
 30
0.0
 40
4.0
  1
品名
 41
0.9
  7
ｽﾀｲﾙ1
100
AcDbText
  0
LINE
  5
772
330
1A
100
AcDbEntity
  8
ZUWAKU
100
AcDbLine
 10
648.8172035503559
 20
15.20000057983757
 30
0.0
 11
697.249011588693
 21
15.20000057983758
 31
0.0
  0
LINE
  5
773
330
1A
100
AcDbEntity
  8
ZUWAKU
100
AcDbLine
 10
648.8172035503562
 20
15.40000057983758
 30
0.0
 11
697.249011588693
 21
15.40000057983758
 31
0.0
  0
LINE
  5
774
330
1A
100
AcDbEntity
  8
ZUWAKU
100
AcDbLine
 10
648.8172035503559
 20
15.60000057983758
 30
0.0
 11
697.249011588693
 21
15.60000057983758
 31
0.0
  0
TEXT
  5
775
330
1A
100
AcDbEntity
  8
ZUWAKU
100
AcDbText
 10
658.2039387274542
 20
18.00492163724493
 30
0.0
 40
5.599999999999999
  1
　　．　　．　　
 41
0.9
  7
ｽﾀｲﾙ1
100
AcDbText
  0
LINE
  5
776
330
1A
100
AcDbEntity
  8
ZUWAKU
100
AcDbLine
 10
505.1991805382926
 20
15.20000057983758
 30
0.0
 11
552.5269568062642
 21
15.20000057983758
 31
0.0
  0
LINE
  5
777
330
1A
100
AcDbEntity
  8
ZUWAKU
100
AcDbLine
 10
505.1991805382926
 20
15.40000057983758
 30
0.0
 11
552.5269568062642
 21
15.40000057983758
 31
0.0
  0
LINE
  5
778
330
1A
100
AcDbEntity
  8
ZUWAKU
100
AcDbLine
 10
505.1991805382926
 20
15.60000057983758
 30
0.0
 11
552.5269568062642
 21
15.60000057983758
 31
0.0
  0
TEXT
  5
779
330
1A
100
AcDbEntity
  8
MOJI
100
AcDbText
 10
463.2464330311538
 20
11.94261830149753
 30
0.0
 40
5.599999999999999
  1
ＬＤ３５□
 41
0.9
  7
ｽﾀｲﾙ1
100
AcDbText
  0
LINE
  5
77A
330
1A
100
AcDbEntity
  8
ZUWAKU
100
AcDbLine
 10
447.624365011143
 20
30.00000057983754
 30
0.0
 11
447.6243650111432
 21
0.800000579837615
 31
0.0
  0
LINE
  5
77B
330
1A
100
AcDbEntity
  8
ZUWAKU
100
AcDbLine
 10
447.824365011143
 20
30.00000057983754
 30
0.0
 11
447.8243650111433
 21
0.800000579837615
 31
0.0
  0
LINE
  5
77C
330
1A
100
AcDbEntity
  8
ZUWAKU
100
AcDbLine
 10
447.4243650111431
 20
30.00000057983754
 30
0.0
 11
447.4243650111431
 21
0.800000579837615
 31
0.0
  0
TEXT
  5
77D
330
1A
100
AcDbEntity
  8
MOJI
100
AcDbText
 10
528.0409090124646
 20
18.00492163724493
 30
0.0
 40
5.599999999999999
  1
Ａ３
 41
0.9
  7
ｽﾀｲﾙ1
100
AcDbText
  0
LINE
  5
77E
330
1A
100
AcDbEntity
  8
ZUWAKU
100
AcDbLine
 10
504.9991805382926
 20
30.00000057983754
 30
0.0
 11
504.9991805382928
 21
0.800000579837615
 31
0.0
  0
LINE
  5
77F
330
1A
100
AcDbEntity
  8
ZUWAKU
100
AcDbLine
 10
505.1991805382926
 20
30.00000057983754
 30
0.0
 11
505.1991805382929
 21
0.800000579837615
 31
0.0
  0
LINE
  5
780
330
1A
100
AcDbEntity
  8
ZUWAKU
100
AcDbLine
 10
504.7991805382928
 20
30.00000057983754
 30
0.0
 11
504.7991805382928
 21
0.800000579837615
 31
0.0
  0
TEXT
  5
781
330
1A
100
AcDbEntity
  8
ZUWAKU
100
AcDbText
 10
461.6981362680641
 20
2.908329819726759
 30
0.0
 40
3.0
  1
□には色品番が入ります
 41
0.9
  7
ｽﾀｲﾙ1
100
AcDbText
  0
TEXT
  5
782
330
1A
100
AcDbEntity
  8
ZUWAKU
100
AcDbText
 10
506.6766255605025
 20
9.655357118223165
 30
0.0
 40
4.0
  1
縮尺
 41
0.9
  7
ｽﾀｲﾙ1
100
AcDbText
  0
TEXT
  5
783
330
1A
100
AcDbEntity
  8
MOJI
100
AcDbText
 10
528.0409090124646
 20
3.204921637244968
 30
0.0
 40
5.599999999999999
  1
１/２
 41
0.9
  7
ｽﾀｲﾙ1
100
AcDbText
  0
TEXT
  5
784
330
1A
100
AcDbEntity
  8
ZUWAKU
100
AcDbText
 10
449.3018100333527
 20
24.05535711822313
 30
0.0
 40
4.0
  1
品番
 41
0.9
  7
ｽﾀｲﾙ1
100
AcDbText
  0
TEXT
  5
785
330
1A
100
AcDbEntity
  8
ZUWAKU
100
AcDbText
 10
506.6766255605023
 20
24.05535711822313
 30
0.0
 40
4.0
  1
用紙
 41
0.9
  7
ｽﾀｲﾙ1
100
AcDbText
  0
LINE
  5
786
330
1A
100
AcDbEntity
  8
ZUWAKU
100
AcDbLine
 10
648.6172035503561
 20
30.00000057983754
 30
0.0
 11
648.6172035503564
 21
0.800000579837615
 31
0.0
  0
LINE
  5
787
330
1A
100
AcDbEntity
  8
ZUWAKU
100
AcDbLine
 10
648.8172035503562
 20
30.00000057983754
 30
0.0
 11
648.8172035503565
 21
0.800000579837615
 31
0.0
  0
LINE
  5
788
330
1A
100
AcDbEntity
  8
ZUWAKU
100
AcDbLine
 10
648.4172035503563
 20
30.00000057983754
 30
0.0
 11
648.4172035503563
 21
0.800000579837615
 31
0.0
  0
LINE
  5
789
330
1A
100
AcDbEntity
  8
ZUWAKU
100
AcDbLine
 10
552.726956806264
 20
30.00000057983754
 30
0.0
 11
552.7269568062642
 21
0.800000579837615
 31
0.0
  0
LINE
  5
78A
330
1A
100
AcDbEntity
  8
ZUWAKU
100
AcDbLine
 10
552.9269568062641
 20
30.00000057983754
 30
0.0
 11
552.9269568062643
 21
0.800000579837615
 31
0.0
  0
LINE
  5
78B
330
1A
100
AcDbEntity
  8
ZUWAKU
100
AcDbLine
 10
552.5269568062642
 20
30.00000057983754
 30
0.0
 11
552.5269568062642
 21
0.800000579837615
 31
0.0
  0
TEXT
  5
78C
330
1A
100
AcDbEntity
  8
ZUWAKU
100
AcDbText
 10
650.2946485725658
 20
24.05535711822313
 30
0.0
 40
4.0
  1
DATE
 41
0.9
  7
ｽﾀｲﾙ1
100
AcDbText
  0
LINE
  5
78D
330
1A
100
AcDbEntity
  8
ZUWAKU
100
AcDbLine
 10
697.249011588693
 20
30.00000057983754
 30
0.0
 11
697.249011588693
 21
0.800000579837615
 31
0.0
  0
LINE
  5
78E
330
1A
100
AcDbEntity
  8
ZUWAKU
100
AcDbLine
 10
697.4490115886931
 20
30.00000057983754
 30
0.0
 11
697.4490115886931
 21
0.800000579837615
 31
0.0
  0
LINE
  5
78F
330
1A
100
AcDbEntity
  8
ZUWAKU
100
AcDbLine
 10
697.6490115886929
 20
30.00000057983754
 30
0.0
 11
697.6490115886932
 21
0.800000579837615
 31
0.0
  0
LINE
  5
790
330
1A
100
AcDbEntity
  8
ZUWAKU
100
AcDbLine
 10
697.849011588693
 20
30.00000057983754
 30
0.0
 11
697.8490115886931
 21
0.800000579837615
 31
0.0
  0
TEXT
  5
791
330
1A
100
AcDbEntity
  8
ZUWAKU
100
AcDbText
 10
708.5280852323956
 20
17.55383991552434
 30
0.0
 40
6.0
  1
積水化学工業株式会社
 41
0.9
  7
ｽﾀｲﾙ1
100
AcDbText
  0
TEXT
  5
792
330
1A
100
AcDbEntity
  8
ZUWAKU
100
AcDbText
 10
708.5280852323956
 20
6.648840893691613
 30
0.0
 40
6.0
  1
建材事業部
 41
0.9
  7
ｽﾀｲﾙ1
100
AcDbText
  0
LINE
  5
799
330
1A
100
AcDbEntity
  8
CENTER_L
  6
CENTER
 62
     1
 48
5.0
100
AcDbLine
 10
182.1685383814618
 20
285.419352117359
 30
0.0
 11
171.674846919604
 21
285.419352117359
 31
0.0
  0
LINE
  5
79A
330
1A
100
AcDbEntity
  8
CENTER_L
  6
CENTER
 62
     1
 48
5.0
100
AcDbLine
 10
182.1685383814618
 20
305.8446521173588
 30
0.0
 11
171.674846919604
 21
305.8446521173589
 31
0.0
  0
LINE
  5
79B
330
1A
100
AcDbEntity
  8
CENTER_L
  6
CENTER
 62
     1
 48
5.0
100
AcDbLine
 10
182.1685383814618
 20
265.2236619308885
 30
0.0
 11
171.674846919604
 21
265.2236619308885
 31
0.0
  0
VIEWPORT
  5
22
330
17
100
AcDbEntity
 67
     1
  8
0
100
AcDbViewport
 10
313.6808219178082
 20
148.5
 30
0.0
 40
627.3616438356165
 41
297.0
 68
     2
 69
     1
1001
ACAD
1000
MVIEW
1002
{
1070
    16
1010
0.0
1020
0.0
1030
0.0
1010
0.0
1020
0.0
1030
1.0
1040
0.0
1040
297.0
1040
313.6808219178082
1040
148.5
1040
50.0
1040
0.0
1040
0.0
1070
     0
1070
   100
1070
     1
1070
     0
1070
     0
1070
     0
1070
     0
1070
     0
1040
0.0
1040
0.0
1040
0.0
1040
1.0
1040
1.0
1040
10.0
1040
10.0
1070
     0
1002
{
1002
}
1002
}
  0
VIEWPORT
  5
64
330
17
100
AcDbEntity
 67
     1
  8
VIEWPORT
100
AcDbViewport
 10
210.0
 20
148.5
 30
0.0
 40
420.0
 41
297.0
 68
     1
 69
     2
1001
ACAD
1000
MVIEW
1002
{
1070
    16
1010
0.0
1020
0.0
1030
0.0
1010
0.0
1020
0.0
1030
1.0
1040
0.0
1040
605.8799999999998
1040
420.0
1040
297.0
1040
50.0
1040
0.0
1040
0.0
1070
     0
1070
   100
1070
     1
1070
     0
1070
     0
1070
     0
1070
     0
1070
     0
1040
0.0
1040
0.0
1040
0.0
1040
10.0
1040
10.0
1040
0.0
1040
0.0
1070
     0
1002
{
1002
}
1002
}
  0
ENDSEC
  0
SECTION
  2
OBJECTS
  0
DICTIONARY
  5
C
330
0
100
AcDbDictionary
  3
ACAD_GROUP
350
D
  3
ACAD_LAYOUT
350
591
  3
ACAD_MLINESTYLE
350
E
  3
ACAD_PLOTSETTINGS
350
592
1001
ACAD
1000
TREAT_AS_HARD
1070
     0
  0
DICTIONARY
  5
5C0
330
1A
100
AcDbDictionary
  3
ACAD_LAYOUTSELFREF
350
993
1001
ACAD
1000
TREAT_AS_HARD
1070
     1
  0
DICTIONARY
  5
5BE
330
17
100
AcDbDictionary
  3
ACAD_LAYOUTSELFREF
350
992
1001
ACAD
1000
TREAT_AS_HARD
1070
     1
  0
DICTIONARY
  5
D
102
{ACAD_REACTORS
330
C
102
}
330
C
100
AcDbDictionary
1001
ACAD
1000
TREAT_AS_HARD
1070
     0
  0
DICTIONARY
  5
591
102
{ACAD_REACTORS
330
C
102
}
330
C
100
AcDbDictionary
1001
ACAD
1000
TREAT_AS_HARD
1070
     0
  0
DICTIONARY
  5
E
102
{ACAD_REACTORS
330
C
102
}
330
C
100
AcDbDictionary
  3
STANDARD
350
13
1001
ACAD
1000
TREAT_AS_HARD
1070
     0
  0
DICTIONARY
  5
592
102
{ACAD_REACTORS
330
C
102
}
330
C
100
AcDbDictionary
1001
ACAD
1000
TREAT_AS_HARD
1070
     0
  0
XRECORD
  5
993
102
{ACAD_REACTORS
330
5C0
102
}
330
5C0
100
AcDbXrecord
340
1A
  0
XRECORD
  5
992
102
{ACAD_REACTORS
330
5BE
102
}
330
5BE
100
AcDbXrecord
340
17
  0
MLINESTYLE
  5
13
102
{ACAD_REACTORS
330
E
102
}
330
E
100
AcDbMlineStyle
  2
STANDARD
 70
     0
  3

 62
     0
 51
90.0
 52
90.0
 71
     2
 49
0.5
 62
   256
  6
BYLAYER
 49
-0.5
 62
   256
  6
BYLAYER
  0
ENDSEC
  0
EOF
