  0
SECTION
  2
HEADER
  9
$ACADVER
  1
AC1012
  9
$DWGCODEPAGE
  3
dos932
  9
$INSBASE
 10
0.0
 20
0.0
 30
0.0
  9
$EXTMIN
 10
4.985962897755712
 20
2.438141563486055
 30
-0.0015258207003583
  9
$EXTMAX
 10
403.0297861143829
 20
282.0086066310859
 30
0.0000000349246037
  9
$LIMMIN
 10
0.0
 20
0.0
  9
$LIMMAX
 10
420.0
 20
297.0
  9
$ORTHOMODE
 70
     0
  9
$REGENMODE
 70
     1
  9
$FILLMODE
 70
     1
  9
$QTEXTMODE
 70
     0
  9
$MIRRTEXT
 70
     1
  9
$DRAGMODE
 70
     2
  9
$LTSCALE
 40
1.0
  9
$OSMODE
 70
    37
  9
$ATTMODE
 70
     1
  9
$TEXTSIZE
 40
2.5
  9
$TRACEWID
 40
1.0
  9
$TEXTSTYLE
  7
STANDARD
  9
$CLAYER
  8
SUNPOU
  9
$CELTYPE
  6
BYLAYER
  9
$CECOLOR
 62
   256
  9
$CELTSCALE
 40
1.0
  9
$DELOBJ
 70
     1
  9
$DISPSILH
 70
     0
  9
$DIMSCALE
 40
1.0
  9
$DIMASZ
 40
3.0
  9
$DIMEXO
 40
3.0
  9
$DIMDLI
 40
7.0
  9
$DIMRND
 40
0.0
  9
$DIMDLE
 40
0.0
  9
$DIMEXE
 40
1.5
  9
$DIMTP
 40
0.0
  9
$DIMTM
 40
0.0
  9
$DIMTXT
 40
3.0
  9
$DIMCEN
 40
150.0
  9
$DIMTSZ
 40
0.0
  9
$DIMTOL
 70
     0
  9
$DIMLIM
 70
     0
  9
$DIMTIH
 70
     0
  9
$DIMTOH
 70
     0
  9
$DIMSE1
 70
     0
  9
$DIMSE2
 70
     0
  9
$DIMTAD
 70
     3
  9
$DIMZIN
 70
     0
  9
$DIMBLK
  1

  9
$DIMASO
 70
     1
  9
$DIMSHO
 70
     1
  9
$DIMPOST
  1

  9
$DIMAPOST
  1

  9
$DIMALT
 70
     0
  9
$DIMALTD
 70
     2
  9
$DIMALTF
 40
25.4
  9
$DIMLFAC
 40
1.0
  9
$DIMTOFL
 70
     1
  9
$DIMTVP
 40
0.0
  9
$DIMTIX
 70
     0
  9
$DIMSOXD
 70
     0
  9
$DIMSAH
 70
     1
  9
$DIMBLK1
  1
OPEN
  9
$DIMBLK2
  1
OPEN
  9
$DIMSTYLE
  2
STANDARD
  9
$DIMCLRD
 70
   256
  9
$DIMCLRE
 70
   256
  9
$DIMCLRT
 70
   256
  9
$DIMTFAC
 40
1.0
  9
$DIMGAP
 40
1.0
  9
$DIMJUST
 70
     0
  9
$DIMSD1
 70
     0
  9
$DIMSD2
 70
     0
  9
$DIMTOLJ
 70
     1
  9
$DIMTZIN
 70
     0
  9
$DIMALTZ
 70
     0
  9
$DIMALTTZ
 70
     0
  9
$DIMFIT
 70
     3
  9
$DIMUPT
 70
     0
  9
$DIMUNIT
 70
     2
  9
$DIMDEC
 70
     0
  9
$DIMTDEC
 70
     0
  9
$DIMALTU
 70
     2
  9
$DIMALTTD
 70
     2
  9
$DIMTXSTY
  7
STANDARD
  9
$DIMAUNIT
 70
     0
  9
$LUNITS
 70
     2
  9
$LUPREC
 70
     4
  9
$SKETCHINC
 40
1.0
  9
$FILLETRAD
 40
10.0
  9
$AUNITS
 70
     0
  9
$AUPREC
 70
     0
  9
$MENU
  1
.
  9
$ELEVATION
 40
0.0
  9
$PELEVATION
 40
0.0
  9
$THICKNESS
 40
0.0
  9
$LIMCHECK
 70
     0
  9
$BLIPMODE
 70
     0
  9
$CHAMFERA
 40
10.0
  9
$CHAMFERB
 40
10.0
  9
$CHAMFERC
 40
20.0
  9
$CHAMFERD
 40
0.0
  9
$SKPOLY
 70
     0
  9
$TDCREATE
 40
2450994.350997107
  9
$TDUPDATE
 40
2452445.846071875
  9
$TDINDWG
 40
0.0148976852
  9
$TDUSRTIMER
 40
0.0148976852
  9
$USRTIMER
 70
     1
  9
$ANGBASE
 50
0.0
  9
$ANGDIR
 70
     0
  9
$PDMODE
 70
     1
  9
$PDSIZE
 40
0.0
  9
$PLINEWID
 40
0.0
  9
$COORDS
 70
     1
  9
$SPLFRAME
 70
     0
  9
$SPLINETYPE
 70
     6
  9
$SPLINESEGS
 70
     8
  9
$ATTDIA
 70
     0
  9
$ATTREQ
 70
     1
  9
$HANDLING
 70
 10241
  9
$HANDSEED
  5
626
  9
$SURFTAB1
 70
     6
  9
$SURFTAB2
 70
     6
  9
$SURFTYPE
 70
     6
  9
$SURFU
 70
     6
  9
$SURFV
 70
     6
  9
$UCSNAME
  2

  9
$UCSORG
 10
0.0
 20
0.0
 30
0.0
  9
$UCSXDIR
 10
1.0
 20
0.0
 30
0.0
  9
$UCSYDIR
 10
0.0
 20
1.0
 30
0.0
  9
$PUCSNAME
  2

  9
$PUCSORG
 10
0.0
 20
0.0
 30
0.0
  9
$PUCSXDIR
 10
1.0
 20
0.0
 30
0.0
  9
$PUCSYDIR
 10
0.0
 20
1.0
 30
0.0
  9
$USERI1
 70
     0
  9
$USERI2
 70
     0
  9
$USERI3
 70
     0
  9
$USERI4
 70
     0
  9
$USERI5
 70
     0
  9
$USERR1
 40
0.0
  9
$USERR2
 40
0.0
  9
$USERR3
 40
0.0
  9
$USERR4
 40
0.0
  9
$USERR5
 40
0.0
  9
$WORLDVIEW
 70
     1
  9
$SHADEDGE
 70
     3
  9
$SHADEDIF
 70
    70
  9
$TILEMODE
 70
     1
  9
$MAXACTVP
 70
    16
  9
$PINSBASE
 10
0.0
 20
0.0
 30
0.0
  9
$PLIMCHECK
 70
     0
  9
$PEXTMIN
 10
0.0
 20
0.0
 30
0.0
  9
$PEXTMAX
 10
420.0
 20
297.0
 30
0.0
  9
$PLIMMIN
 10
0.0
 20
0.0
  9
$PLIMMAX
 10
420.0
 20
297.0
  9
$UNITMODE
 70
     0
  9
$VISRETAIN
 70
     0
  9
$PLINEGEN
 70
     0
  9
$PSLTSCALE
 70
     1
  9
$TREEDEPTH
 70
  3020
  9
$PICKSTYLE
 70
     1
  9
$CMLSTYLE
  2
STANDARD
  9
$CMLJUST
 70
     0
  9
$CMLSCALE
 40
1.0
  9
$SAVEIMAGES
 70
     1
  0
ENDSEC
  0
SECTION
  2
CLASSES
  0
CLASS
  1
ACDBDICTIONARYWDFLT
  2
AcDbDictionaryWithDefault
  3
AutoCAD 2000
 90
    32768
280
     0
281
     0
  0
CLASS
  1
ACDBPLACEHOLDER
  2
AcDbPlaceHolder
  3
AutoCAD 2000
 90
    32768
280
     0
281
     0
  0
CLASS
  1
LAYOUT
  2
AcDbLayout
  3
AutoCAD 2000
 90
    32768
280
     0
281
     0
  0
CLASS
  1
LONG_TRANSACTION
  2
AcDbLongTransaction
  3
AutoCAD 2000
 90
    32768
280
     0
281
     0
  0
CLASS
  1
LWPOLYLINE
  2
AcDbPolyline
  3
AutoCAD 2000
 90
    32768
280
     0
281
     1
  0
CLASS
  1
HATCH
  2
AcDbHatch
  3
AutoCAD 2000
 90
    32768
280
     0
281
     1
  0
CLASS
  1
XRECORD
  2
AcDbXrecord
  3
AutoCAD 2000
 90
    32768
280
     0
281
     0
  0
ENDSEC
  0
SECTION
  2
TABLES
  0
TABLE
  2
VPORT
  5
8
330
0
100
AcDbSymbolTable
 70
     2
  0
VPORT
  5
621
330
8
100
AcDbSymbolTableRecord
100
AcDbViewportTableRecord
  2
*ACTIVE
 70
     0
 10
0.0
 20
0.0
 11
1.0
 21
1.0
 12
219.9635292885906
 22
141.9619698003609
 13
0.0
 23
0.0
 14
5.0
 24
5.0
 15
0.0
 25
0.0
 16
0.0
 26
0.0
 36
1.0
 17
0.0
 27
0.0
 37
0.0
 40
299.6149018647678
 41
1.840236686390532
 42
50.0
 43
0.0
 44
0.0
 50
0.0
 51
0.0
 71
     0
 72
   100
 73
     1
 74
     0
 75
     0
 76
     0
 77
     0
 78
     0
  0
ENDTAB
  0
TABLE
  2
LTYPE
  5
5
330
0
100
AcDbSymbolTable
 70
     4
  0
LTYPE
  5
14
330
5
100
AcDbSymbolTableRecord
100
AcDbLinetypeTableRecord
  2
BYBLOCK
 70
     0
  3

 72
    65
 73
     0
 40
0.0
  0
LTYPE
  5
15
330
5
100
AcDbSymbolTableRecord
100
AcDbLinetypeTableRecord
  2
BYLAYER
 70
     0
  3

 72
    65
 73
     0
 40
0.0
  0
LTYPE
  5
16
330
5
100
AcDbSymbolTableRecord
100
AcDbLinetypeTableRecord
  2
CONTINUOUS
 70
     0
  3
Solid line
 72
    65
 73
     0
 40
0.0
  0
LTYPE
  5
120
330
5
100
AcDbSymbolTableRecord
100
AcDbLinetypeTableRecord
  2
CENTER
 70
     0
  3
____ _ ____ _ ____ _ ____ _ ____ _ ____ _ ____ 
 72
    65
 73
     4
 40
2.0
 49
1.25
 74
     0
 49
-0.25
 74
     0
 49
0.25
 74
     0
 49
-0.25
 74
     0
  0
ENDTAB
  0
TABLE
  2
LAYER
  5
2
330
0
100
AcDbSymbolTable
 70
     9
  0
LAYER
  5
F
330
2
100
AcDbSymbolTableRecord
100
AcDbLayerTableRecord
  2
0
 70
     0
 62
     7
  6
CONTINUOUS
  0
LAYER
  5
62
330
2
100
AcDbSymbolTableRecord
100
AcDbLayerTableRecord
  2
VIEWPORT
 70
     0
 62
     7
  6
CONTINUOUS
  0
LAYER
  5
6B
330
2
100
AcDbSymbolTableRecord
100
AcDbLayerTableRecord
  2
ZUWAKU
 70
     0
 62
     7
  6
CONTINUOUS
  0
LAYER
  5
146
330
2
100
AcDbSymbolTableRecord
100
AcDbLayerTableRecord
  2
SUNPOU
 70
     0
 62
     4
  6
CONTINUOUS
  0
LAYER
  5
185
330
2
100
AcDbSymbolTableRecord
100
AcDbLayerTableRecord
  2
CENTER_L
 70
     0
 62
     1
  6
CENTER
  0
LAYER
  5
18C
330
2
100
AcDbSymbolTableRecord
100
AcDbLayerTableRecord
  2
DEFPOINTS
 70
     0
 62
     7
  6
CONTINUOUS
  0
LAYER
  5
263
330
2
100
AcDbSymbolTableRecord
100
AcDbLayerTableRecord
  2
SEIHIN
 70
     0
 62
     3
  6
CONTINUOUS
  0
ENDTAB
  0
TABLE
  2
STYLE
  5
3
330
0
100
AcDbSymbolTable
 70
     1
  0
STYLE
  5
10
330
3
100
AcDbSymbolTableRecord
100
AcDbTextStyleTableRecord
  2
STANDARD
 70
     0
 40
0.0
 41
1.0
 50
0.0
 71
     0
 42
2.5
  3
TXT
  4
bigfont.shx
  0
ENDTAB
  0
TABLE
  2
VIEW
  5
6
330
0
100
AcDbSymbolTable
 70
     0
  0
ENDTAB
  0
TABLE
  2
UCS
  5
7
330
0
100
AcDbSymbolTable
 70
     0
  0
ENDTAB
  0
TABLE
  2
APPID
  5
9
330
0
100
AcDbSymbolTable
 70
     1
  0
APPID
  5
11
330
9
100
AcDbSymbolTableRecord
100
AcDbRegAppTableRecord
  2
ACAD
 70
     0
  0
ENDTAB
  0
TABLE
  2
DIMSTYLE
  5
A
330
0
100
AcDbSymbolTable
 70
     8
  0
DIMSTYLE
105
1D
102
{ACAD_REACTORS
330
41D
330
45D
330
265
330
2A5
102
}
330
A
100
AcDbSymbolTableRecord
100
AcDbDimStyleTableRecord
  2
STANDARD
 70
     0
  3

  4

  5

  6

  7

 40
1.0
 41
0.18
 42
0.0625
 43
0.38
 44
0.18
 45
0.0
 46
0.0
 47
0.0
 48
0.0
140
0.18
141
0.09
142
0.0
143
25.4
144
1.0
145
0.0
146
1.0
147
0.09
 71
     0
 72
     0
 73
     1
 74
     1
 75
     0
 76
     0
 77
     0
 78
     0
170
     0
171
     2
172
     0
173
     0
174
     0
175
     0
176
     0
177
     0
178
     0
270
     2
271
     4
272
     4
273
     2
274
     2
340
10
275
     0
280
     0
281
     0
282
     0
283
     1
284
     0
285
     0
286
     0
287
     3
288
     0
  0
ENDTAB
  0
TABLE
  2
BLOCK_RECORD
  5
1
330
0
100
AcDbSymbolTable
 70
     8
  0
BLOCK_RECORD
  5
1A
102
{ACAD_XDICTIONARY
360
624
102
}
330
1
100
AcDbSymbolTableRecord
100
AcDbBlockTableRecord
  2
*MODEL_SPACE
  0
BLOCK_RECORD
  5
17
102
{ACAD_XDICTIONARY
360
622
102
}
330
1
100
AcDbSymbolTableRecord
100
AcDbBlockTableRecord
  2
*PAPER_SPACE
  0
BLOCK_RECORD
  5
B2
330
1
100
AcDbSymbolTableRecord
100
AcDbBlockTableRecord
  2
_OPEN
  0
BLOCK_RECORD
  5
5D2
330
1
100
AcDbSymbolTableRecord
100
AcDbBlockTableRecord
  2
*D6
  0
BLOCK_RECORD
  5
5DE
330
1
100
AcDbSymbolTableRecord
100
AcDbBlockTableRecord
  2
*D7
  0
ENDTAB
  0
ENDSEC
  0
SECTION
  2
BLOCKS
  0
BLOCK
  5
1B
330
1A
100
AcDbEntity
  8
0
100
AcDbBlockBegin
  2
*MODEL_SPACE
 70
     0
 10
0.0
 20
0.0
 30
0.0
  3
*MODEL_SPACE
  1

  0
ENDBLK
  5
1C
330
1A
100
AcDbEntity
  8
0
100
AcDbBlockEnd
  0
BLOCK
  5
18
330
17
100
AcDbEntity
 67
     1
  8
0
100
AcDbBlockBegin
  2
*PAPER_SPACE
 70
     0
 10
0.0
 20
0.0
 30
0.0
  3
*PAPER_SPACE
  1

  0
ENDBLK
  5
19
330
17
100
AcDbEntity
 67
     1
  8
0
100
AcDbBlockEnd
  0
BLOCK
  5
B3
330
B2
100
AcDbEntity
  8
0
100
AcDbBlockBegin
  2
_OPEN
 70
     0
 10
0.0
 20
0.0
 30
0.0
  3
_OPEN
  1

  0
LINE
  5
B4
330
B2
100
AcDbEntity
  8
0
  6
BYBLOCK
 62
     0
100
AcDbLine
 10
-1.0
 20
0.1666666666666666
 30
0.0
 11
0.0
 21
0.0
 31
0.0
  0
LINE
  5
B5
330
B2
100
AcDbEntity
  8
0
  6
BYBLOCK
 62
     0
100
AcDbLine
 10
0.0
 20
0.0
 30
0.0
 11
-1.0
 21
-0.1666666666666666
 31
0.0
  0
LINE
  5
B6
330
B2
100
AcDbEntity
  8
0
  6
BYBLOCK
 62
     0
100
AcDbLine
 10
0.0
 20
0.0
 30
0.0
 11
-1.0
 21
0.0
 31
0.0
  0
ENDBLK
  5
B7
330
B2
100
AcDbEntity
  8
0
100
AcDbBlockEnd
  0
BLOCK
  5
5EA
330
5D2
100
AcDbEntity
  8
0
100
AcDbBlockBegin
  2
*D6
 70
     1
 10
0.0
 20
0.0
 30
0.0
  3
*D6
  1

  0
LINE
  5
60F
330
5D2
100
AcDbEntity
  8
SUNPOU
 62
     4
100
AcDbLine
 10
215.2327035960247
 20
160.0103965900682
 30
0.0
 11
188.3520737991891
 21
160.0103965900682
 31
0.0
  0
LINE
  5
610
330
5D2
100
AcDbEntity
  8
SUNPOU
 62
     4
100
AcDbLine
 10
215.2327702700253
 20
135.0106364145731
 30
0.0
 11
188.3520737991891
 21
135.0106364145731
 31
0.0
  0
LINE
  5
611
330
5D2
100
AcDbEntity
  8
SUNPOU
 62
     4
100
AcDbLine
 10
189.8520737991891
 20
157.0103965900682
 30
0.0
 11
189.8520737991891
 21
138.0106364145731
 31
0.0
  0
INSERT
  5
612
330
5D2
100
AcDbEntity
  8
SUNPOU
 62
     4
100
AcDbBlockReference
  2
_OPEN
 10
189.8520737991891
 20
160.0103965900682
 30
0.0
 41
3.0
 42
3.0
 43
3.0
 50
90.0
  0
INSERT
  5
613
330
5D2
100
AcDbEntity
  8
SUNPOU
 62
     4
100
AcDbBlockReference
  2
_OPEN
 10
189.8520737991891
 20
135.0106364145731
 30
0.0
 41
3.0
 42
3.0
 43
3.0
 50
270.0
  0
MTEXT
  5
614
330
5D2
100
AcDbEntity
  8
SUNPOU
 62
     4
100
AcDbMText
 10
187.3520737991891
 20
147.5105165023207
 30
0.0
 40
3.0
 41
0.0
 71
     5
 72
     1
  1
\A1;φ25
 11
0.0000000000000001
 21
1.0
 31
0.0
1001
ACAD
1000
MTEXTBEGIN
1070
    73
1070
     1
1070
    44
1040
1.0
1070
    74
1070
     0
1000
MTEXTEND
  0
POINT
  5
615
330
5D2
100
AcDbEntity
  8
DEFPOINTS
 62
     0
100
AcDbPoint
 10
218.2327035960248
 20
160.0103965900682
 30
0.0
  0
POINT
  5
616
330
5D2
100
AcDbEntity
  8
DEFPOINTS
 62
     0
100
AcDbPoint
 10
218.2327702700253
 20
135.0106364145731
 30
0.0
  0
POINT
  5
617
330
5D2
100
AcDbEntity
  8
DEFPOINTS
 62
     0
100
AcDbPoint
 10
189.8520737991891
 20
135.0106364145731
 30
0.0
  0
ENDBLK
  5
5F4
330
5D2
100
AcDbEntity
  8
0
100
AcDbBlockEnd
  0
BLOCK
  5
5F5
330
5DE
100
AcDbEntity
  8
0
100
AcDbBlockBegin
  2
*D7
 70
     1
 10
0.0
 20
0.0
 30
0.0
  3
*D7
  1

  0
LINE
  5
618
330
5DE
100
AcDbEntity
  8
SUNPOU
 62
     4
100
AcDbLine
 10
216.7325869255246
 20
132.5107612626231
 30
0.0
 11
216.7325869255246
 21
112.985573718299
 31
0.0
  0
LINE
  5
619
330
5DE
100
AcDbEntity
  8
SUNPOU
 62
     4
100
AcDbLine
 10
309.7326869255246
 20
132.5104862545774
 30
0.0
 11
309.7326869255246
 21
112.985573718299
 31
0.0
  0
LINE
  5
61A
330
5DE
100
AcDbEntity
  8
SUNPOU
 62
     4
100
AcDbLine
 10
219.7325869255246
 20
114.485573718299
 30
0.0
 11
306.7326869255246
 21
114.485573718299
 31
0.0
  0
INSERT
  5
61B
330
5DE
100
AcDbEntity
  8
SUNPOU
 62
     4
100
AcDbBlockReference
  2
_OPEN
 10
216.7325869255246
 20
114.485573718299
 30
0.0
 41
3.0
 42
3.0
 43
3.0
 50
180.0
  0
INSERT
  5
61C
330
5DE
100
AcDbEntity
  8
SUNPOU
 62
     4
100
AcDbBlockReference
  2
_OPEN
 10
309.7326869255246
 20
114.485573718299
 30
0.0
 41
3.0
 42
3.0
 43
3.0
  0
MTEXT
  5
61D
330
5DE
100
AcDbEntity
  8
SUNPOU
 62
     4
100
AcDbMText
 10
263.2326369255246
 20
116.985573718299
 30
0.0
 40
3.0
 41
0.0
 71
     5
 72
     1
  1
\A1;50m
1001
ACAD
1000
MTEXTBEGIN
1070
    73
1070
     1
1070
    44
1040
1.0
1070
    74
1070
     0
1000
MTEXTEND
  0
POINT
  5
61E
330
5DE
100
AcDbEntity
  8
DEFPOINTS
 62
     0
100
AcDbPoint
 10
216.7325869255246
 20
135.5107612626231
 30
0.0
  0
POINT
  5
61F
330
5DE
100
AcDbEntity
  8
DEFPOINTS
 62
     0
100
AcDbPoint
 10
309.7326869255246
 20
135.5104862545774
 30
0.0
  0
POINT
  5
620
330
5DE
100
AcDbEntity
  8
DEFPOINTS
 62
     0
100
AcDbPoint
 10
309.7326869255246
 20
114.485573718299
 30
0.0
  0
ENDBLK
  5
5FF
330
5DE
100
AcDbEntity
  8
0
100
AcDbBlockEnd
  0
ENDSEC
  0
SECTION
  2
ENTITIES
  0
LINE
  5
6C
330
1A
100
AcDbEntity
  8
ZUWAKU
  6
CONTINUOUS
 62
     7
100
AcDbLine
 10
403.0
 20
7.0
 30
0.0
 11
5.0
 21
7.0
 31
0.0
  0
LINE
  5
6D
330
1A
100
AcDbEntity
  8
ZUWAKU
  6
CONTINUOUS
 62
     7
100
AcDbLine
 10
5.0
 20
282.0
 30
0.0
 11
5.0
 21
7.0
 31
0.0
  0
LINE
  5
6E
330
1A
100
AcDbEntity
  8
ZUWAKU
  6
CONTINUOUS
 62
     7
100
AcDbLine
 10
403.0
 20
282.0
 30
0.0
 11
403.0
 21
7.0
 31
0.0
  0
LINE
  5
6F
330
1A
100
AcDbEntity
  8
ZUWAKU
  6
CONTINUOUS
 62
     7
100
AcDbLine
 10
403.0
 20
282.0
 30
0.0
 11
5.0
 21
282.0
 31
0.0
  0
LINE
  5
8E
330
1A
100
AcDbEntity
  8
ZUWAKU
 62
     7
 48
10.0
100
AcDbLine
 10
5.0
 20
13.0
 30
0.0
 11
403.0
 21
12.99999999999994
 31
0.0
  0
TEXT
  5
92
330
1A
100
AcDbEntity
  8
ZUWAKU
 62
     7
100
AcDbText
 10
25.15073007242387
 20
8.160237806787449
 30
0.0
 40
4.0
  1
凍害防止ロッド
100
AcDbText
  0
TEXT
  5
93
330
1A
100
AcDbEntity
  8
ZUWAKU
 62
     7
100
AcDbText
 10
8.003143713074223
 20
7.870178177610682
 30
0.0
 40
4.0
  1
品 種
100
AcDbText
  0
TEXT
  5
97
330
1A
100
AcDbEntity
  8
ZUWAKU
 62
     7
100
AcDbText
 10
107.7028028167073
 20
8.200497435100942
 30
0.0
 40
4.0
  1
品名・ｻ ｲ ｽﾞ
100
AcDbText
  0
TEXT
  5
99
330
1A
100
AcDbEntity
  8
ZUWAKU
 62
     7
100
AcDbText
 10
141.1313324528735
 20
7.9299153608506
 30
0.0
 40
4.0
  1
発泡ロッド　２５－５０Ｍ
100
AcDbText
  0
LINE
  5
9A
330
1A
100
AcDbEntity
  8
ZUWAKU
 62
     7
 48
10.0
100
AcDbLine
 10
324.3551403257206
 20
6.999999999999836
 30
0.0
 11
324.3551403257206
 21
12.99999999999995
 31
0.0
  0
LINE
  5
9B
330
1A
100
AcDbEntity
  8
ZUWAKU
 62
     7
 48
10.0
100
AcDbLine
 10
307.142312366876
 20
6.999999999999836
 30
0.0
 11
307.142312366876
 21
12.99999999999995
 31
0.0
  0
TEXT
  5
9C
330
1A
100
AcDbEntity
  8
ZUWAKU
 62
     7
100
AcDbText
 10
310.1429253763237
 20
7.934661405801826
 30
0.0
 40
4.0
  1
品 番
100
AcDbText
  0
TEXT
  5
9D
330
1A
100
AcDbEntity
  8
ZUWAKU
 62
     7
100
AcDbText
 10
327.1013476411085
 20
8.060146781246267
 30
0.0
 40
4.0
  1
ＬＥ０７
100
AcDbText
  0
TEXT
  5
9E
330
1A
100
AcDbEntity
  8
ZUWAKU
 62
     7
 48
10.0
100
AcDbText
 10
322.9513761015196
 20
2.449000558492457
 30
0.0
 40
4.0
  1
積水化学工業株式会社  建材
100
AcDbText
  0
TEXT
  5
A1
330
1A
100
AcDbEntity
  8
ZUWAKU
 62
     7
100
AcDbText
 10
389.843492473331
 20
7.886151458996323
 30
0.0
 40
4.0
  1
1/1
100
AcDbText
  0
TEXT
  5
A2
330
1A
100
AcDbEntity
  8
ZUWAKU
 62
     7
100
AcDbText
 10
369.8225424558458
 20
7.729845637642938
 30
0.0
 40
4.0
  1
尺 度
100
AcDbText
  0
LINE
  5
A3
330
1A
100
AcDbEntity
  8
ZUWAKU
 62
     7
 48
10.0
100
AcDbLine
 10
366.8807110760169
 20
6.999999999999886
 30
0.0
 11
366.8807110760169
 21
12.99999999999994
 31
0.0
  0
TEXT
  5
A6
330
1A
100
AcDbEntity
  8
ZUWAKU
 62
     7
 48
10.0
100
AcDbText
 10
396.1622424237184
 20
2.480970960763784
 30
0.0
 40
4.0
  1
A3
100
AcDbText
  0
LINE
  5
F5
330
1A
100
AcDbEntity
  8
ZUWAKU
 62
     7
 48
10.0
100
AcDbLine
 10
22.25374857290876
 20
7.0
 30
0.0
 11
22.25374857290876
 21
13.0
 31
0.0
  0
LINE
  5
F6
330
1A
100
AcDbEntity
  8
ZUWAKU
 62
     7
 48
10.0
100
AcDbLine
 10
104.7316872784438
 20
7.0
 30
0.0
 11
104.7316872784438
 21
12.99999999999998
 31
0.0
  0
LINE
  5
F8
330
1A
100
AcDbEntity
  8
ZUWAKU
 62
     7
 48
10.0
100
AcDbLine
 10
138.0261803105822
 20
7.0
 30
0.0
 11
138.0261803105822
 21
12.99999999999998
 31
0.0
  0
LINE
  5
100
330
1A
100
AcDbEntity
  8
ZUWAKU
 62
     7
 48
10.0
100
AcDbLine
 10
384.3363149538092
 20
6.999999999999862
 30
0.0
 11
384.3363149538092
 21
12.99999999999994
 31
0.0
  0
POINT
  5
1A1
330
1A
100
AcDbEntity
  8
SUNPOU
  6
CONTINUOUS
100
AcDbPoint
 10
205.9553251990115
 20
146.5650665787895
 30
0.0
  0
POINT
  5
1A2
330
1A
100
AcDbEntity
  8
SUNPOU
  6
CONTINUOUS
100
AcDbPoint
 10
205.4553267650654
 20
145.6990402718312
 30
0.0
  0
DIMENSION
  5
41D
330
1A
100
AcDbEntity
  8
SUNPOU
100
AcDbDimension
  2
*D6
 10
189.8520737991891
 20
135.0106364145731
 30
0.0
 11
187.3520737991891
 21
147.5105165023207
 31
0.0
 70
    32
  1
φ<>
  3
STANDARD
100
AcDbAlignedDimension
 13
218.2327035960248
 23
160.0103965900682
 33
0.0
 14
218.2327702700253
 24
135.0106364145731
 34
0.0
 50
90.0
100
AcDbRotatedDimension
1001
ACAD
1000
DSTYLE
1002
{
1070
   140
1040
3.0
1070
    74
1070
     0
1070
   172
1070
     1
1070
    73
1070
     0
1070
   272
1070
     2
1070
    77
1070
     3
1070
   173
1070
     1
1070
   147
1040
1.0
1070
    42
1040
3.0
1070
    44
1040
1.5
1070
    43
1040
7.0
1070
   271
1070
     0
1070
   178
1070
     4
1070
   177
1070
     4
1070
   176
1070
     4
1070
   141
1040
150.0
1070
     7
1000
_OPEN
1070
     6
1000
_OPEN
1070
    41
1040
3.0
1002
}
  0
CIRCLE
  5
41E
330
1A
100
AcDbEntity
  8
SEIHIN
100
AcDbCircle
 10
116.7323869255246
 20
147.5104862545791
 30
0.0
 40
12.49999999999998
  0
CIRCLE
  5
41F
330
1A
100
AcDbEntity
  8
SEIHIN
100
AcDbCircle
 10
116.7323869255246
 20
147.5104862545791
 30
0.0
 40
11.99999999999998
  0
CIRCLE
  5
420
330
1A
100
AcDbEntity
  8
SEIHIN
100
AcDbCircle
 10
116.7323869255246
 20
147.5104862545791
 30
0.0
 40
10.0
  0
ARC
  5
421
330
1A
100
AcDbEntity
  8
SEIHIN
 62
     3
100
AcDbCircle
 10
126.1225568632228
 20
143.6209177522921
 30
0.0
 40
2.336318943192652
100
AcDbArc
 50
295.4027361581105
 51
19.60121429207489
  0
LINE
  5
422
330
1A
100
AcDbEntity
  8
CENTER_L
 62
     1
 48
5.0
100
AcDbLine
 10
116.7323869255246
 20
167.0104862545791
 30
0.0
 11
116.7323869255246
 21
128.0104862545792
 31
0.0
  0
ARC
  5
423
330
1A
100
AcDbEntity
  8
SEIHIN
 62
     3
100
AcDbCircle
 10
107.3422957789482
 20
143.6210579378258
 30
0.0
 40
2.336346145515836
100
AcDbArc
 50
160.4026725625323
 51
244.5981564302258
  0
ARC
  5
424
330
1A
100
AcDbEntity
  8
SEIHIN
 62
     3
100
AcDbCircle
 10
110.54510402348
 20
139.4470741684956
 30
0.0
 40
2.336306493891946
100
AcDbArc
 50
190.4009939239602
 51
274.5978751196606
  0
ARC
  5
425
330
1A
100
AcDbEntity
  8
SEIHIN
 62
     3
100
AcDbCircle
 10
108.6688645921437
 20
141.3232199961834
 30
0.0
 40
2.336302963086934
100
AcDbArc
 50
175.4000670724862
 51
259.601739057284
  0
ARC
  5
426
330
1A
100
AcDbEntity
  8
SEIHIN
 62
     3
100
AcDbCircle
 10
124.7958533051654
 20
141.3231459612645
 30
0.0
 40
2.336356654454694
100
AcDbArc
 50
280.4019077451187
 51
4.599188176188277
  0
ARC
  5
427
330
1A
100
AcDbEntity
  8
SEIHIN
 62
     3
100
AcDbCircle
 10
118.059001284623
 20
137.4336888677176
 30
0.0
 40
2.336367682739331
100
AcDbArc
 50
235.4023063892608
 51
319.5981894941969
  0
ARC
  5
428
330
1A
100
AcDbEntity
  8
SEIHIN
 62
     3
100
AcDbCircle
 10
115.4057116806861
 20
137.4336967354513
 30
0.0
 40
2.336326417029054
100
AcDbArc
 50
220.4029252176094
 51
304.600205648679
  0
ARC
  5
429
330
1A
100
AcDbEntity
  8
SEIHIN
 62
     3
100
AcDbCircle
 10
112.8428184232377
 20
138.1204163168809
 30
0.0
 40
2.336318943192663
100
AcDbArc
 50
205.4027361581048
 51
289.601214292074
  0
ARC
  5
42A
330
1A
100
AcDbEntity
  8
SEIHIN
 62
     3
100
AcDbCircle
 10
122.9197272188393
 20
139.4470198749384
 30
0.0
 40
2.336356654454691
100
AcDbArc
 50
265.4008118238116
 51
349.5980922548813
  0
ARC
  5
42B
330
1A
100
AcDbEntity
  8
SEIHIN
 62
     3
100
AcDbCircle
 10
120.621915242278
 20
138.1203951080027
 30
0.0
 40
2.336346145515786
100
AcDbArc
 50
250.4026725625326
 51
334.598156430231
  0
LINE
  5
42C
330
1A
100
AcDbEntity
  8
CENTER_L
 62
     1
 48
5.0
100
AcDbLine
 10
136.2323869255246
 20
147.5104862545791
 30
0.0
 11
97.23238692552467
 21
147.5104862545791
 31
0.0
  0
ARC
  5
42D
330
1A
100
AcDbEntity
  8
SEIHIN
 62
     3
100
AcDbCircle
 10
110.5451466322099
 20
155.5739526342198
 30
0.0
 40
2.336356654454695
100
AcDbArc
 50
85.40081182381173
 51
169.5980922548812
  0
ARC
  5
42E
330
1A
100
AcDbEntity
  8
SEIHIN
 62
     3
100
AcDbCircle
 10
108.6689723837849
 20
153.6978635032403
 30
0.0
 40
2.336311611048606
100
AcDbArc
 50
100.400909660711
 51
184.6001862605959
  0
ARC
  5
42F
330
1A
100
AcDbEntity
  8
SEIHIN
 62
     3
100
AcDbCircle
 10
106.6555974063969
 20
148.8372614994176
 30
0.0
 40
2.336326417029119
100
AcDbArc
 50
130.4029252176093
 51
214.6002056486786
  0
ARC
  5
430
330
1A
100
AcDbEntity
  8
SEIHIN
 62
     3
100
AcDbCircle
 10
106.6555673127382
 20
146.184017724207
 30
0.0
 40
2.336323365362056
100
AcDbArc
 50
145.4029220429154
 51
229.6012005600652
  0
ARC
  5
431
330
1A
100
AcDbEntity
  8
SEIHIN
 62
     3
100
AcDbCircle
 10
107.3423169878264
 20
151.400154756866
 30
0.0
 40
2.336318943192631
100
AcDbArc
 50
115.4027361581092
 51
199.6012142920735
  0
ARC
  5
432
330
1A
100
AcDbEntity
  8
SEIHIN
 62
     3
100
AcDbCircle
 10
124.7960092589056
 20
153.6978525129748
 30
0.0
 40
2.33630296308696
100
AcDbArc
 50
355.400067072487
 51
79.6017390572849
  0
ARC
  5
433
330
1A
100
AcDbEntity
  8
SEIHIN
 62
     3
100
AcDbCircle
 10
118.0591621703632
 20
157.5873757737069
 30
0.0
 40
2.336326417029095
100
AcDbArc
 50
40.40292521761056
 51
124.6002056486801
  0
ARC
  5
434
330
1A
100
AcDbEntity
  8
SEIHIN
 62
     3
100
AcDbCircle
 10
115.4058598878192
 20
157.587379941802
 30
0.0
 40
2.336295612163449
100
AcDbArc
 50
55.40070944992617
 51
139.5997864335316
  0
ARC
  5
435
330
1A
100
AcDbEntity
  8
SEIHIN
 62
     3
100
AcDbCircle
 10
112.8429883917184
 20
156.9006890960908
 30
0.0
 40
2.336325138728933
100
AcDbArc
 50
70.40326445010809
 51
154.600944116016
  0
ARC
  5
436
330
1A
100
AcDbEntity
  8
SEIHIN
 62
     3
100
AcDbCircle
 10
120.6219907976798
 20
156.9005837577419
 30
0.0
 40
2.336365500155044
100
AcDbArc
 50
25.40144560545483
 51
109.5991252713625
  0
ARC
  5
437
330
1A
100
AcDbEntity
  8
SEIHIN
 62
     3
100
AcDbCircle
 10
122.9197641741858
 20
155.5740007963188
 30
0.0
 40
2.336311611048599
100
AcDbArc
 50
10.40090966071118
 51
94.60018626059611
  0
ARC
  5
438
330
1A
100
AcDbEntity
  8
SEIHIN
 62
     3
100
AcDbCircle
 10
126.8092986682889
 20
148.8371156694211
 30
0.0
 40
2.336282099713564
100
AcDbArc
 50
325.4004100257082
 51
49.60008585775035
  0
ARC
  5
439
330
1A
100
AcDbEntity
  8
SEIHIN
 62
     3
100
AcDbCircle
 10
126.8092986682889
 20
148.8371156694211
 30
0.0
 40
2.336282099713564
100
AcDbArc
 50
325.4004100257082
 51
49.60008585775035
  0
ARC
  5
43A
330
1A
100
AcDbEntity
  8
SEIHIN
 62
     3
100
AcDbCircle
 10
126.8092884821976
 20
146.1838094253023
 30
0.0
 40
2.336317408244614
100
AcDbArc
 50
310.4027256001931
 51
34.60040526609664
  0
ARC
  5
43B
330
1A
100
AcDbEntity
  8
SEIHIN
 62
     3
100
AcDbCircle
 10
126.1225780721011
 20
151.4000145713325
 30
0.0
 40
2.336346145515801
100
AcDbArc
 50
340.4026725625326
 51
64.59815643022615
  0
LINE
  5
43C
330
1A
100
AcDbEntity
  8
SEIHIN
 62
     3
100
AcDbLine
 10
261.7325869255246
 20
135.5104862545791
 30
0.0
 11
261.7325869255246
 21
146.0585862545791
 31
0.0
  0
LINE
  5
43D
330
1A
100
AcDbEntity
  8
SEIHIN
 62
     3
100
AcDbLine
 10
255.7325869255246
 20
142.9847862545791
 30
0.0
 11
255.7325869255246
 21
146.3990862545791
 31
0.0
  0
LINE
  5
43E
330
1A
100
AcDbEntity
  8
SEIHIN
 62
     4
100
AcDbLine
 10
264.0366869255247
 20
154.6575862545791
 30
0.0
 11
257.6408869255246
 21
130.7880862545791
 31
0.0
  0
LINE
  5
43F
330
1A
100
AcDbEntity
  8
SEIHIN
 62
     4
100
AcDbLine
 10
256.8148869255246
 20
147.0239862545791
 30
0.0
 11
252.4644869255246
 21
130.7880862545791
 31
0.0
  0
LINE
  5
440
330
1A
100
AcDbEntity
  8
SEIHIN
 62
     3
100
AcDbLine
 10
300.7325869255246
 20
159.5104862545791
 30
0.0
 11
300.7325869255246
 21
135.5107612626194
 31
0.0
  0
LINE
  5
441
330
1A
100
AcDbEntity
  8
SEIHIN
 62
     3
100
AcDbLine
 10
303.7325869255246
 20
159.5104862545791
 30
0.0
 11
303.7325869255246
 21
135.5107612626194
 31
0.0
  0
LINE
  5
442
330
1A
100
AcDbEntity
  8
SEIHIN
 62
     3
100
AcDbLine
 10
306.7325869255246
 20
159.5104862545791
 30
0.0
 11
306.7325869255246
 21
135.510761265151
 31
0.0
  0
LINE
  5
443
330
1A
100
AcDbEntity
  8
SEIHIN
 62
     3
100
AcDbLine
 10
309.7326869255246
 20
159.5104862545791
 30
0.0
 11
309.7326869255246
 21
135.5104862545774
 31
0.0
  0
LINE
  5
444
330
1A
100
AcDbEntity
  8
SEIHIN
 62
     3
100
AcDbLine
 10
282.7325869255246
 20
159.5104862545791
 30
0.0
 11
282.7325869255246
 21
135.5107612626194
 31
0.0
  0
LINE
  5
445
330
1A
100
AcDbEntity
  8
SEIHIN
 62
     3
100
AcDbLine
 10
285.7325869255246
 20
159.5104862545791
 30
0.0
 11
285.7325869255246
 21
135.5107612626194
 31
0.0
  0
LINE
  5
446
330
1A
100
AcDbEntity
  8
SEIHIN
 62
     3
100
AcDbLine
 10
288.7325869255246
 20
159.5104862545791
 30
0.0
 11
288.7325869255246
 21
135.5107612626194
 31
0.0
  0
LINE
  5
447
330
1A
100
AcDbEntity
  8
SEIHIN
 62
     3
100
AcDbLine
 10
291.7325869255246
 20
159.5104862545791
 30
0.0
 11
291.7325869255246
 21
135.5107612626194
 31
0.0
  0
LINE
  5
448
330
1A
100
AcDbEntity
  8
SEIHIN
 62
     3
100
AcDbLine
 10
294.7325869255246
 20
159.5104862545791
 30
0.0
 11
294.7325869255246
 21
135.5107612626194
 31
0.0
  0
LINE
  5
449
330
1A
100
AcDbEntity
  8
SEIHIN
 62
     3
100
AcDbLine
 10
297.7325869255246
 20
159.5104862545791
 30
0.0
 11
297.7325869255246
 21
135.5107612626194
 31
0.0
  0
LINE
  5
44A
330
1A
100
AcDbEntity
  8
SEIHIN
 62
     3
100
AcDbLine
 10
270.7325869255246
 20
159.5104862545791
 30
0.0
 11
270.7325869255246
 21
135.5107612626194
 31
0.0
  0
LINE
  5
44B
330
1A
100
AcDbEntity
  8
SEIHIN
 62
     3
100
AcDbLine
 10
276.7325869255246
 20
159.5104862545791
 30
0.0
 11
276.7325869255246
 21
135.5107612626194
 31
0.0
  0
LINE
  5
44C
330
1A
100
AcDbEntity
  8
SEIHIN
 62
     3
100
AcDbLine
 10
279.7325869255246
 20
159.5104862545791
 30
0.0
 11
279.7325869255246
 21
135.5107612626194
 31
0.0
  0
LINE
  5
44D
330
1A
100
AcDbEntity
  8
SEIHIN
 62
     3
100
AcDbLine
 10
273.7325869255246
 20
159.5104862545791
 30
0.0
 11
273.7325869255246
 21
135.5107612626194
 31
0.0
  0
LINE
  5
44E
330
1A
100
AcDbEntity
  8
SEIHIN
 62
     3
100
AcDbLine
 10
267.7325869255246
 20
159.5104862545791
 30
0.0
 11
267.7325869255246
 21
135.5107612626194
 31
0.0
  0
LINE
  5
44F
330
1A
100
AcDbEntity
  8
SEIHIN
 62
     3
100
AcDbLine
 10
264.7325869255246
 20
159.5104862545791
 30
0.0
 11
264.7325869255246
 21
135.5107612626194
 31
0.0
  0
LINE
  5
450
330
1A
100
AcDbEntity
  8
SEIHIN
 62
     3
100
AcDbLine
 10
252.7325869255246
 20
159.5104862545791
 30
0.0
 11
252.7325869255246
 21
135.5107612585747
 31
0.0
  0
LINE
  5
451
330
1A
100
AcDbEntity
  8
SEIHIN
 62
     3
100
AcDbLine
 10
246.7325869255246
 20
159.5104862545791
 30
0.0
 11
246.7325869255247
 21
135.510761262623
 31
0.0
  0
LINE
  5
452
330
1A
100
AcDbEntity
  8
SEIHIN
 62
     3
100
AcDbLine
 10
249.7325869255246
 20
159.5104862545791
 30
0.0
 11
249.7325869255246
 21
135.5107612626231
 31
0.0
  0
LINE
  5
453
330
1A
100
AcDbEntity
  8
SEIHIN
 62
     3
100
AcDbLine
 10
243.7325869255246
 20
159.5104862545791
 30
0.0
 11
243.7325869255245
 21
135.5107612626195
 31
0.0
  0
LINE
  5
454
330
1A
100
AcDbEntity
  8
SEIHIN
 62
     3
100
AcDbLine
 10
240.7325869255246
 20
159.5104862545791
 30
0.0
 11
240.7325869255247
 21
135.510761262623
 31
0.0
  0
LINE
  5
455
330
1A
100
AcDbEntity
  8
SEIHIN
 62
     3
100
AcDbLine
 10
237.7325869255246
 20
159.5104862545791
 30
0.0
 11
237.7325869255246
 21
135.5107612626194
 31
0.0
  0
LINE
  5
456
330
1A
100
AcDbEntity
  8
SEIHIN
 62
     3
100
AcDbLine
 10
234.7325869255246
 20
159.5104862545791
 30
0.0
 11
234.7325869255247
 21
135.5107612626194
 31
0.0
  0
LINE
  5
457
330
1A
100
AcDbEntity
  8
SEIHIN
 62
     3
100
AcDbLine
 10
231.7325869255246
 20
159.5104862545791
 30
0.0
 11
231.7325869255246
 21
135.5107612626231
 31
0.0
  0
LINE
  5
458
330
1A
100
AcDbEntity
  8
SEIHIN
 62
     3
100
AcDbLine
 10
228.7325869255246
 20
159.5104862545791
 30
0.0
 11
228.7325869255247
 21
135.5107612626194
 31
0.0
  0
LINE
  5
459
330
1A
100
AcDbEntity
  8
SEIHIN
 62
     3
100
AcDbLine
 10
225.7325869255246
 20
159.5104862545791
 30
0.0
 11
225.7325869255247
 21
135.5107612626194
 31
0.0
  0
LINE
  5
45A
330
1A
100
AcDbEntity
  8
SEIHIN
 62
     3
100
AcDbLine
 10
222.7325869255246
 20
159.5104862545791
 30
0.0
 11
222.7325869255246
 21
135.5107612626231
 31
0.0
  0
LINE
  5
45B
330
1A
100
AcDbEntity
  8
SEIHIN
 62
     3
100
AcDbLine
 10
216.7325869255246
 20
135.5107612626231
 30
0.0
 11
216.7325869255246
 21
159.5103862545792
 31
0.0
  0
LINE
  5
45C
330
1A
100
AcDbEntity
  8
SEIHIN
 62
     3
100
AcDbLine
 10
219.7325869255246
 20
159.5104862545791
 30
0.0
 11
219.7325869255247
 21
135.5107612626194
 31
0.0
  0
DIMENSION
  5
45D
330
1A
100
AcDbEntity
  8
SUNPOU
100
AcDbDimension
  2
*D7
 10
309.7326869255246
 20
114.485573718299
 30
0.0
 11
263.2326369255246
 21
116.985573718299
 31
0.0
 70
    32
  1
50m
  3
STANDARD
100
AcDbAlignedDimension
 13
216.7325869255246
 23
135.5107612626231
 33
0.0
 14
309.7326869255246
 24
135.5104862545774
 34
0.0
100
AcDbRotatedDimension
1001
ACAD
1000
DSTYLE
1002
{
1070
   140
1040
3.0
1070
    74
1070
     0
1070
   172
1070
     1
1070
    73
1070
     0
1070
   272
1070
     2
1070
    77
1070
     3
1070
   173
1070
     1
1070
   147
1040
1.0
1070
    42
1040
3.0
1070
    44
1040
1.5
1070
    43
1040
7.0
1070
   271
1070
     0
1070
   178
1070
     4
1070
   177
1070
     4
1070
   176
1070
     4
1070
   141
1040
150.0
1070
     7
1000
_OPEN
1070
     6
1000
_OPEN
1070
    41
1040
3.0
1002
}
  0
ARC
  5
45E
330
1A
100
AcDbEntity
  8
SEIHIN
 62
     3
100
AcDbCircle
 10
275.2325869255246
 20
145.8849943282976
 30
0.0
 40
4.624440073718562
100
AcDbArc
 50
251.0729770430605
 51
288.9270229569395
  0
ARC
  5
45F
330
1A
100
AcDbEntity
  8
SEIHIN
 62
     3
100
AcDbCircle
 10
275.2325869255246
 20
139.4998866775921
 30
0.0
 40
2.814608423012969
100
AcDbArc
 50
237.7961040637878
 51
302.2038959362121
  0
ARC
  5
460
330
1A
100
AcDbEntity
  8
SEIHIN
 62
     3
100
AcDbCircle
 10
275.2327702700252
 20
137.5106870924297
 30
0.0
 40
2.500050677856652
100
AcDbArc
 50
233.1285858139674
 51
306.8637744941188
  0
ARC
  5
461
330
1A
100
AcDbEntity
  8
SEIHIN
 62
     3
100
AcDbCircle
 10
275.2325869255246
 20
138.0075898382976
 30
0.0
 40
2.571107583718502
100
AcDbArc
 50
234.3095279154112
 51
305.6904720845888
  0
ARC
  5
462
330
1A
100
AcDbEntity
  8
SEIHIN
 62
     3
100
AcDbCircle
 10
275.2325869255246
 20
142.0301803123246
 30
0.0
 40
3.358480057745502
100
AcDbArc
 50
243.4722879341594
 51
296.5277120658405
  0
ARC
  5
463
330
1A
100
AcDbEntity
  8
SEIHIN
 62
     3
100
AcDbCircle
 10
242.2325869255246
 20
145.8849943282976
 30
0.0
 40
4.624440073718562
100
AcDbArc
 50
251.0729770430605
 51
288.9270229569395
  0
ARC
  5
464
330
1A
100
AcDbEntity
  8
SEIHIN
 62
     3
100
AcDbCircle
 10
242.2325869255246
 20
139.4998866775921
 30
0.0
 40
2.814608423012969
100
AcDbArc
 50
237.7961040637878
 51
302.2038959362121
  0
ARC
  5
465
330
1A
100
AcDbEntity
  8
SEIHIN
 62
     3
100
AcDbCircle
 10
242.2327702700253
 20
137.5106870924297
 30
0.0
 40
2.500050677856654
100
AcDbArc
 50
233.1285858139673
 51
306.8637744941188
  0
ARC
  5
466
330
1A
100
AcDbEntity
  8
SEIHIN
 62
     3
100
AcDbCircle
 10
242.2325869255246
 20
138.0075898382976
 30
0.0
 40
2.571107583718502
100
AcDbArc
 50
234.3095279154112
 51
305.6904720845888
  0
ARC
  5
467
330
1A
100
AcDbEntity
  8
SEIHIN
 62
     3
100
AcDbCircle
 10
242.2325869255246
 20
142.0301803123246
 30
0.0
 40
3.358480057745502
100
AcDbArc
 50
243.4722879341594
 51
296.5277120658405
  0
ARC
  5
468
330
1A
100
AcDbEntity
  8
SEIHIN
 62
     3
100
AcDbCircle
 10
224.2325869255246
 20
142.0301803123246
 30
0.0
 40
3.358480057745502
100
AcDbArc
 50
243.4722879341594
 51
296.5277120658405
  0
ARC
  5
469
330
1A
100
AcDbEntity
  8
SEIHIN
 62
     3
100
AcDbCircle
 10
224.2325869255246
 20
139.4998866775921
 30
0.0
 40
2.814608423012969
100
AcDbArc
 50
237.7961040637878
 51
302.2038959362121
  0
ARC
  5
46A
330
1A
100
AcDbEntity
  8
SEIHIN
 62
     3
100
AcDbCircle
 10
224.2325869255246
 20
145.8849943282976
 30
0.0
 40
4.624440073718562
100
AcDbArc
 50
251.0729770430605
 51
288.9270229569395
  0
ARC
  5
46B
330
1A
100
AcDbEntity
  8
SEIHIN
 62
     3
100
AcDbCircle
 10
224.2327702700253
 20
137.5106870924297
 30
0.0
 40
2.50005067785665
100
AcDbArc
 50
233.1285858139674
 51
306.8637744941189
  0
ARC
  5
46C
330
1A
100
AcDbEntity
  8
SEIHIN
 62
     3
100
AcDbCircle
 10
224.2325869255246
 20
138.0075898382976
 30
0.0
 40
2.571107583718502
100
AcDbArc
 50
234.3095279154112
 51
305.6904720845888
  0
ARC
  5
46D
330
1A
100
AcDbEntity
  8
SEIHIN
 62
     3
100
AcDbCircle
 10
218.2325869255246
 20
145.8849943282976
 30
0.0
 40
4.624440073718562
100
AcDbArc
 50
251.0729770430605
 51
288.9270229569395
  0
ARC
  5
46E
330
1A
100
AcDbEntity
  8
SEIHIN
 62
     3
100
AcDbCircle
 10
218.2325869255246
 20
139.4998866775921
 30
0.0
 40
2.814608423012969
100
AcDbArc
 50
237.7961040637878
 51
302.2038959362121
  0
ARC
  5
46F
330
1A
100
AcDbEntity
  8
SEIHIN
 62
     3
100
AcDbCircle
 10
218.2327702700253
 20
137.5106870924297
 30
0.0
 40
2.500050677856654
100
AcDbArc
 50
233.1285858139673
 51
306.8637744941188
  0
ARC
  5
470
330
1A
100
AcDbEntity
  8
SEIHIN
 62
     3
100
AcDbCircle
 10
218.2325369255246
 20
138.0075875669669
 30
0.0
 40
2.571134909637779
100
AcDbArc
 50
234.3085934451869
 51
305.691406554813
  0
ARC
  5
471
330
1A
100
AcDbEntity
  8
SEIHIN
 62
     3
100
AcDbCircle
 10
218.2325869255246
 20
142.0301803123246
 30
0.0
 40
3.358480057745502
100
AcDbArc
 50
243.4722879341594
 51
296.5277120658405
  0
ARC
  5
472
330
1A
100
AcDbEntity
  8
SEIHIN
 62
     3
100
AcDbCircle
 10
221.2325869255246
 20
139.4998866775921
 30
0.0
 40
2.814608423012969
100
AcDbArc
 50
237.7961040637878
 51
302.2038959362121
  0
ARC
  5
473
330
1A
100
AcDbEntity
  8
SEIHIN
 62
     3
100
AcDbCircle
 10
221.2325869255246
 20
138.0075898382976
 30
0.0
 40
2.571107583718502
100
AcDbArc
 50
234.3095279154112
 51
305.6904720845888
  0
ARC
  5
474
330
1A
100
AcDbEntity
  8
SEIHIN
 62
     3
100
AcDbCircle
 10
221.2327702700253
 20
137.5106870924297
 30
0.0
 40
2.500050677856654
100
AcDbArc
 50
233.1285858139673
 51
306.8637744941188
  0
ARC
  5
475
330
1A
100
AcDbEntity
  8
SEIHIN
 62
     3
100
AcDbCircle
 10
221.2325869255246
 20
145.8849943282976
 30
0.0
 40
4.624440073718562
100
AcDbArc
 50
251.0729770430605
 51
288.9270229569395
  0
ARC
  5
476
330
1A
100
AcDbEntity
  8
SEIHIN
 62
     3
100
AcDbCircle
 10
221.2325869255246
 20
142.0301803123246
 30
0.0
 40
3.358480057745502
100
AcDbArc
 50
243.4722879341594
 51
296.5277120658405
  0
ARC
  5
477
330
1A
100
AcDbEntity
  8
SEIHIN
 62
     3
100
AcDbCircle
 10
233.2325869255246
 20
142.0301803123246
 30
0.0
 40
3.358480057745502
100
AcDbArc
 50
243.4722879341594
 51
296.5277120658405
  0
ARC
  5
478
330
1A
100
AcDbEntity
  8
SEIHIN
 62
     3
100
AcDbCircle
 10
233.2325869255246
 20
139.4998866775921
 30
0.0
 40
2.814608423012969
100
AcDbArc
 50
237.7961040637878
 51
302.2038959362121
  0
ARC
  5
479
330
1A
100
AcDbEntity
  8
SEIHIN
 62
     3
100
AcDbCircle
 10
233.2325869255246
 20
145.8849943282976
 30
0.0
 40
4.624440073718562
100
AcDbArc
 50
251.0729770430605
 51
288.9270229569395
  0
ARC
  5
47A
330
1A
100
AcDbEntity
  8
SEIHIN
 62
     3
100
AcDbCircle
 10
233.2327702700253
 20
137.5106870924297
 30
0.0
 40
2.500050677856654
100
AcDbArc
 50
233.1285858139673
 51
306.8637744941188
  0
ARC
  5
47B
330
1A
100
AcDbEntity
  8
SEIHIN
 62
     3
100
AcDbCircle
 10
233.2325869255246
 20
138.0075898382976
 30
0.0
 40
2.571107583718502
100
AcDbArc
 50
234.3095279154112
 51
305.6904720845888
  0
ARC
  5
47C
330
1A
100
AcDbEntity
  8
SEIHIN
 62
     3
100
AcDbCircle
 10
230.2325869255246
 20
139.4998866775921
 30
0.0
 40
2.814608423012969
100
AcDbArc
 50
237.7961040637878
 51
302.2038959362121
  0
ARC
  5
47D
330
1A
100
AcDbEntity
  8
SEIHIN
 62
     3
100
AcDbCircle
 10
230.2327702700253
 20
137.5106870924297
 30
0.0
 40
2.500050677856654
100
AcDbArc
 50
233.1285858139673
 51
306.8637744941188
  0
ARC
  5
47E
330
1A
100
AcDbEntity
  8
SEIHIN
 62
     3
100
AcDbCircle
 10
230.2325869255246
 20
138.0075898382976
 30
0.0
 40
2.571107583718502
100
AcDbArc
 50
234.3095279154112
 51
305.6904720845888
  0
ARC
  5
47F
330
1A
100
AcDbEntity
  8
SEIHIN
 62
     3
100
AcDbCircle
 10
227.2325869255246
 20
139.4998866775921
 30
0.0
 40
2.814608423012969
100
AcDbArc
 50
237.7961040637878
 51
302.2038959362121
  0
ARC
  5
480
330
1A
100
AcDbEntity
  8
SEIHIN
 62
     3
100
AcDbCircle
 10
227.2327702700253
 20
137.5106870924297
 30
0.0
 40
2.500050677856654
100
AcDbArc
 50
233.1285858139673
 51
306.8637744941188
  0
ARC
  5
481
330
1A
100
AcDbEntity
  8
SEIHIN
 62
     3
100
AcDbCircle
 10
227.2325869255246
 20
138.0075898382976
 30
0.0
 40
2.571107583718502
100
AcDbArc
 50
234.3095279154112
 51
305.6904720845888
  0
ARC
  5
482
330
1A
100
AcDbEntity
  8
SEIHIN
 62
     3
100
AcDbCircle
 10
230.2325869255246
 20
145.8849943282976
 30
0.0
 40
4.624440073718562
100
AcDbArc
 50
251.0729770430605
 51
288.9270229569395
  0
ARC
  5
483
330
1A
100
AcDbEntity
  8
SEIHIN
 62
     3
100
AcDbCircle
 10
230.2325869255246
 20
142.0301803123246
 30
0.0
 40
3.358480057745502
100
AcDbArc
 50
243.4722879341594
 51
296.5277120658405
  0
ARC
  5
484
330
1A
100
AcDbEntity
  8
SEIHIN
 62
     3
100
AcDbCircle
 10
227.2325869255246
 20
145.8849943282976
 30
0.0
 40
4.624440073718562
100
AcDbArc
 50
251.0729770430605
 51
288.9270229569395
  0
ARC
  5
485
330
1A
100
AcDbEntity
  8
SEIHIN
 62
     3
100
AcDbCircle
 10
227.2325869255246
 20
142.0301803123246
 30
0.0
 40
3.358480057745502
100
AcDbArc
 50
243.4722879341594
 51
296.5277120658405
  0
ARC
  5
486
330
1A
100
AcDbEntity
  8
SEIHIN
 62
     3
100
AcDbCircle
 10
236.2325869255246
 20
139.4998866775921
 30
0.0
 40
2.814608423012969
100
AcDbArc
 50
237.7961040637878
 51
302.2038959362121
  0
ARC
  5
487
330
1A
100
AcDbEntity
  8
SEIHIN
 62
     3
100
AcDbCircle
 10
236.2325869255246
 20
138.0075898382976
 30
0.0
 40
2.571107583718502
100
AcDbArc
 50
234.3095279154112
 51
305.6904720845888
  0
ARC
  5
488
330
1A
100
AcDbEntity
  8
SEIHIN
 62
     3
100
AcDbCircle
 10
236.2327702700253
 20
137.5106870924297
 30
0.0
 40
2.500050677856654
100
AcDbArc
 50
233.1285858139673
 51
306.8637744941188
  0
ARC
  5
489
330
1A
100
AcDbEntity
  8
SEIHIN
 62
     3
100
AcDbCircle
 10
239.2325869255246
 20
139.4998866775921
 30
0.0
 40
2.814608423012969
100
AcDbArc
 50
237.7961040637878
 51
302.2038959362121
  0
ARC
  5
48A
330
1A
100
AcDbEntity
  8
SEIHIN
 62
     3
100
AcDbCircle
 10
239.2327702700253
 20
137.5106870924297
 30
0.0
 40
2.500050677856654
100
AcDbArc
 50
233.1285858139673
 51
306.8637744941188
  0
ARC
  5
48B
330
1A
100
AcDbEntity
  8
SEIHIN
 62
     3
100
AcDbCircle
 10
239.2325869255246
 20
138.0075898382976
 30
0.0
 40
2.571107583718502
100
AcDbArc
 50
234.3095279154112
 51
305.6904720845888
  0
ARC
  5
48C
330
1A
100
AcDbEntity
  8
SEIHIN
 62
     3
100
AcDbCircle
 10
236.2325869255246
 20
145.8849943282976
 30
0.0
 40
4.624440073718562
100
AcDbArc
 50
251.0729770430605
 51
288.9270229569395
  0
ARC
  5
48D
330
1A
100
AcDbEntity
  8
SEIHIN
 62
     3
100
AcDbCircle
 10
236.2325869255246
 20
142.0301803123246
 30
0.0
 40
3.358480057745502
100
AcDbArc
 50
243.4722879341594
 51
296.5277120658405
  0
ARC
  5
48E
330
1A
100
AcDbEntity
  8
SEIHIN
 62
     3
100
AcDbCircle
 10
239.2325869255246
 20
142.0301803123246
 30
0.0
 40
3.358480057745502
100
AcDbArc
 50
243.4722879341594
 51
296.5277120658405
  0
ARC
  5
48F
330
1A
100
AcDbEntity
  8
SEIHIN
 62
     3
100
AcDbCircle
 10
239.2325869255246
 20
145.8849943282976
 30
0.0
 40
4.624440073718562
100
AcDbArc
 50
251.0729770430605
 51
288.9270229569395
  0
ARC
  5
490
330
1A
100
AcDbEntity
  8
SEIHIN
 62
     3
100
AcDbCircle
 10
251.2325869255246
 20
145.8849943282976
 30
0.0
 40
4.624440073718562
100
AcDbArc
 50
251.0729770430605
 51
288.9270229569395
  0
ARC
  5
491
330
1A
100
AcDbEntity
  8
SEIHIN
 62
     3
100
AcDbCircle
 10
251.2325869255246
 20
139.4998866775921
 30
0.0
 40
2.814608423012969
100
AcDbArc
 50
237.7961040637878
 51
302.2038959362121
  0
ARC
  5
492
330
1A
100
AcDbEntity
  8
SEIHIN
 62
     3
100
AcDbCircle
 10
251.2325869255246
 20
138.0075898382976
 30
0.0
 40
2.571107583718502
100
AcDbArc
 50
234.3095279154112
 51
305.6904720845888
  0
ARC
  5
493
330
1A
100
AcDbEntity
  8
SEIHIN
 62
     3
100
AcDbCircle
 10
251.2327702700253
 20
137.5106870924297
 30
0.0
 40
2.500050677856654
100
AcDbArc
 50
233.1285858139673
 51
306.8637744941188
  0
ARC
  5
494
330
1A
100
AcDbEntity
  8
SEIHIN
 62
     3
100
AcDbCircle
 10
251.2325869255246
 20
142.0301803123246
 30
0.0
 40
3.358480057745502
100
AcDbArc
 50
243.4722879341594
 51
296.5277120658405
  0
ARC
  5
495
330
1A
100
AcDbEntity
  8
SEIHIN
 62
     3
100
AcDbCircle
 10
245.2325869255246
 20
139.4998866775921
 30
0.0
 40
2.814608423012969
100
AcDbArc
 50
237.7961040637878
 51
302.2038959362121
  0
ARC
  5
496
330
1A
100
AcDbEntity
  8
SEIHIN
 62
     3
100
AcDbCircle
 10
245.2327702700253
 20
137.5106870924297
 30
0.0
 40
2.500050677856654
100
AcDbArc
 50
233.1285858139673
 51
306.8637744941188
  0
ARC
  5
497
330
1A
100
AcDbEntity
  8
SEIHIN
 62
     3
100
AcDbCircle
 10
245.2325869255246
 20
138.0075898382976
 30
0.0
 40
2.571107583718502
100
AcDbArc
 50
234.3095279154112
 51
305.6904720845888
  0
ARC
  5
498
330
1A
100
AcDbEntity
  8
SEIHIN
 62
     3
100
AcDbCircle
 10
248.2325869255246
 20
139.4998866775921
 30
0.0
 40
2.814608423012969
100
AcDbArc
 50
237.7961040637878
 51
302.2038959362121
  0
ARC
  5
499
330
1A
100
AcDbEntity
  8
SEIHIN
 62
     3
100
AcDbCircle
 10
248.2327702700253
 20
137.5106870924297
 30
0.0
 40
2.500050677856654
100
AcDbArc
 50
233.1285858139673
 51
306.8637744941188
  0
ARC
  5
49A
330
1A
100
AcDbEntity
  8
SEIHIN
 62
     3
100
AcDbCircle
 10
248.2325869255246
 20
138.0075898382976
 30
0.0
 40
2.571107583718502
100
AcDbArc
 50
234.3095279154112
 51
305.6904720845888
  0
ARC
  5
49B
330
1A
100
AcDbEntity
  8
SEIHIN
 62
     3
100
AcDbCircle
 10
245.2325869255246
 20
145.8849943282976
 30
0.0
 40
4.624440073718562
100
AcDbArc
 50
251.0729770430605
 51
288.9270229569395
  0
ARC
  5
49C
330
1A
100
AcDbEntity
  8
SEIHIN
 62
     3
100
AcDbCircle
 10
245.2325869255246
 20
142.0301803123246
 30
0.0
 40
3.358480057745502
100
AcDbArc
 50
243.4722879341594
 51
296.5277120658405
  0
ARC
  5
49D
330
1A
100
AcDbEntity
  8
SEIHIN
 62
     3
100
AcDbCircle
 10
248.2325869255246
 20
142.0301803123246
 30
0.0
 40
3.358480057745502
100
AcDbArc
 50
243.4722879341594
 51
296.5277120658405
  0
ARC
  5
49E
330
1A
100
AcDbEntity
  8
SEIHIN
 62
     3
100
AcDbCircle
 10
248.2325869255246
 20
145.8849943282976
 30
0.0
 40
4.624440073718562
100
AcDbArc
 50
251.0729770430605
 51
288.9270229569395
  0
ARC
  5
49F
330
1A
100
AcDbEntity
  8
SEIHIN
 62
     3
100
AcDbCircle
 10
254.2327078465876
 20
139.4998351044281
 30
0.0
 40
2.814629229939165
100
AcDbArc
 50
237.7934617335137
 51
266.2023570822074
  0
ARC
  5
4A0
330
1A
100
AcDbEntity
  8
SEIHIN
 62
     3
100
AcDbCircle
 10
254.2327206923788
 20
137.5107289041947
 30
0.0
 40
2.500054379805378
100
AcDbArc
 50
233.1300697257429
 51
255.7325691847419
  0
ARC
  5
4A1
330
1A
100
AcDbEntity
  8
SEIHIN
 62
     3
100
AcDbCircle
 10
254.2325040331172
 20
138.0076182923914
 30
0.0
 40
2.571082335008845
100
AcDbArc
 50
234.3113981336152
 51
258.5858184227097
  0
ARC
  5
4A2
330
1A
100
AcDbEntity
  8
SEIHIN
 62
     3
100
AcDbCircle
 10
254.2326976522419
 20
145.8849943938616
 30
0.0
 40
4.624476052639172
100
AcDbArc
 50
251.0716796114591
 51
283.3984288829485
  0
ARC
  5
4A3
330
1A
100
AcDbEntity
  8
SEIHIN
 62
     3
100
AcDbCircle
 10
254.232620477201
 20
142.0301912747339
 30
0.0
 40
3.358504851314989
100
AcDbArc
 50
243.4718593354587
 51
275.9675303449499
  0
ARC
  5
4A4
330
1A
100
AcDbEntity
  8
SEIHIN
 62
     3
100
AcDbCircle
 10
266.2325869255246
 20
145.8849943282976
 30
0.0
 40
4.624440073718562
100
AcDbArc
 50
251.0729770430605
 51
288.9270229569395
  0
ARC
  5
4A5
330
1A
100
AcDbEntity
  8
SEIHIN
 62
     3
100
AcDbCircle
 10
266.2325869255246
 20
142.0301803123246
 30
0.0
 40
3.358480057745502
100
AcDbArc
 50
243.4722879341594
 51
296.5277120658405
  0
ARC
  5
4A6
330
1A
100
AcDbEntity
  8
SEIHIN
 62
     3
100
AcDbCircle
 10
266.2325869255246
 20
139.4998866775921
 30
0.0
 40
2.814608423012969
100
AcDbArc
 50
237.7961040637878
 51
302.2038959362121
  0
ARC
  5
4A7
330
1A
100
AcDbEntity
  8
SEIHIN
 62
     3
100
AcDbCircle
 10
266.2325869255246
 20
138.0075898382976
 30
0.0
 40
2.571107583718502
100
AcDbArc
 50
234.3095279154112
 51
305.6904720845888
  0
ARC
  5
4A8
330
1A
100
AcDbEntity
  8
SEIHIN
 62
     3
100
AcDbCircle
 10
266.2327702700252
 20
137.5106870924297
 30
0.0
 40
2.500050677856652
100
AcDbArc
 50
233.1285858139674
 51
306.8637744941188
  0
ARC
  5
4A9
330
1A
100
AcDbEntity
  8
SEIHIN
 62
     3
100
AcDbCircle
 10
263.2325869255246
 20
139.4998866775921
 30
0.0
 40
2.814608423012969
100
AcDbArc
 50
237.7961040637878
 51
302.2038959362121
  0
ARC
  5
4AA
330
1A
100
AcDbEntity
  8
SEIHIN
 62
     3
100
AcDbCircle
 10
263.2327702700253
 20
137.5106870924297
 30
0.0
 40
2.500050677856652
100
AcDbArc
 50
233.1285858139674
 51
306.8637744941188
  0
ARC
  5
4AB
330
1A
100
AcDbEntity
  8
SEIHIN
 62
     3
100
AcDbCircle
 10
263.2325869255246
 20
138.0075898382976
 30
0.0
 40
2.571107583718502
100
AcDbArc
 50
234.3095279154112
 51
305.6904720845888
  0
ARC
  5
4AC
330
1A
100
AcDbEntity
  8
SEIHIN
 62
     3
100
AcDbCircle
 10
260.2325002268276
 20
139.4998825232562
 30
0.0
 40
2.81465111347469
100
AcDbArc
 50
249.9340032635067
 51
302.2054343544981
  0
ARC
  5
4AD
330
1A
100
AcDbEntity
  8
SEIHIN
 62
     3
100
AcDbCircle
 10
260.2327628570845
 20
137.5106850902152
 30
0.0
 40
2.500053523097477
100
AcDbArc
 50
237.2142743407879
 51
306.863937943686
  0
ARC
  5
4AE
330
1A
100
AcDbEntity
  8
SEIHIN
 62
     3
100
AcDbCircle
 10
260.2325604593
 20
138.0075873350076
 30
0.0
 40
2.571120991255968
100
AcDbArc
 50
240.7048029260558
 51
305.6909836395723
  0
ARC
  5
4AF
330
1A
100
AcDbEntity
  8
SEIHIN
 62
     3
100
AcDbCircle
 10
263.2325869255246
 20
145.8849943282976
 30
0.0
 40
4.624440073718562
100
AcDbArc
 50
251.0729770430605
 51
288.9270229569395
  0
ARC
  5
4B0
330
1A
100
AcDbEntity
  8
SEIHIN
 62
     3
100
AcDbCircle
 10
263.2325869255246
 20
142.0301803123246
 30
0.0
 40
3.358480057745502
100
AcDbArc
 50
243.4722879341594
 51
296.5277120658405
  0
ARC
  5
4B1
330
1A
100
AcDbEntity
  8
SEIHIN
 62
     3
100
AcDbCircle
 10
260.2325856121006
 20
145.884977853888
 30
0.0
 40
4.624424916070957
100
AcDbArc
 50
272.6734698731485
 51
288.9271045576279
  0
ARC
  5
4B2
330
1A
100
AcDbEntity
  8
SEIHIN
 62
     3
100
AcDbCircle
 10
260.2325519245588
 20
142.0301872246357
 30
0.0
 40
3.358501874939174
100
AcDbArc
 50
261.9491430994437
 51
296.5281936462801
  0
ARC
  5
4B3
330
1A
100
AcDbEntity
  8
SEIHIN
 62
     3
100
AcDbCircle
 10
269.2325869255246
 20
139.4998866775921
 30
0.0
 40
2.814608423012969
100
AcDbArc
 50
237.7961040637878
 51
302.2038959362121
  0
ARC
  5
4B4
330
1A
100
AcDbEntity
  8
SEIHIN
 62
     3
100
AcDbCircle
 10
269.2327702700253
 20
137.5106870924297
 30
0.0
 40
2.500050677856652
100
AcDbArc
 50
233.1285858139674
 51
306.8637744941188
  0
ARC
  5
4B5
330
1A
100
AcDbEntity
  8
SEIHIN
 62
     3
100
AcDbCircle
 10
269.2325869255246
 20
138.0075898382976
 30
0.0
 40
2.571107583718502
100
AcDbArc
 50
234.3095279154112
 51
305.6904720845888
  0
ARC
  5
4B6
330
1A
100
AcDbEntity
  8
SEIHIN
 62
     3
100
AcDbCircle
 10
272.2325869255246
 20
139.4998866775921
 30
0.0
 40
2.814608423012969
100
AcDbArc
 50
237.7961040637878
 51
302.2038959362121
  0
ARC
  5
4B7
330
1A
100
AcDbEntity
  8
SEIHIN
 62
     3
100
AcDbCircle
 10
272.2327702700253
 20
137.5106870924297
 30
0.0
 40
2.500050677856652
100
AcDbArc
 50
233.1285858139674
 51
306.8637744941188
  0
ARC
  5
4B8
330
1A
100
AcDbEntity
  8
SEIHIN
 62
     3
100
AcDbCircle
 10
272.2325869255246
 20
138.0075898382976
 30
0.0
 40
2.571107583718502
100
AcDbArc
 50
234.3095279154112
 51
305.6904720845888
  0
ARC
  5
4B9
330
1A
100
AcDbEntity
  8
SEIHIN
 62
     3
100
AcDbCircle
 10
269.2325869255246
 20
145.8849943282976
 30
0.0
 40
4.624440073718562
100
AcDbArc
 50
251.0729770430605
 51
288.9270229569395
  0
ARC
  5
4BA
330
1A
100
AcDbEntity
  8
SEIHIN
 62
     3
100
AcDbCircle
 10
269.2325869255246
 20
142.0301803123246
 30
0.0
 40
3.358480057745502
100
AcDbArc
 50
243.4722879341594
 51
296.5277120658405
  0
ARC
  5
4BB
330
1A
100
AcDbEntity
  8
SEIHIN
 62
     3
100
AcDbCircle
 10
272.2325869255246
 20
142.0301803123246
 30
0.0
 40
3.358480057745502
100
AcDbArc
 50
243.4722879341594
 51
296.5277120658405
  0
ARC
  5
4BC
330
1A
100
AcDbEntity
  8
SEIHIN
 62
     3
100
AcDbCircle
 10
272.2325869255246
 20
145.8849943282976
 30
0.0
 40
4.624440073718562
100
AcDbArc
 50
251.0729770430605
 51
288.9270229569395
  0
ARC
  5
4BD
330
1A
100
AcDbEntity
  8
SEIHIN
 62
     3
100
AcDbCircle
 10
308.2325869255246
 20
145.8849943282976
 30
0.0
 40
4.624440073718562
100
AcDbArc
 50
251.0729770430605
 51
288.9270229569395
  0
ARC
  5
4BE
330
1A
100
AcDbEntity
  8
SEIHIN
 62
     3
100
AcDbCircle
 10
308.2326869255246
 20
139.4998866775921
 30
0.0
 40
2.814608423012969
100
AcDbArc
 50
237.7961040637878
 51
302.2038959362121
  0
ARC
  5
4BF
330
1A
100
AcDbEntity
  8
SEIHIN
 62
     3
100
AcDbCircle
 10
308.2328202655248
 20
137.5106862581793
 30
0.0
 40
2.50008000915588
100
AcDbArc
 50
233.1276577397359
 51
306.8647028230066
  0
ARC
  5
4C0
330
1A
100
AcDbEntity
  8
SEIHIN
 62
     3
100
AcDbCircle
 10
308.2326369255246
 20
138.0075875669668
 30
0.0
 40
2.571134909637727
100
AcDbArc
 50
234.3085934451869
 51
305.6914065548131
  0
ARC
  5
4C1
330
1A
100
AcDbEntity
  8
SEIHIN
 62
     3
100
AcDbCircle
 10
308.2326369255246
 20
142.0301807423708
 30
0.0
 40
3.358502774341741
100
AcDbArc
 50
243.4715280197551
 51
296.5284719802448
  0
ARC
  5
4C2
330
1A
100
AcDbEntity
  8
SEIHIN
 62
     3
100
AcDbCircle
 10
290.2325869255246
 20
145.8849943282976
 30
0.0
 40
4.624440073718562
100
AcDbArc
 50
251.0729770430605
 51
288.9270229569395
  0
ARC
  5
4C3
330
1A
100
AcDbEntity
  8
SEIHIN
 62
     3
100
AcDbCircle
 10
290.2325869255246
 20
142.0301803123246
 30
0.0
 40
3.358480057745502
100
AcDbArc
 50
243.4722879341594
 51
296.5277120658405
  0
ARC
  5
4C4
330
1A
100
AcDbEntity
  8
SEIHIN
 62
     3
100
AcDbCircle
 10
290.2325869255246
 20
139.4998866775921
 30
0.0
 40
2.814608423012969
100
AcDbArc
 50
237.7961040637878
 51
302.2038959362121
  0
ARC
  5
4C5
330
1A
100
AcDbEntity
  8
SEIHIN
 62
     3
100
AcDbCircle
 10
290.2327702700253
 20
137.5106870924297
 30
0.0
 40
2.500050677856652
100
AcDbArc
 50
233.1285858139674
 51
306.8637744941188
  0
ARC
  5
4C6
330
1A
100
AcDbEntity
  8
SEIHIN
 62
     3
100
AcDbCircle
 10
290.2325869255246
 20
138.0075898382976
 30
0.0
 40
2.571107583718502
100
AcDbArc
 50
234.3095279154112
 51
305.6904720845888
  0
ARC
  5
4C7
330
1A
100
AcDbEntity
  8
SEIHIN
 62
     3
100
AcDbCircle
 10
281.2325869255246
 20
145.8849943282976
 30
0.0
 40
4.624440073718562
100
AcDbArc
 50
251.0729770430605
 51
288.9270229569395
  0
ARC
  5
4C8
330
1A
100
AcDbEntity
  8
SEIHIN
 62
     3
100
AcDbCircle
 10
281.2325869255246
 20
142.0301803123246
 30
0.0
 40
3.358480057745502
100
AcDbArc
 50
243.4722879341594
 51
296.5277120658405
  0
ARC
  5
4C9
330
1A
100
AcDbEntity
  8
SEIHIN
 62
     3
100
AcDbCircle
 10
281.2325869255246
 20
139.4998866775921
 30
0.0
 40
2.814608423012969
100
AcDbArc
 50
237.7961040637878
 51
302.2038959362121
  0
ARC
  5
4CA
330
1A
100
AcDbEntity
  8
SEIHIN
 62
     3
100
AcDbCircle
 10
281.2325869255246
 20
138.0075898382976
 30
0.0
 40
2.571107583718502
100
AcDbArc
 50
234.3095279154112
 51
305.6904720845888
  0
ARC
  5
4CB
330
1A
100
AcDbEntity
  8
SEIHIN
 62
     3
100
AcDbCircle
 10
281.2327702700252
 20
137.5106870924297
 30
0.0
 40
2.500050677856652
100
AcDbArc
 50
233.1285858139674
 51
306.8637744941188
  0
ARC
  5
4CC
330
1A
100
AcDbEntity
  8
SEIHIN
 62
     3
100
AcDbCircle
 10
278.2325869255246
 20
139.4998866775921
 30
0.0
 40
2.814608423012969
100
AcDbArc
 50
237.7961040637878
 51
302.2038959362121
  0
ARC
  5
4CD
330
1A
100
AcDbEntity
  8
SEIHIN
 62
     3
100
AcDbCircle
 10
278.2327702700253
 20
137.5106870924297
 30
0.0
 40
2.500050677856652
100
AcDbArc
 50
233.1285858139674
 51
306.8637744941188
  0
ARC
  5
4CE
330
1A
100
AcDbEntity
  8
SEIHIN
 62
     3
100
AcDbCircle
 10
278.2325869255246
 20
138.0075898382976
 30
0.0
 40
2.571107583718502
100
AcDbArc
 50
234.3095279154112
 51
305.6904720845888
  0
ARC
  5
4CF
330
1A
100
AcDbEntity
  8
SEIHIN
 62
     3
100
AcDbCircle
 10
278.2325869255246
 20
145.8849943282976
 30
0.0
 40
4.624440073718562
100
AcDbArc
 50
251.0729770430605
 51
288.9270229569395
  0
ARC
  5
4D0
330
1A
100
AcDbEntity
  8
SEIHIN
 62
     3
100
AcDbCircle
 10
278.2325869255246
 20
142.0301803123246
 30
0.0
 40
3.358480057745502
100
AcDbArc
 50
243.4722879341594
 51
296.5277120658405
  0
ARC
  5
4D1
330
1A
100
AcDbEntity
  8
SEIHIN
 62
     3
100
AcDbCircle
 10
287.2325869255246
 20
139.4998866775921
 30
0.0
 40
2.814608423012969
100
AcDbArc
 50
237.7961040637878
 51
302.2038959362121
  0
ARC
  5
4D2
330
1A
100
AcDbEntity
  8
SEIHIN
 62
     3
100
AcDbCircle
 10
287.2327702700252
 20
137.5106870924297
 30
0.0
 40
2.500050677856652
100
AcDbArc
 50
233.1285858139674
 51
306.8637744941188
  0
ARC
  5
4D3
330
1A
100
AcDbEntity
  8
SEIHIN
 62
     3
100
AcDbCircle
 10
287.2325869255246
 20
138.0075898382976
 30
0.0
 40
2.571107583718502
100
AcDbArc
 50
234.3095279154112
 51
305.6904720845888
  0
ARC
  5
4D4
330
1A
100
AcDbEntity
  8
SEIHIN
 62
     3
100
AcDbCircle
 10
284.2325869255246
 20
139.4998866775921
 30
0.0
 40
2.814608423012969
100
AcDbArc
 50
237.7961040637878
 51
302.2038959362121
  0
ARC
  5
4D5
330
1A
100
AcDbEntity
  8
SEIHIN
 62
     3
100
AcDbCircle
 10
284.2327702700253
 20
137.5106870924297
 30
0.0
 40
2.500050677856652
100
AcDbArc
 50
233.1285858139674
 51
306.8637744941188
  0
ARC
  5
4D6
330
1A
100
AcDbEntity
  8
SEIHIN
 62
     3
100
AcDbCircle
 10
284.2325869255246
 20
138.0075898382976
 30
0.0
 40
2.571107583718502
100
AcDbArc
 50
234.3095279154112
 51
305.6904720845888
  0
ARC
  5
4D7
330
1A
100
AcDbEntity
  8
SEIHIN
 62
     3
100
AcDbCircle
 10
287.2325869255246
 20
145.8849943282976
 30
0.0
 40
4.624440073718562
100
AcDbArc
 50
251.0729770430605
 51
288.9270229569395
  0
ARC
  5
4D8
330
1A
100
AcDbEntity
  8
SEIHIN
 62
     3
100
AcDbCircle
 10
287.2325869255246
 20
142.0301803123246
 30
0.0
 40
3.358480057745502
100
AcDbArc
 50
243.4722879341594
 51
296.5277120658405
  0
ARC
  5
4D9
330
1A
100
AcDbEntity
  8
SEIHIN
 62
     3
100
AcDbCircle
 10
284.2325869255246
 20
145.8849943282976
 30
0.0
 40
4.624440073718562
100
AcDbArc
 50
251.0729770430605
 51
288.9270229569395
  0
ARC
  5
4DA
330
1A
100
AcDbEntity
  8
SEIHIN
 62
     3
100
AcDbCircle
 10
284.2325869255246
 20
142.0301803123246
 30
0.0
 40
3.358480057745502
100
AcDbArc
 50
243.4722879341594
 51
296.5277120658405
  0
ARC
  5
4DB
330
1A
100
AcDbEntity
  8
SEIHIN
 62
     3
100
AcDbCircle
 10
299.2325869255246
 20
145.8849943282976
 30
0.0
 40
4.624440073718562
100
AcDbArc
 50
251.0729770430605
 51
288.9270229569395
  0
ARC
  5
4DC
330
1A
100
AcDbEntity
  8
SEIHIN
 62
     3
100
AcDbCircle
 10
299.2325869255246
 20
139.4998866775921
 30
0.0
 40
2.814608423012969
100
AcDbArc
 50
237.7961040637878
 51
302.2038959362121
  0
ARC
  5
4DD
330
1A
100
AcDbEntity
  8
SEIHIN
 62
     3
100
AcDbCircle
 10
299.2325369255246
 20
138.0075875669669
 30
0.0
 40
2.571134909637779
100
AcDbArc
 50
234.3085934451869
 51
305.691406554813
  0
ARC
  5
4DE
330
1A
100
AcDbEntity
  8
SEIHIN
 62
     3
100
AcDbCircle
 10
299.2327702700253
 20
137.5106870924297
 30
0.0
 40
2.500050677856652
100
AcDbArc
 50
233.1285858139674
 51
306.8637744941188
  0
ARC
  5
4DF
330
1A
100
AcDbEntity
  8
SEIHIN
 62
     3
100
AcDbCircle
 10
299.2325869255246
 20
142.0301803123246
 30
0.0
 40
3.358480057745502
100
AcDbArc
 50
243.4722879341594
 51
296.5277120658405
  0
ARC
  5
4E0
330
1A
100
AcDbEntity
  8
SEIHIN
 62
     3
100
AcDbCircle
 10
296.2325869255246
 20
139.4998866775921
 30
0.0
 40
2.814608423012969
100
AcDbArc
 50
237.7961040637878
 51
302.2038959362121
  0
ARC
  5
4E1
330
1A
100
AcDbEntity
  8
SEIHIN
 62
     3
100
AcDbCircle
 10
296.2327702700253
 20
137.5106870924297
 30
0.0
 40
2.500050677856652
100
AcDbArc
 50
233.1285858139674
 51
306.8637744941188
  0
ARC
  5
4E2
330
1A
100
AcDbEntity
  8
SEIHIN
 62
     3
100
AcDbCircle
 10
296.2325869255246
 20
138.0075898382976
 30
0.0
 40
2.571107583718502
100
AcDbArc
 50
234.3095279154112
 51
305.6904720845888
  0
ARC
  5
4E3
330
1A
100
AcDbEntity
  8
SEIHIN
 62
     3
100
AcDbCircle
 10
293.2325869255246
 20
139.4998866775921
 30
0.0
 40
2.814608423012969
100
AcDbArc
 50
237.7961040637878
 51
302.2038959362121
  0
ARC
  5
4E4
330
1A
100
AcDbEntity
  8
SEIHIN
 62
     3
100
AcDbCircle
 10
293.2327702700252
 20
137.5106870924297
 30
0.0
 40
2.500050677856652
100
AcDbArc
 50
233.1285858139674
 51
306.8637744941188
  0
ARC
  5
4E5
330
1A
100
AcDbEntity
  8
SEIHIN
 62
     3
100
AcDbCircle
 10
293.2325869255246
 20
138.0075898382976
 30
0.0
 40
2.571107583718502
100
AcDbArc
 50
234.3095279154112
 51
305.6904720845888
  0
ARC
  5
4E6
330
1A
100
AcDbEntity
  8
SEIHIN
 62
     3
100
AcDbCircle
 10
296.2325869255246
 20
142.0301803123246
 30
0.0
 40
3.358480057745502
100
AcDbArc
 50
243.4722879341594
 51
296.5277120658405
  0
ARC
  5
4E7
330
1A
100
AcDbEntity
  8
SEIHIN
 62
     3
100
AcDbCircle
 10
296.2325869255246
 20
145.8849943282976
 30
0.0
 40
4.624440073718562
100
AcDbArc
 50
251.0729770430605
 51
288.9270229569395
  0
ARC
  5
4E8
330
1A
100
AcDbEntity
  8
SEIHIN
 62
     3
100
AcDbCircle
 10
293.2325869255246
 20
145.8849943282976
 30
0.0
 40
4.624440073718562
100
AcDbArc
 50
251.0729770430605
 51
288.9270229569395
  0
ARC
  5
4E9
330
1A
100
AcDbEntity
  8
SEIHIN
 62
     3
100
AcDbCircle
 10
293.2325869255246
 20
142.0301803123246
 30
0.0
 40
3.358480057745502
100
AcDbArc
 50
243.4722879341594
 51
296.5277120658405
  0
ARC
  5
4EA
330
1A
100
AcDbEntity
  8
SEIHIN
 62
     3
100
AcDbCircle
 10
302.2325869255246
 20
139.4998866775921
 30
0.0
 40
2.814608423012969
100
AcDbArc
 50
237.7961040637878
 51
302.2038959362121
  0
ARC
  5
4EB
330
1A
100
AcDbEntity
  8
SEIHIN
 62
     3
100
AcDbCircle
 10
302.2327702700252
 20
137.5106870924297
 30
0.0
 40
2.500050677856652
100
AcDbArc
 50
233.1285858139674
 51
306.8637744941188
  0
ARC
  5
4EC
330
1A
100
AcDbEntity
  8
SEIHIN
 62
     3
100
AcDbCircle
 10
302.2325369255246
 20
138.0075875669669
 30
0.0
 40
2.571134909637779
100
AcDbArc
 50
234.3085934451869
 51
305.691406554813
  0
ARC
  5
4ED
330
1A
100
AcDbEntity
  8
SEIHIN
 62
     3
100
AcDbCircle
 10
305.2325869255246
 20
139.4998866775921
 30
0.0
 40
2.814608423012969
100
AcDbArc
 50
237.7961040637878
 51
302.2038959362121
  0
ARC
  5
4EE
330
1A
100
AcDbEntity
  8
SEIHIN
 62
     3
100
AcDbCircle
 10
305.2327702700253
 20
137.5106870924297
 30
0.0
 40
2.500050677856652
100
AcDbArc
 50
233.1285858139674
 51
306.8637744941188
  0
ARC
  5
4EF
330
1A
100
AcDbEntity
  8
SEIHIN
 62
     3
100
AcDbCircle
 10
305.2325369255246
 20
138.0075875669669
 30
0.0
 40
2.571134909637779
100
AcDbArc
 50
234.3085934451869
 51
305.691406554813
  0
ARC
  5
4F0
330
1A
100
AcDbEntity
  8
SEIHIN
 62
     3
100
AcDbCircle
 10
302.2325869255246
 20
145.8849943282976
 30
0.0
 40
4.624440073718562
100
AcDbArc
 50
251.0729770430605
 51
288.9270229569395
  0
ARC
  5
4F1
330
1A
100
AcDbEntity
  8
SEIHIN
 62
     3
100
AcDbCircle
 10
302.2325869255246
 20
142.0301803123246
 30
0.0
 40
3.358480057745502
100
AcDbArc
 50
243.4722879341594
 51
296.5277120658405
  0
ARC
  5
4F2
330
1A
100
AcDbEntity
  8
SEIHIN
 62
     3
100
AcDbCircle
 10
305.2325869255246
 20
145.8849943282976
 30
0.0
 40
4.624440073718562
100
AcDbArc
 50
251.0729770430605
 51
288.9270229569395
  0
ARC
  5
4F3
330
1A
100
AcDbEntity
  8
SEIHIN
 62
     3
100
AcDbCircle
 10
305.2325869255246
 20
142.0301803123246
 30
0.0
 40
3.358480057745502
100
AcDbArc
 50
243.4722879341594
 51
296.5277120658405
  0
LINE
  5
4F4
330
1A
100
AcDbEntity
  8
CENTER_L
 62
     1
 48
5.0
100
AcDbLine
 10
209.7325869255246
 20
147.5104862545791
 30
0.0
 11
316.7326869255246
 21
147.5104862545792
 31
0.0
  0
ARC
  5
4F5
330
1A
100
AcDbEntity
  8
SEIHIN
 62
     3
100
AcDbCircle
 10
275.2325173206019
 20
157.0134885745139
 30
0.0
 40
2.571062181493629
100
AcDbArc
 50
54.30689124549575
 51
125.6892890358702
  0
ARC
  5
4F6
330
1A
100
AcDbEntity
  8
SEIHIN
 62
     3
100
AcDbCircle
 10
275.2327035960247
 20
157.5103879203181
 30
0.0
 40
2.500008669750067
100
AcDbArc
 50
53.13359364792479
 51
126.8702261980352
  0
ARC
  5
4F7
330
1A
100
AcDbEntity
  8
SEIHIN
 62
     3
100
AcDbCircle
 10
275.2325869255246
 20
155.5211858315661
 30
0.0
 40
2.814608423012969
100
AcDbArc
 50
57.79610406378786
 51
122.2038959362121
  0
ARC
  5
4F8
330
1A
100
AcDbEntity
  8
SEIHIN
 62
     3
100
AcDbCircle
 10
275.2325869255246
 20
141.9892810006157
 30
0.0
 40
8.756438753963424
100
AcDbArc
 50
80.13644121186997
 51
99.86355878813004
  0
ARC
  5
4F9
330
1A
100
AcDbEntity
  8
SEIHIN
 62
     3
100
AcDbCircle
 10
275.2325869255246
 20
149.1360781808605
 30
0.0
 40
4.624440073718562
100
AcDbArc
 50
71.07297704306049
 51
108.9270229569395
  0
ARC
  5
4FA
330
1A
100
AcDbEntity
  8
SEIHIN
 62
     3
100
AcDbCircle
 10
275.2328744923663
 20
153.0317415085426
 30
0.0
 40
8.756438758828112
100
AcDbArc
 50
260.1345313525539
 51
279.8616489288141
  0
LINE
  5
4FB
330
1A
100
AcDbEntity
  8
SEIHIN
 62
     3
100
AcDbLine
 10
262.1216869255245
 20
147.5104862545791
 30
0.0
 11
309.7326869255246
 21
147.5104862545791
 31
0.0
  0
ARC
  5
4FC
330
1A
100
AcDbEntity
  8
SEIHIN
 62
     3
100
AcDbCircle
 10
275.2325869255246
 20
152.9908921968336
 30
0.0
 40
3.358480057745499
100
AcDbArc
 50
63.47228793415943
 51
116.5277120658405
  0
ARC
  5
4FD
330
1A
100
AcDbEntity
  8
SEIHIN
 62
     3
100
AcDbCircle
 10
242.232517320602
 20
157.0134885745139
 30
0.0
 40
2.571062181493626
100
AcDbArc
 50
54.30689124549584
 51
125.6892890358703
  0
ARC
  5
4FE
330
1A
100
AcDbEntity
  8
SEIHIN
 62
     3
100
AcDbCircle
 10
242.2327035960247
 20
157.5103879203181
 30
0.0
 40
2.500008669750064
100
AcDbArc
 50
53.13359364792484
 51
126.8702261980353
  0
ARC
  5
4FF
330
1A
100
AcDbEntity
  8
SEIHIN
 62
     3
100
AcDbCircle
 10
242.2325869255246
 20
155.5211858315661
 30
0.0
 40
2.814608423012969
100
AcDbArc
 50
57.79610406378786
 51
122.2038959362121
  0
ARC
  5
500
330
1A
100
AcDbEntity
  8
SEIHIN
 62
     3
100
AcDbCircle
 10
242.2325869255246
 20
141.9892810006157
 30
0.0
 40
8.756438753963424
100
AcDbArc
 50
80.13644121186997
 51
99.86355878813004
  0
ARC
  5
501
330
1A
100
AcDbEntity
  8
SEIHIN
 62
     3
100
AcDbCircle
 10
242.2325869255246
 20
149.1360781808605
 30
0.0
 40
4.624440073718562
100
AcDbArc
 50
71.07297704306049
 51
108.9270229569395
  0
ARC
  5
502
330
1A
100
AcDbEntity
  8
SEIHIN
 62
     3
100
AcDbCircle
 10
242.2328744923663
 20
153.0317415085426
 30
0.0
 40
8.756438758828112
100
AcDbArc
 50
260.1345313525539
 51
279.8616489288141
  0
LINE
  5
503
330
1A
100
AcDbEntity
  8
SEIHIN
 62
     3
100
AcDbLine
 10
216.7325869255246
 20
147.5104862545791
 30
0.0
 11
254.0694869255246
 21
147.5104862545791
 31
0.0
  0
ARC
  5
504
330
1A
100
AcDbEntity
  8
SEIHIN
 62
     3
100
AcDbCircle
 10
242.2325869255246
 20
152.9908921968336
 30
0.0
 40
3.358480057745499
100
AcDbArc
 50
63.47228793415943
 51
116.5277120658405
  0
ARC
  5
505
330
1A
100
AcDbEntity
  8
SEIHIN
 62
     3
100
AcDbCircle
 10
224.2327035960247
 20
157.5103879203181
 30
0.0
 40
2.500008669750064
100
AcDbArc
 50
53.13359364792484
 51
126.8702261980353
  0
ARC
  5
506
330
1A
100
AcDbEntity
  8
SEIHIN
 62
     3
100
AcDbCircle
 10
224.2325173206019
 20
157.0134885745139
 30
0.0
 40
2.571062181493626
100
AcDbArc
 50
54.30689124549584
 51
125.6892890358703
  0
ARC
  5
507
330
1A
100
AcDbEntity
  8
SEIHIN
 62
     3
100
AcDbCircle
 10
224.2325869255246
 20
155.5211858315661
 30
0.0
 40
2.814608423012969
100
AcDbArc
 50
57.79610406378786
 51
122.2038959362121
  0
ARC
  5
508
330
1A
100
AcDbEntity
  8
SEIHIN
 62
     3
100
AcDbCircle
 10
224.2325869255246
 20
149.1360781808605
 30
0.0
 40
4.624440073718562
100
AcDbArc
 50
71.07297704306049
 51
108.9270229569395
  0
ARC
  5
509
330
1A
100
AcDbEntity
  8
SEIHIN
 62
     3
100
AcDbCircle
 10
224.2325869255246
 20
141.9892810006157
 30
0.0
 40
8.756438753963424
100
AcDbArc
 50
80.13644121186997
 51
99.86355878813004
  0
ARC
  5
50A
330
1A
100
AcDbEntity
  8
SEIHIN
 62
     3
100
AcDbCircle
 10
224.2328744923664
 20
153.0317415085426
 30
0.0
 40
8.756438758828112
100
AcDbArc
 50
260.1345313525539
 51
279.8616489288141
  0
ARC
  5
50B
330
1A
100
AcDbEntity
  8
SEIHIN
 62
     3
100
AcDbCircle
 10
224.2325869255246
 20
152.9908921968336
 30
0.0
 40
3.358480057745499
100
AcDbArc
 50
63.47228793415943
 51
116.5277120658405
  0
ARC
  5
50C
330
1A
100
AcDbEntity
  8
SEIHIN
 62
     3
100
AcDbCircle
 10
218.2325869255246
 20
149.1360781808605
 30
0.0
 40
4.624440073718562
100
AcDbArc
 50
71.07297704306049
 51
108.9270229569395
  0
ARC
  5
50D
330
1A
100
AcDbEntity
  8
SEIHIN
 62
     3
100
AcDbCircle
 10
218.2325869255246
 20
141.9892810006157
 30
0.0
 40
8.756438753963424
100
AcDbArc
 50
80.13644121186997
 51
99.86355878813004
  0
ARC
  5
50E
330
1A
100
AcDbEntity
  8
SEIHIN
 62
     3
100
AcDbCircle
 10
218.2328744923664
 20
153.0317415085426
 30
0.0
 40
8.756438758828114
100
AcDbArc
 50
260.1345313525539
 51
279.861648928814
  0
ARC
  5
50F
330
1A
100
AcDbEntity
  8
SEIHIN
 62
     3
100
AcDbCircle
 10
221.2328744923663
 20
153.0317415085426
 30
0.0
 40
8.756438758828114
100
AcDbArc
 50
260.1345313525539
 51
279.861648928814
  0
ARC
  5
510
330
1A
100
AcDbEntity
  8
SEIHIN
 62
     3
100
AcDbCircle
 10
221.2325869255246
 20
149.1360781808605
 30
0.0
 40
4.624440073718562
100
AcDbArc
 50
71.07297704306049
 51
108.9270229569395
  0
ARC
  5
511
330
1A
100
AcDbEntity
  8
SEIHIN
 62
     3
100
AcDbCircle
 10
221.2325869255246
 20
141.9892810006157
 30
0.0
 40
8.756438753963424
100
AcDbArc
 50
80.13644121186997
 51
99.86355878813004
  0
ARC
  5
512
330
1A
100
AcDbEntity
  8
SEIHIN
 62
     3
100
AcDbCircle
 10
218.2324673227315
 20
157.013482858913
 30
0.0
 40
2.571095994644397
100
AcDbArc
 50
54.30606067210622
 51
125.6901197365794
  0
ARC
  5
513
330
1A
100
AcDbEntity
  8
SEIHIN
 62
     3
100
AcDbCircle
 10
218.2327035960248
 20
157.5103879203181
 30
0.0
 40
2.500008669750073
100
AcDbArc
 50
53.13359364792458
 51
126.870226198035
  0
ARC
  5
514
330
1A
100
AcDbEntity
  8
SEIHIN
 62
     3
100
AcDbCircle
 10
218.2325869255246
 20
155.5211858315661
 30
0.0
 40
2.814608423012969
100
AcDbArc
 50
57.79610406378786
 51
122.2038959362121
  0
ARC
  5
515
330
1A
100
AcDbEntity
  8
SEIHIN
 62
     3
100
AcDbCircle
 10
218.2325869255246
 20
152.9908921968336
 30
0.0
 40
3.358480057745499
100
AcDbArc
 50
63.47228793415943
 51
116.5277120658405
  0
ARC
  5
516
330
1A
100
AcDbEntity
  8
SEIHIN
 62
     3
100
AcDbCircle
 10
221.2327035960247
 20
157.5103879203181
 30
0.0
 40
2.500008669750073
100
AcDbArc
 50
53.13359364792458
 51
126.870226198035
  0
ARC
  5
517
330
1A
100
AcDbEntity
  8
SEIHIN
 62
     3
100
AcDbCircle
 10
221.232517320602
 20
157.0134885745139
 30
0.0
 40
2.571062181493626
100
AcDbArc
 50
54.30689124549584
 51
125.6892890358703
  0
ARC
  5
518
330
1A
100
AcDbEntity
  8
SEIHIN
 62
     3
100
AcDbCircle
 10
221.2325869255246
 20
155.5211858315661
 30
0.0
 40
2.814608423012969
100
AcDbArc
 50
57.79610406378786
 51
122.2038959362121
  0
ARC
  5
519
330
1A
100
AcDbEntity
  8
SEIHIN
 62
     3
100
AcDbCircle
 10
221.2325869255246
 20
152.9908921968336
 30
0.0
 40
3.358480057745499
100
AcDbArc
 50
63.47228793415943
 51
116.5277120658405
  0
ARC
  5
51A
330
1A
100
AcDbEntity
  8
SEIHIN
 62
     3
100
AcDbCircle
 10
233.2325869255246
 20
149.1360781808605
 30
0.0
 40
4.624440073718562
100
AcDbArc
 50
71.07297704306049
 51
108.9270229569395
  0
ARC
  5
51B
330
1A
100
AcDbEntity
  8
SEIHIN
 62
     3
100
AcDbCircle
 10
233.2325869255246
 20
141.9892810006157
 30
0.0
 40
8.756438753963424
100
AcDbArc
 50
80.13644121186997
 51
99.86355878813004
  0
ARC
  5
51C
330
1A
100
AcDbEntity
  8
SEIHIN
 62
     3
100
AcDbCircle
 10
233.2328744923664
 20
153.0317415085426
 30
0.0
 40
8.756438758828112
100
AcDbArc
 50
260.1345313525539
 51
279.8616489288141
  0
ARC
  5
51D
330
1A
100
AcDbEntity
  8
SEIHIN
 62
     3
100
AcDbCircle
 10
230.2328744923663
 20
153.0317415085426
 30
0.0
 40
8.756438758828112
100
AcDbArc
 50
260.1345313525539
 51
279.8616489288141
  0
ARC
  5
51E
330
1A
100
AcDbEntity
  8
SEIHIN
 62
     3
100
AcDbCircle
 10
227.2328744923663
 20
153.0317415085426
 30
0.0
 40
8.756438758828112
100
AcDbArc
 50
260.1345313525539
 51
279.8616489288141
  0
ARC
  5
51F
330
1A
100
AcDbEntity
  8
SEIHIN
 62
     3
100
AcDbCircle
 10
230.2325869255246
 20
149.1360781808605
 30
0.0
 40
4.624440073718562
100
AcDbArc
 50
71.07297704306049
 51
108.9270229569395
  0
ARC
  5
520
330
1A
100
AcDbEntity
  8
SEIHIN
 62
     3
100
AcDbCircle
 10
230.2325869255246
 20
141.9892810006157
 30
0.0
 40
8.756438753963424
100
AcDbArc
 50
80.13644121186997
 51
99.86355878813004
  0
ARC
  5
521
330
1A
100
AcDbEntity
  8
SEIHIN
 62
     3
100
AcDbCircle
 10
227.2325869255246
 20
149.1360781808605
 30
0.0
 40
4.624440073718562
100
AcDbArc
 50
71.07297704306049
 51
108.9270229569395
  0
ARC
  5
522
330
1A
100
AcDbEntity
  8
SEIHIN
 62
     3
100
AcDbCircle
 10
227.2325869255246
 20
141.9892810006157
 30
0.0
 40
8.756438753963424
100
AcDbArc
 50
80.13644121186997
 51
99.86355878813004
  0
ARC
  5
523
330
1A
100
AcDbEntity
  8
SEIHIN
 62
     3
100
AcDbCircle
 10
236.2328744923663
 20
153.0317415085426
 30
0.0
 40
8.756438758828112
100
AcDbArc
 50
260.1345313525539
 51
279.8616489288141
  0
ARC
  5
524
330
1A
100
AcDbEntity
  8
SEIHIN
 62
     3
100
AcDbCircle
 10
239.2328744923664
 20
153.0317415085426
 30
0.0
 40
8.756438758828112
100
AcDbArc
 50
260.1345313525539
 51
279.8616489288141
  0
ARC
  5
525
330
1A
100
AcDbEntity
  8
SEIHIN
 62
     3
100
AcDbCircle
 10
236.2325869255246
 20
141.9892810006157
 30
0.0
 40
8.756438753963424
100
AcDbArc
 50
80.13644121186997
 51
99.86355878813004
  0
ARC
  5
526
330
1A
100
AcDbEntity
  8
SEIHIN
 62
     3
100
AcDbCircle
 10
236.2325869255246
 20
149.1360781808605
 30
0.0
 40
4.624440073718562
100
AcDbArc
 50
71.07297704306049
 51
108.9270229569395
  0
ARC
  5
527
330
1A
100
AcDbEntity
  8
SEIHIN
 62
     3
100
AcDbCircle
 10
239.2325869255246
 20
149.1360781808605
 30
0.0
 40
4.624440073718562
100
AcDbArc
 50
71.07297704306049
 51
108.9270229569395
  0
ARC
  5
528
330
1A
100
AcDbEntity
  8
SEIHIN
 62
     3
100
AcDbCircle
 10
239.2325869255246
 20
141.9892810006157
 30
0.0
 40
8.756438753963424
100
AcDbArc
 50
80.13644121186997
 51
99.86355878813004
  0
ARC
  5
529
330
1A
100
AcDbEntity
  8
SEIHIN
 62
     3
100
AcDbCircle
 10
233.232517320602
 20
157.0134885745139
 30
0.0
 40
2.571062181493626
100
AcDbArc
 50
54.30689124549584
 51
125.6892890358703
  0
ARC
  5
52A
330
1A
100
AcDbEntity
  8
SEIHIN
 62
     3
100
AcDbCircle
 10
233.2327035960247
 20
157.5103879203181
 30
0.0
 40
2.500008669750064
100
AcDbArc
 50
53.13359364792484
 51
126.8702261980353
  0
ARC
  5
52B
330
1A
100
AcDbEntity
  8
SEIHIN
 62
     3
100
AcDbCircle
 10
233.2325869255246
 20
155.5211858315661
 30
0.0
 40
2.814608423012969
100
AcDbArc
 50
57.79610406378786
 51
122.2038959362121
  0
ARC
  5
52C
330
1A
100
AcDbEntity
  8
SEIHIN
 62
     3
100
AcDbCircle
 10
233.2325869255246
 20
152.9908921968336
 30
0.0
 40
3.358480057745499
100
AcDbArc
 50
63.47228793415943
 51
116.5277120658405
  0
ARC
  5
52D
330
1A
100
AcDbEntity
  8
SEIHIN
 62
     3
100
AcDbCircle
 10
230.2325173206019
 20
157.0134885745139
 30
0.0
 40
2.571062181493626
100
AcDbArc
 50
54.30689124549584
 51
125.6892890358703
  0
ARC
  5
52E
330
1A
100
AcDbEntity
  8
SEIHIN
 62
     3
100
AcDbCircle
 10
230.2327035960247
 20
157.5103879203181
 30
0.0
 40
2.500008669750064
100
AcDbArc
 50
53.13359364792484
 51
126.8702261980353
  0
ARC
  5
52F
330
1A
100
AcDbEntity
  8
SEIHIN
 62
     3
100
AcDbCircle
 10
230.2325869255246
 20
155.5211858315661
 30
0.0
 40
2.814608423012969
100
AcDbArc
 50
57.79610406378786
 51
122.2038959362121
  0
ARC
  5
530
330
1A
100
AcDbEntity
  8
SEIHIN
 62
     3
100
AcDbCircle
 10
230.2325869255246
 20
152.9908921968336
 30
0.0
 40
3.358480057745499
100
AcDbArc
 50
63.47228793415943
 51
116.5277120658405
  0
ARC
  5
531
330
1A
100
AcDbEntity
  8
SEIHIN
 62
     3
100
AcDbCircle
 10
227.232517320602
 20
157.0134885745139
 30
0.0
 40
2.571062181493626
100
AcDbArc
 50
54.30689124549584
 51
125.6892890358703
  0
ARC
  5
532
330
1A
100
AcDbEntity
  8
SEIHIN
 62
     3
100
AcDbCircle
 10
227.2327035960247
 20
157.5103879203181
 30
0.0
 40
2.500008669750064
100
AcDbArc
 50
53.13359364792484
 51
126.8702261980353
  0
ARC
  5
533
330
1A
100
AcDbEntity
  8
SEIHIN
 62
     3
100
AcDbCircle
 10
227.2325869255246
 20
155.5211858315661
 30
0.0
 40
2.814608423012969
100
AcDbArc
 50
57.79610406378786
 51
122.2038959362121
  0
ARC
  5
534
330
1A
100
AcDbEntity
  8
SEIHIN
 62
     3
100
AcDbCircle
 10
227.2325869255246
 20
152.9908921968336
 30
0.0
 40
3.358480057745499
100
AcDbArc
 50
63.47228793415943
 51
116.5277120658405
  0
ARC
  5
535
330
1A
100
AcDbEntity
  8
SEIHIN
 62
     3
100
AcDbCircle
 10
236.2325869255246
 20
155.5211858315661
 30
0.0
 40
2.814608423012969
100
AcDbArc
 50
57.79610406378786
 51
122.2038959362121
  0
ARC
  5
536
330
1A
100
AcDbEntity
  8
SEIHIN
 62
     3
100
AcDbCircle
 10
236.2325173206019
 20
157.0134885745139
 30
0.0
 40
2.571062181493626
100
AcDbArc
 50
54.30689124549584
 51
125.6892890358703
  0
ARC
  5
537
330
1A
100
AcDbEntity
  8
SEIHIN
 62
     3
100
AcDbCircle
 10
236.2327035960247
 20
157.5103879203181
 30
0.0
 40
2.500008669750064
100
AcDbArc
 50
53.13359364792484
 51
126.8702261980353
  0
ARC
  5
538
330
1A
100
AcDbEntity
  8
SEIHIN
 62
     3
100
AcDbCircle
 10
236.2325869255246
 20
152.9908921968336
 30
0.0
 40
3.358480057745499
100
AcDbArc
 50
63.47228793415943
 51
116.5277120658405
  0
ARC
  5
539
330
1A
100
AcDbEntity
  8
SEIHIN
 62
     3
100
AcDbCircle
 10
239.232517320602
 20
157.0134885745139
 30
0.0
 40
2.571062181493626
100
AcDbArc
 50
54.30689124549584
 51
125.6892890358703
  0
ARC
  5
53A
330
1A
100
AcDbEntity
  8
SEIHIN
 62
     3
100
AcDbCircle
 10
239.2327035960247
 20
157.5103879203181
 30
0.0
 40
2.500008669750064
100
AcDbArc
 50
53.13359364792484
 51
126.8702261980353
  0
ARC
  5
53B
330
1A
100
AcDbEntity
  8
SEIHIN
 62
     3
100
AcDbCircle
 10
239.2325869255246
 20
155.5211858315661
 30
0.0
 40
2.814608423012969
100
AcDbArc
 50
57.79610406378786
 51
122.2038959362121
  0
ARC
  5
53C
330
1A
100
AcDbEntity
  8
SEIHIN
 62
     3
100
AcDbCircle
 10
239.2325869255246
 20
152.9908921968336
 30
0.0
 40
3.358480057745499
100
AcDbArc
 50
63.47228793415943
 51
116.5277120658405
  0
LINE
  5
53D
330
1A
100
AcDbEntity
  8
SEIHIN
 62
     4
100
AcDbLine
 10
253.4128869255246
 20
145.0597862545792
 30
0.0
 11
258.3616869255246
 21
163.5290862545791
 31
0.0
  0
LINE
  5
53E
330
1A
100
AcDbEntity
  8
SEIHIN
 62
     3
100
AcDbLine
 10
255.7325869255246
 20
159.5104862545791
 30
0.0
 11
255.7325869255246
 21
153.7172862545791
 31
0.0
  0
ARC
  5
53F
330
1A
100
AcDbEntity
  8
SEIHIN
 62
     3
100
AcDbCircle
 10
251.2325869255246
 20
141.9892810006157
 30
0.0
 40
8.756438753963424
100
AcDbArc
 50
80.13644121186997
 51
99.86355878813004
  0
ARC
  5
540
330
1A
100
AcDbEntity
  8
SEIHIN
 62
     3
100
AcDbCircle
 10
251.2325869255246
 20
149.1360781808605
 30
0.0
 40
4.624440073718562
100
AcDbArc
 50
71.07297704306049
 51
108.9270229569395
  0
ARC
  5
541
330
1A
100
AcDbEntity
  8
SEIHIN
 62
     3
100
AcDbCircle
 10
251.2328744923663
 20
153.0317415085426
 30
0.0
 40
8.756438758828112
100
AcDbArc
 50
260.1345313525539
 51
279.8616489288141
  0
ARC
  5
542
330
1A
100
AcDbEntity
  8
SEIHIN
 62
     3
100
AcDbCircle
 10
245.2328744923664
 20
153.0317415085426
 30
0.0
 40
8.756438758828112
100
AcDbArc
 50
260.1345313525539
 51
279.8616489288141
  0
ARC
  5
543
330
1A
100
AcDbEntity
  8
SEIHIN
 62
     3
100
AcDbCircle
 10
248.2328744923663
 20
153.0317415085426
 30
0.0
 40
8.756438758828112
100
AcDbArc
 50
260.1345313525539
 51
279.8616489288141
  0
ARC
  5
544
330
1A
100
AcDbEntity
  8
SEIHIN
 62
     3
100
AcDbCircle
 10
245.2325869255246
 20
149.1360781808605
 30
0.0
 40
4.624440073718562
100
AcDbArc
 50
71.07297704306049
 51
108.9270229569395
  0
ARC
  5
545
330
1A
100
AcDbEntity
  8
SEIHIN
 62
     3
100
AcDbCircle
 10
245.2325869255246
 20
141.9892810006157
 30
0.0
 40
8.756438753963424
100
AcDbArc
 50
80.13644121186997
 51
99.86355878813004
  0
ARC
  5
546
330
1A
100
AcDbEntity
  8
SEIHIN
 62
     3
100
AcDbCircle
 10
248.2325869255246
 20
149.1360781808605
 30
0.0
 40
4.624440073718562
100
AcDbArc
 50
71.07297704306049
 51
108.9270229569395
  0
ARC
  5
547
330
1A
100
AcDbEntity
  8
SEIHIN
 62
     3
100
AcDbCircle
 10
248.2325869255246
 20
141.9892810006157
 30
0.0
 40
8.756438753963424
100
AcDbArc
 50
80.13644121186997
 51
99.86355878813004
  0
ARC
  5
548
330
1A
100
AcDbEntity
  8
SEIHIN
 62
     3
100
AcDbCircle
 10
254.2328744923664
 20
153.0317415085426
 30
0.0
 40
8.756438758828112
100
AcDbArc
 50
260.1345313525539
 51
279.8616489288141
  0
LINE
  5
549
330
1A
100
AcDbEntity
  8
SEIHIN
 62
     4
100
AcDbLine
 10
256.8148869255246
 20
147.0239862545791
 30
0.0
 11
253.4128869255246
 21
145.0597862545792
 31
0.0
  0
ARC
  5
54A
330
1A
100
AcDbEntity
  8
SEIHIN
 62
     3
100
AcDbCircle
 10
257.233895180555
 20
153.0312741008815
 30
0.0
 40
8.756153210116
100
AcDbArc
 50
260.1274272288354
 51
262.547511000725
  0
ARC
  5
54B
330
1A
100
AcDbEntity
  8
SEIHIN
 62
     3
100
AcDbCircle
 10
254.2325869255246
 20
149.1360781808605
 30
0.0
 40
4.624440073718562
100
AcDbArc
 50
71.07297704306049
 51
108.9270229569395
  0
ARC
  5
54C
330
1A
100
AcDbEntity
  8
SEIHIN
 62
     3
100
AcDbCircle
 10
254.2329973846283
 20
141.9892387852767
 30
0.0
 40
8.756550666979789
100
AcDbArc
 50
85.44119922686192
 51
99.86615748364437
  0
ARC
  5
54D
330
1A
100
AcDbEntity
  8
SEIHIN
 62
     3
100
AcDbCircle
 10
251.2325869255246
 20
155.5211858315661
 30
0.0
 40
2.814608423012969
100
AcDbArc
 50
57.79610406378786
 51
122.2038959362121
  0
ARC
  5
54E
330
1A
100
AcDbEntity
  8
SEIHIN
 62
     3
100
AcDbCircle
 10
251.2325173206019
 20
157.0134885745139
 30
0.0
 40
2.571062181493626
100
AcDbArc
 50
54.30689124549584
 51
125.6892890358703
  0
ARC
  5
54F
330
1A
100
AcDbEntity
  8
SEIHIN
 62
     3
100
AcDbCircle
 10
251.2327035960247
 20
157.5103879203181
 30
0.0
 40
2.500008669750064
100
AcDbArc
 50
53.13359364792484
 51
126.8702261980353
  0
ARC
  5
550
330
1A
100
AcDbEntity
  8
SEIHIN
 62
     3
100
AcDbCircle
 10
251.2325869255246
 20
152.9908921968336
 30
0.0
 40
3.358480057745499
100
AcDbArc
 50
63.47228793415943
 51
116.5277120658405
  0
ARC
  5
551
330
1A
100
AcDbEntity
  8
SEIHIN
 62
     3
100
AcDbCircle
 10
245.2325173206019
 20
157.0134885745139
 30
0.0
 40
2.571062181493626
100
AcDbArc
 50
54.30689124549584
 51
125.6892890358703
  0
ARC
  5
552
330
1A
100
AcDbEntity
  8
SEIHIN
 62
     3
100
AcDbCircle
 10
245.2327035960248
 20
157.5103879203181
 30
0.0
 40
2.500008669750064
100
AcDbArc
 50
53.13359364792484
 51
126.8702261980353
  0
ARC
  5
553
330
1A
100
AcDbEntity
  8
SEIHIN
 62
     3
100
AcDbCircle
 10
245.2325869255246
 20
155.5211858315661
 30
0.0
 40
2.814608423012969
100
AcDbArc
 50
57.79610406378786
 51
122.2038959362121
  0
ARC
  5
554
330
1A
100
AcDbEntity
  8
SEIHIN
 62
     3
100
AcDbCircle
 10
245.2325869255246
 20
152.9908921968336
 30
0.0
 40
3.358480057745499
100
AcDbArc
 50
63.47228793415943
 51
116.5277120658405
  0
ARC
  5
555
330
1A
100
AcDbEntity
  8
SEIHIN
 62
     3
100
AcDbCircle
 10
248.232517320602
 20
157.0134885745139
 30
0.0
 40
2.571062181493626
100
AcDbArc
 50
54.30689124549584
 51
125.6892890358703
  0
ARC
  5
556
330
1A
100
AcDbEntity
  8
SEIHIN
 62
     3
100
AcDbCircle
 10
248.2327035960247
 20
157.5103879203181
 30
0.0
 40
2.500008669750064
100
AcDbArc
 50
53.13359364792484
 51
126.8702261980353
  0
ARC
  5
557
330
1A
100
AcDbEntity
  8
SEIHIN
 62
     3
100
AcDbCircle
 10
248.2325869255246
 20
155.5211858315661
 30
0.0
 40
2.814608423012969
100
AcDbArc
 50
57.79610406378786
 51
122.2038959362121
  0
ARC
  5
558
330
1A
100
AcDbEntity
  8
SEIHIN
 62
     3
100
AcDbCircle
 10
248.2325869255246
 20
152.9908921968336
 30
0.0
 40
3.358480057745499
100
AcDbArc
 50
63.47228793415943
 51
116.5277120658405
  0
ARC
  5
559
330
1A
100
AcDbEntity
  8
SEIHIN
 62
     3
100
AcDbCircle
 10
254.232517320602
 20
157.0134885745139
 30
0.0
 40
2.57106218149363
100
AcDbArc
 50
54.30689124549572
 51
125.6892890358701
  0
ARC
  5
55A
330
1A
100
AcDbEntity
  8
SEIHIN
 62
     3
100
AcDbCircle
 10
254.2327035960247
 20
157.5103879203181
 30
0.0
 40
2.500008669750068
100
AcDbArc
 50
53.13359364792471
 51
126.8702261980352
  0
ARC
  5
55B
330
1A
100
AcDbEntity
  8
SEIHIN
 62
     3
100
AcDbCircle
 10
254.2325869255246
 20
155.5211858315661
 30
0.0
 40
2.814608423012969
100
AcDbArc
 50
57.79610406378786
 51
122.2038959362121
  0
ARC
  5
55C
330
1A
100
AcDbEntity
  8
SEIHIN
 62
     3
100
AcDbCircle
 10
254.2325869255246
 20
152.9908921968336
 30
0.0
 40
3.358480057745499
100
AcDbArc
 50
63.47228793415943
 51
116.5277120658405
  0
ARC
  5
55D
330
1A
100
AcDbEntity
  8
SEIHIN
 62
     3
100
AcDbCircle
 10
257.2325877411941
 20
157.0134881384745
 30
0.0
 40
2.571103618898296
100
AcDbArc
 50
88.39755314233279
 51
125.690557931433
  0
ARC
  5
55E
330
1A
100
AcDbEntity
  8
SEIHIN
 62
     3
100
AcDbCircle
 10
257.2327100109415
 20
157.5103576960304
 30
0.0
 40
2.500036698089428
100
AcDbArc
 50
85.77061453573175
 51
126.8699282001876
  0
ARC
  5
55F
330
1A
100
AcDbEntity
  8
SEIHIN
 62
     3
100
AcDbCircle
 10
257.232524057693
 20
155.5211746738889
 30
0.0
 40
2.814584360387043
100
AcDbArc
 50
95.41761260848458
 51
122.2026919903036
  0
ARC
  5
560
330
1A
100
AcDbEntity
  8
SEIHIN
 62
     3
100
AcDbCircle
 10
257.2328463549079
 20
152.9909839956457
 30
0.0
 40
3.358513803863888
100
AcDbArc
 50
104.1716906169101
 51
116.5323713939763
  0
LINE
  5
561
330
1A
100
AcDbEntity
  8
SEIHIN
 62
     4
100
AcDbLine
 10
260.6346869255246
 20
152.6933862545791
 30
0.0
 11
263.5380869255246
 21
163.5290862545791
 31
0.0
  0
LINE
  5
562
330
1A
100
AcDbEntity
  8
SEIHIN
 62
     3
100
AcDbLine
 10
261.7325869255246
 20
156.7910862545791
 30
0.0
 11
261.7325869255246
 21
153.3272862545791
 31
0.0
  0
ARC
  5
563
330
1A
100
AcDbEntity
  8
SEIHIN
 62
     3
100
AcDbCircle
 10
266.2325869255246
 20
141.9892810006157
 30
0.0
 40
8.756438753963424
100
AcDbArc
 50
80.13644121186997
 51
99.86355878813004
  0
ARC
  5
564
330
1A
100
AcDbEntity
  8
SEIHIN
 62
     3
100
AcDbCircle
 10
266.2325869255246
 20
149.1360781808605
 30
0.0
 40
4.624440073718562
100
AcDbArc
 50
71.07297704306049
 51
108.9270229569395
  0
ARC
  5
565
330
1A
100
AcDbEntity
  8
SEIHIN
 62
     3
100
AcDbCircle
 10
266.2328744923663
 20
153.0317415085426
 30
0.0
 40
8.756438758828112
100
AcDbArc
 50
260.1345313525539
 51
279.8616489288141
  0
ARC
  5
566
330
1A
100
AcDbEntity
  8
SEIHIN
 62
     3
100
AcDbCircle
 10
263.2328744923663
 20
153.0317415085426
 30
0.0
 40
8.756438758828112
100
AcDbArc
 50
260.1345313525539
 51
279.8616489288141
  0
ARC
  5
567
330
1A
100
AcDbEntity
  8
SEIHIN
 62
     3
100
AcDbCircle
 10
260.2327260254923
 20
153.0319363756543
 30
0.0
 40
8.756656175221054
100
AcDbArc
 50
276.8114530211547
 51
279.862387635186
  0
ARC
  5
568
330
1A
100
AcDbEntity
  8
SEIHIN
 62
     3
100
AcDbCircle
 10
263.2325869255246
 20
149.1360781808605
 30
0.0
 40
4.624440073718562
100
AcDbArc
 50
71.07297704306049
 51
108.9270229569395
  0
LINE
  5
569
330
1A
100
AcDbEntity
  8
SEIHIN
 62
     4
100
AcDbLine
 10
260.6346869255246
 20
152.6933862545791
 30
0.0
 11
264.0366869255247
 21
154.6575862545791
 31
0.0
  0
ARC
  5
56A
330
1A
100
AcDbEntity
  8
SEIHIN
 62
     3
100
AcDbCircle
 10
260.2328535526051
 20
149.1360733734286
 30
0.0
 40
4.624358144069741
100
AcDbArc
 50
71.07612125946289
 51
81.6138625823874
  0
ARC
  5
56B
330
1A
100
AcDbEntity
  8
SEIHIN
 62
     3
100
AcDbCircle
 10
263.2326204661814
 20
141.9893737819331
 30
0.0
 40
8.756341598512992
100
AcDbArc
 50
80.13655343813022
 51
91.60354875745586
  0
ARC
  5
56C
330
1A
100
AcDbEntity
  8
SEIHIN
 62
     3
100
AcDbCircle
 10
269.2328744923663
 20
153.0317415085426
 30
0.0
 40
8.756438758828112
100
AcDbArc
 50
260.1345313525539
 51
279.8616489288141
  0
ARC
  5
56D
330
1A
100
AcDbEntity
  8
SEIHIN
 62
     3
100
AcDbCircle
 10
272.2328744923663
 20
153.0317415085426
 30
0.0
 40
8.756438758828112
100
AcDbArc
 50
260.1345313525539
 51
279.8616489288141
  0
ARC
  5
56E
330
1A
100
AcDbEntity
  8
SEIHIN
 62
     3
100
AcDbCircle
 10
269.2325869255246
 20
149.1360781808605
 30
0.0
 40
4.624440073718562
100
AcDbArc
 50
71.07297704306049
 51
108.9270229569395
  0
ARC
  5
56F
330
1A
100
AcDbEntity
  8
SEIHIN
 62
     3
100
AcDbCircle
 10
269.2325869255246
 20
141.9892810006157
 30
0.0
 40
8.756438753963424
100
AcDbArc
 50
80.13644121186997
 51
99.86355878813004
  0
ARC
  5
570
330
1A
100
AcDbEntity
  8
SEIHIN
 62
     3
100
AcDbCircle
 10
272.2325869255246
 20
149.1360781808605
 30
0.0
 40
4.624440073718562
100
AcDbArc
 50
71.07297704306049
 51
108.9270229569395
  0
ARC
  5
571
330
1A
100
AcDbEntity
  8
SEIHIN
 62
     3
100
AcDbCircle
 10
272.2325869255246
 20
141.9892810006157
 30
0.0
 40
8.756438753963424
100
AcDbArc
 50
80.13644121186997
 51
99.86355878813004
  0
ARC
  5
572
330
1A
100
AcDbEntity
  8
SEIHIN
 62
     3
100
AcDbCircle
 10
266.2325869255246
 20
155.5211858315661
 30
0.0
 40
2.814608423012969
100
AcDbArc
 50
57.79610406378786
 51
122.2038959362121
  0
ARC
  5
573
330
1A
100
AcDbEntity
  8
SEIHIN
 62
     3
100
AcDbCircle
 10
266.2325173206019
 20
157.0134885745139
 30
0.0
 40
2.57106218149363
100
AcDbArc
 50
54.30689124549572
 51
125.6892890358701
  0
ARC
  5
574
330
1A
100
AcDbEntity
  8
SEIHIN
 62
     3
100
AcDbCircle
 10
266.2327035960247
 20
157.5103879203181
 30
0.0
 40
2.500008669750068
100
AcDbArc
 50
53.13359364792471
 51
126.8702261980352
  0
ARC
  5
575
330
1A
100
AcDbEntity
  8
SEIHIN
 62
     3
100
AcDbCircle
 10
266.2325869255246
 20
152.9908921968336
 30
0.0
 40
3.358480057745499
100
AcDbArc
 50
63.47228793415943
 51
116.5277120658405
  0
ARC
  5
576
330
1A
100
AcDbEntity
  8
SEIHIN
 62
     3
100
AcDbCircle
 10
263.2325981682789
 20
155.5211848699694
 30
0.0
 40
2.814603245048595
100
AcDbArc
 50
57.7963081510504
 51
114.1629697386473
  0
ARC
  5
577
330
1A
100
AcDbEntity
  8
SEIHIN
 62
     3
100
AcDbCircle
 10
263.2325869255246
 20
152.9908921968336
 30
0.0
 40
3.358480057745499
100
AcDbArc
 50
63.47228793415943
 51
116.5277120658405
  0
ARC
  5
578
330
1A
100
AcDbEntity
  8
SEIHIN
 62
     3
100
AcDbCircle
 10
263.2325617300656
 20
157.0134890598319
 30
0.0
 40
2.571035877175355
100
AcDbArc
 50
54.30768869879659
 51
107.7607113013015
  0
ARC
  5
579
330
1A
100
AcDbEntity
  8
SEIHIN
 62
     3
100
AcDbCircle
 10
263.2326585308317
 20
157.5104056471069
 30
0.0
 40
2.500021525025858
100
AcDbArc
 50
53.13252362382193
 51
105.3376229801946
  0
ARC
  5
57A
330
1A
100
AcDbEntity
  8
SEIHIN
 62
     3
100
AcDbCircle
 10
269.2325173206019
 20
157.0134885745139
 30
0.0
 40
2.57106218149363
100
AcDbArc
 50
54.30689124549572
 51
125.6892890358701
  0
ARC
  5
57B
330
1A
100
AcDbEntity
  8
SEIHIN
 62
     3
100
AcDbCircle
 10
269.2327035960247
 20
157.5103879203181
 30
0.0
 40
2.500008669750068
100
AcDbArc
 50
53.13359364792471
 51
126.8702261980352
  0
ARC
  5
57C
330
1A
100
AcDbEntity
  8
SEIHIN
 62
     3
100
AcDbCircle
 10
269.2325869255246
 20
155.5211858315661
 30
0.0
 40
2.814608423012969
100
AcDbArc
 50
57.79610406378786
 51
122.2038959362121
  0
ARC
  5
57D
330
1A
100
AcDbEntity
  8
SEIHIN
 62
     3
100
AcDbCircle
 10
269.2325869255246
 20
152.9908921968336
 30
0.0
 40
3.358480057745499
100
AcDbArc
 50
63.47228793415943
 51
116.5277120658405
  0
ARC
  5
57E
330
1A
100
AcDbEntity
  8
SEIHIN
 62
     3
100
AcDbCircle
 10
272.2325173206019
 20
157.0134885745139
 30
0.0
 40
2.571062181493629
100
AcDbArc
 50
54.30689124549575
 51
125.6892890358702
  0
ARC
  5
57F
330
1A
100
AcDbEntity
  8
SEIHIN
 62
     3
100
AcDbCircle
 10
272.2327035960247
 20
157.5103879203181
 30
0.0
 40
2.500008669750067
100
AcDbArc
 50
53.13359364792479
 51
126.8702261980352
  0
ARC
  5
580
330
1A
100
AcDbEntity
  8
SEIHIN
 62
     3
100
AcDbCircle
 10
272.2325869255246
 20
155.5211858315661
 30
0.0
 40
2.814608423012969
100
AcDbArc
 50
57.79610406378786
 51
122.2038959362121
  0
ARC
  5
581
330
1A
100
AcDbEntity
  8
SEIHIN
 62
     3
100
AcDbCircle
 10
272.2325869255246
 20
152.9908921968336
 30
0.0
 40
3.358480057745499
100
AcDbArc
 50
63.47228793415943
 51
116.5277120658405
  0
ARC
  5
582
330
1A
100
AcDbEntity
  8
SEIHIN
 62
     3
100
AcDbCircle
 10
308.2325673227314
 20
157.0134828589131
 30
0.0
 40
2.571095994644349
100
AcDbArc
 50
54.30606067210622
 51
125.6901197365794
  0
ARC
  5
583
330
1A
100
AcDbEntity
  8
SEIHIN
 62
     3
100
AcDbCircle
 10
308.2328035960248
 20
157.5103879203181
 30
0.0
 40
2.500008669750021
100
AcDbArc
 50
53.1335936479247
 51
126.8702261980352
  0
ARC
  5
584
330
1A
100
AcDbEntity
  8
SEIHIN
 62
     3
100
AcDbCircle
 10
308.2326869255246
 20
155.5211858315661
 30
0.0
 40
2.814608423012969
100
AcDbArc
 50
57.79610406378786
 51
122.2038959362121
  0
ARC
  5
585
330
1A
100
AcDbEntity
  8
SEIHIN
 62
     3
100
AcDbCircle
 10
308.2326869255246
 20
149.1360781808605
 30
0.0
 40
4.624440073718562
100
AcDbArc
 50
71.07297704306049
 51
108.9270229569395
  0
ARC
  5
586
330
1A
100
AcDbEntity
  8
SEIHIN
 62
     3
100
AcDbCircle
 10
308.2325869255246
 20
141.9892810006157
 30
0.0
 40
8.756438753963424
100
AcDbArc
 50
80.13644121186997
 51
99.86355878813004
  0
ARC
  5
587
330
1A
100
AcDbEntity
  8
SEIHIN
 62
     3
100
AcDbCircle
 10
308.2328744923663
 20
153.0317415085426
 30
0.0
 40
8.756438758828112
100
AcDbArc
 50
260.1345313525539
 51
279.8616489288141
  0
ARC
  5
588
330
1A
100
AcDbEntity
  8
SEIHIN
 62
     3
100
AcDbCircle
 10
308.2326369255246
 20
152.9908917667873
 30
0.0
 40
3.358502774341738
100
AcDbArc
 50
63.47152801975514
 51
116.5284719802448
  0
ARC
  5
589
330
1A
100
AcDbEntity
  8
SEIHIN
 62
     3
100
AcDbCircle
 10
290.2325173206019
 20
157.0134885745139
 30
0.0
 40
2.571062181493629
100
AcDbArc
 50
54.30689124549576
 51
125.6892890358702
  0
ARC
  5
58A
330
1A
100
AcDbEntity
  8
SEIHIN
 62
     3
100
AcDbCircle
 10
290.2327035960247
 20
157.5103879203181
 30
0.0
 40
2.500008669750067
100
AcDbArc
 50
53.13359364792476
 51
126.8702261980352
  0
ARC
  5
58B
330
1A
100
AcDbEntity
  8
SEIHIN
 62
     3
100
AcDbCircle
 10
290.2325869255246
 20
155.5211858315661
 30
0.0
 40
2.814608423012969
100
AcDbArc
 50
57.79610406378786
 51
122.2038959362121
  0
ARC
  5
58C
330
1A
100
AcDbEntity
  8
SEIHIN
 62
     3
100
AcDbCircle
 10
290.2325869255246
 20
141.9892810006157
 30
0.0
 40
8.756438753963424
100
AcDbArc
 50
80.13644121186997
 51
99.86355878813004
  0
ARC
  5
58D
330
1A
100
AcDbEntity
  8
SEIHIN
 62
     3
100
AcDbCircle
 10
290.2325869255246
 20
149.1360781808605
 30
0.0
 40
4.624440073718562
100
AcDbArc
 50
71.07297704306049
 51
108.9270229569395
  0
ARC
  5
58E
330
1A
100
AcDbEntity
  8
SEIHIN
 62
     3
100
AcDbCircle
 10
290.2328744923663
 20
153.0317415085426
 30
0.0
 40
8.756438758828112
100
AcDbArc
 50
260.1345313525539
 51
279.8616489288141
  0
ARC
  5
58F
330
1A
100
AcDbEntity
  8
SEIHIN
 62
     3
100
AcDbCircle
 10
290.2325869255246
 20
152.9908921968336
 30
0.0
 40
3.358480057745499
100
AcDbArc
 50
63.47228793415943
 51
116.5277120658405
  0
ARC
  5
590
330
1A
100
AcDbEntity
  8
SEIHIN
 62
     3
100
AcDbCircle
 10
281.2325869255246
 20
141.9892810006157
 30
0.0
 40
8.756438753963424
100
AcDbArc
 50
80.13644121186997
 51
99.86355878813004
  0
ARC
  5
591
330
1A
100
AcDbEntity
  8
SEIHIN
 62
     3
100
AcDbCircle
 10
281.2325869255246
 20
149.1360781808605
 30
0.0
 40
4.624440073718562
100
AcDbArc
 50
71.07297704306049
 51
108.9270229569395
  0
ARC
  5
592
330
1A
100
AcDbEntity
  8
SEIHIN
 62
     3
100
AcDbCircle
 10
281.2328744923663
 20
153.0317415085426
 30
0.0
 40
8.756438758828112
100
AcDbArc
 50
260.1345313525539
 51
279.8616489288141
  0
ARC
  5
593
330
1A
100
AcDbEntity
  8
SEIHIN
 62
     3
100
AcDbCircle
 10
278.2328744923663
 20
153.0317415085426
 30
0.0
 40
8.756438758828112
100
AcDbArc
 50
260.1345313525539
 51
279.8616489288141
  0
ARC
  5
594
330
1A
100
AcDbEntity
  8
SEIHIN
 62
     3
100
AcDbCircle
 10
278.2325869255246
 20
149.1360781808605
 30
0.0
 40
4.624440073718562
100
AcDbArc
 50
71.07297704306049
 51
108.9270229569395
  0
ARC
  5
595
330
1A
100
AcDbEntity
  8
SEIHIN
 62
     3
100
AcDbCircle
 10
278.2325869255246
 20
141.9892810006157
 30
0.0
 40
8.756438753963424
100
AcDbArc
 50
80.13644121186997
 51
99.86355878813004
  0
ARC
  5
596
330
1A
100
AcDbEntity
  8
SEIHIN
 62
     3
100
AcDbCircle
 10
287.2328744923663
 20
153.0317415085426
 30
0.0
 40
8.756438758828112
100
AcDbArc
 50
260.1345313525539
 51
279.8616489288141
  0
ARC
  5
597
330
1A
100
AcDbEntity
  8
SEIHIN
 62
     3
100
AcDbCircle
 10
284.2328744923663
 20
153.0317415085426
 30
0.0
 40
8.756438758828112
100
AcDbArc
 50
260.1345313525539
 51
279.8616489288141
  0
ARC
  5
598
330
1A
100
AcDbEntity
  8
SEIHIN
 62
     3
100
AcDbCircle
 10
287.2325869255246
 20
149.1360781808605
 30
0.0
 40
4.624440073718562
100
AcDbArc
 50
71.07297704306049
 51
108.9270229569395
  0
ARC
  5
599
330
1A
100
AcDbEntity
  8
SEIHIN
 62
     3
100
AcDbCircle
 10
287.2325869255246
 20
141.9892810006157
 30
0.0
 40
8.756438753963424
100
AcDbArc
 50
80.13644121186997
 51
99.86355878813004
  0
ARC
  5
59A
330
1A
100
AcDbEntity
  8
SEIHIN
 62
     3
100
AcDbCircle
 10
284.2325869255246
 20
149.1360781808605
 30
0.0
 40
4.624440073718562
100
AcDbArc
 50
71.07297704306049
 51
108.9270229569395
  0
ARC
  5
59B
330
1A
100
AcDbEntity
  8
SEIHIN
 62
     3
100
AcDbCircle
 10
284.2325869255246
 20
141.9892810006157
 30
0.0
 40
8.756438753963424
100
AcDbArc
 50
80.13644121186997
 51
99.86355878813004
  0
ARC
  5
59C
330
1A
100
AcDbEntity
  8
SEIHIN
 62
     3
100
AcDbCircle
 10
281.2325869255246
 20
155.5211858315661
 30
0.0
 40
2.814608423012969
100
AcDbArc
 50
57.79610406378786
 51
122.2038959362121
  0
ARC
  5
59D
330
1A
100
AcDbEntity
  8
SEIHIN
 62
     3
100
AcDbCircle
 10
281.2325173206019
 20
157.0134885745139
 30
0.0
 40
2.571062181493629
100
AcDbArc
 50
54.30689124549575
 51
125.6892890358702
  0
ARC
  5
59E
330
1A
100
AcDbEntity
  8
SEIHIN
 62
     3
100
AcDbCircle
 10
281.2327035960247
 20
157.5103879203181
 30
0.0
 40
2.500008669750067
100
AcDbArc
 50
53.13359364792476
 51
126.8702261980352
  0
ARC
  5
59F
330
1A
100
AcDbEntity
  8
SEIHIN
 62
     3
100
AcDbCircle
 10
281.2325869255246
 20
152.9908921968336
 30
0.0
 40
3.358480057745499
100
AcDbArc
 50
63.47228793415943
 51
116.5277120658405
  0
ARC
  5
5A0
330
1A
100
AcDbEntity
  8
SEIHIN
 62
     3
100
AcDbCircle
 10
278.2325173206019
 20
157.0134885745139
 30
0.0
 40
2.571062181493629
100
AcDbArc
 50
54.30689124549575
 51
125.6892890358702
  0
ARC
  5
5A1
330
1A
100
AcDbEntity
  8
SEIHIN
 62
     3
100
AcDbCircle
 10
278.2327035960247
 20
157.5103879203181
 30
0.0
 40
2.500008669750067
100
AcDbArc
 50
53.13359364792479
 51
126.8702261980352
  0
ARC
  5
5A2
330
1A
100
AcDbEntity
  8
SEIHIN
 62
     3
100
AcDbCircle
 10
278.2325869255246
 20
155.5211858315661
 30
0.0
 40
2.814608423012969
100
AcDbArc
 50
57.79610406378786
 51
122.2038959362121
  0
ARC
  5
5A3
330
1A
100
AcDbEntity
  8
SEIHIN
 62
     3
100
AcDbCircle
 10
278.2325869255246
 20
152.9908921968336
 30
0.0
 40
3.358480057745499
100
AcDbArc
 50
63.47228793415943
 51
116.5277120658405
  0
ARC
  5
5A4
330
1A
100
AcDbEntity
  8
SEIHIN
 62
     3
100
AcDbCircle
 10
287.2325173206019
 20
157.0134885745139
 30
0.0
 40
2.571062181493629
100
AcDbArc
 50
54.30689124549576
 51
125.6892890358702
  0
ARC
  5
5A5
330
1A
100
AcDbEntity
  8
SEIHIN
 62
     3
100
AcDbCircle
 10
287.2327035960247
 20
157.5103879203181
 30
0.0
 40
2.500008669750067
100
AcDbArc
 50
53.13359364792476
 51
126.8702261980352
  0
ARC
  5
5A6
330
1A
100
AcDbEntity
  8
SEIHIN
 62
     3
100
AcDbCircle
 10
287.2325869255246
 20
155.5211858315661
 30
0.0
 40
2.814608423012969
100
AcDbArc
 50
57.79610406378786
 51
122.2038959362121
  0
ARC
  5
5A7
330
1A
100
AcDbEntity
  8
SEIHIN
 62
     3
100
AcDbCircle
 10
287.2325869255246
 20
152.9908921968336
 30
0.0
 40
3.358480057745499
100
AcDbArc
 50
63.47228793415943
 51
116.5277120658405
  0
ARC
  5
5A8
330
1A
100
AcDbEntity
  8
SEIHIN
 62
     3
100
AcDbCircle
 10
284.2325173206019
 20
157.0134885745139
 30
0.0
 40
2.571062181493629
100
AcDbArc
 50
54.30689124549576
 51
125.6892890358702
  0
ARC
  5
5A9
330
1A
100
AcDbEntity
  8
SEIHIN
 62
     3
100
AcDbCircle
 10
284.2327035960247
 20
157.5103879203181
 30
0.0
 40
2.500008669750067
100
AcDbArc
 50
53.13359364792476
 51
126.8702261980352
  0
ARC
  5
5AA
330
1A
100
AcDbEntity
  8
SEIHIN
 62
     3
100
AcDbCircle
 10
284.2325869255246
 20
155.5211858315661
 30
0.0
 40
2.814608423012969
100
AcDbArc
 50
57.79610406378786
 51
122.2038959362121
  0
ARC
  5
5AB
330
1A
100
AcDbEntity
  8
SEIHIN
 62
     3
100
AcDbCircle
 10
284.2325869255246
 20
152.9908921968336
 30
0.0
 40
3.358480057745499
100
AcDbArc
 50
63.47228793415943
 51
116.5277120658405
  0
ARC
  5
5AC
330
1A
100
AcDbEntity
  8
SEIHIN
 62
     3
100
AcDbCircle
 10
299.2325869255246
 20
141.9892810006157
 30
0.0
 40
8.756438753963424
100
AcDbArc
 50
80.13644121186997
 51
99.86355878813004
  0
ARC
  5
5AD
330
1A
100
AcDbEntity
  8
SEIHIN
 62
     3
100
AcDbCircle
 10
299.2326869255246
 20
149.1360781808605
 30
0.0
 40
4.624440073718562
100
AcDbArc
 50
71.07297704306049
 51
108.9270229569395
  0
ARC
  5
5AE
330
1A
100
AcDbEntity
  8
SEIHIN
 62
     3
100
AcDbCircle
 10
299.2328744923663
 20
153.0317415085426
 30
0.0
 40
8.756438758828112
100
AcDbArc
 50
260.1345313525539
 51
279.8616489288141
  0
ARC
  5
5AF
330
1A
100
AcDbEntity
  8
SEIHIN
 62
     3
100
AcDbCircle
 10
296.2328744923663
 20
153.0317415085426
 30
0.0
 40
8.756438758828112
100
AcDbArc
 50
260.1345313525539
 51
279.8616489288141
  0
ARC
  5
5B0
330
1A
100
AcDbEntity
  8
SEIHIN
 62
     3
100
AcDbCircle
 10
293.2328744923663
 20
153.0317415085426
 30
0.0
 40
8.756438758828112
100
AcDbArc
 50
260.1345313525539
 51
279.8616489288141
  0
ARC
  5
5B1
330
1A
100
AcDbEntity
  8
SEIHIN
 62
     3
100
AcDbCircle
 10
296.2325869255246
 20
149.1360781808605
 30
0.0
 40
4.624440073718562
100
AcDbArc
 50
71.07297704306049
 51
108.9270229569395
  0
ARC
  5
5B2
330
1A
100
AcDbEntity
  8
SEIHIN
 62
     3
100
AcDbCircle
 10
296.2325869255246
 20
141.9892810006157
 30
0.0
 40
8.756438753963424
100
AcDbArc
 50
80.13644121186997
 51
99.86355878813004
  0
ARC
  5
5B3
330
1A
100
AcDbEntity
  8
SEIHIN
 62
     3
100
AcDbCircle
 10
293.2325869255246
 20
149.1360781808605
 30
0.0
 40
4.624440073718562
100
AcDbArc
 50
71.07297704306049
 51
108.9270229569395
  0
ARC
  5
5B4
330
1A
100
AcDbEntity
  8
SEIHIN
 62
     3
100
AcDbCircle
 10
293.2325869255246
 20
141.9892810006157
 30
0.0
 40
8.756438753963424
100
AcDbArc
 50
80.13644121186997
 51
99.86355878813004
  0
ARC
  5
5B5
330
1A
100
AcDbEntity
  8
SEIHIN
 62
     3
100
AcDbCircle
 10
302.2328744923663
 20
153.0317415085426
 30
0.0
 40
8.756438758828112
100
AcDbArc
 50
260.1345313525539
 51
279.8616489288141
  0
ARC
  5
5B6
330
1A
100
AcDbEntity
  8
SEIHIN
 62
     3
100
AcDbCircle
 10
305.2328744923663
 20
153.0317415085426
 30
0.0
 40
8.756438758828112
100
AcDbArc
 50
260.1345313525539
 51
279.8616489288141
  0
ARC
  5
5B7
330
1A
100
AcDbEntity
  8
SEIHIN
 62
     3
100
AcDbCircle
 10
302.2326869255246
 20
149.1360781808605
 30
0.0
 40
4.624440073718562
100
AcDbArc
 50
71.07297704306049
 51
108.9270229569395
  0
ARC
  5
5B8
330
1A
100
AcDbEntity
  8
SEIHIN
 62
     3
100
AcDbCircle
 10
302.2325869255246
 20
141.9892810006157
 30
0.0
 40
8.756438753963424
100
AcDbArc
 50
80.13644121186997
 51
99.86355878813004
  0
ARC
  5
5B9
330
1A
100
AcDbEntity
  8
SEIHIN
 62
     3
100
AcDbCircle
 10
305.2325869255246
 20
141.9892810006157
 30
0.0
 40
8.756438753963424
100
AcDbArc
 50
80.13644121186997
 51
99.86355878813004
  0
ARC
  5
5BA
330
1A
100
AcDbEntity
  8
SEIHIN
 62
     3
100
AcDbCircle
 10
305.2326869255246
 20
149.1360781808605
 30
0.0
 40
4.624440073718562
100
AcDbArc
 50
71.07297704306049
 51
108.9270229569395
  0
ARC
  5
5BB
330
1A
100
AcDbEntity
  8
SEIHIN
 62
     3
100
AcDbCircle
 10
299.2325869255246
 20
155.5211858315661
 30
0.0
 40
2.814608423012969
100
AcDbArc
 50
57.79610406378786
 51
122.2038959362121
  0
ARC
  5
5BC
330
1A
100
AcDbEntity
  8
SEIHIN
 62
     3
100
AcDbCircle
 10
299.2324673227315
 20
157.013482858913
 30
0.0
 40
2.571095994644397
100
AcDbArc
 50
54.30606067210622
 51
125.6901197365794
  0
ARC
  5
5BD
330
1A
100
AcDbEntity
  8
SEIHIN
 62
     3
100
AcDbCircle
 10
299.2327035960247
 20
157.5103879203181
 30
0.0
 40
2.500008669750067
100
AcDbArc
 50
53.13359364792479
 51
126.8702261980352
  0
ARC
  5
5BE
330
1A
100
AcDbEntity
  8
SEIHIN
 62
     3
100
AcDbCircle
 10
299.2325869255246
 20
152.9908921968336
 30
0.0
 40
3.358480057745499
100
AcDbArc
 50
63.47228793415943
 51
116.5277120658405
  0
ARC
  5
5BF
330
1A
100
AcDbEntity
  8
SEIHIN
 62
     3
100
AcDbCircle
 10
296.2325173206019
 20
157.0134885745139
 30
0.0
 40
2.571062181493629
100
AcDbArc
 50
54.30689124549575
 51
125.6892890358702
  0
ARC
  5
5C0
330
1A
100
AcDbEntity
  8
SEIHIN
 62
     3
100
AcDbCircle
 10
296.2327035960247
 20
157.5103879203181
 30
0.0
 40
2.500008669750067
100
AcDbArc
 50
53.13359364792479
 51
126.8702261980352
  0
ARC
  5
5C1
330
1A
100
AcDbEntity
  8
SEIHIN
 62
     3
100
AcDbCircle
 10
296.2325869255246
 20
155.5211858315661
 30
0.0
 40
2.814608423012969
100
AcDbArc
 50
57.79610406378786
 51
122.2038959362121
  0
ARC
  5
5C2
330
1A
100
AcDbEntity
  8
SEIHIN
 62
     3
100
AcDbCircle
 10
296.2325869255246
 20
152.9908921968336
 30
0.0
 40
3.358480057745499
100
AcDbArc
 50
63.47228793415943
 51
116.5277120658405
  0
ARC
  5
5C3
330
1A
100
AcDbEntity
  8
SEIHIN
 62
     3
100
AcDbCircle
 10
293.2325173206019
 20
157.0134885745139
 30
0.0
 40
2.571062181493629
100
AcDbArc
 50
54.30689124549575
 51
125.6892890358702
  0
ARC
  5
5C4
330
1A
100
AcDbEntity
  8
SEIHIN
 62
     3
100
AcDbCircle
 10
293.2327035960247
 20
157.5103879203181
 30
0.0
 40
2.500008669750067
100
AcDbArc
 50
53.13359364792476
 51
126.8702261980352
  0
ARC
  5
5C5
330
1A
100
AcDbEntity
  8
SEIHIN
 62
     3
100
AcDbCircle
 10
293.2325869255246
 20
155.5211858315661
 30
0.0
 40
2.814608423012969
100
AcDbArc
 50
57.79610406378786
 51
122.2038959362121
  0
ARC
  5
5C6
330
1A
100
AcDbEntity
  8
SEIHIN
 62
     3
100
AcDbCircle
 10
293.2325869255246
 20
152.9908921968336
 30
0.0
 40
3.358480057745499
100
AcDbArc
 50
63.47228793415943
 51
116.5277120658405
  0
ARC
  5
5C7
330
1A
100
AcDbEntity
  8
SEIHIN
 62
     3
100
AcDbCircle
 10
302.2324673227315
 20
157.013482858913
 30
0.0
 40
2.571095994644397
100
AcDbArc
 50
54.30606067210622
 51
125.6901197365794
  0
ARC
  5
5C8
330
1A
100
AcDbEntity
  8
SEIHIN
 62
     3
100
AcDbCircle
 10
302.2327035960247
 20
157.5103879203181
 30
0.0
 40
2.500008669750068
100
AcDbArc
 50
53.13359364792474
 51
126.8702261980352
  0
ARC
  5
5C9
330
1A
100
AcDbEntity
  8
SEIHIN
 62
     3
100
AcDbCircle
 10
302.2325869255246
 20
155.5211858315661
 30
0.0
 40
2.814608423012969
100
AcDbArc
 50
57.79610406378786
 51
122.2038959362121
  0
ARC
  5
5CA
330
1A
100
AcDbEntity
  8
SEIHIN
 62
     3
100
AcDbCircle
 10
302.2325869255246
 20
152.9908921968336
 30
0.0
 40
3.358480057745499
100
AcDbArc
 50
63.47228793415943
 51
116.5277120658405
  0
ARC
  5
5CB
330
1A
100
AcDbEntity
  8
SEIHIN
 62
     3
100
AcDbCircle
 10
305.2324673227315
 20
157.013482858913
 30
0.0
 40
2.571095994644397
100
AcDbArc
 50
54.30606067210622
 51
125.6901197365794
  0
ARC
  5
5CC
330
1A
100
AcDbEntity
  8
SEIHIN
 62
     3
100
AcDbCircle
 10
305.2327035960247
 20
157.5103879203181
 30
0.0
 40
2.500008669750068
100
AcDbArc
 50
53.13359364792471
 51
126.8702261980352
  0
ARC
  5
5CD
330
1A
100
AcDbEntity
  8
SEIHIN
 62
     3
100
AcDbCircle
 10
305.2325869255246
 20
155.5211858315661
 30
0.0
 40
2.814608423012969
100
AcDbArc
 50
57.79610406378786
 51
122.2038959362121
  0
ARC
  5
5CE
330
1A
100
AcDbEntity
  8
SEIHIN
 62
     3
100
AcDbCircle
 10
305.2325869255246
 20
152.9908921968336
 30
0.0
 40
3.358480057745499
100
AcDbArc
 50
63.47228793415943
 51
116.5277120658405
  0
VIEWPORT
  5
22
330
17
100
AcDbEntity
 67
     1
  8
0
100
AcDbViewport
 10
313.6808219178082
 20
148.5
 30
0.0
 40
627.3616438356165
 41
297.0
 68
     2
 69
     1
1001
ACAD
1000
MVIEW
1002
{
1070
    16
1010
0.0
1020
0.0
1030
0.0
1010
0.0
1020
0.0
1030
1.0
1040
0.0
1040
297.0
1040
313.6808219178082
1040
148.5
1040
50.0
1040
0.0
1040
0.0
1070
     0
1070
   100
1070
     1
1070
     0
1070
     0
1070
     0
1070
     0
1070
     0
1040
0.0
1040
0.0
1040
0.0
1040
1.0
1040
1.0
1040
10.0
1040
10.0
1070
     0
1002
{
1002
}
1002
}
  0
VIEWPORT
  5
64
330
17
100
AcDbEntity
 67
     1
  8
VIEWPORT
100
AcDbViewport
 10
210.0
 20
148.5
 30
0.0
 40
420.0
 41
297.0
 68
     1
 69
     2
1001
ACAD
1000
MVIEW
1002
{
1070
    16
1010
0.0
1020
0.0
1030
0.0
1010
0.0
1020
0.0
1030
1.0
1040
0.0
1040
302.9399999999998
1040
210.0
1040
148.5
1040
50.0
1040
0.0
1040
0.0
1070
     0
1070
   100
1070
     1
1070
     0
1070
     0
1070
     0
1070
     0
1070
     0
1040
0.0
1040
0.0
1040
0.0
1040
5.0
1040
5.0
1040
0.0
1040
0.0
1070
     0
1002
{
1002
}
1002
}
  0
ENDSEC
  0
SECTION
  2
OBJECTS
  0
DICTIONARY
  5
C
330
0
100
AcDbDictionary
  3
ACAD_GROUP
350
D
  3
ACAD_MLINESTYLE
350
E
  3
ACAD_LAYOUT
350
608
  3
ACAD_PLOTSETTINGS
350
609
1001
ACAD
1000
TREAT_AS_HARD
1070
     0
  0
DICTIONARY
  5
624
330
1A
100
AcDbDictionary
  3
ACAD_LAYOUTSELFREF
350
625
  0
DICTIONARY
  5
622
330
17
100
AcDbDictionary
  3
ACAD_LAYOUTSELFREF
350
623
  0
DICTIONARY
  5
D
102
{ACAD_REACTORS
330
C
102
}
330
C
100
AcDbDictionary
1001
ACAD
1000
TREAT_AS_HARD
1070
     0
  0
DICTIONARY
  5
E
102
{ACAD_REACTORS
330
C
102
}
330
C
100
AcDbDictionary
  3
STANDARD
350
13
1001
ACAD
1000
TREAT_AS_HARD
1070
     0
  0
DICTIONARY
  5
608
102
{ACAD_REACTORS
330
C
102
}
330
C
100
AcDbDictionary
1001
ACAD
1000
TREAT_AS_HARD
1070
     0
  0
DICTIONARY
  5
609
102
{ACAD_REACTORS
330
C
102
}
330
C
100
AcDbDictionary
1001
ACAD
1000
TREAT_AS_HARD
1070
     0
  0
XRECORD
  5
625
102
{ACAD_REACTORS
330
624
102
}
330
624
100
AcDbXrecord
340
1A
  0
XRECORD
  5
623
102
{ACAD_REACTORS
330
622
102
}
330
622
100
AcDbXrecord
340
17
  0
MLINESTYLE
  5
13
102
{ACAD_REACTORS
330
E
102
}
330
E
100
AcDbMlineStyle
  2
STANDARD
 70
     0
  3

 62
     0
 51
90.0
 52
90.0
 71
     2
 49
0.5
 62
   256
  6
BYLAYER
 49
-0.5
 62
   256
  6
BYLAYER
  0
ENDSEC
  0
EOF
