  0
SECTION
  2
HEADER
  9
$ACADVER
  1
AC1012
  9
$DWGCODEPAGE
  3
dos932
  9
$INSBASE
 10
0.0
 20
0.0
 30
0.0
  9
$EXTMIN
 10
4.985962897755712
 20
2.438141563486055
 30
-0.0015258207003583
  9
$EXTMAX
 10
403.0297861143829
 20
282.0086066310859
 30
0.0000000349246037
  9
$LIMMIN
 10
0.0
 20
0.0
  9
$LIMMAX
 10
420.0
 20
297.0
  9
$ORTHOMODE
 70
     0
  9
$REGENMODE
 70
     1
  9
$FILLMODE
 70
     1
  9
$QTEXTMODE
 70
     0
  9
$MIRRTEXT
 70
     1
  9
$DRAGMODE
 70
     2
  9
$LTSCALE
 40
1.0
  9
$OSMODE
 70
    37
  9
$ATTMODE
 70
     1
  9
$TEXTSIZE
 40
2.5
  9
$TRACEWID
 40
1.0
  9
$TEXTSTYLE
  7
STANDARD
  9
$CLAYER
  8
ZUWAKU
  9
$CELTYPE
  6
BYLAYER
  9
$CECOLOR
 62
   256
  9
$CELTSCALE
 40
1.0
  9
$DELOBJ
 70
     1
  9
$DISPSILH
 70
     0
  9
$DIMSCALE
 40
1.0
  9
$DIMASZ
 40
3.0
  9
$DIMEXO
 40
3.0
  9
$DIMDLI
 40
7.0
  9
$DIMRND
 40
0.0
  9
$DIMDLE
 40
0.0
  9
$DIMEXE
 40
1.5
  9
$DIMTP
 40
0.0
  9
$DIMTM
 40
0.0
  9
$DIMTXT
 40
3.0
  9
$DIMCEN
 40
150.0
  9
$DIMTSZ
 40
0.0
  9
$DIMTOL
 70
     0
  9
$DIMLIM
 70
     0
  9
$DIMTIH
 70
     0
  9
$DIMTOH
 70
     0
  9
$DIMSE1
 70
     0
  9
$DIMSE2
 70
     0
  9
$DIMTAD
 70
     3
  9
$DIMZIN
 70
     0
  9
$DIMBLK
  1

  9
$DIMASO
 70
     1
  9
$DIMSHO
 70
     1
  9
$DIMPOST
  1

  9
$DIMAPOST
  1

  9
$DIMALT
 70
     0
  9
$DIMALTD
 70
     2
  9
$DIMALTF
 40
25.4
  9
$DIMLFAC
 40
1.0
  9
$DIMTOFL
 70
     1
  9
$DIMTVP
 40
0.0
  9
$DIMTIX
 70
     0
  9
$DIMSOXD
 70
     0
  9
$DIMSAH
 70
     1
  9
$DIMBLK1
  1
OPEN
  9
$DIMBLK2
  1
OPEN
  9
$DIMSTYLE
  2
STANDARD
  9
$DIMCLRD
 70
   256
  9
$DIMCLRE
 70
   256
  9
$DIMCLRT
 70
   256
  9
$DIMTFAC
 40
1.0
  9
$DIMGAP
 40
1.0
  9
$DIMJUST
 70
     0
  9
$DIMSD1
 70
     0
  9
$DIMSD2
 70
     0
  9
$DIMTOLJ
 70
     1
  9
$DIMTZIN
 70
     0
  9
$DIMALTZ
 70
     0
  9
$DIMALTTZ
 70
     0
  9
$DIMFIT
 70
     3
  9
$DIMUPT
 70
     0
  9
$DIMUNIT
 70
     2
  9
$DIMDEC
 70
     1
  9
$DIMTDEC
 70
     1
  9
$DIMALTU
 70
     2
  9
$DIMALTTD
 70
     2
  9
$DIMTXSTY
  7
STANDARD
  9
$DIMAUNIT
 70
     0
  9
$LUNITS
 70
     2
  9
$LUPREC
 70
     4
  9
$SKETCHINC
 40
1.0
  9
$FILLETRAD
 40
10.0
  9
$AUNITS
 70
     0
  9
$AUPREC
 70
     0
  9
$MENU
  1
.
  9
$ELEVATION
 40
0.0
  9
$PELEVATION
 40
0.0
  9
$THICKNESS
 40
0.0
  9
$LIMCHECK
 70
     0
  9
$BLIPMODE
 70
     0
  9
$CHAMFERA
 40
10.0
  9
$CHAMFERB
 40
10.0
  9
$CHAMFERC
 40
20.0
  9
$CHAMFERD
 40
0.0
  9
$SKPOLY
 70
     0
  9
$TDCREATE
 40
2451213.201433449
  9
$TDUPDATE
 40
2452445.844164120
  9
$TDINDWG
 40
0.0090261574
  9
$TDUSRTIMER
 40
0.0090261574
  9
$USRTIMER
 70
     1
  9
$ANGBASE
 50
0.0
  9
$ANGDIR
 70
     0
  9
$PDMODE
 70
     0
  9
$PDSIZE
 40
0.0
  9
$PLINEWID
 40
0.0
  9
$COORDS
 70
     1
  9
$SPLFRAME
 70
     0
  9
$SPLINETYPE
 70
     6
  9
$SPLINESEGS
 70
     8
  9
$ATTDIA
 70
     0
  9
$ATTREQ
 70
     1
  9
$HANDLING
 70
 10241
  9
$HANDSEED
  5
523
  9
$SURFTAB1
 70
     6
  9
$SURFTAB2
 70
     6
  9
$SURFTYPE
 70
     6
  9
$SURFU
 70
     6
  9
$SURFV
 70
     6
  9
$UCSNAME
  2

  9
$UCSORG
 10
0.0
 20
0.0
 30
0.0
  9
$UCSXDIR
 10
1.0
 20
0.0
 30
0.0
  9
$UCSYDIR
 10
0.0
 20
1.0
 30
0.0
  9
$PUCSNAME
  2

  9
$PUCSORG
 10
0.0
 20
0.0
 30
0.0
  9
$PUCSXDIR
 10
1.0
 20
0.0
 30
0.0
  9
$PUCSYDIR
 10
0.0
 20
1.0
 30
0.0
  9
$USERI1
 70
     0
  9
$USERI2
 70
     0
  9
$USERI3
 70
     0
  9
$USERI4
 70
     0
  9
$USERI5
 70
     0
  9
$USERR1
 40
0.0
  9
$USERR2
 40
0.0
  9
$USERR3
 40
0.0
  9
$USERR4
 40
0.0
  9
$USERR5
 40
0.0
  9
$WORLDVIEW
 70
     1
  9
$SHADEDGE
 70
     3
  9
$SHADEDIF
 70
    70
  9
$TILEMODE
 70
     1
  9
$MAXACTVP
 70
    16
  9
$PINSBASE
 10
0.0
 20
0.0
 30
0.0
  9
$PLIMCHECK
 70
     0
  9
$PEXTMIN
 10
0.0
 20
0.0
 30
0.0
  9
$PEXTMAX
 10
420.0
 20
297.0
 30
0.0
  9
$PLIMMIN
 10
0.0
 20
0.0
  9
$PLIMMAX
 10
420.0
 20
297.0
  9
$UNITMODE
 70
     0
  9
$VISRETAIN
 70
     0
  9
$PLINEGEN
 70
     0
  9
$PSLTSCALE
 70
     1
  9
$TREEDEPTH
 70
  3020
  9
$PICKSTYLE
 70
     1
  9
$CMLSTYLE
  2
STANDARD
  9
$CMLJUST
 70
     0
  9
$CMLSCALE
 40
1.0
  9
$SAVEIMAGES
 70
     1
  0
ENDSEC
  0
SECTION
  2
CLASSES
  0
CLASS
  1
ACDBDICTIONARYWDFLT
  2
AcDbDictionaryWithDefault
  3
AutoCAD 2000
 90
    32768
280
     0
281
     0
  0
CLASS
  1
ACDBPLACEHOLDER
  2
AcDbPlaceHolder
  3
AutoCAD 2000
 90
    32768
280
     0
281
     0
  0
CLASS
  1
LAYOUT
  2
AcDbLayout
  3
AutoCAD 2000
 90
    32768
280
     0
281
     0
  0
CLASS
  1
LONG_TRANSACTION
  2
AcDbLongTransaction
  3
AutoCAD 2000
 90
    32768
280
     0
281
     0
  0
CLASS
  1
LWPOLYLINE
  2
AcDbPolyline
  3
AutoCAD 2000
 90
    32768
280
     0
281
     1
  0
CLASS
  1
HATCH
  2
AcDbHatch
  3
AutoCAD 2000
 90
    32768
280
     0
281
     1
  0
CLASS
  1
XRECORD
  2
AcDbXrecord
  3
AutoCAD 2000
 90
    32768
280
     0
281
     0
  0
ENDSEC
  0
SECTION
  2
TABLES
  0
TABLE
  2
VPORT
  5
8
330
0
100
AcDbSymbolTable
 70
     2
  0
VPORT
  5
51E
330
8
100
AcDbSymbolTableRecord
100
AcDbViewportTableRecord
  2
*ACTIVE
 70
     0
 10
0.0
 20
0.0
 11
1.0
 21
1.0
 12
196.6848595195872
 22
143.4292443978667
 13
0.0
 23
0.0
 14
5.0
 24
5.0
 15
0.0
 25
0.0
 16
0.0
 26
0.0
 36
1.0
 17
0.0
 27
0.0
 37
0.0
 40
288.4650889026259
 41
1.840236686390532
 42
50.0
 43
0.0
 44
0.0
 50
0.0
 51
0.0
 71
     0
 72
   100
 73
     1
 74
     0
 75
     0
 76
     0
 77
     0
 78
     0
  0
ENDTAB
  0
TABLE
  2
LTYPE
  5
5
330
0
100
AcDbSymbolTable
 70
     4
  0
LTYPE
  5
14
330
5
100
AcDbSymbolTableRecord
100
AcDbLinetypeTableRecord
  2
BYBLOCK
 70
     0
  3

 72
    65
 73
     0
 40
0.0
  0
LTYPE
  5
15
330
5
100
AcDbSymbolTableRecord
100
AcDbLinetypeTableRecord
  2
BYLAYER
 70
     0
  3

 72
    65
 73
     0
 40
0.0
  0
LTYPE
  5
16
330
5
100
AcDbSymbolTableRecord
100
AcDbLinetypeTableRecord
  2
CONTINUOUS
 70
     0
  3
Solid line
 72
    65
 73
     0
 40
0.0
  0
LTYPE
  5
120
330
5
100
AcDbSymbolTableRecord
100
AcDbLinetypeTableRecord
  2
CENTER
 70
     0
  3
____ _ ____ _ ____ _ ____ _ ____ _ ____ _ ____ 
 72
    65
 73
     4
 40
2.0
 49
1.25
 74
     0
 49
-0.25
 74
     0
 49
0.25
 74
     0
 49
-0.25
 74
     0
  0
ENDTAB
  0
TABLE
  2
LAYER
  5
2
330
0
100
AcDbSymbolTable
 70
     7
  0
LAYER
  5
F
330
2
100
AcDbSymbolTableRecord
100
AcDbLayerTableRecord
  2
0
 70
     0
 62
     7
  6
CONTINUOUS
  0
LAYER
  5
62
330
2
100
AcDbSymbolTableRecord
100
AcDbLayerTableRecord
  2
VIEWPORT
 70
     0
 62
     7
  6
CONTINUOUS
  0
LAYER
  5
6B
330
2
100
AcDbSymbolTableRecord
100
AcDbLayerTableRecord
  2
ZUWAKU
 70
     0
 62
     7
  6
CONTINUOUS
  0
LAYER
  5
134
330
2
100
AcDbSymbolTableRecord
100
AcDbLayerTableRecord
  2
SUNPOU
 70
     0
 62
     4
  6
CONTINUOUS
  0
LAYER
  5
135
330
2
100
AcDbSymbolTableRecord
100
AcDbLayerTableRecord
  2
CENTER_L
 70
     0
 62
     1
  6
CENTER
  0
LAYER
  5
136
330
2
100
AcDbSymbolTableRecord
100
AcDbLayerTableRecord
  2
SEIHIN
 70
     0
 62
     3
  6
CONTINUOUS
  0
LAYER
  5
424
330
2
100
AcDbSymbolTableRecord
100
AcDbLayerTableRecord
  2
DEFPOINTS
 70
     0
 62
     7
  6
CONTINUOUS
  0
ENDTAB
  0
TABLE
  2
STYLE
  5
3
330
0
100
AcDbSymbolTable
 70
     1
  0
STYLE
  5
10
330
3
100
AcDbSymbolTableRecord
100
AcDbTextStyleTableRecord
  2
STANDARD
 70
     0
 40
0.0
 41
1.0
 50
0.0
 71
     0
 42
2.5
  3
TXT
  4
bigfont.shx
  0
ENDTAB
  0
TABLE
  2
VIEW
  5
6
330
0
100
AcDbSymbolTable
 70
     0
  0
ENDTAB
  0
TABLE
  2
UCS
  5
7
330
0
100
AcDbSymbolTable
 70
     0
  0
ENDTAB
  0
TABLE
  2
APPID
  5
9
330
0
100
AcDbSymbolTable
 70
     1
  0
APPID
  5
11
330
9
100
AcDbSymbolTableRecord
100
AcDbRegAppTableRecord
  2
ACAD
 70
     0
  0
ENDTAB
  0
TABLE
  2
DIMSTYLE
  5
A
330
0
100
AcDbSymbolTable
 70
     8
  0
DIMSTYLE
105
1D
102
{ACAD_REACTORS
330
429
330
438
330
473
330
480
330
48F
102
}
330
A
100
AcDbSymbolTableRecord
100
AcDbDimStyleTableRecord
  2
STANDARD
 70
     0
  3

  4

  5

  6

  7

 40
1.0
 41
0.18
 42
0.0625
 43
0.38
 44
0.18
 45
0.0
 46
0.0
 47
0.0
 48
0.0
140
0.18
141
0.09
142
0.0
143
25.4
144
1.0
145
0.0
146
1.0
147
0.09
 71
     0
 72
     0
 73
     1
 74
     1
 75
     0
 76
     0
 77
     0
 78
     0
170
     0
171
     2
172
     0
173
     0
174
     0
175
     0
176
     0
177
     0
178
     0
270
     2
271
     4
272
     4
273
     2
274
     2
340
10
275
     0
280
     0
281
     0
282
     0
283
     1
284
     0
285
     0
286
     0
287
     3
288
     0
  0
ENDTAB
  0
TABLE
  2
BLOCK_RECORD
  5
1
330
0
100
AcDbSymbolTable
 70
     8
  0
BLOCK_RECORD
  5
1A
102
{ACAD_XDICTIONARY
360
521
102
}
330
1
100
AcDbSymbolTableRecord
100
AcDbBlockTableRecord
  2
*MODEL_SPACE
  0
BLOCK_RECORD
  5
17
102
{ACAD_XDICTIONARY
360
51F
102
}
330
1
100
AcDbSymbolTableRecord
100
AcDbBlockTableRecord
  2
*PAPER_SPACE
  0
BLOCK_RECORD
  5
B2
330
1
100
AcDbSymbolTableRecord
100
AcDbBlockTableRecord
  2
_OPEN
  0
BLOCK_RECORD
  5
41C
330
1
100
AcDbSymbolTableRecord
100
AcDbBlockTableRecord
  2
*D3
  0
BLOCK_RECORD
  5
42A
330
1
100
AcDbSymbolTableRecord
100
AcDbBlockTableRecord
  2
*D4
  0
BLOCK_RECORD
  5
467
330
1
100
AcDbSymbolTableRecord
100
AcDbBlockTableRecord
  2
*D5
  0
BLOCK_RECORD
  5
474
330
1
100
AcDbSymbolTableRecord
100
AcDbBlockTableRecord
  2
*D6
  0
BLOCK_RECORD
  5
481
330
1
100
AcDbSymbolTableRecord
100
AcDbBlockTableRecord
  2
*D7
  0
ENDTAB
  0
ENDSEC
  0
SECTION
  2
BLOCKS
  0
BLOCK
  5
1B
330
1A
100
AcDbEntity
  8
0
100
AcDbBlockBegin
  2
*MODEL_SPACE
 70
     0
 10
0.0
 20
0.0
 30
0.0
  3
*MODEL_SPACE
  1

  0
ENDBLK
  5
1C
330
1A
100
AcDbEntity
  8
0
100
AcDbBlockEnd
  0
BLOCK
  5
18
330
17
100
AcDbEntity
 67
     1
  8
0
100
AcDbBlockBegin
  2
*PAPER_SPACE
 70
     0
 10
0.0
 20
0.0
 30
0.0
  3
*PAPER_SPACE
  1

  0
ENDBLK
  5
19
330
17
100
AcDbEntity
 67
     1
  8
0
100
AcDbBlockEnd
  0
BLOCK
  5
B3
330
B2
100
AcDbEntity
  8
0
100
AcDbBlockBegin
  2
_OPEN
 70
     0
 10
0.0
 20
0.0
 30
0.0
  3
_OPEN
  1

  0
LINE
  5
B4
330
B2
100
AcDbEntity
  8
0
  6
BYBLOCK
 62
     0
100
AcDbLine
 10
-1.0
 20
0.1666666666666666
 30
0.0
 11
0.0
 21
0.0
 31
0.0
  0
LINE
  5
B5
330
B2
100
AcDbEntity
  8
0
  6
BYBLOCK
 62
     0
100
AcDbLine
 10
0.0
 20
0.0
 30
0.0
 11
-1.0
 21
-0.1666666666666666
 31
0.0
  0
LINE
  5
B6
330
B2
100
AcDbEntity
  8
0
  6
BYBLOCK
 62
     0
100
AcDbLine
 10
0.0
 20
0.0
 30
0.0
 11
-1.0
 21
0.0
 31
0.0
  0
ENDBLK
  5
B7
330
B2
100
AcDbEntity
  8
0
100
AcDbBlockEnd
  0
BLOCK
  5
500
330
41C
100
AcDbEntity
  8
0
100
AcDbBlockBegin
  2
*D3
 70
     1
 10
0.0
 20
0.0
 30
0.0
  3
*D3
  1

  0
LINE
  5
501
330
41C
100
AcDbEntity
  8
0
  6
BYBLOCK
 62
     4
100
AcDbLine
 10
190.6534151968497
 20
93.62860704654528
 30
0.0
 11
190.6534151968497
 21
71.08645247953564
 31
0.0
  0
LINE
  5
502
330
41C
100
AcDbEntity
  8
0
  6
BYBLOCK
 62
     4
100
AcDbLine
 10
277.3398491966683
 20
96.02794988740143
 30
0.0
 11
277.3398491966683
 21
71.08645247953564
 31
0.0
  0
LINE
  5
503
330
41C
100
AcDbEntity
  8
0
  6
BYBLOCK
 62
     4
100
AcDbLine
 10
193.6534151968497
 20
72.58645247953563
 30
0.0
 11
274.3398491966682
 21
72.58645247953563
 31
0.0
  0
INSERT
  5
504
330
41C
100
AcDbEntity
  8
0
  6
BYBLOCK
 62
     4
100
AcDbBlockReference
  2
_OPEN
 10
190.6534151968497
 20
72.58645247953563
 30
0.0
 41
3.0
 42
3.0
 43
3.0
 50
180.0
  0
INSERT
  5
505
330
41C
100
AcDbEntity
  8
0
  6
BYBLOCK
 62
     4
100
AcDbBlockReference
  2
_OPEN
 10
277.3398491966683
 20
72.58645247953563
 30
0.0
 41
3.0
 42
3.0
 43
3.0
  0
MTEXT
  5
506
330
41C
100
AcDbEntity
  8
0
  6
BYBLOCK
 62
     4
100
AcDbMText
 10
233.996632196759
 20
75.08645247953563
 30
0.0
 40
3.0
 41
0.0
 71
     5
 72
     1
  1
\A1;7.5m
1001
ACAD
1000
MTEXTBEGIN
1070
    73
1070
     1
1070
    44
1040
1.0
1070
    74
1070
     0
1000
MTEXTEND
  0
POINT
  5
507
330
41C
100
AcDbEntity
  8
DEFPOINTS
  6
BYBLOCK
 62
     0
100
AcDbPoint
 10
190.6534151968497
 20
96.62860704654526
 30
0.0
  0
POINT
  5
508
330
41C
100
AcDbEntity
  8
DEFPOINTS
  6
BYBLOCK
 62
     0
100
AcDbPoint
 10
277.3398491966683
 20
99.02794988740142
 30
0.0
  0
POINT
  5
509
330
41C
100
AcDbEntity
  8
DEFPOINTS
  6
BYBLOCK
 62
     0
100
AcDbPoint
 10
277.3398491966683
 20
72.58645247953563
 30
0.0
  0
ENDBLK
  5
50A
330
41C
100
AcDbEntity
  8
0
100
AcDbBlockEnd
  0
BLOCK
  5
453
330
42A
100
AcDbEntity
  8
0
100
AcDbBlockBegin
  2
*D4
 70
     1
 10
0.0
 20
0.0
 30
0.0
  3
*D4
  1

  0
LINE
  5
454
330
42A
100
AcDbEntity
  8
0
  6
BYBLOCK
 62
     4
100
AcDbLine
 10
190.6533821970313
 20
99.6285740467268
 30
0.0
 11
167.1782637700159
 21
99.6285740467268
 31
0.0
  0
LINE
  5
455
330
42A
100
AcDbEntity
  8
0
  6
BYBLOCK
 62
     4
100
AcDbLine
 10
192.1533491966683
 20
94.0305498874015
 30
0.0
 11
167.1782637700159
 21
94.0305498874015
 31
0.0
  0
LINE
  5
456
330
42A
100
AcDbEntity
  8
0
  6
BYBLOCK
 62
     4
100
AcDbLine
 10
168.6782637700159
 20
102.6285740467268
 30
0.0
 11
168.6782637700159
 21
105.6285740467268
 31
0.0
  0
LINE
  5
457
330
42A
100
AcDbEntity
  8
0
  6
BYBLOCK
 62
     4
100
AcDbLine
 10
168.6782637700159
 20
91.03054988740151
 30
0.0
 11
168.6782637700159
 21
80.4305498874015
 31
0.0
  0
LINE
  5
458
330
42A
100
AcDbEntity
  8
0
  6
BYBLOCK
 62
     4
100
AcDbLine
 10
168.6782637700159
 20
99.6285740467268
 30
0.0
 11
168.6782637700159
 21
94.0305498874015
 31
0.0
  0
INSERT
  5
459
330
42A
100
AcDbEntity
  8
0
  6
BYBLOCK
 62
     4
100
AcDbBlockReference
  2
_OPEN
 10
168.6782637700159
 20
99.6285740467268
 30
0.0
 41
3.0
 42
3.0
 43
3.0
 50
270.0
  0
INSERT
  5
45A
330
42A
100
AcDbEntity
  8
0
  6
BYBLOCK
 62
     4
100
AcDbBlockReference
  2
_OPEN
 10
168.6782637700159
 20
94.0305498874015
 30
0.0
 41
3.0
 42
3.0
 43
3.0
 50
90.0
  0
MTEXT
  5
45B
330
42A
100
AcDbEntity
  8
0
  6
BYBLOCK
 62
     4
100
AcDbMText
 10
166.1782637700159
 20
84.23054988740151
 30
0.0
 40
3.0
 41
0.0
 71
     5
 72
     1
  1
\A1;φ6
 11
0.0
 21
1.0
 31
0.0
1001
ACAD
1000
MTEXTBEGIN
1070
    73
1070
     1
1070
    44
1040
1.0
1070
    74
1070
     0
1000
MTEXTEND
  0
POINT
  5
45C
330
42A
100
AcDbEntity
  8
DEFPOINTS
  6
BYBLOCK
 62
     0
100
AcDbPoint
 10
193.6533821970313
 20
99.6285740467268
 30
0.0
  0
POINT
  5
45D
330
42A
100
AcDbEntity
  8
DEFPOINTS
  6
BYBLOCK
 62
     0
100
AcDbPoint
 10
195.1533491966683
 20
94.0305498874015
 30
0.0
  0
POINT
  5
45E
330
42A
100
AcDbEntity
  8
DEFPOINTS
  6
BYBLOCK
 62
     0
100
AcDbPoint
 10
168.6782637700159
 20
94.0305498874015
 30
0.0
  0
ENDBLK
  5
45F
330
42A
100
AcDbEntity
  8
0
100
AcDbBlockEnd
  0
BLOCK
  5
468
330
467
100
AcDbEntity
  8
0
100
AcDbBlockBegin
  2
*D5
 70
     1
 10
0.0
 20
0.0
 30
0.0
  3
*D5
  1

  0
LINE
  5
469
330
467
100
AcDbEntity
  8
0
  6
BYBLOCK
 62
     4
100
AcDbLine
 10
181.653549196658
 20
213.6287403539999
 30
0.0
 11
181.653549196658
 21
167.9907461061671
 31
0.0
  0
LINE
  5
46A
330
467
100
AcDbEntity
  8
0
  6
BYBLOCK
 62
     4
100
AcDbLine
 10
229.6535491966682
 20
192.9685498874015
 30
0.0
 11
229.6535491966682
 21
167.9907461061671
 31
0.0
  0
LINE
  5
46B
330
467
100
AcDbEntity
  8
0
  6
BYBLOCK
 62
     4
100
AcDbLine
 10
184.653549196658
 20
169.4907461061671
 30
0.0
 11
226.6535491966682
 21
169.4907461061671
 31
0.0
  0
INSERT
  5
46C
330
467
100
AcDbEntity
  8
0
  6
BYBLOCK
 62
     4
100
AcDbBlockReference
  2
_OPEN
 10
181.653549196658
 20
169.4907461061671
 30
0.0
 41
3.0
 42
3.0
 43
3.0
 50
180.0
  0
INSERT
  5
46D
330
467
100
AcDbEntity
  8
0
  6
BYBLOCK
 62
     4
100
AcDbBlockReference
  2
_OPEN
 10
229.6535491966682
 20
169.4907461061671
 30
0.0
 41
3.0
 42
3.0
 43
3.0
  0
MTEXT
  5
46E
330
467
100
AcDbEntity
  8
0
  6
BYBLOCK
 62
     4
100
AcDbMText
 10
205.6535491966631
 20
171.9907461061672
 30
0.0
 40
3.0
 41
0.0
 71
     5
 72
     1
  1
\A1;48
1001
ACAD
1000
MTEXTBEGIN
1070
    73
1070
     1
1070
    44
1040
1.0
1070
    74
1070
     0
1000
MTEXTEND
  0
POINT
  5
46F
330
467
100
AcDbEntity
  8
DEFPOINTS
  6
BYBLOCK
 62
     0
100
AcDbPoint
 10
181.653549196658
 20
216.6287403539999
 30
0.0
  0
POINT
  5
470
330
467
100
AcDbEntity
  8
DEFPOINTS
  6
BYBLOCK
 62
     0
100
AcDbPoint
 10
229.6535491966682
 20
195.9685498874015
 30
0.0
  0
POINT
  5
471
330
467
100
AcDbEntity
  8
DEFPOINTS
  6
BYBLOCK
 62
     0
100
AcDbPoint
 10
229.6535491966682
 20
169.4907461061671
 30
0.0
  0
ENDBLK
  5
472
330
467
100
AcDbEntity
  8
0
100
AcDbBlockEnd
  0
BLOCK
  5
4B7
330
474
100
AcDbEntity
  8
0
100
AcDbBlockBegin
  2
*D6
 70
     1
 10
0.0
 20
0.0
 30
0.0
  3
*D6
  1

  0
LINE
  5
4B8
330
474
100
AcDbEntity
  8
0
  6
BYBLOCK
 62
     4
100
AcDbLine
 10
229.3878491966683
 20
239.9288498874013
 30
0.0
 11
261.4513860291938
 21
239.9288498874013
 31
0.0
  0
LINE
  5
4B9
330
474
100
AcDbEntity
  8
0
  6
BYBLOCK
 62
     4
100
AcDbLine
 10
229.3878491966683
 20
193.3284498874015
 30
0.0
 11
261.4513860291938
 21
193.3284498874015
 31
0.0
  0
LINE
  5
4BA
330
474
100
AcDbEntity
  8
0
  6
BYBLOCK
 62
     4
100
AcDbLine
 10
259.9513860291938
 20
236.9288498874013
 30
0.0
 11
259.9513860291938
 21
196.3284498874015
 31
0.0
  0
INSERT
  5
4BB
330
474
100
AcDbEntity
  8
0
  6
BYBLOCK
 62
     4
100
AcDbBlockReference
  2
_OPEN
 10
259.9513860291938
 20
239.9288498874013
 30
0.0
 41
3.0
 42
3.0
 43
3.0
 50
90.0
  0
INSERT
  5
4BC
330
474
100
AcDbEntity
  8
0
  6
BYBLOCK
 62
     4
100
AcDbBlockReference
  2
_OPEN
 10
259.9513860291938
 20
193.3284498874015
 30
0.0
 41
3.0
 42
3.0
 43
3.0
 50
270.0
  0
MTEXT
  5
4BD
330
474
100
AcDbEntity
  8
0
  6
BYBLOCK
 62
     4
100
AcDbMText
 10
257.4513860291938
 20
216.6286498874014
 30
0.0
 40
3.0
 41
0.0
 71
     5
 72
     1
  1
\A1;47
 11
0.0
 21
1.0
 31
0.0
1001
ACAD
1000
MTEXTBEGIN
1070
    73
1070
     1
1070
    44
1040
1.0
1070
    74
1070
     0
1000
MTEXTEND
  0
POINT
  5
4BE
330
474
100
AcDbEntity
  8
DEFPOINTS
  6
BYBLOCK
 62
     0
100
AcDbPoint
 10
226.3878491966683
 20
239.9288498874013
 30
0.0
  0
POINT
  5
4BF
330
474
100
AcDbEntity
  8
DEFPOINTS
  6
BYBLOCK
 62
     0
100
AcDbPoint
 10
226.3878491966683
 20
193.3284498874015
 30
0.0
  0
POINT
  5
4C0
330
474
100
AcDbEntity
  8
DEFPOINTS
  6
BYBLOCK
 62
     0
100
AcDbPoint
 10
259.9513860291938
 20
193.3284498874015
 30
0.0
  0
ENDBLK
  5
4C1
330
474
100
AcDbEntity
  8
0
100
AcDbBlockEnd
  0
BLOCK
  5
4AA
330
481
100
AcDbEntity
  8
0
100
AcDbBlockBegin
  2
*D7
 70
     1
 10
0.0
 20
0.0
 30
0.0
  3
*D7
  1

  0
LINE
  5
4AB
330
481
100
AcDbEntity
  8
0
  6
BYBLOCK
 62
     4
100
AcDbLine
 10
228.4535491966682
 20
206.2985998874014
 30
0.0
 11
228.4535491966682
 21
205.0531244240636
 31
0.0
  0
LINE
  5
4AC
330
481
100
AcDbEntity
  8
0
  6
BYBLOCK
 62
     4
100
AcDbLine
 10
229.6535491966682
 20
206.2985998874014
 30
0.0
 11
229.6535491966682
 21
205.0531244240636
 31
0.0
  0
LINE
  5
4AD
330
481
100
AcDbEntity
  8
0
  6
BYBLOCK
 62
     4
100
AcDbLine
 10
225.4535491966683
 20
203.5531244240636
 30
0.0
 11
222.4535491966682
 21
203.5531244240636
 31
0.0
  0
LINE
  5
4AE
330
481
100
AcDbEntity
  8
0
  6
BYBLOCK
 62
     4
100
AcDbLine
 10
232.6535491966682
 20
203.5531244240636
 30
0.0
 11
246.2535491966682
 21
203.5531244240636
 31
0.0
  0
LINE
  5
4AF
330
481
100
AcDbEntity
  8
0
  6
BYBLOCK
 62
     4
100
AcDbLine
 10
228.4535491966682
 20
203.5531244240636
 30
0.0
 11
229.6535491966682
 21
203.5531244240636
 31
0.0
  0
INSERT
  5
4B0
330
481
100
AcDbEntity
  8
0
  6
BYBLOCK
 62
     4
100
AcDbBlockReference
  2
_OPEN
 10
228.4535491966682
 20
203.5531244240636
 30
0.0
 41
3.0
 42
3.0
 43
3.0
  0
INSERT
  5
4B1
330
481
100
AcDbEntity
  8
0
  6
BYBLOCK
 62
     4
100
AcDbBlockReference
  2
_OPEN
 10
229.6535491966682
 20
203.5531244240636
 30
0.0
 41
3.0
 42
3.0
 43
3.0
 50
180.0
  0
MTEXT
  5
4B2
330
481
100
AcDbEntity
  8
0
  6
BYBLOCK
 62
     4
100
AcDbMText
 10
240.9535491966682
 20
206.0531244240636
 30
0.0
 40
3.0
 41
0.0
 71
     5
 72
     1
  1
\A1;φ1.2
1001
ACAD
1000
MTEXTBEGIN
1070
    73
1070
     1
1070
    44
1040
1.0
1070
    74
1070
     0
1000
MTEXTEND
  0
POINT
  5
4B3
330
481
100
AcDbEntity
  8
DEFPOINTS
  6
BYBLOCK
 62
     0
100
AcDbPoint
 10
228.4535491966682
 20
203.2985998874015
 30
0.0
  0
POINT
  5
4B4
330
481
100
AcDbEntity
  8
DEFPOINTS
  6
BYBLOCK
 62
     0
100
AcDbPoint
 10
229.6535491966682
 20
203.2985998874015
 30
0.0
  0
POINT
  5
4B5
330
481
100
AcDbEntity
  8
DEFPOINTS
  6
BYBLOCK
 62
     0
100
AcDbPoint
 10
229.6535491966682
 20
203.5531244240636
 30
0.0
  0
ENDBLK
  5
4B6
330
481
100
AcDbEntity
  8
0
100
AcDbBlockEnd
  0
ENDSEC
  0
SECTION
  2
ENTITIES
  0
LINE
  5
6C
330
1A
100
AcDbEntity
  8
ZUWAKU
  6
CONTINUOUS
 62
     7
100
AcDbLine
 10
403.0
 20
7.0
 30
0.0
 11
5.0
 21
7.0
 31
0.0
  0
LINE
  5
6D
330
1A
100
AcDbEntity
  8
ZUWAKU
  6
CONTINUOUS
 62
     7
100
AcDbLine
 10
5.0
 20
282.0
 30
0.0
 11
5.0
 21
7.0
 31
0.0
  0
LINE
  5
6E
330
1A
100
AcDbEntity
  8
ZUWAKU
  6
CONTINUOUS
 62
     7
100
AcDbLine
 10
403.0
 20
282.0
 30
0.0
 11
403.0
 21
7.0
 31
0.0
  0
LINE
  5
6F
330
1A
100
AcDbEntity
  8
ZUWAKU
  6
CONTINUOUS
 62
     7
100
AcDbLine
 10
403.0
 20
282.0
 30
0.0
 11
5.0
 21
282.0
 31
0.0
  0
LINE
  5
8E
330
1A
100
AcDbEntity
  8
ZUWAKU
 62
     7
 48
10.0
100
AcDbLine
 10
5.0
 20
13.0
 30
0.0
 11
403.0
 21
12.99999999999994
 31
0.0
  0
TEXT
  5
93
330
1A
100
AcDbEntity
  8
ZUWAKU
 62
     7
100
AcDbText
 10
8.003143713074223
 20
7.870178177610682
 30
0.0
 40
4.0
  1
品 種
100
AcDbText
  0
TEXT
  5
97
330
1A
100
AcDbEntity
  8
ZUWAKU
 62
     7
100
AcDbText
 10
107.7028028167073
 20
8.200497435100942
 30
0.0
 40
4.0
  1
品名・ｻ ｲ ｽﾞ
100
AcDbText
  0
LINE
  5
9A
330
1A
100
AcDbEntity
  8
ZUWAKU
 62
     7
 48
10.0
100
AcDbLine
 10
324.3551403257206
 20
6.999999999999836
 30
0.0
 11
324.3551403257206
 21
12.99999999999995
 31
0.0
  0
LINE
  5
9B
330
1A
100
AcDbEntity
  8
ZUWAKU
 62
     7
 48
10.0
100
AcDbLine
 10
307.142312366876
 20
6.999999999999836
 30
0.0
 11
307.142312366876
 21
12.99999999999995
 31
0.0
  0
TEXT
  5
9C
330
1A
100
AcDbEntity
  8
ZUWAKU
 62
     7
100
AcDbText
 10
310.1429253763237
 20
7.934661405801826
 30
0.0
 40
4.0
  1
品 番
100
AcDbText
  0
TEXT
  5
9E
330
1A
100
AcDbEntity
  8
ZUWAKU
 62
     7
 48
10.0
100
AcDbText
 10
322.9513761015196
 20
2.449000558492457
 30
0.0
 40
4.0
  1
積水化学工業株式会社  建材
100
AcDbText
  0
TEXT
  5
A1
330
1A
100
AcDbEntity
  8
ZUWAKU
 62
     7
100
AcDbText
 10
389.843492473331
 20
7.886151458996323
 30
0.0
 40
4.0
  1
1/1
100
AcDbText
  0
TEXT
  5
A2
330
1A
100
AcDbEntity
  8
ZUWAKU
 62
     7
100
AcDbText
 10
369.8225424558458
 20
7.729845637642938
 30
0.0
 40
4.0
  1
尺 度
100
AcDbText
  0
LINE
  5
A3
330
1A
100
AcDbEntity
  8
ZUWAKU
 62
     7
 48
10.0
100
AcDbLine
 10
366.8807110760169
 20
6.999999999999886
 30
0.0
 11
366.8807110760169
 21
12.99999999999994
 31
0.0
  0
TEXT
  5
A6
330
1A
100
AcDbEntity
  8
ZUWAKU
 62
     7
 48
10.0
100
AcDbText
 10
396.1622424237184
 20
2.480970960763784
 30
0.0
 40
4.0
  1
A3
100
AcDbText
  0
LINE
  5
F5
330
1A
100
AcDbEntity
  8
ZUWAKU
 62
     7
 48
10.0
100
AcDbLine
 10
22.25374857290876
 20
7.0
 30
0.0
 11
22.25374857290876
 21
13.0
 31
0.0
  0
LINE
  5
F6
330
1A
100
AcDbEntity
  8
ZUWAKU
 62
     7
 48
10.0
100
AcDbLine
 10
104.7316872784438
 20
7.0
 30
0.0
 11
104.7316872784438
 21
12.99999999999998
 31
0.0
  0
LINE
  5
F8
330
1A
100
AcDbEntity
  8
ZUWAKU
 62
     7
 48
10.0
100
AcDbLine
 10
138.0261803105822
 20
7.0
 30
0.0
 11
138.0261803105822
 21
12.99999999999998
 31
0.0
  0
LINE
  5
100
330
1A
100
AcDbEntity
  8
ZUWAKU
 62
     7
 48
10.0
100
AcDbLine
 10
384.3363149538092
 20
6.999999999999862
 30
0.0
 11
384.3363149538092
 21
12.99999999999994
 31
0.0
  0
LINE
  5
2B3
330
1A
100
AcDbEntity
  8
SEIHIN
 62
     3
100
AcDbLine
 10
226.6392491966683
 20
178.430305242019
 30
0.0
 11
202.9555491966683
 21
183.505505242019
 31
0.0
  0
LINE
  5
2B4
330
1A
100
AcDbEntity
  8
SEIHIN
 62
     3
100
AcDbLine
 10
202.4851491966681
 20
182.3790052420189
 30
0.0
 11
226.3878491966683
 21
177.257005242019
 31
0.0
  0
LINE
  5
2B5
330
1A
100
AcDbEntity
  8
SEIHIN
 62
     3
100
AcDbLine
 10
226.6392491966683
 20
222.6840052420189
 30
0.0
 11
202.9555491966683
 21
217.609005242019
 31
0.0
  0
LINE
  5
2B6
330
1A
100
AcDbEntity
  8
SEIHIN
 62
     3
100
AcDbLine
 10
202.4852491966683
 20
218.735405242019
 30
0.0
 11
226.3878491966683
 21
223.8574052420188
 31
0.0
  0
ARC
  5
2B7
330
1A
100
AcDbEntity
  8
SEIHIN
 62
     3
100
AcDbCircle
 10
209.5511991966682
 20
99.02794988740142
 30
0.0
 40
0.5999499999999216
100
AcDbArc
 50
0.0
 51
180.0
  0
ARC
  5
2B8
330
1A
100
AcDbEntity
  8
SEIHIN
 62
     3
100
AcDbCircle
 10
210.1510991966682
 20
94.22914988740151
 30
0.0
 40
0.5999499999999785
100
AcDbArc
 50
180.0
 51
0.0
  0
LINE
  5
2B9
330
1A
100
AcDbEntity
  8
SEIHIN
 62
     3
100
AcDbLine
 10
209.8511491966681
 20
96.62854988740152
 30
0.0
 11
209.5511491966683
 21
94.22914988740151
 31
0.0
  0
TEXT
  5
2BE
330
1A
100
AcDbEntity
  8
ZUWAKU
 62
     7
100
AcDbText
 10
25.15073007242387
 20
8.160237806787449
 30
0.0
 40
4.0
  1
凍害防止ロッド　
100
AcDbText
  0
TEXT
  5
2BF
330
1A
100
AcDbEntity
  8
ZUWAKU
 62
     7
100
AcDbText
 10
141.1313324528735
 20
7.9299153608506
 30
0.0
 40
4.0
  1
ワイヤー　５．５－７．５Ｍ
100
AcDbText
  0
LINE
  5
2CB
330
1A
100
AcDbEntity
  8
SEIHIN
 62
     3
100
AcDbLine
 10
132.6786277835459
 20
94.22864988740151
 30
0.0
 11
132.6786277835459
 21
99.02864988740144
 31
0.0
  0
LINE
  5
2CD
330
1A
100
AcDbEntity
  8
SEIHIN
 62
     3
100
AcDbLine
 10
133.8786277835461
 20
94.22864988740151
 30
0.0
 11
133.878727783546
 21
99.02864988740144
 31
0.0
  0
ARC
  5
2CE
330
1A
100
AcDbEntity
  8
SEIHIN
 62
     3
100
AcDbCircle
 10
133.278627783546
 20
94.22864988740151
 30
0.0
 40
0.6000000000000796
100
AcDbArc
 50
180.0
 51
0.0
  0
ARC
  5
2CF
330
1A
100
AcDbEntity
  8
SEIHIN
 62
     3
100
AcDbCircle
 10
133.278627783546
 20
99.02864988740144
 30
0.0
 40
0.6000000000000796
100
AcDbArc
 50
0.0
 51
180.0
  0
ARC
  5
2D6
330
1A
100
AcDbEntity
  8
SEIHIN
 62
     3
100
AcDbCircle
 10
193.6533821970313
 20
96.62860704654526
 30
0.0
 40
2.999967000181529
100
AcDbArc
 50
359.9989083287591
 51
299.9996361095863
  0
ARC
  5
2D7
330
1A
100
AcDbEntity
  8
SEIHIN
 62
     3
100
AcDbCircle
 10
193.653368996886
 20
96.62858418288788
 30
0.0
 40
1.799980200108974
100
AcDbArc
 50
359.9989083287556
 51
299.9996361095818
  0
ARC
  5
2D8
330
1A
100
AcDbEntity
  8
SEIHIN
 62
     3
100
AcDbCircle
 10
201.1526491966682
 20
99.02794988740142
 30
0.0
 40
0.599899999999991
100
AcDbArc
 50
0.0
 51
180.0
  0
ARC
  5
2D9
330
1A
100
AcDbEntity
  8
SEIHIN
 62
     3
100
AcDbCircle
 10
201.7524491966682
 20
94.22914988740151
 30
0.0
 40
0.5999000000000763
100
AcDbArc
 50
180.0
 51
0.0
  0
LINE
  5
2DA
330
1A
100
AcDbEntity
  8
SEIHIN
 62
     3
100
AcDbLine
 10
201.7524491966682
 20
99.02794988740142
 30
0.0
 11
201.4525491966681
 21
96.62854988740152
 31
0.0
  0
LINE
  5
2DB
330
1A
100
AcDbEntity
  8
SEIHIN
 62
     3
100
AcDbLine
 10
195.1465491966682
 20
94.22304988740149
 30
0.0
 11
195.4435491966683
 21
96.62854988740152
 31
0.0
  0
LINE
  5
2DC
330
1A
100
AcDbEntity
  8
SEIHIN
 62
     3
100
AcDbLine
 10
196.6533491966682
 20
96.62854988740152
 30
0.0
 11
196.3534491966683
 21
94.22914988740151
 31
0.0
  0
LINE
  5
2DD
330
1A
100
AcDbEntity
  8
SEIHIN
 62
     3
100
AcDbLine
 10
197.8531491966681
 20
96.62854988740152
 30
0.0
 11
197.5532491966681
 21
94.22914988740151
 31
0.0
  0
LINE
  5
2DE
330
1A
100
AcDbEntity
  8
SEIHIN
 62
     3
100
AcDbLine
 10
199.0529491966682
 20
96.62854988740152
 30
0.0
 11
198.7530491966682
 21
94.22914988740151
 31
0.0
  0
LINE
  5
2DF
330
1A
100
AcDbEntity
  8
SEIHIN
 62
     3
100
AcDbLine
 10
200.2527491966682
 20
96.62854988740152
 30
0.0
 11
199.9528491966682
 21
94.22914988740151
 31
0.0
  0
LINE
  5
2E0
330
1A
100
AcDbEntity
  8
SEIHIN
 62
     3
100
AcDbLine
 10
201.4525491966681
 20
96.62854988740152
 30
0.0
 11
201.1526491966681
 21
94.22914988740151
 31
0.0
  0
ARC
  5
2E1
330
1A
100
AcDbEntity
  8
SEIHIN
 62
     3
100
AcDbCircle
 10
196.9532991966682
 20
94.22914988740151
 30
0.0
 40
0.5999499999999501
100
AcDbArc
 50
180.0
 51
0.0
  0
ARC
  5
2E2
330
1A
100
AcDbEntity
  8
SEIHIN
 62
     3
100
AcDbCircle
 10
195.7535491966682
 20
94.22914988740151
 30
0.0
 40
0.5999000000000763
100
AcDbArc
 50
180.0
 51
0.0
  0
LINE
  5
2E3
330
1A
100
AcDbEntity
  8
SEIHIN
 62
     3
100
AcDbLine
 10
194.5843491966682
 20
95.10354988740152
 30
0.0
 11
195.1467491966682
 21
94.02674988740152
 31
0.0
  0
ARC
  5
2E4
330
1A
100
AcDbEntity
  8
SEIHIN
 62
     3
100
AcDbCircle
 10
200.5527491966682
 20
94.22914988740151
 30
0.0
 40
0.5998999999999342
100
AcDbArc
 50
180.0
 51
0.0
  0
ARC
  5
2E5
330
1A
100
AcDbEntity
  8
SEIHIN
 62
     3
100
AcDbCircle
 10
198.1531491966682
 20
94.22914988740151
 30
0.0
 40
0.5999000000000479
100
AcDbArc
 50
180.0
 51
0.0
  0
ARC
  5
2E6
330
1A
100
AcDbEntity
  8
SEIHIN
 62
     3
100
AcDbCircle
 10
199.3528991966683
 20
94.22914988740151
 30
0.0
 40
0.5999500000000069
100
AcDbArc
 50
180.0
 51
0.0
  0
ARC
  5
2E7
330
1A
100
AcDbEntity
  8
SEIHIN
 62
     3
100
AcDbCircle
 10
197.5531991966681
 20
99.02794988740142
 30
0.0
 40
0.5999500000000069
100
AcDbArc
 50
0.0
 51
180.0
  0
LINE
  5
2E8
330
1A
100
AcDbEntity
  8
SEIHIN
 62
     3
100
AcDbLine
 10
196.9532491966681
 20
99.02794988740142
 30
0.0
 11
196.6533491966682
 21
96.62854988740152
 31
0.0
  0
ARC
  5
2E9
330
1A
100
AcDbEntity
  8
SEIHIN
 62
     3
100
AcDbCircle
 10
198.7530491966681
 20
99.02794988740142
 30
0.0
 40
0.599899999999991
100
AcDbArc
 50
0.0
 51
180.0
  0
ARC
  5
2EA
330
1A
100
AcDbEntity
  8
SEIHIN
 62
     3
100
AcDbCircle
 10
199.9527991966683
 20
99.02794988740142
 30
0.0
 40
0.5999500000000069
100
AcDbArc
 50
0.0
 51
180.0
  0
LINE
  5
2EB
330
1A
100
AcDbEntity
  8
SEIHIN
 62
     3
100
AcDbLine
 10
198.1531491966681
 20
99.02794988740142
 30
0.0
 11
197.8531491966681
 21
96.62854988740152
 31
0.0
  0
LINE
  5
2EC
330
1A
100
AcDbEntity
  8
SEIHIN
 62
     3
100
AcDbLine
 10
199.3528491966682
 20
99.02794988740142
 30
0.0
 11
199.0529491966682
 21
96.62854988740152
 31
0.0
  0
LINE
  5
2ED
330
1A
100
AcDbEntity
  8
SEIHIN
 62
     3
100
AcDbLine
 10
200.5527491966682
 20
99.02794988740142
 30
0.0
 11
200.2527491966682
 21
96.62854988740152
 31
0.0
  0
LINE
  5
2EE
330
1A
100
AcDbEntity
  8
SEIHIN
 62
     3
100
AcDbLine
 10
205.0519491966682
 20
96.62854988740152
 30
0.0
 11
204.7519491966681
 21
94.22914988740151
 31
0.0
  0
LINE
  5
2EF
330
1A
100
AcDbEntity
  8
SEIHIN
 62
     3
100
AcDbLine
 10
202.6523491966683
 20
96.62854988740152
 30
0.0
 11
202.3523491966682
 21
94.22914988740151
 31
0.0
  0
LINE
  5
2F0
330
1A
100
AcDbEntity
  8
SEIHIN
 62
     3
100
AcDbLine
 10
203.8521491966682
 20
96.62854988740152
 30
0.0
 11
203.5522491966683
 21
94.22914988740151
 31
0.0
  0
LINE
  5
2F1
330
1A
100
AcDbEntity
  8
SEIHIN
 62
     3
100
AcDbLine
 10
206.2517491966683
 20
96.62854988740152
 30
0.0
 11
205.951849196668
 21
94.22914988740151
 31
0.0
  0
LINE
  5
2F2
330
1A
100
AcDbEntity
  8
SEIHIN
 62
     3
100
AcDbLine
 10
207.4515491966682
 20
96.62854988740152
 30
0.0
 11
207.1515491966682
 21
94.22914988740151
 31
0.0
  0
LINE
  5
2F3
330
1A
100
AcDbEntity
  8
SEIHIN
 62
     3
100
AcDbLine
 10
208.6513491966682
 20
96.62854988740152
 30
0.0
 11
208.3514491966683
 21
94.22914988740151
 31
0.0
  0
ARC
  5
2F4
330
1A
100
AcDbEntity
  8
SEIHIN
 62
     3
100
AcDbCircle
 10
205.3518991966681
 20
94.22914988740151
 30
0.0
 40
0.5999499999999785
100
AcDbArc
 50
180.0
 51
0.0
  0
ARC
  5
2F5
330
1A
100
AcDbEntity
  8
SEIHIN
 62
     3
100
AcDbCircle
 10
202.9522991966683
 20
94.22914988740151
 30
0.0
 40
0.5999500000000069
100
AcDbArc
 50
180.0
 51
0.0
  0
ARC
  5
2F6
330
1A
100
AcDbEntity
  8
SEIHIN
 62
     3
100
AcDbCircle
 10
204.1520491966681
 20
94.22914988740151
 30
0.0
 40
0.5998999999999342
100
AcDbArc
 50
180.0
 51
0.0
  0
ARC
  5
2F7
330
1A
100
AcDbEntity
  8
SEIHIN
 62
     3
100
AcDbCircle
 10
208.9512491966682
 20
94.22914988740151
 30
0.0
 40
0.5999000000000763
100
AcDbArc
 50
180.0
 51
0.0
  0
ARC
  5
2F8
330
1A
100
AcDbEntity
  8
SEIHIN
 62
     3
100
AcDbCircle
 10
206.5516491966682
 20
94.22914988740151
 30
0.0
 40
0.599899999999991
100
AcDbArc
 50
180.0
 51
0.0
  0
ARC
  5
2F9
330
1A
100
AcDbEntity
  8
SEIHIN
 62
     3
100
AcDbCircle
 10
207.7514991966682
 20
94.22914988740151
 30
0.0
 40
0.5999500000000069
100
AcDbArc
 50
180.0
 51
0.0
  0
ARC
  5
2FA
330
1A
100
AcDbEntity
  8
SEIHIN
 62
     3
100
AcDbCircle
 10
205.9518491966682
 20
99.02794988740142
 30
0.0
 40
0.5998999999999342
100
AcDbArc
 50
0.0
 51
180.0
  0
ARC
  5
2FB
330
1A
100
AcDbEntity
  8
SEIHIN
 62
     3
100
AcDbCircle
 10
202.3523991966682
 20
99.02794988740142
 30
0.0
 40
0.5999499999999216
100
AcDbArc
 50
0.0
 51
180.0
  0
ARC
  5
2FC
330
1A
100
AcDbEntity
  8
SEIHIN
 62
     3
100
AcDbCircle
 10
203.5522491966682
 20
99.02794988740142
 30
0.0
 40
0.5999000000000763
100
AcDbArc
 50
0.0
 51
180.0
  0
ARC
  5
2FD
330
1A
100
AcDbEntity
  8
SEIHIN
 62
     3
100
AcDbCircle
 10
204.7519991966682
 20
99.02794988740142
 30
0.0
 40
0.5999500000000637
100
AcDbArc
 50
0.0
 51
180.0
  0
LINE
  5
2FE
330
1A
100
AcDbEntity
  8
SEIHIN
 62
     3
100
AcDbLine
 10
202.9523491966681
 20
99.02794988740142
 30
0.0
 11
202.6523491966683
 21
96.62854988740152
 31
0.0
  0
LINE
  5
2FF
330
1A
100
AcDbEntity
  8
SEIHIN
 62
     3
100
AcDbLine
 10
204.1520491966681
 20
99.02794988740142
 30
0.0
 11
203.8521491966682
 21
96.62854988740152
 31
0.0
  0
LINE
  5
300
330
1A
100
AcDbEntity
  8
SEIHIN
 62
     3
100
AcDbLine
 10
205.3519491966682
 20
99.02794988740142
 30
0.0
 11
205.0519491966682
 21
96.62854988740152
 31
0.0
  0
ARC
  5
301
330
1A
100
AcDbEntity
  8
SEIHIN
 62
     3
100
AcDbCircle
 10
207.1515991966683
 20
99.02794988740142
 30
0.0
 40
0.5999500000000069
100
AcDbArc
 50
0.0
 51
180.0
  0
ARC
  5
302
330
1A
100
AcDbEntity
  8
SEIHIN
 62
     3
100
AcDbCircle
 10
208.3514491966683
 20
99.02794988740142
 30
0.0
 40
0.599899999999991
100
AcDbArc
 50
0.0
 51
180.0
  0
LINE
  5
303
330
1A
100
AcDbEntity
  8
SEIHIN
 62
     3
100
AcDbLine
 10
208.9512491966682
 20
99.02794988740142
 30
0.0
 11
208.6513491966682
 21
96.62854988740152
 31
0.0
  0
LINE
  5
304
330
1A
100
AcDbEntity
  8
SEIHIN
 62
     3
100
AcDbLine
 10
206.5516491966682
 20
99.02794988740142
 30
0.0
 11
206.2517491966683
 21
96.62854988740152
 31
0.0
  0
LINE
  5
305
330
1A
100
AcDbEntity
  8
SEIHIN
 62
     3
100
AcDbLine
 10
207.7515491966682
 20
99.02794988740142
 30
0.0
 11
207.4515491966682
 21
96.62854988740152
 31
0.0
  0
LINE
  5
306
330
1A
100
AcDbEntity
  8
SEIHIN
 62
     3
100
AcDbLine
 10
194.0254491966681
 20
197.311905242019
 30
0.0
 11
202.3154491966682
 21
183.955905242019
 31
0.0
  0
LINE
  5
307
330
1A
100
AcDbEntity
  8
SEIHIN
 62
     3
100
AcDbLine
 10
201.2049491966682
 20
183.279905242019
 30
0.0
 11
192.9469491966683
 21
196.584605242019
 31
0.0
  0
ARC
  5
30B
330
1A
100
AcDbEntity
  8
SEIHIN
 62
     3
100
AcDbCircle
 10
202.9042501344072
 20
184.3346045821157
 30
0.0
 40
2.000003593746949
100
AcDbArc
 50
211.8264930924036
 51
257.9040121829153
  0
ARC
  5
30C
330
1A
100
AcDbEntity
  8
SEIHIN
 62
     3
100
AcDbCircle
 10
203.1650555549826
 20
184.4833007681224
 30
0.0
 40
0.9999885024548692
100
AcDbArc
 50
211.8300582597792
 51
257.9064336933971
  0
LINE
  5
30D
330
1A
100
AcDbEntity
  8
SEIHIN
 62
     3
100
AcDbLine
 10
194.0255491966683
 20
203.802505242019
 30
0.0
 11
202.3154491966682
 21
217.158505242019
 31
0.0
  0
LINE
  5
30E
330
1A
100
AcDbEntity
  8
SEIHIN
 62
     3
100
AcDbLine
 10
201.2050491966681
 20
217.834505242019
 30
0.0
 11
192.9469491966683
 21
204.529905242019
 31
0.0
  0
ARC
  5
30F
330
1A
100
AcDbEntity
  8
SEIHIN
 62
     3
100
AcDbCircle
 10
192.3262520234305
 20
196.2572036695201
 30
0.0
 40
2.00000157250071
100
AcDbArc
 50
31.82660430236661
 51
90.00008098070976
  0
ARC
  5
310
330
1A
100
AcDbEntity
  8
SEIHIN
 62
     3
100
AcDbCircle
 10
192.3262520234304
 20
204.8572068145177
 30
0.0
 40
2.00000157250075
100
AcDbArc
 50
269.9999190192938
 51
328.1733956976384
  0
ARC
  5
311
330
1A
100
AcDbEntity
  8
SEIHIN
 62
     3
100
AcDbCircle
 10
186.1035259707043
 20
200.5571929810922
 30
0.0
 40
4.449976774052977
100
AcDbArc
 50
55.65875886313902
 51
304.1729971192932
  0
ARC
  5
312
330
1A
100
AcDbEntity
  8
SEIHIN
 62
     3
100
AcDbCircle
 10
186.1035162624883
 20
200.5571881008277
 30
0.0
 40
3.24996706586529
100
AcDbArc
 50
54.9907793941906
 51
304.7195384930921
  0
LINE
  5
315
330
1A
100
AcDbEntity
  8
SEIHIN
 62
     3
100
AcDbLine
 10
192.3262491966682
 20
198.2572052420189
 30
0.0
 11
189.1154491966682
 21
198.257305242019
 31
0.0
  0
LINE
  5
316
330
1A
100
AcDbEntity
  8
SEIHIN
 62
     3
100
AcDbLine
 10
192.0972491966681
 20
197.0572052420189
 30
0.0
 11
189.1779491966683
 21
197.0572052420189
 31
0.0
  0
ARC
  5
317
330
1A
100
AcDbEntity
  8
SEIHIN
 62
     3
100
AcDbCircle
 10
189.177824220667
 20
196.0571666310097
 30
0.0
 40
1.000038618818337
100
AcDbArc
 50
89.99283967909189
 51
124.3296342933357
  0
ARC
  5
318
330
1A
100
AcDbEntity
  8
SEIHIN
 62
     3
100
AcDbCircle
 10
189.1154894768527
 20
196.2573179458497
 30
0.0
 40
1.999987296574938
100
AcDbArc
 50
90.00115394961355
 51
125.0103069300726
  0
ARC
  5
319
330
1A
100
AcDbEntity
  8
SEIHIN
 62
     3
100
AcDbCircle
 10
192.0973124944893
 20
196.0571700307586
 30
0.0
 40
1.00003521326346
100
AcDbArc
 50
31.83107314697372
 51
90.00362657030207
  0
LINE
  5
31A
330
1A
100
AcDbEntity
  8
SEIHIN
 62
     3
100
AcDbLine
 10
192.3262491966682
 20
202.857205242019
 30
0.0
 11
189.1154491966682
 21
202.857305242019
 31
0.0
  0
LINE
  5
31B
330
1A
100
AcDbEntity
  8
SEIHIN
 62
     3
100
AcDbLine
 10
192.0972491966681
 20
204.0572052420189
 30
0.0
 11
189.1779491966683
 21
204.0572052420189
 31
0.0
  0
ARC
  5
31C
330
1A
100
AcDbEntity
  8
SEIHIN
 62
     3
100
AcDbCircle
 10
189.1780914559751
 20
205.0571612825864
 30
0.0
 40
0.9999560506868702
100
AcDbArc
 50
235.6485899905617
 51
269.9918487838544
  0
ARC
  5
31D
330
1A
100
AcDbEntity
  8
SEIHIN
 62
     3
100
AcDbCircle
 10
189.1153596208494
 20
204.8573334916199
 30
0.0
 40
2.000028251606877
100
AcDbArc
 50
234.9950566453657
 51
270.0025661219375
  0
ARC
  5
31E
330
1A
100
AcDbEntity
  8
SEIHIN
 62
     3
100
AcDbCircle
 10
192.0972650952269
 20
205.0572140869408
 30
0.0
 40
1.000008845048317
100
AcDbArc
 50
269.999089087735
 51
328.1765105045189
  0
ARC
  5
31F
330
1A
100
AcDbEntity
  8
SEIHIN
 62
     3
100
AcDbCircle
 10
202.904250134407
 20
216.7798059019222
 30
0.0
 40
2.000003593746888
100
AcDbArc
 50
102.0959878170804
 51
148.1735069075906
  0
ARC
  5
320
330
1A
100
AcDbEntity
  8
SEIHIN
 62
     3
100
AcDbCircle
 10
203.1651437744018
 20
216.6312014257986
 30
0.0
 40
1.000015094901321
100
AcDbArc
 50
102.0984091416878
 51
148.1770718206512
  0
TEXT
  5
321
330
1A
100
AcDbEntity
  8
ZUWAKU
 62
     7
100
AcDbText
 10
327.1013476411085
 20
8.060146781246267
 30
0.0
 40
4.0
  1
ＬＥ０８
100
AcDbText
  0
ARC
  5
325
330
1A
100
AcDbEntity
  8
SEIHIN
 62
     3
100
AcDbCircle
 10
275.5401491966682
 20
99.02794988740142
 30
0.0
 40
0.5998999999999342
100
AcDbArc
 50
0.0
 51
180.0
  0
ARC
  5
326
330
1A
100
AcDbEntity
  8
SEIHIN
 62
     3
100
AcDbCircle
 10
274.9402491966682
 20
94.22914988740151
 30
0.0
 40
0.5998999999999058
100
AcDbArc
 50
180.0
 51
0.0
  0
ARC
  5
329
330
1A
100
AcDbEntity
  8
SEIHIN
 62
     3
100
AcDbCircle
 10
241.9457491966681
 20
99.02794988740142
 30
0.0
 40
0.5999000000000195
100
AcDbArc
 50
0.0
 51
180.0
  0
ARC
  5
32A
330
1A
100
AcDbEntity
  8
SEIHIN
 62
     3
100
AcDbCircle
 10
242.5456491966683
 20
94.22914988740151
 30
0.0
 40
0.5999000000000195
100
AcDbArc
 50
180.0
 51
0.0
  0
LINE
  5
32B
330
1A
100
AcDbEntity
  8
SEIHIN
 62
     3
100
AcDbLine
 10
242.5456491966681
 20
99.02794988740142
 30
0.0
 11
242.2457491966682
 21
96.62854988740152
 31
0.0
  0
LINE
  5
32C
330
1A
100
AcDbEntity
  8
SEIHIN
 62
     4
100
AcDbLine
 10
232.2732491966681
 20
89.6973498874015
 30
0.0
 11
235.8924491966682
 21
103.2040498874014
 31
0.0
  0
LINE
  5
32D
330
1A
100
AcDbEntity
  8
SEIHIN
 62
     4
100
AcDbLine
 10
229.3755491966682
 20
90.4738498874015
 30
0.0
 11
232.7956491966681
 21
103.2377498874015
 31
0.0
  0
ARC
  5
32F
330
1A
100
AcDbEntity
  8
SEIHIN
 62
     3
100
AcDbCircle
 10
226.3483491966682
 20
99.02794988740142
 30
0.0
 40
0.599899999999991
100
AcDbArc
 50
0.0
 51
180.0
  0
ARC
  5
330
330
1A
100
AcDbEntity
  8
SEIHIN
 62
     3
100
AcDbCircle
 10
225.7484491966682
 20
94.22914988740151
 30
0.0
 40
0.5998999999999058
100
AcDbArc
 50
180.0
 51
0.0
  0
ARC
  5
331
330
1A
100
AcDbEntity
  8
SEIHIN
 62
     3
100
AcDbCircle
 10
217.9497991966682
 20
99.02794988740142
 30
0.0
 40
0.5999499999999216
100
AcDbArc
 50
0.0
 51
180.0
  0
ARC
  5
332
330
1A
100
AcDbEntity
  8
SEIHIN
 62
     3
100
AcDbCircle
 10
217.3498991966682
 20
94.22914988740151
 30
0.0
 40
0.5999499999999216
100
AcDbArc
 50
180.0
 51
0.0
  0
LINE
  5
333
330
1A
100
AcDbEntity
  8
SEIHIN
 62
     3
100
AcDbLine
 10
211.0509491966682
 20
96.62854988740152
 30
0.0
 11
210.7510491966682
 21
94.22914988740151
 31
0.0
  0
LINE
  5
334
330
1A
100
AcDbEntity
  8
SEIHIN
 62
     3
100
AcDbLine
 10
212.2507491966682
 20
96.62854988740152
 30
0.0
 11
211.9507491966682
 21
94.22914988740151
 31
0.0
  0
LINE
  5
335
330
1A
100
AcDbEntity
  8
SEIHIN
 62
     3
100
AcDbLine
 10
214.6503491966682
 20
96.62854988740152
 30
0.0
 11
214.3503491966681
 21
94.22914988740151
 31
0.0
  0
LINE
  5
336
330
1A
100
AcDbEntity
  8
SEIHIN
 62
     3
100
AcDbLine
 10
215.850149196668
 20
96.62854988740152
 30
0.0
 11
215.5502491966682
 21
94.22914988740151
 31
0.0
  0
LINE
  5
337
330
1A
100
AcDbEntity
  8
SEIHIN
 62
     3
100
AcDbLine
 10
213.4505491966681
 20
96.62854988740152
 30
0.0
 11
213.1506491966681
 21
94.22914988740151
 31
0.0
  0
LINE
  5
338
330
1A
100
AcDbEntity
  8
SEIHIN
 62
     3
100
AcDbLine
 10
217.0499491966681
 20
96.62854988740152
 30
0.0
 11
216.7499491966683
 21
94.22914988740151
 31
0.0
  0
ARC
  5
339
330
1A
100
AcDbEntity
  8
SEIHIN
 62
     3
100
AcDbCircle
 10
213.7504491966682
 20
94.22914988740151
 30
0.0
 40
0.5998999999999058
100
AcDbArc
 50
180.0
 51
0.0
  0
ARC
  5
33A
330
1A
100
AcDbEntity
  8
SEIHIN
 62
     3
100
AcDbCircle
 10
212.5506991966681
 20
94.22914988740151
 30
0.0
 40
0.5999499999999216
100
AcDbArc
 50
180.0
 51
0.0
  0
ARC
  5
33B
330
1A
100
AcDbEntity
  8
SEIHIN
 62
     3
100
AcDbCircle
 10
211.3508491966682
 20
94.22914988740151
 30
0.0
 40
0.5999000000000763
100
AcDbArc
 50
180.0
 51
0.0
  0
ARC
  5
33C
330
1A
100
AcDbEntity
  8
SEIHIN
 62
     3
100
AcDbCircle
 10
216.1500491966682
 20
94.22914988740151
 30
0.0
 40
0.5999000000000763
100
AcDbArc
 50
180.0
 51
0.0
  0
ARC
  5
33D
330
1A
100
AcDbEntity
  8
SEIHIN
 62
     3
100
AcDbCircle
 10
214.9502991966682
 20
94.22914988740151
 30
0.0
 40
0.5999500000000922
100
AcDbArc
 50
180.0
 51
0.0
  0
ARC
  5
33E
330
1A
100
AcDbEntity
  8
SEIHIN
 62
     3
100
AcDbCircle
 10
214.3503991966683
 20
99.02794988740142
 30
0.0
 40
0.5999500000000069
100
AcDbArc
 50
0.0
 51
180.0
  0
ARC
  5
33F
330
1A
100
AcDbEntity
  8
SEIHIN
 62
     3
100
AcDbCircle
 10
213.1506491966682
 20
99.02794988740142
 30
0.0
 40
0.599899999999991
100
AcDbArc
 50
0.0
 51
180.0
  0
ARC
  5
340
330
1A
100
AcDbEntity
  8
SEIHIN
 62
     3
100
AcDbCircle
 10
210.7510491966682
 20
99.02794988740142
 30
0.0
 40
0.5999000000000763
100
AcDbArc
 50
0.0
 51
180.0
  0
ARC
  5
341
330
1A
100
AcDbEntity
  8
SEIHIN
 62
     3
100
AcDbCircle
 10
211.9507991966681
 20
99.02794988740142
 30
0.0
 40
0.5999500000000922
100
AcDbArc
 50
0.0
 51
180.0
  0
LINE
  5
342
330
1A
100
AcDbEntity
  8
SEIHIN
 62
     3
100
AcDbLine
 10
210.1511491966681
 20
99.02794988740142
 30
0.0
 11
209.8511491966681
 21
96.62854988740152
 31
0.0
  0
LINE
  5
343
330
1A
100
AcDbEntity
  8
SEIHIN
 62
     3
100
AcDbLine
 10
211.3508491966681
 20
99.02794988740142
 30
0.0
 11
211.0509491966682
 21
96.62854988740152
 31
0.0
  0
LINE
  5
344
330
1A
100
AcDbEntity
  8
SEIHIN
 62
     3
100
AcDbLine
 10
212.5507491966682
 20
99.02794988740142
 30
0.0
 11
212.2507491966682
 21
96.62854988740152
 31
0.0
  0
LINE
  5
345
330
1A
100
AcDbEntity
  8
SEIHIN
 62
     3
100
AcDbLine
 10
213.7504491966682
 20
99.02794988740142
 30
0.0
 11
213.4505491966681
 21
96.62854988740152
 31
0.0
  0
ARC
  5
346
330
1A
100
AcDbEntity
  8
SEIHIN
 62
     3
100
AcDbCircle
 10
215.5502491966682
 20
99.02794988740142
 30
0.0
 40
0.5998999999999058
100
AcDbArc
 50
0.0
 51
180.0
  0
ARC
  5
347
330
1A
100
AcDbEntity
  8
SEIHIN
 62
     3
100
AcDbCircle
 10
216.7499491966682
 20
99.02794988740142
 30
0.0
 40
0.5999000000000763
100
AcDbArc
 50
0.0
 51
180.0
  0
LINE
  5
348
330
1A
100
AcDbEntity
  8
SEIHIN
 62
     3
100
AcDbLine
 10
214.9503491966683
 20
99.02794988740142
 30
0.0
 11
214.6503491966682
 21
96.62854988740152
 31
0.0
  0
LINE
  5
349
330
1A
100
AcDbEntity
  8
SEIHIN
 62
     3
100
AcDbLine
 10
216.1500491966681
 20
99.02794988740142
 30
0.0
 11
215.850149196668
 21
96.62854988740152
 31
0.0
  0
LINE
  5
34A
330
1A
100
AcDbEntity
  8
SEIHIN
 62
     3
100
AcDbLine
 10
217.3498491966682
 20
99.02794988740142
 30
0.0
 11
217.0499491966681
 21
96.62854988740152
 31
0.0
  0
LINE
  5
34B
330
1A
100
AcDbEntity
  8
SEIHIN
 62
     3
100
AcDbLine
 10
220.6493491966682
 20
96.62854988740152
 30
0.0
 11
220.3494491966683
 21
94.22914988740151
 31
0.0
  0
LINE
  5
34C
330
1A
100
AcDbEntity
  8
SEIHIN
 62
     3
100
AcDbLine
 10
218.2497491966683
 20
96.62854988740152
 30
0.0
 11
217.9498491966681
 21
94.22914988740151
 31
0.0
  0
LINE
  5
34D
330
1A
100
AcDbEntity
  8
SEIHIN
 62
     3
100
AcDbLine
 10
219.4495491966681
 20
96.62854988740152
 30
0.0
 11
219.1495491966681
 21
94.22914988740151
 31
0.0
  0
LINE
  5
34E
330
1A
100
AcDbEntity
  8
SEIHIN
 62
     3
100
AcDbLine
 10
221.8491491966683
 20
96.62854988740152
 30
0.0
 11
221.5491491966683
 21
94.22914988740151
 31
0.0
  0
LINE
  5
34F
330
1A
100
AcDbEntity
  8
SEIHIN
 62
     3
100
AcDbLine
 10
223.0489491966681
 20
96.62854988740152
 30
0.0
 11
222.7490491966682
 21
94.22914988740151
 31
0.0
  0
LINE
  5
350
330
1A
100
AcDbEntity
  8
SEIHIN
 62
     3
100
AcDbLine
 10
224.2487491966681
 20
96.62854988740152
 30
0.0
 11
223.9487491966681
 21
94.22914988740151
 31
0.0
  0
LINE
  5
351
330
1A
100
AcDbEntity
  8
SEIHIN
 62
     3
100
AcDbLine
 10
225.4485491966682
 20
96.62854988740152
 30
0.0
 11
225.1486491966681
 21
94.22914988740151
 31
0.0
  0
ARC
  5
352
330
1A
100
AcDbEntity
  8
SEIHIN
 62
     3
100
AcDbCircle
 10
222.1490991966683
 20
94.22914988740151
 30
0.0
 40
0.5999500000000069
100
AcDbArc
 50
180.0
 51
0.0
  0
ARC
  5
353
330
1A
100
AcDbEntity
  8
SEIHIN
 62
     3
100
AcDbCircle
 10
220.9492491966682
 20
94.22914988740151
 30
0.0
 40
0.599899999999991
100
AcDbArc
 50
180.0
 51
0.0
  0
ARC
  5
354
330
1A
100
AcDbEntity
  8
SEIHIN
 62
     3
100
AcDbCircle
 10
219.7494991966682
 20
94.22914988740151
 30
0.0
 40
0.5999500000000637
100
AcDbArc
 50
180.0
 51
0.0
  0
ARC
  5
355
330
1A
100
AcDbEntity
  8
SEIHIN
 62
     3
100
AcDbCircle
 10
218.5496491966682
 20
94.22914988740151
 30
0.0
 40
0.5998999999999342
100
AcDbArc
 50
180.0
 51
0.0
  0
ARC
  5
356
330
1A
100
AcDbEntity
  8
SEIHIN
 62
     3
100
AcDbCircle
 10
224.5486991966681
 20
94.22914988740151
 30
0.0
 40
0.5999500000000069
100
AcDbArc
 50
180.0
 51
0.0
  0
ARC
  5
357
330
1A
100
AcDbEntity
  8
SEIHIN
 62
     3
100
AcDbCircle
 10
223.3488491966681
 20
94.22914988740151
 30
0.0
 40
0.5999000000000195
100
AcDbArc
 50
180.0
 51
0.0
  0
ARC
  5
358
330
1A
100
AcDbEntity
  8
SEIHIN
 62
     3
100
AcDbCircle
 10
221.5491491966683
 20
99.02794988740142
 30
0.0
 40
0.599899999999991
100
AcDbArc
 50
0.0
 51
180.0
  0
LINE
  5
359
330
1A
100
AcDbEntity
  8
SEIHIN
 62
     3
100
AcDbLine
 10
222.1490491966682
 20
99.02794988740142
 30
0.0
 11
221.8491491966683
 21
96.62854988740152
 31
0.0
  0
ARC
  5
35A
330
1A
100
AcDbEntity
  8
SEIHIN
 62
     3
100
AcDbCircle
 10
220.3493991966682
 20
99.02794988740142
 30
0.0
 40
0.5999500000000637
100
AcDbArc
 50
0.0
 51
180.0
  0
ARC
  5
35B
330
1A
100
AcDbEntity
  8
SEIHIN
 62
     3
100
AcDbCircle
 10
219.1495491966682
 20
99.02794988740142
 30
0.0
 40
0.5998999999999342
100
AcDbArc
 50
0.0
 51
180.0
  0
LINE
  5
35C
330
1A
100
AcDbEntity
  8
SEIHIN
 62
     3
100
AcDbLine
 10
218.5496491966682
 20
99.02794988740142
 30
0.0
 11
218.2497491966683
 21
96.62854988740152
 31
0.0
  0
LINE
  5
35D
330
1A
100
AcDbEntity
  8
SEIHIN
 62
     3
100
AcDbLine
 10
219.7494491966681
 20
99.02794988740142
 30
0.0
 11
219.4495491966681
 21
96.62854988740152
 31
0.0
  0
LINE
  5
35E
330
1A
100
AcDbEntity
  8
SEIHIN
 62
     3
100
AcDbLine
 10
220.9492491966682
 20
99.02794988740142
 30
0.0
 11
220.6493491966682
 21
96.62854988740152
 31
0.0
  0
ARC
  5
35F
330
1A
100
AcDbEntity
  8
SEIHIN
 62
     3
100
AcDbCircle
 10
225.1485991966682
 20
99.02794988740142
 30
0.0
 40
0.5999499999999785
100
AcDbArc
 50
0.0
 51
180.0
  0
ARC
  5
360
330
1A
100
AcDbEntity
  8
SEIHIN
 62
     3
100
AcDbCircle
 10
223.9487491966682
 20
99.02794988740142
 30
0.0
 40
0.5999000000000763
100
AcDbArc
 50
0.0
 51
180.0
  0
ARC
  5
361
330
1A
100
AcDbEntity
  8
SEIHIN
 62
     3
100
AcDbCircle
 10
222.7489991966683
 20
99.02794988740142
 30
0.0
 40
0.5999500000000069
100
AcDbArc
 50
0.0
 51
180.0
  0
LINE
  5
362
330
1A
100
AcDbEntity
  8
SEIHIN
 62
     3
100
AcDbLine
 10
224.5486491966683
 20
99.02794988740142
 30
0.0
 11
224.2487491966681
 21
96.62854988740152
 31
0.0
  0
LINE
  5
363
330
1A
100
AcDbEntity
  8
SEIHIN
 62
     3
100
AcDbLine
 10
223.3488491966681
 20
99.02794988740142
 30
0.0
 11
223.0489491966681
 21
96.62854988740152
 31
0.0
  0
LINE
  5
364
330
1A
100
AcDbEntity
  8
SEIHIN
 62
     3
100
AcDbLine
 10
225.7484491966682
 20
99.02794988740142
 30
0.0
 11
225.4485491966682
 21
96.62854988740152
 31
0.0
  0
ARC
  5
365
330
1A
100
AcDbEntity
  8
SEIHIN
 62
     3
100
AcDbCircle
 10
234.1470491966682
 20
94.22914988740151
 30
0.0
 40
0.5998999999999342
100
AcDbArc
 50
180.0
 51
0.0
  0
LINE
  5
366
330
1A
100
AcDbEntity
  8
SEIHIN
 62
     3
100
AcDbLine
 10
226.6483491966682
 20
96.62854988740152
 30
0.0
 11
226.3483491966681
 21
94.22914988740151
 31
0.0
  0
LINE
  5
367
330
1A
100
AcDbEntity
  8
SEIHIN
 62
     3
100
AcDbLine
 10
227.8481491966681
 20
96.62854988740152
 30
0.0
 11
227.5482491966682
 21
94.22914988740151
 31
0.0
  0
LINE
  5
368
330
1A
100
AcDbEntity
  8
SEIHIN
 62
     3
100
AcDbLine
 10
229.0479491966682
 20
96.62854988740152
 30
0.0
 11
228.7479491966682
 21
94.22914988740151
 31
0.0
  0
LINE
  5
369
330
1A
100
AcDbEntity
  8
SEIHIN
 62
     3
100
AcDbLine
 10
230.2477491966683
 20
96.62854988740152
 30
0.0
 11
229.9477491966682
 21
94.22914988740151
 31
0.0
  0
ARC
  5
36A
330
1A
100
AcDbEntity
  8
SEIHIN
 62
     3
100
AcDbCircle
 10
230.5476345938791
 20
94.22917543368859
 30
0.0
 40
0.5998853977547318
100
AcDbArc
 50
180.0024399567611
 51
239.5088072114039
  0
ARC
  5
36B
330
1A
100
AcDbEntity
  8
SEIHIN
 62
     3
100
AcDbCircle
 10
228.1480491966682
 20
94.22914988740151
 30
0.0
 40
0.5999000000000763
100
AcDbArc
 50
180.0
 51
0.0
  0
ARC
  5
36C
330
1A
100
AcDbEntity
  8
SEIHIN
 62
     3
100
AcDbCircle
 10
226.9482991966682
 20
94.22914988740151
 30
0.0
 40
0.5999500000000922
100
AcDbArc
 50
180.0
 51
0.0
  0
ARC
  5
36D
330
1A
100
AcDbEntity
  8
SEIHIN
 62
     3
100
AcDbCircle
 10
229.3478491966682
 20
94.22914988740151
 30
0.0
 40
0.599899999999991
100
AcDbArc
 50
180.0
 51
0.0
  0
ARC
  5
36E
330
1A
100
AcDbEntity
  8
SEIHIN
 62
     3
100
AcDbCircle
 10
232.9472699341745
 20
94.22920053377124
 30
0.0
 40
0.5998792646317123
100
AcDbArc
 50
315.461191371181
 51
359.9951626545398
  0
LINE
  5
36F
330
1A
100
AcDbEntity
  8
SEIHIN
 62
     3
100
AcDbLine
 10
233.5992491966682
 20
94.64594988740151
 30
0.0
 11
233.5471491966682
 21
94.22914988740151
 31
0.0
  0
ARC
  5
370
330
1A
100
AcDbEntity
  8
SEIHIN
 62
     3
100
AcDbCircle
 10
229.9477991966682
 20
99.02794988740142
 30
0.0
 40
0.5999500000000922
100
AcDbArc
 50
0.0
 51
180.0
  0
ARC
  5
371
330
1A
100
AcDbEntity
  8
SEIHIN
 62
     3
100
AcDbCircle
 10
228.7479491966682
 20
99.02794988740142
 30
0.0
 40
0.5998999999999058
100
AcDbArc
 50
0.0
 51
180.0
  0
ARC
  5
372
330
1A
100
AcDbEntity
  8
SEIHIN
 62
     3
100
AcDbCircle
 10
227.5481991966681
 20
99.02794988740142
 30
0.0
 40
0.5999499999999216
100
AcDbArc
 50
0.0
 51
180.0
  0
LINE
  5
373
330
1A
100
AcDbEntity
  8
SEIHIN
 62
     3
100
AcDbLine
 10
226.9482491966682
 20
99.02794988740142
 30
0.0
 11
226.6483491966682
 21
96.62854988740152
 31
0.0
  0
LINE
  5
374
330
1A
100
AcDbEntity
  8
SEIHIN
 62
     3
100
AcDbLine
 10
228.1480491966683
 20
99.02794988740142
 30
0.0
 11
227.8481491966681
 21
96.62854988740152
 31
0.0
  0
LINE
  5
375
330
1A
100
AcDbEntity
  8
SEIHIN
 62
     3
100
AcDbLine
 10
229.3478491966681
 20
99.02794988740142
 30
0.0
 11
229.0479491966682
 21
96.62854988740152
 31
0.0
  0
ARC
  5
376
330
1A
100
AcDbEntity
  8
SEIHIN
 62
     3
100
AcDbCircle
 10
231.1475609650654
 20
99.02795176628387
 30
0.0
 40
0.5999117684001178
100
AcDbArc
 50
18.14217364487991
 51
180.000179446445
  0
LINE
  5
377
330
1A
100
AcDbEntity
  8
SEIHIN
 62
     3
100
AcDbLine
 10
230.5476491966682
 20
99.02794988740142
 30
0.0
 11
230.2477491966683
 21
96.62854988740152
 31
0.0
  0
LINE
  5
378
330
1A
100
AcDbEntity
  8
SEIHIN
 62
     3
100
AcDbLine
 10
236.2467491966681
 20
96.62854988740152
 30
0.0
 11
235.9467491966682
 21
94.22914988740151
 31
0.0
  0
LINE
  5
379
330
1A
100
AcDbEntity
  8
SEIHIN
 62
     3
100
AcDbLine
 10
235.0469491966681
 20
96.62854988740152
 30
0.0
 11
234.7469491966681
 21
94.22914988740151
 31
0.0
  0
LINE
  5
37A
330
1A
100
AcDbEntity
  8
SEIHIN
 62
     3
100
AcDbLine
 10
237.4465491966682
 20
96.62854988740152
 30
0.0
 11
237.1465491966682
 21
94.22914988740151
 31
0.0
  0
LINE
  5
37B
330
1A
100
AcDbEntity
  8
SEIHIN
 62
     3
100
AcDbLine
 10
238.6463491966682
 20
96.62854988740152
 30
0.0
 11
238.3463491966681
 21
94.22914988740151
 31
0.0
  0
LINE
  5
37C
330
1A
100
AcDbEntity
  8
SEIHIN
 62
     3
100
AcDbLine
 10
239.8461491966681
 20
96.62854988740152
 30
0.0
 11
239.5461491966683
 21
94.22914988740151
 31
0.0
  0
LINE
  5
37D
330
1A
100
AcDbEntity
  8
SEIHIN
 62
     3
100
AcDbLine
 10
241.0459491966682
 20
96.62854988740152
 30
0.0
 11
240.7459491966682
 21
94.22914988740151
 31
0.0
  0
LINE
  5
37E
330
1A
100
AcDbEntity
  8
SEIHIN
 62
     3
100
AcDbLine
 10
242.2457491966682
 20
96.62854988740152
 30
0.0
 11
241.9457491966682
 21
94.22914988740151
 31
0.0
  0
ARC
  5
37F
330
1A
100
AcDbEntity
  8
SEIHIN
 62
     3
100
AcDbCircle
 10
238.9462491966682
 20
94.22914988740151
 30
0.0
 40
0.5999000000000763
100
AcDbArc
 50
180.0
 51
0.0
  0
ARC
  5
380
330
1A
100
AcDbEntity
  8
SEIHIN
 62
     3
100
AcDbCircle
 10
236.5466491966683
 20
94.22914988740151
 30
0.0
 40
0.599899999999991
100
AcDbArc
 50
180.0
 51
0.0
  0
ARC
  5
381
330
1A
100
AcDbEntity
  8
SEIHIN
 62
     3
100
AcDbCircle
 10
235.3468491966682
 20
94.22914988740151
 30
0.0
 40
0.5999000000000763
100
AcDbArc
 50
180.0
 51
0.0
  0
ARC
  5
382
330
1A
100
AcDbEntity
  8
SEIHIN
 62
     3
100
AcDbCircle
 10
237.7464491966682
 20
94.22914988740151
 30
0.0
 40
0.5998999999999342
100
AcDbArc
 50
180.0
 51
0.0
  0
ARC
  5
383
330
1A
100
AcDbEntity
  8
SEIHIN
 62
     3
100
AcDbCircle
 10
240.1460491966683
 20
94.22914988740151
 30
0.0
 40
0.599899999999991
100
AcDbArc
 50
180.0
 51
0.0
  0
ARC
  5
384
330
1A
100
AcDbEntity
  8
SEIHIN
 62
     3
100
AcDbCircle
 10
241.3458491966682
 20
94.22914988740151
 30
0.0
 40
0.599899999999991
100
AcDbArc
 50
180.0
 51
0.0
  0
ARC
  5
385
330
1A
100
AcDbEntity
  8
SEIHIN
 62
     3
100
AcDbCircle
 10
238.3463491966681
 20
99.02794988740142
 30
0.0
 40
0.5999000000000763
100
AcDbArc
 50
0.0
 51
180.0
  0
ARC
  5
386
330
1A
100
AcDbEntity
  8
SEIHIN
 62
     3
100
AcDbCircle
 10
237.1465991966683
 20
99.02794988740142
 30
0.0
 40
0.5999500000000069
100
AcDbArc
 50
0.0
 51
180.0
  0
ARC
  5
387
330
1A
100
AcDbEntity
  8
SEIHIN
 62
     3
100
AcDbCircle
 10
235.9467491966682
 20
99.02794988740142
 30
0.0
 40
0.5999000000000763
100
AcDbArc
 50
0.0
 51
180.0
  0
ARC
  5
388
330
1A
100
AcDbEntity
  8
SEIHIN
 62
     3
100
AcDbCircle
 10
234.7469467925111
 20
99.02795316310662
 30
0.0
 40
0.6000024041660585
100
AcDbArc
 50
359.9996871944489
 51
72.55223848842291
  0
LINE
  5
389
330
1A
100
AcDbEntity
  8
SEIHIN
 62
     3
100
AcDbLine
 10
235.3468491966681
 20
99.02794988740142
 30
0.0
 11
235.0469491966681
 21
96.62854988740152
 31
0.0
  0
LINE
  5
38A
330
1A
100
AcDbEntity
  8
SEIHIN
 62
     3
100
AcDbLine
 10
236.5466491966683
 20
99.02794988740142
 30
0.0
 11
236.2467491966681
 21
96.62854988740152
 31
0.0
  0
LINE
  5
38B
330
1A
100
AcDbEntity
  8
SEIHIN
 62
     3
100
AcDbLine
 10
237.746449196668
 20
99.02794988740142
 30
0.0
 11
237.4465491966682
 21
96.62854988740152
 31
0.0
  0
ARC
  5
38C
330
1A
100
AcDbEntity
  8
SEIHIN
 62
     3
100
AcDbCircle
 10
240.7459491966682
 20
99.02794988740142
 30
0.0
 40
0.5998999999999058
100
AcDbArc
 50
0.0
 51
180.0
  0
ARC
  5
38D
330
1A
100
AcDbEntity
  8
SEIHIN
 62
     3
100
AcDbCircle
 10
239.5461991966682
 20
99.02794988740142
 30
0.0
 40
0.5999499999999501
100
AcDbArc
 50
0.0
 51
180.0
  0
LINE
  5
38E
330
1A
100
AcDbEntity
  8
SEIHIN
 62
     3
100
AcDbLine
 10
240.1460491966683
 20
99.02794988740142
 30
0.0
 11
239.8461491966681
 21
96.62854988740152
 31
0.0
  0
LINE
  5
38F
330
1A
100
AcDbEntity
  8
SEIHIN
 62
     3
100
AcDbLine
 10
238.9462491966682
 20
99.02794988740142
 30
0.0
 11
238.6463491966682
 21
96.62854988740152
 31
0.0
  0
LINE
  5
390
330
1A
100
AcDbEntity
  8
SEIHIN
 62
     3
100
AcDbLine
 10
241.3458491966681
 20
99.02794988740142
 30
0.0
 11
241.0459491966682
 21
96.62854988740152
 31
0.0
  0
ARC
  5
391
330
1A
100
AcDbEntity
  8
SEIHIN
 62
     3
100
AcDbCircle
 10
259.3428491966681
 20
94.22914988740151
 30
0.0
 40
0.5998999999999058
100
AcDbArc
 50
180.0
 51
0.0
  0
ARC
  5
392
330
1A
100
AcDbEntity
  8
SEIHIN
 62
     3
100
AcDbCircle
 10
258.7429491966683
 20
99.02794988740142
 30
0.0
 40
0.599899999999991
100
AcDbArc
 50
0.0
 51
180.0
  0
LINE
  5
393
330
1A
100
AcDbEntity
  8
SEIHIN
 62
     3
100
AcDbLine
 10
259.0428491966682
 20
96.62854988740152
 30
0.0
 11
258.7429491966683
 21
94.22914988740151
 31
0.0
  0
ARC
  5
394
330
1A
100
AcDbEntity
  8
SEIHIN
 62
     3
100
AcDbCircle
 10
250.3443491966682
 20
99.02794988740142
 30
0.0
 40
0.5999000000000763
100
AcDbArc
 50
0.0
 51
180.0
  0
ARC
  5
395
330
1A
100
AcDbEntity
  8
SEIHIN
 62
     3
100
AcDbCircle
 10
250.9442491966681
 20
94.22914988740151
 30
0.0
 40
0.599899999999991
100
AcDbArc
 50
180.0
 51
0.0
  0
LINE
  5
396
330
1A
100
AcDbEntity
  8
SEIHIN
 62
     3
100
AcDbLine
 10
250.9442491966682
 20
99.02794988740142
 30
0.0
 11
250.6443491966681
 21
96.62854988740152
 31
0.0
  0
LINE
  5
397
330
1A
100
AcDbEntity
  8
SEIHIN
 62
     3
100
AcDbLine
 10
243.4455491966681
 20
96.62854988740152
 30
0.0
 11
243.1455491966683
 21
94.22914988740151
 31
0.0
  0
LINE
  5
398
330
1A
100
AcDbEntity
  8
SEIHIN
 62
     3
100
AcDbLine
 10
244.6453491966682
 20
96.62854988740152
 30
0.0
 11
244.3453491966682
 21
94.22914988740151
 31
0.0
  0
LINE
  5
399
330
1A
100
AcDbEntity
  8
SEIHIN
 62
     3
100
AcDbLine
 10
245.8451491966682
 20
96.62854988740152
 30
0.0
 11
245.5451491966682
 21
94.22914988740151
 31
0.0
  0
LINE
  5
39A
330
1A
100
AcDbEntity
  8
SEIHIN
 62
     3
100
AcDbLine
 10
247.0449491966681
 20
96.62854988740152
 30
0.0
 11
246.7449491966683
 21
94.22914988740151
 31
0.0
  0
LINE
  5
39B
330
1A
100
AcDbEntity
  8
SEIHIN
 62
     3
100
AcDbLine
 10
248.2447491966683
 20
96.62854988740152
 30
0.0
 11
247.9447491966681
 21
94.22914988740151
 31
0.0
  0
LINE
  5
39C
330
1A
100
AcDbEntity
  8
SEIHIN
 62
     3
100
AcDbLine
 10
250.6443491966681
 20
96.62854988740152
 30
0.0
 11
250.3443491966681
 21
94.22914988740151
 31
0.0
  0
LINE
  5
39D
330
1A
100
AcDbEntity
  8
SEIHIN
 62
     3
100
AcDbLine
 10
249.4445491966682
 20
96.62854988740152
 30
0.0
 11
249.1445491966682
 21
94.22914988740151
 31
0.0
  0
ARC
  5
39E
330
1A
100
AcDbEntity
  8
SEIHIN
 62
     3
100
AcDbCircle
 10
246.1450491966683
 20
94.22914988740151
 30
0.0
 40
0.5999000000000195
100
AcDbArc
 50
180.0
 51
0.0
  0
ARC
  5
39F
330
1A
100
AcDbEntity
  8
SEIHIN
 62
     3
100
AcDbCircle
 10
243.7454491966682
 20
94.22914988740151
 30
0.0
 40
0.599899999999991
100
AcDbArc
 50
180.0
 51
0.0
  0
ARC
  5
3A0
330
1A
100
AcDbEntity
  8
SEIHIN
 62
     3
100
AcDbCircle
 10
244.9452491966682
 20
94.22914988740151
 30
0.0
 40
0.599899999999991
100
AcDbArc
 50
180.0
 51
0.0
  0
ARC
  5
3A1
330
1A
100
AcDbEntity
  8
SEIHIN
 62
     3
100
AcDbCircle
 10
247.3448491966682
 20
94.22914988740151
 30
0.0
 40
0.5998999999999058
100
AcDbArc
 50
180.0
 51
0.0
  0
ARC
  5
3A2
330
1A
100
AcDbEntity
  8
SEIHIN
 62
     3
100
AcDbCircle
 10
249.7444491966681
 20
94.22914988740151
 30
0.0
 40
0.5998999999999342
100
AcDbArc
 50
180.0
 51
0.0
  0
ARC
  5
3A3
330
1A
100
AcDbEntity
  8
SEIHIN
 62
     3
100
AcDbCircle
 10
248.5446491966682
 20
94.22914988740151
 30
0.0
 40
0.5999000000000763
100
AcDbArc
 50
180.0
 51
0.0
  0
ARC
  5
3A4
330
1A
100
AcDbEntity
  8
SEIHIN
 62
     3
100
AcDbCircle
 10
246.7449491966682
 20
99.02794988740142
 30
0.0
 40
0.5999000000000763
100
AcDbArc
 50
0.0
 51
180.0
  0
ARC
  5
3A5
330
1A
100
AcDbEntity
  8
SEIHIN
 62
     3
100
AcDbCircle
 10
244.3453491966682
 20
99.02794988740142
 30
0.0
 40
0.5998999999999058
100
AcDbArc
 50
0.0
 51
180.0
  0
ARC
  5
3A6
330
1A
100
AcDbEntity
  8
SEIHIN
 62
     3
100
AcDbCircle
 10
243.1455491966682
 20
99.02794988740142
 30
0.0
 40
0.5999000000000763
100
AcDbArc
 50
0.0
 51
180.0
  0
LINE
  5
3A7
330
1A
100
AcDbEntity
  8
SEIHIN
 62
     3
100
AcDbLine
 10
243.7454491966682
 20
99.02794988740142
 30
0.0
 11
243.4455491966681
 21
96.62854988740152
 31
0.0
  0
ARC
  5
3A8
330
1A
100
AcDbEntity
  8
SEIHIN
 62
     3
100
AcDbCircle
 10
245.5451491966681
 20
99.02794988740142
 30
0.0
 40
0.5999000000000195
100
AcDbArc
 50
0.0
 51
180.0
  0
LINE
  5
3A9
330
1A
100
AcDbEntity
  8
SEIHIN
 62
     3
100
AcDbLine
 10
244.9452491966681
 20
99.02794988740142
 30
0.0
 11
244.6453491966682
 21
96.62854988740152
 31
0.0
  0
LINE
  5
3AA
330
1A
100
AcDbEntity
  8
SEIHIN
 62
     3
100
AcDbLine
 10
246.1450491966681
 20
99.02794988740142
 30
0.0
 11
245.8451491966682
 21
96.62854988740152
 31
0.0
  0
ARC
  5
3AB
330
1A
100
AcDbEntity
  8
SEIHIN
 62
     3
100
AcDbCircle
 10
249.1445491966682
 20
99.02794988740142
 30
0.0
 40
0.5998999999999342
100
AcDbArc
 50
0.0
 51
180.0
  0
ARC
  5
3AC
330
1A
100
AcDbEntity
  8
SEIHIN
 62
     3
100
AcDbCircle
 10
247.9447491966682
 20
99.02794988740142
 30
0.0
 40
0.599899999999991
100
AcDbArc
 50
0.0
 51
180.0
  0
LINE
  5
3AD
330
1A
100
AcDbEntity
  8
SEIHIN
 62
     3
100
AcDbLine
 10
247.3448491966682
 20
99.02794988740142
 30
0.0
 11
247.0449491966681
 21
96.62854988740152
 31
0.0
  0
LINE
  5
3AE
330
1A
100
AcDbEntity
  8
SEIHIN
 62
     3
100
AcDbLine
 10
249.7444491966681
 20
99.02794988740142
 30
0.0
 11
249.4445491966682
 21
96.62854988740152
 31
0.0
  0
LINE
  5
3AF
330
1A
100
AcDbEntity
  8
SEIHIN
 62
     3
100
AcDbLine
 10
248.5446491966682
 20
99.02794988740142
 30
0.0
 11
248.2447491966683
 21
96.62854988740152
 31
0.0
  0
LINE
  5
3B0
330
1A
100
AcDbEntity
  8
SEIHIN
 62
     3
100
AcDbLine
 10
251.8440491966682
 20
96.62854988740152
 30
0.0
 11
251.5441491966681
 21
94.22914988740151
 31
0.0
  0
LINE
  5
3B1
330
1A
100
AcDbEntity
  8
SEIHIN
 62
     3
100
AcDbLine
 10
255.4435491966683
 20
96.62854988740152
 30
0.0
 11
255.1435491966683
 21
94.22914988740151
 31
0.0
  0
LINE
  5
3B2
330
1A
100
AcDbEntity
  8
SEIHIN
 62
     3
100
AcDbLine
 10
254.2436491966682
 20
96.62854988740152
 30
0.0
 11
253.9437491966681
 21
94.22914988740151
 31
0.0
  0
LINE
  5
3B3
330
1A
100
AcDbEntity
  8
SEIHIN
 62
     3
100
AcDbLine
 10
253.0439491966682
 20
96.62854988740152
 30
0.0
 11
252.7439491966682
 21
94.22914988740151
 31
0.0
  0
LINE
  5
3B4
330
1A
100
AcDbEntity
  8
SEIHIN
 62
     3
100
AcDbLine
 10
257.8431491966682
 20
96.62854988740152
 30
0.0
 11
257.5431491966682
 21
94.22914988740151
 31
0.0
  0
LINE
  5
3B5
330
1A
100
AcDbEntity
  8
SEIHIN
 62
     3
100
AcDbLine
 10
256.6432491966681
 20
96.62854988740152
 30
0.0
 11
256.3433491966681
 21
94.22914988740151
 31
0.0
  0
ARC
  5
3B6
330
1A
100
AcDbEntity
  8
SEIHIN
 62
     3
100
AcDbCircle
 10
254.5436491966682
 20
94.22914988740151
 30
0.0
 40
0.5999000000000763
100
AcDbArc
 50
180.0
 51
0.0
  0
ARC
  5
3B7
330
1A
100
AcDbEntity
  8
SEIHIN
 62
     3
100
AcDbCircle
 10
252.1440491966682
 20
94.22914988740151
 30
0.0
 40
0.5999000000000763
100
AcDbArc
 50
180.0
 51
0.0
  0
ARC
  5
3B8
330
1A
100
AcDbEntity
  8
SEIHIN
 62
     3
100
AcDbCircle
 10
253.3438491966681
 20
94.22914988740151
 30
0.0
 40
0.5998999999999342
100
AcDbArc
 50
180.0
 51
0.0
  0
ARC
  5
3B9
330
1A
100
AcDbEntity
  8
SEIHIN
 62
     3
100
AcDbCircle
 10
255.7434491966682
 20
94.22914988740151
 30
0.0
 40
0.5998999999999058
100
AcDbArc
 50
180.0
 51
0.0
  0
ARC
  5
3BA
330
1A
100
AcDbEntity
  8
SEIHIN
 62
     3
100
AcDbCircle
 10
258.1430491966683
 20
94.22914988740151
 30
0.0
 40
0.5999000000000195
100
AcDbArc
 50
180.0
 51
0.0
  0
ARC
  5
3BB
330
1A
100
AcDbEntity
  8
SEIHIN
 62
     3
100
AcDbCircle
 10
256.9432491966681
 20
94.22914988740151
 30
0.0
 40
0.5999000000000763
100
AcDbArc
 50
180.0
 51
0.0
  0
ARC
  5
3BC
330
1A
100
AcDbEntity
  8
SEIHIN
 62
     3
100
AcDbCircle
 10
255.1435491966683
 20
99.02794988740142
 30
0.0
 40
0.599899999999991
100
AcDbArc
 50
0.0
 51
180.0
  0
ARC
  5
3BD
330
1A
100
AcDbEntity
  8
SEIHIN
 62
     3
100
AcDbCircle
 10
253.9437491966682
 20
99.02794988740142
 30
0.0
 40
0.5999000000000763
100
AcDbArc
 50
0.0
 51
180.0
  0
ARC
  5
3BE
330
1A
100
AcDbEntity
  8
SEIHIN
 62
     3
100
AcDbCircle
 10
252.7439491966682
 20
99.02794988740142
 30
0.0
 40
0.5998999999999342
100
AcDbArc
 50
0.0
 51
180.0
  0
ARC
  5
3BF
330
1A
100
AcDbEntity
  8
SEIHIN
 62
     3
100
AcDbCircle
 10
251.5441491966682
 20
99.02794988740142
 30
0.0
 40
0.599899999999991
100
AcDbArc
 50
0.0
 51
180.0
  0
LINE
  5
3C0
330
1A
100
AcDbEntity
  8
SEIHIN
 62
     3
100
AcDbLine
 10
254.5436491966682
 20
99.02794988740142
 30
0.0
 11
254.2436491966682
 21
96.62854988740152
 31
0.0
  0
LINE
  5
3C1
330
1A
100
AcDbEntity
  8
SEIHIN
 62
     3
100
AcDbLine
 10
253.3438491966681
 20
99.02794988740142
 30
0.0
 11
253.0439491966682
 21
96.62854988740152
 31
0.0
  0
LINE
  5
3C2
330
1A
100
AcDbEntity
  8
SEIHIN
 62
     3
100
AcDbLine
 10
252.1440491966682
 20
99.02794988740142
 30
0.0
 11
251.8440491966682
 21
96.62854988740152
 31
0.0
  0
ARC
  5
3C3
330
1A
100
AcDbEntity
  8
SEIHIN
 62
     3
100
AcDbCircle
 10
257.5431491966682
 20
99.02794988740142
 30
0.0
 40
0.5999000000000763
100
AcDbArc
 50
0.0
 51
180.0
  0
ARC
  5
3C4
330
1A
100
AcDbEntity
  8
SEIHIN
 62
     3
100
AcDbCircle
 10
256.3433491966682
 20
99.02794988740142
 30
0.0
 40
0.5998999999999342
100
AcDbArc
 50
0.0
 51
180.0
  0
LINE
  5
3C5
330
1A
100
AcDbEntity
  8
SEIHIN
 62
     3
100
AcDbLine
 10
255.7434491966682
 20
99.02794988740142
 30
0.0
 11
255.4435491966683
 21
96.62854988740152
 31
0.0
  0
LINE
  5
3C6
330
1A
100
AcDbEntity
  8
SEIHIN
 62
     3
100
AcDbLine
 10
258.1430491966683
 20
99.02794988740142
 30
0.0
 11
257.8431491966682
 21
96.62854988740152
 31
0.0
  0
LINE
  5
3C7
330
1A
100
AcDbEntity
  8
SEIHIN
 62
     3
100
AcDbLine
 10
256.9432491966681
 20
99.02794988740142
 30
0.0
 11
256.6432491966681
 21
96.62854988740152
 31
0.0
  0
ARC
  5
3C8
330
1A
100
AcDbEntity
  8
SEIHIN
 62
     3
100
AcDbCircle
 10
267.1415491966683
 20
99.02794988740142
 30
0.0
 40
0.599899999999991
100
AcDbArc
 50
0.0
 51
180.0
  0
ARC
  5
3C9
330
1A
100
AcDbEntity
  8
SEIHIN
 62
     3
100
AcDbCircle
 10
267.7414491966682
 20
94.22914988740151
 30
0.0
 40
0.599899999999991
100
AcDbArc
 50
180.0
 51
0.0
  0
LINE
  5
3CA
330
1A
100
AcDbEntity
  8
SEIHIN
 62
     3
100
AcDbLine
 10
267.4415491966683
 20
96.62854988740152
 30
0.0
 11
267.1415491966683
 21
94.22914988740151
 31
0.0
  0
LINE
  5
3CB
330
1A
100
AcDbEntity
  8
SEIHIN
 62
     3
100
AcDbLine
 10
262.6423491966681
 20
96.62854988740152
 30
0.0
 11
262.3423491966682
 21
94.22914988740151
 31
0.0
  0
LINE
  5
3CC
330
1A
100
AcDbEntity
  8
SEIHIN
 62
     3
100
AcDbLine
 10
261.4424491966683
 20
96.62854988740152
 30
0.0
 11
261.1425491966682
 21
94.22914988740151
 31
0.0
  0
LINE
  5
3CD
330
1A
100
AcDbEntity
  8
SEIHIN
 62
     3
100
AcDbLine
 10
260.2427491966682
 20
96.62854988740152
 30
0.0
 11
259.9427491966681
 21
94.22914988740151
 31
0.0
  0
LINE
  5
3CE
330
1A
100
AcDbEntity
  8
SEIHIN
 62
     3
100
AcDbLine
 10
266.2416491966681
 20
96.62854988740152
 30
0.0
 11
265.941649196668
 21
94.22914988740151
 31
0.0
  0
LINE
  5
3CF
330
1A
100
AcDbEntity
  8
SEIHIN
 62
     3
100
AcDbLine
 10
265.0419491966681
 20
96.62854988740152
 30
0.0
 11
264.7419491966681
 21
94.22914988740151
 31
0.0
  0
LINE
  5
3D0
330
1A
100
AcDbEntity
  8
SEIHIN
 62
     3
100
AcDbLine
 10
263.8420491966681
 20
96.62854988740152
 30
0.0
 11
263.5421491966682
 21
94.22914988740151
 31
0.0
  0
ARC
  5
3D1
330
1A
100
AcDbEntity
  8
SEIHIN
 62
     3
100
AcDbCircle
 10
262.9422491966682
 20
94.22914988740151
 30
0.0
 40
0.599899999999991
100
AcDbArc
 50
180.0
 51
0.0
  0
ARC
  5
3D2
330
1A
100
AcDbEntity
  8
SEIHIN
 62
     3
100
AcDbCircle
 10
261.7424491966682
 20
94.22914988740151
 30
0.0
 40
0.5999000000000195
100
AcDbArc
 50
180.0
 51
0.0
  0
ARC
  5
3D3
330
1A
100
AcDbEntity
  8
SEIHIN
 62
     3
100
AcDbCircle
 10
260.5426491966681
 20
94.22914988740151
 30
0.0
 40
0.5999000000000763
100
AcDbArc
 50
180.0
 51
0.0
  0
ARC
  5
3D4
330
1A
100
AcDbEntity
  8
SEIHIN
 62
     3
100
AcDbCircle
 10
266.5415991966681
 20
94.22914988740151
 30
0.0
 40
0.5999500000000922
100
AcDbArc
 50
180.0
 51
0.0
  0
ARC
  5
3D5
330
1A
100
AcDbEntity
  8
SEIHIN
 62
     3
100
AcDbCircle
 10
265.3417991966681
 20
94.22914988740151
 30
0.0
 40
0.5998499999999752
100
AcDbArc
 50
180.0
 51
0.0
  0
ARC
  5
3D6
330
1A
100
AcDbEntity
  8
SEIHIN
 62
     3
100
AcDbCircle
 10
264.1419991966681
 20
94.22914988740151
 30
0.0
 40
0.5999500000000069
100
AcDbArc
 50
180.0
 51
0.0
  0
ARC
  5
3D7
330
1A
100
AcDbEntity
  8
SEIHIN
 62
     3
100
AcDbCircle
 10
263.5421491966682
 20
99.02794988740142
 30
0.0
 40
0.5998999999999058
100
AcDbArc
 50
0.0
 51
180.0
  0
ARC
  5
3D8
330
1A
100
AcDbEntity
  8
SEIHIN
 62
     3
100
AcDbCircle
 10
259.9427491966682
 20
99.02794988740142
 30
0.0
 40
0.599899999999991
100
AcDbArc
 50
0.0
 51
180.0
  0
LINE
  5
3D9
330
1A
100
AcDbEntity
  8
SEIHIN
 62
     3
100
AcDbLine
 10
259.3428491966682
 20
99.02794988740142
 30
0.0
 11
259.0428491966682
 21
96.62854988740152
 31
0.0
  0
ARC
  5
3DA
330
1A
100
AcDbEntity
  8
SEIHIN
 62
     3
100
AcDbCircle
 10
262.3423491966682
 20
99.02794988740142
 30
0.0
 40
0.5999000000000195
100
AcDbArc
 50
0.0
 51
180.0
  0
ARC
  5
3DB
330
1A
100
AcDbEntity
  8
SEIHIN
 62
     3
100
AcDbCircle
 10
261.1425491966682
 20
99.02794988740142
 30
0.0
 40
0.599899999999991
100
AcDbArc
 50
0.0
 51
180.0
  0
LINE
  5
3DC
330
1A
100
AcDbEntity
  8
SEIHIN
 62
     3
100
AcDbLine
 10
262.9422491966682
 20
99.02794988740142
 30
0.0
 11
262.6423491966681
 21
96.62854988740152
 31
0.0
  0
LINE
  5
3DD
330
1A
100
AcDbEntity
  8
SEIHIN
 62
     3
100
AcDbLine
 10
261.7424491966682
 20
99.02794988740142
 30
0.0
 11
261.4424491966683
 21
96.62854988740152
 31
0.0
  0
LINE
  5
3DE
330
1A
100
AcDbEntity
  8
SEIHIN
 62
     3
100
AcDbLine
 10
260.5426491966682
 20
99.02794988740142
 30
0.0
 11
260.2427491966682
 21
96.62854988740152
 31
0.0
  0
ARC
  5
3DF
330
1A
100
AcDbEntity
  8
SEIHIN
 62
     3
100
AcDbCircle
 10
265.9417491966681
 20
99.02794988740142
 30
0.0
 40
0.5999000000000763
100
AcDbArc
 50
0.0
 51
180.0
  0
ARC
  5
3E0
330
1A
100
AcDbEntity
  8
SEIHIN
 62
     3
100
AcDbCircle
 10
264.741949196668
 20
99.02794988740142
 30
0.0
 40
0.5999000000000195
100
AcDbArc
 50
0.0
 51
180.0
  0
LINE
  5
3E1
330
1A
100
AcDbEntity
  8
SEIHIN
 62
     3
100
AcDbLine
 10
266.5416491966682
 20
99.02794988740142
 30
0.0
 11
266.2416491966681
 21
96.62854988740152
 31
0.0
  0
LINE
  5
3E2
330
1A
100
AcDbEntity
  8
SEIHIN
 62
     3
100
AcDbLine
 10
265.3418491966681
 20
99.02794988740142
 30
0.0
 11
265.0419491966681
 21
96.62854988740152
 31
0.0
  0
LINE
  5
3E3
330
1A
100
AcDbEntity
  8
SEIHIN
 62
     3
100
AcDbLine
 10
264.142049196668
 20
99.02794988740142
 30
0.0
 11
263.8420491966681
 21
96.62854988740152
 31
0.0
  0
LINE
  5
3E4
330
1A
100
AcDbEntity
  8
SEIHIN
 62
     3
100
AcDbLine
 10
271.0408491966681
 20
96.62854988740152
 30
0.0
 11
270.7409491966681
 21
94.22914988740151
 31
0.0
  0
LINE
  5
3E5
330
1A
100
AcDbEntity
  8
SEIHIN
 62
     3
100
AcDbLine
 10
269.8411491966681
 20
96.62854988740152
 30
0.0
 11
269.5411491966682
 21
94.22914988740151
 31
0.0
  0
LINE
  5
3E6
330
1A
100
AcDbEntity
  8
SEIHIN
 62
     3
100
AcDbLine
 10
268.6412491966683
 20
96.62854988740152
 30
0.0
 11
268.3413491966682
 21
94.22914988740151
 31
0.0
  0
LINE
  5
3E7
330
1A
100
AcDbEntity
  8
SEIHIN
 62
     3
100
AcDbLine
 10
274.6403491966682
 20
96.62854988740152
 30
0.0
 11
274.3403491966682
 21
94.22914988740151
 31
0.0
  0
LINE
  5
3E8
330
1A
100
AcDbEntity
  8
SEIHIN
 62
     3
100
AcDbLine
 10
273.4404491966683
 20
96.62854988740152
 30
0.0
 11
273.1405491966682
 21
94.22914988740151
 31
0.0
  0
LINE
  5
3E9
330
1A
100
AcDbEntity
  8
SEIHIN
 62
     3
100
AcDbLine
 10
272.2407491966682
 20
96.62854988740152
 30
0.0
 11
271.9407491966681
 21
94.22914988740151
 31
0.0
  0
ARC
  5
3EA
330
1A
100
AcDbEntity
  8
SEIHIN
 62
     3
100
AcDbCircle
 10
271.3407991966681
 20
94.22914988740151
 30
0.0
 40
0.5999499999999785
100
AcDbArc
 50
180.0
 51
0.0
  0
ARC
  5
3EB
330
1A
100
AcDbEntity
  8
SEIHIN
 62
     3
100
AcDbCircle
 10
270.1410491966681
 20
94.22914988740151
 30
0.0
 40
0.5998999999999058
100
AcDbArc
 50
180.0
 51
0.0
  0
ARC
  5
3EC
330
1A
100
AcDbEntity
  8
SEIHIN
 62
     3
100
AcDbCircle
 10
268.9411991966683
 20
94.22914988740151
 30
0.0
 40
0.5999500000000069
100
AcDbArc
 50
180.0
 51
0.0
  0
ARC
  5
3ED
330
1A
100
AcDbEntity
  8
SEIHIN
 62
     3
100
AcDbCircle
 10
273.7403991966682
 20
94.22914988740151
 30
0.0
 40
0.5999500000000922
100
AcDbArc
 50
180.0
 51
0.0
  0
ARC
  5
3EE
330
1A
100
AcDbEntity
  8
SEIHIN
 62
     3
100
AcDbCircle
 10
272.5406491966681
 20
94.22914988740151
 30
0.0
 40
0.5999000000000763
100
AcDbArc
 50
180.0
 51
0.0
  0
ARC
  5
3EF
330
1A
100
AcDbEntity
  8
SEIHIN
 62
     3
100
AcDbCircle
 10
270.7409491966682
 20
99.02794988740142
 30
0.0
 40
0.5998999999999058
100
AcDbArc
 50
0.0
 51
180.0
  0
LINE
  5
3F0
330
1A
100
AcDbEntity
  8
SEIHIN
 62
     3
100
AcDbLine
 10
271.340849196668
 20
99.02794988740142
 30
0.0
 11
271.0408491966681
 21
96.62854988740152
 31
0.0
  0
ARC
  5
3F1
330
1A
100
AcDbEntity
  8
SEIHIN
 62
     3
100
AcDbCircle
 10
269.5411491966682
 20
99.02794988740142
 30
0.0
 40
0.5999000000000763
100
AcDbArc
 50
0.0
 51
180.0
  0
ARC
  5
3F2
330
1A
100
AcDbEntity
  8
SEIHIN
 62
     3
100
AcDbCircle
 10
268.3413491966681
 20
99.02794988740142
 30
0.0
 40
0.5998999999999342
100
AcDbArc
 50
0.0
 51
180.0
  0
LINE
  5
3F3
330
1A
100
AcDbEntity
  8
SEIHIN
 62
     3
100
AcDbLine
 10
270.1410491966683
 20
99.02794988740142
 30
0.0
 11
269.8411491966681
 21
96.62854988740152
 31
0.0
  0
LINE
  5
3F4
330
1A
100
AcDbEntity
  8
SEIHIN
 62
     3
100
AcDbLine
 10
268.9412491966681
 20
99.02794988740142
 30
0.0
 11
268.6412491966683
 21
96.62854988740152
 31
0.0
  0
LINE
  5
3F5
330
1A
100
AcDbEntity
  8
SEIHIN
 62
     3
100
AcDbLine
 10
267.7414491966682
 20
99.02794988740142
 30
0.0
 11
267.4415491966683
 21
96.62854988740152
 31
0.0
  0
ARC
  5
3F6
330
1A
100
AcDbEntity
  8
SEIHIN
 62
     3
100
AcDbCircle
 10
274.3403491966682
 20
99.02794988740142
 30
0.0
 40
0.599899999999991
100
AcDbArc
 50
0.0
 51
180.0
  0
ARC
  5
3F7
330
1A
100
AcDbEntity
  8
SEIHIN
 62
     3
100
AcDbCircle
 10
273.1405491966683
 20
99.02794988740142
 30
0.0
 40
0.5999000000000195
100
AcDbArc
 50
0.0
 51
180.0
  0
ARC
  5
3F8
330
1A
100
AcDbEntity
  8
SEIHIN
 62
     3
100
AcDbCircle
 10
271.9407491966681
 20
99.02794988740142
 30
0.0
 40
0.5999000000000763
100
AcDbArc
 50
0.0
 51
180.0
  0
LINE
  5
3F9
330
1A
100
AcDbEntity
  8
SEIHIN
 62
     3
100
AcDbLine
 10
273.7404491966683
 20
99.02794988740142
 30
0.0
 11
273.4404491966683
 21
96.62854988740152
 31
0.0
  0
LINE
  5
3FA
330
1A
100
AcDbEntity
  8
SEIHIN
 62
     3
100
AcDbLine
 10
272.5406491966682
 20
99.02794988740142
 30
0.0
 11
272.2407491966682
 21
96.62854988740152
 31
0.0
  0
LINE
  5
3FB
330
1A
100
AcDbEntity
  8
SEIHIN
 62
     3
100
AcDbLine
 10
274.9402491966682
 20
99.02794988740142
 30
0.0
 11
274.6403491966682
 21
96.62854988740152
 31
0.0
  0
LINE
  5
3FD
330
1A
100
AcDbEntity
  8
SEIHIN
 62
     3
100
AcDbLine
 10
276.1399491966682
 20
99.02794988740142
 30
0.0
 11
275.5343491966681
 21
94.1462498874015
 31
0.0
  0
ARC
  5
3FE
330
1A
100
AcDbEntity
  8
SEIHIN
 62
     3
100
AcDbCircle
 10
276.7398991966682
 20
99.02794988740142
 30
0.0
 40
0.5999500000000069
100
AcDbArc
 50
0.0
 51
180.0
  0
LINE
  5
3FF
330
1A
100
AcDbEntity
  8
SEIHIN
 62
     3
100
AcDbLine
 10
275.8423491966683
 20
96.62854988740152
 30
0.0
 11
277.0398491966683
 21
96.62854988740152
 31
0.0
  0
LINE
  5
400
330
1A
100
AcDbEntity
  8
SEIHIN
 62
     3
100
AcDbLine
 10
277.3398491966683
 20
99.02794988740142
 30
0.0
 11
277.0398491966683
 21
96.62854988740152
 31
0.0
  0
LINE
  5
401
330
1A
100
AcDbEntity
  8
SEIHIN
 62
     3
100
AcDbLine
 10
229.6535491966682
 20
194.557205242019
 30
0.0
 11
229.6535491966682
 21
179.897105242019
 31
0.0
  0
LINE
  5
402
330
1A
100
AcDbEntity
  8
SEIHIN
 62
     3
100
AcDbLine
 10
228.4535491966682
 20
194.557205242019
 30
0.0
 11
228.4535491966682
 21
179.897105242019
 31
0.0
  0
ARC
  5
40C
330
1A
100
AcDbEntity
  8
SEIHIN
 62
     3
100
AcDbCircle
 10
226.953535817105
 20
179.8970944256256
 30
0.0
 40
2.700013379584969
100
AcDbArc
 50
257.906213503061
 51
0.0002295298577072
  0
ARC
  5
40D
330
1A
100
AcDbEntity
  8
SEIHIN
 62
     3
100
AcDbCircle
 10
226.9534014098573
 20
179.8970666100385
 30
0.0
 40
1.50004778730834
100
AcDbArc
 50
257.9072520363841
 51
0.0014755859474071
  0
LINE
  5
413
330
1A
100
AcDbEntity
  8
SEIHIN
 62
     3
100
AcDbLine
 10
228.4535491966682
 20
206.557205242019
 30
0.0
 11
228.4535491966682
 21
221.217305242019
 31
0.0
  0
LINE
  5
414
330
1A
100
AcDbEntity
  8
SEIHIN
 62
     3
100
AcDbLine
 10
229.6535491966682
 20
206.557205242019
 30
0.0
 11
229.6536491966681
 21
221.217305242019
 31
0.0
  0
LINE
  5
415
330
1A
100
AcDbEntity
  8
SEIHIN
 62
     3
100
AcDbLine
 10
229.6535491966682
 20
194.557205242019
 30
0.0
 11
228.4535491966682
 21
194.557205242019
 31
0.0
  0
LINE
  5
416
330
1A
100
AcDbEntity
  8
SEIHIN
 62
     3
100
AcDbLine
 10
229.6535491966682
 20
206.557205242019
 30
0.0
 11
228.4535491966682
 21
206.557205242019
 31
0.0
  0
ARC
  5
417
330
1A
100
AcDbEntity
  8
SEIHIN
 62
     3
100
AcDbCircle
 10
226.9535858171049
 20
221.2172756370881
 30
0.0
 40
2.700063379725492
100
AcDbArc
 50
0.0006282213979703
 51
102.0946442481944
  0
ARC
  5
418
330
1A
100
AcDbEntity
  8
SEIHIN
 62
     3
100
AcDbCircle
 10
226.9535503000025
 20
221.2173043500704
 30
0.0
 40
1.499998896666066
100
AcDbArc
 50
0.000034069950122
 51
102.0950579280766
  0
DIMENSION
  5
429
330
1A
100
AcDbEntity
  8
SUNPOU
100
AcDbDimension
  2
*D3
 10
277.3398491966683
 20
72.58645247953563
 30
0.0
 11
233.996632196759
 21
75.08645247953563
 31
0.0
 70
    32
  1
7.5m
  3
STANDARD
100
AcDbAlignedDimension
 13
190.6534151968497
 23
96.62860704654526
 33
0.0
 14
277.3398491966683
 24
99.02794988740142
 34
0.0
100
AcDbRotatedDimension
1001
ACAD
1000
DSTYLE
1002
{
1070
   140
1040
3.0
1070
    74
1070
     0
1070
   172
1070
     1
1070
    73
1070
     0
1070
   272
1070
     2
1070
    77
1070
     3
1070
   173
1070
     1
1070
   147
1040
1.0
1070
    42
1040
3.0
1070
    44
1040
1.5
1070
    43
1040
7.0
1070
   271
1070
     0
1070
   178
1070
     4
1070
   177
1070
     4
1070
   176
1070
     4
1070
   141
1040
150.0
1070
     7
1000
_OPEN
1070
     6
1000
_OPEN
1070
    41
1040
3.0
1002
}
  0
DIMENSION
  5
438
330
1A
100
AcDbEntity
  8
SUNPOU
100
AcDbDimension
  2
*D4
 10
168.6782637700159
 20
94.0305498874015
 30
0.0
 11
166.1782637700159
 21
84.23054988740151
 31
0.0
 70
    32
  1
φ<>
  3
STANDARD
100
AcDbAlignedDimension
 13
193.6533821970313
 23
99.6285740467268
 33
0.0
 14
195.1533491966683
 24
94.0305498874015
 34
0.0
 50
90.0
100
AcDbRotatedDimension
1001
ACAD
1000
DSTYLE
1002
{
1070
   140
1040
3.0
1070
    74
1070
     0
1070
   172
1070
     1
1070
    73
1070
     0
1070
   272
1070
     2
1070
    77
1070
     3
1070
   173
1070
     1
1070
   147
1040
1.0
1070
    42
1040
3.0
1070
    44
1040
1.5
1070
    43
1040
7.0
1070
   271
1070
     0
1070
   178
1070
     4
1070
   177
1070
     4
1070
   176
1070
     4
1070
   141
1040
150.0
1070
     7
1000
_OPEN
1070
     6
1000
_OPEN
1070
    41
1040
3.0
1002
}
  0
LINE
  5
460
330
1A
100
AcDbEntity
  8
CENTER_L
 48
5.0
100
AcDbLine
 10
183.6534151968495
 20
96.62860704654526
 30
0.0
 11
282.8047483660325
 21
96.62860704654526
 31
0.0
  0
LINE
  5
461
330
1A
100
AcDbEntity
  8
CENTER_L
 48
5.0
100
AcDbLine
 10
143.2786277834543
 20
96.62860704654526
 30
0.0
 11
123.2786277836378
 21
96.62860704654526
 31
0.0
  0
LINE
  5
463
330
1A
100
AcDbEntity
  8
CENTER_L
 48
5.0
100
AcDbLine
 10
133.2786706244023
 20
106.6286498873097
 30
0.0
 11
133.2786706244023
 21
86.62864988749328
 31
0.0
  0
CIRCLE
  5
464
330
1A
100
AcDbEntity
  8
SEIHIN
100
AcDbCircle
 10
133.2786706244023
 20
96.62860704654526
 30
0.0
 40
1.799967910487225
  0
CIRCLE
  5
465
330
1A
100
AcDbEntity
  8
SEIHIN
100
AcDbCircle
 10
133.2786706244023
 20
96.62860704654526
 30
0.0
 40
2.999957158837815
  0
DIMENSION
  5
473
330
1A
100
AcDbEntity
  8
SUNPOU
100
AcDbDimension
  2
*D5
 10
229.6535491966682
 20
153.4193014607847
 30
0.0
 11
205.6535491966631
 21
155.9193014607847
 31
0.0
 12
0.0
 22
-16.07144464538248
 32
0.0
 70
    32
  3
STANDARD
100
AcDbAlignedDimension
 13
181.653549196658
 23
200.5572957086175
 33
0.0
 14
229.6535491966682
 24
179.897105242019
 34
0.0
100
AcDbRotatedDimension
1001
ACAD
1000
DSTYLE
1002
{
1070
   140
1040
3.0
1070
    74
1070
     0
1070
   172
1070
     1
1070
    73
1070
     0
1070
   272
1070
     2
1070
    77
1070
     3
1070
   173
1070
     1
1070
   147
1040
1.0
1070
    42
1040
3.0
1070
    44
1040
1.5
1070
    43
1040
7.0
1070
   271
1070
     0
1070
   178
1070
     4
1070
   177
1070
     4
1070
   176
1070
     4
1070
   141
1040
150.0
1070
     7
1000
_OPEN
1070
     6
1000
_OPEN
1070
    41
1040
3.0
1002
}
  0
DIMENSION
  5
480
330
1A
100
AcDbEntity
  8
SUNPOU
100
AcDbDimension
  2
*D6
 10
259.9513860291938
 20
177.257005242019
 30
0.0
 11
257.4513860291938
 21
200.5572052420189
 31
0.0
 12
0.0
 22
-16.07144464538248
 32
0.0
 70
    32
  3
STANDARD
100
AcDbAlignedDimension
 13
226.3878491966683
 23
223.8574052420188
 33
0.0
 14
226.3878491966683
 24
177.257005242019
 34
0.0
 50
90.0
100
AcDbRotatedDimension
1001
ACAD
1000
DSTYLE
1002
{
1070
   140
1040
3.0
1070
    74
1070
     0
1070
   172
1070
     1
1070
    73
1070
     0
1070
   272
1070
     2
1070
    77
1070
     3
1070
   173
1070
     1
1070
   147
1040
1.0
1070
    42
1040
3.0
1070
    44
1040
1.5
1070
    43
1040
7.0
1070
   271
1070
     0
1070
   178
1070
     4
1070
   177
1070
     4
1070
   176
1070
     4
1070
   141
1040
150.0
1070
     7
1000
_OPEN
1070
     6
1000
_OPEN
1070
    41
1040
3.0
1002
}
  0
DIMENSION
  5
48F
330
1A
100
AcDbEntity
  8
SUNPOU
100
AcDbDimension
  2
*D7
 10
229.6535491966682
 20
187.4816797786811
 30
0.0
 11
240.9535491966682
 21
189.9816797786811
 31
0.0
 12
0.0
 22
-16.07144464538248
 32
0.0
 70
    32
  1
φ<>
  3
STANDARD
100
AcDbAlignedDimension
 13
228.4535491966682
 23
187.227155242019
 33
0.0
 14
229.6535491966682
 24
187.227155242019
 34
0.0
100
AcDbRotatedDimension
1001
ACAD
1000
DSTYLE
1002
{
1070
   140
1040
3.0
1070
    74
1070
     0
1070
   172
1070
     1
1070
    73
1070
     0
1070
   272
1070
     2
1070
    77
1070
     3
1070
   173
1070
     1
1070
   147
1040
1.0
1070
    42
1040
3.0
1070
    44
1040
1.5
1070
    43
1040
7.0
1070
   271
1070
     1
1070
   178
1070
     4
1070
   177
1070
     4
1070
   176
1070
     4
1070
   141
1040
150.0
1070
     7
1000
_OPEN
1070
     6
1000
_OPEN
1070
    41
1040
3.0
1002
}
  0
LINE
  5
4C2
330
1A
100
AcDbEntity
  8
CENTER_L
 48
5.0
100
AcDbLine
 10
174.6535491971126
 20
200.5572957086175
 30
0.0
 11
236.653508270033
 21
200.5572957086175
 31
0.0
  0
VIEWPORT
  5
22
330
17
100
AcDbEntity
 67
     1
  8
0
100
AcDbViewport
 10
313.6808219178082
 20
148.5
 30
0.0
 40
627.3616438356165
 41
297.0
 68
     2
 69
     1
1001
ACAD
1000
MVIEW
1002
{
1070
    16
1010
0.0
1020
0.0
1030
0.0
1010
0.0
1020
0.0
1030
1.0
1040
0.0
1040
297.0
1040
313.6808219178082
1040
148.5
1040
50.0
1040
0.0
1040
0.0
1070
     0
1070
   100
1070
     1
1070
     0
1070
     0
1070
     0
1070
     0
1070
     0
1040
0.0
1040
0.0
1040
0.0
1040
1.0
1040
1.0
1040
10.0
1040
10.0
1070
     0
1002
{
1002
}
1002
}
  0
VIEWPORT
  5
64
330
17
100
AcDbEntity
 67
     1
  8
VIEWPORT
100
AcDbViewport
 10
210.0
 20
148.5
 30
0.0
 40
420.0
 41
297.0
 68
     1
 69
     2
1001
ACAD
1000
MVIEW
1002
{
1070
    16
1010
0.0
1020
0.0
1030
0.0
1010
0.0
1020
0.0
1030
1.0
1040
0.0
1040
302.9399999999998
1040
210.0
1040
148.5
1040
50.0
1040
0.0
1040
0.0
1070
     0
1070
   100
1070
     1
1070
     0
1070
     0
1070
     0
1070
     0
1070
     0
1040
0.0
1040
0.0
1040
0.0
1040
5.0
1040
5.0
1040
0.0
1040
0.0
1070
     0
1002
{
1002
}
1002
}
  0
ENDSEC
  0
SECTION
  2
OBJECTS
  0
DICTIONARY
  5
C
330
0
100
AcDbDictionary
  3
ACAD_GROUP
350
D
  3
ACAD_MLINESTYLE
350
E
  3
ACAD_LAYOUT
350
517
  3
ACAD_PLOTSETTINGS
350
518
1001
ACAD
1000
TREAT_AS_HARD
1070
     0
  0
DICTIONARY
  5
521
330
1A
100
AcDbDictionary
  3
ACAD_LAYOUTSELFREF
350
522
  0
DICTIONARY
  5
51F
330
17
100
AcDbDictionary
  3
ACAD_LAYOUTSELFREF
350
520
  0
DICTIONARY
  5
D
102
{ACAD_REACTORS
330
C
102
}
330
C
100
AcDbDictionary
1001
ACAD
1000
TREAT_AS_HARD
1070
     0
  0
DICTIONARY
  5
E
102
{ACAD_REACTORS
330
C
102
}
330
C
100
AcDbDictionary
  3
STANDARD
350
13
1001
ACAD
1000
TREAT_AS_HARD
1070
     0
  0
DICTIONARY
  5
517
102
{ACAD_REACTORS
330
C
102
}
330
C
100
AcDbDictionary
1001
ACAD
1000
TREAT_AS_HARD
1070
     0
  0
DICTIONARY
  5
518
102
{ACAD_REACTORS
330
C
102
}
330
C
100
AcDbDictionary
1001
ACAD
1000
TREAT_AS_HARD
1070
     0
  0
XRECORD
  5
522
102
{ACAD_REACTORS
330
521
102
}
330
521
100
AcDbXrecord
340
1A
  0
XRECORD
  5
520
102
{ACAD_REACTORS
330
51F
102
}
330
51F
100
AcDbXrecord
340
17
  0
MLINESTYLE
  5
13
102
{ACAD_REACTORS
330
E
102
}
330
E
100
AcDbMlineStyle
  2
STANDARD
 70
     0
  3

 62
     0
 51
90.0
 52
90.0
 71
     2
 49
0.5
 62
   256
  6
BYLAYER
 49
-0.5
 62
   256
  6
BYLAYER
  0
ENDSEC
  0
EOF
