  0
SECTION
  2
HEADER
  9
$ACADVER
  1
AC1012
  9
$DWGCODEPAGE
  3
dos932
  9
$INSBASE
 10
0.0
 20
0.0
 30
0.0
  9
$EXTMIN
 10
4.985962897755712
 20
2.438141563486055
 30
-0.0015258207003583
  9
$EXTMAX
 10
403.0297861143829
 20
282.0086066310859
 30
0.0000000349246037
  9
$LIMMIN
 10
0.0
 20
0.0
  9
$LIMMAX
 10
420.0
 20
297.0
  9
$ORTHOMODE
 70
     0
  9
$REGENMODE
 70
     1
  9
$FILLMODE
 70
     1
  9
$QTEXTMODE
 70
     0
  9
$MIRRTEXT
 70
     1
  9
$DRAGMODE
 70
     2
  9
$LTSCALE
 40
1.0
  9
$OSMODE
 70
    37
  9
$ATTMODE
 70
     1
  9
$TEXTSIZE
 40
2.5
  9
$TRACEWID
 40
1.0
  9
$TEXTSTYLE
  7
STANDARD
  9
$CLAYER
  8
SUNPOU
  9
$CELTYPE
  6
BYLAYER
  9
$CECOLOR
 62
   256
  9
$CELTSCALE
 40
1.0
  9
$DELOBJ
 70
     1
  9
$DISPSILH
 70
     0
  9
$DIMSCALE
 40
1.0
  9
$DIMASZ
 40
3.0
  9
$DIMEXO
 40
3.0
  9
$DIMDLI
 40
7.0
  9
$DIMRND
 40
0.0
  9
$DIMDLE
 40
0.0
  9
$DIMEXE
 40
1.5
  9
$DIMTP
 40
0.0
  9
$DIMTM
 40
0.0
  9
$DIMTXT
 40
3.0
  9
$DIMCEN
 40
150.0
  9
$DIMTSZ
 40
0.0
  9
$DIMTOL
 70
     0
  9
$DIMLIM
 70
     0
  9
$DIMTIH
 70
     0
  9
$DIMTOH
 70
     0
  9
$DIMSE1
 70
     0
  9
$DIMSE2
 70
     0
  9
$DIMTAD
 70
     3
  9
$DIMZIN
 70
     0
  9
$DIMBLK
  1

  9
$DIMASO
 70
     1
  9
$DIMSHO
 70
     1
  9
$DIMPOST
  1

  9
$DIMAPOST
  1

  9
$DIMALT
 70
     0
  9
$DIMALTD
 70
     2
  9
$DIMALTF
 40
25.4
  9
$DIMLFAC
 40
1.0
  9
$DIMTOFL
 70
     1
  9
$DIMTVP
 40
0.0
  9
$DIMTIX
 70
     0
  9
$DIMSOXD
 70
     0
  9
$DIMSAH
 70
     1
  9
$DIMBLK1
  1
OPEN
  9
$DIMBLK2
  1
OPEN
  9
$DIMSTYLE
  2
STANDARD
  9
$DIMCLRD
 70
   256
  9
$DIMCLRE
 70
   256
  9
$DIMCLRT
 70
   256
  9
$DIMTFAC
 40
1.0
  9
$DIMGAP
 40
1.0
  9
$DIMJUST
 70
     0
  9
$DIMSD1
 70
     0
  9
$DIMSD2
 70
     0
  9
$DIMTOLJ
 70
     1
  9
$DIMTZIN
 70
     0
  9
$DIMALTZ
 70
     0
  9
$DIMALTTZ
 70
     0
  9
$DIMFIT
 70
     3
  9
$DIMUPT
 70
     0
  9
$DIMUNIT
 70
     2
  9
$DIMDEC
 70
     0
  9
$DIMTDEC
 70
     0
  9
$DIMALTU
 70
     2
  9
$DIMALTTD
 70
     2
  9
$DIMTXSTY
  7
STANDARD
  9
$DIMAUNIT
 70
     0
  9
$LUNITS
 70
     2
  9
$LUPREC
 70
     4
  9
$SKETCHINC
 40
1.0
  9
$FILLETRAD
 40
10.0
  9
$AUNITS
 70
     0
  9
$AUPREC
 70
     0
  9
$MENU
  1
.
  9
$ELEVATION
 40
0.0
  9
$PELEVATION
 40
0.0
  9
$THICKNESS
 40
0.0
  9
$LIMCHECK
 70
     0
  9
$BLIPMODE
 70
     0
  9
$CHAMFERA
 40
10.0
  9
$CHAMFERB
 40
10.0
  9
$CHAMFERC
 40
20.0
  9
$CHAMFERD
 40
0.0
  9
$SKPOLY
 70
     0
  9
$TDCREATE
 40
2450994.350997107
  9
$TDUPDATE
 40
2452445.843047801
  9
$TDINDWG
 40
0.0159511574
  9
$TDUSRTIMER
 40
0.0159511574
  9
$USRTIMER
 70
     1
  9
$ANGBASE
 50
0.0
  9
$ANGDIR
 70
     0
  9
$PDMODE
 70
     1
  9
$PDSIZE
 40
0.0
  9
$PLINEWID
 40
0.0
  9
$COORDS
 70
     1
  9
$SPLFRAME
 70
     0
  9
$SPLINETYPE
 70
     6
  9
$SPLINESEGS
 70
     8
  9
$ATTDIA
 70
     0
  9
$ATTREQ
 70
     1
  9
$HANDLING
 70
 10241
  9
$HANDSEED
  5
42F
  9
$SURFTAB1
 70
     6
  9
$SURFTAB2
 70
     6
  9
$SURFTYPE
 70
     6
  9
$SURFU
 70
     6
  9
$SURFV
 70
     6
  9
$UCSNAME
  2

  9
$UCSORG
 10
0.0
 20
0.0
 30
0.0
  9
$UCSXDIR
 10
1.0
 20
0.0
 30
0.0
  9
$UCSYDIR
 10
0.0
 20
1.0
 30
0.0
  9
$PUCSNAME
  2

  9
$PUCSORG
 10
0.0
 20
0.0
 30
0.0
  9
$PUCSXDIR
 10
1.0
 20
0.0
 30
0.0
  9
$PUCSYDIR
 10
0.0
 20
1.0
 30
0.0
  9
$USERI1
 70
     0
  9
$USERI2
 70
     0
  9
$USERI3
 70
     0
  9
$USERI4
 70
     0
  9
$USERI5
 70
     0
  9
$USERR1
 40
0.0
  9
$USERR2
 40
0.0
  9
$USERR3
 40
0.0
  9
$USERR4
 40
0.0
  9
$USERR5
 40
0.0
  9
$WORLDVIEW
 70
     1
  9
$SHADEDGE
 70
     3
  9
$SHADEDIF
 70
    70
  9
$TILEMODE
 70
     1
  9
$MAXACTVP
 70
    16
  9
$PINSBASE
 10
0.0
 20
0.0
 30
0.0
  9
$PLIMCHECK
 70
     0
  9
$PEXTMIN
 10
0.0
 20
0.0
 30
0.0
  9
$PEXTMAX
 10
420.0
 20
297.0
 30
0.0
  9
$PLIMMIN
 10
0.0
 20
0.0
  9
$PLIMMAX
 10
420.0
 20
297.0
  9
$UNITMODE
 70
     0
  9
$VISRETAIN
 70
     0
  9
$PLINEGEN
 70
     0
  9
$PSLTSCALE
 70
     1
  9
$TREEDEPTH
 70
  3020
  9
$PICKSTYLE
 70
     1
  9
$CMLSTYLE
  2
STANDARD
  9
$CMLJUST
 70
     0
  9
$CMLSCALE
 40
1.0
  9
$SAVEIMAGES
 70
     1
  0
ENDSEC
  0
SECTION
  2
CLASSES
  0
CLASS
  1
ACDBDICTIONARYWDFLT
  2
AcDbDictionaryWithDefault
  3
AutoCAD 2000
 90
    32768
280
     0
281
     0
  0
CLASS
  1
ACDBPLACEHOLDER
  2
AcDbPlaceHolder
  3
AutoCAD 2000
 90
    32768
280
     0
281
     0
  0
CLASS
  1
LAYOUT
  2
AcDbLayout
  3
AutoCAD 2000
 90
    32768
280
     0
281
     0
  0
CLASS
  1
LONG_TRANSACTION
  2
AcDbLongTransaction
  3
AutoCAD 2000
 90
    32768
280
     0
281
     0
  0
CLASS
  1
LWPOLYLINE
  2
AcDbPolyline
  3
AutoCAD 2000
 90
    32768
280
     0
281
     1
  0
CLASS
  1
HATCH
  2
AcDbHatch
  3
AutoCAD 2000
 90
    32768
280
     0
281
     1
  0
CLASS
  1
XRECORD
  2
AcDbXrecord
  3
AutoCAD 2000
 90
    32768
280
     0
281
     0
  0
ENDSEC
  0
SECTION
  2
TABLES
  0
TABLE
  2
VPORT
  5
8
330
0
100
AcDbSymbolTable
 70
     2
  0
VPORT
  5
42A
330
8
100
AcDbSymbolTableRecord
100
AcDbViewportTableRecord
  2
*ACTIVE
 70
     0
 10
0.0
 20
0.0
 11
1.0
 21
1.0
 12
210.0
 22
148.5
 13
0.0
 23
0.0
 14
5.0
 24
5.0
 15
0.0
 25
0.0
 16
0.0
 26
0.0
 36
1.0
 17
0.0
 27
0.0
 37
0.0
 40
300.507874015748
 41
1.840236686390532
 42
50.0
 43
0.0
 44
0.0
 50
0.0
 51
0.0
 71
     0
 72
   100
 73
     1
 74
     0
 75
     0
 76
     0
 77
     0
 78
     0
  0
ENDTAB
  0
TABLE
  2
LTYPE
  5
5
330
0
100
AcDbSymbolTable
 70
     4
  0
LTYPE
  5
14
330
5
100
AcDbSymbolTableRecord
100
AcDbLinetypeTableRecord
  2
BYBLOCK
 70
     0
  3

 72
    65
 73
     0
 40
0.0
  0
LTYPE
  5
15
330
5
100
AcDbSymbolTableRecord
100
AcDbLinetypeTableRecord
  2
BYLAYER
 70
     0
  3

 72
    65
 73
     0
 40
0.0
  0
LTYPE
  5
16
330
5
100
AcDbSymbolTableRecord
100
AcDbLinetypeTableRecord
  2
CONTINUOUS
 70
     0
  3
Solid line
 72
    65
 73
     0
 40
0.0
  0
LTYPE
  5
120
330
5
100
AcDbSymbolTableRecord
100
AcDbLinetypeTableRecord
  2
CENTER
 70
     0
  3
____ _ ____ _ ____ _ ____ _ ____ _ ____ _ ____ 
 72
    65
 73
     4
 40
2.0
 49
1.25
 74
     0
 49
-0.25
 74
     0
 49
0.25
 74
     0
 49
-0.25
 74
     0
  0
ENDTAB
  0
TABLE
  2
LAYER
  5
2
330
0
100
AcDbSymbolTable
 70
     9
  0
LAYER
  5
F
330
2
100
AcDbSymbolTableRecord
100
AcDbLayerTableRecord
  2
0
 70
     0
 62
     7
  6
CONTINUOUS
  0
LAYER
  5
62
330
2
100
AcDbSymbolTableRecord
100
AcDbLayerTableRecord
  2
VIEWPORT
 70
     0
 62
     7
  6
CONTINUOUS
  0
LAYER
  5
6B
330
2
100
AcDbSymbolTableRecord
100
AcDbLayerTableRecord
  2
ZUWAKU
 70
     0
 62
     7
  6
CONTINUOUS
  0
LAYER
  5
146
330
2
100
AcDbSymbolTableRecord
100
AcDbLayerTableRecord
  2
SUNPOU
 70
     0
 62
     4
  6
CONTINUOUS
  0
LAYER
  5
185
330
2
100
AcDbSymbolTableRecord
100
AcDbLayerTableRecord
  2
CENTER_L
 70
     0
 62
     1
  6
CENTER
  0
LAYER
  5
18C
330
2
100
AcDbSymbolTableRecord
100
AcDbLayerTableRecord
  2
DEFPOINTS
 70
     0
 62
     7
  6
CONTINUOUS
  0
LAYER
  5
263
330
2
100
AcDbSymbolTableRecord
100
AcDbLayerTableRecord
  2
SEIHIN
 70
     0
 62
     3
  6
CONTINUOUS
  0
ENDTAB
  0
TABLE
  2
STYLE
  5
3
330
0
100
AcDbSymbolTable
 70
     1
  0
STYLE
  5
10
330
3
100
AcDbSymbolTableRecord
100
AcDbTextStyleTableRecord
  2
STANDARD
 70
     0
 40
0.0
 41
1.0
 50
0.0
 71
     0
 42
2.5
  3
TXT
  4
bigfont.shx
  0
ENDTAB
  0
TABLE
  2
VIEW
  5
6
330
0
100
AcDbSymbolTable
 70
     0
  0
ENDTAB
  0
TABLE
  2
UCS
  5
7
330
0
100
AcDbSymbolTable
 70
     0
  0
ENDTAB
  0
TABLE
  2
APPID
  5
9
330
0
100
AcDbSymbolTable
 70
     1
  0
APPID
  5
11
330
9
100
AcDbSymbolTableRecord
100
AcDbRegAppTableRecord
  2
ACAD
 70
     0
  0
ENDTAB
  0
TABLE
  2
DIMSTYLE
  5
A
330
0
100
AcDbSymbolTable
 70
     8
  0
DIMSTYLE
105
1D
102
{ACAD_REACTORS
330
314
330
325
330
265
330
276
102
}
330
A
100
AcDbSymbolTableRecord
100
AcDbDimStyleTableRecord
  2
STANDARD
 70
     0
  3

  4

  5

  6

  7

 40
1.0
 41
0.18
 42
0.0625
 43
0.38
 44
0.18
 45
0.0
 46
0.0
 47
0.0
 48
0.0
140
0.18
141
0.09
142
0.0
143
25.4
144
1.0
145
0.0
146
1.0
147
0.09
 71
     0
 72
     0
 73
     1
 74
     1
 75
     0
 76
     0
 77
     0
 78
     0
170
     0
171
     2
172
     0
173
     0
174
     0
175
     0
176
     0
177
     0
178
     0
270
     2
271
     4
272
     4
273
     2
274
     2
340
10
275
     0
280
     0
281
     0
282
     0
283
     1
284
     0
285
     0
286
     0
287
     3
288
     0
  0
ENDTAB
  0
TABLE
  2
BLOCK_RECORD
  5
1
330
0
100
AcDbSymbolTable
 70
     8
  0
BLOCK_RECORD
  5
1A
102
{ACAD_XDICTIONARY
360
42D
102
}
330
1
100
AcDbSymbolTableRecord
100
AcDbBlockTableRecord
  2
*MODEL_SPACE
  0
BLOCK_RECORD
  5
17
102
{ACAD_XDICTIONARY
360
42B
102
}
330
1
100
AcDbSymbolTableRecord
100
AcDbBlockTableRecord
  2
*PAPER_SPACE
  0
BLOCK_RECORD
  5
B2
330
1
100
AcDbSymbolTableRecord
100
AcDbBlockTableRecord
  2
_OPEN
  0
BLOCK_RECORD
  5
3C0
330
1
100
AcDbSymbolTableRecord
100
AcDbBlockTableRecord
  2
*D6
  0
BLOCK_RECORD
  5
3CC
330
1
100
AcDbSymbolTableRecord
100
AcDbBlockTableRecord
  2
*D7
  0
ENDTAB
  0
ENDSEC
  0
SECTION
  2
BLOCKS
  0
BLOCK
  5
1B
330
1A
100
AcDbEntity
  8
0
100
AcDbBlockBegin
  2
*MODEL_SPACE
 70
     0
 10
0.0
 20
0.0
 30
0.0
  3
*MODEL_SPACE
  1

  0
ENDBLK
  5
1C
330
1A
100
AcDbEntity
  8
0
100
AcDbBlockEnd
  0
BLOCK
  5
18
330
17
100
AcDbEntity
 67
     1
  8
0
100
AcDbBlockBegin
  2
*PAPER_SPACE
 70
     0
 10
0.0
 20
0.0
 30
0.0
  3
*PAPER_SPACE
  1

  0
ENDBLK
  5
19
330
17
100
AcDbEntity
 67
     1
  8
0
100
AcDbBlockEnd
  0
BLOCK
  5
B3
330
B2
100
AcDbEntity
  8
0
100
AcDbBlockBegin
  2
_OPEN
 70
     0
 10
0.0
 20
0.0
 30
0.0
  3
_OPEN
  1

  0
LINE
  5
B4
330
B2
100
AcDbEntity
  8
0
  6
BYBLOCK
 62
     0
100
AcDbLine
 10
-1.0
 20
0.1666666666666666
 30
0.0
 11
0.0
 21
0.0
 31
0.0
  0
LINE
  5
B5
330
B2
100
AcDbEntity
  8
0
  6
BYBLOCK
 62
     0
100
AcDbLine
 10
0.0
 20
0.0
 30
0.0
 11
-1.0
 21
-0.1666666666666666
 31
0.0
  0
LINE
  5
B6
330
B2
100
AcDbEntity
  8
0
  6
BYBLOCK
 62
     0
100
AcDbLine
 10
0.0
 20
0.0
 30
0.0
 11
-1.0
 21
0.0
 31
0.0
  0
ENDBLK
  5
B7
330
B2
100
AcDbEntity
  8
0
100
AcDbBlockEnd
  0
BLOCK
  5
401
330
3C0
100
AcDbEntity
  8
0
100
AcDbBlockBegin
  2
*D6
 70
     1
 10
0.0
 20
0.0
 30
0.0
  3
*D6
  1

  0
LINE
  5
418
330
3C0
100
AcDbEntity
  8
SUNPOU
 62
     4
100
AcDbLine
 10
223.5018322374012
 20
158.8524983088128
 30
0.0
 11
209.2015130205622
 21
158.8524983088128
 31
0.0
  0
LINE
  5
419
330
3C0
100
AcDbEntity
  8
SUNPOU
 62
     4
100
AcDbLine
 10
225.6017822374012
 20
129.0523483088128
 30
0.0
 11
209.2015130205622
 21
129.0523483088128
 31
0.0
  0
LINE
  5
41A
330
3C0
100
AcDbEntity
  8
SUNPOU
 62
     4
100
AcDbLine
 10
210.7015130205622
 20
155.8524983088128
 30
0.0
 11
210.7015130205622
 21
132.0523483088128
 31
0.0
  0
INSERT
  5
41B
330
3C0
100
AcDbEntity
  8
SUNPOU
 62
     4
100
AcDbBlockReference
  2
_OPEN
 10
210.7015130205622
 20
158.8524983088128
 30
0.0
 41
3.0
 42
3.0
 43
3.0
 50
90.0
  0
INSERT
  5
41C
330
3C0
100
AcDbEntity
  8
SUNPOU
 62
     4
100
AcDbBlockReference
  2
_OPEN
 10
210.7015130205622
 20
129.0523483088128
 30
0.0
 41
3.0
 42
3.0
 43
3.0
 50
270.0
  0
MTEXT
  5
41D
330
3C0
100
AcDbEntity
  8
SUNPOU
 62
     4
100
AcDbMText
 10
208.2015130205622
 20
143.9524233088129
 30
0.0
 40
3.0
 41
0.0
 71
     5
 72
     1
  1
\A1;φ30
 11
0.0000000000000001
 21
1.0
 31
0.0
1001
ACAD
1000
MTEXTBEGIN
1070
    73
1070
     1
1070
    44
1040
1.0
1070
    74
1070
     0
1000
MTEXTEND
  0
POINT
  5
41E
330
3C0
100
AcDbEntity
  8
DEFPOINTS
 62
     0
100
AcDbPoint
 10
226.5018322374012
 20
158.8524983088128
 30
0.0
  0
POINT
  5
41F
330
3C0
100
AcDbEntity
  8
DEFPOINTS
 62
     0
100
AcDbPoint
 10
228.6017822374012
 20
129.0523483088128
 30
0.0
  0
POINT
  5
420
330
3C0
100
AcDbEntity
  8
DEFPOINTS
 62
     0
100
AcDbPoint
 10
210.7015130205622
 20
129.0523483088128
 30
0.0
  0
ENDBLK
  5
40B
330
3C0
100
AcDbEntity
  8
0
100
AcDbBlockEnd
  0
BLOCK
  5
3F6
330
3CC
100
AcDbEntity
  8
0
100
AcDbBlockBegin
  2
*D7
 70
     1
 10
0.0
 20
0.0
 30
0.0
  3
*D7
  1

  0
LINE
  5
421
330
3CC
100
AcDbEntity
  8
SUNPOU
 62
     4
100
AcDbLine
 10
226.1518822374013
 20
140.9523483088128
 30
0.0
 11
226.1518822374013
 21
111.9462658268328
 31
0.0
  0
LINE
  5
422
330
3CC
100
AcDbEntity
  8
SUNPOU
 62
     4
100
AcDbLine
 10
282.2159822374013
 20
136.6331483088129
 30
0.0
 11
282.2159822374013
 21
111.9462658268328
 31
0.0
  0
LINE
  5
423
330
3CC
100
AcDbEntity
  8
SUNPOU
 62
     4
100
AcDbLine
 10
229.1518822374013
 20
113.4462658268328
 30
0.0
 11
279.2159822374013
 21
113.4462658268328
 31
0.0
  0
INSERT
  5
424
330
3CC
100
AcDbEntity
  8
SUNPOU
 62
     4
100
AcDbBlockReference
  2
_OPEN
 10
226.1518822374013
 20
113.4462658268328
 30
0.0
 41
3.0
 42
3.0
 43
3.0
 50
180.0
  0
INSERT
  5
425
330
3CC
100
AcDbEntity
  8
SUNPOU
 62
     4
100
AcDbBlockReference
  2
_OPEN
 10
282.2159822374013
 20
113.4462658268328
 30
0.0
 41
3.0
 42
3.0
 43
3.0
  0
MTEXT
  5
426
330
3CC
100
AcDbEntity
  8
SUNPOU
 62
     4
100
AcDbMText
 10
254.1839322374013
 20
115.9462658268328
 30
0.0
 40
3.0
 41
0.0
 71
     5
 72
     1
  1
\A1;56
1001
ACAD
1000
MTEXTBEGIN
1070
    73
1070
     1
1070
    44
1040
1.0
1070
    74
1070
     0
1000
MTEXTEND
  0
POINT
  5
427
330
3CC
100
AcDbEntity
  8
DEFPOINTS
 62
     0
100
AcDbPoint
 10
226.1518822374013
 20
143.9523483088128
 30
0.0
  0
POINT
  5
428
330
3CC
100
AcDbEntity
  8
DEFPOINTS
 62
     0
100
AcDbPoint
 10
282.2159822374013
 20
139.6331483088129
 30
0.0
  0
POINT
  5
429
330
3CC
100
AcDbEntity
  8
DEFPOINTS
 62
     0
100
AcDbPoint
 10
282.2159822374013
 20
113.4462658268328
 30
0.0
  0
ENDBLK
  5
400
330
3CC
100
AcDbEntity
  8
0
100
AcDbBlockEnd
  0
ENDSEC
  0
SECTION
  2
ENTITIES
  0
LINE
  5
6C
330
1A
100
AcDbEntity
  8
ZUWAKU
  6
CONTINUOUS
 62
     7
100
AcDbLine
 10
403.0
 20
7.0
 30
0.0
 11
5.0
 21
7.0
 31
0.0
  0
LINE
  5
6D
330
1A
100
AcDbEntity
  8
ZUWAKU
  6
CONTINUOUS
 62
     7
100
AcDbLine
 10
5.0
 20
282.0
 30
0.0
 11
5.0
 21
7.0
 31
0.0
  0
LINE
  5
6E
330
1A
100
AcDbEntity
  8
ZUWAKU
  6
CONTINUOUS
 62
     7
100
AcDbLine
 10
403.0
 20
282.0
 30
0.0
 11
403.0
 21
7.0
 31
0.0
  0
LINE
  5
6F
330
1A
100
AcDbEntity
  8
ZUWAKU
  6
CONTINUOUS
 62
     7
100
AcDbLine
 10
403.0
 20
282.0
 30
0.0
 11
5.0
 21
282.0
 31
0.0
  0
LINE
  5
8E
330
1A
100
AcDbEntity
  8
ZUWAKU
 62
     7
 48
10.0
100
AcDbLine
 10
5.0
 20
13.0
 30
0.0
 11
403.0
 21
12.99999999999994
 31
0.0
  0
TEXT
  5
92
330
1A
100
AcDbEntity
  8
ZUWAKU
 62
     7
100
AcDbText
 10
25.15073007242387
 20
8.160237806787449
 30
0.0
 40
4.0
  1
凍害防止ロッド
100
AcDbText
  0
TEXT
  5
93
330
1A
100
AcDbEntity
  8
ZUWAKU
 62
     7
100
AcDbText
 10
8.003143713074223
 20
7.870178177610682
 30
0.0
 40
4.0
  1
品 種
100
AcDbText
  0
TEXT
  5
97
330
1A
100
AcDbEntity
  8
ZUWAKU
 62
     7
100
AcDbText
 10
107.7028028167073
 20
8.200497435100942
 30
0.0
 40
4.0
  1
品名・ｻ ｲ ｽﾞ
100
AcDbText
  0
TEXT
  5
99
330
1A
100
AcDbEntity
  8
ZUWAKU
 62
     7
100
AcDbText
 10
141.1313324528735
 20
7.9299153608506
 30
0.0
 40
4.0
  1
ロッドガイド
100
AcDbText
  0
LINE
  5
9A
330
1A
100
AcDbEntity
  8
ZUWAKU
 62
     7
 48
10.0
100
AcDbLine
 10
324.3551403257206
 20
6.999999999999836
 30
0.0
 11
324.3551403257206
 21
12.99999999999995
 31
0.0
  0
LINE
  5
9B
330
1A
100
AcDbEntity
  8
ZUWAKU
 62
     7
 48
10.0
100
AcDbLine
 10
307.142312366876
 20
6.999999999999836
 30
0.0
 11
307.142312366876
 21
12.99999999999995
 31
0.0
  0
TEXT
  5
9C
330
1A
100
AcDbEntity
  8
ZUWAKU
 62
     7
100
AcDbText
 10
310.1429253763237
 20
7.934661405801826
 30
0.0
 40
4.0
  1
品 番
100
AcDbText
  0
TEXT
  5
9D
330
1A
100
AcDbEntity
  8
ZUWAKU
 62
     7
100
AcDbText
 10
327.1013476411085
 20
8.060146781246267
 30
0.0
 40
4.0
  1
ＬＥ０９
100
AcDbText
  0
TEXT
  5
9E
330
1A
100
AcDbEntity
  8
ZUWAKU
 62
     7
 48
10.0
100
AcDbText
 10
322.9513761015196
 20
2.449000558492457
 30
0.0
 40
4.0
  1
積水化学工業株式会社  建材
100
AcDbText
  0
TEXT
  5
A1
330
1A
100
AcDbEntity
  8
ZUWAKU
 62
     7
100
AcDbText
 10
389.843492473331
 20
7.886151458996323
 30
0.0
 40
4.0
  1
1/1
100
AcDbText
  0
TEXT
  5
A2
330
1A
100
AcDbEntity
  8
ZUWAKU
 62
     7
100
AcDbText
 10
369.8225424558458
 20
7.729845637642938
 30
0.0
 40
4.0
  1
尺 度
100
AcDbText
  0
LINE
  5
A3
330
1A
100
AcDbEntity
  8
ZUWAKU
 62
     7
 48
10.0
100
AcDbLine
 10
366.8807110760169
 20
6.999999999999886
 30
0.0
 11
366.8807110760169
 21
12.99999999999994
 31
0.0
  0
TEXT
  5
A6
330
1A
100
AcDbEntity
  8
ZUWAKU
 62
     7
 48
10.0
100
AcDbText
 10
396.1622424237184
 20
2.480970960763784
 30
0.0
 40
4.0
  1
A3
100
AcDbText
  0
LINE
  5
F5
330
1A
100
AcDbEntity
  8
ZUWAKU
 62
     7
 48
10.0
100
AcDbLine
 10
22.25374857290876
 20
7.0
 30
0.0
 11
22.25374857290876
 21
13.0
 31
0.0
  0
LINE
  5
F6
330
1A
100
AcDbEntity
  8
ZUWAKU
 62
     7
 48
10.0
100
AcDbLine
 10
104.7316872784438
 20
7.0
 30
0.0
 11
104.7316872784438
 21
12.99999999999998
 31
0.0
  0
LINE
  5
F8
330
1A
100
AcDbEntity
  8
ZUWAKU
 62
     7
 48
10.0
100
AcDbLine
 10
138.0261803105822
 20
7.0
 30
0.0
 11
138.0261803105822
 21
12.99999999999998
 31
0.0
  0
LINE
  5
100
330
1A
100
AcDbEntity
  8
ZUWAKU
 62
     7
 48
10.0
100
AcDbLine
 10
384.3363149538092
 20
6.999999999999862
 30
0.0
 11
384.3363149538092
 21
12.99999999999994
 31
0.0
  0
POINT
  5
1A1
330
1A
100
AcDbEntity
  8
SUNPOU
  6
CONTINUOUS
100
AcDbPoint
 10
205.9553251990115
 20
146.5650665787895
 30
0.0
  0
POINT
  5
1A2
330
1A
100
AcDbEntity
  8
SUNPOU
  6
CONTINUOUS
100
AcDbPoint
 10
205.4553267650654
 20
145.6990402718312
 30
0.0
  0
DIMENSION
  5
314
330
1A
100
AcDbEntity
  8
SUNPOU
100
AcDbDimension
  2
*D6
 10
210.7015130205622
 20
129.0523483088128
 30
0.0
 11
208.2015130205622
 21
143.9524233088129
 31
0.0
 70
    32
  1
φ<>
  3
STANDARD
100
AcDbAlignedDimension
 13
226.5018322374012
 23
158.8524983088128
 33
0.0
 14
228.6017822374012
 24
129.0523483088128
 34
0.0
 50
90.0
100
AcDbRotatedDimension
1001
ACAD
1000
DSTYLE
1002
{
1070
   140
1040
3.0
1070
    74
1070
     0
1070
   172
1070
     1
1070
    73
1070
     0
1070
   272
1070
     2
1070
    77
1070
     3
1070
   173
1070
     1
1070
   147
1040
1.0
1070
    42
1040
3.0
1070
    44
1040
1.5
1070
    43
1040
7.0
1070
   271
1070
     0
1070
   178
1070
     4
1070
   177
1070
     4
1070
   176
1070
     4
1070
   141
1040
150.0
1070
     7
1000
_OPEN
1070
     6
1000
_OPEN
1070
    41
1040
3.0
1002
}
  0
CIRCLE
  5
315
330
1A
100
AcDbEntity
  8
SEIHIN
100
AcDbCircle
 10
153.6075085151532
 20
143.9523483088128
 30
0.0
 40
14.89999999999992
  0
CIRCLE
  5
316
330
1A
100
AcDbEntity
  8
SEIHIN
100
AcDbCircle
 10
153.6075085151532
 20
143.9523483088128
 30
0.0
 40
13.50000000000005
  0
CIRCLE
  5
317
330
1A
100
AcDbEntity
  8
SEIHIN
100
AcDbCircle
 10
153.6075085151532
 20
143.9523483088128
 30
0.0
 40
13.00000000000005
  0
CIRCLE
  5
318
330
1A
100
AcDbEntity
  8
SEIHIN
100
AcDbCircle
 10
153.6075085151532
 20
143.9523483088128
 30
0.0
 40
12.10000000000007
  0
CIRCLE
  5
319
330
1A
100
AcDbEntity
  8
SEIHIN
100
AcDbCircle
 10
153.6075085151532
 20
143.9523483088128
 30
0.0
 40
11.19999999999993
  0
CIRCLE
  5
31A
330
1A
100
AcDbEntity
  8
SEIHIN
100
AcDbCircle
 10
153.6075085151532
 20
143.9523483088128
 30
0.0
 40
10.30000000000006
  0
CIRCLE
  5
31B
330
1A
100
AcDbEntity
  8
SEIHIN
100
AcDbCircle
 10
153.6075085151532
 20
143.9523483088128
 30
0.0
 40
9.39999999999992
  0
CIRCLE
  5
31C
330
1A
100
AcDbEntity
  8
SEIHIN
100
AcDbCircle
 10
153.6075085151532
 20
143.9523483088128
 30
0.0
 40
8.500000000000056
  0
CIRCLE
  5
31D
330
1A
100
AcDbEntity
  8
SEIHIN
100
AcDbCircle
 10
153.6075085151532
 20
143.9523483088128
 30
0.0
 40
7.600000000000079
  0
CIRCLE
  5
31E
330
1A
100
AcDbEntity
  8
SEIHIN
100
AcDbCircle
 10
153.6075085151532
 20
143.9523483088128
 30
0.0
 40
6.700000000000045
  0
CIRCLE
  5
31F
330
1A
100
AcDbEntity
  8
SEIHIN
100
AcDbCircle
 10
153.6075085151532
 20
143.9523483088128
 30
0.0
 40
5.800000000000068
  0
LINE
  5
320
330
1A
100
AcDbEntity
  8
CENTER_L
100
AcDbLine
 10
153.6075085151532
 20
165.8523483088128
 30
0.0
 11
153.6075085151532
 21
122.0523483088128
 31
0.0
  0
CIRCLE
  5
321
330
1A
100
AcDbEntity
  8
SEIHIN
100
AcDbCircle
 10
153.6075085151532
 20
143.9523483088128
 30
0.0
 40
4.89999999999992
  0
CIRCLE
  5
322
330
1A
100
AcDbEntity
  8
SEIHIN
100
AcDbCircle
 10
153.6075085151532
 20
143.9523483088128
 30
0.0
 40
4.0
  0
LINE
  5
323
330
1A
100
AcDbEntity
  8
CENTER_L
100
AcDbLine
 10
175.5075085151532
 20
143.9523483088128
 30
0.0
 11
131.7075085151532
 21
143.9523483088128
 31
0.0
  0
LINE
  5
324
330
1A
100
AcDbEntity
  8
SEIHIN
 62
     3
100
AcDbLine
 10
168.5075085151531
 20
143.9523483088128
 30
0.0
 11
167.1075085151533
 21
143.9523483088128
 31
0.0
  0
DIMENSION
  5
325
330
1A
100
AcDbEntity
  8
SUNPOU
100
AcDbDimension
  2
*D7
 10
282.2159822374013
 20
113.4462658268328
 30
0.0
 11
254.1839322374013
 21
115.9462658268328
 31
0.0
 70
    32
  3
STANDARD
100
AcDbAlignedDimension
 13
226.1518822374013
 23
143.9523483088128
 33
0.0
 14
282.2159822374013
 24
139.6331483088129
 34
0.0
100
AcDbRotatedDimension
1001
ACAD
1000
DSTYLE
1002
{
1070
   140
1040
3.0
1070
    74
1070
     0
1070
   172
1070
     1
1070
    73
1070
     0
1070
   272
1070
     2
1070
    77
1070
     3
1070
   173
1070
     1
1070
   147
1040
1.0
1070
    42
1040
3.0
1070
    44
1040
1.5
1070
    43
1040
7.0
1070
   271
1070
     0
1070
   178
1070
     4
1070
   177
1070
     4
1070
   176
1070
     4
1070
   141
1040
150.0
1070
     7
1000
_OPEN
1070
     6
1000
_OPEN
1070
    41
1040
3.0
1002
}
  0
ARC
  5
326
330
1A
100
AcDbEntity
  8
SEIHIN
 62
     3
100
AcDbCircle
 10
275.9419822374012
 20
138.7791483088128
 30
0.0
 40
0.7000000000000739
100
AcDbArc
 50
180.0
 51
0.0
  0
ARC
  5
327
330
1A
100
AcDbEntity
  8
SEIHIN
 62
     3
100
AcDbCircle
 10
275.9419607312629
 20
138.779142357863
 30
0.0
 40
0.7000351595356288
100
AcDbArc
 50
212.3512006303004
 51
358.584389903204
  0
ARC
  5
328
330
1A
100
AcDbEntity
  8
SEIHIN
 62
     3
100
AcDbCircle
 10
275.9419822374012
 20
138.7791483088128
 30
0.0
 40
0.7000000000000739
100
AcDbArc
 50
180.0
 51
0.0
  0
LINE
  5
329
330
1A
100
AcDbEntity
  8
SEIHIN
 62
     3
100
AcDbLine
 10
274.9664822374012
 20
150.0680483088129
 30
0.0
 11
275.2684822374012
 21
137.8148483088128
 31
0.0
  0
LINE
  5
32A
330
1A
100
AcDbEntity
  8
SEIHIN
 62
     3
100
AcDbLine
 10
273.5481822374012
 20
150.9663483088129
 30
0.0
 11
273.8931822374012
 21
136.9684483088128
 31
0.0
  0
LINE
  5
32B
330
1A
100
AcDbEntity
  8
SEIHIN
 62
     3
100
AcDbLine
 10
272.1298822374012
 20
151.8645483088129
 30
0.0
 11
272.517882237401
 21
136.1221483088128
 31
0.0
  0
LINE
  5
32C
330
1A
100
AcDbEntity
  8
SEIHIN
 62
     3
100
AcDbLine
 10
262.2016822374013
 20
158.1523483088127
 30
0.0
 11
262.8699822374013
 21
131.0389483088129
 31
0.0
  0
LINE
  5
32D
330
1A
100
AcDbEntity
  8
SEIHIN
 62
     3
100
AcDbLine
 10
227.2018822374011
 20
158.1524483088129
 30
0.0
 11
227.9018822374013
 21
129.7523483088128
 31
0.0
  0
LINE
  5
32E
330
1A
100
AcDbEntity
  8
SEIHIN
 62
     3
100
AcDbLine
 10
228.6017822374011
 20
158.1524483088129
 30
0.0
 11
229.3017822374013
 21
129.7523483088128
 31
0.0
  0
LINE
  5
32F
330
1A
100
AcDbEntity
  8
SEIHIN
 62
     3
100
AcDbLine
 10
260.8016822374012
 20
158.1523483088127
 30
0.0
 11
261.4909822374012
 21
130.1879483088129
 31
0.0
  0
LINE
  5
330
330
1A
100
AcDbEntity
  8
SEIHIN
 62
     3
100
AcDbLine
 10
259.4016822374013
 20
158.1523483088127
 30
0.0
 11
260.1016822374012
 21
129.7523483088128
 31
0.0
  0
LINE
  5
331
330
1A
100
AcDbEntity
  8
SEIHIN
 62
     3
100
AcDbLine
 10
258.0016822374011
 20
158.1523483088127
 30
0.0
 11
258.7016822374013
 21
129.7523483088128
 31
0.0
  0
LINE
  5
332
330
1A
100
AcDbEntity
  8
SEIHIN
 62
     3
100
AcDbLine
 10
256.6016822374013
 20
158.1523483088127
 30
0.0
 11
257.3016822374012
 21
129.7523483088128
 31
0.0
  0
LINE
  5
333
330
1A
100
AcDbEntity
  8
SEIHIN
 62
     3
100
AcDbLine
 10
255.2016822374013
 20
158.1523483088127
 30
0.0
 11
255.9016822374013
 21
129.7523483088128
 31
0.0
  0
LINE
  5
334
330
1A
100
AcDbEntity
  8
SEIHIN
 62
     3
100
AcDbLine
 10
253.801682237401
 20
158.1523483088127
 30
0.0
 11
254.5016822374011
 21
129.7523483088128
 31
0.0
  0
LINE
  5
335
330
1A
100
AcDbEntity
  8
SEIHIN
 62
     3
100
AcDbLine
 10
252.4016822374012
 20
158.1523483088127
 30
0.0
 11
253.1017822374011
 21
129.7523483088128
 31
0.0
  0
LINE
  5
336
330
1A
100
AcDbEntity
  8
SEIHIN
 62
     3
100
AcDbLine
 10
251.0016822374011
 20
158.1523483088127
 30
0.0
 11
251.7016822374013
 21
129.7523483088128
 31
0.0
  0
LINE
  5
337
330
1A
100
AcDbEntity
  8
SEIHIN
 62
     3
100
AcDbLine
 10
249.6017822374011
 20
158.1523483088127
 30
0.0
 11
250.3017822374013
 21
129.7523483088128
 31
0.0
  0
LINE
  5
338
330
1A
100
AcDbEntity
  8
SEIHIN
 62
     3
100
AcDbLine
 10
248.2016822374013
 20
158.1523483088127
 30
0.0
 11
248.9016822374013
 21
129.7523483088128
 31
0.0
  0
LINE
  5
339
330
1A
100
AcDbEntity
  8
SEIHIN
 62
     3
100
AcDbLine
 10
246.8017822374013
 20
158.1523483088127
 30
0.0
 11
247.5017822374013
 21
129.7523483088128
 31
0.0
  0
LINE
  5
33A
330
1A
100
AcDbEntity
  8
SEIHIN
 62
     3
100
AcDbLine
 10
245.4016822374013
 20
158.1523483088127
 30
0.0
 11
246.1017822374011
 21
129.7523483088128
 31
0.0
  0
LINE
  5
33B
330
1A
100
AcDbEntity
  8
SEIHIN
 62
     3
100
AcDbLine
 10
244.0017822374012
 20
158.1523483088127
 30
0.0
 11
244.7017822374011
 21
129.7523483088128
 31
0.0
  0
LINE
  5
33C
330
1A
100
AcDbEntity
  8
SEIHIN
 62
     3
100
AcDbLine
 10
242.6017822374011
 20
158.1523483088127
 30
0.0
 11
243.3017822374013
 21
129.7523483088128
 31
0.0
  0
LINE
  5
33D
330
1A
100
AcDbEntity
  8
SEIHIN
 62
     3
100
AcDbLine
 10
241.2017822374012
 20
158.1523483088127
 30
0.0
 11
241.9017822374011
 21
129.7523483088128
 31
0.0
  0
LINE
  5
33E
330
1A
100
AcDbEntity
  8
SEIHIN
 62
     3
100
AcDbLine
 10
239.8017822374013
 20
158.1523483088127
 30
0.0
 11
240.5017822374012
 21
129.7523483088128
 31
0.0
  0
LINE
  5
33F
330
1A
100
AcDbEntity
  8
SEIHIN
 62
     3
100
AcDbLine
 10
238.4017822374012
 20
158.1523483088127
 30
0.0
 11
239.1017822374011
 21
129.7523483088128
 31
0.0
  0
LINE
  5
340
330
1A
100
AcDbEntity
  8
SEIHIN
 62
     3
100
AcDbLine
 10
237.0017822374013
 20
158.1523483088127
 30
0.0
 11
237.7017822374012
 21
129.7523483088128
 31
0.0
  0
LINE
  5
341
330
1A
100
AcDbEntity
  8
SEIHIN
 62
     3
100
AcDbLine
 10
235.6017822374011
 20
158.1524483088129
 30
0.0
 11
236.3017822374013
 21
129.7523483088128
 31
0.0
  0
LINE
  5
342
330
1A
100
AcDbEntity
  8
SEIHIN
 62
     3
100
AcDbLine
 10
234.2017822374011
 20
158.1524483088129
 30
0.0
 11
234.9017822374012
 21
129.7523483088128
 31
0.0
  0
LINE
  5
343
330
1A
100
AcDbEntity
  8
SEIHIN
 62
     3
100
AcDbLine
 10
232.8017822374013
 20
158.1524483088129
 30
0.0
 11
233.5017822374013
 21
129.7523483088128
 31
0.0
  0
LINE
  5
344
330
1A
100
AcDbEntity
  8
SEIHIN
 62
     3
100
AcDbLine
 10
231.4017822374011
 20
158.1524483088129
 30
0.0
 11
232.1017822374011
 21
129.7523483088128
 31
0.0
  0
LINE
  5
345
330
1A
100
AcDbEntity
  8
SEIHIN
 62
     3
100
AcDbLine
 10
230.0017822374012
 20
158.1524483088129
 30
0.0
 11
230.7018822374011
 21
129.7523483088128
 31
0.0
  0
LINE
  5
346
330
1A
100
AcDbEntity
  8
SEIHIN
 62
     3
100
AcDbLine
 10
265.0382822374011
 20
156.3558483088127
 30
0.0
 11
265.6393822374011
 21
131.9708483088129
 31
0.0
  0
LINE
  5
347
330
1A
100
AcDbEntity
  8
SEIHIN
 62
     3
100
AcDbLine
 10
270.7115822374013
 20
152.7628483088127
 30
0.0
 11
271.1425822374012
 21
135.2757483088128
 31
0.0
  0
LINE
  5
348
330
1A
100
AcDbEntity
  8
SEIHIN
 62
     3
100
AcDbLine
 10
269.2931822374013
 20
153.6610483088128
 30
0.0
 11
269.7672822374011
 21
134.4294483088129
 31
0.0
  0
LINE
  5
349
330
1A
100
AcDbEntity
  8
SEIHIN
 62
     3
100
AcDbLine
 10
266.4565822374011
 20
155.4575483088127
 30
0.0
 11
267.0136822374011
 21
132.8543483088128
 31
0.0
  0
LINE
  5
34A
330
1A
100
AcDbEntity
  8
SEIHIN
 62
     3
100
AcDbLine
 10
267.8749822374011
 20
154.5593483088129
 30
0.0
 11
268.3919822374012
 21
133.5830483088128
 31
0.0
  0
LINE
  5
34B
330
1A
100
AcDbEntity
  8
SEIHIN
 62
     3
100
AcDbLine
 10
263.6199822374013
 20
157.2540483088129
 30
0.0
 11
264.2649822374011
 21
131.0872483088129
 31
0.0
  0
ARC
  5
34C
330
1A
100
AcDbEntity
  8
SEIHIN
 62
     3
100
AcDbCircle
 10
252.4017322374012
 20
129.7523483088128
 30
0.0
 40
0.7000499999999193
100
AcDbArc
 50
180.0
 51
0.0
  0
ARC
  5
34D
330
1A
100
AcDbEntity
  8
SEIHIN
 62
     3
100
AcDbCircle
 10
235.6017822374012
 20
129.7523483088128
 30
0.0
 40
0.7000000000000171
100
AcDbArc
 50
180.0
 51
0.0
  0
ARC
  5
34E
330
1A
100
AcDbEntity
  8
SEIHIN
 62
     3
100
AcDbCircle
 10
228.6017822374012
 20
129.7523483088128
 30
0.0
 40
0.7000000000000171
100
AcDbArc
 50
180.0
 51
0.0
  0
ARC
  5
34F
330
1A
100
AcDbEntity
  8
SEIHIN
 62
     3
100
AcDbCircle
 10
231.4017822374012
 20
129.7523483088128
 30
0.0
 40
0.6999999999999318
100
AcDbArc
 50
180.0
 51
0.0
  0
ARC
  5
350
330
1A
100
AcDbEntity
  8
SEIHIN
 62
     3
100
AcDbCircle
 10
230.0018322374012
 20
129.7523483088128
 30
0.0
 40
0.7000499999999193
100
AcDbArc
 50
180.0
 51
0.0
  0
ARC
  5
351
330
1A
100
AcDbEntity
  8
SEIHIN
 62
     3
100
AcDbCircle
 10
234.2017822374013
 20
129.7523483088128
 30
0.0
 40
0.6999999999999887
100
AcDbArc
 50
180.0
 51
0.0
  0
ARC
  5
352
330
1A
100
AcDbEntity
  8
SEIHIN
 62
     3
100
AcDbCircle
 10
232.8017822374012
 20
129.7523483088128
 30
0.0
 40
0.7000000000000739
100
AcDbArc
 50
180.0
 51
0.0
  0
ARC
  5
353
330
1A
100
AcDbEntity
  8
SEIHIN
 62
     3
100
AcDbCircle
 10
244.0017822374012
 20
129.7523483088128
 30
0.0
 40
0.6999999999999034
100
AcDbArc
 50
180.0
 51
0.0
  0
ARC
  5
354
330
1A
100
AcDbEntity
  8
SEIHIN
 62
     3
100
AcDbCircle
 10
239.8017822374011
 20
129.7523483088128
 30
0.0
 40
0.7000000000000739
100
AcDbArc
 50
180.0
 51
0.0
  0
ARC
  5
355
330
1A
100
AcDbEntity
  8
SEIHIN
 62
     3
100
AcDbCircle
 10
238.4017822374012
 20
129.7523483088128
 30
0.0
 40
0.6999999999999318
100
AcDbArc
 50
180.0
 51
0.0
  0
ARC
  5
356
330
1A
100
AcDbEntity
  8
SEIHIN
 62
     3
100
AcDbCircle
 10
237.0017822374013
 20
129.7523483088128
 30
0.0
 40
0.6999999999999887
100
AcDbArc
 50
180.0
 51
0.0
  0
ARC
  5
357
330
1A
100
AcDbEntity
  8
SEIHIN
 62
     3
100
AcDbCircle
 10
242.6017322374012
 20
129.7523483088128
 30
0.0
 40
0.7000500000000045
100
AcDbArc
 50
180.0
 51
0.0
  0
ARC
  5
358
330
1A
100
AcDbEntity
  8
SEIHIN
 62
     3
100
AcDbCircle
 10
241.2017822374011
 20
129.7523483088128
 30
0.0
 40
0.6999999999999034
100
AcDbArc
 50
180.0
 51
0.0
  0
ARC
  5
359
330
1A
100
AcDbEntity
  8
SEIHIN
 62
     3
100
AcDbCircle
 10
248.2016822374012
 20
129.7523483088128
 30
0.0
 40
0.7000000000000739
100
AcDbArc
 50
180.0
 51
0.0
  0
ARC
  5
35A
330
1A
100
AcDbEntity
  8
SEIHIN
 62
     3
100
AcDbCircle
 10
246.8017822374012
 20
129.7523483088128
 30
0.0
 40
0.7000000000000739
100
AcDbArc
 50
180.0
 51
0.0
  0
ARC
  5
35B
330
1A
100
AcDbEntity
  8
SEIHIN
 62
     3
100
AcDbCircle
 10
245.4017322374012
 20
129.7523483088128
 30
0.0
 40
0.7000499999999193
100
AcDbArc
 50
180.0
 51
0.0
  0
ARC
  5
35C
330
1A
100
AcDbEntity
  8
SEIHIN
 62
     3
100
AcDbCircle
 10
251.0016822374012
 20
129.7523483088128
 30
0.0
 40
0.7000000000000171
100
AcDbArc
 50
180.0
 51
0.0
  0
ARC
  5
35D
330
1A
100
AcDbEntity
  8
SEIHIN
 62
     3
100
AcDbCircle
 10
249.6017322374012
 20
129.7523483088128
 30
0.0
 40
0.7000500000000045
100
AcDbArc
 50
180.0
 51
0.0
  0
ARC
  5
35E
330
1A
100
AcDbEntity
  8
SEIHIN
 62
     3
100
AcDbCircle
 10
269.0716822374011
 20
134.5091483088128
 30
0.0
 40
0.6999999999999887
100
AcDbArc
 50
180.0
 51
0.0
  0
ARC
  5
35F
330
1A
100
AcDbEntity
  8
SEIHIN
 62
     3
100
AcDbCircle
 10
260.8016822374012
 20
129.7523483088128
 30
0.0
 40
0.6999999999999318
100
AcDbArc
 50
180.0
 51
0.0
  0
ARC
  5
360
330
1A
100
AcDbEntity
  8
SEIHIN
 62
     3
100
AcDbCircle
 10
256.6016822374013
 20
129.7523483088128
 30
0.0
 40
0.6999999999999887
100
AcDbArc
 50
180.0
 51
0.0
  0
ARC
  5
361
330
1A
100
AcDbEntity
  8
SEIHIN
 62
     3
100
AcDbCircle
 10
255.2016822374012
 20
129.7523483088128
 30
0.0
 40
0.7000000000000739
100
AcDbArc
 50
180.0
 51
0.0
  0
ARC
  5
362
330
1A
100
AcDbEntity
  8
SEIHIN
 62
     3
100
AcDbCircle
 10
253.8016822374012
 20
129.7523483088128
 30
0.0
 40
0.6999999999999318
100
AcDbArc
 50
180.0
 51
0.0
  0
ARC
  5
363
330
1A
100
AcDbEntity
  8
SEIHIN
 62
     3
100
AcDbCircle
 10
259.4016822374013
 20
129.7523483088128
 30
0.0
 40
0.6999999999999887
100
AcDbArc
 50
180.0
 51
0.0
  0
ARC
  5
364
330
1A
100
AcDbEntity
  8
SEIHIN
 62
     3
100
AcDbCircle
 10
258.0016822374012
 20
129.7523483088128
 30
0.0
 40
0.7000000000000171
100
AcDbArc
 50
180.0
 51
0.0
  0
ARC
  5
365
330
1A
100
AcDbEntity
  8
SEIHIN
 62
     3
100
AcDbCircle
 10
266.3235822374013
 20
132.8011483088129
 30
0.0
 40
0.6999999999999887
100
AcDbArc
 50
180.0
 51
0.0
  0
ARC
  5
366
330
1A
100
AcDbEntity
  8
SEIHIN
 62
     3
100
AcDbCircle
 10
264.9494822374013
 20
131.9471483088128
 30
0.0
 40
0.6999999999999887
100
AcDbArc
 50
180.0
 51
0.0
  0
ARC
  5
367
330
1A
100
AcDbEntity
  8
SEIHIN
 62
     3
100
AcDbCircle
 10
263.5754822374011
 20
131.0931483088128
 30
0.0
 40
0.7000000000000739
100
AcDbArc
 50
180.0
 51
0.0
  0
ARC
  5
368
330
1A
100
AcDbEntity
  8
SEIHIN
 62
     3
100
AcDbCircle
 10
262.2013822374011
 20
130.2391483088129
 30
0.0
 40
0.7000000000000171
100
AcDbArc
 50
180.0
 51
0.0
  0
ARC
  5
369
330
1A
100
AcDbEntity
  8
SEIHIN
 62
     3
100
AcDbCircle
 10
267.6976322374012
 20
133.6551483088128
 30
0.0
 40
0.7000500000000045
100
AcDbArc
 50
180.0
 51
0.0
  0
ARC
  5
36A
330
1A
100
AcDbEntity
  8
SEIHIN
 62
     3
100
AcDbCircle
 10
273.1938322374012
 20
137.0711483088128
 30
0.0
 40
0.7000500000000614
100
AcDbArc
 50
180.0
 51
0.0
  0
ARC
  5
36B
330
1A
100
AcDbEntity
  8
SEIHIN
 62
     3
100
AcDbCircle
 10
271.8197822374012
 20
136.2171483088129
 30
0.0
 40
0.6999999999999318
100
AcDbArc
 50
180.0
 51
0.0
  0
ARC
  5
36C
330
1A
100
AcDbEntity
  8
SEIHIN
 62
     3
100
AcDbCircle
 10
270.4457322374012
 20
135.3631483088128
 30
0.0
 40
0.7000500000000898
100
AcDbArc
 50
180.0
 51
0.0
  0
ARC
  5
36D
330
1A
100
AcDbEntity
  8
SEIHIN
 62
     3
100
AcDbCircle
 10
274.5679032736303
 20
137.9251541306001
 30
0.0
 40
0.6999929211099721
100
AcDbArc
 50
212.3545313027358
 51
358.5833405503681
  0
ARC
  5
36E
330
1A
100
AcDbEntity
  8
SEIHIN
 62
     3
100
AcDbCircle
 10
274.5679322374011
 20
137.9251483088128
 30
0.0
 40
0.7000500000000045
100
AcDbArc
 50
180.0
 51
0.0
  0
ARC
  5
36F
330
1A
100
AcDbEntity
  8
SEIHIN
 62
     3
100
AcDbCircle
 10
274.5679322374011
 20
137.9251483088128
 30
0.0
 40
0.7000500000000045
100
AcDbArc
 50
180.0
 51
0.0
  0
LINE
  5
370
330
1A
100
AcDbEntity
  8
CENTER_L
 62
     1
 48
5.0
100
AcDbLine
 10
286.8822822374011
 20
143.9523483088128
 30
0.0
 11
221.9992822374013
 21
143.9523483088128
 31
0.0
  0
ARC
  5
371
330
1A
100
AcDbEntity
  8
SEIHIN
 62
     3
100
AcDbCircle
 10
253.1017322374012
 20
158.1523483088127
 30
0.0
 40
0.7000500000000045
100
AcDbArc
 50
0.0
 51
180.0
  0
ARC
  5
372
330
1A
100
AcDbEntity
  8
SEIHIN
 62
     3
100
AcDbCircle
 10
236.3017822374012
 20
158.1523483088127
 30
0.0
 40
0.7000000000000739
100
AcDbArc
 50
0.0
 51
180.0
  0
LINE
  5
373
330
1A
100
AcDbEntity
  8
SEIHIN
 62
     3
100
AcDbLine
 10
225.8017822374013
 20
158.1524483088129
 30
0.0
 11
226.1518822374013
 21
143.9523483088128
 31
0.0
  0
LINE
  5
374
330
1A
100
AcDbEntity
  8
SEIHIN
 62
     3
100
AcDbLine
 10
227.5517822374013
 20
143.9523483088128
 30
0.0
 11
226.1518822374013
 21
143.9523483088128
 31
0.0
  0
ARC
  5
375
330
1A
100
AcDbEntity
  8
SEIHIN
 62
     3
100
AcDbCircle
 10
227.9018822374011
 20
158.1524483088129
 30
0.0
 40
0.6999999999999887
100
AcDbArc
 50
0.0
 51
180.0
  0
ARC
  5
376
330
1A
100
AcDbEntity
  8
SEIHIN
 62
     3
100
AcDbCircle
 10
226.5018322374012
 20
158.1524483088129
 30
0.0
 40
0.7000499999999193
100
AcDbArc
 50
0.0
 51
180.0
  0
ARC
  5
377
330
1A
100
AcDbEntity
  8
SEIHIN
 62
     3
100
AcDbCircle
 10
232.1017822374012
 20
158.1524483088129
 30
0.0
 40
0.7000000000001024
100
AcDbArc
 50
0.0
 51
180.0
  0
ARC
  5
378
330
1A
100
AcDbEntity
  8
SEIHIN
 62
     3
100
AcDbCircle
 10
230.7018322374012
 20
158.1524483088129
 30
0.0
 40
0.7000500000000045
100
AcDbArc
 50
0.0
 51
180.0
  0
ARC
  5
379
330
1A
100
AcDbEntity
  8
SEIHIN
 62
     3
100
AcDbCircle
 10
229.3017822374011
 20
158.1524483088129
 30
0.0
 40
0.7000000000000739
100
AcDbArc
 50
0.0
 51
180.0
  0
ARC
  5
37A
330
1A
100
AcDbEntity
  8
SEIHIN
 62
     3
100
AcDbCircle
 10
234.9017822374011
 20
158.1524483088129
 30
0.0
 40
0.7000000000000171
100
AcDbArc
 50
0.0
 51
180.0
  0
ARC
  5
37B
330
1A
100
AcDbEntity
  8
SEIHIN
 62
     3
100
AcDbCircle
 10
233.5018322374013
 20
158.1524483088129
 30
0.0
 40
0.7000499999999761
100
AcDbArc
 50
0.0
 51
180.0
  0
ARC
  5
37C
330
1A
100
AcDbEntity
  8
SEIHIN
 62
     3
100
AcDbCircle
 10
244.7017822374011
 20
158.1523483088127
 30
0.0
 40
0.6999999999999034
100
AcDbArc
 50
0.0
 51
180.0
  0
ARC
  5
37D
330
1A
100
AcDbEntity
  8
SEIHIN
 62
     3
100
AcDbCircle
 10
240.5017822374012
 20
158.1523483088127
 30
0.0
 40
0.6999999999999887
100
AcDbArc
 50
0.0
 51
180.0
  0
ARC
  5
37E
330
1A
100
AcDbEntity
  8
SEIHIN
 62
     3
100
AcDbCircle
 10
237.7017822374012
 20
158.1523483088127
 30
0.0
 40
0.6999999999999887
100
AcDbArc
 50
0.0
 51
180.0
  0
ARC
  5
37F
330
1A
100
AcDbEntity
  8
SEIHIN
 62
     3
100
AcDbCircle
 10
239.1017822374012
 20
158.1523483088127
 30
0.0
 40
0.7000000000000171
100
AcDbArc
 50
0.0
 51
180.0
  0
ARC
  5
380
330
1A
100
AcDbEntity
  8
SEIHIN
 62
     3
100
AcDbCircle
 10
241.9017822374012
 20
158.1523483088127
 30
0.0
 40
0.6999999999999318
100
AcDbArc
 50
0.0
 51
180.0
  0
ARC
  5
381
330
1A
100
AcDbEntity
  8
SEIHIN
 62
     3
100
AcDbCircle
 10
243.3017822374011
 20
158.1523483088127
 30
0.0
 40
0.7000000000000739
100
AcDbArc
 50
0.0
 51
180.0
  0
ARC
  5
382
330
1A
100
AcDbEntity
  8
SEIHIN
 62
     3
100
AcDbCircle
 10
248.9017322374012
 20
158.1523483088127
 30
0.0
 40
0.7000499999999193
100
AcDbArc
 50
0.0
 51
180.0
  0
ARC
  5
383
330
1A
100
AcDbEntity
  8
SEIHIN
 62
     3
100
AcDbCircle
 10
246.1017322374012
 20
158.1523483088127
 30
0.0
 40
0.7000500000000045
100
AcDbArc
 50
0.0
 51
180.0
  0
ARC
  5
384
330
1A
100
AcDbEntity
  8
SEIHIN
 62
     3
100
AcDbCircle
 10
247.5017822374013
 20
158.1523483088127
 30
0.0
 40
0.6999999999999887
100
AcDbArc
 50
0.0
 51
180.0
  0
ARC
  5
385
330
1A
100
AcDbEntity
  8
SEIHIN
 62
     3
100
AcDbCircle
 10
250.3017822374011
 20
158.1523483088127
 30
0.0
 40
0.7000000000000739
100
AcDbArc
 50
0.0
 51
180.0
  0
ARC
  5
386
330
1A
100
AcDbEntity
  8
SEIHIN
 62
     3
100
AcDbCircle
 10
251.7016822374011
 20
158.1523483088127
 30
0.0
 40
0.7000000000000739
100
AcDbArc
 50
0.0
 51
180.0
  0
ARC
  5
387
330
1A
100
AcDbEntity
  8
SEIHIN
 62
     3
100
AcDbCircle
 10
268.5932822374011
 20
153.6610483088128
 30
0.0
 40
0.6999999999999034
100
AcDbArc
 50
0.0
 51
180.0
  0
ARC
  5
388
330
1A
100
AcDbEntity
  8
SEIHIN
 62
     3
100
AcDbCircle
 10
268.5932607312629
 20
153.6610542597626
 30
0.0
 40
0.7000351595356089
100
AcDbArc
 50
1.415610096793092
 51
147.6487993696965
  0
ARC
  5
389
330
1A
100
AcDbEntity
  8
SEIHIN
 62
     3
100
AcDbCircle
 10
268.5932822374011
 20
153.6610483088128
 30
0.0
 40
0.6999999999999034
100
AcDbArc
 50
0.0
 51
180.0
  0
ARC
  5
38A
330
1A
100
AcDbEntity
  8
SEIHIN
 62
     3
100
AcDbCircle
 10
260.1016822374012
 20
158.1523483088127
 30
0.0
 40
0.6999999999999887
100
AcDbArc
 50
0.0
 51
180.0
  0
ARC
  5
38B
330
1A
100
AcDbEntity
  8
SEIHIN
 62
     3
100
AcDbCircle
 10
257.3016822374012
 20
158.1523483088127
 30
0.0
 40
0.6999999999999318
100
AcDbArc
 50
0.0
 51
180.0
  0
ARC
  5
38C
330
1A
100
AcDbEntity
  8
SEIHIN
 62
     3
100
AcDbCircle
 10
255.9017322374013
 20
158.1523483088127
 30
0.0
 40
0.7000499999999761
100
AcDbArc
 50
0.0
 51
180.0
  0
ARC
  5
38D
330
1A
100
AcDbEntity
  8
SEIHIN
 62
     3
100
AcDbCircle
 10
254.5016822374012
 20
158.1523483088127
 30
0.0
 40
0.7000000000001024
100
AcDbArc
 50
0.0
 51
180.0
  0
ARC
  5
38E
330
1A
100
AcDbEntity
  8
SEIHIN
 62
     3
100
AcDbCircle
 10
258.7016822374012
 20
158.1523483088127
 30
0.0
 40
0.7000000000000739
100
AcDbArc
 50
0.0
 51
180.0
  0
ARC
  5
38F
330
1A
100
AcDbEntity
  8
SEIHIN
 62
     3
100
AcDbCircle
 10
265.7565607312631
 20
155.4575542597626
 30
0.0
 40
0.7000351595356062
100
AcDbArc
 50
1.415610096807786
 51
147.6487993697065
  0
ARC
  5
390
330
1A
100
AcDbEntity
  8
SEIHIN
 62
     3
100
AcDbCircle
 10
265.7565822374011
 20
155.4575483088127
 30
0.0
 40
0.6999999999999034
100
AcDbArc
 50
0.0
 51
180.0
  0
ARC
  5
391
330
1A
100
AcDbEntity
  8
SEIHIN
 62
     3
100
AcDbCircle
 10
265.7565822374011
 20
155.4575483088127
 30
0.0
 40
0.6999999999999034
100
AcDbArc
 50
0.0
 51
180.0
  0
ARC
  5
392
330
1A
100
AcDbEntity
  8
SEIHIN
 62
     3
100
AcDbCircle
 10
267.1749322374012
 20
154.5593483088129
 30
0.0
 40
0.7000499999999193
100
AcDbArc
 50
0.0
 51
180.0
  0
ARC
  5
393
330
1A
100
AcDbEntity
  8
SEIHIN
 62
     3
100
AcDbCircle
 10
267.1749289788384
 20
154.5593353725396
 30
0.0
 40
0.6999649334390523
100
AcDbArc
 50
1.409110629421799
 51
147.6530175174725
  0
ARC
  5
394
330
1A
100
AcDbEntity
  8
SEIHIN
 62
     3
100
AcDbCircle
 10
267.1749322374012
 20
154.5593483088129
 30
0.0
 40
0.7000499999999193
100
AcDbArc
 50
0.0
 51
180.0
  0
ARC
  5
395
330
1A
100
AcDbEntity
  8
SEIHIN
 62
     3
100
AcDbCircle
 10
264.3382822374011
 20
156.3558483088127
 30
0.0
 40
0.6999999999999034
100
AcDbArc
 50
0.0
 51
180.0
  0
ARC
  5
396
330
1A
100
AcDbEntity
  8
SEIHIN
 62
     3
100
AcDbCircle
 10
264.3383032736304
 20
156.3558424870256
 30
0.0
 40
0.6999929211098669
100
AcDbArc
 50
1.41665944964298
 51
147.645468697268
  0
ARC
  5
397
330
1A
100
AcDbEntity
  8
SEIHIN
 62
     3
100
AcDbCircle
 10
264.3382822374011
 20
156.3558483088127
 30
0.0
 40
0.6999999999999034
100
AcDbArc
 50
0.0
 51
180.0
  0
ARC
  5
398
330
1A
100
AcDbEntity
  8
SEIHIN
 62
     3
100
AcDbCircle
 10
261.5016822374012
 20
158.1523483088127
 30
0.0
 40
0.7000000000000171
100
AcDbArc
 50
0.0
 51
180.0
  0
ARC
  5
399
330
1A
100
AcDbEntity
  8
SEIHIN
 62
     3
100
AcDbCircle
 10
262.9199822374011
 20
157.2541483088129
 30
0.0
 40
0.7000000000000739
100
AcDbArc
 50
0.0
 51
180.0
  0
ARC
  5
39A
330
1A
100
AcDbEntity
  8
SEIHIN
 62
     3
100
AcDbCircle
 10
277.1030594912191
 20
148.2715546046431
 30
0.0
 40
0.7000339274184436
100
AcDbArc
 50
1.407397153891785
 51
147.648768905592
  0
ARC
  5
39B
330
1A
100
AcDbEntity
  8
SEIHIN
 62
     3
100
AcDbCircle
 10
277.1030822374012
 20
148.2715483088129
 30
0.0
 40
0.6999999999999887
100
AcDbArc
 50
0.0
 51
180.0
  0
ARC
  5
39C
330
1A
100
AcDbEntity
  8
SEIHIN
 62
     3
100
AcDbCircle
 10
277.1030822374012
 20
148.2715483088129
 30
0.0
 40
0.6999999999999887
100
AcDbArc
 50
0.0
 51
180.0
  0
ARC
  5
39D
330
1A
100
AcDbEntity
  8
SEIHIN
 62
     3
100
AcDbCircle
 10
277.1030822374012
 20
148.2715483088129
 30
0.0
 40
0.6999999999999887
100
AcDbArc
 50
0.0
 51
180.0
  0
ARC
  5
39E
330
1A
100
AcDbEntity
  8
SEIHIN
 62
     3
100
AcDbCircle
 10
277.3160322374012
 20
139.6331483088129
 30
0.0
 40
0.7000500000000045
100
AcDbArc
 50
180.0
 51
0.0
  0
ARC
  5
39F
330
1A
100
AcDbEntity
  8
SEIHIN
 62
     3
100
AcDbCircle
 10
277.3160594912192
 20
139.6331420129827
 30
0.0
 40
0.7000339274184672
100
AcDbArc
 50
212.3512310944147
 51
358.5926028461108
  0
ARC
  5
3A0
330
1A
100
AcDbEntity
  8
SEIHIN
 62
     3
100
AcDbCircle
 10
277.3160322374012
 20
139.6331483088129
 30
0.0
 40
0.7000500000000045
100
AcDbArc
 50
180.0
 51
0.0
  0
ARC
  5
3A1
330
1A
100
AcDbEntity
  8
SEIHIN
 62
     3
100
AcDbCircle
 10
277.3160322374012
 20
139.6331483088129
 30
0.0
 40
0.7000500000000045
100
AcDbArc
 50
180.0
 51
0.0
  0
LINE
  5
3A2
330
1A
100
AcDbEntity
  8
SEIHIN
 62
     3
100
AcDbLine
 10
276.3847822374013
 20
149.1698483088129
 30
0.0
 11
276.643782237401
 21
138.6611483088128
 31
0.0
  0
ARC
  5
3A3
330
1A
100
AcDbEntity
  8
SEIHIN
 62
     3
100
AcDbCircle
 10
275.6847822374012
 20
149.1698483088129
 30
0.0
 40
0.6999999999999887
100
AcDbArc
 50
0.0
 51
180.0
  0
ARC
  5
3A4
330
1A
100
AcDbEntity
  8
SEIHIN
 62
     3
100
AcDbCircle
 10
275.6848289788383
 20
149.1698353725396
 30
0.0
 40
0.6999649334390523
100
AcDbArc
 50
1.409110629421799
 51
147.6530175174725
  0
ARC
  5
3A5
330
1A
100
AcDbEntity
  8
SEIHIN
 62
     3
100
AcDbCircle
 10
275.6847822374012
 20
149.1698483088129
 30
0.0
 40
0.6999999999999887
100
AcDbArc
 50
0.0
 51
180.0
  0
LINE
  5
3A6
330
1A
100
AcDbEntity
  8
SEIHIN
 62
     3
100
AcDbLine
 10
277.8030822374012
 20
148.2715483088129
 30
0.0
 11
278.0189822374012
 21
139.5139483088128
 31
0.0
  0
LINE
  5
3A7
330
1A
100
AcDbEntity
  8
SEIHIN
 62
     3
100
AcDbLine
 10
277.8030822374012
 20
148.2715483088129
 30
0.0
 11
278.0190822374012
 21
139.5075483088129
 31
0.0
  0
LINE
  5
3A8
330
1A
100
AcDbEntity
  8
SEIHIN
 62
     3
100
AcDbLine
 10
279.2030822374012
 20
148.2715483088129
 30
0.0
 11
279.4194822374012
 21
139.4928483088129
 31
0.0
  0
LINE
  5
3A9
330
1A
100
AcDbEntity
  8
SEIHIN
 62
     3
100
AcDbLine
 10
280.603082237401
 20
148.2715483088129
 30
0.0
 11
280.8199822374012
 21
139.4716483088128
 31
0.0
  0
LINE
  5
3AA
330
1A
100
AcDbEntity
  8
SEIHIN
 62
     3
100
AcDbLine
 10
282.0030822374012
 20
148.2715483088129
 30
0.0
 11
282.2159822374012
 21
139.6331483088129
 31
0.0
  0
ARC
  5
3AB
330
1A
100
AcDbEntity
  8
SEIHIN
 62
     3
100
AcDbCircle
 10
281.5159822374011
 20
139.6331483088129
 30
0.0
 40
0.7000000000000739
100
AcDbArc
 50
180.0
 51
0.0
  0
ARC
  5
3AC
330
1A
100
AcDbEntity
  8
SEIHIN
 62
     3
100
AcDbCircle
 10
278.7159822374011
 20
139.6331483088129
 30
0.0
 40
0.6999999999999887
100
AcDbArc
 50
180.0
 51
0.0
  0
ARC
  5
3AD
330
1A
100
AcDbEntity
  8
SEIHIN
 62
     3
100
AcDbCircle
 10
280.1160322374012
 20
139.6331483088129
 30
0.0
 40
0.7000500000000898
100
AcDbArc
 50
180.0
 51
0.0
  0
ARC
  5
3AE
330
1A
100
AcDbEntity
  8
SEIHIN
 62
     3
100
AcDbCircle
 10
281.3030822374012
 20
148.2715483088129
 30
0.0
 40
0.7000000000001024
100
AcDbArc
 50
0.0
 51
180.0
  0
ARC
  5
3AF
330
1A
100
AcDbEntity
  8
SEIHIN
 62
     3
100
AcDbCircle
 10
279.9030822374012
 20
148.2715483088129
 30
0.0
 40
0.6999999999999034
100
AcDbArc
 50
0.0
 51
180.0
  0
ARC
  5
3B0
330
1A
100
AcDbEntity
  8
SEIHIN
 62
     3
100
AcDbCircle
 10
278.5030822374012
 20
148.2715483088129
 30
0.0
 40
0.7000000000000171
100
AcDbArc
 50
0.0
 51
180.0
  0
ARC
  5
3B1
330
1A
100
AcDbEntity
  8
SEIHIN
 62
     3
100
AcDbCircle
 10
272.8481822374012
 20
150.9663483088129
 30
0.0
 40
0.7000000000000739
100
AcDbArc
 50
0.0
 51
180.0
  0
ARC
  5
3B2
330
1A
100
AcDbEntity
  8
SEIHIN
 62
     3
100
AcDbCircle
 10
272.8481864350238
 20
150.9663471472413
 30
0.0
 40
0.7000071749519536
100
AcDbArc
 50
1.408061526469076
 51
147.6563479400406
  0
ARC
  5
3B3
330
1A
100
AcDbEntity
  8
SEIHIN
 62
     3
100
AcDbCircle
 10
272.8481822374012
 20
150.9663483088129
 30
0.0
 40
0.7000000000000739
100
AcDbArc
 50
0.0
 51
180.0
  0
ARC
  5
3B4
330
1A
100
AcDbEntity
  8
SEIHIN
 62
     3
100
AcDbCircle
 10
270.0115322374012
 20
152.7628483088127
 30
0.0
 40
0.7000500000000898
100
AcDbArc
 50
0.0
 51
180.0
  0
ARC
  5
3B5
330
1A
100
AcDbEntity
  8
SEIHIN
 62
     3
100
AcDbCircle
 10
270.0115289788384
 20
152.7628353725395
 30
0.0
 40
0.6999649334391753
100
AcDbArc
 50
1.409110629428533
 51
147.6530175174816
  0
ARC
  5
3B6
330
1A
100
AcDbEntity
  8
SEIHIN
 62
     3
100
AcDbCircle
 10
270.0115322374012
 20
152.7628483088127
 30
0.0
 40
0.7000500000000898
100
AcDbArc
 50
0.0
 51
180.0
  0
ARC
  5
3B7
330
1A
100
AcDbEntity
  8
SEIHIN
 62
     3
100
AcDbCircle
 10
271.4298822374012
 20
151.8645483088129
 30
0.0
 40
0.7000000000000739
100
AcDbArc
 50
0.0
 51
180.0
  0
ARC
  5
3B8
330
1A
100
AcDbEntity
  8
SEIHIN
 62
     3
100
AcDbCircle
 10
271.429860731263
 20
151.8645542597627
 30
0.0
 40
0.7000351595356449
100
AcDbArc
 50
1.415610096794764
 51
147.648799369696
  0
ARC
  5
3B9
330
1A
100
AcDbEntity
  8
SEIHIN
 62
     3
100
AcDbCircle
 10
271.4298822374012
 20
151.8645483088129
 30
0.0
 40
0.7000000000000739
100
AcDbArc
 50
0.0
 51
180.0
  0
ARC
  5
3BA
330
1A
100
AcDbEntity
  8
SEIHIN
 62
     3
100
AcDbCircle
 10
274.266459491219
 20
150.0680546046429
 30
0.0
 40
0.7000339274184436
100
AcDbArc
 50
1.407397153891785
 51
147.648768905592
  0
ARC
  5
3BB
330
1A
100
AcDbEntity
  8
SEIHIN
 62
     3
100
AcDbCircle
 10
274.2664822374011
 20
150.0680483088129
 30
0.0
 40
0.7000000000000739
100
AcDbArc
 50
0.0
 51
180.0
  0
ARC
  5
3BC
330
1A
100
AcDbEntity
  8
SEIHIN
 62
     3
100
AcDbCircle
 10
274.2664822374011
 20
150.0680483088129
 30
0.0
 40
0.7000000000000739
100
AcDbArc
 50
0.0
 51
180.0
  0
VIEWPORT
  5
22
330
17
100
AcDbEntity
 67
     1
  8
0
100
AcDbViewport
 10
313.6808219178082
 20
148.5
 30
0.0
 40
627.3616438356165
 41
297.0
 68
     2
 69
     1
1001
ACAD
1000
MVIEW
1002
{
1070
    16
1010
0.0
1020
0.0
1030
0.0
1010
0.0
1020
0.0
1030
1.0
1040
0.0
1040
297.0
1040
313.6808219178082
1040
148.5
1040
50.0
1040
0.0
1040
0.0
1070
     0
1070
   100
1070
     1
1070
     0
1070
     0
1070
     0
1070
     0
1070
     0
1040
0.0
1040
0.0
1040
0.0
1040
1.0
1040
1.0
1040
10.0
1040
10.0
1070
     0
1002
{
1002
}
1002
}
  0
VIEWPORT
  5
64
330
17
100
AcDbEntity
 67
     1
  8
VIEWPORT
100
AcDbViewport
 10
210.0
 20
148.5
 30
0.0
 40
420.0
 41
297.0
 68
     1
 69
     2
1001
ACAD
1000
MVIEW
1002
{
1070
    16
1010
0.0
1020
0.0
1030
0.0
1010
0.0
1020
0.0
1030
1.0
1040
0.0
1040
302.9399999999998
1040
210.0
1040
148.5
1040
50.0
1040
0.0
1040
0.0
1070
     0
1070
   100
1070
     1
1070
     0
1070
     0
1070
     0
1070
     0
1070
     0
1040
0.0
1040
0.0
1040
0.0
1040
5.0
1040
5.0
1040
0.0
1040
0.0
1070
     0
1002
{
1002
}
1002
}
  0
ENDSEC
  0
SECTION
  2
OBJECTS
  0
DICTIONARY
  5
C
330
0
100
AcDbDictionary
  3
ACAD_GROUP
350
D
  3
ACAD_MLINESTYLE
350
E
  3
ACAD_LAYOUT
350
411
  3
ACAD_PLOTSETTINGS
350
412
1001
ACAD
1000
TREAT_AS_HARD
1070
     0
  0
DICTIONARY
  5
42D
330
1A
100
AcDbDictionary
  3
ACAD_LAYOUTSELFREF
350
42E
  0
DICTIONARY
  5
42B
330
17
100
AcDbDictionary
  3
ACAD_LAYOUTSELFREF
350
42C
  0
DICTIONARY
  5
D
102
{ACAD_REACTORS
330
C
102
}
330
C
100
AcDbDictionary
1001
ACAD
1000
TREAT_AS_HARD
1070
     0
  0
DICTIONARY
  5
E
102
{ACAD_REACTORS
330
C
102
}
330
C
100
AcDbDictionary
  3
STANDARD
350
13
1001
ACAD
1000
TREAT_AS_HARD
1070
     0
  0
DICTIONARY
  5
411
102
{ACAD_REACTORS
330
C
102
}
330
C
100
AcDbDictionary
1001
ACAD
1000
TREAT_AS_HARD
1070
     0
  0
DICTIONARY
  5
412
102
{ACAD_REACTORS
330
C
102
}
330
C
100
AcDbDictionary
1001
ACAD
1000
TREAT_AS_HARD
1070
     0
  0
XRECORD
  5
42E
102
{ACAD_REACTORS
330
42D
102
}
330
42D
100
AcDbXrecord
340
1A
  0
XRECORD
  5
42C
102
{ACAD_REACTORS
330
42B
102
}
330
42B
100
AcDbXrecord
340
17
  0
MLINESTYLE
  5
13
102
{ACAD_REACTORS
330
E
102
}
330
E
100
AcDbMlineStyle
  2
STANDARD
 70
     0
  3

 62
     0
 51
90.0
 52
90.0
 71
     2
 49
0.5
 62
   256
  6
BYLAYER
 49
-0.5
 62
   256
  6
BYLAYER
  0
ENDSEC
  0
EOF
