  0
SECTION
  2
HEADER
  9
$ACADVER
  1
AC1015
  9
$ACADMAINTVER
 70
     6
  9
$DWGCODEPAGE
  3
ANSI_932
  9
$INSBASE
 10
0.0
 20
0.0
 30
0.0
  9
$EXTMIN
 10
10.05047808566086
 20
13.78258628282265
 30
0.0
  9
$EXTMAX
 10
807.6504780856607
 20
565.3825862828227
 30
0.0
  9
$LIMMIN
 10
0.0
 20
0.0
  9
$LIMMAX
 10
840.0
 20
594.0
  9
$ORTHOMODE
 70
     0
  9
$REGENMODE
 70
     1
  9
$FILLMODE
 70
     1
  9
$QTEXTMODE
 70
     0
  9
$MIRRTEXT
 70
     1
  9
$LTSCALE
 40
2.0
  9
$ATTMODE
 70
     1
  9
$TEXTSIZE
 40
5.0
  9
$TRACEWID
 40
1.0
  9
$TEXTSTYLE
  7
STANDARD
  9
$CLAYER
  8
0
  9
$CELTYPE
  6
BYLAYER
  9
$CECOLOR
 62
   256
  9
$CELTSCALE
 40
1.0
  9
$DISPSILH
 70
     0
  9
$DIMSCALE
 40
1.0
  9
$DIMASZ
 40
7.0
  9
$DIMEXO
 40
6.0
  9
$DIMDLI
 40
14.0
  9
$DIMRND
 40
0.0
  9
$DIMDLE
 40
0.0
  9
$DIMEXE
 40
3.0
  9
$DIMTP
 40
0.0
  9
$DIMTM
 40
0.0
  9
$DIMTXT
 40
6.0
  9
$DIMCEN
 40
150.0
  9
$DIMTSZ
 40
0.0
  9
$DIMTOL
 70
     0
  9
$DIMLIM
 70
     0
  9
$DIMTIH
 70
     0
  9
$DIMTOH
 70
     0
  9
$DIMSE1
 70
     0
  9
$DIMSE2
 70
     0
  9
$DIMTAD
 70
     3
  9
$DIMZIN
 70
     0
  9
$DIMBLK
  1

  9
$DIMASO
 70
     1
  9
$DIMSHO
 70
     1
  9
$DIMPOST
  1

  9
$DIMAPOST
  1

  9
$DIMALT
 70
     0
  9
$DIMALTD
 70
     2
  9
$DIMALTF
 40
25.4
  9
$DIMLFAC
 40
1.0
  9
$DIMTOFL
 70
     1
  9
$DIMTVP
 40
0.0
  9
$DIMTIX
 70
     0
  9
$DIMSOXD
 70
     0
  9
$DIMSAH
 70
     1
  9
$DIMBLK1
  1
OPEN
  9
$DIMBLK2
  1
OPEN
  9
$DIMSTYLE
  2
STANDARD
  9
$DIMCLRD
 70
   256
  9
$DIMCLRE
 70
   256
  9
$DIMCLRT
 70
   256
  9
$DIMTFAC
 40
1.0
  9
$DIMGAP
 40
2.0
  9
$DIMJUST
 70
     0
  9
$DIMSD1
 70
     0
  9
$DIMSD2
 70
     0
  9
$DIMTOLJ
 70
     1
  9
$DIMTZIN
 70
     0
  9
$DIMALTZ
 70
     0
  9
$DIMALTTZ
 70
     0
  9
$DIMUPT
 70
     0
  9
$DIMDEC
 70
     0
  9
$DIMTDEC
 70
     0
  9
$DIMALTU
 70
     2
  9
$DIMALTTD
 70
     2
  9
$DIMTXSTY
  7
STANDARD
  9
$DIMAUNIT
 70
     0
  9
$DIMADEC
 70
     0
  9
$DIMALTRND
 40
0.0
  9
$DIMAZIN
 70
     0
  9
$DIMDSEP
 70
    46
  9
$DIMATFIT
 70
     3
  9
$DIMFRAC
 70
     0
  9
$DIMLDRBLK
  1
OPEN
  9
$DIMLUNIT
 70
     2
  9
$DIMLWD
 70
    -1
  9
$DIMLWE
 70
    -1
  9
$DIMTMOVE
 70
     0
  9
$LUNITS
 70
     2
  9
$LUPREC
 70
     4
  9
$SKETCHINC
 40
1.0
  9
$FILLETRAD
 40
1.0
  9
$AUNITS
 70
     0
  9
$AUPREC
 70
     0
  9
$MENU
  1
.
  9
$ELEVATION
 40
0.0
  9
$PELEVATION
 40
0.0
  9
$THICKNESS
 40
0.0
  9
$LIMCHECK
 70
     0
  9
$CHAMFERA
 40
20.0
  9
$CHAMFERB
 40
20.0
  9
$CHAMFERC
 40
40.0
  9
$CHAMFERD
 40
0.0
  9
$SKPOLY
 70
     0
  9
$TDCREATE
 40
2454866.469916053
  9
$TDUCREATE
 40
2454866.094916053
  9
$TDUPDATE
 40
2456216.588681122
  9
$TDUUPDATE
 40
2456216.213681122
  9
$TDINDWG
 40
0.2195767708
  9
$TDUSRTIMER
 40
0.2195767708
  9
$USRTIMER
 70
     1
  9
$ANGBASE
 50
0.0
  9
$ANGDIR
 70
     0
  9
$PDMODE
 70
     0
  9
$PDSIZE
 40
0.0
  9
$PLINEWID
 40
0.0
  9
$SPLFRAME
 70
     0
  9
$SPLINETYPE
 70
     6
  9
$SPLINESEGS
 70
     8
  9
$HANDSEED
  5
BD29
  9
$SURFTAB1
 70
     6
  9
$SURFTAB2
 70
     6
  9
$SURFTYPE
 70
     6
  9
$SURFU
 70
     6
  9
$SURFV
 70
     6
  9
$UCSBASE
  2

  9
$UCSNAME
  2

  9
$UCSORG
 10
0.0
 20
0.0
 30
0.0
  9
$UCSXDIR
 10
1.0
 20
0.0
 30
0.0
  9
$UCSYDIR
 10
0.0
 20
1.0
 30
0.0
  9
$UCSORTHOREF
  2

  9
$UCSORTHOVIEW
 70
     0
  9
$UCSORGTOP
 10
0.0
 20
0.0
 30
0.0
  9
$UCSORGBOTTOM
 10
0.0
 20
0.0
 30
0.0
  9
$UCSORGLEFT
 10
0.0
 20
0.0
 30
0.0
  9
$UCSORGRIGHT
 10
0.0
 20
0.0
 30
0.0
  9
$UCSORGFRONT
 10
0.0
 20
0.0
 30
0.0
  9
$UCSORGBACK
 10
0.0
 20
0.0
 30
0.0
  9
$PUCSBASE
  2

  9
$PUCSNAME
  2

  9
$PUCSORG
 10
0.0
 20
0.0
 30
0.0
  9
$PUCSXDIR
 10
1.0
 20
0.0
 30
0.0
  9
$PUCSYDIR
 10
0.0
 20
1.0
 30
0.0
  9
$PUCSORTHOREF
  2

  9
$PUCSORTHOVIEW
 70
     0
  9
$PUCSORGTOP
 10
0.0
 20
0.0
 30
0.0
  9
$PUCSORGBOTTOM
 10
0.0
 20
0.0
 30
0.0
  9
$PUCSORGLEFT
 10
0.0
 20
0.0
 30
0.0
  9
$PUCSORGRIGHT
 10
0.0
 20
0.0
 30
0.0
  9
$PUCSORGFRONT
 10
0.0
 20
0.0
 30
0.0
  9
$PUCSORGBACK
 10
0.0
 20
0.0
 30
0.0
  9
$USERI1
 70
     0
  9
$USERI2
 70
     0
  9
$USERI3
 70
     0
  9
$USERI4
 70
     0
  9
$USERI5
 70
     0
  9
$USERR1
 40
0.0
  9
$USERR2
 40
0.0
  9
$USERR3
 40
0.0
  9
$USERR4
 40
0.0
  9
$USERR5
 40
0.0
  9
$WORLDVIEW
 70
     1
  9
$SHADEDGE
 70
     3
  9
$SHADEDIF
 70
    70
  9
$TILEMODE
 70
     1
  9
$MAXACTVP
 70
    16
  9
$PINSBASE
 10
0.0
 20
0.0
 30
0.0
  9
$PLIMCHECK
 70
     0
  9
$PEXTMIN
 10
0.0
 20
0.0
 30
0.0
  9
$PEXTMAX
 10
420.0
 20
297.0
 30
0.0
  9
$PLIMMIN
 10
0.0
 20
0.0
  9
$PLIMMAX
 10
420.0
 20
297.0
  9
$UNITMODE
 70
     0
  9
$VISRETAIN
 70
     0
  9
$PLINEGEN
 70
     0
  9
$PSLTSCALE
 70
     1
  9
$TREEDEPTH
 70
  3020
  9
$CMLSTYLE
  2
STANDARD
  9
$CMLJUST
 70
     0
  9
$CMLSCALE
 40
1.0
  9
$PROXYGRAPHICS
 70
     1
  9
$MEASUREMENT
 70
     1
  9
$CELWEIGHT
370
    -1
  9
$ENDCAPS
280
     0
  9
$JOINSTYLE
280
     0
  9
$LWDISPLAY
290
     0
  9
$INSUNITS
 70
     0
  9
$HYPERLINKBASE
  1

  9
$STYLESHEET
  1
print.ctb
  9
$XEDIT
290
     1
  9
$CEPSNTYPE
380
     0
  9
$PSTYLEMODE
290
     1
  9
$FINGERPRINTGUID
  2
{8D6CB018-5425-46D7-BA3D-129D74F567FA}
  9
$VERSIONGUID
  2
{F504D20F-95BB-4E40-96C6-048F05C7F3C0}
  9
$EXTNAMES
290
     1
  9
$PSVPSCALE
 40
0.0
  9
$OLESTARTUP
290
     0
  0
ENDSEC
  0
SECTION
  2
CLASSES
  0
CLASS
  1
ACDBDICTIONARYWDFLT
  2
AcDbDictionaryWithDefault
  3
AutoCAD 2000
 90
        0
280
     0
281
     0
  0
CLASS
  1
ACDBPLACEHOLDER
  2
AcDbPlaceHolder
  3
AutoCAD 2000
 90
        0
280
     0
281
     0
  0
CLASS
  1
LAYOUT
  2
AcDbLayout
  3
AutoCAD 2000
 90
        0
280
     0
281
     0
  0
CLASS
  1
LONG_TRANSACTION
  2
AcDbLongTransaction
  3
AutoCAD 2000
 90
    32768
280
     0
281
     0
  0
CLASS
  1
LWPOLYLINE
  2
AcDbPolyline
  3
AutoCAD 2000
 90
    32768
280
     0
281
     1
  0
CLASS
  1
HATCH
  2
AcDbHatch
  3
AutoCAD 2000
 90
    32768
280
     0
281
     1
  0
CLASS
  1
XRECORD
  2
AcDbXrecord
  3
AutoCAD 2000
 90
    32768
280
     0
281
     0
  0
CLASS
  1
LONG_TRANSACTION
  2
AcDbLongTransaction
  3
AutoCAD 2000
 90
    32768
280
     0
281
     0
  0
CLASS
  1
LWPOLYLINE
  2
AcDbPolyline
  3
AutoCAD 2000
 90
    32768
280
     0
281
     1
  0
CLASS
  1
HATCH
  2
AcDbHatch
  3
AutoCAD 2000
 90
    32768
280
     0
281
     1
  0
CLASS
  1
XRECORD
  2
AcDbXrecord
  3
AutoCAD 2000
 90
    32768
280
     0
281
     0
  0
CLASS
  1
LONG_TRANSACTION
  2
AcDbLongTransaction
  3
AutoCAD 2000
 90
    32768
280
     0
281
     0
  0
CLASS
  1
LWPOLYLINE
  2
AcDbPolyline
  3
AutoCAD 2000
 90
    32768
280
     0
281
     1
  0
CLASS
  1
HATCH
  2
AcDbHatch
  3
AutoCAD 2000
 90
    32768
280
     0
281
     1
  0
CLASS
  1
XRECORD
  2
AcDbXrecord
  3
AutoCAD 2000
 90
    32768
280
     0
281
     0
  0
CLASS
  1
LONG_TRANSACTION
  2
AcDbLongTransaction
  3
AutoCAD 2000
 90
    32768
280
     0
281
     0
  0
CLASS
  1
LWPOLYLINE
  2
AcDbPolyline
  3
AutoCAD 2000
 90
    32768
280
     0
281
     1
  0
CLASS
  1
HATCH
  2
AcDbHatch
  3
AutoCAD 2000
 90
    32768
280
     0
281
     1
  0
CLASS
  1
XRECORD
  2
AcDbXrecord
  3
AutoCAD 2000
 90
    32768
280
     0
281
     0
  0
CLASS
  1
DICTIONARYVAR
  2
AcDbDictionaryVar
  3
AutoCAD 2000
 90
        0
280
     0
281
     0
  0
CLASS
  1
LONG_TRANSACTION
  2
AcDbLongTransaction
  3
AutoCAD 2000
 90
    32768
280
     0
281
     0
  0
CLASS
  1
LWPOLYLINE
  2
AcDbPolyline
  3
AutoCAD 2000
 90
    32768
280
     0
281
     1
  0
CLASS
  1
HATCH
  2
AcDbHatch
  3
AutoCAD 2000
 90
    32768
280
     0
281
     1
  0
CLASS
  1
XRECORD
  2
AcDbXrecord
  3
AutoCAD 2000
 90
    32768
280
     0
281
     0
  0
CLASS
  1
LONG_TRANSACTION
  2
AcDbLongTransaction
  3
AutoCAD 2000
 90
    32768
280
     0
281
     0
  0
CLASS
  1
LWPOLYLINE
  2
AcDbPolyline
  3
AutoCAD 2000
 90
    32768
280
     0
281
     1
  0
CLASS
  1
HATCH
  2
AcDbHatch
  3
AutoCAD 2000
 90
    32768
280
     0
281
     1
  0
CLASS
  1
XRECORD
  2
AcDbXrecord
  3
AutoCAD 2000
 90
    32768
280
     0
281
     0
  0
CLASS
  1
LONG_TRANSACTION
  2
AcDbLongTransaction
  3
AutoCAD 2000
 90
    32768
280
     0
281
     0
  0
CLASS
  1
LWPOLYLINE
  2
AcDbPolyline
  3
AutoCAD 2000
 90
    32768
280
     0
281
     1
  0
CLASS
  1
HATCH
  2
AcDbHatch
  3
AutoCAD 2000
 90
    32768
280
     0
281
     1
  0
CLASS
  1
XRECORD
  2
AcDbXrecord
  3
AutoCAD 2000
 90
    32768
280
     0
281
     0
  0
CLASS
  1
LONG_TRANSACTION
  2
AcDbLongTransaction
  3
AutoCAD 2000
 90
    32768
280
     0
281
     0
  0
CLASS
  1
LWPOLYLINE
  2
AcDbPolyline
  3
AutoCAD 2000
 90
    32768
280
     0
281
     1
  0
CLASS
  1
HATCH
  2
AcDbHatch
  3
AutoCAD 2000
 90
    32768
280
     0
281
     1
  0
CLASS
  1
XRECORD
  2
AcDbXrecord
  3
AutoCAD 2000
 90
    32768
280
     0
281
     0
  0
CLASS
  1
LONG_TRANSACTION
  2
AcDbLongTransaction
  3
AutoCAD 2000
 90
    32768
280
     0
281
     0
  0
CLASS
  1
LWPOLYLINE
  2
AcDbPolyline
  3
AutoCAD 2000
 90
    32768
280
     0
281
     1
  0
CLASS
  1
HATCH
  2
AcDbHatch
  3
AutoCAD 2000
 90
    32768
280
     0
281
     1
  0
CLASS
  1
XRECORD
  2
AcDbXrecord
  3
AutoCAD 2000
 90
    32768
280
     0
281
     0
  0
CLASS
  1
LONG_TRANSACTION
  2
AcDbLongTransaction
  3
AutoCAD 2000
 90
    32768
280
     0
281
     0
  0
CLASS
  1
LWPOLYLINE
  2
AcDbPolyline
  3
AutoCAD 2000
 90
    32768
280
     0
281
     1
  0
CLASS
  1
HATCH
  2
AcDbHatch
  3
AutoCAD 2000
 90
    32768
280
     0
281
     1
  0
CLASS
  1
XRECORD
  2
AcDbXrecord
  3
AutoCAD 2000
 90
    32768
280
     0
281
     0
  0
CLASS
  1
LONG_TRANSACTION
  2
AcDbLongTransaction
  3
AutoCAD 2000
 90
    32768
280
     0
281
     0
  0
CLASS
  1
LWPOLYLINE
  2
AcDbPolyline
  3
AutoCAD 2000
 90
    32768
280
     0
281
     1
  0
CLASS
  1
HATCH
  2
AcDbHatch
  3
AutoCAD 2000
 90
    32768
280
     0
281
     1
  0
CLASS
  1
XRECORD
  2
AcDbXrecord
  3
AutoCAD 2000
 90
    32768
280
     0
281
     0
  0
CLASS
  1
LONG_TRANSACTION
  2
AcDbLongTransaction
  3
AutoCAD 2000
 90
    32768
280
     0
281
     0
  0
CLASS
  1
LWPOLYLINE
  2
AcDbPolyline
  3
AutoCAD 2000
 90
    32768
280
     0
281
     1
  0
CLASS
  1
HATCH
  2
AcDbHatch
  3
AutoCAD 2000
 90
    32768
280
     0
281
     1
  0
CLASS
  1
XRECORD
  2
AcDbXrecord
  3
AutoCAD 2000
 90
    32768
280
     0
281
     0
  0
CLASS
  1
LONG_TRANSACTION
  2
AcDbLongTransaction
  3
AutoCAD 2000
 90
    32768
280
     0
281
     0
  0
CLASS
  1
LWPOLYLINE
  2
AcDbPolyline
  3
AutoCAD 2000
 90
    32768
280
     0
281
     1
  0
CLASS
  1
HATCH
  2
AcDbHatch
  3
AutoCAD 2000
 90
    32768
280
     0
281
     1
  0
CLASS
  1
XRECORD
  2
AcDbXrecord
  3
AutoCAD 2000
 90
    32768
280
     0
281
     0
  0
CLASS
  1
LONG_TRANSACTION
  2
AcDbLongTransaction
  3
AutoCAD 2000
 90
    32768
280
     0
281
     0
  0
CLASS
  1
LWPOLYLINE
  2
AcDbPolyline
  3
AutoCAD 2000
 90
    32768
280
     0
281
     1
  0
CLASS
  1
HATCH
  2
AcDbHatch
  3
AutoCAD 2000
 90
    32768
280
     0
281
     1
  0
CLASS
  1
XRECORD
  2
AcDbXrecord
  3
AutoCAD 2000
 90
    32768
280
     0
281
     0
  0
CLASS
  1
LONG_TRANSACTION
  2
AcDbLongTransaction
  3
AutoCAD 2000
 90
    32768
280
     0
281
     0
  0
CLASS
  1
LWPOLYLINE
  2
AcDbPolyline
  3
AutoCAD 2000
 90
    32768
280
     0
281
     1
  0
CLASS
  1
HATCH
  2
AcDbHatch
  3
AutoCAD 2000
 90
    32768
280
     0
281
     1
  0
CLASS
  1
XRECORD
  2
AcDbXrecord
  3
AutoCAD 2000
 90
    32768
280
     0
281
     0
  0
CLASS
  1
LONG_TRANSACTION
  2
AcDbLongTransaction
  3
AutoCAD 2000
 90
    32768
280
     0
281
     0
  0
CLASS
  1
LWPOLYLINE
  2
AcDbPolyline
  3
AutoCAD 2000
 90
    32768
280
     0
281
     1
  0
CLASS
  1
HATCH
  2
AcDbHatch
  3
AutoCAD 2000
 90
    32768
280
     0
281
     1
  0
CLASS
  1
XRECORD
  2
AcDbXrecord
  3
AutoCAD 2000
 90
    32768
280
     0
281
     0
  0
CLASS
  1
LONG_TRANSACTION
  2
AcDbLongTransaction
  3
AutoCAD 2000
 90
    32768
280
     0
281
     0
  0
CLASS
  1
LWPOLYLINE
  2
AcDbPolyline
  3
AutoCAD 2000
 90
    32768
280
     0
281
     1
  0
CLASS
  1
HATCH
  2
AcDbHatch
  3
AutoCAD 2000
 90
    32768
280
     0
281
     1
  0
CLASS
  1
XRECORD
  2
AcDbXrecord
  3
AutoCAD 2000
 90
    32768
280
     0
281
     0
  0
ENDSEC
  0
SECTION
  2
TABLES
  0
TABLE
  2
VPORT
  5
8
330
0
100
AcDbSymbolTable
 70
     2
  0
VPORT
  5
BD28
330
8
100
AcDbSymbolTableRecord
100
AcDbViewportTableRecord
  2
*Active
 70
     0
 10
0.0
 20
0.0
 11
1.0
 21
1.0
 12
426.4892743403094
 22
297.0
 13
0.0
 23
0.0
 14
5.0
 24
5.0
 15
0.0
 25
0.0
 16
0.0
 26
0.0
 36
1.0
 17
0.0
 27
0.0
 37
0.0
 40
598.540127388535
 41
1.557397959183673
 42
50.0
 43
0.0
 44
0.0
 50
0.0
 51
0.0
 71
     0
 72
   100
 73
     1
 74
     0
 75
     0
 76
     0
 77
     0
 78
     0
281
     0
 65
     1
110
0.0
120
0.0
130
0.0
111
1.0
121
0.0
131
0.0
112
0.0
122
1.0
132
0.0
 79
     0
146
0.0
  0
ENDTAB
  0
TABLE
  2
LTYPE
  5
5
330
0
100
AcDbSymbolTable
 70
     4
  0
LTYPE
  5
14
330
5
100
AcDbSymbolTableRecord
100
AcDbLinetypeTableRecord
  2
BYBLOCK
 70
     0
  3

 72
    65
 73
     0
 40
0.0
  0
LTYPE
  5
15
330
5
100
AcDbSymbolTableRecord
100
AcDbLinetypeTableRecord
  2
BYLAYER
 70
     0
  3

 72
    65
 73
     0
 40
0.0
  0
LTYPE
  5
16
330
5
100
AcDbSymbolTableRecord
100
AcDbLinetypeTableRecord
  2
CONTINUOUS
 70
     0
  3
Solid line
 72
    65
 73
     0
 40
0.0
  0
LTYPE
  5
135
330
5
100
AcDbSymbolTableRecord
100
AcDbLinetypeTableRecord
  2
CENTER
 70
     0
  3
____ _ ____ _ ____ _ ____ _ ____ _ ____ _ ____ 
 72
    65
 73
     4
 40
2.0
 49
1.25
 74
     0
 49
-0.25
 74
     0
 49
0.25
 74
     0
 49
-0.25
 74
     0
  0
LTYPE
  5
1527
330
5
100
AcDbSymbolTableRecord
100
AcDbLinetypeTableRecord
  2
SLDSECTION0
 70
     0
  3

 72
    65
 73
     4
 40
10.16
 49
6.349999999999999
 74
     0
 49
-1.27
 74
     0
 49
1.27
 74
     0
 49
-1.27
 74
     0
  0
LTYPE
  5
A99A
330
5
100
AcDbSymbolTableRecord
100
AcDbLinetypeTableRecord
  2
DASHED
 70
     0
  3
__ __ __ __ __ __ __ __ __ __ __ __ __ __ __ __
 72
    65
 73
     2
 40
0.75
 49
0.5
 74
     0
 49
-0.25
 74
     0
  0
ENDTAB
  0
TABLE
  2
LAYER
  5
2
330
0
100
AcDbSymbolTable
 70
     9
  0
LAYER
  5
F
330
2
100
AcDbSymbolTableRecord
100
AcDbLayerTableRecord
  2
0
 70
     0
 62
     7
  6
CONTINUOUS
370
    -3
390
33F
  0
LAYER
  5
62
330
2
100
AcDbSymbolTableRecord
100
AcDbLayerTableRecord
  2
VIEWPORT
 70
     0
 62
     7
  6
CONTINUOUS
370
    -3
390
33F
  0
LAYER
  5
65
330
2
100
AcDbSymbolTableRecord
100
AcDbLayerTableRecord
  2
ZUWAKU
 70
     0
 62
     7
  6
CONTINUOUS
370
    -3
390
33F
  0
LAYER
  5
153
330
2
100
AcDbSymbolTableRecord
100
AcDbLayerTableRecord
  2
SEIHIN
 70
     0
 62
     3
  6
CONTINUOUS
370
    -3
390
33F
  0
LAYER
  5
154
330
2
100
AcDbSymbolTableRecord
100
AcDbLayerTableRecord
  2
SUNPOU
 70
     0
 62
     4
  6
CONTINUOUS
370
    -3
390
33F
  0
LAYER
  5
155
330
2
100
AcDbSymbolTableRecord
100
AcDbLayerTableRecord
  2
CENTER L
 70
     0
 62
     1
  6
CENTER
370
    -3
390
33F
  0
LAYER
  5
24D
330
2
100
AcDbSymbolTableRecord
100
AcDbLayerTableRecord
  2
DEFPOINTS
 70
     0
 62
     7
  6
CONTINUOUS
290
     0
370
    -3
390
33F
  0
LAYER
  5
59A
330
2
100
AcDbSymbolTableRecord
100
AcDbLayerTableRecord
  2
moji
 70
     0
 62
     2
  6
CONTINUOUS
370
    -3
390
33F
  0
LAYER
  5
1528
330
2
100
AcDbSymbolTableRecord
100
AcDbLayerTableRecord
  2
NOKITOI
 70
     0
 62
     9
  6
SLDSECTION0
370
    -3
390
33F
  0
ENDTAB
  0
TABLE
  2
STYLE
  5
3
330
0
100
AcDbSymbolTable
 70
     2
  0
STYLE
  5
10
330
3
100
AcDbSymbolTableRecord
100
AcDbTextStyleTableRecord
  2
STANDARD
 70
     0
 40
0.0
 41
1.0
 50
0.0
 71
     0
 42
5.0
  3
TXT
  4
bigfont.shx
  0
STYLE
  5
59B
330
3
100
AcDbSymbolTableRecord
100
AcDbTextStyleTableRecord
  2
ｽﾀｲﾙ1
 70
     0
 40
0.0
 41
1.0
 50
0.0
 71
     0
 42
2.5
  3
MS PGothic.ttf
  4

1001
ACAD
1000
MS PGothic
1071
    32818
  0
ENDTAB
  0
TABLE
  2
VIEW
  5
6
330
0
100
AcDbSymbolTable
 70
     0
  0
ENDTAB
  0
TABLE
  2
UCS
  5
7
330
0
100
AcDbSymbolTable
 70
     0
  0
ENDTAB
  0
TABLE
  2
APPID
  5
9
330
0
100
AcDbSymbolTable
 70
     1
  0
APPID
  5
11
330
9
100
AcDbSymbolTableRecord
100
AcDbRegAppTableRecord
  2
ACAD
 70
     0
  0
ENDTAB
  0
TABLE
  2
DIMSTYLE
  5
A
330
0
100
AcDbSymbolTable
 70
     1
100
AcDbDimStyleTable
 71
     0
  0
DIMSTYLE
105
1D
102
{ACAD_REACTORS
330
B3C2
330
B3C3
330
B3C4
330
B3CB
330
B3CD
330
B3CE
330
B43D
330
B442
330
B446
330
B4ED
330
B562
330
B578
330
B583
330
B587
330
B5C7
330
B5CC
330
B5CD
102
}
330
A
100
AcDbSymbolTableRecord
100
AcDbDimStyleTableRecord
  2
STANDARD
 70
     0
340
10
  0
ENDTAB
  0
TABLE
  2
BLOCK_RECORD
  5
1
330
0
100
AcDbSymbolTable
 70
    19
  0
BLOCK_RECORD
  5
1A
102
{ACAD_XDICTIONARY
360
385
102
}
330
1
100
AcDbSymbolTableRecord
100
AcDbBlockTableRecord
  2
*MODEL_SPACE
340
342
  0
BLOCK_RECORD
  5
17
102
{ACAD_XDICTIONARY
360
383
102
}
330
1
100
AcDbSymbolTableRecord
100
AcDbBlockTableRecord
  2
*PAPER_SPACE
340
343
  0
BLOCK_RECORD
  5
6D
330
1
100
AcDbSymbolTableRecord
100
AcDbBlockTableRecord
  2
_OPEN
340
0
102
{BLKREFS
331
B814
331
B815
331
B80B
331
B80C
331
B841
331
B842
331
B81D
331
B81E
331
B802
331
B803
331
B7F9
331
B7FA
331
B838
331
B839
331
B82F
331
B830
331
B826
331
B827
331
B86D
331
B86E
331
BD15
331
BD16
331
B85C
331
B85D
331
B853
331
B854
331
B84A
331
B84B
331
B876
331
B877
331
B7F0
331
B7F1
331
BD1D
331
BD1E
102
}
  0
BLOCK_RECORD
  5
3A4
330
1
100
AcDbSymbolTableRecord
100
AcDbBlockTableRecord
  2
*X1
340
0
102
{BLKREFS
331
6D8
102
}
  0
BLOCK_RECORD
  5
B5DA
330
1
100
AcDbSymbolTableRecord
100
AcDbBlockTableRecord
  2
*D2
340
0
  0
BLOCK_RECORD
  5
B5E6
330
1
100
AcDbSymbolTableRecord
100
AcDbBlockTableRecord
  2
*D3
340
0
  0
BLOCK_RECORD
  5
B5F2
330
1
100
AcDbSymbolTableRecord
100
AcDbBlockTableRecord
  2
*D4
340
0
  0
BLOCK_RECORD
  5
B5FE
330
1
100
AcDbSymbolTableRecord
100
AcDbBlockTableRecord
  2
*D5
340
0
  0
BLOCK_RECORD
  5
B60A
330
1
100
AcDbSymbolTableRecord
100
AcDbBlockTableRecord
  2
*D6
340
0
  0
BLOCK_RECORD
  5
B616
330
1
100
AcDbSymbolTableRecord
100
AcDbBlockTableRecord
  2
*D7
340
0
  0
BLOCK_RECORD
  5
B622
330
1
100
AcDbSymbolTableRecord
100
AcDbBlockTableRecord
  2
*D8
340
0
  0
BLOCK_RECORD
  5
B62E
330
1
100
AcDbSymbolTableRecord
100
AcDbBlockTableRecord
  2
*D9
340
0
  0
BLOCK_RECORD
  5
B63A
330
1
100
AcDbSymbolTableRecord
100
AcDbBlockTableRecord
  2
*D10
340
0
  0
BLOCK_RECORD
  5
B646
330
1
100
AcDbSymbolTableRecord
100
AcDbBlockTableRecord
  2
*D11
340
0
  0
BLOCK_RECORD
  5
B652
330
1
100
AcDbSymbolTableRecord
100
AcDbBlockTableRecord
  2
*D12
340
0
  0
BLOCK_RECORD
  5
B65D
330
1
100
AcDbSymbolTableRecord
100
AcDbBlockTableRecord
  2
*D13
340
0
  0
BLOCK_RECORD
  5
B669
330
1
100
AcDbSymbolTableRecord
100
AcDbBlockTableRecord
  2
*D14
340
0
  0
BLOCK_RECORD
  5
B675
330
1
100
AcDbSymbolTableRecord
100
AcDbBlockTableRecord
  2
*D15
340
0
  0
BLOCK_RECORD
  5
B681
330
1
100
AcDbSymbolTableRecord
100
AcDbBlockTableRecord
  2
*D16
340
0
  0
BLOCK_RECORD
  5
B68D
330
1
100
AcDbSymbolTableRecord
100
AcDbBlockTableRecord
  2
*D17
340
0
  0
BLOCK_RECORD
  5
B69B
330
1
100
AcDbSymbolTableRecord
100
AcDbBlockTableRecord
  2
*D18
340
0
  0
ENDTAB
  0
ENDSEC
  0
SECTION
  2
BLOCKS
  0
BLOCK
  5
1B
330
1A
100
AcDbEntity
  8
0
100
AcDbBlockBegin
  2
*MODEL_SPACE
 70
     0
 10
0.0
 20
0.0
 30
0.0
  3
*MODEL_SPACE
  1

  0
ENDBLK
  5
1C
330
1A
100
AcDbEntity
  8
0
100
AcDbBlockEnd
  0
BLOCK
  5
18
330
17
100
AcDbEntity
 67
     1
  8
0
100
AcDbBlockBegin
  2
*PAPER_SPACE
 70
     0
 10
0.0
 20
0.0
 30
0.0
  3
*PAPER_SPACE
  1

  0
ENDBLK
  5
19
330
17
100
AcDbEntity
 67
     1
  8
0
100
AcDbBlockEnd
  0
BLOCK
  5
6E
330
6D
100
AcDbEntity
  8
0
100
AcDbBlockBegin
  2
_OPEN
 70
     0
 10
0.0
 20
0.0
 30
0.0
  3
_OPEN
  1

  0
LINE
  5
6F
330
6D
100
AcDbEntity
  8
0
  6
ByBlock
 62
     0
100
AcDbLine
 10
-1.0
 20
0.1666666666666666
 30
0.0
 11
0.0
 21
0.0
 31
0.0
  0
LINE
  5
70
330
6D
100
AcDbEntity
  8
0
  6
ByBlock
 62
     0
100
AcDbLine
 10
0.0
 20
0.0
 30
0.0
 11
-1.0
 21
-0.1666666666666666
 31
0.0
  0
LINE
  5
71
330
6D
100
AcDbEntity
  8
0
  6
ByBlock
 62
     0
100
AcDbLine
 10
0.0
 20
0.0
 30
0.0
 11
-1.0
 21
0.0
 31
0.0
  0
ENDBLK
  5
72
330
6D
100
AcDbEntity
  8
0
100
AcDbBlockEnd
  0
BLOCK
  5
538
330
3A4
100
AcDbEntity
  8
0
100
AcDbBlockBegin
  2
*X1
 70
     1
 10
0.0
 20
0.0
 30
0.0
  3
*X1
  1

  0
LINE
  5
3A5
330
3A4
100
AcDbEntity
  8
0
 62
     0
100
AcDbLine
 10
66.75047808566091
 20
28.71175535310772
 30
0.0
 11
66.10464715594599
 21
29.35758628282269
 31
0.0
  0
LINE
  5
3A6
330
3A4
100
AcDbEntity
  8
0
 62
     0
100
AcDbLine
 10
66.75047808566091
 20
27.81372974100082
 30
0.0
 11
65.20662154383905
 21
29.35758628282269
 31
0.0
  0
LINE
  5
3A7
330
3A4
100
AcDbEntity
  8
0
 62
     0
100
AcDbLine
 10
66.75047808566086
 20
26.91570412889388
 30
0.0
 11
64.32934413964591
 21
29.33683807490882
 31
0.0
  0
LINE
  5
3A8
330
3A4
100
AcDbEntity
  8
0
 62
     0
100
AcDbLine
 10
66.75047808566091
 20
26.01767851678704
 30
0.0
 11
63.95047808566085
 21
28.81767851678705
 31
0.0
  0
LINE
  5
3A9
330
3A4
100
AcDbEntity
  8
0
 62
     0
100
AcDbLine
 10
66.75047808566091
 20
25.11965290468009
 30
0.0
 11
63.95047808566085
 21
27.91965290468016
 31
0.0
  0
LINE
  5
3AA
330
3A4
100
AcDbEntity
  8
0
 62
     0
100
AcDbLine
 10
66.75047808566086
 20
24.22162729257314
 30
0.0
 11
63.95047808566079
 21
27.02162729257321
 31
0.0
  0
LINE
  5
3AB
330
3A4
100
AcDbEntity
  8
0
 62
     0
100
AcDbLine
 10
61.85047808566082
 20
28.22360168046634
 30
0.0
 11
60.71649348330453
 21
29.35758628282269
 31
0.0
  0
LINE
  5
3AC
330
3A4
100
AcDbEntity
  8
0
 62
     0
100
AcDbLine
 10
66.75047808566091
 20
23.32360168046631
 30
0.0
 11
63.95047808566085
 21
26.12360168046638
 31
0.0
  0
LINE
  5
3AD
330
3A4
100
AcDbEntity
  8
0
 62
     0
100
AcDbLine
 10
61.85047808566082
 20
27.32557606835945
 30
0.0
 11
59.81846787119758
 21
29.35758628282263
 31
0.0
  0
LINE
  5
3AE
330
3A4
100
AcDbEntity
  8
0
 62
     0
100
AcDbLine
 10
66.75047808566086
 20
22.42557606835936
 30
0.0
 11
63.95047808566085
 21
25.22557606835943
 31
0.0
  0
LINE
  5
3AF
330
3A4
100
AcDbEntity
  8
0
 62
     0
100
AcDbLine
 10
61.85047808566082
 20
26.4275504562525
 30
0.0
 11
59.14496712052375
 21
29.13306142138958
 31
0.0
  0
LINE
  5
3B0
330
3A4
100
AcDbEntity
  8
0
 62
     0
100
AcDbLine
 10
66.75047808566086
 20
21.52755045625247
 30
0.0
 11
63.95047808566079
 21
24.32755045625248
 31
0.0
  0
LINE
  5
3B1
330
3A4
100
AcDbEntity
  8
0
 62
     0
100
AcDbLine
 10
61.85047808566094
 20
25.5295248441455
 30
0.0
 11
59.05047808566076
 21
28.32952484414562
 31
0.0
  0
LINE
  5
3B2
330
3A4
100
AcDbEntity
  8
0
 62
     0
100
AcDbLine
 10
66.75047808566091
 20
20.62952484414552
 30
0.0
 11
63.95047808566085
 21
23.42952484414559
 31
0.0
  0
LINE
  5
3B3
330
3A4
100
AcDbEntity
  8
0
 62
     0
100
AcDbLine
 10
61.85047808566088
 20
24.6314992320386
 30
0.0
 11
59.05047808566076
 21
27.43149923203878
 31
0.0
  0
LINE
  5
3B4
330
3A4
100
AcDbEntity
  8
0
 62
     0
100
AcDbLine
 10
66.75047808566086
 20
19.73149923203862
 30
0.0
 11
63.95047808566079
 21
22.53149923203869
 31
0.0
  0
LINE
  5
3B5
330
3A4
100
AcDbEntity
  8
0
 62
     0
100
AcDbLine
 10
61.85047808566088
 20
23.73347361993171
 30
0.0
 11
59.05047808566076
 21
26.53347361993183
 31
0.0
  0
LINE
  5
3B6
330
3A4
100
AcDbEntity
  8
0
 62
     0
100
AcDbLine
 10
66.75047808566086
 20
18.83347361993173
 30
0.0
 11
63.95047808566079
 21
21.6334736199318
 31
0.0
  0
LINE
  5
3B7
330
3A4
100
AcDbEntity
  8
0
 62
     0
100
AcDbLine
 10
61.85047808566082
 20
22.83544800782476
 30
0.0
 11
59.0504780856607
 21
25.63544800782489
 31
0.0
  0
LINE
  5
3B8
330
3A4
100
AcDbEntity
  8
0
 62
     0
100
AcDbLine
 10
66.7504780856608
 20
17.93544800782479
 30
0.0
 11
63.95047808566079
 21
20.73544800782485
 31
0.0
  0
LINE
  5
3B9
330
3A4
100
AcDbEntity
  8
0
 62
     0
100
AcDbLine
 10
61.85047808566088
 20
21.93742239571793
 30
0.0
 11
59.05047808566076
 21
24.73742239571805
 31
0.0
  0
LINE
  5
3BA
330
3A4
100
AcDbEntity
  8
0
 62
     0
100
AcDbLine
 10
55.55047808566081
 20
28.23742239571799
 30
0.0
 11
54.43031419855618
 21
29.35758628282263
 31
0.0
  0
LINE
  5
3BB
330
3A4
100
AcDbEntity
  8
0
 62
     0
100
AcDbLine
 10
66.75047808566086
 20
17.03742239571795
 30
0.0
 11
63.95047808566079
 21
19.83742239571796
 31
0.0
  0
LINE
  5
3BC
330
3A4
100
AcDbEntity
  8
0
 62
     0
100
AcDbLine
 10
61.85047808566088
 20
21.03939678361098
 30
0.0
 11
59.0504780856607
 21
23.8393967836111
 31
0.0
  0
LINE
  5
3BD
330
3A4
100
AcDbEntity
  8
0
 62
     0
100
AcDbLine
 10
55.55047808566076
 20
27.33939678361105
 30
0.0
 11
53.53228858644922
 21
29.35758628282263
 31
0.0
  0
LINE
  5
3BE
330
3A4
100
AcDbEntity
  8
0
 62
     0
100
AcDbLine
 10
66.75047808566086
 20
16.139396783611
 30
0.0
 11
63.95047808566079
 21
18.93939678361107
 31
0.0
  0
LINE
  5
3BF
330
3A4
100
AcDbEntity
  8
0
 62
     0
100
AcDbLine
 10
61.85047808566082
 20
20.14137117150409
 30
0.0
 11
59.05047808566076
 21
22.9413711715041
 31
0.0
  0
LINE
  5
3C0
330
3A4
100
AcDbEntity
  8
0
 62
     0
100
AcDbLine
 10
55.55047808566076
 20
26.44137117150416
 30
0.0
 11
52.85071536233676
 21
29.14113389482816
 31
0.0
  0
LINE
  5
3C1
330
3A4
100
AcDbEntity
  8
0
 62
     0
100
AcDbLine
 10
66.7504780856608
 20
15.24137117150411
 30
0.0
 11
63.95047808566073
 21
18.04137117150412
 31
0.0
  0
LINE
  5
3C2
330
3A4
100
AcDbEntity
  8
0
 62
     0
100
AcDbLine
 10
61.85047808566088
 20
19.24334555939714
 30
0.0
 11
59.05047808566081
 21
22.04334555939721
 31
0.0
  0
LINE
  5
3C3
330
3A4
100
AcDbEntity
  8
0
 62
     0
100
AcDbLine
 10
55.55047808566081
 20
25.54334555939721
 30
0.0
 11
52.7504780856608
 21
28.34334555939722
 31
0.0
  0
LINE
  5
3C4
330
3A4
100
AcDbEntity
  8
0
 62
     0
100
AcDbLine
 10
66.75047808566086
 20
14.34334555939716
 30
0.0
 11
63.95047808566079
 21
17.14334555939723
 31
0.0
  0
LINE
  5
3C5
330
3A4
100
AcDbEntity
  8
0
 62
     0
100
AcDbLine
 10
61.85047808566082
 20
18.34531994729024
 30
0.0
 11
59.05047808566081
 21
21.14531994729031
 31
0.0
  0
LINE
  5
3C6
330
3A4
100
AcDbEntity
  8
0
 62
     0
100
AcDbLine
 10
55.55047808566087
 20
24.64531994729026
 30
0.0
 11
52.7504780856608
 21
27.44531994729033
 31
0.0
  0
LINE
  5
3C7
330
3A4
100
AcDbEntity
  8
0
 62
     0
100
AcDbLine
 10
66.67851273077104
 20
13.51728530218008
 30
0.0
 11
63.95047808566079
 21
16.24531994729034
 31
0.0
  0
LINE
  5
3C8
330
3A4
100
AcDbEntity
  8
0
 62
     0
100
AcDbLine
 10
61.85047808566088
 20
17.44729433518324
 30
0.0
 11
59.05047808566076
 21
20.24729433518337
 31
0.0
  0
LINE
  5
3C9
330
3A4
100
AcDbEntity
  8
0
 62
     0
100
AcDbLine
 10
55.55047808566081
 20
23.74729433518337
 30
0.0
 11
52.75047808566075
 21
26.54729433518338
 31
0.0
  0
LINE
  5
3CA
330
3A4
100
AcDbEntity
  8
0
 62
     0
100
AcDbLine
 10
66.04018613802157
 20
13.25758628282261
 30
0.0
 11
63.95047808566073
 21
15.34729433518345
 31
0.0
  0
LINE
  5
3CB
330
3A4
100
AcDbEntity
  8
0
 62
     0
100
AcDbLine
 10
55.55047808566081
 20
22.84926872307642
 30
0.0
 11
52.75047808566075
 21
25.64926872307649
 31
0.0
  0
LINE
  5
3CC
330
3A4
100
AcDbEntity
  8
0
 62
     0
100
AcDbLine
 10
61.85047808566088
 20
16.54926872307635
 30
0.0
 11
59.05047808566076
 21
19.34926872307647
 31
0.0
  0
LINE
  5
3CD
330
3A4
100
AcDbEntity
  8
0
 62
     0
100
AcDbLine
 10
50.1254780856608
 20
28.27426872307643
 30
0.0
 11
49.04216052591465
 21
29.35758628282252
 31
0.0
  0
LINE
  5
3CE
330
3A4
100
AcDbEntity
  8
0
 62
     0
100
AcDbLine
 10
65.14216052591468
 20
13.2575862828225
 30
0.0
 11
63.95047808566073
 21
14.4492687230765
 31
0.0
  0
LINE
  5
3CF
330
3A4
100
AcDbEntity
  8
0
 62
     0
100
AcDbLine
 10
55.55047808566081
 20
21.95124311096952
 30
0.0
 11
52.75047808566085
 21
24.75124311096954
 31
0.0
  0
LINE
  5
3D0
330
3A4
100
AcDbEntity
  8
0
 62
     0
100
AcDbLine
 10
50.1254780856608
 20
27.37624311096954
 30
0.0
 11
48.14413491380782
 21
29.35758628282258
 31
0.0
  0
LINE
  5
3D1
330
3A4
100
AcDbEntity
  8
0
 62
     0
100
AcDbLine
 10
61.82451978501529
 20
15.6772014116151
 30
0.0
 11
59.05047808566076
 21
18.45124311096958
 31
0.0
  0
LINE
  5
3D2
330
3A4
100
AcDbEntity
  8
0
 62
     0
100
AcDbLine
 10
55.55047808566081
 20
21.05321749886263
 30
0.0
 11
52.75047808566085
 21
23.85321749886259
 31
0.0
  0
LINE
  5
3D3
330
3A4
100
AcDbEntity
  8
0
 62
     0
100
AcDbLine
 10
49.92989753954697
 20
26.67379804497647
 30
0.0
 11
47.24610930170081
 21
29.35758628282263
 31
0.0
  0
LINE
  5
3D4
330
3A4
100
AcDbEntity
  8
0
 62
     0
100
AcDbLine
 10
61.63153448975805
 20
14.97216109476534
 30
0.0
 11
59.05047808566076
 21
17.55321749886269
 31
0.0
  0
LINE
  5
3D5
330
3A4
100
AcDbEntity
  8
0
 62
     0
100
AcDbLine
 10
55.55047808566081
 20
20.15519188675568
 30
0.0
 11
52.7504780856608
 21
22.95519188675569
 31
0.0
  0
LINE
  5
3D6
330
3A4
100
AcDbEntity
  8
0
 62
     0
100
AcDbLine
 10
49.14808368959382
 20
26.55758628282262
 30
0.0
 11
46.34808368959392
 21
29.35758628282252
 31
0.0
  0
LINE
  5
3D7
330
3A4
100
AcDbEntity
  8
0
 62
     0
100
AcDbLine
 10
61.30650261383448
 20
14.39916735858196
 30
0.0
 11
58.97896234650125
 21
16.72670762591525
 31
0.0
  0
LINE
  5
3D8
330
3A4
100
AcDbEntity
  8
0
 62
     0
100
AcDbLine
 10
55.55047808566081
 20
19.25716627464885
 30
0.0
 11
52.75047808566085
 21
22.0571662746488
 31
0.0
  0
LINE
  5
3D9
330
3A4
100
AcDbEntity
  8
0
 62
     0
100
AcDbLine
 10
48.25005807748704
 20
26.55758628282256
 30
0.0
 11
45.5124913483096
 21
29.29515301200007
 31
0.0
  0
LINE
  5
3DA
330
3A4
100
AcDbEntity
  8
0
 62
     0
100
AcDbLine
 10
60.87446081650944
 20
13.93318354380016
 30
0.0
 11
58.57737670803373
 21
16.23026765227587
 31
0.0
  0
LINE
  5
3DB
330
3A4
100
AcDbEntity
  8
0
 62
     0
100
AcDbLine
 10
55.55047808566081
 20
18.3591406625419
 30
0.0
 11
52.7504780856608
 21
21.15914066254185
 31
0.0
  0
LINE
  5
3DC
330
3A4
100
AcDbEntity
  8
0
 62
     0
100
AcDbLine
 10
47.35203246538015
 20
26.55758628282256
 30
0.0
 11
44.8478509237762
 21
29.06176782442645
 31
0.0
  0
LINE
  5
3DD
330
3A4
100
AcDbEntity
  8
0
 62
     0
100
AcDbLine
 10
60.33829847158341
 20
13.5713202766193
 30
0.0
 11
57.85203246538014
 21
16.05758628282257
 31
0.0
  0
LINE
  5
3DE
330
3A4
100
AcDbEntity
  8
0
 62
     0
100
AcDbLine
 10
55.55047808566076
 20
17.46111505043495
 30
0.0
 11
52.7504780856608
 21
20.26111505043496
 31
0.0
  0
LINE
  5
3DF
330
3A4
100
AcDbEntity
  8
0
 62
     0
100
AcDbLine
 10
46.47579668129123
 20
26.53579645480448
 30
0.0
 11
44.30524998656602
 21
28.70634314952969
 31
0.0
  0
LINE
  5
3E0
330
3A4
100
AcDbEntity
  8
0
 62
     0
100
AcDbLine
 10
59.68188591167211
 20
13.32970722442365
 30
0.0
 11
56.95400685327314
 21
16.05758628282262
 31
0.0
  0
LINE
  5
3E1
330
3A4
100
AcDbEntity
  8
0
 62
     0
100
AcDbLine
 10
46.10047808566088
 20
26.01308943832788
 30
0.0
 11
43.86713792752146
 21
28.24642959646729
 31
0.0
  0
LINE
  5
3E2
330
3A4
100
AcDbEntity
  8
0
 62
     0
100
AcDbLine
 10
58.85598124116626
 20
13.25758628282255
 30
0.0
 11
52.7504780856608
 21
19.36308943832801
 31
0.0
  0
LINE
  5
3E3
330
3A4
100
AcDbEntity
  8
0
 62
     0
100
AcDbLine
 10
46.10047808566088
 20
25.1150638262211
 30
0.0
 11
43.53536701516844
 21
27.68017489671354
 31
0.0
  0
LINE
  5
3E4
330
3A4
100
AcDbEntity
  8
0
 62
     0
100
AcDbLine
 10
57.95795562905937
 20
13.25758628282255
 30
0.0
 11
52.7504780856608
 21
18.46506382622118
 31
0.0
  0
LINE
  5
3E5
330
3A4
100
AcDbEntity
  8
0
 62
     0
100
AcDbLine
 10
46.30702236676467
 20
24.01049393301036
 30
0.0
 11
43.33318849580433
 21
26.98432780397064
 31
0.0
  0
LINE
  5
3E6
330
3A4
100
AcDbEntity
  8
0
 62
     0
100
AcDbLine
 10
57.05993001695247
 20
13.25758628282255
 30
0.0
 11
52.7504780856608
 21
17.56703821411423
 31
0.0
  0
LINE
  5
3E7
330
3A4
100
AcDbEntity
  8
0
 62
     0
100
AcDbLine
 10
50.52408178835225
 20
18.89540889931583
 30
0.0
 11
43.30047808566075
 21
26.11901260200733
 31
0.0
  0
LINE
  5
3E8
330
3A4
100
AcDbEntity
  8
0
 62
     0
100
AcDbLine
 10
41.20047808566073
 20
28.21901260200729
 30
0.0
 11
40.06190440484544
 21
29.35758628282263
 31
0.0
  0
LINE
  5
3E9
330
3A4
100
AcDbEntity
  8
0
 62
     0
100
AcDbLine
 10
56.16190440484553
 20
13.25758628282255
 30
0.0
 11
52.75047808566075
 21
16.66901260200728
 31
0.0
  0
LINE
  5
3EA
330
3A4
100
AcDbEntity
  8
0
 62
     0
100
AcDbLine
 10
50.65047808566089
 20
17.87098698990035
 30
0.0
 11
43.30047808566081
 21
25.22098698990044
 31
0.0
  0
LINE
  5
3EB
330
3A4
100
AcDbEntity
  8
0
 62
     0
100
AcDbLine
 10
41.20047808566084
 20
27.32098698990034
 30
0.0
 11
39.16387879273855
 21
29.35758628282269
 31
0.0
  0
LINE
  5
3EC
330
3A4
100
AcDbEntity
  8
0
 62
     0
100
AcDbLine
 10
55.24743091399376
 20
13.2740341615675
 30
0.0
 11
52.76692596440574
 21
15.7545391111555
 31
0.0
  0
LINE
  5
3ED
330
3A4
100
AcDbEntity
  8
0
 62
     0
100
AcDbLine
 10
41.20047808566084
 20
26.42296137779345
 30
0.0
 11
38.49308819788552
 21
29.13035126556872
 31
0.0
  0
LINE
  5
3EE
330
3A4
100
AcDbEntity
  8
0
 62
     0
100
AcDbLine
 10
50.65047808566084
 20
16.97296137779341
 30
0.0
 11
43.3238887535432
 21
24.2995507099111
 31
0.0
  0
LINE
  5
3EF
330
3A4
100
AcDbEntity
  8
0
 62
     0
100
AcDbLine
 10
41.20047808566084
 20
25.5249357656865
 30
0.0
 11
38.40047808566078
 21
28.32493576568657
 31
0.0
  0
LINE
  5
3F0
330
3A4
100
AcDbEntity
  8
0
 62
     0
100
AcDbLine
 10
50.65047808566072
 20
16.07493576568657
 30
0.0
 11
43.64200817138322
 21
23.08340567996413
 31
0.0
  0
LINE
  5
3F1
330
3A4
100
AcDbEntity
  8
0
 62
     0
100
AcDbLine
 10
41.20047808566084
 20
24.62691015357961
 30
0.0
 11
38.40047808566078
 21
27.42691015357962
 31
0.0
  0
LINE
  5
3F2
330
3A4
100
AcDbEntity
  8
0
 62
     0
100
AcDbLine
 10
50.54191626807176
 20
15.2854719711687
 30
0.0
 11
47.84628147903345
 21
17.98110676020701
 31
0.0
  0
LINE
  5
3F3
330
3A4
100
AcDbEntity
  8
0
 62
     0
100
AcDbLine
 10
41.20047808566084
 20
23.72888454147272
 30
0.0
 11
38.40047808566078
 21
26.52888454147279
 31
0.0
  0
LINE
  5
3F4
330
3A4
100
AcDbEntity
  8
0
 62
     0
100
AcDbLine
 10
36.10899118508382
 20
28.82037144204969
 30
0.0
 11
35.57177634431093
 21
29.35758628282263
 31
0.0
  0
LINE
  5
3F5
330
3A4
100
AcDbEntity
  8
0
 62
     0
100
AcDbLine
 10
50.2740405603102
 20
14.65532206682337
 30
0.0
 11
47.85047808566088
 21
17.07888454147268
 31
0.0
  0
LINE
  5
3F6
330
3A4
100
AcDbEntity
  8
0
 62
     0
100
AcDbLine
 10
41.20047808566079
 20
22.83085892936577
 30
0.0
 11
38.40047808566078
 21
25.63085892936584
 31
0.0
  0
LINE
  5
3F7
330
3A4
100
AcDbEntity
  8
0
 62
     0
100
AcDbLine
 10
35.91006352083121
 20
28.12127349419535
 30
0.0
 11
34.67375073220398
 21
29.35758628282263
 31
0.0
  0
LINE
  5
3F8
330
3A4
100
AcDbEntity
  8
0
 62
     0
100
AcDbLine
 10
49.8910537621349
 20
14.14028325289172
 30
0.0
 11
47.75319290277439
 21
16.27814411225222
 31
0.0
  0
LINE
  5
3F9
330
3A4
100
AcDbEntity
  8
0
 62
     0
100
AcDbLine
 10
41.20047808566079
 20
21.93283331725888
 30
0.0
 11
38.40047808566072
 21
24.73283331725889
 31
0.0
  0
LINE
  5
3FA
330
3A4
100
AcDbEntity
  8
0
 62
     0
100
AcDbLine
 10
35.69453737392553
 20
27.43877402899409
 30
0.0
 11
33.78532181045494
 21
29.34798959246473
 31
0.0
  0
LINE
  5
3FB
330
3A4
100
AcDbEntity
  8
0
 62
     0
100
AcDbLine
 10
49.40473479701927
 20
13.72857660590034
 30
0.0
 11
47.07572512009704
 21
16.05758628282262
 31
0.0
  0
LINE
  5
3FC
330
3A4
100
AcDbEntity
  8
0
 62
     0
100
AcDbLine
 10
41.20047808566084
 20
21.03480770515198
 30
0.0
 11
38.40047808566078
 21
23.83480770515205
 31
0.0
  0
LINE
  5
3FD
330
3A4
100
AcDbEntity
  8
0
 62
     0
100
AcDbLine
 10
35.47901122702
 20
26.75627456379283
 30
0.0
 11
33.35101122701996
 21
28.88427456379287
 31
0.0
  0
LINE
  5
3FE
330
3A4
100
AcDbEntity
  8
0
 62
     0
100
AcDbLine
 10
48.8086508485589
 20
13.42663494225388
 30
0.0
 11
46.17769950799015
 21
16.05758628282268
 31
0.0
  0
LINE
  5
3FF
330
3A4
100
AcDbEntity
  8
0
 62
     0
100
AcDbLine
 10
41.20047808566079
 20
20.13678209304509
 30
0.0
 11
38.40047808566072
 21
22.9367820930451
 31
0.0
  0
LINE
  5
400
330
3A4
100
AcDbEntity
  8
0
 62
     0
100
AcDbLine
 10
35.26348508011415
 20
26.07377509859174
 30
0.0
 11
33.13548508011416
 21
28.20177509859172
 31
0.0
  0
LINE
  5
401
330
3A4
100
AcDbEntity
  8
0
 62
     0
100
AcDbLine
 10
48.07097819691143
 20
13.26628198179446
 30
0.0
 11
45.27967389588326
 21
16.05758628282262
 31
0.0
  0
LINE
  5
402
330
3A4
100
AcDbEntity
  8
0
 62
     0
100
AcDbLine
 10
41.20047808566079
 20
19.23875648093815
 30
0.0
 11
38.40047808566078
 21
22.0387564809381
 31
0.0
  0
LINE
  5
403
330
3A4
100
AcDbEntity
  8
0
 62
     0
100
AcDbLine
 10
35.04795893320857
 20
25.39127563339036
 30
0.0
 11
32.91995893320847
 21
27.5192756333904
 31
0.0
  0
LINE
  5
404
330
3A4
100
AcDbEntity
  8
0
 62
     0
100
AcDbLine
 10
47.18164828377638
 20
13.25758628282255
 30
0.0
 11
44.38164828377631
 21
16.05758628282262
 31
0.0
  0
LINE
  5
405
330
3A4
100
AcDbEntity
  8
0
 62
     0
100
AcDbLine
 10
41.20047808566079
 20
18.34073086883125
 30
0.0
 11
38.40047808566083
 21
21.14073086883127
 31
0.0
  0
LINE
  5
406
330
3A4
100
AcDbEntity
  8
0
 62
     0
100
AcDbLine
 10
34.83243278630294
 20
24.70877616818916
 30
0.0
 11
32.70443278630284
 21
26.8367761681892
 31
0.0
  0
LINE
  5
407
330
3A4
100
AcDbEntity
  8
0
 62
     0
100
AcDbLine
 10
46.28362267166949
 20
13.25758628282261
 30
0.0
 11
43.8500109743731
 21
15.691197980119
 31
0.0
  0
LINE
  5
408
330
3A4
100
AcDbEntity
  8
0
 62
     0
100
AcDbLine
 10
34.61690663939731
 20
24.02627670298778
 30
0.0
 11
32.48890663939721
 21
26.15427670298794
 31
0.0
  0
LINE
  5
409
330
3A4
100
AcDbEntity
  8
0
 62
     0
100
AcDbLine
 10
41.20047808566079
 20
17.44270525672436
 30
0.0
 11
38.40047808566083
 21
20.24270525672432
 31
0.0
  0
LINE
  5
40A
330
3A4
100
AcDbEntity
  8
0
 62
     0
100
AcDbLine
 10
30.35047808566082
 20
28.29270525672433
 30
0.0
 11
29.28559705956251
 21
29.35758628282258
 31
0.0
  0
LINE
  5
40B
330
3A4
100
AcDbEntity
  8
0
 62
     0
100
AcDbLine
 10
45.38559705956259
 20
13.25758628282255
 30
0.0
 11
43.82547808566084
 21
14.8177052567243
 31
0.0
  0
LINE
  5
40C
330
3A4
100
AcDbEntity
  8
0
 62
     0
100
AcDbLine
 10
34.40138049249151
 20
23.34377723778669
 30
0.0
 11
32.27338049249158
 21
25.47177723778662
 31
0.0
  0
LINE
  5
40D
330
3A4
100
AcDbEntity
  8
0
 62
     0
100
AcDbLine
 10
41.20047808566079
 20
16.54467964461741
 30
0.0
 11
38.40047808566078
 21
19.34467964461743
 31
0.0
  0
LINE
  5
40E
330
3A4
100
AcDbEntity
  8
0
 62
     0
100
AcDbLine
 10
30.35047808566082
 20
27.39467964461738
 30
0.0
 11
28.38757144745562
 21
29.35758628282258
 31
0.0
  0
LINE
  5
40F
330
3A4
100
AcDbEntity
  8
0
 62
     0
100
AcDbLine
 10
44.48757144745559
 20
13.25758628282261
 30
0.0
 11
43.82547808566079
 21
13.91967964461736
 31
0.0
  0
LINE
  5
410
330
3A4
100
AcDbEntity
  8
0
 62
     0
100
AcDbLine
 10
34.18585434558588
 20
22.66127777258537
 30
0.0
 11
32.05785434558583
 21
24.78927777258542
 31
0.0
  0
LINE
  5
411
330
3A4
100
AcDbEntity
  8
0
 62
     0
100
AcDbLine
 10
30.35047808566076
 20
26.49665403251043
 30
0.0
 11
27.67503315676316
 21
29.17209896140809
 31
0.0
  0
LINE
  5
412
330
3A4
100
AcDbEntity
  8
0
 62
     0
100
AcDbLine
 10
41.20047808566073
 20
15.64665403251052
 30
0.0
 11
38.40047808566078
 21
18.44665403251048
 31
0.0
  0
LINE
  5
413
330
3A4
100
AcDbEntity
  8
0
 62
     0
100
AcDbLine
 10
33.97032819868025
 20
21.97877830738417
 30
0.0
 11
31.84232819868026
 21
24.10677830738416
 31
0.0
  0
LINE
  5
414
330
3A4
100
AcDbEntity
  8
0
 62
     0
100
AcDbLine
 10
30.35047808566082
 20
25.59862842040359
 30
0.0
 11
27.55047808566075
 21
28.39862842040361
 31
0.0
  0
LINE
  5
415
330
3A4
100
AcDbEntity
  8
0
 62
     0
100
AcDbLine
 10
41.20047808566079
 20
14.74862842040363
 30
0.0
 11
38.40047808566078
 21
17.54862842040358
 31
0.0
  0
LINE
  5
416
330
3A4
100
AcDbEntity
  8
0
 62
     0
100
AcDbLine
 10
33.76523968928819
 20
21.28584120466928
 30
0.0
 11
31.62680205177451
 21
23.42427884218295
 31
0.0
  0
LINE
  5
417
330
3A4
100
AcDbEntity
  8
0
 62
     0
100
AcDbLine
 10
30.35047808566082
 20
24.70060280829665
 30
0.0
 11
27.55047808566075
 21
27.50060280829671
 31
0.0
  0
LINE
  5
418
330
3A4
100
AcDbEntity
  8
0
 62
     0
100
AcDbLine
 10
41.20047808566073
 20
13.85060280829668
 30
0.0
 11
38.40047808566078
 21
16.65060280829669
 31
0.0
  0
LINE
  5
419
330
3A4
100
AcDbEntity
  8
0
 62
     0
100
AcDbLine
 10
34.17971304872219
 20
19.97334223312833
 30
0.0
 11
31.33625455608989
 21
22.81680072576063
 31
0.0
  0
LINE
  5
41A
330
3A4
100
AcDbEntity
  8
0
 62
     0
100
AcDbLine
 10
30.35047808566088
 20
23.80257719618964
 30
0.0
 11
27.5504780856607
 21
26.60257719618977
 31
0.0
  0
LINE
  5
41B
330
3A4
100
AcDbEntity
  8
0
 62
     0
100
AcDbLine
 10
40.8614330883284
 20
13.29162219352207
 30
0.0
 11
38.40047808566078
 21
15.75257719618974
 31
0.0
  0
LINE
  5
41C
330
3A4
100
AcDbEntity
  8
0
 62
     0
100
AcDbLine
 10
34.59418640815619
 20
18.6608432615875
 30
0.0
 11
27.55047808566075
 21
25.70455158408293
 31
0.0
  0
LINE
  5
41D
330
3A4
100
AcDbEntity
  8
0
 62
     0
100
AcDbLine
 10
25.10047808566088
 20
28.15455158408281
 30
0.0
 11
23.89744338692111
 21
29.35758628282258
 31
0.0
  0
LINE
  5
41E
330
3A4
100
AcDbEntity
  8
0
 62
     0
100
AcDbLine
 10
39.99744338692113
 20
13.25758628282255
 30
0.0
 11
38.40047808566089
 21
14.8545515840828
 31
0.0
  0
LINE
  5
41F
330
3A4
100
AcDbEntity
  8
0
 62
     0
100
AcDbLine
 10
35.00865976759024
 20
17.34834429004649
 30
0.0
 11
27.55047808566075
 21
24.80652597197599
 31
0.0
  0
LINE
  5
420
330
3A4
100
AcDbEntity
  8
0
 62
     0
100
AcDbLine
 10
25.10047808566088
 20
27.25652597197586
 30
0.0
 11
22.9994177748141
 21
29.35758628282263
 31
0.0
  0
LINE
  5
421
330
3A4
100
AcDbEntity
  8
0
 62
     0
100
AcDbLine
 10
39.09941777481418
 20
13.2575862828225
 30
0.0
 11
38.40047808566083
 21
13.9565259719759
 31
0.0
  0
LINE
  5
422
330
3A4
100
AcDbEntity
  8
0
 62
     0
100
AcDbLine
 10
24.83357139027077
 20
26.62540705525902
 30
0.0
 11
22.13334967205935
 21
29.32562877347038
 31
0.0
  0
LINE
  5
423
330
3A4
100
AcDbEntity
  8
0
 62
     0
100
AcDbLine
 10
35.42313312702418
 20
16.0358453185056
 30
0.0
 11
27.55047808566081
 21
23.90850035986898
 31
0.0
  0
LINE
  5
424
330
3A4
100
AcDbEntity
  8
0
 62
     0
100
AcDbLine
 10
30.68798700800243
 20
19.87296582542046
 30
0.0
 11
27.55047808566081
 21
23.01047474776209
 31
0.0
  0
LINE
  5
425
330
3A4
100
AcDbEntity
  8
0
 62
     0
100
AcDbLine
 10
24.00336655060033
 20
26.55758628282251
 30
0.0
 11
21.39530660247209
 21
29.16564623095081
 31
0.0
  0
LINE
  5
426
330
3A4
100
AcDbEntity
  8
0
 62
     0
100
AcDbLine
 10
35.83760648645824
 20
14.72334634696466
 30
0.0
 11
31.74529879415013
 21
18.81565403927277
 31
0.0
  0
LINE
  5
427
330
3A4
100
AcDbEntity
  8
0
 62
     0
100
AcDbLine
 10
30.35047808566088
 20
19.31244913565512
 30
0.0
 11
27.55047808566081
 21
22.11244913565519
 31
0.0
  0
LINE
  5
428
330
3A4
100
AcDbEntity
  8
0
 62
     0
100
AcDbLine
 10
23.10534093849332
 20
26.55758628282262
 30
0.0
 11
20.75658518664135
 21
28.90634203467459
 31
0.0
  0
LINE
  5
429
330
3A4
100
AcDbEntity
  8
0
 62
     0
100
AcDbLine
 10
36.07264534416884
 20
13.5902818771471
 30
0.0
 11
32.15977215358407
 21
17.50315506773193
 31
0.0
  0
LINE
  5
42A
330
3A4
100
AcDbEntity
  8
0
 62
     0
100
AcDbLine
 10
30.35047808566082
 20
18.41442352354823
 30
0.0
 11
27.55047808566075
 21
21.21442352354824
 31
0.0
  0
LINE
  5
42B
330
3A4
100
AcDbEntity
  8
0
 62
     0
100
AcDbLine
 10
22.26222743594979
 20
26.50267417325926
 30
0.0
 11
20.19783621130682
 21
28.56706539790224
 31
0.0
  0
LINE
  5
42C
330
3A4
100
AcDbEntity
  8
0
 62
     0
100
AcDbLine
 10
35.5073153263865
 20
13.25758628282255
 30
0.0
 11
32.57424551301812
 21
16.19065609619087
 31
0.0
  0
LINE
  5
42D
330
3A4
100
AcDbEntity
  8
0
 62
     0
100
AcDbLine
 10
30.35047808566082
 20
17.51639791144128
 30
0.0
 11
27.55047808566075
 21
20.31639791144135
 31
0.0
  0
LINE
  5
42E
330
3A4
100
AcDbEntity
  8
0
 62
     0
100
AcDbLine
 10
21.6903712431108
 20
26.1765047539913
 30
0.0
 11
19.71018100269503
 21
28.15669499440707
 31
0.0
  0
LINE
  5
42F
330
3A4
100
AcDbEntity
  8
0
 62
     0
100
AcDbLine
 10
34.60928971427955
 20
13.25758628282255
 30
0.0
 11
32.98871887245207
 21
14.87815712465004
 31
0.0
  0
LINE
  5
430
330
3A4
100
AcDbEntity
  8
0
 62
     0
100
AcDbLine
 10
25.43590721845856
 20
21.53294316653671
 30
0.0
 11
23.92583496937481
 21
23.04301541562046
 31
0.0
  0
LINE
  5
431
330
3A4
100
AcDbEntity
  8
0
 62
     0
100
AcDbLine
 10
30.35047808566094
 20
16.61837229933434
 30
0.0
 11
27.55047808566081
 21
19.41837229933446
 31
0.0
  0
LINE
  5
432
330
3A4
100
AcDbEntity
  8
0
 62
     0
100
AcDbLine
 10
21.33424967298185
 20
25.63460071201342
 30
0.0
 11
19.2908149766838
 21
27.67803540831147
 31
0.0
  0
LINE
  5
433
330
3A4
100
AcDbEntity
  8
0
 62
     0
100
AcDbLine
 10
33.66093109796804
 20
13.30791928702723
 30
0.0
 11
33.41057692637673
 21
13.55827345861854
 31
0.0
  0
LINE
  5
434
330
3A4
100
AcDbEntity
  8
0
 62
     0
100
AcDbLine
 10
25.34939355831665
 20
20.72143121457167
 30
0.0
 11
23.11432301740978
 21
22.95650175547854
 31
0.0
  0
LINE
  5
435
330
3A4
100
AcDbEntity
  8
0
 62
     0
100
AcDbLine
 10
21.25047808566091
 20
24.82034668722741
 30
0.0
 11
18.94187595572214
 21
27.12894881716619
 31
0.0
  0
LINE
  5
436
330
3A4
100
AcDbEntity
  8
0
 62
     0
100
AcDbLine
 10
30.35047808566088
 20
15.72034668722739
 30
0.0
 11
27.55047808566075
 21
18.52034668722757
 31
0.0
  0
LINE
  5
437
330
3A4
100
AcDbEntity
  8
0
 62
     0
100
AcDbLine
 10
25.0175379990186
 20
20.15526116176272
 30
0.0
 11
22.54815296460083
 21
22.62464619618049
 31
0.0
  0
LINE
  5
438
330
3A4
100
AcDbEntity
  8
0
 62
     0
100
AcDbLine
 10
21.25047808566091
 20
23.92232107512046
 30
0.0
 11
18.67129624851196
 21
26.50150291226941
 31
0.0
  0
LINE
  5
439
330
3A4
100
AcDbEntity
  8
0
 62
     0
100
AcDbLine
 10
30.35047808566088
 20
14.82232107512049
 30
0.0
 11
27.55047808566081
 21
17.62232107512056
 31
0.0
  0
LINE
  5
43A
330
3A4
100
AcDbEntity
  8
0
 62
     0
100
AcDbLine
 10
21.25047808566091
 20
23.02429546301357
 30
0.0
 11
18.49658237558611
 21
25.77819117308843
 31
0.0
  0
LINE
  5
43B
330
3A4
100
AcDbEntity
  8
0
 62
     0
100
AcDbLine
 10
24.51570455688215
 20
19.75906899179238
 30
0.0
 11
22.15196079463049
 21
22.12281275404405
 31
0.0
  0
LINE
  5
43C
330
3A4
100
AcDbEntity
  8
0
 62
     0
100
AcDbLine
 10
15.82547808566073
 20
28.44929546301375
 30
0.0
 11
14.91718726585185
 21
29.35758628282269
 31
0.0
  0
LINE
  5
43D
330
3A4
100
AcDbEntity
  8
0
 62
     0
100
AcDbLine
 10
30.35047808566094
 20
13.9242954630136
 30
0.0
 11
27.55047808566087
 21
16.72429546301367
 31
0.0
  0
LINE
  5
43E
330
3A4
100
AcDbEntity
  8
0
 62
     0
100
AcDbLine
 10
21.25047808566091
 20
22.12626985090668
 30
0.0
 11
18.45047808566084
 21
24.92626985090675
 31
0.0
  0
LINE
  5
43F
330
3A4
100
AcDbEntity
  8
0
 62
     0
100
AcDbLine
 10
23.81538511445473
 20
19.56136282211287
 30
0.0
 11
21.95425462495097
 21
21.42249331161662
 31
0.0
  0
LINE
  5
440
330
3A4
100
AcDbEntity
  8
0
 62
     0
100
AcDbLine
 10
15.82547808566073
 20
27.55126985090686
 30
0.0
 11
14.0191616537449
 21
29.35758628282263
 31
0.0
  0
LINE
  5
441
330
3A4
100
AcDbEntity
  8
0
 62
     0
100
AcDbLine
 10
30.06257428439022
 20
13.31417365217737
 30
0.0
 11
27.55047808566081
 21
15.82626985090672
 31
0.0
  0
LINE
  5
442
330
3A4
100
AcDbEntity
  8
0
 62
     0
100
AcDbLine
 10
21.25047808566091
 20
21.22824423879973
 30
0.0
 11
18.45047808566084
 21
24.0282442387998
 31
0.0
  0
LINE
  5
443
330
3A4
100
AcDbEntity
  8
0
 62
     0
100
AcDbLine
 10
15.71644411539045
 20
26.76227820907019
 30
0.0
 11
13.12113604163789
 21
29.35758628282269
 31
0.0
  0
LINE
  5
444
330
3A4
100
AcDbEntity
  8
0
 62
     0
100
AcDbLine
 10
29.22113604163809
 20
13.2575862828225
 30
0.0
 11
27.55047808566081
 21
14.92824423879983
 31
0.0
  0
LINE
  5
445
330
3A4
100
AcDbEntity
  8
0
 62
     0
100
AcDbLine
 10
21.25047808566085
 20
20.33021862669284
 30
0.0
 11
18.45047808566079
 21
23.13021862669285
 31
0.0
  0
LINE
  5
446
330
3A4
100
AcDbEntity
  8
0
 62
     0
100
AcDbLine
 10
15.02311042953112
 20
26.55758628282256
 30
0.0
 11
12.223110429531
 21
29.35758628282269
 31
0.0
  0
LINE
  5
447
330
3A4
100
AcDbEntity
  8
0
 62
     0
100
AcDbLine
 10
28.32311042953108
 20
13.25758628282255
 30
0.0
 11
27.55047808566081
 21
14.03021862669288
 31
0.0
  0
LINE
  5
448
330
3A4
100
AcDbEntity
  8
0
 62
     0
100
AcDbLine
 10
21.25047808566091
 20
19.43219301458595
 30
0.0
 11
18.45047808566084
 21
22.23219301458601
 31
0.0
  0
LINE
  5
449
330
3A4
100
AcDbEntity
  8
0
 62
     0
100
AcDbLine
 10
14.12508481742423
 20
26.55758628282256
 30
0.0
 11
11.35995554531933
 21
29.32271555492752
 31
0.0
  0
LINE
  5
44A
330
3A4
100
AcDbEntity
  8
0
 62
     0
100
AcDbLine
 10
25.09787563682391
 20
15.58479546342289
 30
0.0
 11
24.6276872662612
 21
16.05498383398566
 31
0.0
  0
LINE
  5
44B
330
3A4
100
AcDbEntity
  8
0
 62
     0
100
AcDbLine
 10
21.25047808566085
 20
18.53416740247899
 30
0.0
 11
18.45047808566084
 21
21.33416740247906
 31
0.0
  0
LINE
  5
44C
330
3A4
100
AcDbEntity
  8
0
 62
     0
100
AcDbLine
 10
13.22705920531734
 20
26.55758628282256
 30
0.0
 11
10.66682073684086
 21
29.11782475129905
 31
0.0
  0
LINE
  5
44D
330
3A4
100
AcDbEntity
  8
0
 62
     0
100
AcDbLine
 10
25.10047808566082
 20
14.68416740247903
 30
0.0
 11
23.72705920531728
 21
16.05758628282262
 31
0.0
  0
LINE
  5
44E
330
3A4
100
AcDbEntity
  8
0
 62
     0
100
AcDbLine
 10
21.25047808566085
 20
17.6361417903721
 30
0.0
 11
18.4504780856609
 21
20.43614179037206
 31
0.0
  0
LINE
  5
44F
330
3A4
100
AcDbEntity
  8
0
 62
     0
100
AcDbLine
 10
12.32903359321039
 20
26.55758628282251
 30
0.0
 11
10.10257407699362
 21
28.78404579903929
 31
0.0
  0
LINE
  5
450
330
3A4
100
AcDbEntity
  8
0
 62
     0
100
AcDbLine
 10
25.10047808566082
 20
13.78614179037214
 30
0.0
 11
22.82903359321039
 21
16.05758628282251
 31
0.0
  0
LINE
  5
451
330
3A4
100
AcDbEntity
  8
0
 62
     0
100
AcDbLine
 10
11.8187407655958
 20
26.16985349833032
 30
0.0
 11
9.644481264752869
 21
28.34411299917326
 31
0.0
  0
LINE
  5
452
330
3A4
100
AcDbEntity
  8
0
 62
     0
100
AcDbLine
 10
24.71274530116852
 20
13.2758489627576
 30
0.0
 11
18.4504780856609
 21
19.53811617826522
 31
0.0
  0
LINE
  5
453
330
3A4
100
AcDbEntity
  8
0
 62
     0
100
AcDbLine
 10
11.80047808566087
 20
25.29009056615831
 30
0.0
 11
9.291000062283785
 21
27.79956858953539
 31
0.0
  0
LINE
  5
454
330
3A4
100
AcDbEntity
  8
0
 62
     0
100
AcDbLine
 10
23.83298236899662
 20
13.25758628282255
 30
0.0
 11
18.4504780856609
 21
18.64009056615827
 31
0.0
  0
LINE
  5
455
330
3A4
100
AcDbEntity
  8
0
 62
     0
100
AcDbLine
 10
11.86261379379629
 20
24.32992924591587
 30
0.0
 11
9.060119959990061
 21
27.13242307972217
 31
0.0
  0
LINE
  5
456
330
3A4
100
AcDbEntity
  8
0
 62
     0
100
AcDbLine
 10
22.93495675688962
 20
13.25758628282261
 30
0.0
 11
18.45047808566084
 21
17.74206495405133
 31
0.0
  0
LINE
  5
457
330
3A4
100
AcDbEntity
  8
0
 62
     0
100
AcDbLine
 10
16.15485417688353
 20
19.13966325072181
 30
0.0
 11
9.000478085660915
 21
26.29403934194442
 31
0.0
  0
LINE
  5
458
330
3A4
100
AcDbEntity
  8
0
 62
     0
100
AcDbLine
 10
21.98365905772607
 20
13.31085836987927
 30
0.0
 11
18.5037501727175
 21
16.79076725488783
 31
0.0
  0
LINE
  5
459
330
3A4
100
AcDbEntity
  8
0
 62
     0
100
AcDbLine
 10
16.34674869096875
 20
18.04974312452969
 30
0.0
 11
9.000478085660802
 21
25.39601372983764
 31
0.0
  0
LINE
  5
45A
330
3A4
100
AcDbEntity
  8
0
 62
     0
100
AcDbLine
 10
20.60985114512448
 20
13.78664067037391
 30
0.0
 11
18.97953247321209
 21
15.41695934228636
 31
0.0
  0
LINE
  5
45B
330
3A4
100
AcDbEntity
  8
0
 62
     0
100
AcDbLine
 10
16.35047808566088
 20
17.14798811773062
 30
0.0
 11
9.008042533083198
 21
24.49042367030824
 31
0.0
  0
LINE
  5
45C
330
3A4
100
AcDbEntity
  8
0
 62
     0
100
AcDbLine
 10
16.35047808566082
 20
16.24996250562372
 30
0.0
 11
9.231333291407054
 21
23.36910729987744
 31
0.0
  0
LINE
  5
45D
330
3A4
100
AcDbEntity
  8
0
 62
     0
100
AcDbLine
 10
16.27795808952891
 20
15.4244568896488
 30
0.0
 11
13.51456644590985
 21
18.18784853326786
 31
0.0
  0
LINE
  5
45E
330
3A4
100
AcDbEntity
  8
0
 62
     0
100
AcDbLine
 10
16.03602015050006
 20
14.7683692165707
 30
0.0
 11
13.55047808566081
 21
17.25391128140995
 31
0.0
  0
LINE
  5
45F
330
3A4
100
AcDbEntity
  8
0
 62
     0
100
AcDbLine
 10
15.67390090311829
 20
14.23246285184552
 30
0.0
 11
13.51457905336013
 21
16.39178470160368
 31
0.0
  0
LINE
  5
460
330
3A4
100
AcDbEntity
  8
0
 62
     0
100
AcDbLine
 10
15.20767453085142
 20
13.8006636120055
 30
0.0
 11
12.9507518600343
 21
16.05758628282268
 31
0.0
  0
LINE
  5
461
330
3A4
100
AcDbEntity
  8
0
 62
     0
100
AcDbLine
 10
14.6344100831186
 20
13.47590244763142
 30
0.0
 11
12.05272624792735
 21
16.05758628282262
 31
0.0
  0
LINE
  5
462
330
3A4
100
AcDbEntity
  8
0
 62
     0
100
AcDbLine
 10
13.92899749403267
 20
13.28328942461041
 30
0.0
 11
11.15470063582046
 21
16.05758628282262
 31
0.0
  0
LINE
  5
463
330
3A4
100
AcDbEntity
  8
0
 62
     0
100
AcDbLine
 10
13.05667502371363
 20
13.25758628282244
 30
0.0
 11
10.25667502371351
 21
16.05758628282262
 31
0.0
  0
LINE
  5
464
330
3A4
100
AcDbEntity
  8
0
 62
     0
100
AcDbLine
 10
12.15864941160669
 20
13.25758628282255
 30
0.0
 11
9.605325516788809
 21
15.81091017764049
 31
0.0
  0
LINE
  5
465
330
3A4
100
AcDbEntity
  8
0
 62
     0
100
AcDbLine
 10
11.26062379949979
 20
13.25758628282255
 30
0.0
 11
9.525478085660836
 21
14.99273199666151
 31
0.0
  0
LINE
  5
466
330
3A4
100
AcDbEntity
  8
0
 62
     0
100
AcDbLine
 10
10.36259818739284
 20
13.25758628282255
 30
0.0
 11
9.525478085660836
 21
14.09470638455457
 31
0.0
  0
LINE
  5
467
330
3A4
100
AcDbEntity
  8
0
 62
     0
100
AcDbLine
 10
66.34216537032779
 20
13.27071805994012
 30
0.0
 11
66.73734630854358
 21
13.66589899815591
 31
0.0
  0
LINE
  5
468
330
3A4
100
AcDbEntity
  8
0
 62
     0
100
AcDbLine
 10
65.43100798110334
 20
13.2575862828225
 30
0.0
 11
66.75047808566103
 21
14.57705638738019
 31
0.0
  0
LINE
  5
469
330
3A4
100
AcDbEntity
  8
0
 62
     0
100
AcDbLine
 10
64.53298236899644
 20
13.2575862828225
 30
0.0
 11
66.75047808566103
 21
15.47508199948708
 31
0.0
  0
LINE
  5
46A
330
3A4
100
AcDbEntity
  8
0
 62
     0
100
AcDbLine
 10
63.9816756489127
 20
13.6043051748457
 30
0.0
 11
66.75047808566097
 21
16.37310761159403
 31
0.0
  0
LINE
  5
46B
330
3A4
100
AcDbEntity
  8
0
 62
     0
100
AcDbLine
 10
63.9504780856609
 20
14.47113322370086
 30
0.0
 11
66.75047808566097
 21
17.27113322370087
 31
0.0
  0
LINE
  5
46C
330
3A4
100
AcDbEntity
  8
0
 62
     0
100
AcDbLine
 10
63.95047808566096
 20
15.36915883580775
 30
0.0
 11
66.75047808566097
 21
18.16915883580782
 31
0.0
  0
LINE
  5
46D
330
3A4
100
AcDbEntity
  8
0
 62
     0
100
AcDbLine
 10
63.9504780856609
 20
16.2671844479147
 30
0.0
 11
66.75047808566097
 21
19.06718444791477
 31
0.0
  0
LINE
  5
46E
330
3A4
100
AcDbEntity
  8
0
 62
     0
100
AcDbLine
 10
63.9504780856609
 20
17.16521006002159
 30
0.0
 11
66.75047808566097
 21
19.96521006002166
 31
0.0
  0
LINE
  5
46F
330
3A4
100
AcDbEntity
  8
0
 62
     0
100
AcDbLine
 10
60.37704294772618
 20
13.59177492208686
 30
0.0
 11
61.51628944639674
 21
14.73102142075748
 31
0.0
  0
LINE
  5
470
330
3A4
100
AcDbEntity
  8
0
 62
     0
100
AcDbLine
 10
63.9504780856609
 20
18.06323567212848
 30
0.0
 11
66.75047808566097
 21
20.86323567212855
 31
0.0
  0
LINE
  5
471
330
3A4
100
AcDbEntity
  8
0
 62
     0
100
AcDbLine
 10
59.14647478120338
 20
13.25923236767096
 30
0.0
 11
61.8488320008127
 21
15.96158958728023
 31
0.0
  0
LINE
  5
472
330
3A4
100
AcDbEntity
  8
0
 62
     0
100
AcDbLine
 10
63.9504780856609
 20
18.96126128423543
 30
0.0
 11
66.75047808566097
 21
21.76126128423544
 31
0.0
  0
LINE
  5
473
330
3A4
100
AcDbEntity
  8
0
 62
     0
100
AcDbLine
 10
58.24680308424797
 20
13.2575862828225
 30
0.0
 11
61.850478085661
 21
16.86126128423546
 31
0.0
  0
LINE
  5
474
330
3A4
100
AcDbEntity
  8
0
 62
     0
100
AcDbLine
 10
63.9504780856609
 20
19.85928689634232
 30
0.0
 11
66.75047808566091
 21
22.65928689634239
 31
0.0
  0
LINE
  5
475
330
3A4
100
AcDbEntity
  8
0
 62
     0
100
AcDbLine
 10
57.34877747214108
 20
13.2575862828225
 30
0.0
 11
61.85047808566094
 21
17.75928689634241
 31
0.0
  0
LINE
  5
476
330
3A4
100
AcDbEntity
  8
0
 62
     0
100
AcDbLine
 10
63.9504780856609
 20
20.75731250844921
 30
0.0
 11
66.75047808566097
 21
23.55731250844928
 31
0.0
  0
LINE
  5
477
330
3A4
100
AcDbEntity
  8
0
 62
     0
100
AcDbLine
 10
56.45075186003424
 20
13.25758628282255
 30
0.0
 11
61.850478085661
 21
18.6573125084493
 31
0.0
  0
LINE
  5
478
330
3A4
100
AcDbEntity
  8
0
 62
     0
100
AcDbLine
 10
58.94588688357988
 20
16.65074691847513
 30
0.0
 11
61.850478085661
 21
19.5553381205562
 31
0.0
  0
LINE
  5
479
330
3A4
100
AcDbEntity
  8
0
 62
     0
100
AcDbLine
 10
63.9504780856609
 20
21.65533812055611
 30
0.0
 11
66.75047808566097
 21
24.45533812055618
 31
0.0
  0
LINE
  5
47A
330
3A4
100
AcDbEntity
  8
0
 62
     0
100
AcDbLine
 10
55.55272624792724
 20
13.2575862828225
 30
0.0
 11
58.45731745000836
 21
16.16217748490356
 31
0.0
  0
LINE
  5
47B
330
3A4
100
AcDbEntity
  8
0
 62
     0
100
AcDbLine
 10
59.05047808566087
 20
17.65336373266308
 30
0.0
 11
61.85047808566094
 21
20.45336373266315
 31
0.0
  0
LINE
  5
47C
330
3A4
100
AcDbEntity
  8
0
 62
     0
100
AcDbLine
 10
63.95047808566085
 20
22.55336373266306
 30
0.0
 11
66.75047808566091
 21
25.35336373266313
 31
0.0
  0
LINE
  5
47D
330
3A4
100
AcDbEntity
  8
0
 62
     0
100
AcDbLine
 10
54.76665038719755
 20
13.36953603419971
 30
0.0
 11
57.45470063582041
 21
16.05758628282257
 31
0.0
  0
LINE
  5
47E
330
3A4
100
AcDbEntity
  8
0
 62
     0
100
AcDbLine
 10
59.05047808566092
 20
18.55138934477008
 30
0.0
 11
61.85047808566094
 21
21.35138934477004
 31
0.0
  0
LINE
  5
47F
330
3A4
100
AcDbEntity
  8
0
 62
     0
100
AcDbLine
 10
63.95047808566085
 20
23.45138934477
 30
0.0
 11
66.75047808566091
 21
26.25138934477002
 31
0.0
  0
LINE
  5
480
330
3A4
100
AcDbEntity
  8
0
 62
     0
100
AcDbLine
 10
54.1386635199874
 20
13.63957477909656
 30
0.0
 11
56.55755280935784
 21
16.058464068467
 31
0.0
  0
LINE
  5
481
330
3A4
100
AcDbEntity
  8
0
 62
     0
100
AcDbLine
 10
59.05047808566099
 20
19.44941495687698
 30
0.0
 11
61.85047808566094
 21
22.24941495687693
 31
0.0
  0
LINE
  5
482
330
3A4
100
AcDbEntity
  8
0
 62
     0
100
AcDbLine
 10
63.9504780856609
 20
24.34941495687684
 30
0.0
 11
66.75047808566091
 21
27.14941495687691
 31
0.0
  0
LINE
  5
483
330
3A4
100
AcDbEntity
  8
0
 62
     0
100
AcDbLine
 10
53.62540363862234
 20
14.02434050983828
 30
0.0
 11
55.91407422064515
 21
16.31301109186114
 31
0.0
  0
LINE
  5
484
330
3A4
100
AcDbEntity
  8
0
 62
     0
100
AcDbLine
 10
59.05047808566099
 20
20.34744056898387
 30
0.0
 11
61.85047808566094
 21
23.14744056898388
 31
0.0
  0
LINE
  5
485
330
3A4
100
AcDbEntity
  8
0
 62
     0
100
AcDbLine
 10
63.95047808566085
 20
25.24744056898379
 30
0.0
 11
66.75047808566091
 21
28.04744056898385
 31
0.0
  0
LINE
  5
486
330
3A4
100
AcDbEntity
  8
0
 62
     0
100
AcDbLine
 10
53.21543946339722
 20
14.5124019467201
 30
0.0
 11
55.57683594223573
 21
16.87379842555867
 31
0.0
  0
LINE
  5
487
330
3A4
100
AcDbEntity
  8
0
 62
     0
100
AcDbLine
 10
59.05047808566092
 20
21.24546618109082
 30
0.0
 11
61.850478085661
 21
24.04546618109089
 31
0.0
  0
LINE
  5
488
330
3A4
100
AcDbEntity
  8
0
 62
     0
100
AcDbLine
 10
63.95047808566085
 20
26.14546618109068
 30
0.0
 11
66.74032893211045
 21
28.93531702754035
 31
0.0
  0
LINE
  5
489
330
3A4
100
AcDbEntity
  8
0
 62
     0
100
AcDbLine
 10
52.91551458496321
 20
15.11050268039309
 30
0.0
 11
55.55047808566093
 21
17.74546618109076
 31
0.0
  0
LINE
  5
48A
330
3A4
100
AcDbEntity
  8
0
 62
     0
100
AcDbLine
 10
59.05047808566099
 20
22.14349179319765
 30
0.0
 11
61.85047808566105
 21
24.94349179319772
 31
0.0
  0
LINE
  5
48B
330
3A4
100
AcDbEntity
  8
0
 62
     0
100
AcDbLine
 10
63.95047808566085
 20
27.04349179319757
 30
0.0
 11
66.26321458703097
 21
29.3562282945677
 31
0.0
  0
LINE
  5
48C
330
3A4
100
AcDbEntity
  8
0
 62
     0
100
AcDbLine
 10
52.75810105000676
 20
15.85111475754348
 30
0.0
 11
55.55047808566093
 21
18.64349179319765
 31
0.0
  0
LINE
  5
48D
330
3A4
100
AcDbEntity
  8
0
 62
     0
100
AcDbLine
 10
59.05047808566092
 20
23.0415174053046
 30
0.0
 11
61.850478085661
 21
25.84151740530467
 31
0.0
  0
LINE
  5
48E
330
3A4
100
AcDbEntity
  8
0
 62
     0
100
AcDbLine
 10
63.9504780856609
 20
27.94151740530458
 30
0.0
 11
65.3665469631789
 21
29.35758628282258
 31
0.0
  0
LINE
  5
48F
330
3A4
100
AcDbEntity
  8
0
 62
     0
100
AcDbLine
 10
52.75047808566097
 20
16.74151740530459
 30
0.0
 11
55.55047808566098
 21
19.54151740530465
 31
0.0
  0
LINE
  5
490
330
3A4
100
AcDbEntity
  8
0
 62
     0
100
AcDbLine
 10
59.05047808566092
 20
23.93954301741155
 30
0.0
 11
61.850478085661
 21
26.73954301741156
 31
0.0
  0
LINE
  5
491
330
3A4
100
AcDbEntity
  8
0
 62
     0
100
AcDbLine
 10
52.75047808566092
 20
17.63954301741154
 30
0.0
 11
55.55047808566098
 21
20.4395430174116
 31
0.0
  0
LINE
  5
492
330
3A4
100
AcDbEntity
  8
0
 62
     0
100
AcDbLine
 10
63.95052480040835
 20
28.83958973215897
 30
0.0
 11
64.46847463632463
 21
29.3575395680752
 31
0.0
  0
LINE
  5
493
330
3A4
100
AcDbEntity
  8
0
 62
     0
100
AcDbLine
 10
48.42892245494891
 20
13.31798738669948
 30
0.0
 11
50.59007698178408
 21
15.4791419135347
 31
0.0
  0
LINE
  5
494
330
3A4
100
AcDbEntity
  8
0
 62
     0
100
AcDbLine
 10
52.75047808566092
 20
18.53756862951843
 30
0.0
 11
55.55047808566098
 21
21.33756862951849
 31
0.0
  0
LINE
  5
495
330
3A4
100
AcDbEntity
  8
0
 62
     0
100
AcDbLine
 10
59.05047808566092
 20
24.83756862951844
 30
0.0
 11
61.85047808566094
 21
27.63756862951851
 31
0.0
  0
LINE
  5
496
330
3A4
100
AcDbEntity
  8
0
 62
     0
100
AcDbLine
 10
47.47049573896504
 20
13.25758628282261
 30
0.0
 11
50.65047808566089
 21
16.43756862951846
 31
0.0
  0
LINE
  5
497
330
3A4
100
AcDbEntity
  8
0
 62
     0
100
AcDbLine
 10
52.75047808566092
 20
19.43559424162532
 30
0.0
 11
55.55047808566098
 21
22.23559424162539
 31
0.0
  0
LINE
  5
498
330
3A4
100
AcDbEntity
  8
0
 62
     0
100
AcDbLine
 10
59.05047808566092
 20
25.73559424162533
 30
0.0
 11
61.850478085661
 21
28.5355942416254
 31
0.0
  0
LINE
  5
499
330
3A4
100
AcDbEntity
  8
0
 62
     0
100
AcDbLine
 10
46.57247012685814
 20
13.25758628282255
 30
0.0
 11
50.65047808566095
 21
17.3355942416253
 31
0.0
  0
LINE
  5
49A
330
3A4
100
AcDbEntity
  8
0
 62
     0
100
AcDbLine
 10
52.75047808566092
 20
20.33361985373227
 30
0.0
 11
55.55047808566098
 21
23.13361985373228
 31
0.0
  0
LINE
  5
49B
330
3A4
100
AcDbEntity
  8
0
 62
     0
100
AcDbLine
 10
59.05047808566092
 20
26.63361985373223
 30
0.0
 11
61.65674063082684
 21
29.2398823988982
 31
0.0
  0
LINE
  5
49C
330
3A4
100
AcDbEntity
  8
0
 62
     0
100
AcDbLine
 10
45.67444451475125
 20
13.25758628282261
 30
0.0
 11
50.63615948524807
 21
18.21930125331937
 31
0.0
  0
LINE
  5
49D
330
3A4
100
AcDbEntity
  8
0
 62
     0
100
AcDbLine
 10
52.75047808566092
 20
21.23164546583916
 30
0.0
 11
55.55047808566093
 21
24.03164546583923
 31
0.0
  0
LINE
  5
49E
330
3A4
100
AcDbEntity
  8
0
 62
     0
100
AcDbLine
 10
59.05047808566087
 20
27.53164546583917
 30
0.0
 11
60.87641890264433
 21
29.35758628282263
 31
0.0
  0
LINE
  5
49F
330
3A4
100
AcDbEntity
  8
0
 62
     0
100
AcDbLine
 10
44.77641890264431
 20
13.25758628282261
 30
0.0
 11
50.50124711461927
 21
18.98241449479758
 31
0.0
  0
LINE
  5
4A0
330
3A4
100
AcDbEntity
  8
0
 62
     0
100
AcDbLine
 10
52.75047808566092
 20
22.12967107794605
 30
0.0
 11
55.55047808566098
 21
24.92967107794612
 31
0.0
  0
LINE
  5
4A1
330
3A4
100
AcDbEntity
  8
0
 62
     0
100
AcDbLine
 10
47.85047808566105
 20
17.22967107794613
 30
0.0
 11
50.26065965770072
 21
19.63985264998586
 31
0.0
  0
LINE
  5
4A2
330
3A4
100
AcDbEntity
  8
0
 62
     0
100
AcDbLine
 10
59.05047808566092
 20
28.42967107794606
 30
0.0
 11
59.9783932905375
 21
29.35758628282263
 31
0.0
  0
LINE
  5
4A3
330
3A4
100
AcDbEntity
  8
0
 62
     0
100
AcDbLine
 10
44.00664864366854
 20
13.38584163595368
 30
0.0
 11
46.67839329053743
 21
16.05758628282257
 31
0.0
  0
LINE
  5
4A4
330
3A4
100
AcDbEntity
  8
0
 62
     0
100
AcDbLine
 10
47.83060751053364
 20
18.10782611492567
 30
0.0
 11
49.93716035284013
 21
20.21437895723215
 31
0.0
  0
LINE
  5
4A5
330
3A4
100
AcDbEntity
  8
0
 62
     0
100
AcDbLine
 10
52.75047808566092
 20
23.02769669005294
 30
0.0
 11
55.55047808566093
 21
25.82769669005301
 31
0.0
  0
LINE
  5
4A6
330
3A4
100
AcDbEntity
  8
0
 62
     0
100
AcDbLine
 10
43.82547808566096
 20
14.10269669005299
 30
0.0
 11
45.78036767843047
 21
16.05758628282257
 31
0.0
  0
LINE
  5
4A7
330
3A4
100
AcDbEntity
  8
0
 62
     0
100
AcDbLine
 10
47.55622267339475
 20
18.73146688989379
 30
0.0
 11
49.54128923491231
 21
20.71653345141135
 31
0.0
  0
LINE
  5
4A8
330
3A4
100
AcDbEntity
  8
0
 62
     0
100
AcDbLine
 10
52.75047808566085
 20
23.92572230215989
 30
0.0
 11
55.55047808566093
 21
26.72572230215996
 31
0.0
  0
LINE
  5
4A9
330
3A4
100
AcDbEntity
  8
0
 62
     0
100
AcDbLine
 10
43.8254780856609
 20
15.00072230215994
 30
0.0
 11
44.88234206632358
 21
16.05758628282262
 31
0.0
  0
LINE
  5
4AA
330
3A4
100
AcDbEntity
  8
0
 62
     0
100
AcDbLine
 10
52.75047808566092
 20
24.82374791426678
 30
0.0
 11
55.55047808566098
 21
27.6237479142668
 31
0.0
  0
LINE
  5
4AB
330
3A4
100
AcDbEntity
  8
0
 62
     0
100
AcDbLine
 10
47.11494777627769
 20
19.1882176048835
 30
0.0
 11
49.09484676360006
 21
21.16811659220593
 31
0.0
  0
LINE
  5
4AC
330
3A4
100
AcDbEntity
  8
0
 62
     0
100
AcDbLine
 10
46.66593497022421
 20
19.63723041093698
 30
0.0
 11
48.64583395754658
 21
21.6171293982594
 31
0.0
  0
LINE
  5
4AD
330
3A4
100
AcDbEntity
  8
0
 62
     0
100
AcDbLine
 10
52.75047808566085
 20
25.72177352637368
 30
0.0
 11
55.55047808566093
 21
28.52177352637374
 31
0.0
  0
LINE
  5
4AE
330
3A4
100
AcDbEntity
  8
0
 62
     0
100
AcDbLine
 10
40.28629084210973
 20
13.25758628282255
 30
0.0
 11
41.2004780856609
 21
14.17177352637366
 31
0.0
  0
LINE
  5
4AF
330
3A4
100
AcDbEntity
  8
0
 62
     0
100
AcDbLine
 10
46.21692216417073
 20
20.08624321699045
 30
0.0
 11
48.19682115149311
 21
22.06614220431288
 31
0.0
  0
LINE
  5
4B0
330
3A4
100
AcDbEntity
  8
0
 62
     0
100
AcDbLine
 10
52.75047808566085
 20
26.61979913848063
 30
0.0
 11
55.36429717756226
 21
29.23361823038197
 31
0.0
  0
LINE
  5
4B1
330
3A4
100
AcDbEntity
  8
0
 62
     0
100
AcDbLine
 10
39.38826523000278
 20
13.25758628282255
 30
0.0
 11
41.20047808566096
 21
15.06979913848067
 31
0.0
  0
LINE
  5
4B2
330
3A4
100
AcDbEntity
  8
0
 62
     0
100
AcDbLine
 10
45.76790935811726
 20
20.53525602304393
 30
0.0
 11
47.74780834543963
 21
22.51515501036635
 31
0.0
  0
LINE
  5
4B3
330
3A4
100
AcDbEntity
  8
0
 62
     0
100
AcDbLine
 10
52.75047808566085
 20
27.51782475058752
 30
0.0
 11
54.59023961789597
 21
29.35758628282269
 31
0.0
  0
LINE
  5
4B4
330
3A4
100
AcDbEntity
  8
0
 62
     0
100
AcDbLine
 10
38.60185075575788
 20
13.36919742068454
 30
0.0
 11
41.2004780856609
 21
15.96782475058762
 31
0.0
  0
LINE
  5
4B5
330
3A4
100
AcDbEntity
  8
0
 62
     0
100
AcDbLine
 10
45.31889655206384
 20
20.98426882909734
 30
0.0
 11
47.29879553938622
 21
22.96416781641977
 31
0.0
  0
LINE
  5
4B6
330
3A4
100
AcDbEntity
  8
0
 62
     0
100
AcDbLine
 10
52.75047808566085
 20
28.41585036269441
 30
0.0
 11
53.69221400578914
 21
29.35758628282263
 31
0.0
  0
LINE
  5
4B7
330
3A4
100
AcDbEntity
  8
0
 62
     0
100
AcDbLine
 10
38.40047808566095
 20
14.0658503626945
 30
0.0
 11
41.20047808566096
 21
16.86585036269446
 31
0.0
  0
LINE
  5
4B8
330
3A4
100
AcDbEntity
  8
0
 62
     0
100
AcDbLine
 10
44.86988374601037
 20
21.43328163515082
 30
0.0
 11
46.84978273333274
 21
23.41318062247324
 31
0.0
  0
LINE
  5
4B9
330
3A4
100
AcDbEntity
  8
0
 62
     0
100
AcDbLine
 10
38.40047808566095
 20
14.96387597480145
 30
0.0
 11
41.2004780856609
 21
17.7638759748014
 31
0.0
  0
LINE
  5
4BA
330
3A4
100
AcDbEntity
  8
0
 62
     0
100
AcDbLine
 10
44.42289984496904
 20
21.88432334621649
 30
0.0
 11
46.40687337835106
 21
23.86829687959846
 31
0.0
  0
LINE
  5
4BB
330
3A4
100
AcDbEntity
  8
0
 62
     0
100
AcDbLine
 10
38.40047808566095
 20
15.86190158690834
 30
0.0
 11
41.2004780856609
 21
18.66190158690835
 31
0.0
  0
LINE
  5
4BC
330
3A4
100
AcDbEntity
  8
0
 62
     0
100
AcDbLine
 10
49.09616278157511
 20
26.55758628282256
 30
0.0
 11
50.12547808566097
 21
27.58690158690837
 31
0.0
  0
LINE
  5
4BD
330
3A4
100
AcDbEntity
  8
0
 62
     0
100
AcDbLine
 10
35.90782186095072
 20
13.36924536219811
 30
0.0
 11
35.99747422240574
 21
13.45889772365319
 31
0.0
  0
LINE
  5
4BE
330
3A4
100
AcDbEntity
  8
0
 62
     0
100
AcDbLine
 10
44.02489766614706
 20
22.38434677950135
 30
0.0
 11
46.12453194356567
 21
24.48398105691996
 31
0.0
  0
LINE
  5
4BF
330
3A4
100
AcDbEntity
  8
0
 62
     0
100
AcDbLine
 10
38.40047808566095
 20
16.75992719901523
 30
0.0
 11
41.20047808566096
 21
19.55992719901519
 31
0.0
  0
LINE
  5
4C0
330
3A4
100
AcDbEntity
  8
0
 62
     0
100
AcDbLine
 10
48.19813716946834
 20
26.55758628282262
 30
0.0
 11
50.12547808566097
 21
28.48492719901526
 31
0.0
  0
LINE
  5
4C1
330
3A4
100
AcDbEntity
  8
0
 62
     0
100
AcDbLine
 10
34.89813716946827
 20
13.25758628282255
 30
0.0
 11
35.9639162657748
 21
14.32336537912908
 31
0.0
  0
LINE
  5
4C2
330
3A4
100
AcDbEntity
  8
0
 62
     0
100
AcDbLine
 10
43.69906340175037
 20
22.95653812721161
 30
0.0
 11
46.10047808566105
 21
25.35795281112228
 31
0.0
  0
LINE
  5
4C3
330
3A4
100
AcDbEntity
  8
0
 62
     0
100
AcDbLine
 10
38.40047808566095
 20
17.65795281112213
 30
0.0
 11
41.2004780856609
 21
20.45795281112213
 31
0.0
  0
LINE
  5
4C4
330
3A4
100
AcDbEntity
  8
0
 62
     0
100
AcDbLine
 10
47.30011155736133
 20
26.55758628282256
 30
0.0
 11
49.95880915386305
 21
29.21628387932429
 31
0.0
  0
LINE
  5
4C5
330
3A4
100
AcDbEntity
  8
0
 62
     0
100
AcDbLine
 10
34.00011155736126
 20
13.2575862828225
 30
0.0
 11
35.74839011886911
 21
15.00586484433034
 31
0.0
  0
LINE
  5
4C6
330
3A4
100
AcDbEntity
  8
0
 62
     0
100
AcDbLine
 10
38.40047808566089
 20
18.55597842322907
 30
0.0
 11
41.2004780856609
 21
21.35597842322903
 31
0.0
  0
LINE
  5
4C7
330
3A4
100
AcDbEntity
  8
0
 62
     0
100
AcDbLine
 10
43.45568133908028
 20
23.61118167664847
 30
0.0
 11
49.20208594525445
 21
29.35758628282263
 31
0.0
  0
LINE
  5
4C8
330
3A4
100
AcDbEntity
  8
0
 62
     0
100
AcDbLine
 10
33.40809724670629
 20
13.56359758427447
 30
0.0
 11
35.53286397196342
 21
15.6883643095316
 31
0.0
  0
LINE
  5
4C9
330
3A4
100
AcDbEntity
  8
0
 62
     0
100
AcDbLine
 10
38.40047808566089
 20
19.45400403533602
 30
0.0
 11
41.20047808566084
 21
22.25400403533598
 31
0.0
  0
LINE
  5
4CA
330
3A4
100
AcDbEntity
  8
0
 62
     0
100
AcDbLine
 10
43.31697447999459
 20
24.37050042966973
 30
0.0
 11
48.30406033314756
 21
29.35758628282263
 31
0.0
  0
LINE
  5
4CB
330
3A4
100
AcDbEntity
  8
0
 62
     0
100
AcDbLine
 10
33.18933782505769
 20
14.24286377473282
 30
0.0
 11
35.31733782505773
 21
16.37086377473286
 31
0.0
  0
LINE
  5
4CC
330
3A4
100
AcDbEntity
  8
0
 62
     0
100
AcDbLine
 10
38.40047808566095
 20
20.35202964744286
 30
0.0
 11
41.2004780856609
 21
23.15202964744287
 31
0.0
  0
LINE
  5
4CD
330
3A4
100
AcDbEntity
  8
0
 62
     0
100
AcDbLine
 10
43.30047808566092
 20
25.25202964744284
 30
0.0
 11
47.40603472104067
 21
29.35758628282263
 31
0.0
  0
LINE
  5
4CE
330
3A4
100
AcDbEntity
  8
0
 62
     0
100
AcDbLine
 10
32.97381167815206
 20
14.92536323993403
 30
0.0
 11
35.10181167815216
 21
17.05336323993407
 31
0.0
  0
LINE
  5
4CF
330
3A4
100
AcDbEntity
  8
0
 62
     0
100
AcDbLine
 10
38.40047808566089
 20
21.25005525954981
 30
0.0
 11
41.2004780856609
 21
24.05005525954976
 31
0.0
  0
LINE
  5
4D0
330
3A4
100
AcDbEntity
  8
0
 62
     0
100
AcDbLine
 10
43.30047808566098
 20
26.15005525954984
 30
0.0
 11
46.50800910893377
 21
29.35758628282263
 31
0.0
  0
LINE
  5
4D1
330
3A4
100
AcDbEntity
  8
0
 62
     0
100
AcDbLine
 10
32.75828553124631
 20
15.60786270513523
 30
0.0
 11
34.88628553124653
 21
17.73586270513544
 31
0.0
  0
LINE
  5
4D2
330
3A4
100
AcDbEntity
  8
0
 62
     0
100
AcDbLine
 10
38.40047808566089
 20
22.1480808716567
 30
0.0
 11
41.20047808566096
 21
24.94808087165677
 31
0.0
  0
LINE
  5
4D3
330
3A4
100
AcDbEntity
  8
0
 62
     0
100
AcDbLine
 10
32.54275938434068
 20
16.29036217033655
 30
0.0
 11
34.67075938434078
 21
18.41836217033659
 31
0.0
  0
LINE
  5
4D4
330
3A4
100
AcDbEntity
  8
0
 62
     0
100
AcDbLine
 10
43.35379475578213
 20
27.101397541778
 30
0.0
 11
45.55666682670545
 21
29.30426961270132
 31
0.0
  0
LINE
  5
4D5
330
3A4
100
AcDbEntity
  8
0
 62
     0
100
AcDbLine
 10
29.50998349682669
 20
13.25758628282255
 30
0.0
 11
30.35047808566088
 21
14.09808087165674
 31
0.0
  0
LINE
  5
4D6
330
3A4
100
AcDbEntity
  8
0
 62
     0
100
AcDbLine
 10
32.32723323743511
 20
16.97286163553775
 30
0.0
 11
34.45523323743515
 21
19.10086163553785
 31
0.0
  0
LINE
  5
4D7
330
3A4
100
AcDbEntity
  8
0
 62
     0
100
AcDbLine
 10
38.40047808566089
 20
23.04610648376359
 30
0.0
 11
41.20047808566096
 21
25.84610648376366
 31
0.0
  0
LINE
  5
4D8
330
3A4
100
AcDbEntity
  8
0
 62
     0
100
AcDbLine
 10
28.61195788471985
 20
13.2575862828225
 30
0.0
 11
30.35047808566094
 21
14.99610648376363
 31
0.0
  0
LINE
  5
4D9
330
3A4
100
AcDbEntity
  8
0
 62
     0
100
AcDbLine
 10
32.11170709052942
 20
17.65536110073901
 30
0.0
 11
34.23970709052946
 21
19.78336110073911
 31
0.0
  0
LINE
  5
4DA
330
3A4
100
AcDbEntity
  8
0
 62
     0
100
AcDbLine
 10
38.40047808566089
 20
23.94413209587054
 30
0.0
 11
41.20047808566096
 21
26.74413209587055
 31
0.0
  0
LINE
  5
4DB
330
3A4
100
AcDbEntity
  8
0
 62
     0
100
AcDbLine
 10
27.7950820202642
 20
13.33873603047385
 30
0.0
 11
30.35047808566094
 21
15.89413209587053
 31
0.0
  0
LINE
  5
4DC
330
3A4
100
AcDbEntity
  8
0
 62
     0
100
AcDbLine
 10
31.89618094362373
 20
18.33786056594027
 30
0.0
 11
34.02418094362377
 21
20.46586056594037
 31
0.0
  0
LINE
  5
4DD
330
3A4
100
AcDbEntity
  8
0
 62
     0
100
AcDbLine
 10
38.40047808566089
 20
24.84215770797743
 30
0.0
 11
41.2004780856609
 21
27.6421577079775
 31
0.0
  0
LINE
  5
4DE
330
3A4
100
AcDbEntity
  8
0
 62
     0
100
AcDbLine
 10
27.55047808566092
 20
13.99215770797747
 30
0.0
 11
30.35047808566099
 21
16.79215770797753
 31
0.0
  0
LINE
  5
4DF
330
3A4
100
AcDbEntity
  8
0
 62
     0
100
AcDbLine
 10
31.6806547967181
 20
19.02036003114147
 30
0.0
 11
33.80865479671825
 21
21.14836003114163
 31
0.0
  0
LINE
  5
4E0
330
3A4
100
AcDbEntity
  8
0
 62
     0
100
AcDbLine
 10
38.40047808566089
 20
25.74018332008432
 30
0.0
 11
41.20047808566096
 21
28.54018332008439
 31
0.0
  0
LINE
  5
4E1
330
3A4
100
AcDbEntity
  8
0
 62
     0
100
AcDbLine
 10
27.55047808566092
 20
14.89018332008436
 30
0.0
 11
30.35047808566099
 21
17.69018332008442
 31
0.0
  0
LINE
  5
4E2
330
3A4
100
AcDbEntity
  8
0
 62
     0
100
AcDbLine
 10
31.44585600974636
 20
19.68358685627674
 30
0.0
 11
34.07615007767736
 21
22.31388092420769
 31
0.0
  0
LINE
  5
4E3
330
3A4
100
AcDbEntity
  8
0
 62
     0
100
AcDbLine
 10
38.40047808566095
 20
26.63820893219133
 30
0.0
 11
41.00420266316251
 21
29.24193350969284
 31
0.0
  0
LINE
  5
4E4
330
3A4
100
AcDbEntity
  8
0
 62
     0
100
AcDbLine
 10
27.55047808566092
 20
15.7882089321913
 30
0.0
 11
30.35047808566099
 21
18.58820893219132
 31
0.0
  0
LINE
  5
4E5
330
3A4
100
AcDbEntity
  8
0
 62
     0
100
AcDbLine
 10
30.75867063987897
 20
19.8944270985163
 30
0.0
 11
34.49062343711125
 21
23.62637989574858
 31
0.0
  0
LINE
  5
4E6
330
3A4
100
AcDbEntity
  8
0
 62
     0
100
AcDbLine
 10
27.55047808566092
 20
16.6862345442982
 30
0.0
 11
30.36363726996722
 21
19.4993937286045
 31
0.0
  0
LINE
  5
4E7
330
3A4
100
AcDbEntity
  8
0
 62
     0
100
AcDbLine
 10
38.40047808566095
 20
27.53623454429822
 30
0.0
 11
40.2218298241853
 21
29.35758628282263
 31
0.0
  0
LINE
  5
4E8
330
3A4
100
AcDbEntity
  8
0
 62
     0
100
AcDbLine
 10
24.12182982418528
 20
13.25758628282255
 30
0.0
 11
25.10047808566094
 21
14.23623454429827
 31
0.0
  0
LINE
  5
4E9
330
3A4
100
AcDbEntity
  8
0
 62
     0
100
AcDbLine
 10
27.55047808566087
 20
17.58426015640515
 30
0.0
 11
34.90509679654519
 21
24.93887886728947
 31
0.0
  0
LINE
  5
4EA
330
3A4
100
AcDbEntity
  8
0
 62
     0
100
AcDbLine
 10
38.40047808566089
 20
28.43426015640517
 30
0.0
 11
39.3238042120783
 21
29.35758628282258
 31
0.0
  0
LINE
  5
4EB
330
3A4
100
AcDbEntity
  8
0
 62
     0
100
AcDbLine
 10
23.22380421207833
 20
13.25758628282261
 30
0.0
 11
25.10047808566099
 21
15.13426015640527
 31
0.0
  0
LINE
  5
4EC
330
3A4
100
AcDbEntity
  8
0
 62
     0
100
AcDbLine
 10
27.55047808566092
 20
18.48228576851198
 30
0.0
 11
35.3195701559793
 21
26.25137783883042
 31
0.0
  0
LINE
  5
4ED
330
3A4
100
AcDbEntity
  8
0
 62
     0
100
AcDbLine
 10
22.33745922432154
 20
13.26926690717266
 30
0.0
 11
24.95914380205476
 21
15.89095148490582
 31
0.0
  0
LINE
  5
4EE
330
3A4
100
AcDbEntity
  8
0
 62
     0
100
AcDbLine
 10
27.55047808566087
 20
19.38031138061893
 30
0.0
 11
30.87775298786453
 21
22.7075862828226
 31
0.0
  0
LINE
  5
4EF
330
3A4
100
AcDbEntity
  8
0
 62
     0
100
AcDbLine
 10
31.64173582310542
 20
23.47156911806348
 30
0.0
 11
35.73404351541324
 21
27.56387681037131
 31
0.0
  0
LINE
  5
4F0
330
3A4
100
AcDbEntity
  8
0
 62
     0
100
AcDbLine
 10
21.56929870687457
 20
13.39913200183258
 30
0.0
 11
24.2277529878645
 21
16.05758628282257
 31
0.0
  0
LINE
  5
4F1
330
3A4
100
AcDbEntity
  8
0
 62
     0
100
AcDbLine
 10
27.55047808566087
 20
20.27833699272588
 30
0.0
 11
30.3684686563692
 21
23.09632756343416
 31
0.0
  0
LINE
  5
4F2
330
3A4
100
AcDbEntity
  8
0
 62
     0
100
AcDbLine
 10
32.05620918253936
 20
24.78406808960432
 30
0.0
 11
36.10911496721456
 21
28.83697387427957
 31
0.0
  0
LINE
  5
4F3
330
3A4
100
AcDbEntity
  8
0
 62
     0
100
AcDbLine
 10
20.90816445004816
 20
13.63602335711317
 30
0.0
 11
23.32972737575761
 21
16.05758628282257
 31
0.0
  0
LINE
  5
4F4
330
3A4
100
AcDbEntity
  8
0
 62
     0
100
AcDbLine
 10
27.55047808566092
 20
21.17636260483271
 30
0.0
 11
30.35047808566094
 21
23.97636260483278
 31
0.0
  0
LINE
  5
4F5
330
3A4
100
AcDbEntity
  8
0
 62
     0
100
AcDbLine
 10
32.4706825419733
 20
26.09656706114515
 30
0.0
 11
35.71510309464537
 21
29.34098761381722
 31
0.0
  0
LINE
  5
4F6
330
3A4
100
AcDbEntity
  8
0
 62
     0
100
AcDbLine
 10
20.33056116588386
 20
13.95644568505565
 30
0.0
 11
22.44662302437672
 21
16.07250754354856
 31
0.0
  0
LINE
  5
4F7
330
3A4
100
AcDbEntity
  8
0
 62
     0
100
AcDbLine
 10
27.55047808566087
 20
22.07438821693966
 30
0.0
 11
30.35047808566094
 21
24.87438821693973
 31
0.0
  0
LINE
  5
4F8
330
3A4
100
AcDbEntity
  8
0
 62
     0
100
AcDbLine
 10
32.88515590140724
 20
27.40906603268598
 30
0.0
 11
34.83367615154378
 21
29.35758628282258
 31
0.0
  0
LINE
  5
4F9
330
3A4
100
AcDbEntity
  8
0
 62
     0
100
AcDbLine
 10
19.8256061995018
 20
14.34951633078054
 30
0.0
 11
21.81230688335841
 21
16.33621701463715
 31
0.0
  0
LINE
  5
4FA
330
3A4
100
AcDbEntity
  8
0
 62
     0
100
AcDbLine
 10
27.55047808566087
 20
22.97241382904656
 30
0.0
 11
30.35047808566094
 21
25.77241382904662
 31
0.0
  0
LINE
  5
4FB
330
3A4
100
AcDbEntity
  8
0
 62
     0
100
AcDbLine
 10
24.21211221743738
 20
19.63404796082312
 30
0.0
 11
25.37401640766046
 21
20.79595215104621
 31
0.0
  0
LINE
  5
4FC
330
3A4
100
AcDbEntity
  8
0
 62
     0
100
AcDbLine
 10
33.29962926084113
 20
28.72156500422687
 30
0.0
 11
33.93565053943683
 21
29.35758628282258
 31
0.0
  0
LINE
  5
4FD
330
3A4
100
AcDbEntity
  8
0
 62
     0
100
AcDbLine
 10
19.38916912617196
 20
14.8111048695577
 30
0.0
 11
21.40205593208623
 21
16.82399167547197
 31
0.0
  0
LINE
  5
4FE
330
3A4
100
AcDbEntity
  8
0
 62
     0
100
AcDbLine
 10
23.28713937580755
 20
19.60710073130025
 30
0.0
 11
25.40096363718333
 21
21.72092499267597
 31
0.0
  0
LINE
  5
4FF
330
3A4
100
AcDbEntity
  8
0
 62
     0
100
AcDbLine
 10
27.55047808566092
 20
23.87043944115356
 30
0.0
 11
30.35047808566099
 21
26.67043944115363
 31
0.0
  0
LINE
  5
500
330
3A4
100
AcDbEntity
  8
0
 62
     0
100
AcDbLine
 10
19.02214990122899
 20
15.34211125672163
 30
0.0
 11
21.25047808566091
 21
17.57043944115361
 31
0.0
  0
LINE
  5
501
330
3A4
100
AcDbEntity
  8
0
 62
     0
100
AcDbLine
 10
22.67299280638735
 20
19.89097977398682
 30
0.0
 11
25.1170845944967
 21
22.33507156209623
 31
0.0
  0
LINE
  5
502
330
3A4
100
AcDbEntity
  8
0
 62
     0
100
AcDbLine
 10
27.55047808566092
 20
24.76846505326045
 30
0.0
 11
30.35047808566099
 21
27.56846505326052
 31
0.0
  0
LINE
  5
503
330
3A4
100
AcDbEntity
  8
0
 62
     0
100
AcDbLine
 10
18.73083239130426
 20
15.94881935890379
 30
0.0
 11
21.25047808566091
 21
18.46846505326044
 31
0.0
  0
LINE
  5
504
330
3A4
100
AcDbEntity
  8
0
 62
     0
100
AcDbLine
 10
22.23503287939763
 20
20.35104545910411
 30
0.0
 11
24.65701890937947
 21
22.77303148908589
 31
0.0
  0
LINE
  5
505
330
3A4
100
AcDbEntity
  8
0
 62
     0
100
AcDbLine
 10
27.55047808566092
 20
25.6664906653674
 30
0.0
 11
30.35047808566099
 21
28.46649066536741
 31
0.0
  0
LINE
  5
506
330
3A4
100
AcDbEntity
  8
0
 62
     0
100
AcDbLine
 10
18.5296950271296
 20
16.64570760683608
 30
0.0
 11
21.25047808566091
 21
19.36649066536739
 31
0.0
  0
LINE
  5
507
330
3A4
100
AcDbEntity
  8
0
 62
     0
100
AcDbLine
 10
21.97898214698926
 20
20.99302033880263
 30
0.0
 11
24.01504402968089
 21
23.02908222149432
 31
0.0
  0
LINE
  5
508
330
3A4
100
AcDbEntity
  8
0
 62
     0
100
AcDbLine
 10
18.45047808566084
 20
17.46451627747427
 30
0.0
 11
21.25047808566091
 21
20.26451627747428
 31
0.0
  0
LINE
  5
509
330
3A4
100
AcDbEntity
  8
0
 62
     0
100
AcDbLine
 10
27.55047808566092
 20
26.56451627747429
 30
0.0
 11
30.1932279773058
 21
29.20726616911924
 31
0.0
  0
LINE
  5
50A
330
3A4
100
AcDbEntity
  8
0
 62
     0
100
AcDbLine
 10
14.36448132778525
 20
13.37851951959868
 30
0.0
 11
16.22954484888498
 21
15.24358304069841
 31
0.0
  0
LINE
  5
50B
330
3A4
100
AcDbEntity
  8
0
 62
     0
100
AcDbLine
 10
22.09739523047005
 20
22.00945903439031
 30
0.0
 11
22.99860533409327
 21
22.91066913801353
 31
0.0
  0
LINE
  5
50C
330
3A4
100
AcDbEntity
  8
0
 62
     0
100
AcDbLine
 10
18.45047808566084
 20
18.3625418895811
 30
0.0
 11
21.25047808566091
 21
21.16254188958117
 31
0.0
  0
LINE
  5
50D
330
3A4
100
AcDbEntity
  8
0
 62
     0
100
AcDbLine
 10
27.55047808566092
 20
27.46254188958118
 30
0.0
 11
29.44552247890232
 21
29.35758628282258
 31
0.0
  0
LINE
  5
50E
330
3A4
100
AcDbEntity
  8
0
 62
     0
100
AcDbLine
 10
13.34552247890229
 20
13.25758628282255
 30
0.0
 11
16.35047808566105
 21
16.26254188958125
 31
0.0
  0
LINE
  5
50F
330
3A4
100
AcDbEntity
  8
0
 62
     0
100
AcDbLine
 10
18.45047808566084
 20
19.26056750168805
 30
0.0
 11
21.25047808566091
 21
22.06056750168812
 31
0.0
  0
LINE
  5
510
330
3A4
100
AcDbEntity
  8
0
 62
     0
100
AcDbLine
 10
27.55047808566092
 20
28.36056750168808
 30
0.0
 11
28.54749686679543
 21
29.35758628282263
 31
0.0
  0
LINE
  5
511
330
3A4
100
AcDbEntity
  8
0
 62
     0
100
AcDbLine
 10
12.44749686679529
 20
13.2575862828225
 30
0.0
 11
16.35047808566099
 21
17.1605675016882
 31
0.0
  0
LINE
  5
512
330
3A4
100
AcDbEntity
  8
0
 62
     0
100
AcDbLine
 10
18.45047808566084
 20
20.15859311379494
 30
0.0
 11
21.25047808566085
 21
22.95859311379501
 31
0.0
  0
LINE
  5
513
330
3A4
100
AcDbEntity
  8
0
 62
     0
100
AcDbLine
 10
11.54947125468845
 20
13.25758628282261
 30
0.0
 11
16.34653873309974
 21
18.0546537612339
 31
0.0
  0
LINE
  5
514
330
3A4
100
AcDbEntity
  8
0
 62
     0
100
AcDbLine
 10
18.45047808566084
 20
21.05661872590189
 30
0.0
 11
21.25047808566091
 21
23.85661872590196
 31
0.0
  0
LINE
  5
515
330
3A4
100
AcDbEntity
  8
0
 62
     0
100
AcDbLine
 10
23.95144564258163
 20
26.55758628282268
 30
0.0
 11
25.10047808566105
 21
27.7066187259021
 31
0.0
  0
LINE
  5
516
330
3A4
100
AcDbEntity
  8
0
 62
     0
100
AcDbLine
 10
10.6514456425815
 20
13.25758628282255
 30
0.0
 11
16.23687689677842
 21
18.84301753701947
 31
0.0
  0
LINE
  5
517
330
3A4
100
AcDbEntity
  8
0
 62
     0
100
AcDbLine
 10
18.45047808566084
 20
21.95464433800879
 30
0.0
 11
21.25047808566091
 21
24.7546443380088
 31
0.0
  0
LINE
  5
518
330
3A4
100
AcDbEntity
  8
0
 62
     0
100
AcDbLine
 10
13.55047808566092
 20
17.05464433800887
 30
0.0
 11
16.0145381527343
 21
19.51870440508224
 31
0.0
  0
LINE
  5
519
330
3A4
100
AcDbEntity
  8
0
 62
     0
100
AcDbLine
 10
23.05342003047462
 20
26.55758628282256
 30
0.0
 11
25.10047808566105
 21
28.60464433800894
 31
0.0
  0
LINE
  5
51A
330
3A4
100
AcDbEntity
  8
0
 62
     0
100
AcDbLine
 10
9.811145905734576
 20
13.31531215808252
 30
0.0
 11
12.55342003047462
 21
16.05758628282257
 31
0.0
  0
LINE
  5
51B
330
3A4
100
AcDbEntity
  8
0
 62
     0
100
AcDbLine
 10
18.45047808566079
 20
22.85266995011568
 30
0.0
 11
21.41629279144058
 21
25.81848465589547
 31
0.0
  0
LINE
  5
51C
330
3A4
100
AcDbEntity
  8
0
 62
     0
100
AcDbLine
 10
13.54831899405167
 20
17.9505108585065
 30
0.0
 11
15.70610661806227
 21
20.10829848251717
 31
0.0
  0
LINE
  5
51D
330
3A4
100
AcDbEntity
  8
0
 62
     0
100
AcDbLine
 10
21.98957971258812
 20
26.39177157704301
 30
0.0
 11
24.86701067074113
 21
29.26920253519597
 31
0.0
  0
LINE
  5
51E
330
3A4
100
AcDbEntity
  8
0
 62
     0
100
AcDbLine
 10
9.52547808566095
 20
13.92766995011578
 30
0.0
 11
11.65539441836773
 21
16.05758628282257
 31
0.0
  0
LINE
  5
51F
330
3A4
100
AcDbEntity
  8
0
 62
     0
100
AcDbLine
 10
13.32871597455095
 20
18.6289334511128
 30
0.0
 11
15.32386465322338
 21
20.62408212978522
 31
0.0
  0
LINE
  5
520
330
3A4
100
AcDbEntity
  8
0
 62
     0
100
AcDbLine
 10
18.45047808566079
 20
23.75069556222263
 30
0.0
 11
24.05736880626085
 21
29.35758628282269
 31
0.0
  0
LINE
  5
521
330
3A4
100
AcDbEntity
  8
0
 62
     0
100
AcDbLine
 10
9.525478085660893
 20
14.82569556222273
 30
0.0
 11
10.75736880626078
 21
16.05758628282262
 31
0.0
  0
LINE
  5
522
330
3A4
100
AcDbEntity
  8
0
 62
     0
100
AcDbLine
 10
12.90246114624625
 20
19.10070423491492
 30
0.0
 11
14.88236013356862
 21
21.08060322223729
 31
0.0
  0
LINE
  5
523
330
3A4
100
AcDbEntity
  8
0
 62
     0
100
AcDbLine
 10
18.45047808566084
 20
24.64872117432946
 30
0.0
 11
23.15934319415379
 21
29.35758628282247
 31
0.0
  0
LINE
  5
524
330
3A4
100
AcDbEntity
  8
0
 62
     0
100
AcDbLine
 10
9.594430007680671
 20
15.79267309634934
 30
0.0
 11
9.790391272134286
 21
15.98863436080296
 31
0.0
  0
LINE
  5
525
330
3A4
100
AcDbEntity
  8
0
 62
     0
100
AcDbLine
 10
18.47045319981742
 20
25.56672190059299
 30
0.0
 11
22.24134246789043
 21
29.33761116866605
 31
0.0
  0
LINE
  5
526
330
3A4
100
AcDbEntity
  8
0
 62
     0
100
AcDbLine
 10
12.45344834019277
 20
19.5497170409684
 30
0.0
 11
14.43334732751515
 21
21.52961602829077
 31
0.0
  0
LINE
  5
527
330
3A4
100
AcDbEntity
  8
0
 62
     0
100
AcDbLine
 10
18.7699166320832
 20
26.76421094496578
 30
0.0
 11
21.0438534235177
 21
29.03814773640027
 31
0.0
  0
LINE
  5
528
330
3A4
100
AcDbEntity
  8
0
 62
     0
100
AcDbLine
 10
12.0044355341393
 20
19.99872984702187
 30
0.0
 11
13.98433452146167
 21
21.97862883434424
 31
0.0
  0
LINE
  5
529
330
3A4
100
AcDbEntity
  8
0
 62
     0
100
AcDbLine
 10
11.55542272808588
 20
20.44774265307529
 30
0.0
 11
13.5353217154082
 21
22.42764164039755
 31
0.0
  0
LINE
  5
52A
330
3A4
100
AcDbEntity
  8
0
 62
     0
100
AcDbLine
 10
11.10640992203241
 20
20.89675545912876
 30
0.0
 11
13.08630890935472
 21
22.87665444645103
 31
0.0
  0
LINE
  5
52B
330
3A4
100
AcDbEntity
  8
0
 62
     0
100
AcDbLine
 10
10.65739711597893
 20
21.34576826518224
 30
0.0
 11
12.63729610330125
 21
23.3256672525045
 31
0.0
  0
LINE
  5
52C
330
3A4
100
AcDbEntity
  8
0
 62
     0
100
AcDbLine
 10
14.97118952151237
 20
26.55758628282256
 30
0.0
 11
15.82547808566084
 21
27.4118748469711
 31
0.0
  0
LINE
  5
52D
330
3A4
100
AcDbEntity
  8
0
 62
     0
100
AcDbLine
 10
10.20846762395359
 20
21.79486438526385
 30
0.0
 11
12.18853326738605
 21
23.7749300286963
 31
0.0
  0
LINE
  5
52E
330
3A4
100
AcDbEntity
  8
0
 62
     0
100
AcDbLine
 10
14.07316390940548
 20
26.55758628282256
 30
0.0
 11
15.8254780856609
 21
28.30990045907799
 31
0.0
  0
LINE
  5
52F
330
3A4
100
AcDbEntity
  8
0
 62
     0
100
AcDbLine
 10
9.796999699402022
 20
22.28142207281905
 30
0.0
 11
11.85863638609811
 21
24.3430587595152
 31
0.0
  0
LINE
  5
530
330
3A4
100
AcDbEntity
  8
0
 62
     0
100
AcDbLine
 10
13.17513829729853
 20
26.55758628282256
 30
0.0
 11
15.73891918589976
 21
29.12136717142379
 31
0.0
  0
LINE
  5
531
330
3A4
100
AcDbEntity
  8
0
 62
     0
100
AcDbLine
 10
9.456539093139554
 20
22.83898707866353
 30
0.0
 11
11.80047808566098
 21
25.18292607118496
 31
0.0
  0
LINE
  5
532
330
3A4
100
AcDbEntity
  8
0
 62
     0
100
AcDbLine
 10
12.27464603602152
 20
26.55511963365245
 30
0.0
 11
15.0771126851917
 21
29.35758628282263
 31
0.0
  0
LINE
  5
533
330
3A4
100
AcDbEntity
  8
0
 62
     0
100
AcDbLine
 10
9.195845797407457
 20
23.47631939503838
 30
0.0
 11
11.80294473483104
 21
26.08341833246203
 31
0.0
  0
LINE
  5
534
330
3A4
100
AcDbEntity
  8
0
 62
     0
100
AcDbLine
 10
9.034033835159391
 20
24.21253304489721
 30
0.0
 11
14.17908707308481
 21
29.35758628282263
 31
0.0
  0
LINE
  5
535
330
3A4
100
AcDbEntity
  8
0
 62
     0
100
AcDbLine
 10
9.000478085660972
 20
25.07700290750574
 30
0.0
 11
13.2810614609778
 21
29.35758628282258
 31
0.0
  0
LINE
  5
536
330
3A4
100
AcDbEntity
  8
0
 62
     0
100
AcDbLine
 10
9.000478085660972
 20
25.97502851961263
 30
0.0
 11
12.38303584887086
 21
29.35758628282258
 31
0.0
  0
LINE
  5
537
330
3A4
100
AcDbEntity
  8
0
 62
     0
100
AcDbLine
 10
9.020670096099195
 20
26.8932461421578
 30
0.0
 11
11.4648182263258
 21
29.33739427238441
 31
0.0
  0
ENDBLK
  5
539
330
3A4
100
AcDbEntity
  8
0
100
AcDbBlockEnd
  0
BLOCK
  5
B5E4
330
B5DA
100
AcDbEntity
  8
0
100
AcDbBlockBegin
  2
*D2
 70
     1
 10
0.0
 20
0.0
 30
0.0
  3
*D2
  1

  0
LINE
  5
B811
330
B5DA
100
AcDbEntity
  8
SUNPOU
100
AcDbLine
 10
259.7452828381592
 20
265.6604020460533
 30
0.0
 11
259.7452828381592
 21
460.106863990228
 31
0.0
  0
LINE
  5
B812
330
B5DA
100
AcDbEntity
  8
SUNPOU
100
AcDbLine
 10
429.7469107486711
 20
235.6604019541039
 30
0.0
 11
429.7469107486711
 21
460.106863990228
 31
0.0
  0
LINE
  5
B813
330
B5DA
100
AcDbEntity
  8
SUNPOU
100
AcDbLine
 10
266.7452828381592
 20
457.1068639902279
 30
0.0
 11
422.7469107486711
 21
457.1068639902279
 31
0.0
  0
INSERT
  5
B814
330
B5DA
100
AcDbEntity
  8
SUNPOU
100
AcDbBlockReference
  2
_OPEN
 10
259.7452828381592
 20
457.1068639902279
 30
0.0
 41
7.0
 42
7.0
 43
7.0
 50
180.0
  0
INSERT
  5
B815
330
B5DA
100
AcDbEntity
  8
SUNPOU
100
AcDbBlockReference
  2
_OPEN
 10
429.7469107486711
 20
457.1068639902279
 30
0.0
 41
7.0
 42
7.0
 43
7.0
  0
MTEXT
  5
B816
330
B5DA
100
AcDbEntity
  8
SUNPOU
100
AcDbMText
 10
344.7460967934151
 20
462.106863990228
 30
0.0
 40
6.0
 41
0.0
 71
     5
 72
     5
  1
\A1;170
 73
     1
 44
1.0
1001
ACAD
1000
MTEXTBEGIN
1070
    73
1070
     1
1070
    44
1040
1.0
1070
    74
1070
     0
1000
MTEXTEND
1000
MTEXTBEGIN
1070
    73
1070
     1
1070
    44
1040
1.0
1070
    74
1070
     0
1000
MTEXTEND
1000
MTEXTBEGIN
1070
    73
1070
     1
1070
    44
1040
1.0
1070
    74
1070
     0
1000
MTEXTEND
1000
MTEXTBEGIN
1070
    73
1070
     1
1070
    44
1040
1.0
1070
    74
1070
     0
1000
MTEXTEND
  0
POINT
  5
B817
330
B5DA
100
AcDbEntity
  8
DEFPOINTS
 62
     0
100
AcDbPoint
 10
259.7452828381592
 20
259.6604020460533
 30
0.0
  0
POINT
  5
B818
330
B5DA
100
AcDbEntity
  8
DEFPOINTS
 62
     0
100
AcDbPoint
 10
429.7469107486711
 20
229.6604019541039
 30
0.0
  0
POINT
  5
B819
330
B5DA
100
AcDbEntity
  8
DEFPOINTS
 62
     0
100
AcDbPoint
 10
429.7469107486711
 20
457.1068639902279
 30
0.0
  0
ENDBLK
  5
B5E5
330
B5DA
100
AcDbEntity
  8
0
100
AcDbBlockEnd
  0
BLOCK
  5
B5F0
330
B5E6
100
AcDbEntity
  8
0
100
AcDbBlockBegin
  2
*D3
 70
     1
 10
0.0
 20
0.0
 30
0.0
  3
*D3
  1

  0
LINE
  5
B808
330
B5E6
100
AcDbEntity
  8
SUNPOU
100
AcDbLine
 10
362.9662334999288
 20
378.9605821699612
 30
0.0
 11
362.9662334999288
 21
443.685429260638
 31
0.0
  0
LINE
  5
B809
330
B5E6
100
AcDbEntity
  8
SUNPOU
100
AcDbLine
 10
429.7469107486711
 20
235.6604019541039
 30
0.0
 11
429.7469107486711
 21
443.685429260638
 31
0.0
  0
LINE
  5
B80A
330
B5E6
100
AcDbEntity
  8
SUNPOU
100
AcDbLine
 10
369.9662334999288
 20
440.685429260638
 30
0.0
 11
422.7469107486711
 21
440.685429260638
 31
0.0
  0
INSERT
  5
B80B
330
B5E6
100
AcDbEntity
  8
SUNPOU
100
AcDbBlockReference
  2
_OPEN
 10
362.9662334999288
 20
440.685429260638
 30
0.0
 41
7.0
 42
7.0
 43
7.0
 50
180.0
  0
INSERT
  5
B80C
330
B5E6
100
AcDbEntity
  8
SUNPOU
100
AcDbBlockReference
  2
_OPEN
 10
429.7469107486711
 20
440.685429260638
 30
0.0
 41
7.0
 42
7.0
 43
7.0
  0
MTEXT
  5
B80D
330
B5E6
100
AcDbEntity
  8
SUNPOU
100
AcDbMText
 10
396.3565721243
 20
445.685429260638
 30
0.0
 40
6.0
 41
0.0
 71
     5
 72
     5
  1
\A1;67
 73
     1
 44
1.0
1001
ACAD
1000
MTEXTBEGIN
1070
    73
1070
     1
1070
    44
1040
1.0
1070
    74
1070
     0
1000
MTEXTEND
1000
MTEXTBEGIN
1070
    73
1070
     1
1070
    44
1040
1.0
1070
    74
1070
     0
1000
MTEXTEND
1000
MTEXTBEGIN
1070
    73
1070
     1
1070
    44
1040
1.0
1070
    74
1070
     0
1000
MTEXTEND
1000
MTEXTBEGIN
1070
    73
1070
     1
1070
    44
1040
1.0
1070
    74
1070
     0
1000
MTEXTEND
  0
POINT
  5
B80E
330
B5E6
100
AcDbEntity
  8
DEFPOINTS
 62
     0
100
AcDbPoint
 10
362.9662334999288
 20
372.9605821699612
 30
0.0
  0
POINT
  5
B80F
330
B5E6
100
AcDbEntity
  8
DEFPOINTS
 62
     0
100
AcDbPoint
 10
429.7469107486711
 20
229.6604019541039
 30
0.0
  0
POINT
  5
B810
330
B5E6
100
AcDbEntity
  8
DEFPOINTS
 62
     0
100
AcDbPoint
 10
429.7469107486711
 20
440.685429260638
 30
0.0
  0
ENDBLK
  5
B5F1
330
B5E6
100
AcDbEntity
  8
0
100
AcDbBlockEnd
  0
BLOCK
  5
B5FC
330
B5F2
100
AcDbEntity
  8
0
100
AcDbBlockBegin
  2
*D4
 70
     1
 10
0.0
 20
0.0
 30
0.0
  3
*D4
  1

  0
LINE
  5
B83E
330
B5F2
100
AcDbEntity
  8
SUNPOU
100
AcDbLine
 10
429.7469107486551
 20
235.6604019541524
 30
0.0
 11
429.7469107486551
 21
264.8987556860865
 31
0.0
  0
LINE
  5
B83F
330
B5F2
100
AcDbEntity
  8
SUNPOU
100
AcDbLine
 10
394.3030662184742
 20
237.2412872977823
 30
0.0
 11
394.3030662184742
 21
264.8987556860865
 31
0.0
  0
LINE
  5
B840
330
B5F2
100
AcDbEntity
  8
SUNPOU
100
AcDbLine
 10
422.7469107486552
 20
261.8987556860865
 30
0.0
 11
401.3030662184742
 21
261.8987556860865
 31
0.0
  0
INSERT
  5
B841
330
B5F2
100
AcDbEntity
  8
SUNPOU
100
AcDbBlockReference
  2
_OPEN
 10
429.7469107486551
 20
261.8987556860865
 30
0.0
 41
7.0
 42
7.0
 43
7.0
  0
INSERT
  5
B842
330
B5F2
100
AcDbEntity
  8
SUNPOU
100
AcDbBlockReference
  2
_OPEN
 10
394.3030662184742
 20
261.8987556860865
 30
0.0
 41
7.0
 42
7.0
 43
7.0
 50
180.0
  0
MTEXT
  5
B843
330
B5F2
100
AcDbEntity
  8
SUNPOU
100
AcDbMText
 10
412.0249884835646
 20
266.8987556860865
 30
0.0
 40
6.0
 41
0.0
 71
     5
 72
     5
  1
\A1;35
 73
     1
 44
1.0
1001
ACAD
1000
MTEXTBEGIN
1070
    73
1070
     1
1070
    44
1040
1.0
1070
    74
1070
     0
1000
MTEXTEND
1000
MTEXTBEGIN
1070
    73
1070
     1
1070
    44
1040
1.0
1070
    74
1070
     0
1000
MTEXTEND
1000
MTEXTBEGIN
1070
    73
1070
     1
1070
    44
1040
1.0
1070
    74
1070
     0
1000
MTEXTEND
1000
MTEXTBEGIN
1070
    73
1070
     1
1070
    44
1040
1.0
1070
    74
1070
     0
1000
MTEXTEND
  0
POINT
  5
B844
330
B5F2
100
AcDbEntity
  8
DEFPOINTS
 62
     0
100
AcDbPoint
 10
429.7469107486551
 20
229.6604019541524
 30
0.0
  0
POINT
  5
B845
330
B5F2
100
AcDbEntity
  8
DEFPOINTS
 62
     0
100
AcDbPoint
 10
394.3030662184742
 20
231.2412872977823
 30
0.0
  0
POINT
  5
B846
330
B5F2
100
AcDbEntity
  8
DEFPOINTS
 62
     0
100
AcDbPoint
 10
394.3030662184742
 20
261.8987556860865
 30
0.0
  0
ENDBLK
  5
B5FD
330
B5F2
100
AcDbEntity
  8
0
100
AcDbBlockEnd
  0
BLOCK
  5
B608
330
B5FE
100
AcDbEntity
  8
0
100
AcDbBlockBegin
  2
*D5
 70
     1
 10
0.0
 20
0.0
 30
0.0
  3
*D5
  1

  0
LINE
  5
B81A
330
B5FE
100
AcDbEntity
  8
SUNPOU
  6
Continuous
 62
     4
370
    -2
100
AcDbLine
 10
259.7452828382373
 20
239.2513112879395
 30
0.0
 11
259.7452828382373
 21
157.4419096859463
 31
0.0
  0
LINE
  5
B81B
330
B5FE
100
AcDbEntity
  8
SUNPOU
  6
Continuous
 62
     4
370
    -2
100
AcDbLine
 10
429.7452828382374
 20
209.2513112879612
 30
0.0
 11
429.7452828382374
 21
157.4419096859463
 31
0.0
  0
LINE
  5
B81C
330
B5FE
100
AcDbEntity
  8
SUNPOU
  6
Continuous
 62
     4
370
    -2
100
AcDbLine
 10
266.7452828382373
 20
160.4419096859463
 30
0.0
 11
422.7452828382374
 21
160.4419096859463
 31
0.0
  0
INSERT
  5
B81D
330
B5FE
100
AcDbEntity
  8
SUNPOU
  6
Continuous
 62
     4
370
    -2
100
AcDbBlockReference
  2
_OPEN
 10
259.7452828382373
 20
160.4419096859463
 30
0.0
 41
7.0
 42
7.0
 43
7.0
 50
180.0
  0
INSERT
  5
B81E
330
B5FE
100
AcDbEntity
  8
SUNPOU
  6
Continuous
 62
     4
370
    -2
100
AcDbBlockReference
  2
_OPEN
 10
429.7452828382374
 20
160.4419096859463
 30
0.0
 41
7.0
 42
7.0
 43
7.0
  0
MTEXT
  5
B81F
330
B5FE
100
AcDbEntity
  8
SUNPOU
  6
Continuous
 62
     4
100
AcDbMText
 10
344.7452828382374
 20
165.4419096859463
 30
0.0
 40
6.0
 41
0.0
 71
     5
 72
     5
  1
\A1;170
 73
     1
 44
1.0
1001
ACAD
1000
MTEXTBEGIN
1070
    73
1070
     1
1070
    44
1040
1.0
1070
    74
1070
     0
1000
MTEXTEND
1000
MTEXTBEGIN
1070
    73
1070
     1
1070
    44
1040
1.0
1070
    74
1070
     0
1000
MTEXTEND
1000
MTEXTBEGIN
1070
    73
1070
     1
1070
    44
1040
1.0
1070
    74
1070
     0
1000
MTEXTEND
1000
MTEXTBEGIN
1070
    73
1070
     1
1070
    44
1040
1.0
1070
    74
1070
     0
1000
MTEXTEND
  0
POINT
  5
B820
330
B5FE
100
AcDbEntity
  8
DEFPOINTS
  6
Continuous
 62
     0
100
AcDbPoint
 10
259.7452828382373
 20
245.2513112879395
 30
0.0
  0
POINT
  5
B821
330
B5FE
100
AcDbEntity
  8
DEFPOINTS
  6
Continuous
 62
     0
100
AcDbPoint
 10
429.7452828382374
 20
215.2513112879612
 30
0.0
  0
POINT
  5
B822
330
B5FE
100
AcDbEntity
  8
DEFPOINTS
  6
Continuous
 62
     0
100
AcDbPoint
 10
429.7452828382374
 20
160.4419096859463
 30
0.0
  0
ENDBLK
  5
B609
330
B5FE
100
AcDbEntity
  8
0
100
AcDbBlockEnd
  0
BLOCK
  5
B614
330
B60A
100
AcDbEntity
  8
0
100
AcDbBlockBegin
  2
*D6
 70
     1
 10
0.0
 20
0.0
 30
0.0
  3
*D6
  1

  0
LINE
  5
B7FF
330
B60A
100
AcDbEntity
  8
SUNPOU
100
AcDbLine
 10
362.9662334999288
 20
378.9605821699612
 30
0.0
 11
362.9662334999288
 21
443.685429260638
 31
0.0
  0
LINE
  5
B800
330
B60A
100
AcDbEntity
  8
SUNPOU
100
AcDbLine
 10
259.7452828381592
 20
265.6604020459953
 30
0.0
 11
259.7452828381592
 21
443.685429260638
 31
0.0
  0
LINE
  5
B801
330
B60A
100
AcDbEntity
  8
SUNPOU
100
AcDbLine
 10
355.9662334999288
 20
440.685429260638
 30
0.0
 11
266.7452828381592
 21
440.685429260638
 31
0.0
  0
INSERT
  5
B802
330
B60A
100
AcDbEntity
  8
SUNPOU
100
AcDbBlockReference
  2
_OPEN
 10
362.9662334999288
 20
440.685429260638
 30
0.0
 41
7.0
 42
7.0
 43
7.0
  0
INSERT
  5
B803
330
B60A
100
AcDbEntity
  8
SUNPOU
100
AcDbBlockReference
  2
_OPEN
 10
259.7452828381592
 20
440.685429260638
 30
0.0
 41
7.0
 42
7.0
 43
7.0
 50
180.0
  0
MTEXT
  5
B804
330
B60A
100
AcDbEntity
  8
SUNPOU
100
AcDbMText
 10
311.355758169044
 20
445.685429260638
 30
0.0
 40
6.0
 41
0.0
 71
     5
 72
     5
  1
\A1;103
 73
     1
 44
1.0
1001
ACAD
1000
MTEXTBEGIN
1070
    73
1070
     1
1070
    44
1040
1.0
1070
    74
1070
     0
1000
MTEXTEND
1000
MTEXTBEGIN
1070
    73
1070
     1
1070
    44
1040
1.0
1070
    74
1070
     0
1000
MTEXTEND
1000
MTEXTBEGIN
1070
    73
1070
     1
1070
    44
1040
1.0
1070
    74
1070
     0
1000
MTEXTEND
1000
MTEXTBEGIN
1070
    73
1070
     1
1070
    44
1040
1.0
1070
    74
1070
     0
1000
MTEXTEND
  0
POINT
  5
B805
330
B60A
100
AcDbEntity
  8
DEFPOINTS
 62
     0
100
AcDbPoint
 10
362.9662334999288
 20
372.9605821699612
 30
0.0
  0
POINT
  5
B806
330
B60A
100
AcDbEntity
  8
DEFPOINTS
 62
     0
100
AcDbPoint
 10
259.7452828381592
 20
259.6604020459952
 30
0.0
  0
POINT
  5
B807
330
B60A
100
AcDbEntity
  8
DEFPOINTS
 62
     0
100
AcDbPoint
 10
259.7452828381592
 20
440.685429260638
 30
0.0
  0
ENDBLK
  5
B615
330
B60A
100
AcDbEntity
  8
0
100
AcDbBlockEnd
  0
BLOCK
  5
B620
330
B616
100
AcDbEntity
  8
0
100
AcDbBlockBegin
  2
*D7
 70
     1
 10
0.0
 20
0.0
 30
0.0
  3
*D7
  1

  0
LINE
  5
B7F6
330
B616
100
AcDbEntity
  8
SUNPOU
  6
Continuous
 62
     4
370
    -2
100
AcDbLine
 10
364.9661334979648
 20
212.9605821699624
 30
0.0
 11
377.4661334999289
 21
212.9605821699624
 31
0.0
  0
LINE
  5
B7F7
330
B616
100
AcDbEntity
  8
SUNPOU
  6
Continuous
 62
     4
370
    -2
100
AcDbLine
 10
368.9662334999288
 20
372.9605821699612
 30
0.0
 11
377.4661334999289
 21
372.9605821699612
 31
0.0
  0
LINE
  5
B7F8
330
B616
100
AcDbEntity
  8
SUNPOU
  6
Continuous
 62
     4
370
    -2
100
AcDbLine
 10
374.4661334999288
 20
219.9605821699623
 30
0.0
 11
374.4661334999288
 21
365.9605821699612
 31
0.0
  0
INSERT
  5
B7F9
330
B616
100
AcDbEntity
  8
SUNPOU
  6
Continuous
 62
     4
370
    -2
100
AcDbBlockReference
  2
_OPEN
 10
374.4661334999288
 20
212.9605821699624
 30
0.0
 41
7.0
 42
7.0
 43
7.0
 50
270.0
  0
INSERT
  5
B7FA
330
B616
100
AcDbEntity
  8
SUNPOU
  6
Continuous
 62
     4
370
    -2
100
AcDbBlockReference
  2
_OPEN
 10
374.4661334999288
 20
372.9605821699612
 30
0.0
 41
7.0
 42
7.0
 43
7.0
 50
90.0
  0
MTEXT
  5
B7FB
330
B616
100
AcDbEntity
  8
SUNPOU
  6
Continuous
 62
     4
100
AcDbMText
 10
369.4661334999288
 20
292.9605821699618
 30
0.0
 40
6.0
 41
0.0
 71
     5
 72
     5
  1
\A1;160
 11
0.0000000000000001
 21
1.0
 31
0.0
 73
     1
 44
1.0
1001
ACAD
1000
MTEXTBEGIN
1070
    73
1070
     1
1070
    44
1040
1.0
1070
    74
1070
     0
1000
MTEXTEND
1000
MTEXTBEGIN
1070
    73
1070
     1
1070
    44
1040
1.0
1070
    74
1070
     0
1000
MTEXTEND
1000
MTEXTBEGIN
1070
    73
1070
     1
1070
    44
1040
1.0
1070
    74
1070
     0
1000
MTEXTEND
1000
MTEXTBEGIN
1070
    73
1070
     1
1070
    44
1040
1.0
1070
    74
1070
     0
1000
MTEXTEND
  0
POINT
  5
B7FC
330
B616
100
AcDbEntity
  8
DEFPOINTS
  6
Continuous
 62
     0
100
AcDbPoint
 10
358.9661334979648
 20
212.9605821699624
 30
0.0
  0
POINT
  5
B7FD
330
B616
100
AcDbEntity
  8
DEFPOINTS
  6
Continuous
 62
     0
100
AcDbPoint
 10
362.9662334999288
 20
372.9605821699612
 30
0.0
  0
POINT
  5
B7FE
330
B616
100
AcDbEntity
  8
DEFPOINTS
  6
Continuous
 62
     0
100
AcDbPoint
 10
374.4661334999288
 20
372.9605821699612
 30
0.0
  0
ENDBLK
  5
B621
330
B616
100
AcDbEntity
  8
0
100
AcDbBlockEnd
  0
BLOCK
  5
B62C
330
B622
100
AcDbEntity
  8
0
100
AcDbBlockBegin
  2
*D8
 70
     1
 10
0.0
 20
0.0
 30
0.0
  3
*D8
  1

  0
LINE
  5
B835
330
B622
100
AcDbEntity
  8
SUNPOU
100
AcDbLine
 10
259.7452828381592
 20
265.6604020460533
 30
0.0
 11
259.7452828381592
 21
296.9733882962938
 31
0.0
  0
LINE
  5
B836
330
B622
100
AcDbEntity
  8
SUNPOU
100
AcDbLine
 10
301.3866379823841
 20
266.3816121564084
 30
0.0
 11
301.3866379823841
 21
296.9733882962938
 31
0.0
  0
LINE
  5
B837
330
B622
100
AcDbEntity
  8
SUNPOU
100
AcDbLine
 10
266.7452828381592
 20
293.9733882962938
 30
0.0
 11
294.3866379823841
 21
293.9733882962938
 31
0.0
  0
INSERT
  5
B838
330
B622
100
AcDbEntity
  8
SUNPOU
100
AcDbBlockReference
  2
_OPEN
 10
259.7452828381592
 20
293.9733882962938
 30
0.0
 41
7.0
 42
7.0
 43
7.0
 50
180.0
  0
INSERT
  5
B839
330
B622
100
AcDbEntity
  8
SUNPOU
100
AcDbBlockReference
  2
_OPEN
 10
301.3866379823841
 20
293.9733882962938
 30
0.0
 41
7.0
 42
7.0
 43
7.0
  0
MTEXT
  5
B83A
330
B622
100
AcDbEntity
  8
SUNPOU
100
AcDbMText
 10
280.5659604102716
 20
298.9733882962939
 30
0.0
 40
6.0
 41
0.0
 71
     5
 72
     5
  1
\A1;42
 73
     1
 44
1.0
1001
ACAD
1000
MTEXTBEGIN
1070
    73
1070
     1
1070
    44
1040
1.0
1070
    74
1070
     0
1000
MTEXTEND
1000
MTEXTBEGIN
1070
    73
1070
     1
1070
    44
1040
1.0
1070
    74
1070
     0
1000
MTEXTEND
1000
MTEXTBEGIN
1070
    73
1070
     1
1070
    44
1040
1.0
1070
    74
1070
     0
1000
MTEXTEND
1000
MTEXTBEGIN
1070
    73
1070
     1
1070
    44
1040
1.0
1070
    74
1070
     0
1000
MTEXTEND
  0
POINT
  5
B83B
330
B622
100
AcDbEntity
  8
DEFPOINTS
 62
     0
100
AcDbPoint
 10
259.7452828381592
 20
259.6604020460533
 30
0.0
  0
POINT
  5
B83C
330
B622
100
AcDbEntity
  8
DEFPOINTS
 62
     0
100
AcDbPoint
 10
301.3866379823841
 20
260.3816121564084
 30
0.0
  0
POINT
  5
B83D
330
B622
100
AcDbEntity
  8
DEFPOINTS
 62
     0
100
AcDbPoint
 10
301.3866379823841
 20
293.9733882962938
 30
0.0
  0
ENDBLK
  5
B62D
330
B622
100
AcDbEntity
  8
0
100
AcDbBlockEnd
  0
BLOCK
  5
B638
330
B62E
100
AcDbEntity
  8
0
100
AcDbBlockBegin
  2
*D9
 70
     1
 10
0.0
 20
0.0
 30
0.0
  3
*D9
  1

  0
LINE
  5
B82C
330
B62E
100
AcDbEntity
  8
SUNPOU
  6
Continuous
 62
     4
370
    -2
100
AcDbLine
 10
271.4411483429536
 20
264.611742389742
 30
0.0
 11
323.9683129582647
 21
264.611742389742
 31
0.0
  0
LINE
  5
B82D
330
B62E
100
AcDbEntity
  8
SUNPOU
  6
Continuous
 62
     4
370
    -2
100
AcDbLine
 10
314.9146267544288
 20
212.9635163796613
 30
0.0
 11
323.9683129582647
 21
212.9635163796613
 31
0.0
  0
LINE
  5
B82E
330
B62E
100
AcDbEntity
  8
SUNPOU
  6
Continuous
 62
     4
370
    -2
100
AcDbLine
 10
320.9683129582647
 20
257.611742389742
 30
0.0
 11
320.9683129582647
 21
219.9635163796612
 31
0.0
  0
INSERT
  5
B82F
330
B62E
100
AcDbEntity
  8
SUNPOU
  6
Continuous
 62
     4
370
    -2
100
AcDbBlockReference
  2
_OPEN
 10
320.9683129582647
 20
264.611742389742
 30
0.0
 41
7.0
 42
7.0
 43
7.0
 50
90.0
  0
INSERT
  5
B830
330
B62E
100
AcDbEntity
  8
SUNPOU
  6
Continuous
 62
     4
370
    -2
100
AcDbBlockReference
  2
_OPEN
 10
320.9683129582647
 20
212.9635163796613
 30
0.0
 41
7.0
 42
7.0
 43
7.0
 50
270.0
  0
MTEXT
  5
B831
330
B62E
100
AcDbEntity
  8
SUNPOU
  6
Continuous
 62
     4
100
AcDbMText
 10
315.9683129582646
 20
238.7876293847017
 30
0.0
 40
6.0
 41
0.0
 71
     5
 72
     5
  1
\A1;52
 11
0.0000000000000001
 21
1.0
 31
0.0
 73
     1
 44
1.0
1001
ACAD
1000
MTEXTBEGIN
1070
    73
1070
     1
1070
    44
1040
1.0
1070
    74
1070
     0
1000
MTEXTEND
1000
MTEXTBEGIN
1070
    73
1070
     1
1070
    44
1040
1.0
1070
    74
1070
     0
1000
MTEXTEND
1000
MTEXTBEGIN
1070
    73
1070
     1
1070
    44
1040
1.0
1070
    74
1070
     0
1000
MTEXTEND
1000
MTEXTBEGIN
1070
    73
1070
     1
1070
    44
1040
1.0
1070
    74
1070
     0
1000
MTEXTEND
  0
POINT
  5
B832
330
B62E
100
AcDbEntity
  8
DEFPOINTS
  6
Continuous
 62
     0
100
AcDbPoint
 10
265.4411483429536
 20
264.611742389742
 30
0.0
  0
POINT
  5
B833
330
B62E
100
AcDbEntity
  8
DEFPOINTS
  6
Continuous
 62
     0
100
AcDbPoint
 10
308.9146267544288
 20
212.9635163796613
 30
0.0
  0
POINT
  5
B834
330
B62E
100
AcDbEntity
  8
DEFPOINTS
  6
Continuous
 62
     0
100
AcDbPoint
 10
320.9683129582647
 20
212.9635163796613
 30
0.0
  0
ENDBLK
  5
B639
330
B62E
100
AcDbEntity
  8
0
100
AcDbBlockEnd
  0
BLOCK
  5
B644
330
B63A
100
AcDbEntity
  8
0
100
AcDbBlockBegin
  2
*D10
 70
     1
 10
0.0
 20
0.0
 30
0.0
  3
*D10
  1

  0
LINE
  5
B823
330
B63A
100
AcDbEntity
  8
SUNPOU
100
AcDbLine
 10
259.4411483429557
 20
264.6117423897886
 30
0.0
 11
227.4856454418811
 21
264.6117423897886
 31
0.0
  0
LINE
  5
B824
330
B63A
100
AcDbEntity
  8
SUNPOU
100
AcDbLine
 10
257.7452828382373
 20
241.2513112879612
 30
0.0
 11
227.4856454418811
 21
241.2513112879612
 31
0.0
  0
LINE
  5
B825
330
B63A
100
AcDbEntity
  8
SUNPOU
100
AcDbLine
 10
230.4856454418811
 20
257.6117423897887
 30
0.0
 11
230.4856454418811
 21
248.2513112879612
 31
0.0
  0
INSERT
  5
B826
330
B63A
100
AcDbEntity
  8
SUNPOU
100
AcDbBlockReference
  2
_OPEN
 10
230.4856454418811
 20
264.6117423897886
 30
0.0
 41
7.0
 42
7.0
 43
7.0
 50
90.0
  0
INSERT
  5
B827
330
B63A
100
AcDbEntity
  8
SUNPOU
100
AcDbBlockReference
  2
_OPEN
 10
230.4856454418811
 20
241.2513112879612
 30
0.0
 41
7.0
 42
7.0
 43
7.0
 50
270.0
  0
MTEXT
  5
B828
330
B63A
100
AcDbEntity
  8
SUNPOU
100
AcDbMText
 10
225.4856454418811
 20
252.931526838875
 30
0.0
 40
6.0
 41
0.0
 71
     5
 72
     5
  1
\A1;23
 11
0.0000000000000001
 21
1.0
 31
0.0
 73
     1
 44
1.0
1001
ACAD
1000
MTEXTBEGIN
1070
    73
1070
     1
1070
    44
1040
1.0
1070
    74
1070
     0
1000
MTEXTEND
1000
MTEXTBEGIN
1070
    73
1070
     1
1070
    44
1040
1.0
1070
    74
1070
     0
1000
MTEXTEND
1000
MTEXTBEGIN
1070
    73
1070
     1
1070
    44
1040
1.0
1070
    74
1070
     0
1000
MTEXTEND
1000
MTEXTBEGIN
1070
    73
1070
     1
1070
    44
1040
1.0
1070
    74
1070
     0
1000
MTEXTEND
  0
POINT
  5
B829
330
B63A
100
AcDbEntity
  8
DEFPOINTS
 62
     0
100
AcDbPoint
 10
265.4411483429557
 20
264.6117423897886
 30
0.0
  0
POINT
  5
B82A
330
B63A
100
AcDbEntity
  8
DEFPOINTS
 62
     0
100
AcDbPoint
 10
263.7452828382373
 20
241.2513112879612
 30
0.0
  0
POINT
  5
B82B
330
B63A
100
AcDbEntity
  8
DEFPOINTS
 62
     0
100
AcDbPoint
 10
230.4856454418811
 20
241.2513112879612
 30
0.0
  0
ENDBLK
  5
B645
330
B63A
100
AcDbEntity
  8
0
100
AcDbBlockEnd
  0
BLOCK
  5
B650
330
B646
100
AcDbEntity
  8
0
100
AcDbBlockBegin
  2
*D11
 70
     1
 10
0.0
 20
0.0
 30
0.0
  3
*D11
  1

  0
LINE
  5
B86A
330
B646
100
AcDbEntity
  8
SUNPOU
  6
Continuous
 62
     4
370
    -2
100
AcDbLine
 10
329.4661334999289
 20
378.9605821699612
 30
0.0
 11
329.4661334999289
 21
408.7745031699612
 31
0.0
  0
LINE
  5
B86B
330
B646
100
AcDbEntity
  8
SUNPOU
  6
Continuous
 62
     4
370
    -2
100
AcDbLine
 10
374.4661334999288
 20
378.9605821699612
 30
0.0
 11
374.4661334999288
 21
408.7745031699612
 31
0.0
  0
LINE
  5
B86C
330
B646
100
AcDbEntity
  8
SUNPOU
  6
Continuous
 62
     4
370
    -2
100
AcDbLine
 10
336.4661334999289
 20
405.7745031699613
 30
0.0
 11
367.4661334999289
 21
405.7745031699613
 31
0.0
  0
INSERT
  5
B86D
330
B646
100
AcDbEntity
  8
SUNPOU
  6
Continuous
 62
     4
370
    -2
100
AcDbBlockReference
  2
_OPEN
 10
329.4661334999289
 20
405.7745031699613
 30
0.0
 41
7.0
 42
7.0
 43
7.0
 50
180.0
  0
INSERT
  5
B86E
330
B646
100
AcDbEntity
  8
SUNPOU
  6
Continuous
 62
     4
370
    -2
100
AcDbBlockReference
  2
_OPEN
 10
374.4661334999288
 20
405.7745031699613
 30
0.0
 41
7.0
 42
7.0
 43
7.0
  0
MTEXT
  5
B86F
330
B646
100
AcDbEntity
  8
SUNPOU
  6
Continuous
 62
     4
100
AcDbMText
 10
351.9661334999288
 20
410.7745031699613
 30
0.0
 40
6.0
 41
0.0
 71
     5
 72
     5
  1
\A1;45
 73
     1
 44
1.0
1001
ACAD
1000
MTEXTBEGIN
1070
    73
1070
     1
1070
    44
1040
1.0
1070
    74
1070
     0
1000
MTEXTEND
1000
MTEXTBEGIN
1070
    73
1070
     1
1070
    44
1040
1.0
1070
    74
1070
     0
1000
MTEXTEND
1000
MTEXTBEGIN
1070
    73
1070
     1
1070
    44
1040
1.0
1070
    74
1070
     0
1000
MTEXTEND
1000
MTEXTBEGIN
1070
    73
1070
     1
1070
    44
1040
1.0
1070
    74
1070
     0
1000
MTEXTEND
  0
POINT
  5
B870
330
B646
100
AcDbEntity
  8
DEFPOINTS
  6
Continuous
 62
     0
100
AcDbPoint
 10
329.4661334999289
 20
372.9605821699612
 30
0.0
  0
POINT
  5
B871
330
B646
100
AcDbEntity
  8
DEFPOINTS
  6
Continuous
 62
     0
100
AcDbPoint
 10
374.4661334999288
 20
372.9605821699612
 30
0.0
  0
POINT
  5
B872
330
B646
100
AcDbEntity
  8
DEFPOINTS
  6
Continuous
 62
     0
100
AcDbPoint
 10
374.4661334999288
 20
405.7745031699613
 30
0.0
  0
ENDBLK
  5
B651
330
B646
100
AcDbEntity
  8
0
100
AcDbBlockEnd
  0
BLOCK
  5
B65B
330
B652
100
AcDbEntity
  8
0
100
AcDbBlockBegin
  2
*D12
 70
     1
 10
0.0
 20
0.0
 30
0.0
  3
*D12
  1

  0
LINE
  5
BD13
330
B652
100
AcDbEntity
  8
SUNPOU
  6
Continuous
 62
     4
100
AcDbLine
 10
528.1437231134823
 20
281.8338213124936
 30
0.0
 11
514.5950731134823
 21
281.8338213124936
 31
0.0
  0
LINE
  5
BD14
330
B652
100
AcDbEntity
  8
SUNPOU
  6
Continuous
 62
     4
100
AcDbLine
 10
517.5950731134824
 20
304.8338213124935
 30
0.0
 11
517.5950731134824
 21
288.8338213124936
 31
0.0
  0
INSERT
  5
BD15
330
B652
100
AcDbEntity
  8
SUNPOU
  6
Continuous
 62
     4
100
AcDbBlockReference
  2
_OPEN
 10
517.5950731134824
 20
311.8338213124935
 30
0.0
 41
7.0
 42
7.0
 43
7.0
 50
90.0
  0
INSERT
  5
BD16
330
B652
100
AcDbEntity
  8
SUNPOU
  6
Continuous
 62
     4
100
AcDbBlockReference
  2
_OPEN
 10
517.5950731134824
 20
281.8338213124936
 30
0.0
 41
7.0
 42
7.0
 43
7.0
 50
270.0
  0
MTEXT
  5
BD17
330
B652
100
AcDbEntity
  8
SUNPOU
  6
Continuous
 62
     4
100
AcDbMText
 10
512.5950731134822
 20
296.8338213124936
 30
0.0
 40
6.0
 41
0.0
 71
     5
 72
     5
  1
\A1;30
 11
0.0000000000000001
 21
1.0
 31
0.0
 73
     1
 44
1.0
  0
POINT
  5
BD18
330
B652
100
AcDbEntity
  8
DEFPOINTS
  6
Continuous
 62
     0
100
AcDbPoint
 10
534.1437231134823
 20
311.8338213124935
 30
0.0
  0
POINT
  5
BD19
330
B652
100
AcDbEntity
  8
DEFPOINTS
  6
Continuous
 62
     0
100
AcDbPoint
 10
534.1437231134823
 20
281.8338213124936
 30
0.0
  0
POINT
  5
BD1A
330
B652
100
AcDbEntity
  8
DEFPOINTS
  6
Continuous
 62
     0
100
AcDbPoint
 10
517.5950731134824
 20
281.8338213124936
 30
0.0
  0
ENDBLK
  5
B65C
330
B652
100
AcDbEntity
  8
0
100
AcDbBlockEnd
  0
BLOCK
  5
B667
330
B65D
100
AcDbEntity
  8
0
100
AcDbBlockBegin
  2
*D13
 70
     1
 10
0.0
 20
0.0
 30
0.0
  3
*D13
  1

  0
LINE
  5
B859
330
B65D
100
AcDbEntity
  8
SUNPOU
 62
     4
370
    -2
100
AcDbLine
 10
538.9136231134823
 20
203.4510855489612
 30
0.0
 11
538.9136231134823
 21
156.9354764676652
 31
0.0
  0
LINE
  5
B85A
330
B65D
100
AcDbEntity
  8
SUNPOU
 62
     4
370
    -2
100
AcDbLine
 10
568.9136231134823
 20
203.4510855489612
 30
0.0
 11
568.9136231134823
 21
156.9354764676652
 31
0.0
  0
LINE
  5
B85B
330
B65D
100
AcDbEntity
  8
SUNPOU
 62
     4
370
    -2
100
AcDbLine
 10
543.9136231134823
 20
158.4354764676652
 30
0.0
 11
563.9136231134823
 21
158.4354764676652
 31
0.0
  0
INSERT
  5
B85C
330
B65D
100
AcDbEntity
  8
SUNPOU
 62
     4
370
    -2
100
AcDbBlockReference
  2
_OPEN
 10
538.9136231134823
 20
158.4354764676652
 30
0.0
 41
5.0
 42
5.0
 43
5.0
 50
180.0
  0
INSERT
  5
B85D
330
B65D
100
AcDbEntity
  8
SUNPOU
 62
     4
370
    -2
100
AcDbBlockReference
  2
_OPEN
 10
568.9136231134823
 20
158.4354764676652
 30
0.0
 41
5.0
 42
5.0
 43
5.0
  0
MTEXT
  5
B85E
330
B65D
100
AcDbEntity
  8
SUNPOU
 62
     4
100
AcDbMText
 10
553.9136231134823
 20
161.9354764676652
 30
0.0
 40
5.0
 41
0.0
 71
     5
 72
     5
  1
\A1;30
 73
     1
 44
1.0
1001
ACAD
1000
MTEXTBEGIN
1070
    73
1070
     1
1070
    44
1040
1.0
1070
    74
1070
     0
1000
MTEXTEND
1000
MTEXTBEGIN
1070
    73
1070
     1
1070
    44
1040
1.0
1070
    74
1070
     0
1000
MTEXTEND
1000
MTEXTBEGIN
1070
    73
1070
     1
1070
    44
1040
1.0
1070
    74
1070
     0
1000
MTEXTEND
1000
MTEXTBEGIN
1070
    73
1070
     1
1070
    44
1040
1.0
1070
    74
1070
     0
1000
MTEXTEND
  0
POINT
  5
B85F
330
B65D
100
AcDbEntity
  8
DEFPOINTS
 62
     0
100
AcDbPoint
 10
538.9136231134823
 20
210.4510855489612
 30
0.0
  0
POINT
  5
B860
330
B65D
100
AcDbEntity
  8
DEFPOINTS
 62
     0
100
AcDbPoint
 10
568.9136231134823
 20
210.4510855489612
 30
0.0
  0
POINT
  5
B861
330
B65D
100
AcDbEntity
  8
DEFPOINTS
 62
     0
100
AcDbPoint
 10
568.9136231134823
 20
158.4354764676652
 30
0.0
  0
ENDBLK
  5
B668
330
B65D
100
AcDbEntity
  8
0
100
AcDbBlockEnd
  0
BLOCK
  5
B673
330
B669
100
AcDbEntity
  8
0
100
AcDbBlockBegin
  2
*D14
 70
     1
 10
0.0
 20
0.0
 30
0.0
  3
*D14
  1

  0
LINE
  5
B850
330
B669
100
AcDbEntity
  8
SUNPOU
100
AcDbLine
 10
430.0494173334479
 20
234.6117423897201
 30
0.0
 11
458.1682449657441
 21
234.6117423897201
 31
0.0
  0
LINE
  5
B851
330
B669
100
AcDbEntity
  8
SUNPOU
100
AcDbLine
 10
431.7452828380307
 20
211.2513112880276
 30
0.0
 11
458.1682449657441
 21
211.2513112880276
 31
0.0
  0
LINE
  5
B852
330
B669
100
AcDbEntity
  8
SUNPOU
100
AcDbLine
 10
455.1682449657441
 20
227.6117423897201
 30
0.0
 11
455.1682449657441
 21
218.2513112880276
 31
0.0
  0
INSERT
  5
B853
330
B669
100
AcDbEntity
  8
SUNPOU
100
AcDbBlockReference
  2
_OPEN
 10
455.1682449657441
 20
234.6117423897201
 30
0.0
 41
7.0
 42
7.0
 43
7.0
 50
90.0
  0
INSERT
  5
B854
330
B669
100
AcDbEntity
  8
SUNPOU
100
AcDbBlockReference
  2
_OPEN
 10
455.1682449657441
 20
211.2513112880276
 30
0.0
 41
7.0
 42
7.0
 43
7.0
 50
270.0
  0
MTEXT
  5
B855
330
B669
100
AcDbEntity
  8
SUNPOU
100
AcDbMText
 10
450.1682449657441
 20
222.9315268388739
 30
0.0
 40
6.0
 41
0.0
 71
     5
 72
     5
  1
\A1;23
 11
0.0000000000000001
 21
1.0
 31
0.0
 73
     1
 44
1.0
1001
ACAD
1000
MTEXTBEGIN
1070
    73
1070
     1
1070
    44
1040
1.0
1070
    74
1070
     0
1000
MTEXTEND
1000
MTEXTBEGIN
1070
    73
1070
     1
1070
    44
1040
1.0
1070
    74
1070
     0
1000
MTEXTEND
1000
MTEXTBEGIN
1070
    73
1070
     1
1070
    44
1040
1.0
1070
    74
1070
     0
1000
MTEXTEND
1000
MTEXTBEGIN
1070
    73
1070
     1
1070
    44
1040
1.0
1070
    74
1070
     0
1000
MTEXTEND
  0
POINT
  5
B856
330
B669
100
AcDbEntity
  8
DEFPOINTS
 62
     0
100
AcDbPoint
 10
424.049417333448
 20
234.6117423897201
 30
0.0
  0
POINT
  5
B857
330
B669
100
AcDbEntity
  8
DEFPOINTS
 62
     0
100
AcDbPoint
 10
425.7452828380308
 20
211.2513112880276
 30
0.0
  0
POINT
  5
B858
330
B669
100
AcDbEntity
  8
DEFPOINTS
 62
     0
100
AcDbPoint
 10
455.1682449657441
 20
211.2513112880276
 30
0.0
  0
ENDBLK
  5
B674
330
B669
100
AcDbEntity
  8
0
100
AcDbBlockEnd
  0
BLOCK
  5
B67F
330
B675
100
AcDbEntity
  8
0
100
AcDbBlockBegin
  2
*D15
 70
     1
 10
0.0
 20
0.0
 30
0.0
  3
*D15
  1

  0
LINE
  5
B847
330
B675
100
AcDbEntity
  8
SUNPOU
  6
Continuous
 62
     4
370
    -2
100
AcDbLine
 10
431.7452828380428
 20
211.2513112879612
 30
0.0
 11
458.1682449657441
 21
211.2513112879612
 31
0.0
  0
LINE
  5
B848
330
B675
100
AcDbEntity
  8
SUNPOU
  6
Continuous
 62
     4
370
    -2
100
AcDbLine
 10
424.1452828381827
 20
178.4513112879612
 30
0.0
 11
458.1682449657441
 21
178.4513112879612
 31
0.0
  0
LINE
  5
B849
330
B675
100
AcDbEntity
  8
SUNPOU
  6
Continuous
 62
     4
370
    -2
100
AcDbLine
 10
455.1682449657441
 20
204.2513112879612
 30
0.0
 11
455.1682449657441
 21
185.4513112879612
 31
0.0
  0
INSERT
  5
B84A
330
B675
100
AcDbEntity
  8
SUNPOU
  6
Continuous
 62
     4
370
    -2
100
AcDbBlockReference
  2
_OPEN
 10
455.1682449657441
 20
211.2513112879612
 30
0.0
 41
7.0
 42
7.0
 43
7.0
 50
90.0
  0
INSERT
  5
B84B
330
B675
100
AcDbEntity
  8
SUNPOU
  6
Continuous
 62
     4
370
    -2
100
AcDbBlockReference
  2
_OPEN
 10
455.1682449657441
 20
178.4513112879612
 30
0.0
 41
7.0
 42
7.0
 43
7.0
 50
270.0
  0
MTEXT
  5
B84C
330
B675
100
AcDbEntity
  8
SUNPOU
  6
Continuous
 62
     4
100
AcDbMText
 10
450.1682449657441
 20
194.8513112879613
 30
0.0
 40
6.0
 41
0.0
 71
     5
 72
     5
  1
\A1;33
 11
0.0000000000000001
 21
1.0
 31
0.0
 73
     1
 44
1.0
1001
ACAD
1000
MTEXTBEGIN
1070
    73
1070
     1
1070
    44
1040
1.0
1070
    74
1070
     0
1000
MTEXTEND
1000
MTEXTBEGIN
1070
    73
1070
     1
1070
    44
1040
1.0
1070
    74
1070
     0
1000
MTEXTEND
1000
MTEXTBEGIN
1070
    73
1070
     1
1070
    44
1040
1.0
1070
    74
1070
     0
1000
MTEXTEND
1000
MTEXTBEGIN
1070
    73
1070
     1
1070
    44
1040
1.0
1070
    74
1070
     0
1000
MTEXTEND
  0
POINT
  5
B84D
330
B675
100
AcDbEntity
  8
DEFPOINTS
  6
Continuous
 62
     0
100
AcDbPoint
 10
425.7452828380428
 20
211.2513112879612
 30
0.0
  0
POINT
  5
B84E
330
B675
100
AcDbEntity
  8
DEFPOINTS
  6
Continuous
 62
     0
100
AcDbPoint
 10
418.1452828381827
 20
178.4513112879612
 30
0.0
  0
POINT
  5
B84F
330
B675
100
AcDbEntity
  8
DEFPOINTS
  6
Continuous
 62
     0
100
AcDbPoint
 10
455.1682449657441
 20
178.4513112879612
 30
0.0
  0
ENDBLK
  5
B680
330
B675
100
AcDbEntity
  8
0
100
AcDbBlockEnd
  0
BLOCK
  5
B68B
330
B681
100
AcDbEntity
  8
0
100
AcDbBlockBegin
  2
*D16
 70
     1
 10
0.0
 20
0.0
 30
0.0
  3
*D16
  1

  0
LINE
  5
B873
330
B681
100
AcDbEntity
  8
SUNPOU
  6
Continuous
 62
     4
370
    -2
100
AcDbLine
 10
539.4136231134823
 20
377.8338213124935
 30
0.0
 11
539.4136231134823
 21
402.5331263124937
 31
0.0
  0
LINE
  5
B874
330
B681
100
AcDbEntity
  8
SUNPOU
  6
Continuous
 62
     4
370
    -2
100
AcDbLine
 10
568.4136231134823
 20
377.8338213124935
 30
0.0
 11
568.4136231134823
 21
402.5331263124937
 31
0.0
  0
LINE
  5
B875
330
B681
100
AcDbEntity
  8
SUNPOU
  6
Continuous
 62
     4
370
    -2
100
AcDbLine
 10
546.4136231134823
 20
399.5331263124937
 30
0.0
 11
561.4136231134823
 21
399.5331263124937
 31
0.0
  0
INSERT
  5
B876
330
B681
100
AcDbEntity
  8
SUNPOU
  6
Continuous
 62
     4
370
    -2
100
AcDbBlockReference
  2
_OPEN
 10
539.4136231134823
 20
399.5331263124937
 30
0.0
 41
7.0
 42
7.0
 43
7.0
 50
180.0
  0
INSERT
  5
B877
330
B681
100
AcDbEntity
  8
SUNPOU
  6
Continuous
 62
     4
370
    -2
100
AcDbBlockReference
  2
_OPEN
 10
568.4136231134823
 20
399.5331263124937
 30
0.0
 41
7.0
 42
7.0
 43
7.0
  0
MTEXT
  5
B878
330
B681
100
AcDbEntity
  8
SUNPOU
  6
Continuous
 62
     4
100
AcDbMText
 10
553.9136231134823
 20
404.5331263124936
 30
0.0
 40
6.0
 41
0.0
 71
     5
 72
     5
  1
\A1;29
 73
     1
 44
1.0
1001
ACAD
1000
MTEXTBEGIN
1070
    73
1070
     1
1070
    44
1040
1.0
1070
    74
1070
     0
1000
MTEXTEND
1000
MTEXTBEGIN
1070
    73
1070
     1
1070
    44
1040
1.0
1070
    74
1070
     0
1000
MTEXTEND
1000
MTEXTBEGIN
1070
    73
1070
     1
1070
    44
1040
1.0
1070
    74
1070
     0
1000
MTEXTEND
1000
MTEXTBEGIN
1070
    73
1070
     1
1070
    44
1040
1.0
1070
    74
1070
     0
1000
MTEXTEND
  0
POINT
  5
B879
330
B681
100
AcDbEntity
  8
DEFPOINTS
  6
Continuous
 62
     0
100
AcDbPoint
 10
539.4136231134823
 20
371.8338213124935
 30
0.0
  0
POINT
  5
B87A
330
B681
100
AcDbEntity
  8
DEFPOINTS
  6
Continuous
 62
     0
100
AcDbPoint
 10
568.4136231134823
 20
371.8338213124935
 30
0.0
  0
POINT
  5
B87B
330
B681
100
AcDbEntity
  8
DEFPOINTS
  6
Continuous
 62
     0
100
AcDbPoint
 10
568.4136231134823
 20
399.5331263124937
 30
0.0
  0
ENDBLK
  5
B68C
330
B681
100
AcDbEntity
  8
0
100
AcDbBlockEnd
  0
BLOCK
  5
B699
330
B68D
100
AcDbEntity
  8
0
100
AcDbBlockBegin
  2
*D17
 70
     1
 10
0.0
 20
0.0
 30
0.0
  3
*D17
  1

  0
LINE
  5
B7EB
330
B68D
100
AcDbEntity
  8
SUNPOU
  6
Continuous
 62
     4
370
    -2
100
AcDbLine
 10
533.4136231134823
 20
371.8338213124935
 30
0.0
 11
514.6370548210523
 21
371.8338213124935
 31
0.0
  0
LINE
  5
B7EC
330
B68D
100
AcDbEntity
  8
SUNPOU
  6
Continuous
 62
     4
370
    -2
100
AcDbLine
 10
528.1437231134823
 20
356.8338213124935
 30
0.0
 11
514.6370548210523
 21
356.8338213124935
 31
0.0
  0
LINE
  5
B7ED
330
B68D
100
AcDbEntity
  8
SUNPOU
  6
Continuous
 62
     4
370
    -2
100
AcDbLine
 10
517.6370548210522
 20
378.8338213124935
 30
0.0
 11
517.6370548210522
 21
385.8338213124935
 31
0.0
  0
LINE
  5
B7EE
330
B68D
100
AcDbEntity
  8
SUNPOU
  6
Continuous
 62
     4
370
    -2
100
AcDbLine
 10
517.6370548210522
 20
349.8338213124935
 30
0.0
 11
517.6370548210522
 21
342.8338213124935
 31
0.0
  0
LINE
  5
B7EF
330
B68D
100
AcDbEntity
  8
SUNPOU
  6
Continuous
 62
     4
370
    -2
100
AcDbLine
 10
517.6370548210522
 20
371.8338213124935
 30
0.0
 11
517.6370548210522
 21
356.8338213124935
 31
0.0
  0
INSERT
  5
B7F0
330
B68D
100
AcDbEntity
  8
SUNPOU
  6
Continuous
 62
     4
370
    -2
100
AcDbBlockReference
  2
_OPEN
 10
517.6370548210522
 20
371.8338213124935
 30
0.0
 41
7.0
 42
7.0
 43
7.0
 50
270.0
  0
INSERT
  5
B7F1
330
B68D
100
AcDbEntity
  8
SUNPOU
  6
Continuous
 62
     4
370
    -2
100
AcDbBlockReference
  2
_OPEN
 10
517.6370548210522
 20
356.8338213124935
 30
0.0
 41
7.0
 42
7.0
 43
7.0
 50
90.0
  0
MTEXT
  5
B7F2
330
B68D
100
AcDbEntity
  8
SUNPOU
  6
Continuous
 62
     4
100
AcDbMText
 10
512.6370548210521
 20
364.3338213124936
 30
0.0
 40
6.0
 41
0.0
 71
     5
 72
     5
  1
\A1;15
 11
0.0000000000000001
 21
1.0
 31
0.0
 73
     1
 44
1.0
1001
ACAD
1000
MTEXTBEGIN
1070
    73
1070
     1
1070
    44
1040
1.0
1070
    74
1070
     0
1000
MTEXTEND
1000
MTEXTBEGIN
1070
    73
1070
     1
1070
    44
1040
1.0
1070
    74
1070
     0
1000
MTEXTEND
1000
MTEXTBEGIN
1070
    73
1070
     1
1070
    44
1040
1.0
1070
    74
1070
     0
1000
MTEXTEND
1000
MTEXTBEGIN
1070
    73
1070
     1
1070
    44
1040
1.0
1070
    74
1070
     0
1000
MTEXTEND
  0
POINT
  5
B7F3
330
B68D
100
AcDbEntity
  8
DEFPOINTS
  6
Continuous
 62
     0
100
AcDbPoint
 10
539.4136231134823
 20
371.8338213124935
 30
0.0
  0
POINT
  5
B7F4
330
B68D
100
AcDbEntity
  8
DEFPOINTS
  6
Continuous
 62
     0
100
AcDbPoint
 10
534.1437231134823
 20
356.8338213124935
 30
0.0
  0
POINT
  5
B7F5
330
B68D
100
AcDbEntity
  8
DEFPOINTS
  6
Continuous
 62
     0
100
AcDbPoint
 10
517.6370548210522
 20
356.8338213124935
 30
0.0
  0
ENDBLK
  5
B69A
330
B68D
100
AcDbEntity
  8
0
100
AcDbBlockEnd
  0
BLOCK
  5
B6A4
330
B69B
100
AcDbEntity
  8
0
100
AcDbBlockBegin
  2
*D18
 70
     1
 10
0.0
 20
0.0
 30
0.0
  3
*D18
  1

  0
LINE
  5
BD1B
330
B69B
100
AcDbEntity
  8
SUNPOU
  6
Continuous
 62
     4
100
AcDbLine
 10
528.1437231134823
 20
311.8338213124935
 30
0.0
 11
514.5950731134823
 21
311.8338213124935
 31
0.0
  0
LINE
  5
BD1C
330
B69B
100
AcDbEntity
  8
SUNPOU
  6
Continuous
 62
     4
100
AcDbLine
 10
517.5950731134824
 20
349.8338213124935
 30
0.0
 11
517.5950731134824
 21
318.8338213124935
 31
0.0
  0
INSERT
  5
BD1D
330
B69B
100
AcDbEntity
  8
SUNPOU
  6
Continuous
 62
     4
100
AcDbBlockReference
  2
_OPEN
 10
517.5950731134824
 20
356.8338213124935
 30
0.0
 41
7.0
 42
7.0
 43
7.0
 50
90.0
  0
INSERT
  5
BD1E
330
B69B
100
AcDbEntity
  8
SUNPOU
  6
Continuous
 62
     4
100
AcDbBlockReference
  2
_OPEN
 10
517.5950731134824
 20
311.8338213124935
 30
0.0
 41
7.0
 42
7.0
 43
7.0
 50
270.0
  0
MTEXT
  5
BD1F
330
B69B
100
AcDbEntity
  8
SUNPOU
  6
Continuous
 62
     4
100
AcDbMText
 10
512.5950731134822
 20
334.3338213124936
 30
0.0
 40
6.0
 41
0.0
 71
     5
 72
     5
  1
\A1;45
 11
0.0000000000000001
 21
1.0
 31
0.0
 73
     1
 44
1.0
  0
POINT
  5
BD20
330
B69B
100
AcDbEntity
  8
DEFPOINTS
  6
Continuous
 62
     0
100
AcDbPoint
 10
534.1437231134823
 20
356.8338213124935
 30
0.0
  0
POINT
  5
BD21
330
B69B
100
AcDbEntity
  8
DEFPOINTS
  6
Continuous
 62
     0
100
AcDbPoint
 10
534.1437231134823
 20
311.8338213124935
 30
0.0
  0
POINT
  5
BD22
330
B69B
100
AcDbEntity
  8
DEFPOINTS
  6
Continuous
 62
     0
100
AcDbPoint
 10
517.5950731134824
 20
311.8338213124935
 30
0.0
  0
ENDBLK
  5
B6A5
330
B69B
100
AcDbEntity
  8
0
100
AcDbBlockEnd
  0
ENDSEC
  0
SECTION
  2
ENTITIES
  0
LWPOLYLINE
  5
6C0
330
1A
100
AcDbEntity
  8
ZUWAKU
100
AcDbPolyline
 90
        4
 70
     1
 43
0.0
 10
10.85047808566059
 20
564.5825862828226
 10
10.85047808566059
 20
14.58258628282271
 10
806.8504780856606
 20
14.58258628282271
 10
806.8504780856606
 20
564.5825862828226
  0
LWPOLYLINE
  5
6C1
330
1A
100
AcDbEntity
  8
ZUWAKU
100
AcDbPolyline
 90
        4
 70
     1
 43
0.0
 10
10.45047808566073
 20
564.9825862828227
 10
10.45047808566073
 20
14.18258628282274
 10
807.2504780856606
 20
14.18258628282272
 10
807.2504780856606
 20
564.9825862828227
  0
LWPOLYLINE
  5
6C2
330
1A
100
AcDbEntity
  8
ZUWAKU
100
AcDbPolyline
 90
        4
 70
     1
 43
0.0
 10
10.05047808566086
 20
565.3825862828226
 10
10.05047808566086
 20
13.78258628282265
 10
807.6504780856607
 20
13.78258628282271
 10
807.6504780856607
 20
565.3825862828227
  0
LWPOLYLINE
  5
6C3
330
1A
100
AcDbEntity
  8
ZUWAKU
100
AcDbPolyline
 90
        4
 70
     1
 43
0.0
 10
10.65047808566077
 20
564.7825862828227
 10
10.65047808566077
 20
14.38258628282267
 10
807.0504780856609
 20
14.38258628282271
 10
807.0504780856609
 20
564.7825862828227
  0
LWPOLYLINE
  5
6C4
330
1A
100
AcDbEntity
  8
ZUWAKU
100
AcDbPolyline
 90
        4
 70
     1
 43
0.0
 10
10.25047808566068
 20
565.1825862828227
 10
10.25047808566068
 20
13.98258628282269
 10
807.4504780856605
 20
13.98258628282271
 10
807.450478085661
 20
565.1825862828227
  0
LINE
  5
6C5
330
1A
100
AcDbEntity
  8
ZUWAKU
100
AcDbLine
 10
10.05047808566086
 20
43.78258628282265
 30
0.0
 11
807.4504780856605
 21
43.78258628282265
 31
0.0
  0
LINE
  5
6C6
330
1A
100
AcDbEntity
  8
ZUWAKU
100
AcDbLine
 10
10.05047808566086
 20
43.98258628282265
 30
0.0
 11
807.4504780856605
 21
43.98258628282265
 31
0.0
  0
LINE
  5
6C7
330
1A
100
AcDbEntity
  8
ZUWAKU
100
AcDbLine
 10
10.05047808566086
 20
44.18258628282266
 30
0.0
 11
807.4504780856605
 21
44.18258628282266
 31
0.0
  0
LINE
  5
6C8
330
1A
100
AcDbEntity
  8
ZUWAKU
100
AcDbLine
 10
10.05047808566086
 20
44.38258628282265
 30
0.0
 11
807.4504780856605
 21
44.38258628282265
 31
0.0
  0
LINE
  5
6C9
330
1A
100
AcDbEntity
  8
ZUWAKU
100
AcDbLine
 10
10.05047808566086
 20
44.58258628282266
 30
0.0
 11
807.4504780856605
 21
44.58258628282266
 31
0.0
  0
LINE
  5
6CA
330
1A
100
AcDbEntity
  8
ZUWAKU
100
AcDbLine
 10
218.6970793757286
 20
29.18258628282268
 30
0.0
 11
457.474842056652
 21
29.18258628282268
 31
0.0
  0
LINE
  5
6CB
330
1A
100
AcDbEntity
  8
ZUWAKU
100
AcDbLine
 10
218.6970793757286
 20
29.38258628282268
 30
0.0
 11
457.474842056652
 21
29.38258628282268
 31
0.0
  0
LINE
  5
6CC
330
1A
100
AcDbEntity
  8
ZUWAKU
100
AcDbLine
 10
218.6970793757286
 20
28.98258628282269
 30
0.0
 11
457.474842056652
 21
28.98258628282268
 31
0.0
  0
LINE
  5
6D2
330
1A
100
AcDbEntity
  8
ZUWAKU
100
AcDbLine
 10
22.57284175945824
 20
29.44753577648383
 30
0.0
 11
25.48263973410303
 21
26.53773780183917
 31
0.0
  0
LINE
  5
6D3
330
1A
100
AcDbEntity
  8
ZUWAKU
100
AcDbLine
 10
27.46253872142551
 20
28.51763678916148
 30
0.0
 11
24.55274074678072
 21
31.42743476380615
 31
0.0
  0
ARC
  5
6D4
330
1A
100
AcDbEntity
  8
ZUWAKU
100
AcDbCircle
 10
24.66769024044197
 20
33.70758628282265
 30
0.0
 40
0.525
100
AcDbArc
 50
90.0
 51
180.0
  0
LINE
  5
6D5
330
1A
100
AcDbEntity
  8
ZUWAKU
100
AcDbLine
 10
24.14269024044187
 20
37.03258628282265
 30
0.0
 11
27.64269024044188
 21
37.03258628282265
 31
0.0
  0
LINE
  5
6D6
330
1A
100
AcDbEntity
  8
ZUWAKU
100
AcDbLine
 10
22.39269024044188
 20
23.73258628282265
 30
0.0
 11
25.36769024044179
 21
23.73258628282265
 31
0.0
  0
LINE
  5
6D7
330
1A
100
AcDbEntity
  8
ZUWAKU
100
AcDbLine
 10
22.39269024044188
 20
20.93258628282265
 30
0.0
 11
25.89269024044188
 21
20.93258628282265
 31
0.0
  0
INSERT
  5
6D8
330
1A
100
AcDbEntity
  8
ZUWAKU
  6
Continuous
100
AcDbBlockReference
  2
*X1
 10
12.342212154781
 20
7.675000000000004
 30
0.0
1001
ACAD
1000
HATCH
1002
{
1070
    19
1000
ANSI37
1040
0.2
1040
0.0
1000
R14_HATCH_DATA
1000
4E4
1011
13.34221215478101
1021
7.675000000000004
1031
0.0
1011
12.342212154781
1021
8.675000000000004
1031
0.0
1011
12.342212154781
1021
7.675000000000004
1031
1.0
1040
0.0
1010
0.0
1020
0.0
1030
1.0
1000
ANSI37
1070
     0
1070
     0
1071
        8
1071
        7
1070
     1
1070
     1
1071
       24
1040
12.2105285919996
1040
23.75243476380622
1040
-0.1989123673796348
1040
11.80047808566087
1040
24.74238425746728
1040
0.0
1040
11.80047808566087
1040
26.03258628282265
1040
-0.4142135623730912
1040
12.32547808566084
1040
26.55758628282264
1040
0.0
1040
15.30047808566075
1040
26.55758628282264
1040
0.4142135623731546
1040
15.82547808566084
1040
27.08258628282264
1040
0.0
1040
15.82547808566084
1040
28.83258628282265
1040
0.4142135623731586
1040
15.30047808566075
1040
29.35758628282265
1040
0.0
1040
11.80047808566087
1040
29.35758628282265
1040
0.4142135623730928
1040
9.000478085660915
1040
26.55758628282267
1040
0.0
1040
9.000478085660915
1040
24.7423842574674
1040
0.1989123673796619
1040
10.23062960467734
1040
21.7725357764838
1040
0.0
1040
13.14042757932202
1040
18.86273780183914
1040
-0.1989123673796613
1040
13.55047808566087
1040
17.87278830817795
1040
0.0
1040
13.55047808566087
1040
16.58258628282264
1040
-0.4142135623730911
1040
13.02547808566089
1040
16.05758628282264
1040
0.0
1040
10.05047808566098
1040
16.05758628282264
1040
0.4142135623731526
1040
9.525478085660893
1040
15.53258628282265
1040
0.0
1040
9.525478085660893
1040
13.78258628282263
1040
0.4142135623731526
1040
10.05047808566098
1040
13.25758628282265
1040
0.0
1040
13.55047808566087
1040
13.25758628282265
1040
0.4142135623731044
1040
16.35047808566094
1040
16.05758628282262
1040
0.0
1040
16.35047808566094
1040
17.87278830817789
1040
0.1989123673796604
1040
15.12032656664439
1040
20.84263678916144
1040
0.0
1071
        0
1071
        7
1070
     1
1070
     1
1071
       16
1040
21.25047808566091
1040
25.15758628282265
1040
-0.4142135623730935
1040
22.65047808566089
1040
26.55758628282264
1040
0.0
1040
24.57547808566085
1040
26.55758628282264
1040
0.4142135623731546
1040
25.10047808566094
1040
27.08258628282264
1040
0.0
1040
25.10047808566094
1040
28.83258628282265
1040
0.4142135623730951
1040
24.57547808566096
1040
29.35758628282265
1040
0.0
1040
22.65047808566078
1040
29.35758628282261
1040
0.4142135623730892
1040
18.45047808566084
1040
25.15758628282258
1040
0.0
1040
18.45047808566084
1040
17.45758628282267
1040
0.4142135623730969
1040
22.65047808566089
1040
13.25758628282265
1040
0.0
1040
24.57547808566085
1040
13.25758628282265
1040
0.4142135623731526
1040
25.10047808566094
1040
13.78258628282263
1040
0.0
1040
25.10047808566094
1040
15.53258628282265
1040
0.4142135623730891
1040
24.57547808566096
1040
16.05758628282264
1040
0.0
1040
22.65047808566089
1040
16.05758628282264
1040
-0.4142135623730928
1040
21.25047808566091
1040
17.45758628282263
1040
0.0
1071
        0
1071
        7
1070
     1
1070
     1
1071
        2
1040
21.95047808566084
1040
21.30758628282265
1040
1.0
1040
25.45047808566085
1040
21.30758628282265
1040
1.0
1071
        0
1071
        7
1070
     1
1070
     1
1071
       26
1040
35.02312456783886
1040
25.31263347638607
1040
0.0
1040
36.08476420097668
1040
28.67449231465566
1040
0.5069206636600134
1040
35.58413330178132
1040
29.35758628282265
1040
0.0
1040
33.88524392217209
1040
29.35758628282265
1040
0.3272098845218764
1040
33.38461302297673
1040
28.99068025098962
1040
0.0
1040
31.51634314834495
1040
23.07449231465573
1040
-0.3272098845219541
1040
31.01571224914948
1040
22.70758628282264
1040
0.0
1040
30.87547808566103
1040
22.70758628282264
1040
-0.4142135623731526
1040
30.35047808566094
1040
23.23258628282263
1040
0.0
1040
30.35047808566094
1040
28.83258628282265
1040
0.4142135623730951
1040
29.82547808566096
1040
29.35758628282265
1040
0.0
1040
28.07547808566084
1040
29.35758628282265
1040
0.4142135623730871
1040
27.55047808566087
1040
28.83258628282266
1040
0.0
1040
27.55047808566087
1040
13.78258628282263
1040
0.4142135623730891
1040
28.07547808566084
1040
13.25758628282265
1040
0.0
1040
29.82547808566085
1040
13.25758628282265
1040
0.4142135623731526
1040
30.35047808566094
1040
13.78258628282263
1040
0.0
1040
30.35047808566094
1040
19.38258628282266
1040
-0.4142135623731526
1040
30.87547808566103
1040
19.90758628282264
1040
0.0
1040
31.0157122491496
1040
19.90758628282264
1040
-0.3272098845218915
1040
31.51634314834495
1040
19.54068025098957
1040
0.0
1040
33.38461302297673
1040
13.62449231465572
1040
0.3272098845218902
1040
33.88524392217209
1040
13.25758628282265
1040
0.0
1040
35.58413330178132
1040
13.25758628282265
1040
0.5069206636600335
1040
36.08476420097668
1040
13.94068025098965
1040
0.0
1040
33.75837282250301
1040
21.30758628282279
1040
0.0
1071
        0
1071
        7
1070
     1
1070
     1
1071
        8
1040
41.20047808566084
1040
28.83258628282266
1040
0.4142135623731546
1040
40.67547808566075
1040
29.35758628282265
1040
0.0
1040
38.92547808566098
1040
29.35758628282265
1040
0.4142135623731507
1040
38.40047808566089
1040
28.83258628282266
1040
0.0
1040
38.40047808566089
1040
13.78258628282263
1040
0.4142135623731526
1040
38.92547808566098
1040
13.25758628282265
1040
0.0
1040
40.67547808566075
1040
13.25758628282265
1040
0.4142135623731526
1040
41.20047808566084
1040
13.78258628282263
1040
0.0
1071
        0
1071
        7
1070
     1
1070
     1
1071
       24
1040
46.10047808566093
1040
26.03258628282265
1040
-0.4142135623731546
1040
46.62547808566102
1040
26.55758628282264
1040
0.0
1040
49.60047808566094
1040
26.55758628282264
1040
0.4142135623730911
1040
50.12547808566091
1040
27.08258628282264
1040
0.0
1040
50.12547808566091
1040
28.83258628282265
1040
0.4142135623730952
1040
49.60047808566094
1040
29.35758628282265
1040
0.0
1040
46.10047808566093
1040
29.35758628282265
1040
0.4142135623731048
1040
43.30047808566087
1040
26.55758628282267
1040
0.0
1040
43.30047808566087
1040
24.7423842574674
1040
0.1989123673796613
1040
44.53062960467741
1040
21.77253577648385
1040
0.0
1040
47.44042757932208
1040
18.86273780183918
1040
-0.1989123673796402
1040
47.85047808566093
1040
17.87278830817811
1040
0.0
1040
47.85047808566093
1040
16.58258628282264
1040
-0.4142135623730911
1040
47.32547808566096
1040
16.05758628282264
1040
0.0
1040
44.35047808566094
1040
16.05758628282264
1040
0.4142135623731526
1040
43.82547808566084
1040
15.53258628282265
1040
0.0
1040
43.82547808566084
1040
13.78258628282263
1040
0.4142135623730891
1040
44.35047808566082
1040
13.25758628282265
1040
0.0
1040
47.85047808566093
1040
13.25758628282265
1040
0.4142135623730925
1040
50.65047808566089
1040
16.05758628282262
1040
0.0
1040
50.65047808566089
1040
17.87278830817789
1040
0.1989123673796675
1040
49.42032656664435
1040
20.84263678916155
1040
0.0
1040
46.51052859199978
1040
23.75243476380607
1040
-0.1989123673796652
1040
46.10047808566093
1040
24.74238425746723
1040
0.0
1071
        0
1071
        7
1070
     1
1070
     1
1071
       16
1040
55.55047808566087
1040
28.83258628282264
1040
0.414213562373103
1040
55.02547808566089
1040
29.35758628282265
1040
0.0
1040
53.27547808566089
1040
29.35758628282265
1040
0.4142135623730871
1040
52.75047808566092
1040
28.83258628282266
1040
0.0
1040
52.75047808566092
1040
16.05758628282262
1040
0.4142135623730926
1040
55.55047808566087
1040
13.25758628282265
1040
0.0
1040
59.05047808566087
1040
13.25758628282265
1040
0.4142135623731044
1040
61.85047808566094
1040
16.05758628282262
1040
0.0
1040
61.85047808566094
1040
28.83258628282265
1040
0.4142135623730951
1040
61.32547808566096
1040
29.35758628282265
1040
0.0
1040
59.57547808566085
1040
29.35758628282265
1040
0.4142135623730871
1040
59.05047808566087
1040
28.83258628282266
1040
0.0
1040
59.05047808566087
1040
17.10758628282262
1040
-0.414213562373088
1040
58.00047808566091
1040
16.05758628282264
1040
0.0
1040
56.60047808566094
1040
16.05758628282264
1040
-0.4142135623731197
1040
55.55047808566087
1040
17.10758628282262
1040
0.0
1071
        0
1071
        7
1070
     1
1070
     1
1071
        8
1040
66.75047808566091
1040
28.83258628282266
1040
0.4142135623730871
1040
66.22547808566094
1040
29.35758628282265
1040
0.0
1040
64.47547808566094
1040
29.35758628282265
1040
0.4142135623731507
1040
63.95047808566085
1040
28.83258628282266
1040
0.0
1040
63.95047808566085
1040
13.78258628282263
1040
0.4142135623730891
1040
64.47547808566082
1040
13.25758628282265
1040
0.0
1040
66.22547808566094
1040
13.25758628282265
1040
0.4142135623730891
1040
66.75047808566091
1040
13.78258628282263
1040
0.0
1071
        0
1070
     0
1070
     1
1040
0.0
1040
0.2
1070
     0
1070
     2
1040
0.7853981633974483
1040
-903.2340384037992
1040
-7.092413717177286
1040
-0.4490128060534576
1040
0.4490128060534577
1070
     0
1040
2.356194490192344
1040
-903.2340384037992
1040
-7.092413717177286
1040
-0.4490128060534577
1040
-0.4490128060534576
1070
     0
1040
0.057451373970553
1071
        8
1040
13.78812089390305
1040
21.2747599287082
1040
0.0
1040
20.11278093731891
1040
24.95164846527365
1040
0.0
1040
22.8726338165394
1040
21.61946792889336
1040
0.0
1040
28.62232591251688
1040
22.30888392926414
1040
0.0
1040
39.54673794983648
1040
22.76849619680576
1040
0.0
1040
44.6064668260093
1040
25.52616259922985
1040
0.0
1040
54.2659519032801
1040
24.83674419791766
1040
0.0
1040
65.53534555050248
1040
25.29635646545927
1040
0.0
1002
}
  0
ARC
  5
6D9
330
1A
100
AcDbEntity
  8
ZUWAKU
100
AcDbCircle
 10
22.39269024044188
 20
23.20758628282265
 30
0.0
 40
0.525
100
AcDbArc
 50
90.0
 51
180.0
  0
ARC
  5
6DA
330
1A
100
AcDbEntity
  8
ZUWAKU
100
AcDbCircle
 10
22.39269024044188
 20
21.45758628282265
 30
0.0
 40
0.525
100
AcDbArc
 50
180.0
 51
270.0
  0
LINE
  5
6DB
330
1A
100
AcDbEntity
  8
ZUWAKU
100
AcDbLine
 10
21.86769024044179
 20
21.45758628282265
 30
0.0
 11
21.86769024044179
 21
23.20758628282265
 31
0.0
  0
ARC
  5
6DC
330
1A
100
AcDbEntity
  8
ZUWAKU
100
AcDbCircle
 10
25.54269024044197
 20
32.41738425746735
 30
0.0
 40
4.199999999999999
100
AcDbArc
 50
180.0
 51
224.9999999999996
  0
ARC
  5
6DD
330
1A
100
AcDbEntity
  8
ZUWAKU
100
AcDbCircle
 10
25.54269024044197
 20
32.41738425746735
 30
0.0
 40
1.399999999999999
100
AcDbArc
 50
180.0000000000016
 51
224.9999999999993
  0
ARC
  5
6DE
330
1A
100
AcDbEntity
  8
ZUWAKU
100
AcDbCircle
 10
24.14269024044187
 20
34.23258628282265
 30
0.0
 40
2.799999999999999
100
AcDbArc
 50
90.0
 51
180.0
  0
LINE
  5
6DF
330
1A
100
AcDbEntity
  8
ZUWAKU
100
AcDbLine
 10
21.34269024044192
 20
34.23258628282265
 30
0.0
 11
21.34269024044192
 21
32.41738425746731
 31
0.0
  0
LINE
  5
6E0
330
1A
100
AcDbEntity
  8
ZUWAKU
100
AcDbLine
 10
24.14269024044187
 20
33.70758628282265
 30
0.0
 11
24.14269024044187
 21
32.41738425746731
 31
0.0
  0
LINE
  5
6E1
330
1A
100
AcDbEntity
  8
ZUWAKU
100
AcDbLine
 10
89.17710763364903
 20
43.78258628282265
 30
0.0
 11
89.17710763364903
 21
14.58258628282271
 31
0.0
  0
LINE
  5
6E2
330
1A
100
AcDbEntity
  8
ZUWAKU
100
AcDbLine
 10
89.57710763364913
 20
43.78258628282265
 30
0.0
 11
89.57710763364913
 21
14.58258628282271
 31
0.0
  0
LINE
  5
6E3
330
1A
100
AcDbEntity
  8
ZUWAKU
100
AcDbLine
 10
89.37710763364885
 20
43.78258628282265
 30
0.0
 11
89.37710763364931
 21
14.58258628282271
 31
0.0
  0
LINE
  5
6E4
330
1A
100
AcDbEntity
  8
ZUWAKU
100
AcDbLine
 10
56.87284175945842
 20
29.44753577648383
 30
0.0
 11
59.78263973410321
 21
26.53773780183917
 31
0.0
  0
ARC
  5
6E5
330
1A
100
AcDbEntity
  8
ZUWAKU
100
AcDbCircle
 10
58.44269024044206
 20
34.23258628282265
 30
0.0
 40
2.799999999999999
100
AcDbArc
 50
90.0
 51
180.0
  0
LINE
  5
6E6
330
1A
100
AcDbEntity
  8
ZUWAKU
100
AcDbLine
 10
56.69269024044206
 20
20.93258628282265
 30
0.0
 11
60.19269024044206
 21
20.93258628282265
 31
0.0
  0
LINE
  5
6E7
330
1A
100
AcDbEntity
  8
ZUWAKU
100
AcDbLine
 10
56.69269024044206
 20
23.73258628282265
 30
0.0
 11
59.66769024044197
 21
23.73258628282265
 31
0.0
  0
LINE
  5
6E8
330
1A
100
AcDbEntity
  8
ZUWAKU
100
AcDbLine
 10
42.16769024044197
 20
37.03258628282265
 30
0.0
 11
40.41769024044197
 21
37.03258628282265
 31
0.0
  0
LINE
  5
6E9
330
1A
100
AcDbEntity
  8
ZUWAKU
100
AcDbLine
 10
40.41769024044197
 20
20.93258628282265
 30
0.0
 11
42.16769024044197
 21
20.93258628282265
 31
0.0
  0
LINE
  5
6EA
330
1A
100
AcDbEntity
  8
ZUWAKU
100
AcDbLine
 10
39.89269024044188
 20
36.50758628282265
 30
0.0
 11
39.89269024044188
 21
21.45758628282265
 31
0.0
  0
LINE
  5
6EB
330
1A
100
AcDbEntity
  8
ZUWAKU
100
AcDbLine
 10
30.79269024044197
 20
25.13258628282265
 30
0.0
 11
30.79269024044197
 21
32.83258628282261
 31
0.0
  0
LINE
  5
6EC
330
1A
100
AcDbEntity
  8
ZUWAKU
100
AcDbLine
 10
33.59269024044192
 20
32.83258628282265
 30
0.0
 11
33.59269024044192
 21
25.13258628282265
 31
0.0
  0
ARC
  5
6ED
330
1A
100
AcDbEntity
  8
ZUWAKU
100
AcDbCircle
 10
24.49269024044179
 20
25.54778830817795
 30
0.0
 40
4.199999999999999
100
AcDbArc
 50
0.0
 51
44.9999999999996
  0
CIRCLE
  5
6EE
330
1A
100
AcDbEntity
  8
ZUWAKU
100
AcDbCircle
 10
36.04269024044197
 20
28.98258628282265
 30
0.0
 40
1.75
  0
ARC
  5
6EF
330
1A
100
AcDbEntity
  8
ZUWAKU
100
AcDbCircle
 10
34.99269024044179
 20
25.13258628282265
 30
0.0
 40
4.199999999999999
100
AcDbArc
 50
180.0
 51
270.0
  0
LINE
  5
6F0
330
1A
100
AcDbEntity
  8
ZUWAKU
100
AcDbLine
 10
28.69269024044206
 20
23.73258628282265
 30
0.0
 11
28.69269024044206
 21
25.547788308178
 31
0.0
  0
ARC
  5
6F1
330
1A
100
AcDbEntity
  8
ZUWAKU
100
AcDbCircle
 10
25.36769024044179
 20
24.25758628282265
 30
0.0
 40
0.525
100
AcDbArc
 50
270.0
 51
0.0
  0
LINE
  5
6F2
330
1A
100
AcDbEntity
  8
ZUWAKU
100
AcDbLine
 10
25.89269024044188
 20
24.25758628282265
 30
0.0
 11
25.89269024044188
 21
25.547788308178
 31
0.0
  0
ARC
  5
6F3
330
1A
100
AcDbEntity
  8
ZUWAKU
100
AcDbCircle
 10
25.89269024044188
 20
23.73258628282265
 30
0.0
 40
2.799999999999999
100
AcDbArc
 50
270.0
 51
0.0
  0
ARC
  5
6F4
330
1A
100
AcDbEntity
  8
ZUWAKU
100
AcDbCircle
 10
24.49269024044179
 20
25.547788308178
 30
0.0
 40
1.399999999999999
100
AcDbArc
 50
0.0
 51
44.9999999999996
  0
ARC
  5
6F5
330
1A
100
AcDbEntity
  8
ZUWAKU
100
AcDbCircle
 10
40.41769024044197
 20
21.45758628282265
 30
0.0
 40
0.525
100
AcDbArc
 50
180.0
 51
270.0
  0
ARC
  5
6F6
330
1A
100
AcDbEntity
  8
ZUWAKU
100
AcDbCircle
 10
36.91769024044197
 20
23.20758628282265
 30
0.0
 40
0.525
100
AcDbArc
 50
0.0
 51
90.0
  0
ARC
  5
6F7
330
1A
100
AcDbEntity
  8
ZUWAKU
100
AcDbCircle
 10
36.91769024044197
 20
21.45758628282265
 30
0.0
 40
0.525
100
AcDbArc
 50
270.0
 51
0.0
  0
LINE
  5
6F8
330
1A
100
AcDbEntity
  8
ZUWAKU
100
AcDbLine
 10
37.44269024044206
 20
23.20758628282265
 30
0.0
 11
37.44269024044206
 21
21.45758628282265
 31
0.0
  0
ARC
  5
6F9
330
1A
100
AcDbEntity
  8
ZUWAKU
100
AcDbCircle
 10
34.99269024044179
 20
25.13258628282265
 30
0.0
 40
1.399999999999999
100
AcDbArc
 50
180.0
 51
270.0
  0
LINE
  5
6FA
330
1A
100
AcDbEntity
  8
ZUWAKU
100
AcDbLine
 10
36.91769024044197
 20
20.93258628282265
 30
0.0
 11
34.99269024044179
 21
20.93258628282265
 31
0.0
  0
LINE
  5
6FB
330
1A
100
AcDbEntity
  8
ZUWAKU
100
AcDbLine
 10
34.99269024044179
 20
23.73258628282265
 30
0.0
 11
36.91769024044197
 21
23.73258628282265
 31
0.0
  0
ARC
  5
6FC
330
1A
100
AcDbEntity
  8
ZUWAKU
100
AcDbCircle
 10
34.99269024044179
 20
32.83258628282261
 30
0.0
 40
4.199999999999999
100
AcDbArc
 50
90.0
 51
180.0
  0
LINE
  5
6FD
330
1A
100
AcDbEntity
  8
ZUWAKU
100
AcDbLine
 10
28.16769024044197
 20
36.50758628282265
 30
0.0
 11
28.16769024044197
 21
34.75758628282265
 31
0.0
  0
LINE
  5
6FE
330
1A
100
AcDbEntity
  8
ZUWAKU
100
AcDbLine
 10
27.64269024044188
 20
34.23258628282265
 30
0.0
 11
24.66769024044197
 21
34.23258628282265
 31
0.0
  0
ARC
  5
6FF
330
1A
100
AcDbEntity
  8
ZUWAKU
100
AcDbCircle
 10
27.64269024044188
 20
34.75758628282265
 30
0.0
 40
0.525
100
AcDbArc
 50
270.0
 51
0.0
  0
ARC
  5
700
330
1A
100
AcDbEntity
  8
ZUWAKU
100
AcDbCircle
 10
27.64269024044188
 20
36.50758628282265
 30
0.0
 40
0.525
100
AcDbArc
 50
0.0
 51
90.0
  0
LINE
  5
701
330
1A
100
AcDbEntity
  8
ZUWAKU
100
AcDbLine
 10
37.44269024044206
 20
36.50758628282265
 30
0.0
 11
37.44269024044206
 21
34.75758628282265
 31
0.0
  0
ARC
  5
702
330
1A
100
AcDbEntity
  8
ZUWAKU
100
AcDbCircle
 10
36.91769024044197
 20
34.75758628282265
 30
0.0
 40
0.525
100
AcDbArc
 50
270.0
 51
0.0
  0
ARC
  5
703
330
1A
100
AcDbEntity
  8
ZUWAKU
100
AcDbCircle
 10
40.41769024044197
 20
36.50758628282265
 30
0.0
 40
0.525
100
AcDbArc
 50
90.0
 51
180.0
  0
ARC
  5
704
330
1A
100
AcDbEntity
  8
ZUWAKU
100
AcDbCircle
 10
36.91769024044197
 20
36.50758628282265
 30
0.0
 40
0.525
100
AcDbArc
 50
0.0
 51
90.0
  0
ARC
  5
705
330
1A
100
AcDbEntity
  8
ZUWAKU
100
AcDbCircle
 10
34.99269024044179
 20
32.83258628282265
 30
0.0
 40
1.399999999999999
100
AcDbArc
 50
90.0
 51
180.0
  0
LINE
  5
706
330
1A
100
AcDbEntity
  8
ZUWAKU
100
AcDbLine
 10
36.91769024044197
 20
34.23258628282265
 30
0.0
 11
34.99269024044179
 21
34.23258628282265
 31
0.0
  0
LINE
  5
707
330
1A
100
AcDbEntity
  8
ZUWAKU
100
AcDbLine
 10
34.99269024044179
 20
37.03258628282261
 30
0.0
 11
36.91769024044197
 21
37.03258628282265
 31
0.0
  0
ARC
  5
708
330
1A
100
AcDbEntity
  8
ZUWAKU
100
AcDbCircle
 10
43.21769024044215
 20
27.05758628282265
 30
0.0
 40
0.525
100
AcDbArc
 50
90.0
 51
180.0
  0
ARC
  5
709
330
1A
100
AcDbEntity
  8
ZUWAKU
100
AcDbCircle
 10
43.35792440393061
 20
27.05758628282265
 30
0.0
 40
0.525
100
AcDbArc
 50
17.52556837372255
 51
90.0
  0
LINE
  5
70A
330
1A
100
AcDbEntity
  8
ZUWAKU
100
AcDbLine
 10
53.54269024044197
 20
21.45758628282265
 30
0.0
 11
53.54269024044197
 21
36.50758628282265
 31
0.0
  0
LINE
  5
70B
330
1A
100
AcDbEntity
  8
ZUWAKU
100
AcDbLine
 10
50.74269024044179
 20
36.50758628282265
 30
0.0
 11
50.74269024044179
 21
21.45758628282265
 31
0.0
  0
LINE
  5
70C
330
1A
100
AcDbEntity
  8
ZUWAKU
100
AcDbLine
 10
48.42697635575769
 20
21.61568025098962
 30
0.0
 11
46.10058497728414
 21
28.98258628282267
 31
0.0
  0
LINE
  5
70D
330
1A
100
AcDbEntity
  8
ZUWAKU
100
AcDbLine
 10
43.21769024044215
 20
27.58258628282265
 30
0.0
 11
43.35792440393061
 21
27.58258628282265
 31
0.0
  0
ARC
  5
70E
330
1A
100
AcDbEntity
  8
ZUWAKU
100
AcDbCircle
 10
46.22745607695333
 20
21.45758628282265
 30
0.0
 40
0.525
100
AcDbArc
 50
197.5255683737225
 51
270.0
  0
ARC
  5
70F
330
1A
100
AcDbEntity
  8
ZUWAKU
100
AcDbCircle
 10
47.9263454565621
 20
21.45758628282265
 30
0.0
 40
0.525
100
AcDbArc
 50
270.0
 51
17.52556837372255
  0
LINE
  5
710
330
1A
100
AcDbEntity
  8
ZUWAKU
100
AcDbLine
 10
46.22745607695333
 20
20.93258628282265
 30
0.0
 11
47.9263454565621
 21
20.93258628282265
 31
0.0
  0
ARC
  5
711
330
1A
100
AcDbEntity
  8
ZUWAKU
100
AcDbCircle
 10
42.16769024044197
 20
21.45758628282265
 30
0.0
 40
0.525
100
AcDbArc
 50
270.0
 51
0.0
  0
LINE
  5
712
330
1A
100
AcDbEntity
  8
ZUWAKU
100
AcDbLine
 10
45.72682517775774
 20
21.29949231465567
 30
0.0
 11
43.85855530312574
 21
27.21568025098962
 31
0.0
  0
LINE
  5
713
330
1A
100
AcDbEntity
  8
ZUWAKU
100
AcDbLine
 10
42.69269024044206
 20
21.45758628282265
 30
0.0
 11
42.69269024044206
 21
27.05758628282265
 31
0.0
  0
ARC
  5
714
330
1A
100
AcDbEntity
  8
ZUWAKU
100
AcDbCircle
 10
56.69269024044206
 20
23.20758628282265
 30
0.0
 40
0.525
100
AcDbArc
 50
90.0
 51
180.0
  0
ARC
  5
715
330
1A
100
AcDbEntity
  8
ZUWAKU
100
AcDbCircle
 10
53.01769024044188
 20
21.45758628282265
 30
0.0
 40
0.525
100
AcDbArc
 50
270.0
 51
0.0
  0
ARC
  5
716
330
1A
100
AcDbEntity
  8
ZUWAKU
100
AcDbCircle
 10
56.69269024044206
 20
21.45758628282265
 30
0.0
 40
0.525
100
AcDbArc
 50
180.0
 51
270.0
  0
LINE
  5
717
330
1A
100
AcDbEntity
  8
ZUWAKU
100
AcDbLine
 10
56.16769024044197
 20
21.45758628282265
 30
0.0
 11
56.16769024044197
 21
23.20758628282265
 31
0.0
  0
ARC
  5
718
330
1A
100
AcDbEntity
  8
ZUWAKU
100
AcDbCircle
 10
51.26769024044188
 20
21.45758628282265
 30
0.0
 40
0.525
100
AcDbArc
 50
180.0
 51
270.0
  0
LINE
  5
719
330
1A
100
AcDbEntity
  8
ZUWAKU
100
AcDbLine
 10
51.26769024044188
 20
20.93258628282265
 30
0.0
 11
53.01769024044188
 21
20.93258628282265
 31
0.0
  0
LINE
  5
71A
330
1A
100
AcDbEntity
  8
ZUWAKU
100
AcDbLine
 10
47.36533672261976
 20
32.98763347638608
 30
0.0
 11
46.10058497728414
 21
28.98258628282267
 31
0.0
  0
ARC
  5
71B
330
1A
100
AcDbEntity
  8
ZUWAKU
100
AcDbCircle
 10
46.22745607695333
 20
36.50758628282265
 30
0.0
 40
0.525
100
AcDbArc
 50
90.0
 51
162.4744316262773
  0
LINE
  5
71C
330
1A
100
AcDbEntity
  8
ZUWAKU
100
AcDbLine
 10
48.42697635575769
 20
36.34949231465568
 30
0.0
 11
47.36533672261976
 21
32.98763347638608
 31
0.0
  0
ARC
  5
71D
330
1A
100
AcDbEntity
  8
ZUWAKU
100
AcDbCircle
 10
47.9263454565621
 20
36.50758628282265
 30
0.0
 40
0.525
100
AcDbArc
 50
342.4744316262774
 51
90.0
  0
LINE
  5
71E
330
1A
100
AcDbEntity
  8
ZUWAKU
100
AcDbLine
 10
46.22745607695333
 20
37.03258628282265
 30
0.0
 11
47.9263454565621
 21
37.03258628282265
 31
0.0
  0
LINE
  5
71F
330
1A
100
AcDbEntity
  8
ZUWAKU
100
AcDbLine
 10
42.69269024044206
 20
30.90758628282265
 30
0.0
 11
42.69269024044206
 21
36.50758628282265
 31
0.0
  0
ARC
  5
720
330
1A
100
AcDbEntity
  8
ZUWAKU
100
AcDbCircle
 10
43.21769024044215
 20
30.90758628282265
 30
0.0
 40
0.525
100
AcDbArc
 50
180.0
 51
270.0
  0
LINE
  5
721
330
1A
100
AcDbEntity
  8
ZUWAKU
100
AcDbLine
 10
43.35792440393061
 20
30.38258628282265
 30
0.0
 11
43.21769024044215
 21
30.38258628282265
 31
0.0
  0
ARC
  5
722
330
1A
100
AcDbEntity
  8
ZUWAKU
100
AcDbCircle
 10
43.35792440393061
 20
30.90758628282265
 30
0.0
 40
0.525
100
AcDbArc
 50
270.0
 51
342.4744316262774
  0
ARC
  5
723
330
1A
100
AcDbEntity
  8
ZUWAKU
100
AcDbCircle
 10
42.16769024044197
 20
36.50758628282265
 30
0.0
 40
0.525
100
AcDbArc
 50
0.0
 51
90.0
  0
LINE
  5
724
330
1A
100
AcDbEntity
  8
ZUWAKU
100
AcDbLine
 10
45.72682517775774
 20
36.66568025098962
 30
0.0
 11
43.85855530312574
 21
30.74949231465568
 31
0.0
  0
ARC
  5
725
330
1A
100
AcDbEntity
  8
ZUWAKU
100
AcDbCircle
 10
59.84269024044215
 20
32.41738425746735
 30
0.0
 40
4.199999999999999
100
AcDbArc
 50
180.0
 51
224.9999999999996
  0
LINE
  5
726
330
1A
100
AcDbEntity
  8
ZUWAKU
100
AcDbLine
 10
55.64269024044188
 20
34.23258628282265
 30
0.0
 11
55.64269024044188
 21
32.41738425746731
 31
0.0
  0
ARC
  5
727
330
1A
100
AcDbEntity
  8
ZUWAKU
100
AcDbCircle
 10
53.01769024044188
 20
36.50758628282265
 30
0.0
 40
0.525
100
AcDbArc
 50
0.0
 51
90.0
  0
ARC
  5
728
330
1A
100
AcDbEntity
  8
ZUWAKU
100
AcDbCircle
 10
51.26769024044188
 20
36.50758628282265
 30
0.0
 40
0.525
100
AcDbArc
 50
90.0
 51
180.0
  0
LINE
  5
729
330
1A
100
AcDbEntity
  8
ZUWAKU
100
AcDbLine
 10
53.01769024044188
 20
37.03258628282265
 30
0.0
 11
51.26769024044188
 21
37.03258628282265
 31
0.0
  0
ARC
  5
72A
330
1A
100
AcDbEntity
  8
ZUWAKU
100
AcDbCircle
 10
73.66769024044197
 20
36.50758628282265
 30
0.0
 40
0.525
100
AcDbArc
 50
0.0
 51
90.0
  0
ARC
  5
72B
330
1A
100
AcDbEntity
  8
ZUWAKU
100
AcDbCircle
 10
71.39269024044188
 20
23.73258628282265
 30
0.0
 40
2.799999999999999
100
AcDbArc
 50
270.0
 51
0.0
  0
LINE
  5
72C
330
1A
100
AcDbEntity
  8
ZUWAKU
100
AcDbLine
 10
67.89269024044187
 20
24.78258628282265
 30
0.0
 11
67.89269024044187
 21
36.50758628282265
 31
0.0
  0
LINE
  5
72D
330
1A
100
AcDbEntity
  8
ZUWAKU
100
AcDbLine
 10
65.09269024044215
 20
36.50758628282265
 30
0.0
 11
65.09269024044215
 21
23.73258628282265
 31
0.0
  0
LINE
  5
72E
330
1A
100
AcDbEntity
  8
ZUWAKU
100
AcDbLine
 10
71.39269024044188
 20
36.50758628282265
 30
0.0
 11
71.39269024044188
 21
24.78258628282265
 31
0.0
  0
ARC
  5
72F
330
1A
100
AcDbEntity
  8
ZUWAKU
100
AcDbCircle
 10
58.79269024044197
 20
25.54778830817795
 30
0.0
 40
4.199999999999999
100
AcDbArc
 50
0.0
 51
44.9999999999996
  0
ARC
  5
730
330
1A
100
AcDbEntity
  8
ZUWAKU
100
AcDbCircle
 10
67.89269024044187
 20
23.73258628282265
 30
0.0
 40
2.799999999999999
100
AcDbArc
 50
180.0
 51
270.0
  0
LINE
  5
731
330
1A
100
AcDbEntity
  8
ZUWAKU
100
AcDbLine
 10
62.99269024044178
 20
23.73258628282265
 30
0.0
 11
62.99269024044178
 21
25.547788308178
 31
0.0
  0
ARC
  5
732
330
1A
100
AcDbEntity
  8
ZUWAKU
100
AcDbCircle
 10
59.66769024044197
 20
24.25758628282265
 30
0.0
 40
0.525
100
AcDbArc
 50
270.0
 51
0.0
  0
LINE
  5
733
330
1A
100
AcDbEntity
  8
ZUWAKU
100
AcDbLine
 10
60.19269024044206
 20
24.25758628282265
 30
0.0
 11
60.19269024044206
 21
25.547788308178
 31
0.0
  0
ARC
  5
734
330
1A
100
AcDbEntity
  8
ZUWAKU
100
AcDbCircle
 10
60.19269024044206
 20
23.73258628282265
 30
0.0
 40
2.799999999999999
100
AcDbArc
 50
270.0
 51
0.0
  0
ARC
  5
735
330
1A
100
AcDbEntity
  8
ZUWAKU
100
AcDbCircle
 10
58.79269024044197
 20
25.547788308178
 30
0.0
 40
1.399999999999999
100
AcDbArc
 50
0.0
 51
44.9999999999996
  0
ARC
  5
736
330
1A
100
AcDbEntity
  8
ZUWAKU
100
AcDbCircle
 10
70.34269024044215
 20
24.78258628282265
 30
0.0
 40
1.049999999999999
100
AcDbArc
 50
270.0
 51
0.0
  0
ARC
  5
737
330
1A
100
AcDbEntity
  8
ZUWAKU
100
AcDbCircle
 10
68.94269024044206
 20
24.78258628282265
 30
0.0
 40
1.049999999999999
100
AcDbArc
 50
180.0
 51
270.0
  0
LINE
  5
738
330
1A
100
AcDbEntity
  8
ZUWAKU
100
AcDbLine
 10
67.89269024044187
 20
20.93258628282265
 30
0.0
 11
71.39269024044188
 21
20.93258628282265
 31
0.0
  0
LINE
  5
739
330
1A
100
AcDbEntity
  8
ZUWAKU
100
AcDbLine
 10
70.34269024044215
 20
23.73258628282265
 30
0.0
 11
68.94269024044206
 21
23.73258628282265
 31
0.0
  0
LINE
  5
73A
330
1A
100
AcDbEntity
  8
ZUWAKU
100
AcDbLine
 10
67.36769024044178
 20
37.03258628282265
 30
0.0
 11
65.61769024044179
 21
37.03258628282265
 31
0.0
  0
LINE
  5
73B
330
1A
100
AcDbEntity
  8
ZUWAKU
100
AcDbLine
 10
62.46769024044215
 20
36.50758628282265
 30
0.0
 11
62.46769024044215
 21
34.75758628282265
 31
0.0
  0
ARC
  5
73C
330
1A
100
AcDbEntity
  8
ZUWAKU
100
AcDbCircle
 10
61.94269024044206
 20
34.75758628282265
 30
0.0
 40
0.525
100
AcDbArc
 50
270.0
 51
0.0
  0
ARC
  5
73D
330
1A
100
AcDbEntity
  8
ZUWAKU
100
AcDbCircle
 10
61.94269024044206
 20
36.50758628282265
 30
0.0
 40
0.525
100
AcDbArc
 50
0.0
 51
90.0
  0
ARC
  5
73E
330
1A
100
AcDbEntity
  8
ZUWAKU
100
AcDbCircle
 10
65.61769024044179
 20
36.50758628282265
 30
0.0
 40
0.525
100
AcDbArc
 50
90.0
 51
180.0
  0
ARC
  5
73F
330
1A
100
AcDbEntity
  8
ZUWAKU
100
AcDbCircle
 10
59.84269024044215
 20
32.41738425746735
 30
0.0
 40
1.399999999999999
100
AcDbArc
 50
180.0000000000016
 51
224.9999999999993
  0
LINE
  5
740
330
1A
100
AcDbEntity
  8
ZUWAKU
100
AcDbLine
 10
58.44269024044206
 20
33.70758628282265
 30
0.0
 11
58.44269024044206
 21
32.41738425746731
 31
0.0
  0
ARC
  5
741
330
1A
100
AcDbEntity
  8
ZUWAKU
100
AcDbCircle
 10
58.96769024044215
 20
33.70758628282265
 30
0.0
 40
0.525
100
AcDbArc
 50
90.0
 51
180.0
  0
LINE
  5
742
330
1A
100
AcDbEntity
  8
ZUWAKU
100
AcDbLine
 10
61.76253872142524
 20
28.51763678916148
 30
0.0
 11
58.85274074678045
 21
31.42743476380615
 31
0.0
  0
LINE
  5
743
330
1A
100
AcDbEntity
  8
ZUWAKU
100
AcDbLine
 10
61.94269024044206
 20
34.23258628282265
 30
0.0
 11
58.96769024044215
 21
34.23258628282265
 31
0.0
  0
LINE
  5
744
330
1A
100
AcDbEntity
  8
ZUWAKU
100
AcDbLine
 10
58.44269024044206
 20
37.03258628282265
 30
0.0
 11
61.94269024044206
 21
37.03258628282265
 31
0.0
  0
ARC
  5
745
330
1A
100
AcDbEntity
  8
ZUWAKU
100
AcDbCircle
 10
71.91769024044197
 20
36.50758628282265
 30
0.0
 40
0.525
100
AcDbArc
 50
90.0
 51
180.0
  0
LINE
  5
746
330
1A
100
AcDbEntity
  8
ZUWAKU
100
AcDbLine
 10
73.66769024044197
 20
37.03258628282265
 30
0.0
 11
71.91769024044197
 21
37.03258628282265
 31
0.0
  0
ARC
  5
747
330
1A
100
AcDbEntity
  8
ZUWAKU
100
AcDbCircle
 10
67.36769024044178
 20
36.50758628282265
 30
0.0
 40
0.525
100
AcDbArc
 50
0.0
 51
90.0
  0
LINE
  5
748
330
1A
100
AcDbEntity
  8
ZUWAKU
100
AcDbLine
 10
76.29269024044197
 20
36.50758628282265
 30
0.0
 11
76.29269024044197
 21
21.45758628282265
 31
0.0
  0
LINE
  5
749
330
1A
100
AcDbEntity
  8
ZUWAKU
100
AcDbLine
 10
79.09269024044215
 20
21.45758628282265
 30
0.0
 11
79.09269024044215
 21
36.50758628282265
 31
0.0
  0
LINE
  5
74A
330
1A
100
AcDbEntity
  8
ZUWAKU
100
AcDbLine
 10
74.19269024044206
 20
23.73258628282265
 30
0.0
 11
74.19269024044206
 21
36.50758628282265
 31
0.0
  0
ARC
  5
74B
330
1A
100
AcDbEntity
  8
ZUWAKU
100
AcDbCircle
 10
78.56769024044206
 20
21.45758628282265
 30
0.0
 40
0.525
100
AcDbArc
 50
270.0
 51
0.0
  0
ARC
  5
74C
330
1A
100
AcDbEntity
  8
ZUWAKU
100
AcDbCircle
 10
76.81769024044206
 20
21.45758628282265
 30
0.0
 40
0.525
100
AcDbArc
 50
180.0
 51
270.0
  0
LINE
  5
74D
330
1A
100
AcDbEntity
  8
ZUWAKU
100
AcDbLine
 10
76.81769024044206
 20
20.93258628282265
 30
0.0
 11
78.56769024044206
 21
20.93258628282265
 31
0.0
  0
ARC
  5
74E
330
1A
100
AcDbEntity
  8
ZUWAKU
100
AcDbCircle
 10
78.56769024044206
 20
36.50758628282265
 30
0.0
 40
0.525
100
AcDbArc
 50
0.0
 51
90.0
  0
ARC
  5
74F
330
1A
100
AcDbEntity
  8
ZUWAKU
100
AcDbCircle
 10
76.81769024044206
 20
36.50758628282265
 30
0.0
 40
0.525
100
AcDbArc
 50
90.0
 51
180.0
  0
LINE
  5
750
330
1A
100
AcDbEntity
  8
ZUWAKU
100
AcDbLine
 10
78.56769024044206
 20
37.03258628282265
 30
0.0
 11
76.81769024044206
 21
37.03258628282265
 31
0.0
  0
TEXT
  5
751
330
1A
100
AcDbEntity
  8
moji
100
AcDbText
 10
103.0082676738297
 20
26.52376441309741
 30
0.0
 40
6.0
  1
大型　のきとい
 41
0.9
  7
ｽﾀｲﾙ1
100
AcDbText
  0
LINE
  5
757
330
1A
100
AcDbEntity
  8
ZUWAKU
100
AcDbLine
 10
218.4970793757283
 20
43.78258628282265
 30
0.0
 11
218.4970793757288
 21
14.58258628282271
 31
0.0
  0
LINE
  5
758
330
1A
100
AcDbEntity
  8
ZUWAKU
100
AcDbLine
 10
218.6970793757286
 20
43.78258628282265
 30
0.0
 11
218.6970793757286
 21
14.58258628282271
 31
0.0
  0
LINE
  5
759
330
1A
100
AcDbEntity
  8
ZUWAKU
100
AcDbLine
 10
218.2970793757285
 20
43.78258628282265
 30
0.0
 11
218.2970793757285
 21
14.58258628282271
 31
0.0
  0
TEXT
  5
75A
330
1A
100
AcDbEntity
  8
ZUWAKU
100
AcDbText
 10
219.7745243979379
 20
37.83794282120823
 30
0.0
 40
4.0
  1
品名
 41
0.9
  7
ｽﾀｲﾙ1
100
AcDbText
  0
TEXT
  5
75B
330
1A
100
AcDbEntity
  8
ZUWAKU
100
AcDbText
 10
219.7745243979384
 20
23.43794282120826
 30
0.0
 40
4.0
  1
サイズ
 41
0.9
  7
ｽﾀｲﾙ1
100
AcDbText
  0
TEXT
  5
792
330
1A
100
AcDbEntity
  8
ZUWAKU
100
AcDbText
 10
668.254415772963
 20
31.78750734023003
 30
0.0
 40
5.599999999999999
  1
　　．　　．　　
 41
0.9
  7
ｽﾀｲﾙ1
100
AcDbText
  0
LINE
  5
793
330
1A
100
AcDbEntity
  8
ZUWAKU
100
AcDbLine
 10
658.8676805958648
 20
29.38258628282268
 30
0.0
 11
707.2994886342021
 21
29.38258628282268
 31
0.0
  0
LINE
  5
794
330
1A
100
AcDbEntity
  8
ZUWAKU
100
AcDbLine
 10
658.8676805958653
 20
29.18258628282268
 30
0.0
 11
707.2994886342021
 21
29.18258628282268
 31
0.0
  0
LINE
  5
795
330
1A
100
AcDbEntity
  8
ZUWAKU
100
AcDbLine
 10
658.8676805958648
 20
28.98258628282268
 30
0.0
 11
707.2994886342021
 21
28.98258628282268
 31
0.0
  0
LINE
  5
79A
330
1A
100
AcDbEntity
  8
ZUWAKU
100
AcDbLine
 10
515.2496575838017
 20
29.38258628282268
 30
0.0
 11
562.5774338517731
 21
29.38258628282268
 31
0.0
  0
LINE
  5
79B
330
1A
100
AcDbEntity
  8
ZUWAKU
100
AcDbLine
 10
515.2496575838017
 20
29.18258628282268
 30
0.0
 11
562.5774338517731
 21
29.18258628282268
 31
0.0
  0
LINE
  5
79C
330
1A
100
AcDbEntity
  8
ZUWAKU
100
AcDbLine
 10
515.2496575838017
 20
28.98258628282269
 30
0.0
 11
562.5774338517731
 21
28.98258628282269
 31
0.0
  0
TEXT
  5
79D
330
1A
100
AcDbEntity
  8
moji
100
AcDbText
 10
538.0913860579735
 20
16.98750734023007
 30
0.0
 40
5.599999999999999
  1
１/２
 41
0.9
  7
ｽﾀｲﾙ1
100
AcDbText
  0
LINE
  5
79E
330
1A
100
AcDbEntity
  8
ZUWAKU
100
AcDbLine
 10
514.8496575838017
 20
43.78258628282265
 30
0.0
 11
514.8496575838017
 21
14.58258628282271
 31
0.0
  0
LINE
  5
79F
330
1A
100
AcDbEntity
  8
ZUWAKU
100
AcDbLine
 10
515.2496575838017
 20
43.78258628282265
 30
0.0
 11
515.2496575838017
 21
14.58258628282271
 31
0.0
  0
LINE
  5
7A0
330
1A
100
AcDbEntity
  8
ZUWAKU
100
AcDbLine
 10
515.0496575838015
 20
43.78258628282265
 30
0.0
 11
515.0496575838019
 21
14.58258628282271
 31
0.0
  0
LINE
  5
7A1
330
1A
100
AcDbEntity
  8
ZUWAKU
100
AcDbLine
 10
457.474842056652
 20
43.78258628282265
 30
0.0
 11
457.474842056652
 21
14.58258628282271
 31
0.0
  0
LINE
  5
7A2
330
1A
100
AcDbEntity
  8
ZUWAKU
100
AcDbLine
 10
457.8748420566521
 20
43.78258628282265
 30
0.0
 11
457.8748420566521
 21
14.58258628282271
 31
0.0
  0
LINE
  5
7A3
330
1A
100
AcDbEntity
  8
ZUWAKU
100
AcDbLine
 10
457.6748420566518
 20
43.78258628282265
 30
0.0
 11
457.6748420566523
 21
14.58258628282271
 31
0.0
  0
TEXT
  5
7A4
330
1A
100
AcDbEntity
  8
moji
100
AcDbText
 10
472.1486881474166
 20
25.56402850121991
 30
0.0
 40
5.599999999999999
  1
ＬＦ１４
 41
0.9
  7
ｽﾀｲﾙ1
100
AcDbText
  0
TEXT
  5
7A5
330
1A
100
AcDbEntity
  8
ZUWAKU
100
AcDbText
 10
459.3522870788615
 20
37.83794282120823
 30
0.0
 40
4.0
  1
品番
 41
0.9
  7
ｽﾀｲﾙ1
100
AcDbText
  0
TEXT
  5
7A6
330
1A
100
AcDbEntity
  8
ZUWAKU
100
AcDbText
 10
516.7271026060111
 20
37.83794282120823
 30
0.0
 40
4.0
  1
用紙
 41
0.9
  7
ｽﾀｲﾙ1
100
AcDbText
  0
TEXT
  5
7A7
330
1A
100
AcDbEntity
  8
ZUWAKU
100
AcDbText
 10
516.7271026060116
 20
23.43794282120826
 30
0.0
 40
4.0
  1
縮尺
 41
0.9
  7
ｽﾀｲﾙ1
100
AcDbText
  0
TEXT
  5
7A8
330
1A
100
AcDbEntity
  8
moji
100
AcDbText
 10
538.0913860579735
 20
31.78750734023003
 30
0.0
 40
5.599999999999999
  1
Ａ３
 41
0.9
  7
ｽﾀｲﾙ1
100
AcDbText
  0
LINE
  5
7A9
330
1A
100
AcDbEntity
  8
ZUWAKU
100
AcDbLine
 10
562.9774338517732
 20
43.78258628282265
 30
0.0
 11
562.9774338517732
 21
14.58258628282271
 31
0.0
  0
LINE
  5
7AA
330
1A
100
AcDbEntity
  8
ZUWAKU
100
AcDbLine
 10
658.4676805958651
 20
43.78258628282265
 30
0.0
 11
658.4676805958651
 21
14.58258628282271
 31
0.0
  0
LINE
  5
7AB
330
1A
100
AcDbEntity
  8
ZUWAKU
100
AcDbLine
 10
658.8676805958653
 20
43.78258628282265
 30
0.0
 11
658.8676805958653
 21
14.58258628282271
 31
0.0
  0
LINE
  5
7AC
330
1A
100
AcDbEntity
  8
ZUWAKU
100
AcDbLine
 10
658.667680595865
 20
43.78258628282265
 30
0.0
 11
658.6676805958655
 21
14.58258628282271
 31
0.0
  0
LINE
  5
7AD
330
1A
100
AcDbEntity
  8
ZUWAKU
100
AcDbLine
 10
562.5774338517731
 20
43.78258628282265
 30
0.0
 11
562.5774338517731
 21
14.58258628282271
 31
0.0
  0
LINE
  5
7AE
330
1A
100
AcDbEntity
  8
ZUWAKU
100
AcDbLine
 10
562.7774338517729
 20
43.78258628282265
 30
0.0
 11
562.7774338517733
 21
14.58258628282271
 31
0.0
  0
TEXT
  5
7AF
330
1A
100
AcDbEntity
  8
ZUWAKU
100
AcDbText
 10
660.3451256180747
 20
37.83794282120823
 30
0.0
 40
4.0
  1
DATE
 41
0.9
  7
ｽﾀｲﾙ1
100
AcDbText
  0
LINE
  5
7BB
330
1A
100
AcDbEntity
  8
ZUWAKU
100
AcDbLine
 10
707.899488634202
 20
43.78258628282265
 30
0.0
 11
707.899488634202
 21
14.58258628282271
 31
0.0
  0
LINE
  5
7BC
330
1A
100
AcDbEntity
  8
ZUWAKU
100
AcDbLine
 10
707.6994886342017
 20
43.78258628282265
 30
0.0
 11
707.6994886342022
 21
14.58258628282271
 31
0.0
  0
LINE
  5
7BD
330
1A
100
AcDbEntity
  8
ZUWAKU
100
AcDbLine
 10
707.4994886342019
 20
43.78258628282265
 30
0.0
 11
707.4994886342019
 21
14.58258628282271
 31
0.0
  0
LINE
  5
7BE
330
1A
100
AcDbEntity
  8
ZUWAKU
100
AcDbLine
 10
707.2994886342021
 20
43.78258628282265
 30
0.0
 11
707.2994886342021
 21
14.58258628282271
 31
0.0
  0
TEXT
  5
7BF
330
1A
100
AcDbEntity
  8
ZUWAKU
100
AcDbText
 10
717.7418896615749
 20
25.85400898608952
 30
0.0
 40
6.0
  1
積水化学工業株式会社
 41
0.9
  7
ｽﾀｲﾙ1
100
AcDbText
  0
TEXT
  5
6E80
330
1A
100
AcDbEntity
  8
moji
100
AcDbText
 10
250.2925643251519
 20
17.6783761150973
 30
0.0
 40
5.599999999999999
  1
Ｖ２００－Ｌ１５０
 41
0.9
  7
ｽﾀｲﾙ1
100
AcDbText
  0
TEXT
  5
AB9F
330
1A
100
AcDbEntity
  8
moji
100
AcDbText
 10
250.5221731328631
 20
32.64230810778824
 30
0.0
 40
5.599999999999999
  1
亜鉛メッキ金具象鼻（吊）
 41
0.9
  7
ｽﾀｲﾙ1
100
AcDbText
  0
LINE
  5
B3AC
330
1A
100
AcDbEntity
  8
CENTER L
 48
5.0
100
AcDbLine
 10
253.4739230167504
 20
517.7991544369994
 30
0.0
 11
434.0249951549292
 21
517.7991544369994
 31
0.0
  0
LINE
  5
B3AD
330
1A
100
AcDbEntity
  8
SEIHIN
 48
5.0
100
AcDbLine
 10
424.0494173334464
 20
234.6117423897199
 30
0.0
 11
397.8633578814715
 21
230.9315317368318
 31
0.0
  0
LINE
  5
B3AE
330
1A
100
AcDbEntity
  8
SEIHIN
 48
5.0
100
AcDbLine
 10
416.9452828382374
 20
178.4513112879612
 30
0.0
 11
418.1452828381827
 21
178.4513112879612
 31
0.0
  0
LINE
  5
B3AF
330
1A
100
AcDbEntity
  8
SEIHIN
 48
5.0
100
AcDbLine
 10
425.6061097373374
 20
230.7912109494612
 30
0.0
 11
398.4200502852122
 21
226.9704594618612
 31
0.0
  0
LINE
  5
B3B0
330
1A
100
AcDbEntity
  8
SEIHIN
 48
5.0
100
AcDbLine
 10
425.4391020161294
 20
231.9795326319432
 30
0.0
 11
398.2530425641834
 21
228.1587811443547
 31
0.0
  0
LINE
  5
B3B1
330
1A
100
AcDbEntity
  8
SEIHIN
 48
5.0
100
AcDbLine
 10
425.7452828382374
 20
212.4513112879612
 30
0.0
 11
416.9452828382288
 21
212.4513112879612
 31
0.0
  0
LINE
  5
B3B2
330
1A
100
AcDbEntity
  8
SEIHIN
 48
5.0
100
AcDbLine
 10
425.7452828382374
 20
211.2513112879612
 30
0.0
 11
416.9452828382291
 21
211.2513112879612
 31
0.0
  0
LINE
  5
B3B3
330
1A
100
AcDbEntity
  8
SEIHIN
 48
5.0
100
AcDbLine
 10
418.1414415859328
 20
93.27680882018114
 30
0.0
 11
416.9414415859243
 21
93.27680882018114
 31
0.0
  0
LINE
  5
B3B4
330
1A
100
AcDbEntity
  8
SEIHIN
 48
5.0
100
AcDbLine
 10
419.9414414001328
 20
90.67680882018112
 30
0.0
 11
416.9414415859243
 21
90.67680882018112
 31
0.0
  0
ARC
  5
B3B5
330
1A
100
AcDbEntity
  8
SEIHIN
 48
5.0
100
AcDbCircle
 10
418.1414415859328
 20
91.97680882018113
 30
0.0
 40
1.30000000000001
100
AcDbArc
 50
270.0
 51
90.00000000240358
  0
ARC
  5
B3B6
330
1A
100
AcDbEntity
  8
SEIHIN
 48
5.0
100
AcDbCircle
 10
418.1414415859328
 20
79.37680882018117
 30
0.0
 40
1.30000000000001
100
AcDbArc
 50
270.0
 51
90.00000000240358
  0
LINE
  5
B3B7
330
1A
100
AcDbEntity
  8
SEIHIN
 48
5.0
100
AcDbLine
 10
419.9414414249329
 20
80.67680882018112
 30
0.0
 11
416.9414415859243
 21
80.67680882018112
 31
0.0
  0
LINE
  5
B3B8
330
1A
100
AcDbEntity
  8
SEIHIN
 48
5.0
100
AcDbLine
 10
418.1414415859328
 20
78.0768088201811
 30
0.0
 11
416.9414415859243
 21
78.0768088201811
 31
0.0
  0
ARC
  5
B3B9
330
1A
100
AcDbEntity
  8
SEIHIN
 48
5.0
100
AcDbCircle
 10
418.941441585933
 20
98.67680882018113
 30
0.0
 40
2.0
100
AcDbArc
 50
90.00001063699619
 51
180.0
  0
ARC
  5
B3BA
330
1A
100
AcDbEntity
  8
SEIHIN
 48
5.0
100
AcDbCircle
 10
418.941441585933
 20
72.67680882018112
 30
0.0
 40
2.0
100
AcDbArc
 50
180.0
 51
269.9999916087583
  0
LINE
  5
B3BB
330
1A
100
AcDbEntity
  8
SEIHIN
 48
5.0
100
AcDbLine
 10
260.7414415859328
 20
70.67680882018112
 30
0.0
 11
418.9414412932558
 21
70.67680882018112
 31
0.0
  0
LINE
  5
B3BC
330
1A
100
AcDbEntity
  8
CENTER L
 48
5.0
100
AcDbLine
 10
253.4739230168042
 20
85.67680882018112
 30
0.0
 11
434.0249951549829
 21
85.67680882018112
 31
0.0
  0
LINE
  5
B3BD
330
1A
100
AcDbEntity
  8
SEIHIN
 48
5.0
100
AcDbLine
 10
418.9414412146327
 20
100.6768088201811
 30
0.0
 11
260.7414415858547
 21
100.6768088201811
 31
0.0
  0
LINE
  5
B3BE
330
1A
100
AcDbEntity
  8
SEIHIN
 48
5.0
100
AcDbLine
 10
344.7414415857231
 20
502.7991544369995
 30
0.0
 11
427.1414415858162
 21
502.7991544369994
 31
0.0
  0
LINE
  5
B3BF
330
1A
100
AcDbEntity
  8
SEIHIN
 48
5.0
100
AcDbLine
 10
344.7414415857231
 20
532.7991544369992
 30
0.0
 11
427.1414415858162
 21
532.7991544369992
 31
0.0
  0
LINE
  5
B3C0
330
1A
100
AcDbEntity
  8
SEIHIN
100
AcDbLine
 10
362.9662334999288
 20
529.7991544369994
 30
0.0
 11
427.1414415858162
 21
529.7991544369994
 31
0.0
  0
LINE
  5
B3C1
330
1A
100
AcDbEntity
  8
SEIHIN
 48
5.0
100
AcDbLine
 10
362.9662334999286
 20
505.7991544369995
 30
0.0
 11
427.1414415858162
 21
505.7991544369994
 31
0.0
  0
DIMENSION
  5
B3C2
330
1A
100
AcDbEntity
  8
SUNPOU
100
AcDbDimension
  2
*D2
 10
429.7469107486711
 20
457.1068639902279
 30
0.0
 11
344.7460967934151
 21
462.106863990228
 31
0.0
 70
    32
 71
     5
 42
-1.0
  3
STANDARD
100
AcDbAlignedDimension
 13
259.7452828381592
 23
259.6604020460533
 33
0.0
 14
429.7469107486711
 24
229.6604019541039
 34
0.0
100
AcDbRotatedDimension
1001
ACAD
1000
DSTYLE
1002
{
1070
    41
1040
7.0
1070
    42
1040
6.0
1070
    43
1040
14.0
1070
    44
1040
3.0
1070
    73
1070
     0
1070
    74
1070
     0
1070
    77
1070
     3
1070
   140
1040
6.0
1070
   141
1040
150.0
1070
   147
1040
2.0
1070
   172
1070
     1
1070
   173
1070
     1
1070
   176
1070
   256
1070
   177
1070
   256
1070
   178
1070
   256
1070
   271
1070
     0
1070
   272
1070
     0
1070
   341
1005
6D
1070
     6
1000
OPEN
1070
     7
1000
OPEN
1070
   371
1070
    -1
1070
   372
1070
    -1
1002
}
  0
DIMENSION
  5
B3C3
330
1A
100
AcDbEntity
  8
SUNPOU
100
AcDbDimension
  2
*D3
 10
429.7469107486711
 20
440.685429260638
 30
0.0
 11
396.3565721243
 21
445.685429260638
 31
0.0
 70
    32
 71
     5
 42
-1.0
  3
STANDARD
100
AcDbAlignedDimension
 13
362.9662334999288
 23
372.9605821699612
 33
0.0
 14
429.7469107486711
 24
229.6604019541039
 34
0.0
100
AcDbRotatedDimension
1001
ACAD
1000
DSTYLE
1002
{
1070
    41
1040
7.0
1070
    42
1040
6.0
1070
    43
1040
14.0
1070
    44
1040
3.0
1070
    73
1070
     0
1070
    74
1070
     0
1070
    77
1070
     3
1070
   140
1040
6.0
1070
   141
1040
150.0
1070
   147
1040
2.0
1070
   172
1070
     1
1070
   173
1070
     1
1070
   176
1070
   256
1070
   177
1070
   256
1070
   178
1070
   256
1070
   271
1070
     0
1070
   272
1070
     0
1070
   341
1005
6D
1070
     6
1000
OPEN
1070
     7
1000
OPEN
1070
   371
1070
    -1
1070
   372
1070
    -1
1002
}
  0
DIMENSION
  5
B3C4
330
1A
100
AcDbEntity
  8
SUNPOU
100
AcDbDimension
  2
*D4
 10
394.3030662184742
 20
261.8987556860865
 30
0.0
 11
412.0249884835646
 21
266.8987556860865
 31
0.0
 70
    32
 71
     5
 42
-1.0
  3
STANDARD
100
AcDbAlignedDimension
 13
429.7469107486551
 23
229.6604019541524
 33
0.0
 14
394.3030662184742
 24
231.2412872977823
 34
0.0
100
AcDbRotatedDimension
1001
ACAD
1000
DSTYLE
1002
{
1070
    41
1040
7.0
1070
    42
1040
6.0
1070
    43
1040
14.0
1070
    44
1040
3.0
1070
    73
1070
     0
1070
    74
1070
     0
1070
    77
1070
     3
1070
   140
1040
6.0
1070
   141
1040
150.0
1070
   147
1040
2.0
1070
   172
1070
     1
1070
   173
1070
     1
1070
   176
1070
   256
1070
   177
1070
   256
1070
   178
1070
   256
1070
   271
1070
     0
1070
   272
1070
     0
1070
   341
1005
6D
1070
     6
1000
OPEN
1070
     7
1000
OPEN
1070
   371
1070
    -1
1070
   372
1070
    -1
1002
}
  0
LINE
  5
B3C5
330
1A
100
AcDbEntity
  8
NOKITOI
100
AcDbLine
 10
417.2441883388346
 20
225.168732305463
 30
0.0
 11
423.8280883388346
 21
225.168732305463
 31
0.0
  0
LINE
  5
B3C6
330
1A
100
AcDbEntity
  8
NOKITOI
100
AcDbLine
 10
415.8280883388347
 20
226.4687323054631
 30
0.0
 11
423.8280883388346
 21
226.4687323054631
 31
0.0
  0
LINE
  5
B3C7
330
1A
100
AcDbEntity
  8
NOKITOI
100
AcDbLine
 10
417.2441883388346
 20
224.868732305463
 30
0.0
 11
423.8280883388346
 21
224.868732305463
 31
0.0
  0
LINE
  5
B3C8
330
1A
100
AcDbEntity
  8
NOKITOI
100
AcDbLine
 10
424.5280883388347
 20
213.768732305463
 30
0.0
 11
415.0799435824717
 21
213.768732305463
 31
0.0
  0
LINE
  5
B3C9
330
1A
100
AcDbEntity
  8
NOKITOI
100
AcDbLine
 10
424.2280883388345
 20
214.0687323054631
 30
0.0
 11
415.9225970345344
 21
214.0687323054631
 31
0.0
  0
LINE
  5
B3CA
330
1A
100
AcDbEntity
  8
NOKITOI
100
AcDbLine
 10
425.828088338835
 20
212.4687323054631
 30
0.0
 11
415.7267883388347
 21
212.4687323054631
 31
0.0
  0
DIMENSION
  5
B3CB
330
1A
100
AcDbEntity
  8
SUNPOU
  6
Continuous
100
AcDbDimension
  2
*D5
 10
429.7452828382374
 20
160.4419096859463
 30
0.0
 11
344.7452828382374
 21
165.4419096859463
 31
0.0
 70
    32
 71
     5
 42
-1.0
  3
STANDARD
100
AcDbAlignedDimension
 13
259.7452828382373
 23
245.2513112879395
 33
0.0
 14
429.7452828382374
 24
215.2513112879612
 34
0.0
100
AcDbRotatedDimension
1001
ACAD
1000
DSTYLE
1002
{
1070
   140
1040
6.0
1070
    74
1070
     0
1070
   172
1070
     1
1070
    73
1070
     0
1070
   272
1070
     2
1070
    77
1070
     3
1070
   173
1070
     1
1070
   147
1040
2.0
1070
    42
1040
6.0
1070
    44
1040
3.0
1070
    43
1040
14.0
1070
   271
1070
     0
1070
   178
1070
     4
1070
   177
1070
     4
1070
   176
1070
     4
1070
   141
1040
150.0
1070
     7
1000
_OPEN
1070
     6
1000
_OPEN
1070
    41
1040
7.0
1002
}
  0
DIMENSION
  5
B3CD
330
1A
100
AcDbEntity
  8
SUNPOU
100
AcDbDimension
  2
*D6
 10
259.7452828381592
 20
440.685429260638
 30
0.0
 11
311.355758169044
 21
445.685429260638
 31
0.0
 70
    32
 71
     5
 42
-1.0
  3
STANDARD
100
AcDbAlignedDimension
 13
362.9662334999288
 23
372.9605821699612
 33
0.0
 14
259.7452828381592
 24
259.6604020459952
 34
0.0
100
AcDbRotatedDimension
1001
ACAD
1000
DSTYLE
1002
{
1070
    41
1040
7.0
1070
    42
1040
6.0
1070
    43
1040
14.0
1070
    44
1040
3.0
1070
    73
1070
     0
1070
    74
1070
     0
1070
    77
1070
     3
1070
   140
1040
6.0
1070
   141
1040
150.0
1070
   147
1040
2.0
1070
   172
1070
     1
1070
   173
1070
     1
1070
   176
1070
   256
1070
   177
1070
   256
1070
   178
1070
   256
1070
   271
1070
     0
1070
   272
1070
     0
1070
   341
1005
6D
1070
     6
1000
OPEN
1070
     7
1000
OPEN
1070
   371
1070
    -1
1070
   372
1070
    -1
1002
}
  0
DIMENSION
  5
B3CE
330
1A
100
AcDbEntity
  8
SUNPOU
  6
Continuous
100
AcDbDimension
  2
*D7
 10
374.4661334999288
 20
372.9605821699612
 30
0.0
 11
369.4661334999288
 21
292.9605821699618
 31
0.0
 70
    32
 71
     5
 42
-1.0
  3
STANDARD
100
AcDbAlignedDimension
 13
358.9661334979648
 23
212.9605821699624
 33
0.0
 14
362.9662334999288
 24
372.9605821699612
 34
0.0
 50
90.0
100
AcDbRotatedDimension
1001
ACAD
1000
DSTYLE
1002
{
1070
   140
1040
6.0
1070
    74
1070
     0
1070
   172
1070
     1
1070
    73
1070
     0
1070
   272
1070
     2
1070
    77
1070
     3
1070
   173
1070
     1
1070
   147
1040
2.0
1070
    42
1040
6.0
1070
    44
1040
3.0
1070
    43
1040
14.0
1070
   271
1070
     0
1070
   178
1070
     4
1070
   177
1070
     4
1070
   176
1070
     4
1070
   141
1040
150.0
1070
     7
1000
_OPEN
1070
     6
1000
_OPEN
1070
    41
1040
7.0
1002
}
  0
LINE
  5
B3CF
330
1A
100
AcDbEntity
  8
SEIHIN
  6
DASHED
 62
     6
 48
3.0
100
AcDbLine
 10
329.4661334999289
 20
372.9605821699612
 30
0.0
 11
329.4661334999289
 21
305.4615022155612
 31
0.0
  0
LINE
  5
B3D0
330
1A
100
AcDbEntity
  8
SEIHIN
  6
DASHED
 62
     6
 48
3.0
100
AcDbLine
 10
340.4662334999288
 20
372.9605821699612
 30
0.0
 11
340.4662334999288
 21
283.3109162780613
 31
0.0
  0
LINE
  5
B3D1
330
1A
100
AcDbEntity
  8
SEIHIN
  6
DASHED
 62
     6
 48
3.0
100
AcDbLine
 10
337.4662334999289
 20
372.9605821699612
 30
0.0
 11
337.4662334999289
 21
283.3109162780613
 31
0.0
  0
LINE
  5
B3D2
330
1A
100
AcDbEntity
  8
SEIHIN
  6
DASHED
 62
     6
 48
3.0
100
AcDbLine
 10
385.4662334999289
 20
372.9605821699612
 30
0.0
 11
385.4662334999289
 21
283.3109162780613
 31
0.0
  0
LINE
  5
B3D3
330
1A
100
AcDbEntity
  8
SEIHIN
  6
DASHED
 62
     6
 48
3.0
100
AcDbLine
 10
382.4662334999288
 20
372.9605821699612
 30
0.0
 11
382.4662334999288
 21
283.3109162780613
 31
0.0
  0
LINE
  5
B3D4
330
1A
100
AcDbEntity
  8
SEIHIN
  6
DASHED
 62
     6
 48
3.0
100
AcDbLine
 10
374.4661334999288
 20
372.9605821699612
 30
0.0
 11
374.4661334999288
 21
305.4615022155612
 31
0.0
  0
LINE
  5
B3D5
330
1A
100
AcDbEntity
  8
SEIHIN
  6
Continuous
 62
     3
100
AcDbLine
 10
351.9661334999288
 20
372.9605821699612
 30
0.0
 11
351.9661334999288
 21
272.9605821699611
 31
0.0
  0
LINE
  5
B3D6
330
1A
100
AcDbEntity
  8
SEIHIN
  6
Continuous
 62
     3
100
AcDbLine
 10
359.9661334999288
 20
372.9605821699612
 30
0.0
 11
359.9661334999288
 21
216.9605821699611
 31
0.0
  0
LINE
  5
B3D7
330
1A
100
AcDbEntity
  8
SEIHIN
  6
Continuous
 62
     3
100
AcDbLine
 10
362.9662334999288
 20
372.9605821699612
 30
0.0
 11
362.9661334999289
 21
216.9605821699611
 31
0.0
  0
LINE
  5
B3E2
330
1A
100
AcDbEntity
  8
SEIHIN
 48
5.0
100
AcDbLine
 10
258.9414415857381
 20
75.97680882018112
 30
0.0
 11
258.9414415858459
 21
95.37680882018113
 31
0.0
  0
LINE
  5
B3E4
330
1A
100
AcDbEntity
  8
SEIHIN
 48
5.0
100
AcDbLine
 10
272.5414415859328
 20
98.67680882018113
 30
0.0
 11
272.541441585901
 21
72.67680882018112
 31
0.0
  0
LINE
  5
B3E5
330
1A
100
AcDbEntity
  8
SEIHIN
 48
5.0
100
AcDbLine
 10
262.9240251574382
 20
74.67680882018114
 30
0.0
 11
260.24144158566
 21
74.67680882018114
 31
0.0
  0
ARC
  5
B3E6
330
1A
100
AcDbEntity
  8
SEIHIN
 48
5.0
100
AcDbCircle
 10
260.2414415857381
 20
74.17680882018114
 30
0.0
 40
0.5
100
AcDbArc
 50
0.0
 51
90.00000000896296
  0
LINE
  5
B3E7
330
1A
100
AcDbEntity
  8
SEIHIN
 48
5.0
100
AcDbLine
 10
260.7414415857381
 20
70.67680882018112
 30
0.0
 11
260.74144158566
 21
74.17680882018114
 31
0.0
  0
ARC
  5
B3E8
330
1A
100
AcDbEntity
  8
SEIHIN
 48
5.0
100
AcDbCircle
 10
260.2414415857381
 20
75.97680882018112
 30
0.0
 40
1.3
100
AcDbArc
 50
180.0
 51
269.9999999965541
  0
ARC
  5
B3E9
330
1A
100
AcDbEntity
  8
SEIHIN
 48
5.0
100
AcDbCircle
 10
270.5414415859328
 20
72.67680882018112
 30
0.0
 40
2.0
100
AcDbArc
 50
270.0000070884994
 51
0.0
  0
LINE
  5
B3EA
330
1A
100
AcDbEntity
  8
SEIHIN
 48
5.0
100
AcDbLine
 10
277.4083349219342
 20
75.87680882018116
 30
0.0
 11
272.5414415859049
 21
75.87680882018116
 31
0.0
  0
LINE
  5
B3EB
330
1A
100
AcDbEntity
  8
SEIHIN
 48
5.0
100
AcDbLine
 10
260.2414415857381
 20
96.67680882018114
 30
0.0
 11
262.9240251575372
 21
96.67680882018114
 31
0.0
  0
ARC
  5
B3EC
330
1A
100
AcDbEntity
  8
SEIHIN
 48
5.0
100
AcDbCircle
 10
260.2414415857381
 20
97.17680882018115
 30
0.0
 40
0.5
100
AcDbArc
 50
270.0
 51
0.0
  0
ARC
  5
B3ED
330
1A
100
AcDbEntity
  8
SEIHIN
 48
5.0
100
AcDbCircle
 10
260.2414415857381
 20
95.37680882018113
 30
0.0
 40
1.3
100
AcDbArc
 50
90.0
 51
180.0
  0
LINE
  5
B3EE
330
1A
100
AcDbEntity
  8
SEIHIN
 48
5.0
100
AcDbLine
 10
260.7414415857381
 20
100.6768088201811
 30
0.0
 11
260.74144158566
 21
97.17680882018115
 31
0.0
  0
LINE
  5
B3EF
330
1A
100
AcDbEntity
  8
SEIHIN
 48
5.0
100
AcDbLine
 10
277.4083349219342
 20
95.47680882018115
 30
0.0
 11
272.5414415859288
 21
95.47680882018113
 31
0.0
  0
ARC
  5
B3F0
330
1A
100
AcDbEntity
  8
SEIHIN
 48
5.0
100
AcDbCircle
 10
270.5414415859328
 20
98.67680882018113
 30
0.0
 40
2.0
100
AcDbArc
 50
0.0
 51
90.00000000091192
  0
ARC
  5
B3F1
330
1A
100
AcDbEntity
  8
SEIHIN
 48
5.0
100
AcDbCircle
 10
349.9722852944787
 20
85.67680920411261
 30
0.0
 40
6.500000372307681
100
AcDbArc
 50
143.8571506671779
 51
306.1428493328221
  0
ARC
  5
B3F2
330
1A
100
AcDbEntity
  8
SEIHIN
 48
5.0
100
AcDbCircle
 10
349.9722852944787
 20
85.67680920411261
 30
0.0
 40
5.99999648753354
100
AcDbArc
 50
144.6019642904257
 51
305.3980357095705
  0
CIRCLE
  5
B3F3
330
1A
100
AcDbEntity
  8
SEIHIN
 48
5.0
100
AcDbCircle
 10
349.9722852944787
 20
85.67680920411261
 30
0.0
 40
3.001151961280392
  0
CIRCLE
  5
B3F4
330
1A
100
AcDbEntity
  8
SEIHIN
 62
     2
 48
5.0
100
AcDbCircle
 10
349.9711334999287
 20
85.67680882018112
 30
0.0
 40
2.500000161999881
  0
ARC
  5
B3F5
330
1A
100
AcDbEntity
  8
SEIHIN
 48
5.0
100
AcDbCircle
 10
349.9722852944787
 20
85.67680920411261
 30
0.0
 40
6.500000372307681
100
AcDbArc
 50
323.8426146512762
 51
126.1573853487234
  0
ARC
  5
B3F6
330
1A
100
AcDbEntity
  8
SEIHIN
 48
5.0
100
AcDbCircle
 10
349.9722852944787
 20
85.67680920411261
 30
0.0
 40
5.99999648753354
100
AcDbArc
 50
324.586183686091
 51
125.4138163139077
  0
CIRCLE
  5
B3F7
330
1A
100
AcDbEntity
  8
SEIHIN
 48
5.0
100
AcDbCircle
 10
349.9722852944787
 20
85.67680920411261
 30
0.0
 40
5.002952083720343
  0
LINE
  5
B3F8
330
1A
100
AcDbEntity
  8
SEIHIN
 48
5.0
100
AcDbLine
 10
338.9722852944789
 20
71.67680920411271
 30
0.0
 11
360.9722852944787
 21
71.67680920411271
 31
0.0
  0
LINE
  5
B3F9
330
1A
100
AcDbEntity
  8
SEIHIN
 48
5.0
100
AcDbLine
 10
338.9722852944789
 20
99.67680920411272
 30
0.0
 11
360.9722852944787
 21
99.67680920411272
 31
0.0
  0
LINE
  5
B3FA
330
1A
100
AcDbEntity
  8
SEIHIN
 48
5.0
100
AcDbLine
 10
338.9722852944789
 20
94.97680920411267
 30
0.0
 11
360.9722852944787
 21
94.97680920411278
 31
0.0
  0
LINE
  5
B3FB
330
1A
100
AcDbEntity
  8
SEIHIN
 48
5.0
100
AcDbLine
 10
338.9722852944789
 20
76.37680920411265
 30
0.0
 11
360.9722852944787
 21
76.37680920411276
 31
0.0
  0
LINE
  5
B3FC
330
1A
100
AcDbEntity
  8
CENTER L
 48
5.0
100
AcDbLine
 10
349.9711334999287
 20
109.3326125916441
 30
0.0
 11
349.9711334999287
 21
62.02100504871811
 31
0.0
  0
LINE
  5
B3FE
330
1A
100
AcDbEntity
  8
SEIHIN
 48
5.0
100
AcDbLine
 10
338.9722852944789
 20
99.67680920411272
 30
0.0
 11
338.9722852944789
 21
71.67680920411271
 31
0.0
  0
LINE
  5
B400
330
1A
100
AcDbEntity
  8
SEIHIN
 48
5.0
100
AcDbLine
 10
318.6308671969918
 20
75.87680899748701
 30
0.0
 11
338.9722852944789
 21
75.8768092041127
 31
0.0
  0
LINE
  5
B406
330
1A
100
AcDbEntity
  8
SEIHIN
 48
5.0
100
AcDbLine
 10
318.6308671969437
 20
95.47680899748698
 30
0.0
 11
338.9722852944789
 21
95.47680920411266
 31
0.0
  0
LINE
  5
B40E
330
1A
100
AcDbEntity
  8
SEIHIN
 48
5.0
100
AcDbLine
 10
322.747493332502
 20
82.41764038779583
 30
0.0
 11
338.9722852944789
 21
82.41763984702611
 31
0.0
  0
LINE
  5
B40F
330
1A
100
AcDbEntity
  8
SEIHIN
 48
5.0
100
AcDbLine
 10
322.747493332502
 20
88.91764038779584
 30
0.0
 11
338.9722852944789
 21
88.91763984702611
 31
0.0
  0
ARC
  5
B411
330
1A
100
AcDbEntity
  8
SEIHIN
 48
5.0
100
AcDbCircle
 10
322.9914415859327
 20
85.67680882018112
 30
0.0
 40
3.25
100
AcDbArc
 50
94.30472728740957
 51
265.6952727125903
  0
LINE
  5
B412
330
1A
100
AcDbEntity
  8
SEIHIN
 48
5.0
100
AcDbLine
 10
339.887715122142
 20
94.3455369306025
 30
0.0
 11
345.7982982444057
 21
88.43495380833902
 31
0.0
  0
LINE
  5
B413
330
1A
100
AcDbEntity
  8
SEIHIN
 48
5.0
100
AcDbLine
 10
341.3009009358961
 20
95.76077674997366
 30
0.0
 11
347.2121786189118
 21
89.84949906695797
 31
0.0
  0
ARC
  5
B414
330
1A
100
AcDbEntity
  8
SEIHIN
 48
5.0
100
AcDbCircle
 10
340.5948219033287
 20
95.05264371178908
 30
0.0
 40
1.0
100
AcDbArc
 50
44.99999999999971
 51
224.9999999999998
  0
LINE
  5
B415
330
1A
100
AcDbEntity
  8
SEIHIN
 48
5.0
100
AcDbLine
 10
352.7304298987053
 20
81.50282215403946
 30
0.0
 11
358.6404117161403
 21
75.59284033660431
 31
0.0
  0
LINE
  5
B416
330
1A
100
AcDbEntity
  8
SEIHIN
 48
5.0
100
AcDbLine
 10
354.1449751573243
 20
82.91670252854567
 30
0.0
 11
360.0535975580305
 21
77.00808012783932
 31
0.0
  0
LINE
  5
B419
330
1A
100
AcDbEntity
  8
SEIHIN
 48
5.0
100
AcDbLine
 10
360.9722852944787
 20
99.67680920411272
 30
0.0
 11
360.9722852944787
 21
71.67680920411271
 31
0.0
  0
LINE
  5
B41D
330
1A
100
AcDbEntity
  8
SEIHIN
 48
5.0
100
AcDbLine
 10
360.9722852944787
 20
75.87680920411276
 30
0.0
 11
375.7414415857622
 21
75.87680902622887
 31
0.0
  0
ARC
  5
B41E
330
1A
100
AcDbEntity
  8
SEIHIN
 48
5.0
100
AcDbCircle
 10
359.3464907487202
 20
76.30097337477653
 30
0.0
 40
1.0
100
AcDbArc
 50
224.9999966157442
 51
44.99999661574422
  0
LINE
  5
B422
330
1A
100
AcDbEntity
  8
SEIHIN
 48
5.0
100
AcDbLine
 10
389.6410265093534
 20
73.67680882018118
 30
0.0
 11
389.6410265093365
 21
71.67680882018112
 31
0.0
  0
LINE
  5
B423
330
1A
100
AcDbEntity
  8
SEIHIN
 48
5.0
100
AcDbLine
 10
396.9053238657122
 20
73.67680882018118
 30
0.0
 11
396.9053238656917
 21
71.67680882018112
 31
0.0
  0
LINE
  5
B424
330
1A
100
AcDbEntity
  8
SEIHIN
 48
5.0
100
AcDbLine
 10
410.8969160982639
 20
75.87680882018116
 30
0.0
 11
416.9414415859243
 21
75.87680882018116
 31
0.0
  0
LINE
  5
B425
330
1A
100
AcDbEntity
  8
SEIHIN
 48
5.0
100
AcDbLine
 10
416.941441585933
 20
78.0768088201811
 30
0.0
 11
416.9414415859243
 21
72.67680882018112
 31
0.0
  0
LINE
  5
B427
330
1A
100
AcDbEntity
  8
SEIHIN
 48
5.0
100
AcDbLine
 10
360.9722852944787
 20
95.47680920411279
 30
0.0
 11
375.7414415857141
 21
95.47680902622888
 31
0.0
  0
LINE
  5
B428
330
1A
100
AcDbEntity
  8
SEIHIN
 48
5.0
100
AcDbLine
 10
360.9722852944787
 20
82.42680920411277
 30
0.0
 11
372.4914419151934
 21
82.42680882018111
 31
0.0
  0
LINE
  5
B429
330
1A
100
AcDbEntity
  8
SEIHIN
 48
5.0
100
AcDbLine
 10
360.9722852944787
 20
88.92680920411278
 30
0.0
 11
372.4914418516311
 21
88.92680882018112
 31
0.0
  0
ARC
  5
B42B
330
1A
100
AcDbEntity
  8
SEIHIN
 48
5.0
100
AcDbCircle
 10
372.4914415859327
 20
85.67680882018112
 30
0.0
 40
3.25
100
AcDbArc
 50
270.0
 51
90.00000000343275
  0
LINE
  5
B432
330
1A
100
AcDbEntity
  8
SEIHIN
 48
5.0
100
AcDbLine
 10
389.6410265093534
 20
97.67680882018106
 30
0.0
 11
389.6410265093365
 21
99.67680882018113
 31
0.0
  0
LINE
  5
B433
330
1A
100
AcDbEntity
  8
SEIHIN
 48
5.0
100
AcDbLine
 10
396.9053238657122
 20
97.67680882018106
 30
0.0
 11
396.9053238656917
 21
99.67680882018113
 31
0.0
  0
LINE
  5
B434
330
1A
100
AcDbEntity
  8
SEIHIN
 48
5.0
100
AcDbLine
 10
416.941441585933
 20
90.67680882018112
 30
0.0
 11
416.9414415859243
 21
80.67680882018112
 31
0.0
  0
LINE
  5
B435
330
1A
100
AcDbEntity
  8
SEIHIN
 48
5.0
100
AcDbLine
 10
416.941441585933
 20
93.27680882018114
 30
0.0
 11
416.9414415859243
 21
98.67680882018113
 31
0.0
  0
LINE
  5
B436
330
1A
100
AcDbEntity
  8
SEIHIN
 48
5.0
100
AcDbLine
 10
410.8969160982639
 20
95.47680882018113
 30
0.0
 11
416.9414415859243
 21
95.47680882018113
 31
0.0
  0
LINE
  5
B43A
330
1A
100
AcDbEntity
  8
SEIHIN
 48
5.0
100
AcDbLine
 10
264.0514636603505
 20
261.9795326319565
 30
0.0
 11
296.5521215058779
 21
257.4118630499467
 31
0.0
  0
LINE
  5
B43B
330
1A
100
AcDbEntity
  8
SEIHIN
 48
5.0
100
AcDbLine
 10
265.4411483430401
 20
264.6117423897298
 30
0.0
 11
296.9418061885897
 21
260.1846136424228
 31
0.0
  0
LINE
  5
B43C
330
1A
100
AcDbEntity
  8
SEIHIN
 48
5.0
100
AcDbLine
 10
263.8844559392373
 20
260.7912109494612
 30
0.0
 11
296.3851137848482
 21
256.2235413674612
 31
0.0
  0
DIMENSION
  5
B43D
330
1A
100
AcDbEntity
  8
SUNPOU
100
AcDbDimension
  2
*D8
 10
301.3866379823841
 20
293.9733882962938
 30
0.0
 11
280.5659604102716
 21
298.9733882962939
 31
0.0
 70
    32
 71
     5
 42
-1.0
  3
STANDARD
100
AcDbAlignedDimension
 13
259.7452828381592
 23
259.6604020460533
 33
0.0
 14
301.3866379823841
 24
260.3816121564084
 34
0.0
100
AcDbRotatedDimension
1001
ACAD
1000
DSTYLE
1002
{
1070
    41
1040
7.0
1070
    42
1040
6.0
1070
    43
1040
14.0
1070
    44
1040
3.0
1070
    73
1070
     0
1070
    74
1070
     0
1070
    77
1070
     3
1070
   140
1040
6.0
1070
   141
1040
150.0
1070
   147
1040
2.0
1070
   172
1070
     1
1070
   173
1070
     1
1070
   176
1070
   256
1070
   177
1070
   256
1070
   178
1070
   256
1070
   271
1070
     0
1070
   272
1070
     0
1070
   341
1005
6D
1070
     6
1000
OPEN
1070
     7
1000
OPEN
1070
   371
1070
    -1
1070
   372
1070
    -1
1002
}
  0
ARC
  5
B43E
330
1A
100
AcDbEntity
  8
NOKITOI
100
AcDbCircle
 10
292.2714354117345
 20
143.0687323054629
 30
0.0
 40
5.799999999999998
100
AcDbArc
 50
186.9449487201999
 51
269.9999909642983
  0
ARC
  5
B43F
330
1A
100
AcDbEntity
  8
NOKITOI
100
AcDbCircle
 10
288.1978041481346
 20
138.4687169779631
 30
0.0
 40
1.999984672599999
100
AcDbArc
 50
186.9436581008005
 51
269.9995470933971
  0
ARC
  5
B440
330
1A
100
AcDbEntity
  8
NOKITOI
100
AcDbCircle
 10
292.2714354117345
 20
143.0687323054629
 30
0.0
 40
5.0
100
AcDbArc
 50
186.9449487201999
 51
269.9999909642983
  0
LINE
  5
B441
330
1A
100
AcDbEntity
  8
NOKITOI
100
AcDbLine
 10
273.4212883388346
 20
256.468732305463
 30
0.0
 11
287.3081214681344
 21
142.4641541901631
 31
0.0
  0
DIMENSION
  5
B442
330
1A
100
AcDbEntity
  8
SUNPOU
  6
Continuous
100
AcDbDimension
  2
*D9
 10
320.9683129582647
 20
212.9635163796613
 30
0.0
 11
315.9683129582646
 21
238.7876293847017
 31
0.0
 70
    32
 71
     5
 42
-1.0
  3
STANDARD
100
AcDbAlignedDimension
 13
265.4411483429536
 23
264.611742389742
 33
0.0
 14
308.9146267544288
 24
212.9635163796613
 34
0.0
 50
90.0
100
AcDbRotatedDimension
1001
ACAD
1000
DSTYLE
1002
{
1070
   140
1040
6.0
1070
    74
1070
     0
1070
   172
1070
     1
1070
    73
1070
     0
1070
   272
1070
     2
1070
    77
1070
     3
1070
   173
1070
     1
1070
   147
1040
2.0
1070
    42
1040
6.0
1070
    44
1040
3.0
1070
    43
1040
14.0
1070
   271
1070
     0
1070
   178
1070
     4
1070
   177
1070
     4
1070
   176
1070
     4
1070
   141
1040
150.0
1070
     7
1000
_OPEN
1070
     6
1000
_OPEN
1070
    41
1040
7.0
1002
}
  0
LINE
  5
B443
330
1A
100
AcDbEntity
  8
NOKITOI
100
AcDbLine
 10
274.1623428073544
 20
243.768832305463
 30
0.0
 11
286.5139912438214
 21
142.3674216370474
 31
0.0
  0
LINE
  5
B444
330
1A
100
AcDbEntity
  8
NOKITOI
100
AcDbLine
 10
273.5147883388346
 20
242.4688323054631
 30
0.0
 11
286.2124883388347
 21
138.2268323054631
 31
0.0
  0
ARC
  5
B445
330
1A
100
AcDbEntity
  8
SEIHIN
 48
5.0
100
AcDbCircle
 10
264.7452828382373
 20
259.6604020460223
 30
0.0
 40
5.0
100
AcDbArc
 50
82.00000000097274
 51
180.0
  0
DIMENSION
  5
B446
330
1A
100
AcDbEntity
  8
SUNPOU
100
AcDbDimension
  2
*D10
 10
230.4856454418811
 20
241.2513112879612
 30
0.0
 11
225.4856454418811
 21
252.931526838875
 31
0.0
 70
    32
 71
     5
 42
-1.0
  3
STANDARD
100
AcDbAlignedDimension
 13
265.4411483429557
 23
264.6117423897886
 33
0.0
 14
263.7452828382373
 24
241.2513112879612
 34
0.0
 50
90.0
100
AcDbRotatedDimension
1001
ACAD
1000
DSTYLE
1002
{
1070
    41
1040
7.0
1070
    42
1040
6.0
1070
    43
1040
14.0
1070
    44
1040
3.0
1070
    73
1070
     0
1070
    74
1070
     0
1070
    77
1070
     3
1070
   140
1040
6.0
1070
   141
1040
150.0
1070
   147
1040
2.0
1070
   172
1070
     1
1070
   173
1070
     1
1070
   176
1070
   256
1070
   177
1070
   256
1070
   178
1070
   256
1070
   271
1070
     0
1070
   272
1070
     0
1070
   341
1005
6D
1070
     6
1000
OPEN
1070
     7
1000
OPEN
1070
   371
1070
    -1
1070
   372
1070
    -1
1002
}
  0
ARC
  5
B447
330
1A
100
AcDbEntity
  8
SEIHIN
 48
5.0
100
AcDbCircle
 10
263.7452828382373
 20
245.2513112879612
 30
0.0
 40
4.0
100
AcDbArc
 50
180.0
 51
269.9999999988796
  0
LINE
  5
B448
330
1A
100
AcDbEntity
  8
SEIHIN
 48
5.0
100
AcDbLine
 10
263.7452828382373
 20
241.2513112879612
 30
0.0
 11
272.5452828382054
 21
241.2513112879612
 31
0.0
  0
LINE
  5
B449
330
1A
100
AcDbEntity
  8
SEIHIN
 48
5.0
100
AcDbLine
 10
263.7452828382373
 20
242.4513112879612
 30
0.0
 11
272.5452828382054
 21
242.4513112879612
 31
0.0
  0
LINE
  5
B44A
330
1A
100
AcDbEntity
  8
NOKITOI
100
AcDbLine
 10
272.0043883388346
 20
255.1688323054631
 30
0.0
 11
265.4212883388345
 21
255.1688323054631
 31
0.0
  0
LINE
  5
B44B
330
1A
100
AcDbEntity
  8
NOKITOI
100
AcDbLine
 10
264.7212883388347
 20
243.7688323054628
 30
0.0
 11
274.1623428073544
 21
243.768832305463
 31
0.0
  0
LINE
  5
B44C
330
1A
100
AcDbEntity
  8
NOKITOI
100
AcDbLine
 10
272.0043883388346
 20
254.8688323054631
 30
0.0
 11
265.4212883388345
 21
254.8688323054631
 31
0.0
  0
LINE
  5
B44D
330
1A
100
AcDbEntity
  8
NOKITOI
100
AcDbLine
 10
273.4212883388346
 20
256.468832305463
 30
0.0
 11
265.4212883388345
 21
256.468832305463
 31
0.0
  0
LINE
  5
B44E
330
1A
100
AcDbEntity
  8
NOKITOI
100
AcDbLine
 10
265.0212883388346
 20
244.0688323054631
 30
0.0
 11
273.3198752953344
 21
244.0688323054631
 31
0.0
  0
LINE
  5
B44F
330
1A
100
AcDbEntity
  8
NOKITOI
100
AcDbLine
 10
263.4212883388345
 20
242.4688323054631
 30
0.0
 11
273.5147883388346
 21
242.4688323054631
 31
0.0
  0
LINE
  5
B450
330
1A
100
AcDbEntity
  8
SEIHIN
 48
5.0
100
AcDbLine
 10
261.5452828382374
 20
252.9268374265611
 30
0.0
 11
261.5452828382056
 21
250.1291185500611
 31
0.0
  0
LINE
  5
B451
330
1A
100
AcDbEntity
  8
SEIHIN
 48
5.0
100
AcDbLine
 10
259.7452828382373
 20
252.9268374265611
 30
0.0
 11
259.7452828383919
 21
250.1291185500611
 31
0.0
  0
LINE
  5
B452
330
1A
100
AcDbEntity
  8
SEIHIN
 48
5.0
100
AcDbLine
 10
261.5452828382374
 20
243.4513112879612
 30
0.0
 11
261.5452828382056
 21
259.8009428807252
 31
0.0
  0
LINE
  5
B453
330
1A
100
AcDbEntity
  8
SEIHIN
 48
5.0
100
AcDbLine
 10
259.7452828382373
 20
245.2513112879612
 30
0.0
 11
259.7452828381592
 21
259.6604020460223
 31
0.0
  0
LINE
  5
B454
330
1A
100
AcDbEntity
  8
SEIHIN
 48
5.0
100
AcDbLine
 10
262.7452828382373
 20
243.4513112879612
 30
0.0
 11
262.7452828381592
 21
259.8009428807612
 31
0.0
  0
LINE
  5
B455
330
1A
100
AcDbEntity
  8
NOKITOI
100
AcDbLine
 10
264.7212883388347
 20
243.7688323054628
 30
0.0
 11
264.7212883388346
 21
254.468832305463
 31
0.0
  0
LINE
  5
B456
330
1A
100
AcDbEntity
  8
NOKITOI
100
AcDbLine
 10
263.4212883388345
 20
242.4688323054631
 30
0.0
 11
263.4212883388345
 21
254.468832305463
 31
0.0
  0
LINE
  5
B457
330
1A
100
AcDbEntity
  8
NOKITOI
100
AcDbLine
 10
265.0212883388346
 20
244.0688323054631
 30
0.0
 11
265.0212883388346
 21
254.468832305463
 31
0.0
  0
ARC
  5
B458
330
1A
100
AcDbEntity
  8
SEIHIN
 48
5.0
100
AcDbCircle
 10
263.7452828382373
 20
243.4513112879612
 30
0.0
 40
2.2
100
AcDbArc
 50
180.0
 51
269.9999999979612
  0
ARC
  5
B459
330
1A
100
AcDbEntity
  8
SEIHIN
 48
5.0
100
AcDbCircle
 10
263.7452828382373
 20
243.4513112879612
 30
0.0
 40
1.0
100
AcDbArc
 50
180.0
 51
269.9999999955185
  0
ARC
  5
B45A
330
1A
100
AcDbEntity
  8
SEIHIN
 48
5.0
100
AcDbCircle
 10
263.7452828382373
 20
259.8009428807252
 30
0.0
 40
2.2
100
AcDbArc
 50
82.00000000282109
 51
180.0
  0
ARC
  5
B45B
330
1A
100
AcDbEntity
  8
SEIHIN
 48
5.0
100
AcDbCircle
 10
263.7452828382373
 20
259.8009428807612
 30
0.0
 40
1.0
100
AcDbArc
 50
81.99999999999922
 51
180.0
  0
ARC
  5
B45C
330
1A
100
AcDbEntity
  8
NOKITOI
100
AcDbCircle
 10
265.4212868446345
 20
254.468833799663
 30
0.0
 40
1.9999985059
100
AcDbArc
 50
89.99995719569815
 51
180.0000428043002
  0
ARC
  5
B45D
330
1A
100
AcDbEntity
  8
NOKITOI
100
AcDbCircle
 10
265.4212880400346
 20
254.468832604263
 30
0.0
 40
0.6999997011999999
100
AcDbArc
 50
89.99995719569815
 51
180.0000428043002
  0
ARC
  5
B45E
330
1A
100
AcDbEntity
  8
NOKITOI
100
AcDbCircle
 10
265.4212880400346
 20
254.468832604263
 30
0.0
 40
0.3999997012
100
AcDbArc
 50
89.99995719569815
 51
180.0000428043002
  0
LINE
  5
B45F
330
1A
100
AcDbEntity
  8
NOKITOI
100
AcDbLine
 10
273.3198752953344
 20
244.0688323054631
 30
0.0
 11
272.0043883388346
 21
254.8688323054631
 31
0.0
  0
LINE
  5
B465
330
1A
100
AcDbEntity
  8
SEIHIN
 48
5.0
100
AcDbLine
 10
272.5452828382373
 20
242.4513112879612
 30
0.0
 11
272.5452828382054
 21
241.2513112879612
 31
0.0
  0
LINE
  5
B469
330
1A
100
AcDbEntity
  8
SEIHIN
 48
5.0
100
AcDbLine
 10
392.2703922725372
 20
211.6255743133612
 30
0.0
 11
397.6195307654941
 21
226.3222115364612
 31
0.0
  0
LINE
  5
B46A
330
1A
100
AcDbEntity
  8
SEIHIN
 48
5.0
100
AcDbLine
 10
391.1427611275939
 20
212.0359984853508
 30
0.0
 11
396.4918996204305
 21
226.732635708437
 31
0.0
  0
LINE
  5
B46B
330
1A
100
AcDbEntity
  8
SEIHIN
 48
5.0
100
AcDbLine
 10
388.8755920236524
 20
213.9936548866847
 30
0.0
 11
393.8607602821807
 21
227.6902921097462
 31
0.0
  0
LINE
  5
B46C
330
1A
100
AcDbEntity
  8
SEIHIN
 48
5.0
100
AcDbLine
 10
304.3788959636274
 20
213.1719419226129
 30
0.0
 11
298.4245304349258
 21
255.5394541208268
 31
0.0
  0
LINE
  5
B46D
330
1A
100
AcDbEntity
  8
SEIHIN
 48
5.0
100
AcDbLine
 10
307.0111057214051
 20
214.5616266052718
 30
0.0
 11
301.1972810274835
 21
255.9291388035142
 31
0.0
  0
LINE
  5
B46E
330
1A
100
AcDbEntity
  8
SEIHIN
 48
5.0
100
AcDbLine
 10
303.1905742811375
 20
213.0049342014612
 30
0.0
 11
297.2362087525341
 21
255.3724463997612
 31
0.0
  0
LINE
  5
B46F
330
1A
100
AcDbEntity
  8
CENTER L
  6
CENTER
 48
5.0
100
AcDbLine
 10
349.9711334999287
 20
187.158878357361
 30
0.0
 11
349.9711334999287
 21
224.5568711768711
 31
0.0
  0
LINE
  5
B470
330
1A
100
AcDbEntity
  8
NOKITOI
100
AcDbLine
 10
415.9225970345344
 20
214.0687323054631
 30
0.0
 11
417.2441883388346
 21
224.868732305463
 31
0.0
  0
LINE
  5
B471
330
1A
100
AcDbEntity
  8
NOKITOI
100
AcDbLine
 10
415.8280883388347
 20
226.4687323054631
 30
0.0
 11
405.5480236082346
 21
142.4614077830631
 31
0.0
  0
LINE
  5
B472
330
1A
100
AcDbEntity
  8
SEIHIN
  6
Continuous
 62
     3
100
AcDbLine
 10
354.4661334999289
 20
217.4605821699612
 30
0.0
 11
354.4661334999289
 21
215.9605821699611
 31
0.0
  0
LINE
  5
B473
330
1A
100
AcDbEntity
  8
SEIHIN
  6
Continuous
 62
     3
100
AcDbLine
 10
345.4661334999288
 20
217.4605821699612
 30
0.0
 11
345.4661334999288
 21
215.9605821699611
 31
0.0
  0
LINE
  5
B474
330
1A
100
AcDbEntity
  8
SEIHIN
 48
5.0
100
AcDbLine
 10
335.5653918381442
 20
212.1513112879612
 30
0.0
 11
355.5653918381442
 21
212.1513112879612
 31
0.0
  0
LINE
  5
B475
330
1A
100
AcDbEntity
  8
SEIHIN
 48
5.0
100
AcDbLine
 10
335.5653918381442
 20
212.1513112879612
 30
0.0
 11
355.5653918381442
 21
212.1513112879612
 31
0.0
  0
LINE
  5
B476
330
1A
100
AcDbEntity
  8
SEIHIN
 48
5.0
100
AcDbLine
 10
386.2444526854389
 20
212.1513112879612
 30
0.0
 11
309.7838563138811
 21
212.1513112879612
 31
0.0
  0
LINE
  5
B477
330
1A
100
AcDbEntity
  8
SEIHIN
 48
5.0
100
AcDbLine
 10
385.8804824511373
 20
208.3513112879612
 30
0.0
 11
309.9243971486373
 21
208.3513112879612
 31
0.0
  0
LINE
  5
B478
330
1A
100
AcDbEntity
  8
SEIHIN
 48
5.0
100
AcDbLine
 10
385.8804824511373
 20
207.1513112879612
 30
0.0
 11
309.9243971486373
 21
207.1513112879612
 31
0.0
  0
LINE
  5
B479
330
1A
100
AcDbEntity
  8
NOKITOI
100
AcDbLine
 10
400.5850456435348
 20
137.268732305463
 30
0.0
 11
292.2714346232345
 21
137.268732305463
 31
0.0
  0
LINE
  5
B47A
330
1A
100
AcDbEntity
  8
NOKITOI
100
AcDbLine
 10
400.5850456435348
 20
138.0687323054631
 30
0.0
 11
292.2714346232345
 21
138.0687323054631
 31
0.0
  0
LINE
  5
B47B
330
1A
100
AcDbEntity
  8
NOKITOI
100
AcDbLine
 10
404.6563883388346
 20
136.4687323054631
 30
0.0
 11
288.1977883388346
 21
136.4687323054631
 31
0.0
  0
LINE
  5
B47C
330
1A
100
AcDbEntity
  8
SEIHIN
  6
Continuous
 62
     3
100
AcDbLine
 10
358.9661334999289
 20
215.9605821699611
 30
0.0
 11
339.9661334999289
 21
215.9605821699611
 31
0.0
  0
LINE
  5
B47D
330
1A
100
AcDbEntity
  8
SEIHIN
  6
Continuous
 62
     3
100
AcDbLine
 10
349.9667334999287
 20
207.1588783573611
 30
0.0
 11
356.4667334999287
 21
207.1611783573612
 31
0.0
  0
LINE
  5
B47E
330
1A
100
AcDbEntity
  8
SEIHIN
  6
Continuous
 62
     3
100
AcDbLine
 10
349.9693334999288
 20
200.3588783573611
 30
0.0
 11
354.9694334999287
 21
200.3605783573612
 31
0.0
  0
LINE
  5
B47F
330
1A
100
AcDbEntity
  8
SEIHIN
  6
Continuous
 62
     3
100
AcDbLine
 10
349.9711334999287
 20
195.3588783573611
 30
0.0
 11
352.9711334999287
 21
195.3598783573612
 31
0.0
  0
LINE
  5
B480
330
1A
100
AcDbEntity
  8
CENTER L
  6
CENTER
 48
5.0
100
AcDbLine
 10
346.4282401333846
 20
129.4687323054629
 30
0.0
 11
346.4282401333846
 21
145.0687323054629
 31
0.0
  0
ARC
  5
B481
330
1A
100
AcDbEntity
  8
SEIHIN
 48
5.0
100
AcDbCircle
 10
309.9243971486373
 20
213.9513112879612
 30
0.0
 40
6.799999999999999
100
AcDbArc
 50
188.000000000001
 51
270.0000000004885
  0
LINE
  5
B482
330
1A
100
AcDbEntity
  8
CENTER L
 48
5.0
100
AcDbLine
 10
314.7452828384109
 20
204.1351724016071
 30
0.0
 11
314.7452828381913
 21
214.683614498369
 31
0.0
  0
LINE
  5
B483
330
1A
100
AcDbEntity
  8
SEIHIN
 48
5.0
100
AcDbLine
 10
310.3730587640773
 20
212.1513112879612
 30
0.0
 11
306.9291045893321
 21
215.145094977622
 31
0.0
  0
ARC
  5
B484
330
1A
100
AcDbEntity
  8
SEIHIN
 48
5.0
100
AcDbCircle
 10
309.7838563138811
 20
214.9513112879612
 30
0.0
 40
2.799999999999999
100
AcDbArc
 50
188.0000000000246
 51
270.0
  0
ARC
  5
B485
330
1A
100
AcDbEntity
  8
SEIHIN
 48
5.0
100
AcDbCircle
 10
309.9243971486373
 20
213.9513112879612
 30
0.0
 40
5.599999999999999
100
AcDbArc
 50
188.000000000001
 51
270.0000000005927
  0
ARC
  5
B486
330
1A
100
AcDbEntity
  8
SEIHIN
 48
5.0
100
AcDbCircle
 10
314.7452828382438
 20
208.0897728264228
 30
0.0
 40
5.361538461538349
100
AcDbArc
 50
49.24712957232873
 51
130.7528704276712
  0
ARC
  5
B487
330
1A
100
AcDbEntity
  8
SEIHIN
  6
Continuous
 62
     3
100
AcDbCircle
 10
338.9704214999289
 20
197.3550843573612
 30
0.0
 40
5.000016
100
AcDbArc
 50
131.1319729999989
 51
344.7743969999996
  0
LINE
  5
B488
330
1A
100
AcDbEntity
  8
SEIHIN
  6
Continuous
 62
     3
100
AcDbLine
 10
343.9667334999287
 20
208.3567783573612
 30
0.0
 11
335.6814334999287
 21
201.1210783573611
 31
0.0
  0
LINE
  5
B489
330
1A
100
AcDbEntity
  8
SEIHIN
 62
     2
 48
5.0
100
AcDbLine
 10
325.3452771501031
 20
211.874090204776
 30
0.0
 11
325.7452771501029
 21
211.874090204776
 31
0.0
  0
LINE
  5
B48A
330
1A
100
AcDbEntity
  8
SEIHIN
 62
     2
 48
5.0
100
AcDbLine
 10
325.3452771501031
 20
208.074090204776
 30
0.0
 11
325.7452771501029
 21
208.074090204776
 31
0.0
  0
LINE
  5
B48B
330
1A
100
AcDbEntity
  8
SEIHIN
 62
     2
100
AcDbLine
 10
325.3452771501031
 20
212.1513112879612
 30
0.0
 11
325.3452771501031
 21
211.874090204776
 31
0.0
  0
LINE
  5
B48C
330
1A
100
AcDbEntity
  8
SEIHIN
 62
     2
100
AcDbLine
 10
325.3452771501031
 20
208.3513112879612
 30
0.0
 11
325.3452771501031
 21
208.074090204776
 31
0.0
  0
LINE
  5
B48D
330
1A
100
AcDbEntity
  8
SEIHIN
 62
     2
100
AcDbLine
 10
325.7452771501029
 20
212.1513112879612
 30
0.0
 11
325.7452771501029
 21
211.874090204776
 31
0.0
  0
LINE
  5
B48E
330
1A
100
AcDbEntity
  8
SEIHIN
 62
     2
100
AcDbLine
 10
325.7452771501029
 20
208.3513112879613
 30
0.0
 11
325.7452771501029
 21
208.074090204776
 31
0.0
  0
LINE
  5
B48F
330
1A
100
AcDbEntity
  8
SEIHIN
 62
     2
100
AcDbLine
 10
335.745277150103
 20
212.1513112879612
 30
0.0
 11
335.745277150103
 21
211.874090204776
 31
0.0
  0
LINE
  5
B490
330
1A
100
AcDbEntity
  8
SEIHIN
 62
     2
100
AcDbLine
 10
335.3452771501031
 20
212.1513112879612
 30
0.0
 11
335.3452771501031
 21
211.874090204776
 31
0.0
  0
LINE
  5
B491
330
1A
100
AcDbEntity
  8
SEIHIN
 62
     2
 48
5.0
100
AcDbLine
 10
335.3452771501031
 20
211.874090204776
 30
0.0
 11
335.745277150103
 21
211.874090204776
 31
0.0
  0
LINE
  5
B492
330
1A
100
AcDbEntity
  8
SEIHIN
 62
     2
 48
5.0
100
AcDbLine
 10
335.3452771501031
 20
208.074090204776
 30
0.0
 11
335.745277150103
 21
208.074090204776
 31
0.0
  0
LINE
  5
B493
330
1A
100
AcDbEntity
  8
SEIHIN
 62
     2
100
AcDbLine
 10
335.3452771501031
 20
208.3513112879612
 30
0.0
 11
335.3452771501031
 21
208.074090204776
 31
0.0
  0
LINE
  5
B494
330
1A
100
AcDbEntity
  8
SEIHIN
 62
     2
100
AcDbLine
 10
335.745277150103
 20
208.3513112879613
 30
0.0
 11
335.745277150103
 21
208.074090204776
 31
0.0
  0
LINE
  5
B495
330
1A
100
AcDbEntity
  8
SEIHIN
 62
     2
 48
5.0
100
AcDbLine
 10
330.3452771501031
 20
208.074090204776
 30
0.0
 11
330.7452771501029
 21
208.074090204776
 31
0.0
  0
LINE
  5
B496
330
1A
100
AcDbEntity
  8
SEIHIN
 62
     2
100
AcDbLine
 10
330.3452771501031
 20
208.3513112879612
 30
0.0
 11
330.3452771501031
 21
208.074090204776
 31
0.0
  0
LINE
  5
B497
330
1A
100
AcDbEntity
  8
SEIHIN
 62
     2
100
AcDbLine
 10
330.7452771501029
 20
208.3513112879613
 30
0.0
 11
330.7452771501029
 21
208.074090204776
 31
0.0
  0
LINE
  5
B498
330
1A
100
AcDbEntity
  8
SEIHIN
  6
Continuous
 62
     3
100
AcDbLine
 10
343.9667334999287
 20
208.3567783573612
 30
0.0
 11
344.9693334999287
 21
200.3571783573612
 31
0.0
  0
LINE
  5
B499
330
1A
100
AcDbEntity
  8
SEIHIN
  6
Continuous
 62
     3
100
AcDbLine
 10
344.9693334999287
 20
200.3571783573612
 30
0.0
 11
343.7949334999288
 21
196.0420783573612
 31
0.0
  0
LINE
  5
B49A
330
1A
100
AcDbEntity
  8
SEIHIN
  6
Continuous
 62
     3
100
AcDbLine
 10
347.4693334999287
 20
200.3579783573612
 30
0.0
 11
347.4711334999287
 21
195.3579783573612
 31
0.0
  0
LINE
  5
B49B
330
1A
100
AcDbEntity
  8
SEIHIN
  6
Continuous
 62
     3
100
AcDbLine
 10
349.9711334999287
 20
195.3588783573611
 30
0.0
 11
346.9711334999288
 21
195.3578783573612
 31
0.0
  0
LINE
  5
B49C
330
1A
100
AcDbEntity
  8
SEIHIN
  6
Continuous
 62
     3
100
AcDbLine
 10
349.9693334999288
 20
200.3588783573611
 30
0.0
 11
344.9693334999287
 21
200.3571783573612
 31
0.0
  0
LINE
  5
B49D
330
1A
100
AcDbEntity
  8
SEIHIN
  6
Continuous
 62
     3
100
AcDbLine
 10
346.9693334999287
 20
200.3578783573612
 30
0.0
 11
346.9711334999288
 21
195.3578783573612
 31
0.0
  0
LINE
  5
B49E
330
1A
100
AcDbEntity
  8
SEIHIN
  6
Continuous
 62
     3
100
AcDbLine
 10
349.9667334999287
 20
207.1588783573611
 30
0.0
 11
343.4667334999287
 21
207.1566783573612
 31
0.0
  0
LINE
  5
B49F
330
1A
100
AcDbEntity
  8
SEIHIN
 62
     2
100
AcDbLine
 10
340.7452771501029
 20
208.3513112879613
 30
0.0
 11
340.7452771501029
 21
208.074090204776
 31
0.0
  0
LINE
  5
B4A0
330
1A
100
AcDbEntity
  8
SEIHIN
 62
     2
100
AcDbLine
 10
340.3452771501031
 20
208.3513112879612
 30
0.0
 11
340.3452771501031
 21
208.074090204776
 31
0.0
  0
LINE
  5
B4A1
330
1A
100
AcDbEntity
  8
SEIHIN
 62
     2
 48
5.0
100
AcDbLine
 10
340.3452771501031
 20
208.074090204776
 30
0.0
 11
340.7452771501029
 21
208.074090204776
 31
0.0
  0
LINE
  5
B4A2
330
1A
100
AcDbEntity
  8
SEIHIN
  6
Continuous
 62
     3
100
AcDbLine
 10
339.9661334999289
 20
212.9605821699612
 30
0.0
 11
339.9661334999289
 21
215.9605821699611
 31
0.0
  0
LINE
  5
B4A3
330
1A
100
AcDbEntity
  8
SEIHIN
 62
     2
100
AcDbLine
 10
350.7451300575628
 20
208.3513112879613
 30
0.0
 11
350.7451300575628
 21
208.074090204776
 31
0.0
  0
LINE
  5
B4A4
330
1A
100
AcDbEntity
  8
SEIHIN
 62
     2
100
AcDbLine
 10
346.0452828381442
 20
212.1513112879612
 30
0.0
 11
345.5452828381442
 21
211.8740902047759
 31
0.0
  0
LINE
  5
B4A5
330
1A
100
AcDbEntity
  8
SEIHIN
 62
     2
100
AcDbLine
 10
345.0452828381441
 20
212.1513112879612
 30
0.0
 11
345.5452828381442
 21
211.874090204776
 31
0.0
  0
LINE
  5
B4A6
330
1A
100
AcDbEntity
  8
SEIHIN
 62
     2
100
AcDbLine
 10
345.0452828381441
 20
208.3513112879612
 30
0.0
 11
345.5452828381442
 21
208.074090204776
 31
0.0
  0
LINE
  5
B4A7
330
1A
100
AcDbEntity
  8
SEIHIN
 62
     2
100
AcDbLine
 10
346.0452828381442
 20
208.3513112879612
 30
0.0
 11
345.5452828381442
 21
208.0740902047759
 31
0.0
  0
LINE
  5
B4A8
330
1A
100
AcDbEntity
  8
SEIHIN
 62
     2
100
AcDbLine
 10
350.3451300575629
 20
208.3513112879612
 30
0.0
 11
350.3451300575629
 21
208.074090204776
 31
0.0
  0
LINE
  5
B4A9
330
1A
100
AcDbEntity
  8
SEIHIN
 62
     2
 48
5.0
100
AcDbLine
 10
350.3451300575629
 20
208.074090204776
 30
0.0
 11
350.7451300575628
 21
208.074090204776
 31
0.0
  0
LINE
  5
B4AA
330
1A
100
AcDbEntity
  8
NOKITOI
100
AcDbLine
 10
415.0799435824717
 20
213.768732305463
 30
0.0
 11
406.3421001820586
 21
142.3642357968537
 31
0.0
  0
LINE
  5
B4AB
330
1A
100
AcDbEntity
  8
NOKITOI
100
AcDbLine
 10
415.7267883388347
 20
212.4687323054631
 30
0.0
 11
406.6415883388349
 21
138.2257323054631
 31
0.0
  0
ARC
  5
B4AC
330
1A
100
AcDbEntity
  8
NOKITOI
100
AcDbCircle
 10
400.5850449739345
 20
143.0687323054629
 30
0.0
 40
5.799999999999998
100
AcDbArc
 50
270.0000083395027
 51
353.0233460827987
  0
ARC
  5
B4AD
330
1A
100
AcDbEntity
  8
NOKITOI
100
AcDbCircle
 10
400.5850449739345
 20
143.0687323054629
 30
0.0
 40
5.0
100
AcDbArc
 50
270.0000083395027
 51
353.0233460827987
  0
ARC
  5
B4AE
330
1A
100
AcDbEntity
  8
NOKITOI
100
AcDbCircle
 10
400.5850456435348
 20
138.4687323054631
 30
0.0
 40
0.4
100
AcDbArc
 50
270.0
 51
270.0000083395027
  0
ARC
  5
B4AF
330
1A
100
AcDbEntity
  8
NOKITOI
100
AcDbCircle
 10
404.6563911567347
 20
138.468734656463
 30
0.0
 40
2.000002351
100
AcDbArc
 50
269.9999192742986
 51
353.0241468026998
  0
ARC
  5
B4B0
330
1A
100
AcDbEntity
  8
SEIHIN
  6
Continuous
 62
     3
100
AcDbCircle
 10
360.9704124999288
 20
197.3625643573612
 30
0.0
 40
5.000074999999998
100
AcDbArc
 50
195.2643649999996
 51
48.90768499999992
  0
LINE
  5
B4B1
330
1A
100
AcDbEntity
  8
SEIHIN
  6
Continuous
 62
     3
100
AcDbLine
 10
355.9667334999287
 20
208.3608783573613
 30
0.0
 11
354.9694334999287
 21
200.3605783573612
 31
0.0
  0
LINE
  5
B4B2
330
1A
100
AcDbEntity
  8
SEIHIN
  6
Continuous
 62
     3
100
AcDbLine
 10
355.9667334999287
 20
208.3608783573613
 30
0.0
 11
364.2568334999289
 21
201.1308783573612
 31
0.0
  0
LINE
  5
B4B3
330
1A
100
AcDbEntity
  8
SEIHIN
  6
Continuous
 62
     3
100
AcDbLine
 10
354.9694334999287
 20
200.3605783573612
 30
0.0
 11
356.1468334999287
 21
196.0462783573611
 31
0.0
  0
LINE
  5
B4B4
330
1A
100
AcDbEntity
  8
SEIHIN
  6
Continuous
 62
     3
100
AcDbLine
 10
352.4694334999287
 20
200.3597783573611
 30
0.0
 11
352.4711334999287
 21
195.3597783573611
 31
0.0
  0
LINE
  5
B4B5
330
1A
100
AcDbEntity
  8
SEIHIN
  6
Continuous
 62
     3
100
AcDbLine
 10
352.9694334999287
 20
200.3599783573612
 30
0.0
 11
352.9711334999287
 21
195.3598783573612
 31
0.0
  0
LINE
  5
B4B6
330
1A
100
AcDbEntity
  8
SEIHIN
 62
     2
 48
5.0
100
AcDbLine
 10
360.3451300575629
 20
208.074090204776
 30
0.0
 11
360.7451300575628
 21
208.074090204776
 31
0.0
  0
ARC
  5
B4B7
330
1A
100
AcDbEntity
  8
SEIHIN
  6
Continuous
 62
     3
100
AcDbCircle
 10
358.9661364999287
 20
216.9605791699611
 30
0.0
 40
3.999997
100
AcDbArc
 50
269.9999569999982
 51
0.0000430000000937
  0
LINE
  5
B4B8
330
1A
100
AcDbEntity
  8
SEIHIN
 62
     2
100
AcDbLine
 10
360.3451300575629
 20
208.3513112879612
 30
0.0
 11
360.3451300575629
 21
208.074090204776
 31
0.0
  0
LINE
  5
B4B9
330
1A
100
AcDbEntity
  8
SEIHIN
 62
     2
100
AcDbLine
 10
355.7451300575628
 20
212.1513112879612
 30
0.0
 11
355.7451300575628
 21
211.874090204776
 31
0.0
  0
LINE
  5
B4BA
330
1A
100
AcDbEntity
  8
SEIHIN
 62
     2
100
AcDbLine
 10
355.345130057563
 20
212.1513112879612
 30
0.0
 11
355.345130057563
 21
211.874090204776
 31
0.0
  0
LINE
  5
B4BB
330
1A
100
AcDbEntity
  8
SEIHIN
 62
     2
 48
5.0
100
AcDbLine
 10
355.345130057563
 20
211.874090204776
 30
0.0
 11
355.7451300575628
 21
211.874090204776
 31
0.0
  0
LINE
  5
B4BC
330
1A
100
AcDbEntity
  8
SEIHIN
 62
     2
 48
5.0
100
AcDbLine
 10
355.345130057563
 20
208.074090204776
 30
0.0
 11
355.7451300575628
 21
208.074090204776
 31
0.0
  0
LINE
  5
B4BD
330
1A
100
AcDbEntity
  8
SEIHIN
 62
     2
100
AcDbLine
 10
355.345130057563
 20
208.3513112879612
 30
0.0
 11
355.345130057563
 21
208.074090204776
 31
0.0
  0
LINE
  5
B4BE
330
1A
100
AcDbEntity
  8
SEIHIN
 62
     2
100
AcDbLine
 10
355.7451300575628
 20
208.3513112879613
 30
0.0
 11
355.7451300575628
 21
208.074090204776
 31
0.0
  0
ARC
  5
B4BF
330
1A
100
AcDbEntity
  8
SEIHIN
  6
Continuous
 62
     3
100
AcDbCircle
 10
358.9661334999289
 20
216.9605821699611
 30
0.0
 40
0.999999
100
AcDbArc
 50
269.9999569999982
 51
0.0000430000000937
  0
LINE
  5
B4C0
330
1A
100
AcDbEntity
  8
SEIHIN
 62
     2
100
AcDbLine
 10
365.7449829650229
 20
212.1513112879612
 30
0.0
 11
365.7449829650229
 21
211.874090204776
 31
0.0
  0
LINE
  5
B4C1
330
1A
100
AcDbEntity
  8
SEIHIN
 62
     2
100
AcDbLine
 10
365.3449829650228
 20
212.1513112879612
 30
0.0
 11
365.3449829650228
 21
211.874090204776
 31
0.0
  0
LINE
  5
B4C2
330
1A
100
AcDbEntity
  8
SEIHIN
 62
     2
 48
5.0
100
AcDbLine
 10
365.344982965023
 20
211.874090204776
 30
0.0
 11
365.7449829650229
 21
211.874090204776
 31
0.0
  0
LINE
  5
B4C3
330
1A
100
AcDbEntity
  8
SEIHIN
 62
     2
100
AcDbLine
 10
360.7451300575628
 20
208.3513112879613
 30
0.0
 11
360.7451300575628
 21
208.074090204776
 31
0.0
  0
LINE
  5
B4C4
330
1A
100
AcDbEntity
  8
SEIHIN
 62
     2
 48
5.0
100
AcDbLine
 10
365.344982965023
 20
208.074090204776
 30
0.0
 11
365.7449829650229
 21
208.074090204776
 31
0.0
  0
LINE
  5
B4C5
330
1A
100
AcDbEntity
  8
SEIHIN
 62
     2
100
AcDbLine
 10
365.3449829650228
 20
208.3513112879612
 30
0.0
 11
365.3449829650228
 21
208.074090204776
 31
0.0
  0
LINE
  5
B4C6
330
1A
100
AcDbEntity
  8
SEIHIN
 62
     2
100
AcDbLine
 10
365.7449829650229
 20
208.3513112879613
 30
0.0
 11
365.7449829650229
 21
208.074090204776
 31
0.0
  0
LINE
  5
B4C7
330
1A
100
AcDbEntity
  8
CENTER L
 48
5.0
100
AcDbLine
 10
380.7452828382922
 20
202.4277283415335
 30
0.0
 11
380.7452828380728
 21
214.683614498369
 31
0.0
  0
ARC
  5
B4C8
330
1A
100
AcDbEntity
  8
SEIHIN
 48
5.0
100
AcDbCircle
 10
380.7452828381181
 20
208.0897728264228
 30
0.0
 40
5.361538461538349
100
AcDbArc
 50
49.24712957232873
 51
130.7528704276712
  0
LINE
  5
B4C9
330
1A
100
AcDbEntity
  8
SEIHIN
 48
5.0
100
AcDbLine
 10
416.9452828382374
 20
212.4513112879612
 30
0.0
 11
416.9452828382288
 21
178.4513112879612
 31
0.0
  0
ARC
  5
B4CD
330
1A
100
AcDbEntity
  8
SEIHIN
 48
5.0
100
AcDbCircle
 10
385.8804824511373
 20
213.9513112879612
 30
0.0
 40
5.599999999999999
100
AcDbArc
 50
270.0
 51
339.9999999997898
  0
ARC
  5
B4CE
330
1A
100
AcDbEntity
  8
SEIHIN
 48
5.0
100
AcDbCircle
 10
386.2444526854389
 20
214.9513112879612
 30
0.0
 40
2.799999999999999
100
AcDbArc
 50
270.0
 51
340.0000000007714
  0
LINE
  5
B4CF
330
1A
100
AcDbEntity
  8
SEIHIN
 48
5.0
100
AcDbLine
 10
385.502123904482
 20
212.1513112879612
 30
0.0
 11
389.1294834196928
 21
214.6912157643282
 31
0.0
  0
ARC
  5
B4D0
330
1A
100
AcDbEntity
  8
SEIHIN
 48
5.0
100
AcDbCircle
 10
385.8804824511373
 20
213.9513112879612
 30
0.0
 40
6.799999999999999
100
AcDbArc
 50
270.0
 51
339.9999999995053
  0
LINE
  5
B4D1
330
1A
100
AcDbEntity
  8
SEIHIN
 48
5.0
100
AcDbLine
 10
416.9452828382374
 20
212.4513112879612
 30
0.0
 11
416.9452828382288
 21
199.2056461341612
 31
0.0
  0
LINE
  5
B4DA
330
1A
100
AcDbEntity
  8
CENTER L
  6
CENTER
 48
5.0
100
AcDbLine
 10
346.6004334999288
 20
282.9604821699612
 30
0.0
 11
368.9662334999288
 21
282.9604821699612
 31
0.0
  0
ARC
  5
B4DB
330
1A
100
AcDbEntity
  8
SEIHIN
  6
Continuous
 62
     3
100
AcDbCircle
 10
349.9664334999286
 20
211.4575871699611
 30
0.0
 40
7.502216
100
AcDbArc
 50
53.14566100000037
 51
126.8581589999976
  0
LINE
  5
B4DC
330
1A
100
AcDbEntity
  8
SEIHIN
  6
Continuous
 62
     3
100
AcDbLine
 10
345.4661334999288
 20
217.4605821699612
 30
0.0
 11
354.4661334999289
 21
217.4605821699612
 31
0.0
  0
ARC
  5
B4DD
330
1A
100
AcDbEntity
  8
SEIHIN
  6
Continuous
 62
     3
100
AcDbCircle
 10
362.6661104999289
 20
273.3200191699612
 30
0.0
 40
10.706013
100
AcDbArc
 50
181.9239739999999
 51
255.392149
  0
LINE
  5
B4E3
330
1A
100
AcDbEntity
  8
SEIHIN
 48
5.0
100
AcDbLine
 10
296.3398080267262
 20
257.4417017635218
 30
0.0
 11
292.5448784722626
 21
257.9750443307218
 31
0.0
  0
ARC
  5
B4E4
330
1A
100
AcDbEntity
  8
SEIHIN
 48
5.0
100
AcDbCircle
 10
296.2459406838079
 20
255.2332732987153
 30
0.0
 40
2.2
100
AcDbArc
 50
8.000000000394948
 51
81.9999999999729
  0
ARC
  5
B4E5
330
1A
100
AcDbEntity
  8
SEIHIN
 48
5.0
100
AcDbCircle
 10
296.2459406838373
 20
255.2332732987612
 30
0.0
 40
1.0
100
AcDbArc
 50
8.000000000001076
 51
81.99999999711158
  0
ARC
  5
B4E6
330
1A
100
AcDbEntity
  8
SEIHIN
 48
5.0
100
AcDbCircle
 10
296.2459406838373
 20
255.2332732987612
 30
0.0
 40
1.0
100
AcDbArc
 50
8.000000000001076
 51
81.99999999711158
  0
ARC
  5
B4E7
330
1A
100
AcDbEntity
  8
SEIHIN
 48
5.0
100
AcDbCircle
 10
296.2459406838079
 20
255.2332732987153
 30
0.0
 40
5.0
100
AcDbArc
 50
8.000000000034436
 51
81.9999999999729
  0
LINE
  5
B4E8
330
1A
100
AcDbEntity
  8
SEIHIN
  6
DASHED
 62
     6
 48
3.0
100
AcDbLine
 10
325.4662334999288
 20
282.9605821699611
 30
0.0
 11
341.9661824999288
 21
282.9605821699611
 31
0.0
  0
ARC
  5
B4E9
330
1A
100
AcDbEntity
  8
SEIHIN
 48
5.0
100
AcDbCircle
 10
398.5592233863185
 20
225.9801913931226
 30
0.0
 40
5.0
100
AcDbArc
 50
98.00000000052701
 51
160.0000000000565
  0
ARC
  5
B4EA
330
1A
100
AcDbEntity
  8
SEIHIN
 48
5.0
100
AcDbCircle
 10
398.5592233863373
 20
225.9801913930612
 30
0.0
 40
1.0
100
AcDbArc
 50
98.00000000000078
 51
160.0000000011212
  0
ARC
  5
B4EB
330
1A
100
AcDbEntity
  8
SEIHIN
 48
5.0
100
AcDbCircle
 10
398.5592233863185
 20
225.9801913931226
 30
0.0
 40
2.2
100
AcDbArc
 50
97.99999999988894
 51
160.0000000014669
  0
LINE
  5
B4EC
330
1A
100
AcDbEntity
  8
SEIHIN
  6
DASHED
 62
     6
 48
3.0
100
AcDbLine
 10
374.4662334999288
 20
282.9604821699612
 30
0.0
 11
390.9661824999289
 21
282.9604821699612
 31
0.0
  0
DIMENSION
  5
B4ED
330
1A
100
AcDbEntity
  8
SUNPOU
  6
Continuous
100
AcDbDimension
  2
*D11
 10
374.4661334999288
 20
405.7745031699613
 30
0.0
 11
351.9661334999288
 21
410.7745031699613
 31
0.0
 70
    32
 71
     5
 42
-1.0
  3
STANDARD
100
AcDbAlignedDimension
 13
329.4661334999289
 23
372.9605821699612
 33
0.0
 14
374.4661334999288
 24
372.9605821699612
 34
0.0
100
AcDbRotatedDimension
1001
ACAD
1000
DSTYLE
1002
{
1070
   140
1040
6.0
1070
    74
1070
     0
1070
   172
1070
     1
1070
    73
1070
     0
1070
   272
1070
     2
1070
    77
1070
     3
1070
   173
1070
     1
1070
   147
1040
2.0
1070
    42
1040
6.0
1070
    44
1040
3.0
1070
    43
1040
14.0
1070
   271
1070
     0
1070
   178
1070
     4
1070
   177
1070
     4
1070
   176
1070
     4
1070
   141
1040
150.0
1070
     7
1000
_OPEN
1070
     6
1000
_OPEN
1070
    41
1040
7.0
1002
}
  0
LINE
  5
B4EE
330
1A
100
AcDbEntity
  8
CENTER L
  6
CENTER
 48
5.0
100
AcDbLine
 10
346.6005334999288
 20
357.9604821699612
 30
0.0
 11
368.9663334999288
 21
357.9604821699612
 31
0.0
  0
LINE
  5
B4EF
330
1A
100
AcDbEntity
  8
CENTER L
  6
CENTER
 48
5.0
100
AcDbLine
 10
346.6004334999288
 20
312.9604821699611
 30
0.0
 11
368.9662334999288
 21
312.9604821699611
 31
0.0
  0
LINE
  5
B4F0
330
1A
100
AcDbEntity
  8
SEIHIN
  6
Continuous
 62
     3
100
AcDbLine
 10
351.9661334999288
 20
372.9605821699612
 30
0.0
 11
362.9662334999288
 21
372.9605821699612
 31
0.0
  0
LINE
  5
B4F1
330
1A
100
AcDbEntity
  8
SEIHIN
  6
DASHED
 62
     6
 48
3.0
100
AcDbLine
 10
325.4661334999289
 20
312.9605821699612
 30
0.0
 11
341.9662004999288
 21
312.9605821699612
 31
0.0
  0
LINE
  5
B4F2
330
1A
100
AcDbEntity
  8
SEIHIN
  6
DASHED
 62
     6
 48
3.0
100
AcDbLine
 10
325.4661334999289
 20
357.9605821699612
 30
0.0
 11
341.9662274999288
 21
357.9605821699612
 31
0.0
  0
LINE
  5
B4F3
330
1A
100
AcDbEntity
  8
SEIHIN
  6
DASHED
 62
     6
 48
3.0
100
AcDbLine
 10
329.4661334999289
 20
372.9605821699612
 30
0.0
 11
340.4662334999288
 21
372.9605821699612
 31
0.0
  0
LINE
  5
B4F4
330
1A
100
AcDbEntity
  8
SEIHIN
  6
DASHED
 62
     6
 48
3.0
100
AcDbLine
 10
374.4661334999288
 20
312.9604821699611
 30
0.0
 11
390.9662004999288
 21
312.9604821699611
 31
0.0
  0
LINE
  5
B4F5
330
1A
100
AcDbEntity
  8
SEIHIN
  6
DASHED
 62
     6
 48
3.0
100
AcDbLine
 10
374.4661334999288
 20
357.9604821699612
 30
0.0
 11
390.9662274999289
 21
357.9604821699612
 31
0.0
  0
LINE
  5
B4F6
330
1A
100
AcDbEntity
  8
SEIHIN
  6
DASHED
 62
     6
 48
3.0
100
AcDbLine
 10
374.4661334999288
 20
372.9605821699612
 30
0.0
 11
385.4662334999289
 21
372.9605821699612
 31
0.0
  0
TEXT
  5
B4F7
330
1A
100
AcDbEntity
  8
SUNPOU
 48
5.0
100
AcDbText
 10
373.3651564999288
 20
410.9162893784295
 30
0.0
 40
6.0
  1
スライド巾
100
AcDbText
  0
LINE
  5
B4F8
330
1A
100
AcDbEntity
  8
SEIHIN
 48
5.0
100
AcDbLine
 10
260.7414416864123
 20
532.7991544369992
 30
0.0
 11
344.7414415857231
 21
532.7991544369992
 31
0.0
  0
LINE
  5
B4F9
330
1A
100
AcDbEntity
  8
SEIHIN
100
AcDbLine
 10
260.7414416864123
 20
529.7991544369994
 30
0.0
 11
339.9661334999289
 21
529.7991544369996
 31
0.0
  0
LINE
  5
B4FA
330
1A
100
AcDbEntity
  8
SEIHIN
 48
5.0
100
AcDbLine
 10
260.7414416864123
 20
502.7991544369994
 30
0.0
 11
344.7414415857231
 21
502.7991544369995
 31
0.0
  0
LINE
  5
B4FB
330
1A
100
AcDbEntity
  8
SEIHIN
 48
5.0
100
AcDbLine
 10
260.7414416864123
 20
505.7991544369995
 30
0.0
 11
339.9661334999289
 21
505.7991544369995
 31
0.0
  0
LINE
  5
B4FC
330
1A
100
AcDbEntity
  8
SEIHIN
100
AcDbLine
 10
258.9414415857381
 20
507.9948979196311
 30
0.0
 11
258.9414415857381
 21
527.603410954368
 31
0.0
  0
ARC
  5
B4FD
330
1A
100
AcDbEntity
  8
SEIHIN
100
AcDbCircle
 10
261.1068136704669
 20
508.8049050806195
 30
0.0
 40
2.311914329332959
100
AcDbArc
 50
200.5094644027919
 51
242.5600825501391
  0
ARC
  5
B4FE
330
1A
100
AcDbEntity
  8
SEIHIN
100
AcDbCircle
 10
261.1068136704669
 20
508.8049050806195
 30
0.0
 40
2.311914329332959
100
AcDbArc
 50
200.5094644027919
 51
242.5600825501391
  0
ARC
  5
B4FF
330
1A
100
AcDbEntity
  8
SEIHIN
100
AcDbCircle
 10
259.7414416864123
 20
505.7991544369994
 30
0.0
 40
0.9999999039302407
100
AcDbArc
 50
0.0000000000097707
 51
72.54239341417923
  0
LINE
  5
B500
330
1A
100
AcDbEntity
  8
SEIHIN
100
AcDbLine
 10
260.7414416864123
 20
502.7991544369994
 30
0.0
 11
260.7414416864123
 21
505.7991544369994
 31
0.0
  0
LINE
  5
B501
330
1A
100
AcDbEntity
  8
SEIHIN
100
AcDbLine
 10
260.7414416864123
 20
532.7991544369995
 30
0.0
 11
260.7414416864123
 21
529.7991544369994
 31
0.0
  0
ARC
  5
B502
330
1A
100
AcDbEntity
  8
SEIHIN
100
AcDbCircle
 10
259.7414416864123
 20
529.7991544369994
 30
0.0
 40
0.9999999039302407
100
AcDbArc
 50
287.4576065858207
 51
0.0
  0
ARC
  5
B503
330
1A
100
AcDbEntity
  8
SEIHIN
100
AcDbCircle
 10
261.1068136704669
 20
526.7934037933793
 30
0.0
 40
2.311914329333003
100
AcDbArc
 50
117.4399174498608
 51
159.490535597208
  0
LINE
  5
B504
330
1A
100
AcDbEntity
  8
SEIHIN
 48
5.0
100
AcDbLine
 10
339.9661334999289
 20
508.7991544369995
 30
0.0
 11
355.5658498740551
 21
508.7991544369995
 31
0.0
  0
LINE
  5
B505
330
1A
100
AcDbEntity
  8
SEIHIN
100
AcDbLine
 10
339.9661334999289
 20
526.7991544369997
 30
0.0
 11
355.5658498740556
 21
526.7991544369997
 31
0.0
  0
ARC
  5
B506
330
1A
100
AcDbEntity
  8
SEIHIN
100
AcDbCircle
 10
349.9711334999287
 20
517.7991544369993
 30
0.0
 40
4.504999999999995
100
AcDbArc
 50
55.72316669691159
 51
304.2768333030886
  0
ARC
  5
B507
330
1A
100
AcDbEntity
  8
SEIHIN
100
AcDbCircle
 10
365.016878087682
 20
517.7991544369994
 30
0.0
 40
13.05074458775314
100
AcDbArc
 50
114.3679846136916
 51
245.6320153863085
  0
LINE
  5
B508
330
1A
100
AcDbEntity
  8
SEIHIN
100
AcDbLine
 10
339.9661334999289
 20
503.2991544369994
 30
0.0
 11
362.9662334999291
 21
503.2991544369994
 31
0.0
  0
LINE
  5
B509
330
1A
100
AcDbEntity
  8
SEIHIN
100
AcDbLine
 10
339.9661334999289
 20
532.2991544369994
 30
0.0
 11
362.9662334999288
 21
532.2991544369994
 31
0.0
  0
LINE
  5
B50A
330
1A
100
AcDbEntity
  8
SEIHIN
100
AcDbLine
 10
306.5460121955759
 20
508.3149114369994
 30
0.0
 11
306.5460121955759
 21
525.9833974369994
 31
0.0
  0
LINE
  5
B50B
330
1A
100
AcDbEntity
  8
SEIHIN
100
AcDbLine
 10
299.8819533022683
 20
508.3149114369994
 30
0.0
 11
299.8819533022683
 21
525.9833974369994
 31
0.0
  0
CIRCLE
  5
B50C
330
1A
100
AcDbEntity
  8
SEIHIN
 48
5.0
100
AcDbCircle
 10
313.9414415857702
 20
517.7991544369993
 30
0.0
 40
3.5
  0
ARC
  5
B50D
330
1A
100
AcDbEntity
  8
SEIHIN
100
AcDbCircle
 10
298.3891151733121
 20
508.2212207333854
 30
0.0
 40
1.495775466773417
100
AcDbArc
 50
258.9665585004965
 51
3.591191070939852
  0
ARC
  5
B50E
330
1A
100
AcDbEntity
  8
SEIHIN
100
AcDbCircle
 10
298.3891151733121
 20
508.2212207333854
 30
0.0
 40
1.495775466773417
100
AcDbArc
 50
258.9665585004965
 51
3.591191070939852
  0
ARC
  5
B50F
330
1A
100
AcDbEntity
  8
SEIHIN
100
AcDbCircle
 10
298.4028505876292
 20
505.7991544369994
 30
0.0
 40
0.9999999039302407
100
AcDbArc
 50
107.4576065858207
 51
179.9999999999902
  0
LINE
  5
B510
330
1A
100
AcDbEntity
  8
SEIHIN
100
AcDbLine
 10
297.4028505876293
 20
502.7991544369994
 30
0.0
 11
297.4028505876293
 21
505.7991544369994
 31
0.0
  0
ARC
  5
B511
330
1A
100
AcDbEntity
  8
SEIHIN
100
AcDbCircle
 10
305.2034178105361
 20
508.0909260707493
 30
0.0
 40
1.361150163752372
100
AcDbArc
 50
259.3793684204102
 51
9.471452822670311
  0
ARC
  5
B512
330
1A
100
AcDbEntity
  8
SEIHIN
100
AcDbCircle
 10
305.2034178105361
 20
508.0909260707493
 30
0.0
 40
1.361150163752372
100
AcDbArc
 50
259.3793684204102
 51
9.471452822670311
  0
LINE
  5
B513
330
1A
100
AcDbEntity
  8
SEIHIN
100
AcDbLine
 10
304.2525504150101
 20
502.7991544369994
 30
0.0
 11
304.2525504150101
 21
505.7991544369994
 31
0.0
  0
ARC
  5
B514
330
1A
100
AcDbEntity
  8
SEIHIN
100
AcDbCircle
 10
305.25255041501
 20
505.7991544369994
 30
0.0
 40
0.9999999039302407
100
AcDbArc
 50
107.4576065858207
 51
179.9999999999902
  0
LINE
  5
B515
330
1A
100
AcDbEntity
  8
SEIHIN
100
AcDbLine
 10
297.4028505876293
 20
532.7991544369995
 30
0.0
 11
297.4028505876293
 21
529.7991544369994
 31
0.0
  0
ARC
  5
B516
330
1A
100
AcDbEntity
  8
SEIHIN
100
AcDbCircle
 10
298.4028505876292
 20
529.7991544369994
 30
0.0
 40
0.9999999039302407
100
AcDbArc
 50
180.0
 51
252.5423934141792
  0
ARC
  5
B517
330
1A
100
AcDbEntity
  8
SEIHIN
100
AcDbCircle
 10
297.1656165831326
 20
526.2786507539409
 30
0.0
 40
2.732336160781833
100
AcDbArc
 50
353.7965603283103
 51
69.93928556625005
  0
LINE
  5
B518
330
1A
100
AcDbEntity
  8
SEIHIN
100
AcDbLine
 10
304.2525504150101
 20
532.7991544369995
 30
0.0
 11
304.2525504150101
 21
529.7991544369994
 31
0.0
  0
ARC
  5
B519
330
1A
100
AcDbEntity
  8
SEIHIN
100
AcDbCircle
 10
305.25255041501
 20
529.7991544369994
 30
0.0
 40
0.9999999039302407
100
AcDbArc
 50
180.0
 51
252.5423934141792
  0
ARC
  5
B51A
330
1A
100
AcDbEntity
  8
SEIHIN
100
AcDbCircle
 10
303.9875730685373
 20
526.4333859900857
 30
0.0
 40
2.597710857760674
100
AcDbArc
 50
350.024610672173
 51
68.19355468788394
  0
ARC
  5
B51B
330
1A
100
AcDbEntity
  8
SEIHIN
 48
5.0
100
AcDbCircle
 10
322.991441585879
 20
517.7991544369993
 30
0.0
 40
3.25
100
AcDbArc
 50
94.30472728740957
 51
265.6952727125903
  0
LINE
  5
B51C
330
1A
100
AcDbEntity
  8
CENTER L
 48
5.0
100
AcDbLine
 10
349.9711334999287
 20
497.5008094013826
 30
0.0
 11
349.971133499929
 21
538.0974994726162
 31
0.0
  0
LINE
  5
B51D
330
1A
100
AcDbEntity
  8
SEIHIN
100
AcDbLine
 10
339.9661334999289
 20
503.2991544369994
 30
0.0
 11
339.9661334999289
 21
532.2991544369994
 31
0.0
  0
LINE
  5
B51E
330
1A
100
AcDbEntity
  8
CENTER L
 48
5.0
100
AcDbLine
 10
324.9914415857624
 20
507.3300825776268
 30
0.0
 11
324.9914415857624
 21
526.9682262963719
 31
0.0
  0
LINE
  5
B51F
330
1A
100
AcDbEntity
  8
SEIHIN
 48
5.0
100
AcDbLine
 10
322.7474933324481
 20
514.5399860046141
 30
0.0
 11
338.9722852944251
 21
514.5399854638444
 31
0.0
  0
LINE
  5
B520
330
1A
100
AcDbEntity
  8
SEIHIN
 62
     2
100
AcDbLine
 10
324.9414358976816
 20
502.7991544369994
 30
0.0
 11
324.9414358976816
 21
503.8362824521559
 31
0.0
  0
LINE
  5
B521
330
1A
100
AcDbEntity
  8
SEIHIN
 62
     2
100
AcDbLine
 10
324.5414358976818
 20
502.7991544369994
 30
0.0
 11
324.5414358976818
 21
503.8362824521559
 31
0.0
  0
LINE
  5
B522
330
1A
100
AcDbEntity
  8
SEIHIN
 62
     2
 48
5.0
100
AcDbLine
 10
324.5414358976818
 20
503.8362824521559
 30
0.0
 11
324.9414358976816
 21
503.8362824521559
 31
0.0
  0
LINE
  5
B523
330
1A
100
AcDbEntity
  8
SEIHIN
 62
     2
100
AcDbLine
 10
334.9414358976817
 20
502.7991544369994
 30
0.0
 11
334.9414358976817
 21
503.8362824521559
 31
0.0
  0
LINE
  5
B524
330
1A
100
AcDbEntity
  8
SEIHIN
 62
     2
100
AcDbLine
 10
334.5414358976818
 20
502.7991544369994
 30
0.0
 11
334.5414358976818
 21
503.8362824521559
 31
0.0
  0
LINE
  5
B525
330
1A
100
AcDbEntity
  8
SEIHIN
 62
     2
 48
5.0
100
AcDbLine
 10
334.5414358976818
 20
503.8362824521559
 30
0.0
 11
334.9414358976817
 21
503.8362824521559
 31
0.0
  0
LINE
  5
B526
330
1A
100
AcDbEntity
  8
SEIHIN
 62
     2
100
AcDbLine
 10
329.9414358976816
 20
502.7991544369994
 30
0.0
 11
329.9414358976816
 21
503.8362824521559
 31
0.0
  0
LINE
  5
B527
330
1A
100
AcDbEntity
  8
SEIHIN
 62
     2
100
AcDbLine
 10
329.5414358976818
 20
502.7991544369994
 30
0.0
 11
329.5414358976818
 21
503.8362824521559
 31
0.0
  0
LINE
  5
B528
330
1A
100
AcDbEntity
  8
SEIHIN
 62
     2
 48
5.0
100
AcDbLine
 10
329.5414358976818
 20
503.8362824521559
 30
0.0
 11
329.9414358976816
 21
503.8362824521559
 31
0.0
  0
LINE
  5
B529
330
1A
100
AcDbEntity
  8
SEIHIN
 62
     2
 48
5.0
100
AcDbLine
 10
324.5417414588444
 20
507.7991544369991
 30
0.0
 11
324.9417414588442
 21
507.7991544369991
 31
0.0
  0
LINE
  5
B52A
330
1A
100
AcDbEntity
  8
SEIHIN
 62
     2
100
AcDbLine
 10
324.9417414588442
 20
512.2991544369993
 30
0.0
 11
324.9417414588442
 21
507.7991544369991
 31
0.0
  0
LINE
  5
B52B
330
1A
100
AcDbEntity
  8
SEIHIN
 62
     2
100
AcDbLine
 10
324.5417414588444
 20
512.2991544369993
 30
0.0
 11
324.5417414588444
 21
507.7991544369991
 31
0.0
  0
LINE
  5
B52C
330
1A
100
AcDbEntity
  8
SEIHIN
 62
     2
 48
5.0
100
AcDbLine
 10
334.5415943663045
 20
507.7991544369991
 30
0.0
 11
334.9415943663043
 21
507.7991544369991
 31
0.0
  0
LINE
  5
B52D
330
1A
100
AcDbEntity
  8
SEIHIN
 62
     2
100
AcDbLine
 10
334.9415943663043
 20
512.2991544369993
 30
0.0
 11
334.9415943663043
 21
507.7991544369991
 31
0.0
  0
LINE
  5
B52E
330
1A
100
AcDbEntity
  8
SEIHIN
 62
     2
100
AcDbLine
 10
334.5415943663042
 20
512.2991544369993
 30
0.0
 11
334.5415943663042
 21
507.7991544369991
 31
0.0
  0
LINE
  5
B52F
330
1A
100
AcDbEntity
  8
SEIHIN
 62
     2
 48
5.0
100
AcDbLine
 10
339.5414358976818
 20
503.8362824521559
 30
0.0
 11
339.9414358976816
 21
503.8362824521559
 31
0.0
  0
LINE
  5
B530
330
1A
100
AcDbEntity
  8
SEIHIN
 62
     2
100
AcDbLine
 10
339.5414358976818
 20
502.7991544369994
 30
0.0
 11
339.5414358976818
 21
503.8362824521559
 31
0.0
  0
LINE
  5
B531
330
1A
100
AcDbEntity
  8
SEIHIN
 62
     2
100
AcDbLine
 10
339.9414358976816
 20
502.7991544369994
 30
0.0
 11
339.9414358976816
 21
503.8362824521559
 31
0.0
  0
LINE
  5
B532
330
1A
100
AcDbEntity
  8
SEIHIN
 62
     2
 48
5.0
100
AcDbLine
 10
349.5412888051419
 20
503.8362824521559
 30
0.0
 11
349.9412888051417
 21
503.8362824521559
 31
0.0
  0
LINE
  5
B533
330
1A
100
AcDbEntity
  8
SEIHIN
 62
     2
100
AcDbLine
 10
349.5412888051416
 20
502.7991544369994
 30
0.0
 11
349.5412888051416
 21
503.8362824521559
 31
0.0
  0
LINE
  5
B534
330
1A
100
AcDbEntity
  8
SEIHIN
 62
     2
100
AcDbLine
 10
349.9412888051417
 20
502.7991544369994
 30
0.0
 11
349.9412888051417
 21
503.8362824521559
 31
0.0
  0
LINE
  5
B535
330
1A
100
AcDbEntity
  8
SEIHIN
 62
     2
100
AcDbLine
 10
345.2414415857231
 20
502.7991544369995
 30
0.0
 11
344.7414415857231
 21
503.836282452156
 31
0.0
  0
LINE
  5
B536
330
1A
100
AcDbEntity
  8
SEIHIN
 62
     2
100
AcDbLine
 10
344.2414415857231
 20
502.7991544369995
 30
0.0
 11
344.7414415857231
 21
503.8362824521559
 31
0.0
  0
LINE
  5
B537
330
1A
100
AcDbEntity
  8
SEIHIN
 48
5.0
100
AcDbLine
 10
322.7474933324481
 20
521.039986004614
 30
0.0
 11
338.9722852944251
 21
521.0399854638445
 31
0.0
  0
ARC
  5
B538
330
1A
100
AcDbEntity
  8
SEIHIN
 48
5.0
100
AcDbCircle
 10
371.2414415858806
 20
517.7991544369993
 30
0.0
 40
3.25
100
AcDbArc
 50
274.3047272874095
 51
85.69527271258392
  0
ARC
  5
B539
330
1A
100
AcDbEntity
  8
SEIHIN
100
AcDbCircle
 10
365.016878087682
 20
517.7991544369994
 30
0.0
 40
10.05074458775314
100
AcDbArc
 50
103.9898614826101
 51
256.0101385173898
  0
LINE
  5
B53A
330
1A
100
AcDbEntity
  8
SEIHIN
100
AcDbLine
 10
362.9662334999284
 20
503.2991544369994
 30
0.0
 11
362.9662334999288
 21
532.2991544369995
 31
0.0
  0
CIRCLE
  5
B53B
330
1A
100
AcDbEntity
  8
SEIHIN
 48
5.0
100
AcDbCircle
 10
379.9414415856517
 20
517.7991544369993
 30
0.0
 40
3.5
  0
LINE
  5
B53C
330
1A
100
AcDbEntity
  8
CENTER L
 48
5.0
100
AcDbLine
 10
370.4914415857624
 20
507.3300825776268
 30
0.0
 11
370.4914415857624
 21
526.9682262963718
 31
0.0
  0
LINE
  5
B53D
330
1A
100
AcDbEntity
  8
SEIHIN
 48
5.0
100
AcDbLine
 10
371.4853898393114
 20
514.5583228693847
 30
0.0
 11
355.2605978773347
 21
514.5583234101543
 31
0.0
  0
ARC
  5
B53E
330
1A
100
AcDbEntity
  8
SUNPOU
100
AcDbCircle
 10
359.4661334999289
 20
505.4394274869089
 30
0.0
 40
0.5
100
AcDbArc
 50
0.0000000000004071
 51
70.60175611442081
  0
LINE
  5
B53F
330
1A
100
AcDbEntity
  8
SEIHIN
100
AcDbLine
 10
359.9661334999288
 20
505.4394274869089
 30
0.0
 11
359.9661334999288
 21
503.2991544369994
 31
0.0
  0
LINE
  5
B540
330
1A
100
AcDbEntity
  8
SEIHIN
 62
     2
 48
5.0
100
AcDbLine
 10
359.5412888051419
 20
503.8362824521559
 30
0.0
 11
359.9412888051417
 21
503.8362824521559
 31
0.0
  0
LINE
  5
B541
330
1A
100
AcDbEntity
  8
SEIHIN
 62
     2
100
AcDbLine
 10
359.5412888051416
 20
502.7991544369994
 30
0.0
 11
359.5412888051416
 21
503.8362824521559
 31
0.0
  0
LINE
  5
B542
330
1A
100
AcDbEntity
  8
SEIHIN
 62
     2
100
AcDbLine
 10
359.9412888051417
 20
502.7991544369994
 30
0.0
 11
359.9412888051417
 21
503.8362824521559
 31
0.0
  0
LINE
  5
B543
330
1A
100
AcDbEntity
  8
SEIHIN
 62
     2
100
AcDbLine
 10
354.9412888051417
 20
502.7991544369994
 30
0.0
 11
354.9412888051417
 21
503.8362824521559
 31
0.0
  0
LINE
  5
B544
330
1A
100
AcDbEntity
  8
SEIHIN
 62
     2
100
AcDbLine
 10
354.5412888051416
 20
502.7991544369994
 30
0.0
 11
354.5412888051416
 21
503.8362824521559
 31
0.0
  0
LINE
  5
B545
330
1A
100
AcDbEntity
  8
SEIHIN
 62
     2
 48
5.0
100
AcDbLine
 10
354.5412888051419
 20
503.8362824521559
 30
0.0
 11
354.9412888051417
 21
503.8362824521559
 31
0.0
  0
LINE
  5
B546
330
1A
100
AcDbEntity
  8
SEIHIN
 62
     2
100
AcDbLine
 10
364.9411417126018
 20
502.7991544369994
 30
0.0
 11
364.9411417126018
 21
503.8362824521559
 31
0.0
  0
LINE
  5
B547
330
1A
100
AcDbEntity
  8
SEIHIN
 62
     2
100
AcDbLine
 10
364.5411417126017
 20
502.7991544369994
 30
0.0
 11
364.5411417126017
 21
503.8362824521559
 31
0.0
  0
LINE
  5
B548
330
1A
100
AcDbEntity
  8
SEIHIN
 62
     2
 48
5.0
100
AcDbLine
 10
364.5411417126017
 20
503.8362824521559
 30
0.0
 11
364.9411417126018
 21
503.8362824521559
 31
0.0
  0
ARC
  5
B549
330
1A
100
AcDbEntity
  8
SUNPOU
100
AcDbCircle
 10
362.4662334999291
 20
507.5613605563351
 30
0.0
 40
0.5
100
AcDbArc
 50
0.0
 51
76.01013851738987
  0
LINE
  5
B54A
330
1A
100
AcDbEntity
  8
SEIHIN
 62
     2
 48
5.0
100
AcDbLine
 10
364.5411417126017
 20
507.7991544369991
 30
0.0
 11
364.9411417126018
 21
507.7991544369991
 31
0.0
  0
LINE
  5
B54B
330
1A
100
AcDbEntity
  8
SEIHIN
 62
     2
100
AcDbLine
 10
364.9411417126018
 20
512.2991544369993
 30
0.0
 11
364.9411417126018
 21
507.7991544369991
 31
0.0
  0
LINE
  5
B54C
330
1A
100
AcDbEntity
  8
SEIHIN
 62
     2
100
AcDbLine
 10
364.5411417126017
 20
512.2991544369993
 30
0.0
 11
364.5411417126017
 21
507.7991544369991
 31
0.0
  0
LINE
  5
B54D
330
1A
100
AcDbEntity
  8
SEIHIN
 48
5.0
100
AcDbLine
 10
371.4853898393114
 20
521.0583228693847
 30
0.0
 11
355.2605978773347
 21
521.0583234101543
 31
0.0
  0
LINE
  5
B54E
330
1A
100
AcDbEntity
  8
SEIHIN
100
AcDbLine
 10
359.9661334999288
 20
530.1588813870899
 30
0.0
 11
359.9661334999288
 21
532.2991544369994
 31
0.0
  0
ARC
  5
B54F
330
1A
100
AcDbEntity
  8
SEIHIN
100
AcDbCircle
 10
359.4661334999289
 20
530.1588813870899
 30
0.0
 40
0.5
100
AcDbArc
 50
289.3982438855792
 51
0.0
  0
ARC
  5
B550
330
1A
100
AcDbEntity
  8
SEIHIN
100
AcDbCircle
 10
362.4662334999289
 20
528.0369483176639
 30
0.0
 40
0.5
100
AcDbArc
 50
283.9898614826101
 51
0.0
  0
LINE
  5
B551
330
1A
100
AcDbEntity
  8
SEIHIN
100
AcDbLine
 10
387.4011925400332
 20
507.5900586408197
 30
0.0
 11
387.4011925400332
 21
528.0082502331792
 31
0.0
  0
LINE
  5
B552
330
1A
100
AcDbEntity
  8
SEIHIN
100
AcDbLine
 10
393.9362858607128
 20
507.5900586408197
 30
0.0
 11
393.9362858607128
 21
528.0082502331792
 31
0.0
  0
ARC
  5
B553
330
1A
100
AcDbEntity
  8
SEIHIN
100
AcDbCircle
 10
395.8681644314683
 20
508.6024853690027
 30
0.0
 40
2.181092087025118
100
AcDbArc
 50
207.657385524385
 51
237.9861556504032
  0
ARC
  5
B554
330
1A
100
AcDbEntity
  8
SEIHIN
100
AcDbCircle
 10
395.8681644314683
 20
508.6024853690027
 30
0.0
 40
2.181092087025118
100
AcDbArc
 50
207.657385524385
 51
237.9861556504032
  0
ARC
  5
B555
330
1A
100
AcDbEntity
  8
SEIHIN
100
AcDbCircle
 10
389.3330711107885
 20
508.6024853690027
 30
0.0
 40
2.181092087025118
100
AcDbArc
 50
207.657385524385
 51
237.9861556504032
  0
ARC
  5
B556
330
1A
100
AcDbEntity
  8
SEIHIN
100
AcDbCircle
 10
389.3330711107885
 20
508.6024853690027
 30
0.0
 40
2.181092087025118
100
AcDbArc
 50
207.657385524385
 51
237.9861556504032
  0
ARC
  5
B557
330
1A
100
AcDbEntity
  8
SEIHIN
100
AcDbCircle
 10
387.8768217250601
 20
505.7991544369994
 30
0.0
 40
0.9999999039302407
100
AcDbArc
 50
0.0000000000097707
 51
72.54239341417923
  0
LINE
  5
B558
330
1A
100
AcDbEntity
  8
SEIHIN
100
AcDbLine
 10
388.8768217250601
 20
502.7991544369994
 30
0.0
 11
388.8768217250601
 21
505.7991544369994
 31
0.0
  0
LINE
  5
B559
330
1A
100
AcDbEntity
  8
SEIHIN
100
AcDbLine
 10
395.4119150457399
 20
502.7991544369994
 30
0.0
 11
395.4119150457399
 21
505.7991544369994
 31
0.0
  0
ARC
  5
B55A
330
1A
100
AcDbEntity
  8
SEIHIN
100
AcDbCircle
 10
394.41191504574
 20
505.7991544369994
 30
0.0
 40
0.9999999039302407
100
AcDbArc
 50
0.0000000000097707
 51
72.54239341417923
  0
LINE
  5
B55B
330
1A
100
AcDbEntity
  8
SEIHIN
100
AcDbLine
 10
388.8768217250601
 20
532.7991544369995
 30
0.0
 11
388.8768217250601
 21
529.7991544369994
 31
0.0
  0
LINE
  5
B55C
330
1A
100
AcDbEntity
  8
SEIHIN
100
AcDbLine
 10
395.4119150457399
 20
532.7991544369995
 30
0.0
 11
395.4119150457399
 21
529.7991544369994
 31
0.0
  0
ARC
  5
B55D
330
1A
100
AcDbEntity
  8
SEIHIN
100
AcDbCircle
 10
387.8768217250601
 20
529.7991544369994
 30
0.0
 40
0.9999999039302407
100
AcDbArc
 50
287.4576065858207
 51
0.0
  0
ARC
  5
B55E
330
1A
100
AcDbEntity
  8
SEIHIN
100
AcDbCircle
 10
389.3330711107887
 20
526.9958235049962
 30
0.0
 40
2.181092087025164
100
AcDbArc
 50
122.0138443496043
 51
152.342614475615
  0
ARC
  5
B55F
330
1A
100
AcDbEntity
  8
SEIHIN
100
AcDbCircle
 10
394.41191504574
 20
529.7991544369994
 30
0.0
 40
0.9999999039302407
100
AcDbArc
 50
287.4576065858207
 51
0.0
  0
ARC
  5
B560
330
1A
100
AcDbEntity
  8
SEIHIN
100
AcDbCircle
 10
395.8681644314683
 20
526.9958235049962
 30
0.0
 40
2.181092087025164
100
AcDbArc
 50
122.0138443496043
 51
152.342614475615
  0
LINE
  5
B561
330
1A
100
AcDbEntity
  8
CENTER L
  6
CENTER
 48
5.0
100
AcDbLine
 10
553.9136231134823
 20
168.1335213124936
 30
0.0
 11
553.9136231134823
 21
373.2719213124935
 31
0.0
  0
DIMENSION
  5
B562
330
1A
100
AcDbEntity
  8
SUNPOU
  6
Continuous
100
AcDbDimension
  2
*D12
 10
517.5950731134824
 20
281.8338213124936
 30
0.0
 11
512.5950731134822
 21
296.8338213124936
 31
0.0
 70
    32
 71
     5
 42
-1.0
  3
STANDARD
100
AcDbAlignedDimension
 13
534.1437231134823
 23
311.8338213124935
 33
0.0
 14
534.1437231134823
 24
281.8338213124936
 34
0.0
 50
90.0
100
AcDbRotatedDimension
1001
ACAD
1000
DSTYLE
1002
{
1070
   287
1070
     4
1070
   287
1070
     4
1070
   287
1070
     4
1070
   287
1070
     4
1070
   287
1070
     4
1070
   287
1070
     4
1070
   287
1070
     4
1070
   287
1070
     4
1070
   287
1070
     4
1070
   287
1070
     4
1070
   287
1070
     4
1070
   287
1070
     4
1070
   287
1070
     4
1070
   287
1070
     4
1070
   287
1070
     4
1070
   287
1070
     4
1070
    41
1040
7.0
1070
    42
1040
6.0
1070
    43
1040
14.0
1070
    44
1040
3.0
1070
    73
1070
     0
1070
    74
1070
     0
1070
    75
1070
     1
1070
    77
1070
     3
1070
   140
1040
6.0
1070
   141
1040
150.0
1070
   147
1040
2.0
1070
   172
1070
     1
1070
   173
1070
     1
1070
   176
1070
     4
1070
   177
1070
     4
1070
   178
1070
     4
1070
   271
1070
     0
1070
   272
1070
     2
1070
   279
1070
     1
1070
     6
1000
OPEN
1070
     7
1000
OPEN
1002
}
  0
LINE
  5
B563
330
1A
100
AcDbEntity
  8
SEIHIN
  6
Continuous
 62
     3
100
AcDbLine
 10
563.4136231134823
 20
367.5234107290936
 30
0.0
 11
563.3978163077824
 21
274.3900773957936
 31
0.0
  0
LINE
  5
B564
330
1A
100
AcDbEntity
  8
SEIHIN
  6
Continuous
 62
     3
100
AcDbLine
 10
544.4136231134823
 20
367.5234107290936
 30
0.0
 11
544.3978163077824
 21
274.3900773957936
 31
0.0
  0
LINE
  5
B565
330
1A
100
AcDbEntity
  8
SEIHIN
  6
Continuous
 62
     3
100
AcDbLine
 10
539.4136231134823
 20
371.8338213124935
 30
0.0
 11
539.4136231133829
 21
232.6604022879612
 31
0.0
  0
LINE
  5
B566
330
1A
100
AcDbEntity
  8
SEIHIN
  6
Continuous
 62
     3
100
AcDbLine
 10
568.4136231134823
 20
371.8338213124935
 30
0.0
 11
568.4136231134821
 21
232.6604022879612
 31
0.0
  0
ARC
  5
B567
330
1A
100
AcDbEntity
  8
SEIHIN
  6
Continuous
 62
     3
100
AcDbCircle
 10
553.9137231134825
 20
311.8338213124935
 30
0.0
 40
4.25
100
AcDbArc
 50
180.0
 51
0.0
  0
LINE
  5
B569
330
1A
100
AcDbEntity
  8
SEIHIN
 48
5.0
100
AcDbLine
 10
430.5414415857378
 20
75.97680882018112
 30
0.0
 11
430.54144158559
 21
95.37680882018113
 31
0.0
  0
LINE
  5
B56A
330
1A
100
AcDbEntity
  8
SEIHIN
 48
5.0
100
AcDbLine
 10
418.9414412932326
 20
70.67680882018112
 30
0.0
 11
428.7414415857381
 21
70.67680882018112
 31
0.0
  0
ARC
  5
B56B
330
1A
100
AcDbEntity
  8
SEIHIN
 48
5.0
100
AcDbCircle
 10
429.2414415857381
 20
74.17680882018114
 30
0.0
 40
0.5
100
AcDbArc
 50
90.0
 51
180.0
  0
LINE
  5
B56C
330
1A
100
AcDbEntity
  8
SEIHIN
 48
5.0
100
AcDbLine
 10
426.5588580141382
 20
74.67680882018114
 30
0.0
 11
429.2414415855435
 21
74.67680882018114
 31
0.0
  0
LINE
  5
B56D
330
1A
100
AcDbEntity
  8
SEIHIN
 48
5.0
100
AcDbLine
 10
428.7414415857381
 20
70.67680882018112
 30
0.0
 11
428.7414415855435
 21
74.17680882018114
 31
0.0
  0
ARC
  5
B56E
330
1A
100
AcDbEntity
  8
SEIHIN
 48
5.0
100
AcDbCircle
 10
429.2414415857381
 20
75.97680882018112
 30
0.0
 40
1.3
100
AcDbArc
 50
270.0
 51
0.0
  0
LINE
  5
B56F
330
1A
100
AcDbEntity
  8
SEIHIN
 48
5.0
100
AcDbLine
 10
418.1414415859328
 20
90.67680882018112
 30
0.0
 11
418.1414415858778
 21
80.67680882018112
 31
0.0
  0
LINE
  5
B570
330
1A
100
AcDbEntity
  8
SEIHIN
 48
5.0
100
AcDbLine
 10
418.941441585933
 20
100.6768088201811
 30
0.0
 11
428.7414415857381
 21
100.6768088201811
 31
0.0
  0
LINE
  5
B571
330
1A
100
AcDbEntity
  8
SEIHIN
 48
5.0
100
AcDbLine
 10
429.2414415857381
 20
96.67680882018114
 30
0.0
 11
426.5588580141318
 21
96.67680882018114
 31
0.0
  0
ARC
  5
B572
330
1A
100
AcDbEntity
  8
SEIHIN
 48
5.0
100
AcDbCircle
 10
429.2414415857381
 20
95.37680882018113
 30
0.0
 40
1.3
100
AcDbArc
 50
0.0
 51
90.00000000857864
  0
ARC
  5
B573
330
1A
100
AcDbEntity
  8
SEIHIN
 48
5.0
100
AcDbCircle
 10
429.2414415857381
 20
97.17680882018115
 30
0.0
 40
0.5
100
AcDbArc
 50
180.0
 51
269.9999999776967
  0
LINE
  5
B574
330
1A
100
AcDbEntity
  8
SEIHIN
 48
5.0
100
AcDbLine
 10
428.7414415857381
 20
100.6768088201811
 30
0.0
 11
428.7414415855435
 21
97.17680882018115
 31
0.0
  0
DIMENSION
  5
B578
330
1A
100
AcDbEntity
  8
SUNPOU
100
AcDbDimension
  2
*D13
 10
568.9136231134823
 20
158.4354764676652
 30
0.0
 11
553.9136231134823
 21
161.9354764676652
 31
0.0
 70
    32
 71
     5
 42
-1.0
  3
STANDARD
100
AcDbAlignedDimension
 13
538.9136231134823
 23
210.4510855489612
 33
0.0
 14
568.9136231134823
 24
210.4510855489612
 34
0.0
100
AcDbRotatedDimension
1001
ACAD
1000
DSTYLE
1002
{
1070
   140
1040
5.0
1070
    74
1070
     0
1070
   172
1070
     1
1070
    73
1070
     0
1070
   272
1070
     2
1070
    77
1070
     3
1070
   173
1070
     1
1070
   147
1040
1.0
1070
    42
1040
7.0
1070
    44
1040
1.5
1070
    43
1040
7.0
1070
   271
1070
     0
1070
   178
1070
     4
1070
   177
1070
     4
1070
   176
1070
     4
1070
   141
1040
150.0
1070
     7
1000
_OPEN
1070
     6
1000
_OPEN
1070
    41
1040
5.0
1002
}
  0
LINE
  5
B579
330
1A
100
AcDbEntity
  8
SEIHIN
100
AcDbLine
 10
538.9136231134823
 20
212.0481052879612
 30
0.0
 11
568.9136231134823
 21
212.0481052879612
 31
0.0
  0
LINE
  5
B57A
330
1A
100
AcDbEntity
  8
SEIHIN
100
AcDbLine
 10
544.4293801134822
 20
235.4604022879612
 30
0.0
 11
563.3978661134822
 21
235.4604022879612
 31
0.0
  0
ARC
  5
B57B
330
1A
100
AcDbEntity
  8
SEIHIN
100
AcDbCircle
 10
550.9136231134823
 20
180.4513112879612
 30
0.0
 40
2.0
100
AcDbArc
 50
180.0000000000007
 51
270.0
  0
LINE
  5
B57C
330
1A
100
AcDbEntity
  8
CENTER L
  6
CENTER
 48
5.0
100
AcDbLine
 10
534.1437231134823
 20
281.8338213124936
 30
0.0
 11
576.1340231134822
 21
281.8338213124936
 31
0.0
  0
ARC
  5
B57D
330
1A
100
AcDbEntity
  8
SEIHIN
  6
Continuous
 62
     3
100
AcDbCircle
 10
553.8282851134824
 20
275.3694193124936
 30
0.0
 40
13.535679
100
AcDbArc
 50
195.1416219999995
 51
345.518649
  0
LINE
  5
B57E
330
1A
100
AcDbEntity
  8
SEIHIN
 48
5.0
100
AcDbLine
 10
426.7452828382374
 20
229.8009428807612
 30
0.0
 11
426.7452828380426
 21
213.4513110579612
 31
0.0
  0
LINE
  5
B57F
330
1A
100
AcDbEntity
  8
SEIHIN
 48
5.0
100
AcDbLine
 10
427.9452828382375
 20
229.8009428807112
 30
0.0
 11
427.945282838229
 21
213.4513112879612
 31
0.0
  0
LINE
  5
B580
330
1A
100
AcDbEntity
  8
SEIHIN
 48
5.0
100
AcDbLine
 10
429.7452828382374
 20
229.6604020460107
 30
0.0
 11
429.7452828380426
 21
215.2513112879612
 31
0.0
  0
LINE
  5
B581
330
1A
100
AcDbEntity
  8
SEIHIN
100
AcDbLine
 10
541.6136231134824
 20
212.0481052879612
 30
0.0
 11
541.6136231134824
 21
231.2385562879612
 31
0.0
  0
LINE
  5
B582
330
1A
100
AcDbEntity
  8
SEIHIN
100
AcDbLine
 10
538.9136231134823
 20
232.6604022879612
 30
0.0
 11
538.9136231134823
 21
207.9481052879612
 31
0.0
  0
DIMENSION
  5
B583
330
1A
100
AcDbEntity
  8
SUNPOU
100
AcDbDimension
  2
*D14
 10
455.1682449657441
 20
211.2513112880276
 30
0.0
 11
450.1682449657441
 21
222.9315268388739
 31
0.0
 70
    32
 71
     5
 42
-1.0
  3
STANDARD
100
AcDbAlignedDimension
 13
424.049417333448
 23
234.6117423897201
 33
0.0
 14
425.7452828380308
 24
211.2513112880276
 34
0.0
 50
90.0
100
AcDbRotatedDimension
1001
ACAD
1000
DSTYLE
1002
{
1070
    41
1040
7.0
1070
    42
1040
6.0
1070
    43
1040
14.0
1070
    44
1040
3.0
1070
    73
1070
     0
1070
    74
1070
     0
1070
    77
1070
     3
1070
   140
1040
6.0
1070
   141
1040
150.0
1070
   147
1040
2.0
1070
   172
1070
     1
1070
   173
1070
     1
1070
   176
1070
   256
1070
   177
1070
   256
1070
   178
1070
   256
1070
   271
1070
     0
1070
   272
1070
     0
1070
   341
1005
6D
1070
     6
1000
OPEN
1070
     7
1000
OPEN
1070
   371
1070
    -1
1070
   372
1070
    -1
1002
}
  0
LINE
  5
B584
330
1A
100
AcDbEntity
  8
NOKITOI
100
AcDbLine
 10
424.5280883388347
 20
213.768732305463
 30
0.0
 11
424.5280883388347
 21
224.4687323054631
 31
0.0
  0
LINE
  5
B585
330
1A
100
AcDbEntity
  8
NOKITOI
100
AcDbLine
 10
424.2280883388345
 20
214.0687323054631
 30
0.0
 11
424.2280883388345
 21
224.4687323054631
 31
0.0
  0
LINE
  5
B586
330
1A
100
AcDbEntity
  8
NOKITOI
100
AcDbLine
 10
425.828088338835
 20
212.4687323054631
 30
0.0
 11
425.828088338835
 21
224.4687323054631
 31
0.0
  0
DIMENSION
  5
B587
330
1A
100
AcDbEntity
  8
SUNPOU
  6
Continuous
100
AcDbDimension
  2
*D15
 10
455.1682449657441
 20
178.4513112879612
 30
0.0
 11
450.1682449657441
 21
194.8513112879613
 31
0.0
 70
    32
 71
     5
 42
-1.0
  3
STANDARD
100
AcDbAlignedDimension
 13
425.7452828380428
 23
211.2513112879612
 33
0.0
 14
418.1452828381827
 24
178.4513112879612
 34
0.0
 50
90.0
100
AcDbRotatedDimension
1001
ACAD
1000
DSTYLE
1002
{
1070
   140
1040
6.0
1070
    74
1070
     0
1070
   172
1070
     1
1070
    73
1070
     0
1070
   272
1070
     2
1070
    77
1070
     3
1070
   173
1070
     1
1070
   147
1040
2.0
1070
    42
1040
6.0
1070
    44
1040
3.0
1070
    43
1040
14.0
1070
   271
1070
     0
1070
   178
1070
     4
1070
   177
1070
     4
1070
   176
1070
     4
1070
   141
1040
150.0
1070
     7
1000
_OPEN
1070
     6
1000
_OPEN
1070
    41
1040
7.0
1002
}
  0
LINE
  5
B588
330
1A
100
AcDbEntity
  8
SEIHIN
 48
5.0
100
AcDbLine
 10
418.1452828382375
 20
211.2513112879612
 30
0.0
 11
418.1452828381825
 21
178.4513112879612
 31
0.0
  0
ARC
  5
B589
330
1A
100
AcDbEntity
  8
SEIHIN
 48
5.0
100
AcDbCircle
 10
425.7452828382374
 20
213.4513112879612
 30
0.0
 40
1.0
100
AcDbArc
 50
270.0
 51
359.9999868222989
  0
ARC
  5
B58A
330
1A
100
AcDbEntity
  8
SEIHIN
 48
5.0
100
AcDbCircle
 10
425.7452828382374
 20
213.4513112879612
 30
0.0
 40
2.2
100
AcDbArc
 50
269.9999999949322
 51
0.0
  0
ARC
  5
B58B
330
1A
100
AcDbEntity
  8
SEIHIN
 48
5.0
100
AcDbCircle
 10
425.7452828382374
 20
215.2513112879612
 30
0.0
 40
4.0
100
AcDbArc
 50
269.9999999972121
 51
0.0
  0
ARC
  5
B58C
330
1A
100
AcDbEntity
  8
SEIHIN
  6
Continuous
 62
     3
100
AcDbCircle
 10
542.9173111134823
 20
197.3475172879613
 30
0.0
 40
5.000016
100
AcDbArc
 50
131.1319729999989
 51
344.7743969999996
  0
LINE
  5
B58D
330
1A
100
AcDbEntity
  8
SEIHIN
100
AcDbLine
 10
548.9136231134823
 20
212.0481052879612
 30
0.0
 11
548.9136231134823
 21
180.4513112879612
 31
0.0
  0
LINE
  5
B58E
330
1A
100
AcDbEntity
  8
SEIHIN
  6
Continuous
 62
     3
100
AcDbLine
 10
547.9136231134823
 20
208.3492112879613
 30
0.0
 11
548.9162231134823
 21
200.3496112879613
 31
0.0
  0
LINE
  5
B58F
330
1A
100
AcDbEntity
  8
SEIHIN
  6
Continuous
 62
     3
100
AcDbLine
 10
547.9136231134823
 20
208.3492112879613
 30
0.0
 11
539.6283231134823
 21
201.1135112879613
 31
0.0
  0
LINE
  5
B590
330
1A
100
AcDbEntity
  8
SEIHIN
100
AcDbLine
 10
548.9284331134822
 20
200.9539922879612
 30
0.0
 11
548.9286311134824
 21
206.9538922879612
 31
0.0
  0
LINE
  5
B591
330
1A
100
AcDbEntity
  8
SEIHIN
  6
Continuous
 62
     3
100
AcDbLine
 10
548.9162231134823
 20
200.3496112879613
 30
0.0
 11
547.7418231134822
 21
196.0345112879613
 31
0.0
  0
ARC
  5
B592
330
1A
100
AcDbEntity
  8
SEIHIN
100
AcDbCircle
 10
540.6136231134824
 20
210.1488102879612
 30
0.0
 40
3.0
100
AcDbArc
 50
270.0
 51
0.0
  0
LINE
  5
B593
330
1A
100
AcDbEntity
  8
SEIHIN
100
AcDbLine
 10
538.9136231134823
 20
207.9481052879612
 30
0.0
 11
541.0820219851448
 21
207.9481052879612
 31
0.0
  0
ARC
  5
B594
330
1A
100
AcDbEntity
  8
SEIHIN
100
AcDbCircle
 10
540.6136231134824
 20
210.1488102879612
 30
0.0
 40
2.25
100
AcDbArc
 50
270.0
 51
0.0
  0
LINE
  5
B595
330
1A
100
AcDbEntity
  8
SEIHIN
100
AcDbLine
 10
539.9127261134822
 20
207.1488102879612
 30
0.0
 11
540.6136231134824
 21
207.1488102879612
 31
0.0
  0
LINE
  5
B596
330
1A
100
AcDbEntity
  8
SEIHIN
100
AcDbLine
 10
539.9127261134822
 20
207.1488102879612
 30
0.0
 11
539.9127261134822
 21
207.9481052879612
 31
0.0
  0
LINE
  5
B597
330
1A
100
AcDbEntity
  8
SEIHIN
100
AcDbLine
 10
539.9127261134822
 20
207.8988102879612
 30
0.0
 11
540.6136231134824
 21
207.8988102879612
 31
0.0
  0
LINE
  5
B598
330
1A
100
AcDbEntity
  8
SEIHIN
  6
Continuous
 62
     3
100
AcDbLine
 10
547.9136231134823
 20
208.3492112879613
 30
0.0
 11
548.9136231134823
 21
208.3493862545244
 31
0.0
  0
LINE
  5
B599
330
1A
100
AcDbEntity
  8
SEIHIN
  6
Continuous
 62
     3
100
AcDbLine
 10
547.9136231134823
 20
208.3492112879613
 30
0.0
 11
547.9136231134823
 21
210.8481052879612
 31
0.0
  0
LINE
  5
B59A
330
1A
100
AcDbEntity
  8
SEIHIN
100
AcDbLine
 10
542.8636231134824
 20
210.1488102879612
 30
0.0
 11
542.8636231134824
 21
210.8481052879612
 31
0.0
  0
LINE
  5
B59B
330
1A
100
AcDbEntity
  8
SEIHIN
100
AcDbLine
 10
543.6136231134823
 20
210.1488102879612
 30
0.0
 11
543.6136231134823
 21
210.8481052879612
 31
0.0
  0
LINE
  5
B59C
330
1A
100
AcDbEntity
  8
SEIHIN
100
AcDbLine
 10
542.8636231134824
 20
210.8481052879612
 30
0.0
 11
548.9136231134823
 21
210.8481052879612
 31
0.0
  0
ARC
  5
B59D
330
1A
100
AcDbEntity
  8
NOKITOI
100
AcDbCircle
 10
423.8280898330349
 20
224.468733799663
 30
0.0
 40
1.9999985059
100
AcDbArc
 50
359.9999571956995
 51
90.00004280430184
  0
ARC
  5
B59E
330
1A
100
AcDbEntity
  8
NOKITOI
100
AcDbCircle
 10
423.8280886376347
 20
224.468732604263
 30
0.0
 40
0.6999997011999999
100
AcDbArc
 50
359.9999571956995
 51
90.00004280430184
  0
ARC
  5
B59F
330
1A
100
AcDbEntity
  8
NOKITOI
100
AcDbCircle
 10
423.8280886376347
 20
224.468732604263
 30
0.0
 40
0.3999997012
100
AcDbArc
 50
359.9999571956995
 51
90.00004280430184
  0
ARC
  5
B5A0
330
1A
100
AcDbEntity
  8
SEIHIN
 48
5.0
100
AcDbCircle
 10
425.7452828382374
 20
229.8009428807612
 30
0.0
 40
1.0
100
AcDbArc
 50
0.0
 51
98.0000000096504
  0
ARC
  5
B5A1
330
1A
100
AcDbEntity
  8
SEIHIN
 48
5.0
100
AcDbCircle
 10
425.7452828382374
 20
229.8009428807112
 30
0.0
 40
2.2
100
AcDbArc
 50
0.0
 51
97.99999999988894
  0
ARC
  5
B5A2
330
1A
100
AcDbEntity
  8
SEIHIN
 48
5.0
100
AcDbCircle
 10
424.7452828382375
 20
229.6604020460107
 30
0.0
 40
5.0
100
AcDbArc
 50
0.0
 51
97.99999999988894
  0
LINE
  5
B5A3
330
1A
100
AcDbEntity
  8
SEIHIN
100
AcDbLine
 10
538.9127261134824
 20
262.6007502879613
 30
0.0
 11
538.9127261134824
 21
232.6604022879612
 31
0.0
  0
ARC
  5
B5A4
330
1A
100
AcDbEntity
  8
SEIHIN
100
AcDbCircle
 10
540.6136231134824
 20
233.6604022879612
 30
0.0
 40
0.9999999039302407
100
AcDbArc
 50
270.0000000000065
 51
342.5423934141818
  0
LINE
  5
B5A5
330
1A
100
AcDbEntity
  8
SEIHIN
100
AcDbLine
 10
538.9136231134823
 20
232.6604022879612
 30
0.0
 11
540.6136231134824
 21
232.6604022879612
 31
0.0
  0
ARC
  5
B5A6
330
1A
100
AcDbEntity
  8
SEIHIN
100
AcDbCircle
 10
544.4293801134822
 20
232.4604022879612
 30
0.0
 40
3.000000188760321
100
AcDbArc
 50
89.99999427042402
 51
162.5423934141756
  0
ARC
  5
B5A7
330
1A
100
AcDbEntity
  8
SEIHIN
100
AcDbCircle
 10
544.4293801134822
 20
232.4604022879612
 30
0.0
 40
3.000000188760321
100
AcDbArc
 50
89.99999427042402
 51
162.5423934141756
  0
LINE
  5
B5A8
330
1A
100
AcDbEntity
  8
SEIHIN
100
AcDbLine
 10
538.9127261134824
 20
262.6007502879613
 30
0.0
 11
539.4136231134043
 21
262.6007502879613
 31
0.0
  0
LINE
  5
B5A9
330
1A
100
AcDbEntity
  8
SEIHIN
100
AcDbLine
 10
538.9127261134824
 20
257.565349377593
 30
0.0
 11
539.4136231134009
 21
257.565349377593
 31
0.0
  0
LINE
  5
B5AA
330
1A
100
AcDbEntity
  8
SEIHIN
100
AcDbLine
 10
566.2136231134822
 20
212.0481052879612
 30
0.0
 11
566.2136231134822
 21
231.2385562879612
 31
0.0
  0
LINE
  5
B5AB
330
1A
100
AcDbEntity
  8
SEIHIN
100
AcDbLine
 10
568.9136231134823
 20
232.6604022879612
 30
0.0
 11
568.9136231134823
 21
207.9481052879612
 31
0.0
  0
ARC
  5
B5AC
330
1A
100
AcDbEntity
  8
SEIHIN
  6
Continuous
 62
     3
100
AcDbCircle
 10
564.9173021134823
 20
197.3549972879613
 30
0.0
 40
5.000074999999998
100
AcDbArc
 50
195.2643649999996
 51
48.90768499999992
  0
LINE
  5
B5AD
330
1A
100
AcDbEntity
  8
SEIHIN
100
AcDbLine
 10
558.9136231134825
 20
212.0481052879612
 30
0.0
 11
558.9136231134823
 21
180.4513112879612
 31
0.0
  0
ARC
  5
B5AE
330
1A
100
AcDbEntity
  8
SEIHIN
100
AcDbCircle
 10
556.9136231134823
 20
180.4513112879612
 30
0.0
 40
2.0
100
AcDbArc
 50
270.0
 51
0.0000000000016284
  0
LINE
  5
B5AF
330
1A
100
AcDbEntity
  8
SEIHIN
100
AcDbLine
 10
550.9136231134823
 20
178.4513112879612
 30
0.0
 11
556.9136231134823
 21
178.4513112879612
 31
0.0
  0
LINE
  5
B5B0
330
1A
100
AcDbEntity
  8
SEIHIN
  6
Continuous
 62
     3
100
AcDbLine
 10
559.9136231134823
 20
208.3533112879613
 30
0.0
 11
568.2037231134825
 21
201.1233112879613
 31
0.0
  0
ARC
  5
B5B1
330
1A
100
AcDbEntity
  8
SEIHIN
100
AcDbCircle
 10
567.2136231134823
 20
210.1488102879612
 30
0.0
 40
3.0
100
AcDbArc
 50
179.9999999999991
 51
270.0
  0
ARC
  5
B5B2
330
1A
100
AcDbEntity
  8
SEIHIN
100
AcDbCircle
 10
567.2107688061357
 20
210.1289289215532
 30
0.0
 40
2.25
100
AcDbArc
 50
179.9143428255701
 51
269.9143428255653
  0
LINE
  5
B5B3
330
1A
100
AcDbEntity
  8
SEIHIN
  6
Continuous
 62
     3
100
AcDbLine
 10
559.9136231134823
 20
208.3533112879613
 30
0.0
 11
558.9163231134823
 21
200.3530112879613
 31
0.0
  0
LINE
  5
B5B4
330
1A
100
AcDbEntity
  8
SEIHIN
  6
Continuous
 62
     3
100
AcDbLine
 10
558.9163231134823
 20
200.3530112879613
 30
0.0
 11
560.0937231134824
 21
196.0387112879612
 31
0.0
  0
LINE
  5
B5B5
330
1A
100
AcDbEntity
  8
SEIHIN
  6
Continuous
 62
     3
100
AcDbLine
 10
558.9136231134823
 20
208.3511359201559
 30
0.0
 11
559.9159163638282
 21
208.3513112879612
 31
0.0
  0
LINE
  5
B5B6
330
1A
100
AcDbEntity
  8
SEIHIN
  6
Continuous
 62
     3
100
AcDbLine
 10
559.9159163638282
 20
208.3513112879612
 30
0.0
 11
559.915916363828
 21
210.8481052879612
 31
0.0
  0
LINE
  5
B5B7
330
1A
100
AcDbEntity
  8
SEIHIN
100
AcDbLine
 10
564.9607713205373
 20
210.1322926696742
 30
0.0
 11
564.9618167659784
 21
210.8315868882037
 31
0.0
  0
LINE
  5
B5B8
330
1A
100
AcDbEntity
  8
SEIHIN
100
AcDbLine
 10
564.213625627884
 20
210.1521740360822
 30
0.0
 11
564.214671073325
 21
210.8514682546117
 31
0.0
  0
LINE
  5
B5B9
330
1A
100
AcDbEntity
  8
SEIHIN
100
AcDbLine
 10
558.9136231134825
 20
210.8481052879612
 30
0.0
 11
564.9618414609999
 21
210.8481052879612
 31
0.0
  0
LINE
  5
B5BA
330
1A
100
AcDbEntity
  8
SEIHIN
100
AcDbLine
 10
568.9136231134823
 20
207.9256756936242
 30
0.0
 11
568.9136231134823
 21
207.9481052879612
 31
0.0
  0
LINE
  5
B5BB
330
1A
100
AcDbEntity
  8
SEIHIN
100
AcDbLine
 10
567.9083012747542
 20
207.8778835955253
 30
0.0
 11
567.2074050580147
 21
207.8789314359549
 31
0.0
  0
LINE
  5
B5BC
330
1A
100
AcDbEntity
  8
SEIHIN
100
AcDbLine
 10
568.9074768542284
 20
207.9256848822869
 30
0.0
 11
566.7390804057772
 21
207.9289266367891
 31
0.0
  0
LINE
  5
B5BD
330
1A
100
AcDbEntity
  8
SEIHIN
100
AcDbLine
 10
567.9071800253804
 20
207.1278844336592
 30
0.0
 11
567.9083749707379
 21
207.9271785404375
 31
0.0
  0
LINE
  5
B5BE
330
1A
100
AcDbEntity
  8
SEIHIN
100
AcDbLine
 10
567.9071800253804
 20
207.1278844336592
 30
0.0
 11
567.206283808641
 21
207.1289322740888
 31
0.0
  0
LINE
  5
B5BF
330
1A
100
AcDbEntity
  8
SEIHIN
100
AcDbLine
 10
568.9127261134824
 20
262.6007502879613
 30
0.0
 11
568.9127261134824
 21
232.6604022879612
 31
0.0
  0
ARC
  5
B5C0
330
1A
100
AcDbEntity
  8
SEIHIN
100
AcDbCircle
 10
563.3978661134822
 20
232.4604022879612
 30
0.0
 40
3.000000188760321
100
AcDbArc
 50
17.45760658582432
 51
90.00000572957597
  0
ARC
  5
B5C1
330
1A
100
AcDbEntity
  8
SEIHIN
100
AcDbCircle
 10
567.2136231134823
 20
233.6604022879612
 30
0.0
 40
0.9999999039302407
100
AcDbArc
 50
197.4576065858257
 51
270.0
  0
LINE
  5
B5C2
330
1A
100
AcDbEntity
  8
SEIHIN
100
AcDbLine
 10
568.9136231134823
 20
232.6604022879612
 30
0.0
 11
567.2136231134823
 21
232.6604022879612
 31
0.0
  0
LINE
  5
B5C3
330
1A
100
AcDbEntity
  8
SEIHIN
100
AcDbLine
 10
568.9127261134824
 20
262.6007502879613
 30
0.0
 11
568.4136231134821
 21
262.6007502879613
 31
0.0
  0
LINE
  5
B5C4
330
1A
100
AcDbEntity
  8
SEIHIN
100
AcDbLine
 10
568.9127261134824
 20
257.565349377593
 30
0.0
 11
568.4136231134821
 21
257.565349377593
 31
0.0
  0
ARC
  5
B5C5
330
1A
100
AcDbEntity
  8
SEIHIN
  6
Continuous
 62
     3
100
AcDbCircle
 10
553.9136231134823
 20
281.8338213124936
 30
0.0
 40
4.25
100
AcDbArc
 50
0.0
 51
180.0
  0
ARC
  5
B5C6
330
1A
100
AcDbEntity
  8
SEIHIN
  6
Continuous
 62
     3
100
AcDbCircle
 10
553.9136231134823
 20
281.8338213124936
 30
0.0
 40
4.25
100
AcDbArc
 50
180.0
 51
0.0
  0
DIMENSION
  5
B5C7
330
1A
100
AcDbEntity
  8
SUNPOU
  6
Continuous
100
AcDbDimension
  2
*D16
 10
568.4136231134823
 20
399.5331263124937
 30
0.0
 11
553.9136231134823
 21
404.5331263124936
 31
0.0
 70
    32
 71
     5
 42
-1.0
  3
STANDARD
100
AcDbAlignedDimension
 13
539.4136231134823
 23
371.8338213124935
 33
0.0
 14
568.4136231134823
 24
371.8338213124935
 34
0.0
100
AcDbRotatedDimension
1001
ACAD
1000
DSTYLE
1002
{
1070
   140
1040
6.0
1070
    74
1070
     0
1070
   172
1070
     1
1070
    73
1070
     0
1070
   272
1070
     2
1070
    77
1070
     3
1070
   173
1070
     1
1070
   147
1040
2.0
1070
    42
1040
6.0
1070
    44
1040
3.0
1070
    43
1040
14.0
1070
   271
1070
     0
1070
   178
1070
     4
1070
   177
1070
     4
1070
   176
1070
     4
1070
   141
1040
150.0
1070
     7
1000
_OPEN
1070
     6
1000
_OPEN
1070
    41
1040
7.0
1002
}
  0
LEADER
  5
B5C8
330
1A
100
AcDbEntity
  8
SUNPOU
  6
Continuous
 62
     4
100
AcDbLeader
  3
STANDARD
 73
     0
 40
6.0
 41
31.2
 76
     3
 10
551.8500931134824
 20
360.3766793124936
 30
0.0
 10
513.7069861134821
 20
405.1706863124937
 30
0.0
 10
510.9213611134821
 20
405.1706863124937
 30
0.0
1001
ACAD
1000
DSTYLE
1002
{
1070
     6
1000
OPEN
1070
    41
1040
7.0
1070
    42
1040
6.0
1070
    43
1040
14.0
1070
    44
1040
3.0
1070
    73
1070
     0
1070
    74
1070
     0
1070
    77
1070
     3
1070
   140
1040
6.0
1070
   141
1040
150.0
1070
   147
1040
2.0
1070
   172
1070
     1
1070
   173
1070
     1
1070
   176
1070
     4
1070
   177
1070
     4
1070
   178
1070
     4
1070
   271
1070
     0
1070
   272
1070
     2
1070
   341
1005
6D
1070
   343
1005
6D
1070
   344
1005
6D
1002
}
1000
LEANOF
1010
0.0
1020
0.0
1030
0.0
  0
LINE
  5
B5C9
330
1A
100
AcDbEntity
  8
CENTER L
  6
CENTER
 48
5.0
100
AcDbLine
 10
534.1437231134823
 20
311.8338213124935
 30
0.0
 11
576.1340231134822
 21
311.8338213124935
 31
0.0
  0
LINE
  5
B5CA
330
1A
100
AcDbEntity
  8
CENTER L
  6
CENTER
 48
5.0
100
AcDbLine
 10
534.1437231134823
 20
356.8338213124935
 30
0.0
 11
576.1340231134822
 21
356.8338213124935
 31
0.0
  0
LINE
  5
B5CB
330
1A
100
AcDbEntity
  8
SEIHIN
  6
Continuous
 62
     3
100
AcDbLine
 10
539.4136231134823
 20
371.8338213124935
 30
0.0
 11
568.4136231134823
 21
371.8338213124935
 31
0.0
  0
DIMENSION
  5
B5CC
330
1A
100
AcDbEntity
  8
SUNPOU
  6
Continuous
100
AcDbDimension
  2
*D17
 10
517.6370548210522
 20
356.8338213124935
 30
0.0
 11
512.6370548210521
 21
364.3338213124936
 31
0.0
 70
    32
 71
     5
 42
-1.0
  3
STANDARD
100
AcDbAlignedDimension
 13
539.4136231134823
 23
371.8338213124935
 33
0.0
 14
534.1437231134823
 24
356.8338213124935
 34
0.0
 50
90.0
100
AcDbRotatedDimension
1001
ACAD
1000
DSTYLE
1002
{
1070
   140
1040
6.0
1070
    74
1070
     0
1070
   172
1070
     1
1070
    73
1070
     0
1070
   272
1070
     2
1070
    77
1070
     3
1070
   173
1070
     1
1070
   147
1040
2.0
1070
    42
1040
6.0
1070
    44
1040
3.0
1070
    43
1040
14.0
1070
   271
1070
     0
1070
   178
1070
     4
1070
   177
1070
     4
1070
   176
1070
     4
1070
   141
1040
150.0
1070
     7
1000
_OPEN
1070
     6
1000
_OPEN
1070
    41
1040
7.0
1002
}
  0
DIMENSION
  5
B5CD
330
1A
100
AcDbEntity
  8
SUNPOU
  6
Continuous
100
AcDbDimension
  2
*D18
 10
517.5950731134824
 20
311.8338213124935
 30
0.0
 11
512.5950731134822
 21
334.3338213124936
 31
0.0
 70
    32
 71
     5
 42
-1.0
  3
STANDARD
100
AcDbAlignedDimension
 13
534.1437231134823
 23
356.8338213124935
 33
0.0
 14
534.1437231134823
 24
311.8338213124935
 34
0.0
 50
90.0
100
AcDbRotatedDimension
1001
ACAD
1000
DSTYLE
1002
{
1070
   287
1070
     4
1070
   287
1070
     4
1070
   287
1070
     4
1070
   287
1070
     4
1070
   287
1070
     4
1070
   287
1070
     4
1070
   287
1070
     4
1070
   287
1070
     4
1070
   287
1070
     4
1070
   287
1070
     4
1070
   287
1070
     4
1070
   287
1070
     4
1070
   287
1070
     4
1070
   287
1070
     4
1070
   287
1070
     4
1070
   287
1070
     4
1070
    41
1040
7.0
1070
    42
1040
6.0
1070
    43
1040
14.0
1070
    44
1040
3.0
1070
    73
1070
     0
1070
    74
1070
     0
1070
    75
1070
     1
1070
    77
1070
     3
1070
   140
1040
6.0
1070
   141
1040
150.0
1070
   147
1040
2.0
1070
   172
1070
     1
1070
   173
1070
     1
1070
   176
1070
     4
1070
   177
1070
     4
1070
   178
1070
     4
1070
   271
1070
     0
1070
   272
1070
     2
1070
   279
1070
     1
1070
     6
1000
OPEN
1070
     7
1000
OPEN
1002
}
  0
MTEXT
  5
B5CE
330
1A
100
AcDbEntity
  8
SUNPOU
  6
Continuous
 62
     4
100
AcDbMText
 10
510.0492498507021
 20
408.2974471699612
 30
0.0
 40
6.0
 41
0.0
 71
     9
 72
     5
  1
3-φ8.5
 73
     1
 44
1.0
1001
ACAD
1000
MTEXTBEGIN
1070
    73
1070
     1
1070
    44
1040
1.0
1070
    74
1070
     0
1000
MTEXTEND
1000
MTEXTBEGIN
1070
    73
1070
     1
1070
    44
1040
1.0
1070
    74
1070
     0
1000
MTEXTEND
1000
MTEXTBEGIN
1070
    73
1070
     1
1070
    44
1040
1.0
1070
    74
1070
     0
1000
MTEXTEND
1000
MTEXTBEGIN
1070
    73
1070
     1
1070
    44
1040
1.0
1070
    74
1070
     0
1000
MTEXTEND
1000
MTEXTBEGIN
1070
    73
1070
     1
1070
    44
1040
1.0
1070
    74
1070
     0
1000
MTEXTEND
1000
MTEXTBEGIN
1070
    73
1070
     1
1070
    44
1040
1.0
1070
    74
1070
     0
1000
MTEXTEND
1000
MTEXTBEGIN
1070
    73
1070
     1
1070
    44
1040
1.0
1070
    74
1070
     0
1000
MTEXTEND
1000
MTEXTBEGIN
1070
    73
1070
     1
1070
    44
1040
1.0
1070
    74
1070
     0
1000
MTEXTEND
1000
MTEXTBEGIN
1070
    73
1070
     1
1070
    44
1040
1.0
1070
    74
1070
     0
1000
MTEXTEND
1000
MTEXTBEGIN
1070
    73
1070
     1
1070
    44
1040
1.0
1070
    74
1070
     0
1000
MTEXTEND
1000
MTEXTBEGIN
1070
    73
1070
     1
1070
    44
1040
1.0
1070
    74
1070
     0
1000
MTEXTEND
1000
MTEXTBEGIN
1070
    73
1070
     1
1070
    44
1040
1.0
1070
    74
1070
     0
1000
MTEXTEND
1000
MTEXTBEGIN
1070
    73
1070
     1
1070
    44
1040
1.0
1070
    74
1070
     0
1000
MTEXTEND
1000
MTEXTBEGIN
1070
    73
1070
     1
1070
    44
1040
1.0
1070
    74
1070
     0
1000
MTEXTEND
1000
MTEXTBEGIN
1070
    73
1070
     1
1070
    44
1040
1.0
1070
    74
1070
     0
1000
MTEXTEND
1000
MTEXTBEGIN
1070
    73
1070
     1
1070
    44
1040
1.0
1070
    74
1070
     0
1000
MTEXTEND
  0
ARC
  5
B5CF
330
1A
100
AcDbEntity
  8
SEIHIN
  6
Continuous
 62
     3
100
AcDbCircle
 10
553.9138231134822
 20
356.8338213124935
 30
0.0
 40
4.25
100
AcDbArc
 50
180.0
 51
0.0
  0
ARC
  5
B5D0
330
1A
100
AcDbEntity
  8
SEIHIN
  6
Continuous
 62
     3
100
AcDbCircle
 10
553.9137231134825
 20
311.8338213124935
 30
0.0
 40
4.25
100
AcDbArc
 50
0.0
 51
180.0
  0
ARC
  5
B5D1
330
1A
100
AcDbEntity
  8
SEIHIN
  6
Continuous
 62
     3
100
AcDbCircle
 10
553.9138231134822
 20
356.8338213124935
 30
0.0
 40
4.25
100
AcDbArc
 50
0.0
 51
180.0
  0
LINE
  5
B5D2
330
1A
100
AcDbEntity
  8
SEIHIN
100
AcDbLine
 10
428.9414415858163
 20
507.9948977864348
 30
0.0
 11
428.9414415858163
 21
527.6034110875639
 31
0.0
  0
ARC
  5
B5D3
330
1A
100
AcDbEntity
  8
SEIHIN
100
AcDbCircle
 10
426.7760695768479
 20
508.8049050140214
 30
0.0
 40
2.311914281708262
100
AcDbArc
 50
297.4399187584076
 51
339.4905333935039
  0
ARC
  5
B5D4
330
1A
100
AcDbEntity
  8
SEIHIN
100
AcDbCircle
 10
426.7760695768479
 20
508.8049050140214
 30
0.0
 40
2.311914281708262
100
AcDbArc
 50
297.4399187584076
 51
339.4905333935039
  0
ARC
  5
B5D5
330
1A
100
AcDbEntity
  8
SEIHIN
100
AcDbCircle
 10
428.1414415858161
 20
505.7991544369994
 30
0.0
 40
0.9999999039302407
100
AcDbArc
 50
107.4576065858207
 51
179.9999999999902
  0
LINE
  5
B5D6
330
1A
100
AcDbEntity
  8
SEIHIN
100
AcDbLine
 10
427.1414415858162
 20
502.7991544369994
 30
0.0
 11
427.1414415858162
 21
505.7991544369994
 31
0.0
  0
LINE
  5
B5D7
330
1A
100
AcDbEntity
  8
SEIHIN
100
AcDbLine
 10
427.1414415858162
 20
532.7991544369995
 30
0.0
 11
427.1414415858162
 21
529.7991544369994
 31
0.0
  0
ARC
  5
B5D8
330
1A
100
AcDbEntity
  8
SEIHIN
100
AcDbCircle
 10
428.1414415858161
 20
529.7991544369994
 30
0.0
 40
0.9999999039302407
100
AcDbArc
 50
180.0
 51
252.5423934141792
  0
ARC
  5
B5D9
330
1A
100
AcDbEntity
  8
SEIHIN
100
AcDbCircle
 10
426.7760695768479
 20
526.7934038599774
 30
0.0
 40
2.311914281708274
100
AcDbArc
 50
20.50946660649532
 51
62.56008124159965
  0
LINE
  5
BB87
330
1A
100
AcDbEntity
  8
SEIHIN
  6
Continuous
 62
     3
100
AcDbLine
 10
299.8492851661773
 20
76.67680882018095
 30
0.0
 11
289.1349994518924
 21
74.17680882018117
 31
0.0
  0
LINE
  5
BB88
330
1A
100
AcDbEntity
  8
SEIHIN
  6
Continuous
 62
     3
100
AcDbLine
 10
289.1349994518912
 20
97.17680882018107
 30
0.0
 11
299.8492851661779
 21
94.676808820181
 31
0.0
  0
LINE
  5
BB89
330
1A
100
AcDbEntity
  8
SEIHIN
  6
Continuous
 62
     3
100
AcDbLine
 10
277.8570985781564
 20
74.17680882018117
 30
0.0
 11
295.0604047982207
 21
74.17680882018124
 31
0.0
  0
LINE
  5
BB8A
330
1A
100
AcDbEntity
  8
SEIHIN
  6
Continuous
 62
     3
100
AcDbLine
 10
277.8570985781564
 20
97.17680882018113
 30
0.0
 11
294.8492851661791
 21
97.17680882018107
 31
0.0
  0
ARC
  5
BB8B
330
1A
100
AcDbEntity
  8
SEIHIN
  6
Continuous
 62
     3
100
AcDbCircle
 10
317.9768929081838
 20
85.67680882018112
 30
0.0
 40
41.73545132239126
100
AcDbArc
 50
164.0054975371987
 51
195.9945024628012
  0
ARC
  5
BB8C
330
1A
100
AcDbEntity
  8
SEIHIN
  6
Continuous
 62
     3
100
AcDbCircle
 10
317.9768929081838
 20
85.67680882018112
 30
0.0
 40
41.23545132239125
100
AcDbArc
 50
163.8062566797392
 51
196.1937433202607
  0
LINE
  5
BB8D
330
1A
100
AcDbEntity
  8
SEIHIN
  6
Continuous
 62
     3
100
AcDbLine
 10
304.0655105607675
 20
77.67680882018095
 30
0.0
 11
304.065510560808
 21
93.67680882018101
 31
0.0
  0
LINE
  5
BB8E
330
1A
100
AcDbEntity
  8
SEIHIN
  6
Continuous
 62
     3
100
AcDbLine
 10
299.8492851661772
 20
77.67680882018095
 30
0.0
 11
299.8492851661779
 21
93.67680882018101
 31
0.0
  0
LINE
  5
BB8F
330
1A
100
AcDbEntity
  8
SEIHIN
  6
Continuous
 62
     3
100
AcDbLine
 10
318.6308671969432
 20
95.67680882018356
 30
0.0
 11
318.6308671969923
 21
75.6768088201835
 31
0.0
  0
LINE
  5
BB90
330
1A
100
AcDbEntity
  8
SEIHIN
  6
Continuous
 62
     3
100
AcDbLine
 10
299.8492851661773
 20
74.67680882018118
 30
0.0
 11
317.6308671969923
 21
74.67680882018107
 31
0.0
  0
LINE
  5
BB91
330
1A
100
AcDbEntity
  8
SEIHIN
  6
Continuous
 62
     3
100
AcDbLine
 10
299.8492851661773
 20
76.67680882018095
 30
0.0
 11
318.6308671969948
 21
76.67680882018095
 31
0.0
  0
LINE
  5
BB92
330
1A
100
AcDbEntity
  8
SEIHIN
  6
Continuous
 62
     3
100
AcDbLine
 10
299.8492851661772
 20
74.64579562481424
 30
0.0
 11
295.0604047982201
 21
74.17680882018112
 31
0.0
  0
LINE
  5
BB93
330
1A
100
AcDbEntity
  8
SEIHIN
 48
5.0
100
AcDbLine
 10
298.3433187623411
 20
73.67680882018118
 30
0.0
 11
298.3433187623507
 21
71.67680882018112
 31
0.0
  0
LINE
  5
BB94
330
1A
100
AcDbEntity
  8
SEIHIN
 48
5.0
100
AcDbLine
 10
306.2036215423765
 20
73.67680882018118
 30
0.0
 11
306.2036215423708
 21
71.67680882018107
 31
0.0
  0
ARC
  5
BB95
330
1A
100
AcDbEntity
  8
SEIHIN
  6
Continuous
 62
     3
100
AcDbCircle
 10
317.6308671969923
 20
75.67680882018106
 30
0.0
 40
1.0
100
AcDbArc
 50
270.0
 51
0.0000000001400462
  0
LINE
  5
BB96
330
1A
100
AcDbEntity
  8
SEIHIN
  6
Continuous
 62
     3
100
AcDbLine
 10
299.8492851661772
 20
96.67680882018112
 30
0.0
 11
317.6308671969432
 21
96.67680882018112
 31
0.0
  0
LINE
  5
BB97
330
1A
100
AcDbEntity
  8
SEIHIN
  6
Continuous
 62
     3
100
AcDbLine
 10
299.8492851661772
 20
94.676808820181
 30
0.0
 11
318.6308671969947
 21
94.676808820181
 31
0.0
  0
LINE
  5
BB98
330
1A
100
AcDbEntity
  8
SEIHIN
  6
Continuous
 62
     3
100
AcDbLine
 10
299.8492851661773
 20
85.67680882018112
 30
0.0
 11
299.8492851661779
 21
93.6768088201809
 31
0.0
  0
LINE
  5
BB99
330
1A
100
AcDbEntity
  8
SEIHIN
 48
5.0
100
AcDbLine
 10
298.3433187623411
 20
97.67680882018106
 30
0.0
 11
298.3433187623507
 21
99.67680882018113
 31
0.0
  0
LINE
  5
BB9A
330
1A
100
AcDbEntity
  8
SEIHIN
  6
Continuous
 62
     3
100
AcDbLine
 10
299.849285166177
 20
96.67680882018125
 30
0.0
 11
294.849285166178
 21
97.17680882018113
 31
0.0
  0
LINE
  5
BB9B
330
1A
100
AcDbEntity
  8
SEIHIN
 48
5.0
100
AcDbLine
 10
306.2036215423765
 20
97.67680882018106
 30
0.0
 11
306.2036215423708
 21
99.67680882018118
 31
0.0
  0
CIRCLE
  5
BB9C
330
1A
100
AcDbEntity
  8
SEIHIN
 48
5.0
100
AcDbCircle
 10
314.7414415857381
 20
85.67680882018112
 30
0.0
 40
2.350000000000022
  0
CIRCLE
  5
BB9D
330
1A
100
AcDbEntity
  8
SEIHIN
 48
5.0
100
AcDbCircle
 10
314.7414415857381
 20
85.67680882018112
 30
0.0
 40
3.0
  0
ARC
  5
BB9E
330
1A
100
AcDbEntity
  8
SEIHIN
  6
Continuous
 62
     3
100
AcDbCircle
 10
317.6308671969432
 20
95.67680882018112
 30
0.0
 40
1.0
100
AcDbArc
 50
0.0000000001400462
 51
90.0
  0
LINE
  5
BB9F
330
1A
100
AcDbEntity
  8
SEIHIN
  6
Continuous
 62
     3
100
AcDbLine
 10
390.728116481698
 20
97.17680882018113
 30
0.0
 11
410.0257845934716
 21
97.17680882018113
 31
0.0
  0
LINE
  5
BBA0
330
1A
100
AcDbEntity
  8
SEIHIN
  6
Continuous
 62
     3
100
AcDbLine
 10
390.774749343494
 20
74.17680882018112
 30
0.0
 11
410.0257845934716
 21
74.17680882018117
 31
0.0
  0
LINE
  5
BBA1
330
1A
100
AcDbEntity
  8
SEIHIN
  6
Continuous
 62
     3
100
AcDbLine
 10
381.4915814821673
 20
76.67680882018095
 30
0.0
 11
401.2841564811611
 21
74.17680882018112
 31
0.0
  0
LINE
  5
BBA2
330
1A
100
AcDbEntity
  8
SEIHIN
  6
Continuous
 62
     3
100
AcDbLine
 10
381.4915814821673
 20
94.676808820181
 30
0.0
 11
401.2841564811603
 21
97.17680882018113
 31
0.0
  0
LINE
  5
BBA3
330
1A
100
AcDbEntity
  8
SEIHIN
  6
Continuous
 62
     3
100
AcDbLine
 10
375.7414415857136
 20
95.6768088201788
 30
0.0
 11
375.7414415857628
 21
75.67680882017874
 31
0.0
  0
LINE
  5
BBA4
330
1A
100
AcDbEntity
  8
SEIHIN
  6
Continuous
 62
     3
100
AcDbLine
 10
376.7414415857627
 20
74.67680882018118
 30
0.0
 11
381.491581482231
 21
74.67680882018123
 31
0.0
  0
LINE
  5
BBA5
330
1A
100
AcDbEntity
  8
SEIHIN
  6
Continuous
 62
     3
100
AcDbLine
 10
375.7414415857603
 20
76.67680882018095
 30
0.0
 11
381.491581482231
 21
76.67680882018095
 31
0.0
  0
ARC
  5
BBA6
330
1A
100
AcDbEntity
  8
SEIHIN
  6
Continuous
 62
     3
100
AcDbCircle
 10
376.7414415857627
 20
75.67680882018118
 30
0.0
 40
1.0
100
AcDbArc
 50
180.00000000014
 51
270.0
  0
LINE
  5
BBA7
330
1A
100
AcDbEntity
  8
SEIHIN
  6
Continuous
 62
     3
100
AcDbLine
 10
381.4915814821673
 20
74.67680882018123
 30
0.0
 11
390.7747493434948
 21
74.17680882018112
 31
0.0
  0
LINE
  5
BBA8
330
1A
100
AcDbEntity
  8
SEIHIN
  6
Continuous
 62
     3
100
AcDbLine
 10
376.7414415857136
 20
96.67680882018125
 30
0.0
 11
381.491581482231
 21
96.67680882018125
 31
0.0
  0
LINE
  5
BBA9
330
1A
100
AcDbEntity
  8
SEIHIN
  6
Continuous
 62
     3
100
AcDbLine
 10
375.7414415857161
 20
94.676808820181
 30
0.0
 11
381.491581482231
 21
94.676808820181
 31
0.0
  0
ARC
  5
BBAA
330
1A
100
AcDbEntity
  8
SEIHIN
  6
Continuous
 62
     3
100
AcDbCircle
 10
376.7414415857136
 20
95.67680882018123
 30
0.0
 40
1.0
100
AcDbArc
 50
90.0
 51
180.00000000014
  0
CIRCLE
  5
BBAB
330
1A
100
AcDbEntity
  8
SEIHIN
 48
5.0
100
AcDbCircle
 10
380.7414415857382
 20
85.67680882018112
 30
0.0
 40
2.350000000000022
  0
CIRCLE
  5
BBAC
330
1A
100
AcDbEntity
  8
SEIHIN
 48
5.0
100
AcDbCircle
 10
380.7414415857382
 20
85.67680882018112
 30
0.0
 40
3.0
  0
LINE
  5
BBAD
330
1A
100
AcDbEntity
  8
SEIHIN
  6
Continuous
 62
     3
100
AcDbLine
 10
381.4915814821673
 20
96.67680882018112
 30
0.0
 11
390.7281164816968
 21
97.17680882018113
 31
0.0
  0
ARC
  5
BBAE
330
1A
100
AcDbEntity
  8
SEIHIN
  6
Continuous
 62
     3
100
AcDbCircle
 10
369.9059902634428
 20
85.67680882018112
 30
0.0
 40
41.23545132239263
100
AcDbArc
 50
343.8062566797392
 51
16.1937433202608
  0
ARC
  5
BBAF
330
1A
100
AcDbEntity
  8
SEIHIN
  6
Continuous
 62
     3
100
AcDbCircle
 10
369.9059902634428
 20
85.67680882018112
 30
0.0
 40
41.73545132239264
100
AcDbArc
 50
344.0054975371987
 51
15.99450246279952
  0
LINE
  5
BBB0
330
1A
100
AcDbEntity
  8
SEIHIN
  6
Continuous
 62
     3
100
AcDbLine
 10
287.0030407701372
 20
242.451311287961
 30
0.0
 11
296.8464947821668
 21
240.6460268401437
 31
0.0
  0
LINE
  5
BBB1
330
1A
100
AcDbEntity
  8
SEIHIN
  6
Continuous
 62
     3
100
AcDbLine
 10
287.0452828382379
 20
242.9513112879611
 30
0.0
 11
296.9365343206193
 21
241.1379375913019
 31
0.0
  0
LINE
  5
BBB2
330
1A
100
AcDbEntity
  8
SEIHIN
  6
Continuous
 62
     3
100
AcDbLine
 10
280.2610118382378
 20
242.9513112879611
 30
0.0
 11
296.3069865530452
 21
242.9513112879611
 31
0.0
  0
ARC
  5
BBB3
330
1A
100
AcDbEntity
  8
SEIHIN
  6
Continuous
 62
     3
100
AcDbCircle
 10
280.2610118382378
 20
244.4513112879616
 30
0.0
 40
2.0
100
AcDbArc
 50
180.0000000000162
 51
261.5819526537624
  0
ARC
  5
BBB4
330
1A
100
AcDbEntity
  8
SEIHIN
  6
Continuous
 62
     3
100
AcDbCircle
 10
280.2610118382378
 20
244.4513112879611
 30
0.0
 40
1.5
100
AcDbArc
 50
179.9999999999951
 51
259.6901715535555
  0
LINE
  5
BBB5
330
1A
100
AcDbEntity
  8
SEIHIN
  6
Continuous
 62
     3
100
AcDbLine
 10
279.0452828382377
 20
242.4513112879611
 30
0.0
 11
287.0030407701372
 21
242.4513112879611
 31
0.0
  0
LINE
  5
BBB6
330
1A
100
AcDbEntity
  8
SEIHIN
  6
Continuous
 62
     3
100
AcDbLine
 10
277.0452828382377
 20
247.4513112879611
 30
0.0
 11
278.7610118382469
 21
247.4513112879611
 31
0.0
  0
POINT
  5
BBB7
330
1A
100
AcDbEntity
  8
SEIHIN
  6
Continuous
 62
     7
100
AcDbPoint
 10
277.0452828382377
 20
247.4513112879612
 30
0.0
  0
POINT
  5
BBB8
330
1A
100
AcDbEntity
  8
SEIHIN
  6
Continuous
 62
     7
100
AcDbPoint
 10
277.0452828382377
 20
247.4513112879612
 30
0.0
  0
POINT
  5
BBB9
330
1A
100
AcDbEntity
  8
SEIHIN
  6
Continuous
 62
     7
100
AcDbPoint
 10
277.0452828382377
 20
247.4513112879612
 30
0.0
  0
ARC
  5
BBBA
330
1A
100
AcDbEntity
  8
SEIHIN
  6
Continuous
 62
     3
100
AcDbCircle
 10
279.0452828382377
 20
244.4513112879616
 30
0.0
 40
2.0
100
AcDbArc
 50
180.0000000000162
 51
270.0000000022586
  0
LINE
  5
BBBB
330
1A
100
AcDbEntity
  8
SEIHIN
  6
Continuous
 62
     3
100
AcDbLine
 10
277.0452828382377
 20
244.4513112879611
 30
0.0
 11
277.0452828383166
 21
247.4513112879611
 31
0.0
  0
LINE
  5
BBBC
330
1A
100
AcDbEntity
  8
SEIHIN
  6
Continuous
 62
     3
100
AcDbLine
 10
278.2610118382378
 20
244.4513112879611
 30
0.0
 11
278.2610118382473
 21
247.4513112879611
 31
0.0
  0
LINE
  5
BBBD
330
1A
100
AcDbEntity
  8
SEIHIN
  6
Continuous
 62
     3
100
AcDbLine
 10
278.7610118382378
 20
244.4513112879611
 30
0.0
 11
278.7610118382469
 21
247.4513112879611
 31
0.0
  0
POINT
  5
BBBE
330
1A
100
AcDbEntity
  8
SEIHIN
  6
Continuous
 62
     7
100
AcDbPoint
 10
280.2610118382378
 20
242.9513112879612
 30
0.0
  0
POINT
  5
BBBF
330
1A
100
AcDbEntity
  8
SEIHIN
  6
Continuous
 62
     7
100
AcDbPoint
 10
280.2610118382378
 20
242.9513112879612
 30
0.0
  0
LINE
  5
BBC0
330
1A
100
AcDbEntity
  8
SEIHIN
  6
Continuous
 62
     3
100
AcDbLine
 10
279.9884916927536
 20
242.9762747561067
 30
0.0
 11
280.1246577471358
 21
242.9513112879611
 31
0.0
  0
LINE
  5
BBC1
330
1A
100
AcDbEntity
  8
SEIHIN
  6
Continuous
 62
     3
100
AcDbLine
 10
280.1246577470828
 20
242.9513112879611
 30
0.0
 11
280.2610118382473
 21
242.9513112879611
 31
0.0
  0
ARC
  5
BBC2
330
1A
100
AcDbEntity
  8
SEIHIN
  6
Continuous
 62
     3
100
AcDbCircle
 10
296.5758828945788
 20
239.170723686063
 30
0.0
 40
2.0
100
AcDbArc
 50
16.01542568659811
 51
79.61126776609514
  0
ARC
  5
BBC3
330
1A
100
AcDbEntity
  8
SEIHIN
  6
Continuous
 62
     3
100
AcDbCircle
 10
296.5759085459584
 20
239.1706343198844
 30
0.0
 40
1.5
100
AcDbArc
 50
16.01542568644394
 51
79.60747497741586
  0
LINE
  5
BBC4
330
1A
100
AcDbEntity
  8
SEIHIN
  6
Continuous
 62
     3
100
AcDbLine
 10
298.4982577976237
 20
239.7225159768237
 30
0.0
 11
300.3349624674418
 21
233.3236680395464
 31
0.0
  0
LINE
  5
BBC5
330
1A
100
AcDbEntity
  8
SEIHIN
  6
Continuous
 62
     3
100
AcDbLine
 10
298.0176897232421
 20
239.5844785379551
 30
0.0
 11
300.8340064847856
 21
229.7727853483948
 31
0.0
  0
ARC
  5
BBC6
330
1A
100
AcDbEntity
  8
SEIHIN
  6
Continuous
 62
     3
100
AcDbCircle
 10
296.3069865530446
 20
237.9513112879611
 30
0.0
 40
4.999999892672396
100
AcDbArc
 50
56.01419222368273
 51
89.99999999999349
  0
LINE
  5
BBC7
330
1A
100
AcDbEntity
  8
SEIHIN
  6
Continuous
 62
     3
100
AcDbLine
 10
409.58741833808
 20
210.9513112879612
 30
0.0
 11
391.9829409720943
 21
210.9513112879612
 31
0.0
  0
LINE
  5
BBC8
330
1A
100
AcDbEntity
  8
SEIHIN
  6
Continuous
 62
     3
100
AcDbLine
 10
391.1319730414672
 20
209.6313753417141
 30
0.0
 11
401.2852470507578
 21
210.9513112879612
 31
0.0
  0
LINE
  5
BBC9
330
1A
100
AcDbEntity
  8
SEIHIN
  6
Continuous
 62
     3
100
AcDbLine
 10
390.7641450684934
 20
209.2195209883136
 30
0.0
 11
400.8305581266649
 21
210.4513112879612
 31
0.0
  0
ARC
  5
BBCA
330
1A
100
AcDbEntity
  8
SEIHIN
  6
Continuous
 62
     3
100
AcDbCircle
 10
409.58741833808
 20
212.4513112879612
 30
0.0
 40
1.5
100
AcDbArc
 50
269.9999999999934
 51
359.9999999999934
  0
LINE
  5
BBCB
330
1A
100
AcDbEntity
  8
SEIHIN
  6
Continuous
 62
     3
100
AcDbLine
 10
410.4452828380263
 20
210.4513112879612
 30
0.0
 11
400.8305581266652
 21
210.4513112879612
 31
0.0
  0
ARC
  5
BBCC
330
1A
100
AcDbEntity
  8
SEIHIN
  6
Continuous
 62
     3
100
AcDbCircle
 10
409.58741833808
 20
212.4513112879612
 30
0.0
 40
2.0
100
AcDbArc
 50
269.999999999987
 51
359.9999999999869
  0
POINT
  5
BBCD
330
1A
100
AcDbEntity
  8
SEIHIN
  6
Continuous
 62
     7
100
AcDbPoint
 10
409.2295538380261
 20
210.9513112879612
 30
0.0
  0
LINE
  5
BBCE
330
1A
100
AcDbEntity
  8
SEIHIN
  6
Continuous
 62
     3
100
AcDbLine
 10
411.08741833808
 20
212.4513112879612
 30
0.0
 11
411.0874183380194
 21
215.4513112879612
 31
0.0
  0
LINE
  5
BBCF
330
1A
100
AcDbEntity
  8
SEIHIN
  6
Continuous
 62
     3
100
AcDbLine
 10
411.5874183380801
 20
212.4513112879612
 30
0.0
 11
411.5874183380194
 21
215.4513112879612
 31
0.0
  0
LINE
  5
BBD0
330
1A
100
AcDbEntity
  8
SEIHIN
  6
Continuous
 62
     3
100
AcDbLine
 10
412.4452828380262
 20
212.4513112879612
 30
0.0
 11
412.4452828380126
 21
215.4513112879612
 31
0.0
  0
LINE
  5
BBD1
330
1A
100
AcDbEntity
  8
SEIHIN
  6
Continuous
 62
     3
100
AcDbLine
 10
411.0874183380194
 20
215.4513112879612
 30
0.0
 11
412.4452828380126
 21
215.4513112879612
 31
0.0
  0
POINT
  5
BBD2
330
1A
100
AcDbEntity
  8
SEIHIN
  6
Continuous
 62
     7
100
AcDbPoint
 10
412.4452828380262
 20
215.4513112879612
 30
0.0
  0
POINT
  5
BBD3
330
1A
100
AcDbEntity
  8
SEIHIN
  6
Continuous
 62
     7
100
AcDbPoint
 10
412.4452828380262
 20
215.4513112879612
 30
0.0
  0
POINT
  5
BBD4
330
1A
100
AcDbEntity
  8
SEIHIN
  6
Continuous
 62
     7
100
AcDbPoint
 10
412.4452828380262
 20
215.4513112879612
 30
0.0
  0
ARC
  5
BBD5
330
1A
100
AcDbEntity
  8
SEIHIN
  6
Continuous
 62
     3
100
AcDbCircle
 10
410.4452828380263
 20
212.4513112879612
 30
0.0
 40
2.0
100
AcDbArc
 50
269.999999999987
 51
359.9999999999869
  0
VIEWPORT
  5
22
330
17
100
AcDbEntity
 67
     1
  8
0
100
AcDbViewport
 10
313.6808219178082
 20
148.5
 30
0.0
 40
627.3616438356165
 41
297.0
 68
     2
 69
     1
 12
313.6808219178082
 22
148.5
 13
0.0
 23
0.0
 14
1.0
 24
1.0
 15
10.0
 25
10.0
 16
0.0
 26
0.0
 36
1.0
 17
0.0
 27
0.0
 37
0.0
 42
50.0
 43
0.0
 44
0.0
 45
297.0
 50
0.0
 51
0.0
 72
   100
 90
    32768
  1

281
     0
 71
     1
 74
     0
110
0.0
120
0.0
130
0.0
111
1.0
121
0.0
131
0.0
112
0.0
122
1.0
132
0.0
 79
     0
146
0.0
  0
VIEWPORT
  5
64
330
17
100
AcDbEntity
 67
     1
  8
VIEWPORT
100
AcDbViewport
 10
210.0
 20
148.5
 30
0.0
 40
420.0
 41
297.0
 68
     1
 69
     2
 12
420.0
 22
297.0
 13
0.0
 23
0.0
 14
10.0
 24
10.0
 15
0.0
 25
0.0
 16
0.0
 26
0.0
 36
1.0
 17
0.0
 27
0.0
 37
0.0
 42
50.0
 43
0.0
 44
0.0
 45
605.8799999999998
 50
0.0
 51
0.0
 72
   100
 90
    32768
  1

281
     0
 71
     1
 74
     0
110
0.0
120
0.0
130
0.0
111
1.0
121
0.0
131
0.0
112
0.0
122
1.0
132
0.0
 79
     0
146
0.0
  0
ENDSEC
  0
SECTION
  2
OBJECTS
  0
DICTIONARY
  5
C
330
0
100
AcDbDictionary
281
     1
  3
ACAD_GROUP
350
D
  3
ACAD_LAYOUT
350
340
  3
ACAD_MLINESTYLE
350
E
  3
ACAD_PLOTSETTINGS
350
341
  3
ACAD_PLOTSTYLENAME
350
33E
  3
AcDbVariableDictionary
350
11E9
  0
DICTIONARY
  5
385
330
1A
100
AcDbDictionary
280
     1
281
     1
  3
ACAD_LAYOUTSELFREF
360
BCF1
  0
DICTIONARY
  5
383
330
17
100
AcDbDictionary
280
     1
281
     1
  3
ACAD_LAYOUTSELFREF
360
BCF0
  0
DICTIONARY
  5
D
102
{ACAD_REACTORS
330
C
102
}
330
C
100
AcDbDictionary
281
     1
  0
DICTIONARY
  5
340
102
{ACAD_REACTORS
330
C
102
}
330
C
100
AcDbDictionary
281
     1
  3
Model
350
342
  3
ﾚｲｱｳﾄ1
350
343
  0
DICTIONARY
  5
E
102
{ACAD_REACTORS
330
C
102
}
330
C
100
AcDbDictionary
281
     1
  3
STANDARD
350
13
  0
DICTIONARY
  5
341
102
{ACAD_REACTORS
330
C
102
}
330
C
100
AcDbDictionary
281
     1
  0
ACDBDICTIONARYWDFLT
  5
33E
102
{ACAD_REACTORS
330
C
102
}
330
C
100
AcDbDictionary
281
     1
  3
Normal
350
33F
100
AcDbDictionaryWithDefault
340
33F
1001
ACAD
1000
TREAT_AS_HARD
1070
     0
1000
TREAT_AS_HARD
1070
     0
1000
TREAT_AS_HARD
1070
     0
1000
TREAT_AS_HARD
1070
     0
1000
TREAT_AS_HARD
1070
     0
1000
TREAT_AS_HARD
1070
     0
1000
TREAT_AS_HARD
1070
     0
1000
TREAT_AS_HARD
1070
     0
1000
TREAT_AS_HARD
1070
     0
1000
TREAT_AS_HARD
1070
     0
1000
TREAT_AS_HARD
1070
     0
1000
TREAT_AS_HARD
1070
     0
1000
TREAT_AS_HARD
1070
     0
1000
TREAT_AS_HARD
1070
     0
1000
TREAT_AS_HARD
1070
     0
1000
TREAT_AS_HARD
1070
     0
1000
TREAT_AS_HARD
1070
     0
  0
DICTIONARY
  5
11E9
102
{ACAD_REACTORS
330
C
102
}
330
C
100
AcDbDictionary
281
     1
  3
SORTENTS
350
11EA
  0
XRECORD
  5
BCF1
102
{ACAD_REACTORS
330
385
102
}
330
385
100
AcDbXrecord
280
     1
340
1A
  0
XRECORD
  5
BCF0
102
{ACAD_REACTORS
330
383
102
}
330
383
100
AcDbXrecord
280
     1
340
17
  0
LAYOUT
  5
342
102
{ACAD_REACTORS
330
340
102
}
330
340
100
AcDbPlotSettings
  1

  2
Acrobat Distiller
  4
A3
  6

 40
3.174999952316284
 41
3.174999952316284
 42
3.17498779296875
 43
3.17498779296875
 44
297.0318298339843
 45
420.1583251953125
 46
0.0
 47
0.0
 48
0.0
 49
0.0
140
0.0
141
0.0
142
1.0
143
2.0
 70
 11952
 72
     1
 73
     1
 74
     2
  7
print.ctb
 75
    17
147
0.5
148
0.0
149
0.0
100
AcDbLayout
  1
Model
 70
     1
 71
     0
 10
0.0
 20
0.0
 11
12.0
 21
9.0
 12
0.0
 22
0.0
 32
0.0
 14
0.0
 24
0.0
 34
0.0
 15
0.0
 25
0.0
 35
0.0
146
0.0
 13
0.0
 23
0.0
 33
0.0
 16
1.0
 26
0.0
 36
0.0
 17
0.0
 27
1.0
 37
0.0
 76
     0
330
1A
  0
LAYOUT
  5
343
102
{ACAD_REACTORS
330
340
102
}
330
340
100
AcDbPlotSettings
  1

  2
Acrobat Distiller
  4

  6

 40
0.0
 41
0.0
 42
0.0
 43
0.0
 44
0.0
 45
0.0
 46
0.0
 47
0.0
 48
0.0
 49
0.0
140
0.0
141
0.0
142
1.0
143
1.0
 70
   688
 72
     0
 73
     0
 74
     5
  7
print.ctb
 75
    16
147
1.0
148
0.0
149
0.0
100
AcDbLayout
  1
ﾚｲｱｳﾄ1
 70
     1
 71
     1
 10
0.0
 20
0.0
 11
420.0
 21
297.0
 12
0.0
 22
0.0
 32
0.0
 14
0.0
 24
0.0
 34
0.0
 15
420.0
 25
297.0
 35
0.0
146
0.0
 13
0.0
 23
0.0
 33
0.0
 16
1.0
 26
0.0
 36
0.0
 17
0.0
 27
1.0
 37
0.0
 76
     0
330
17
331
64
  0
MLINESTYLE
  5
13
102
{ACAD_REACTORS
330
E
102
}
330
E
100
AcDbMlineStyle
  2
STANDARD
 70
     0
  3

 62
     0
 51
90.0
 52
90.0
 71
     2
 49
0.5
 62
   256
  6
BYLAYER
 49
-0.5
 62
   256
  6
BYLAYER
  0
ACDBPLACEHOLDER
  5
33F
102
{ACAD_REACTORS
330
33E
102
}
330
33E
  0
DICTIONARYVAR
  5
11EA
102
{ACAD_REACTORS
330
11E9
102
}
330
11E9
100
DictionaryVariables
280
     0
  1
96
  0
ENDSEC
  0
EOF
