  0
SECTION
  2
HEADER
  9
$ACADVER
  1
AC1015
  9
$ACADMAINTVER
 70
     6
  9
$DWGCODEPAGE
  3
ANSI_932
  9
$INSBASE
 10
0.0
 20
0.0
 30
0.0
  9
$EXTMIN
 10
10.05047808566086
 20
13.78258628282265
 30
0.0
  9
$EXTMAX
 10
807.6504780856607
 20
565.3825862828227
 30
0.0
  9
$LIMMIN
 10
0.0
 20
0.0
  9
$LIMMAX
 10
840.0
 20
594.0
  9
$ORTHOMODE
 70
     0
  9
$REGENMODE
 70
     1
  9
$FILLMODE
 70
     1
  9
$QTEXTMODE
 70
     0
  9
$MIRRTEXT
 70
     1
  9
$LTSCALE
 40
2.0
  9
$ATTMODE
 70
     1
  9
$TEXTSIZE
 40
5.0
  9
$TRACEWID
 40
1.0
  9
$TEXTSTYLE
  7
STANDARD
  9
$CLAYER
  8
0
  9
$CELTYPE
  6
BYLAYER
  9
$CECOLOR
 62
   256
  9
$CELTSCALE
 40
0.5
  9
$DISPSILH
 70
     0
  9
$DIMSCALE
 40
1.0
  9
$DIMASZ
 40
7.0
  9
$DIMEXO
 40
6.0
  9
$DIMDLI
 40
14.0
  9
$DIMRND
 40
0.0
  9
$DIMDLE
 40
0.0
  9
$DIMEXE
 40
3.0
  9
$DIMTP
 40
0.0
  9
$DIMTM
 40
0.0
  9
$DIMTXT
 40
6.0
  9
$DIMCEN
 40
150.0
  9
$DIMTSZ
 40
0.0
  9
$DIMTOL
 70
     0
  9
$DIMLIM
 70
     0
  9
$DIMTIH
 70
     0
  9
$DIMTOH
 70
     0
  9
$DIMSE1
 70
     0
  9
$DIMSE2
 70
     0
  9
$DIMTAD
 70
     3
  9
$DIMZIN
 70
     0
  9
$DIMBLK
  1

  9
$DIMASO
 70
     1
  9
$DIMSHO
 70
     1
  9
$DIMPOST
  1

  9
$DIMAPOST
  1

  9
$DIMALT
 70
     0
  9
$DIMALTD
 70
     2
  9
$DIMALTF
 40
25.4
  9
$DIMLFAC
 40
1.0
  9
$DIMTOFL
 70
     1
  9
$DIMTVP
 40
0.0
  9
$DIMTIX
 70
     0
  9
$DIMSOXD
 70
     0
  9
$DIMSAH
 70
     1
  9
$DIMBLK1
  1
OPEN
  9
$DIMBLK2
  1
OPEN
  9
$DIMSTYLE
  2
STANDARD
  9
$DIMCLRD
 70
   256
  9
$DIMCLRE
 70
   256
  9
$DIMCLRT
 70
   256
  9
$DIMTFAC
 40
1.0
  9
$DIMGAP
 40
2.0
  9
$DIMJUST
 70
     0
  9
$DIMSD1
 70
     0
  9
$DIMSD2
 70
     0
  9
$DIMTOLJ
 70
     1
  9
$DIMTZIN
 70
     0
  9
$DIMALTZ
 70
     0
  9
$DIMALTTZ
 70
     0
  9
$DIMUPT
 70
     0
  9
$DIMDEC
 70
     0
  9
$DIMTDEC
 70
     0
  9
$DIMALTU
 70
     2
  9
$DIMALTTD
 70
     2
  9
$DIMTXSTY
  7
STANDARD
  9
$DIMAUNIT
 70
     0
  9
$DIMADEC
 70
     0
  9
$DIMALTRND
 40
0.0
  9
$DIMAZIN
 70
     0
  9
$DIMDSEP
 70
    46
  9
$DIMATFIT
 70
     3
  9
$DIMFRAC
 70
     0
  9
$DIMLDRBLK
  1
OPEN
  9
$DIMLUNIT
 70
     2
  9
$DIMLWD
 70
    -1
  9
$DIMLWE
 70
    -1
  9
$DIMTMOVE
 70
     0
  9
$LUNITS
 70
     2
  9
$LUPREC
 70
     4
  9
$SKETCHINC
 40
1.0
  9
$FILLETRAD
 40
0.5
  9
$AUNITS
 70
     0
  9
$AUPREC
 70
     0
  9
$MENU
  1
.
  9
$ELEVATION
 40
0.0
  9
$PELEVATION
 40
0.0
  9
$THICKNESS
 40
0.0
  9
$LIMCHECK
 70
     0
  9
$CHAMFERA
 40
20.0
  9
$CHAMFERB
 40
20.0
  9
$CHAMFERC
 40
40.0
  9
$CHAMFERD
 40
0.0
  9
$SKPOLY
 70
     0
  9
$TDCREATE
 40
2454866.469916053
  9
$TDUCREATE
 40
2454866.094916053
  9
$TDUPDATE
 40
2456216.591736354
  9
$TDUUPDATE
 40
2456216.216736354
  9
$TDINDWG
 40
0.1124899769
  9
$TDUSRTIMER
 40
0.1124899769
  9
$USRTIMER
 70
     1
  9
$ANGBASE
 50
0.0
  9
$ANGDIR
 70
     0
  9
$PDMODE
 70
     0
  9
$PDSIZE
 40
0.0
  9
$PLINEWID
 40
0.0
  9
$SPLFRAME
 70
     0
  9
$SPLINETYPE
 70
     6
  9
$SPLINESEGS
 70
     8
  9
$HANDSEED
  5
9798
  9
$SURFTAB1
 70
     6
  9
$SURFTAB2
 70
     6
  9
$SURFTYPE
 70
     6
  9
$SURFU
 70
     6
  9
$SURFV
 70
     6
  9
$UCSBASE
  2

  9
$UCSNAME
  2

  9
$UCSORG
 10
0.0
 20
0.0
 30
0.0
  9
$UCSXDIR
 10
1.0
 20
0.0
 30
0.0
  9
$UCSYDIR
 10
0.0
 20
1.0
 30
0.0
  9
$UCSORTHOREF
  2

  9
$UCSORTHOVIEW
 70
     0
  9
$UCSORGTOP
 10
0.0
 20
0.0
 30
0.0
  9
$UCSORGBOTTOM
 10
0.0
 20
0.0
 30
0.0
  9
$UCSORGLEFT
 10
0.0
 20
0.0
 30
0.0
  9
$UCSORGRIGHT
 10
0.0
 20
0.0
 30
0.0
  9
$UCSORGFRONT
 10
0.0
 20
0.0
 30
0.0
  9
$UCSORGBACK
 10
0.0
 20
0.0
 30
0.0
  9
$PUCSBASE
  2

  9
$PUCSNAME
  2

  9
$PUCSORG
 10
0.0
 20
0.0
 30
0.0
  9
$PUCSXDIR
 10
1.0
 20
0.0
 30
0.0
  9
$PUCSYDIR
 10
0.0
 20
1.0
 30
0.0
  9
$PUCSORTHOREF
  2

  9
$PUCSORTHOVIEW
 70
     0
  9
$PUCSORGTOP
 10
0.0
 20
0.0
 30
0.0
  9
$PUCSORGBOTTOM
 10
0.0
 20
0.0
 30
0.0
  9
$PUCSORGLEFT
 10
0.0
 20
0.0
 30
0.0
  9
$PUCSORGRIGHT
 10
0.0
 20
0.0
 30
0.0
  9
$PUCSORGFRONT
 10
0.0
 20
0.0
 30
0.0
  9
$PUCSORGBACK
 10
0.0
 20
0.0
 30
0.0
  9
$USERI1
 70
     0
  9
$USERI2
 70
     0
  9
$USERI3
 70
     0
  9
$USERI4
 70
     0
  9
$USERI5
 70
     0
  9
$USERR1
 40
0.0
  9
$USERR2
 40
0.0
  9
$USERR3
 40
0.0
  9
$USERR4
 40
0.0
  9
$USERR5
 40
0.0
  9
$WORLDVIEW
 70
     1
  9
$SHADEDGE
 70
     3
  9
$SHADEDIF
 70
    70
  9
$TILEMODE
 70
     1
  9
$MAXACTVP
 70
    16
  9
$PINSBASE
 10
0.0
 20
0.0
 30
0.0
  9
$PLIMCHECK
 70
     0
  9
$PEXTMIN
 10
0.0
 20
0.0
 30
0.0
  9
$PEXTMAX
 10
420.0
 20
297.0
 30
0.0
  9
$PLIMMIN
 10
0.0
 20
0.0
  9
$PLIMMAX
 10
420.0
 20
297.0
  9
$UNITMODE
 70
     0
  9
$VISRETAIN
 70
     0
  9
$PLINEGEN
 70
     0
  9
$PSLTSCALE
 70
     1
  9
$TREEDEPTH
 70
  3020
  9
$CMLSTYLE
  2
STANDARD
  9
$CMLJUST
 70
     0
  9
$CMLSCALE
 40
1.0
  9
$PROXYGRAPHICS
 70
     1
  9
$MEASUREMENT
 70
     1
  9
$CELWEIGHT
370
    -1
  9
$ENDCAPS
280
     0
  9
$JOINSTYLE
280
     0
  9
$LWDISPLAY
290
     0
  9
$INSUNITS
 70
     0
  9
$HYPERLINKBASE
  1

  9
$STYLESHEET
  1
print.ctb
  9
$XEDIT
290
     1
  9
$CEPSNTYPE
380
     0
  9
$PSTYLEMODE
290
     1
  9
$FINGERPRINTGUID
  2
{8D6CB018-5425-46D7-BA3D-129D74F567FA}
  9
$VERSIONGUID
  2
{8CAA39DE-4565-4070-9605-BE8D33D49057}
  9
$EXTNAMES
290
     1
  9
$PSVPSCALE
 40
0.0
  9
$OLESTARTUP
290
     0
  0
ENDSEC
  0
SECTION
  2
CLASSES
  0
CLASS
  1
ACDBDICTIONARYWDFLT
  2
AcDbDictionaryWithDefault
  3
AutoCAD 2000
 90
        0
280
     0
281
     0
  0
CLASS
  1
ACDBPLACEHOLDER
  2
AcDbPlaceHolder
  3
AutoCAD 2000
 90
        0
280
     0
281
     0
  0
CLASS
  1
LAYOUT
  2
AcDbLayout
  3
AutoCAD 2000
 90
        0
280
     0
281
     0
  0
CLASS
  1
LONG_TRANSACTION
  2
AcDbLongTransaction
  3
AutoCAD 2000
 90
    32768
280
     0
281
     0
  0
CLASS
  1
LWPOLYLINE
  2
AcDbPolyline
  3
AutoCAD 2000
 90
    32768
280
     0
281
     1
  0
CLASS
  1
HATCH
  2
AcDbHatch
  3
AutoCAD 2000
 90
    32768
280
     0
281
     1
  0
CLASS
  1
XRECORD
  2
AcDbXrecord
  3
AutoCAD 2000
 90
    32768
280
     0
281
     0
  0
CLASS
  1
LONG_TRANSACTION
  2
AcDbLongTransaction
  3
AutoCAD 2000
 90
    32768
280
     0
281
     0
  0
CLASS
  1
LWPOLYLINE
  2
AcDbPolyline
  3
AutoCAD 2000
 90
    32768
280
     0
281
     1
  0
CLASS
  1
HATCH
  2
AcDbHatch
  3
AutoCAD 2000
 90
    32768
280
     0
281
     1
  0
CLASS
  1
XRECORD
  2
AcDbXrecord
  3
AutoCAD 2000
 90
    32768
280
     0
281
     0
  0
CLASS
  1
LONG_TRANSACTION
  2
AcDbLongTransaction
  3
AutoCAD 2000
 90
    32768
280
     0
281
     0
  0
CLASS
  1
LWPOLYLINE
  2
AcDbPolyline
  3
AutoCAD 2000
 90
    32768
280
     0
281
     1
  0
CLASS
  1
HATCH
  2
AcDbHatch
  3
AutoCAD 2000
 90
    32768
280
     0
281
     1
  0
CLASS
  1
XRECORD
  2
AcDbXrecord
  3
AutoCAD 2000
 90
    32768
280
     0
281
     0
  0
CLASS
  1
LONG_TRANSACTION
  2
AcDbLongTransaction
  3
AutoCAD 2000
 90
    32768
280
     0
281
     0
  0
CLASS
  1
LWPOLYLINE
  2
AcDbPolyline
  3
AutoCAD 2000
 90
    32768
280
     0
281
     1
  0
CLASS
  1
HATCH
  2
AcDbHatch
  3
AutoCAD 2000
 90
    32768
280
     0
281
     1
  0
CLASS
  1
XRECORD
  2
AcDbXrecord
  3
AutoCAD 2000
 90
    32768
280
     0
281
     0
  0
CLASS
  1
DICTIONARYVAR
  2
AcDbDictionaryVar
  3
AutoCAD 2000
 90
        0
280
     0
281
     0
  0
CLASS
  1
LONG_TRANSACTION
  2
AcDbLongTransaction
  3
AutoCAD 2000
 90
    32768
280
     0
281
     0
  0
CLASS
  1
LWPOLYLINE
  2
AcDbPolyline
  3
AutoCAD 2000
 90
    32768
280
     0
281
     1
  0
CLASS
  1
HATCH
  2
AcDbHatch
  3
AutoCAD 2000
 90
    32768
280
     0
281
     1
  0
CLASS
  1
XRECORD
  2
AcDbXrecord
  3
AutoCAD 2000
 90
    32768
280
     0
281
     0
  0
CLASS
  1
LONG_TRANSACTION
  2
AcDbLongTransaction
  3
AutoCAD 2000
 90
    32768
280
     0
281
     0
  0
CLASS
  1
LWPOLYLINE
  2
AcDbPolyline
  3
AutoCAD 2000
 90
    32768
280
     0
281
     1
  0
CLASS
  1
HATCH
  2
AcDbHatch
  3
AutoCAD 2000
 90
    32768
280
     0
281
     1
  0
CLASS
  1
XRECORD
  2
AcDbXrecord
  3
AutoCAD 2000
 90
    32768
280
     0
281
     0
  0
CLASS
  1
LONG_TRANSACTION
  2
AcDbLongTransaction
  3
AutoCAD 2000
 90
    32768
280
     0
281
     0
  0
CLASS
  1
LWPOLYLINE
  2
AcDbPolyline
  3
AutoCAD 2000
 90
    32768
280
     0
281
     1
  0
CLASS
  1
HATCH
  2
AcDbHatch
  3
AutoCAD 2000
 90
    32768
280
     0
281
     1
  0
CLASS
  1
XRECORD
  2
AcDbXrecord
  3
AutoCAD 2000
 90
    32768
280
     0
281
     0
  0
CLASS
  1
LONG_TRANSACTION
  2
AcDbLongTransaction
  3
AutoCAD 2000
 90
    32768
280
     0
281
     0
  0
CLASS
  1
LWPOLYLINE
  2
AcDbPolyline
  3
AutoCAD 2000
 90
    32768
280
     0
281
     1
  0
CLASS
  1
HATCH
  2
AcDbHatch
  3
AutoCAD 2000
 90
    32768
280
     0
281
     1
  0
CLASS
  1
XRECORD
  2
AcDbXrecord
  3
AutoCAD 2000
 90
    32768
280
     0
281
     0
  0
CLASS
  1
LONG_TRANSACTION
  2
AcDbLongTransaction
  3
AutoCAD 2000
 90
    32768
280
     0
281
     0
  0
CLASS
  1
LWPOLYLINE
  2
AcDbPolyline
  3
AutoCAD 2000
 90
    32768
280
     0
281
     1
  0
CLASS
  1
HATCH
  2
AcDbHatch
  3
AutoCAD 2000
 90
    32768
280
     0
281
     1
  0
CLASS
  1
XRECORD
  2
AcDbXrecord
  3
AutoCAD 2000
 90
    32768
280
     0
281
     0
  0
CLASS
  1
LONG_TRANSACTION
  2
AcDbLongTransaction
  3
AutoCAD 2000
 90
    32768
280
     0
281
     0
  0
CLASS
  1
LWPOLYLINE
  2
AcDbPolyline
  3
AutoCAD 2000
 90
    32768
280
     0
281
     1
  0
CLASS
  1
HATCH
  2
AcDbHatch
  3
AutoCAD 2000
 90
    32768
280
     0
281
     1
  0
CLASS
  1
XRECORD
  2
AcDbXrecord
  3
AutoCAD 2000
 90
    32768
280
     0
281
     0
  0
CLASS
  1
LONG_TRANSACTION
  2
AcDbLongTransaction
  3
AutoCAD 2000
 90
    32768
280
     0
281
     0
  0
CLASS
  1
LWPOLYLINE
  2
AcDbPolyline
  3
AutoCAD 2000
 90
    32768
280
     0
281
     1
  0
CLASS
  1
HATCH
  2
AcDbHatch
  3
AutoCAD 2000
 90
    32768
280
     0
281
     1
  0
CLASS
  1
XRECORD
  2
AcDbXrecord
  3
AutoCAD 2000
 90
    32768
280
     0
281
     0
  0
CLASS
  1
LONG_TRANSACTION
  2
AcDbLongTransaction
  3
AutoCAD 2000
 90
    32768
280
     0
281
     0
  0
CLASS
  1
LWPOLYLINE
  2
AcDbPolyline
  3
AutoCAD 2000
 90
    32768
280
     0
281
     1
  0
CLASS
  1
HATCH
  2
AcDbHatch
  3
AutoCAD 2000
 90
    32768
280
     0
281
     1
  0
CLASS
  1
XRECORD
  2
AcDbXrecord
  3
AutoCAD 2000
 90
    32768
280
     0
281
     0
  0
CLASS
  1
LONG_TRANSACTION
  2
AcDbLongTransaction
  3
AutoCAD 2000
 90
    32768
280
     0
281
     0
  0
CLASS
  1
LWPOLYLINE
  2
AcDbPolyline
  3
AutoCAD 2000
 90
    32768
280
     0
281
     1
  0
CLASS
  1
HATCH
  2
AcDbHatch
  3
AutoCAD 2000
 90
    32768
280
     0
281
     1
  0
CLASS
  1
XRECORD
  2
AcDbXrecord
  3
AutoCAD 2000
 90
    32768
280
     0
281
     0
  0
CLASS
  1
LONG_TRANSACTION
  2
AcDbLongTransaction
  3
AutoCAD 2000
 90
    32768
280
     0
281
     0
  0
CLASS
  1
LWPOLYLINE
  2
AcDbPolyline
  3
AutoCAD 2000
 90
    32768
280
     0
281
     1
  0
CLASS
  1
HATCH
  2
AcDbHatch
  3
AutoCAD 2000
 90
    32768
280
     0
281
     1
  0
CLASS
  1
XRECORD
  2
AcDbXrecord
  3
AutoCAD 2000
 90
    32768
280
     0
281
     0
  0
CLASS
  1
LONG_TRANSACTION
  2
AcDbLongTransaction
  3
AutoCAD 2000
 90
    32768
280
     0
281
     0
  0
CLASS
  1
LWPOLYLINE
  2
AcDbPolyline
  3
AutoCAD 2000
 90
    32768
280
     0
281
     1
  0
CLASS
  1
HATCH
  2
AcDbHatch
  3
AutoCAD 2000
 90
    32768
280
     0
281
     1
  0
CLASS
  1
XRECORD
  2
AcDbXrecord
  3
AutoCAD 2000
 90
    32768
280
     0
281
     0
  0
CLASS
  1
LONG_TRANSACTION
  2
AcDbLongTransaction
  3
AutoCAD 2000
 90
    32768
280
     0
281
     0
  0
CLASS
  1
LWPOLYLINE
  2
AcDbPolyline
  3
AutoCAD 2000
 90
    32768
280
     0
281
     1
  0
CLASS
  1
HATCH
  2
AcDbHatch
  3
AutoCAD 2000
 90
    32768
280
     0
281
     1
  0
CLASS
  1
XRECORD
  2
AcDbXrecord
  3
AutoCAD 2000
 90
    32768
280
     0
281
     0
  0
ENDSEC
  0
SECTION
  2
TABLES
  0
TABLE
  2
VPORT
  5
8
330
0
100
AcDbSymbolTable
 70
     2
  0
VPORT
  5
9797
330
8
100
AcDbSymbolTableRecord
100
AcDbViewportTableRecord
  2
*Active
 70
     0
 10
0.0
 20
0.0
 11
1.0
 21
1.0
 12
426.4892743403094
 22
297.0
 13
0.0
 23
0.0
 14
5.0
 24
5.0
 15
0.0
 25
0.0
 16
0.0
 26
0.0
 36
1.0
 17
0.0
 27
0.0
 37
0.0
 40
598.540127388535
 41
1.557397959183673
 42
50.0
 43
0.0
 44
0.0
 50
0.0
 51
0.0
 71
     0
 72
   100
 73
     1
 74
     0
 75
     0
 76
     0
 77
     0
 78
     0
281
     0
 65
     1
110
0.0
120
0.0
130
0.0
111
1.0
121
0.0
131
0.0
112
0.0
122
1.0
132
0.0
 79
     0
146
0.0
  0
ENDTAB
  0
TABLE
  2
LTYPE
  5
5
330
0
100
AcDbSymbolTable
 70
     4
  0
LTYPE
  5
14
330
5
100
AcDbSymbolTableRecord
100
AcDbLinetypeTableRecord
  2
BYBLOCK
 70
     0
  3

 72
    65
 73
     0
 40
0.0
  0
LTYPE
  5
15
330
5
100
AcDbSymbolTableRecord
100
AcDbLinetypeTableRecord
  2
BYLAYER
 70
     0
  3

 72
    65
 73
     0
 40
0.0
  0
LTYPE
  5
16
330
5
100
AcDbSymbolTableRecord
100
AcDbLinetypeTableRecord
  2
CONTINUOUS
 70
     0
  3
Solid line
 72
    65
 73
     0
 40
0.0
  0
LTYPE
  5
135
330
5
100
AcDbSymbolTableRecord
100
AcDbLinetypeTableRecord
  2
CENTER
 70
     0
  3
____ _ ____ _ ____ _ ____ _ ____ _ ____ _ ____ 
 72
    65
 73
     4
 40
2.0
 49
1.25
 74
     0
 49
-0.25
 74
     0
 49
0.25
 74
     0
 49
-0.25
 74
     0
  0
LTYPE
  5
1527
330
5
100
AcDbSymbolTableRecord
100
AcDbLinetypeTableRecord
  2
SLDSECTION0
 70
     0
  3

 72
    65
 73
     4
 40
10.16
 49
6.349999999999999
 74
     0
 49
-1.27
 74
     0
 49
1.27
 74
     0
 49
-1.27
 74
     0
  0
LTYPE
  5
845F
330
5
100
AcDbSymbolTableRecord
100
AcDbLinetypeTableRecord
  2
PHANTOM
 70
     0
  3
______  __  __  ______  __  __  ______  __  __ 
 72
    65
 73
     6
 40
2.5
 49
1.25
 74
     0
 49
-0.25
 74
     0
 49
0.25
 74
     0
 49
-0.25
 74
     0
 49
0.25
 74
     0
 49
-0.25
 74
     0
  0
ENDTAB
  0
TABLE
  2
LAYER
  5
2
330
0
100
AcDbSymbolTable
 70
     9
  0
LAYER
  5
F
330
2
100
AcDbSymbolTableRecord
100
AcDbLayerTableRecord
  2
0
 70
     0
 62
     7
  6
CONTINUOUS
370
    -3
390
33F
  0
LAYER
  5
62
330
2
100
AcDbSymbolTableRecord
100
AcDbLayerTableRecord
  2
VIEWPORT
 70
     0
 62
     7
  6
CONTINUOUS
370
    -3
390
33F
  0
LAYER
  5
65
330
2
100
AcDbSymbolTableRecord
100
AcDbLayerTableRecord
  2
ZUWAKU
 70
     0
 62
     7
  6
CONTINUOUS
370
    -3
390
33F
  0
LAYER
  5
153
330
2
100
AcDbSymbolTableRecord
100
AcDbLayerTableRecord
  2
SEIHIN
 70
     0
 62
     3
  6
CONTINUOUS
370
    -3
390
33F
  0
LAYER
  5
154
330
2
100
AcDbSymbolTableRecord
100
AcDbLayerTableRecord
  2
SUNPOU
 70
     0
 62
     4
  6
CONTINUOUS
370
    -3
390
33F
  0
LAYER
  5
155
330
2
100
AcDbSymbolTableRecord
100
AcDbLayerTableRecord
  2
CENTER L
 70
     0
 62
     1
  6
CENTER
370
    -3
390
33F
  0
LAYER
  5
24D
330
2
100
AcDbSymbolTableRecord
100
AcDbLayerTableRecord
  2
DEFPOINTS
 70
     0
 62
     7
  6
CONTINUOUS
290
     0
370
    -3
390
33F
  0
LAYER
  5
59A
330
2
100
AcDbSymbolTableRecord
100
AcDbLayerTableRecord
  2
moji
 70
     0
 62
     2
  6
CONTINUOUS
370
    -3
390
33F
  0
LAYER
  5
1528
330
2
100
AcDbSymbolTableRecord
100
AcDbLayerTableRecord
  2
NOKITOI
 70
     0
 62
     9
  6
SLDSECTION0
370
    -3
390
33F
  0
ENDTAB
  0
TABLE
  2
STYLE
  5
3
330
0
100
AcDbSymbolTable
 70
     2
  0
STYLE
  5
10
330
3
100
AcDbSymbolTableRecord
100
AcDbTextStyleTableRecord
  2
STANDARD
 70
     0
 40
0.0
 41
1.0
 50
0.0
 71
     0
 42
5.0
  3
TXT
  4
bigfont.shx
  0
STYLE
  5
59B
330
3
100
AcDbSymbolTableRecord
100
AcDbTextStyleTableRecord
  2
ｽﾀｲﾙ1
 70
     0
 40
0.0
 41
1.0
 50
0.0
 71
     0
 42
2.5
  3
MS PGothic.ttf
  4

1001
ACAD
1000
MS PGothic
1071
    32818
  0
ENDTAB
  0
TABLE
  2
VIEW
  5
6
330
0
100
AcDbSymbolTable
 70
     0
  0
ENDTAB
  0
TABLE
  2
UCS
  5
7
330
0
100
AcDbSymbolTable
 70
     0
  0
ENDTAB
  0
TABLE
  2
APPID
  5
9
330
0
100
AcDbSymbolTable
 70
     1
  0
APPID
  5
11
330
9
100
AcDbSymbolTableRecord
100
AcDbRegAppTableRecord
  2
ACAD
 70
     0
  0
ENDTAB
  0
TABLE
  2
DIMSTYLE
  5
A
330
0
100
AcDbSymbolTable
 70
     1
100
AcDbDimStyleTable
 71
     0
  0
DIMSTYLE
105
1D
102
{ACAD_REACTORS
330
9153
330
915C
330
915E
330
915F
330
9162
330
9163
330
917A
330
917B
330
919F
330
91D2
330
91EB
330
91EC
330
91ED
330
9207
330
9209
330
9217
330
9598
102
}
330
A
100
AcDbSymbolTableRecord
100
AcDbDimStyleTableRecord
  2
STANDARD
 70
     0
340
10
  0
ENDTAB
  0
TABLE
  2
BLOCK_RECORD
  5
1
330
0
100
AcDbSymbolTable
 70
    19
  0
BLOCK_RECORD
  5
1A
102
{ACAD_XDICTIONARY
360
385
102
}
330
1
100
AcDbSymbolTableRecord
100
AcDbBlockTableRecord
  2
*MODEL_SPACE
340
342
  0
BLOCK_RECORD
  5
17
102
{ACAD_XDICTIONARY
360
383
102
}
330
1
100
AcDbSymbolTableRecord
100
AcDbBlockTableRecord
  2
*PAPER_SPACE
340
343
  0
BLOCK_RECORD
  5
6D
330
1
100
AcDbSymbolTableRecord
100
AcDbBlockTableRecord
  2
_OPEN
340
0
102
{BLKREFS
331
95CA
331
95CB
331
95C1
331
95C2
331
95EE
331
95EF
331
95E5
331
95E6
331
95DC
331
95DD
331
95D3
331
95D4
331
9784
331
9785
331
9601
331
9602
331
960A
331
960B
331
9613
331
9614
331
9630
331
9631
331
978C
331
978D
331
9627
331
9628
331
964A
331
964B
331
9641
331
9642
331
961E
331
961F
331
96CD
331
96CE
102
}
  0
BLOCK_RECORD
  5
3A4
330
1
100
AcDbSymbolTableRecord
100
AcDbBlockTableRecord
  2
*X1
340
0
102
{BLKREFS
331
6D8
102
}
  0
BLOCK_RECORD
  5
921C
330
1
100
AcDbSymbolTableRecord
100
AcDbBlockTableRecord
  2
*D2
340
0
  0
BLOCK_RECORD
  5
9228
330
1
100
AcDbSymbolTableRecord
100
AcDbBlockTableRecord
  2
*D3
340
0
  0
BLOCK_RECORD
  5
9234
330
1
100
AcDbSymbolTableRecord
100
AcDbBlockTableRecord
  2
*D4
340
0
  0
BLOCK_RECORD
  5
9240
330
1
100
AcDbSymbolTableRecord
100
AcDbBlockTableRecord
  2
*D5
340
0
  0
BLOCK_RECORD
  5
924C
330
1
100
AcDbSymbolTableRecord
100
AcDbBlockTableRecord
  2
*D6
340
0
  0
BLOCK_RECORD
  5
9258
330
1
100
AcDbSymbolTableRecord
100
AcDbBlockTableRecord
  2
*D7
340
0
  0
BLOCK_RECORD
  5
9264
330
1
100
AcDbSymbolTableRecord
100
AcDbBlockTableRecord
  2
*D8
340
0
  0
BLOCK_RECORD
  5
926F
330
1
100
AcDbSymbolTableRecord
100
AcDbBlockTableRecord
  2
*D9
340
0
  0
BLOCK_RECORD
  5
927D
330
1
100
AcDbSymbolTableRecord
100
AcDbBlockTableRecord
  2
*D10
340
0
  0
BLOCK_RECORD
  5
9289
330
1
100
AcDbSymbolTableRecord
100
AcDbBlockTableRecord
  2
*D11
340
0
  0
BLOCK_RECORD
  5
9295
330
1
100
AcDbSymbolTableRecord
100
AcDbBlockTableRecord
  2
*D12
340
0
  0
BLOCK_RECORD
  5
92A1
330
1
100
AcDbSymbolTableRecord
100
AcDbBlockTableRecord
  2
*D13
340
0
  0
BLOCK_RECORD
  5
92AC
330
1
100
AcDbSymbolTableRecord
100
AcDbBlockTableRecord
  2
*D14
340
0
  0
BLOCK_RECORD
  5
92B8
330
1
100
AcDbSymbolTableRecord
100
AcDbBlockTableRecord
  2
*D15
340
0
  0
BLOCK_RECORD
  5
92C4
330
1
100
AcDbSymbolTableRecord
100
AcDbBlockTableRecord
  2
*D16
340
0
  0
BLOCK_RECORD
  5
92D0
330
1
100
AcDbSymbolTableRecord
100
AcDbBlockTableRecord
  2
*D17
340
0
  0
BLOCK_RECORD
  5
95A9
330
1
100
AcDbSymbolTableRecord
100
AcDbBlockTableRecord
  2
*D18
340
0
  0
ENDTAB
  0
ENDSEC
  0
SECTION
  2
BLOCKS
  0
BLOCK
  5
1B
330
1A
100
AcDbEntity
  8
0
100
AcDbBlockBegin
  2
*MODEL_SPACE
 70
     0
 10
0.0
 20
0.0
 30
0.0
  3
*MODEL_SPACE
  1

  0
ENDBLK
  5
1C
330
1A
100
AcDbEntity
  8
0
100
AcDbBlockEnd
  0
BLOCK
  5
18
330
17
100
AcDbEntity
 67
     1
  8
0
100
AcDbBlockBegin
  2
*PAPER_SPACE
 70
     0
 10
0.0
 20
0.0
 30
0.0
  3
*PAPER_SPACE
  1

  0
ENDBLK
  5
19
330
17
100
AcDbEntity
 67
     1
  8
0
100
AcDbBlockEnd
  0
BLOCK
  5
6E
330
6D
100
AcDbEntity
  8
0
100
AcDbBlockBegin
  2
_OPEN
 70
     0
 10
0.0
 20
0.0
 30
0.0
  3
_OPEN
  1

  0
LINE
  5
6F
330
6D
100
AcDbEntity
  8
0
  6
ByBlock
 62
     0
100
AcDbLine
 10
-1.0
 20
0.1666666666666666
 30
0.0
 11
0.0
 21
0.0
 31
0.0
  0
LINE
  5
70
330
6D
100
AcDbEntity
  8
0
  6
ByBlock
 62
     0
100
AcDbLine
 10
0.0
 20
0.0
 30
0.0
 11
-1.0
 21
-0.1666666666666666
 31
0.0
  0
LINE
  5
71
330
6D
100
AcDbEntity
  8
0
  6
ByBlock
 62
     0
100
AcDbLine
 10
0.0
 20
0.0
 30
0.0
 11
-1.0
 21
0.0
 31
0.0
  0
ENDBLK
  5
72
330
6D
100
AcDbEntity
  8
0
100
AcDbBlockEnd
  0
BLOCK
  5
538
330
3A4
100
AcDbEntity
  8
0
100
AcDbBlockBegin
  2
*X1
 70
     1
 10
0.0
 20
0.0
 30
0.0
  3
*X1
  1

  0
LINE
  5
3A5
330
3A4
100
AcDbEntity
  8
0
 62
     0
100
AcDbLine
 10
66.75047808566091
 20
28.71175535310772
 30
0.0
 11
66.10464715594599
 21
29.35758628282269
 31
0.0
  0
LINE
  5
3A6
330
3A4
100
AcDbEntity
  8
0
 62
     0
100
AcDbLine
 10
66.75047808566091
 20
27.81372974100082
 30
0.0
 11
65.20662154383905
 21
29.35758628282269
 31
0.0
  0
LINE
  5
3A7
330
3A4
100
AcDbEntity
  8
0
 62
     0
100
AcDbLine
 10
66.75047808566086
 20
26.91570412889388
 30
0.0
 11
64.32934413964591
 21
29.33683807490882
 31
0.0
  0
LINE
  5
3A8
330
3A4
100
AcDbEntity
  8
0
 62
     0
100
AcDbLine
 10
66.75047808566091
 20
26.01767851678704
 30
0.0
 11
63.95047808566085
 21
28.81767851678705
 31
0.0
  0
LINE
  5
3A9
330
3A4
100
AcDbEntity
  8
0
 62
     0
100
AcDbLine
 10
66.75047808566091
 20
25.11965290468009
 30
0.0
 11
63.95047808566085
 21
27.91965290468016
 31
0.0
  0
LINE
  5
3AA
330
3A4
100
AcDbEntity
  8
0
 62
     0
100
AcDbLine
 10
66.75047808566086
 20
24.22162729257314
 30
0.0
 11
63.95047808566079
 21
27.02162729257321
 31
0.0
  0
LINE
  5
3AB
330
3A4
100
AcDbEntity
  8
0
 62
     0
100
AcDbLine
 10
61.85047808566082
 20
28.22360168046634
 30
0.0
 11
60.71649348330453
 21
29.35758628282269
 31
0.0
  0
LINE
  5
3AC
330
3A4
100
AcDbEntity
  8
0
 62
     0
100
AcDbLine
 10
66.75047808566091
 20
23.32360168046631
 30
0.0
 11
63.95047808566085
 21
26.12360168046638
 31
0.0
  0
LINE
  5
3AD
330
3A4
100
AcDbEntity
  8
0
 62
     0
100
AcDbLine
 10
61.85047808566082
 20
27.32557606835945
 30
0.0
 11
59.81846787119758
 21
29.35758628282263
 31
0.0
  0
LINE
  5
3AE
330
3A4
100
AcDbEntity
  8
0
 62
     0
100
AcDbLine
 10
66.75047808566086
 20
22.42557606835936
 30
0.0
 11
63.95047808566085
 21
25.22557606835943
 31
0.0
  0
LINE
  5
3AF
330
3A4
100
AcDbEntity
  8
0
 62
     0
100
AcDbLine
 10
61.85047808566082
 20
26.4275504562525
 30
0.0
 11
59.14496712052375
 21
29.13306142138958
 31
0.0
  0
LINE
  5
3B0
330
3A4
100
AcDbEntity
  8
0
 62
     0
100
AcDbLine
 10
66.75047808566086
 20
21.52755045625247
 30
0.0
 11
63.95047808566079
 21
24.32755045625248
 31
0.0
  0
LINE
  5
3B1
330
3A4
100
AcDbEntity
  8
0
 62
     0
100
AcDbLine
 10
61.85047808566094
 20
25.5295248441455
 30
0.0
 11
59.05047808566076
 21
28.32952484414562
 31
0.0
  0
LINE
  5
3B2
330
3A4
100
AcDbEntity
  8
0
 62
     0
100
AcDbLine
 10
66.75047808566091
 20
20.62952484414552
 30
0.0
 11
63.95047808566085
 21
23.42952484414559
 31
0.0
  0
LINE
  5
3B3
330
3A4
100
AcDbEntity
  8
0
 62
     0
100
AcDbLine
 10
61.85047808566088
 20
24.6314992320386
 30
0.0
 11
59.05047808566076
 21
27.43149923203878
 31
0.0
  0
LINE
  5
3B4
330
3A4
100
AcDbEntity
  8
0
 62
     0
100
AcDbLine
 10
66.75047808566086
 20
19.73149923203862
 30
0.0
 11
63.95047808566079
 21
22.53149923203869
 31
0.0
  0
LINE
  5
3B5
330
3A4
100
AcDbEntity
  8
0
 62
     0
100
AcDbLine
 10
61.85047808566088
 20
23.73347361993171
 30
0.0
 11
59.05047808566076
 21
26.53347361993183
 31
0.0
  0
LINE
  5
3B6
330
3A4
100
AcDbEntity
  8
0
 62
     0
100
AcDbLine
 10
66.75047808566086
 20
18.83347361993173
 30
0.0
 11
63.95047808566079
 21
21.6334736199318
 31
0.0
  0
LINE
  5
3B7
330
3A4
100
AcDbEntity
  8
0
 62
     0
100
AcDbLine
 10
61.85047808566082
 20
22.83544800782476
 30
0.0
 11
59.0504780856607
 21
25.63544800782489
 31
0.0
  0
LINE
  5
3B8
330
3A4
100
AcDbEntity
  8
0
 62
     0
100
AcDbLine
 10
66.7504780856608
 20
17.93544800782479
 30
0.0
 11
63.95047808566079
 21
20.73544800782485
 31
0.0
  0
LINE
  5
3B9
330
3A4
100
AcDbEntity
  8
0
 62
     0
100
AcDbLine
 10
61.85047808566088
 20
21.93742239571793
 30
0.0
 11
59.05047808566076
 21
24.73742239571805
 31
0.0
  0
LINE
  5
3BA
330
3A4
100
AcDbEntity
  8
0
 62
     0
100
AcDbLine
 10
55.55047808566081
 20
28.23742239571799
 30
0.0
 11
54.43031419855618
 21
29.35758628282263
 31
0.0
  0
LINE
  5
3BB
330
3A4
100
AcDbEntity
  8
0
 62
     0
100
AcDbLine
 10
66.75047808566086
 20
17.03742239571795
 30
0.0
 11
63.95047808566079
 21
19.83742239571796
 31
0.0
  0
LINE
  5
3BC
330
3A4
100
AcDbEntity
  8
0
 62
     0
100
AcDbLine
 10
61.85047808566088
 20
21.03939678361098
 30
0.0
 11
59.0504780856607
 21
23.8393967836111
 31
0.0
  0
LINE
  5
3BD
330
3A4
100
AcDbEntity
  8
0
 62
     0
100
AcDbLine
 10
55.55047808566076
 20
27.33939678361105
 30
0.0
 11
53.53228858644922
 21
29.35758628282263
 31
0.0
  0
LINE
  5
3BE
330
3A4
100
AcDbEntity
  8
0
 62
     0
100
AcDbLine
 10
66.75047808566086
 20
16.139396783611
 30
0.0
 11
63.95047808566079
 21
18.93939678361107
 31
0.0
  0
LINE
  5
3BF
330
3A4
100
AcDbEntity
  8
0
 62
     0
100
AcDbLine
 10
61.85047808566082
 20
20.14137117150409
 30
0.0
 11
59.05047808566076
 21
22.9413711715041
 31
0.0
  0
LINE
  5
3C0
330
3A4
100
AcDbEntity
  8
0
 62
     0
100
AcDbLine
 10
55.55047808566076
 20
26.44137117150416
 30
0.0
 11
52.85071536233676
 21
29.14113389482816
 31
0.0
  0
LINE
  5
3C1
330
3A4
100
AcDbEntity
  8
0
 62
     0
100
AcDbLine
 10
66.7504780856608
 20
15.24137117150411
 30
0.0
 11
63.95047808566073
 21
18.04137117150412
 31
0.0
  0
LINE
  5
3C2
330
3A4
100
AcDbEntity
  8
0
 62
     0
100
AcDbLine
 10
61.85047808566088
 20
19.24334555939714
 30
0.0
 11
59.05047808566081
 21
22.04334555939721
 31
0.0
  0
LINE
  5
3C3
330
3A4
100
AcDbEntity
  8
0
 62
     0
100
AcDbLine
 10
55.55047808566081
 20
25.54334555939721
 30
0.0
 11
52.7504780856608
 21
28.34334555939722
 31
0.0
  0
LINE
  5
3C4
330
3A4
100
AcDbEntity
  8
0
 62
     0
100
AcDbLine
 10
66.75047808566086
 20
14.34334555939716
 30
0.0
 11
63.95047808566079
 21
17.14334555939723
 31
0.0
  0
LINE
  5
3C5
330
3A4
100
AcDbEntity
  8
0
 62
     0
100
AcDbLine
 10
61.85047808566082
 20
18.34531994729024
 30
0.0
 11
59.05047808566081
 21
21.14531994729031
 31
0.0
  0
LINE
  5
3C6
330
3A4
100
AcDbEntity
  8
0
 62
     0
100
AcDbLine
 10
55.55047808566087
 20
24.64531994729026
 30
0.0
 11
52.7504780856608
 21
27.44531994729033
 31
0.0
  0
LINE
  5
3C7
330
3A4
100
AcDbEntity
  8
0
 62
     0
100
AcDbLine
 10
66.67851273077104
 20
13.51728530218008
 30
0.0
 11
63.95047808566079
 21
16.24531994729034
 31
0.0
  0
LINE
  5
3C8
330
3A4
100
AcDbEntity
  8
0
 62
     0
100
AcDbLine
 10
61.85047808566088
 20
17.44729433518324
 30
0.0
 11
59.05047808566076
 21
20.24729433518337
 31
0.0
  0
LINE
  5
3C9
330
3A4
100
AcDbEntity
  8
0
 62
     0
100
AcDbLine
 10
55.55047808566081
 20
23.74729433518337
 30
0.0
 11
52.75047808566075
 21
26.54729433518338
 31
0.0
  0
LINE
  5
3CA
330
3A4
100
AcDbEntity
  8
0
 62
     0
100
AcDbLine
 10
66.04018613802157
 20
13.25758628282261
 30
0.0
 11
63.95047808566073
 21
15.34729433518345
 31
0.0
  0
LINE
  5
3CB
330
3A4
100
AcDbEntity
  8
0
 62
     0
100
AcDbLine
 10
55.55047808566081
 20
22.84926872307642
 30
0.0
 11
52.75047808566075
 21
25.64926872307649
 31
0.0
  0
LINE
  5
3CC
330
3A4
100
AcDbEntity
  8
0
 62
     0
100
AcDbLine
 10
61.85047808566088
 20
16.54926872307635
 30
0.0
 11
59.05047808566076
 21
19.34926872307647
 31
0.0
  0
LINE
  5
3CD
330
3A4
100
AcDbEntity
  8
0
 62
     0
100
AcDbLine
 10
50.1254780856608
 20
28.27426872307643
 30
0.0
 11
49.04216052591465
 21
29.35758628282252
 31
0.0
  0
LINE
  5
3CE
330
3A4
100
AcDbEntity
  8
0
 62
     0
100
AcDbLine
 10
65.14216052591468
 20
13.2575862828225
 30
0.0
 11
63.95047808566073
 21
14.4492687230765
 31
0.0
  0
LINE
  5
3CF
330
3A4
100
AcDbEntity
  8
0
 62
     0
100
AcDbLine
 10
55.55047808566081
 20
21.95124311096952
 30
0.0
 11
52.75047808566085
 21
24.75124311096954
 31
0.0
  0
LINE
  5
3D0
330
3A4
100
AcDbEntity
  8
0
 62
     0
100
AcDbLine
 10
50.1254780856608
 20
27.37624311096954
 30
0.0
 11
48.14413491380782
 21
29.35758628282258
 31
0.0
  0
LINE
  5
3D1
330
3A4
100
AcDbEntity
  8
0
 62
     0
100
AcDbLine
 10
61.82451978501529
 20
15.6772014116151
 30
0.0
 11
59.05047808566076
 21
18.45124311096958
 31
0.0
  0
LINE
  5
3D2
330
3A4
100
AcDbEntity
  8
0
 62
     0
100
AcDbLine
 10
55.55047808566081
 20
21.05321749886263
 30
0.0
 11
52.75047808566085
 21
23.85321749886259
 31
0.0
  0
LINE
  5
3D3
330
3A4
100
AcDbEntity
  8
0
 62
     0
100
AcDbLine
 10
49.92989753954697
 20
26.67379804497647
 30
0.0
 11
47.24610930170081
 21
29.35758628282263
 31
0.0
  0
LINE
  5
3D4
330
3A4
100
AcDbEntity
  8
0
 62
     0
100
AcDbLine
 10
61.63153448975805
 20
14.97216109476534
 30
0.0
 11
59.05047808566076
 21
17.55321749886269
 31
0.0
  0
LINE
  5
3D5
330
3A4
100
AcDbEntity
  8
0
 62
     0
100
AcDbLine
 10
55.55047808566081
 20
20.15519188675568
 30
0.0
 11
52.7504780856608
 21
22.95519188675569
 31
0.0
  0
LINE
  5
3D6
330
3A4
100
AcDbEntity
  8
0
 62
     0
100
AcDbLine
 10
49.14808368959382
 20
26.55758628282262
 30
0.0
 11
46.34808368959392
 21
29.35758628282252
 31
0.0
  0
LINE
  5
3D7
330
3A4
100
AcDbEntity
  8
0
 62
     0
100
AcDbLine
 10
61.30650261383448
 20
14.39916735858196
 30
0.0
 11
58.97896234650125
 21
16.72670762591525
 31
0.0
  0
LINE
  5
3D8
330
3A4
100
AcDbEntity
  8
0
 62
     0
100
AcDbLine
 10
55.55047808566081
 20
19.25716627464885
 30
0.0
 11
52.75047808566085
 21
22.0571662746488
 31
0.0
  0
LINE
  5
3D9
330
3A4
100
AcDbEntity
  8
0
 62
     0
100
AcDbLine
 10
48.25005807748704
 20
26.55758628282256
 30
0.0
 11
45.5124913483096
 21
29.29515301200007
 31
0.0
  0
LINE
  5
3DA
330
3A4
100
AcDbEntity
  8
0
 62
     0
100
AcDbLine
 10
60.87446081650944
 20
13.93318354380016
 30
0.0
 11
58.57737670803373
 21
16.23026765227587
 31
0.0
  0
LINE
  5
3DB
330
3A4
100
AcDbEntity
  8
0
 62
     0
100
AcDbLine
 10
55.55047808566081
 20
18.3591406625419
 30
0.0
 11
52.7504780856608
 21
21.15914066254185
 31
0.0
  0
LINE
  5
3DC
330
3A4
100
AcDbEntity
  8
0
 62
     0
100
AcDbLine
 10
47.35203246538015
 20
26.55758628282256
 30
0.0
 11
44.8478509237762
 21
29.06176782442645
 31
0.0
  0
LINE
  5
3DD
330
3A4
100
AcDbEntity
  8
0
 62
     0
100
AcDbLine
 10
60.33829847158341
 20
13.5713202766193
 30
0.0
 11
57.85203246538014
 21
16.05758628282257
 31
0.0
  0
LINE
  5
3DE
330
3A4
100
AcDbEntity
  8
0
 62
     0
100
AcDbLine
 10
55.55047808566076
 20
17.46111505043495
 30
0.0
 11
52.7504780856608
 21
20.26111505043496
 31
0.0
  0
LINE
  5
3DF
330
3A4
100
AcDbEntity
  8
0
 62
     0
100
AcDbLine
 10
46.47579668129123
 20
26.53579645480448
 30
0.0
 11
44.30524998656602
 21
28.70634314952969
 31
0.0
  0
LINE
  5
3E0
330
3A4
100
AcDbEntity
  8
0
 62
     0
100
AcDbLine
 10
59.68188591167211
 20
13.32970722442365
 30
0.0
 11
56.95400685327314
 21
16.05758628282262
 31
0.0
  0
LINE
  5
3E1
330
3A4
100
AcDbEntity
  8
0
 62
     0
100
AcDbLine
 10
46.10047808566088
 20
26.01308943832788
 30
0.0
 11
43.86713792752146
 21
28.24642959646729
 31
0.0
  0
LINE
  5
3E2
330
3A4
100
AcDbEntity
  8
0
 62
     0
100
AcDbLine
 10
58.85598124116626
 20
13.25758628282255
 30
0.0
 11
52.7504780856608
 21
19.36308943832801
 31
0.0
  0
LINE
  5
3E3
330
3A4
100
AcDbEntity
  8
0
 62
     0
100
AcDbLine
 10
46.10047808566088
 20
25.1150638262211
 30
0.0
 11
43.53536701516844
 21
27.68017489671354
 31
0.0
  0
LINE
  5
3E4
330
3A4
100
AcDbEntity
  8
0
 62
     0
100
AcDbLine
 10
57.95795562905937
 20
13.25758628282255
 30
0.0
 11
52.7504780856608
 21
18.46506382622118
 31
0.0
  0
LINE
  5
3E5
330
3A4
100
AcDbEntity
  8
0
 62
     0
100
AcDbLine
 10
46.30702236676467
 20
24.01049393301036
 30
0.0
 11
43.33318849580433
 21
26.98432780397064
 31
0.0
  0
LINE
  5
3E6
330
3A4
100
AcDbEntity
  8
0
 62
     0
100
AcDbLine
 10
57.05993001695247
 20
13.25758628282255
 30
0.0
 11
52.7504780856608
 21
17.56703821411423
 31
0.0
  0
LINE
  5
3E7
330
3A4
100
AcDbEntity
  8
0
 62
     0
100
AcDbLine
 10
50.52408178835225
 20
18.89540889931583
 30
0.0
 11
43.30047808566075
 21
26.11901260200733
 31
0.0
  0
LINE
  5
3E8
330
3A4
100
AcDbEntity
  8
0
 62
     0
100
AcDbLine
 10
41.20047808566073
 20
28.21901260200729
 30
0.0
 11
40.06190440484544
 21
29.35758628282263
 31
0.0
  0
LINE
  5
3E9
330
3A4
100
AcDbEntity
  8
0
 62
     0
100
AcDbLine
 10
56.16190440484553
 20
13.25758628282255
 30
0.0
 11
52.75047808566075
 21
16.66901260200728
 31
0.0
  0
LINE
  5
3EA
330
3A4
100
AcDbEntity
  8
0
 62
     0
100
AcDbLine
 10
50.65047808566089
 20
17.87098698990035
 30
0.0
 11
43.30047808566081
 21
25.22098698990044
 31
0.0
  0
LINE
  5
3EB
330
3A4
100
AcDbEntity
  8
0
 62
     0
100
AcDbLine
 10
41.20047808566084
 20
27.32098698990034
 30
0.0
 11
39.16387879273855
 21
29.35758628282269
 31
0.0
  0
LINE
  5
3EC
330
3A4
100
AcDbEntity
  8
0
 62
     0
100
AcDbLine
 10
55.24743091399376
 20
13.2740341615675
 30
0.0
 11
52.76692596440574
 21
15.7545391111555
 31
0.0
  0
LINE
  5
3ED
330
3A4
100
AcDbEntity
  8
0
 62
     0
100
AcDbLine
 10
41.20047808566084
 20
26.42296137779345
 30
0.0
 11
38.49308819788552
 21
29.13035126556872
 31
0.0
  0
LINE
  5
3EE
330
3A4
100
AcDbEntity
  8
0
 62
     0
100
AcDbLine
 10
50.65047808566084
 20
16.97296137779341
 30
0.0
 11
43.3238887535432
 21
24.2995507099111
 31
0.0
  0
LINE
  5
3EF
330
3A4
100
AcDbEntity
  8
0
 62
     0
100
AcDbLine
 10
41.20047808566084
 20
25.5249357656865
 30
0.0
 11
38.40047808566078
 21
28.32493576568657
 31
0.0
  0
LINE
  5
3F0
330
3A4
100
AcDbEntity
  8
0
 62
     0
100
AcDbLine
 10
50.65047808566072
 20
16.07493576568657
 30
0.0
 11
43.64200817138322
 21
23.08340567996413
 31
0.0
  0
LINE
  5
3F1
330
3A4
100
AcDbEntity
  8
0
 62
     0
100
AcDbLine
 10
41.20047808566084
 20
24.62691015357961
 30
0.0
 11
38.40047808566078
 21
27.42691015357962
 31
0.0
  0
LINE
  5
3F2
330
3A4
100
AcDbEntity
  8
0
 62
     0
100
AcDbLine
 10
50.54191626807176
 20
15.2854719711687
 30
0.0
 11
47.84628147903345
 21
17.98110676020701
 31
0.0
  0
LINE
  5
3F3
330
3A4
100
AcDbEntity
  8
0
 62
     0
100
AcDbLine
 10
41.20047808566084
 20
23.72888454147272
 30
0.0
 11
38.40047808566078
 21
26.52888454147279
 31
0.0
  0
LINE
  5
3F4
330
3A4
100
AcDbEntity
  8
0
 62
     0
100
AcDbLine
 10
36.10899118508382
 20
28.82037144204969
 30
0.0
 11
35.57177634431093
 21
29.35758628282263
 31
0.0
  0
LINE
  5
3F5
330
3A4
100
AcDbEntity
  8
0
 62
     0
100
AcDbLine
 10
50.2740405603102
 20
14.65532206682337
 30
0.0
 11
47.85047808566088
 21
17.07888454147268
 31
0.0
  0
LINE
  5
3F6
330
3A4
100
AcDbEntity
  8
0
 62
     0
100
AcDbLine
 10
41.20047808566079
 20
22.83085892936577
 30
0.0
 11
38.40047808566078
 21
25.63085892936584
 31
0.0
  0
LINE
  5
3F7
330
3A4
100
AcDbEntity
  8
0
 62
     0
100
AcDbLine
 10
35.91006352083121
 20
28.12127349419535
 30
0.0
 11
34.67375073220398
 21
29.35758628282263
 31
0.0
  0
LINE
  5
3F8
330
3A4
100
AcDbEntity
  8
0
 62
     0
100
AcDbLine
 10
49.8910537621349
 20
14.14028325289172
 30
0.0
 11
47.75319290277439
 21
16.27814411225222
 31
0.0
  0
LINE
  5
3F9
330
3A4
100
AcDbEntity
  8
0
 62
     0
100
AcDbLine
 10
41.20047808566079
 20
21.93283331725888
 30
0.0
 11
38.40047808566072
 21
24.73283331725889
 31
0.0
  0
LINE
  5
3FA
330
3A4
100
AcDbEntity
  8
0
 62
     0
100
AcDbLine
 10
35.69453737392553
 20
27.43877402899409
 30
0.0
 11
33.78532181045494
 21
29.34798959246473
 31
0.0
  0
LINE
  5
3FB
330
3A4
100
AcDbEntity
  8
0
 62
     0
100
AcDbLine
 10
49.40473479701927
 20
13.72857660590034
 30
0.0
 11
47.07572512009704
 21
16.05758628282262
 31
0.0
  0
LINE
  5
3FC
330
3A4
100
AcDbEntity
  8
0
 62
     0
100
AcDbLine
 10
41.20047808566084
 20
21.03480770515198
 30
0.0
 11
38.40047808566078
 21
23.83480770515205
 31
0.0
  0
LINE
  5
3FD
330
3A4
100
AcDbEntity
  8
0
 62
     0
100
AcDbLine
 10
35.47901122702
 20
26.75627456379283
 30
0.0
 11
33.35101122701996
 21
28.88427456379287
 31
0.0
  0
LINE
  5
3FE
330
3A4
100
AcDbEntity
  8
0
 62
     0
100
AcDbLine
 10
48.8086508485589
 20
13.42663494225388
 30
0.0
 11
46.17769950799015
 21
16.05758628282268
 31
0.0
  0
LINE
  5
3FF
330
3A4
100
AcDbEntity
  8
0
 62
     0
100
AcDbLine
 10
41.20047808566079
 20
20.13678209304509
 30
0.0
 11
38.40047808566072
 21
22.9367820930451
 31
0.0
  0
LINE
  5
400
330
3A4
100
AcDbEntity
  8
0
 62
     0
100
AcDbLine
 10
35.26348508011415
 20
26.07377509859174
 30
0.0
 11
33.13548508011416
 21
28.20177509859172
 31
0.0
  0
LINE
  5
401
330
3A4
100
AcDbEntity
  8
0
 62
     0
100
AcDbLine
 10
48.07097819691143
 20
13.26628198179446
 30
0.0
 11
45.27967389588326
 21
16.05758628282262
 31
0.0
  0
LINE
  5
402
330
3A4
100
AcDbEntity
  8
0
 62
     0
100
AcDbLine
 10
41.20047808566079
 20
19.23875648093815
 30
0.0
 11
38.40047808566078
 21
22.0387564809381
 31
0.0
  0
LINE
  5
403
330
3A4
100
AcDbEntity
  8
0
 62
     0
100
AcDbLine
 10
35.04795893320857
 20
25.39127563339036
 30
0.0
 11
32.91995893320847
 21
27.5192756333904
 31
0.0
  0
LINE
  5
404
330
3A4
100
AcDbEntity
  8
0
 62
     0
100
AcDbLine
 10
47.18164828377638
 20
13.25758628282255
 30
0.0
 11
44.38164828377631
 21
16.05758628282262
 31
0.0
  0
LINE
  5
405
330
3A4
100
AcDbEntity
  8
0
 62
     0
100
AcDbLine
 10
41.20047808566079
 20
18.34073086883125
 30
0.0
 11
38.40047808566083
 21
21.14073086883127
 31
0.0
  0
LINE
  5
406
330
3A4
100
AcDbEntity
  8
0
 62
     0
100
AcDbLine
 10
34.83243278630294
 20
24.70877616818916
 30
0.0
 11
32.70443278630284
 21
26.8367761681892
 31
0.0
  0
LINE
  5
407
330
3A4
100
AcDbEntity
  8
0
 62
     0
100
AcDbLine
 10
46.28362267166949
 20
13.25758628282261
 30
0.0
 11
43.8500109743731
 21
15.691197980119
 31
0.0
  0
LINE
  5
408
330
3A4
100
AcDbEntity
  8
0
 62
     0
100
AcDbLine
 10
34.61690663939731
 20
24.02627670298778
 30
0.0
 11
32.48890663939721
 21
26.15427670298794
 31
0.0
  0
LINE
  5
409
330
3A4
100
AcDbEntity
  8
0
 62
     0
100
AcDbLine
 10
41.20047808566079
 20
17.44270525672436
 30
0.0
 11
38.40047808566083
 21
20.24270525672432
 31
0.0
  0
LINE
  5
40A
330
3A4
100
AcDbEntity
  8
0
 62
     0
100
AcDbLine
 10
30.35047808566082
 20
28.29270525672433
 30
0.0
 11
29.28559705956251
 21
29.35758628282258
 31
0.0
  0
LINE
  5
40B
330
3A4
100
AcDbEntity
  8
0
 62
     0
100
AcDbLine
 10
45.38559705956259
 20
13.25758628282255
 30
0.0
 11
43.82547808566084
 21
14.8177052567243
 31
0.0
  0
LINE
  5
40C
330
3A4
100
AcDbEntity
  8
0
 62
     0
100
AcDbLine
 10
34.40138049249151
 20
23.34377723778669
 30
0.0
 11
32.27338049249158
 21
25.47177723778662
 31
0.0
  0
LINE
  5
40D
330
3A4
100
AcDbEntity
  8
0
 62
     0
100
AcDbLine
 10
41.20047808566079
 20
16.54467964461741
 30
0.0
 11
38.40047808566078
 21
19.34467964461743
 31
0.0
  0
LINE
  5
40E
330
3A4
100
AcDbEntity
  8
0
 62
     0
100
AcDbLine
 10
30.35047808566082
 20
27.39467964461738
 30
0.0
 11
28.38757144745562
 21
29.35758628282258
 31
0.0
  0
LINE
  5
40F
330
3A4
100
AcDbEntity
  8
0
 62
     0
100
AcDbLine
 10
44.48757144745559
 20
13.25758628282261
 30
0.0
 11
43.82547808566079
 21
13.91967964461736
 31
0.0
  0
LINE
  5
410
330
3A4
100
AcDbEntity
  8
0
 62
     0
100
AcDbLine
 10
34.18585434558588
 20
22.66127777258537
 30
0.0
 11
32.05785434558583
 21
24.78927777258542
 31
0.0
  0
LINE
  5
411
330
3A4
100
AcDbEntity
  8
0
 62
     0
100
AcDbLine
 10
30.35047808566076
 20
26.49665403251043
 30
0.0
 11
27.67503315676316
 21
29.17209896140809
 31
0.0
  0
LINE
  5
412
330
3A4
100
AcDbEntity
  8
0
 62
     0
100
AcDbLine
 10
41.20047808566073
 20
15.64665403251052
 30
0.0
 11
38.40047808566078
 21
18.44665403251048
 31
0.0
  0
LINE
  5
413
330
3A4
100
AcDbEntity
  8
0
 62
     0
100
AcDbLine
 10
33.97032819868025
 20
21.97877830738417
 30
0.0
 11
31.84232819868026
 21
24.10677830738416
 31
0.0
  0
LINE
  5
414
330
3A4
100
AcDbEntity
  8
0
 62
     0
100
AcDbLine
 10
30.35047808566082
 20
25.59862842040359
 30
0.0
 11
27.55047808566075
 21
28.39862842040361
 31
0.0
  0
LINE
  5
415
330
3A4
100
AcDbEntity
  8
0
 62
     0
100
AcDbLine
 10
41.20047808566079
 20
14.74862842040363
 30
0.0
 11
38.40047808566078
 21
17.54862842040358
 31
0.0
  0
LINE
  5
416
330
3A4
100
AcDbEntity
  8
0
 62
     0
100
AcDbLine
 10
33.76523968928819
 20
21.28584120466928
 30
0.0
 11
31.62680205177451
 21
23.42427884218295
 31
0.0
  0
LINE
  5
417
330
3A4
100
AcDbEntity
  8
0
 62
     0
100
AcDbLine
 10
30.35047808566082
 20
24.70060280829665
 30
0.0
 11
27.55047808566075
 21
27.50060280829671
 31
0.0
  0
LINE
  5
418
330
3A4
100
AcDbEntity
  8
0
 62
     0
100
AcDbLine
 10
41.20047808566073
 20
13.85060280829668
 30
0.0
 11
38.40047808566078
 21
16.65060280829669
 31
0.0
  0
LINE
  5
419
330
3A4
100
AcDbEntity
  8
0
 62
     0
100
AcDbLine
 10
34.17971304872219
 20
19.97334223312833
 30
0.0
 11
31.33625455608989
 21
22.81680072576063
 31
0.0
  0
LINE
  5
41A
330
3A4
100
AcDbEntity
  8
0
 62
     0
100
AcDbLine
 10
30.35047808566088
 20
23.80257719618964
 30
0.0
 11
27.5504780856607
 21
26.60257719618977
 31
0.0
  0
LINE
  5
41B
330
3A4
100
AcDbEntity
  8
0
 62
     0
100
AcDbLine
 10
40.8614330883284
 20
13.29162219352207
 30
0.0
 11
38.40047808566078
 21
15.75257719618974
 31
0.0
  0
LINE
  5
41C
330
3A4
100
AcDbEntity
  8
0
 62
     0
100
AcDbLine
 10
34.59418640815619
 20
18.6608432615875
 30
0.0
 11
27.55047808566075
 21
25.70455158408293
 31
0.0
  0
LINE
  5
41D
330
3A4
100
AcDbEntity
  8
0
 62
     0
100
AcDbLine
 10
25.10047808566088
 20
28.15455158408281
 30
0.0
 11
23.89744338692111
 21
29.35758628282258
 31
0.0
  0
LINE
  5
41E
330
3A4
100
AcDbEntity
  8
0
 62
     0
100
AcDbLine
 10
39.99744338692113
 20
13.25758628282255
 30
0.0
 11
38.40047808566089
 21
14.8545515840828
 31
0.0
  0
LINE
  5
41F
330
3A4
100
AcDbEntity
  8
0
 62
     0
100
AcDbLine
 10
35.00865976759024
 20
17.34834429004649
 30
0.0
 11
27.55047808566075
 21
24.80652597197599
 31
0.0
  0
LINE
  5
420
330
3A4
100
AcDbEntity
  8
0
 62
     0
100
AcDbLine
 10
25.10047808566088
 20
27.25652597197586
 30
0.0
 11
22.9994177748141
 21
29.35758628282263
 31
0.0
  0
LINE
  5
421
330
3A4
100
AcDbEntity
  8
0
 62
     0
100
AcDbLine
 10
39.09941777481418
 20
13.2575862828225
 30
0.0
 11
38.40047808566083
 21
13.9565259719759
 31
0.0
  0
LINE
  5
422
330
3A4
100
AcDbEntity
  8
0
 62
     0
100
AcDbLine
 10
24.83357139027077
 20
26.62540705525902
 30
0.0
 11
22.13334967205935
 21
29.32562877347038
 31
0.0
  0
LINE
  5
423
330
3A4
100
AcDbEntity
  8
0
 62
     0
100
AcDbLine
 10
35.42313312702418
 20
16.0358453185056
 30
0.0
 11
27.55047808566081
 21
23.90850035986898
 31
0.0
  0
LINE
  5
424
330
3A4
100
AcDbEntity
  8
0
 62
     0
100
AcDbLine
 10
30.68798700800243
 20
19.87296582542046
 30
0.0
 11
27.55047808566081
 21
23.01047474776209
 31
0.0
  0
LINE
  5
425
330
3A4
100
AcDbEntity
  8
0
 62
     0
100
AcDbLine
 10
24.00336655060033
 20
26.55758628282251
 30
0.0
 11
21.39530660247209
 21
29.16564623095081
 31
0.0
  0
LINE
  5
426
330
3A4
100
AcDbEntity
  8
0
 62
     0
100
AcDbLine
 10
35.83760648645824
 20
14.72334634696466
 30
0.0
 11
31.74529879415013
 21
18.81565403927277
 31
0.0
  0
LINE
  5
427
330
3A4
100
AcDbEntity
  8
0
 62
     0
100
AcDbLine
 10
30.35047808566088
 20
19.31244913565512
 30
0.0
 11
27.55047808566081
 21
22.11244913565519
 31
0.0
  0
LINE
  5
428
330
3A4
100
AcDbEntity
  8
0
 62
     0
100
AcDbLine
 10
23.10534093849332
 20
26.55758628282262
 30
0.0
 11
20.75658518664135
 21
28.90634203467459
 31
0.0
  0
LINE
  5
429
330
3A4
100
AcDbEntity
  8
0
 62
     0
100
AcDbLine
 10
36.07264534416884
 20
13.5902818771471
 30
0.0
 11
32.15977215358407
 21
17.50315506773193
 31
0.0
  0
LINE
  5
42A
330
3A4
100
AcDbEntity
  8
0
 62
     0
100
AcDbLine
 10
30.35047808566082
 20
18.41442352354823
 30
0.0
 11
27.55047808566075
 21
21.21442352354824
 31
0.0
  0
LINE
  5
42B
330
3A4
100
AcDbEntity
  8
0
 62
     0
100
AcDbLine
 10
22.26222743594979
 20
26.50267417325926
 30
0.0
 11
20.19783621130682
 21
28.56706539790224
 31
0.0
  0
LINE
  5
42C
330
3A4
100
AcDbEntity
  8
0
 62
     0
100
AcDbLine
 10
35.5073153263865
 20
13.25758628282255
 30
0.0
 11
32.57424551301812
 21
16.19065609619087
 31
0.0
  0
LINE
  5
42D
330
3A4
100
AcDbEntity
  8
0
 62
     0
100
AcDbLine
 10
30.35047808566082
 20
17.51639791144128
 30
0.0
 11
27.55047808566075
 21
20.31639791144135
 31
0.0
  0
LINE
  5
42E
330
3A4
100
AcDbEntity
  8
0
 62
     0
100
AcDbLine
 10
21.6903712431108
 20
26.1765047539913
 30
0.0
 11
19.71018100269503
 21
28.15669499440707
 31
0.0
  0
LINE
  5
42F
330
3A4
100
AcDbEntity
  8
0
 62
     0
100
AcDbLine
 10
34.60928971427955
 20
13.25758628282255
 30
0.0
 11
32.98871887245207
 21
14.87815712465004
 31
0.0
  0
LINE
  5
430
330
3A4
100
AcDbEntity
  8
0
 62
     0
100
AcDbLine
 10
25.43590721845856
 20
21.53294316653671
 30
0.0
 11
23.92583496937481
 21
23.04301541562046
 31
0.0
  0
LINE
  5
431
330
3A4
100
AcDbEntity
  8
0
 62
     0
100
AcDbLine
 10
30.35047808566094
 20
16.61837229933434
 30
0.0
 11
27.55047808566081
 21
19.41837229933446
 31
0.0
  0
LINE
  5
432
330
3A4
100
AcDbEntity
  8
0
 62
     0
100
AcDbLine
 10
21.33424967298185
 20
25.63460071201342
 30
0.0
 11
19.2908149766838
 21
27.67803540831147
 31
0.0
  0
LINE
  5
433
330
3A4
100
AcDbEntity
  8
0
 62
     0
100
AcDbLine
 10
33.66093109796804
 20
13.30791928702723
 30
0.0
 11
33.41057692637673
 21
13.55827345861854
 31
0.0
  0
LINE
  5
434
330
3A4
100
AcDbEntity
  8
0
 62
     0
100
AcDbLine
 10
25.34939355831665
 20
20.72143121457167
 30
0.0
 11
23.11432301740978
 21
22.95650175547854
 31
0.0
  0
LINE
  5
435
330
3A4
100
AcDbEntity
  8
0
 62
     0
100
AcDbLine
 10
21.25047808566091
 20
24.82034668722741
 30
0.0
 11
18.94187595572214
 21
27.12894881716619
 31
0.0
  0
LINE
  5
436
330
3A4
100
AcDbEntity
  8
0
 62
     0
100
AcDbLine
 10
30.35047808566088
 20
15.72034668722739
 30
0.0
 11
27.55047808566075
 21
18.52034668722757
 31
0.0
  0
LINE
  5
437
330
3A4
100
AcDbEntity
  8
0
 62
     0
100
AcDbLine
 10
25.0175379990186
 20
20.15526116176272
 30
0.0
 11
22.54815296460083
 21
22.62464619618049
 31
0.0
  0
LINE
  5
438
330
3A4
100
AcDbEntity
  8
0
 62
     0
100
AcDbLine
 10
21.25047808566091
 20
23.92232107512046
 30
0.0
 11
18.67129624851196
 21
26.50150291226941
 31
0.0
  0
LINE
  5
439
330
3A4
100
AcDbEntity
  8
0
 62
     0
100
AcDbLine
 10
30.35047808566088
 20
14.82232107512049
 30
0.0
 11
27.55047808566081
 21
17.62232107512056
 31
0.0
  0
LINE
  5
43A
330
3A4
100
AcDbEntity
  8
0
 62
     0
100
AcDbLine
 10
21.25047808566091
 20
23.02429546301357
 30
0.0
 11
18.49658237558611
 21
25.77819117308843
 31
0.0
  0
LINE
  5
43B
330
3A4
100
AcDbEntity
  8
0
 62
     0
100
AcDbLine
 10
24.51570455688215
 20
19.75906899179238
 30
0.0
 11
22.15196079463049
 21
22.12281275404405
 31
0.0
  0
LINE
  5
43C
330
3A4
100
AcDbEntity
  8
0
 62
     0
100
AcDbLine
 10
15.82547808566073
 20
28.44929546301375
 30
0.0
 11
14.91718726585185
 21
29.35758628282269
 31
0.0
  0
LINE
  5
43D
330
3A4
100
AcDbEntity
  8
0
 62
     0
100
AcDbLine
 10
30.35047808566094
 20
13.9242954630136
 30
0.0
 11
27.55047808566087
 21
16.72429546301367
 31
0.0
  0
LINE
  5
43E
330
3A4
100
AcDbEntity
  8
0
 62
     0
100
AcDbLine
 10
21.25047808566091
 20
22.12626985090668
 30
0.0
 11
18.45047808566084
 21
24.92626985090675
 31
0.0
  0
LINE
  5
43F
330
3A4
100
AcDbEntity
  8
0
 62
     0
100
AcDbLine
 10
23.81538511445473
 20
19.56136282211287
 30
0.0
 11
21.95425462495097
 21
21.42249331161662
 31
0.0
  0
LINE
  5
440
330
3A4
100
AcDbEntity
  8
0
 62
     0
100
AcDbLine
 10
15.82547808566073
 20
27.55126985090686
 30
0.0
 11
14.0191616537449
 21
29.35758628282263
 31
0.0
  0
LINE
  5
441
330
3A4
100
AcDbEntity
  8
0
 62
     0
100
AcDbLine
 10
30.06257428439022
 20
13.31417365217737
 30
0.0
 11
27.55047808566081
 21
15.82626985090672
 31
0.0
  0
LINE
  5
442
330
3A4
100
AcDbEntity
  8
0
 62
     0
100
AcDbLine
 10
21.25047808566091
 20
21.22824423879973
 30
0.0
 11
18.45047808566084
 21
24.0282442387998
 31
0.0
  0
LINE
  5
443
330
3A4
100
AcDbEntity
  8
0
 62
     0
100
AcDbLine
 10
15.71644411539045
 20
26.76227820907019
 30
0.0
 11
13.12113604163789
 21
29.35758628282269
 31
0.0
  0
LINE
  5
444
330
3A4
100
AcDbEntity
  8
0
 62
     0
100
AcDbLine
 10
29.22113604163809
 20
13.2575862828225
 30
0.0
 11
27.55047808566081
 21
14.92824423879983
 31
0.0
  0
LINE
  5
445
330
3A4
100
AcDbEntity
  8
0
 62
     0
100
AcDbLine
 10
21.25047808566085
 20
20.33021862669284
 30
0.0
 11
18.45047808566079
 21
23.13021862669285
 31
0.0
  0
LINE
  5
446
330
3A4
100
AcDbEntity
  8
0
 62
     0
100
AcDbLine
 10
15.02311042953112
 20
26.55758628282256
 30
0.0
 11
12.223110429531
 21
29.35758628282269
 31
0.0
  0
LINE
  5
447
330
3A4
100
AcDbEntity
  8
0
 62
     0
100
AcDbLine
 10
28.32311042953108
 20
13.25758628282255
 30
0.0
 11
27.55047808566081
 21
14.03021862669288
 31
0.0
  0
LINE
  5
448
330
3A4
100
AcDbEntity
  8
0
 62
     0
100
AcDbLine
 10
21.25047808566091
 20
19.43219301458595
 30
0.0
 11
18.45047808566084
 21
22.23219301458601
 31
0.0
  0
LINE
  5
449
330
3A4
100
AcDbEntity
  8
0
 62
     0
100
AcDbLine
 10
14.12508481742423
 20
26.55758628282256
 30
0.0
 11
11.35995554531933
 21
29.32271555492752
 31
0.0
  0
LINE
  5
44A
330
3A4
100
AcDbEntity
  8
0
 62
     0
100
AcDbLine
 10
25.09787563682391
 20
15.58479546342289
 30
0.0
 11
24.6276872662612
 21
16.05498383398566
 31
0.0
  0
LINE
  5
44B
330
3A4
100
AcDbEntity
  8
0
 62
     0
100
AcDbLine
 10
21.25047808566085
 20
18.53416740247899
 30
0.0
 11
18.45047808566084
 21
21.33416740247906
 31
0.0
  0
LINE
  5
44C
330
3A4
100
AcDbEntity
  8
0
 62
     0
100
AcDbLine
 10
13.22705920531734
 20
26.55758628282256
 30
0.0
 11
10.66682073684086
 21
29.11782475129905
 31
0.0
  0
LINE
  5
44D
330
3A4
100
AcDbEntity
  8
0
 62
     0
100
AcDbLine
 10
25.10047808566082
 20
14.68416740247903
 30
0.0
 11
23.72705920531728
 21
16.05758628282262
 31
0.0
  0
LINE
  5
44E
330
3A4
100
AcDbEntity
  8
0
 62
     0
100
AcDbLine
 10
21.25047808566085
 20
17.6361417903721
 30
0.0
 11
18.4504780856609
 21
20.43614179037206
 31
0.0
  0
LINE
  5
44F
330
3A4
100
AcDbEntity
  8
0
 62
     0
100
AcDbLine
 10
12.32903359321039
 20
26.55758628282251
 30
0.0
 11
10.10257407699362
 21
28.78404579903929
 31
0.0
  0
LINE
  5
450
330
3A4
100
AcDbEntity
  8
0
 62
     0
100
AcDbLine
 10
25.10047808566082
 20
13.78614179037214
 30
0.0
 11
22.82903359321039
 21
16.05758628282251
 31
0.0
  0
LINE
  5
451
330
3A4
100
AcDbEntity
  8
0
 62
     0
100
AcDbLine
 10
11.8187407655958
 20
26.16985349833032
 30
0.0
 11
9.644481264752869
 21
28.34411299917326
 31
0.0
  0
LINE
  5
452
330
3A4
100
AcDbEntity
  8
0
 62
     0
100
AcDbLine
 10
24.71274530116852
 20
13.2758489627576
 30
0.0
 11
18.4504780856609
 21
19.53811617826522
 31
0.0
  0
LINE
  5
453
330
3A4
100
AcDbEntity
  8
0
 62
     0
100
AcDbLine
 10
11.80047808566087
 20
25.29009056615831
 30
0.0
 11
9.291000062283785
 21
27.79956858953539
 31
0.0
  0
LINE
  5
454
330
3A4
100
AcDbEntity
  8
0
 62
     0
100
AcDbLine
 10
23.83298236899662
 20
13.25758628282255
 30
0.0
 11
18.4504780856609
 21
18.64009056615827
 31
0.0
  0
LINE
  5
455
330
3A4
100
AcDbEntity
  8
0
 62
     0
100
AcDbLine
 10
11.86261379379629
 20
24.32992924591587
 30
0.0
 11
9.060119959990061
 21
27.13242307972217
 31
0.0
  0
LINE
  5
456
330
3A4
100
AcDbEntity
  8
0
 62
     0
100
AcDbLine
 10
22.93495675688962
 20
13.25758628282261
 30
0.0
 11
18.45047808566084
 21
17.74206495405133
 31
0.0
  0
LINE
  5
457
330
3A4
100
AcDbEntity
  8
0
 62
     0
100
AcDbLine
 10
16.15485417688353
 20
19.13966325072181
 30
0.0
 11
9.000478085660915
 21
26.29403934194442
 31
0.0
  0
LINE
  5
458
330
3A4
100
AcDbEntity
  8
0
 62
     0
100
AcDbLine
 10
21.98365905772607
 20
13.31085836987927
 30
0.0
 11
18.5037501727175
 21
16.79076725488783
 31
0.0
  0
LINE
  5
459
330
3A4
100
AcDbEntity
  8
0
 62
     0
100
AcDbLine
 10
16.34674869096875
 20
18.04974312452969
 30
0.0
 11
9.000478085660802
 21
25.39601372983764
 31
0.0
  0
LINE
  5
45A
330
3A4
100
AcDbEntity
  8
0
 62
     0
100
AcDbLine
 10
20.60985114512448
 20
13.78664067037391
 30
0.0
 11
18.97953247321209
 21
15.41695934228636
 31
0.0
  0
LINE
  5
45B
330
3A4
100
AcDbEntity
  8
0
 62
     0
100
AcDbLine
 10
16.35047808566088
 20
17.14798811773062
 30
0.0
 11
9.008042533083198
 21
24.49042367030824
 31
0.0
  0
LINE
  5
45C
330
3A4
100
AcDbEntity
  8
0
 62
     0
100
AcDbLine
 10
16.35047808566082
 20
16.24996250562372
 30
0.0
 11
9.231333291407054
 21
23.36910729987744
 31
0.0
  0
LINE
  5
45D
330
3A4
100
AcDbEntity
  8
0
 62
     0
100
AcDbLine
 10
16.27795808952891
 20
15.4244568896488
 30
0.0
 11
13.51456644590985
 21
18.18784853326786
 31
0.0
  0
LINE
  5
45E
330
3A4
100
AcDbEntity
  8
0
 62
     0
100
AcDbLine
 10
16.03602015050006
 20
14.7683692165707
 30
0.0
 11
13.55047808566081
 21
17.25391128140995
 31
0.0
  0
LINE
  5
45F
330
3A4
100
AcDbEntity
  8
0
 62
     0
100
AcDbLine
 10
15.67390090311829
 20
14.23246285184552
 30
0.0
 11
13.51457905336013
 21
16.39178470160368
 31
0.0
  0
LINE
  5
460
330
3A4
100
AcDbEntity
  8
0
 62
     0
100
AcDbLine
 10
15.20767453085142
 20
13.8006636120055
 30
0.0
 11
12.9507518600343
 21
16.05758628282268
 31
0.0
  0
LINE
  5
461
330
3A4
100
AcDbEntity
  8
0
 62
     0
100
AcDbLine
 10
14.6344100831186
 20
13.47590244763142
 30
0.0
 11
12.05272624792735
 21
16.05758628282262
 31
0.0
  0
LINE
  5
462
330
3A4
100
AcDbEntity
  8
0
 62
     0
100
AcDbLine
 10
13.92899749403267
 20
13.28328942461041
 30
0.0
 11
11.15470063582046
 21
16.05758628282262
 31
0.0
  0
LINE
  5
463
330
3A4
100
AcDbEntity
  8
0
 62
     0
100
AcDbLine
 10
13.05667502371363
 20
13.25758628282244
 30
0.0
 11
10.25667502371351
 21
16.05758628282262
 31
0.0
  0
LINE
  5
464
330
3A4
100
AcDbEntity
  8
0
 62
     0
100
AcDbLine
 10
12.15864941160669
 20
13.25758628282255
 30
0.0
 11
9.605325516788809
 21
15.81091017764049
 31
0.0
  0
LINE
  5
465
330
3A4
100
AcDbEntity
  8
0
 62
     0
100
AcDbLine
 10
11.26062379949979
 20
13.25758628282255
 30
0.0
 11
9.525478085660836
 21
14.99273199666151
 31
0.0
  0
LINE
  5
466
330
3A4
100
AcDbEntity
  8
0
 62
     0
100
AcDbLine
 10
10.36259818739284
 20
13.25758628282255
 30
0.0
 11
9.525478085660836
 21
14.09470638455457
 31
0.0
  0
LINE
  5
467
330
3A4
100
AcDbEntity
  8
0
 62
     0
100
AcDbLine
 10
66.34216537032779
 20
13.27071805994012
 30
0.0
 11
66.73734630854358
 21
13.66589899815591
 31
0.0
  0
LINE
  5
468
330
3A4
100
AcDbEntity
  8
0
 62
     0
100
AcDbLine
 10
65.43100798110334
 20
13.2575862828225
 30
0.0
 11
66.75047808566103
 21
14.57705638738019
 31
0.0
  0
LINE
  5
469
330
3A4
100
AcDbEntity
  8
0
 62
     0
100
AcDbLine
 10
64.53298236899644
 20
13.2575862828225
 30
0.0
 11
66.75047808566103
 21
15.47508199948708
 31
0.0
  0
LINE
  5
46A
330
3A4
100
AcDbEntity
  8
0
 62
     0
100
AcDbLine
 10
63.9816756489127
 20
13.6043051748457
 30
0.0
 11
66.75047808566097
 21
16.37310761159403
 31
0.0
  0
LINE
  5
46B
330
3A4
100
AcDbEntity
  8
0
 62
     0
100
AcDbLine
 10
63.9504780856609
 20
14.47113322370086
 30
0.0
 11
66.75047808566097
 21
17.27113322370087
 31
0.0
  0
LINE
  5
46C
330
3A4
100
AcDbEntity
  8
0
 62
     0
100
AcDbLine
 10
63.95047808566096
 20
15.36915883580775
 30
0.0
 11
66.75047808566097
 21
18.16915883580782
 31
0.0
  0
LINE
  5
46D
330
3A4
100
AcDbEntity
  8
0
 62
     0
100
AcDbLine
 10
63.9504780856609
 20
16.2671844479147
 30
0.0
 11
66.75047808566097
 21
19.06718444791477
 31
0.0
  0
LINE
  5
46E
330
3A4
100
AcDbEntity
  8
0
 62
     0
100
AcDbLine
 10
63.9504780856609
 20
17.16521006002159
 30
0.0
 11
66.75047808566097
 21
19.96521006002166
 31
0.0
  0
LINE
  5
46F
330
3A4
100
AcDbEntity
  8
0
 62
     0
100
AcDbLine
 10
60.37704294772618
 20
13.59177492208686
 30
0.0
 11
61.51628944639674
 21
14.73102142075748
 31
0.0
  0
LINE
  5
470
330
3A4
100
AcDbEntity
  8
0
 62
     0
100
AcDbLine
 10
63.9504780856609
 20
18.06323567212848
 30
0.0
 11
66.75047808566097
 21
20.86323567212855
 31
0.0
  0
LINE
  5
471
330
3A4
100
AcDbEntity
  8
0
 62
     0
100
AcDbLine
 10
59.14647478120338
 20
13.25923236767096
 30
0.0
 11
61.8488320008127
 21
15.96158958728023
 31
0.0
  0
LINE
  5
472
330
3A4
100
AcDbEntity
  8
0
 62
     0
100
AcDbLine
 10
63.9504780856609
 20
18.96126128423543
 30
0.0
 11
66.75047808566097
 21
21.76126128423544
 31
0.0
  0
LINE
  5
473
330
3A4
100
AcDbEntity
  8
0
 62
     0
100
AcDbLine
 10
58.24680308424797
 20
13.2575862828225
 30
0.0
 11
61.850478085661
 21
16.86126128423546
 31
0.0
  0
LINE
  5
474
330
3A4
100
AcDbEntity
  8
0
 62
     0
100
AcDbLine
 10
63.9504780856609
 20
19.85928689634232
 30
0.0
 11
66.75047808566091
 21
22.65928689634239
 31
0.0
  0
LINE
  5
475
330
3A4
100
AcDbEntity
  8
0
 62
     0
100
AcDbLine
 10
57.34877747214108
 20
13.2575862828225
 30
0.0
 11
61.85047808566094
 21
17.75928689634241
 31
0.0
  0
LINE
  5
476
330
3A4
100
AcDbEntity
  8
0
 62
     0
100
AcDbLine
 10
63.9504780856609
 20
20.75731250844921
 30
0.0
 11
66.75047808566097
 21
23.55731250844928
 31
0.0
  0
LINE
  5
477
330
3A4
100
AcDbEntity
  8
0
 62
     0
100
AcDbLine
 10
56.45075186003424
 20
13.25758628282255
 30
0.0
 11
61.850478085661
 21
18.6573125084493
 31
0.0
  0
LINE
  5
478
330
3A4
100
AcDbEntity
  8
0
 62
     0
100
AcDbLine
 10
58.94588688357988
 20
16.65074691847513
 30
0.0
 11
61.850478085661
 21
19.5553381205562
 31
0.0
  0
LINE
  5
479
330
3A4
100
AcDbEntity
  8
0
 62
     0
100
AcDbLine
 10
63.9504780856609
 20
21.65533812055611
 30
0.0
 11
66.75047808566097
 21
24.45533812055618
 31
0.0
  0
LINE
  5
47A
330
3A4
100
AcDbEntity
  8
0
 62
     0
100
AcDbLine
 10
55.55272624792724
 20
13.2575862828225
 30
0.0
 11
58.45731745000836
 21
16.16217748490356
 31
0.0
  0
LINE
  5
47B
330
3A4
100
AcDbEntity
  8
0
 62
     0
100
AcDbLine
 10
59.05047808566087
 20
17.65336373266308
 30
0.0
 11
61.85047808566094
 21
20.45336373266315
 31
0.0
  0
LINE
  5
47C
330
3A4
100
AcDbEntity
  8
0
 62
     0
100
AcDbLine
 10
63.95047808566085
 20
22.55336373266306
 30
0.0
 11
66.75047808566091
 21
25.35336373266313
 31
0.0
  0
LINE
  5
47D
330
3A4
100
AcDbEntity
  8
0
 62
     0
100
AcDbLine
 10
54.76665038719755
 20
13.36953603419971
 30
0.0
 11
57.45470063582041
 21
16.05758628282257
 31
0.0
  0
LINE
  5
47E
330
3A4
100
AcDbEntity
  8
0
 62
     0
100
AcDbLine
 10
59.05047808566092
 20
18.55138934477008
 30
0.0
 11
61.85047808566094
 21
21.35138934477004
 31
0.0
  0
LINE
  5
47F
330
3A4
100
AcDbEntity
  8
0
 62
     0
100
AcDbLine
 10
63.95047808566085
 20
23.45138934477
 30
0.0
 11
66.75047808566091
 21
26.25138934477002
 31
0.0
  0
LINE
  5
480
330
3A4
100
AcDbEntity
  8
0
 62
     0
100
AcDbLine
 10
54.1386635199874
 20
13.63957477909656
 30
0.0
 11
56.55755280935784
 21
16.058464068467
 31
0.0
  0
LINE
  5
481
330
3A4
100
AcDbEntity
  8
0
 62
     0
100
AcDbLine
 10
59.05047808566099
 20
19.44941495687698
 30
0.0
 11
61.85047808566094
 21
22.24941495687693
 31
0.0
  0
LINE
  5
482
330
3A4
100
AcDbEntity
  8
0
 62
     0
100
AcDbLine
 10
63.9504780856609
 20
24.34941495687684
 30
0.0
 11
66.75047808566091
 21
27.14941495687691
 31
0.0
  0
LINE
  5
483
330
3A4
100
AcDbEntity
  8
0
 62
     0
100
AcDbLine
 10
53.62540363862234
 20
14.02434050983828
 30
0.0
 11
55.91407422064515
 21
16.31301109186114
 31
0.0
  0
LINE
  5
484
330
3A4
100
AcDbEntity
  8
0
 62
     0
100
AcDbLine
 10
59.05047808566099
 20
20.34744056898387
 30
0.0
 11
61.85047808566094
 21
23.14744056898388
 31
0.0
  0
LINE
  5
485
330
3A4
100
AcDbEntity
  8
0
 62
     0
100
AcDbLine
 10
63.95047808566085
 20
25.24744056898379
 30
0.0
 11
66.75047808566091
 21
28.04744056898385
 31
0.0
  0
LINE
  5
486
330
3A4
100
AcDbEntity
  8
0
 62
     0
100
AcDbLine
 10
53.21543946339722
 20
14.5124019467201
 30
0.0
 11
55.57683594223573
 21
16.87379842555867
 31
0.0
  0
LINE
  5
487
330
3A4
100
AcDbEntity
  8
0
 62
     0
100
AcDbLine
 10
59.05047808566092
 20
21.24546618109082
 30
0.0
 11
61.850478085661
 21
24.04546618109089
 31
0.0
  0
LINE
  5
488
330
3A4
100
AcDbEntity
  8
0
 62
     0
100
AcDbLine
 10
63.95047808566085
 20
26.14546618109068
 30
0.0
 11
66.74032893211045
 21
28.93531702754035
 31
0.0
  0
LINE
  5
489
330
3A4
100
AcDbEntity
  8
0
 62
     0
100
AcDbLine
 10
52.91551458496321
 20
15.11050268039309
 30
0.0
 11
55.55047808566093
 21
17.74546618109076
 31
0.0
  0
LINE
  5
48A
330
3A4
100
AcDbEntity
  8
0
 62
     0
100
AcDbLine
 10
59.05047808566099
 20
22.14349179319765
 30
0.0
 11
61.85047808566105
 21
24.94349179319772
 31
0.0
  0
LINE
  5
48B
330
3A4
100
AcDbEntity
  8
0
 62
     0
100
AcDbLine
 10
63.95047808566085
 20
27.04349179319757
 30
0.0
 11
66.26321458703097
 21
29.3562282945677
 31
0.0
  0
LINE
  5
48C
330
3A4
100
AcDbEntity
  8
0
 62
     0
100
AcDbLine
 10
52.75810105000676
 20
15.85111475754348
 30
0.0
 11
55.55047808566093
 21
18.64349179319765
 31
0.0
  0
LINE
  5
48D
330
3A4
100
AcDbEntity
  8
0
 62
     0
100
AcDbLine
 10
59.05047808566092
 20
23.0415174053046
 30
0.0
 11
61.850478085661
 21
25.84151740530467
 31
0.0
  0
LINE
  5
48E
330
3A4
100
AcDbEntity
  8
0
 62
     0
100
AcDbLine
 10
63.9504780856609
 20
27.94151740530458
 30
0.0
 11
65.3665469631789
 21
29.35758628282258
 31
0.0
  0
LINE
  5
48F
330
3A4
100
AcDbEntity
  8
0
 62
     0
100
AcDbLine
 10
52.75047808566097
 20
16.74151740530459
 30
0.0
 11
55.55047808566098
 21
19.54151740530465
 31
0.0
  0
LINE
  5
490
330
3A4
100
AcDbEntity
  8
0
 62
     0
100
AcDbLine
 10
59.05047808566092
 20
23.93954301741155
 30
0.0
 11
61.850478085661
 21
26.73954301741156
 31
0.0
  0
LINE
  5
491
330
3A4
100
AcDbEntity
  8
0
 62
     0
100
AcDbLine
 10
52.75047808566092
 20
17.63954301741154
 30
0.0
 11
55.55047808566098
 21
20.4395430174116
 31
0.0
  0
LINE
  5
492
330
3A4
100
AcDbEntity
  8
0
 62
     0
100
AcDbLine
 10
63.95052480040835
 20
28.83958973215897
 30
0.0
 11
64.46847463632463
 21
29.3575395680752
 31
0.0
  0
LINE
  5
493
330
3A4
100
AcDbEntity
  8
0
 62
     0
100
AcDbLine
 10
48.42892245494891
 20
13.31798738669948
 30
0.0
 11
50.59007698178408
 21
15.4791419135347
 31
0.0
  0
LINE
  5
494
330
3A4
100
AcDbEntity
  8
0
 62
     0
100
AcDbLine
 10
52.75047808566092
 20
18.53756862951843
 30
0.0
 11
55.55047808566098
 21
21.33756862951849
 31
0.0
  0
LINE
  5
495
330
3A4
100
AcDbEntity
  8
0
 62
     0
100
AcDbLine
 10
59.05047808566092
 20
24.83756862951844
 30
0.0
 11
61.85047808566094
 21
27.63756862951851
 31
0.0
  0
LINE
  5
496
330
3A4
100
AcDbEntity
  8
0
 62
     0
100
AcDbLine
 10
47.47049573896504
 20
13.25758628282261
 30
0.0
 11
50.65047808566089
 21
16.43756862951846
 31
0.0
  0
LINE
  5
497
330
3A4
100
AcDbEntity
  8
0
 62
     0
100
AcDbLine
 10
52.75047808566092
 20
19.43559424162532
 30
0.0
 11
55.55047808566098
 21
22.23559424162539
 31
0.0
  0
LINE
  5
498
330
3A4
100
AcDbEntity
  8
0
 62
     0
100
AcDbLine
 10
59.05047808566092
 20
25.73559424162533
 30
0.0
 11
61.850478085661
 21
28.5355942416254
 31
0.0
  0
LINE
  5
499
330
3A4
100
AcDbEntity
  8
0
 62
     0
100
AcDbLine
 10
46.57247012685814
 20
13.25758628282255
 30
0.0
 11
50.65047808566095
 21
17.3355942416253
 31
0.0
  0
LINE
  5
49A
330
3A4
100
AcDbEntity
  8
0
 62
     0
100
AcDbLine
 10
52.75047808566092
 20
20.33361985373227
 30
0.0
 11
55.55047808566098
 21
23.13361985373228
 31
0.0
  0
LINE
  5
49B
330
3A4
100
AcDbEntity
  8
0
 62
     0
100
AcDbLine
 10
59.05047808566092
 20
26.63361985373223
 30
0.0
 11
61.65674063082684
 21
29.2398823988982
 31
0.0
  0
LINE
  5
49C
330
3A4
100
AcDbEntity
  8
0
 62
     0
100
AcDbLine
 10
45.67444451475125
 20
13.25758628282261
 30
0.0
 11
50.63615948524807
 21
18.21930125331937
 31
0.0
  0
LINE
  5
49D
330
3A4
100
AcDbEntity
  8
0
 62
     0
100
AcDbLine
 10
52.75047808566092
 20
21.23164546583916
 30
0.0
 11
55.55047808566093
 21
24.03164546583923
 31
0.0
  0
LINE
  5
49E
330
3A4
100
AcDbEntity
  8
0
 62
     0
100
AcDbLine
 10
59.05047808566087
 20
27.53164546583917
 30
0.0
 11
60.87641890264433
 21
29.35758628282263
 31
0.0
  0
LINE
  5
49F
330
3A4
100
AcDbEntity
  8
0
 62
     0
100
AcDbLine
 10
44.77641890264431
 20
13.25758628282261
 30
0.0
 11
50.50124711461927
 21
18.98241449479758
 31
0.0
  0
LINE
  5
4A0
330
3A4
100
AcDbEntity
  8
0
 62
     0
100
AcDbLine
 10
52.75047808566092
 20
22.12967107794605
 30
0.0
 11
55.55047808566098
 21
24.92967107794612
 31
0.0
  0
LINE
  5
4A1
330
3A4
100
AcDbEntity
  8
0
 62
     0
100
AcDbLine
 10
47.85047808566105
 20
17.22967107794613
 30
0.0
 11
50.26065965770072
 21
19.63985264998586
 31
0.0
  0
LINE
  5
4A2
330
3A4
100
AcDbEntity
  8
0
 62
     0
100
AcDbLine
 10
59.05047808566092
 20
28.42967107794606
 30
0.0
 11
59.9783932905375
 21
29.35758628282263
 31
0.0
  0
LINE
  5
4A3
330
3A4
100
AcDbEntity
  8
0
 62
     0
100
AcDbLine
 10
44.00664864366854
 20
13.38584163595368
 30
0.0
 11
46.67839329053743
 21
16.05758628282257
 31
0.0
  0
LINE
  5
4A4
330
3A4
100
AcDbEntity
  8
0
 62
     0
100
AcDbLine
 10
47.83060751053364
 20
18.10782611492567
 30
0.0
 11
49.93716035284013
 21
20.21437895723215
 31
0.0
  0
LINE
  5
4A5
330
3A4
100
AcDbEntity
  8
0
 62
     0
100
AcDbLine
 10
52.75047808566092
 20
23.02769669005294
 30
0.0
 11
55.55047808566093
 21
25.82769669005301
 31
0.0
  0
LINE
  5
4A6
330
3A4
100
AcDbEntity
  8
0
 62
     0
100
AcDbLine
 10
43.82547808566096
 20
14.10269669005299
 30
0.0
 11
45.78036767843047
 21
16.05758628282257
 31
0.0
  0
LINE
  5
4A7
330
3A4
100
AcDbEntity
  8
0
 62
     0
100
AcDbLine
 10
47.55622267339475
 20
18.73146688989379
 30
0.0
 11
49.54128923491231
 21
20.71653345141135
 31
0.0
  0
LINE
  5
4A8
330
3A4
100
AcDbEntity
  8
0
 62
     0
100
AcDbLine
 10
52.75047808566085
 20
23.92572230215989
 30
0.0
 11
55.55047808566093
 21
26.72572230215996
 31
0.0
  0
LINE
  5
4A9
330
3A4
100
AcDbEntity
  8
0
 62
     0
100
AcDbLine
 10
43.8254780856609
 20
15.00072230215994
 30
0.0
 11
44.88234206632358
 21
16.05758628282262
 31
0.0
  0
LINE
  5
4AA
330
3A4
100
AcDbEntity
  8
0
 62
     0
100
AcDbLine
 10
52.75047808566092
 20
24.82374791426678
 30
0.0
 11
55.55047808566098
 21
27.6237479142668
 31
0.0
  0
LINE
  5
4AB
330
3A4
100
AcDbEntity
  8
0
 62
     0
100
AcDbLine
 10
47.11494777627769
 20
19.1882176048835
 30
0.0
 11
49.09484676360006
 21
21.16811659220593
 31
0.0
  0
LINE
  5
4AC
330
3A4
100
AcDbEntity
  8
0
 62
     0
100
AcDbLine
 10
46.66593497022421
 20
19.63723041093698
 30
0.0
 11
48.64583395754658
 21
21.6171293982594
 31
0.0
  0
LINE
  5
4AD
330
3A4
100
AcDbEntity
  8
0
 62
     0
100
AcDbLine
 10
52.75047808566085
 20
25.72177352637368
 30
0.0
 11
55.55047808566093
 21
28.52177352637374
 31
0.0
  0
LINE
  5
4AE
330
3A4
100
AcDbEntity
  8
0
 62
     0
100
AcDbLine
 10
40.28629084210973
 20
13.25758628282255
 30
0.0
 11
41.2004780856609
 21
14.17177352637366
 31
0.0
  0
LINE
  5
4AF
330
3A4
100
AcDbEntity
  8
0
 62
     0
100
AcDbLine
 10
46.21692216417073
 20
20.08624321699045
 30
0.0
 11
48.19682115149311
 21
22.06614220431288
 31
0.0
  0
LINE
  5
4B0
330
3A4
100
AcDbEntity
  8
0
 62
     0
100
AcDbLine
 10
52.75047808566085
 20
26.61979913848063
 30
0.0
 11
55.36429717756226
 21
29.23361823038197
 31
0.0
  0
LINE
  5
4B1
330
3A4
100
AcDbEntity
  8
0
 62
     0
100
AcDbLine
 10
39.38826523000278
 20
13.25758628282255
 30
0.0
 11
41.20047808566096
 21
15.06979913848067
 31
0.0
  0
LINE
  5
4B2
330
3A4
100
AcDbEntity
  8
0
 62
     0
100
AcDbLine
 10
45.76790935811726
 20
20.53525602304393
 30
0.0
 11
47.74780834543963
 21
22.51515501036635
 31
0.0
  0
LINE
  5
4B3
330
3A4
100
AcDbEntity
  8
0
 62
     0
100
AcDbLine
 10
52.75047808566085
 20
27.51782475058752
 30
0.0
 11
54.59023961789597
 21
29.35758628282269
 31
0.0
  0
LINE
  5
4B4
330
3A4
100
AcDbEntity
  8
0
 62
     0
100
AcDbLine
 10
38.60185075575788
 20
13.36919742068454
 30
0.0
 11
41.2004780856609
 21
15.96782475058762
 31
0.0
  0
LINE
  5
4B5
330
3A4
100
AcDbEntity
  8
0
 62
     0
100
AcDbLine
 10
45.31889655206384
 20
20.98426882909734
 30
0.0
 11
47.29879553938622
 21
22.96416781641977
 31
0.0
  0
LINE
  5
4B6
330
3A4
100
AcDbEntity
  8
0
 62
     0
100
AcDbLine
 10
52.75047808566085
 20
28.41585036269441
 30
0.0
 11
53.69221400578914
 21
29.35758628282263
 31
0.0
  0
LINE
  5
4B7
330
3A4
100
AcDbEntity
  8
0
 62
     0
100
AcDbLine
 10
38.40047808566095
 20
14.0658503626945
 30
0.0
 11
41.20047808566096
 21
16.86585036269446
 31
0.0
  0
LINE
  5
4B8
330
3A4
100
AcDbEntity
  8
0
 62
     0
100
AcDbLine
 10
44.86988374601037
 20
21.43328163515082
 30
0.0
 11
46.84978273333274
 21
23.41318062247324
 31
0.0
  0
LINE
  5
4B9
330
3A4
100
AcDbEntity
  8
0
 62
     0
100
AcDbLine
 10
38.40047808566095
 20
14.96387597480145
 30
0.0
 11
41.2004780856609
 21
17.7638759748014
 31
0.0
  0
LINE
  5
4BA
330
3A4
100
AcDbEntity
  8
0
 62
     0
100
AcDbLine
 10
44.42289984496904
 20
21.88432334621649
 30
0.0
 11
46.40687337835106
 21
23.86829687959846
 31
0.0
  0
LINE
  5
4BB
330
3A4
100
AcDbEntity
  8
0
 62
     0
100
AcDbLine
 10
38.40047808566095
 20
15.86190158690834
 30
0.0
 11
41.2004780856609
 21
18.66190158690835
 31
0.0
  0
LINE
  5
4BC
330
3A4
100
AcDbEntity
  8
0
 62
     0
100
AcDbLine
 10
49.09616278157511
 20
26.55758628282256
 30
0.0
 11
50.12547808566097
 21
27.58690158690837
 31
0.0
  0
LINE
  5
4BD
330
3A4
100
AcDbEntity
  8
0
 62
     0
100
AcDbLine
 10
35.90782186095072
 20
13.36924536219811
 30
0.0
 11
35.99747422240574
 21
13.45889772365319
 31
0.0
  0
LINE
  5
4BE
330
3A4
100
AcDbEntity
  8
0
 62
     0
100
AcDbLine
 10
44.02489766614706
 20
22.38434677950135
 30
0.0
 11
46.12453194356567
 21
24.48398105691996
 31
0.0
  0
LINE
  5
4BF
330
3A4
100
AcDbEntity
  8
0
 62
     0
100
AcDbLine
 10
38.40047808566095
 20
16.75992719901523
 30
0.0
 11
41.20047808566096
 21
19.55992719901519
 31
0.0
  0
LINE
  5
4C0
330
3A4
100
AcDbEntity
  8
0
 62
     0
100
AcDbLine
 10
48.19813716946834
 20
26.55758628282262
 30
0.0
 11
50.12547808566097
 21
28.48492719901526
 31
0.0
  0
LINE
  5
4C1
330
3A4
100
AcDbEntity
  8
0
 62
     0
100
AcDbLine
 10
34.89813716946827
 20
13.25758628282255
 30
0.0
 11
35.9639162657748
 21
14.32336537912908
 31
0.0
  0
LINE
  5
4C2
330
3A4
100
AcDbEntity
  8
0
 62
     0
100
AcDbLine
 10
43.69906340175037
 20
22.95653812721161
 30
0.0
 11
46.10047808566105
 21
25.35795281112228
 31
0.0
  0
LINE
  5
4C3
330
3A4
100
AcDbEntity
  8
0
 62
     0
100
AcDbLine
 10
38.40047808566095
 20
17.65795281112213
 30
0.0
 11
41.2004780856609
 21
20.45795281112213
 31
0.0
  0
LINE
  5
4C4
330
3A4
100
AcDbEntity
  8
0
 62
     0
100
AcDbLine
 10
47.30011155736133
 20
26.55758628282256
 30
0.0
 11
49.95880915386305
 21
29.21628387932429
 31
0.0
  0
LINE
  5
4C5
330
3A4
100
AcDbEntity
  8
0
 62
     0
100
AcDbLine
 10
34.00011155736126
 20
13.2575862828225
 30
0.0
 11
35.74839011886911
 21
15.00586484433034
 31
0.0
  0
LINE
  5
4C6
330
3A4
100
AcDbEntity
  8
0
 62
     0
100
AcDbLine
 10
38.40047808566089
 20
18.55597842322907
 30
0.0
 11
41.2004780856609
 21
21.35597842322903
 31
0.0
  0
LINE
  5
4C7
330
3A4
100
AcDbEntity
  8
0
 62
     0
100
AcDbLine
 10
43.45568133908028
 20
23.61118167664847
 30
0.0
 11
49.20208594525445
 21
29.35758628282263
 31
0.0
  0
LINE
  5
4C8
330
3A4
100
AcDbEntity
  8
0
 62
     0
100
AcDbLine
 10
33.40809724670629
 20
13.56359758427447
 30
0.0
 11
35.53286397196342
 21
15.6883643095316
 31
0.0
  0
LINE
  5
4C9
330
3A4
100
AcDbEntity
  8
0
 62
     0
100
AcDbLine
 10
38.40047808566089
 20
19.45400403533602
 30
0.0
 11
41.20047808566084
 21
22.25400403533598
 31
0.0
  0
LINE
  5
4CA
330
3A4
100
AcDbEntity
  8
0
 62
     0
100
AcDbLine
 10
43.31697447999459
 20
24.37050042966973
 30
0.0
 11
48.30406033314756
 21
29.35758628282263
 31
0.0
  0
LINE
  5
4CB
330
3A4
100
AcDbEntity
  8
0
 62
     0
100
AcDbLine
 10
33.18933782505769
 20
14.24286377473282
 30
0.0
 11
35.31733782505773
 21
16.37086377473286
 31
0.0
  0
LINE
  5
4CC
330
3A4
100
AcDbEntity
  8
0
 62
     0
100
AcDbLine
 10
38.40047808566095
 20
20.35202964744286
 30
0.0
 11
41.2004780856609
 21
23.15202964744287
 31
0.0
  0
LINE
  5
4CD
330
3A4
100
AcDbEntity
  8
0
 62
     0
100
AcDbLine
 10
43.30047808566092
 20
25.25202964744284
 30
0.0
 11
47.40603472104067
 21
29.35758628282263
 31
0.0
  0
LINE
  5
4CE
330
3A4
100
AcDbEntity
  8
0
 62
     0
100
AcDbLine
 10
32.97381167815206
 20
14.92536323993403
 30
0.0
 11
35.10181167815216
 21
17.05336323993407
 31
0.0
  0
LINE
  5
4CF
330
3A4
100
AcDbEntity
  8
0
 62
     0
100
AcDbLine
 10
38.40047808566089
 20
21.25005525954981
 30
0.0
 11
41.2004780856609
 21
24.05005525954976
 31
0.0
  0
LINE
  5
4D0
330
3A4
100
AcDbEntity
  8
0
 62
     0
100
AcDbLine
 10
43.30047808566098
 20
26.15005525954984
 30
0.0
 11
46.50800910893377
 21
29.35758628282263
 31
0.0
  0
LINE
  5
4D1
330
3A4
100
AcDbEntity
  8
0
 62
     0
100
AcDbLine
 10
32.75828553124631
 20
15.60786270513523
 30
0.0
 11
34.88628553124653
 21
17.73586270513544
 31
0.0
  0
LINE
  5
4D2
330
3A4
100
AcDbEntity
  8
0
 62
     0
100
AcDbLine
 10
38.40047808566089
 20
22.1480808716567
 30
0.0
 11
41.20047808566096
 21
24.94808087165677
 31
0.0
  0
LINE
  5
4D3
330
3A4
100
AcDbEntity
  8
0
 62
     0
100
AcDbLine
 10
32.54275938434068
 20
16.29036217033655
 30
0.0
 11
34.67075938434078
 21
18.41836217033659
 31
0.0
  0
LINE
  5
4D4
330
3A4
100
AcDbEntity
  8
0
 62
     0
100
AcDbLine
 10
43.35379475578213
 20
27.101397541778
 30
0.0
 11
45.55666682670545
 21
29.30426961270132
 31
0.0
  0
LINE
  5
4D5
330
3A4
100
AcDbEntity
  8
0
 62
     0
100
AcDbLine
 10
29.50998349682669
 20
13.25758628282255
 30
0.0
 11
30.35047808566088
 21
14.09808087165674
 31
0.0
  0
LINE
  5
4D6
330
3A4
100
AcDbEntity
  8
0
 62
     0
100
AcDbLine
 10
32.32723323743511
 20
16.97286163553775
 30
0.0
 11
34.45523323743515
 21
19.10086163553785
 31
0.0
  0
LINE
  5
4D7
330
3A4
100
AcDbEntity
  8
0
 62
     0
100
AcDbLine
 10
38.40047808566089
 20
23.04610648376359
 30
0.0
 11
41.20047808566096
 21
25.84610648376366
 31
0.0
  0
LINE
  5
4D8
330
3A4
100
AcDbEntity
  8
0
 62
     0
100
AcDbLine
 10
28.61195788471985
 20
13.2575862828225
 30
0.0
 11
30.35047808566094
 21
14.99610648376363
 31
0.0
  0
LINE
  5
4D9
330
3A4
100
AcDbEntity
  8
0
 62
     0
100
AcDbLine
 10
32.11170709052942
 20
17.65536110073901
 30
0.0
 11
34.23970709052946
 21
19.78336110073911
 31
0.0
  0
LINE
  5
4DA
330
3A4
100
AcDbEntity
  8
0
 62
     0
100
AcDbLine
 10
38.40047808566089
 20
23.94413209587054
 30
0.0
 11
41.20047808566096
 21
26.74413209587055
 31
0.0
  0
LINE
  5
4DB
330
3A4
100
AcDbEntity
  8
0
 62
     0
100
AcDbLine
 10
27.7950820202642
 20
13.33873603047385
 30
0.0
 11
30.35047808566094
 21
15.89413209587053
 31
0.0
  0
LINE
  5
4DC
330
3A4
100
AcDbEntity
  8
0
 62
     0
100
AcDbLine
 10
31.89618094362373
 20
18.33786056594027
 30
0.0
 11
34.02418094362377
 21
20.46586056594037
 31
0.0
  0
LINE
  5
4DD
330
3A4
100
AcDbEntity
  8
0
 62
     0
100
AcDbLine
 10
38.40047808566089
 20
24.84215770797743
 30
0.0
 11
41.2004780856609
 21
27.6421577079775
 31
0.0
  0
LINE
  5
4DE
330
3A4
100
AcDbEntity
  8
0
 62
     0
100
AcDbLine
 10
27.55047808566092
 20
13.99215770797747
 30
0.0
 11
30.35047808566099
 21
16.79215770797753
 31
0.0
  0
LINE
  5
4DF
330
3A4
100
AcDbEntity
  8
0
 62
     0
100
AcDbLine
 10
31.6806547967181
 20
19.02036003114147
 30
0.0
 11
33.80865479671825
 21
21.14836003114163
 31
0.0
  0
LINE
  5
4E0
330
3A4
100
AcDbEntity
  8
0
 62
     0
100
AcDbLine
 10
38.40047808566089
 20
25.74018332008432
 30
0.0
 11
41.20047808566096
 21
28.54018332008439
 31
0.0
  0
LINE
  5
4E1
330
3A4
100
AcDbEntity
  8
0
 62
     0
100
AcDbLine
 10
27.55047808566092
 20
14.89018332008436
 30
0.0
 11
30.35047808566099
 21
17.69018332008442
 31
0.0
  0
LINE
  5
4E2
330
3A4
100
AcDbEntity
  8
0
 62
     0
100
AcDbLine
 10
31.44585600974636
 20
19.68358685627674
 30
0.0
 11
34.07615007767736
 21
22.31388092420769
 31
0.0
  0
LINE
  5
4E3
330
3A4
100
AcDbEntity
  8
0
 62
     0
100
AcDbLine
 10
38.40047808566095
 20
26.63820893219133
 30
0.0
 11
41.00420266316251
 21
29.24193350969284
 31
0.0
  0
LINE
  5
4E4
330
3A4
100
AcDbEntity
  8
0
 62
     0
100
AcDbLine
 10
27.55047808566092
 20
15.7882089321913
 30
0.0
 11
30.35047808566099
 21
18.58820893219132
 31
0.0
  0
LINE
  5
4E5
330
3A4
100
AcDbEntity
  8
0
 62
     0
100
AcDbLine
 10
30.75867063987897
 20
19.8944270985163
 30
0.0
 11
34.49062343711125
 21
23.62637989574858
 31
0.0
  0
LINE
  5
4E6
330
3A4
100
AcDbEntity
  8
0
 62
     0
100
AcDbLine
 10
27.55047808566092
 20
16.6862345442982
 30
0.0
 11
30.36363726996722
 21
19.4993937286045
 31
0.0
  0
LINE
  5
4E7
330
3A4
100
AcDbEntity
  8
0
 62
     0
100
AcDbLine
 10
38.40047808566095
 20
27.53623454429822
 30
0.0
 11
40.2218298241853
 21
29.35758628282263
 31
0.0
  0
LINE
  5
4E8
330
3A4
100
AcDbEntity
  8
0
 62
     0
100
AcDbLine
 10
24.12182982418528
 20
13.25758628282255
 30
0.0
 11
25.10047808566094
 21
14.23623454429827
 31
0.0
  0
LINE
  5
4E9
330
3A4
100
AcDbEntity
  8
0
 62
     0
100
AcDbLine
 10
27.55047808566087
 20
17.58426015640515
 30
0.0
 11
34.90509679654519
 21
24.93887886728947
 31
0.0
  0
LINE
  5
4EA
330
3A4
100
AcDbEntity
  8
0
 62
     0
100
AcDbLine
 10
38.40047808566089
 20
28.43426015640517
 30
0.0
 11
39.3238042120783
 21
29.35758628282258
 31
0.0
  0
LINE
  5
4EB
330
3A4
100
AcDbEntity
  8
0
 62
     0
100
AcDbLine
 10
23.22380421207833
 20
13.25758628282261
 30
0.0
 11
25.10047808566099
 21
15.13426015640527
 31
0.0
  0
LINE
  5
4EC
330
3A4
100
AcDbEntity
  8
0
 62
     0
100
AcDbLine
 10
27.55047808566092
 20
18.48228576851198
 30
0.0
 11
35.3195701559793
 21
26.25137783883042
 31
0.0
  0
LINE
  5
4ED
330
3A4
100
AcDbEntity
  8
0
 62
     0
100
AcDbLine
 10
22.33745922432154
 20
13.26926690717266
 30
0.0
 11
24.95914380205476
 21
15.89095148490582
 31
0.0
  0
LINE
  5
4EE
330
3A4
100
AcDbEntity
  8
0
 62
     0
100
AcDbLine
 10
27.55047808566087
 20
19.38031138061893
 30
0.0
 11
30.87775298786453
 21
22.7075862828226
 31
0.0
  0
LINE
  5
4EF
330
3A4
100
AcDbEntity
  8
0
 62
     0
100
AcDbLine
 10
31.64173582310542
 20
23.47156911806348
 30
0.0
 11
35.73404351541324
 21
27.56387681037131
 31
0.0
  0
LINE
  5
4F0
330
3A4
100
AcDbEntity
  8
0
 62
     0
100
AcDbLine
 10
21.56929870687457
 20
13.39913200183258
 30
0.0
 11
24.2277529878645
 21
16.05758628282257
 31
0.0
  0
LINE
  5
4F1
330
3A4
100
AcDbEntity
  8
0
 62
     0
100
AcDbLine
 10
27.55047808566087
 20
20.27833699272588
 30
0.0
 11
30.3684686563692
 21
23.09632756343416
 31
0.0
  0
LINE
  5
4F2
330
3A4
100
AcDbEntity
  8
0
 62
     0
100
AcDbLine
 10
32.05620918253936
 20
24.78406808960432
 30
0.0
 11
36.10911496721456
 21
28.83697387427957
 31
0.0
  0
LINE
  5
4F3
330
3A4
100
AcDbEntity
  8
0
 62
     0
100
AcDbLine
 10
20.90816445004816
 20
13.63602335711317
 30
0.0
 11
23.32972737575761
 21
16.05758628282257
 31
0.0
  0
LINE
  5
4F4
330
3A4
100
AcDbEntity
  8
0
 62
     0
100
AcDbLine
 10
27.55047808566092
 20
21.17636260483271
 30
0.0
 11
30.35047808566094
 21
23.97636260483278
 31
0.0
  0
LINE
  5
4F5
330
3A4
100
AcDbEntity
  8
0
 62
     0
100
AcDbLine
 10
32.4706825419733
 20
26.09656706114515
 30
0.0
 11
35.71510309464537
 21
29.34098761381722
 31
0.0
  0
LINE
  5
4F6
330
3A4
100
AcDbEntity
  8
0
 62
     0
100
AcDbLine
 10
20.33056116588386
 20
13.95644568505565
 30
0.0
 11
22.44662302437672
 21
16.07250754354856
 31
0.0
  0
LINE
  5
4F7
330
3A4
100
AcDbEntity
  8
0
 62
     0
100
AcDbLine
 10
27.55047808566087
 20
22.07438821693966
 30
0.0
 11
30.35047808566094
 21
24.87438821693973
 31
0.0
  0
LINE
  5
4F8
330
3A4
100
AcDbEntity
  8
0
 62
     0
100
AcDbLine
 10
32.88515590140724
 20
27.40906603268598
 30
0.0
 11
34.83367615154378
 21
29.35758628282258
 31
0.0
  0
LINE
  5
4F9
330
3A4
100
AcDbEntity
  8
0
 62
     0
100
AcDbLine
 10
19.8256061995018
 20
14.34951633078054
 30
0.0
 11
21.81230688335841
 21
16.33621701463715
 31
0.0
  0
LINE
  5
4FA
330
3A4
100
AcDbEntity
  8
0
 62
     0
100
AcDbLine
 10
27.55047808566087
 20
22.97241382904656
 30
0.0
 11
30.35047808566094
 21
25.77241382904662
 31
0.0
  0
LINE
  5
4FB
330
3A4
100
AcDbEntity
  8
0
 62
     0
100
AcDbLine
 10
24.21211221743738
 20
19.63404796082312
 30
0.0
 11
25.37401640766046
 21
20.79595215104621
 31
0.0
  0
LINE
  5
4FC
330
3A4
100
AcDbEntity
  8
0
 62
     0
100
AcDbLine
 10
33.29962926084113
 20
28.72156500422687
 30
0.0
 11
33.93565053943683
 21
29.35758628282258
 31
0.0
  0
LINE
  5
4FD
330
3A4
100
AcDbEntity
  8
0
 62
     0
100
AcDbLine
 10
19.38916912617196
 20
14.8111048695577
 30
0.0
 11
21.40205593208623
 21
16.82399167547197
 31
0.0
  0
LINE
  5
4FE
330
3A4
100
AcDbEntity
  8
0
 62
     0
100
AcDbLine
 10
23.28713937580755
 20
19.60710073130025
 30
0.0
 11
25.40096363718333
 21
21.72092499267597
 31
0.0
  0
LINE
  5
4FF
330
3A4
100
AcDbEntity
  8
0
 62
     0
100
AcDbLine
 10
27.55047808566092
 20
23.87043944115356
 30
0.0
 11
30.35047808566099
 21
26.67043944115363
 31
0.0
  0
LINE
  5
500
330
3A4
100
AcDbEntity
  8
0
 62
     0
100
AcDbLine
 10
19.02214990122899
 20
15.34211125672163
 30
0.0
 11
21.25047808566091
 21
17.57043944115361
 31
0.0
  0
LINE
  5
501
330
3A4
100
AcDbEntity
  8
0
 62
     0
100
AcDbLine
 10
22.67299280638735
 20
19.89097977398682
 30
0.0
 11
25.1170845944967
 21
22.33507156209623
 31
0.0
  0
LINE
  5
502
330
3A4
100
AcDbEntity
  8
0
 62
     0
100
AcDbLine
 10
27.55047808566092
 20
24.76846505326045
 30
0.0
 11
30.35047808566099
 21
27.56846505326052
 31
0.0
  0
LINE
  5
503
330
3A4
100
AcDbEntity
  8
0
 62
     0
100
AcDbLine
 10
18.73083239130426
 20
15.94881935890379
 30
0.0
 11
21.25047808566091
 21
18.46846505326044
 31
0.0
  0
LINE
  5
504
330
3A4
100
AcDbEntity
  8
0
 62
     0
100
AcDbLine
 10
22.23503287939763
 20
20.35104545910411
 30
0.0
 11
24.65701890937947
 21
22.77303148908589
 31
0.0
  0
LINE
  5
505
330
3A4
100
AcDbEntity
  8
0
 62
     0
100
AcDbLine
 10
27.55047808566092
 20
25.6664906653674
 30
0.0
 11
30.35047808566099
 21
28.46649066536741
 31
0.0
  0
LINE
  5
506
330
3A4
100
AcDbEntity
  8
0
 62
     0
100
AcDbLine
 10
18.5296950271296
 20
16.64570760683608
 30
0.0
 11
21.25047808566091
 21
19.36649066536739
 31
0.0
  0
LINE
  5
507
330
3A4
100
AcDbEntity
  8
0
 62
     0
100
AcDbLine
 10
21.97898214698926
 20
20.99302033880263
 30
0.0
 11
24.01504402968089
 21
23.02908222149432
 31
0.0
  0
LINE
  5
508
330
3A4
100
AcDbEntity
  8
0
 62
     0
100
AcDbLine
 10
18.45047808566084
 20
17.46451627747427
 30
0.0
 11
21.25047808566091
 21
20.26451627747428
 31
0.0
  0
LINE
  5
509
330
3A4
100
AcDbEntity
  8
0
 62
     0
100
AcDbLine
 10
27.55047808566092
 20
26.56451627747429
 30
0.0
 11
30.1932279773058
 21
29.20726616911924
 31
0.0
  0
LINE
  5
50A
330
3A4
100
AcDbEntity
  8
0
 62
     0
100
AcDbLine
 10
14.36448132778525
 20
13.37851951959868
 30
0.0
 11
16.22954484888498
 21
15.24358304069841
 31
0.0
  0
LINE
  5
50B
330
3A4
100
AcDbEntity
  8
0
 62
     0
100
AcDbLine
 10
22.09739523047005
 20
22.00945903439031
 30
0.0
 11
22.99860533409327
 21
22.91066913801353
 31
0.0
  0
LINE
  5
50C
330
3A4
100
AcDbEntity
  8
0
 62
     0
100
AcDbLine
 10
18.45047808566084
 20
18.3625418895811
 30
0.0
 11
21.25047808566091
 21
21.16254188958117
 31
0.0
  0
LINE
  5
50D
330
3A4
100
AcDbEntity
  8
0
 62
     0
100
AcDbLine
 10
27.55047808566092
 20
27.46254188958118
 30
0.0
 11
29.44552247890232
 21
29.35758628282258
 31
0.0
  0
LINE
  5
50E
330
3A4
100
AcDbEntity
  8
0
 62
     0
100
AcDbLine
 10
13.34552247890229
 20
13.25758628282255
 30
0.0
 11
16.35047808566105
 21
16.26254188958125
 31
0.0
  0
LINE
  5
50F
330
3A4
100
AcDbEntity
  8
0
 62
     0
100
AcDbLine
 10
18.45047808566084
 20
19.26056750168805
 30
0.0
 11
21.25047808566091
 21
22.06056750168812
 31
0.0
  0
LINE
  5
510
330
3A4
100
AcDbEntity
  8
0
 62
     0
100
AcDbLine
 10
27.55047808566092
 20
28.36056750168808
 30
0.0
 11
28.54749686679543
 21
29.35758628282263
 31
0.0
  0
LINE
  5
511
330
3A4
100
AcDbEntity
  8
0
 62
     0
100
AcDbLine
 10
12.44749686679529
 20
13.2575862828225
 30
0.0
 11
16.35047808566099
 21
17.1605675016882
 31
0.0
  0
LINE
  5
512
330
3A4
100
AcDbEntity
  8
0
 62
     0
100
AcDbLine
 10
18.45047808566084
 20
20.15859311379494
 30
0.0
 11
21.25047808566085
 21
22.95859311379501
 31
0.0
  0
LINE
  5
513
330
3A4
100
AcDbEntity
  8
0
 62
     0
100
AcDbLine
 10
11.54947125468845
 20
13.25758628282261
 30
0.0
 11
16.34653873309974
 21
18.0546537612339
 31
0.0
  0
LINE
  5
514
330
3A4
100
AcDbEntity
  8
0
 62
     0
100
AcDbLine
 10
18.45047808566084
 20
21.05661872590189
 30
0.0
 11
21.25047808566091
 21
23.85661872590196
 31
0.0
  0
LINE
  5
515
330
3A4
100
AcDbEntity
  8
0
 62
     0
100
AcDbLine
 10
23.95144564258163
 20
26.55758628282268
 30
0.0
 11
25.10047808566105
 21
27.7066187259021
 31
0.0
  0
LINE
  5
516
330
3A4
100
AcDbEntity
  8
0
 62
     0
100
AcDbLine
 10
10.6514456425815
 20
13.25758628282255
 30
0.0
 11
16.23687689677842
 21
18.84301753701947
 31
0.0
  0
LINE
  5
517
330
3A4
100
AcDbEntity
  8
0
 62
     0
100
AcDbLine
 10
18.45047808566084
 20
21.95464433800879
 30
0.0
 11
21.25047808566091
 21
24.7546443380088
 31
0.0
  0
LINE
  5
518
330
3A4
100
AcDbEntity
  8
0
 62
     0
100
AcDbLine
 10
13.55047808566092
 20
17.05464433800887
 30
0.0
 11
16.0145381527343
 21
19.51870440508224
 31
0.0
  0
LINE
  5
519
330
3A4
100
AcDbEntity
  8
0
 62
     0
100
AcDbLine
 10
23.05342003047462
 20
26.55758628282256
 30
0.0
 11
25.10047808566105
 21
28.60464433800894
 31
0.0
  0
LINE
  5
51A
330
3A4
100
AcDbEntity
  8
0
 62
     0
100
AcDbLine
 10
9.811145905734576
 20
13.31531215808252
 30
0.0
 11
12.55342003047462
 21
16.05758628282257
 31
0.0
  0
LINE
  5
51B
330
3A4
100
AcDbEntity
  8
0
 62
     0
100
AcDbLine
 10
18.45047808566079
 20
22.85266995011568
 30
0.0
 11
21.41629279144058
 21
25.81848465589547
 31
0.0
  0
LINE
  5
51C
330
3A4
100
AcDbEntity
  8
0
 62
     0
100
AcDbLine
 10
13.54831899405167
 20
17.9505108585065
 30
0.0
 11
15.70610661806227
 21
20.10829848251717
 31
0.0
  0
LINE
  5
51D
330
3A4
100
AcDbEntity
  8
0
 62
     0
100
AcDbLine
 10
21.98957971258812
 20
26.39177157704301
 30
0.0
 11
24.86701067074113
 21
29.26920253519597
 31
0.0
  0
LINE
  5
51E
330
3A4
100
AcDbEntity
  8
0
 62
     0
100
AcDbLine
 10
9.52547808566095
 20
13.92766995011578
 30
0.0
 11
11.65539441836773
 21
16.05758628282257
 31
0.0
  0
LINE
  5
51F
330
3A4
100
AcDbEntity
  8
0
 62
     0
100
AcDbLine
 10
13.32871597455095
 20
18.6289334511128
 30
0.0
 11
15.32386465322338
 21
20.62408212978522
 31
0.0
  0
LINE
  5
520
330
3A4
100
AcDbEntity
  8
0
 62
     0
100
AcDbLine
 10
18.45047808566079
 20
23.75069556222263
 30
0.0
 11
24.05736880626085
 21
29.35758628282269
 31
0.0
  0
LINE
  5
521
330
3A4
100
AcDbEntity
  8
0
 62
     0
100
AcDbLine
 10
9.525478085660893
 20
14.82569556222273
 30
0.0
 11
10.75736880626078
 21
16.05758628282262
 31
0.0
  0
LINE
  5
522
330
3A4
100
AcDbEntity
  8
0
 62
     0
100
AcDbLine
 10
12.90246114624625
 20
19.10070423491492
 30
0.0
 11
14.88236013356862
 21
21.08060322223729
 31
0.0
  0
LINE
  5
523
330
3A4
100
AcDbEntity
  8
0
 62
     0
100
AcDbLine
 10
18.45047808566084
 20
24.64872117432946
 30
0.0
 11
23.15934319415379
 21
29.35758628282247
 31
0.0
  0
LINE
  5
524
330
3A4
100
AcDbEntity
  8
0
 62
     0
100
AcDbLine
 10
9.594430007680671
 20
15.79267309634934
 30
0.0
 11
9.790391272134286
 21
15.98863436080296
 31
0.0
  0
LINE
  5
525
330
3A4
100
AcDbEntity
  8
0
 62
     0
100
AcDbLine
 10
18.47045319981742
 20
25.56672190059299
 30
0.0
 11
22.24134246789043
 21
29.33761116866605
 31
0.0
  0
LINE
  5
526
330
3A4
100
AcDbEntity
  8
0
 62
     0
100
AcDbLine
 10
12.45344834019277
 20
19.5497170409684
 30
0.0
 11
14.43334732751515
 21
21.52961602829077
 31
0.0
  0
LINE
  5
527
330
3A4
100
AcDbEntity
  8
0
 62
     0
100
AcDbLine
 10
18.7699166320832
 20
26.76421094496578
 30
0.0
 11
21.0438534235177
 21
29.03814773640027
 31
0.0
  0
LINE
  5
528
330
3A4
100
AcDbEntity
  8
0
 62
     0
100
AcDbLine
 10
12.0044355341393
 20
19.99872984702187
 30
0.0
 11
13.98433452146167
 21
21.97862883434424
 31
0.0
  0
LINE
  5
529
330
3A4
100
AcDbEntity
  8
0
 62
     0
100
AcDbLine
 10
11.55542272808588
 20
20.44774265307529
 30
0.0
 11
13.5353217154082
 21
22.42764164039755
 31
0.0
  0
LINE
  5
52A
330
3A4
100
AcDbEntity
  8
0
 62
     0
100
AcDbLine
 10
11.10640992203241
 20
20.89675545912876
 30
0.0
 11
13.08630890935472
 21
22.87665444645103
 31
0.0
  0
LINE
  5
52B
330
3A4
100
AcDbEntity
  8
0
 62
     0
100
AcDbLine
 10
10.65739711597893
 20
21.34576826518224
 30
0.0
 11
12.63729610330125
 21
23.3256672525045
 31
0.0
  0
LINE
  5
52C
330
3A4
100
AcDbEntity
  8
0
 62
     0
100
AcDbLine
 10
14.97118952151237
 20
26.55758628282256
 30
0.0
 11
15.82547808566084
 21
27.4118748469711
 31
0.0
  0
LINE
  5
52D
330
3A4
100
AcDbEntity
  8
0
 62
     0
100
AcDbLine
 10
10.20846762395359
 20
21.79486438526385
 30
0.0
 11
12.18853326738605
 21
23.7749300286963
 31
0.0
  0
LINE
  5
52E
330
3A4
100
AcDbEntity
  8
0
 62
     0
100
AcDbLine
 10
14.07316390940548
 20
26.55758628282256
 30
0.0
 11
15.8254780856609
 21
28.30990045907799
 31
0.0
  0
LINE
  5
52F
330
3A4
100
AcDbEntity
  8
0
 62
     0
100
AcDbLine
 10
9.796999699402022
 20
22.28142207281905
 30
0.0
 11
11.85863638609811
 21
24.3430587595152
 31
0.0
  0
LINE
  5
530
330
3A4
100
AcDbEntity
  8
0
 62
     0
100
AcDbLine
 10
13.17513829729853
 20
26.55758628282256
 30
0.0
 11
15.73891918589976
 21
29.12136717142379
 31
0.0
  0
LINE
  5
531
330
3A4
100
AcDbEntity
  8
0
 62
     0
100
AcDbLine
 10
9.456539093139554
 20
22.83898707866353
 30
0.0
 11
11.80047808566098
 21
25.18292607118496
 31
0.0
  0
LINE
  5
532
330
3A4
100
AcDbEntity
  8
0
 62
     0
100
AcDbLine
 10
12.27464603602152
 20
26.55511963365245
 30
0.0
 11
15.0771126851917
 21
29.35758628282263
 31
0.0
  0
LINE
  5
533
330
3A4
100
AcDbEntity
  8
0
 62
     0
100
AcDbLine
 10
9.195845797407457
 20
23.47631939503838
 30
0.0
 11
11.80294473483104
 21
26.08341833246203
 31
0.0
  0
LINE
  5
534
330
3A4
100
AcDbEntity
  8
0
 62
     0
100
AcDbLine
 10
9.034033835159391
 20
24.21253304489721
 30
0.0
 11
14.17908707308481
 21
29.35758628282263
 31
0.0
  0
LINE
  5
535
330
3A4
100
AcDbEntity
  8
0
 62
     0
100
AcDbLine
 10
9.000478085660972
 20
25.07700290750574
 30
0.0
 11
13.2810614609778
 21
29.35758628282258
 31
0.0
  0
LINE
  5
536
330
3A4
100
AcDbEntity
  8
0
 62
     0
100
AcDbLine
 10
9.000478085660972
 20
25.97502851961263
 30
0.0
 11
12.38303584887086
 21
29.35758628282258
 31
0.0
  0
LINE
  5
537
330
3A4
100
AcDbEntity
  8
0
 62
     0
100
AcDbLine
 10
9.020670096099195
 20
26.8932461421578
 30
0.0
 11
11.4648182263258
 21
29.33739427238441
 31
0.0
  0
ENDBLK
  5
539
330
3A4
100
AcDbEntity
  8
0
100
AcDbBlockEnd
  0
BLOCK
  5
9226
330
921C
100
AcDbEntity
  8
0
 48
0.5
100
AcDbBlockBegin
  2
*D2
 70
     1
 10
0.0
 20
0.0
 30
0.0
  3
*D2
  1

  0
LINE
  5
95C7
330
921C
100
AcDbEntity
  8
SUNPOU
  6
Continuous
 62
     4
 48
0.5
370
    -2
100
AcDbLine
 10
687.4335997004652
 20
383.2895889077468
 30
0.0
 11
681.4898116285755
 21
403.1012687822777
 31
0.0
  0
LINE
  5
95C8
330
921C
100
AcDbEntity
  8
SUNPOU
  6
Continuous
 62
     4
 48
0.5
370
    -2
100
AcDbLine
 10
495.8690073201663
 20
325.8174640603122
 30
0.0
 11
489.9252192482765
 21
345.6291439348432
 31
0.0
  0
LINE
  5
95C9
330
921C
100
AcDbEntity
  8
SUNPOU
  6
Continuous
 62
     4
 48
0.5
370
    -2
100
AcDbLine
 10
675.6471355569998
 20
398.2162778587817
 30
0.0
 11
497.4920582422393
 21
344.7671998302512
 31
0.0
  0
INSERT
  5
95CA
330
921C
100
AcDbEntity
  8
SUNPOU
  6
Continuous
 62
     4
 48
0.5
370
    -2
100
AcDbBlockReference
  2
_OPEN
 10
682.3518930897692
 20
400.2278012682337
 30
0.0
 41
7.0
 42
7.0
 43
7.0
 50
16.69999803883234
  0
INSERT
  5
95CB
330
921C
100
AcDbEntity
  8
SUNPOU
  6
Continuous
 62
     4
 48
0.5
370
    -2
100
AcDbBlockReference
  2
_OPEN
 10
490.7873007094702
 20
342.7556764207992
 30
0.0
 41
7.0
 42
7.0
 43
7.0
 50
196.6999980388323
  0
MTEXT
  5
95CC
330
921C
100
AcDbEntity
  8
SUNPOU
  6
Continuous
 62
     4
 48
0.5
100
AcDbMText
 10
585.1327944642969
 20
376.2808513679231
 30
0.0
 40
6.0
 41
0.0
 71
     5
 72
     5
  1
\A1;200
 11
0.9578225046813294
 21
0.287360487064566
 31
0.0
 73
     1
 44
1.0
1001
ACAD
1000
MTEXTBEGIN
1070
    73
1070
     1
1070
    44
1040
1.0
1070
    74
1070
     0
1000
MTEXTEND
1000
MTEXTBEGIN
1070
    73
1070
     1
1070
    44
1040
1.0
1070
    74
1070
     0
1000
MTEXTEND
  0
POINT
  5
95CD
330
921C
100
AcDbEntity
  8
DEFPOINTS
  6
Continuous
 62
     0
 48
0.5
100
AcDbPoint
 10
689.1577626228527
 20
377.5426538796588
 30
0.0
  0
POINT
  5
95CE
330
921C
100
AcDbEntity
  8
DEFPOINTS
  6
Continuous
 62
     0
 48
0.5
100
AcDbPoint
 10
497.5931702425537
 20
320.0705290322242
 30
0.0
  0
POINT
  5
95CF
330
921C
100
AcDbEntity
  8
DEFPOINTS
  6
Continuous
 62
     0
 48
0.5
100
AcDbPoint
 10
490.7873007094702
 20
342.7556764207992
 30
0.0
  0
ENDBLK
  5
9227
330
921C
100
AcDbEntity
  8
0
 48
0.5
100
AcDbBlockEnd
  0
BLOCK
  5
9232
330
9228
100
AcDbEntity
  8
0
 48
0.5
100
AcDbBlockBegin
  2
*D3
 70
     1
 10
0.0
 20
0.0
 30
0.0
  3
*D3
  1

  0
LINE
  5
95BE
330
9228
100
AcDbEntity
  8
SUNPOU
  6
Continuous
 62
     4
 48
0.5
370
    -2
100
AcDbLine
 10
504.8135972068437
 20
315.1306970323576
 30
0.0
 11
542.9815788213398
 21
310.481404676906
 31
0.0
  0
LINE
  5
95BF
330
9228
100
AcDbEntity
  8
SUNPOU
  6
Continuous
 62
     4
 48
0.5
370
    -2
100
AcDbLine
 10
482.5651750507479
 20
132.4841128033174
 30
0.0
 11
520.733156665244
 21
127.8348204478658
 31
0.0
  0
LINE
  5
95C0
330
9228
100
AcDbEntity
  8
SUNPOU
  6
Continuous
 62
     4
 48
0.5
370
    -2
100
AcDbLine
 10
539.1571683781182
 20
303.8955194090185
 30
0.0
 11
518.6015917769265
 21
135.1462109535694
 31
0.0
  0
INSERT
  5
95C1
330
9228
100
AcDbEntity
  8
SUNPOU
  6
Continuous
 62
     4
 48
0.5
370
    -2
100
AcDbBlockReference
  2
_OPEN
 10
540.0035911555703
 20
310.844157295814
 30
0.0
 41
7.0
 42
7.0
 43
7.0
 50
83.05494065639397
  0
INSERT
  5
95C2
330
9228
100
AcDbEntity
  8
SUNPOU
  6
Continuous
 62
     4
 48
0.5
370
    -2
100
AcDbBlockReference
  2
_OPEN
 10
517.7551689994744
 20
128.1975730667739
 30
0.0
 41
7.0
 42
7.0
 43
7.0
 50
263.0549406563939
  0
MTEXT
  5
95C3
330
9228
100
AcDbEntity
  8
SUNPOU
  6
Continuous
 62
     4
 48
0.5
100
AcDbMText
 10
523.9160673012399
 20
220.125452879474
 30
0.0
 40
6.0
 41
0.0
 71
     5
 72
     5
  1
\A1;184
 11
0.1209175396360032
 21
0.9926625552565059
 31
0.0
 73
     1
 44
1.0
1001
ACAD
1000
MTEXTBEGIN
1070
    73
1070
     1
1070
    44
1040
1.0
1070
    74
1070
     0
1000
MTEXTEND
1000
MTEXTBEGIN
1070
    73
1070
     1
1070
    44
1040
1.0
1070
    74
1070
     0
1000
MTEXTEND
  0
POINT
  5
95C4
330
9228
100
AcDbEntity
  8
DEFPOINTS
  6
Continuous
 62
     0
 48
0.5
100
AcDbPoint
 10
498.8576218753046
 20
315.8562022701736
 30
0.0
  0
POINT
  5
95C5
330
9228
100
AcDbEntity
  8
DEFPOINTS
  6
Continuous
 62
     0
 48
0.5
100
AcDbPoint
 10
476.6091997192089
 20
133.2096180411334
 30
0.0
  0
POINT
  5
95C6
330
9228
100
AcDbEntity
  8
DEFPOINTS
  6
Continuous
 62
     0
 48
0.5
100
AcDbPoint
 10
517.7551689994744
 20
128.1975730667739
 30
0.0
  0
ENDBLK
  5
9233
330
9228
100
AcDbEntity
  8
0
 48
0.5
100
AcDbBlockEnd
  0
BLOCK
  5
923E
330
9234
100
AcDbEntity
  8
0
 48
0.5
100
AcDbBlockBegin
  2
*D4
 70
     1
 10
0.0
 20
0.0
 30
0.0
  3
*D4
  1

  0
LINE
  5
95EB
330
9234
100
AcDbEntity
  8
SUNPOU
 48
0.5
100
AcDbLine
 10
498.8575614503393
 20
321.8560954027184
 30
0.0
 11
498.8575614503393
 21
353.049170471068
 31
0.0
  0
LINE
  5
95EC
330
9234
100
AcDbEntity
  8
SUNPOU
 48
0.5
100
AcDbLine
 10
381.9698839494364
 20
146.0856456222364
 30
0.0
 11
381.9698839494364
 21
353.049170471068
 31
0.0
  0
LINE
  5
95ED
330
9234
100
AcDbEntity
  8
SUNPOU
 48
0.5
100
AcDbLine
 10
491.8575614503394
 20
350.049170471068
 30
0.0
 11
388.9698839494363
 21
350.049170471068
 31
0.0
  0
INSERT
  5
95EE
330
9234
100
AcDbEntity
  8
SUNPOU
 48
0.5
100
AcDbBlockReference
  2
_OPEN
 10
498.8575614503393
 20
350.049170471068
 30
0.0
 41
7.0
 42
7.0
 43
7.0
  0
INSERT
  5
95EF
330
9234
100
AcDbEntity
  8
SUNPOU
 48
0.5
100
AcDbBlockReference
  2
_OPEN
 10
381.9698839494364
 20
350.049170471068
 30
0.0
 41
7.0
 42
7.0
 43
7.0
 50
180.0
  0
MTEXT
  5
95F0
330
9234
100
AcDbEntity
  8
SUNPOU
 48
0.5
100
AcDbMText
 10
440.4137226998878
 20
355.049170471068
 30
0.0
 40
6.0
 41
0.0
 71
     5
 72
     5
  1
\A1;117
 73
     1
 44
1.0
1001
ACAD
1000
MTEXTBEGIN
1070
    73
1070
     1
1070
    44
1040
1.0
1070
    74
1070
     0
1000
MTEXTEND
1000
MTEXTBEGIN
1070
    73
1070
     1
1070
    44
1040
1.0
1070
    74
1070
     0
1000
MTEXTEND
  0
POINT
  5
95F1
330
9234
100
AcDbEntity
  8
DEFPOINTS
 62
     0
 48
0.5
100
AcDbPoint
 10
498.8575614503393
 20
315.8560954027184
 30
0.0
  0
POINT
  5
95F2
330
9234
100
AcDbEntity
  8
DEFPOINTS
 62
     0
 48
0.5
100
AcDbPoint
 10
381.9698839494364
 20
140.0856456222364
 30
0.0
  0
POINT
  5
95F3
330
9234
100
AcDbEntity
  8
DEFPOINTS
 62
     0
 48
0.5
100
AcDbPoint
 10
381.9698839494364
 20
350.049170471068
 30
0.0
  0
ENDBLK
  5
923F
330
9234
100
AcDbEntity
  8
0
 48
0.5
100
AcDbBlockEnd
  0
BLOCK
  5
924A
330
9240
100
AcDbEntity
  8
0
 48
0.5
100
AcDbBlockBegin
  2
*D5
 70
     1
 10
0.0
 20
0.0
 30
0.0
  3
*D5
  1

  0
LINE
  5
95E2
330
9240
100
AcDbEntity
  8
SUNPOU
 48
0.5
100
AcDbLine
 10
274.9976350994267
 20
318.8839456222363
 30
0.0
 11
274.9976350994267
 21
371.9215274415096
 31
0.0
  0
LINE
  5
95E3
330
9240
100
AcDbEntity
  8
SUNPOU
 48
0.5
100
AcDbLine
 10
491.2171350994266
 20
259.1327456222363
 30
0.0
 11
491.2171350994266
 21
371.9215274415096
 31
0.0
  0
LINE
  5
95E4
330
9240
100
AcDbEntity
  8
SUNPOU
 48
0.5
100
AcDbLine
 10
281.9976350994267
 20
368.9215274415096
 30
0.0
 11
484.2171350994266
 21
368.9215274415096
 31
0.0
  0
INSERT
  5
95E5
330
9240
100
AcDbEntity
  8
SUNPOU
 48
0.5
100
AcDbBlockReference
  2
_OPEN
 10
274.9976350994267
 20
368.9215274415096
 30
0.0
 41
7.0
 42
7.0
 43
7.0
 50
180.0
  0
INSERT
  5
95E6
330
9240
100
AcDbEntity
  8
SUNPOU
 48
0.5
100
AcDbBlockReference
  2
_OPEN
 10
491.2171350994266
 20
368.9215274415096
 30
0.0
 41
7.0
 42
7.0
 43
7.0
  0
MTEXT
  5
95E7
330
9240
100
AcDbEntity
  8
SUNPOU
 48
0.5
100
AcDbMText
 10
383.1073850994266
 20
373.9215274415096
 30
0.0
 40
6.0
 41
0.0
 71
     5
 72
     5
  1
\A1;216
 73
     1
 44
1.0
1001
ACAD
1000
MTEXTBEGIN
1070
    73
1070
     1
1070
    44
1040
1.0
1070
    74
1070
     0
1000
MTEXTEND
1000
MTEXTBEGIN
1070
    73
1070
     1
1070
    44
1040
1.0
1070
    74
1070
     0
1000
MTEXTEND
  0
POINT
  5
95E8
330
9240
100
AcDbEntity
  8
DEFPOINTS
 62
     0
 48
0.5
100
AcDbPoint
 10
274.9976350994267
 20
312.8839456222363
 30
0.0
  0
POINT
  5
95E9
330
9240
100
AcDbEntity
  8
DEFPOINTS
 62
     0
 48
0.5
100
AcDbPoint
 10
491.2171350994266
 20
253.1327456222363
 30
0.0
  0
POINT
  5
95EA
330
9240
100
AcDbEntity
  8
DEFPOINTS
 62
     0
 48
0.5
100
AcDbPoint
 10
491.2171350994266
 20
368.9215274415096
 30
0.0
  0
ENDBLK
  5
924B
330
9240
100
AcDbEntity
  8
0
 48
0.5
100
AcDbBlockEnd
  0
BLOCK
  5
9256
330
924C
100
AcDbEntity
  8
0
 48
0.5
100
AcDbBlockBegin
  2
*D6
 70
     1
 10
0.0
 20
0.0
 30
0.0
  3
*D6
  1

  0
LINE
  5
95D9
330
924C
100
AcDbEntity
  8
SUNPOU
  6
Continuous
 62
     4
 48
0.5
370
    -2
100
AcDbLine
 10
268.9976350994267
 20
312.8839456222363
 30
0.0
 11
246.7678990162363
 21
312.8839456222363
 31
0.0
  0
LINE
  5
95DA
330
924C
100
AcDbEntity
  8
SUNPOU
  6
Continuous
 62
     4
 48
0.5
370
    -2
100
AcDbLine
 10
269.7976350994266
 20
280.8839456222362
 30
0.0
 11
246.7678990162363
 21
280.8839456222362
 31
0.0
  0
LINE
  5
95DB
330
924C
100
AcDbEntity
  8
SUNPOU
  6
Continuous
 62
     4
 48
0.5
370
    -2
100
AcDbLine
 10
249.7678990162363
 20
305.8839456222362
 30
0.0
 11
249.7678990162363
 21
287.8839456222363
 31
0.0
  0
INSERT
  5
95DC
330
924C
100
AcDbEntity
  8
SUNPOU
  6
Continuous
 62
     4
 48
0.5
370
    -2
100
AcDbBlockReference
  2
_OPEN
 10
249.7678990162363
 20
312.8839456222363
 30
0.0
 41
7.0
 42
7.0
 43
7.0
 50
90.0
  0
INSERT
  5
95DD
330
924C
100
AcDbEntity
  8
SUNPOU
  6
Continuous
 62
     4
 48
0.5
370
    -2
100
AcDbBlockReference
  2
_OPEN
 10
249.7678990162363
 20
280.8839456222362
 30
0.0
 41
7.0
 42
7.0
 43
7.0
 50
270.0
  0
MTEXT
  5
95DE
330
924C
100
AcDbEntity
  8
SUNPOU
  6
Continuous
 62
     4
 48
0.5
100
AcDbMText
 10
244.7678990162363
 20
296.8839456222363
 30
0.0
 40
6.0
 41
0.0
 71
     5
 72
     5
  1
\A1;32
 11
0.0000000000000001
 21
1.0
 31
0.0
 73
     1
 44
1.0
1001
ACAD
1000
MTEXTBEGIN
1070
    73
1070
     1
1070
    44
1040
1.0
1070
    74
1070
     0
1000
MTEXTEND
1000
MTEXTBEGIN
1070
    73
1070
     1
1070
    44
1040
1.0
1070
    74
1070
     0
1000
MTEXTEND
  0
POINT
  5
95DF
330
924C
100
AcDbEntity
  8
DEFPOINTS
  6
Continuous
 62
     0
 48
0.5
100
AcDbPoint
 10
274.9976350994267
 20
312.8839456222363
 30
0.0
  0
POINT
  5
95E0
330
924C
100
AcDbEntity
  8
DEFPOINTS
  6
Continuous
 62
     0
 48
0.5
100
AcDbPoint
 10
275.7976350994266
 20
280.8839456222362
 30
0.0
  0
POINT
  5
95E1
330
924C
100
AcDbEntity
  8
DEFPOINTS
  6
Continuous
 62
     0
 48
0.5
100
AcDbPoint
 10
249.7678990162363
 20
280.8839456222362
 30
0.0
  0
ENDBLK
  5
9257
330
924C
100
AcDbEntity
  8
0
 48
0.5
100
AcDbBlockEnd
  0
BLOCK
  5
9262
330
9258
100
AcDbEntity
  8
0
 48
0.5
100
AcDbBlockBegin
  2
*D7
 70
     1
 10
0.0
 20
0.0
 30
0.0
  3
*D7
  1

  0
LINE
  5
95D0
330
9258
100
AcDbEntity
  8
SUNPOU
  6
Continuous
 62
     4
 48
0.5
370
    -2
100
AcDbLine
 10
304.4594350994266
 20
102.4974456222363
 30
0.0
 11
224.0445690629149
 21
102.4974456222363
 31
0.0
  0
LINE
  5
95D1
330
9258
100
AcDbEntity
  8
SUNPOU
  6
Continuous
 62
     4
 48
0.5
370
    -2
100
AcDbLine
 10
268.9976350994267
 20
312.8839456222363
 30
0.0
 11
224.044569062915
 21
312.8839456222363
 31
0.0
  0
LINE
  5
95D2
330
9258
100
AcDbEntity
  8
SUNPOU
  6
Continuous
 62
     4
 48
0.5
370
    -2
100
AcDbLine
 10
227.0445690629149
 20
109.4974456222363
 30
0.0
 11
227.0445690629149
 21
305.8839456222362
 31
0.0
  0
INSERT
  5
95D3
330
9258
100
AcDbEntity
  8
SUNPOU
  6
Continuous
 62
     4
 48
0.5
370
    -2
100
AcDbBlockReference
  2
_OPEN
 10
227.0445690629149
 20
102.4974456222363
 30
0.0
 41
7.0
 42
7.0
 43
7.0
 50
270.0
  0
INSERT
  5
95D4
330
9258
100
AcDbEntity
  8
SUNPOU
  6
Continuous
 62
     4
 48
0.5
370
    -2
100
AcDbBlockReference
  2
_OPEN
 10
227.0445690629149
 20
312.8839456222363
 30
0.0
 41
7.0
 42
7.0
 43
7.0
 50
90.0
  0
MTEXT
  5
95D5
330
9258
100
AcDbEntity
  8
SUNPOU
  6
Continuous
 62
     4
 48
0.5
100
AcDbMText
 10
222.0445690629149
 20
207.6906956222363
 30
0.0
 40
6.0
 41
0.0
 71
     5
 72
     5
  1
\A1;210
 11
0.0000000000000001
 21
1.0
 31
0.0
 73
     1
 44
1.0
1001
ACAD
1000
MTEXTBEGIN
1070
    73
1070
     1
1070
    44
1040
1.0
1070
    74
1070
     0
1000
MTEXTEND
1000
MTEXTBEGIN
1070
    73
1070
     1
1070
    44
1040
1.0
1070
    74
1070
     0
1000
MTEXTEND
  0
POINT
  5
95D6
330
9258
100
AcDbEntity
  8
DEFPOINTS
  6
Continuous
 62
     0
 48
0.5
100
AcDbPoint
 10
310.4594350994266
 20
102.4974456222363
 30
0.0
  0
POINT
  5
95D7
330
9258
100
AcDbEntity
  8
DEFPOINTS
  6
Continuous
 62
     0
 48
0.5
100
AcDbPoint
 10
274.9976350994267
 20
312.8839456222363
 30
0.0
  0
POINT
  5
95D8
330
9258
100
AcDbEntity
  8
DEFPOINTS
  6
Continuous
 62
     0
 48
0.5
100
AcDbPoint
 10
227.0445690629149
 20
312.8839456222363
 30
0.0
  0
ENDBLK
  5
9263
330
9258
100
AcDbEntity
  8
0
 48
0.5
100
AcDbBlockEnd
  0
BLOCK
  5
926D
330
9264
100
AcDbEntity
  8
0
 48
0.5
100
AcDbBlockBegin
  2
*D8
 70
     1
 10
0.0
 20
0.0
 30
0.0
  3
*D8
  1

  0
LINE
  5
9782
330
9264
100
AcDbEntity
  8
SUNPOU
  6
Continuous
 62
     4
 48
0.5
100
AcDbLine
 10
308.1869350994267
 20
131.2856456222363
 30
0.0
 11
246.7678990162363
 21
131.2856456222363
 31
0.0
  0
LINE
  5
9783
330
9264
100
AcDbEntity
  8
SUNPOU
  6
Continuous
 62
     4
 48
0.5
100
AcDbLine
 10
249.7678990162363
 20
273.8839456222363
 30
0.0
 11
249.7678990162363
 21
138.2856456222363
 31
0.0
  0
INSERT
  5
9784
330
9264
100
AcDbEntity
  8
SUNPOU
  6
Continuous
 62
     4
 48
0.5
100
AcDbBlockReference
  2
_OPEN
 10
249.7678990162363
 20
280.8839456222362
 30
0.0
 41
7.0
 42
7.0
 43
7.0
 50
90.0
  0
INSERT
  5
9785
330
9264
100
AcDbEntity
  8
SUNPOU
  6
Continuous
 62
     4
 48
0.5
100
AcDbBlockReference
  2
_OPEN
 10
249.7678990162363
 20
131.2856456222363
 30
0.0
 41
7.0
 42
7.0
 43
7.0
 50
270.0
  0
MTEXT
  5
9786
330
9264
100
AcDbEntity
  8
SUNPOU
  6
Continuous
 62
     4
 48
0.5
100
AcDbMText
 10
244.7678990162363
 20
206.0847956222363
 30
0.0
 40
6.0
 41
0.0
 71
     5
 72
     5
  1
\A1;150
 11
0.0000000000000001
 21
1.0
 31
0.0
 73
     1
 44
1.0
  0
POINT
  5
9787
330
9264
100
AcDbEntity
  8
DEFPOINTS
  6
Continuous
 62
     0
 48
0.5
100
AcDbPoint
 10
275.7976350994266
 20
280.8839456222362
 30
0.0
  0
POINT
  5
9788
330
9264
100
AcDbEntity
  8
DEFPOINTS
  6
Continuous
 62
     0
 48
0.5
100
AcDbPoint
 10
314.1869350994267
 20
131.2856456222363
 30
0.0
  0
POINT
  5
9789
330
9264
100
AcDbEntity
  8
DEFPOINTS
  6
Continuous
 62
     0
 48
0.5
100
AcDbPoint
 10
249.7678990162363
 20
131.2856456222363
 30
0.0
  0
ENDBLK
  5
926E
330
9264
100
AcDbEntity
  8
0
 48
0.5
100
AcDbBlockEnd
  0
BLOCK
  5
927B
330
926F
100
AcDbEntity
  8
0
 48
0.5
100
AcDbBlockBegin
  2
*D9
 70
     1
 10
0.0
 20
0.0
 30
0.0
  3
*D9
  1

  0
LINE
  5
95FC
330
926F
100
AcDbEntity
  8
SUNPOU
  6
Continuous
 62
     4
 48
0.5
370
    -2
100
AcDbLine
 10
300.1668107370579
 20
187.230605151073
 30
0.0
 11
299.906474112868
 21
189.3738044366896
 31
0.0
  0
LINE
  5
95FD
330
926F
100
AcDbEntity
  8
SUNPOU
  6
Continuous
 62
     4
 48
0.5
370
    -2
100
AcDbLine
 10
296.1959771313062
 20
186.7482639040042
 30
0.0
 11
295.9356405071163
 21
188.8914631896208
 31
0.0
  0
LINE
  5
95FE
330
926F
100
AcDbEntity
  8
SUNPOU
  6
Continuous
 62
     4
 48
0.5
370
    -2
100
AcDbLine
 10
307.2171494256575
 20
187.2397879252794
 30
0.0
 11
314.1660707543867
 21
188.0838805547533
 31
0.0
  0
LINE
  5
95FF
330
926F
100
AcDbEntity
  8
SUNPOU
  6
Continuous
 62
     4
 48
0.5
370
    -2
100
AcDbLine
 10
289.3484731624472
 20
185.069261419263
 30
0.0
 11
261.5527878475304
 21
181.6928909013677
 31
0.0
  0
LINE
  5
9600
330
926F
100
AcDbEntity
  8
SUNPOU
  6
Continuous
 62
     4
 48
0.5
370
    -2
100
AcDbLine
 10
300.2682280969283
 20
186.3956952958056
 30
0.0
 11
296.2973944911765
 21
185.9133540487368
 31
0.0
  0
INSERT
  5
9601
330
926F
100
AcDbEntity
  8
SUNPOU
  6
Continuous
 62
     4
 48
0.5
370
    -2
100
AcDbBlockReference
  2
_OPEN
 10
300.2682280969283
 20
186.3956952958056
 30
0.0
 41
7.0
 42
7.0
 43
7.0
 50
186.9258462369777
  0
INSERT
  5
9602
330
926F
100
AcDbEntity
  8
SUNPOU
  6
Continuous
 62
     4
 48
0.5
370
    -2
100
AcDbBlockReference
  2
_OPEN
 10
296.2973944911765
 20
185.9133540487368
 30
0.0
 41
7.0
 42
7.0
 43
7.0
 50
6.925846236977774
  0
MTEXT
  5
9603
330
926F
100
AcDbEntity
  8
SUNPOU
  6
Continuous
 62
     4
 48
0.5
100
AcDbMText
 10
271.3732465338572
 20
187.922545080385
 30
0.0
 40
6.0
 41
0.0
 71
     5
 72
     5
  1
\A1;t4.0
 11
0.9927030469613182
 21
0.1205846613534048
 31
0.0
 73
     1
 44
1.0
1001
ACAD
1000
MTEXTBEGIN
1070
    73
1070
     1
1070
    44
1040
1.0
1070
    74
1070
     0
1000
MTEXTEND
1000
MTEXTBEGIN
1070
    73
1070
     1
1070
    44
1040
1.0
1070
    74
1070
     0
1000
MTEXTEND
  0
POINT
  5
9604
330
926F
100
AcDbEntity
  8
DEFPOINTS
  6
Continuous
 62
     0
 48
0.5
100
AcDbPoint
 10
300.8903187051783
 20
181.2743868693051
 30
0.0
  0
POINT
  5
9605
330
926F
100
AcDbEntity
  8
DEFPOINTS
  6
Continuous
 62
     0
 48
0.5
100
AcDbPoint
 10
296.9194850994266
 20
180.7920456222363
 30
0.0
  0
POINT
  5
9606
330
926F
100
AcDbEntity
  8
DEFPOINTS
  6
Continuous
 62
     0
 48
0.5
100
AcDbPoint
 10
296.2973944911765
 20
185.9133540487368
 30
0.0
  0
ENDBLK
  5
927C
330
926F
100
AcDbEntity
  8
0
 48
0.5
100
AcDbBlockEnd
  0
BLOCK
  5
9287
330
927D
100
AcDbEntity
  8
0
 48
0.5
100
AcDbBlockBegin
  2
*D10
 70
     1
 10
0.0
 20
0.0
 30
0.0
  3
*D10
  1

  0
LINE
  5
9607
330
927D
100
AcDbEntity
  8
SUNPOU
  6
Continuous
 62
     4
 48
0.5
370
    -2
100
AcDbLine
 10
466.4518350994265
 20
259.1856456222363
 30
0.0
 11
431.5952997760169
 21
259.1856456222363
 31
0.0
  0
LINE
  5
9608
330
927D
100
AcDbEntity
  8
SUNPOU
  6
Continuous
 62
     4
 48
0.5
370
    -2
100
AcDbLine
 10
445.6341350994265
 20
131.2856456222363
 30
0.0
 11
431.5952997760169
 21
131.2856456222363
 31
0.0
  0
LINE
  5
9609
330
927D
100
AcDbEntity
  8
SUNPOU
  6
Continuous
 62
     4
 48
0.5
370
    -2
100
AcDbLine
 10
434.595299776017
 20
252.1856456222364
 30
0.0
 11
434.595299776017
 21
138.2856456222363
 31
0.0
  0
INSERT
  5
960A
330
927D
100
AcDbEntity
  8
SUNPOU
  6
Continuous
 62
     4
 48
0.5
370
    -2
100
AcDbBlockReference
  2
_OPEN
 10
434.595299776017
 20
259.1856456222363
 30
0.0
 41
7.0
 42
7.0
 43
7.0
 50
90.0
  0
INSERT
  5
960B
330
927D
100
AcDbEntity
  8
SUNPOU
  6
Continuous
 62
     4
 48
0.5
370
    -2
100
AcDbBlockReference
  2
_OPEN
 10
434.595299776017
 20
131.2856456222363
 30
0.0
 41
7.0
 42
7.0
 43
7.0
 50
270.0
  0
MTEXT
  5
960C
330
927D
100
AcDbEntity
  8
SUNPOU
  6
Continuous
 62
     4
 48
0.5
100
AcDbMText
 10
429.5952997760169
 20
195.2356456222364
 30
0.0
 40
6.0
 41
0.0
 71
     5
 72
     5
  1
\A1;128
 11
0.0000000000000001
 21
1.0
 31
0.0
 73
     1
 44
1.0
1001
ACAD
1000
MTEXTBEGIN
1070
    73
1070
     1
1070
    44
1040
1.0
1070
    74
1070
     0
1000
MTEXTEND
1000
MTEXTBEGIN
1070
    73
1070
     1
1070
    44
1040
1.0
1070
    74
1070
     0
1000
MTEXTEND
  0
POINT
  5
960D
330
927D
100
AcDbEntity
  8
DEFPOINTS
  6
Continuous
 62
     0
 48
0.5
100
AcDbPoint
 10
472.4518350994266
 20
259.1856456222363
 30
0.0
  0
POINT
  5
960E
330
927D
100
AcDbEntity
  8
DEFPOINTS
  6
Continuous
 62
     0
 48
0.5
100
AcDbPoint
 10
451.6341350994265
 20
131.2856456222363
 30
0.0
  0
POINT
  5
960F
330
927D
100
AcDbEntity
  8
DEFPOINTS
  6
Continuous
 62
     0
 48
0.5
100
AcDbPoint
 10
434.595299776017
 20
131.2856456222363
 30
0.0
  0
ENDBLK
  5
9288
330
927D
100
AcDbEntity
  8
0
 48
0.5
100
AcDbBlockEnd
  0
BLOCK
  5
9293
330
9289
100
AcDbEntity
  8
0
 48
0.5
100
AcDbBlockBegin
  2
*D11
 70
     1
 10
0.0
 20
0.0
 30
0.0
  3
*D11
  1

  0
LINE
  5
9610
330
9289
100
AcDbEntity
  8
SUNPOU
 48
0.5
100
AcDbLine
 10
274.9976350994267
 20
318.8839456222363
 30
0.0
 11
274.9976350994267
 21
387.5070011713
 31
0.0
  0
LINE
  5
9611
330
9289
100
AcDbEntity
  8
SUNPOU
 48
0.5
100
AcDbLine
 10
498.8575614503393
 20
321.8560954027184
 30
0.0
 11
498.8575614503393
 21
387.5070011713
 31
0.0
  0
LINE
  5
9612
330
9289
100
AcDbEntity
  8
SUNPOU
 48
0.5
100
AcDbLine
 10
281.9976350994267
 20
384.5070011713001
 30
0.0
 11
491.8575614503394
 21
384.5070011713001
 31
0.0
  0
INSERT
  5
9613
330
9289
100
AcDbEntity
  8
SUNPOU
 48
0.5
100
AcDbBlockReference
  2
_OPEN
 10
274.9976350994267
 20
384.5070011713001
 30
0.0
 41
7.0
 42
7.0
 43
7.0
 50
180.0
  0
INSERT
  5
9614
330
9289
100
AcDbEntity
  8
SUNPOU
 48
0.5
100
AcDbBlockReference
  2
_OPEN
 10
498.8575614503393
 20
384.5070011713001
 30
0.0
 41
7.0
 42
7.0
 43
7.0
  0
MTEXT
  5
9615
330
9289
100
AcDbEntity
  8
SUNPOU
 48
0.5
100
AcDbMText
 10
386.927598274883
 20
389.5070011713
 30
0.0
 40
6.0
 41
0.0
 71
     5
 72
     5
  1
\A1;224
 73
     1
 44
1.0
1001
ACAD
1000
MTEXTBEGIN
1070
    73
1070
     1
1070
    44
1040
1.0
1070
    74
1070
     0
1000
MTEXTEND
1000
MTEXTBEGIN
1070
    73
1070
     1
1070
    44
1040
1.0
1070
    74
1070
     0
1000
MTEXTEND
  0
POINT
  5
9616
330
9289
100
AcDbEntity
  8
DEFPOINTS
 62
     0
 48
0.5
100
AcDbPoint
 10
274.9976350994267
 20
312.8839456222363
 30
0.0
  0
POINT
  5
9617
330
9289
100
AcDbEntity
  8
DEFPOINTS
 62
     0
 48
0.5
100
AcDbPoint
 10
498.8575614503393
 20
315.8560954027184
 30
0.0
  0
POINT
  5
9618
330
9289
100
AcDbEntity
  8
DEFPOINTS
 62
     0
 48
0.5
100
AcDbPoint
 10
498.8575614503393
 20
384.5070011713001
 30
0.0
  0
ENDBLK
  5
9294
330
9289
100
AcDbEntity
  8
0
 48
0.5
100
AcDbBlockEnd
  0
BLOCK
  5
929F
330
9295
100
AcDbEntity
  8
0
 48
0.5
100
AcDbBlockBegin
  2
*D12
 70
     1
 10
0.0
 20
0.0
 30
0.0
  3
*D12
  1

  0
LINE
  5
962D
330
9295
100
AcDbEntity
  8
SUNPOU
  6
Continuous
 62
     4
 48
0.5
370
    -2
100
AcDbLine
 10
666.799731523277
 20
472.9477128486627
 30
0.0
 11
700.4173763946501
 21
483.0333572885796
 31
0.0
  0
LINE
  5
962E
330
9295
100
AcDbEntity
  8
SUNPOU
  6
Continuous
 62
     4
 48
0.5
370
    -2
100
AcDbLine
 10
672.2595315232768
 20
454.7490128486625
 30
0.0
 11
705.8771763946499
 21
464.8346572885794
 31
0.0
  0
LINE
  5
962F
330
9295
100
AcDbEntity
  8
SUNPOU
  6
Continuous
 62
     4
 48
0.5
370
    -2
100
AcDbLine
 10
699.5554052148442
 20
475.4665213788229
 30
0.0
 11
700.992206377106
 21
470.6773508393056
 31
0.0
  0
INSERT
  5
9630
330
9295
100
AcDbEntity
  8
SUNPOU
  6
Continuous
 62
     4
 48
0.5
370
    -2
100
AcDbBlockReference
  2
_OPEN
 10
697.5439057959752
 20
482.1712861090643
 30
0.0
 41
7.0
 42
7.0
 43
7.0
 50
106.699793026435
  0
INSERT
  5
9631
330
9295
100
AcDbEntity
  8
SUNPOU
  6
Continuous
 62
     4
 48
0.5
370
    -2
100
AcDbBlockReference
  2
_OPEN
 10
703.003705795975
 20
463.9725861090641
 30
0.0
 41
7.0
 42
7.0
 43
7.0
 50
286.699793026435
  0
MTEXT
  5
9632
330
9295
100
AcDbEntity
  8
SUNPOU
  6
Continuous
 62
     4
 48
0.5
100
AcDbMText
 10
705.0629234604332
 20
474.5087214082564
 30
0.0
 40
6.0
 41
0.0
 71
     5
 72
     5
  1
\A1;19
 11
0.2873570598384265
 21
-0.957823532891636
 31
0.0
 73
     1
 44
1.0
1001
ACAD
1000
MTEXTBEGIN
1070
    73
1070
     1
1070
    44
1040
1.0
1070
    74
1070
     0
1000
MTEXTEND
1000
MTEXTBEGIN
1070
    73
1070
     1
1070
    44
1040
1.0
1070
    74
1070
     0
1000
MTEXTEND
  0
POINT
  5
9633
330
9295
100
AcDbEntity
  8
DEFPOINTS
  6
Continuous
 62
     0
 48
0.5
100
AcDbPoint
 10
661.0527903259272
 20
471.2235704896321
 30
0.0
  0
POINT
  5
9634
330
9295
100
AcDbEntity
  8
DEFPOINTS
  6
Continuous
 62
     0
 48
0.5
100
AcDbPoint
 10
666.512590325927
 20
453.024870489632
 30
0.0
  0
POINT
  5
9635
330
9295
100
AcDbEntity
  8
DEFPOINTS
  6
Continuous
 62
     0
 48
0.5
100
AcDbPoint
 10
703.003705795975
 20
463.9725861090641
 30
0.0
  0
ENDBLK
  5
92A0
330
9295
100
AcDbEntity
  8
0
 48
0.5
100
AcDbBlockEnd
  0
BLOCK
  5
92AA
330
92A1
100
AcDbEntity
  8
0
 48
0.5
100
AcDbBlockBegin
  2
*D13
 70
     1
 10
0.0
 20
0.0
 30
0.0
  3
*D13
  1

  0
LINE
  5
978A
330
92A1
100
AcDbEntity
  8
SUNPOU
  6
Continuous
 62
     4
 48
0.5
100
AcDbLine
 10
572.4948813172812
 20
348.8063251133159
 30
0.0
 11
570.3293803670337
 21
356.0243165819537
 31
0.0
  0
LINE
  5
978B
330
92A1
100
AcDbEntity
  8
SUNPOU
  6
Continuous
 62
     4
 48
0.5
100
AcDbLine
 10
660.2689552543973
 20
379.8753745121647
 30
0.0
 11
577.8962193609968
 21
355.1623724773618
 31
0.0
  0
INSERT
  5
978C
330
92A1
100
AcDbEntity
  8
SUNPOU
  6
Continuous
 62
     4
 48
0.5
100
AcDbBlockReference
  2
_OPEN
 10
666.9737127871664
 20
381.8868979216167
 30
0.0
 41
7.0
 42
7.0
 43
7.0
 50
16.69999803883314
  0
INSERT
  5
978D
330
92A1
100
AcDbEntity
  8
SUNPOU
  6
Continuous
 62
     4
 48
0.5
100
AcDbBlockReference
  2
_OPEN
 10
571.1914618282276
 20
353.1508490679097
 30
0.0
 41
7.0
 42
7.0
 43
7.0
 50
196.6999980388331
  0
MTEXT
  5
978E
330
92A1
100
AcDbEntity
  8
SUNPOU
  6
Continuous
 62
     4
 48
0.5
100
AcDbMText
 10
617.6457848723742
 20
372.3079860181699
 30
0.0
 40
6.0
 41
0.0
 71
     5
 72
     5
  1
\A1;100
 11
0.9578225046813255
 21
0.2873604870645797
 31
0.0
 73
     1
 44
1.0
  0
POINT
  5
978F
330
92A1
100
AcDbEntity
  8
DEFPOINTS
  6
Continuous
 62
     0
 48
0.5
100
AcDbPoint
 10
670.0012951986081
 20
371.7954389389336
 30
0.0
  0
POINT
  5
9790
330
92A1
100
AcDbEntity
  8
DEFPOINTS
  6
Continuous
 62
     0
 48
0.5
100
AcDbPoint
 10
574.2190442396687
 20
343.0593900852278
 30
0.0
  0
POINT
  5
9791
330
92A1
100
AcDbEntity
  8
DEFPOINTS
  6
Continuous
 62
     0
 48
0.5
100
AcDbPoint
 10
571.1914618282276
 20
353.1508490679097
 30
0.0
  0
ENDBLK
  5
92AB
330
92A1
100
AcDbEntity
  8
0
 48
0.5
100
AcDbBlockEnd
  0
BLOCK
  5
92B6
330
92AC
100
AcDbEntity
  8
0
 48
0.5
100
AcDbBlockBegin
  2
*D14
 70
     1
 10
0.0
 20
0.0
 30
0.0
  3
*D14
  1

  0
LINE
  5
9624
330
92AC
100
AcDbEntity
  8
SUNPOU
  6
Continuous
 62
     4
 48
0.5
370
    -2
100
AcDbLine
 10
652.4801236920145
 20
464.9974638551076
 30
0.0
 11
645.9223150314098
 21
486.8557672945139
 31
0.0
  0
LINE
  5
9625
330
92AC
100
AcDbEntity
  8
SUNPOU
  6
Continuous
 62
     4
 48
0.5
370
    -2
100
AcDbLine
 10
633.3238013291638
 20
459.2502887806705
 30
0.0
 11
626.7659926685592
 21
481.1085922200769
 31
0.0
  0
LINE
  5
9626
330
92AC
100
AcDbEntity
  8
SUNPOU
  6
Continuous
 62
     4
 48
0.5
370
    -2
100
AcDbLine
 10
640.079639814734
 20
481.9707753485182
 30
0.0
 11
634.3328318133668
 21
480.2466494397226
 31
0.0
  0
INSERT
  5
9627
330
92AC
100
AcDbEntity
  8
SUNPOU
  6
Continuous
 62
     4
 48
0.5
370
    -2
100
AcDbBlockReference
  2
_OPEN
 10
646.7843969954758
 20
483.982299931339
 30
0.0
 41
7.0
 42
7.0
 43
7.0
 50
16.70000806590311
  0
INSERT
  5
9628
330
92AC
100
AcDbEntity
  8
SUNPOU
  6
Continuous
 62
     4
 48
0.5
370
    -2
100
AcDbBlockReference
  2
_OPEN
 10
627.6280746326251
 20
478.2351248569018
 30
0.0
 41
7.0
 42
7.0
 43
7.0
 50
196.7000080659031
  0
MTEXT
  5
9629
330
92AC
100
AcDbEntity
  8
SUNPOU
  6
Continuous
 62
     4
 48
0.5
100
AcDbMText
 10
635.7694325406071
 20
485.8978246660788
 30
0.0
 40
6.0
 41
0.0
 71
     5
 72
     5
  1
\A1;20
 11
0.957822454391678
 21
0.2873606546886717
 31
0.0
 73
     1
 44
1.0
1001
ACAD
1000
MTEXTBEGIN
1070
    73
1070
     1
1070
    44
1040
1.0
1070
    74
1070
     0
1000
MTEXTEND
1000
MTEXTBEGIN
1070
    73
1070
     1
1070
    44
1040
1.0
1070
    74
1070
     0
1000
MTEXTEND
  0
POINT
  5
962A
330
92AC
100
AcDbEntity
  8
DEFPOINTS
  6
Continuous
 62
     0
 48
0.5
100
AcDbPoint
 10
654.2042876201466
 20
459.2505291287576
 30
0.0
  0
POINT
  5
962B
330
92AC
100
AcDbEntity
  8
DEFPOINTS
  6
Continuous
 62
     0
 48
0.5
100
AcDbPoint
 10
635.0479652572959
 20
453.5033540543205
 30
0.0
  0
POINT
  5
962C
330
92AC
100
AcDbEntity
  8
DEFPOINTS
  6
Continuous
 62
     0
 48
0.5
100
AcDbPoint
 10
627.6280746326251
 20
478.2351248569018
 30
0.0
  0
ENDBLK
  5
92B7
330
92AC
100
AcDbEntity
  8
0
 48
0.5
100
AcDbBlockEnd
  0
BLOCK
  5
92C2
330
92B8
100
AcDbEntity
  8
0
 48
0.5
100
AcDbBlockBegin
  2
*D15
 70
     1
 10
0.0
 20
0.0
 30
0.0
  3
*D15
  1

  0
LINE
  5
9647
330
92B8
100
AcDbEntity
  8
SUNPOU
  6
Continuous
 62
     4
 48
0.5
370
    -2
100
AcDbLine
 10
696.3780920831042
 20
372.6027348797957
 30
0.0
 11
717.8469681438209
 21
369.9875826729702
 31
0.0
  0
LINE
  5
9648
330
92B8
100
AcDbEntity
  8
SUNPOU
  6
Continuous
 62
     4
 48
0.5
370
    -2
100
AcDbLine
 10
703.0285567630843
 20
427.1991754189036
 30
0.0
 11
724.4974328238011
 21
424.584023212078
 31
0.0
  0
LINE
  5
9649
330
92B8
100
AcDbEntity
  8
SUNPOU
  6
Continuous
 62
     4
 48
0.5
370
    -2
100
AcDbLine
 10
715.7154032555034
 20
377.2989731786736
 30
0.0
 11
720.6730223805796
 21
417.9981379441905
 31
0.0
  0
INSERT
  5
964A
330
92B8
100
AcDbEntity
  8
SUNPOU
  6
Continuous
 62
     4
 48
0.5
370
    -2
100
AcDbBlockReference
  2
_OPEN
 10
714.8689804780515
 20
370.3503352918782
 30
0.0
 41
7.0
 42
7.0
 43
7.0
 50
263.054940656394
  0
INSERT
  5
964B
330
92B8
100
AcDbEntity
  8
SUNPOU
  6
Continuous
 62
     4
 48
0.5
370
    -2
100
AcDbBlockReference
  2
_OPEN
 10
721.5194451580316
 20
424.9467758309861
 30
0.0
 41
7.0
 42
7.0
 43
7.0
 50
83.05494065639404
  0
MTEXT
  5
964C
330
92B8
100
AcDbEntity
  8
SUNPOU
  6
Continuous
 62
     4
 48
0.5
100
AcDbMText
 10
713.230900041759
 20
398.253143259612
 30
0.0
 40
6.0
 41
0.0
 71
     5
 72
     5
  1
\A1;55
 11
0.1209175396360023
 21
0.9926625552565059
 31
0.0
 73
     1
 44
1.0
1001
ACAD
1000
MTEXTBEGIN
1070
    73
1070
     1
1070
    44
1040
1.0
1070
    74
1070
     0
1000
MTEXTEND
1000
MTEXTBEGIN
1070
    73
1070
     1
1070
    44
1040
1.0
1070
    74
1070
     0
1000
MTEXTEND
  0
POINT
  5
964D
330
92B8
100
AcDbEntity
  8
DEFPOINTS
  6
Continuous
 62
     0
 48
0.5
100
AcDbPoint
 10
690.4221167515652
 20
373.3282401176117
 30
0.0
  0
POINT
  5
964E
330
92B8
100
AcDbEntity
  8
DEFPOINTS
  6
Continuous
 62
     0
 48
0.5
100
AcDbPoint
 10
697.0725814315454
 20
427.9246806567195
 30
0.0
  0
POINT
  5
964F
330
92B8
100
AcDbEntity
  8
DEFPOINTS
  6
Continuous
 62
     0
 48
0.5
100
AcDbPoint
 10
721.5194451580316
 20
424.9467758309861
 30
0.0
  0
ENDBLK
  5
92C3
330
92B8
100
AcDbEntity
  8
0
 48
0.5
100
AcDbBlockEnd
  0
BLOCK
  5
92CE
330
92C4
100
AcDbEntity
  8
0
 48
0.5
100
AcDbBlockBegin
  2
*D16
 70
     1
 10
0.0
 20
0.0
 30
0.0
  3
*D16
  1

  0
LINE
  5
963E
330
92C4
100
AcDbEntity
  8
SUNPOU
  6
Continuous
 62
     4
 48
0.5
370
    -2
100
AcDbLine
 10
687.4335997004651
 20
383.2895889077468
 30
0.0
 11
685.2680987502179
 21
390.5075803763844
 31
0.0
  0
LINE
  5
963F
330
92C4
100
AcDbEntity
  8
SUNPOU
  6
Continuous
 62
     4
 48
0.5
370
    -2
100
AcDbLine
 10
668.2771322762206
 20
377.5423739670216
 30
0.0
 11
666.1116313259734
 21
384.7603654356592
 31
0.0
  0
LINE
  5
9640
330
92C4
100
AcDbEntity
  8
SUNPOU
  6
Continuous
 62
     4
 48
0.5
370
    -2
100
AcDbLine
 10
679.4254226786423
 20
385.6225894528884
 30
0.0
 11
673.6784703199365
 21
383.8984213310672
 31
0.0
  0
INSERT
  5
9641
330
92C4
100
AcDbEntity
  8
SUNPOU
  6
Continuous
 62
     4
 48
0.5
370
    -2
100
AcDbBlockReference
  2
_OPEN
 10
686.1301802114117
 20
387.6341128623404
 30
0.0
 41
7.0
 42
7.0
 43
7.0
 50
16.6999980388321
  0
INSERT
  5
9642
330
92C4
100
AcDbEntity
  8
SUNPOU
  6
Continuous
 62
     4
 48
0.5
370
    -2
100
AcDbBlockReference
  2
_OPEN
 10
666.9737127871671
 20
381.8868979216152
 30
0.0
 41
7.0
 42
7.0
 43
7.0
 50
196.699998038832
  0
MTEXT
  5
9643
330
92C4
100
AcDbEntity
  8
SUNPOU
  6
Continuous
 62
     4
 48
0.5
100
AcDbMText
 10
675.1151440639667
 20
389.5496179153845
 30
0.0
 40
6.0
 41
0.0
 71
     5
 72
     5
  1
\A1;20
 11
0.9578225046813308
 21
0.2873604870645617
 31
0.0
 73
     1
 44
1.0
1001
ACAD
1000
MTEXTBEGIN
1070
    73
1070
     1
1070
    44
1040
1.0
1070
    74
1070
     0
1000
MTEXTEND
1000
MTEXTBEGIN
1070
    73
1070
     1
1070
    44
1040
1.0
1070
    74
1070
     0
1000
MTEXTEND
  0
POINT
  5
9644
330
92C4
100
AcDbEntity
  8
DEFPOINTS
  6
Continuous
 62
     0
 48
0.5
100
AcDbPoint
 10
689.1577626228524
 20
377.5426538796588
 30
0.0
  0
POINT
  5
9645
330
92C4
100
AcDbEntity
  8
DEFPOINTS
  6
Continuous
 62
     0
 48
0.5
100
AcDbPoint
 10
670.001295198608
 20
371.7954389389336
 30
0.0
  0
POINT
  5
9646
330
92C4
100
AcDbEntity
  8
DEFPOINTS
  6
Continuous
 62
     0
 48
0.5
100
AcDbPoint
 10
666.9737127871671
 20
381.8868979216152
 30
0.0
  0
ENDBLK
  5
92CF
330
92C4
100
AcDbEntity
  8
0
 48
0.5
100
AcDbBlockEnd
  0
BLOCK
  5
92DC
330
92D0
100
AcDbEntity
  8
0
 48
0.5
100
AcDbBlockBegin
  2
*D17
 70
     1
 10
0.0
 20
0.0
 30
0.0
  3
*D17
  1

  0
LINE
  5
9619
330
92D0
100
AcDbEntity
  8
SUNPOU
  6
Continuous
 62
     4
 48
0.5
370
    -2
100
AcDbLine
 10
654.9706232660922
 20
463.6565403714144
 30
0.0
 11
681.6098171331901
 21
471.6487157141274
 31
0.0
  0
LINE
  5
961A
330
92D0
100
AcDbEntity
  8
SUNPOU
  6
Continuous
 62
     4
 48
0.5
370
    -2
100
AcDbLine
 10
657.2695232660922
 20
455.9939403714145
 30
0.0
 11
683.9087171331901
 21
463.9861157141274
 31
0.0
  0
LINE
  5
961B
330
92D0
100
AcDbEntity
  8
SUNPOU
  6
Continuous
 62
     4
 48
0.5
370
    -2
100
AcDbLine
 10
676.7248191343615
 20
477.4913858700955
 30
0.0
 11
674.7132876056155
 21
484.1961409669547
 31
0.0
  0
LINE
  5
961C
330
92D0
100
AcDbEntity
  8
SUNPOU
  6
Continuous
 62
     4
 48
0.5
370
    -2
100
AcDbLine
 10
683.0467821918538
 20
456.419275676377
 30
0.0
 11
685.0583137205999
 21
449.7145205795177
 31
0.0
  0
LINE
  5
961D
330
92D0
100
AcDbEntity
  8
SUNPOU
  6
Continuous
 62
     4
 48
0.5
370
    -2
100
AcDbLine
 10
678.7363506631077
 20
470.7866307732362
 30
0.0
 11
681.0352506631077
 21
463.1240307732362
 31
0.0
  0
INSERT
  5
961E
330
92D0
100
AcDbEntity
  8
SUNPOU
  6
Continuous
 62
     4
 48
0.5
370
    -2
100
AcDbBlockReference
  2
_OPEN
 10
678.7363506631077
 20
470.7866307732362
 30
0.0
 41
7.0
 42
7.0
 43
7.0
 50
286.7000674226047
  0
INSERT
  5
961F
330
92D0
100
AcDbEntity
  8
SUNPOU
  6
Continuous
 62
     4
 48
0.5
370
    -2
100
AcDbBlockReference
  2
_OPEN
 10
681.0352506631077
 20
463.1240307732362
 30
0.0
 41
7.0
 42
7.0
 43
7.0
 50
106.7000674226047
  0
MTEXT
  5
9620
330
92D0
100
AcDbEntity
  8
SUNPOU
  6
Continuous
 62
     4
 48
0.5
100
AcDbMText
 10
684.6749114465786
 20
468.3921390080548
 30
0.0
 40
6.0
 41
0.0
 71
     5
 72
     5
  1
\A1;8
 11
0.2873616469637278
 21
-0.957822156694182
 31
0.0
 73
     1
 44
1.0
1001
ACAD
1000
MTEXTBEGIN
1070
    73
1070
     1
1070
    44
1040
1.0
1070
    74
1070
     0
1000
MTEXTEND
1000
MTEXTBEGIN
1070
    73
1070
     1
1070
    44
1040
1.0
1070
    74
1070
     0
1000
MTEXTEND
  0
POINT
  5
9621
330
92D0
100
AcDbEntity
  8
DEFPOINTS
  6
Continuous
 62
     0
 48
0.5
100
AcDbPoint
 10
649.2236903259271
 20
461.9323704896321
 30
0.0
  0
POINT
  5
9622
330
92D0
100
AcDbEntity
  8
DEFPOINTS
  6
Continuous
 62
     0
 48
0.5
100
AcDbPoint
 10
651.522590325927
 20
454.2697704896321
 30
0.0
  0
POINT
  5
9623
330
92D0
100
AcDbEntity
  8
DEFPOINTS
  6
Continuous
 62
     0
 48
0.5
100
AcDbPoint
 10
681.0352506631077
 20
463.1240307732362
 30
0.0
  0
ENDBLK
  5
92DD
330
92D0
100
AcDbEntity
  8
0
 48
0.5
100
AcDbBlockEnd
  0
BLOCK
  5
95B3
330
95A9
100
AcDbEntity
  8
0
 48
0.5
100
AcDbBlockBegin
  2
*D18
 70
     1
 10
0.0
 20
0.0
 30
0.0
  3
*D18
  1

  0
LINE
  5
96CA
330
95A9
100
AcDbEntity
  8
SUNPOU
  6
Continuous
 62
     4
 48
0.5
370
    -2
100
AcDbLine
 10
153.18082390958
 20
379.6725683293749
 30
0.0
 11
153.18082390958
 21
403.9217129149565
 31
0.0
  0
LINE
  5
96CB
330
95A9
100
AcDbEntity
  8
SUNPOU
  6
Continuous
 62
     4
 48
0.5
370
    -2
100
AcDbLine
 10
133.1808222131838
 20
379.6725683293749
 30
0.0
 11
133.1808222131838
 21
403.9217129149565
 31
0.0
  0
LINE
  5
96CC
330
95A9
100
AcDbEntity
  8
SUNPOU
  6
Continuous
 62
     4
 48
0.5
370
    -2
100
AcDbLine
 10
146.18082390958
 20
400.9217129149565
 30
0.0
 11
140.1808222131838
 21
400.9217129149565
 31
0.0
  0
INSERT
  5
96CD
330
95A9
100
AcDbEntity
  8
SUNPOU
  6
Continuous
 62
     4
 48
0.5
370
    -2
100
AcDbBlockReference
  2
_OPEN
 10
153.18082390958
 20
400.9217129149565
 30
0.0
 41
7.0
 42
7.0
 43
7.0
  0
INSERT
  5
96CE
330
95A9
100
AcDbEntity
  8
SUNPOU
  6
Continuous
 62
     4
 48
0.5
370
    -2
100
AcDbBlockReference
  2
_OPEN
 10
133.1808222131838
 20
400.9217129149565
 30
0.0
 41
7.0
 42
7.0
 43
7.0
 50
180.0
  0
MTEXT
  5
96CF
330
95A9
100
AcDbEntity
  8
SUNPOU
  6
Continuous
 62
     4
 48
0.5
100
AcDbMText
 10
143.1808230613819
 20
405.9217129149565
 30
0.0
 40
6.0
 41
0.0
 71
     5
 72
     5
  1
\A1;20
 73
     1
 44
1.0
1001
ACAD
1000
MTEXTBEGIN
1070
    73
1070
     1
1070
    44
1040
1.0
1070
    74
1070
     0
1000
MTEXTEND
1000
MTEXTBEGIN
1070
    73
1070
     1
1070
    44
1040
1.0
1070
    74
1070
     0
1000
MTEXTEND
  0
POINT
  5
96D0
330
95A9
100
AcDbEntity
  8
DEFPOINTS
  6
Continuous
 62
     0
 48
0.5
100
AcDbPoint
 10
153.18082390958
 20
373.6725683293749
 30
0.0
  0
POINT
  5
96D1
330
95A9
100
AcDbEntity
  8
DEFPOINTS
  6
Continuous
 62
     0
 48
0.5
100
AcDbPoint
 10
133.1808222131838
 20
373.6725683293749
 30
0.0
  0
POINT
  5
96D2
330
95A9
100
AcDbEntity
  8
DEFPOINTS
  6
Continuous
 62
     0
 48
0.5
100
AcDbPoint
 10
133.1808222131838
 20
400.9217129149565
 30
0.0
  0
ENDBLK
  5
95B4
330
95A9
100
AcDbEntity
  8
0
 48
0.5
100
AcDbBlockEnd
  0
ENDSEC
  0
SECTION
  2
ENTITIES
  0
LWPOLYLINE
  5
6C0
330
1A
100
AcDbEntity
  8
ZUWAKU
100
AcDbPolyline
 90
        4
 70
     1
 43
0.0
 10
10.85047808566059
 20
564.5825862828226
 10
10.85047808566059
 20
14.58258628282271
 10
806.8504780856606
 20
14.58258628282271
 10
806.8504780856606
 20
564.5825862828226
  0
LWPOLYLINE
  5
6C1
330
1A
100
AcDbEntity
  8
ZUWAKU
100
AcDbPolyline
 90
        4
 70
     1
 43
0.0
 10
10.45047808566073
 20
564.9825862828227
 10
10.45047808566073
 20
14.18258628282274
 10
807.2504780856606
 20
14.18258628282272
 10
807.2504780856606
 20
564.9825862828227
  0
LWPOLYLINE
  5
6C2
330
1A
100
AcDbEntity
  8
ZUWAKU
100
AcDbPolyline
 90
        4
 70
     1
 43
0.0
 10
10.05047808566086
 20
565.3825862828226
 10
10.05047808566086
 20
13.78258628282265
 10
807.6504780856607
 20
13.78258628282271
 10
807.6504780856607
 20
565.3825862828227
  0
LWPOLYLINE
  5
6C3
330
1A
100
AcDbEntity
  8
ZUWAKU
100
AcDbPolyline
 90
        4
 70
     1
 43
0.0
 10
10.65047808566077
 20
564.7825862828227
 10
10.65047808566077
 20
14.38258628282267
 10
807.0504780856609
 20
14.38258628282271
 10
807.0504780856609
 20
564.7825862828227
  0
LWPOLYLINE
  5
6C4
330
1A
100
AcDbEntity
  8
ZUWAKU
100
AcDbPolyline
 90
        4
 70
     1
 43
0.0
 10
10.25047808566068
 20
565.1825862828227
 10
10.25047808566068
 20
13.98258628282269
 10
807.4504780856605
 20
13.98258628282271
 10
807.450478085661
 20
565.1825862828227
  0
LINE
  5
6C5
330
1A
100
AcDbEntity
  8
ZUWAKU
100
AcDbLine
 10
10.05047808566086
 20
43.78258628282265
 30
0.0
 11
807.4504780856605
 21
43.78258628282265
 31
0.0
  0
LINE
  5
6C6
330
1A
100
AcDbEntity
  8
ZUWAKU
100
AcDbLine
 10
10.05047808566086
 20
43.98258628282265
 30
0.0
 11
807.4504780856605
 21
43.98258628282265
 31
0.0
  0
LINE
  5
6C7
330
1A
100
AcDbEntity
  8
ZUWAKU
100
AcDbLine
 10
10.05047808566086
 20
44.18258628282266
 30
0.0
 11
807.4504780856605
 21
44.18258628282266
 31
0.0
  0
LINE
  5
6C8
330
1A
100
AcDbEntity
  8
ZUWAKU
100
AcDbLine
 10
10.05047808566086
 20
44.38258628282265
 30
0.0
 11
807.4504780856605
 21
44.38258628282265
 31
0.0
  0
LINE
  5
6C9
330
1A
100
AcDbEntity
  8
ZUWAKU
100
AcDbLine
 10
10.05047808566086
 20
44.58258628282266
 30
0.0
 11
807.4504780856605
 21
44.58258628282266
 31
0.0
  0
LINE
  5
6CA
330
1A
100
AcDbEntity
  8
ZUWAKU
100
AcDbLine
 10
218.6970793757286
 20
29.18258628282268
 30
0.0
 11
457.474842056652
 21
29.18258628282268
 31
0.0
  0
LINE
  5
6CB
330
1A
100
AcDbEntity
  8
ZUWAKU
100
AcDbLine
 10
218.6970793757286
 20
29.38258628282268
 30
0.0
 11
457.474842056652
 21
29.38258628282268
 31
0.0
  0
LINE
  5
6CC
330
1A
100
AcDbEntity
  8
ZUWAKU
100
AcDbLine
 10
218.6970793757286
 20
28.98258628282269
 30
0.0
 11
457.474842056652
 21
28.98258628282268
 31
0.0
  0
LINE
  5
6D2
330
1A
100
AcDbEntity
  8
ZUWAKU
100
AcDbLine
 10
22.57284175945824
 20
29.44753577648383
 30
0.0
 11
25.48263973410303
 21
26.53773780183917
 31
0.0
  0
LINE
  5
6D3
330
1A
100
AcDbEntity
  8
ZUWAKU
100
AcDbLine
 10
27.46253872142551
 20
28.51763678916148
 30
0.0
 11
24.55274074678072
 21
31.42743476380615
 31
0.0
  0
ARC
  5
6D4
330
1A
100
AcDbEntity
  8
ZUWAKU
100
AcDbCircle
 10
24.66769024044197
 20
33.70758628282265
 30
0.0
 40
0.525
100
AcDbArc
 50
90.0
 51
180.0
  0
LINE
  5
6D5
330
1A
100
AcDbEntity
  8
ZUWAKU
100
AcDbLine
 10
24.14269024044187
 20
37.03258628282265
 30
0.0
 11
27.64269024044188
 21
37.03258628282265
 31
0.0
  0
LINE
  5
6D6
330
1A
100
AcDbEntity
  8
ZUWAKU
100
AcDbLine
 10
22.39269024044188
 20
23.73258628282265
 30
0.0
 11
25.36769024044179
 21
23.73258628282265
 31
0.0
  0
LINE
  5
6D7
330
1A
100
AcDbEntity
  8
ZUWAKU
100
AcDbLine
 10
22.39269024044188
 20
20.93258628282265
 30
0.0
 11
25.89269024044188
 21
20.93258628282265
 31
0.0
  0
INSERT
  5
6D8
330
1A
100
AcDbEntity
  8
ZUWAKU
  6
Continuous
100
AcDbBlockReference
  2
*X1
 10
12.342212154781
 20
7.675000000000004
 30
0.0
1001
ACAD
1000
HATCH
1002
{
1070
    19
1000
ANSI37
1040
0.2
1040
0.0
1000
R14_HATCH_DATA
1000
4E4
1011
13.34221215478101
1021
7.675000000000004
1031
0.0
1011
12.342212154781
1021
8.675000000000004
1031
0.0
1011
12.342212154781
1021
7.675000000000004
1031
1.0
1040
0.0
1010
0.0
1020
0.0
1030
1.0
1000
ANSI37
1070
     0
1070
     0
1071
        8
1071
        7
1070
     1
1070
     1
1071
       24
1040
12.2105285919996
1040
23.75243476380622
1040
-0.1989123673796348
1040
11.80047808566087
1040
24.74238425746728
1040
0.0
1040
11.80047808566087
1040
26.03258628282265
1040
-0.4142135623730912
1040
12.32547808566084
1040
26.55758628282264
1040
0.0
1040
15.30047808566075
1040
26.55758628282264
1040
0.4142135623731546
1040
15.82547808566084
1040
27.08258628282264
1040
0.0
1040
15.82547808566084
1040
28.83258628282265
1040
0.4142135623731586
1040
15.30047808566075
1040
29.35758628282265
1040
0.0
1040
11.80047808566087
1040
29.35758628282265
1040
0.4142135623730928
1040
9.000478085660915
1040
26.55758628282267
1040
0.0
1040
9.000478085660915
1040
24.7423842574674
1040
0.1989123673796619
1040
10.23062960467734
1040
21.7725357764838
1040
0.0
1040
13.14042757932202
1040
18.86273780183914
1040
-0.1989123673796613
1040
13.55047808566087
1040
17.87278830817795
1040
0.0
1040
13.55047808566087
1040
16.58258628282264
1040
-0.4142135623730911
1040
13.02547808566089
1040
16.05758628282264
1040
0.0
1040
10.05047808566098
1040
16.05758628282264
1040
0.4142135623731526
1040
9.525478085660893
1040
15.53258628282265
1040
0.0
1040
9.525478085660893
1040
13.78258628282263
1040
0.4142135623731526
1040
10.05047808566098
1040
13.25758628282265
1040
0.0
1040
13.55047808566087
1040
13.25758628282265
1040
0.4142135623731044
1040
16.35047808566094
1040
16.05758628282262
1040
0.0
1040
16.35047808566094
1040
17.87278830817789
1040
0.1989123673796604
1040
15.12032656664439
1040
20.84263678916144
1040
0.0
1071
        0
1071
        7
1070
     1
1070
     1
1071
       16
1040
21.25047808566091
1040
25.15758628282265
1040
-0.4142135623730935
1040
22.65047808566089
1040
26.55758628282264
1040
0.0
1040
24.57547808566085
1040
26.55758628282264
1040
0.4142135623731546
1040
25.10047808566094
1040
27.08258628282264
1040
0.0
1040
25.10047808566094
1040
28.83258628282265
1040
0.4142135623730951
1040
24.57547808566096
1040
29.35758628282265
1040
0.0
1040
22.65047808566078
1040
29.35758628282261
1040
0.4142135623730892
1040
18.45047808566084
1040
25.15758628282258
1040
0.0
1040
18.45047808566084
1040
17.45758628282267
1040
0.4142135623730969
1040
22.65047808566089
1040
13.25758628282265
1040
0.0
1040
24.57547808566085
1040
13.25758628282265
1040
0.4142135623731526
1040
25.10047808566094
1040
13.78258628282263
1040
0.0
1040
25.10047808566094
1040
15.53258628282265
1040
0.4142135623730891
1040
24.57547808566096
1040
16.05758628282264
1040
0.0
1040
22.65047808566089
1040
16.05758628282264
1040
-0.4142135623730928
1040
21.25047808566091
1040
17.45758628282263
1040
0.0
1071
        0
1071
        7
1070
     1
1070
     1
1071
        2
1040
21.95047808566084
1040
21.30758628282265
1040
1.0
1040
25.45047808566085
1040
21.30758628282265
1040
1.0
1071
        0
1071
        7
1070
     1
1070
     1
1071
       26
1040
35.02312456783886
1040
25.31263347638607
1040
0.0
1040
36.08476420097668
1040
28.67449231465566
1040
0.5069206636600134
1040
35.58413330178132
1040
29.35758628282265
1040
0.0
1040
33.88524392217209
1040
29.35758628282265
1040
0.3272098845218764
1040
33.38461302297673
1040
28.99068025098962
1040
0.0
1040
31.51634314834495
1040
23.07449231465573
1040
-0.3272098845219541
1040
31.01571224914948
1040
22.70758628282264
1040
0.0
1040
30.87547808566103
1040
22.70758628282264
1040
-0.4142135623731526
1040
30.35047808566094
1040
23.23258628282263
1040
0.0
1040
30.35047808566094
1040
28.83258628282265
1040
0.4142135623730951
1040
29.82547808566096
1040
29.35758628282265
1040
0.0
1040
28.07547808566084
1040
29.35758628282265
1040
0.4142135623730871
1040
27.55047808566087
1040
28.83258628282266
1040
0.0
1040
27.55047808566087
1040
13.78258628282263
1040
0.4142135623730891
1040
28.07547808566084
1040
13.25758628282265
1040
0.0
1040
29.82547808566085
1040
13.25758628282265
1040
0.4142135623731526
1040
30.35047808566094
1040
13.78258628282263
1040
0.0
1040
30.35047808566094
1040
19.38258628282266
1040
-0.4142135623731526
1040
30.87547808566103
1040
19.90758628282264
1040
0.0
1040
31.0157122491496
1040
19.90758628282264
1040
-0.3272098845218915
1040
31.51634314834495
1040
19.54068025098957
1040
0.0
1040
33.38461302297673
1040
13.62449231465572
1040
0.3272098845218902
1040
33.88524392217209
1040
13.25758628282265
1040
0.0
1040
35.58413330178132
1040
13.25758628282265
1040
0.5069206636600335
1040
36.08476420097668
1040
13.94068025098965
1040
0.0
1040
33.75837282250301
1040
21.30758628282279
1040
0.0
1071
        0
1071
        7
1070
     1
1070
     1
1071
        8
1040
41.20047808566084
1040
28.83258628282266
1040
0.4142135623731546
1040
40.67547808566075
1040
29.35758628282265
1040
0.0
1040
38.92547808566098
1040
29.35758628282265
1040
0.4142135623731507
1040
38.40047808566089
1040
28.83258628282266
1040
0.0
1040
38.40047808566089
1040
13.78258628282263
1040
0.4142135623731526
1040
38.92547808566098
1040
13.25758628282265
1040
0.0
1040
40.67547808566075
1040
13.25758628282265
1040
0.4142135623731526
1040
41.20047808566084
1040
13.78258628282263
1040
0.0
1071
        0
1071
        7
1070
     1
1070
     1
1071
       24
1040
46.10047808566093
1040
26.03258628282265
1040
-0.4142135623731546
1040
46.62547808566102
1040
26.55758628282264
1040
0.0
1040
49.60047808566094
1040
26.55758628282264
1040
0.4142135623730911
1040
50.12547808566091
1040
27.08258628282264
1040
0.0
1040
50.12547808566091
1040
28.83258628282265
1040
0.4142135623730952
1040
49.60047808566094
1040
29.35758628282265
1040
0.0
1040
46.10047808566093
1040
29.35758628282265
1040
0.4142135623731048
1040
43.30047808566087
1040
26.55758628282267
1040
0.0
1040
43.30047808566087
1040
24.7423842574674
1040
0.1989123673796613
1040
44.53062960467741
1040
21.77253577648385
1040
0.0
1040
47.44042757932208
1040
18.86273780183918
1040
-0.1989123673796402
1040
47.85047808566093
1040
17.87278830817811
1040
0.0
1040
47.85047808566093
1040
16.58258628282264
1040
-0.4142135623730911
1040
47.32547808566096
1040
16.05758628282264
1040
0.0
1040
44.35047808566094
1040
16.05758628282264
1040
0.4142135623731526
1040
43.82547808566084
1040
15.53258628282265
1040
0.0
1040
43.82547808566084
1040
13.78258628282263
1040
0.4142135623730891
1040
44.35047808566082
1040
13.25758628282265
1040
0.0
1040
47.85047808566093
1040
13.25758628282265
1040
0.4142135623730925
1040
50.65047808566089
1040
16.05758628282262
1040
0.0
1040
50.65047808566089
1040
17.87278830817789
1040
0.1989123673796675
1040
49.42032656664435
1040
20.84263678916155
1040
0.0
1040
46.51052859199978
1040
23.75243476380607
1040
-0.1989123673796652
1040
46.10047808566093
1040
24.74238425746723
1040
0.0
1071
        0
1071
        7
1070
     1
1070
     1
1071
       16
1040
55.55047808566087
1040
28.83258628282264
1040
0.414213562373103
1040
55.02547808566089
1040
29.35758628282265
1040
0.0
1040
53.27547808566089
1040
29.35758628282265
1040
0.4142135623730871
1040
52.75047808566092
1040
28.83258628282266
1040
0.0
1040
52.75047808566092
1040
16.05758628282262
1040
0.4142135623730926
1040
55.55047808566087
1040
13.25758628282265
1040
0.0
1040
59.05047808566087
1040
13.25758628282265
1040
0.4142135623731044
1040
61.85047808566094
1040
16.05758628282262
1040
0.0
1040
61.85047808566094
1040
28.83258628282265
1040
0.4142135623730951
1040
61.32547808566096
1040
29.35758628282265
1040
0.0
1040
59.57547808566085
1040
29.35758628282265
1040
0.4142135623730871
1040
59.05047808566087
1040
28.83258628282266
1040
0.0
1040
59.05047808566087
1040
17.10758628282262
1040
-0.414213562373088
1040
58.00047808566091
1040
16.05758628282264
1040
0.0
1040
56.60047808566094
1040
16.05758628282264
1040
-0.4142135623731197
1040
55.55047808566087
1040
17.10758628282262
1040
0.0
1071
        0
1071
        7
1070
     1
1070
     1
1071
        8
1040
66.75047808566091
1040
28.83258628282266
1040
0.4142135623730871
1040
66.22547808566094
1040
29.35758628282265
1040
0.0
1040
64.47547808566094
1040
29.35758628282265
1040
0.4142135623731507
1040
63.95047808566085
1040
28.83258628282266
1040
0.0
1040
63.95047808566085
1040
13.78258628282263
1040
0.4142135623730891
1040
64.47547808566082
1040
13.25758628282265
1040
0.0
1040
66.22547808566094
1040
13.25758628282265
1040
0.4142135623730891
1040
66.75047808566091
1040
13.78258628282263
1040
0.0
1071
        0
1070
     0
1070
     1
1040
0.0
1040
0.2
1070
     0
1070
     2
1040
0.7853981633974483
1040
-903.2340384037992
1040
-7.092413717177286
1040
-0.4490128060534576
1040
0.4490128060534577
1070
     0
1040
2.356194490192344
1040
-903.2340384037992
1040
-7.092413717177286
1040
-0.4490128060534577
1040
-0.4490128060534576
1070
     0
1040
0.057451373970553
1071
        8
1040
13.78812089390305
1040
21.2747599287082
1040
0.0
1040
20.11278093731891
1040
24.95164846527365
1040
0.0
1040
22.8726338165394
1040
21.61946792889336
1040
0.0
1040
28.62232591251688
1040
22.30888392926414
1040
0.0
1040
39.54673794983648
1040
22.76849619680576
1040
0.0
1040
44.6064668260093
1040
25.52616259922985
1040
0.0
1040
54.2659519032801
1040
24.83674419791766
1040
0.0
1040
65.53534555050248
1040
25.29635646545927
1040
0.0
1002
}
  0
ARC
  5
6D9
330
1A
100
AcDbEntity
  8
ZUWAKU
100
AcDbCircle
 10
22.39269024044188
 20
23.20758628282265
 30
0.0
 40
0.525
100
AcDbArc
 50
90.0
 51
180.0
  0
ARC
  5
6DA
330
1A
100
AcDbEntity
  8
ZUWAKU
100
AcDbCircle
 10
22.39269024044188
 20
21.45758628282265
 30
0.0
 40
0.525
100
AcDbArc
 50
180.0
 51
270.0
  0
LINE
  5
6DB
330
1A
100
AcDbEntity
  8
ZUWAKU
100
AcDbLine
 10
21.86769024044179
 20
21.45758628282265
 30
0.0
 11
21.86769024044179
 21
23.20758628282265
 31
0.0
  0
ARC
  5
6DC
330
1A
100
AcDbEntity
  8
ZUWAKU
100
AcDbCircle
 10
25.54269024044197
 20
32.41738425746735
 30
0.0
 40
4.199999999999999
100
AcDbArc
 50
180.0
 51
224.9999999999996
  0
ARC
  5
6DD
330
1A
100
AcDbEntity
  8
ZUWAKU
100
AcDbCircle
 10
25.54269024044197
 20
32.41738425746735
 30
0.0
 40
1.399999999999999
100
AcDbArc
 50
180.0000000000016
 51
224.9999999999993
  0
ARC
  5
6DE
330
1A
100
AcDbEntity
  8
ZUWAKU
100
AcDbCircle
 10
24.14269024044187
 20
34.23258628282265
 30
0.0
 40
2.799999999999999
100
AcDbArc
 50
90.0
 51
180.0
  0
LINE
  5
6DF
330
1A
100
AcDbEntity
  8
ZUWAKU
100
AcDbLine
 10
21.34269024044192
 20
34.23258628282265
 30
0.0
 11
21.34269024044192
 21
32.41738425746731
 31
0.0
  0
LINE
  5
6E0
330
1A
100
AcDbEntity
  8
ZUWAKU
100
AcDbLine
 10
24.14269024044187
 20
33.70758628282265
 30
0.0
 11
24.14269024044187
 21
32.41738425746731
 31
0.0
  0
LINE
  5
6E1
330
1A
100
AcDbEntity
  8
ZUWAKU
100
AcDbLine
 10
89.17710763364903
 20
43.78258628282265
 30
0.0
 11
89.17710763364903
 21
14.58258628282271
 31
0.0
  0
LINE
  5
6E2
330
1A
100
AcDbEntity
  8
ZUWAKU
100
AcDbLine
 10
89.57710763364913
 20
43.78258628282265
 30
0.0
 11
89.57710763364913
 21
14.58258628282271
 31
0.0
  0
LINE
  5
6E3
330
1A
100
AcDbEntity
  8
ZUWAKU
100
AcDbLine
 10
89.37710763364885
 20
43.78258628282265
 30
0.0
 11
89.37710763364931
 21
14.58258628282271
 31
0.0
  0
LINE
  5
6E4
330
1A
100
AcDbEntity
  8
ZUWAKU
100
AcDbLine
 10
56.87284175945842
 20
29.44753577648383
 30
0.0
 11
59.78263973410321
 21
26.53773780183917
 31
0.0
  0
ARC
  5
6E5
330
1A
100
AcDbEntity
  8
ZUWAKU
100
AcDbCircle
 10
58.44269024044206
 20
34.23258628282265
 30
0.0
 40
2.799999999999999
100
AcDbArc
 50
90.0
 51
180.0
  0
LINE
  5
6E6
330
1A
100
AcDbEntity
  8
ZUWAKU
100
AcDbLine
 10
56.69269024044206
 20
20.93258628282265
 30
0.0
 11
60.19269024044206
 21
20.93258628282265
 31
0.0
  0
LINE
  5
6E7
330
1A
100
AcDbEntity
  8
ZUWAKU
100
AcDbLine
 10
56.69269024044206
 20
23.73258628282265
 30
0.0
 11
59.66769024044197
 21
23.73258628282265
 31
0.0
  0
LINE
  5
6E8
330
1A
100
AcDbEntity
  8
ZUWAKU
100
AcDbLine
 10
42.16769024044197
 20
37.03258628282265
 30
0.0
 11
40.41769024044197
 21
37.03258628282265
 31
0.0
  0
LINE
  5
6E9
330
1A
100
AcDbEntity
  8
ZUWAKU
100
AcDbLine
 10
40.41769024044197
 20
20.93258628282265
 30
0.0
 11
42.16769024044197
 21
20.93258628282265
 31
0.0
  0
LINE
  5
6EA
330
1A
100
AcDbEntity
  8
ZUWAKU
100
AcDbLine
 10
39.89269024044188
 20
36.50758628282265
 30
0.0
 11
39.89269024044188
 21
21.45758628282265
 31
0.0
  0
LINE
  5
6EB
330
1A
100
AcDbEntity
  8
ZUWAKU
100
AcDbLine
 10
30.79269024044197
 20
25.13258628282265
 30
0.0
 11
30.79269024044197
 21
32.83258628282261
 31
0.0
  0
LINE
  5
6EC
330
1A
100
AcDbEntity
  8
ZUWAKU
100
AcDbLine
 10
33.59269024044192
 20
32.83258628282265
 30
0.0
 11
33.59269024044192
 21
25.13258628282265
 31
0.0
  0
ARC
  5
6ED
330
1A
100
AcDbEntity
  8
ZUWAKU
100
AcDbCircle
 10
24.49269024044179
 20
25.54778830817795
 30
0.0
 40
4.199999999999999
100
AcDbArc
 50
0.0
 51
44.9999999999996
  0
CIRCLE
  5
6EE
330
1A
100
AcDbEntity
  8
ZUWAKU
100
AcDbCircle
 10
36.04269024044197
 20
28.98258628282265
 30
0.0
 40
1.75
  0
ARC
  5
6EF
330
1A
100
AcDbEntity
  8
ZUWAKU
100
AcDbCircle
 10
34.99269024044179
 20
25.13258628282265
 30
0.0
 40
4.199999999999999
100
AcDbArc
 50
180.0
 51
270.0
  0
LINE
  5
6F0
330
1A
100
AcDbEntity
  8
ZUWAKU
100
AcDbLine
 10
28.69269024044206
 20
23.73258628282265
 30
0.0
 11
28.69269024044206
 21
25.547788308178
 31
0.0
  0
ARC
  5
6F1
330
1A
100
AcDbEntity
  8
ZUWAKU
100
AcDbCircle
 10
25.36769024044179
 20
24.25758628282265
 30
0.0
 40
0.525
100
AcDbArc
 50
270.0
 51
0.0
  0
LINE
  5
6F2
330
1A
100
AcDbEntity
  8
ZUWAKU
100
AcDbLine
 10
25.89269024044188
 20
24.25758628282265
 30
0.0
 11
25.89269024044188
 21
25.547788308178
 31
0.0
  0
ARC
  5
6F3
330
1A
100
AcDbEntity
  8
ZUWAKU
100
AcDbCircle
 10
25.89269024044188
 20
23.73258628282265
 30
0.0
 40
2.799999999999999
100
AcDbArc
 50
270.0
 51
0.0
  0
ARC
  5
6F4
330
1A
100
AcDbEntity
  8
ZUWAKU
100
AcDbCircle
 10
24.49269024044179
 20
25.547788308178
 30
0.0
 40
1.399999999999999
100
AcDbArc
 50
0.0
 51
44.9999999999996
  0
ARC
  5
6F5
330
1A
100
AcDbEntity
  8
ZUWAKU
100
AcDbCircle
 10
40.41769024044197
 20
21.45758628282265
 30
0.0
 40
0.525
100
AcDbArc
 50
180.0
 51
270.0
  0
ARC
  5
6F6
330
1A
100
AcDbEntity
  8
ZUWAKU
100
AcDbCircle
 10
36.91769024044197
 20
23.20758628282265
 30
0.0
 40
0.525
100
AcDbArc
 50
0.0
 51
90.0
  0
ARC
  5
6F7
330
1A
100
AcDbEntity
  8
ZUWAKU
100
AcDbCircle
 10
36.91769024044197
 20
21.45758628282265
 30
0.0
 40
0.525
100
AcDbArc
 50
270.0
 51
0.0
  0
LINE
  5
6F8
330
1A
100
AcDbEntity
  8
ZUWAKU
100
AcDbLine
 10
37.44269024044206
 20
23.20758628282265
 30
0.0
 11
37.44269024044206
 21
21.45758628282265
 31
0.0
  0
ARC
  5
6F9
330
1A
100
AcDbEntity
  8
ZUWAKU
100
AcDbCircle
 10
34.99269024044179
 20
25.13258628282265
 30
0.0
 40
1.399999999999999
100
AcDbArc
 50
180.0
 51
270.0
  0
LINE
  5
6FA
330
1A
100
AcDbEntity
  8
ZUWAKU
100
AcDbLine
 10
36.91769024044197
 20
20.93258628282265
 30
0.0
 11
34.99269024044179
 21
20.93258628282265
 31
0.0
  0
LINE
  5
6FB
330
1A
100
AcDbEntity
  8
ZUWAKU
100
AcDbLine
 10
34.99269024044179
 20
23.73258628282265
 30
0.0
 11
36.91769024044197
 21
23.73258628282265
 31
0.0
  0
ARC
  5
6FC
330
1A
100
AcDbEntity
  8
ZUWAKU
100
AcDbCircle
 10
34.99269024044179
 20
32.83258628282261
 30
0.0
 40
4.199999999999999
100
AcDbArc
 50
90.0
 51
180.0
  0
LINE
  5
6FD
330
1A
100
AcDbEntity
  8
ZUWAKU
100
AcDbLine
 10
28.16769024044197
 20
36.50758628282265
 30
0.0
 11
28.16769024044197
 21
34.75758628282265
 31
0.0
  0
LINE
  5
6FE
330
1A
100
AcDbEntity
  8
ZUWAKU
100
AcDbLine
 10
27.64269024044188
 20
34.23258628282265
 30
0.0
 11
24.66769024044197
 21
34.23258628282265
 31
0.0
  0
ARC
  5
6FF
330
1A
100
AcDbEntity
  8
ZUWAKU
100
AcDbCircle
 10
27.64269024044188
 20
34.75758628282265
 30
0.0
 40
0.525
100
AcDbArc
 50
270.0
 51
0.0
  0
ARC
  5
700
330
1A
100
AcDbEntity
  8
ZUWAKU
100
AcDbCircle
 10
27.64269024044188
 20
36.50758628282265
 30
0.0
 40
0.525
100
AcDbArc
 50
0.0
 51
90.0
  0
LINE
  5
701
330
1A
100
AcDbEntity
  8
ZUWAKU
100
AcDbLine
 10
37.44269024044206
 20
36.50758628282265
 30
0.0
 11
37.44269024044206
 21
34.75758628282265
 31
0.0
  0
ARC
  5
702
330
1A
100
AcDbEntity
  8
ZUWAKU
100
AcDbCircle
 10
36.91769024044197
 20
34.75758628282265
 30
0.0
 40
0.525
100
AcDbArc
 50
270.0
 51
0.0
  0
ARC
  5
703
330
1A
100
AcDbEntity
  8
ZUWAKU
100
AcDbCircle
 10
40.41769024044197
 20
36.50758628282265
 30
0.0
 40
0.525
100
AcDbArc
 50
90.0
 51
180.0
  0
ARC
  5
704
330
1A
100
AcDbEntity
  8
ZUWAKU
100
AcDbCircle
 10
36.91769024044197
 20
36.50758628282265
 30
0.0
 40
0.525
100
AcDbArc
 50
0.0
 51
90.0
  0
ARC
  5
705
330
1A
100
AcDbEntity
  8
ZUWAKU
100
AcDbCircle
 10
34.99269024044179
 20
32.83258628282265
 30
0.0
 40
1.399999999999999
100
AcDbArc
 50
90.0
 51
180.0
  0
LINE
  5
706
330
1A
100
AcDbEntity
  8
ZUWAKU
100
AcDbLine
 10
36.91769024044197
 20
34.23258628282265
 30
0.0
 11
34.99269024044179
 21
34.23258628282265
 31
0.0
  0
LINE
  5
707
330
1A
100
AcDbEntity
  8
ZUWAKU
100
AcDbLine
 10
34.99269024044179
 20
37.03258628282261
 30
0.0
 11
36.91769024044197
 21
37.03258628282265
 31
0.0
  0
ARC
  5
708
330
1A
100
AcDbEntity
  8
ZUWAKU
100
AcDbCircle
 10
43.21769024044215
 20
27.05758628282265
 30
0.0
 40
0.525
100
AcDbArc
 50
90.0
 51
180.0
  0
ARC
  5
709
330
1A
100
AcDbEntity
  8
ZUWAKU
100
AcDbCircle
 10
43.35792440393061
 20
27.05758628282265
 30
0.0
 40
0.525
100
AcDbArc
 50
17.52556837372255
 51
90.0
  0
LINE
  5
70A
330
1A
100
AcDbEntity
  8
ZUWAKU
100
AcDbLine
 10
53.54269024044197
 20
21.45758628282265
 30
0.0
 11
53.54269024044197
 21
36.50758628282265
 31
0.0
  0
LINE
  5
70B
330
1A
100
AcDbEntity
  8
ZUWAKU
100
AcDbLine
 10
50.74269024044179
 20
36.50758628282265
 30
0.0
 11
50.74269024044179
 21
21.45758628282265
 31
0.0
  0
LINE
  5
70C
330
1A
100
AcDbEntity
  8
ZUWAKU
100
AcDbLine
 10
48.42697635575769
 20
21.61568025098962
 30
0.0
 11
46.10058497728414
 21
28.98258628282267
 31
0.0
  0
LINE
  5
70D
330
1A
100
AcDbEntity
  8
ZUWAKU
100
AcDbLine
 10
43.21769024044215
 20
27.58258628282265
 30
0.0
 11
43.35792440393061
 21
27.58258628282265
 31
0.0
  0
ARC
  5
70E
330
1A
100
AcDbEntity
  8
ZUWAKU
100
AcDbCircle
 10
46.22745607695333
 20
21.45758628282265
 30
0.0
 40
0.525
100
AcDbArc
 50
197.5255683737225
 51
270.0
  0
ARC
  5
70F
330
1A
100
AcDbEntity
  8
ZUWAKU
100
AcDbCircle
 10
47.9263454565621
 20
21.45758628282265
 30
0.0
 40
0.525
100
AcDbArc
 50
270.0
 51
17.52556837372255
  0
LINE
  5
710
330
1A
100
AcDbEntity
  8
ZUWAKU
100
AcDbLine
 10
46.22745607695333
 20
20.93258628282265
 30
0.0
 11
47.9263454565621
 21
20.93258628282265
 31
0.0
  0
ARC
  5
711
330
1A
100
AcDbEntity
  8
ZUWAKU
100
AcDbCircle
 10
42.16769024044197
 20
21.45758628282265
 30
0.0
 40
0.525
100
AcDbArc
 50
270.0
 51
0.0
  0
LINE
  5
712
330
1A
100
AcDbEntity
  8
ZUWAKU
100
AcDbLine
 10
45.72682517775774
 20
21.29949231465567
 30
0.0
 11
43.85855530312574
 21
27.21568025098962
 31
0.0
  0
LINE
  5
713
330
1A
100
AcDbEntity
  8
ZUWAKU
100
AcDbLine
 10
42.69269024044206
 20
21.45758628282265
 30
0.0
 11
42.69269024044206
 21
27.05758628282265
 31
0.0
  0
ARC
  5
714
330
1A
100
AcDbEntity
  8
ZUWAKU
100
AcDbCircle
 10
56.69269024044206
 20
23.20758628282265
 30
0.0
 40
0.525
100
AcDbArc
 50
90.0
 51
180.0
  0
ARC
  5
715
330
1A
100
AcDbEntity
  8
ZUWAKU
100
AcDbCircle
 10
53.01769024044188
 20
21.45758628282265
 30
0.0
 40
0.525
100
AcDbArc
 50
270.0
 51
0.0
  0
ARC
  5
716
330
1A
100
AcDbEntity
  8
ZUWAKU
100
AcDbCircle
 10
56.69269024044206
 20
21.45758628282265
 30
0.0
 40
0.525
100
AcDbArc
 50
180.0
 51
270.0
  0
LINE
  5
717
330
1A
100
AcDbEntity
  8
ZUWAKU
100
AcDbLine
 10
56.16769024044197
 20
21.45758628282265
 30
0.0
 11
56.16769024044197
 21
23.20758628282265
 31
0.0
  0
ARC
  5
718
330
1A
100
AcDbEntity
  8
ZUWAKU
100
AcDbCircle
 10
51.26769024044188
 20
21.45758628282265
 30
0.0
 40
0.525
100
AcDbArc
 50
180.0
 51
270.0
  0
LINE
  5
719
330
1A
100
AcDbEntity
  8
ZUWAKU
100
AcDbLine
 10
51.26769024044188
 20
20.93258628282265
 30
0.0
 11
53.01769024044188
 21
20.93258628282265
 31
0.0
  0
LINE
  5
71A
330
1A
100
AcDbEntity
  8
ZUWAKU
100
AcDbLine
 10
47.36533672261976
 20
32.98763347638608
 30
0.0
 11
46.10058497728414
 21
28.98258628282267
 31
0.0
  0
ARC
  5
71B
330
1A
100
AcDbEntity
  8
ZUWAKU
100
AcDbCircle
 10
46.22745607695333
 20
36.50758628282265
 30
0.0
 40
0.525
100
AcDbArc
 50
90.0
 51
162.4744316262773
  0
LINE
  5
71C
330
1A
100
AcDbEntity
  8
ZUWAKU
100
AcDbLine
 10
48.42697635575769
 20
36.34949231465568
 30
0.0
 11
47.36533672261976
 21
32.98763347638608
 31
0.0
  0
ARC
  5
71D
330
1A
100
AcDbEntity
  8
ZUWAKU
100
AcDbCircle
 10
47.9263454565621
 20
36.50758628282265
 30
0.0
 40
0.525
100
AcDbArc
 50
342.4744316262774
 51
90.0
  0
LINE
  5
71E
330
1A
100
AcDbEntity
  8
ZUWAKU
100
AcDbLine
 10
46.22745607695333
 20
37.03258628282265
 30
0.0
 11
47.9263454565621
 21
37.03258628282265
 31
0.0
  0
LINE
  5
71F
330
1A
100
AcDbEntity
  8
ZUWAKU
100
AcDbLine
 10
42.69269024044206
 20
30.90758628282265
 30
0.0
 11
42.69269024044206
 21
36.50758628282265
 31
0.0
  0
ARC
  5
720
330
1A
100
AcDbEntity
  8
ZUWAKU
100
AcDbCircle
 10
43.21769024044215
 20
30.90758628282265
 30
0.0
 40
0.525
100
AcDbArc
 50
180.0
 51
270.0
  0
LINE
  5
721
330
1A
100
AcDbEntity
  8
ZUWAKU
100
AcDbLine
 10
43.35792440393061
 20
30.38258628282265
 30
0.0
 11
43.21769024044215
 21
30.38258628282265
 31
0.0
  0
ARC
  5
722
330
1A
100
AcDbEntity
  8
ZUWAKU
100
AcDbCircle
 10
43.35792440393061
 20
30.90758628282265
 30
0.0
 40
0.525
100
AcDbArc
 50
270.0
 51
342.4744316262774
  0
ARC
  5
723
330
1A
100
AcDbEntity
  8
ZUWAKU
100
AcDbCircle
 10
42.16769024044197
 20
36.50758628282265
 30
0.0
 40
0.525
100
AcDbArc
 50
0.0
 51
90.0
  0
LINE
  5
724
330
1A
100
AcDbEntity
  8
ZUWAKU
100
AcDbLine
 10
45.72682517775774
 20
36.66568025098962
 30
0.0
 11
43.85855530312574
 21
30.74949231465568
 31
0.0
  0
ARC
  5
725
330
1A
100
AcDbEntity
  8
ZUWAKU
100
AcDbCircle
 10
59.84269024044215
 20
32.41738425746735
 30
0.0
 40
4.199999999999999
100
AcDbArc
 50
180.0
 51
224.9999999999996
  0
LINE
  5
726
330
1A
100
AcDbEntity
  8
ZUWAKU
100
AcDbLine
 10
55.64269024044188
 20
34.23258628282265
 30
0.0
 11
55.64269024044188
 21
32.41738425746731
 31
0.0
  0
ARC
  5
727
330
1A
100
AcDbEntity
  8
ZUWAKU
100
AcDbCircle
 10
53.01769024044188
 20
36.50758628282265
 30
0.0
 40
0.525
100
AcDbArc
 50
0.0
 51
90.0
  0
ARC
  5
728
330
1A
100
AcDbEntity
  8
ZUWAKU
100
AcDbCircle
 10
51.26769024044188
 20
36.50758628282265
 30
0.0
 40
0.525
100
AcDbArc
 50
90.0
 51
180.0
  0
LINE
  5
729
330
1A
100
AcDbEntity
  8
ZUWAKU
100
AcDbLine
 10
53.01769024044188
 20
37.03258628282265
 30
0.0
 11
51.26769024044188
 21
37.03258628282265
 31
0.0
  0
ARC
  5
72A
330
1A
100
AcDbEntity
  8
ZUWAKU
100
AcDbCircle
 10
73.66769024044197
 20
36.50758628282265
 30
0.0
 40
0.525
100
AcDbArc
 50
0.0
 51
90.0
  0
ARC
  5
72B
330
1A
100
AcDbEntity
  8
ZUWAKU
100
AcDbCircle
 10
71.39269024044188
 20
23.73258628282265
 30
0.0
 40
2.799999999999999
100
AcDbArc
 50
270.0
 51
0.0
  0
LINE
  5
72C
330
1A
100
AcDbEntity
  8
ZUWAKU
100
AcDbLine
 10
67.89269024044187
 20
24.78258628282265
 30
0.0
 11
67.89269024044187
 21
36.50758628282265
 31
0.0
  0
LINE
  5
72D
330
1A
100
AcDbEntity
  8
ZUWAKU
100
AcDbLine
 10
65.09269024044215
 20
36.50758628282265
 30
0.0
 11
65.09269024044215
 21
23.73258628282265
 31
0.0
  0
LINE
  5
72E
330
1A
100
AcDbEntity
  8
ZUWAKU
100
AcDbLine
 10
71.39269024044188
 20
36.50758628282265
 30
0.0
 11
71.39269024044188
 21
24.78258628282265
 31
0.0
  0
ARC
  5
72F
330
1A
100
AcDbEntity
  8
ZUWAKU
100
AcDbCircle
 10
58.79269024044197
 20
25.54778830817795
 30
0.0
 40
4.199999999999999
100
AcDbArc
 50
0.0
 51
44.9999999999996
  0
ARC
  5
730
330
1A
100
AcDbEntity
  8
ZUWAKU
100
AcDbCircle
 10
67.89269024044187
 20
23.73258628282265
 30
0.0
 40
2.799999999999999
100
AcDbArc
 50
180.0
 51
270.0
  0
LINE
  5
731
330
1A
100
AcDbEntity
  8
ZUWAKU
100
AcDbLine
 10
62.99269024044178
 20
23.73258628282265
 30
0.0
 11
62.99269024044178
 21
25.547788308178
 31
0.0
  0
ARC
  5
732
330
1A
100
AcDbEntity
  8
ZUWAKU
100
AcDbCircle
 10
59.66769024044197
 20
24.25758628282265
 30
0.0
 40
0.525
100
AcDbArc
 50
270.0
 51
0.0
  0
LINE
  5
733
330
1A
100
AcDbEntity
  8
ZUWAKU
100
AcDbLine
 10
60.19269024044206
 20
24.25758628282265
 30
0.0
 11
60.19269024044206
 21
25.547788308178
 31
0.0
  0
ARC
  5
734
330
1A
100
AcDbEntity
  8
ZUWAKU
100
AcDbCircle
 10
60.19269024044206
 20
23.73258628282265
 30
0.0
 40
2.799999999999999
100
AcDbArc
 50
270.0
 51
0.0
  0
ARC
  5
735
330
1A
100
AcDbEntity
  8
ZUWAKU
100
AcDbCircle
 10
58.79269024044197
 20
25.547788308178
 30
0.0
 40
1.399999999999999
100
AcDbArc
 50
0.0
 51
44.9999999999996
  0
ARC
  5
736
330
1A
100
AcDbEntity
  8
ZUWAKU
100
AcDbCircle
 10
70.34269024044215
 20
24.78258628282265
 30
0.0
 40
1.049999999999999
100
AcDbArc
 50
270.0
 51
0.0
  0
ARC
  5
737
330
1A
100
AcDbEntity
  8
ZUWAKU
100
AcDbCircle
 10
68.94269024044206
 20
24.78258628282265
 30
0.0
 40
1.049999999999999
100
AcDbArc
 50
180.0
 51
270.0
  0
LINE
  5
738
330
1A
100
AcDbEntity
  8
ZUWAKU
100
AcDbLine
 10
67.89269024044187
 20
20.93258628282265
 30
0.0
 11
71.39269024044188
 21
20.93258628282265
 31
0.0
  0
LINE
  5
739
330
1A
100
AcDbEntity
  8
ZUWAKU
100
AcDbLine
 10
70.34269024044215
 20
23.73258628282265
 30
0.0
 11
68.94269024044206
 21
23.73258628282265
 31
0.0
  0
LINE
  5
73A
330
1A
100
AcDbEntity
  8
ZUWAKU
100
AcDbLine
 10
67.36769024044178
 20
37.03258628282265
 30
0.0
 11
65.61769024044179
 21
37.03258628282265
 31
0.0
  0
LINE
  5
73B
330
1A
100
AcDbEntity
  8
ZUWAKU
100
AcDbLine
 10
62.46769024044215
 20
36.50758628282265
 30
0.0
 11
62.46769024044215
 21
34.75758628282265
 31
0.0
  0
ARC
  5
73C
330
1A
100
AcDbEntity
  8
ZUWAKU
100
AcDbCircle
 10
61.94269024044206
 20
34.75758628282265
 30
0.0
 40
0.525
100
AcDbArc
 50
270.0
 51
0.0
  0
ARC
  5
73D
330
1A
100
AcDbEntity
  8
ZUWAKU
100
AcDbCircle
 10
61.94269024044206
 20
36.50758628282265
 30
0.0
 40
0.525
100
AcDbArc
 50
0.0
 51
90.0
  0
ARC
  5
73E
330
1A
100
AcDbEntity
  8
ZUWAKU
100
AcDbCircle
 10
65.61769024044179
 20
36.50758628282265
 30
0.0
 40
0.525
100
AcDbArc
 50
90.0
 51
180.0
  0
ARC
  5
73F
330
1A
100
AcDbEntity
  8
ZUWAKU
100
AcDbCircle
 10
59.84269024044215
 20
32.41738425746735
 30
0.0
 40
1.399999999999999
100
AcDbArc
 50
180.0000000000016
 51
224.9999999999993
  0
LINE
  5
740
330
1A
100
AcDbEntity
  8
ZUWAKU
100
AcDbLine
 10
58.44269024044206
 20
33.70758628282265
 30
0.0
 11
58.44269024044206
 21
32.41738425746731
 31
0.0
  0
ARC
  5
741
330
1A
100
AcDbEntity
  8
ZUWAKU
100
AcDbCircle
 10
58.96769024044215
 20
33.70758628282265
 30
0.0
 40
0.525
100
AcDbArc
 50
90.0
 51
180.0
  0
LINE
  5
742
330
1A
100
AcDbEntity
  8
ZUWAKU
100
AcDbLine
 10
61.76253872142524
 20
28.51763678916148
 30
0.0
 11
58.85274074678045
 21
31.42743476380615
 31
0.0
  0
LINE
  5
743
330
1A
100
AcDbEntity
  8
ZUWAKU
100
AcDbLine
 10
61.94269024044206
 20
34.23258628282265
 30
0.0
 11
58.96769024044215
 21
34.23258628282265
 31
0.0
  0
LINE
  5
744
330
1A
100
AcDbEntity
  8
ZUWAKU
100
AcDbLine
 10
58.44269024044206
 20
37.03258628282265
 30
0.0
 11
61.94269024044206
 21
37.03258628282265
 31
0.0
  0
ARC
  5
745
330
1A
100
AcDbEntity
  8
ZUWAKU
100
AcDbCircle
 10
71.91769024044197
 20
36.50758628282265
 30
0.0
 40
0.525
100
AcDbArc
 50
90.0
 51
180.0
  0
LINE
  5
746
330
1A
100
AcDbEntity
  8
ZUWAKU
100
AcDbLine
 10
73.66769024044197
 20
37.03258628282265
 30
0.0
 11
71.91769024044197
 21
37.03258628282265
 31
0.0
  0
ARC
  5
747
330
1A
100
AcDbEntity
  8
ZUWAKU
100
AcDbCircle
 10
67.36769024044178
 20
36.50758628282265
 30
0.0
 40
0.525
100
AcDbArc
 50
0.0
 51
90.0
  0
LINE
  5
748
330
1A
100
AcDbEntity
  8
ZUWAKU
100
AcDbLine
 10
76.29269024044197
 20
36.50758628282265
 30
0.0
 11
76.29269024044197
 21
21.45758628282265
 31
0.0
  0
LINE
  5
749
330
1A
100
AcDbEntity
  8
ZUWAKU
100
AcDbLine
 10
79.09269024044215
 20
21.45758628282265
 30
0.0
 11
79.09269024044215
 21
36.50758628282265
 31
0.0
  0
LINE
  5
74A
330
1A
100
AcDbEntity
  8
ZUWAKU
100
AcDbLine
 10
74.19269024044206
 20
23.73258628282265
 30
0.0
 11
74.19269024044206
 21
36.50758628282265
 31
0.0
  0
ARC
  5
74B
330
1A
100
AcDbEntity
  8
ZUWAKU
100
AcDbCircle
 10
78.56769024044206
 20
21.45758628282265
 30
0.0
 40
0.525
100
AcDbArc
 50
270.0
 51
0.0
  0
ARC
  5
74C
330
1A
100
AcDbEntity
  8
ZUWAKU
100
AcDbCircle
 10
76.81769024044206
 20
21.45758628282265
 30
0.0
 40
0.525
100
AcDbArc
 50
180.0
 51
270.0
  0
LINE
  5
74D
330
1A
100
AcDbEntity
  8
ZUWAKU
100
AcDbLine
 10
76.81769024044206
 20
20.93258628282265
 30
0.0
 11
78.56769024044206
 21
20.93258628282265
 31
0.0
  0
ARC
  5
74E
330
1A
100
AcDbEntity
  8
ZUWAKU
100
AcDbCircle
 10
78.56769024044206
 20
36.50758628282265
 30
0.0
 40
0.525
100
AcDbArc
 50
0.0
 51
90.0
  0
ARC
  5
74F
330
1A
100
AcDbEntity
  8
ZUWAKU
100
AcDbCircle
 10
76.81769024044206
 20
36.50758628282265
 30
0.0
 40
0.525
100
AcDbArc
 50
90.0
 51
180.0
  0
LINE
  5
750
330
1A
100
AcDbEntity
  8
ZUWAKU
100
AcDbLine
 10
78.56769024044206
 20
37.03258628282265
 30
0.0
 11
76.81769024044206
 21
37.03258628282265
 31
0.0
  0
TEXT
  5
751
330
1A
100
AcDbEntity
  8
moji
100
AcDbText
 10
103.0082676738297
 20
26.52376441309741
 30
0.0
 40
6.0
  1
大型　のきとい
 41
0.9
  7
ｽﾀｲﾙ1
100
AcDbText
  0
LINE
  5
757
330
1A
100
AcDbEntity
  8
ZUWAKU
100
AcDbLine
 10
218.4970793757283
 20
43.78258628282265
 30
0.0
 11
218.4970793757288
 21
14.58258628282271
 31
0.0
  0
LINE
  5
758
330
1A
100
AcDbEntity
  8
ZUWAKU
100
AcDbLine
 10
218.6970793757286
 20
43.78258628282265
 30
0.0
 11
218.6970793757286
 21
14.58258628282271
 31
0.0
  0
LINE
  5
759
330
1A
100
AcDbEntity
  8
ZUWAKU
100
AcDbLine
 10
218.2970793757285
 20
43.78258628282265
 30
0.0
 11
218.2970793757285
 21
14.58258628282271
 31
0.0
  0
TEXT
  5
75A
330
1A
100
AcDbEntity
  8
ZUWAKU
100
AcDbText
 10
219.7745243979379
 20
37.83794282120823
 30
0.0
 40
4.0
  1
品名
 41
0.9
  7
ｽﾀｲﾙ1
100
AcDbText
  0
TEXT
  5
75B
330
1A
100
AcDbEntity
  8
ZUWAKU
100
AcDbText
 10
219.7745243979384
 20
23.43794282120826
 30
0.0
 40
4.0
  1
サイズ
 41
0.9
  7
ｽﾀｲﾙ1
100
AcDbText
  0
TEXT
  5
792
330
1A
100
AcDbEntity
  8
ZUWAKU
100
AcDbText
 10
668.254415772963
 20
31.78750734023003
 30
0.0
 40
5.599999999999999
  1
　　．　　．　　
 41
0.9
  7
ｽﾀｲﾙ1
100
AcDbText
  0
LINE
  5
793
330
1A
100
AcDbEntity
  8
ZUWAKU
100
AcDbLine
 10
658.8676805958648
 20
29.38258628282268
 30
0.0
 11
707.2994886342021
 21
29.38258628282268
 31
0.0
  0
LINE
  5
794
330
1A
100
AcDbEntity
  8
ZUWAKU
100
AcDbLine
 10
658.8676805958653
 20
29.18258628282268
 30
0.0
 11
707.2994886342021
 21
29.18258628282268
 31
0.0
  0
LINE
  5
795
330
1A
100
AcDbEntity
  8
ZUWAKU
100
AcDbLine
 10
658.8676805958648
 20
28.98258628282268
 30
0.0
 11
707.2994886342021
 21
28.98258628282268
 31
0.0
  0
LINE
  5
79A
330
1A
100
AcDbEntity
  8
ZUWAKU
100
AcDbLine
 10
515.2496575838017
 20
29.38258628282268
 30
0.0
 11
562.5774338517731
 21
29.38258628282268
 31
0.0
  0
LINE
  5
79B
330
1A
100
AcDbEntity
  8
ZUWAKU
100
AcDbLine
 10
515.2496575838017
 20
29.18258628282268
 30
0.0
 11
562.5774338517731
 21
29.18258628282268
 31
0.0
  0
LINE
  5
79C
330
1A
100
AcDbEntity
  8
ZUWAKU
100
AcDbLine
 10
515.2496575838017
 20
28.98258628282269
 30
0.0
 11
562.5774338517731
 21
28.98258628282269
 31
0.0
  0
TEXT
  5
79D
330
1A
100
AcDbEntity
  8
moji
100
AcDbText
 10
538.0913860579735
 20
16.98750734023007
 30
0.0
 40
5.599999999999999
  1
１/２
 41
0.9
  7
ｽﾀｲﾙ1
100
AcDbText
  0
LINE
  5
79E
330
1A
100
AcDbEntity
  8
ZUWAKU
100
AcDbLine
 10
514.8496575838017
 20
43.78258628282265
 30
0.0
 11
514.8496575838017
 21
14.58258628282271
 31
0.0
  0
LINE
  5
79F
330
1A
100
AcDbEntity
  8
ZUWAKU
100
AcDbLine
 10
515.2496575838017
 20
43.78258628282265
 30
0.0
 11
515.2496575838017
 21
14.58258628282271
 31
0.0
  0
LINE
  5
7A0
330
1A
100
AcDbEntity
  8
ZUWAKU
100
AcDbLine
 10
515.0496575838015
 20
43.78258628282265
 30
0.0
 11
515.0496575838019
 21
14.58258628282271
 31
0.0
  0
LINE
  5
7A1
330
1A
100
AcDbEntity
  8
ZUWAKU
100
AcDbLine
 10
457.474842056652
 20
43.78258628282265
 30
0.0
 11
457.474842056652
 21
14.58258628282271
 31
0.0
  0
LINE
  5
7A2
330
1A
100
AcDbEntity
  8
ZUWAKU
100
AcDbLine
 10
457.8748420566521
 20
43.78258628282265
 30
0.0
 11
457.8748420566521
 21
14.58258628282271
 31
0.0
  0
LINE
  5
7A3
330
1A
100
AcDbEntity
  8
ZUWAKU
100
AcDbLine
 10
457.6748420566518
 20
43.78258628282265
 30
0.0
 11
457.6748420566523
 21
14.58258628282271
 31
0.0
  0
TEXT
  5
7A5
330
1A
100
AcDbEntity
  8
ZUWAKU
100
AcDbText
 10
459.3522870788615
 20
37.83794282120823
 30
0.0
 40
4.0
  1
品番
 41
0.9
  7
ｽﾀｲﾙ1
100
AcDbText
  0
TEXT
  5
7A6
330
1A
100
AcDbEntity
  8
ZUWAKU
100
AcDbText
 10
516.7271026060111
 20
37.83794282120823
 30
0.0
 40
4.0
  1
用紙
 41
0.9
  7
ｽﾀｲﾙ1
100
AcDbText
  0
TEXT
  5
7A7
330
1A
100
AcDbEntity
  8
ZUWAKU
100
AcDbText
 10
516.7271026060116
 20
23.43794282120826
 30
0.0
 40
4.0
  1
縮尺
 41
0.9
  7
ｽﾀｲﾙ1
100
AcDbText
  0
TEXT
  5
7A8
330
1A
100
AcDbEntity
  8
moji
100
AcDbText
 10
538.0913860579735
 20
31.78750734023003
 30
0.0
 40
5.599999999999999
  1
Ａ３
 41
0.9
  7
ｽﾀｲﾙ1
100
AcDbText
  0
LINE
  5
7A9
330
1A
100
AcDbEntity
  8
ZUWAKU
100
AcDbLine
 10
562.9774338517732
 20
43.78258628282265
 30
0.0
 11
562.9774338517732
 21
14.58258628282271
 31
0.0
  0
LINE
  5
7AA
330
1A
100
AcDbEntity
  8
ZUWAKU
100
AcDbLine
 10
658.4676805958651
 20
43.78258628282265
 30
0.0
 11
658.4676805958651
 21
14.58258628282271
 31
0.0
  0
LINE
  5
7AB
330
1A
100
AcDbEntity
  8
ZUWAKU
100
AcDbLine
 10
658.8676805958653
 20
43.78258628282265
 30
0.0
 11
658.8676805958653
 21
14.58258628282271
 31
0.0
  0
LINE
  5
7AC
330
1A
100
AcDbEntity
  8
ZUWAKU
100
AcDbLine
 10
658.667680595865
 20
43.78258628282265
 30
0.0
 11
658.6676805958655
 21
14.58258628282271
 31
0.0
  0
LINE
  5
7AD
330
1A
100
AcDbEntity
  8
ZUWAKU
100
AcDbLine
 10
562.5774338517731
 20
43.78258628282265
 30
0.0
 11
562.5774338517731
 21
14.58258628282271
 31
0.0
  0
LINE
  5
7AE
330
1A
100
AcDbEntity
  8
ZUWAKU
100
AcDbLine
 10
562.7774338517729
 20
43.78258628282265
 30
0.0
 11
562.7774338517733
 21
14.58258628282271
 31
0.0
  0
TEXT
  5
7AF
330
1A
100
AcDbEntity
  8
ZUWAKU
100
AcDbText
 10
660.3451256180747
 20
37.83794282120823
 30
0.0
 40
4.0
  1
DATE
 41
0.9
  7
ｽﾀｲﾙ1
100
AcDbText
  0
LINE
  5
7BB
330
1A
100
AcDbEntity
  8
ZUWAKU
100
AcDbLine
 10
707.899488634202
 20
43.78258628282265
 30
0.0
 11
707.899488634202
 21
14.58258628282271
 31
0.0
  0
LINE
  5
7BC
330
1A
100
AcDbEntity
  8
ZUWAKU
100
AcDbLine
 10
707.6994886342017
 20
43.78258628282265
 30
0.0
 11
707.6994886342022
 21
14.58258628282271
 31
0.0
  0
LINE
  5
7BD
330
1A
100
AcDbEntity
  8
ZUWAKU
100
AcDbLine
 10
707.4994886342019
 20
43.78258628282265
 30
0.0
 11
707.4994886342019
 21
14.58258628282271
 31
0.0
  0
LINE
  5
7BE
330
1A
100
AcDbEntity
  8
ZUWAKU
100
AcDbLine
 10
707.2994886342021
 20
43.78258628282265
 30
0.0
 11
707.2994886342021
 21
14.58258628282271
 31
0.0
  0
TEXT
  5
7BF
330
1A
100
AcDbEntity
  8
ZUWAKU
100
AcDbText
 10
717.0821377722496
 20
26.0077811557843
 30
0.0
 40
6.0
  1
積水化学工業株式会社
 41
0.9
  7
ｽﾀｲﾙ1
100
AcDbText
  0
TEXT
  5
6C79
330
1A
100
AcDbEntity
  8
moji
100
AcDbText
 10
471.8052829162452
 20
25.28215857673821
 30
0.0
 40
5.599999999999999
  1
ＬＦ２３
 41
0.9
  7
ｽﾀｲﾙ1
100
AcDbText
  0
TEXT
  5
8B1A
330
1A
100
AcDbEntity
  8
moji
100
AcDbText
 10
250.0781695249838
 20
32.43486842318338
 30
0.0
 40
5.599999999999999
  1
亜鉛メッキ金具スレート打（受）
 41
0.9
  7
ｽﾀｲﾙ1
100
AcDbText
  0
TEXT
  5
8F01
330
1A
100
AcDbEntity
  8
moji
100
AcDbText
 10
250.0781695249838
 20
18.09670092708415
 30
0.0
 40
5.599999999999999
  1
Ｖ３００大波－Ｌ２００
 41
0.9
  7
ｽﾀｲﾙ1
100
AcDbText
  0
LINE
  5
9152
330
1A
100
AcDbEntity
  8
SEIHIN
  6
PHANTOM
 62
     6
 48
5.0
100
AcDbLine
 10
505.0021380524807
 20
366.2987816665133
 30
0.0
 11
499.9331406037405
 21
324.6852657514326
 31
0.0
  0
DIMENSION
  5
9153
330
1A
100
AcDbEntity
  8
SUNPOU
  6
Continuous
100
AcDbDimension
  2
*D2
 10
490.7873007094702
 20
342.7556764207992
 30
0.0
 11
585.1327944642969
 21
376.2808513679231
 31
0.0
 70
    33
 71
     5
 42
-1.0
  3
STANDARD
100
AcDbAlignedDimension
 13
689.1577626228525
 23
377.5426538796588
 33
0.0
 14
497.5931702425535
 24
320.0705290322242
 34
0.0
1001
ACAD
1000
DSTYLE
1002
{
1070
   140
1040
6.0
1070
    74
1070
     0
1070
   172
1070
     1
1070
    73
1070
     0
1070
   272
1070
     2
1070
    77
1070
     3
1070
   173
1070
     1
1070
   147
1040
2.0
1070
    42
1040
6.0
1070
    44
1040
3.0
1070
    43
1040
14.0
1070
   271
1070
     0
1070
   178
1070
     4
1070
   177
1070
     4
1070
   176
1070
     4
1070
   141
1040
150.0
1070
     7
1000
_OPEN
1070
     6
1000
_OPEN
1070
    41
1040
7.0
1002
}
  0
ARC
  5
9154
330
1A
100
AcDbEntity
  8
SEIHIN
  6
Continuous
 62
     3
100
AcDbCircle
 10
504.7046304298625
 20
310.9285321356125
 30
0.0
 40
6.399948201401389
100
AcDbArc
 50
106.7000269959695
 51
173.0554141718086
  0
LINE
  5
9155
330
1A
100
AcDbEntity
  8
SEIHIN
  6
Continuous
 62
     3
100
AcDbLine
 10
495.1187350994267
 20
235.5716456222364
 30
0.0
 11
503.1809350994266
 21
235.5919456222363
 31
0.0
  0
LINE
  5
9156
330
1A
100
AcDbEntity
  8
SEIHIN
  6
Continuous
 62
     3
100
AcDbLine
 10
496.5771350994267
 20
247.4827456222363
 30
0.0
 11
504.3962350994267
 21
245.5179456222363
 31
0.0
  0
LINE
  5
9157
330
1A
100
AcDbEntity
  8
SEIHIN
  6
Continuous
 62
     3
100
AcDbLine
 10
495.1187350994267
 20
235.5716456222364
 30
0.0
 11
501.2908350994265
 21
226.4663456222363
 31
0.0
  0
ARC
  5
9158
330
1A
100
AcDbEntity
  8
SEIHIN
  6
Continuous
 62
     3
100
AcDbCircle
 10
505.4295085225823
 20
229.2718102789987
 30
0.0
 40
5.000007738850215
100
AcDbArc
 50
214.131354859442
 51
67.77500050497213
  0
LINE
  5
9159
330
1A
100
AcDbEntity
  8
SEIHIN
  6
Continuous
 62
     3
100
AcDbLine
 10
496.5771350994267
 20
247.4827456222363
 30
0.0
 11
504.7636350994265
 21
254.8299456222363
 31
0.0
  0
LINE
  5
915A
330
1A
100
AcDbEntity
  8
SEIHIN
  6
Continuous
 62
     3
100
AcDbLine
 10
502.7193350994265
 20
311.1703456222363
 30
0.0
 11
481.2187350994267
 21
134.6629456222363
 31
0.0
  0
LINE
  5
915B
330
1A
100
AcDbEntity
  8
CENTER L
  6
CENTER
 62
     1
 48
5.0
100
AcDbLine
 10
515.5483350994266
 20
239.0991456222363
 30
0.0
 11
476.7206350994266
 21
243.8665456222363
 31
0.0
  0
DIMENSION
  5
915C
330
1A
100
AcDbEntity
  8
SUNPOU
  6
Continuous
 62
     4
100
AcDbDimension
  2
*D3
 10
517.7551689994744
 20
128.1975730667739
 30
0.0
 11
523.9160673012399
 21
220.125452879474
 31
0.0
 70
    33
 71
     5
 42
-1.0
  3
STANDARD
100
AcDbAlignedDimension
 13
498.8576218753047
 23
315.8562022701736
 33
0.0
 14
476.609199719209
 24
133.2096180411334
 34
0.0
1001
ACAD
1000
DSTYLE
1002
{
1070
   140
1040
6.0
1070
    74
1070
     0
1070
   172
1070
     1
1070
    73
1070
     0
1070
   272
1070
     2
1070
    77
1070
     3
1070
   173
1070
     1
1070
   147
1040
2.0
1070
    42
1040
6.0
1070
    44
1040
3.0
1070
    43
1040
14.0
1070
   271
1070
     0
1070
   178
1070
     4
1070
   177
1070
     4
1070
   176
1070
     4
1070
   141
1040
150.0
1070
     7
1000
_OPEN
1070
     6
1000
_OPEN
1070
    41
1040
7.0
1002
}
  0
DIMENSION
  5
915E
330
1A
100
AcDbEntity
  8
SUNPOU
100
AcDbDimension
  2
*D4
 10
381.9698839494364
 20
350.049170471068
 30
0.0
 11
440.4137226998878
 21
355.049170471068
 31
0.0
 70
    32
 71
     5
 42
-1.0
  3
STANDARD
100
AcDbAlignedDimension
 13
498.8575614503393
 23
315.8560954027184
 33
0.0
 14
381.9698839494364
 24
140.0856456222364
 34
0.0
100
AcDbRotatedDimension
1001
ACAD
1000
DSTYLE
1002
{
1070
    41
1040
7.0
1070
    42
1040
6.0
1070
    43
1040
14.0
1070
    44
1040
3.0
1070
    73
1070
     0
1070
    74
1070
     0
1070
    77
1070
     3
1070
   140
1040
6.0
1070
   141
1040
150.0
1070
   147
1040
2.0
1070
   172
1070
     1
1070
   173
1070
     1
1070
   176
1070
   256
1070
   177
1070
   256
1070
   178
1070
   256
1070
   271
1070
     0
1070
   272
1070
     0
1070
   341
1005
6D
1070
     6
1000
OPEN
1070
     7
1000
OPEN
1070
   371
1070
    -1
1070
   372
1070
    -1
1002
}
  0
DIMENSION
  5
915F
330
1A
100
AcDbEntity
  8
SUNPOU
100
AcDbDimension
  2
*D5
 10
491.2171350994266
 20
368.9215274415096
 30
0.0
 11
383.1073850994266
 21
373.9215274415096
 31
0.0
 70
    32
 71
     5
 42
-1.0
  3
STANDARD
100
AcDbAlignedDimension
 13
274.9976350994267
 23
312.8839456222363
 33
0.0
 14
491.2171350994266
 24
253.1327456222363
 34
0.0
100
AcDbRotatedDimension
1001
ACAD
1000
DSTYLE
1002
{
1070
    41
1040
7.0
1070
    42
1040
6.0
1070
    43
1040
14.0
1070
    44
1040
3.0
1070
    73
1070
     0
1070
    74
1070
     0
1070
    77
1070
     3
1070
   140
1040
6.0
1070
   141
1040
150.0
1070
   147
1040
2.0
1070
   172
1070
     1
1070
   173
1070
     1
1070
   176
1070
   256
1070
   177
1070
   256
1070
   178
1070
   256
1070
   271
1070
     0
1070
   272
1070
     0
1070
   341
1005
6D
1070
     6
1000
OPEN
1070
     7
1000
OPEN
1070
   371
1070
    -1
1070
   372
1070
    -1
1002
}
  0
LINE
  5
9160
330
1A
100
AcDbEntity
  8
SEIHIN
  6
Continuous
 62
     3
100
AcDbLine
 10
275.7976350994266
 20
263.1001456222363
 30
0.0
 11
275.7976350994266
 21
312.8839456222363
 31
0.0
  0
LINE
  5
9161
330
1A
100
AcDbEntity
  8
SEIHIN
  6
Continuous
 62
     3
100
AcDbLine
 10
274.9976350994267
 20
262.8839456222363
 30
0.0
 11
274.9976350994267
 21
312.8839456222363
 31
0.0
  0
DIMENSION
  5
9162
330
1A
100
AcDbEntity
  8
SUNPOU
  6
Continuous
100
AcDbDimension
  2
*D6
 10
249.7678990162363
 20
280.8839456222362
 30
0.0
 11
244.7678990162363
 21
296.8839456222363
 31
0.0
 70
    32
 71
     5
 42
-1.0
  3
STANDARD
100
AcDbAlignedDimension
 13
274.9976350994267
 23
312.8839456222363
 33
0.0
 14
275.7976350994266
 24
280.8839456222362
 34
0.0
 50
90.0
100
AcDbRotatedDimension
1001
ACAD
1000
DSTYLE
1002
{
1070
   140
1040
6.0
1070
    74
1070
     0
1070
   172
1070
     1
1070
    73
1070
     0
1070
   272
1070
     2
1070
    77
1070
     3
1070
   173
1070
     1
1070
   147
1040
2.0
1070
    42
1040
6.0
1070
    44
1040
3.0
1070
    43
1040
14.0
1070
   271
1070
     0
1070
   178
1070
     4
1070
   177
1070
     4
1070
   176
1070
     4
1070
   141
1040
150.0
1070
     7
1000
_OPEN
1070
     6
1000
_OPEN
1070
    41
1040
7.0
1002
}
  0
DIMENSION
  5
9163
330
1A
100
AcDbEntity
  8
SUNPOU
  6
Continuous
100
AcDbDimension
  2
*D7
 10
227.0445690629149
 20
312.8839456222363
 30
0.0
 11
222.0445690629149
 21
207.6906956222363
 31
0.0
 70
    32
 71
     5
 42
-1.0
  3
STANDARD
100
AcDbAlignedDimension
 13
310.4594350994266
 23
102.4974456222363
 33
0.0
 14
274.9976350994267
 24
312.8839456222363
 34
0.0
 50
90.0
100
AcDbRotatedDimension
1001
ACAD
1000
DSTYLE
1002
{
1070
   140
1040
6.0
1070
    74
1070
     0
1070
   172
1070
     1
1070
    73
1070
     0
1070
   272
1070
     2
1070
    77
1070
     3
1070
   173
1070
     1
1070
   147
1040
2.0
1070
    42
1040
6.0
1070
    44
1040
3.0
1070
    43
1040
14.0
1070
   271
1070
     0
1070
   178
1070
     4
1070
   177
1070
     4
1070
   176
1070
     4
1070
   141
1040
150.0
1070
     7
1000
_OPEN
1070
     6
1000
_OPEN
1070
    41
1040
7.0
1002
}
  0
LINE
  5
9164
330
1A
100
AcDbEntity
  8
SEIHIN
  6
Continuous
 62
     3
100
AcDbLine
 10
498.3516350994267
 20
311.7023456222363
 30
0.0
 11
476.8510350994266
 21
135.1949456222363
 31
0.0
  0
LINE
  5
9165
330
1A
100
AcDbEntity
  8
SEIHIN
  6
Continuous
 62
     3
100
AcDbLine
 10
314.6422350994265
 20
121.1377456222363
 30
0.0
 11
315.3657350994266
 21
115.1815456222363
 31
0.0
  0
ARC
  5
9166
330
1A
100
AcDbEntity
  8
SEIHIN
  6
Continuous
 62
     3
100
AcDbCircle
 10
309.6699367640245
 20
117.5732135935951
 30
0.0
 40
7.173685814780037
100
AcDbArc
 50
141.4937987429451
 51
232.3585364983439
  0
LINE
  5
9167
330
1A
100
AcDbEntity
  8
SEIHIN
  6
Continuous
 62
     3
100
AcDbLine
 10
305.9580350994266
 20
106.3829456222363
 30
0.0
 11
287.8809350994266
 21
255.2011456222364
 31
0.0
  0
LINE
  5
9168
330
1A
100
AcDbEntity
  8
SEIHIN
  6
Continuous
 62
     3
100
AcDbLine
 10
291.8849350994265
 20
255.4104456222364
 30
0.0
 11
310.4594350994266
 21
102.4974456222363
 31
0.0
  0
LINE
  5
9169
330
1A
100
AcDbEntity
  8
SEIHIN
  6
Continuous
 62
     3
100
AcDbLine
 10
314.8273350994267
 20
103.0279456222363
 30
0.0
 11
312.2015350994266
 21
124.6444456222363
 31
0.0
  0
LINE
  5
916D
330
1A
100
AcDbEntity
  8
SEIHIN
  6
Continuous
 62
     3
100
AcDbLine
 10
316.4157350994265
 20
103.2209456222363
 30
0.0
 11
310.8565350994266
 21
102.5456456222363
 31
0.0
  0
ARC
  5
916E
330
1A
100
AcDbEntity
  8
SEIHIN
  6
Continuous
 62
     3
100
AcDbCircle
 10
310.3259322326749
 20
106.9135419626885
 30
0.0
 40
4.40000657307927
100
AcDbArc
 50
186.9261484357468
 51
276.9262340443187
  0
LINE
  5
916F
330
1A
100
AcDbEntity
  8
SEIHIN
  6
Continuous
 62
     3
100
AcDbLine
 10
316.4157350994265
 20
103.2208456222363
 30
0.0
 11
315.9333350994267
 21
107.1917456222363
 31
0.0
  0
LINE
  5
9170
330
1A
100
AcDbEntity
  8
SEIHIN
  6
Continuous
 62
     3
100
AcDbLine
 10
314.3450350994265
 20
106.9987456222363
 30
0.0
 11
315.9333350994267
 21
107.1917456222363
 31
0.0
  0
LINE
  5
9171
330
1A
100
AcDbEntity
  8
SEIHIN
  6
Continuous
 62
     3
100
AcDbLine
 10
315.3657350994266
 20
115.1815456222363
 30
0.0
 11
313.3803350994265
 21
114.9404456222363
 31
0.0
  0
LINE
  5
9172
330
1A
100
AcDbEntity
  8
NOKITOI
 48
2.0
100
AcDbLine
 10
454.4902852624201
 20
132.1856456222364
 30
0.0
 11
309.4506677064856
 21
132.1856456222364
 31
0.0
  0
LINE
  5
9173
330
1A
100
AcDbEntity
  8
NOKITOI
 48
2.0
100
AcDbLine
 10
308.2986839494362
 20
131.2856456222363
 30
0.0
 11
455.6414839494363
 21
131.2856456222363
 31
0.0
  0
LINE
  5
9174
330
1A
100
AcDbEntity
  8
NOKITOI
 48
2.0
100
AcDbLine
 10
454.4902852624201
 20
133.0856456222364
 30
0.0
 11
309.4506677064856
 21
133.0856456222364
 31
0.0
  0
LINE
  5
9175
330
1A
100
AcDbEntity
  8
SEIHIN
  6
Continuous
 62
     3
100
AcDbLine
 10
314.1869350994267
 20
131.2856456222363
 30
0.0
 11
455.6341350994265
 21
131.2856456222363
 31
0.0
  0
LINE
  5
9176
330
1A
100
AcDbEntity
  8
SEIHIN
  6
Continuous
 62
     3
100
AcDbLine
 10
314.1869350994267
 20
126.8856456222363
 30
0.0
 11
456.0768350994266
 21
126.8856456222363
 31
0.0
  0
LINE
  5
9177
330
1A
100
AcDbEntity
  8
NOKITOI
 48
2.0
100
AcDbLine
 10
291.6599930698192
 20
264.7858456222365
 30
0.0
 11
307.5645326426233
 21
133.8565287942439
 31
0.0
  0
LINE
  5
9178
330
1A
100
AcDbEntity
  8
NOKITOI
 48
2.0
100
AcDbLine
 10
290.9354839494362
 20
263.2858456222363
 30
0.0
 11
306.8096839494363
 21
132.6048456222363
 31
0.0
  0
LINE
  5
9179
330
1A
100
AcDbEntity
  8
NOKITOI
 48
2.0
100
AcDbLine
 10
290.5622839494362
 20
281.2858456222364
 30
0.0
 11
308.4579650412949
 21
133.9650578180298
 31
0.0
  0
DIMENSION
  5
917A
330
1A
100
AcDbEntity
  8
SUNPOU
  6
Continuous
100
AcDbDimension
  2
*D8
 10
249.7678990162363
 20
131.2856456222363
 30
0.0
 11
244.7678990162363
 21
206.0847956222363
 31
0.0
 70
    32
 71
     5
 42
-1.0
  3
STANDARD
100
AcDbAlignedDimension
 13
275.7976350994266
 23
280.8839456222362
 33
0.0
 14
314.1869350994267
 24
131.2856456222363
 34
0.0
 50
90.0
100
AcDbRotatedDimension
1001
ACAD
1000
DSTYLE
1002
{
1070
   287
1070
     4
1070
   287
1070
     4
1070
   287
1070
     4
1070
   287
1070
     4
1070
   287
1070
     4
1070
   287
1070
     4
1070
   287
1070
     4
1070
   287
1070
     4
1070
    41
1040
7.0
1070
    42
1040
6.0
1070
    43
1040
14.0
1070
    44
1040
3.0
1070
    73
1070
     0
1070
    74
1070
     0
1070
    75
1070
     1
1070
    77
1070
     3
1070
   140
1040
6.0
1070
   141
1040
150.0
1070
   147
1040
2.0
1070
   172
1070
     1
1070
   173
1070
     1
1070
   176
1070
     4
1070
   177
1070
     4
1070
   178
1070
     4
1070
   271
1070
     0
1070
   272
1070
     2
1070
   279
1070
     1
1070
     6
1000
OPEN
1070
     7
1000
OPEN
1002
}
  0
DIMENSION
  5
917B
330
1A
100
AcDbEntity
  8
SUNPOU
  6
Continuous
 62
     4
100
AcDbDimension
  2
*D9
 10
296.2973944911765
 20
185.9133540487368
 30
0.0
 11
271.3732465338572
 21
187.922545080385
 31
0.0
 70
    33
  1
t<>
 71
     5
 42
-1.0
  3
STANDARD
100
AcDbAlignedDimension
 13
300.8903187051783
 23
181.2743868693051
 33
0.0
 14
296.9194850994266
 24
180.7920456222363
 34
0.0
1001
ACAD
1000
DSTYLE
1002
{
1070
   140
1040
6.0
1070
    74
1070
     0
1070
   172
1070
     1
1070
    73
1070
     0
1070
   272
1070
     2
1070
    77
1070
     3
1070
   173
1070
     1
1070
   147
1040
2.0
1070
    42
1040
6.0
1070
    44
1040
3.0
1070
    43
1040
14.0
1070
   271
1070
     1
1070
   178
1070
     4
1070
   177
1070
     4
1070
   176
1070
     4
1070
   141
1040
150.0
1070
     7
1000
_OPEN
1070
     6
1000
_OPEN
1070
    41
1040
7.0
1002
}
  0
LINE
  5
917C
330
1A
100
AcDbEntity
  8
SEIHIN
  6
Continuous
 62
     3
100
AcDbLine
 10
318.1869350994267
 20
131.2856456222363
 30
0.0
 11
355.5207350994265
 21
131.2856456222363
 31
0.0
  0
LINE
  5
917D
330
1A
100
AcDbEntity
  8
SEIHIN
  6
Continuous
 62
     3
100
AcDbLine
 10
318.1869350994267
 20
126.8856456222363
 30
0.0
 11
355.5207350994265
 21
126.8856456222363
 31
0.0
  0
ARC
  5
917E
330
1A
100
AcDbEntity
  8
NOKITOI
 48
2.0
100
AcDbCircle
 10
309.4506677064856
 20
134.0856456222364
 30
0.0
 40
1.9
100
AcDbArc
 50
186.9260276328713
 51
270.0
  0
ARC
  5
917F
330
1A
100
AcDbEntity
  8
NOKITOI
 48
2.0
100
AcDbCircle
 10
308.298719762261
 20
132.7856138948985
 30
0.0
 40
1.499968273089708
100
AcDbArc
 50
186.9218100777314
 51
269.9986320219204
  0
ARC
  5
9180
330
1A
100
AcDbEntity
  8
SEIHIN
  6
Continuous
 62
     3
100
AcDbCircle
 10
314.1869375782836
 20
124.8856474852642
 30
0.0
 40
6.399998136972538
100
AcDbArc
 50
90.00002219188763
 51
186.9254878059795
  0
ARC
  5
9181
330
1A
100
AcDbEntity
  8
SEIHIN
  6
Continuous
 62
     3
100
AcDbCircle
 10
314.1869406929798
 20
124.8856535244092
 30
0.0
 40
1.999992097834982
100
AcDbArc
 50
90.00016024412637
 51
186.9241012294107
  0
LINE
  5
9182
330
1A
100
AcDbEntity
  8
SEIHIN
  6
Continuous
 62
     3
100
AcDbLine
 10
314.6422350994265
 20
121.1377456222363
 30
0.0
 11
312.6568350994266
 21
120.8966456222363
 31
0.0
  0
ARC
  5
9183
330
1A
100
AcDbEntity
  8
NOKITOI
 48
2.0
100
AcDbCircle
 10
309.4506677064856
 20
134.0856456222364
 30
0.0
 40
1.0
100
AcDbArc
 50
186.9260276328713
 51
270.0
  0
ARC
  5
9184
330
1A
100
AcDbEntity
  8
SEIHIN
  6
Continuous
 62
     3
100
AcDbCircle
 10
281.1976081926808
 20
263.1001922088585
 30
0.0
 40
5.399973093455059
100
AcDbArc
 50
180.0004943018756
 51
255.9638960451319
  0
ARC
  5
9185
330
1A
100
AcDbEntity
  8
SEIHIN
  6
Continuous
 62
     3
100
AcDbCircle
 10
286.5243154331297
 20
254.7592550386629
 30
0.0
 40
5.400027072415725
100
AcDbArc
 50
6.92616846429133
 51
75.96352986548847
  0
ARC
  5
9186
330
1A
100
AcDbEntity
  8
SEIHIN
  6
Continuous
 62
     3
100
AcDbCircle
 10
286.888192582085
 20
255.0805935068197
 30
0.0
 40
1.000035258513036
100
AcDbArc
 50
6.92372247344642
 51
75.9579487368626
  0
LINE
  5
9187
330
1A
100
AcDbEntity
  8
SEIHIN
  6
Continuous
 62
     3
100
AcDbLine
 10
279.8879350994267
 20
257.8614456222363
 30
0.0
 11
287.1307350994267
 21
256.0507456222363
 31
0.0
  0
LINE
  5
9188
330
1A
100
AcDbEntity
  8
NOKITOI
 48
2.0
100
AcDbLine
 10
288.9675839494362
 20
279.4858456222363
 30
0.0
 11
282.5622839494362
 21
279.4858456222363
 31
0.0
  0
LINE
  5
9189
330
1A
100
AcDbEntity
  8
NOKITOI
 48
2.0
100
AcDbLine
 10
288.9675839494362
 20
279.7858456222362
 30
0.0
 11
282.5622839494362
 21
279.7858456222362
 31
0.0
  0
LINE
  5
918A
330
1A
100
AcDbEntity
  8
NOKITOI
 48
2.0
100
AcDbLine
 10
290.5622839494362
 20
281.2858456222364
 30
0.0
 11
282.5622839494362
 21
281.2858456222364
 31
0.0
  0
LINE
  5
918B
330
1A
100
AcDbEntity
  8
NOKITOI
 48
2.0
100
AcDbLine
 10
290.7167839494363
 20
265.0858456222364
 30
0.0
 11
282.3621839494363
 21
265.0858456222364
 31
0.0
  0
LINE
  5
918C
330
1A
100
AcDbEntity
  8
NOKITOI
 48
2.0
100
AcDbLine
 10
291.6599930698192
 20
264.7858456222365
 30
0.0
 11
282.0621839494364
 21
264.7858456222365
 31
0.0
  0
LINE
  5
918D
330
1A
100
AcDbEntity
  8
NOKITOI
 48
2.0
100
AcDbLine
 10
280.5621839494364
 20
263.2858456222363
 30
0.0
 11
290.9354839494362
 21
263.2858456222363
 31
0.0
  0
LINE
  5
918E
330
1A
100
AcDbEntity
  8
SEIHIN
  6
Continuous
 62
     3
100
AcDbLine
 10
287.8340350994266
 20
259.9980456222362
 30
0.0
 11
280.5551350994266
 21
261.8177456222363
 31
0.0
  0
LINE
  5
918F
330
1A
100
AcDbEntity
  8
NOKITOI
 48
2.0
100
AcDbLine
 10
282.3621839494363
 20
265.0858456222364
 30
0.0
 11
282.3621839494363
 21
279.2858456222365
 31
0.0
  0
LINE
  5
9190
330
1A
100
AcDbEntity
  8
NOKITOI
 48
2.0
100
AcDbLine
 10
282.0621839494364
 20
264.7858456222365
 30
0.0
 11
282.0621839494364
 21
279.2858456222365
 31
0.0
  0
LINE
  5
9191
330
1A
100
AcDbEntity
  8
NOKITOI
 48
2.0
100
AcDbLine
 10
280.5621839494364
 20
263.2858456222363
 30
0.0
 11
280.5622839494363
 21
279.2858456222365
 31
0.0
  0
LINE
  5
9192
330
1A
100
AcDbEntity
  8
SEIHIN
  6
Continuous
 62
     3
100
AcDbLine
 10
279.7976350994266
 20
262.7878456222363
 30
0.0
 11
279.7976350994266
 21
280.8839456222362
 31
0.0
  0
LINE
  5
9193
330
1A
100
AcDbEntity
  8
SEIHIN
  6
Continuous
 62
     3
100
AcDbLine
 10
275.7976350994266
 20
262.8840456222362
 30
0.0
 11
274.9976350994267
 21
262.8840456222362
 31
0.0
  0
ARC
  5
9194
330
1A
100
AcDbEntity
  8
SEIHIN
  6
Continuous
 62
     3
100
AcDbCircle
 10
280.7976090492055
 20
262.787876688062
 30
0.0
 40
0.9999739502614604
100
AcDbArc
 50
180.001779987068
 51
255.9670259464271
  0
LINE
  5
9195
330
1A
100
AcDbEntity
  8
SEIHIN
  6
Continuous
 62
     3
100
AcDbLine
 10
279.7976350994266
 20
280.8839456222362
 30
0.0
 11
275.7976350994266
 21
280.8839456222362
 31
0.0
  0
ARC
  5
9196
330
1A
100
AcDbEntity
  8
NOKITOI
 48
2.0
100
AcDbCircle
 10
282.5622339494362
 20
279.2857956222363
 30
0.0
 40
0.2000500062483002
100
AcDbArc
 50
89.98567963550119
 51
179.9856796354979
  0
ARC
  5
9197
330
1A
100
AcDbEntity
  8
NOKITOI
 48
2.0
100
AcDbCircle
 10
282.5622339494362
 20
279.2857956222363
 30
0.0
 40
0.5000500062483003
100
AcDbArc
 50
89.98567963550119
 51
179.9856796354979
  0
ARC
  5
9198
330
1A
100
AcDbEntity
  8
NOKITOI
 48
2.0
100
AcDbCircle
 10
282.5622839494362
 20
279.2858456222365
 30
0.0
 40
2.0
100
AcDbArc
 50
90.0
 51
180.0
  0
LINE
  5
9199
330
1A
100
AcDbEntity
  8
NOKITOI
 48
2.0
100
AcDbLine
 10
290.716813326748
 20
265.0858456222365
 30
0.0
 11
288.9675839494362
 21
279.4858456222363
 31
0.0
  0
LINE
  5
919A
330
1A
100
AcDbEntity
  8
NOKITOI
 48
2.0
100
AcDbLine
 10
468.6705643085629
 20
234.7856456222364
 30
0.0
 11
456.3763444884467
 21
133.8559053429652
 31
0.0
  0
LINE
  5
919B
330
1A
100
AcDbEntity
  8
NOKITOI
 48
2.0
100
AcDbLine
 10
469.3945839494364
 20
233.2857456222364
 30
0.0
 11
457.1304839494363
 21
132.6043456222364
 31
0.0
  0
LINE
  5
919C
330
1A
100
AcDbEntity
  8
NOKITOI
 48
2.0
100
AcDbLine
 10
469.7737839494362
 20
251.2857456222362
 30
0.0
 11
455.4829480129605
 21
133.9647296857779
 31
0.0
  0
LINE
  5
919D
330
1A
100
AcDbEntity
  8
SEIHIN
  6
Continuous
 62
     3
100
AcDbLine
 10
468.1252350994267
 20
222.9260456222363
 30
0.0
 11
457.1231350994265
 21
132.6042456222363
 31
0.0
  0
LINE
  5
919E
330
1A
100
AcDbEntity
  8
SEIHIN
  6
Continuous
 62
     3
100
AcDbLine
 10
461.4372350994266
 20
131.6327456222363
 30
0.0
 11
472.5205350994266
 21
222.6203456222363
 31
0.0
  0
DIMENSION
  5
919F
330
1A
100
AcDbEntity
  8
SUNPOU
  6
Continuous
 62
     4
100
AcDbDimension
  2
*D10
 10
434.595299776017
 20
131.2856456222363
 30
0.0
 11
429.5952997760169
 21
195.2356456222364
 31
0.0
 70
    32
 71
     5
 42
-1.0
  3
STANDARD
100
AcDbAlignedDimension
 13
472.4518350994266
 23
259.1856456222363
 33
0.0
 14
451.6341350994265
 24
131.2856456222363
 34
0.0
 50
90.0
100
AcDbRotatedDimension
1001
ACAD
1000
DSTYLE
1002
{
1070
   140
1040
6.0
1070
    74
1070
     0
1070
   172
1070
     1
1070
    73
1070
     0
1070
   272
1070
     2
1070
    77
1070
     3
1070
   173
1070
     1
1070
   147
1040
2.0
1070
    42
1040
6.0
1070
    44
1040
3.0
1070
    43
1040
14.0
1070
   271
1070
     0
1070
   178
1070
     4
1070
   177
1070
     4
1070
   176
1070
     4
1070
   141
1040
150.0
1070
     7
1000
_OPEN
1070
     6
1000
_OPEN
1070
    41
1040
7.0
1002
}
  0
LINE
  5
91A0
330
1A
100
AcDbEntity
  8
SEIHIN
  6
Continuous
 62
     3
100
AcDbLine
 10
451.6341350994265
 20
131.2856456222363
 30
0.0
 11
426.0992350994266
 21
131.2856456222363
 31
0.0
  0
LINE
  5
91A1
330
1A
100
AcDbEntity
  8
CENTER L
  6
CENTER
 62
     1
 48
5.0
100
AcDbLine
 10
381.9698839494364
 20
124.2856456222363
 30
0.0
 11
381.9698839494364
 21
140.0856456222364
 31
0.0
  0
LINE
  5
91A2
330
1A
100
AcDbEntity
  8
SEIHIN
  6
Continuous
 62
     3
100
AcDbLine
 10
474.0918350994264
 20
129.0837456222363
 30
0.0
 11
460.8304350994266
 21
130.6991456222363
 31
0.0
  0
LINE
  5
91A3
330
1A
100
AcDbEntity
  8
SEIHIN
  6
Continuous
 62
     3
100
AcDbLine
 10
474.6239350994265
 20
133.4514456222363
 30
0.0
 11
461.3624350994268
 21
135.0668456222363
 31
0.0
  0
ARC
  5
91A4
330
1A
100
AcDbEntity
  8
NOKITOI
 48
2.0
100
AcDbCircle
 10
454.4902852624201
 20
134.0856456222364
 30
0.0
 40
1.9
100
AcDbArc
 50
270.0
 51
353.055033190653
  0
ARC
  5
91A5
330
1A
100
AcDbEntity
  8
NOKITOI
 48
2.0
100
AcDbCircle
 10
455.6414821973777
 20
132.785644070568
 30
0.0
 40
1.499998448332718
100
AcDbArc
 50
270.0000669237786
 51
353.0579294895364
  0
ARC
  5
91A6
330
1A
100
AcDbEntity
  8
SEIHIN
  6
Continuous
 62
     3
100
AcDbCircle
 10
455.6341403658915
 20
132.7856498981607
 30
0.0
 40
1.500004275933642
100
AcDbArc
 50
269.999798836437
 51
353.0538844169224
  0
ARC
  5
91A7
330
1A
100
AcDbEntity
  8
SEIHIN
  6
Continuous
 62
     3
100
AcDbCircle
 10
456.0768503596944
 20
132.2856596898284
 30
0.0
 40
5.400014067613672
100
AcDbArc
 50
269.9998380839502
 51
353.0543244236016
  0
ARC
  5
91A8
330
1A
100
AcDbEntity
  8
NOKITOI
 48
2.0
100
AcDbCircle
 10
454.4902852624201
 20
134.0856456222364
 30
0.0
 40
1.0
100
AcDbArc
 50
270.0
 51
353.055033190653
  0
ARC
  5
91A9
330
1A
100
AcDbEntity
  8
SEIHIN
  6
Continuous
 62
     3
100
AcDbCircle
 10
474.8656797432158
 20
135.4368024642886
 30
0.0
 40
6.400013028976522
100
AcDbArc
 50
263.0552038675939
 51
353.0550938561331
  0
ARC
  5
91AA
330
1A
100
AcDbEntity
  8
SEIHIN
  6
Continuous
 62
     3
100
AcDbCircle
 10
474.8656804492569
 20
135.4368015625045
 30
0.0
 40
2.000031845444695
100
AcDbArc
 50
263.054755383681
 51
353.054449752046
  0
ARC
  5
91AB
330
1A
100
AcDbEntity
  8
SEIHIN
  6
Continuous
 62
     3
100
AcDbCircle
 10
472.4518657052711
 20
253.7856570099284
 30
0.0
 40
5.399988612394669
100
AcDbArc
 50
90.00032473877817
 51
150.0000697602517
  0
ARC
  5
91AC
330
1A
100
AcDbEntity
  8
SEIHIN
  6
Continuous
 62
     3
100
AcDbCircle
 10
485.8567951386415
 20
253.7856850328006
 30
0.0
 40
5.39996058958364
100
AcDbArc
 50
353.0550532959686
 51
89.99957599980881
  0
ARC
  5
91AD
330
1A
100
AcDbEntity
  8
SEIHIN
  6
Continuous
 62
     3
100
AcDbCircle
 10
473.4856176979084
 20
222.2731323008725
 30
0.0
 40
5.399999759937124
100
AcDbArc
 50
105.3920721112511
 51
173.0553827821621
  0
LINE
  5
91AE
330
1A
100
AcDbEntity
  8
SEIHIN
  6
Continuous
 62
     3
100
AcDbLine
 10
467.8750350994268
 20
247.8574456222363
 30
0.0
 11
464.0641350994266
 21
250.0577456222363
 31
0.0
  0
LINE
  5
91AF
330
1A
100
AcDbEntity
  8
SEIHIN
  6
Continuous
 62
     3
100
AcDbLine
 10
464.0641350994266
 20
250.0577456222363
 30
0.0
 11
467.7753350994265
 21
256.4856456222363
 31
0.0
  0
LINE
  5
91B0
330
1A
100
AcDbEntity
  8
NOKITOI
 48
2.0
100
AcDbLine
 10
479.7737839494362
 20
233.2857456222364
 30
0.0
 11
479.7737839494362
 21
249.2857456222363
 31
0.0
  0
LINE
  5
91B1
330
1A
100
AcDbEntity
  8
NOKITOI
 48
2.0
100
AcDbLine
 10
478.2737839494362
 20
234.7856456222364
 30
0.0
 11
478.2737839494362
 21
249.2857456222363
 31
0.0
  0
LINE
  5
91B2
330
1A
100
AcDbEntity
  8
NOKITOI
 48
2.0
100
AcDbLine
 10
477.9737839494363
 20
235.0856456222364
 30
0.0
 11
477.9737839494363
 21
249.2857456222363
 31
0.0
  0
LINE
  5
91B3
330
1A
100
AcDbEntity
  8
NOKITOI
 48
2.0
100
AcDbLine
 10
469.6137989639599
 20
235.0856456222364
 30
0.0
 11
471.3678839494362
 21
249.4856456222363
 31
0.0
  0
LINE
  5
91B4
330
1A
100
AcDbEntity
  8
SEIHIN
  6
Continuous
 62
     3
100
AcDbLine
 10
495.8478350994267
 20
241.5271456222363
 30
0.0
 11
495.0579350994265
 21
235.0753456222363
 31
0.0
  0
LINE
  5
91B5
330
1A
100
AcDbEntity
  8
SEIHIN
  6
Continuous
 62
     3
100
AcDbLine
 10
494.2597350994266
 20
241.7216456222363
 30
0.0
 11
493.4698350994266
 21
235.2697456222363
 31
0.0
  0
LINE
  5
91B6
330
1A
100
AcDbEntity
  8
SEIHIN
  6
Continuous
 62
     3
100
AcDbLine
 10
486.8494350994266
 20
253.6647456222363
 30
0.0
 11
484.1436350994266
 21
231.4510456222363
 31
0.0
  0
ARC
  5
91B7
330
1A
100
AcDbEntity
  8
SEIHIN
  6
Continuous
 62
     3
100
AcDbCircle
 10
483.1509213549542
 20
231.5719286014308
 30
0.0
 40
1.000046635474236
100
AcDbArc
 50
285.3908034687198
 51
353.0572608284553
  0
LINE
  5
91B8
330
1A
100
AcDbEntity
  8
SEIHIN
  6
Continuous
 62
     3
100
AcDbLine
 10
484.6117350994266
 20
226.5918456222363
 30
0.0
 11
473.2477350994266
 21
223.4635456222363
 31
0.0
  0
ARC
  5
91B9
330
1A
100
AcDbEntity
  8
SEIHIN
  6
Continuous
 62
     3
100
AcDbCircle
 10
473.5131516359177
 20
222.499463618754
 30
0.0
 40
0.9999500223918184
100
AcDbArc
 50
105.3924932620562
 51
173.0566430525557
  0
LINE
  5
91BA
330
1A
100
AcDbEntity
  8
NOKITOI
 48
2.0
100
AcDbLine
 10
477.9737839494363
 20
235.0856456222364
 30
0.0
 11
469.6137839494364
 21
235.0856456222364
 31
0.0
  0
LINE
  5
91BB
330
1A
100
AcDbEntity
  8
NOKITOI
 48
2.0
100
AcDbLine
 10
479.7737839494362
 20
233.2857456222364
 30
0.0
 11
469.3945839494364
 21
233.2857456222364
 31
0.0
  0
LINE
  5
91BC
330
1A
100
AcDbEntity
  8
NOKITOI
 48
2.0
100
AcDbLine
 10
478.2737839494362
 20
234.7856456222364
 30
0.0
 11
468.6705643085629
 21
234.7856456222364
 31
0.0
  0
LINE
  5
91BD
330
1A
100
AcDbEntity
  8
SEIHIN
  6
Continuous
 62
     3
100
AcDbLine
 10
483.4163350994266
 20
230.6077456222363
 30
0.0
 11
472.0523350994266
 21
227.4794456222363
 31
0.0
  0
ARC
  5
91BE
330
1A
100
AcDbEntity
  8
SEIHIN
  6
Continuous
 62
     3
100
AcDbCircle
 10
483.1784159468033
 20
231.7982219467813
 30
0.0
 40
5.400043663918703
100
AcDbArc
 50
285.3912456510677
 51
353.0547661020559
  0
LINE
  5
91BF
330
1A
100
AcDbEntity
  8
SEIHIN
  6
Continuous
 62
     3
100
AcDbLine
 10
493.4698350994266
 20
235.2697456222363
 30
0.0
 11
495.0579350994265
 21
235.0753456222363
 31
0.0
  0
LINE
  5
91C0
330
1A
100
AcDbEntity
  8
SEIHIN
  6
Continuous
 62
     3
100
AcDbLine
 10
485.8568350994268
 20
254.7856456222363
 30
0.0
 11
472.4524350994267
 21
254.7856456222363
 31
0.0
  0
LINE
  5
91C1
330
1A
100
AcDbEntity
  8
SEIHIN
  6
Continuous
 62
     3
100
AcDbLine
 10
485.8568350994268
 20
259.1856456222363
 30
0.0
 11
472.4518350994266
 21
259.1856456222363
 31
0.0
  0
LINE
  5
91C2
330
1A
100
AcDbEntity
  8
SEIHIN
  6
Continuous
 62
     3
100
AcDbLine
 10
483.4870350994266
 20
238.5020456222363
 30
0.0
 11
484.5838350994267
 21
247.4349456222363
 31
0.0
  0
ARC
  5
91C3
330
1A
100
AcDbEntity
  8
SEIHIN
  6
Continuous
 62
     3
100
AcDbCircle
 10
489.9937417676982
 20
242.2372245041242
 30
0.0
 40
7.502226001732817
100
AcDbArc
 50
136.1459409822157
 51
209.8578206368896
  0
LINE
  5
91C4
330
1A
100
AcDbEntity
  8
SEIHIN
  6
Continuous
 62
     3
100
AcDbLine
 10
483.4870350994266
 20
238.5020456222363
 30
0.0
 11
484.9758350994265
 21
238.3192456222363
 31
0.0
  0
LINE
  5
91C5
330
1A
100
AcDbEntity
  8
SEIHIN
  6
Continuous
 62
     3
100
AcDbLine
 10
467.8750350994268
 20
247.8574456222363
 30
0.0
 11
471.5864350994264
 21
254.2856456222363
 31
0.0
  0
LINE
  5
91C6
330
1A
100
AcDbEntity
  8
NOKITOI
 48
2.0
100
AcDbLine
 10
471.3678839494362
 20
249.4856456222363
 30
0.0
 11
477.7737839494363
 21
249.4856456222363
 31
0.0
  0
LINE
  5
91C7
330
1A
100
AcDbEntity
  8
NOKITOI
 48
2.0
100
AcDbLine
 10
471.3678839494362
 20
249.7856456222363
 30
0.0
 11
477.7737839494363
 21
249.7856456222363
 31
0.0
  0
LINE
  5
91C8
330
1A
100
AcDbEntity
  8
NOKITOI
 48
2.0
100
AcDbLine
 10
469.7737839494362
 20
251.2857456222362
 30
0.0
 11
477.7737839494363
 21
251.2857456222362
 31
0.0
  0
ARC
  5
91C9
330
1A
100
AcDbEntity
  8
SEIHIN
  6
Continuous
 62
     3
100
AcDbCircle
 10
472.4524537585426
 20
253.7856573046473
 30
0.0
 40
0.9999883177630554
100
AcDbArc
 50
90.00106910108291
 51
150.0003864605679
  0
ARC
  5
91CA
330
1A
100
AcDbEntity
  8
NOKITOI
 48
2.0
100
AcDbCircle
 10
477.773783949436
 20
249.2857456222363
 30
0.0
 40
0.2000000000000739
100
AcDbArc
 50
359.9999999999755
 51
89.99999999997395
  0
ARC
  5
91CB
330
1A
100
AcDbEntity
  8
NOKITOI
 48
2.0
100
AcDbCircle
 10
477.7737839494363
 20
249.2857456222363
 30
0.0
 40
2.0
100
AcDbArc
 50
0.0
 51
90.0
  0
ARC
  5
91CC
330
1A
100
AcDbEntity
  8
NOKITOI
 48
2.0
100
AcDbCircle
 10
477.773783949436
 20
249.2857456222363
 30
0.0
 40
0.5000000000000739
100
AcDbArc
 50
359.9999999999755
 51
89.99999999997395
  0
LINE
  5
91CD
330
1A
100
AcDbEntity
  8
SEIHIN
  6
Continuous
 62
     3
100
AcDbLine
 10
495.0497350994266
 20
248.1734456222362
 30
0.0
 11
496.6379350994265
 21
247.9789456222363
 31
0.0
  0
LINE
  5
91CE
330
1A
100
AcDbEntity
  8
SEIHIN
  6
Continuous
 62
     3
100
AcDbLine
 10
494.2597350994266
 20
241.7216456222363
 30
0.0
 11
495.0497350994266
 21
248.1734456222362
 31
0.0
  0
LINE
  5
91CF
330
1A
100
AcDbEntity
  8
SEIHIN
  6
Continuous
 62
     3
100
AcDbLine
 10
484.5838350994267
 20
247.4349456222363
 30
0.0
 11
486.0726350994267
 21
247.2521456222363
 31
0.0
  0
LINE
  5
91D0
330
1A
100
AcDbEntity
  8
SEIHIN
  6
Continuous
 62
     3
100
AcDbLine
 10
495.8478350994267
 20
241.5271456222363
 30
0.0
 11
496.6379350994265
 21
247.9789456222363
 31
0.0
  0
ARC
  5
91D1
330
1A
100
AcDbEntity
  8
SEIHIN
  6
Continuous
 62
     3
100
AcDbCircle
 10
485.8568069051654
 20
253.785677943921
 30
0.0
 40
0.9999676787128526
100
AcDbArc
 50
353.0538618317696
 51
89.99838453560695
  0
DIMENSION
  5
91D2
330
1A
100
AcDbEntity
  8
SUNPOU
100
AcDbDimension
  2
*D11
 10
498.8575614503393
 20
384.5070011713001
 30
0.0
 11
386.927598274883
 21
389.5070011713
 31
0.0
 70
    32
 71
     5
 42
-1.0
  3
STANDARD
100
AcDbAlignedDimension
 13
274.9976350994267
 23
312.8839456222363
 33
0.0
 14
498.8575614503393
 24
315.8560954027184
 34
0.0
100
AcDbRotatedDimension
1001
ACAD
1000
DSTYLE
1002
{
1070
    41
1040
7.0
1070
    42
1040
6.0
1070
    43
1040
14.0
1070
    44
1040
3.0
1070
    73
1070
     0
1070
    74
1070
     0
1070
    77
1070
     3
1070
   140
1040
6.0
1070
   141
1040
150.0
1070
   147
1040
2.0
1070
   172
1070
     1
1070
   173
1070
     1
1070
   176
1070
   256
1070
   177
1070
   256
1070
   178
1070
   256
1070
   271
1070
     0
1070
   272
1070
     0
1070
   341
1005
6D
1070
     6
1000
OPEN
1070
     7
1000
OPEN
1070
   371
1070
    -1
1070
   372
1070
    -1
1002
}
  0
LINE
  5
91D3
330
1A
100
AcDbEntity
  8
SEIHIN
  6
Continuous
 62
     3
100
AcDbLine
 10
275.7977350994266
 20
312.8839456222363
 30
0.0
 11
274.9977350994266
 21
312.8839456222363
 31
0.0
  0
POINT
  5
91D4
330
1A
100
AcDbEntity
  8
DEFPOINTS
  6
ByBlock
 62
     0
100
AcDbPoint
 10
498.8575614503393
 20
315.8560954027184
 30
0.0
  0
LINE
  5
91DA
330
1A
100
AcDbEntity
  8
SEIHIN
  6
Continuous
 62
     3
100
AcDbLine
 10
503.7886350994266
 20
240.5549456222363
 30
0.0
 11
503.1809350994266
 21
235.5919456222363
 31
0.0
  0
LINE
  5
91DB
330
1A
100
AcDbEntity
  8
SEIHIN
  6
Continuous
 62
     3
100
AcDbLine
 10
503.1809350994266
 20
235.5919456222363
 30
0.0
 11
507.3208350994267
 21
233.9003456222362
 31
0.0
  0
ARC
  5
91DC
330
1A
100
AcDbEntity
  8
SEIHIN
  6
Continuous
 62
     3
100
AcDbCircle
 10
508.1032393186945
 20
251.1088368842789
 30
0.0
 40
5.000027451114664
100
AcDbArc
 50
278.265385576589
 51
131.9080540664198
  0
LINE
  5
91DD
330
1A
100
AcDbEntity
  8
SEIHIN
  6
Continuous
 62
     3
100
AcDbLine
 10
504.3962350994267
 20
245.5179456222363
 30
0.0
 11
508.8219350994267
 21
246.1607456222363
 31
0.0
  0
LINE
  5
91DE
330
1A
100
AcDbEntity
  8
SEIHIN
  6
Continuous
 62
     3
100
AcDbLine
 10
504.0924350994267
 20
243.0364456222363
 30
0.0
 11
509.0553350994268
 21
242.4287456222363
 31
0.0
  0
LINE
  5
91DF
330
1A
100
AcDbEntity
  8
SEIHIN
  6
Continuous
 62
     3
100
AcDbLine
 10
504.1531350994268
 20
243.5327456222363
 30
0.0
 11
509.1161350994265
 21
242.9250456222363
 31
0.0
  0
LINE
  5
91E0
330
1A
100
AcDbEntity
  8
SEIHIN
  6
Continuous
 62
     3
100
AcDbLine
 10
508.7515350994266
 20
239.9472456222363
 30
0.0
 11
509.1161350994265
 21
242.9250456222363
 31
0.0
  0
LINE
  5
91E1
330
1A
100
AcDbEntity
  8
SEIHIN
  6
Continuous
 62
     3
100
AcDbLine
 10
503.7886350994266
 20
240.5549456222363
 30
0.0
 11
504.3962350994267
 21
245.5179456222363
 31
0.0
  0
LINE
  5
91E2
330
1A
100
AcDbEntity
  8
SEIHIN
  6
Continuous
 62
     3
100
AcDbLine
 10
503.4848350994264
 20
238.0734456222363
 30
0.0
 11
508.4477350994265
 21
237.4658456222363
 31
0.0
  0
LINE
  5
91E3
330
1A
100
AcDbEntity
  8
SEIHIN
  6
Continuous
 62
     3
100
AcDbLine
 10
503.4240350994267
 20
237.5771456222363
 30
0.0
 11
508.3870350994264
 21
236.9695456222363
 31
0.0
  0
LINE
  5
91E4
330
1A
100
AcDbEntity
  8
SEIHIN
  6
Continuous
 62
     3
100
AcDbLine
 10
508.7515350994266
 20
239.9472456222363
 30
0.0
 11
508.3870350994264
 21
236.9695456222363
 31
0.0
  0
TEXT
  5
91EA
330
1A
100
AcDbEntity
  8
SUNPOU
  6
Continuous
100
AcDbText
 10
761.947086741156
 20
388.1307719656733
 30
0.0
 40
6.0
  1
3
100
AcDbText
  0
DIMENSION
  5
91EB
330
1A
100
AcDbEntity
  8
SUNPOU
  6
Continuous
 62
     4
100
AcDbDimension
  2
*D12
 10
703.003705795975
 20
463.9725861090641
 30
0.0
 11
705.0629234604332
 21
474.5087214082564
 31
0.0
 70
    33
 71
     5
 42
-1.0
  3
STANDARD
100
AcDbAlignedDimension
 13
661.0527903259272
 23
471.2235704896321
 33
0.0
 14
666.5125903259271
 24
453.024870489632
 34
0.0
1001
ACAD
1000
DSTYLE
1002
{
1070
   140
1040
6.0
1070
    74
1070
     0
1070
   172
1070
     1
1070
    73
1070
     0
1070
   272
1070
     2
1070
    77
1070
     3
1070
   173
1070
     1
1070
   147
1040
2.0
1070
    42
1040
6.0
1070
    44
1040
3.0
1070
    43
1040
14.0
1070
   271
1070
     0
1070
   178
1070
     4
1070
   177
1070
     4
1070
   176
1070
     4
1070
   141
1040
150.0
1070
     7
1000
_OPEN
1070
     6
1000
_OPEN
1070
    41
1040
7.0
1002
}
  0
DIMENSION
  5
91EC
330
1A
100
AcDbEntity
  8
SUNPOU
  6
Continuous
100
AcDbDimension
  2
*D13
 10
571.1914618282276
 20
353.1508490679097
 30
0.0
 11
617.6457848723742
 21
372.3079860181699
 31
0.0
 70
    32
 71
     5
 42
-1.0
  3
STANDARD
100
AcDbAlignedDimension
 13
670.0012951986081
 23
371.7954389389336
 33
0.0
 14
574.2190442396687
 24
343.0593900852279
 34
0.0
 50
16.69999803883316
100
AcDbRotatedDimension
1001
ACAD
1000
DSTYLE
1002
{
1070
   287
1070
     4
1070
   287
1070
     4
1070
   287
1070
     4
1070
   287
1070
     4
1070
   287
1070
     4
1070
   287
1070
     4
1070
   287
1070
     4
1070
   287
1070
     4
1070
    41
1040
7.0
1070
    42
1040
6.0
1070
    43
1040
14.0
1070
    44
1040
3.0
1070
    73
1070
     0
1070
    74
1070
     0
1070
    75
1070
     1
1070
    77
1070
     3
1070
   140
1040
6.0
1070
   141
1040
150.0
1070
   147
1040
2.0
1070
   172
1070
     1
1070
   173
1070
     1
1070
   176
1070
     4
1070
   177
1070
     4
1070
   178
1070
     4
1070
   271
1070
     0
1070
   272
1070
     2
1070
   279
1070
     1
1070
     6
1000
OPEN
1070
     7
1000
OPEN
1002
}
  0
DIMENSION
  5
91ED
330
1A
100
AcDbEntity
  8
SUNPOU
  6
Continuous
 62
     4
100
AcDbDimension
  2
*D14
 10
627.6280746326251
 20
478.2351248569018
 30
0.0
 11
635.7694325406071
 21
485.8978246660788
 31
0.0
 70
    33
 71
     5
 42
-1.0
  3
STANDARD
100
AcDbAlignedDimension
 13
654.2042876201466
 23
459.2505291287576
 33
0.0
 14
635.0479652572959
 24
453.5033540543205
 34
0.0
1001
ACAD
1000
DSTYLE
1002
{
1070
   140
1040
6.0
1070
    74
1070
     0
1070
   172
1070
     1
1070
    73
1070
     0
1070
   272
1070
     2
1070
    77
1070
     3
1070
   173
1070
     1
1070
   147
1040
2.0
1070
    42
1040
6.0
1070
    44
1040
3.0
1070
    43
1040
14.0
1070
   271
1070
     0
1070
   178
1070
     4
1070
   177
1070
     4
1070
   176
1070
     4
1070
   141
1040
150.0
1070
     7
1000
_OPEN
1070
     6
1000
_OPEN
1070
    41
1040
7.0
1002
}
  0
LINE
  5
91EE
330
1A
100
AcDbEntity
  8
CENTER L
  6
CENTER
 62
     1
 48
5.0
100
AcDbLine
 10
675.5753903259273
 20
465.6621704896321
 30
0.0
 11
509.7260903259272
 21
415.9049704896321
 31
0.0
  0
LINE
  5
91EF
330
1A
100
AcDbEntity
  8
SEIHIN
  6
Continuous
 62
     3
100
AcDbLine
 10
661.0527903259272
 20
471.223570489632
 30
0.0
 11
516.8290903259272
 21
427.9543704896321
 31
0.0
  0
LINE
  5
91F0
330
1A
100
AcDbEntity
  8
SEIHIN
  6
Continuous
 62
     3
100
AcDbLine
 10
666.5125903259271
 20
453.0248704896321
 30
0.0
 11
523.4123903259273
 21
410.0926704896322
 31
0.0
  0
LINE
  5
91F1
330
1A
100
AcDbEntity
  8
SEIHIN
  6
Continuous
 62
     3
100
AcDbLine
 10
524.5889350994265
 20
328.1696456222363
 30
0.0
 11
689.1577626228528
 21
377.5426538796589
 31
0.0
  0
LINE
  5
91F2
330
1A
100
AcDbEntity
  8
SEIHIN
  6
Continuous
 62
     3
100
AcDbLine
 10
502.8655350994267
 20
317.0585456222363
 30
0.0
 11
690.4221350994268
 21
373.3282456222362
 31
0.0
  0
LINE
  5
91F3
330
1A
100
AcDbEntity
  8
SEIHIN
  6
Continuous
 62
     3
100
AcDbLine
 10
504.1299350994266
 20
312.8441456222363
 30
0.0
 11
691.6865350994267
 21
369.1138456222363
 31
0.0
  0
LINE
  5
91F4
330
1A
100
AcDbEntity
  8
SEIHIN
  6
PHANTOM
 62
     6
 48
5.0
100
AcDbLine
 10
510.1087590179994
 20
371.8328923066422
 30
0.0
 11
697.0725539071184
 21
427.9246723990025
 31
0.0
  0
LINE
  5
91F5
330
1A
100
AcDbEntity
  8
SEIHIN
  6
PHANTOM
 62
     6
 48
5.0
100
AcDbLine
 10
509.5279683693703
 20
367.064939443289
 30
0.0
 11
698.3370539071187
 21
423.7102723990026
 31
0.0
  0
LINE
  5
91F6
330
1A
100
AcDbEntity
  8
SEIHIN
  6
PHANTOM
 62
     6
 48
5.0
100
AcDbLine
 10
531.2394114068437
 20
382.7660667734893
 30
0.0
 11
695.8081539071184
 21
432.1390723990027
 31
0.0
  0
LINE
  5
91F7
330
1A
100
AcDbEntity
  8
CENTER L
  6
CENTER
 62
     1
 48
5.0
100
AcDbLine
 10
585.7920539071184
 20
381.2484723990026
 30
0.0
 11
579.4327466252929
 21
402.4449251891769
 31
0.0
  0
LINE
  5
91F8
330
1A
100
AcDbEntity
  8
SEIHIN
  6
Continuous
 62
     3
100
AcDbLine
 10
567.1689529375056
 20
331.7567651837092
 30
0.0
 11
564.6400859755159
 21
340.1855652388657
 31
0.0
  0
LINE
  5
91F9
330
1A
100
AcDbEntity
  8
SEIHIN
  6
PHANTOM
 62
     6
 48
5.0
100
AcDbLine
 10
509.3698380524809
 20
365.7667816665134
 30
0.0
 11
504.1975738425763
 21
323.3055058042912
 31
0.0
  0
ARC
  5
91FA
330
1A
100
AcDbEntity
  8
SEIHIN
  6
Continuous
 62
     3
100
AcDbCircle
 10
504.704624305274
 20
310.9285308571697
 30
0.0
 40
1.999961902501757
100
AcDbArc
 50
106.6993752974872
 51
173.055393979131
  0
ARC
  5
91FB
330
1A
100
AcDbEntity
  8
SEIHIN
  6
Continuous
 62
     3
100
AcDbCircle
 10
532.9349803029884
 20
313.2374091790243
 30
0.0
 40
17.10637763338246
100
AcDbArc
 50
119.202047593001
 51
150.7212162209049
  0
ARC
  5
91FC
330
1A
100
AcDbEntity
  8
SEIHIN
  6
PHANTOM
 62
     6
 48
5.0
100
AcDbCircle
 10
511.3551333829167
 20
365.5249681798895
 30
0.0
 40
6.399948201401389
100
AcDbArc
 50
106.7000269959695
 51
173.0554141718086
  0
POINT
  5
91FD
330
1A
100
AcDbEntity
  8
DEFPOINTS
  6
ByBlock
 62
     0
100
AcDbPoint
 10
505.5080644033936
 20
370.4525314469955
 30
0.0
  0
ARC
  5
91FE
330
1A
100
AcDbEntity
  8
SEIHIN
  6
PHANTOM
 62
     6
 48
5.0
100
AcDbCircle
 10
511.3551272583282
 20
365.5249669014468
 30
0.0
 40
1.999961902501757
100
AcDbArc
 50
106.6993752974872
 51
173.055393979131
  0
ARC
  5
91FF
330
1A
100
AcDbEntity
  8
SEIHIN
  6
PHANTOM
 62
     6
 48
5.0
100
AcDbCircle
 10
539.5854832560427
 20
367.8338452233014
 30
0.0
 40
17.10637763338246
100
AcDbArc
 50
119.202047593001
 51
150.7212162209049
  0
LINE
  5
9200
330
1A
100
AcDbEntity
  8
CENTER L
  6
CENTER
 62
     1
 48
5.0
100
AcDbLine
 10
579.1415350994267
 20
326.6520456222362
 30
0.0
 11
572.7822278176012
 21
347.8484984124106
 31
0.0
  0
LINE
  5
9201
330
1A
100
AcDbEntity
  8
SEIHIN
  6
Continuous
 62
     3
100
AcDbLine
 10
586.3252754531371
 20
337.5039397489222
 30
0.0
 11
583.7964093441915
 21
345.9327369608545
 31
0.0
  0
LINE
  5
9202
330
1A
100
AcDbEntity
  8
CENTER L
  6
CENTER
 62
     1
 48
5.0
100
AcDbLine
 10
553.0099596968894
 20
413.7522091786916
 30
0.0
 11
544.6763939322542
 21
441.5291391925526
 31
0.0
  0
ARC
  5
9203
330
1A
100
AcDbEntity
  8
SEIHIN
  6
Continuous
 62
     3
100
AcDbCircle
 10
543.0969863018032
 20
425.9167842831149
 30
0.0
 40
4.000011874332882
100
AcDbArc
 50
106.7007549760847
 51
286.6993798691266
  0
LINE
  5
9204
330
1A
100
AcDbEntity
  8
SEIHIN
  6
Continuous
 62
     3
100
AcDbLine
 10
555.7402903259272
 20
425.5338704896321
 30
0.0
 11
544.2463903259273
 21
422.0855704896321
 31
0.0
  0
LINE
  5
9205
330
1A
100
AcDbEntity
  8
SEIHIN
  6
Continuous
 62
     3
100
AcDbLine
 10
553.4414903259272
 20
433.1964704896321
 30
0.0
 11
541.9474903259273
 21
429.7480704896321
 31
0.0
  0
ARC
  5
9206
330
1A
100
AcDbEntity
  8
SEIHIN
  6
Continuous
 62
     3
100
AcDbCircle
 10
554.5908903259272
 20
429.365170489632
 30
0.0
 40
3.999997506249225
100
AcDbArc
 50
286.6993814325884
 51
106.6993814325884
  0
DIMENSION
  5
9207
330
1A
100
AcDbEntity
  8
SUNPOU
  6
Continuous
100
AcDbDimension
  2
*D15
 10
721.5194451580316
 20
424.9467758309861
 30
0.0
 11
713.230900041759
 21
398.253143259612
 31
0.0
 70
    33
 71
     5
 42
-1.0
  3
STANDARD
100
AcDbAlignedDimension
 13
690.422116751565
 23
373.3282401176117
 33
0.0
 14
697.0725814315452
 24
427.9246806567195
 34
0.0
1001
ACAD
1000
DSTYLE
1002
{
1070
   140
1040
6.0
1070
    74
1070
     0
1070
   172
1070
     1
1070
    73
1070
     0
1070
   272
1070
     2
1070
    77
1070
     3
1070
   173
1070
     1
1070
   147
1040
2.0
1070
    42
1040
6.0
1070
    44
1040
3.0
1070
    43
1040
14.0
1070
   271
1070
     0
1070
   178
1070
     4
1070
   177
1070
     4
1070
   176
1070
     4
1070
   141
1040
150.0
1070
     7
1000
_OPEN
1070
     6
1000
_OPEN
1070
    41
1040
7.0
1002
}
  0
TEXT
  5
9208
330
1A
100
AcDbEntity
  8
SUNPOU
 48
5.0
100
AcDbText
 10
726.1000969207229
 20
378.3964343906087
 30
0.0
 40
6.0
  1
スライド巾
 50
83.00000000000057
100
AcDbText
  0
DIMENSION
  5
9209
330
1A
100
AcDbEntity
  8
SUNPOU
  6
Continuous
100
AcDbDimension
  2
*D16
 10
666.9737127871671
 20
381.8868979216152
 30
0.0
 11
675.1151440639667
 21
389.5496179153845
 31
0.0
 70
    33
 71
     5
 42
-1.0
  3
STANDARD
100
AcDbAlignedDimension
 13
689.1577626228525
 23
377.5426538796588
 33
0.0
 14
670.0012951986081
 24
371.7954389389336
 34
0.0
1001
ACAD
1000
DSTYLE
1002
{
1070
   140
1040
6.0
1070
    74
1070
     0
1070
   172
1070
     1
1070
    73
1070
     0
1070
   272
1070
     2
1070
    77
1070
     3
1070
   173
1070
     1
1070
   147
1040
2.0
1070
    42
1040
6.0
1070
    44
1040
3.0
1070
    43
1040
14.0
1070
   271
1070
     0
1070
   178
1070
     4
1070
   177
1070
     4
1070
   176
1070
     4
1070
   141
1040
150.0
1070
     7
1000
_OPEN
1070
     6
1000
_OPEN
1070
    41
1040
7.0
1002
}
  0
LINE
  5
920A
330
1A
100
AcDbEntity
  8
SEIHIN
  6
Continuous
 62
     3
100
AcDbLine
 10
662.9510338260553
 20
360.4927785096835
 30
0.0
 11
660.4221711293059
 21
368.9215643486488
 31
0.0
  0
LINE
  5
920B
330
1A
100
AcDbEntity
  8
SEIHIN
  6
Continuous
 62
     3
100
AcDbLine
 10
691.6864708802783
 20
369.1138263555604
 30
0.0
 11
689.1577626228525
 21
377.5426538796589
 31
0.0
  0
LINE
  5
920C
330
1A
100
AcDbEntity
  8
CENTER L
  6
CENTER
 62
     1
 48
5.0
100
AcDbLine
 10
675.0368350994266
 20
355.0109456222363
 30
0.0
 11
668.5645055355761
 21
376.5845552942106
 31
0.0
  0
LINE
  5
920D
330
1A
100
AcDbEntity
  8
SEIHIN
  6
Continuous
 62
     3
100
AcDbLine
 10
682.107356341687
 20
366.2399530748965
 30
0.0
 11
679.5784944979815
 21
374.6687360706375
 31
0.0
  0
POINT
  5
920E
330
1A
100
AcDbEntity
  8
DEFPOINTS
  6
ByBlock
 62
     0
100
AcDbPoint
 10
690.422116751565
 20
373.3282401176118
 30
0.0
  0
LINE
  5
920F
330
1A
100
AcDbEntity
  8
SUNPOU
  6
Continuous
100
AcDbLine
 10
738.5214631035861
 20
387.758741573835
 30
0.0
 11
758.5214631035861
 21
387.758741573835
 31
0.0
  0
TEXT
  5
9210
330
1A
100
AcDbEntity
  8
SUNPOU
  6
Continuous
100
AcDbText
 10
746.0187972037402
 20
378.6735215021303
 30
0.0
 40
6.0
  1
10
100
AcDbText
  0
LINE
  5
9211
330
1A
100
AcDbEntity
  8
SUNPOU
  6
Continuous
 62
     4
100
AcDbLine
 10
758.5214631035861
 20
393.7587395023141
 30
0.0
 11
738.5214631035859
 21
387.758741573835
 31
0.0
  0
LINE
  5
9212
330
1A
100
AcDbEntity
  8
SUNPOU
  6
Continuous
100
AcDbLine
 10
758.5214631035861
 20
387.758741573835
 30
0.0
 11
758.5214631035861
 21
393.7587395023141
 31
0.0
  0
LINE
  5
9213
330
1A
100
AcDbEntity
  8
SEIHIN
  6
PHANTOM
 62
     6
 48
5.0
100
AcDbLine
 10
698.3369539071185
 20
423.7103723990026
 30
0.0
 11
695.8081539071184
 21
432.1391723990026
 31
0.0
  0
LINE
  5
9214
330
1A
100
AcDbEntity
  8
CENTER L
  6
CENTER
 62
     1
 48
5.0
100
AcDbLine
 10
648.7925894621813
 20
442.4884304950103
 30
0.0
 11
640.4591911113165
 21
470.2653663708893
 31
0.0
  0
LINE
  5
9215
330
1A
100
AcDbEntity
  8
CENTER L
  6
CENTER
 62
     1
 48
5.0
100
AcDbLine
 10
681.6873539071183
 20
409.6073723990026
 30
0.0
 11
675.2150243432678
 21
431.1809820709769
 31
0.0
  0
LINE
  5
9216
330
1A
100
AcDbEntity
  8
SEIHIN
  6
Continuous
 62
     3
100
AcDbLine
 10
666.5125903259271
 20
453.0247704896321
 30
0.0
 11
661.0524903259271
 21
471.223470489632
 31
0.0
  0
DIMENSION
  5
9217
330
1A
100
AcDbEntity
  8
SUNPOU
  6
Continuous
 62
     4
100
AcDbDimension
  2
*D17
 10
681.0352506631077
 20
463.1240307732362
 30
0.0
 11
684.6749114465786
 21
468.3921390080548
 31
0.0
 70
    33
 71
     5
 42
-1.0
  3
STANDARD
100
AcDbAlignedDimension
 13
649.2236903259271
 23
461.9323704896321
 33
0.0
 14
651.522590325927
 24
454.2697704896321
 34
0.0
1001
ACAD
1000
DSTYLE
1002
{
1070
   140
1040
6.0
1070
    74
1070
     0
1070
   172
1070
     1
1070
    73
1070
     0
1070
   272
1070
     2
1070
    77
1070
     3
1070
   173
1070
     1
1070
   147
1040
2.0
1070
    42
1040
6.0
1070
    44
1040
3.0
1070
    43
1040
14.0
1070
   271
1070
     0
1070
   178
1070
     4
1070
   177
1070
     4
1070
   176
1070
     4
1070
   141
1040
150.0
1070
     7
1000
_OPEN
1070
     6
1000
_OPEN
1070
    41
1040
7.0
1002
}
  0
LINE
  5
9218
330
1A
100
AcDbEntity
  8
SEIHIN
  6
Continuous
 62
     3
100
AcDbLine
 10
651.522590325927
 20
454.2697704896321
 30
0.0
 11
640.0286903259272
 21
450.8214704896321
 31
0.0
  0
LINE
  5
9219
330
1A
100
AcDbEntity
  8
SEIHIN
  6
Continuous
 62
     3
100
AcDbLine
 10
649.2236903259271
 20
461.9323704896321
 30
0.0
 11
637.7298903259271
 21
458.483970489632
 31
0.0
  0
ARC
  5
921A
330
1A
100
AcDbEntity
  8
SEIHIN
  6
Continuous
 62
     3
100
AcDbCircle
 10
638.8792903259272
 20
454.652670489632
 30
0.0
 40
3.999997506249225
100
AcDbArc
 50
106.6993814325884
 51
286.6993814325884
  0
ARC
  5
921B
330
1A
100
AcDbEntity
  8
SEIHIN
  6
Continuous
 62
     3
100
AcDbCircle
 10
650.3729943500513
 20
458.1010566961493
 30
0.0
 40
4.000011874332882
100
AcDbArc
 50
286.7007549760847
 51
106.6993798691266
  0
LINE
  5
9586
330
1A
100
AcDbEntity
  8
SEIHIN
  6
Continuous
 62
     3
100
AcDbLine
 10
153.1809003232964
 20
106.9363456222363
 30
0.0
 11
153.18082390958
 21
373.6725683293749
 31
0.0
  0
LINE
  5
9587
330
1A
100
AcDbEntity
  8
SEIHIN
  6
Continuous
 62
     3
100
AcDbLine
 10
133.1808003232962
 20
106.9363456222363
 30
0.0
 11
133.1808222131838
 21
373.6725683293749
 31
0.0
  0
LINE
  5
9588
330
1A
100
AcDbEntity
  8
CENTER L
  6
CENTER
 62
     1
 48
5.0
100
AcDbLine
 10
143.1809003232965
 20
87.50654562223635
 30
0.0
 11
143.1808197555549
 21
390.3115121369762
 31
0.0
  0
LINE
  5
9589
330
1A
100
AcDbEntity
  8
SEIHIN
  6
Continuous
 62
     3
100
AcDbLine
 10
150.6807334135821
 20
312.5463956222362
 30
0.0
 11
150.6805771635821
 21
262.5463956222363
 31
0.0
  0
LINE
  5
958A
330
1A
100
AcDbEntity
  8
SEIHIN
  6
Continuous
 62
     3
100
AcDbLine
 10
135.6807334135821
 20
312.5463956222362
 30
0.0
 11
135.6807334135821
 21
262.5463956222363
 31
0.0
  0
CIRCLE
  5
958B
330
1A
100
AcDbEntity
  8
SEIHIN
  6
Continuous
 62
     3
100
AcDbCircle
 10
143.1808916646211
 20
116.6285801207369
 30
0.0
 40
5.073415501499621
  0
LINE
  5
958C
330
1A
100
AcDbEntity
  8
SEIHIN
  6
Continuous
 62
     3
100
AcDbLine
 10
135.6807505640839
 20
254.8635956222363
 30
0.0
 11
150.6805531548321
 21
254.8635956222363
 31
0.0
  0
LINE
  5
958D
330
1A
100
AcDbEntity
  8
SEIHIN
  6
Continuous
 62
     3
100
AcDbLine
 10
135.6807482797745
 20
262.5464956222363
 30
0.0
 11
150.6805771638946
 21
262.5464956222363
 31
0.0
  0
LINE
  5
958E
330
1A
100
AcDbEntity
  8
SEIHIN
  6
Continuous
 62
     3
100
AcDbLine
 10
133.1809003232965
 20
126.6302456222363
 30
0.0
 11
143.1809003232965
 21
126.6302456222363
 31
0.0
  0
LINE
  5
958F
330
1A
100
AcDbEntity
  8
SEIHIN
  6
Continuous
 62
     3
100
AcDbLine
 10
138.9080003232965
 20
102.5456456222363
 30
0.0
 11
143.1809003232965
 21
102.5456456222363
 31
0.0
  0
ARC
  5
9590
330
1A
100
AcDbEntity
  8
SEIHIN
  6
Continuous
 62
     3
100
AcDbCircle
 10
140.7288975899331
 20
110.7784584741798
 30
0.0
 40
8.431744800844052
100
AcDbArc
 50
207.1082018719844
 51
257.5262131495845
  0
LINE
  5
9591
330
1A
100
AcDbEntity
  8
SEIHIN
  6
Continuous
 62
     3
100
AcDbLine
 10
133.1806334135821
 20
280.5464956222363
 30
0.0
 11
135.6807334135821
 21
280.5464956222363
 31
0.0
  0
ARC
  5
9592
330
1A
100
AcDbEntity
  8
SEIHIN
  6
Continuous
 62
     3
100
AcDbCircle
 10
145.6329222064286
 20
110.778475159776
 30
0.0
 40
8.431735357920789
100
AcDbArc
 50
282.4729718195419
 51
332.891637905018
  0
LINE
  5
9593
330
1A
100
AcDbEntity
  8
SEIHIN
  6
Continuous
 62
     3
100
AcDbLine
 10
146.1809003232964
 20
102.5456456222363
 30
0.0
 11
146.1809003232964
 21
106.9363456222363
 31
0.0
  0
LINE
  5
9594
330
1A
100
AcDbEntity
  8
SEIHIN
  6
Continuous
 62
     3
100
AcDbLine
 10
140.1809003232965
 20
102.5456456222363
 30
0.0
 11
140.1809003232965
 21
106.9363456222363
 31
0.0
  0
LINE
  5
9595
330
1A
100
AcDbEntity
  8
SEIHIN
  6
Continuous
 62
     3
100
AcDbLine
 10
147.4539003232961
 20
102.5456456222363
 30
0.0
 11
143.1809003232965
 21
102.5456456222363
 31
0.0
  0
LINE
  5
9596
330
1A
100
AcDbEntity
  8
SEIHIN
  6
Continuous
 62
     3
100
AcDbLine
 10
153.1809003232964
 20
126.6302456222363
 30
0.0
 11
143.1809003232965
 21
126.6303456222363
 31
0.0
  0
LINE
  5
9597
330
1A
100
AcDbEntity
  8
SEIHIN
  6
Continuous
 62
     3
100
AcDbLine
 10
153.1806334135821
 20
280.5463956222362
 30
0.0
 11
150.6806334135821
 21
280.5463956222362
 31
0.0
  0
DIMENSION
  5
9598
330
1A
100
AcDbEntity
  8
SUNPOU
  6
Continuous
100
AcDbDimension
  2
*D18
 10
133.1808222131838
 20
400.9217129149565
 30
0.0
 11
143.1808230613819
 21
405.9217129149565
 31
0.0
 70
    32
 71
     5
 42
-1.0
  3
STANDARD
100
AcDbAlignedDimension
 13
153.18082390958
 23
373.6725683293749
 33
0.0
 14
133.1808222131838
 24
373.6725683293749
 34
0.0
100
AcDbRotatedDimension
1001
ACAD
1000
DSTYLE
1002
{
1070
   140
1040
6.0
1070
    74
1070
     0
1070
   172
1070
     1
1070
    73
1070
     0
1070
   272
1070
     2
1070
    77
1070
     3
1070
   173
1070
     1
1070
   147
1040
2.0
1070
    42
1040
6.0
1070
    44
1040
3.0
1070
    43
1040
14.0
1070
   271
1070
     0
1070
   178
1070
     4
1070
   177
1070
     4
1070
   176
1070
     4
1070
   141
1040
150.0
1070
     7
1000
_OPEN
1070
     6
1000
_OPEN
1070
    41
1040
7.0
1002
}
  0
ARC
  5
9599
330
1A
100
AcDbEntity
  8
SEIHIN
  6
Continuous
 62
     3
100
AcDbCircle
 10
143.1808230613818
 20
369.966286797719
 30
0.0
 40
7.920639788973237
100
AcDbArc
 50
27.89982014331898
 51
152.100179856681
  0
ARC
  5
959A
330
1A
100
AcDbEntity
  8
SEIHIN
  6
Continuous
 62
     3
100
AcDbCircle
 10
143.1808345400899
 20
337.7509718739601
 30
0.0
 40
8.526376929795635
100
AcDbArc
 50
62.02200403698555
 51
117.9779959630144
  0
ARC
  5
959B
330
1A
100
AcDbEntity
  8
SEIHIN
  6
Continuous
 62
     3
100
AcDbCircle
 10
143.1808356343387
 20
349.0565495219361
 30
0.0
 40
8.526376929795695
100
AcDbArc
 50
242.0220040369877
 51
297.9779959630122
  0
ARC
  5
959C
330
1A
100
AcDbEntity
  8
SEIHIN
  6
Continuous
 62
     3
100
AcDbCircle
 10
143.1808345400899
 20
336.7544756569613
 30
0.0
 40
8.526376929795635
100
AcDbArc
 50
62.02200403698555
 51
117.9779959630144
  0
ARC
  5
959D
330
1A
100
AcDbEntity
  8
SEIHIN
  6
Continuous
 62
     3
100
AcDbCircle
 10
143.1808261642818
 20
365.4904641066126
 30
0.0
 40
8.526376929795635
100
AcDbArc
 50
62.02200403698555
 51
117.9779959630144
  0
ARC
  5
959E
330
1A
100
AcDbEntity
  8
SEIHIN
  6
Continuous
 62
     3
100
AcDbCircle
 10
143.1808272585307
 20
377.7925379715874
 30
0.0
 40
8.526376929795695
100
AcDbArc
 50
242.0220040369877
 51
297.9779959630122
  0
ARC
  5
959F
330
1A
100
AcDbEntity
  8
SEIHIN
  6
Continuous
 62
     3
100
AcDbCircle
 10
143.1808261642819
 20
366.4869603236114
 30
0.0
 40
8.526376929795635
100
AcDbArc
 50
62.02200403698555
 51
117.9779959630144
  0
LINE
  5
95A0
330
1A
100
AcDbEntity
  8
SEIHIN
  6
Continuous
 62
     3
100
AcDbLine
 10
135.6807334135821
 20
312.5464956222363
 30
0.0
 11
150.6807334138945
 21
312.5464956222363
 31
0.0
  0
LINE
  5
95A1
330
1A
100
AcDbEntity
  8
SEIHIN
  6
Continuous
 62
     3
100
AcDbLine
 10
136.1808164061709
 20
312.5464956222363
 30
0.0
 11
136.1808222131837
 21
373.6725683293749
 31
0.0
  0
LINE
  5
95A2
330
1A
100
AcDbEntity
  8
SEIHIN
  6
Continuous
 62
     3
100
AcDbLine
 10
139.1808345400897
 20
345.2808525867569
 30
0.0
 11
139.1808356343385
 21
341.5266688091393
 31
0.0
  0
LINE
  5
95A3
330
1A
100
AcDbEntity
  8
SEIHIN
  6
Continuous
 62
     3
100
AcDbLine
 10
133.1808222131838
 20
373.6725683293749
 30
0.0
 11
136.1808222131837
 21
373.6725683293749
 31
0.0
  0
LINE
  5
95A4
330
1A
100
AcDbEntity
  8
SEIHIN
  6
Continuous
 62
     3
100
AcDbLine
 10
139.1808261642816
 20
374.0168410364082
 30
0.0
 11
139.1808272585304
 21
370.2626572587906
 31
0.0
  0
LINE
  5
95A5
330
1A
100
AcDbEntity
  8
SEIHIN
  6
Continuous
 62
     3
100
AcDbLine
 10
150.1808336423762
 20
312.5464956222363
 30
0.0
 11
150.1808239095798
 21
373.6725683293748
 31
0.0
  0
LINE
  5
95A6
330
1A
100
AcDbEntity
  8
SEIHIN
  6
Continuous
 62
     3
100
AcDbLine
 10
147.1808345400901
 20
345.2808525867569
 30
0.0
 11
147.180835634339
 21
341.5266688091393
 31
0.0
  0
LINE
  5
95A7
330
1A
100
AcDbEntity
  8
SEIHIN
  6
Continuous
 62
     3
100
AcDbLine
 10
147.1808261642821
 20
374.0168410364082
 30
0.0
 11
147.1808272585309
 21
370.2626572587906
 31
0.0
  0
LINE
  5
95A8
330
1A
100
AcDbEntity
  8
SEIHIN
  6
Continuous
 62
     3
100
AcDbLine
 10
150.1808239095798
 20
373.6725683293748
 30
0.0
 11
153.18082390958
 21
373.6725683293749
 31
0.0
  0
VIEWPORT
  5
22
330
17
100
AcDbEntity
 67
     1
  8
0
100
AcDbViewport
 10
313.6808219178082
 20
148.5
 30
0.0
 40
627.3616438356165
 41
297.0
 68
     2
 69
     1
 12
313.6808219178082
 22
148.5
 13
0.0
 23
0.0
 14
1.0
 24
1.0
 15
10.0
 25
10.0
 16
0.0
 26
0.0
 36
1.0
 17
0.0
 27
0.0
 37
0.0
 42
50.0
 43
0.0
 44
0.0
 45
297.0
 50
0.0
 51
0.0
 72
   100
 90
    32768
  1

281
     0
 71
     1
 74
     0
110
0.0
120
0.0
130
0.0
111
1.0
121
0.0
131
0.0
112
0.0
122
1.0
132
0.0
 79
     0
146
0.0
  0
VIEWPORT
  5
64
330
17
100
AcDbEntity
 67
     1
  8
VIEWPORT
100
AcDbViewport
 10
210.0
 20
148.5
 30
0.0
 40
420.0
 41
297.0
 68
     1
 69
     2
 12
420.0
 22
297.0
 13
0.0
 23
0.0
 14
10.0
 24
10.0
 15
0.0
 25
0.0
 16
0.0
 26
0.0
 36
1.0
 17
0.0
 27
0.0
 37
0.0
 42
50.0
 43
0.0
 44
0.0
 45
605.8799999999998
 50
0.0
 51
0.0
 72
   100
 90
    32768
  1

281
     0
 71
     1
 74
     0
110
0.0
120
0.0
130
0.0
111
1.0
121
0.0
131
0.0
112
0.0
122
1.0
132
0.0
 79
     0
146
0.0
  0
ENDSEC
  0
SECTION
  2
OBJECTS
  0
DICTIONARY
  5
C
330
0
100
AcDbDictionary
281
     1
  3
ACAD_GROUP
350
D
  3
ACAD_LAYOUT
350
340
  3
ACAD_MLINESTYLE
350
E
  3
ACAD_PLOTSETTINGS
350
341
  3
ACAD_PLOTSTYLENAME
350
33E
  3
AcDbVariableDictionary
350
11E9
  0
DICTIONARY
  5
385
330
1A
100
AcDbDictionary
280
     1
281
     1
  3
ACAD_LAYOUTSELFREF
360
9760
  0
DICTIONARY
  5
383
330
17
100
AcDbDictionary
280
     1
281
     1
  3
ACAD_LAYOUTSELFREF
360
975F
  0
DICTIONARY
  5
D
102
{ACAD_REACTORS
330
C
102
}
330
C
100
AcDbDictionary
281
     1
  0
DICTIONARY
  5
340
102
{ACAD_REACTORS
330
C
102
}
330
C
100
AcDbDictionary
281
     1
  3
Model
350
342
  3
ﾚｲｱｳﾄ1
350
343
  0
DICTIONARY
  5
E
102
{ACAD_REACTORS
330
C
102
}
330
C
100
AcDbDictionary
281
     1
  3
STANDARD
350
13
  0
DICTIONARY
  5
341
102
{ACAD_REACTORS
330
C
102
}
330
C
100
AcDbDictionary
281
     1
  0
ACDBDICTIONARYWDFLT
  5
33E
102
{ACAD_REACTORS
330
C
102
}
330
C
100
AcDbDictionary
281
     1
  3
Normal
350
33F
100
AcDbDictionaryWithDefault
340
33F
1001
ACAD
1000
TREAT_AS_HARD
1070
     0
1000
TREAT_AS_HARD
1070
     0
1000
TREAT_AS_HARD
1070
     0
1000
TREAT_AS_HARD
1070
     0
1000
TREAT_AS_HARD
1070
     0
1000
TREAT_AS_HARD
1070
     0
1000
TREAT_AS_HARD
1070
     0
1000
TREAT_AS_HARD
1070
     0
1000
TREAT_AS_HARD
1070
     0
1000
TREAT_AS_HARD
1070
     0
1000
TREAT_AS_HARD
1070
     0
1000
TREAT_AS_HARD
1070
     0
1000
TREAT_AS_HARD
1070
     0
1000
TREAT_AS_HARD
1070
     0
1000
TREAT_AS_HARD
1070
     0
1000
TREAT_AS_HARD
1070
     0
  0
DICTIONARY
  5
11E9
102
{ACAD_REACTORS
330
C
102
}
330
C
100
AcDbDictionary
281
     1
  3
SORTENTS
350
11EA
  0
XRECORD
  5
9760
102
{ACAD_REACTORS
330
385
102
}
330
385
100
AcDbXrecord
280
     1
340
1A
  0
XRECORD
  5
975F
102
{ACAD_REACTORS
330
383
102
}
330
383
100
AcDbXrecord
280
     1
340
17
  0
LAYOUT
  5
342
102
{ACAD_REACTORS
330
340
102
}
330
340
100
AcDbPlotSettings
  1

  2
Acrobat Distiller
  4
A3
  6

 40
3.174999952316284
 41
3.174999952316284
 42
3.17498779296875
 43
3.17498779296875
 44
297.0318298339843
 45
420.1583251953125
 46
0.0
 47
0.0
 48
0.0
 49
0.0
140
0.0
141
0.0
142
1.0
143
2.0
 70
 11952
 72
     1
 73
     1
 74
     2
  7
print.ctb
 75
    17
147
0.5
148
0.0
149
0.0
100
AcDbLayout
  1
Model
 70
     1
 71
     0
 10
0.0
 20
0.0
 11
12.0
 21
9.0
 12
0.0
 22
0.0
 32
0.0
 14
0.0
 24
0.0
 34
0.0
 15
0.0
 25
0.0
 35
0.0
146
0.0
 13
0.0
 23
0.0
 33
0.0
 16
1.0
 26
0.0
 36
0.0
 17
0.0
 27
1.0
 37
0.0
 76
     0
330
1A
  0
LAYOUT
  5
343
102
{ACAD_REACTORS
330
340
102
}
330
340
100
AcDbPlotSettings
  1

  2
Acrobat Distiller
  4

  6

 40
0.0
 41
0.0
 42
0.0
 43
0.0
 44
0.0
 45
0.0
 46
0.0
 47
0.0
 48
0.0
 49
0.0
140
0.0
141
0.0
142
1.0
143
1.0
 70
   688
 72
     0
 73
     0
 74
     5
  7
print.ctb
 75
    16
147
1.0
148
0.0
149
0.0
100
AcDbLayout
  1
ﾚｲｱｳﾄ1
 70
     1
 71
     1
 10
0.0
 20
0.0
 11
420.0
 21
297.0
 12
0.0
 22
0.0
 32
0.0
 14
0.0
 24
0.0
 34
0.0
 15
420.0
 25
297.0
 35
0.0
146
0.0
 13
0.0
 23
0.0
 33
0.0
 16
1.0
 26
0.0
 36
0.0
 17
0.0
 27
1.0
 37
0.0
 76
     0
330
17
331
64
  0
MLINESTYLE
  5
13
102
{ACAD_REACTORS
330
E
102
}
330
E
100
AcDbMlineStyle
  2
STANDARD
 70
     0
  3

 62
     0
 51
90.0
 52
90.0
 71
     2
 49
0.5
 62
   256
  6
BYLAYER
 49
-0.5
 62
   256
  6
BYLAYER
  0
ACDBPLACEHOLDER
  5
33F
102
{ACAD_REACTORS
330
33E
102
}
330
33E
  0
DICTIONARYVAR
  5
11EA
102
{ACAD_REACTORS
330
11E9
102
}
330
11E9
100
DictionaryVariables
280
     0
  1
96
  0
ENDSEC
  0
EOF
