  0
SECTION
  2
HEADER
  9
$ACADVER
  1
AC1015
  9
$ACADMAINTVER
 70
     6
  9
$DWGCODEPAGE
  3
ANSI_932
  9
$INSBASE
 10
0.0
 20
0.0
 30
0.0
  9
$EXTMIN
 10
10.05047808566086
 20
13.78258628282265
 30
0.0
  9
$EXTMAX
 10
807.6504780856605
 20
565.3825862828226
 30
0.0
  9
$LIMMIN
 10
0.0
 20
0.0
  9
$LIMMAX
 10
840.0
 20
594.0
  9
$ORTHOMODE
 70
     0
  9
$REGENMODE
 70
     1
  9
$FILLMODE
 70
     1
  9
$QTEXTMODE
 70
     0
  9
$MIRRTEXT
 70
     1
  9
$LTSCALE
 40
2.0
  9
$ATTMODE
 70
     1
  9
$TEXTSIZE
 40
5.0
  9
$TRACEWID
 40
1.0
  9
$TEXTSTYLE
  7
STANDARD
  9
$CLAYER
  8
0
  9
$CELTYPE
  6
BYLAYER
  9
$CECOLOR
 62
   256
  9
$CELTSCALE
 40
0.5
  9
$DISPSILH
 70
     0
  9
$DIMSCALE
 40
1.0
  9
$DIMASZ
 40
7.0
  9
$DIMEXO
 40
6.0
  9
$DIMDLI
 40
14.0
  9
$DIMRND
 40
0.0
  9
$DIMDLE
 40
0.0
  9
$DIMEXE
 40
3.0
  9
$DIMTP
 40
0.0
  9
$DIMTM
 40
0.0
  9
$DIMTXT
 40
6.0
  9
$DIMCEN
 40
150.0
  9
$DIMTSZ
 40
0.0
  9
$DIMTOL
 70
     0
  9
$DIMLIM
 70
     0
  9
$DIMTIH
 70
     0
  9
$DIMTOH
 70
     0
  9
$DIMSE1
 70
     0
  9
$DIMSE2
 70
     0
  9
$DIMTAD
 70
     3
  9
$DIMZIN
 70
     0
  9
$DIMBLK
  1

  9
$DIMASO
 70
     1
  9
$DIMSHO
 70
     1
  9
$DIMPOST
  1

  9
$DIMAPOST
  1

  9
$DIMALT
 70
     0
  9
$DIMALTD
 70
     2
  9
$DIMALTF
 40
25.4
  9
$DIMLFAC
 40
1.0
  9
$DIMTOFL
 70
     1
  9
$DIMTVP
 40
0.0
  9
$DIMTIX
 70
     0
  9
$DIMSOXD
 70
     0
  9
$DIMSAH
 70
     1
  9
$DIMBLK1
  1
OPEN
  9
$DIMBLK2
  1
OPEN
  9
$DIMSTYLE
  2
STANDARD
  9
$DIMCLRD
 70
   256
  9
$DIMCLRE
 70
   256
  9
$DIMCLRT
 70
   256
  9
$DIMTFAC
 40
1.0
  9
$DIMGAP
 40
2.0
  9
$DIMJUST
 70
     0
  9
$DIMSD1
 70
     0
  9
$DIMSD2
 70
     0
  9
$DIMTOLJ
 70
     1
  9
$DIMTZIN
 70
     0
  9
$DIMALTZ
 70
     0
  9
$DIMALTTZ
 70
     0
  9
$DIMUPT
 70
     0
  9
$DIMDEC
 70
     0
  9
$DIMTDEC
 70
     0
  9
$DIMALTU
 70
     2
  9
$DIMALTTD
 70
     2
  9
$DIMTXSTY
  7
STANDARD
  9
$DIMAUNIT
 70
     0
  9
$DIMADEC
 70
     0
  9
$DIMALTRND
 40
0.0
  9
$DIMAZIN
 70
     0
  9
$DIMDSEP
 70
    46
  9
$DIMATFIT
 70
     3
  9
$DIMFRAC
 70
     0
  9
$DIMLDRBLK
  1
OPEN
  9
$DIMLUNIT
 70
     2
  9
$DIMLWD
 70
    -2
  9
$DIMLWE
 70
    -2
  9
$DIMTMOVE
 70
     0
  9
$LUNITS
 70
     2
  9
$LUPREC
 70
     4
  9
$SKETCHINC
 40
1.0
  9
$FILLETRAD
 40
0.5
  9
$AUNITS
 70
     0
  9
$AUPREC
 70
     0
  9
$MENU
  1
.
  9
$ELEVATION
 40
0.0
  9
$PELEVATION
 40
0.0
  9
$THICKNESS
 40
0.0
  9
$LIMCHECK
 70
     0
  9
$CHAMFERA
 40
20.0
  9
$CHAMFERB
 40
20.0
  9
$CHAMFERC
 40
40.0
  9
$CHAMFERD
 40
0.0
  9
$SKPOLY
 70
     0
  9
$TDCREATE
 40
2454866.469916053
  9
$TDUCREATE
 40
2454866.094916053
  9
$TDUPDATE
 40
2456216.591881574
  9
$TDUUPDATE
 40
2456216.216881574
  9
$TDINDWG
 40
0.1406773727
  9
$TDUSRTIMER
 40
0.1406768287
  9
$USRTIMER
 70
     1
  9
$ANGBASE
 50
0.0
  9
$ANGDIR
 70
     0
  9
$PDMODE
 70
     0
  9
$PDSIZE
 40
0.0
  9
$PLINEWID
 40
0.0
  9
$SPLFRAME
 70
     0
  9
$SPLINETYPE
 70
     6
  9
$SPLINESEGS
 70
     8
  9
$HANDSEED
  5
B00B
  9
$SURFTAB1
 70
     6
  9
$SURFTAB2
 70
     6
  9
$SURFTYPE
 70
     6
  9
$SURFU
 70
     6
  9
$SURFV
 70
     6
  9
$UCSBASE
  2

  9
$UCSNAME
  2

  9
$UCSORG
 10
0.0
 20
0.0
 30
0.0
  9
$UCSXDIR
 10
1.0
 20
0.0
 30
0.0
  9
$UCSYDIR
 10
0.0
 20
1.0
 30
0.0
  9
$UCSORTHOREF
  2

  9
$UCSORTHOVIEW
 70
     0
  9
$UCSORGTOP
 10
0.0
 20
0.0
 30
0.0
  9
$UCSORGBOTTOM
 10
0.0
 20
0.0
 30
0.0
  9
$UCSORGLEFT
 10
0.0
 20
0.0
 30
0.0
  9
$UCSORGRIGHT
 10
0.0
 20
0.0
 30
0.0
  9
$UCSORGFRONT
 10
0.0
 20
0.0
 30
0.0
  9
$UCSORGBACK
 10
0.0
 20
0.0
 30
0.0
  9
$PUCSBASE
  2

  9
$PUCSNAME
  2

  9
$PUCSORG
 10
0.0
 20
0.0
 30
0.0
  9
$PUCSXDIR
 10
1.0
 20
0.0
 30
0.0
  9
$PUCSYDIR
 10
0.0
 20
1.0
 30
0.0
  9
$PUCSORTHOREF
  2

  9
$PUCSORTHOVIEW
 70
     0
  9
$PUCSORGTOP
 10
0.0
 20
0.0
 30
0.0
  9
$PUCSORGBOTTOM
 10
0.0
 20
0.0
 30
0.0
  9
$PUCSORGLEFT
 10
0.0
 20
0.0
 30
0.0
  9
$PUCSORGRIGHT
 10
0.0
 20
0.0
 30
0.0
  9
$PUCSORGFRONT
 10
0.0
 20
0.0
 30
0.0
  9
$PUCSORGBACK
 10
0.0
 20
0.0
 30
0.0
  9
$USERI1
 70
     0
  9
$USERI2
 70
     0
  9
$USERI3
 70
     0
  9
$USERI4
 70
     0
  9
$USERI5
 70
     0
  9
$USERR1
 40
0.0
  9
$USERR2
 40
0.0
  9
$USERR3
 40
0.0
  9
$USERR4
 40
0.0
  9
$USERR5
 40
0.0
  9
$WORLDVIEW
 70
     1
  9
$SHADEDGE
 70
     3
  9
$SHADEDIF
 70
    70
  9
$TILEMODE
 70
     1
  9
$MAXACTVP
 70
    16
  9
$PINSBASE
 10
0.0
 20
0.0
 30
0.0
  9
$PLIMCHECK
 70
     0
  9
$PEXTMIN
 10
0.0
 20
0.0
 30
0.0
  9
$PEXTMAX
 10
420.0
 20
297.0
 30
0.0
  9
$PLIMMIN
 10
0.0
 20
0.0
  9
$PLIMMAX
 10
420.0
 20
297.0
  9
$UNITMODE
 70
     0
  9
$VISRETAIN
 70
     0
  9
$PLINEGEN
 70
     0
  9
$PSLTSCALE
 70
     1
  9
$TREEDEPTH
 70
  3020
  9
$CMLSTYLE
  2
STANDARD
  9
$CMLJUST
 70
     0
  9
$CMLSCALE
 40
1.0
  9
$PROXYGRAPHICS
 70
     1
  9
$MEASUREMENT
 70
     0
  9
$CELWEIGHT
370
    -1
  9
$ENDCAPS
280
     0
  9
$JOINSTYLE
280
     0
  9
$LWDISPLAY
290
     0
  9
$INSUNITS
 70
     0
  9
$HYPERLINKBASE
  1

  9
$STYLESHEET
  1
print.ctb
  9
$XEDIT
290
     1
  9
$CEPSNTYPE
380
     0
  9
$PSTYLEMODE
290
     1
  9
$FINGERPRINTGUID
  2
{52535709-48E4-4846-9C89-1F119CFC578D}
  9
$VERSIONGUID
  2
{23558142-41AB-428C-9E50-340D3C9BE628}
  9
$EXTNAMES
290
     1
  9
$PSVPSCALE
 40
0.0
  9
$OLESTARTUP
290
     0
  0
ENDSEC
  0
SECTION
  2
CLASSES
  0
CLASS
  1
ACDBDICTIONARYWDFLT
  2
AcDbDictionaryWithDefault
  3
AutoCAD 2000
 90
        0
280
     0
281
     0
  0
CLASS
  1
ACDBPLACEHOLDER
  2
AcDbPlaceHolder
  3
AutoCAD 2000
 90
        0
280
     0
281
     0
  0
CLASS
  1
LAYOUT
  2
AcDbLayout
  3
AutoCAD 2000
 90
        0
280
     0
281
     0
  0
CLASS
  1
LONG_TRANSACTION
  2
AcDbLongTransaction
  3
AutoCAD 2000
 90
    32768
280
     0
281
     0
  0
CLASS
  1
LWPOLYLINE
  2
AcDbPolyline
  3
AutoCAD 2000
 90
    32768
280
     0
281
     1
  0
CLASS
  1
HATCH
  2
AcDbHatch
  3
AutoCAD 2000
 90
    32768
280
     0
281
     1
  0
CLASS
  1
XRECORD
  2
AcDbXrecord
  3
AutoCAD 2000
 90
    32768
280
     0
281
     0
  0
CLASS
  1
LONG_TRANSACTION
  2
AcDbLongTransaction
  3
AutoCAD 2000
 90
    32768
280
     0
281
     0
  0
CLASS
  1
LWPOLYLINE
  2
AcDbPolyline
  3
AutoCAD 2000
 90
    32768
280
     0
281
     1
  0
CLASS
  1
HATCH
  2
AcDbHatch
  3
AutoCAD 2000
 90
    32768
280
     0
281
     1
  0
CLASS
  1
XRECORD
  2
AcDbXrecord
  3
AutoCAD 2000
 90
    32768
280
     0
281
     0
  0
CLASS
  1
LONG_TRANSACTION
  2
AcDbLongTransaction
  3
AutoCAD 2000
 90
    32768
280
     0
281
     0
  0
CLASS
  1
LWPOLYLINE
  2
AcDbPolyline
  3
AutoCAD 2000
 90
    32768
280
     0
281
     1
  0
CLASS
  1
HATCH
  2
AcDbHatch
  3
AutoCAD 2000
 90
    32768
280
     0
281
     1
  0
CLASS
  1
XRECORD
  2
AcDbXrecord
  3
AutoCAD 2000
 90
    32768
280
     0
281
     0
  0
CLASS
  1
LONG_TRANSACTION
  2
AcDbLongTransaction
  3
AutoCAD 2000
 90
    32768
280
     0
281
     0
  0
CLASS
  1
LWPOLYLINE
  2
AcDbPolyline
  3
AutoCAD 2000
 90
    32768
280
     0
281
     1
  0
CLASS
  1
HATCH
  2
AcDbHatch
  3
AutoCAD 2000
 90
    32768
280
     0
281
     1
  0
CLASS
  1
XRECORD
  2
AcDbXrecord
  3
AutoCAD 2000
 90
    32768
280
     0
281
     0
  0
CLASS
  1
DICTIONARYVAR
  2
AcDbDictionaryVar
  3
AutoCAD 2000
 90
    32768
280
     0
281
     0
  0
CLASS
  1
LONG_TRANSACTION
  2
AcDbLongTransaction
  3
AutoCAD 2000
 90
    32768
280
     0
281
     0
  0
CLASS
  1
LWPOLYLINE
  2
AcDbPolyline
  3
AutoCAD 2000
 90
    32768
280
     0
281
     1
  0
CLASS
  1
HATCH
  2
AcDbHatch
  3
AutoCAD 2000
 90
    32768
280
     0
281
     1
  0
CLASS
  1
XRECORD
  2
AcDbXrecord
  3
AutoCAD 2000
 90
    32768
280
     0
281
     0
  0
CLASS
  1
LONG_TRANSACTION
  2
AcDbLongTransaction
  3
AutoCAD 2000
 90
    32768
280
     0
281
     0
  0
CLASS
  1
LWPOLYLINE
  2
AcDbPolyline
  3
AutoCAD 2000
 90
    32768
280
     0
281
     1
  0
CLASS
  1
HATCH
  2
AcDbHatch
  3
AutoCAD 2000
 90
    32768
280
     0
281
     1
  0
CLASS
  1
XRECORD
  2
AcDbXrecord
  3
AutoCAD 2000
 90
    32768
280
     0
281
     0
  0
CLASS
  1
LONG_TRANSACTION
  2
AcDbLongTransaction
  3
AutoCAD 2000
 90
    32768
280
     0
281
     0
  0
CLASS
  1
LWPOLYLINE
  2
AcDbPolyline
  3
AutoCAD 2000
 90
    32768
280
     0
281
     1
  0
CLASS
  1
HATCH
  2
AcDbHatch
  3
AutoCAD 2000
 90
    32768
280
     0
281
     1
  0
CLASS
  1
XRECORD
  2
AcDbXrecord
  3
AutoCAD 2000
 90
    32768
280
     0
281
     0
  0
CLASS
  1
LONG_TRANSACTION
  2
AcDbLongTransaction
  3
AutoCAD 2000
 90
    32768
280
     0
281
     0
  0
CLASS
  1
LWPOLYLINE
  2
AcDbPolyline
  3
AutoCAD 2000
 90
    32768
280
     0
281
     1
  0
CLASS
  1
HATCH
  2
AcDbHatch
  3
AutoCAD 2000
 90
    32768
280
     0
281
     1
  0
CLASS
  1
XRECORD
  2
AcDbXrecord
  3
AutoCAD 2000
 90
    32768
280
     0
281
     0
  0
CLASS
  1
LONG_TRANSACTION
  2
AcDbLongTransaction
  3
AutoCAD 2000
 90
    32768
280
     0
281
     0
  0
CLASS
  1
LWPOLYLINE
  2
AcDbPolyline
  3
AutoCAD 2000
 90
    32768
280
     0
281
     1
  0
CLASS
  1
HATCH
  2
AcDbHatch
  3
AutoCAD 2000
 90
    32768
280
     0
281
     1
  0
CLASS
  1
XRECORD
  2
AcDbXrecord
  3
AutoCAD 2000
 90
    32768
280
     0
281
     0
  0
CLASS
  1
LONG_TRANSACTION
  2
AcDbLongTransaction
  3
AutoCAD 2000
 90
    32768
280
     0
281
     0
  0
CLASS
  1
LWPOLYLINE
  2
AcDbPolyline
  3
AutoCAD 2000
 90
    32768
280
     0
281
     1
  0
CLASS
  1
HATCH
  2
AcDbHatch
  3
AutoCAD 2000
 90
    32768
280
     0
281
     1
  0
CLASS
  1
XRECORD
  2
AcDbXrecord
  3
AutoCAD 2000
 90
    32768
280
     0
281
     0
  0
CLASS
  1
LONG_TRANSACTION
  2
AcDbLongTransaction
  3
AutoCAD 2000
 90
    32768
280
     0
281
     0
  0
CLASS
  1
LWPOLYLINE
  2
AcDbPolyline
  3
AutoCAD 2000
 90
    32768
280
     0
281
     1
  0
CLASS
  1
HATCH
  2
AcDbHatch
  3
AutoCAD 2000
 90
    32768
280
     0
281
     1
  0
CLASS
  1
XRECORD
  2
AcDbXrecord
  3
AutoCAD 2000
 90
    32768
280
     0
281
     0
  0
CLASS
  1
LONG_TRANSACTION
  2
AcDbLongTransaction
  3
AutoCAD 2000
 90
    32768
280
     0
281
     0
  0
CLASS
  1
LWPOLYLINE
  2
AcDbPolyline
  3
AutoCAD 2000
 90
    32768
280
     0
281
     1
  0
CLASS
  1
HATCH
  2
AcDbHatch
  3
AutoCAD 2000
 90
    32768
280
     0
281
     1
  0
CLASS
  1
XRECORD
  2
AcDbXrecord
  3
AutoCAD 2000
 90
    32768
280
     0
281
     0
  0
CLASS
  1
LONG_TRANSACTION
  2
AcDbLongTransaction
  3
AutoCAD 2000
 90
    32768
280
     0
281
     0
  0
CLASS
  1
LWPOLYLINE
  2
AcDbPolyline
  3
AutoCAD 2000
 90
    32768
280
     0
281
     1
  0
CLASS
  1
HATCH
  2
AcDbHatch
  3
AutoCAD 2000
 90
    32768
280
     0
281
     1
  0
CLASS
  1
XRECORD
  2
AcDbXrecord
  3
AutoCAD 2000
 90
    32768
280
     0
281
     0
  0
CLASS
  1
LONG_TRANSACTION
  2
AcDbLongTransaction
  3
AutoCAD 2000
 90
    32768
280
     0
281
     0
  0
CLASS
  1
LWPOLYLINE
  2
AcDbPolyline
  3
AutoCAD 2000
 90
    32768
280
     0
281
     1
  0
CLASS
  1
HATCH
  2
AcDbHatch
  3
AutoCAD 2000
 90
    32768
280
     0
281
     1
  0
CLASS
  1
XRECORD
  2
AcDbXrecord
  3
AutoCAD 2000
 90
    32768
280
     0
281
     0
  0
CLASS
  1
LONG_TRANSACTION
  2
AcDbLongTransaction
  3
AutoCAD 2000
 90
    32768
280
     0
281
     0
  0
CLASS
  1
LWPOLYLINE
  2
AcDbPolyline
  3
AutoCAD 2000
 90
    32768
280
     0
281
     1
  0
CLASS
  1
HATCH
  2
AcDbHatch
  3
AutoCAD 2000
 90
    32768
280
     0
281
     1
  0
CLASS
  1
XRECORD
  2
AcDbXrecord
  3
AutoCAD 2000
 90
    32768
280
     0
281
     0
  0
CLASS
  1
LONG_TRANSACTION
  2
AcDbLongTransaction
  3
AutoCAD 2000
 90
    32768
280
     0
281
     0
  0
CLASS
  1
LWPOLYLINE
  2
AcDbPolyline
  3
AutoCAD 2000
 90
    32768
280
     0
281
     1
  0
CLASS
  1
HATCH
  2
AcDbHatch
  3
AutoCAD 2000
 90
    32768
280
     0
281
     1
  0
CLASS
  1
XRECORD
  2
AcDbXrecord
  3
AutoCAD 2000
 90
    32768
280
     0
281
     0
  0
CLASS
  1
LONG_TRANSACTION
  2
AcDbLongTransaction
  3
AutoCAD 2000
 90
    32768
280
     0
281
     0
  0
CLASS
  1
LWPOLYLINE
  2
AcDbPolyline
  3
AutoCAD 2000
 90
    32768
280
     0
281
     1
  0
CLASS
  1
HATCH
  2
AcDbHatch
  3
AutoCAD 2000
 90
    32768
280
     0
281
     1
  0
CLASS
  1
XRECORD
  2
AcDbXrecord
  3
AutoCAD 2000
 90
    32768
280
     0
281
     0
  0
CLASS
  1
LONG_TRANSACTION
  2
AcDbLongTransaction
  3
AutoCAD 2000
 90
    32768
280
     0
281
     0
  0
CLASS
  1
LWPOLYLINE
  2
AcDbPolyline
  3
AutoCAD 2000
 90
    32768
280
     0
281
     1
  0
CLASS
  1
HATCH
  2
AcDbHatch
  3
AutoCAD 2000
 90
    32768
280
     0
281
     1
  0
CLASS
  1
XRECORD
  2
AcDbXrecord
  3
AutoCAD 2000
 90
    32768
280
     0
281
     0
  0
CLASS
  1
LONG_TRANSACTION
  2
AcDbLongTransaction
  3
AutoCAD 2000
 90
    32768
280
     0
281
     0
  0
CLASS
  1
LWPOLYLINE
  2
AcDbPolyline
  3
AutoCAD 2000
 90
    32768
280
     0
281
     1
  0
CLASS
  1
HATCH
  2
AcDbHatch
  3
AutoCAD 2000
 90
    32768
280
     0
281
     1
  0
CLASS
  1
XRECORD
  2
AcDbXrecord
  3
AutoCAD 2000
 90
    32768
280
     0
281
     0
  0
ENDSEC
  0
SECTION
  2
TABLES
  0
TABLE
  2
VPORT
  5
8
330
0
100
AcDbSymbolTable
 70
     2
  0
VPORT
  5
B00A
330
8
100
AcDbSymbolTableRecord
100
AcDbViewportTableRecord
  2
*Active
 70
     0
 10
0.0
 20
0.0
 11
1.0
 21
1.0
 12
426.4892743403094
 22
297.0
 13
0.0
 23
0.0
 14
5.0
 24
5.0
 15
0.0
 25
0.0
 16
0.0
 26
0.0
 36
1.0
 17
0.0
 27
0.0
 37
0.0
 40
598.540127388535
 41
1.557397959183673
 42
50.0
 43
0.0
 44
0.0
 50
0.0
 51
0.0
 71
     0
 72
   100
 73
     1
 74
     0
 75
     0
 76
     0
 77
     0
 78
     0
281
     0
 65
     1
110
0.0
120
0.0
130
0.0
111
1.0
121
0.0
131
0.0
112
0.0
122
1.0
132
0.0
 79
     0
146
0.0
  0
ENDTAB
  0
TABLE
  2
LTYPE
  5
5
330
0
100
AcDbSymbolTable
 70
     4
  0
LTYPE
  5
14
330
5
100
AcDbSymbolTableRecord
100
AcDbLinetypeTableRecord
  2
BYBLOCK
 70
     0
  3

 72
    65
 73
     0
 40
0.0
  0
LTYPE
  5
15
330
5
100
AcDbSymbolTableRecord
100
AcDbLinetypeTableRecord
  2
BYLAYER
 70
     0
  3

 72
    65
 73
     0
 40
0.0
  0
LTYPE
  5
16
330
5
100
AcDbSymbolTableRecord
100
AcDbLinetypeTableRecord
  2
CONTINUOUS
 70
     0
  3
Solid line
 72
    65
 73
     0
 40
0.0
  0
LTYPE
  5
135
330
5
100
AcDbSymbolTableRecord
100
AcDbLinetypeTableRecord
  2
CENTER
 70
     0
  3
____ _ ____ _ ____ _ ____ _ ____ _ ____ _ ____ 
 72
    65
 73
     4
 40
2.0
 49
1.25
 74
     0
 49
-0.25
 74
     0
 49
0.25
 74
     0
 49
-0.25
 74
     0
  0
LTYPE
  5
1527
330
5
100
AcDbSymbolTableRecord
100
AcDbLinetypeTableRecord
  2
SLDSECTION0
 70
     0
  3

 72
    65
 73
     4
 40
10.16
 49
6.349999999999998
 74
     0
 49
-1.27
 74
     0
 49
1.27
 74
     0
 49
-1.27
 74
     0
  0
LTYPE
  5
A407
330
5
100
AcDbSymbolTableRecord
100
AcDbLinetypeTableRecord
  2
DASHED
 70
     0
  3
__ __ __ __ __ __ __ __ __ __ __ __ __ __ __ __
 72
    65
 73
     2
 40
0.75
 49
0.5
 74
     0
 49
-0.25
 74
     0
  0
ENDTAB
  0
TABLE
  2
LAYER
  5
2
330
0
100
AcDbSymbolTable
 70
     9
  0
LAYER
  5
F
330
2
100
AcDbSymbolTableRecord
100
AcDbLayerTableRecord
  2
0
 70
     0
 62
     7
  6
CONTINUOUS
370
    -3
390
AF4E
  0
LAYER
  5
62
330
2
100
AcDbSymbolTableRecord
100
AcDbLayerTableRecord
  2
VIEWPORT
 70
     0
 62
     7
  6
CONTINUOUS
370
    -3
390
AF4E
  0
LAYER
  5
65
330
2
100
AcDbSymbolTableRecord
100
AcDbLayerTableRecord
  2
ZUWAKU
 70
     0
 62
     7
  6
CONTINUOUS
370
    -3
390
AF4E
  0
LAYER
  5
153
330
2
100
AcDbSymbolTableRecord
100
AcDbLayerTableRecord
  2
SEIHIN
 70
     0
 62
     3
  6
CONTINUOUS
370
    -3
390
AF4E
  0
LAYER
  5
154
330
2
100
AcDbSymbolTableRecord
100
AcDbLayerTableRecord
  2
SUNPOU
 70
     0
 62
     4
  6
CONTINUOUS
370
    -3
390
AF4E
  0
LAYER
  5
155
330
2
100
AcDbSymbolTableRecord
100
AcDbLayerTableRecord
  2
CENTER_L
 70
     0
 62
     1
  6
CENTER
370
    -3
390
AF4E
  0
LAYER
  5
24D
330
2
100
AcDbSymbolTableRecord
100
AcDbLayerTableRecord
  2
DEFPOINTS
 70
     0
 62
     7
  6
CONTINUOUS
290
     0
370
    -3
390
AF4E
  0
LAYER
  5
59A
330
2
100
AcDbSymbolTableRecord
100
AcDbLayerTableRecord
  2
MOJI
 70
     0
 62
     2
  6
CONTINUOUS
370
    -3
390
AF4E
  0
LAYER
  5
1528
330
2
100
AcDbSymbolTableRecord
100
AcDbLayerTableRecord
  2
NOKITOI
 70
     0
 62
     9
  6
SLDSECTION0
370
    -3
390
AF4E
  0
ENDTAB
  0
TABLE
  2
STYLE
  5
3
330
0
100
AcDbSymbolTable
 70
     2
  0
STYLE
  5
10
330
3
100
AcDbSymbolTableRecord
100
AcDbTextStyleTableRecord
  2
STANDARD
 70
     0
 40
0.0
 41
1.0
 50
0.0
 71
     0
 42
5.0
  3
TXT
  4
bigfont.shx
  0
STYLE
  5
59B
330
3
100
AcDbSymbolTableRecord
100
AcDbTextStyleTableRecord
  2
ｽﾀｲﾙ1
 70
     0
 40
0.0
 41
1.0
 50
0.0
 71
     0
 42
2.5
  3
MS PGothic.ttf
  4

1001
ACAD
1000
MS PGothic
1071
    32818
  0
ENDTAB
  0
TABLE
  2
VIEW
  5
6
330
0
100
AcDbSymbolTable
 70
     0
  0
ENDTAB
  0
TABLE
  2
UCS
  5
7
330
0
100
AcDbSymbolTable
 70
     0
  0
ENDTAB
  0
TABLE
  2
APPID
  5
9
330
0
100
AcDbSymbolTable
 70
     1
  0
APPID
  5
11
330
9
100
AcDbSymbolTableRecord
100
AcDbRegAppTableRecord
  2
ACAD
 70
     0
  0
ENDTAB
  0
TABLE
  2
DIMSTYLE
  5
A
330
0
100
AcDbSymbolTable
 70
     1
100
AcDbDimStyleTable
 71
     0
  0
DIMSTYLE
105
1D
102
{ACAD_REACTORS
330
A5DE
330
A5EE
330
A5F0
330
A5F2
330
A5F3
330
A5F4
330
A64A
330
A657
330
A6B2
330
A6D6
330
A758
330
A75C
330
A75E
330
A79D
330
A79F
330
A7A0
330
A7A1
330
A7A8
102
}
330
A
100
AcDbSymbolTableRecord
100
AcDbDimStyleTableRecord
  2
STANDARD
 70
     0
340
10
  0
ENDTAB
  0
TABLE
  2
BLOCK_RECORD
  5
1
330
0
100
AcDbSymbolTable
 70
    20
  0
BLOCK_RECORD
  5
1A
102
{ACAD_XDICTIONARY
360
385
102
}
330
1
100
AcDbSymbolTableRecord
100
AcDbBlockTableRecord
  2
*MODEL_SPACE
340
AF4F
  0
BLOCK_RECORD
  5
17
102
{ACAD_XDICTIONARY
360
383
102
}
330
1
100
AcDbSymbolTableRecord
100
AcDbBlockTableRecord
  2
*PAPER_SPACE
340
AF50
  0
BLOCK_RECORD
  5
6D
330
1
100
AcDbSymbolTableRecord
100
AcDbBlockTableRecord
  2
_OPEN
340
0
102
{BLKREFS
331
AA8C
331
AA8D
331
AA83
331
AA84
331
AA95
331
AA96
331
AACB
331
AACC
331
AAC2
331
AAC3
331
AAB0
331
AAB1
331
AAA7
331
AAA8
331
AAD4
331
AAD5
331
AA9E
331
AA9F
331
AAB9
331
AABA
331
AADD
331
AADE
331
AA71
331
AA72
331
AA7A
331
AA7B
331
AAE6
331
AAE7
331
AAF9
331
AAFA
331
AFF7
331
AFF8
331
AFFF
331
B000
331
AB0A
331
AB0B
102
}
  0
BLOCK_RECORD
  5
3A4
330
1
100
AcDbSymbolTableRecord
100
AcDbBlockTableRecord
  2
*X1
340
0
102
{BLKREFS
331
6D8
102
}
  0
BLOCK_RECORD
  5
A7B0
330
1
100
AcDbSymbolTableRecord
100
AcDbBlockTableRecord
  2
*D2
340
0
  0
BLOCK_RECORD
  5
A7BC
330
1
100
AcDbSymbolTableRecord
100
AcDbBlockTableRecord
  2
*D3
340
0
  0
BLOCK_RECORD
  5
A7C8
330
1
100
AcDbSymbolTableRecord
100
AcDbBlockTableRecord
  2
*D4
340
0
  0
BLOCK_RECORD
  5
A7D4
330
1
100
AcDbSymbolTableRecord
100
AcDbBlockTableRecord
  2
*D5
340
0
  0
BLOCK_RECORD
  5
A7E0
330
1
100
AcDbSymbolTableRecord
100
AcDbBlockTableRecord
  2
*D6
340
0
  0
BLOCK_RECORD
  5
A7EC
330
1
100
AcDbSymbolTableRecord
100
AcDbBlockTableRecord
  2
*D7
340
0
  0
BLOCK_RECORD
  5
A7F8
330
1
100
AcDbSymbolTableRecord
100
AcDbBlockTableRecord
  2
*D8
340
0
  0
BLOCK_RECORD
  5
A804
330
1
100
AcDbSymbolTableRecord
100
AcDbBlockTableRecord
  2
*D9
340
0
  0
BLOCK_RECORD
  5
A810
330
1
100
AcDbSymbolTableRecord
100
AcDbBlockTableRecord
  2
*D10
340
0
  0
BLOCK_RECORD
  5
A81C
330
1
100
AcDbSymbolTableRecord
100
AcDbBlockTableRecord
  2
*D11
340
0
  0
BLOCK_RECORD
  5
A828
330
1
100
AcDbSymbolTableRecord
100
AcDbBlockTableRecord
  2
*D12
340
0
  0
BLOCK_RECORD
  5
A834
330
1
100
AcDbSymbolTableRecord
100
AcDbBlockTableRecord
  2
*D13
340
0
  0
BLOCK_RECORD
  5
A840
330
1
100
AcDbSymbolTableRecord
100
AcDbBlockTableRecord
  2
*D14
340
0
  0
BLOCK_RECORD
  5
A84C
330
1
100
AcDbSymbolTableRecord
100
AcDbBlockTableRecord
  2
*D15
340
0
  0
BLOCK_RECORD
  5
A858
330
1
100
AcDbSymbolTableRecord
100
AcDbBlockTableRecord
  2
*D16
340
0
  0
BLOCK_RECORD
  5
A866
330
1
100
AcDbSymbolTableRecord
100
AcDbBlockTableRecord
  2
*D17
340
0
  0
BLOCK_RECORD
  5
A871
330
1
100
AcDbSymbolTableRecord
100
AcDbBlockTableRecord
  2
*D18
340
0
  0
BLOCK_RECORD
  5
A87C
330
1
100
AcDbSymbolTableRecord
100
AcDbBlockTableRecord
  2
*D19
340
0
  0
ENDTAB
  0
ENDSEC
  0
SECTION
  2
BLOCKS
  0
BLOCK
  5
1B
330
1A
100
AcDbEntity
  8
0
100
AcDbBlockBegin
  2
*MODEL_SPACE
 70
     0
 10
0.0
 20
0.0
 30
0.0
  3
*MODEL_SPACE
  1

  0
ENDBLK
  5
1C
330
1A
100
AcDbEntity
  8
0
100
AcDbBlockEnd
  0
BLOCK
  5
18
330
17
100
AcDbEntity
 67
     1
  8
0
100
AcDbBlockBegin
  2
*PAPER_SPACE
 70
     0
 10
0.0
 20
0.0
 30
0.0
  3
*PAPER_SPACE
  1

  0
ENDBLK
  5
19
330
17
100
AcDbEntity
 67
     1
  8
0
100
AcDbBlockEnd
  0
BLOCK
  5
6E
330
6D
100
AcDbEntity
  8
0
100
AcDbBlockBegin
  2
_OPEN
 70
     0
 10
0.0
 20
0.0
 30
0.0
  3
_OPEN
  1

  0
LINE
  5
6F
330
6D
100
AcDbEntity
  8
0
  6
ByBlock
 62
     0
100
AcDbLine
 10
-1.0
 20
0.1666666666666666
 30
0.0
 11
0.0
 21
0.0
 31
0.0
  0
LINE
  5
70
330
6D
100
AcDbEntity
  8
0
  6
ByBlock
 62
     0
100
AcDbLine
 10
0.0
 20
0.0
 30
0.0
 11
-1.0
 21
-0.1666666666666666
 31
0.0
  0
LINE
  5
71
330
6D
100
AcDbEntity
  8
0
  6
ByBlock
 62
     0
100
AcDbLine
 10
0.0
 20
0.0
 30
0.0
 11
-1.0
 21
0.0
 31
0.0
  0
ENDBLK
  5
72
330
6D
100
AcDbEntity
  8
0
100
AcDbBlockEnd
  0
BLOCK
  5
538
330
3A4
100
AcDbEntity
  8
0
100
AcDbBlockBegin
  2
*X1
 70
     1
 10
0.0
 20
0.0
 30
0.0
  3
*X1
  1

  0
LINE
  5
3A5
330
3A4
100
AcDbEntity
  8
0
 62
     0
100
AcDbLine
 10
66.7504780856609
 20
28.71175535310772
 30
0.0
 11
66.10464715594599
 21
29.35758628282269
 31
0.0
  0
LINE
  5
3A6
330
3A4
100
AcDbEntity
  8
0
 62
     0
100
AcDbLine
 10
66.7504780856609
 20
27.81372974100082
 30
0.0
 11
65.20662154383905
 21
29.35758628282269
 31
0.0
  0
LINE
  5
3A7
330
3A4
100
AcDbEntity
  8
0
 62
     0
100
AcDbLine
 10
66.75047808566086
 20
26.91570412889388
 30
0.0
 11
64.32934413964591
 21
29.33683807490881
 31
0.0
  0
LINE
  5
3A8
330
3A4
100
AcDbEntity
  8
0
 62
     0
100
AcDbLine
 10
66.7504780856609
 20
26.01767851678703
 30
0.0
 11
63.95047808566085
 21
28.81767851678705
 31
0.0
  0
LINE
  5
3A9
330
3A4
100
AcDbEntity
  8
0
 62
     0
100
AcDbLine
 10
66.7504780856609
 20
25.11965290468009
 30
0.0
 11
63.95047808566085
 21
27.91965290468016
 31
0.0
  0
LINE
  5
3AA
330
3A4
100
AcDbEntity
  8
0
 62
     0
100
AcDbLine
 10
66.75047808566086
 20
24.22162729257314
 30
0.0
 11
63.95047808566079
 21
27.0216272925732
 31
0.0
  0
LINE
  5
3AB
330
3A4
100
AcDbEntity
  8
0
 62
     0
100
AcDbLine
 10
61.85047808566082
 20
28.22360168046634
 30
0.0
 11
60.71649348330453
 21
29.35758628282269
 31
0.0
  0
LINE
  5
3AC
330
3A4
100
AcDbEntity
  8
0
 62
     0
100
AcDbLine
 10
66.7504780856609
 20
23.3236016804663
 30
0.0
 11
63.95047808566085
 21
26.12360168046638
 31
0.0
  0
LINE
  5
3AD
330
3A4
100
AcDbEntity
  8
0
 62
     0
100
AcDbLine
 10
61.85047808566082
 20
27.32557606835944
 30
0.0
 11
59.81846787119757
 21
29.35758628282263
 31
0.0
  0
LINE
  5
3AE
330
3A4
100
AcDbEntity
  8
0
 62
     0
100
AcDbLine
 10
66.75047808566086
 20
22.42557606835936
 30
0.0
 11
63.95047808566085
 21
25.22557606835942
 31
0.0
  0
LINE
  5
3AF
330
3A4
100
AcDbEntity
  8
0
 62
     0
100
AcDbLine
 10
61.85047808566082
 20
26.42755045625249
 30
0.0
 11
59.14496712052375
 21
29.13306142138958
 31
0.0
  0
LINE
  5
3B0
330
3A4
100
AcDbEntity
  8
0
 62
     0
100
AcDbLine
 10
66.75047808566086
 20
21.52755045625247
 30
0.0
 11
63.95047808566079
 21
24.32755045625247
 31
0.0
  0
LINE
  5
3B1
330
3A4
100
AcDbEntity
  8
0
 62
     0
100
AcDbLine
 10
61.85047808566093
 20
25.5295248441455
 30
0.0
 11
59.05047808566076
 21
28.32952484414562
 31
0.0
  0
LINE
  5
3B2
330
3A4
100
AcDbEntity
  8
0
 62
     0
100
AcDbLine
 10
66.7504780856609
 20
20.62952484414552
 30
0.0
 11
63.95047808566085
 21
23.42952484414559
 31
0.0
  0
LINE
  5
3B3
330
3A4
100
AcDbEntity
  8
0
 62
     0
100
AcDbLine
 10
61.85047808566089
 20
24.6314992320386
 30
0.0
 11
59.05047808566076
 21
27.43149923203878
 31
0.0
  0
LINE
  5
3B4
330
3A4
100
AcDbEntity
  8
0
 62
     0
100
AcDbLine
 10
66.75047808566086
 20
19.73149923203862
 30
0.0
 11
63.95047808566079
 21
22.53149923203869
 31
0.0
  0
LINE
  5
3B5
330
3A4
100
AcDbEntity
  8
0
 62
     0
100
AcDbLine
 10
61.85047808566089
 20
23.73347361993171
 30
0.0
 11
59.05047808566076
 21
26.53347361993182
 31
0.0
  0
LINE
  5
3B6
330
3A4
100
AcDbEntity
  8
0
 62
     0
100
AcDbLine
 10
66.75047808566086
 20
18.83347361993173
 30
0.0
 11
63.95047808566079
 21
21.6334736199318
 31
0.0
  0
LINE
  5
3B7
330
3A4
100
AcDbEntity
  8
0
 62
     0
100
AcDbLine
 10
61.85047808566082
 20
22.83544800782475
 30
0.0
 11
59.0504780856607
 21
25.63544800782489
 31
0.0
  0
LINE
  5
3B8
330
3A4
100
AcDbEntity
  8
0
 62
     0
100
AcDbLine
 10
66.7504780856608
 20
17.93544800782479
 30
0.0
 11
63.95047808566079
 21
20.73544800782485
 31
0.0
  0
LINE
  5
3B9
330
3A4
100
AcDbEntity
  8
0
 62
     0
100
AcDbLine
 10
61.85047808566089
 20
21.93742239571793
 30
0.0
 11
59.05047808566076
 21
24.73742239571805
 31
0.0
  0
LINE
  5
3BA
330
3A4
100
AcDbEntity
  8
0
 62
     0
100
AcDbLine
 10
55.55047808566081
 20
28.23742239571799
 30
0.0
 11
54.43031419855618
 21
29.35758628282263
 31
0.0
  0
LINE
  5
3BB
330
3A4
100
AcDbEntity
  8
0
 62
     0
100
AcDbLine
 10
66.75047808566086
 20
17.03742239571795
 30
0.0
 11
63.95047808566079
 21
19.83742239571796
 31
0.0
  0
LINE
  5
3BC
330
3A4
100
AcDbEntity
  8
0
 62
     0
100
AcDbLine
 10
61.85047808566089
 20
21.03939678361097
 30
0.0
 11
59.0504780856607
 21
23.8393967836111
 31
0.0
  0
LINE
  5
3BD
330
3A4
100
AcDbEntity
  8
0
 62
     0
100
AcDbLine
 10
55.55047808566076
 20
27.33939678361105
 30
0.0
 11
53.53228858644921
 21
29.35758628282263
 31
0.0
  0
LINE
  5
3BE
330
3A4
100
AcDbEntity
  8
0
 62
     0
100
AcDbLine
 10
66.75047808566086
 20
16.13939678361099
 30
0.0
 11
63.95047808566079
 21
18.93939678361107
 31
0.0
  0
LINE
  5
3BF
330
3A4
100
AcDbEntity
  8
0
 62
     0
100
AcDbLine
 10
61.85047808566082
 20
20.14137117150409
 30
0.0
 11
59.05047808566076
 21
22.9413711715041
 31
0.0
  0
LINE
  5
3C0
330
3A4
100
AcDbEntity
  8
0
 62
     0
100
AcDbLine
 10
55.55047808566076
 20
26.44137117150416
 30
0.0
 11
52.85071536233676
 21
29.14113389482816
 31
0.0
  0
LINE
  5
3C1
330
3A4
100
AcDbEntity
  8
0
 62
     0
100
AcDbLine
 10
66.7504780856608
 20
15.2413711715041
 30
0.0
 11
63.95047808566072
 21
18.04137117150412
 31
0.0
  0
LINE
  5
3C2
330
3A4
100
AcDbEntity
  8
0
 62
     0
100
AcDbLine
 10
61.85047808566089
 20
19.24334555939713
 30
0.0
 11
59.05047808566081
 21
22.04334555939721
 31
0.0
  0
LINE
  5
3C3
330
3A4
100
AcDbEntity
  8
0
 62
     0
100
AcDbLine
 10
55.55047808566081
 20
25.54334555939721
 30
0.0
 11
52.7504780856608
 21
28.34334555939722
 31
0.0
  0
LINE
  5
3C4
330
3A4
100
AcDbEntity
  8
0
 62
     0
100
AcDbLine
 10
66.75047808566086
 20
14.34334555939716
 30
0.0
 11
63.95047808566079
 21
17.14334555939722
 31
0.0
  0
LINE
  5
3C5
330
3A4
100
AcDbEntity
  8
0
 62
     0
100
AcDbLine
 10
61.85047808566082
 20
18.34531994729023
 30
0.0
 11
59.05047808566081
 21
21.1453199472903
 31
0.0
  0
LINE
  5
3C6
330
3A4
100
AcDbEntity
  8
0
 62
     0
100
AcDbLine
 10
55.55047808566087
 20
24.64531994729026
 30
0.0
 11
52.7504780856608
 21
27.44531994729033
 31
0.0
  0
LINE
  5
3C7
330
3A4
100
AcDbEntity
  8
0
 62
     0
100
AcDbLine
 10
66.67851273077103
 20
13.51728530218008
 30
0.0
 11
63.95047808566079
 21
16.24531994729034
 31
0.0
  0
LINE
  5
3C8
330
3A4
100
AcDbEntity
  8
0
 62
     0
100
AcDbLine
 10
61.85047808566089
 20
17.44729433518324
 30
0.0
 11
59.05047808566076
 21
20.24729433518337
 31
0.0
  0
LINE
  5
3C9
330
3A4
100
AcDbEntity
  8
0
 62
     0
100
AcDbLine
 10
55.55047808566081
 20
23.74729433518337
 30
0.0
 11
52.75047808566075
 21
26.54729433518337
 31
0.0
  0
LINE
  5
3CA
330
3A4
100
AcDbEntity
  8
0
 62
     0
100
AcDbLine
 10
66.04018613802157
 20
13.25758628282261
 30
0.0
 11
63.95047808566072
 21
15.34729433518345
 31
0.0
  0
LINE
  5
3CB
330
3A4
100
AcDbEntity
  8
0
 62
     0
100
AcDbLine
 10
55.55047808566081
 20
22.84926872307642
 30
0.0
 11
52.75047808566075
 21
25.64926872307648
 31
0.0
  0
LINE
  5
3CC
330
3A4
100
AcDbEntity
  8
0
 62
     0
100
AcDbLine
 10
61.85047808566089
 20
16.54926872307635
 30
0.0
 11
59.05047808566076
 21
19.34926872307647
 31
0.0
  0
LINE
  5
3CD
330
3A4
100
AcDbEntity
  8
0
 62
     0
100
AcDbLine
 10
50.1254780856608
 20
28.27426872307643
 30
0.0
 11
49.04216052591465
 21
29.35758628282251
 31
0.0
  0
LINE
  5
3CE
330
3A4
100
AcDbEntity
  8
0
 62
     0
100
AcDbLine
 10
65.14216052591468
 20
13.25758628282249
 30
0.0
 11
63.95047808566072
 21
14.4492687230765
 31
0.0
  0
LINE
  5
3CF
330
3A4
100
AcDbEntity
  8
0
 62
     0
100
AcDbLine
 10
55.55047808566081
 20
21.95124311096952
 30
0.0
 11
52.75047808566085
 21
24.75124311096954
 31
0.0
  0
LINE
  5
3D0
330
3A4
100
AcDbEntity
  8
0
 62
     0
100
AcDbLine
 10
50.1254780856608
 20
27.37624311096954
 30
0.0
 11
48.14413491380782
 21
29.35758628282258
 31
0.0
  0
LINE
  5
3D1
330
3A4
100
AcDbEntity
  8
0
 62
     0
100
AcDbLine
 10
61.82451978501529
 20
15.6772014116151
 30
0.0
 11
59.05047808566076
 21
18.45124311096958
 31
0.0
  0
LINE
  5
3D2
330
3A4
100
AcDbEntity
  8
0
 62
     0
100
AcDbLine
 10
55.55047808566081
 20
21.05321749886262
 30
0.0
 11
52.75047808566085
 21
23.85321749886259
 31
0.0
  0
LINE
  5
3D3
330
3A4
100
AcDbEntity
  8
0
 62
     0
100
AcDbLine
 10
49.92989753954696
 20
26.67379804497647
 30
0.0
 11
47.24610930170081
 21
29.35758628282263
 31
0.0
  0
LINE
  5
3D4
330
3A4
100
AcDbEntity
  8
0
 62
     0
100
AcDbLine
 10
61.63153448975805
 20
14.97216109476533
 30
0.0
 11
59.05047808566076
 21
17.55321749886268
 31
0.0
  0
LINE
  5
3D5
330
3A4
100
AcDbEntity
  8
0
 62
     0
100
AcDbLine
 10
55.55047808566081
 20
20.15519188675567
 30
0.0
 11
52.7504780856608
 21
22.95519188675569
 31
0.0
  0
LINE
  5
3D6
330
3A4
100
AcDbEntity
  8
0
 62
     0
100
AcDbLine
 10
49.14808368959382
 20
26.55758628282262
 30
0.0
 11
46.34808368959393
 21
29.35758628282251
 31
0.0
  0
LINE
  5
3D7
330
3A4
100
AcDbEntity
  8
0
 62
     0
100
AcDbLine
 10
61.30650261383447
 20
14.39916735858196
 30
0.0
 11
58.97896234650125
 21
16.72670762591525
 31
0.0
  0
LINE
  5
3D8
330
3A4
100
AcDbEntity
  8
0
 62
     0
100
AcDbLine
 10
55.55047808566081
 20
19.25716627464885
 30
0.0
 11
52.75047808566085
 21
22.0571662746488
 31
0.0
  0
LINE
  5
3D9
330
3A4
100
AcDbEntity
  8
0
 62
     0
100
AcDbLine
 10
48.25005807748704
 20
26.55758628282255
 30
0.0
 11
45.5124913483096
 21
29.29515301200007
 31
0.0
  0
LINE
  5
3DA
330
3A4
100
AcDbEntity
  8
0
 62
     0
100
AcDbLine
 10
60.87446081650944
 20
13.93318354380016
 30
0.0
 11
58.57737670803373
 21
16.23026765227587
 31
0.0
  0
LINE
  5
3DB
330
3A4
100
AcDbEntity
  8
0
 62
     0
100
AcDbLine
 10
55.55047808566081
 20
18.35914066254189
 30
0.0
 11
52.7504780856608
 21
21.15914066254185
 31
0.0
  0
LINE
  5
3DC
330
3A4
100
AcDbEntity
  8
0
 62
     0
100
AcDbLine
 10
47.35203246538014
 20
26.55758628282255
 30
0.0
 11
44.8478509237762
 21
29.06176782442645
 31
0.0
  0
LINE
  5
3DD
330
3A4
100
AcDbEntity
  8
0
 62
     0
100
AcDbLine
 10
60.3382984715834
 20
13.5713202766193
 30
0.0
 11
57.85203246538014
 21
16.05758628282257
 31
0.0
  0
LINE
  5
3DE
330
3A4
100
AcDbEntity
  8
0
 62
     0
100
AcDbLine
 10
55.55047808566076
 20
17.46111505043494
 30
0.0
 11
52.7504780856608
 21
20.26111505043496
 31
0.0
  0
LINE
  5
3DF
330
3A4
100
AcDbEntity
  8
0
 62
     0
100
AcDbLine
 10
46.47579668129123
 20
26.53579645480448
 30
0.0
 11
44.30524998656601
 21
28.70634314952969
 31
0.0
  0
LINE
  5
3E0
330
3A4
100
AcDbEntity
  8
0
 62
     0
100
AcDbLine
 10
59.6818859116721
 20
13.32970722442365
 30
0.0
 11
56.95400685327314
 21
16.05758628282262
 31
0.0
  0
LINE
  5
3E1
330
3A4
100
AcDbEntity
  8
0
 62
     0
100
AcDbLine
 10
46.10047808566089
 20
26.01308943832788
 30
0.0
 11
43.86713792752146
 21
28.24642959646729
 31
0.0
  0
LINE
  5
3E2
330
3A4
100
AcDbEntity
  8
0
 62
     0
100
AcDbLine
 10
58.85598124116626
 20
13.25758628282255
 30
0.0
 11
52.7504780856608
 21
19.36308943832801
 31
0.0
  0
LINE
  5
3E3
330
3A4
100
AcDbEntity
  8
0
 62
     0
100
AcDbLine
 10
46.10047808566089
 20
25.1150638262211
 30
0.0
 11
43.53536701516843
 21
27.68017489671354
 31
0.0
  0
LINE
  5
3E4
330
3A4
100
AcDbEntity
  8
0
 62
     0
100
AcDbLine
 10
57.95795562905937
 20
13.25758628282255
 30
0.0
 11
52.7504780856608
 21
18.46506382622117
 31
0.0
  0
LINE
  5
3E5
330
3A4
100
AcDbEntity
  8
0
 62
     0
100
AcDbLine
 10
46.30702236676467
 20
24.01049393301036
 30
0.0
 11
43.33318849580432
 21
26.98432780397064
 31
0.0
  0
LINE
  5
3E6
330
3A4
100
AcDbEntity
  8
0
 62
     0
100
AcDbLine
 10
57.05993001695246
 20
13.25758628282255
 30
0.0
 11
52.7504780856608
 21
17.56703821411423
 31
0.0
  0
LINE
  5
3E7
330
3A4
100
AcDbEntity
  8
0
 62
     0
100
AcDbLine
 10
50.52408178835225
 20
18.89540889931582
 30
0.0
 11
43.30047808566075
 21
26.11901260200732
 31
0.0
  0
LINE
  5
3E8
330
3A4
100
AcDbEntity
  8
0
 62
     0
100
AcDbLine
 10
41.20047808566073
 20
28.21901260200728
 30
0.0
 11
40.06190440484544
 21
29.35758628282263
 31
0.0
  0
LINE
  5
3E9
330
3A4
100
AcDbEntity
  8
0
 62
     0
100
AcDbLine
 10
56.16190440484554
 20
13.25758628282255
 30
0.0
 11
52.75047808566075
 21
16.66901260200727
 31
0.0
  0
LINE
  5
3EA
330
3A4
100
AcDbEntity
  8
0
 62
     0
100
AcDbLine
 10
50.65047808566088
 20
17.87098698990035
 30
0.0
 11
43.30047808566081
 21
25.22098698990044
 31
0.0
  0
LINE
  5
3EB
330
3A4
100
AcDbEntity
  8
0
 62
     0
100
AcDbLine
 10
41.20047808566083
 20
27.32098698990034
 30
0.0
 11
39.16387879273855
 21
29.35758628282269
 31
0.0
  0
LINE
  5
3EC
330
3A4
100
AcDbEntity
  8
0
 62
     0
100
AcDbLine
 10
55.24743091399376
 20
13.2740341615675
 30
0.0
 11
52.76692596440574
 21
15.7545391111555
 31
0.0
  0
LINE
  5
3ED
330
3A4
100
AcDbEntity
  8
0
 62
     0
100
AcDbLine
 10
41.20047808566083
 20
26.42296137779345
 30
0.0
 11
38.49308819788552
 21
29.13035126556872
 31
0.0
  0
LINE
  5
3EE
330
3A4
100
AcDbEntity
  8
0
 62
     0
100
AcDbLine
 10
50.65047808566084
 20
16.97296137779341
 30
0.0
 11
43.32388875354321
 21
24.2995507099111
 31
0.0
  0
LINE
  5
3EF
330
3A4
100
AcDbEntity
  8
0
 62
     0
100
AcDbLine
 10
41.20047808566083
 20
25.52493576568649
 30
0.0
 11
38.40047808566078
 21
28.32493576568657
 31
0.0
  0
LINE
  5
3F0
330
3A4
100
AcDbEntity
  8
0
 62
     0
100
AcDbLine
 10
50.65047808566071
 20
16.07493576568656
 30
0.0
 11
43.64200817138321
 21
23.08340567996412
 31
0.0
  0
LINE
  5
3F1
330
3A4
100
AcDbEntity
  8
0
 62
     0
100
AcDbLine
 10
41.20047808566083
 20
24.62691015357961
 30
0.0
 11
38.40047808566078
 21
27.42691015357962
 31
0.0
  0
LINE
  5
3F2
330
3A4
100
AcDbEntity
  8
0
 62
     0
100
AcDbLine
 10
50.54191626807176
 20
15.2854719711687
 30
0.0
 11
47.84628147903345
 21
17.98110676020701
 31
0.0
  0
LINE
  5
3F3
330
3A4
100
AcDbEntity
  8
0
 62
     0
100
AcDbLine
 10
41.20047808566083
 20
23.72888454147271
 30
0.0
 11
38.40047808566078
 21
26.52888454147278
 31
0.0
  0
LINE
  5
3F4
330
3A4
100
AcDbEntity
  8
0
 62
     0
100
AcDbLine
 10
36.10899118508381
 20
28.82037144204969
 30
0.0
 11
35.57177634431092
 21
29.35758628282263
 31
0.0
  0
LINE
  5
3F5
330
3A4
100
AcDbEntity
  8
0
 62
     0
100
AcDbLine
 10
50.2740405603102
 20
14.65532206682336
 30
0.0
 11
47.85047808566089
 21
17.07888454147268
 31
0.0
  0
LINE
  5
3F6
330
3A4
100
AcDbEntity
  8
0
 62
     0
100
AcDbLine
 10
41.20047808566079
 20
22.83085892936576
 30
0.0
 11
38.40047808566078
 21
25.63085892936584
 31
0.0
  0
LINE
  5
3F7
330
3A4
100
AcDbEntity
  8
0
 62
     0
100
AcDbLine
 10
35.91006352083121
 20
28.12127349419535
 30
0.0
 11
34.67375073220397
 21
29.35758628282263
 31
0.0
  0
LINE
  5
3F8
330
3A4
100
AcDbEntity
  8
0
 62
     0
100
AcDbLine
 10
49.8910537621349
 20
14.14028325289172
 30
0.0
 11
47.75319290277439
 21
16.27814411225222
 31
0.0
  0
LINE
  5
3F9
330
3A4
100
AcDbEntity
  8
0
 62
     0
100
AcDbLine
 10
41.20047808566079
 20
21.93283331725888
 30
0.0
 11
38.40047808566072
 21
24.73283331725889
 31
0.0
  0
LINE
  5
3FA
330
3A4
100
AcDbEntity
  8
0
 62
     0
100
AcDbLine
 10
35.69453737392553
 20
27.43877402899409
 30
0.0
 11
33.78532181045494
 21
29.34798959246473
 31
0.0
  0
LINE
  5
3FB
330
3A4
100
AcDbEntity
  8
0
 62
     0
100
AcDbLine
 10
49.40473479701927
 20
13.72857660590034
 30
0.0
 11
47.07572512009703
 21
16.05758628282262
 31
0.0
  0
LINE
  5
3FC
330
3A4
100
AcDbEntity
  8
0
 62
     0
100
AcDbLine
 10
41.20047808566083
 20
21.03480770515198
 30
0.0
 11
38.40047808566078
 21
23.83480770515205
 31
0.0
  0
LINE
  5
3FD
330
3A4
100
AcDbEntity
  8
0
 62
     0
100
AcDbLine
 10
35.47901122702
 20
26.75627456379283
 30
0.0
 11
33.35101122701995
 21
28.88427456379287
 31
0.0
  0
LINE
  5
3FE
330
3A4
100
AcDbEntity
  8
0
 62
     0
100
AcDbLine
 10
48.80865084855891
 20
13.42663494225388
 30
0.0
 11
46.17769950799014
 21
16.05758628282267
 31
0.0
  0
LINE
  5
3FF
330
3A4
100
AcDbEntity
  8
0
 62
     0
100
AcDbLine
 10
41.20047808566079
 20
20.13678209304508
 30
0.0
 11
38.40047808566072
 21
22.9367820930451
 31
0.0
  0
LINE
  5
400
330
3A4
100
AcDbEntity
  8
0
 62
     0
100
AcDbLine
 10
35.26348508011415
 20
26.07377509859174
 30
0.0
 11
33.13548508011415
 21
28.20177509859171
 31
0.0
  0
LINE
  5
401
330
3A4
100
AcDbEntity
  8
0
 62
     0
100
AcDbLine
 10
48.07097819691144
 20
13.26628198179446
 30
0.0
 11
45.27967389588325
 21
16.05758628282262
 31
0.0
  0
LINE
  5
402
330
3A4
100
AcDbEntity
  8
0
 62
     0
100
AcDbLine
 10
41.20047808566079
 20
19.23875648093815
 30
0.0
 11
38.40047808566078
 21
22.0387564809381
 31
0.0
  0
LINE
  5
403
330
3A4
100
AcDbEntity
  8
0
 62
     0
100
AcDbLine
 10
35.04795893320856
 20
25.39127563339036
 30
0.0
 11
32.91995893320847
 21
27.51927563339039
 31
0.0
  0
LINE
  5
404
330
3A4
100
AcDbEntity
  8
0
 62
     0
100
AcDbLine
 10
47.18164828377637
 20
13.25758628282255
 30
0.0
 11
44.38164828377631
 21
16.05758628282262
 31
0.0
  0
LINE
  5
405
330
3A4
100
AcDbEntity
  8
0
 62
     0
100
AcDbLine
 10
41.20047808566079
 20
18.34073086883125
 30
0.0
 11
38.40047808566083
 21
21.14073086883127
 31
0.0
  0
LINE
  5
406
330
3A4
100
AcDbEntity
  8
0
 62
     0
100
AcDbLine
 10
34.83243278630294
 20
24.70877616818915
 30
0.0
 11
32.70443278630283
 21
26.8367761681892
 31
0.0
  0
LINE
  5
407
330
3A4
100
AcDbEntity
  8
0
 62
     0
100
AcDbLine
 10
46.28362267166949
 20
13.25758628282261
 30
0.0
 11
43.85001097437309
 21
15.691197980119
 31
0.0
  0
LINE
  5
408
330
3A4
100
AcDbEntity
  8
0
 62
     0
100
AcDbLine
 10
34.6169066393973
 20
24.02627670298778
 30
0.0
 11
32.48890663939721
 21
26.15427670298794
 31
0.0
  0
LINE
  5
409
330
3A4
100
AcDbEntity
  8
0
 62
     0
100
AcDbLine
 10
41.20047808566079
 20
17.44270525672436
 30
0.0
 11
38.40047808566083
 21
20.24270525672432
 31
0.0
  0
LINE
  5
40A
330
3A4
100
AcDbEntity
  8
0
 62
     0
100
AcDbLine
 10
30.35047808566082
 20
28.29270525672432
 30
0.0
 11
29.28559705956251
 21
29.35758628282258
 31
0.0
  0
LINE
  5
40B
330
3A4
100
AcDbEntity
  8
0
 62
     0
100
AcDbLine
 10
45.38559705956259
 20
13.25758628282255
 30
0.0
 11
43.82547808566084
 21
14.8177052567243
 31
0.0
  0
LINE
  5
40C
330
3A4
100
AcDbEntity
  8
0
 62
     0
100
AcDbLine
 10
34.40138049249151
 20
23.34377723778669
 30
0.0
 11
32.27338049249157
 21
25.47177723778662
 31
0.0
  0
LINE
  5
40D
330
3A4
100
AcDbEntity
  8
0
 62
     0
100
AcDbLine
 10
41.20047808566079
 20
16.54467964461741
 30
0.0
 11
38.40047808566078
 21
19.34467964461743
 31
0.0
  0
LINE
  5
40E
330
3A4
100
AcDbEntity
  8
0
 62
     0
100
AcDbLine
 10
30.35047808566082
 20
27.39467964461738
 30
0.0
 11
28.38757144745562
 21
29.35758628282258
 31
0.0
  0
LINE
  5
40F
330
3A4
100
AcDbEntity
  8
0
 62
     0
100
AcDbLine
 10
44.48757144745559
 20
13.25758628282261
 30
0.0
 11
43.82547808566079
 21
13.91967964461735
 31
0.0
  0
LINE
  5
410
330
3A4
100
AcDbEntity
  8
0
 62
     0
100
AcDbLine
 10
34.18585434558588
 20
22.66127777258537
 30
0.0
 11
32.05785434558583
 21
24.78927777258542
 31
0.0
  0
LINE
  5
411
330
3A4
100
AcDbEntity
  8
0
 62
     0
100
AcDbLine
 10
30.35047808566076
 20
26.49665403251042
 30
0.0
 11
27.67503315676315
 21
29.17209896140809
 31
0.0
  0
LINE
  5
412
330
3A4
100
AcDbEntity
  8
0
 62
     0
100
AcDbLine
 10
41.20047808566073
 20
15.64665403251051
 30
0.0
 11
38.40047808566078
 21
18.44665403251048
 31
0.0
  0
LINE
  5
413
330
3A4
100
AcDbEntity
  8
0
 62
     0
100
AcDbLine
 10
33.97032819868025
 20
21.97877830738417
 30
0.0
 11
31.84232819868026
 21
24.10677830738416
 31
0.0
  0
LINE
  5
414
330
3A4
100
AcDbEntity
  8
0
 62
     0
100
AcDbLine
 10
30.35047808566082
 20
25.59862842040359
 30
0.0
 11
27.55047808566075
 21
28.39862842040361
 31
0.0
  0
LINE
  5
415
330
3A4
100
AcDbEntity
  8
0
 62
     0
100
AcDbLine
 10
41.20047808566079
 20
14.74862842040363
 30
0.0
 11
38.40047808566078
 21
17.54862842040358
 31
0.0
  0
LINE
  5
416
330
3A4
100
AcDbEntity
  8
0
 62
     0
100
AcDbLine
 10
33.76523968928819
 20
21.28584120466928
 30
0.0
 11
31.62680205177451
 21
23.42427884218295
 31
0.0
  0
LINE
  5
417
330
3A4
100
AcDbEntity
  8
0
 62
     0
100
AcDbLine
 10
30.35047808566082
 20
24.70060280829665
 30
0.0
 11
27.55047808566075
 21
27.50060280829671
 31
0.0
  0
LINE
  5
418
330
3A4
100
AcDbEntity
  8
0
 62
     0
100
AcDbLine
 10
41.20047808566073
 20
13.85060280829668
 30
0.0
 11
38.40047808566078
 21
16.65060280829669
 31
0.0
  0
LINE
  5
419
330
3A4
100
AcDbEntity
  8
0
 62
     0
100
AcDbLine
 10
34.17971304872219
 20
19.97334223312832
 30
0.0
 11
31.33625455608989
 21
22.81680072576062
 31
0.0
  0
LINE
  5
41A
330
3A4
100
AcDbEntity
  8
0
 62
     0
100
AcDbLine
 10
30.35047808566087
 20
23.80257719618964
 30
0.0
 11
27.5504780856607
 21
26.60257719618977
 31
0.0
  0
LINE
  5
41B
330
3A4
100
AcDbEntity
  8
0
 62
     0
100
AcDbLine
 10
40.8614330883284
 20
13.29162219352207
 30
0.0
 11
38.40047808566078
 21
15.75257719618974
 31
0.0
  0
LINE
  5
41C
330
3A4
100
AcDbEntity
  8
0
 62
     0
100
AcDbLine
 10
34.59418640815619
 20
18.6608432615875
 30
0.0
 11
27.55047808566075
 21
25.70455158408293
 31
0.0
  0
LINE
  5
41D
330
3A4
100
AcDbEntity
  8
0
 62
     0
100
AcDbLine
 10
25.10047808566088
 20
28.15455158408281
 30
0.0
 11
23.89744338692111
 21
29.35758628282258
 31
0.0
  0
LINE
  5
41E
330
3A4
100
AcDbEntity
  8
0
 62
     0
100
AcDbLine
 10
39.99744338692113
 20
13.25758628282255
 30
0.0
 11
38.40047808566089
 21
14.8545515840828
 31
0.0
  0
LINE
  5
41F
330
3A4
100
AcDbEntity
  8
0
 62
     0
100
AcDbLine
 10
35.00865976759024
 20
17.34834429004649
 30
0.0
 11
27.55047808566075
 21
24.80652597197599
 31
0.0
  0
LINE
  5
420
330
3A4
100
AcDbEntity
  8
0
 62
     0
100
AcDbLine
 10
25.10047808566088
 20
27.25652597197586
 30
0.0
 11
22.9994177748141
 21
29.35758628282263
 31
0.0
  0
LINE
  5
421
330
3A4
100
AcDbEntity
  8
0
 62
     0
100
AcDbLine
 10
39.09941777481417
 20
13.25758628282249
 30
0.0
 11
38.40047808566083
 21
13.9565259719759
 31
0.0
  0
LINE
  5
422
330
3A4
100
AcDbEntity
  8
0
 62
     0
100
AcDbLine
 10
24.83357139027076
 20
26.62540705525902
 30
0.0
 11
22.13334967205935
 21
29.32562877347038
 31
0.0
  0
LINE
  5
423
330
3A4
100
AcDbEntity
  8
0
 62
     0
100
AcDbLine
 10
35.42313312702418
 20
16.0358453185056
 30
0.0
 11
27.55047808566081
 21
23.90850035986898
 31
0.0
  0
LINE
  5
424
330
3A4
100
AcDbEntity
  8
0
 62
     0
100
AcDbLine
 10
30.68798700800243
 20
19.87296582542046
 30
0.0
 11
27.55047808566081
 21
23.01047474776209
 31
0.0
  0
LINE
  5
425
330
3A4
100
AcDbEntity
  8
0
 62
     0
100
AcDbLine
 10
24.00336655060033
 20
26.55758628282251
 30
0.0
 11
21.39530660247209
 21
29.1656462309508
 31
0.0
  0
LINE
  5
426
330
3A4
100
AcDbEntity
  8
0
 62
     0
100
AcDbLine
 10
35.83760648645824
 20
14.72334634696466
 30
0.0
 11
31.74529879415012
 21
18.81565403927276
 31
0.0
  0
LINE
  5
427
330
3A4
100
AcDbEntity
  8
0
 62
     0
100
AcDbLine
 10
30.35047808566087
 20
19.31244913565512
 30
0.0
 11
27.55047808566081
 21
22.11244913565519
 31
0.0
  0
LINE
  5
428
330
3A4
100
AcDbEntity
  8
0
 62
     0
100
AcDbLine
 10
23.10534093849331
 20
26.55758628282262
 30
0.0
 11
20.75658518664135
 21
28.90634203467459
 31
0.0
  0
LINE
  5
429
330
3A4
100
AcDbEntity
  8
0
 62
     0
100
AcDbLine
 10
36.07264534416884
 20
13.5902818771471
 30
0.0
 11
32.15977215358407
 21
17.50315506773192
 31
0.0
  0
LINE
  5
42A
330
3A4
100
AcDbEntity
  8
0
 62
     0
100
AcDbLine
 10
30.35047808566082
 20
18.41442352354823
 30
0.0
 11
27.55047808566075
 21
21.21442352354824
 31
0.0
  0
LINE
  5
42B
330
3A4
100
AcDbEntity
  8
0
 62
     0
100
AcDbLine
 10
22.26222743594978
 20
26.50267417325926
 30
0.0
 11
20.19783621130682
 21
28.56706539790224
 31
0.0
  0
LINE
  5
42C
330
3A4
100
AcDbEntity
  8
0
 62
     0
100
AcDbLine
 10
35.50731532638649
 20
13.25758628282255
 30
0.0
 11
32.57424551301812
 21
16.19065609619087
 31
0.0
  0
LINE
  5
42D
330
3A4
100
AcDbEntity
  8
0
 62
     0
100
AcDbLine
 10
30.35047808566082
 20
17.51639791144127
 30
0.0
 11
27.55047808566075
 21
20.31639791144135
 31
0.0
  0
LINE
  5
42E
330
3A4
100
AcDbEntity
  8
0
 62
     0
100
AcDbLine
 10
21.69037124311079
 20
26.1765047539913
 30
0.0
 11
19.71018100269503
 21
28.15669499440707
 31
0.0
  0
LINE
  5
42F
330
3A4
100
AcDbEntity
  8
0
 62
     0
100
AcDbLine
 10
34.60928971427955
 20
13.25758628282255
 30
0.0
 11
32.98871887245207
 21
14.87815712465003
 31
0.0
  0
LINE
  5
430
330
3A4
100
AcDbEntity
  8
0
 62
     0
100
AcDbLine
 10
25.43590721845855
 20
21.53294316653671
 30
0.0
 11
23.92583496937481
 21
23.04301541562046
 31
0.0
  0
LINE
  5
431
330
3A4
100
AcDbEntity
  8
0
 62
     0
100
AcDbLine
 10
30.35047808566094
 20
16.61837229933434
 30
0.0
 11
27.55047808566081
 21
19.41837229933446
 31
0.0
  0
LINE
  5
432
330
3A4
100
AcDbEntity
  8
0
 62
     0
100
AcDbLine
 10
21.33424967298185
 20
25.63460071201342
 30
0.0
 11
19.2908149766838
 21
27.67803540831146
 31
0.0
  0
LINE
  5
433
330
3A4
100
AcDbEntity
  8
0
 62
     0
100
AcDbLine
 10
33.66093109796803
 20
13.30791928702723
 30
0.0
 11
33.41057692637672
 21
13.55827345861853
 31
0.0
  0
LINE
  5
434
330
3A4
100
AcDbEntity
  8
0
 62
     0
100
AcDbLine
 10
25.34939355831665
 20
20.72143121457167
 30
0.0
 11
23.11432301740978
 21
22.95650175547853
 31
0.0
  0
LINE
  5
435
330
3A4
100
AcDbEntity
  8
0
 62
     0
100
AcDbLine
 10
21.25047808566091
 20
24.82034668722741
 30
0.0
 11
18.94187595572214
 21
27.12894881716619
 31
0.0
  0
LINE
  5
436
330
3A4
100
AcDbEntity
  8
0
 62
     0
100
AcDbLine
 10
30.35047808566087
 20
15.72034668722738
 30
0.0
 11
27.55047808566075
 21
18.52034668722757
 31
0.0
  0
LINE
  5
437
330
3A4
100
AcDbEntity
  8
0
 62
     0
100
AcDbLine
 10
25.0175379990186
 20
20.15526116176272
 30
0.0
 11
22.54815296460083
 21
22.62464619618048
 31
0.0
  0
LINE
  5
438
330
3A4
100
AcDbEntity
  8
0
 62
     0
100
AcDbLine
 10
21.25047808566091
 20
23.92232107512045
 30
0.0
 11
18.67129624851196
 21
26.50150291226941
 31
0.0
  0
LINE
  5
439
330
3A4
100
AcDbEntity
  8
0
 62
     0
100
AcDbLine
 10
30.35047808566087
 20
14.82232107512048
 30
0.0
 11
27.55047808566081
 21
17.62232107512056
 31
0.0
  0
LINE
  5
43A
330
3A4
100
AcDbEntity
  8
0
 62
     0
100
AcDbLine
 10
21.25047808566091
 20
23.02429546301357
 30
0.0
 11
18.4965823755861
 21
25.77819117308843
 31
0.0
  0
LINE
  5
43B
330
3A4
100
AcDbEntity
  8
0
 62
     0
100
AcDbLine
 10
24.51570455688214
 20
19.75906899179237
 30
0.0
 11
22.15196079463049
 21
22.12281275404405
 31
0.0
  0
LINE
  5
43C
330
3A4
100
AcDbEntity
  8
0
 62
     0
100
AcDbLine
 10
15.82547808566072
 20
28.44929546301374
 30
0.0
 11
14.91718726585185
 21
29.35758628282269
 31
0.0
  0
LINE
  5
43D
330
3A4
100
AcDbEntity
  8
0
 62
     0
100
AcDbLine
 10
30.35047808566094
 20
13.9242954630136
 30
0.0
 11
27.55047808566087
 21
16.72429546301367
 31
0.0
  0
LINE
  5
43E
330
3A4
100
AcDbEntity
  8
0
 62
     0
100
AcDbLine
 10
21.25047808566091
 20
22.12626985090668
 30
0.0
 11
18.45047808566084
 21
24.92626985090675
 31
0.0
  0
LINE
  5
43F
330
3A4
100
AcDbEntity
  8
0
 62
     0
100
AcDbLine
 10
23.81538511445473
 20
19.56136282211287
 30
0.0
 11
21.95425462495096
 21
21.42249331161662
 31
0.0
  0
LINE
  5
440
330
3A4
100
AcDbEntity
  8
0
 62
     0
100
AcDbLine
 10
15.82547808566072
 20
27.55126985090686
 30
0.0
 11
14.0191616537449
 21
29.35758628282263
 31
0.0
  0
LINE
  5
441
330
3A4
100
AcDbEntity
  8
0
 62
     0
100
AcDbLine
 10
30.06257428439022
 20
13.31417365217737
 30
0.0
 11
27.55047808566081
 21
15.82626985090672
 31
0.0
  0
LINE
  5
442
330
3A4
100
AcDbEntity
  8
0
 62
     0
100
AcDbLine
 10
21.25047808566091
 20
21.22824423879972
 30
0.0
 11
18.45047808566084
 21
24.0282442387998
 31
0.0
  0
LINE
  5
443
330
3A4
100
AcDbEntity
  8
0
 62
     0
100
AcDbLine
 10
15.71644411539044
 20
26.76227820907019
 30
0.0
 11
13.12113604163789
 21
29.35758628282269
 31
0.0
  0
LINE
  5
444
330
3A4
100
AcDbEntity
  8
0
 62
     0
100
AcDbLine
 10
29.22113604163809
 20
13.25758628282249
 30
0.0
 11
27.55047808566081
 21
14.92824423879983
 31
0.0
  0
LINE
  5
445
330
3A4
100
AcDbEntity
  8
0
 62
     0
100
AcDbLine
 10
21.25047808566085
 20
20.33021862669284
 30
0.0
 11
18.45047808566078
 21
23.13021862669285
 31
0.0
  0
LINE
  5
446
330
3A4
100
AcDbEntity
  8
0
 62
     0
100
AcDbLine
 10
15.02311042953111
 20
26.55758628282255
 30
0.0
 11
12.223110429531
 21
29.35758628282269
 31
0.0
  0
LINE
  5
447
330
3A4
100
AcDbEntity
  8
0
 62
     0
100
AcDbLine
 10
28.32311042953108
 20
13.25758628282255
 30
0.0
 11
27.55047808566081
 21
14.03021862669288
 31
0.0
  0
LINE
  5
448
330
3A4
100
AcDbEntity
  8
0
 62
     0
100
AcDbLine
 10
21.25047808566091
 20
19.43219301458595
 30
0.0
 11
18.45047808566084
 21
22.23219301458601
 31
0.0
  0
LINE
  5
449
330
3A4
100
AcDbEntity
  8
0
 62
     0
100
AcDbLine
 10
14.12508481742423
 20
26.55758628282255
 30
0.0
 11
11.35995554531933
 21
29.32271555492752
 31
0.0
  0
LINE
  5
44A
330
3A4
100
AcDbEntity
  8
0
 62
     0
100
AcDbLine
 10
25.09787563682391
 20
15.58479546342288
 30
0.0
 11
24.6276872662612
 21
16.05498383398566
 31
0.0
  0
LINE
  5
44B
330
3A4
100
AcDbEntity
  8
0
 62
     0
100
AcDbLine
 10
21.25047808566085
 20
18.53416740247898
 30
0.0
 11
18.45047808566084
 21
21.33416740247906
 31
0.0
  0
LINE
  5
44C
330
3A4
100
AcDbEntity
  8
0
 62
     0
100
AcDbLine
 10
13.22705920531734
 20
26.55758628282255
 30
0.0
 11
10.66682073684086
 21
29.11782475129905
 31
0.0
  0
LINE
  5
44D
330
3A4
100
AcDbEntity
  8
0
 62
     0
100
AcDbLine
 10
25.10047808566082
 20
14.68416740247902
 30
0.0
 11
23.72705920531728
 21
16.05758628282262
 31
0.0
  0
LINE
  5
44E
330
3A4
100
AcDbEntity
  8
0
 62
     0
100
AcDbLine
 10
21.25047808566085
 20
17.6361417903721
 30
0.0
 11
18.45047808566089
 21
20.43614179037205
 31
0.0
  0
LINE
  5
44F
330
3A4
100
AcDbEntity
  8
0
 62
     0
100
AcDbLine
 10
12.32903359321039
 20
26.55758628282251
 30
0.0
 11
10.10257407699362
 21
28.78404579903929
 31
0.0
  0
LINE
  5
450
330
3A4
100
AcDbEntity
  8
0
 62
     0
100
AcDbLine
 10
25.10047808566082
 20
13.78614179037214
 30
0.0
 11
22.82903359321039
 21
16.0575862828225
 31
0.0
  0
LINE
  5
451
330
3A4
100
AcDbEntity
  8
0
 62
     0
100
AcDbLine
 10
11.8187407655958
 20
26.16985349833032
 30
0.0
 11
9.644481264752867
 21
28.34411299917325
 31
0.0
  0
LINE
  5
452
330
3A4
100
AcDbEntity
  8
0
 62
     0
100
AcDbLine
 10
24.71274530116851
 20
13.2758489627576
 30
0.0
 11
18.45047808566089
 21
19.53811617826522
 31
0.0
  0
LINE
  5
453
330
3A4
100
AcDbEntity
  8
0
 62
     0
100
AcDbLine
 10
11.80047808566087
 20
25.2900905661583
 30
0.0
 11
9.291000062283783
 21
27.79956858953539
 31
0.0
  0
LINE
  5
454
330
3A4
100
AcDbEntity
  8
0
 62
     0
100
AcDbLine
 10
23.83298236899662
 20
13.25758628282255
 30
0.0
 11
18.45047808566089
 21
18.64009056615826
 31
0.0
  0
LINE
  5
455
330
3A4
100
AcDbEntity
  8
0
 62
     0
100
AcDbLine
 10
11.86261379379628
 20
24.32992924591587
 30
0.0
 11
9.060119959990061
 21
27.13242307972217
 31
0.0
  0
LINE
  5
456
330
3A4
100
AcDbEntity
  8
0
 62
     0
100
AcDbLine
 10
22.93495675688962
 20
13.25758628282261
 30
0.0
 11
18.45047808566084
 21
17.74206495405132
 31
0.0
  0
LINE
  5
457
330
3A4
100
AcDbEntity
  8
0
 62
     0
100
AcDbLine
 10
16.15485417688352
 20
19.1396632507218
 30
0.0
 11
9.000478085660914
 21
26.29403934194442
 31
0.0
  0
LINE
  5
458
330
3A4
100
AcDbEntity
  8
0
 62
     0
100
AcDbLine
 10
21.98365905772607
 20
13.31085836987927
 30
0.0
 11
18.50375017271749
 21
16.79076725488783
 31
0.0
  0
LINE
  5
459
330
3A4
100
AcDbEntity
  8
0
 62
     0
100
AcDbLine
 10
16.34674869096874
 20
18.04974312452969
 30
0.0
 11
9.000478085660803
 21
25.39601372983764
 31
0.0
  0
LINE
  5
45A
330
3A4
100
AcDbEntity
  8
0
 62
     0
100
AcDbLine
 10
20.60985114512448
 20
13.78664067037391
 30
0.0
 11
18.97953247321209
 21
15.41695934228636
 31
0.0
  0
LINE
  5
45B
330
3A4
100
AcDbEntity
  8
0
 62
     0
100
AcDbLine
 10
16.35047808566088
 20
17.14798811773062
 30
0.0
 11
9.008042533083196
 21
24.49042367030823
 31
0.0
  0
LINE
  5
45C
330
3A4
100
AcDbEntity
  8
0
 62
     0
100
AcDbLine
 10
16.35047808566082
 20
16.24996250562372
 30
0.0
 11
9.231333291407054
 21
23.36910729987744
 31
0.0
  0
LINE
  5
45D
330
3A4
100
AcDbEntity
  8
0
 62
     0
100
AcDbLine
 10
16.27795808952891
 20
15.4244568896488
 30
0.0
 11
13.51456644590985
 21
18.18784853326786
 31
0.0
  0
LINE
  5
45E
330
3A4
100
AcDbEntity
  8
0
 62
     0
100
AcDbLine
 10
16.03602015050006
 20
14.7683692165707
 30
0.0
 11
13.55047808566081
 21
17.25391128140995
 31
0.0
  0
LINE
  5
45F
330
3A4
100
AcDbEntity
  8
0
 62
     0
100
AcDbLine
 10
15.67390090311828
 20
14.23246285184552
 30
0.0
 11
13.51457905336013
 21
16.39178470160367
 31
0.0
  0
LINE
  5
460
330
3A4
100
AcDbEntity
  8
0
 62
     0
100
AcDbLine
 10
15.20767453085142
 20
13.8006636120055
 30
0.0
 11
12.9507518600343
 21
16.05758628282267
 31
0.0
  0
LINE
  5
461
330
3A4
100
AcDbEntity
  8
0
 62
     0
100
AcDbLine
 10
14.6344100831186
 20
13.47590244763142
 30
0.0
 11
12.05272624792734
 21
16.05758628282262
 31
0.0
  0
LINE
  5
462
330
3A4
100
AcDbEntity
  8
0
 62
     0
100
AcDbLine
 10
13.92899749403267
 20
13.2832894246104
 30
0.0
 11
11.15470063582046
 21
16.05758628282262
 31
0.0
  0
LINE
  5
463
330
3A4
100
AcDbEntity
  8
0
 62
     0
100
AcDbLine
 10
13.05667502371363
 20
13.25758628282244
 30
0.0
 11
10.25667502371351
 21
16.05758628282262
 31
0.0
  0
LINE
  5
464
330
3A4
100
AcDbEntity
  8
0
 62
     0
100
AcDbLine
 10
12.15864941160669
 20
13.25758628282255
 30
0.0
 11
9.605325516788806
 21
15.81091017764049
 31
0.0
  0
LINE
  5
465
330
3A4
100
AcDbEntity
  8
0
 62
     0
100
AcDbLine
 10
11.26062379949978
 20
13.25758628282255
 30
0.0
 11
9.525478085660836
 21
14.9927319966615
 31
0.0
  0
LINE
  5
466
330
3A4
100
AcDbEntity
  8
0
 62
     0
100
AcDbLine
 10
10.36259818739284
 20
13.25758628282255
 30
0.0
 11
9.525478085660836
 21
14.09470638455457
 31
0.0
  0
LINE
  5
467
330
3A4
100
AcDbEntity
  8
0
 62
     0
100
AcDbLine
 10
66.34216537032779
 20
13.27071805994012
 30
0.0
 11
66.73734630854358
 21
13.66589899815591
 31
0.0
  0
LINE
  5
468
330
3A4
100
AcDbEntity
  8
0
 62
     0
100
AcDbLine
 10
65.43100798110335
 20
13.25758628282249
 30
0.0
 11
66.75047808566103
 21
14.57705638738018
 31
0.0
  0
LINE
  5
469
330
3A4
100
AcDbEntity
  8
0
 62
     0
100
AcDbLine
 10
64.53298236899644
 20
13.25758628282249
 30
0.0
 11
66.75047808566103
 21
15.47508199948708
 31
0.0
  0
LINE
  5
46A
330
3A4
100
AcDbEntity
  8
0
 62
     0
100
AcDbLine
 10
63.9816756489127
 20
13.6043051748457
 30
0.0
 11
66.75047808566097
 21
16.37310761159403
 31
0.0
  0
LINE
  5
46B
330
3A4
100
AcDbEntity
  8
0
 62
     0
100
AcDbLine
 10
63.9504780856609
 20
14.47113322370086
 30
0.0
 11
66.75047808566097
 21
17.27113322370087
 31
0.0
  0
LINE
  5
46C
330
3A4
100
AcDbEntity
  8
0
 62
     0
100
AcDbLine
 10
63.95047808566096
 20
15.36915883580775
 30
0.0
 11
66.75047808566097
 21
18.16915883580782
 31
0.0
  0
LINE
  5
46D
330
3A4
100
AcDbEntity
  8
0
 62
     0
100
AcDbLine
 10
63.9504780856609
 20
16.26718444791469
 30
0.0
 11
66.75047808566097
 21
19.06718444791477
 31
0.0
  0
LINE
  5
46E
330
3A4
100
AcDbEntity
  8
0
 62
     0
100
AcDbLine
 10
63.9504780856609
 20
17.16521006002158
 30
0.0
 11
66.75047808566097
 21
19.96521006002166
 31
0.0
  0
LINE
  5
46F
330
3A4
100
AcDbEntity
  8
0
 62
     0
100
AcDbLine
 10
60.37704294772618
 20
13.59177492208686
 30
0.0
 11
61.51628944639674
 21
14.73102142075748
 31
0.0
  0
LINE
  5
470
330
3A4
100
AcDbEntity
  8
0
 62
     0
100
AcDbLine
 10
63.9504780856609
 20
18.06323567212847
 30
0.0
 11
66.75047808566097
 21
20.86323567212855
 31
0.0
  0
LINE
  5
471
330
3A4
100
AcDbEntity
  8
0
 62
     0
100
AcDbLine
 10
59.14647478120339
 20
13.25923236767096
 30
0.0
 11
61.84883200081269
 21
15.96158958728023
 31
0.0
  0
LINE
  5
472
330
3A4
100
AcDbEntity
  8
0
 62
     0
100
AcDbLine
 10
63.9504780856609
 20
18.96126128423543
 30
0.0
 11
66.75047808566097
 21
21.76126128423543
 31
0.0
  0
LINE
  5
473
330
3A4
100
AcDbEntity
  8
0
 62
     0
100
AcDbLine
 10
58.24680308424797
 20
13.25758628282249
 30
0.0
 11
61.850478085661
 21
16.86126128423546
 31
0.0
  0
LINE
  5
474
330
3A4
100
AcDbEntity
  8
0
 62
     0
100
AcDbLine
 10
63.9504780856609
 20
19.85928689634232
 30
0.0
 11
66.7504780856609
 21
22.65928689634239
 31
0.0
  0
LINE
  5
475
330
3A4
100
AcDbEntity
  8
0
 62
     0
100
AcDbLine
 10
57.34877747214107
 20
13.25758628282249
 30
0.0
 11
61.85047808566093
 21
17.7592868963424
 31
0.0
  0
LINE
  5
476
330
3A4
100
AcDbEntity
  8
0
 62
     0
100
AcDbLine
 10
63.9504780856609
 20
20.75731250844921
 30
0.0
 11
66.75047808566097
 21
23.55731250844928
 31
0.0
  0
LINE
  5
477
330
3A4
100
AcDbEntity
  8
0
 62
     0
100
AcDbLine
 10
56.45075186003424
 20
13.25758628282255
 30
0.0
 11
61.850478085661
 21
18.6573125084493
 31
0.0
  0
LINE
  5
478
330
3A4
100
AcDbEntity
  8
0
 62
     0
100
AcDbLine
 10
58.94588688357988
 20
16.65074691847513
 30
0.0
 11
61.850478085661
 21
19.5553381205562
 31
0.0
  0
LINE
  5
479
330
3A4
100
AcDbEntity
  8
0
 62
     0
100
AcDbLine
 10
63.9504780856609
 20
21.65533812055611
 30
0.0
 11
66.75047808566097
 21
24.45533812055618
 31
0.0
  0
LINE
  5
47A
330
3A4
100
AcDbEntity
  8
0
 62
     0
100
AcDbLine
 10
55.55272624792724
 20
13.25758628282249
 30
0.0
 11
58.45731745000836
 21
16.16217748490355
 31
0.0
  0
LINE
  5
47B
330
3A4
100
AcDbEntity
  8
0
 62
     0
100
AcDbLine
 10
59.05047808566087
 20
17.65336373266307
 30
0.0
 11
61.85047808566093
 21
20.45336373266315
 31
0.0
  0
LINE
  5
47C
330
3A4
100
AcDbEntity
  8
0
 62
     0
100
AcDbLine
 10
63.95047808566085
 20
22.55336373266306
 30
0.0
 11
66.7504780856609
 21
25.35336373266313
 31
0.0
  0
LINE
  5
47D
330
3A4
100
AcDbEntity
  8
0
 62
     0
100
AcDbLine
 10
54.76665038719755
 20
13.36953603419971
 30
0.0
 11
57.45470063582041
 21
16.05758628282257
 31
0.0
  0
LINE
  5
47E
330
3A4
100
AcDbEntity
  8
0
 62
     0
100
AcDbLine
 10
59.05047808566092
 20
18.55138934477007
 30
0.0
 11
61.85047808566093
 21
21.35138934477003
 31
0.0
  0
LINE
  5
47F
330
3A4
100
AcDbEntity
  8
0
 62
     0
100
AcDbLine
 10
63.95047808566085
 20
23.45138934477
 30
0.0
 11
66.7504780856609
 21
26.25138934477002
 31
0.0
  0
LINE
  5
480
330
3A4
100
AcDbEntity
  8
0
 62
     0
100
AcDbLine
 10
54.1386635199874
 20
13.63957477909656
 30
0.0
 11
56.55755280935784
 21
16.05846406846699
 31
0.0
  0
LINE
  5
481
330
3A4
100
AcDbEntity
  8
0
 62
     0
100
AcDbLine
 10
59.05047808566099
 20
19.44941495687698
 30
0.0
 11
61.85047808566093
 21
22.24941495687692
 31
0.0
  0
LINE
  5
482
330
3A4
100
AcDbEntity
  8
0
 62
     0
100
AcDbLine
 10
63.9504780856609
 20
24.34941495687684
 30
0.0
 11
66.7504780856609
 21
27.14941495687691
 31
0.0
  0
LINE
  5
483
330
3A4
100
AcDbEntity
  8
0
 62
     0
100
AcDbLine
 10
53.62540363862233
 20
14.02434050983828
 30
0.0
 11
55.91407422064515
 21
16.31301109186114
 31
0.0
  0
LINE
  5
484
330
3A4
100
AcDbEntity
  8
0
 62
     0
100
AcDbLine
 10
59.05047808566099
 20
20.34744056898387
 30
0.0
 11
61.85047808566093
 21
23.14744056898387
 31
0.0
  0
LINE
  5
485
330
3A4
100
AcDbEntity
  8
0
 62
     0
100
AcDbLine
 10
63.95047808566085
 20
25.24744056898378
 30
0.0
 11
66.7504780856609
 21
28.04744056898385
 31
0.0
  0
LINE
  5
486
330
3A4
100
AcDbEntity
  8
0
 62
     0
100
AcDbLine
 10
53.21543946339722
 20
14.5124019467201
 30
0.0
 11
55.57683594223572
 21
16.87379842555866
 31
0.0
  0
LINE
  5
487
330
3A4
100
AcDbEntity
  8
0
 62
     0
100
AcDbLine
 10
59.05047808566092
 20
21.24546618109082
 30
0.0
 11
61.850478085661
 21
24.04546618109089
 31
0.0
  0
LINE
  5
488
330
3A4
100
AcDbEntity
  8
0
 62
     0
100
AcDbLine
 10
63.95047808566085
 20
26.14546618109068
 30
0.0
 11
66.74032893211045
 21
28.93531702754035
 31
0.0
  0
LINE
  5
489
330
3A4
100
AcDbEntity
  8
0
 62
     0
100
AcDbLine
 10
52.91551458496321
 20
15.11050268039308
 30
0.0
 11
55.55047808566094
 21
17.74546618109076
 31
0.0
  0
LINE
  5
48A
330
3A4
100
AcDbEntity
  8
0
 62
     0
100
AcDbLine
 10
59.05047808566099
 20
22.14349179319764
 30
0.0
 11
61.85047808566105
 21
24.94349179319772
 31
0.0
  0
LINE
  5
48B
330
3A4
100
AcDbEntity
  8
0
 62
     0
100
AcDbLine
 10
63.95047808566085
 20
27.04349179319757
 30
0.0
 11
66.26321458703097
 21
29.3562282945677
 31
0.0
  0
LINE
  5
48C
330
3A4
100
AcDbEntity
  8
0
 62
     0
100
AcDbLine
 10
52.75810105000676
 20
15.85111475754348
 30
0.0
 11
55.55047808566094
 21
18.64349179319764
 31
0.0
  0
LINE
  5
48D
330
3A4
100
AcDbEntity
  8
0
 62
     0
100
AcDbLine
 10
59.05047808566092
 20
23.0415174053046
 30
0.0
 11
61.850478085661
 21
25.84151740530467
 31
0.0
  0
LINE
  5
48E
330
3A4
100
AcDbEntity
  8
0
 62
     0
100
AcDbLine
 10
63.9504780856609
 20
27.94151740530458
 30
0.0
 11
65.3665469631789
 21
29.35758628282258
 31
0.0
  0
LINE
  5
48F
330
3A4
100
AcDbEntity
  8
0
 62
     0
100
AcDbLine
 10
52.75047808566097
 20
16.74151740530458
 30
0.0
 11
55.55047808566097
 21
19.54151740530464
 31
0.0
  0
LINE
  5
490
330
3A4
100
AcDbEntity
  8
0
 62
     0
100
AcDbLine
 10
59.05047808566092
 20
23.93954301741155
 30
0.0
 11
61.850478085661
 21
26.73954301741155
 31
0.0
  0
LINE
  5
491
330
3A4
100
AcDbEntity
  8
0
 62
     0
100
AcDbLine
 10
52.75047808566093
 20
17.63954301741154
 30
0.0
 11
55.55047808566097
 21
20.4395430174116
 31
0.0
  0
LINE
  5
492
330
3A4
100
AcDbEntity
  8
0
 62
     0
100
AcDbLine
 10
63.95052480040835
 20
28.83958973215897
 30
0.0
 11
64.46847463632463
 21
29.3575395680752
 31
0.0
  0
LINE
  5
493
330
3A4
100
AcDbEntity
  8
0
 62
     0
100
AcDbLine
 10
48.42892245494891
 20
13.31798738669948
 30
0.0
 11
50.59007698178408
 21
15.47914191353469
 31
0.0
  0
LINE
  5
494
330
3A4
100
AcDbEntity
  8
0
 62
     0
100
AcDbLine
 10
52.75047808566093
 20
18.53756862951843
 30
0.0
 11
55.55047808566097
 21
21.33756862951848
 31
0.0
  0
LINE
  5
495
330
3A4
100
AcDbEntity
  8
0
 62
     0
100
AcDbLine
 10
59.05047808566092
 20
24.83756862951844
 30
0.0
 11
61.85047808566093
 21
27.63756862951851
 31
0.0
  0
LINE
  5
496
330
3A4
100
AcDbEntity
  8
0
 62
     0
100
AcDbLine
 10
47.47049573896503
 20
13.25758628282261
 30
0.0
 11
50.65047808566088
 21
16.43756862951846
 31
0.0
  0
LINE
  5
497
330
3A4
100
AcDbEntity
  8
0
 62
     0
100
AcDbLine
 10
52.75047808566093
 20
19.43559424162532
 30
0.0
 11
55.55047808566097
 21
22.23559424162539
 31
0.0
  0
LINE
  5
498
330
3A4
100
AcDbEntity
  8
0
 62
     0
100
AcDbLine
 10
59.05047808566092
 20
25.73559424162533
 30
0.0
 11
61.850478085661
 21
28.5355942416254
 31
0.0
  0
LINE
  5
499
330
3A4
100
AcDbEntity
  8
0
 62
     0
100
AcDbLine
 10
46.57247012685814
 20
13.25758628282255
 30
0.0
 11
50.65047808566095
 21
17.3355942416253
 31
0.0
  0
LINE
  5
49A
330
3A4
100
AcDbEntity
  8
0
 62
     0
100
AcDbLine
 10
52.75047808566093
 20
20.33361985373227
 30
0.0
 11
55.55047808566097
 21
23.13361985373228
 31
0.0
  0
LINE
  5
49B
330
3A4
100
AcDbEntity
  8
0
 62
     0
100
AcDbLine
 10
59.05047808566092
 20
26.63361985373223
 30
0.0
 11
61.65674063082684
 21
29.23988239889819
 31
0.0
  0
LINE
  5
49C
330
3A4
100
AcDbEntity
  8
0
 62
     0
100
AcDbLine
 10
45.67444451475124
 20
13.25758628282261
 30
0.0
 11
50.63615948524807
 21
18.21930125331937
 31
0.0
  0
LINE
  5
49D
330
3A4
100
AcDbEntity
  8
0
 62
     0
100
AcDbLine
 10
52.75047808566093
 20
21.23164546583915
 30
0.0
 11
55.55047808566094
 21
24.03164546583923
 31
0.0
  0
LINE
  5
49E
330
3A4
100
AcDbEntity
  8
0
 62
     0
100
AcDbLine
 10
59.05047808566087
 20
27.53164546583917
 30
0.0
 11
60.87641890264433
 21
29.35758628282263
 31
0.0
  0
LINE
  5
49F
330
3A4
100
AcDbEntity
  8
0
 62
     0
100
AcDbLine
 10
44.77641890264431
 20
13.25758628282261
 30
0.0
 11
50.50124711461927
 21
18.98241449479757
 31
0.0
  0
LINE
  5
4A0
330
3A4
100
AcDbEntity
  8
0
 62
     0
100
AcDbLine
 10
52.75047808566093
 20
22.12967107794605
 30
0.0
 11
55.55047808566097
 21
24.92967107794612
 31
0.0
  0
LINE
  5
4A1
330
3A4
100
AcDbEntity
  8
0
 62
     0
100
AcDbLine
 10
47.85047808566105
 20
17.22967107794613
 30
0.0
 11
50.26065965770072
 21
19.63985264998585
 31
0.0
  0
LINE
  5
4A2
330
3A4
100
AcDbEntity
  8
0
 62
     0
100
AcDbLine
 10
59.05047808566092
 20
28.42967107794605
 30
0.0
 11
59.9783932905375
 21
29.35758628282263
 31
0.0
  0
LINE
  5
4A3
330
3A4
100
AcDbEntity
  8
0
 62
     0
100
AcDbLine
 10
44.00664864366853
 20
13.38584163595367
 30
0.0
 11
46.67839329053744
 21
16.05758628282257
 31
0.0
  0
LINE
  5
4A4
330
3A4
100
AcDbEntity
  8
0
 62
     0
100
AcDbLine
 10
47.83060751053364
 20
18.10782611492567
 30
0.0
 11
49.93716035284013
 21
20.21437895723214
 31
0.0
  0
LINE
  5
4A5
330
3A4
100
AcDbEntity
  8
0
 62
     0
100
AcDbLine
 10
52.75047808566093
 20
23.02769669005294
 30
0.0
 11
55.55047808566094
 21
25.82769669005301
 31
0.0
  0
LINE
  5
4A6
330
3A4
100
AcDbEntity
  8
0
 62
     0
100
AcDbLine
 10
43.82547808566096
 20
14.10269669005299
 30
0.0
 11
45.78036767843047
 21
16.05758628282257
 31
0.0
  0
LINE
  5
4A7
330
3A4
100
AcDbEntity
  8
0
 62
     0
100
AcDbLine
 10
47.55622267339474
 20
18.73146688989378
 30
0.0
 11
49.54128923491231
 21
20.71653345141135
 31
0.0
  0
LINE
  5
4A8
330
3A4
100
AcDbEntity
  8
0
 62
     0
100
AcDbLine
 10
52.75047808566085
 20
23.92572230215989
 30
0.0
 11
55.55047808566094
 21
26.72572230215996
 31
0.0
  0
LINE
  5
4A9
330
3A4
100
AcDbEntity
  8
0
 62
     0
100
AcDbLine
 10
43.8254780856609
 20
15.00072230215994
 30
0.0
 11
44.88234206632357
 21
16.05758628282262
 31
0.0
  0
LINE
  5
4AA
330
3A4
100
AcDbEntity
  8
0
 62
     0
100
AcDbLine
 10
52.75047808566093
 20
24.82374791426678
 30
0.0
 11
55.55047808566097
 21
27.6237479142668
 31
0.0
  0
LINE
  5
4AB
330
3A4
100
AcDbEntity
  8
0
 62
     0
100
AcDbLine
 10
47.11494777627769
 20
19.18821760488349
 30
0.0
 11
49.09484676360006
 21
21.16811659220593
 31
0.0
  0
LINE
  5
4AC
330
3A4
100
AcDbEntity
  8
0
 62
     0
100
AcDbLine
 10
46.66593497022421
 20
19.63723041093698
 30
0.0
 11
48.64583395754658
 21
21.61712939825939
 31
0.0
  0
LINE
  5
4AD
330
3A4
100
AcDbEntity
  8
0
 62
     0
100
AcDbLine
 10
52.75047808566085
 20
25.72177352637368
 30
0.0
 11
55.55047808566094
 21
28.52177352637374
 31
0.0
  0
LINE
  5
4AE
330
3A4
100
AcDbEntity
  8
0
 62
     0
100
AcDbLine
 10
40.28629084210972
 20
13.25758628282255
 30
0.0
 11
41.2004780856609
 21
14.17177352637366
 31
0.0
  0
LINE
  5
4AF
330
3A4
100
AcDbEntity
  8
0
 62
     0
100
AcDbLine
 10
46.21692216417073
 20
20.08624321699044
 30
0.0
 11
48.19682115149311
 21
22.06614220431287
 31
0.0
  0
LINE
  5
4B0
330
3A4
100
AcDbEntity
  8
0
 62
     0
100
AcDbLine
 10
52.75047808566085
 20
26.61979913848063
 30
0.0
 11
55.36429717756226
 21
29.23361823038197
 31
0.0
  0
LINE
  5
4B1
330
3A4
100
AcDbEntity
  8
0
 62
     0
100
AcDbLine
 10
39.38826523000278
 20
13.25758628282255
 30
0.0
 11
41.20047808566096
 21
15.06979913848067
 31
0.0
  0
LINE
  5
4B2
330
3A4
100
AcDbEntity
  8
0
 62
     0
100
AcDbLine
 10
45.76790935811725
 20
20.53525602304393
 30
0.0
 11
47.74780834543963
 21
22.51515501036635
 31
0.0
  0
LINE
  5
4B3
330
3A4
100
AcDbEntity
  8
0
 62
     0
100
AcDbLine
 10
52.75047808566085
 20
27.51782475058752
 30
0.0
 11
54.59023961789597
 21
29.35758628282269
 31
0.0
  0
LINE
  5
4B4
330
3A4
100
AcDbEntity
  8
0
 62
     0
100
AcDbLine
 10
38.60185075575788
 20
13.36919742068453
 30
0.0
 11
41.2004780856609
 21
15.96782475058762
 31
0.0
  0
LINE
  5
4B5
330
3A4
100
AcDbEntity
  8
0
 62
     0
100
AcDbLine
 10
45.31889655206384
 20
20.98426882909734
 30
0.0
 11
47.29879553938621
 21
22.96416781641976
 31
0.0
  0
LINE
  5
4B6
330
3A4
100
AcDbEntity
  8
0
 62
     0
100
AcDbLine
 10
52.75047808566085
 20
28.41585036269441
 30
0.0
 11
53.69221400578914
 21
29.35758628282263
 31
0.0
  0
LINE
  5
4B7
330
3A4
100
AcDbEntity
  8
0
 62
     0
100
AcDbLine
 10
38.40047808566095
 20
14.0658503626945
 30
0.0
 11
41.20047808566096
 21
16.86585036269446
 31
0.0
  0
LINE
  5
4B8
330
3A4
100
AcDbEntity
  8
0
 62
     0
100
AcDbLine
 10
44.86988374601037
 20
21.43328163515082
 30
0.0
 11
46.84978273333274
 21
23.41318062247324
 31
0.0
  0
LINE
  5
4B9
330
3A4
100
AcDbEntity
  8
0
 62
     0
100
AcDbLine
 10
38.40047808566095
 20
14.96387597480145
 30
0.0
 11
41.2004780856609
 21
17.76387597480139
 31
0.0
  0
LINE
  5
4BA
330
3A4
100
AcDbEntity
  8
0
 62
     0
100
AcDbLine
 10
44.42289984496905
 20
21.88432334621648
 30
0.0
 11
46.40687337835106
 21
23.86829687959846
 31
0.0
  0
LINE
  5
4BB
330
3A4
100
AcDbEntity
  8
0
 62
     0
100
AcDbLine
 10
38.40047808566095
 20
15.86190158690834
 30
0.0
 11
41.2004780856609
 21
18.66190158690835
 31
0.0
  0
LINE
  5
4BC
330
3A4
100
AcDbEntity
  8
0
 62
     0
100
AcDbLine
 10
49.09616278157511
 20
26.55758628282255
 30
0.0
 11
50.12547808566097
 21
27.58690158690837
 31
0.0
  0
LINE
  5
4BD
330
3A4
100
AcDbEntity
  8
0
 62
     0
100
AcDbLine
 10
35.90782186095072
 20
13.3692453621981
 30
0.0
 11
35.99747422240574
 21
13.45889772365318
 31
0.0
  0
LINE
  5
4BE
330
3A4
100
AcDbEntity
  8
0
 62
     0
100
AcDbLine
 10
44.02489766614706
 20
22.38434677950135
 30
0.0
 11
46.12453194356567
 21
24.48398105691996
 31
0.0
  0
LINE
  5
4BF
330
3A4
100
AcDbEntity
  8
0
 62
     0
100
AcDbLine
 10
38.40047808566095
 20
16.75992719901523
 30
0.0
 11
41.20047808566096
 21
19.55992719901519
 31
0.0
  0
LINE
  5
4C0
330
3A4
100
AcDbEntity
  8
0
 62
     0
100
AcDbLine
 10
48.19813716946835
 20
26.55758628282262
 30
0.0
 11
50.12547808566097
 21
28.48492719901526
 31
0.0
  0
LINE
  5
4C1
330
3A4
100
AcDbEntity
  8
0
 62
     0
100
AcDbLine
 10
34.89813716946827
 20
13.25758628282255
 30
0.0
 11
35.9639162657748
 21
14.32336537912908
 31
0.0
  0
LINE
  5
4C2
330
3A4
100
AcDbEntity
  8
0
 62
     0
100
AcDbLine
 10
43.69906340175036
 20
22.9565381272116
 30
0.0
 11
46.10047808566105
 21
25.35795281112227
 31
0.0
  0
LINE
  5
4C3
330
3A4
100
AcDbEntity
  8
0
 62
     0
100
AcDbLine
 10
38.40047808566095
 20
17.65795281112213
 30
0.0
 11
41.2004780856609
 21
20.45795281112213
 31
0.0
  0
LINE
  5
4C4
330
3A4
100
AcDbEntity
  8
0
 62
     0
100
AcDbLine
 10
47.30011155736132
 20
26.55758628282255
 30
0.0
 11
49.95880915386305
 21
29.21628387932429
 31
0.0
  0
LINE
  5
4C5
330
3A4
100
AcDbEntity
  8
0
 62
     0
100
AcDbLine
 10
34.00011155736125
 20
13.25758628282249
 30
0.0
 11
35.74839011886911
 21
15.00586484433034
 31
0.0
  0
LINE
  5
4C6
330
3A4
100
AcDbEntity
  8
0
 62
     0
100
AcDbLine
 10
38.40047808566089
 20
18.55597842322907
 30
0.0
 11
41.2004780856609
 21
21.35597842322903
 31
0.0
  0
LINE
  5
4C7
330
3A4
100
AcDbEntity
  8
0
 62
     0
100
AcDbLine
 10
43.45568133908027
 20
23.61118167664846
 30
0.0
 11
49.20208594525445
 21
29.35758628282263
 31
0.0
  0
LINE
  5
4C8
330
3A4
100
AcDbEntity
  8
0
 62
     0
100
AcDbLine
 10
33.40809724670629
 20
13.56359758427447
 30
0.0
 11
35.53286397196342
 21
15.6883643095316
 31
0.0
  0
LINE
  5
4C9
330
3A4
100
AcDbEntity
  8
0
 62
     0
100
AcDbLine
 10
38.40047808566089
 20
19.45400403533602
 30
0.0
 11
41.20047808566083
 21
22.25400403533597
 31
0.0
  0
LINE
  5
4CA
330
3A4
100
AcDbEntity
  8
0
 62
     0
100
AcDbLine
 10
43.31697447999458
 20
24.37050042966973
 30
0.0
 11
48.30406033314756
 21
29.35758628282263
 31
0.0
  0
LINE
  5
4CB
330
3A4
100
AcDbEntity
  8
0
 62
     0
100
AcDbLine
 10
33.18933782505769
 20
14.24286377473282
 30
0.0
 11
35.31733782505773
 21
16.37086377473285
 31
0.0
  0
LINE
  5
4CC
330
3A4
100
AcDbEntity
  8
0
 62
     0
100
AcDbLine
 10
38.40047808566095
 20
20.35202964744285
 30
0.0
 11
41.2004780856609
 21
23.15202964744286
 31
0.0
  0
LINE
  5
4CD
330
3A4
100
AcDbEntity
  8
0
 62
     0
100
AcDbLine
 10
43.30047808566092
 20
25.25202964744284
 30
0.0
 11
47.40603472104067
 21
29.35758628282263
 31
0.0
  0
LINE
  5
4CE
330
3A4
100
AcDbEntity
  8
0
 62
     0
100
AcDbLine
 10
32.97381167815206
 20
14.92536323993403
 30
0.0
 11
35.10181167815216
 21
17.05336323993407
 31
0.0
  0
LINE
  5
4CF
330
3A4
100
AcDbEntity
  8
0
 62
     0
100
AcDbLine
 10
38.40047808566089
 20
21.2500552595498
 30
0.0
 11
41.2004780856609
 21
24.05005525954976
 31
0.0
  0
LINE
  5
4D0
330
3A4
100
AcDbEntity
  8
0
 62
     0
100
AcDbLine
 10
43.30047808566097
 20
26.15005525954984
 30
0.0
 11
46.50800910893376
 21
29.35758628282263
 31
0.0
  0
LINE
  5
4D1
330
3A4
100
AcDbEntity
  8
0
 62
     0
100
AcDbLine
 10
32.75828553124631
 20
15.60786270513523
 30
0.0
 11
34.88628553124653
 21
17.73586270513544
 31
0.0
  0
LINE
  5
4D2
330
3A4
100
AcDbEntity
  8
0
 62
     0
100
AcDbLine
 10
38.40047808566089
 20
22.14808087165669
 30
0.0
 11
41.20047808566096
 21
24.94808087165677
 31
0.0
  0
LINE
  5
4D3
330
3A4
100
AcDbEntity
  8
0
 62
     0
100
AcDbLine
 10
32.54275938434068
 20
16.29036217033655
 30
0.0
 11
34.67075938434078
 21
18.41836217033659
 31
0.0
  0
LINE
  5
4D4
330
3A4
100
AcDbEntity
  8
0
 62
     0
100
AcDbLine
 10
43.35379475578213
 20
27.101397541778
 30
0.0
 11
45.55666682670545
 21
29.30426961270132
 31
0.0
  0
LINE
  5
4D5
330
3A4
100
AcDbEntity
  8
0
 62
     0
100
AcDbLine
 10
29.50998349682669
 20
13.25758628282255
 30
0.0
 11
30.35047808566087
 21
14.09808087165673
 31
0.0
  0
LINE
  5
4D6
330
3A4
100
AcDbEntity
  8
0
 62
     0
100
AcDbLine
 10
32.32723323743511
 20
16.97286163553775
 30
0.0
 11
34.45523323743515
 21
19.10086163553785
 31
0.0
  0
LINE
  5
4D7
330
3A4
100
AcDbEntity
  8
0
 62
     0
100
AcDbLine
 10
38.40047808566089
 20
23.04610648376359
 30
0.0
 11
41.20047808566096
 21
25.84610648376366
 31
0.0
  0
LINE
  5
4D8
330
3A4
100
AcDbEntity
  8
0
 62
     0
100
AcDbLine
 10
28.61195788471985
 20
13.25758628282249
 30
0.0
 11
30.35047808566094
 21
14.99610648376363
 31
0.0
  0
LINE
  5
4D9
330
3A4
100
AcDbEntity
  8
0
 62
     0
100
AcDbLine
 10
32.11170709052942
 20
17.65536110073901
 30
0.0
 11
34.23970709052946
 21
19.78336110073911
 31
0.0
  0
LINE
  5
4DA
330
3A4
100
AcDbEntity
  8
0
 62
     0
100
AcDbLine
 10
38.40047808566089
 20
23.94413209587053
 30
0.0
 11
41.20047808566096
 21
26.74413209587055
 31
0.0
  0
LINE
  5
4DB
330
3A4
100
AcDbEntity
  8
0
 62
     0
100
AcDbLine
 10
27.7950820202642
 20
13.33873603047385
 30
0.0
 11
30.35047808566094
 21
15.89413209587053
 31
0.0
  0
LINE
  5
4DC
330
3A4
100
AcDbEntity
  8
0
 62
     0
100
AcDbLine
 10
31.89618094362373
 20
18.33786056594027
 30
0.0
 11
34.02418094362376
 21
20.46586056594037
 31
0.0
  0
LINE
  5
4DD
330
3A4
100
AcDbEntity
  8
0
 62
     0
100
AcDbLine
 10
38.40047808566089
 20
24.84215770797742
 30
0.0
 11
41.2004780856609
 21
27.6421577079775
 31
0.0
  0
LINE
  5
4DE
330
3A4
100
AcDbEntity
  8
0
 62
     0
100
AcDbLine
 10
27.55047808566092
 20
13.99215770797747
 30
0.0
 11
30.35047808566099
 21
16.79215770797752
 31
0.0
  0
LINE
  5
4DF
330
3A4
100
AcDbEntity
  8
0
 62
     0
100
AcDbLine
 10
31.6806547967181
 20
19.02036003114147
 30
0.0
 11
33.80865479671825
 21
21.14836003114163
 31
0.0
  0
LINE
  5
4E0
330
3A4
100
AcDbEntity
  8
0
 62
     0
100
AcDbLine
 10
38.40047808566089
 20
25.74018332008431
 30
0.0
 11
41.20047808566096
 21
28.54018332008439
 31
0.0
  0
LINE
  5
4E1
330
3A4
100
AcDbEntity
  8
0
 62
     0
100
AcDbLine
 10
27.55047808566092
 20
14.89018332008436
 30
0.0
 11
30.35047808566099
 21
17.69018332008442
 31
0.0
  0
LINE
  5
4E2
330
3A4
100
AcDbEntity
  8
0
 62
     0
100
AcDbLine
 10
31.44585600974636
 20
19.68358685627674
 30
0.0
 11
34.07615007767736
 21
22.31388092420769
 31
0.0
  0
LINE
  5
4E3
330
3A4
100
AcDbEntity
  8
0
 62
     0
100
AcDbLine
 10
38.40047808566095
 20
26.63820893219133
 30
0.0
 11
41.00420266316251
 21
29.24193350969284
 31
0.0
  0
LINE
  5
4E4
330
3A4
100
AcDbEntity
  8
0
 62
     0
100
AcDbLine
 10
27.55047808566092
 20
15.7882089321913
 30
0.0
 11
30.35047808566099
 21
18.58820893219131
 31
0.0
  0
LINE
  5
4E5
330
3A4
100
AcDbEntity
  8
0
 62
     0
100
AcDbLine
 10
30.75867063987896
 20
19.8944270985163
 30
0.0
 11
34.49062343711124
 21
23.62637989574857
 31
0.0
  0
LINE
  5
4E6
330
3A4
100
AcDbEntity
  8
0
 62
     0
100
AcDbLine
 10
27.55047808566092
 20
16.6862345442982
 30
0.0
 11
30.36363726996722
 21
19.49939372860449
 31
0.0
  0
LINE
  5
4E7
330
3A4
100
AcDbEntity
  8
0
 62
     0
100
AcDbLine
 10
38.40047808566095
 20
27.53623454429822
 30
0.0
 11
40.22182982418529
 21
29.35758628282263
 31
0.0
  0
LINE
  5
4E8
330
3A4
100
AcDbEntity
  8
0
 62
     0
100
AcDbLine
 10
24.12182982418528
 20
13.25758628282255
 30
0.0
 11
25.10047808566094
 21
14.23623454429827
 31
0.0
  0
LINE
  5
4E9
330
3A4
100
AcDbEntity
  8
0
 62
     0
100
AcDbLine
 10
27.55047808566087
 20
17.58426015640515
 30
0.0
 11
34.90509679654518
 21
24.93887886728947
 31
0.0
  0
LINE
  5
4EA
330
3A4
100
AcDbEntity
  8
0
 62
     0
100
AcDbLine
 10
38.40047808566089
 20
28.43426015640517
 30
0.0
 11
39.32380421207829
 21
29.35758628282258
 31
0.0
  0
LINE
  5
4EB
330
3A4
100
AcDbEntity
  8
0
 62
     0
100
AcDbLine
 10
23.22380421207832
 20
13.25758628282261
 30
0.0
 11
25.10047808566099
 21
15.13426015640527
 31
0.0
  0
LINE
  5
4EC
330
3A4
100
AcDbEntity
  8
0
 62
     0
100
AcDbLine
 10
27.55047808566092
 20
18.48228576851197
 30
0.0
 11
35.31957015597929
 21
26.25137783883042
 31
0.0
  0
LINE
  5
4ED
330
3A4
100
AcDbEntity
  8
0
 62
     0
100
AcDbLine
 10
22.33745922432154
 20
13.26926690717266
 30
0.0
 11
24.95914380205476
 21
15.89095148490581
 31
0.0
  0
LINE
  5
4EE
330
3A4
100
AcDbEntity
  8
0
 62
     0
100
AcDbLine
 10
27.55047808566087
 20
19.38031138061893
 30
0.0
 11
30.87775298786453
 21
22.7075862828226
 31
0.0
  0
LINE
  5
4EF
330
3A4
100
AcDbEntity
  8
0
 62
     0
100
AcDbLine
 10
31.64173582310542
 20
23.47156911806347
 30
0.0
 11
35.73404351541324
 21
27.5638768103713
 31
0.0
  0
LINE
  5
4F0
330
3A4
100
AcDbEntity
  8
0
 62
     0
100
AcDbLine
 10
21.56929870687457
 20
13.39913200183258
 30
0.0
 11
24.22775298786449
 21
16.05758628282257
 31
0.0
  0
LINE
  5
4F1
330
3A4
100
AcDbEntity
  8
0
 62
     0
100
AcDbLine
 10
27.55047808566087
 20
20.27833699272587
 30
0.0
 11
30.3684686563692
 21
23.09632756343416
 31
0.0
  0
LINE
  5
4F2
330
3A4
100
AcDbEntity
  8
0
 62
     0
100
AcDbLine
 10
32.05620918253935
 20
24.78406808960432
 30
0.0
 11
36.10911496721456
 21
28.83697387427957
 31
0.0
  0
LINE
  5
4F3
330
3A4
100
AcDbEntity
  8
0
 62
     0
100
AcDbLine
 10
20.90816445004816
 20
13.63602335711317
 30
0.0
 11
23.32972737575761
 21
16.05758628282257
 31
0.0
  0
LINE
  5
4F4
330
3A4
100
AcDbEntity
  8
0
 62
     0
100
AcDbLine
 10
27.55047808566092
 20
21.17636260483271
 30
0.0
 11
30.35047808566094
 21
23.97636260483278
 31
0.0
  0
LINE
  5
4F5
330
3A4
100
AcDbEntity
  8
0
 62
     0
100
AcDbLine
 10
32.47068254197329
 20
26.09656706114515
 30
0.0
 11
35.71510309464536
 21
29.34098761381722
 31
0.0
  0
LINE
  5
4F6
330
3A4
100
AcDbEntity
  8
0
 62
     0
100
AcDbLine
 10
20.33056116588385
 20
13.95644568505565
 30
0.0
 11
22.44662302437671
 21
16.07250754354856
 31
0.0
  0
LINE
  5
4F7
330
3A4
100
AcDbEntity
  8
0
 62
     0
100
AcDbLine
 10
27.55047808566087
 20
22.07438821693965
 30
0.0
 11
30.35047808566094
 21
24.87438821693973
 31
0.0
  0
LINE
  5
4F8
330
3A4
100
AcDbEntity
  8
0
 62
     0
100
AcDbLine
 10
32.88515590140724
 20
27.40906603268598
 30
0.0
 11
34.83367615154377
 21
29.35758628282258
 31
0.0
  0
LINE
  5
4F9
330
3A4
100
AcDbEntity
  8
0
 62
     0
100
AcDbLine
 10
19.8256061995018
 20
14.34951633078054
 30
0.0
 11
21.81230688335841
 21
16.33621701463715
 31
0.0
  0
LINE
  5
4FA
330
3A4
100
AcDbEntity
  8
0
 62
     0
100
AcDbLine
 10
27.55047808566087
 20
22.97241382904656
 30
0.0
 11
30.35047808566094
 21
25.77241382904662
 31
0.0
  0
LINE
  5
4FB
330
3A4
100
AcDbEntity
  8
0
 62
     0
100
AcDbLine
 10
24.21211221743737
 20
19.63404796082312
 30
0.0
 11
25.37401640766046
 21
20.79595215104621
 31
0.0
  0
LINE
  5
4FC
330
3A4
100
AcDbEntity
  8
0
 62
     0
100
AcDbLine
 10
33.29962926084113
 20
28.72156500422687
 30
0.0
 11
33.93565053943683
 21
29.35758628282258
 31
0.0
  0
LINE
  5
4FD
330
3A4
100
AcDbEntity
  8
0
 62
     0
100
AcDbLine
 10
19.38916912617196
 20
14.8111048695577
 30
0.0
 11
21.40205593208623
 21
16.82399167547196
 31
0.0
  0
LINE
  5
4FE
330
3A4
100
AcDbEntity
  8
0
 62
     0
100
AcDbLine
 10
23.28713937580755
 20
19.60710073130025
 30
0.0
 11
25.40096363718332
 21
21.72092499267596
 31
0.0
  0
LINE
  5
4FF
330
3A4
100
AcDbEntity
  8
0
 62
     0
100
AcDbLine
 10
27.55047808566092
 20
23.87043944115356
 30
0.0
 11
30.35047808566099
 21
26.67043944115363
 31
0.0
  0
LINE
  5
500
330
3A4
100
AcDbEntity
  8
0
 62
     0
100
AcDbLine
 10
19.02214990122899
 20
15.34211125672163
 30
0.0
 11
21.25047808566091
 21
17.57043944115361
 31
0.0
  0
LINE
  5
501
330
3A4
100
AcDbEntity
  8
0
 62
     0
100
AcDbLine
 10
22.67299280638735
 20
19.89097977398682
 30
0.0
 11
25.11708459449669
 21
22.33507156209622
 31
0.0
  0
LINE
  5
502
330
3A4
100
AcDbEntity
  8
0
 62
     0
100
AcDbLine
 10
27.55047808566092
 20
24.76846505326045
 30
0.0
 11
30.35047808566099
 21
27.56846505326052
 31
0.0
  0
LINE
  5
503
330
3A4
100
AcDbEntity
  8
0
 62
     0
100
AcDbLine
 10
18.73083239130426
 20
15.94881935890378
 30
0.0
 11
21.25047808566091
 21
18.46846505326044
 31
0.0
  0
LINE
  5
504
330
3A4
100
AcDbEntity
  8
0
 62
     0
100
AcDbLine
 10
22.23503287939763
 20
20.35104545910411
 30
0.0
 11
24.65701890937946
 21
22.77303148908588
 31
0.0
  0
LINE
  5
505
330
3A4
100
AcDbEntity
  8
0
 62
     0
100
AcDbLine
 10
27.55047808566092
 20
25.6664906653674
 30
0.0
 11
30.35047808566099
 21
28.46649066536741
 31
0.0
  0
LINE
  5
506
330
3A4
100
AcDbEntity
  8
0
 62
     0
100
AcDbLine
 10
18.5296950271296
 20
16.64570760683607
 30
0.0
 11
21.25047808566091
 21
19.36649066536739
 31
0.0
  0
LINE
  5
507
330
3A4
100
AcDbEntity
  8
0
 62
     0
100
AcDbLine
 10
21.97898214698926
 20
20.99302033880263
 30
0.0
 11
24.01504402968089
 21
23.02908222149432
 31
0.0
  0
LINE
  5
508
330
3A4
100
AcDbEntity
  8
0
 62
     0
100
AcDbLine
 10
18.45047808566084
 20
17.46451627747427
 30
0.0
 11
21.25047808566091
 21
20.26451627747428
 31
0.0
  0
LINE
  5
509
330
3A4
100
AcDbEntity
  8
0
 62
     0
100
AcDbLine
 10
27.55047808566092
 20
26.56451627747429
 30
0.0
 11
30.1932279773058
 21
29.20726616911924
 31
0.0
  0
LINE
  5
50A
330
3A4
100
AcDbEntity
  8
0
 62
     0
100
AcDbLine
 10
14.36448132778525
 20
13.37851951959867
 30
0.0
 11
16.22954484888498
 21
15.2435830406984
 31
0.0
  0
LINE
  5
50B
330
3A4
100
AcDbEntity
  8
0
 62
     0
100
AcDbLine
 10
22.09739523047005
 20
22.0094590343903
 30
0.0
 11
22.99860533409327
 21
22.91066913801353
 31
0.0
  0
LINE
  5
50C
330
3A4
100
AcDbEntity
  8
0
 62
     0
100
AcDbLine
 10
18.45047808566084
 20
18.3625418895811
 30
0.0
 11
21.25047808566091
 21
21.16254188958117
 31
0.0
  0
LINE
  5
50D
330
3A4
100
AcDbEntity
  8
0
 62
     0
100
AcDbLine
 10
27.55047808566092
 20
27.46254188958118
 30
0.0
 11
29.44552247890232
 21
29.35758628282258
 31
0.0
  0
LINE
  5
50E
330
3A4
100
AcDbEntity
  8
0
 62
     0
100
AcDbLine
 10
13.34552247890228
 20
13.25758628282255
 30
0.0
 11
16.35047808566105
 21
16.26254188958125
 31
0.0
  0
LINE
  5
50F
330
3A4
100
AcDbEntity
  8
0
 62
     0
100
AcDbLine
 10
18.45047808566084
 20
19.26056750168805
 30
0.0
 11
21.25047808566091
 21
22.06056750168812
 31
0.0
  0
LINE
  5
510
330
3A4
100
AcDbEntity
  8
0
 62
     0
100
AcDbLine
 10
27.55047808566092
 20
28.36056750168808
 30
0.0
 11
28.54749686679543
 21
29.35758628282263
 31
0.0
  0
LINE
  5
511
330
3A4
100
AcDbEntity
  8
0
 62
     0
100
AcDbLine
 10
12.44749686679528
 20
13.25758628282249
 30
0.0
 11
16.35047808566098
 21
17.16056750168819
 31
0.0
  0
LINE
  5
512
330
3A4
100
AcDbEntity
  8
0
 62
     0
100
AcDbLine
 10
18.45047808566084
 20
20.15859311379494
 30
0.0
 11
21.25047808566085
 21
22.95859311379501
 31
0.0
  0
LINE
  5
513
330
3A4
100
AcDbEntity
  8
0
 62
     0
100
AcDbLine
 10
11.54947125468844
 20
13.25758628282261
 30
0.0
 11
16.34653873309973
 21
18.0546537612339
 31
0.0
  0
LINE
  5
514
330
3A4
100
AcDbEntity
  8
0
 62
     0
100
AcDbLine
 10
18.45047808566084
 20
21.05661872590188
 30
0.0
 11
21.25047808566091
 21
23.85661872590195
 31
0.0
  0
LINE
  5
515
330
3A4
100
AcDbEntity
  8
0
 62
     0
100
AcDbLine
 10
23.95144564258163
 20
26.55758628282268
 30
0.0
 11
25.10047808566104
 21
27.7066187259021
 31
0.0
  0
LINE
  5
516
330
3A4
100
AcDbEntity
  8
0
 62
     0
100
AcDbLine
 10
10.6514456425815
 20
13.25758628282255
 30
0.0
 11
16.23687689677842
 21
18.84301753701947
 31
0.0
  0
LINE
  5
517
330
3A4
100
AcDbEntity
  8
0
 62
     0
100
AcDbLine
 10
18.45047808566084
 20
21.95464433800879
 30
0.0
 11
21.25047808566091
 21
24.7546443380088
 31
0.0
  0
LINE
  5
518
330
3A4
100
AcDbEntity
  8
0
 62
     0
100
AcDbLine
 10
13.55047808566092
 20
17.05464433800887
 30
0.0
 11
16.0145381527343
 21
19.51870440508224
 31
0.0
  0
LINE
  5
519
330
3A4
100
AcDbEntity
  8
0
 62
     0
100
AcDbLine
 10
23.05342003047461
 20
26.55758628282255
 30
0.0
 11
25.10047808566104
 21
28.60464433800894
 31
0.0
  0
LINE
  5
51A
330
3A4
100
AcDbEntity
  8
0
 62
     0
100
AcDbLine
 10
9.811145905734575
 20
13.31531215808251
 30
0.0
 11
12.55342003047462
 21
16.05758628282257
 31
0.0
  0
LINE
  5
51B
330
3A4
100
AcDbEntity
  8
0
 62
     0
100
AcDbLine
 10
18.45047808566078
 20
22.85266995011567
 30
0.0
 11
21.41629279144058
 21
25.81848465589546
 31
0.0
  0
LINE
  5
51C
330
3A4
100
AcDbEntity
  8
0
 62
     0
100
AcDbLine
 10
13.54831899405167
 20
17.9505108585065
 30
0.0
 11
15.70610661806226
 21
20.10829848251717
 31
0.0
  0
LINE
  5
51D
330
3A4
100
AcDbEntity
  8
0
 62
     0
100
AcDbLine
 10
21.98957971258812
 20
26.39177157704301
 30
0.0
 11
24.86701067074113
 21
29.26920253519597
 31
0.0
  0
LINE
  5
51E
330
3A4
100
AcDbEntity
  8
0
 62
     0
100
AcDbLine
 10
9.525478085660948
 20
13.92766995011577
 30
0.0
 11
11.65539441836773
 21
16.05758628282257
 31
0.0
  0
LINE
  5
51F
330
3A4
100
AcDbEntity
  8
0
 62
     0
100
AcDbLine
 10
13.32871597455094
 20
18.6289334511128
 30
0.0
 11
15.32386465322338
 21
20.62408212978521
 31
0.0
  0
LINE
  5
520
330
3A4
100
AcDbEntity
  8
0
 62
     0
100
AcDbLine
 10
18.45047808566078
 20
23.75069556222262
 30
0.0
 11
24.05736880626085
 21
29.35758628282269
 31
0.0
  0
LINE
  5
521
330
3A4
100
AcDbEntity
  8
0
 62
     0
100
AcDbLine
 10
9.525478085660893
 20
14.82569556222273
 30
0.0
 11
10.75736880626077
 21
16.05758628282262
 31
0.0
  0
LINE
  5
522
330
3A4
100
AcDbEntity
  8
0
 62
     0
100
AcDbLine
 10
12.90246114624625
 20
19.10070423491492
 30
0.0
 11
14.88236013356861
 21
21.08060322223729
 31
0.0
  0
LINE
  5
523
330
3A4
100
AcDbEntity
  8
0
 62
     0
100
AcDbLine
 10
18.45047808566084
 20
24.64872117432946
 30
0.0
 11
23.15934319415379
 21
29.35758628282247
 31
0.0
  0
LINE
  5
524
330
3A4
100
AcDbEntity
  8
0
 62
     0
100
AcDbLine
 10
9.594430007680673
 20
15.79267309634934
 30
0.0
 11
9.790391272134288
 21
15.98863436080296
 31
0.0
  0
LINE
  5
525
330
3A4
100
AcDbEntity
  8
0
 62
     0
100
AcDbLine
 10
18.47045319981742
 20
25.56672190059299
 30
0.0
 11
22.24134246789043
 21
29.33761116866605
 31
0.0
  0
LINE
  5
526
330
3A4
100
AcDbEntity
  8
0
 62
     0
100
AcDbLine
 10
12.45344834019276
 20
19.54971704096839
 30
0.0
 11
14.43334732751515
 21
21.52961602829076
 31
0.0
  0
LINE
  5
527
330
3A4
100
AcDbEntity
  8
0
 62
     0
100
AcDbLine
 10
18.76991663208319
 20
26.76421094496578
 30
0.0
 11
21.0438534235177
 21
29.03814773640027
 31
0.0
  0
LINE
  5
528
330
3A4
100
AcDbEntity
  8
0
 62
     0
100
AcDbLine
 10
12.0044355341393
 20
19.99872984702187
 30
0.0
 11
13.98433452146167
 21
21.97862883434424
 31
0.0
  0
LINE
  5
529
330
3A4
100
AcDbEntity
  8
0
 62
     0
100
AcDbLine
 10
11.55542272808588
 20
20.44774265307529
 30
0.0
 11
13.53532171540819
 21
22.42764164039754
 31
0.0
  0
LINE
  5
52A
330
3A4
100
AcDbEntity
  8
0
 62
     0
100
AcDbLine
 10
11.10640992203241
 20
20.89675545912876
 30
0.0
 11
13.08630890935472
 21
22.87665444645103
 31
0.0
  0
LINE
  5
52B
330
3A4
100
AcDbEntity
  8
0
 62
     0
100
AcDbLine
 10
10.65739711597893
 20
21.34576826518223
 30
0.0
 11
12.63729610330125
 21
23.3256672525045
 31
0.0
  0
LINE
  5
52C
330
3A4
100
AcDbEntity
  8
0
 62
     0
100
AcDbLine
 10
14.97118952151237
 20
26.55758628282255
 30
0.0
 11
15.82547808566084
 21
27.4118748469711
 31
0.0
  0
LINE
  5
52D
330
3A4
100
AcDbEntity
  8
0
 62
     0
100
AcDbLine
 10
10.20846762395358
 20
21.79486438526385
 30
0.0
 11
12.18853326738605
 21
23.7749300286963
 31
0.0
  0
LINE
  5
52E
330
3A4
100
AcDbEntity
  8
0
 62
     0
100
AcDbLine
 10
14.07316390940548
 20
26.55758628282255
 30
0.0
 11
15.8254780856609
 21
28.30990045907798
 31
0.0
  0
LINE
  5
52F
330
3A4
100
AcDbEntity
  8
0
 62
     0
100
AcDbLine
 10
9.796999699402023
 20
22.28142207281905
 30
0.0
 11
11.8586363860981
 21
24.34305875951519
 31
0.0
  0
LINE
  5
530
330
3A4
100
AcDbEntity
  8
0
 62
     0
100
AcDbLine
 10
13.17513829729852
 20
26.55758628282255
 30
0.0
 11
15.73891918589976
 21
29.12136717142379
 31
0.0
  0
LINE
  5
531
330
3A4
100
AcDbEntity
  8
0
 62
     0
100
AcDbLine
 10
9.456539093139554
 20
22.83898707866353
 30
0.0
 11
11.80047808566098
 21
25.18292607118496
 31
0.0
  0
LINE
  5
532
330
3A4
100
AcDbEntity
  8
0
 62
     0
100
AcDbLine
 10
12.27464603602151
 20
26.55511963365245
 30
0.0
 11
15.0771126851917
 21
29.35758628282263
 31
0.0
  0
LINE
  5
533
330
3A4
100
AcDbEntity
  8
0
 62
     0
100
AcDbLine
 10
9.195845797407455
 20
23.47631939503838
 30
0.0
 11
11.80294473483104
 21
26.08341833246203
 31
0.0
  0
LINE
  5
534
330
3A4
100
AcDbEntity
  8
0
 62
     0
100
AcDbLine
 10
9.034033835159393
 20
24.21253304489721
 30
0.0
 11
14.17908707308481
 21
29.35758628282263
 31
0.0
  0
LINE
  5
535
330
3A4
100
AcDbEntity
  8
0
 62
     0
100
AcDbLine
 10
9.000478085660972
 20
25.07700290750573
 30
0.0
 11
13.2810614609778
 21
29.35758628282258
 31
0.0
  0
LINE
  5
536
330
3A4
100
AcDbEntity
  8
0
 62
     0
100
AcDbLine
 10
9.000478085660972
 20
25.97502851961262
 30
0.0
 11
12.38303584887086
 21
29.35758628282258
 31
0.0
  0
LINE
  5
537
330
3A4
100
AcDbEntity
  8
0
 62
     0
100
AcDbLine
 10
9.020670096099195
 20
26.8932461421578
 30
0.0
 11
11.4648182263258
 21
29.33739427238441
 31
0.0
  0
ENDBLK
  5
539
330
3A4
100
AcDbEntity
  8
0
100
AcDbBlockEnd
  0
BLOCK
  5
A7BA
330
A7B0
100
AcDbEntity
  8
0
 48
0.5
100
AcDbBlockBegin
  2
*D2
 70
     1
 10
0.0
 20
0.0
 30
0.0
  3
*D2
  1

  0
LINE
  5
AA89
330
A7B0
100
AcDbEntity
  8
SUNPOU
 48
0.5
100
AcDbLine
 10
211.5114645718942
 20
289.2320514581434
 30
0.0
 11
211.5114645718942
 21
464.1677279845986
 31
0.0
  0
LINE
  5
AA8A
330
A7B0
100
AcDbEntity
  8
SUNPOU
 48
0.5
100
AcDbLine
 10
418.1842092569182
 20
257.4214043864829
 30
0.0
 11
418.1842092569182
 21
464.1677279845986
 31
0.0
  0
LINE
  5
AA8B
330
A7B0
100
AcDbEntity
  8
SUNPOU
 48
0.5
100
AcDbLine
 10
218.5114645718943
 20
461.1677279845986
 30
0.0
 11
411.184209256918
 21
461.1677279845986
 31
0.0
  0
INSERT
  5
AA8C
330
A7B0
100
AcDbEntity
  8
SUNPOU
 48
0.5
100
AcDbBlockReference
  2
_OPEN
 10
211.5114645718942
 20
461.1677279845986
 30
0.0
 41
7.0
 42
7.0
 43
7.0
 50
180.0
  0
INSERT
  5
AA8D
330
A7B0
100
AcDbEntity
  8
SUNPOU
 48
0.5
100
AcDbBlockReference
  2
_OPEN
 10
418.1842092569182
 20
461.1677279845986
 30
0.0
 41
7.0
 42
7.0
 43
7.0
  0
MTEXT
  5
AA8E
330
A7B0
100
AcDbEntity
  8
SUNPOU
 48
0.5
100
AcDbMText
 10
314.8478369144062
 20
466.1677279845987
 30
0.0
 40
6.0
 41
0.0
 71
     5
 72
     5
  1
\A1;207
 73
     1
 44
1.0
1001
ACAD
1000
MTEXTBEGIN
1070
    73
1070
     1
1070
    44
1040
1.0
1070
    74
1070
     0
1000
MTEXTEND
1000
MTEXTBEGIN
1070
    73
1070
     1
1070
    44
1040
1.0
1070
    74
1070
     0
1000
MTEXTEND
1000
MTEXTBEGIN
1070
    73
1070
     1
1070
    44
1040
1.0
1070
    74
1070
     0
1000
MTEXTEND
1000
MTEXTBEGIN
1070
    73
1070
     1
1070
    44
1040
1.0
1070
    74
1070
     0
1000
MTEXTEND
1000
MTEXTBEGIN
1070
    73
1070
     1
1070
    44
1040
1.0
1070
    74
1070
     0
1000
MTEXTEND
  0
POINT
  5
AA8F
330
A7B0
100
AcDbEntity
  8
DEFPOINTS
 62
     0
 48
0.5
100
AcDbPoint
 10
211.5114645718942
 20
283.2320514581434
 30
0.0
  0
POINT
  5
AA90
330
A7B0
100
AcDbEntity
  8
DEFPOINTS
 62
     0
 48
0.5
100
AcDbPoint
 10
418.1842092569182
 20
251.4214043864829
 30
0.0
  0
POINT
  5
AA91
330
A7B0
100
AcDbEntity
  8
DEFPOINTS
 62
     0
 48
0.5
100
AcDbPoint
 10
418.1842092569182
 20
461.1677279845986
 30
0.0
  0
ENDBLK
  5
A7BB
330
A7B0
100
AcDbEntity
  8
0
 48
0.5
100
AcDbBlockEnd
  0
BLOCK
  5
A7C6
330
A7BC
100
AcDbEntity
  8
0
 48
0.5
100
AcDbBlockBegin
  2
*D3
 70
     1
 10
0.0
 20
0.0
 30
0.0
  3
*D3
  1

  0
LINE
  5
AA80
330
A7BC
100
AcDbEntity
  8
SUNPOU
 48
0.5
100
AcDbLine
 10
384.2546559769441
 20
260.1975211870199
 30
0.0
 11
384.2546559769441
 21
281.5787618466415
 31
0.0
  0
LINE
  5
AA81
330
A7BC
100
AcDbEntity
  8
SUNPOU
 48
0.5
100
AcDbLine
 10
418.3114645719233
 20
259.2320514580951
 30
0.0
 11
418.3114645719233
 21
281.5787618466415
 31
0.0
  0
LINE
  5
AA82
330
A7BC
100
AcDbEntity
  8
SUNPOU
 48
0.5
100
AcDbLine
 10
391.2546559769441
 20
278.5787618466414
 30
0.0
 11
411.3114645719234
 21
278.5787618466414
 31
0.0
  0
INSERT
  5
AA83
330
A7BC
100
AcDbEntity
  8
SUNPOU
 48
0.5
100
AcDbBlockReference
  2
_OPEN
 10
384.2546559769441
 20
278.5787618466414
 30
0.0
 41
7.0
 42
7.0
 43
7.0
 50
180.0
  0
INSERT
  5
AA84
330
A7BC
100
AcDbEntity
  8
SUNPOU
 48
0.5
100
AcDbBlockReference
  2
_OPEN
 10
418.3114645719233
 20
278.5787618466414
 30
0.0
 41
7.0
 42
7.0
 43
7.0
  0
MTEXT
  5
AA85
330
A7BC
100
AcDbEntity
  8
SUNPOU
 48
0.5
100
AcDbMText
 10
401.2830602744337
 20
283.5787618466415
 30
0.0
 40
6.0
 41
0.0
 71
     5
 72
     5
  1
\A1;34
 73
     1
 44
1.0
1001
ACAD
1000
MTEXTBEGIN
1070
    73
1070
     1
1070
    44
1040
1.0
1070
    74
1070
     0
1000
MTEXTEND
1000
MTEXTBEGIN
1070
    73
1070
     1
1070
    44
1040
1.0
1070
    74
1070
     0
1000
MTEXTEND
1000
MTEXTBEGIN
1070
    73
1070
     1
1070
    44
1040
1.0
1070
    74
1070
     0
1000
MTEXTEND
1000
MTEXTBEGIN
1070
    73
1070
     1
1070
    44
1040
1.0
1070
    74
1070
     0
1000
MTEXTEND
1000
MTEXTBEGIN
1070
    73
1070
     1
1070
    44
1040
1.0
1070
    74
1070
     0
1000
MTEXTEND
  0
POINT
  5
AA86
330
A7BC
100
AcDbEntity
  8
DEFPOINTS
 62
     0
 48
0.5
100
AcDbPoint
 10
384.2546559769441
 20
254.1975211870199
 30
0.0
  0
POINT
  5
AA87
330
A7BC
100
AcDbEntity
  8
DEFPOINTS
 62
     0
 48
0.5
100
AcDbPoint
 10
418.3114645719233
 20
253.2320514580951
 30
0.0
  0
POINT
  5
AA88
330
A7BC
100
AcDbEntity
  8
DEFPOINTS
 62
     0
 48
0.5
100
AcDbPoint
 10
418.3114645719233
 20
278.5787618466414
 30
0.0
  0
ENDBLK
  5
A7C7
330
A7BC
100
AcDbEntity
  8
0
 48
0.5
100
AcDbBlockEnd
  0
BLOCK
  5
A7D2
330
A7C8
100
AcDbEntity
  8
0
 48
0.5
100
AcDbBlockBegin
  2
*D4
 70
     1
 10
0.0
 20
0.0
 30
0.0
  3
*D4
  1

  0
LINE
  5
AA92
330
A7C8
100
AcDbEntity
  8
SUNPOU
 48
0.5
100
AcDbLine
 10
324.9110145719181
 20
406.712891337583
 30
0.0
 11
324.9110145719181
 21
449.9216542022368
 31
0.0
  0
LINE
  5
AA93
330
A7C8
100
AcDbEntity
  8
SUNPOU
 48
0.5
100
AcDbLine
 10
418.1842092569182
 20
257.4214043864829
 30
0.0
 11
418.1842092569182
 21
449.9216542022368
 31
0.0
  0
LINE
  5
AA94
330
A7C8
100
AcDbEntity
  8
SUNPOU
 48
0.5
100
AcDbLine
 10
331.9110145719182
 20
446.9216542022368
 30
0.0
 11
411.184209256918
 21
446.9216542022368
 31
0.0
  0
INSERT
  5
AA95
330
A7C8
100
AcDbEntity
  8
SUNPOU
 48
0.5
100
AcDbBlockReference
  2
_OPEN
 10
324.9110145719181
 20
446.9216542022368
 30
0.0
 41
7.0
 42
7.0
 43
7.0
 50
180.0
  0
INSERT
  5
AA96
330
A7C8
100
AcDbEntity
  8
SUNPOU
 48
0.5
100
AcDbBlockReference
  2
_OPEN
 10
418.1842092569182
 20
446.9216542022368
 30
0.0
 41
7.0
 42
7.0
 43
7.0
  0
MTEXT
  5
AA97
330
A7C8
100
AcDbEntity
  8
SUNPOU
 48
0.5
100
AcDbMText
 10
371.5476119144181
 20
451.9216542022369
 30
0.0
 40
6.0
 41
0.0
 71
     5
 72
     5
  1
\A1;93
 73
     1
 44
1.0
1001
ACAD
1000
MTEXTBEGIN
1070
    73
1070
     1
1070
    44
1040
1.0
1070
    74
1070
     0
1000
MTEXTEND
1000
MTEXTBEGIN
1070
    73
1070
     1
1070
    44
1040
1.0
1070
    74
1070
     0
1000
MTEXTEND
1000
MTEXTBEGIN
1070
    73
1070
     1
1070
    44
1040
1.0
1070
    74
1070
     0
1000
MTEXTEND
1000
MTEXTBEGIN
1070
    73
1070
     1
1070
    44
1040
1.0
1070
    74
1070
     0
1000
MTEXTEND
1000
MTEXTBEGIN
1070
    73
1070
     1
1070
    44
1040
1.0
1070
    74
1070
     0
1000
MTEXTEND
  0
POINT
  5
AA98
330
A7C8
100
AcDbEntity
  8
DEFPOINTS
 62
     0
 48
0.5
100
AcDbPoint
 10
324.9110145719181
 20
400.7128913375829
 30
0.0
  0
POINT
  5
AA99
330
A7C8
100
AcDbEntity
  8
DEFPOINTS
 62
     0
 48
0.5
100
AcDbPoint
 10
418.1842092569182
 20
251.4214043864829
 30
0.0
  0
POINT
  5
AA9A
330
A7C8
100
AcDbEntity
  8
DEFPOINTS
 62
     0
 48
0.5
100
AcDbPoint
 10
418.1842092569182
 20
446.9216542022368
 30
0.0
  0
ENDBLK
  5
A7D3
330
A7C8
100
AcDbEntity
  8
0
 48
0.5
100
AcDbBlockEnd
  0
BLOCK
  5
A7DE
330
A7D4
100
AcDbEntity
  8
0
 48
0.5
100
AcDbBlockBegin
  2
*D5
 70
     1
 10
0.0
 20
0.0
 30
0.0
  3
*D5
  1

  0
LINE
  5
AAC8
330
A7D4
100
AcDbEntity
  8
SUNPOU
 48
0.5
100
AcDbLine
 10
252.7509933350144
 20
289.188055699148
 30
0.0
 11
252.7509933350144
 21
322.8020584828132
 31
0.0
  0
LINE
  5
AAC9
330
A7D4
100
AcDbEntity
  8
SUNPOU
 48
0.5
100
AcDbLine
 10
211.5114645718942
 20
289.2320514581434
 30
0.0
 11
211.5114645718942
 21
322.8020584828132
 31
0.0
  0
LINE
  5
AACA
330
A7D4
100
AcDbEntity
  8
SUNPOU
 48
0.5
100
AcDbLine
 10
245.7509933350145
 20
319.8020584828132
 30
0.0
 11
218.5114645718943
 21
319.8020584828132
 31
0.0
  0
INSERT
  5
AACB
330
A7D4
100
AcDbEntity
  8
SUNPOU
 48
0.5
100
AcDbBlockReference
  2
_OPEN
 10
252.7509933350144
 20
319.8020584828132
 30
0.0
 41
7.0
 42
7.0
 43
7.0
  0
INSERT
  5
AACC
330
A7D4
100
AcDbEntity
  8
SUNPOU
 48
0.5
100
AcDbBlockReference
  2
_OPEN
 10
211.5114645718942
 20
319.8020584828132
 30
0.0
 41
7.0
 42
7.0
 43
7.0
 50
180.0
  0
MTEXT
  5
AACD
330
A7D4
100
AcDbEntity
  8
SUNPOU
 48
0.5
100
AcDbMText
 10
232.1312289534544
 20
324.8020584828132
 30
0.0
 40
6.0
 41
0.0
 71
     5
 72
     5
  1
\A1;41
 73
     1
 44
1.0
1001
ACAD
1000
MTEXTBEGIN
1070
    73
1070
     1
1070
    44
1040
1.0
1070
    74
1070
     0
1000
MTEXTEND
1000
MTEXTBEGIN
1070
    73
1070
     1
1070
    44
1040
1.0
1070
    74
1070
     0
1000
MTEXTEND
1000
MTEXTBEGIN
1070
    73
1070
     1
1070
    44
1040
1.0
1070
    74
1070
     0
1000
MTEXTEND
1000
MTEXTBEGIN
1070
    73
1070
     1
1070
    44
1040
1.0
1070
    74
1070
     0
1000
MTEXTEND
1000
MTEXTBEGIN
1070
    73
1070
     1
1070
    44
1040
1.0
1070
    74
1070
     0
1000
MTEXTEND
  0
POINT
  5
AACE
330
A7D4
100
AcDbEntity
  8
DEFPOINTS
 62
     0
 48
0.5
100
AcDbPoint
 10
252.7509933350144
 20
283.188055699148
 30
0.0
  0
POINT
  5
AACF
330
A7D4
100
AcDbEntity
  8
DEFPOINTS
 62
     0
 48
0.5
100
AcDbPoint
 10
211.5114645718942
 20
283.2320514581434
 30
0.0
  0
POINT
  5
AAD0
330
A7D4
100
AcDbEntity
  8
DEFPOINTS
 62
     0
 48
0.5
100
AcDbPoint
 10
211.5114645718942
 20
319.8020584828132
 30
0.0
  0
ENDBLK
  5
A7DF
330
A7D4
100
AcDbEntity
  8
0
 48
0.5
100
AcDbBlockEnd
  0
BLOCK
  5
A7EA
330
A7E0
100
AcDbEntity
  8
0
 48
0.5
100
AcDbBlockBegin
  2
*D6
 70
     1
 10
0.0
 20
0.0
 30
0.0
  3
*D6
  1

  0
LINE
  5
AABF
330
A7E0
100
AcDbEntity
  8
SUNPOU
 48
0.5
100
AcDbLine
 10
324.9110145719181
 20
406.712891337583
 30
0.0
 11
324.9110145719181
 21
449.9216542022368
 31
0.0
  0
LINE
  5
AAC0
330
A7E0
100
AcDbEntity
  8
SUNPOU
 48
0.5
100
AcDbLine
 10
211.5114645718942
 20
289.2320514581434
 30
0.0
 11
211.5114645718942
 21
449.9216542022368
 31
0.0
  0
LINE
  5
AAC1
330
A7E0
100
AcDbEntity
  8
SUNPOU
 48
0.5
100
AcDbLine
 10
317.9110145719182
 20
446.9216542022368
 30
0.0
 11
218.5114645718943
 21
446.9216542022368
 31
0.0
  0
INSERT
  5
AAC2
330
A7E0
100
AcDbEntity
  8
SUNPOU
 48
0.5
100
AcDbBlockReference
  2
_OPEN
 10
324.9110145719181
 20
446.9216542022368
 30
0.0
 41
7.0
 42
7.0
 43
7.0
  0
INSERT
  5
AAC3
330
A7E0
100
AcDbEntity
  8
SUNPOU
 48
0.5
100
AcDbBlockReference
  2
_OPEN
 10
211.5114645718942
 20
446.9216542022368
 30
0.0
 41
7.0
 42
7.0
 43
7.0
 50
180.0
  0
MTEXT
  5
AAC4
330
A7E0
100
AcDbEntity
  8
SUNPOU
 48
0.5
100
AcDbMText
 10
268.2112395719062
 20
451.9216542022369
 30
0.0
 40
6.0
 41
0.0
 71
     5
 72
     5
  1
\A1;113
 73
     1
 44
1.0
1001
ACAD
1000
MTEXTBEGIN
1070
    73
1070
     1
1070
    44
1040
1.0
1070
    74
1070
     0
1000
MTEXTEND
1000
MTEXTBEGIN
1070
    73
1070
     1
1070
    44
1040
1.0
1070
    74
1070
     0
1000
MTEXTEND
1000
MTEXTBEGIN
1070
    73
1070
     1
1070
    44
1040
1.0
1070
    74
1070
     0
1000
MTEXTEND
1000
MTEXTBEGIN
1070
    73
1070
     1
1070
    44
1040
1.0
1070
    74
1070
     0
1000
MTEXTEND
1000
MTEXTBEGIN
1070
    73
1070
     1
1070
    44
1040
1.0
1070
    74
1070
     0
1000
MTEXTEND
  0
POINT
  5
AAC5
330
A7E0
100
AcDbEntity
  8
DEFPOINTS
 62
     0
 48
0.5
100
AcDbPoint
 10
324.9110145719181
 20
400.7128913375829
 30
0.0
  0
POINT
  5
AAC6
330
A7E0
100
AcDbEntity
  8
DEFPOINTS
 62
     0
 48
0.5
100
AcDbPoint
 10
211.5114645718942
 20
283.2320514581434
 30
0.0
  0
POINT
  5
AAC7
330
A7E0
100
AcDbEntity
  8
DEFPOINTS
 62
     0
 48
0.5
100
AcDbPoint
 10
211.5114645718942
 20
446.9216542022368
 30
0.0
  0
ENDBLK
  5
A7EB
330
A7E0
100
AcDbEntity
  8
0
 48
0.5
100
AcDbBlockEnd
  0
BLOCK
  5
A7F6
330
A7EC
100
AcDbEntity
  8
0
 48
0.5
100
AcDbBlockBegin
  2
*D7
 70
     1
 10
0.0
 20
0.0
 30
0.0
  3
*D7
  1

  0
LINE
  5
AAAD
330
A7EC
100
AcDbEntity
  8
SUNPOU
 62
     4
 48
0.5
100
AcDbLine
 10
334.4112145719182
 20
400.7128913375829
 30
0.0
 11
344.0691842824183
 21
400.7128913375829
 31
0.0
  0
LINE
  5
AAAE
330
A7EC
100
AcDbEntity
  8
SUNPOU
 62
     4
 48
0.5
100
AcDbLine
 10
328.9111144442173
 20
230.7128913375846
 30
0.0
 11
344.0691842824183
 21
230.7128913375846
 31
0.0
  0
LINE
  5
AAAF
330
A7EC
100
AcDbEntity
  8
SUNPOU
 62
     4
 48
0.5
100
AcDbLine
 10
341.0691842824183
 20
393.7128913375831
 30
0.0
 11
341.0691842824181
 21
237.7128913375845
 31
0.0
  0
INSERT
  5
AAB0
330
A7EC
100
AcDbEntity
  8
SUNPOU
 62
     4
 48
0.5
100
AcDbBlockReference
  2
_OPEN
 10
341.0691842824183
 20
400.7128913375829
 30
0.0
 41
7.0
 42
7.0
 43
7.0
 50
90.0
  0
INSERT
  5
AAB1
330
A7EC
100
AcDbEntity
  8
SUNPOU
 62
     4
 48
0.5
100
AcDbBlockReference
  2
_OPEN
 10
341.0691842824181
 20
230.7128913375846
 30
0.0
 41
7.0
 42
7.0
 43
7.0
 50
270.0
  0
MTEXT
  5
AAB2
330
A7EC
100
AcDbEntity
  8
SUNPOU
 62
     4
 48
0.5
100
AcDbMText
 10
336.0691842824181
 20
315.7128913375838
 30
0.0
 40
6.0
 41
0.0
 71
     5
 72
     5
  1
\A1;170
 11
0.0000000000000001
 21
1.0
 31
0.0
 73
     1
 44
1.0
1001
ACAD
1000
MTEXTBEGIN
1070
    73
1070
     1
1070
    44
1040
1.0
1070
    74
1070
     0
1000
MTEXTEND
1000
MTEXTBEGIN
1070
    73
1070
     1
1070
    44
1040
1.0
1070
    74
1070
     0
1000
MTEXTEND
1000
MTEXTBEGIN
1070
    73
1070
     1
1070
    44
1040
1.0
1070
    74
1070
     0
1000
MTEXTEND
1000
MTEXTBEGIN
1070
    73
1070
     1
1070
    44
1040
1.0
1070
    74
1070
     0
1000
MTEXTEND
1000
MTEXTBEGIN
1070
    73
1070
     1
1070
    44
1040
1.0
1070
    74
1070
     0
1000
MTEXTEND
  0
POINT
  5
AAB3
330
A7EC
100
AcDbEntity
  8
DEFPOINTS
 62
     0
 48
0.5
100
AcDbPoint
 10
328.4112145719181
 20
400.7128913375829
 30
0.0
  0
POINT
  5
AAB4
330
A7EC
100
AcDbEntity
  8
DEFPOINTS
 62
     0
 48
0.5
100
AcDbPoint
 10
322.9111144442173
 20
230.7128913375846
 30
0.0
  0
POINT
  5
AAB5
330
A7EC
100
AcDbEntity
  8
DEFPOINTS
 62
     0
 48
0.5
100
AcDbPoint
 10
341.0691842824181
 20
230.7128913375846
 30
0.0
  0
ENDBLK
  5
A7F7
330
A7EC
100
AcDbEntity
  8
0
 48
0.5
100
AcDbBlockEnd
  0
BLOCK
  5
A802
330
A7F8
100
AcDbEntity
  8
0
 48
0.5
100
AcDbBlockBegin
  2
*D8
 70
     1
 10
0.0
 20
0.0
 30
0.0
  3
*D8
  1

  0
LINE
  5
AAA4
330
A7F8
100
AcDbEntity
  8
SUNPOU
 48
0.5
100
AcDbLine
 10
258.7509933350144
 20
283.188055699148
 30
0.0
 11
276.8951802233124
 21
283.188055699148
 31
0.0
  0
LINE
  5
AAA5
330
A7F8
100
AcDbEntity
  8
SUNPOU
 48
0.5
100
AcDbLine
 10
266.1258627541823
 20
230.7131331276039
 30
0.0
 11
276.8951802233124
 21
230.7131331276039
 31
0.0
  0
LINE
  5
AAA6
330
A7F8
100
AcDbEntity
  8
SUNPOU
 48
0.5
100
AcDbLine
 10
273.8951802233124
 20
276.1880556991481
 30
0.0
 11
273.8951802233124
 21
237.7131331276038
 31
0.0
  0
INSERT
  5
AAA7
330
A7F8
100
AcDbEntity
  8
SUNPOU
 48
0.5
100
AcDbBlockReference
  2
_OPEN
 10
273.8951802233124
 20
283.188055699148
 30
0.0
 41
7.0
 42
7.0
 43
7.0
 50
90.0
  0
INSERT
  5
AAA8
330
A7F8
100
AcDbEntity
  8
SUNPOU
 48
0.5
100
AcDbBlockReference
  2
_OPEN
 10
273.8951802233124
 20
230.7131331276039
 30
0.0
 41
7.0
 42
7.0
 43
7.0
 50
270.0
  0
MTEXT
  5
AAA9
330
A7F8
100
AcDbEntity
  8
SUNPOU
 48
0.5
100
AcDbMText
 10
268.8951802233124
 20
256.9505944133759
 30
0.0
 40
6.0
 41
0.0
 71
     5
 72
     5
  1
\A1;52
 11
0.0000000000000001
 21
1.0
 31
0.0
 73
     1
 44
1.0
1001
ACAD
1000
MTEXTBEGIN
1070
    73
1070
     1
1070
    44
1040
1.0
1070
    74
1070
     0
1000
MTEXTEND
1000
MTEXTBEGIN
1070
    73
1070
     1
1070
    44
1040
1.0
1070
    74
1070
     0
1000
MTEXTEND
1000
MTEXTBEGIN
1070
    73
1070
     1
1070
    44
1040
1.0
1070
    74
1070
     0
1000
MTEXTEND
1000
MTEXTBEGIN
1070
    73
1070
     1
1070
    44
1040
1.0
1070
    74
1070
     0
1000
MTEXTEND
1000
MTEXTBEGIN
1070
    73
1070
     1
1070
    44
1040
1.0
1070
    74
1070
     0
1000
MTEXTEND
  0
POINT
  5
AAAA
330
A7F8
100
AcDbEntity
  8
DEFPOINTS
 62
     0
 48
0.5
100
AcDbPoint
 10
252.7509933350144
 20
283.188055699148
 30
0.0
  0
POINT
  5
AAAB
330
A7F8
100
AcDbEntity
  8
DEFPOINTS
 62
     0
 48
0.5
100
AcDbPoint
 10
260.1258627541823
 20
230.7131331276039
 30
0.0
  0
POINT
  5
AAAC
330
A7F8
100
AcDbEntity
  8
DEFPOINTS
 62
     0
 48
0.5
100
AcDbPoint
 10
273.8951802233124
 20
230.7131331276039
 30
0.0
  0
ENDBLK
  5
A803
330
A7F8
100
AcDbEntity
  8
0
 48
0.5
100
AcDbBlockEnd
  0
BLOCK
  5
A80E
330
A804
100
AcDbEntity
  8
0
 48
0.5
100
AcDbBlockBegin
  2
*D9
 70
     1
 10
0.0
 20
0.0
 30
0.0
  3
*D9
  1

  0
LINE
  5
AAD1
330
A804
100
AcDbEntity
  8
SUNPOU
 48
0.5
100
AcDbLine
 10
211.207330076695
 20
288.1833918018576
 30
0.0
 11
188.7472358016403
 21
288.1833918018576
 31
0.0
  0
LINE
  5
AAD2
330
A804
100
AcDbEntity
  8
SUNPOU
 48
0.5
100
AcDbLine
 10
209.5114645720113
 20
259.8131331276038
 30
0.0
 11
188.7472358016403
 21
259.8131331276038
 31
0.0
  0
LINE
  5
AAD3
330
A804
100
AcDbEntity
  8
SUNPOU
 48
0.5
100
AcDbLine
 10
191.7472358016405
 20
281.1833918018576
 30
0.0
 11
191.7472358016405
 21
266.8131331276037
 31
0.0
  0
INSERT
  5
AAD4
330
A804
100
AcDbEntity
  8
SUNPOU
 48
0.5
100
AcDbBlockReference
  2
_OPEN
 10
191.7472358016405
 20
288.1833918018576
 30
0.0
 41
7.0
 42
7.0
 43
7.0
 50
90.0
  0
INSERT
  5
AAD5
330
A804
100
AcDbEntity
  8
SUNPOU
 48
0.5
100
AcDbBlockReference
  2
_OPEN
 10
191.7472358016405
 20
259.8131331276038
 30
0.0
 41
7.0
 42
7.0
 43
7.0
 50
270.0
  0
MTEXT
  5
AAD6
330
A804
100
AcDbEntity
  8
SUNPOU
 48
0.5
100
AcDbMText
 10
186.7472358016403
 20
273.9982624647307
 30
0.0
 40
6.0
 41
0.0
 71
     5
 72
     5
  1
\A1;28
 11
0.0000000000000001
 21
1.0
 31
0.0
 73
     1
 44
1.0
1001
ACAD
1000
MTEXTBEGIN
1070
    73
1070
     1
1070
    44
1040
1.0
1070
    74
1070
     0
1000
MTEXTEND
1000
MTEXTBEGIN
1070
    73
1070
     1
1070
    44
1040
1.0
1070
    74
1070
     0
1000
MTEXTEND
1000
MTEXTBEGIN
1070
    73
1070
     1
1070
    44
1040
1.0
1070
    74
1070
     0
1000
MTEXTEND
1000
MTEXTBEGIN
1070
    73
1070
     1
1070
    44
1040
1.0
1070
    74
1070
     0
1000
MTEXTEND
1000
MTEXTBEGIN
1070
    73
1070
     1
1070
    44
1040
1.0
1070
    74
1070
     0
1000
MTEXTEND
  0
POINT
  5
AAD7
330
A804
100
AcDbEntity
  8
DEFPOINTS
 62
     0
 48
0.5
100
AcDbPoint
 10
217.2073300766951
 20
288.1833918018576
 30
0.0
  0
POINT
  5
AAD8
330
A804
100
AcDbEntity
  8
DEFPOINTS
 62
     0
 48
0.5
100
AcDbPoint
 10
215.5114645720114
 20
259.8131331276038
 30
0.0
  0
POINT
  5
AAD9
330
A804
100
AcDbEntity
  8
DEFPOINTS
 62
     0
 48
0.5
100
AcDbPoint
 10
191.7472358016405
 20
259.8131331276038
 30
0.0
  0
ENDBLK
  5
A80F
330
A804
100
AcDbEntity
  8
0
 48
0.5
100
AcDbBlockEnd
  0
BLOCK
  5
A81A
330
A810
100
AcDbEntity
  8
0
 48
0.5
100
AcDbBlockBegin
  2
*D10
 70
     1
 10
0.0
 20
0.0
 30
0.0
  3
*D10
  1

  0
LINE
  5
AA9B
330
A810
100
AcDbEntity
  8
SUNPOU
 48
0.5
100
AcDbLine
 10
378.2546559769441
 20
254.1975211870199
 30
0.0
 11
356.7314099405241
 21
254.1975211870199
 31
0.0
  0
LINE
  5
AA9C
330
A810
100
AcDbEntity
  8
SUNPOU
 48
0.5
100
AcDbLine
 10
369.7070377536994
 20
230.7131331276039
 30
0.0
 11
356.7314099405241
 21
230.7131331276039
 31
0.0
  0
LINE
  5
AA9D
330
A810
100
AcDbEntity
  8
SUNPOU
 48
0.5
100
AcDbLine
 10
359.7314099405241
 20
247.1975211870199
 30
0.0
 11
359.7314099405241
 21
237.7131331276038
 31
0.0
  0
INSERT
  5
AA9E
330
A810
100
AcDbEntity
  8
SUNPOU
 48
0.5
100
AcDbBlockReference
  2
_OPEN
 10
359.7314099405241
 20
254.1975211870199
 30
0.0
 41
7.0
 42
7.0
 43
7.0
 50
90.0
  0
INSERT
  5
AA9F
330
A810
100
AcDbEntity
  8
SUNPOU
 48
0.5
100
AcDbBlockReference
  2
_OPEN
 10
359.7314099405241
 20
230.7131331276039
 30
0.0
 41
7.0
 42
7.0
 43
7.0
 50
270.0
  0
MTEXT
  5
AAA0
330
A810
100
AcDbEntity
  8
SUNPOU
 48
0.5
100
AcDbMText
 10
354.7314099405241
 20
242.4553271573119
 30
0.0
 40
6.0
 41
0.0
 71
     5
 72
     5
  1
\A1;23
 11
0.0000000000000001
 21
1.0
 31
0.0
 73
     1
 44
1.0
1001
ACAD
1000
MTEXTBEGIN
1070
    73
1070
     1
1070
    44
1040
1.0
1070
    74
1070
     0
1000
MTEXTEND
1000
MTEXTBEGIN
1070
    73
1070
     1
1070
    44
1040
1.0
1070
    74
1070
     0
1000
MTEXTEND
1000
MTEXTBEGIN
1070
    73
1070
     1
1070
    44
1040
1.0
1070
    74
1070
     0
1000
MTEXTEND
1000
MTEXTBEGIN
1070
    73
1070
     1
1070
    44
1040
1.0
1070
    74
1070
     0
1000
MTEXTEND
1000
MTEXTBEGIN
1070
    73
1070
     1
1070
    44
1040
1.0
1070
    74
1070
     0
1000
MTEXTEND
  0
POINT
  5
AAA1
330
A810
100
AcDbEntity
  8
DEFPOINTS
 62
     0
 48
0.5
100
AcDbPoint
 10
384.2546559769441
 20
254.1975211870199
 30
0.0
  0
POINT
  5
AAA2
330
A810
100
AcDbEntity
  8
DEFPOINTS
 62
     0
 48
0.5
100
AcDbPoint
 10
375.7070377536994
 20
230.7131331276039
 30
0.0
  0
POINT
  5
AAA3
330
A810
100
AcDbEntity
  8
DEFPOINTS
 62
     0
 48
0.5
100
AcDbPoint
 10
359.7314099405241
 20
230.7131331276039
 30
0.0
  0
ENDBLK
  5
A81B
330
A810
100
AcDbEntity
  8
0
 48
0.5
100
AcDbBlockEnd
  0
BLOCK
  5
A826
330
A81C
100
AcDbEntity
  8
0
 48
0.5
100
AcDbBlockBegin
  2
*D11
 70
     1
 10
0.0
 20
0.0
 30
0.0
  3
*D11
  1

  0
LINE
  5
AAB6
330
A81C
100
AcDbEntity
  8
SUNPOU
 62
     4
 48
0.5
100
AcDbLine
 10
287.9108145719182
 20
406.7129913375829
 30
0.0
 11
287.9108145719182
 21
436.6114808392089
 31
0.0
  0
LINE
  5
AAB7
330
A81C
100
AcDbEntity
  8
SUNPOU
 62
     4
 48
0.5
100
AcDbLine
 10
343.8750375719066
 20
406.7126495475638
 30
0.0
 11
343.8750375719066
 21
436.6114808392089
 31
0.0
  0
LINE
  5
AAB8
330
A81C
100
AcDbEntity
  8
SUNPOU
 62
     4
 48
0.5
100
AcDbLine
 10
294.9108145719183
 20
433.6114808392089
 30
0.0
 11
336.8750375719065
 21
433.6114808392089
 31
0.0
  0
INSERT
  5
AAB9
330
A81C
100
AcDbEntity
  8
SUNPOU
 62
     4
 48
0.5
100
AcDbBlockReference
  2
_OPEN
 10
287.9108145719182
 20
433.6114808392089
 30
0.0
 41
7.0
 42
7.0
 43
7.0
 50
180.0
  0
INSERT
  5
AABA
330
A81C
100
AcDbEntity
  8
SUNPOU
 62
     4
 48
0.5
100
AcDbBlockReference
  2
_OPEN
 10
343.8750375719066
 20
433.6114808392089
 30
0.0
 41
7.0
 42
7.0
 43
7.0
  0
MTEXT
  5
AABB
330
A81C
100
AcDbEntity
  8
SUNPOU
 62
     4
 48
0.5
100
AcDbMText
 10
315.8929260719125
 20
438.611480839209
 30
0.0
 40
6.0
 41
0.0
 71
     5
 72
     5
  1
\A1;56
 73
     1
 44
1.0
1001
ACAD
1000
MTEXTBEGIN
1070
    73
1070
     1
1070
    44
1040
1.0
1070
    74
1070
     0
1000
MTEXTEND
1000
MTEXTBEGIN
1070
    73
1070
     1
1070
    44
1040
1.0
1070
    74
1070
     0
1000
MTEXTEND
1000
MTEXTBEGIN
1070
    73
1070
     1
1070
    44
1040
1.0
1070
    74
1070
     0
1000
MTEXTEND
1000
MTEXTBEGIN
1070
    73
1070
     1
1070
    44
1040
1.0
1070
    74
1070
     0
1000
MTEXTEND
1000
MTEXTBEGIN
1070
    73
1070
     1
1070
    44
1040
1.0
1070
    74
1070
     0
1000
MTEXTEND
  0
POINT
  5
AABC
330
A81C
100
AcDbEntity
  8
DEFPOINTS
 62
     0
 48
0.5
100
AcDbPoint
 10
287.9108145719182
 20
400.712991337583
 30
0.0
  0
POINT
  5
AABD
330
A81C
100
AcDbEntity
  8
DEFPOINTS
 62
     0
 48
0.5
100
AcDbPoint
 10
343.8750375719066
 20
400.7126495475637
 30
0.0
  0
POINT
  5
AABE
330
A81C
100
AcDbEntity
  8
DEFPOINTS
 62
     0
 48
0.5
100
AcDbPoint
 10
343.8750375719066
 20
433.6114808392089
 30
0.0
  0
ENDBLK
  5
A827
330
A81C
100
AcDbEntity
  8
0
 48
0.5
100
AcDbBlockEnd
  0
BLOCK
  5
A832
330
A828
100
AcDbEntity
  8
0
 48
0.5
100
AcDbBlockBegin
  2
*D12
 70
     1
 10
0.0
 20
0.0
 30
0.0
  3
*D12
  1

  0
LINE
  5
AADA
330
A828
100
AcDbEntity
  8
SUNPOU
 48
0.5
100
AcDbLine
 10
525.1987857397226
 20
219.7131331276038
 30
0.0
 11
525.1987857397226
 21
163.6583597501925
 31
0.0
  0
LINE
  5
AADB
330
A828
100
AcDbEntity
  8
SUNPOU
 48
0.5
100
AcDbLine
 10
555.1987857397228
 20
219.7131331276038
 30
0.0
 11
555.1987857397228
 21
163.6583597501925
 31
0.0
  0
LINE
  5
AADC
330
A828
100
AcDbEntity
  8
SUNPOU
 48
0.5
100
AcDbLine
 10
532.1987857397227
 20
166.6583597501925
 30
0.0
 11
548.1987857397228
 21
166.6583597501925
 31
0.0
  0
INSERT
  5
AADD
330
A828
100
AcDbEntity
  8
SUNPOU
 48
0.5
100
AcDbBlockReference
  2
_OPEN
 10
525.1987857397226
 20
166.6583597501925
 30
0.0
 41
7.0
 42
7.0
 43
7.0
 50
180.0
  0
INSERT
  5
AADE
330
A828
100
AcDbEntity
  8
SUNPOU
 48
0.5
100
AcDbBlockReference
  2
_OPEN
 10
555.1987857397228
 20
166.6583597501925
 30
0.0
 41
7.0
 42
7.0
 43
7.0
  0
MTEXT
  5
AADF
330
A828
100
AcDbEntity
  8
SUNPOU
 48
0.5
100
AcDbMText
 10
540.1987857397227
 20
171.6583597501925
 30
0.0
 40
6.0
 41
0.0
 71
     5
 72
     5
  1
\A1;30
 73
     1
 44
1.0
1001
ACAD
1000
MTEXTBEGIN
1070
    73
1070
     1
1070
    44
1040
1.0
1070
    74
1070
     0
1000
MTEXTEND
1000
MTEXTBEGIN
1070
    73
1070
     1
1070
    44
1040
1.0
1070
    74
1070
     0
1000
MTEXTEND
1000
MTEXTBEGIN
1070
    73
1070
     1
1070
    44
1040
1.0
1070
    74
1070
     0
1000
MTEXTEND
1000
MTEXTBEGIN
1070
    73
1070
     1
1070
    44
1040
1.0
1070
    74
1070
     0
1000
MTEXTEND
1000
MTEXTBEGIN
1070
    73
1070
     1
1070
    44
1040
1.0
1070
    74
1070
     0
1000
MTEXTEND
  0
POINT
  5
AAE0
330
A828
100
AcDbEntity
  8
DEFPOINTS
 62
     0
 48
0.5
100
AcDbPoint
 10
525.1987857397226
 20
225.7131331276038
 30
0.0
  0
POINT
  5
AAE1
330
A828
100
AcDbEntity
  8
DEFPOINTS
 62
     0
 48
0.5
100
AcDbPoint
 10
555.1987857397228
 20
225.7131331276038
 30
0.0
  0
POINT
  5
AAE2
330
A828
100
AcDbEntity
  8
DEFPOINTS
 62
     0
 48
0.5
100
AcDbPoint
 10
555.1987857397228
 20
166.6583597501925
 30
0.0
  0
ENDBLK
  5
A833
330
A828
100
AcDbEntity
  8
0
 48
0.5
100
AcDbBlockEnd
  0
BLOCK
  5
A83E
330
A834
100
AcDbEntity
  8
0
 48
0.5
100
AcDbBlockBegin
  2
*D13
 70
     1
 10
0.0
 20
0.0
 30
0.0
  3
*D13
  1

  0
LINE
  5
AA6E
330
A834
100
AcDbEntity
  8
SUNPOU
 48
0.5
100
AcDbLine
 10
420.3114645719183
 20
229.8131331276038
 30
0.0
 11
447.5617394445255
 21
229.8131331276038
 31
0.0
  0
LINE
  5
AA6F
330
A834
100
AcDbEntity
  8
SUNPOU
 48
0.5
100
AcDbLine
 10
412.711464571965
 20
193.0131331276037
 30
0.0
 11
447.5617394445255
 21
193.0131331276037
 31
0.0
  0
LINE
  5
AA70
330
A834
100
AcDbEntity
  8
SUNPOU
 48
0.5
100
AcDbLine
 10
444.5617394445255
 20
222.8131331276038
 30
0.0
 11
444.5617394445255
 21
200.0131331276037
 31
0.0
  0
INSERT
  5
AA71
330
A834
100
AcDbEntity
  8
SUNPOU
 48
0.5
100
AcDbBlockReference
  2
_OPEN
 10
444.5617394445255
 20
229.8131331276038
 30
0.0
 41
7.0
 42
7.0
 43
7.0
 50
90.0
  0
INSERT
  5
AA72
330
A834
100
AcDbEntity
  8
SUNPOU
 48
0.5
100
AcDbBlockReference
  2
_OPEN
 10
444.5617394445255
 20
193.0131331276037
 30
0.0
 41
7.0
 42
7.0
 43
7.0
 50
270.0
  0
MTEXT
  5
AA73
330
A834
100
AcDbEntity
  8
SUNPOU
 48
0.5
100
AcDbMText
 10
439.5617394445253
 20
211.4131331276039
 30
0.0
 40
6.0
 41
0.0
 71
     5
 72
     5
  1
\A1;37
 11
0.0000000000000001
 21
1.0
 31
0.0
 73
     1
 44
1.0
1001
ACAD
1000
MTEXTBEGIN
1070
    73
1070
     1
1070
    44
1040
1.0
1070
    74
1070
     0
1000
MTEXTEND
1000
MTEXTBEGIN
1070
    73
1070
     1
1070
    44
1040
1.0
1070
    74
1070
     0
1000
MTEXTEND
1000
MTEXTBEGIN
1070
    73
1070
     1
1070
    44
1040
1.0
1070
    74
1070
     0
1000
MTEXTEND
1000
MTEXTBEGIN
1070
    73
1070
     1
1070
    44
1040
1.0
1070
    74
1070
     0
1000
MTEXTEND
1000
MTEXTBEGIN
1070
    73
1070
     1
1070
    44
1040
1.0
1070
    74
1070
     0
1000
MTEXTEND
  0
POINT
  5
AA74
330
A834
100
AcDbEntity
  8
DEFPOINTS
 62
     0
 48
0.5
100
AcDbPoint
 10
414.3114645719183
 20
229.8131331276038
 30
0.0
  0
POINT
  5
AA75
330
A834
100
AcDbEntity
  8
DEFPOINTS
 62
     0
 48
0.5
100
AcDbPoint
 10
406.711464571965
 20
193.0131331276037
 30
0.0
  0
POINT
  5
AA76
330
A834
100
AcDbEntity
  8
DEFPOINTS
 62
     0
 48
0.5
100
AcDbPoint
 10
444.5617394445255
 20
193.0131331276037
 30
0.0
  0
ENDBLK
  5
A83F
330
A834
100
AcDbEntity
  8
0
 48
0.5
100
AcDbBlockEnd
  0
BLOCK
  5
A84A
330
A840
100
AcDbEntity
  8
0
 48
0.5
100
AcDbBlockBegin
  2
*D14
 70
     1
 10
0.0
 20
0.0
 30
0.0
  3
*D14
  1

  0
LINE
  5
AA77
330
A840
100
AcDbEntity
  8
SUNPOU
 48
0.5
100
AcDbLine
 10
419.3114645719233
 20
258.2320514581204
 30
0.0
 11
447.5617394445255
 21
258.2320514581204
 31
0.0
  0
LINE
  5
AA78
330
A840
100
AcDbEntity
  8
SUNPOU
 48
0.5
100
AcDbLine
 10
420.3114645719183
 20
229.8131331276038
 30
0.0
 11
447.5617394445255
 21
229.8131331276038
 31
0.0
  0
LINE
  5
AA79
330
A840
100
AcDbEntity
  8
SUNPOU
 48
0.5
100
AcDbLine
 10
444.5617394445255
 20
251.2320514581204
 30
0.0
 11
444.5617394445255
 21
236.8131331276038
 31
0.0
  0
INSERT
  5
AA7A
330
A840
100
AcDbEntity
  8
SUNPOU
 48
0.5
100
AcDbBlockReference
  2
_OPEN
 10
444.5617394445255
 20
258.2320514581204
 30
0.0
 41
7.0
 42
7.0
 43
7.0
 50
90.0
  0
INSERT
  5
AA7B
330
A840
100
AcDbEntity
  8
SUNPOU
 48
0.5
100
AcDbBlockReference
  2
_OPEN
 10
444.5617394445255
 20
229.8131331276038
 30
0.0
 41
7.0
 42
7.0
 43
7.0
 50
270.0
  0
MTEXT
  5
AA7C
330
A840
100
AcDbEntity
  8
SUNPOU
 48
0.5
100
AcDbMText
 10
439.5617394445253
 20
244.022592292862
 30
0.0
 40
6.0
 41
0.0
 71
     5
 72
     5
  1
\A1;28
 11
0.0000000000000001
 21
1.0
 31
0.0
 73
     1
 44
1.0
1001
ACAD
1000
MTEXTBEGIN
1070
    73
1070
     1
1070
    44
1040
1.0
1070
    74
1070
     0
1000
MTEXTEND
1000
MTEXTBEGIN
1070
    73
1070
     1
1070
    44
1040
1.0
1070
    74
1070
     0
1000
MTEXTEND
1000
MTEXTBEGIN
1070
    73
1070
     1
1070
    44
1040
1.0
1070
    74
1070
     0
1000
MTEXTEND
1000
MTEXTBEGIN
1070
    73
1070
     1
1070
    44
1040
1.0
1070
    74
1070
     0
1000
MTEXTEND
1000
MTEXTBEGIN
1070
    73
1070
     1
1070
    44
1040
1.0
1070
    74
1070
     0
1000
MTEXTEND
  0
POINT
  5
AA7D
330
A840
100
AcDbEntity
  8
DEFPOINTS
 62
     0
 48
0.5
100
AcDbPoint
 10
413.3114645719232
 20
258.2320514581204
 30
0.0
  0
POINT
  5
AA7E
330
A840
100
AcDbEntity
  8
DEFPOINTS
 62
     0
 48
0.5
100
AcDbPoint
 10
414.3114645719183
 20
229.8131331276038
 30
0.0
  0
POINT
  5
AA7F
330
A840
100
AcDbEntity
  8
DEFPOINTS
 62
     0
 48
0.5
100
AcDbPoint
 10
444.5617394445255
 20
229.8131331276038
 30
0.0
  0
ENDBLK
  5
A84B
330
A840
100
AcDbEntity
  8
0
 48
0.5
100
AcDbBlockEnd
  0
BLOCK
  5
A856
330
A84C
100
AcDbEntity
  8
0
 48
0.5
100
AcDbBlockBegin
  2
*D15
 70
     1
 10
0.0
 20
0.0
 30
0.0
  3
*D15
  1

  0
LINE
  5
AAE3
330
A84C
100
AcDbEntity
  8
SUNPOU
 62
     4
 48
0.5
100
AcDbLine
 10
525.6988357397029
 20
407.5137110403038
 30
0.0
 11
525.6988357397029
 21
432.2130160403037
 31
0.0
  0
LINE
  5
AAE4
330
A84C
100
AcDbEntity
  8
SUNPOU
 62
     4
 48
0.5
100
AcDbLine
 10
554.698835739703
 20
407.5137110403038
 30
0.0
 11
554.698835739703
 21
432.2130160403037
 31
0.0
  0
LINE
  5
AAE5
330
A84C
100
AcDbEntity
  8
SUNPOU
 62
     4
 48
0.5
100
AcDbLine
 10
532.6988357397028
 20
429.2130160403037
 30
0.0
 11
547.6988357397031
 21
429.2130160403037
 31
0.0
  0
INSERT
  5
AAE6
330
A84C
100
AcDbEntity
  8
SUNPOU
 62
     4
 48
0.5
100
AcDbBlockReference
  2
_OPEN
 10
525.6988357397029
 20
429.2130160403037
 30
0.0
 41
7.0
 42
7.0
 43
7.0
 50
180.0
  0
INSERT
  5
AAE7
330
A84C
100
AcDbEntity
  8
SUNPOU
 62
     4
 48
0.5
100
AcDbBlockReference
  2
_OPEN
 10
554.698835739703
 20
429.2130160403037
 30
0.0
 41
7.0
 42
7.0
 43
7.0
  0
MTEXT
  5
AAE8
330
A84C
100
AcDbEntity
  8
SUNPOU
 62
     4
 48
0.5
100
AcDbMText
 10
540.1988357397028
 20
434.2130160403037
 30
0.0
 40
6.0
 41
0.0
 71
     5
 72
     5
  1
\A1;29
 73
     1
 44
1.0
1001
ACAD
1000
MTEXTBEGIN
1070
    73
1070
     1
1070
    44
1040
1.0
1070
    74
1070
     0
1000
MTEXTEND
1000
MTEXTBEGIN
1070
    73
1070
     1
1070
    44
1040
1.0
1070
    74
1070
     0
1000
MTEXTEND
1000
MTEXTBEGIN
1070
    73
1070
     1
1070
    44
1040
1.0
1070
    74
1070
     0
1000
MTEXTEND
1000
MTEXTBEGIN
1070
    73
1070
     1
1070
    44
1040
1.0
1070
    74
1070
     0
1000
MTEXTEND
1000
MTEXTBEGIN
1070
    73
1070
     1
1070
    44
1040
1.0
1070
    74
1070
     0
1000
MTEXTEND
  0
POINT
  5
AAE9
330
A84C
100
AcDbEntity
  8
DEFPOINTS
 62
     0
 48
0.5
100
AcDbPoint
 10
525.6988357397029
 20
401.5137110403038
 30
0.0
  0
POINT
  5
AAEA
330
A84C
100
AcDbEntity
  8
DEFPOINTS
 62
     0
 48
0.5
100
AcDbPoint
 10
554.698835739703
 20
401.5137110403038
 30
0.0
  0
POINT
  5
AAEB
330
A84C
100
AcDbEntity
  8
DEFPOINTS
 62
     0
 48
0.5
100
AcDbPoint
 10
554.698835739703
 20
429.2130160403037
 30
0.0
  0
ENDBLK
  5
A857
330
A84C
100
AcDbEntity
  8
0
 48
0.5
100
AcDbBlockEnd
  0
BLOCK
  5
A864
330
A858
100
AcDbEntity
  8
0
 48
0.5
100
AcDbBlockBegin
  2
*D16
 70
     1
 10
0.0
 20
0.0
 30
0.0
  3
*D16
  1

  0
LINE
  5
AAF4
330
A858
100
AcDbEntity
  8
SUNPOU
 62
     4
 48
0.5
100
AcDbLine
 10
519.6988357397028
 20
401.5137110403038
 30
0.0
 11
500.9222674472728
 21
401.5137110403038
 31
0.0
  0
LINE
  5
AAF5
330
A858
100
AcDbEntity
  8
SUNPOU
 62
     4
 48
0.5
100
AcDbLine
 10
514.4289357397028
 20
386.5137110403038
 30
0.0
 11
500.9222674472728
 21
386.5137110403038
 31
0.0
  0
LINE
  5
AAF6
330
A858
100
AcDbEntity
  8
SUNPOU
 62
     4
 48
0.5
100
AcDbLine
 10
503.9222674472727
 20
408.5137110403038
 30
0.0
 11
503.9222674472727
 21
415.5137110403036
 31
0.0
  0
LINE
  5
AAF7
330
A858
100
AcDbEntity
  8
SUNPOU
 62
     4
 48
0.5
100
AcDbLine
 10
503.9222674472727
 20
379.5137110403038
 30
0.0
 11
503.9222674472727
 21
372.5137110403036
 31
0.0
  0
LINE
  5
AAF8
330
A858
100
AcDbEntity
  8
SUNPOU
 62
     4
 48
0.5
100
AcDbLine
 10
503.9222674472727
 20
401.5137110403038
 30
0.0
 11
503.9222674472727
 21
386.5137110403038
 31
0.0
  0
INSERT
  5
AAF9
330
A858
100
AcDbEntity
  8
SUNPOU
 62
     4
 48
0.5
100
AcDbBlockReference
  2
_OPEN
 10
503.9222674472727
 20
401.5137110403038
 30
0.0
 41
7.0
 42
7.0
 43
7.0
 50
270.0
  0
INSERT
  5
AAFA
330
A858
100
AcDbEntity
  8
SUNPOU
 62
     4
 48
0.5
100
AcDbBlockReference
  2
_OPEN
 10
503.9222674472727
 20
386.5137110403038
 30
0.0
 41
7.0
 42
7.0
 43
7.0
 50
90.0
  0
MTEXT
  5
AAFB
330
A858
100
AcDbEntity
  8
SUNPOU
 62
     4
 48
0.5
100
AcDbMText
 10
498.9222674472727
 20
394.0137110403038
 30
0.0
 40
6.0
 41
0.0
 71
     5
 72
     5
  1
\A1;15
 11
0.0000000000000001
 21
1.0
 31
0.0
 73
     1
 44
1.0
1001
ACAD
1000
MTEXTBEGIN
1070
    73
1070
     1
1070
    44
1040
1.0
1070
    74
1070
     0
1000
MTEXTEND
1000
MTEXTBEGIN
1070
    73
1070
     1
1070
    44
1040
1.0
1070
    74
1070
     0
1000
MTEXTEND
1000
MTEXTBEGIN
1070
    73
1070
     1
1070
    44
1040
1.0
1070
    74
1070
     0
1000
MTEXTEND
1000
MTEXTBEGIN
1070
    73
1070
     1
1070
    44
1040
1.0
1070
    74
1070
     0
1000
MTEXTEND
1000
MTEXTBEGIN
1070
    73
1070
     1
1070
    44
1040
1.0
1070
    74
1070
     0
1000
MTEXTEND
  0
POINT
  5
AAFC
330
A858
100
AcDbEntity
  8
DEFPOINTS
 62
     0
 48
0.5
100
AcDbPoint
 10
525.6988357397029
 20
401.5137110403038
 30
0.0
  0
POINT
  5
AAFD
330
A858
100
AcDbEntity
  8
DEFPOINTS
 62
     0
 48
0.5
100
AcDbPoint
 10
520.4289357397028
 20
386.5137110403038
 30
0.0
  0
POINT
  5
AAFE
330
A858
100
AcDbEntity
  8
DEFPOINTS
 62
     0
 48
0.5
100
AcDbPoint
 10
503.9222674472727
 20
386.5137110403038
 30
0.0
  0
ENDBLK
  5
A865
330
A858
100
AcDbEntity
  8
0
 48
0.5
100
AcDbBlockEnd
  0
BLOCK
  5
A86F
330
A866
100
AcDbEntity
  8
0
 48
0.5
100
AcDbBlockBegin
  2
*D17
 70
     1
 10
0.0
 20
0.0
 30
0.0
  3
*D17
  1

  0
LINE
  5
AFF5
330
A866
100
AcDbEntity
  8
SUNPOU
 62
     4
 48
0.5
100
AcDbLine
 10
514.4289357397028
 20
341.5137110403037
 30
0.0
 11
500.8802857397029
 21
341.5137110403037
 31
0.0
  0
LINE
  5
AFF6
330
A866
100
AcDbEntity
  8
SUNPOU
 62
     4
 48
0.5
100
AcDbLine
 10
503.8802857397029
 20
379.5137110403038
 30
0.0
 11
503.8802857397029
 21
348.5137110403036
 31
0.0
  0
INSERT
  5
AFF7
330
A866
100
AcDbEntity
  8
SUNPOU
 62
     4
 48
0.5
100
AcDbBlockReference
  2
_OPEN
 10
503.8802857397029
 20
386.5137110403038
 30
0.0
 41
7.0
 42
7.0
 43
7.0
 50
90.0
  0
INSERT
  5
AFF8
330
A866
100
AcDbEntity
  8
SUNPOU
 62
     4
 48
0.5
100
AcDbBlockReference
  2
_OPEN
 10
503.8802857397029
 20
341.5137110403037
 30
0.0
 41
7.0
 42
7.0
 43
7.0
 50
270.0
  0
MTEXT
  5
AFF9
330
A866
100
AcDbEntity
  8
SUNPOU
 62
     4
 48
0.5
100
AcDbMText
 10
498.8802857397028
 20
364.0137110403038
 30
0.0
 40
6.0
 41
0.0
 71
     5
 72
     5
  1
\A1;45
 11
0.0000000000000001
 21
1.0
 31
0.0
 73
     1
 44
1.0
  0
POINT
  5
AFFA
330
A866
100
AcDbEntity
  8
DEFPOINTS
 62
     0
 48
0.5
100
AcDbPoint
 10
520.4289357397028
 20
386.5137110403038
 30
0.0
  0
POINT
  5
AFFB
330
A866
100
AcDbEntity
  8
DEFPOINTS
 62
     0
 48
0.5
100
AcDbPoint
 10
520.4289357397028
 20
341.5137110403037
 30
0.0
  0
POINT
  5
AFFC
330
A866
100
AcDbEntity
  8
DEFPOINTS
 62
     0
 48
0.5
100
AcDbPoint
 10
503.8802857397029
 20
341.5137110403037
 30
0.0
  0
ENDBLK
  5
A870
330
A866
100
AcDbEntity
  8
0
 48
0.5
100
AcDbBlockEnd
  0
BLOCK
  5
A87A
330
A871
100
AcDbEntity
  8
0
 48
0.5
100
AcDbBlockBegin
  2
*D18
 70
     1
 10
0.0
 20
0.0
 30
0.0
  3
*D18
  1

  0
LINE
  5
AFFD
330
A871
100
AcDbEntity
  8
SUNPOU
 62
     4
 48
0.5
100
AcDbLine
 10
514.4289357397028
 20
311.5137110403038
 30
0.0
 11
500.8802857397029
 21
311.5137110403038
 31
0.0
  0
LINE
  5
AFFE
330
A871
100
AcDbEntity
  8
SUNPOU
 62
     4
 48
0.5
100
AcDbLine
 10
503.8802857397029
 20
334.5137110403037
 30
0.0
 11
503.8802857397029
 21
318.5137110403037
 31
0.0
  0
INSERT
  5
AFFF
330
A871
100
AcDbEntity
  8
SUNPOU
 62
     4
 48
0.5
100
AcDbBlockReference
  2
_OPEN
 10
503.8802857397029
 20
341.5137110403037
 30
0.0
 41
7.0
 42
7.0
 43
7.0
 50
90.0
  0
INSERT
  5
B000
330
A871
100
AcDbEntity
  8
SUNPOU
 62
     4
 48
0.5
100
AcDbBlockReference
  2
_OPEN
 10
503.8802857397029
 20
311.5137110403038
 30
0.0
 41
7.0
 42
7.0
 43
7.0
 50
270.0
  0
MTEXT
  5
B001
330
A871
100
AcDbEntity
  8
SUNPOU
 62
     4
 48
0.5
100
AcDbMText
 10
498.8802857397028
 20
326.5137110403038
 30
0.0
 40
6.0
 41
0.0
 71
     5
 72
     5
  1
\A1;30
 11
0.0000000000000001
 21
1.0
 31
0.0
 73
     1
 44
1.0
  0
POINT
  5
B002
330
A871
100
AcDbEntity
  8
DEFPOINTS
 62
     0
 48
0.5
100
AcDbPoint
 10
520.4289357397028
 20
341.5137110403037
 30
0.0
  0
POINT
  5
B003
330
A871
100
AcDbEntity
  8
DEFPOINTS
 62
     0
 48
0.5
100
AcDbPoint
 10
520.4289357397028
 20
311.5137110403038
 30
0.0
  0
POINT
  5
B004
330
A871
100
AcDbEntity
  8
DEFPOINTS
 62
     0
 48
0.5
100
AcDbPoint
 10
503.8802857397029
 20
311.5137110403038
 30
0.0
  0
ENDBLK
  5
A87B
330
A871
100
AcDbEntity
  8
0
 48
0.5
100
AcDbBlockEnd
  0
BLOCK
  5
A886
330
A87C
100
AcDbEntity
  8
0
 48
0.5
100
AcDbBlockBegin
  2
*D19
 70
     1
 10
0.0
 20
0.0
 30
0.0
  3
*D19
  1

  0
LINE
  5
AB07
330
A87C
100
AcDbEntity
  8
SUNPOU
 48
0.5
100
AcDbLine
 10
422.5114645719184
 20
537.1889611057679
 30
0.0
 11
447.5617394445255
 21
537.1889611057679
 31
0.0
  0
LINE
  5
AB08
330
A87C
100
AcDbEntity
  8
SUNPOU
 48
0.5
100
AcDbLine
 10
422.5114645719184
 20
507.1889611057679
 30
0.0
 11
447.5617394445255
 21
507.1889611057679
 31
0.0
  0
LINE
  5
AB09
330
A87C
100
AcDbEntity
  8
SUNPOU
 48
0.5
100
AcDbLine
 10
444.5617394445255
 20
530.1889611057679
 30
0.0
 11
444.5617394445255
 21
514.1889611057679
 31
0.0
  0
INSERT
  5
AB0A
330
A87C
100
AcDbEntity
  8
SUNPOU
 48
0.5
100
AcDbBlockReference
  2
_OPEN
 10
444.5617394445255
 20
537.1889611057679
 30
0.0
 41
7.0
 42
7.0
 43
7.0
 50
90.0
  0
INSERT
  5
AB0B
330
A87C
100
AcDbEntity
  8
SUNPOU
 48
0.5
100
AcDbBlockReference
  2
_OPEN
 10
444.5617394445255
 20
507.1889611057679
 30
0.0
 41
7.0
 42
7.0
 43
7.0
 50
270.0
  0
MTEXT
  5
AB0C
330
A87C
100
AcDbEntity
  8
SUNPOU
 48
0.5
100
AcDbMText
 10
439.5617394445253
 20
522.1889611057681
 30
0.0
 40
6.0
 41
0.0
 71
     5
 72
     5
  1
\A1;30
 11
0.0000000000000001
 21
1.0
 31
0.0
 73
     1
 44
1.0
1001
ACAD
1000
MTEXTBEGIN
1070
    73
1070
     1
1070
    44
1040
1.0
1070
    74
1070
     0
1000
MTEXTEND
1000
MTEXTBEGIN
1070
    73
1070
     1
1070
    44
1040
1.0
1070
    74
1070
     0
1000
MTEXTEND
1000
MTEXTBEGIN
1070
    73
1070
     1
1070
    44
1040
1.0
1070
    74
1070
     0
1000
MTEXTEND
1000
MTEXTBEGIN
1070
    73
1070
     1
1070
    44
1040
1.0
1070
    74
1070
     0
1000
MTEXTEND
1000
MTEXTBEGIN
1070
    73
1070
     1
1070
    44
1040
1.0
1070
    74
1070
     0
1000
MTEXTEND
  0
POINT
  5
AB0D
330
A87C
100
AcDbEntity
  8
DEFPOINTS
 62
     0
 48
0.5
100
AcDbPoint
 10
416.5114645719183
 20
537.1889611057679
 30
0.0
  0
POINT
  5
AB0E
330
A87C
100
AcDbEntity
  8
DEFPOINTS
 62
     0
 48
0.5
100
AcDbPoint
 10
416.5114645719183
 20
507.1889611057679
 30
0.0
  0
POINT
  5
AB0F
330
A87C
100
AcDbEntity
  8
DEFPOINTS
 62
     0
 48
0.5
100
AcDbPoint
 10
444.5617394445255
 20
507.1889611057679
 30
0.0
  0
ENDBLK
  5
A887
330
A87C
100
AcDbEntity
  8
0
 48
0.5
100
AcDbBlockEnd
  0
ENDSEC
  0
SECTION
  2
ENTITIES
  0
LWPOLYLINE
  5
6C0
330
1A
100
AcDbEntity
  8
ZUWAKU
100
AcDbPolyline
 90
        4
 70
     1
 43
0.0
 10
10.85047808566058
 20
564.5825862828226
 10
10.85047808566058
 20
14.58258628282271
 10
806.8504780856606
 20
14.58258628282271
 10
806.8504780856606
 20
564.5825862828226
  0
LWPOLYLINE
  5
6C1
330
1A
100
AcDbEntity
  8
ZUWAKU
100
AcDbPolyline
 90
        4
 70
     1
 43
0.0
 10
10.45047808566073
 20
564.9825862828227
 10
10.45047808566073
 20
14.18258628282274
 10
807.2504780856606
 20
14.18258628282272
 10
807.2504780856606
 20
564.9825862828227
  0
LWPOLYLINE
  5
6C2
330
1A
100
AcDbEntity
  8
ZUWAKU
100
AcDbPolyline
 90
        4
 70
     1
 43
0.0
 10
10.05047808566086
 20
565.3825862828226
 10
10.05047808566086
 20
13.78258628282265
 10
807.6504780856605
 20
13.78258628282271
 10
807.6504780856605
 20
565.3825862828226
  0
LWPOLYLINE
  5
6C3
330
1A
100
AcDbEntity
  8
ZUWAKU
100
AcDbPolyline
 90
        4
 70
     1
 43
0.0
 10
10.65047808566077
 20
564.7825862828227
 10
10.65047808566077
 20
14.38258628282267
 10
807.0504780856609
 20
14.38258628282271
 10
807.0504780856609
 20
564.7825862828227
  0
LWPOLYLINE
  5
6C4
330
1A
100
AcDbEntity
  8
ZUWAKU
100
AcDbPolyline
 90
        4
 70
     1
 43
0.0
 10
10.25047808566067
 20
565.1825862828227
 10
10.25047808566067
 20
13.98258628282269
 10
807.4504780856605
 20
13.98258628282271
 10
807.450478085661
 20
565.1825862828227
  0
LINE
  5
6C5
330
1A
100
AcDbEntity
  8
ZUWAKU
100
AcDbLine
 10
10.05047808566086
 20
43.78258628282265
 30
0.0
 11
807.4504780856605
 21
43.78258628282265
 31
0.0
  0
LINE
  5
6C6
330
1A
100
AcDbEntity
  8
ZUWAKU
100
AcDbLine
 10
10.05047808566086
 20
43.98258628282264
 30
0.0
 11
807.4504780856605
 21
43.98258628282264
 31
0.0
  0
LINE
  5
6C7
330
1A
100
AcDbEntity
  8
ZUWAKU
100
AcDbLine
 10
10.05047808566086
 20
44.18258628282266
 30
0.0
 11
807.4504780856605
 21
44.18258628282266
 31
0.0
  0
LINE
  5
6C8
330
1A
100
AcDbEntity
  8
ZUWAKU
100
AcDbLine
 10
10.05047808566086
 20
44.38258628282265
 30
0.0
 11
807.4504780856605
 21
44.38258628282265
 31
0.0
  0
LINE
  5
6C9
330
1A
100
AcDbEntity
  8
ZUWAKU
100
AcDbLine
 10
10.05047808566086
 20
44.58258628282265
 30
0.0
 11
807.4504780856605
 21
44.58258628282265
 31
0.0
  0
LINE
  5
6CA
330
1A
100
AcDbEntity
  8
ZUWAKU
100
AcDbLine
 10
218.6970793757286
 20
29.18258628282268
 30
0.0
 11
457.4748420566519
 21
29.18258628282268
 31
0.0
  0
LINE
  5
6CB
330
1A
100
AcDbEntity
  8
ZUWAKU
100
AcDbLine
 10
218.6970793757286
 20
29.38258628282268
 30
0.0
 11
457.4748420566519
 21
29.38258628282268
 31
0.0
  0
LINE
  5
6CC
330
1A
100
AcDbEntity
  8
ZUWAKU
100
AcDbLine
 10
218.6970793757286
 20
28.98258628282269
 30
0.0
 11
457.4748420566519
 21
28.98258628282268
 31
0.0
  0
LINE
  5
6D2
330
1A
100
AcDbEntity
  8
ZUWAKU
100
AcDbLine
 10
22.57284175945823
 20
29.44753577648382
 30
0.0
 11
25.48263973410303
 21
26.53773780183917
 31
0.0
  0
LINE
  5
6D3
330
1A
100
AcDbEntity
  8
ZUWAKU
100
AcDbLine
 10
27.46253872142551
 20
28.51763678916148
 30
0.0
 11
24.55274074678072
 21
31.42743476380614
 31
0.0
  0
ARC
  5
6D4
330
1A
100
AcDbEntity
  8
ZUWAKU
100
AcDbCircle
 10
24.66769024044197
 20
33.70758628282264
 30
0.0
 40
0.525
100
AcDbArc
 50
90.0
 51
180.0
  0
LINE
  5
6D5
330
1A
100
AcDbEntity
  8
ZUWAKU
100
AcDbLine
 10
24.14269024044187
 20
37.03258628282265
 30
0.0
 11
27.64269024044188
 21
37.03258628282265
 31
0.0
  0
LINE
  5
6D6
330
1A
100
AcDbEntity
  8
ZUWAKU
100
AcDbLine
 10
22.39269024044188
 20
23.73258628282264
 30
0.0
 11
25.36769024044179
 21
23.73258628282264
 31
0.0
  0
LINE
  5
6D7
330
1A
100
AcDbEntity
  8
ZUWAKU
100
AcDbLine
 10
22.39269024044188
 20
20.93258628282265
 30
0.0
 11
25.89269024044188
 21
20.93258628282265
 31
0.0
  0
INSERT
  5
6D8
330
1A
100
AcDbEntity
  8
ZUWAKU
  6
Continuous
100
AcDbBlockReference
  2
*X1
 10
12.342212154781
 20
7.675000000000003
 30
0.0
1001
ACAD
1000
HATCH
1002
{
1070
    19
1000
ANSI37
1040
0.2
1040
0.0
1000
R14_HATCH_DATA
1000
4E4
1011
13.34221215478101
1021
7.675000000000003
1031
0.0
1011
12.342212154781
1021
8.675000000000004
1031
0.0
1011
12.342212154781
1021
7.675000000000003
1031
1.0
1040
0.0
1010
0.0
1020
0.0
1030
1.0
1000
ANSI37
1070
     0
1070
     0
1071
        8
1071
        7
1070
     1
1070
     1
1071
       24
1040
12.2105285919996
1040
23.75243476380621
1040
-0.1989123673796348
1040
11.80047808566087
1040
24.74238425746728
1040
0.0
1040
11.80047808566087
1040
26.03258628282264
1040
-0.4142135623730912
1040
12.32547808566083
1040
26.55758628282264
1040
0.0
1040
15.30047808566075
1040
26.55758628282264
1040
0.4142135623731546
1040
15.82547808566084
1040
27.08258628282264
1040
0.0
1040
15.82547808566084
1040
28.83258628282264
1040
0.4142135623731586
1040
15.30047808566075
1040
29.35758628282265
1040
0.0
1040
11.80047808566087
1040
29.35758628282265
1040
0.4142135623730928
1040
9.000478085660914
1040
26.55758628282267
1040
0.0
1040
9.000478085660914
1040
24.7423842574674
1040
0.1989123673796619
1040
10.23062960467733
1040
21.7725357764838
1040
0.0
1040
13.14042757932202
1040
18.86273780183914
1040
-0.1989123673796613
1040
13.55047808566087
1040
17.87278830817794
1040
0.0
1040
13.55047808566087
1040
16.58258628282264
1040
-0.4142135623730911
1040
13.02547808566089
1040
16.05758628282264
1040
0.0
1040
10.05047808566098
1040
16.05758628282264
1040
0.4142135623731526
1040
9.525478085660893
1040
15.53258628282264
1040
0.0
1040
9.525478085660893
1040
13.78258628282263
1040
0.4142135623731526
1040
10.05047808566098
1040
13.25758628282264
1040
0.0
1040
13.55047808566087
1040
13.25758628282264
1040
0.4142135623731045
1040
16.35047808566094
1040
16.05758628282262
1040
0.0
1040
16.35047808566094
1040
17.87278830817789
1040
0.1989123673796604
1040
15.12032656664439
1040
20.84263678916144
1040
0.0
1071
        0
1071
        7
1070
     1
1070
     1
1071
       16
1040
21.25047808566091
1040
25.15758628282264
1040
-0.4142135623730935
1040
22.65047808566089
1040
26.55758628282264
1040
0.0
1040
24.57547808566085
1040
26.55758628282264
1040
0.4142135623731546
1040
25.10047808566094
1040
27.08258628282264
1040
0.0
1040
25.10047808566094
1040
28.83258628282264
1040
0.4142135623730951
1040
24.57547808566096
1040
29.35758628282265
1040
0.0
1040
22.65047808566078
1040
29.35758628282261
1040
0.4142135623730893
1040
18.45047808566084
1040
25.15758628282258
1040
0.0
1040
18.45047808566084
1040
17.45758628282267
1040
0.4142135623730969
1040
22.65047808566089
1040
13.25758628282264
1040
0.0
1040
24.57547808566085
1040
13.25758628282264
1040
0.4142135623731526
1040
25.10047808566094
1040
13.78258628282263
1040
0.0
1040
25.10047808566094
1040
15.53258628282264
1040
0.4142135623730891
1040
24.57547808566096
1040
16.05758628282264
1040
0.0
1040
22.65047808566089
1040
16.05758628282264
1040
-0.4142135623730928
1040
21.25047808566091
1040
17.45758628282263
1040
0.0
1071
        0
1071
        7
1070
     1
1070
     1
1071
        2
1040
21.95047808566084
1040
21.30758628282265
1040
1.0
1040
25.45047808566085
1040
21.30758628282265
1040
1.0
1071
        0
1071
        7
1070
     1
1070
     1
1071
       26
1040
35.02312456783885
1040
25.31263347638607
1040
0.0
1040
36.08476420097668
1040
28.67449231465566
1040
0.5069206636600134
1040
35.58413330178132
1040
29.35758628282265
1040
0.0
1040
33.88524392217208
1040
29.35758628282265
1040
0.3272098845218764
1040
33.38461302297673
1040
28.99068025098962
1040
0.0
1040
31.51634314834495
1040
23.07449231465573
1040
-0.3272098845219541
1040
31.01571224914948
1040
22.70758628282264
1040
0.0
1040
30.87547808566103
1040
22.70758628282264
1040
-0.4142135623731526
1040
30.35047808566094
1040
23.23258628282262
1040
0.0
1040
30.35047808566094
1040
28.83258628282264
1040
0.4142135623730951
1040
29.82547808566096
1040
29.35758628282265
1040
0.0
1040
28.07547808566084
1040
29.35758628282265
1040
0.4142135623730871
1040
27.55047808566087
1040
28.83258628282266
1040
0.0
1040
27.55047808566087
1040
13.78258628282263
1040
0.4142135623730891
1040
28.07547808566084
1040
13.25758628282264
1040
0.0
1040
29.82547808566085
1040
13.25758628282264
1040
0.4142135623731526
1040
30.35047808566094
1040
13.78258628282263
1040
0.0
1040
30.35047808566094
1040
19.38258628282265
1040
-0.4142135623731526
1040
30.87547808566103
1040
19.90758628282264
1040
0.0
1040
31.0157122491496
1040
19.90758628282264
1040
-0.3272098845218915
1040
31.51634314834495
1040
19.54068025098957
1040
0.0
1040
33.38461302297673
1040
13.62449231465572
1040
0.3272098845218902
1040
33.88524392217208
1040
13.25758628282264
1040
0.0
1040
35.58413330178132
1040
13.25758628282264
1040
0.5069206636600336
1040
36.08476420097668
1040
13.94068025098964
1040
0.0
1040
33.75837282250301
1040
21.30758628282279
1040
0.0
1071
        0
1071
        7
1070
     1
1070
     1
1071
        8
1040
41.20047808566083
1040
28.83258628282266
1040
0.4142135623731546
1040
40.67547808566074
1040
29.35758628282265
1040
0.0
1040
38.92547808566098
1040
29.35758628282265
1040
0.4142135623731507
1040
38.40047808566089
1040
28.83258628282266
1040
0.0
1040
38.40047808566089
1040
13.78258628282263
1040
0.4142135623731526
1040
38.92547808566098
1040
13.25758628282264
1040
0.0
1040
40.67547808566074
1040
13.25758628282264
1040
0.4142135623731526
1040
41.20047808566083
1040
13.78258628282263
1040
0.0
1071
        0
1071
        7
1070
     1
1070
     1
1071
       24
1040
46.10047808566092
1040
26.03258628282264
1040
-0.4142135623731546
1040
46.62547808566102
1040
26.55758628282264
1040
0.0
1040
49.60047808566093
1040
26.55758628282264
1040
0.4142135623730911
1040
50.12547808566091
1040
27.08258628282264
1040
0.0
1040
50.12547808566091
1040
28.83258628282264
1040
0.4142135623730952
1040
49.60047808566093
1040
29.35758628282265
1040
0.0
1040
46.10047808566092
1040
29.35758628282265
1040
0.4142135623731048
1040
43.30047808566087
1040
26.55758628282267
1040
0.0
1040
43.30047808566087
1040
24.7423842574674
1040
0.1989123673796613
1040
44.5306296046774
1040
21.77253577648385
1040
0.0
1040
47.44042757932208
1040
18.86273780183918
1040
-0.1989123673796402
1040
47.85047808566093
1040
17.8727883081781
1040
0.0
1040
47.85047808566093
1040
16.58258628282264
1040
-0.4142135623730911
1040
47.32547808566096
1040
16.05758628282264
1040
0.0
1040
44.35047808566093
1040
16.05758628282264
1040
0.4142135623731526
1040
43.82547808566084
1040
15.53258628282264
1040
0.0
1040
43.82547808566084
1040
13.78258628282263
1040
0.4142135623730891
1040
44.35047808566081
1040
13.25758628282264
1040
0.0
1040
47.85047808566093
1040
13.25758628282264
1040
0.4142135623730925
1040
50.65047808566088
1040
16.05758628282262
1040
0.0
1040
50.65047808566088
1040
17.87278830817789
1040
0.1989123673796675
1040
49.42032656664435
1040
20.84263678916155
1040
0.0
1040
46.51052859199977
1040
23.75243476380607
1040
-0.1989123673796652
1040
46.10047808566092
1040
24.74238425746723
1040
0.0
1071
        0
1071
        7
1070
     1
1070
     1
1071
       16
1040
55.55047808566087
1040
28.83258628282264
1040
0.414213562373103
1040
55.02547808566088
1040
29.35758628282265
1040
0.0
1040
53.27547808566088
1040
29.35758628282265
1040
0.4142135623730871
1040
52.75047808566093
1040
28.83258628282266
1040
0.0
1040
52.75047808566093
1040
16.05758628282262
1040
0.4142135623730927
1040
55.55047808566087
1040
13.25758628282264
1040
0.0
1040
59.05047808566087
1040
13.25758628282264
1040
0.4142135623731045
1040
61.85047808566093
1040
16.05758628282262
1040
0.0
1040
61.85047808566093
1040
28.83258628282264
1040
0.4142135623730951
1040
61.32547808566096
1040
29.35758628282265
1040
0.0
1040
59.57547808566085
1040
29.35758628282265
1040
0.4142135623730871
1040
59.05047808566087
1040
28.83258628282266
1040
0.0
1040
59.05047808566087
1040
17.10758628282261
1040
-0.4142135623730879
1040
58.00047808566091
1040
16.05758628282264
1040
0.0
1040
56.60047808566093
1040
16.05758628282264
1040
-0.4142135623731197
1040
55.55047808566087
1040
17.10758628282261
1040
0.0
1071
        0
1071
        7
1070
     1
1070
     1
1071
        8
1040
66.7504780856609
1040
28.83258628282266
1040
0.4142135623730871
1040
66.22547808566094
1040
29.35758628282265
1040
0.0
1040
64.47547808566094
1040
29.35758628282265
1040
0.4142135623731507
1040
63.95047808566085
1040
28.83258628282266
1040
0.0
1040
63.95047808566085
1040
13.78258628282263
1040
0.4142135623730891
1040
64.47547808566082
1040
13.25758628282264
1040
0.0
1040
66.22547808566094
1040
13.25758628282264
1040
0.4142135623730891
1040
66.7504780856609
1040
13.78258628282263
1040
0.0
1071
        0
1070
     0
1070
     1
1040
0.0
1040
0.2
1070
     0
1070
     2
1040
0.7853981633974483
1040
-903.2340384037993
1040
-7.092413717177286
1040
-0.4490128060534576
1040
0.4490128060534577
1070
     0
1040
2.356194490192344
1040
-903.2340384037993
1040
-7.092413717177286
1040
-0.4490128060534577
1040
-0.4490128060534576
1070
     0
1040
0.057451373970553
1071
        8
1040
13.78812089390305
1040
21.2747599287082
1040
0.0
1040
20.11278093731891
1040
24.95164846527364
1040
0.0
1040
22.87263381653939
1040
21.61946792889336
1040
0.0
1040
28.62232591251688
1040
22.30888392926414
1040
0.0
1040
39.54673794983647
1040
22.76849619680576
1040
0.0
1040
44.6064668260093
1040
25.52616259922984
1040
0.0
1040
54.2659519032801
1040
24.83674419791766
1040
0.0
1040
65.53534555050247
1040
25.29635646545926
1040
0.0
1002
}
  0
ARC
  5
6D9
330
1A
100
AcDbEntity
  8
ZUWAKU
100
AcDbCircle
 10
22.39269024044188
 20
23.20758628282264
 30
0.0
 40
0.525
100
AcDbArc
 50
90.0
 51
180.0
  0
ARC
  5
6DA
330
1A
100
AcDbEntity
  8
ZUWAKU
100
AcDbCircle
 10
22.39269024044188
 20
21.45758628282265
 30
0.0
 40
0.525
100
AcDbArc
 50
180.0
 51
270.0
  0
LINE
  5
6DB
330
1A
100
AcDbEntity
  8
ZUWAKU
100
AcDbLine
 10
21.86769024044179
 20
21.45758628282265
 30
0.0
 11
21.86769024044179
 21
23.20758628282264
 31
0.0
  0
ARC
  5
6DC
330
1A
100
AcDbEntity
  8
ZUWAKU
100
AcDbCircle
 10
25.54269024044197
 20
32.41738425746735
 30
0.0
 40
4.199999999999998
100
AcDbArc
 50
180.0
 51
224.9999999999996
  0
ARC
  5
6DD
330
1A
100
AcDbEntity
  8
ZUWAKU
100
AcDbCircle
 10
25.54269024044197
 20
32.41738425746735
 30
0.0
 40
1.399999999999999
100
AcDbArc
 50
180.0000000000015
 51
224.9999999999993
  0
ARC
  5
6DE
330
1A
100
AcDbEntity
  8
ZUWAKU
100
AcDbCircle
 10
24.14269024044187
 20
34.23258628282264
 30
0.0
 40
2.799999999999998
100
AcDbArc
 50
90.0
 51
180.0
  0
LINE
  5
6DF
330
1A
100
AcDbEntity
  8
ZUWAKU
100
AcDbLine
 10
21.34269024044192
 20
34.23258628282264
 30
0.0
 11
21.34269024044192
 21
32.4173842574673
 31
0.0
  0
LINE
  5
6E0
330
1A
100
AcDbEntity
  8
ZUWAKU
100
AcDbLine
 10
24.14269024044187
 20
33.70758628282264
 30
0.0
 11
24.14269024044187
 21
32.4173842574673
 31
0.0
  0
LINE
  5
6E1
330
1A
100
AcDbEntity
  8
ZUWAKU
100
AcDbLine
 10
89.17710763364903
 20
43.78258628282265
 30
0.0
 11
89.17710763364903
 21
14.58258628282271
 31
0.0
  0
LINE
  5
6E2
330
1A
100
AcDbEntity
  8
ZUWAKU
100
AcDbLine
 10
89.57710763364913
 20
43.78258628282265
 30
0.0
 11
89.57710763364913
 21
14.58258628282271
 31
0.0
  0
LINE
  5
6E3
330
1A
100
AcDbEntity
  8
ZUWAKU
100
AcDbLine
 10
89.37710763364883
 20
43.78258628282265
 30
0.0
 11
89.37710763364931
 21
14.58258628282271
 31
0.0
  0
LINE
  5
6E4
330
1A
100
AcDbEntity
  8
ZUWAKU
100
AcDbLine
 10
56.87284175945841
 20
29.44753577648382
 30
0.0
 11
59.78263973410321
 21
26.53773780183917
 31
0.0
  0
ARC
  5
6E5
330
1A
100
AcDbEntity
  8
ZUWAKU
100
AcDbCircle
 10
58.44269024044207
 20
34.23258628282264
 30
0.0
 40
2.799999999999998
100
AcDbArc
 50
90.0
 51
180.0
  0
LINE
  5
6E6
330
1A
100
AcDbEntity
  8
ZUWAKU
100
AcDbLine
 10
56.69269024044207
 20
20.93258628282265
 30
0.0
 11
60.19269024044207
 21
20.93258628282265
 31
0.0
  0
LINE
  5
6E7
330
1A
100
AcDbEntity
  8
ZUWAKU
100
AcDbLine
 10
56.69269024044207
 20
23.73258628282264
 30
0.0
 11
59.66769024044197
 21
23.73258628282264
 31
0.0
  0
LINE
  5
6E8
330
1A
100
AcDbEntity
  8
ZUWAKU
100
AcDbLine
 10
42.16769024044197
 20
37.03258628282265
 30
0.0
 11
40.41769024044197
 21
37.03258628282265
 31
0.0
  0
LINE
  5
6E9
330
1A
100
AcDbEntity
  8
ZUWAKU
100
AcDbLine
 10
40.41769024044197
 20
20.93258628282265
 30
0.0
 11
42.16769024044197
 21
20.93258628282265
 31
0.0
  0
LINE
  5
6EA
330
1A
100
AcDbEntity
  8
ZUWAKU
100
AcDbLine
 10
39.89269024044189
 20
36.50758628282265
 30
0.0
 11
39.89269024044189
 21
21.45758628282265
 31
0.0
  0
LINE
  5
6EB
330
1A
100
AcDbEntity
  8
ZUWAKU
100
AcDbLine
 10
30.79269024044197
 20
25.13258628282264
 30
0.0
 11
30.79269024044197
 21
32.83258628282261
 31
0.0
  0
LINE
  5
6EC
330
1A
100
AcDbEntity
  8
ZUWAKU
100
AcDbLine
 10
33.59269024044192
 20
32.83258628282264
 30
0.0
 11
33.59269024044192
 21
25.13258628282264
 31
0.0
  0
ARC
  5
6ED
330
1A
100
AcDbEntity
  8
ZUWAKU
100
AcDbCircle
 10
24.49269024044179
 20
25.54778830817795
 30
0.0
 40
4.199999999999998
100
AcDbArc
 50
0.0
 51
44.9999999999996
  0
CIRCLE
  5
6EE
330
1A
100
AcDbEntity
  8
ZUWAKU
100
AcDbCircle
 10
36.04269024044197
 20
28.98258628282265
 30
0.0
 40
1.75
  0
ARC
  5
6EF
330
1A
100
AcDbEntity
  8
ZUWAKU
100
AcDbCircle
 10
34.99269024044179
 20
25.13258628282264
 30
0.0
 40
4.199999999999998
100
AcDbArc
 50
180.0
 51
270.0
  0
LINE
  5
6F0
330
1A
100
AcDbEntity
  8
ZUWAKU
100
AcDbLine
 10
28.69269024044205
 20
23.73258628282264
 30
0.0
 11
28.69269024044205
 21
25.547788308178
 31
0.0
  0
ARC
  5
6F1
330
1A
100
AcDbEntity
  8
ZUWAKU
100
AcDbCircle
 10
25.36769024044179
 20
24.25758628282264
 30
0.0
 40
0.525
100
AcDbArc
 50
270.0
 51
0.0
  0
LINE
  5
6F2
330
1A
100
AcDbEntity
  8
ZUWAKU
100
AcDbLine
 10
25.89269024044188
 20
24.25758628282264
 30
0.0
 11
25.89269024044188
 21
25.547788308178
 31
0.0
  0
ARC
  5
6F3
330
1A
100
AcDbEntity
  8
ZUWAKU
100
AcDbCircle
 10
25.89269024044188
 20
23.73258628282264
 30
0.0
 40
2.799999999999998
100
AcDbArc
 50
270.0
 51
0.0
  0
ARC
  5
6F4
330
1A
100
AcDbEntity
  8
ZUWAKU
100
AcDbCircle
 10
24.49269024044179
 20
25.547788308178
 30
0.0
 40
1.399999999999999
100
AcDbArc
 50
0.0
 51
44.9999999999996
  0
ARC
  5
6F5
330
1A
100
AcDbEntity
  8
ZUWAKU
100
AcDbCircle
 10
40.41769024044197
 20
21.45758628282265
 30
0.0
 40
0.525
100
AcDbArc
 50
180.0
 51
270.0
  0
ARC
  5
6F6
330
1A
100
AcDbEntity
  8
ZUWAKU
100
AcDbCircle
 10
36.91769024044197
 20
23.20758628282264
 30
0.0
 40
0.525
100
AcDbArc
 50
0.0
 51
90.0
  0
ARC
  5
6F7
330
1A
100
AcDbEntity
  8
ZUWAKU
100
AcDbCircle
 10
36.91769024044197
 20
21.45758628282265
 30
0.0
 40
0.525
100
AcDbArc
 50
270.0
 51
0.0
  0
LINE
  5
6F8
330
1A
100
AcDbEntity
  8
ZUWAKU
100
AcDbLine
 10
37.44269024044206
 20
23.20758628282264
 30
0.0
 11
37.44269024044206
 21
21.45758628282265
 31
0.0
  0
ARC
  5
6F9
330
1A
100
AcDbEntity
  8
ZUWAKU
100
AcDbCircle
 10
34.99269024044179
 20
25.13258628282264
 30
0.0
 40
1.399999999999999
100
AcDbArc
 50
180.0
 51
270.0
  0
LINE
  5
6FA
330
1A
100
AcDbEntity
  8
ZUWAKU
100
AcDbLine
 10
36.91769024044197
 20
20.93258628282265
 30
0.0
 11
34.99269024044179
 21
20.93258628282265
 31
0.0
  0
LINE
  5
6FB
330
1A
100
AcDbEntity
  8
ZUWAKU
100
AcDbLine
 10
34.99269024044179
 20
23.73258628282264
 30
0.0
 11
36.91769024044197
 21
23.73258628282264
 31
0.0
  0
ARC
  5
6FC
330
1A
100
AcDbEntity
  8
ZUWAKU
100
AcDbCircle
 10
34.99269024044179
 20
32.83258628282261
 30
0.0
 40
4.199999999999998
100
AcDbArc
 50
90.0
 51
180.0
  0
LINE
  5
6FD
330
1A
100
AcDbEntity
  8
ZUWAKU
100
AcDbLine
 10
28.16769024044197
 20
36.50758628282265
 30
0.0
 11
28.16769024044197
 21
34.75758628282265
 31
0.0
  0
LINE
  5
6FE
330
1A
100
AcDbEntity
  8
ZUWAKU
100
AcDbLine
 10
27.64269024044188
 20
34.23258628282264
 30
0.0
 11
24.66769024044197
 21
34.23258628282264
 31
0.0
  0
ARC
  5
6FF
330
1A
100
AcDbEntity
  8
ZUWAKU
100
AcDbCircle
 10
27.64269024044188
 20
34.75758628282265
 30
0.0
 40
0.525
100
AcDbArc
 50
270.0
 51
0.0
  0
ARC
  5
700
330
1A
100
AcDbEntity
  8
ZUWAKU
100
AcDbCircle
 10
27.64269024044188
 20
36.50758628282265
 30
0.0
 40
0.525
100
AcDbArc
 50
0.0
 51
90.0
  0
LINE
  5
701
330
1A
100
AcDbEntity
  8
ZUWAKU
100
AcDbLine
 10
37.44269024044206
 20
36.50758628282265
 30
0.0
 11
37.44269024044206
 21
34.75758628282265
 31
0.0
  0
ARC
  5
702
330
1A
100
AcDbEntity
  8
ZUWAKU
100
AcDbCircle
 10
36.91769024044197
 20
34.75758628282265
 30
0.0
 40
0.525
100
AcDbArc
 50
270.0
 51
0.0
  0
ARC
  5
703
330
1A
100
AcDbEntity
  8
ZUWAKU
100
AcDbCircle
 10
40.41769024044197
 20
36.50758628282265
 30
0.0
 40
0.525
100
AcDbArc
 50
90.0
 51
180.0
  0
ARC
  5
704
330
1A
100
AcDbEntity
  8
ZUWAKU
100
AcDbCircle
 10
36.91769024044197
 20
36.50758628282265
 30
0.0
 40
0.525
100
AcDbArc
 50
0.0
 51
90.0
  0
ARC
  5
705
330
1A
100
AcDbEntity
  8
ZUWAKU
100
AcDbCircle
 10
34.99269024044179
 20
32.83258628282264
 30
0.0
 40
1.399999999999999
100
AcDbArc
 50
90.0
 51
180.0
  0
LINE
  5
706
330
1A
100
AcDbEntity
  8
ZUWAKU
100
AcDbLine
 10
36.91769024044197
 20
34.23258628282264
 30
0.0
 11
34.99269024044179
 21
34.23258628282264
 31
0.0
  0
LINE
  5
707
330
1A
100
AcDbEntity
  8
ZUWAKU
100
AcDbLine
 10
34.99269024044179
 20
37.0325862828226
 30
0.0
 11
36.91769024044197
 21
37.03258628282265
 31
0.0
  0
ARC
  5
708
330
1A
100
AcDbEntity
  8
ZUWAKU
100
AcDbCircle
 10
43.21769024044215
 20
27.05758628282264
 30
0.0
 40
0.525
100
AcDbArc
 50
90.0
 51
180.0
  0
ARC
  5
709
330
1A
100
AcDbEntity
  8
ZUWAKU
100
AcDbCircle
 10
43.3579244039306
 20
27.05758628282264
 30
0.0
 40
0.525
100
AcDbArc
 50
17.52556837372255
 51
90.0
  0
LINE
  5
70A
330
1A
100
AcDbEntity
  8
ZUWAKU
100
AcDbLine
 10
53.54269024044197
 20
21.45758628282265
 30
0.0
 11
53.54269024044197
 21
36.50758628282265
 31
0.0
  0
LINE
  5
70B
330
1A
100
AcDbEntity
  8
ZUWAKU
100
AcDbLine
 10
50.74269024044179
 20
36.50758628282265
 30
0.0
 11
50.74269024044179
 21
21.45758628282265
 31
0.0
  0
LINE
  5
70C
330
1A
100
AcDbEntity
  8
ZUWAKU
100
AcDbLine
 10
48.42697635575769
 20
21.61568025098962
 30
0.0
 11
46.10058497728414
 21
28.98258628282267
 31
0.0
  0
LINE
  5
70D
330
1A
100
AcDbEntity
  8
ZUWAKU
100
AcDbLine
 10
43.21769024044215
 20
27.58258628282264
 30
0.0
 11
43.3579244039306
 21
27.58258628282264
 31
0.0
  0
ARC
  5
70E
330
1A
100
AcDbEntity
  8
ZUWAKU
100
AcDbCircle
 10
46.22745607695332
 20
21.45758628282265
 30
0.0
 40
0.525
100
AcDbArc
 50
197.5255683737224
 51
270.0
  0
ARC
  5
70F
330
1A
100
AcDbEntity
  8
ZUWAKU
100
AcDbCircle
 10
47.92634545656209
 20
21.45758628282265
 30
0.0
 40
0.525
100
AcDbArc
 50
270.0
 51
17.52556837372255
  0
LINE
  5
710
330
1A
100
AcDbEntity
  8
ZUWAKU
100
AcDbLine
 10
46.22745607695332
 20
20.93258628282265
 30
0.0
 11
47.92634545656209
 21
20.93258628282265
 31
0.0
  0
ARC
  5
711
330
1A
100
AcDbEntity
  8
ZUWAKU
100
AcDbCircle
 10
42.16769024044197
 20
21.45758628282265
 30
0.0
 40
0.525
100
AcDbArc
 50
270.0
 51
0.0
  0
LINE
  5
712
330
1A
100
AcDbEntity
  8
ZUWAKU
100
AcDbLine
 10
45.72682517775773
 20
21.29949231465567
 30
0.0
 11
43.85855530312574
 21
27.21568025098962
 31
0.0
  0
LINE
  5
713
330
1A
100
AcDbEntity
  8
ZUWAKU
100
AcDbLine
 10
42.69269024044206
 20
21.45758628282265
 30
0.0
 11
42.69269024044206
 21
27.05758628282264
 31
0.0
  0
ARC
  5
714
330
1A
100
AcDbEntity
  8
ZUWAKU
100
AcDbCircle
 10
56.69269024044207
 20
23.20758628282264
 30
0.0
 40
0.525
100
AcDbArc
 50
90.0
 51
180.0
  0
ARC
  5
715
330
1A
100
AcDbEntity
  8
ZUWAKU
100
AcDbCircle
 10
53.01769024044189
 20
21.45758628282265
 30
0.0
 40
0.525
100
AcDbArc
 50
270.0
 51
0.0
  0
ARC
  5
716
330
1A
100
AcDbEntity
  8
ZUWAKU
100
AcDbCircle
 10
56.69269024044207
 20
21.45758628282265
 30
0.0
 40
0.525
100
AcDbArc
 50
180.0
 51
270.0
  0
LINE
  5
717
330
1A
100
AcDbEntity
  8
ZUWAKU
100
AcDbLine
 10
56.16769024044197
 20
21.45758628282265
 30
0.0
 11
56.16769024044197
 21
23.20758628282264
 31
0.0
  0
ARC
  5
718
330
1A
100
AcDbEntity
  8
ZUWAKU
100
AcDbCircle
 10
51.26769024044189
 20
21.45758628282265
 30
0.0
 40
0.525
100
AcDbArc
 50
180.0
 51
270.0
  0
LINE
  5
719
330
1A
100
AcDbEntity
  8
ZUWAKU
100
AcDbLine
 10
51.26769024044189
 20
20.93258628282265
 30
0.0
 11
53.01769024044189
 21
20.93258628282265
 31
0.0
  0
LINE
  5
71A
330
1A
100
AcDbEntity
  8
ZUWAKU
100
AcDbLine
 10
47.36533672261976
 20
32.98763347638608
 30
0.0
 11
46.10058497728414
 21
28.98258628282267
 31
0.0
  0
ARC
  5
71B
330
1A
100
AcDbEntity
  8
ZUWAKU
100
AcDbCircle
 10
46.22745607695332
 20
36.50758628282265
 30
0.0
 40
0.525
100
AcDbArc
 50
90.0
 51
162.4744316262773
  0
LINE
  5
71C
330
1A
100
AcDbEntity
  8
ZUWAKU
100
AcDbLine
 10
48.42697635575769
 20
36.34949231465567
 30
0.0
 11
47.36533672261976
 21
32.98763347638608
 31
0.0
  0
ARC
  5
71D
330
1A
100
AcDbEntity
  8
ZUWAKU
100
AcDbCircle
 10
47.92634545656209
 20
36.50758628282265
 30
0.0
 40
0.525
100
AcDbArc
 50
342.4744316262774
 51
90.0
  0
LINE
  5
71E
330
1A
100
AcDbEntity
  8
ZUWAKU
100
AcDbLine
 10
46.22745607695332
 20
37.03258628282265
 30
0.0
 11
47.92634545656209
 21
37.03258628282265
 31
0.0
  0
LINE
  5
71F
330
1A
100
AcDbEntity
  8
ZUWAKU
100
AcDbLine
 10
42.69269024044206
 20
30.90758628282264
 30
0.0
 11
42.69269024044206
 21
36.50758628282265
 31
0.0
  0
ARC
  5
720
330
1A
100
AcDbEntity
  8
ZUWAKU
100
AcDbCircle
 10
43.21769024044215
 20
30.90758628282264
 30
0.0
 40
0.525
100
AcDbArc
 50
180.0
 51
270.0
  0
LINE
  5
721
330
1A
100
AcDbEntity
  8
ZUWAKU
100
AcDbLine
 10
43.3579244039306
 20
30.38258628282264
 30
0.0
 11
43.21769024044215
 21
30.38258628282264
 31
0.0
  0
ARC
  5
722
330
1A
100
AcDbEntity
  8
ZUWAKU
100
AcDbCircle
 10
43.3579244039306
 20
30.90758628282264
 30
0.0
 40
0.525
100
AcDbArc
 50
270.0
 51
342.4744316262774
  0
ARC
  5
723
330
1A
100
AcDbEntity
  8
ZUWAKU
100
AcDbCircle
 10
42.16769024044197
 20
36.50758628282265
 30
0.0
 40
0.525
100
AcDbArc
 50
0.0
 51
90.0
  0
LINE
  5
724
330
1A
100
AcDbEntity
  8
ZUWAKU
100
AcDbLine
 10
45.72682517775773
 20
36.66568025098961
 30
0.0
 11
43.85855530312574
 21
30.74949231465568
 31
0.0
  0
ARC
  5
725
330
1A
100
AcDbEntity
  8
ZUWAKU
100
AcDbCircle
 10
59.84269024044215
 20
32.41738425746735
 30
0.0
 40
4.199999999999998
100
AcDbArc
 50
180.0
 51
224.9999999999996
  0
LINE
  5
726
330
1A
100
AcDbEntity
  8
ZUWAKU
100
AcDbLine
 10
55.64269024044189
 20
34.23258628282264
 30
0.0
 11
55.64269024044189
 21
32.4173842574673
 31
0.0
  0
ARC
  5
727
330
1A
100
AcDbEntity
  8
ZUWAKU
100
AcDbCircle
 10
53.01769024044189
 20
36.50758628282265
 30
0.0
 40
0.525
100
AcDbArc
 50
0.0
 51
90.0
  0
ARC
  5
728
330
1A
100
AcDbEntity
  8
ZUWAKU
100
AcDbCircle
 10
51.26769024044189
 20
36.50758628282265
 30
0.0
 40
0.525
100
AcDbArc
 50
90.0
 51
180.0
  0
LINE
  5
729
330
1A
100
AcDbEntity
  8
ZUWAKU
100
AcDbLine
 10
53.01769024044189
 20
37.03258628282265
 30
0.0
 11
51.26769024044189
 21
37.03258628282265
 31
0.0
  0
ARC
  5
72A
330
1A
100
AcDbEntity
  8
ZUWAKU
100
AcDbCircle
 10
73.66769024044197
 20
36.50758628282265
 30
0.0
 40
0.525
100
AcDbArc
 50
0.0
 51
90.0
  0
ARC
  5
72B
330
1A
100
AcDbEntity
  8
ZUWAKU
100
AcDbCircle
 10
71.39269024044188
 20
23.73258628282264
 30
0.0
 40
2.799999999999998
100
AcDbArc
 50
270.0
 51
0.0
  0
LINE
  5
72C
330
1A
100
AcDbEntity
  8
ZUWAKU
100
AcDbLine
 10
67.89269024044187
 20
24.78258628282264
 30
0.0
 11
67.89269024044187
 21
36.50758628282265
 31
0.0
  0
LINE
  5
72D
330
1A
100
AcDbEntity
  8
ZUWAKU
100
AcDbLine
 10
65.09269024044215
 20
36.50758628282265
 30
0.0
 11
65.09269024044215
 21
23.73258628282264
 31
0.0
  0
LINE
  5
72E
330
1A
100
AcDbEntity
  8
ZUWAKU
100
AcDbLine
 10
71.39269024044188
 20
36.50758628282265
 30
0.0
 11
71.39269024044188
 21
24.78258628282264
 31
0.0
  0
ARC
  5
72F
330
1A
100
AcDbEntity
  8
ZUWAKU
100
AcDbCircle
 10
58.79269024044197
 20
25.54778830817795
 30
0.0
 40
4.199999999999998
100
AcDbArc
 50
0.0
 51
44.9999999999996
  0
ARC
  5
730
330
1A
100
AcDbEntity
  8
ZUWAKU
100
AcDbCircle
 10
67.89269024044187
 20
23.73258628282264
 30
0.0
 40
2.799999999999998
100
AcDbArc
 50
180.0
 51
270.0
  0
LINE
  5
731
330
1A
100
AcDbEntity
  8
ZUWAKU
100
AcDbLine
 10
62.99269024044178
 20
23.73258628282264
 30
0.0
 11
62.99269024044178
 21
25.547788308178
 31
0.0
  0
ARC
  5
732
330
1A
100
AcDbEntity
  8
ZUWAKU
100
AcDbCircle
 10
59.66769024044197
 20
24.25758628282264
 30
0.0
 40
0.525
100
AcDbArc
 50
270.0
 51
0.0
  0
LINE
  5
733
330
1A
100
AcDbEntity
  8
ZUWAKU
100
AcDbLine
 10
60.19269024044207
 20
24.25758628282264
 30
0.0
 11
60.19269024044207
 21
25.547788308178
 31
0.0
  0
ARC
  5
734
330
1A
100
AcDbEntity
  8
ZUWAKU
100
AcDbCircle
 10
60.19269024044207
 20
23.73258628282264
 30
0.0
 40
2.799999999999998
100
AcDbArc
 50
270.0
 51
0.0
  0
ARC
  5
735
330
1A
100
AcDbEntity
  8
ZUWAKU
100
AcDbCircle
 10
58.79269024044197
 20
25.547788308178
 30
0.0
 40
1.399999999999999
100
AcDbArc
 50
0.0
 51
44.9999999999996
  0
ARC
  5
736
330
1A
100
AcDbEntity
  8
ZUWAKU
100
AcDbCircle
 10
70.34269024044215
 20
24.78258628282264
 30
0.0
 40
1.049999999999998
100
AcDbArc
 50
270.0
 51
0.0
  0
ARC
  5
737
330
1A
100
AcDbEntity
  8
ZUWAKU
100
AcDbCircle
 10
68.94269024044206
 20
24.78258628282264
 30
0.0
 40
1.049999999999998
100
AcDbArc
 50
180.0
 51
270.0
  0
LINE
  5
738
330
1A
100
AcDbEntity
  8
ZUWAKU
100
AcDbLine
 10
67.89269024044187
 20
20.93258628282265
 30
0.0
 11
71.39269024044188
 21
20.93258628282265
 31
0.0
  0
LINE
  5
739
330
1A
100
AcDbEntity
  8
ZUWAKU
100
AcDbLine
 10
70.34269024044215
 20
23.73258628282264
 30
0.0
 11
68.94269024044206
 21
23.73258628282264
 31
0.0
  0
LINE
  5
73A
330
1A
100
AcDbEntity
  8
ZUWAKU
100
AcDbLine
 10
67.36769024044177
 20
37.03258628282265
 30
0.0
 11
65.61769024044179
 21
37.03258628282265
 31
0.0
  0
LINE
  5
73B
330
1A
100
AcDbEntity
  8
ZUWAKU
100
AcDbLine
 10
62.46769024044215
 20
36.50758628282265
 30
0.0
 11
62.46769024044215
 21
34.75758628282265
 31
0.0
  0
ARC
  5
73C
330
1A
100
AcDbEntity
  8
ZUWAKU
100
AcDbCircle
 10
61.94269024044206
 20
34.75758628282265
 30
0.0
 40
0.525
100
AcDbArc
 50
270.0
 51
0.0
  0
ARC
  5
73D
330
1A
100
AcDbEntity
  8
ZUWAKU
100
AcDbCircle
 10
61.94269024044206
 20
36.50758628282265
 30
0.0
 40
0.525
100
AcDbArc
 50
0.0
 51
90.0
  0
ARC
  5
73E
330
1A
100
AcDbEntity
  8
ZUWAKU
100
AcDbCircle
 10
65.61769024044179
 20
36.50758628282265
 30
0.0
 40
0.525
100
AcDbArc
 50
90.0
 51
180.0
  0
ARC
  5
73F
330
1A
100
AcDbEntity
  8
ZUWAKU
100
AcDbCircle
 10
59.84269024044215
 20
32.41738425746735
 30
0.0
 40
1.399999999999999
100
AcDbArc
 50
180.0000000000015
 51
224.9999999999993
  0
LINE
  5
740
330
1A
100
AcDbEntity
  8
ZUWAKU
100
AcDbLine
 10
58.44269024044207
 20
33.70758628282264
 30
0.0
 11
58.44269024044207
 21
32.4173842574673
 31
0.0
  0
ARC
  5
741
330
1A
100
AcDbEntity
  8
ZUWAKU
100
AcDbCircle
 10
58.96769024044215
 20
33.70758628282264
 30
0.0
 40
0.525
100
AcDbArc
 50
90.0
 51
180.0
  0
LINE
  5
742
330
1A
100
AcDbEntity
  8
ZUWAKU
100
AcDbLine
 10
61.76253872142524
 20
28.51763678916148
 30
0.0
 11
58.85274074678045
 21
31.42743476380614
 31
0.0
  0
LINE
  5
743
330
1A
100
AcDbEntity
  8
ZUWAKU
100
AcDbLine
 10
61.94269024044206
 20
34.23258628282264
 30
0.0
 11
58.96769024044215
 21
34.23258628282264
 31
0.0
  0
LINE
  5
744
330
1A
100
AcDbEntity
  8
ZUWAKU
100
AcDbLine
 10
58.44269024044207
 20
37.03258628282265
 30
0.0
 11
61.94269024044206
 21
37.03258628282265
 31
0.0
  0
ARC
  5
745
330
1A
100
AcDbEntity
  8
ZUWAKU
100
AcDbCircle
 10
71.91769024044197
 20
36.50758628282265
 30
0.0
 40
0.525
100
AcDbArc
 50
90.0
 51
180.0
  0
LINE
  5
746
330
1A
100
AcDbEntity
  8
ZUWAKU
100
AcDbLine
 10
73.66769024044197
 20
37.03258628282265
 30
0.0
 11
71.91769024044197
 21
37.03258628282265
 31
0.0
  0
ARC
  5
747
330
1A
100
AcDbEntity
  8
ZUWAKU
100
AcDbCircle
 10
67.36769024044177
 20
36.50758628282265
 30
0.0
 40
0.525
100
AcDbArc
 50
0.0
 51
90.0
  0
LINE
  5
748
330
1A
100
AcDbEntity
  8
ZUWAKU
100
AcDbLine
 10
76.29269024044197
 20
36.50758628282265
 30
0.0
 11
76.29269024044197
 21
21.45758628282265
 31
0.0
  0
LINE
  5
749
330
1A
100
AcDbEntity
  8
ZUWAKU
100
AcDbLine
 10
79.09269024044215
 20
21.45758628282265
 30
0.0
 11
79.09269024044215
 21
36.50758628282265
 31
0.0
  0
LINE
  5
74A
330
1A
100
AcDbEntity
  8
ZUWAKU
100
AcDbLine
 10
74.19269024044206
 20
23.73258628282264
 30
0.0
 11
74.19269024044206
 21
36.50758628282265
 31
0.0
  0
ARC
  5
74B
330
1A
100
AcDbEntity
  8
ZUWAKU
100
AcDbCircle
 10
78.56769024044206
 20
21.45758628282265
 30
0.0
 40
0.525
100
AcDbArc
 50
270.0
 51
0.0
  0
ARC
  5
74C
330
1A
100
AcDbEntity
  8
ZUWAKU
100
AcDbCircle
 10
76.81769024044206
 20
21.45758628282265
 30
0.0
 40
0.525
100
AcDbArc
 50
180.0
 51
270.0
  0
LINE
  5
74D
330
1A
100
AcDbEntity
  8
ZUWAKU
100
AcDbLine
 10
76.81769024044206
 20
20.93258628282265
 30
0.0
 11
78.56769024044206
 21
20.93258628282265
 31
0.0
  0
ARC
  5
74E
330
1A
100
AcDbEntity
  8
ZUWAKU
100
AcDbCircle
 10
78.56769024044206
 20
36.50758628282265
 30
0.0
 40
0.525
100
AcDbArc
 50
0.0
 51
90.0
  0
ARC
  5
74F
330
1A
100
AcDbEntity
  8
ZUWAKU
100
AcDbCircle
 10
76.81769024044206
 20
36.50758628282265
 30
0.0
 40
0.525
100
AcDbArc
 50
90.0
 51
180.0
  0
LINE
  5
750
330
1A
100
AcDbEntity
  8
ZUWAKU
100
AcDbLine
 10
78.56769024044206
 20
37.03258628282265
 30
0.0
 11
76.81769024044206
 21
37.03258628282265
 31
0.0
  0
TEXT
  5
751
330
1A
100
AcDbEntity
  8
MOJI
100
AcDbText
 10
103.0082676738297
 20
26.52376441309741
 30
0.0
 40
6.0
  1
大型　のきとい
 41
0.9
  7
ｽﾀｲﾙ1
100
AcDbText
  0
LINE
  5
757
330
1A
100
AcDbEntity
  8
ZUWAKU
100
AcDbLine
 10
218.4970793757283
 20
43.78258628282265
 30
0.0
 11
218.4970793757287
 21
14.58258628282271
 31
0.0
  0
LINE
  5
758
330
1A
100
AcDbEntity
  8
ZUWAKU
100
AcDbLine
 10
218.6970793757286
 20
43.78258628282265
 30
0.0
 11
218.6970793757286
 21
14.58258628282271
 31
0.0
  0
LINE
  5
759
330
1A
100
AcDbEntity
  8
ZUWAKU
100
AcDbLine
 10
218.2970793757284
 20
43.78258628282265
 30
0.0
 11
218.2970793757284
 21
14.58258628282271
 31
0.0
  0
TEXT
  5
75A
330
1A
100
AcDbEntity
  8
ZUWAKU
100
AcDbText
 10
219.7745243979378
 20
37.83794282120822
 30
0.0
 40
4.0
  1
品名
 41
0.9
  7
ｽﾀｲﾙ1
100
AcDbText
  0
TEXT
  5
75B
330
1A
100
AcDbEntity
  8
ZUWAKU
100
AcDbText
 10
219.7745243979384
 20
23.43794282120826
 30
0.0
 40
4.0
  1
サイズ
 41
0.9
  7
ｽﾀｲﾙ1
100
AcDbText
  0
TEXT
  5
792
330
1A
100
AcDbEntity
  8
ZUWAKU
100
AcDbText
 10
668.254415772963
 20
31.78750734023003
 30
0.0
 40
5.599999999999998
  1
　　．　　．　　
 41
0.9
  7
ｽﾀｲﾙ1
100
AcDbText
  0
LINE
  5
793
330
1A
100
AcDbEntity
  8
ZUWAKU
100
AcDbLine
 10
658.8676805958647
 20
29.38258628282268
 30
0.0
 11
707.2994886342021
 21
29.38258628282268
 31
0.0
  0
LINE
  5
794
330
1A
100
AcDbEntity
  8
ZUWAKU
100
AcDbLine
 10
658.8676805958653
 20
29.18258628282268
 30
0.0
 11
707.2994886342021
 21
29.18258628282268
 31
0.0
  0
LINE
  5
795
330
1A
100
AcDbEntity
  8
ZUWAKU
100
AcDbLine
 10
658.8676805958647
 20
28.98258628282268
 30
0.0
 11
707.2994886342021
 21
28.98258628282268
 31
0.0
  0
LINE
  5
79A
330
1A
100
AcDbEntity
  8
ZUWAKU
100
AcDbLine
 10
515.2496575838016
 20
29.38258628282268
 30
0.0
 11
562.5774338517731
 21
29.38258628282268
 31
0.0
  0
LINE
  5
79B
330
1A
100
AcDbEntity
  8
ZUWAKU
100
AcDbLine
 10
515.2496575838016
 20
29.18258628282268
 30
0.0
 11
562.5774338517731
 21
29.18258628282268
 31
0.0
  0
LINE
  5
79C
330
1A
100
AcDbEntity
  8
ZUWAKU
100
AcDbLine
 10
515.2496575838016
 20
28.98258628282269
 30
0.0
 11
562.5774338517731
 21
28.98258628282269
 31
0.0
  0
TEXT
  5
79D
330
1A
100
AcDbEntity
  8
MOJI
100
AcDbText
 10
538.0913860579735
 20
16.98750734023007
 30
0.0
 40
5.599999999999998
  1
１/２
 41
0.9
  7
ｽﾀｲﾙ1
100
AcDbText
  0
LINE
  5
79E
330
1A
100
AcDbEntity
  8
ZUWAKU
100
AcDbLine
 10
514.8496575838017
 20
43.78258628282265
 30
0.0
 11
514.8496575838017
 21
14.58258628282271
 31
0.0
  0
LINE
  5
79F
330
1A
100
AcDbEntity
  8
ZUWAKU
100
AcDbLine
 10
515.2496575838016
 20
43.78258628282265
 30
0.0
 11
515.2496575838016
 21
14.58258628282271
 31
0.0
  0
LINE
  5
7A0
330
1A
100
AcDbEntity
  8
ZUWAKU
100
AcDbLine
 10
515.0496575838015
 20
43.78258628282265
 30
0.0
 11
515.0496575838018
 21
14.58258628282271
 31
0.0
  0
LINE
  5
7A1
330
1A
100
AcDbEntity
  8
ZUWAKU
100
AcDbLine
 10
457.4748420566519
 20
43.78258628282265
 30
0.0
 11
457.4748420566519
 21
14.58258628282271
 31
0.0
  0
LINE
  5
7A2
330
1A
100
AcDbEntity
  8
ZUWAKU
100
AcDbLine
 10
457.8748420566521
 20
43.78258628282265
 30
0.0
 11
457.8748420566521
 21
14.58258628282271
 31
0.0
  0
LINE
  5
7A3
330
1A
100
AcDbEntity
  8
ZUWAKU
100
AcDbLine
 10
457.6748420566517
 20
43.78258628282265
 30
0.0
 11
457.6748420566523
 21
14.58258628282271
 31
0.0
  0
TEXT
  5
7A5
330
1A
100
AcDbEntity
  8
ZUWAKU
100
AcDbText
 10
459.3522870788614
 20
37.83794282120822
 30
0.0
 40
4.0
  1
品番
 41
0.9
  7
ｽﾀｲﾙ1
100
AcDbText
  0
TEXT
  5
7A6
330
1A
100
AcDbEntity
  8
ZUWAKU
100
AcDbText
 10
516.7271026060111
 20
37.83794282120822
 30
0.0
 40
4.0
  1
用紙
 41
0.9
  7
ｽﾀｲﾙ1
100
AcDbText
  0
TEXT
  5
7A7
330
1A
100
AcDbEntity
  8
ZUWAKU
100
AcDbText
 10
516.7271026060116
 20
23.43794282120826
 30
0.0
 40
4.0
  1
縮尺
 41
0.9
  7
ｽﾀｲﾙ1
100
AcDbText
  0
TEXT
  5
7A8
330
1A
100
AcDbEntity
  8
MOJI
100
AcDbText
 10
538.0913860579735
 20
31.78750734023003
 30
0.0
 40
5.599999999999998
  1
Ａ３
 41
0.9
  7
ｽﾀｲﾙ1
100
AcDbText
  0
LINE
  5
7A9
330
1A
100
AcDbEntity
  8
ZUWAKU
100
AcDbLine
 10
562.9774338517732
 20
43.78258628282265
 30
0.0
 11
562.9774338517732
 21
14.58258628282271
 31
0.0
  0
LINE
  5
7AA
330
1A
100
AcDbEntity
  8
ZUWAKU
100
AcDbLine
 10
658.467680595865
 20
43.78258628282265
 30
0.0
 11
658.467680595865
 21
14.58258628282271
 31
0.0
  0
LINE
  5
7AB
330
1A
100
AcDbEntity
  8
ZUWAKU
100
AcDbLine
 10
658.8676805958653
 20
43.78258628282265
 30
0.0
 11
658.8676805958653
 21
14.58258628282271
 31
0.0
  0
LINE
  5
7AC
330
1A
100
AcDbEntity
  8
ZUWAKU
100
AcDbLine
 10
658.667680595865
 20
43.78258628282265
 30
0.0
 11
658.6676805958655
 21
14.58258628282271
 31
0.0
  0
LINE
  5
7AD
330
1A
100
AcDbEntity
  8
ZUWAKU
100
AcDbLine
 10
562.5774338517731
 20
43.78258628282265
 30
0.0
 11
562.5774338517731
 21
14.58258628282271
 31
0.0
  0
LINE
  5
7AE
330
1A
100
AcDbEntity
  8
ZUWAKU
100
AcDbLine
 10
562.7774338517728
 20
43.78258628282265
 30
0.0
 11
562.7774338517732
 21
14.58258628282271
 31
0.0
  0
TEXT
  5
7AF
330
1A
100
AcDbEntity
  8
ZUWAKU
100
AcDbText
 10
660.3451256180747
 20
37.83794282120822
 30
0.0
 40
4.0
  1
DATE
 41
0.9
  7
ｽﾀｲﾙ1
100
AcDbText
  0
LINE
  5
7BB
330
1A
100
AcDbEntity
  8
ZUWAKU
100
AcDbLine
 10
707.8994886342019
 20
43.78258628282265
 30
0.0
 11
707.8994886342019
 21
14.58258628282271
 31
0.0
  0
LINE
  5
7BC
330
1A
100
AcDbEntity
  8
ZUWAKU
100
AcDbLine
 10
707.6994886342017
 20
43.78258628282265
 30
0.0
 11
707.6994886342022
 21
14.58258628282271
 31
0.0
  0
LINE
  5
7BD
330
1A
100
AcDbEntity
  8
ZUWAKU
100
AcDbLine
 10
707.4994886342018
 20
43.78258628282265
 30
0.0
 11
707.4994886342018
 21
14.58258628282271
 31
0.0
  0
LINE
  5
7BE
330
1A
100
AcDbEntity
  8
ZUWAKU
100
AcDbLine
 10
707.2994886342021
 20
43.78258628282265
 30
0.0
 11
707.2994886342021
 21
14.58258628282271
 31
0.0
  0
TEXT
  5
7BF
330
1A
100
AcDbEntity
  8
ZUWAKU
100
AcDbText
 10
716.9052170452454
 20
26.13277692093663
 30
0.0
 40
6.0
  1
積水化学工業株式会社
 41
0.9
  7
ｽﾀｲﾙ1
100
AcDbText
  0
DIMENSION
  5
A5DE
330
1A
100
AcDbEntity
  8
SUNPOU
100
AcDbDimension
  2
*D2
 10
418.1842092569182
 20
461.1677279845986
 30
0.0
 11
314.8478369144062
 21
466.1677279845987
 31
0.0
 70
    32
 71
     5
 42
-1.0
  3
STANDARD
100
AcDbAlignedDimension
 13
211.5114645718942
 23
283.2320514581434
 33
0.0
 14
418.1842092569182
 24
251.4214043864829
 34
0.0
100
AcDbRotatedDimension
1001
ACAD
1000
DSTYLE
1002
{
1070
    41
1040
7.0
1070
    42
1040
6.0
1070
    43
1040
14.0
1070
    44
1040
3.0
1070
    73
1070
     0
1070
    74
1070
     0
1070
    77
1070
     3
1070
   140
1040
6.0
1070
   141
1040
150.0
1070
   147
1040
2.0
1070
   172
1070
     1
1070
   173
1070
     1
1070
   176
1070
   256
1070
   177
1070
   256
1070
   178
1070
   256
1070
   271
1070
     0
1070
   272
1070
     0
1070
   341
1005
6D
1070
     6
1000
OPEN
1070
     7
1000
OPEN
1070
   371
1070
    -1
1070
   372
1070
    -1
1002
}
  0
LINE
  5
A5DF
330
1A
100
AcDbEntity
  8
SEIHIN
100
AcDbLine
 10
328.4110145719182
 20
510.6889611057678
 30
0.0
 11
417.0114645717783
 21
510.6889611057678
 31
0.0
  0
LINE
  5
A5E0
330
1A
100
AcDbEntity
  8
SEIHIN
100
AcDbLine
 10
417.0114645719183
 20
533.6889611057682
 30
0.0
 11
328.4110145719182
 21
533.6889611057682
 31
0.0
  0
LINE
  5
A5E1
330
1A
100
AcDbEntity
  8
SEIHIN
100
AcDbLine
 10
213.3114645709883
 20
537.1889611057681
 30
0.0
 11
416.5114645717783
 21
537.1889611057681
 31
0.0
  0
LINE
  5
A5E2
330
1A
100
AcDbEntity
  8
SEIHIN
100
AcDbLine
 10
213.3114645719182
 20
507.1889611057681
 30
0.0
 11
416.5114645717783
 21
507.1889611057681
 31
0.0
  0
LINE
  5
A5E3
330
1A
100
AcDbEntity
  8
SEIHIN
100
AcDbLine
 10
412.6155990671286
 20
258.1833918018289
 30
0.0
 11
387.824734485883
 21
254.6992630006152
 31
0.0
  0
LINE
  5
A5E4
330
1A
100
AcDbEntity
  8
SEIHIN
100
AcDbLine
 10
414.1722916649179
 20
253.3530328163038
 30
0.0
 11
388.5205999908156
 21
249.7479226569037
 31
0.0
  0
LINE
  5
A5E5
330
1A
100
AcDbEntity
  8
SEIHIN
100
AcDbLine
 10
414.0052839437672
 20
254.5413544987936
 30
0.0
 11
388.3535922695537
 21
250.9362443393937
 31
0.0
  0
LINE
  5
A5E6
330
1A
100
AcDbEntity
  8
NOKITOI
 48
2.0
100
AcDbLine
 10
403.9457642178216
 20
233.105647186972
 30
0.0
 11
391.6515443977056
 21
132.175906907701
 31
0.0
  0
LINE
  5
A5E7
330
1A
100
AcDbEntity
  8
NOKITOI
 48
2.0
100
AcDbLine
 10
404.6697838586951
 20
231.605747186972
 30
0.0
 11
392.4056838586949
 21
130.9243471869722
 31
0.0
  0
LINE
  5
A5E8
330
1A
100
AcDbEntity
  8
NOKITOI
 48
2.0
100
AcDbLine
 10
405.0489838586948
 20
249.605747186972
 30
0.0
 11
390.7581479222191
 21
132.2847312505136
 31
0.0
  0
LINE
  5
A5ED
330
1A
100
AcDbEntity
  8
CENTER_L
 48
5.0
100
AcDbLine
 10
204.5114645719066
 20
522.1889611057681
 30
0.0
 11
425.3114645718722
 21
522.1889611057679
 31
0.0
  0
DIMENSION
  5
A5EE
330
1A
100
AcDbEntity
  8
SUNPOU
100
AcDbDimension
  2
*D3
 10
418.3114645719233
 20
278.5787618466414
 30
0.0
 11
401.2830602744337
 21
283.5787618466415
 31
0.0
 70
    32
 71
     5
 42
-1.0
  3
STANDARD
100
AcDbAlignedDimension
 13
384.2546559769441
 23
254.1975211870199
 33
0.0
 14
418.3114645719233
 24
253.2320514580951
 34
0.0
100
AcDbRotatedDimension
1001
ACAD
1000
DSTYLE
1002
{
1070
    41
1040
7.0
1070
    42
1040
6.0
1070
    43
1040
14.0
1070
    44
1040
3.0
1070
    73
1070
     0
1070
    74
1070
     0
1070
    77
1070
     3
1070
   140
1040
6.0
1070
   141
1040
150.0
1070
   147
1040
2.0
1070
   172
1070
     1
1070
   173
1070
     1
1070
   176
1070
   256
1070
   177
1070
   256
1070
   178
1070
   256
1070
   271
1070
     0
1070
   272
1070
     0
1070
   341
1005
6D
1070
     6
1000
OPEN
1070
     7
1000
OPEN
1070
   371
1070
    -1
1070
   372
1070
    -1
1002
}
  0
DIMENSION
  5
A5F0
330
1A
100
AcDbEntity
  8
SUNPOU
100
AcDbDimension
  2
*D4
 10
418.1842092569182
 20
446.9216542022368
 30
0.0
 11
371.5476119144181
 21
451.9216542022369
 31
0.0
 70
    32
 71
     5
 42
-1.0
  3
STANDARD
100
AcDbAlignedDimension
 13
324.9110145719181
 23
400.7128913375829
 33
0.0
 14
418.1842092569182
 24
251.4214043864829
 34
0.0
100
AcDbRotatedDimension
1001
ACAD
1000
DSTYLE
1002
{
1070
    41
1040
7.0
1070
    42
1040
6.0
1070
    43
1040
14.0
1070
    44
1040
3.0
1070
    73
1070
     0
1070
    74
1070
     0
1070
    77
1070
     3
1070
   140
1040
6.0
1070
   141
1040
150.0
1070
   147
1040
2.0
1070
   172
1070
     1
1070
   173
1070
     1
1070
   176
1070
   256
1070
   177
1070
   256
1070
   178
1070
   256
1070
   271
1070
     0
1070
   272
1070
     0
1070
   341
1005
6D
1070
     6
1000
OPEN
1070
     7
1000
OPEN
1070
   371
1070
    -1
1070
   372
1070
    -1
1002
}
  0
TEXT
  5
A5F1
330
1A
100
AcDbEntity
  8
MOJI
100
AcDbText
 10
250.4198637045059
 20
33.54276037649512
 30
0.0
 40
5.599999999999998
  1
亜鉛メッキ金具象鼻（吊）
 41
0.9
  7
ｽﾀｲﾙ1
100
AcDbText
  0
DIMENSION
  5
A5F2
330
1A
100
AcDbEntity
  8
SUNPOU
100
AcDbDimension
  2
*D5
 10
211.5114645718942
 20
319.8020584828132
 30
0.0
 11
232.1312289534544
 21
324.8020584828132
 31
0.0
 70
    32
 71
     5
 42
-1.0
  3
STANDARD
100
AcDbAlignedDimension
 13
252.7509933350144
 23
283.188055699148
 33
0.0
 14
211.5114645718942
 24
283.2320514581434
 34
0.0
100
AcDbRotatedDimension
1001
ACAD
1000
DSTYLE
1002
{
1070
    41
1040
7.0
1070
    42
1040
6.0
1070
    43
1040
14.0
1070
    44
1040
3.0
1070
    73
1070
     0
1070
    74
1070
     0
1070
    77
1070
     3
1070
   140
1040
6.0
1070
   141
1040
150.0
1070
   147
1040
2.0
1070
   172
1070
     1
1070
   173
1070
     1
1070
   176
1070
   256
1070
   177
1070
   256
1070
   178
1070
   256
1070
   271
1070
     0
1070
   272
1070
     0
1070
   341
1005
6D
1070
     6
1000
OPEN
1070
     7
1000
OPEN
1070
   371
1070
    -1
1070
   372
1070
    -1
1002
}
  0
DIMENSION
  5
A5F3
330
1A
100
AcDbEntity
  8
SUNPOU
100
AcDbDimension
  2
*D6
 10
211.5114645718942
 20
446.9216542022368
 30
0.0
 11
268.2112395719062
 21
451.9216542022369
 31
0.0
 70
    32
 71
     5
 42
-1.0
  3
STANDARD
100
AcDbAlignedDimension
 13
324.9110145719181
 23
400.7128913375829
 33
0.0
 14
211.5114645718942
 24
283.2320514581434
 34
0.0
100
AcDbRotatedDimension
1001
ACAD
1000
DSTYLE
1002
{
1070
    41
1040
7.0
1070
    42
1040
6.0
1070
    43
1040
14.0
1070
    44
1040
3.0
1070
    73
1070
     0
1070
    74
1070
     0
1070
    77
1070
     3
1070
   140
1040
6.0
1070
   141
1040
150.0
1070
   147
1040
2.0
1070
   172
1070
     1
1070
   173
1070
     1
1070
   176
1070
   256
1070
   177
1070
   256
1070
   178
1070
   256
1070
   271
1070
     0
1070
   272
1070
     0
1070
   341
1005
6D
1070
     6
1000
OPEN
1070
     7
1000
OPEN
1070
   371
1070
    -1
1070
   372
1070
    -1
1002
}
  0
DIMENSION
  5
A5F4
330
1A
100
AcDbEntity
  8
SUNPOU
100
AcDbDimension
  2
*D7
 10
341.0691842824181
 20
230.7128913375846
 30
0.0
 11
336.0691842824181
 21
315.7128913375838
 31
0.0
 70
    32
 71
     5
 42
-1.0
  3
STANDARD
100
AcDbAlignedDimension
 13
328.4112145719181
 23
400.7128913375829
 33
0.0
 14
322.9111144442173
 24
230.7128913375846
 34
0.0
 50
90.0
100
AcDbRotatedDimension
1001
ACAD
1000
DSTYLE
1002
{
1070
   140
1040
6.0
1070
    74
1070
     0
1070
   172
1070
     1
1070
    73
1070
     0
1070
   272
1070
     2
1070
    77
1070
     3
1070
   173
1070
     1
1070
   147
1040
2.0
1070
    42
1040
6.0
1070
    44
1040
3.0
1070
    43
1040
14.0
1070
   271
1070
     0
1070
   178
1070
     4
1070
   177
1070
     4
1070
   176
1070
     4
1070
   141
1040
150.0
1070
     7
1000
_OPEN
1070
     6
1000
_OPEN
1070
    41
1040
7.0
1002
}
  0
LINE
  5
A5F5
330
1A
100
AcDbEntity
  8
SEIHIN
  6
DASHED
 62
     6
 48
5.0
100
AcDbLine
 10
287.9108145719182
 20
400.712991337583
 30
0.0
 11
287.9108145719182
 21
301.410091337583
 31
0.0
  0
LINE
  5
A5F6
330
1A
100
AcDbEntity
  8
SEIHIN
  6
DASHED
 62
     6
 48
5.0
100
AcDbLine
 10
299.4108145719183
 20
268.757491337583
 30
0.0
 11
299.4108145719183
 21
400.712991337583
 31
0.0
  0
LINE
  5
A5F7
330
1A
100
AcDbEntity
  8
SEIHIN
  6
DASHED
 62
     6
 48
5.0
100
AcDbLine
 10
295.9108145719183
 20
268.757491337583
 30
0.0
 11
295.9108145719183
 21
400.712991337583
 31
0.0
  0
LINE
  5
A5F8
330
1A
100
AcDbEntity
  8
SEIHIN
  6
DASHED
 62
     6
 48
5.0
100
AcDbLine
 10
343.8750375719066
 20
400.7126495475637
 30
0.0
 11
343.8749375719069
 21
301.4097495475638
 31
0.0
  0
LINE
  5
A5F9
330
1A
100
AcDbEntity
  8
SEIHIN
  6
DASHED
 62
     6
 48
5.0
100
AcDbLine
 10
351.8750375719066
 20
268.7572495475638
 30
0.0
 11
351.8750375719066
 21
400.7126495475637
 31
0.0
  0
LINE
  5
A5FA
330
1A
100
AcDbEntity
  8
SEIHIN
  6
DASHED
 62
     6
 48
5.0
100
AcDbLine
 10
355.3750375719066
 20
268.7572495475638
 30
0.0
 11
355.3750375719066
 21
400.7126495475637
 31
0.0
  0
LINE
  5
A5FB
330
1A
100
AcDbEntity
  8
SEIHIN
100
AcDbLine
 10
324.9111145719181
 20
236.212891337583
 30
0.0
 11
324.9110145719181
 21
400.7128913375829
 31
0.0
  0
LINE
  5
A5FC
330
1A
100
AcDbEntity
  8
SEIHIN
100
AcDbLine
 10
328.4111145719181
 20
236.212891337583
 30
0.0
 11
328.4110145719182
 21
400.7128913375829
 31
0.0
  0
LINE
  5
A5FD
330
1A
100
AcDbEntity
  8
SEIHIN
100
AcDbLine
 10
316.9110145719181
 20
400.7128913375829
 30
0.0
 11
316.9110145719181
 21
301.4099913375829
 31
0.0
  0
DIMENSION
  5
A64A
330
1A
100
AcDbEntity
  8
SUNPOU
100
AcDbDimension
  2
*D8
 10
273.8951802233124
 20
230.7131331276039
 30
0.0
 11
268.8951802233124
 21
256.9505944133759
 31
0.0
 70
    32
 71
     5
 42
-1.0
  3
STANDARD
100
AcDbAlignedDimension
 13
252.7509933350144
 23
283.188055699148
 33
0.0
 14
260.1258627541823
 24
230.7131331276039
 34
0.0
 50
90.0
100
AcDbRotatedDimension
1001
ACAD
1000
DSTYLE
1002
{
1070
    41
1040
7.0
1070
    42
1040
6.0
1070
    43
1040
14.0
1070
    44
1040
3.0
1070
    73
1070
     0
1070
    74
1070
     0
1070
    77
1070
     3
1070
   140
1040
6.0
1070
   141
1040
150.0
1070
   147
1040
2.0
1070
   172
1070
     1
1070
   173
1070
     1
1070
   176
1070
   256
1070
   177
1070
   256
1070
   178
1070
   256
1070
   271
1070
     0
1070
   272
1070
     0
1070
   341
1005
6D
1070
     6
1000
OPEN
1070
     7
1000
OPEN
1070
   371
1070
    -1
1070
   372
1070
    -1
1002
}
  0
LINE
  5
A64B
330
1A
100
AcDbEntity
  8
SEIHIN
100
AcDbLine
 10
374.4466641848181
 20
226.9131331276037
 30
0.0
 11
261.6905788825479
 21
226.9131331276037
 31
0.0
  0
LINE
  5
A64C
330
1A
100
AcDbEntity
  8
SEIHIN
100
AcDbLine
 10
374.4466641848181
 20
225.7131331276038
 30
0.0
 11
261.6905788825479
 21
225.7131331276038
 31
0.0
  0
LINE
  5
A64D
330
1A
100
AcDbEntity
  8
SEIHIN
100
AcDbLine
 10
373.7464566466857
 20
230.7131331276039
 30
0.0
 11
262.5598656200669
 21
230.7131331276039
 31
0.0
  0
LINE
  5
A64E
330
1A
100
AcDbEntity
  8
NOKITOI
 48
2.0
100
AcDbLine
 10
389.7654851716788
 20
130.5056471869721
 30
0.0
 11
244.7258676157443
 21
130.5056471869721
 31
0.0
  0
LINE
  5
A64F
330
1A
100
AcDbEntity
  8
NOKITOI
 48
2.0
100
AcDbLine
 10
389.7654851716788
 20
131.4056471869722
 30
0.0
 11
244.7258676157443
 21
131.4056471869722
 31
0.0
  0
LINE
  5
A650
330
1A
100
AcDbEntity
  8
NOKITOI
 48
2.0
100
AcDbLine
 10
243.5738838586951
 20
129.6056471869721
 30
0.0
 11
390.9166838586952
 21
129.6056471869721
 31
0.0
  0
LINE
  5
A651
330
1A
100
AcDbEntity
  8
NOKITOI
 48
2.0
100
AcDbLine
 10
226.9351929790779
 20
263.1058471869721
 30
0.0
 11
242.8397325518822
 21
132.1765303589797
 31
0.0
  0
LINE
  5
A652
330
1A
100
AcDbEntity
  8
NOKITOI
 48
2.0
100
AcDbLine
 10
226.2106838586951
 20
261.605847186972
 30
0.0
 11
242.0848838586949
 21
130.9248471869721
 31
0.0
  0
LINE
  5
A653
330
1A
100
AcDbEntity
  8
NOKITOI
 48
2.0
100
AcDbLine
 10
225.837483858695
 20
279.6058471869721
 30
0.0
 11
243.7331649505538
 21
132.2850593827656
 31
0.0
  0
ARC
  5
A654
330
1A
100
AcDbEntity
  8
NOKITOI
 48
2.0
100
AcDbCircle
 10
243.5739196715199
 20
131.1056154596343
 30
0.0
 40
1.499968273089708
100
AcDbArc
 50
186.9218100777304
 51
269.9986320219204
  0
ARC
  5
A655
330
1A
100
AcDbEntity
  8
NOKITOI
 48
2.0
100
AcDbCircle
 10
244.7258676157443
 20
132.4056471869722
 30
0.0
 40
1.9
100
AcDbArc
 50
186.9260276328718
 51
270.0
  0
ARC
  5
A656
330
1A
100
AcDbEntity
  8
NOKITOI
 48
2.0
100
AcDbCircle
 10
244.7258676157443
 20
132.4056471869722
 30
0.0
 40
1.0
100
AcDbArc
 50
186.9260276328718
 51
270.0
  0
DIMENSION
  5
A657
330
1A
100
AcDbEntity
  8
SUNPOU
100
AcDbDimension
  2
*D9
 10
191.7472358016405
 20
259.8131331276038
 30
0.0
 11
186.7472358016403
 21
273.9982624647307
 31
0.0
 70
    32
 71
     5
 42
-1.0
  3
STANDARD
100
AcDbAlignedDimension
 13
217.2073300766951
 23
288.1833918018576
 33
0.0
 14
215.5114645720114
 24
259.8131331276038
 34
0.0
 50
90.0
100
AcDbRotatedDimension
1001
ACAD
1000
DSTYLE
1002
{
1070
    41
1040
7.0
1070
    42
1040
6.0
1070
    43
1040
14.0
1070
    44
1040
3.0
1070
    73
1070
     0
1070
    74
1070
     0
1070
    77
1070
     3
1070
   140
1040
6.0
1070
   141
1040
150.0
1070
   147
1040
2.0
1070
   172
1070
     1
1070
   173
1070
     1
1070
   176
1070
   256
1070
   177
1070
   256
1070
   178
1070
   256
1070
   271
1070
     0
1070
   272
1070
     0
1070
   341
1005
6D
1070
     6
1000
OPEN
1070
     7
1000
OPEN
1070
   371
1070
    -1
1070
   372
1070
    -1
1002
}
  0
LINE
  5
A65B
330
1A
100
AcDbEntity
  8
SEIHIN
100
AcDbLine
 10
254.9567560148183
 20
231.5667560410037
 30
0.0
 11
248.4288997148053
 21
278.0148671110039
 31
0.0
  0
LINE
  5
A65C
330
1A
100
AcDbEntity
  8
SEIHIN
100
AcDbLine
 10
256.1450776973082
 20
231.7337637621551
 30
0.0
 11
249.6172213973134
 21
278.1818748321551
 31
0.0
  0
LINE
  5
A65D
330
1A
100
AcDbEntity
  8
SEIHIN
100
AcDbLine
 10
259.7871150275906
 20
233.1234484449147
 30
0.0
 11
253.3802400583796
 21
278.7107326158178
 31
0.0
  0
ARC
  5
A65E
330
1A
100
AcDbEntity
  8
SEIHIN
100
AcDbCircle
 10
215.5114645719184
 20
262.0131331276037
 30
0.0
 40
2.2
100
AcDbArc
 50
180.0
 51
270.0000000024231
  0
ARC
  5
A65F
330
1A
100
AcDbEntity
  8
SEIHIN
100
AcDbCircle
 10
215.5114645719184
 20
262.0131331276037
 30
0.0
 40
1.0
100
AcDbArc
 50
180.0
 51
269.9999999986711
  0
ARC
  5
A660
330
1A
100
AcDbEntity
  8
SEIHIN
100
AcDbCircle
 10
215.5114645719184
 20
263.8131331276038
 30
0.0
 40
4.0
100
AcDbArc
 50
180.0
 51
269.9999999996611
  0
LINE
  5
A663
330
1A
100
AcDbEntity
  8
SEIHIN
100
AcDbLine
 10
215.5114645719184
 20
261.0131331276038
 30
0.0
 11
224.3114645719415
 21
261.0131331276038
 31
0.0
  0
LINE
  5
A664
330
1A
100
AcDbEntity
  8
SEIHIN
100
AcDbLine
 10
215.5114645719184
 20
259.8131331276038
 30
0.0
 11
224.3114645719415
 21
259.8131331276038
 31
0.0
  0
LINE
  5
A665
330
1A
100
AcDbEntity
  8
SEIHIN
100
AcDbLine
 10
224.3114645719182
 20
261.0131331276038
 30
0.0
 11
224.3114645718251
 21
259.8131331276038
 31
0.0
  0
ARC
  5
A667
330
1A
100
AcDbEntity
  8
SEIHIN
100
AcDbCircle
 10
261.690578882318
 20
232.5131331276037
 30
0.0
 40
6.799999999999998
100
AcDbArc
 50
188.0
 51
270.0000000019279
  0
ARC
  5
A668
330
1A
100
AcDbEntity
  8
SEIHIN
100
AcDbCircle
 10
261.690578882318
 20
232.5131331276037
 30
0.0
 40
5.599999999999998
100
AcDbArc
 50
188.0
 51
270.0000000011594
  0
ARC
  5
A669
330
1A
100
AcDbEntity
  8
SEIHIN
100
AcDbCircle
 10
264.8737277621473
 20
228.3914375327928
 30
0.0
 40
3.620696426878498
100
AcDbArc
 50
109.4020188034897
 51
125.5178899282793
  0
ARC
  5
A66A
330
1A
100
AcDbEntity
  8
SEIHIN
100
AcDbCircle
 10
262.972193816743
 20
230.7131331518434
 30
0.0
 40
0.5628594112989733
100
AcDbArc
 50
168.6141686278846
 51
180.0
  0
ARC
  5
A66B
330
1A
100
AcDbEntity
  8
SEIHIN
100
AcDbCircle
 10
263.0490055644564
 20
230.6976649527168
 30
0.0
 40
0.6412131589504007
100
AcDbArc
 50
157.948799942268
 51
168.6141686278846
  0
ARC
  5
A66C
330
1A
100
AcDbEntity
  8
SEIHIN
100
AcDbCircle
 10
263.3002714388351
 20
230.5958856695812
 30
0.0
 40
0.9123101196542947
100
AcDbArc
 50
125.5178899282794
 51
157.9487999422769
  0
LINE
  5
A66D
330
1A
100
AcDbEntity
  8
SEIHIN
100
AcDbLine
 10
263.0085272355715
 20
230.7131331275858
 30
0.0
 11
259.7246733992844
 21
233.5677437162809
 31
0.0
  0
ARC
  5
A66E
330
1A
100
AcDbEntity
  8
SEIHIN
100
AcDbCircle
 10
262.5598656200669
 20
233.5131331276037
 30
0.0
 40
2.799999999999998
100
AcDbArc
 50
188.0000000000211
 51
270.0
  0
ARC
  5
A66F
330
1A
100
AcDbEntity
  8
SEIHIN
100
AcDbCircle
 10
268.8503050517482
 20
229.9508470081758
 30
0.0
 40
1.824520537090321
100
AcDbArc
 50
38.40470068658718
 51
60.10117155898094
  0
ARC
  5
A670
330
1A
100
AcDbEntity
  8
SEIHIN
100
AcDbCircle
 10
269.8119087288253
 20
230.7131331518434
 30
0.0
 40
0.5974256766190537
100
AcDbArc
 50
0.0
 51
38.40470068658654
  0
ARC
  5
A671
330
1A
100
AcDbEntity
  8
SEIHIN
100
AcDbCircle
 10
266.4670311153932
 20
222.5983400941301
 30
0.0
 40
9.613120274638923
100
AcDbArc
 50
76.23856311490129
 51
86.44452021601884
  0
ARC
  5
A672
330
1A
100
AcDbEntity
  8
SEIHIN
100
AcDbCircle
 10
265.8933298637746
 20
225.496446017565
 30
0.0
 40
6.689990208660295
100
AcDbArc
 50
96.49904386011684
 51
109.4020188034897
  0
ARC
  5
A673
330
1A
100
AcDbEntity
  8
SEIHIN
100
AcDbCircle
 10
266.3810738790746
 20
221.214936497725
 30
0.0
 40
10.99919175801273
100
AcDbArc
 50
86.44452021601884
 51
96.49904386011684
  0
ARC
  5
A674
330
1A
100
AcDbEntity
  8
SEIHIN
100
AcDbCircle
 10
267.8354931031956
 20
228.1859514308902
 30
0.0
 40
3.860374090184917
100
AcDbArc
 50
60.10117155899559
 51
76.23856311490129
  0
LINE
  5
A677
330
1A
100
AcDbEntity
  8
SEIHIN
100
AcDbLine
 10
215.650637898918
 20
283.3530327573038
 30
0.0
 11
247.5778047470027
 21
278.8659620788038
 31
0.0
  0
LINE
  5
A678
330
1A
100
AcDbEntity
  8
SEIHIN
100
AcDbLine
 10
215.8176456200706
 20
284.5413544397936
 30
0.0
 11
247.7448124681484
 21
280.0542837612936
 31
0.0
  0
LINE
  5
A679
330
1A
100
AcDbEntity
  8
SEIHIN
100
AcDbLine
 10
217.2073300766951
 20
288.1833918018576
 30
0.0
 11
248.2736702517045
 21
283.8173024225093
 31
0.0
  0
ARC
  5
A67A
330
1A
100
AcDbEntity
  8
SEIHIN
100
AcDbCircle
 10
215.5114645719184
 20
282.3627647203037
 30
0.0
 40
2.2
100
AcDbArc
 50
81.99998692089121
 51
180.0000074361005
  0
ARC
  5
A67B
330
1A
100
AcDbEntity
  8
SEIHIN
100
AcDbCircle
 10
216.5114645718943
 20
283.2320514581498
 30
0.0
 40
5.0
100
AcDbArc
 50
81.99999999998608
 51
180.000000000072
  0
LINE
  5
A67C
330
1A
100
AcDbEntity
  8
NOKITOI
 48
2.0
100
AcDbLine
 10
225.9919838586951
 20
263.4058471869721
 30
0.0
 11
217.6373838586949
 21
263.4058471869721
 31
0.0
  0
LINE
  5
A67D
330
1A
100
AcDbEntity
  8
NOKITOI
 48
2.0
100
AcDbLine
 10
215.8373838586951
 20
261.605847186972
 30
0.0
 11
226.2106838586951
 21
261.605847186972
 31
0.0
  0
LINE
  5
A67E
330
1A
100
AcDbEntity
  8
NOKITOI
 48
2.0
100
AcDbLine
 10
226.9351929790779
 20
263.1058471869721
 30
0.0
 11
217.3373838586951
 21
263.1058471869721
 31
0.0
  0
LINE
  5
A67F
330
1A
100
AcDbEntity
  8
NOKITOI
 48
2.0
100
AcDbLine
 10
224.2427838586949
 20
277.805847186972
 30
0.0
 11
217.837483858695
 21
277.805847186972
 31
0.0
  0
LINE
  5
A680
330
1A
100
AcDbEntity
  8
NOKITOI
 48
2.0
100
AcDbLine
 10
224.2427838586949
 20
278.105847186972
 30
0.0
 11
217.837483858695
 21
278.105847186972
 31
0.0
  0
LINE
  5
A681
330
1A
100
AcDbEntity
  8
NOKITOI
 48
2.0
100
AcDbLine
 10
225.837483858695
 20
279.6058471869721
 30
0.0
 11
217.837483858695
 21
279.6058471869721
 31
0.0
  0
LINE
  5
A682
330
1A
100
AcDbEntity
  8
SEIHIN
100
AcDbLine
 10
214.5114645719182
 20
262.0131331276037
 30
0.0
 11
214.5114645718951
 21
282.3627645905038
 31
0.0
  0
LINE
  5
A683
330
1A
100
AcDbEntity
  8
SEIHIN
100
AcDbLine
 10
211.5114645719184
 20
263.8131331276038
 30
0.0
 11
211.5114645718942
 21
283.2320514581434
 31
0.0
  0
LINE
  5
A684
330
1A
100
AcDbEntity
  8
SEIHIN
100
AcDbLine
 10
213.3114645719182
 20
262.0131331276037
 30
0.0
 11
213.3114645719414
 21
282.3627645905038
 31
0.0
  0
LINE
  5
A685
330
1A
100
AcDbEntity
  8
NOKITOI
 48
2.0
100
AcDbLine
 10
217.6373838586949
 20
263.4058471869721
 30
0.0
 11
217.6373838586949
 21
277.6058471869721
 31
0.0
  0
LINE
  5
A686
330
1A
100
AcDbEntity
  8
NOKITOI
 48
2.0
100
AcDbLine
 10
217.3373838586951
 20
263.1058471869721
 30
0.0
 11
217.3373838586951
 21
277.6058471869721
 31
0.0
  0
LINE
  5
A687
330
1A
100
AcDbEntity
  8
NOKITOI
 48
2.0
100
AcDbLine
 10
215.8373838586951
 20
261.605847186972
 30
0.0
 11
215.837483858695
 21
277.6058471869721
 31
0.0
  0
ARC
  5
A688
330
1A
100
AcDbEntity
  8
SEIHIN
100
AcDbCircle
 10
215.5114645719184
 20
282.3627647203037
 30
0.0
 40
1.0
100
AcDbArc
 50
81.99998692090437
 51
180.0000074361005
  0
ARC
  5
A689
330
1A
100
AcDbEntity
  8
NOKITOI
 48
2.0
100
AcDbCircle
 10
217.8374338586949
 20
277.605797186972
 30
0.0
 40
0.2000500062483002
100
AcDbArc
 50
89.98567963550121
 51
179.9856796354978
  0
ARC
  5
A68A
330
1A
100
AcDbEntity
  8
NOKITOI
 48
2.0
100
AcDbCircle
 10
217.8374338586949
 20
277.605797186972
 30
0.0
 40
0.5000500062483004
100
AcDbArc
 50
89.98567963550121
 51
179.9856796354978
  0
ARC
  5
A68B
330
1A
100
AcDbEntity
  8
NOKITOI
 48
2.0
100
AcDbCircle
 10
217.837483858695
 20
277.6058471869721
 30
0.0
 40
2.0
100
AcDbArc
 50
90.0
 51
180.0
  0
LINE
  5
A68C
330
1A
100
AcDbEntity
  8
NOKITOI
 48
2.0
100
AcDbLine
 10
225.9920132360068
 20
263.4058471869723
 30
0.0
 11
224.2427838586949
 21
277.805847186972
 31
0.0
  0
ARC
  5
A691
330
1A
100
AcDbEntity
  8
SEIHIN
100
AcDbCircle
 10
247.4386316459746
 20
277.87569401006
 30
0.0
 40
6.0
100
AcDbArc
 50
8.000000000041087
 51
81.99999999999922
  0
ARC
  5
A692
330
1A
100
AcDbEntity
  8
SEIHIN
100
AcDbCircle
 10
247.4386316460182
 20
277.8756940101038
 30
0.0
 40
1.0
100
AcDbArc
 50
8.000000000000067
 51
81.99999999860473
  0
ARC
  5
A693
330
1A
100
AcDbEntity
  8
SEIHIN
100
AcDbCircle
 10
247.4386316460182
 20
277.8756940101038
 30
0.0
 40
2.2
100
AcDbArc
 50
8.000000000000067
 51
81.99999999953876
  0
LINE
  5
A694
330
1A
100
AcDbEntity
  8
CENTER_L
 48
5.0
100
AcDbLine
 10
314.9114645719183
 20
206.1294948677325
 30
0.0
 11
314.9114645719183
 21
243.8736572963958
 31
0.0
  0
LINE
  5
A695
330
1A
100
AcDbEntity
  8
SEIHIN
100
AcDbLine
 10
309.9143145719182
 20
217.711191337583
 30
0.0
 11
308.7399145719182
 21
213.396091337583
 31
0.0
  0
ARC
  5
A696
330
1A
100
AcDbEntity
  8
SEIHIN
100
AcDbCircle
 10
325.9153625719182
 20
214.716657337583
 30
0.0
 40
4.999969999999998
100
AcDbArc
 50
195.265652
 51
48.9076689999981
  0
ARC
  5
A697
330
1A
100
AcDbEntity
  8
SEIHIN
100
AcDbCircle
 10
303.9153615719182
 20
214.709125337583
 30
0.0
 40
4.999966999999998
100
AcDbArc
 50
131.1318179999985
 51
344.7739169999998
  0
LINE
  5
A698
330
1A
100
AcDbEntity
  8
SEIHIN
100
AcDbLine
 10
311.9143145719182
 20
217.7118913375831
 30
0.0
 11
311.9161145719183
 21
212.711891337583
 31
0.0
  0
LINE
  5
A699
330
1A
100
AcDbEntity
  8
SEIHIN
100
AcDbLine
 10
312.4143145719183
 20
217.711991337583
 30
0.0
 11
312.416014571918
 21
212.711991337583
 31
0.0
  0
LINE
  5
A69A
330
1A
100
AcDbEntity
  8
SEIHIN
100
AcDbLine
 10
317.9144145719181
 20
217.713991337583
 30
0.0
 11
317.916014571918
 21
212.713891337583
 31
0.0
  0
LINE
  5
A69B
330
1A
100
AcDbEntity
  8
SEIHIN
100
AcDbLine
 10
317.4144145719179
 20
217.713791337583
 30
0.0
 11
317.416014571918
 21
212.713791337583
 31
0.0
  0
LINE
  5
A69C
330
1A
100
AcDbEntity
  8
SEIHIN
100
AcDbLine
 10
319.9144145719181
 20
217.714591337583
 30
0.0
 11
321.0917145719183
 21
213.400291337583
 31
0.0
  0
LINE
  5
A69D
330
1A
100
AcDbEntity
  8
SEIHIN
100
AcDbLine
 10
314.916014571918
 20
212.7128913375829
 30
0.0
 11
311.9161145719183
 21
212.711891337583
 31
0.0
  0
LINE
  5
A69E
330
1A
100
AcDbEntity
  8
SEIHIN
100
AcDbLine
 10
314.916014571918
 20
212.7128913375829
 30
0.0
 11
317.916014571918
 21
212.713891337583
 31
0.0
  0
ARC
  5
A69F
330
1A
100
AcDbEntity
  8
NOKITOI
 48
2.0
100
AcDbCircle
 10
389.7654851716788
 20
132.4056471869722
 30
0.0
 40
1.9
100
AcDbArc
 50
270.0
 51
353.0550331906538
  0
ARC
  5
A6A0
330
1A
100
AcDbEntity
  8
NOKITOI
 48
2.0
100
AcDbCircle
 10
389.7654851716788
 20
132.4056471869722
 30
0.0
 40
1.0
100
AcDbArc
 50
270.0
 51
353.0550331906538
  0
ARC
  5
A6A1
330
1A
100
AcDbEntity
  8
NOKITOI
 48
2.0
100
AcDbCircle
 10
390.9166821066363
 20
131.1056456353038
 30
0.0
 40
1.499998448332718
100
AcDbArc
 50
270.000066923772
 51
353.0579294895361
  0
LINE
  5
A6A2
330
1A
100
AcDbEntity
  8
SEIHIN
100
AcDbLine
 10
307.9972197956183
 20
224.912313424883
 30
0.0
 11
300.6264145719183
 21
218.4750913375829
 31
0.0
  0
LINE
  5
A6A3
330
1A
100
AcDbEntity
  8
SEIHIN
100
AcDbLine
 10
322.9111145719181
 20
234.212891337583
 30
0.0
 11
304.9111145719181
 21
234.212891337583
 31
0.0
  0
LINE
  5
A6A4
330
1A
100
AcDbEntity
  8
SEIHIN
100
AcDbLine
 10
320.8115769865181
 20
224.912313424883
 30
0.0
 11
319.9144145719181
 21
217.714591337583
 31
0.0
  0
LINE
  5
A6A5
330
1A
100
AcDbEntity
  8
SEIHIN
100
AcDbLine
 10
314.9143145719182
 20
217.712891337583
 30
0.0
 11
309.9143145719182
 21
217.711191337583
 31
0.0
  0
LINE
  5
A6A6
330
1A
100
AcDbEntity
  8
SEIHIN
100
AcDbLine
 10
309.0117100846181
 20
224.912313424883
 30
0.0
 11
309.9143145719182
 21
217.711191337583
 31
0.0
  0
LINE
  5
A6A7
330
1A
100
AcDbEntity
  8
SEIHIN
100
AcDbLine
 10
314.9143145719182
 20
217.712891337583
 30
0.0
 11
319.9144145719181
 21
217.714591337583
 31
0.0
  0
ARC
  5
A6A8
330
1A
100
AcDbEntity
  8
SEIHIN
100
AcDbCircle
 10
314.9114145719182
 20
229.7098843375831
 30
0.0
 40
7.502305999999999
100
AcDbArc
 50
53.14617600000158
 51
126.8576429999993
  0
LINE
  5
A6A9
330
1A
100
AcDbEntity
  8
SEIHIN
100
AcDbLine
 10
310.4111145719181
 20
235.712991337583
 30
0.0
 11
319.4111145719181
 21
235.712891337583
 31
0.0
  0
LINE
  5
A6AA
330
1A
100
AcDbEntity
  8
SEIHIN
100
AcDbLine
 10
310.4111145719181
 20
235.712991337583
 30
0.0
 11
310.4111145719181
 21
234.212991337583
 31
0.0
  0
LINE
  5
A6AB
330
1A
100
AcDbEntity
  8
SEIHIN
100
AcDbLine
 10
304.9111145719181
 20
230.7129845123831
 30
0.0
 11
304.9111145719181
 21
234.212891337583
 31
0.0
  0
LINE
  5
A6AC
330
1A
100
AcDbEntity
  8
SEIHIN
100
AcDbLine
 10
319.4111145719181
 20
235.712991337583
 30
0.0
 11
319.4111145719181
 21
234.212891337583
 31
0.0
  0
LINE
  5
A6AD
330
1A
100
AcDbEntity
  8
SEIHIN
100
AcDbLine
 10
321.8318817105181
 20
224.912313424883
 30
0.0
 11
329.2018145719182
 21
218.4848913375831
 31
0.0
  0
ARC
  5
A6AE
330
1A
100
AcDbEntity
  8
SEIHIN
100
AcDbCircle
 10
322.9111185719181
 20
236.212887337583
 30
0.0
 40
5.499996
100
AcDbArc
 50
269.9999569999981
 51
0.0000430000000937
  0
ARC
  5
A6AF
330
1A
100
AcDbEntity
  8
SEIHIN
100
AcDbCircle
 10
322.9111165719181
 20
236.212890337583
 30
0.0
 40
1.999999
100
AcDbArc
 50
269.9999569999981
 51
0.0000430000000937
  0
ARC
  5
A6B0
330
1A
100
AcDbEntity
  8
SEIHIN
100
AcDbCircle
 10
329.1872945719183
 20
302.3362143375829
 30
0.0
 40
12.27832
100
AcDbArc
 50
181.0445099999999
 51
249.6184180000021
  0
ARC
  5
A6B1
330
1A
100
AcDbEntity
  8
SEIHIN
100
AcDbCircle
 10
367.8354931031957
 20
228.1859514308905
 30
0.0
 40
3.860374090184647
100
AcDbArc
 50
60.10117155899559
 51
76.23856311490129
  0
DIMENSION
  5
A6B2
330
1A
100
AcDbEntity
  8
SUNPOU
100
AcDbDimension
  2
*D10
 10
359.7314099405241
 20
230.7131331276039
 30
0.0
 11
354.7314099405241
 21
242.4553271573119
 31
0.0
 70
    32
 71
     5
 42
-1.0
  3
STANDARD
100
AcDbAlignedDimension
 13
384.2546559769441
 23
254.1975211870199
 33
0.0
 14
375.7070377536994
 24
230.7131331276039
 34
0.0
 50
90.0
100
AcDbRotatedDimension
1001
ACAD
1000
DSTYLE
1002
{
1070
    41
1040
7.0
1070
    42
1040
6.0
1070
    43
1040
14.0
1070
    44
1040
3.0
1070
    73
1070
     0
1070
    74
1070
     0
1070
    77
1070
     3
1070
   140
1040
6.0
1070
   141
1040
150.0
1070
   147
1040
2.0
1070
   172
1070
     1
1070
   173
1070
     1
1070
   176
1070
   256
1070
   177
1070
   256
1070
   178
1070
   256
1070
   271
1070
     0
1070
   272
1070
     0
1070
   341
1005
6D
1070
     6
1000
OPEN
1070
     7
1000
OPEN
1070
   371
1070
    -1
1070
   372
1070
    -1
1002
}
  0
ARC
  5
A6B3
330
1A
100
AcDbEntity
  8
SEIHIN
100
AcDbCircle
 10
366.3810738790751
 20
221.2149364977258
 30
0.0
 40
10.99919175801199
100
AcDbArc
 50
86.44452021601884
 51
96.49904386011684
  0
ARC
  5
A6B4
330
1A
100
AcDbEntity
  8
SEIHIN
100
AcDbCircle
 10
362.9721938167398
 20
230.7131331518434
 30
0.0
 40
0.5628594112961035
100
AcDbArc
 50
168.6141686278846
 51
180.0
  0
ARC
  5
A6B5
330
1A
100
AcDbEntity
  8
SEIHIN
100
AcDbCircle
 10
363.04900556446
 20
230.6976649527157
 30
0.0
 40
0.6412131589535828
100
AcDbArc
 50
157.9487999422763
 51
168.6141686278846
  0
ARC
  5
A6B6
330
1A
100
AcDbEntity
  8
SEIHIN
100
AcDbCircle
 10
363.3002714388358
 20
230.5958856695811
 30
0.0
 40
0.9123101196545231
100
AcDbArc
 50
125.5178899282794
 51
157.9487999422769
  0
ARC
  5
A6B7
330
1A
100
AcDbEntity
  8
SEIHIN
100
AcDbCircle
 10
364.8737277621469
 20
228.3914375327938
 30
0.0
 40
3.620696426877723
100
AcDbArc
 50
109.4020188034896
 51
125.5178899282793
  0
ARC
  5
A6B8
330
1A
100
AcDbEntity
  8
SEIHIN
100
AcDbCircle
 10
365.893329863775
 20
225.496446017565
 30
0.0
 40
6.689990208660361
100
AcDbArc
 50
96.49904386011684
 51
109.4020188034897
  0
ARC
  5
A6B9
330
1A
100
AcDbEntity
  8
SEIHIN
100
AcDbCircle
 10
366.4670311153928
 20
222.5983400941291
 30
0.0
 40
9.613120274639973
100
AcDbArc
 50
76.23856311490129
 51
86.44452021601884
  0
LINE
  5
A6BA
330
1A
100
AcDbEntity
  8
SEIHIN
100
AcDbLine
 10
376.3775959848985
 20
232.5554767263255
 30
0.0
 11
383.0216173667618
 21
250.8097754480937
 31
0.0
  0
LINE
  5
A6BB
330
1A
100
AcDbEntity
  8
SEIHIN
100
AcDbLine
 10
380.8365740062183
 20
230.1873961529038
 30
0.0
 11
387.7200804710973
 21
249.0996747315036
 31
0.0
  0
LINE
  5
A6BC
330
1A
100
AcDbEntity
  8
SEIHIN
100
AcDbLine
 10
379.7089428612741
 20
230.5978203248913
 30
0.0
 11
386.592449326034
 21
249.5100989034914
 31
0.0
  0
ARC
  5
A6BF
330
1A
100
AcDbEntity
  8
SEIHIN
100
AcDbCircle
 10
374.4466641848181
 20
232.5131331276037
 30
0.0
 40
6.799999999999998
100
AcDbArc
 50
270.0
 51
340.0000000004686
  0
ARC
  5
A6C0
330
1A
100
AcDbEntity
  8
SEIHIN
100
AcDbCircle
 10
374.4466641848181
 20
232.5131331276037
 30
0.0
 40
5.599999999999998
100
AcDbArc
 50
270.0
 51
340.00000000015
  0
ARC
  5
A6C1
330
1A
100
AcDbEntity
  8
SEIHIN
100
AcDbCircle
 10
368.8503050517478
 20
229.9508470081758
 30
0.0
 40
1.824520537090321
100
AcDbArc
 50
38.40470068658654
 51
60.10117155898094
  0
ARC
  5
A6C2
330
1A
100
AcDbEntity
  8
SEIHIN
100
AcDbCircle
 10
369.8119087288248
 20
230.7131331518434
 30
0.0
 40
0.5974256766190537
100
AcDbArc
 50
0.0
 51
38.40470068658654
  0
ARC
  5
A6C3
330
1A
100
AcDbEntity
  8
SEIHIN
100
AcDbCircle
 10
373.7464566466857
 20
233.5131331276037
 30
0.0
 40
2.799999999999998
100
AcDbArc
 50
270.0
 51
340.000000000733
  0
LINE
  5
A6C4
330
1A
100
AcDbEntity
  8
SEIHIN
100
AcDbLine
 10
373.3680981000756
 20
230.7131331276213
 30
0.0
 11
376.5070022290789
 21
232.9110174606152
 31
0.0
  0
ARC
  5
A6CD
330
1A
100
AcDbEntity
  8
SEIHIN
100
AcDbCircle
 10
388.6597730916992
 20
248.757654588165
 30
0.0
 40
6.0
100
AcDbArc
 50
97.99999999996131
 51
160.0000000009976
  0
ARC
  5
A6CE
330
1A
100
AcDbEntity
  8
SEIHIN
100
AcDbCircle
 10
388.6597730917183
 20
248.7576545882038
 30
0.0
 40
2.2
100
AcDbArc
 50
98.00000000000078
 51
159.9999999975313
  0
ARC
  5
A6CF
330
1A
100
AcDbEntity
  8
SEIHIN
100
AcDbCircle
 10
388.6597730917183
 20
248.7576545882038
 30
0.0
 40
1.0
100
AcDbArc
 50
98.00000000000078
 51
159.9999999967677
  0
LINE
  5
A6D0
330
1A
100
AcDbEntity
  8
CENTER_L
  6
CENTER
 48
3.0
100
AcDbLine
 10
283.9108145719183
 20
340.7129913375829
 30
0.0
 11
300.4108815719181
 21
340.7129913375829
 31
0.0
  0
LINE
  5
A6D1
330
1A
100
AcDbEntity
  8
CENTER_L
 48
5.0
100
AcDbLine
 10
311.0451145719181
 20
340.712791337583
 30
0.0
 11
333.4109145719181
 21
340.712791337583
 31
0.0
  0
LINE
  5
A6D2
330
1A
100
AcDbEntity
  8
CENTER_L
  6
CENTER
 48
3.0
100
AcDbLine
 10
283.9108145719183
 20
385.712991337583
 30
0.0
 11
300.4109085719183
 21
385.712991337583
 31
0.0
  0
LINE
  5
A6D3
330
1A
100
AcDbEntity
  8
CENTER_L
 48
5.0
100
AcDbLine
 10
311.0452145719181
 20
385.7127913375828
 30
0.0
 11
333.4110145719181
 21
385.7127913375828
 31
0.0
  0
LINE
  5
A6D4
330
1A
100
AcDbEntity
  8
CENTER_L
  6
CENTER
 48
3.0
100
AcDbLine
 10
342.8749375719069
 20
340.7125495475638
 30
0.0
 11
359.3750045719068
 21
340.7125495475638
 31
0.0
  0
LINE
  5
A6D5
330
1A
100
AcDbEntity
  8
CENTER_L
  6
CENTER
 48
3.0
100
AcDbLine
 10
342.8749375719069
 20
385.7125495475637
 30
0.0
 11
359.3750315719069
 21
385.7125495475637
 31
0.0
  0
DIMENSION
  5
A6D6
330
1A
100
AcDbEntity
  8
SUNPOU
100
AcDbDimension
  2
*D11
 10
343.8750375719066
 20
433.6114808392089
 30
0.0
 11
315.8929260719125
 21
438.611480839209
 31
0.0
 70
    32
 71
     5
 42
-1.0
  3
STANDARD
100
AcDbAlignedDimension
 13
287.9108145719182
 23
400.712991337583
 33
0.0
 14
343.8750375719066
 24
400.7126495475637
 34
0.0
100
AcDbRotatedDimension
1001
ACAD
1000
DSTYLE
1002
{
1070
   140
1040
6.0
1070
    74
1070
     0
1070
   172
1070
     1
1070
    73
1070
     0
1070
   272
1070
     2
1070
    77
1070
     3
1070
   173
1070
     1
1070
   147
1040
2.0
1070
    42
1040
6.0
1070
    44
1040
3.0
1070
    43
1040
14.0
1070
   271
1070
     0
1070
   178
1070
     4
1070
   177
1070
     4
1070
   176
1070
     4
1070
   141
1040
150.0
1070
     7
1000
_OPEN
1070
     6
1000
_OPEN
1070
    41
1040
7.0
1002
}
  0
LINE
  5
A6D7
330
1A
100
AcDbEntity
  8
SEIHIN
  6
DASHED
 62
     6
 48
5.0
100
AcDbLine
 10
299.4110145719182
 20
400.712991337583
 30
0.0
 11
287.9108145719182
 21
400.712991337583
 31
0.0
  0
LINE
  5
A6D8
330
1A
100
AcDbEntity
  8
SEIHIN
100
AcDbLine
 10
328.4112145719181
 20
400.7128913375829
 30
0.0
 11
316.9110145719181
 21
400.7128913375829
 31
0.0
  0
TEXT
  5
A6D9
330
1A
100
AcDbEntity
  8
SUNPOU
 48
5.0
100
AcDbText
 10
358.0813304572314
 20
404.7954543761996
 30
0.0
 40
6.0
  1
スライド巾
100
AcDbText
  0
LINE
  5
A6DA
330
1A
100
AcDbEntity
  8
SEIHIN
  6
DASHED
 62
     6
 48
5.0
100
AcDbLine
 10
355.3752375719068
 20
400.7126495475637
 30
0.0
 11
343.8750375719066
 21
400.7126495475637
 31
0.0
  0
LINE
  5
A6DB
330
1A
100
AcDbEntity
  8
SEIHIN
100
AcDbLine
 10
304.9111145719181
 20
510.6889611057678
 30
0.0
 11
212.811464571825
 21
510.6889611057678
 31
0.0
  0
LINE
  5
A6DC
330
1A
100
AcDbEntity
  8
SEIHIN
100
AcDbLine
 10
212.8114645719183
 20
533.6889611057682
 30
0.0
 11
304.9111145719181
 21
533.6889611057682
 31
0.0
  0
LINE
  5
A6DD
330
1A
100
AcDbEntity
  8
SEIHIN
100
AcDbLine
 10
211.5114645719184
 20
511.9889611057678
 30
0.0
 11
211.5114645718951
 21
532.3889611057678
 31
0.0
  0
ARC
  5
A6DE
330
1A
100
AcDbEntity
  8
SEIHIN
100
AcDbCircle
 10
212.8114645719183
 20
510.1889611057679
 30
0.0
 40
0.5
100
AcDbArc
 50
0.0
 51
90.0000000106826
  0
ARC
  5
A6DF
330
1A
100
AcDbEntity
  8
SEIHIN
100
AcDbCircle
 10
212.8114645719183
 20
511.9889611057678
 30
0.0
 40
1.3
100
AcDbArc
 50
180.0
 51
269.9999999958833
  0
LINE
  5
A6E0
330
1A
100
AcDbEntity
  8
SEIHIN
100
AcDbLine
 10
213.3114645719182
 20
507.1889611057681
 30
0.0
 11
213.3114645718253
 21
510.1889611057731
 31
0.0
  0
LINE
  5
A6E1
330
1A
100
AcDbEntity
  8
SEIHIN
100
AcDbLine
 10
213.3114645719182
 20
537.1889611057681
 30
0.0
 11
213.3114645718253
 21
534.1889611057625
 31
0.0
  0
ARC
  5
A6E2
330
1A
100
AcDbEntity
  8
SEIHIN
100
AcDbCircle
 10
212.8114645719183
 20
534.1889611057681
 30
0.0
 40
0.5
100
AcDbArc
 50
270.0
 51
0.0
  0
ARC
  5
A6E3
330
1A
100
AcDbEntity
  8
SEIHIN
100
AcDbCircle
 10
212.8114645719183
 20
532.3889611057678
 30
0.0
 40
1.3
100
AcDbArc
 50
90.0
 51
180.0
  0
LINE
  5
A6E4
330
1A
100
AcDbEntity
  8
SEIHIN
100
AcDbLine
 10
262.139240497633
 20
514.1889611057681
 30
0.0
 11
262.1392404976884
 21
518.1889611057679
 31
0.0
  0
LINE
  5
A6E5
330
1A
100
AcDbEntity
  8
SEIHIN
100
AcDbLine
 10
258.8553866614804
 20
514.1889611057681
 30
0.0
 11
258.8553866615641
 21
518.1889611057679
 31
0.0
  0
LINE
  5
A6E6
330
1A
100
AcDbEntity
  8
SEIHIN
100
AcDbLine
 10
259.739758981618
 20
512.888961105768
 30
0.0
 11
259.7388266790134
 21
514.1889611057681
 31
0.0
  0
LINE
  5
A6E7
330
1A
100
AcDbEntity
  8
SEIHIN
100
AcDbLine
 10
251.539850976818
 20
512.888961105768
 30
0.0
 11
251.5398509769819
 21
531.4889611057679
 31
0.0
  0
LINE
  5
A6E8
330
1A
100
AcDbEntity
  8
SEIHIN
100
AcDbLine
 10
249.3864975987498
 20
508.1889611057682
 30
0.0
 11
249.3864975987495
 21
509.6889611057679
 31
0.0
  0
LINE
  5
A6E9
330
1A
100
AcDbEntity
  8
SEIHIN
100
AcDbLine
 10
256.8225731504664
 20
508.1889611057682
 30
0.0
 11
256.8225731504664
 21
509.6889611057679
 31
0.0
  0
LINE
  5
A6EA
330
1A
100
AcDbEntity
  8
SEIHIN
100
AcDbLine
 10
258.8553866614804
 20
516.1889611057679
 30
0.0
 11
262.1392404976884
 21
516.1889611057679
 31
0.0
  0
LINE
  5
A6EB
330
1A
100
AcDbEntity
  8
SEIHIN
100
AcDbLine
 10
258.8553866614804
 20
514.1889611057681
 30
0.0
 11
262.1392404976884
 21
514.1889611057681
 31
0.0
  0
LINE
  5
A6EC
330
1A
100
AcDbEntity
  8
SEIHIN
100
AcDbLine
 10
249.3864975987498
 20
534.6889611057679
 30
0.0
 11
249.3864975987498
 21
536.1889611057681
 31
0.0
  0
LINE
  5
A6ED
330
1A
100
AcDbEntity
  8
SEIHIN
100
AcDbLine
 10
262.139240497633
 20
526.1889611057679
 30
0.0
 11
262.1392404976884
 21
530.1889611057679
 31
0.0
  0
LINE
  5
A6EE
330
1A
100
AcDbEntity
  8
SEIHIN
100
AcDbLine
 10
258.8553866614804
 20
526.1889611057679
 30
0.0
 11
258.8553866615641
 21
530.1889611057679
 31
0.0
  0
CIRCLE
  5
A6EF
330
1A
100
AcDbEntity
  8
SEIHIN
100
AcDbCircle
 10
266.4114645719182
 20
522.1889611057679
 30
0.0
 40
3.5
  0
LINE
  5
A6F0
330
1A
100
AcDbEntity
  8
SEIHIN
100
AcDbLine
 10
258.8553866614804
 20
526.1889611057679
 30
0.0
 11
262.1392404976884
 21
526.1889611057679
 31
0.0
  0
LINE
  5
A6F1
330
1A
100
AcDbEntity
  8
SEIHIN
100
AcDbLine
 10
262.139240497633
 20
518.1889611057679
 30
0.0
 11
258.8553866615641
 21
518.1889611057679
 31
0.0
  0
LINE
  5
A6F2
330
1A
100
AcDbEntity
  8
SEIHIN
100
AcDbLine
 10
256.8225731504664
 20
534.6889611057679
 30
0.0
 11
256.8225731504664
 21
536.1889611057681
 31
0.0
  0
LINE
  5
A6F3
330
1A
100
AcDbEntity
  8
SEIHIN
100
AcDbLine
 10
258.8553866614804
 20
528.1889611057679
 30
0.0
 11
262.1392404976884
 21
528.1889611057679
 31
0.0
  0
LINE
  5
A6F4
330
1A
100
AcDbEntity
  8
SEIHIN
100
AcDbLine
 10
258.8553866614804
 20
530.1889611057679
 30
0.0
 11
262.1392404976884
 21
530.1889611057679
 31
0.0
  0
LINE
  5
A6F5
330
1A
100
AcDbEntity
  8
SEIHIN
 62
     3
 48
5.0
100
AcDbLine
 10
345.6614647755175
 20
518.9389611057674
 30
0.0
 11
320.9753434996964
 21
518.9389611057679
 31
0.0
  0
LINE
  5
A6F6
330
1A
100
AcDbEntity
  8
SEIHIN
 62
     3
 48
5.0
100
AcDbLine
 10
345.661465030018
 20
525.4389611057673
 30
0.0
 11
320.9753434996964
 21
525.4389611057679
 31
0.0
  0
LINE
  5
A6F7
330
1A
100
AcDbEntity
  8
CENTER_L
 48
5.0
100
AcDbLine
 10
314.9114645719182
 20
544.1889611057681
 30
0.0
 11
314.9114645719179
 21
500.1889611057678
 31
0.0
  0
LINE
  5
A6F8
330
1A
100
AcDbEntity
  8
SEIHIN
 62
     3
 48
5.0
100
AcDbLine
 10
284.1614641138182
 20
525.4389611057677
 30
0.0
 11
304.9111145719181
 21
525.4389611057681
 31
0.0
  0
LINE
  5
A6F9
330
1A
100
AcDbEntity
  8
SEIHIN
 62
     3
 48
5.0
100
AcDbLine
 10
284.1614643683184
 20
518.9389611057675
 30
0.0
 11
304.9111145719181
 21
518.9389611057675
 31
0.0
  0
LINE
  5
A6FA
330
1A
100
AcDbEntity
  8
CENTER_L
 48
5.0
100
AcDbLine
 10
286.1614645719179
 20
511.7198892463952
 30
0.0
 11
286.1614645719179
 21
532.6580329651404
 31
0.0
  0
LINE
  5
A6FB
330
1A
100
AcDbEntity
  8
SEIHIN
100
AcDbLine
 10
294.9114645719179
 20
507.1889611057681
 30
0.0
 11
289.0548349865366
 21
507.1889611057681
 31
0.0
  0
LINE
  5
A6FC
330
1A
100
AcDbEntity
  8
SEIHIN
100
AcDbLine
 10
289.9114645719179
 20
509.8889611057678
 30
0.0
 11
289.9114645719179
 21
507.1889611057681
 31
0.0
  0
LINE
  5
A6FD
330
1A
100
AcDbEntity
  8
SEIHIN
100
AcDbLine
 10
294.9114645719179
 20
514.9389611057682
 30
0.0
 11
294.9114645719179
 21
507.1889611057681
 31
0.0
  0
LINE
  5
A6FE
330
1A
100
AcDbEntity
  8
SEIHIN
100
AcDbLine
 10
299.9114645719179
 20
509.8889611057678
 30
0.0
 11
299.9114645719179
 21
507.1889611057681
 31
0.0
  0
ARC
  5
A6FF
330
1A
100
AcDbEntity
  8
SEIHIN
 62
     3
 48
5.0
100
AcDbCircle
 10
284.1614645719179
 20
522.1889611057677
 30
0.0
 40
3.25
100
AcDbArc
 50
90.00000807589669
 51
269.9999964124987
  0
ARC
  5
A700
330
1A
100
AcDbEntity
  8
SEIHIN
 62
     3
 48
5.0
100
AcDbCircle
 10
284.1614645719179
 20
522.1889611057677
 30
0.0
 40
3.25
100
AcDbArc
 50
90.0
 51
270.0
  0
ARC
  5
A701
330
1A
100
AcDbEntity
  8
SEIHIN
 62
     3
 48
5.0
100
AcDbCircle
 10
284.1614645719179
 20
522.1889611057677
 30
0.0
 40
3.25
100
AcDbArc
 50
90.0
 51
270.0
  0
ARC
  5
A702
330
1A
100
AcDbEntity
  8
SEIHIN
 62
     3
 48
5.0
100
AcDbCircle
 10
284.1614645719179
 20
522.1889611057677
 30
0.0
 40
3.25
100
AcDbArc
 50
90.0
 51
270.0
  0
LINE
  5
A703
330
1A
100
AcDbEntity
  8
SEIHIN
100
AcDbLine
 10
304.9111145719181
 20
507.6889611057678
 30
0.0
 11
304.9111145719181
 21
536.6889611057681
 31
0.0
  0
ARC
  5
A704
330
1A
100
AcDbEntity
  8
SEIHIN
100
AcDbCircle
 10
330.0516395719181
 20
522.1889611057679
 30
0.0
 40
13.14062499999998
100
AcDbArc
 50
118.1395204724376
 51
241.8604795275621
  0
ARC
  5
A705
330
1A
100
AcDbEntity
  8
SEIHIN
100
AcDbCircle
 10
330.0516395719181
 20
522.1889611057679
 30
0.0
 40
9.64062499999998
100
AcDbArc
 50
108.2251378704808
 51
251.774862129519
  0
LINE
  5
A706
330
1A
100
AcDbEntity
  8
SEIHIN
100
AcDbLine
 10
304.9111145719181
 20
507.6889611057678
 30
0.0
 11
328.4110145719182
 21
507.6889611057681
 31
0.0
  0
LINE
  5
A707
330
1A
100
AcDbEntity
  8
SEIHIN
100
AcDbLine
 10
304.9114645719179
 20
512.9694166484751
 30
0.0
 11
304.9114645719179
 21
507.1889611057681
 31
0.0
  0
LINE
  5
A708
330
1A
100
AcDbEntity
  8
SEIHIN
100
AcDbLine
 10
309.9114645719179
 20
507.6889611057681
 30
0.0
 11
309.9114645719179
 21
507.1889611057681
 31
0.0
  0
LINE
  5
A709
330
1A
100
AcDbEntity
  8
SEIHIN
100
AcDbLine
 10
313.3526188451181
 20
507.1889611057681
 30
0.0
 11
316.470310298924
 21
507.1889611057681
 31
0.0
  0
LINE
  5
A70A
330
1A
100
AcDbEntity
  8
SEIHIN
100
AcDbLine
 10
319.9114645719179
 20
507.6889611057681
 30
0.0
 11
319.9114645719179
 21
507.1889611057681
 31
0.0
  0
LINE
  5
A70B
330
1A
100
AcDbEntity
  8
SEIHIN
100
AcDbLine
 10
316.1816351642933
 20
507.6889611057681
 30
0.0
 11
316.470310298924
 21
507.1889611057681
 31
0.0
  0
LINE
  5
A70C
330
1A
100
AcDbEntity
  8
SEIHIN
100
AcDbLine
 10
313.6412939797328
 20
507.6889611057681
 30
0.0
 11
313.3526188451451
 21
507.1889611057681
 31
0.0
  0
ARC
  5
A70D
330
1A
100
AcDbEntity
  8
SEIHIN
100
AcDbCircle
 10
326.4110145719182
 20
511.13228891202
 30
0.0
 40
2.0
100
AcDbArc
 50
0.0
 51
71.77486212951901
  0
ARC
  5
A70E
330
1A
100
AcDbEntity
  8
SEIHIN
100
AcDbCircle
 10
322.9110145719181
 20
508.8379311829493
 30
0.0
 40
2.0
100
AcDbArc
 50
0.0
 51
61.86047952756216
  0
LINE
  5
A70F
330
1A
100
AcDbEntity
  8
SEIHIN
100
AcDbLine
 10
324.9110145719181
 20
507.6889611057681
 30
0.0
 11
328.4110145719182
 21
507.6889611057681
 31
0.0
  0
LINE
  5
A710
330
1A
100
AcDbEntity
  8
SEIHIN
100
AcDbLine
 10
324.9110145719181
 20
508.8379311829493
 30
0.0
 11
324.9110145719181
 21
507.6889611057681
 31
0.0
  0
LINE
  5
A711
330
1A
100
AcDbEntity
  8
SEIHIN
100
AcDbLine
 10
328.4110145719182
 20
511.13228891202
 30
0.0
 11
328.4110145719182
 21
507.6889611057678
 31
0.0
  0
LINE
  5
A712
330
1A
100
AcDbEntity
  8
SEIHIN
100
AcDbLine
 10
324.9114645719179
 20
507.6889611057681
 30
0.0
 11
324.9114645719179
 21
507.1889611057681
 31
0.0
  0
LINE
  5
A713
330
1A
100
AcDbEntity
  8
SEIHIN
100
AcDbLine
 10
329.9114645719179
 20
509.8889611057678
 30
0.0
 11
329.9114645719179
 21
507.1889611057681
 31
0.0
  0
LINE
  5
A714
330
1A
100
AcDbEntity
  8
SEIHIN
100
AcDbLine
 10
334.9114645719179
 20
514.9389611057682
 30
0.0
 11
334.9114645719179
 21
507.1889611057681
 31
0.0
  0
LINE
  5
A715
330
1A
100
AcDbEntity
  8
SEIHIN
100
AcDbLine
 10
304.9111145719181
 20
536.6889611057681
 30
0.0
 11
328.4110145719182
 21
536.6889611057681
 31
0.0
  0
ARC
  5
A716
330
1A
100
AcDbEntity
  8
SEIHIN
100
AcDbCircle
 10
314.9114645718896
 20
522.1889611057679
 30
0.0
 40
4.499750183783874
100
AcDbArc
 50
55.69290324971762
 51
304.3070967502823
  0
ARC
  5
A717
330
1A
100
AcDbEntity
  8
SEIHIN
100
AcDbCircle
 10
326.4110145719182
 20
533.2456332995158
 30
0.0
 40
2.0
100
AcDbArc
 50
288.2251378704808
 51
0.0
  0
LINE
  5
A718
330
1A
100
AcDbEntity
  8
SEIHIN
100
AcDbLine
 10
324.9110145719181
 20
536.6889611057679
 30
0.0
 11
328.4110145719182
 21
536.6889611057679
 31
0.0
  0
ARC
  5
A719
330
1A
100
AcDbEntity
  8
SEIHIN
100
AcDbCircle
 10
322.9110145719181
 20
535.5399910285866
 30
0.0
 40
2.0
100
AcDbArc
 50
298.1395204724378
 51
0.0
  0
LINE
  5
A71A
330
1A
100
AcDbEntity
  8
SEIHIN
100
AcDbLine
 10
324.9110145719181
 20
535.5399910285866
 30
0.0
 11
324.9110145719181
 21
536.6889611057679
 31
0.0
  0
LINE
  5
A71B
330
1A
100
AcDbEntity
  8
SEIHIN
100
AcDbLine
 10
328.4110145719182
 20
533.2456332995158
 30
0.0
 11
328.4110145719182
 21
536.6889611057681
 31
0.0
  0
CIRCLE
  5
A71C
330
1A
100
AcDbEntity
  8
SEIHIN
100
AcDbCircle
 10
366.411464571918
 20
522.1889611057679
 30
0.0
 40
3.5
  0
LINE
  5
A71D
330
1A
100
AcDbEntity
  8
CENTER_L
 48
5.0
100
AcDbLine
 10
341.8756875719068
 20
511.7198892463955
 30
0.0
 11
341.8756875719068
 21
532.6580329651404
 31
0.0
  0
LINE
  5
A71E
330
1A
100
AcDbEntity
  8
SEIHIN
100
AcDbLine
 10
339.9114645719179
 20
507.1889611057681
 30
0.0
 11
339.9114645719179
 21
509.8889611057678
 31
0.0
  0
ARC
  5
A71F
330
1A
100
AcDbEntity
  8
SEIHIN
 62
     3
 48
5.0
100
AcDbCircle
 10
345.661464571918
 20
522.1889611057673
 30
0.0
 40
3.25
100
AcDbArc
 50
270.0
 51
90.0
  0
ARC
  5
A720
330
1A
100
AcDbEntity
  8
SEIHIN
 62
     3
 48
5.0
100
AcDbCircle
 10
345.661464571918
 20
522.1889611057673
 30
0.0
 40
3.25
100
AcDbArc
 50
270.0
 51
90.0
  0
ARC
  5
A721
330
1A
100
AcDbEntity
  8
SEIHIN
 62
     3
 48
5.0
100
AcDbCircle
 10
345.661464571918
 20
522.1889611057673
 30
0.0
 40
3.25
100
AcDbArc
 50
270.0
 51
90.0
  0
ARC
  5
A722
330
1A
100
AcDbEntity
  8
SEIHIN
 62
     3
 48
5.0
100
AcDbCircle
 10
345.661464571918
 20
522.1889611057673
 30
0.0
 40
3.25
100
AcDbArc
 50
270.0000035875011
 51
89.99999192410328
  0
LINE
  5
A723
330
1A
100
AcDbEntity
  8
SEIHIN
100
AcDbLine
 10
385.0097148236183
 20
512.888961105768
 30
0.0
 11
385.0097148236473
 21
531.4889611057679
 31
0.0
  0
LINE
  5
A724
330
1A
100
AcDbEntity
  8
SEIHIN
100
AcDbLine
 10
377.2072097675475
 20
514.1889611057681
 30
0.0
 11
377.2072097672737
 21
518.1889611057679
 31
0.0
  0
LINE
  5
A725
330
1A
100
AcDbEntity
  8
SEIHIN
100
AcDbLine
 10
373.9233559313948
 20
514.1889611057681
 30
0.0
 11
373.923355931149
 21
518.1889611057679
 31
0.0
  0
LINE
  5
A726
330
1A
100
AcDbEntity
  8
SEIHIN
100
AcDbLine
 10
376.2608419573181
 20
512.888961105768
 30
0.0
 11
376.2608419573303
 21
514.1889611057681
 31
0.0
  0
LINE
  5
A727
330
1A
100
AcDbEntity
  8
SEIHIN
100
AcDbLine
 10
377.2072097675475
 20
514.1889611057681
 30
0.0
 11
373.923355931149
 21
514.1889611057681
 31
0.0
  0
LINE
  5
A728
330
1A
100
AcDbEntity
  8
SEIHIN
100
AcDbLine
 10
377.2072097675475
 20
516.1889611057679
 30
0.0
 11
373.923355931149
 21
516.1889611057679
 31
0.0
  0
LINE
  5
A729
330
1A
100
AcDbEntity
  8
SEIHIN
100
AcDbLine
 10
378.3678263988798
 20
508.1889611057682
 30
0.0
 11
378.3678263988798
 21
509.6889611057679
 31
0.0
  0
LINE
  5
A72A
330
1A
100
AcDbEntity
  8
SEIHIN
100
AcDbLine
 10
387.0445634831196
 20
508.1889611057682
 30
0.0
 11
387.0445634831198
 21
509.6889611057679
 31
0.0
  0
LINE
  5
A72B
330
1A
100
AcDbEntity
  8
SEIHIN
100
AcDbLine
 10
377.2072097675475
 20
526.1889611057679
 30
0.0
 11
377.2072097672737
 21
530.1889611057679
 31
0.0
  0
LINE
  5
A72C
330
1A
100
AcDbEntity
  8
SEIHIN
100
AcDbLine
 10
373.9233559313948
 20
526.1889611057679
 30
0.0
 11
373.923355931149
 21
530.1889611057679
 31
0.0
  0
LINE
  5
A72D
330
1A
100
AcDbEntity
  8
SEIHIN
100
AcDbLine
 10
377.2072097675475
 20
526.1889611057679
 30
0.0
 11
373.923355931149
 21
526.1889611057679
 31
0.0
  0
LINE
  5
A72E
330
1A
100
AcDbEntity
  8
SEIHIN
100
AcDbLine
 10
373.9233559313948
 20
518.1889611057679
 30
0.0
 11
377.2072097672737
 21
518.1889611057679
 31
0.0
  0
LINE
  5
A72F
330
1A
100
AcDbEntity
  8
SEIHIN
100
AcDbLine
 10
377.2072097675475
 20
530.1889611057679
 30
0.0
 11
373.923355931149
 21
530.1889611057679
 31
0.0
  0
LINE
  5
A730
330
1A
100
AcDbEntity
  8
SEIHIN
100
AcDbLine
 10
377.2072097675475
 20
528.1889611057679
 30
0.0
 11
373.923355931149
 21
528.1889611057679
 31
0.0
  0
LINE
  5
A731
330
1A
100
AcDbEntity
  8
SEIHIN
100
AcDbLine
 10
378.3678263988797
 20
534.6889611057679
 30
0.0
 11
378.3678263988798
 21
536.1889611057681
 31
0.0
  0
LINE
  5
A732
330
1A
100
AcDbEntity
  8
SEIHIN
100
AcDbLine
 10
387.0445634831198
 20
534.6889611057679
 30
0.0
 11
387.0445634831198
 21
536.1889611057681
 31
0.0
  0
LINE
  5
A733
330
1A
100
AcDbEntity
  8
CENTER_L
 48
5.0
100
AcDbLine
 10
540.1988357397028
 20
185.9277381735531
 30
0.0
 11
540.1988357397028
 21
402.9518110403038
 31
0.0
  0
LINE
  5
A734
330
1A
100
AcDbEntity
  8
SEIHIN
100
AcDbLine
 10
530.6995673126008
 20
401.5137110403038
 30
0.0
 11
530.6830289340028
 21
304.0699671236038
 31
0.0
  0
LINE
  5
A735
330
1A
100
AcDbEntity
  8
SEIHIN
100
AcDbLine
 10
549.6995673126011
 20
401.5137110403038
 30
0.0
 11
549.6830289340026
 21
304.0699671236038
 31
0.0
  0
ARC
  5
A736
330
1A
100
AcDbEntity
  8
SEIHIN
100
AcDbCircle
 10
540.1988357397028
 20
311.5137110403038
 30
0.0
 40
4.25
100
AcDbArc
 50
180.0
 51
0.0
  0
LINE
  5
A737
330
1A
100
AcDbEntity
  8
SEIHIN
100
AcDbLine
 10
554.698835739703
 20
401.5137110403038
 30
0.0
 11
554.6988357397033
 21
255.2222238856038
 31
0.0
  0
LINE
  5
A738
330
1A
100
AcDbEntity
  8
SEIHIN
100
AcDbLine
 10
525.6988357397029
 20
401.5137110403038
 30
0.0
 11
525.6988357397024
 21
255.2222238856038
 31
0.0
  0
TEXT
  5
A739
330
1A
100
AcDbEntity
  8
MOJI
100
AcDbText
 10
471.8021566807172
 20
25.02564771222537
 30
0.0
 40
5.599999999999998
  1
ＬＦ２７
 41
0.9
  7
ｽﾀｲﾙ1
100
AcDbText
  0
LINE
  5
A756
330
1A
100
AcDbEntity
  8
SEIHIN
100
AcDbLine
 10
531.5145425453931
 20
258.0222238856038
 30
0.0
 11
548.8830289340122
 21
258.0222238856038
 31
0.0
  0
LINE
  5
A757
330
1A
100
AcDbEntity
  8
SEIHIN
100
AcDbLine
 10
525.1987857396932
 20
229.0131331276037
 30
0.0
 11
555.1987857397191
 21
229.0131331276037
 31
0.0
  0
DIMENSION
  5
A758
330
1A
100
AcDbEntity
  8
SUNPOU
100
AcDbDimension
  2
*D12
 10
555.1987857397228
 20
166.6583597501925
 30
0.0
 11
540.1987857397227
 21
171.6583597501925
 31
0.0
 70
    32
 71
     5
 42
-1.0
  3
STANDARD
100
AcDbAlignedDimension
 13
525.1987857397226
 23
225.7131331276038
 33
0.0
 14
555.1987857397228
 24
225.7131331276038
 34
0.0
100
AcDbRotatedDimension
1001
ACAD
1000
DSTYLE
1002
{
1070
    41
1040
7.0
1070
    42
1040
6.0
1070
    43
1040
14.0
1070
    44
1040
3.0
1070
    73
1070
     0
1070
    74
1070
     0
1070
    77
1070
     3
1070
   140
1040
6.0
1070
   141
1040
150.0
1070
   147
1040
2.0
1070
   172
1070
     1
1070
   173
1070
     1
1070
   176
1070
   256
1070
   177
1070
   256
1070
   178
1070
   256
1070
   271
1070
     0
1070
   272
1070
     0
1070
   341
1005
6D
1070
     6
1000
OPEN
1070
     7
1000
OPEN
1070
   371
1070
    -1
1070
   372
1070
    -1
1002
}
  0
ARC
  5
A759
330
1A
100
AcDbEntity
  8
SEIHIN
100
AcDbCircle
 10
540.1134977397028
 20
305.0493090403036
 30
0.0
 40
13.535679
100
AcDbArc
 50
195.1416219999995
 51
345.518649
  0
LINE
  5
A75A
330
1A
100
AcDbEntity
  8
SEIHIN
100
AcDbLine
 10
405.5114645719184
 20
231.0131331276037
 30
0.0
 11
405.5114645720113
 21
193.0131331276037
 31
0.0
  0
LINE
  5
A75B
330
1A
100
AcDbEntity
  8
SEIHIN
100
AcDbLine
 10
406.7114645719181
 20
229.8131331276038
 30
0.0
 11
406.711464571965
 21
193.0131331276037
 31
0.0
  0
DIMENSION
  5
A75C
330
1A
100
AcDbEntity
  8
SUNPOU
100
AcDbDimension
  2
*D13
 10
444.5617394445255
 20
193.0131331276037
 30
0.0
 11
439.5617394445253
 21
211.4131331276039
 31
0.0
 70
    32
 71
     5
 42
-1.0
  3
STANDARD
100
AcDbAlignedDimension
 13
414.3114645719183
 23
229.8131331276038
 33
0.0
 14
406.711464571965
 24
193.0131331276037
 34
0.0
 50
90.0
100
AcDbRotatedDimension
1001
ACAD
1000
DSTYLE
1002
{
1070
    41
1040
7.0
1070
    42
1040
6.0
1070
    43
1040
14.0
1070
    44
1040
3.0
1070
    73
1070
     0
1070
    74
1070
     0
1070
    77
1070
     3
1070
   140
1040
6.0
1070
   141
1040
150.0
1070
   147
1040
2.0
1070
   172
1070
     1
1070
   173
1070
     1
1070
   176
1070
   256
1070
   177
1070
   256
1070
   178
1070
   256
1070
   271
1070
     0
1070
   272
1070
     0
1070
   341
1005
6D
1070
     6
1000
OPEN
1070
     7
1000
OPEN
1070
   371
1070
    -1
1070
   372
1070
    -1
1002
}
  0
LINE
  5
A75D
330
1A
100
AcDbEntity
  8
SEIHIN
100
AcDbLine
 10
405.5114645719184
 20
193.0131331276037
 30
0.0
 11
406.7114645717318
 21
193.0131331276037
 31
0.0
  0
DIMENSION
  5
A75E
330
1A
100
AcDbEntity
  8
SUNPOU
100
AcDbDimension
  2
*D14
 10
444.5617394445255
 20
229.8131331276038
 30
0.0
 11
439.5617394445253
 21
244.022592292862
 31
0.0
 70
    32
 71
     5
 42
-1.0
  3
STANDARD
100
AcDbAlignedDimension
 13
413.3114645719232
 23
258.2320514581204
 33
0.0
 14
414.3114645719183
 24
229.8131331276038
 34
0.0
 50
90.0
100
AcDbRotatedDimension
1001
ACAD
1000
DSTYLE
1002
{
1070
    41
1040
7.0
1070
    42
1040
6.0
1070
    43
1040
14.0
1070
    44
1040
3.0
1070
    73
1070
     0
1070
    74
1070
     0
1070
    77
1070
     3
1070
   140
1040
6.0
1070
   141
1040
150.0
1070
   147
1040
2.0
1070
   172
1070
     1
1070
   173
1070
     1
1070
   176
1070
   256
1070
   177
1070
   256
1070
   178
1070
   256
1070
   271
1070
     0
1070
   272
1070
     0
1070
   341
1005
6D
1070
     6
1000
OPEN
1070
     7
1000
OPEN
1070
   371
1070
    -1
1070
   372
1070
    -1
1002
}
  0
LINE
  5
A75F
330
1A
100
AcDbEntity
  8
SEIHIN
100
AcDbLine
 10
418.3114645719233
 20
253.2320514580951
 30
0.0
 11
418.3114645718258
 21
233.8131331276037
 31
0.0
  0
LINE
  5
A760
330
1A
100
AcDbEntity
  8
NOKITOI
 48
2.0
100
AcDbLine
 10
415.048983858695
 20
231.605747186972
 30
0.0
 11
415.048983858695
 21
247.605747186972
 31
0.0
  0
LINE
  5
A761
330
1A
100
AcDbEntity
  8
NOKITOI
 48
2.0
100
AcDbLine
 10
413.5489838586948
 20
233.105647186972
 30
0.0
 11
413.5489838586948
 21
247.605747186972
 31
0.0
  0
LINE
  5
A762
330
1A
100
AcDbEntity
  8
NOKITOI
 48
2.0
100
AcDbLine
 10
413.2489838586949
 20
233.4056471869721
 30
0.0
 11
413.2489838586949
 21
247.605747186972
 31
0.0
  0
LINE
  5
A763
330
1A
100
AcDbEntity
  8
NOKITOI
 48
2.0
100
AcDbLine
 10
404.8889988732186
 20
233.405647186972
 30
0.0
 11
406.6430838586952
 21
247.8056471869721
 31
0.0
  0
LINE
  5
A764
330
1A
100
AcDbEntity
  8
SEIHIN
100
AcDbLine
 10
415.3114645719183
 20
252.3627644918038
 30
0.0
 11
415.3114645720578
 21
232.0131328976037
 31
0.0
  0
LINE
  5
A765
330
1A
100
AcDbEntity
  8
SEIHIN
100
AcDbLine
 10
416.5114645719183
 20
252.3627644918038
 30
0.0
 11
416.5114645720116
 21
232.0131328976037
 31
0.0
  0
ARC
  5
A766
330
1A
100
AcDbEntity
  8
SEIHIN
100
AcDbCircle
 10
414.3114645719183
 20
233.8131331276037
 30
0.0
 40
4.0
100
AcDbArc
 50
270.0
 51
0.0
  0
LINE
  5
A767
330
1A
100
AcDbEntity
  8
SEIHIN
100
AcDbLine
 10
414.3114645719183
 20
231.0131331276037
 30
0.0
 11
405.5114645720113
 21
231.0131331276037
 31
0.0
  0
LINE
  5
A768
330
1A
100
AcDbEntity
  8
SEIHIN
100
AcDbLine
 10
414.3114645719183
 20
229.8131331276038
 30
0.0
 11
405.5114645720113
 21
229.8131331276038
 31
0.0
  0
LINE
  5
A769
330
1A
100
AcDbEntity
  8
NOKITOI
 48
2.0
100
AcDbLine
 10
413.2489838586949
 20
233.4056471869721
 30
0.0
 11
404.8889838586951
 21
233.4056471869721
 31
0.0
  0
LINE
  5
A76A
330
1A
100
AcDbEntity
  8
NOKITOI
 48
2.0
100
AcDbLine
 10
415.048983858695
 20
231.605747186972
 30
0.0
 11
404.6697838586951
 21
231.605747186972
 31
0.0
  0
LINE
  5
A76B
330
1A
100
AcDbEntity
  8
NOKITOI
 48
2.0
100
AcDbLine
 10
413.5489838586948
 20
233.105647186972
 30
0.0
 11
403.9457642178216
 21
233.105647186972
 31
0.0
  0
ARC
  5
A76C
330
1A
100
AcDbEntity
  8
SEIHIN
100
AcDbCircle
 10
414.3114645719183
 20
232.0131331276038
 30
0.0
 40
1.0
100
AcDbArc
 50
270.0
 51
359.9999868222988
  0
ARC
  5
A76D
330
1A
100
AcDbEntity
  8
SEIHIN
100
AcDbCircle
 10
414.3114645719183
 20
232.0131331276038
 30
0.0
 40
2.2
100
AcDbArc
 50
270.0
 51
359.9999868222988
  0
ARC
  5
A76E
330
1A
100
AcDbEntity
  8
SEIHIN
100
AcDbCircle
 10
413.3114645719232
 20
253.2320514581204
 30
0.0
 40
5.0
100
AcDbArc
 50
359.9999999997117
 51
97.99999999993501
  0
ARC
  5
A76F
330
1A
100
AcDbEntity
  8
NOKITOI
 48
2.0
100
AcDbCircle
 10
413.0489838586948
 20
247.605747186972
 30
0.0
 40
2.0
100
AcDbArc
 50
0.0
 51
90.0
  0
LINE
  5
A770
330
1A
100
AcDbEntity
  8
NOKITOI
 48
2.0
100
AcDbLine
 10
406.6430838586952
 20
247.8056471869721
 30
0.0
 11
413.0489838586948
 21
247.8056471869721
 31
0.0
  0
LINE
  5
A771
330
1A
100
AcDbEntity
  8
NOKITOI
 48
2.0
100
AcDbLine
 10
406.6430838586952
 20
248.105647186972
 30
0.0
 11
413.0489838586948
 21
248.105647186972
 31
0.0
  0
LINE
  5
A772
330
1A
100
AcDbEntity
  8
NOKITOI
 48
2.0
100
AcDbLine
 10
405.0489838586948
 20
249.605747186972
 30
0.0
 11
413.0489838586948
 21
249.605747186972
 31
0.0
  0
ARC
  5
A773
330
1A
100
AcDbEntity
  8
NOKITOI
 48
2.0
100
AcDbCircle
 10
413.0489838586948
 20
247.6057471869721
 30
0.0
 40
0.2000000000000739
100
AcDbArc
 50
359.9999999999754
 51
89.99999999997395
  0
ARC
  5
A774
330
1A
100
AcDbEntity
  8
NOKITOI
 48
2.0
100
AcDbCircle
 10
413.0489838586948
 20
247.6057471869721
 30
0.0
 40
0.5000000000000739
100
AcDbArc
 50
359.9999999999754
 51
89.99999999997395
  0
ARC
  5
A775
330
1A
100
AcDbEntity
  8
SEIHIN
100
AcDbCircle
 10
414.3114645719183
 20
252.3627647203038
 30
0.0
 40
1.0
100
AcDbArc
 50
359.9999869063007
 51
97.99998876906812
  0
ARC
  5
A776
330
1A
100
AcDbEntity
  8
SEIHIN
100
AcDbCircle
 10
414.3114645719183
 20
252.3627647203038
 30
0.0
 40
2.2
100
AcDbArc
 50
359.9999869063007
 51
97.9999887745803
  0
LINE
  5
A777
330
1A
100
AcDbEntity
  8
SEIHIN
100
AcDbLine
 10
525.1987857396932
 20
285.3833918018576
 30
0.0
 11
525.1987857397226
 21
255.2222238856038
 31
0.0
  0
LINE
  5
A778
330
1A
100
AcDbEntity
  8
SEIHIN
100
AcDbLine
 10
528.6987857396932
 20
230.5169386643036
 30
0.0
 11
528.6987857394859
 21
253.8003782134038
 31
0.0
  0
LINE
  5
A779
330
1A
100
AcDbEntity
  8
SEIHIN
100
AcDbLine
 10
525.1987857396932
 20
255.2222238856038
 30
0.0
 11
525.1987857397226
 21
225.7131331276038
 31
0.0
  0
LINE
  5
A77A
330
1A
100
AcDbEntity
  8
SEIHIN
100
AcDbLine
 10
525.1987857397226
 20
225.7131331276038
 30
0.0
 11
525.1987857397042
 21
226.9131331276037
 31
0.0
  0
ARC
  5
A77B
330
1A
100
AcDbEntity
  8
SEIHIN
100
AcDbCircle
 10
529.1987857397226
 20
226.9131331276037
 30
0.0
 40
1.199999999999999
100
AcDbArc
 50
270.0
 51
0.0
  0
LINE
  5
A77C
330
1A
100
AcDbEntity
  8
SEIHIN
100
AcDbLine
 10
525.1987857397226
 20
225.7131331276038
 30
0.0
 11
529.1987857397041
 21
225.7131331276038
 31
0.0
  0
LINE
  5
A77D
330
1A
100
AcDbEntity
  8
SEIHIN
100
AcDbLine
 10
528.6987857397226
 20
226.9131331276037
 30
0.0
 11
525.1987857397042
 21
226.9131331276037
 31
0.0
  0
ARC
  5
A77E
330
1A
100
AcDbEntity
  8
SEIHIN
100
AcDbCircle
 10
528.6987857397226
 20
227.4131331276036
 30
0.0
 40
0.5
100
AcDbArc
 50
270.0
 51
0.0
  0
LINE
  5
A77F
330
1A
100
AcDbEntity
  8
SEIHIN
100
AcDbLine
 10
530.3987857397292
 20
229.0131331276037
 30
0.0
 11
530.3987857397157
 21
226.9131331276037
 31
0.0
  0
LINE
  5
A780
330
1A
100
AcDbEntity
  8
SEIHIN
100
AcDbLine
 10
529.1987857397257
 20
229.0131331276037
 30
0.0
 11
529.1987857397156
 21
227.4131331276036
 31
0.0
  0
LINE
  5
A781
330
1A
100
AcDbEntity
  8
SEIHIN
100
AcDbLine
 10
525.1987857396932
 20
255.2222238856038
 30
0.0
 11
527.6987857394857
 21
255.2222238856038
 31
0.0
  0
ARC
  5
A782
330
1A
100
AcDbEntity
  8
SEIHIN
100
AcDbCircle
 10
531.5145425453931
 20
255.0222238856038
 30
0.0
 40
3.0
100
AcDbArc
 50
90.0
 51
162.5423968769499
  0
ARC
  5
A783
330
1A
100
AcDbEntity
  8
SEIHIN
100
AcDbCircle
 10
531.5145425453931
 20
255.0222238856038
 30
0.0
 40
3.0
100
AcDbArc
 50
90.0
 51
162.5423968769499
  0
ARC
  5
A784
330
1A
100
AcDbEntity
  8
SEIHIN
100
AcDbCircle
 10
527.6987857396932
 20
256.2222238856038
 30
0.0
 40
1.0
100
AcDbArc
 50
270.0
 51
342.5423968749088
  0
LINE
  5
A785
330
1A
100
AcDbEntity
  8
SEIHIN
100
AcDbLine
 10
525.1987857396932
 20
285.3833918018576
 30
0.0
 11
525.6988357397021
 21
285.3833918018576
 31
0.0
  0
LINE
  5
A786
330
1A
100
AcDbEntity
  8
SEIHIN
100
AcDbLine
 10
535.1987857396932
 20
229.0131331276037
 30
0.0
 11
535.1987857397191
 21
195.0131331276038
 31
0.0
  0
LINE
  5
A787
330
1A
100
AcDbEntity
  8
SEIHIN
100
AcDbLine
 10
545.1987857396932
 20
229.0131331276037
 30
0.0
 11
545.1987857397191
 21
195.0131331276038
 31
0.0
  0
LINE
  5
A788
330
1A
100
AcDbEntity
  8
SEIHIN
100
AcDbLine
 10
537.1987857396931
 20
193.0131331276037
 30
0.0
 11
543.1987857397191
 21
193.0131331276037
 31
0.0
  0
ARC
  5
A789
330
1A
100
AcDbEntity
  8
SEIHIN
100
AcDbCircle
 10
537.1987857396931
 20
195.0131331276038
 30
0.0
 40
2.0
100
AcDbArc
 50
180.0
 51
270.0000000007294
  0
ARC
  5
A78A
330
1A
100
AcDbEntity
  8
SEIHIN
100
AcDbCircle
 10
543.1987857396932
 20
195.0131331276038
 30
0.0
 40
2.0
100
AcDbArc
 50
270.0
 51
0.0
  0
LINE
  5
A78B
330
1A
100
AcDbEntity
  8
SEIHIN
100
AcDbLine
 10
555.1987857396932
 20
285.3833918018576
 30
0.0
 11
555.198785739723
 21
255.2222238856038
 31
0.0
  0
LINE
  5
A78C
330
1A
100
AcDbEntity
  8
SEIHIN
100
AcDbLine
 10
551.6987857396932
 20
230.5169386643036
 30
0.0
 11
551.6987857397191
 21
253.8003782134038
 31
0.0
  0
LINE
  5
A78D
330
1A
100
AcDbEntity
  8
SEIHIN
100
AcDbLine
 10
555.1987857396932
 20
255.2222238856038
 30
0.0
 11
555.1987857397191
 21
229.0131331276037
 31
0.0
  0
ARC
  5
A78E
330
1A
100
AcDbEntity
  8
SEIHIN
100
AcDbCircle
 10
551.1987857397228
 20
226.9131331276037
 30
0.0
 40
1.199999999999999
100
AcDbArc
 50
180.0
 51
269.9999999963261
  0
LINE
  5
A78F
330
1A
100
AcDbEntity
  8
SEIHIN
100
AcDbLine
 10
549.9987857397502
 20
229.0131331276037
 30
0.0
 11
549.9987857396924
 21
226.9131331276037
 31
0.0
  0
LINE
  5
A790
330
1A
100
AcDbEntity
  8
SEIHIN
100
AcDbLine
 10
555.1987857397228
 20
225.7131331276038
 30
0.0
 11
555.1987857396461
 21
226.9131331276037
 31
0.0
  0
LINE
  5
A791
330
1A
100
AcDbEntity
  8
SEIHIN
100
AcDbLine
 10
555.1987857397228
 20
225.7131331276038
 30
0.0
 11
551.1987857396461
 21
225.7131331276038
 31
0.0
  0
ARC
  5
A792
330
1A
100
AcDbEntity
  8
SEIHIN
100
AcDbCircle
 10
551.6987857397228
 20
227.4131331276036
 30
0.0
 40
0.5
100
AcDbArc
 50
180.0
 51
269.9999999911933
  0
LINE
  5
A793
330
1A
100
AcDbEntity
  8
SEIHIN
100
AcDbLine
 10
551.6987857397228
 20
226.9131331276037
 30
0.0
 11
555.1987857396461
 21
226.9131331276037
 31
0.0
  0
LINE
  5
A794
330
1A
100
AcDbEntity
  8
SEIHIN
100
AcDbLine
 10
551.1987857397667
 20
229.0131331276037
 30
0.0
 11
551.1987857397228
 21
227.4131331275706
 31
0.0
  0
ARC
  5
A795
330
1A
100
AcDbEntity
  8
SEIHIN
100
AcDbCircle
 10
548.8830289340933
 20
255.0222238856038
 30
0.0
 40
3.0
100
AcDbArc
 50
17.45760312369895
 51
90.00000000153724
  0
ARC
  5
A796
330
1A
100
AcDbEntity
  8
SEIHIN
100
AcDbCircle
 10
552.6987857396932
 20
256.2222238856038
 30
0.0
 40
1.0
100
AcDbArc
 50
197.4576031236989
 51
270.000000001485
  0
LINE
  5
A797
330
1A
100
AcDbEntity
  8
SEIHIN
100
AcDbLine
 10
555.1987857396932
 20
255.2222238856038
 30
0.0
 11
552.6987857394868
 21
255.2222238856038
 31
0.0
  0
LINE
  5
A798
330
1A
100
AcDbEntity
  8
SEIHIN
100
AcDbLine
 10
555.1987857396932
 20
285.3833918018576
 30
0.0
 11
554.6988357397033
 21
285.3833918018576
 31
0.0
  0
LINE
  5
A799
330
1A
100
AcDbEntity
  8
CENTER_L
 48
5.0
100
AcDbLine
 10
520.4289357397028
 20
386.5137110403038
 30
0.0
 11
562.4192357397028
 21
386.5137110403038
 31
0.0
  0
LINE
  5
A79A
330
1A
100
AcDbEntity
  8
CENTER_L
 48
5.0
100
AcDbLine
 10
520.4289357397028
 20
341.5137110403037
 30
0.0
 11
562.4192357397028
 21
341.5137110403037
 31
0.0
  0
LINE
  5
A79B
330
1A
100
AcDbEntity
  8
CENTER_L
 48
5.0
100
AcDbLine
 10
520.4289357397028
 20
311.5137110403038
 30
0.0
 11
562.4192357397028
 21
311.5137110403038
 31
0.0
  0
LEADER
  5
A79C
330
1A
100
AcDbEntity
  8
SUNPOU
100
AcDbLeader
  3
STANDARD
 73
     0
 40
6.0
 41
31.2
 76
     3
 10
538.135305739703
 20
390.0565690403038
 30
0.0
 10
499.9921987397025
 20
434.8505760403037
 30
0.0
 10
497.2065737397025
 20
434.8505760403037
 30
0.0
1001
ACAD
1000
DSTYLE
1002
{
1070
     6
1000
OPEN
1070
    41
1040
7.0
1070
    42
1040
6.0
1070
    43
1040
14.0
1070
    44
1040
3.0
1070
    73
1070
     0
1070
    74
1070
     0
1070
    77
1070
     3
1070
   140
1040
6.0
1070
   141
1040
150.0
1070
   147
1040
2.0
1070
   172
1070
     1
1070
   173
1070
     1
1070
   176
1070
     4
1070
   177
1070
     4
1070
   178
1070
     4
1070
   271
1070
     0
1070
   272
1070
     2
1070
   341
1005
6D
1070
   343
1005
6D
1070
   344
1005
6D
1002
}
1000
LEANOF
1010
0.0
1020
0.0
1030
0.0
  0
DIMENSION
  5
A79D
330
1A
100
AcDbEntity
  8
SUNPOU
100
AcDbDimension
  2
*D15
 10
554.698835739703
 20
429.2130160403037
 30
0.0
 11
540.1988357397028
 21
434.2130160403037
 31
0.0
 70
    32
 71
     5
 42
-1.0
  3
STANDARD
100
AcDbAlignedDimension
 13
525.6988357397029
 23
401.5137110403038
 33
0.0
 14
554.698835739703
 24
401.5137110403038
 34
0.0
100
AcDbRotatedDimension
1001
ACAD
1000
DSTYLE
1002
{
1070
   140
1040
6.0
1070
    74
1070
     0
1070
   172
1070
     1
1070
    73
1070
     0
1070
   272
1070
     2
1070
    77
1070
     3
1070
   173
1070
     1
1070
   147
1040
2.0
1070
    42
1040
6.0
1070
    44
1040
3.0
1070
    43
1040
14.0
1070
   271
1070
     0
1070
   178
1070
     4
1070
   177
1070
     4
1070
   176
1070
     4
1070
   141
1040
150.0
1070
     7
1000
_OPEN
1070
     6
1000
_OPEN
1070
    41
1040
7.0
1002
}
  0
LINE
  5
A79E
330
1A
100
AcDbEntity
  8
SEIHIN
100
AcDbLine
 10
525.6988357397029
 20
401.5137110403038
 30
0.0
 11
554.698835739703
 21
401.5137110403038
 31
0.0
  0
DIMENSION
  5
A79F
330
1A
100
AcDbEntity
  8
SUNPOU
100
AcDbDimension
  2
*D16
 10
503.9222674472727
 20
386.5137110403038
 30
0.0
 11
498.9222674472727
 21
394.0137110403038
 31
0.0
 70
    32
 71
     5
 42
-1.0
  3
STANDARD
100
AcDbAlignedDimension
 13
525.6988357397029
 23
401.5137110403038
 33
0.0
 14
520.4289357397028
 24
386.5137110403038
 34
0.0
 50
90.0
100
AcDbRotatedDimension
1001
ACAD
1000
DSTYLE
1002
{
1070
   140
1040
6.0
1070
    74
1070
     0
1070
   172
1070
     1
1070
    73
1070
     0
1070
   272
1070
     2
1070
    77
1070
     3
1070
   173
1070
     1
1070
   147
1040
2.0
1070
    42
1040
6.0
1070
    44
1040
3.0
1070
    43
1040
14.0
1070
   271
1070
     0
1070
   178
1070
     4
1070
   177
1070
     4
1070
   176
1070
     4
1070
   141
1040
150.0
1070
     7
1000
_OPEN
1070
     6
1000
_OPEN
1070
    41
1040
7.0
1002
}
  0
DIMENSION
  5
A7A0
330
1A
100
AcDbEntity
  8
SUNPOU
100
AcDbDimension
  2
*D17
 10
503.8802857397029
 20
341.5137110403037
 30
0.0
 11
498.8802857397028
 21
364.0137110403038
 31
0.0
 70
    32
 71
     5
 42
-1.0
  3
STANDARD
100
AcDbAlignedDimension
 13
520.4289357397028
 23
386.5137110403038
 33
0.0
 14
520.4289357397028
 24
341.5137110403037
 34
0.0
 50
90.0
100
AcDbRotatedDimension
1001
ACAD
1000
DSTYLE
1002
{
1070
   287
1070
     4
1070
   287
1070
     4
1070
   287
1070
     4
1070
   287
1070
     4
1070
   287
1070
     4
1070
   287
1070
     4
1070
   287
1070
     4
1070
   287
1070
     4
1070
   287
1070
     4
1070
   287
1070
     4
1070
    41
1040
7.0
1070
    42
1040
6.0
1070
    43
1040
14.0
1070
    44
1040
3.0
1070
    73
1070
     0
1070
    74
1070
     0
1070
    75
1070
     1
1070
    77
1070
     3
1070
   140
1040
6.0
1070
   141
1040
150.0
1070
   147
1040
2.0
1070
   172
1070
     1
1070
   173
1070
     1
1070
   176
1070
     4
1070
   177
1070
     4
1070
   178
1070
     4
1070
   271
1070
     0
1070
   272
1070
     2
1070
   279
1070
     1
1070
     6
1000
OPEN
1070
     7
1000
OPEN
1002
}
  0
DIMENSION
  5
A7A1
330
1A
100
AcDbEntity
  8
SUNPOU
100
AcDbDimension
  2
*D18
 10
503.8802857397029
 20
311.5137110403038
 30
0.0
 11
498.8802857397028
 21
326.5137110403038
 31
0.0
 70
    32
 71
     5
 42
-1.0
  3
STANDARD
100
AcDbAlignedDimension
 13
520.4289357397028
 23
341.5137110403037
 33
0.0
 14
520.4289357397028
 24
311.5137110403038
 34
0.0
 50
90.0
100
AcDbRotatedDimension
1001
ACAD
1000
DSTYLE
1002
{
1070
   287
1070
     4
1070
   287
1070
     4
1070
   287
1070
     4
1070
   287
1070
     4
1070
   287
1070
     4
1070
   287
1070
     4
1070
   287
1070
     4
1070
   287
1070
     4
1070
   287
1070
     4
1070
   287
1070
     4
1070
    41
1040
7.0
1070
    42
1040
6.0
1070
    43
1040
14.0
1070
    44
1040
3.0
1070
    73
1070
     0
1070
    74
1070
     0
1070
    75
1070
     1
1070
    77
1070
     3
1070
   140
1040
6.0
1070
   141
1040
150.0
1070
   147
1040
2.0
1070
   172
1070
     1
1070
   173
1070
     1
1070
   176
1070
     4
1070
   177
1070
     4
1070
   178
1070
     4
1070
   271
1070
     0
1070
   272
1070
     2
1070
   279
1070
     1
1070
     6
1000
OPEN
1070
     7
1000
OPEN
1002
}
  0
MTEXT
  5
A7A2
330
1A
100
AcDbEntity
  8
SUNPOU
100
AcDbMText
 10
495.2067737397026
 20
436.8505760403038
 30
0.0
 40
6.0
 41
0.0
 71
     9
 72
     5
  1
3-φ8.5
 73
     1
 44
1.0
1001
ACAD
1000
MTEXTBEGIN
1070
    73
1070
     1
1070
    44
1040
1.0
1070
    74
1070
     0
1000
MTEXTEND
1000
MTEXTBEGIN
1070
    73
1070
     1
1070
    44
1040
1.0
1070
    74
1070
     0
1000
MTEXTEND
1000
MTEXTBEGIN
1070
    73
1070
     1
1070
    44
1040
1.0
1070
    74
1070
     0
1000
MTEXTEND
1000
MTEXTBEGIN
1070
    73
1070
     1
1070
    44
1040
1.0
1070
    74
1070
     0
1000
MTEXTEND
1000
MTEXTBEGIN
1070
    73
1070
     1
1070
    44
1040
1.0
1070
    74
1070
     0
1000
MTEXTEND
1000
MTEXTBEGIN
1070
    73
1070
     1
1070
    44
1040
1.0
1070
    74
1070
     0
1000
MTEXTEND
1000
MTEXTBEGIN
1070
    73
1070
     1
1070
    44
1040
1.0
1070
    74
1070
     0
1000
MTEXTEND
1000
MTEXTBEGIN
1070
    73
1070
     1
1070
    44
1040
1.0
1070
    74
1070
     0
1000
MTEXTEND
1000
MTEXTBEGIN
1070
    73
1070
     1
1070
    44
1040
1.0
1070
    74
1070
     0
1000
MTEXTEND
1000
MTEXTBEGIN
1070
    73
1070
     1
1070
    44
1040
1.0
1070
    74
1070
     0
1000
MTEXTEND
  0
ARC
  5
A7A3
330
1A
100
AcDbEntity
  8
SEIHIN
100
AcDbCircle
 10
540.1988357397028
 20
311.5137110403038
 30
0.0
 40
4.25
100
AcDbArc
 50
0.0
 51
180.0
  0
ARC
  5
A7A4
330
1A
100
AcDbEntity
  8
SEIHIN
100
AcDbCircle
 10
540.1989357397028
 20
341.5137110403037
 30
0.0
 40
4.25
100
AcDbArc
 50
0.0
 51
180.0
  0
ARC
  5
A7A5
330
1A
100
AcDbEntity
  8
SEIHIN
100
AcDbCircle
 10
540.1989357397028
 20
341.5137110403037
 30
0.0
 40
4.25
100
AcDbArc
 50
180.0
 51
0.0
  0
ARC
  5
A7A6
330
1A
100
AcDbEntity
  8
SEIHIN
100
AcDbCircle
 10
540.1990357397028
 20
386.5137110403038
 30
0.0
 40
4.25
100
AcDbArc
 50
0.0
 51
180.0
  0
ARC
  5
A7A7
330
1A
100
AcDbEntity
  8
SEIHIN
100
AcDbCircle
 10
540.1990357397028
 20
386.5137110403038
 30
0.0
 40
4.25
100
AcDbArc
 50
180.0
 51
0.0
  0
DIMENSION
  5
A7A8
330
1A
100
AcDbEntity
  8
SUNPOU
100
AcDbDimension
  2
*D19
 10
444.5617394445255
 20
507.1889611057679
 30
0.0
 11
439.5617394445253
 21
522.1889611057681
 31
0.0
 70
    32
 71
     5
 42
-1.0
  3
STANDARD
100
AcDbAlignedDimension
 13
416.5114645719183
 23
537.1889611057679
 33
0.0
 14
416.5114645719183
 24
507.1889611057679
 34
0.0
 50
90.0
100
AcDbRotatedDimension
1001
ACAD
1000
DSTYLE
1002
{
1070
    41
1040
7.0
1070
    42
1040
6.0
1070
    43
1040
14.0
1070
    44
1040
3.0
1070
    73
1070
     0
1070
    74
1070
     0
1070
    77
1070
     3
1070
   140
1040
6.0
1070
   141
1040
150.0
1070
   147
1040
2.0
1070
   172
1070
     1
1070
   173
1070
     1
1070
   176
1070
   256
1070
   177
1070
   256
1070
   178
1070
   256
1070
   271
1070
     0
1070
   272
1070
     0
1070
   341
1005
6D
1070
     6
1000
OPEN
1070
     7
1000
OPEN
1070
   371
1070
    -1
1070
   372
1070
    -1
1002
}
  0
LINE
  5
A7A9
330
1A
100
AcDbEntity
  8
SEIHIN
100
AcDbLine
 10
418.3114645719183
 20
511.9889611057678
 30
0.0
 11
418.3114645718258
 21
532.3889611057678
 31
0.0
  0
ARC
  5
A7AA
330
1A
100
AcDbEntity
  8
SEIHIN
100
AcDbCircle
 10
417.0114645719183
 20
510.1889611057679
 30
0.0
 40
0.5
100
AcDbArc
 50
90.0
 51
180.0
  0
LINE
  5
A7AB
330
1A
100
AcDbEntity
  8
SEIHIN
100
AcDbLine
 10
416.5114645719183
 20
507.1889611057681
 30
0.0
 11
416.5114645720113
 21
510.1889611057996
 31
0.0
  0
ARC
  5
A7AC
330
1A
100
AcDbEntity
  8
SEIHIN
100
AcDbCircle
 10
417.0114645719183
 20
511.9889611057678
 30
0.0
 40
1.3
100
AcDbArc
 50
270.0
 51
0.0
  0
LINE
  5
A7AD
330
1A
100
AcDbEntity
  8
SEIHIN
100
AcDbLine
 10
416.5114645719183
 20
537.1889611057681
 30
0.0
 11
416.5114645720113
 21
534.1889611057363
 31
0.0
  0
ARC
  5
A7AE
330
1A
100
AcDbEntity
  8
SEIHIN
100
AcDbCircle
 10
417.0114645719183
 20
534.1889611057681
 30
0.0
 40
0.5
100
AcDbArc
 50
180.0
 51
270.0000000106824
  0
ARC
  5
A7AF
330
1A
100
AcDbEntity
  8
SEIHIN
100
AcDbCircle
 10
417.0114645719183
 20
532.3889611057678
 30
0.0
 40
1.3
100
AcDbArc
 50
0.0
 51
89.99999999588331
  0
TEXT
  5
AB10
330
1A
100
AcDbEntity
  8
MOJI
100
AcDbText
 10
250.4198637045059
 20
18.75968600693473
 30
0.0
 40
5.599999999999998
  1
Ｖ３００－Ｌ１７０
 41
0.9
  7
ｽﾀｲﾙ1
100
AcDbText
  0
LINE
  5
AD12
330
1A
100
AcDbEntity
  8
SEIHIN
100
AcDbLine
 10
212.8114645719183
 20
99.50347323556924
 30
0.0
 11
215.4940481436555
 21
99.50347323556924
 31
0.0
  0
LINE
  5
AD13
330
1A
100
AcDbEntity
  8
SEIHIN
100
AcDbLine
 10
222.3114648194179
 20
72.20347323556914
 30
0.0
 11
213.3114645719182
 21
72.20347323556914
 31
0.0
  0
LINE
  5
AD14
330
1A
100
AcDbEntity
  8
SEIHIN
100
AcDbLine
 10
215.4940481436184
 20
74.90347323556919
 30
0.0
 11
212.8114645718951
 21
74.90347323556919
 31
0.0
  0
LINE
  5
AD15
330
1A
100
AcDbEntity
  8
SEIHIN
100
AcDbLine
 10
213.3114645719182
 20
72.20347323556914
 30
0.0
 11
407.5114642793431
 21
72.20347323556914
 31
0.0
  0
LINE
  5
AD16
330
1A
100
AcDbEntity
  8
SEIHIN
100
AcDbLine
 10
407.5114642006179
 20
102.203473235569
 30
0.0
 11
213.3114645719182
 21
102.203473235569
 31
0.0
  0
LINE
  5
AD17
330
1A
100
AcDbEntity
  8
CENTER_L
 48
5.0
100
AcDbLine
 10
204.5114645719416
 20
87.20347323556927
 30
0.0
 11
425.311464571907
 21
87.20347323556914
 31
0.0
  0
ARC
  5
AD1C
330
1A
100
AcDbEntity
  8
SEIHIN
100
AcDbCircle
 10
212.8114645719183
 20
76.20347323556917
 30
0.0
 40
1.3
100
AcDbArc
 50
180.0
 51
269.9999999989708
  0
ARC
  5
AD1D
330
1A
100
AcDbEntity
  8
SEIHIN
100
AcDbCircle
 10
212.8114645719183
 20
74.40347323556919
 30
0.0
 40
0.5
100
AcDbArc
 50
0.0
 51
90.00000000265762
  0
LINE
  5
AD1E
330
1A
100
AcDbEntity
  8
SEIHIN
100
AcDbLine
 10
213.3114645719182
 20
72.20347323556914
 30
0.0
 11
213.3114645718951
 21
74.40347323556919
 31
0.0
  0
LINE
  5
AD20
330
1A
100
AcDbEntity
  8
SEIHIN
100
AcDbLine
 10
211.5114645719184
 20
76.20347323556917
 30
0.0
 11
211.5114645719646
 21
98.20347323556916
 31
0.0
  0
LINE
  5
AD21
330
1A
100
AcDbEntity
  8
SEIHIN
100
AcDbLine
 10
213.3114645719182
 20
102.203473235569
 30
0.0
 11
213.3114645718951
 21
100.0034732355692
 31
0.0
  0
ARC
  5
AD22
330
1A
100
AcDbEntity
  8
SEIHIN
100
AcDbCircle
 10
212.8114645719183
 20
98.20347323556916
 30
0.0
 40
1.3
100
AcDbArc
 50
90.0
 51
180.0
  0
ARC
  5
AD23
330
1A
100
AcDbEntity
  8
SEIHIN
100
AcDbCircle
 10
212.8114645719183
 20
100.0034732355692
 30
0.0
 40
0.5
100
AcDbArc
 50
270.0
 51
0.0
  0
LINE
  5
AD2C
330
1A
100
AcDbEntity
  8
SEIHIN
 48
5.0
100
AcDbLine
 10
388.7255870034974
 20
72.70347323556915
 30
0.0
 11
388.7255870034974
 21
76.40347323556909
 31
0.0
  0
LINE
  5
AD2D
330
1A
100
AcDbEntity
  8
SEIHIN
 48
5.0
100
AcDbLine
 10
380.0080760797591
 20
72.70347323556915
 30
0.0
 11
380.0080760797591
 21
76.40347323556909
 31
0.0
  0
ARC
  5
AD2E
330
1A
100
AcDbEntity
  8
SEIHIN
100
AcDbCircle
 10
417.0114645719183
 20
76.20347323556917
 30
0.0
 40
1.3
100
AcDbArc
 50
270.0
 51
0.0
  0
ARC
  5
AD2F
330
1A
100
AcDbEntity
  8
SEIHIN
100
AcDbCircle
 10
417.0114645719183
 20
74.40347323556919
 30
0.0
 40
0.5
100
AcDbArc
 50
90.0
 51
180.0
  0
LINE
  5
AD30
330
1A
100
AcDbEntity
  8
SEIHIN
100
AcDbLine
 10
405.5114645719184
 20
79.10347323556937
 30
0.0
 11
405.5114645720113
 21
74.20347323556915
 31
0.0
  0
LINE
  5
AD31
330
1A
100
AcDbEntity
  8
SEIHIN
100
AcDbLine
 10
325.9114645719528
 20
96.89071408628748
 30
0.0
 11
325.9114645719528
 21
72.70347323556915
 31
0.0
  0
LINE
  5
AD32
330
1A
100
AcDbEntity
  8
SEIHIN
100
AcDbLine
 10
303.9114645719527
 20
75.67748519772203
 30
0.0
 11
303.9114645719528
 21
72.70347323556915
 31
0.0
  0
LINE
  5
AD33
330
1A
100
AcDbEntity
  8
CENTER_L
 48
5.0
100
AcDbLine
 10
314.9114645719529
 20
109.2034732355692
 30
0.0
 11
314.9114645719528
 21
65.20347323556915
 31
0.0
  0
LINE
  5
AD34
330
1A
100
AcDbEntity
  8
SEIHIN
100
AcDbLine
 10
224.3114645719182
 20
100.203473235569
 30
0.0
 11
224.3114645719415
 21
74.20347323556915
 31
0.0
  0
ARC
  5
AD35
330
1A
100
AcDbEntity
  8
SEIHIN
100
AcDbCircle
 10
222.3114645719182
 20
74.20347323556915
 30
0.0
 40
2.0
100
AcDbArc
 50
270.0000070884994
 51
0.0
  0
LINE
  5
AD36
330
1A
100
AcDbEntity
  8
SEIHIN
100
AcDbLine
 10
303.9114645719528
 20
72.70347323556915
 30
0.0
 11
325.9114645719526
 21
72.70347323556915
 31
0.0
  0
LINE
  5
AD37
330
1A
100
AcDbEntity
  8
SEIHIN
100
AcDbLine
 10
407.5114642792179
 20
72.20347323556914
 30
0.0
 11
416.5114645719183
 21
72.20347323556914
 31
0.0
  0
ARC
  5
AD38
330
1A
100
AcDbEntity
  8
SEIHIN
100
AcDbCircle
 10
407.5114645719184
 20
74.20347323556915
 30
0.0
 40
2.0
100
AcDbArc
 50
180.0
 51
269.9999916183335
  0
LINE
  5
AD39
330
1A
100
AcDbEntity
  8
SEIHIN
100
AcDbLine
 10
416.5114645719183
 20
72.20347323556914
 30
0.0
 11
416.511464572058
 21
74.40347323556919
 31
0.0
  0
LINE
  5
AD3A
330
1A
100
AcDbEntity
  8
SEIHIN
100
AcDbLine
 10
326.4699128160593
 20
97.50347323556923
 30
0.0
 11
384.6739328952029
 21
97.50347323556923
 31
0.0
  0
LINE
  5
AD3B
330
1A
100
AcDbEntity
  8
SEIHIN
 62
     3
 48
5.0
100
AcDbLine
 10
345.661465030024
 20
90.4534732355688
 30
0.0
 11
325.9114645719528
 21
90.45347323556903
 31
0.0
  0
LINE
  5
AD3C
330
1A
100
AcDbEntity
  8
SEIHIN
 62
     3
 48
5.0
100
AcDbLine
 10
345.6614647755236
 20
83.95347323556881
 30
0.0
 11
325.9114645719528
 21
83.95347323556894
 31
0.0
  0
LINE
  5
AD50
330
1A
100
AcDbEntity
  8
SEIHIN
100
AcDbLine
 10
248.5535341741595
 20
97.50347323556923
 30
0.0
 11
303.9114645719525
 21
97.50347323556923
 31
0.0
  0
LINE
  5
AD51
330
1A
100
AcDbEntity
  8
SEIHIN
100
AcDbLine
 10
248.5535341741602
 20
76.90347323556919
 30
0.0
 11
303.3530163277891
 21
76.90347323556919
 31
0.0
  0
LINE
  5
AD53
330
1A
100
AcDbEntity
  8
SEIHIN
 48
5.0
100
AcDbLine
 10
251.4477129491146
 20
95.53633983424477
 30
0.0
 11
237.1604502250711
 21
98.20347323556916
 31
0.0
  0
LINE
  5
AD54
330
1A
100
AcDbEntity
  8
SEIHIN
 48
5.0
100
AcDbLine
 10
259.9736445285931
 20
96.20347323570769
 30
0.0
 11
242.4042439826563
 21
98.20347323556916
 31
0.0
  0
LINE
  5
AD55
330
1A
100
AcDbEntity
  8
SEIHIN
 48
5.0
100
AcDbLine
 10
251.4477129491146
 20
78.87060663689355
 30
0.0
 11
237.1604502250713
 21
76.20347323556917
 31
0.0
  0
LINE
  5
AD56
330
1A
100
AcDbEntity
  8
SEIHIN
 48
5.0
100
AcDbLine
 10
259.9736445285931
 20
78.20347323543064
 30
0.0
 11
242.4042439826561
 21
76.20347323556917
 31
0.0
  0
ARC
  5
AD57
330
1A
100
AcDbEntity
  8
SEIHIN
 48
5.0
100
AcDbCircle
 10
292.8811834662253
 20
87.20347323594349
 30
0.0
 40
64.86971889422495
100
AcDbArc
 50
170.2371436705027
 51
189.7628563301663
  0
LINE
  5
AD58
330
1A
100
AcDbEntity
  8
SEIHIN
 48
5.0
100
AcDbLine
 10
228.9509055894044
 20
76.20347323556917
 30
0.0
 11
242.4042439826559
 21
76.20347323556917
 31
0.0
  0
LINE
  5
AD59
330
1A
100
AcDbEntity
  8
SEIHIN
100
AcDbLine
 10
224.3114645719182
 20
76.90347323556919
 30
0.0
 11
228.8344003353916
 21
76.90347323556919
 31
0.0
  0
LINE
  5
AD5A
330
1A
100
AcDbEntity
  8
SEIHIN
100
AcDbLine
 10
224.3114645719182
 20
97.50347323556923
 30
0.0
 11
228.8344003352711
 21
97.50347323556923
 31
0.0
  0
LINE
  5
AD5B
330
1A
100
AcDbEntity
  8
SEIHIN
 48
5.0
100
AcDbLine
 10
228.9509055892755
 20
98.20347323556916
 30
0.0
 11
242.4042439826561
 21
98.20347323556916
 31
0.0
  0
ARC
  5
AD5C
330
1A
100
AcDbEntity
  8
SEIHIN
100
AcDbCircle
 10
222.3114645719182
 20
100.203473235569
 30
0.0
 40
2.0
100
AcDbArc
 50
0.0
 51
89.99999999933562
  0
LINE
  5
AD5D
330
1A
100
AcDbEntity
  8
SEIHIN
 48
5.0
100
AcDbLine
 10
256.5794295977762
 20
101.703473235569
 30
0.0
 11
256.5794295977762
 21
98.00347323556923
 31
0.0
  0
LINE
  5
AD5E
330
1A
100
AcDbEntity
  8
SEIHIN
 48
5.0
100
AcDbLine
 10
249.1240261164552
 20
101.703473235569
 30
0.0
 11
249.1240261164552
 21
98.00347323556923
 31
0.0
  0
CIRCLE
  5
AD5F
330
1A
100
AcDbEntity
  8
SEIHIN
 48
5.0
100
AcDbCircle
 10
266.5114645719459
 20
87.20347323556914
 30
0.0
 40
3.0
  0
LINE
  5
AD60
330
1A
100
AcDbEntity
  8
SEIHIN
 48
5.0
100
AcDbLine
 10
259.9736445285931
 20
96.20347323556906
 30
0.0
 11
270.0114645719458
 21
96.20347323556906
 31
0.0
  0
LINE
  5
AD61
330
1A
100
AcDbEntity
  8
SEIHIN
 48
5.0
100
AcDbLine
 10
259.9736445285931
 20
78.20347323556926
 30
0.0
 11
270.0114645719458
 21
78.20347323556926
 31
0.0
  0
LINE
  5
AD62
330
1A
100
AcDbEntity
  8
SEIHIN
 48
5.0
100
AcDbLine
 10
252.1133417484545
 20
79.67199337820905
 30
0.0
 11
252.1133417485275
 21
94.73495309292928
 31
0.0
  0
LINE
  5
AD63
330
1A
100
AcDbEntity
  8
SEIHIN
 48
5.0
100
AcDbLine
 10
259.973644528643
 20
78.88060098913484
 30
0.0
 11
259.973644528595
 21
95.52634548200348
 31
0.0
  0
LINE
  5
AD64
330
1A
100
AcDbEntity
  8
SEIHIN
 48
5.0
100
AcDbLine
 10
259.2999228907895
 20
78.27130499629305
 30
0.0
 11
252.7870633875521
 21
78.92703386391969
 31
0.0
  0
LINE
  5
AD65
330
1A
100
AcDbEntity
  8
SEIHIN
 48
5.0
100
AcDbLine
 10
259.2999228907895
 20
96.13564147484527
 30
0.0
 11
252.7870633875521
 21
95.47991260721865
 31
0.0
  0
CIRCLE
  5
AD66
330
1A
100
AcDbEntity
  8
SEIHIN
 48
5.0
100
AcDbCircle
 10
266.5114645719459
 20
87.20347323556914
 30
0.0
 40
2.350000000000021
  0
LINE
  5
AD67
330
1A
100
AcDbEntity
  8
SEIHIN
 48
5.0
100
AcDbLine
 10
271.511464571946
 20
79.70347323556905
 30
0.0
 11
271.5114645719459
 21
94.70347323556906
 31
0.0
  0
ARC
  5
AD68
330
1A
100
AcDbEntity
  8
SEIHIN
 48
5.0
100
AcDbCircle
 10
270.011464571946
 20
79.70347323556905
 30
0.0
 40
1.5
100
AcDbArc
 50
270.0
 51
0.0
  0
ARC
  5
AD69
330
1A
100
AcDbEntity
  8
SEIHIN
 48
5.0
100
AcDbCircle
 10
270.0114645719458
 20
94.70347323556906
 30
0.0
 40
1.5
100
AcDbArc
 50
0.0
 51
90.0
  0
ARC
  5
AD72
330
1A
100
AcDbEntity
  8
SEIHIN
 62
     3
 48
5.0
100
AcDbCircle
 10
314.9114645719243
 20
87.20347323556927
 30
0.0
 40
8.062492731389966
100
AcDbArc
 50
52.12480761171215
 51
217.8751923882872
  0
CIRCLE
  5
AD73
330
1A
100
AcDbEntity
  8
SEIHIN
 62
     3
 48
5.0
100
AcDbCircle
 10
314.9114645719243
 20
87.20347323556927
 30
0.0
 40
5.000031057389832
  0
CIRCLE
  5
AD74
330
1A
100
AcDbEntity
  8
SEIHIN
 62
     3
 48
5.0
100
AcDbCircle
 10
314.9114645719243
 20
87.20347323556927
 30
0.0
 40
3.000010200349834
  0
CIRCLE
  5
AD75
330
1A
100
AcDbEntity
  8
SEIHIN
 62
     3
 48
5.0
100
AcDbCircle
 10
314.9114645719243
 20
87.20347323556927
 30
0.0
 40
2.500010196249832
  0
LINE
  5
AD76
330
1A
100
AcDbEntity
  8
SEIHIN
100
AcDbLine
 10
303.9114645719528
 20
101.703473235569
 30
0.0
 11
325.9114645719528
 21
101.703473235569
 31
0.0
  0
LINE
  5
AD77
330
1A
100
AcDbEntity
  8
SEIHIN
100
AcDbLine
 10
306.5256781342974
 20
77.40347323556919
 30
0.0
 11
325.9114645719528
 21
77.40347323556919
 31
0.0
  0
LINE
  5
AD78
330
1A
100
AcDbEntity
  8
SEIHIN
100
AcDbLine
 10
303.9114645719528
 20
97.00347323556924
 30
0.0
 11
323.2972510095513
 21
97.00347323556924
 31
0.0
  0
ARC
  5
AD79
330
1A
100
AcDbEntity
  8
SEIHIN
 62
     3
 48
5.0
100
AcDbCircle
 10
314.9114645719243
 20
87.20347323556927
 30
0.0
 40
8.062492731389966
100
AcDbArc
 50
232.1248076117131
 51
37.87519238828098
  0
LINE
  5
AD7A
330
1A
100
AcDbEntity
  8
SEIHIN
100
AcDbLine
 10
303.9114645719525
 20
101.703473235569
 30
0.0
 11
303.9114645719527
 21
77.51623238487514
 31
0.0
  0
LINE
  5
AD7B
330
1A
100
AcDbEntity
  8
SEIHIN
 62
     3
 48
5.0
100
AcDbLine
 10
284.1614641138243
 20
90.45347323556903
 30
0.0
 11
303.9114645719529
 21
90.4534732355693
 31
0.0
  0
LINE
  5
AD7C
330
1A
100
AcDbEntity
  8
SEIHIN
 62
     3
 48
5.0
100
AcDbLine
 10
284.1614643683247
 20
83.95347323556904
 30
0.0
 11
303.9114645719528
 21
83.95347323556904
 31
0.0
  0
ARC
  5
AD7D
330
1A
100
AcDbEntity
  8
SEIHIN
 62
     3
 48
5.0
100
AcDbCircle
 10
284.1614645719241
 20
87.20347323556906
 30
0.0
 40
3.25
100
AcDbArc
 50
90.00000807589669
 51
269.9999964124987
  0
ARC
  5
AD7E
330
1A
100
AcDbEntity
  8
SEIHIN
 62
     3
 48
5.0
100
AcDbCircle
 10
284.1614645719241
 20
87.20347323556906
 30
0.0
 40
3.25
100
AcDbArc
 50
90.0
 51
270.0
  0
ARC
  5
AD7F
330
1A
100
AcDbEntity
  8
SEIHIN
 62
     3
 48
5.0
100
AcDbCircle
 10
284.1614645719241
 20
87.20347323556906
 30
0.0
 40
3.25
100
AcDbArc
 50
90.0
 51
270.0
  0
ARC
  5
AD80
330
1A
100
AcDbEntity
  8
SEIHIN
 62
     3
 48
5.0
100
AcDbCircle
 10
284.1614645719241
 20
87.20347323556906
 30
0.0
 40
3.25
100
AcDbArc
 50
90.0
 51
270.0
  0
ARC
  5
AD81
330
1A
100
AcDbEntity
  8
SEIHIN
 62
     3
 48
5.0
100
AcDbCircle
 10
304.3048501276537
 20
76.59685879129859
 30
0.0
 40
1.0
100
AcDbArc
 50
135.0
 51
315.0
  0
LINE
  5
AD82
330
1A
100
AcDbEntity
  8
SEIHIN
 62
     3
 48
5.0
100
AcDbLine
 10
303.5977433464671
 20
77.30396557248514
 30
0.0
 11
310.7402337618626
 21
84.44645598788042
 31
0.0
  0
LINE
  5
AD83
330
1A
100
AcDbEntity
  8
SEIHIN
 62
     3
 48
5.0
100
AcDbLine
 10
305.0119569088403
 20
75.88975201011203
 30
0.0
 11
312.1544473242356
 21
83.03224242550731
 31
0.0
  0
ARC
  5
AD84
330
1A
100
AcDbEntity
  8
SEIHIN
 62
     3
 48
5.0
100
AcDbCircle
 10
325.5180790161946
 20
97.81008767983951
 30
0.0
 40
1.0
100
AcDbArc
 50
315.0
 51
135.0
  0
LINE
  5
AD85
330
1A
100
AcDbEntity
  8
SEIHIN
 62
     3
 48
5.0
100
AcDbLine
 10
324.8109722350078
 20
98.51719446102594
 30
0.0
 11
317.6684818196126
 21
91.37470404563066
 31
0.0
  0
LINE
  5
AD86
330
1A
100
AcDbEntity
  8
SEIHIN
 62
     3
 48
5.0
100
AcDbLine
 10
326.2251857973809
 20
97.10298089865284
 30
0.0
 11
319.0826953819858
 21
89.96049048325756
 31
0.0
  0
LINE
  5
AD87
330
1A
100
AcDbEntity
  8
SEIHIN
100
AcDbLine
 10
325.9114645719528
 20
101.703473235569
 30
0.0
 11
325.9114645719528
 21
98.72946127339156
 31
0.0
  0
LINE
  5
ADEF
330
1A
100
AcDbEntity
  8
SEIHIN
100
AcDbLine
 10
407.5114645719184
 20
102.203473235569
 30
0.0
 11
416.5114645719183
 21
102.203473235569
 31
0.0
  0
LINE
  5
ADF1
330
1A
100
AcDbEntity
  8
SEIHIN
 48
5.0
100
AcDbLine
 10
376.2110494954149
 20
96.20347323556915
 30
0.0
 11
389.2308701104724
 21
98.20347323556916
 31
0.0
  0
LINE
  5
ADF2
330
1A
100
AcDbEntity
  8
SEIHIN
 48
5.0
100
AcDbLine
 10
376.6163976405568
 20
96.15283044038887
 30
0.0
 11
383.0699987066472
 21
95.34653984579085
 31
0.0
  0
LINE
  5
ADF3
330
1A
100
AcDbEntity
  8
SEIHIN
 48
5.0
100
AcDbLine
 10
376.2110494955665
 20
78.20347323556915
 30
0.0
 11
389.2308701105371
 21
76.20347323556917
 31
0.0
  0
LINE
  5
ADF4
330
1A
100
AcDbEntity
  8
SEIHIN
 48
5.0
100
AcDbLine
 10
376.6163976407081
 20
78.25411603074882
 30
0.0
 11
383.0699987068149
 21
79.06040662533854
 31
0.0
  0
ARC
  5
ADF5
330
1A
100
AcDbEntity
  8
SEIHIN
 62
     3
 48
5.0
100
AcDbCircle
 10
345.6614645719241
 20
87.20347323556881
 30
0.0
 40
3.25
100
AcDbArc
 50
270.0
 51
90.0
  0
ARC
  5
ADF6
330
1A
100
AcDbEntity
  8
SEIHIN
 62
     3
 48
5.0
100
AcDbCircle
 10
345.6614645719241
 20
87.20347323556881
 30
0.0
 40
3.25
100
AcDbArc
 50
270.0
 51
90.0
  0
ARC
  5
ADF7
330
1A
100
AcDbEntity
  8
SEIHIN
 62
     3
 48
5.0
100
AcDbCircle
 10
345.6614645719241
 20
87.20347323556881
 30
0.0
 40
3.25
100
AcDbArc
 50
270.0
 51
90.0
  0
ARC
  5
ADF8
330
1A
100
AcDbEntity
  8
SEIHIN
 62
     3
 48
5.0
100
AcDbCircle
 10
345.6614645719241
 20
87.20347323556881
 30
0.0
 40
3.25
100
AcDbArc
 50
270.0000035875011
 51
89.99999192410328
  0
CIRCLE
  5
ADF9
330
1A
100
AcDbEntity
  8
SEIHIN
 48
5.0
100
AcDbCircle
 10
369.3114645719691
 20
87.20347323556914
 30
0.0
 40
2.350000000000021
  0
CIRCLE
  5
ADFA
330
1A
100
AcDbEntity
  8
SEIHIN
 48
5.0
100
AcDbCircle
 10
369.3114645719691
 20
87.20347323556914
 30
0.0
 40
3.0
  0
LINE
  5
ADFB
330
1A
100
AcDbEntity
  8
SEIHIN
 48
5.0
100
AcDbLine
 10
376.2110494955629
 20
78.61197269881654
 30
0.0
 11
376.2110494954185
 21
95.79497377232176
 31
0.0
  0
LINE
  5
ADFC
330
1A
100
AcDbEntity
  8
SEIHIN
 48
5.0
100
AcDbLine
 10
364.3114645719691
 20
79.70347323556914
 30
0.0
 11
364.3114645719693
 21
94.70347323556914
 31
0.0
  0
LINE
  5
ADFD
330
1A
100
AcDbEntity
  8
SEIHIN
 48
5.0
100
AcDbLine
 10
365.8114645719691
 20
78.20347323556915
 30
0.0
 11
376.2110494955665
 21
78.20347323556915
 31
0.0
  0
ARC
  5
ADFE
330
1A
100
AcDbEntity
  8
SEIHIN
 48
5.0
100
AcDbCircle
 10
365.8114645719691
 20
79.70347323556914
 30
0.0
 40
1.5
100
AcDbArc
 50
179.9999999999983
 51
270.0
  0
LINE
  5
ADFF
330
1A
100
AcDbEntity
  8
SEIHIN
 48
5.0
100
AcDbLine
 10
365.8114645719694
 20
96.20347323556915
 30
0.0
 11
376.2110494954149
 21
96.20347323556915
 31
0.0
  0
ARC
  5
AE00
330
1A
100
AcDbEntity
  8
SEIHIN
 48
5.0
100
AcDbCircle
 10
365.8114645719694
 20
94.70347323556914
 30
0.0
 40
1.5
100
AcDbArc
 50
90.0
 51
180.0
  0
LINE
  5
AE01
330
1A
100
AcDbEntity
  8
SEIHIN
 48
5.0
100
AcDbLine
 10
388.7255870034974
 20
101.703473235569
 30
0.0
 11
388.7255870034974
 21
98.00347323556923
 31
0.0
  0
LINE
  5
AE02
330
1A
100
AcDbEntity
  8
SEIHIN
 48
5.0
100
AcDbLine
 10
383.8669756774251
 20
95.41208084640057
 30
0.0
 11
393.2761167355776
 21
98.20347323556916
 31
0.0
  0
LINE
  5
AE03
330
1A
100
AcDbEntity
  8
SEIHIN
 48
5.0
100
AcDbLine
 10
380.0080760797591
 20
101.703473235569
 30
0.0
 11
380.0080760797591
 21
98.00347323556923
 31
0.0
  0
ARC
  5
AE04
330
1A
100
AcDbEntity
  8
SEIHIN
 48
5.0
100
AcDbCircle
 10
335.3417456778414
 20
87.20347323556914
 30
0.0
 40
64.86971889422495
100
AcDbArc
 50
350.2371436701691
 51
9.762856329830832
  0
LINE
  5
AE05
330
1A
100
AcDbEntity
  8
SEIHIN
100
AcDbLine
 10
405.5114645719184
 20
95.30347323556918
 30
0.0
 11
405.5114645720113
 21
100.203473235569
 31
0.0
  0
LINE
  5
AE06
330
1A
100
AcDbEntity
  8
SEIHIN
 48
5.0
100
AcDbLine
 10
389.2308701105373
 20
76.20347323556917
 30
0.0
 11
399.2720235547266
 21
76.20347323556917
 31
0.0
  0
LINE
  5
AE07
330
1A
100
AcDbEntity
  8
SEIHIN
 48
5.0
100
AcDbLine
 10
383.4753468519523
 20
79.51954888376559
 30
0.0
 11
383.4753468517932
 21
94.88739758736313
 31
0.0
  0
LINE
  5
AE08
330
1A
100
AcDbEntity
  8
SEIHIN
 48
5.0
100
AcDbLine
 10
383.8669756775926
 20
78.99486562472714
 30
0.0
 11
393.2761167356148
 21
76.20347323556917
 31
0.0
  0
LINE
  5
AE09
330
1A
100
AcDbEntity
  8
SEIHIN
100
AcDbLine
 10
406.7114645719181
 20
92.20347323556914
 30
0.0
 11
406.711464571965
 21
82.20347323556914
 31
0.0
  0
LINE
  5
AE0A
330
1A
100
AcDbEntity
  8
SEIHIN
100
AcDbLine
 10
405.5114645719184
 20
92.20347323556914
 30
0.0
 11
405.5114645720113
 21
82.20347323556914
 31
0.0
  0
LINE
  5
AE0B
330
1A
100
AcDbEntity
  8
SEIHIN
100
AcDbLine
 10
399.3885288087353
 20
76.90347323556919
 30
0.0
 11
405.5114645720113
 21
76.90347323556919
 31
0.0
  0
ARC
  5
AE0C
330
1A
100
AcDbEntity
  8
SEIHIN
100
AcDbCircle
 10
406.0114645719184
 20
79.10347323556937
 30
0.0
 40
0.5
100
AcDbArc
 50
90.00000001594575
 51
180.0
  0
ARC
  5
AE0D
330
1A
100
AcDbEntity
  8
SEIHIN
100
AcDbCircle
 10
406.7114645719726
 20
80.90347323556919
 30
0.0
 40
1.30000000000001
100
AcDbArc
 50
270.0
 51
90.00000001061744
  0
LINE
  5
AE0E
330
1A
100
AcDbEntity
  8
SEIHIN
100
AcDbLine
 10
406.7114645719726
 20
79.60347323556937
 30
0.0
 11
406.0114645717791
 21
79.60347323556937
 31
0.0
  0
LINE
  5
AE0F
330
1A
100
AcDbEntity
  8
SEIHIN
100
AcDbLine
 10
408.5114644109181
 20
82.20347323556914
 30
0.0
 11
405.5114645720113
 21
82.20347323556914
 31
0.0
  0
LINE
  5
AE10
330
1A
100
AcDbEntity
  8
SEIHIN
100
AcDbLine
 10
399.3885288087353
 20
97.50347323556923
 30
0.0
 11
405.5114645720113
 21
97.50347323556923
 31
0.0
  0
ARC
  5
AE11
330
1A
100
AcDbEntity
  8
SEIHIN
100
AcDbCircle
 10
406.7114645719726
 20
93.50347323556936
 30
0.0
 40
1.30000000000001
100
AcDbArc
 50
270.0
 51
90.00000001061744
  0
LINE
  5
AE12
330
1A
100
AcDbEntity
  8
SEIHIN
100
AcDbLine
 10
408.5114643861182
 20
92.20347323556914
 30
0.0
 11
405.5114645720113
 21
92.20347323556914
 31
0.0
  0
LINE
  5
AE13
330
1A
100
AcDbEntity
  8
SEIHIN
100
AcDbLine
 10
406.7114645719726
 20
94.80347323556918
 30
0.0
 11
406.0114645717791
 21
94.80347323556918
 31
0.0
  0
ARC
  5
AE14
330
1A
100
AcDbEntity
  8
SEIHIN
100
AcDbCircle
 10
406.0114645719184
 20
95.30347323556918
 30
0.0
 40
0.5
100
AcDbArc
 50
180.0
 51
269.9999999840541
  0
LINE
  5
AE15
330
1A
100
AcDbEntity
  8
SEIHIN
 48
5.0
100
AcDbLine
 10
389.2308701104724
 20
98.20347323556916
 30
0.0
 11
399.2720235547266
 21
98.20347323556916
 31
0.0
  0
ARC
  5
AE16
330
1A
100
AcDbEntity
  8
SEIHIN
100
AcDbCircle
 10
407.5114645719184
 20
100.203473235569
 30
0.0
 40
2.0
100
AcDbArc
 50
90.00001063699619
 51
180.0
  0
LINE
  5
AE26
330
1A
100
AcDbEntity
  8
SEIHIN
100
AcDbLine
 10
418.3114645719183
 20
76.20347323556917
 30
0.0
 11
418.3114645721046
 21
98.20347323556916
 31
0.0
  0
LINE
  5
AE27
330
1A
100
AcDbEntity
  8
SEIHIN
100
AcDbLine
 10
414.3288810003182
 20
74.90347323556919
 30
0.0
 11
417.0114645720579
 21
74.90347323556919
 31
0.0
  0
LINE
  5
AE28
330
1A
100
AcDbEntity
  8
SEIHIN
100
AcDbLine
 10
416.5114645719183
 20
102.203473235569
 30
0.0
 11
416.511464572058
 21
100.0034732355692
 31
0.0
  0
ARC
  5
AE29
330
1A
100
AcDbEntity
  8
SEIHIN
100
AcDbCircle
 10
417.0114645719183
 20
98.20347323556916
 30
0.0
 40
1.3
100
AcDbArc
 50
0.0
 51
89.99999999383797
  0
LINE
  5
AE2A
330
1A
100
AcDbEntity
  8
SEIHIN
100
AcDbLine
 10
417.0114645719183
 20
99.50347323556924
 30
0.0
 11
414.3288810004133
 21
99.50347323556924
 31
0.0
  0
ARC
  5
AE2B
330
1A
100
AcDbEntity
  8
SEIHIN
100
AcDbCircle
 10
417.0114645719183
 20
100.0034732355692
 30
0.0
 40
0.5
100
AcDbArc
 50
180.0
 51
270.0000000159977
  0
LINE
  5
AE95
330
1A
100
AcDbEntity
  8
SEIHIN
100
AcDbLine
 10
249.6467533942105
 20
257.0843378164664
 30
0.0
 11
253.2444597557465
 21
244.5503815910898
 31
0.0
  0
LINE
  5
AE96
330
1A
100
AcDbEntity
  8
SEIHIN
100
AcDbLine
 10
249.1661853198291
 20
256.9463003775978
 30
0.0
 11
253.7435037295876
 21
240.999499051577
 31
0.0
  0
LINE
  5
AE97
330
1A
100
AcDbEntity
  8
SEIHIN
100
AcDbLine
 10
230.1937784348246
 20
259.8131331276038
 30
0.0
 11
238.1515363667241
 21
259.8131331276038
 31
0.0
  0
LINE
  5
AE98
330
1A
100
AcDbEntity
  8
SEIHIN
100
AcDbLine
 10
231.4095074348248
 20
260.3131331276038
 30
0.0
 11
247.4554821496321
 21
260.3131331276038
 31
0.0
  0
LINE
  5
AE99
330
1A
100
AcDbEntity
  8
SEIHIN
100
AcDbLine
 10
229.9095074348247
 20
261.8131331276038
 30
0.0
 11
229.9095074348339
 21
264.8131331276037
 31
0.0
  0
LINE
  5
AE9A
330
1A
100
AcDbEntity
  8
SEIHIN
100
AcDbLine
 10
228.1937784348246
 20
261.8131331276038
 30
0.0
 11
228.1937784349036
 21
264.8131331276037
 31
0.0
  0
LINE
  5
AE9B
330
1A
100
AcDbEntity
  8
SEIHIN
100
AcDbLine
 10
229.4095074348248
 20
261.8131331276038
 30
0.0
 11
229.4095074348343
 21
264.8131331276037
 31
0.0
  0
ARC
  5
AE9C
330
1A
100
AcDbEntity
  8
SEIHIN
100
AcDbCircle
 10
231.4095074348248
 20
261.8131331276038
 30
0.0
 40
1.5
100
AcDbArc
 50
179.9999999999966
 51
259.6901715535555
  0
ARC
  5
AE9D
330
1A
100
AcDbEntity
  8
SEIHIN
100
AcDbCircle
 10
231.4095074348248
 20
261.8131331276043
 30
0.0
 40
2.0
100
AcDbArc
 50
180.0000000000161
 51
261.5819526537609
  0
ARC
  5
AE9E
330
1A
100
AcDbEntity
  8
SEIHIN
100
AcDbCircle
 10
230.1937784348246
 20
261.8131331276043
 30
0.0
 40
2.0
100
AcDbArc
 50
180.0000000000161
 51
270.0000000022601
  0
LINE
  5
AE9F
330
1A
100
AcDbEntity
  8
SEIHIN
100
AcDbLine
 10
231.1369872893406
 20
260.3380965957494
 30
0.0
 11
231.2731533437228
 21
260.3131331276038
 31
0.0
  0
LINE
  5
AEA0
330
1A
100
AcDbEntity
  8
SEIHIN
100
AcDbLine
 10
231.2731533436698
 20
260.3131331276038
 30
0.0
 11
231.4095074348343
 21
260.3131331276038
 31
0.0
  0
LINE
  5
AEA1
330
1A
100
AcDbEntity
  8
SEIHIN
100
AcDbLine
 10
228.1937784348246
 20
264.8131331276037
 30
0.0
 11
229.9095074348339
 21
264.8131331276037
 31
0.0
  0
LINE
  5
AEA2
330
1A
100
AcDbEntity
  8
SEIHIN
100
AcDbLine
 10
238.1515363667241
 20
259.8131331276036
 30
0.0
 11
247.9949903787538
 21
258.0078486797864
 31
0.0
  0
LINE
  5
AEA3
330
1A
100
AcDbEntity
  8
SEIHIN
100
AcDbLine
 10
238.193778434825
 20
260.3131331276038
 30
0.0
 11
248.0850299172062
 21
258.4997594309446
 31
0.0
  0
ARC
  5
AEA4
330
1A
100
AcDbEntity
  8
SEIHIN
100
AcDbCircle
 10
247.7244041425453
 20
256.5324561595271
 30
0.0
 40
1.5
100
AcDbArc
 50
16.01542568644399
 51
79.60747497741427
  0
ARC
  5
AEA5
330
1A
100
AcDbEntity
  8
SEIHIN
100
AcDbCircle
 10
247.7243784911658
 20
256.5325455257057
 30
0.0
 40
2.0
100
AcDbArc
 50
16.01542568659991
 51
79.61126776609514
  0
ARC
  5
AEA6
330
1A
100
AcDbEntity
  8
SEIHIN
100
AcDbCircle
 10
247.4554821496316
 20
255.3131331276038
 30
0.0
 40
4.999999892672396
100
AcDbArc
 50
40.11843825718058
 51
89.99999999999348
  0
LINE
  5
AEA7
330
1A
100
AcDbEntity
  8
SEIHIN
100
AcDbLine
 10
379.6826036672817
 20
228.9743610673865
 30
0.0
 11
386.991889532279
 21
229.868771755069
 31
0.0
  0
LINE
  5
AEA8
330
1A
100
AcDbEntity
  8
SEIHIN
100
AcDbLine
 10
380.0119332426632
 20
229.405731711916
 30
0.0
 11
386.991889532279
 21
230.3131331276038
 31
0.0
  0
LINE
  5
AEA9
330
1A
100
AcDbEntity
  8
SEIHIN
100
AcDbLine
 10
386.991889532279
 20
229.8131331276038
 30
0.0
 11
380.2767590137696
 21
229.8131331276038
 31
0.0
  0
LINE
  5
AEAA
330
1A
100
AcDbEntity
  8
SEIHIN
100
AcDbLine
 10
395.2940608196012
 20
230.3131331276038
 30
0.0
 11
380.5491231912715
 21
230.3131331276038
 31
0.0
  0
LINE
  5
AEAB
330
1A
100
AcDbEntity
  8
SEIHIN
100
AcDbLine
 10
396.1519253195475
 20
229.8131331276038
 30
0.0
 11
386.991889532279
 21
229.8131331276038
 31
0.0
  0
LINE
  5
AEAC
330
1A
100
AcDbEntity
  8
SEIHIN
100
AcDbLine
 10
396.7940608195407
 20
234.8131331276038
 30
0.0
 11
398.1519253195338
 21
234.8131331276038
 31
0.0
  0
LINE
  5
AEAD
330
1A
100
AcDbEntity
  8
SEIHIN
100
AcDbLine
 10
396.7940608196012
 20
231.8131331276038
 30
0.0
 11
396.7940608195407
 21
234.8131331276038
 31
0.0
  0
LINE
  5
AEAE
330
1A
100
AcDbEntity
  8
SEIHIN
100
AcDbLine
 10
397.2940608196012
 20
231.8131331276038
 30
0.0
 11
397.2940608195407
 21
234.8131331276038
 31
0.0
  0
LINE
  5
AEAF
330
1A
100
AcDbEntity
  8
SEIHIN
100
AcDbLine
 10
398.1519253195475
 20
231.8131331276038
 30
0.0
 11
398.1519253195338
 21
234.8131331276038
 31
0.0
  0
ARC
  5
AEB0
330
1A
100
AcDbEntity
  8
SEIHIN
100
AcDbCircle
 10
396.1519253195475
 20
231.8131331276038
 30
0.0
 40
2.0
100
AcDbArc
 50
269.999999999987
 51
359.9999999999868
  0
ARC
  5
AEB1
330
1A
100
AcDbEntity
  8
SEIHIN
100
AcDbCircle
 10
395.2940608196012
 20
231.8131331276038
 30
0.0
 40
2.0
100
AcDbArc
 50
269.999999999987
 51
359.9999999999868
  0
ARC
  5
AEB2
330
1A
100
AcDbEntity
  8
SEIHIN
100
AcDbCircle
 10
395.2940608196012
 20
231.8131331276038
 30
0.0
 40
1.5
100
AcDbArc
 50
269.9999999999934
 51
359.9999999999933
  0
LINE
  5
AEB3
330
1A
100
AcDbEntity
  8
SEIHIN
100
AcDbLine
 10
376.2608419574793
 20
530.1889611057679
 30
0.0
 11
376.2608419574913
 21
531.4889611057679
 31
0.0
  0
LINE
  5
AEB4
330
1A
100
AcDbEntity
  8
SEIHIN
100
AcDbLine
 10
376.2608419573676
 20
518.1889611057679
 30
0.0
 11
376.2608419574421
 21
526.1889611057679
 31
0.0
  0
LINE
  5
AEB5
330
1A
100
AcDbEntity
  8
SEIHIN
100
AcDbLine
 10
259.7273521854186
 20
530.1889611057679
 30
0.0
 11
259.7264198828141
 21
531.4889611057679
 31
0.0
  0
LINE
  5
AEB6
330
1A
100
AcDbEntity
  8
SEIHIN
100
AcDbLine
 10
259.7359580556148
 20
518.1889611057679
 30
0.0
 11
259.7302208088174
 21
526.1889611057679
 31
0.0
  0
VIEWPORT
  5
22
330
17
100
AcDbEntity
 67
     1
  8
0
100
AcDbViewport
 10
313.6808219178082
 20
148.5
 30
0.0
 40
627.3616438356165
 41
297.0
 68
     2
 69
     1
 12
313.6808219178082
 22
148.5
 13
0.0
 23
0.0
 14
1.0
 24
1.0
 15
10.0
 25
10.0
 16
0.0
 26
0.0
 36
1.0
 17
0.0
 27
0.0
 37
0.0
 42
50.0
 43
0.0
 44
0.0
 45
297.0
 50
0.0
 51
0.0
 72
   100
 90
    32768
  1

281
     0
 71
     1
 74
     0
110
0.0
120
0.0
130
0.0
111
1.0
121
0.0
131
0.0
112
0.0
122
1.0
132
0.0
 79
     0
146
0.0
  0
VIEWPORT
  5
64
330
17
100
AcDbEntity
 67
     1
  8
VIEWPORT
100
AcDbViewport
 10
210.0
 20
148.5
 30
0.0
 40
420.0
 41
297.0
 68
     1
 69
     2
 12
420.0
 22
297.0
 13
0.0
 23
0.0
 14
10.0
 24
10.0
 15
0.0
 25
0.0
 16
0.0
 26
0.0
 36
1.0
 17
0.0
 27
0.0
 37
0.0
 42
50.0
 43
0.0
 44
0.0
 45
605.8799999999997
 50
0.0
 51
0.0
 72
   100
 90
    32768
  1

281
     0
 71
     1
 74
     0
110
0.0
120
0.0
130
0.0
111
1.0
121
0.0
131
0.0
112
0.0
122
1.0
132
0.0
 79
     0
146
0.0
  0
ENDSEC
  0
SECTION
  2
OBJECTS
  0
DICTIONARY
  5
C
330
0
100
AcDbDictionary
281
     1
  3
ACAD_GROUP
350
D
  3
ACAD_LAYOUT
350
340
  3
ACAD_MLINESTYLE
350
E
  3
ACAD_PLOTSETTINGS
350
341
  3
ACAD_PLOTSTYLENAME
350
AF4D
1001
ACAD
1000
TREAT_AS_HARD
1070
     0
  0
DICTIONARY
  5
385
330
1A
100
AcDbDictionary
280
     1
281
     1
  3
ACAD_LAYOUTSELFREF
360
AFD3
1001
ACAD
1000
TREAT_AS_HARD
1070
     1
  0
DICTIONARY
  5
383
330
17
100
AcDbDictionary
280
     1
281
     1
  3
ACAD_LAYOUTSELFREF
360
AFD2
1001
ACAD
1000
TREAT_AS_HARD
1070
     1
  0
DICTIONARY
  5
D
102
{ACAD_REACTORS
330
C
102
}
330
C
100
AcDbDictionary
281
     1
1001
ACAD
1000
TREAT_AS_HARD
1070
     0
  0
DICTIONARY
  5
340
102
{ACAD_REACTORS
330
C
102
}
330
C
100
AcDbDictionary
281
     1
  3
Model
350
AF4F
  3
ﾚｲｱｳﾄ1
350
AF50
1001
ACAD
1000
TREAT_AS_HARD
1070
     0
  0
DICTIONARY
  5
E
102
{ACAD_REACTORS
330
C
102
}
330
C
100
AcDbDictionary
281
     1
  3
STANDARD
350
13
1001
ACAD
1000
TREAT_AS_HARD
1070
     0
  0
DICTIONARY
  5
341
102
{ACAD_REACTORS
330
C
102
}
330
C
100
AcDbDictionary
281
     1
1001
ACAD
1000
TREAT_AS_HARD
1070
     0
  0
ACDBDICTIONARYWDFLT
  5
AF4D
102
{ACAD_REACTORS
330
C
102
}
330
C
100
AcDbDictionary
281
     1
  3
Normal
350
AF4E
100
AcDbDictionaryWithDefault
340
AF4E
1001
ACAD
1000
TREAT_AS_HARD
1070
     0
1000
TREAT_AS_HARD
1070
     0
  0
XRECORD
  5
AFD3
102
{ACAD_REACTORS
330
385
102
}
330
385
100
AcDbXrecord
280
     1
340
1A
  0
XRECORD
  5
AFD2
102
{ACAD_REACTORS
330
383
102
}
330
383
100
AcDbXrecord
280
     1
340
17
  0
LAYOUT
  5
AF4F
102
{ACAD_REACTORS
330
340
102
}
330
340
100
AcDbPlotSettings
  1

  2
Acrobat Distiller
  4
A3
  6

 40
3.174999952316284
 41
3.174999952316284
 42
3.17498779296875
 43
3.17498779296875
 44
297.0318298339843
 45
420.1583251953125
 46
0.0
 47
0.0
 48
0.0
 49
0.0
140
0.0
141
0.0
142
1.0
143
2.0
 70
 11952
 72
     1
 73
     1
 74
     2
  7
print.ctb
 75
    17
147
0.5
148
0.0
149
0.0
100
AcDbLayout
  1
Model
 70
     1
 71
     0
 10
0.0
 20
0.0
 11
12.0
 21
9.0
 12
0.0
 22
0.0
 32
0.0
 14
0.0
 24
0.0
 34
0.0
 15
0.0
 25
0.0
 35
0.0
146
0.0
 13
0.0
 23
0.0
 33
0.0
 16
1.0
 26
0.0
 36
0.0
 17
0.0
 27
1.0
 37
0.0
 76
     0
330
1A
  0
LAYOUT
  5
AF50
102
{ACAD_REACTORS
330
340
102
}
330
340
100
AcDbPlotSettings
  1

  2
LP-9200C(CC9E34)
  4

  6

 40
0.0
 41
0.0
 42
0.0
 43
0.0
 44
0.0
 45
0.0
 46
0.0
 47
0.0
 48
0.0
 49
0.0
140
0.0
141
0.0
142
1.0
143
1.0
 70
   688
 72
     0
 73
     0
 74
     5
  7
print.ctb
 75
    16
147
1.0
148
0.0
149
0.0
100
AcDbLayout
  1
ﾚｲｱｳﾄ1
 70
     1
 71
     1
 10
0.0
 20
0.0
 11
420.0
 21
297.0
 12
0.0
 22
0.0
 32
0.0
 14
0.0
 24
0.0
 34
0.0
 15
420.0
 25
297.0
 35
0.0
146
0.0
 13
0.0
 23
0.0
 33
0.0
 16
1.0
 26
0.0
 36
0.0
 17
0.0
 27
1.0
 37
0.0
 76
     0
330
17
331
64
  0
MLINESTYLE
  5
13
102
{ACAD_REACTORS
330
E
102
}
330
E
100
AcDbMlineStyle
  2
STANDARD
 70
     0
  3

 62
     0
 51
90.0
 52
90.0
 71
     2
 49
0.5
 62
   256
  6
BYLAYER
 49
-0.5
 62
   256
  6
BYLAYER
  0
ACDBPLACEHOLDER
  5
AF4E
102
{ACAD_REACTORS
330
AF4D
102
}
330
AF4D
  0
ENDSEC
  0
EOF
