  0
SECTION
  2
HEADER
  9
$ACADVER
  1
AC1015
  9
$ACADMAINTVER
 70
     6
  9
$DWGCODEPAGE
  3
ANSI_932
  9
$INSBASE
 10
0.0
 20
0.0
 30
0.0
  9
$EXTMIN
 10
-0.0000004333560355
 20
0.0000006402971167
 30
0.0
  9
$EXTMAX
 10
797.599999566644
 20
551.6000006402973
 30
0.0
  9
$LIMMIN
 10
0.0
 20
0.0
  9
$LIMMAX
 10
840.0
 20
594.0
  9
$ORTHOMODE
 70
     1
  9
$REGENMODE
 70
     1
  9
$FILLMODE
 70
     1
  9
$QTEXTMODE
 70
     0
  9
$MIRRTEXT
 70
     1
  9
$LTSCALE
 40
2.0
  9
$ATTMODE
 70
     1
  9
$TEXTSIZE
 40
5.0
  9
$TRACEWID
 40
1.0
  9
$TEXTSTYLE
  7
STANDARD
  9
$CLAYER
  8
SEIHIN
  9
$CELTYPE
  6
BYLAYER
  9
$CECOLOR
 62
   256
  9
$CELTSCALE
 40
1.0
  9
$DISPSILH
 70
     0
  9
$DIMSCALE
 40
1.0
  9
$DIMASZ
 40
7.0
  9
$DIMEXO
 40
6.0
  9
$DIMDLI
 40
14.0
  9
$DIMRND
 40
0.0
  9
$DIMDLE
 40
0.0
  9
$DIMEXE
 40
3.0
  9
$DIMTP
 40
0.0
  9
$DIMTM
 40
0.0
  9
$DIMTXT
 40
6.0
  9
$DIMCEN
 40
150.0
  9
$DIMTSZ
 40
0.0
  9
$DIMTOL
 70
     0
  9
$DIMLIM
 70
     0
  9
$DIMTIH
 70
     0
  9
$DIMTOH
 70
     0
  9
$DIMSE1
 70
     0
  9
$DIMSE2
 70
     0
  9
$DIMTAD
 70
     3
  9
$DIMZIN
 70
     0
  9
$DIMBLK
  1

  9
$DIMASO
 70
     1
  9
$DIMSHO
 70
     1
  9
$DIMPOST
  1

  9
$DIMAPOST
  1

  9
$DIMALT
 70
     0
  9
$DIMALTD
 70
     2
  9
$DIMALTF
 40
25.4
  9
$DIMLFAC
 40
1.0
  9
$DIMTOFL
 70
     1
  9
$DIMTVP
 40
0.0
  9
$DIMTIX
 70
     0
  9
$DIMSOXD
 70
     0
  9
$DIMSAH
 70
     1
  9
$DIMBLK1
  1
OPEN
  9
$DIMBLK2
  1
OPEN
  9
$DIMSTYLE
  2
STANDARD
  9
$DIMCLRD
 70
   256
  9
$DIMCLRE
 70
   256
  9
$DIMCLRT
 70
   256
  9
$DIMTFAC
 40
1.0
  9
$DIMGAP
 40
2.0
  9
$DIMJUST
 70
     0
  9
$DIMSD1
 70
     0
  9
$DIMSD2
 70
     0
  9
$DIMTOLJ
 70
     1
  9
$DIMTZIN
 70
     0
  9
$DIMALTZ
 70
     0
  9
$DIMALTTZ
 70
     0
  9
$DIMUPT
 70
     0
  9
$DIMDEC
 70
     0
  9
$DIMTDEC
 70
     0
  9
$DIMALTU
 70
     2
  9
$DIMALTTD
 70
     2
  9
$DIMTXSTY
  7
STANDARD
  9
$DIMAUNIT
 70
     0
  9
$DIMADEC
 70
     0
  9
$DIMALTRND
 40
0.0
  9
$DIMAZIN
 70
     0
  9
$DIMDSEP
 70
    46
  9
$DIMATFIT
 70
     3
  9
$DIMFRAC
 70
     0
  9
$DIMLDRBLK
  1
OPEN
  9
$DIMLUNIT
 70
     2
  9
$DIMLWD
 70
    -1
  9
$DIMLWE
 70
    -1
  9
$DIMTMOVE
 70
     0
  9
$LUNITS
 70
     2
  9
$LUPREC
 70
     4
  9
$SKETCHINC
 40
1.0
  9
$FILLETRAD
 40
20.0
  9
$AUNITS
 70
     0
  9
$AUPREC
 70
     0
  9
$MENU
  1
.
  9
$ELEVATION
 40
0.0
  9
$PELEVATION
 40
0.0
  9
$THICKNESS
 40
0.0
  9
$LIMCHECK
 70
     0
  9
$CHAMFERA
 40
20.0
  9
$CHAMFERB
 40
20.0
  9
$CHAMFERC
 40
40.0
  9
$CHAMFERD
 40
0.0
  9
$SKPOLY
 70
     0
  9
$TDCREATE
 40
2451029.942521991
  9
$TDUCREATE
 40
2451029.567521991
  9
$TDUPDATE
 40
2455609.398228565
  9
$TDUUPDATE
 40
2455609.023228565
  9
$TDINDWG
 40
0.0819519792
  9
$TDUSRTIMER
 40
0.0819519792
  9
$USRTIMER
 70
     1
  9
$ANGBASE
 50
0.0
  9
$ANGDIR
 70
     0
  9
$PDMODE
 70
     0
  9
$PDSIZE
 40
0.0
  9
$PLINEWID
 40
0.0
  9
$SPLFRAME
 70
     0
  9
$SPLINETYPE
 70
     6
  9
$SPLINESEGS
 70
     8
  9
$HANDSEED
  5
218B
  9
$SURFTAB1
 70
     6
  9
$SURFTAB2
 70
     6
  9
$SURFTYPE
 70
     6
  9
$SURFU
 70
     6
  9
$SURFV
 70
     6
  9
$UCSBASE
  2

  9
$UCSNAME
  2

  9
$UCSORG
 10
0.0
 20
0.0
 30
0.0
  9
$UCSXDIR
 10
1.0
 20
0.0
 30
0.0
  9
$UCSYDIR
 10
0.0
 20
1.0
 30
0.0
  9
$UCSORTHOREF
  2

  9
$UCSORTHOVIEW
 70
     0
  9
$UCSORGTOP
 10
0.0
 20
0.0
 30
0.0
  9
$UCSORGBOTTOM
 10
0.0
 20
0.0
 30
0.0
  9
$UCSORGLEFT
 10
0.0
 20
0.0
 30
0.0
  9
$UCSORGRIGHT
 10
0.0
 20
0.0
 30
0.0
  9
$UCSORGFRONT
 10
0.0
 20
0.0
 30
0.0
  9
$UCSORGBACK
 10
0.0
 20
0.0
 30
0.0
  9
$PUCSBASE
  2

  9
$PUCSNAME
  2

  9
$PUCSORG
 10
0.0
 20
0.0
 30
0.0
  9
$PUCSXDIR
 10
1.0
 20
0.0
 30
0.0
  9
$PUCSYDIR
 10
0.0
 20
1.0
 30
0.0
  9
$PUCSORTHOREF
  2

  9
$PUCSORTHOVIEW
 70
     0
  9
$PUCSORGTOP
 10
0.0
 20
0.0
 30
0.0
  9
$PUCSORGBOTTOM
 10
0.0
 20
0.0
 30
0.0
  9
$PUCSORGLEFT
 10
0.0
 20
0.0
 30
0.0
  9
$PUCSORGRIGHT
 10
0.0
 20
0.0
 30
0.0
  9
$PUCSORGFRONT
 10
0.0
 20
0.0
 30
0.0
  9
$PUCSORGBACK
 10
0.0
 20
0.0
 30
0.0
  9
$USERI1
 70
     0
  9
$USERI2
 70
     0
  9
$USERI3
 70
     0
  9
$USERI4
 70
     0
  9
$USERI5
 70
     0
  9
$USERR1
 40
0.0
  9
$USERR2
 40
0.0
  9
$USERR3
 40
0.0
  9
$USERR4
 40
0.0
  9
$USERR5
 40
0.0
  9
$WORLDVIEW
 70
     1
  9
$SHADEDGE
 70
     3
  9
$SHADEDIF
 70
    70
  9
$TILEMODE
 70
     1
  9
$MAXACTVP
 70
    16
  9
$PINSBASE
 10
0.0
 20
0.0
 30
0.0
  9
$PLIMCHECK
 70
     0
  9
$PEXTMIN
 10
0.0
 20
0.0
 30
0.0
  9
$PEXTMAX
 10
420.0
 20
297.0
 30
0.0
  9
$PLIMMIN
 10
0.0
 20
0.0
  9
$PLIMMAX
 10
420.0
 20
297.0
  9
$UNITMODE
 70
     0
  9
$VISRETAIN
 70
     0
  9
$PLINEGEN
 70
     0
  9
$PSLTSCALE
 70
     1
  9
$TREEDEPTH
 70
  3020
  9
$CMLSTYLE
  2
STANDARD
  9
$CMLJUST
 70
     0
  9
$CMLSCALE
 40
1.0
  9
$PROXYGRAPHICS
 70
     1
  9
$MEASUREMENT
 70
     1
  9
$CELWEIGHT
370
    -1
  9
$ENDCAPS
280
     0
  9
$JOINSTYLE
280
     0
  9
$LWDISPLAY
290
     0
  9
$INSUNITS
 70
     0
  9
$HYPERLINKBASE
  1

  9
$STYLESHEET
  1
print.ctb
  9
$XEDIT
290
     1
  9
$CEPSNTYPE
380
     0
  9
$PSTYLEMODE
290
     1
  9
$FINGERPRINTGUID
  2
{FF3C30AF-89FB-45B1-9067-596B98B489D4}
  9
$VERSIONGUID
  2
{EB15612F-BA41-4EF4-B9FB-5BF47A59909B}
  9
$EXTNAMES
290
     1
  9
$PSVPSCALE
 40
0.0
  9
$OLESTARTUP
290
     0
  0
ENDSEC
  0
SECTION
  2
CLASSES
  0
CLASS
  1
ACDBDICTIONARYWDFLT
  2
AcDbDictionaryWithDefault
  3
ObjectDBX Classes
 90
        0
280
     0
281
     0
  0
CLASS
  1
ACDBPLACEHOLDER
  2
AcDbPlaceHolder
  3
ObjectDBX Classes
 90
        0
280
     0
281
     0
  0
CLASS
  1
LAYOUT
  2
AcDbLayout
  3
ObjectDBX Classes
 90
        0
280
     0
281
     0
  0
CLASS
  1
DUMMY
  2
AcDbLongTransaction
  3
DUMMY
 90
        0
280
     0
281
     0
  0
CLASS
  1
LWPOLYLINE
  2
AcDbPolyline
  3
AutoCAD 2000
 90
        0
280
     0
281
     1
  0
CLASS
  1
HATCH
  2
AcDbHatch
  3
AutoCAD 2000
 90
        0
280
     0
281
     1
  0
CLASS
  1
XRECORD
  2
AcDbXrecord
  3
AutoCAD 2000
 90
        0
280
     0
281
     0
  0
CLASS
  1
DUMMY
  2
AcDbLongTransaction
  3
DUMMY
 90
        0
280
     0
281
     0
  0
CLASS
  1
LWPOLYLINE
  2
AcDbPolyline
  3
AutoCAD 2000
 90
        0
280
     0
281
     1
  0
CLASS
  1
HATCH
  2
AcDbHatch
  3
AutoCAD 2000
 90
        0
280
     0
281
     1
  0
CLASS
  1
XRECORD
  2
AcDbXrecord
  3
AutoCAD 2000
 90
        0
280
     0
281
     0
  0
CLASS
  1
DUMMY
  2
AcDbLongTransaction
  3
DUMMY
 90
        0
280
     0
281
     0
  0
CLASS
  1
LWPOLYLINE
  2
AcDbPolyline
  3
AutoCAD 2000
 90
        0
280
     0
281
     1
  0
CLASS
  1
HATCH
  2
AcDbHatch
  3
AutoCAD 2000
 90
        0
280
     0
281
     1
  0
CLASS
  1
XRECORD
  2
AcDbXrecord
  3
AutoCAD 2000
 90
        0
280
     0
281
     0
  0
CLASS
  1
DUMMY
  2
AcDbLongTransaction
  3
DUMMY
 90
        0
280
     0
281
     0
  0
CLASS
  1
LWPOLYLINE
  2
AcDbPolyline
  3
AutoCAD 2000
 90
        0
280
     0
281
     1
  0
CLASS
  1
HATCH
  2
AcDbHatch
  3
AutoCAD 2000
 90
        0
280
     0
281
     1
  0
CLASS
  1
XRECORD
  2
AcDbXrecord
  3
AutoCAD 2000
 90
        0
280
     0
281
     0
  0
CLASS
  1
DUMMY
  2
AcDbLongTransaction
  3
DUMMY
 90
        0
280
     0
281
     0
  0
CLASS
  1
LWPOLYLINE
  2
AcDbPolyline
  3
AutoCAD 2000
 90
        0
280
     0
281
     1
  0
CLASS
  1
HATCH
  2
AcDbHatch
  3
AutoCAD 2000
 90
        0
280
     0
281
     1
  0
CLASS
  1
XRECORD
  2
AcDbXrecord
  3
AutoCAD 2000
 90
        0
280
     0
281
     0
  0
ENDSEC
  0
SECTION
  2
TABLES
  0
TABLE
  2
VPORT
  5
8
330
0
100
AcDbSymbolTable
 70
     2
  0
VPORT
  5
218A
330
8
100
AcDbSymbolTableRecord
100
AcDbViewportTableRecord
  2
*Active
 70
     0
 10
0.0
 20
0.0
 11
1.0
 21
1.0
 12
407.7820726536925
 22
300.8918889957207
 13
0.0
 23
0.0
 14
5.0
 24
5.0
 15
0.0
 25
0.0
 16
0.0
 26
0.0
 36
1.0
 17
0.0
 27
0.0
 37
0.0
 40
637.4060452271502
 41
1.651537335285505
 42
50.0
 43
0.0
 44
0.0
 50
0.0
 51
0.0
 71
     0
 72
   100
 73
     1
 74
     0
 75
     0
 76
     0
 77
     0
 78
     0
281
     0
 65
     1
110
0.0
120
0.0
130
0.0
111
1.0
121
0.0
131
0.0
112
0.0
122
1.0
132
0.0
 79
     0
146
0.0
  0
ENDTAB
  0
TABLE
  2
LTYPE
  5
5
330
0
100
AcDbSymbolTable
 70
     2
  0
LTYPE
  5
14
330
5
100
AcDbSymbolTableRecord
100
AcDbLinetypeTableRecord
  2
BYBLOCK
 70
     0
  3

 72
    65
 73
     0
 40
0.0
  0
LTYPE
  5
15
330
5
100
AcDbSymbolTableRecord
100
AcDbLinetypeTableRecord
  2
BYLAYER
 70
     0
  3

 72
    65
 73
     0
 40
0.0
  0
LTYPE
  5
16
330
5
100
AcDbSymbolTableRecord
100
AcDbLinetypeTableRecord
  2
CONTINUOUS
 70
     0
  3
Solid line
 72
    65
 73
     0
 40
0.0
  0
LTYPE
  5
135
330
5
100
AcDbSymbolTableRecord
100
AcDbLinetypeTableRecord
  2
CENTER
 70
     0
  3
____ _ ____ _ ____ _ ____ _ ____ _ ____ _ ____ 
 72
    65
 73
     4
 40
2.0
 49
1.25
 74
     0
 49
-0.25
 74
     0
 49
0.25
 74
     0
 49
-0.25
 74
     0
  0
ENDTAB
  0
TABLE
  2
LAYER
  5
2
330
0
100
AcDbSymbolTable
 70
     8
  0
LAYER
  5
F
330
2
100
AcDbSymbolTableRecord
100
AcDbLayerTableRecord
  2
0
 70
     0
 62
     7
  6
CONTINUOUS
370
    -3
390
85E
  0
LAYER
  5
62
330
2
100
AcDbSymbolTableRecord
100
AcDbLayerTableRecord
  2
VIEWPORT
 70
     0
 62
     7
  6
CONTINUOUS
370
    -3
390
85E
  0
LAYER
  5
65
330
2
100
AcDbSymbolTableRecord
100
AcDbLayerTableRecord
  2
ZUWAKU
 70
     0
 62
     7
  6
CONTINUOUS
370
    -3
390
85E
  0
LAYER
  5
145
330
2
100
AcDbSymbolTableRecord
100
AcDbLayerTableRecord
  2
SEIHIN
 70
     0
 62
     3
  6
CONTINUOUS
370
    -3
390
85E
  0
LAYER
  5
146
330
2
100
AcDbSymbolTableRecord
100
AcDbLayerTableRecord
  2
SUNPOU
 70
     0
 62
     4
  6
CONTINUOUS
370
    -3
390
85E
  0
LAYER
  5
147
330
2
100
AcDbSymbolTableRecord
100
AcDbLayerTableRecord
  2
CENTER L
 70
     0
 62
     1
  6
CENTER
370
    -3
390
85E
  0
LAYER
  5
381
330
2
100
AcDbSymbolTableRecord
100
AcDbLayerTableRecord
  2
DEFPOINTS
 70
     0
 62
     7
  6
CONTINUOUS
290
     0
370
    -3
390
85E
  0
LAYER
  5
154D
330
2
100
AcDbSymbolTableRecord
100
AcDbLayerTableRecord
  2
MOJI
 70
     0
 62
     2
  6
CONTINUOUS
370
    -3
390
85E
  0
ENDTAB
  0
TABLE
  2
STYLE
  5
3
330
0
100
AcDbSymbolTable
 70
     2
  0
STYLE
  5
10
330
3
100
AcDbSymbolTableRecord
100
AcDbTextStyleTableRecord
  2
STANDARD
 70
     0
 40
0.0
 41
1.0
 50
0.0
 71
     0
 42
5.0
  3
TXT
  4
bigfont.shx
  0
STYLE
  5
154E
330
3
100
AcDbSymbolTableRecord
100
AcDbTextStyleTableRecord
  2
ｽﾀｲﾙ1
 70
     0
 40
0.0
 41
1.0
 50
0.0
 71
     0
 42
2.5
  3
MS PGothic.ttf
  4

1001
ACAD
1000
MS PGothic
1071
    32818
  0
ENDTAB
  0
TABLE
  2
VIEW
  5
6
330
0
100
AcDbSymbolTable
 70
     0
  0
ENDTAB
  0
TABLE
  2
UCS
  5
7
330
0
100
AcDbSymbolTable
 70
     0
  0
ENDTAB
  0
TABLE
  2
APPID
  5
9
330
0
100
AcDbSymbolTable
 70
     1
  0
APPID
  5
11
330
9
100
AcDbSymbolTableRecord
100
AcDbRegAppTableRecord
  2
ACAD
 70
     0
  0
ENDTAB
  0
TABLE
  2
DIMSTYLE
  5
A
330
0
100
AcDbSymbolTable
 70
     1
100
AcDbDimStyleTable
  0
DIMSTYLE
105
1D
102
{ACAD_REACTORS
330
1FA4
330
1FA5
330
1FA6
330
1FA7
330
1FA8
330
1FA9
330
1FE1
330
2004
330
2026
330
2027
330
2038
330
203E
330
2056
102
}
330
A
100
AcDbSymbolTableRecord
100
AcDbDimStyleTableRecord
  2
STANDARD
 70
     0
340
10
  0
ENDTAB
  0
TABLE
  2
BLOCK_RECORD
  5
1
330
0
100
AcDbSymbolTable
 70
    14
  0
BLOCK_RECORD
  5
1A
330
1
100
AcDbSymbolTableRecord
100
AcDbBlockTableRecord
  2
*MODEL_SPACE
340
861
  0
BLOCK_RECORD
  5
17
330
1
100
AcDbSymbolTableRecord
100
AcDbBlockTableRecord
  2
*PAPER_SPACE
340
862
  0
BLOCK_RECORD
  5
6D
330
1
100
AcDbSymbolTableRecord
100
AcDbBlockTableRecord
  2
_OPEN
340
0
102
{BLKREFS
331
210B
331
210C
331
2116
331
2117
331
211F
331
2120
331
2128
331
2129
331
2131
331
2132
331
213A
331
213B
331
2143
331
2144
331
214E
331
214F
331
2157
331
2158
331
2160
331
2161
331
216B
331
216C
331
2174
331
2175
331
217D
331
217E
102
}
  0
BLOCK_RECORD
  5
2066
330
1
100
AcDbSymbolTableRecord
100
AcDbBlockTableRecord
  2
*D1
340
0
  0
BLOCK_RECORD
  5
2072
330
1
100
AcDbSymbolTableRecord
100
AcDbBlockTableRecord
  2
*D2
340
0
  0
BLOCK_RECORD
  5
2080
330
1
100
AcDbSymbolTableRecord
100
AcDbBlockTableRecord
  2
*D3
340
0
  0
BLOCK_RECORD
  5
208C
330
1
100
AcDbSymbolTableRecord
100
AcDbBlockTableRecord
  2
*D4
340
0
  0
BLOCK_RECORD
  5
2098
330
1
100
AcDbSymbolTableRecord
100
AcDbBlockTableRecord
  2
*D5
340
0
  0
BLOCK_RECORD
  5
20A4
330
1
100
AcDbSymbolTableRecord
100
AcDbBlockTableRecord
  2
*D6
340
0
  0
BLOCK_RECORD
  5
20B0
330
1
100
AcDbSymbolTableRecord
100
AcDbBlockTableRecord
  2
*D7
340
0
  0
BLOCK_RECORD
  5
20BC
330
1
100
AcDbSymbolTableRecord
100
AcDbBlockTableRecord
  2
*D8
340
0
  0
BLOCK_RECORD
  5
20CA
330
1
100
AcDbSymbolTableRecord
100
AcDbBlockTableRecord
  2
*D9
340
0
  0
BLOCK_RECORD
  5
20D6
330
1
100
AcDbSymbolTableRecord
100
AcDbBlockTableRecord
  2
*D10
340
0
  0
BLOCK_RECORD
  5
20E2
330
1
100
AcDbSymbolTableRecord
100
AcDbBlockTableRecord
  2
*D11
340
0
  0
BLOCK_RECORD
  5
20F0
330
1
100
AcDbSymbolTableRecord
100
AcDbBlockTableRecord
  2
*D12
340
0
  0
BLOCK_RECORD
  5
20FC
330
1
100
AcDbSymbolTableRecord
100
AcDbBlockTableRecord
  2
*D13
340
0
  0
ENDTAB
  0
ENDSEC
  0
SECTION
  2
BLOCKS
  0
BLOCK
  5
1B
330
1A
100
AcDbEntity
  8
0
100
AcDbBlockBegin
  2
*MODEL_SPACE
 70
     0
 71
     0
 10
0.0
 20
0.0
 30
0.0
  3
*MODEL_SPACE
  1

  0
ENDBLK
  5
1C
330
1A
100
AcDbEntity
  8
0
100
AcDbBlockEnd
  0
BLOCK
  5
18
330
17
100
AcDbEntity
 67
     1
  8
0
100
AcDbBlockBegin
  2
*PAPER_SPACE
 70
     0
 71
     0
 10
0.0
 20
0.0
 30
0.0
  3
*PAPER_SPACE
  1

  0
ENDBLK
  5
19
330
17
100
AcDbEntity
 67
     1
  8
0
100
AcDbBlockEnd
  0
BLOCK
  5
6E
330
6D
100
AcDbEntity
  8
0
100
AcDbBlockBegin
  2
_OPEN
 70
     0
 71
     0
 10
0.0
 20
0.0
 30
0.0
  3
_OPEN
  1

  0
LINE
  5
6F
330
6D
100
AcDbEntity
  8
0
  6
ByBlock
 62
     0
100
AcDbLine
 10
-1.0
 20
0.1666666666666667
 30
0.0
 11
0.0
 21
0.0
 31
0.0
  0
LINE
  5
70
330
6D
100
AcDbEntity
  8
0
  6
ByBlock
 62
     0
100
AcDbLine
 10
0.0
 20
0.0
 30
0.0
 11
-1.0
 21
-0.1666666666666667
 31
0.0
  0
LINE
  5
71
330
6D
100
AcDbEntity
  8
0
  6
ByBlock
 62
     0
100
AcDbLine
 10
0.0
 20
0.0
 30
0.0
 11
-1.0
 21
0.0
 31
0.0
  0
ENDBLK
  5
72
330
6D
100
AcDbEntity
  8
0
100
AcDbBlockEnd
  0
BLOCK
  5
2070
330
2066
100
AcDbEntity
  8
0
100
AcDbBlockBegin
  2
*D1
 70
     1
 71
     0
 10
0.0
 20
0.0
 30
0.0
  3
*D1
  1

  0
LINE
  5
2108
330
2066
100
AcDbEntity
  8
SUNPOU
 62
     4
370
    -2
100
AcDbLine
 10
409.5819998752203
 20
258.0441217461682
 30
0.0
 11
437.6622167367827
 21
258.0441217461682
 31
0.0
  0
LINE
  5
2109
330
2066
100
AcDbEntity
  8
SUNPOU
 62
     4
370
    -2
100
AcDbLine
 10
409.5819998752203
 20
192.0441217461681
 30
0.0
 11
437.6622167367827
 21
192.0441217461681
 31
0.0
  0
LINE
  5
210A
330
2066
100
AcDbEntity
  8
SUNPOU
 62
     4
370
    -2
100
AcDbLine
 10
434.6622167367827
 20
251.0441217461682
 30
0.0
 11
434.6622167367827
 21
199.0441217461681
 31
0.0
  0
INSERT
  5
210B
330
2066
100
AcDbEntity
  8
SUNPOU
 62
     4
370
    -2
100
AcDbBlockReference
  2
_OPEN
 10
434.6622167367827
 20
258.0441217461682
 30
0.0
 41
7.0
 42
7.0
 43
7.0
 50
90.0
  0
INSERT
  5
210C
330
2066
100
AcDbEntity
  8
SUNPOU
 62
     4
370
    -2
100
AcDbBlockReference
  2
_OPEN
 10
434.6622167367827
 20
192.0441217461681
 30
0.0
 41
7.0
 42
7.0
 43
7.0
 50
270.0
  0
MTEXT
  5
210D
330
2066
100
AcDbEntity
  8
SUNPOU
 62
     4
100
AcDbMText
 10
429.6622167367827
 20
225.0441217461682
 30
0.0
 40
6.0
 41
0.0
 71
     5
 72
     1
  1
\A1;66
 11
6.123031769111886E-17
 21
1.0
 31
0.0
 73
     1
 44
1.0
  0
POINT
  5
210E
330
2066
100
AcDbEntity
  8
DEFPOINTS
 62
     0
100
AcDbPoint
 10
403.5819998752203
 20
258.0441217461682
 30
0.0
  0
POINT
  5
210F
330
2066
100
AcDbEntity
  8
DEFPOINTS
 62
     0
100
AcDbPoint
 10
403.5819998752203
 20
192.0441217461681
 30
0.0
  0
POINT
  5
2110
330
2066
100
AcDbEntity
  8
DEFPOINTS
 62
     0
100
AcDbPoint
 10
434.6622167367827
 20
192.0441217461681
 30
0.0
  0
ENDBLK
  5
2071
330
2066
100
AcDbEntity
  8
0
100
AcDbBlockEnd
  0
BLOCK
  5
207E
330
2072
100
AcDbEntity
  8
0
100
AcDbBlockBegin
  2
*D2
 70
     1
 71
     0
 10
0.0
 20
0.0
 30
0.0
  3
*D2
  1

  0
LINE
  5
2111
330
2072
100
AcDbEntity
  8
SUNPOU
 62
     4
370
    -2
100
AcDbLine
 10
397.5820998752205
 20
188.0441217461681
 30
0.0
 11
397.5820998752205
 21
153.435758817805
 31
0.0
  0
LINE
  5
2112
330
2072
100
AcDbEntity
  8
SUNPOU
 62
     4
370
    -2
100
AcDbLine
 10
403.5819998752203
 20
186.0441217461681
 30
0.0
 11
403.5819998752203
 21
153.435758817805
 31
0.0
  0
LINE
  5
2113
330
2072
100
AcDbEntity
  8
SUNPOU
 62
     4
370
    -2
100
AcDbLine
 10
390.5820998752205
 20
156.435758817805
 30
0.0
 11
383.5820998752205
 21
156.435758817805
 31
0.0
  0
LINE
  5
2114
330
2072
100
AcDbEntity
  8
SUNPOU
 62
     4
370
    -2
100
AcDbLine
 10
410.5819998752203
 20
156.435758817805
 30
0.0
 11
438.5819998752203
 21
156.435758817805
 31
0.0
  0
LINE
  5
2115
330
2072
100
AcDbEntity
  8
SUNPOU
 62
     4
370
    -2
100
AcDbLine
 10
397.5820998752205
 20
156.435758817805
 30
0.0
 11
403.5819998752203
 21
156.435758817805
 31
0.0
  0
INSERT
  5
2116
330
2072
100
AcDbEntity
  8
SUNPOU
 62
     4
370
    -2
100
AcDbBlockReference
  2
_OPEN
 10
397.5820998752205
 20
156.435758817805
 30
0.0
 41
7.0
 42
7.0
 43
7.0
  0
INSERT
  5
2117
330
2072
100
AcDbEntity
  8
SUNPOU
 62
     4
370
    -2
100
AcDbBlockReference
  2
_OPEN
 10
403.5819998752203
 20
156.435758817805
 30
0.0
 41
7.0
 42
7.0
 43
7.0
 50
180.0
  0
MTEXT
  5
2118
330
2072
100
AcDbEntity
  8
SUNPOU
 62
     4
100
AcDbMText
 10
428.0819998752203
 20
161.435758817805
 30
0.0
 40
6.0
 41
0.0
 71
     5
 72
     1
  1
\A1;t6.0
 73
     1
 44
1.0
  0
POINT
  5
2119
330
2072
100
AcDbEntity
  8
DEFPOINTS
 62
     0
100
AcDbPoint
 10
397.5820998752205
 20
194.0441217461681
 30
0.0
  0
POINT
  5
211A
330
2072
100
AcDbEntity
  8
DEFPOINTS
 62
     0
100
AcDbPoint
 10
403.5819998752203
 20
192.0441217461681
 30
0.0
  0
POINT
  5
211B
330
2072
100
AcDbEntity
  8
DEFPOINTS
 62
     0
100
AcDbPoint
 10
403.5819998752203
 20
156.435758817805
 30
0.0
  0
ENDBLK
  5
207F
330
2072
100
AcDbEntity
  8
0
100
AcDbBlockEnd
  0
BLOCK
  5
208A
330
2080
100
AcDbEntity
  8
0
100
AcDbBlockBegin
  2
*D3
 70
     1
 71
     0
 10
0.0
 20
0.0
 30
0.0
  3
*D3
  1

  0
LINE
  5
211C
330
2080
100
AcDbEntity
  8
SUNPOU
 62
     4
370
    -2
100
AcDbLine
 10
409.5820998752205
 20
420.5441217461682
 30
0.0
 11
454.9390711314146
 21
420.5441217461682
 31
0.0
  0
LINE
  5
211D
330
2080
100
AcDbEntity
  8
SUNPOU
 62
     4
370
    -2
100
AcDbLine
 10
409.5820998752205
 20
355.5441217461682
 30
0.0
 11
454.9390711314145
 21
355.5441217461682
 31
0.0
  0
LINE
  5
211E
330
2080
100
AcDbEntity
  8
SUNPOU
 62
     4
370
    -2
100
AcDbLine
 10
451.9390711314146
 20
413.5441217461682
 30
0.0
 11
451.9390711314145
 21
362.5441217461682
 31
0.0
  0
INSERT
  5
211F
330
2080
100
AcDbEntity
  8
SUNPOU
 62
     4
370
    -2
100
AcDbBlockReference
  2
_OPEN
 10
451.9390711314146
 20
420.5441217461682
 30
0.0
 41
7.0
 42
7.0
 43
7.0
 50
90.0
  0
INSERT
  5
2120
330
2080
100
AcDbEntity
  8
SUNPOU
 62
     4
370
    -2
100
AcDbBlockReference
  2
_OPEN
 10
451.9390711314145
 20
355.5441217461682
 30
0.0
 41
7.0
 42
7.0
 43
7.0
 50
270.0
  0
MTEXT
  5
2121
330
2080
100
AcDbEntity
  8
SUNPOU
 62
     4
100
AcDbMText
 10
446.9390711314144
 20
388.0441217461683
 30
0.0
 40
6.0
 41
0.0
 71
     5
 72
     1
  1
\A1;65
 11
6.123031769111886E-17
 21
1.0
 31
0.0
 73
     1
 44
1.0
  0
POINT
  5
2122
330
2080
100
AcDbEntity
  8
DEFPOINTS
 62
     0
100
AcDbPoint
 10
403.5820998752205
 20
420.5441217461682
 30
0.0
  0
POINT
  5
2123
330
2080
100
AcDbEntity
  8
DEFPOINTS
 62
     0
100
AcDbPoint
 10
403.5820998752205
 20
355.5441217461682
 30
0.0
  0
POINT
  5
2124
330
2080
100
AcDbEntity
  8
DEFPOINTS
 62
     0
100
AcDbPoint
 10
451.9390711314145
 20
355.5441217461682
 30
0.0
  0
ENDBLK
  5
208B
330
2080
100
AcDbEntity
  8
0
100
AcDbBlockEnd
  0
BLOCK
  5
2096
330
208C
100
AcDbEntity
  8
0
100
AcDbBlockBegin
  2
*D4
 70
     1
 71
     0
 10
0.0
 20
0.0
 30
0.0
  3
*D4
  1

  0
LINE
  5
2125
330
208C
100
AcDbEntity
  8
SUNPOU
 62
     4
370
    -2
100
AcDbLine
 10
403.6897998752203
 20
401.8337217461682
 30
0.0
 11
437.6622167367828
 21
401.8337217461682
 31
0.0
  0
LINE
  5
2126
330
208C
100
AcDbEntity
  8
SUNPOU
 62
     4
370
    -2
100
AcDbLine
 10
403.6897998752203
 20
374.2545217461681
 30
0.0
 11
437.6622167367827
 21
374.2545217461681
 31
0.0
  0
LINE
  5
2127
330
208C
100
AcDbEntity
  8
SUNPOU
 62
     4
370
    -2
100
AcDbLine
 10
434.6622167367828
 20
394.8337217461682
 30
0.0
 11
434.6622167367827
 21
381.2545217461681
 31
0.0
  0
INSERT
  5
2128
330
208C
100
AcDbEntity
  8
SUNPOU
 62
     4
370
    -2
100
AcDbBlockReference
  2
_OPEN
 10
434.6622167367828
 20
401.8337217461682
 30
0.0
 41
7.0
 42
7.0
 43
7.0
 50
90.0
  0
INSERT
  5
2129
330
208C
100
AcDbEntity
  8
SUNPOU
 62
     4
370
    -2
100
AcDbBlockReference
  2
_OPEN
 10
434.6622167367827
 20
374.2545217461681
 30
0.0
 41
7.0
 42
7.0
 43
7.0
 50
270.0
  0
MTEXT
  5
212A
330
208C
100
AcDbEntity
  8
SUNPOU
 62
     4
100
AcDbMText
 10
429.6622167367827
 20
388.0441217461682
 30
0.0
 40
6.0
 41
0.0
 71
     5
 72
     1
  1
\A1;28
 11
6.123031769111886E-17
 21
1.0
 31
0.0
 73
     1
 44
1.0
  0
POINT
  5
212B
330
208C
100
AcDbEntity
  8
DEFPOINTS
 62
     0
100
AcDbPoint
 10
397.6897998752203
 20
401.8337217461682
 30
0.0
  0
POINT
  5
212C
330
208C
100
AcDbEntity
  8
DEFPOINTS
 62
     0
100
AcDbPoint
 10
397.6897998752203
 20
374.2545217461681
 30
0.0
  0
POINT
  5
212D
330
208C
100
AcDbEntity
  8
DEFPOINTS
 62
     0
100
AcDbPoint
 10
434.6622167367827
 20
374.2545217461681
 30
0.0
  0
ENDBLK
  5
2097
330
208C
100
AcDbEntity
  8
0
100
AcDbBlockEnd
  0
BLOCK
  5
20A2
330
2098
100
AcDbEntity
  8
0
100
AcDbBlockBegin
  2
*D5
 70
     1
 71
     0
 10
0.0
 20
0.0
 30
0.0
  3
*D5
  1

  0
LINE
  5
212E
330
2098
100
AcDbEntity
  8
SUNPOU
 62
     4
370
    -2
100
AcDbLine
 10
251.5819998752205
 20
263.5443217461682
 30
0.0
 11
251.5819998752205
 21
311.851901942789
 31
0.0
  0
LINE
  5
212F
330
2098
100
AcDbEntity
  8
SUNPOU
 62
     4
370
    -2
100
AcDbLine
 10
403.5819998752203
 20
264.0441217461682
 30
0.0
 11
403.5819998752203
 21
311.851901942789
 31
0.0
  0
LINE
  5
2130
330
2098
100
AcDbEntity
  8
SUNPOU
 62
     4
370
    -2
100
AcDbLine
 10
258.5819998752205
 20
308.851901942789
 30
0.0
 11
396.5819998752203
 21
308.851901942789
 31
0.0
  0
INSERT
  5
2131
330
2098
100
AcDbEntity
  8
SUNPOU
 62
     4
370
    -2
100
AcDbBlockReference
  2
_OPEN
 10
251.5819998752205
 20
308.851901942789
 30
0.0
 41
7.0
 42
7.0
 43
7.0
 50
180.0
  0
INSERT
  5
2132
330
2098
100
AcDbEntity
  8
SUNPOU
 62
     4
370
    -2
100
AcDbBlockReference
  2
_OPEN
 10
403.5819998752203
 20
308.851901942789
 30
0.0
 41
7.0
 42
7.0
 43
7.0
  0
MTEXT
  5
2133
330
2098
100
AcDbEntity
  8
SUNPOU
 62
     4
100
AcDbMText
 10
327.5819998752204
 20
313.851901942789
 30
0.0
 40
6.0
 41
0.0
 71
     5
 72
     1
  1
\A1;152
 73
     1
 44
1.0
  0
POINT
  5
2134
330
2098
100
AcDbEntity
  8
DEFPOINTS
 62
     0
100
AcDbPoint
 10
251.5819998752205
 20
257.5443217461682
 30
0.0
  0
POINT
  5
2135
330
2098
100
AcDbEntity
  8
DEFPOINTS
 62
     0
100
AcDbPoint
 10
403.5819998752203
 20
258.0441217461682
 30
0.0
  0
POINT
  5
2136
330
2098
100
AcDbEntity
  8
DEFPOINTS
 62
     0
100
AcDbPoint
 10
403.5819998752203
 20
308.851901942789
 30
0.0
  0
ENDBLK
  5
20A3
330
2098
100
AcDbEntity
  8
0
100
AcDbBlockEnd
  0
BLOCK
  5
20AE
330
20A4
100
AcDbEntity
  8
0
100
AcDbBlockBegin
  2
*D6
 70
     1
 71
     0
 10
0.0
 20
0.0
 30
0.0
  3
*D6
  1

  0
LINE
  5
2137
330
20A4
100
AcDbEntity
  8
SUNPOU
 62
     4
370
    -2
100
AcDbLine
 10
247.0819998752205
 20
259.0443217461682
 30
0.0
 11
213.112969299671
 21
259.0443217461682
 31
0.0
  0
LINE
  5
2138
330
20A4
100
AcDbEntity
  8
SUNPOU
 62
     4
370
    -2
100
AcDbLine
 10
393.5819998752203
 20
192.0441217461681
 30
0.0
 11
213.112969299671
 21
192.0441217461681
 31
0.0
  0
LINE
  5
2139
330
20A4
100
AcDbEntity
  8
SUNPOU
 62
     4
370
    -2
100
AcDbLine
 10
216.112969299671
 20
252.0443217461682
 30
0.0
 11
216.112969299671
 21
199.0441217461681
 31
0.0
  0
INSERT
  5
213A
330
20A4
100
AcDbEntity
  8
SUNPOU
 62
     4
370
    -2
100
AcDbBlockReference
  2
_OPEN
 10
216.112969299671
 20
259.0443217461682
 30
0.0
 41
7.0
 42
7.0
 43
7.0
 50
90.0
  0
INSERT
  5
213B
330
20A4
100
AcDbEntity
  8
SUNPOU
 62
     4
370
    -2
100
AcDbBlockReference
  2
_OPEN
 10
216.112969299671
 20
192.0441217461681
 30
0.0
 41
7.0
 42
7.0
 43
7.0
 50
270.0
  0
MTEXT
  5
213C
330
20A4
100
AcDbEntity
  8
SUNPOU
 62
     4
100
AcDbMText
 10
211.112969299671
 20
225.5442217461682
 30
0.0
 40
6.0
 41
0.0
 71
     5
 72
     1
  1
\A1;67
 11
6.123031769111886E-17
 21
1.0
 31
0.0
 73
     1
 44
1.0
  0
POINT
  5
213D
330
20A4
100
AcDbEntity
  8
DEFPOINTS
 62
     0
100
AcDbPoint
 10
253.0819998752205
 20
259.0443217461682
 30
0.0
  0
POINT
  5
213E
330
20A4
100
AcDbEntity
  8
DEFPOINTS
 62
     0
100
AcDbPoint
 10
399.5819998752203
 20
192.0441217461681
 30
0.0
  0
POINT
  5
213F
330
20A4
100
AcDbEntity
  8
DEFPOINTS
 62
     0
100
AcDbPoint
 10
216.112969299671
 20
192.0441217461681
 30
0.0
  0
ENDBLK
  5
20AF
330
20A4
100
AcDbEntity
  8
0
100
AcDbBlockEnd
  0
BLOCK
  5
20BA
330
20B0
100
AcDbEntity
  8
0
100
AcDbBlockBegin
  2
*D7
 70
     1
 71
     0
 10
0.0
 20
0.0
 30
0.0
  3
*D7
  1

  0
LINE
  5
2140
330
20B0
100
AcDbEntity
  8
SUNPOU
 62
     4
370
    -2
100
AcDbLine
 10
373.2319998752206
 20
247.3443217461682
 30
0.0
 11
373.2319998752206
 21
297.4985412826002
 31
0.0
  0
LINE
  5
2141
330
20B0
100
AcDbEntity
  8
SUNPOU
 62
     4
370
    -2
100
AcDbLine
 10
403.5819998752203
 20
264.0441217461682
 30
0.0
 11
403.5819998752203
 21
297.4985412826002
 31
0.0
  0
LINE
  5
2142
330
20B0
100
AcDbEntity
  8
SUNPOU
 62
     4
370
    -2
100
AcDbLine
 10
380.2319998752206
 20
294.4985412826002
 30
0.0
 11
396.5819998752203
 21
294.4985412826002
 31
0.0
  0
INSERT
  5
2143
330
20B0
100
AcDbEntity
  8
SUNPOU
 62
     4
370
    -2
100
AcDbBlockReference
  2
_OPEN
 10
373.2319998752206
 20
294.4985412826002
 30
0.0
 41
7.0
 42
7.0
 43
7.0
 50
180.0
  0
INSERT
  5
2144
330
20B0
100
AcDbEntity
  8
SUNPOU
 62
     4
370
    -2
100
AcDbBlockReference
  2
_OPEN
 10
403.5819998752203
 20
294.4985412826002
 30
0.0
 41
7.0
 42
7.0
 43
7.0
  0
MTEXT
  5
2145
330
20B0
100
AcDbEntity
  8
SUNPOU
 62
     4
100
AcDbMText
 10
388.4069998752204
 20
299.4985412826002
 30
0.0
 40
6.0
 41
0.0
 71
     5
 72
     1
  1
\A1;30
 73
     1
 44
1.0
  0
POINT
  5
2146
330
20B0
100
AcDbEntity
  8
DEFPOINTS
 62
     0
100
AcDbPoint
 10
373.2319998752206
 20
241.3443217461682
 30
0.0
  0
POINT
  5
2147
330
20B0
100
AcDbEntity
  8
DEFPOINTS
 62
     0
100
AcDbPoint
 10
403.5819998752203
 20
258.0441217461682
 30
0.0
  0
POINT
  5
2148
330
20B0
100
AcDbEntity
  8
DEFPOINTS
 62
     0
100
AcDbPoint
 10
403.5819998752203
 20
294.4985412826002
 30
0.0
  0
ENDBLK
  5
20BB
330
20B0
100
AcDbEntity
  8
0
100
AcDbBlockEnd
  0
BLOCK
  5
20C8
330
20BC
100
AcDbEntity
  8
0
100
AcDbBlockBegin
  2
*D8
 70
     1
 71
     0
 10
0.0
 20
0.0
 30
0.0
  3
*D8
  1

  0
LINE
  5
2149
330
20BC
100
AcDbEntity
  8
SUNPOU
 62
     4
370
    -2
100
AcDbLine
 10
248.5820998752205
 20
395.5443217461682
 30
0.0
 11
213.112969299671
 21
395.5443217461682
 31
0.0
  0
LINE
  5
214A
330
20BC
100
AcDbEntity
  8
SUNPOU
 62
     4
370
    -2
100
AcDbLine
 10
248.5820998752205
 20
380.5443217461682
 30
0.0
 11
213.112969299671
 21
380.5443217461682
 31
0.0
  0
LINE
  5
214B
330
20BC
100
AcDbEntity
  8
SUNPOU
 62
     4
370
    -2
100
AcDbLine
 10
216.112969299671
 20
402.5443217461682
 30
0.0
 11
216.112969299671
 21
409.5443217461682
 31
0.0
  0
LINE
  5
214C
330
20BC
100
AcDbEntity
  8
SUNPOU
 62
     4
370
    -2
100
AcDbLine
 10
216.112969299671
 20
373.5443217461682
 30
0.0
 11
216.112969299671
 21
366.5443217461682
 31
0.0
  0
LINE
  5
214D
330
20BC
100
AcDbEntity
  8
SUNPOU
 62
     4
370
    -2
100
AcDbLine
 10
216.112969299671
 20
395.5443217461682
 30
0.0
 11
216.112969299671
 21
380.5443217461682
 31
0.0
  0
INSERT
  5
214E
330
20BC
100
AcDbEntity
  8
SUNPOU
 62
     4
370
    -2
100
AcDbBlockReference
  2
_OPEN
 10
216.112969299671
 20
395.5443217461682
 30
0.0
 41
7.0
 42
7.0
 43
7.0
 50
270.0
  0
INSERT
  5
214F
330
20BC
100
AcDbEntity
  8
SUNPOU
 62
     4
370
    -2
100
AcDbBlockReference
  2
_OPEN
 10
216.112969299671
 20
380.5443217461682
 30
0.0
 41
7.0
 42
7.0
 43
7.0
 50
90.0
  0
MTEXT
  5
2150
330
20BC
100
AcDbEntity
  8
SUNPOU
 62
     4
100
AcDbMText
 10
211.112969299671
 20
388.0443217461682
 30
0.0
 40
6.0
 41
0.0
 71
     5
 72
     1
  1
\A1;15
 11
6.123031769111886E-17
 21
1.0
 31
0.0
 73
     1
 44
1.0
  0
POINT
  5
2151
330
20BC
100
AcDbEntity
  8
DEFPOINTS
 62
     0
100
AcDbPoint
 10
254.5820998752205
 20
395.5443217461682
 30
0.0
  0
POINT
  5
2152
330
20BC
100
AcDbEntity
  8
DEFPOINTS
 62
     0
100
AcDbPoint
 10
254.5820998752205
 20
380.5443217461682
 30
0.0
  0
POINT
  5
2153
330
20BC
100
AcDbEntity
  8
DEFPOINTS
 62
     0
100
AcDbPoint
 10
216.112969299671
 20
380.5443217461682
 30
0.0
  0
ENDBLK
  5
20C9
330
20BC
100
AcDbEntity
  8
0
100
AcDbBlockEnd
  0
BLOCK
  5
20D4
330
20CA
100
AcDbEntity
  8
0
100
AcDbBlockBegin
  2
*D9
 70
     1
 71
     0
 10
0.0
 20
0.0
 30
0.0
  3
*D9
  1

  0
LINE
  5
2154
330
20CA
100
AcDbEntity
  8
SUNPOU
 62
     4
370
    -2
100
AcDbLine
 10
517.0819998752204
 20
242.0441217461681
 30
0.0
 11
517.0819998752204
 21
307.5993089976987
 31
0.0
  0
LINE
  5
2155
330
20CA
100
AcDbEntity
  8
SUNPOU
 62
     4
370
    -2
100
AcDbLine
 10
582.0819998752204
 20
242.0441217461681
 30
0.0
 11
582.0819998752204
 21
307.5993089976987
 31
0.0
  0
LINE
  5
2156
330
20CA
100
AcDbEntity
  8
SUNPOU
 62
     4
370
    -2
100
AcDbLine
 10
524.0819998752204
 20
304.5993089976987
 30
0.0
 11
575.0819998752204
 21
304.5993089976987
 31
0.0
  0
INSERT
  5
2157
330
20CA
100
AcDbEntity
  8
SUNPOU
 62
     4
370
    -2
100
AcDbBlockReference
  2
_OPEN
 10
517.0819998752204
 20
304.5993089976987
 30
0.0
 41
7.0
 42
7.0
 43
7.0
 50
180.0
  0
INSERT
  5
2158
330
20CA
100
AcDbEntity
  8
SUNPOU
 62
     4
370
    -2
100
AcDbBlockReference
  2
_OPEN
 10
582.0819998752204
 20
304.5993089976987
 30
0.0
 41
7.0
 42
7.0
 43
7.0
  0
MTEXT
  5
2159
330
20CA
100
AcDbEntity
  8
SUNPOU
 62
     4
100
AcDbMText
 10
549.5819998752204
 20
309.5993089976987
 30
0.0
 40
6.0
 41
0.0
 71
     5
 72
     1
  1
\A1;65
 73
     1
 44
1.0
  0
POINT
  5
215A
330
20CA
100
AcDbEntity
  8
DEFPOINTS
 62
     0
100
AcDbPoint
 10
517.0819998752204
 20
236.0441217461681
 30
0.0
  0
POINT
  5
215B
330
20CA
100
AcDbEntity
  8
DEFPOINTS
 62
     0
100
AcDbPoint
 10
582.0819998752204
 20
236.0441217461681
 30
0.0
  0
POINT
  5
215C
330
20CA
100
AcDbEntity
  8
DEFPOINTS
 62
     0
100
AcDbPoint
 10
582.0819998752204
 20
304.5993089976987
 30
0.0
  0
ENDBLK
  5
20D5
330
20CA
100
AcDbEntity
  8
0
100
AcDbBlockEnd
  0
BLOCK
  5
20E0
330
20D6
100
AcDbEntity
  8
0
100
AcDbBlockBegin
  2
*D10
 70
     1
 71
     0
 10
0.0
 20
0.0
 30
0.0
  3
*D10
  1

  0
LINE
  5
215D
330
20D6
100
AcDbEntity
  8
SUNPOU
 62
     4
370
    -2
100
AcDbLine
 10
526.0820998752205
 20
247.0836217461682
 30
0.0
 11
526.0820998752205
 21
290.2908293739361
 31
0.0
  0
LINE
  5
215E
330
20D6
100
AcDbEntity
  8
SUNPOU
 62
     4
370
    -2
100
AcDbLine
 10
573.0818998752204
 20
247.0833217461682
 30
0.0
 11
573.0818998752204
 21
290.2908293739361
 31
0.0
  0
LINE
  5
215F
330
20D6
100
AcDbEntity
  8
SUNPOU
 62
     4
370
    -2
100
AcDbLine
 10
533.0820998752205
 20
287.2908293739361
 30
0.0
 11
566.0818998752204
 21
287.2908293739361
 31
0.0
  0
INSERT
  5
2160
330
20D6
100
AcDbEntity
  8
SUNPOU
 62
     4
370
    -2
100
AcDbBlockReference
  2
_OPEN
 10
526.0820998752205
 20
287.2908293739361
 30
0.0
 41
7.0
 42
7.0
 43
7.0
 50
180.0
  0
INSERT
  5
2161
330
20D6
100
AcDbEntity
  8
SUNPOU
 62
     4
370
    -2
100
AcDbBlockReference
  2
_OPEN
 10
573.0818998752204
 20
287.2908293739361
 30
0.0
 41
7.0
 42
7.0
 43
7.0
  0
MTEXT
  5
2162
330
20D6
100
AcDbEntity
  8
SUNPOU
 62
     4
100
AcDbMText
 10
549.5819998752204
 20
292.2908293739361
 30
0.0
 40
6.0
 41
0.0
 71
     5
 72
     1
  1
\A1;47
 73
     1
 44
1.0
  0
POINT
  5
2163
330
20D6
100
AcDbEntity
  8
DEFPOINTS
 62
     0
100
AcDbPoint
 10
526.0820998752205
 20
241.0836217461682
 30
0.0
  0
POINT
  5
2164
330
20D6
100
AcDbEntity
  8
DEFPOINTS
 62
     0
100
AcDbPoint
 10
573.0818998752204
 20
241.0833217461682
 30
0.0
  0
POINT
  5
2165
330
20D6
100
AcDbEntity
  8
DEFPOINTS
 62
     0
100
AcDbPoint
 10
573.0818998752204
 20
287.2908293739361
 30
0.0
  0
ENDBLK
  5
20E1
330
20D6
100
AcDbEntity
  8
0
100
AcDbBlockEnd
  0
BLOCK
  5
20EE
330
20E2
100
AcDbEntity
  8
0
100
AcDbBlockBegin
  2
*D11
 70
     1
 71
     0
 10
0.0
 20
0.0
 30
0.0
  3
*D11
  1

  0
LINE
  5
2166
330
20E2
100
AcDbEntity
  8
SUNPOU
 62
     4
370
    -2
100
AcDbLine
 10
539.3846998752205
 20
202.0441217461681
 30
0.0
 11
497.443277426014
 21
202.0441217461681
 31
0.0
  0
LINE
  5
2167
330
20E2
100
AcDbEntity
  8
SUNPOU
 62
     4
370
    -2
100
AcDbLine
 10
543.5818998752203
 20
192.0441217461681
 30
0.0
 11
497.443277426014
 21
192.0441217461681
 31
0.0
  0
LINE
  5
2168
330
20E2
100
AcDbEntity
  8
SUNPOU
 62
     4
370
    -2
100
AcDbLine
 10
500.443277426014
 20
209.0441217461681
 30
0.0
 11
500.443277426014
 21
216.0441217461681
 31
0.0
  0
LINE
  5
2169
330
20E2
100
AcDbEntity
  8
SUNPOU
 62
     4
370
    -2
100
AcDbLine
 10
500.443277426014
 20
185.0441217461681
 30
0.0
 11
500.443277426014
 21
167.0441217461681
 31
0.0
  0
LINE
  5
216A
330
20E2
100
AcDbEntity
  8
SUNPOU
 62
     4
370
    -2
100
AcDbLine
 10
500.443277426014
 20
202.0441217461681
 30
0.0
 11
500.443277426014
 21
192.0441217461681
 31
0.0
  0
INSERT
  5
216B
330
20E2
100
AcDbEntity
  8
SUNPOU
 62
     4
370
    -2
100
AcDbBlockReference
  2
_OPEN
 10
500.443277426014
 20
202.0441217461681
 30
0.0
 41
7.0
 42
7.0
 43
7.0
 50
270.0
  0
INSERT
  5
216C
330
20E2
100
AcDbEntity
  8
SUNPOU
 62
     4
370
    -2
100
AcDbBlockReference
  2
_OPEN
 10
500.443277426014
 20
192.0441217461681
 30
0.0
 41
7.0
 42
7.0
 43
7.0
 50
90.0
  0
MTEXT
  5
216D
330
20E2
100
AcDbEntity
  8
SUNPOU
 62
     4
100
AcDbMText
 10
495.4432774260139
 20
172.5441217461682
 30
0.0
 40
6.0
 41
0.0
 71
     5
 72
     1
  1
\A1;10
 11
6.123031769111886E-17
 21
1.0
 31
0.0
 73
     1
 44
1.0
  0
POINT
  5
216E
330
20E2
100
AcDbEntity
  8
DEFPOINTS
 62
     0
100
AcDbPoint
 10
545.3846998752205
 20
202.0441217461681
 30
0.0
  0
POINT
  5
216F
330
20E2
100
AcDbEntity
  8
DEFPOINTS
 62
     0
100
AcDbPoint
 10
549.5818998752203
 20
192.0441217461681
 30
0.0
  0
POINT
  5
2170
330
20E2
100
AcDbEntity
  8
DEFPOINTS
 62
     0
100
AcDbPoint
 10
500.443277426014
 20
192.0441217461681
 30
0.0
  0
ENDBLK
  5
20EF
330
20E2
100
AcDbEntity
  8
0
100
AcDbBlockEnd
  0
BLOCK
  5
20FA
330
20F0
100
AcDbEntity
  8
0
100
AcDbBlockBegin
  2
*D12
 70
     1
 71
     0
 10
0.0
 20
0.0
 30
0.0
  3
*D12
  1

  0
LINE
  5
2171
330
20F0
100
AcDbEntity
  8
SUNPOU
 62
     4
370
    -2
100
AcDbLine
 10
529.6321998752205
 20
258.0441217461682
 30
0.0
 11
487.1492604521282
 21
258.0441217461682
 31
0.0
  0
LINE
  5
2172
330
20F0
100
AcDbEntity
  8
SUNPOU
 62
     4
370
    -2
100
AcDbLine
 10
515.1473998752203
 20
236.0441217461681
 30
0.0
 11
487.1492604521282
 21
236.0441217461681
 31
0.0
  0
LINE
  5
2173
330
20F0
100
AcDbEntity
  8
SUNPOU
 62
     4
370
    -2
100
AcDbLine
 10
490.1492604521282
 20
251.0441217461682
 30
0.0
 11
490.1492604521282
 21
243.0441217461681
 31
0.0
  0
INSERT
  5
2174
330
20F0
100
AcDbEntity
  8
SUNPOU
 62
     4
370
    -2
100
AcDbBlockReference
  2
_OPEN
 10
490.1492604521282
 20
258.0441217461682
 30
0.0
 41
7.0
 42
7.0
 43
7.0
 50
90.0
  0
INSERT
  5
2175
330
20F0
100
AcDbEntity
  8
SUNPOU
 62
     4
370
    -2
100
AcDbBlockReference
  2
_OPEN
 10
490.1492604521282
 20
236.0441217461681
 30
0.0
 41
7.0
 42
7.0
 43
7.0
 50
270.0
  0
MTEXT
  5
2176
330
20F0
100
AcDbEntity
  8
SUNPOU
 62
     4
100
AcDbMText
 10
485.1492604521281
 20
247.0441217461682
 30
0.0
 40
6.0
 41
0.0
 71
     5
 72
     1
  1
\A1;22
 11
6.123031769111886E-17
 21
1.0
 31
0.0
 73
     1
 44
1.0
  0
POINT
  5
2177
330
20F0
100
AcDbEntity
  8
DEFPOINTS
 62
     0
100
AcDbPoint
 10
535.6321998752205
 20
258.0441217461682
 30
0.0
  0
POINT
  5
2178
330
20F0
100
AcDbEntity
  8
DEFPOINTS
 62
     0
100
AcDbPoint
 10
521.1473998752203
 20
236.0441217461681
 30
0.0
  0
POINT
  5
2179
330
20F0
100
AcDbEntity
  8
DEFPOINTS
 62
     0
100
AcDbPoint
 10
490.1492604521282
 20
236.0441217461681
 30
0.0
  0
ENDBLK
  5
20FB
330
20F0
100
AcDbEntity
  8
0
100
AcDbBlockEnd
  0
BLOCK
  5
2106
330
20FC
100
AcDbEntity
  8
0
100
AcDbBlockBegin
  2
*D13
 70
     1
 71
     0
 10
0.0
 20
0.0
 30
0.0
  3
*D13
  1

  0
LINE
  5
217A
330
20FC
100
AcDbEntity
  8
SUNPOU
 62
     4
370
    -2
100
AcDbLine
 10
569.4919998752202
 20
258.0441217461682
 30
0.0
 11
614.6688560493377
 21
258.0441217461682
 31
0.0
  0
LINE
  5
217B
330
20FC
100
AcDbEntity
  8
SUNPOU
 62
     4
370
    -2
100
AcDbLine
 10
583.6800998752206
 20
236.0440217461682
 30
0.0
 11
614.6688560493376
 21
236.0440217461682
 31
0.0
  0
LINE
  5
217C
330
20FC
100
AcDbEntity
  8
SUNPOU
 62
     4
370
    -2
100
AcDbLine
 10
611.6688560493376
 20
251.0441217461681
 30
0.0
 11
611.6688560493376
 21
243.0440217461682
 31
0.0
  0
INSERT
  5
217D
330
20FC
100
AcDbEntity
  8
SUNPOU
 62
     4
370
    -2
100
AcDbBlockReference
  2
_OPEN
 10
611.6688560493377
 20
258.0441217461682
 30
0.0
 41
7.0
 42
7.0
 43
7.0
 50
90.0
  0
INSERT
  5
217E
330
20FC
100
AcDbEntity
  8
SUNPOU
 62
     4
370
    -2
100
AcDbBlockReference
  2
_OPEN
 10
611.6688560493376
 20
236.0440217461682
 30
0.0
 41
7.0
 42
7.0
 43
7.0
 50
270.0
  0
MTEXT
  5
217F
330
20FC
100
AcDbEntity
  8
SUNPOU
 62
     4
100
AcDbMText
 10
606.6688560493376
 20
247.0440717461683
 30
0.0
 40
6.0
 41
0.0
 71
     5
 72
     1
  1
\A1;22
 11
6.123031769111886E-17
 21
1.0
 31
0.0
 73
     1
 44
1.0
  0
POINT
  5
2180
330
20FC
100
AcDbEntity
  8
DEFPOINTS
 62
     0
100
AcDbPoint
 10
563.4919998752202
 20
258.0441217461682
 30
0.0
  0
POINT
  5
2181
330
20FC
100
AcDbEntity
  8
DEFPOINTS
 62
     0
100
AcDbPoint
 10
577.6800998752206
 20
236.0440217461682
 30
0.0
  0
POINT
  5
2182
330
20FC
100
AcDbEntity
  8
DEFPOINTS
 62
     0
100
AcDbPoint
 10
611.6688560493376
 20
236.0440217461682
 30
0.0
  0
ENDBLK
  5
2107
330
20FC
100
AcDbEntity
  8
0
100
AcDbBlockEnd
  0
ENDSEC
  0
SECTION
  2
ENTITIES
  0
LWPOLYLINE
  5
1609
330
1A
100
AcDbEntity
  8
ZUWAKU
100
AcDbPolyline
 90
        4
 70
     1
 43
0.0
 10
0.799999566643919
 20
550.8000006402971
 10
0.799999566643919
 20
0.8000006402971849
 10
796.7999995666438
 20
0.8000006402971849
 10
796.7999995666438
 20
550.8000006402971
  0
LWPOLYLINE
  5
160A
330
1A
100
AcDbEntity
  8
ZUWAKU
100
AcDbPolyline
 90
        4
 70
     1
 43
0.0
 10
0.3999995666439418
 20
551.2000006402971
 10
0.3999995666439418
 20
0.4000006402972076
 10
797.199999566644
 20
0.4000006402971845
 10
797.199999566644
 20
551.2000006402971
  0
LWPOLYLINE
  5
160B
330
1A
100
AcDbEntity
  8
ZUWAKU
100
AcDbPolyline
 90
        4
 70
     1
 43
0.0
 10
-0.0000004333560355
 20
551.6000006402971
 10
-0.0000004333560355
 20
0.0000006402971167
 10
797.599999566644
 20
0.0000006402971842
 10
797.599999566644
 20
551.6000006402973
  0
LWPOLYLINE
  5
160C
330
1A
100
AcDbEntity
  8
ZUWAKU
100
AcDbPolyline
 90
        4
 70
     1
 43
0.0
 10
0.5999995666438736
 20
551.0000006402972
 10
0.5999995666438736
 20
0.6000006402971395
 10
796.9999995666442
 20
0.6000006402971857
 10
796.999999566644
 20
551.0000006402972
  0
LWPOLYLINE
  5
160D
330
1A
100
AcDbEntity
  8
ZUWAKU
100
AcDbPolyline
 90
        4
 70
     1
 43
0.0
 10
0.1999995666438963
 20
551.4000006402971
 10
0.1999995666438963
 20
0.2000006402971622
 10
797.3999995666438
 20
0.2000006402971852
 10
797.3999995666441
 20
551.4000006402971
  0
LINE
  5
160E
330
1A
100
AcDbEntity
  8
ZUWAKU
100
AcDbLine
 10
-0.0000004333560355
 20
30.00000064029711
 30
0.0
 11
797.3999995666438
 21
30.00000064029711
 31
0.0
  0
LINE
  5
160F
330
1A
100
AcDbEntity
  8
ZUWAKU
100
AcDbLine
 10
-0.0000004333560355
 20
30.20000064029711
 30
0.0
 11
797.3999995666438
 21
30.20000064029711
 31
0.0
  0
LINE
  5
1610
330
1A
100
AcDbEntity
  8
ZUWAKU
100
AcDbLine
 10
-0.0000004333560355
 20
30.40000064029713
 30
0.0
 11
797.3999995666438
 21
30.40000064029713
 31
0.0
  0
LINE
  5
1611
330
1A
100
AcDbEntity
  8
ZUWAKU
100
AcDbLine
 10
-0.0000004333560355
 20
30.60000064029713
 30
0.0
 11
797.3999995666438
 21
30.60000064029713
 31
0.0
  0
LINE
  5
1612
330
1A
100
AcDbEntity
  8
ZUWAKU
100
AcDbLine
 10
-0.0000004333560355
 20
30.80000064029713
 30
0.0
 11
797.3999995666438
 21
30.80000064029713
 31
0.0
  0
LINE
  5
1613
330
1A
100
AcDbEntity
  8
ZUWAKU
100
AcDbLine
 10
208.646600856712
 20
15.40000064029714
 30
0.0
 11
447.4243635376353
 21
15.40000064029714
 31
0.0
  0
LINE
  5
1614
330
1A
100
AcDbEntity
  8
ZUWAKU
100
AcDbLine
 10
208.646600856712
 20
15.60000064029715
 30
0.0
 11
447.4243635376353
 21
15.60000064029715
 31
0.0
  0
LINE
  5
1615
330
1A
100
AcDbEntity
  8
ZUWAKU
100
AcDbLine
 10
208.646600856712
 20
15.20000064029715
 30
0.0
 11
447.4243635376353
 21
15.20000064029714
 31
0.0
  0
TEXT
  5
1616
330
1A
100
AcDbEntity
  8
MOJI
100
AcDbText
 10
90.75324551577
 20
12.83491815671096
 30
0.0
 40
5.8
  1
アーバントップΣ９０
 41
0.9
  7
ｽﾀｲﾙ1
100
AcDbText
  0
CIRCLE
  5
1617
330
1A
100
AcDbEntity
  8
ZUWAKU
100
AcDbCircle
 10
25.99221172142506
 20
15.20000064029711
 30
0.0
 40
1.75
  0
LINE
  5
1618
330
1A
100
AcDbEntity
  8
ZUWAKU
100
AcDbLine
 10
26.86721172142507
 20
7.150000640297122
 30
0.0
 11
24.94221172142511
 21
7.150000640297122
 31
0.0
  0
LINE
  5
1619
330
1A
100
AcDbEntity
  8
ZUWAKU
100
AcDbLine
 10
24.94221172142511
 20
9.950000640297118
 30
0.0
 11
26.86721172142507
 21
9.950000640297118
 31
0.0
  0
LINE
  5
161A
330
1A
100
AcDbEntity
  8
ZUWAKU
100
AcDbLine
 10
26.86721172142507
 20
20.45000064029711
 30
0.0
 11
24.94221172142511
 21
20.45000064029711
 31
0.0
  0
LINE
  5
161B
330
1A
100
AcDbEntity
  8
ZUWAKU
100
AcDbLine
 10
24.94221172142511
 20
23.25000064029707
 30
0.0
 11
26.86721172142507
 21
23.25000064029711
 31
0.0
  0
HATCH
  5
161C
330
1A
100
AcDbEntity
  8
ZUWAKU
100
AcDbHatch
 10
0.0
 20
0.0
 30
0.0
210
0.0
220
0.0
230
1.0
  2
ANSI37
 70
     0
 71
     0
 91
        8
 92
        7
 72
     1
 73
     1
 93
       24
 10
14.50226222776382
 20
17.6448491212807
 42
-0.1989123673796348
 10
14.09221172142509
 20
18.63479861494174
 42
0.0
 10
14.09221172142509
 20
19.92500064029712
 42
-0.4142135623730912
 10
14.61721172142506
 20
20.45000064029711
 42
0.0
 10
17.59221172142496
 20
20.45000064029711
 42
0.4142135623731546
 10
18.11721172142507
 20
20.97500064029711
 42
0.0
 10
18.11721172142507
 20
22.72500064029713
 42
0.4142135623731586
 10
17.59221172142496
 20
23.25000064029711
 42
0.0
 10
14.09221172142509
 20
23.25000064029711
 42
0.4142135623730928
 10
11.29221172142513
 20
20.45000064029714
 42
0.0
 10
11.29221172142513
 20
18.63479861494188
 42
0.1989123673796619
 10
12.52236324044156
 20
15.66495013395826
 42
0.0
 10
15.43216121508623
 20
12.75515215931361
 42
-0.1989123673796613
 10
15.84221172142509
 20
11.76520266565242
 42
0.0
 10
15.84221172142509
 20
10.4750006402971
 42
-0.4142135623730911
 10
15.31721172142511
 20
9.950000640297118
 42
0.0
 10
12.3422117214252
 20
9.950000640297118
 42
0.4142135623731526
 10
11.81721172142511
 20
9.42500064029713
 42
0.0
 10
11.81721172142511
 20
7.675000640297109
 42
0.4142135623731526
 10
12.3422117214252
 20
7.150000640297122
 42
0.0
 10
15.84221172142509
 20
7.150000640297122
 42
0.4142135623731044
 10
18.64221172142516
 20
9.950000640297098
 42
0.0
 10
18.64221172142516
 20
11.76520266565236
 42
0.1989123673796604
 10
17.4120602024086
 20
14.73505114663591
 42
0.0
 97
        0
 92
        7
 72
     1
 73
     1
 93
       16
 10
23.54221172142513
 20
19.05000064029712
 42
-0.4142135623730935
 10
24.94221172142511
 20
20.45000064029711
 42
0.0
 10
26.86721172142507
 20
20.45000064029711
 42
0.4142135623731546
 10
27.39221172142516
 20
20.97500064029711
 42
0.0
 10
27.39221172142516
 20
22.72500064029713
 42
0.4142135623730951
 10
26.86721172142518
 20
23.25000064029711
 42
0.0
 10
24.942211721425
 20
23.25000064029707
 42
0.4142135623730892
 10
20.74221172142505
 20
19.05000064029706
 42
0.0
 10
20.74221172142505
 20
11.35000064029715
 42
0.4142135623730969
 10
24.94221172142511
 20
7.150000640297122
 42
0.0
 10
26.86721172142507
 20
7.150000640297122
 42
0.4142135623731526
 10
27.39221172142516
 20
7.675000640297109
 42
0.0
 10
27.39221172142516
 20
9.42500064029713
 42
0.4142135623730891
 10
26.86721172142518
 20
9.950000640297118
 42
0.0
 10
24.94221172142511
 20
9.950000640297118
 42
-0.4142135623730928
 10
23.54221172142513
 20
11.3500006402971
 42
0.0
 97
        0
 92
        7
 72
     1
 73
     1
 93
        2
 10
24.24221172142507
 20
15.20000064029711
 42
1.0
 10
27.74221172142507
 20
15.20000064029711
 42
1.0
 97
        0
 92
        7
 72
     1
 73
     1
 93
       26
 10
37.31485820360308
 20
19.20504783386054
 42
0.0
 10
38.3764978367409
 20
22.56690667213013
 42
0.5069206636600134
 10
37.87586693754554
 20
23.25000064029711
 42
0.0
 10
36.1769775579363
 20
23.25000064029711
 42
0.3272098845218764
 10
35.67634665874095
 20
22.88309460846408
 42
0.0
 10
33.80807678410916
 20
16.96690667213019
 42
-0.3272098845219541
 10
33.3074458849137
 20
16.60000064029712
 42
0.0
 10
33.16721172142525
 20
16.60000064029712
 42
-0.4142135623731526
 10
32.64221172142516
 20
17.1250006402971
 42
0.0
 10
32.64221172142516
 20
22.72500064029713
 42
0.4142135623730951
 10
32.11721172142518
 20
23.25000064029711
 42
0.0
 10
30.36721172142506
 20
23.25000064029711
 42
0.4142135623730871
 10
29.84221172142509
 20
22.72500064029713
 42
0.0
 10
29.84221172142509
 20
7.675000640297109
 42
0.4142135623730891
 10
30.36721172142506
 20
7.150000640297122
 42
0.0
 10
32.11721172142507
 20
7.150000640297122
 42
0.4142135623731526
 10
32.64221172142516
 20
7.675000640297109
 42
0.0
 10
32.64221172142516
 20
13.27500064029712
 42
-0.4142135623731526
 10
33.16721172142525
 20
13.80000064029711
 42
0.0
 10
33.30744588491382
 20
13.80000064029711
 42
-0.3272098845218915
 10
33.80807678410916
 20
13.43309460846404
 42
0.0
 10
35.67634665874095
 20
7.516906672130193
 42
0.3272098845218902
 10
36.1769775579363
 20
7.150000640297122
 42
0.0
 10
37.87586693754554
 20
7.150000640297122
 42
0.5069206636600335
 10
38.3764978367409
 20
7.83309460846413
 42
0.0
 10
36.05010645826724
 20
15.20000064029726
 42
0.0
 97
        0
 92
        7
 72
     1
 73
     1
 93
        8
 10
43.49221172142505
 20
22.72500064029713
 42
0.4142135623731546
 10
42.96721172142497
 20
23.25000064029711
 42
0.0
 10
41.21721172142521
 20
23.25000064029711
 42
0.4142135623731507
 10
40.6922117214251
 20
22.72500064029713
 42
0.0
 10
40.6922117214251
 20
7.675000640297109
 42
0.4142135623731526
 10
41.21721172142521
 20
7.150000640297122
 42
0.0
 10
42.96721172142497
 20
7.150000640297122
 42
0.4142135623731526
 10
43.49221172142505
 20
7.675000640297109
 42
0.0
 97
        0
 92
        7
 72
     1
 73
     1
 93
       24
 10
48.39221172142515
 20
19.92500064029712
 42
-0.4142135623731546
 10
48.91721172142525
 20
20.45000064029711
 42
0.0
 10
51.89221172142516
 20
20.45000064029711
 42
0.4142135623730911
 10
52.41721172142513
 20
20.97500064029711
 42
0.0
 10
52.41721172142513
 20
22.72500064029713
 42
0.4142135623730952
 10
51.89221172142516
 20
23.25000064029711
 42
0.0
 10
48.39221172142515
 20
23.25000064029711
 42
0.4142135623731048
 10
45.59221172142509
 20
20.45000064029714
 42
0.0
 10
45.59221172142509
 20
18.63479861494188
 42
0.1989123673796613
 10
46.82236324044163
 20
15.66495013395833
 42
0.0
 10
49.7321612150863
 20
12.75515215931366
 42
-0.1989123673796402
 10
50.14221172142516
 20
11.76520266565258
 42
0.0
 10
50.14221172142516
 20
10.4750006402971
 42
-0.4142135623730911
 10
49.61721172142518
 20
9.950000640297118
 42
0.0
 10
46.64221172142516
 20
9.950000640297118
 42
0.4142135623731526
 10
46.11721172142507
 20
9.42500064029713
 42
0.0
 10
46.11721172142507
 20
7.675000640297109
 42
0.4142135623730891
 10
46.64221172142504
 20
7.150000640297122
 42
0.0
 10
50.14221172142516
 20
7.150000640297122
 42
0.4142135623730925
 10
52.9422117214251
 20
9.950000640297098
 42
0.0
 10
52.9422117214251
 20
11.76520266565236
 42
0.1989123673796675
 10
51.71206020240857
 20
14.73505114663603
 42
0.0
 10
48.80226222776399
 20
17.64484912128054
 42
-0.1989123673796652
 10
48.39221172142515
 20
18.6347986149417
 42
0.0
 97
        0
 92
        7
 72
     1
 73
     1
 93
       16
 10
57.84221172142509
 20
22.7250006402971
 42
0.414213562373103
 10
57.3172117214251
 20
23.25000064029711
 42
0.0
 10
55.5672117214251
 20
23.25000064029711
 42
0.4142135623730871
 10
55.04221172142513
 20
22.72500064029713
 42
0.0
 10
55.04221172142513
 20
9.950000640297098
 42
0.4142135623730926
 10
57.84221172142509
 20
7.150000640297122
 42
0.0
 10
61.34221172142509
 20
7.150000640297122
 42
0.4142135623731044
 10
64.14221172142516
 20
9.950000640297098
 42
0.0
 10
64.14221172142516
 20
22.72500064029713
 42
0.4142135623730951
 10
63.61721172142518
 20
23.25000064029711
 42
0.0
 10
61.86721172142507
 20
23.25000064029711
 42
0.4142135623730871
 10
61.34221172142509
 20
22.72500064029713
 42
0.0
 10
61.34221172142509
 20
11.00000064029709
 42
-0.4142135623730879
 10
60.29221172142513
 20
9.950000640297118
 42
0.0
 10
58.89221172142516
 20
9.950000640297118
 42
-0.4142135623731197
 10
57.84221172142509
 20
11.00000064029709
 42
0.0
 97
        0
 92
        7
 72
     1
 73
     1
 93
        8
 10
69.04221172142513
 20
22.72500064029713
 42
0.4142135623730871
 10
68.51721172142516
 20
23.25000064029711
 42
0.0
 10
66.76721172142516
 20
23.25000064029711
 42
0.4142135623731507
 10
66.24221172142507
 20
22.72500064029713
 42
0.0
 10
66.24221172142507
 20
7.675000640297109
 42
0.4142135623730891
 10
66.76721172142504
 20
7.150000640297122
 42
0.0
 10
68.51721172142516
 20
7.150000640297122
 42
0.4142135623730891
 10
69.04221172142513
 20
7.675000640297109
 42
0.0
 97
        0
 75
     0
 76
     1
 52
0.0
 41
0.2
 77
     0
 78
     2
 53
45.0
 43
-900.9423047680351
 44
-13.19999935970281
 45
-0.4490128060534576
 46
0.4490128060534577
 79
     0
 53
135.0
 43
-900.9423047680351
 44
-13.19999935970281
 45
-0.4490128060534577
 46
-0.4490128060534576
 79
     0
 47
0.057451373970553
 98
        8
 10
16.07985452966727
 20
15.16717428618266
 10
22.40451457308314
 20
18.84406282274813
 10
25.16436745230362
 20
15.51188228636783
 10
30.9140595482811
 20
16.20129828673861
 10
41.83847158560069
 20
16.66091055428024
 10
46.89820046177351
 20
19.41857695670432
 10
56.55768553904431
 20
18.72915855539213
 10
67.8270791862667
 20
19.18877082293374
  0
ARC
  5
161D
330
1A
100
AcDbEntity
  8
ZUWAKU
100
AcDbCircle
 10
15.49221172142507
 20
18.63479861494181
 30
0.0
 40
4.199999999999998
100
AcDbArc
 50
180.0
 51
225.0
  0
LINE
  5
161E
330
1A
100
AcDbEntity
  8
ZUWAKU
100
AcDbLine
 10
20.74221172142505
 20
11.35000064029712
 30
0.0
 11
20.74221172142505
 21
19.05000064029708
 31
0.0
  0
LINE
  5
161F
330
1A
100
AcDbEntity
  8
ZUWAKU
100
AcDbLine
 10
23.54221172142513
 20
19.05000064029711
 30
0.0
 11
23.54221172142513
 21
11.35000064029712
 31
0.0
  0
ARC
  5
1620
330
1A
100
AcDbEntity
  8
ZUWAKU
100
AcDbCircle
 10
15.49221172142507
 20
18.63479861494181
 30
0.0
 40
1.399999999999999
100
AcDbArc
 50
180.0000000000016
 51
224.9999999999988
  0
ARC
  5
1621
330
1A
100
AcDbEntity
  8
ZUWAKU
100
AcDbCircle
 10
24.94221172142511
 20
11.35000064029712
 30
0.0
 40
4.199999999999998
100
AcDbArc
 50
180.0
 51
270.0
  0
ARC
  5
1622
330
1A
100
AcDbEntity
  8
ZUWAKU
100
AcDbCircle
 10
15.84221172142509
 20
9.950000640297118
 30
0.0
 40
2.799999999999999
100
AcDbArc
 50
270.0
 51
0.0
  0
ARC
  5
1623
330
1A
100
AcDbEntity
  8
ZUWAKU
100
AcDbCircle
 10
14.44221172142511
 20
11.76520266565242
 30
0.0
 40
4.199999999999998
100
AcDbArc
 50
0.0
 51
45.0
  0
LINE
  5
1624
330
1A
100
AcDbEntity
  8
ZUWAKU
100
AcDbLine
 10
12.52236324044156
 20
15.66495013395829
 30
0.0
 11
15.43216121508623
 21
12.75515215931364
 31
0.0
  0
LINE
  5
1625
330
1A
100
AcDbEntity
  8
ZUWAKU
100
AcDbLine
 10
12.34221172142509
 20
9.950000640297118
 30
0.0
 11
15.31721172142511
 21
9.950000640297118
 31
0.0
  0
LINE
  5
1626
330
1A
100
AcDbEntity
  8
ZUWAKU
100
AcDbLine
 10
12.34221172142509
 20
7.150000640297122
 30
0.0
 11
15.84221172142509
 21
7.150000640297122
 31
0.0
  0
ARC
  5
1627
330
1A
100
AcDbEntity
  8
ZUWAKU
100
AcDbCircle
 10
12.34221172142509
 20
9.425000640297119
 30
0.0
 40
0.525
100
AcDbArc
 50
90.0
 51
180.0
  0
ARC
  5
1628
330
1A
100
AcDbEntity
  8
ZUWAKU
100
AcDbCircle
 10
12.34221172142509
 20
7.67500064029712
 30
0.0
 40
0.525
100
AcDbArc
 50
180.0
 51
270.0
  0
LINE
  5
1629
330
1A
100
AcDbEntity
  8
ZUWAKU
100
AcDbLine
 10
11.81721172142511
 20
7.67500064029712
 30
0.0
 11
11.81721172142511
 21
9.425000640297119
 31
0.0
  0
ARC
  5
162A
330
1A
100
AcDbEntity
  8
ZUWAKU
100
AcDbCircle
 10
14.44221172142511
 20
11.76520266565246
 30
0.0
 40
1.399999999999999
100
AcDbArc
 50
0.0
 51
45.0
  0
ARC
  5
162B
330
1A
100
AcDbEntity
  8
ZUWAKU
100
AcDbCircle
 10
15.31721172142511
 20
10.47500064029712
 30
0.0
 40
0.525
100
AcDbArc
 50
270.0
 51
0.0
  0
LINE
  5
162C
330
1A
100
AcDbEntity
  8
ZUWAKU
100
AcDbLine
 10
15.84221172142509
 20
10.47500064029712
 30
0.0
 11
15.84221172142509
 21
11.76520266565246
 31
0.0
  0
LINE
  5
162D
330
1A
100
AcDbEntity
  8
ZUWAKU
100
AcDbLine
 10
17.4120602024086
 20
14.73505114663594
 30
0.0
 11
14.50226222776393
 21
17.64484912128062
 31
0.0
  0
ARC
  5
162E
330
1A
100
AcDbEntity
  8
ZUWAKU
100
AcDbCircle
 10
24.94221172142511
 20
11.35000064029712
 30
0.0
 40
1.399999999999999
100
AcDbArc
 50
180.0
 51
270.0
  0
LINE
  5
162F
330
1A
100
AcDbEntity
  8
ZUWAKU
100
AcDbLine
 10
18.64221172142516
 20
9.950000640297118
 30
0.0
 11
18.64221172142516
 21
11.76520266565246
 31
0.0
  0
ARC
  5
1630
330
1A
100
AcDbEntity
  8
ZUWAKU
100
AcDbCircle
 10
17.59221172142509
 20
20.97500064029712
 30
0.0
 40
0.525
100
AcDbArc
 50
270.0
 51
0.0
  0
ARC
  5
1631
330
1A
100
AcDbEntity
  8
ZUWAKU
100
AcDbCircle
 10
17.59221172142509
 20
22.72500064029712
 30
0.0
 40
0.525
100
AcDbArc
 50
0.0
 51
90.0
  0
ARC
  5
1632
330
1A
100
AcDbEntity
  8
ZUWAKU
100
AcDbCircle
 10
14.09221172142509
 20
20.45000064029711
 30
0.0
 40
2.799999999999999
100
AcDbArc
 50
90.0
 51
180.0
  0
LINE
  5
1633
330
1A
100
AcDbEntity
  8
ZUWAKU
100
AcDbLine
 10
11.29221172142513
 20
20.45000064029711
 30
0.0
 11
11.29221172142513
 21
18.63479861494178
 31
0.0
  0
LINE
  5
1634
330
1A
100
AcDbEntity
  8
ZUWAKU
100
AcDbLine
 10
17.59221172142509
 20
20.45000064029711
 30
0.0
 11
14.61721172142506
 21
20.45000064029711
 31
0.0
  0
LINE
  5
1635
330
1A
100
AcDbEntity
  8
ZUWAKU
100
AcDbLine
 10
14.09221172142509
 20
19.92500064029711
 30
0.0
 11
14.09221172142509
 21
18.63479861494178
 31
0.0
  0
ARC
  5
1636
330
1A
100
AcDbEntity
  8
ZUWAKU
100
AcDbCircle
 10
14.61721172142506
 20
19.92500064029711
 30
0.0
 40
0.525
100
AcDbArc
 50
90.0
 51
180.0
  0
LINE
  5
1637
330
1A
100
AcDbEntity
  8
ZUWAKU
100
AcDbLine
 10
14.09221172142509
 20
23.25000064029711
 30
0.0
 11
17.59221172142509
 21
23.25000064029711
 31
0.0
  0
ARC
  5
1638
330
1A
100
AcDbEntity
  8
ZUWAKU
100
AcDbCircle
 10
24.94221172142511
 20
19.05000064029708
 30
0.0
 40
4.199999999999998
100
AcDbArc
 50
90.0
 51
180.0
  0
ARC
  5
1639
330
1A
100
AcDbEntity
  8
ZUWAKU
100
AcDbCircle
 10
24.94221172142511
 20
19.05000064029711
 30
0.0
 40
1.399999999999999
100
AcDbArc
 50
90.0
 51
180.0
  0
LINE
  5
163A
330
1A
100
AcDbEntity
  8
ZUWAKU
100
AcDbLine
 10
18.11721172142507
 20
22.72500064029712
 30
0.0
 11
18.11721172142507
 21
20.97500064029712
 31
0.0
  0
LINE
  5
163B
330
1A
100
AcDbEntity
  8
ZUWAKU
100
AcDbLine
 10
35.67634665874095
 20
22.88309460846408
 30
0.0
 11
33.80807678410916
 21
16.96690667213014
 31
0.0
  0
LINE
  5
163C
330
1A
100
AcDbEntity
  8
ZUWAKU
100
AcDbLine
 10
29.84221172142509
 20
22.72500064029712
 30
0.0
 11
29.84221172142509
 21
7.67500064029712
 31
0.0
  0
LINE
  5
163D
330
1A
100
AcDbEntity
  8
ZUWAKU
100
AcDbLine
 10
32.64221172142516
 20
17.12500064029712
 30
0.0
 11
32.64221172142516
 21
22.72500064029712
 31
0.0
  0
LINE
  5
163E
330
1A
100
AcDbEntity
  8
ZUWAKU
100
AcDbLine
 10
57.84221172142509
 20
11.00000064029711
 30
0.0
 11
57.84221172142509
 21
22.72500064029712
 31
0.0
  0
LINE
  5
163F
330
1A
100
AcDbEntity
  8
ZUWAKU
100
AcDbLine
 10
55.04221172142513
 20
22.72500064029712
 30
0.0
 11
55.04221172142513
 21
9.950000640297118
 31
0.0
  0
LINE
  5
1640
330
1A
100
AcDbEntity
  8
ZUWAKU
100
AcDbLine
 10
43.49221172142505
 20
7.67500064029712
 30
0.0
 11
43.49221172142505
 21
22.72500064029712
 31
0.0
  0
LINE
  5
1641
330
1A
100
AcDbEntity
  8
ZUWAKU
100
AcDbLine
 10
40.6922117214251
 20
22.72500064029712
 30
0.0
 11
40.6922117214251
 21
7.67500064029712
 31
0.0
  0
LINE
  5
1642
330
1A
100
AcDbEntity
  8
ZUWAKU
100
AcDbLine
 10
37.31485820360308
 20
19.20504783386054
 30
0.0
 11
36.05010645826724
 21
15.20000064029713
 31
0.0
  0
ARC
  5
1643
330
1A
100
AcDbEntity
  8
ZUWAKU
100
AcDbCircle
 10
49.79221172142513
 20
18.63479861494181
 30
0.0
 40
4.199999999999998
100
AcDbArc
 50
180.0
 51
225.0
  0
ARC
  5
1644
330
1A
100
AcDbEntity
  8
ZUWAKU
100
AcDbCircle
 10
49.79221172142513
 20
18.63479861494181
 30
0.0
 40
1.399999999999999
100
AcDbArc
 50
180.0000000000016
 51
224.9999999999988
  0
LINE
  5
1645
330
1A
100
AcDbEntity
  8
ZUWAKU
100
AcDbLine
 10
66.24221172142507
 20
22.72500064029712
 30
0.0
 11
66.24221172142507
 21
7.67500064029712
 31
0.0
  0
LINE
  5
1646
330
1A
100
AcDbEntity
  8
ZUWAKU
100
AcDbLine
 10
69.04221172142513
 20
7.67500064029712
 30
0.0
 11
69.04221172142513
 21
22.72500064029712
 31
0.0
  0
LINE
  5
1647
330
1A
100
AcDbEntity
  8
ZUWAKU
100
AcDbLine
 10
61.34221172142509
 20
22.72500064029712
 30
0.0
 11
61.34221172142509
 21
11.00000064029711
 31
0.0
  0
LINE
  5
1648
330
1A
100
AcDbEntity
  8
ZUWAKU
100
AcDbLine
 10
64.14221172142516
 20
9.950000640297118
 30
0.0
 11
64.14221172142516
 21
22.72500064029712
 31
0.0
  0
LINE
  5
1649
330
1A
100
AcDbEntity
  8
ZUWAKU
100
AcDbLine
 10
79.12662911463235
 20
30.00000064029711
 30
0.0
 11
79.12662911463235
 21
0.8000006402971849
 31
0.0
  0
LINE
  5
164A
330
1A
100
AcDbEntity
  8
ZUWAKU
100
AcDbLine
 10
79.52662911463222
 20
30.00000064029711
 30
0.0
 11
79.52662911463243
 21
0.8000006402971849
 31
0.0
  0
LINE
  5
164B
330
1A
100
AcDbEntity
  8
ZUWAKU
100
AcDbLine
 10
79.32662911463217
 20
30.00000064029711
 30
0.0
 11
79.3266291146324
 21
0.8000006402971849
 31
0.0
  0
LINE
  5
164C
330
1A
100
AcDbEntity
  8
ZUWAKU
100
AcDbLine
 10
57.84221172142509
 20
7.150000640297122
 30
0.0
 11
61.34221172142509
 21
7.150000640297122
 31
0.0
  0
LINE
  5
164D
330
1A
100
AcDbEntity
  8
ZUWAKU
100
AcDbLine
 10
60.29221172142513
 20
9.950000640297118
 30
0.0
 11
58.89221172142516
 21
9.950000640297118
 31
0.0
  0
LINE
  5
164E
330
1A
100
AcDbEntity
  8
ZUWAKU
100
AcDbLine
 10
41.21721172142509
 20
7.150000640297122
 30
0.0
 11
42.96721172142509
 21
7.150000640297122
 31
0.0
  0
LINE
  5
164F
330
1A
100
AcDbEntity
  8
ZUWAKU
100
AcDbLine
 10
35.67634665874095
 20
7.516906672130147
 30
0.0
 11
33.80807678410916
 21
13.43309460846409
 31
0.0
  0
ARC
  5
1650
330
1A
100
AcDbEntity
  8
ZUWAKU
100
AcDbCircle
 10
33.16721172142513
 20
13.27500064029711
 30
0.0
 40
0.525
100
AcDbArc
 50
90.0
 51
180.0
  0
ARC
  5
1651
330
1A
100
AcDbEntity
  8
ZUWAKU
100
AcDbCircle
 10
33.30744588491382
 20
13.27500064029711
 30
0.0
 40
0.525
100
AcDbArc
 50
17.52556837372303
 51
90.0
  0
ARC
  5
1652
330
1A
100
AcDbEntity
  8
ZUWAKU
100
AcDbCircle
 10
30.36721172142506
 20
7.67500064029712
 30
0.0
 40
0.525
100
AcDbArc
 50
180.0
 51
270.0
  0
ARC
  5
1653
330
1A
100
AcDbEntity
  8
ZUWAKU
100
AcDbCircle
 10
26.86721172142507
 20
9.425000640297119
 30
0.0
 40
0.525
100
AcDbArc
 50
0.0
 51
90.0
  0
ARC
  5
1654
330
1A
100
AcDbEntity
  8
ZUWAKU
100
AcDbCircle
 10
26.86721172142507
 20
7.67500064029712
 30
0.0
 40
0.525
100
AcDbArc
 50
270.0
 51
0.0
  0
LINE
  5
1655
330
1A
100
AcDbEntity
  8
ZUWAKU
100
AcDbLine
 10
27.39221172142516
 20
9.425000640297119
 30
0.0
 11
27.39221172142516
 21
7.67500064029712
 31
0.0
  0
LINE
  5
1656
330
1A
100
AcDbEntity
  8
ZUWAKU
100
AcDbLine
 10
32.64221172142516
 20
7.67500064029712
 30
0.0
 11
32.64221172142516
 21
13.27500064029711
 31
0.0
  0
ARC
  5
1657
330
1A
100
AcDbEntity
  8
ZUWAKU
100
AcDbCircle
 10
32.11721172142507
 20
7.67500064029712
 30
0.0
 40
0.525
100
AcDbArc
 50
270.0
 51
0.0
  0
LINE
  5
1658
330
1A
100
AcDbEntity
  8
ZUWAKU
100
AcDbLine
 10
30.36721172142506
 20
7.150000640297122
 30
0.0
 11
32.11721172142507
 21
7.150000640297122
 31
0.0
  0
ARC
  5
1659
330
1A
100
AcDbEntity
  8
ZUWAKU
100
AcDbCircle
 10
33.16721172142513
 20
17.12500064029712
 30
0.0
 40
0.525
100
AcDbArc
 50
180.0
 51
270.0
  0
LINE
  5
165A
330
1A
100
AcDbEntity
  8
ZUWAKU
100
AcDbLine
 10
33.16721172142513
 20
13.80000064029711
 30
0.0
 11
33.30744588491382
 21
13.80000064029711
 31
0.0
  0
LINE
  5
165B
330
1A
100
AcDbEntity
  8
ZUWAKU
100
AcDbLine
 10
33.30744588491382
 20
16.60000064029712
 30
0.0
 11
33.16721172142513
 21
16.60000064029712
 31
0.0
  0
ARC
  5
165C
330
1A
100
AcDbEntity
  8
ZUWAKU
100
AcDbCircle
 10
33.30744588491382
 20
17.12500064029712
 30
0.0
 40
0.525
100
AcDbArc
 50
270.0
 51
342.474431626277
  0
ARC
  5
165D
330
1A
100
AcDbEntity
  8
ZUWAKU
100
AcDbCircle
 10
36.17697755793642
 20
7.67500064029712
 30
0.0
 40
0.525
100
AcDbArc
 50
197.525568373723
 51
270.0
  0
LINE
  5
165E
330
1A
100
AcDbEntity
  8
ZUWAKU
100
AcDbLine
 10
38.3764978367409
 20
7.833094608464094
 30
0.0
 11
36.05010645826724
 21
15.20000064029713
 31
0.0
  0
ARC
  5
165F
330
1A
100
AcDbEntity
  8
ZUWAKU
100
AcDbCircle
 10
37.87586693754543
 20
7.67500064029712
 30
0.0
 40
0.525
100
AcDbArc
 50
270.0
 51
17.52556837372303
  0
LINE
  5
1660
330
1A
100
AcDbEntity
  8
ZUWAKU
100
AcDbLine
 10
36.17697755793642
 20
7.150000640297122
 30
0.0
 11
37.87586693754543
 21
7.150000640297122
 31
0.0
  0
ARC
  5
1661
330
1A
100
AcDbEntity
  8
ZUWAKU
100
AcDbCircle
 10
41.21721172142509
 20
7.67500064029712
 30
0.0
 40
0.525
100
AcDbArc
 50
180.0
 51
270.0
  0
ARC
  5
1662
330
1A
100
AcDbEntity
  8
ZUWAKU
100
AcDbCircle
 10
50.14221172142516
 20
9.950000640297118
 30
0.0
 40
2.799999999999999
100
AcDbArc
 50
270.0
 51
0.0
  0
ARC
  5
1663
330
1A
100
AcDbEntity
  8
ZUWAKU
100
AcDbCircle
 10
57.84221172142509
 20
9.950000640297118
 30
0.0
 40
2.799999999999999
100
AcDbArc
 50
180.0
 51
270.0
  0
LINE
  5
1664
330
1A
100
AcDbEntity
  8
ZUWAKU
100
AcDbLine
 10
51.71206020240867
 20
14.73505114663594
 30
0.0
 11
48.8022622277639
 21
17.64484912128062
 31
0.0
  0
LINE
  5
1665
330
1A
100
AcDbEntity
  8
ZUWAKU
100
AcDbLine
 10
46.82236324044163
 20
15.66495013395829
 30
0.0
 11
49.7321612150863
 21
12.75515215931364
 31
0.0
  0
LINE
  5
1666
330
1A
100
AcDbEntity
  8
ZUWAKU
100
AcDbLine
 10
46.64221172142516
 20
7.150000640297122
 30
0.0
 11
50.14221172142516
 21
7.150000640297122
 31
0.0
  0
LINE
  5
1667
330
1A
100
AcDbEntity
  8
ZUWAKU
100
AcDbLine
 10
46.64221172142516
 20
9.950000640297118
 30
0.0
 11
49.61721172142507
 21
9.950000640297118
 31
0.0
  0
ARC
  5
1668
330
1A
100
AcDbEntity
  8
ZUWAKU
100
AcDbCircle
 10
46.64221172142516
 20
9.425000640297119
 30
0.0
 40
0.525
100
AcDbArc
 50
90.0
 51
180.0
  0
ARC
  5
1669
330
1A
100
AcDbEntity
  8
ZUWAKU
100
AcDbCircle
 10
42.96721172142509
 20
7.67500064029712
 30
0.0
 40
0.525
100
AcDbArc
 50
270.0
 51
0.0
  0
ARC
  5
166A
330
1A
100
AcDbEntity
  8
ZUWAKU
100
AcDbCircle
 10
46.64221172142516
 20
7.67500064029712
 30
0.0
 40
0.525
100
AcDbArc
 50
180.0
 51
270.0
  0
LINE
  5
166B
330
1A
100
AcDbEntity
  8
ZUWAKU
100
AcDbLine
 10
46.11721172142507
 20
7.67500064029712
 30
0.0
 11
46.11721172142507
 21
9.425000640297119
 31
0.0
  0
ARC
  5
166C
330
1A
100
AcDbEntity
  8
ZUWAKU
100
AcDbCircle
 10
49.61721172142507
 20
10.47500064029712
 30
0.0
 40
0.525
100
AcDbArc
 50
270.0
 51
0.0
  0
ARC
  5
166D
330
1A
100
AcDbEntity
  8
ZUWAKU
100
AcDbCircle
 10
48.74221172142507
 20
11.76520266565246
 30
0.0
 40
1.399999999999999
100
AcDbArc
 50
0.0
 51
45.0
  0
LINE
  5
166E
330
1A
100
AcDbEntity
  8
ZUWAKU
100
AcDbLine
 10
50.14221172142516
 20
10.47500064029712
 30
0.0
 11
50.14221172142516
 21
11.76520266565246
 31
0.0
  0
ARC
  5
166F
330
1A
100
AcDbEntity
  8
ZUWAKU
100
AcDbCircle
 10
58.89221172142516
 20
11.00000064029711
 30
0.0
 40
1.049999999999999
100
AcDbArc
 50
180.0
 51
270.0
  0
ARC
  5
1670
330
1A
100
AcDbEntity
  8
ZUWAKU
100
AcDbCircle
 10
48.74221172142507
 20
11.76520266565242
 30
0.0
 40
4.199999999999998
100
AcDbArc
 50
0.0
 51
45.0
  0
LINE
  5
1671
330
1A
100
AcDbEntity
  8
ZUWAKU
100
AcDbLine
 10
52.9422117214251
 20
9.950000640297118
 30
0.0
 11
52.9422117214251
 21
11.76520266565246
 31
0.0
  0
ARC
  5
1672
330
1A
100
AcDbEntity
  8
ZUWAKU
100
AcDbCircle
 10
61.34221172142509
 20
9.950000640297118
 30
0.0
 40
2.799999999999999
100
AcDbArc
 50
270.0
 51
0.0
  0
LINE
  5
1673
330
1A
100
AcDbEntity
  8
ZUWAKU
100
AcDbLine
 10
66.76721172142516
 20
7.150000640297122
 30
0.0
 11
68.51721172142516
 21
7.150000640297122
 31
0.0
  0
ARC
  5
1674
330
1A
100
AcDbEntity
  8
ZUWAKU
100
AcDbCircle
 10
60.29221172142513
 20
11.00000064029711
 30
0.0
 40
1.049999999999999
100
AcDbArc
 50
270.0
 51
0.0
  0
ARC
  5
1675
330
1A
100
AcDbEntity
  8
ZUWAKU
100
AcDbCircle
 10
66.76721172142516
 20
7.67500064029712
 30
0.0
 40
0.525
100
AcDbArc
 50
180.0
 51
270.0
  0
ARC
  5
1676
330
1A
100
AcDbEntity
  8
ZUWAKU
100
AcDbCircle
 10
68.51721172142516
 20
7.67500064029712
 30
0.0
 40
0.525
100
AcDbArc
 50
270.0
 51
0.0
  0
LINE
  5
1677
330
1A
100
AcDbEntity
  8
ZUWAKU
100
AcDbLine
 10
42.96721172142509
 20
23.25000064029711
 30
0.0
 11
41.21721172142509
 21
23.25000064029711
 31
0.0
  0
LINE
  5
1678
330
1A
100
AcDbEntity
  8
ZUWAKU
100
AcDbLine
 10
27.39221172142516
 20
22.72500064029712
 30
0.0
 11
27.39221172142516
 21
20.97500064029712
 31
0.0
  0
ARC
  5
1679
330
1A
100
AcDbEntity
  8
ZUWAKU
100
AcDbCircle
 10
26.86721172142507
 20
20.97500064029712
 30
0.0
 40
0.525
100
AcDbArc
 50
270.0
 51
0.0
  0
ARC
  5
167A
330
1A
100
AcDbEntity
  8
ZUWAKU
100
AcDbCircle
 10
30.36721172142506
 20
22.72500064029712
 30
0.0
 40
0.525
100
AcDbArc
 50
90.0
 51
180.0
  0
ARC
  5
167B
330
1A
100
AcDbEntity
  8
ZUWAKU
100
AcDbCircle
 10
26.86721172142507
 20
22.72500064029712
 30
0.0
 40
0.525
100
AcDbArc
 50
0.0
 51
90.0
  0
LINE
  5
167C
330
1A
100
AcDbEntity
  8
ZUWAKU
100
AcDbLine
 10
32.11721172142507
 20
23.25000064029711
 30
0.0
 11
30.36721172142506
 21
23.25000064029711
 31
0.0
  0
ARC
  5
167D
330
1A
100
AcDbEntity
  8
ZUWAKU
100
AcDbCircle
 10
32.11721172142507
 20
22.72500064029712
 30
0.0
 40
0.525
100
AcDbArc
 50
0.0
 51
90.0
  0
ARC
  5
167E
330
1A
100
AcDbEntity
  8
ZUWAKU
100
AcDbCircle
 10
36.17697755793642
 20
22.72500064029712
 30
0.0
 40
0.525
100
AcDbArc
 50
90.0
 51
162.4744316262769
  0
LINE
  5
167F
330
1A
100
AcDbEntity
  8
ZUWAKU
100
AcDbLine
 10
38.3764978367409
 20
22.56690667213015
 30
0.0
 11
37.31485820360308
 21
19.20504783386054
 31
0.0
  0
ARC
  5
1680
330
1A
100
AcDbEntity
  8
ZUWAKU
100
AcDbCircle
 10
37.87586693754543
 20
22.72500064029712
 30
0.0
 40
0.525
100
AcDbArc
 50
342.474431626277
 51
90.0
  0
LINE
  5
1681
330
1A
100
AcDbEntity
  8
ZUWAKU
100
AcDbLine
 10
36.17697755793642
 20
23.25000064029711
 30
0.0
 11
37.87586693754543
 21
23.25000064029711
 31
0.0
  0
ARC
  5
1682
330
1A
100
AcDbEntity
  8
ZUWAKU
100
AcDbCircle
 10
41.21721172142509
 20
22.72500064029712
 30
0.0
 40
0.525
100
AcDbArc
 50
90.0
 51
180.0
  0
LINE
  5
1683
330
1A
100
AcDbEntity
  8
ZUWAKU
100
AcDbLine
 10
51.89221172142516
 20
20.45000064029711
 30
0.0
 11
48.91721172142513
 21
20.45000064029711
 31
0.0
  0
LINE
  5
1684
330
1A
100
AcDbEntity
  8
ZUWAKU
100
AcDbLine
 10
48.39221172142515
 20
23.25000064029711
 30
0.0
 11
51.89221172142516
 21
23.25000064029711
 31
0.0
  0
ARC
  5
1685
330
1A
100
AcDbEntity
  8
ZUWAKU
100
AcDbCircle
 10
48.39221172142515
 20
20.45000064029711
 30
0.0
 40
2.799999999999999
100
AcDbArc
 50
90.0
 51
180.0
  0
LINE
  5
1686
330
1A
100
AcDbEntity
  8
ZUWAKU
100
AcDbLine
 10
45.59221172142509
 20
20.45000064029711
 30
0.0
 11
45.59221172142509
 21
18.63479861494178
 31
0.0
  0
ARC
  5
1687
330
1A
100
AcDbEntity
  8
ZUWAKU
100
AcDbCircle
 10
42.96721172142509
 20
22.72500064029712
 30
0.0
 40
0.525
100
AcDbArc
 50
0.0
 51
90.0
  0
LINE
  5
1688
330
1A
100
AcDbEntity
  8
ZUWAKU
100
AcDbLine
 10
48.39221172142515
 20
19.92500064029711
 30
0.0
 11
48.39221172142515
 21
18.63479861494178
 31
0.0
  0
ARC
  5
1689
330
1A
100
AcDbEntity
  8
ZUWAKU
100
AcDbCircle
 10
48.91721172142513
 20
19.92500064029711
 30
0.0
 40
0.525
100
AcDbArc
 50
90.0
 51
180.0
  0
LINE
  5
168A
330
1A
100
AcDbEntity
  8
ZUWAKU
100
AcDbLine
 10
52.41721172142513
 20
22.72500064029712
 30
0.0
 11
52.41721172142513
 21
20.97500064029712
 31
0.0
  0
ARC
  5
168B
330
1A
100
AcDbEntity
  8
ZUWAKU
100
AcDbCircle
 10
51.89221172142516
 20
20.97500064029712
 30
0.0
 40
0.525
100
AcDbArc
 50
270.0
 51
0.0
  0
ARC
  5
168C
330
1A
100
AcDbEntity
  8
ZUWAKU
100
AcDbCircle
 10
51.89221172142516
 20
22.72500064029712
 30
0.0
 40
0.525
100
AcDbArc
 50
0.0
 51
90.0
  0
LINE
  5
168D
330
1A
100
AcDbEntity
  8
ZUWAKU
100
AcDbLine
 10
57.3172117214251
 20
23.25000064029711
 30
0.0
 11
55.5672117214251
 21
23.25000064029711
 31
0.0
  0
ARC
  5
168E
330
1A
100
AcDbEntity
  8
ZUWAKU
100
AcDbCircle
 10
55.5672117214251
 20
22.72500064029712
 30
0.0
 40
0.525
100
AcDbArc
 50
90.0
 51
180.0
  0
ARC
  5
168F
330
1A
100
AcDbEntity
  8
ZUWAKU
100
AcDbCircle
 10
57.3172117214251
 20
22.72500064029712
 30
0.0
 40
0.525
100
AcDbArc
 50
0.0
 51
90.0
  0
LINE
  5
1690
330
1A
100
AcDbEntity
  8
ZUWAKU
100
AcDbLine
 10
68.51721172142516
 20
23.25000064029711
 30
0.0
 11
66.76721172142516
 21
23.25000064029711
 31
0.0
  0
ARC
  5
1691
330
1A
100
AcDbEntity
  8
ZUWAKU
100
AcDbCircle
 10
61.86721172142507
 20
22.72500064029712
 30
0.0
 40
0.525
100
AcDbArc
 50
90.0
 51
180.0
  0
LINE
  5
1692
330
1A
100
AcDbEntity
  8
ZUWAKU
100
AcDbLine
 10
63.61721172142507
 20
23.25000064029711
 30
0.0
 11
61.86721172142507
 21
23.25000064029711
 31
0.0
  0
ARC
  5
1693
330
1A
100
AcDbEntity
  8
ZUWAKU
100
AcDbCircle
 10
63.61721172142507
 20
22.72500064029712
 30
0.0
 40
0.525
100
AcDbArc
 50
0.0
 51
90.0
  0
ARC
  5
1694
330
1A
100
AcDbEntity
  8
ZUWAKU
100
AcDbCircle
 10
66.76721172142516
 20
22.72500064029712
 30
0.0
 40
0.525
100
AcDbArc
 50
90.0
 51
180.0
  0
ARC
  5
1695
330
1A
100
AcDbEntity
  8
ZUWAKU
100
AcDbCircle
 10
68.51721172142516
 20
22.72500064029712
 30
0.0
 40
0.525
100
AcDbArc
 50
0.0
 51
90.0
  0
TEXT
  5
1696
330
1A
100
AcDbEntity
  8
MOJI
100
AcDbText
 10
239.8272022474949
 20
3.204921697704538
 30
0.0
 40
5.599999999999999
  1
Σ９０－０－３０
 41
0.9
  7
ｽﾀｲﾙ1
100
AcDbText
  0
TEXT
  5
1697
330
1A
100
AcDbEntity
  8
MOJI
100
AcDbText
 10
239.8272022474949
 20
18.0049216977045
 30
0.0
 40
5.599999999999999
  1
ブラケット正面打（吊）固定式
 41
0.9
  7
ｽﾀｲﾙ1
100
AcDbText
  0
LINE
  5
1698
330
1A
100
AcDbEntity
  8
ZUWAKU
100
AcDbLine
 10
208.4466008567117
 20
30.00000064029711
 30
0.0
 11
208.4466008567119
 21
0.8000006402971849
 31
0.0
  0
LINE
  5
1699
330
1A
100
AcDbEntity
  8
ZUWAKU
100
AcDbLine
 10
208.6466008567118
 20
30.00000064029711
 30
0.0
 11
208.646600856712
 21
0.8000006402971849
 31
0.0
  0
LINE
  5
169A
330
1A
100
AcDbEntity
  8
ZUWAKU
100
AcDbLine
 10
208.2466008567119
 20
30.00000064029711
 30
0.0
 11
208.2466008567119
 21
0.8000006402971849
 31
0.0
  0
TEXT
  5
169B
330
1A
100
AcDbEntity
  8
ZUWAKU
100
AcDbText
 10
209.7240458789215
 20
9.655357178682735
 30
0.0
 40
4.0
  1
サイズ
 41
0.9
  7
ｽﾀｲﾙ1
100
AcDbText
  0
TEXT
  5
169C
330
1A
100
AcDbEntity
  8
ZUWAKU
100
AcDbText
 10
209.7240458789213
 20
24.05535717868269
 30
0.0
 40
4.0
  1
品名
 41
0.9
  7
ｽﾀｲﾙ1
100
AcDbText
  0
TEXT
  5
169D
330
1A
100
AcDbEntity
  8
ZUWAKU
100
AcDbText
 10
654.5120755663309
 20
18.0049216977045
 30
0.0
 40
5.599999999999999
  1
　　．　．　　
 41
0.9
  7
ｽﾀｲﾙ1
100
AcDbText
  0
LINE
  5
169E
330
1A
100
AcDbEntity
  8
ZUWAKU
100
AcDbLine
 10
648.8172020768482
 20
15.60000064029715
 30
0.0
 11
697.2490101151852
 21
15.60000064029715
 31
0.0
  0
LINE
  5
169F
330
1A
100
AcDbEntity
  8
ZUWAKU
100
AcDbLine
 10
648.8172020768483
 20
15.40000064029715
 30
0.0
 11
697.2490101151852
 21
15.40000064029714
 31
0.0
  0
LINE
  5
16A0
330
1A
100
AcDbEntity
  8
ZUWAKU
100
AcDbLine
 10
648.8172020768482
 20
15.20000064029714
 30
0.0
 11
697.2490101151852
 21
15.20000064029714
 31
0.0
  0
LINE
  5
16A1
330
1A
100
AcDbEntity
  8
ZUWAKU
100
AcDbLine
 10
505.1991790647847
 20
15.60000064029715
 30
0.0
 11
552.5269553327564
 21
15.60000064029715
 31
0.0
  0
LINE
  5
16A2
330
1A
100
AcDbEntity
  8
ZUWAKU
100
AcDbLine
 10
505.1991790647847
 20
15.40000064029714
 30
0.0
 11
552.5269553327564
 21
15.40000064029714
 31
0.0
  0
LINE
  5
16A3
330
1A
100
AcDbEntity
  8
ZUWAKU
100
AcDbLine
 10
505.1991790647847
 20
15.20000064029715
 30
0.0
 11
552.5269553327564
 21
15.20000064029715
 31
0.0
  0
LINE
  5
16A4
330
1A
100
AcDbEntity
  8
ZUWAKU
100
AcDbLine
 10
504.7991790647849
 20
30.00000064029711
 30
0.0
 11
504.7991790647849
 21
0.8000006402971849
 31
0.0
  0
LINE
  5
16A5
330
1A
100
AcDbEntity
  8
ZUWAKU
100
AcDbLine
 10
505.1991790647847
 20
30.00000064029711
 30
0.0
 11
505.1991790647851
 21
0.8000006402971849
 31
0.0
  0
LINE
  5
16A6
330
1A
100
AcDbEntity
  8
ZUWAKU
100
AcDbLine
 10
504.9991790647848
 20
30.00000064029711
 30
0.0
 11
504.9991790647849
 21
0.8000006402971849
 31
0.0
  0
TEXT
  5
16A7
330
1A
100
AcDbEntity
  8
MOJI
100
AcDbText
 10
528.0409075389568
 20
18.0049216977045
 30
0.0
 40
5.599999999999999
  1
Ａ３
 41
0.9
  7
ｽﾀｲﾙ1
100
AcDbText
  0
LINE
  5
16A8
330
1A
100
AcDbEntity
  8
ZUWAKU
100
AcDbLine
 10
447.4243635376353
 20
30.00000064029711
 30
0.0
 11
447.4243635376353
 21
0.8000006402971849
 31
0.0
  0
LINE
  5
16A9
330
1A
100
AcDbEntity
  8
ZUWAKU
100
AcDbLine
 10
447.8243635376351
 20
30.00000064029711
 30
0.0
 11
447.8243635376355
 21
0.8000006402971849
 31
0.0
  0
LINE
  5
16AA
330
1A
100
AcDbEntity
  8
ZUWAKU
100
AcDbLine
 10
447.6243635376351
 20
30.00000064029711
 30
0.0
 11
447.6243635376353
 21
0.8000006402971849
 31
0.0
  0
TEXT
  5
16AB
330
1A
100
AcDbEntity
  8
MOJI
100
AcDbText
 10
463.246431557646
 20
11.9426183619571
 30
0.0
 40
5.599999999999999
  1
ＬＦ４３Ｔ
 41
0.9
  7
ｽﾀｲﾙ1
100
AcDbText
  0
TEXT
  5
16AC
330
1A
100
AcDbEntity
  8
ZUWAKU
100
AcDbText
 10
506.6766240869947
 20
9.655357178682735
 30
0.0
 40
4.0
  1
縮尺
 41
0.9
  7
ｽﾀｲﾙ1
100
AcDbText
  0
TEXT
  5
16AD
330
1A
100
AcDbEntity
  8
MOJI
100
AcDbText
 10
528.0409075389568
 20
3.204921697704538
 30
0.0
 40
5.599999999999999
  1
１/２
 41
0.9
  7
ｽﾀｲﾙ1
100
AcDbText
  0
TEXT
  5
16AE
330
1A
100
AcDbEntity
  8
ZUWAKU
100
AcDbText
 10
449.3018085598449
 20
24.05535717868269
 30
0.0
 40
4.0
  1
品番
 41
0.9
  7
ｽﾀｲﾙ1
100
AcDbText
  0
TEXT
  5
16AF
330
1A
100
AcDbEntity
  8
ZUWAKU
100
AcDbText
 10
506.6766240869944
 20
24.05535717868269
 30
0.0
 40
4.0
  1
用紙
 41
0.9
  7
ｽﾀｲﾙ1
100
AcDbText
  0
LINE
  5
16B0
330
1A
100
AcDbEntity
  8
ZUWAKU
100
AcDbLine
 10
552.5269553327564
 20
30.00000064029711
 30
0.0
 11
552.5269553327564
 21
0.8000006402971849
 31
0.0
  0
LINE
  5
16B1
330
1A
100
AcDbEntity
  8
ZUWAKU
100
AcDbLine
 10
552.9269553327563
 20
30.00000064029711
 30
0.0
 11
552.9269553327564
 21
0.8000006402971849
 31
0.0
  0
LINE
  5
16B2
330
1A
100
AcDbEntity
  8
ZUWAKU
100
AcDbLine
 10
552.7269553327564
 20
30.00000064029711
 30
0.0
 11
552.7269553327564
 21
0.8000006402971849
 31
0.0
  0
LINE
  5
16B3
330
1A
100
AcDbEntity
  8
ZUWAKU
100
AcDbLine
 10
648.4172020768485
 20
30.00000064029711
 30
0.0
 11
648.4172020768485
 21
0.8000006402971849
 31
0.0
  0
LINE
  5
16B4
330
1A
100
AcDbEntity
  8
ZUWAKU
100
AcDbLine
 10
648.8172020768483
 20
30.00000064029711
 30
0.0
 11
648.8172020768487
 21
0.8000006402971849
 31
0.0
  0
LINE
  5
16B5
330
1A
100
AcDbEntity
  8
ZUWAKU
100
AcDbLine
 10
648.6172020768481
 20
30.00000064029711
 30
0.0
 11
648.6172020768486
 21
0.8000006402971849
 31
0.0
  0
TEXT
  5
16B6
330
1A
100
AcDbEntity
  8
ZUWAKU
100
AcDbText
 10
650.2946470990579
 20
24.05535717868269
 30
0.0
 40
4.0
  1
DATE
 41
0.9
  7
ｽﾀｲﾙ1
100
AcDbText
  0
TEXT
  5
16B7
330
1A
100
AcDbEntity
  8
ZUWAKU
100
AcDbText
 10
708.5280837588877
 20
17.55383997598391
 30
0.0
 40
6.0
  1
積水化学工業株式会社
 41
0.9
  7
ｽﾀｲﾙ1
100
AcDbText
  0
LINE
  5
16B8
330
1A
100
AcDbEntity
  8
ZUWAKU
100
AcDbLine
 10
697.8490101151853
 20
30.00000064029711
 30
0.0
 11
697.8490101151853
 21
0.8000006402971849
 31
0.0
  0
LINE
  5
16B9
330
1A
100
AcDbEntity
  8
ZUWAKU
100
AcDbLine
 10
697.6490101151851
 20
30.00000064029711
 30
0.0
 11
697.6490101151853
 21
0.8000006402971849
 31
0.0
  0
LINE
  5
16BA
330
1A
100
AcDbEntity
  8
ZUWAKU
100
AcDbLine
 10
697.4490101151853
 20
30.00000064029711
 30
0.0
 11
697.4490101151853
 21
0.8000006402971849
 31
0.0
  0
LINE
  5
16BB
330
1A
100
AcDbEntity
  8
ZUWAKU
100
AcDbLine
 10
697.2490101151852
 20
30.00000064029711
 30
0.0
 11
697.2490101151852
 21
0.8000006402971849
 31
0.0
  0
TEXT
  5
16BC
330
1A
100
AcDbEntity
  8
ZUWAKU
100
AcDbText
 10
708.5280837588877
 20
6.648840954151182
 30
0.0
 40
6.0
  1
建材事業部
 41
0.9
  7
ｽﾀｲﾙ1
100
AcDbText
  0
DIMENSION
  5
1FA4
330
1A
100
AcDbEntity
  8
SUNPOU
 48
5.0
100
AcDbDimension
  2
*D1
 10
434.6622167367827
 20
192.0441217461681
 30
0.0
 11
429.6622167367827
 21
225.0441217461682
 31
0.0
 70
    32
 71
     5
 42
66.00000000000011
  3
STANDARD
100
AcDbAlignedDimension
 13
403.5819998752203
 23
258.0441217461682
 33
0.0
 14
403.5819998752203
 24
192.0441217461681
 34
0.0
 50
90.0
100
AcDbRotatedDimension
1001
ACAD
1000
DSTYLE
1002
{
1070
   140
1040
6.0
1070
    74
1070
     0
1070
   172
1070
     1
1070
    73
1070
     0
1070
   272
1070
     2
1070
    77
1070
     3
1070
   173
1070
     1
1070
   147
1040
2.0
1070
    42
1040
6.0
1070
    44
1040
3.0
1070
    43
1040
14.0
1070
   271
1070
     0
1070
   178
1070
     4
1070
   177
1070
     4
1070
   176
1070
     4
1070
   141
1040
150.0
1070
     7
1000
_OPEN
1070
     6
1000
_OPEN
1070
    41
1040
7.0
1002
}
  0
DIMENSION
  5
1FA5
330
1A
100
AcDbEntity
  8
SUNPOU
 48
5.0
100
AcDbDimension
  2
*D2
 10
403.5819998752203
 20
156.435758817805
 30
0.0
 11
428.0819998752203
 21
161.435758817805
 31
0.0
 70
    32
  1
t<>
 71
     5
 42
5.999899999999798
  3
STANDARD
100
AcDbAlignedDimension
 13
397.5820998752205
 23
194.0441217461681
 33
0.0
 14
403.5819998752203
 24
192.0441217461681
 34
0.0
100
AcDbRotatedDimension
1001
ACAD
1000
DSTYLE
1002
{
1070
   140
1040
6.0
1070
    74
1070
     0
1070
   172
1070
     1
1070
    73
1070
     0
1070
   272
1070
     2
1070
    77
1070
     3
1070
   173
1070
     1
1070
   147
1040
2.0
1070
    42
1040
6.0
1070
    44
1040
3.0
1070
    43
1040
14.0
1070
   271
1070
     1
1070
   178
1070
     4
1070
   177
1070
     4
1070
   176
1070
     4
1070
   141
1040
150.0
1070
     7
1000
_OPEN
1070
     6
1000
_OPEN
1070
    41
1040
7.0
1002
}
  0
DIMENSION
  5
1FA6
330
1A
100
AcDbEntity
  8
SUNPOU
 48
5.0
100
AcDbDimension
  2
*D3
 10
451.9390711314145
 20
355.5441217461682
 30
0.0
 11
446.9390711314144
 21
388.0441217461683
 31
0.0
 70
    32
 71
     5
 42
65.0
  3
STANDARD
100
AcDbAlignedDimension
 13
403.5820998752205
 23
420.5441217461682
 33
0.0
 14
403.5820998752205
 24
355.5441217461682
 34
0.0
 50
90.0
100
AcDbRotatedDimension
1001
ACAD
1000
DSTYLE
1002
{
1070
   140
1040
6.0
1070
    74
1070
     0
1070
   172
1070
     1
1070
    73
1070
     0
1070
   272
1070
     2
1070
    77
1070
     3
1070
   173
1070
     1
1070
   147
1040
2.0
1070
    42
1040
6.0
1070
    44
1040
3.0
1070
    43
1040
14.0
1070
   271
1070
     0
1070
   178
1070
     4
1070
   177
1070
     4
1070
   176
1070
     4
1070
   141
1040
150.0
1070
     7
1000
_OPEN
1070
     6
1000
_OPEN
1070
    41
1040
7.0
1002
}
  0
DIMENSION
  5
1FA7
330
1A
100
AcDbEntity
  8
SUNPOU
 48
5.0
100
AcDbDimension
  2
*D4
 10
434.6622167367827
 20
374.2545217461681
 30
0.0
 11
429.6622167367827
 21
388.0441217461682
 31
0.0
 70
    32
 71
     5
 42
27.57920000000007
  3
STANDARD
100
AcDbAlignedDimension
 13
397.6897998752203
 23
401.8337217461682
 33
0.0
 14
397.6897998752203
 24
374.2545217461681
 34
0.0
 50
90.0
100
AcDbRotatedDimension
1001
ACAD
1000
DSTYLE
1002
{
1070
   140
1040
6.0
1070
    74
1070
     0
1070
   172
1070
     1
1070
    73
1070
     0
1070
   272
1070
     2
1070
    77
1070
     3
1070
   173
1070
     1
1070
   147
1040
2.0
1070
    42
1040
6.0
1070
    44
1040
3.0
1070
    43
1040
14.0
1070
   271
1070
     0
1070
   178
1070
     4
1070
   177
1070
     4
1070
   176
1070
     4
1070
   141
1040
150.0
1070
     7
1000
_OPEN
1070
     6
1000
_OPEN
1070
    41
1040
7.0
1002
}
  0
DIMENSION
  5
1FA8
330
1A
100
AcDbEntity
  8
SUNPOU
100
AcDbDimension
  2
*D5
 10
403.5819998752203
 20
308.851901942789
 30
0.0
 11
327.5819998752204
 21
313.851901942789
 31
0.0
 70
    32
 71
     5
 42
151.9999999999998
  3
STANDARD
100
AcDbAlignedDimension
 13
251.5819998752205
 23
257.5443217461682
 33
0.0
 14
403.5819998752203
 24
258.0441217461682
 34
0.0
100
AcDbRotatedDimension
1001
ACAD
1000
DSTYLE
1002
{
1070
   140
1040
6.0
1070
    74
1070
     0
1070
   172
1070
     1
1070
    73
1070
     0
1070
   272
1070
     2
1070
    77
1070
     3
1070
   173
1070
     1
1070
   147
1040
2.0
1070
    42
1040
6.0
1070
    44
1040
3.0
1070
    43
1040
14.0
1070
   271
1070
     0
1070
   178
1070
     4
1070
   177
1070
     4
1070
   176
1070
     4
1070
   141
1040
150.0
1070
     7
1000
_OPEN
1070
     6
1000
_OPEN
1070
    41
1040
7.0
1002
}
  0
DIMENSION
  5
1FA9
330
1A
100
AcDbEntity
  8
SUNPOU
 48
5.0
100
AcDbDimension
  2
*D6
 10
216.112969299671
 20
192.0441217461681
 30
0.0
 11
211.112969299671
 21
225.5442217461682
 31
0.0
 70
    32
 71
     5
 42
67.00020000000006
  3
STANDARD
100
AcDbAlignedDimension
 13
253.0819998752205
 23
259.0443217461682
 33
0.0
 14
399.5819998752203
 24
192.0441217461681
 34
0.0
 50
90.0
100
AcDbRotatedDimension
1001
ACAD
1000
DSTYLE
1002
{
1070
   140
1040
6.0
1070
    74
1070
     0
1070
   172
1070
     1
1070
    73
1070
     0
1070
   272
1070
     2
1070
    77
1070
     3
1070
   173
1070
     1
1070
   147
1040
2.0
1070
    42
1040
6.0
1070
    44
1040
3.0
1070
    43
1040
14.0
1070
   271
1070
     0
1070
   178
1070
     4
1070
   177
1070
     4
1070
   176
1070
     4
1070
   141
1040
150.0
1070
     7
1000
_OPEN
1070
     6
1000
_OPEN
1070
    41
1040
7.0
1002
}
  0
LINE
  5
1FAA
330
1A
100
AcDbEntity
  8
SEIHIN
  6
Continuous
 62
     3
 48
5.0
100
AcDbLine
 10
338.2273998752203
 20
231.0441217461681
 30
0.0
 11
281.9852998752205
 21
231.0442217461682
 31
0.0
  0
LINE
  5
1FAB
330
1A
100
AcDbEntity
  8
SEIHIN
  6
Continuous
 62
     3
 48
5.0
100
AcDbLine
 10
281.3829998752204
 20
228.5442217461682
 30
0.0
 11
345.7259998752203
 21
228.5441217461681
 31
0.0
  0
LINE
  5
1FAC
330
1A
100
AcDbEntity
  8
SEIHIN
  6
Continuous
 62
     3
 48
5.0
100
AcDbLine
 10
279.8102998752204
 20
222.5442217461682
 30
0.0
 11
343.3555998752205
 21
222.5441217461681
 31
0.0
  0
LINE
  5
1FAD
330
1A
100
AcDbEntity
  8
SEIHIN
  6
Continuous
 62
     3
 48
5.0
100
AcDbLine
 10
279.4713998752204
 20
220.0442217461681
 30
0.0
 11
345.0498998752205
 21
220.0441217461681
 31
0.0
  0
ARC
  5
1FAE
330
1A
100
AcDbEntity
  8
SEIHIN
  6
Continuous
 62
     3
 48
5.0
100
AcDbCircle
 10
279.4714144200131
 20
225.0442118866487
 30
0.0
 40
4.999990140501728
100
AcDbArc
 50
201.7352772735011
 51
269.999833328625
  0
LINE
  5
1FAF
330
1A
100
AcDbEntity
  8
SEIHIN
  6
Continuous
 62
     3
 48
5.0
100
AcDbLine
 10
260.6927998752204
 20
249.1443217461681
 30
0.0
 11
254.5819998752205
 21
249.1443217461681
 31
0.0
  0
LINE
  5
1FB0
330
1A
100
AcDbEntity
  8
SEIHIN
  6
Continuous
 62
     3
 48
5.0
100
AcDbLine
 10
266.7760998752204
 20
253.6443217461681
 30
0.0
 11
255.5819998752204
 21
253.6443217461681
 31
0.0
  0
LINE
  5
1FB1
330
1A
100
AcDbEntity
  8
SEIHIN
  6
Continuous
 62
     3
 48
5.0
100
AcDbLine
 10
254.5819998752205
 20
257.5443217461682
 30
0.0
 11
254.5819998752205
 21
254.6443217461681
 31
0.0
  0
LINE
  5
1FB2
330
1A
100
AcDbEntity
  8
SEIHIN
  6
Continuous
 62
     3
 48
5.0
100
AcDbLine
 10
251.5819998752205
 20
257.5443217461682
 30
0.0
 11
251.5819998752205
 21
252.1443217461682
 31
0.0
  0
ARC
  5
1FB3
330
1A
100
AcDbEntity
  8
SEIHIN
  6
Continuous
 62
     3
 48
5.0
100
AcDbCircle
 10
254.5819998752205
 20
252.1443217461681
 30
0.0
 40
3.000000000000028
100
AcDbArc
 50
180.0
 51
270.0
  0
ARC
  5
1FB4
330
1A
100
AcDbEntity
  8
SEIHIN
  6
Continuous
 62
     3
 48
5.0
100
AcDbCircle
 10
255.5819998752204
 20
254.644321746168
 30
0.0
 40
0.9999999999999574
100
AcDbArc
 50
179.9999999999967
 51
269.9999999999968
  0
ARC
  5
1FB5
330
1A
100
AcDbEntity
  8
SEIHIN
  6
Continuous
 62
     3
 48
5.0
100
AcDbCircle
 10
253.0819998752205
 20
257.5443217461682
 30
0.0
 40
1.5
100
AcDbArc
 50
0.0
 51
180.0
  0
LINE
  5
1FB6
330
1A
100
AcDbEntity
  8
SEIHIN
  6
Continuous
 62
     3
 48
5.0
100
AcDbLine
 10
251.5819998752205
 20
255.0442217461681
 30
0.0
 11
254.5819998752205
 21
255.0442217461681
 31
0.0
  0
ARC
  5
1FB7
330
1A
100
AcDbEntity
  8
SEIHIN
  6
Continuous
 62
     3
 48
5.0
100
AcDbCircle
 10
270.42219360108
 20
242.6922188444706
 30
0.0
 40
0.9999817473097116
100
AcDbArc
 50
27.9052923119633
 51
201.7343581687802
  0
LINE
  5
1FB8
330
1A
100
AcDbEntity
  8
SEIHIN
  6
Continuous
 62
     3
 48
5.0
100
AcDbLine
 10
265.3372998752204
 20
245.9959217461681
 30
0.0
 11
274.8268998752204
 21
223.1926217461682
 31
0.0
  0
LINE
  5
1FB9
330
1A
100
AcDbEntity
  8
SEIHIN
  6
Continuous
 62
     3
 48
5.0
100
AcDbLine
 10
280.6741998752204
 20
231.8154217461682
 30
0.0
 11
269.4271998752204
 21
252.0484217461682
 31
0.0
  0
LINE
  5
1FBA
330
1A
100
AcDbEntity
  8
SEIHIN
  6
Continuous
 62
     3
 48
5.0
100
AcDbLine
 10
277.0235998752204
 20
224.4332217461681
 30
0.0
 11
269.4932998752204
 21
242.3219217461681
 31
0.0
  0
LINE
  5
1FBB
330
1A
100
AcDbEntity
  8
SEIHIN
  6
Continuous
 62
     3
 48
5.0
100
AcDbLine
 10
278.7318998752205
 20
230.1400217461682
 30
0.0
 11
271.3058998752205
 21
243.1602217461682
 31
0.0
  0
ARC
  5
1FBC
330
1A
100
AcDbEntity
  8
SEIHIN
  6
Continuous
 62
     3
 48
5.0
100
AcDbCircle
 10
281.9852622920425
 20
232.5442438541757
 30
0.0
 40
1.500022108478316
100
AcDbArc
 50
209.0697663882914
 51
270.0014355504935
  0
ARC
  5
1FBD
330
1A
100
AcDbEntity
  8
SEIHIN
  6
Continuous
 62
     3
 48
5.0
100
AcDbCircle
 10
281.3829848060764
 20
231.5442308169741
 30
0.0
 40
3.000009070843749
100
AcDbArc
 50
207.9089769792306
 51
270.000287798583
  0
ARC
  5
1FBE
330
1A
100
AcDbEntity
  8
SEIHIN
  6
Continuous
 62
     3
 48
5.0
100
AcDbCircle
 10
279.8103249901915
 20
225.5442047210715
 30
0.0
 40
2.999982975008499
100
AcDbArc
 50
201.7338998242668
 51
269.9995203366618
  0
ARC
  5
1FBF
330
1A
100
AcDbEntity
  8
SEIHIN
  6
Continuous
 62
     3
 48
5.0
100
AcDbCircle
 10
260.6928126462859
 20
244.1442130891832
 30
0.0
 40
5.00000865700131
100
AcDbArc
 50
21.73665473175603
 51
90.00014634537639
  0
ARC
  5
1FC0
330
1A
100
AcDbEntity
  8
SEIHIN
  6
Continuous
 62
     3
 48
5.0
100
AcDbCircle
 10
266.776076066996
 20
250.6443360779033
 30
0.0
 40
2.999985668359257
100
AcDbArc
 50
27.90654672628399
 51
89.99954529423521
  0
ARC
  5
1FC1
330
1A
100
AcDbEntity
  8
SEIHIN
  6
Continuous
 62
     3
 48
5.0
100
AcDbCircle
 10
394.5819998752204
 20
223.5440217461681
 30
0.0
 40
2.999999999999943
100
AcDbArc
 50
270.0000000000017
 51
0.0000000000016284
  0
ARC
  5
1FC2
330
1A
100
AcDbEntity
  8
SEIHIN
  6
Continuous
 62
     3
 48
5.0
100
AcDbCircle
 10
380.5819998752203
 20
223.5440217461682
 30
0.0
 40
3.0
100
AcDbArc
 50
180.0
 51
270.0
  0
LINE
  5
1FC3
330
1A
100
AcDbEntity
  8
SEIHIN
  6
Continuous
 62
     3
 48
5.0
100
AcDbLine
 10
373.0904998752204
 20
219.7204217461682
 30
0.0
 11
368.4613998752204
 21
225.0470217461681
 31
0.0
  0
LINE
  5
1FC4
330
1A
100
AcDbEntity
  8
SEIHIN
  6
Continuous
 62
     3
 48
5.0
100
AcDbLine
 10
345.0498998752205
 20
220.0441217461681
 30
0.0
 11
362.5733998752203
 21
223.2821217461682
 31
0.0
  0
LINE
  5
1FC5
330
1A
100
AcDbEntity
  8
SEIHIN
  6
Continuous
 62
     3
 48
5.0
100
AcDbLine
 10
403.5819998752203
 20
258.0441217461682
 30
0.0
 11
403.5819998752203
 21
192.0441217461681
 31
0.0
  0
LINE
  5
1FC6
330
1A
100
AcDbEntity
  8
SEIHIN
  6
Continuous
 62
     3
 48
5.0
100
AcDbLine
 10
399.5819998752203
 20
258.0441217461682
 30
0.0
 11
399.5819998752203
 21
192.0441217461681
 31
0.0
  0
LINE
  5
1FC7
330
1A
100
AcDbEntity
  8
SEIHIN
  6
Continuous
 62
     3
 48
5.0
100
AcDbLine
 10
397.5820998752205
 20
254.5441217461682
 30
0.0
 11
397.5820998752205
 21
194.0441217461681
 31
0.0
  0
LINE
  5
1FC8
330
1A
100
AcDbEntity
  8
SEIHIN
  6
Continuous
 62
     3
 48
5.0
100
AcDbLine
 10
394.5819998752204
 20
218.0440217461682
 30
0.0
 11
376.8258998752203
 21
218.0441217461681
 31
0.0
  0
ARC
  5
1FC9
330
1A
100
AcDbEntity
  8
SEIHIN
  6
Continuous
 62
     3
 48
5.0
100
AcDbCircle
 10
376.8259522269025
 20
223.0440982520576
 30
0.0
 40
4.999976506163503
100
AcDbArc
 50
221.6607273180331
 51
269.9994000910934
  0
LINE
  5
1FCA
330
1A
100
AcDbEntity
  8
SEIHIN
  6
Continuous
 62
     3
 48
5.0
100
AcDbLine
 10
399.5819998752203
 20
192.0441217461681
 30
0.0
 11
403.5819998752203
 21
192.0441217461681
 31
0.0
  0
LINE
  5
1FCB
330
1A
100
AcDbEntity
  8
SEIHIN
  6
Continuous
 62
     3
 48
5.0
100
AcDbLine
 10
397.5819998752203
 20
194.0441217461681
 30
0.0
 11
399.5819998752203
 21
192.0441217461681
 31
0.0
  0
LINE
  5
1FCC
330
1A
100
AcDbEntity
  8
CENTER L
  6
CENTER
 62
     1
 48
5.0
100
AcDbLine
 10
410.5819998752204
 20
202.0441217461681
 30
0.0
 11
390.5820998752205
 21
202.0441217461681
 31
0.0
  0
ARC
  5
1FCD
330
1A
100
AcDbEntity
  8
SEIHIN
  6
Continuous
 62
     3
 48
5.0
100
AcDbCircle
 10
394.5819998743871
 20
215.0440217470016
 30
0.0
 40
3.000000000833268
100
AcDbArc
 50
359.9999999840836
 51
89.99809012476607
  0
ARC
  5
1FCE
330
1A
100
AcDbEntity
  8
SEIHIN
  6
Continuous
 62
     3
 48
5.0
100
AcDbCircle
 10
354.706283623528
 20
250.5441502703545
 30
0.0
 40
1.000028524318458
100
AcDbArc
 50
149.3456994417842
 51
270.0009311268254
  0
LINE
  5
1FCF
330
1A
100
AcDbEntity
  8
SEIHIN
  6
Continuous
 62
     3
 48
5.0
100
AcDbLine
 10
352.0395998752205
 20
247.0441217461681
 30
0.0
 11
356.6888998752203
 21
247.0441217461681
 31
0.0
  0
ARC
  5
1FD0
330
1A
100
AcDbEntity
  8
SEIHIN
  6
Continuous
 62
     3
 48
5.0
100
AcDbCircle
 10
357.9310732654739
 20
253.0441065837142
 30
0.0
 40
5.000015162524832
100
AcDbArc
 50
89.99969507569033
 51
149.3493922354882
  0
LINE
  5
1FD1
330
1A
100
AcDbEntity
  8
SEIHIN
  6
Continuous
 62
     3
 48
5.0
100
AcDbLine
 10
348.8784998752204
 20
222.7426217461682
 30
0.0
 11
362.3573998752203
 21
224.5638217461681
 31
0.0
  0
LINE
  5
1FD2
330
1A
100
AcDbEntity
  8
SEIHIN
  6
Continuous
 62
     3
 48
5.0
100
AcDbLine
 10
347.8334998752205
 20
224.2351217461682
 30
0.0
 11
359.8973998752203
 21
244.5931217461681
 31
0.0
  0
LINE
  5
1FD3
330
1A
100
AcDbEntity
  8
SEIHIN
  6
Continuous
 62
     3
 48
5.0
100
AcDbLine
 10
349.2528998752204
 20
231.5343217461681
 30
0.0
 11
357.5491998752203
 21
245.5343217461681
 31
0.0
  0
LINE
  5
1FD4
330
1A
100
AcDbEntity
  8
SEIHIN
  6
Continuous
 62
     3
 48
5.0
100
AcDbLine
 10
341.3779998752203
 20
230.0147217461681
 30
0.0
 11
355.6350998752204
 21
254.0736217461681
 31
0.0
  0
LINE
  5
1FD5
330
1A
100
AcDbEntity
  8
SEIHIN
  6
Continuous
 62
     3
 48
5.0
100
AcDbLine
 10
334.2273998752203
 20
231.0441217461681
 30
0.0
 11
321.5819998752204
 21
231.0441217461681
 31
0.0
  0
LINE
  5
1FD6
330
1A
100
AcDbEntity
  8
SEIHIN
  6
Continuous
 62
     3
 48
5.0
100
AcDbLine
 10
353.6295998752205
 20
255.5931217461682
 30
0.0
 11
339.5177998752205
 21
231.7794217461682
 31
0.0
  0
ARC
  5
1FD7
330
1A
100
AcDbEntity
  8
SEIHIN
  6
Continuous
 62
     3
 48
5.0
100
AcDbCircle
 10
338.2273701128238
 20
232.5441047876432
 30
0.0
 40
1.499983041770346
100
AcDbArc
 50
270.0011368526599
 51
329.3498603500688
  0
ARC
  5
1FD8
330
1A
100
AcDbEntity
  8
SEIHIN
  6
Continuous
 62
     3
 48
5.0
100
AcDbCircle
 10
343.743083623528
 20
232.0441502703545
 30
0.0
 40
1.000028524318457
100
AcDbArc
 50
149.3456994417842
 51
270.0009311268254
  0
LINE
  5
1FD9
330
1A
100
AcDbEntity
  8
SEIHIN
  6
Continuous
 62
     3
 48
5.0
100
AcDbLine
 10
344.2158998752204
 20
223.0343217461681
 30
0.0
 11
346.5862998752203
 21
227.0343217461681
 31
0.0
  0
LINE
  5
1FDA
330
1A
100
AcDbEntity
  8
SEIHIN
  6
Continuous
 62
     3
 48
5.0
100
AcDbLine
 10
348.3925998752204
 20
231.0441217461681
 30
0.0
 11
343.7430998752204
 21
231.0441217461681
 31
0.0
  0
ARC
  5
1FDB
330
1A
100
AcDbEntity
  8
SEIHIN
  6
Continuous
 62
     3
 48
5.0
100
AcDbCircle
 10
345.7260016031587
 20
227.5441187136773
 30
0.0
 40
1.000003032492329
100
AcDbArc
 50
329.3497961630746
 51
90.00009900327532
  0
ARC
  5
1FDC
330
1A
100
AcDbEntity
  8
SEIHIN
  6
Continuous
 62
     3
 48
5.0
100
AcDbCircle
 10
343.3556051971698
 20
223.5441247786589
 30
0.0
 40
1.000003032504946
100
AcDbArc
 50
269.9996950756887
 51
329.3493922354882
  0
ARC
  5
1FDD
330
1A
100
AcDbEntity
  8
SEIHIN
  6
Continuous
 62
     3
 48
5.0
100
AcDbCircle
 10
338.7971403504273
 20
231.5440878291179
 30
0.0
 40
2.999966083540252
100
AcDbArc
 50
270.0011368526599
 51
329.3498603500688
  0
ARC
  5
1FDE
330
1A
100
AcDbEntity
  8
SEIHIN
  6
Continuous
 62
     3
 48
5.0
100
AcDbCircle
 10
348.6937995289731
 20
223.7253222407223
 30
0.0
 40
1.000005514984659
100
AcDbArc
 50
149.3497114233058
 51
280.6436030534761
  0
ARC
  5
1FDF
330
1A
100
AcDbEntity
  8
SEIHIN
  6
Continuous
 62
     3
 48
5.0
100
AcDbCircle
 10
348.3926051971697
 20
232.0441247786588
 30
0.0
 40
1.000003032504847
100
AcDbArc
 50
269.9996950756919
 51
329.3493922354918
  0
ARC
  5
1FE0
330
1A
100
AcDbEntity
  8
SEIHIN
  6
Continuous
 62
     3
 48
5.0
100
AcDbCircle
 10
352.0395945532711
 20
246.0441187136773
 30
0.0
 40
1.000003032504967
100
AcDbArc
 50
89.99969507568869
 51
149.3493922354882
  0
DIMENSION
  5
1FE1
330
1A
100
AcDbEntity
  8
SUNPOU
100
AcDbDimension
  2
*D7
 10
403.5819998752203
 20
294.4985412826002
 30
0.0
 11
388.4069998752204
 21
299.4985412826002
 31
0.0
 70
    32
 71
     5
 42
30.34999999999968
  3
STANDARD
100
AcDbAlignedDimension
 13
373.2319998752206
 23
241.3443217461682
 33
0.0
 14
403.5819998752203
 24
258.0441217461682
 34
0.0
100
AcDbRotatedDimension
1001
ACAD
1000
DSTYLE
1002
{
1070
   140
1040
6.0
1070
    74
1070
     0
1070
   172
1070
     1
1070
    73
1070
     0
1070
   272
1070
     2
1070
    77
1070
     3
1070
   173
1070
     1
1070
   147
1040
2.0
1070
    42
1040
6.0
1070
    44
1040
3.0
1070
    43
1040
14.0
1070
   271
1070
     0
1070
   178
1070
     4
1070
   177
1070
     4
1070
   176
1070
     4
1070
   141
1040
150.0
1070
     7
1000
_OPEN
1070
     6
1000
_OPEN
1070
    41
1040
7.0
1002
}
  0
LINE
  5
1FE2
330
1A
100
AcDbEntity
  8
SEIHIN
  6
Continuous
 62
     3
 48
5.0
100
AcDbLine
 10
394.5819998752204
 20
247.0441217461681
 30
0.0
 11
380.5819998752203
 21
247.0441217461681
 31
0.0
  0
LINE
  5
1FE3
330
1A
100
AcDbEntity
  8
SEIHIN
  6
Continuous
 62
     3
 48
5.0
100
AcDbLine
 10
357.9310998752204
 20
258.0441217461682
 30
0.0
 11
403.5819998752203
 21
258.0441217461682
 31
0.0
  0
LINE
  5
1FE4
330
1A
100
AcDbEntity
  8
SEIHIN
  6
Continuous
 62
     3
 48
5.0
100
AcDbLine
 10
396.5820998752205
 20
255.5441217461682
 30
0.0
 11
358.2159998752204
 21
255.5442217461682
 31
0.0
  0
LINE
  5
1FE5
330
1A
100
AcDbEntity
  8
SEIHIN
  6
Continuous
 62
     3
 48
5.0
100
AcDbLine
 10
385.5819998752203
 20
242.0441217461681
 30
0.0
 11
389.5819998752203
 21
242.0441217461681
 31
0.0
  0
LINE
  5
1FE6
330
1A
100
AcDbEntity
  8
SEIHIN
  6
Continuous
 62
     3
 48
5.0
100
AcDbLine
 10
354.7062998752203
 20
249.5441217461681
 30
0.0
 11
396.5820998752205
 21
249.5441217461681
 31
0.0
  0
LINE
  5
1FE7
330
1A
100
AcDbEntity
  8
SEIHIN
  6
Continuous
 62
     3
 48
5.0
100
AcDbLine
 10
394.5819998752204
 20
220.5440217461682
 30
0.0
 11
380.5819998752203
 21
220.5440217461682
 31
0.0
  0
LINE
  5
1FE8
330
1A
100
AcDbEntity
  8
SEIHIN
  6
Continuous
 62
     3
 48
5.0
100
AcDbLine
 10
385.5819998752203
 20
225.5441217461681
 30
0.0
 11
389.5819998752203
 21
225.5441217461681
 31
0.0
  0
ARC
  5
1FE9
330
1A
100
AcDbEntity
  8
SEIHIN
  6
Continuous
 62
     3
 48
5.0
100
AcDbCircle
 10
369.5819998752204
 20
242.0441217461682
 30
0.0
 40
4.999999999999972
100
AcDbArc
 50
359.9999999999984
 51
89.99999999999837
  0
LINE
  5
1FEA
330
1A
100
AcDbEntity
  8
SEIHIN
  6
Continuous
 62
     3
 48
5.0
100
AcDbLine
 10
377.5819998752203
 20
223.5440217461682
 30
0.0
 11
377.5819998752203
 21
244.0441217461681
 31
0.0
  0
LINE
  5
1FEB
330
1A
100
AcDbEntity
  8
SEIHIN
  6
Continuous
 62
     3
 48
5.0
100
AcDbLine
 10
370.3319998752203
 20
227.3431217461681
 30
0.0
 11
373.0819998752203
 21
226.1780217461681
 31
0.0
  0
ARC
  5
1FEC
330
1A
100
AcDbEntity
  8
SEIHIN
  6
Continuous
 62
     3
 48
5.0
100
AcDbCircle
 10
362.4532987879948
 20
223.9209290385766
 30
0.0
 40
0.6500058730085737
100
AcDbArc
 50
278.4754112256441
 51
98.48412951941074
  0
ARC
  5
1FED
330
1A
100
AcDbEntity
  8
SEIHIN
  6
Continuous
 62
     3
 48
5.0
100
AcDbCircle
 10
369.5819943548448
 20
226.0441149700758
 30
0.0
 40
1.49997562811113
100
AcDbArc
 50
59.9992190237742
 51
221.6623525887511
  0
LINE
  5
1FEE
330
1A
100
AcDbEntity
  8
SEIHIN
  6
Continuous
 62
     3
 48
5.0
100
AcDbLine
 10
374.5819998752203
 20
227.0441217461681
 30
0.0
 11
374.5819998752203
 21
242.0441217461681
 31
0.0
  0
LINE
  5
1FEF
330
1A
100
AcDbEntity
  8
SEIHIN
  6
Continuous
 62
     3
 48
5.0
100
AcDbLine
 10
382.5819998752203
 20
239.0441217461681
 30
0.0
 11
382.5819998752203
 21
228.5441217461681
 31
0.0
  0
ARC
  5
1FF0
330
1A
100
AcDbEntity
  8
SEIHIN
  6
Continuous
 62
     3
 48
5.0
100
AcDbCircle
 10
373.5819675737637
 20
227.0441030961103
 30
0.0
 40
1.000032301630522
100
AcDbArc
 50
240.0032054211975
 51
0.0010685350862502
  0
ARC
  5
1FF1
330
1A
100
AcDbEntity
  8
SEIHIN
  6
Continuous
 62
     3
 48
5.0
100
AcDbCircle
 10
385.5819998752204
 20
228.5441217461681
 30
0.0
 40
3.000000000000028
100
AcDbArc
 50
180.0
 51
270.0
  0
ARC
  5
1FF2
330
1A
100
AcDbEntity
  8
SEIHIN
  6
Continuous
 62
     3
 48
5.0
100
AcDbCircle
 10
385.5819998752203
 20
239.0441217461681
 30
0.0
 40
3.0
100
AcDbArc
 50
90.0
 51
180.0
  0
ARC
  5
1FF3
330
1A
100
AcDbEntity
  8
SEIHIN
  6
Continuous
 62
     3
 48
5.0
100
AcDbCircle
 10
358.2159839093724
 20
252.5441126486957
 30
0.0
 40
3.000009097515007
100
AcDbArc
 50
89.99969507568869
 51
149.3493922354882
  0
ARC
  5
1FF4
330
1A
100
AcDbEntity
  8
SEIHIN
  6
Continuous
 62
     3
 48
5.0
100
AcDbCircle
 10
364.1988732654738
 20
242.044106583714
 30
0.0
 40
5.000015162524971
100
AcDbArc
 50
89.99969507568869
 51
149.3493922354882
  0
ARC
  5
1FF5
330
1A
100
AcDbEntity
  8
SEIHIN
  6
Continuous
 62
     3
 48
5.0
100
AcDbCircle
 10
356.6889016031587
 20
246.0441187136773
 30
0.0
 40
1.000003032492328
100
AcDbArc
 50
329.3497961630746
 51
90.00009900327532
  0
LINE
  5
1FF6
330
1A
100
AcDbEntity
  8
SEIHIN
  6
Continuous
 62
     3
 48
5.0
100
AcDbLine
 10
364.1988998752205
 20
247.0441217461681
 30
0.0
 11
369.5819998752204
 21
247.0441217461681
 31
0.0
  0
ARC
  5
1FF7
330
1A
100
AcDbEntity
  8
SEIHIN
  6
Continuous
 62
     3
 48
5.0
100
AcDbCircle
 10
380.5819998752204
 20
244.0441217461681
 30
0.0
 40
3.000000000000028
100
AcDbArc
 50
90.0
 51
180.0
  0
LINE
  5
1FF8
330
1A
100
AcDbEntity
  8
CENTER L
  6
CENTER
 62
     1
 48
5.0
100
AcDbLine
 10
410.5819998752204
 20
236.0441217461681
 30
0.0
 11
390.5820998752205
 21
236.0441217461681
 31
0.0
  0
LINE
  5
1FF9
330
1A
100
AcDbEntity
  8
CENTER L
  6
CENTER
 62
     1
 48
5.0
100
AcDbLine
 10
410.5819998752203
 20
231.0441217461681
 30
0.0
 11
390.5820998752205
 21
231.0441217461681
 31
0.0
  0
LINE
  5
1FFA
330
1A
100
AcDbEntity
  8
SEIHIN
  6
Continuous
 62
     3
 48
5.0
100
AcDbLine
 10
392.5819998752204
 20
239.0441217461681
 30
0.0
 11
392.5819998752204
 21
228.5441217461681
 31
0.0
  0
ARC
  5
1FFB
330
1A
100
AcDbEntity
  8
SEIHIN
  6
Continuous
 62
     3
 48
5.0
100
AcDbCircle
 10
389.5819998752204
 20
228.5441217461682
 30
0.0
 40
3.000000000000085
100
AcDbArc
 50
270.0
 51
0.0
  0
ARC
  5
1FFC
330
1A
100
AcDbEntity
  8
SEIHIN
  6
Continuous
 62
     3
 48
5.0
100
AcDbCircle
 10
389.5819998752204
 20
239.044121746168
 30
0.0
 40
3.000000000000057
100
AcDbArc
 50
0.0000000000016284
 51
90.00000000000162
  0
ARC
  5
1FFD
330
1A
100
AcDbEntity
  8
SEIHIN
  6
Continuous
 62
     3
 48
5.0
100
AcDbCircle
 10
396.5820998752205
 20
254.5441217461682
 30
0.0
 40
1.0
100
AcDbArc
 50
0.0
 51
90.0
  0
ARC
  5
1FFE
330
1A
100
AcDbEntity
  8
SEIHIN
  6
Continuous
 62
     3
 48
5.0
100
AcDbCircle
 10
394.5819998743871
 20
244.0441217470015
 30
0.0
 40
3.000000000833296
100
AcDbArc
 50
359.999999984082
 51
89.99809012476607
  0
ARC
  5
1FFF
330
1A
100
AcDbEntity
  8
SEIHIN
  6
Continuous
 62
     3
 48
5.0
100
AcDbCircle
 10
396.5820998752205
 20
250.5441217461681
 30
0.0
 40
1.0
100
AcDbArc
 50
270.0
 51
0.0
  0
LINE
  5
2000
330
1A
100
AcDbEntity
  8
SEIHIN
  6
Continuous
 62
     3
 48
5.0
100
AcDbLine
 10
399.5820998752205
 20
258.0441217461682
 30
0.0
 11
397.5820998752205
 21
256.0441217461682
 31
0.0
  0
LINE
  5
2001
330
1A
100
AcDbEntity
  8
SEIHIN
  6
Continuous
 62
     3
 48
5.0
100
AcDbLine
 10
281.0820998752204
 20
395.5443217461682
 30
0.0
 11
397.6897998752203
 21
401.8337217461682
 31
0.0
  0
LINE
  5
2002
330
1A
100
AcDbEntity
  8
SEIHIN
  6
Continuous
 62
     3
 48
5.0
100
AcDbLine
 10
281.0819998752205
 20
380.5443217461682
 30
0.0
 11
397.6897998752203
 21
374.2545217461681
 31
0.0
  0
LINE
  5
2003
330
1A
100
AcDbEntity
  8
CENTER L
  6
CENTER
 62
     1
 48
5.0
100
AcDbLine
 10
410.6784998752203
 20
388.0441217461682
 30
0.0
 11
246.8741998752203
 21
388.0443217461682
 31
0.0
  0
DIMENSION
  5
2004
330
1A
100
AcDbEntity
  8
SUNPOU
 48
5.0
100
AcDbDimension
  2
*D8
 10
216.112969299671
 20
380.5443217461682
 30
0.0
 11
211.112969299671
 21
388.0443217461682
 31
0.0
 70
    32
 71
     5
 42
15.0
  3
STANDARD
100
AcDbAlignedDimension
 13
254.5820998752205
 23
395.5443217461682
 33
0.0
 14
254.5820998752205
 24
380.5443217461682
 34
0.0
 50
90.0
100
AcDbRotatedDimension
1001
ACAD
1000
DSTYLE
1002
{
1070
   140
1040
6.0
1070
    74
1070
     0
1070
   172
1070
     1
1070
    73
1070
     0
1070
   272
1070
     2
1070
    77
1070
     3
1070
   173
1070
     1
1070
   147
1040
2.0
1070
    42
1040
6.0
1070
    44
1040
3.0
1070
    43
1040
14.0
1070
   271
1070
     0
1070
   178
1070
     4
1070
   177
1070
     4
1070
   176
1070
     4
1070
   141
1040
150.0
1070
     7
1000
_OPEN
1070
     6
1000
_OPEN
1070
    41
1040
7.0
1002
}
  0
LINE
  5
2005
330
1A
100
AcDbEntity
  8
SEIHIN
  6
Continuous
 62
     3
 48
5.0
100
AcDbLine
 10
254.5820998752205
 20
395.5443217461682
 30
0.0
 11
281.0820998752204
 21
395.5443217461682
 31
0.0
  0
LINE
  5
2006
330
1A
100
AcDbEntity
  8
SEIHIN
  6
Continuous
 62
     3
 48
5.0
100
AcDbLine
 10
254.5819998752205
 20
380.5443217461682
 30
0.0
 11
281.0819998752205
 21
380.5443217461682
 31
0.0
  0
LINE
  5
2007
330
1A
100
AcDbEntity
  8
SEIHIN
  6
Continuous
 62
     3
 48
5.0
100
AcDbLine
 10
251.5820998752205
 20
388.0445217461681
 30
0.0
 11
251.5819998752205
 21
377.0443217461682
 31
0.0
  0
LINE
  5
2008
330
1A
100
AcDbEntity
  8
SEIHIN
  6
Continuous
 62
     3
 48
5.0
100
AcDbLine
 10
254.5820998752205
 20
388.0445217461681
 30
0.0
 11
254.5819998752205
 21
377.0443217461682
 31
0.0
  0
LINE
  5
2009
330
1A
100
AcDbEntity
  8
SEIHIN
  6
Continuous
 62
     3
 48
5.0
100
AcDbLine
 10
251.5820998752205
 20
377.0443217461682
 30
0.0
 11
254.5820998752205
 21
377.0443217461682
 31
0.0
  0
LINE
  5
200A
330
1A
100
AcDbEntity
  8
SEIHIN
  6
Continuous
 62
     3
 48
5.0
100
AcDbLine
 10
251.5820998752205
 20
388.0441217461682
 30
0.0
 11
251.5820998752205
 21
399.0443217461682
 31
0.0
  0
LINE
  5
200B
330
1A
100
AcDbEntity
  8
SEIHIN
  6
Continuous
 62
     3
 48
5.0
100
AcDbLine
 10
254.5820998752205
 20
388.0441217461682
 30
0.0
 11
254.5820998752205
 21
399.0443217461682
 31
0.0
  0
LINE
  5
200C
330
1A
100
AcDbEntity
  8
SEIHIN
  6
Continuous
 62
     3
 48
5.0
100
AcDbLine
 10
251.5820998752205
 20
399.0443217461682
 30
0.0
 11
254.5820998752205
 21
399.0443217461682
 31
0.0
  0
LINE
  5
200D
330
1A
100
AcDbEntity
  8
SEIHIN
  6
Continuous
 62
     3
 48
5.0
100
AcDbLine
 10
281.0819998752205
 20
388.0443217461682
 30
0.0
 11
281.0819998752205
 21
380.5442217461682
 31
0.0
  0
LINE
  5
200E
330
1A
100
AcDbEntity
  8
SEIHIN
  6
Continuous
 62
     3
 48
5.0
100
AcDbLine
 10
268.5820998752204
 20
388.0443217461682
 30
0.0
 11
268.5820998752204
 21
380.5442217461682
 31
0.0
  0
LINE
  5
200F
330
1A
100
AcDbEntity
  8
SEIHIN
  6
Continuous
 62
     3
 48
5.0
100
AcDbLine
 10
268.5820998752204
 20
388.044221746168
 30
0.0
 11
268.5820998752204
 21
395.5443217461682
 31
0.0
  0
LINE
  5
2010
330
1A
100
AcDbEntity
  8
SEIHIN
  6
Continuous
 62
     3
 48
5.0
100
AcDbLine
 10
281.0819998752205
 20
388.044221746168
 30
0.0
 11
281.0819998752205
 21
395.5443217461682
 31
0.0
  0
LINE
  5
2011
330
1A
100
AcDbEntity
  8
SEIHIN
  6
Continuous
 62
     3
 48
5.0
100
AcDbLine
 10
403.5820998752205
 20
388.0441217461682
 30
0.0
 11
403.5820998752205
 21
420.5441217461682
 31
0.0
  0
LINE
  5
2012
330
1A
100
AcDbEntity
  8
SEIHIN
  6
Continuous
 62
     3
 48
5.0
100
AcDbLine
 10
399.5820998752205
 20
403.8308217461682
 30
0.0
 11
399.5820998752205
 21
420.5441217461682
 31
0.0
  0
LINE
  5
2013
330
1A
100
AcDbEntity
  8
SEIHIN
  6
Continuous
 62
     3
 48
5.0
100
AcDbLine
 10
397.5820998752205
 20
418.544121746168
 30
0.0
 11
397.5820998752205
 21
403.7230217461682
 31
0.0
  0
LINE
  5
2014
330
1A
100
AcDbEntity
  8
SEIHIN
  6
Continuous
 62
     3
 48
5.0
100
AcDbLine
 10
339.0820998752205
 20
388.0443217461682
 30
0.0
 11
339.0819998752203
 21
377.414521746168
 31
0.0
  0
LINE
  5
2015
330
1A
100
AcDbEntity
  8
SEIHIN
  6
Continuous
 62
     3
 48
5.0
100
AcDbLine
 10
339.0820998752205
 20
388.0441217461682
 30
0.0
 11
339.0820998752205
 21
398.6739217461682
 31
0.0
  0
LINE
  5
2016
330
1A
100
AcDbEntity
  8
SEIHIN
  6
Continuous
 62
     3
 48
5.0
100
AcDbLine
 10
397.5819998752203
 20
357.5441217461682
 30
0.0
 11
397.5820998752205
 21
372.365321746168
 31
0.0
  0
LINE
  5
2017
330
1A
100
AcDbEntity
  8
SEIHIN
  6
Continuous
 62
     3
 48
5.0
100
AcDbLine
 10
399.5819998752203
 20
372.2574217461682
 30
0.0
 11
399.5819998752203
 21
355.5441217461682
 31
0.0
  0
LINE
  5
2018
330
1A
100
AcDbEntity
  8
SEIHIN
  6
Continuous
 62
     3
 48
5.0
100
AcDbLine
 10
403.5820998752205
 20
388.0441217461682
 30
0.0
 11
403.5819998752203
 21
355.5441217461682
 31
0.0
  0
LINE
  5
2019
330
1A
100
AcDbEntity
  8
SEIHIN
  6
Continuous
 62
     3
 48
5.0
100
AcDbLine
 10
399.5819998752203
 20
355.5441217461682
 30
0.0
 11
403.5820998752205
 21
355.5441217461682
 31
0.0
  0
LINE
  5
201A
330
1A
100
AcDbEntity
  8
SEIHIN
  6
Continuous
 62
     3
 48
5.0
100
AcDbLine
 10
399.5819998752203
 20
355.5441217461682
 30
0.0
 11
397.5819998752203
 21
357.5441217461682
 31
0.0
  0
LINE
  5
201B
330
1A
100
AcDbEntity
  8
SEIHIN
  6
Continuous
 62
     3
 48
5.0
100
AcDbLine
 10
355.0820998752205
 20
376.5527217461682
 30
0.0
 11
355.0820998752205
 21
399.535621746168
 31
0.0
  0
LINE
  5
201C
330
1A
100
AcDbEntity
  8
CENTER L
  6
CENTER
 62
     1
 48
5.0
100
AcDbLine
 10
410.6784711824448
 20
364.5441217461857
 30
0.0
 11
392.8947742695156
 21
364.5441434595313
 31
0.0
  0
LINE
  5
201D
330
1A
100
AcDbEntity
  8
SEIHIN
  6
Continuous
 62
     3
 48
5.0
100
AcDbLine
 10
399.5820998752205
 20
374.152421746168
 30
0.0
 11
403.5820998752205
 21
374.152421746168
 31
0.0
  0
ARC
  5
201E
330
1A
100
AcDbEntity
  8
SEIHIN
  6
Continuous
 62
     3
 48
5.0
100
AcDbCircle
 10
397.581996218977
 20
372.2574256050918
 30
0.0
 40
2.000003656247003
100
AcDbArc
 50
359.9998894501839
 51
86.91016095171581
  0
ARC
  5
201F
330
1A
100
AcDbEntity
  8
SEIHIN
  6
Continuous
 62
     3
 48
5.0
100
AcDbCircle
 10
395.5820989127209
 20
372.3653227619719
 30
0.0
 40
2.000000962499885
100
AcDbArc
 50
359.9999708993752
 51
86.91310302272801
  0
LINE
  5
2020
330
1A
100
AcDbEntity
  8
SEIHIN
  6
Continuous
 62
     3
 48
5.0
100
AcDbLine
 10
399.5820998752205
 20
401.935821746168
 30
0.0
 11
403.5820998752205
 21
401.935821746168
 31
0.0
  0
ARC
  5
2021
330
1A
100
AcDbEntity
  8
SEIHIN
  6
Continuous
 62
     3
 48
5.0
100
AcDbCircle
 10
397.5820989127209
 20
403.8308207303643
 30
0.0
 40
2.000000962499841
100
AcDbArc
 50
273.0868969772704
 51
0.0000291006247989
  0
ARC
  5
2022
330
1A
100
AcDbEntity
  8
SEIHIN
  6
Continuous
 62
     3
 48
5.0
100
AcDbCircle
 10
395.5820989127209
 20
403.7230207303643
 30
0.0
 40
2.000000962499841
100
AcDbArc
 50
273.0868969772704
 51
0.0000291006247989
  0
LINE
  5
2023
330
1A
100
AcDbEntity
  8
CENTER L
  6
CENTER
 62
     1
 48
5.0
100
AcDbLine
 10
410.6785285679957
 20
411.5441217461507
 30
0.0
 11
392.8947742695156
 21
411.5441434595663
 31
0.0
  0
LINE
  5
2024
330
1A
100
AcDbEntity
  8
SEIHIN
  6
Continuous
 62
     3
 48
5.0
100
AcDbLine
 10
399.5820998752205
 20
420.5441217461682
 30
0.0
 11
403.5820998752205
 21
420.5441217461682
 31
0.0
  0
LINE
  5
2025
330
1A
100
AcDbEntity
  8
SEIHIN
  6
Continuous
 62
     3
 48
5.0
100
AcDbLine
 10
399.5820998752205
 20
420.5441217461682
 30
0.0
 11
397.5820998752205
 21
418.544121746168
 31
0.0
  0
DIMENSION
  5
2026
330
1A
100
AcDbEntity
  8
SUNPOU
 48
5.0
100
AcDbDimension
  2
*D9
 10
582.0819998752204
 20
304.5993089976987
 30
0.0
 11
549.5819998752204
 21
309.5993089976987
 31
0.0
 70
    32
 71
     5
 42
65.0
  3
STANDARD
100
AcDbAlignedDimension
 13
517.0819998752204
 23
236.0441217461681
 33
0.0
 14
582.0819998752204
 24
236.0441217461681
 34
0.0
100
AcDbRotatedDimension
1001
ACAD
1000
DSTYLE
1002
{
1070
   140
1040
6.0
1070
    74
1070
     0
1070
   172
1070
     1
1070
    73
1070
     0
1070
   272
1070
     2
1070
    77
1070
     3
1070
   173
1070
     1
1070
   147
1040
2.0
1070
    42
1040
6.0
1070
    44
1040
3.0
1070
    43
1040
14.0
1070
   271
1070
     0
1070
   178
1070
     4
1070
   177
1070
     4
1070
   176
1070
     4
1070
   141
1040
150.0
1070
     7
1000
_OPEN
1070
     6
1000
_OPEN
1070
    41
1040
7.0
1002
}
  0
DIMENSION
  5
2027
330
1A
100
AcDbEntity
  8
SUNPOU
 48
5.0
100
AcDbDimension
  2
*D10
 10
573.0818998752204
 20
287.2908293739361
 30
0.0
 11
549.5819998752204
 21
292.2908293739361
 31
0.0
 70
    32
 71
     5
 42
46.99979999999994
  3
STANDARD
100
AcDbAlignedDimension
 13
526.0820998752205
 23
241.0836217461682
 33
0.0
 14
573.0818998752204
 24
241.0833217461682
 34
0.0
100
AcDbRotatedDimension
1001
ACAD
1000
DSTYLE
1002
{
1070
   140
1040
6.0
1070
    74
1070
     0
1070
   172
1070
     1
1070
    73
1070
     0
1070
   272
1070
     2
1070
    77
1070
     3
1070
   173
1070
     1
1070
   147
1040
2.0
1070
    42
1040
6.0
1070
    44
1040
3.0
1070
    43
1040
14.0
1070
   271
1070
     0
1070
   178
1070
     4
1070
   177
1070
     4
1070
   176
1070
     4
1070
   141
1040
150.0
1070
     7
1000
_OPEN
1070
     6
1000
_OPEN
1070
    41
1040
7.0
1002
}
  0
ARC
  5
2028
330
1A
100
AcDbEntity
  8
SEIHIN
  6
Continuous
 62
     3
 48
5.0
100
AcDbCircle
 10
549.5819998752204
 20
202.0441217461681
 30
0.0
 40
2.100000000000023
100
AcDbArc
 50
0.0
 51
180.0
  0
ARC
  5
2029
330
1A
100
AcDbEntity
  8
SEIHIN
  6
Continuous
 62
     3
 48
5.0
100
AcDbCircle
 10
549.5819998752204
 20
202.0441217461681
 30
0.0
 40
2.100000000000023
100
AcDbArc
 50
180.0
 51
0.0
  0
ARC
  5
202A
330
1A
100
AcDbEntity
  8
SEIHIN
  6
Continuous
 62
     3
 48
5.0
100
AcDbCircle
 10
549.5818998752204
 20
202.0441217461681
 30
0.0
 40
2.10000000000008
100
AcDbArc
 50
0.0
 51
180.0
  0
ARC
  5
202B
330
1A
100
AcDbEntity
  8
SEIHIN
  6
Continuous
 62
     3
 48
5.0
100
AcDbCircle
 10
549.5818998752204
 20
202.0441217461681
 30
0.0
 40
2.10000000000008
100
AcDbArc
 50
180.0
 51
0.0
  0
ARC
  5
202C
330
1A
100
AcDbEntity
  8
SEIHIN
  6
Continuous
 62
     3
 48
5.0
100
AcDbCircle
 10
549.5819998752204
 20
202.0441217461681
 30
0.0
 40
2.100000000000023
100
AcDbArc
 50
0.0
 51
180.0
  0
ARC
  5
202D
330
1A
100
AcDbEntity
  8
SEIHIN
  6
Continuous
 62
     3
 48
5.0
100
AcDbCircle
 10
549.5819998752204
 20
202.0441217461681
 30
0.0
 40
2.100000000000023
100
AcDbArc
 50
180.0
 51
0.0
  0
ARC
  5
202E
330
1A
100
AcDbEntity
  8
SEIHIN
  6
Continuous
 62
     3
 48
5.0
100
AcDbCircle
 10
549.5819998752204
 20
202.0441217461681
 30
0.0
 40
2.100000000000023
100
AcDbArc
 50
0.0
 51
180.0
  0
ARC
  5
202F
330
1A
100
AcDbEntity
  8
SEIHIN
  6
Continuous
 62
     3
 48
5.0
100
AcDbCircle
 10
549.5819998752204
 20
202.0441217461681
 30
0.0
 40
2.100000000000023
100
AcDbArc
 50
180.0
 51
0.0
  0
LINE
  5
2030
330
1A
100
AcDbEntity
  8
CENTER L
  6
CENTER
 62
     1
 48
5.0
100
AcDbLine
 10
549.5818998752204
 20
202.0441217461681
 30
0.0
 11
553.3500998752204
 21
202.0441217461681
 31
0.0
  0
LINE
  5
2031
330
1A
100
AcDbEntity
  8
SEIHIN
  6
Continuous
 62
     3
 48
5.0
100
AcDbLine
 10
560.5819998752204
 20
259.0443217461682
 30
0.0
 11
549.5819998752204
 21
259.0443217461682
 31
0.0
  0
LINE
  5
2032
330
1A
100
AcDbEntity
  8
SEIHIN
  6
Continuous
 62
     3
 48
5.0
100
AcDbLine
 10
549.5818998752204
 20
258.0441217461682
 30
0.0
 11
563.4919998752202
 21
258.0440217461681
 31
0.0
  0
ARC
  5
2033
330
1A
100
AcDbEntity
  8
SEIHIN
  6
Continuous
 62
     3
 48
5.0
100
AcDbCircle
 10
549.5819570797079
 20
202.0441497663396
 30
0.0
 40
10.00002802033512
100
AcDbArc
 50
269.9996722433487
 51
322.1931813230318
  0
LINE
  5
2034
330
1A
100
AcDbEntity
  8
SEIHIN
  6
Continuous
 62
     3
 48
5.0
100
AcDbLine
 10
542.0820998752204
 20
227.0441217461681
 30
0.0
 11
542.0820998752204
 21
208.1055217461682
 31
0.0
  0
LINE
  5
2035
330
1A
100
AcDbEntity
  8
SEIHIN
  6
Continuous
 62
     3
 48
5.0
100
AcDbLine
 10
529.3527998752204
 20
221.5921217461681
 30
0.0
 11
540.2919998752204
 21
207.4926217461681
 31
0.0
  0
LINE
  5
2036
330
1A
100
AcDbEntity
  8
SEIHIN
  6
Continuous
 62
     3
 48
5.0
100
AcDbLine
 10
519.1811998752205
 20
224.9141217461681
 30
0.0
 11
541.6811998752203
 21
195.9141217461682
 31
0.0
  0
LINE
  5
2037
330
1A
100
AcDbEntity
  8
CENTER L
  6
CENTER
 62
     1
 48
5.0
100
AcDbLine
 10
549.5819998752204
 20
264.6578217461682
 30
0.0
 11
549.5818998752204
 21
188.6367217461681
 31
0.0
  0
DIMENSION
  5
2038
330
1A
100
AcDbEntity
  8
SUNPOU
 48
5.0
100
AcDbDimension
  2
*D11
 10
500.443277426014
 20
192.0441217461681
 30
0.0
 11
495.4432774260139
 21
172.5441217461682
 31
0.0
 70
    32
 71
     5
 42
10.0
  3
STANDARD
100
AcDbAlignedDimension
 13
545.3846998752205
 23
202.0441217461681
 33
0.0
 14
549.5818998752203
 24
192.0441217461681
 34
0.0
 50
90.0
100
AcDbRotatedDimension
1001
ACAD
1000
DSTYLE
1002
{
1070
   140
1040
6.0
1070
    74
1070
     0
1070
   172
1070
     1
1070
    73
1070
     0
1070
   272
1070
     2
1070
    77
1070
     3
1070
   173
1070
     1
1070
   147
1040
2.0
1070
    42
1040
6.0
1070
    44
1040
3.0
1070
    43
1040
14.0
1070
   271
1070
     0
1070
   178
1070
     4
1070
   177
1070
     4
1070
   176
1070
     4
1070
   141
1040
150.0
1070
     7
1000
_OPEN
1070
     6
1000
_OPEN
1070
    41
1040
7.0
1002
}
  0
ARC
  5
2039
330
1A
100
AcDbEntity
  8
SEIHIN
  6
Continuous
 62
     3
 48
5.0
100
AcDbCircle
 10
549.5820233205511
 20
202.0441102621549
 30
0.0
 40
9.999988516014328
100
AcDbArc
 50
217.8067078102774
 51
269.9998656679953
  0
ARC
  5
203A
330
1A
100
AcDbEntity
  8
SEIHIN
  6
Continuous
 62
     3
 48
5.0
100
AcDbCircle
 10
541.0821237707914
 20
208.1055299278264
 30
0.0
 40
0.9999761044624013
100
AcDbArc
 50
217.8011438234483
 51
359.9995312143144
  0
LINE
  5
203B
330
1A
100
AcDbEntity
  8
CENTER L
  6
CENTER
 62
     1
 48
5.0
100
AcDbLine
 10
549.5819998752204
 20
202.0441217461681
 30
0.0
 11
545.3846998752205
 21
202.0441217461681
 31
0.0
  0
MTEXT
  5
203C
330
1A
100
AcDbEntity
  8
SUNPOU
  6
Continuous
 62
     4
100
AcDbMText
 10
502.6400926319438
 20
289.2944725925345
 30
0.0
 40
6.0
 41
0.0
 71
     9
 72
     5
  1
3-φ4.2
 73
     1
 44
1.0
  0
LEADER
  5
203D
330
1A
100
AcDbEntity
  8
SUNPOU
  6
Continuous
 62
     4
100
AcDbLeader
  3
STANDARD
 40
6.0
 41
31.2
 76
     3
 10
524.3431122718963
 20
237.2215713850657
 30
0.0
 10
506.6349019375298
 20
287.2944725925345
 30
0.0
 10
504.6400926319438
 20
287.2944725925345
 30
0.0
1001
ACAD
1000
DSTYLE
1002
{
1070
     6
1000
OPEN
1070
    41
1040
7.0
1070
    42
1040
6.0
1070
    43
1040
14.0
1070
    44
1040
3.0
1070
    73
1070
     0
1070
    74
1070
     0
1070
    77
1070
     3
1070
   140
1040
6.0
1070
   141
1040
150.0
1070
   147
1040
2.0
1070
   172
1070
     1
1070
   173
1070
     1
1070
   176
1070
     4
1070
   177
1070
     4
1070
   178
1070
     4
1070
   271
1070
     0
1070
   272
1070
     2
1070
   341
1005
6D
1070
   343
1005
6D
1070
   344
1005
6D
1002
}
  0
DIMENSION
  5
203E
330
1A
100
AcDbEntity
  8
SUNPOU
 48
5.0
100
AcDbDimension
  2
*D12
 10
490.1492604521282
 20
236.0441217461681
 30
0.0
 11
485.1492604521281
 21
247.0441217461682
 31
0.0
 70
    32
 71
     5
 42
22.00000000000009
  3
STANDARD
100
AcDbAlignedDimension
 13
535.6321998752205
 23
258.0441217461682
 33
0.0
 14
521.1473998752203
 24
236.0441217461681
 34
0.0
 50
90.0
100
AcDbRotatedDimension
1001
ACAD
1000
DSTYLE
1002
{
1070
   140
1040
6.0
1070
    74
1070
     0
1070
   172
1070
     1
1070
    73
1070
     0
1070
   272
1070
     2
1070
    77
1070
     3
1070
   173
1070
     1
1070
   147
1040
2.0
1070
    42
1040
6.0
1070
    44
1040
3.0
1070
    43
1040
14.0
1070
   271
1070
     0
1070
   178
1070
     4
1070
   177
1070
     4
1070
   176
1070
     4
1070
   141
1040
150.0
1070
     7
1000
_OPEN
1070
     6
1000
_OPEN
1070
    41
1040
7.0
1002
}
  0
ARC
  5
203F
330
1A
100
AcDbEntity
  8
SEIHIN
  6
Continuous
 62
     3
 48
5.0
100
AcDbCircle
 10
527.0819779761723
 20
236.0440700708635
 30
0.0
 40
9.999978101085496
100
AcDbArc
 50
134.0670209742011
 51
179.9997039216652
  0
ARC
  5
2040
330
1A
100
AcDbEntity
  8
SEIHIN
  6
Continuous
 62
     3
 48
5.0
100
AcDbCircle
 10
527.0821278953919
 20
231.0440399210691
 30
0.0
 40
10.00002802050635
100
AcDbArc
 50
179.999531178031
 51
217.8060220983467
  0
LINE
  5
2041
330
1A
100
AcDbEntity
  8
SEIHIN
  6
Continuous
 62
     3
 48
5.0
100
AcDbLine
 10
517.0819998752204
 20
236.0441217461681
 30
0.0
 11
517.0820998752204
 21
231.0441217461681
 31
0.0
  0
LINE
  5
2042
330
1A
100
AcDbEntity
  8
SEIHIN
  6
Continuous
 62
     3
 48
5.0
100
AcDbLine
 10
535.6321998752205
 20
258.0441217461682
 30
0.0
 11
520.1269998752202
 21
243.2293217461681
 31
0.0
  0
LINE
  5
2043
330
1A
100
AcDbEntity
  8
SEIHIN
  6
Continuous
 62
     3
 48
5.0
100
AcDbLine
 10
541.0820998752205
 20
228.0441217461681
 30
0.0
 11
532.5130998752204
 21
228.0441217461681
 31
0.0
  0
LINE
  5
2044
330
1A
100
AcDbEntity
  8
CENTER L
  6
CENTER
 62
     1
 48
5.0
100
AcDbLine
 10
526.0820998752205
 20
241.0836217461682
 30
0.0
 11
526.0820998752205
 21
225.2805217461681
 31
0.0
  0
ARC
  5
2045
330
1A
100
AcDbEntity
  8
SEIHIN
  6
Continuous
 62
     3
 48
5.0
100
AcDbCircle
 10
526.0821145133855
 20
231.0440764798383
 30
0.0
 40
3.250019772668599
100
AcDbArc
 50
107.920371635013
 51
287.9198291963648
  0
ARC
  5
2046
330
1A
100
AcDbEntity
  8
SEIHIN
  6
Continuous
 62
     3
 48
5.0
100
AcDbCircle
 10
526.0820998749838
 20
231.0440717461681
 30
0.0
 40
3.250019772704986
100
AcDbArc
 50
287.920100419658
 51
72.07989958034204
  0
LINE
  5
2047
330
1A
100
AcDbEntity
  8
CENTER L
  6
CENTER
 62
     1
 48
5.0
100
AcDbLine
 10
530.7688998752205
 20
231.0441217461681
 30
0.0
 11
521.1473998752203
 21
231.0441217461681
 31
0.0
  0
ARC
  5
2048
330
1A
100
AcDbEntity
  8
SEIHIN
  6
Continuous
 62
     3
 48
5.0
100
AcDbCircle
 10
532.5131059952219
 20
224.0441342405821
 30
0.0
 40
3.999987505590712
100
AcDbArc
 50
90.00008766283693
 51
217.8071054181838
  0
ARC
  5
2049
330
1A
100
AcDbEntity
  8
SEIHIN
  6
Continuous
 62
     3
 48
5.0
100
AcDbCircle
 10
526.0820016138366
 20
236.044124956784
 30
0.0
 40
2.100027674814552
100
AcDbArc
 50
61.56046995145108
 51
241.566567438871
  0
LINE
  5
204A
330
1A
100
AcDbEntity
  8
CENTER L
  6
CENTER
 62
     1
 48
5.0
100
AcDbLine
 10
530.9688998752205
 20
236.0441217461681
 30
0.0
 11
521.1473998752203
 21
236.0441217461681
 31
0.0
  0
ARC
  5
204B
330
1A
100
AcDbEntity
  8
SEIHIN
  6
Continuous
 62
     3
 48
5.0
100
AcDbCircle
 10
526.0819998752204
 20
236.0441217461682
 30
0.0
 40
2.100031325956853
100
AcDbArc
 50
298.4395300432465
 51
61.56046995675349
  0
ARC
  5
204C
330
1A
100
AcDbEntity
  8
SEIHIN
  6
Continuous
 62
     3
 48
5.0
100
AcDbCircle
 10
541.0820998752204
 20
227.0441217461682
 30
0.0
 40
0.9999999999999432
100
AcDbArc
 50
359.9999999999935
 51
89.99999999999349
  0
LINE
  5
204D
330
1A
100
AcDbEntity
  8
SEIHIN
  6
Continuous
 62
     3
 48
5.0
100
AcDbLine
 10
538.5819998752204
 20
259.0443217461682
 30
0.0
 11
549.5819998752204
 21
259.0443217461682
 31
0.0
  0
LINE
  5
204E
330
1A
100
AcDbEntity
  8
SEIHIN
  6
Continuous
 62
     3
 48
5.0
100
AcDbLine
 10
549.5820998752204
 20
258.0441217461682
 30
0.0
 11
535.6321998752205
 21
258.0441217461682
 31
0.0
  0
LINE
  5
204F
330
1A
100
AcDbEntity
  8
SEIHIN
  6
Continuous
 62
     3
 48
5.0
100
AcDbLine
 10
538.5819998752204
 20
259.0443217461682
 30
0.0
 11
538.5819998752204
 21
258.0441217461682
 31
0.0
  0
LEADER
  5
2050
330
1A
100
AcDbEntity
  8
SUNPOU
  6
Continuous
 62
     4
100
AcDbLeader
  3
STANDARD
 74
     0
 40
6.0
 41
31.2
 76
     3
 10
575.8425550118982
 20
229.3290574589788
 30
0.0
 10
590.9293563994161
 20
204.6505772194576
 30
0.0
 10
592.7816787833399
 20
204.6505772194576
 30
0.0
1001
ACAD
1000
DSTYLE
1002
{
1070
     6
1000
OPEN
1070
    41
1040
7.0
1070
    42
1040
6.0
1070
    43
1040
14.0
1070
    44
1040
3.0
1070
    73
1070
     0
1070
    74
1070
     0
1070
    77
1070
     3
1070
   140
1040
6.0
1070
   141
1040
150.0
1070
   147
1040
2.0
1070
   172
1070
     1
1070
   173
1070
     1
1070
   176
1070
     4
1070
   177
1070
     4
1070
   178
1070
     4
1070
   271
1070
     0
1070
   272
1070
     2
1070
   341
1005
6D
1070
   343
1005
6D
1070
   344
1005
6D
1002
}
  0
LINE
  5
2051
330
1A
100
AcDbEntity
  8
SEIHIN
  6
Continuous
 62
     3
 48
5.0
100
AcDbLine
 10
557.0818998752204
 20
227.0440217461682
 30
0.0
 11
557.0817998752204
 21
208.1055217461682
 31
0.0
  0
LINE
  5
2052
330
1A
100
AcDbEntity
  8
SEIHIN
  6
Continuous
 62
     3
 48
5.0
100
AcDbLine
 10
569.8111998752204
 20
221.5920217461682
 30
0.0
 11
558.8718998752204
 21
207.4925217461682
 31
0.0
  0
LINE
  5
2053
330
1A
100
AcDbEntity
  8
SEIHIN
  6
Continuous
 62
     3
 48
5.0
100
AcDbLine
 10
579.9826998752205
 20
224.9140217461682
 30
0.0
 11
557.4827998752203
 21
195.9141217461682
 31
0.0
  0
MTEXT
  5
2054
330
1A
100
AcDbEntity
  8
SUNPOU
  6
Continuous
 62
     4
100
AcDbMText
 10
594.7816787833399
 20
206.6505772194576
 30
0.0
 40
6.0
 41
0.0
 71
     7
 72
     5
  1
2-φ6.5
 73
     1
 44
1.0
  0
ARC
  5
2055
330
1A
100
AcDbEntity
  8
SEIHIN
  6
Continuous
 62
     3
 48
5.0
100
AcDbCircle
 10
558.0818066276748
 20
208.1055194338821
 30
0.0
 40
1.000006752457013
100
AcDbArc
 50
179.9998675166603
 51
322.1937278127595
  0
DIMENSION
  5
2056
330
1A
100
AcDbEntity
  8
SUNPOU
 48
5.0
100
AcDbDimension
  2
*D13
 10
611.6688560493376
 20
236.0440217461682
 30
0.0
 11
606.6688560493376
 21
247.0440717461683
 31
0.0
 70
    32
 71
     5
 42
22.00009999999998
  3
STANDARD
100
AcDbAlignedDimension
 13
563.4919998752202
 23
258.0441217461682
 33
0.0
 14
577.6800998752206
 24
236.0440217461682
 34
0.0
 50
90.0
100
AcDbRotatedDimension
1001
ACAD
1000
DSTYLE
1002
{
1070
   140
1040
6.0
1070
    74
1070
     0
1070
   172
1070
     1
1070
    73
1070
     0
1070
   272
1070
     2
1070
    77
1070
     3
1070
   173
1070
     1
1070
   147
1040
2.0
1070
    42
1040
6.0
1070
    44
1040
3.0
1070
    43
1040
14.0
1070
   271
1070
     0
1070
   178
1070
     4
1070
   177
1070
     4
1070
   176
1070
     4
1070
   141
1040
150.0
1070
     7
1000
_OPEN
1070
     6
1000
_OPEN
1070
    41
1040
7.0
1002
}
  0
ARC
  5
2057
330
1A
100
AcDbEntity
  8
SEIHIN
  6
Continuous
 62
     3
 48
5.0
100
AcDbCircle
 10
572.0820217742684
 20
236.0439700708632
 30
0.0
 40
9.99997810108561
100
AcDbArc
 50
0.0002960783364524
 51
45.93297902580007
  0
LINE
  5
2058
330
1A
100
AcDbEntity
  8
SEIHIN
  6
Continuous
 62
     3
 48
5.0
100
AcDbLine
 10
563.4919998752202
 20
258.0441217461682
 30
0.0
 11
579.0370998752205
 21
243.2293217461681
 31
0.0
  0
ARC
  5
2059
330
1A
100
AcDbEntity
  8
SEIHIN
  6
Continuous
 62
     3
 48
5.0
100
AcDbCircle
 10
566.6508937552189
 20
224.0441342405822
 30
0.0
 40
3.999987505590658
100
AcDbArc
 50
322.1928945818149
 51
89.99991233716145
  0
LINE
  5
205A
330
1A
100
AcDbEntity
  8
SEIHIN
  6
Continuous
 62
     3
 48
5.0
100
AcDbLine
 10
558.0818998752204
 20
228.0441217461681
 30
0.0
 11
566.6508998752204
 21
228.0441217461681
 31
0.0
  0
ARC
  5
205B
330
1A
100
AcDbEntity
  8
SEIHIN
  6
Continuous
 62
     3
 48
5.0
100
AcDbCircle
 10
558.0818998752204
 20
227.0440217461681
 30
0.0
 40
1.000000000000014
100
AcDbArc
 50
89.99999999999349
 51
179.9999999999935
  0
LINE
  5
205C
330
1A
100
AcDbEntity
  8
SEIHIN
  6
Continuous
 62
     3
 48
5.0
100
AcDbLine
 10
582.0819998752204
 20
236.0440217461682
 30
0.0
 11
582.0819998752204
 21
231.0440217461682
 31
0.0
  0
LINE
  5
205D
330
1A
100
AcDbEntity
  8
CENTER L
  6
CENTER
 62
     1
 48
5.0
100
AcDbLine
 10
573.0818998752204
 20
241.0833217461682
 30
0.0
 11
573.0818998752204
 21
225.3273217461682
 31
0.0
  0
ARC
  5
205E
330
1A
100
AcDbEntity
  8
SEIHIN
  6
Continuous
 62
     3
 48
5.0
100
AcDbCircle
 10
573.0818998752204
 20
231.0440217461681
 30
0.0
 40
3.249972198342662
100
AcDbArc
 50
107.9203716389819
 51
252.0796283610181
  0
ARC
  5
205F
330
1A
100
AcDbEntity
  8
SEIHIN
  6
Continuous
 62
     3
 48
5.0
100
AcDbCircle
 10
573.0818998752204
 20
231.0440217461681
 30
0.0
 40
3.249972198342644
100
AcDbArc
 50
252.0796283610181
 51
72.0796283610181
  0
LINE
  5
2060
330
1A
100
AcDbEntity
  8
CENTER L
  6
CENTER
 62
     1
 48
5.0
100
AcDbLine
 10
568.1306998752204
 20
231.0440217461682
 30
0.0
 11
577.6800998752206
 21
231.0440217461682
 31
0.0
  0
ARC
  5
2061
330
1A
100
AcDbEntity
  8
SEIHIN
  6
Continuous
 62
     3
 48
5.0
100
AcDbCircle
 10
572.0820113592337
 20
231.0440552816917
 30
0.0
 40
9.999988516043025
100
AcDbArc
 50
322.1929657131008
 51
359.9998078553837
  0
LINE
  5
2062
330
1A
100
AcDbEntity
  8
CENTER L
  6
CENTER
 62
     1
 48
5.0
100
AcDbLine
 10
568.1306998752204
 20
236.0441217461681
 30
0.0
 11
577.6800998752206
 21
236.0440217461682
 31
0.0
  0
ARC
  5
2063
330
1A
100
AcDbEntity
  8
SEIHIN
  6
Continuous
 62
     3
 48
5.0
100
AcDbCircle
 10
573.0818998752205
 20
236.0440217461681
 30
0.0
 40
2.099983704698742
100
AcDbArc
 50
118.4371309133317
 51
241.5628690866683
  0
ARC
  5
2064
330
1A
100
AcDbEntity
  8
SEIHIN
  6
Continuous
 62
     3
 48
5.0
100
AcDbCircle
 10
573.0818998752204
 20
236.0440217461681
 30
0.0
 40
2.099983704698691
100
AcDbArc
 50
298.437130913328
 51
118.4371309133281
  0
LINE
  5
2065
330
1A
100
AcDbEntity
  8
SEIHIN
  6
Continuous
 62
     3
 48
5.0
100
AcDbLine
 10
560.5819998752204
 20
259.0442217461681
 30
0.0
 11
560.5819998752204
 21
258.0440217461681
 31
0.0
  0
VIEWPORT
  5
22
330
17
100
AcDbEntity
 67
     1
  8
0
100
AcDbViewport
 10
313.6808219178083
 20
148.5
 30
0.0
 40
627.3616438356165
 41
297.0
 68
     2
 69
     1
 12
313.6808219178083
 22
148.5
 13
0.0
 23
0.0
 14
1.0
 24
1.0
 15
10.0
 25
10.0
 16
0.0
 26
0.0
 36
1.0
 17
0.0
 27
0.0
 37
0.0
 42
50.0
 43
0.0
 44
0.0
 45
297.0
 50
0.0
 51
0.0
 72
   100
 90
    32768
  1

281
     0
 71
     1
 74
     0
110
0.0
120
0.0
130
0.0
111
1.0
121
0.0
131
0.0
112
0.0
122
1.0
132
0.0
 79
     0
146
0.0
  0
VIEWPORT
  5
64
330
17
100
AcDbEntity
 67
     1
  8
VIEWPORT
100
AcDbViewport
 10
210.0
 20
148.5
 30
0.0
 40
420.0
 41
297.0
 68
     1
 69
     2
 12
420.0
 22
297.0
 13
0.0
 23
0.0
 14
10.0
 24
10.0
 15
0.0
 25
0.0
 16
0.0
 26
0.0
 36
1.0
 17
0.0
 27
0.0
 37
0.0
 42
50.0
 43
0.0
 44
0.0
 45
605.8799999999999
 50
0.0
 51
0.0
 72
   100
 90
    32768
  1

281
     0
 71
     1
 74
     0
110
0.0
120
0.0
130
0.0
111
1.0
121
0.0
131
0.0
112
0.0
122
1.0
132
0.0
 79
     0
146
0.0
  0
ENDSEC
  0
SECTION
  2
OBJECTS
  0
DICTIONARY
  5
C
330
0
100
AcDbDictionary
281
     1
  3
ACAD_GROUP
350
D
  3
ACAD_LAYOUT
350
85F
  3
ACAD_MLINESTYLE
350
E
  3
ACAD_PLOTSETTINGS
350
860
  3
ACAD_PLOTSTYLENAME
350
85D
  0
DICTIONARY
  5
D
102
{ACAD_REACTORS
330
C
102
}
330
C
100
AcDbDictionary
281
     1
  0
DICTIONARY
  5
85F
102
{ACAD_REACTORS
330
C
102
}
330
C
100
AcDbDictionary
281
     1
  3
Model
350
861
  3
ﾚｲｱｳﾄ1
350
862
  0
DICTIONARY
  5
E
102
{ACAD_REACTORS
330
C
102
}
330
C
100
AcDbDictionary
281
     1
  3
STANDARD
350
13
  0
DICTIONARY
  5
860
102
{ACAD_REACTORS
330
C
102
}
330
C
100
AcDbDictionary
281
     1
  0
ACDBDICTIONARYWDFLT
  5
85D
102
{ACAD_REACTORS
330
C
102
}
330
C
100
AcDbDictionary
281
     1
  3
Normal
350
85E
100
AcDbDictionaryWithDefault
340
85E
1001
ACAD
1000
TREAT_AS_HARD
1070
     0
1000
TREAT_AS_HARD
1070
     0
1000
TREAT_AS_HARD
1070
     0
1000
TREAT_AS_HARD
1070
     0
1000
TREAT_AS_HARD
1070
     0
  0
LAYOUT
  5
861
102
{ACAD_REACTORS
330
85F
102
}
330
85F
100
AcDbPlotSettings
  1

  2
Acrobat Distiller
  4
A3
  6

 40
3.174999952316284
 41
3.174999952316284
 42
3.17498779296875
 43
3.17498779296875
 44
297.0318298339844
 45
420.1583251953125
 46
0.0
 47
0.0
 48
0.0
 49
0.0
140
0.0
141
0.0
142
1.0
143
2.0
 70
 28336
 72
     1
 73
     1
 74
     2
  7
print.ctb
 75
    17
147
0.5
148
0.0
149
0.0
100
AcDbLayout
  1
Model
 70
     1
 71
     0
 10
0.0
 20
0.0
 11
12.0
 21
9.0
 12
0.0
 22
0.0
 32
0.0
 14
0.0
 24
0.0
 34
0.0
 15
0.0
 25
0.0
 35
0.0
146
0.0
 13
0.0
 23
0.0
 33
0.0
 16
1.0
 26
0.0
 36
0.0
 17
0.0
 27
1.0
 37
0.0
 76
     0
330
1A
  0
LAYOUT
  5
862
102
{ACAD_REACTORS
330
85F
102
}
330
85F
100
AcDbPlotSettings
  1

  2
C:\PROGRAM FILES\ACAD LT 2000\plotters\DWF ePlot.pc3
  4

  6

 40
0.0
 41
0.0
 42
0.0
 43
0.0
 44
0.0
 45
0.0
 46
0.0
 47
0.0
 48
0.0
 49
0.0
140
0.0
141
0.0
142
1.0
143
1.0
 70
   688
 72
     0
 73
     0
 74
     5
  7
print.ctb
 75
    16
147
1.0
148
0.0
149
0.0
100
AcDbLayout
  1
ﾚｲｱｳﾄ1
 70
     1
 71
     1
 10
0.0
 20
0.0
 11
420.0
 21
297.0
 12
0.0
 22
0.0
 32
0.0
 14
0.0
 24
0.0
 34
0.0
 15
420.0
 25
297.0
 35
0.0
146
0.0
 13
0.0
 23
0.0
 33
0.0
 16
1.0
 26
0.0
 36
0.0
 17
0.0
 27
1.0
 37
0.0
 76
     0
330
17
331
64
  0
MLINESTYLE
  5
13
102
{ACAD_REACTORS
330
E
102
}
330
E
100
AcDbMlineStyle
  2
STANDARD
 70
     0
  3

 62
     0
 51
90.0
 52
90.0
 71
     2
 49
0.5
 62
   256
  6
BYLAYER
 49
-0.5
 62
   256
  6
BYLAYER
  0
ACDBPLACEHOLDER
  5
85E
102
{ACAD_REACTORS
330
85D
102
}
330
85D
  0
ENDSEC
  0
EOF
