  0
SECTION
  2
HEADER
  9
$ACADVER
  1
AC1015
  9
$ACADMAINTVER
 70
     6
  9
$DWGCODEPAGE
  3
ANSI_932
  9
$INSBASE
 10
0.0
 20
0.0
 30
0.0
  9
$EXTMIN
 10
0.0000000135560185
 20
-0.0000001317113174
 30
0.0
  9
$EXTMAX
 10
797.6000000135562
 20
551.5999998682888
 30
0.0
  9
$LIMMIN
 10
0.0
 20
0.0
  9
$LIMMAX
 10
840.0
 20
594.0
  9
$ORTHOMODE
 70
     0
  9
$REGENMODE
 70
     1
  9
$FILLMODE
 70
     1
  9
$QTEXTMODE
 70
     0
  9
$MIRRTEXT
 70
     1
  9
$LTSCALE
 40
2.0
  9
$ATTMODE
 70
     1
  9
$TEXTSIZE
 40
6.0
  9
$TRACEWID
 40
1.0
  9
$TEXTSTYLE
  7
STANDARD
  9
$CLAYER
  8
SEIHIN
  9
$CELTYPE
  6
BYLAYER
  9
$CECOLOR
 62
   256
  9
$CELTSCALE
 40
1.0
  9
$DISPSILH
 70
     0
  9
$DIMSCALE
 40
1.0
  9
$DIMASZ
 40
7.0
  9
$DIMEXO
 40
6.0
  9
$DIMDLI
 40
14.0
  9
$DIMRND
 40
0.0
  9
$DIMDLE
 40
0.0
  9
$DIMEXE
 40
3.0
  9
$DIMTP
 40
0.0
  9
$DIMTM
 40
0.0
  9
$DIMTXT
 40
6.0
  9
$DIMCEN
 40
150.0
  9
$DIMTSZ
 40
0.0
  9
$DIMTOL
 70
     0
  9
$DIMLIM
 70
     0
  9
$DIMTIH
 70
     0
  9
$DIMTOH
 70
     0
  9
$DIMSE1
 70
     0
  9
$DIMSE2
 70
     0
  9
$DIMTAD
 70
     3
  9
$DIMZIN
 70
     0
  9
$DIMBLK
  1

  9
$DIMASO
 70
     1
  9
$DIMSHO
 70
     1
  9
$DIMPOST
  1

  9
$DIMAPOST
  1

  9
$DIMALT
 70
     0
  9
$DIMALTD
 70
     2
  9
$DIMALTF
 40
25.4
  9
$DIMLFAC
 40
1.0
  9
$DIMTOFL
 70
     1
  9
$DIMTVP
 40
0.0
  9
$DIMTIX
 70
     0
  9
$DIMSOXD
 70
     0
  9
$DIMSAH
 70
     1
  9
$DIMBLK1
  1
OPEN
  9
$DIMBLK2
  1
OPEN
  9
$DIMSTYLE
  2
STANDARD
  9
$DIMCLRD
 70
   256
  9
$DIMCLRE
 70
   256
  9
$DIMCLRT
 70
   256
  9
$DIMTFAC
 40
1.0
  9
$DIMGAP
 40
2.0
  9
$DIMJUST
 70
     0
  9
$DIMSD1
 70
     0
  9
$DIMSD2
 70
     0
  9
$DIMTOLJ
 70
     1
  9
$DIMTZIN
 70
     0
  9
$DIMALTZ
 70
     0
  9
$DIMALTTZ
 70
     0
  9
$DIMUPT
 70
     0
  9
$DIMDEC
 70
     0
  9
$DIMTDEC
 70
     0
  9
$DIMALTU
 70
     2
  9
$DIMALTTD
 70
     2
  9
$DIMTXSTY
  7
STANDARD
  9
$DIMAUNIT
 70
     0
  9
$DIMADEC
 70
     0
  9
$DIMALTRND
 40
0.0
  9
$DIMAZIN
 70
     0
  9
$DIMDSEP
 70
    46
  9
$DIMATFIT
 70
     3
  9
$DIMFRAC
 70
     0
  9
$DIMLDRBLK
  1
OPEN
  9
$DIMLUNIT
 70
     2
  9
$DIMLWD
 70
    -1
  9
$DIMLWE
 70
    -1
  9
$DIMTMOVE
 70
     0
  9
$LUNITS
 70
     2
  9
$LUPREC
 70
     4
  9
$SKETCHINC
 40
1.0
  9
$FILLETRAD
 40
10.0
  9
$AUNITS
 70
     0
  9
$AUPREC
 70
     0
  9
$MENU
  1
.
  9
$ELEVATION
 40
0.0
  9
$PELEVATION
 40
0.0
  9
$THICKNESS
 40
0.0
  9
$LIMCHECK
 70
     0
  9
$CHAMFERA
 40
0.0
  9
$CHAMFERB
 40
0.0
  9
$CHAMFERC
 40
40.0
  9
$CHAMFERD
 40
0.0
  9
$SKPOLY
 70
     0
  9
$TDCREATE
 40
2451030.614786227
  9
$TDUCREATE
 40
2451030.239786227
  9
$TDUPDATE
 40
2455609.403971759
  9
$TDUUPDATE
 40
2455609.028971759
  9
$TDINDWG
 40
0.2800537616
  9
$TDUSRTIMER
 40
0.2800537616
  9
$USRTIMER
 70
     1
  9
$ANGBASE
 50
0.0
  9
$ANGDIR
 70
     0
  9
$PDMODE
 70
     0
  9
$PDSIZE
 40
0.0
  9
$PLINEWID
 40
0.0
  9
$SPLFRAME
 70
     0
  9
$SPLINETYPE
 70
     6
  9
$SPLINESEGS
 70
     8
  9
$HANDSEED
  5
55B1
  9
$SURFTAB1
 70
     6
  9
$SURFTAB2
 70
     6
  9
$SURFTYPE
 70
     6
  9
$SURFU
 70
     6
  9
$SURFV
 70
     6
  9
$UCSBASE
  2

  9
$UCSNAME
  2

  9
$UCSORG
 10
0.0
 20
0.0
 30
0.0
  9
$UCSXDIR
 10
1.0
 20
0.0
 30
0.0
  9
$UCSYDIR
 10
0.0
 20
1.0
 30
0.0
  9
$UCSORTHOREF
  2

  9
$UCSORTHOVIEW
 70
     0
  9
$UCSORGTOP
 10
0.0
 20
0.0
 30
0.0
  9
$UCSORGBOTTOM
 10
0.0
 20
0.0
 30
0.0
  9
$UCSORGLEFT
 10
0.0
 20
0.0
 30
0.0
  9
$UCSORGRIGHT
 10
0.0
 20
0.0
 30
0.0
  9
$UCSORGFRONT
 10
0.0
 20
0.0
 30
0.0
  9
$UCSORGBACK
 10
0.0
 20
0.0
 30
0.0
  9
$PUCSBASE
  2

  9
$PUCSNAME
  2

  9
$PUCSORG
 10
0.0
 20
0.0
 30
0.0
  9
$PUCSXDIR
 10
1.0
 20
0.0
 30
0.0
  9
$PUCSYDIR
 10
0.0
 20
1.0
 30
0.0
  9
$PUCSORTHOREF
  2

  9
$PUCSORTHOVIEW
 70
     0
  9
$PUCSORGTOP
 10
0.0
 20
0.0
 30
0.0
  9
$PUCSORGBOTTOM
 10
0.0
 20
0.0
 30
0.0
  9
$PUCSORGLEFT
 10
0.0
 20
0.0
 30
0.0
  9
$PUCSORGRIGHT
 10
0.0
 20
0.0
 30
0.0
  9
$PUCSORGFRONT
 10
0.0
 20
0.0
 30
0.0
  9
$PUCSORGBACK
 10
0.0
 20
0.0
 30
0.0
  9
$USERI1
 70
     0
  9
$USERI2
 70
     0
  9
$USERI3
 70
     0
  9
$USERI4
 70
     0
  9
$USERI5
 70
     0
  9
$USERR1
 40
0.0
  9
$USERR2
 40
0.0
  9
$USERR3
 40
0.0
  9
$USERR4
 40
0.0
  9
$USERR5
 40
0.0
  9
$WORLDVIEW
 70
     1
  9
$SHADEDGE
 70
     3
  9
$SHADEDIF
 70
    70
  9
$TILEMODE
 70
     1
  9
$MAXACTVP
 70
    16
  9
$PINSBASE
 10
0.0
 20
0.0
 30
0.0
  9
$PLIMCHECK
 70
     0
  9
$PEXTMIN
 10
-0.0128164049386896
 20
-0.0090630292066862
 30
-0.0015258207003583
  9
$PEXTMAX
 10
420.0128183607162
 20
297.0090644122207
 30
0.0000000349246037
  9
$PLIMMIN
 10
-30.66685116754002
 20
-9.990190459854741
  9
$PLIMMAX
 10
450.6668334081172
 20
361.9494725043409
  9
$UNITMODE
 70
     0
  9
$VISRETAIN
 70
     0
  9
$PLINEGEN
 70
     0
  9
$PSLTSCALE
 70
     1
  9
$TREEDEPTH
 70
  3020
  9
$CMLSTYLE
  2
STANDARD
  9
$CMLJUST
 70
     0
  9
$CMLSCALE
 40
1.0
  9
$PROXYGRAPHICS
 70
     1
  9
$MEASUREMENT
 70
     0
  9
$CELWEIGHT
370
    -1
  9
$ENDCAPS
280
     0
  9
$JOINSTYLE
280
     0
  9
$LWDISPLAY
290
     0
  9
$INSUNITS
 70
     0
  9
$HYPERLINKBASE
  1

  9
$STYLESHEET
  1
systemprinter.ctb
  9
$XEDIT
290
     1
  9
$CEPSNTYPE
380
     0
  9
$PSTYLEMODE
290
     1
  9
$FINGERPRINTGUID
  2
{91E25F26-0CBF-4C93-982E-B5F00895E654}
  9
$VERSIONGUID
  2
{BA7CC9BB-F5F0-4AC8-BC88-ECC156558C92}
  9
$EXTNAMES
290
     1
  9
$PSVPSCALE
 40
0.0
  9
$OLESTARTUP
290
     0
  0
ENDSEC
  0
SECTION
  2
CLASSES
  0
CLASS
  1
ACDBDICTIONARYWDFLT
  2
AcDbDictionaryWithDefault
  3
ObjectDBX Classes
 90
        0
280
     0
281
     0
  0
CLASS
  1
ACDBPLACEHOLDER
  2
AcDbPlaceHolder
  3
ObjectDBX Classes
 90
        0
280
     0
281
     0
  0
CLASS
  1
LAYOUT
  2
AcDbLayout
  3
ObjectDBX Classes
 90
        0
280
     0
281
     0
  0
CLASS
  1
DUMMY
  2
AcDbLongTransaction
  3
DUMMY
 90
        0
280
     0
281
     0
  0
CLASS
  1
LWPOLYLINE
  2
AcDbPolyline
  3
AutoCAD 2000
 90
        0
280
     0
281
     1
  0
CLASS
  1
HATCH
  2
AcDbHatch
  3
AutoCAD 2000
 90
        0
280
     0
281
     1
  0
CLASS
  1
XRECORD
  2
AcDbXrecord
  3
AutoCAD 2000
 90
        0
280
     0
281
     0
  0
CLASS
  1
DUMMY
  2
AcDbLongTransaction
  3
DUMMY
 90
        0
280
     0
281
     0
  0
CLASS
  1
LWPOLYLINE
  2
AcDbPolyline
  3
AutoCAD 2000
 90
        0
280
     0
281
     1
  0
CLASS
  1
HATCH
  2
AcDbHatch
  3
AutoCAD 2000
 90
        0
280
     0
281
     1
  0
CLASS
  1
XRECORD
  2
AcDbXrecord
  3
AutoCAD 2000
 90
        0
280
     0
281
     0
  0
CLASS
  1
DUMMY
  2
AcDbLongTransaction
  3
DUMMY
 90
        0
280
     0
281
     0
  0
CLASS
  1
LWPOLYLINE
  2
AcDbPolyline
  3
AutoCAD 2000
 90
        0
280
     0
281
     1
  0
CLASS
  1
HATCH
  2
AcDbHatch
  3
AutoCAD 2000
 90
        0
280
     0
281
     1
  0
CLASS
  1
XRECORD
  2
AcDbXrecord
  3
AutoCAD 2000
 90
        0
280
     0
281
     0
  0
CLASS
  1
DUMMY
  2
AcDbLongTransaction
  3
DUMMY
 90
        0
280
     0
281
     0
  0
CLASS
  1
LWPOLYLINE
  2
AcDbPolyline
  3
AutoCAD 2000
 90
        0
280
     0
281
     1
  0
CLASS
  1
HATCH
  2
AcDbHatch
  3
AutoCAD 2000
 90
        0
280
     0
281
     1
  0
CLASS
  1
XRECORD
  2
AcDbXrecord
  3
AutoCAD 2000
 90
        0
280
     0
281
     0
  0
ENDSEC
  0
SECTION
  2
TABLES
  0
TABLE
  2
VPORT
  5
8
330
0
100
AcDbSymbolTable
 70
     2
  0
VPORT
  5
55B0
330
8
100
AcDbSymbolTableRecord
100
AcDbViewportTableRecord
  2
*Active
 70
     0
 10
0.0
 20
0.0
 11
1.0
 21
1.0
 12
411.1124883490153
 22
294.2360883583482
 13
0.0
 23
0.0
 14
5.0
 24
5.0
 15
0.0
 25
0.0
 16
0.0
 26
0.0
 36
1.0
 17
0.0
 27
0.0
 37
0.0
 40
637.5809603503668
 41
1.651537335285505
 42
50.0
 43
0.0
 44
0.0
 50
0.0
 51
0.0
 71
     0
 72
   100
 73
     1
 74
     0
 75
     0
 76
     0
 77
     0
 78
     0
281
     0
 65
     1
110
0.0
120
0.0
130
0.0
111
1.0
121
0.0
131
0.0
112
0.0
122
1.0
132
0.0
 79
     0
146
0.0
  0
ENDTAB
  0
TABLE
  2
LTYPE
  5
5
330
0
100
AcDbSymbolTable
 70
     3
  0
LTYPE
  5
14
330
5
100
AcDbSymbolTableRecord
100
AcDbLinetypeTableRecord
  2
BYBLOCK
 70
     0
  3

 72
    65
 73
     0
 40
0.0
  0
LTYPE
  5
15
330
5
100
AcDbSymbolTableRecord
100
AcDbLinetypeTableRecord
  2
BYLAYER
 70
     0
  3

 72
    65
 73
     0
 40
0.0
  0
LTYPE
  5
16
330
5
100
AcDbSymbolTableRecord
100
AcDbLinetypeTableRecord
  2
CONTINUOUS
 70
     0
  3
Solid line
 72
    65
 73
     0
 40
0.0
  0
LTYPE
  5
115
330
5
100
AcDbSymbolTableRecord
100
AcDbLinetypeTableRecord
  2
PHANTOM
 70
     0
  3
______  __  __  ______  __  __  ______  __  __ 
 72
    65
 73
     6
 40
2.5
 49
1.25
 74
     0
 49
-0.25
 74
     0
 49
0.25
 74
     0
 49
-0.25
 74
     0
 49
0.25
 74
     0
 49
-0.25
 74
     0
  0
LTYPE
  5
135
330
5
100
AcDbSymbolTableRecord
100
AcDbLinetypeTableRecord
  2
CENTER
 70
     0
  3
____ _ ____ _ ____ _ ____ _ ____ _ ____ _ ____ 
 72
    65
 73
     4
 40
2.0
 49
1.25
 74
     0
 49
-0.25
 74
     0
 49
0.25
 74
     0
 49
-0.25
 74
     0
  0
ENDTAB
  0
TABLE
  2
LAYER
  5
2
330
0
100
AcDbSymbolTable
 70
     8
  0
LAYER
  5
F
330
2
100
AcDbSymbolTableRecord
100
AcDbLayerTableRecord
  2
0
 70
     0
 62
     7
  6
CONTINUOUS
370
    -3
390
A97
  0
LAYER
  5
62
330
2
100
AcDbSymbolTableRecord
100
AcDbLayerTableRecord
  2
VIEWPORT
 70
     0
 62
     7
  6
CONTINUOUS
370
    -3
390
A97
  0
LAYER
  5
143
330
2
100
AcDbSymbolTableRecord
100
AcDbLayerTableRecord
  2
SEIHIN
 70
     0
 62
     3
  6
CONTINUOUS
370
    -3
390
A97
  0
LAYER
  5
444
330
2
100
AcDbSymbolTableRecord
100
AcDbLayerTableRecord
  2
DEFPOINTS
 70
     0
 62
     7
  6
CONTINUOUS
290
     0
370
    -3
390
A97
  0
LAYER
  5
482
330
2
100
AcDbSymbolTableRecord
100
AcDbLayerTableRecord
  2
SUNPOU
 70
     0
 62
     4
  6
CONTINUOUS
370
    -3
390
A97
  0
LAYER
  5
5D4
330
2
100
AcDbSymbolTableRecord
100
AcDbLayerTableRecord
  2
CENTER L
 70
     0
 62
     1
  6
CENTER
370
    -3
390
A97
  0
LAYER
  5
3D95
330
2
100
AcDbSymbolTableRecord
100
AcDbLayerTableRecord
  2
ZUWAKU
 70
     0
 62
     7
  6
CONTINUOUS
370
    -3
390
A97
  0
LAYER
  5
3D96
330
2
100
AcDbSymbolTableRecord
100
AcDbLayerTableRecord
  2
moji
 70
     0
 62
     2
  6
CONTINUOUS
370
    -3
390
A97
  0
ENDTAB
  0
TABLE
  2
STYLE
  5
3
330
0
100
AcDbSymbolTable
 70
     2
  0
STYLE
  5
10
330
3
100
AcDbSymbolTableRecord
100
AcDbTextStyleTableRecord
  2
STANDARD
 70
     0
 40
0.0
 41
1.0
 50
0.0
 71
     0
 42
6.0
  3
TXT
  4
bigfont.shx
  0
STYLE
  5
3D97
330
3
100
AcDbSymbolTableRecord
100
AcDbTextStyleTableRecord
  2
ｽﾀｲﾙ1
 70
     0
 40
0.0
 41
1.0
 50
0.0
 71
     0
 42
2.5
  3
MS PGothic.ttf
  4

1001
ACAD
1000
MS PGothic
1071
    32818
  0
ENDTAB
  0
TABLE
  2
VIEW
  5
6
330
0
100
AcDbSymbolTable
 70
     0
  0
ENDTAB
  0
TABLE
  2
UCS
  5
7
330
0
100
AcDbSymbolTable
 70
     0
  0
ENDTAB
  0
TABLE
  2
APPID
  5
9
330
0
100
AcDbSymbolTable
 70
     1
  0
APPID
  5
11
330
9
100
AcDbSymbolTableRecord
100
AcDbRegAppTableRecord
  2
ACAD
 70
     0
  0
ENDTAB
  0
TABLE
  2
DIMSTYLE
  5
A
330
0
100
AcDbSymbolTable
 70
     1
100
AcDbDimStyleTable
  0
DIMSTYLE
105
1D
102
{ACAD_REACTORS
330
52B3
330
52B4
330
52B5
330
52B7
330
52BA
330
52BB
330
52BC
330
5323
330
5340
330
53A3
330
53A4
330
53AC
330
53C7
330
53C8
102
}
330
A
100
AcDbSymbolTableRecord
100
AcDbDimStyleTableRecord
  2
STANDARD
 70
     0
340
10
  0
ENDTAB
  0
TABLE
  2
BLOCK_RECORD
  5
1
330
0
100
AcDbSymbolTable
 70
    15
  0
BLOCK_RECORD
  5
1A
330
1
100
AcDbSymbolTableRecord
100
AcDbBlockTableRecord
  2
*MODEL_SPACE
340
A9A
  0
BLOCK_RECORD
  5
17
330
1
100
AcDbSymbolTableRecord
100
AcDbBlockTableRecord
  2
*PAPER_SPACE
340
A9B
  0
BLOCK_RECORD
  5
6D
330
1
100
AcDbSymbolTableRecord
100
AcDbBlockTableRecord
  2
_OPEN
340
0
102
{BLKREFS
331
5542
331
5543
331
555F
331
5560
331
5554
331
5555
331
5527
331
5528
331
5539
331
553A
331
5530
331
5531
331
554B
331
554C
331
556A
331
556B
331
5575
331
5576
331
557E
331
557F
331
55A4
331
55A5
331
5589
331
558A
331
5592
331
5593
331
559B
331
559C
102
}
  0
BLOCK_RECORD
  5
53EE
330
1
100
AcDbSymbolTableRecord
100
AcDbBlockTableRecord
  2
*D1
340
0
  0
BLOCK_RECORD
  5
53FA
330
1
100
AcDbSymbolTableRecord
100
AcDbBlockTableRecord
  2
*D2
340
0
  0
BLOCK_RECORD
  5
5408
330
1
100
AcDbSymbolTableRecord
100
AcDbBlockTableRecord
  2
*D3
340
0
  0
BLOCK_RECORD
  5
5414
330
1
100
AcDbSymbolTableRecord
100
AcDbBlockTableRecord
  2
*D4
340
0
  0
BLOCK_RECORD
  5
5420
330
1
100
AcDbSymbolTableRecord
100
AcDbBlockTableRecord
  2
*D5
340
0
  0
BLOCK_RECORD
  5
542C
330
1
100
AcDbSymbolTableRecord
100
AcDbBlockTableRecord
  2
*D6
340
0
  0
BLOCK_RECORD
  5
5438
330
1
100
AcDbSymbolTableRecord
100
AcDbBlockTableRecord
  2
*D7
340
0
  0
BLOCK_RECORD
  5
5444
330
1
100
AcDbSymbolTableRecord
100
AcDbBlockTableRecord
  2
*D8
340
0
  0
BLOCK_RECORD
  5
5452
330
1
100
AcDbSymbolTableRecord
100
AcDbBlockTableRecord
  2
*D9
340
0
  0
BLOCK_RECORD
  5
5460
330
1
100
AcDbSymbolTableRecord
100
AcDbBlockTableRecord
  2
*D10
340
0
  0
BLOCK_RECORD
  5
546C
330
1
100
AcDbSymbolTableRecord
100
AcDbBlockTableRecord
  2
*D11
340
0
  0
BLOCK_RECORD
  5
5478
330
1
100
AcDbSymbolTableRecord
100
AcDbBlockTableRecord
  2
*D12
340
0
  0
BLOCK_RECORD
  5
5486
330
1
100
AcDbSymbolTableRecord
100
AcDbBlockTableRecord
  2
*D13
340
0
  0
BLOCK_RECORD
  5
5492
330
1
100
AcDbSymbolTableRecord
100
AcDbBlockTableRecord
  2
*D14
340
0
  0
ENDTAB
  0
ENDSEC
  0
SECTION
  2
BLOCKS
  0
BLOCK
  5
1B
330
1A
100
AcDbEntity
  8
0
100
AcDbBlockBegin
  2
*MODEL_SPACE
 70
     0
 71
     0
 10
0.0
 20
0.0
 30
0.0
  3
*MODEL_SPACE
  1

  0
ENDBLK
  5
1C
330
1A
100
AcDbEntity
  8
0
100
AcDbBlockEnd
  0
BLOCK
  5
18
330
17
100
AcDbEntity
 67
     1
  8
0
100
AcDbBlockBegin
  2
*PAPER_SPACE
 70
     0
 71
     0
 10
0.0
 20
0.0
 30
0.0
  3
*PAPER_SPACE
  1

  0
ENDBLK
  5
19
330
17
100
AcDbEntity
 67
     1
  8
0
100
AcDbBlockEnd
  0
BLOCK
  5
6E
330
6D
100
AcDbEntity
  8
0
100
AcDbBlockBegin
  2
_OPEN
 70
     0
 71
     0
 10
0.0
 20
0.0
 30
0.0
  3
_OPEN
  1

  0
LINE
  5
6F
330
6D
100
AcDbEntity
  8
0
  6
ByBlock
 62
     0
100
AcDbLine
 10
-1.0
 20
0.1666666666666667
 30
0.0
 11
0.0
 21
0.0
 31
0.0
  0
LINE
  5
70
330
6D
100
AcDbEntity
  8
0
  6
ByBlock
 62
     0
100
AcDbLine
 10
0.0
 20
0.0
 30
0.0
 11
-1.0
 21
-0.1666666666666667
 31
0.0
  0
LINE
  5
71
330
6D
100
AcDbEntity
  8
0
  6
ByBlock
 62
     0
100
AcDbLine
 10
0.0
 20
0.0
 30
0.0
 11
-1.0
 21
0.0
 31
0.0
  0
ENDBLK
  5
72
330
6D
100
AcDbEntity
  8
0
100
AcDbBlockEnd
  0
BLOCK
  5
53F8
330
53EE
100
AcDbEntity
  8
0
100
AcDbBlockBegin
  2
*D1
 70
     1
 71
     0
 10
0.0
 20
0.0
 30
0.0
  3
*D1
  1

  0
LINE
  5
553F
330
53EE
100
AcDbEntity
  8
SUNPOU
 62
     4
370
    -2
100
AcDbLine
 10
364.3728919235713
 20
258.8140269099788
 30
0.0
 11
364.3728919235713
 21
306.7835555147908
 31
0.0
  0
LINE
  5
5540
330
53EE
100
AcDbEntity
  8
SUNPOU
 62
     4
370
    -2
100
AcDbLine
 10
399.3728919235713
 20
258.8140269099788
 30
0.0
 11
399.3728919235713
 21
306.7835555147908
 31
0.0
  0
LINE
  5
5541
330
53EE
100
AcDbEntity
  8
SUNPOU
 62
     4
370
    -2
100
AcDbLine
 10
371.3728919235713
 20
303.7835555147908
 30
0.0
 11
392.3728919235713
 21
303.7835555147908
 31
0.0
  0
INSERT
  5
5542
330
53EE
100
AcDbEntity
  8
SUNPOU
 62
     4
370
    -2
100
AcDbBlockReference
  2
_OPEN
 10
364.3728919235713
 20
303.7835555147908
 30
0.0
 41
7.0
 42
7.0
 43
7.0
 50
180.0
  0
INSERT
  5
5543
330
53EE
100
AcDbEntity
  8
SUNPOU
 62
     4
370
    -2
100
AcDbBlockReference
  2
_OPEN
 10
399.3728919235713
 20
303.7835555147908
 30
0.0
 41
7.0
 42
7.0
 43
7.0
  0
MTEXT
  5
5544
330
53EE
100
AcDbEntity
  8
SUNPOU
 62
     4
100
AcDbMText
 10
381.8728919235713
 20
308.7835555147908
 30
0.0
 40
6.0
 41
0.0
 71
     5
 72
     1
  1
\A1;35
 73
     1
 44
1.0
  0
POINT
  5
5545
330
53EE
100
AcDbEntity
  8
DEFPOINTS
 62
     0
100
AcDbPoint
 10
364.3728919235713
 20
252.8140269099788
 30
0.0
  0
POINT
  5
5546
330
53EE
100
AcDbEntity
  8
DEFPOINTS
 62
     0
100
AcDbPoint
 10
399.3728919235713
 20
252.8140269099788
 30
0.0
  0
POINT
  5
5547
330
53EE
100
AcDbEntity
  8
DEFPOINTS
 62
     0
100
AcDbPoint
 10
399.3728919235713
 20
303.7835555147908
 30
0.0
  0
ENDBLK
  5
53F9
330
53EE
100
AcDbEntity
  8
0
100
AcDbBlockEnd
  0
BLOCK
  5
5406
330
53FA
100
AcDbEntity
  8
0
100
AcDbBlockBegin
  2
*D2
 70
     1
 71
     0
 10
0.0
 20
0.0
 30
0.0
  3
*D2
  1

  0
LINE
  5
555A
330
53FA
100
AcDbEntity
  8
SUNPOU
 62
     4
370
    -2
100
AcDbLine
 10
397.0063385937273
 20
188.0737136728167
 30
0.0
 11
408.2813536616808
 21
165.704043697959
 31
0.0
  0
LINE
  5
555B
330
53FA
100
AcDbEntity
  8
SUNPOU
 62
     4
370
    -2
100
AcDbLine
 10
395.9347420771278
 20
187.5335954285598
 30
0.0
 11
407.2097571450813
 21
165.1639254537022
 31
0.0
  0
LINE
  5
555C
330
53FA
100
AcDbEntity
  8
SUNPOU
 62
     4
370
    -2
100
AcDbLine
 10
413.1819580763242
 20
171.5336299929871
 30
0.0
 11
419.4328361541364
 21
174.6842685403813
 31
0.0
  0
LINE
  5
555D
330
53FA
100
AcDbEntity
  8
SUNPOU
 62
     4
370
    -2
100
AcDbLine
 10
399.6086054041002
 20
164.6922346539418
 30
0.0
 11
375.4980756753957
 21
152.5397716854213
 31
0.0
  0
LINE
  5
555E
330
53FA
100
AcDbEntity
  8
SUNPOU
 62
     4
370
    -2
100
AcDbLine
 10
406.9310799985119
 20
168.3829914455929
 30
0.0
 11
405.8594834819124
 21
167.842873201336
 31
0.0
  0
INSERT
  5
555F
330
53FA
100
AcDbEntity
  8
SUNPOU
 62
     4
370
    -2
100
AcDbBlockReference
  2
_OPEN
 10
406.9310799985119
 20
168.3829914455929
 30
0.0
 41
7.0
 42
7.0
 43
7.0
 50
206.7495367487593
  0
INSERT
  5
5560
330
53FA
100
AcDbEntity
  8
SUNPOU
 62
     4
370
    -2
100
AcDbBlockReference
  2
_OPEN
 10
405.8594834819124
 20
167.842873201336
 30
0.0
 41
7.0
 42
7.0
 43
7.0
 50
26.74953674875933
  0
MTEXT
  5
5561
330
53FA
100
AcDbEntity
  8
SUNPOU
 62
     4
100
AcDbMText
 10
382.1774453955602
 20
161.5055968087075
 30
0.0
 40
6.0
 41
0.0
 71
     5
 72
     1
  1
\A1;t1.2
 11
0.8929825825446068
 21
0.4500912210563148
 31
0.0
 73
     1
 44
1.0
  0
POINT
  5
5562
330
53FA
100
AcDbEntity
  8
DEFPOINTS
 62
     0
100
AcDbPoint
 10
394.3057912673895
 20
193.4316091680844
 30
0.0
  0
POINT
  5
5563
330
53FA
100
AcDbEntity
  8
DEFPOINTS
 62
     0
100
AcDbPoint
 10
393.2341947507899
 20
192.8914909238275
 30
0.0
  0
POINT
  5
5564
330
53FA
100
AcDbEntity
  8
DEFPOINTS
 62
     0
100
AcDbPoint
 10
405.8594834819124
 20
167.842873201336
 30
0.0
  0
ENDBLK
  5
5407
330
53FA
100
AcDbEntity
  8
0
100
AcDbBlockEnd
  0
BLOCK
  5
5412
330
5408
100
AcDbEntity
  8
0
100
AcDbBlockBegin
  2
*D3
 70
     1
 71
     0
 10
0.0
 20
0.0
 30
0.0
  3
*D3
  1

  0
LINE
  5
5551
330
5408
100
AcDbEntity
  8
SUNPOU
 62
     4
370
    -2
100
AcDbLine
 10
369.7307040506596
 20
255.5147396327293
 30
0.0
 11
382.5381548894902
 21
261.9705922468129
 31
0.0
  0
LINE
  5
5552
330
5408
100
AcDbEntity
  8
SUNPOU
 62
     4
370
    -2
100
AcDbLine
 10
399.6636033944776
 20
196.1323218908348
 30
0.0
 11
412.4710542333082
 21
202.5881745049184
 31
0.0
  0
LINE
  5
5553
330
5408
100
AcDbEntity
  8
SUNPOU
 62
     4
370
    -2
100
AcDbLine
 10
383.0100803358217
 20
254.3694550705014
 30
0.0
 11
406.6413166598886
 21
207.4885989584795
 31
0.0
  0
INSERT
  5
5554
330
5408
100
AcDbEntity
  8
SUNPOU
 62
     4
370
    -2
100
AcDbBlockReference
  2
_OPEN
 10
379.8592488259461
 20
260.6202358854376
 30
0.0
 41
7.0
 42
7.0
 43
7.0
 50
116.7513054637564
  0
INSERT
  5
5555
330
5408
100
AcDbEntity
  8
SUNPOU
 62
     4
370
    -2
100
AcDbBlockReference
  2
_OPEN
 10
409.7921481697641
 20
201.2378181435432
 30
0.0
 41
7.0
 42
7.0
 43
7.0
 50
296.7513054637564
  0
MTEXT
  5
5556
330
5408
100
AcDbEntity
  8
SUNPOU
 62
     4
100
AcDbMText
 10
399.2905419370953
 20
233.1796209501158
 30
0.0
 40
6.0
 41
0.0
 71
     5
 72
     1
  1
\A1;67
 11
0.4501187871250825
 21
-0.8929686878480369
 31
0.0
 73
     1
 44
1.0
  0
POINT
  5
5557
330
5408
100
AcDbEntity
  8
DEFPOINTS
 62
     0
100
AcDbPoint
 10
364.3728919235713
 20
252.8140269099788
 30
0.0
  0
POINT
  5
5558
330
5408
100
AcDbEntity
  8
DEFPOINTS
 62
     0
100
AcDbPoint
 10
394.3057912673893
 20
193.4316091680843
 30
0.0
  0
POINT
  5
5559
330
5408
100
AcDbEntity
  8
DEFPOINTS
 62
     0
100
AcDbPoint
 10
409.7921481697641
 20
201.2378181435432
 30
0.0
  0
ENDBLK
  5
5413
330
5408
100
AcDbEntity
  8
0
100
AcDbBlockEnd
  0
BLOCK
  5
541E
330
5414
100
AcDbEntity
  8
0
100
AcDbBlockBegin
  2
*D4
 70
     1
 71
     0
 10
0.0
 20
0.0
 30
0.0
  3
*D4
  1

  0
LINE
  5
5524
330
5414
100
AcDbEntity
  8
SUNPOU
 62
     4
370
    -2
100
AcDbLine
 10
384.3293009480256
 20
420.6924899631429
 30
0.0
 11
424.9614428272571
 21
420.6924899631429
 31
0.0
  0
LINE
  5
5525
330
5414
100
AcDbEntity
  8
SUNPOU
 62
     4
370
    -2
100
AcDbLine
 10
384.3293009480256
 20
365.6924899631429
 30
0.0
 11
424.9614428272571
 21
365.6924899631429
 31
0.0
  0
LINE
  5
5526
330
5414
100
AcDbEntity
  8
SUNPOU
 62
     4
370
    -2
100
AcDbLine
 10
421.9614428272571
 20
413.6924899631429
 30
0.0
 11
421.9614428272571
 21
372.6924899631429
 31
0.0
  0
INSERT
  5
5527
330
5414
100
AcDbEntity
  8
SUNPOU
 62
     4
370
    -2
100
AcDbBlockReference
  2
_OPEN
 10
421.9614428272571
 20
420.6924899631429
 30
0.0
 41
7.0
 42
7.0
 43
7.0
 50
90.0
  0
INSERT
  5
5528
330
5414
100
AcDbEntity
  8
SUNPOU
 62
     4
370
    -2
100
AcDbBlockReference
  2
_OPEN
 10
421.9614428272571
 20
365.6924899631429
 30
0.0
 41
7.0
 42
7.0
 43
7.0
 50
270.0
  0
MTEXT
  5
5529
330
5414
100
AcDbEntity
  8
SUNPOU
 62
     4
100
AcDbMText
 10
416.961442827257
 20
393.192489963143
 30
0.0
 40
6.0
 41
0.0
 71
     5
 72
     1
  1
\A1;55
 11
6.123031769111886E-17
 21
1.0
 31
0.0
 73
     1
 44
1.0
  0
POINT
  5
552A
330
5414
100
AcDbEntity
  8
DEFPOINTS
 62
     0
100
AcDbPoint
 10
378.3293009480256
 20
420.692489963143
 30
0.0
  0
POINT
  5
552B
330
5414
100
AcDbEntity
  8
DEFPOINTS
 62
     0
100
AcDbPoint
 10
378.3293009480256
 20
365.692489963143
 30
0.0
  0
POINT
  5
552C
330
5414
100
AcDbEntity
  8
DEFPOINTS
 62
     0
100
AcDbPoint
 10
421.9614428272571
 20
365.6924899631429
 30
0.0
  0
ENDBLK
  5
541F
330
5414
100
AcDbEntity
  8
0
100
AcDbBlockEnd
  0
BLOCK
  5
542A
330
5420
100
AcDbEntity
  8
0
100
AcDbBlockBegin
  2
*D5
 70
     1
 71
     0
 10
0.0
 20
0.0
 30
0.0
  3
*D5
  1

  0
LINE
  5
5536
330
5420
100
AcDbEntity
  8
SUNPOU
 62
     4
370
    -2
100
AcDbLine
 10
231.8682009480255
 20
248.692589963143
 30
0.0
 11
231.8682009480255
 21
306.7835555147908
 31
0.0
  0
LINE
  5
5537
330
5420
100
AcDbEntity
  8
SUNPOU
 62
     4
370
    -2
100
AcDbLine
 10
364.3728919235714
 20
258.8140269099788
 30
0.0
 11
364.3728919235714
 21
306.7835555147908
 31
0.0
  0
LINE
  5
5538
330
5420
100
AcDbEntity
  8
SUNPOU
 62
     4
370
    -2
100
AcDbLine
 10
238.8682009480255
 20
303.7835555147908
 30
0.0
 11
357.3728919235714
 21
303.7835555147908
 31
0.0
  0
INSERT
  5
5539
330
5420
100
AcDbEntity
  8
SUNPOU
 62
     4
370
    -2
100
AcDbBlockReference
  2
_OPEN
 10
231.8682009480255
 20
303.7835555147908
 30
0.0
 41
7.0
 42
7.0
 43
7.0
 50
180.0
  0
INSERT
  5
553A
330
5420
100
AcDbEntity
  8
SUNPOU
 62
     4
370
    -2
100
AcDbBlockReference
  2
_OPEN
 10
364.3728919235714
 20
303.7835555147908
 30
0.0
 41
7.0
 42
7.0
 43
7.0
  0
MTEXT
  5
553B
330
5420
100
AcDbEntity
  8
SUNPOU
 62
     4
100
AcDbMText
 10
298.1205464357985
 20
308.7835555147908
 30
0.0
 40
6.0
 41
0.0
 71
     5
 72
     1
  1
\A1;133
 73
     1
 44
1.0
  0
POINT
  5
553C
330
5420
100
AcDbEntity
  8
DEFPOINTS
 62
     0
100
AcDbPoint
 10
231.8682009480255
 20
242.692589963143
 30
0.0
  0
POINT
  5
553D
330
5420
100
AcDbEntity
  8
DEFPOINTS
 62
     0
100
AcDbPoint
 10
364.3728919235714
 20
252.8140269099788
 30
0.0
  0
POINT
  5
553E
330
5420
100
AcDbEntity
  8
DEFPOINTS
 62
     0
100
AcDbPoint
 10
364.3728919235714
 20
303.7835555147908
 30
0.0
  0
ENDBLK
  5
542B
330
5420
100
AcDbEntity
  8
0
100
AcDbBlockEnd
  0
BLOCK
  5
5436
330
542C
100
AcDbEntity
  8
0
100
AcDbBlockBegin
  2
*D6
 70
     1
 71
     0
 10
0.0
 20
0.0
 30
0.0
  3
*D6
  1

  0
LINE
  5
552D
330
542C
100
AcDbEntity
  8
SUNPOU
 62
     4
370
    -2
100
AcDbLine
 10
265.1183009480255
 20
223.192589963143
 30
0.0
 11
265.1183009480255
 21
292.4080415305627
 31
0.0
  0
LINE
  5
552E
330
542C
100
AcDbEntity
  8
SUNPOU
 62
     4
370
    -2
100
AcDbLine
 10
364.3728919235714
 20
258.8140269099788
 30
0.0
 11
364.3728919235714
 21
292.4080415305627
 31
0.0
  0
LINE
  5
552F
330
542C
100
AcDbEntity
  8
SUNPOU
 62
     4
370
    -2
100
AcDbLine
 10
272.1183009480255
 20
289.4080415305627
 30
0.0
 11
357.3728919235714
 21
289.4080415305627
 31
0.0
  0
INSERT
  5
5530
330
542C
100
AcDbEntity
  8
SUNPOU
 62
     4
370
    -2
100
AcDbBlockReference
  2
_OPEN
 10
265.1183009480255
 20
289.4080415305627
 30
0.0
 41
7.0
 42
7.0
 43
7.0
 50
180.0
  0
INSERT
  5
5531
330
542C
100
AcDbEntity
  8
SUNPOU
 62
     4
370
    -2
100
AcDbBlockReference
  2
_OPEN
 10
364.3728919235714
 20
289.4080415305627
 30
0.0
 41
7.0
 42
7.0
 43
7.0
  0
MTEXT
  5
5532
330
542C
100
AcDbEntity
  8
SUNPOU
 62
     4
100
AcDbMText
 10
314.7455964357985
 20
294.4080415305627
 30
0.0
 40
6.0
 41
0.0
 71
     5
 72
     1
  1
\A1;99
 73
     1
 44
1.0
  0
POINT
  5
5533
330
542C
100
AcDbEntity
  8
DEFPOINTS
 62
     0
100
AcDbPoint
 10
265.1183009480255
 20
217.192589963143
 30
0.0
  0
POINT
  5
5534
330
542C
100
AcDbEntity
  8
DEFPOINTS
 62
     0
100
AcDbPoint
 10
364.3728919235714
 20
252.8140269099788
 30
0.0
  0
POINT
  5
5535
330
542C
100
AcDbEntity
  8
DEFPOINTS
 62
     0
100
AcDbPoint
 10
364.3728919235714
 20
289.4080415305627
 30
0.0
  0
ENDBLK
  5
5437
330
542C
100
AcDbEntity
  8
0
100
AcDbBlockEnd
  0
BLOCK
  5
5442
330
5438
100
AcDbEntity
  8
0
100
AcDbBlockBegin
  2
*D7
 70
     1
 71
     0
 10
0.0
 20
0.0
 30
0.0
  3
*D7
  1

  0
LINE
  5
5548
330
5438
100
AcDbEntity
  8
SUNPOU
 62
     4
370
    -2
100
AcDbLine
 10
227.3682009480255
 20
244.192589963143
 30
0.0
 11
206.4023983021331
 21
244.192589963143
 31
0.0
  0
LINE
  5
5549
330
5438
100
AcDbEntity
  8
SUNPOU
 62
     4
370
    -2
100
AcDbLine
 10
387.23419475079
 20
192.8914909238275
 30
0.0
 11
206.4023983021331
 21
192.8914909238275
 31
0.0
  0
LINE
  5
554A
330
5438
100
AcDbEntity
  8
SUNPOU
 62
     4
370
    -2
100
AcDbLine
 10
209.4023983021331
 20
237.192589963143
 30
0.0
 11
209.4023983021331
 21
199.8914909238275
 31
0.0
  0
INSERT
  5
554B
330
5438
100
AcDbEntity
  8
SUNPOU
 62
     4
370
    -2
100
AcDbBlockReference
  2
_OPEN
 10
209.4023983021331
 20
244.192589963143
 30
0.0
 41
7.0
 42
7.0
 43
7.0
 50
90.0
  0
INSERT
  5
554C
330
5438
100
AcDbEntity
  8
SUNPOU
 62
     4
370
    -2
100
AcDbBlockReference
  2
_OPEN
 10
209.4023983021331
 20
192.8914909238275
 30
0.0
 41
7.0
 42
7.0
 43
7.0
 50
270.0
  0
MTEXT
  5
554D
330
5438
100
AcDbEntity
  8
SUNPOU
 62
     4
100
AcDbMText
 10
204.4023983021331
 20
218.5420404434853
 30
0.0
 40
6.0
 41
0.0
 71
     5
 72
     1
  1
\A1;51
 11
6.123031769111886E-17
 21
1.0
 31
0.0
 73
     1
 44
1.0
  0
POINT
  5
554E
330
5438
100
AcDbEntity
  8
DEFPOINTS
 62
     0
100
AcDbPoint
 10
233.3682009480255
 20
244.192589963143
 30
0.0
  0
POINT
  5
554F
330
5438
100
AcDbEntity
  8
DEFPOINTS
 62
     0
100
AcDbPoint
 10
393.23419475079
 20
192.8914909238275
 30
0.0
  0
POINT
  5
5550
330
5438
100
AcDbEntity
  8
DEFPOINTS
 62
     0
100
AcDbPoint
 10
209.4023983021331
 20
192.8914909238275
 30
0.0
  0
ENDBLK
  5
5443
330
5438
100
AcDbEntity
  8
0
100
AcDbBlockEnd
  0
BLOCK
  5
5450
330
5444
100
AcDbEntity
  8
0
100
AcDbBlockBegin
  2
*D8
 70
     1
 71
     0
 10
0.0
 20
0.0
 30
0.0
  3
*D8
  1

  0
LINE
  5
5565
330
5444
100
AcDbEntity
  8
SUNPOU
 62
     4
370
    -2
100
AcDbLine
 10
354.3732009480256
 20
232.492589963143
 30
0.0
 11
354.3732009480256
 21
277.8179665301079
 31
0.0
  0
LINE
  5
5566
330
5444
100
AcDbEntity
  8
SUNPOU
 62
     4
370
    -2
100
AcDbLine
 10
364.3728919235714
 20
258.8140269099788
 30
0.0
 11
364.3728919235714
 21
277.8179665301079
 31
0.0
  0
LINE
  5
5567
330
5444
100
AcDbEntity
  8
SUNPOU
 62
     4
370
    -2
100
AcDbLine
 10
371.3728919235714
 20
274.8179665301079
 30
0.0
 11
378.3728919235714
 21
274.8179665301079
 31
0.0
  0
LINE
  5
5568
330
5444
100
AcDbEntity
  8
SUNPOU
 62
     4
370
    -2
100
AcDbLine
 10
347.3732009480256
 20
274.8179665301079
 30
0.0
 11
329.3732009480256
 21
274.8179665301079
 31
0.0
  0
LINE
  5
5569
330
5444
100
AcDbEntity
  8
SUNPOU
 62
     4
370
    -2
100
AcDbLine
 10
364.3728919235714
 20
274.8179665301079
 30
0.0
 11
354.3732009480256
 21
274.8179665301079
 31
0.0
  0
INSERT
  5
556A
330
5444
100
AcDbEntity
  8
SUNPOU
 62
     4
370
    -2
100
AcDbBlockReference
  2
_OPEN
 10
364.3728919235714
 20
274.8179665301079
 30
0.0
 41
7.0
 42
7.0
 43
7.0
 50
180.0
  0
INSERT
  5
556B
330
5444
100
AcDbEntity
  8
SUNPOU
 62
     4
370
    -2
100
AcDbBlockReference
  2
_OPEN
 10
354.3732009480256
 20
274.8179665301079
 30
0.0
 41
7.0
 42
7.0
 43
7.0
  0
MTEXT
  5
556C
330
5444
100
AcDbEntity
  8
SUNPOU
 62
     4
100
AcDbMText
 10
334.8732009480256
 20
279.8179665301079
 30
0.0
 40
6.0
 41
0.0
 71
     5
 72
     1
  1
\A1;10
 73
     1
 44
1.0
  0
POINT
  5
556D
330
5444
100
AcDbEntity
  8
DEFPOINTS
 62
     0
100
AcDbPoint
 10
354.3732009480256
 20
226.492589963143
 30
0.0
  0
POINT
  5
556E
330
5444
100
AcDbEntity
  8
DEFPOINTS
 62
     0
100
AcDbPoint
 10
364.3728919235714
 20
252.8140269099788
 30
0.0
  0
POINT
  5
556F
330
5444
100
AcDbEntity
  8
DEFPOINTS
 62
     0
100
AcDbPoint
 10
364.3728919235714
 20
274.8179665301079
 30
0.0
  0
ENDBLK
  5
5451
330
5444
100
AcDbEntity
  8
0
100
AcDbBlockEnd
  0
BLOCK
  5
545E
330
5452
100
AcDbEntity
  8
0
100
AcDbBlockBegin
  2
*D9
 70
     1
 71
     0
 10
0.0
 20
0.0
 30
0.0
  3
*D9
  1

  0
LINE
  5
5570
330
5452
100
AcDbEntity
  8
SUNPOU
 62
     4
370
    -2
100
AcDbLine
 10
228.8682009480255
 20
400.692689963143
 30
0.0
 11
207.3944807237376
 21
400.692689963143
 31
0.0
  0
LINE
  5
5571
330
5452
100
AcDbEntity
  8
SUNPOU
 62
     4
370
    -2
100
AcDbLine
 10
228.8681513615765
 20
385.6926899633069
 30
0.0
 11
207.3944807237376
 21
385.6926899633069
 31
0.0
  0
LINE
  5
5572
330
5452
100
AcDbEntity
  8
SUNPOU
 62
     4
370
    -2
100
AcDbLine
 10
210.3944807237376
 20
407.692689963143
 30
0.0
 11
210.3944807237376
 21
414.692689963143
 31
0.0
  0
LINE
  5
5573
330
5452
100
AcDbEntity
  8
SUNPOU
 62
     4
370
    -2
100
AcDbLine
 10
210.3944807237376
 20
378.6926899633069
 30
0.0
 11
210.3944807237376
 21
371.6926899633069
 31
0.0
  0
LINE
  5
5574
330
5452
100
AcDbEntity
  8
SUNPOU
 62
     4
370
    -2
100
AcDbLine
 10
210.3944807237376
 20
400.692689963143
 30
0.0
 11
210.3944807237376
 21
385.6926899633069
 31
0.0
  0
INSERT
  5
5575
330
5452
100
AcDbEntity
  8
SUNPOU
 62
     4
370
    -2
100
AcDbBlockReference
  2
_OPEN
 10
210.3944807237376
 20
400.692689963143
 30
0.0
 41
7.0
 42
7.0
 43
7.0
 50
270.0
  0
INSERT
  5
5576
330
5452
100
AcDbEntity
  8
SUNPOU
 62
     4
370
    -2
100
AcDbBlockReference
  2
_OPEN
 10
210.3944807237376
 20
385.6926899633069
 30
0.0
 41
7.0
 42
7.0
 43
7.0
 50
90.0
  0
MTEXT
  5
5577
330
5452
100
AcDbEntity
  8
SUNPOU
 62
     4
100
AcDbMText
 10
205.3944807237376
 20
393.192689963225
 30
0.0
 40
6.0
 41
0.0
 71
     5
 72
     1
  1
\A1;15
 11
6.123031769111886E-17
 21
1.0
 31
0.0
 73
     1
 44
1.0
  0
POINT
  5
5578
330
5452
100
AcDbEntity
  8
DEFPOINTS
 62
     0
100
AcDbPoint
 10
234.8682009480255
 20
400.692689963143
 30
0.0
  0
POINT
  5
5579
330
5452
100
AcDbEntity
  8
DEFPOINTS
 62
     0
100
AcDbPoint
 10
234.8681513615765
 20
385.6926899633069
 30
0.0
  0
POINT
  5
557A
330
5452
100
AcDbEntity
  8
DEFPOINTS
 62
     0
100
AcDbPoint
 10
210.3944807237376
 20
385.6926899633069
 30
0.0
  0
ENDBLK
  5
545F
330
5452
100
AcDbEntity
  8
0
100
AcDbBlockEnd
  0
BLOCK
  5
546A
330
5460
100
AcDbEntity
  8
0
100
AcDbBlockBegin
  2
*D10
 70
     1
 71
     0
 10
0.0
 20
0.0
 30
0.0
  3
*D10
  1

  0
LINE
  5
557B
330
5460
100
AcDbEntity
  8
SUNPOU
 62
     4
370
    -2
100
AcDbLine
 10
491.1449152673678
 20
316.6916065959153
 30
0.0
 11
464.3456210481896
 21
303.1836502908341
 31
0.0
  0
LINE
  5
557C
330
5460
100
AcDbEntity
  8
SUNPOU
 62
     4
370
    -2
100
AcDbLine
 10
495.8331830405754
 20
291.307212665927
 30
0.0
 11
475.4981202904608
 21
281.0574972501732
 31
0.0
  0
LINE
  5
557D
330
5460
100
AcDbEntity
  8
SUNPOU
 62
     4
370
    -2
100
AcDbLine
 10
470.175246965685
 20
298.2830930100683
 30
0.0
 11
475.0263680334322
 21
288.6586451771635
 31
0.0
  0
INSERT
  5
557E
330
5460
100
AcDbEntity
  8
SUNPOU
 62
     4
370
    -2
100
AcDbBlockReference
  2
_OPEN
 10
467.024557878423
 20
304.5339456139463
 30
0.0
 41
7.0
 42
7.0
 43
7.0
 50
116.7499999999992
  0
INSERT
  5
557F
330
5460
100
AcDbEntity
  8
SUNPOU
 62
     4
370
    -2
100
AcDbBlockReference
  2
_OPEN
 10
478.1770571206941
 20
282.4077925732855
 30
0.0
 41
7.0
 42
7.0
 43
7.0
 50
296.7499999999992
  0
MTEXT
  5
5580
330
5460
100
AcDbEntity
  8
SUNPOU
 62
     4
100
AcDbMText
 10
477.0657022166142
 20
295.721361298803
 30
0.0
 40
6.0
 41
0.0
 71
     5
 72
     1
  1
\A1;25
 11
0.4500984410374218
 21
-0.8929789434111437
 31
0.0
 73
     1
 44
1.0
  0
POINT
  5
5581
330
5460
100
AcDbEntity
  8
DEFPOINTS
 62
     0
100
AcDbPoint
 10
496.5027889278346
 20
319.3921972421398
 30
0.0
  0
POINT
  5
5582
330
5460
100
AcDbEntity
  8
DEFPOINTS
 62
     0
100
AcDbPoint
 10
501.1910567010422
 20
294.0078033121516
 30
0.0
  0
POINT
  5
5583
330
5460
100
AcDbEntity
  8
DEFPOINTS
 62
     0
100
AcDbPoint
 10
478.1770571206941
 20
282.4077925732855
 30
0.0
  0
ENDBLK
  5
546B
330
5460
100
AcDbEntity
  8
0
100
AcDbBlockEnd
  0
BLOCK
  5
5476
330
546C
100
AcDbEntity
  8
0
100
AcDbBlockBegin
  2
*D11
 70
     1
 71
     0
 10
0.0
 20
0.0
 30
0.0
  3
*D11
  1

  0
LINE
  5
55A1
330
546C
100
AcDbEntity
  8
SUNPOU
 62
     4
370
    -2
100
AcDbLine
 10
501.1812982816102
 20
305.6666709026065
 30
0.0
 11
482.6533465075228
 21
342.4254536272541
 31
0.0
  0
LINE
  5
55A2
330
546C
100
AcDbEntity
  8
SUNPOU
 62
     4
370
    -2
100
AcDbLine
 10
536.0075870293406
 20
323.220394828624
 30
0.0
 11
517.4795666476091
 21
359.9793136683432
 31
0.0
  0
LINE
  5
55A3
330
546C
100
AcDbEntity
  8
SUNPOU
 62
     4
370
    -2
100
AcDbLine
 10
490.2544944345131
 20
342.8972058842826
 30
0.0
 11
512.5790093668434
 21
354.1496877508479
 31
0.0
  0
INSERT
  5
55A4
330
546C
100
AcDbEntity
  8
SUNPOU
 62
     4
370
    -2
100
AcDbBlockReference
  2
_OPEN
 10
484.0036418306351
 20
339.7465167970206
 30
0.0
 41
7.0
 42
7.0
 43
7.0
 50
206.7499999999992
  0
INSERT
  5
55A5
330
546C
100
AcDbEntity
  8
SUNPOU
 62
     4
370
    -2
100
AcDbBlockReference
  2
_OPEN
 10
518.8298619707214
 20
357.3003768381097
 30
0.0
 41
7.0
 42
7.0
 43
7.0
 50
26.74999999999918
  0
MTEXT
  5
55A6
330
546C
100
AcDbEntity
  8
SUNPOU
 62
     4
100
AcDbMText
 10
499.1662596954911
 20
352.9883415346209
 30
0.0
 40
6.0
 41
0.0
 71
     5
 72
     1
  1
\A1;39
 11
0.8929789434111435
 21
0.4500984410374221
 31
0.0
 73
     1
 44
1.0
  0
POINT
  5
55A7
330
546C
100
AcDbEntity
  8
DEFPOINTS
 62
     0
100
AcDbPoint
 10
503.8818889278348
 20
300.3087972421397
 30
0.0
  0
POINT
  5
55A8
330
546C
100
AcDbEntity
  8
DEFPOINTS
 62
     0
100
AcDbPoint
 10
538.7081776755651
 20
317.8625211681571
 30
0.0
  0
POINT
  5
55A9
330
546C
100
AcDbEntity
  8
DEFPOINTS
 62
     0
100
AcDbPoint
 10
518.8298619707214
 20
357.3003768381097
 30
0.0
  0
ENDBLK
  5
5477
330
546C
100
AcDbEntity
  8
0
100
AcDbBlockEnd
  0
BLOCK
  5
5484
330
5478
100
AcDbEntity
  8
0
100
AcDbBlockBegin
  2
*D12
 70
     1
 71
     0
 10
0.0
 20
0.0
 30
0.0
  3
*D12
  1

  0
LINE
  5
5584
330
5478
100
AcDbEntity
  8
SUNPOU
 62
     4
370
    -2
100
AcDbLine
 10
529.0385025341814
 20
269.970883893685
 30
0.0
 11
498.0035175208562
 21
254.3279636712247
 31
0.0
  0
LINE
  5
5585
330
5478
100
AcDbEntity
  8
SUNPOU
 62
     4
370
    -2
100
AcDbLine
 10
536.6027933405478
 20
265.3849024158909
 30
0.0
 11
501.3791929922132
 21
247.6307462608211
 31
0.0
  0
LINE
  5
5586
330
5478
100
AcDbEntity
  8
SUNPOU
 62
     4
370
    -2
100
AcDbLine
 10
497.5317652638277
 20
261.9291115982149
 30
0.0
 11
494.3810761765657
 21
268.179964202093
 31
0.0
  0
LINE
  5
5587
330
5478
100
AcDbEntity
  8
SUNPOU
 62
     4
370
    -2
100
AcDbLine
 10
507.2088189097086
 20
242.7301889800554
 30
0.0
 11
517.5610830535693
 21
222.1916732815991
 31
0.0
  0
LINE
  5
5588
330
5478
100
AcDbEntity
  8
SUNPOU
 62
     4
370
    -2
100
AcDbLine
 10
500.6824543510896
 20
255.678258994337
 30
0.0
 11
504.0581298224467
 21
248.9810415839334
 31
0.0
  0
INSERT
  5
5589
330
5478
100
AcDbEntity
  8
SUNPOU
 62
     4
370
    -2
100
AcDbBlockReference
  2
_OPEN
 10
500.6824543510896
 20
255.678258994337
 30
0.0
 41
7.0
 42
7.0
 43
7.0
 50
296.7499999999992
  0
INSERT
  5
558A
330
5478
100
AcDbEntity
  8
SUNPOU
 62
     4
370
    -2
100
AcDbBlockReference
  2
_OPEN
 10
504.0581298224467
 20
248.9810415839334
 30
0.0
 41
7.0
 42
7.0
 43
7.0
 50
116.7499999999992
  0
MTEXT
  5
558B
330
5478
100
AcDbEntity
  8
SUNPOU
 62
     4
100
AcDbMText
 10
518.4251902423257
 20
231.5859970340753
 30
0.0
 40
6.0
 41
0.0
 71
     5
 72
     1
  1
\A1;7.5
 11
0.4500984410374218
 21
-0.8929789434111437
 31
0.0
 73
     1
 44
1.0
  0
POINT
  5
558C
330
5478
100
AcDbEntity
  8
DEFPOINTS
 62
     0
100
AcDbPoint
 10
534.3963761946483
 20
272.6714745399095
 30
0.0
  0
POINT
  5
558D
330
5478
100
AcDbEntity
  8
DEFPOINTS
 62
     0
100
AcDbPoint
 10
541.9606670010147
 20
268.0854930621154
 30
0.0
  0
POINT
  5
558E
330
5478
100
AcDbEntity
  8
DEFPOINTS
 62
     0
100
AcDbPoint
 10
504.0581298224467
 20
248.9810415839334
 30
0.0
  0
ENDBLK
  5
5485
330
5478
100
AcDbEntity
  8
0
100
AcDbBlockEnd
  0
BLOCK
  5
5490
330
5486
100
AcDbEntity
  8
0
100
AcDbBlockBegin
  2
*D13
 70
     1
 71
     0
 10
0.0
 20
0.0
 30
0.0
  3
*D13
  1

  0
LINE
  5
558F
330
5486
100
AcDbEntity
  8
SUNPOU
 62
     4
370
    -2
100
AcDbLine
 10
533.1149625883018
 20
337.8461878883643
 30
0.0
 11
565.0037381152404
 21
353.9194539571466
 31
0.0
  0
LINE
  5
5590
330
5486
100
AcDbEntity
  8
SUNPOU
 62
     4
370
    -2
100
AcDbLine
 10
553.4830303615091
 20
313.6459939583757
 30
0.0
 11
578.8568225444881
 21
326.4354380869682
 31
0.0
  0
LINE
  5
5591
330
5486
100
AcDbEntity
  8
SUNPOU
 62
     4
370
    -2
100
AcDbLine
 10
565.4754903722688
 20
346.3183060301563
 30
0.0
 11
573.0271966269928
 21
331.3359953677339
 31
0.0
  0
INSERT
  5
5592
330
5486
100
AcDbEntity
  8
SUNPOU
 62
     4
370
    -2
100
AcDbBlockReference
  2
_OPEN
 10
562.324801285007
 20
352.5691586340343
 30
0.0
 41
7.0
 42
7.0
 43
7.0
 50
116.7499999999992
  0
INSERT
  5
5593
330
5486
100
AcDbEntity
  8
SUNPOU
 62
     4
370
    -2
100
AcDbBlockReference
  2
_OPEN
 10
576.1778857142547
 20
325.0851427638559
 30
0.0
 41
7.0
 42
7.0
 43
7.0
 50
296.7499999999992
  0
MTEXT
  5
5594
330
5486
100
AcDbEntity
  8
SUNPOU
 62
     4
100
AcDbMText
 10
573.7162382166865
 20
341.0776429041322
 30
0.0
 40
6.0
 41
0.0
 71
     5
 72
     1
  1
\A1;31
 11
0.4500984410374218
 21
-0.8929789434111437
 31
0.0
 73
     1
 44
1.0
  0
POINT
  5
5595
330
5486
100
AcDbEntity
  8
DEFPOINTS
 62
     0
100
AcDbPoint
 10
527.757088927835
 20
335.1455972421398
 30
0.0
  0
POINT
  5
5596
330
5486
100
AcDbEntity
  8
DEFPOINTS
 62
     0
100
AcDbPoint
 10
548.1251567010423
 20
310.9454033121512
 30
0.0
  0
POINT
  5
5597
330
5486
100
AcDbEntity
  8
DEFPOINTS
 62
     0
100
AcDbPoint
 10
576.1778857142547
 20
325.0851427638559
 30
0.0
  0
ENDBLK
  5
5491
330
5486
100
AcDbEntity
  8
0
100
AcDbBlockEnd
  0
BLOCK
  5
549C
330
5492
100
AcDbEntity
  8
0
100
AcDbBlockBegin
  2
*D14
 70
     1
 71
     0
 10
0.0
 20
0.0
 30
0.0
  3
*D14
  1

  0
LINE
  5
5598
330
5492
100
AcDbEntity
  8
SUNPOU
 62
     4
370
    -2
100
AcDbLine
 10
489.3733982816103
 20
311.3192709026067
 30
0.0
 11
467.8897795472805
 21
353.9419894212755
 31
0.0
  0
LINE
  5
5599
330
5492
100
AcDbEntity
  8
SUNPOU
 62
     4
370
    -2
100
AcDbLine
 10
538.4872982816103
 20
336.0746709026066
 30
0.0
 11
517.0036620440559
 21
378.6974241470366
 31
0.0
  0
LINE
  5
559A
330
5492
100
AcDbEntity
  8
SUNPOU
 62
     4
370
    -2
100
AcDbLine
 10
475.4909274742707
 20
354.413741678304
 30
0.0
 11
512.1031047632902
 21
372.8677982295413
 31
0.0
  0
INSERT
  5
559B
330
5492
100
AcDbEntity
  8
SUNPOU
 62
     4
370
    -2
100
AcDbBlockReference
  2
_OPEN
 10
469.2400748703927
 20
351.263052591042
 30
0.0
 41
7.0
 42
7.0
 43
7.0
 50
206.7499999999992
  0
INSERT
  5
559C
330
5492
100
AcDbEntity
  8
SUNPOU
 62
     4
370
    -2
100
AcDbBlockReference
  2
_OPEN
 10
518.3539573671682
 20
376.0184873168032
 30
0.0
 41
7.0
 42
7.0
 43
7.0
 50
26.74999999999918
  0
MTEXT
  5
559D
330
5492
100
AcDbEntity
  8
SUNPOU
 62
     4
100
AcDbMText
 10
491.5465239135933
 20
368.1056646709783
 30
0.0
 40
6.0
 41
0.0
 71
     5
 72
     1
  1
\A1;55
 11
0.8929789434111435
 21
0.4500984410374221
 31
0.0
 73
     1
 44
1.0
  0
POINT
  5
559E
330
5492
100
AcDbEntity
  8
DEFPOINTS
 62
     0
100
AcDbPoint
 10
492.0739889278348
 20
305.9613972421398
 30
0.0
  0
POINT
  5
559F
330
5492
100
AcDbEntity
  8
DEFPOINTS
 62
     0
100
AcDbPoint
 10
541.1878889278348
 20
330.7167972421397
 30
0.0
  0
POINT
  5
55A0
330
5492
100
AcDbEntity
  8
DEFPOINTS
 62
     0
100
AcDbPoint
 10
518.3539573671682
 20
376.0184873168032
 30
0.0
  0
ENDBLK
  5
549D
330
5492
100
AcDbEntity
  8
0
100
AcDbBlockEnd
  0
ENDSEC
  0
SECTION
  2
ENTITIES
  0
LINE
  5
3EF3
330
1A
100
AcDbEntity
  8
ZUWAKU
100
AcDbLine
 10
208.646601303624
 20
15.19999986828872
 30
0.0
 11
447.4243639845474
 21
15.19999986828871
 31
0.0
  0
LINE
  5
3EF4
330
1A
100
AcDbEntity
  8
ZUWAKU
100
AcDbLine
 10
208.646601303624
 20
15.59999986828872
 30
0.0
 11
447.4243639845474
 21
15.59999986828872
 31
0.0
  0
LINE
  5
3EF5
330
1A
100
AcDbEntity
  8
ZUWAKU
100
AcDbLine
 10
208.646601303624
 20
15.39999986828872
 30
0.0
 11
447.4243639845474
 21
15.39999986828872
 31
0.0
  0
LINE
  5
3EF6
330
1A
100
AcDbEntity
  8
ZUWAKU
100
AcDbLine
 10
0.0000000135560185
 20
30.79999986828869
 30
0.0
 11
797.4000000135559
 21
30.79999986828869
 31
0.0
  0
LINE
  5
3EF7
330
1A
100
AcDbEntity
  8
ZUWAKU
100
AcDbLine
 10
0.0000000135560185
 20
30.59999986828869
 30
0.0
 11
797.4000000135559
 21
30.59999986828869
 31
0.0
  0
LINE
  5
3EF8
330
1A
100
AcDbEntity
  8
ZUWAKU
100
AcDbLine
 10
0.0000000135560185
 20
30.39999986828869
 30
0.0
 11
797.4000000135559
 21
30.39999986828869
 31
0.0
  0
LINE
  5
3EF9
330
1A
100
AcDbEntity
  8
ZUWAKU
100
AcDbLine
 10
0.0000000135560185
 20
30.19999986828869
 30
0.0
 11
797.4000000135559
 21
30.19999986828869
 31
0.0
  0
LINE
  5
3EFA
330
1A
100
AcDbEntity
  8
ZUWAKU
100
AcDbLine
 10
0.0000000135560185
 20
29.99999986828868
 30
0.0
 11
797.4000000135559
 21
29.99999986828868
 31
0.0
  0
LWPOLYLINE
  5
3EFB
330
1A
100
AcDbEntity
  8
ZUWAKU
100
AcDbPolyline
 90
        4
 70
     1
 43
0.0
 10
0.2000000135559503
 20
551.3999998682888
 10
0.2000000135559503
 20
0.1999998682887281
 10
797.4000000135559
 20
0.1999998682887512
 10
797.4000000135561
 20
551.3999998682888
  0
LWPOLYLINE
  5
3EFC
330
1A
100
AcDbEntity
  8
ZUWAKU
100
AcDbPolyline
 90
        4
 70
     1
 43
0.0
 10
0.6000000135559276
 20
550.9999998682888
 10
0.6000000135559276
 20
0.5999998682887053
 10
797.0000000135563
 20
0.5999998682887515
 10
797.000000013556
 20
550.9999998682888
  0
LWPOLYLINE
  5
3EFD
330
1A
100
AcDbEntity
  8
ZUWAKU
100
AcDbPolyline
 90
        4
 70
     1
 43
0.0
 10
0.0000000135560185
 20
551.5999998682887
 10
0.0000000135560185
 20
-0.0000001317113174
 10
797.6000000135562
 20
-0.0000001317112499
 10
797.6000000135562
 20
551.5999998682888
  0
LWPOLYLINE
  5
3EFE
330
1A
100
AcDbEntity
  8
ZUWAKU
100
AcDbPolyline
 90
        4
 70
     1
 43
0.0
 10
0.4000000135559958
 20
551.1999998682887
 10
0.4000000135559958
 20
0.3999998682887735
 10
797.2000000135561
 20
0.3999998682887505
 10
797.2000000135561
 20
551.1999998682887
  0
LWPOLYLINE
  5
3EFF
330
1A
100
AcDbEntity
  8
ZUWAKU
100
AcDbPolyline
 90
        4
 70
     1
 43
0.0
 10
0.8000000135559731
 20
550.7999998682888
 10
0.8000000135559731
 20
0.7999998682887508
 10
796.800000013556
 20
0.7999998682887508
 10
796.800000013556
 20
550.7999998682888
  0
TEXT
  5
3F00
330
1A
100
AcDbEntity
  8
moji
100
AcDbText
 10
92.95778960172515
 20
12.74117799856344
 30
0.0
 40
6.0
  1
アーバントップΣ９０
 41
0.9
  7
ｽﾀｲﾙ1
100
AcDbText
  0
HATCH
  5
3F01
330
1A
100
AcDbEntity
  8
ZUWAKU
100
AcDbHatch
 10
0.0
 20
0.0
 30
0.0
210
0.0
220
0.0
230
1.0
  2
ANSI37
 70
     0
 71
     0
 91
        8
 92
        7
 72
     1
 73
     1
 93
       24
 10
14.50226267467588
 20
17.64484834927227
 42
-0.1989123673796348
 10
14.09221216833714
 20
18.63479784293332
 42
0.0
 10
14.09221216833714
 20
19.92499986828869
 42
-0.4142135623730912
 10
14.61721216833712
 20
20.44999986828869
 42
0.0
 10
17.59221216833703
 20
20.44999986828869
 42
0.4142135623731546
 10
18.11721216833712
 20
20.97499986828868
 42
0.0
 10
18.11721216833712
 20
22.72499986828869
 42
0.4142135623731586
 10
17.59221216833703
 20
23.24999986828869
 42
0.0
 10
14.09221216833714
 20
23.24999986828869
 42
0.4142135623730928
 10
11.29221216833719
 20
20.44999986828871
 42
0.0
 10
11.29221216833719
 20
18.63479784293345
 42
0.1989123673796619
 10
12.52236368735362
 20
15.66494936194984
 42
0.0
 10
15.43216166199829
 20
12.75515138730518
 42
-0.1989123673796613
 10
15.84221216833714
 20
11.76520189364399
 42
0.0
 10
15.84221216833714
 20
10.47499986828868
 42
-0.4142135623730911
 10
15.31721216833716
 20
9.949999868288685
 42
0.0
 10
12.34221216833726
 20
9.949999868288685
 42
0.4142135623731526
 10
11.81721216833716
 20
9.424999868288698
 42
0.0
 10
11.81721216833716
 20
7.674999868288676
 42
0.4142135623731526
 10
12.34221216833726
 20
7.149999868288688
 42
0.0
 10
15.84221216833714
 20
7.149999868288688
 42
0.4142135623731044
 10
18.64221216833721
 20
9.949999868288664
 42
0.0
 10
18.64221216833721
 20
11.76520189364394
 42
0.1989123673796604
 10
17.41206064932067
 20
14.73505037462748
 42
0.0
 97
        0
 92
        7
 72
     1
 73
     1
 93
       16
 10
23.54221216833719
 20
19.04999986828869
 42
-0.4142135623730935
 10
24.94221216833716
 20
20.44999986828869
 42
0.0
 10
26.86721216833712
 20
20.44999986828869
 42
0.4142135623731546
 10
27.39221216833721
 20
20.97499986828868
 42
0.0
 10
27.39221216833721
 20
22.72499986828869
 42
0.4142135623730952
 10
26.86721216833723
 20
23.24999986828869
 42
0.0
 10
24.94221216833705
 20
23.24999986828865
 42
0.4142135623730892
 10
20.74221216833712
 20
19.04999986828862
 42
0.0
 10
20.74221216833712
 20
11.34999986828871
 42
0.4142135623730969
 10
24.94221216833716
 20
7.149999868288688
 42
0.0
 10
26.86721216833712
 20
7.149999868288688
 42
0.4142135623731526
 10
27.39221216833721
 20
7.674999868288676
 42
0.0
 10
27.39221216833721
 20
9.424999868288698
 42
0.414213562373089
 10
26.86721216833723
 20
9.949999868288685
 42
0.0
 10
24.94221216833716
 20
9.949999868288685
 42
-0.4142135623730928
 10
23.54221216833719
 20
11.34999986828867
 42
0.0
 97
        0
 92
        7
 72
     1
 73
     1
 93
        2
 10
24.24221216833712
 20
15.19999986828869
 42
1.0
 10
27.74221216833712
 20
15.19999986828869
 42
1.0
 97
        0
 92
        7
 72
     1
 73
     1
 93
       26
 10
37.31485865051513
 20
19.20504706185211
 42
0.0
 10
38.37649828365295
 20
22.5669059001217
 42
0.5069206636600134
 10
37.87586738445759
 20
23.24999986828869
 42
0.0
 10
36.17697800484837
 20
23.24999986828869
 42
0.3272098845218764
 10
35.67634710565301
 20
22.88309383645566
 42
0.0
 10
33.80807723102123
 20
16.96690590012177
 42
-0.3272098845219541
 10
33.30744633182576
 20
16.59999986828868
 42
0.0
 10
33.1672121683373
 20
16.59999986828868
 42
-0.4142135623731526
 10
32.64221216833721
 20
17.12499986828867
 42
0.0
 10
32.64221216833721
 20
22.72499986828869
 42
0.4142135623730952
 10
32.11721216833723
 20
23.24999986828869
 42
0.0
 10
30.36721216833712
 20
23.24999986828869
 42
0.4142135623730872
 10
29.84221216833714
 20
22.72499986828871
 42
0.0
 10
29.84221216833714
 20
7.674999868288676
 42
0.414213562373089
 10
30.36721216833712
 20
7.149999868288688
 42
0.0
 10
32.11721216833712
 20
7.149999868288688
 42
0.4142135623731526
 10
32.64221216833721
 20
7.674999868288676
 42
0.0
 10
32.64221216833721
 20
13.2749998682887
 42
-0.4142135623731526
 10
33.1672121683373
 20
13.79999986828869
 42
0.0
 10
33.30744633182587
 20
13.79999986828869
 42
-0.3272098845218915
 10
33.80807723102123
 20
13.43309383645561
 42
0.0
 10
35.67634710565301
 20
7.51690590012176
 42
0.3272098845218902
 10
36.17697800484837
 20
7.149999868288688
 42
0.0
 10
37.87586738445759
 20
7.149999868288688
 42
0.5069206636600334
 10
38.37649828365295
 20
7.833093836455696
 42
0.0
 10
36.05010690517929
 20
15.19999986828882
 42
0.0
 97
        0
 92
        7
 72
     1
 73
     1
 93
        8
 10
43.49221216833712
 20
22.7249998682887
 42
0.4142135623731546
 10
42.96721216833703
 20
23.24999986828869
 42
0.0
 10
41.21721216833726
 20
23.24999986828869
 42
0.4142135623731506
 10
40.69221216833716
 20
22.72499986828871
 42
0.0
 10
40.69221216833716
 20
7.674999868288676
 42
0.4142135623731526
 10
41.21721216833726
 20
7.149999868288688
 42
0.0
 10
42.96721216833703
 20
7.149999868288688
 42
0.4142135623731526
 10
43.49221216833712
 20
7.674999868288676
 42
0.0
 97
        0
 92
        7
 72
     1
 73
     1
 93
       24
 10
48.39221216833721
 20
19.92499986828869
 42
-0.4142135623731547
 10
48.9172121683373
 20
20.44999986828869
 42
0.0
 10
51.89221216833721
 20
20.44999986828869
 42
0.4142135623730911
 10
52.41721216833719
 20
20.97499986828868
 42
0.0
 10
52.41721216833719
 20
22.72499986828869
 42
0.4142135623730952
 10
51.89221216833721
 20
23.24999986828869
 42
0.0
 10
48.39221216833721
 20
23.24999986828869
 42
0.4142135623731048
 10
45.59221216833714
 20
20.44999986828871
 42
0.0
 10
45.59221216833714
 20
18.63479784293345
 42
0.1989123673796613
 10
46.82236368735369
 20
15.66494936194989
 42
0.0
 10
49.73216166199836
 20
12.75515138730523
 42
-0.1989123673796402
 10
50.14221216833721
 20
11.76520189364415
 42
0.0
 10
50.14221216833721
 20
10.47499986828868
 42
-0.4142135623730911
 10
49.61721216833723
 20
9.949999868288685
 42
0.0
 10
46.64221216833721
 20
9.949999868288685
 42
0.4142135623731526
 10
46.11721216833712
 20
9.424999868288698
 42
0.0
 10
46.11721216833712
 20
7.674999868288676
 42
0.414213562373089
 10
46.6422121683371
 20
7.149999868288688
 42
0.0
 10
50.14221216833721
 20
7.149999868288688
 42
0.4142135623730925
 10
52.94221216833716
 20
9.949999868288664
 42
0.0
 10
52.94221216833716
 20
11.76520189364394
 42
0.1989123673796675
 10
51.71206064932062
 20
14.73505037462759
 42
0.0
 10
48.80226267467606
 20
17.64484834927211
 42
-0.1989123673796653
 10
48.39221216833721
 20
18.63479784293327
 42
0.0
 97
        0
 92
        7
 72
     1
 73
     1
 93
       16
 10
57.84221216833714
 20
22.72499986828868
 42
0.414213562373103
 10
57.31721216833716
 20
23.24999986828869
 42
0.0
 10
55.56721216833716
 20
23.24999986828869
 42
0.4142135623730872
 10
55.04221216833719
 20
22.72499986828871
 42
0.0
 10
55.04221216833719
 20
9.949999868288664
 42
0.4142135623730925
 10
57.84221216833714
 20
7.149999868288688
 42
0.0
 10
61.34221216833714
 20
7.149999868288688
 42
0.4142135623731044
 10
64.14221216833721
 20
9.949999868288664
 42
0.0
 10
64.14221216833721
 20
22.72499986828869
 42
0.4142135623730952
 10
63.61721216833723
 20
23.24999986828869
 42
0.0
 10
61.86721216833712
 20
23.24999986828869
 42
0.4142135623730872
 10
61.34221216833714
 20
22.72499986828871
 42
0.0
 10
61.34221216833714
 20
10.99999986828866
 42
-0.414213562373088
 10
60.29221216833719
 20
9.949999868288685
 42
0.0
 10
58.89221216833721
 20
9.949999868288685
 42
-0.4142135623731197
 10
57.84221216833714
 20
10.99999986828866
 42
0.0
 97
        0
 92
        7
 72
     1
 73
     1
 93
        8
 10
69.04221216833719
 20
22.72499986828871
 42
0.4142135623730872
 10
68.51721216833721
 20
23.24999986828869
 42
0.0
 10
66.76721216833721
 20
23.24999986828869
 42
0.4142135623731506
 10
66.24221216833712
 20
22.72499986828871
 42
0.0
 10
66.24221216833712
 20
7.674999868288676
 42
0.414213562373089
 10
66.7672121683371
 20
7.149999868288688
 42
0.0
 10
68.51721216833721
 20
7.149999868288688
 42
0.414213562373089
 10
69.04221216833719
 20
7.674999868288676
 42
0.0
 97
        0
 75
     0
 76
     1
 52
0.0
 41
0.2
 77
     0
 78
     2
 53
45.0
 43
-900.942304321123
 44
-13.20000013171125
 45
-0.4490128060534576
 46
0.4490128060534577
 79
     0
 53
135.0
 43
-900.942304321123
 44
-13.20000013171125
 45
-0.4490128060534577
 46
-0.4490128060534576
 79
     0
 47
0.057451373970553
 98
        8
 10
16.07985497657933
 20
15.16717351417424
 10
22.40451501999519
 20
18.84406205073969
 10
25.16436789921568
 20
15.5118815143594
 10
30.91405999519316
 20
16.20129751473019
 10
41.83847203251276
 20
16.6609097822718
 10
46.89820090868557
 20
19.41857618469589
 10
56.55768598595637
 20
18.7291577833837
 10
67.82707963317876
 20
19.18877005092531
  0
LINE
  5
3F02
330
1A
100
AcDbEntity
  8
ZUWAKU
100
AcDbLine
 10
24.94221216833716
 20
23.24999986828865
 30
0.0
 11
26.86721216833712
 21
23.24999986828869
 31
0.0
  0
LINE
  5
3F03
330
1A
100
AcDbEntity
  8
ZUWAKU
100
AcDbLine
 10
26.86721216833712
 20
20.44999986828869
 30
0.0
 11
24.94221216833716
 21
20.44999986828869
 31
0.0
  0
LINE
  5
3F04
330
1A
100
AcDbEntity
  8
ZUWAKU
100
AcDbLine
 10
24.94221216833716
 20
9.949999868288685
 30
0.0
 11
26.86721216833712
 21
9.949999868288685
 31
0.0
  0
LINE
  5
3F05
330
1A
100
AcDbEntity
  8
ZUWAKU
100
AcDbLine
 10
26.86721216833712
 20
7.149999868288688
 30
0.0
 11
24.94221216833716
 21
7.149999868288688
 31
0.0
  0
CIRCLE
  5
3F06
330
1A
100
AcDbEntity
  8
ZUWAKU
100
AcDbCircle
 10
25.99221216833712
 20
15.19999986828869
 30
0.0
 40
1.75
  0
ARC
  5
3F07
330
1A
100
AcDbEntity
  8
ZUWAKU
100
AcDbCircle
 10
15.49221216833712
 20
18.63479784293339
 30
0.0
 40
1.4
100
AcDbArc
 50
180.0000000000016
 51
224.9999999999988
  0
LINE
  5
3F08
330
1A
100
AcDbEntity
  8
ZUWAKU
100
AcDbLine
 10
23.54221216833719
 20
19.04999986828869
 30
0.0
 11
23.54221216833719
 21
11.34999986828869
 31
0.0
  0
LINE
  5
3F09
330
1A
100
AcDbEntity
  8
ZUWAKU
100
AcDbLine
 10
20.74221216833712
 20
11.34999986828869
 30
0.0
 11
20.74221216833712
 21
19.04999986828864
 31
0.0
  0
ARC
  5
3F0A
330
1A
100
AcDbEntity
  8
ZUWAKU
100
AcDbCircle
 10
15.49221216833712
 20
18.63479784293339
 30
0.0
 40
4.199999999999999
100
AcDbArc
 50
180.0
 51
225.0
  0
ARC
  5
3F0B
330
1A
100
AcDbEntity
  8
ZUWAKU
100
AcDbCircle
 10
15.84221216833714
 20
9.949999868288685
 30
0.0
 40
2.8
100
AcDbArc
 50
270.0
 51
0.0
  0
ARC
  5
3F0C
330
1A
100
AcDbEntity
  8
ZUWAKU
100
AcDbCircle
 10
24.94221216833716
 20
11.34999986828869
 30
0.0
 40
4.199999999999999
100
AcDbArc
 50
180.0
 51
270.0
  0
ARC
  5
3F0D
330
1A
100
AcDbEntity
  8
ZUWAKU
100
AcDbCircle
 10
14.44221216833716
 20
11.76520189364399
 30
0.0
 40
4.199999999999999
100
AcDbArc
 50
0.0
 51
45.0
  0
LINE
  5
3F0E
330
1A
100
AcDbEntity
  8
ZUWAKU
100
AcDbLine
 10
17.41206064932067
 20
14.73505037462751
 30
0.0
 11
14.50226267467599
 21
17.64484834927219
 31
0.0
  0
LINE
  5
3F0F
330
1A
100
AcDbEntity
  8
ZUWAKU
100
AcDbLine
 10
15.84221216833714
 20
10.47499986828869
 30
0.0
 11
15.84221216833714
 21
11.76520189364403
 31
0.0
  0
ARC
  5
3F10
330
1A
100
AcDbEntity
  8
ZUWAKU
100
AcDbCircle
 10
15.31721216833716
 20
10.47499986828869
 30
0.0
 40
0.5249999999999999
100
AcDbArc
 50
270.0
 51
0.0
  0
ARC
  5
3F11
330
1A
100
AcDbEntity
  8
ZUWAKU
100
AcDbCircle
 10
14.44221216833716
 20
11.76520189364403
 30
0.0
 40
1.4
100
AcDbArc
 50
0.0
 51
45.0
  0
LINE
  5
3F12
330
1A
100
AcDbEntity
  8
ZUWAKU
100
AcDbLine
 10
11.81721216833716
 20
7.674999868288687
 30
0.0
 11
11.81721216833716
 21
9.424999868288687
 31
0.0
  0
ARC
  5
3F13
330
1A
100
AcDbEntity
  8
ZUWAKU
100
AcDbCircle
 10
12.34221216833714
 20
7.674999868288687
 30
0.0
 40
0.5249999999999999
100
AcDbArc
 50
180.0
 51
270.0
  0
ARC
  5
3F14
330
1A
100
AcDbEntity
  8
ZUWAKU
100
AcDbCircle
 10
12.34221216833714
 20
9.424999868288687
 30
0.0
 40
0.5249999999999999
100
AcDbArc
 50
90.0
 51
180.0
  0
LINE
  5
3F15
330
1A
100
AcDbEntity
  8
ZUWAKU
100
AcDbLine
 10
12.34221216833714
 20
7.149999868288688
 30
0.0
 11
15.84221216833714
 21
7.149999868288688
 31
0.0
  0
LINE
  5
3F16
330
1A
100
AcDbEntity
  8
ZUWAKU
100
AcDbLine
 10
12.34221216833714
 20
9.949999868288685
 30
0.0
 11
15.31721216833716
 21
9.949999868288685
 31
0.0
  0
LINE
  5
3F17
330
1A
100
AcDbEntity
  8
ZUWAKU
100
AcDbLine
 10
12.52236368735362
 20
15.66494936194987
 30
0.0
 11
15.43216166199829
 21
12.7551513873052
 31
0.0
  0
LINE
  5
3F18
330
1A
100
AcDbEntity
  8
ZUWAKU
100
AcDbLine
 10
18.64221216833721
 20
9.949999868288685
 30
0.0
 11
18.64221216833721
 21
11.76520189364403
 31
0.0
  0
ARC
  5
3F19
330
1A
100
AcDbEntity
  8
ZUWAKU
100
AcDbCircle
 10
24.94221216833716
 20
11.34999986828869
 30
0.0
 40
1.4
100
AcDbArc
 50
180.0
 51
270.0
  0
ARC
  5
3F1A
330
1A
100
AcDbEntity
  8
ZUWAKU
100
AcDbCircle
 10
17.59221216833714
 20
22.72499986828868
 30
0.0
 40
0.5249999999999999
100
AcDbArc
 50
0.0
 51
90.0
  0
ARC
  5
3F1B
330
1A
100
AcDbEntity
  8
ZUWAKU
100
AcDbCircle
 10
17.59221216833714
 20
20.97499986828868
 30
0.0
 40
0.5249999999999999
100
AcDbArc
 50
270.0
 51
0.0
  0
LINE
  5
3F1C
330
1A
100
AcDbEntity
  8
ZUWAKU
100
AcDbLine
 10
14.09221216833714
 20
23.24999986828869
 30
0.0
 11
17.59221216833714
 21
23.24999986828869
 31
0.0
  0
ARC
  5
3F1D
330
1A
100
AcDbEntity
  8
ZUWAKU
100
AcDbCircle
 10
14.61721216833712
 20
19.92499986828869
 30
0.0
 40
0.5249999999999999
100
AcDbArc
 50
90.0
 51
180.0
  0
LINE
  5
3F1E
330
1A
100
AcDbEntity
  8
ZUWAKU
100
AcDbLine
 10
14.09221216833714
 20
19.92499986828869
 30
0.0
 11
14.09221216833714
 21
18.63479784293335
 31
0.0
  0
LINE
  5
3F1F
330
1A
100
AcDbEntity
  8
ZUWAKU
100
AcDbLine
 10
17.59221216833714
 20
20.44999986828869
 30
0.0
 11
14.61721216833712
 21
20.44999986828869
 31
0.0
  0
LINE
  5
3F20
330
1A
100
AcDbEntity
  8
ZUWAKU
100
AcDbLine
 10
11.29221216833719
 20
20.44999986828869
 30
0.0
 11
11.29221216833719
 21
18.63479784293335
 31
0.0
  0
ARC
  5
3F21
330
1A
100
AcDbEntity
  8
ZUWAKU
100
AcDbCircle
 10
14.09221216833714
 20
20.44999986828869
 30
0.0
 40
2.8
100
AcDbArc
 50
90.0
 51
180.0
  0
LINE
  5
3F22
330
1A
100
AcDbEntity
  8
ZUWAKU
100
AcDbLine
 10
18.11721216833712
 20
22.72499986828868
 30
0.0
 11
18.11721216833712
 21
20.97499986828868
 31
0.0
  0
ARC
  5
3F23
330
1A
100
AcDbEntity
  8
ZUWAKU
100
AcDbCircle
 10
24.94221216833716
 20
19.04999986828869
 30
0.0
 40
1.4
100
AcDbArc
 50
90.0
 51
180.0
  0
ARC
  5
3F24
330
1A
100
AcDbEntity
  8
ZUWAKU
100
AcDbCircle
 10
24.94221216833716
 20
19.04999986828864
 30
0.0
 40
4.199999999999999
100
AcDbArc
 50
90.0
 51
180.0
  0
LINE
  5
3F25
330
1A
100
AcDbEntity
  8
ZUWAKU
100
AcDbLine
 10
79.32662956154422
 20
29.99999986828868
 30
0.0
 11
79.32662956154445
 21
0.7999998682887508
 31
0.0
  0
LINE
  5
3F26
330
1A
100
AcDbEntity
  8
ZUWAKU
100
AcDbLine
 10
79.52662956154427
 20
29.99999986828868
 30
0.0
 11
79.5266295615445
 21
0.7999998682887508
 31
0.0
  0
LINE
  5
3F27
330
1A
100
AcDbEntity
  8
ZUWAKU
100
AcDbLine
 10
79.12662956154441
 20
29.99999986828868
 30
0.0
 11
79.12662956154441
 21
0.7999998682887508
 31
0.0
  0
LINE
  5
3F28
330
1A
100
AcDbEntity
  8
ZUWAKU
100
AcDbLine
 10
64.14221216833721
 20
9.949999868288685
 30
0.0
 11
64.14221216833721
 21
22.72499986828868
 31
0.0
  0
LINE
  5
3F29
330
1A
100
AcDbEntity
  8
ZUWAKU
100
AcDbLine
 10
61.34221216833714
 20
22.72499986828868
 30
0.0
 11
61.34221216833714
 21
10.99999986828868
 31
0.0
  0
LINE
  5
3F2A
330
1A
100
AcDbEntity
  8
ZUWAKU
100
AcDbLine
 10
69.04221216833719
 20
7.674999868288687
 30
0.0
 11
69.04221216833719
 21
22.72499986828868
 31
0.0
  0
LINE
  5
3F2B
330
1A
100
AcDbEntity
  8
ZUWAKU
100
AcDbLine
 10
66.24221216833712
 20
22.72499986828868
 30
0.0
 11
66.24221216833712
 21
7.674999868288687
 31
0.0
  0
ARC
  5
3F2C
330
1A
100
AcDbEntity
  8
ZUWAKU
100
AcDbCircle
 10
49.79221216833719
 20
18.63479784293339
 30
0.0
 40
1.4
100
AcDbArc
 50
180.0000000000016
 51
224.9999999999988
  0
ARC
  5
3F2D
330
1A
100
AcDbEntity
  8
ZUWAKU
100
AcDbCircle
 10
49.79221216833719
 20
18.63479784293339
 30
0.0
 40
4.199999999999999
100
AcDbArc
 50
180.0
 51
225.0
  0
LINE
  5
3F2E
330
1A
100
AcDbEntity
  8
ZUWAKU
100
AcDbLine
 10
37.31485865051513
 20
19.20504706185211
 30
0.0
 11
36.05010690517929
 21
15.19999986828871
 31
0.0
  0
LINE
  5
3F2F
330
1A
100
AcDbEntity
  8
ZUWAKU
100
AcDbLine
 10
40.69221216833716
 20
22.72499986828868
 30
0.0
 11
40.69221216833716
 21
7.674999868288687
 31
0.0
  0
LINE
  5
3F30
330
1A
100
AcDbEntity
  8
ZUWAKU
100
AcDbLine
 10
43.49221216833712
 20
7.674999868288687
 30
0.0
 11
43.49221216833712
 21
22.72499986828868
 31
0.0
  0
LINE
  5
3F31
330
1A
100
AcDbEntity
  8
ZUWAKU
100
AcDbLine
 10
55.04221216833719
 20
22.72499986828868
 30
0.0
 11
55.04221216833719
 21
9.949999868288685
 31
0.0
  0
LINE
  5
3F32
330
1A
100
AcDbEntity
  8
ZUWAKU
100
AcDbLine
 10
57.84221216833714
 20
10.99999986828868
 30
0.0
 11
57.84221216833714
 21
22.72499986828868
 31
0.0
  0
LINE
  5
3F33
330
1A
100
AcDbEntity
  8
ZUWAKU
100
AcDbLine
 10
32.64221216833721
 20
17.12499986828869
 30
0.0
 11
32.64221216833721
 21
22.72499986828868
 31
0.0
  0
LINE
  5
3F34
330
1A
100
AcDbEntity
  8
ZUWAKU
100
AcDbLine
 10
29.84221216833714
 20
22.72499986828868
 30
0.0
 11
29.84221216833714
 21
7.674999868288687
 31
0.0
  0
LINE
  5
3F35
330
1A
100
AcDbEntity
  8
ZUWAKU
100
AcDbLine
 10
35.67634710565301
 20
22.88309383645566
 30
0.0
 11
33.80807723102123
 21
16.96690590012172
 31
0.0
  0
LINE
  5
3F36
330
1A
100
AcDbEntity
  8
ZUWAKU
100
AcDbLine
 10
60.29221216833719
 20
9.949999868288685
 30
0.0
 11
58.89221216833721
 21
9.949999868288685
 31
0.0
  0
LINE
  5
3F37
330
1A
100
AcDbEntity
  8
ZUWAKU
100
AcDbLine
 10
57.84221216833714
 20
7.149999868288688
 30
0.0
 11
61.34221216833714
 21
7.149999868288688
 31
0.0
  0
LINE
  5
3F38
330
1A
100
AcDbEntity
  8
ZUWAKU
100
AcDbLine
 10
41.21721216833714
 20
7.149999868288688
 30
0.0
 11
42.96721216833714
 21
7.149999868288688
 31
0.0
  0
LINE
  5
3F39
330
1A
100
AcDbEntity
  8
ZUWAKU
100
AcDbLine
 10
35.67634710565301
 20
7.516905900121714
 30
0.0
 11
33.80807723102123
 21
13.43309383645565
 31
0.0
  0
ARC
  5
3F3A
330
1A
100
AcDbEntity
  8
ZUWAKU
100
AcDbCircle
 10
33.30744633182587
 20
17.12499986828869
 30
0.0
 40
0.5249999999999999
100
AcDbArc
 50
270.0
 51
342.474431626277
  0
LINE
  5
3F3B
330
1A
100
AcDbEntity
  8
ZUWAKU
100
AcDbLine
 10
33.30744633182587
 20
16.59999986828868
 30
0.0
 11
33.16721216833719
 21
16.59999986828868
 31
0.0
  0
LINE
  5
3F3C
330
1A
100
AcDbEntity
  8
ZUWAKU
100
AcDbLine
 10
33.16721216833719
 20
13.79999986828869
 30
0.0
 11
33.30744633182587
 21
13.79999986828869
 31
0.0
  0
ARC
  5
3F3D
330
1A
100
AcDbEntity
  8
ZUWAKU
100
AcDbCircle
 10
33.16721216833719
 20
17.12499986828869
 30
0.0
 40
0.5249999999999999
100
AcDbArc
 50
180.0
 51
270.0
  0
LINE
  5
3F3E
330
1A
100
AcDbEntity
  8
ZUWAKU
100
AcDbLine
 10
30.36721216833712
 20
7.149999868288688
 30
0.0
 11
32.11721216833712
 21
7.149999868288688
 31
0.0
  0
ARC
  5
3F3F
330
1A
100
AcDbEntity
  8
ZUWAKU
100
AcDbCircle
 10
32.11721216833712
 20
7.674999868288687
 30
0.0
 40
0.5249999999999999
100
AcDbArc
 50
270.0
 51
0.0
  0
LINE
  5
3F40
330
1A
100
AcDbEntity
  8
ZUWAKU
100
AcDbLine
 10
32.64221216833721
 20
7.674999868288687
 30
0.0
 11
32.64221216833721
 21
13.27499986828869
 31
0.0
  0
LINE
  5
3F41
330
1A
100
AcDbEntity
  8
ZUWAKU
100
AcDbLine
 10
27.39221216833721
 20
9.424999868288687
 30
0.0
 11
27.39221216833721
 21
7.674999868288687
 31
0.0
  0
ARC
  5
3F42
330
1A
100
AcDbEntity
  8
ZUWAKU
100
AcDbCircle
 10
26.86721216833712
 20
7.674999868288687
 30
0.0
 40
0.5249999999999999
100
AcDbArc
 50
270.0
 51
0.0
  0
ARC
  5
3F43
330
1A
100
AcDbEntity
  8
ZUWAKU
100
AcDbCircle
 10
26.86721216833712
 20
9.424999868288687
 30
0.0
 40
0.5249999999999999
100
AcDbArc
 50
0.0
 51
90.0
  0
ARC
  5
3F44
330
1A
100
AcDbEntity
  8
ZUWAKU
100
AcDbCircle
 10
30.36721216833712
 20
7.674999868288687
 30
0.0
 40
0.5249999999999999
100
AcDbArc
 50
180.0
 51
270.0
  0
ARC
  5
3F45
330
1A
100
AcDbEntity
  8
ZUWAKU
100
AcDbCircle
 10
33.30744633182587
 20
13.27499986828869
 30
0.0
 40
0.5249999999999999
100
AcDbArc
 50
17.52556837372303
 51
90.0
  0
ARC
  5
3F46
330
1A
100
AcDbEntity
  8
ZUWAKU
100
AcDbCircle
 10
33.16721216833719
 20
13.27499986828869
 30
0.0
 40
0.5249999999999999
100
AcDbArc
 50
90.0
 51
180.0
  0
ARC
  5
3F47
330
1A
100
AcDbEntity
  8
ZUWAKU
100
AcDbCircle
 10
41.21721216833714
 20
7.674999868288687
 30
0.0
 40
0.5249999999999999
100
AcDbArc
 50
180.0
 51
270.0
  0
LINE
  5
3F48
330
1A
100
AcDbEntity
  8
ZUWAKU
100
AcDbLine
 10
36.17697800484848
 20
7.149999868288688
 30
0.0
 11
37.87586738445748
 21
7.149999868288688
 31
0.0
  0
ARC
  5
3F49
330
1A
100
AcDbEntity
  8
ZUWAKU
100
AcDbCircle
 10
37.87586738445748
 20
7.674999868288687
 30
0.0
 40
0.5249999999999999
100
AcDbArc
 50
270.0
 51
17.52556837372303
  0
LINE
  5
3F4A
330
1A
100
AcDbEntity
  8
ZUWAKU
100
AcDbLine
 10
38.37649828365295
 20
7.83309383645566
 30
0.0
 11
36.05010690517929
 21
15.19999986828871
 31
0.0
  0
ARC
  5
3F4B
330
1A
100
AcDbEntity
  8
ZUWAKU
100
AcDbCircle
 10
36.17697800484848
 20
7.674999868288687
 30
0.0
 40
0.5249999999999999
100
AcDbArc
 50
197.525568373723
 51
270.0
  0
ARC
  5
3F4C
330
1A
100
AcDbEntity
  8
ZUWAKU
100
AcDbCircle
 10
57.84221216833714
 20
9.949999868288685
 30
0.0
 40
2.8
100
AcDbArc
 50
180.0
 51
270.0
  0
ARC
  5
3F4D
330
1A
100
AcDbEntity
  8
ZUWAKU
100
AcDbCircle
 10
50.14221216833721
 20
9.949999868288685
 30
0.0
 40
2.8
100
AcDbArc
 50
270.0
 51
0.0
  0
LINE
  5
3F4E
330
1A
100
AcDbEntity
  8
ZUWAKU
100
AcDbLine
 10
51.71206064932073
 20
14.73505037462751
 30
0.0
 11
48.80226267467594
 21
17.64484834927219
 31
0.0
  0
LINE
  5
3F4F
330
1A
100
AcDbEntity
  8
ZUWAKU
100
AcDbLine
 10
50.14221216833721
 20
10.47499986828869
 30
0.0
 11
50.14221216833721
 21
11.76520189364403
 31
0.0
  0
ARC
  5
3F50
330
1A
100
AcDbEntity
  8
ZUWAKU
100
AcDbCircle
 10
48.74221216833712
 20
11.76520189364403
 30
0.0
 40
1.4
100
AcDbArc
 50
0.0
 51
45.0
  0
ARC
  5
3F51
330
1A
100
AcDbEntity
  8
ZUWAKU
100
AcDbCircle
 10
49.61721216833712
 20
10.47499986828869
 30
0.0
 40
0.5249999999999999
100
AcDbArc
 50
270.0
 51
0.0
  0
LINE
  5
3F52
330
1A
100
AcDbEntity
  8
ZUWAKU
100
AcDbLine
 10
46.11721216833712
 20
7.674999868288687
 30
0.0
 11
46.11721216833712
 21
9.424999868288687
 31
0.0
  0
ARC
  5
3F53
330
1A
100
AcDbEntity
  8
ZUWAKU
100
AcDbCircle
 10
46.64221216833721
 20
7.674999868288687
 30
0.0
 40
0.5249999999999999
100
AcDbArc
 50
180.0
 51
270.0
  0
ARC
  5
3F54
330
1A
100
AcDbEntity
  8
ZUWAKU
100
AcDbCircle
 10
42.96721216833714
 20
7.674999868288687
 30
0.0
 40
0.5249999999999999
100
AcDbArc
 50
270.0
 51
0.0
  0
ARC
  5
3F55
330
1A
100
AcDbEntity
  8
ZUWAKU
100
AcDbCircle
 10
46.64221216833721
 20
9.424999868288687
 30
0.0
 40
0.5249999999999999
100
AcDbArc
 50
90.0
 51
180.0
  0
LINE
  5
3F56
330
1A
100
AcDbEntity
  8
ZUWAKU
100
AcDbLine
 10
46.64221216833721
 20
9.949999868288685
 30
0.0
 11
49.61721216833712
 21
9.949999868288685
 31
0.0
  0
LINE
  5
3F57
330
1A
100
AcDbEntity
  8
ZUWAKU
100
AcDbLine
 10
46.64221216833721
 20
7.149999868288688
 30
0.0
 11
50.14221216833721
 21
7.149999868288688
 31
0.0
  0
LINE
  5
3F58
330
1A
100
AcDbEntity
  8
ZUWAKU
100
AcDbLine
 10
46.82236368735369
 20
15.66494936194987
 30
0.0
 11
49.73216166199836
 21
12.7551513873052
 31
0.0
  0
LINE
  5
3F59
330
1A
100
AcDbEntity
  8
ZUWAKU
100
AcDbLine
 10
52.94221216833716
 20
9.949999868288685
 30
0.0
 11
52.94221216833716
 21
11.76520189364403
 31
0.0
  0
ARC
  5
3F5A
330
1A
100
AcDbEntity
  8
ZUWAKU
100
AcDbCircle
 10
48.74221216833712
 20
11.76520189364399
 30
0.0
 40
4.199999999999999
100
AcDbArc
 50
0.0
 51
45.0
  0
ARC
  5
3F5B
330
1A
100
AcDbEntity
  8
ZUWAKU
100
AcDbCircle
 10
58.89221216833721
 20
10.99999986828868
 30
0.0
 40
1.05
100
AcDbArc
 50
180.0
 51
270.0
  0
ARC
  5
3F5C
330
1A
100
AcDbEntity
  8
ZUWAKU
100
AcDbCircle
 10
61.34221216833714
 20
9.949999868288685
 30
0.0
 40
2.8
100
AcDbArc
 50
270.0
 51
0.0
  0
LINE
  5
3F5D
330
1A
100
AcDbEntity
  8
ZUWAKU
100
AcDbLine
 10
66.76721216833721
 20
7.149999868288688
 30
0.0
 11
68.51721216833721
 21
7.149999868288688
 31
0.0
  0
ARC
  5
3F5E
330
1A
100
AcDbEntity
  8
ZUWAKU
100
AcDbCircle
 10
66.76721216833721
 20
7.674999868288687
 30
0.0
 40
0.5249999999999999
100
AcDbArc
 50
180.0
 51
270.0
  0
ARC
  5
3F5F
330
1A
100
AcDbEntity
  8
ZUWAKU
100
AcDbCircle
 10
60.29221216833719
 20
10.99999986828868
 30
0.0
 40
1.05
100
AcDbArc
 50
270.0
 51
0.0
  0
ARC
  5
3F60
330
1A
100
AcDbEntity
  8
ZUWAKU
100
AcDbCircle
 10
68.51721216833721
 20
7.674999868288687
 30
0.0
 40
0.5249999999999999
100
AcDbArc
 50
270.0
 51
0.0
  0
LINE
  5
3F61
330
1A
100
AcDbEntity
  8
ZUWAKU
100
AcDbLine
 10
42.96721216833714
 20
23.24999986828869
 30
0.0
 11
41.21721216833714
 21
23.24999986828869
 31
0.0
  0
ARC
  5
3F62
330
1A
100
AcDbEntity
  8
ZUWAKU
100
AcDbCircle
 10
32.11721216833712
 20
22.72499986828868
 30
0.0
 40
0.5249999999999999
100
AcDbArc
 50
0.0
 51
90.0
  0
LINE
  5
3F63
330
1A
100
AcDbEntity
  8
ZUWAKU
100
AcDbLine
 10
32.11721216833712
 20
23.24999986828869
 30
0.0
 11
30.36721216833712
 21
23.24999986828869
 31
0.0
  0
ARC
  5
3F64
330
1A
100
AcDbEntity
  8
ZUWAKU
100
AcDbCircle
 10
26.86721216833712
 20
22.72499986828868
 30
0.0
 40
0.5249999999999999
100
AcDbArc
 50
0.0
 51
90.0
  0
ARC
  5
3F65
330
1A
100
AcDbEntity
  8
ZUWAKU
100
AcDbCircle
 10
30.36721216833712
 20
22.72499986828868
 30
0.0
 40
0.5249999999999999
100
AcDbArc
 50
90.0
 51
180.0
  0
ARC
  5
3F66
330
1A
100
AcDbEntity
  8
ZUWAKU
100
AcDbCircle
 10
26.86721216833712
 20
20.97499986828868
 30
0.0
 40
0.5249999999999999
100
AcDbArc
 50
270.0
 51
0.0
  0
LINE
  5
3F67
330
1A
100
AcDbEntity
  8
ZUWAKU
100
AcDbLine
 10
27.39221216833721
 20
22.72499986828868
 30
0.0
 11
27.39221216833721
 21
20.97499986828868
 31
0.0
  0
ARC
  5
3F68
330
1A
100
AcDbEntity
  8
ZUWAKU
100
AcDbCircle
 10
41.21721216833714
 20
22.72499986828868
 30
0.0
 40
0.5249999999999999
100
AcDbArc
 50
90.0
 51
180.0
  0
LINE
  5
3F69
330
1A
100
AcDbEntity
  8
ZUWAKU
100
AcDbLine
 10
36.17697800484848
 20
23.24999986828869
 30
0.0
 11
37.87586738445748
 21
23.24999986828869
 31
0.0
  0
ARC
  5
3F6A
330
1A
100
AcDbEntity
  8
ZUWAKU
100
AcDbCircle
 10
37.87586738445748
 20
22.72499986828868
 30
0.0
 40
0.5249999999999999
100
AcDbArc
 50
342.474431626277
 51
90.0
  0
LINE
  5
3F6B
330
1A
100
AcDbEntity
  8
ZUWAKU
100
AcDbLine
 10
38.37649828365295
 20
22.56690590012172
 30
0.0
 11
37.31485865051513
 21
19.20504706185211
 31
0.0
  0
ARC
  5
3F6C
330
1A
100
AcDbEntity
  8
ZUWAKU
100
AcDbCircle
 10
36.17697800484848
 20
22.72499986828868
 30
0.0
 40
0.5249999999999999
100
AcDbArc
 50
90.0
 51
162.474431626277
  0
LINE
  5
3F6D
330
1A
100
AcDbEntity
  8
ZUWAKU
100
AcDbLine
 10
48.39221216833721
 20
23.24999986828869
 30
0.0
 11
51.89221216833721
 21
23.24999986828869
 31
0.0
  0
LINE
  5
3F6E
330
1A
100
AcDbEntity
  8
ZUWAKU
100
AcDbLine
 10
51.89221216833721
 20
20.44999986828869
 30
0.0
 11
48.91721216833719
 21
20.44999986828869
 31
0.0
  0
ARC
  5
3F6F
330
1A
100
AcDbEntity
  8
ZUWAKU
100
AcDbCircle
 10
48.91721216833719
 20
19.92499986828869
 30
0.0
 40
0.5249999999999999
100
AcDbArc
 50
90.0
 51
180.0
  0
LINE
  5
3F70
330
1A
100
AcDbEntity
  8
ZUWAKU
100
AcDbLine
 10
48.39221216833721
 20
19.92499986828869
 30
0.0
 11
48.39221216833721
 21
18.63479784293335
 31
0.0
  0
ARC
  5
3F71
330
1A
100
AcDbEntity
  8
ZUWAKU
100
AcDbCircle
 10
42.96721216833714
 20
22.72499986828868
 30
0.0
 40
0.5249999999999999
100
AcDbArc
 50
0.0
 51
90.0
  0
LINE
  5
3F72
330
1A
100
AcDbEntity
  8
ZUWAKU
100
AcDbLine
 10
45.59221216833714
 20
20.44999986828869
 30
0.0
 11
45.59221216833714
 21
18.63479784293335
 31
0.0
  0
ARC
  5
3F73
330
1A
100
AcDbEntity
  8
ZUWAKU
100
AcDbCircle
 10
48.39221216833721
 20
20.44999986828869
 30
0.0
 40
2.8
100
AcDbArc
 50
90.0
 51
180.0
  0
ARC
  5
3F74
330
1A
100
AcDbEntity
  8
ZUWAKU
100
AcDbCircle
 10
57.31721216833716
 20
22.72499986828868
 30
0.0
 40
0.5249999999999999
100
AcDbArc
 50
0.0
 51
90.0
  0
ARC
  5
3F75
330
1A
100
AcDbEntity
  8
ZUWAKU
100
AcDbCircle
 10
55.56721216833716
 20
22.72499986828868
 30
0.0
 40
0.5249999999999999
100
AcDbArc
 50
90.0
 51
180.0
  0
LINE
  5
3F76
330
1A
100
AcDbEntity
  8
ZUWAKU
100
AcDbLine
 10
57.31721216833716
 20
23.24999986828869
 30
0.0
 11
55.56721216833716
 21
23.24999986828869
 31
0.0
  0
ARC
  5
3F77
330
1A
100
AcDbEntity
  8
ZUWAKU
100
AcDbCircle
 10
51.89221216833721
 20
22.72499986828868
 30
0.0
 40
0.5249999999999999
100
AcDbArc
 50
0.0
 51
90.0
  0
ARC
  5
3F78
330
1A
100
AcDbEntity
  8
ZUWAKU
100
AcDbCircle
 10
51.89221216833721
 20
20.97499986828868
 30
0.0
 40
0.5249999999999999
100
AcDbArc
 50
270.0
 51
0.0
  0
LINE
  5
3F79
330
1A
100
AcDbEntity
  8
ZUWAKU
100
AcDbLine
 10
52.41721216833719
 20
22.72499986828868
 30
0.0
 11
52.41721216833719
 21
20.97499986828868
 31
0.0
  0
LINE
  5
3F7A
330
1A
100
AcDbEntity
  8
ZUWAKU
100
AcDbLine
 10
68.51721216833721
 20
23.24999986828869
 30
0.0
 11
66.76721216833721
 21
23.24999986828869
 31
0.0
  0
ARC
  5
3F7B
330
1A
100
AcDbEntity
  8
ZUWAKU
100
AcDbCircle
 10
66.76721216833721
 20
22.72499986828868
 30
0.0
 40
0.5249999999999999
100
AcDbArc
 50
90.0
 51
180.0
  0
ARC
  5
3F7C
330
1A
100
AcDbEntity
  8
ZUWAKU
100
AcDbCircle
 10
63.61721216833712
 20
22.72499986828868
 30
0.0
 40
0.5249999999999999
100
AcDbArc
 50
0.0
 51
90.0
  0
LINE
  5
3F7D
330
1A
100
AcDbEntity
  8
ZUWAKU
100
AcDbLine
 10
63.61721216833712
 20
23.24999986828869
 30
0.0
 11
61.86721216833712
 21
23.24999986828869
 31
0.0
  0
ARC
  5
3F7E
330
1A
100
AcDbEntity
  8
ZUWAKU
100
AcDbCircle
 10
61.86721216833712
 20
22.72499986828868
 30
0.0
 40
0.5249999999999999
100
AcDbArc
 50
90.0
 51
180.0
  0
ARC
  5
3F7F
330
1A
100
AcDbEntity
  8
ZUWAKU
100
AcDbCircle
 10
68.51721216833721
 20
22.72499986828868
 30
0.0
 40
0.5249999999999999
100
AcDbArc
 50
0.0
 51
90.0
  0
TEXT
  5
3F80
330
1A
100
AcDbEntity
  8
moji
100
AcDbText
 10
239.8272026944071
 20
18.00492092569607
 30
0.0
 40
5.6
  1
ブラケット正面打（吊）自在式
 41
0.9
  7
ｽﾀｲﾙ1
100
AcDbText
  0
TEXT
  5
3F81
330
1A
100
AcDbEntity
  8
moji
100
AcDbText
 10
239.8272026944071
 20
3.204920925696104
 30
0.0
 40
5.6
  1
Σ９０－５－１０～４５
 41
0.9
  7
ｽﾀｲﾙ1
100
AcDbText
  0
LINE
  5
3F82
330
1A
100
AcDbEntity
  8
ZUWAKU
100
AcDbLine
 10
208.246601303624
 20
29.99999986828868
 30
0.0
 11
208.246601303624
 21
0.7999998682887508
 31
0.0
  0
LINE
  5
3F83
330
1A
100
AcDbEntity
  8
ZUWAKU
100
AcDbLine
 10
208.6466013036238
 20
29.99999986828868
 30
0.0
 11
208.646601303624
 21
0.7999998682887508
 31
0.0
  0
LINE
  5
3F84
330
1A
100
AcDbEntity
  8
ZUWAKU
100
AcDbLine
 10
208.4466013036238
 20
29.99999986828868
 30
0.0
 11
208.446601303624
 21
0.7999998682887508
 31
0.0
  0
TEXT
  5
3F85
330
1A
100
AcDbEntity
  8
ZUWAKU
100
AcDbText
 10
209.7240463258336
 20
9.655356406674301
 30
0.0
 40
4.0
  1
サイズ
 41
0.9
  7
ｽﾀｲﾙ1
100
AcDbText
  0
TEXT
  5
3F86
330
1A
100
AcDbEntity
  8
ZUWAKU
100
AcDbText
 10
209.7240463258333
 20
24.05535640667426
 30
0.0
 40
4.0
  1
品名
 41
0.9
  7
ｽﾀｲﾙ1
100
AcDbText
  0
LINE
  5
3F87
330
1A
100
AcDbEntity
  8
ZUWAKU
100
AcDbLine
 10
648.8172025237602
 20
15.19999986828871
 30
0.0
 11
697.2490105620973
 21
15.19999986828872
 31
0.0
  0
LINE
  5
3F88
330
1A
100
AcDbEntity
  8
ZUWAKU
100
AcDbLine
 10
648.8172025237604
 20
15.39999986828872
 30
0.0
 11
697.2490105620973
 21
15.39999986828872
 31
0.0
  0
LINE
  5
3F89
330
1A
100
AcDbEntity
  8
ZUWAKU
100
AcDbLine
 10
648.8172025237602
 20
15.59999986828872
 30
0.0
 11
697.2490105620973
 21
15.59999986828872
 31
0.0
  0
TEXT
  5
3F8A
330
1A
100
AcDbEntity
  8
ZUWAKU
100
AcDbText
 10
658.2039377008584
 20
18.00492092569607
 30
0.0
 40
5.6
  1
　　．　　．　　
 41
0.9
  7
ｽﾀｲﾙ1
100
AcDbText
  0
LINE
  5
3F8B
330
1A
100
AcDbEntity
  8
ZUWAKU
100
AcDbLine
 10
505.1991795116969
 20
15.19999986828872
 30
0.0
 11
552.5269557796685
 21
15.19999986828872
 31
0.0
  0
LINE
  5
3F8C
330
1A
100
AcDbEntity
  8
ZUWAKU
100
AcDbLine
 10
505.1991795116969
 20
15.39999986828872
 30
0.0
 11
552.5269557796685
 21
15.39999986828872
 31
0.0
  0
LINE
  5
3F8D
330
1A
100
AcDbEntity
  8
ZUWAKU
100
AcDbLine
 10
505.1991795116969
 20
15.59999986828872
 30
0.0
 11
552.5269557796685
 21
15.59999986828872
 31
0.0
  0
TEXT
  5
3F8E
330
1A
100
AcDbEntity
  8
moji
100
AcDbText
 10
463.2464320045581
 20
11.94261758994867
 30
0.0
 40
5.6
  1
ＬＦ４６Ｔ
 41
0.9
  7
ｽﾀｲﾙ1
100
AcDbText
  0
LINE
  5
3F8F
330
1A
100
AcDbEntity
  8
ZUWAKU
100
AcDbLine
 10
447.6243639845472
 20
29.99999986828868
 30
0.0
 11
447.6243639845475
 21
0.7999998682887508
 31
0.0
  0
LINE
  5
3F90
330
1A
100
AcDbEntity
  8
ZUWAKU
100
AcDbLine
 10
447.8243639845473
 20
29.99999986828868
 30
0.0
 11
447.8243639845475
 21
0.7999998682887508
 31
0.0
  0
LINE
  5
3F91
330
1A
100
AcDbEntity
  8
ZUWAKU
100
AcDbLine
 10
447.4243639845474
 20
29.99999986828868
 30
0.0
 11
447.4243639845474
 21
0.7999998682887508
 31
0.0
  0
TEXT
  5
3F92
330
1A
100
AcDbEntity
  8
moji
100
AcDbText
 10
528.0409079858689
 20
18.00492092569607
 30
0.0
 40
5.6
  1
Ａ３
 41
0.9
  7
ｽﾀｲﾙ1
100
AcDbText
  0
LINE
  5
3F93
330
1A
100
AcDbEntity
  8
ZUWAKU
100
AcDbLine
 10
504.9991795116969
 20
29.99999986828868
 30
0.0
 11
504.9991795116971
 21
0.7999998682887508
 31
0.0
  0
LINE
  5
3F94
330
1A
100
AcDbEntity
  8
ZUWAKU
100
AcDbLine
 10
505.1991795116969
 20
29.99999986828868
 30
0.0
 11
505.1991795116971
 21
0.7999998682887508
 31
0.0
  0
LINE
  5
3F95
330
1A
100
AcDbEntity
  8
ZUWAKU
100
AcDbLine
 10
504.7991795116971
 20
29.99999986828868
 30
0.0
 11
504.7991795116971
 21
0.7999998682887508
 31
0.0
  0
TEXT
  5
3F97
330
1A
100
AcDbEntity
  8
ZUWAKU
100
AcDbText
 10
506.6766245339068
 20
9.655356406674301
 30
0.0
 40
4.0
  1
縮尺
 41
0.9
  7
ｽﾀｲﾙ1
100
AcDbText
  0
TEXT
  5
3F98
330
1A
100
AcDbEntity
  8
moji
100
AcDbText
 10
528.0409079858689
 20
3.204920925696104
 30
0.0
 40
5.6
  1
１/２
 41
0.9
  7
ｽﾀｲﾙ1
100
AcDbText
  0
TEXT
  5
3F99
330
1A
100
AcDbEntity
  8
ZUWAKU
100
AcDbText
 10
449.3018090067569
 20
24.05535640667426
 30
0.0
 40
4.0
  1
品番
 41
0.9
  7
ｽﾀｲﾙ1
100
AcDbText
  0
TEXT
  5
3F9A
330
1A
100
AcDbEntity
  8
ZUWAKU
100
AcDbText
 10
506.6766245339065
 20
24.05535640667426
 30
0.0
 40
4.0
  1
用紙
 41
0.9
  7
ｽﾀｲﾙ1
100
AcDbText
  0
LINE
  5
3F9B
330
1A
100
AcDbEntity
  8
ZUWAKU
100
AcDbLine
 10
648.6172025237604
 20
29.99999986828868
 30
0.0
 11
648.6172025237606
 21
0.7999998682887508
 31
0.0
  0
LINE
  5
3F9C
330
1A
100
AcDbEntity
  8
ZUWAKU
100
AcDbLine
 10
648.8172025237604
 20
29.99999986828868
 30
0.0
 11
648.8172025237607
 21
0.7999998682887508
 31
0.0
  0
LINE
  5
3F9D
330
1A
100
AcDbEntity
  8
ZUWAKU
100
AcDbLine
 10
648.4172025237606
 20
29.99999986828868
 30
0.0
 11
648.4172025237606
 21
0.7999998682887508
 31
0.0
  0
LINE
  5
3F9E
330
1A
100
AcDbEntity
  8
ZUWAKU
100
AcDbLine
 10
552.7269557796683
 20
29.99999986828868
 30
0.0
 11
552.7269557796685
 21
0.7999998682887508
 31
0.0
  0
LINE
  5
3F9F
330
1A
100
AcDbEntity
  8
ZUWAKU
100
AcDbLine
 10
552.9269557796683
 20
29.99999986828868
 30
0.0
 11
552.9269557796686
 21
0.7999998682887508
 31
0.0
  0
LINE
  5
3FA0
330
1A
100
AcDbEntity
  8
ZUWAKU
100
AcDbLine
 10
552.5269557796685
 20
29.99999986828868
 30
0.0
 11
552.5269557796685
 21
0.7999998682887508
 31
0.0
  0
TEXT
  5
3FA1
330
1A
100
AcDbEntity
  8
ZUWAKU
100
AcDbText
 10
650.2946475459701
 20
24.05535640667426
 30
0.0
 40
4.0
  1
DATE
 41
0.9
  7
ｽﾀｲﾙ1
100
AcDbText
  0
LINE
  5
3FA2
330
1A
100
AcDbEntity
  8
ZUWAKU
100
AcDbLine
 10
697.2490105620973
 20
29.99999986828868
 30
0.0
 11
697.2490105620973
 21
0.7999998682887508
 31
0.0
  0
LINE
  5
3FA3
330
1A
100
AcDbEntity
  8
ZUWAKU
100
AcDbLine
 10
697.4490105620973
 20
29.99999986828868
 30
0.0
 11
697.4490105620973
 21
0.7999998682887508
 31
0.0
  0
LINE
  5
3FA4
330
1A
100
AcDbEntity
  8
ZUWAKU
100
AcDbLine
 10
697.6490105620972
 20
29.99999986828868
 30
0.0
 11
697.6490105620974
 21
0.7999998682887508
 31
0.0
  0
LINE
  5
3FA5
330
1A
100
AcDbEntity
  8
ZUWAKU
100
AcDbLine
 10
697.8490105620972
 20
29.99999986828868
 30
0.0
 11
697.8490105620974
 21
0.7999998682887508
 31
0.0
  0
TEXT
  5
3FA6
330
1A
100
AcDbEntity
  8
ZUWAKU
100
AcDbText
 10
708.5280842057998
 20
17.55383920397549
 30
0.0
 40
6.0
  1
積水化学工業株式会社
 41
0.9
  7
ｽﾀｲﾙ1
100
AcDbText
  0
TEXT
  5
3FA7
330
1A
100
AcDbEntity
  8
ZUWAKU
100
AcDbText
 10
708.5280842057998
 20
6.648840182142749
 30
0.0
 40
6.0
  1
建材事業部
 41
0.9
  7
ｽﾀｲﾙ1
100
AcDbText
  0
DIMENSION
  5
52B3
330
1A
100
AcDbEntity
  8
SUNPOU
 62
     4
 48
5.0
100
AcDbDimension
  2
*D1
 10
399.3728919235713
 20
303.7835555147908
 30
0.0
 11
381.8728919235713
 21
308.7835555147908
 31
0.0
 70
    32
 71
     5
 42
35.0
  3
STANDARD
100
AcDbAlignedDimension
 13
364.3728919235713
 23
252.8140269099788
 33
0.0
 14
399.3728919235713
 24
252.8140269099788
 34
0.0
100
AcDbRotatedDimension
1001
ACAD
1000
DSTYLE
1002
{
1070
   140
1040
6.0
1070
    74
1070
     0
1070
   172
1070
     1
1070
    73
1070
     0
1070
   272
1070
     2
1070
    77
1070
     3
1070
   173
1070
     1
1070
   147
1040
2.0
1070
    42
1040
6.0
1070
    44
1040
3.0
1070
    43
1040
14.0
1070
   271
1070
     0
1070
   178
1070
     4
1070
   177
1070
     4
1070
   176
1070
     4
1070
   141
1040
150.0
1070
     7
1000
_OPEN
1070
     6
1000
_OPEN
1070
    41
1040
7.0
1002
}
  0
DIMENSION
  5
52B4
330
1A
100
AcDbEntity
  8
SUNPOU
 48
5.0
100
AcDbDimension
  2
*D2
 10
405.8594834819124
 20
167.842873201336
 30
0.0
 11
382.1774453955602
 21
161.5055968087075
 31
0.0
 70
    33
  1
t<>
 71
     5
 42
1.200019504911211
  3
STANDARD
100
AcDbAlignedDimension
 13
394.3057912673895
 23
193.4316091680844
 33
0.0
 14
393.2341947507899
 24
192.8914909238275
 34
0.0
1001
ACAD
1000
DSTYLE
1002
{
1070
   140
1040
6.0
1070
    74
1070
     0
1070
   172
1070
     1
1070
    73
1070
     0
1070
   272
1070
     2
1070
    77
1070
     3
1070
   173
1070
     1
1070
   147
1040
2.0
1070
    42
1040
6.0
1070
    44
1040
3.0
1070
    43
1040
14.0
1070
   271
1070
     1
1070
   178
1070
     4
1070
   177
1070
     4
1070
   176
1070
     4
1070
   141
1040
150.0
1070
     7
1000
_OPEN
1070
     6
1000
_OPEN
1070
    41
1040
7.0
1002
}
  0
DIMENSION
  5
52B5
330
1A
100
AcDbEntity
  8
SUNPOU
 48
5.0
100
AcDbDimension
  2
*D3
 10
409.7921481697641
 20
201.2378181435432
 30
0.0
 11
399.2905419370953
 21
233.1796209501158
 31
0.0
 70
    33
 71
     5
 42
66.50000000000003
  3
STANDARD
100
AcDbAlignedDimension
 13
364.3728919235714
 23
252.8140269099788
 33
0.0
 14
394.3057912673894
 24
193.4316091680843
 34
0.0
1001
ACAD
1000
DSTYLE
1002
{
1070
   140
1040
6.0
1070
    74
1070
     0
1070
   172
1070
     1
1070
    73
1070
     0
1070
   272
1070
     2
1070
    77
1070
     3
1070
   173
1070
     1
1070
   147
1040
2.0
1070
    42
1040
6.0
1070
    44
1040
3.0
1070
    43
1040
14.0
1070
   271
1070
     0
1070
   178
1070
     4
1070
   177
1070
     4
1070
   176
1070
     4
1070
   141
1040
150.0
1070
     7
1000
_OPEN
1070
     6
1000
_OPEN
1070
    41
1040
7.0
1002
}
  0
TEXT
  5
52B6
330
1A
100
AcDbEntity
  8
SUNPOU
 48
5.0
100
AcDbText
 10
387.8928711929439
 20
315.1656119958091
 30
0.0
 40
6.0
  1
スライド巾
100
AcDbText
  0
DIMENSION
  5
52B7
330
1A
100
AcDbEntity
  8
SUNPOU
 48
5.0
100
AcDbDimension
  2
*D4
 10
421.9614428272571
 20
365.6924899631429
 30
0.0
 11
416.961442827257
 21
393.192489963143
 31
0.0
 70
    32
 71
     5
 42
55.0
  3
STANDARD
100
AcDbAlignedDimension
 13
378.3293009480256
 23
420.692489963143
 33
0.0
 14
378.3293009480256
 24
365.692489963143
 34
0.0
 50
90.0
100
AcDbRotatedDimension
1001
ACAD
1000
DSTYLE
1002
{
1070
   140
1040
6.0
1070
    74
1070
     0
1070
   172
1070
     1
1070
    73
1070
     0
1070
   272
1070
     2
1070
    77
1070
     3
1070
   173
1070
     1
1070
   147
1040
2.0
1070
    42
1040
6.0
1070
    44
1040
3.0
1070
    43
1040
14.0
1070
   271
1070
     0
1070
   178
1070
     4
1070
   177
1070
     4
1070
   176
1070
     4
1070
   141
1040
150.0
1070
     7
1000
_OPEN
1070
     6
1000
_OPEN
1070
    41
1040
7.0
1002
}
  0
ARC
  5
52B8
330
1A
100
AcDbEntity
  8
SUNPOU
  6
PHANTOM
 62
     6
 48
5.0
100
AcDbCircle
 10
396.8327401311858
 20
242.3018596280036
 30
0.0
 40
7.0
100
AcDbArc
 50
26.75130546375723
 51
94.99991047002911
  0
LINE
  5
52B9
330
1A
100
AcDbEntity
  8
CENTER L
  6
CENTER
 62
     1
 48
5.0
100
AcDbLine
 10
224.3944009480255
 20
393.192689963143
 30
0.0
 11
400.5807009480255
 21
393.192489963143
 31
0.0
  0
DIMENSION
  5
52BA
330
1A
100
AcDbEntity
  8
SUNPOU
 62
     4
 48
5.0
100
AcDbDimension
  2
*D5
 10
364.3728919235714
 20
303.7835555147908
 30
0.0
 11
298.1205464357985
 21
308.7835555147908
 31
0.0
 70
    32
 71
     5
 42
132.504690975546
  3
STANDARD
100
AcDbAlignedDimension
 13
231.8682009480255
 23
242.692589963143
 33
0.0
 14
364.3728919235714
 24
252.8140269099788
 34
0.0
100
AcDbRotatedDimension
1001
ACAD
1000
DSTYLE
1002
{
1070
   140
1040
6.0
1070
    74
1070
     0
1070
   172
1070
     1
1070
    73
1070
     0
1070
   272
1070
     2
1070
    77
1070
     3
1070
   173
1070
     1
1070
   147
1040
2.0
1070
    42
1040
6.0
1070
    44
1040
3.0
1070
    43
1040
14.0
1070
   271
1070
     0
1070
   178
1070
     4
1070
   177
1070
     4
1070
   176
1070
     4
1070
   141
1040
150.0
1070
     7
1000
_OPEN
1070
     6
1000
_OPEN
1070
    41
1040
7.0
1002
}
  0
DIMENSION
  5
52BB
330
1A
100
AcDbEntity
  8
SUNPOU
 62
     4
 48
5.0
100
AcDbDimension
  2
*D6
 10
364.3728919235714
 20
289.4080415305627
 30
0.0
 11
314.7455964357985
 21
294.4080415305627
 31
0.0
 70
    32
 71
     5
 42
99.25459097554591
  3
STANDARD
100
AcDbAlignedDimension
 13
265.1183009480255
 23
217.192589963143
 33
0.0
 14
364.3728919235714
 24
252.8140269099788
 34
0.0
100
AcDbRotatedDimension
1001
ACAD
1000
DSTYLE
1002
{
1070
   140
1040
6.0
1070
    74
1070
     0
1070
   172
1070
     1
1070
    73
1070
     0
1070
   272
1070
     2
1070
    77
1070
     3
1070
   173
1070
     1
1070
   147
1040
2.0
1070
    42
1040
6.0
1070
    44
1040
3.0
1070
    43
1040
14.0
1070
   271
1070
     0
1070
   178
1070
     4
1070
   177
1070
     4
1070
   176
1070
     4
1070
   141
1040
150.0
1070
     7
1000
_OPEN
1070
     6
1000
_OPEN
1070
    41
1040
7.0
1002
}
  0
DIMENSION
  5
52BC
330
1A
100
AcDbEntity
  8
SUNPOU
 48
5.0
100
AcDbDimension
  2
*D7
 10
209.4023983021331
 20
192.8914909238275
 30
0.0
 11
204.4023983021331
 21
218.5420404434853
 31
0.0
 70
    32
 71
     5
 42
51.30109903931549
  3
STANDARD
100
AcDbAlignedDimension
 13
233.3682009480255
 23
244.192589963143
 33
0.0
 14
393.23419475079
 24
192.8914909238275
 34
0.0
 50
90.0
100
AcDbRotatedDimension
1001
ACAD
1000
DSTYLE
1002
{
1070
   140
1040
6.0
1070
    74
1070
     0
1070
   172
1070
     1
1070
    73
1070
     0
1070
   272
1070
     2
1070
    77
1070
     3
1070
   173
1070
     1
1070
   147
1040
2.0
1070
    42
1040
6.0
1070
    44
1040
3.0
1070
    43
1040
14.0
1070
   271
1070
     0
1070
   178
1070
     4
1070
   177
1070
     4
1070
   176
1070
     4
1070
   141
1040
150.0
1070
     7
1000
_OPEN
1070
     6
1000
_OPEN
1070
    41
1040
7.0
1002
}
  0
LINE
  5
52BD
330
1A
100
AcDbEntity
  8
SEIHIN
  6
Continuous
 62
     3
 48
5.0
100
AcDbLine
 10
282.5356009480255
 20
217.192589963143
 30
0.0
 11
265.1183009480255
 21
217.192589963143
 31
0.0
  0
LINE
  5
52BE
330
1A
100
AcDbEntity
  8
SEIHIN
  6
Continuous
 62
     3
 48
5.0
100
AcDbLine
 10
265.1182009480256
 20
214.192689963143
 30
0.0
 11
269.1182009480256
 21
210.192689963143
 31
0.0
  0
LINE
  5
52BF
330
1A
100
AcDbEntity
  8
SEIHIN
  6
Continuous
 62
     3
 48
5.0
100
AcDbLine
 10
267.4127009480255
 20
192.489389963143
 30
0.0
 11
262.9385009480255
 21
195.072589963143
 31
0.0
  0
LINE
  5
52C0
330
1A
100
AcDbEntity
  8
SEIHIN
  6
Continuous
 62
     3
 48
5.0
100
AcDbLine
 10
263.4385009480255
 20
195.938589963143
 30
0.0
 11
267.9127009480255
 21
193.355489963143
 31
0.0
  0
LINE
  5
52C1
330
1A
100
AcDbEntity
  8
SEIHIN
  6
Continuous
 62
     3
 48
5.0
100
AcDbLine
 10
263.3708009480255
 20
196.757789963143
 30
0.0
 11
268.2478009480255
 21
200.770289963143
 31
0.0
  0
LINE
  5
52C2
330
1A
100
AcDbEntity
  8
SEIHIN
  6
Continuous
 62
     3
 48
5.0
100
AcDbLine
 10
269.6180009480255
 20
203.192689963143
 30
0.0
 11
262.7354009480255
 21
197.529989963143
 31
0.0
  0
LINE
  5
52C3
330
1A
100
AcDbEntity
  8
SEIHIN
  6
Continuous
 62
     3
 48
5.0
100
AcDbLine
 10
259.7575009480255
 20
205.192589963143
 30
0.0
 11
325.6360009480255
 21
205.192489963143
 31
0.0
  0
LINE
  5
52C4
330
1A
100
AcDbEntity
  8
SEIHIN
  6
Continuous
 62
     3
 48
5.0
100
AcDbLine
 10
260.0964009480255
 20
207.692589963143
 30
0.0
 11
323.6417009480255
 21
207.692489963143
 31
0.0
  0
ARC
  5
52C5
330
1A
100
AcDbEntity
  8
SEIHIN
  6
Continuous
 62
     3
 48
5.0
100
AcDbCircle
 10
259.7575009480255
 20
210.192589963143
 30
0.0
 40
4.99999
100
AcDbArc
 50
201.735443999999
 51
270.0
  0
LINE
  5
52C6
330
1A
100
AcDbEntity
  8
SEIHIN
  6
Continuous
 62
     3
 48
5.0
100
AcDbLine
 10
260.3680009480255
 20
213.692589963143
 30
0.0
 11
260.3680009480255
 21
207.692589963143
 31
0.0
  0
ARC
  5
52C7
330
1A
100
AcDbEntity
  8
SEIHIN
  6
Continuous
 62
     3
 48
5.0
100
AcDbCircle
 10
260.0964009480255
 20
210.692589963143
 30
0.0
 40
3.000001
100
AcDbArc
 50
201.7361539999994
 51
270.0
  0
ARC
  5
52C8
330
1A
100
AcDbEntity
  8
SEIHIN
  6
Continuous
 62
     3
 48
5.0
100
AcDbCircle
 10
263.6885009480255
 20
196.371689963143
 30
0.0
 40
0.500041
100
AcDbArc
 50
129.4490450000006
 51
240.0050010000005
  0
ARC
  5
52C9
330
1A
100
AcDbEntity
  8
SEIHIN
  6
Continuous
 62
     3
 48
5.0
100
AcDbCircle
 10
263.6885009480255
 20
196.371689963143
 30
0.0
 40
1.500037
100
AcDbArc
 50
129.4490450000006
 51
240.0011819999998
  0
LINE
  5
52CA
330
1A
100
AcDbEntity
  8
SEIHIN
  6
Continuous
 62
     3
 48
5.0
100
AcDbLine
 10
231.8682009480255
 20
240.192589963143
 30
0.0
 11
234.8681009480255
 21
240.192589963143
 31
0.0
  0
ARC
  5
52CB
330
1A
100
AcDbEntity
  8
SEIHIN
  6
Continuous
 62
     3
 48
5.0
100
AcDbCircle
 10
233.3682009480255
 20
242.692589963143
 30
0.0
 40
1.5
100
AcDbArc
 50
0.0
 51
180.0
  0
ARC
  5
52CC
330
1A
100
AcDbEntity
  8
SEIHIN
  6
Continuous
 62
     3
 48
5.0
100
AcDbCircle
 10
234.8682009480255
 20
237.292589963143
 30
0.0
 40
3.0
100
AcDbArc
 50
180.0
 51
269.9980899999996
  0
LINE
  5
52CD
330
1A
100
AcDbEntity
  8
SEIHIN
  6
Continuous
 62
     3
 48
5.0
100
AcDbLine
 10
231.8682009480255
 20
242.692589963143
 30
0.0
 11
231.8682009480255
 21
237.292589963143
 31
0.0
  0
ARC
  5
52CE
330
1A
100
AcDbEntity
  8
SEIHIN
  6
Continuous
 62
     3
 48
5.0
100
AcDbCircle
 10
240.9788009480255
 20
229.292589963143
 30
0.0
 40
5.000055000000001
100
AcDbArc
 50
21.73608399999909
 51
89.99885400000053
  0
LINE
  5
52CF
330
1A
100
AcDbEntity
  8
SEIHIN
  6
Continuous
 62
     3
 48
5.0
100
AcDbLine
 10
260.9455009480255
 20
216.990489963143
 30
0.0
 11
249.7133009480256
 21
237.196789963143
 31
0.0
  0
ARC
  5
52D0
330
1A
100
AcDbEntity
  8
SEIHIN
  6
Continuous
 62
     3
 48
5.0
100
AcDbCircle
 10
250.7083009480256
 20
227.840589963143
 30
0.0
 40
0.9999819999999999
100
AcDbArc
 50
27.90531399999913
 51
201.734379
  0
LINE
  5
52D1
330
1A
100
AcDbEntity
  8
SEIHIN
  6
Continuous
 62
     3
 48
5.0
100
AcDbLine
 10
245.6233009480255
 20
231.144289963143
 30
0.0
 11
255.1130009480255
 21
208.340989963143
 31
0.0
  0
LINE
  5
52D2
330
1A
100
AcDbEntity
  8
SEIHIN
  6
Continuous
 62
     3
 48
5.0
100
AcDbLine
 10
257.3097009480255
 20
209.581589963143
 30
0.0
 11
249.7794009480255
 21
227.470289963143
 31
0.0
  0
LINE
  5
52D3
330
1A
100
AcDbEntity
  8
SEIHIN
  6
Continuous
 62
     3
 48
5.0
100
AcDbLine
 10
259.0180009480255
 20
215.288389963143
 30
0.0
 11
251.5920009480255
 21
228.308589963143
 31
0.0
  0
LINE
  5
52D4
330
1A
100
AcDbEntity
  8
SEIHIN
  6
Continuous
 62
     3
 48
5.0
100
AcDbLine
 10
265.1182009480256
 20
216.192589963143
 30
0.0
 11
262.2711009480255
 21
216.192589963143
 31
0.0
  0
ARC
  5
52D5
330
1A
100
AcDbEntity
  8
SEIHIN
  6
Continuous
 62
     3
 48
5.0
100
AcDbCircle
 10
262.2711009480255
 20
217.692589963143
 30
0.0
 40
1.500027
100
AcDbArc
 50
207.9077950000008
 51
270.0
  0
LINE
  5
52D6
330
1A
100
AcDbEntity
  8
SEIHIN
  6
Continuous
 62
     3
 48
5.0
100
AcDbLine
 10
265.1182009480256
 20
214.192689963143
 30
0.0
 11
265.1182009480256
 21
217.192689963143
 31
0.0
  0
LINE
  5
52D7
330
1A
100
AcDbEntity
  8
SEIHIN
  6
Continuous
 62
     3
 48
5.0
100
AcDbLine
 10
261.6691009480255
 20
213.692589963143
 30
0.0
 11
265.6184009480255
 21
213.692589963143
 31
0.0
  0
ARC
  5
52D8
330
1A
100
AcDbEntity
  8
SEIHIN
  6
Continuous
 62
     3
 48
5.0
100
AcDbCircle
 10
261.6691009480255
 20
216.692589963143
 30
0.0
 40
3.000009
100
AcDbArc
 50
207.9086889999998
 51
270.0
  0
LINE
  5
52D9
330
1A
100
AcDbEntity
  8
SEIHIN
  6
Continuous
 62
     3
 48
5.0
100
AcDbLine
 10
247.0623009480255
 20
238.792589963143
 30
0.0
 11
235.8682009480255
 21
238.792589963143
 31
0.0
  0
LINE
  5
52DA
330
1A
100
AcDbEntity
  8
SEIHIN
  6
Continuous
 62
     3
 48
5.0
100
AcDbLine
 10
234.8682009480255
 20
242.692589963143
 30
0.0
 11
234.8682009480255
 21
239.792589963143
 31
0.0
  0
LINE
  5
52DB
330
1A
100
AcDbEntity
  8
SEIHIN
  6
Continuous
 62
     3
 48
5.0
100
AcDbLine
 10
240.9788009480255
 20
234.292589963143
 30
0.0
 11
234.8681009480255
 21
234.292589963143
 31
0.0
  0
ARC
  5
52DC
330
1A
100
AcDbEntity
  8
SEIHIN
  6
Continuous
 62
     3
 48
5.0
100
AcDbCircle
 10
235.8682009480255
 20
239.792589963143
 30
0.0
 40
1.0
100
AcDbArc
 50
180.0
 51
270.0
  0
ARC
  5
52DD
330
1A
100
AcDbEntity
  8
SEIHIN
  6
Continuous
 62
     3
 48
5.0
100
AcDbCircle
 10
247.0622009480255
 20
235.792589963143
 30
0.0
 40
3.000009
100
AcDbArc
 50
27.90868899999983
 51
90.0
  0
LINE
  5
52DE
330
1A
100
AcDbEntity
  8
SEIHIN
  6
Continuous
 62
     3
 48
5.0
100
AcDbLine
 10
393.2341976146649
 20
192.8914852423392
 30
0.0
 11
367.7997105186134
 21
243.3496042152569
 31
0.0
  0
LINE
  5
52DF
330
1A
100
AcDbEntity
  8
CENTER L
  6
CENTER
 62
     1
 48
5.0
100
AcDbLine
 10
275.1185009480255
 20
229.1323227044283
 30
0.0
 11
275.1185009480255
 21
187.0533966191536
 31
0.0
  0
ARC
  5
52E0
330
1A
100
AcDbEntity
  8
SEIHIN
  6
Continuous
 62
     3
 48
5.0
100
AcDbCircle
 10
328.9799009480255
 20
208.873689963143
 30
0.0
 40
1.000006
100
AcDbArc
 50
149.3497109999991
 51
280.6436029999996
  0
LINE
  5
52E1
330
1A
100
AcDbEntity
  8
SEIHIN
  6
Continuous
 62
     3
 48
5.0
100
AcDbLine
 10
319.3682009480256
 20
207.692589963143
 30
0.0
 11
319.3682009480256
 21
213.692589963143
 31
0.0
  0
LINE
  5
52E2
330
1A
100
AcDbEntity
  8
SEIHIN
  6
Continuous
 62
     3
 48
5.0
100
AcDbLine
 10
324.5020009480255
 20
208.182689963143
 30
0.0
 11
326.8724009480255
 21
212.182689963143
 31
0.0
  0
LINE
  5
52E3
330
1A
100
AcDbEntity
  8
SEIHIN
  6
Continuous
 62
     3
 48
5.0
100
AcDbLine
 10
325.6360009480255
 20
205.192489963143
 30
0.0
 11
342.8595009480255
 21
208.430489963143
 31
0.0
  0
LINE
  5
52E4
330
1A
100
AcDbEntity
  8
SEIHIN
  6
Continuous
 62
     3
 48
5.0
100
AcDbLine
 10
329.1646009480255
 20
207.890889963143
 30
0.0
 11
342.6436009480256
 21
209.712189963143
 31
0.0
  0
LINE
  5
52E5
330
1A
100
AcDbEntity
  8
SEIHIN
  6
Continuous
 62
     3
 48
5.0
100
AcDbLine
 10
351.4239009480256
 20
205.901289963143
 30
0.0
 11
348.5349009480256
 21
210.505089963143
 31
0.0
  0
LINE
  5
52E6
330
1A
100
AcDbEntity
  8
SEIHIN
  6
Continuous
 62
     3
 48
5.0
100
AcDbLine
 10
360.8682009480256
 20
238.192489963143
 30
0.0
 11
360.8681009480255
 21
208.192489963143
 31
0.0
  0
LINE
  5
52E7
330
1A
100
AcDbEntity
  8
SEIHIN
  6
Continuous
 62
     3
 48
5.0
100
AcDbLine
 10
366.5081148718203
 20
248.5780623404059
 30
0.0
 11
394.3057912673893
 21
193.4316091680844
 31
0.0
  0
LINE
  5
52E8
330
1A
100
AcDbEntity
  8
SEIHIN
  6
Continuous
 62
     3
 48
5.0
100
AcDbLine
 10
280.6184009480255
 20
203.192689963143
 30
0.0
 11
287.5010009480255
 21
197.529989963143
 31
0.0
  0
LINE
  5
52E9
330
1A
100
AcDbEntity
  8
SEIHIN
  6
Continuous
 62
     3
 48
5.0
100
AcDbLine
 10
282.8238009480256
 20
192.489389963143
 30
0.0
 11
287.2979009480255
 21
195.072589963143
 31
0.0
  0
LINE
  5
52EA
330
1A
100
AcDbEntity
  8
SEIHIN
  6
Continuous
 62
     3
 48
5.0
100
AcDbLine
 10
286.7979009480255
 20
195.938589963143
 30
0.0
 11
282.3238009480256
 21
193.355389963143
 31
0.0
  0
LINE
  5
52EB
330
1A
100
AcDbEntity
  8
SEIHIN
  6
Continuous
 62
     3
 48
5.0
100
AcDbLine
 10
286.8656009480255
 20
196.757689963143
 30
0.0
 11
281.9887009480256
 21
200.770289963143
 31
0.0
  0
LINE
  5
52EC
330
1A
100
AcDbEntity
  8
SEIHIN
  6
Continuous
 62
     3
 48
5.0
100
AcDbLine
 10
281.5905009480255
 20
193.660189963143
 30
0.0
 11
280.6679009480255
 21
197.136689963143
 31
0.0
  0
LINE
  5
52ED
330
1A
100
AcDbEntity
  8
SEIHIN
  6
Continuous
 62
     3
 48
5.0
100
AcDbLine
 10
279.6184009480255
 20
197.192689963143
 30
0.0
 11
280.6239009480255
 21
193.403689963143
 31
0.0
  0
LINE
  5
52EE
330
1A
100
AcDbEntity
  8
SEIHIN
  6
Continuous
 62
     3
 48
5.0
100
AcDbLine
 10
277.5184009480255
 20
197.192689963143
 30
0.0
 11
277.5184009480255
 21
195.192689963143
 31
0.0
  0
LINE
  5
52EF
330
1A
100
AcDbEntity
  8
SEIHIN
  6
Continuous
 62
     3
 48
5.0
100
AcDbLine
 10
278.1184009480255
 20
195.192689963143
 30
0.0
 11
278.1184009480255
 21
197.192689963143
 31
0.0
  0
LINE
  5
52F0
330
1A
100
AcDbEntity
  8
SEIHIN
  6
Continuous
 62
     3
 48
5.0
100
AcDbLine
 10
268.6460009480255
 20
193.660189963143
 30
0.0
 11
269.5686009480255
 21
197.136689963143
 31
0.0
  0
LINE
  5
52F1
330
1A
100
AcDbEntity
  8
SEIHIN
  6
Continuous
 62
     3
 48
5.0
100
AcDbLine
 10
270.6180009480255
 20
197.192689963143
 30
0.0
 11
269.6125009480255
 21
193.403689963143
 31
0.0
  0
LINE
  5
52F2
330
1A
100
AcDbEntity
  8
SEIHIN
  6
Continuous
 62
     3
 48
5.0
100
AcDbLine
 10
272.7184009480255
 20
197.192689963143
 30
0.0
 11
272.7184009480255
 21
195.192689963143
 31
0.0
  0
LINE
  5
52F3
330
1A
100
AcDbEntity
  8
SEIHIN
  6
Continuous
 62
     3
 48
5.0
100
AcDbLine
 10
272.1184009480255
 20
195.192689963143
 30
0.0
 11
272.1184009480255
 21
197.192689963143
 31
0.0
  0
LINE
  5
52F4
330
1A
100
AcDbEntity
  8
SEIHIN
  6
Continuous
 62
     3
 48
5.0
100
AcDbLine
 10
272.1184009480255
 20
195.192689963143
 30
0.0
 11
278.1184009480255
 21
195.192689963143
 31
0.0
  0
ARC
  5
52F5
330
1A
100
AcDbEntity
  8
SEIHIN
  6
Continuous
 62
     3
 48
5.0
100
AcDbCircle
 10
268.1627009480255
 20
193.788389963143
 30
0.0
 40
1.499969
100
AcDbArc
 50
239.9992720000003
 51
345.1392000000001
  0
ARC
  5
52F6
330
1A
100
AcDbEntity
  8
SEIHIN
  6
Continuous
 62
     3
 48
5.0
100
AcDbCircle
 10
268.1627009480255
 20
193.788389963143
 30
0.0
 40
0.5000020000000001
100
AcDbArc
 50
239.9992720000003
 51
345.1438720000002
  0
ARC
  5
52F7
330
1A
100
AcDbEntity
  8
SEIHIN
  6
Continuous
 62
     3
 48
5.0
100
AcDbCircle
 10
282.0738009480256
 20
193.788389963143
 30
0.0
 40
1.500018
100
AcDbArc
 50
194.859819999999
 51
300.0007279999997
  0
ARC
  5
52F8
330
1A
100
AcDbEntity
  8
SEIHIN
  6
Continuous
 62
     3
 48
5.0
100
AcDbCircle
 10
282.0738009480256
 20
193.788389963143
 30
0.0
 40
0.5000020000000001
100
AcDbArc
 50
194.8561279999998
 51
300.0007279999997
  0
LINE
  5
52F9
330
1A
100
AcDbEntity
  8
SEIHIN
  6
Continuous
 62
     3
 48
5.0
100
AcDbLine
 10
268.6184009480255
 20
203.192689963143
 30
0.0
 11
281.6184009480255
 21
203.192689963143
 31
0.0
  0
LINE
  5
52FA
330
1A
100
AcDbEntity
  8
SEIHIN
  6
Continuous
 62
     3
 48
5.0
100
AcDbLine
 10
270.6184009480255
 20
197.192689963143
 30
0.0
 11
279.6184009480255
 21
197.192689963143
 31
0.0
  0
LINE
  5
52FB
330
1A
100
AcDbEntity
  8
SEIHIN
  6
Continuous
 62
     3
 48
5.0
100
AcDbLine
 10
268.6184009480255
 20
203.192689963143
 30
0.0
 11
268.6184009480255
 21
205.192689963143
 31
0.0
  0
LINE
  5
52FC
330
1A
100
AcDbEntity
  8
SEIHIN
  6
Continuous
 62
     3
 48
5.0
100
AcDbLine
 10
269.0587009480255
 20
200.466389963143
 30
0.0
 11
269.5785009480255
 21
197.347189963143
 31
0.0
  0
ARC
  5
52FD
330
1A
100
AcDbEntity
  8
SEIHIN
  6
Continuous
 62
     3
 48
5.0
100
AcDbCircle
 10
269.0853009480255
 20
197.264989963143
 30
0.0
 40
0.5000210000000001
100
AcDbArc
 50
345.1327970000004
 51
9.462322000000173
  0
ARC
  5
52FE
330
1A
100
AcDbEntity
  8
SEIHIN
  6
Continuous
 62
     3
 48
5.0
100
AcDbCircle
 10
268.5654009480255
 20
200.384189963143
 30
0.0
 40
0.500005
100
AcDbArc
 50
9.462322000000173
 51
129.4490450000006
  0
LINE
  5
52FF
330
1A
100
AcDbEntity
  8
SEIHIN
  6
Continuous
 62
     3
 48
5.0
100
AcDbLine
 10
269.6184009480255
 20
203.192689963143
 30
0.0
 11
270.6184009480255
 21
197.192689963143
 31
0.0
  0
LINE
  5
5300
330
1A
100
AcDbEntity
  8
SEIHIN
  6
Continuous
 62
     3
 48
5.0
100
AcDbLine
 10
281.6184009480255
 20
203.192689963143
 30
0.0
 11
281.6184009480255
 21
205.192689963143
 31
0.0
  0
LINE
  5
5301
330
1A
100
AcDbEntity
  8
SEIHIN
  6
Continuous
 62
     3
 48
5.0
100
AcDbLine
 10
281.1778009480255
 20
200.466389963143
 30
0.0
 11
280.6579009480255
 21
197.347189963143
 31
0.0
  0
ARC
  5
5302
330
1A
100
AcDbEntity
  8
SEIHIN
  6
Continuous
 62
     3
 48
5.0
100
AcDbCircle
 10
281.6710009480255
 20
200.384189963143
 30
0.0
 40
0.500005
100
AcDbArc
 50
50.5509549999994
 51
170.5376779999998
  0
ARC
  5
5303
330
1A
100
AcDbEntity
  8
SEIHIN
  6
Continuous
 62
     3
 48
5.0
100
AcDbCircle
 10
281.1511009480255
 20
197.264889963143
 30
0.0
 40
0.500009
100
AcDbArc
 50
170.5376779999998
 51
194.8561279999998
  0
LINE
  5
5304
330
1A
100
AcDbEntity
  8
SEIHIN
  6
Continuous
 62
     3
 48
5.0
100
AcDbLine
 10
279.6184009480255
 20
197.192689963143
 30
0.0
 11
280.6184009480255
 21
203.192689963143
 31
0.0
  0
ARC
  5
5305
330
1A
100
AcDbEntity
  8
SEIHIN
  6
Continuous
 62
     3
 48
5.0
100
AcDbCircle
 10
286.5479009480255
 20
196.371589963143
 30
0.0
 40
1.500032
100
AcDbArc
 50
300.0007279999997
 51
50.55338200000007
  0
ARC
  5
5306
330
1A
100
AcDbEntity
  8
SEIHIN
  6
Continuous
 62
     3
 48
5.0
100
AcDbCircle
 10
286.5479009480255
 20
196.371589963143
 30
0.0
 40
0.4999979999999999
100
AcDbArc
 50
300.0007279999997
 51
50.5509549999994
  0
ARC
  5
5307
330
1A
100
AcDbEntity
  8
SEIHIN
  6
Continuous
 62
     3
 48
5.0
100
AcDbCircle
 10
323.6417009480255
 20
208.692489963143
 30
0.0
 40
1.000003
100
AcDbArc
 50
270.0
 51
329.349697
  0
ARC
  5
5308
330
1A
100
AcDbEntity
  8
SEIHIN
  6
Continuous
 62
     3
 48
5.0
100
AcDbCircle
 10
355.8681009480255
 20
208.192489963143
 30
0.0
 40
4.999982
100
AcDbArc
 50
205.2243000000006
 51
0.0
  0
LINE
  5
5309
330
1A
100
AcDbEntity
  8
SEIHIN
  6
Continuous
 62
     3
 48
5.0
100
AcDbLine
 10
393.23419475079
 20
192.8914909238275
 30
0.0
 11
394.3057912673893
 21
193.4316091680844
 31
0.0
  0
LINE
  5
530A
330
1A
100
AcDbEntity
  8
CENTER L
  6
CENTER
 62
     1
 48
5.0
100
AcDbLine
 10
384.6850912673893
 20
196.9812091680844
 30
0.0
 11
395.2061912673893
 21
202.2843091680844
 31
0.0
  0
LINE
  5
530B
330
1A
100
AcDbEntity
  8
SEIHIN
  6
Continuous
 62
     3
 48
5.0
100
AcDbLine
 10
323.1084009480255
 20
217.688989963143
 30
0.0
 11
335.3767009480255
 21
239.143989963143
 31
0.0
  0
LINE
  5
530C
330
1A
100
AcDbEntity
  8
SEIHIN
  6
Continuous
 62
     3
 48
5.0
100
AcDbLine
 10
328.1196009480256
 20
209.383489963143
 30
0.0
 11
339.6836009480255
 21
229.741489963143
 31
0.0
  0
LINE
  5
530D
330
1A
100
AcDbEntity
  8
SEIHIN
  6
Continuous
 62
     3
 48
5.0
100
AcDbLine
 10
329.5390009480256
 20
216.682689963143
 30
0.0
 11
338.7104009480255
 21
233.152089963143
 31
0.0
  0
LINE
  5
530E
330
1A
100
AcDbEntity
  8
SEIHIN
  6
Continuous
 62
     3
 48
5.0
100
AcDbLine
 10
333.3770009480255
 20
240.673789963143
 30
0.0
 11
319.8039009480256
 21
216.927889963143
 31
0.0
  0
LINE
  5
530F
330
1A
100
AcDbEntity
  8
SEIHIN
  6
Continuous
 62
     3
 48
5.0
100
AcDbLine
 10
359.6472547541778
 20
252.4005946704865
 30
0.0
 11
303.7841009480255
 21
247.513289963143
 31
0.0
  0
LINE
  5
5310
330
1A
100
AcDbEntity
  8
SEIHIN
  6
Continuous
 62
     3
 48
5.0
100
AcDbLine
 10
362.0358009480256
 20
245.252689963143
 30
0.0
 11
306.8159009480255
 21
240.421589963143
 31
0.0
  0
ARC
  5
5311
330
1A
100
AcDbEntity
  8
SEIHIN
  6
Continuous
 62
     3
 48
5.0
100
AcDbCircle
 10
304.3943009480255
 20
240.539889963143
 30
0.0
 40
7.000041
100
AcDbArc
 50
95.00005299999967
 51
150.4613130000011
  0
LINE
  5
5312
330
1A
100
AcDbEntity
  8
SEIHIN
  6
Continuous
 62
     3
 48
5.0
100
AcDbLine
 10
302.9015009480255
 20
237.905689963143
 30
0.0
 11
289.4958009480255
 21
214.248589963143
 31
0.0
  0
LINE
  5
5313
330
1A
100
AcDbEntity
  8
SEIHIN
  6
Continuous
 62
     3
 48
5.0
100
AcDbLine
 10
318.5135009480255
 20
216.192489963143
 30
0.0
 11
290.5974009480256
 21
216.192589963143
 31
0.0
  0
LINE
  5
5314
330
1A
100
AcDbEntity
  8
SEIHIN
  6
Continuous
 62
     3
 48
5.0
100
AcDbLine
 10
289.1808009480255
 20
213.692589963143
 30
0.0
 11
326.0121009480255
 21
213.692489963143
 31
0.0
  0
LINE
  5
5315
330
1A
100
AcDbEntity
  8
SEIHIN
  6
Continuous
 62
     3
 48
5.0
100
AcDbLine
 10
298.3041009480255
 20
243.990989963143
 30
0.0
 11
283.4056009480255
 21
217.699589963143
 31
0.0
  0
ARC
  5
5316
330
1A
100
AcDbEntity
  8
SEIHIN
  6
Continuous
 62
     3
 48
5.0
100
AcDbCircle
 10
282.5356009480255
 20
218.192589963143
 30
0.0
 40
0.9999870000000001
100
AcDbArc
 50
270.0
 51
330.4612180000005
  0
ARC
  5
5317
330
1A
100
AcDbEntity
  8
SEIHIN
  6
Continuous
 62
     3
 48
5.0
100
AcDbCircle
 10
282.5356009480255
 20
218.192689963143
 30
0.0
 40
8.000010000000001
100
AcDbArc
 50
270.0
 51
330.4613009999995
  0
LINE
  5
5318
330
1A
100
AcDbEntity
  8
SEIHIN
  6
Continuous
 62
     3
 48
5.0
100
AcDbLine
 10
280.1184009480255
 20
218.192689963143
 30
0.0
 11
270.1184009480255
 21
218.192689963143
 31
0.0
  0
ARC
  5
5319
330
1A
100
AcDbEntity
  8
SEIHIN
  6
Continuous
 62
     3
 48
5.0
100
AcDbCircle
 10
275.1185009480255
 20
210.609289963143
 30
0.0
 40
9.083361
100
AcDbArc
 50
56.60226999999996
 51
123.3982569999996
  0
LINE
  5
531A
330
1A
100
AcDbEntity
  8
SEIHIN
  6
Continuous
 62
     3
 48
5.0
100
AcDbLine
 10
269.1182009480256
 20
210.192689963143
 30
0.0
 11
282.5356009480255
 21
210.192689963143
 31
0.0
  0
LINE
  5
531B
330
1A
100
AcDbEntity
  8
SEIHIN
  6
Continuous
 62
     3
 48
5.0
100
AcDbLine
 10
270.1184009480255
 20
217.192689963143
 30
0.0
 11
270.1184009480255
 21
218.192589963143
 31
0.0
  0
LINE
  5
531C
330
1A
100
AcDbEntity
  8
SEIHIN
  6
Continuous
 62
     3
 48
5.0
100
AcDbLine
 10
280.1184009480255
 20
217.192689963143
 30
0.0
 11
280.1184009480255
 21
218.192689963143
 31
0.0
  0
LINE
  5
531D
330
1A
100
AcDbEntity
  8
SEIHIN
  6
Continuous
 62
     3
 48
5.0
100
AcDbLine
 10
328.6787009480255
 20
216.192489963143
 30
0.0
 11
323.9765009480256
 21
216.192489963143
 31
0.0
  0
ARC
  5
531E
330
1A
100
AcDbEntity
  8
SEIHIN
  6
Continuous
 62
     3
 48
5.0
100
AcDbCircle
 10
323.9765009480256
 20
217.192489963143
 30
0.0
 40
1.000003
100
AcDbArc
 50
150.2380629999995
 51
270.0
  0
ARC
  5
531F
330
1A
100
AcDbEntity
  8
SEIHIN
  6
Continuous
 62
     3
 48
5.0
100
AcDbCircle
 10
318.5135009480255
 20
217.692489963143
 30
0.0
 40
1.499983
100
AcDbArc
 50
270.0
 51
329.3487229999997
  0
ARC
  5
5320
330
1A
100
AcDbEntity
  8
SEIHIN
  6
Continuous
 62
     3
 48
5.0
100
AcDbCircle
 10
328.6787009480255
 20
217.192489963143
 30
0.0
 40
1.000003
100
AcDbArc
 50
270.0
 51
329.349697
  0
ARC
  5
5321
330
1A
100
AcDbEntity
  8
SEIHIN
  6
Continuous
 62
     3
 48
5.0
100
AcDbCircle
 10
326.0121009480255
 20
212.692489963143
 30
0.0
 40
1.000003
100
AcDbArc
 50
329.349697
 51
90.0
  0
ARC
  5
5322
330
1A
100
AcDbEntity
  8
SEIHIN
  6
Continuous
 62
     3
 48
5.0
100
AcDbCircle
 10
307.2516009480255
 20
235.440589963143
 30
0.0
 40
5.000014
100
AcDbArc
 50
94.9990750000008
 51
150.4607859999998
  0
DIMENSION
  5
5323
330
1A
100
AcDbEntity
  8
SUNPOU
 62
     4
 48
5.0
100
AcDbDimension
  2
*D8
 10
364.3728919235714
 20
274.8179665301079
 30
0.0
 11
334.8732009480256
 21
274.8179665301079
 31
0.0
 70
   160
 71
     5
 42
9.999690975545889
  3
STANDARD
100
AcDbAlignedDimension
 13
354.3732009480256
 23
226.492589963143
 33
0.0
 14
364.3728919235714
 24
252.8140269099788
 34
0.0
100
AcDbRotatedDimension
1001
ACAD
1000
DSTYLE
1002
{
1070
   288
1070
     1
1070
   140
1040
6.0
1070
    74
1070
     0
1070
   172
1070
     1
1070
    73
1070
     0
1070
   272
1070
     2
1070
    77
1070
     3
1070
   173
1070
     1
1070
   147
1040
2.0
1070
    42
1040
6.0
1070
    44
1040
3.0
1070
    43
1040
14.0
1070
   271
1070
     0
1070
   178
1070
     4
1070
   177
1070
     4
1070
   176
1070
     4
1070
   141
1040
150.0
1070
     7
1000
_OPEN
1070
     6
1000
_OPEN
1070
    41
1040
7.0
1002
}
  0
ARC
  5
5324
330
1A
100
AcDbEntity
  8
SEIHIN
  6
Continuous
 62
     3
 48
5.0
100
AcDbCircle
 10
360.2573340568841
 20
245.4272308305303
 30
0.0
 40
7.0
100
AcDbArc
 50
26.75130546375723
 51
94.99991047002911
  0
LINE
  5
5325
330
1A
100
AcDbEntity
  8
SEIHIN
  6
Continuous
 62
     3
 48
5.0
100
AcDbLine
 10
362.0358009480256
 20
245.252689963143
 30
0.0
 11
368.0684009480256
 21
243.260889963143
 31
0.0
  0
LINE
  5
5326
330
1A
100
AcDbEntity
  8
SEIHIN
  6
Continuous
 62
     3
 48
5.0
100
AcDbLine
 10
364.4771009480255
 20
244.387089963143
 30
0.0
 11
377.2731009480256
 21
219.001689963143
 31
0.0
  0
ARC
  5
5327
330
1A
100
AcDbEntity
  8
SEIHIN
  6
Continuous
 62
     3
 48
5.0
100
AcDbCircle
 10
343.9850009480255
 20
227.192489963143
 30
0.0
 40
4.999972000000001
100
AcDbArc
 50
90.0
 51
149.3491129999993
  0
ARC
  5
5328
330
1A
100
AcDbEntity
  8
SEIHIN
  6
Continuous
 62
     3
 48
5.0
100
AcDbCircle
 10
349.8682009480256
 20
227.192489963143
 30
0.0
 40
5.0
100
AcDbArc
 50
0.0
 51
90.0
  0
ARC
  5
5329
330
1A
100
AcDbEntity
  8
SEIHIN
  6
Continuous
 62
     3
 48
5.0
100
AcDbCircle
 10
349.8682009480256
 20
211.192489963143
 30
0.0
 40
1.500016
100
AcDbArc
 50
44.54622400000081
 51
207.2739519999998
  0
ARC
  5
532A
330
1A
100
AcDbEntity
  8
SEIHIN
  6
Continuous
 62
     3
 48
5.0
100
AcDbCircle
 10
342.7394009480255
 20
209.069289963143
 30
0.0
 40
0.6500060000000001
100
AcDbArc
 50
278.4841289999999
 51
98.47541100000004
  0
LINE
  5
532B
330
1A
100
AcDbEntity
  8
SEIHIN
  6
Continuous
 62
     3
 48
5.0
100
AcDbLine
 10
354.8682009480256
 20
227.192489963143
 30
0.0
 11
354.8682009480256
 21
210.692489963143
 31
0.0
  0
LINE
  5
532C
330
1A
100
AcDbEntity
  8
SEIHIN
  6
Continuous
 62
     3
 48
5.0
100
AcDbLine
 10
350.9372009480255
 20
212.244689963143
 30
0.0
 11
353.1555009480255
 21
209.990989963143
 31
0.0
  0
ARC
  5
532D
330
1A
100
AcDbEntity
  8
SEIHIN
  6
Continuous
 62
     3
 48
5.0
100
AcDbCircle
 10
353.8682009480256
 20
210.692489963143
 30
0.0
 40
1.000011
100
AcDbArc
 50
224.5462460000005
 51
0.0
  0
LINE
  5
532E
330
1A
100
AcDbEntity
  8
SEIHIN
  6
Continuous
 62
     3
 48
5.0
100
AcDbLine
 10
343.9850009480255
 20
232.192489963143
 30
0.0
 11
349.8682009480256
 21
232.192489963143
 31
0.0
  0
LINE
  5
532F
330
1A
100
AcDbEntity
  8
SEIHIN
  6
Continuous
 62
     3
 48
5.0
100
AcDbLine
 10
355.8681009480255
 20
243.192489963143
 30
0.0
 11
337.7179009480255
 21
243.192489963143
 31
0.0
  0
LINE
  5
5330
330
1A
100
AcDbEntity
  8
SEIHIN
  6
Continuous
 62
     3
 48
5.0
100
AcDbLine
 10
351.8682009480256
 20
240.692489963143
 30
0.0
 11
338.0021009480255
 21
240.692589963143
 31
0.0
  0
LINE
  5
5331
330
1A
100
AcDbEntity
  8
SEIHIN
  6
Continuous
 62
     3
 48
5.0
100
AcDbLine
 10
341.3314009480255
 20
234.692489963143
 30
0.0
 11
351.8682009480256
 21
234.692489963143
 31
0.0
  0
ARC
  5
5332
330
1A
100
AcDbEntity
  8
SEIHIN
  6
Continuous
 62
     3
 48
5.0
100
AcDbCircle
 10
337.7179009480255
 20
238.192489963143
 30
0.0
 40
5.000013
100
AcDbArc
 50
90.0
 51
150.247301
  0
ARC
  5
5333
330
1A
100
AcDbEntity
  8
SEIHIN
  6
Continuous
 62
     3
 48
5.0
100
AcDbCircle
 10
341.3314009480255
 20
231.692489963143
 30
0.0
 40
3.000006
100
AcDbArc
 50
90.0
 51
150.8871489999995
  0
ARC
  5
5334
330
1A
100
AcDbEntity
  8
SEIHIN
  6
Continuous
 62
     3
 48
5.0
100
AcDbCircle
 10
338.0021009480255
 20
237.692589963143
 30
0.0
 40
3.000009
100
AcDbArc
 50
90.0
 51
149.3496969999986
  0
ARC
  5
5335
330
1A
100
AcDbEntity
  8
SEIHIN
  6
Continuous
 62
     3
 48
5.0
100
AcDbCircle
 10
355.8682009480256
 20
238.192489963143
 30
0.0
 40
5.0
100
AcDbArc
 50
0.0
 51
90.0
  0
ARC
  5
5336
330
1A
100
AcDbEntity
  8
SEIHIN
  6
Continuous
 62
     3
 48
5.0
100
AcDbCircle
 10
351.8682009480256
 20
237.692489963143
 30
0.0
 40
3.0
100
AcDbArc
 50
0.0
 51
90.0
  0
ARC
  5
5337
330
1A
100
AcDbEntity
  8
SEIHIN
  6
Continuous
 62
     3
 48
5.0
100
AcDbCircle
 10
351.8682009480256
 20
237.692489963143
 30
0.0
 40
3.0
100
AcDbArc
 50
270.0
 51
0.0
  0
LINE
  5
5338
330
1A
100
AcDbEntity
  8
CENTER L
  6
CENTER
 62
     1
 48
5.0
100
AcDbLine
 10
368.9442912673894
 20
227.1221091680844
 30
0.0
 11
379.7588912673893
 21
232.5732091680844
 31
0.0
  0
LINE
  5
5339
330
1A
100
AcDbEntity
  8
SEIHIN
  6
Continuous
 62
     3
 48
5.0
100
AcDbLine
 10
365.8072009480255
 20
243.969989963143
 30
0.0
 11
372.3145009480255
 21
231.060389963143
 31
0.0
  0
LINE
  5
533A
330
1A
100
AcDbEntity
  8
CENTER L
  6
CENTER
 62
     1
 48
5.0
100
AcDbLine
 10
382.4848912673893
 20
227.2280091680843
 30
0.0
 11
371.6276912673894
 21
221.7555091680844
 31
0.0
  0
ARC
  5
533B
330
1A
100
AcDbEntity
  8
SEIHIN
  6
Continuous
 62
     3
 48
5.0
100
AcDbCircle
 10
380.8450009480255
 20
220.802189963143
 30
0.0
 40
4.000018
100
AcDbArc
 50
206.7514609999994
 51
270.0078597873967
  0
ARC
  5
533C
330
1A
100
AcDbEntity
  8
SEIHIN
  6
Continuous
 62
     3
 48
5.0
100
AcDbCircle
 10
374.1005009480255
 20
231.960589963143
 30
0.0
 40
1.999981
100
AcDbArc
 50
206.7495370000005
 51
273.1733490733757
  0
LINE
  5
533D
330
1A
100
AcDbEntity
  8
SEIHIN
  6
Continuous
 62
     3
 48
5.0
100
AcDbLine
 10
368.9614009480255
 20
243.710989963143
 30
0.0
 11
368.0684009480256
 21
243.260889963143
 31
0.0
  0
LINE
  5
533E
330
1A
100
AcDbEntity
  8
SEIHIN
  6
Continuous
 62
     3
 48
5.0
100
AcDbLine
 10
265.1184009480255
 20
402.142689963143
 30
0.0
 11
283.1185009480255
 21
402.142689963143
 31
0.0
  0
LINE
  5
533F
330
1A
100
AcDbEntity
  8
SEIHIN
  6
Continuous
 62
     3
 48
5.0
100
AcDbLine
 10
265.1184009480255
 20
384.242689963143
 30
0.0
 11
283.1185009480255
 21
384.242589963143
 31
0.0
  0
DIMENSION
  5
5340
330
1A
100
AcDbEntity
  8
SUNPOU
 48
5.0
100
AcDbDimension
  2
*D9
 10
210.3944807237376
 20
385.6926899633069
 30
0.0
 11
205.3944807237376
 21
393.192689963225
 31
0.0
 70
    32
 71
     5
 42
14.99999999983612
  3
STANDARD
100
AcDbAlignedDimension
 13
234.8682009480255
 23
400.692689963143
 33
0.0
 14
234.8681513615765
 24
385.6926899633069
 34
0.0
 50
90.0
100
AcDbRotatedDimension
1001
ACAD
1000
DSTYLE
1002
{
1070
   140
1040
6.0
1070
    74
1070
     0
1070
   172
1070
     1
1070
    73
1070
     0
1070
   272
1070
     2
1070
    77
1070
     3
1070
   173
1070
     1
1070
   147
1040
2.0
1070
    42
1040
6.0
1070
    44
1040
3.0
1070
    43
1040
14.0
1070
   271
1070
     0
1070
   178
1070
     4
1070
   177
1070
     4
1070
   176
1070
     4
1070
   141
1040
150.0
1070
     7
1000
_OPEN
1070
     6
1000
_OPEN
1070
    41
1040
7.0
1002
}
  0
LINE
  5
5341
330
1A
100
AcDbEntity
  8
SEIHIN
  6
Continuous
 62
     3
 48
5.0
100
AcDbLine
 10
265.1184009480255
 20
402.142589963143
 30
0.0
 11
265.1184009480255
 21
393.192589963143
 31
0.0
  0
LINE
  5
5342
330
1A
100
AcDbEntity
  8
SEIHIN
  6
Continuous
 62
     3
 48
5.0
100
AcDbLine
 10
261.3682009480256
 20
385.692689963143
 30
0.0
 11
261.3682009480256
 21
400.692689963143
 31
0.0
  0
LINE
  5
5343
330
1A
100
AcDbEntity
  8
SEIHIN
  6
Continuous
 62
     3
 48
5.0
100
AcDbLine
 10
231.8682009480255
 20
393.192489963143
 30
0.0
 11
231.8682009480255
 21
404.192689963143
 31
0.0
  0
LINE
  5
5344
330
1A
100
AcDbEntity
  8
SEIHIN
  6
Continuous
 62
     3
 48
5.0
100
AcDbLine
 10
234.8682009480255
 20
393.192489963143
 30
0.0
 11
234.8682009480255
 21
404.192689963143
 31
0.0
  0
LINE
  5
5345
330
1A
100
AcDbEntity
  8
SEIHIN
  6
Continuous
 62
     3
 48
5.0
100
AcDbLine
 10
248.8682009480255
 20
393.192589963143
 30
0.0
 11
248.8682009480255
 21
400.692689963143
 31
0.0
  0
LINE
  5
5346
330
1A
100
AcDbEntity
  8
SEIHIN
  6
Continuous
 62
     3
 48
5.0
100
AcDbLine
 10
231.8682009480255
 20
382.192689963143
 30
0.0
 11
234.8682009480255
 21
382.192689963143
 31
0.0
  0
LINE
  5
5347
330
1A
100
AcDbEntity
  8
SEIHIN
  6
Continuous
 62
     3
 48
5.0
100
AcDbLine
 10
231.8682009480255
 20
393.192889963143
 30
0.0
 11
231.8681009480255
 21
382.192689963143
 31
0.0
  0
LINE
  5
5348
330
1A
100
AcDbEntity
  8
SEIHIN
  6
Continuous
 62
     3
 48
5.0
100
AcDbLine
 10
234.8682009480255
 20
385.692689963143
 30
0.0
 11
265.1184009480255
 21
385.692589963143
 31
0.0
  0
LINE
  5
5349
330
1A
100
AcDbEntity
  8
SEIHIN
  6
Continuous
 62
     3
 48
5.0
100
AcDbLine
 10
234.8682009480255
 20
393.192889963143
 30
0.0
 11
234.8681009480255
 21
382.192589963143
 31
0.0
  0
LINE
  5
534A
330
1A
100
AcDbEntity
  8
SEIHIN
  6
Continuous
 62
     3
 48
5.0
100
AcDbLine
 10
248.8682009480255
 20
393.192689963143
 30
0.0
 11
248.8682009480255
 21
385.692589963143
 31
0.0
  0
LINE
  5
534B
330
1A
100
AcDbEntity
  8
SEIHIN
  6
Continuous
 62
     3
 48
5.0
100
AcDbLine
 10
265.1184009480255
 20
384.242689963143
 30
0.0
 11
265.1184009480255
 21
393.192689963143
 31
0.0
  0
LINE
  5
534C
330
1A
100
AcDbEntity
  8
SEIHIN
  6
Continuous
 62
     3
 48
5.0
100
AcDbLine
 10
231.8682009480255
 20
404.192689963143
 30
0.0
 11
234.8682009480255
 21
404.192689963143
 31
0.0
  0
LINE
  5
534D
330
1A
100
AcDbEntity
  8
SEIHIN
  6
Continuous
 62
     3
 48
5.0
100
AcDbLine
 10
234.8682009480255
 20
400.692689963143
 30
0.0
 11
265.1184009480255
 21
400.692589963143
 31
0.0
  0
LINE
  5
534E
330
1A
100
AcDbEntity
  8
CENTER L
  6
CENTER
 62
     1
 48
5.0
100
AcDbLine
 10
275.1185009480255
 20
404.3200484074003
 30
0.0
 11
275.1185009480255
 21
382.0652163587388
 31
0.0
  0
ELLIPSE
  5
534F
330
1A
100
AcDbEntity
  8
SEIHIN
  6
Continuous
 62
     3
 48
5.0
100
AcDbEllipse
 10
390.9299120610958
 20
393.1925009183522
 30
0.0
 11
0.0
 21
2.100000000001387
 31
0.0
210
0.0
220
0.0
230
1.0
 40
0.4501187872201523
 41
0.0
 42
6.283185307179586
  0
LINE
  5
5350
330
1A
100
AcDbEntity
  8
CENTER L
  6
CENTER
 62
     1
 48
5.0
100
AcDbLine
 10
390.9299120610958
 20
388.7771049154078
 30
0.0
 11
390.9299120610958
 21
397.6078969212965
 31
0.0
  0
ARC
  5
5351
330
1A
100
AcDbEntity
  8
SEIHIN
  6
Continuous
 62
     3
 48
5.0
100
AcDbCircle
 10
375.4037009480255
 20
392.445989963143
 30
0.0
 40
18.921544
100
AcDbArc
 50
2.261042999998836
 51
26.68164700000003
  0
ARC
  5
5352
330
1A
100
AcDbEntity
  8
SEIHIN
  6
Continuous
 62
     3
 48
5.0
100
AcDbCircle
 10
377.6075009480255
 20
392.994389963143
 30
0.0
 40
4.768783
100
AcDbArc
 50
2.776487000001122
 51
61.6824810000011
  0
ARC
  5
5353
330
1A
100
AcDbEntity
  8
SEIHIN
  6
Continuous
 62
     3
 48
5.0
100
AcDbCircle
 10
369.8281009480255
 20
393.036789963143
 30
0.0
 40
7.038500999999999
100
AcDbArc
 50
143.8127690000003
 51
178.732449999999
  0
LINE
  5
5354
330
1A
100
AcDbEntity
  8
SEIHIN
  6
Continuous
 62
     3
 48
5.0
100
AcDbLine
 10
354.4685009480255
 20
397.192489963143
 30
0.0
 11
354.4685009480255
 21
389.192489963143
 31
0.0
  0
LINE
  5
5355
330
1A
100
AcDbEntity
  8
SEIHIN
  6
Continuous
 62
     3
 48
5.0
100
AcDbLine
 10
349.4685009480255
 20
397.192489963143
 30
0.0
 11
349.4685009480255
 21
389.192489963143
 31
0.0
  0
ARC
  5
5356
330
1A
100
AcDbEntity
  8
SEIHIN
  6
Continuous
 62
     3
 48
5.0
100
AcDbCircle
 10
302.5265009480255
 20
390.630089963143
 30
0.0
 40
9.83738
100
AcDbArc
 50
138.1571219999986
 51
164.9011419999998
  0
LINE
  5
5357
330
1A
100
AcDbEntity
  8
SEIHIN
  6
Continuous
 62
     3
 48
5.0
100
AcDbLine
 10
283.1185009480255
 20
393.192589963143
 30
0.0
 11
283.1185009480255
 21
402.142589963143
 31
0.0
  0
CIRCLE
  5
5358
330
1A
100
AcDbEntity
  8
SEIHIN
  6
Continuous
 62
     3
 48
5.0
100
AcDbCircle
 10
275.1185009480255
 20
393.192689963143
 30
0.0
 40
5.0
  0
ELLIPSE
  5
5359
330
1A
100
AcDbEntity
  8
SEIHIN
  6
Continuous
 62
     3
 48
5.0
100
AcDbEllipse
 10
374.7327899731399
 20
373.692489963143
 30
0.0
 11
0.0
 21
-2.106898943422214
 31
0.0
210
0.0
220
0.0
230
1.0
 40
0.4486448939726454
 41
0.4919824607812224
 42
0.9356578212658547
  0
ELLIPSE
  5
535A
330
1A
100
AcDbEntity
  8
SEIHIN
  6
Continuous
 62
     3
 48
5.0
100
AcDbEllipse
 10
374.7327899731399
 20
373.692489963143
 30
0.0
 11
0.0
 21
-2.106898943422214
 31
0.0
210
0.0
220
0.0
230
1.0
 40
0.4486448939726454
 41
2.205934832323938
 42
2.649610192808571
  0
ELLIPSE
  5
535B
330
1A
100
AcDbEntity
  8
SEIHIN
  6
Continuous
 62
     3
 48
5.0
100
AcDbEllipse
 10
377.4336070764704
 20
373.692489963143
 30
0.0
 11
0.0
 21
3.25
 31
0.0
210
0.0
220
0.0
230
1.0
 40
0.4500997978504633
 41
-2.831402991317369
 42
-0.310189662272419
  0
ELLIPSE
  5
535C
330
1A
100
AcDbEntity
  8
SEIHIN
  6
Continuous
 62
     3
 48
5.0
100
AcDbEllipse
 10
375.6258127917392
 20
373.692489963143
 30
0.0
 11
0.0
 21
-2.106898943422214
 31
0.0
210
0.0
220
0.0
230
1.0
 40
0.4486448939726454
 41
2.205934832323938
 42
7.218843128445478
  0
ELLIPSE
  5
535D
330
1A
100
AcDbEntity
  8
SEIHIN
  6
Continuous
 62
     3
 48
5.0
100
AcDbEllipse
 10
378.3266298950698
 20
373.692489963143
 30
0.0
 11
0.0
 21
3.25
 31
0.0
210
0.0
220
0.0
230
1.0
 40
0.4500997978504633
 41
1.96558744649466
 42
7.459190514274749
  0
LINE
  5
535E
330
1A
100
AcDbEntity
  8
SEIHIN
  6
Continuous
 62
     3
 48
5.0
100
AcDbLine
 10
349.4685009480255
 20
389.192489963143
 30
0.0
 11
295.1979009480256
 21
389.192589963143
 31
0.0
  0
LINE
  5
535F
330
1A
100
AcDbEntity
  8
SEIHIN
  6
Continuous
 62
     3
 48
5.0
100
AcDbLine
 10
283.1185009480255
 20
384.242589963143
 30
0.0
 11
359.8444009480255
 21
374.364689963143
 31
0.0
  0
LINE
  5
5360
330
1A
100
AcDbEntity
  8
SEIHIN
  6
Continuous
 62
     3
 48
5.0
100
AcDbLine
 10
283.1185009480255
 20
393.192589963143
 30
0.0
 11
283.1185009480255
 21
384.242689963143
 31
0.0
  0
ARC
  5
5361
330
1A
100
AcDbEntity
  8
SEIHIN
  6
Continuous
 62
     3
 48
5.0
100
AcDbCircle
 10
302.5265009480255
 20
395.754989963143
 30
0.0
 40
9.837333000000001
100
AcDbArc
 50
195.0982960000002
 51
221.8424440000004
  0
LINE
  5
5362
330
1A
100
AcDbEntity
  8
SEIHIN
  6
Continuous
 62
     3
 48
5.0
100
AcDbLine
 10
300.1185009480255
 20
389.192489963143
 30
0.0
 11
300.1185009480255
 21
382.945689963143
 31
0.0
  0
LINE
  5
5363
330
1A
100
AcDbEntity
  8
SEIHIN
  6
Continuous
 62
     3
 48
5.0
100
AcDbLine
 10
379.8696009480256
 20
389.192489963143
 30
0.0
 11
354.4685009480255
 21
389.192489963143
 31
0.0
  0
LINE
  5
5364
330
1A
100
AcDbEntity
  8
SEIHIN
  6
Continuous
 62
     3
 48
5.0
100
AcDbLine
 10
377.1257009480255
 20
384.692489963143
 30
0.0
 11
360.2335009480255
 21
384.692489963143
 31
0.0
  0
LINE
  5
5365
330
1A
100
AcDbEntity
  8
SEIHIN
  6
Continuous
 62
     3
 48
5.0
100
AcDbLine
 10
368.8755009480254
 20
381.692489963143
 30
0.0
 11
360.2327009480255
 21
381.692489963143
 31
0.0
  0
ARC
  5
5366
330
1A
100
AcDbEntity
  8
SEIHIN
  6
Continuous
 62
     3
 48
5.0
100
AcDbCircle
 10
358.8229009480256
 20
366.430189963143
 30
0.0
 40
7.999992
100
AcDbArc
 50
0.0
 51
82.66400399999971
  0
ARC
  5
5367
330
1A
100
AcDbEntity
  8
SEIHIN
  6
Continuous
 62
     3
 48
5.0
100
AcDbCircle
 10
359.9369009480255
 20
366.286789963143
 30
0.0
 40
7.999999000000001
100
AcDbArc
 50
359.9992839999999
 51
82.66329299999988
  0
ARC
  5
5368
330
1A
100
AcDbEntity
  8
SEIHIN
  6
Continuous
 62
     3
 48
5.0
100
AcDbCircle
 10
360.8419009480255
 20
383.192389963143
 30
0.0
 40
1.618846
100
AcDbArc
 50
112.0761440000006
 51
247.9219059999992
  0
ARC
  5
5369
330
1A
100
AcDbEntity
  8
SEIHIN
  6
Continuous
 62
     3
 48
5.0
100
AcDbCircle
 10
364.2231009480255
 20
383.192489963143
 30
0.0
 40
1.5
100
AcDbArc
 50
90.0
 51
270.0
  0
LINE
  5
536A
330
1A
100
AcDbEntity
  8
SEIHIN
  6
Continuous
 62
     3
 48
5.0
100
AcDbLine
 10
364.2231009480255
 20
373.692489963143
 30
0.0
 11
364.2231009480255
 21
381.692489963143
 31
0.0
  0
ARC
  5
536B
330
1A
100
AcDbEntity
  8
SEIHIN
  6
Continuous
 62
     3
 48
5.0
100
AcDbCircle
 10
369.8281009480255
 20
393.348189963143
 30
0.0
 40
7.038500999999999
100
AcDbArc
 50
181.267550000001
 51
216.1872309999997
  0
LINE
  5
536C
330
1A
100
AcDbEntity
  8
SEIHIN
  6
Continuous
 62
     3
 48
5.0
100
AcDbLine
 10
364.2231009480255
 20
384.692489963143
 30
0.0
 11
364.2231009480255
 21
389.192489963143
 31
0.0
  0
LINE
  5
536D
330
1A
100
AcDbEntity
  8
CENTER L
  6
CENTER
 62
     1
 48
5.0
100
AcDbLine
 10
375.6258127917392
 20
369.4798307465281
 30
0.0
 11
375.6258127917392
 21
377.9051491797579
 31
0.0
  0
LINE
  5
536E
330
1A
100
AcDbEntity
  8
CENTER L
  6
CENTER
 62
     1
 48
5.0
100
AcDbLine
 10
378.3266298950698
 20
368.6884005653631
 30
0.0
 11
378.3266298950698
 21
378.6965793609229
 31
0.0
  0
LINE
  5
536F
330
1A
100
AcDbEntity
  8
SEIHIN
  6
Continuous
 62
     3
 48
5.0
100
AcDbLine
 10
392.3105009480255
 20
385.442689963143
 30
0.0
 11
378.3293009480256
 21
365.692489963143
 31
0.0
  0
LINE
  5
5370
330
1A
100
AcDbEntity
  8
SEIHIN
  6
Continuous
 62
     3
 48
5.0
100
AcDbLine
 10
378.3293009480256
 20
365.692489963143
 30
0.0
 11
366.8229009480256
 21
365.692489963143
 31
0.0
  0
LINE
  5
5371
330
1A
100
AcDbEntity
  8
SEIHIN
  6
Continuous
 62
     3
 48
5.0
100
AcDbLine
 10
367.9369009480255
 20
365.692489963143
 30
0.0
 11
367.9369009480255
 21
366.286789963143
 31
0.0
  0
LINE
  5
5372
330
1A
100
AcDbEntity
  8
SEIHIN
  6
Continuous
 62
     3
 48
5.0
100
AcDbLine
 10
366.8229009480256
 20
365.692489963143
 30
0.0
 11
366.8229009480256
 21
366.430189963143
 31
0.0
  0
ARC
  5
5373
330
1A
100
AcDbEntity
  8
SEIHIN
  6
Continuous
 62
     3
 48
5.0
100
AcDbCircle
 10
377.6075009480255
 20
393.390589963143
 30
0.0
 40
4.768783
100
AcDbArc
 50
298.3175189999989
 51
357.2235129999989
  0
LINE
  5
5374
330
1A
100
AcDbEntity
  8
CENTER L
  6
CENTER
 62
     1
 48
5.0
100
AcDbLine
 10
381.9206009480255
 20
373.692489963143
 30
0.0
 11
371.9672651244091
 21
373.692489963143
 31
0.0
  0
ARC
  5
5375
330
1A
100
AcDbEntity
  8
SEIHIN
  6
Continuous
 62
     3
 48
5.0
100
AcDbCircle
 10
376.7471009480255
 20
383.159989963143
 30
0.0
 40
1.578537
100
AcDbArc
 50
291.612678000001
 51
76.13453299999965
  0
LINE
  5
5376
330
1A
100
AcDbEntity
  8
SEIHIN
  6
Continuous
 62
     3
 48
5.0
100
AcDbLine
 10
377.3285009480255
 20
381.692489963143
 30
0.0
 11
372.8266009480255
 21
381.692489963143
 31
0.0
  0
ARC
  5
5377
330
1A
100
AcDbEntity
  8
SEIHIN
  6
Continuous
 62
     3
 48
5.0
100
AcDbCircle
 10
372.8266009480255
 20
379.692489963143
 30
0.0
 40
1.999976
100
AcDbArc
 50
90.0
 51
133.5879020000005
  0
LINE
  5
5378
330
1A
100
AcDbEntity
  8
SEIHIN
  6
Continuous
 62
     3
 48
5.0
100
AcDbLine
 10
369.2133009480256
 20
379.014289963143
 30
0.0
 11
371.4477009480255
 21
381.141089963143
 31
0.0
  0
LINE
  5
5379
330
1A
100
AcDbEntity
  8
SEIHIN
  6
Continuous
 62
     3
 48
5.0
100
AcDbLine
 10
368.8755009480254
 20
381.692589963143
 30
0.0
 11
368.8755009480254
 21
379.159089963143
 31
0.0
  0
ARC
  5
537A
330
1A
100
AcDbEntity
  8
SEIHIN
  6
Continuous
 62
     3
 48
5.0
100
AcDbCircle
 10
369.0755009480255
 20
379.159089963143
 30
0.0
 40
0.200016
100
AcDbArc
 50
180.0
 51
313.5820770000001
  0
CIRCLE
  5
537B
330
1A
100
AcDbEntity
  8
ZUWAKU
 48
5.0
100
AcDbCircle
 10
378.3266298950698
 20
373.692489963143
 30
0.0
 40
0.0
  0
LINE
  5
537C
330
1A
100
AcDbEntity
  8
SEIHIN
  6
Continuous
 62
     3
 48
5.0
100
AcDbLine
 10
376.9763305015184
 20
374.942489963143
 30
0.0
 11
375.4937058864747
 21
374.942489963143
 31
0.0
  0
LINE
  5
537D
330
1A
100
AcDbEntity
  8
SEIHIN
  6
Continuous
 62
     3
 48
5.0
100
AcDbLine
 10
376.9763305015184
 20
372.442489963143
 30
0.0
 11
375.4937058864747
 21
372.442489963143
 31
0.0
  0
ARC
  5
537E
330
1A
100
AcDbEntity
  8
SEIHIN
  6
Continuous
 62
     3
 48
5.0
100
AcDbCircle
 10
375.4038009480255
 20
393.939089963143
 30
0.0
 40
18.921524
100
AcDbArc
 50
333.3179460000004
 51
357.7386539999995
  0
ELLIPSE
  5
537F
330
1A
100
AcDbEntity
  8
SEIHIN
  6
Continuous
 62
     3
 48
5.0
100
AcDbEllipse
 10
378.3266294826221
 20
412.6924904677701
 30
0.0
 11
6.874128089932474E-8
 21
-3.249999999999999
 31
0.0
210
0.0
220
0.0
230
-1.0
 40
0.4500997978504633
 41
1.965587446494675
 42
7.459190514274844
  0
ELLIPSE
  5
5380
330
1A
100
AcDbEntity
  8
SEIHIN
  6
Continuous
 62
     3
 48
5.0
100
AcDbEllipse
 10
375.6258123792916
 20
412.6924904106447
 30
0.0
 11
-4.456336372193136E-8
 21
2.106898943422214
 31
0.0
210
0.0
220
0.0
230
-1.0
 40
0.4486448939726454
 41
2.20593483232392
 42
7.218843128445502
  0
ELLIPSE
  5
5381
330
1A
100
AcDbEntity
  8
SEIHIN
  6
Continuous
 62
     3
 48
5.0
100
AcDbEllipse
 10
377.4336066640228
 20
412.6924904488816
 30
0.0
 11
6.874128089932474E-8
 21
-3.249999999999999
 31
0.0
210
0.0
220
0.0
230
-1.0
 40
0.4500997978504633
 41
-2.831402991317372
 42
-0.3101896622724274
  0
ELLIPSE
  5
5382
330
1A
100
AcDbEntity
  8
SEIHIN
  6
Continuous
 62
     3
 48
5.0
100
AcDbEllipse
 10
374.7327895606922
 20
412.6924903917562
 30
0.0
 11
-4.456336372193136E-8
 21
2.106898943422214
 31
0.0
210
0.0
220
0.0
230
-1.0
 40
0.4486448939726454
 41
2.205934832323942
 42
2.64961019280857
  0
ELLIPSE
  5
5383
330
1A
100
AcDbEntity
  8
SEIHIN
  6
Continuous
 62
     3
 48
5.0
100
AcDbEllipse
 10
374.7327895606922
 20
412.6924903917562
 30
0.0
 11
-4.456336372193136E-8
 21
2.106898943422214
 31
0.0
210
0.0
220
0.0
230
-1.0
 40
0.4486448939726454
 41
0.491982460781221
 42
0.9356578212658583
  0
LINE
  5
5384
330
1A
100
AcDbEntity
  8
SEIHIN
  6
Continuous
 62
     3
 48
5.0
100
AcDbLine
 10
349.4685009480255
 20
397.192489963143
 30
0.0
 11
295.1980009480255
 21
397.192589963143
 31
0.0
  0
LINE
  5
5385
330
1A
100
AcDbEntity
  8
SEIHIN
  6
Continuous
 62
     3
 48
5.0
100
AcDbLine
 10
283.1185009480255
 20
402.142689963143
 30
0.0
 11
359.8444009480255
 21
412.020189963143
 31
0.0
  0
LINE
  5
5386
330
1A
100
AcDbEntity
  8
SEIHIN
  6
Continuous
 62
     3
 48
5.0
100
AcDbLine
 10
300.1185009480255
 20
397.192689963143
 30
0.0
 11
300.1185009480255
 21
403.439489963143
 31
0.0
  0
LINE
  5
5387
330
1A
100
AcDbEntity
  8
SEIHIN
  6
Continuous
 62
     3
 48
5.0
100
AcDbLine
 10
377.1258009480255
 20
401.692489963143
 30
0.0
 11
360.2335009480255
 21
401.692589963143
 31
0.0
  0
LINE
  5
5388
330
1A
100
AcDbEntity
  8
SEIHIN
  6
Continuous
 62
     3
 48
5.0
100
AcDbLine
 10
368.8762009480255
 20
404.692489963143
 30
0.0
 11
360.2328009480256
 21
404.692589963143
 31
0.0
  0
ARC
  5
5389
330
1A
100
AcDbEntity
  8
SEIHIN
  6
Continuous
 62
     3
 48
5.0
100
AcDbCircle
 10
358.8230009480255
 20
419.954789963143
 30
0.0
 40
7.999986
100
AcDbArc
 50
277.3352859999996
 51
0.0
  0
ARC
  5
538A
330
1A
100
AcDbEntity
  8
SEIHIN
  6
Continuous
 62
     3
 48
5.0
100
AcDbCircle
 10
359.9370009480255
 20
420.098189963143
 30
0.0
 40
7.999992
100
AcDbArc
 50
277.3359960000003
 51
0.0
  0
LINE
  5
538B
330
1A
100
AcDbEntity
  8
SEIHIN
  6
Continuous
 62
     3
 48
5.0
100
AcDbLine
 10
379.8697009480255
 20
397.192489963143
 30
0.0
 11
354.4685009480255
 21
397.192489963143
 31
0.0
  0
LINE
  5
538C
330
1A
100
AcDbEntity
  8
SEIHIN
  6
Continuous
 62
     3
 48
5.0
100
AcDbLine
 10
364.2231009480255
 20
412.692489963143
 30
0.0
 11
364.2231009480255
 21
404.692489963143
 31
0.0
  0
ARC
  5
538D
330
1A
100
AcDbEntity
  8
SEIHIN
  6
Continuous
 62
     3
 48
5.0
100
AcDbCircle
 10
360.8419009480255
 20
403.192689963143
 30
0.0
 40
1.618846
100
AcDbArc
 50
112.0780940000008
 51
247.9238559999994
  0
ARC
  5
538E
330
1A
100
AcDbEntity
  8
SEIHIN
  6
Continuous
 62
     3
 48
5.0
100
AcDbCircle
 10
364.2231009480255
 20
403.192489963143
 30
0.0
 40
1.5
100
AcDbArc
 50
90.0
 51
270.0
  0
LINE
  5
538F
330
1A
100
AcDbEntity
  8
SEIHIN
  6
Continuous
 62
     3
 48
5.0
100
AcDbLine
 10
364.2231009480255
 20
401.692489963143
 30
0.0
 11
364.2231009480255
 21
397.192489963143
 31
0.0
  0
LINE
  5
5390
330
1A
100
AcDbEntity
  8
CENTER L
  6
CENTER
 62
     1
 48
5.0
100
AcDbLine
 10
378.3266293767798
 20
417.69657986555
 30
0.0
 11
378.3266295884644
 21
407.6884010699902
 31
0.0
  0
LINE
  5
5391
330
1A
100
AcDbEntity
  8
SEIHIN
  6
Continuous
 62
     3
 48
5.0
100
AcDbLine
 10
392.3105009480255
 20
400.942289963143
 30
0.0
 11
378.3293009480256
 21
420.692489963143
 31
0.0
  0
LINE
  5
5392
330
1A
100
AcDbEntity
  8
CENTER L
  6
CENTER
 62
     1
 48
5.0
100
AcDbLine
 10
381.9206005355778
 20
412.6924905437868
 30
0.0
 11
371.9672647119614
 21
412.6924903332621
 31
0.0
  0
LINE
  5
5393
330
1A
100
AcDbEntity
  8
SEIHIN
  6
Continuous
 62
     3
 48
5.0
100
AcDbLine
 10
369.2133006481402
 20
407.3706902750125
 30
0.0
 11
371.4477006931244
 21
405.2438903222728
 31
0.0
  0
LINE
  5
5394
330
1A
100
AcDbEntity
  8
SEIHIN
  6
Continuous
 62
     3
 48
5.0
100
AcDbLine
 10
369.2133009480256
 20
407.370789963143
 30
0.0
 11
371.4478009480255
 21
405.243889963143
 31
0.0
  0
LINE
  5
5395
330
1A
100
AcDbEntity
  8
SEIHIN
  6
Continuous
 62
     3
 48
5.0
100
AcDbLine
 10
368.8755009480254
 20
404.692489963143
 30
0.0
 11
368.8755009480254
 21
407.225989963143
 31
0.0
  0
LINE
  5
5396
330
1A
100
AcDbEntity
  8
SEIHIN
  6
Continuous
 62
     3
 48
5.0
100
AcDbLine
 10
377.3286009480255
 20
404.692489963143
 30
0.0
 11
372.8267009480255
 21
404.692489963143
 31
0.0
  0
ARC
  5
5397
330
1A
100
AcDbEntity
  8
SEIHIN
  6
Continuous
 62
     3
 48
5.0
100
AcDbCircle
 10
372.8267009480255
 20
406.692489963143
 30
0.0
 40
1.999976
100
AcDbArc
 50
226.4120979999995
 51
270.0
  0
ARC
  5
5398
330
1A
100
AcDbEntity
  8
SEIHIN
  6
Continuous
 62
     3
 48
5.0
100
AcDbCircle
 10
376.7471009480255
 20
403.224889963143
 30
0.0
 40
1.578565
100
AcDbArc
 50
283.8698600000006
 51
68.38528500000055
  0
ARC
  5
5399
330
1A
100
AcDbEntity
  8
SEIHIN
  6
Continuous
 62
     3
 48
5.0
100
AcDbCircle
 10
369.0755009480255
 20
407.225989963143
 30
0.0
 40
0.200016
100
AcDbArc
 50
46.41792299999992
 51
180.0
  0
CIRCLE
  5
539A
330
1A
100
AcDbEntity
  8
ZUWAKU
 48
5.0
100
AcDbCircle
 10
378.3266294826221
 20
412.6924904677701
 30
0.0
 40
0.0
  0
LINE
  5
539B
330
1A
100
AcDbEntity
  8
CENTER L
  6
CENTER
 62
     1
 48
5.0
100
AcDbLine
 10
375.625812290189
 20
416.9051496272596
 30
0.0
 11
375.6258124683942
 21
408.4798311940298
 31
0.0
  0
LINE
  5
539C
330
1A
100
AcDbEntity
  8
SEIHIN
  6
Continuous
 62
     3
 48
5.0
100
AcDbLine
 10
376.9763301155097
 20
411.4424904392097
 30
0.0
 11
375.493705500466
 21
411.4424904078505
 31
0.0
  0
LINE
  5
539D
330
1A
100
AcDbEntity
  8
SEIHIN
  6
Continuous
 62
     3
 48
5.0
100
AcDbLine
 10
376.9763300626318
 20
413.9424904392097
 30
0.0
 11
375.4937054475881
 21
413.9424904078505
 31
0.0
  0
LINE
  5
539E
330
1A
100
AcDbEntity
  8
SEIHIN
  6
Continuous
 62
     3
 48
5.0
100
AcDbLine
 10
378.3294009480255
 20
420.692489963143
 30
0.0
 11
366.8230009480255
 21
420.692489963143
 31
0.0
  0
LINE
  5
539F
330
1A
100
AcDbEntity
  8
SEIHIN
  6
Continuous
 62
     3
 48
5.0
100
AcDbLine
 10
367.9370009480255
 20
420.692489963143
 30
0.0
 11
367.9370009480255
 21
420.098189963143
 31
0.0
  0
LINE
  5
53A0
330
1A
100
AcDbEntity
  8
SEIHIN
  6
Continuous
 62
     3
 48
5.0
100
AcDbLine
 10
366.8230009480255
 20
420.692489963143
 30
0.0
 11
366.8230009480255
 21
419.954789963143
 31
0.0
  0
LEADER
  5
53A1
330
1A
100
AcDbEntity
  8
SUNPOU
 62
     4
100
AcDbLeader
  3
STANDARD
 74
     0
 40
6.0
 41
31.2
 76
     3
 10
546.4968463166033
 20
307.5880454326144
 30
0.0
 10
563.0904002338266
 20
287.4343093362675
 30
0.0
 10
563.9751437891136
 20
287.4343093362675
 30
0.0
1001
ACAD
1000
DSTYLE
1002
{
1070
     6
1000
OPEN
1070
    41
1040
7.0
1070
    42
1040
6.0
1070
    43
1040
14.0
1070
    44
1040
3.0
1070
    73
1070
     0
1070
    74
1070
     0
1070
    77
1070
     3
1070
   140
1040
6.0
1070
   141
1040
150.0
1070
   147
1040
2.0
1070
   172
1070
     1
1070
   173
1070
     1
1070
   176
1070
     4
1070
   177
1070
     4
1070
   178
1070
     4
1070
   271
1070
     0
1070
   272
1070
     2
1070
   288
1070
     1
1070
   341
1005
6D
1070
   343
1005
6D
1070
   344
1005
6D
1002
}
  0
LEADER
  5
53A2
330
1A
100
AcDbEntity
  8
SUNPOU
 62
     4
100
AcDbLeader
  3
STANDARD
 40
6.0
 41
31.2
 76
     3
 10
503.8668569318463
 20
296.9981716185957
 30
0.0
 10
469.3389561438939
 20
330.3585995296346
 30
0.0
 10
467.4540405314346
 20
330.0836896891435
 30
0.0
1001
ACAD
1000
DSTYLE
1002
{
1070
     6
1000
OPEN
1070
    41
1040
7.0
1070
    42
1040
6.0
1070
    43
1040
14.0
1070
    44
1040
3.0
1070
    73
1070
     0
1070
    74
1070
     0
1070
    77
1070
     3
1070
   140
1040
6.0
1070
   141
1040
150.0
1070
   147
1040
2.0
1070
   172
1070
     1
1070
   173
1070
     1
1070
   176
1070
     4
1070
   177
1070
     4
1070
   178
1070
     4
1070
   271
1070
     0
1070
   272
1070
     2
1070
   288
1070
     1
1070
   341
1005
6D
1070
   343
1005
6D
1070
   344
1005
6D
1002
}
  0
DIMENSION
  5
53A3
330
1A
100
AcDbEntity
  8
SUNPOU
 48
5.0
100
AcDbDimension
  2
*D10
 10
478.1770571206941
 20
282.4077925732855
 30
0.0
 11
477.0657022166142
 21
295.721361298803
 31
0.0
 70
    32
 71
     5
 42
24.77791128661988
  3
STANDARD
100
AcDbAlignedDimension
 13
496.5027889278346
 23
319.3921972421398
 33
0.0
 14
501.1910567010422
 24
294.0078033121515
 34
0.0
 50
116.7499999999992
100
AcDbRotatedDimension
1001
ACAD
1000
DSTYLE
1002
{
1070
   140
1040
6.0
1070
    74
1070
     0
1070
   172
1070
     1
1070
    73
1070
     0
1070
   272
1070
     2
1070
    77
1070
     3
1070
   173
1070
     1
1070
   147
1040
2.0
1070
    42
1040
6.0
1070
    44
1040
3.0
1070
    43
1040
14.0
1070
   271
1070
     0
1070
   178
1070
     4
1070
   177
1070
     4
1070
   176
1070
     4
1070
   141
1040
150.0
1070
     7
1000
_OPEN
1070
     6
1000
_OPEN
1070
    41
1040
7.0
1002
}
  0
DIMENSION
  5
53A4
330
1A
100
AcDbEntity
  8
SUNPOU
 48
5.0
100
AcDbDimension
  2
*D11
 10
518.8298619707214
 20
357.3003768381097
 30
0.0
 11
499.1662596954911
 21
352.9883415346209
 31
0.0
 70
    32
 71
     5
 42
39.00004630238141
  3
STANDARD
100
AcDbAlignedDimension
 13
503.8818889278348
 23
300.3087972421397
 33
0.0
 14
538.7081776755651
 24
317.8625211681572
 34
0.0
 50
26.74999999999917
100
AcDbRotatedDimension
1001
ACAD
1000
DSTYLE
1002
{
1070
   140
1040
6.0
1070
    74
1070
     0
1070
   172
1070
     1
1070
    73
1070
     0
1070
   272
1070
     2
1070
    77
1070
     3
1070
   173
1070
     1
1070
   147
1040
2.0
1070
    42
1040
6.0
1070
    44
1040
3.0
1070
    43
1040
14.0
1070
   271
1070
     0
1070
   178
1070
     4
1070
   177
1070
     4
1070
   176
1070
     4
1070
   141
1040
150.0
1070
     7
1000
_OPEN
1070
     6
1000
_OPEN
1070
    41
1040
7.0
1002
}
  0
LINE
  5
53A5
330
1A
100
AcDbEntity
  8
SEIHIN
  6
Continuous
 62
     3
 48
5.0
100
AcDbLine
 10
551.4401567010422
 20
310.3766033121513
 30
0.0
 11
550.1967567010422
 21
280.8477033121513
 31
0.0
  0
LINE
  5
53A6
330
1A
100
AcDbEntity
  8
SEIHIN
  6
Continuous
 62
     3
 48
5.0
100
AcDbLine
 10
515.7018889278348
 20
329.0692972421399
 30
0.0
 11
531.9053889278349
 21
296.9220972421399
 31
0.0
  0
LINE
  5
53A7
330
1A
100
AcDbEntity
  8
SEIHIN
  6
Continuous
 62
     3
 48
5.0
100
AcDbLine
 10
509.974188927835
 20
305.9957972421399
 30
0.0
 11
512.4379889278348
 21
301.10779724214
 31
0.0
  0
LINE
  5
53A8
330
1A
100
AcDbEntity
  8
SEIHIN
  6
Continuous
 62
     3
 48
5.0
100
AcDbLine
 10
492.0740424063839
 20
305.9614853916365
 30
0.0
 11
502.3263723380464
 21
285.6211250526309
 31
0.0
  0
LINE
  5
53A9
330
1A
100
AcDbEntity
  8
SEIHIN
  6
Continuous
 62
     3
 48
5.0
100
AcDbLine
 10
508.5579889278349
 20
325.4684972421399
 30
0.0
 11
524.7615889278349
 21
293.3212972421399
 31
0.0
  0
ARC
  5
53AA
330
1A
100
AcDbEntity
  8
SEIHIN
  6
Continuous
 62
     3
 48
5.0
100
AcDbCircle
 10
513.7774889278351
 20
301.7828972421397
 30
0.0
 40
1.499985
100
AcDbArc
 50
206.7478309999989
 51
26.75296200000039
  0
LINE
  5
53AB
330
1A
100
AcDbEntity
  8
CENTER L
  6
CENTER
 62
     1
 48
5.0
100
AcDbLine
 10
509.4433889278349
 20
332.59889724214
 30
0.0
 11
544.6321889278349
 21
262.7855972421398
 31
0.0
  0
DIMENSION
  5
53AC
330
1A
100
AcDbEntity
  8
SUNPOU
 48
5.0
100
AcDbDimension
  2
*D12
 10
504.0581298224467
 20
248.9810415839334
 30
0.0
 11
518.4251902423257
 21
231.5859970340753
 31
0.0
 70
    32
 71
     5
 42
7.499860394042969
  3
STANDARD
100
AcDbAlignedDimension
 13
534.3963761946482
 23
272.6714745399095
 33
0.0
 14
541.9606670010147
 24
268.0854930621154
 34
0.0
 50
116.7499999999992
100
AcDbRotatedDimension
1001
ACAD
1000
DSTYLE
1002
{
1070
   140
1040
6.0
1070
    74
1070
     0
1070
   172
1070
     1
1070
    73
1070
     0
1070
   272
1070
     2
1070
    77
1070
     3
1070
   173
1070
     1
1070
   147
1040
2.0
1070
    42
1040
6.0
1070
    44
1040
3.0
1070
    43
1040
14.0
1070
   271
1070
     1
1070
   178
1070
     4
1070
   177
1070
     4
1070
   176
1070
     4
1070
   141
1040
150.0
1070
     7
1000
_OPEN
1070
     6
1000
_OPEN
1070
    41
1040
7.0
1002
}
  0
ARC
  5
53AD
330
1A
100
AcDbEntity
  8
SEIHIN
  6
Continuous
 62
     3
 48
5.0
100
AcDbCircle
 10
528.3334889278347
 20
295.1215972421396
 30
0.0
 40
3.999966
100
AcDbArc
 50
206.7489020000001
 51
296.7501810000007
  0
ARC
  5
53AE
330
1A
100
AcDbEntity
  8
SEIHIN
  6
Continuous
 62
     3
 48
5.0
100
AcDbCircle
 10
535.2099567010422
 20
281.4788033121511
 30
0.0
 40
15.000004
100
AcDbArc
 50
235.9109589999993
 51
296.7500530000001
  0
LINE
  5
53AF
330
1A
100
AcDbEntity
  8
SEIHIN
  6
PHANTOM
 62
     6
 48
5.0
100
AcDbLine
 10
402.8885070223272
 20
245.8395187606163
 30
0.0
 11
429.305789821132
 21
193.4316091680844
 31
0.0
  0
LINE
  5
53B0
330
1A
100
AcDbEntity
  8
SEIHIN
  6
PHANTOM
 62
     6
 48
5.0
100
AcDbLine
 10
427.9662967372388
 20
192.756462654019
 30
0.0
 11
404.197315730829
 21
239.9104731499742
 31
0.0
  0
LINE
  5
53B1
330
1A
100
AcDbEntity
  8
SUNPOU
  6
Continuous
 62
     4
 48
5.0
100
AcDbLine
 10
423.851754501925
 20
134.817089963143
 30
0.0
 11
405.5525087506873
 21
171.1199000291367
 31
0.0
  0
LINE
  5
53B2
330
1A
100
AcDbEntity
  8
SUNPOU
 48
5.0
100
AcDbLine
 10
413.7703058658706
 20
154.817089963143
 30
0.0
 11
413.7703058658706
 21
134.817089963143
 31
0.0
  0
LINE
  5
53B3
330
1A
100
AcDbEntity
  8
SUNPOU
 48
5.0
100
AcDbLine
 10
413.7703058658706
 20
134.817089963143
 30
0.0
 11
423.851754501925
 21
134.817089963143
 31
0.0
  0
TEXT
  5
53B4
330
1A
100
AcDbEntity
  8
SUNPOU
 48
5.0
100
AcDbText
 10
417.2686167634897
 20
125.6742260698793
 30
0.0
 40
6.0
  1
5
100
AcDbText
  0
TEXT
  5
53B5
330
1A
100
AcDbEntity
  8
SUNPOU
 48
5.0
100
AcDbText
 10
403.6306692431976
 20
139.6972914826404
 30
0.0
 40
6.0
  1
10
100
AcDbText
  0
LINE
  5
53B6
330
1A
100
AcDbEntity
  8
SEIHIN
  6
PHANTOM
 62
     6
 48
5.0
100
AcDbLine
 10
427.9662985296338
 20
192.7564635574423
 30
0.0
 11
429.3057898211321
 21
193.4316091680844
 31
0.0
  0
LINE
  5
53B7
330
1A
100
AcDbEntity
  8
CENTER L
  6
CENTER
 62
     1
 48
5.0
100
AcDbLine
 10
419.685089821132
 20
196.9812091680844
 30
0.0
 11
430.206189821132
 21
202.2843091680844
 31
0.0
  0
LINE
  5
53B8
330
1A
100
AcDbEntity
  8
CENTER L
  6
CENTER
 62
     1
 48
5.0
100
AcDbLine
 10
403.944289821132
 20
227.1221091680844
 30
0.0
 11
414.758889821132
 21
232.5732091680844
 31
0.0
  0
LINE
  5
53B9
330
1A
100
AcDbEntity
  8
CENTER L
  6
CENTER
 62
     1
 48
5.0
100
AcDbLine
 10
417.484889821132
 20
227.2280091680843
 30
0.0
 11
406.627689821132
 21
221.7555091680844
 31
0.0
  0
LINE
  5
53BA
330
1A
100
AcDbEntity
  8
SEIHIN
  6
Continuous
 62
     3
 48
5.0
100
AcDbLine
 10
502.3262567010421
 20
285.6212033121512
 30
0.0
 11
526.802856701042
 21
269.0562033121512
 31
0.0
  0
LINE
  5
53BB
330
1A
100
AcDbEntity
  8
CENTER L
  6
CENTER
 62
     1
 48
5.0
100
AcDbLine
 10
513.0352567010418
 20
293.2587033121511
 30
0.0
 11
503.8408567010422
 21
288.6243033121514
 31
0.0
  0
ARC
  5
53BC
330
1A
100
AcDbEntity
  8
SEIHIN
  6
Continuous
 62
     3
 48
5.0
100
AcDbCircle
 10
508.5699567010422
 20
291.0080033121511
 30
0.0
 40
3.249959
100
AcDbArc
 50
139.3698310000012
 51
94.13070999999941
  0
LINE
  5
53BD
330
1A
100
AcDbEntity
  8
CENTER L
  6
CENTER
 62
     1
 48
5.0
100
AcDbLine
 10
503.7819567010422
 20
300.5071033121512
 30
0.0
 11
511.1428567010421
 21
285.9033033121513
 31
0.0
  0
LINE
  5
53BE
330
1A
100
AcDbEntity
  8
CENTER L
  6
CENTER
 62
     1
 48
5.0
100
AcDbLine
 10
501.1910567010422
 20
294.0078033121515
 30
0.0
 11
510.334756701042
 21
298.6166033121513
 31
0.0
  0
ARC
  5
53BF
330
1A
100
AcDbEntity
  8
SEIHIN
  6
Continuous
 62
     3
 48
5.0
100
AcDbCircle
 10
505.8693567010421
 20
296.365803312151
 30
0.0
 40
2.099975
100
AcDbArc
 50
333.281210000001
 51
260.2200960000005
  0
LINE
  5
53C0
330
1A
100
AcDbEntity
  8
SEIHIN
  6
Continuous
 62
     3
 48
5.0
100
AcDbLine
 10
506.1034567010422
 20
293.1243033121514
 30
0.0
 11
505.512656701042
 21
294.2963033121514
 31
0.0
  0
LINE
  5
53C1
330
1A
100
AcDbEntity
  8
SEIHIN
  6
Continuous
 62
     3
 48
5.0
100
AcDbLine
 10
508.3358567010422
 20
294.2495033121514
 30
0.0
 11
507.7450567010421
 21
295.4216033121513
 31
0.0
  0
MTEXT
  5
53C2
330
1A
100
AcDbEntity
  8
SUNPOU
 62
     4
100
AcDbMText
 10
565.9751437891136
 20
289.4343093362675
 30
0.0
 40
6.0
 41
0.0
 71
     7
 72
     5
  1
2-φ6.5
 73
     1
 44
1.0
  0
ARC
  5
53C3
330
1A
100
AcDbEntity
  8
SEIHIN
  6
Continuous
 62
     3
 48
5.0
100
AcDbCircle
 10
535.2099567010422
 20
281.4788033121511
 30
0.0
 40
15.000003
100
AcDbArc
 50
296.7500530000001
 51
357.588660999999
  0
LINE
  5
53C4
330
1A
100
AcDbEntity
  8
CENTER L
  6
CENTER
 62
     1
 48
5.0
100
AcDbLine
 10
542.7736761946484
 20
276.8940745399095
 30
0.0
 11
534.2632102977021
 21
272.6043007137572
 31
0.0
  0
CIRCLE
  5
53C5
330
1A
100
AcDbEntity
  8
SEIHIN
  6
Continuous
 62
     3
 48
5.0
100
AcDbCircle
 10
538.5849761946481
 20
274.7827745399092
 30
0.0
 40
2.1
  0
ARC
  5
53C6
330
1A
100
AcDbEntity
  8
SEIHIN
  6
Continuous
 62
     3
 48
5.0
100
AcDbCircle
 10
528.3334889278347
 20
295.1215972421396
 30
0.0
 40
3.999989
100
AcDbArc
 50
296.7501810000007
 51
26.75018099999853
  0
DIMENSION
  5
53C7
330
1A
100
AcDbEntity
  8
SUNPOU
 48
5.0
100
AcDbDimension
  2
*D13
 10
576.1778857142547
 20
325.0851427638559
 30
0.0
 11
573.7162382166865
 21
341.0776429041322
 31
0.0
 70
    32
 71
     5
 42
30.77789915761122
  3
STANDARD
100
AcDbAlignedDimension
 13
527.7570889278348
 23
335.1455972421397
 33
0.0
 14
548.1251567010423
 24
310.9454033121511
 34
0.0
 50
116.7499999999992
100
AcDbRotatedDimension
1001
ACAD
1000
DSTYLE
1002
{
1070
   140
1040
6.0
1070
    74
1070
     0
1070
   172
1070
     1
1070
    73
1070
     0
1070
   272
1070
     2
1070
    77
1070
     3
1070
   173
1070
     1
1070
   147
1040
2.0
1070
    42
1040
6.0
1070
    44
1040
3.0
1070
    43
1040
14.0
1070
   271
1070
     0
1070
   178
1070
     4
1070
   177
1070
     4
1070
   176
1070
     4
1070
   141
1040
150.0
1070
     7
1000
_OPEN
1070
     6
1000
_OPEN
1070
    41
1040
7.0
1002
}
  0
DIMENSION
  5
53C8
330
1A
100
AcDbEntity
  8
SUNPOU
 48
5.0
100
AcDbDimension
  2
*D14
 10
518.3539573671682
 20
376.0184873168032
 30
0.0
 11
491.5465239135933
 21
368.1056646709783
 31
0.0
 70
    32
 71
     5
 42
55.00004547605829
  3
STANDARD
100
AcDbAlignedDimension
 13
492.0739889278348
 23
305.9613972421398
 33
0.0
 14
541.1878889278348
 24
330.7167972421397
 34
0.0
 50
26.74999999999917
100
AcDbRotatedDimension
1001
ACAD
1000
DSTYLE
1002
{
1070
   140
1040
6.0
1070
    74
1070
     0
1070
   172
1070
     1
1070
    73
1070
     0
1070
   272
1070
     2
1070
    77
1070
     3
1070
   173
1070
     1
1070
   147
1040
2.0
1070
    42
1040
6.0
1070
    44
1040
3.0
1070
    43
1040
14.0
1070
   271
1070
     0
1070
   178
1070
     4
1070
   177
1070
     4
1070
   176
1070
     4
1070
   141
1040
150.0
1070
     7
1000
_OPEN
1070
     6
1000
_OPEN
1070
    41
1040
7.0
1002
}
  0
ARC
  5
53C9
330
1A
100
AcDbEntity
  8
SEIHIN
  6
Continuous
 62
     3
 48
5.0
100
AcDbCircle
 10
528.6572889278351
 20
333.3596972421395
 30
0.0
 40
1.99995
100
AcDbArc
 50
26.75082599999929
 51
116.7508259999993
  0
ARC
  5
53CA
330
1A
100
AcDbEntity
  8
SEIHIN
  6
Continuous
 62
     3
 48
5.0
100
AcDbCircle
 10
529.1267889278349
 20
324.0774972421397
 30
0.0
 40
0.499997
100
AcDbArc
 50
3.554889000000247
 51
116.7546529999988
  0
LINE
  5
53CB
330
1A
100
AcDbEntity
  8
SEIHIN
  6
Continuous
 62
     3
 48
5.0
100
AcDbLine
 10
519.7202889278349
 20
331.0946972421398
 30
0.0
 11
530.2975889278349
 21
310.1096972421399
 31
0.0
  0
MTEXT
  5
53CC
330
1A
100
AcDbEntity
  8
SUNPOU
 62
     4
100
AcDbMText
 10
465.4540405314346
 20
332.0836896891435
 30
0.0
 40
6.0
 41
0.0
 71
     9
 72
     5
  1
3-φ4.2
 73
     1
 44
1.0
  0
LINE
  5
53CD
330
1A
100
AcDbEntity
  8
SEIHIN
  6
Continuous
 62
     3
 48
5.0
100
AcDbLine
 10
496.5027889278346
 20
319.3921972421398
 30
0.0
 11
512.1298889278351
 21
327.2688972421398
 31
0.0
  0
LINE
  5
53CE
330
1A
100
AcDbEntity
  8
SEIHIN
  6
Continuous
 62
     3
 48
5.0
100
AcDbLine
 10
495.6169889278349
 20
316.7059972421398
 30
0.0
 11
496.9672889278347
 21
314.0270972421401
 31
0.0
  0
LINE
  5
53CF
330
1A
100
AcDbEntity
  8
SEIHIN
  6
Continuous
 62
     3
 48
5.0
100
AcDbLine
 10
496.9672889278347
 20
314.0270972421401
 30
0.0
 11
492.0739889278348
 21
305.9613972421398
 31
0.0
  0
ARC
  5
53D0
330
1A
100
AcDbEntity
  8
SEIHIN
  6
Continuous
 62
     3
 48
5.0
100
AcDbCircle
 10
497.4029889278351
 20
317.6061972421398
 30
0.0
 40
1.999994
100
AcDbArc
 50
116.7495370000004
 51
206.7508259999993
  0
LINE
  5
53D1
330
1A
100
AcDbEntity
  8
SEIHIN
  6
Continuous
 62
     3
 48
5.0
100
AcDbLine
 10
526.9005889278349
 20
323.5153972421397
 30
0.0
 11
528.901688927835
 21
324.5239972421398
 31
0.0
  0
LINE
  5
53D2
330
1A
100
AcDbEntity
  8
SEIHIN
  6
Continuous
 62
     3
 48
5.0
100
AcDbLine
 10
522.399188927835
 20
332.4449972421398
 30
0.0
 11
526.900188927835
 21
323.51519724214
 31
0.0
  0
LINE
  5
53D3
330
1A
100
AcDbEntity
  8
SEIHIN
  6
Continuous
 62
     3
 48
5.0
100
AcDbLine
 10
504.5395889278349
 20
323.4430972421399
 30
0.0
 11
515.1168889278349
 21
302.45809724214
 31
0.0
  0
LINE
  5
53D4
330
1A
100
AcDbEntity
  8
SEIHIN
  6
Continuous
 62
     3
 48
5.0
100
AcDbLine
 10
506.3612889278347
 20
313.1626972421398
 30
0.0
 11
504.3601889278349
 21
312.1540972421398
 31
0.0
  0
LINE
  5
53D5
330
1A
100
AcDbEntity
  8
SEIHIN
  6
Continuous
 62
     3
 48
5.0
100
AcDbLine
 10
504.2634889278346
 20
311.3248972421397
 30
0.0
 11
508.7268889278348
 21
307.5724972421398
 31
0.0
  0
ARC
  5
53D6
330
1A
100
AcDbEntity
  8
SEIHIN
  6
Continuous
 62
     3
 48
5.0
100
AcDbCircle
 10
504.585288927835
 20
311.7075972421397
 30
0.0
 40
0.500023
100
AcDbArc
 50
116.7546529999988
 51
229.9406109999989
  0
ARC
  5
53D7
330
1A
100
AcDbEntity
  8
SEIHIN
  6
Continuous
 62
     3
 48
5.0
100
AcDbCircle
 10
505.5092889278351
 20
303.7452972421397
 30
0.0
 40
5.000025
100
AcDbArc
 50
26.75005300000011
 51
49.94559400000123
  0
LINE
  5
53D8
330
1A
100
AcDbEntity
  8
SEIHIN
  6
Continuous
 62
     3
 48
5.0
100
AcDbLine
 10
501.8605889278349
 20
322.09279724214
 30
0.0
 11
506.3616889278351
 21
313.1628972421399
 31
0.0
  0
ARC
  5
53D9
330
1A
100
AcDbEntity
  8
SEIHIN
  6
Continuous
 62
     3
 48
5.0
100
AcDbCircle
 10
503.2001889278349
 20
322.7678972421396
 30
0.0
 40
1.500029
100
AcDbArc
 50
206.7478309999989
 51
26.75124199999986
  0
ARC
  5
53DA
330
1A
100
AcDbEntity
  8
SEIHIN
  6
Continuous
 62
     3
 48
5.0
100
AcDbCircle
 10
511.4547889278347
 20
328.6083972421395
 30
0.0
 40
4.000025
100
AcDbArc
 50
236.7501100000013
 51
296.7501810000007
  0
LINE
  5
53DB
330
1A
100
AcDbEntity
  8
SEIHIN
  6
Continuous
 62
     3
 48
5.0
100
AcDbLine
 10
527.7570889278348
 20
335.1455972421397
 30
0.0
 11
512.1299889278349
 21
327.2688972421399
 31
0.0
  0
ARC
  5
53DC
330
1A
100
AcDbEntity
  8
SEIHIN
  6
Continuous
 62
     3
 48
5.0
100
AcDbCircle
 10
508.7133889278348
 20
324.4268972421395
 30
0.0
 40
0.9999899999999999
100
AcDbArc
 50
56.75490199999926
 51
116.7495370000004
  0
ARC
  5
53DD
330
1A
100
AcDbEntity
  8
SEIHIN
  6
Continuous
 62
     3
 48
5.0
100
AcDbCircle
 10
521.0596889278347
 20
331.7698972421396
 30
0.0
 40
1.499985
100
AcDbArc
 50
206.7529620000004
 51
26.74783100000103
  0
ARC
  5
53DE
330
1A
100
AcDbEntity
  8
SEIHIN
  6
Continuous
 62
     3
 48
5.0
100
AcDbCircle
 10
516.4467889278348
 20
328.3248972421397
 30
0.0
 40
1.000014
100
AcDbArc
 50
116.7495370000004
 51
176.7496139999998
  0
ARC
  5
53DF
330
1A
100
AcDbEntity
  8
SEIHIN
  6
Continuous
 62
     3
 48
5.0
100
AcDbCircle
 10
511.4547889278347
 20
328.6083972421395
 30
0.0
 40
4.000012
100
AcDbArc
 50
296.7501810000007
 51
356.7496139999998
  0
LINE
  5
53E0
330
1A
100
AcDbEntity
  8
SEIHIN
  6
Continuous
 62
     3
 48
5.0
100
AcDbLine
 10
541.1879915970615
 20
330.7167877985903
 30
0.0
 11
551.4401625753806
 21
310.3767428189522
 31
0.0
  0
LINE
  5
53E1
330
1A
100
AcDbEntity
  8
CENTER L
  6
CENTER
 62
     1
 48
5.0
100
AcDbLine
 10
538.6081567010421
 20
318.0610033121512
 30
0.0
 11
545.9690567010421
 21
303.4571033121511
 31
0.0
  0
ARC
  5
53E2
330
1A
100
AcDbEntity
  8
SEIHIN
  6
Continuous
 62
     3
 48
5.0
100
AcDbCircle
 10
543.3961567010421
 20
308.5618033121511
 30
0.0
 40
3.249997
100
AcDbArc
 50
139.3709790000004
 51
94.13070999999941
  0
LINE
  5
53E3
330
1A
100
AcDbEntity
  8
CENTER L
  6
CENTER
 62
     1
 48
5.0
100
AcDbLine
 10
538.930756701042
 20
306.3110033121512
 30
0.0
 11
548.1251567010423
 21
310.9454033121511
 31
0.0
  0
LINE
  5
53E4
330
1A
100
AcDbEntity
  8
SEIHIN
  6
Continuous
 62
     3
 48
5.0
100
AcDbLine
 10
543.1620567010421
 20
311.8033033121515
 30
0.0
 11
542.5712567010422
 21
312.9754033121513
 31
0.0
  0
LINE
  5
53E5
330
1A
100
AcDbEntity
  8
CENTER L
  6
CENTER
 62
     1
 48
5.0
100
AcDbLine
 10
545.3738567010421
 20
316.2777033121513
 30
0.0
 11
536.2302567010422
 21
311.6689033121512
 31
0.0
  0
ARC
  5
53E6
330
1A
100
AcDbEntity
  8
SEIHIN
  6
Continuous
 62
     3
 48
5.0
100
AcDbCircle
 10
540.6955567010422
 20
313.9196033121511
 30
0.0
 40
2.099975
100
AcDbArc
 50
333.281210000001
 51
260.2200960000005
  0
LINE
  5
53E7
330
1A
100
AcDbEntity
  8
SEIHIN
  6
Continuous
 62
     3
 48
5.0
100
AcDbLine
 10
530.5126889278348
 20
316.3479972421401
 30
0.0
 11
532.9765889278348
 21
311.4599972421398
 31
0.0
  0
ARC
  5
53E8
330
1A
100
AcDbEntity
  8
SEIHIN
  6
Continuous
 62
     3
 48
5.0
100
AcDbCircle
 10
531.6369889278349
 20
310.7848972421395
 30
0.0
 40
1.500029
100
AcDbArc
 50
206.7512419999999
 51
26.74783100000103
  0
LINE
  5
53E9
330
1A
100
AcDbEntity
  8
SEIHIN
  6
Continuous
 62
     3
 48
5.0
100
AcDbLine
 10
540.9295567010422
 20
310.6780033121512
 30
0.0
 11
540.3387567010425
 21
311.8502033121515
 31
0.0
  0
ARC
  5
53EA
330
1A
100
AcDbEntity
  8
SEIHIN
  6
Continuous
 62
     3
 48
5.0
100
AcDbCircle
 10
534.9775889278349
 20
318.5984972421397
 30
0.0
 40
4.999961
100
AcDbArc
 50
183.5535319999995
 51
206.7500530000001
  0
LINE
  5
53EB
330
1A
100
AcDbEntity
  8
SEIHIN
  6
Continuous
 62
     3
 48
5.0
100
AcDbLine
 10
529.6257889278348
 20
324.1084972421398
 30
0.0
 11
529.9872889278348
 21
318.28859724214
 31
0.0
  0
LINE
  5
53EC
330
1A
100
AcDbEntity
  8
SEIHIN
  6
Continuous
 62
     3
 48
5.0
100
AcDbLine
 10
531.7934889278348
 20
331.5808972421398
 30
0.0
 11
541.1878889278348
 21
330.7167972421397
 31
0.0
  0
LINE
  5
53ED
330
1A
100
AcDbEntity
  8
SEIHIN
  6
Continuous
 62
     3
 48
5.0
100
AcDbLine
 10
530.4431889278351
 20
334.2598972421399
 30
0.0
 11
531.7934889278348
 21
331.5808972421398
 31
0.0
  0
VIEWPORT
  5
22
330
17
100
AcDbEntity
 67
     1
  8
0
100
AcDbViewport
 10
313.6808219178082
 20
286.420032064001
 30
0.0
 40
627.3616438356164
 41
572.840064128002
 68
     2
 69
     1
 12
313.6808219178082
 22
286.420032064001
 13
0.0
 23
0.0
 14
1.0
 24
1.0
 15
10.0
 25
10.0
 16
0.0
 26
0.0
 36
1.0
 17
0.0
 27
0.0
 37
0.0
 42
50.0
 43
0.0
 44
0.0
 45
572.840064128002
 50
0.0
 51
0.0
 72
   100
 90
    32768
  1

281
     0
 71
     1
 74
     0
110
0.0
120
0.0
130
0.0
111
1.0
121
0.0
131
0.0
112
0.0
122
1.0
132
0.0
 79
     0
146
0.0
  0
VIEWPORT
  5
64
330
17
100
AcDbEntity
 67
     1
  8
VIEWPORT
100
AcDbViewport
 10
210.0
 20
148.5
 30
0.0
 40
420.0
 41
297.0
 68
     1
 69
     2
 12
420.0
 22
297.0
 13
0.0
 23
0.0
 14
10.0
 24
10.0
 15
0.0
 25
0.0
 16
0.0
 26
0.0
 36
1.0
 17
0.0
 27
0.0
 37
0.0
 42
50.0
 43
0.0
 44
0.0
 45
605.8799999999999
 50
0.0
 51
0.0
 72
   100
 90
    32768
  1

281
     0
 71
     1
 74
     0
110
0.0
120
0.0
130
0.0
111
1.0
121
0.0
131
0.0
112
0.0
122
1.0
132
0.0
 79
     0
146
0.0
  0
ENDSEC
  0
SECTION
  2
OBJECTS
  0
DICTIONARY
  5
C
330
0
100
AcDbDictionary
281
     1
  3
ACAD_GROUP
350
D
  3
ACAD_LAYOUT
350
A98
  3
ACAD_MLINESTYLE
350
E
  3
ACAD_PLOTSETTINGS
350
A99
  3
ACAD_PLOTSTYLENAME
350
A96
  0
DICTIONARY
  5
D
102
{ACAD_REACTORS
330
C
102
}
330
C
100
AcDbDictionary
281
     1
  3
*A1
350
FA3
  3
*A2
350
1597
  3
*A3
350
179D
  3
*A4
350
3390
  3
*A5
350
3A0A
  0
DICTIONARY
  5
A98
102
{ACAD_REACTORS
330
C
102
}
330
C
100
AcDbDictionary
281
     1
  3
Model
350
A9A
  3
ﾚｲｱｳﾄ1
350
A9B
  0
DICTIONARY
  5
E
102
{ACAD_REACTORS
330
C
102
}
330
C
100
AcDbDictionary
281
     1
  3
STANDARD
350
13
  0
DICTIONARY
  5
A99
102
{ACAD_REACTORS
330
C
102
}
330
C
100
AcDbDictionary
281
     1
  0
ACDBDICTIONARYWDFLT
  5
A96
102
{ACAD_REACTORS
330
C
102
}
330
C
100
AcDbDictionary
281
     1
  3
Normal
350
A97
100
AcDbDictionaryWithDefault
340
A97
1001
ACAD
1000
TREAT_AS_HARD
1070
     0
1000
TREAT_AS_HARD
1070
     0
1000
TREAT_AS_HARD
1070
     0
1000
TREAT_AS_HARD
1070
     0
  0
GROUP
  5
FA3
102
{ACAD_REACTORS
330
D
102
}
330
D
100
AcDbGroup
300

 70
     1
 71
     1
  0
GROUP
  5
1597
102
{ACAD_REACTORS
330
D
102
}
330
D
100
AcDbGroup
300

 70
     1
 71
     1
  0
GROUP
  5
179D
102
{ACAD_REACTORS
330
D
102
}
330
D
100
AcDbGroup
300

 70
     1
 71
     1
  0
GROUP
  5
3390
102
{ACAD_REACTORS
330
D
102
}
330
D
100
AcDbGroup
300

 70
     1
 71
     1
  0
GROUP
  5
3A0A
102
{ACAD_REACTORS
330
D
102
}
330
D
100
AcDbGroup
300

 70
     1
 71
     1
  0
LAYOUT
  5
A9A
102
{ACAD_REACTORS
330
A98
102
}
330
A98
100
AcDbPlotSettings
  1

  2
Adobe PDF
  4
A3
  6

 40
3.174999952316284
 41
3.174999952316284
 42
3.17498779296875
 43
3.17498779296875
 44
297.0318298339844
 45
420.1583251953125
 46
2.67
 47
2.85
 48
-8.09872987394283
 49
-9.441603207410708
140
808.114529312747
141
561.2334822198422
142
1.0
143
2.0
 70
 28340
 72
     1
 73
     1
 74
     4
  7
systemprinter.ctb
 75
    17
147
0.5
148
8.09872987394283
149
9.441603207410708
100
AcDbLayout
  1
Model
 70
     1
 71
     0
 10
0.0
 20
0.0
 11
12.0
 21
9.0
 12
0.0
 22
0.0
 32
0.0
 14
0.0
 24
0.0
 34
0.0
 15
0.0
 25
0.0
 35
0.0
146
0.0
 13
0.0
 23
0.0
 33
0.0
 16
1.0
 26
0.0
 36
0.0
 17
0.0
 27
1.0
 37
0.0
 76
     0
330
1A
  0
LAYOUT
  5
A9B
102
{ACAD_REACTORS
330
A98
102
}
330
A98
100
AcDbPlotSettings
  1

  2
C:\PROGRAM FILES\ACAD LT 2000\plotters\DWF ePlot.pc3
  4
ANSI_A_(8.50_x_11.00_Inches)
  6

 40
5.793749809265137
 41
17.79375076293945
 42
5.793746948242188
 43
17.79376220703125
 44
215.8999938964844
 45
279.3999938964844
 46
0.0
 47
0.0
 48
0.0
 49
0.0
140
0.0
141
0.0
142
1.0
143
43.75760864458461
 70
   688
 72
     0
 73
     1
 74
     1
  7
systemprinter.ctb
 75
     0
147
0.0228531684197454
148
0.3255366854427166
149
0.2302009418498301
100
AcDbLayout
  1
ﾚｲｱｳﾄ1
 70
     1
 71
     1
 10
-30.66685116754002
 20
-9.990190459854741
 11
450.6668334081172
 21
361.9494725043409
 12
0.0
 22
0.0
 32
0.0
 14
-0.0128164049386896
 24
-0.0090630292066862
 34
-0.0015258207003583
 15
420.0128183607162
 25
297.0090644122207
 35
0.0000000349246037
146
0.0
 13
0.0
 23
0.0
 33
0.0
 16
1.0
 26
0.0
 36
0.0
 17
0.0
 27
1.0
 37
0.0
 76
     0
330
17
331
64
  0
MLINESTYLE
  5
13
102
{ACAD_REACTORS
330
E
102
}
330
E
100
AcDbMlineStyle
  2
STANDARD
 70
     0
  3

 62
     0
 51
90.0
 52
90.0
 71
     2
 49
0.5
 62
   256
  6
BYLAYER
 49
-0.5
 62
   256
  6
BYLAYER
  0
ACDBPLACEHOLDER
  5
A97
102
{ACAD_REACTORS
330
A96
102
}
330
A96
  0
ENDSEC
  0
EOF
