  0
SECTION
  2
HEADER
  9
$ACADVER
  1
AC1014
  9
$ACADMAINTVER
 70
     9
  9
$DWGCODEPAGE
  3
ANSI_932
  9
$INSBASE
 10
0.0
 20
0.0
 30
0.0
  9
$EXTMIN
 10
-0.0256333571728646
 20
-0.0181262487631102
 30
-0.0015258207003583
  9
$EXTMAX
 10
797.6000995350432
 20
551.6452344744309
 30
0.0000000349246037
  9
$LIMMIN
 10
0.0
 20
0.0
  9
$LIMMAX
 10
840.0
 20
594.0
  9
$ORTHOMODE
 70
     0
  9
$REGENMODE
 70
     1
  9
$FILLMODE
 70
     1
  9
$QTEXTMODE
 70
     0
  9
$MIRRTEXT
 70
     1
  9
$DRAGMODE
 70
     2
  9
$LTSCALE
 40
2.0
  9
$OSMODE
 70
    37
  9
$ATTMODE
 70
     1
  9
$TEXTSIZE
 40
5.0
  9
$TRACEWID
 40
1.0
  9
$TEXTSTYLE
  7
STANDARD
  9
$CLAYER
  8
SEIHIN
  9
$CELTYPE
  6
CONTINUOUS
  9
$CECOLOR
 62
   256
  9
$CELTSCALE
 40
1.0
  9
$DELOBJ
 70
     1
  9
$DISPSILH
 70
     0
  9
$DIMSCALE
 40
1.0
  9
$DIMASZ
 40
7.0
  9
$DIMEXO
 40
6.0
  9
$DIMDLI
 40
14.0
  9
$DIMRND
 40
0.0
  9
$DIMDLE
 40
0.0
  9
$DIMEXE
 40
3.0
  9
$DIMTP
 40
0.0
  9
$DIMTM
 40
0.0
  9
$DIMTXT
 40
6.0
  9
$DIMCEN
 40
150.0
  9
$DIMTSZ
 40
0.0
  9
$DIMTOL
 70
     0
  9
$DIMLIM
 70
     0
  9
$DIMTIH
 70
     0
  9
$DIMTOH
 70
     0
  9
$DIMSE1
 70
     0
  9
$DIMSE2
 70
     0
  9
$DIMTAD
 70
     3
  9
$DIMZIN
 70
     0
  9
$DIMBLK
  1

  9
$DIMASO
 70
     1
  9
$DIMSHO
 70
     1
  9
$DIMPOST
  1

  9
$DIMAPOST
  1

  9
$DIMALT
 70
     0
  9
$DIMALTD
 70
     2
  9
$DIMALTF
 40
25.4
  9
$DIMLFAC
 40
1.0
  9
$DIMTOFL
 70
     1
  9
$DIMTVP
 40
0.0
  9
$DIMTIX
 70
     0
  9
$DIMSOXD
 70
     0
  9
$DIMSAH
 70
     1
  9
$DIMBLK1
  1
OPEN
  9
$DIMBLK2
  1
OPEN
  9
$DIMSTYLE
  2
STANDARD
  9
$DIMCLRD
 70
   256
  9
$DIMCLRE
 70
   256
  9
$DIMCLRT
 70
   256
  9
$DIMTFAC
 40
1.0
  9
$DIMGAP
 40
2.0
  9
$DIMJUST
 70
     0
  9
$DIMSD1
 70
     0
  9
$DIMSD2
 70
     0
  9
$DIMTOLJ
 70
     1
  9
$DIMTZIN
 70
     0
  9
$DIMALTZ
 70
     0
  9
$DIMALTTZ
 70
     0
  9
$DIMFIT
 70
     3
  9
$DIMUPT
 70
     0
  9
$DIMUNIT
 70
     2
  9
$DIMDEC
 70
     0
  9
$DIMTDEC
 70
     0
  9
$DIMALTU
 70
     2
  9
$DIMALTTD
 70
     2
  9
$DIMTXSTY
  7
STANDARD
  9
$DIMAUNIT
 70
     0
  9
$LUNITS
 70
     2
  9
$LUPREC
 70
     4
  9
$SKETCHINC
 40
1.0
  9
$FILLETRAD
 40
0.5
  9
$AUNITS
 70
     0
  9
$AUPREC
 70
     0
  9
$MENU
  1
.
  9
$ELEVATION
 40
0.0
  9
$PELEVATION
 40
0.0
  9
$THICKNESS
 40
0.0
  9
$LIMCHECK
 70
     0
  9
$BLIPMODE
 70
     0
  9
$CHAMFERA
 40
20.0
  9
$CHAMFERB
 40
20.0
  9
$CHAMFERC
 40
40.0
  9
$CHAMFERD
 40
0.0
  9
$SKPOLY
 70
     0
  9
$TDCREATE
 40
2450994.354346065
  9
$TDUPDATE
 40
2454512.740287442
  9
$TDINDWG
 40
0.0388639120
  9
$TDUSRTIMER
 40
0.0388639120
  9
$USRTIMER
 70
     1
  9
$ANGBASE
 50
0.0
  9
$ANGDIR
 70
     0
  9
$PDMODE
 70
     1
  9
$PDSIZE
 40
0.0
  9
$PLINEWID
 40
0.0
  9
$COORDS
 70
     2
  9
$SPLFRAME
 70
     0
  9
$SPLINETYPE
 70
     6
  9
$SPLINESEGS
 70
     8
  9
$ATTDIA
 70
     0
  9
$ATTREQ
 70
     1
  9
$HANDLING
 70
 10241
  9
$HANDSEED
  5
B01
  9
$SURFTAB1
 70
     6
  9
$SURFTAB2
 70
     6
  9
$SURFTYPE
 70
     6
  9
$SURFU
 70
     6
  9
$SURFV
 70
     6
  9
$UCSNAME
  2

  9
$UCSORG
 10
0.0
 20
0.0
 30
0.0
  9
$UCSXDIR
 10
1.0
 20
0.0
 30
0.0
  9
$UCSYDIR
 10
0.0
 20
1.0
 30
0.0
  9
$PUCSNAME
  2

  9
$PUCSORG
 10
0.0
 20
0.0
 30
0.0
  9
$PUCSXDIR
 10
1.0
 20
0.0
 30
0.0
  9
$PUCSYDIR
 10
0.0
 20
1.0
 30
0.0
  9
$USERI1
 70
     0
  9
$USERI2
 70
     0
  9
$USERI3
 70
     0
  9
$USERI4
 70
     0
  9
$USERI5
 70
     0
  9
$USERR1
 40
0.0
  9
$USERR2
 40
0.0
  9
$USERR3
 40
0.0
  9
$USERR4
 40
0.0
  9
$USERR5
 40
0.0
  9
$WORLDVIEW
 70
     1
  9
$SHADEDGE
 70
     3
  9
$SHADEDIF
 70
    70
  9
$TILEMODE
 70
     1
  9
$MAXACTVP
 70
    16
  9
$PINSBASE
 10
0.0
 20
0.0
 30
0.0
  9
$PLIMCHECK
 70
     0
  9
$PEXTMIN
 10
0.0
 20
0.0
 30
0.0
  9
$PEXTMAX
 10
420.0
 20
297.0
 30
0.0
  9
$PLIMMIN
 10
0.0
 20
0.0
  9
$PLIMMAX
 10
420.0
 20
297.0
  9
$UNITMODE
 70
     0
  9
$VISRETAIN
 70
     0
  9
$PLINEGEN
 70
     0
  9
$PSLTSCALE
 70
     1
  9
$TREEDEPTH
 70
  3020
  9
$PICKSTYLE
 70
     1
  9
$CMLSTYLE
  2
STANDARD
  9
$CMLJUST
 70
     0
  9
$CMLSCALE
 40
1.0
  9
$PROXYGRAPHICS
 70
     1
  9
$MEASUREMENT
 70
     1
  0
ENDSEC
  0
SECTION
  2
CLASSES
  0
CLASS
  1
ACDBDICTIONARYWDFLT
  2
AcDbDictionaryWithDefault
  3
AutoCAD 2000
 90
        0
280
     0
281
     0
  0
CLASS
  1
ACDBPLACEHOLDER
  2
AcDbPlaceHolder
  3
AutoCAD 2000
 90
        0
280
     0
281
     0
  0
CLASS
  1
LAYOUT
  2
AcDbLayout
  3
AutoCAD 2000
 90
        0
280
     0
281
     0
  0
CLASS
  1
LONG_TRANSACTION
  2
AcDbLongTransaction
  3
AutoCAD 2000
 90
        0
280
     0
281
     0
  0
CLASS
  1
LWPOLYLINE
  2
AcDbPolyline
  3
AutoCAD 2000
 90
        0
280
     0
281
     1
  0
CLASS
  1
HATCH
  2
AcDbHatch
  3
AutoCAD 2000
 90
        0
280
     0
281
     1
  0
CLASS
  1
XRECORD
  2
AcDbXrecord
  3
AutoCAD 2000
 90
        0
280
     0
281
     0
  0
CLASS
  1
LONG_TRANSACTION
  2
AcDbLongTransaction
  3
AutoCAD 2000
 90
        0
280
     0
281
     0
  0
CLASS
  1
LWPOLYLINE
  2
AcDbPolyline
  3
AutoCAD 2000
 90
        0
280
     0
281
     1
  0
CLASS
  1
HATCH
  2
AcDbHatch
  3
AutoCAD 2000
 90
        0
280
     0
281
     1
  0
CLASS
  1
XRECORD
  2
AcDbXrecord
  3
AutoCAD 2000
 90
        0
280
     0
281
     0
  0
CLASS
  1
LONG_TRANSACTION
  2
AcDbLongTransaction
  3
AutoCAD 2000
 90
        0
280
     0
281
     0
  0
CLASS
  1
LWPOLYLINE
  2
AcDbPolyline
  3
AutoCAD 2000
 90
        0
280
     0
281
     1
  0
CLASS
  1
HATCH
  2
AcDbHatch
  3
AutoCAD 2000
 90
        0
280
     0
281
     1
  0
CLASS
  1
XRECORD
  2
AcDbXrecord
  3
AutoCAD 2000
 90
        0
280
     0
281
     0
  0
ENDSEC
  0
SECTION
  2
TABLES
  0
TABLE
  2
VPORT
  5
8
330
0
100
AcDbSymbolTable
 70
     2
  0
VPORT
  5
ADD
330
8
100
AcDbSymbolTableRecord
100
AcDbViewportTableRecord
  2
*ACTIVE
 70
     0
 10
0.0
 20
0.0
 11
1.0
 21
1.0
 12
409.7435354149403
 22
253.8832875064228
 13
0.0
 23
0.0
 14
5.0
 24
5.0
 15
0.0
 25
0.0
 16
0.0
 26
0.0
 36
1.0
 17
0.0
 27
0.0
 37
0.0
 40
650.7081822540357
 41
1.570153061224489
 42
50.0
 43
0.0
 44
0.0
 50
0.0
 51
0.0
 71
     0
 72
   100
 73
     1
 74
     0
 75
     0
 76
     0
 77
     0
 78
     0
  0
ENDTAB
  0
TABLE
  2
LTYPE
  5
5
330
0
100
AcDbSymbolTable
 70
     3
  0
LTYPE
  5
14
330
5
100
AcDbSymbolTableRecord
100
AcDbLinetypeTableRecord
  2
BYBLOCK
 70
     0
  3

 72
    65
 73
     0
 40
0.0
  0
LTYPE
  5
15
330
5
100
AcDbSymbolTableRecord
100
AcDbLinetypeTableRecord
  2
BYLAYER
 70
     0
  3

 72
    65
 73
     0
 40
0.0
  0
LTYPE
  5
16
330
5
100
AcDbSymbolTableRecord
100
AcDbLinetypeTableRecord
  2
CONTINUOUS
 70
     0
  3
Solid line
 72
    65
 73
     0
 40
0.0
  0
LTYPE
  5
115
330
5
100
AcDbSymbolTableRecord
100
AcDbLinetypeTableRecord
  2
PHANTOM
 70
     0
  3
______  __  __  ______  __  __  ______  __  __ 
 72
    65
 73
     6
 40
2.5
 49
1.25
 74
     0
 49
-0.25
 74
     0
 49
0.25
 74
     0
 49
-0.25
 74
     0
 49
0.25
 74
     0
 49
-0.25
 74
     0
  0
LTYPE
  5
135
330
5
100
AcDbSymbolTableRecord
100
AcDbLinetypeTableRecord
  2
CENTER
 70
     0
  3
____ _ ____ _ ____ _ ____ _ ____ _ ____ _ ____ 
 72
    65
 73
     4
 40
2.0
 49
1.25
 74
     0
 49
-0.25
 74
     0
 49
0.25
 74
     0
 49
-0.25
 74
     0
  0
ENDTAB
  0
TABLE
  2
LAYER
  5
2
330
0
100
AcDbSymbolTable
 70
     9
  0
LAYER
  5
F
330
2
100
AcDbSymbolTableRecord
100
AcDbLayerTableRecord
  2
0
 70
     0
 62
     7
  6
CONTINUOUS
  0
LAYER
  5
62
330
2
100
AcDbSymbolTableRecord
100
AcDbLayerTableRecord
  2
VIEWPORT
 70
     0
 62
     7
  6
CONTINUOUS
  0
LAYER
  5
65
330
2
100
AcDbSymbolTableRecord
100
AcDbLayerTableRecord
  2
ZUWAKU
 70
     0
 62
     7
  6
CONTINUOUS
  0
LAYER
  5
154
330
2
100
AcDbSymbolTableRecord
100
AcDbLayerTableRecord
  2
NOKITOI
 70
     0
 62
     8
  6
PHANTOM
  0
LAYER
  5
155
330
2
100
AcDbSymbolTableRecord
100
AcDbLayerTableRecord
  2
SUNPOU
 70
     0
 62
     4
  6
CONTINUOUS
  0
LAYER
  5
156
330
2
100
AcDbSymbolTableRecord
100
AcDbLayerTableRecord
  2
SEIHIN
 70
     0
 62
     3
  6
CONTINUOUS
  0
LAYER
  5
157
330
2
100
AcDbSymbolTableRecord
100
AcDbLayerTableRecord
  2
CENTER_L
 70
     0
 62
     1
  6
CENTER
  0
LAYER
  5
214
330
2
100
AcDbSymbolTableRecord
100
AcDbLayerTableRecord
  2
DEFPOINTS
 70
     0
 62
     7
  6
CONTINUOUS
  0
LAYER
  5
966
330
2
100
AcDbSymbolTableRecord
100
AcDbLayerTableRecord
  2
MOJI
 70
     0
 62
     2
  6
CONTINUOUS
  0
ENDTAB
  0
TABLE
  2
STYLE
  5
3
330
0
100
AcDbSymbolTable
 70
     2
  0
STYLE
  5
10
330
3
100
AcDbSymbolTableRecord
100
AcDbTextStyleTableRecord
  2
STANDARD
 70
     0
 40
0.0
 41
1.0
 50
0.0
 71
     0
 42
5.0
  3
TXT
  4
bigfont.shx
  0
STYLE
  5
967
330
3
100
AcDbSymbolTableRecord
100
AcDbTextStyleTableRecord
  2
ｽﾀｲﾙ1
 70
     0
 40
0.0
 41
1.0
 50
0.0
 71
     0
 42
2.5
  3
MS PGothic.ttf
  4

1001
ACAD
1000
MS PGothic
1071
    32818
  0
ENDTAB
  0
TABLE
  2
VIEW
  5
6
330
0
100
AcDbSymbolTable
 70
     0
  0
ENDTAB
  0
TABLE
  2
UCS
  5
7
330
0
100
AcDbSymbolTable
 70
     0
  0
ENDTAB
  0
TABLE
  2
APPID
  5
9
330
0
100
AcDbSymbolTable
 70
     1
  0
APPID
  5
11
330
9
100
AcDbSymbolTableRecord
100
AcDbRegAppTableRecord
  2
ACAD
 70
     0
  0
ENDTAB
  0
TABLE
  2
DIMSTYLE
  5
A
330
0
100
AcDbSymbolTable
 70
     1
  0
DIMSTYLE
105
1D
102
{ACAD_REACTORS
330
637
330
638
330
639
330
63B
330
6CB
330
6E4
330
6F3
330
700
330
70D
330
71A
330
76A
330
84E
330
88D
102
}
330
A
100
AcDbSymbolTableRecord
100
AcDbDimStyleTableRecord
  2
STANDARD
 70
     0
  3

  4

  5

  6

  7

 40
1.0
 41
0.18
 42
0.0625
 43
0.38
 44
0.18
 45
0.0
 46
0.0
 47
0.0
 48
0.0
140
0.18
141
0.09
142
0.0
143
25.4
144
1.0
145
0.0
146
1.0
147
0.09
 71
     0
 72
     0
 73
     1
 74
     1
 75
     0
 76
     0
 77
     0
 78
     0
170
     0
171
     2
172
     0
173
     0
174
     0
175
     0
176
     0
177
     0
178
     0
270
     2
271
     4
272
     4
273
     2
274
     2
340
10
275
     0
280
     0
281
     0
282
     0
283
     1
284
     0
285
     0
286
     0
287
     3
288
     0
  0
ENDTAB
  0
TABLE
  2
BLOCK_RECORD
  5
1
330
0
100
AcDbSymbolTable
 70
    15
  0
BLOCK_RECORD
  5
1A
102
{ACAD_XDICTIONARY
360
924
102
}
330
1
100
AcDbSymbolTableRecord
100
AcDbBlockTableRecord
  2
*MODEL_SPACE
  0
BLOCK_RECORD
  5
17
102
{ACAD_XDICTIONARY
360
922
102
}
330
1
100
AcDbSymbolTableRecord
100
AcDbBlockTableRecord
  2
*PAPER_SPACE
  0
BLOCK_RECORD
  5
6D
330
1
100
AcDbSymbolTableRecord
100
AcDbBlockTableRecord
  2
_OPEN
  0
BLOCK_RECORD
  5
1CA
330
1
100
AcDbSymbolTableRecord
100
AcDbBlockTableRecord
  2
A$C1305
  0
BLOCK_RECORD
  5
65D
330
1
100
AcDbSymbolTableRecord
100
AcDbBlockTableRecord
  2
*D2
  0
BLOCK_RECORD
  5
66B
330
1
100
AcDbSymbolTableRecord
100
AcDbBlockTableRecord
  2
*D3
  0
BLOCK_RECORD
  5
677
330
1
100
AcDbSymbolTableRecord
100
AcDbBlockTableRecord
  2
*D4
  0
BLOCK_RECORD
  5
683
330
1
100
AcDbSymbolTableRecord
100
AcDbBlockTableRecord
  2
*D5
  0
BLOCK_RECORD
  5
6BF
330
1
100
AcDbSymbolTableRecord
100
AcDbBlockTableRecord
  2
*D6
  0
BLOCK_RECORD
  5
6D8
330
1
100
AcDbSymbolTableRecord
100
AcDbBlockTableRecord
  2
*D7
  0
BLOCK_RECORD
  5
6E5
330
1
100
AcDbSymbolTableRecord
100
AcDbBlockTableRecord
  2
*D8
  0
BLOCK_RECORD
  5
6F4
330
1
100
AcDbSymbolTableRecord
100
AcDbBlockTableRecord
  2
*D9
  0
BLOCK_RECORD
  5
701
330
1
100
AcDbSymbolTableRecord
100
AcDbBlockTableRecord
  2
*D10
  0
BLOCK_RECORD
  5
70E
330
1
100
AcDbSymbolTableRecord
100
AcDbBlockTableRecord
  2
*D11
  0
BLOCK_RECORD
  5
75E
330
1
100
AcDbSymbolTableRecord
100
AcDbBlockTableRecord
  2
*D12
  0
BLOCK_RECORD
  5
840
330
1
100
AcDbSymbolTableRecord
100
AcDbBlockTableRecord
  2
*D13
  0
BLOCK_RECORD
  5
881
330
1
100
AcDbSymbolTableRecord
100
AcDbBlockTableRecord
  2
*D14
  0
ENDTAB
  0
ENDSEC
  0
SECTION
  2
BLOCKS
  0
BLOCK
  5
1B
330
1A
100
AcDbEntity
  8
0
100
AcDbBlockBegin
  2
*MODEL_SPACE
 70
     0
 10
0.0
 20
0.0
 30
0.0
  3
*MODEL_SPACE
  1

  0
ENDBLK
  5
1C
330
1A
100
AcDbEntity
  8
0
100
AcDbBlockEnd
  0
BLOCK
  5
18
330
17
100
AcDbEntity
 67
     1
  8
0
100
AcDbBlockBegin
  2
*PAPER_SPACE
 70
     0
 10
0.0
 20
0.0
 30
0.0
  3
*PAPER_SPACE
  1

  0
ENDBLK
  5
19
330
17
100
AcDbEntity
 67
     1
  8
0
100
AcDbBlockEnd
  0
BLOCK
  5
6E
330
6D
100
AcDbEntity
  8
0
100
AcDbBlockBegin
  2
_OPEN
 70
     0
 10
0.0
 20
0.0
 30
0.0
  3
_OPEN
  1

  0
LINE
  5
6F
330
6D
100
AcDbEntity
  8
0
  6
BYBLOCK
 62
     0
100
AcDbLine
 10
-1.0
 20
0.1666666666666666
 30
0.0
 11
0.0
 21
0.0
 31
0.0
  0
LINE
  5
70
330
6D
100
AcDbEntity
  8
0
  6
BYBLOCK
 62
     0
100
AcDbLine
 10
0.0
 20
0.0
 30
0.0
 11
-1.0
 21
-0.1666666666666666
 31
0.0
  0
LINE
  5
71
330
6D
100
AcDbEntity
  8
0
  6
BYBLOCK
 62
     0
100
AcDbLine
 10
0.0
 20
0.0
 30
0.0
 11
-1.0
 21
0.0
 31
0.0
  0
ENDBLK
  5
72
330
6D
100
AcDbEntity
  8
0
100
AcDbBlockEnd
  0
BLOCK
  5
212
330
1CA
100
AcDbEntity
  8
0
100
AcDbBlockBegin
  2
A$C1305
 70
     0
 10
0.0
 20
0.0
 30
0.0
  3
A$C1305
  1

  0
LINE
  5
1CB
330
1CA
100
AcDbEntity
  8
NOKITOI
  6
PHANTOM
 62
     8
 48
5.0
100
AcDbLine
 10
29.18435908443393
 20
10.10187063730222
 30
0.0
 11
19.27365908443391
 21
10.10187063730222
 31
0.0
  0
LINE
  5
1CC
330
1CA
100
AcDbEntity
  8
NOKITOI
  6
PHANTOM
 62
     8
 48
5.0
100
AcDbLine
 10
90.2981590844339
 20
0.1120706373022813
 30
0.0
 11
24.06755908443392
 21
0.1121706373021425
 31
0.0
  0
LINE
  5
1CD
330
1CA
100
AcDbEntity
  8
NOKITOI
  6
PHANTOM
 62
     8
 48
5.0
100
AcDbLine
 10
24.06755908443392
 20
0.1121706373021425
 30
0.0
 11
90.2981590844339
 21
0.1120706373022813
 31
0.0
  0
LINE
  5
1CE
330
1CA
100
AcDbEntity
  8
NOKITOI
  6
PHANTOM
 62
     8
 48
5.0
100
AcDbLine
 10
13.05735908443387
 20
12.22087063730214
 30
0.0
 11
7.218759084433713
 21
39.95217063730228
 31
0.0
  0
LINE
  5
1CF
330
1CA
100
AcDbEntity
  8
NOKITOI
  6
PHANTOM
 62
     8
 48
5.0
100
AcDbLine
 10
14.16595908443378
 20
13.23377063730208
 30
0.0
 11
8.234959084433853
 21
41.4036706373023
 31
0.0
  0
ARC
  5
1D0
330
1CA
100
AcDbEntity
  8
NOKITOI
  6
PHANTOM
 62
     8
 48
5.0
100
AcDbCircle
 10
15.13957896620524
 20
13.43874830022218
 30
0.0
 40
0.995060928010462
100
AcDbArc
 50
191.8877567214145
 51
251.4524867922934
  0
ARC
  5
1D1
330
1CA
100
AcDbEntity
  8
NOKITOI
  6
PHANTOM
 62
     8
 48
5.0
100
AcDbCircle
 10
10.29733292322475
 20
-0.9941694721817384
 30
0.0
 40
14.22848866365036
100
AcDbArc
 50
51.52529185494254
 51
71.45345265407107
  0
ARC
  5
1D2
330
1CA
100
AcDbEntity
  8
NOKITOI
  6
PHANTOM
 62
     8
 48
5.0
100
AcDbCircle
 10
10.29726615422066
 20
-0.9941373355915743
 30
0.0
 40
12.93471022655885
100
AcDbArc
 50
8.676219579622015
 51
74.45245455808978
  0
ARC
  5
1D3
330
1CA
100
AcDbEntity
  8
NOKITOI
  6
PHANTOM
 62
     8
 48
5.0
100
AcDbCircle
 10
24.06756669845151
 20
1.107164097058216
 30
0.0
 40
0.9949934597852239
100
AcDbArc
 50
188.67611256506
 51
269.9995615538235
  0
ARC
  5
1D4
330
1CA
100
AcDbEntity
  8
NOKITOI
  6
PHANTOM
 62
     8
 48
5.0
100
AcDbCircle
 10
19.27366239679292
 20
10.30086948151677
 30
0.0
 40
0.1989988442421132
100
AcDbArc
 50
231.5280949042412
 51
269.9990463050557
  0
ARC
  5
1D5
330
1CA
100
AcDbEntity
  8
NOKITOI
  6
PHANTOM
 62
     8
 48
5.0
100
AcDbCircle
 10
14.03099910882133
 20
12.42582797307631
 30
0.0
 40
0.9949785960395137
100
AcDbArc
 50
191.8875585738773
 51
254.4495841050105
  0
LINE
  5
1D6
330
1CA
100
AcDbEntity
  8
NOKITOI
  6
PHANTOM
 62
     8
 48
5.0
100
AcDbLine
 10
27.88425908443378
 20
1.91217063730221
 30
0.0
 11
27.88425908443378
 21
8.439470637302292
 31
0.0
  0
LINE
  5
1D7
330
1CA
100
AcDbEntity
  8
NOKITOI
  6
PHANTOM
 62
     8
 48
5.0
100
AcDbLine
 10
28.37925908443378
 20
9.296770637302074
 30
0.0
 11
27.88425908443378
 21
8.439470637302292
 31
0.0
  0
LINE
  5
1D8
330
1CA
100
AcDbEntity
  8
NOKITOI
  6
PHANTOM
 62
     8
 48
5.0
100
AcDbLine
 10
28.37925908443378
 20
9.296770637302074
 30
0.0
 11
27.52195908443377
 21
8.801870637302272
 31
0.0
  0
ARC
  5
1D9
330
1CA
100
AcDbEntity
  8
NOKITOI
  6
PHANTOM
 62
     8
 48
5.0
100
AcDbCircle
 10
21.30106274373702
 20
8.501878629181817
 30
0.0
 40
0.2999920081427447
100
AcDbArc
 50
90.00069889403098
 51
220.79672841758
  0
ARC
  5
1DA
330
1CA
100
AcDbEntity
  8
NOKITOI
  6
PHANTOM
 62
     8
 48
5.0
100
AcDbCircle
 10
10.29726428144715
 20
-0.9941399784659097
 30
0.0
 40
14.23472333170272
100
AcDbArc
 50
11.37541821407357
 51
40.79334907830751
  0
LINE
  5
1DB
330
1CA
100
AcDbEntity
  8
NOKITOI
  6
PHANTOM
 62
     8
 48
5.0
100
AcDbLine
 10
27.52195908443377
 20
8.801870637302272
 30
0.0
 11
21.30105908443386
 21
8.801870637302272
 31
0.0
  0
LINE
  5
1DC
330
1CA
100
AcDbEntity
  8
NOKITOI
  6
PHANTOM
 62
     8
 48
5.0
100
AcDbLine
 10
24.74245908443378
 20
1.412170637302097
 30
0.0
 11
27.38425908443378
 21
1.412170637302097
 31
0.0
  0
ARC
  5
1DD
330
1CA
100
AcDbEntity
  8
NOKITOI
  6
PHANTOM
 62
     8
 48
5.0
100
AcDbCircle
 10
24.74253604330567
 20
1.912189501590432
 30
0.0
 40
0.5000188648192144
100
AcDbArc
 50
191.3867288554411
 51
270.0026402191985
  0
ARC
  5
1DE
330
1CA
100
AcDbEntity
  8
NOKITOI
  6
PHANTOM
 62
     8
 48
5.0
100
AcDbCircle
 10
27.38425908443366
 20
1.91217063730221
 30
0.0
 40
0.5000000000000569
100
AcDbArc
 50
270.0000000000065
 51
0.0000000000065138
  0
LINE
  5
1DF
330
1CA
100
AcDbEntity
  8
NOKITOI
  6
PHANTOM
 62
     8
 48
5.0
100
AcDbLine
 10
0.1808590844339051
 20
41.10517063730208
 30
0.0
 11
0.1808590844339051
 21
49.11467063730208
 31
0.0
  0
ARC
  5
1E0
330
1CA
100
AcDbEntity
  8
NOKITOI
  6
PHANTOM
 62
     8
 48
5.0
100
AcDbCircle
 10
3.6160590844338
 20
47.32377063730223
 30
0.0
 40
1.492399999999918
100
AcDbArc
 50
0.0000000000021823
 51
90.00000000000218
  0
ARC
  5
1E1
330
1CA
100
AcDbEntity
  8
NOKITOI
  6
PHANTOM
 62
     8
 48
5.0
100
AcDbCircle
 10
2.966809084433748
 20
47.32372063730212
 30
0.0
 40
1.49245000083754
100
AcDbArc
 50
89.99808047909008
 51
179.99808047909
  0
LINE
  5
1E2
330
1CA
100
AcDbEntity
  8
NOKITOI
  6
PHANTOM
 62
     8
 48
5.0
100
AcDbLine
 10
6.401959084433769
 20
49.11467063730208
 30
0.0
 11
6.401959084433769
 21
44.90987063730222
 31
0.0
  0
LINE
  5
1E3
330
1CA
100
AcDbEntity
  8
NOKITOI
  6
PHANTOM
 62
     8
 48
5.0
100
AcDbLine
 10
3.464359084433908
 20
41.4036706373023
 30
0.0
 11
8.234959084433853
 21
41.4036706373023
 31
0.0
  0
LINE
  5
1E4
330
1CA
100
AcDbEntity
  8
NOKITOI
  6
PHANTOM
 62
     8
 48
5.0
100
AcDbLine
 10
7.024059084433929
 20
40.11017063730207
 30
0.0
 11
1.175859084433909
 21
40.11017063730207
 31
0.0
  0
ARC
  5
1E5
330
1CA
100
AcDbEntity
  8
NOKITOI
  6
PHANTOM
 62
     8
 48
5.0
100
AcDbCircle
 10
3.464309084433807
 20
43.39362063730232
 30
0.0
 40
1.989950000628206
100
AcDbArc
 50
180.0014396286234
 51
270.0014396286234
  0
LINE
  5
1E6
330
1CA
100
AcDbEntity
  8
NOKITOI
  6
PHANTOM
 62
     8
 48
5.0
100
AcDbLine
 10
1.474359084433785
 20
47.32377063730223
 30
0.0
 11
1.474359084433785
 21
43.39357063730221
 31
0.0
  0
ARC
  5
1E7
330
1CA
100
AcDbEntity
  8
NOKITOI
  6
PHANTOM
 62
     8
 48
5.0
100
AcDbCircle
 10
1.175859084433909
 20
41.10517063730208
 30
0.0
 40
0.9950000000000045
100
AcDbArc
 50
180.0
 51
270.0
  0
LINE
  5
1E8
330
1CA
100
AcDbEntity
  8
NOKITOI
  6
PHANTOM
 62
     8
 48
5.0
100
AcDbLine
 10
5.108559084433863
 20
44.90987063730222
 30
0.0
 11
5.108559084433863
 21
47.32377063730223
 31
0.0
  0
LINE
  5
1E9
330
1CA
100
AcDbEntity
  8
NOKITOI
  6
PHANTOM
 62
     8
 48
5.0
100
AcDbLine
 10
6.401959084433769
 20
44.90987063730222
 30
0.0
 11
5.108559084433863
 21
44.90987063730222
 31
0.0
  0
ARC
  5
1EA
330
1CA
100
AcDbEntity
  8
NOKITOI
  6
PHANTOM
 62
     8
 48
5.0
100
AcDbCircle
 10
7.024040641819624
 20
39.91118560073897
 30
0.0
 40
0.1989850374177657
100
AcDbArc
 50
11.88631382809314
 51
89.99468963106556
  0
LINE
  5
1EB
330
1CA
100
AcDbEntity
  8
NOKITOI
  6
PHANTOM
 62
     8
 48
5.0
100
AcDbLine
 10
1.175859084433909
 20
50.1096706373022
 30
0.0
 11
5.407059084433853
 21
50.1096706373022
 31
0.0
  0
ARC
  5
1EC
330
1CA
100
AcDbEntity
  8
NOKITOI
  6
PHANTOM
 62
     8
 48
5.0
100
AcDbCircle
 10
1.175859084433909
 20
49.1146706373022
 30
0.0
 40
0.9950000000000613
100
AcDbArc
 50
90.00000000000328
 51
180.0000000000032
  0
LINE
  5
1ED
330
1CA
100
AcDbEntity
  8
NOKITOI
  6
PHANTOM
 62
     8
 48
5.0
100
AcDbLine
 10
3.6160590844338
 20
48.81617063730209
 30
0.0
 11
2.966859084433849
 21
48.81617063730209
 31
0.0
  0
ARC
  5
1EE
330
1CA
100
AcDbEntity
  8
NOKITOI
  6
PHANTOM
 62
     8
 48
5.0
100
AcDbCircle
 10
5.407009084433752
 20
49.11472063730224
 30
0.0
 40
0.9949500012563332
100
AcDbArc
 50
359.9971206704048
 51
89.99712067040489
  0
LINE
  5
1EF
330
1CA
100
AcDbEntity
  8
NOKITOI
  6
PHANTOM
 62
     8
 48
5.0
100
AcDbLine
 10
85.18155908443374
 20
10.10157063730207
 30
0.0
 11
95.16205908443373
 21
10.10147063730221
 31
0.0
  0
ARC
  5
1F0
330
1CA
100
AcDbEntity
  8
NOKITOI
  6
PHANTOM
 62
     8
 48
5.0
100
AcDbCircle
 10
104.068453551022
 20
-0.9942356029631582
 30
0.0
 40
12.93461262833301
100
AcDbArc
 50
105.5476727870198
 51
171.3237222126366
  0
ARC
  5
1F1
330
1CA
100
AcDbEntity
  8
NOKITOI
  6
PHANTOM
 62
     8
 48
5.0
100
AcDbCircle
 10
104.0683479281129
 20
-0.994141944171929
 30
0.0
 40
12.93449408578155
100
AcDbArc
 50
105.5473332353544
 51
171.3240617643019
  0
LINE
  5
1F2
330
1CA
100
AcDbEntity
  8
NOKITOI
  6
PHANTOM
 62
     8
 48
5.0
100
AcDbLine
 10
29.38325908443392
 20
1.405570637302162
 30
0.0
 11
84.98245908443392
 21
1.405470637302073
 31
0.0
  0
ARC
  5
1F3
330
1CA
100
AcDbEntity
  8
NOKITOI
  6
PHANTOM
 62
     8
 48
5.0
100
AcDbCircle
 10
29.38325908443392
 20
1.604570637302231
 30
0.0
 40
0.1990000000000691
100
AcDbArc
 50
179.9999999999836
 51
269.9999999999836
  0
LINE
  5
1F4
330
1CA
100
AcDbEntity
  8
NOKITOI
  6
PHANTOM
 62
     8
 48
5.0
100
AcDbLine
 10
29.18425908443385
 20
1.604570637302231
 30
0.0
 11
29.18435908443393
 21
10.10187063730222
 31
0.0
  0
LINE
  5
1F5
330
1CA
100
AcDbEntity
  8
NOKITOI
  6
PHANTOM
 62
     8
 48
5.0
100
AcDbLine
 10
80.98245908443391
 20
1.405470637302073
 30
0.0
 11
66.22805908443377
 21
1.405470637302073
 31
0.0
  0
ARC
  5
1F6
330
1CA
100
AcDbEntity
  8
NOKITOI
  6
PHANTOM
 62
     8
 48
5.0
100
AcDbCircle
 10
90.2982090125298
 20
1.107113524900853
 30
0.0
 40
0.9950428888512103
100
AcDbArc
 50
269.9971250795227
 51
351.3214426795068
  0
LINE
  5
1F7
330
1CA
100
AcDbEntity
  8
NOKITOI
  6
PHANTOM
 62
     8
 48
5.0
100
AcDbLine
 10
85.98655908443367
 20
9.296470637302149
 30
0.0
 11
86.4815590844339
 21
8.43917063730214
 31
0.0
  0
LINE
  5
1F8
330
1CA
100
AcDbEntity
  8
NOKITOI
  6
PHANTOM
 62
     8
 48
5.0
100
AcDbLine
 10
85.98655908443367
 20
9.296470637302149
 30
0.0
 11
86.84385908443392
 21
8.801470637302145
 31
0.0
  0
ARC
  5
1F9
330
1CA
100
AcDbEntity
  8
NOKITOI
  6
PHANTOM
 62
     8
 48
5.0
100
AcDbCircle
 10
84.98240908443381
 20
1.604520637302186
 30
0.0
 40
0.1990500062799141
100
AcDbArc
 50
270.0143923080611
 51
0.014392308061115
  0
LINE
  5
1FA
330
1CA
100
AcDbEntity
  8
NOKITOI
  6
PHANTOM
 62
     8
 48
5.0
100
AcDbLine
 10
85.18145908443386
 20
1.604570637302231
 30
0.0
 11
85.18155908443374
 21
10.10157063730207
 31
0.0
  0
LINE
  5
1FB
330
1CA
100
AcDbEntity
  8
NOKITOI
  6
PHANTOM
 62
     8
 48
5.0
100
AcDbLine
 10
86.4815590844339
 20
8.43917063730214
 30
0.0
 11
86.4815590844339
 21
1.912070637302122
 31
0.0
  0
ARC
  5
1FC
330
1CA
100
AcDbEntity
  8
NOKITOI
  6
PHANTOM
 62
     8
 48
5.0
100
AcDbCircle
 10
104.0684175391246
 20
-0.9943142272541081
 30
0.0
 40
14.23462403148678
100
AcDbArc
 50
139.2075062369005
 51
168.6237859483839
  0
LINE
  5
1FD
330
1CA
100
AcDbEntity
  8
NOKITOI
  6
PHANTOM
 62
     8
 48
5.0
100
AcDbLine
 10
93.06445908443368
 20
8.801470637302145
 30
0.0
 11
86.84385908443392
 21
8.801470637302145
 31
0.0
  0
ARC
  5
1FE
330
1CA
100
AcDbEntity
  8
NOKITOI
  6
PHANTOM
 62
     8
 48
5.0
100
AcDbCircle
 10
93.06447276228515
 20
8.501440773608294
 30
0.0
 40
0.3000298640056128
100
AcDbArc
 50
319.2190584222776
 51
90.00261201719956
  0
LINE
  5
1FF
330
1CA
100
AcDbEntity
  8
NOKITOI
  6
PHANTOM
 62
     8
 48
5.0
100
AcDbLine
 10
89.62325908443393
 20
1.412070637302235
 30
0.0
 11
86.98155908443391
 21
1.412070637302235
 31
0.0
  0
ARC
  5
200
330
1CA
100
AcDbEntity
  8
NOKITOI
  6
PHANTOM
 62
     8
 48
5.0
100
AcDbCircle
 10
86.9815590844338
 20
1.912070637302235
 30
0.0
 40
0.4999999999999432
100
AcDbArc
 50
180.0000000000065
 51
270.0000000000065
  0
ARC
  5
201
330
1CA
100
AcDbEntity
  8
NOKITOI
  6
PHANTOM
 62
     8
 48
5.0
100
AcDbCircle
 10
89.62328212556213
 20
1.912089501590457
 30
0.0
 40
0.5000188648190603
100
AcDbArc
 50
269.9973597808039
 51
348.6132711445602
  0
LINE
  5
202
330
1CA
100
AcDbEntity
  8
NOKITOI
  6
PHANTOM
 62
     8
 48
5.0
100
AcDbLine
 10
100.1997590844339
 20
13.23317063730223
 30
0.0
 11
105.6547590844337
 21
39.14207063730214
 31
0.0
  0
LINE
  5
203
330
1CA
100
AcDbEntity
  8
NOKITOI
  6
PHANTOM
 62
     8
 48
5.0
100
AcDbLine
 10
101.3084590844339
 20
12.22067063730207
 30
0.0
 11
107.1471590844337
 21
39.95207063730208
 31
0.0
  0
ARC
  5
204
330
1CA
100
AcDbEntity
  8
NOKITOI
  6
PHANTOM
 62
     8
 48
5.0
100
AcDbCircle
 10
99.22620265398496
 20
13.43821958907108
 30
0.0
 40
0.9950135261271753
100
AcDbArc
 50
288.5445751594487
 51
348.1074736523478
  0
ARC
  5
205
330
1CA
100
AcDbEntity
  8
NOKITOI
  6
PHANTOM
 62
     8
 48
5.0
100
AcDbCircle
 10
104.0684735879824
 20
-0.9942214385093848
 30
0.0
 40
14.22809199964113
100
AcDbArc
 50
108.5474584936555
 51
128.7537062451648
  0
ARC
  5
206
330
1CA
100
AcDbEntity
  8
NOKITOI
  6
PHANTOM
 62
     8
 48
5.0
100
AcDbCircle
 10
100.334833421286
 20
12.42574988868966
 30
0.0
 40
0.9949690575286499
100
AcDbArc
 50
285.5437330810338
 51
348.1110361155302
  0
LINE
  5
207
330
1CA
100
AcDbEntity
  8
NOKITOI
  6
PHANTOM
 62
     8
 48
5.0
100
AcDbLine
 10
112.8850590844339
 20
41.40997063730208
 30
0.0
 11
107.4607590844339
 21
41.41007063730216
 31
0.0
  0
LINE
  5
208
330
1CA
100
AcDbEntity
  8
NOKITOI
  6
PHANTOM
 62
     8
 48
5.0
100
AcDbLine
 10
113.1900590844338
 20
50.10957063730223
 30
0.0
 11
107.9863590844338
 21
50.10947063730213
 31
0.0
  0
LINE
  5
209
330
1CA
100
AcDbEntity
  8
NOKITOI
  6
PHANTOM
 62
     8
 48
5.0
100
AcDbLine
 10
112.8850590844339
 20
48.80947063730229
 30
0.0
 11
109.0186590844336
 21
48.80947063730229
 31
0.0
  0
LINE
  5
20A
330
1CA
100
AcDbEntity
  8
NOKITOI
  6
PHANTOM
 62
     8
 48
5.0
100
AcDbLine
 10
107.3418590844337
 20
40.10997063730224
 30
0.0
 11
113.1900590844338
 21
40.10997063730224
 31
0.0
  0
LINE
  5
20B
330
1CA
100
AcDbEntity
  8
NOKITOI
  6
PHANTOM
 62
     8
 48
5.0
100
AcDbLine
 10
109.0186590844336
 20
48.80947063730229
 30
0.0
 11
107.4607590844339
 21
41.41007063730216
 31
0.0
  0
LINE
  5
20C
330
1CA
100
AcDbEntity
  8
NOKITOI
  6
PHANTOM
 62
     8
 48
5.0
100
AcDbLine
 10
105.6547590844337
 20
39.14207063730214
 30
0.0
 11
107.9638590844336
 21
50.10947063730213
 31
0.0
  0
ARC
  5
20D
330
1CA
100
AcDbEntity
  8
NOKITOI
  6
PHANTOM
 62
     8
 48
5.0
100
AcDbCircle
 10
107.341877527048
 20
39.91108560073894
 30
0.0
 40
0.1989850374179911
100
AcDbArc
 50
90.00531036897127
 51
168.1136861719432
  0
LINE
  5
20E
330
1CA
100
AcDbEntity
  8
NOKITOI
  6
PHANTOM
 62
     8
 48
5.0
100
AcDbLine
 10
114.1850590844338
 20
41.10497063730213
 30
0.0
 11
114.1850590844338
 21
49.1145706373021
 31
0.0
  0
LINE
  5
20F
330
1CA
100
AcDbEntity
  8
NOKITOI
  6
PHANTOM
 62
     8
 48
5.0
100
AcDbLine
 10
112.8850590844339
 20
41.40997063730208
 30
0.0
 11
112.8850590844339
 21
48.80947063730229
 31
0.0
  0
ARC
  5
210
330
1CA
100
AcDbEntity
  8
NOKITOI
  6
PHANTOM
 62
     8
 48
5.0
100
AcDbCircle
 10
113.1900590844339
 20
41.10497063730218
 30
0.0
 40
0.9949999999999192
100
AcDbArc
 50
269.9999999999951
 51
359.9999999999951
  0
ARC
  5
211
330
1CA
100
AcDbEntity
  8
NOKITOI
  6
PHANTOM
 62
     8
 48
5.0
100
AcDbCircle
 10
113.1900590844338
 20
49.11457063730222
 30
0.0
 40
0.9950000000000613
100
AcDbArc
 50
359.9999999999967
 51
89.99999999999673
  0
ENDBLK
  5
213
330
1CA
100
AcDbEntity
  8
0
100
AcDbBlockEnd
  0
BLOCK
  5
88E
330
65D
100
AcDbEntity
  8
0
100
AcDbBlockBegin
  2
*D2
 70
     1
 10
0.0
 20
0.0
 30
0.0
  3
*D2
  1

  0
LINE
  5
88F
330
65D
100
AcDbEntity
  8
0
  6
BYBLOCK
 62
     4
100
AcDbLine
 10
600.8779070520778
 20
293.9729727756749
 30
0.0
 11
577.9548957303689
 21
293.9729727756749
 31
0.0
  0
LINE
  5
890
330
65D
100
AcDbEntity
  8
0
  6
BYBLOCK
 62
     4
100
AcDbLine
 10
600.8778403854111
 20
273.9729727756749
 30
0.0
 11
577.9548957303689
 21
273.9729727756749
 31
0.0
  0
LINE
  5
891
330
65D
100
AcDbEntity
  8
0
  6
BYBLOCK
 62
     4
100
AcDbLine
 10
580.954895730369
 20
300.9729727756749
 30
0.0
 11
580.954895730369
 21
307.9729727756749
 31
0.0
  0
LINE
  5
892
330
65D
100
AcDbEntity
  8
0
  6
BYBLOCK
 62
     4
100
AcDbLine
 10
580.954895730369
 20
266.9729727756749
 30
0.0
 11
580.954895730369
 21
259.9729727756749
 31
0.0
  0
LINE
  5
893
330
65D
100
AcDbEntity
  8
0
  6
BYBLOCK
 62
     4
100
AcDbLine
 10
580.954895730369
 20
293.9729727756749
 30
0.0
 11
580.954895730369
 21
273.9729727756749
 31
0.0
  0
INSERT
  5
894
330
65D
100
AcDbEntity
  8
0
  6
BYBLOCK
 62
     4
100
AcDbBlockReference
  2
_OPEN
 10
580.954895730369
 20
293.9729727756749
 30
0.0
 41
7.0
 42
7.0
 43
7.0
 50
270.0
  0
INSERT
  5
895
330
65D
100
AcDbEntity
  8
0
  6
BYBLOCK
 62
     4
100
AcDbBlockReference
  2
_OPEN
 10
580.954895730369
 20
273.9729727756749
 30
0.0
 41
7.0
 42
7.0
 43
7.0
 50
90.0
  0
MTEXT
  5
896
330
65D
100
AcDbEntity
  8
0
  6
BYBLOCK
 62
     4
100
AcDbMText
 10
575.954895730369
 20
283.9729727756749
 30
0.0
 40
6.0
 41
0.0
 71
     5
 72
     5
  1
\A1;20
 11
0.0
 21
1.0
 31
0.0
1001
ACAD
1000
MTEXTBEGIN
1070
    73
1070
     1
1070
    44
1040
1.0
1070
    74
1070
     0
1000
MTEXTEND
1000
MTEXTBEGIN
1070
    73
1070
     1
1070
    44
1040
1.0
1070
    74
1070
     0
1000
MTEXTEND
1000
MTEXTBEGIN
1070
    73
1070
     1
1070
    44
1040
1.0
1070
    74
1070
     0
1000
MTEXTEND
  0
POINT
  5
897
330
65D
100
AcDbEntity
  8
DEFPOINTS
  6
BYBLOCK
 62
     0
100
AcDbPoint
 10
606.8779070520778
 20
293.9729727756749
 30
0.0
  0
POINT
  5
898
330
65D
100
AcDbEntity
  8
DEFPOINTS
  6
BYBLOCK
 62
     0
100
AcDbPoint
 10
606.8778403854111
 20
273.9729727756749
 30
0.0
  0
POINT
  5
899
330
65D
100
AcDbEntity
  8
DEFPOINTS
  6
BYBLOCK
 62
     0
100
AcDbPoint
 10
580.954895730369
 20
273.9729727756749
 30
0.0
  0
ENDBLK
  5
89A
330
65D
100
AcDbEntity
  8
0
100
AcDbBlockEnd
  0
BLOCK
  5
8BC
330
66B
100
AcDbEntity
  8
0
100
AcDbBlockBegin
  2
*D3
 70
     1
 10
0.0
 20
0.0
 30
0.0
  3
*D3
  1

  0
LINE
  5
8BD
330
66B
100
AcDbEntity
  8
0
  6
BYBLOCK
 62
     4
100
AcDbLine
 10
666.8779237187444
 20
304.9727727756749
 30
0.0
 11
666.8779237187444
 21
339.7126417885575
 31
0.0
  0
LINE
  5
8BE
330
66B
100
AcDbEntity
  8
0
  6
BYBLOCK
 62
     4
100
AcDbLine
 10
606.8779237187444
 20
304.9729727756749
 30
0.0
 11
606.8779237187444
 21
339.7126417885575
 31
0.0
  0
LINE
  5
8BF
330
66B
100
AcDbEntity
  8
0
  6
BYBLOCK
 62
     4
100
AcDbLine
 10
659.8779237187444
 20
336.7126417885575
 30
0.0
 11
613.8779237187444
 21
336.7126417885575
 31
0.0
  0
INSERT
  5
8C0
330
66B
100
AcDbEntity
  8
0
  6
BYBLOCK
 62
     4
100
AcDbBlockReference
  2
_OPEN
 10
666.8779237187444
 20
336.7126417885575
 30
0.0
 41
7.0
 42
7.0
 43
7.0
  0
INSERT
  5
8C1
330
66B
100
AcDbEntity
  8
0
  6
BYBLOCK
 62
     4
100
AcDbBlockReference
  2
_OPEN
 10
606.8779237187444
 20
336.7126417885575
 30
0.0
 41
7.0
 42
7.0
 43
7.0
 50
180.0
  0
MTEXT
  5
8C2
330
66B
100
AcDbEntity
  8
0
  6
BYBLOCK
 62
     4
100
AcDbMText
 10
636.8779237187444
 20
341.7126417885575
 30
0.0
 40
6.0
 41
0.0
 71
     5
 72
     5
  1
\A1;60
1001
ACAD
1000
MTEXTBEGIN
1070
    73
1070
     1
1070
    44
1040
1.0
1070
    74
1070
     0
1000
MTEXTEND
1000
MTEXTBEGIN
1070
    73
1070
     1
1070
    44
1040
1.0
1070
    74
1070
     0
1000
MTEXTEND
1000
MTEXTBEGIN
1070
    73
1070
     1
1070
    44
1040
1.0
1070
    74
1070
     0
1000
MTEXTEND
  0
POINT
  5
8C3
330
66B
100
AcDbEntity
  8
DEFPOINTS
  6
BYBLOCK
 62
     0
100
AcDbPoint
 10
666.8779237187444
 20
298.9727727756749
 30
0.0
  0
POINT
  5
8C4
330
66B
100
AcDbEntity
  8
DEFPOINTS
  6
BYBLOCK
 62
     0
100
AcDbPoint
 10
606.8779237187444
 20
298.9729727756749
 30
0.0
  0
POINT
  5
8C5
330
66B
100
AcDbEntity
  8
DEFPOINTS
  6
BYBLOCK
 62
     0
100
AcDbPoint
 10
606.8779237187444
 20
336.7126417885575
 30
0.0
  0
ENDBLK
  5
8C6
330
66B
100
AcDbEntity
  8
0
100
AcDbBlockEnd
  0
BLOCK
  5
8B1
330
677
100
AcDbEntity
  8
0
100
AcDbBlockBegin
  2
*D4
 70
     1
 10
0.0
 20
0.0
 30
0.0
  3
*D4
  1

  0
LINE
  5
8B2
330
677
100
AcDbEntity
  8
0
  6
BYBLOCK
 62
     4
100
AcDbLine
 10
661.8779304796935
 20
304.972789442319
 30
0.0
 11
661.8779304796935
 21
324.0066140698548
 31
0.0
  0
LINE
  5
8B3
330
677
100
AcDbEntity
  8
0
  6
BYBLOCK
 62
     4
100
AcDbLine
 10
611.8779304799462
 20
304.9729561089857
 30
0.0
 11
611.8779304799462
 21
324.0066140698548
 31
0.0
  0
LINE
  5
8B4
330
677
100
AcDbEntity
  8
0
  6
BYBLOCK
 62
     4
100
AcDbLine
 10
654.8779304796935
 20
321.0066140698549
 30
0.0
 11
618.8779304799462
 21
321.0066140698549
 31
0.0
  0
INSERT
  5
8B5
330
677
100
AcDbEntity
  8
0
  6
BYBLOCK
 62
     4
100
AcDbBlockReference
  2
_OPEN
 10
661.8779304796935
 20
321.0066140698549
 30
0.0
 41
7.0
 42
7.0
 43
7.0
  0
INSERT
  5
8B6
330
677
100
AcDbEntity
  8
0
  6
BYBLOCK
 62
     4
100
AcDbBlockReference
  2
_OPEN
 10
611.8779304799462
 20
321.0066140698549
 30
0.0
 41
7.0
 42
7.0
 43
7.0
 50
180.0
  0
MTEXT
  5
8B7
330
677
100
AcDbEntity
  8
0
  6
BYBLOCK
 62
     4
100
AcDbMText
 10
636.8779304798199
 20
326.0066140698548
 30
0.0
 40
6.0
 41
0.0
 71
     5
 72
     5
  1
\A1;50
1001
ACAD
1000
MTEXTBEGIN
1070
    73
1070
     1
1070
    44
1040
1.0
1070
    74
1070
     0
1000
MTEXTEND
1000
MTEXTBEGIN
1070
    73
1070
     1
1070
    44
1040
1.0
1070
    74
1070
     0
1000
MTEXTEND
1000
MTEXTBEGIN
1070
    73
1070
     1
1070
    44
1040
1.0
1070
    74
1070
     0
1000
MTEXTEND
  0
POINT
  5
8B8
330
677
100
AcDbEntity
  8
DEFPOINTS
  6
BYBLOCK
 62
     0
100
AcDbPoint
 10
661.8779304796935
 20
298.972789442319
 30
0.0
  0
POINT
  5
8B9
330
677
100
AcDbEntity
  8
DEFPOINTS
  6
BYBLOCK
 62
     0
100
AcDbPoint
 10
611.8779304799462
 20
298.9729561089857
 30
0.0
  0
POINT
  5
8BA
330
677
100
AcDbEntity
  8
DEFPOINTS
  6
BYBLOCK
 62
     0
100
AcDbPoint
 10
611.8779304799462
 20
321.0066140698549
 30
0.0
  0
ENDBLK
  5
8BB
330
677
100
AcDbEntity
  8
0
100
AcDbBlockEnd
  0
BLOCK
  5
89B
330
683
100
AcDbEntity
  8
0
100
AcDbBlockBegin
  2
*D5
 70
     1
 10
0.0
 20
0.0
 30
0.0
  3
*D5
  1

  0
LINE
  5
89C
330
683
100
AcDbEntity
  8
0
  6
BYBLOCK
 62
     4
100
AcDbLine
 10
600.8779237187444
 20
298.9729727756749
 30
0.0
 11
561.5374492823519
 21
298.9729727756749
 31
0.0
  0
LINE
  5
89D
330
683
100
AcDbEntity
  8
0
  6
BYBLOCK
 62
     4
100
AcDbLine
 10
600.8778237187445
 20
268.9729727756749
 30
0.0
 11
561.5374492823519
 21
268.9729727756749
 31
0.0
  0
LINE
  5
89E
330
683
100
AcDbEntity
  8
0
  6
BYBLOCK
 62
     4
100
AcDbLine
 10
564.537449282352
 20
291.9729727756749
 30
0.0
 11
564.537449282352
 21
275.9729727756749
 31
0.0
  0
INSERT
  5
89F
330
683
100
AcDbEntity
  8
0
  6
BYBLOCK
 62
     4
100
AcDbBlockReference
  2
_OPEN
 10
564.537449282352
 20
298.9729727756749
 30
0.0
 41
7.0
 42
7.0
 43
7.0
 50
90.0
  0
INSERT
  5
8A0
330
683
100
AcDbEntity
  8
0
  6
BYBLOCK
 62
     4
100
AcDbBlockReference
  2
_OPEN
 10
564.537449282352
 20
268.9729727756749
 30
0.0
 41
7.0
 42
7.0
 43
7.0
 50
270.0
  0
MTEXT
  5
8A1
330
683
100
AcDbEntity
  8
0
  6
BYBLOCK
 62
     4
100
AcDbMText
 10
559.537449282352
 20
283.9729727756749
 30
0.0
 40
6.0
 41
0.0
 71
     5
 72
     5
  1
\A1;30
 11
0.0
 21
1.0
 31
0.0
1001
ACAD
1000
MTEXTBEGIN
1070
    73
1070
     1
1070
    44
1040
1.0
1070
    74
1070
     0
1000
MTEXTEND
1000
MTEXTBEGIN
1070
    73
1070
     1
1070
    44
1040
1.0
1070
    74
1070
     0
1000
MTEXTEND
1000
MTEXTBEGIN
1070
    73
1070
     1
1070
    44
1040
1.0
1070
    74
1070
     0
1000
MTEXTEND
  0
POINT
  5
8A2
330
683
100
AcDbEntity
  8
DEFPOINTS
  6
BYBLOCK
 62
     0
100
AcDbPoint
 10
606.8779237187444
 20
298.9729727756749
 30
0.0
  0
POINT
  5
8A3
330
683
100
AcDbEntity
  8
DEFPOINTS
  6
BYBLOCK
 62
     0
100
AcDbPoint
 10
606.8778237187444
 20
268.9729727756749
 30
0.0
  0
POINT
  5
8A4
330
683
100
AcDbEntity
  8
DEFPOINTS
  6
BYBLOCK
 62
     0
100
AcDbPoint
 10
564.537449282352
 20
268.9729727756749
 30
0.0
  0
ENDBLK
  5
8A5
330
683
100
AcDbEntity
  8
0
100
AcDbBlockEnd
  0
BLOCK
  5
876
330
6BF
100
AcDbEntity
  8
0
100
AcDbBlockBegin
  2
*D6
 70
     1
 10
0.0
 20
0.0
 30
0.0
  3
*D6
  1

  0
LINE
  5
877
330
6BF
100
AcDbEntity
  8
0
  6
BYBLOCK
 62
     4
100
AcDbLine
 10
438.6630442024556
 20
263.6280227756042
 30
0.0
 11
438.6630442024556
 21
339.8699582694666
 31
0.0
  0
LINE
  5
878
330
6BF
100
AcDbEntity
  8
0
  6
BYBLOCK
 62
     4
100
AcDbLine
 10
483.1715708852789
 20
304.6257727756042
 30
0.0
 11
483.1715708852789
 21
339.8699582694666
 31
0.0
  0
LINE
  5
879
330
6BF
100
AcDbEntity
  8
0
  6
BYBLOCK
 62
     4
100
AcDbLine
 10
445.6630442024557
 20
336.8699582694667
 30
0.0
 11
476.1715708852789
 21
336.8699582694667
 31
0.0
  0
INSERT
  5
87A
330
6BF
100
AcDbEntity
  8
0
  6
BYBLOCK
 62
     4
100
AcDbBlockReference
  2
_OPEN
 10
438.6630442024556
 20
336.8699582694667
 30
0.0
 41
7.0
 42
7.0
 43
7.0
 50
180.0
  0
INSERT
  5
87B
330
6BF
100
AcDbEntity
  8
0
  6
BYBLOCK
 62
     4
100
AcDbBlockReference
  2
_OPEN
 10
483.1715708852789
 20
336.8699582694667
 30
0.0
 41
7.0
 42
7.0
 43
7.0
  0
MTEXT
  5
87C
330
6BF
100
AcDbEntity
  8
0
  6
BYBLOCK
 62
     4
100
AcDbMText
 10
460.9173075438673
 20
341.8699582694666
 30
0.0
 40
6.0
 41
0.0
 71
     5
 72
     5
  1
\A1;45
1001
ACAD
1000
MTEXTBEGIN
1070
    73
1070
     1
1070
    44
1040
1.0
1070
    74
1070
     0
1000
MTEXTEND
1000
MTEXTBEGIN
1070
    73
1070
     1
1070
    44
1040
1.0
1070
    74
1070
     0
1000
MTEXTEND
1000
MTEXTBEGIN
1070
    73
1070
     1
1070
    44
1040
1.0
1070
    74
1070
     0
1000
MTEXTEND
  0
POINT
  5
87D
330
6BF
100
AcDbEntity
  8
DEFPOINTS
  6
BYBLOCK
 62
     0
100
AcDbPoint
 10
438.6630442024556
 20
257.6280227756043
 30
0.0
  0
POINT
  5
87E
330
6BF
100
AcDbEntity
  8
DEFPOINTS
  6
BYBLOCK
 62
     0
100
AcDbPoint
 10
483.1715708852789
 20
298.6257727756042
 30
0.0
  0
POINT
  5
87F
330
6BF
100
AcDbEntity
  8
DEFPOINTS
  6
BYBLOCK
 62
     0
100
AcDbPoint
 10
483.1715708852789
 20
336.8699582694667
 30
0.0
  0
ENDBLK
  5
880
330
6BF
100
AcDbEntity
  8
0
100
AcDbBlockEnd
  0
BLOCK
  5
6D9
330
6D8
100
AcDbEntity
  8
0
100
AcDbBlockBegin
  2
*D7
 70
     1
 10
0.0
 20
0.0
 30
0.0
  3
*D7
  1

  0
LINE
  5
6DA
330
6D8
100
AcDbEntity
  8
0
  6
BYBLOCK
 62
     4
100
AcDbLine
 10
489.1615708852789
 20
423.6257727756043
 30
0.0
 11
513.7640890807055
 21
423.6257727756043
 31
0.0
  0
LINE
  5
6DB
330
6D8
100
AcDbEntity
  8
0
  6
BYBLOCK
 62
     4
100
AcDbLine
 10
489.1615708852789
 20
363.6251727756043
 30
0.0
 11
513.7640890807055
 21
363.6251727756043
 31
0.0
  0
LINE
  5
6DC
330
6D8
100
AcDbEntity
  8
0
  6
BYBLOCK
 62
     4
100
AcDbLine
 10
510.7640890807056
 20
416.6257727756042
 30
0.0
 11
510.7640890807056
 21
370.6251727756043
 31
0.0
  0
INSERT
  5
6DD
330
6D8
100
AcDbEntity
  8
0
  6
BYBLOCK
 62
     4
100
AcDbBlockReference
  2
_OPEN
 10
510.7640890807056
 20
423.6257727756043
 30
0.0
 41
7.0
 42
7.0
 43
7.0
 50
90.0
  0
INSERT
  5
6DE
330
6D8
100
AcDbEntity
  8
0
  6
BYBLOCK
 62
     4
100
AcDbBlockReference
  2
_OPEN
 10
510.7640890807056
 20
363.6251727756043
 30
0.0
 41
7.0
 42
7.0
 43
7.0
 50
270.0
  0
MTEXT
  5
6DF
330
6D8
100
AcDbEntity
  8
0
  6
BYBLOCK
 62
     4
100
AcDbMText
 10
505.7640890807056
 20
393.6254727756042
 30
0.0
 40
6.0
 41
0.0
 71
     5
 72
     5
  1
\A1;60
 11
0.0
 21
1.0
 31
0.0
1001
ACAD
1000
MTEXTBEGIN
1070
    73
1070
     1
1070
    44
1040
1.0
1070
    74
1070
     0
1000
MTEXTEND
1000
MTEXTBEGIN
1070
    73
1070
     1
1070
    44
1040
1.0
1070
    74
1070
     0
1000
MTEXTEND
1000
MTEXTBEGIN
1070
    73
1070
     1
1070
    44
1040
1.0
1070
    74
1070
     0
1000
MTEXTEND
  0
POINT
  5
6E0
330
6D8
100
AcDbEntity
  8
DEFPOINTS
  6
BYBLOCK
 62
     0
100
AcDbPoint
 10
483.1615708852789
 20
423.6257727756043
 30
0.0
  0
POINT
  5
6E1
330
6D8
100
AcDbEntity
  8
DEFPOINTS
  6
BYBLOCK
 62
     0
100
AcDbPoint
 10
483.1615708852789
 20
363.6251727756043
 30
0.0
  0
POINT
  5
6E2
330
6D8
100
AcDbEntity
  8
DEFPOINTS
  6
BYBLOCK
 62
     0
100
AcDbPoint
 10
510.7640890807056
 20
363.6251727756043
 30
0.0
  0
ENDBLK
  5
6E3
330
6D8
100
AcDbEntity
  8
0
100
AcDbBlockEnd
  0
BLOCK
  5
81D
330
6E5
100
AcDbEntity
  8
0
100
AcDbBlockBegin
  2
*D8
 70
     1
 10
0.0
 20
0.0
 30
0.0
  3
*D8
  1

  0
LINE
  5
81E
330
6E5
100
AcDbEntity
  8
0
  6
BYBLOCK
 62
     4
100
AcDbLine
 10
317.8614929850789
 20
406.1254727756043
 30
0.0
 11
282.2835668830671
 21
406.1254727756043
 31
0.0
  0
LINE
  5
81F
330
6E5
100
AcDbEntity
  8
0
  6
BYBLOCK
 62
     4
100
AcDbLine
 10
317.8614929850789
 20
381.1254727756043
 30
0.0
 11
282.2835668830671
 21
381.1254727756043
 31
0.0
  0
LINE
  5
820
330
6E5
100
AcDbEntity
  8
0
  6
BYBLOCK
 62
     4
100
AcDbLine
 10
285.2835668830671
 20
413.1254727756043
 30
0.0
 11
285.2835668830671
 21
420.1254727756043
 31
0.0
  0
LINE
  5
821
330
6E5
100
AcDbEntity
  8
0
  6
BYBLOCK
 62
     4
100
AcDbLine
 10
285.2835668830671
 20
374.1254727756043
 30
0.0
 11
285.2835668830671
 21
367.1254727756043
 31
0.0
  0
LINE
  5
822
330
6E5
100
AcDbEntity
  8
0
  6
BYBLOCK
 62
     4
100
AcDbLine
 10
285.2835668830671
 20
406.1254727756043
 30
0.0
 11
285.2835668830671
 21
381.1254727756043
 31
0.0
  0
INSERT
  5
823
330
6E5
100
AcDbEntity
  8
0
  6
BYBLOCK
 62
     4
100
AcDbBlockReference
  2
_OPEN
 10
285.2835668830671
 20
406.1254727756043
 30
0.0
 41
7.0
 42
7.0
 43
7.0
 50
270.0
  0
INSERT
  5
824
330
6E5
100
AcDbEntity
  8
0
  6
BYBLOCK
 62
     4
100
AcDbBlockReference
  2
_OPEN
 10
285.2835668830671
 20
381.1254727756043
 30
0.0
 41
7.0
 42
7.0
 43
7.0
 50
90.0
  0
MTEXT
  5
825
330
6E5
100
AcDbEntity
  8
0
  6
BYBLOCK
 62
     4
100
AcDbMText
 10
280.2835668830671
 20
393.6254727756043
 30
0.0
 40
6.0
 41
0.0
 71
     5
 72
     5
  1
\A1;25
 11
0.0
 21
1.0
 31
0.0
1001
ACAD
1000
MTEXTBEGIN
1070
    73
1070
     1
1070
    44
1040
1.0
1070
    74
1070
     0
1000
MTEXTEND
1000
MTEXTBEGIN
1070
    73
1070
     1
1070
    44
1040
1.0
1070
    74
1070
     0
1000
MTEXTEND
1000
MTEXTBEGIN
1070
    73
1070
     1
1070
    44
1040
1.0
1070
    74
1070
     0
1000
MTEXTEND
  0
POINT
  5
826
330
6E5
100
AcDbEntity
  8
DEFPOINTS
  6
BYBLOCK
 62
     0
100
AcDbPoint
 10
323.8614929850789
 20
406.1254727756043
 30
0.0
  0
POINT
  5
827
330
6E5
100
AcDbEntity
  8
DEFPOINTS
  6
BYBLOCK
 62
     0
100
AcDbPoint
 10
323.8614929850789
 20
381.1254727756043
 30
0.0
  0
POINT
  5
828
330
6E5
100
AcDbEntity
  8
DEFPOINTS
  6
BYBLOCK
 62
     0
100
AcDbPoint
 10
285.2835668830671
 20
381.1254727756043
 30
0.0
  0
ENDBLK
  5
829
330
6E5
100
AcDbEntity
  8
0
100
AcDbBlockEnd
  0
BLOCK
  5
8CD
330
6F4
100
AcDbEntity
  8
0
100
AcDbBlockBegin
  2
*D9
 70
     1
 10
0.0
 20
0.0
 30
0.0
  3
*D9
  1

  0
LINE
  5
8CE
330
6F4
100
AcDbEntity
  8
0
  6
BYBLOCK
 62
     4
100
AcDbLine
 10
489.1715708852789
 20
298.6257727756042
 30
0.0
 11
517.1742008566105
 21
298.6257727756042
 31
0.0
  0
LINE
  5
8CF
330
6F4
100
AcDbEntity
  8
0
  6
BYBLOCK
 62
     4
100
AcDbLine
 10
489.1721820859499
 20
268.62577277584
 30
0.0
 11
517.1742008566105
 21
268.62577277584
 31
0.0
  0
LINE
  5
8D0
330
6F4
100
AcDbEntity
  8
0
  6
BYBLOCK
 62
     4
100
AcDbLine
 10
514.1742008566104
 20
291.6257727756042
 30
0.0
 11
514.1742008566104
 21
275.62577277584
 31
0.0
  0
INSERT
  5
8D1
330
6F4
100
AcDbEntity
  8
0
  6
BYBLOCK
 62
     4
100
AcDbBlockReference
  2
_OPEN
 10
514.1742008566104
 20
298.6257727756042
 30
0.0
 41
7.0
 42
7.0
 43
7.0
 50
90.0
  0
INSERT
  5
8D2
330
6F4
100
AcDbEntity
  8
0
  6
BYBLOCK
 62
     4
100
AcDbBlockReference
  2
_OPEN
 10
514.1742008566104
 20
268.62577277584
 30
0.0
 41
7.0
 42
7.0
 43
7.0
 50
270.0
  0
MTEXT
  5
8D3
330
6F4
100
AcDbEntity
  8
0
  6
BYBLOCK
 62
     4
100
AcDbMText
 10
509.1742008566105
 20
283.6257727757221
 30
0.0
 40
6.0
 41
0.0
 71
     5
 72
     5
  1
\A1;30
 11
0.0
 21
1.0
 31
0.0
1001
ACAD
1000
MTEXTBEGIN
1070
    73
1070
     1
1070
    44
1040
1.0
1070
    74
1070
     0
1000
MTEXTEND
1000
MTEXTBEGIN
1070
    73
1070
     1
1070
    44
1040
1.0
1070
    74
1070
     0
1000
MTEXTEND
1000
MTEXTBEGIN
1070
    73
1070
     1
1070
    44
1040
1.0
1070
    74
1070
     0
1000
MTEXTEND
  0
POINT
  5
8D4
330
6F4
100
AcDbEntity
  8
DEFPOINTS
  6
BYBLOCK
 62
     0
100
AcDbPoint
 10
483.1715708852789
 20
298.6257727756042
 30
0.0
  0
POINT
  5
8D5
330
6F4
100
AcDbEntity
  8
DEFPOINTS
  6
BYBLOCK
 62
     0
100
AcDbPoint
 10
483.1721820859499
 20
268.62577277584
 30
0.0
  0
POINT
  5
8D6
330
6F4
100
AcDbEntity
  8
DEFPOINTS
  6
BYBLOCK
 62
     0
100
AcDbPoint
 10
514.1742008566104
 20
268.62577277584
 30
0.0
  0
ENDBLK
  5
8D7
330
6F4
100
AcDbEntity
  8
0
100
AcDbBlockEnd
  0
BLOCK
  5
7A6
330
701
100
AcDbEntity
  8
0
100
AcDbBlockBegin
  2
*D10
 70
     1
 10
0.0
 20
0.0
 30
0.0
  3
*D10
  1

  0
LINE
  5
7A7
330
701
100
AcDbEntity
  8
0
  6
BYBLOCK
 62
     4
100
AcDbLine
 10
467.6715708852789
 20
298.6255727756043
 30
0.0
 11
410.0329064278221
 21
298.6255727756043
 31
0.0
  0
LINE
  5
7A8
330
701
100
AcDbEntity
  8
0
  6
BYBLOCK
 62
     4
100
AcDbLine
 10
426.4643442024556
 20
258.6229227756042
 30
0.0
 11
410.0329064278221
 21
258.6229227756042
 31
0.0
  0
LINE
  5
7A9
330
701
100
AcDbEntity
  8
0
  6
BYBLOCK
 62
     4
100
AcDbLine
 10
413.0329064278221
 20
291.6255727756043
 30
0.0
 11
413.0329064278221
 21
265.6229227756042
 31
0.0
  0
INSERT
  5
7AA
330
701
100
AcDbEntity
  8
0
  6
BYBLOCK
 62
     4
100
AcDbBlockReference
  2
_OPEN
 10
413.0329064278221
 20
298.6255727756043
 30
0.0
 41
7.0
 42
7.0
 43
7.0
 50
90.0
  0
INSERT
  5
7AB
330
701
100
AcDbEntity
  8
0
  6
BYBLOCK
 62
     4
100
AcDbBlockReference
  2
_OPEN
 10
413.0329064278221
 20
258.6229227756042
 30
0.0
 41
7.0
 42
7.0
 43
7.0
 50
270.0
  0
MTEXT
  5
7AC
330
701
100
AcDbEntity
  8
0
  6
BYBLOCK
 62
     4
100
AcDbMText
 10
408.0329064278221
 20
278.6242477756043
 30
0.0
 40
6.0
 41
0.0
 71
     5
 72
     5
  1
\A1;40
 11
0.0
 21
1.0
 31
0.0
1001
ACAD
1000
MTEXTBEGIN
1070
    73
1070
     1
1070
    44
1040
1.0
1070
    74
1070
     0
1000
MTEXTEND
1000
MTEXTBEGIN
1070
    73
1070
     1
1070
    44
1040
1.0
1070
    74
1070
     0
1000
MTEXTEND
1000
MTEXTBEGIN
1070
    73
1070
     1
1070
    44
1040
1.0
1070
    74
1070
     0
1000
MTEXTEND
  0
POINT
  5
7AD
330
701
100
AcDbEntity
  8
DEFPOINTS
  6
BYBLOCK
 62
     0
100
AcDbPoint
 10
473.6715708852789
 20
298.6255727756043
 30
0.0
  0
POINT
  5
7AE
330
701
100
AcDbEntity
  8
DEFPOINTS
  6
BYBLOCK
 62
     0
100
AcDbPoint
 10
432.4643442024556
 20
258.6229227756042
 30
0.0
  0
POINT
  5
7AF
330
701
100
AcDbEntity
  8
DEFPOINTS
  6
BYBLOCK
 62
     0
100
AcDbPoint
 10
413.0329064278221
 20
258.6229227756042
 30
0.0
  0
ENDBLK
  5
7B0
330
701
100
AcDbEntity
  8
0
100
AcDbBlockEnd
  0
BLOCK
  5
82A
330
70E
100
AcDbEntity
  8
0
100
AcDbBlockBegin
  2
*D11
 70
     1
 10
0.0
 20
0.0
 30
0.0
  3
*D11
  1

  0
LINE
  5
82B
330
70E
100
AcDbEntity
  8
0
  6
BYBLOCK
 62
     4
100
AcDbLine
 10
483.1715708852789
 20
304.6257727756042
 30
0.0
 11
483.1715708852789
 21
359.3201601558328
 31
0.0
  0
LINE
  5
82C
330
70E
100
AcDbEntity
  8
0
  6
BYBLOCK
 62
     4
100
AcDbLine
 10
323.1614929850789
 20
287.6256727756043
 30
0.0
 11
323.1614929850789
 21
359.3201601558328
 31
0.0
  0
LINE
  5
82D
330
70E
100
AcDbEntity
  8
0
  6
BYBLOCK
 62
     4
100
AcDbLine
 10
476.1715708852789
 20
356.3201601558328
 30
0.0
 11
330.1614929850789
 21
356.3201601558328
 31
0.0
  0
INSERT
  5
82E
330
70E
100
AcDbEntity
  8
0
  6
BYBLOCK
 62
     4
100
AcDbBlockReference
  2
_OPEN
 10
483.1715708852789
 20
356.3201601558328
 30
0.0
 41
7.0
 42
7.0
 43
7.0
  0
INSERT
  5
82F
330
70E
100
AcDbEntity
  8
0
  6
BYBLOCK
 62
     4
100
AcDbBlockReference
  2
_OPEN
 10
323.1614929850789
 20
356.3201601558328
 30
0.0
 41
7.0
 42
7.0
 43
7.0
 50
180.0
  0
MTEXT
  5
830
330
70E
100
AcDbEntity
  8
0
  6
BYBLOCK
 62
     4
100
AcDbMText
 10
403.1665319351788
 20
361.3201601558328
 30
0.0
 40
6.0
 41
0.0
 71
     5
 72
     5
  1
\A1;160
1001
ACAD
1000
MTEXTBEGIN
1070
    73
1070
     1
1070
    44
1040
1.0
1070
    74
1070
     0
1000
MTEXTEND
1000
MTEXTBEGIN
1070
    73
1070
     1
1070
    44
1040
1.0
1070
    74
1070
     0
1000
MTEXTEND
1000
MTEXTBEGIN
1070
    73
1070
     1
1070
    44
1040
1.0
1070
    74
1070
     0
1000
MTEXTEND
  0
POINT
  5
831
330
70E
100
AcDbEntity
  8
DEFPOINTS
  6
BYBLOCK
 62
     0
100
AcDbPoint
 10
483.1715708852789
 20
298.6257727756042
 30
0.0
  0
POINT
  5
832
330
70E
100
AcDbEntity
  8
DEFPOINTS
  6
BYBLOCK
 62
     0
100
AcDbPoint
 10
323.1614929850789
 20
281.6256727756043
 30
0.0
  0
POINT
  5
833
330
70E
100
AcDbEntity
  8
DEFPOINTS
  6
BYBLOCK
 62
     0
100
AcDbPoint
 10
323.1614929850789
 20
356.3201601558328
 30
0.0
  0
ENDBLK
  5
834
330
70E
100
AcDbEntity
  8
0
100
AcDbBlockEnd
  0
BLOCK
  5
812
330
75E
100
AcDbEntity
  8
0
100
AcDbBlockBegin
  2
*D12
 70
     1
 10
0.0
 20
0.0
 30
0.0
  3
*D12
  1

  0
LINE
  5
813
330
75E
100
AcDbEntity
  8
0
  6
BYBLOCK
 62
     4
100
AcDbLine
 10
317.1614929850789
 20
281.6256727756043
 30
0.0
 11
282.1958392840929
 21
281.6256727756043
 31
0.0
  0
LINE
  5
814
330
75E
100
AcDbEntity
  8
0
  6
BYBLOCK
 62
     4
100
AcDbLine
 10
341.4059929850789
 20
207.1255727756043
 30
0.0
 11
282.1958392840929
 21
207.1255727756043
 31
0.0
  0
LINE
  5
815
330
75E
100
AcDbEntity
  8
0
  6
BYBLOCK
 62
     4
100
AcDbLine
 10
285.1958392840929
 20
274.6256727756043
 30
0.0
 11
285.1958392840929
 21
214.1255727756043
 31
0.0
  0
INSERT
  5
816
330
75E
100
AcDbEntity
  8
0
  6
BYBLOCK
 62
     4
100
AcDbBlockReference
  2
_OPEN
 10
285.1958392840929
 20
281.6256727756043
 30
0.0
 41
7.0
 42
7.0
 43
7.0
 50
90.0
  0
INSERT
  5
817
330
75E
100
AcDbEntity
  8
0
  6
BYBLOCK
 62
     4
100
AcDbBlockReference
  2
_OPEN
 10
285.1958392840929
 20
207.1255727756043
 30
0.0
 41
7.0
 42
7.0
 43
7.0
 50
270.0
  0
MTEXT
  5
818
330
75E
100
AcDbEntity
  8
0
  6
BYBLOCK
 62
     4
100
AcDbMText
 10
280.1958392840929
 20
244.3756227756043
 30
0.0
 40
6.0
 41
0.0
 71
     5
 72
     5
  1
\A1;75
 11
0.0
 21
1.0
 31
0.0
1001
ACAD
1000
MTEXTBEGIN
1070
    73
1070
     1
1070
    44
1040
1.0
1070
    74
1070
     0
1000
MTEXTEND
1000
MTEXTBEGIN
1070
    73
1070
     1
1070
    44
1040
1.0
1070
    74
1070
     0
1000
MTEXTEND
1000
MTEXTBEGIN
1070
    73
1070
     1
1070
    44
1040
1.0
1070
    74
1070
     0
1000
MTEXTEND
  0
POINT
  5
819
330
75E
100
AcDbEntity
  8
DEFPOINTS
  6
BYBLOCK
 62
     0
100
AcDbPoint
 10
323.1614929850789
 20
281.6256727756043
 30
0.0
  0
POINT
  5
81A
330
75E
100
AcDbEntity
  8
DEFPOINTS
  6
BYBLOCK
 62
     0
100
AcDbPoint
 10
347.4059929850789
 20
207.1255727756043
 30
0.0
  0
POINT
  5
81B
330
75E
100
AcDbEntity
  8
DEFPOINTS
  6
BYBLOCK
 62
     0
100
AcDbPoint
 10
285.1958392840929
 20
207.1255727756043
 30
0.0
  0
ENDBLK
  5
81C
330
75E
100
AcDbEntity
  8
0
100
AcDbBlockEnd
  0
BLOCK
  5
869
330
840
100
AcDbEntity
  8
0
100
AcDbBlockBegin
  2
*D13
 70
     1
 10
0.0
 20
0.0
 30
0.0
  3
*D13
  1

  0
LINE
  5
86A
330
840
100
AcDbEntity
  8
0
  6
BYBLOCK
 62
     4
100
AcDbLine
 10
481.6715708852789
 20
304.6257727756042
 30
0.0
 11
481.6715708852789
 21
324.9337453170462
 31
0.0
  0
LINE
  5
86B
330
840
100
AcDbEntity
  8
0
  6
BYBLOCK
 62
     4
100
AcDbLine
 10
483.1715708852789
 20
304.6257727756042
 30
0.0
 11
483.1715708852789
 21
324.9337453170462
 31
0.0
  0
LINE
  5
86C
330
840
100
AcDbEntity
  8
0
  6
BYBLOCK
 62
     4
100
AcDbLine
 10
474.6715708852788
 20
321.9337453170462
 30
0.0
 11
467.6715708852789
 21
321.9337453170462
 31
0.0
  0
LINE
  5
86D
330
840
100
AcDbEntity
  8
0
  6
BYBLOCK
 62
     4
100
AcDbLine
 10
490.1715708852789
 20
321.9337453170462
 30
0.0
 11
517.1715708852789
 21
321.9337453170462
 31
0.0
  0
LINE
  5
86E
330
840
100
AcDbEntity
  8
0
  6
BYBLOCK
 62
     4
100
AcDbLine
 10
481.6715708852789
 20
321.9337453170462
 30
0.0
 11
483.1715708852789
 21
321.9337453170462
 31
0.0
  0
INSERT
  5
86F
330
840
100
AcDbEntity
  8
0
  6
BYBLOCK
 62
     4
100
AcDbBlockReference
  2
_OPEN
 10
481.6715708852789
 20
321.9337453170462
 30
0.0
 41
7.0
 42
7.0
 43
7.0
  0
INSERT
  5
870
330
840
100
AcDbEntity
  8
0
  6
BYBLOCK
 62
     4
100
AcDbBlockReference
  2
_OPEN
 10
483.1715708852789
 20
321.9337453170462
 30
0.0
 41
7.0
 42
7.0
 43
7.0
 50
180.0
  0
MTEXT
  5
871
330
840
100
AcDbEntity
  8
0
  6
BYBLOCK
 62
     4
100
AcDbMText
 10
507.1715708852789
 20
326.9337453170462
 30
0.0
 40
6.0
 41
0.0
 71
     5
 72
     5
  1
\A1;t1.5
1001
ACAD
1000
MTEXTBEGIN
1070
    73
1070
     1
1070
    44
1040
1.0
1070
    74
1070
     0
1000
MTEXTEND
1000
MTEXTBEGIN
1070
    73
1070
     1
1070
    44
1040
1.0
1070
    74
1070
     0
1000
MTEXTEND
1000
MTEXTBEGIN
1070
    73
1070
     1
1070
    44
1040
1.0
1070
    74
1070
     0
1000
MTEXTEND
  0
POINT
  5
872
330
840
100
AcDbEntity
  8
DEFPOINTS
  6
BYBLOCK
 62
     0
100
AcDbPoint
 10
481.6715708852789
 20
298.6257727756042
 30
0.0
  0
POINT
  5
873
330
840
100
AcDbEntity
  8
DEFPOINTS
  6
BYBLOCK
 62
     0
100
AcDbPoint
 10
483.1715708852789
 20
298.6257727756042
 30
0.0
  0
POINT
  5
874
330
840
100
AcDbEntity
  8
DEFPOINTS
  6
BYBLOCK
 62
     0
100
AcDbPoint
 10
483.1715708852789
 20
321.9337453170462
 30
0.0
  0
ENDBLK
  5
875
330
840
100
AcDbEntity
  8
0
100
AcDbBlockEnd
  0
BLOCK
  5
882
330
881
100
AcDbEntity
  8
0
100
AcDbBlockBegin
  2
*D14
 70
     1
 10
0.0
 20
0.0
 30
0.0
  3
*D14
  1

  0
LINE
  5
883
330
881
100
AcDbEntity
  8
0
  6
BYBLOCK
 62
     4
100
AcDbLine
 10
489.1715708852789
 20
298.6257727756042
 30
0.0
 11
533.6686251409624
 21
298.6257727756042
 31
0.0
  0
LINE
  5
884
330
881
100
AcDbEntity
  8
0
  6
BYBLOCK
 62
     4
100
AcDbLine
 10
426.6614929850789
 20
161.1255727756043
 30
0.0
 11
533.6686251409624
 21
161.1255727756043
 31
0.0
  0
LINE
  5
885
330
881
100
AcDbEntity
  8
0
  6
BYBLOCK
 62
     4
100
AcDbLine
 10
530.6686251409623
 20
291.6257727756042
 30
0.0
 11
530.6686251409623
 21
168.1255727756043
 31
0.0
  0
INSERT
  5
886
330
881
100
AcDbEntity
  8
0
  6
BYBLOCK
 62
     4
100
AcDbBlockReference
  2
_OPEN
 10
530.6686251409623
 20
298.6257727756042
 30
0.0
 41
7.0
 42
7.0
 43
7.0
 50
90.0
  0
INSERT
  5
887
330
881
100
AcDbEntity
  8
0
  6
BYBLOCK
 62
     4
100
AcDbBlockReference
  2
_OPEN
 10
530.6686251409623
 20
161.1255727756043
 30
0.0
 41
7.0
 42
7.0
 43
7.0
 50
270.0
  0
MTEXT
  5
888
330
881
100
AcDbEntity
  8
0
  6
BYBLOCK
 62
     4
100
AcDbMText
 10
525.6686251409623
 20
229.8756727756043
 30
0.0
 40
6.0
 41
0.0
 71
     5
 72
     5
  1
\A1;138
 11
0.0
 21
1.0
 31
0.0
1001
ACAD
1000
MTEXTBEGIN
1070
    73
1070
     1
1070
    44
1040
1.0
1070
    74
1070
     0
1000
MTEXTEND
1000
MTEXTBEGIN
1070
    73
1070
     1
1070
    44
1040
1.0
1070
    74
1070
     0
1000
MTEXTEND
1000
MTEXTBEGIN
1070
    73
1070
     1
1070
    44
1040
1.0
1070
    74
1070
     0
1000
MTEXTEND
  0
POINT
  5
889
330
881
100
AcDbEntity
  8
DEFPOINTS
  6
BYBLOCK
 62
     0
100
AcDbPoint
 10
483.1715708852789
 20
298.6257727756042
 30
0.0
  0
POINT
  5
88A
330
881
100
AcDbEntity
  8
DEFPOINTS
  6
BYBLOCK
 62
     0
100
AcDbPoint
 10
420.6614929850789
 20
161.1255727756043
 30
0.0
  0
POINT
  5
88B
330
881
100
AcDbEntity
  8
DEFPOINTS
  6
BYBLOCK
 62
     0
100
AcDbPoint
 10
530.6686251409623
 20
161.1255727756043
 30
0.0
  0
ENDBLK
  5
88C
330
881
100
AcDbEntity
  8
0
100
AcDbBlockEnd
  0
ENDSEC
  0
SECTION
  2
ENTITIES
  0
INSERT
  5
39A
330
1A
100
AcDbEntity
  8
0
100
AcDbBlockReference
  2
A$C1305
 10
324.4779851180217
 20
183.4116787948211
 30
0.0
  0
LINE
  5
39B
330
1A
100
AcDbEntity
  8
CENTER_L
  6
CENTER
 62
     1
 48
5.0
100
AcDbLine
 10
492.3435526957899
 20
395.3886688193225
 30
0.0
 11
314.7522169672191
 21
395.3886688193225
 31
0.0
  0
LINE
  5
39C
330
1A
100
AcDbEntity
  8
SEIHIN
  6
CONTINUOUS
 62
     3
 48
16.0
100
AcDbLine
 10
381.6615929850789
 20
384.3885688193225
 30
0.0
 11
414.7819929850789
 21
384.3884688193225
 31
0.0
  0
LINE
  5
39D
330
1A
100
AcDbEntity
  8
SEIHIN
  6
CONTINUOUS
 62
     3
 48
16.0
100
AcDbLine
 10
381.6615929850789
 20
406.3885688193225
 30
0.0
 11
414.7819929850789
 21
406.3886688193225
 31
0.0
  0
LINE
  5
39E
330
1A
100
AcDbEntity
  8
SEIHIN
  6
CONTINUOUS
 62
     3
 48
16.0
100
AcDbLine
 10
415.4819929850789
 20
178.8237994321233
 30
0.0
 11
397.9936149390789
 21
178.8237994321233
 31
0.0
  0
LINE
  5
39F
330
1A
100
AcDbEntity
  8
SEIHIN
  6
CONTINUOUS
 62
     3
 48
16.0
100
AcDbLine
 10
381.6614929850789
 20
183.5237994321233
 30
0.0
 11
414.7819929850789
 21
183.5237994321233
 31
0.0
  0
LINE
  5
3A0
330
1A
100
AcDbEntity
  8
SEIHIN
  6
CONTINUOUS
 62
     3
 48
16.0
100
AcDbLine
 10
381.6614929850789
 20
182.0237994321233
 30
0.0
 11
415.9169929850789
 21
182.0237994321233
 31
0.0
  0
ARC
  5
3A1
330
1A
100
AcDbEntity
  8
SEIHIN
  6
CONTINUOUS
 62
     3
 48
16.0
100
AcDbCircle
 10
420.6614929850789
 20
164.0237994321233
 30
0.0
 40
28.0
100
AcDbArc
 50
180.0000017359
 51
347.6700485374
  0
ARC
  5
3A2
330
1A
100
AcDbEntity
  8
SEIHIN
  6
CONTINUOUS
 62
     3
 48
16.0
100
AcDbCircle
 10
420.6614929850789
 20
164.0237994321233
 30
0.0
 40
20.0
100
AcDbArc
 50
180.0000017359
 51
347.6700460154
  0
LINE
  5
3A3
330
1A
100
AcDbEntity
  8
SEIHIN
  6
CONTINUOUS
 62
     3
 48
16.0
100
AcDbLine
 10
381.6615929850789
 20
387.8885688193225
 30
0.0
 11
428.4615929850789
 21
387.8885688193225
 31
0.0
  0
LINE
  5
3A4
330
1A
100
AcDbEntity
  8
SEIHIN
  6
CONTINUOUS
 62
     3
 48
16.0
100
AcDbLine
 10
388.1998929850789
 20
392.8885688193225
 30
0.0
 11
428.4615929850789
 21
392.8885688193225
 31
0.0
  0
LINE
  5
3A5
330
1A
100
AcDbEntity
  8
SEIHIN
  6
CONTINUOUS
 62
     3
 48
16.0
100
AcDbLine
 10
388.1998929850789
 20
397.8885688193225
 30
0.0
 11
428.4615929850789
 21
397.8885688193225
 31
0.0
  0
LINE
  5
3A6
330
1A
100
AcDbEntity
  8
SEIHIN
  6
CONTINUOUS
 62
     3
 48
16.0
100
AcDbLine
 10
381.6615929850789
 20
402.8885688193225
 30
0.0
 11
428.4615929850789
 21
402.8885688193225
 31
0.0
  0
LINE
  5
3A9
330
1A
100
AcDbEntity
  8
CENTER_L
  6
CENTER
 62
     1
 48
5.0
100
AcDbLine
 10
205.8446819570307
 20
134.3274994321233
 30
0.0
 11
205.8447819570306
 21
279.0978994321233
 31
0.0
  0
LINE
  5
3AA
330
1A
100
AcDbEntity
  8
SEIHIN
  6
CONTINUOUS
 62
     3
 48
16.0
100
AcDbLine
 10
216.8447819570305
 20
193.4838994321233
 30
0.0
 11
216.8447819570305
 21
219.7238994321232
 31
0.0
  0
LINE
  5
3AB
330
1A
100
AcDbEntity
  8
SEIHIN
  6
CONTINUOUS
 62
     3
 48
16.0
100
AcDbLine
 10
194.8447819570305
 20
193.4838994321233
 30
0.0
 11
194.8447819570305
 21
219.7238994321232
 31
0.0
  0
LINE
  5
3AD
330
1A
100
AcDbEntity
  8
SEIHIN
  6
CONTINUOUS
 62
     3
 48
16.0
100
AcDbLine
 10
213.8447819570306
 20
181.8238994321233
 30
0.0
 11
213.8447819570306
 21
219.7238994321232
 31
0.0
  0
LINE
  5
3AE
330
1A
100
AcDbEntity
  8
SEIHIN
  6
CONTINUOUS
 62
     3
 48
16.0
100
AcDbLine
 10
207.8447819570305
 20
181.8238994321233
 30
0.0
 11
207.8447819570305
 21
219.7238994321232
 31
0.0
  0
LINE
  5
3AF
330
1A
100
AcDbEntity
  8
SEIHIN
  6
CONTINUOUS
 62
     3
 48
16.0
100
AcDbLine
 10
203.8447819570305
 20
181.8238994321233
 30
0.0
 11
203.8447819570305
 21
219.7238994321232
 31
0.0
  0
LINE
  5
3B0
330
1A
100
AcDbEntity
  8
SEIHIN
  6
CONTINUOUS
 62
     3
 48
16.0
100
AcDbLine
 10
197.8447819570305
 20
181.8238994321233
 30
0.0
 11
197.8447819570305
 21
219.7238994321232
 31
0.0
  0
LINE
  5
3B2
330
1A
100
AcDbEntity
  8
SEIHIN
  6
CONTINUOUS
 62
     3
 48
16.0
100
AcDbLine
 10
196.3428819570306
 20
141.8239994321232
 30
0.0
 11
196.3429819570306
 21
181.5830994321233
 31
0.0
  0
LINE
  5
3B3
330
1A
100
AcDbEntity
  8
SEIHIN
  6
CONTINUOUS
 62
     3
 48
16.0
100
AcDbLine
 10
215.3463819570306
 20
141.8238994321233
 30
0.0
 11
215.3464819570306
 21
181.5830994321233
 31
0.0
  0
LINE
  5
3B4
330
1A
100
AcDbEntity
  8
SEIHIN
  6
CONTINUOUS
 62
     3
 48
16.0
100
AcDbLine
 10
213.3463819570306
 20
139.8239994321232
 30
0.0
 11
198.3428819570306
 21
139.8239994321232
 31
0.0
  0
ARC
  5
3B5
330
1A
100
AcDbEntity
  8
SEIHIN
  6
CONTINUOUS
 62
     3
 48
16.0
100
AcDbCircle
 10
198.3428804628306
 20
141.8239979379233
 30
0.0
 40
1.9999985059
100
AcDbArc
 50
179.9999571957
 51
270.0000428042999
  0
ARC
  5
3B6
330
1A
100
AcDbEntity
  8
SEIHIN
  6
CONTINUOUS
 62
     3
 48
16.0
100
AcDbCircle
 10
213.3463834512306
 20
141.8239979379233
 30
0.0
 40
1.9999985059
100
AcDbArc
 50
269.9999571957
 51
0.0000428043
  0
LINE
  5
3B7
330
1A
100
AcDbEntity
  8
SEIHIN
  6
CONTINUOUS
 62
     3
 48
16.0
100
AcDbLine
 10
205.8447819570305
 20
193.4838994321233
 30
0.0
 11
203.8447819570305
 21
193.4838994321233
 31
0.0
  0
LINE
  5
3B8
330
1A
100
AcDbEntity
  8
SEIHIN
  6
CONTINUOUS
 62
     3
 48
16.0
100
AcDbLine
 10
205.8447819570305
 20
178.8238994321233
 30
0.0
 11
200.8447819570306
 21
178.8238994321233
 31
0.0
  0
LINE
  5
3B9
330
1A
100
AcDbEntity
  8
SEIHIN
  6
CONTINUOUS
 62
     3
 48
16.0
100
AcDbLine
 10
205.8447819570305
 20
174.3238994321233
 30
0.0
 11
202.8447819570305
 21
174.3238994321233
 31
0.0
  0
LINE
  5
3BA
330
1A
100
AcDbEntity
  8
SEIHIN
  6
CONTINUOUS
 62
     3
 48
16.0
100
AcDbLine
 10
203.8447819570305
 20
182.3238994321233
 30
0.0
 11
205.8447819570305
 21
182.3238994321233
 31
0.0
  0
LINE
  5
3BB
330
1A
100
AcDbEntity
  8
SEIHIN
  6
CONTINUOUS
 62
     3
 48
16.0
100
AcDbLine
 10
205.8447819570305
 20
177.3238994321233
 30
0.0
 11
202.1537819570306
 21
177.3238994321233
 31
0.0
  0
LINE
  5
3BC
330
1A
100
AcDbEntity
  8
SEIHIN
  6
CONTINUOUS
 62
     3
 48
16.0
100
AcDbLine
 10
202.8447819570305
 20
174.3238994321233
 30
0.0
 11
202.8447819570305
 21
177.3238994321233
 31
0.0
  0
LINE
  5
3BD
330
1A
100
AcDbEntity
  8
SEIHIN
  6
CONTINUOUS
 62
     3
 48
16.0
100
AcDbLine
 10
201.7065819570305
 20
177.0474994321233
 30
0.0
 11
200.4829819570306
 21
174.6001994321233
 31
0.0
  0
ARC
  5
3BE
330
1A
100
AcDbEntity
  8
SEIHIN
  6
CONTINUOUS
 62
     3
 48
16.0
100
AcDbCircle
 10
199.0357696192306
 20
176.3238918976233
 30
0.0
 40
0.4999924657000001
100
AcDbArc
 50
270.0014138304999
 51
333.4363533563
  0
ARC
  5
3BF
330
1A
100
AcDbEntity
  8
SEIHIN
  6
CONTINUOUS
 62
     3
 48
16.0
100
AcDbCircle
 10
198.3429826653307
 20
176.3238001380233
 30
0.0
 40
2.000000708299999
100
AcDbArc
 50
180.0000202214
 51
270.0028444959999
  0
ARC
  5
3C0
330
1A
100
AcDbEntity
  8
SEIHIN
  6
CONTINUOUS
 62
     3
 48
16.0
100
AcDbCircle
 10
198.8429812099307
 20
176.8238986850233
 30
0.0
 40
0.9999992529
100
AcDbArc
 50
179.9999571957
 51
270.0000428042999
  0
LINE
  5
3C1
330
1A
100
AcDbEntity
  8
SEIHIN
  6
CONTINUOUS
 62
     3
 48
16.0
100
AcDbLine
 10
198.3430819570306
 20
174.3237994321233
 30
0.0
 11
200.0357819570306
 21
174.3237994321233
 31
0.0
  0
ARC
  5
3C2
330
1A
100
AcDbEntity
  8
SEIHIN
  6
CONTINUOUS
 62
     3
 48
16.0
100
AcDbCircle
 10
200.0357696192306
 20
174.8237918976233
 30
0.0
 40
0.4999924657000001
100
AcDbArc
 50
270.0014138304999
 51
333.4363533563
  0
LINE
  5
3C3
330
1A
100
AcDbEntity
  8
SEIHIN
  6
CONTINUOUS
 62
     3
 48
16.0
100
AcDbLine
 10
199.0357819570306
 20
175.8238994321233
 30
0.0
 11
198.8429819570305
 21
175.8238994321233
 31
0.0
  0
ARC
  5
3C4
330
1A
100
AcDbEntity
  8
SEIHIN
  6
CONTINUOUS
 62
     3
 48
16.0
100
AcDbCircle
 10
176.6143864608307
 20
187.9041127850232
 30
0.0
 40
19.0652158378
100
AcDbArc
 50
342.9808805954999
 51
17.01809260769999
  0
LINE
  5
3C5
330
1A
100
AcDbEntity
  8
SEIHIN
  6
CONTINUOUS
 62
     3
 48
16.0
100
AcDbLine
 10
194.8447819570305
 20
182.3238994321233
 30
0.0
 11
197.8447819570305
 21
182.3238994321233
 31
0.0
  0
ARC
  5
3C6
330
1A
100
AcDbEntity
  8
SEIHIN
  6
CONTINUOUS
 62
     3
 48
16.0
100
AcDbCircle
 10
197.3429812099307
 20
181.3240001792232
 30
0.0
 40
0.9999992529
100
AcDbArc
 50
89.9999571957
 51
180.0000428042999
  0
LINE
  5
3C7
330
1A
100
AcDbEntity
  8
SEIHIN
  6
CONTINUOUS
 62
     3
 48
16.0
100
AcDbLine
 10
197.8429819570305
 20
182.3238994321233
 30
0.0
 11
197.3429819570305
 21
182.3238994321233
 31
0.0
  0
LINE
  5
3C8
330
1A
100
AcDbEntity
  8
SEIHIN
  6
CONTINUOUS
 62
     3
 48
16.0
100
AcDbLine
 10
200.7065819570306
 20
178.5474994321232
 30
0.0
 11
199.4829819570306
 21
176.1002994321233
 31
0.0
  0
ARC
  5
3C9
330
1A
100
AcDbEntity
  8
SEIHIN
  6
CONTINUOUS
 62
     3
 48
16.0
100
AcDbCircle
 10
201.1537942948306
 20
178.3239069666233
 30
0.0
 40
0.4999924657000001
100
AcDbArc
 50
90.00141383049998
 51
153.4363533563
  0
ARC
  5
3CA
330
1A
100
AcDbEntity
  8
SEIHIN
  6
CONTINUOUS
 62
     3
 48
16.0
100
AcDbCircle
 10
202.1537942948306
 20
176.8239069666233
 30
0.0
 40
0.4999924657000001
100
AcDbArc
 50
90.00141383049998
 51
153.4363533563
  0
LINE
  5
3CB
330
1A
100
AcDbEntity
  8
SEIHIN
  6
CONTINUOUS
 62
     3
 48
16.0
100
AcDbLine
 10
197.8429819570305
 20
176.8238994321233
 30
0.0
 11
197.8429819570305
 21
182.3238994321233
 31
0.0
  0
ARC
  5
3CC
330
1A
100
AcDbEntity
  8
SEIHIN
  6
CONTINUOUS
 62
     3
 48
16.0
100
AcDbCircle
 10
200.8447819570306
 20
181.8238994321233
 30
0.0
 40
3.0
100
AcDbArc
 50
180.0
 51
0.0
  0
LINE
  5
3CD
330
1A
100
AcDbEntity
  8
SEIHIN
  6
CONTINUOUS
 62
     3
 48
16.0
100
AcDbLine
 10
208.8447819570305
 20
174.3238994321233
 30
0.0
 11
208.8447819570305
 21
177.3238994321233
 31
0.0
  0
LINE
  5
3CE
330
1A
100
AcDbEntity
  8
SEIHIN
  6
CONTINUOUS
 62
     3
 48
16.0
100
AcDbLine
 10
209.9829819570306
 20
177.0474994321233
 30
0.0
 11
211.2065819570306
 21
174.6001994321233
 31
0.0
  0
ARC
  5
3CF
330
1A
100
AcDbEntity
  8
SEIHIN
  6
CONTINUOUS
 62
     3
 48
16.0
100
AcDbCircle
 10
212.6537942948306
 20
176.3238918976233
 30
0.0
 40
0.4999924657000001
100
AcDbArc
 50
206.5636466437
 51
269.9985861695
  0
ARC
  5
3D0
330
1A
100
AcDbEntity
  8
SEIHIN
  6
CONTINUOUS
 62
     3
 48
16.0
100
AcDbCircle
 10
213.3464812487307
 20
176.3238001380233
 30
0.0
 40
2.000000708299999
100
AcDbArc
 50
269.997155504
 51
359.9999797785999
  0
ARC
  5
3D1
330
1A
100
AcDbEntity
  8
SEIHIN
  6
CONTINUOUS
 62
     3
 48
16.0
100
AcDbCircle
 10
212.8464827041306
 20
176.8238986850233
 30
0.0
 40
0.9999992529
100
AcDbArc
 50
269.9999571957
 51
0.0000428043
  0
LINE
  5
3D2
330
1A
100
AcDbEntity
  8
SEIHIN
  6
CONTINUOUS
 62
     3
 48
16.0
100
AcDbLine
 10
213.3464819570306
 20
174.3237994321233
 30
0.0
 11
211.6537819570306
 21
174.3237994321233
 31
0.0
  0
LINE
  5
3D3
330
1A
100
AcDbEntity
  8
SEIHIN
  6
CONTINUOUS
 62
     3
 48
16.0
100
AcDbLine
 10
205.8447819570305
 20
174.3238994321233
 30
0.0
 11
208.8447819570305
 21
174.3238994321233
 31
0.0
  0
ARC
  5
3D4
330
1A
100
AcDbEntity
  8
SEIHIN
  6
CONTINUOUS
 62
     3
 48
16.0
100
AcDbCircle
 10
211.6537220882306
 20
174.8238368622232
 30
0.0
 40
0.5000374337000001
100
AcDbArc
 50
206.5668307983
 51
270.0068599470999
  0
LINE
  5
3D5
330
1A
100
AcDbEntity
  8
SEIHIN
  6
CONTINUOUS
 62
     3
 48
16.0
100
AcDbLine
 10
212.6537819570306
 20
175.8238994321233
 30
0.0
 11
212.8464819570306
 21
175.8238994321233
 31
0.0
  0
ARC
  5
3D6
330
1A
100
AcDbEntity
  8
SEIHIN
  6
CONTINUOUS
 62
     3
 48
16.0
100
AcDbCircle
 10
235.0751274532306
 20
187.9039494321233
 30
0.0
 40
19.0652158371
100
AcDbArc
 50
162.9813939938999
 51
197.0186060060999
  0
ARC
  5
3D7
330
1A
100
AcDbEntity
  8
SEIHIN
  6
CONTINUOUS
 62
     3
 48
16.0
100
AcDbCircle
 10
210.8447819570305
 20
181.8238994321233
 30
0.0
 40
3.0
100
AcDbArc
 50
180.0
 51
0.0
  0
LINE
  5
3D8
330
1A
100
AcDbEntity
  8
SEIHIN
  6
CONTINUOUS
 62
     3
 48
16.0
100
AcDbLine
 10
207.8447819570305
 20
182.3238994321233
 30
0.0
 11
205.8447819570305
 21
182.3238994321233
 31
0.0
  0
LINE
  5
3D9
330
1A
100
AcDbEntity
  8
SEIHIN
  6
CONTINUOUS
 62
     3
 48
16.0
100
AcDbLine
 10
205.8447819570305
 20
178.8238994321233
 30
0.0
 11
210.5357819570306
 21
178.8238994321233
 31
0.0
  0
LINE
  5
3DA
330
1A
100
AcDbEntity
  8
SEIHIN
  6
CONTINUOUS
 62
     3
 48
16.0
100
AcDbLine
 10
205.8447819570305
 20
177.3238994321233
 30
0.0
 11
209.5357819570306
 21
177.3238994321233
 31
0.0
  0
ARC
  5
3DB
330
1A
100
AcDbEntity
  8
SEIHIN
  6
CONTINUOUS
 62
     3
 48
16.0
100
AcDbCircle
 10
209.5357696192306
 20
176.8239069666233
 30
0.0
 40
0.4999924657000001
100
AcDbArc
 50
26.5636466437
 51
89.9985861695
  0
LINE
  5
3DC
330
1A
100
AcDbEntity
  8
SEIHIN
  6
CONTINUOUS
 62
     3
 48
16.0
100
AcDbLine
 10
210.9829819570307
 20
178.5474994321232
 30
0.0
 11
212.2065819570305
 21
176.1002994321233
 31
0.0
  0
ARC
  5
3DD
330
1A
100
AcDbEntity
  8
SEIHIN
  6
CONTINUOUS
 62
     3
 48
16.0
100
AcDbCircle
 10
210.5357696192306
 20
178.3239069666233
 30
0.0
 40
0.4999924657000001
100
AcDbArc
 50
26.5636466437
 51
89.9985861695
  0
LINE
  5
3DE
330
1A
100
AcDbEntity
  8
SEIHIN
  6
CONTINUOUS
 62
     3
 48
16.0
100
AcDbLine
 10
216.8447819570305
 20
182.3238994321233
 30
0.0
 11
213.8447819570306
 21
182.3238994321233
 31
0.0
  0
LINE
  5
3DF
330
1A
100
AcDbEntity
  8
SEIHIN
  6
CONTINUOUS
 62
     3
 48
16.0
100
AcDbLine
 10
213.8464819570306
 20
182.3238994321233
 30
0.0
 11
214.3464819570306
 21
182.3238994321233
 31
0.0
  0
LINE
  5
3E0
330
1A
100
AcDbEntity
  8
SEIHIN
  6
CONTINUOUS
 62
     3
 48
16.0
100
AcDbLine
 10
213.8464819570306
 20
176.8238994321233
 30
0.0
 11
213.8464819570306
 21
182.3238994321233
 31
0.0
  0
ARC
  5
3E1
330
1A
100
AcDbEntity
  8
SEIHIN
  6
CONTINUOUS
 62
     3
 48
16.0
100
AcDbCircle
 10
214.3464827041305
 20
181.3239001792233
 30
0.0
 40
0.9999992529
100
AcDbArc
 50
359.9999571956999
 51
90.00004280430001
  0
LINE
  5
3E2
330
1A
100
AcDbEntity
  8
SEIHIN
  6
CONTINUOUS
 62
     3
 48
16.0
100
AcDbLine
 10
205.8447819570305
 20
193.4838994321233
 30
0.0
 11
207.8447819570305
 21
193.4838994321233
 31
0.0
  0
LINE
  5
3E3
330
1A
100
AcDbEntity
  8
SEIHIN
  6
CONTINUOUS
 62
     3
 48
16.0
100
AcDbLine
 10
235.8448819570306
 20
273.8700994321233
 30
0.0
 11
235.8447819570306
 21
243.8700994321233
 31
0.0
  0
LINE
  5
3E4
330
1A
100
AcDbEntity
  8
SEIHIN
  6
CONTINUOUS
 62
     3
 48
16.0
100
AcDbLine
 10
175.8447819570305
 20
273.8701994321232
 30
0.0
 11
175.8447819570305
 21
243.8701994321232
 31
0.0
  0
LINE
  5
3E5
330
1A
100
AcDbEntity
  8
SEIHIN
  6
CONTINUOUS
 62
     3
 48
16.0
100
AcDbLine
 10
218.3447819570305
 20
220.7238994321233
 30
0.0
 11
218.3447819570305
 21
256.5238994321233
 31
0.0
  0
LINE
  5
3E6
330
1A
100
AcDbEntity
  8
SEIHIN
  6
CONTINUOUS
 62
     3
 48
16.0
100
AcDbLine
 10
193.3447819570305
 20
220.7238994321233
 30
0.0
 11
193.3448857251465
 21
256.5238994321233
 31
0.0
  0
LINE
  5
3E7
330
1A
100
AcDbEntity
  8
SEIHIN
  6
CONTINUOUS
 62
     3
 48
16.0
100
AcDbLine
 10
196.8448819570306
 20
256.5238994321233
 30
0.0
 11
196.8448819570306
 21
235.7238994321233
 31
0.0
  0
LINE
  5
3E8
330
1A
100
AcDbEntity
  8
SEIHIN
  6
CONTINUOUS
 62
     3
 48
16.0
100
AcDbLine
 10
214.8446819570306
 20
256.5238994321233
 30
0.0
 11
214.8446819570306
 21
235.7238994321233
 31
0.0
  0
LINE
  5
3E9
330
1A
100
AcDbEntity
  8
SEIHIN
  6
CONTINUOUS
 62
     3
 48
16.0
100
AcDbLine
 10
196.8448819570306
 20
243.8702994321233
 30
0.0
 11
205.8446819570306
 21
243.8701994321232
 31
0.0
  0
LINE
  5
3EA
330
1A
100
AcDbEntity
  8
SEIHIN
  6
CONTINUOUS
 62
     3
 48
16.0
100
AcDbLine
 10
214.8446819570306
 20
237.6203994321233
 30
0.0
 11
196.8448819570306
 21
237.6203994321233
 31
0.0
  0
LINE
  5
3EB
330
1A
100
AcDbEntity
  8
SEIHIN
  6
CONTINUOUS
 62
     3
 48
16.0
100
AcDbLine
 10
194.3447819570305
 20
219.7238994321232
 30
0.0
 11
205.8447819570305
 21
219.7238994321232
 31
0.0
  0
LINE
  5
3ED
330
1A
100
AcDbEntity
  8
SEIHIN
  6
CONTINUOUS
 62
     3
 48
16.0
100
AcDbLine
 10
205.8447819570305
 20
233.2238994321233
 30
0.0
 11
199.3448819570306
 21
233.2238994321233
 31
0.0
  0
LINE
  5
3EE
330
1A
100
AcDbEntity
  8
SEIHIN
  6
CONTINUOUS
 62
     3
 48
16.0
100
AcDbLine
 10
198.5978819570306
 20
221.1369994321232
 30
0.0
 11
202.6572819570306
 21
224.0573994321233
 31
0.0
  0
ARC
  5
3EF
330
1A
100
AcDbEntity
  8
SEIHIN
  6
CONTINUOUS
 62
     3
 48
16.0
100
AcDbCircle
 10
198.0505920390306
 20
221.9739292683232
 30
0.0
 40
1.000001649599999
100
AcDbArc
 50
116.8148802157999
 51
210.0019193964
  0
ARC
  5
3F0
330
1A
100
AcDbEntity
  8
SEIHIN
  6
CONTINUOUS
 62
     3
 48
16.0
100
AcDbCircle
 10
194.3447812099307
 20
220.7238986850232
 30
0.0
 40
0.9999992529
100
AcDbArc
 50
179.9999571957
 51
270.0000428042999
  0
ARC
  5
3F1
330
1A
100
AcDbEntity
  8
SEIHIN
  6
CONTINUOUS
 62
     3
 48
16.0
100
AcDbCircle
 10
198.0505762214306
 20
221.9739007496233
 30
0.0
 40
0.9999736913999999
100
AcDbArc
 50
210.000957477
 51
303.1833565675
  0
LINE
  5
3F2
330
1A
100
AcDbEntity
  8
SEIHIN
  6
CONTINUOUS
 62
     3
 48
16.0
100
AcDbLine
 10
193.3447819570305
 20
243.8702994321233
 30
0.0
 11
175.8447819570305
 21
243.8701994321232
 31
0.0
  0
ARC
  5
3F3
330
1A
100
AcDbEntity
  8
SEIHIN
  6
CONTINUOUS
 62
     3
 48
16.0
100
AcDbCircle
 10
199.3448800893306
 20
235.7238975644232
 30
0.0
 40
2.4999981323
100
AcDbArc
 50
179.9999571957
 51
270.0000428042999
  0
ARC
  5
3F4
330
1A
100
AcDbEntity
  8
SEIHIN
  6
CONTINUOUS
 62
     3
 48
16.0
100
AcDbCircle
 10
198.0505920390306
 20
230.9739695959233
 30
0.0
 40
1.000001649599999
100
AcDbArc
 50
149.9980806036
 51
243.1851197841999
  0
LINE
  5
3F5
330
1A
100
AcDbEntity
  8
SEIHIN
  6
CONTINUOUS
 62
     3
 48
16.0
100
AcDbLine
 10
198.5978819570306
 20
231.8107994321233
 30
0.0
 11
202.6572819570306
 21
228.8904994321232
 31
0.0
  0
ARC
  5
3F6
330
1A
100
AcDbEntity
  8
SEIHIN
  6
CONTINUOUS
 62
     3
 48
16.0
100
AcDbCircle
 10
202.3806690683306
 20
228.4739520037232
 30
0.0
 40
0.5000264496
100
AcDbArc
 50
329.9947938184999
 51
56.41341524609999
  0
ARC
  5
3F7
330
1A
100
AcDbEntity
  8
SEIHIN
  6
CONTINUOUS
 62
     3
 48
16.0
100
AcDbCircle
 10
202.3806834884305
 20
228.4739004247232
 30
0.0
 40
0.4999881700000001
100
AcDbArc
 50
243.5885872636999
 51
329.9990859663
  0
LINE
  5
3F8
330
1A
100
AcDbEntity
  8
SEIHIN
  6
CONTINUOUS
 62
     3
 48
16.0
100
AcDbLine
 10
197.5994819570306
 20
230.0814994321232
 30
0.0
 11
202.1582819570306
 21
228.0260994321233
 31
0.0
  0
ARC
  5
3F9
330
1A
100
AcDbEntity
  8
SEIHIN
  6
CONTINUOUS
 62
     3
 48
16.0
100
AcDbCircle
 10
198.0505762214306
 20
230.9739981146233
 30
0.0
 40
0.9999736913999999
100
AcDbArc
 50
56.8166434325
 51
149.9990425229999
  0
ARC
  5
3FA
330
1A
100
AcDbEntity
  8
SEIHIN
  6
CONTINUOUS
 62
     3
 48
16.0
100
AcDbCircle
 10
202.3806834884305
 20
224.4738984395233
 30
0.0
 40
0.4999881700000001
100
AcDbArc
 50
30.00091403369999
 51
116.4114127363
  0
ARC
  5
3FB
330
1A
100
AcDbEntity
  8
SEIHIN
  6
CONTINUOUS
 62
     3
 48
16.0
100
AcDbCircle
 10
202.3806829630306
 20
224.4739060903232
 30
0.0
 40
0.4999847996000001
100
AcDbArc
 50
303.5878428947
 51
30.0001246541
  0
LINE
  5
3FC
330
1A
100
AcDbEntity
  8
SEIHIN
  6
CONTINUOUS
 62
     3
 48
16.0
100
AcDbLine
 10
197.5994819570306
 20
222.8663994321232
 30
0.0
 11
202.1582819570306
 21
224.9216994321233
 31
0.0
  0
ARC
  5
3FD
330
1A
100
AcDbEntity
  8
SEIHIN
  6
CONTINUOUS
 62
     3
 48
16.0
100
AcDbCircle
 10
213.6389907151305
 20
221.9738726885232
 30
0.0
 40
1.0000436473
100
AcDbArc
 50
330.0032129878
 51
63.18754545899999
  0
LINE
  5
3FE
330
1A
100
AcDbEntity
  8
SEIHIN
  6
CONTINUOUS
 62
     3
 48
16.0
100
AcDbLine
 10
213.0916819570306
 20
221.1369994321232
 30
0.0
 11
209.0322819570305
 21
224.0573994321233
 31
0.0
  0
LINE
  5
3FF
330
1A
100
AcDbEntity
  8
SEIHIN
  6
CONTINUOUS
 62
     3
 48
16.0
100
AcDbLine
 10
217.3447819570305
 20
219.7238994321232
 30
0.0
 11
205.8447819570305
 21
219.7238994321232
 31
0.0
  0
ARC
  5
400
330
1A
100
AcDbEntity
  8
SEIHIN
  6
CONTINUOUS
 62
     3
 48
16.0
100
AcDbCircle
 10
213.6390457702306
 20
221.9739141588232
 30
0.0
 40
1.0000167018
100
AcDbArc
 50
236.8142790272
 51
329.9995781834999
  0
ARC
  5
401
330
1A
100
AcDbEntity
  8
SEIHIN
  6
CONTINUOUS
 62
     3
 48
16.0
100
AcDbCircle
 10
217.3447827041306
 20
220.7238986850232
 30
0.0
 40
0.9999992529
100
AcDbArc
 50
269.9999571957
 51
0.0000428043
  0
LINE
  5
402
330
1A
100
AcDbEntity
  8
SEIHIN
  6
CONTINUOUS
 62
     3
 48
16.0
100
AcDbLine
 10
218.3447819570305
 20
243.8701994321232
 30
0.0
 11
235.8447819570306
 21
243.8701994321232
 31
0.0
  0
ARC
  5
403
330
1A
100
AcDbEntity
  8
SEIHIN
  6
CONTINUOUS
 62
     3
 48
16.0
100
AcDbCircle
 10
212.3446838247306
 20
235.7238975644232
 30
0.0
 40
2.4999981323
100
AcDbArc
 50
269.9999571957
 51
0.0000428043
  0
LINE
  5
404
330
1A
100
AcDbEntity
  8
SEIHIN
  6
CONTINUOUS
 62
     3
 48
16.0
100
AcDbLine
 10
214.0900819570306
 20
230.0814994321232
 30
0.0
 11
209.5313819570305
 21
228.0260994321233
 31
0.0
  0
ARC
  5
405
330
1A
100
AcDbEntity
  8
SEIHIN
  6
CONTINUOUS
 62
     3
 48
16.0
100
AcDbCircle
 10
213.6390457702306
 20
230.9738847054233
 30
0.0
 40
1.0000167018
100
AcDbArc
 50
30.0004218165
 51
123.1857209728
  0
LINE
  5
406
330
1A
100
AcDbEntity
  8
SEIHIN
  6
CONTINUOUS
 62
     3
 48
16.0
100
AcDbLine
 10
214.0900819570306
 20
222.8663994321232
 30
0.0
 11
209.5313819570305
 21
224.9216994321233
 31
0.0
  0
LINE
  5
407
330
1A
100
AcDbEntity
  8
SEIHIN
  6
CONTINUOUS
 62
     3
 48
16.0
100
AcDbLine
 10
213.0916819570306
 20
231.8107994321233
 30
0.0
 11
209.0322819570305
 21
228.8904994321232
 31
0.0
  0
ARC
  5
408
330
1A
100
AcDbEntity
  8
SEIHIN
  6
CONTINUOUS
 62
     3
 48
16.0
100
AcDbCircle
 10
209.3089114572307
 20
228.4739907992233
 30
0.0
 40
0.5000102316
100
AcDbArc
 50
209.9981808398
 51
296.4189814963
  0
ARC
  5
409
330
1A
100
AcDbEntity
  8
SEIHIN
  6
CONTINUOUS
 62
     3
 48
16.0
100
AcDbCircle
 10
209.3088948457306
 20
228.4739520037232
 30
0.0
 40
0.5000264496
100
AcDbArc
 50
123.5865847539
 51
210.0052061815
  0
LINE
  5
40A
330
1A
100
AcDbEntity
  8
SEIHIN
  6
CONTINUOUS
 62
     3
 48
16.0
100
AcDbLine
 10
205.8447819570305
 20
233.2238994321233
 30
0.0
 11
212.3446819570306
 21
233.2238994321233
 31
0.0
  0
ARC
  5
40B
330
1A
100
AcDbEntity
  8
SEIHIN
  6
CONTINUOUS
 62
     3
 48
16.0
100
AcDbCircle
 10
209.3088809510307
 20
224.4739060903232
 30
0.0
 40
0.4999847996000001
100
AcDbArc
 50
149.9998753458999
 51
236.4121571052999
  0
ARC
  5
40C
330
1A
100
AcDbEntity
  8
SEIHIN
  6
CONTINUOUS
 62
     3
 48
16.0
100
AcDbCircle
 10
209.3089114572307
 20
224.4739080650233
 30
0.0
 40
0.5000102316
100
AcDbArc
 50
63.5810185037
 51
150.0018191602
  0
ARC
  5
40D
330
1A
100
AcDbEntity
  8
SEIHIN
  6
CONTINUOUS
 62
     3
 48
16.0
100
AcDbCircle
 10
213.6390068513307
 20
230.9739854626233
 30
0.0
 40
1.0000000328
100
AcDbArc
 50
296.8126816115
 51
29.9943073458
  0
LINE
  5
40E
330
1A
100
AcDbEntity
  8
SEIHIN
  6
CONTINUOUS
 62
     3
 48
16.0
100
AcDbLine
 10
214.8446819570306
 20
243.8701994321232
 30
0.0
 11
205.8449819570306
 21
243.8702994321233
 31
0.0
  0
ARC
  5
40F
330
1A
100
AcDbEntity
  8
SEIHIN
  6
CONTINUOUS
 62
     3
100
AcDbCircle
 10
205.8448819570307
 20
258.8702994321233
 30
0.0
 40
4.0
100
AcDbArc
 50
180.0
 51
0.0
  0
ARC
  5
410
330
1A
100
AcDbEntity
  8
SEIHIN
  6
CONTINUOUS
 62
     3
100
AcDbCircle
 10
205.8448819570307
 20
258.8702994321233
 30
0.0
 40
4.0
100
AcDbArc
 50
0.0
 51
180.0
  0
LINE
  5
411
330
1A
100
AcDbEntity
  8
SEIHIN
  6
CONTINUOUS
 62
     3
 48
16.0
100
AcDbLine
 10
205.8447819570305
 20
273.8702994321233
 30
0.0
 11
175.8447819570305
 21
273.8701994321232
 31
0.0
  0
ARC
  5
412
330
1A
100
AcDbEntity
  8
SEIHIN
  6
CONTINUOUS
 62
     3
100
AcDbCircle
 10
180.8447819570305
 20
268.8701994321232
 30
0.0
 40
2.0
100
AcDbArc
 50
180.0
 51
0.0
  0
LINE
  5
413
330
1A
100
AcDbEntity
  8
CENTER_L
  6
CENTER
 62
     1
 48
5.0
100
AcDbLine
 10
180.8447819570308
 20
272.0868994321231
 30
0.0
 11
180.8447819570308
 21
263.8704022955963
 31
0.0
  0
LINE
  5
414
330
1A
100
AcDbEntity
  8
SEIHIN
  6
CONTINUOUS
 62
     3
 48
16.0
100
AcDbLine
 10
196.3447819570306
 20
266.8702994321233
 30
0.0
 11
194.3447819570305
 21
268.8702994321233
 31
0.0
  0
LINE
  5
415
330
1A
100
AcDbEntity
  8
SEIHIN
  6
CONTINUOUS
 62
     3
 48
16.0
100
AcDbLine
 10
196.3447819570306
 20
273.8702994321233
 30
0.0
 11
196.3447819570306
 21
256.5238994321232
 31
0.0
  0
ARC
  5
416
330
1A
100
AcDbEntity
  8
SEIHIN
  6
CONTINUOUS
 62
     3
100
AcDbCircle
 10
180.8448819570306
 20
248.8701994321232
 30
0.0
 40
2.0
100
AcDbArc
 50
180.0
 51
0.0
  0
ARC
  5
417
330
1A
100
AcDbEntity
  8
SEIHIN
  6
CONTINUOUS
 62
     3
100
AcDbCircle
 10
180.8448819570306
 20
248.8701994321232
 30
0.0
 40
2.0
100
AcDbArc
 50
0.0
 51
180.0
  0
LINE
  5
418
330
1A
100
AcDbEntity
  8
CENTER_L
  6
CENTER
 62
     1
 48
5.0
100
AcDbLine
 10
185.5989819570307
 20
248.8702994321233
 30
0.0
 11
177.1751819570307
 21
248.8701994321231
 31
0.0
  0
LINE
  5
419
330
1A
100
AcDbEntity
  8
SEIHIN
  6
CONTINUOUS
 62
     3
 48
16.0
100
AcDbLine
 10
193.3448828550042
 20
256.5238994321233
 30
0.0
 11
196.8448828550042
 21
256.5238994321233
 31
0.0
  0
ARC
  5
41A
330
1A
100
AcDbEntity
  8
SEIHIN
  6
CONTINUOUS
 62
     3
100
AcDbCircle
 10
180.8447819570305
 20
268.8701994321232
 30
0.0
 40
2.0
100
AcDbArc
 50
0.0
 51
180.0
  0
LINE
  5
41B
330
1A
100
AcDbEntity
  8
CENTER_L
  6
CENTER
 62
     1
 48
5.0
100
AcDbLine
 10
185.5989819570307
 20
268.8702994321233
 30
0.0
 11
177.4050819570307
 21
268.8702994321233
 31
0.0
  0
LINE
  5
41C
330
1A
100
AcDbEntity
  8
SEIHIN
  6
CONTINUOUS
 62
     3
 48
16.0
100
AcDbLine
 10
196.3447819570306
 20
270.8702994321233
 30
0.0
 11
194.3447819570305
 21
268.8702994321233
 31
0.0
  0
ARC
  5
41D
330
1A
100
AcDbEntity
  8
SEIHIN
  6
CONTINUOUS
 62
     3
100
AcDbCircle
 10
230.8448819570306
 20
268.8701994321232
 30
0.0
 40
2.0
100
AcDbArc
 50
180.0
 51
0.0
  0
LINE
  5
41E
330
1A
100
AcDbEntity
  8
CENTER_L
  6
CENTER
 62
     1
 48
5.0
100
AcDbLine
 10
230.8447819570307
 20
272.0867994321233
 30
0.0
 11
230.8447508078145
 21
263.8701968954586
 31
0.0
  0
LINE
  5
41F
330
1A
100
AcDbEntity
  8
SEIHIN
  6
CONTINUOUS
 62
     3
 48
16.0
100
AcDbLine
 10
215.3448819570306
 20
266.8702994321233
 30
0.0
 11
217.3448819570306
 21
268.8702994321233
 31
0.0
  0
LINE
  5
420
330
1A
100
AcDbEntity
  8
SEIHIN
  6
CONTINUOUS
 62
     3
 48
16.0
100
AcDbLine
 10
215.3448819570306
 20
273.8701994321232
 30
0.0
 11
215.3447889289231
 21
256.5238994321232
 31
0.0
  0
LINE
  5
421
330
1A
100
AcDbEntity
  8
SEIHIN
  6
CONTINUOUS
 62
     3
 48
16.0
100
AcDbLine
 10
218.3447828550042
 20
256.5238994321233
 30
0.0
 11
214.8446828550043
 21
256.5238994321233
 31
0.0
  0
ARC
  5
422
330
1A
100
AcDbEntity
  8
SEIHIN
  6
CONTINUOUS
 62
     3
100
AcDbCircle
 10
230.8447819570306
 20
248.8701994321232
 30
0.0
 40
2.0
100
AcDbArc
 50
180.0
 51
0.0
  0
ARC
  5
423
330
1A
100
AcDbEntity
  8
SEIHIN
  6
CONTINUOUS
 62
     3
100
AcDbCircle
 10
230.8447819570306
 20
248.8701994321232
 30
0.0
 40
2.0
100
AcDbArc
 50
0.0
 51
180.0
  0
LINE
  5
424
330
1A
100
AcDbEntity
  8
CENTER_L
  6
CENTER
 62
     1
 48
5.0
100
AcDbLine
 10
226.0905819570307
 20
248.8702994321233
 30
0.0
 11
234.5142819570308
 21
248.8701994321231
 31
0.0
  0
LINE
  5
425
330
1A
100
AcDbEntity
  8
SEIHIN
  6
CONTINUOUS
 62
     3
 48
16.0
100
AcDbLine
 10
205.8448819570307
 20
273.8702994321233
 30
0.0
 11
235.8448819570306
 21
273.8701994321232
 31
0.0
  0
LINE
  5
426
330
1A
100
AcDbEntity
  8
SEIHIN
  6
CONTINUOUS
 62
     3
 48
16.0
100
AcDbLine
 10
215.3447819570306
 20
270.8701994321232
 30
0.0
 11
217.3447819570305
 21
268.8701994321232
 31
0.0
  0
ARC
  5
427
330
1A
100
AcDbEntity
  8
SEIHIN
  6
CONTINUOUS
 62
     3
100
AcDbCircle
 10
230.8448819570306
 20
268.8701994321232
 30
0.0
 40
2.0
100
AcDbArc
 50
0.0
 51
180.0
  0
LINE
  5
428
330
1A
100
AcDbEntity
  8
CENTER_L
  6
CENTER
 62
     1
 48
5.0
100
AcDbLine
 10
226.0905819570307
 20
268.8702994321233
 30
0.0
 11
234.2844819570307
 21
268.8701994321231
 31
0.0
  0
LINE
  5
429
330
1A
100
AcDbEntity
  8
SEIHIN
  6
CONTINUOUS
 62
     3
 48
16.0
100
AcDbLine
 10
337.5325929850789
 20
195.6359994321233
 30
0.0
 11
332.1945929850789
 21
220.9915994321232
 31
0.0
  0
LINE
  5
42A
330
1A
100
AcDbEntity
  8
SEIHIN
  6
CONTINUOUS
 62
     3
 48
16.0
100
AcDbLine
 10
336.1128929850789
 20
194.4714994321233
 30
0.0
 11
330.8788929850789
 21
219.3327994321232
 31
0.0
  0
LINE
  5
42B
330
1A
100
AcDbEntity
  8
SEIHIN
  6
CONTINUOUS
 62
     3
 48
16.0
100
AcDbLine
 10
332.8098929850789
 20
194.1421994321233
 30
0.0
 11
327.2557929850789
 21
220.5237994321233
 31
0.0
  0
ARC
  5
42C
330
1A
100
AcDbEntity
  8
SEIHIN
  6
CONTINUOUS
 62
     3
 48
16.0
100
AcDbCircle
 10
347.8408919341789
 20
183.8237970524232
 30
0.0
 40
4.999997620299999
100
AcDbArc
 50
188.8553015624
 51
270.0000120427
  0
ARC
  5
42D
330
1A
100
AcDbEntity
  8
SEIHIN
  6
CONTINUOUS
 62
     3
 48
16.0
100
AcDbCircle
 10
334.7078882930789
 20
182.3684709395233
 30
0.0
 40
12.999994675
100
AcDbArc
 50
8.8562585596
 51
74.2372678278
  0
ARC
  5
42E
330
1A
100
AcDbEntity
  8
SEIHIN
  6
CONTINUOUS
 62
     3
 48
16.0
100
AcDbCircle
 10
334.0078274518789
 20
181.6684826557233
 30
0.0
 40
12.2000244408
100
AcDbArc
 50
7.0430968172
 51
75.5129836527
  0
ARC
  5
42F
330
1A
100
AcDbEntity
  8
SEIHIN
  6
CONTINUOUS
 62
     3
 48
16.0
100
AcDbCircle
 10
334.0077281818789
 20
181.6685656206233
 30
0.0
 40
9.0000538769
100
AcDbArc
 50
8.855747040299998
 51
74.6967452305
  0
ARC
  5
430
330
1A
100
AcDbEntity
  8
SEIHIN
  6
CONTINUOUS
 62
     3
 48
16.0
100
AcDbCircle
 10
337.3849612463789
 20
194.7393341667233
 30
0.0
 40
1.300056741099999
100
AcDbArc
 50
191.8890822935
 51
255.5154746065
  0
ARC
  5
431
330
1A
100
AcDbEntity
  8
SEIHIN
  6
CONTINUOUS
 62
     3
 48
16.0
100
AcDbCircle
 10
337.7026475215789
 20
195.1721373325233
 30
0.0
 40
5.0000025031
100
AcDbArc
 50
191.8884821447
 51
254.6977590679
  0
ARC
  5
432
330
1A
100
AcDbEntity
  8
SEIHIN
  6
CONTINUOUS
 62
     3
 48
16.0
100
AcDbCircle
 10
338.5110577818789
 20
195.8420395152233
 30
0.0
 40
0.9999229343000001
100
AcDbArc
 50
191.8913210987
 51
254.2413513577
  0
LINE
  5
433
330
1A
100
AcDbEntity
  8
SEIHIN
  6
CONTINUOUS
 62
     3
 48
16.0
100
AcDbLine
 10
375.6614929850789
 20
174.0237994321233
 30
0.0
 11
390.6614959317789
 21
174.0237994321233
 31
0.0
  0
LINE
  5
434
330
1A
100
AcDbEntity
  8
SEIHIN
  6
CONTINUOUS
 62
     3
 48
16.0
100
AcDbLine
 10
381.6614929850789
 20
182.0237994321233
 30
0.0
 11
347.4059929850789
 21
182.0237994321233
 31
0.0
  0
LINE
  5
435
330
1A
100
AcDbEntity
  8
SEIHIN
  6
CONTINUOUS
 62
     3
 48
16.0
100
AcDbLine
 10
381.6614929850789
 20
183.5237994321233
 30
0.0
 11
348.5409929850789
 21
183.5237994321233
 31
0.0
  0
LINE
  5
436
330
1A
100
AcDbEntity
  8
SEIHIN
  6
CONTINUOUS
 62
     3
 48
16.0
100
AcDbLine
 10
375.6614929850789
 20
174.0237994321233
 30
0.0
 11
375.6614929850789
 21
182.0237994321233
 31
0.0
  0
LINE
  5
437
330
1A
100
AcDbEntity
  8
SEIHIN
  6
CONTINUOUS
 62
     3
 48
16.0
100
AcDbLine
 10
347.8408929850789
 20
178.8237994321233
 30
0.0
 11
375.6614929850789
 21
178.8237994321233
 31
0.0
  0
ARC
  5
438
330
1A
100
AcDbEntity
  8
SEIHIN
  6
CONTINUOUS
 62
     3
 48
16.0
100
AcDbCircle
 10
347.4059887810789
 20
183.3238053729233
 30
0.0
 40
1.300005940799999
100
AcDbArc
 50
187.0432994850999
 51
270.0001852827
  0
ARC
  5
439
330
1A
100
AcDbEntity
  8
SEIHIN
  6
CONTINUOUS
 62
     3
 48
16.0
100
AcDbCircle
 10
348.5409850166789
 20
184.5238059756233
 30
0.0
 40
1.000006543499999
100
AcDbArc
 50
188.8533264777999
 51
270.000456552
  0
LINE
  5
43A
330
1A
100
AcDbEntity
  8
CENTER_L
  6
CENTER
 62
     1
 48
5.0
100
AcDbLine
 10
381.6608786105974
 20
189.2218565250626
 30
0.0
 11
381.6607268335885
 21
164.0872802948229
 31
0.0
  0
ARC
  5
43B
330
1A
100
AcDbEntity
  8
SEIHIN
  6
CONTINUOUS
 62
     3
 48
16.0
100
AcDbCircle
 10
390.6614944792789
 20
172.0238009263233
 30
0.0
 40
9.9999985059
100
AcDbArc
 50
359.9999571956999
 51
90.00004280430001
  0
LINE
  5
43C
330
1A
100
AcDbEntity
  8
SEIHIN
  6
CONTINUOUS
 62
     3
 48
16.0
100
AcDbLine
 10
392.6614929850789
 20
163.8237994321233
 30
0.0
 11
392.6614929850789
 21
172.0237994321233
 31
0.0
  0
ARC
  5
43D
330
1A
100
AcDbEntity
  8
SEIHIN
  6
CONTINUOUS
 62
     3
 48
16.0
100
AcDbCircle
 10
390.6614944792789
 20
172.0238009263233
 30
0.0
 40
1.9999985059
100
AcDbArc
 50
359.9999571956999
 51
90.00004280430001
  0
LINE
  5
43E
330
1A
100
AcDbEntity
  8
SEIHIN
  6
CONTINUOUS
 62
     3
 48
16.0
100
AcDbLine
 10
400.6614929850789
 20
164.0237994321233
 30
0.0
 11
400.6614929850789
 21
172.0238043095233
 31
0.0
  0
LINE
  5
43F
330
1A
100
AcDbEntity
  8
SEIHIN
  6
CONTINUOUS
 62
     3
 48
16.0
100
AcDbLine
 10
381.6614929850789
 20
183.5236994321233
 30
0.0
 11
381.6614929850789
 21
183.5236994321233
 31
0.0
  0
LINE
  5
440
330
1A
100
AcDbEntity
  8
SEIHIN
  6
CONTINUOUS
 62
     3
 48
16.0
100
AcDbLine
 10
381.6614929850789
 20
183.5237994321233
 30
0.0
 11
381.6614929850789
 21
183.5237994321233
 31
0.0
  0
LINE
  5
441
330
1A
100
AcDbEntity
  8
SEIHIN
  6
CONTINUOUS
 62
     3
 48
16.0
100
AcDbLine
 10
381.6614929850789
 20
183.5237994321233
 30
0.0
 11
381.6614929850789
 21
183.5237994321233
 31
0.0
  0
LINE
  5
442
330
1A
100
AcDbEntity
  8
SEIHIN
  6
CONTINUOUS
 62
     3
 48
16.0
100
AcDbLine
 10
323.1614929850789
 20
256.5238994321233
 30
0.0
 11
323.1614929850789
 21
221.8237994321232
 31
0.0
  0
LINE
  5
443
330
1A
100
AcDbEntity
  8
SEIHIN
  6
CONTINUOUS
 62
     3
 48
16.0
100
AcDbLine
 10
324.6614929850789
 20
256.5238994321233
 30
0.0
 11
324.6614929850789
 21
222.5237994321233
 31
0.0
  0
ARC
  5
444
330
1A
100
AcDbEntity
  8
SEIHIN
  6
CONTINUOUS
 62
     3
 48
16.0
100
AcDbCircle
 10
325.1614926115789
 20
222.5237990586232
 30
0.0
 40
0.4999996265
100
AcDbArc
 50
179.9999571957
 51
270.0000428042999
  0
LINE
  5
445
330
1A
100
AcDbEntity
  8
SEIHIN
  6
CONTINUOUS
 62
     3
 48
16.0
100
AcDbLine
 10
330.9224929850789
 20
222.0237994321233
 30
0.0
 11
325.1614929850789
 21
222.0237994321233
 31
0.0
  0
LINE
  5
446
330
1A
100
AcDbEntity
  8
SEIHIN
  6
CONTINUOUS
 62
     3
 48
16.0
100
AcDbLine
 10
329.4110929850789
 20
220.5237994321233
 30
0.0
 11
324.4614929850789
 21
220.5237994321233
 31
0.0
  0
ARC
  5
447
330
1A
100
AcDbEntity
  8
SEIHIN
  6
CONTINUOUS
 62
     3
 48
16.0
100
AcDbCircle
 10
324.4614920138789
 20
221.8237984609233
 30
0.0
 40
1.299999028799999
100
AcDbArc
 50
179.9999571957
 51
270.0000428042999
  0
ARC
  5
448
330
1A
100
AcDbEntity
  8
SEIHIN
  6
CONTINUOUS
 62
     3
 48
16.0
100
AcDbCircle
 10
329.4110751966789
 20
219.0238120015233
 30
0.0
 40
1.499987430699999
100
AcDbArc
 50
11.88765478549999
 51
89.99932052670001
  0
ARC
  5
449
330
1A
100
AcDbEntity
  8
SEIHIN
  6
CONTINUOUS
 62
     3
 48
16.0
100
AcDbCircle
 10
330.9224832112789
 20
220.7238090637233
 30
0.0
 40
1.2999903684
100
AcDbArc
 50
11.8876999129
 51
89.99956922969998
  0
LINE
  5
44A
330
1A
100
AcDbEntity
  8
SEIHIN
  6
CONTINUOUS
 62
     3
 48
16.0
100
AcDbLine
 10
323.1614929850789
 20
256.5238994321233
 30
0.0
 11
324.6614929850789
 21
256.5238994321233
 31
0.0
  0
ARC
  5
44C
330
1A
100
AcDbEntity
  8
SEIHIN
  6
CONTINUOUS
 62
     3
 48
16.0
100
AcDbCircle
 10
343.0367929850789
 20
435.7617295417224
 30
0.0
 40
29.8844238436
100
AcDbArc
 50
259.3865022800999
 51
280.6134977199
  0
ARC
  5
44D
330
1A
100
AcDbEntity
  8
SEIHIN
  6
CONTINUOUS
 62
     3
 48
16.0
100
AcDbCircle
 10
343.0368929850789
 20
355.0154080969225
 30
0.0
 40
29.8844238436
100
AcDbArc
 50
79.38650228010001
 51
100.6134977199
  0
LINE
  5
44E
330
1A
100
AcDbEntity
  8
SEIHIN
  6
CONTINUOUS
 62
     3
 48
16.0
100
AcDbLine
 10
381.6614929850789
 20
387.8885688193225
 30
0.0
 11
331.4945929850789
 21
387.8886688193225
 31
0.0
  0
LINE
  5
44F
330
1A
100
AcDbEntity
  8
SEIHIN
  6
CONTINUOUS
 62
     3
 48
16.0
100
AcDbLine
 10
375.1231929850789
 20
392.8885688193225
 30
0.0
 11
331.4945929850789
 21
392.8886688193225
 31
0.0
  0
LINE
  5
450
330
1A
100
AcDbEntity
  8
SEIHIN
  6
CONTINUOUS
 62
     3
 48
16.0
100
AcDbLine
 10
375.1231929850789
 20
397.8885688193225
 30
0.0
 11
331.4945929850789
 21
397.8885688193225
 31
0.0
  0
LINE
  5
451
330
1A
100
AcDbEntity
  8
SEIHIN
  6
CONTINUOUS
 62
     3
 48
16.0
100
AcDbLine
 10
381.6614929850789
 20
402.8885688193225
 30
0.0
 11
331.4945929850789
 21
402.8885688193225
 31
0.0
  0
LINE
  5
452
330
1A
100
AcDbEntity
  8
SEIHIN
  6
CONTINUOUS
 62
     3
 48
16.0
100
AcDbLine
 10
324.6614929850789
 20
395.3885688193225
 30
0.0
 11
324.6614929850789
 21
382.8885688193225
 31
0.0
  0
ARC
  5
453
330
1A
100
AcDbEntity
  8
SEIHIN
  6
CONTINUOUS
 62
     3
 48
16.0
100
AcDbCircle
 10
331.4945929850789
 20
390.3886688193225
 30
0.0
 40
2.5
100
AcDbArc
 50
90.0
 51
270.0
  0
LINE
  5
454
330
1A
100
AcDbEntity
  8
SEIHIN
  6
CONTINUOUS
 62
     3
 48
16.0
100
AcDbLine
 10
323.8614929850789
 20
382.8885688193225
 30
0.0
 11
323.8614929850789
 21
395.3884688193225
 31
0.0
  0
LINE
  5
455
330
1A
100
AcDbEntity
  8
SEIHIN
  6
CONTINUOUS
 62
     3
 48
16.0
100
AcDbLine
 10
337.5326929850789
 20
384.3885688193225
 30
0.0
 11
324.6614929850789
 21
384.3885688193225
 31
0.0
  0
LINE
  5
456
330
1A
100
AcDbEntity
  8
SEIHIN
  6
CONTINUOUS
 62
     3
 48
16.0
100
AcDbLine
 10
324.6614929850789
 20
382.8885688193225
 30
0.0
 11
323.8615929850789
 21
382.8885688193225
 31
0.0
  0
LINE
  5
457
330
1A
100
AcDbEntity
  8
SEIHIN
  6
CONTINUOUS
 62
     3
 48
16.0
100
AcDbLine
 10
332.1945929850789
 20
384.3885688193225
 30
0.0
 11
332.1945929850789
 21
387.8885688193225
 31
0.0
  0
LINE
  5
458
330
1A
100
AcDbEntity
  8
SEIHIN
  6
CONTINUOUS
 62
     3
 48
16.0
100
AcDbLine
 10
337.5326929850789
 20
384.3885688193225
 30
0.0
 11
337.5326929850789
 21
387.8885688193225
 31
0.0
  0
LINE
  5
459
330
1A
100
AcDbEntity
  8
SEIHIN
  6
CONTINUOUS
 62
     3
 48
16.0
100
AcDbLine
 10
337.5326929850789
 20
406.3885688193225
 30
0.0
 11
324.6614929850789
 21
406.3885688193225
 31
0.0
  0
LINE
  5
45A
330
1A
100
AcDbEntity
  8
SEIHIN
  6
CONTINUOUS
 62
     3
 48
16.0
100
AcDbLine
 10
324.6614929850789
 20
395.3885688193225
 30
0.0
 11
324.6614929850789
 21
407.8885688193225
 31
0.0
  0
LINE
  5
45B
330
1A
100
AcDbEntity
  8
SEIHIN
  6
CONTINUOUS
 62
     3
 48
16.0
100
AcDbLine
 10
323.8614929850789
 20
407.8885688193225
 30
0.0
 11
323.8614929850789
 21
395.3886688193225
 31
0.0
  0
LINE
  5
45C
330
1A
100
AcDbEntity
  8
SEIHIN
  6
CONTINUOUS
 62
     3
 48
16.0
100
AcDbLine
 10
324.6614929850789
 20
407.8885688193225
 30
0.0
 11
323.8615929850789
 21
407.8885688193225
 31
0.0
  0
ARC
  5
45D
330
1A
100
AcDbEntity
  8
SEIHIN
  6
CONTINUOUS
 62
     3
 48
16.0
100
AcDbCircle
 10
331.4945929850789
 20
400.3885688193225
 30
0.0
 40
2.5
100
AcDbArc
 50
90.0
 51
270.0
  0
LINE
  5
45E
330
1A
100
AcDbEntity
  8
SEIHIN
  6
CONTINUOUS
 62
     3
 48
16.0
100
AcDbLine
 10
332.1945929850789
 20
392.8885688193225
 30
0.0
 11
332.1945929850789
 21
395.3885688193225
 31
0.0
  0
LINE
  5
45F
330
1A
100
AcDbEntity
  8
SEIHIN
  6
CONTINUOUS
 62
     3
 48
16.0
100
AcDbLine
 10
332.1945929850789
 20
397.8885688193225
 30
0.0
 11
332.1945929850789
 21
395.3885688193225
 31
0.0
  0
LINE
  5
460
330
1A
100
AcDbEntity
  8
SEIHIN
  6
CONTINUOUS
 62
     3
 48
16.0
100
AcDbLine
 10
337.5326929850789
 20
392.8885688193225
 30
0.0
 11
337.5326929850789
 21
395.3885688193225
 31
0.0
  0
LINE
  5
461
330
1A
100
AcDbEntity
  8
SEIHIN
  6
CONTINUOUS
 62
     3
 48
16.0
100
AcDbLine
 10
337.5326929850789
 20
397.8885688193225
 30
0.0
 11
337.5326929850789
 21
395.3885688193225
 31
0.0
  0
LINE
  5
462
330
1A
100
AcDbEntity
  8
SEIHIN
  6
CONTINUOUS
 62
     3
 48
16.0
100
AcDbLine
 10
332.1945929850789
 20
406.3885688193225
 30
0.0
 11
332.1945929850789
 21
402.8885688193225
 31
0.0
  0
LINE
  5
463
330
1A
100
AcDbEntity
  8
SEIHIN
  6
CONTINUOUS
 62
     3
 48
16.0
100
AcDbLine
 10
337.5326929850789
 20
406.3885688193225
 30
0.0
 11
337.5326929850789
 21
402.8885688193225
 31
0.0
  0
ARC
  5
464
330
1A
100
AcDbEntity
  8
SEIHIN
  6
CONTINUOUS
 62
     3
100
AcDbCircle
 10
381.6615929850788
 20
395.3885688193224
 30
0.0
 40
5.0
100
AcDbArc
 50
180.0
 51
0.0
  0
ARC
  5
465
330
1A
100
AcDbEntity
  8
SEIHIN
  6
CONTINUOUS
 62
     3
100
AcDbCircle
 10
381.6615929850788
 20
395.3885688193224
 30
0.0
 40
5.0
100
AcDbArc
 50
0.0
 51
180.0
  0
ARC
  5
466
330
1A
100
AcDbEntity
  8
SEIHIN
  6
CONTINUOUS
 62
     3
 48
16.0
100
AcDbCircle
 10
381.6615429850789
 20
395.3885661628225
 30
0.0
 40
7.0000024289
100
AcDbArc
 50
20.9248481047
 51
159.0751518952999
  0
ARC
  5
467
330
1A
100
AcDbEntity
  8
SEIHIN
  6
CONTINUOUS
 62
     3
 48
16.0
100
AcDbCircle
 10
381.6615429850789
 20
395.3885714758225
 30
0.0
 40
7.0000024289
100
AcDbArc
 50
200.9248481047
 51
339.0751518952999
  0
LINE
  5
468
330
1A
100
AcDbEntity
  8
SEIHIN
  6
CONTINUOUS
 62
     3
 48
16.0
100
AcDbLine
 10
381.6614929850789
 20
384.3885688193225
 30
0.0
 11
348.5409929850789
 21
384.3885688193225
 31
0.0
  0
LINE
  5
469
330
1A
100
AcDbEntity
  8
SEIHIN
  6
CONTINUOUS
 62
     3
 48
16.0
100
AcDbLine
 10
381.6614929850789
 20
406.3885688193225
 30
0.0
 11
348.5409929850789
 21
406.3885688193225
 31
0.0
  0
LINE
  5
46A
330
1A
100
AcDbEntity
  8
SEIHIN
  6
CONTINUOUS
 62
     3
 48
16.0
100
AcDbLine
 10
348.5409929850789
 20
384.3885688193225
 30
0.0
 11
348.5409929850789
 21
387.8885688193225
 31
0.0
  0
LINE
  5
46B
330
1A
100
AcDbEntity
  8
SEIHIN
  6
CONTINUOUS
 62
     3
 48
16.0
100
AcDbLine
 10
348.5410929850789
 20
392.8885688193225
 30
0.0
 11
348.5410929850789
 21
395.3885688193225
 31
0.0
  0
LINE
  5
46C
330
1A
100
AcDbEntity
  8
SEIHIN
  6
CONTINUOUS
 62
     3
 48
16.0
100
AcDbLine
 10
348.5410929850789
 20
397.8885688193225
 30
0.0
 11
348.5410929850789
 21
395.3885688193225
 31
0.0
  0
LINE
  5
46D
330
1A
100
AcDbEntity
  8
SEIHIN
  6
CONTINUOUS
 62
     3
 48
16.0
100
AcDbLine
 10
348.5409929850789
 20
406.3885688193225
 30
0.0
 11
348.5409929850789
 21
402.8885688193225
 31
0.0
  0
LINE
  5
46E
330
1A
100
AcDbEntity
  8
CENTER_L
  6
CENTER
 62
     1
 48
5.0
100
AcDbLine
 10
381.6615929850788
 20
378.5756669585662
 30
0.0
 11
381.6615929850789
 21
410.8066569612859
 31
0.0
  0
LINE
  5
46F
330
1A
100
AcDbEntity
  8
SEIHIN
  6
CONTINUOUS
 62
     3
 48
16.0
100
AcDbLine
 10
379.6615929850789
 20
393.3885688193225
 30
0.0
 11
379.6615929850789
 21
395.3885688193225
 31
0.0
  0
LINE
  5
470
330
1A
100
AcDbEntity
  8
SEIHIN
  6
CONTINUOUS
 62
     3
 48
16.0
100
AcDbLine
 10
383.6615929850789
 20
393.3885688193225
 30
0.0
 11
383.6615929850789
 21
395.3885688193225
 31
0.0
  0
LINE
  5
471
330
1A
100
AcDbEntity
  8
SEIHIN
  6
CONTINUOUS
 62
     3
 48
16.0
100
AcDbLine
 10
379.6615929850789
 20
393.3885688193225
 30
0.0
 11
383.6615929850789
 21
393.3885688193225
 31
0.0
  0
LINE
  5
472
330
1A
100
AcDbEntity
  8
SEIHIN
  6
CONTINUOUS
 62
     3
 48
16.0
100
AcDbLine
 10
379.6615929850789
 20
397.3885688193225
 30
0.0
 11
383.6615929850789
 21
397.3885688193225
 31
0.0
  0
LINE
  5
473
330
1A
100
AcDbEntity
  8
SEIHIN
  6
CONTINUOUS
 62
     3
 48
16.0
100
AcDbLine
 10
379.6615929850789
 20
397.3885688193225
 30
0.0
 11
379.6615929850789
 21
395.3885688193225
 31
0.0
  0
LINE
  5
474
330
1A
100
AcDbEntity
  8
SEIHIN
  6
CONTINUOUS
 62
     3
 48
16.0
100
AcDbLine
 10
383.6615929850789
 20
397.3885688193225
 30
0.0
 11
383.6615929850789
 21
395.3885688193225
 31
0.0
  0
LINE
  5
47A
330
1A
100
AcDbEntity
  8
SEIHIN
  6
CONTINUOUS
 62
     3
 48
16.0
100
AcDbLine
 10
425.7903929850789
 20
195.6359994321233
 30
0.0
 11
431.1283929850789
 21
220.9915994321232
 31
0.0
  0
LINE
  5
47B
330
1A
100
AcDbEntity
  8
SEIHIN
  6
CONTINUOUS
 62
     3
 48
16.0
100
AcDbLine
 10
430.5130929850789
 20
194.1421994321233
 30
0.0
 11
436.0670929850789
 21
220.5237994321233
 31
0.0
  0
LINE
  5
47C
330
1A
100
AcDbEntity
  8
SEIHIN
  6
CONTINUOUS
 62
     3
 48
16.0
100
AcDbLine
 10
427.210092985079
 20
194.4714994321233
 30
0.0
 11
432.4440929850789
 21
219.3327994321232
 31
0.0
  0
LINE
  5
47D
330
1A
100
AcDbEntity
  8
SEIHIN
  6
CONTINUOUS
 62
     3
 48
16.0
100
AcDbLine
 10
456.3898418399789
 20
194.1861894183233
 30
0.0
 11
482.4256074283789
 21
236.3157383072232
 31
0.0
  0
LINE
  5
47E
330
1A
100
AcDbEntity
  8
SEIHIN
  6
CONTINUOUS
 62
     3
 48
16.0
100
AcDbLine
 10
448.8661617226789
 20
197.2294463989232
 30
0.0
 11
474.4256029242789
 21
238.5882351012233
 31
0.0
  0
LINE
  5
47F
330
1A
100
AcDbEntity
  8
SEIHIN
  6
CONTINUOUS
 62
     3
 48
16.0
100
AcDbLine
 10
447.8560203816789
 20
194.7321284362233
 30
0.0
 11
440.200174376279
 21
159.7529763857233
 31
0.0
  0
ARC
  5
480
330
1A
100
AcDbEntity
  8
SEIHIN
  6
CONTINUOUS
 62
     3
 48
16.0
100
AcDbCircle
 10
425.9379615316789
 20
194.7392661727233
 30
0.0
 40
1.300006716199999
100
AcDbArc
 50
284.4879714998
 51
348.1135159392
  0
ARC
  5
481
330
1A
100
AcDbEntity
  8
SEIHIN
  6
CONTINUOUS
 62
     3
 48
16.0
100
AcDbCircle
 10
429.315139639179
 20
181.6685492754233
 30
0.0
 40
9.000038460599999
100
AcDbArc
 50
105.3025018188999
 51
171.1441323564
  0
ARC
  5
482
330
1A
100
AcDbEntity
  8
SEIHIN
  6
CONTINUOUS
 62
     3
 48
16.0
100
AcDbCircle
 10
428.6150476770789
 20
182.3685488509233
 30
0.0
 40
12.9999332763
100
AcDbArc
 50
105.763037537
 51
171.1440468051999
  0
ARC
  5
483
330
1A
100
AcDbEntity
  8
SEIHIN
  6
CONTINUOUS
 62
     3
 48
16.0
100
AcDbCircle
 10
429.315098977679
 20
181.6685349229233
 30
0.0
 40
12.19995894079999
100
AcDbArc
 50
104.4868070187
 51
172.9571125114
  0
ARC
  5
484
330
1A
100
AcDbEntity
  8
SEIHIN
  6
CONTINUOUS
 62
     3
 48
16.0
100
AcDbCircle
 10
415.4819940359788
 20
183.8237970524232
 30
0.0
 40
4.999997620299999
100
AcDbArc
 50
269.9999879572999
 51
351.1446984376
  0
ARC
  5
485
330
1A
100
AcDbEntity
  8
SEIHIN
  6
CONTINUOUS
 62
     3
 48
16.0
100
AcDbCircle
 10
415.9169971890789
 20
183.3238053729233
 30
0.0
 40
1.300005940799999
100
AcDbArc
 50
269.9998147173
 51
352.9567005149
  0
ARC
  5
486
330
1A
100
AcDbEntity
  8
SEIHIN
  6
CONTINUOUS
 62
     3
 48
16.0
100
AcDbCircle
 10
414.7820009534789
 20
184.5238059756233
 30
0.0
 40
1.000006543499999
100
AcDbArc
 50
269.9995434479999
 51
351.1466735222
  0
ARC
  5
487
330
1A
100
AcDbEntity
  8
SEIHIN
  6
CONTINUOUS
 62
     3
 48
16.0
100
AcDbCircle
 10
424.8118758129789
 20
195.8420884694232
 30
0.0
 40
0.9999842734999999
100
AcDbArc
 50
285.7607750029
 51
348.1065525407
  0
ARC
  5
488
330
1A
100
AcDbEntity
  8
SEIHIN
  6
CONTINUOUS
 62
     3
 48
16.0
100
AcDbCircle
 10
425.6203384485789
 20
195.1721373325233
 30
0.0
 40
5.0000025031
100
AcDbArc
 50
285.3022409320999
 51
348.1115178553
  0
LINE
  5
489
330
1A
100
AcDbEntity
  8
SEIHIN
  6
CONTINUOUS
 62
     3
 48
16.0
100
AcDbLine
 10
455.3797004989789
 20
191.6888714556233
 30
0.0
 11
448.015647096879
 21
158.0446479179233
 31
0.0
  0
ARC
  5
48A
330
1A
100
AcDbEntity
  8
SEIHIN
  6
CONTINUOUS
 62
     3
 48
16.0
100
AcDbCircle
 10
455.6714929850789
 20
193.0237994321233
 30
0.0
 40
8.0
100
AcDbArc
 50
148.2842257041999
 51
167.6700475879999
  0
ARC
  5
48B
330
1A
100
AcDbEntity
  8
SEIHIN
  6
CONTINUOUS
 62
     3
 48
16.0
100
AcDbCircle
 10
463.1951731023789
 20
189.9805424515233
 30
0.0
 40
8.0
100
AcDbArc
 50
148.2842257041999
 51
167.6700475879999
  0
LINE
  5
48C
330
1A
100
AcDbEntity
  8
SEIHIN
  6
CONTINUOUS
 62
     3
 48
16.0
100
AcDbLine
 10
473.6721708852789
 20
243.5237994321233
 30
0.0
 11
483.1721708852788
 21
243.5239994321232
 31
0.0
  0
LINE
  5
48D
330
1A
100
AcDbEntity
  8
SEIHIN
  6
CONTINUOUS
 62
     3
 48
16.0
100
AcDbLine
 10
473.6715708852789
 20
273.5237994321233
 30
0.0
 11
483.1715708852789
 21
273.5239994321232
 31
0.0
  0
LINE
  5
48E
330
1A
100
AcDbEntity
  8
SEIHIN
  6
CONTINUOUS
 62
     3
 48
16.0
100
AcDbLine
 10
473.6715708852789
 20
273.5237994321233
 30
0.0
 11
473.6722708852789
 21
243.5237994321233
 31
0.0
  0
ARC
  5
48F
330
1A
100
AcDbEntity
  8
SEIHIN
  6
CONTINUOUS
 62
     3
 48
16.0
100
AcDbCircle
 10
438.1614933585789
 20
222.5237990586232
 30
0.0
 40
0.4999996265
100
AcDbArc
 50
269.9999571957
 51
0.0000428043
  0
LINE
  5
490
330
1A
100
AcDbEntity
  8
SEIHIN
  6
CONTINUOUS
 62
     3
 48
16.0
100
AcDbLine
 10
440.1614929850788
 20
235.4927340452078
 30
0.0
 11
440.1614929850789
 21
221.8237994321232
 31
0.0
  0
LINE
  5
491
330
1A
100
AcDbEntity
  8
SEIHIN
  6
CONTINUOUS
 62
     3
 48
16.0
100
AcDbLine
 10
432.4004929850789
 20
222.0237994321233
 30
0.0
 11
438.161492985079
 21
222.0237994321233
 31
0.0
  0
LINE
  5
492
330
1A
100
AcDbEntity
  8
SEIHIN
  6
CONTINUOUS
 62
     3
 48
16.0
100
AcDbLine
 10
433.100492985079
 20
220.5237994321233
 30
0.0
 11
438.8614929850789
 21
220.5237994321233
 31
0.0
  0
ARC
  5
493
330
1A
100
AcDbEntity
  8
SEIHIN
  6
CONTINUOUS
 62
     3
 48
16.0
100
AcDbCircle
 10
432.4005027588789
 20
220.7238090637233
 30
0.0
 40
1.2999903684
100
AcDbArc
 50
90.00043077030001
 51
168.1123000870999
  0
ARC
  5
494
330
1A
100
AcDbEntity
  8
SEIHIN
  6
CONTINUOUS
 62
     3
 48
16.0
100
AcDbCircle
 10
433.9119107734789
 20
219.0238120015233
 30
0.0
 40
1.499987430699999
100
AcDbArc
 50
90.0006794733
 51
168.1123452145
  0
ARC
  5
495
330
1A
100
AcDbEntity
  8
SEIHIN
  6
CONTINUOUS
 62
     3
 48
16.0
100
AcDbCircle
 10
438.8614939562789
 20
221.8237984609233
 30
0.0
 40
1.299999028799999
100
AcDbArc
 50
269.9999571957
 51
0.0000428043
  0
LINE
  5
496
330
1A
100
AcDbEntity
  8
SEIHIN
  6
CONTINUOUS
 62
     3
 48
16.0
100
AcDbLine
 10
438.6614929850789
 20
234.905790966757
 30
0.0
 11
438.6614929850789
 21
222.5237994321233
 31
0.0
  0
LINE
  5
497
330
1A
100
AcDbEntity
  8
SEIHIN
  6
CONTINUOUS
 62
     3
 48
16.0
100
AcDbLine
 10
428.5160106703988
 20
234.1971874984706
 30
0.0
 11
438.0991285615258
 21
235.4018863997886
 31
0.0
  0
LINE
  5
498
330
1A
100
AcDbEntity
  8
SEIHIN
  6
CONTINUOUS
 62
     3
 48
16.0
100
AcDbLine
 10
438.6993402273374
 20
236.7825815102814
 30
0.0
 11
428.3545531449741
 21
235.482089941259
 31
0.0
  0
LINE
  5
499
330
1A
100
AcDbEntity
  8
SEIHIN
  6
CONTINUOUS
 62
     3
 48
16.0
100
AcDbLine
 10
428.7359949828928
 20
232.4477711751626
 30
0.0
 11
438.2722842046944
 21
235.3933617879267
 31
0.0
  0
LINE
  5
49A
330
1A
100
AcDbEntity
  8
SEIHIN
  6
CONTINUOUS
 62
     3
 48
16.0
100
AcDbLine
 10
428.3545395136233
 20
235.4819908746841
 30
0.0
 11
428.7359949828928
 21
232.4477711751626
 31
0.0
  0
LINE
  5
49D
330
1A
100
AcDbEntity
  8
SEIHIN
  6
CONTINUOUS
 62
     3
 48
16.0
100
AcDbLine
 10
475.1722708852788
 20
241.2167644554233
 30
0.0
 11
475.1722708852788
 21
243.5237994321233
 31
0.0
  0
ARC
  5
49E
330
1A
100
AcDbEntity
  8
SEIHIN
  6
CONTINUOUS
 62
     3
 48
16.0
100
AcDbCircle
 10
470.1722708852789
 20
241.2167644554233
 30
0.0
 40
5.0
100
AcDbArc
 50
328.2842257041999
 51
0.0
  0
LINE
  5
49F
330
1A
100
AcDbEntity
  8
SEIHIN
  6
CONTINUOUS
 62
     3
 48
16.0
100
AcDbLine
 10
471.6717708852789
 20
262.5236994321233
 30
0.0
 11
471.6719708852789
 21
254.5236994321232
 31
0.0
  0
LINE
  5
4A0
330
1A
100
AcDbEntity
  8
SEIHIN
  6
CONTINUOUS
 62
     3
 48
16.0
100
AcDbLine
 10
471.6719708852789
 20
254.5236994321232
 30
0.0
 11
473.6719708852789
 21
254.5237994321233
 31
0.0
  0
LINE
  5
4A1
330
1A
100
AcDbEntity
  8
SEIHIN
  6
CONTINUOUS
 62
     3
 48
16.0
100
AcDbLine
 10
473.6717708852789
 20
262.5237994321233
 30
0.0
 11
471.6717708852789
 21
262.5236994321233
 31
0.0
  0
LINE
  5
4A2
330
1A
100
AcDbEntity
  8
SEIHIN
  6
CONTINUOUS
 62
     3
 48
16.0
100
AcDbLine
 10
483.172275388379
 20
238.9443695282233
 30
0.0
 11
483.1715708852789
 21
273.5239994321232
 31
0.0
  0
LINE
  5
4A3
330
1A
100
AcDbEntity
  8
SEIHIN
  6
CONTINUOUS
 62
     3
 48
16.0
100
AcDbLine
 10
481.6715708852789
 20
273.5239994321232
 30
0.0
 11
481.6722708852789
 21
243.5239994321232
 31
0.0
  0
ARC
  5
4A4
330
1A
100
AcDbEntity
  8
SEIHIN
  6
CONTINUOUS
 62
     3
 48
16.0
100
AcDbCircle
 10
478.1722753893789
 20
238.9442676614232
 30
0.0
 40
5.0
100
AcDbArc
 50
328.2842257041999
 51
0.0011673073
  0
LINE
  5
4A5
330
1A
100
AcDbEntity
  8
SEIHIN
  6
CONTINUOUS
 62
     3
 48
16.0
100
AcDbLine
 10
481.6715708852789
 20
270.0809994321232
 30
0.0
 11
480.5615708852789
 21
268.5239994321232
 31
0.0
  0
LINE
  5
4A6
330
1A
100
AcDbEntity
  8
CENTER_L
  6
CENTER
 62
     1
 48
5.0
100
AcDbLine
 10
490.1720731449578
 20
248.8712994321232
 30
0.0
 11
476.8060484619789
 21
248.8712994321232
 31
0.0
  0
LINE
  5
4A7
330
1A
100
AcDbEntity
  8
SEIHIN
  6
CONTINUOUS
 62
     3
 48
16.0
100
AcDbLine
 10
481.6721708852789
 20
247.1527994321232
 30
0.0
 11
480.4816708852789
 21
248.5238994321233
 31
0.0
  0
LINE
  5
4A8
330
1A
100
AcDbEntity
  8
SEIHIN
  6
CONTINUOUS
 62
     3
 48
16.0
100
AcDbLine
 10
481.6720708852789
 20
249.8950994321233
 30
0.0
 11
480.4817708852789
 21
248.5238994321233
 31
0.0
  0
LINE
  5
4A9
330
1A
100
AcDbEntity
  8
SEIHIN
  6
CONTINUOUS
 62
     3
 48
16.0
100
AcDbLine
 10
481.6716708852789
 20
266.9666994321232
 30
0.0
 11
480.5615708852789
 21
268.5235994321233
 31
0.0
  0
LINE
  5
4AA
330
1A
100
AcDbEntity
  8
CENTER_L
  6
CENTER
 62
     1
 48
5.0
100
AcDbLine
 10
490.1716656778437
 20
268.8712994321233
 30
0.0
 11
477.0359484619789
 21
268.8712994321233
 31
0.0
  0
LINE
  5
4D1
330
1A
100
AcDbEntity
  8
SEIHIN
  6
CONTINUOUS
 62
     3
 48
16.0
100
AcDbLine
 10
481.6709708852789
 20
405.8885688193225
 30
0.0
 11
481.6709708852789
 21
425.3885688193225
 31
0.0
  0
LINE
  5
4D2
330
1A
100
AcDbEntity
  8
SEIHIN
  6
CONTINUOUS
 62
     3
 48
16.0
100
AcDbLine
 10
483.1715708852789
 20
425.3888688193224
 30
0.0
 11
483.1711708852789
 21
405.3885688193225
 31
0.0
  0
LINE
  5
4D3
330
1A
100
AcDbEntity
  8
SEIHIN
  6
CONTINUOUS
 62
     3
 48
16.0
100
AcDbLine
 10
480.6709708852789
 20
401.8885688193225
 30
0.0
 11
475.1709708852788
 21
401.8885688193225
 31
0.0
  0
ARC
  5
4D4
330
1A
100
AcDbEntity
  8
SEIHIN
  6
CONTINUOUS
 62
     3
 48
16.0
100
AcDbCircle
 10
476.1709701381788
 20
402.3885695664224
 30
0.0
 40
0.9999992529
100
AcDbArc
 50
89.9999571957
 51
180.0000428042999
  0
ARC
  5
4D5
330
1A
100
AcDbEntity
  8
SEIHIN
  6
CONTINUOUS
 62
     3
 48
16.0
100
AcDbCircle
 10
476.1709701381788
 20
388.3885680722225
 30
0.0
 40
0.9999992529
100
AcDbArc
 50
179.9999571957
 51
270.0000428042999
  0
ARC
  5
4D6
330
1A
100
AcDbEntity
  8
SEIHIN
  6
CONTINUOUS
 62
     3
 48
16.0
100
AcDbCircle
 10
475.6709693910789
 20
387.8885673251225
 30
0.0
 40
1.9999985059
100
AcDbArc
 50
179.9999571957
 51
270.0000428042999
  0
LINE
  5
4D7
330
1A
100
AcDbEntity
  8
SEIHIN
  6
CONTINUOUS
 62
     3
 48
16.0
100
AcDbLine
 10
480.6709708852789
 20
388.8885688193225
 30
0.0
 11
475.1709708852788
 21
388.8885688193225
 31
0.0
  0
ARC
  5
4D8
330
1A
100
AcDbEntity
  8
SEIHIN
  6
CONTINUOUS
 62
     3
 48
16.0
100
AcDbCircle
 10
475.6709693910789
 20
402.8885703135225
 30
0.0
 40
1.9999985059
100
AcDbArc
 50
89.9999571957
 51
180.0000428042999
  0
LINE
  5
4D9
330
1A
100
AcDbEntity
  8
CENTER_L
  6
CENTER
 62
     1
 48
5.0
100
AcDbLine
 10
490.1428708852789
 20
370.3885688193225
 30
0.0
 11
474.9435708852788
 21
370.3885688193225
 31
0.0
  0
LINE
  5
4DA
330
1A
100
AcDbEntity
  8
SEIHIN
  6
CONTINUOUS
 62
     3
 48
16.0
100
AcDbLine
 10
473.7344708852789
 20
403.3885688193225
 30
0.0
 11
439.4614929850789
 21
403.3885688193225
 31
0.0
  0
LINE
  5
4DB
330
1A
100
AcDbEntity
  8
SEIHIN
  6
CONTINUOUS
 62
     3
 48
16.0
100
AcDbLine
 10
473.7344708852789
 20
387.3885688193225
 30
0.0
 11
439.4614929850789
 21
387.3885688193225
 31
0.0
  0
LINE
  5
4DC
330
1A
100
AcDbEntity
  8
SEIHIN
  6
CONTINUOUS
 62
     3
 48
16.0
100
AcDbLine
 10
473.6709708852789
 20
388.8885688193225
 30
0.0
 11
439.4614929850789
 21
388.8885688193225
 31
0.0
  0
LINE
  5
4DD
330
1A
100
AcDbEntity
  8
SEIHIN
  6
CONTINUOUS
 62
     3
 48
16.0
100
AcDbLine
 10
473.6709708852789
 20
401.8885688193225
 30
0.0
 11
439.4614929850789
 21
401.8885688193225
 31
0.0
  0
LINE
  5
4DE
330
1A
100
AcDbEntity
  8
SEIHIN
  6
CONTINUOUS
 62
     3
 48
16.0
100
AcDbLine
 10
439.4614929850789
 20
382.8885688193225
 30
0.0
 11
439.4614929850789
 21
395.3885688193225
 31
0.0
  0
LINE
  5
4DF
330
1A
100
AcDbEntity
  8
SEIHIN
  6
CONTINUOUS
 62
     3
 48
16.0
100
AcDbLine
 10
428.4615929850789
 20
395.3885688193225
 30
0.0
 11
428.4615929850789
 21
386.3885688193225
 31
0.0
  0
LINE
  5
4E0
330
1A
100
AcDbEntity
  8
SEIHIN
  6
CONTINUOUS
 62
     3
 48
16.0
100
AcDbLine
 10
425.7903929850789
 20
384.3885688193225
 30
0.0
 11
438.6614929850789
 21
384.3884688193225
 31
0.0
  0
ARC
  5
4E1
330
1A
100
AcDbEntity
  8
SEIHIN
  6
CONTINUOUS
 62
     3
 48
16.0
100
AcDbCircle
 10
420.2861929850789
 20
355.0153080969225
 30
0.0
 40
29.8844238436
100
AcDbArc
 50
79.38650228010001
 51
100.6134977199
  0
LINE
  5
4E2
330
1A
100
AcDbEntity
  8
SEIHIN
  6
CONTINUOUS
 62
     3
 48
16.0
100
AcDbLine
 10
414.7819929850789
 20
384.3885688193225
 30
0.0
 11
414.7819929850789
 21
387.8884688193225
 31
0.0
  0
LINE
  5
4E3
330
1A
100
AcDbEntity
  8
SEIHIN
  6
CONTINUOUS
 62
     3
 48
16.0
100
AcDbLine
 10
425.7903929850789
 20
384.3884688193225
 30
0.0
 11
425.7903929850789
 21
387.8885688193225
 31
0.0
  0
LINE
  5
4E4
330
1A
100
AcDbEntity
  8
SEIHIN
  6
CONTINUOUS
 62
     3
 48
16.0
100
AcDbLine
 10
437.6614929850789
 20
386.3885688193225
 30
0.0
 11
428.4615929850789
 21
386.3885688193225
 31
0.0
  0
LINE
  5
4E5
330
1A
100
AcDbEntity
  8
SEIHIN
  6
CONTINUOUS
 62
     3
 48
16.0
100
AcDbLine
 10
431.1284929850789
 20
384.3884688193225
 30
0.0
 11
431.1284929850789
 21
386.3885688193225
 31
0.0
  0
LINE
  5
4E6
330
1A
100
AcDbEntity
  8
SEIHIN
  6
CONTINUOUS
 62
     3
 48
16.0
100
AcDbLine
 10
438.6614929850789
 20
385.3885688193225
 30
0.0
 11
438.6614929850789
 21
382.8885688193225
 31
0.0
  0
LINE
  5
4E7
330
1A
100
AcDbEntity
  8
SEIHIN
  6
CONTINUOUS
 62
     3
 48
16.0
100
AcDbLine
 10
438.6614929850789
 20
382.8885688193225
 30
0.0
 11
439.4614929850789
 21
382.8885688193225
 31
0.0
  0
ARC
  5
4E8
330
1A
100
AcDbEntity
  8
SEIHIN
  6
CONTINUOUS
 62
     3
 48
16.0
100
AcDbCircle
 10
437.6614937321789
 20
385.3885695664225
 30
0.0
 40
0.9999992529
100
AcDbArc
 50
359.9999571956999
 51
90.00004280430001
  0
LINE
  5
4E9
330
1A
100
AcDbEntity
  8
SEIHIN
  6
CONTINUOUS
 62
     3
 48
16.0
100
AcDbLine
 10
425.7903929850789
 20
406.3886688193225
 30
0.0
 11
438.6614929850789
 21
406.3886688193225
 31
0.0
  0
LINE
  5
4EA
330
1A
100
AcDbEntity
  8
SEIHIN
  6
CONTINUOUS
 62
     3
 48
16.0
100
AcDbLine
 10
414.7819929850789
 20
392.8884688193225
 30
0.0
 11
414.7819929850789
 21
395.3885688193225
 31
0.0
  0
LINE
  5
4EB
330
1A
100
AcDbEntity
  8
SEIHIN
  6
CONTINUOUS
 62
     3
 48
16.0
100
AcDbLine
 10
414.7819929850789
 20
397.8886688193225
 30
0.0
 11
414.7819929850789
 21
395.3886688193225
 31
0.0
  0
LINE
  5
4EC
330
1A
100
AcDbEntity
  8
SEIHIN
  6
CONTINUOUS
 62
     3
 48
16.0
100
AcDbLine
 10
425.7903929850789
 20
392.8884688193225
 30
0.0
 11
425.7903929850789
 21
395.3884688193225
 31
0.0
  0
LINE
  5
4ED
330
1A
100
AcDbEntity
  8
SEIHIN
  6
CONTINUOUS
 62
     3
 48
16.0
100
AcDbLine
 10
425.7903929850789
 20
397.8886688193225
 30
0.0
 11
425.7903929850789
 21
395.3886688193225
 31
0.0
  0
ARC
  5
4EE
330
1A
100
AcDbEntity
  8
SEIHIN
  6
CONTINUOUS
 62
     3
 48
16.0
100
AcDbCircle
 10
420.2861929850789
 20
435.7618295417225
 30
0.0
 40
29.8844238436
100
AcDbArc
 50
259.3865022800999
 51
280.6134977199
  0
LINE
  5
4EF
330
1A
100
AcDbEntity
  8
SEIHIN
  6
CONTINUOUS
 62
     3
 48
16.0
100
AcDbLine
 10
414.7819929850789
 20
406.3886688193225
 30
0.0
 11
414.7819929850789
 21
402.8886688193225
 31
0.0
  0
LINE
  5
4F0
330
1A
100
AcDbEntity
  8
SEIHIN
  6
CONTINUOUS
 62
     3
 48
16.0
100
AcDbLine
 10
425.7903929850789
 20
406.3886688193225
 30
0.0
 11
425.7903929850789
 21
402.8886688193225
 31
0.0
  0
LINE
  5
4F1
330
1A
100
AcDbEntity
  8
SEIHIN
  6
CONTINUOUS
 62
     3
 48
16.0
100
AcDbLine
 10
439.4614929850789
 20
407.8885688193225
 30
0.0
 11
439.4614929850789
 21
395.3885688193225
 31
0.0
  0
LINE
  5
4F2
330
1A
100
AcDbEntity
  8
SEIHIN
  6
CONTINUOUS
 62
     3
 48
16.0
100
AcDbLine
 10
428.4615929850789
 20
395.3885688193225
 30
0.0
 11
428.4615929850789
 21
404.3885688193225
 31
0.0
  0
LINE
  5
4F3
330
1A
100
AcDbEntity
  8
SEIHIN
  6
CONTINUOUS
 62
     3
 48
16.0
100
AcDbLine
 10
437.6614929850789
 20
404.3885688193225
 30
0.0
 11
428.4615929850789
 21
404.3885688193225
 31
0.0
  0
LINE
  5
4F4
330
1A
100
AcDbEntity
  8
SEIHIN
  6
CONTINUOUS
 62
     3
 48
16.0
100
AcDbLine
 10
431.1284929850789
 20
406.3886688193225
 30
0.0
 11
431.1284929850789
 21
404.3885688193225
 31
0.0
  0
LINE
  5
4F5
330
1A
100
AcDbEntity
  8
SEIHIN
  6
CONTINUOUS
 62
     3
 48
16.0
100
AcDbLine
 10
438.6614929850789
 20
405.3885688193225
 30
0.0
 11
438.6614929850789
 21
407.8885688193225
 31
0.0
  0
ARC
  5
4F6
330
1A
100
AcDbEntity
  8
SEIHIN
  6
CONTINUOUS
 62
     3
 48
16.0
100
AcDbCircle
 10
437.6614937321789
 20
405.3885680722225
 30
0.0
 40
0.9999992529
100
AcDbArc
 50
269.9999571957
 51
0.0000428043
  0
LINE
  5
4F7
330
1A
100
AcDbEntity
  8
SEIHIN
  6
CONTINUOUS
 62
     3
 48
16.0
100
AcDbLine
 10
438.6614929850789
 20
407.8885688193225
 30
0.0
 11
439.4614929850789
 21
407.8885688193225
 31
0.0
  0
LINE
  5
4F8
330
1A
100
AcDbEntity
  8
SEIHIN
  6
CONTINUOUS
 62
     3
 48
16.0
100
AcDbLine
 10
475.1709708852788
 20
395.3902688193225
 30
0.0
 11
475.1709708852788
 21
388.3885688193225
 31
0.0
  0
LINE
  5
4F9
330
1A
100
AcDbEntity
  8
SEIHIN
  6
CONTINUOUS
 62
     3
 48
16.0
100
AcDbLine
 10
473.6709708852789
 20
395.3902688193225
 30
0.0
 11
473.6709708852789
 21
387.8885688193225
 31
0.0
  0
LINE
  5
4FA
330
1A
100
AcDbEntity
  8
SEIHIN
  6
CONTINUOUS
 62
     3
 48
16.0
100
AcDbLine
 10
448.2452186055789
 20
387.3885688193225
 30
0.0
 11
448.2452186055789
 21
388.8885688193225
 31
0.0
  0
LINE
  5
4FB
330
1A
100
AcDbEntity
  8
SEIHIN
  6
CONTINUOUS
 62
     3
 48
16.0
100
AcDbLine
 10
448.2452186055789
 20
401.8885688193225
 30
0.0
 11
448.2452186055789
 21
403.3885688193225
 31
0.0
  0
LINE
  5
4FC
330
1A
100
AcDbEntity
  8
SEIHIN
  6
CONTINUOUS
 62
     3
 48
16.0
100
AcDbLine
 10
475.1709708852788
 20
395.3868688193225
 30
0.0
 11
475.1709708852788
 21
402.3885688193225
 31
0.0
  0
LINE
  5
4FD
330
1A
100
AcDbEntity
  8
SEIHIN
  6
CONTINUOUS
 62
     3
 48
16.0
100
AcDbLine
 10
473.6709708852789
 20
395.3868688193225
 30
0.0
 11
473.6709708852789
 21
402.8885688193225
 31
0.0
  0
LINE
  5
4FE
330
1A
100
AcDbEntity
  8
SEIHIN
  6
CONTINUOUS
 62
     3
 48
16.0
100
AcDbLine
 10
471.6709708852788
 20
395.3868688193225
 30
0.0
 11
471.6709708852788
 21
399.3885688193225
 31
0.0
  0
LINE
  5
4FF
330
1A
100
AcDbEntity
  8
SEIHIN
  6
CONTINUOUS
 62
     3
 48
16.0
100
AcDbLine
 10
473.6709708852789
 20
399.3885688193225
 30
0.0
 11
471.6709708852788
 21
399.3885688193225
 31
0.0
  0
LINE
  5
500
330
1A
100
AcDbEntity
  8
SEIHIN
  6
CONTINUOUS
 62
     3
 48
16.0
100
AcDbLine
 10
473.6709708852789
 20
391.3885688193225
 30
0.0
 11
471.6709708852788
 21
391.3885688193225
 31
0.0
  0
LINE
  5
501
330
1A
100
AcDbEntity
  8
SEIHIN
  6
CONTINUOUS
 62
     3
 48
16.0
100
AcDbLine
 10
471.6709708852788
 20
395.3902688193225
 30
0.0
 11
471.6709708852788
 21
391.3885688193225
 31
0.0
  0
ARC
  5
502
330
1A
100
AcDbEntity
  8
SEIHIN
  6
CONTINUOUS
 62
     3
 48
16.0
100
AcDbCircle
 10
481.1710723793789
 20
389.3885673251225
 30
0.0
 40
1.9999985059
100
AcDbArc
 50
269.9999571957
 51
0.0000428043
  0
LINE
  5
503
330
1A
100
AcDbEntity
  8
SEIHIN
  6
CONTINUOUS
 62
     3
 48
16.0
100
AcDbLine
 10
481.6709708852789
 20
384.8885688193225
 30
0.0
 11
481.6709708852789
 21
365.3885688193224
 31
0.0
  0
LINE
  5
504
330
1A
100
AcDbEntity
  8
SEIHIN
  6
CONTINUOUS
 62
     3
 48
16.0
100
AcDbLine
 10
483.1715708852789
 20
365.3882688193224
 30
0.0
 11
483.1711708852789
 21
385.3886688193225
 31
0.0
  0
LINE
  5
505
330
1A
100
AcDbEntity
  8
SEIHIN
  6
CONTINUOUS
 62
     3
 48
16.0
100
AcDbLine
 10
483.1715708852789
 20
365.3885688193224
 30
0.0
 11
481.6709708852789
 21
365.3885688193224
 31
0.0
  0
ARC
  5
506
330
1A
100
AcDbEntity
  8
SEIHIN
  6
CONTINUOUS
 62
     3
 48
16.0
100
AcDbCircle
 10
481.171172379379
 20
385.3885703135225
 30
0.0
 40
1.9999985059
100
AcDbArc
 50
359.9999571956999
 51
90.00004280430001
  0
LINE
  5
507
330
1A
100
AcDbEntity
  8
SEIHIN
  6
CONTINUOUS
 62
     3
 48
16.0
100
AcDbLine
 10
480.6709708852789
 20
385.8885688193225
 30
0.0
 11
475.6709708852788
 21
385.8885688193225
 31
0.0
  0
LINE
  5
508
330
1A
100
AcDbEntity
  8
SEIHIN
  6
CONTINUOUS
 62
     3
 48
16.0
100
AcDbLine
 10
481.1711708852789
 20
387.3885688193225
 30
0.0
 11
475.9117708852788
 21
387.3885688193225
 31
0.0
  0
ARC
  5
509
330
1A
100
AcDbEntity
  8
SEIHIN
  6
CONTINUOUS
 62
     3
 48
16.0
100
AcDbCircle
 10
480.6709716323789
 20
384.8885695664225
 30
0.0
 40
0.9999992529
100
AcDbArc
 50
359.9999571956999
 51
90.00004280430001
  0
LINE
  5
50A
330
1A
100
AcDbEntity
  8
SEIHIN
  6
CONTINUOUS
 62
     3
 48
16.0
100
AcDbLine
 10
483.1710708852789
 20
401.3885688193225
 30
0.0
 11
483.1709708852788
 21
395.3868688193225
 31
0.0
  0
LINE
  5
50B
330
1A
100
AcDbEntity
  8
SEIHIN
  6
CONTINUOUS
 62
     3
 48
16.0
100
AcDbLine
 10
481.6709708852789
 20
395.3868688193225
 30
0.0
 11
481.6709708852789
 21
401.1953688193225
 31
0.0
  0
LINE
  5
50C
330
1A
100
AcDbEntity
  8
SEIHIN
  6
CONTINUOUS
 62
     3
 48
16.0
100
AcDbLine
 10
481.6709708852789
 20
395.3902688193225
 30
0.0
 11
481.6709708852789
 21
389.5817688193224
 31
0.0
  0
LINE
  5
50D
330
1A
100
AcDbEntity
  8
SEIHIN
  6
CONTINUOUS
 62
     3
 48
16.0
100
AcDbLine
 10
483.1710708852789
 20
389.3886688193225
 30
0.0
 11
483.1709708852788
 21
395.3902688193225
 31
0.0
  0
ARC
  5
50E
330
1A
100
AcDbEntity
  8
SEIHIN
  6
CONTINUOUS
 62
     3
 48
16.0
100
AcDbCircle
 10
480.6709716323789
 20
389.8885680722225
 30
0.0
 40
0.9999992529
100
AcDbArc
 50
269.9999571957
 51
0.0000428043
  0
ARC
  5
50F
330
1A
100
AcDbEntity
  8
SEIHIN
  6
CONTINUOUS
 62
     3
 48
16.0
100
AcDbCircle
 10
481.1710701793789
 20
401.3885681110225
 30
0.0
 40
2.000000708299999
100
AcDbArc
 50
359.997155504
 51
89.99997977860001
  0
ARC
  5
510
330
1A
100
AcDbEntity
  8
SEIHIN
  6
CONTINUOUS
 62
     3
 48
16.0
100
AcDbCircle
 10
481.1711711671789
 20
405.3885685398225
 30
0.0
 40
1.9999997205
100
AcDbArc
 50
269.999991923
 51
359.9971432165
  0
LINE
  5
511
330
1A
100
AcDbEntity
  8
SEIHIN
  6
CONTINUOUS
 62
     3
 48
16.0
100
AcDbLine
 10
480.6709708852789
 20
404.8885688193225
 30
0.0
 11
475.6709708852788
 21
404.8885688193225
 31
0.0
  0
ARC
  5
512
330
1A
100
AcDbEntity
  8
SEIHIN
  6
CONTINUOUS
 62
     3
 48
16.0
100
AcDbCircle
 10
480.6709716323789
 20
405.8885680722225
 30
0.0
 40
0.9999992529
100
AcDbArc
 50
269.9999571957
 51
0.0000428043
  0
LINE
  5
513
330
1A
100
AcDbEntity
  8
SEIHIN
  6
CONTINUOUS
 62
     3
 48
16.0
100
AcDbLine
 10
481.1711708852789
 20
403.3885688193225
 30
0.0
 11
475.9117708852788
 21
403.3885688193225
 31
0.0
  0
ARC
  5
514
330
1A
100
AcDbEntity
  8
SEIHIN
  6
CONTINUOUS
 62
     3
 48
16.0
100
AcDbCircle
 10
480.6709716323789
 20
400.8885695664225
 30
0.0
 40
0.9999992529
100
AcDbArc
 50
359.9999571956999
 51
90.00004280430001
  0
LINE
  5
515
330
1A
100
AcDbEntity
  8
CENTER_L
  6
CENTER
 62
     1
 48
5.0
100
AcDbLine
 10
490.1428708852789
 20
420.3885688193225
 30
0.0
 11
474.9435708852788
 21
420.3885688193225
 31
0.0
  0
LINE
  5
516
330
1A
100
AcDbEntity
  8
SEIHIN
  6
CONTINUOUS
 62
     3
 48
16.0
100
AcDbLine
 10
483.1715708852789
 20
425.3885688193225
 30
0.0
 11
481.6709708852789
 21
425.3885688193225
 31
0.0
  0
LEADER
  5
636
330
1A
100
AcDbEntity
  8
SUNPOU
  6
CONTINUOUS
 62
     4
100
AcDbLeader
  3
STANDARD
 73
     0
 40
6.0
 41
30.19999999999999
 76
     3
 10
610.3697020547953
 20
270.184693784064
 30
0.0
 10
599.6165991467577
 20
294.6120568715765
 30
0.0
 10
597.3292356731406
 20
294.6120568715765
 30
0.0
1001
ACAD
1000
DSTYLE
1002
{
1070
     6
1000
OPEN
1070
    41
1040
7.0
1070
    42
1040
6.0
1070
    43
1040
14.0
1070
    44
1040
3.0
1070
    73
1070
     0
1070
    74
1070
     0
1070
    77
1070
     3
1070
   140
1040
6.0
1070
   141
1040
150.0
1070
   147
1040
2.0
1070
   172
1070
     1
1070
   173
1070
     1
1070
   176
1070
     4
1070
   177
1070
     4
1070
   178
1070
     4
1070
   271
1070
     0
1070
   272
1070
     2
1070
   341
1005
6D
1070
   343
1005
6D
1070
   344
1005
6D
1002
}
  0
DIMENSION
  5
637
330
1A
100
AcDbEntity
  8
SUNPOU
  6
CONTINUOUS
100
AcDbDimension
  2
*D2
 10
580.954895730369
 20
248.8711994321939
 30
0.0
 11
575.954895730369
 21
258.8711994321939
 31
0.0
 12
0.0
 22
-25.10177334348099
 32
0.0
 70
    32
  3
STANDARD
100
AcDbAlignedDimension
 13
606.8779070520778
 23
268.8711994321939
 33
0.0
 14
606.8778403854111
 24
248.8711994321939
 34
0.0
 50
90.0
100
AcDbRotatedDimension
1001
ACAD
1000
DSTYLE
1002
{
1070
   140
1040
6.0
1070
    74
1070
     0
1070
   172
1070
     1
1070
    73
1070
     0
1070
   272
1070
     2
1070
    77
1070
     3
1070
   173
1070
     1
1070
   147
1040
2.0
1070
    42
1040
6.0
1070
    44
1040
3.0
1070
    43
1040
14.0
1070
   271
1070
     0
1070
   178
1070
     4
1070
   177
1070
     4
1070
   176
1070
     4
1070
   141
1040
150.0
1070
     7
1000
_OPEN
1070
     6
1000
_OPEN
1070
    41
1040
7.0
1002
}
  0
DIMENSION
  5
638
330
1A
100
AcDbEntity
  8
SUNPOU
  6
CONTINUOUS
100
AcDbDimension
  2
*D3
 10
606.8779237187444
 20
311.6108684450765
 30
0.0
 11
636.8779237187444
 21
316.6108684450765
 31
0.0
 12
0.0
 22
-25.10177334348099
 32
0.0
 70
    32
  3
STANDARD
100
AcDbAlignedDimension
 13
666.8779237187444
 23
273.8709994321939
 33
0.0
 14
606.8779237187444
 24
273.8711994321939
 34
0.0
100
AcDbRotatedDimension
1001
ACAD
1000
DSTYLE
1002
{
1070
   140
1040
6.0
1070
    74
1070
     0
1070
   172
1070
     1
1070
    73
1070
     0
1070
   272
1070
     2
1070
    77
1070
     3
1070
   173
1070
     1
1070
   147
1040
2.0
1070
    42
1040
6.0
1070
    44
1040
3.0
1070
    43
1040
14.0
1070
   271
1070
     0
1070
   178
1070
     4
1070
   177
1070
     4
1070
   176
1070
     4
1070
   141
1040
150.0
1070
     7
1000
_OPEN
1070
     6
1000
_OPEN
1070
    41
1040
7.0
1002
}
  0
DIMENSION
  5
639
330
1A
100
AcDbEntity
  8
SUNPOU
  6
CONTINUOUS
100
AcDbDimension
  2
*D4
 10
611.8779304799462
 20
295.9048407263738
 30
0.0
 11
636.8779304798199
 21
300.9048407263739
 31
0.0
 12
0.0
 22
-25.10177334348099
 32
0.0
 70
    32
  3
STANDARD
100
AcDbAlignedDimension
 13
661.8779304796935
 23
273.8710160988381
 33
0.0
 14
611.8779304799462
 24
273.8711827655047
 34
0.0
100
AcDbRotatedDimension
1001
ACAD
1000
DSTYLE
1002
{
1070
   140
1040
6.0
1070
    74
1070
     0
1070
   172
1070
     1
1070
    73
1070
     0
1070
   272
1070
     2
1070
    77
1070
     3
1070
   173
1070
     1
1070
   147
1040
2.0
1070
    42
1040
6.0
1070
    44
1040
3.0
1070
    43
1040
14.0
1070
   271
1070
     0
1070
   178
1070
     4
1070
   177
1070
     4
1070
   176
1070
     4
1070
   141
1040
150.0
1070
     7
1000
_OPEN
1070
     6
1000
_OPEN
1070
    41
1040
7.0
1002
}
  0
LINE
  5
63A
330
1A
100
AcDbEntity
  8
CENTER_L
  6
CENTER
 62
     1
 48
5.0
100
AcDbLine
 10
636.8779237187444
 20
282.1347994321939
 30
0.0
 11
636.8777479273655
 21
196.7743731688924
 31
0.0
  0
DIMENSION
  5
63B
330
1A
100
AcDbEntity
  8
SUNPOU
  6
CONTINUOUS
100
AcDbDimension
  2
*D5
 10
564.537449282352
 20
243.8711994321939
 30
0.0
 11
559.537449282352
 21
258.8711994321939
 31
0.0
 12
0.0
 22
-25.10177334348099
 32
0.0
 70
    32
  3
STANDARD
100
AcDbAlignedDimension
 13
606.8779237187444
 23
273.8711994321939
 33
0.0
 14
606.8778237187444
 24
243.8711994321939
 34
0.0
 50
90.0
100
AcDbRotatedDimension
1001
ACAD
1000
DSTYLE
1002
{
1070
   140
1040
6.0
1070
    74
1070
     0
1070
   172
1070
     1
1070
    73
1070
     0
1070
   272
1070
     2
1070
    77
1070
     3
1070
   173
1070
     1
1070
   147
1040
2.0
1070
    42
1040
6.0
1070
    44
1040
3.0
1070
    43
1040
14.0
1070
   271
1070
     0
1070
   178
1070
     4
1070
   177
1070
     4
1070
   176
1070
     4
1070
   141
1040
150.0
1070
     7
1000
_OPEN
1070
     6
1000
_OPEN
1070
    41
1040
7.0
1002
}
  0
LINE
  5
63C
330
1A
100
AcDbEntity
  8
SEIHIN
  6
CONTINUOUS
 62
     3
 48
16.0
100
AcDbLine
 10
636.8779237187444
 20
273.8710994321938
 30
0.0
 11
666.8779237187444
 21
273.8709994321939
 31
0.0
  0
LINE
  5
63D
330
1A
100
AcDbEntity
  8
SEIHIN
  6
CONTINUOUS
 62
     3
 48
16.0
100
AcDbLine
 10
646.0778237186404
 20
243.8710687655273
 30
0.0
 11
666.8778237187445
 21
243.870999432194
 31
0.0
  0
LINE
  5
63E
330
1A
100
AcDbEntity
  8
CENTER_L
  6
CENTER
 62
     1
 48
5.0
100
AcDbLine
 10
611.8779237187444
 20
272.0876994321939
 30
0.0
 11
611.8778925684638
 21
263.8708160987568
 31
0.0
  0
LINE
  5
63F
330
1A
100
AcDbEntity
  8
SEIHIN
  6
CONTINUOUS
 62
     3
 48
16.0
100
AcDbLine
 10
606.8779237187444
 20
273.8711994321939
 30
0.0
 11
606.8778237187444
 21
243.8711994321939
 31
0.0
  0
LINE
  5
641
330
1A
100
AcDbEntity
  8
SEIHIN
  6
CONTINUOUS
 62
     3
 48
16.0
100
AcDbLine
 10
627.3779237187445
 20
273.8710994321938
 30
0.0
 11
627.3778237187444
 21
243.8710994321938
 31
0.0
  0
LINE
  5
642
330
1A
100
AcDbEntity
  8
SEIHIN
  6
CONTINUOUS
 62
     3
 48
16.0
100
AcDbLine
 10
627.6778237188485
 20
243.8711300988606
 30
0.0
 11
606.8778237187444
 21
243.8711994321939
 31
0.0
  0
ARC
  5
643
330
1A
100
AcDbEntity
  8
SEIHIN
  6
CONTINUOUS
 62
     3
 48
16.0
100
AcDbCircle
 10
611.8779237187444
 20
248.8711994321939
 30
0.0
 40
2.0
100
AcDbArc
 50
180.0
 51
0.0
  0
ARC
  5
644
330
1A
100
AcDbEntity
  8
SEIHIN
  6
CONTINUOUS
 62
     3
 48
16.0
100
AcDbCircle
 10
611.8779237187444
 20
248.8711994321939
 30
0.0
 40
2.0
100
AcDbArc
 50
0.0
 51
180.0
  0
LINE
  5
645
330
1A
100
AcDbEntity
  8
CENTER_L
  6
CENTER
 62
     1
 48
5.0
100
AcDbLine
 10
616.6320237187445
 20
248.8711994321939
 30
0.0
 11
608.2083237187445
 21
248.8711994321939
 31
0.0
  0
LINE
  5
646
330
1A
100
AcDbEntity
  8
SEIHIN
  6
CONTINUOUS
 62
     3
 48
16.0
100
AcDbLine
 10
627.3778237187444
 20
246.8711994321939
 30
0.0
 11
625.3778237187445
 21
248.8711994321939
 31
0.0
  0
LINE
  5
647
330
1A
100
AcDbEntity
  8
SEIHIN
  6
CONTINUOUS
 62
     3
 48
16.0
100
AcDbLine
 10
627.3778237187444
 20
250.8710994321938
 30
0.0
 11
625.3778237187445
 21
248.8710994321938
 31
0.0
  0
LINE
  5
648
330
1A
100
AcDbEntity
  8
SEIHIN
  6
CONTINUOUS
 62
     3
 48
16.0
100
AcDbLine
 10
636.8779237187444
 20
273.8710994321938
 30
0.0
 11
606.8779237187444
 21
273.8711994321939
 31
0.0
  0
ARC
  5
649
330
1A
100
AcDbEntity
  8
SEIHIN
  6
CONTINUOUS
 62
     3
 48
16.0
100
AcDbCircle
 10
611.8779237187444
 20
268.8711994321939
 30
0.0
 40
2.0
100
AcDbArc
 50
180.0
 51
0.0
  0
ARC
  5
64A
330
1A
100
AcDbEntity
  8
SEIHIN
  6
CONTINUOUS
 62
     3
 48
16.0
100
AcDbCircle
 10
611.8779237187444
 20
268.8711994321939
 30
0.0
 40
2.0
100
AcDbArc
 50
0.0
 51
180.0
  0
LINE
  5
64B
330
1A
100
AcDbEntity
  8
CENTER_L
  6
CENTER
 62
     1
 48
5.0
100
AcDbLine
 10
616.6321237187445
 20
268.8711994321939
 30
0.0
 11
608.4382237187445
 21
268.8711994321939
 31
0.0
  0
LINE
  5
64C
330
1A
100
AcDbEntity
  8
SEIHIN
  6
CONTINUOUS
 62
     3
 48
16.0
100
AcDbLine
 10
627.3779237187445
 20
266.8711994321939
 30
0.0
 11
625.3779237187444
 21
268.8711994321939
 31
0.0
  0
LINE
  5
64D
330
1A
100
AcDbEntity
  8
SEIHIN
  6
CONTINUOUS
 62
     3
 48
16.0
100
AcDbLine
 10
627.3779237187445
 20
270.8710994321938
 30
0.0
 11
625.3779237187444
 21
268.8710994321938
 31
0.0
  0
LINE
  5
64E
330
1A
100
AcDbEntity
  8
CENTER_L
  6
CENTER
 62
     1
 48
5.0
100
AcDbLine
 10
661.8779237187444
 20
272.0875994321938
 30
0.0
 11
661.8778925694746
 21
263.8709827654234
 31
0.0
  0
LINE
  5
650
330
1A
100
AcDbEntity
  8
SEIHIN
  6
CONTINUOUS
 62
     3
 48
16.0
100
AcDbLine
 10
646.3779237187444
 20
273.8710994321938
 30
0.0
 11
646.3778237187445
 21
243.8710994321938
 31
0.0
  0
LINE
  5
651
330
1A
100
AcDbEntity
  8
SEIHIN
  6
CONTINUOUS
 62
     3
 48
16.0
100
AcDbLine
 10
666.8779237187444
 20
273.8709994321939
 30
0.0
 11
666.8778237187445
 21
243.870999432194
 31
0.0
  0
LINE
  5
652
330
1A
100
AcDbEntity
  8
SEIHIN
  6
CONTINUOUS
 62
     3
 48
16.0
100
AcDbLine
 10
646.3778237187445
 20
246.8710994321938
 30
0.0
 11
648.3778237187444
 21
248.8710994321938
 31
0.0
  0
LINE
  5
653
330
1A
100
AcDbEntity
  8
SEIHIN
  6
CONTINUOUS
 62
     3
 48
16.0
100
AcDbLine
 10
646.3778237187445
 20
250.8710994321938
 30
0.0
 11
648.3778237187444
 21
248.8710994321938
 31
0.0
  0
ARC
  5
654
330
1A
100
AcDbEntity
  8
SEIHIN
  6
CONTINUOUS
 62
     3
 48
16.0
100
AcDbCircle
 10
661.8778237187444
 20
248.8709994321939
 30
0.0
 40
2.0
100
AcDbArc
 50
180.0
 51
0.0
  0
LINE
  5
655
330
1A
100
AcDbEntity
  8
CENTER_L
  6
CENTER
 62
     1
 48
5.0
100
AcDbLine
 10
657.1236237187446
 20
248.8709994321939
 30
0.0
 11
665.5474237187444
 21
248.8709994321939
 31
0.0
  0
ARC
  5
656
330
1A
100
AcDbEntity
  8
SEIHIN
  6
CONTINUOUS
 62
     3
 48
16.0
100
AcDbCircle
 10
661.8778237187444
 20
248.8709994321939
 30
0.0
 40
2.0
100
AcDbArc
 50
0.0
 51
180.0
  0
LINE
  5
657
330
1A
100
AcDbEntity
  8
SEIHIN
  6
CONTINUOUS
 62
     3
 48
16.0
100
AcDbLine
 10
646.3779237187444
 20
266.8710994321938
 30
0.0
 11
648.3779237187444
 21
268.8710994321938
 31
0.0
  0
LINE
  5
658
330
1A
100
AcDbEntity
  8
SEIHIN
  6
CONTINUOUS
 62
     3
 48
16.0
100
AcDbLine
 10
646.3778237187445
 20
270.8710994321938
 30
0.0
 11
648.3778237187444
 21
268.8710994321938
 31
0.0
  0
ARC
  5
659
330
1A
100
AcDbEntity
  8
SEIHIN
  6
CONTINUOUS
 62
     3
 48
16.0
100
AcDbCircle
 10
661.8779237187444
 20
268.8709994321939
 30
0.0
 40
2.0
100
AcDbArc
 50
180.0
 51
0.0
  0
ARC
  5
65A
330
1A
100
AcDbEntity
  8
SEIHIN
  6
CONTINUOUS
 62
     3
 48
16.0
100
AcDbCircle
 10
661.8779237187444
 20
268.8709994321939
 30
0.0
 40
2.0
100
AcDbArc
 50
0.0
 51
180.0
  0
LINE
  5
65B
330
1A
100
AcDbEntity
  8
CENTER_L
  6
CENTER
 62
     1
 48
5.0
100
AcDbLine
 10
657.1236237187446
 20
268.8709994321939
 30
0.0
 11
665.3176237187444
 21
268.8709994321939
 31
0.0
  0
MTEXT
  5
65C
330
1A
100
AcDbEntity
  8
SUNPOU
  6
CONTINUOUS
 62
     4
100
AcDbMText
 10
595.3292356731407
 20
296.6120568715765
 30
0.0
 40
6.0
 41
0.0
 71
     9
 72
     5
  1
4-φ4.0
1001
ACAD
1000
MTEXTBEGIN
1070
    73
1070
     1
1070
    44
1040
1.0
1070
    74
1070
     0
1000
MTEXTEND
1000
MTEXTBEGIN
1070
    73
1070
     1
1070
    44
1040
1.0
1070
    74
1070
     0
1000
MTEXTEND
1000
MTEXTBEGIN
1070
    73
1070
     1
1070
    44
1040
1.0
1070
    74
1070
     0
1000
MTEXTEND
  0
ARC
  5
6BD
330
1A
100
AcDbEntity
  8
SEIHIN
  6
CONTINUOUS
 62
     3
 48
16.0
100
AcDbCircle
 10
438.8614929850788
 20
235.4927340452078
 30
0.0
 40
1.3
100
AcDbArc
 50
0.0
 51
97.1653308158358
  0
ARC
  5
6BE
330
1A
100
AcDbEntity
  8
SEIHIN
  6
CONTINUOUS
 62
     3
 48
16.0
100
AcDbCircle
 10
438.161492985079
 20
234.905790966757
 30
0.0
 40
0.5
100
AcDbArc
 50
0.0
 51
97.16509731894618
  0
DIMENSION
  5
6CB
330
1A
100
AcDbEntity
  8
SUNPOU
  6
CONTINUOUS
 62
     4
100
AcDbDimension
  2
*D6
 10
483.1715708852789
 20
311.7681849259856
 30
0.0
 11
460.9173075438673
 21
311.7681849259856
 31
0.0
 12
0.0
 22
-25.10177334348099
 32
0.0
 70
   160
  3
STANDARD
100
AcDbAlignedDimension
 13
438.6630442024556
 23
232.5262494321232
 33
0.0
 14
483.1715708852789
 24
273.5239994321232
 34
0.0
100
AcDbRotatedDimension
1001
ACAD
1000
DSTYLE
1002
{
1070
   140
1040
6.0
1070
    74
1070
     0
1070
   172
1070
     1
1070
    73
1070
     0
1070
   272
1070
     2
1070
    77
1070
     3
1070
   173
1070
     1
1070
   147
1040
2.0
1070
    42
1040
6.0
1070
    44
1040
3.0
1070
    43
1040
14.0
1070
   271
1070
     0
1070
   178
1070
     4
1070
   177
1070
     4
1070
   176
1070
     4
1070
   141
1040
150.0
1070
     7
1000
_OPEN
1070
     6
1000
_OPEN
1070
    41
1040
7.0
1002
}
  0
DIMENSION
  5
6E4
330
1A
100
AcDbEntity
  8
SUNPOU
  6
CONTINUOUS
100
AcDbDimension
  2
*D7
 10
510.7740890807056
 20
365.3882688193224
 30
0.0
 11
505.7640890807056
 21
395.3885688193224
 31
0.0
 12
0.0099999999999909
 22
1.763096043718178
 32
0.0
 70
    32
  3
STANDARD
100
AcDbAlignedDimension
 13
483.1715708852789
 23
425.3888688193224
 33
0.0
 14
483.1715708852789
 24
365.3882688193224
 34
0.0
 50
90.0
100
AcDbRotatedDimension
1001
ACAD
1000
DSTYLE
1002
{
1070
   140
1040
6.0
1070
    74
1070
     0
1070
   172
1070
     1
1070
    73
1070
     0
1070
   272
1070
     2
1070
    77
1070
     3
1070
   173
1070
     1
1070
   147
1040
2.0
1070
    42
1040
6.0
1070
    44
1040
3.0
1070
    43
1040
14.0
1070
   271
1070
     0
1070
   178
1070
     4
1070
   177
1070
     4
1070
   176
1070
     4
1070
   141
1040
150.0
1070
     7
1000
_OPEN
1070
     6
1000
_OPEN
1070
    41
1040
7.0
1002
}
  0
DIMENSION
  5
6F3
330
1A
100
AcDbEntity
  8
SUNPOU
  6
CONTINUOUS
100
AcDbDimension
  2
*D8
 10
285.2835668830671
 20
382.8885688193225
 30
0.0
 11
280.2835668830671
 21
395.3885688193225
 31
0.0
 12
0.0
 22
1.763096043718178
 32
0.0
 70
    32
  3
STANDARD
100
AcDbAlignedDimension
 13
323.8614929850789
 23
407.8885688193225
 33
0.0
 14
323.8614929850789
 24
382.8885688193225
 34
0.0
 50
90.0
100
AcDbRotatedDimension
1001
ACAD
1000
DSTYLE
1002
{
1070
   140
1040
6.0
1070
    74
1070
     0
1070
   172
1070
     1
1070
    73
1070
     0
1070
   272
1070
     2
1070
    77
1070
     3
1070
   173
1070
     1
1070
   147
1040
2.0
1070
    42
1040
6.0
1070
    44
1040
3.0
1070
    43
1040
14.0
1070
   271
1070
     0
1070
   178
1070
     4
1070
   177
1070
     4
1070
   176
1070
     4
1070
   141
1040
150.0
1070
     7
1000
_OPEN
1070
     6
1000
_OPEN
1070
    41
1040
7.0
1002
}
  0
DIMENSION
  5
700
330
1A
100
AcDbEntity
  8
SUNPOU
  6
CONTINUOUS
100
AcDbDimension
  2
*D9
 10
514.1742008566104
 20
243.523999432359
 30
0.0
 11
509.1742008566105
 21
258.5239994322411
 31
0.0
 12
0.0
 22
-25.10177334348099
 32
0.0
 70
    32
  3
STANDARD
100
AcDbAlignedDimension
 13
483.1715708852789
 23
273.5239994321232
 33
0.0
 14
483.1721820859499
 24
243.523999432359
 34
0.0
 50
90.0
100
AcDbRotatedDimension
1001
ACAD
1000
DSTYLE
1002
{
1070
   140
1040
6.0
1070
    74
1070
     0
1070
   172
1070
     1
1070
    73
1070
     0
1070
   272
1070
     2
1070
    77
1070
     3
1070
   173
1070
     1
1070
   147
1040
2.0
1070
    42
1040
6.0
1070
    44
1040
3.0
1070
    43
1040
14.0
1070
   271
1070
     0
1070
   178
1070
     4
1070
   177
1070
     4
1070
   176
1070
     4
1070
   141
1040
150.0
1070
     7
1000
_OPEN
1070
     6
1000
_OPEN
1070
    41
1040
7.0
1002
}
  0
DIMENSION
  5
70D
330
1A
100
AcDbEntity
  8
SUNPOU
  6
CONTINUOUS
100
AcDbDimension
  2
*D10
 10
413.0329064278221
 20
233.5211494321232
 30
0.0
 11
408.0329064278221
 21
253.5224744321233
 31
0.0
 12
0.0
 22
-25.10177334348099
 32
0.0
 70
    32
  3
STANDARD
100
AcDbAlignedDimension
 13
473.6715708852789
 23
273.5237994321233
 33
0.0
 14
432.4643442024556
 24
233.5211494321232
 34
0.0
 50
90.0
100
AcDbRotatedDimension
1001
ACAD
1000
DSTYLE
1002
{
1070
   140
1040
6.0
1070
    74
1070
     0
1070
   172
1070
     1
1070
    73
1070
     0
1070
   272
1070
     2
1070
    77
1070
     3
1070
   173
1070
     1
1070
   147
1040
2.0
1070
    42
1040
6.0
1070
    44
1040
3.0
1070
    43
1040
14.0
1070
   271
1070
     0
1070
   178
1070
     4
1070
   177
1070
     4
1070
   176
1070
     4
1070
   141
1040
150.0
1070
     7
1000
_OPEN
1070
     6
1000
_OPEN
1070
    41
1040
7.0
1002
}
  0
DIMENSION
  5
71A
330
1A
100
AcDbEntity
  8
SUNPOU
  6
CONTINUOUS
100
AcDbDimension
  2
*D11
 10
323.1614929850789
 20
331.2183868123518
 30
0.0
 11
403.1665319351788
 21
331.2183868123518
 31
0.0
 12
0.0
 22
-25.10177334348099
 32
0.0
 70
   160
  3
STANDARD
100
AcDbAlignedDimension
 13
483.1715708852789
 23
273.5239994321232
 33
0.0
 14
323.1614929850789
 24
256.5238994321233
 34
0.0
100
AcDbRotatedDimension
1001
ACAD
1000
DSTYLE
1002
{
1070
   140
1040
6.0
1070
    74
1070
     0
1070
   172
1070
     1
1070
    73
1070
     0
1070
   272
1070
     2
1070
    77
1070
     3
1070
   173
1070
     1
1070
   147
1040
2.0
1070
    42
1040
6.0
1070
    44
1040
3.0
1070
    43
1040
14.0
1070
   271
1070
     0
1070
   178
1070
     4
1070
   177
1070
     4
1070
   176
1070
     4
1070
   141
1040
150.0
1070
     7
1000
_OPEN
1070
     6
1000
_OPEN
1070
    41
1040
7.0
1002
}
  0
DIMENSION
  5
76A
330
1A
100
AcDbEntity
  8
SUNPOU
  6
CONTINUOUS
100
AcDbDimension
  2
*D12
 10
285.1958392840929
 20
182.0237994321233
 30
0.0
 11
280.1958392840929
 21
219.2738494321233
 31
0.0
 12
0.0
 22
-25.10177334348099
 32
0.0
 70
    32
  3
STANDARD
100
AcDbAlignedDimension
 13
323.1614929850789
 23
256.5238994321233
 33
0.0
 14
347.4059929850789
 24
182.0237994321233
 34
0.0
 50
90.0
100
AcDbRotatedDimension
1001
ACAD
1000
DSTYLE
1002
{
1070
   140
1040
6.0
1070
    74
1070
     0
1070
   172
1070
     1
1070
    73
1070
     0
1070
   272
1070
     2
1070
    77
1070
     3
1070
   173
1070
     1
1070
   147
1040
2.0
1070
    42
1040
6.0
1070
    44
1040
3.0
1070
    43
1040
14.0
1070
   271
1070
     0
1070
   178
1070
     4
1070
   177
1070
     4
1070
   176
1070
     4
1070
   141
1040
150.0
1070
     7
1000
_OPEN
1070
     6
1000
_OPEN
1070
    41
1040
7.0
1002
}
  0
ARC
  5
800
330
1A
100
AcDbEntity
  8
SEIHIN
  6
CONTINUOUS
 62
     3
 48
16.0
100
AcDbCircle
 10
331.4946929850789
 20
400.3886688193224
 30
0.0
 40
2.5
100
AcDbArc
 50
90.0
 51
270.0
  0
ARC
  5
801
330
1A
100
AcDbEntity
  8
SEIHIN
  6
CONTINUOUS
 62
     3
 48
16.0
100
AcDbCircle
 10
331.4946929850789
 20
390.3887688193224
 30
0.0
 40
2.500000000000085
100
AcDbArc
 50
90.0
 51
270.0
  0
ARC
  5
803
330
1A
100
AcDbEntity
  8
SEIHIN
  6
CONTINUOUS
100
AcDbCircle
 10
351.1660929850788
 20
400.3886688193224
 30
0.0
 40
3.625000000000041
100
AcDbArc
 50
136.3971810272969
 51
223.602818972703
  0
ARC
  5
804
330
1A
100
AcDbEntity
  8
SEIHIN
  6
CONTINUOUS
100
AcDbCircle
 10
338.443407270793
 20
400.3886688193224
 30
0.0
 40
2.660714285714282
100
AcDbArc
 50
110.0159596028825
 51
249.9840403971174
  0
ARC
  5
805
330
1A
100
AcDbEntity
  8
SEIHIN
  6
CONTINUOUS
100
AcDbCircle
 10
338.443407270793
 20
390.3886688193225
 30
0.0
 40
2.660714285714282
100
AcDbArc
 50
110.0159596028825
 51
249.9840403971174
  0
ARC
  5
806
330
1A
100
AcDbEntity
  8
SEIHIN
  6
CONTINUOUS
100
AcDbCircle
 10
351.1660929850788
 20
390.3886688193225
 30
0.0
 40
3.625000000000041
100
AcDbArc
 50
136.3971810272969
 51
223.602818972703
  0
ARC
  5
807
330
1A
100
AcDbEntity
  8
SEIHIN
  6
CONTINUOUS
100
AcDbCircle
 10
412.157092985079
 20
400.3886688193224
 30
0.0
 40
3.625000000000041
100
AcDbArc
 50
316.397181027297
 51
43.60281897270302
  0
ARC
  5
808
330
1A
100
AcDbEntity
  8
SEIHIN
  6
CONTINUOUS
100
AcDbCircle
 10
412.157092985079
 20
390.3886688193225
 30
0.0
 40
3.625000000000041
100
AcDbArc
 50
316.397181027297
 51
43.60281897270302
  0
ARC
  5
809
330
1A
100
AcDbEntity
  8
SEIHIN
  6
CONTINUOUS
100
AcDbCircle
 10
424.8797786993647
 20
400.3886688193224
 30
0.0
 40
2.660714285714282
100
AcDbArc
 50
290.0159596028825
 51
69.98404039711745
  0
ARC
  5
80A
330
1A
100
AcDbEntity
  8
SEIHIN
  6
CONTINUOUS
100
AcDbCircle
 10
424.8797786993647
 20
390.3886688193225
 30
0.0
 40
2.660714285714282
100
AcDbArc
 50
290.0159596028825
 51
69.98404039711745
  0
LINE
  5
80B
330
1A
100
AcDbEntity
  8
SEIHIN
  6
CONTINUOUS
 62
     3
 48
16.0
100
AcDbLine
 10
197.8447819570305
 20
193.4838994321233
 30
0.0
 11
194.8447819570305
 21
193.4838994321233
 31
0.0
  0
LINE
  5
80C
330
1A
100
AcDbEntity
  8
SEIHIN
  6
CONTINUOUS
 62
     3
 48
16.0
100
AcDbLine
 10
213.8447819570306
 20
193.4838994321233
 30
0.0
 11
216.8447819570305
 21
193.4838994321233
 31
0.0
  0
ARC
  5
80E
330
1A
100
AcDbEntity
  8
SEIHIN
  6
CONTINUOUS
100
AcDbCircle
 10
210.8447819570307
 20
193.661927109892
 30
0.0
 40
3.005277666714322
100
AcDbArc
 50
183.3960954330673
 51
356.6039045669326
  0
ARC
  5
80F
330
1A
100
AcDbEntity
  8
SEIHIN
  6
CONTINUOUS
100
AcDbCircle
 10
200.8447819570307
 20
193.661927109892
 30
0.0
 40
3.005277666714322
100
AcDbArc
 50
183.3960954330673
 51
356.6039045669326
  0
LINE
  5
810
330
1A
100
AcDbEntity
  8
SEIHIN
  6
CONTINUOUS
 62
     3
 48
16.0
100
AcDbLine
 10
324.6614929850789
 20
386.8885688193225
 30
0.0
 11
323.8615929850789
 21
386.8885688193225
 31
0.0
  0
LINE
  5
811
330
1A
100
AcDbEntity
  8
SEIHIN
  6
CONTINUOUS
 62
     3
 48
16.0
100
AcDbLine
 10
324.6614929850789
 20
403.8885688193225
 30
0.0
 11
323.8615929850789
 21
403.8885688193225
 31
0.0
  0
DIMENSION
  5
84E
330
1A
100
AcDbEntity
  8
SUNPOU
  6
CONTINUOUS
100
AcDbDimension
  2
*D13
 10
483.1715708852789
 20
296.8319719735652
 30
0.0
 11
507.1715708852789
 21
301.8319719735652
 31
0.0
 12
0.0
 22
-25.10177334348099
 32
0.0
 70
    32
  1
t<>
  3
STANDARD
100
AcDbAlignedDimension
 13
481.6715708852789
 23
273.5239994321232
 33
0.0
 14
483.1715708852789
 24
273.5239994321232
 34
0.0
100
AcDbRotatedDimension
1001
ACAD
1000
DSTYLE
1002
{
1070
   140
1040
6.0
1070
    74
1070
     0
1070
   172
1070
     1
1070
    73
1070
     0
1070
   272
1070
     2
1070
    77
1070
     3
1070
   173
1070
     1
1070
   147
1040
2.0
1070
    42
1040
6.0
1070
    44
1040
3.0
1070
    43
1040
14.0
1070
   271
1070
     1
1070
   178
1070
     4
1070
   177
1070
     4
1070
   176
1070
     4
1070
   141
1040
150.0
1070
     7
1000
_OPEN
1070
     6
1000
_OPEN
1070
    41
1040
7.0
1002
}
  0
DIMENSION
  5
88D
330
1A
100
AcDbEntity
  8
SUNPOU
  6
CONTINUOUS
100
AcDbDimension
  2
*D14
 10
530.6686251409623
 20
136.0237994321233
 30
0.0
 11
525.6686251409623
 21
204.7738994321233
 31
0.0
 12
0.0
 22
-25.10177334348099
 32
0.0
 70
    32
  3
STANDARD
100
AcDbAlignedDimension
 13
483.1715708852789
 23
273.5239994321232
 33
0.0
 14
420.6614929850789
 24
136.0237994321233
 34
0.0
 50
90.0
100
AcDbRotatedDimension
1001
ACAD
1000
DSTYLE
1002
{
1070
   140
1040
6.0
1070
    74
1070
     0
1070
   172
1070
     1
1070
    73
1070
     0
1070
   272
1070
     2
1070
    77
1070
     3
1070
   173
1070
     1
1070
   147
1040
2.0
1070
    42
1040
6.0
1070
    44
1040
3.0
1070
    43
1040
14.0
1070
   271
1070
     0
1070
   178
1070
     4
1070
   177
1070
     4
1070
   176
1070
     4
1070
   141
1040
150.0
1070
     7
1000
_OPEN
1070
     6
1000
_OPEN
1070
    41
1040
7.0
1002
}
  0
LINE
  5
8C9
330
1A
100
AcDbEntity
  8
SEIHIN
  6
CONTINUOUS
 62
     3
 48
16.0
100
AcDbLine
 10
646.0779237187461
 20
273.8711004321938
 30
0.0
 11
646.0776900629883
 21
203.7743731688924
 31
0.0
  0
LINE
  5
8CA
330
1A
100
AcDbEntity
  8
SEIHIN
  6
CONTINUOUS
 62
     3
 48
16.0
100
AcDbLine
 10
627.6779237187428
 20
273.8710984321938
 30
0.0
 11
627.6776900629918
 21
203.7743731688924
 31
0.0
  0
LINE
  5
8E9
330
1A
100
AcDbEntity
  8
CENTER_L
  6
CENTER
 62
     1
 48
5.0
100
AcDbLine
 10
611.8778546583715
 20
253.8708160989637
 30
0.0
 11
611.8778237187444
 21
245.709499432194
 31
0.0
  0
LINE
  5
8EA
330
1A
100
AcDbEntity
  8
CENTER_L
  6
CENTER
 62
     1
 48
5.0
100
AcDbLine
 10
661.8778546593822
 20
253.8709827656303
 30
0.0
 11
661.8778237187444
 21
245.7093994321938
 31
0.0
  0
LINE
  5
8EF
330
1A
100
AcDbEntity
  8
CENTER_L
  6
CENTER
 62
     1
 48
5.0
100
AcDbLine
 10
230.8447128984899
 20
253.8703994321233
 30
0.0
 11
230.8446819570307
 21
245.7085994321233
 31
0.0
  0
LINE
  5
8F0
330
1A
100
AcDbEntity
  8
CENTER_L
  6
CENTER
 62
     1
 48
5.0
100
AcDbLine
 10
180.8447819570308
 20
253.8703708606948
 30
0.0
 11
180.8447819570308
 21
245.7085994321233
 31
0.0
  0
LWPOLYLINE
  5
A22
330
1A
100
AcDbEntity
  8
ZUWAKU
100
AcDbPolyline
 90
        4
 70
     1
 43
0.0
 10
0.7999994527210675
 20
550.7999998096563
 10
0.7999994527210675
 20
0.7999998096563559
 10
796.799999452721
 20
0.7999998096563559
 10
796.799999452721
 20
550.7999998096563
  0
LWPOLYLINE
  5
A23
330
1A
100
AcDbEntity
  8
ZUWAKU
100
AcDbPolyline
 90
        4
 70
     1
 43
0.0
 10
0.3999994527210902
 20
551.1999998096563
 10
0.3999994527210902
 20
0.3999998096563786
 10
797.1999994527211
 20
0.3999998096563555
 10
797.1999994527211
 20
551.1999998096563
  0
LWPOLYLINE
  5
A24
330
1A
100
AcDbEntity
  8
ZUWAKU
100
AcDbPolyline
 90
        4
 70
     1
 43
0.0
 10
-0.0000005472788871
 20
551.5999998096563
 10
-0.0000005472788871
 20
-0.0000001903437123
 10
797.5999994527212
 20
-0.0000001903436448
 10
797.5999994527212
 20
551.5999998096564
  0
LWPOLYLINE
  5
A25
330
1A
100
AcDbEntity
  8
ZUWAKU
100
AcDbPolyline
 90
        4
 70
     1
 43
0.0
 10
0.599999452721022
 20
550.9999998096564
 10
0.599999452721022
 20
0.5999998096563104
 10
796.9999994527213
 20
0.5999998096563566
 10
796.9999994527211
 20
550.9999998096564
  0
LWPOLYLINE
  5
A26
330
1A
100
AcDbEntity
  8
ZUWAKU
100
AcDbPolyline
 90
        4
 70
     1
 43
0.0
 10
0.1999994527210447
 20
551.3999998096563
 10
0.1999994527210447
 20
0.1999998096563331
 10
797.3999994527209
 20
0.1999998096563562
 10
797.3999994527212
 20
551.3999998096563
  0
LINE
  5
A27
330
1A
100
AcDbEntity
  8
ZUWAKU
100
AcDbLine
 10
-0.0000005472788871
 20
29.99999980965629
 30
0.0
 11
797.3999994527209
 21
29.99999980965629
 31
0.0
  0
LINE
  5
A28
330
1A
100
AcDbEntity
  8
ZUWAKU
100
AcDbLine
 10
-0.0000005472788871
 20
30.19999980965629
 30
0.0
 11
797.3999994527209
 21
30.19999980965629
 31
0.0
  0
LINE
  5
A29
330
1A
100
AcDbEntity
  8
ZUWAKU
100
AcDbLine
 10
-0.0000005472788871
 20
30.39999980965629
 30
0.0
 11
797.3999994527209
 21
30.39999980965629
 31
0.0
  0
LINE
  5
A2A
330
1A
100
AcDbEntity
  8
ZUWAKU
100
AcDbLine
 10
-0.0000005472788871
 20
30.59999980965629
 30
0.0
 11
797.3999994527209
 21
30.59999980965629
 31
0.0
  0
LINE
  5
A2B
330
1A
100
AcDbEntity
  8
ZUWAKU
100
AcDbLine
 10
-0.0000005472788871
 20
30.79999980965629
 30
0.0
 11
797.3999994527209
 21
30.79999980965629
 31
0.0
  0
LINE
  5
A2C
330
1A
100
AcDbEntity
  8
ZUWAKU
100
AcDbLine
 10
208.6466007427891
 20
15.39999980965632
 30
0.0
 11
447.4243634237125
 21
15.39999980965632
 31
0.0
  0
LINE
  5
A2D
330
1A
100
AcDbEntity
  8
ZUWAKU
100
AcDbLine
 10
208.6466007427891
 20
15.59999980965632
 30
0.0
 11
447.4243634237125
 21
15.59999980965632
 31
0.0
  0
LINE
  5
A2E
330
1A
100
AcDbEntity
  8
ZUWAKU
100
AcDbLine
 10
208.6466007427891
 20
15.19999980965632
 30
0.0
 11
447.4243634237125
 21
15.19999980965631
 31
0.0
  0
TEXT
  5
A2F
330
1A
100
AcDbEntity
  8
MOJI
100
AcDbText
 10
92.95778904089024
 20
12.74117793993104
 30
0.0
 40
6.0
  1
ライナートップＸ７０Ｕ
 41
0.9
  7
ｽﾀｲﾙ1
100
AcDbText
  0
CIRCLE
  5
A30
330
1A
100
AcDbEntity
  8
ZUWAKU
100
AcDbCircle
 10
25.99221160750221
 20
15.19999980965629
 30
0.0
 40
1.75
  0
LINE
  5
A31
330
1A
100
AcDbEntity
  8
ZUWAKU
100
AcDbLine
 10
26.86721160750221
 20
7.149999809656293
 30
0.0
 11
24.94221160750226
 21
7.149999809656293
 31
0.0
  0
LINE
  5
A32
330
1A
100
AcDbEntity
  8
ZUWAKU
100
AcDbLine
 10
24.94221160750226
 20
9.94999980965629
 30
0.0
 11
26.86721160750221
 21
9.94999980965629
 31
0.0
  0
LINE
  5
A33
330
1A
100
AcDbEntity
  8
ZUWAKU
100
AcDbLine
 10
26.86721160750221
 20
20.44999980965628
 30
0.0
 11
24.94221160750226
 21
20.44999980965628
 31
0.0
  0
LINE
  5
A34
330
1A
100
AcDbEntity
  8
ZUWAKU
100
AcDbLine
 10
24.94221160750226
 20
23.24999980965625
 30
0.0
 11
26.86721160750221
 21
23.24999980965629
 31
0.0
  0
HATCH
  5
A35
330
1A
100
AcDbEntity
  8
ZUWAKU
100
AcDbHatch
 10
0.0
 20
0.0
 30
0.0
210
0.0
220
0.0
230
1.0
  2
ANSI37
 70
     0
 71
     0
 91
        8
 92
        7
 72
     1
 73
     1
 93
       24
 10
14.50226211384097
 20
17.64484829063987
 42
-0.1989123673796348
 10
14.09221160750223
 20
18.63479778430092
 42
0.0
 10
14.09221160750223
 20
19.9249998096563
 42
-0.4142135623730912
 10
14.61721160750221
 20
20.44999980965628
 42
0.0
 10
17.59221160750212
 20
20.44999980965628
 42
0.4142135623731546
 10
18.11721160750221
 20
20.97499980965628
 42
0.0
 10
18.11721160750221
 20
22.72499980965629
 42
0.4142135623731586
 10
17.59221160750212
 20
23.24999980965629
 42
0.0
 10
14.09221160750223
 20
23.24999980965629
 42
0.4142135623730928
 10
11.29221160750228
 20
20.44999980965632
 42
0.0
 10
11.29221160750228
 20
18.63479778430105
 42
0.1989123673796619
 10
12.52236312651871
 20
15.66494930331744
 42
0.0
 10
15.43216110116338
 20
12.75515132867278
 42
-0.1989123673796613
 10
15.84221160750223
 20
11.76520183501159
 42
0.0
 10
15.84221160750223
 20
10.47499980965628
 42
-0.4142135623730911
 10
15.31721160750225
 20
9.94999980965629
 42
0.0
 10
12.34221160750235
 20
9.94999980965629
 42
0.4142135623731526
 10
11.81721160750225
 20
9.424999809656302
 42
0.0
 10
11.81721160750225
 20
7.674999809656281
 42
0.4142135623731526
 10
12.34221160750235
 20
7.149999809656293
 42
0.0
 10
15.84221160750223
 20
7.149999809656293
 42
0.4142135623731044
 10
18.6422116075023
 20
9.949999809656269
 42
0.0
 10
18.6422116075023
 20
11.76520183501154
 42
0.1989123673796604
 10
17.41206008848576
 20
14.73505031599508
 42
0.0
 97
        0
 92
        7
 72
     1
 73
     1
 93
       16
 10
23.54221160750228
 20
19.04999980965629
 42
-0.4142135623730935
 10
24.94221160750226
 20
20.44999980965628
 42
0.0
 10
26.86721160750221
 20
20.44999980965628
 42
0.4142135623731546
 10
27.3922116075023
 20
20.97499980965628
 42
0.0
 10
27.3922116075023
 20
22.72499980965629
 42
0.4142135623730951
 10
26.86721160750233
 20
23.24999980965629
 42
0.0
 10
24.94221160750214
 20
23.24999980965625
 42
0.4142135623730892
 10
20.74221160750221
 20
19.04999980965622
 42
0.0
 10
20.74221160750221
 20
11.34999980965631
 42
0.4142135623730969
 10
24.94221160750226
 20
7.149999809656293
 42
0.0
 10
26.86721160750221
 20
7.149999809656293
 42
0.4142135623731526
 10
27.3922116075023
 20
7.674999809656281
 42
0.0
 10
27.3922116075023
 20
9.424999809656302
 42
0.4142135623730891
 10
26.86721160750233
 20
9.94999980965629
 42
0.0
 10
24.94221160750226
 20
9.94999980965629
 42
-0.4142135623730928
 10
23.54221160750228
 20
11.34999980965627
 42
0.0
 97
        0
 92
        7
 72
     1
 73
     1
 93
        2
 10
24.24221160750221
 20
15.19999980965629
 42
1.0
 10
27.74221160750221
 20
15.19999980965629
 42
1.0
 97
        0
 92
        7
 72
     1
 73
     1
 93
       26
 10
37.31485808968022
 20
19.20504700321972
 42
0.0
 10
38.37649772281804
 20
22.5669058414893
 42
0.5069206636600134
 10
37.87586682362269
 20
23.24999980965629
 42
0.0
 10
36.17697744401346
 20
23.24999980965629
 42
0.3272098845218764
 10
35.6763465448181
 20
22.88309377782326
 42
0.0
 10
33.80807667018632
 20
16.96690584148937
 42
-0.3272098845219541
 10
33.30744577099085
 20
16.59999980965628
 42
0.0
 10
33.16721160750239
 20
16.59999980965628
 42
-0.4142135623731526
 10
32.6422116075023
 20
17.12499980965627
 42
0.0
 10
32.6422116075023
 20
22.72499980965629
 42
0.4142135623730951
 10
32.11721160750232
 20
23.24999980965629
 42
0.0
 10
30.36721160750221
 20
23.24999980965629
 42
0.4142135623730871
 10
29.84221160750223
 20
22.72499980965631
 42
0.0
 10
29.84221160750223
 20
7.674999809656281
 42
0.4142135623730891
 10
30.36721160750221
 20
7.149999809656293
 42
0.0
 10
32.11721160750221
 20
7.149999809656293
 42
0.4142135623731526
 10
32.6422116075023
 20
7.674999809656281
 42
0.0
 10
32.6422116075023
 20
13.2749998096563
 42
-0.4142135623731526
 10
33.16721160750239
 20
13.79999980965629
 42
0.0
 10
33.30744577099096
 20
13.79999980965629
 42
-0.3272098845218915
 10
33.80807667018632
 20
13.43309377782321
 42
0.0
 10
35.6763465448181
 20
7.516905841489364
 42
0.3272098845218902
 10
36.17697744401346
 20
7.149999809656293
 42
0.0
 10
37.87586682362269
 20
7.149999809656293
 42
0.5069206636600335
 10
38.37649772281804
 20
7.8330937778233
 42
0.0
 10
36.05010634434438
 20
15.19999980965643
 42
0.0
 97
        0
 92
        7
 72
     1
 73
     1
 93
        8
 10
43.49221160750221
 20
22.7249998096563
 42
0.4142135623731546
 10
42.96721160750212
 20
23.24999980965629
 42
0.0
 10
41.21721160750235
 20
23.24999980965629
 42
0.4142135623731507
 10
40.69221160750226
 20
22.72499980965631
 42
0.0
 10
40.69221160750226
 20
7.674999809656281
 42
0.4142135623731526
 10
41.21721160750235
 20
7.149999809656293
 42
0.0
 10
42.96721160750212
 20
7.149999809656293
 42
0.4142135623731526
 10
43.49221160750221
 20
7.674999809656281
 42
0.0
 97
        0
 92
        7
 72
     1
 73
     1
 93
       24
 10
48.39221160750231
 20
19.9249998096563
 42
-0.4142135623731546
 10
48.9172116075024
 20
20.44999980965628
 42
0.0
 10
51.8922116075023
 20
20.44999980965628
 42
0.4142135623730911
 10
52.41721160750228
 20
20.97499980965628
 42
0.0
 10
52.41721160750228
 20
22.72499980965629
 42
0.4142135623730952
 10
51.8922116075023
 20
23.24999980965629
 42
0.0
 10
48.39221160750231
 20
23.24999980965629
 42
0.4142135623731048
 10
45.59221160750223
 20
20.44999980965632
 42
0.0
 10
45.59221160750223
 20
18.63479778430105
 42
0.1989123673796613
 10
46.82236312651878
 20
15.66494930331749
 42
0.0
 10
49.73216110116346
 20
12.75515132867283
 42
-0.1989123673796402
 10
50.1422116075023
 20
11.76520183501175
 42
0.0
 10
50.1422116075023
 20
10.47499980965628
 42
-0.4142135623730911
 10
49.61721160750233
 20
9.94999980965629
 42
0.0
 10
46.6422116075023
 20
9.94999980965629
 42
0.4142135623731526
 10
46.11721160750221
 20
9.424999809656302
 42
0.0
 10
46.11721160750221
 20
7.674999809656281
 42
0.4142135623730891
 10
46.64221160750218
 20
7.149999809656293
 42
0.0
 10
50.1422116075023
 20
7.149999809656293
 42
0.4142135623730925
 10
52.94221160750225
 20
9.949999809656269
 42
0.0
 10
52.94221160750225
 20
11.76520183501154
 42
0.1989123673796675
 10
51.71206008848571
 20
14.73505031599519
 42
0.0
 10
48.80226211384115
 20
17.64484829063971
 42
-0.1989123673796652
 10
48.39221160750231
 20
18.63479778430088
 42
0.0
 97
        0
 92
        7
 72
     1
 73
     1
 93
       16
 10
57.84221160750224
 20
22.72499980965628
 42
0.414213562373103
 10
57.31721160750225
 20
23.24999980965629
 42
0.0
 10
55.56721160750226
 20
23.24999980965629
 42
0.4142135623730871
 10
55.04221160750228
 20
22.72499980965631
 42
0.0
 10
55.04221160750228
 20
9.949999809656269
 42
0.4142135623730926
 10
57.84221160750224
 20
7.149999809656293
 42
0.0
 10
61.34221160750223
 20
7.149999809656293
 42
0.4142135623731044
 10
64.1422116075023
 20
9.949999809656269
 42
0.0
 10
64.1422116075023
 20
22.72499980965629
 42
0.4142135623730951
 10
63.61721160750232
 20
23.24999980965629
 42
0.0
 10
61.86721160750221
 20
23.24999980965629
 42
0.4142135623730871
 10
61.34221160750223
 20
22.72499980965631
 42
0.0
 10
61.34221160750223
 20
10.99999980965626
 42
-0.414213562373088
 10
60.29221160750228
 20
9.94999980965629
 42
0.0
 10
58.8922116075023
 20
9.94999980965629
 42
-0.4142135623731197
 10
57.84221160750224
 20
10.99999980965626
 42
0.0
 97
        0
 92
        7
 72
     1
 73
     1
 93
        8
 10
69.04221160750228
 20
22.72499980965631
 42
0.4142135623730871
 10
68.5172116075023
 20
23.24999980965629
 42
0.0
 10
66.7672116075023
 20
23.24999980965629
 42
0.4142135623731507
 10
66.24221160750221
 20
22.72499980965631
 42
0.0
 10
66.24221160750221
 20
7.674999809656281
 42
0.4142135623730891
 10
66.76721160750219
 20
7.149999809656293
 42
0.0
 10
68.5172116075023
 20
7.149999809656293
 42
0.4142135623730891
 10
69.04221160750228
 20
7.674999809656281
 42
0.0
 97
        0
 75
     0
 76
     1
 52
0.0
 41
0.2
 77
     0
 78
     2
 53
45.0
 43
-900.9423048819579
 44
-13.20000019034364
 45
-0.4490128060534576
 46
0.4490128060534577
 79
     0
 53
135.0
 43
-900.9423048819579
 44
-13.20000019034364
 45
-0.4490128060534577
 46
-0.4490128060534576
 79
     0
 47
0.057451373970553
 98
        8
 10
16.07985441574442
 20
15.16717345554184
 10
22.40451445916028
 20
18.84406199210729
 10
25.16436733838077
 20
15.511881455727
 10
30.91405943435825
 20
16.20129745609779
 10
41.83847147167784
 20
16.6609097236394
 10
46.89820034785066
 20
19.4185761260635
 10
56.55768542512146
 20
18.7291577247513
 10
67.82707907234385
 20
19.18876999229292
  0
ARC
  5
A36
330
1A
100
AcDbEntity
  8
ZUWAKU
100
AcDbCircle
 10
15.49221160750221
 20
18.63479778430099
 30
0.0
 40
4.199999999999999
100
AcDbArc
 50
180.0
 51
225.0
  0
LINE
  5
A37
330
1A
100
AcDbEntity
  8
ZUWAKU
100
AcDbLine
 10
20.74221160750221
 20
11.34999980965629
 30
0.0
 11
20.74221160750221
 21
19.04999980965625
 31
0.0
  0
LINE
  5
A38
330
1A
100
AcDbEntity
  8
ZUWAKU
100
AcDbLine
 10
23.54221160750228
 20
19.04999980965629
 30
0.0
 11
23.54221160750228
 21
11.34999980965629
 31
0.0
  0
ARC
  5
A39
330
1A
100
AcDbEntity
  8
ZUWAKU
100
AcDbCircle
 10
15.49221160750221
 20
18.63479778430099
 30
0.0
 40
1.399999999999999
100
AcDbArc
 50
180.0000000000016
 51
224.9999999999988
  0
ARC
  5
A3A
330
1A
100
AcDbEntity
  8
ZUWAKU
100
AcDbCircle
 10
24.94221160750226
 20
11.34999980965629
 30
0.0
 40
4.199999999999999
100
AcDbArc
 50
180.0
 51
270.0
  0
ARC
  5
A3B
330
1A
100
AcDbEntity
  8
ZUWAKU
100
AcDbCircle
 10
15.84221160750223
 20
9.94999980965629
 30
0.0
 40
2.799999999999999
100
AcDbArc
 50
270.0
 51
0.0
  0
ARC
  5
A3C
330
1A
100
AcDbEntity
  8
ZUWAKU
100
AcDbCircle
 10
14.44221160750226
 20
11.76520183501159
 30
0.0
 40
4.199999999999999
100
AcDbArc
 50
0.0
 51
45.0
  0
LINE
  5
A3D
330
1A
100
AcDbEntity
  8
ZUWAKU
100
AcDbLine
 10
12.52236312651871
 20
15.66494930331747
 30
0.0
 11
15.43216110116338
 21
12.75515132867281
 31
0.0
  0
LINE
  5
A3E
330
1A
100
AcDbEntity
  8
ZUWAKU
100
AcDbLine
 10
12.34221160750223
 20
9.94999980965629
 30
0.0
 11
15.31721160750225
 21
9.94999980965629
 31
0.0
  0
LINE
  5
A3F
330
1A
100
AcDbEntity
  8
ZUWAKU
100
AcDbLine
 10
12.34221160750223
 20
7.149999809656293
 30
0.0
 11
15.84221160750223
 21
7.149999809656293
 31
0.0
  0
ARC
  5
A40
330
1A
100
AcDbEntity
  8
ZUWAKU
100
AcDbCircle
 10
12.34221160750223
 20
9.424999809656291
 30
0.0
 40
0.525
100
AcDbArc
 50
90.0
 51
180.0
  0
ARC
  5
A41
330
1A
100
AcDbEntity
  8
ZUWAKU
100
AcDbCircle
 10
12.34221160750223
 20
7.674999809656291
 30
0.0
 40
0.525
100
AcDbArc
 50
180.0
 51
270.0
  0
LINE
  5
A42
330
1A
100
AcDbEntity
  8
ZUWAKU
100
AcDbLine
 10
11.81721160750225
 20
7.674999809656291
 30
0.0
 11
11.81721160750225
 21
9.424999809656291
 31
0.0
  0
ARC
  5
A43
330
1A
100
AcDbEntity
  8
ZUWAKU
100
AcDbCircle
 10
14.44221160750226
 20
11.76520183501163
 30
0.0
 40
1.399999999999999
100
AcDbArc
 50
0.0
 51
45.0
  0
ARC
  5
A44
330
1A
100
AcDbEntity
  8
ZUWAKU
100
AcDbCircle
 10
15.31721160750225
 20
10.47499980965629
 30
0.0
 40
0.525
100
AcDbArc
 50
270.0
 51
0.0
  0
LINE
  5
A45
330
1A
100
AcDbEntity
  8
ZUWAKU
100
AcDbLine
 10
15.84221160750223
 20
10.47499980965629
 30
0.0
 11
15.84221160750223
 21
11.76520183501163
 31
0.0
  0
LINE
  5
A46
330
1A
100
AcDbEntity
  8
ZUWAKU
100
AcDbLine
 10
17.41206008848576
 20
14.73505031599511
 30
0.0
 11
14.50226211384108
 21
17.64484829063979
 31
0.0
  0
ARC
  5
A47
330
1A
100
AcDbEntity
  8
ZUWAKU
100
AcDbCircle
 10
24.94221160750226
 20
11.34999980965629
 30
0.0
 40
1.399999999999999
100
AcDbArc
 50
180.0
 51
270.0
  0
LINE
  5
A48
330
1A
100
AcDbEntity
  8
ZUWAKU
100
AcDbLine
 10
18.6422116075023
 20
9.94999980965629
 30
0.0
 11
18.6422116075023
 21
11.76520183501163
 31
0.0
  0
ARC
  5
A49
330
1A
100
AcDbEntity
  8
ZUWAKU
100
AcDbCircle
 10
17.59221160750223
 20
20.97499980965629
 30
0.0
 40
0.525
100
AcDbArc
 50
270.0
 51
0.0
  0
ARC
  5
A4A
330
1A
100
AcDbEntity
  8
ZUWAKU
100
AcDbCircle
 10
17.59221160750223
 20
22.72499980965628
 30
0.0
 40
0.525
100
AcDbArc
 50
0.0
 51
90.0
  0
ARC
  5
A4B
330
1A
100
AcDbEntity
  8
ZUWAKU
100
AcDbCircle
 10
14.09221160750223
 20
20.44999980965628
 30
0.0
 40
2.799999999999999
100
AcDbArc
 50
90.0
 51
180.0
  0
LINE
  5
A4C
330
1A
100
AcDbEntity
  8
ZUWAKU
100
AcDbLine
 10
11.29221160750228
 20
20.44999980965628
 30
0.0
 11
11.29221160750228
 21
18.63479778430095
 31
0.0
  0
LINE
  5
A4D
330
1A
100
AcDbEntity
  8
ZUWAKU
100
AcDbLine
 10
17.59221160750223
 20
20.44999980965628
 30
0.0
 11
14.61721160750221
 21
20.44999980965628
 31
0.0
  0
LINE
  5
A4E
330
1A
100
AcDbEntity
  8
ZUWAKU
100
AcDbLine
 10
14.09221160750223
 20
19.92499980965629
 30
0.0
 11
14.09221160750223
 21
18.63479778430095
 31
0.0
  0
ARC
  5
A4F
330
1A
100
AcDbEntity
  8
ZUWAKU
100
AcDbCircle
 10
14.61721160750221
 20
19.92499980965629
 30
0.0
 40
0.525
100
AcDbArc
 50
90.0
 51
180.0
  0
LINE
  5
A50
330
1A
100
AcDbEntity
  8
ZUWAKU
100
AcDbLine
 10
14.09221160750223
 20
23.24999980965629
 30
0.0
 11
17.59221160750223
 21
23.24999980965629
 31
0.0
  0
ARC
  5
A51
330
1A
100
AcDbEntity
  8
ZUWAKU
100
AcDbCircle
 10
24.94221160750226
 20
19.04999980965625
 30
0.0
 40
4.199999999999999
100
AcDbArc
 50
90.0
 51
180.0
  0
ARC
  5
A52
330
1A
100
AcDbEntity
  8
ZUWAKU
100
AcDbCircle
 10
24.94221160750226
 20
19.04999980965629
 30
0.0
 40
1.399999999999999
100
AcDbArc
 50
90.0
 51
180.0
  0
LINE
  5
A53
330
1A
100
AcDbEntity
  8
ZUWAKU
100
AcDbLine
 10
18.11721160750221
 20
22.72499980965628
 30
0.0
 11
18.11721160750221
 21
20.97499980965629
 31
0.0
  0
LINE
  5
A54
330
1A
100
AcDbEntity
  8
ZUWAKU
100
AcDbLine
 10
35.6763465448181
 20
22.88309377782326
 30
0.0
 11
33.80807667018632
 21
16.96690584148932
 31
0.0
  0
LINE
  5
A55
330
1A
100
AcDbEntity
  8
ZUWAKU
100
AcDbLine
 10
29.84221160750223
 20
22.72499980965628
 30
0.0
 11
29.84221160750223
 21
7.674999809656291
 31
0.0
  0
LINE
  5
A56
330
1A
100
AcDbEntity
  8
ZUWAKU
100
AcDbLine
 10
32.6422116075023
 20
17.12499980965629
 30
0.0
 11
32.6422116075023
 21
22.72499980965628
 31
0.0
  0
LINE
  5
A57
330
1A
100
AcDbEntity
  8
ZUWAKU
100
AcDbLine
 10
57.84221160750224
 20
10.99999980965628
 30
0.0
 11
57.84221160750224
 21
22.72499980965628
 31
0.0
  0
LINE
  5
A58
330
1A
100
AcDbEntity
  8
ZUWAKU
100
AcDbLine
 10
55.04221160750228
 20
22.72499980965628
 30
0.0
 11
55.04221160750228
 21
9.94999980965629
 31
0.0
  0
LINE
  5
A59
330
1A
100
AcDbEntity
  8
ZUWAKU
100
AcDbLine
 10
43.49221160750221
 20
7.674999809656291
 30
0.0
 11
43.49221160750221
 21
22.72499980965628
 31
0.0
  0
LINE
  5
A5A
330
1A
100
AcDbEntity
  8
ZUWAKU
100
AcDbLine
 10
40.69221160750226
 20
22.72499980965628
 30
0.0
 11
40.69221160750226
 21
7.674999809656291
 31
0.0
  0
LINE
  5
A5B
330
1A
100
AcDbEntity
  8
ZUWAKU
100
AcDbLine
 10
37.31485808968022
 20
19.20504700321972
 30
0.0
 11
36.05010634434438
 21
15.19999980965631
 31
0.0
  0
ARC
  5
A5C
330
1A
100
AcDbEntity
  8
ZUWAKU
100
AcDbCircle
 10
49.79221160750228
 20
18.63479778430099
 30
0.0
 40
4.199999999999999
100
AcDbArc
 50
180.0
 51
225.0
  0
ARC
  5
A5D
330
1A
100
AcDbEntity
  8
ZUWAKU
100
AcDbCircle
 10
49.79221160750228
 20
18.63479778430099
 30
0.0
 40
1.399999999999999
100
AcDbArc
 50
180.0000000000016
 51
224.9999999999988
  0
LINE
  5
A5E
330
1A
100
AcDbEntity
  8
ZUWAKU
100
AcDbLine
 10
66.24221160750221
 20
22.72499980965628
 30
0.0
 11
66.24221160750221
 21
7.674999809656291
 31
0.0
  0
LINE
  5
A5F
330
1A
100
AcDbEntity
  8
ZUWAKU
100
AcDbLine
 10
69.04221160750228
 20
7.674999809656291
 30
0.0
 11
69.04221160750228
 21
22.72499980965628
 31
0.0
  0
LINE
  5
A60
330
1A
100
AcDbEntity
  8
ZUWAKU
100
AcDbLine
 10
61.34221160750223
 20
22.72499980965628
 30
0.0
 11
61.34221160750223
 21
10.99999980965628
 31
0.0
  0
LINE
  5
A61
330
1A
100
AcDbEntity
  8
ZUWAKU
100
AcDbLine
 10
64.1422116075023
 20
9.94999980965629
 30
0.0
 11
64.1422116075023
 21
22.72499980965628
 31
0.0
  0
LINE
  5
A62
330
1A
100
AcDbEntity
  8
ZUWAKU
100
AcDbLine
 10
79.1266290007095
 20
29.99999980965629
 30
0.0
 11
79.1266290007095
 21
0.7999998096563559
 31
0.0
  0
LINE
  5
A63
330
1A
100
AcDbEntity
  8
ZUWAKU
100
AcDbLine
 10
79.52662900070937
 20
29.99999980965629
 30
0.0
 11
79.52662900070959
 21
0.7999998096563559
 31
0.0
  0
LINE
  5
A64
330
1A
100
AcDbEntity
  8
ZUWAKU
100
AcDbLine
 10
79.32662900070932
 20
29.99999980965629
 30
0.0
 11
79.32662900070955
 21
0.7999998096563559
 31
0.0
  0
LINE
  5
A65
330
1A
100
AcDbEntity
  8
ZUWAKU
100
AcDbLine
 10
57.84221160750224
 20
7.149999809656293
 30
0.0
 11
61.34221160750223
 21
7.149999809656293
 31
0.0
  0
LINE
  5
A66
330
1A
100
AcDbEntity
  8
ZUWAKU
100
AcDbLine
 10
60.29221160750228
 20
9.94999980965629
 30
0.0
 11
58.8922116075023
 21
9.94999980965629
 31
0.0
  0
LINE
  5
A67
330
1A
100
AcDbEntity
  8
ZUWAKU
100
AcDbLine
 10
41.21721160750223
 20
7.149999809656293
 30
0.0
 11
42.96721160750223
 21
7.149999809656293
 31
0.0
  0
LINE
  5
A68
330
1A
100
AcDbEntity
  8
ZUWAKU
100
AcDbLine
 10
35.6763465448181
 20
7.516905841489318
 30
0.0
 11
33.80807667018632
 21
13.43309377782325
 31
0.0
  0
ARC
  5
A69
330
1A
100
AcDbEntity
  8
ZUWAKU
100
AcDbCircle
 10
33.16721160750228
 20
13.27499980965629
 30
0.0
 40
0.525
100
AcDbArc
 50
90.0
 51
180.0
  0
ARC
  5
A6A
330
1A
100
AcDbEntity
  8
ZUWAKU
100
AcDbCircle
 10
33.30744577099096
 20
13.27499980965629
 30
0.0
 40
0.525
100
AcDbArc
 50
17.52556837372303
 51
90.0
  0
ARC
  5
A6B
330
1A
100
AcDbEntity
  8
ZUWAKU
100
AcDbCircle
 10
30.36721160750221
 20
7.674999809656291
 30
0.0
 40
0.525
100
AcDbArc
 50
180.0
 51
270.0
  0
ARC
  5
A6C
330
1A
100
AcDbEntity
  8
ZUWAKU
100
AcDbCircle
 10
26.86721160750221
 20
9.424999809656291
 30
0.0
 40
0.525
100
AcDbArc
 50
0.0
 51
90.0
  0
ARC
  5
A6D
330
1A
100
AcDbEntity
  8
ZUWAKU
100
AcDbCircle
 10
26.86721160750221
 20
7.674999809656291
 30
0.0
 40
0.525
100
AcDbArc
 50
270.0
 51
0.0
  0
LINE
  5
A6E
330
1A
100
AcDbEntity
  8
ZUWAKU
100
AcDbLine
 10
27.3922116075023
 20
9.424999809656291
 30
0.0
 11
27.3922116075023
 21
7.674999809656291
 31
0.0
  0
LINE
  5
A6F
330
1A
100
AcDbEntity
  8
ZUWAKU
100
AcDbLine
 10
32.6422116075023
 20
7.674999809656291
 30
0.0
 11
32.6422116075023
 21
13.27499980965629
 31
0.0
  0
ARC
  5
A70
330
1A
100
AcDbEntity
  8
ZUWAKU
100
AcDbCircle
 10
32.11721160750221
 20
7.674999809656291
 30
0.0
 40
0.525
100
AcDbArc
 50
270.0
 51
0.0
  0
LINE
  5
A71
330
1A
100
AcDbEntity
  8
ZUWAKU
100
AcDbLine
 10
30.36721160750221
 20
7.149999809656293
 30
0.0
 11
32.11721160750221
 21
7.149999809656293
 31
0.0
  0
ARC
  5
A72
330
1A
100
AcDbEntity
  8
ZUWAKU
100
AcDbCircle
 10
33.16721160750228
 20
17.12499980965629
 30
0.0
 40
0.525
100
AcDbArc
 50
180.0
 51
270.0
  0
LINE
  5
A73
330
1A
100
AcDbEntity
  8
ZUWAKU
100
AcDbLine
 10
33.16721160750228
 20
13.79999980965629
 30
0.0
 11
33.30744577099096
 21
13.79999980965629
 31
0.0
  0
LINE
  5
A74
330
1A
100
AcDbEntity
  8
ZUWAKU
100
AcDbLine
 10
33.30744577099096
 20
16.59999980965628
 30
0.0
 11
33.16721160750228
 21
16.59999980965628
 31
0.0
  0
ARC
  5
A75
330
1A
100
AcDbEntity
  8
ZUWAKU
100
AcDbCircle
 10
33.30744577099096
 20
17.12499980965629
 30
0.0
 40
0.525
100
AcDbArc
 50
270.0
 51
342.4744316262769
  0
ARC
  5
A76
330
1A
100
AcDbEntity
  8
ZUWAKU
100
AcDbCircle
 10
36.17697744401357
 20
7.674999809656291
 30
0.0
 40
0.525
100
AcDbArc
 50
197.525568373723
 51
270.0
  0
LINE
  5
A77
330
1A
100
AcDbEntity
  8
ZUWAKU
100
AcDbLine
 10
38.37649772281804
 20
7.833093777823265
 30
0.0
 11
36.05010634434438
 21
15.19999980965631
 31
0.0
  0
ARC
  5
A78
330
1A
100
AcDbEntity
  8
ZUWAKU
100
AcDbCircle
 10
37.87586682362257
 20
7.674999809656291
 30
0.0
 40
0.525
100
AcDbArc
 50
270.0
 51
17.52556837372303
  0
LINE
  5
A79
330
1A
100
AcDbEntity
  8
ZUWAKU
100
AcDbLine
 10
36.17697744401357
 20
7.149999809656293
 30
0.0
 11
37.87586682362257
 21
7.149999809656293
 31
0.0
  0
ARC
  5
A7A
330
1A
100
AcDbEntity
  8
ZUWAKU
100
AcDbCircle
 10
41.21721160750223
 20
7.674999809656291
 30
0.0
 40
0.525
100
AcDbArc
 50
180.0
 51
270.0
  0
ARC
  5
A7B
330
1A
100
AcDbEntity
  8
ZUWAKU
100
AcDbCircle
 10
50.1422116075023
 20
9.94999980965629
 30
0.0
 40
2.799999999999999
100
AcDbArc
 50
270.0
 51
0.0
  0
ARC
  5
A7C
330
1A
100
AcDbEntity
  8
ZUWAKU
100
AcDbCircle
 10
57.84221160750224
 20
9.94999980965629
 30
0.0
 40
2.799999999999999
100
AcDbArc
 50
180.0
 51
270.0
  0
LINE
  5
A7D
330
1A
100
AcDbEntity
  8
ZUWAKU
100
AcDbLine
 10
51.71206008848582
 20
14.73505031599511
 30
0.0
 11
48.80226211384104
 21
17.64484829063979
 31
0.0
  0
LINE
  5
A7E
330
1A
100
AcDbEntity
  8
ZUWAKU
100
AcDbLine
 10
46.82236312651878
 20
15.66494930331747
 30
0.0
 11
49.73216110116346
 21
12.75515132867281
 31
0.0
  0
LINE
  5
A7F
330
1A
100
AcDbEntity
  8
ZUWAKU
100
AcDbLine
 10
46.6422116075023
 20
7.149999809656293
 30
0.0
 11
50.1422116075023
 21
7.149999809656293
 31
0.0
  0
LINE
  5
A80
330
1A
100
AcDbEntity
  8
ZUWAKU
100
AcDbLine
 10
46.6422116075023
 20
9.94999980965629
 30
0.0
 11
49.61721160750221
 21
9.94999980965629
 31
0.0
  0
ARC
  5
A81
330
1A
100
AcDbEntity
  8
ZUWAKU
100
AcDbCircle
 10
46.6422116075023
 20
9.424999809656291
 30
0.0
 40
0.525
100
AcDbArc
 50
90.0
 51
180.0
  0
ARC
  5
A82
330
1A
100
AcDbEntity
  8
ZUWAKU
100
AcDbCircle
 10
42.96721160750223
 20
7.674999809656291
 30
0.0
 40
0.525
100
AcDbArc
 50
270.0
 51
0.0
  0
ARC
  5
A83
330
1A
100
AcDbEntity
  8
ZUWAKU
100
AcDbCircle
 10
46.6422116075023
 20
7.674999809656291
 30
0.0
 40
0.525
100
AcDbArc
 50
180.0
 51
270.0
  0
LINE
  5
A84
330
1A
100
AcDbEntity
  8
ZUWAKU
100
AcDbLine
 10
46.11721160750221
 20
7.674999809656291
 30
0.0
 11
46.11721160750221
 21
9.424999809656291
 31
0.0
  0
ARC
  5
A85
330
1A
100
AcDbEntity
  8
ZUWAKU
100
AcDbCircle
 10
49.61721160750221
 20
10.47499980965629
 30
0.0
 40
0.525
100
AcDbArc
 50
270.0
 51
0.0
  0
ARC
  5
A86
330
1A
100
AcDbEntity
  8
ZUWAKU
100
AcDbCircle
 10
48.74221160750221
 20
11.76520183501163
 30
0.0
 40
1.399999999999999
100
AcDbArc
 50
0.0
 51
45.0
  0
LINE
  5
A87
330
1A
100
AcDbEntity
  8
ZUWAKU
100
AcDbLine
 10
50.1422116075023
 20
10.47499980965629
 30
0.0
 11
50.1422116075023
 21
11.76520183501163
 31
0.0
  0
ARC
  5
A88
330
1A
100
AcDbEntity
  8
ZUWAKU
100
AcDbCircle
 10
58.8922116075023
 20
10.99999980965628
 30
0.0
 40
1.049999999999999
100
AcDbArc
 50
180.0
 51
270.0
  0
ARC
  5
A89
330
1A
100
AcDbEntity
  8
ZUWAKU
100
AcDbCircle
 10
48.74221160750221
 20
11.76520183501159
 30
0.0
 40
4.199999999999999
100
AcDbArc
 50
0.0
 51
45.0
  0
LINE
  5
A8A
330
1A
100
AcDbEntity
  8
ZUWAKU
100
AcDbLine
 10
52.94221160750225
 20
9.94999980965629
 30
0.0
 11
52.94221160750225
 21
11.76520183501163
 31
0.0
  0
ARC
  5
A8B
330
1A
100
AcDbEntity
  8
ZUWAKU
100
AcDbCircle
 10
61.34221160750223
 20
9.94999980965629
 30
0.0
 40
2.799999999999999
100
AcDbArc
 50
270.0
 51
0.0
  0
LINE
  5
A8C
330
1A
100
AcDbEntity
  8
ZUWAKU
100
AcDbLine
 10
66.7672116075023
 20
7.149999809656293
 30
0.0
 11
68.5172116075023
 21
7.149999809656293
 31
0.0
  0
ARC
  5
A8D
330
1A
100
AcDbEntity
  8
ZUWAKU
100
AcDbCircle
 10
60.29221160750228
 20
10.99999980965628
 30
0.0
 40
1.049999999999999
100
AcDbArc
 50
270.0
 51
0.0
  0
ARC
  5
A8E
330
1A
100
AcDbEntity
  8
ZUWAKU
100
AcDbCircle
 10
66.7672116075023
 20
7.674999809656291
 30
0.0
 40
0.525
100
AcDbArc
 50
180.0
 51
270.0
  0
ARC
  5
A8F
330
1A
100
AcDbEntity
  8
ZUWAKU
100
AcDbCircle
 10
68.5172116075023
 20
7.674999809656291
 30
0.0
 40
0.525
100
AcDbArc
 50
270.0
 51
0.0
  0
LINE
  5
A90
330
1A
100
AcDbEntity
  8
ZUWAKU
100
AcDbLine
 10
42.96721160750223
 20
23.24999980965629
 30
0.0
 11
41.21721160750223
 21
23.24999980965629
 31
0.0
  0
LINE
  5
A91
330
1A
100
AcDbEntity
  8
ZUWAKU
100
AcDbLine
 10
27.3922116075023
 20
22.72499980965628
 30
0.0
 11
27.3922116075023
 21
20.97499980965629
 31
0.0
  0
ARC
  5
A92
330
1A
100
AcDbEntity
  8
ZUWAKU
100
AcDbCircle
 10
26.86721160750221
 20
20.97499980965629
 30
0.0
 40
0.525
100
AcDbArc
 50
270.0
 51
0.0
  0
ARC
  5
A93
330
1A
100
AcDbEntity
  8
ZUWAKU
100
AcDbCircle
 10
30.36721160750221
 20
22.72499980965628
 30
0.0
 40
0.525
100
AcDbArc
 50
90.0
 51
180.0
  0
ARC
  5
A94
330
1A
100
AcDbEntity
  8
ZUWAKU
100
AcDbCircle
 10
26.86721160750221
 20
22.72499980965628
 30
0.0
 40
0.525
100
AcDbArc
 50
0.0
 51
90.0
  0
LINE
  5
A95
330
1A
100
AcDbEntity
  8
ZUWAKU
100
AcDbLine
 10
32.11721160750221
 20
23.24999980965629
 30
0.0
 11
30.36721160750221
 21
23.24999980965629
 31
0.0
  0
ARC
  5
A96
330
1A
100
AcDbEntity
  8
ZUWAKU
100
AcDbCircle
 10
32.11721160750221
 20
22.72499980965628
 30
0.0
 40
0.525
100
AcDbArc
 50
0.0
 51
90.0
  0
ARC
  5
A97
330
1A
100
AcDbEntity
  8
ZUWAKU
100
AcDbCircle
 10
36.17697744401357
 20
22.72499980965628
 30
0.0
 40
0.525
100
AcDbArc
 50
90.0
 51
162.4744316262769
  0
LINE
  5
A98
330
1A
100
AcDbEntity
  8
ZUWAKU
100
AcDbLine
 10
38.37649772281804
 20
22.56690584148932
 30
0.0
 11
37.31485808968022
 21
19.20504700321972
 31
0.0
  0
ARC
  5
A99
330
1A
100
AcDbEntity
  8
ZUWAKU
100
AcDbCircle
 10
37.87586682362257
 20
22.72499980965628
 30
0.0
 40
0.525
100
AcDbArc
 50
342.4744316262769
 51
90.0
  0
LINE
  5
A9A
330
1A
100
AcDbEntity
  8
ZUWAKU
100
AcDbLine
 10
36.17697744401357
 20
23.24999980965629
 30
0.0
 11
37.87586682362257
 21
23.24999980965629
 31
0.0
  0
ARC
  5
A9B
330
1A
100
AcDbEntity
  8
ZUWAKU
100
AcDbCircle
 10
41.21721160750223
 20
22.72499980965628
 30
0.0
 40
0.525
100
AcDbArc
 50
90.0
 51
180.0
  0
LINE
  5
A9C
330
1A
100
AcDbEntity
  8
ZUWAKU
100
AcDbLine
 10
51.8922116075023
 20
20.44999980965628
 30
0.0
 11
48.91721160750228
 21
20.44999980965628
 31
0.0
  0
LINE
  5
A9D
330
1A
100
AcDbEntity
  8
ZUWAKU
100
AcDbLine
 10
48.39221160750231
 20
23.24999980965629
 30
0.0
 11
51.8922116075023
 21
23.24999980965629
 31
0.0
  0
ARC
  5
A9E
330
1A
100
AcDbEntity
  8
ZUWAKU
100
AcDbCircle
 10
48.39221160750231
 20
20.44999980965628
 30
0.0
 40
2.799999999999999
100
AcDbArc
 50
90.0
 51
180.0
  0
LINE
  5
A9F
330
1A
100
AcDbEntity
  8
ZUWAKU
100
AcDbLine
 10
45.59221160750223
 20
20.44999980965628
 30
0.0
 11
45.59221160750223
 21
18.63479778430095
 31
0.0
  0
ARC
  5
AA0
330
1A
100
AcDbEntity
  8
ZUWAKU
100
AcDbCircle
 10
42.96721160750223
 20
22.72499980965628
 30
0.0
 40
0.525
100
AcDbArc
 50
0.0
 51
90.0
  0
LINE
  5
AA1
330
1A
100
AcDbEntity
  8
ZUWAKU
100
AcDbLine
 10
48.39221160750231
 20
19.92499980965629
 30
0.0
 11
48.39221160750231
 21
18.63479778430095
 31
0.0
  0
ARC
  5
AA2
330
1A
100
AcDbEntity
  8
ZUWAKU
100
AcDbCircle
 10
48.91721160750228
 20
19.92499980965629
 30
0.0
 40
0.525
100
AcDbArc
 50
90.0
 51
180.0
  0
LINE
  5
AA3
330
1A
100
AcDbEntity
  8
ZUWAKU
100
AcDbLine
 10
52.41721160750228
 20
22.72499980965628
 30
0.0
 11
52.41721160750228
 21
20.97499980965629
 31
0.0
  0
ARC
  5
AA4
330
1A
100
AcDbEntity
  8
ZUWAKU
100
AcDbCircle
 10
51.8922116075023
 20
20.97499980965629
 30
0.0
 40
0.525
100
AcDbArc
 50
270.0
 51
0.0
  0
ARC
  5
AA5
330
1A
100
AcDbEntity
  8
ZUWAKU
100
AcDbCircle
 10
51.8922116075023
 20
22.72499980965628
 30
0.0
 40
0.525
100
AcDbArc
 50
0.0
 51
90.0
  0
LINE
  5
AA6
330
1A
100
AcDbEntity
  8
ZUWAKU
100
AcDbLine
 10
57.31721160750225
 20
23.24999980965629
 30
0.0
 11
55.56721160750226
 21
23.24999980965629
 31
0.0
  0
ARC
  5
AA7
330
1A
100
AcDbEntity
  8
ZUWAKU
100
AcDbCircle
 10
55.56721160750226
 20
22.72499980965628
 30
0.0
 40
0.525
100
AcDbArc
 50
90.0
 51
180.0
  0
ARC
  5
AA8
330
1A
100
AcDbEntity
  8
ZUWAKU
100
AcDbCircle
 10
57.31721160750225
 20
22.72499980965628
 30
0.0
 40
0.525
100
AcDbArc
 50
0.0
 51
90.0
  0
LINE
  5
AA9
330
1A
100
AcDbEntity
  8
ZUWAKU
100
AcDbLine
 10
68.5172116075023
 20
23.24999980965629
 30
0.0
 11
66.7672116075023
 21
23.24999980965629
 31
0.0
  0
ARC
  5
AAA
330
1A
100
AcDbEntity
  8
ZUWAKU
100
AcDbCircle
 10
61.86721160750221
 20
22.72499980965628
 30
0.0
 40
0.525
100
AcDbArc
 50
90.0
 51
180.0
  0
LINE
  5
AAB
330
1A
100
AcDbEntity
  8
ZUWAKU
100
AcDbLine
 10
63.61721160750221
 20
23.24999980965629
 30
0.0
 11
61.86721160750221
 21
23.24999980965629
 31
0.0
  0
ARC
  5
AAC
330
1A
100
AcDbEntity
  8
ZUWAKU
100
AcDbCircle
 10
63.61721160750221
 20
22.72499980965628
 30
0.0
 40
0.525
100
AcDbArc
 50
0.0
 51
90.0
  0
ARC
  5
AAD
330
1A
100
AcDbEntity
  8
ZUWAKU
100
AcDbCircle
 10
66.7672116075023
 20
22.72499980965628
 30
0.0
 40
0.525
100
AcDbArc
 50
90.0
 51
180.0
  0
ARC
  5
AAE
330
1A
100
AcDbEntity
  8
ZUWAKU
100
AcDbCircle
 10
68.5172116075023
 20
22.72499980965628
 30
0.0
 40
0.525
100
AcDbArc
 50
0.0
 51
90.0
  0
TEXT
  5
AAF
330
1A
100
AcDbEntity
  8
MOJI
100
AcDbText
 10
239.8272021335722
 20
18.00492086706367
 30
0.0
 40
5.599999999999999
  1
ステンレス金具正面打（受）ストロング高強度金具
 41
0.9
  7
ｽﾀｲﾙ1
100
AcDbText
  0
TEXT
  5
AB0
330
1A
100
AcDbEntity
  8
MOJI
100
AcDbText
 10
239.8272021335722
 20
3.204920867063709
 30
0.0
 40
5.599999999999999
  1
Ｘ７０Ｕ－０寸－４５m/m（1.5寸）
 41
0.9
  7
ｽﾀｲﾙ1
100
AcDbText
  0
LINE
  5
AB1
330
1A
100
AcDbEntity
  8
ZUWAKU
100
AcDbLine
 10
208.4466007427888
 20
29.99999980965629
 30
0.0
 11
208.4466007427891
 21
0.7999998096563559
 31
0.0
  0
LINE
  5
AB2
330
1A
100
AcDbEntity
  8
ZUWAKU
100
AcDbLine
 10
208.6466007427889
 20
29.99999980965629
 30
0.0
 11
208.6466007427891
 21
0.7999998096563559
 31
0.0
  0
LINE
  5
AB3
330
1A
100
AcDbEntity
  8
ZUWAKU
100
AcDbLine
 10
208.246600742789
 20
29.99999980965629
 30
0.0
 11
208.246600742789
 21
0.7999998096563559
 31
0.0
  0
TEXT
  5
AB4
330
1A
100
AcDbEntity
  8
ZUWAKU
100
AcDbText
 10
209.7240457649986
 20
9.655356348041905
 30
0.0
 40
4.0
  1
サイズ
 41
0.9
  7
ｽﾀｲﾙ1
100
AcDbText
  0
TEXT
  5
AB5
330
1A
100
AcDbEntity
  8
ZUWAKU
100
AcDbText
 10
209.7240457649984
 20
24.05535634804186
 30
0.0
 40
4.0
  1
品名
 41
0.9
  7
ｽﾀｲﾙ1
100
AcDbText
  0
TEXT
  5
AB6
330
1A
100
AcDbEntity
  8
ZUWAKU
100
AcDbText
 10
658.2039371400234
 20
18.00492086706367
 30
0.0
 40
5.599999999999999
  1
　　．　　．　　
 41
0.9
  7
ｽﾀｲﾙ1
100
AcDbText
  0
LINE
  5
AB7
330
1A
100
AcDbEntity
  8
ZUWAKU
100
AcDbLine
 10
648.8172019629253
 20
15.59999980965632
 30
0.0
 11
697.2490100012623
 21
15.59999980965632
 31
0.0
  0
LINE
  5
AB8
330
1A
100
AcDbEntity
  8
ZUWAKU
100
AcDbLine
 10
648.8172019629255
 20
15.39999980965632
 30
0.0
 11
697.2490100012623
 21
15.39999980965632
 31
0.0
  0
LINE
  5
AB9
330
1A
100
AcDbEntity
  8
ZUWAKU
100
AcDbLine
 10
648.8172019629253
 20
15.19999980965631
 30
0.0
 11
697.2490100012623
 21
15.19999980965632
 31
0.0
  0
LINE
  5
ABA
330
1A
100
AcDbEntity
  8
ZUWAKU
100
AcDbLine
 10
505.199178950862
 20
15.59999980965632
 30
0.0
 11
552.5269552188335
 21
15.59999980965632
 31
0.0
  0
LINE
  5
ABB
330
1A
100
AcDbEntity
  8
ZUWAKU
100
AcDbLine
 10
505.199178950862
 20
15.39999980965632
 30
0.0
 11
552.5269552188335
 21
15.39999980965632
 31
0.0
  0
LINE
  5
ABC
330
1A
100
AcDbEntity
  8
ZUWAKU
100
AcDbLine
 10
505.199178950862
 20
15.19999980965632
 30
0.0
 11
552.5269552188335
 21
15.19999980965632
 31
0.0
  0
LINE
  5
ABD
330
1A
100
AcDbEntity
  8
ZUWAKU
100
AcDbLine
 10
504.7991789508621
 20
29.99999980965629
 30
0.0
 11
504.7991789508621
 21
0.7999998096563559
 31
0.0
  0
LINE
  5
ABE
330
1A
100
AcDbEntity
  8
ZUWAKU
100
AcDbLine
 10
505.199178950862
 20
29.99999980965629
 30
0.0
 11
505.1991789508622
 21
0.7999998096563559
 31
0.0
  0
LINE
  5
ABF
330
1A
100
AcDbEntity
  8
ZUWAKU
100
AcDbLine
 10
504.9991789508619
 20
29.99999980965629
 30
0.0
 11
504.9991789508622
 21
0.7999998096563559
 31
0.0
  0
TEXT
  5
AC0
330
1A
100
AcDbEntity
  8
MOJI
100
AcDbText
 10
528.0409074250339
 20
18.00492086706367
 30
0.0
 40
5.599999999999999
  1
Ａ３
 41
0.9
  7
ｽﾀｲﾙ1
100
AcDbText
  0
LINE
  5
AC1
330
1A
100
AcDbEntity
  8
ZUWAKU
100
AcDbLine
 10
447.4243634237125
 20
29.99999980965629
 30
0.0
 11
447.4243634237125
 21
0.7999998096563559
 31
0.0
  0
LINE
  5
AC2
330
1A
100
AcDbEntity
  8
ZUWAKU
100
AcDbLine
 10
447.8243634237124
 20
29.99999980965629
 30
0.0
 11
447.8243634237125
 21
0.7999998096563559
 31
0.0
  0
LINE
  5
AC3
330
1A
100
AcDbEntity
  8
ZUWAKU
100
AcDbLine
 10
447.6243634237123
 20
29.99999980965629
 30
0.0
 11
447.6243634237126
 21
0.7999998096563559
 31
0.0
  0
TEXT
  5
AC4
330
1A
100
AcDbEntity
  8
MOJI
100
AcDbText
 10
463.2464314437231
 20
11.94261753131627
 30
0.0
 40
5.599999999999999
  1
ＬＦ６３□
 41
0.9
  7
ｽﾀｲﾙ1
100
AcDbText
  0
TEXT
  5
AC5
330
1A
100
AcDbEntity
  8
ZUWAKU
100
AcDbText
 10
461.6981346806335
 20
2.9083290495455
 30
0.0
 40
3.0
  1
□には色品番が入ります
 41
0.9
  7
ｽﾀｲﾙ1
100
AcDbText
  0
TEXT
  5
AC6
330
1A
100
AcDbEntity
  8
ZUWAKU
100
AcDbText
 10
506.6766239730718
 20
9.655356348041905
 30
0.0
 40
4.0
  1
縮尺
 41
0.9
  7
ｽﾀｲﾙ1
100
AcDbText
  0
TEXT
  5
AC7
330
1A
100
AcDbEntity
  8
MOJI
100
AcDbText
 10
528.0409074250339
 20
3.204920867063709
 30
0.0
 40
5.599999999999999
  1
１/２
 41
0.9
  7
ｽﾀｲﾙ1
100
AcDbText
  0
TEXT
  5
AC8
330
1A
100
AcDbEntity
  8
ZUWAKU
100
AcDbText
 10
449.301808445922
 20
24.05535634804186
 30
0.0
 40
4.0
  1
品番
 41
0.9
  7
ｽﾀｲﾙ1
100
AcDbText
  0
TEXT
  5
AC9
330
1A
100
AcDbEntity
  8
ZUWAKU
100
AcDbText
 10
506.6766239730716
 20
24.05535634804186
 30
0.0
 40
4.0
  1
用紙
 41
0.9
  7
ｽﾀｲﾙ1
100
AcDbText
  0
LINE
  5
ACA
330
1A
100
AcDbEntity
  8
ZUWAKU
100
AcDbLine
 10
552.5269552188335
 20
29.99999980965629
 30
0.0
 11
552.5269552188335
 21
0.7999998096563559
 31
0.0
  0
LINE
  5
ACB
330
1A
100
AcDbEntity
  8
ZUWAKU
100
AcDbLine
 10
552.9269552188334
 20
29.99999980965629
 30
0.0
 11
552.9269552188337
 21
0.7999998096563559
 31
0.0
  0
LINE
  5
ACC
330
1A
100
AcDbEntity
  8
ZUWAKU
100
AcDbLine
 10
552.7269552188333
 20
29.99999980965629
 30
0.0
 11
552.7269552188336
 21
0.7999998096563559
 31
0.0
  0
LINE
  5
ACD
330
1A
100
AcDbEntity
  8
ZUWAKU
100
AcDbLine
 10
648.4172019629256
 20
29.99999980965629
 30
0.0
 11
648.4172019629256
 21
0.7999998096563559
 31
0.0
  0
LINE
  5
ACE
330
1A
100
AcDbEntity
  8
ZUWAKU
100
AcDbLine
 10
648.8172019629255
 20
29.99999980965629
 30
0.0
 11
648.8172019629257
 21
0.7999998096563559
 31
0.0
  0
LINE
  5
ACF
330
1A
100
AcDbEntity
  8
ZUWAKU
100
AcDbLine
 10
648.6172019629255
 20
29.99999980965629
 30
0.0
 11
648.6172019629257
 21
0.7999998096563559
 31
0.0
  0
TEXT
  5
AD0
330
1A
100
AcDbEntity
  8
ZUWAKU
100
AcDbText
 10
650.2946469851352
 20
24.05535634804186
 30
0.0
 40
4.0
  1
DATE
 41
0.9
  7
ｽﾀｲﾙ1
100
AcDbText
  0
TEXT
  5
AD1
330
1A
100
AcDbEntity
  8
ZUWAKU
100
AcDbText
 10
708.5280836449649
 20
17.55383914534309
 30
0.0
 40
6.0
  1
積水化学工業株式会社
 41
0.9
  7
ｽﾀｲﾙ1
100
AcDbText
  0
LINE
  5
AD2
330
1A
100
AcDbEntity
  8
ZUWAKU
100
AcDbLine
 10
697.8490100012622
 20
29.99999980965629
 30
0.0
 11
697.8490100012625
 21
0.7999998096563559
 31
0.0
  0
LINE
  5
AD3
330
1A
100
AcDbEntity
  8
ZUWAKU
100
AcDbLine
 10
697.6490100012622
 20
29.99999980965629
 30
0.0
 11
697.6490100012624
 21
0.7999998096563559
 31
0.0
  0
LINE
  5
AD4
330
1A
100
AcDbEntity
  8
ZUWAKU
100
AcDbLine
 10
697.4490100012624
 20
29.99999980965629
 30
0.0
 11
697.4490100012624
 21
0.7999998096563559
 31
0.0
  0
LINE
  5
AD5
330
1A
100
AcDbEntity
  8
ZUWAKU
100
AcDbLine
 10
697.2490100012623
 20
29.99999980965629
 30
0.0
 11
697.2490100012623
 21
0.7999998096563559
 31
0.0
  0
TEXT
  5
AD6
330
1A
100
AcDbEntity
  8
ZUWAKU
100
AcDbText
 10
708.5280836449649
 20
6.648840123510353
 30
0.0
 40
6.0
  1
建材事業部
 41
0.9
  7
ｽﾀｲﾙ1
100
AcDbText
  0
VIEWPORT
  5
22
330
17
100
AcDbEntity
 67
     1
  8
0
100
AcDbViewport
 10
313.6808219178082
 20
148.5
 30
0.0
 40
627.3616438356165
 41
297.0
 68
     2
 69
     1
1001
ACAD
1000
MVIEW
1002
{
1070
    16
1010
0.0
1020
0.0
1030
0.0
1010
0.0
1020
0.0
1030
1.0
1040
0.0
1040
297.0
1040
313.6808219178082
1040
148.5
1040
50.0
1040
0.0
1040
0.0
1070
     0
1070
   100
1070
     1
1070
     0
1070
     0
1070
     0
1070
     0
1070
     0
1040
0.0
1040
0.0
1040
0.0
1040
1.0
1040
1.0
1040
10.0
1040
10.0
1070
     0
1002
{
1002
}
1002
}
  0
VIEWPORT
  5
64
330
17
100
AcDbEntity
 67
     1
  8
VIEWPORT
100
AcDbViewport
 10
210.0
 20
148.5
 30
0.0
 40
420.0
 41
297.0
 68
     1
 69
     2
1001
ACAD
1000
MVIEW
1002
{
1070
    16
1010
0.0
1020
0.0
1030
0.0
1010
0.0
1020
0.0
1030
1.0
1040
0.0
1040
605.8799999999998
1040
420.0
1040
297.0
1040
50.0
1040
0.0
1040
0.0
1070
     0
1070
   100
1070
     1
1070
     0
1070
     0
1070
     0
1070
     0
1070
     0
1040
0.0
1040
0.0
1040
0.0
1040
10.0
1040
10.0
1040
0.0
1040
0.0
1070
     0
1002
{
1002
}
1002
}
  0
ENDSEC
  0
SECTION
  2
OBJECTS
  0
DICTIONARY
  5
C
330
0
100
AcDbDictionary
  3
ACAD_GROUP
350
D
  3
ACAD_LAYOUT
350
8F5
  3
ACAD_MLINESTYLE
350
E
  3
ACAD_PLOTSETTINGS
350
8F6
  3
ACAD_PLOTSTYLENAME
350
8F3
  3
ACDBHEADERROUNDTRIPXREC
350
ADE
  0
DICTIONARY
  5
924
330
1A
100
AcDbDictionary
280
     1
  3
ACAD_LAYOUTSELFREF
360
B00
  0
DICTIONARY
  5
922
330
17
100
AcDbDictionary
280
     1
  3
ACAD_LAYOUTSELFREF
360
AFF
  0
DICTIONARY
  5
D
102
{ACAD_REACTORS
330
C
102
}
330
C
100
AcDbDictionary
  0
DICTIONARY
  5
8F5
102
{ACAD_REACTORS
330
C
102
}
330
C
100
AcDbDictionary
  0
DICTIONARY
  5
E
102
{ACAD_REACTORS
330
C
102
}
330
C
100
AcDbDictionary
  3
STANDARD
350
13
  0
DICTIONARY
  5
8F6
102
{ACAD_REACTORS
330
C
102
}
330
C
100
AcDbDictionary
  0
ACDBDICTIONARYWDFLT
  5
8F3
102
{ACAD_REACTORS
330
C
102
}
330
C
100
AcDbDictionary
281
     1
  3
Normal
350
8F4
100
AcDbDictionaryWithDefault
340
8F4
1001
ACAD
1000
TREAT_AS_HARD
1070
     0
1000
TREAT_AS_HARD
1070
     0
  0
DICTIONARY
  5
ADE
102
{ACAD_REACTORS
330
C
102
}
330
C
100
AcDbDictionary
  3
TSTACKALIGN
350
ADF
  3
TSTACKSIZE
350
AE0
  3
HYPERLINKBASE
350
AE1
  3
STYLESHEET
350
AE2
  3
LAYOUTDICT
350
AE3
  3
PLOTSETDICT
350
AE4
  3
PLOTSTYLNAMDICT
350
AE5
  3
LWETCUNION
350
AE6
  3
INSUNITS
350
AE7
  3
CEPSNTYPE
350
AE8
  3
FINGERPRINTGUID
350
AE9
  3
VERSIONGUID
350
AEA
  3
PSVPSCALE
350
AEB
  3
DIMSTYLEDATA
350
AEC
  3
PUCSORTHOREF
350
AED
  3
PUCSORTHOVIEW
350
AEE
  3
PUCSBASE
350
AEF
  3
PUCSORGTOP
350
AF0
  3
PUCSORGBOTTOM
350
AF1
  3
PUCSORGLEFT
350
AF2
  3
PUCSORGRIGHT
350
AF3
  3
PUCSORGFRONT
350
AF4
  3
PUCSORGBACK
350
AF5
  3
UCSORTHOREF
350
AF6
  3
UCSORTHOVIEW
350
AF7
  3
UCSBASE
350
AF8
  3
UCSORGTOP
350
AF9
  3
UCSORGBOTTOM
350
AFA
  3
UCSORGLEFT
350
AFB
  3
UCSORGRIGHT
350
AFC
  3
UCSORGFRONT
350
AFD
  3
UCSORGBACK
350
AFE
  0
XRECORD
  5
B00
102
{ACAD_REACTORS
330
924
102
}
330
924
100
AcDbXrecord
340
1A
  0
XRECORD
  5
AFF
102
{ACAD_REACTORS
330
922
102
}
330
922
100
AcDbXrecord
340
17
  0
MLINESTYLE
  5
13
102
{ACAD_REACTORS
330
E
102
}
330
E
100
AcDbMlineStyle
  2
STANDARD
 70
     0
  3

 62
     0
 51
90.0
 52
90.0
 71
     2
 49
0.5
 62
   256
  6
BYLAYER
 49
-0.5
 62
   256
  6
BYLAYER
  0
ACDBPLACEHOLDER
  5
8F4
102
{ACAD_REACTORS
330
8F3
102
}
330
8F3
100
AcDbPlaceHolder
280
     0
  0
XRECORD
  5
ADF
102
{ACAD_REACTORS
330
ADE
102
}
330
ADE
100
AcDbXrecord
 90
        1
  0
XRECORD
  5
AE0
102
{ACAD_REACTORS
330
ADE
102
}
330
ADE
100
AcDbXrecord
 90
       70
  0
XRECORD
  5
AE1
102
{ACAD_REACTORS
330
ADE
102
}
330
ADE
100
AcDbXrecord
  1

  0
XRECORD
  5
AE2
102
{ACAD_REACTORS
330
ADE
102
}
330
ADE
100
AcDbXrecord
  1
systemprinter.ctb
  0
XRECORD
  5
AE3
102
{ACAD_REACTORS
330
ADE
102
}
330
ADE
100
AcDbXrecord
340
8F5
  0
XRECORD
  5
AE4
102
{ACAD_REACTORS
330
ADE
102
}
330
ADE
100
AcDbXrecord
340
8F6
  0
XRECORD
  5
AE5
102
{ACAD_REACTORS
330
ADE
102
}
330
ADE
100
AcDbXrecord
340
8F3
  0
XRECORD
  5
AE6
102
{ACAD_REACTORS
330
ADE
102
}
330
ADE
100
AcDbXrecord
 90
    10781
  0
XRECORD
  5
AE7
102
{ACAD_REACTORS
330
ADE
102
}
330
ADE
100
AcDbXrecord
 90
        0
  0
XRECORD
  5
AE8
102
{ACAD_REACTORS
330
ADE
102
}
330
ADE
100
AcDbXrecord
 90
        0
  0
XRECORD
  5
AE9
102
{ACAD_REACTORS
330
ADE
102
}
330
ADE
100
AcDbXrecord
  1
{0F025705-9260-4274-B571-12715E3F22D3}
  0
XRECORD
  5
AEA
102
{ACAD_REACTORS
330
ADE
102
}
330
ADE
100
AcDbXrecord
  1
{9336BB62-11DA-4C73-AAB2-909ADB67B27D}
  0
XRECORD
  5
AEB
102
{ACAD_REACTORS
330
ADE
102
}
330
ADE
100
AcDbXrecord
 40
0.0
  0
XRECORD
  5
AEC
102
{ACAD_REACTORS
330
ADE
102
}
330
ADE
100
AcDbXrecord
1000
DSTYLE
1002
{
1070
   341
340
6D
1070
   343
340
6D
1070
   344
340
6D
1070
   371
 70
    -1
1070
   372
 70
    -1
1002
}
  0
XRECORD
  5
AED
102
{ACAD_REACTORS
330
ADE
102
}
330
ADE
100
AcDbXrecord
340
0
  0
XRECORD
  5
AEE
102
{ACAD_REACTORS
330
ADE
102
}
330
ADE
100
AcDbXrecord
 70
     0
  0
XRECORD
  5
AEF
102
{ACAD_REACTORS
330
ADE
102
}
330
ADE
100
AcDbXrecord
340
0
  0
XRECORD
  5
AF0
102
{ACAD_REACTORS
330
ADE
102
}
330
ADE
100
AcDbXrecord
 10
0.0
 20
0.0
 30
0.0
  0
XRECORD
  5
AF1
102
{ACAD_REACTORS
330
ADE
102
}
330
ADE
100
AcDbXrecord
 10
0.0
 20
0.0
 30
0.0
  0
XRECORD
  5
AF2
102
{ACAD_REACTORS
330
ADE
102
}
330
ADE
100
AcDbXrecord
 10
0.0
 20
0.0
 30
0.0
  0
XRECORD
  5
AF3
102
{ACAD_REACTORS
330
ADE
102
}
330
ADE
100
AcDbXrecord
 10
0.0
 20
0.0
 30
0.0
  0
XRECORD
  5
AF4
102
{ACAD_REACTORS
330
ADE
102
}
330
ADE
100
AcDbXrecord
 10
0.0
 20
0.0
 30
0.0
  0
XRECORD
  5
AF5
102
{ACAD_REACTORS
330
ADE
102
}
330
ADE
100
AcDbXrecord
 10
0.0
 20
0.0
 30
0.0
  0
XRECORD
  5
AF6
102
{ACAD_REACTORS
330
ADE
102
}
330
ADE
100
AcDbXrecord
340
0
  0
XRECORD
  5
AF7
102
{ACAD_REACTORS
330
ADE
102
}
330
ADE
100
AcDbXrecord
 70
     0
  0
XRECORD
  5
AF8
102
{ACAD_REACTORS
330
ADE
102
}
330
ADE
100
AcDbXrecord
340
0
  0
XRECORD
  5
AF9
102
{ACAD_REACTORS
330
ADE
102
}
330
ADE
100
AcDbXrecord
 10
0.0
 20
0.0
 30
0.0
  0
XRECORD
  5
AFA
102
{ACAD_REACTORS
330
ADE
102
}
330
ADE
100
AcDbXrecord
 10
0.0
 20
0.0
 30
0.0
  0
XRECORD
  5
AFB
102
{ACAD_REACTORS
330
ADE
102
}
330
ADE
100
AcDbXrecord
 10
0.0
 20
0.0
 30
0.0
  0
XRECORD
  5
AFC
102
{ACAD_REACTORS
330
ADE
102
}
330
ADE
100
AcDbXrecord
 10
0.0
 20
0.0
 30
0.0
  0
XRECORD
  5
AFD
102
{ACAD_REACTORS
330
ADE
102
}
330
ADE
100
AcDbXrecord
 10
0.0
 20
0.0
 30
0.0
  0
XRECORD
  5
AFE
102
{ACAD_REACTORS
330
ADE
102
}
330
ADE
100
AcDbXrecord
 10
0.0
 20
0.0
 30
0.0
  0
ENDSEC
  0
EOF
