  0
SECTION
  2
HEADER
  9
$ACADVER
  1
AC1014
  9
$ACADMAINTVER
 70
     9
  9
$DWGCODEPAGE
  3
ANSI_932
  9
$INSBASE
 10
0.0
 20
0.0
 30
0.0
  9
$EXTMIN
 10
-0.0128164049386896
 20
-0.0090630292066862
 30
-0.0000000100021362
  9
$EXTMAX
 10
398.8000497813338
 20
275.8226172440017
 30
0.0000000100021363
  9
$LIMMIN
 10
0.0
 20
0.0
  9
$LIMMAX
 10
420.0
 20
297.0
  9
$ORTHOMODE
 70
     0
  9
$REGENMODE
 70
     1
  9
$FILLMODE
 70
     1
  9
$QTEXTMODE
 70
     0
  9
$MIRRTEXT
 70
     1
  9
$DRAGMODE
 70
     2
  9
$LTSCALE
 40
1.0
  9
$OSMODE
 70
    37
  9
$ATTMODE
 70
     1
  9
$TEXTSIZE
 40
2.5
  9
$TRACEWID
 40
1.0
  9
$TEXTSTYLE
  7
STANDARD
  9
$CLAYER
  8
SUNPOU
  9
$CELTYPE
  6
BYLAYER
  9
$CECOLOR
 62
   256
  9
$CELTSCALE
 40
1.0
  9
$DELOBJ
 70
     1
  9
$DISPSILH
 70
     0
  9
$DIMSCALE
 40
1.0
  9
$DIMASZ
 40
3.0
  9
$DIMEXO
 40
3.0
  9
$DIMDLI
 40
7.0
  9
$DIMRND
 40
0.0
  9
$DIMDLE
 40
0.0
  9
$DIMEXE
 40
1.5
  9
$DIMTP
 40
0.0
  9
$DIMTM
 40
0.0
  9
$DIMTXT
 40
3.0
  9
$DIMCEN
 40
150.0
  9
$DIMTSZ
 40
0.0
  9
$DIMTOL
 70
     0
  9
$DIMLIM
 70
     0
  9
$DIMTIH
 70
     0
  9
$DIMTOH
 70
     0
  9
$DIMSE1
 70
     0
  9
$DIMSE2
 70
     0
  9
$DIMTAD
 70
     3
  9
$DIMZIN
 70
     0
  9
$DIMBLK
  1

  9
$DIMASO
 70
     1
  9
$DIMSHO
 70
     1
  9
$DIMPOST
  1

  9
$DIMAPOST
  1

  9
$DIMALT
 70
     0
  9
$DIMALTD
 70
     2
  9
$DIMALTF
 40
25.4
  9
$DIMLFAC
 40
1.0
  9
$DIMTOFL
 70
     1
  9
$DIMTVP
 40
0.0
  9
$DIMTIX
 70
     0
  9
$DIMSOXD
 70
     0
  9
$DIMSAH
 70
     1
  9
$DIMBLK1
  1
OPEN
  9
$DIMBLK2
  1
OPEN
  9
$DIMSTYLE
  2
STANDARD
  9
$DIMCLRD
 70
   256
  9
$DIMCLRE
 70
   256
  9
$DIMCLRT
 70
   256
  9
$DIMTFAC
 40
1.0
  9
$DIMGAP
 40
1.0
  9
$DIMJUST
 70
     0
  9
$DIMSD1
 70
     0
  9
$DIMSD2
 70
     0
  9
$DIMTOLJ
 70
     1
  9
$DIMTZIN
 70
     0
  9
$DIMALTZ
 70
     0
  9
$DIMALTTZ
 70
     0
  9
$DIMFIT
 70
     3
  9
$DIMUPT
 70
     0
  9
$DIMUNIT
 70
     2
  9
$DIMDEC
 70
     0
  9
$DIMTDEC
 70
     0
  9
$DIMALTU
 70
     2
  9
$DIMALTTD
 70
     2
  9
$DIMTXSTY
  7
STANDARD
  9
$DIMAUNIT
 70
     0
  9
$LUNITS
 70
     2
  9
$LUPREC
 70
     4
  9
$SKETCHINC
 40
1.0
  9
$FILLETRAD
 40
10.0
  9
$AUNITS
 70
     0
  9
$AUPREC
 70
     0
  9
$MENU
  1
.
  9
$ELEVATION
 40
0.0
  9
$PELEVATION
 40
0.0
  9
$THICKNESS
 40
0.0
  9
$LIMCHECK
 70
     0
  9
$BLIPMODE
 70
     0
  9
$CHAMFERA
 40
10.0
  9
$CHAMFERB
 40
10.0
  9
$CHAMFERC
 40
20.0
  9
$CHAMFERD
 40
0.0
  9
$SKPOLY
 70
     0
  9
$TDCREATE
 40
2450994.350997107
  9
$TDUPDATE
 40
2454515.383785937
  9
$TDINDWG
 40
0.0227418287
  9
$TDUSRTIMER
 40
0.0227418287
  9
$USRTIMER
 70
     1
  9
$ANGBASE
 50
0.0
  9
$ANGDIR
 70
     0
  9
$PDMODE
 70
     1
  9
$PDSIZE
 40
0.0
  9
$PLINEWID
 40
0.0
  9
$COORDS
 70
     2
  9
$SPLFRAME
 70
     0
  9
$SPLINETYPE
 70
     6
  9
$SPLINESEGS
 70
     8
  9
$ATTDIA
 70
     0
  9
$ATTREQ
 70
     1
  9
$HANDLING
 70
 10241
  9
$HANDSEED
  5
9B0
  9
$SURFTAB1
 70
     6
  9
$SURFTAB2
 70
     6
  9
$SURFTYPE
 70
     6
  9
$SURFU
 70
     6
  9
$SURFV
 70
     6
  9
$UCSNAME
  2

  9
$UCSORG
 10
0.0
 20
0.0
 30
0.0
  9
$UCSXDIR
 10
1.0
 20
0.0
 30
0.0
  9
$UCSYDIR
 10
0.0
 20
1.0
 30
0.0
  9
$PUCSNAME
  2

  9
$PUCSORG
 10
0.0
 20
0.0
 30
0.0
  9
$PUCSXDIR
 10
1.0
 20
0.0
 30
0.0
  9
$PUCSYDIR
 10
0.0
 20
1.0
 30
0.0
  9
$USERI1
 70
     0
  9
$USERI2
 70
     0
  9
$USERI3
 70
     0
  9
$USERI4
 70
     0
  9
$USERI5
 70
     0
  9
$USERR1
 40
0.0
  9
$USERR2
 40
0.0
  9
$USERR3
 40
0.0
  9
$USERR4
 40
0.0
  9
$USERR5
 40
0.0
  9
$WORLDVIEW
 70
     1
  9
$SHADEDGE
 70
     3
  9
$SHADEDIF
 70
    70
  9
$TILEMODE
 70
     1
  9
$MAXACTVP
 70
    16
  9
$PINSBASE
 10
0.0
 20
0.0
 30
0.0
  9
$PLIMCHECK
 70
     0
  9
$PEXTMIN
 10
0.0
 20
0.0
 30
0.0
  9
$PEXTMAX
 10
420.0
 20
297.0
 30
0.0
  9
$PLIMMIN
 10
0.0
 20
0.0
  9
$PLIMMAX
 10
420.0
 20
297.0
  9
$UNITMODE
 70
     0
  9
$VISRETAIN
 70
     0
  9
$PLINEGEN
 70
     0
  9
$PSLTSCALE
 70
     1
  9
$TREEDEPTH
 70
  3020
  9
$PICKSTYLE
 70
     1
  9
$CMLSTYLE
  2
STANDARD
  9
$CMLJUST
 70
     0
  9
$CMLSCALE
 40
1.0
  9
$PROXYGRAPHICS
 70
     1
  9
$MEASUREMENT
 70
     1
  0
ENDSEC
  0
SECTION
  2
CLASSES
  0
CLASS
  1
ACDBDICTIONARYWDFLT
  2
AcDbDictionaryWithDefault
  3
AutoCAD 2000
 90
        0
280
     0
281
     0
  0
CLASS
  1
ACDBPLACEHOLDER
  2
AcDbPlaceHolder
  3
AutoCAD 2000
 90
        0
280
     0
281
     0
  0
CLASS
  1
LAYOUT
  2
AcDbLayout
  3
AutoCAD 2000
 90
        0
280
     0
281
     0
  0
CLASS
  1
LONG_TRANSACTION
  2
AcDbLongTransaction
  3
AutoCAD 2000
 90
        0
280
     0
281
     0
  0
CLASS
  1
LWPOLYLINE
  2
AcDbPolyline
  3
AutoCAD 2000
 90
        0
280
     0
281
     1
  0
CLASS
  1
HATCH
  2
AcDbHatch
  3
AutoCAD 2000
 90
        0
280
     0
281
     1
  0
CLASS
  1
XRECORD
  2
AcDbXrecord
  3
AutoCAD 2000
 90
        0
280
     0
281
     0
  0
CLASS
  1
LONG_TRANSACTION
  2
AcDbLongTransaction
  3
AutoCAD 2000
 90
        0
280
     0
281
     0
  0
CLASS
  1
LWPOLYLINE
  2
AcDbPolyline
  3
AutoCAD 2000
 90
        0
280
     0
281
     1
  0
CLASS
  1
HATCH
  2
AcDbHatch
  3
AutoCAD 2000
 90
        0
280
     0
281
     1
  0
CLASS
  1
XRECORD
  2
AcDbXrecord
  3
AutoCAD 2000
 90
        0
280
     0
281
     0
  0
CLASS
  1
LONG_TRANSACTION
  2
AcDbLongTransaction
  3
AutoCAD 2000
 90
        0
280
     0
281
     0
  0
CLASS
  1
LWPOLYLINE
  2
AcDbPolyline
  3
AutoCAD 2000
 90
        0
280
     0
281
     1
  0
CLASS
  1
HATCH
  2
AcDbHatch
  3
AutoCAD 2000
 90
        0
280
     0
281
     1
  0
CLASS
  1
XRECORD
  2
AcDbXrecord
  3
AutoCAD 2000
 90
        0
280
     0
281
     0
  0
ENDSEC
  0
SECTION
  2
TABLES
  0
TABLE
  2
VPORT
  5
8
330
0
100
AcDbSymbolTable
 70
     2
  0
VPORT
  5
98C
330
8
100
AcDbSymbolTableRecord
100
AcDbViewportTableRecord
  2
*ACTIVE
 70
     0
 10
0.0
 20
0.0
 11
1.0
 21
1.0
 12
204.8267474941289
 22
140.4757619056727
 13
0.0
 23
0.0
 14
5.0
 24
5.0
 15
0.0
 25
0.0
 16
0.0
 26
0.0
 36
1.0
 17
0.0
 27
0.0
 37
0.0
 40
375.7255419657042
 41
1.570153061224489
 42
50.0
 43
0.0
 44
0.0
 50
0.0
 51
0.0
 71
     0
 72
   100
 73
     1
 74
     0
 75
     0
 76
     0
 77
     0
 78
     0
  0
ENDTAB
  0
TABLE
  2
LTYPE
  5
5
330
0
100
AcDbSymbolTable
 70
     3
  0
LTYPE
  5
14
330
5
100
AcDbSymbolTableRecord
100
AcDbLinetypeTableRecord
  2
BYBLOCK
 70
     0
  3

 72
    65
 73
     0
 40
0.0
  0
LTYPE
  5
15
330
5
100
AcDbSymbolTableRecord
100
AcDbLinetypeTableRecord
  2
BYLAYER
 70
     0
  3

 72
    65
 73
     0
 40
0.0
  0
LTYPE
  5
16
330
5
100
AcDbSymbolTableRecord
100
AcDbLinetypeTableRecord
  2
CONTINUOUS
 70
     0
  3
Solid line
 72
    65
 73
     0
 40
0.0
  0
LTYPE
  5
120
330
5
100
AcDbSymbolTableRecord
100
AcDbLinetypeTableRecord
  2
CENTER
 70
     0
  3
____ _ ____ _ ____ _ ____ _ ____ _ ____ _ ____ 
 72
    65
 73
     4
 40
2.0
 49
1.25
 74
     0
 49
-0.25
 74
     0
 49
0.25
 74
     0
 49
-0.25
 74
     0
  0
LTYPE
  5
122
330
5
100
AcDbSymbolTableRecord
100
AcDbLinetypeTableRecord
  2
PHANTOM
 70
     0
  3
______  __  __  ______  __  __  ______  __  __ 
 72
    65
 73
     6
 40
2.5
 49
1.25
 74
     0
 49
-0.25
 74
     0
 49
0.25
 74
     0
 49
-0.25
 74
     0
 49
0.25
 74
     0
 49
-0.25
 74
     0
  0
ENDTAB
  0
TABLE
  2
LAYER
  5
2
330
0
100
AcDbSymbolTable
 70
     9
  0
LAYER
  5
F
330
2
100
AcDbSymbolTableRecord
100
AcDbLayerTableRecord
  2
0
 70
     0
 62
     7
  6
CONTINUOUS
  0
LAYER
  5
62
330
2
100
AcDbSymbolTableRecord
100
AcDbLayerTableRecord
  2
VIEWPORT
 70
     0
 62
     7
  6
CONTINUOUS
  0
LAYER
  5
6B
330
2
100
AcDbSymbolTableRecord
100
AcDbLayerTableRecord
  2
ZUWAKU
 70
     0
 62
     7
  6
CONTINUOUS
  0
LAYER
  5
14E
330
2
100
AcDbSymbolTableRecord
100
AcDbLayerTableRecord
  2
NOKITOI
 70
     0
 62
     8
  6
PHANTOM
  0
LAYER
  5
14F
330
2
100
AcDbSymbolTableRecord
100
AcDbLayerTableRecord
  2
SEIHIN
 70
     0
 62
     3
  6
CONTINUOUS
  0
LAYER
  5
150
330
2
100
AcDbSymbolTableRecord
100
AcDbLayerTableRecord
  2
SUNPOU
 70
     0
 62
     4
  6
CONTINUOUS
  0
LAYER
  5
151
330
2
100
AcDbSymbolTableRecord
100
AcDbLayerTableRecord
  2
CENTER_L
 70
     0
 62
     1
  6
CENTER
  0
LAYER
  5
46A
330
2
100
AcDbSymbolTableRecord
100
AcDbLayerTableRecord
  2
DEFPOINTS
 70
     0
 62
     7
  6
CONTINUOUS
  0
LAYER
  5
817
330
2
100
AcDbSymbolTableRecord
100
AcDbLayerTableRecord
  2
MOJI
 70
     0
 62
     2
  6
CONTINUOUS
  0
ENDTAB
  0
TABLE
  2
STYLE
  5
3
330
0
100
AcDbSymbolTable
 70
     2
  0
STYLE
  5
10
330
3
100
AcDbSymbolTableRecord
100
AcDbTextStyleTableRecord
  2
STANDARD
 70
     0
 40
0.0
 41
1.0
 50
0.0
 71
     0
 42
2.5
  3
TXT
  4
bigfont.shx
  0
STYLE
  5
818
330
3
100
AcDbSymbolTableRecord
100
AcDbTextStyleTableRecord
  2
ｽﾀｲﾙ1
 70
     0
 40
0.0
 41
1.0
 50
0.0
 71
     0
 42
2.5
  3
MS PGothic.ttf
  4

1001
ACAD
1000
MS PGothic
1071
    32818
  0
ENDTAB
  0
TABLE
  2
VIEW
  5
6
330
0
100
AcDbSymbolTable
 70
     0
  0
ENDTAB
  0
TABLE
  2
UCS
  5
7
330
0
100
AcDbSymbolTable
 70
     0
  0
ENDTAB
  0
TABLE
  2
APPID
  5
9
330
0
100
AcDbSymbolTable
 70
     1
  0
APPID
  5
11
330
9
100
AcDbSymbolTableRecord
100
AcDbRegAppTableRecord
  2
ACAD
 70
     0
  0
ENDTAB
  0
TABLE
  2
DIMSTYLE
  5
A
330
0
100
AcDbSymbolTable
 70
     1
  0
DIMSTYLE
105
1D
102
{ACAD_REACTORS
330
469
330
477
330
49C
330
4B6
330
4C4
330
4D1
330
4E0
330
4F6
330
504
330
523
330
532
330
53F
330
54C
330
559
330
56B
330
578
330
585
330
592
102
}
330
A
100
AcDbSymbolTableRecord
100
AcDbDimStyleTableRecord
  2
STANDARD
 70
     0
  3

  4

  5

  6

  7

 40
1.0
 41
0.18
 42
0.0625
 43
0.38
 44
0.18
 45
0.0
 46
0.0
 47
0.0
 48
0.0
140
0.18
141
0.09
142
0.0
143
25.4
144
1.0
145
0.0
146
1.0
147
0.09
 71
     0
 72
     0
 73
     1
 74
     1
 75
     0
 76
     0
 77
     0
 78
     0
170
     0
171
     2
172
     0
173
     0
174
     0
175
     0
176
     0
177
     0
178
     0
270
     2
271
     4
272
     4
273
     2
274
     2
340
10
275
     0
280
     0
281
     0
282
     0
283
     1
284
     0
285
     0
286
     0
287
     3
288
     0
  0
ENDTAB
  0
TABLE
  2
BLOCK_RECORD
  5
1
330
0
100
AcDbSymbolTable
 70
    19
  0
BLOCK_RECORD
  5
1A
102
{ACAD_XDICTIONARY
360
72F
102
}
330
1
100
AcDbSymbolTableRecord
100
AcDbBlockTableRecord
  2
*MODEL_SPACE
  0
BLOCK_RECORD
  5
17
102
{ACAD_XDICTIONARY
360
72D
102
}
330
1
100
AcDbSymbolTableRecord
100
AcDbBlockTableRecord
  2
*PAPER_SPACE
  0
BLOCK_RECORD
  5
B2
330
1
100
AcDbSymbolTableRecord
100
AcDbBlockTableRecord
  2
_OPEN
  0
BLOCK_RECORD
  5
46B
330
1
100
AcDbSymbolTableRecord
100
AcDbBlockTableRecord
  2
*D1
  0
BLOCK_RECORD
  5
478
330
1
100
AcDbSymbolTableRecord
100
AcDbBlockTableRecord
  2
*D2
  0
BLOCK_RECORD
  5
49D
330
1
100
AcDbSymbolTableRecord
100
AcDbBlockTableRecord
  2
*D3
  0
BLOCK_RECORD
  5
4B7
330
1
100
AcDbSymbolTableRecord
100
AcDbBlockTableRecord
  2
*D4
  0
BLOCK_RECORD
  5
4C5
330
1
100
AcDbSymbolTableRecord
100
AcDbBlockTableRecord
  2
*D5
  0
BLOCK_RECORD
  5
4D2
330
1
100
AcDbSymbolTableRecord
100
AcDbBlockTableRecord
  2
*D6
  0
BLOCK_RECORD
  5
4E1
330
1
100
AcDbSymbolTableRecord
100
AcDbBlockTableRecord
  2
*D7
  0
BLOCK_RECORD
  5
4F7
330
1
100
AcDbSymbolTableRecord
100
AcDbBlockTableRecord
  2
*D8
  0
BLOCK_RECORD
  5
505
330
1
100
AcDbSymbolTableRecord
100
AcDbBlockTableRecord
  2
*D9
  0
BLOCK_RECORD
  5
524
330
1
100
AcDbSymbolTableRecord
100
AcDbBlockTableRecord
  2
*D10
  0
BLOCK_RECORD
  5
533
330
1
100
AcDbSymbolTableRecord
100
AcDbBlockTableRecord
  2
*D11
  0
BLOCK_RECORD
  5
540
330
1
100
AcDbSymbolTableRecord
100
AcDbBlockTableRecord
  2
*D12
  0
BLOCK_RECORD
  5
54D
330
1
100
AcDbSymbolTableRecord
100
AcDbBlockTableRecord
  2
*D13
  0
BLOCK_RECORD
  5
55A
330
1
100
AcDbSymbolTableRecord
100
AcDbBlockTableRecord
  2
*D14
  0
BLOCK_RECORD
  5
56C
330
1
100
AcDbSymbolTableRecord
100
AcDbBlockTableRecord
  2
*D15
  0
BLOCK_RECORD
  5
579
330
1
100
AcDbSymbolTableRecord
100
AcDbBlockTableRecord
  2
*D16
  0
BLOCK_RECORD
  5
586
330
1
100
AcDbSymbolTableRecord
100
AcDbBlockTableRecord
  2
*D17
  0
BLOCK_RECORD
  5
593
330
1
100
AcDbSymbolTableRecord
100
AcDbBlockTableRecord
  2
*D18
  0
ENDTAB
  0
ENDSEC
  0
SECTION
  2
BLOCKS
  0
BLOCK
  5
1B
330
1A
100
AcDbEntity
  8
0
100
AcDbBlockBegin
  2
*MODEL_SPACE
 70
     0
 10
0.0
 20
0.0
 30
0.0
  3
*MODEL_SPACE
  1

  0
ENDBLK
  5
1C
330
1A
100
AcDbEntity
  8
0
100
AcDbBlockEnd
  0
BLOCK
  5
18
330
17
100
AcDbEntity
 67
     1
  8
0
100
AcDbBlockBegin
  2
*PAPER_SPACE
 70
     0
 10
0.0
 20
0.0
 30
0.0
  3
*PAPER_SPACE
  1

  0
ENDBLK
  5
19
330
17
100
AcDbEntity
 67
     1
  8
0
100
AcDbBlockEnd
  0
BLOCK
  5
B3
330
B2
100
AcDbEntity
  8
0
100
AcDbBlockBegin
  2
_OPEN
 70
     0
 10
0.0
 20
0.0
 30
0.0
  3
_OPEN
  1

  0
LINE
  5
B4
330
B2
100
AcDbEntity
  8
0
  6
BYBLOCK
 62
     0
100
AcDbLine
 10
-1.0
 20
0.1666666666666666
 30
0.0
 11
0.0
 21
0.0
 31
0.0
  0
LINE
  5
B5
330
B2
100
AcDbEntity
  8
0
  6
BYBLOCK
 62
     0
100
AcDbLine
 10
0.0
 20
0.0
 30
0.0
 11
-1.0
 21
-0.1666666666666666
 31
0.0
  0
LINE
  5
B6
330
B2
100
AcDbEntity
  8
0
  6
BYBLOCK
 62
     0
100
AcDbLine
 10
0.0
 20
0.0
 30
0.0
 11
-1.0
 21
0.0
 31
0.0
  0
ENDBLK
  5
B7
330
B2
100
AcDbEntity
  8
0
100
AcDbBlockEnd
  0
BLOCK
  5
475
330
46B
100
AcDbEntity
  8
0
100
AcDbBlockBegin
  2
*D1
 70
     1
 10
0.0
 20
0.0
 30
0.0
  3
*D1
  1

  0
LINE
  5
737
330
46B
100
AcDbEntity
  8
SUNPOU
 62
     4
100
AcDbLine
 10
228.6984205328089
 20
128.2543763813045
 30
0.0
 11
251.5459028654722
 21
139.6780609661713
 31
0.0
  0
LINE
  5
738
330
46B
100
AcDbEntity
  8
SUNPOU
 62
     4
100
AcDbLine
 10
249.7173664260525
 20
86.21627638130448
 30
0.0
 11
272.5648487587158
 21
97.6399609661713
 31
0.0
  0
LINE
  5
739
330
46B
100
AcDbEntity
  8
SUNPOU
 62
     4
100
AcDbLine
 10
251.5458962203569
 20
136.3239589999282
 30
0.0
 11
269.8815711727904
 21
99.65242746200932
 31
0.0
  0
INSERT
  5
73A
330
46B
100
AcDbEntity
  8
SUNPOU
 62
     4
100
AcDbBlockReference
  2
_OPEN
 10
250.2042607499519
 20
139.0072432309687
 30
0.0
 41
3.0
 42
3.0
 43
3.0
 50
116.5649376632195
  0
INSERT
  5
73B
330
46B
100
AcDbEntity
  8
SUNPOU
 62
     4
100
AcDbBlockReference
  2
_OPEN
 10
271.2232066431955
 20
96.96914323096876
 30
0.0
 41
3.0
 42
3.0
 43
3.0
 50
296.5649376632195
  0
MTEXT
  5
73C
330
46B
100
AcDbEntity
  8
SUNPOU
 62
     4
100
AcDbMText
 10
262.9498038891075
 20
119.1062227896396
 30
0.0
 40
3.0
 41
0.0
 71
     5
 72
     5
  1
\A1;47
 11
0.4472118234683579
 21
-0.8944280770135218
 31
0.0
1001
ACAD
1000
MTEXTBEGIN
1070
    73
1070
     1
1070
    44
1040
1.0
1070
    74
1070
     0
1000
MTEXTEND
1000
MTEXTBEGIN
1070
    73
1070
     1
1070
    44
1040
1.0
1070
    74
1070
     0
1000
MTEXTEND
  0
POINT
  5
73D
330
46B
100
AcDbEntity
  8
DEFPOINTS
 62
     0
100
AcDbPoint
 10
226.0151363017683
 20
126.9127409108994
 30
0.0
  0
POINT
  5
73E
330
46B
100
AcDbEntity
  8
DEFPOINTS
 62
     0
100
AcDbPoint
 10
247.034082195012
 20
84.8746409108994
 30
0.0
  0
POINT
  5
73F
330
46B
100
AcDbEntity
  8
DEFPOINTS
 62
     0
100
AcDbPoint
 10
271.2232066431955
 20
96.96914323096876
 30
0.0
  0
ENDBLK
  5
476
330
46B
100
AcDbEntity
  8
0
100
AcDbBlockEnd
  0
BLOCK
  5
484
330
478
100
AcDbEntity
  8
0
100
AcDbBlockBegin
  2
*D2
 70
     1
 10
0.0
 20
0.0
 30
0.0
  3
*D2
  1

  0
LINE
  5
740
330
478
100
AcDbEntity
  8
SUNPOU
 62
     4
100
AcDbLine
 10
247.4813229815118
 20
81.74415933789964
 30
0.0
 11
254.4494543699963
 21
67.80789656093057
 31
0.0
  0
LINE
  5
741
330
478
100
AcDbEntity
  8
SUNPOU
 62
     4
100
AcDbLine
 10
248.3757229815119
 20
82.19135933789967
 30
0.0
 11
255.3438543699964
 21
68.2550965609306
 31
0.0
  0
LINE
  5
742
330
478
100
AcDbEntity
  8
SUNPOU
 62
     4
100
AcDbLine
 10
251.0953524037467
 20
67.80789656093057
 30
0.0
 11
248.4120708307469
 21
66.46625577443069
 31
0.0
  0
LINE
  5
743
330
478
100
AcDbEntity
  8
SUNPOU
 62
     4
100
AcDbLine
 10
257.3563155497462
 20
70.93837813393034
 30
0.0
 11
268.5366554372452
 21
76.52854807767983
 31
0.0
  0
LINE
  5
744
330
478
100
AcDbEntity
  8
SUNPOU
 62
     4
100
AcDbLine
 10
253.7786339767464
 20
69.14953734743045
 30
0.0
 11
254.6730339767464
 21
69.59673734743046
 31
0.0
  0
INSERT
  5
745
330
478
100
AcDbEntity
  8
SUNPOU
 62
     4
100
AcDbBlockReference
  2
_OPEN
 10
253.7786339767464
 20
69.14953734743045
 30
0.0
 41
3.0
 42
3.0
 43
3.0
 50
26.56505117707802
  0
INSERT
  5
746
330
478
100
AcDbEntity
  8
SUNPOU
 62
     4
100
AcDbBlockReference
  2
_OPEN
 10
254.6730339767464
 20
69.59673734743046
 30
0.0
 41
3.0
 42
3.0
 43
3.0
 50
206.565051177078
  0
MTEXT
  5
747
330
478
100
AcDbEntity
  8
SUNPOU
 62
     4
100
AcDbMText
 10
263.1700922912457
 20
76.64035147655479
 30
0.0
 40
3.0
 41
0.0
 71
     5
 72
     5
  1
\A1;t1.0
 11
0.8944271909999159
 21
0.447213595499958
 31
0.0
1001
ACAD
1000
MTEXTBEGIN
1070
    73
1070
     1
1070
    44
1040
1.0
1070
    74
1070
     0
1000
MTEXTEND
1000
MTEXTBEGIN
1070
    73
1070
     1
1070
    44
1040
1.0
1070
    74
1070
     0
1000
MTEXTEND
  0
POINT
  5
748
330
478
100
AcDbEntity
  8
DEFPOINTS
 62
     0
100
AcDbPoint
 10
246.1396821950119
 20
84.4274409108994
 30
0.0
  0
POINT
  5
749
330
478
100
AcDbEntity
  8
DEFPOINTS
 62
     0
100
AcDbPoint
 10
247.034082195012
 20
84.87464091089941
 30
0.0
  0
POINT
  5
74A
330
478
100
AcDbEntity
  8
DEFPOINTS
 62
     0
100
AcDbPoint
 10
254.6730339767464
 20
69.59673734743046
 30
0.0
  0
ENDBLK
  5
485
330
478
100
AcDbEntity
  8
0
100
AcDbBlockEnd
  0
BLOCK
  5
4A7
330
49D
100
AcDbEntity
  8
0
100
AcDbBlockBegin
  2
*D3
 70
     1
 10
0.0
 20
0.0
 30
0.0
  3
*D3
  1

  0
LINE
  5
74B
330
49D
100
AcDbEntity
  8
SUNPOU
 62
     4
100
AcDbLine
 10
201.0151410185414
 20
129.9127409108994
 30
0.0
 11
201.0151410185414
 21
151.916526537848
 31
0.0
  0
LINE
  5
74C
330
49D
100
AcDbEntity
  8
SUNPOU
 62
     4
100
AcDbLine
 10
226.0151363017683
 20
129.9127409108994
 30
0.0
 11
226.0151363017683
 21
151.916526537848
 31
0.0
  0
LINE
  5
74D
330
49D
100
AcDbEntity
  8
SUNPOU
 62
     4
100
AcDbLine
 10
204.0151410185414
 20
150.416526537848
 30
0.0
 11
223.0151363017683
 21
150.416526537848
 31
0.0
  0
INSERT
  5
74E
330
49D
100
AcDbEntity
  8
SUNPOU
 62
     4
100
AcDbBlockReference
  2
_OPEN
 10
201.0151410185414
 20
150.416526537848
 30
0.0
 41
3.0
 42
3.0
 43
3.0
 50
180.0
  0
INSERT
  5
74F
330
49D
100
AcDbEntity
  8
SUNPOU
 62
     4
100
AcDbBlockReference
  2
_OPEN
 10
226.0151363017683
 20
150.416526537848
 30
0.0
 41
3.0
 42
3.0
 43
3.0
  0
MTEXT
  5
750
330
49D
100
AcDbEntity
  8
SUNPOU
 62
     4
100
AcDbMText
 10
213.5151386601549
 20
152.916526537848
 30
0.0
 40
3.0
 41
0.0
 71
     5
 72
     5
  1
\A1;25
1001
ACAD
1000
MTEXTBEGIN
1070
    73
1070
     1
1070
    44
1040
1.0
1070
    74
1070
     0
1000
MTEXTEND
1000
MTEXTBEGIN
1070
    73
1070
     1
1070
    44
1040
1.0
1070
    74
1070
     0
1000
MTEXTEND
  0
POINT
  5
751
330
49D
100
AcDbEntity
  8
DEFPOINTS
 62
     0
100
AcDbPoint
 10
201.0151410185414
 20
126.9127409108994
 30
0.0
  0
POINT
  5
752
330
49D
100
AcDbEntity
  8
DEFPOINTS
 62
     0
100
AcDbPoint
 10
226.0151363017683
 20
126.9127409108994
 30
0.0
  0
POINT
  5
753
330
49D
100
AcDbEntity
  8
DEFPOINTS
 62
     0
100
AcDbPoint
 10
226.0151363017683
 20
150.416526537848
 30
0.0
  0
ENDBLK
  5
4A8
330
49D
100
AcDbEntity
  8
0
100
AcDbBlockEnd
  0
BLOCK
  5
4C1
330
4B7
100
AcDbEntity
  8
0
100
AcDbBlockBegin
  2
*D4
 70
     1
 10
0.0
 20
0.0
 30
0.0
  3
*D4
  1

  0
LINE
  5
754
330
4B7
100
AcDbEntity
  8
SUNPOU
 62
     4
100
AcDbLine
 10
226.0151363017683
 20
129.9127409108994
 30
0.0
 11
226.0151363017683
 21
160.5954768124922
 31
0.0
  0
LINE
  5
755
330
4B7
100
AcDbEntity
  8
SUNPOU
 62
     4
100
AcDbLine
 10
105.015182195012
 20
118.3915426169307
 30
0.0
 11
105.015182195012
 21
160.5954768124922
 31
0.0
  0
LINE
  5
756
330
4B7
100
AcDbEntity
  8
SUNPOU
 62
     4
100
AcDbLine
 10
223.0151363017683
 20
159.0954768124922
 30
0.0
 11
108.015182195012
 21
159.0954768124922
 31
0.0
  0
INSERT
  5
757
330
4B7
100
AcDbEntity
  8
SUNPOU
 62
     4
100
AcDbBlockReference
  2
_OPEN
 10
226.0151363017683
 20
159.0954768124922
 30
0.0
 41
3.0
 42
3.0
 43
3.0
  0
INSERT
  5
758
330
4B7
100
AcDbEntity
  8
SUNPOU
 62
     4
100
AcDbBlockReference
  2
_OPEN
 10
105.015182195012
 20
159.0954768124922
 30
0.0
 41
3.0
 42
3.0
 43
3.0
 50
180.0
  0
MTEXT
  5
759
330
4B7
100
AcDbEntity
  8
SUNPOU
 62
     4
100
AcDbMText
 10
165.5151592483901
 20
161.5954768124922
 30
0.0
 40
3.0
 41
0.0
 71
     5
 72
     5
  1
\A1;121
1001
ACAD
1000
MTEXTBEGIN
1070
    73
1070
     1
1070
    44
1040
1.0
1070
    74
1070
     0
1000
MTEXTEND
1000
MTEXTBEGIN
1070
    73
1070
     1
1070
    44
1040
1.0
1070
    74
1070
     0
1000
MTEXTEND
  0
POINT
  5
75A
330
4B7
100
AcDbEntity
  8
DEFPOINTS
 62
     0
100
AcDbPoint
 10
226.0151363017683
 20
126.9127409108994
 30
0.0
  0
POINT
  5
75B
330
4B7
100
AcDbEntity
  8
DEFPOINTS
 62
     0
100
AcDbPoint
 10
105.015182195012
 20
115.3915426169307
 30
0.0
  0
POINT
  5
75C
330
4B7
100
AcDbEntity
  8
DEFPOINTS
 62
     0
100
AcDbPoint
 10
105.015182195012
 20
159.0954768124922
 30
0.0
  0
ENDBLK
  5
4C2
330
4B7
100
AcDbEntity
  8
0
100
AcDbBlockEnd
  0
BLOCK
  5
4CF
330
4C5
100
AcDbEntity
  8
0
100
AcDbBlockBegin
  2
*D5
 70
     1
 10
0.0
 20
0.0
 30
0.0
  3
*D5
  1

  0
LINE
  5
75D
330
4C5
100
AcDbEntity
  8
SUNPOU
 62
     4
100
AcDbLine
 10
244.034082195012
 20
84.87464091089941
 30
0.0
 11
74.20007217210603
 21
84.87464091089947
 31
0.0
  0
LINE
  5
75E
330
4C5
100
AcDbEntity
  8
SUNPOU
 62
     4
100
AcDbLine
 10
102.015182195012
 20
115.4127409108994
 30
0.0
 11
74.20007217210605
 21
115.4127409108994
 31
0.0
  0
LINE
  5
75F
330
4C5
100
AcDbEntity
  8
SUNPOU
 62
     4
100
AcDbLine
 10
75.70007217210603
 20
87.87464091089947
 30
0.0
 11
75.70007217210605
 21
112.4127409108994
 31
0.0
  0
INSERT
  5
760
330
4C5
100
AcDbEntity
  8
SUNPOU
 62
     4
100
AcDbBlockReference
  2
_OPEN
 10
75.70007217210603
 20
84.87464091089947
 30
0.0
 41
3.0
 42
3.0
 43
3.0
 50
270.0
  0
INSERT
  5
761
330
4C5
100
AcDbEntity
  8
SUNPOU
 62
     4
100
AcDbBlockReference
  2
_OPEN
 10
75.70007217210605
 20
115.4127409108994
 30
0.0
 41
3.0
 42
3.0
 43
3.0
 50
90.0
  0
MTEXT
  5
762
330
4C5
100
AcDbEntity
  8
SUNPOU
 62
     4
100
AcDbMText
 10
73.20007217210601
 20
100.1436909108994
 30
0.0
 40
3.0
 41
0.0
 71
     5
 72
     5
  1
\A1;31
 11
0.0000000000000001
 21
1.0
 31
0.0
1001
ACAD
1000
MTEXTBEGIN
1070
    73
1070
     1
1070
    44
1040
1.0
1070
    74
1070
     0
1000
MTEXTEND
1000
MTEXTBEGIN
1070
    73
1070
     1
1070
    44
1040
1.0
1070
    74
1070
     0
1000
MTEXTEND
  0
POINT
  5
763
330
4C5
100
AcDbEntity
  8
DEFPOINTS
 62
     0
100
AcDbPoint
 10
247.034082195012
 20
84.87464091089941
 30
0.0
  0
POINT
  5
764
330
4C5
100
AcDbEntity
  8
DEFPOINTS
 62
     0
100
AcDbPoint
 10
105.015182195012
 20
115.4127409108994
 30
0.0
  0
POINT
  5
765
330
4C5
100
AcDbEntity
  8
DEFPOINTS
 62
     0
100
AcDbPoint
 10
75.70007217210605
 20
115.4127409108994
 30
0.0
  0
ENDBLK
  5
4D0
330
4C5
100
AcDbEntity
  8
0
100
AcDbBlockEnd
  0
BLOCK
  5
4DE
330
4D2
100
AcDbEntity
  8
0
100
AcDbBlockBegin
  2
*D6
 70
     1
 10
0.0
 20
0.0
 30
0.0
  3
*D6
  1

  0
LINE
  5
766
330
4D2
100
AcDbEntity
  8
SUNPOU
 62
     4
100
AcDbLine
 10
102.015182195012
 20
115.4127409108994
 30
0.0
 11
82.81445154731001
 21
115.4127409108994
 31
0.0
  0
LINE
  5
767
330
4D2
100
AcDbEntity
  8
SUNPOU
 62
     4
100
AcDbLine
 10
103.415082195012
 20
110.4127409108994
 30
0.0
 11
82.81445154731001
 21
110.4127409108994
 31
0.0
  0
LINE
  5
768
330
4D2
100
AcDbEntity
  8
SUNPOU
 62
     4
100
AcDbLine
 10
84.31445154730999
 20
118.4127409108994
 30
0.0
 11
84.31445154730999
 21
121.4127409108994
 31
0.0
  0
LINE
  5
769
330
4D2
100
AcDbEntity
  8
SUNPOU
 62
     4
100
AcDbLine
 10
84.31445154730999
 20
107.4127409108994
 30
0.0
 11
84.31445154730999
 21
104.4127409108994
 31
0.0
  0
LINE
  5
76A
330
4D2
100
AcDbEntity
  8
SUNPOU
 62
     4
100
AcDbLine
 10
84.31445154730999
 20
115.4127409108994
 30
0.0
 11
84.31445154730999
 21
110.4127409108994
 31
0.0
  0
INSERT
  5
76B
330
4D2
100
AcDbEntity
  8
SUNPOU
 62
     4
100
AcDbBlockReference
  2
_OPEN
 10
84.31445154730999
 20
115.4127409108994
 30
0.0
 41
3.0
 42
3.0
 43
3.0
 50
270.0
  0
INSERT
  5
76C
330
4D2
100
AcDbEntity
  8
SUNPOU
 62
     4
100
AcDbBlockReference
  2
_OPEN
 10
84.31445154730999
 20
110.4127409108994
 30
0.0
 41
3.0
 42
3.0
 43
3.0
 50
90.0
  0
MTEXT
  5
76D
330
4D2
100
AcDbEntity
  8
SUNPOU
 62
     4
100
AcDbMText
 10
81.81445154730997
 20
112.9127409108994
 30
0.0
 40
3.0
 41
0.0
 71
     5
 72
     5
  1
\A1;5
 11
0.0000000000000001
 21
1.0
 31
0.0
1001
ACAD
1000
MTEXTBEGIN
1070
    73
1070
     1
1070
    44
1040
1.0
1070
    74
1070
     0
1000
MTEXTEND
1000
MTEXTBEGIN
1070
    73
1070
     1
1070
    44
1040
1.0
1070
    74
1070
     0
1000
MTEXTEND
  0
POINT
  5
76E
330
4D2
100
AcDbEntity
  8
DEFPOINTS
 62
     0
100
AcDbPoint
 10
105.015182195012
 20
115.4127409108994
 30
0.0
  0
POINT
  5
76F
330
4D2
100
AcDbEntity
  8
DEFPOINTS
 62
     0
100
AcDbPoint
 10
106.415082195012
 20
110.4127409108994
 30
0.0
  0
POINT
  5
770
330
4D2
100
AcDbEntity
  8
DEFPOINTS
 62
     0
100
AcDbPoint
 10
84.31445154730999
 20
110.4127409108994
 30
0.0
  0
ENDBLK
  5
4DF
330
4D2
100
AcDbEntity
  8
0
100
AcDbBlockEnd
  0
BLOCK
  5
4EB
330
4E1
100
AcDbEntity
  8
0
100
AcDbBlockBegin
  2
*D7
 70
     1
 10
0.0
 20
0.0
 30
0.0
  3
*D7
  1

  0
LINE
  5
771
330
4E1
100
AcDbEntity
  8
SUNPOU
 62
     4
100
AcDbLine
 10
198.0151410185414
 20
126.9127409108994
 30
0.0
 11
177.5726090146522
 21
126.9127409108994
 31
0.0
  0
LINE
  5
772
330
4E1
100
AcDbEntity
  8
SUNPOU
 62
     4
100
AcDbLine
 10
172.468082195012
 20
106.9127409108994
 30
0.0
 11
180.5726090146522
 21
106.9127409108994
 31
0.0
  0
LINE
  5
773
330
4E1
100
AcDbEntity
  8
SUNPOU
 62
     4
100
AcDbLine
 10
179.0726090146522
 20
123.9127409108994
 30
0.0
 11
179.0726090146522
 21
109.9127409108994
 31
0.0
  0
INSERT
  5
774
330
4E1
100
AcDbEntity
  8
SUNPOU
 62
     4
100
AcDbBlockReference
  2
_OPEN
 10
179.0726090146522
 20
126.9127409108994
 30
0.0
 41
3.0
 42
3.0
 43
3.0
 50
90.0
  0
INSERT
  5
775
330
4E1
100
AcDbEntity
  8
SUNPOU
 62
     4
100
AcDbBlockReference
  2
_OPEN
 10
179.0726090146522
 20
106.9127409108994
 30
0.0
 41
3.0
 42
3.0
 43
3.0
 50
270.0
  0
MTEXT
  5
776
330
4E1
100
AcDbEntity
  8
SUNPOU
 62
     4
100
AcDbMText
 10
176.5726090146522
 20
116.9127409108994
 30
0.0
 40
3.0
 41
0.0
 71
     5
 72
     5
  1
\A1;20
 11
0.0000000000000001
 21
1.0
 31
0.0
1001
ACAD
1000
MTEXTBEGIN
1070
    73
1070
     1
1070
    44
1040
1.0
1070
    74
1070
     0
1000
MTEXTEND
1000
MTEXTBEGIN
1070
    73
1070
     1
1070
    44
1040
1.0
1070
    74
1070
     0
1000
MTEXTEND
  0
POINT
  5
777
330
4E1
100
AcDbEntity
  8
DEFPOINTS
 62
     0
100
AcDbPoint
 10
201.0151410185414
 20
126.9127409108994
 30
0.0
  0
POINT
  5
778
330
4E1
100
AcDbEntity
  8
DEFPOINTS
 62
     0
100
AcDbPoint
 10
169.468082195012
 20
106.9127409108994
 30
0.0
  0
POINT
  5
779
330
4E1
100
AcDbEntity
  8
DEFPOINTS
 62
     0
100
AcDbPoint
 10
179.0726090146522
 20
106.9127409108994
 30
0.0
  0
ENDBLK
  5
4EC
330
4E1
100
AcDbEntity
  8
0
100
AcDbBlockEnd
  0
BLOCK
  5
501
330
4F7
100
AcDbEntity
  8
0
100
AcDbBlockBegin
  2
*D8
 70
     1
 10
0.0
 20
0.0
 30
0.0
  3
*D8
  1

  0
LINE
  5
77A
330
4F7
100
AcDbEntity
  8
SUNPOU
 62
     4
100
AcDbLine
 10
226.0151363017683
 20
129.9127409108994
 30
0.0
 11
226.0151363017683
 21
142.8072156721461
 31
0.0
  0
LINE
  5
77B
330
4F7
100
AcDbEntity
  8
SUNPOU
 62
     4
100
AcDbLine
 10
216.4840821950121
 20
118.7111409108994
 30
0.0
 11
216.4840821950121
 21
142.8072156721461
 31
0.0
  0
LINE
  5
77C
330
4F7
100
AcDbEntity
  8
SUNPOU
 62
     4
100
AcDbLine
 10
223.0151363017683
 20
141.3072156721461
 30
0.0
 11
219.4840821950121
 21
141.3072156721461
 31
0.0
  0
INSERT
  5
77D
330
4F7
100
AcDbEntity
  8
SUNPOU
 62
     4
100
AcDbBlockReference
  2
_OPEN
 10
226.0151363017683
 20
141.3072156721461
 30
0.0
 41
3.0
 42
3.0
 43
3.0
  0
INSERT
  5
77E
330
4F7
100
AcDbEntity
  8
SUNPOU
 62
     4
100
AcDbBlockReference
  2
_OPEN
 10
216.4840821950121
 20
141.3072156721461
 30
0.0
 41
3.0
 42
3.0
 43
3.0
 50
180.0
  0
MTEXT
  5
77F
330
4F7
100
AcDbEntity
  8
SUNPOU
 62
     4
100
AcDbMText
 10
221.2496092483902
 20
143.8072156721461
 30
0.0
 40
3.0
 41
0.0
 71
     5
 72
     5
  1
\A1;10
1001
ACAD
1000
MTEXTBEGIN
1070
    73
1070
     1
1070
    44
1040
1.0
1070
    74
1070
     0
1000
MTEXTEND
1000
MTEXTBEGIN
1070
    73
1070
     1
1070
    44
1040
1.0
1070
    74
1070
     0
1000
MTEXTEND
  0
POINT
  5
780
330
4F7
100
AcDbEntity
  8
DEFPOINTS
 62
     0
100
AcDbPoint
 10
226.0151363017683
 20
126.9127409108994
 30
0.0
  0
POINT
  5
781
330
4F7
100
AcDbEntity
  8
DEFPOINTS
 62
     0
100
AcDbPoint
 10
216.4840821950121
 20
115.7111409108994
 30
0.0
  0
POINT
  5
782
330
4F7
100
AcDbEntity
  8
DEFPOINTS
 62
     0
100
AcDbPoint
 10
216.4840821950121
 20
141.3072156721461
 30
0.0
  0
ENDBLK
  5
502
330
4F7
100
AcDbEntity
  8
0
100
AcDbBlockEnd
  0
BLOCK
  5
50F
330
505
100
AcDbEntity
  8
0
100
AcDbBlockBegin
  2
*D9
 70
     1
 10
0.0
 20
0.0
 30
0.0
  3
*D9
  1

  0
LINE
  5
783
330
505
100
AcDbEntity
  8
SUNPOU
 62
     4
100
AcDbLine
 10
288.9029535548428
 20
158.3565942587384
 30
0.0
 11
275.2217725093007
 21
151.5160037359672
 31
0.0
  0
LINE
  5
784
330
505
100
AcDbEntity
  8
SUNPOU
 62
     4
100
AcDbLine
 10
296.0584006220122
 20
144.0457001243995
 30
0.0
 11
282.3772195764701
 21
137.2051096016284
 31
0.0
  0
LINE
  5
785
330
505
100
AcDbEntity
  8
SUNPOU
 62
     4
100
AcDbLine
 10
277.9050540823003
 20
149.5035425562174
 30
0.0
 11
282.3772195764701
 21
140.5592115678781
 31
0.0
  0
INSERT
  5
786
330
505
100
AcDbEntity
  8
SUNPOU
 62
     4
100
AcDbBlockReference
  2
_OPEN
 10
276.5634132958005
 20
152.1868241292172
 30
0.0
 41
3.0
 42
3.0
 43
3.0
 50
116.5650511770781
  0
INSERT
  5
787
330
505
100
AcDbEntity
  8
SUNPOU
 62
     4
100
AcDbBlockReference
  2
_OPEN
 10
283.71886036297
 20
137.8759299948783
 30
0.0
 41
3.0
 42
3.0
 43
3.0
 50
296.5650511770781
  0
MTEXT
  5
788
330
505
100
AcDbEntity
  8
SUNPOU
 62
     4
100
AcDbMText
 10
282.377204806885
 20
146.1494110507977
 30
0.0
 40
3.0
 41
0.0
 71
     5
 72
     5
  1
\A1;16
 11
0.4472135954999605
 21
-0.8944271909999146
 31
0.0
1001
ACAD
1000
MTEXTBEGIN
1070
    73
1070
     1
1070
    44
1040
1.0
1070
    74
1070
     0
1000
MTEXTEND
1000
MTEXTBEGIN
1070
    73
1070
     1
1070
    44
1040
1.0
1070
    74
1070
     0
1000
MTEXTEND
  0
POINT
  5
789
330
505
100
AcDbEntity
  8
DEFPOINTS
 62
     0
100
AcDbPoint
 10
291.5862351278425
 20
159.6982350452382
 30
0.0
  0
POINT
  5
78A
330
505
100
AcDbEntity
  8
DEFPOINTS
 62
     0
100
AcDbPoint
 10
298.741682195012
 20
145.3873409108994
 30
0.0
  0
POINT
  5
78B
330
505
100
AcDbEntity
  8
DEFPOINTS
 62
     0
100
AcDbPoint
 10
283.71886036297
 20
137.8759299948783
 30
0.0
  0
ENDBLK
  5
510
330
505
100
AcDbEntity
  8
0
100
AcDbBlockEnd
  0
BLOCK
  5
530
330
524
100
AcDbEntity
  8
0
100
AcDbBlockBegin
  2
*D10
 70
     1
 10
0.0
 20
0.0
 30
0.0
  3
*D10
  1

  0
LINE
  5
78C
330
524
100
AcDbEntity
  8
SUNPOU
 62
     4
100
AcDbLine
 10
325.8015006220118
 20
130.9664001244003
 30
0.0
 11
311.4741648899056
 21
123.8027322583528
 31
0.0
  0
LINE
  5
78D
330
524
100
AcDbEntity
  8
SUNPOU
 62
     4
100
AcDbLine
 10
328.4848008039141
 20
125.5997997605916
 30
0.0
 11
314.1574650718079
 21
118.4361318945441
 31
0.0
  0
LINE
  5
78E
330
524
100
AcDbEntity
  8
SUNPOU
 62
     4
100
AcDbLine
 10
311.4741648899066
 20
127.1568342246025
 30
0.0
 11
310.1325241034076
 21
129.8401157976026
 31
0.0
  0
LINE
  5
78F
330
524
100
AcDbEntity
  8
SUNPOU
 62
     4
100
AcDbLine
 10
316.840746644807
 20
116.4236707147934
 30
0.0
 11
318.182387431306
 21
113.7403891417933
 31
0.0
  0
LINE
  5
790
330
524
100
AcDbEntity
  8
SUNPOU
 62
     4
100
AcDbLine
 10
312.8158056764057
 20
124.4735526516023
 30
0.0
 11
315.499105858308
 21
119.1069522877936
 31
0.0
  0
INSERT
  5
791
330
524
100
AcDbEntity
  8
SUNPOU
 62
     4
100
AcDbBlockReference
  2
_OPEN
 10
312.8158056764057
 20
124.4735526516023
 30
0.0
 41
3.0
 42
3.0
 43
3.0
 50
296.5650511770601
  0
INSERT
  5
792
330
524
100
AcDbEntity
  8
SUNPOU
 62
     4
100
AcDbBlockReference
  2
_OPEN
 10
315.499105858308
 20
119.1069522877936
 30
0.0
 41
3.0
 42
3.0
 43
3.0
 50
116.5650511770601
  0
MTEXT
  5
793
330
524
100
AcDbEntity
  8
SUNPOU
 62
     4
100
AcDbMText
 10
316.3935237448569
 20
122.9082864584472
 30
0.0
 40
3.0
 41
0.0
 71
     5
 72
     5
  1
\A1;6
 11
0.4472135954996793
 21
-0.8944271910000553
 31
0.0
1001
ACAD
1000
MTEXTBEGIN
1070
    73
1070
     1
1070
    44
1040
1.0
1070
    74
1070
     0
1000
MTEXTEND
1000
MTEXTBEGIN
1070
    73
1070
     1
1070
    44
1040
1.0
1070
    74
1070
     0
1000
MTEXTEND
  0
POINT
  5
794
330
524
100
AcDbEntity
  8
DEFPOINTS
 62
     0
100
AcDbPoint
 10
328.484782195012
 20
132.3080409108994
 30
0.0
  0
POINT
  5
795
330
524
100
AcDbEntity
  8
DEFPOINTS
 62
     0
100
AcDbPoint
 10
331.1680823769143
 20
126.9414405470907
 30
0.0
  0
POINT
  5
796
330
524
100
AcDbEntity
  8
DEFPOINTS
 62
     0
100
AcDbPoint
 10
315.499105858308
 20
119.1069522877936
 30
0.0
  0
ENDBLK
  5
531
330
524
100
AcDbEntity
  8
0
100
AcDbBlockEnd
  0
BLOCK
  5
53D
330
533
100
AcDbEntity
  8
0
100
AcDbBlockBegin
  2
*D11
 70
     1
 10
0.0
 20
0.0
 30
0.0
  3
*D11
  1

  0
LINE
  5
797
330
533
100
AcDbEntity
  8
SUNPOU
 62
     4
100
AcDbLine
 10
307.4657980688306
 20
167.638005230775
 30
0.0
 11
267.5888467962665
 21
147.6996244533399
 31
0.0
  0
LINE
  5
798
330
533
100
AcDbEntity
  8
SUNPOU
 62
     4
100
AcDbLine
 10
328.4847982507328
 20
125.5998048669663
 30
0.0
 11
288.6078469781687
 21
105.6614240895311
 31
0.0
  0
LINE
  5
799
330
533
100
AcDbEntity
  8
SUNPOU
 62
     4
100
AcDbLine
 10
270.2721245394815
 20
145.6871581672206
 30
0.0
 11
288.6078533611351
 21
109.0155260557747
 31
0.0
  0
INSERT
  5
79A
330
533
100
AcDbEntity
  8
SUNPOU
 62
     4
100
AcDbBlockReference
  2
_OPEN
 10
268.9304888593572
 20
148.370442293402
 30
0.0
 41
3.0
 42
3.0
 43
3.0
 50
116.5649421413252
  0
INSERT
  5
79B
330
533
100
AcDbEntity
  8
SUNPOU
 62
     4
100
AcDbBlockReference
  2
_OPEN
 10
289.9494890412595
 20
106.3322419295933
 30
0.0
 41
3.0
 42
3.0
 43
3.0
 50
296.5649421413252
  0
MTEXT
  5
79C
330
533
100
AcDbEntity
  8
SUNPOU
 62
     4
100
AcDbMText
 10
281.6760590554595
 20
128.4693718449346
 30
0.0
 40
3.0
 41
0.0
 71
     5
 72
     5
  1
\A1;47
 11
0.4472118933747881
 21
-0.8944280420604762
 31
0.0
1001
ACAD
1000
MTEXTBEGIN
1070
    73
1070
     1
1070
    44
1040
1.0
1070
    74
1070
     0
1000
MTEXTEND
1000
MTEXTBEGIN
1070
    73
1070
     1
1070
    44
1040
1.0
1070
    74
1070
     0
1000
MTEXTEND
  0
POINT
  5
79D
330
533
100
AcDbEntity
  8
DEFPOINTS
 62
     0
100
AcDbPoint
 10
310.149082195012
 20
168.9796409108994
 30
0.0
  0
POINT
  5
79E
330
533
100
AcDbEntity
  8
DEFPOINTS
 62
     0
100
AcDbPoint
 10
331.1680823769143
 20
126.9414405470907
 30
0.0
  0
POINT
  5
79F
330
533
100
AcDbEntity
  8
DEFPOINTS
 62
     0
100
AcDbPoint
 10
289.9494890412595
 20
106.3322419295933
 30
0.0
  0
ENDBLK
  5
53E
330
533
100
AcDbEntity
  8
0
100
AcDbBlockEnd
  0
BLOCK
  5
54A
330
540
100
AcDbEntity
  8
0
100
AcDbBlockBegin
  2
*D12
 70
     1
 10
0.0
 20
0.0
 30
0.0
  3
*D12
  1

  0
LINE
  5
7A0
330
540
100
AcDbEntity
  8
SUNPOU
 62
     4
100
AcDbLine
 10
295.3909952970222
 20
164.9546994281357
 30
0.0
 11
290.7266636566475
 21
174.2834399669432
 31
0.0
  0
LINE
  5
7A1
330
540
100
AcDbEntity
  8
SUNPOU
 62
     4
100
AcDbLine
 10
322.2239497420525
 20
178.3710655390843
 30
0.0
 11
317.5596181016779
 21
187.6998060778918
 31
0.0
  0
LINE
  5
7A2
330
540
100
AcDbEntity
  8
SUNPOU
 62
     4
100
AcDbLine
 10
294.0807656228788
 20
174.2834288558256
 30
0.0
 11
315.547148033045
 21
185.0165311715773
 31
0.0
  0
INSERT
  5
7A3
330
540
100
AcDbEntity
  8
SUNPOU
 62
     4
100
AcDbBlockReference
  2
_OPEN
 10
291.3974796054467
 20
172.9417969582272
 30
0.0
 41
3.0
 42
3.0
 43
3.0
 50
206.5648613736217
  0
INSERT
  5
7A4
330
540
100
AcDbEntity
  8
SUNPOU
 62
     4
100
AcDbBlockReference
  2
_OPEN
 10
318.2304340504771
 20
186.3581630691757
 30
0.0
 41
3.0
 42
3.0
 43
3.0
 50
26.56486137362175
  0
MTEXT
  5
7A5
330
540
100
AcDbEntity
  8
SUNPOU
 62
     4
100
AcDbMText
 10
303.6959302466299
 20
181.8860516948949
 30
0.0
 40
3.0
 41
0.0
 71
     5
 72
     5
  1
\A1;30
 11
0.8944286724773585
 21
0.4472106325328033
 31
0.0
1001
ACAD
1000
MTEXTBEGIN
1070
    73
1070
     1
1070
    44
1040
1.0
1070
    74
1070
     0
1000
MTEXTEND
1000
MTEXTBEGIN
1070
    73
1070
     1
1070
    44
1040
1.0
1070
    74
1070
     0
1000
MTEXTEND
  0
POINT
  5
7A6
330
540
100
AcDbEntity
  8
DEFPOINTS
 62
     0
100
AcDbPoint
 10
296.7326271946206
 20
162.2714134107036
 30
0.0
  0
POINT
  5
7A7
330
540
100
AcDbEntity
  8
DEFPOINTS
 62
     0
100
AcDbPoint
 10
323.565581639651
 20
175.6877795216522
 30
0.0
  0
POINT
  5
7A8
330
540
100
AcDbEntity
  8
DEFPOINTS
 62
     0
100
AcDbPoint
 10
318.2304340504771
 20
186.3581630691757
 30
0.0
  0
ENDBLK
  5
54B
330
540
100
AcDbEntity
  8
0
100
AcDbBlockEnd
  0
BLOCK
  5
557
330
54D
100
AcDbEntity
  8
0
100
AcDbBlockBegin
  2
*D13
 70
     1
 10
0.0
 20
0.0
 30
0.0
  3
*D13
  1

  0
LINE
  5
7A9
330
54D
100
AcDbEntity
  8
SUNPOU
 62
     4
100
AcDbLine
 10
299.5534486812289
 20
153.2757261202452
 30
0.0
 11
285.9531496733098
 21
180.4765084469522
 31
0.0
  0
LINE
  5
7AA
330
54D
100
AcDbEntity
  8
SUNPOU
 62
     4
100
AcDbLine
 10
329.069648681229
 20
168.0337261202452
 30
0.0
 11
315.4693496733099
 21
195.2345084469522
 31
0.0
  0
LINE
  5
7AB
330
54D
100
AcDbEntity
  8
SUNPOU
 62
     4
100
AcDbLine
 10
289.3072516395471
 20
180.4764993560624
 30
0.0
 11
313.4568812208556
 21
192.5512323284962
 31
0.0
  0
INSERT
  5
7AC
330
54D
100
AcDbEntity
  8
SUNPOU
 62
     4
100
AcDbBlockReference
  2
_OPEN
 10
286.6239664302014
 20
179.1348658422793
 30
0.0
 41
3.0
 42
3.0
 43
3.0
 50
206.5648958837619
  0
INSERT
  5
7AD
330
54D
100
AcDbEntity
  8
SUNPOU
 62
     4
100
AcDbBlockReference
  2
_OPEN
 10
316.1401664302014
 20
193.8928658422793
 30
0.0
 41
3.0
 42
3.0
 43
3.0
 50
26.56489588376197
  0
MTEXT
  5
7AE
330
54D
100
AcDbEntity
  8
SUNPOU
 62
     4
100
AcDbMText
 10
300.2640385020488
 20
188.7499368500675
 30
0.0
 40
3.0
 41
0.0
 71
     5
 72
     5
  1
\A1;33
 11
0.8944284031152683
 21
0.4472111712610398
 31
0.0
1001
ACAD
1000
MTEXTBEGIN
1070
    73
1070
     1
1070
    44
1040
1.0
1070
    74
1070
     0
1000
MTEXTEND
1000
MTEXTBEGIN
1070
    73
1070
     1
1070
    44
1040
1.0
1070
    74
1070
     0
1000
MTEXTEND
  0
POINT
  5
7AF
330
54D
100
AcDbEntity
  8
DEFPOINTS
 62
     0
100
AcDbPoint
 10
300.895082195012
 20
150.5924409108994
 30
0.0
  0
POINT
  5
7B0
330
54D
100
AcDbEntity
  8
DEFPOINTS
 62
     0
100
AcDbPoint
 10
330.4112821950121
 20
165.3504409108994
 30
0.0
  0
POINT
  5
7B1
330
54D
100
AcDbEntity
  8
DEFPOINTS
 62
     0
100
AcDbPoint
 10
316.1401664302014
 20
193.8928658422793
 30
0.0
  0
ENDBLK
  5
558
330
54D
100
AcDbEntity
  8
0
100
AcDbBlockEnd
  0
BLOCK
  5
564
330
55A
100
AcDbEntity
  8
0
100
AcDbBlockBegin
  2
*D14
 70
     1
 10
0.0
 20
0.0
 30
0.0
  3
*D14
  1

  0
LINE
  5
7B2
330
55A
100
AcDbEntity
  8
SUNPOU
 62
     4
100
AcDbLine
 10
293.1549440751757
 20
152.6563238172293
 30
0.0
 11
277.3581801911585
 21
184.2499300800606
 31
0.0
  0
LINE
  5
7B3
330
55A
100
AcDbEntity
  8
SUNPOU
 62
     4
100
AcDbLine
 10
333.4042440751756
 20
172.7809238172293
 30
0.0
 11
317.6074801911584
 21
204.3745300800606
 31
0.0
  0
LINE
  5
7B4
330
55A
100
AcDbEntity
  8
SUNPOU
 62
     4
100
AcDbLine
 10
280.7122821574064
 20
184.2499267467319
 30
0.0
 11
315.5950163447466
 21
201.6912505070593
 31
0.0
  0
INSERT
  5
7B5
330
55A
100
AcDbEntity
  8
SUNPOU
 62
     4
100
AcDbBlockReference
  2
_OPEN
 10
278.0289992510766
 20
182.9082886268956
 30
0.0
 41
3.0
 42
3.0
 43
3.0
 50
206.5649942361543
  0
INSERT
  5
7B6
330
55A
100
AcDbEntity
  8
SUNPOU
 62
     4
100
AcDbBlockReference
  2
_OPEN
 10
318.2782992510765
 20
203.0328886268956
 30
0.0
 41
3.0
 42
3.0
 43
3.0
 50
26.56499423615433
  0
MTEXT
  5
7B7
330
55A
100
AcDbEntity
  8
SUNPOU
 62
     4
100
AcDbMText
 10
297.0356174845463
 20
195.2066577155039
 30
0.0
 40
3.0
 41
0.0
 71
     5
 72
     5
  1
\A1;45
 11
0.8944276354432957
 21
0.4472127066120943
 31
0.0
1001
ACAD
1000
MTEXTBEGIN
1070
    73
1070
     1
1070
    44
1040
1.0
1070
    74
1070
     0
1000
MTEXTEND
1000
MTEXTBEGIN
1070
    73
1070
     1
1070
    44
1040
1.0
1070
    74
1070
     0
1000
MTEXTEND
  0
POINT
  5
7B8
330
55A
100
AcDbEntity
  8
DEFPOINTS
 62
     0
100
AcDbPoint
 10
294.496582195012
 20
149.9730409108994
 30
0.0
  0
POINT
  5
7B9
330
55A
100
AcDbEntity
  8
DEFPOINTS
 62
     0
100
AcDbPoint
 10
334.7458821950119
 20
170.0976409108994
 30
0.0
  0
POINT
  5
7BA
330
55A
100
AcDbEntity
  8
DEFPOINTS
 62
     0
100
AcDbPoint
 10
318.2782992510765
 20
203.0328886268956
 30
0.0
  0
ENDBLK
  5
565
330
55A
100
AcDbEntity
  8
0
100
AcDbBlockEnd
  0
BLOCK
  5
576
330
56C
100
AcDbEntity
  8
0
100
AcDbBlockBegin
  2
*D15
 70
     1
 10
0.0
 20
0.0
 30
0.0
  3
*D15
  1

  0
LINE
  5
7BB
330
56C
100
AcDbEntity
  8
SUNPOU
 62
     4
100
AcDbLine
 10
106.415182195012
 20
237.0814409108993
 30
0.0
 11
82.81445154731002
 21
237.0814409108993
 31
0.0
  0
LINE
  5
7BC
330
56C
100
AcDbEntity
  8
SUNPOU
 62
     4
100
AcDbLine
 10
106.415182195012
 20
224.0814409108994
 30
0.0
 11
82.81445154731002
 21
224.0814409108994
 31
0.0
  0
LINE
  5
7BD
330
56C
100
AcDbEntity
  8
SUNPOU
 62
     4
100
AcDbLine
 10
84.31445154731003
 20
234.0814409108994
 30
0.0
 11
84.31445154731003
 21
227.0814409108993
 31
0.0
  0
INSERT
  5
7BE
330
56C
100
AcDbEntity
  8
SUNPOU
 62
     4
100
AcDbBlockReference
  2
_OPEN
 10
84.31445154731003
 20
237.0814409108993
 30
0.0
 41
3.0
 42
3.0
 43
3.0
 50
90.0
  0
INSERT
  5
7BF
330
56C
100
AcDbEntity
  8
SUNPOU
 62
     4
100
AcDbBlockReference
  2
_OPEN
 10
84.31445154731003
 20
224.0814409108994
 30
0.0
 41
3.0
 42
3.0
 43
3.0
 50
270.0
  0
MTEXT
  5
7C0
330
56C
100
AcDbEntity
  8
SUNPOU
 62
     4
100
AcDbMText
 10
81.81445154730999
 20
230.5814409108994
 30
0.0
 40
3.0
 41
0.0
 71
     5
 72
     5
  1
\A1;13
 11
0.0000000000000001
 21
1.0
 31
0.0
1001
ACAD
1000
MTEXTBEGIN
1070
    73
1070
     1
1070
    44
1040
1.0
1070
    74
1070
     0
1000
MTEXTEND
1000
MTEXTBEGIN
1070
    73
1070
     1
1070
    44
1040
1.0
1070
    74
1070
     0
1000
MTEXTEND
  0
POINT
  5
7C1
330
56C
100
AcDbEntity
  8
DEFPOINTS
 62
     0
100
AcDbPoint
 10
109.415182195012
 20
237.0814409108993
 30
0.0
  0
POINT
  5
7C2
330
56C
100
AcDbEntity
  8
DEFPOINTS
 62
     0
100
AcDbPoint
 10
109.415182195012
 20
224.0814409108994
 30
0.0
  0
POINT
  5
7C3
330
56C
100
AcDbEntity
  8
DEFPOINTS
 62
     0
100
AcDbPoint
 10
84.31445154731003
 20
224.0814409108994
 30
0.0
  0
ENDBLK
  5
577
330
56C
100
AcDbEntity
  8
0
100
AcDbBlockEnd
  0
BLOCK
  5
583
330
579
100
AcDbEntity
  8
0
100
AcDbBlockBegin
  2
*D16
 70
     1
 10
0.0
 20
0.0
 30
0.0
  3
*D16
  1

  0
LINE
  5
7C4
330
579
100
AcDbEntity
  8
SUNPOU
 62
     4
100
AcDbLine
 10
102.015182195012
 20
240.5814409108994
 30
0.0
 11
74.20007217210609
 21
240.5814409108994
 31
0.0
  0
LINE
  5
7C5
330
579
100
AcDbEntity
  8
SUNPOU
 62
     4
100
AcDbLine
 10
102.015182195012
 20
220.5814409108993
 30
0.0
 11
74.20007217210607
 21
220.5814409108993
 31
0.0
  0
LINE
  5
7C6
330
579
100
AcDbEntity
  8
SUNPOU
 62
     4
100
AcDbLine
 10
75.70007217210608
 20
237.5814409108993
 30
0.0
 11
75.70007217210608
 21
223.5814409108994
 31
0.0
  0
INSERT
  5
7C7
330
579
100
AcDbEntity
  8
SUNPOU
 62
     4
100
AcDbBlockReference
  2
_OPEN
 10
75.70007217210608
 20
240.5814409108994
 30
0.0
 41
3.0
 42
3.0
 43
3.0
 50
90.0
  0
INSERT
  5
7C8
330
579
100
AcDbEntity
  8
SUNPOU
 62
     4
100
AcDbBlockReference
  2
_OPEN
 10
75.70007217210608
 20
220.5814409108993
 30
0.0
 41
3.0
 42
3.0
 43
3.0
 50
270.0
  0
MTEXT
  5
7C9
330
579
100
AcDbEntity
  8
SUNPOU
 62
     4
100
AcDbMText
 10
73.20007217210605
 20
230.5814409108994
 30
0.0
 40
3.0
 41
0.0
 71
     5
 72
     5
  1
\A1;20
 11
0.0000000000000001
 21
1.0
 31
0.0
1001
ACAD
1000
MTEXTBEGIN
1070
    73
1070
     1
1070
    44
1040
1.0
1070
    74
1070
     0
1000
MTEXTEND
1000
MTEXTBEGIN
1070
    73
1070
     1
1070
    44
1040
1.0
1070
    74
1070
     0
1000
MTEXTEND
  0
POINT
  5
7CA
330
579
100
AcDbEntity
  8
DEFPOINTS
 62
     0
100
AcDbPoint
 10
105.015182195012
 20
240.5814409108994
 30
0.0
  0
POINT
  5
7CB
330
579
100
AcDbEntity
  8
DEFPOINTS
 62
     0
100
AcDbPoint
 10
105.015182195012
 20
220.5814409108993
 30
0.0
  0
POINT
  5
7CC
330
579
100
AcDbEntity
  8
DEFPOINTS
 62
     0
100
AcDbPoint
 10
75.70007217210608
 20
220.5814409108993
 30
0.0
  0
ENDBLK
  5
584
330
579
100
AcDbEntity
  8
0
100
AcDbBlockEnd
  0
BLOCK
  5
590
330
586
100
AcDbEntity
  8
0
100
AcDbBlockBegin
  2
*D17
 70
     1
 10
0.0
 20
0.0
 30
0.0
  3
*D17
  1

  0
LINE
  5
7CD
330
586
100
AcDbEntity
  8
SUNPOU
 62
     4
100
AcDbLine
 10
238.768282195012
 20
247.0814409108994
 30
0.0
 11
266.1850809371328
 21
247.0814409108994
 31
0.0
  0
LINE
  5
7CE
330
586
100
AcDbEntity
  8
SUNPOU
 62
     4
100
AcDbLine
 10
238.768282195012
 20
214.0814409108994
 30
0.0
 11
266.1850809371328
 21
214.0814409108994
 31
0.0
  0
LINE
  5
7CF
330
586
100
AcDbEntity
  8
SUNPOU
 62
     4
100
AcDbLine
 10
264.6850809371328
 20
244.0814409108994
 30
0.0
 11
264.6850809371328
 21
217.0814409108994
 31
0.0
  0
INSERT
  5
7D0
330
586
100
AcDbEntity
  8
SUNPOU
 62
     4
100
AcDbBlockReference
  2
_OPEN
 10
264.6850809371328
 20
247.0814409108994
 30
0.0
 41
3.0
 42
3.0
 43
3.0
 50
90.0
  0
INSERT
  5
7D1
330
586
100
AcDbEntity
  8
SUNPOU
 62
     4
100
AcDbBlockReference
  2
_OPEN
 10
264.6850809371328
 20
214.0814409108994
 30
0.0
 41
3.0
 42
3.0
 43
3.0
 50
270.0
  0
MTEXT
  5
7D2
330
586
100
AcDbEntity
  8
SUNPOU
 62
     4
100
AcDbMText
 10
262.1850809371327
 20
230.5814409108994
 30
0.0
 40
3.0
 41
0.0
 71
     5
 72
     5
  1
\A1;33
 11
0.0000000000000001
 21
1.0
 31
0.0
1001
ACAD
1000
MTEXTBEGIN
1070
    73
1070
     1
1070
    44
1040
1.0
1070
    74
1070
     0
1000
MTEXTEND
1000
MTEXTBEGIN
1070
    73
1070
     1
1070
    44
1040
1.0
1070
    74
1070
     0
1000
MTEXTEND
  0
POINT
  5
7D3
330
586
100
AcDbEntity
  8
DEFPOINTS
 62
     0
100
AcDbPoint
 10
235.768282195012
 20
247.0814409108994
 30
0.0
  0
POINT
  5
7D4
330
586
100
AcDbEntity
  8
DEFPOINTS
 62
     0
100
AcDbPoint
 10
235.768282195012
 20
214.0814409108994
 30
0.0
  0
POINT
  5
7D5
330
586
100
AcDbEntity
  8
DEFPOINTS
 62
     0
100
AcDbPoint
 10
264.6850809371328
 20
214.0814409108994
 30
0.0
  0
ENDBLK
  5
591
330
586
100
AcDbEntity
  8
0
100
AcDbBlockEnd
  0
BLOCK
  5
59D
330
593
100
AcDbEntity
  8
0
100
AcDbBlockBegin
  2
*D18
 70
     1
 10
0.0
 20
0.0
 30
0.0
  3
*D18
  1

  0
LINE
  5
7D6
330
593
100
AcDbEntity
  8
SUNPOU
 62
     4
100
AcDbLine
 10
237.959382195012
 20
253.0814409108994
 30
0.0
 11
276.1679064260481
 21
253.0814409108994
 31
0.0
  0
LINE
  5
7D7
330
593
100
AcDbEntity
  8
SUNPOU
 62
     4
100
AcDbLine
 10
237.959382195012
 20
208.0814409108993
 30
0.0
 11
276.1679064260481
 21
208.0814409108993
 31
0.0
  0
LINE
  5
7D8
330
593
100
AcDbEntity
  8
SUNPOU
 62
     4
100
AcDbLine
 10
274.6679064260481
 20
250.0814409108993
 30
0.0
 11
274.6679064260481
 21
211.0814409108994
 31
0.0
  0
INSERT
  5
7D9
330
593
100
AcDbEntity
  8
SUNPOU
 62
     4
100
AcDbBlockReference
  2
_OPEN
 10
274.6679064260481
 20
253.0814409108994
 30
0.0
 41
3.0
 42
3.0
 43
3.0
 50
90.0
  0
INSERT
  5
7DA
330
593
100
AcDbEntity
  8
SUNPOU
 62
     4
100
AcDbBlockReference
  2
_OPEN
 10
274.6679064260481
 20
208.0814409108993
 30
0.0
 41
3.0
 42
3.0
 43
3.0
 50
270.0
  0
MTEXT
  5
7DB
330
593
100
AcDbEntity
  8
SUNPOU
 62
     4
100
AcDbMText
 10
272.167906426048
 20
230.5814409108994
 30
0.0
 40
3.0
 41
0.0
 71
     5
 72
     5
  1
\A1;45
 11
0.0000000000000001
 21
1.0
 31
0.0
1001
ACAD
1000
MTEXTBEGIN
1070
    73
1070
     1
1070
    44
1040
1.0
1070
    74
1070
     0
1000
MTEXTEND
1000
MTEXTBEGIN
1070
    73
1070
     1
1070
    44
1040
1.0
1070
    74
1070
     0
1000
MTEXTEND
  0
POINT
  5
7DC
330
593
100
AcDbEntity
  8
DEFPOINTS
 62
     0
100
AcDbPoint
 10
234.959382195012
 20
253.0814409108994
 30
0.0
  0
POINT
  5
7DD
330
593
100
AcDbEntity
  8
DEFPOINTS
 62
     0
100
AcDbPoint
 10
234.959382195012
 20
208.0814409108993
 30
0.0
  0
POINT
  5
7DE
330
593
100
AcDbEntity
  8
DEFPOINTS
 62
     0
100
AcDbPoint
 10
274.6679064260481
 20
208.0814409108993
 30
0.0
  0
ENDBLK
  5
59E
330
593
100
AcDbEntity
  8
0
100
AcDbBlockEnd
  0
ENDSEC
  0
SECTION
  2
ENTITIES
  0
ARC
  5
295
330
1A
100
AcDbEntity
  8
SEIHIN
  6
CONTINUOUS
 62
     3
100
AcDbCircle
 10
109.415182195012
 20
240.5814409108994
 30
0.0
 40
3.5
100
AcDbArc
 50
180.0
 51
270.0
  0
ARC
  5
296
330
1A
100
AcDbEntity
  8
SEIHIN
  6
CONTINUOUS
 62
     3
100
AcDbCircle
 10
109.415182195012
 20
220.5814409108993
 30
0.0
 40
3.5
100
AcDbArc
 50
90.0
 51
180.0
  0
LINE
  5
297
330
1A
100
AcDbEntity
  8
CENTER_L
  6
CENTER
 62
     1
 48
5.0
100
AcDbLine
 10
252.253282195012
 20
230.5814409108994
 30
0.0
 11
98.37298219501205
 21
230.5814409108994
 31
0.0
  0
LINE
  5
298
330
1A
100
AcDbEntity
  8
SEIHIN
  6
CONTINUOUS
 62
     3
100
AcDbLine
 10
106.415182195012
 20
109.5127409108994
 30
0.0
 11
114.089282195012
 21
109.5127409108994
 31
0.0
  0
LINE
  5
299
330
1A
100
AcDbEntity
  8
SEIHIN
  6
CONTINUOUS
 62
     3
100
AcDbLine
 10
106.415082195012
 20
110.4127409108994
 30
0.0
 11
125.015082195012
 21
110.4127409108994
 31
0.0
  0
LINE
  5
2A2
330
1A
100
AcDbEntity
  8
SEIHIN
  6
CONTINUOUS
 62
     3
100
AcDbLine
 10
105.915082195012
 20
110.9127409108994
 30
0.0
 11
105.915082195012
 21
115.4127409108994
 31
0.0
  0
LINE
  5
2A3
330
1A
100
AcDbEntity
  8
SEIHIN
  6
CONTINUOUS
 62
     3
100
AcDbLine
 10
105.015182195012
 20
115.4127409108994
 30
0.0
 11
105.015182195012
 21
110.9127409108994
 31
0.0
  0
ARC
  5
2A4
330
1A
100
AcDbEntity
  8
SEIHIN
  6
CONTINUOUS
 62
     3
100
AcDbCircle
 10
106.415182195012
 20
110.9127409108994
 30
0.0
 40
1.399999999999991
100
AcDbArc
 50
180.0
 51
270.0
  0
ARC
  5
2A5
330
1A
100
AcDbEntity
  8
SEIHIN
  6
CONTINUOUS
 62
     3
100
AcDbCircle
 10
106.415082195012
 20
110.9127409108994
 30
0.0
 40
0.5
100
AcDbArc
 50
180.0
 51
270.0
  0
LINE
  5
2A6
330
1A
100
AcDbEntity
  8
SEIHIN
  6
CONTINUOUS
 62
     3
100
AcDbLine
 10
105.015182195012
 20
115.4127409108994
 30
0.0
 11
105.915082195012
 21
115.4127409108994
 31
0.0
  0
LINE
  5
2B6
330
1A
100
AcDbEntity
  8
SEIHIN
  6
CONTINUOUS
 62
     3
100
AcDbLine
 10
105.915182195012
 20
220.5814409108993
 30
0.0
 11
105.915182195012
 21
230.5814409108994
 31
0.0
  0
LINE
  5
2B7
330
1A
100
AcDbEntity
  8
SEIHIN
  6
CONTINUOUS
 62
     3
100
AcDbLine
 10
105.015182195012
 20
220.5814409108993
 30
0.0
 11
105.015182195012
 21
230.5814409108994
 31
0.0
  0
LINE
  5
2B8
330
1A
100
AcDbEntity
  8
SEIHIN
  6
CONTINUOUS
 62
     3
100
AcDbLine
 10
105.015182195012
 20
220.5814409108993
 30
0.0
 11
105.915182195012
 21
220.5814409108993
 31
0.0
  0
LINE
  5
2BA
330
1A
100
AcDbEntity
  8
SEIHIN
  6
CONTINUOUS
 62
     3
100
AcDbLine
 10
105.015182195012
 20
240.5814409108994
 30
0.0
 11
105.015182195012
 21
230.5814409108994
 31
0.0
  0
LINE
  5
2BB
330
1A
100
AcDbEntity
  8
SEIHIN
  6
CONTINUOUS
 62
     3
100
AcDbLine
 10
105.915182195012
 20
240.5814409108994
 30
0.0
 11
105.915182195012
 21
230.5814409108994
 31
0.0
  0
LINE
  5
2BC
330
1A
100
AcDbEntity
  8
SEIHIN
  6
CONTINUOUS
 62
     3
100
AcDbLine
 10
105.015182195012
 20
240.5814409108994
 30
0.0
 11
105.915182195012
 21
240.5814409108994
 31
0.0
  0
LINE
  5
2BD
330
1A
100
AcDbEntity
  8
SUNPOU
  6
CONTINUOUS
 62
     4
100
AcDbLine
 10
248.822982195012
 20
81.29694091089943
 30
0.0
 11
258.4229821950119
 21
62.0969409108994
 31
0.0
  0
LINE
  5
2C0
330
1A
100
AcDbEntity
  8
SUNPOU
  6
CONTINUOUS
 62
     4
100
AcDbLine
 10
248.2276139941505
 20
82.4858698411578
 30
0.0
 11
271.1788528270316
 21
36.57312622690921
 31
0.0
  0
MTEXT
  5
2C1
330
1A
100
AcDbEntity
  8
SUNPOU
  6
CONTINUOUS
 62
     4
100
AcDbMText
 10
253.2879866527502
 20
44.50071095397487
 30
0.0
 40
3.0
 41
0.0
 71
     1
 72
     5
  1
{\W1.714286;10}
 11
0.9998476952003702
 21
0.017452403917724
 31
0.0
1001
ACAD
1000
MTEXTBEGIN
1070
    73
1070
     1
1070
    44
1040
1.0
1070
    74
1070
     0
1000
MTEXTEND
1000
MTEXTBEGIN
1070
    73
1070
     1
1070
    44
1040
1.0
1070
    74
1070
     0
1000
MTEXTEND
1000
MTEXTBEGIN
1070
    73
1070
     1
1070
    44
1040
1.0
1070
    74
1070
     0
1000
MTEXTEND
  0
LINE
  5
2C2
330
1A
100
AcDbEntity
  8
SUNPOU
  6
CONTINUOUS
 62
     4
100
AcDbLine
 10
261.1788528270316
 20
36.57312622690921
 30
0.0
 11
261.1788528270316
 21
56.57312622690921
 31
0.0
  0
MTEXT
  5
2C3
330
1A
100
AcDbEntity
  8
SUNPOU
  6
CONTINUOUS
 62
     4
100
AcDbMText
 10
265.4029695101328
 20
34.20261285292577
 30
0.0
 40
3.0
 41
0.0
 71
     1
 72
     5
  1
{\W1.500000;5}
 11
0.9998476952003704
 21
0.017452403917724
 31
0.0
1001
ACAD
1000
MTEXTBEGIN
1070
    73
1070
     1
1070
    44
1040
1.0
1070
    74
1070
     0
1000
MTEXTEND
1000
MTEXTBEGIN
1070
    73
1070
     1
1070
    44
1040
1.0
1070
    74
1070
     0
1000
MTEXTEND
1000
MTEXTBEGIN
1070
    73
1070
     1
1070
    44
1040
1.0
1070
    74
1070
     0
1000
MTEXTEND
  0
LINE
  5
2C4
330
1A
100
AcDbEntity
  8
SUNPOU
  6
CONTINUOUS
 62
     4
100
AcDbLine
 10
271.1788528270316
 20
36.57312622690921
 30
0.0
 11
261.1788528270316
 21
36.57312622690921
 31
0.0
  0
LINE
  5
2D3
330
1A
100
AcDbEntity
  8
SEIHIN
  6
CONTINUOUS
 62
     3
100
AcDbLine
 10
194.375582195012
 20
104.4127409108994
 30
0.0
 11
202.458482195012
 21
118.4127409108994
 31
0.0
  0
LINE
  5
2D4
330
1A
100
AcDbEntity
  8
SEIHIN
  6
CONTINUOUS
 62
     3
100
AcDbLine
 10
189.468082195012
 20
106.9127409108994
 30
0.0
 11
199.283082195012
 21
123.9127409108994
 31
0.0
  0
LINE
  5
2D5
330
1A
100
AcDbEntity
  8
SEIHIN
  6
CONTINUOUS
 62
     3
100
AcDbLine
 10
131.342382195012
 20
100.4127409108994
 30
0.0
 11
200.015082195012
 21
100.4127409108994
 31
0.0
  0
LINE
  5
2D6
330
1A
100
AcDbEntity
  8
SEIHIN
  6
CONTINUOUS
 62
     3
100
AcDbLine
 10
132.815182195012
 20
105.9127409108994
 30
0.0
 11
169.468082195012
 21
105.9127409108994
 31
0.0
  0
LINE
  5
2D7
330
1A
100
AcDbEntity
  8
SEIHIN
  6
CONTINUOUS
 62
     3
100
AcDbLine
 10
123.542382195012
 20
104.9127409108994
 30
0.0
 11
131.342382195012
 21
100.4127409108994
 31
0.0
  0
LINE
  5
2D8
330
1A
100
AcDbEntity
  8
SEIHIN
  6
CONTINUOUS
 62
     3
100
AcDbLine
 10
125.015082195012
 20
110.4127409108994
 30
0.0
 11
132.815182195012
 21
105.9127409108994
 31
0.0
  0
ARC
  5
2D9
330
1A
100
AcDbEntity
  8
SEIHIN
  6
CONTINUOUS
 62
     3
100
AcDbCircle
 10
118.615082195012
 20
109.5127409108994
 30
0.0
 40
4.600000000000008
100
AcDbArc
 50
180.0
 51
270.0
  0
LINE
  5
2DA
330
1A
100
AcDbEntity
  8
SEIHIN
  6
CONTINUOUS
 62
     3
100
AcDbLine
 10
112.515182195012
 20
108.0127409108994
 30
0.0
 11
114.266582195012
 21
108.0127409108994
 31
0.0
  0
ARC
  5
2DB
330
1A
100
AcDbEntity
  8
SEIHIN
  6
CONTINUOUS
 62
     3
100
AcDbCircle
 10
112.515182195012
 20
109.5127409108994
 30
0.0
 40
1.5
100
AcDbArc
 50
180.0
 51
270.0
  0
LINE
  5
2DC
330
1A
100
AcDbEntity
  8
SEIHIN
  6
CONTINUOUS
 62
     3
100
AcDbLine
 10
118.615082195012
 20
104.9127409108994
 30
0.0
 11
123.542382195012
 21
104.9127409108994
 31
0.0
  0
LINE
  5
2DD
330
1A
100
AcDbEntity
  8
SEIHIN
  6
CONTINUOUS
 62
     3
100
AcDbLine
 10
172.468082195012
 20
101.4127409108994
 30
0.0
 11
189.179382195012
 21
101.4127409108994
 31
0.0
  0
LINE
  5
2DE
330
1A
100
AcDbEntity
  8
SEIHIN
  6
CONTINUOUS
 62
     3
100
AcDbLine
 10
169.468082195012
 20
106.9127409108994
 30
0.0
 11
189.468082195012
 21
106.9127409108994
 31
0.0
  0
LINE
  5
2DF
330
1A
100
AcDbEntity
  8
SEIHIN
  6
CONTINUOUS
 62
     3
100
AcDbLine
 10
169.468082195012
 20
104.4127409108994
 30
0.0
 11
169.468082195012
 21
106.9127409108994
 31
0.0
  0
LINE
  5
2E0
330
1A
100
AcDbEntity
  8
SEIHIN
  6
CONTINUOUS
 62
     3
100
AcDbLine
 10
169.468082195012
 20
104.4127409108994
 30
0.0
 11
172.468082195012
 21
101.4127409108994
 31
0.0
  0
ARC
  5
2E6
330
1A
100
AcDbEntity
  8
SEIHIN
  6
CONTINUOUS
 62
     3
100
AcDbCircle
 10
189.179382195012
 20
107.4127409108994
 30
0.0
 40
6.000020601595919
100
AcDbArc
 50
270.0
 51
330.0002271632824
  0
LINE
  5
2EB
330
1A
100
AcDbEntity
  8
CENTER_L
  6
CENTER
 62
     1
 48
5.0
100
AcDbLine
 10
238.661282195012
 20
87.39634091089943
 30
0.0
 11
249.470682195012
 21
92.80104091089942
 31
0.0
  0
LINE
  5
2EC
330
1A
100
AcDbEntity
  8
SEIHIN
  6
CONTINUOUS
 62
     3
100
AcDbLine
 10
229.592882195012
 20
117.5212409108994
 30
0.0
 11
246.139682195012
 21
84.4274409108994
 31
0.0
  0
LINE
  5
2ED
330
1A
100
AcDbEntity
  8
SEIHIN
  6
CONTINUOUS
 62
     3
100
AcDbLine
 10
226.844282195012
 20
125.2544409108994
 30
0.0
 11
247.034082195012
 21
84.87464091089941
 31
0.0
  0
LINE
  5
2EE
330
1A
100
AcDbEntity
  8
SEIHIN
  6
CONTINUOUS
 62
     3
100
AcDbLine
 10
210.534782195012
 20
106.3240409108994
 30
0.0
 11
214.784782195012
 21
98.96284091089942
 31
0.0
  0
LINE
  5
2EF
330
1A
100
AcDbEntity
  8
SEIHIN
  6
CONTINUOUS
 62
     3
100
AcDbLine
 10
214.265082195012
 20
98.66284091089944
 30
0.0
 11
210.015082195012
 21
106.0240409108994
 31
0.0
  0
LINE
  5
2F0
330
1A
100
AcDbEntity
  8
SEIHIN
  6
CONTINUOUS
 62
     3
100
AcDbLine
 10
216.464182195012
 20
99.41284091089944
 30
0.0
 11
216.464182195012
 21
121.4127409108994
 31
0.0
  0
LINE
  5
2F1
330
1A
100
AcDbEntity
  8
SEIHIN
  6
CONTINUOUS
 62
     3
100
AcDbLine
 10
217.064182195012
 20
101.4523409108994
 30
0.0
 11
217.064182195012
 21
99.41284091089944
 31
0.0
  0
ARC
  5
2F2
330
1A
100
AcDbEntity
  8
SEIHIN
  6
CONTINUOUS
 62
     3
100
AcDbCircle
 10
215.564182195012
 20
99.41284091089944
 30
0.0
 40
1.500026801187791
100
AcDbArc
 50
209.9988179477394
 51
0.0
  0
ARC
  5
2F3
330
1A
100
AcDbEntity
  8
SEIHIN
  6
CONTINUOUS
 62
     3
100
AcDbCircle
 10
215.564182195012
 20
99.41284091089944
 30
0.0
 40
0.899990099891105
100
AcDbArc
 50
210.0007277808277
 51
0.0
  0
ARC
  5
2F4
330
1A
100
AcDbEntity
  8
SEIHIN
  6
CONTINUOUS
 62
     3
100
AcDbCircle
 10
217.464182195012
 20
101.3372409108994
 30
0.0
 40
1.000034688796687
100
AcDbArc
 50
97.00705378055481
 51
180.0
  0
LINE
  5
2F5
330
1A
100
AcDbEntity
  8
SEIHIN
  6
CONTINUOUS
 62
     3
100
AcDbLine
 10
207.654682195012
 20
121.4127409108994
 30
0.0
 11
220.015182195012
 21
121.4127409108994
 31
0.0
  0
LINE
  5
2F6
330
1A
100
AcDbEntity
  8
SEIHIN
  6
CONTINUOUS
 62
     3
100
AcDbLine
 10
204.479182195012
 20
126.9127409108994
 30
0.0
 11
224.161082195012
 21
126.9127409108994
 31
0.0
  0
ARC
  5
2F7
330
1A
100
AcDbEntity
  8
SEIHIN
  6
CONTINUOUS
 62
     3
100
AcDbCircle
 10
204.915082195012
 20
103.9127409108994
 30
0.0
 40
1.099983692940072
100
AcDbArc
 50
295.0134320108394
 51
90.0
  0
LINE
  5
2F8
330
1A
100
AcDbEntity
  8
SEIHIN
  6
CONTINUOUS
 62
     3
100
AcDbLine
 10
195.2415821950119
 20
105.9127409108994
 30
0.0
 11
204.015082195012
 21
105.9127409108994
 31
0.0
  0
LINE
  5
2F9
330
1A
100
AcDbEntity
  8
SEIHIN
  6
CONTINUOUS
 62
     3
100
AcDbLine
 10
200.015082195012
 20
100.4127409108994
 30
0.0
 11
205.3801821950119
 21
102.9159409108994
 31
0.0
  0
LINE
  5
2FA
330
1A
100
AcDbEntity
  8
SEIHIN
  6
CONTINUOUS
 62
     3
100
AcDbLine
 10
204.915082195012
 20
105.0127409108994
 30
0.0
 11
204.015082195012
 21
105.0127409108994
 31
0.0
  0
LINE
  5
2FB
330
1A
100
AcDbEntity
  8
SEIHIN
  6
CONTINUOUS
 62
     3
100
AcDbLine
 10
204.015082195012
 20
105.9127409108994
 30
0.0
 11
204.015082195012
 21
105.0127409108994
 31
0.0
  0
LINE
  5
2FC
330
1A
100
AcDbEntity
  8
SEIHIN
  6
CONTINUOUS
 62
     3
100
AcDbLine
 10
210.534782195012
 20
106.3240409108994
 30
0.0
 11
210.015082195012
 21
106.0240409108994
 31
0.0
  0
ARC
  5
2FD
330
1A
100
AcDbEntity
  8
SEIHIN
  6
CONTINUOUS
 62
     3
100
AcDbCircle
 10
207.654682195012
 20
115.4127409108994
 30
0.0
 40
6.000020601595926
100
AcDbArc
 50
90.0
 51
150.0002271632826
  0
ARC
  5
2FE
330
1A
100
AcDbEntity
  8
SEIHIN
  6
CONTINUOUS
 62
     3
100
AcDbCircle
 10
204.479182195012
 20
120.9127409108994
 30
0.0
 40
6.000002300832452
100
AcDbArc
 50
90.0
 51
149.9989227074964
  0
ARC
  5
2FF
330
1A
100
AcDbEntity
  8
SEIHIN
  6
CONTINUOUS
 62
     3
100
AcDbCircle
 10
230.912082195012
 20
114.8827409108994
 30
0.0
 40
0.9999695995379013
100
AcDbArc
 50
206.5650511770794
 51
296.5650511770779
  0
LINE
  5
300
330
1A
100
AcDbEntity
  8
CENTER_L
  6
CENTER
 62
     1
 48
5.0
100
AcDbLine
 10
227.015082195012
 20
109.5241409108994
 30
0.0
 11
238.700682195012
 21
115.3668409108994
 31
0.0
  0
LINE
  5
301
330
1A
100
AcDbEntity
  8
SEIHIN
  6
CONTINUOUS
 62
     3
100
AcDbLine
 10
226.085182195012
 20
118.9464409108994
 30
0.0
 11
232.9469821950119
 21
105.2229409108994
 31
0.0
  0
LINE
  5
302
330
1A
100
AcDbEntity
  8
SEIHIN
  6
CONTINUOUS
 62
     3
100
AcDbLine
 10
219.344182195012
 20
104.5927409108994
 30
0.0
 11
219.344182195012
 21
121.4128409108994
 31
0.0
  0
LINE
  5
303
330
1A
100
AcDbEntity
  8
SEIHIN
  6
CONTINUOUS
 62
     3
100
AcDbLine
 10
219.744182195012
 20
104.5927409108994
 30
0.0
 11
219.744182195012
 21
121.4127409108994
 31
0.0
  0
ARC
  5
304
330
1A
100
AcDbEntity
  8
SEIHIN
  6
CONTINUOUS
 62
     3
100
AcDbCircle
 10
217.064182195012
 20
104.5927409108994
 30
0.0
 40
2.279956184465003
100
AcDbArc
 50
277.0037618880575
 51
0.0
  0
ARC
  5
305
330
1A
100
AcDbEntity
  8
SEIHIN
  6
CONTINUOUS
 62
     3
100
AcDbCircle
 10
217.564182195012
 20
101.4523409108994
 30
0.0
 40
0.5000081998655269
100
AcDbArc
 50
99.04411226652698
 51
180.0
  0
ARC
  5
306
330
1A
100
AcDbEntity
  8
SEIHIN
  6
CONTINUOUS
 62
     3
100
AcDbCircle
 10
217.064182195012
 20
104.5927409108994
 30
0.0
 40
2.679969171287158
100
AcDbArc
 50
279.0468726988462
 51
0.0
  0
ARC
  5
307
330
1A
100
AcDbEntity
  8
SEIHIN
  6
CONTINUOUS
 62
     3
100
AcDbCircle
 10
235.182982195012
 20
106.3409409108994
 30
0.0
 40
2.500035802643626
100
AcDbArc
 50
206.5640262445264
 51
296.5660760912951
  0
LINE
  5
308
330
1A
100
AcDbEntity
  8
SEIHIN
  6
CONTINUOUS
 62
     3
100
AcDbLine
 10
234.064982195012
 20
108.5770409108994
 30
0.0
 11
234.959382195012
 21
109.0242409108994
 31
0.0
  0
LINE
  5
309
330
1A
100
AcDbEntity
  8
SEIHIN
  6
CONTINUOUS
 62
     3
100
AcDbLine
 10
220.015182195012
 20
121.4127409108994
 30
0.0
 11
228.474882195012
 21
121.9934409108994
 31
0.0
  0
LINE
  5
30A
330
1A
100
AcDbEntity
  8
SEIHIN
  6
CONTINUOUS
 62
     3
100
AcDbLine
 10
229.592782195012
 20
117.5212409108994
 30
0.0
 11
220.015182195012
 21
121.4127409108994
 31
0.0
  0
ARC
  5
30B
330
1A
100
AcDbEntity
  8
SEIHIN
  6
CONTINUOUS
 62
     3
100
AcDbCircle
 10
224.161082195012
 20
123.9127409108994
 30
0.0
 40
3.000021481512836
100
AcDbArc
 50
26.56590527989912
 51
90.0
  0
LINE
  5
30C
330
1A
100
AcDbEntity
  8
SEIHIN
  6
CONTINUOUS
 62
     3
100
AcDbLine
 10
229.592882195012
 20
117.5212409108994
 30
0.0
 11
230.4872821950119
 21
117.9685409108994
 31
0.0
  0
LINE
  5
30D
330
1A
100
AcDbEntity
  8
SEIHIN
  6
CONTINUOUS
 62
     3
100
AcDbLine
 10
230.017682195012
 20
114.4355409108994
 30
0.0
 11
228.189782195012
 21
118.0913409108994
 31
0.0
  0
LINE
  5
311
330
1A
100
AcDbEntity
  8
SEIHIN
  6
CONTINUOUS
 62
     3
100
AcDbLine
 10
246.139682195012
 20
84.4274409108994
 30
0.0
 11
247.034082195012
 21
84.87464091089941
 31
0.0
  0
LINE
  5
329
330
1A
100
AcDbEntity
  8
SEIHIN
  6
CONTINUOUS
 62
     3
100
AcDbLine
 10
226.015182195012
 20
245.5814409108993
 30
0.0
 11
189.468082195012
 21
238.3314409108994
 31
0.0
  0
LINE
  5
32A
330
1A
100
AcDbEntity
  8
SEIHIN
  6
CONTINUOUS
 62
     3
100
AcDbLine
 10
226.015182195012
 20
215.5814409108994
 30
0.0
 11
189.468082195012
 21
222.8314409108993
 31
0.0
  0
LINE
  5
32B
330
1A
100
AcDbEntity
  8
SEIHIN
  6
CONTINUOUS
 62
     3
100
AcDbLine
 10
109.415182195012
 20
237.0814409108993
 30
0.0
 11
169.468182195012
 21
237.0814409108993
 31
0.0
  0
LINE
  5
32C
330
1A
100
AcDbEntity
  8
SEIHIN
  6
CONTINUOUS
 62
     3
100
AcDbLine
 10
109.415182195012
 20
224.0814409108994
 30
0.0
 11
169.468182195012
 21
224.0814409108994
 31
0.0
  0
LINE
  5
32D
330
1A
100
AcDbEntity
  8
SEIHIN
  6
CONTINUOUS
 62
     3
100
AcDbLine
 10
125.015082195012
 20
224.0814409108994
 30
0.0
 11
125.015082195012
 21
230.5814409108994
 31
0.0
  0
LINE
  5
32E
330
1A
100
AcDbEntity
  8
SEIHIN
  6
CONTINUOUS
 62
     3
100
AcDbLine
 10
112.765182195012
 20
232.3314409108994
 30
0.0
 11
115.265182195012
 21
232.3314409108994
 31
0.0
  0
LINE
  5
32F
330
1A
100
AcDbEntity
  8
SEIHIN
  6
CONTINUOUS
 62
     3
100
AcDbLine
 10
112.765182195012
 20
228.8314409108993
 30
0.0
 11
115.265182195012
 21
228.8314409108993
 31
0.0
  0
ARC
  5
330
330
1A
100
AcDbEntity
  8
SEIHIN
  6
CONTINUOUS
 62
     3
100
AcDbCircle
 10
112.765182195012
 20
230.5814409108994
 30
0.0
 40
1.75
100
AcDbArc
 50
90.0
 51
180.0
  0
ARC
  5
331
330
1A
100
AcDbEntity
  8
SEIHIN
  6
CONTINUOUS
 62
     3
100
AcDbCircle
 10
112.765182195012
 20
230.5814409108994
 30
0.0
 40
1.75
100
AcDbArc
 50
180.0
 51
270.0
  0
ARC
  5
332
330
1A
100
AcDbEntity
  8
SEIHIN
  6
CONTINUOUS
 62
     3
100
AcDbCircle
 10
115.265182195012
 20
230.5814409108994
 30
0.0
 40
1.75
100
AcDbArc
 50
0.0
 51
90.0
  0
ARC
  5
333
330
1A
100
AcDbEntity
  8
SEIHIN
  6
CONTINUOUS
 62
     3
100
AcDbCircle
 10
115.265182195012
 20
230.5814409108994
 30
0.0
 40
1.75
100
AcDbArc
 50
270.0
 51
0.0
  0
LINE
  5
334
330
1A
100
AcDbEntity
  8
SEIHIN
  6
CONTINUOUS
 62
     3
100
AcDbLine
 10
125.015082195012
 20
237.0814409108993
 30
0.0
 11
125.015082195012
 21
230.5814409108994
 31
0.0
  0
LINE
  5
335
330
1A
100
AcDbEntity
  8
SEIHIN
  6
CONTINUOUS
 62
     3
100
AcDbLine
 10
132.815082195012
 20
224.0814409108994
 30
0.0
 11
132.815082195012
 21
230.5814409108994
 31
0.0
  0
LINE
  5
336
330
1A
100
AcDbEntity
  8
SEIHIN
  6
CONTINUOUS
 62
     3
100
AcDbLine
 10
132.815082195012
 20
237.0814409108993
 30
0.0
 11
132.815082195012
 21
230.5814409108994
 31
0.0
  0
LINE
  5
337
330
1A
100
AcDbEntity
  8
SEIHIN
  6
CONTINUOUS
 62
     3
100
AcDbLine
 10
169.468182195012
 20
238.3314409108994
 30
0.0
 11
189.468082195012
 21
238.3314409108994
 31
0.0
  0
LINE
  5
338
330
1A
100
AcDbEntity
  8
SEIHIN
  6
CONTINUOUS
 62
     3
100
AcDbLine
 10
169.468182195012
 20
222.8314409108993
 30
0.0
 11
189.468082195012
 21
222.8314409108993
 31
0.0
  0
LINE
  5
339
330
1A
100
AcDbEntity
  8
SEIHIN
  6
CONTINUOUS
 62
     3
100
AcDbLine
 10
169.468182195012
 20
222.8313409108994
 30
0.0
 11
169.468182195012
 21
230.5815409108994
 31
0.0
  0
LINE
  5
33A
330
1A
100
AcDbEntity
  8
SEIHIN
  6
CONTINUOUS
 62
     3
100
AcDbLine
 10
169.468182195012
 20
238.3314409108994
 30
0.0
 11
169.468182195012
 21
230.5813409108994
 31
0.0
  0
LINE
  5
33B
330
1A
100
AcDbEntity
  8
SEIHIN
  6
CONTINUOUS
 62
     3
100
AcDbLine
 10
189.468082195012
 20
222.8314409108993
 30
0.0
 11
189.468082195012
 21
230.5814409108994
 31
0.0
  0
LINE
  5
33C
330
1A
100
AcDbEntity
  8
SEIHIN
  6
CONTINUOUS
 62
     3
100
AcDbLine
 10
189.468082195012
 20
238.3314409108994
 30
0.0
 11
189.468082195012
 21
230.5814409108994
 31
0.0
  0
LINE
  5
33E
330
1A
100
AcDbEntity
  8
SEIHIN
  6
CONTINUOUS
 62
     3
100
AcDbLine
 10
226.015182195012
 20
235.1636409108994
 30
0.0
 11
226.015182195012
 21
244.3911409108994
 31
0.0
  0
LINE
  5
33F
330
1A
100
AcDbEntity
  8
SEIHIN
  6
CONTINUOUS
 62
     3
100
AcDbLine
 10
244.8083507295498
 20
239.2287465172462
 30
0.0
 11
234.959382195012
 21
253.0814409108994
 31
0.0
  0
LINE
  5
341
330
1A
100
AcDbEntity
  8
SEIHIN
  6
CONTINUOUS
 62
     3
100
AcDbLine
 10
245.0542821950119
 20
222.2800409108994
 30
0.0
 11
234.959382195012
 21
208.0814409108993
 31
0.0
  0
LINE
  5
343
330
1A
100
AcDbEntity
  8
SEIHIN
  6
CONTINUOUS
 62
     3
100
AcDbLine
 10
230.4872821950119
 20
208.0814409108993
 30
0.0
 11
228.474882195012
 21
215.5814409108994
 31
0.0
  0
LINE
  5
344
330
1A
100
AcDbEntity
  8
SEIHIN
  6
CONTINUOUS
 62
     3
100
AcDbLine
 10
229.592882195012
 20
208.0814409108993
 30
0.0
 11
221.042082195012
 21
215.8399409108994
 31
0.0
  0
LINE
  5
346
330
1A
100
AcDbEntity
  8
SEIHIN
  6
CONTINUOUS
 62
     3
100
AcDbLine
 10
234.959382195012
 20
208.0814409108993
 30
0.0
 11
229.592882195012
 21
208.0814409108993
 31
0.0
  0
LINE
  5
347
330
1A
100
AcDbEntity
  8
SEIHIN
  6
CONTINUOUS
 62
     3
100
AcDbLine
 10
235.406582195012
 20
234.5814409108994
 30
0.0
 11
200.015182195012
 21
234.5814409108994
 31
0.0
  0
LINE
  5
348
330
1A
100
AcDbEntity
  8
SEIHIN
  6
CONTINUOUS
 62
     3
100
AcDbLine
 10
226.015182195012
 20
234.5814409108994
 30
0.0
 11
200.015182195012
 21
234.5814409108994
 31
0.0
  0
LINE
  5
349
330
1A
100
AcDbEntity
  8
SEIHIN
  6
CONTINUOUS
 62
     3
100
AcDbLine
 10
235.406582195012
 20
226.5814409108994
 30
0.0
 11
200.015182195012
 21
226.5814409108994
 31
0.0
  0
ARC
  5
34B
330
1A
100
AcDbEntity
  8
SEIHIN
  6
CONTINUOUS
 62
     3
100
AcDbCircle
 10
200.015182195012
 20
230.5814409108994
 30
0.0
 40
4.0
100
AcDbArc
 50
180.0
 51
270.0
  0
ARC
  5
34C
330
1A
100
AcDbEntity
  8
SEIHIN
  6
CONTINUOUS
 62
     3
100
AcDbCircle
 10
202.015182195012
 20
225.9991409108994
 30
0.0
 40
1.000029624122413
100
AcDbArc
 50
122.7699941687521
 51
180.0
  0
LINE
  5
34D
330
1A
100
AcDbEntity
  8
SEIHIN
  6
CONTINUOUS
 62
     3
100
AcDbLine
 10
201.015182195012
 20
221.7249409108994
 30
0.0
 11
201.015182195012
 21
225.9991409108994
 31
0.0
  0
ARC
  5
34E
330
1A
100
AcDbEntity
  8
SEIHIN
  6
CONTINUOUS
 62
     3
100
AcDbCircle
 10
202.015182195012
 20
235.1636409108994
 30
0.0
 40
0.9999875823457951
100
AcDbArc
 50
180.0
 51
237.2269045174248
  0
ARC
  5
34F
330
1A
100
AcDbEntity
  8
SEIHIN
  6
CONTINUOUS
 62
     3
100
AcDbCircle
 10
200.015182195012
 20
230.5814409108994
 30
0.0
 40
4.0
100
AcDbArc
 50
90.0
 51
180.0
  0
LINE
  5
351
330
1A
100
AcDbEntity
  8
SEIHIN
  6
CONTINUOUS
 62
     3
100
AcDbLine
 10
201.015182195012
 20
239.4378409108994
 30
0.0
 11
201.015182195012
 21
235.1636409108994
 31
0.0
  0
ARC
  5
352
330
1A
100
AcDbEntity
  8
SEIHIN
  6
CONTINUOUS
 62
     3
100
AcDbCircle
 10
227.964882195012
 20
230.5815409108994
 30
0.0
 40
4.449692382619497
100
AcDbArc
 50
180.0012876324139
 51
237.2295719233513
  0
LINE
  5
354
330
1A
100
AcDbEntity
  8
SEIHIN
  6
CONTINUOUS
 62
     3
100
AcDbLine
 10
228.474882195012
 20
215.5814409108994
 30
0.0
 11
226.015182195012
 21
215.5814409108994
 31
0.0
  0
LINE
  5
355
330
1A
100
AcDbEntity
  8
SEIHIN
  6
CONTINUOUS
 62
     3
100
AcDbLine
 10
226.015182195012
 20
225.9991409108994
 30
0.0
 11
226.015182195012
 21
216.7716409108994
 31
0.0
  0
ARC
  5
356
330
1A
100
AcDbEntity
  8
SEIHIN
  6
CONTINUOUS
 62
     3
100
AcDbCircle
 10
217.682182195012
 20
212.1370409108994
 30
0.0
 40
5.000013238912753
100
AcDbArc
 50
47.78034549305995
 51
78.77861241382777
  0
ARC
  5
357
330
1A
100
AcDbEntity
  8
SEIHIN
  6
CONTINUOUS
 62
     3
100
AcDbCircle
 10
225.015182195012
 20
225.9991409108994
 30
0.0
 40
1.000002562493416
100
AcDbArc
 50
0.0
 51
57.23482352322451
  0
ARC
  5
35E
330
1A
100
AcDbEntity
  8
SEIHIN
  6
CONTINUOUS
 62
     3
100
AcDbCircle
 10
225.015182195012
 20
235.1636409108994
 30
0.0
 40
0.9999605184411958
100
AcDbArc
 50
302.7682775533438
 51
0.0
  0
ARC
  5
35F
330
1A
100
AcDbEntity
  8
SEIHIN
  6
CONTINUOUS
 62
     3
100
AcDbCircle
 10
227.964882195012
 20
230.5812409108994
 30
0.0
 40
4.449734426773712
100
AcDbArc
 50
122.7697311251013
 51
179.9974247351743
  0
ELLIPSE
  5
361
330
1A
100
AcDbEntity
  8
SEIHIN
  6
CONTINUOUS
 62
     3
100
AcDbEllipse
 10
235.4066230651104
 20
230.5814443328832
 30
0.0
 11
-0.0000022446405592
 21
-3.995726121468982
 31
0.0
210
0.0
220
0.0
230
1.0
 40
0.4474999301672538
 41
1.570795722715059
 42
3.141560875422462
  0
ELLIPSE
  5
362
330
1A
100
AcDbEntity
  8
SEIHIN
  6
CONTINUOUS
 62
     3
100
AcDbEllipse
 10
231.5829399799989
 20
240.0813340830894
 30
0.0
 11
-0.0000008586227076
 21
-1.528449523356075
 31
0.0
210
0.0
220
0.0
230
1.0
 40
0.4466666666663274
 41
0.000000250919733
 42
3.141592904509525
  0
LINE
  5
363
330
1A
100
AcDbEntity
  8
SEIHIN
  6
CONTINUOUS
 62
     3
100
AcDbLine
 10
231.5829408386215
 20
241.6097836064455
 30
0.0
 11
228.4525408386215
 21
241.6097836064455
 31
0.0
  0
LINE
  5
364
330
1A
100
AcDbEntity
  8
SEIHIN
  6
CONTINUOUS
 62
     3
100
AcDbLine
 10
231.5829392926809
 20
238.5528845597334
 30
0.0
 11
228.4525391213761
 21
238.5528845597334
 31
0.0
  0
LINE
  5
368
330
1A
100
AcDbEntity
  8
CENTER_L
  6
CENTER
 62
     1
 48
5.0
100
AcDbLine
 10
244.350882195012
 20
227.1663409108994
 30
0.0
 11
244.350882195012
 21
234.0591409108994
 31
0.0
  0
ELLIPSE
  5
369
330
1A
100
AcDbEntity
  8
SEIHIN
  6
CONTINUOUS
 62
     3
100
AcDbEllipse
 10
242.5619685939215
 20
230.5813913460017
 30
0.0
 11
-0.0000056185035488
 21
-10.00159693721671
 31
0.0
210
0.0
220
0.0
230
1.0
 40
0.4470000446996679
 41
0.5962938852613524
 42
2.615145239164927
  0
ELLIPSE
  5
36A
330
1A
100
AcDbEntity
  8
SEIHIN
  6
CONTINUOUS
 62
     3
100
AcDbEllipse
 10
243.4564338266845
 20
230.5814178903955
 30
0.0
 11
-0.0000011556632126
 21
-2.0572164543542
 31
0.0
210
0.0
220
0.0
230
1.0
 40
0.4463414898625747
 41
0.4896435518770082
 42
2.651951618891374
  0
ELLIPSE
  5
36B
330
1A
100
AcDbEntity
  8
SEIHIN
  6
CONTINUOUS
 62
     3
100
AcDbEllipse
 10
244.3509016183494
 20
230.5814199101301
 30
0.0
 11
-0.0000011743743843
 21
-2.090524540857784
 31
0.0
210
0.0
220
0.0
230
1.0
 40
0.4463414898625748
 41
-3.141570167528054
 42
3.141615139651531
  0
LINE
  5
36D
330
1A
100
AcDbEntity
  8
SEIHIN
  6
CONTINUOUS
 62
     3
100
AcDbLine
 10
229.592882195012
 20
253.0814409108994
 30
0.0
 11
221.042082195012
 21
245.3228409108993
 31
0.0
  0
LINE
  5
36E
330
1A
100
AcDbEntity
  8
SEIHIN
  6
CONTINUOUS
 62
     3
100
AcDbLine
 10
228.474882195012
 20
245.5814409108993
 30
0.0
 11
226.015182195012
 21
245.5814409108993
 31
0.0
  0
ARC
  5
36F
330
1A
100
AcDbEntity
  8
SEIHIN
  6
CONTINUOUS
 62
     3
100
AcDbCircle
 10
217.682182195012
 20
249.0258409108994
 30
0.0
 40
5.000089582639333
100
AcDbArc
 50
281.2200405994034
 51
312.2188844981965
  0
ELLIPSE
  5
370
330
1A
100
AcDbEntity
  8
SEIHIN
  6
CONTINUOUS
 62
     3
100
AcDbEllipse
 10
232.2760697606427
 20
247.0813796853231
 30
0.0
 11
-0.0000011376766044
 21
-2.025198176028001
 31
0.0
210
0.0
220
0.0
230
1.0
 40
0.4463414898625748
 41
0.5180240757174213
 42
2.623630696993638
  0
ELLIPSE
  5
371
330
1A
100
AcDbEntity
  8
SEIHIN
  6
CONTINUOUS
 62
     3
100
AcDbEllipse
 10
233.1705375523343
 20
247.0814414261673
 30
0.0
 11
-0.0000011372584729
 21
-2.024453852710011
 31
0.0
210
0.0
220
0.0
230
1.0
 40
0.4463414898625748
 41
3.141545122358066
 42
9.424730429537651
  0
LINE
  5
372
330
1A
100
AcDbEntity
  8
CENTER_L
  6
CENTER
 62
     1
 48
5.0
100
AcDbLine
 10
233.170582195012
 20
250.4666409108994
 30
0.0
 11
233.170582195012
 21
243.2332409108994
 31
0.0
  0
LINE
  5
373
330
1A
100
AcDbEntity
  8
SEIHIN
  6
CONTINUOUS
 62
     3
100
AcDbLine
 10
230.4872821950119
 20
253.0814409108994
 30
0.0
 11
228.474882195012
 21
245.5814409108993
 31
0.0
  0
LINE
  5
374
330
1A
100
AcDbEntity
  8
CENTER_L
  6
CENTER
 62
     1
 48
5.0
100
AcDbLine
 10
235.768282195012
 20
247.0814409108994
 30
0.0
 11
231.034382195012
 21
247.0814409108994
 31
0.0
  0
LINE
  5
375
330
1A
100
AcDbEntity
  8
SEIHIN
  6
CONTINUOUS
 62
     3
100
AcDbLine
 10
234.959382195012
 20
253.0814409108994
 30
0.0
 11
229.592882195012
 21
253.0814409108994
 31
0.0
  0
ARC
  5
383
330
1A
100
AcDbEntity
  8
SEIHIN
  6
CONTINUOUS
 62
     3
100
AcDbCircle
 10
326.6959821950119
 20
135.8857409108994
 30
0.0
 40
10.00000242274751
100
AcDbArc
 50
296.5647949427941
 51
354.4076487049288
  0
LINE
  5
384
330
1A
100
AcDbEntity
  8
SEIHIN
  6
CONTINUOUS
 62
     3
100
AcDbLine
 10
298.9686821950119
 20
141.0287409108994
 30
0.0
 11
321.504082195012
 21
127.3391409108994
 31
0.0
  0
LINE
  5
385
330
1A
100
AcDbEntity
  8
CENTER_L
  6
CENTER
 62
     1
 48
5.0
100
AcDbLine
 10
332.7851821950119
 20
123.7074409108994
 30
0.0
 11
308.422382195012
 21
172.4330409108994
 31
0.0
  0
ARC
  5
387
330
1A
100
AcDbEntity
  8
SEIHIN
  6
CONTINUOUS
 62
     3
100
AcDbCircle
 10
326.6959821950119
 20
135.8857409108994
 30
0.0
 40
10.00000945174551
100
AcDbArc
 50
238.7221003441699
 51
296.5647949427941
  0
LINE
  5
391
330
1A
100
AcDbEntity
  8
CENTER_L
  6
CENTER
 62
     1
 48
5.0
100
AcDbLine
 10
324.034982195012
 20
130.0831409108994
 30
0.0
 11
328.484782195012
 21
132.3080409108994
 31
0.0
  0
LINE
  5
392
330
1A
100
AcDbEntity
  8
SEIHIN
  6
CONTINUOUS
 62
     3
100
AcDbLine
 10
334.745882195012
 20
170.0976409108994
 30
0.0
 11
326.025182195012
 21
170.7684409108994
 31
0.0
  0
LINE
  5
394
330
1A
100
AcDbEntity
  8
SEIHIN
  6
CONTINUOUS
 62
     3
100
AcDbLine
 10
323.118282195012
 20
151.9854409108994
 30
0.0
 11
313.7267821950119
 21
170.7684409108994
 31
0.0
  0
LINE
  5
395
330
1A
100
AcDbEntity
  8
SEIHIN
  6
CONTINUOUS
 62
     3
100
AcDbLine
 10
315.962882195012
 20
148.4077409108994
 30
0.0
 11
306.571382195012
 21
167.1907409108994
 31
0.0
  0
LINE
  5
396
330
1A
100
AcDbEntity
  8
SEIHIN
  6
CONTINUOUS
 62
     3
100
AcDbLine
 10
305.430982195012
 20
160.5272409108994
 30
0.0
 11
308.561482195012
 21
154.2662409108993
 31
0.0
  0
LINE
  5
397
330
1A
100
AcDbEntity
  8
SEIHIN
  6
CONTINUOUS
 62
     3
100
AcDbLine
 10
302.747682195012
 20
159.1856409108993
 30
0.0
 11
305.878182195012
 21
152.9246409108994
 31
0.0
  0
LINE
  5
398
330
1A
100
AcDbEntity
  8
SEIHIN
  6
CONTINUOUS
 62
     3
100
AcDbLine
 10
294.496582195012
 20
149.9730409108994
 30
0.0
 11
299.1923821950119
 21
157.3520409108994
 31
0.0
  0
CIRCLE
  5
399
330
1A
100
AcDbEntity
  8
SEIHIN
  6
CONTINUOUS
 62
     3
100
AcDbCircle
 10
302.546382195012
 20
147.2897409108994
 30
0.0
 40
2.050000000000011
  0
LINE
  5
39A
330
1A
100
AcDbEntity
  8
CENTER_L
  6
CENTER
 62
     1
 48
5.0
100
AcDbLine
 10
298.741682195012
 20
145.3873409108994
 30
0.0
 11
306.929582195012
 21
149.4813409108994
 31
0.0
  0
LINE
  5
39B
330
1A
100
AcDbEntity
  8
SEIHIN
  6
CONTINUOUS
 62
     3
100
AcDbLine
 10
298.9686821950119
 20
141.0287409108994
 30
0.0
 11
294.496582195012
 21
149.9730409108994
 31
0.0
  0
LINE
  5
39C
330
1A
100
AcDbEntity
  8
CENTER_L
  6
CENTER
 62
     1
 48
5.0
100
AcDbLine
 10
304.321782195012
 20
143.7390409108994
 30
0.0
 11
300.895082195012
 21
150.5924409108994
 31
0.0
  0
ARC
  5
39D
330
1A
100
AcDbEntity
  8
SEIHIN
  6
CONTINUOUS
 62
     3
100
AcDbCircle
 10
307.219782195012
 20
153.5954409108994
 30
0.0
 40
1.499999120999717
100
AcDbArc
 50
206.5650511770769
 51
26.56334299689986
  0
ARC
  5
39E
330
1A
100
AcDbEntity
  8
SEIHIN
  6
CONTINUOUS
 62
     3
100
AcDbCircle
 10
319.540582195012
 20
150.1966409108994
 30
0.0
 40
3.99996784112071
100
AcDbArc
 50
296.5644105856384
 51
26.56441058563852
  0
ARC
  5
39F
330
1A
100
AcDbEntity
  8
SEIHIN
  6
CONTINUOUS
 62
     3
100
AcDbCircle
 10
319.540582195012
 20
150.1966409108994
 30
0.0
 40
3.999990201800504
100
AcDbArc
 50
206.5656917613555
 51
296.5644105856387
  0
ARC
  5
3A0
330
1A
100
AcDbEntity
  8
SEIHIN
  6
CONTINUOUS
 62
     3
100
AcDbCircle
 10
304.089382195012
 20
159.8564409108994
 30
0.0
 40
1.499999120999755
100
AcDbArc
 50
26.56505117707605
 51
206.5633429969018
  0
LINE
  5
3A1
330
1A
100
AcDbEntity
  8
SEIHIN
  6
CONTINUOUS
 62
     3
100
AcDbLine
 10
298.074282195012
 20
162.9422409108994
 30
0.0
 11
306.571362195012
 21
167.1907809108994
 31
0.0
  0
LINE
  5
3A2
330
1A
100
AcDbEntity
  8
SEIHIN
  6
CONTINUOUS
 62
     3
100
AcDbLine
 10
299.1923821950119
 20
157.3520409108994
 30
0.0
 11
297.4034821950119
 21
160.9297409108993
 31
0.0
  0
ARC
  5
3A3
330
1A
100
AcDbEntity
  8
SEIHIN
  6
CONTINUOUS
 62
     3
100
AcDbCircle
 10
298.745082195012
 20
161.6006409108994
 30
0.0
 40
1.499954399306877
100
AcDbArc
 50
116.565051177077
 51
206.5650511770769
  0
ARC
  5
3A6
330
1A
100
AcDbEntity
  8
SEIHIN
  6
CONTINUOUS
 62
     3
100
AcDbCircle
 10
309.276982195012
 20
170.7237409108994
 30
0.0
 40
4.45001169547179
100
AcDbArc
 50
296.5650511770776
 51
0.5755393954546369
  0
LINE
  5
3A7
330
1A
100
AcDbEntity
  8
SEIHIN
  6
CONTINUOUS
 62
     3
100
AcDbLine
 10
322.223882195012
 20
175.0169409108993
 30
0.0
 11
313.7267740467754
 21
170.7684572073723
 31
0.0
  0
ARC
  5
3A8
330
1A
100
AcDbEntity
  8
SEIHIN
  6
CONTINUOUS
 62
     3
100
AcDbCircle
 10
309.276982195012
 20
170.7237409108994
 30
0.0
 40
4.449991596053526
100
AcDbArc
 50
232.55481528242
 51
296.5650511770776
  0
ARC
  5
3A9
330
1A
100
AcDbEntity
  8
SEIHIN
  6
CONTINUOUS
 62
     3
100
AcDbCircle
 10
324.213982195012
 20
162.0925409108993
 30
0.0
 40
1.49999912099973
100
AcDbArc
 50
206.5633429968998
 51
26.56505117707896
  0
LINE
  5
3AA
330
1A
100
AcDbEntity
  8
SEIHIN
  6
CONTINUOUS
 62
     3
100
AcDbLine
 10
322.425082195012
 20
169.0243409108994
 30
0.0
 11
325.555582195012
 21
162.7633409108994
 31
0.0
  0
LINE
  5
3AB
330
1A
100
AcDbEntity
  8
SEIHIN
  6
CONTINUOUS
 62
     3
100
AcDbLine
 10
319.741882195012
 20
167.6827409108994
 30
0.0
 11
322.872282195012
 21
161.4217409108994
 31
0.0
  0
ARC
  5
3AC
330
1A
100
AcDbEntity
  8
SEIHIN
  6
CONTINUOUS
 62
     3
100
AcDbCircle
 10
321.083482195012
 20
168.3535409108994
 30
0.0
 40
1.499954399306852
100
AcDbArc
 50
26.56505117707702
 51
206.565051177078
  0
ARC
  5
3AD
330
1A
100
AcDbEntity
  8
SEIHIN
  6
CONTINUOUS
 62
     3
100
AcDbCircle
 10
322.894682195012
 20
173.6753409108994
 30
0.0
 40
1.499999120999679
100
AcDbArc
 50
26.56334299690083
 51
116.5650511770799
  0
LINE
  5
3AE
330
1A
100
AcDbEntity
  8
SEIHIN
  6
CONTINUOUS
 62
     3
100
AcDbLine
 10
326.025182195012
 20
170.7684409108994
 30
0.0
 11
324.2363821950119
 21
174.3461409108994
 31
0.0
  0
LINE
  5
3B0
330
1A
100
AcDbEntity
  8
SEIHIN
  6
CONTINUOUS
 62
     3
100
AcDbLine
 10
339.217982195012
 20
161.1533409108994
 30
0.0
 11
336.648382195012
 21
134.9112409108994
 31
0.0
  0
LINE
  5
3B1
330
1A
100
AcDbEntity
  8
CENTER_L
  6
CENTER
 62
     1
 48
5.0
100
AcDbLine
 10
332.438482195012
 20
134.2849409108994
 30
0.0
 11
328.484782195012
 21
132.3080409108994
 31
0.0
  0
CIRCLE
  5
3B2
330
1A
100
AcDbEntity
  8
SEIHIN
  6
CONTINUOUS
 62
     3
100
AcDbCircle
 10
328.484782195012
 20
132.3080409108994
 30
0.0
 40
2.050000000000011
  0
LINE
  5
3B5
330
1A
100
AcDbEntity
  8
SEIHIN
  6
CONTINUOUS
 62
     3
100
AcDbLine
 10
339.217982195012
 20
161.1533409108994
 30
0.0
 11
334.745882195012
 21
170.0976409108994
 31
0.0
  0
CIRCLE
  5
3B6
330
1A
100
AcDbEntity
  8
SEIHIN
  6
CONTINUOUS
 62
     3
100
AcDbCircle
 10
332.062582195012
 20
162.0477409108993
 30
0.0
 40
2.050000000000011
  0
LINE
  5
3B7
330
1A
100
AcDbEntity
  8
CENTER_L
  6
CENTER
 62
     1
 48
5.0
100
AcDbLine
 10
333.837982195012
 20
158.4970409108994
 30
0.0
 11
330.411282195012
 21
165.3504409108994
 31
0.0
  0
LINE
  5
3B8
330
1A
100
AcDbEntity
  8
CENTER_L
  6
CENTER
 62
     1
 48
5.0
100
AcDbLine
 10
335.8989821950121
 20
163.9659409108993
 30
0.0
 11
327.679482195012
 21
159.8562409108994
 31
0.0
  0
LINE
  5
413
330
1A
100
AcDbEntity
  8
NOKITOI
  6
PHANTOM
 62
     8
 48
5.0
100
AcDbLine
 10
126.3665821950122
 20
66.70874091089942
 30
0.0
 11
192.5971821950121
 21
66.70864091089956
 31
0.0
  0
LINE
  5
414
330
1A
100
AcDbEntity
  8
NOKITOI
  6
PHANTOM
 62
     8
 48
5.0
100
AcDbLine
 10
192.5971821950121
 20
66.70864091089956
 30
0.0
 11
126.3665821950122
 21
66.70874091089942
 31
0.0
  0
LINE
  5
415
330
1A
100
AcDbEntity
  8
NOKITOI
  6
PHANTOM
 62
     8
 48
5.0
100
AcDbLine
 10
131.6822821950121
 20
68.00214091089944
 30
0.0
 11
187.2814821950121
 21
68.00204091089941
 31
0.0
  0
LINE
  5
416
330
1A
100
AcDbEntity
  8
NOKITOI
  6
PHANTOM
 62
     8
 48
5.0
100
AcDbLine
 10
116.464982195012
 20
79.83034091089942
 30
0.0
 11
110.5339821950121
 21
108.0002409108995
 31
0.0
  0
LINE
  5
417
330
1A
100
AcDbEntity
  8
NOKITOI
  6
PHANTOM
 62
     8
 48
5.0
100
AcDbLine
 10
115.3563821950121
 20
78.81744091089942
 30
0.0
 11
109.5177821950119
 21
106.5487409108995
 31
0.0
  0
LINE
  5
418
330
1A
100
AcDbEntity
  8
NOKITOI
  6
PHANTOM
 62
     8
 48
5.0
100
AcDbLine
 10
127.041482195012
 20
68.00874091089943
 30
0.0
 11
129.683282195012
 21
68.00874091089943
 31
0.0
  0
LINE
  5
419
330
1A
100
AcDbEntity
  8
NOKITOI
  6
PHANTOM
 62
     8
 48
5.0
100
AcDbLine
 10
129.820982195012
 20
75.39844091089955
 30
0.0
 11
123.6000821950121
 21
75.39844091089955
 31
0.0
  0
LINE
  5
41A
330
1A
100
AcDbEntity
  8
NOKITOI
  6
PHANTOM
 62
     8
 48
5.0
100
AcDbLine
 10
131.4833821950122
 20
76.69844091089956
 30
0.0
 11
121.5726821950122
 21
76.69844091089956
 31
0.0
  0
ARC
  5
41B
330
1A
100
AcDbEntity
  8
NOKITOI
  6
PHANTOM
 62
     8
 48
5.0
100
AcDbCircle
 10
112.596356033803
 20
65.60240080141554
 30
0.0
 40
14.22848866365036
100
AcDbArc
 50
51.52529185494234
 51
71.45345265407179
  0
ARC
  5
41C
330
1A
100
AcDbEntity
  8
NOKITOI
  6
PHANTOM
 62
     8
 48
5.0
100
AcDbCircle
 10
112.5962892647989
 20
65.60243293800573
 30
0.0
 40
12.93471022655885
100
AcDbArc
 50
8.676219579622188
 51
74.45245455808934
  0
ARC
  5
41D
330
1A
100
AcDbEntity
  8
NOKITOI
  6
PHANTOM
 62
     8
 48
5.0
100
AcDbCircle
 10
112.5962873920254
 20
65.60243029513142
 30
0.0
 40
14.23472333170272
100
AcDbArc
 50
11.37541821407346
 51
40.79334907830746
  0
ARC
  5
41E
330
1A
100
AcDbEntity
  8
NOKITOI
  6
PHANTOM
 62
     8
 48
5.0
100
AcDbCircle
 10
127.0415591538839
 20
68.50875977518777
 30
0.0
 40
0.5000188648192144
100
AcDbArc
 50
191.386728855441
 51
270.0026402191978
  0
ARC
  5
41F
330
1A
100
AcDbEntity
  8
NOKITOI
  6
PHANTOM
 62
     8
 48
5.0
100
AcDbCircle
 10
126.3665898090297
 20
67.70373437065552
 30
0.0
 40
0.9949934597852239
100
AcDbArc
 50
188.6761125650601
 51
269.9995615538234
  0
ARC
  5
420
330
1A
100
AcDbEntity
  8
NOKITOI
  6
PHANTOM
 62
     8
 48
5.0
100
AcDbCircle
 10
123.6000858543153
 20
75.09844890277912
 30
0.0
 40
0.2999920081427447
100
AcDbArc
 50
90.00069889403132
 51
220.79672841758
  0
ARC
  5
421
330
1A
100
AcDbEntity
  8
NOKITOI
  6
PHANTOM
 62
     8
 48
5.0
100
AcDbCircle
 10
121.5726855073712
 20
76.89743975511411
 30
0.0
 40
0.1989988442421132
100
AcDbArc
 50
231.5280949042402
 51
269.9990463050545
  0
ARC
  5
422
330
1A
100
AcDbEntity
  8
NOKITOI
  6
PHANTOM
 62
     8
 48
5.0
100
AcDbCircle
 10
117.4386020767835
 20
80.03531857381947
 30
0.0
 40
0.995060928010462
100
AcDbArc
 50
191.8877567214141
 51
251.452486792293
  0
ARC
  5
423
330
1A
100
AcDbEntity
  8
NOKITOI
  6
PHANTOM
 62
     8
 48
5.0
100
AcDbCircle
 10
116.3300222193996
 20
79.02239824667361
 30
0.0
 40
0.9949785960395137
100
AcDbArc
 50
191.8875585738771
 51
254.4495841050101
  0
LINE
  5
424
330
1A
100
AcDbEntity
  8
NOKITOI
  6
PHANTOM
 62
     8
 48
5.0
100
AcDbLine
 10
131.4832821950121
 20
68.20114091089957
 30
0.0
 11
131.4833821950122
 21
76.69844091089956
 31
0.0
  0
LINE
  5
425
330
1A
100
AcDbEntity
  8
NOKITOI
  6
PHANTOM
 62
     8
 48
5.0
100
AcDbLine
 10
130.183282195012
 20
68.50874091089955
 30
0.0
 11
130.183282195012
 21
75.03604091089957
 31
0.0
  0
ARC
  5
426
330
1A
100
AcDbEntity
  8
NOKITOI
  6
PHANTOM
 62
     8
 48
5.0
100
AcDbCircle
 10
129.6832821950119
 20
68.50874091089949
 30
0.0
 40
0.5000000000000569
100
AcDbArc
 50
270.0000000000065
 51
0.0000000000065138
  0
ARC
  5
427
330
1A
100
AcDbEntity
  8
NOKITOI
  6
PHANTOM
 62
     8
 48
5.0
100
AcDbCircle
 10
131.6822821950121
 20
68.20114091089951
 30
0.0
 40
0.1990000000000691
100
AcDbArc
 50
179.9999999999837
 51
269.9999999999837
  0
LINE
  5
428
330
1A
100
AcDbEntity
  8
NOKITOI
  6
PHANTOM
 62
     8
 48
5.0
100
AcDbLine
 10
130.678282195012
 20
75.89334091089941
 30
0.0
 11
129.820982195012
 21
75.39844091089955
 31
0.0
  0
LINE
  5
429
330
1A
100
AcDbEntity
  8
NOKITOI
  6
PHANTOM
 62
     8
 48
5.0
100
AcDbLine
 10
130.678282195012
 20
75.89334091089941
 30
0.0
 11
130.183282195012
 21
75.03604091089957
 31
0.0
  0
LINE
  5
42A
330
1A
100
AcDbEntity
  8
NOKITOI
  6
PHANTOM
 62
     8
 48
5.0
100
AcDbLine
 10
107.4075821950121
 20
111.5064409108995
 30
0.0
 11
107.4075821950121
 21
113.9203409108995
 31
0.0
  0
LINE
  5
42B
330
1A
100
AcDbEntity
  8
NOKITOI
  6
PHANTOM
 62
     8
 48
5.0
100
AcDbLine
 10
103.773382195012
 20
113.9203409108995
 30
0.0
 11
103.773382195012
 21
109.9901409108995
 31
0.0
  0
LINE
  5
42C
330
1A
100
AcDbEntity
  8
NOKITOI
  6
PHANTOM
 62
     8
 48
5.0
100
AcDbLine
 10
108.700982195012
 20
115.7112409108994
 30
0.0
 11
108.700982195012
 21
111.5064409108995
 31
0.0
  0
LINE
  5
42D
330
1A
100
AcDbEntity
  8
NOKITOI
  6
PHANTOM
 62
     8
 48
5.0
100
AcDbLine
 10
102.4798821950121
 20
107.7017409108994
 30
0.0
 11
102.4798821950121
 21
115.7112409108994
 31
0.0
  0
LINE
  5
42E
330
1A
100
AcDbEntity
  8
NOKITOI
  6
PHANTOM
 62
     8
 48
5.0
100
AcDbLine
 10
109.3230821950122
 20
106.7067409108994
 30
0.0
 11
103.4748821950121
 21
106.7067409108994
 31
0.0
  0
ARC
  5
42F
330
1A
100
AcDbEntity
  8
NOKITOI
  6
PHANTOM
 62
     8
 48
5.0
100
AcDbCircle
 10
105.763332195012
 20
109.9901909108996
 30
0.0
 40
1.989950000628206
100
AcDbArc
 50
180.0014396286237
 51
270.0014396286237
  0
ARC
  5
430
330
1A
100
AcDbEntity
  8
NOKITOI
  6
PHANTOM
 62
     8
 48
5.0
100
AcDbCircle
 10
103.4748821950121
 20
107.7017409108994
 30
0.0
 40
0.9950000000000045
100
AcDbArc
 50
180.0
 51
270.0
  0
LINE
  5
431
330
1A
100
AcDbEntity
  8
NOKITOI
  6
PHANTOM
 62
     8
 48
5.0
100
AcDbLine
 10
108.700982195012
 20
111.5064409108995
 30
0.0
 11
107.4075821950121
 21
111.5064409108995
 31
0.0
  0
LINE
  5
432
330
1A
100
AcDbEntity
  8
NOKITOI
  6
PHANTOM
 62
     8
 48
5.0
100
AcDbLine
 10
105.7633821950121
 20
108.0002409108995
 30
0.0
 11
110.5339821950121
 21
108.0002409108995
 31
0.0
  0
ARC
  5
433
330
1A
100
AcDbEntity
  8
NOKITOI
  6
PHANTOM
 62
     8
 48
5.0
100
AcDbCircle
 10
109.3230637523979
 20
106.5077558743362
 30
0.0
 40
0.1989850374177657
100
AcDbArc
 50
11.88631382809341
 51
89.9946896310665
  0
LINE
  5
434
330
1A
100
AcDbEntity
  8
NOKITOI
  6
PHANTOM
 62
     8
 48
5.0
100
AcDbLine
 10
103.4748821950121
 20
116.7062409108995
 30
0.0
 11
107.7060821950121
 21
116.7062409108995
 31
0.0
  0
ARC
  5
435
330
1A
100
AcDbEntity
  8
NOKITOI
  6
PHANTOM
 62
     8
 48
5.0
100
AcDbCircle
 10
105.265832195012
 20
113.9202909108994
 30
0.0
 40
1.49245000083754
100
AcDbArc
 50
89.99808047909004
 51
179.99808047909
  0
ARC
  5
436
330
1A
100
AcDbEntity
  8
NOKITOI
  6
PHANTOM
 62
     8
 48
5.0
100
AcDbCircle
 10
103.4748821950121
 20
115.7112409108994
 30
0.0
 40
0.9950000000000613
100
AcDbArc
 50
90.00000000000325
 51
180.0000000000032
  0
ARC
  5
437
330
1A
100
AcDbEntity
  8
NOKITOI
  6
PHANTOM
 62
     8
 48
5.0
100
AcDbCircle
 10
107.706032195012
 20
115.7112909108995
 30
0.0
 40
0.9949500012563332
100
AcDbArc
 50
359.9971206704047
 51
89.99712067040476
  0
ARC
  5
438
330
1A
100
AcDbEntity
  8
NOKITOI
  6
PHANTOM
 62
     8
 48
5.0
100
AcDbCircle
 10
105.915082195012
 20
113.9203409108995
 30
0.0
 40
1.492399999999918
100
AcDbArc
 50
0.0000000000024427
 51
90.00000000000161
  0
LINE
  5
439
330
1A
100
AcDbEntity
  8
NOKITOI
  6
PHANTOM
 62
     8
 48
5.0
100
AcDbLine
 10
105.915082195012
 20
115.4127409108994
 30
0.0
 11
105.2658821950121
 21
115.4127409108994
 31
0.0
  0
LINE
  5
43A
330
1A
100
AcDbEntity
  8
NOKITOI
  6
PHANTOM
 62
     8
 48
5.0
100
AcDbLine
 10
203.6074821950122
 20
78.81724091089941
 30
0.0
 11
209.4461821950119
 21
106.5486409108994
 31
0.0
  0
LINE
  5
43B
330
1A
100
AcDbEntity
  8
NOKITOI
  6
PHANTOM
 62
     8
 48
5.0
100
AcDbLine
 10
202.4987821950122
 20
79.82974091089957
 30
0.0
 11
207.953782195012
 21
105.7386409108994
 31
0.0
  0
ARC
  5
43C
330
1A
100
AcDbEntity
  8
NOKITOI
  6
PHANTOM
 62
     8
 48
5.0
100
AcDbCircle
 10
206.3673710386912
 20
65.60242832942538
 30
0.0
 40
12.93449408578155
100
AcDbArc
 50
105.5473332353541
 51
171.3240617643018
  0
ARC
  5
43D
330
1A
100
AcDbEntity
  8
NOKITOI
  6
PHANTOM
 62
     8
 48
5.0
100
AcDbCircle
 10
206.3674766616002
 20
65.60233467063412
 30
0.0
 40
12.93461262833301
100
AcDbArc
 50
105.5476727870197
 51
171.3237222126367
  0
ARC
  5
43E
330
1A
100
AcDbEntity
  8
NOKITOI
  6
PHANTOM
 62
     8
 48
5.0
100
AcDbCircle
 10
206.3674406497029
 20
65.6022560463432
 30
0.0
 40
14.23462403148678
100
AcDbArc
 50
139.2075062368998
 51
168.623785948384
  0
LINE
  5
43F
330
1A
100
AcDbEntity
  8
NOKITOI
  6
PHANTOM
 62
     8
 48
5.0
100
AcDbLine
 10
195.3634821950119
 20
75.39804091089942
 30
0.0
 11
189.1428821950121
 21
75.39804091089942
 31
0.0
  0
LINE
  5
440
330
1A
100
AcDbEntity
  8
NOKITOI
  6
PHANTOM
 62
     8
 48
5.0
100
AcDbLine
 10
187.4805821950119
 20
76.69814091089941
 30
0.0
 11
197.461082195012
 21
76.69804091089955
 31
0.0
  0
LINE
  5
441
330
1A
100
AcDbEntity
  8
NOKITOI
  6
PHANTOM
 62
     8
 48
5.0
100
AcDbLine
 10
183.2814821950121
 20
68.00204091089941
 30
0.0
 11
168.527082195012
 21
68.00204091089941
 31
0.0
  0
LINE
  5
442
330
1A
100
AcDbEntity
  8
NOKITOI
  6
PHANTOM
 62
     8
 48
5.0
100
AcDbLine
 10
187.4804821950121
 20
68.20114091089957
 30
0.0
 11
187.4805821950119
 21
76.69814091089941
 31
0.0
  0
LINE
  5
443
330
1A
100
AcDbEntity
  8
NOKITOI
  6
PHANTOM
 62
     8
 48
5.0
100
AcDbLine
 10
188.7805821950122
 20
75.03574091089942
 30
0.0
 11
188.7805821950122
 21
68.50864091089945
 31
0.0
  0
LINE
  5
444
330
1A
100
AcDbEntity
  8
NOKITOI
  6
PHANTOM
 62
     8
 48
5.0
100
AcDbLine
 10
191.9222821950121
 20
68.00864091089957
 30
0.0
 11
189.2805821950121
 21
68.00864091089957
 31
0.0
  0
ARC
  5
445
330
1A
100
AcDbEntity
  8
NOKITOI
  6
PHANTOM
 62
     8
 48
5.0
100
AcDbCircle
 10
189.280582195012
 20
68.50864091089952
 30
0.0
 40
0.4999999999999432
100
AcDbArc
 50
180.0000000000065
 51
270.0000000000065
  0
ARC
  5
446
330
1A
100
AcDbEntity
  8
NOKITOI
  6
PHANTOM
 62
     8
 48
5.0
100
AcDbCircle
 10
187.281432195012
 20
68.2010909108995
 30
0.0
 40
0.1990500062799141
100
AcDbArc
 50
270.0143923080609
 51
0.0143923080609163
  0
ARC
  5
447
330
1A
100
AcDbEntity
  8
NOKITOI
  6
PHANTOM
 62
     8
 48
5.0
100
AcDbCircle
 10
191.9223052361403
 20
68.50865977518776
 30
0.0
 40
0.5000188648190603
100
AcDbArc
 50
269.9973597808037
 51
348.6132711445605
  0
ARC
  5
448
330
1A
100
AcDbEntity
  8
NOKITOI
  6
PHANTOM
 62
     8
 48
5.0
100
AcDbCircle
 10
192.597232123108
 20
67.70368379849816
 30
0.0
 40
0.9950428888512103
100
AcDbArc
 50
269.9971250795227
 51
351.3214426795066
  0
LINE
  5
449
330
1A
100
AcDbEntity
  8
NOKITOI
  6
PHANTOM
 62
     8
 48
5.0
100
AcDbLine
 10
188.2855821950119
 20
75.89304091089942
 30
0.0
 11
189.1428821950121
 21
75.39804091089942
 31
0.0
  0
LINE
  5
44A
330
1A
100
AcDbEntity
  8
NOKITOI
  6
PHANTOM
 62
     8
 48
5.0
100
AcDbLine
 10
188.2855821950119
 20
75.89304091089942
 30
0.0
 11
188.7805821950122
 21
75.03574091089942
 31
0.0
  0
ARC
  5
44B
330
1A
100
AcDbEntity
  8
NOKITOI
  6
PHANTOM
 62
     8
 48
5.0
100
AcDbCircle
 10
206.3674966985607
 20
65.60234883508795
 30
0.0
 40
14.22809199964113
100
AcDbArc
 50
108.5474584936545
 51
128.7537062451649
  0
ARC
  5
44C
330
1A
100
AcDbEntity
  8
NOKITOI
  6
PHANTOM
 62
     8
 48
5.0
100
AcDbCircle
 10
195.3634958728634
 20
75.0980110472056
 30
0.0
 40
0.3000298640056128
100
AcDbArc
 50
319.2190584222774
 51
90.00261201720057
  0
ARC
  5
44D
330
1A
100
AcDbEntity
  8
NOKITOI
  6
PHANTOM
 62
     8
 48
5.0
100
AcDbCircle
 10
201.5252257645632
 20
80.03478986266841
 30
0.0
 40
0.9950135261271753
100
AcDbArc
 50
288.5445751594485
 51
348.1074736523475
  0
ARC
  5
44E
330
1A
100
AcDbEntity
  8
NOKITOI
  6
PHANTOM
 62
     8
 48
5.0
100
AcDbCircle
 10
202.6338565318642
 20
79.02232016228698
 30
0.0
 40
0.9949690575286499
100
AcDbArc
 50
285.5437330810334
 51
348.1110361155297
  0
LINE
  5
44F
330
1A
100
AcDbEntity
  8
NOKITOI
  6
PHANTOM
 62
     8
 48
5.0
100
AcDbLine
 10
215.4890821950121
 20
116.7061409108995
 30
0.0
 11
210.2853821950121
 21
116.7060409108994
 31
0.0
  0
LINE
  5
450
330
1A
100
AcDbEntity
  8
NOKITOI
  6
PHANTOM
 62
     8
 48
5.0
100
AcDbLine
 10
209.640882195012
 20
106.7065409108995
 30
0.0
 11
215.4890821950121
 21
106.7065409108995
 31
0.0
  0
LINE
  5
451
330
1A
100
AcDbEntity
  8
NOKITOI
  6
PHANTOM
 62
     8
 48
5.0
100
AcDbLine
 10
215.1840821950122
 20
108.0065409108994
 30
0.0
 11
209.7597821950121
 21
108.0066409108994
 31
0.0
  0
LINE
  5
452
330
1A
100
AcDbEntity
  8
NOKITOI
  6
PHANTOM
 62
     8
 48
5.0
100
AcDbLine
 10
211.3176821950119
 20
115.4060409108995
 30
0.0
 11
209.7597821950121
 21
108.0066409108994
 31
0.0
  0
LINE
  5
453
330
1A
100
AcDbEntity
  8
NOKITOI
  6
PHANTOM
 62
     8
 48
5.0
100
AcDbLine
 10
207.953782195012
 20
105.7386409108994
 30
0.0
 11
210.2628821950119
 21
116.7060409108994
 31
0.0
  0
ARC
  5
454
330
1A
100
AcDbEntity
  8
NOKITOI
  6
PHANTOM
 62
     8
 48
5.0
100
AcDbCircle
 10
209.6409006376263
 20
106.5076558743362
 30
0.0
 40
0.1989850374179911
100
AcDbArc
 50
90.00531036897097
 51
168.1136861719429
  0
LINE
  5
455
330
1A
100
AcDbEntity
  8
NOKITOI
  6
PHANTOM
 62
     8
 48
5.0
100
AcDbLine
 10
215.1840821950122
 20
108.0065409108994
 30
0.0
 11
215.1840821950122
 21
115.4060409108995
 31
0.0
  0
LINE
  5
456
330
1A
100
AcDbEntity
  8
NOKITOI
  6
PHANTOM
 62
     8
 48
5.0
100
AcDbLine
 10
216.4840821950121
 20
107.7015409108994
 30
0.0
 11
216.4840821950121
 21
115.7111409108994
 31
0.0
  0
ARC
  5
457
330
1A
100
AcDbEntity
  8
NOKITOI
  6
PHANTOM
 62
     8
 48
5.0
100
AcDbCircle
 10
215.4890821950122
 20
107.7015409108994
 30
0.0
 40
0.9949999999999192
100
AcDbArc
 50
269.9999999999951
 51
359.9999999999951
  0
LINE
  5
458
330
1A
100
AcDbEntity
  8
NOKITOI
  6
PHANTOM
 62
     8
 48
5.0
100
AcDbLine
 10
215.1840821950122
 20
115.4060409108995
 30
0.0
 11
211.3176821950119
 21
115.4060409108995
 31
0.0
  0
ARC
  5
459
330
1A
100
AcDbEntity
  8
NOKITOI
  6
PHANTOM
 62
     8
 48
5.0
100
AcDbCircle
 10
215.4890821950121
 20
115.7111409108995
 30
0.0
 40
0.9950000000000613
100
AcDbArc
 50
359.9999999999967
 51
89.99999999999674
  0
ELLIPSE
  5
45F
330
1A
100
AcDbEntity
  8
SEIHIN
  6
CONTINUOUS
 62
     3
100
AcDbEllipse
 10
228.4525399799988
 20
240.0813340830894
 30
0.0
 11
-0.0000008586227076
 21
-1.528449523356075
 31
0.0
210
0.0
220
0.0
230
1.0
 40
0.4466666666663274
 41
3.141592904509525
 42
6.283185558099319
  0
ELLIPSE
  5
460
330
1A
100
AcDbEntity
  8
SEIHIN
  6
CONTINUOUS
 62
     3
100
AcDbEllipse
 10
232.2760697606427
 20
214.0815021364756
 30
0.0
 11
-0.0000011376766044
 21
2.025198176028001
 31
0.0
210
0.0
220
0.0
230
-1.0
 40
0.4463414898625748
 41
0.5180240757174213
 42
2.623630696993638
  0
ELLIPSE
  5
461
330
1A
100
AcDbEntity
  8
SEIHIN
  6
CONTINUOUS
 62
     3
100
AcDbEllipse
 10
233.1705375523343
 20
214.0814403956314
 30
0.0
 11
-0.0000011372584729
 21
2.024453852710011
 31
0.0
210
0.0
220
0.0
230
-1.0
 40
0.4463414898625748
 41
3.141545122358066
 42
9.424730429537651
  0
LINE
  5
462
330
1A
100
AcDbEntity
  8
CENTER_L
  6
CENTER
 62
     1
 48
5.0
100
AcDbLine
 10
235.768282195012
 20
214.0814409108994
 30
0.0
 11
231.034382195012
 21
214.0814409108994
 31
0.0
  0
LINE
  5
463
330
1A
100
AcDbEntity
  8
CENTER_L
  6
CENTER
 62
     1
 48
5.0
100
AcDbLine
 10
233.170582195012
 20
210.6962409108994
 30
0.0
 11
233.170582195012
 21
217.9296409108993
 31
0.0
  0
ELLIPSE
  5
464
330
1A
100
AcDbEntity
  8
SEIHIN
  6
CONTINUOUS
 62
     3
100
AcDbEllipse
 10
235.4066230651104
 20
230.5814374889155
 30
0.0
 11
-0.0000022446405592
 21
3.995726121468982
 31
0.0
210
0.0
220
0.0
230
-1.0
 40
0.4474999301672538
 41
1.570795722715059
 42
3.141560875422462
  0
ELLIPSE
  5
465
330
1A
100
AcDbEntity
  8
SEIHIN
  6
CONTINUOUS
 62
     3
100
AcDbEllipse
 10
228.4525399799988
 20
221.0815477387093
 30
0.0
 11
-0.0000008586227076
 21
1.528449523356075
 31
0.0
210
0.0
220
0.0
230
-1.0
 40
0.4466666666663274
 41
3.141592904509525
 42
6.283185558099319
  0
ELLIPSE
  5
466
330
1A
100
AcDbEntity
  8
SEIHIN
  6
CONTINUOUS
 62
     3
100
AcDbEllipse
 10
231.5829399799989
 20
221.0815477387093
 30
0.0
 11
-0.0000008586227076
 21
1.528449523356075
 31
0.0
210
0.0
220
0.0
230
-1.0
 40
0.4466666666663274
 41
0.000000250919733
 42
3.141592904509525
  0
LINE
  5
467
330
1A
100
AcDbEntity
  8
SEIHIN
  6
CONTINUOUS
 62
     3
100
AcDbLine
 10
231.5829392926809
 20
222.6099972620654
 30
0.0
 11
228.4525391213761
 21
222.6099972620654
 31
0.0
  0
LINE
  5
468
330
1A
100
AcDbEntity
  8
SEIHIN
  6
CONTINUOUS
 62
     3
100
AcDbLine
 10
231.5829408386215
 20
219.5530982153532
 30
0.0
 11
228.4525408386215
 21
219.5530982153532
 31
0.0
  0
DIMENSION
  5
469
330
1A
100
AcDbEntity
  8
SUNPOU
100
AcDbDimension
  2
*D1
 10
271.2232066431955
 20
96.96914323096876
 30
0.0
 11
262.9498038891075
 21
119.1062227896396
 31
0.0
 70
    33
  3
STANDARD
100
AcDbAlignedDimension
 13
226.0151363017683
 23
126.9127409108994
 33
0.0
 14
247.034082195012
 24
84.87464091089941
 34
0.0
1001
ACAD
1000
DSTYLE
1002
{
1070
    41
1040
3.0
1070
    42
1040
3.0
1070
    43
1040
7.0
1070
    44
1040
1.5
1070
    73
1070
     0
1070
    74
1070
     0
1070
    77
1070
     3
1070
   140
1040
3.0
1070
   141
1040
150.0
1070
   147
1040
1.0
1070
   172
1070
     1
1070
   173
1070
     1
1070
   176
1070
     4
1070
   177
1070
     4
1070
   178
1070
     4
1070
   271
1070
     0
1070
   272
1070
     2
1070
   341
1005
B2
1070
     6
1000
OPEN
1070
     7
1000
OPEN
1002
}
  0
DIMENSION
  5
477
330
1A
100
AcDbEntity
  8
SUNPOU
100
AcDbDimension
  2
*D2
 10
254.6730339767464
 20
69.59673734743046
 30
0.0
 11
263.1700922912457
 21
76.64035147655479
 31
0.0
 70
    33
  1
t<>
  3
STANDARD
100
AcDbAlignedDimension
 13
246.139682195012
 23
84.4274409108994
 33
0.0
 14
247.034082195012
 24
84.87464091089941
 34
0.0
1001
ACAD
1000
DSTYLE
1002
{
1070
    41
1040
3.0
1070
    42
1040
3.0
1070
    43
1040
7.0
1070
    44
1040
1.5
1070
    73
1070
     0
1070
    74
1070
     0
1070
    77
1070
     3
1070
   140
1040
3.0
1070
   141
1040
150.0
1070
   147
1040
1.0
1070
   172
1070
     1
1070
   173
1070
     1
1070
   176
1070
     4
1070
   177
1070
     4
1070
   178
1070
     4
1070
   271
1070
     1
1070
   272
1070
     2
1070
   341
1005
B2
1070
     6
1000
OPEN
1070
     7
1000
OPEN
1002
}
  0
DIMENSION
  5
49C
330
1A
100
AcDbEntity
  8
SUNPOU
100
AcDbDimension
  2
*D3
 10
226.0151363017683
 20
150.416526537848
 30
0.0
 11
213.5151386601549
 21
152.916526537848
 31
0.0
 70
    32
  3
STANDARD
100
AcDbAlignedDimension
 13
201.0151410185414
 23
126.9127409108994
 33
0.0
 14
226.0151363017683
 24
126.9127409108994
 34
0.0
100
AcDbRotatedDimension
1001
ACAD
1000
DSTYLE
1002
{
1070
    41
1040
3.0
1070
    42
1040
3.0
1070
    43
1040
7.0
1070
    44
1040
1.5
1070
    73
1070
     0
1070
    74
1070
     0
1070
    77
1070
     3
1070
   140
1040
3.0
1070
   141
1040
150.0
1070
   147
1040
1.0
1070
   172
1070
     1
1070
   173
1070
     1
1070
   176
1070
     4
1070
   177
1070
     4
1070
   178
1070
     4
1070
   271
1070
     0
1070
   272
1070
     2
1070
   341
1005
B2
1070
     6
1000
OPEN
1070
     7
1000
OPEN
1002
}
  0
DIMENSION
  5
4B6
330
1A
100
AcDbEntity
  8
SUNPOU
100
AcDbDimension
  2
*D4
 10
105.015182195012
 20
159.0954768124922
 30
0.0
 11
165.5151592483901
 21
161.5954768124922
 31
0.0
 70
    32
  3
STANDARD
100
AcDbAlignedDimension
 13
226.0151363017683
 23
126.9127409108994
 33
0.0
 14
105.015182195012
 24
115.3915426169307
 34
0.0
100
AcDbRotatedDimension
1001
ACAD
1000
DSTYLE
1002
{
1070
    41
1040
3.0
1070
    42
1040
3.0
1070
    43
1040
7.0
1070
    44
1040
1.5
1070
    73
1070
     0
1070
    74
1070
     0
1070
    77
1070
     3
1070
   140
1040
3.0
1070
   141
1040
150.0
1070
   147
1040
1.0
1070
   172
1070
     1
1070
   173
1070
     1
1070
   176
1070
     4
1070
   177
1070
     4
1070
   178
1070
     4
1070
   271
1070
     0
1070
   272
1070
     2
1070
   341
1005
B2
1070
     6
1000
OPEN
1070
     7
1000
OPEN
1002
}
  0
DIMENSION
  5
4C4
330
1A
100
AcDbEntity
  8
SUNPOU
100
AcDbDimension
  2
*D5
 10
75.70007217210605
 20
115.4127409108994
 30
0.0
 11
73.20007217210601
 21
100.1436909108994
 31
0.0
 70
    32
  3
STANDARD
100
AcDbAlignedDimension
 13
247.034082195012
 23
84.87464091089941
 33
0.0
 14
105.015182195012
 24
115.4127409108994
 34
0.0
 50
90.0
100
AcDbRotatedDimension
1001
ACAD
1000
DSTYLE
1002
{
1070
    41
1040
3.0
1070
    42
1040
3.0
1070
    43
1040
7.0
1070
    44
1040
1.5
1070
    73
1070
     0
1070
    74
1070
     0
1070
    77
1070
     3
1070
   140
1040
3.0
1070
   141
1040
150.0
1070
   147
1040
1.0
1070
   172
1070
     1
1070
   173
1070
     1
1070
   176
1070
     4
1070
   177
1070
     4
1070
   178
1070
     4
1070
   271
1070
     0
1070
   272
1070
     2
1070
   341
1005
B2
1070
     6
1000
OPEN
1070
     7
1000
OPEN
1002
}
  0
DIMENSION
  5
4D1
330
1A
100
AcDbEntity
  8
SUNPOU
100
AcDbDimension
  2
*D6
 10
84.31445154730999
 20
110.4127409108994
 30
0.0
 11
81.81445154730997
 21
112.9127409108994
 31
0.0
 70
    32
  3
STANDARD
100
AcDbAlignedDimension
 13
105.015182195012
 23
115.4127409108994
 33
0.0
 14
106.415082195012
 24
110.4127409108994
 34
0.0
 50
90.0
100
AcDbRotatedDimension
1001
ACAD
1000
DSTYLE
1002
{
1070
    41
1040
3.0
1070
    42
1040
3.0
1070
    43
1040
7.0
1070
    44
1040
1.5
1070
    73
1070
     0
1070
    74
1070
     0
1070
    77
1070
     3
1070
   140
1040
3.0
1070
   141
1040
150.0
1070
   147
1040
1.0
1070
   172
1070
     1
1070
   173
1070
     1
1070
   176
1070
     4
1070
   177
1070
     4
1070
   178
1070
     4
1070
   271
1070
     0
1070
   272
1070
     2
1070
   341
1005
B2
1070
     6
1000
OPEN
1070
     7
1000
OPEN
1002
}
  0
DIMENSION
  5
4E0
330
1A
100
AcDbEntity
  8
SUNPOU
100
AcDbDimension
  2
*D7
 10
179.0726090146522
 20
106.9127409108994
 30
0.0
 11
176.5726090146522
 21
116.9127409108994
 31
0.0
 70
    32
  3
STANDARD
100
AcDbAlignedDimension
 13
201.0151410185414
 23
126.9127409108994
 33
0.0
 14
169.468082195012
 24
106.9127409108994
 34
0.0
 50
90.0
100
AcDbRotatedDimension
1001
ACAD
1000
DSTYLE
1002
{
1070
    41
1040
3.0
1070
    42
1040
3.0
1070
    43
1040
7.0
1070
    44
1040
1.5
1070
    73
1070
     0
1070
    74
1070
     0
1070
    77
1070
     3
1070
   140
1040
3.0
1070
   141
1040
150.0
1070
   147
1040
1.0
1070
   172
1070
     1
1070
   173
1070
     1
1070
   176
1070
     4
1070
   177
1070
     4
1070
   178
1070
     4
1070
   271
1070
     0
1070
   272
1070
     2
1070
   341
1005
B2
1070
     6
1000
OPEN
1070
     7
1000
OPEN
1002
}
  0
DIMENSION
  5
4F6
330
1A
100
AcDbEntity
  8
SUNPOU
100
AcDbDimension
  2
*D8
 10
216.4840821950121
 20
141.3072156721461
 30
0.0
 11
221.2496092483902
 21
143.8072156721461
 31
0.0
 70
    32
  3
STANDARD
100
AcDbAlignedDimension
 13
226.0151363017683
 23
126.9127409108994
 33
0.0
 14
216.4840821950121
 24
115.7111409108994
 34
0.0
100
AcDbRotatedDimension
1001
ACAD
1000
DSTYLE
1002
{
1070
    41
1040
3.0
1070
    42
1040
3.0
1070
    43
1040
7.0
1070
    44
1040
1.5
1070
    73
1070
     0
1070
    74
1070
     0
1070
    77
1070
     3
1070
   140
1040
3.0
1070
   141
1040
150.0
1070
   147
1040
1.0
1070
   172
1070
     1
1070
   173
1070
     1
1070
   176
1070
     4
1070
   177
1070
     4
1070
   178
1070
     4
1070
   271
1070
     0
1070
   272
1070
     2
1070
   341
1005
B2
1070
     6
1000
OPEN
1070
     7
1000
OPEN
1002
}
  0
DIMENSION
  5
504
330
1A
100
AcDbEntity
  8
SUNPOU
100
AcDbDimension
  2
*D9
 10
283.71886036297
 20
137.8759299948783
 30
0.0
 11
282.377204806885
 21
146.1494110507977
 31
0.0
 70
    33
  3
STANDARD
100
AcDbAlignedDimension
 13
291.5862351278425
 23
159.6982350452382
 33
0.0
 14
298.741682195012
 24
145.3873409108994
 34
0.0
1001
ACAD
1000
DSTYLE
1002
{
1070
    41
1040
3.0
1070
    42
1040
3.0
1070
    43
1040
7.0
1070
    44
1040
1.5
1070
    73
1070
     0
1070
    74
1070
     0
1070
    77
1070
     3
1070
   140
1040
3.0
1070
   141
1040
150.0
1070
   147
1040
1.0
1070
   172
1070
     1
1070
   173
1070
     1
1070
   176
1070
     4
1070
   177
1070
     4
1070
   178
1070
     4
1070
   271
1070
     0
1070
   272
1070
     2
1070
   341
1005
B2
1070
     6
1000
OPEN
1070
     7
1000
OPEN
1002
}
  0
DIMENSION
  5
523
330
1A
100
AcDbEntity
  8
SUNPOU
100
AcDbDimension
  2
*D10
 10
315.499105858308
 20
119.1069522877936
 30
0.0
 11
316.3935237448569
 21
122.9082864584472
 31
0.0
 70
    33
  3
STANDARD
100
AcDbAlignedDimension
 13
328.484782195012
 23
132.3080409108994
 33
0.0
 14
331.1680823769143
 24
126.9414405470907
 34
0.0
1001
ACAD
1000
DSTYLE
1002
{
1070
    41
1040
3.0
1070
    42
1040
3.0
1070
    43
1040
7.0
1070
    44
1040
1.5
1070
    73
1070
     0
1070
    74
1070
     0
1070
    77
1070
     3
1070
   140
1040
3.0
1070
   141
1040
150.0
1070
   147
1040
1.0
1070
   172
1070
     1
1070
   173
1070
     1
1070
   176
1070
     4
1070
   177
1070
     4
1070
   178
1070
     4
1070
   271
1070
     0
1070
   272
1070
     2
1070
   341
1005
B2
1070
     6
1000
OPEN
1070
     7
1000
OPEN
1002
}
  0
DIMENSION
  5
532
330
1A
100
AcDbEntity
  8
SUNPOU
100
AcDbDimension
  2
*D11
 10
289.9494890412595
 20
106.3322419295933
 30
0.0
 11
281.6760590554595
 21
128.4693718449346
 31
0.0
 70
    33
  3
STANDARD
100
AcDbAlignedDimension
 13
310.149082195012
 23
168.9796409108994
 33
0.0
 14
331.1680823769143
 24
126.9414405470907
 34
0.0
1001
ACAD
1000
DSTYLE
1002
{
1070
    41
1040
3.0
1070
    42
1040
3.0
1070
    43
1040
7.0
1070
    44
1040
1.5
1070
    73
1070
     0
1070
    74
1070
     0
1070
    77
1070
     3
1070
   140
1040
3.0
1070
   141
1040
150.0
1070
   147
1040
1.0
1070
   172
1070
     1
1070
   173
1070
     1
1070
   176
1070
     4
1070
   177
1070
     4
1070
   178
1070
     4
1070
   271
1070
     0
1070
   272
1070
     2
1070
   341
1005
B2
1070
     6
1000
OPEN
1070
     7
1000
OPEN
1002
}
  0
DIMENSION
  5
53F
330
1A
100
AcDbEntity
  8
SUNPOU
100
AcDbDimension
  2
*D12
 10
318.2304340504771
 20
186.3581630691757
 30
0.0
 11
303.6959302466299
 21
181.8860516948949
 31
0.0
 70
    33
  3
STANDARD
100
AcDbAlignedDimension
 13
296.7326271946206
 23
162.2714134107037
 33
0.0
 14
323.565581639651
 24
175.6877795216522
 34
0.0
1001
ACAD
1000
DSTYLE
1002
{
1070
    41
1040
3.0
1070
    42
1040
3.0
1070
    43
1040
7.0
1070
    44
1040
1.5
1070
    73
1070
     0
1070
    74
1070
     0
1070
    77
1070
     3
1070
   140
1040
3.0
1070
   141
1040
150.0
1070
   147
1040
1.0
1070
   172
1070
     1
1070
   173
1070
     1
1070
   176
1070
     4
1070
   177
1070
     4
1070
   178
1070
     4
1070
   271
1070
     0
1070
   272
1070
     2
1070
   341
1005
B2
1070
     6
1000
OPEN
1070
     7
1000
OPEN
1002
}
  0
DIMENSION
  5
54C
330
1A
100
AcDbEntity
  8
SUNPOU
100
AcDbDimension
  2
*D13
 10
316.1401664302014
 20
193.8928658422793
 30
0.0
 11
300.2640385020488
 21
188.7499368500675
 31
0.0
 70
    33
  3
STANDARD
100
AcDbAlignedDimension
 13
300.895082195012
 23
150.5924409108994
 33
0.0
 14
330.411282195012
 24
165.3504409108994
 34
0.0
1001
ACAD
1000
DSTYLE
1002
{
1070
    41
1040
3.0
1070
    42
1040
3.0
1070
    43
1040
7.0
1070
    44
1040
1.5
1070
    73
1070
     0
1070
    74
1070
     0
1070
    77
1070
     3
1070
   140
1040
3.0
1070
   141
1040
150.0
1070
   147
1040
1.0
1070
   172
1070
     1
1070
   173
1070
     1
1070
   176
1070
     4
1070
   177
1070
     4
1070
   178
1070
     4
1070
   271
1070
     0
1070
   272
1070
     2
1070
   341
1005
B2
1070
     6
1000
OPEN
1070
     7
1000
OPEN
1002
}
  0
DIMENSION
  5
559
330
1A
100
AcDbEntity
  8
SUNPOU
100
AcDbDimension
  2
*D14
 10
318.2782992510765
 20
203.0328886268956
 30
0.0
 11
297.0356174845463
 21
195.2066577155039
 31
0.0
 70
    33
  3
STANDARD
100
AcDbAlignedDimension
 13
294.496582195012
 23
149.9730409108994
 33
0.0
 14
334.745882195012
 24
170.0976409108994
 34
0.0
1001
ACAD
1000
DSTYLE
1002
{
1070
    41
1040
3.0
1070
    42
1040
3.0
1070
    43
1040
7.0
1070
    44
1040
1.5
1070
    73
1070
     0
1070
    74
1070
     0
1070
    77
1070
     3
1070
   140
1040
3.0
1070
   141
1040
150.0
1070
   147
1040
1.0
1070
   172
1070
     1
1070
   173
1070
     1
1070
   176
1070
     4
1070
   177
1070
     4
1070
   178
1070
     4
1070
   271
1070
     0
1070
   272
1070
     2
1070
   341
1005
B2
1070
     6
1000
OPEN
1070
     7
1000
OPEN
1002
}
  0
DIMENSION
  5
56B
330
1A
100
AcDbEntity
  8
SUNPOU
100
AcDbDimension
  2
*D15
 10
84.31445154731003
 20
224.0814409108994
 30
0.0
 11
81.81445154730999
 21
230.5814409108994
 31
0.0
 70
    32
  3
STANDARD
100
AcDbAlignedDimension
 13
109.415182195012
 23
237.0814409108993
 33
0.0
 14
109.415182195012
 24
224.0814409108994
 34
0.0
 50
90.0
100
AcDbRotatedDimension
1001
ACAD
1000
DSTYLE
1002
{
1070
    41
1040
3.0
1070
    42
1040
3.0
1070
    43
1040
7.0
1070
    44
1040
1.5
1070
    73
1070
     0
1070
    74
1070
     0
1070
    77
1070
     3
1070
   140
1040
3.0
1070
   141
1040
150.0
1070
   147
1040
1.0
1070
   172
1070
     1
1070
   173
1070
     1
1070
   176
1070
     4
1070
   177
1070
     4
1070
   178
1070
     4
1070
   271
1070
     0
1070
   272
1070
     2
1070
   341
1005
B2
1070
     6
1000
OPEN
1070
     7
1000
OPEN
1002
}
  0
DIMENSION
  5
578
330
1A
100
AcDbEntity
  8
SUNPOU
100
AcDbDimension
  2
*D16
 10
75.70007217210608
 20
220.5814409108993
 30
0.0
 11
73.20007217210605
 21
230.5814409108994
 31
0.0
 70
    32
  3
STANDARD
100
AcDbAlignedDimension
 13
105.015182195012
 23
240.5814409108994
 33
0.0
 14
105.015182195012
 24
220.5814409108993
 34
0.0
 50
90.0
100
AcDbRotatedDimension
1001
ACAD
1000
DSTYLE
1002
{
1070
    41
1040
3.0
1070
    42
1040
3.0
1070
    43
1040
7.0
1070
    44
1040
1.5
1070
    73
1070
     0
1070
    74
1070
     0
1070
    77
1070
     3
1070
   140
1040
3.0
1070
   141
1040
150.0
1070
   147
1040
1.0
1070
   172
1070
     1
1070
   173
1070
     1
1070
   176
1070
     4
1070
   177
1070
     4
1070
   178
1070
     4
1070
   271
1070
     0
1070
   272
1070
     2
1070
   341
1005
B2
1070
     6
1000
OPEN
1070
     7
1000
OPEN
1002
}
  0
DIMENSION
  5
585
330
1A
100
AcDbEntity
  8
SUNPOU
100
AcDbDimension
  2
*D17
 10
264.6850809371328
 20
214.0814409108994
 30
0.0
 11
262.1850809371327
 21
230.5814409108994
 31
0.0
 70
    32
  3
STANDARD
100
AcDbAlignedDimension
 13
235.768282195012
 23
247.0814409108994
 33
0.0
 14
235.768282195012
 24
214.0814409108994
 34
0.0
 50
90.0
100
AcDbRotatedDimension
1001
ACAD
1000
DSTYLE
1002
{
1070
    41
1040
3.0
1070
    42
1040
3.0
1070
    43
1040
7.0
1070
    44
1040
1.5
1070
    73
1070
     0
1070
    74
1070
     0
1070
    77
1070
     3
1070
   140
1040
3.0
1070
   141
1040
150.0
1070
   147
1040
1.0
1070
   172
1070
     1
1070
   173
1070
     1
1070
   176
1070
     4
1070
   177
1070
     4
1070
   178
1070
     4
1070
   271
1070
     0
1070
   272
1070
     2
1070
   341
1005
B2
1070
     6
1000
OPEN
1070
     7
1000
OPEN
1002
}
  0
DIMENSION
  5
592
330
1A
100
AcDbEntity
  8
SUNPOU
100
AcDbDimension
  2
*D18
 10
274.6679064260481
 20
208.0814409108993
 30
0.0
 11
272.167906426048
 21
230.5814409108994
 31
0.0
 70
    32
  3
STANDARD
100
AcDbAlignedDimension
 13
234.959382195012
 23
253.0814409108994
 33
0.0
 14
234.959382195012
 24
208.0814409108993
 34
0.0
 50
90.0
100
AcDbRotatedDimension
1001
ACAD
1000
DSTYLE
1002
{
1070
    41
1040
3.0
1070
    42
1040
3.0
1070
    43
1040
7.0
1070
    44
1040
1.5
1070
    73
1070
     0
1070
    74
1070
     0
1070
    77
1070
     3
1070
   140
1040
3.0
1070
   141
1040
150.0
1070
   147
1040
1.0
1070
   172
1070
     1
1070
   173
1070
     1
1070
   176
1070
     4
1070
   177
1070
     4
1070
   178
1070
     4
1070
   271
1070
     0
1070
   272
1070
     2
1070
   341
1005
B2
1070
     6
1000
OPEN
1070
     7
1000
OPEN
1002
}
  0
LEADER
  5
59F
330
1A
100
AcDbEntity
  8
SUNPOU
100
AcDbLeader
  3
STANDARD
 40
3.0
 41
15.59999999999999
 76
     3
 10
300.7864422433963
 20
147.9491877823476
 30
0.0
 10
277.5715908332078
 20
167.4267436019364
 30
0.0
 10
257.2216961608364
 20
167.4267436019364
 30
0.0
213
0.0
223
1.5
233
0.0
1001
ACAD
1000
DSTYLE
1002
{
1070
     6
1000
OPEN
1070
    41
1040
3.0
1070
    42
1040
3.0
1070
    43
1040
7.0
1070
    44
1040
1.5
1070
    73
1070
     0
1070
    74
1070
     0
1070
    77
1070
     0
1070
   140
1040
3.0
1070
   141
1040
150.0
1070
   147
1040
1.0
1070
   172
1070
     1
1070
   173
1070
     1
1070
   176
1070
     4
1070
   177
1070
     4
1070
   178
1070
     4
1070
   271
1070
     0
1070
   272
1070
     2
1070
   341
1005
B2
1070
   343
1005
B2
1070
   344
1005
B2
1002
}
  0
MTEXT
  5
5A7
330
1A
100
AcDbEntity
  8
SUNPOU
 62
     4
100
AcDbMText
 10
274.2516877682557
 20
168.3060072713443
 30
0.0
 40
3.0
 41
0.0
 71
     9
 72
     5
  1
\A1;3-φ4.2
1001
ACAD
1000
MTEXTBEGIN
1070
    73
1070
     1
1070
    44
1040
1.0
1070
    74
1070
     0
1000
MTEXTEND
1000
MTEXTBEGIN
1070
    73
1070
     1
1070
    44
1040
1.0
1070
    74
1070
     0
1000
MTEXTEND
1000
MTEXTBEGIN
1070
    73
1070
     1
1070
    44
1040
1.0
1070
    74
1070
     0
1000
MTEXTEND
  0
LWPOLYLINE
  5
8D2
330
1A
100
AcDbEntity
  8
ZUWAKU
100
AcDbPolyline
 90
        4
 70
     1
 43
0.0
 10
0.4000000601703278
 20
275.4000001794725
 10
0.4000000601703278
 20
0.4000001794725563
 10
398.4000000601703
 20
0.4000001794725563
 10
398.4000000601703
 20
275.4000001794725
  0
LWPOLYLINE
  5
8D3
330
1A
100
AcDbEntity
  8
ZUWAKU
100
AcDbPolyline
 90
        4
 70
     1
 43
0.0
 10
0.2000000601703391
 20
275.6000001794725
 10
0.2000000601703391
 20
0.2000001794725676
 10
398.6000000601703
 20
0.2000001794725561
 10
398.6000000601703
 20
275.6000001794725
  0
LWPOLYLINE
  5
8D4
330
1A
100
AcDbEntity
  8
ZUWAKU
100
AcDbPolyline
 90
        4
 70
     1
 43
0.0
 10
0.0000000601703505
 20
275.8000001794725
 10
0.0000000601703505
 20
0.0000001794725222
 10
398.8000000601704
 20
0.0000001794725559
 10
398.8000000601704
 20
275.8000001794726
  0
LWPOLYLINE
  5
8D5
330
1A
100
AcDbEntity
  8
ZUWAKU
100
AcDbPolyline
 90
        4
 70
     1
 43
0.0
 10
0.300000060170305
 20
275.5000001794726
 10
0.300000060170305
 20
0.3000001794725335
 10
398.5000000601704
 20
0.3000001794725566
 10
398.5000000601703
 20
275.5000001794726
  0
LWPOLYLINE
  5
8D6
330
1A
100
AcDbEntity
  8
ZUWAKU
100
AcDbPolyline
 90
        4
 70
     1
 43
0.0
 10
0.1000000601703164
 20
275.7000001794725
 10
0.1000000601703164
 20
0.1000001794725449
 10
398.7000000601702
 20
0.1000001794725565
 10
398.7000000601704
 20
275.7000001794725
  0
LINE
  5
8D7
330
1A
100
AcDbEntity
  8
ZUWAKU
100
AcDbLine
 10
0.0000000601703505
 20
15.00000017947252
 30
0.0
 11
398.7000000601702
 21
15.00000017947252
 31
0.0
  0
LINE
  5
8D8
330
1A
100
AcDbEntity
  8
ZUWAKU
100
AcDbLine
 10
0.0000000601703505
 20
15.10000017947252
 30
0.0
 11
398.7000000601702
 21
15.10000017947252
 31
0.0
  0
LINE
  5
8D9
330
1A
100
AcDbEntity
  8
ZUWAKU
100
AcDbLine
 10
0.0000000601703505
 20
15.20000017947252
 30
0.0
 11
398.7000000601702
 21
15.20000017947252
 31
0.0
  0
LINE
  5
8DA
330
1A
100
AcDbEntity
  8
ZUWAKU
100
AcDbLine
 10
0.0000000601703505
 20
15.30000017947252
 30
0.0
 11
398.7000000601702
 21
15.30000017947252
 31
0.0
  0
LINE
  5
8DB
330
1A
100
AcDbEntity
  8
ZUWAKU
100
AcDbLine
 10
0.0000000601703505
 20
15.40000017947252
 30
0.0
 11
398.7000000601702
 21
15.40000017947252
 31
0.0
  0
LINE
  5
8DC
330
1A
100
AcDbEntity
  8
ZUWAKU
100
AcDbLine
 10
104.3233007052043
 20
7.700000179472539
 30
0.0
 11
223.712182045666
 21
7.700000179472539
 31
0.0
  0
LINE
  5
8DD
330
1A
100
AcDbEntity
  8
ZUWAKU
100
AcDbLine
 10
104.3233007052043
 20
7.800000179472538
 30
0.0
 11
223.712182045666
 21
7.800000179472542
 31
0.0
  0
LINE
  5
8DE
330
1A
100
AcDbEntity
  8
ZUWAKU
100
AcDbLine
 10
104.3233007052043
 20
7.600000179472541
 30
0.0
 11
223.712182045666
 21
7.600000179472537
 31
0.0
  0
CIRCLE
  5
8DF
330
1A
100
AcDbEntity
  8
ZUWAKU
100
AcDbCircle
 10
12.9961061375609
 20
7.600000179472523
 30
0.0
 40
0.875
  0
LINE
  5
8E0
330
1A
100
AcDbEntity
  8
ZUWAKU
100
AcDbLine
 10
13.4336061375609
 20
3.575000179472525
 30
0.0
 11
12.47110613756092
 21
3.575000179472525
 31
0.0
  0
LINE
  5
8E1
330
1A
100
AcDbEntity
  8
ZUWAKU
100
AcDbLine
 10
12.47110613756092
 20
4.975000179472523
 30
0.0
 11
13.4336061375609
 21
4.975000179472523
 31
0.0
  0
LINE
  5
8E2
330
1A
100
AcDbEntity
  8
ZUWAKU
100
AcDbLine
 10
13.4336061375609
 20
10.22500017947252
 30
0.0
 11
12.47110613756092
 21
10.22500017947252
 31
0.0
  0
LINE
  5
8E3
330
1A
100
AcDbEntity
  8
ZUWAKU
100
AcDbLine
 10
12.47110613756092
 20
11.6250001794725
 30
0.0
 11
13.4336061375609
 21
11.62500017947252
 31
0.0
  0
HATCH
  5
8E4
330
1A
100
AcDbEntity
  8
ZUWAKU
100
AcDbHatch
 10
0.0
 20
0.0
 30
0.0
210
0.0
220
0.0
230
1.0
  2
ANSI37
 70
     0
 71
     0
 91
        8
 92
        7
 72
     1
 73
     1
 93
       24
 10
7.251131390730279
 20
8.822424419964313
 42
-0.1989123673796348
 10
7.046106137560911
 20
9.317399166794839
 42
0.0
 10
7.046106137560911
 20
9.962500179472527
 42
-0.4142135623730912
 10
7.3086061375609
 20
10.22500017947252
 42
0.0
 10
8.796106137560855
 20
10.22500017947252
 42
0.4142135623731546
 10
9.0586061375609
 20
10.48750017947251
 42
0.0
 10
9.0586061375609
 20
11.36250017947252
 42
0.4142135623731586
 10
8.796106137560855
 20
11.62500017947252
 42
0.0
 10
7.046106137560911
 20
11.62500017947252
 42
0.4142135623730928
 10
5.646106137560934
 20
10.22500017947253
 42
0.0
 10
5.646106137560934
 20
9.317399166794903
 42
0.1989123673796619
 10
6.26118189706915
 20
7.832474926303099
 42
0.0
 10
7.716080884391487
 20
6.37757593898077
 42
-0.1989123673796613
 10
7.921106137560911
 20
5.882601192150177
 42
0.0
 10
7.921106137560911
 20
5.237500179472519
 42
-0.4142135623730911
 10
7.658606137560923
 20
4.975000179472523
 42
0.0
 10
6.171106137560968
 20
4.975000179472523
 42
0.4142135623731526
 10
5.908606137560923
 20
4.712500179472529
 42
0.0
 10
5.908606137560923
 20
3.837500179472518
 42
0.4142135623731526
 10
6.171106137560968
 20
3.575000179472525
 42
0.0
 10
7.921106137560911
 20
3.575000179472525
 42
0.4142135623731044
 10
9.321106137560946
 20
4.975000179472512
 42
0.0
 10
9.321106137560946
 20
5.882601192150149
 42
0.1989123673796604
 10
8.706030378052673
 20
7.367525432641919
 42
0.0
 97
        0
 92
        7
 72
     1
 73
     1
 93
       16
 10
11.77110613756093
 20
9.525000179472527
 42
-0.4142135623730935
 10
12.47110613756092
 20
10.22500017947252
 42
0.0
 10
13.4336061375609
 20
10.22500017947252
 42
0.4142135623731546
 10
13.69610613756094
 20
10.48750017947251
 42
0.0
 10
13.69610613756094
 20
11.36250017947252
 42
0.4142135623730951
 10
13.43360613756095
 20
11.62500017947252
 42
0.0
 10
12.47110613756086
 20
11.6250001794725
 42
0.4142135623730892
 10
10.3711061375609
 20
9.525000179472492
 42
0.0
 10
10.3711061375609
 20
5.675000179472537
 42
0.4142135623730969
 10
12.47110613756092
 20
3.575000179472525
 42
0.0
 10
13.4336061375609
 20
3.575000179472525
 42
0.4142135623731526
 10
13.69610613756094
 20
3.837500179472518
 42
0.0
 10
13.69610613756094
 20
4.712500179472529
 42
0.4142135623730891
 10
13.43360613756095
 20
4.975000179472523
 42
0.0
 10
12.47110613756092
 20
4.975000179472523
 42
-0.4142135623730928
 10
11.77110613756093
 20
5.675000179472517
 42
0.0
 97
        0
 92
        7
 72
     1
 73
     1
 93
        2
 10
12.1211061375609
 20
7.600000179472523
 42
1.0
 10
13.8711061375609
 20
7.600000179472523
 42
1.0
 97
        0
 92
        7
 72
     1
 73
     1
 93
       26
 10
18.65742937864991
 20
9.602523776254237
 42
0.0
 10
19.18824919521881
 20
11.28345319538903
 42
0.5069206636600134
 10
18.93793374562113
 20
11.62500017947252
 42
0.0
 10
18.08848905581652
 20
11.62500017947252
 42
0.3272098845218764
 10
17.83817360621884
 20
11.441547163556
 42
0.0
 10
16.90403866890295
 20
8.483453195389063
 42
-0.3272098845219541
 10
16.65372321930522
 20
8.300000179472522
 42
0.0
 10
16.58360613756099
 20
8.300000179472522
 42
-0.4142135623731526
 10
16.32110613756094
 20
8.562500179472516
 42
0.0
 10
16.32110613756094
 20
11.36250017947252
 42
0.4142135623730951
 10
16.05860613756095
 20
11.62500017947252
 42
0.0
 10
15.1836061375609
 20
11.62500017947252
 42
0.4142135623730871
 10
14.92110613756091
 20
11.36250017947253
 42
0.0
 10
14.92110613756091
 20
3.837500179472518
 42
0.4142135623730891
 10
15.1836061375609
 20
3.575000179472525
 42
0.0
 10
16.0586061375609
 20
3.575000179472525
 42
0.4142135623731526
 10
16.32110613756094
 20
3.837500179472518
 42
0.0
 10
16.32110613756094
 20
6.63750017947253
 42
-0.4142135623731526
 10
16.58360613756099
 20
6.900000179472524
 42
0.0
 10
16.65372321930527
 20
6.900000179472524
 42
-0.3272098845218915
 10
16.90403866890295
 20
6.716547163555986
 42
0.0
 10
17.83817360621884
 20
3.75845319538906
 42
0.3272098845218902
 10
18.08848905581652
 20
3.575000179472525
 42
0.0
 10
18.93793374562113
 20
3.575000179472525
 42
0.5069206636600335
 10
19.18824919521881
 20
3.916547163556028
 42
0.0
 10
18.02505350598198
 20
7.600000179472592
 42
0.0
 97
        0
 92
        7
 72
     1
 73
     1
 93
        8
 10
21.7461061375609
 20
11.36250017947252
 42
0.4142135623731546
 10
21.48360613756085
 20
11.62500017947252
 42
0.0
 10
20.60860613756096
 20
11.62500017947252
 42
0.4142135623731507
 10
20.34610613756092
 20
11.36250017947253
 42
0.0
 10
20.34610613756092
 20
3.837500179472518
 42
0.4142135623731526
 10
20.60860613756096
 20
3.575000179472525
 42
0.0
 10
21.48360613756085
 20
3.575000179472525
 42
0.4142135623731526
 10
21.7461061375609
 20
3.837500179472518
 42
0.0
 97
        0
 92
        7
 72
     1
 73
     1
 93
       24
 10
24.19610613756094
 20
9.962500179472527
 42
-0.4142135623731546
 10
24.45860613756099
 20
10.22500017947252
 42
0.0
 10
25.94610613756094
 20
10.22500017947252
 42
0.4142135623730911
 10
26.20860613756093
 20
10.48750017947251
 42
0.0
 10
26.20860613756093
 20
11.36250017947252
 42
0.4142135623730952
 10
25.94610613756094
 20
11.62500017947252
 42
0.0
 10
24.19610613756094
 20
11.62500017947252
 42
0.4142135623731048
 10
22.79610613756091
 20
10.22500017947253
 42
0.0
 10
22.79610613756091
 20
9.317399166794903
 42
0.1989123673796613
 10
23.41118189706918
 20
7.832474926303127
 42
0.0
 10
24.86608088439152
 20
6.377575938980793
 42
-0.1989123673796402
 10
25.07110613756094
 20
5.882601192150257
 42
0.0
 10
25.07110613756094
 20
5.237500179472519
 42
-0.4142135623730911
 10
24.80860613756096
 20
4.975000179472523
 42
0.0
 10
23.32110613756094
 20
4.975000179472523
 42
0.4142135623731526
 10
23.05860613756089
 20
4.712500179472529
 42
0.0
 10
23.05860613756089
 20
3.837500179472518
 42
0.4142135623730891
 10
23.32110613756089
 20
3.575000179472525
 42
0.0
 10
25.07110613756094
 20
3.575000179472525
 42
0.4142135623730925
 10
26.47110613756092
 20
4.975000179472512
 42
0.0
 10
26.47110613756092
 20
5.882601192150149
 42
0.1989123673796675
 10
25.85603037805265
 20
7.367525432641976
 42
0.0
 10
24.40113139073037
 20
8.822424419964233
 42
-0.1989123673796652
 10
24.19610613756094
 20
9.317399166794817
 42
0.0
 97
        0
 92
        7
 72
     1
 73
     1
 93
       16
 10
28.92110613756091
 20
11.36250017947251
 42
0.414213562373103
 10
28.65860613756092
 20
11.62500017947252
 42
0.0
 10
27.78360613756092
 20
11.62500017947252
 42
0.4142135623730871
 10
27.52110613756093
 20
11.36250017947253
 42
0.0
 10
27.52110613756093
 20
4.975000179472512
 42
0.4142135623730926
 10
28.92110613756091
 20
3.575000179472525
 42
0.0
 10
30.67110613756091
 20
3.575000179472525
 42
0.4142135623731044
 10
32.07110613756094
 20
4.975000179472512
 42
0.0
 10
32.07110613756094
 20
11.36250017947252
 42
0.4142135623730951
 10
31.80860613756095
 20
11.62500017947252
 42
0.0
 10
30.9336061375609
 20
11.62500017947252
 42
0.4142135623730871
 10
30.67110613756091
 20
11.36250017947253
 42
0.0
 10
30.67110613756091
 20
5.500000179472511
 42
-0.414213562373088
 10
30.14610613756093
 20
4.975000179472523
 42
0.0
 10
29.44610613756094
 20
4.975000179472523
 42
-0.4142135623731197
 10
28.92110613756091
 20
5.500000179472511
 42
0.0
 97
        0
 92
        7
 72
     1
 73
     1
 93
        8
 10
34.52110613756093
 20
11.36250017947253
 42
0.4142135623730871
 10
34.25860613756094
 20
11.62500017947252
 42
0.0
 10
33.38360613756094
 20
11.62500017947252
 42
0.4142135623731507
 10
33.1211061375609
 20
11.36250017947253
 42
0.0
 10
33.1211061375609
 20
3.837500179472518
 42
0.4142135623730891
 10
33.38360613756089
 20
3.575000179472525
 42
0.0
 10
34.25860613756094
 20
3.575000179472525
 42
0.4142135623730891
 10
34.52110613756093
 20
3.837500179472518
 42
0.0
 97
        0
 75
     0
 76
     1
 52
0.0
 41
0.1
 77
     0
 78
     2
 53
45.0
 43
-450.4711521071691
 44
-6.599999820527443
 45
-0.2245064030267288
 46
0.2245064030267288
 79
     0
 53
135.0
 43
-450.4711521071691
 44
-6.599999820527443
 45
-0.2245064030267288
 46
-0.2245064030267288
 79
     0
 47
0.057451373970553
 98
        8
 10
8.039927541682004
 20
7.583587002415299
 10
11.20225756338993
 20
9.422031270698028
 10
12.58218400300018
 20
7.755941002507881
 10
15.45703005098892
 20
8.100649002693273
 10
20.91923606964872
 20
8.330455136464081
 10
23.44910050773512
 20
9.709288337676127
 10
28.27884304637052
 20
9.364579137020029
 10
33.91353986998172
 20
9.594385270790837
  0
ARC
  5
8E5
330
1A
100
AcDbEntity
  8
ZUWAKU
100
AcDbCircle
 10
7.7461061375609
 20
9.317399166794874
 30
0.0
 40
2.099999999999999
100
AcDbArc
 50
180.0
 51
225.0
  0
LINE
  5
8E6
330
1A
100
AcDbEntity
  8
ZUWAKU
100
AcDbLine
 10
10.3711061375609
 20
5.675000179472526
 30
0.0
 11
10.3711061375609
 21
9.525000179472502
 31
0.0
  0
LINE
  5
8E7
330
1A
100
AcDbEntity
  8
ZUWAKU
100
AcDbLine
 10
11.77110613756093
 20
9.525000179472524
 30
0.0
 11
11.77110613756093
 21
5.675000179472526
 31
0.0
  0
ARC
  5
8E8
330
1A
100
AcDbEntity
  8
ZUWAKU
100
AcDbCircle
 10
7.7461061375609
 20
9.317399166794874
 30
0.0
 40
0.7
100
AcDbArc
 50
180.0000000000016
 51
224.9999999999988
  0
ARC
  5
8E9
330
1A
100
AcDbEntity
  8
ZUWAKU
100
AcDbCircle
 10
12.47110613756092
 20
5.675000179472526
 30
0.0
 40
2.099999999999999
100
AcDbArc
 50
180.0
 51
270.0
  0
ARC
  5
8EA
330
1A
100
AcDbEntity
  8
ZUWAKU
100
AcDbCircle
 10
7.921106137560911
 20
4.975000179472523
 30
0.0
 40
1.399999999999999
100
AcDbArc
 50
270.0
 51
0.0
  0
ARC
  5
8EB
330
1A
100
AcDbEntity
  8
ZUWAKU
100
AcDbCircle
 10
7.221106137560923
 20
5.882601192150175
 30
0.0
 40
2.099999999999999
100
AcDbArc
 50
0.0
 51
45.0
  0
LINE
  5
8EC
330
1A
100
AcDbEntity
  8
ZUWAKU
100
AcDbLine
 10
6.26118189706915
 20
7.832474926303113
 30
0.0
 11
7.716080884391487
 21
6.377575938980783
 31
0.0
  0
LINE
  5
8ED
330
1A
100
AcDbEntity
  8
ZUWAKU
100
AcDbLine
 10
6.171106137560911
 20
4.975000179472523
 30
0.0
 11
7.658606137560923
 21
4.975000179472523
 31
0.0
  0
LINE
  5
8EE
330
1A
100
AcDbEntity
  8
ZUWAKU
100
AcDbLine
 10
6.171106137560911
 20
3.575000179472525
 30
0.0
 11
7.921106137560911
 21
3.575000179472525
 31
0.0
  0
ARC
  5
8EF
330
1A
100
AcDbEntity
  8
ZUWAKU
100
AcDbCircle
 10
6.171106137560911
 20
4.712500179472524
 30
0.0
 40
0.2625
100
AcDbArc
 50
90.0
 51
180.0
  0
ARC
  5
8F0
330
1A
100
AcDbEntity
  8
ZUWAKU
100
AcDbCircle
 10
6.171106137560911
 20
3.837500179472524
 30
0.0
 40
0.2625
100
AcDbArc
 50
180.0
 51
270.0
  0
LINE
  5
8F1
330
1A
100
AcDbEntity
  8
ZUWAKU
100
AcDbLine
 10
5.908606137560923
 20
3.837500179472524
 30
0.0
 11
5.908606137560923
 21
4.712500179472524
 31
0.0
  0
ARC
  5
8F2
330
1A
100
AcDbEntity
  8
ZUWAKU
100
AcDbCircle
 10
7.221106137560923
 20
5.882601192150197
 30
0.0
 40
0.7
100
AcDbArc
 50
0.0
 51
45.0
  0
ARC
  5
8F3
330
1A
100
AcDbEntity
  8
ZUWAKU
100
AcDbCircle
 10
7.658606137560923
 20
5.237500179472526
 30
0.0
 40
0.2625
100
AcDbArc
 50
270.0
 51
0.0
  0
LINE
  5
8F4
330
1A
100
AcDbEntity
  8
ZUWAKU
100
AcDbLine
 10
7.921106137560911
 20
5.237500179472526
 30
0.0
 11
7.921106137560911
 21
5.882601192150197
 31
0.0
  0
LINE
  5
8F5
330
1A
100
AcDbEntity
  8
ZUWAKU
100
AcDbLine
 10
8.706030378052673
 20
7.367525432641937
 30
0.0
 11
7.251131390730336
 21
8.822424419964274
 31
0.0
  0
ARC
  5
8F6
330
1A
100
AcDbEntity
  8
ZUWAKU
100
AcDbCircle
 10
12.47110613756092
 20
5.675000179472526
 30
0.0
 40
0.7
100
AcDbArc
 50
180.0
 51
270.0
  0
LINE
  5
8F7
330
1A
100
AcDbEntity
  8
ZUWAKU
100
AcDbLine
 10
9.321106137560946
 20
4.975000179472523
 30
0.0
 11
9.321106137560946
 21
5.882601192150197
 31
0.0
  0
ARC
  5
8F8
330
1A
100
AcDbEntity
  8
ZUWAKU
100
AcDbCircle
 10
8.796106137560911
 20
10.48750017947252
 30
0.0
 40
0.2625
100
AcDbArc
 50
270.0
 51
0.0
  0
ARC
  5
8F9
330
1A
100
AcDbEntity
  8
ZUWAKU
100
AcDbCircle
 10
8.796106137560911
 20
11.36250017947252
 30
0.0
 40
0.2625
100
AcDbArc
 50
0.0
 51
90.0
  0
ARC
  5
8FA
330
1A
100
AcDbEntity
  8
ZUWAKU
100
AcDbCircle
 10
7.046106137560911
 20
10.22500017947252
 30
0.0
 40
1.399999999999999
100
AcDbArc
 50
90.0
 51
180.0
  0
LINE
  5
8FB
330
1A
100
AcDbEntity
  8
ZUWAKU
100
AcDbLine
 10
5.646106137560934
 20
10.22500017947252
 30
0.0
 11
5.646106137560934
 21
9.317399166794853
 31
0.0
  0
LINE
  5
8FC
330
1A
100
AcDbEntity
  8
ZUWAKU
100
AcDbLine
 10
8.796106137560911
 20
10.22500017947252
 30
0.0
 11
7.3086061375609
 21
10.22500017947252
 31
0.0
  0
LINE
  5
8FD
330
1A
100
AcDbEntity
  8
ZUWAKU
100
AcDbLine
 10
7.046106137560911
 20
9.962500179472524
 30
0.0
 11
7.046106137560911
 21
9.317399166794853
 31
0.0
  0
ARC
  5
8FE
330
1A
100
AcDbEntity
  8
ZUWAKU
100
AcDbCircle
 10
7.3086061375609
 20
9.962500179472524
 30
0.0
 40
0.2625
100
AcDbArc
 50
90.0
 51
180.0
  0
LINE
  5
8FF
330
1A
100
AcDbEntity
  8
ZUWAKU
100
AcDbLine
 10
7.046106137560911
 20
11.62500017947252
 30
0.0
 11
8.796106137560911
 21
11.62500017947252
 31
0.0
  0
ARC
  5
900
330
1A
100
AcDbEntity
  8
ZUWAKU
100
AcDbCircle
 10
12.47110613756092
 20
9.525000179472502
 30
0.0
 40
2.099999999999999
100
AcDbArc
 50
90.0
 51
180.0
  0
ARC
  5
901
330
1A
100
AcDbEntity
  8
ZUWAKU
100
AcDbCircle
 10
12.47110613756092
 20
9.525000179472524
 30
0.0
 40
0.7
100
AcDbArc
 50
90.0
 51
180.0
  0
LINE
  5
902
330
1A
100
AcDbEntity
  8
ZUWAKU
100
AcDbLine
 10
9.0586061375609
 20
11.36250017947252
 30
0.0
 11
9.0586061375609
 21
10.48750017947252
 31
0.0
  0
TEXT
  5
903
330
1A
100
AcDbEntity
  8
MOJI
100
AcDbText
 10
46.47889485425491
 20
6.370589244609902
 30
0.0
 40
3.0
  1
ライナートップ
 41
0.9
  7
ｽﾀｲﾙ1
100
AcDbText
  0
LINE
  5
904
330
1A
100
AcDbEntity
  8
ZUWAKU
100
AcDbLine
 10
17.83817360621884
 20
11.441547163556
 30
0.0
 11
16.90403866890295
 21
8.483453195389039
 31
0.0
  0
LINE
  5
905
330
1A
100
AcDbEntity
  8
ZUWAKU
100
AcDbLine
 10
14.92110613756091
 20
11.36250017947252
 30
0.0
 11
14.92110613756091
 21
3.837500179472524
 31
0.0
  0
LINE
  5
906
330
1A
100
AcDbEntity
  8
ZUWAKU
100
AcDbLine
 10
16.32110613756094
 20
8.562500179472525
 30
0.0
 11
16.32110613756094
 21
11.36250017947252
 31
0.0
  0
LINE
  5
907
330
1A
100
AcDbEntity
  8
ZUWAKU
100
AcDbLine
 10
28.92110613756091
 20
5.500000179472522
 30
0.0
 11
28.92110613756091
 21
11.36250017947252
 31
0.0
  0
LINE
  5
908
330
1A
100
AcDbEntity
  8
ZUWAKU
100
AcDbLine
 10
27.52110613756093
 20
11.36250017947252
 30
0.0
 11
27.52110613756093
 21
4.975000179472523
 31
0.0
  0
LINE
  5
909
330
1A
100
AcDbEntity
  8
ZUWAKU
100
AcDbLine
 10
21.7461061375609
 20
3.837500179472524
 30
0.0
 11
21.7461061375609
 21
11.36250017947252
 31
0.0
  0
LINE
  5
90A
330
1A
100
AcDbEntity
  8
ZUWAKU
100
AcDbLine
 10
20.34610613756092
 20
11.36250017947252
 30
0.0
 11
20.34610613756092
 21
3.837500179472524
 31
0.0
  0
LINE
  5
90B
330
1A
100
AcDbEntity
  8
ZUWAKU
100
AcDbLine
 10
18.65742937864991
 20
9.602523776254237
 30
0.0
 11
18.02505350598198
 21
7.600000179472534
 31
0.0
  0
ARC
  5
90C
330
1A
100
AcDbEntity
  8
ZUWAKU
100
AcDbCircle
 10
24.89610613756093
 20
9.317399166794874
 30
0.0
 40
2.099999999999999
100
AcDbArc
 50
180.0
 51
225.0
  0
ARC
  5
90D
330
1A
100
AcDbEntity
  8
ZUWAKU
100
AcDbCircle
 10
24.89610613756093
 20
9.317399166794874
 30
0.0
 40
0.7
100
AcDbArc
 50
180.0000000000016
 51
224.9999999999988
  0
LINE
  5
90E
330
1A
100
AcDbEntity
  8
ZUWAKU
100
AcDbLine
 10
33.1211061375609
 20
11.36250017947252
 30
0.0
 11
33.1211061375609
 21
3.837500179472524
 31
0.0
  0
LINE
  5
90F
330
1A
100
AcDbEntity
  8
ZUWAKU
100
AcDbLine
 10
34.52110613756093
 20
3.837500179472524
 30
0.0
 11
34.52110613756093
 21
11.36250017947252
 31
0.0
  0
LINE
  5
910
330
1A
100
AcDbEntity
  8
ZUWAKU
100
AcDbLine
 10
30.67110613756091
 20
11.36250017947252
 30
0.0
 11
30.67110613756091
 21
5.500000179472522
 31
0.0
  0
LINE
  5
911
330
1A
100
AcDbEntity
  8
ZUWAKU
100
AcDbLine
 10
32.07110613756094
 20
4.975000179472523
 30
0.0
 11
32.07110613756094
 21
11.36250017947252
 31
0.0
  0
LINE
  5
912
330
1A
100
AcDbEntity
  8
ZUWAKU
100
AcDbLine
 10
39.56331483416454
 20
15.00000017947252
 30
0.0
 11
39.56331483416454
 21
0.4000001794725563
 31
0.0
  0
LINE
  5
913
330
1A
100
AcDbEntity
  8
ZUWAKU
100
AcDbLine
 10
39.76331483416447
 20
15.00000017947252
 30
0.0
 11
39.76331483416458
 21
0.4000001794725563
 31
0.0
  0
LINE
  5
914
330
1A
100
AcDbEntity
  8
ZUWAKU
100
AcDbLine
 10
39.66331483416445
 20
15.00000017947252
 30
0.0
 11
39.66331483416457
 21
0.4000001794725563
 31
0.0
  0
LINE
  5
915
330
1A
100
AcDbEntity
  8
ZUWAKU
100
AcDbLine
 10
28.92110613756091
 20
3.575000179472525
 30
0.0
 11
30.67110613756091
 21
3.575000179472525
 31
0.0
  0
LINE
  5
916
330
1A
100
AcDbEntity
  8
ZUWAKU
100
AcDbLine
 10
30.14610613756093
 20
4.975000179472523
 30
0.0
 11
29.44610613756094
 21
4.975000179472523
 31
0.0
  0
LINE
  5
917
330
1A
100
AcDbEntity
  8
ZUWAKU
100
AcDbLine
 10
20.60860613756091
 20
3.575000179472525
 30
0.0
 11
21.48360613756091
 21
3.575000179472525
 31
0.0
  0
LINE
  5
918
330
1A
100
AcDbEntity
  8
ZUWAKU
100
AcDbLine
 10
17.83817360621884
 20
3.758453195389037
 30
0.0
 11
16.90403866890295
 21
6.716547163556008
 31
0.0
  0
ARC
  5
919
330
1A
100
AcDbEntity
  8
ZUWAKU
100
AcDbCircle
 10
16.58360613756093
 20
6.637500179472525
 30
0.0
 40
0.2625
100
AcDbArc
 50
90.0
 51
180.0
  0
ARC
  5
91A
330
1A
100
AcDbEntity
  8
ZUWAKU
100
AcDbCircle
 10
16.65372321930527
 20
6.637500179472525
 30
0.0
 40
0.2625
100
AcDbArc
 50
17.52556837372303
 51
90.0
  0
ARC
  5
91B
330
1A
100
AcDbEntity
  8
ZUWAKU
100
AcDbCircle
 10
15.1836061375609
 20
3.837500179472524
 30
0.0
 40
0.2625
100
AcDbArc
 50
180.0
 51
270.0
  0
ARC
  5
91C
330
1A
100
AcDbEntity
  8
ZUWAKU
100
AcDbCircle
 10
13.4336061375609
 20
4.712500179472524
 30
0.0
 40
0.2625
100
AcDbArc
 50
0.0
 51
90.0
  0
ARC
  5
91D
330
1A
100
AcDbEntity
  8
ZUWAKU
100
AcDbCircle
 10
13.4336061375609
 20
3.837500179472524
 30
0.0
 40
0.2625
100
AcDbArc
 50
270.0
 51
0.0
  0
LINE
  5
91E
330
1A
100
AcDbEntity
  8
ZUWAKU
100
AcDbLine
 10
13.69610613756094
 20
4.712500179472524
 30
0.0
 11
13.69610613756094
 21
3.837500179472524
 31
0.0
  0
LINE
  5
91F
330
1A
100
AcDbEntity
  8
ZUWAKU
100
AcDbLine
 10
16.32110613756094
 20
3.837500179472524
 30
0.0
 11
16.32110613756094
 21
6.637500179472525
 31
0.0
  0
ARC
  5
920
330
1A
100
AcDbEntity
  8
ZUWAKU
100
AcDbCircle
 10
16.0586061375609
 20
3.837500179472524
 30
0.0
 40
0.2625
100
AcDbArc
 50
270.0
 51
0.0
  0
LINE
  5
921
330
1A
100
AcDbEntity
  8
ZUWAKU
100
AcDbLine
 10
15.1836061375609
 20
3.575000179472525
 30
0.0
 11
16.0586061375609
 21
3.575000179472525
 31
0.0
  0
ARC
  5
922
330
1A
100
AcDbEntity
  8
ZUWAKU
100
AcDbCircle
 10
16.58360613756093
 20
8.562500179472525
 30
0.0
 40
0.2625
100
AcDbArc
 50
180.0
 51
270.0
  0
LINE
  5
923
330
1A
100
AcDbEntity
  8
ZUWAKU
100
AcDbLine
 10
16.58360613756093
 20
6.900000179472524
 30
0.0
 11
16.65372321930527
 21
6.900000179472524
 31
0.0
  0
LINE
  5
924
330
1A
100
AcDbEntity
  8
ZUWAKU
100
AcDbLine
 10
16.65372321930527
 20
8.300000179472522
 30
0.0
 11
16.58360613756093
 21
8.300000179472522
 31
0.0
  0
ARC
  5
925
330
1A
100
AcDbEntity
  8
ZUWAKU
100
AcDbCircle
 10
16.65372321930527
 20
8.562500179472525
 30
0.0
 40
0.2625
100
AcDbArc
 50
270.0
 51
342.4744316262769
  0
ARC
  5
926
330
1A
100
AcDbEntity
  8
ZUWAKU
100
AcDbCircle
 10
18.08848905581658
 20
3.837500179472524
 30
0.0
 40
0.2625
100
AcDbArc
 50
197.525568373723
 51
270.0
  0
LINE
  5
927
330
1A
100
AcDbEntity
  8
ZUWAKU
100
AcDbLine
 10
19.18824919521881
 20
3.91654716355601
 30
0.0
 11
18.02505350598198
 21
7.600000179472534
 31
0.0
  0
ARC
  5
928
330
1A
100
AcDbEntity
  8
ZUWAKU
100
AcDbCircle
 10
18.93793374562108
 20
3.837500179472524
 30
0.0
 40
0.2625
100
AcDbArc
 50
270.0
 51
17.52556837372303
  0
LINE
  5
929
330
1A
100
AcDbEntity
  8
ZUWAKU
100
AcDbLine
 10
18.08848905581658
 20
3.575000179472525
 30
0.0
 11
18.93793374562108
 21
3.575000179472525
 31
0.0
  0
ARC
  5
92A
330
1A
100
AcDbEntity
  8
ZUWAKU
100
AcDbCircle
 10
20.60860613756091
 20
3.837500179472524
 30
0.0
 40
0.2625
100
AcDbArc
 50
180.0
 51
270.0
  0
ARC
  5
92B
330
1A
100
AcDbEntity
  8
ZUWAKU
100
AcDbCircle
 10
25.07110613756094
 20
4.975000179472523
 30
0.0
 40
1.399999999999999
100
AcDbArc
 50
270.0
 51
0.0
  0
ARC
  5
92C
330
1A
100
AcDbEntity
  8
ZUWAKU
100
AcDbCircle
 10
28.92110613756091
 20
4.975000179472523
 30
0.0
 40
1.399999999999999
100
AcDbArc
 50
180.0
 51
270.0
  0
LINE
  5
92D
330
1A
100
AcDbEntity
  8
ZUWAKU
100
AcDbLine
 10
25.8560303780527
 20
7.367525432641937
 30
0.0
 11
24.40113139073031
 21
8.822424419964274
 31
0.0
  0
LINE
  5
92E
330
1A
100
AcDbEntity
  8
ZUWAKU
100
AcDbLine
 10
23.41118189706918
 20
7.832474926303113
 30
0.0
 11
24.86608088439152
 21
6.377575938980783
 31
0.0
  0
LINE
  5
92F
330
1A
100
AcDbEntity
  8
ZUWAKU
100
AcDbLine
 10
23.32110613756094
 20
3.575000179472525
 30
0.0
 11
25.07110613756094
 21
3.575000179472525
 31
0.0
  0
LINE
  5
930
330
1A
100
AcDbEntity
  8
ZUWAKU
100
AcDbLine
 10
23.32110613756094
 20
4.975000179472523
 30
0.0
 11
24.8086061375609
 21
4.975000179472523
 31
0.0
  0
ARC
  5
931
330
1A
100
AcDbEntity
  8
ZUWAKU
100
AcDbCircle
 10
23.32110613756094
 20
4.712500179472524
 30
0.0
 40
0.2625
100
AcDbArc
 50
90.0
 51
180.0
  0
ARC
  5
932
330
1A
100
AcDbEntity
  8
ZUWAKU
100
AcDbCircle
 10
21.48360613756091
 20
3.837500179472524
 30
0.0
 40
0.2625
100
AcDbArc
 50
270.0
 51
0.0
  0
ARC
  5
933
330
1A
100
AcDbEntity
  8
ZUWAKU
100
AcDbCircle
 10
23.32110613756094
 20
3.837500179472524
 30
0.0
 40
0.2625
100
AcDbArc
 50
180.0
 51
270.0
  0
LINE
  5
934
330
1A
100
AcDbEntity
  8
ZUWAKU
100
AcDbLine
 10
23.05860613756089
 20
3.837500179472524
 30
0.0
 11
23.05860613756089
 21
4.712500179472524
 31
0.0
  0
ARC
  5
935
330
1A
100
AcDbEntity
  8
ZUWAKU
100
AcDbCircle
 10
24.8086061375609
 20
5.237500179472526
 30
0.0
 40
0.2625
100
AcDbArc
 50
270.0
 51
0.0
  0
ARC
  5
936
330
1A
100
AcDbEntity
  8
ZUWAKU
100
AcDbCircle
 10
24.3711061375609
 20
5.882601192150197
 30
0.0
 40
0.7
100
AcDbArc
 50
0.0
 51
45.0
  0
LINE
  5
937
330
1A
100
AcDbEntity
  8
ZUWAKU
100
AcDbLine
 10
25.07110613756094
 20
5.237500179472526
 30
0.0
 11
25.07110613756094
 21
5.882601192150197
 31
0.0
  0
ARC
  5
938
330
1A
100
AcDbEntity
  8
ZUWAKU
100
AcDbCircle
 10
29.44610613756094
 20
5.500000179472522
 30
0.0
 40
0.525
100
AcDbArc
 50
180.0
 51
270.0
  0
ARC
  5
939
330
1A
100
AcDbEntity
  8
ZUWAKU
100
AcDbCircle
 10
24.3711061375609
 20
5.882601192150175
 30
0.0
 40
2.099999999999999
100
AcDbArc
 50
0.0
 51
45.0
  0
LINE
  5
93A
330
1A
100
AcDbEntity
  8
ZUWAKU
100
AcDbLine
 10
26.47110613756092
 20
4.975000179472523
 30
0.0
 11
26.47110613756092
 21
5.882601192150197
 31
0.0
  0
ARC
  5
93B
330
1A
100
AcDbEntity
  8
ZUWAKU
100
AcDbCircle
 10
30.67110613756091
 20
4.975000179472523
 30
0.0
 40
1.399999999999999
100
AcDbArc
 50
270.0
 51
0.0
  0
LINE
  5
93C
330
1A
100
AcDbEntity
  8
ZUWAKU
100
AcDbLine
 10
33.38360613756094
 20
3.575000179472525
 30
0.0
 11
34.25860613756094
 21
3.575000179472525
 31
0.0
  0
ARC
  5
93D
330
1A
100
AcDbEntity
  8
ZUWAKU
100
AcDbCircle
 10
30.14610613756093
 20
5.500000179472522
 30
0.0
 40
0.525
100
AcDbArc
 50
270.0
 51
0.0
  0
ARC
  5
93E
330
1A
100
AcDbEntity
  8
ZUWAKU
100
AcDbCircle
 10
33.38360613756094
 20
3.837500179472524
 30
0.0
 40
0.2625
100
AcDbArc
 50
180.0
 51
270.0
  0
ARC
  5
93F
330
1A
100
AcDbEntity
  8
ZUWAKU
100
AcDbCircle
 10
34.25860613756094
 20
3.837500179472524
 30
0.0
 40
0.2625
100
AcDbArc
 50
270.0
 51
0.0
  0
LINE
  5
940
330
1A
100
AcDbEntity
  8
ZUWAKU
100
AcDbLine
 10
21.48360613756091
 20
11.62500017947252
 30
0.0
 11
20.60860613756091
 21
11.62500017947252
 31
0.0
  0
LINE
  5
941
330
1A
100
AcDbEntity
  8
ZUWAKU
100
AcDbLine
 10
13.69610613756094
 20
11.36250017947252
 30
0.0
 11
13.69610613756094
 21
10.48750017947252
 31
0.0
  0
ARC
  5
942
330
1A
100
AcDbEntity
  8
ZUWAKU
100
AcDbCircle
 10
13.4336061375609
 20
10.48750017947252
 30
0.0
 40
0.2625
100
AcDbArc
 50
270.0
 51
0.0
  0
ARC
  5
943
330
1A
100
AcDbEntity
  8
ZUWAKU
100
AcDbCircle
 10
15.1836061375609
 20
11.36250017947252
 30
0.0
 40
0.2625
100
AcDbArc
 50
90.0
 51
180.0
  0
ARC
  5
944
330
1A
100
AcDbEntity
  8
ZUWAKU
100
AcDbCircle
 10
13.4336061375609
 20
11.36250017947252
 30
0.0
 40
0.2625
100
AcDbArc
 50
0.0
 51
90.0
  0
LINE
  5
945
330
1A
100
AcDbEntity
  8
ZUWAKU
100
AcDbLine
 10
16.0586061375609
 20
11.62500017947252
 30
0.0
 11
15.1836061375609
 21
11.62500017947252
 31
0.0
  0
ARC
  5
946
330
1A
100
AcDbEntity
  8
ZUWAKU
100
AcDbCircle
 10
16.0586061375609
 20
11.36250017947252
 30
0.0
 40
0.2625
100
AcDbArc
 50
0.0
 51
90.0
  0
ARC
  5
947
330
1A
100
AcDbEntity
  8
ZUWAKU
100
AcDbCircle
 10
18.08848905581658
 20
11.36250017947252
 30
0.0
 40
0.2625
100
AcDbArc
 50
90.0
 51
162.4744316262769
  0
LINE
  5
948
330
1A
100
AcDbEntity
  8
ZUWAKU
100
AcDbLine
 10
19.18824919521881
 20
11.28345319538903
 30
0.0
 11
18.65742937864991
 21
9.602523776254237
 31
0.0
  0
ARC
  5
949
330
1A
100
AcDbEntity
  8
ZUWAKU
100
AcDbCircle
 10
18.93793374562108
 20
11.36250017947252
 30
0.0
 40
0.2625
100
AcDbArc
 50
342.4744316262769
 51
90.0
  0
LINE
  5
94A
330
1A
100
AcDbEntity
  8
ZUWAKU
100
AcDbLine
 10
18.08848905581658
 20
11.62500017947252
 30
0.0
 11
18.93793374562108
 21
11.62500017947252
 31
0.0
  0
ARC
  5
94B
330
1A
100
AcDbEntity
  8
ZUWAKU
100
AcDbCircle
 10
20.60860613756091
 20
11.36250017947252
 30
0.0
 40
0.2625
100
AcDbArc
 50
90.0
 51
180.0
  0
LINE
  5
94C
330
1A
100
AcDbEntity
  8
ZUWAKU
100
AcDbLine
 10
25.94610613756094
 20
10.22500017947252
 30
0.0
 11
24.45860613756093
 21
10.22500017947252
 31
0.0
  0
LINE
  5
94D
330
1A
100
AcDbEntity
  8
ZUWAKU
100
AcDbLine
 10
24.19610613756094
 20
11.62500017947252
 30
0.0
 11
25.94610613756094
 21
11.62500017947252
 31
0.0
  0
ARC
  5
94E
330
1A
100
AcDbEntity
  8
ZUWAKU
100
AcDbCircle
 10
24.19610613756094
 20
10.22500017947252
 30
0.0
 40
1.399999999999999
100
AcDbArc
 50
90.0
 51
180.0
  0
LINE
  5
94F
330
1A
100
AcDbEntity
  8
ZUWAKU
100
AcDbLine
 10
22.79610613756091
 20
10.22500017947252
 30
0.0
 11
22.79610613756091
 21
9.317399166794853
 31
0.0
  0
ARC
  5
950
330
1A
100
AcDbEntity
  8
ZUWAKU
100
AcDbCircle
 10
21.48360613756091
 20
11.36250017947252
 30
0.0
 40
0.2625
100
AcDbArc
 50
0.0
 51
90.0
  0
LINE
  5
951
330
1A
100
AcDbEntity
  8
ZUWAKU
100
AcDbLine
 10
24.19610613756094
 20
9.962500179472524
 30
0.0
 11
24.19610613756094
 21
9.317399166794853
 31
0.0
  0
ARC
  5
952
330
1A
100
AcDbEntity
  8
ZUWAKU
100
AcDbCircle
 10
24.45860613756093
 20
9.962500179472524
 30
0.0
 40
0.2625
100
AcDbArc
 50
90.0
 51
180.0
  0
LINE
  5
953
330
1A
100
AcDbEntity
  8
ZUWAKU
100
AcDbLine
 10
26.20860613756093
 20
11.36250017947252
 30
0.0
 11
26.20860613756093
 21
10.48750017947252
 31
0.0
  0
ARC
  5
954
330
1A
100
AcDbEntity
  8
ZUWAKU
100
AcDbCircle
 10
25.94610613756094
 20
10.48750017947252
 30
0.0
 40
0.2625
100
AcDbArc
 50
270.0
 51
0.0
  0
ARC
  5
955
330
1A
100
AcDbEntity
  8
ZUWAKU
100
AcDbCircle
 10
25.94610613756094
 20
11.36250017947252
 30
0.0
 40
0.2625
100
AcDbArc
 50
0.0
 51
90.0
  0
LINE
  5
956
330
1A
100
AcDbEntity
  8
ZUWAKU
100
AcDbLine
 10
28.65860613756092
 20
11.62500017947252
 30
0.0
 11
27.78360613756092
 21
11.62500017947252
 31
0.0
  0
ARC
  5
957
330
1A
100
AcDbEntity
  8
ZUWAKU
100
AcDbCircle
 10
27.78360613756092
 20
11.36250017947252
 30
0.0
 40
0.2625
100
AcDbArc
 50
90.0
 51
180.0
  0
ARC
  5
958
330
1A
100
AcDbEntity
  8
ZUWAKU
100
AcDbCircle
 10
28.65860613756092
 20
11.36250017947252
 30
0.0
 40
0.2625
100
AcDbArc
 50
0.0
 51
90.0
  0
LINE
  5
959
330
1A
100
AcDbEntity
  8
ZUWAKU
100
AcDbLine
 10
34.25860613756094
 20
11.62500017947252
 30
0.0
 11
33.38360613756094
 21
11.62500017947252
 31
0.0
  0
ARC
  5
95A
330
1A
100
AcDbEntity
  8
ZUWAKU
100
AcDbCircle
 10
30.9336061375609
 20
11.36250017947252
 30
0.0
 40
0.2625
100
AcDbArc
 50
90.0
 51
180.0
  0
LINE
  5
95B
330
1A
100
AcDbEntity
  8
ZUWAKU
100
AcDbLine
 10
31.8086061375609
 20
11.62500017947252
 30
0.0
 11
30.9336061375609
 21
11.62500017947252
 31
0.0
  0
ARC
  5
95C
330
1A
100
AcDbEntity
  8
ZUWAKU
100
AcDbCircle
 10
31.8086061375609
 20
11.36250017947252
 30
0.0
 40
0.2625
100
AcDbArc
 50
0.0
 51
90.0
  0
ARC
  5
95D
330
1A
100
AcDbEntity
  8
ZUWAKU
100
AcDbCircle
 10
33.38360613756094
 20
11.36250017947252
 30
0.0
 40
0.2625
100
AcDbArc
 50
90.0
 51
180.0
  0
ARC
  5
95E
330
1A
100
AcDbEntity
  8
ZUWAKU
100
AcDbCircle
 10
34.25860613756094
 20
11.36250017947252
 30
0.0
 40
0.2625
100
AcDbArc
 50
0.0
 51
90.0
  0
TEXT
  5
95F
330
1A
100
AcDbEntity
  8
MOJI
100
AcDbText
 10
119.9136014005959
 20
1.602460708176232
 30
0.0
 40
2.799999999999999
  1
Ｘ７０Ｕ－５－１０
 41
0.9
  7
ｽﾀｲﾙ1
100
AcDbText
  0
TEXT
  5
960
330
1A
100
AcDbEntity
  8
MOJI
100
AcDbText
 10
119.9136014005959
 20
9.002460708176215
 30
0.0
 40
2.799999999999999
  1
ステンレス金具正面打（吊）固定式（内吊り）
 41
0.9
  7
ｽﾀｲﾙ1
100
AcDbText
  0
LINE
  5
961
330
1A
100
AcDbEntity
  8
ZUWAKU
100
AcDbLine
 10
104.2233007052042
 20
15.00000017947252
 30
0.0
 11
104.2233007052043
 21
0.4000001794725563
 31
0.0
  0
LINE
  5
962
330
1A
100
AcDbEntity
  8
ZUWAKU
100
AcDbLine
 10
104.3233007052042
 20
15.00000017947252
 30
0.0
 11
104.3233007052043
 21
0.4000001794725563
 31
0.0
  0
LINE
  5
963
330
1A
100
AcDbEntity
  8
ZUWAKU
100
AcDbLine
 10
104.1233007052043
 20
15.00000017947252
 30
0.0
 11
104.1233007052043
 21
0.4000001794725563
 31
0.0
  0
TEXT
  5
964
330
1A
100
AcDbEntity
  8
ZUWAKU
100
AcDbText
 10
104.8620232163091
 20
4.827678448665331
 30
0.0
 40
2.0
  1
サイズ
 41
0.9
  7
ｽﾀｲﾙ1
100
AcDbText
  0
TEXT
  5
965
330
1A
100
AcDbEntity
  8
ZUWAKU
100
AcDbText
 10
104.862023216309
 20
12.02767844866531
 30
0.0
 40
2.0
  1
品名
 41
0.9
  7
ｽﾀｲﾙ1
100
AcDbText
  0
TEXT
  5
966
330
1A
100
AcDbEntity
  8
ZUWAKU
100
AcDbText
 10
329.1019689038215
 20
9.002460708176215
 30
0.0
 40
2.799999999999999
  1
　　．　　．　　
 41
0.9
  7
ｽﾀｲﾙ1
100
AcDbText
  0
LINE
  5
967
330
1A
100
AcDbEntity
  8
ZUWAKU
100
AcDbLine
 10
324.4086013152724
 20
7.800000179472538
 30
0.0
 11
348.624505334441
 21
7.800000179472538
 31
0.0
  0
LINE
  5
968
330
1A
100
AcDbEntity
  8
ZUWAKU
100
AcDbLine
 10
324.4086013152725
 20
7.700000179472541
 30
0.0
 11
348.624505334441
 21
7.700000179472539
 31
0.0
  0
LINE
  5
969
330
1A
100
AcDbEntity
  8
ZUWAKU
100
AcDbLine
 10
324.4086013152724
 20
7.600000179472537
 30
0.0
 11
348.624505334441
 21
7.600000179472539
 31
0.0
  0
LINE
  5
96A
330
1A
100
AcDbEntity
  8
ZUWAKU
100
AcDbLine
 10
252.5995898092407
 20
7.800000179472538
 30
0.0
 11
276.2634779432265
 21
7.800000179472538
 31
0.0
  0
LINE
  5
96B
330
1A
100
AcDbEntity
  8
ZUWAKU
100
AcDbLine
 10
252.5995898092407
 20
7.700000179472539
 30
0.0
 11
276.2634779432265
 21
7.700000179472539
 31
0.0
  0
LINE
  5
96C
330
1A
100
AcDbEntity
  8
ZUWAKU
100
AcDbLine
 10
252.5995898092407
 20
7.600000179472541
 30
0.0
 11
276.2634779432265
 21
7.600000179472541
 31
0.0
  0
LINE
  5
96D
330
1A
100
AcDbEntity
  8
ZUWAKU
100
AcDbLine
 10
252.3995898092408
 20
15.00000017947252
 30
0.0
 11
252.3995898092408
 21
0.4000001794725563
 31
0.0
  0
LINE
  5
96E
330
1A
100
AcDbEntity
  8
ZUWAKU
100
AcDbLine
 10
252.5995898092407
 20
15.00000017947252
 30
0.0
 11
252.5995898092409
 21
0.4000001794725563
 31
0.0
  0
LINE
  5
96F
330
1A
100
AcDbEntity
  8
ZUWAKU
100
AcDbLine
 10
252.4995898092407
 20
15.00000017947252
 30
0.0
 11
252.4995898092408
 21
0.4000001794725563
 31
0.0
  0
TEXT
  5
970
330
1A
100
AcDbEntity
  8
MOJI
100
AcDbText
 10
264.0204540463268
 20
9.002460708176215
 30
0.0
 40
2.799999999999999
  1
Ａ３
 41
0.9
  7
ｽﾀｲﾙ1
100
AcDbText
  0
LINE
  5
971
330
1A
100
AcDbEntity
  8
ZUWAKU
100
AcDbLine
 10
223.712182045666
 20
15.00000017947252
 30
0.0
 11
223.712182045666
 21
0.4000001794725563
 31
0.0
  0
LINE
  5
972
330
1A
100
AcDbEntity
  8
ZUWAKU
100
AcDbLine
 10
223.9121820456659
 20
15.00000017947252
 30
0.0
 11
223.9121820456661
 21
0.4000001794725563
 31
0.0
  0
LINE
  5
973
330
1A
100
AcDbEntity
  8
ZUWAKU
100
AcDbLine
 10
223.8121820456659
 20
15.00000017947252
 30
0.0
 11
223.812182045666
 21
0.4000001794725563
 31
0.0
  0
TEXT
  5
974
330
1A
100
AcDbEntity
  8
MOJI
100
AcDbText
 10
231.2836392211646
 20
5.971309040302514
 30
0.0
 40
2.799999999999999
  1
ＬＦ６６Ｇ
 41
0.9
  7
ｽﾀｲﾙ1
100
AcDbText
  0
TEXT
  5
975
330
1A
100
AcDbEntity
  8
ZUWAKU
100
AcDbText
 10
253.3383123203457
 20
4.827678448665331
 30
0.0
 40
2.0
  1
縮尺
 41
0.9
  7
ｽﾀｲﾙ1
100
AcDbText
  0
TEXT
  5
976
330
1A
100
AcDbEntity
  8
MOJI
100
AcDbText
 10
264.0204540463268
 20
1.602460708176232
 30
0.0
 40
2.799999999999999
  1
１/１
 41
0.9
  7
ｽﾀｲﾙ1
100
AcDbText
  0
TEXT
  5
977
330
1A
100
AcDbEntity
  8
ZUWAKU
100
AcDbText
 10
224.6509045567707
 20
12.02767844866531
 30
0.0
 40
2.0
  1
品番
 41
0.9
  7
ｽﾀｲﾙ1
100
AcDbText
  0
TEXT
  5
978
330
1A
100
AcDbEntity
  8
ZUWAKU
100
AcDbText
 10
253.3383123203456
 20
12.02767844866531
 30
0.0
 40
2.0
  1
用紙
 41
0.9
  7
ｽﾀｲﾙ1
100
AcDbText
  0
LINE
  5
979
330
1A
100
AcDbEntity
  8
ZUWAKU
100
AcDbLine
 10
276.2634779432265
 20
15.00000017947252
 30
0.0
 11
276.2634779432265
 21
0.4000001794725563
 31
0.0
  0
LINE
  5
97A
330
1A
100
AcDbEntity
  8
ZUWAKU
100
AcDbLine
 10
276.4634779432264
 20
15.00000017947252
 30
0.0
 11
276.4634779432266
 21
0.4000001794725563
 31
0.0
  0
LINE
  5
97B
330
1A
100
AcDbEntity
  8
ZUWAKU
100
AcDbLine
 10
276.3634779432265
 20
15.00000017947252
 30
0.0
 11
276.3634779432265
 21
0.4000001794725563
 31
0.0
  0
LINE
  5
97C
330
1A
100
AcDbEntity
  8
ZUWAKU
100
AcDbLine
 10
324.2086013152726
 20
15.00000017947252
 30
0.0
 11
324.2086013152726
 21
0.4000001794725563
 31
0.0
  0
LINE
  5
97D
330
1A
100
AcDbEntity
  8
ZUWAKU
100
AcDbLine
 10
324.4086013152725
 20
15.00000017947252
 30
0.0
 11
324.4086013152726
 21
0.4000001794725563
 31
0.0
  0
LINE
  5
97E
330
1A
100
AcDbEntity
  8
ZUWAKU
100
AcDbLine
 10
324.3086013152725
 20
15.00000017947252
 30
0.0
 11
324.3086013152726
 21
0.4000001794725563
 31
0.0
  0
TEXT
  5
97F
330
1A
100
AcDbEntity
  8
ZUWAKU
100
AcDbText
 10
325.1473238263773
 20
12.02767844866531
 30
0.0
 40
2.0
  1
DATE
 41
0.9
  7
ｽﾀｲﾙ1
100
AcDbText
  0
TEXT
  5
980
330
1A
100
AcDbEntity
  8
ZUWAKU
100
AcDbText
 10
354.2640421562922
 20
8.776919847315923
 30
0.0
 40
3.0
  1
積水化学工業株式会社
 41
0.9
  7
ｽﾀｲﾙ1
100
AcDbText
  0
LINE
  5
981
330
1A
100
AcDbEntity
  8
ZUWAKU
100
AcDbLine
 10
348.9245053344409
 20
15.00000017947252
 30
0.0
 11
348.924505334441
 21
0.4000001794725563
 31
0.0
  0
LINE
  5
982
330
1A
100
AcDbEntity
  8
ZUWAKU
100
AcDbLine
 10
348.8245053344409
 20
15.00000017947252
 30
0.0
 11
348.824505334441
 21
0.4000001794725563
 31
0.0
  0
LINE
  5
983
330
1A
100
AcDbEntity
  8
ZUWAKU
100
AcDbLine
 10
348.7245053344409
 20
15.00000017947252
 30
0.0
 11
348.7245053344409
 21
0.4000001794725563
 31
0.0
  0
LINE
  5
984
330
1A
100
AcDbEntity
  8
ZUWAKU
100
AcDbLine
 10
348.624505334441
 20
15.00000017947252
 30
0.0
 11
348.624505334441
 21
0.4000001794725563
 31
0.0
  0
TEXT
  5
985
330
1A
100
AcDbEntity
  8
ZUWAKU
100
AcDbText
 10
354.2640421562922
 20
3.324420336399555
 30
0.0
 40
3.0
  1
建材事業部
 41
0.9
  7
ｽﾀｲﾙ1
100
AcDbText
  0
VIEWPORT
  5
22
330
17
100
AcDbEntity
 67
     1
  8
0
100
AcDbViewport
 10
313.6808219178082
 20
148.5
 30
0.0
 40
627.3616438356165
 41
297.0
 68
     2
 69
     1
1001
ACAD
1000
MVIEW
1002
{
1070
    16
1010
0.0
1020
0.0
1030
0.0
1010
0.0
1020
0.0
1030
1.0
1040
0.0
1040
297.0
1040
313.6808219178082
1040
148.5
1040
50.0
1040
0.0
1040
0.0
1070
     0
1070
   100
1070
     1
1070
     0
1070
     0
1070
     0
1070
     0
1070
     0
1040
0.0
1040
0.0
1040
0.0
1040
1.0
1040
1.0
1040
10.0
1040
10.0
1070
     0
1002
{
1002
}
1002
}
  0
VIEWPORT
  5
64
330
17
100
AcDbEntity
 67
     1
  8
VIEWPORT
100
AcDbViewport
 10
210.0
 20
148.5
 30
0.0
 40
420.0
 41
297.0
 68
     1
 69
     2
1001
ACAD
1000
MVIEW
1002
{
1070
    16
1010
0.0
1020
0.0
1030
0.0
1010
0.0
1020
0.0
1030
1.0
1040
0.0
1040
302.9399999999998
1040
210.0
1040
148.5
1040
50.0
1040
0.0
1040
0.0
1070
     0
1070
   100
1070
     1
1070
     0
1070
     0
1070
     0
1070
     0
1070
     0
1040
0.0
1040
0.0
1040
0.0
1040
5.0
1040
5.0
1040
0.0
1040
0.0
1070
     0
1002
{
1002
}
1002
}
  0
ENDSEC
  0
SECTION
  2
OBJECTS
  0
DICTIONARY
  5
C
330
0
100
AcDbDictionary
  3
ACAD_GROUP
350
D
  3
ACAD_LAYOUT
350
3C0
  3
ACAD_MLINESTYLE
350
E
  3
ACAD_PLOTSETTINGS
350
3C1
  3
ACAD_PLOTSTYLENAME
350
3BE
  3
ACDBHEADERROUNDTRIPXREC
350
98D
  0
DICTIONARY
  5
72F
330
1A
100
AcDbDictionary
280
     1
  3
ACAD_LAYOUTSELFREF
360
9AF
  0
DICTIONARY
  5
72D
330
17
100
AcDbDictionary
280
     1
  3
ACAD_LAYOUTSELFREF
360
9AE
  0
DICTIONARY
  5
D
102
{ACAD_REACTORS
330
C
102
}
330
C
100
AcDbDictionary
  0
DICTIONARY
  5
3C0
102
{ACAD_REACTORS
330
C
102
}
330
C
100
AcDbDictionary
  0
DICTIONARY
  5
E
102
{ACAD_REACTORS
330
C
102
}
330
C
100
AcDbDictionary
  3
STANDARD
350
13
  0
DICTIONARY
  5
3C1
102
{ACAD_REACTORS
330
C
102
}
330
C
100
AcDbDictionary
  0
ACDBDICTIONARYWDFLT
  5
3BE
102
{ACAD_REACTORS
330
C
102
}
330
C
100
AcDbDictionary
281
     1
  3
Normal
350
3BF
100
AcDbDictionaryWithDefault
340
3BF
1001
ACAD
1000
TREAT_AS_HARD
1070
     0
1000
TREAT_AS_HARD
1070
     0
  0
DICTIONARY
  5
98D
102
{ACAD_REACTORS
330
C
102
}
330
C
100
AcDbDictionary
  3
TSTACKALIGN
350
98E
  3
TSTACKSIZE
350
98F
  3
HYPERLINKBASE
350
990
  3
STYLESHEET
350
991
  3
LAYOUTDICT
350
992
  3
PLOTSETDICT
350
993
  3
PLOTSTYLNAMDICT
350
994
  3
LWETCUNION
350
995
  3
INSUNITS
350
996
  3
CEPSNTYPE
350
997
  3
FINGERPRINTGUID
350
998
  3
VERSIONGUID
350
999
  3
PSVPSCALE
350
99A
  3
DIMSTYLEDATA
350
99B
  3
PUCSORTHOREF
350
99C
  3
PUCSORTHOVIEW
350
99D
  3
PUCSBASE
350
99E
  3
PUCSORGTOP
350
99F
  3
PUCSORGBOTTOM
350
9A0
  3
PUCSORGLEFT
350
9A1
  3
PUCSORGRIGHT
350
9A2
  3
PUCSORGFRONT
350
9A3
  3
PUCSORGBACK
350
9A4
  3
UCSORTHOREF
350
9A5
  3
UCSORTHOVIEW
350
9A6
  3
UCSBASE
350
9A7
  3
UCSORGTOP
350
9A8
  3
UCSORGBOTTOM
350
9A9
  3
UCSORGLEFT
350
9AA
  3
UCSORGRIGHT
350
9AB
  3
UCSORGFRONT
350
9AC
  3
UCSORGBACK
350
9AD
  0
XRECORD
  5
9AF
102
{ACAD_REACTORS
330
72F
102
}
330
72F
100
AcDbXrecord
340
1A
  0
XRECORD
  5
9AE
102
{ACAD_REACTORS
330
72D
102
}
330
72D
100
AcDbXrecord
340
17
  0
MLINESTYLE
  5
13
102
{ACAD_REACTORS
330
E
102
}
330
E
100
AcDbMlineStyle
  2
STANDARD
 70
     0
  3

 62
     0
 51
90.0
 52
90.0
 71
     2
 49
0.5
 62
   256
  6
BYLAYER
 49
-0.5
 62
   256
  6
BYLAYER
  0
ACDBPLACEHOLDER
  5
3BF
102
{ACAD_REACTORS
330
3BE
102
}
330
3BE
100
AcDbPlaceHolder
280
     0
  0
XRECORD
  5
98E
102
{ACAD_REACTORS
330
98D
102
}
330
98D
100
AcDbXrecord
 90
        1
  0
XRECORD
  5
98F
102
{ACAD_REACTORS
330
98D
102
}
330
98D
100
AcDbXrecord
 90
       70
  0
XRECORD
  5
990
102
{ACAD_REACTORS
330
98D
102
}
330
98D
100
AcDbXrecord
  1

  0
XRECORD
  5
991
102
{ACAD_REACTORS
330
98D
102
}
330
98D
100
AcDbXrecord
  1
systemprinter.ctb
  0
XRECORD
  5
992
102
{ACAD_REACTORS
330
98D
102
}
330
98D
100
AcDbXrecord
340
3C0
  0
XRECORD
  5
993
102
{ACAD_REACTORS
330
98D
102
}
330
98D
100
AcDbXrecord
340
3C1
  0
XRECORD
  5
994
102
{ACAD_REACTORS
330
98D
102
}
330
98D
100
AcDbXrecord
340
3BE
  0
XRECORD
  5
995
102
{ACAD_REACTORS
330
98D
102
}
330
98D
100
AcDbXrecord
 90
    10781
  0
XRECORD
  5
996
102
{ACAD_REACTORS
330
98D
102
}
330
98D
100
AcDbXrecord
 90
        0
  0
XRECORD
  5
997
102
{ACAD_REACTORS
330
98D
102
}
330
98D
100
AcDbXrecord
 90
        0
  0
XRECORD
  5
998
102
{ACAD_REACTORS
330
98D
102
}
330
98D
100
AcDbXrecord
  1
{7711FEFE-39C0-4766-8F13-49EB334D388B}
  0
XRECORD
  5
999
102
{ACAD_REACTORS
330
98D
102
}
330
98D
100
AcDbXrecord
  1
{4F51BCA9-A524-43F9-8096-DC7093D5FC91}
  0
XRECORD
  5
99A
102
{ACAD_REACTORS
330
98D
102
}
330
98D
100
AcDbXrecord
 40
0.0
  0
XRECORD
  5
99B
102
{ACAD_REACTORS
330
98D
102
}
330
98D
100
AcDbXrecord
1000
DSTYLE
1002
{
1070
   341
340
B2
1070
   343
340
B2
1070
   344
340
B2
1070
   371
 70
    -1
1070
   372
 70
    -1
1002
}
  0
XRECORD
  5
99C
102
{ACAD_REACTORS
330
98D
102
}
330
98D
100
AcDbXrecord
340
0
  0
XRECORD
  5
99D
102
{ACAD_REACTORS
330
98D
102
}
330
98D
100
AcDbXrecord
 70
     0
  0
XRECORD
  5
99E
102
{ACAD_REACTORS
330
98D
102
}
330
98D
100
AcDbXrecord
340
0
  0
XRECORD
  5
99F
102
{ACAD_REACTORS
330
98D
102
}
330
98D
100
AcDbXrecord
 10
0.0
 20
0.0
 30
0.0
  0
XRECORD
  5
9A0
102
{ACAD_REACTORS
330
98D
102
}
330
98D
100
AcDbXrecord
 10
0.0
 20
0.0
 30
0.0
  0
XRECORD
  5
9A1
102
{ACAD_REACTORS
330
98D
102
}
330
98D
100
AcDbXrecord
 10
0.0
 20
0.0
 30
0.0
  0
XRECORD
  5
9A2
102
{ACAD_REACTORS
330
98D
102
}
330
98D
100
AcDbXrecord
 10
0.0
 20
0.0
 30
0.0
  0
XRECORD
  5
9A3
102
{ACAD_REACTORS
330
98D
102
}
330
98D
100
AcDbXrecord
 10
0.0
 20
0.0
 30
0.0
  0
XRECORD
  5
9A4
102
{ACAD_REACTORS
330
98D
102
}
330
98D
100
AcDbXrecord
 10
0.0
 20
0.0
 30
0.0
  0
XRECORD
  5
9A5
102
{ACAD_REACTORS
330
98D
102
}
330
98D
100
AcDbXrecord
340
0
  0
XRECORD
  5
9A6
102
{ACAD_REACTORS
330
98D
102
}
330
98D
100
AcDbXrecord
 70
     0
  0
XRECORD
  5
9A7
102
{ACAD_REACTORS
330
98D
102
}
330
98D
100
AcDbXrecord
340
0
  0
XRECORD
  5
9A8
102
{ACAD_REACTORS
330
98D
102
}
330
98D
100
AcDbXrecord
 10
0.0
 20
0.0
 30
0.0
  0
XRECORD
  5
9A9
102
{ACAD_REACTORS
330
98D
102
}
330
98D
100
AcDbXrecord
 10
0.0
 20
0.0
 30
0.0
  0
XRECORD
  5
9AA
102
{ACAD_REACTORS
330
98D
102
}
330
98D
100
AcDbXrecord
 10
0.0
 20
0.0
 30
0.0
  0
XRECORD
  5
9AB
102
{ACAD_REACTORS
330
98D
102
}
330
98D
100
AcDbXrecord
 10
0.0
 20
0.0
 30
0.0
  0
XRECORD
  5
9AC
102
{ACAD_REACTORS
330
98D
102
}
330
98D
100
AcDbXrecord
 10
0.0
 20
0.0
 30
0.0
  0
XRECORD
  5
9AD
102
{ACAD_REACTORS
330
98D
102
}
330
98D
100
AcDbXrecord
 10
0.0
 20
0.0
 30
0.0
  0
ENDSEC
  0
EOF
