  0
SECTION
  2
HEADER
  9
$ACADVER
  1
AC1014
  9
$ACADMAINTVER
 70
     9
  9
$DWGCODEPAGE
  3
ANSI_932
  9
$INSBASE
 10
0.0
 20
0.0
 30
0.0
  9
$EXTMIN
 10
-0.0128164049386896
 20
-0.0090630292066862
 30
-0.0015258207003583
  9
$EXTMAX
 10
398.8000497813338
 20
275.8226172440017
 30
0.0000000349246037
  9
$LIMMIN
 10
0.0
 20
0.0
  9
$LIMMAX
 10
420.0
 20
297.0
  9
$ORTHOMODE
 70
     0
  9
$REGENMODE
 70
     1
  9
$FILLMODE
 70
     1
  9
$QTEXTMODE
 70
     0
  9
$MIRRTEXT
 70
     1
  9
$DRAGMODE
 70
     2
  9
$LTSCALE
 40
1.0
  9
$OSMODE
 70
    37
  9
$ATTMODE
 70
     1
  9
$TEXTSIZE
 40
2.5
  9
$TRACEWID
 40
1.0
  9
$TEXTSTYLE
  7
STANDARD
  9
$CLAYER
  8
SUNPOU
  9
$CELTYPE
  6
BYLAYER
  9
$CECOLOR
 62
   256
  9
$CELTSCALE
 40
1.0
  9
$DELOBJ
 70
     1
  9
$DISPSILH
 70
     0
  9
$DIMSCALE
 40
1.0
  9
$DIMASZ
 40
3.0
  9
$DIMEXO
 40
3.0
  9
$DIMDLI
 40
7.0
  9
$DIMRND
 40
0.0
  9
$DIMDLE
 40
0.0
  9
$DIMEXE
 40
1.5
  9
$DIMTP
 40
0.0
  9
$DIMTM
 40
0.0
  9
$DIMTXT
 40
3.0
  9
$DIMCEN
 40
150.0
  9
$DIMTSZ
 40
0.0
  9
$DIMTOL
 70
     0
  9
$DIMLIM
 70
     0
  9
$DIMTIH
 70
     0
  9
$DIMTOH
 70
     0
  9
$DIMSE1
 70
     0
  9
$DIMSE2
 70
     0
  9
$DIMTAD
 70
     3
  9
$DIMZIN
 70
     0
  9
$DIMBLK
  1

  9
$DIMASO
 70
     1
  9
$DIMSHO
 70
     1
  9
$DIMPOST
  1

  9
$DIMAPOST
  1

  9
$DIMALT
 70
     0
  9
$DIMALTD
 70
     2
  9
$DIMALTF
 40
25.4
  9
$DIMLFAC
 40
1.0
  9
$DIMTOFL
 70
     1
  9
$DIMTVP
 40
0.0
  9
$DIMTIX
 70
     0
  9
$DIMSOXD
 70
     0
  9
$DIMSAH
 70
     1
  9
$DIMBLK1
  1
OPEN
  9
$DIMBLK2
  1
OPEN
  9
$DIMSTYLE
  2
STANDARD
  9
$DIMCLRD
 70
   256
  9
$DIMCLRE
 70
   256
  9
$DIMCLRT
 70
   256
  9
$DIMTFAC
 40
1.0
  9
$DIMGAP
 40
1.0
  9
$DIMJUST
 70
     0
  9
$DIMSD1
 70
     0
  9
$DIMSD2
 70
     0
  9
$DIMTOLJ
 70
     1
  9
$DIMTZIN
 70
     0
  9
$DIMALTZ
 70
     0
  9
$DIMALTTZ
 70
     0
  9
$DIMFIT
 70
     3
  9
$DIMUPT
 70
     0
  9
$DIMUNIT
 70
     2
  9
$DIMDEC
 70
     0
  9
$DIMTDEC
 70
     0
  9
$DIMALTU
 70
     2
  9
$DIMALTTD
 70
     2
  9
$DIMTXSTY
  7
STANDARD
  9
$DIMAUNIT
 70
     0
  9
$LUNITS
 70
     2
  9
$LUPREC
 70
     4
  9
$SKETCHINC
 40
1.0
  9
$FILLETRAD
 40
10.0
  9
$AUNITS
 70
     0
  9
$AUPREC
 70
     0
  9
$MENU
  1
.
  9
$ELEVATION
 40
0.0
  9
$PELEVATION
 40
0.0
  9
$THICKNESS
 40
0.0
  9
$LIMCHECK
 70
     0
  9
$BLIPMODE
 70
     0
  9
$CHAMFERA
 40
10.0
  9
$CHAMFERB
 40
10.0
  9
$CHAMFERC
 40
20.0
  9
$CHAMFERD
 40
0.0
  9
$SKPOLY
 70
     0
  9
$TDCREATE
 40
2450994.350997107
  9
$TDUPDATE
 40
2454515.382556829
  9
$TDINDWG
 40
0.0199682986
  9
$TDUSRTIMER
 40
0.0199682986
  9
$USRTIMER
 70
     1
  9
$ANGBASE
 50
0.0
  9
$ANGDIR
 70
     0
  9
$PDMODE
 70
     1
  9
$PDSIZE
 40
0.0
  9
$PLINEWID
 40
0.0
  9
$COORDS
 70
     2
  9
$SPLFRAME
 70
     0
  9
$SPLINETYPE
 70
     6
  9
$SPLINESEGS
 70
     8
  9
$ATTDIA
 70
     0
  9
$ATTREQ
 70
     1
  9
$HANDLING
 70
 10241
  9
$HANDSEED
  5
AEC
  9
$SURFTAB1
 70
     6
  9
$SURFTAB2
 70
     6
  9
$SURFTYPE
 70
     6
  9
$SURFU
 70
     6
  9
$SURFV
 70
     6
  9
$UCSNAME
  2

  9
$UCSORG
 10
0.0
 20
0.0
 30
0.0
  9
$UCSXDIR
 10
1.0
 20
0.0
 30
0.0
  9
$UCSYDIR
 10
0.0
 20
1.0
 30
0.0
  9
$PUCSNAME
  2

  9
$PUCSORG
 10
0.0
 20
0.0
 30
0.0
  9
$PUCSXDIR
 10
1.0
 20
0.0
 30
0.0
  9
$PUCSYDIR
 10
0.0
 20
1.0
 30
0.0
  9
$USERI1
 70
     0
  9
$USERI2
 70
     0
  9
$USERI3
 70
     0
  9
$USERI4
 70
     0
  9
$USERI5
 70
     0
  9
$USERR1
 40
0.0
  9
$USERR2
 40
0.0
  9
$USERR3
 40
0.0
  9
$USERR4
 40
0.0
  9
$USERR5
 40
0.0
  9
$WORLDVIEW
 70
     1
  9
$SHADEDGE
 70
     3
  9
$SHADEDIF
 70
    70
  9
$TILEMODE
 70
     1
  9
$MAXACTVP
 70
    16
  9
$PINSBASE
 10
0.0
 20
0.0
 30
0.0
  9
$PLIMCHECK
 70
     0
  9
$PEXTMIN
 10
0.0
 20
0.0
 30
0.0
  9
$PEXTMAX
 10
420.0
 20
297.0
 30
0.0
  9
$PLIMMIN
 10
0.0
 20
0.0
  9
$PLIMMAX
 10
420.0
 20
297.0
  9
$UNITMODE
 70
     0
  9
$VISRETAIN
 70
     0
  9
$PLINEGEN
 70
     0
  9
$PSLTSCALE
 70
     1
  9
$TREEDEPTH
 70
  3020
  9
$PICKSTYLE
 70
     1
  9
$CMLSTYLE
  2
STANDARD
  9
$CMLJUST
 70
     0
  9
$CMLSCALE
 40
1.0
  9
$PROXYGRAPHICS
 70
     1
  9
$MEASUREMENT
 70
     1
  0
ENDSEC
  0
SECTION
  2
CLASSES
  0
CLASS
  1
ACDBDICTIONARYWDFLT
  2
AcDbDictionaryWithDefault
  3
AutoCAD 2000
 90
        0
280
     0
281
     0
  0
CLASS
  1
ACDBPLACEHOLDER
  2
AcDbPlaceHolder
  3
AutoCAD 2000
 90
        0
280
     0
281
     0
  0
CLASS
  1
LAYOUT
  2
AcDbLayout
  3
AutoCAD 2000
 90
        0
280
     0
281
     0
  0
CLASS
  1
LONG_TRANSACTION
  2
AcDbLongTransaction
  3
AutoCAD 2000
 90
        0
280
     0
281
     0
  0
CLASS
  1
LWPOLYLINE
  2
AcDbPolyline
  3
AutoCAD 2000
 90
        0
280
     0
281
     1
  0
CLASS
  1
HATCH
  2
AcDbHatch
  3
AutoCAD 2000
 90
        0
280
     0
281
     1
  0
CLASS
  1
XRECORD
  2
AcDbXrecord
  3
AutoCAD 2000
 90
        0
280
     0
281
     0
  0
CLASS
  1
LONG_TRANSACTION
  2
AcDbLongTransaction
  3
AutoCAD 2000
 90
        0
280
     0
281
     0
  0
CLASS
  1
LWPOLYLINE
  2
AcDbPolyline
  3
AutoCAD 2000
 90
        0
280
     0
281
     1
  0
CLASS
  1
HATCH
  2
AcDbHatch
  3
AutoCAD 2000
 90
        0
280
     0
281
     1
  0
CLASS
  1
XRECORD
  2
AcDbXrecord
  3
AutoCAD 2000
 90
        0
280
     0
281
     0
  0
CLASS
  1
LONG_TRANSACTION
  2
AcDbLongTransaction
  3
AutoCAD 2000
 90
        0
280
     0
281
     0
  0
CLASS
  1
LWPOLYLINE
  2
AcDbPolyline
  3
AutoCAD 2000
 90
        0
280
     0
281
     1
  0
CLASS
  1
HATCH
  2
AcDbHatch
  3
AutoCAD 2000
 90
        0
280
     0
281
     1
  0
CLASS
  1
XRECORD
  2
AcDbXrecord
  3
AutoCAD 2000
 90
        0
280
     0
281
     0
  0
ENDSEC
  0
SECTION
  2
TABLES
  0
TABLE
  2
VPORT
  5
8
330
0
100
AcDbSymbolTable
 70
     2
  0
VPORT
  5
AC8
330
8
100
AcDbSymbolTableRecord
100
AcDbViewportTableRecord
  2
*ACTIVE
 70
     0
 10
0.0
 20
0.0
 11
1.0
 21
1.0
 12
198.6672104442437
 22
151.7473955623513
 13
0.0
 23
0.0
 14
5.0
 24
5.0
 15
0.0
 25
0.0
 16
0.0
 26
0.0
 36
1.0
 17
0.0
 27
0.0
 37
0.0
 40
341.7481621879078
 41
1.570153061224489
 42
50.0
 43
0.0
 44
0.0
 50
0.0
 51
0.0
 71
     0
 72
   100
 73
     1
 74
     0
 75
     0
 76
     0
 77
     0
 78
     0
  0
ENDTAB
  0
TABLE
  2
LTYPE
  5
5
330
0
100
AcDbSymbolTable
 70
     3
  0
LTYPE
  5
14
330
5
100
AcDbSymbolTableRecord
100
AcDbLinetypeTableRecord
  2
BYBLOCK
 70
     0
  3

 72
    65
 73
     0
 40
0.0
  0
LTYPE
  5
15
330
5
100
AcDbSymbolTableRecord
100
AcDbLinetypeTableRecord
  2
BYLAYER
 70
     0
  3

 72
    65
 73
     0
 40
0.0
  0
LTYPE
  5
16
330
5
100
AcDbSymbolTableRecord
100
AcDbLinetypeTableRecord
  2
CONTINUOUS
 70
     0
  3
Solid line
 72
    65
 73
     0
 40
0.0
  0
LTYPE
  5
120
330
5
100
AcDbSymbolTableRecord
100
AcDbLinetypeTableRecord
  2
CENTER
 70
     0
  3
____ _ ____ _ ____ _ ____ _ ____ _ ____ _ ____ 
 72
    65
 73
     4
 40
2.0
 49
1.25
 74
     0
 49
-0.25
 74
     0
 49
0.25
 74
     0
 49
-0.25
 74
     0
  0
LTYPE
  5
122
330
5
100
AcDbSymbolTableRecord
100
AcDbLinetypeTableRecord
  2
PHANTOM
 70
     0
  3
______  __  __  ______  __  __  ______  __  __ 
 72
    65
 73
     6
 40
2.5
 49
1.25
 74
     0
 49
-0.25
 74
     0
 49
0.25
 74
     0
 49
-0.25
 74
     0
 49
0.25
 74
     0
 49
-0.25
 74
     0
  0
ENDTAB
  0
TABLE
  2
LAYER
  5
2
330
0
100
AcDbSymbolTable
 70
     9
  0
LAYER
  5
F
330
2
100
AcDbSymbolTableRecord
100
AcDbLayerTableRecord
  2
0
 70
     0
 62
     7
  6
CONTINUOUS
  0
LAYER
  5
62
330
2
100
AcDbSymbolTableRecord
100
AcDbLayerTableRecord
  2
VIEWPORT
 70
     0
 62
     7
  6
CONTINUOUS
  0
LAYER
  5
6B
330
2
100
AcDbSymbolTableRecord
100
AcDbLayerTableRecord
  2
ZUWAKU
 70
     0
 62
     7
  6
CONTINUOUS
  0
LAYER
  5
14E
330
2
100
AcDbSymbolTableRecord
100
AcDbLayerTableRecord
  2
NOKITOI
 70
     0
 62
     8
  6
PHANTOM
  0
LAYER
  5
14F
330
2
100
AcDbSymbolTableRecord
100
AcDbLayerTableRecord
  2
SEIHIN
 70
     0
 62
     3
  6
CONTINUOUS
  0
LAYER
  5
150
330
2
100
AcDbSymbolTableRecord
100
AcDbLayerTableRecord
  2
SUNPOU
 70
     0
 62
     4
  6
CONTINUOUS
  0
LAYER
  5
151
330
2
100
AcDbSymbolTableRecord
100
AcDbLayerTableRecord
  2
CENTER_L
 70
     0
 62
     1
  6
CENTER
  0
LAYER
  5
419
330
2
100
AcDbSymbolTableRecord
100
AcDbLayerTableRecord
  2
DEFPOINTS
 70
     0
 62
     7
  6
CONTINUOUS
  0
LAYER
  5
953
330
2
100
AcDbSymbolTableRecord
100
AcDbLayerTableRecord
  2
MOJI
 70
     0
 62
     2
  6
CONTINUOUS
  0
ENDTAB
  0
TABLE
  2
STYLE
  5
3
330
0
100
AcDbSymbolTable
 70
     2
  0
STYLE
  5
10
330
3
100
AcDbSymbolTableRecord
100
AcDbTextStyleTableRecord
  2
STANDARD
 70
     0
 40
0.0
 41
1.0
 50
0.0
 71
     0
 42
2.5
  3
TXT
  4
bigfont.shx
  0
STYLE
  5
954
330
3
100
AcDbSymbolTableRecord
100
AcDbTextStyleTableRecord
  2
ｽﾀｲﾙ1
 70
     0
 40
0.0
 41
1.0
 50
0.0
 71
     0
 42
2.5
  3
MS PGothic.ttf
  4

1001
ACAD
1000
MS PGothic
1071
    32818
  0
ENDTAB
  0
TABLE
  2
VIEW
  5
6
330
0
100
AcDbSymbolTable
 70
     0
  0
ENDTAB
  0
TABLE
  2
UCS
  5
7
330
0
100
AcDbSymbolTable
 70
     0
  0
ENDTAB
  0
TABLE
  2
APPID
  5
9
330
0
100
AcDbSymbolTable
 70
     1
  0
APPID
  5
11
330
9
100
AcDbSymbolTableRecord
100
AcDbRegAppTableRecord
  2
ACAD
 70
     0
  0
ENDTAB
  0
TABLE
  2
DIMSTYLE
  5
A
330
0
100
AcDbSymbolTable
 70
     1
  0
DIMSTYLE
105
1D
102
{ACAD_REACTORS
330
418
330
433
330
440
330
44D
330
460
330
46D
330
47A
330
487
330
494
330
4A3
330
4B9
330
4C6
330
5C1
330
5CE
330
5DD
330
60D
330
61A
330
62C
102
}
330
A
100
AcDbSymbolTableRecord
100
AcDbDimStyleTableRecord
  2
STANDARD
 70
     0
  3

  4

  5

  6

  7

 40
1.0
 41
0.18
 42
0.0625
 43
0.38
 44
0.18
 45
0.0
 46
0.0
 47
0.0
 48
0.0
140
0.18
141
0.09
142
0.0
143
25.4
144
1.0
145
0.0
146
1.0
147
0.09
 71
     0
 72
     0
 73
     1
 74
     1
 75
     0
 76
     0
 77
     0
 78
     0
170
     0
171
     2
172
     0
173
     0
174
     0
175
     0
176
     0
177
     0
178
     0
270
     2
271
     4
272
     4
273
     2
274
     2
340
10
275
     0
280
     0
281
     0
282
     0
283
     1
284
     0
285
     0
286
     0
287
     3
288
     0
  0
ENDTAB
  0
TABLE
  2
BLOCK_RECORD
  5
1
330
0
100
AcDbSymbolTable
 70
    19
  0
BLOCK_RECORD
  5
1A
102
{ACAD_XDICTIONARY
360
86B
102
}
330
1
100
AcDbSymbolTableRecord
100
AcDbBlockTableRecord
  2
*MODEL_SPACE
  0
BLOCK_RECORD
  5
17
102
{ACAD_XDICTIONARY
360
869
102
}
330
1
100
AcDbSymbolTableRecord
100
AcDbBlockTableRecord
  2
*PAPER_SPACE
  0
BLOCK_RECORD
  5
B2
330
1
100
AcDbSymbolTableRecord
100
AcDbBlockTableRecord
  2
_OPEN
  0
BLOCK_RECORD
  5
41A
330
1
100
AcDbSymbolTableRecord
100
AcDbBlockTableRecord
  2
*D1
  0
BLOCK_RECORD
  5
434
330
1
100
AcDbSymbolTableRecord
100
AcDbBlockTableRecord
  2
*D2
  0
BLOCK_RECORD
  5
441
330
1
100
AcDbSymbolTableRecord
100
AcDbBlockTableRecord
  2
*D3
  0
BLOCK_RECORD
  5
44E
330
1
100
AcDbSymbolTableRecord
100
AcDbBlockTableRecord
  2
*D4
  0
BLOCK_RECORD
  5
461
330
1
100
AcDbSymbolTableRecord
100
AcDbBlockTableRecord
  2
*D5
  0
BLOCK_RECORD
  5
46E
330
1
100
AcDbSymbolTableRecord
100
AcDbBlockTableRecord
  2
*D6
  0
BLOCK_RECORD
  5
47B
330
1
100
AcDbSymbolTableRecord
100
AcDbBlockTableRecord
  2
*D7
  0
BLOCK_RECORD
  5
488
330
1
100
AcDbSymbolTableRecord
100
AcDbBlockTableRecord
  2
*D8
  0
BLOCK_RECORD
  5
495
330
1
100
AcDbSymbolTableRecord
100
AcDbBlockTableRecord
  2
*D9
  0
BLOCK_RECORD
  5
4A4
330
1
100
AcDbSymbolTableRecord
100
AcDbBlockTableRecord
  2
*D10
  0
BLOCK_RECORD
  5
4BA
330
1
100
AcDbSymbolTableRecord
100
AcDbBlockTableRecord
  2
*D11
  0
BLOCK_RECORD
  5
4C7
330
1
100
AcDbSymbolTableRecord
100
AcDbBlockTableRecord
  2
*D12
  0
BLOCK_RECORD
  5
5C2
330
1
100
AcDbSymbolTableRecord
100
AcDbBlockTableRecord
  2
*D13
  0
BLOCK_RECORD
  5
5CF
330
1
100
AcDbSymbolTableRecord
100
AcDbBlockTableRecord
  2
*D14
  0
BLOCK_RECORD
  5
5DE
330
1
100
AcDbSymbolTableRecord
100
AcDbBlockTableRecord
  2
*D15
  0
BLOCK_RECORD
  5
60E
330
1
100
AcDbSymbolTableRecord
100
AcDbBlockTableRecord
  2
*D16
  0
BLOCK_RECORD
  5
61B
330
1
100
AcDbSymbolTableRecord
100
AcDbBlockTableRecord
  2
*D17
  0
BLOCK_RECORD
  5
62D
330
1
100
AcDbSymbolTableRecord
100
AcDbBlockTableRecord
  2
*D18
  0
ENDTAB
  0
ENDSEC
  0
SECTION
  2
BLOCKS
  0
BLOCK
  5
1B
330
1A
100
AcDbEntity
  8
0
100
AcDbBlockBegin
  2
*MODEL_SPACE
 70
     0
 10
0.0
 20
0.0
 30
0.0
  3
*MODEL_SPACE
  1

  0
ENDBLK
  5
1C
330
1A
100
AcDbEntity
  8
0
100
AcDbBlockEnd
  0
BLOCK
  5
18
330
17
100
AcDbEntity
 67
     1
  8
0
100
AcDbBlockBegin
  2
*PAPER_SPACE
 70
     0
 10
0.0
 20
0.0
 30
0.0
  3
*PAPER_SPACE
  1

  0
ENDBLK
  5
19
330
17
100
AcDbEntity
 67
     1
  8
0
100
AcDbBlockEnd
  0
BLOCK
  5
B3
330
B2
100
AcDbEntity
  8
0
100
AcDbBlockBegin
  2
_OPEN
 70
     0
 10
0.0
 20
0.0
 30
0.0
  3
_OPEN
  1

  0
LINE
  5
B4
330
B2
100
AcDbEntity
  8
0
  6
BYBLOCK
 62
     0
100
AcDbLine
 10
-1.0
 20
0.1666666666666666
 30
0.0
 11
0.0
 21
0.0
 31
0.0
  0
LINE
  5
B5
330
B2
100
AcDbEntity
  8
0
  6
BYBLOCK
 62
     0
100
AcDbLine
 10
0.0
 20
0.0
 30
0.0
 11
-1.0
 21
-0.1666666666666666
 31
0.0
  0
LINE
  5
B6
330
B2
100
AcDbEntity
  8
0
  6
BYBLOCK
 62
     0
100
AcDbLine
 10
0.0
 20
0.0
 30
0.0
 11
-1.0
 21
0.0
 31
0.0
  0
ENDBLK
  5
B7
330
B2
100
AcDbEntity
  8
0
100
AcDbBlockEnd
  0
BLOCK
  5
424
330
41A
100
AcDbEntity
  8
0
100
AcDbBlockBegin
  2
*D1
 70
     1
 10
0.0
 20
0.0
 30
0.0
  3
*D1
  1

  0
LINE
  5
873
330
41A
100
AcDbEntity
  8
SUNPOU
 62
     4
100
AcDbLine
 10
86.45111092633554
 20
116.6957129770944
 30
0.0
 11
86.45111092633554
 21
155.8072160868342
 31
0.0
  0
LINE
  5
874
330
41A
100
AcDbEntity
  8
SUNPOU
 62
     4
100
AcDbLine
 10
217.5004177445173
 20
128.1957129770944
 30
0.0
 11
217.5004177445173
 21
155.8072160868342
 31
0.0
  0
LINE
  5
875
330
41A
100
AcDbEntity
  8
SUNPOU
 62
     4
100
AcDbLine
 10
89.45111092633554
 20
154.3072160868342
 30
0.0
 11
214.5004177445172
 21
154.3072160868342
 31
0.0
  0
INSERT
  5
876
330
41A
100
AcDbEntity
  8
SUNPOU
 62
     4
100
AcDbBlockReference
  2
_OPEN
 10
86.45111092633554
 20
154.3072160868342
 30
0.0
 41
3.0
 42
3.0
 43
3.0
 50
180.0
  0
INSERT
  5
877
330
41A
100
AcDbEntity
  8
SUNPOU
 62
     4
100
AcDbBlockReference
  2
_OPEN
 10
217.5004177445173
 20
154.3072160868342
 30
0.0
 41
3.0
 42
3.0
 43
3.0
  0
MTEXT
  5
878
330
41A
100
AcDbEntity
  8
SUNPOU
 62
     4
100
AcDbMText
 10
151.9757643354264
 20
156.8072160868342
 30
0.0
 40
3.0
 41
0.0
 71
     5
 72
     5
  1
\A1;131
1001
ACAD
1000
MTEXTBEGIN
1070
    73
1070
     1
1070
    44
1040
1.0
1070
    74
1070
     0
1000
MTEXTEND
1000
MTEXTBEGIN
1070
    73
1070
     1
1070
    44
1040
1.0
1070
    74
1070
     0
1000
MTEXTEND
  0
POINT
  5
879
330
41A
100
AcDbEntity
  8
DEFPOINTS
 62
     0
100
AcDbPoint
 10
86.45111092633554
 20
113.6957129770944
 30
0.0
  0
POINT
  5
87A
330
41A
100
AcDbEntity
  8
DEFPOINTS
 62
     0
100
AcDbPoint
 10
217.5004177445173
 20
125.1957129770944
 30
0.0
  0
POINT
  5
87B
330
41A
100
AcDbEntity
  8
DEFPOINTS
 62
     0
100
AcDbPoint
 10
217.5004177445173
 20
154.3072160868342
 30
0.0
  0
ENDBLK
  5
425
330
41A
100
AcDbEntity
  8
0
100
AcDbBlockEnd
  0
BLOCK
  5
43E
330
434
100
AcDbEntity
  8
0
100
AcDbBlockBegin
  2
*D2
 70
     1
 10
0.0
 20
0.0
 30
0.0
  3
*D2
  1

  0
LINE
  5
87C
330
434
100
AcDbEntity
  8
SUNPOU
 62
     4
100
AcDbLine
 10
220.5004177445172
 20
125.1957129770944
 30
0.0
 11
240.332794235647
 21
125.1957129770944
 31
0.0
  0
LINE
  5
87D
330
434
100
AcDbEntity
  8
SUNPOU
 62
     4
100
AcDbLine
 10
220.5004109263354
 20
78.19571297709444
 30
0.0
 11
240.332794235647
 21
78.19571297709443
 31
0.0
  0
LINE
  5
87E
330
434
100
AcDbEntity
  8
SUNPOU
 62
     4
100
AcDbLine
 10
238.832794235647
 20
122.1957129770944
 30
0.0
 11
238.832794235647
 21
81.19571297709443
 31
0.0
  0
INSERT
  5
87F
330
434
100
AcDbEntity
  8
SUNPOU
 62
     4
100
AcDbBlockReference
  2
_OPEN
 10
238.832794235647
 20
125.1957129770944
 30
0.0
 41
3.0
 42
3.0
 43
3.0
 50
90.0
  0
INSERT
  5
880
330
434
100
AcDbEntity
  8
SUNPOU
 62
     4
100
AcDbBlockReference
  2
_OPEN
 10
238.832794235647
 20
78.19571297709443
 30
0.0
 41
3.0
 42
3.0
 43
3.0
 50
270.0
  0
MTEXT
  5
881
330
434
100
AcDbEntity
  8
SUNPOU
 62
     4
100
AcDbMText
 10
236.332794235647
 20
101.6957129770944
 30
0.0
 40
3.0
 41
0.0
 71
     5
 72
     5
  1
\A1;47
 11
0.0000000000000001
 21
1.0
 31
0.0
1001
ACAD
1000
MTEXTBEGIN
1070
    73
1070
     1
1070
    44
1040
1.0
1070
    74
1070
     0
1000
MTEXTEND
1000
MTEXTBEGIN
1070
    73
1070
     1
1070
    44
1040
1.0
1070
    74
1070
     0
1000
MTEXTEND
  0
POINT
  5
882
330
434
100
AcDbEntity
  8
DEFPOINTS
 62
     0
100
AcDbPoint
 10
217.5004177445173
 20
125.1957129770944
 30
0.0
  0
POINT
  5
883
330
434
100
AcDbEntity
  8
DEFPOINTS
 62
     0
100
AcDbPoint
 10
217.5004109263354
 20
78.19571297709444
 30
0.0
  0
POINT
  5
884
330
434
100
AcDbEntity
  8
DEFPOINTS
 62
     0
100
AcDbPoint
 10
238.832794235647
 20
78.19571297709443
 30
0.0
  0
ENDBLK
  5
43F
330
434
100
AcDbEntity
  8
0
100
AcDbBlockEnd
  0
BLOCK
  5
44B
330
441
100
AcDbEntity
  8
0
100
AcDbBlockBegin
  2
*D3
 70
     1
 10
0.0
 20
0.0
 30
0.0
  3
*D3
  1

  0
LINE
  5
885
330
441
100
AcDbEntity
  8
SUNPOU
 62
     4
100
AcDbLine
 10
217.5004177445173
 20
128.1957129770944
 30
0.0
 11
217.5004177445173
 21
140.6131304659996
 31
0.0
  0
LINE
  5
886
330
441
100
AcDbEntity
  8
SUNPOU
 62
     4
100
AcDbLine
 10
197.6693109263355
 20
116.9941129770944
 30
0.0
 11
197.6693109263355
 21
140.6131304659996
 31
0.0
  0
LINE
  5
887
330
441
100
AcDbEntity
  8
SUNPOU
 62
     4
100
AcDbLine
 10
214.5004177445172
 20
139.1131304659996
 30
0.0
 11
200.6693109263355
 21
139.1131304659996
 31
0.0
  0
INSERT
  5
888
330
441
100
AcDbEntity
  8
SUNPOU
 62
     4
100
AcDbBlockReference
  2
_OPEN
 10
217.5004177445173
 20
139.1131304659996
 30
0.0
 41
3.0
 42
3.0
 43
3.0
  0
INSERT
  5
889
330
441
100
AcDbEntity
  8
SUNPOU
 62
     4
100
AcDbBlockReference
  2
_OPEN
 10
197.6693109263355
 20
139.1131304659996
 30
0.0
 41
3.0
 42
3.0
 43
3.0
 50
180.0
  0
MTEXT
  5
88A
330
441
100
AcDbEntity
  8
SUNPOU
 62
     4
100
AcDbMText
 10
207.5848643354264
 20
141.6131304659996
 30
0.0
 40
3.0
 41
0.0
 71
     5
 72
     5
  1
\A1;20
1001
ACAD
1000
MTEXTBEGIN
1070
    73
1070
     1
1070
    44
1040
1.0
1070
    74
1070
     0
1000
MTEXTEND
1000
MTEXTBEGIN
1070
    73
1070
     1
1070
    44
1040
1.0
1070
    74
1070
     0
1000
MTEXTEND
  0
POINT
  5
88B
330
441
100
AcDbEntity
  8
DEFPOINTS
 62
     0
100
AcDbPoint
 10
217.5004177445173
 20
125.1957129770944
 30
0.0
  0
POINT
  5
88C
330
441
100
AcDbEntity
  8
DEFPOINTS
 62
     0
100
AcDbPoint
 10
197.6693109263355
 20
113.9941129770944
 30
0.0
  0
POINT
  5
88D
330
441
100
AcDbEntity
  8
DEFPOINTS
 62
     0
100
AcDbPoint
 10
197.6693109263355
 20
139.1131304659996
 30
0.0
  0
ENDBLK
  5
44C
330
441
100
AcDbEntity
  8
0
100
AcDbBlockEnd
  0
BLOCK
  5
458
330
44E
100
AcDbEntity
  8
0
100
AcDbBlockBegin
  2
*D4
 70
     1
 10
0.0
 20
0.0
 30
0.0
  3
*D4
  1

  0
LINE
  5
88E
330
44E
100
AcDbEntity
  8
SUNPOU
 62
     4
100
AcDbLine
 10
179.5003697498648
 20
125.1957129770944
 30
0.0
 11
160.7317012171495
 21
125.1957129770944
 31
0.0
  0
LINE
  5
88F
330
44E
100
AcDbEntity
  8
SUNPOU
 62
     4
100
AcDbLine
 10
153.9533109263354
 20
105.1957129770944
 30
0.0
 11
163.7317012171495
 21
105.1957129770944
 31
0.0
  0
LINE
  5
890
330
44E
100
AcDbEntity
  8
SUNPOU
 62
     4
100
AcDbLine
 10
162.2317012171495
 20
122.1957129770944
 30
0.0
 11
162.2317012171495
 21
108.1957129770944
 31
0.0
  0
INSERT
  5
891
330
44E
100
AcDbEntity
  8
SUNPOU
 62
     4
100
AcDbBlockReference
  2
_OPEN
 10
162.2317012171495
 20
125.1957129770944
 30
0.0
 41
3.0
 42
3.0
 43
3.0
 50
90.0
  0
INSERT
  5
892
330
44E
100
AcDbEntity
  8
SUNPOU
 62
     4
100
AcDbBlockReference
  2
_OPEN
 10
162.2317012171495
 20
105.1957129770944
 30
0.0
 41
3.0
 42
3.0
 43
3.0
 50
270.0
  0
MTEXT
  5
893
330
44E
100
AcDbEntity
  8
SUNPOU
 62
     4
100
AcDbMText
 10
159.7317012171495
 20
115.1957129770944
 30
0.0
 40
3.0
 41
0.0
 71
     5
 72
     5
  1
\A1;20
 11
0.0000000000000001
 21
1.0
 31
0.0
1001
ACAD
1000
MTEXTBEGIN
1070
    73
1070
     1
1070
    44
1040
1.0
1070
    74
1070
     0
1000
MTEXTEND
1000
MTEXTBEGIN
1070
    73
1070
     1
1070
    44
1040
1.0
1070
    74
1070
     0
1000
MTEXTEND
  0
POINT
  5
894
330
44E
100
AcDbEntity
  8
DEFPOINTS
 62
     0
100
AcDbPoint
 10
182.5003697498648
 20
125.1957129770944
 30
0.0
  0
POINT
  5
895
330
44E
100
AcDbEntity
  8
DEFPOINTS
 62
     0
100
AcDbPoint
 10
150.9533109263355
 20
105.1957129770944
 30
0.0
  0
POINT
  5
896
330
44E
100
AcDbEntity
  8
DEFPOINTS
 62
     0
100
AcDbPoint
 10
162.2317012171495
 20
105.1957129770944
 30
0.0
  0
ENDBLK
  5
459
330
44E
100
AcDbEntity
  8
0
100
AcDbBlockEnd
  0
BLOCK
  5
46B
330
461
100
AcDbEntity
  8
0
100
AcDbBlockBegin
  2
*D5
 70
     1
 10
0.0
 20
0.0
 30
0.0
  3
*D5
  1

  0
LINE
  5
897
330
461
100
AcDbEntity
  8
SUNPOU
 62
     4
100
AcDbLine
 10
312.5003109263354
 20
128.1957129770944
 30
0.0
 11
312.5003109263354
 21
140.6131304659996
 31
0.0
  0
LINE
  5
898
330
461
100
AcDbEntity
  8
SUNPOU
 62
     4
100
AcDbLine
 10
342.5003109263355
 20
128.1957129770944
 30
0.0
 11
342.5003109263355
 21
140.6131304659996
 31
0.0
  0
LINE
  5
899
330
461
100
AcDbEntity
  8
SUNPOU
 62
     4
100
AcDbLine
 10
315.5003109263355
 20
139.1131304659996
 30
0.0
 11
339.5003109263354
 21
139.1131304659996
 31
0.0
  0
INSERT
  5
89A
330
461
100
AcDbEntity
  8
SUNPOU
 62
     4
100
AcDbBlockReference
  2
_OPEN
 10
312.5003109263354
 20
139.1131304659996
 30
0.0
 41
3.0
 42
3.0
 43
3.0
 50
180.0
  0
INSERT
  5
89B
330
461
100
AcDbEntity
  8
SUNPOU
 62
     4
100
AcDbBlockReference
  2
_OPEN
 10
342.5003109263355
 20
139.1131304659996
 30
0.0
 41
3.0
 42
3.0
 43
3.0
  0
MTEXT
  5
89C
330
461
100
AcDbEntity
  8
SUNPOU
 62
     4
100
AcDbMText
 10
327.5003109263355
 20
141.6131304659996
 30
0.0
 40
3.0
 41
0.0
 71
     5
 72
     5
  1
\A1;30
1001
ACAD
1000
MTEXTBEGIN
1070
    73
1070
     1
1070
    44
1040
1.0
1070
    74
1070
     0
1000
MTEXTEND
1000
MTEXTBEGIN
1070
    73
1070
     1
1070
    44
1040
1.0
1070
    74
1070
     0
1000
MTEXTEND
  0
POINT
  5
89D
330
461
100
AcDbEntity
  8
DEFPOINTS
 62
     0
100
AcDbPoint
 10
312.5003109263354
 20
125.1957129770944
 30
0.0
  0
POINT
  5
89E
330
461
100
AcDbEntity
  8
DEFPOINTS
 62
     0
100
AcDbPoint
 10
342.5003109263355
 20
125.1957129770944
 30
0.0
  0
POINT
  5
89F
330
461
100
AcDbEntity
  8
DEFPOINTS
 62
     0
100
AcDbPoint
 10
342.5003109263355
 20
139.1131304659996
 30
0.0
  0
ENDBLK
  5
46C
330
461
100
AcDbEntity
  8
0
100
AcDbBlockEnd
  0
BLOCK
  5
478
330
46E
100
AcDbEntity
  8
0
100
AcDbBlockBegin
  2
*D6
 70
     1
 10
0.0
 20
0.0
 30
0.0
  3
*D6
  1

  0
LINE
  5
8A0
330
46E
100
AcDbEntity
  8
SUNPOU
 62
     4
100
AcDbLine
 10
311.0003109263355
 20
115.8882129770944
 30
0.0
 11
311.0003109263355
 21
147.8930422492976
 31
0.0
  0
LINE
  5
8A1
330
46E
100
AcDbEntity
  8
SUNPOU
 62
     4
100
AcDbLine
 10
344.0003109263354
 20
115.8882129770944
 30
0.0
 11
344.0003109263354
 21
147.8930422492976
 31
0.0
  0
LINE
  5
8A2
330
46E
100
AcDbEntity
  8
SUNPOU
 62
     4
100
AcDbLine
 10
314.0003109263354
 20
146.3930422492976
 30
0.0
 11
341.0003109263354
 21
146.3930422492976
 31
0.0
  0
INSERT
  5
8A3
330
46E
100
AcDbEntity
  8
SUNPOU
 62
     4
100
AcDbBlockReference
  2
_OPEN
 10
311.0003109263355
 20
146.3930422492976
 30
0.0
 41
3.0
 42
3.0
 43
3.0
 50
180.0
  0
INSERT
  5
8A4
330
46E
100
AcDbEntity
  8
SUNPOU
 62
     4
100
AcDbBlockReference
  2
_OPEN
 10
344.0003109263354
 20
146.3930422492976
 30
0.0
 41
3.0
 42
3.0
 43
3.0
  0
MTEXT
  5
8A5
330
46E
100
AcDbEntity
  8
SUNPOU
 62
     4
100
AcDbMText
 10
327.5003109263355
 20
148.8930422492976
 30
0.0
 40
3.0
 41
0.0
 71
     5
 72
     5
  1
\A1;33
1001
ACAD
1000
MTEXTBEGIN
1070
    73
1070
     1
1070
    44
1040
1.0
1070
    74
1070
     0
1000
MTEXTEND
1000
MTEXTBEGIN
1070
    73
1070
     1
1070
    44
1040
1.0
1070
    74
1070
     0
1000
MTEXTEND
  0
POINT
  5
8A6
330
46E
100
AcDbEntity
  8
DEFPOINTS
 62
     0
100
AcDbPoint
 10
311.0003109263355
 20
112.8882129770944
 30
0.0
  0
POINT
  5
8A7
330
46E
100
AcDbEntity
  8
DEFPOINTS
 62
     0
100
AcDbPoint
 10
344.0003109263354
 20
112.8882129770944
 30
0.0
  0
POINT
  5
8A8
330
46E
100
AcDbEntity
  8
DEFPOINTS
 62
     0
100
AcDbPoint
 10
344.0003109263354
 20
146.3930422492976
 30
0.0
  0
ENDBLK
  5
479
330
46E
100
AcDbEntity
  8
0
100
AcDbBlockEnd
  0
BLOCK
  5
485
330
47B
100
AcDbEntity
  8
0
100
AcDbBlockBegin
  2
*D7
 70
     1
 10
0.0
 20
0.0
 30
0.0
  3
*D7
  1

  0
LINE
  5
8A9
330
47B
100
AcDbEntity
  8
SUNPOU
 62
     4
100
AcDbLine
 10
305.0003109263355
 20
118.1957129770944
 30
0.0
 11
305.0003109263355
 21
155.8072160868342
 31
0.0
  0
LINE
  5
8AA
330
47B
100
AcDbEntity
  8
SUNPOU
 62
     4
100
AcDbLine
 10
350.0003109263354
 20
118.1957129770944
 30
0.0
 11
350.0003109263354
 21
155.8072160868342
 31
0.0
  0
LINE
  5
8AB
330
47B
100
AcDbEntity
  8
SUNPOU
 62
     4
100
AcDbLine
 10
308.0003109263354
 20
154.3072160868342
 30
0.0
 11
347.0003109263354
 21
154.3072160868342
 31
0.0
  0
INSERT
  5
8AC
330
47B
100
AcDbEntity
  8
SUNPOU
 62
     4
100
AcDbBlockReference
  2
_OPEN
 10
305.0003109263355
 20
154.3072160868342
 30
0.0
 41
3.0
 42
3.0
 43
3.0
 50
180.0
  0
INSERT
  5
8AD
330
47B
100
AcDbEntity
  8
SUNPOU
 62
     4
100
AcDbBlockReference
  2
_OPEN
 10
350.0003109263354
 20
154.3072160868342
 30
0.0
 41
3.0
 42
3.0
 43
3.0
  0
MTEXT
  5
8AE
330
47B
100
AcDbEntity
  8
SUNPOU
 62
     4
100
AcDbMText
 10
327.5003109263355
 20
156.8072160868342
 30
0.0
 40
3.0
 41
0.0
 71
     5
 72
     5
  1
\A1;45
1001
ACAD
1000
MTEXTBEGIN
1070
    73
1070
     1
1070
    44
1040
1.0
1070
    74
1070
     0
1000
MTEXTEND
1000
MTEXTBEGIN
1070
    73
1070
     1
1070
    44
1040
1.0
1070
    74
1070
     0
1000
MTEXTEND
  0
POINT
  5
8AF
330
47B
100
AcDbEntity
  8
DEFPOINTS
 62
     0
100
AcDbPoint
 10
305.0003109263355
 20
115.1957129770944
 30
0.0
  0
POINT
  5
8B0
330
47B
100
AcDbEntity
  8
DEFPOINTS
 62
     0
100
AcDbPoint
 10
350.0003109263354
 20
115.1957129770944
 30
0.0
  0
POINT
  5
8B1
330
47B
100
AcDbEntity
  8
DEFPOINTS
 62
     0
100
AcDbPoint
 10
350.0003109263354
 20
154.3072160868342
 30
0.0
  0
ENDBLK
  5
486
330
47B
100
AcDbEntity
  8
0
100
AcDbBlockEnd
  0
BLOCK
  5
492
330
488
100
AcDbEntity
  8
0
100
AcDbBlockBegin
  2
*D8
 70
     1
 10
0.0
 20
0.0
 30
0.0
  3
*D8
  1

  0
LINE
  5
8B2
330
488
100
AcDbEntity
  8
SUNPOU
 62
     4
100
AcDbLine
 10
309.5003109263354
 20
125.1957129770944
 30
0.0
 11
283.4616816869588
 21
125.1957129770944
 31
0.0
  0
LINE
  5
8B3
330
488
100
AcDbEntity
  8
SUNPOU
 62
     4
100
AcDbLine
 10
303.7877109263354
 20
109.1957129770944
 30
0.0
 11
283.4616816869588
 21
109.1957129770944
 31
0.0
  0
LINE
  5
8B4
330
488
100
AcDbEntity
  8
SUNPOU
 62
     4
100
AcDbLine
 10
284.9616816869588
 20
122.1957129770944
 30
0.0
 11
284.9616816869588
 21
112.1957129770944
 31
0.0
  0
INSERT
  5
8B5
330
488
100
AcDbEntity
  8
SUNPOU
 62
     4
100
AcDbBlockReference
  2
_OPEN
 10
284.9616816869588
 20
125.1957129770944
 30
0.0
 41
3.0
 42
3.0
 43
3.0
 50
90.0
  0
INSERT
  5
8B6
330
488
100
AcDbEntity
  8
SUNPOU
 62
     4
100
AcDbBlockReference
  2
_OPEN
 10
284.9616816869588
 20
109.1957129770944
 30
0.0
 41
3.0
 42
3.0
 43
3.0
 50
270.0
  0
MTEXT
  5
8B7
330
488
100
AcDbEntity
  8
SUNPOU
 62
     4
100
AcDbMText
 10
282.4616816869588
 20
117.1957129770945
 30
0.0
 40
3.0
 41
0.0
 71
     5
 72
     5
  1
\A1;16
 11
0.0000000000000001
 21
1.0
 31
0.0
1001
ACAD
1000
MTEXTBEGIN
1070
    73
1070
     1
1070
    44
1040
1.0
1070
    74
1070
     0
1000
MTEXTEND
1000
MTEXTBEGIN
1070
    73
1070
     1
1070
    44
1040
1.0
1070
    74
1070
     0
1000
MTEXTEND
  0
POINT
  5
8B8
330
488
100
AcDbEntity
  8
DEFPOINTS
 62
     0
100
AcDbPoint
 10
312.5003109263354
 20
125.1957129770944
 30
0.0
  0
POINT
  5
8B9
330
488
100
AcDbEntity
  8
DEFPOINTS
 62
     0
100
AcDbPoint
 10
306.7877109263354
 20
109.1957129770944
 30
0.0
  0
POINT
  5
8BA
330
488
100
AcDbEntity
  8
DEFPOINTS
 62
     0
100
AcDbPoint
 10
284.9616816869588
 20
109.1957129770944
 30
0.0
  0
ENDBLK
  5
493
330
488
100
AcDbEntity
  8
0
100
AcDbBlockEnd
  0
BLOCK
  5
4A1
330
495
100
AcDbEntity
  8
0
100
AcDbBlockBegin
  2
*D9
 70
     1
 10
0.0
 20
0.0
 30
0.0
  3
*D9
  1

  0
LINE
  5
8BB
330
495
100
AcDbEntity
  8
SUNPOU
 62
     4
100
AcDbLine
 10
319.8211109263354
 20
84.19571297709444
 30
0.0
 11
303.1547200348993
 21
84.19571297709444
 31
0.0
  0
LINE
  5
8BC
330
495
100
AcDbEntity
  8
SUNPOU
 62
     4
100
AcDbLine
 10
324.5003109263354
 20
78.19574357993811
 30
0.0
 11
303.1547200348993
 21
78.19574357993811
 31
0.0
  0
LINE
  5
8BD
330
495
100
AcDbEntity
  8
SUNPOU
 62
     4
100
AcDbLine
 10
304.6547200348993
 20
87.19571297709444
 30
0.0
 11
304.6547200348993
 21
90.19571297709445
 31
0.0
  0
LINE
  5
8BE
330
495
100
AcDbEntity
  8
SUNPOU
 62
     4
100
AcDbLine
 10
304.6547200348993
 20
75.19574357993811
 30
0.0
 11
304.6547200348993
 21
72.19574357993811
 31
0.0
  0
LINE
  5
8BF
330
495
100
AcDbEntity
  8
SUNPOU
 62
     4
100
AcDbLine
 10
304.6547200348993
 20
84.19571297709444
 30
0.0
 11
304.6547200348993
 21
78.19574357993811
 31
0.0
  0
INSERT
  5
8C0
330
495
100
AcDbEntity
  8
SUNPOU
 62
     4
100
AcDbBlockReference
  2
_OPEN
 10
304.6547200348993
 20
84.19571297709444
 30
0.0
 41
3.0
 42
3.0
 43
3.0
 50
270.0
  0
INSERT
  5
8C1
330
495
100
AcDbEntity
  8
SUNPOU
 62
     4
100
AcDbBlockReference
  2
_OPEN
 10
304.6547200348993
 20
78.19574357993811
 30
0.0
 41
3.0
 42
3.0
 43
3.0
 50
90.0
  0
MTEXT
  5
8C2
330
495
100
AcDbEntity
  8
SUNPOU
 62
     4
100
AcDbMText
 10
302.1547200348993
 20
81.19572827851634
 30
0.0
 40
3.0
 41
0.0
 71
     5
 72
     5
  1
\A1;6
 11
0.0000000000000001
 21
1.0
 31
0.0
1001
ACAD
1000
MTEXTBEGIN
1070
    73
1070
     1
1070
    44
1040
1.0
1070
    74
1070
     0
1000
MTEXTEND
1000
MTEXTBEGIN
1070
    73
1070
     1
1070
    44
1040
1.0
1070
    74
1070
     0
1000
MTEXTEND
  0
POINT
  5
8C3
330
495
100
AcDbEntity
  8
DEFPOINTS
 62
     0
100
AcDbPoint
 10
322.8211109263354
 20
84.19571297709444
 30
0.0
  0
POINT
  5
8C4
330
495
100
AcDbEntity
  8
DEFPOINTS
 62
     0
100
AcDbPoint
 10
327.5003109263355
 20
78.19574357993811
 30
0.0
  0
POINT
  5
8C5
330
495
100
AcDbEntity
  8
DEFPOINTS
 62
     0
100
AcDbPoint
 10
304.6547200348993
 20
78.19574357993811
 30
0.0
  0
ENDBLK
  5
4A2
330
495
100
AcDbEntity
  8
0
100
AcDbBlockEnd
  0
BLOCK
  5
4AE
330
4A4
100
AcDbEntity
  8
0
100
AcDbBlockBegin
  2
*D10
 70
     1
 10
0.0
 20
0.0
 30
0.0
  3
*D10
  1

  0
LINE
  5
8C6
330
4A4
100
AcDbEntity
  8
SUNPOU
 62
     4
100
AcDbLine
 10
309.5003109263354
 20
125.1957129770944
 30
0.0
 11
274.4876390954195
 21
125.1957129770944
 31
0.0
  0
LINE
  5
8C7
330
4A4
100
AcDbEntity
  8
SUNPOU
 62
     4
100
AcDbLine
 10
324.5003109263354
 20
78.19570125060818
 30
0.0
 11
274.4876390954195
 21
78.1957012506082
 31
0.0
  0
LINE
  5
8C8
330
4A4
100
AcDbEntity
  8
SUNPOU
 62
     4
100
AcDbLine
 10
275.9876390954195
 20
122.1957129770944
 30
0.0
 11
275.9876390954195
 21
81.19570125060819
 31
0.0
  0
INSERT
  5
8C9
330
4A4
100
AcDbEntity
  8
SUNPOU
 62
     4
100
AcDbBlockReference
  2
_OPEN
 10
275.9876390954195
 20
125.1957129770944
 30
0.0
 41
3.0
 42
3.0
 43
3.0
 50
90.0
  0
INSERT
  5
8CA
330
4A4
100
AcDbEntity
  8
SUNPOU
 62
     4
100
AcDbBlockReference
  2
_OPEN
 10
275.9876390954195
 20
78.1957012506082
 30
0.0
 41
3.0
 42
3.0
 43
3.0
 50
270.0
  0
MTEXT
  5
8CB
330
4A4
100
AcDbEntity
  8
SUNPOU
 62
     4
100
AcDbMText
 10
273.4876390954195
 20
101.6957071138513
 30
0.0
 40
3.0
 41
0.0
 71
     5
 72
     5
  1
\A1;47
 11
0.0000000000000001
 21
1.0
 31
0.0
1001
ACAD
1000
MTEXTBEGIN
1070
    73
1070
     1
1070
    44
1040
1.0
1070
    74
1070
     0
1000
MTEXTEND
1000
MTEXTBEGIN
1070
    73
1070
     1
1070
    44
1040
1.0
1070
    74
1070
     0
1000
MTEXTEND
  0
POINT
  5
8CC
330
4A4
100
AcDbEntity
  8
DEFPOINTS
 62
     0
100
AcDbPoint
 10
312.5003109263354
 20
125.1957129770944
 30
0.0
  0
POINT
  5
8CD
330
4A4
100
AcDbEntity
  8
DEFPOINTS
 62
     0
100
AcDbPoint
 10
327.5003109263355
 20
78.19570125060818
 30
0.0
  0
POINT
  5
8CE
330
4A4
100
AcDbEntity
  8
DEFPOINTS
 62
     0
100
AcDbPoint
 10
275.9876390954195
 20
78.1957012506082
 30
0.0
  0
ENDBLK
  5
4AF
330
4A4
100
AcDbEntity
  8
0
100
AcDbBlockEnd
  0
BLOCK
  5
4C4
330
4BA
100
AcDbEntity
  8
0
100
AcDbBlockBegin
  2
*D11
 70
     1
 10
0.0
 20
0.0
 30
0.0
  3
*D11
  1

  0
LINE
  5
8CF
330
4BA
100
AcDbEntity
  8
SUNPOU
 62
     4
100
AcDbLine
 10
224.4702109263354
 20
230.3643129770944
 30
0.0
 11
240.041762820007
 21
230.3643129770944
 31
0.0
  0
LINE
  5
8D0
330
4BA
100
AcDbEntity
  8
SUNPOU
 62
     4
100
AcDbLine
 10
224.4702109263354
 20
197.3643129770944
 30
0.0
 11
240.041762820007
 21
197.3643129770944
 31
0.0
  0
LINE
  5
8D1
330
4BA
100
AcDbEntity
  8
SUNPOU
 62
     4
100
AcDbLine
 10
238.541762820007
 20
227.3643129770944
 30
0.0
 11
238.541762820007
 21
200.3643129770944
 31
0.0
  0
INSERT
  5
8D2
330
4BA
100
AcDbEntity
  8
SUNPOU
 62
     4
100
AcDbBlockReference
  2
_OPEN
 10
238.541762820007
 20
230.3643129770944
 30
0.0
 41
3.0
 42
3.0
 43
3.0
 50
90.0
  0
INSERT
  5
8D3
330
4BA
100
AcDbEntity
  8
SUNPOU
 62
     4
100
AcDbBlockReference
  2
_OPEN
 10
238.541762820007
 20
197.3643129770944
 30
0.0
 41
3.0
 42
3.0
 43
3.0
 50
270.0
  0
MTEXT
  5
8D4
330
4BA
100
AcDbEntity
  8
SUNPOU
 62
     4
100
AcDbMText
 10
236.041762820007
 20
213.8643129770945
 30
0.0
 40
3.0
 41
0.0
 71
     5
 72
     5
  1
\A1;33
 11
0.0000000000000001
 21
1.0
 31
0.0
1001
ACAD
1000
MTEXTBEGIN
1070
    73
1070
     1
1070
    44
1040
1.0
1070
    74
1070
     0
1000
MTEXTEND
1000
MTEXTBEGIN
1070
    73
1070
     1
1070
    44
1040
1.0
1070
    74
1070
     0
1000
MTEXTEND
  0
POINT
  5
8D5
330
4BA
100
AcDbEntity
  8
DEFPOINTS
 62
     0
100
AcDbPoint
 10
221.4702109263354
 20
230.3643129770944
 30
0.0
  0
POINT
  5
8D6
330
4BA
100
AcDbEntity
  8
DEFPOINTS
 62
     0
100
AcDbPoint
 10
221.4702109263354
 20
197.3643129770944
 30
0.0
  0
POINT
  5
8D7
330
4BA
100
AcDbEntity
  8
DEFPOINTS
 62
     0
100
AcDbPoint
 10
238.541762820007
 20
197.3643129770944
 30
0.0
  0
ENDBLK
  5
4C5
330
4BA
100
AcDbEntity
  8
0
100
AcDbBlockEnd
  0
BLOCK
  5
4D1
330
4C7
100
AcDbEntity
  8
0
100
AcDbBlockBegin
  2
*D12
 70
     1
 10
0.0
 20
0.0
 30
0.0
  3
*D12
  1

  0
LINE
  5
8D8
330
4C7
100
AcDbEntity
  8
SUNPOU
 62
     4
100
AcDbLine
 10
220.5004109263354
 20
236.3643129770944
 30
0.0
 11
247.4304912607097
 21
236.3643129770944
 31
0.0
  0
LINE
  5
8D9
330
4C7
100
AcDbEntity
  8
SUNPOU
 62
     4
100
AcDbLine
 10
220.5004109263354
 20
191.3643129770944
 30
0.0
 11
247.4304912607097
 21
191.3643129770944
 31
0.0
  0
LINE
  5
8DA
330
4C7
100
AcDbEntity
  8
SUNPOU
 62
     4
100
AcDbLine
 10
245.9304912607097
 20
233.3643129770944
 30
0.0
 11
245.9304912607097
 21
194.3643129770944
 31
0.0
  0
INSERT
  5
8DB
330
4C7
100
AcDbEntity
  8
SUNPOU
 62
     4
100
AcDbBlockReference
  2
_OPEN
 10
245.9304912607097
 20
236.3643129770944
 30
0.0
 41
3.0
 42
3.0
 43
3.0
 50
90.0
  0
INSERT
  5
8DC
330
4C7
100
AcDbEntity
  8
SUNPOU
 62
     4
100
AcDbBlockReference
  2
_OPEN
 10
245.9304912607096
 20
191.3643129770944
 30
0.0
 41
3.0
 42
3.0
 43
3.0
 50
270.0
  0
MTEXT
  5
8DD
330
4C7
100
AcDbEntity
  8
SUNPOU
 62
     4
100
AcDbMText
 10
243.4304912607096
 20
213.8643129770945
 30
0.0
 40
3.0
 41
0.0
 71
     5
 72
     5
  1
\A1;45
 11
0.0000000000000001
 21
1.0
 31
0.0
1001
ACAD
1000
MTEXTBEGIN
1070
    73
1070
     1
1070
    44
1040
1.0
1070
    74
1070
     0
1000
MTEXTEND
1000
MTEXTBEGIN
1070
    73
1070
     1
1070
    44
1040
1.0
1070
    74
1070
     0
1000
MTEXTEND
  0
POINT
  5
8DE
330
4C7
100
AcDbEntity
  8
DEFPOINTS
 62
     0
100
AcDbPoint
 10
217.5004109263354
 20
236.3643129770944
 30
0.0
  0
POINT
  5
8DF
330
4C7
100
AcDbEntity
  8
DEFPOINTS
 62
     0
100
AcDbPoint
 10
217.5004109263354
 20
191.3643129770944
 30
0.0
  0
POINT
  5
8E0
330
4C7
100
AcDbEntity
  8
DEFPOINTS
 62
     0
100
AcDbPoint
 10
245.9304912607096
 20
191.3643129770944
 30
0.0
  0
ENDBLK
  5
4D2
330
4C7
100
AcDbEntity
  8
0
100
AcDbBlockEnd
  0
BLOCK
  5
5CC
330
5C2
100
AcDbEntity
  8
0
100
AcDbBlockBegin
  2
*D13
 70
     1
 10
0.0
 20
0.0
 30
0.0
  3
*D13
  1

  0
LINE
  5
8E1
330
5C2
100
AcDbEntity
  8
SUNPOU
 62
     4
100
AcDbLine
 10
83.45111092633555
 20
113.6957129770944
 30
0.0
 11
54.98093270936943
 21
113.6957129770944
 31
0.0
  0
LINE
  5
8E2
330
5C2
100
AcDbEntity
  8
SUNPOU
 62
     4
100
AcDbLine
 10
213.5003109263354
 20
78.19571297709444
 30
0.0
 11
54.98093270936941
 21
78.19571297709448
 31
0.0
  0
LINE
  5
8E3
330
5C2
100
AcDbEntity
  8
SUNPOU
 62
     4
100
AcDbLine
 10
56.48093270936943
 20
110.6957129770944
 30
0.0
 11
56.48093270936943
 21
81.19571297709448
 31
0.0
  0
INSERT
  5
8E4
330
5C2
100
AcDbEntity
  8
SUNPOU
 62
     4
100
AcDbBlockReference
  2
_OPEN
 10
56.48093270936943
 20
113.6957129770944
 30
0.0
 41
3.0
 42
3.0
 43
3.0
 50
90.0
  0
INSERT
  5
8E5
330
5C2
100
AcDbEntity
  8
SUNPOU
 62
     4
100
AcDbBlockReference
  2
_OPEN
 10
56.48093270936942
 20
78.19571297709448
 30
0.0
 41
3.0
 42
3.0
 43
3.0
 50
270.0
  0
MTEXT
  5
8E6
330
5C2
100
AcDbEntity
  8
SUNPOU
 62
     4
100
AcDbMText
 10
53.98093270936941
 20
95.94571297709448
 30
0.0
 40
3.0
 41
0.0
 71
     5
 72
     5
  1
\A1;36
 11
0.0000000000000001
 21
1.0
 31
0.0
1001
ACAD
1000
MTEXTBEGIN
1070
    73
1070
     1
1070
    44
1040
1.0
1070
    74
1070
     0
1000
MTEXTEND
1000
MTEXTBEGIN
1070
    73
1070
     1
1070
    44
1040
1.0
1070
    74
1070
     0
1000
MTEXTEND
  0
POINT
  5
8E7
330
5C2
100
AcDbEntity
  8
DEFPOINTS
 62
     0
100
AcDbPoint
 10
86.45111092633554
 20
113.6957129770944
 30
0.0
  0
POINT
  5
8E8
330
5C2
100
AcDbEntity
  8
DEFPOINTS
 62
     0
100
AcDbPoint
 10
216.5003109263354
 20
78.19571297709444
 30
0.0
  0
POINT
  5
8E9
330
5C2
100
AcDbEntity
  8
DEFPOINTS
 62
     0
100
AcDbPoint
 10
56.48093270936942
 20
78.19571297709448
 30
0.0
  0
ENDBLK
  5
5CD
330
5C2
100
AcDbEntity
  8
0
100
AcDbBlockEnd
  0
BLOCK
  5
5DB
330
5CF
100
AcDbEntity
  8
0
100
AcDbBlockBegin
  2
*D14
 70
     1
 10
0.0
 20
0.0
 30
0.0
  3
*D14
  1

  0
LINE
  5
8EA
330
5CF
100
AcDbEntity
  8
SUNPOU
 62
     4
100
AcDbLine
 10
83.45111092633551
 20
113.6957129770944
 30
0.0
 11
65.11909476347728
 21
113.6957129770944
 31
0.0
  0
LINE
  5
8EB
330
5CF
100
AcDbEntity
  8
SUNPOU
 62
     4
100
AcDbLine
 10
84.90031092633547
 20
108.6957129770944
 30
0.0
 11
65.11909476347728
 21
108.6957129770944
 31
0.0
  0
LINE
  5
8EC
330
5CF
100
AcDbEntity
  8
SUNPOU
 62
     4
100
AcDbLine
 10
66.61909476347728
 20
116.6957129770944
 30
0.0
 11
66.61909476347728
 21
119.6957129770944
 31
0.0
  0
LINE
  5
8ED
330
5CF
100
AcDbEntity
  8
SUNPOU
 62
     4
100
AcDbLine
 10
66.61909476347728
 20
105.6957129770944
 30
0.0
 11
66.61909476347728
 21
102.6957129770944
 31
0.0
  0
LINE
  5
8EE
330
5CF
100
AcDbEntity
  8
SUNPOU
 62
     4
100
AcDbLine
 10
66.61909476347728
 20
113.6957129770944
 30
0.0
 11
66.61909476347728
 21
108.6957129770944
 31
0.0
  0
INSERT
  5
8EF
330
5CF
100
AcDbEntity
  8
SUNPOU
 62
     4
100
AcDbBlockReference
  2
_OPEN
 10
66.61909476347728
 20
113.6957129770944
 30
0.0
 41
3.0
 42
3.0
 43
3.0
 50
270.0
  0
INSERT
  5
8F0
330
5CF
100
AcDbEntity
  8
SUNPOU
 62
     4
100
AcDbBlockReference
  2
_OPEN
 10
66.61909476347728
 20
108.6957129770944
 30
0.0
 41
3.0
 42
3.0
 43
3.0
 50
90.0
  0
MTEXT
  5
8F1
330
5CF
100
AcDbEntity
  8
SUNPOU
 62
     4
100
AcDbMText
 10
64.11909476347725
 20
111.1957129770944
 30
0.0
 40
3.0
 41
0.0
 71
     5
 72
     5
  1
\A1;5
 11
0.0000000000000001
 21
1.0
 31
0.0
1001
ACAD
1000
MTEXTBEGIN
1070
    73
1070
     1
1070
    44
1040
1.0
1070
    74
1070
     0
1000
MTEXTEND
1000
MTEXTBEGIN
1070
    73
1070
     1
1070
    44
1040
1.0
1070
    74
1070
     0
1000
MTEXTEND
  0
POINT
  5
8F2
330
5CF
100
AcDbEntity
  8
DEFPOINTS
 62
     0
100
AcDbPoint
 10
86.45111092633552
 20
113.6957129770944
 30
0.0
  0
POINT
  5
8F3
330
5CF
100
AcDbEntity
  8
DEFPOINTS
 62
     0
100
AcDbPoint
 10
87.90031092633546
 20
108.6957129770944
 30
0.0
  0
POINT
  5
8F4
330
5CF
100
AcDbEntity
  8
DEFPOINTS
 62
     0
100
AcDbPoint
 10
66.61909476347728
 20
108.6957129770944
 30
0.0
  0
ENDBLK
  5
5DC
330
5CF
100
AcDbEntity
  8
0
100
AcDbBlockEnd
  0
BLOCK
  5
5EA
330
5DE
100
AcDbEntity
  8
0
100
AcDbBlockBegin
  2
*D15
 70
     1
 10
0.0
 20
0.0
 30
0.0
  3
*D15
  1

  0
LINE
  5
8F5
330
5DE
100
AcDbEntity
  8
SUNPOU
 62
     4
100
AcDbLine
 10
216.5003109263354
 20
75.19571297709444
 30
0.0
 11
216.5003109263354
 21
57.69665144249756
 31
0.0
  0
LINE
  5
8F6
330
5DE
100
AcDbEntity
  8
SUNPOU
 62
     4
100
AcDbLine
 10
217.5003109263354
 20
75.19571297709444
 30
0.0
 11
217.5003109263354
 21
57.69665144249756
 31
0.0
  0
LINE
  5
8F7
330
5DE
100
AcDbEntity
  8
SUNPOU
 62
     4
100
AcDbLine
 10
213.5003109263354
 20
59.19665144249757
 30
0.0
 11
210.5003109263354
 21
59.19665144249757
 31
0.0
  0
LINE
  5
8F8
330
5DE
100
AcDbEntity
  8
SUNPOU
 62
     4
100
AcDbLine
 10
220.5003109263354
 20
59.19665144249757
 30
0.0
 11
233.0003109263354
 21
59.19665144249757
 31
0.0
  0
LINE
  5
8F9
330
5DE
100
AcDbEntity
  8
SUNPOU
 62
     4
100
AcDbLine
 10
216.5003109263354
 20
59.19665144249757
 30
0.0
 11
217.5003109263354
 21
59.19665144249757
 31
0.0
  0
INSERT
  5
8FA
330
5DE
100
AcDbEntity
  8
SUNPOU
 62
     4
100
AcDbBlockReference
  2
_OPEN
 10
216.5003109263354
 20
59.19665144249757
 30
0.0
 41
3.0
 42
3.0
 43
3.0
  0
INSERT
  5
8FB
330
5DE
100
AcDbEntity
  8
SUNPOU
 62
     4
100
AcDbBlockReference
  2
_OPEN
 10
217.5003109263354
 20
59.19665144249757
 30
0.0
 41
3.0
 42
3.0
 43
3.0
 50
180.0
  0
MTEXT
  5
8FC
330
5DE
100
AcDbEntity
  8
SUNPOU
 62
     4
100
AcDbMText
 10
228.2503109263354
 20
61.69665144249757
 30
0.0
 40
3.0
 41
0.0
 71
     5
 72
     5
  1
\A1;t1.0
1001
ACAD
1000
MTEXTBEGIN
1070
    73
1070
     1
1070
    44
1040
1.0
1070
    74
1070
     0
1000
MTEXTEND
1000
MTEXTBEGIN
1070
    73
1070
     1
1070
    44
1040
1.0
1070
    74
1070
     0
1000
MTEXTEND
  0
POINT
  5
8FD
330
5DE
100
AcDbEntity
  8
DEFPOINTS
 62
     0
100
AcDbPoint
 10
216.5003109263354
 20
78.19571297709444
 30
0.0
  0
POINT
  5
8FE
330
5DE
100
AcDbEntity
  8
DEFPOINTS
 62
     0
100
AcDbPoint
 10
217.5003109263354
 20
78.19571297709444
 30
0.0
  0
POINT
  5
8FF
330
5DE
100
AcDbEntity
  8
DEFPOINTS
 62
     0
100
AcDbPoint
 10
217.5003109263354
 20
59.19665144249757
 30
0.0
  0
ENDBLK
  5
5EB
330
5DE
100
AcDbEntity
  8
0
100
AcDbBlockEnd
  0
BLOCK
  5
618
330
60E
100
AcDbEntity
  8
0
100
AcDbBlockBegin
  2
*D16
 70
     1
 10
0.0
 20
0.0
 30
0.0
  3
*D16
  1

  0
LINE
  5
900
330
60E
100
AcDbEntity
  8
SUNPOU
 62
     4
100
AcDbLine
 10
87.90041092633547
 20
220.3643129770944
 30
0.0
 11
65.11909476347731
 21
220.3643129770944
 31
0.0
  0
LINE
  5
901
330
60E
100
AcDbEntity
  8
SUNPOU
 62
     4
100
AcDbLine
 10
87.90041092633547
 20
207.3643129770944
 30
0.0
 11
65.11909476347731
 21
207.3643129770944
 31
0.0
  0
LINE
  5
902
330
60E
100
AcDbEntity
  8
SUNPOU
 62
     4
100
AcDbLine
 10
66.6190947634773
 20
217.3643129770944
 30
0.0
 11
66.6190947634773
 21
210.3643129770944
 31
0.0
  0
INSERT
  5
903
330
60E
100
AcDbEntity
  8
SUNPOU
 62
     4
100
AcDbBlockReference
  2
_OPEN
 10
66.6190947634773
 20
220.3643129770944
 30
0.0
 41
3.0
 42
3.0
 43
3.0
 50
90.0
  0
INSERT
  5
904
330
60E
100
AcDbEntity
  8
SUNPOU
 62
     4
100
AcDbBlockReference
  2
_OPEN
 10
66.6190947634773
 20
207.3643129770944
 30
0.0
 41
3.0
 42
3.0
 43
3.0
 50
270.0
  0
MTEXT
  5
905
330
60E
100
AcDbEntity
  8
SUNPOU
 62
     4
100
AcDbMText
 10
64.11909476347728
 20
213.8643129770945
 30
0.0
 40
3.0
 41
0.0
 71
     5
 72
     5
  1
\A1;13
 11
0.0000000000000001
 21
1.0
 31
0.0
1001
ACAD
1000
MTEXTBEGIN
1070
    73
1070
     1
1070
    44
1040
1.0
1070
    74
1070
     0
1000
MTEXTEND
1000
MTEXTBEGIN
1070
    73
1070
     1
1070
    44
1040
1.0
1070
    74
1070
     0
1000
MTEXTEND
  0
POINT
  5
906
330
60E
100
AcDbEntity
  8
DEFPOINTS
 62
     0
100
AcDbPoint
 10
90.90041092633546
 20
220.3643129770944
 30
0.0
  0
POINT
  5
907
330
60E
100
AcDbEntity
  8
DEFPOINTS
 62
     0
100
AcDbPoint
 10
90.90041092633546
 20
207.3643129770944
 30
0.0
  0
POINT
  5
908
330
60E
100
AcDbEntity
  8
DEFPOINTS
 62
     0
100
AcDbPoint
 10
66.6190947634773
 20
207.3643129770944
 30
0.0
  0
ENDBLK
  5
619
330
60E
100
AcDbEntity
  8
0
100
AcDbBlockEnd
  0
BLOCK
  5
625
330
61B
100
AcDbEntity
  8
0
100
AcDbBlockBegin
  2
*D17
 70
     1
 10
0.0
 20
0.0
 30
0.0
  3
*D17
  1

  0
LINE
  5
909
330
61B
100
AcDbEntity
  8
SUNPOU
 62
     4
100
AcDbLine
 10
83.50041092633546
 20
223.8643129770944
 30
0.0
 11
54.98093270936945
 21
223.8643129770945
 31
0.0
  0
LINE
  5
90A
330
61B
100
AcDbEntity
  8
SUNPOU
 62
     4
100
AcDbLine
 10
83.50041092633546
 20
203.8643129770944
 30
0.0
 11
54.98093270936944
 21
203.8643129770945
 31
0.0
  0
LINE
  5
90B
330
61B
100
AcDbEntity
  8
SUNPOU
 62
     4
100
AcDbLine
 10
56.48093270936946
 20
220.8643129770945
 30
0.0
 11
56.48093270936945
 21
206.8643129770944
 31
0.0
  0
INSERT
  5
90C
330
61B
100
AcDbEntity
  8
SUNPOU
 62
     4
100
AcDbBlockReference
  2
_OPEN
 10
56.48093270936946
 20
223.8643129770945
 30
0.0
 41
3.0
 42
3.0
 43
3.0
 50
90.0
  0
INSERT
  5
90D
330
61B
100
AcDbEntity
  8
SUNPOU
 62
     4
100
AcDbBlockReference
  2
_OPEN
 10
56.48093270936945
 20
203.8643129770945
 30
0.0
 41
3.0
 42
3.0
 43
3.0
 50
270.0
  0
MTEXT
  5
90E
330
61B
100
AcDbEntity
  8
SUNPOU
 62
     4
100
AcDbMText
 10
53.98093270936942
 20
213.8643129770945
 30
0.0
 40
3.0
 41
0.0
 71
     5
 72
     5
  1
\A1;20
 11
0.0000000000000001
 21
1.0
 31
0.0
1001
ACAD
1000
MTEXTBEGIN
1070
    73
1070
     1
1070
    44
1040
1.0
1070
    74
1070
     0
1000
MTEXTEND
1000
MTEXTBEGIN
1070
    73
1070
     1
1070
    44
1040
1.0
1070
    74
1070
     0
1000
MTEXTEND
  0
POINT
  5
90F
330
61B
100
AcDbEntity
  8
DEFPOINTS
 62
     0
100
AcDbPoint
 10
86.50041092633546
 20
223.8643129770944
 30
0.0
  0
POINT
  5
910
330
61B
100
AcDbEntity
  8
DEFPOINTS
 62
     0
100
AcDbPoint
 10
86.50041092633546
 20
203.8643129770944
 30
0.0
  0
POINT
  5
911
330
61B
100
AcDbEntity
  8
DEFPOINTS
 62
     0
100
AcDbPoint
 10
56.48093270936945
 20
203.8643129770945
 30
0.0
  0
ENDBLK
  5
626
330
61B
100
AcDbEntity
  8
0
100
AcDbBlockEnd
  0
BLOCK
  5
637
330
62D
100
AcDbEntity
  8
0
100
AcDbBlockBegin
  2
*D18
 70
     1
 10
0.0
 20
0.0
 30
0.0
  3
*D18
  1

  0
LINE
  5
912
330
62D
100
AcDbEntity
  8
SUNPOU
 62
     4
100
AcDbLine
 10
182.5003697498648
 20
128.1957129770944
 30
0.0
 11
182.5003697498648
 21
147.8930422492976
 31
0.0
  0
LINE
  5
913
330
62D
100
AcDbEntity
  8
SUNPOU
 62
     4
100
AcDbLine
 10
217.5004177445173
 20
128.1957129770944
 30
0.0
 11
217.5004177445173
 21
147.8930422492976
 31
0.0
  0
LINE
  5
914
330
62D
100
AcDbEntity
  8
SUNPOU
 62
     4
100
AcDbLine
 10
185.5003697498649
 20
146.3930422492976
 30
0.0
 11
214.5004177445172
 21
146.3930422492976
 31
0.0
  0
INSERT
  5
915
330
62D
100
AcDbEntity
  8
SUNPOU
 62
     4
100
AcDbBlockReference
  2
_OPEN
 10
182.5003697498648
 20
146.3930422492976
 30
0.0
 41
3.0
 42
3.0
 43
3.0
 50
180.0
  0
INSERT
  5
916
330
62D
100
AcDbEntity
  8
SUNPOU
 62
     4
100
AcDbBlockReference
  2
_OPEN
 10
217.5004177445173
 20
146.3930422492976
 30
0.0
 41
3.0
 42
3.0
 43
3.0
  0
MTEXT
  5
917
330
62D
100
AcDbEntity
  8
SUNPOU
 62
     4
100
AcDbMText
 10
200.000393747191
 20
148.8930422492976
 30
0.0
 40
3.0
 41
0.0
 71
     5
 72
     5
  1
\A1;35
1001
ACAD
1000
MTEXTBEGIN
1070
    73
1070
     1
1070
    44
1040
1.0
1070
    74
1070
     0
1000
MTEXTEND
1000
MTEXTBEGIN
1070
    73
1070
     1
1070
    44
1040
1.0
1070
    74
1070
     0
1000
MTEXTEND
  0
POINT
  5
918
330
62D
100
AcDbEntity
  8
DEFPOINTS
 62
     0
100
AcDbPoint
 10
182.5003697498648
 20
125.1957129770944
 30
0.0
  0
POINT
  5
919
330
62D
100
AcDbEntity
  8
DEFPOINTS
 62
     0
100
AcDbPoint
 10
217.5004177445173
 20
125.1957129770944
 30
0.0
  0
POINT
  5
91A
330
62D
100
AcDbEntity
  8
DEFPOINTS
 62
     0
100
AcDbPoint
 10
217.5004177445173
 20
146.3930422492976
 30
0.0
  0
ENDBLK
  5
638
330
62D
100
AcDbEntity
  8
0
100
AcDbBlockEnd
  0
ENDSEC
  0
SECTION
  2
ENTITIES
  0
LINE
  5
26F
330
1A
100
AcDbEntity
  8
CENTER_L
  6
CENTER
 62
     1
 48
5.0
100
AcDbLine
 10
227.5522109263354
 20
213.8643129770944
 30
0.0
 11
79.85821092633546
 21
213.8643129770944
 31
0.0
  0
LINE
  5
270
330
1A
100
AcDbEntity
  8
SEIHIN
  6
CONTINUOUS
 62
     3
 48
5.0
100
AcDbLine
 10
90.90041092633546
 20
220.3643129770944
 30
0.0
 11
150.9533109263355
 21
220.3643129770944
 31
0.0
  0
LINE
  5
271
330
1A
100
AcDbEntity
  8
SEIHIN
  6
CONTINUOUS
 62
     3
 48
5.0
100
AcDbLine
 10
90.90041092633546
 20
207.3643129770944
 30
0.0
 11
150.9533109263355
 21
207.3643129770944
 31
0.0
  0
LINE
  5
272
330
1A
100
AcDbEntity
  8
SEIHIN
  6
CONTINUOUS
 62
     3
 48
5.0
100
AcDbLine
 10
112.8275109263354
 20
98.69571297709445
 30
0.0
 11
181.5003109263354
 21
98.69571297709445
 31
0.0
  0
LINE
  5
273
330
1A
100
AcDbEntity
  8
SEIHIN
  6
CONTINUOUS
 62
     3
 48
5.0
100
AcDbLine
 10
114.3003109263354
 20
104.1957129770944
 30
0.0
 11
150.9533109263355
 21
104.1957129770944
 31
0.0
  0
ARC
  5
27B
330
1A
100
AcDbEntity
  8
SEIHIN
  6
CONTINUOUS
 62
     3
 48
5.0
100
AcDbCircle
 10
100.1003109263354
 20
107.7957129770944
 30
0.0
 40
4.600000000000008
100
AcDbArc
 50
180.0
 51
270.0
  0
LINE
  5
27C
330
1A
100
AcDbEntity
  8
SEIHIN
  6
CONTINUOUS
 62
     3
 48
5.0
100
AcDbLine
 10
94.00031092633545
 20
106.2957129770944
 30
0.0
 11
95.75181092633547
 21
106.2957129770944
 31
0.0
  0
LINE
  5
27D
330
1A
100
AcDbEntity
  8
SEIHIN
  6
CONTINUOUS
 62
     3
 48
5.0
100
AcDbLine
 10
87.90041092633547
 20
107.7957129770944
 30
0.0
 11
95.57451092633547
 21
107.7957129770944
 31
0.0
  0
LINE
  5
27E
330
1A
100
AcDbEntity
  8
SEIHIN
  6
CONTINUOUS
 62
     3
 48
5.0
100
AcDbLine
 10
87.90031092633546
 20
108.6957129770944
 30
0.0
 11
106.5003109263354
 21
108.6957129770944
 31
0.0
  0
LINE
  5
27F
330
1A
100
AcDbEntity
  8
SEIHIN
  6
CONTINUOUS
 62
     3
 48
5.0
100
AcDbLine
 10
87.40031092633547
 20
109.1957129770944
 30
0.0
 11
87.40031092633547
 21
113.6957129770944
 31
0.0
  0
LINE
  5
280
330
1A
100
AcDbEntity
  8
SEIHIN
  6
CONTINUOUS
 62
     3
 48
5.0
100
AcDbLine
 10
86.50041092633546
 20
113.6957129770944
 30
0.0
 11
86.50031092633545
 21
109.1957129770944
 31
0.0
  0
ARC
  5
281
330
1A
100
AcDbEntity
  8
SEIHIN
  6
CONTINUOUS
 62
     3
 48
5.0
100
AcDbCircle
 10
87.90041092633547
 20
109.1957129770944
 30
0.0
 40
1.400000000000005
100
AcDbArc
 50
180.0
 51
270.0
  0
ARC
  5
282
330
1A
100
AcDbEntity
  8
SEIHIN
  6
CONTINUOUS
 62
     3
 48
5.0
100
AcDbCircle
 10
87.90031092633546
 20
109.1957129770944
 30
0.0
 40
0.5
100
AcDbArc
 50
180.0
 51
270.0
  0
ARC
  5
283
330
1A
100
AcDbEntity
  8
SEIHIN
  6
CONTINUOUS
 62
     3
 48
5.0
100
AcDbCircle
 10
94.00031092633545
 20
107.7957129770944
 30
0.0
 40
1.5
100
AcDbArc
 50
180.0
 51
270.0
  0
LINE
  5
284
330
1A
100
AcDbEntity
  8
SEIHIN
  6
CONTINUOUS
 62
     3
 48
5.0
100
AcDbLine
 10
86.50041092633546
 20
113.6957129770944
 30
0.0
 11
87.40031092633547
 21
113.6957129770944
 31
0.0
  0
LINE
  5
285
330
1A
100
AcDbEntity
  8
SEIHIN
  6
CONTINUOUS
 62
     3
 48
5.0
100
AcDbLine
 10
105.0276109263354
 20
103.1957129770944
 30
0.0
 11
112.8275109263354
 21
98.69571297709445
 31
0.0
  0
LINE
  5
286
330
1A
100
AcDbEntity
  8
SEIHIN
  6
CONTINUOUS
 62
     3
 48
5.0
100
AcDbLine
 10
100.1003109263354
 20
103.1957129770944
 30
0.0
 11
105.0276109263354
 21
103.1957129770944
 31
0.0
  0
LINE
  5
287
330
1A
100
AcDbEntity
  8
SEIHIN
  6
CONTINUOUS
 62
     3
 48
5.0
100
AcDbLine
 10
106.5003109263354
 20
108.6957129770944
 30
0.0
 11
114.3003109263354
 21
104.1957129770944
 31
0.0
  0
LINE
  5
29B
330
1A
100
AcDbEntity
  8
SEIHIN
  6
CONTINUOUS
 62
     3
 48
5.0
100
AcDbLine
 10
94.25041092633549
 20
215.6143129770944
 30
0.0
 11
96.75041092633549
 21
215.6143129770944
 31
0.0
  0
LINE
  5
29C
330
1A
100
AcDbEntity
  8
SEIHIN
  6
CONTINUOUS
 62
     3
 48
5.0
100
AcDbLine
 10
94.25041092633549
 20
212.1143129770944
 30
0.0
 11
96.75041092633549
 21
212.1143129770944
 31
0.0
  0
ARC
  5
29D
330
1A
100
AcDbEntity
  8
SEIHIN
  6
CONTINUOUS
 62
     3
 48
5.0
100
AcDbCircle
 10
94.25041092633549
 20
213.8643129770944
 30
0.0
 40
1.750000000000014
100
AcDbArc
 50
180.0
 51
270.0
  0
LINE
  5
29E
330
1A
100
AcDbEntity
  8
SEIHIN
  6
CONTINUOUS
 62
     3
 48
5.0
100
AcDbLine
 10
87.40041092633546
 20
203.8643129770944
 30
0.0
 11
87.40041092633546
 21
213.8643129770944
 31
0.0
  0
LINE
  5
29F
330
1A
100
AcDbEntity
  8
SEIHIN
  6
CONTINUOUS
 62
     3
 48
5.0
100
AcDbLine
 10
86.50041092633546
 20
203.8643129770944
 30
0.0
 11
86.50041092633546
 21
213.8643129770944
 31
0.0
  0
ARC
  5
2A0
330
1A
100
AcDbEntity
  8
SEIHIN
  6
CONTINUOUS
 62
     3
 48
5.0
100
AcDbCircle
 10
90.90041092633546
 20
203.8643129770944
 30
0.0
 40
3.5
100
AcDbArc
 50
90.0
 51
180.0
  0
LINE
  5
2A1
330
1A
100
AcDbEntity
  8
SEIHIN
  6
CONTINUOUS
 62
     3
 48
5.0
100
AcDbLine
 10
86.50041092633546
 20
203.8643129770944
 30
0.0
 11
87.40041092633546
 21
203.8643129770944
 31
0.0
  0
LINE
  5
2A2
330
1A
100
AcDbEntity
  8
SEIHIN
  6
CONTINUOUS
 62
     3
 48
5.0
100
AcDbLine
 10
86.50041092633546
 20
223.8643129770944
 30
0.0
 11
86.50041092633546
 21
213.8643129770944
 31
0.0
  0
LINE
  5
2A3
330
1A
100
AcDbEntity
  8
SEIHIN
  6
CONTINUOUS
 62
     3
 48
5.0
100
AcDbLine
 10
87.40041092633546
 20
223.8643129770944
 30
0.0
 11
87.40041092633546
 21
213.8643129770944
 31
0.0
  0
ARC
  5
2A4
330
1A
100
AcDbEntity
  8
SEIHIN
  6
CONTINUOUS
 62
     3
 48
5.0
100
AcDbCircle
 10
94.25041092633549
 20
213.8643129770944
 30
0.0
 40
1.750000000000014
100
AcDbArc
 50
90.0
 51
180.0
  0
ARC
  5
2A5
330
1A
100
AcDbEntity
  8
SEIHIN
  6
CONTINUOUS
 62
     3
 48
5.0
100
AcDbCircle
 10
90.90041092633546
 20
223.8643129770944
 30
0.0
 40
3.5
100
AcDbArc
 50
180.0
 51
270.0
  0
LINE
  5
2A6
330
1A
100
AcDbEntity
  8
SEIHIN
  6
CONTINUOUS
 62
     3
 48
5.0
100
AcDbLine
 10
86.50041092633546
 20
223.8643129770944
 30
0.0
 11
87.40041092633546
 21
223.8643129770944
 31
0.0
  0
ARC
  5
2A7
330
1A
100
AcDbEntity
  8
SEIHIN
  6
CONTINUOUS
 62
     3
 48
5.0
100
AcDbCircle
 10
96.75041092633549
 20
213.8643129770944
 30
0.0
 40
1.75
100
AcDbArc
 50
270.0
 51
0.0
  0
LINE
  5
2A8
330
1A
100
AcDbEntity
  8
SEIHIN
  6
CONTINUOUS
 62
     3
 48
5.0
100
AcDbLine
 10
114.3003109263354
 20
207.3643129770944
 30
0.0
 11
114.3003109263354
 21
213.8643129770944
 31
0.0
  0
LINE
  5
2A9
330
1A
100
AcDbEntity
  8
SEIHIN
  6
CONTINUOUS
 62
     3
 48
5.0
100
AcDbLine
 10
106.5003109263354
 20
207.3643129770944
 30
0.0
 11
106.5003109263354
 21
213.8643129770944
 31
0.0
  0
ARC
  5
2AA
330
1A
100
AcDbEntity
  8
SEIHIN
  6
CONTINUOUS
 62
     3
 48
5.0
100
AcDbCircle
 10
96.75041092633549
 20
213.8643129770944
 30
0.0
 40
1.75
100
AcDbArc
 50
0.0
 51
90.0
  0
LINE
  5
2AB
330
1A
100
AcDbEntity
  8
SEIHIN
  6
CONTINUOUS
 62
     3
 48
5.0
100
AcDbLine
 10
106.5003109263354
 20
220.3643129770944
 30
0.0
 11
106.5003109263354
 21
213.8643129770944
 31
0.0
  0
LINE
  5
2AC
330
1A
100
AcDbEntity
  8
SEIHIN
  6
CONTINUOUS
 62
     3
 48
5.0
100
AcDbLine
 10
114.3003109263354
 20
220.3643129770944
 30
0.0
 11
114.3003109263354
 21
213.8643129770944
 31
0.0
  0
LINE
  5
2BD
330
1A
100
AcDbEntity
  8
SEIHIN
  6
CONTINUOUS
 62
     3
 48
5.0
100
AcDbLine
 10
189.1398109263354
 20
119.6957129770944
 30
0.0
 11
211.5004109263355
 21
119.6957129770944
 31
0.0
  0
LINE
  5
2BE
330
1A
100
AcDbEntity
  8
SEIHIN
  6
CONTINUOUS
 62
     3
 48
5.0
100
AcDbLine
 10
185.9644109263354
 20
125.1957129770944
 30
0.0
 11
214.5004109263354
 21
125.1957129770944
 31
0.0
  0
ARC
  5
2C1
330
1A
100
AcDbEntity
  8
SEIHIN
  6
CONTINUOUS
 62
     3
 48
5.0
100
AcDbCircle
 10
189.1398109263354
 20
113.6957129770944
 30
0.0
 40
5.999977300330799
100
AcDbArc
 50
90.0
 51
149.9997496981193
  0
LINE
  5
2C2
330
1A
100
AcDbEntity
  8
SEIHIN
  6
CONTINUOUS
 62
     3
 48
5.0
100
AcDbLine
 10
170.9533109263355
 20
105.1957129770944
 30
0.0
 11
180.7683109263354
 21
122.1957129770944
 31
0.0
  0
LINE
  5
2C3
330
1A
100
AcDbEntity
  8
SEIHIN
  6
CONTINUOUS
 62
     3
 48
5.0
100
AcDbLine
 10
200.8294109263354
 20
102.8757129770944
 30
0.0
 11
200.8293109263354
 21
119.6957129770944
 31
0.0
  0
LINE
  5
2C4
330
1A
100
AcDbEntity
  8
SEIHIN
  6
CONTINUOUS
 62
     3
 48
5.0
100
AcDbLine
 10
197.9494109263354
 20
97.69571297709445
 30
0.0
 11
197.9494109263354
 21
119.6957129770944
 31
0.0
  0
LINE
  5
2C5
330
1A
100
AcDbEntity
  8
SEIHIN
  6
CONTINUOUS
 62
     3
 48
5.0
100
AcDbLine
 10
201.2294109263354
 20
102.8757129770944
 30
0.0
 11
201.2294109263354
 21
119.6957129770944
 31
0.0
  0
LINE
  5
2C8
330
1A
100
AcDbEntity
  8
SEIHIN
  6
CONTINUOUS
 62
     3
 48
5.0
100
AcDbLine
 10
153.9533109263354
 20
99.69571297709444
 30
0.0
 11
170.6646109263354
 21
99.69571297709444
 31
0.0
  0
LINE
  5
2C9
330
1A
100
AcDbEntity
  8
SEIHIN
  6
CONTINUOUS
 62
     3
 48
5.0
100
AcDbLine
 10
150.9533109263355
 20
105.1957129770944
 30
0.0
 11
170.9533109263355
 21
105.1957129770944
 31
0.0
  0
LINE
  5
2CA
330
1A
100
AcDbEntity
  8
SEIHIN
  6
CONTINUOUS
 62
     3
 48
5.0
100
AcDbLine
 10
150.9533109263355
 20
102.6957129770944
 30
0.0
 11
150.9533109263355
 21
105.1957129770944
 31
0.0
  0
LINE
  5
2CB
330
1A
100
AcDbEntity
  8
SEIHIN
  6
CONTINUOUS
 62
     3
 48
5.0
100
AcDbLine
 10
150.9533109263355
 20
102.6957129770944
 30
0.0
 11
153.9533109263354
 21
99.69571297709444
 31
0.0
  0
LINE
  5
2CC
330
1A
100
AcDbEntity
  8
SEIHIN
  6
CONTINUOUS
 62
     3
 48
5.0
100
AcDbLine
 10
175.8608109263354
 20
102.6957129770944
 30
0.0
 11
183.9437109263354
 21
116.6957129770944
 31
0.0
  0
LINE
  5
2CD
330
1A
100
AcDbEntity
  8
SEIHIN
  6
CONTINUOUS
 62
     3
 48
5.0
100
AcDbLine
 10
176.7268109263354
 20
104.1957129770944
 30
0.0
 11
185.5003109263354
 21
104.1957129770944
 31
0.0
  0
LINE
  5
2CE
330
1A
100
AcDbEntity
  8
SEIHIN
  6
CONTINUOUS
 62
     3
 48
5.0
100
AcDbLine
 10
181.5003109263354
 20
98.69571297709445
 30
0.0
 11
186.8654109263354
 21
101.1988129770944
 31
0.0
  0
ARC
  5
2CF
330
1A
100
AcDbEntity
  8
SEIHIN
  6
CONTINUOUS
 62
     3
 48
5.0
100
AcDbCircle
 10
170.6646109263354
 20
105.6957129770944
 30
0.0
 40
6.000020601595919
100
AcDbArc
 50
270.0
 51
330.0002271632824
  0
ARC
  5
2D1
330
1A
100
AcDbEntity
  8
SEIHIN
  6
CONTINUOUS
 62
     3
 48
5.0
100
AcDbCircle
 10
186.4003109263354
 20
102.1957129770944
 30
0.0
 40
1.100029003780698
100
AcDbArc
 50
295.011229725556
 51
90.0
  0
LINE
  5
2D2
330
1A
100
AcDbEntity
  8
SEIHIN
  6
CONTINUOUS
 62
     3
 48
5.0
100
AcDbLine
 10
192.0199109263354
 20
104.6069129770944
 30
0.0
 11
196.2699109263354
 21
97.24571297709445
 31
0.0
  0
LINE
  5
2D3
330
1A
100
AcDbEntity
  8
SEIHIN
  6
CONTINUOUS
 62
     3
 48
5.0
100
AcDbLine
 10
195.7503109263354
 20
96.94571297709444
 30
0.0
 11
191.5003109263354
 21
104.3069129770944
 31
0.0
  0
ARC
  5
2D4
330
1A
100
AcDbEntity
  8
SEIHIN
  6
CONTINUOUS
 62
     3
 48
5.0
100
AcDbCircle
 10
197.0494109263354
 20
97.69571297709445
 30
0.0
 40
1.500026801187791
100
AcDbArc
 50
209.9988179477394
 51
0.0
  0
ARC
  5
2D5
330
1A
100
AcDbEntity
  8
SEIHIN
  6
CONTINUOUS
 62
     3
 48
5.0
100
AcDbCircle
 10
198.5494109263354
 20
102.8757129770944
 30
0.0
 40
2.280005811388671
100
AcDbArc
 50
277.003455471511
 51
0.0
  0
ARC
  5
2D6
330
1A
100
AcDbEntity
  8
SEIHIN
  6
CONTINUOUS
 62
     3
 48
5.0
100
AcDbCircle
 10
198.5494109263354
 20
102.8757129770944
 30
0.0
 40
2.680018549311909
100
AcDbArc
 50
279.0465365345733
 51
0.0
  0
ARC
  5
2D7
330
1A
100
AcDbEntity
  8
SEIHIN
  6
CONTINUOUS
 62
     3
 48
5.0
100
AcDbCircle
 10
198.9494109263354
 20
99.62021297709444
 30
0.0
 40
0.9999850622768743
100
AcDbArc
 50
97.00775276145426
 51
180.0
  0
ARC
  5
2D8
330
1A
100
AcDbEntity
  8
SEIHIN
  6
CONTINUOUS
 62
     3
 48
5.0
100
AcDbCircle
 10
199.0494109263354
 20
99.73521297709446
 30
0.0
 40
0.5000081998655269
100
AcDbArc
 50
99.04411226652698
 51
180.0
  0
ARC
  5
2D9
330
1A
100
AcDbEntity
  8
SEIHIN
  6
CONTINUOUS
 62
     3
 48
5.0
100
AcDbCircle
 10
197.0494109263354
 20
97.69571297709445
 30
0.0
 40
0.8999900998910979
100
AcDbArc
 50
210.0007277808262
 51
0.0
  0
LINE
  5
2DA
330
1A
100
AcDbEntity
  8
SEIHIN
  6
CONTINUOUS
 62
     3
 48
5.0
100
AcDbLine
 10
198.5494109263354
 20
99.73521297709446
 30
0.0
 11
198.5494109263354
 21
97.69571297709445
 31
0.0
  0
LINE
  5
2DB
330
1A
100
AcDbEntity
  8
SEIHIN
  6
CONTINUOUS
 62
     3
 48
5.0
100
AcDbLine
 10
186.4003109263354
 20
103.2957129770944
 30
0.0
 11
185.5003109263354
 21
103.2957129770944
 31
0.0
  0
LINE
  5
2DC
330
1A
100
AcDbEntity
  8
SEIHIN
  6
CONTINUOUS
 62
     3
 48
5.0
100
AcDbLine
 10
185.5003109263354
 20
104.1957129770944
 30
0.0
 11
185.5003109263354
 21
103.2957129770944
 31
0.0
  0
LINE
  5
2DD
330
1A
100
AcDbEntity
  8
SEIHIN
  6
CONTINUOUS
 62
     3
 48
5.0
100
AcDbLine
 10
192.0200109263354
 20
104.6069129770944
 30
0.0
 11
191.5003109263354
 21
104.3069129770944
 31
0.0
  0
ARC
  5
2E3
330
1A
100
AcDbEntity
  8
SEIHIN
  6
CONTINUOUS
 62
     3
 48
5.0
100
AcDbCircle
 10
185.9644109263354
 20
119.1957129770944
 30
0.0
 40
5.999977300330799
100
AcDbArc
 50
90.0
 51
149.9997496981193
  0
LINE
  5
2E9
330
1A
100
AcDbEntity
  8
SEIHIN
  6
CONTINUOUS
 62
     3
 48
5.0
100
AcDbLine
 10
211.5004109263355
 20
119.6957129770944
 30
0.0
 11
216.5003109263354
 21
115.1957129770944
 31
0.0
  0
LINE
  5
2EA
330
1A
100
AcDbEntity
  8
SEIHIN
  6
CONTINUOUS
 62
     3
 48
5.0
100
AcDbLine
 10
214.0004109263355
 20
117.4457129770944
 30
0.0
 11
214.0004109263355
 21
102.6957129770944
 31
0.0
  0
LINE
  5
2EB
330
1A
100
AcDbEntity
  8
SEIHIN
  6
CONTINUOUS
 62
     3
 48
5.0
100
AcDbLine
 10
217.5004109263354
 20
122.1957129770944
 30
0.0
 11
217.5003109263354
 21
78.19571297709444
 31
0.0
  0
LINE
  5
2ED
330
1A
100
AcDbEntity
  8
SEIHIN
  6
CONTINUOUS
 62
     3
 48
5.0
100
AcDbLine
 10
216.5004109263354
 20
115.1957129770944
 30
0.0
 11
216.5003109263354
 21
78.19571297709444
 31
0.0
  0
LINE
  5
2EE
330
1A
100
AcDbEntity
  8
CENTER_L
  6
CENTER
 62
     1
 48
5.0
100
AcDbLine
 10
212.0249109263354
 20
84.19571297709444
 30
0.0
 11
221.4137109263354
 21
84.19571297709444
 31
0.0
  0
LINE
  5
2EF
330
1A
100
AcDbEntity
  8
SEIHIN
  6
CONTINUOUS
 62
     3
 48
5.0
100
AcDbLine
 10
216.5004109263354
 20
78.19571297709444
 30
0.0
 11
217.5004109263354
 21
78.19571297709444
 31
0.0
  0
ARC
  5
2F2
330
1A
100
AcDbEntity
  8
SEIHIN
  6
CONTINUOUS
 62
     3
 48
5.0
100
AcDbCircle
 10
216.5004109263354
 20
102.6957129770944
 30
0.0
 40
2.5
100
AcDbArc
 50
180.0
 51
270.0
  0
ARC
  5
2F3
330
1A
100
AcDbEntity
  8
SEIHIN
  6
CONTINUOUS
 62
     3
 48
5.0
100
AcDbCircle
 10
216.5003109263354
 20
112.2457129770944
 30
0.0
 40
1.0
100
AcDbArc
 50
180.0
 51
270.0
  0
LINE
  5
2F4
330
1A
100
AcDbEntity
  8
CENTER_L
  6
CENTER
 62
     1
 48
5.0
100
AcDbLine
 10
212.2700109263354
 20
109.1957129770944
 30
0.0
 11
221.7610109263354
 21
109.1957129770944
 31
0.0
  0
LINE
  5
2F5
330
1A
100
AcDbEntity
  8
SEIHIN
  6
CONTINUOUS
 62
     3
 48
5.0
100
AcDbLine
 10
215.5003109263354
 20
112.2457129770944
 30
0.0
 11
215.5003109263354
 21
116.0957129770944
 31
0.0
  0
LINE
  5
2F6
330
1A
100
AcDbEntity
  8
SEIHIN
  6
CONTINUOUS
 62
     3
 48
5.0
100
AcDbLine
 10
216.5004109263354
 20
105.1957129770944
 30
0.0
 11
217.5004109263354
 21
105.1957129770944
 31
0.0
  0
LINE
  5
2F7
330
1A
100
AcDbEntity
  8
SEIHIN
  6
CONTINUOUS
 62
     3
 48
5.0
100
AcDbLine
 10
216.5004109263354
 20
115.1957129770944
 30
0.0
 11
217.5004109263354
 21
115.1957129770944
 31
0.0
  0
ARC
  5
30A
330
1A
100
AcDbEntity
  8
SEIHIN
  6
CONTINUOUS
 62
     3
 48
5.0
100
AcDbCircle
 10
214.5004109263354
 20
122.1957129770944
 30
0.0
 40
3.0
100
AcDbArc
 50
0.0
 51
90.0
  0
LINE
  5
313
330
1A
100
AcDbEntity
  8
SEIHIN
  6
CONTINUOUS
 62
     3
 48
5.0
100
AcDbLine
 10
217.5004109263354
 20
217.8643129770944
 30
0.0
 11
191.5004109263355
 21
217.8643129770944
 31
0.0
  0
LINE
  5
314
330
1A
100
AcDbEntity
  8
SEIHIN
  6
CONTINUOUS
 62
     3
 48
5.0
100
AcDbLine
 10
217.5004109263354
 20
209.8643129770944
 30
0.0
 11
191.5004109263355
 21
209.8643129770944
 31
0.0
  0
LINE
  5
315
330
1A
100
AcDbEntity
  8
SEIHIN
  6
CONTINUOUS
 62
     3
 48
5.0
100
AcDbLine
 10
170.9533109263355
 20
221.6143129770944
 30
0.0
 11
217.5004109263354
 21
229.0682129770944
 31
0.0
  0
LINE
  5
316
330
1A
100
AcDbEntity
  8
SEIHIN
  6
CONTINUOUS
 62
     3
 48
5.0
100
AcDbLine
 10
170.9533109263355
 20
206.1143129770944
 30
0.0
 11
217.5004109263354
 21
198.6604129770944
 31
0.0
  0
LINE
  5
317
330
1A
100
AcDbEntity
  8
SEIHIN
  6
CONTINUOUS
 62
     3
 48
5.0
100
AcDbLine
 10
150.9533109263355
 20
221.6143129770944
 30
0.0
 11
170.9533109263355
 21
221.6143129770944
 31
0.0
  0
LINE
  5
318
330
1A
100
AcDbEntity
  8
SEIHIN
  6
CONTINUOUS
 62
     3
 48
5.0
100
AcDbLine
 10
150.9533109263355
 20
206.1143129770944
 30
0.0
 11
170.9533109263355
 21
206.1143129770944
 31
0.0
  0
LINE
  5
319
330
1A
100
AcDbEntity
  8
SEIHIN
  6
CONTINUOUS
 62
     3
 48
5.0
100
AcDbLine
 10
150.9533109263355
 20
206.1143129770944
 30
0.0
 11
150.9533109263355
 21
213.8644129770944
 31
0.0
  0
LINE
  5
31A
330
1A
100
AcDbEntity
  8
SEIHIN
  6
CONTINUOUS
 62
     3
 48
5.0
100
AcDbLine
 10
150.9533109263355
 20
221.6143129770944
 30
0.0
 11
150.9533109263355
 21
213.8642129770944
 31
0.0
  0
LINE
  5
31B
330
1A
100
AcDbEntity
  8
SEIHIN
  6
CONTINUOUS
 62
     3
 48
5.0
100
AcDbLine
 10
170.9533109263355
 20
206.1143129770944
 30
0.0
 11
170.9533109263355
 21
213.8643129770944
 31
0.0
  0
LINE
  5
31C
330
1A
100
AcDbEntity
  8
SEIHIN
  6
CONTINUOUS
 62
     3
 48
5.0
100
AcDbLine
 10
170.9533109263355
 20
221.6143129770944
 30
0.0
 11
170.9533109263355
 21
213.8643129770944
 31
0.0
  0
ARC
  5
31E
330
1A
100
AcDbEntity
  8
SEIHIN
  6
CONTINUOUS
 62
     3
 48
5.0
100
AcDbCircle
 10
191.5004109263355
 20
213.8643129770944
 30
0.0
 40
4.0
100
AcDbArc
 50
180.0
 51
270.0
  0
LINE
  5
31F
330
1A
100
AcDbEntity
  8
SEIHIN
  6
CONTINUOUS
 62
     3
 48
5.0
100
AcDbLine
 10
192.5003109263354
 20
203.6011129770944
 30
0.0
 11
192.5003109263354
 21
209.2820129770944
 31
0.0
  0
ARC
  5
320
330
1A
100
AcDbEntity
  8
SEIHIN
  6
CONTINUOUS
 62
     3
 48
5.0
100
AcDbCircle
 10
193.5003109263354
 20
209.2820129770944
 30
0.0
 40
1.000002562493416
100
AcDbArc
 50
122.7651764767754
 51
180.0
  0
ARC
  5
322
330
1A
100
AcDbEntity
  8
SEIHIN
  6
CONTINUOUS
 62
     3
 48
5.0
100
AcDbCircle
 10
191.5004109263355
 20
213.8643129770944
 30
0.0
 40
4.0
100
AcDbArc
 50
90.0
 51
180.0
  0
LINE
  5
323
330
1A
100
AcDbEntity
  8
SEIHIN
  6
CONTINUOUS
 62
     3
 48
5.0
100
AcDbLine
 10
192.5003109263354
 20
224.1275129770944
 30
0.0
 11
192.5003109263354
 21
218.4466129770944
 31
0.0
  0
ARC
  5
324
330
1A
100
AcDbEntity
  8
SEIHIN
  6
CONTINUOUS
 62
     3
 48
5.0
100
AcDbCircle
 10
193.5003109263354
 20
218.4466129770944
 30
0.0
 40
1.000002562493416
100
AcDbArc
 50
180.0
 51
237.2348235232245
  0
LINE
  5
326
330
1A
100
AcDbEntity
  8
SEIHIN
  6
CONTINUOUS
 62
     3
 48
5.0
100
AcDbLine
 10
217.5004109263354
 20
236.3643129770944
 30
0.0
 11
217.5004109263354
 21
213.8643129770944
 31
0.0
  0
ARC
  5
328
330
1A
100
AcDbEntity
  8
SEIHIN
  6
CONTINUOUS
 62
     3
 48
5.0
100
AcDbCircle
 10
208.5518109263354
 20
195.0297129770944
 30
0.0
 40
5.000026833916844
100
AcDbArc
 50
30.4068060190223
 51
80.90107826689497
  0
LINE
  5
329
330
1A
100
AcDbEntity
  8
SEIHIN
  6
CONTINUOUS
 62
     3
 48
5.0
100
AcDbLine
 10
217.5004109263354
 20
191.3643129770944
 30
0.0
 11
217.5004109263354
 21
213.8643129770944
 31
0.0
  0
LINE
  5
32A
330
1A
100
AcDbEntity
  8
CENTER_L
  6
CENTER
 62
     1
 48
5.0
100
AcDbLine
 10
221.4702109263354
 20
197.3643129770944
 30
0.0
 11
210.6454109263354
 21
197.3643129770944
 31
0.0
  0
LINE
  5
32B
330
1A
100
AcDbEntity
  8
SEIHIN
  6
CONTINUOUS
 62
     3
 48
5.0
100
AcDbLine
 10
216.5004109263354
 20
191.3643129770944
 30
0.0
 11
212.8641109263354
 21
197.5604129770944
 31
0.0
  0
LINE
  5
32C
330
1A
100
AcDbEntity
  8
SEIHIN
  6
CONTINUOUS
 62
     3
 48
5.0
100
AcDbLine
 10
217.5004109263354
 20
191.3643129770944
 30
0.0
 11
216.5004109263354
 21
191.3643129770944
 31
0.0
  0
ARC
  5
32F
330
1A
100
AcDbEntity
  8
SEIHIN
  6
CONTINUOUS
 62
     3
 48
5.0
100
AcDbCircle
 10
219.4501109263354
 20
213.8645129770944
 30
0.0
 40
4.449717423578287
100
AcDbArc
 50
180.0025752648253
 51
244.0148318304974
  0
ARC
  5
330
330
1A
100
AcDbEntity
  8
SEIHIN
  6
CONTINUOUS
 62
     3
 48
5.0
100
AcDbCircle
 10
219.4501109263354
 20
213.8641129770944
 30
0.0
 40
4.449717423578287
100
AcDbArc
 50
115.9851681695025
 51
179.9974247351738
  0
LINE
  5
333
330
1A
100
AcDbEntity
  8
CENTER_L
  6
CENTER
 62
     1
 48
5.0
100
AcDbLine
 10
221.4702109263354
 20
230.3643129770944
 30
0.0
 11
210.6454109263354
 21
230.3643129770944
 31
0.0
  0
LINE
  5
334
330
1A
100
AcDbEntity
  8
SEIHIN
  6
CONTINUOUS
 62
     3
 48
5.0
100
AcDbLine
 10
216.5004109263354
 20
236.3643129770944
 30
0.0
 11
212.8641109263354
 21
230.1682129770944
 31
0.0
  0
ARC
  5
335
330
1A
100
AcDbEntity
  8
SEIHIN
  6
CONTINUOUS
 62
     3
 48
5.0
100
AcDbCircle
 10
208.5518109263354
 20
232.6990129770944
 30
0.0
 40
5.000052141099631
100
AcDbArc
 50
279.0989217331053
 51
329.5922056993974
  0
LINE
  5
336
330
1A
100
AcDbEntity
  8
SEIHIN
  6
CONTINUOUS
 62
     3
 48
5.0
100
AcDbLine
 10
217.5004109263354
 20
236.3643129770944
 30
0.0
 11
216.5004109263354
 21
236.3643129770944
 31
0.0
  0
LINE
  5
33B
330
1A
100
AcDbEntity
  8
SEIHIN
  6
CONTINUOUS
 62
     3
 48
5.0
100
AcDbLine
 10
338.5003109263355
 20
119.7457129770944
 30
0.0
 11
338.5003109263355
 21
112.7457129770944
 31
0.0
  0
LINE
  5
33C
330
1A
100
AcDbEntity
  8
SEIHIN
  6
CONTINUOUS
 62
     3
 48
5.0
100
AcDbLine
 10
335.5003109263354
 20
119.7457129770944
 30
0.0
 11
335.5003109263354
 21
112.7457129770944
 31
0.0
  0
LINE
  5
33D
330
1A
100
AcDbEntity
  8
SEIHIN
  6
CONTINUOUS
 62
     3
 48
5.0
100
AcDbLine
 10
331.5003109263354
 20
104.1957129770944
 30
0.0
 11
331.5003109263354
 21
125.1957129770944
 31
0.0
  0
LINE
  5
33E
330
1A
100
AcDbEntity
  8
SEIHIN
  6
CONTINUOUS
 62
     3
 48
5.0
100
AcDbLine
 10
350.0003109263354
 20
115.1957129770944
 30
0.0
 11
342.5003109263355
 21
119.6957129770944
 31
0.0
  0
LINE
  5
33F
330
1A
100
AcDbEntity
  8
SEIHIN
  6
CONTINUOUS
 62
     3
 48
5.0
100
AcDbLine
 10
323.5003109263355
 20
104.1957129770944
 30
0.0
 11
323.5003109263355
 21
125.1957129770944
 31
0.0
  0
LINE
  5
340
330
1A
100
AcDbEntity
  8
SEIHIN
  6
CONTINUOUS
 62
     3
 48
5.0
100
AcDbLine
 10
319.5003109263355
 20
119.7457129770944
 30
0.0
 11
319.5003109263355
 21
112.7457129770944
 31
0.0
  0
LINE
  5
341
330
1A
100
AcDbEntity
  8
SEIHIN
  6
CONTINUOUS
 62
     3
 48
5.0
100
AcDbLine
 10
316.5003109263354
 20
119.7457129770944
 30
0.0
 11
316.5003109263354
 21
112.7457129770944
 31
0.0
  0
LINE
  5
342
330
1A
100
AcDbEntity
  8
SEIHIN
  6
CONTINUOUS
 62
     3
 48
5.0
100
AcDbLine
 10
305.0003109263355
 20
115.1957129770944
 30
0.0
 11
312.5003109263354
 21
119.6957129770944
 31
0.0
  0
LINE
  5
343
330
1A
100
AcDbEntity
  8
CENTER_L
  6
CENTER
 62
     1
 48
5.0
100
AcDbLine
 10
327.5003109263355
 20
74.57991297709444
 30
0.0
 11
327.5003109263355
 21
129.0568129770944
 31
0.0
  0
ARC
  5
344
330
1A
100
AcDbEntity
  8
SEIHIN
  6
CONTINUOUS
 62
     3
 48
5.0
100
AcDbCircle
 10
327.5003109263355
 20
88.19571297709444
 30
0.0
 40
10.00001172648625
100
AcDbArc
 50
270.0
 51
327.8424797908801
  0
ARC
  5
345
330
1A
100
AcDbEntity
  8
SEIHIN
  6
CONTINUOUS
 62
     3
 48
5.0
100
AcDbCircle
 10
337.0003109263354
 20
112.7457129770944
 30
0.0
 40
1.5
100
AcDbArc
 50
180.0
 51
0.0
  0
LINE
  5
346
330
1A
100
AcDbEntity
  8
SEIHIN
  6
CONTINUOUS
 62
     3
 48
5.0
100
AcDbLine
 10
305.0003109263355
 20
105.1957129770944
 30
0.0
 11
319.0345109263354
 21
82.87321297709445
 31
0.0
  0
ARC
  5
347
330
1A
100
AcDbEntity
  8
SEIHIN
  6
CONTINUOUS
 62
     3
 48
5.0
100
AcDbCircle
 10
327.5003109263355
 20
88.19571297709444
 30
0.0
 40
9.999969397156339
100
AcDbArc
 50
212.1578251670576
 51
270.0
  0
LINE
  5
348
330
1A
100
AcDbEntity
  8
CENTER_L
  6
CENTER
 62
     1
 48
5.0
100
AcDbLine
 10
322.8211109263354
 20
84.19571297709444
 30
0.0
 11
327.5003109263355
 21
84.19571297709444
 31
0.0
  0
CIRCLE
  5
349
330
1A
100
AcDbEntity
  8
SEIHIN
  6
CONTINUOUS
 62
     3
 48
5.0
100
AcDbCircle
 10
327.5003109263355
 20
84.19571297709444
 30
0.0
 40
2.050000000000011
  0
LINE
  5
34A
330
1A
100
AcDbEntity
  8
CENTER_L
  6
CENTER
 62
     1
 48
5.0
100
AcDbLine
 10
331.9207109263354
 20
84.19571297709444
 30
0.0
 11
327.5003109263355
 21
84.19571297709444
 31
0.0
  0
LINE
  5
34B
330
1A
100
AcDbEntity
  8
CENTER_L
  6
CENTER
 62
     1
 48
5.0
100
AcDbLine
 10
306.7877109263354
 20
109.1957129770944
 30
0.0
 11
315.4527109263355
 21
109.1957129770944
 31
0.0
  0
CIRCLE
  5
34C
330
1A
100
AcDbEntity
  8
SEIHIN
  6
CONTINUOUS
 62
     3
 48
5.0
100
AcDbCircle
 10
311.0003109263355
 20
109.1957129770944
 30
0.0
 40
2.050000000000011
  0
LINE
  5
34D
330
1A
100
AcDbEntity
  8
CENTER_L
  6
CENTER
 62
     1
 48
5.0
100
AcDbLine
 10
311.0003109263355
 20
105.2258129770944
 30
0.0
 11
311.0003109263355
 21
112.8882129770944
 31
0.0
  0
LINE
  5
34E
330
1A
100
AcDbEntity
  8
SEIHIN
  6
CONTINUOUS
 62
     3
 48
5.0
100
AcDbLine
 10
305.0003109263355
 20
105.1957129770944
 30
0.0
 11
305.0003109263355
 21
115.1957129770944
 31
0.0
  0
ARC
  5
34F
330
1A
100
AcDbEntity
  8
SEIHIN
  6
CONTINUOUS
 62
     3
 48
5.0
100
AcDbCircle
 10
327.5003109263355
 20
104.1957129770944
 30
0.0
 40
4.0
100
AcDbArc
 50
270.0
 51
0.0
  0
ARC
  5
350
330
1A
100
AcDbEntity
  8
SEIHIN
  6
CONTINUOUS
 62
     3
 48
5.0
100
AcDbCircle
 10
327.5003109263355
 20
104.1957129770944
 30
0.0
 40
4.0
100
AcDbArc
 50
180.0
 51
270.0
  0
ARC
  5
351
330
1A
100
AcDbEntity
  8
SEIHIN
  6
CONTINUOUS
 62
     3
 48
5.0
100
AcDbCircle
 10
318.0003109263354
 20
112.7457129770944
 30
0.0
 40
1.5
100
AcDbArc
 50
180.0
 51
0.0
  0
LINE
  5
352
330
1A
100
AcDbEntity
  8
SEIHIN
  6
CONTINUOUS
 62
     3
 48
5.0
100
AcDbLine
 10
350.0003109263354
 20
105.1957129770944
 30
0.0
 11
335.9662109263355
 21
82.87321297709445
 31
0.0
  0
LINE
  5
356
330
1A
100
AcDbEntity
  8
CENTER_L
  6
CENTER
 62
     1
 48
5.0
100
AcDbLine
 10
348.2896109263355
 20
109.1957129770944
 30
0.0
 11
339.7057109263354
 21
109.1957129770944
 31
0.0
  0
CIRCLE
  5
357
330
1A
100
AcDbEntity
  8
SEIHIN
  6
CONTINUOUS
 62
     3
 48
5.0
100
AcDbCircle
 10
344.0003109263354
 20
109.1957129770944
 30
0.0
 40
2.050000000000011
  0
LINE
  5
358
330
1A
100
AcDbEntity
  8
CENTER_L
  6
CENTER
 62
     1
 48
5.0
100
AcDbLine
 10
344.0003109263354
 20
105.2258129770944
 30
0.0
 11
344.0003109263354
 21
112.8882129770944
 31
0.0
  0
LINE
  5
359
330
1A
100
AcDbEntity
  8
SEIHIN
  6
CONTINUOUS
 62
     3
 48
5.0
100
AcDbLine
 10
350.0003109263354
 20
105.1957129770944
 30
0.0
 11
350.0003109263354
 21
115.1957129770944
 31
0.0
  0
ARC
  5
35C
330
1A
100
AcDbEntity
  8
SEIHIN
  6
CONTINUOUS
 62
     3
 48
5.0
100
AcDbCircle
 10
337.0003109263354
 20
119.7457129770944
 30
0.0
 40
1.5
100
AcDbArc
 50
0.0
 51
180.0
  0
LINE
  5
35D
330
1A
100
AcDbEntity
  8
SEIHIN
  6
CONTINUOUS
 62
     3
 48
5.0
100
AcDbLine
 10
341.0003109263354
 20
125.1957129770944
 30
0.0
 11
327.5003109263355
 21
125.1957129770944
 31
0.0
  0
LINE
  5
362
330
1A
100
AcDbEntity
  8
SEIHIN
  6
CONTINUOUS
 62
     3
 48
5.0
100
AcDbLine
 10
314.0003109263354
 20
125.1957129770944
 30
0.0
 11
327.5003109263355
 21
125.1957129770944
 31
0.0
  0
LINE
  5
364
330
1A
100
AcDbEntity
  8
SEIHIN
  6
CONTINUOUS
 62
     3
 48
5.0
100
AcDbLine
 10
312.5003109263354
 20
119.6957129770944
 30
0.0
 11
312.5003109263354
 21
123.6957129770944
 31
0.0
  0
ARC
  5
365
330
1A
100
AcDbEntity
  8
SEIHIN
  6
CONTINUOUS
 62
     3
 48
5.0
100
AcDbCircle
 10
314.0003109263354
 20
123.6957129770944
 30
0.0
 40
1.5
100
AcDbArc
 50
90.0
 51
180.0
  0
ARC
  5
366
330
1A
100
AcDbEntity
  8
SEIHIN
  6
CONTINUOUS
 62
     3
 48
5.0
100
AcDbCircle
 10
327.5003109263355
 20
127.1457129770944
 30
0.0
 40
4.449999999999992
100
AcDbArc
 50
205.9892335838328
 51
270.0
  0
ARC
  5
367
330
1A
100
AcDbEntity
  8
SEIHIN
  6
CONTINUOUS
 62
     3
 48
5.0
100
AcDbCircle
 10
318.0003109263354
 20
119.7457129770944
 30
0.0
 40
1.5
100
AcDbArc
 50
0.0
 51
180.0
  0
ARC
  5
368
330
1A
100
AcDbEntity
  8
SEIHIN
  6
CONTINUOUS
 62
     3
 48
5.0
100
AcDbCircle
 10
327.5003109263355
 20
127.1457129770944
 30
0.0
 40
4.449999999999992
100
AcDbArc
 50
270.0
 51
334.0107664161671
  0
LINE
  5
36E
330
1A
100
AcDbEntity
  8
SEIHIN
  6
CONTINUOUS
 62
     3
 48
5.0
100
AcDbLine
 10
342.5003109263355
 20
119.6957129770944
 30
0.0
 11
342.5003109263355
 21
123.6957129770944
 31
0.0
  0
ARC
  5
36F
330
1A
100
AcDbEntity
  8
SEIHIN
  6
CONTINUOUS
 62
     3
 48
5.0
100
AcDbCircle
 10
341.0003109263354
 20
123.6957129770944
 30
0.0
 40
1.5
100
AcDbArc
 50
0.0
 51
90.0
  0
LINE
  5
3CC
330
1A
100
AcDbEntity
  8
NOKITOI
  6
PHANTOM
 62
     8
 48
5.0
100
AcDbLine
 10
107.5518109263355
 20
64.99171297709444
 30
0.0
 11
173.7824109263355
 21
64.99161297709457
 31
0.0
  0
LINE
  5
3CD
330
1A
100
AcDbEntity
  8
NOKITOI
  6
PHANTOM
 62
     8
 48
5.0
100
AcDbLine
 10
173.7824109263355
 20
64.99161297709457
 30
0.0
 11
107.5518109263355
 21
64.99171297709444
 31
0.0
  0
LINE
  5
3CE
330
1A
100
AcDbEntity
  8
NOKITOI
  6
PHANTOM
 62
     8
 48
5.0
100
AcDbLine
 10
112.8675109263355
 20
66.28511297709446
 30
0.0
 11
168.4667109263355
 21
66.28501297709442
 31
0.0
  0
LINE
  5
3CF
330
1A
100
AcDbEntity
  8
NOKITOI
  6
PHANTOM
 62
     8
 48
5.0
100
AcDbLine
 10
97.65021092633544
 20
78.11331297709443
 30
0.0
 11
91.71921092633551
 21
106.2832129770945
 31
0.0
  0
LINE
  5
3D0
330
1A
100
AcDbEntity
  8
NOKITOI
  6
PHANTOM
 62
     8
 48
5.0
100
AcDbLine
 10
96.54161092633552
 20
77.10041297709444
 30
0.0
 11
90.70301092633537
 21
104.8317129770945
 31
0.0
  0
LINE
  5
3D1
330
1A
100
AcDbEntity
  8
NOKITOI
  6
PHANTOM
 62
     8
 48
5.0
100
AcDbLine
 10
108.2267109263354
 20
66.29171297709445
 30
0.0
 11
110.8685109263354
 21
66.29171297709445
 31
0.0
  0
LINE
  5
3D2
330
1A
100
AcDbEntity
  8
NOKITOI
  6
PHANTOM
 62
     8
 48
5.0
100
AcDbLine
 10
111.0062109263354
 20
73.68141297709456
 30
0.0
 11
104.7853109263355
 21
73.68141297709456
 31
0.0
  0
LINE
  5
3D3
330
1A
100
AcDbEntity
  8
NOKITOI
  6
PHANTOM
 62
     8
 48
5.0
100
AcDbLine
 10
112.6686109263355
 20
74.98141297709458
 30
0.0
 11
102.7579109263355
 21
74.98141297709458
 31
0.0
  0
ARC
  5
3D4
330
1A
100
AcDbEntity
  8
NOKITOI
  6
PHANTOM
 62
     8
 48
5.0
100
AcDbCircle
 10
93.78158476512641
 20
63.88537286761056
 30
0.0
 40
14.22848866365036
100
AcDbArc
 50
51.52529185494234
 51
71.45345265407179
  0
ARC
  5
3D5
330
1A
100
AcDbEntity
  8
NOKITOI
  6
PHANTOM
 62
     8
 48
5.0
100
AcDbCircle
 10
93.78151799612231
 20
63.88540500420075
 30
0.0
 40
12.93471022655885
100
AcDbArc
 50
8.676219579622188
 51
74.45245455808934
  0
ARC
  5
3D6
330
1A
100
AcDbEntity
  8
NOKITOI
  6
PHANTOM
 62
     8
 48
5.0
100
AcDbCircle
 10
93.7815161233488
 20
63.88540236132644
 30
0.0
 40
14.23472333170272
100
AcDbArc
 50
11.37541821407346
 51
40.79334907830746
  0
ARC
  5
3D7
330
1A
100
AcDbEntity
  8
NOKITOI
  6
PHANTOM
 62
     8
 48
5.0
100
AcDbCircle
 10
108.2267878852073
 20
66.79173184138278
 30
0.0
 40
0.5000188648192144
100
AcDbArc
 50
191.386728855441
 51
270.0026402191978
  0
ARC
  5
3D8
330
1A
100
AcDbEntity
  8
NOKITOI
  6
PHANTOM
 62
     8
 48
5.0
100
AcDbCircle
 10
107.5518185403531
 20
65.98670643685053
 30
0.0
 40
0.9949934597852239
100
AcDbArc
 50
188.6761125650601
 51
269.9995615538234
  0
ARC
  5
3D9
330
1A
100
AcDbEntity
  8
NOKITOI
  6
PHANTOM
 62
     8
 48
5.0
100
AcDbCircle
 10
104.7853145856386
 20
73.38142096897414
 30
0.0
 40
0.2999920081427447
100
AcDbArc
 50
90.00069889403132
 51
220.79672841758
  0
ARC
  5
3DA
330
1A
100
AcDbEntity
  8
NOKITOI
  6
PHANTOM
 62
     8
 48
5.0
100
AcDbCircle
 10
102.7579142386945
 20
75.18041182130912
 30
0.0
 40
0.1989988442421132
100
AcDbArc
 50
231.5280949042402
 51
269.9990463050545
  0
ARC
  5
3DB
330
1A
100
AcDbEntity
  8
NOKITOI
  6
PHANTOM
 62
     8
 48
5.0
100
AcDbCircle
 10
98.6238308081069
 20
78.31829064001448
 30
0.0
 40
0.995060928010462
100
AcDbArc
 50
191.8877567214141
 51
251.452486792293
  0
ARC
  5
3DC
330
1A
100
AcDbEntity
  8
NOKITOI
  6
PHANTOM
 62
     8
 48
5.0
100
AcDbCircle
 10
97.51525095072299
 20
77.30537031286863
 30
0.0
 40
0.9949785960395137
100
AcDbArc
 50
191.8875585738771
 51
254.4495841050101
  0
LINE
  5
3DD
330
1A
100
AcDbEntity
  8
NOKITOI
  6
PHANTOM
 62
     8
 48
5.0
100
AcDbLine
 10
112.6685109263354
 20
66.48411297709458
 30
0.0
 11
112.6686109263355
 21
74.98141297709458
 31
0.0
  0
LINE
  5
3DE
330
1A
100
AcDbEntity
  8
NOKITOI
  6
PHANTOM
 62
     8
 48
5.0
100
AcDbLine
 10
111.3685109263354
 20
66.79171297709456
 30
0.0
 11
111.3685109263354
 21
73.31901297709459
 31
0.0
  0
ARC
  5
3DF
330
1A
100
AcDbEntity
  8
NOKITOI
  6
PHANTOM
 62
     8
 48
5.0
100
AcDbCircle
 10
110.8685109263353
 20
66.79171297709451
 30
0.0
 40
0.5000000000000569
100
AcDbArc
 50
270.0000000000065
 51
0.0000000000065138
  0
ARC
  5
3E0
330
1A
100
AcDbEntity
  8
NOKITOI
  6
PHANTOM
 62
     8
 48
5.0
100
AcDbCircle
 10
112.8675109263355
 20
66.48411297709452
 30
0.0
 40
0.1990000000000691
100
AcDbArc
 50
179.9999999999837
 51
269.9999999999837
  0
LINE
  5
3E1
330
1A
100
AcDbEntity
  8
NOKITOI
  6
PHANTOM
 62
     8
 48
5.0
100
AcDbLine
 10
111.8635109263354
 20
74.17631297709442
 30
0.0
 11
111.0062109263354
 21
73.68141297709456
 31
0.0
  0
LINE
  5
3E2
330
1A
100
AcDbEntity
  8
NOKITOI
  6
PHANTOM
 62
     8
 48
5.0
100
AcDbLine
 10
111.8635109263354
 20
74.17631297709442
 30
0.0
 11
111.3685109263354
 21
73.31901297709459
 31
0.0
  0
LINE
  5
3E3
330
1A
100
AcDbEntity
  8
NOKITOI
  6
PHANTOM
 62
     8
 48
5.0
100
AcDbLine
 10
88.59281092633551
 20
109.7894129770945
 30
0.0
 11
88.59281092633551
 21
112.2033129770945
 31
0.0
  0
LINE
  5
3E4
330
1A
100
AcDbEntity
  8
NOKITOI
  6
PHANTOM
 62
     8
 48
5.0
100
AcDbLine
 10
84.95861092633544
 20
112.2033129770945
 30
0.0
 11
84.95861092633544
 21
108.2731129770945
 31
0.0
  0
LINE
  5
3E5
330
1A
100
AcDbEntity
  8
NOKITOI
  6
PHANTOM
 62
     8
 48
5.0
100
AcDbLine
 10
89.88621092633541
 20
113.9942129770944
 30
0.0
 11
89.88621092633541
 21
109.7894129770945
 31
0.0
  0
LINE
  5
3E6
330
1A
100
AcDbEntity
  8
NOKITOI
  6
PHANTOM
 62
     8
 48
5.0
100
AcDbLine
 10
83.66511092633556
 20
105.9847129770944
 30
0.0
 11
83.66511092633556
 21
113.9942129770944
 31
0.0
  0
LINE
  5
3E7
330
1A
100
AcDbEntity
  8
NOKITOI
  6
PHANTOM
 62
     8
 48
5.0
100
AcDbLine
 10
90.50831092633558
 20
104.9897129770944
 30
0.0
 11
84.66011092633555
 21
104.9897129770944
 31
0.0
  0
ARC
  5
3E8
330
1A
100
AcDbEntity
  8
NOKITOI
  6
PHANTOM
 62
     8
 48
5.0
100
AcDbCircle
 10
86.94856092633546
 20
108.2731629770946
 30
0.0
 40
1.989950000628206
100
AcDbArc
 50
180.0014396286237
 51
270.0014396286237
  0
ARC
  5
3E9
330
1A
100
AcDbEntity
  8
NOKITOI
  6
PHANTOM
 62
     8
 48
5.0
100
AcDbCircle
 10
84.66011092633555
 20
105.9847129770944
 30
0.0
 40
0.9950000000000045
100
AcDbArc
 50
180.0
 51
270.0
  0
LINE
  5
3EA
330
1A
100
AcDbEntity
  8
NOKITOI
  6
PHANTOM
 62
     8
 48
5.0
100
AcDbLine
 10
89.88621092633541
 20
109.7894129770945
 30
0.0
 11
88.59281092633551
 21
109.7894129770945
 31
0.0
  0
LINE
  5
3EB
330
1A
100
AcDbEntity
  8
NOKITOI
  6
PHANTOM
 62
     8
 48
5.0
100
AcDbLine
 10
86.94861092633557
 20
106.2832129770945
 30
0.0
 11
91.71921092633551
 21
106.2832129770945
 31
0.0
  0
ARC
  5
3EC
330
1A
100
AcDbEntity
  8
NOKITOI
  6
PHANTOM
 62
     8
 48
5.0
100
AcDbCircle
 10
90.50829248372128
 20
104.7907279405313
 30
0.0
 40
0.1989850374177657
100
AcDbArc
 50
11.88631382809341
 51
89.9946896310665
  0
LINE
  5
3ED
330
1A
100
AcDbEntity
  8
NOKITOI
  6
PHANTOM
 62
     8
 48
5.0
100
AcDbLine
 10
84.66011092633555
 20
114.9892129770945
 30
0.0
 11
88.89131092633551
 21
114.9892129770945
 31
0.0
  0
ARC
  5
3EE
330
1A
100
AcDbEntity
  8
NOKITOI
  6
PHANTOM
 62
     8
 48
5.0
100
AcDbCircle
 10
86.4510609263354
 20
112.2032629770944
 30
0.0
 40
1.49245000083754
100
AcDbArc
 50
89.99808047909004
 51
179.99808047909
  0
ARC
  5
3EF
330
1A
100
AcDbEntity
  8
NOKITOI
  6
PHANTOM
 62
     8
 48
5.0
100
AcDbCircle
 10
84.66011092633555
 20
113.9942129770944
 30
0.0
 40
0.9950000000000613
100
AcDbArc
 50
90.00000000000325
 51
180.0000000000032
  0
ARC
  5
3F0
330
1A
100
AcDbEntity
  8
NOKITOI
  6
PHANTOM
 62
     8
 48
5.0
100
AcDbCircle
 10
88.8912609263354
 20
113.9942629770945
 30
0.0
 40
0.9949500012563332
100
AcDbArc
 50
359.9971206704047
 51
89.99712067040476
  0
ARC
  5
3F1
330
1A
100
AcDbEntity
  8
NOKITOI
  6
PHANTOM
 62
     8
 48
5.0
100
AcDbCircle
 10
87.10031092633546
 20
112.2033129770945
 30
0.0
 40
1.492399999999918
100
AcDbArc
 50
0.0000000000024427
 51
90.00000000000161
  0
LINE
  5
3F2
330
1A
100
AcDbEntity
  8
NOKITOI
  6
PHANTOM
 62
     8
 48
5.0
100
AcDbLine
 10
87.10031092633546
 20
113.6957129770944
 30
0.0
 11
86.4511109263355
 21
113.6957129770944
 31
0.0
  0
LINE
  5
3F3
330
1A
100
AcDbEntity
  8
NOKITOI
  6
PHANTOM
 62
     8
 48
5.0
100
AcDbLine
 10
184.7927109263356
 20
77.10021297709443
 30
0.0
 11
190.6314109263353
 21
104.8316129770944
 31
0.0
  0
LINE
  5
3F4
330
1A
100
AcDbEntity
  8
NOKITOI
  6
PHANTOM
 62
     8
 48
5.0
100
AcDbLine
 10
183.6840109263355
 20
78.11271297709459
 30
0.0
 11
189.1390109263354
 21
104.0216129770944
 31
0.0
  0
ARC
  5
3F5
330
1A
100
AcDbEntity
  8
NOKITOI
  6
PHANTOM
 62
     8
 48
5.0
100
AcDbCircle
 10
187.5525997700146
 20
63.88540039562039
 30
0.0
 40
12.93449408578155
100
AcDbArc
 50
105.5473332353541
 51
171.3240617643018
  0
ARC
  5
3F6
330
1A
100
AcDbEntity
  8
NOKITOI
  6
PHANTOM
 62
     8
 48
5.0
100
AcDbCircle
 10
187.5527053929236
 20
63.88530673682914
 30
0.0
 40
12.93461262833301
100
AcDbArc
 50
105.5476727870197
 51
171.3237222126367
  0
ARC
  5
3F7
330
1A
100
AcDbEntity
  8
NOKITOI
  6
PHANTOM
 62
     8
 48
5.0
100
AcDbCircle
 10
187.5526693810263
 20
63.88522811253821
 30
0.0
 40
14.23462403148678
100
AcDbArc
 50
139.2075062368998
 51
168.623785948384
  0
LINE
  5
3F8
330
1A
100
AcDbEntity
  8
NOKITOI
  6
PHANTOM
 62
     8
 48
5.0
100
AcDbLine
 10
176.5487109263353
 20
73.68101297709443
 30
0.0
 11
170.3281109263355
 21
73.68101297709443
 31
0.0
  0
LINE
  5
3F9
330
1A
100
AcDbEntity
  8
NOKITOI
  6
PHANTOM
 62
     8
 48
5.0
100
AcDbLine
 10
168.6658109263353
 20
74.98111297709442
 30
0.0
 11
178.6463109263353
 21
74.98101297709457
 31
0.0
  0
LINE
  5
3FA
330
1A
100
AcDbEntity
  8
NOKITOI
  6
PHANTOM
 62
     8
 48
5.0
100
AcDbLine
 10
164.4667109263355
 20
66.28501297709442
 30
0.0
 11
149.7123109263354
 21
66.28501297709442
 31
0.0
  0
LINE
  5
3FB
330
1A
100
AcDbEntity
  8
NOKITOI
  6
PHANTOM
 62
     8
 48
5.0
100
AcDbLine
 10
168.6657109263355
 20
66.48411297709458
 30
0.0
 11
168.6658109263353
 21
74.98111297709442
 31
0.0
  0
LINE
  5
3FC
330
1A
100
AcDbEntity
  8
NOKITOI
  6
PHANTOM
 62
     8
 48
5.0
100
AcDbLine
 10
169.9658109263355
 20
73.31871297709444
 30
0.0
 11
169.9658109263355
 21
66.79161297709447
 31
0.0
  0
LINE
  5
3FD
330
1A
100
AcDbEntity
  8
NOKITOI
  6
PHANTOM
 62
     8
 48
5.0
100
AcDbLine
 10
173.1075109263355
 20
66.29161297709458
 30
0.0
 11
170.4658109263355
 21
66.29161297709458
 31
0.0
  0
ARC
  5
3FE
330
1A
100
AcDbEntity
  8
NOKITOI
  6
PHANTOM
 62
     8
 48
5.0
100
AcDbCircle
 10
170.4658109263354
 20
66.79161297709453
 30
0.0
 40
0.4999999999999432
100
AcDbArc
 50
180.0000000000065
 51
270.0000000000065
  0
ARC
  5
3FF
330
1A
100
AcDbEntity
  8
NOKITOI
  6
PHANTOM
 62
     8
 48
5.0
100
AcDbCircle
 10
168.4666609263354
 20
66.48406297709451
 30
0.0
 40
0.1990500062799141
100
AcDbArc
 50
270.0143923080609
 51
0.0143923080609163
  0
ARC
  5
400
330
1A
100
AcDbEntity
  8
NOKITOI
  6
PHANTOM
 62
     8
 48
5.0
100
AcDbCircle
 10
173.1075339674637
 20
66.79163184138278
 30
0.0
 40
0.5000188648190603
100
AcDbArc
 50
269.9973597808037
 51
348.6132711445605
  0
ARC
  5
401
330
1A
100
AcDbEntity
  8
NOKITOI
  6
PHANTOM
 62
     8
 48
5.0
100
AcDbCircle
 10
173.7824608544314
 20
65.98665586469318
 30
0.0
 40
0.9950428888512103
100
AcDbArc
 50
269.9971250795227
 51
351.3214426795066
  0
LINE
  5
402
330
1A
100
AcDbEntity
  8
NOKITOI
  6
PHANTOM
 62
     8
 48
5.0
100
AcDbLine
 10
169.4708109263353
 20
74.17601297709444
 30
0.0
 11
170.3281109263355
 21
73.68101297709443
 31
0.0
  0
LINE
  5
403
330
1A
100
AcDbEntity
  8
NOKITOI
  6
PHANTOM
 62
     8
 48
5.0
100
AcDbLine
 10
169.4708109263353
 20
74.17601297709444
 30
0.0
 11
169.9658109263355
 21
73.31871297709444
 31
0.0
  0
ARC
  5
404
330
1A
100
AcDbEntity
  8
NOKITOI
  6
PHANTOM
 62
     8
 48
5.0
100
AcDbCircle
 10
187.5527254298841
 20
63.88532090128297
 30
0.0
 40
14.22809199964113
100
AcDbArc
 50
108.5474584936545
 51
128.7537062451649
  0
ARC
  5
405
330
1A
100
AcDbEntity
  8
NOKITOI
  6
PHANTOM
 62
     8
 48
5.0
100
AcDbCircle
 10
176.5487246041868
 20
73.38098311340061
 30
0.0
 40
0.3000298640056128
100
AcDbArc
 50
319.2190584222774
 51
90.00261201720057
  0
ARC
  5
406
330
1A
100
AcDbEntity
  8
NOKITOI
  6
PHANTOM
 62
     8
 48
5.0
100
AcDbCircle
 10
182.7104544958866
 20
78.31776192886343
 30
0.0
 40
0.9950135261271753
100
AcDbArc
 50
288.5445751594485
 51
348.1074736523475
  0
ARC
  5
407
330
1A
100
AcDbEntity
  8
NOKITOI
  6
PHANTOM
 62
     8
 48
5.0
100
AcDbCircle
 10
183.8190852631876
 20
77.30529222848199
 30
0.0
 40
0.9949690575286499
100
AcDbArc
 50
285.5437330810334
 51
348.1110361155297
  0
LINE
  5
408
330
1A
100
AcDbEntity
  8
NOKITOI
  6
PHANTOM
 62
     8
 48
5.0
100
AcDbLine
 10
196.6743109263355
 20
114.9891129770945
 30
0.0
 11
191.4706109263354
 21
114.9890129770944
 31
0.0
  0
LINE
  5
409
330
1A
100
AcDbEntity
  8
NOKITOI
  6
PHANTOM
 62
     8
 48
5.0
100
AcDbLine
 10
190.8261109263353
 20
104.9895129770946
 30
0.0
 11
196.6743109263355
 21
104.9895129770946
 31
0.0
  0
LINE
  5
40A
330
1A
100
AcDbEntity
  8
NOKITOI
  6
PHANTOM
 62
     8
 48
5.0
100
AcDbLine
 10
196.3693109263355
 20
106.2895129770944
 30
0.0
 11
190.9450109263355
 21
106.2896129770944
 31
0.0
  0
LINE
  5
40B
330
1A
100
AcDbEntity
  8
NOKITOI
  6
PHANTOM
 62
     8
 48
5.0
100
AcDbLine
 10
192.5029109263353
 20
113.6890129770945
 30
0.0
 11
190.9450109263355
 21
106.2896129770944
 31
0.0
  0
LINE
  5
40C
330
1A
100
AcDbEntity
  8
NOKITOI
  6
PHANTOM
 62
     8
 48
5.0
100
AcDbLine
 10
189.1390109263354
 20
104.0216129770944
 30
0.0
 11
191.4481109263353
 21
114.9890129770944
 31
0.0
  0
ARC
  5
40D
330
1A
100
AcDbEntity
  8
NOKITOI
  6
PHANTOM
 62
     8
 48
5.0
100
AcDbCircle
 10
190.8261293689496
 20
104.7906279405312
 30
0.0
 40
0.1989850374179911
100
AcDbArc
 50
90.00531036897097
 51
168.1136861719429
  0
LINE
  5
40E
330
1A
100
AcDbEntity
  8
NOKITOI
  6
PHANTOM
 62
     8
 48
5.0
100
AcDbLine
 10
196.3693109263355
 20
106.2895129770944
 30
0.0
 11
196.3693109263355
 21
113.6890129770945
 31
0.0
  0
LINE
  5
40F
330
1A
100
AcDbEntity
  8
NOKITOI
  6
PHANTOM
 62
     8
 48
5.0
100
AcDbLine
 10
197.6693109263355
 20
105.9845129770944
 30
0.0
 11
197.6693109263355
 21
113.9941129770944
 31
0.0
  0
ARC
  5
410
330
1A
100
AcDbEntity
  8
NOKITOI
  6
PHANTOM
 62
     8
 48
5.0
100
AcDbCircle
 10
196.6743109263356
 20
105.9845129770945
 30
0.0
 40
0.9949999999999192
100
AcDbArc
 50
269.9999999999951
 51
359.9999999999951
  0
LINE
  5
411
330
1A
100
AcDbEntity
  8
NOKITOI
  6
PHANTOM
 62
     8
 48
5.0
100
AcDbLine
 10
196.3693109263355
 20
113.6890129770945
 30
0.0
 11
192.5029109263353
 21
113.6890129770945
 31
0.0
  0
ARC
  5
412
330
1A
100
AcDbEntity
  8
NOKITOI
  6
PHANTOM
 62
     8
 48
5.0
100
AcDbCircle
 10
196.6743109263355
 20
113.9941129770945
 30
0.0
 40
0.9950000000000613
100
AcDbArc
 50
359.9999999999967
 51
89.99999999999674
  0
DIMENSION
  5
418
330
1A
100
AcDbEntity
  8
SUNPOU
 48
5.0
100
AcDbDimension
  2
*D1
 10
217.5004177445173
 20
154.3072160868342
 30
0.0
 11
151.9757643354264
 21
156.8072160868342
 31
0.0
 70
    32
  3
STANDARD
100
AcDbAlignedDimension
 13
86.45111092633554
 23
113.6957129770944
 33
0.0
 14
217.5004177445173
 24
125.1957129770944
 34
0.0
100
AcDbRotatedDimension
1001
ACAD
1000
DSTYLE
1002
{
1070
    41
1040
3.0
1070
    42
1040
3.0
1070
    43
1040
7.0
1070
    44
1040
1.5
1070
    73
1070
     0
1070
    74
1070
     0
1070
    77
1070
     3
1070
   140
1040
3.0
1070
   141
1040
150.0
1070
   147
1040
1.0
1070
   172
1070
     1
1070
   173
1070
     1
1070
   176
1070
     4
1070
   177
1070
     4
1070
   178
1070
     4
1070
   271
1070
     0
1070
   272
1070
     2
1070
   341
1005
B2
1070
     6
1000
OPEN
1070
     7
1000
OPEN
1002
}
  0
DIMENSION
  5
433
330
1A
100
AcDbEntity
  8
SUNPOU
 48
5.0
100
AcDbDimension
  2
*D2
 10
238.832794235647
 20
78.19571297709443
 30
0.0
 11
236.332794235647
 21
101.6957129770944
 31
0.0
 70
    32
  3
STANDARD
100
AcDbAlignedDimension
 13
217.5004177445173
 23
125.1957129770944
 33
0.0
 14
217.5004109263354
 24
78.19571297709444
 34
0.0
 50
90.0
100
AcDbRotatedDimension
1001
ACAD
1000
DSTYLE
1002
{
1070
    41
1040
3.0
1070
    42
1040
3.0
1070
    43
1040
7.0
1070
    44
1040
1.5
1070
    73
1070
     0
1070
    74
1070
     0
1070
    77
1070
     3
1070
   140
1040
3.0
1070
   141
1040
150.0
1070
   147
1040
1.0
1070
   172
1070
     1
1070
   173
1070
     1
1070
   176
1070
     4
1070
   177
1070
     4
1070
   178
1070
     4
1070
   271
1070
     0
1070
   272
1070
     2
1070
   341
1005
B2
1070
     6
1000
OPEN
1070
     7
1000
OPEN
1002
}
  0
DIMENSION
  5
440
330
1A
100
AcDbEntity
  8
SUNPOU
 48
5.0
100
AcDbDimension
  2
*D3
 10
197.6693109263355
 20
139.1131304659996
 30
0.0
 11
207.5848643354264
 21
141.6131304659996
 31
0.0
 70
    32
  3
STANDARD
100
AcDbAlignedDimension
 13
217.5004177445173
 23
125.1957129770944
 33
0.0
 14
197.6693109263355
 24
113.9941129770944
 34
0.0
100
AcDbRotatedDimension
1001
ACAD
1000
DSTYLE
1002
{
1070
    41
1040
3.0
1070
    42
1040
3.0
1070
    43
1040
7.0
1070
    44
1040
1.5
1070
    73
1070
     0
1070
    74
1070
     0
1070
    77
1070
     3
1070
   140
1040
3.0
1070
   141
1040
150.0
1070
   147
1040
1.0
1070
   172
1070
     1
1070
   173
1070
     1
1070
   176
1070
     4
1070
   177
1070
     4
1070
   178
1070
     4
1070
   271
1070
     0
1070
   272
1070
     2
1070
   341
1005
B2
1070
     6
1000
OPEN
1070
     7
1000
OPEN
1002
}
  0
DIMENSION
  5
44D
330
1A
100
AcDbEntity
  8
SUNPOU
 48
5.0
100
AcDbDimension
  2
*D4
 10
162.2317012171495
 20
105.1957129770944
 30
0.0
 11
159.7317012171495
 21
115.1957129770944
 31
0.0
 70
    32
  3
STANDARD
100
AcDbAlignedDimension
 13
182.5003697498648
 23
125.1957129770944
 33
0.0
 14
150.9533109263355
 24
105.1957129770944
 34
0.0
 50
90.0
100
AcDbRotatedDimension
1001
ACAD
1000
DSTYLE
1002
{
1070
    41
1040
3.0
1070
    42
1040
3.0
1070
    43
1040
7.0
1070
    44
1040
1.5
1070
    73
1070
     0
1070
    74
1070
     0
1070
    77
1070
     3
1070
   140
1040
3.0
1070
   141
1040
150.0
1070
   147
1040
1.0
1070
   172
1070
     1
1070
   173
1070
     1
1070
   176
1070
     4
1070
   177
1070
     4
1070
   178
1070
     4
1070
   271
1070
     0
1070
   272
1070
     2
1070
   341
1005
B2
1070
     6
1000
OPEN
1070
     7
1000
OPEN
1002
}
  0
LINE
  5
45F
330
1A
100
AcDbEntity
  8
SEIHIN
 48
5.0
100
AcDbLine
 10
217.5004052445173
 20
119.6957129770944
 30
0.0
 11
211.5004109263355
 21
119.6957129770944
 31
0.0
  0
DIMENSION
  5
460
330
1A
100
AcDbEntity
  8
SUNPOU
 48
5.0
100
AcDbDimension
  2
*D5
 10
342.5003109263355
 20
139.1131304659996
 30
0.0
 11
327.5003109263355
 21
141.6131304659996
 31
0.0
 70
    32
  3
STANDARD
100
AcDbAlignedDimension
 13
312.5003109263354
 23
125.1957129770944
 33
0.0
 14
342.5003109263355
 24
125.1957129770944
 34
0.0
100
AcDbRotatedDimension
1001
ACAD
1000
DSTYLE
1002
{
1070
    41
1040
3.0
1070
    42
1040
3.0
1070
    43
1040
7.0
1070
    44
1040
1.5
1070
    73
1070
     0
1070
    74
1070
     0
1070
    77
1070
     3
1070
   140
1040
3.0
1070
   141
1040
150.0
1070
   147
1040
1.0
1070
   172
1070
     1
1070
   173
1070
     1
1070
   176
1070
     4
1070
   177
1070
     4
1070
   178
1070
     4
1070
   271
1070
     0
1070
   272
1070
     2
1070
   341
1005
B2
1070
     6
1000
OPEN
1070
     7
1000
OPEN
1002
}
  0
DIMENSION
  5
46D
330
1A
100
AcDbEntity
  8
SUNPOU
 48
5.0
100
AcDbDimension
  2
*D6
 10
344.0003109263354
 20
146.3930422492976
 30
0.0
 11
327.5003109263355
 21
148.8930422492976
 31
0.0
 70
    32
  3
STANDARD
100
AcDbAlignedDimension
 13
311.0003109263355
 23
112.8882129770944
 33
0.0
 14
344.0003109263354
 24
112.8882129770944
 34
0.0
100
AcDbRotatedDimension
1001
ACAD
1000
DSTYLE
1002
{
1070
    41
1040
3.0
1070
    42
1040
3.0
1070
    43
1040
7.0
1070
    44
1040
1.5
1070
    73
1070
     0
1070
    74
1070
     0
1070
    77
1070
     3
1070
   140
1040
3.0
1070
   141
1040
150.0
1070
   147
1040
1.0
1070
   172
1070
     1
1070
   173
1070
     1
1070
   176
1070
     4
1070
   177
1070
     4
1070
   178
1070
     4
1070
   271
1070
     0
1070
   272
1070
     2
1070
   341
1005
B2
1070
     6
1000
OPEN
1070
     7
1000
OPEN
1002
}
  0
DIMENSION
  5
47A
330
1A
100
AcDbEntity
  8
SUNPOU
 48
5.0
100
AcDbDimension
  2
*D7
 10
350.0003109263354
 20
154.3072160868342
 30
0.0
 11
327.5003109263355
 21
156.8072160868342
 31
0.0
 70
    32
  3
STANDARD
100
AcDbAlignedDimension
 13
305.0003109263355
 23
115.1957129770944
 33
0.0
 14
350.0003109263354
 24
115.1957129770944
 34
0.0
100
AcDbRotatedDimension
1001
ACAD
1000
DSTYLE
1002
{
1070
    41
1040
3.0
1070
    42
1040
3.0
1070
    43
1040
7.0
1070
    44
1040
1.5
1070
    73
1070
     0
1070
    74
1070
     0
1070
    77
1070
     3
1070
   140
1040
3.0
1070
   141
1040
150.0
1070
   147
1040
1.0
1070
   172
1070
     1
1070
   173
1070
     1
1070
   176
1070
     4
1070
   177
1070
     4
1070
   178
1070
     4
1070
   271
1070
     0
1070
   272
1070
     2
1070
   341
1005
B2
1070
     6
1000
OPEN
1070
     7
1000
OPEN
1002
}
  0
DIMENSION
  5
487
330
1A
100
AcDbEntity
  8
SUNPOU
 48
5.0
100
AcDbDimension
  2
*D8
 10
284.9616816869588
 20
109.1957129770944
 30
0.0
 11
282.4616816869588
 21
117.1957129770945
 31
0.0
 70
    32
  3
STANDARD
100
AcDbAlignedDimension
 13
312.5003109263354
 23
125.1957129770944
 33
0.0
 14
306.7877109263354
 24
109.1957129770944
 34
0.0
 50
90.0
100
AcDbRotatedDimension
1001
ACAD
1000
DSTYLE
1002
{
1070
    41
1040
3.0
1070
    42
1040
3.0
1070
    43
1040
7.0
1070
    44
1040
1.5
1070
    73
1070
     0
1070
    74
1070
     0
1070
    77
1070
     3
1070
   140
1040
3.0
1070
   141
1040
150.0
1070
   147
1040
1.0
1070
   172
1070
     1
1070
   173
1070
     1
1070
   176
1070
     4
1070
   177
1070
     4
1070
   178
1070
     4
1070
   271
1070
     0
1070
   272
1070
     2
1070
   341
1005
B2
1070
     6
1000
OPEN
1070
     7
1000
OPEN
1002
}
  0
DIMENSION
  5
494
330
1A
100
AcDbEntity
  8
SUNPOU
 48
5.0
100
AcDbDimension
  2
*D9
 10
304.6547200348993
 20
78.19574357993811
 30
0.0
 11
302.1547200348993
 21
81.19572827851634
 31
0.0
 70
    32
  3
STANDARD
100
AcDbAlignedDimension
 13
322.8211109263354
 23
84.19571297709444
 33
0.0
 14
327.5003109263355
 24
78.19574357993811
 34
0.0
 50
90.0
100
AcDbRotatedDimension
1001
ACAD
1000
DSTYLE
1002
{
1070
    41
1040
3.0
1070
    42
1040
3.0
1070
    43
1040
7.0
1070
    44
1040
1.5
1070
    73
1070
     0
1070
    74
1070
     0
1070
    77
1070
     3
1070
   140
1040
3.0
1070
   141
1040
150.0
1070
   147
1040
1.0
1070
   172
1070
     1
1070
   173
1070
     1
1070
   176
1070
     4
1070
   177
1070
     4
1070
   178
1070
     4
1070
   271
1070
     0
1070
   272
1070
     2
1070
   341
1005
B2
1070
     6
1000
OPEN
1070
     7
1000
OPEN
1002
}
  0
DIMENSION
  5
4A3
330
1A
100
AcDbEntity
  8
SUNPOU
 48
5.0
100
AcDbDimension
  2
*D10
 10
275.9876390954195
 20
78.1957012506082
 30
0.0
 11
273.4876390954195
 21
101.6957071138513
 31
0.0
 70
    32
  3
STANDARD
100
AcDbAlignedDimension
 13
312.5003109263354
 23
125.1957129770944
 33
0.0
 14
327.5003109263355
 24
78.19570125060818
 34
0.0
 50
90.0
100
AcDbRotatedDimension
1001
ACAD
1000
DSTYLE
1002
{
1070
    41
1040
3.0
1070
    42
1040
3.0
1070
    43
1040
7.0
1070
    44
1040
1.5
1070
    73
1070
     0
1070
    74
1070
     0
1070
    77
1070
     3
1070
   140
1040
3.0
1070
   141
1040
150.0
1070
   147
1040
1.0
1070
   172
1070
     1
1070
   173
1070
     1
1070
   176
1070
     4
1070
   177
1070
     4
1070
   178
1070
     4
1070
   271
1070
     0
1070
   272
1070
     2
1070
   341
1005
B2
1070
     6
1000
OPEN
1070
     7
1000
OPEN
1002
}
  0
LEADER
  5
4B0
330
1A
100
AcDbEntity
  8
SUNPOU
 48
5.0
100
AcDbLeader
  3
STANDARD
 40
3.0
 41
15.59999999999999
 76
     3
 10
344.0003109263354
 20
107.1457129770944
 30
0.0
 10
354.5105130875763
 20
85.49769511014289
 30
0.0
 10
372.1570517349703
 20
85.49769511014289
 30
0.0
213
0.0
223
-1.5
233
0.0
1001
ACAD
1000
DSTYLE
1002
{
1070
     6
1000
OPEN
1070
    41
1040
3.0
1070
    42
1040
3.0
1070
    43
1040
7.0
1070
    44
1040
1.5
1070
    73
1070
     0
1070
    74
1070
     0
1070
    77
1070
     0
1070
   140
1040
3.0
1070
   141
1040
150.0
1070
   147
1040
1.0
1070
   172
1070
     1
1070
   173
1070
     1
1070
   176
1070
     4
1070
   177
1070
     4
1070
   178
1070
     4
1070
   271
1070
     0
1070
   272
1070
     2
1070
   341
1005
B2
1070
   343
1005
B2
1070
   344
1005
B2
1002
}
  0
MTEXT
  5
4B8
330
1A
100
AcDbEntity
  8
SUNPOU
 48
5.0
100
AcDbMText
 10
355.258349920371
 20
89.4938678241864
 30
0.0
 40
3.0
 41
0.0
 71
     1
 72
     5
  1
\A1;3-φ4.2
1001
ACAD
1000
MTEXTBEGIN
1070
    73
1070
     1
1070
    44
1040
1.0
1070
    74
1070
     0
1000
MTEXTEND
1000
MTEXTBEGIN
1070
    73
1070
     1
1070
    44
1040
1.0
1070
    74
1070
     0
1000
MTEXTEND
1000
MTEXTBEGIN
1070
    73
1070
     1
1070
    44
1040
1.0
1070
    74
1070
     0
1000
MTEXTEND
  0
DIMENSION
  5
4B9
330
1A
100
AcDbEntity
  8
SUNPOU
 48
5.0
100
AcDbDimension
  2
*D11
 10
238.541762820007
 20
197.3643129770944
 30
0.0
 11
236.041762820007
 21
213.8643129770945
 31
0.0
 70
    32
  3
STANDARD
100
AcDbAlignedDimension
 13
221.4702109263354
 23
230.3643129770944
 33
0.0
 14
221.4702109263354
 24
197.3643129770944
 34
0.0
 50
90.0
100
AcDbRotatedDimension
1001
ACAD
1000
DSTYLE
1002
{
1070
    41
1040
3.0
1070
    42
1040
3.0
1070
    43
1040
7.0
1070
    44
1040
1.5
1070
    73
1070
     0
1070
    74
1070
     0
1070
    77
1070
     3
1070
   140
1040
3.0
1070
   141
1040
150.0
1070
   147
1040
1.0
1070
   172
1070
     1
1070
   173
1070
     1
1070
   176
1070
     4
1070
   177
1070
     4
1070
   178
1070
     4
1070
   271
1070
     0
1070
   272
1070
     2
1070
   341
1005
B2
1070
     6
1000
OPEN
1070
     7
1000
OPEN
1002
}
  0
DIMENSION
  5
4C6
330
1A
100
AcDbEntity
  8
SUNPOU
 48
5.0
100
AcDbDimension
  2
*D12
 10
245.9304912607096
 20
191.3643129770944
 30
0.0
 11
243.4304912607096
 21
213.8643129770945
 31
0.0
 70
    32
  3
STANDARD
100
AcDbAlignedDimension
 13
217.5004109263354
 23
236.3643129770944
 33
0.0
 14
217.5004109263354
 24
191.3643129770944
 34
0.0
 50
90.0
100
AcDbRotatedDimension
1001
ACAD
1000
DSTYLE
1002
{
1070
    41
1040
3.0
1070
    42
1040
3.0
1070
    43
1040
7.0
1070
    44
1040
1.5
1070
    73
1070
     0
1070
    74
1070
     0
1070
    77
1070
     3
1070
   140
1040
3.0
1070
   141
1040
150.0
1070
   147
1040
1.0
1070
   172
1070
     1
1070
   173
1070
     1
1070
   176
1070
     4
1070
   177
1070
     4
1070
   178
1070
     4
1070
   271
1070
     0
1070
   272
1070
     2
1070
   341
1005
B2
1070
     6
1000
OPEN
1070
     7
1000
OPEN
1002
}
  0
DIMENSION
  5
5C1
330
1A
100
AcDbEntity
  8
SUNPOU
 48
5.0
100
AcDbDimension
  2
*D13
 10
56.48093270936942
 20
78.19571297709448
 30
0.0
 11
53.98093270936941
 21
95.94571297709448
 31
0.0
 70
    32
  3
STANDARD
100
AcDbAlignedDimension
 13
86.45111092633554
 23
113.6957129770944
 33
0.0
 14
216.5003109263354
 24
78.19571297709444
 34
0.0
 50
90.0
100
AcDbRotatedDimension
1001
ACAD
1000
DSTYLE
1002
{
1070
    41
1040
3.0
1070
    42
1040
3.0
1070
    43
1040
7.0
1070
    44
1040
1.5
1070
    73
1070
     0
1070
    74
1070
     0
1070
    77
1070
     3
1070
   140
1040
3.0
1070
   141
1040
150.0
1070
   147
1040
1.0
1070
   172
1070
     1
1070
   173
1070
     1
1070
   176
1070
     4
1070
   177
1070
     4
1070
   178
1070
     4
1070
   271
1070
     0
1070
   272
1070
     2
1070
   341
1005
B2
1070
     6
1000
OPEN
1070
     7
1000
OPEN
1002
}
  0
DIMENSION
  5
5CE
330
1A
100
AcDbEntity
  8
SUNPOU
 48
5.0
100
AcDbDimension
  2
*D14
 10
66.61909476347728
 20
108.6957129770944
 30
0.0
 11
64.11909476347725
 21
111.1957129770944
 31
0.0
 70
    32
  3
STANDARD
100
AcDbAlignedDimension
 13
86.45111092633552
 23
113.6957129770944
 33
0.0
 14
87.90031092633546
 24
108.6957129770944
 34
0.0
 50
90.0
100
AcDbRotatedDimension
1001
ACAD
1000
DSTYLE
1002
{
1070
    41
1040
3.0
1070
    42
1040
3.0
1070
    43
1040
7.0
1070
    44
1040
1.5
1070
    73
1070
     0
1070
    74
1070
     0
1070
    77
1070
     3
1070
   140
1040
3.0
1070
   141
1040
150.0
1070
   147
1040
1.0
1070
   172
1070
     1
1070
   173
1070
     1
1070
   176
1070
     4
1070
   177
1070
     4
1070
   178
1070
     4
1070
   271
1070
     0
1070
   272
1070
     2
1070
   341
1005
B2
1070
     6
1000
OPEN
1070
     7
1000
OPEN
1002
}
  0
DIMENSION
  5
5DD
330
1A
100
AcDbEntity
  8
SUNPOU
 48
5.0
100
AcDbDimension
  2
*D15
 10
217.5003109263354
 20
59.19665144249757
 30
0.0
 11
228.2503109263354
 21
61.69665144249757
 31
0.0
 70
    32
  1
t<>
  3
STANDARD
100
AcDbAlignedDimension
 13
216.5003109263354
 23
78.19571297709444
 33
0.0
 14
217.5003109263354
 24
78.19571297709444
 34
0.0
100
AcDbRotatedDimension
1001
ACAD
1000
DSTYLE
1002
{
1070
    41
1040
3.0
1070
    42
1040
3.0
1070
    43
1040
7.0
1070
    44
1040
1.5
1070
    73
1070
     0
1070
    74
1070
     0
1070
    77
1070
     3
1070
   140
1040
3.0
1070
   141
1040
150.0
1070
   147
1040
1.0
1070
   172
1070
     1
1070
   173
1070
     1
1070
   176
1070
     4
1070
   177
1070
     4
1070
   178
1070
     4
1070
   271
1070
     1
1070
   272
1070
     2
1070
   341
1005
B2
1070
     6
1000
OPEN
1070
     7
1000
OPEN
1002
}
  0
DIMENSION
  5
60D
330
1A
100
AcDbEntity
  8
SUNPOU
 48
5.0
100
AcDbDimension
  2
*D16
 10
66.6190947634773
 20
207.3643129770944
 30
0.0
 11
64.11909476347728
 21
213.8643129770945
 31
0.0
 70
    32
  3
STANDARD
100
AcDbAlignedDimension
 13
90.90041092633546
 23
220.3643129770944
 33
0.0
 14
90.90041092633546
 24
207.3643129770944
 34
0.0
 50
90.0
100
AcDbRotatedDimension
1001
ACAD
1000
DSTYLE
1002
{
1070
    41
1040
3.0
1070
    42
1040
3.0
1070
    43
1040
7.0
1070
    44
1040
1.5
1070
    73
1070
     0
1070
    74
1070
     0
1070
    77
1070
     3
1070
   140
1040
3.0
1070
   141
1040
150.0
1070
   147
1040
1.0
1070
   172
1070
     1
1070
   173
1070
     1
1070
   176
1070
     4
1070
   177
1070
     4
1070
   178
1070
     4
1070
   271
1070
     0
1070
   272
1070
     2
1070
   341
1005
B2
1070
     6
1000
OPEN
1070
     7
1000
OPEN
1002
}
  0
DIMENSION
  5
61A
330
1A
100
AcDbEntity
  8
SUNPOU
 48
5.0
100
AcDbDimension
  2
*D17
 10
56.48093270936945
 20
203.8643129770945
 30
0.0
 11
53.98093270936942
 21
213.8643129770945
 31
0.0
 70
    32
  3
STANDARD
100
AcDbAlignedDimension
 13
86.50041092633546
 23
223.8643129770944
 33
0.0
 14
86.50041092633546
 24
203.8643129770944
 34
0.0
 50
90.0
100
AcDbRotatedDimension
1001
ACAD
1000
DSTYLE
1002
{
1070
    41
1040
3.0
1070
    42
1040
3.0
1070
    43
1040
7.0
1070
    44
1040
1.5
1070
    73
1070
     0
1070
    74
1070
     0
1070
    77
1070
     3
1070
   140
1040
3.0
1070
   141
1040
150.0
1070
   147
1040
1.0
1070
   172
1070
     1
1070
   173
1070
     1
1070
   176
1070
     4
1070
   177
1070
     4
1070
   178
1070
     4
1070
   271
1070
     0
1070
   272
1070
     2
1070
   341
1005
B2
1070
     6
1000
OPEN
1070
     7
1000
OPEN
1002
}
  0
DIMENSION
  5
62C
330
1A
100
AcDbEntity
  8
SUNPOU
 48
5.0
100
AcDbDimension
  2
*D18
 10
217.5004177445173
 20
146.3930422492976
 30
0.0
 11
200.000393747191
 21
148.8930422492976
 31
0.0
 70
    32
  3
STANDARD
100
AcDbAlignedDimension
 13
182.5003697498648
 23
125.1957129770944
 33
0.0
 14
217.5004177445173
 24
125.1957129770944
 34
0.0
100
AcDbRotatedDimension
1001
ACAD
1000
DSTYLE
1002
{
1070
    41
1040
3.0
1070
    42
1040
3.0
1070
    43
1040
7.0
1070
    44
1040
1.5
1070
    73
1070
     0
1070
    74
1070
     0
1070
    77
1070
     3
1070
   140
1040
3.0
1070
   141
1040
150.0
1070
   147
1040
1.0
1070
   172
1070
     1
1070
   173
1070
     1
1070
   176
1070
     4
1070
   177
1070
     4
1070
   178
1070
     4
1070
   271
1070
     0
1070
   272
1070
     2
1070
   341
1005
B2
1070
     6
1000
OPEN
1070
     7
1000
OPEN
1002
}
  0
LWPOLYLINE
  5
A0E
330
1A
100
AcDbEntity
  8
ZUWAKU
100
AcDbPolyline
 90
        4
 70
     1
 43
0.0
 10
0.4000000601703278
 20
275.4000001794725
 10
0.4000000601703278
 20
0.4000001794725563
 10
398.4000000601703
 20
0.4000001794725563
 10
398.4000000601703
 20
275.4000001794725
  0
LWPOLYLINE
  5
A0F
330
1A
100
AcDbEntity
  8
ZUWAKU
100
AcDbPolyline
 90
        4
 70
     1
 43
0.0
 10
0.2000000601703391
 20
275.6000001794725
 10
0.2000000601703391
 20
0.2000001794725676
 10
398.6000000601703
 20
0.2000001794725561
 10
398.6000000601703
 20
275.6000001794725
  0
LWPOLYLINE
  5
A10
330
1A
100
AcDbEntity
  8
ZUWAKU
100
AcDbPolyline
 90
        4
 70
     1
 43
0.0
 10
0.0000000601703505
 20
275.8000001794725
 10
0.0000000601703505
 20
0.0000001794725222
 10
398.8000000601704
 20
0.0000001794725559
 10
398.8000000601704
 20
275.8000001794726
  0
LWPOLYLINE
  5
A11
330
1A
100
AcDbEntity
  8
ZUWAKU
100
AcDbPolyline
 90
        4
 70
     1
 43
0.0
 10
0.300000060170305
 20
275.5000001794726
 10
0.300000060170305
 20
0.3000001794725335
 10
398.5000000601704
 20
0.3000001794725566
 10
398.5000000601703
 20
275.5000001794726
  0
LWPOLYLINE
  5
A12
330
1A
100
AcDbEntity
  8
ZUWAKU
100
AcDbPolyline
 90
        4
 70
     1
 43
0.0
 10
0.1000000601703164
 20
275.7000001794725
 10
0.1000000601703164
 20
0.1000001794725449
 10
398.7000000601702
 20
0.1000001794725565
 10
398.7000000601704
 20
275.7000001794725
  0
LINE
  5
A13
330
1A
100
AcDbEntity
  8
ZUWAKU
100
AcDbLine
 10
0.0000000601703505
 20
15.00000017947252
 30
0.0
 11
398.7000000601702
 21
15.00000017947252
 31
0.0
  0
LINE
  5
A14
330
1A
100
AcDbEntity
  8
ZUWAKU
100
AcDbLine
 10
0.0000000601703505
 20
15.10000017947252
 30
0.0
 11
398.7000000601702
 21
15.10000017947252
 31
0.0
  0
LINE
  5
A15
330
1A
100
AcDbEntity
  8
ZUWAKU
100
AcDbLine
 10
0.0000000601703505
 20
15.20000017947252
 30
0.0
 11
398.7000000601702
 21
15.20000017947252
 31
0.0
  0
LINE
  5
A16
330
1A
100
AcDbEntity
  8
ZUWAKU
100
AcDbLine
 10
0.0000000601703505
 20
15.30000017947252
 30
0.0
 11
398.7000000601702
 21
15.30000017947252
 31
0.0
  0
LINE
  5
A17
330
1A
100
AcDbEntity
  8
ZUWAKU
100
AcDbLine
 10
0.0000000601703505
 20
15.40000017947252
 30
0.0
 11
398.7000000601702
 21
15.40000017947252
 31
0.0
  0
LINE
  5
A18
330
1A
100
AcDbEntity
  8
ZUWAKU
100
AcDbLine
 10
104.3233007052043
 20
7.700000179472539
 30
0.0
 11
223.712182045666
 21
7.700000179472539
 31
0.0
  0
LINE
  5
A19
330
1A
100
AcDbEntity
  8
ZUWAKU
100
AcDbLine
 10
104.3233007052043
 20
7.800000179472538
 30
0.0
 11
223.712182045666
 21
7.800000179472542
 31
0.0
  0
LINE
  5
A1A
330
1A
100
AcDbEntity
  8
ZUWAKU
100
AcDbLine
 10
104.3233007052043
 20
7.600000179472541
 30
0.0
 11
223.712182045666
 21
7.600000179472537
 31
0.0
  0
CIRCLE
  5
A1B
330
1A
100
AcDbEntity
  8
ZUWAKU
100
AcDbCircle
 10
12.9961061375609
 20
7.600000179472523
 30
0.0
 40
0.875
  0
LINE
  5
A1C
330
1A
100
AcDbEntity
  8
ZUWAKU
100
AcDbLine
 10
13.4336061375609
 20
3.575000179472525
 30
0.0
 11
12.47110613756092
 21
3.575000179472525
 31
0.0
  0
LINE
  5
A1D
330
1A
100
AcDbEntity
  8
ZUWAKU
100
AcDbLine
 10
12.47110613756092
 20
4.975000179472523
 30
0.0
 11
13.4336061375609
 21
4.975000179472523
 31
0.0
  0
LINE
  5
A1E
330
1A
100
AcDbEntity
  8
ZUWAKU
100
AcDbLine
 10
13.4336061375609
 20
10.22500017947252
 30
0.0
 11
12.47110613756092
 21
10.22500017947252
 31
0.0
  0
LINE
  5
A1F
330
1A
100
AcDbEntity
  8
ZUWAKU
100
AcDbLine
 10
12.47110613756092
 20
11.6250001794725
 30
0.0
 11
13.4336061375609
 21
11.62500017947252
 31
0.0
  0
HATCH
  5
A20
330
1A
100
AcDbEntity
  8
ZUWAKU
100
AcDbHatch
 10
0.0
 20
0.0
 30
0.0
210
0.0
220
0.0
230
1.0
  2
ANSI37
 70
     0
 71
     0
 91
        8
 92
        7
 72
     1
 73
     1
 93
       24
 10
7.251131390730279
 20
8.822424419964313
 42
-0.1989123673796348
 10
7.046106137560911
 20
9.317399166794839
 42
0.0
 10
7.046106137560911
 20
9.962500179472527
 42
-0.4142135623730912
 10
7.3086061375609
 20
10.22500017947252
 42
0.0
 10
8.796106137560855
 20
10.22500017947252
 42
0.4142135623731546
 10
9.0586061375609
 20
10.48750017947251
 42
0.0
 10
9.0586061375609
 20
11.36250017947252
 42
0.4142135623731586
 10
8.796106137560855
 20
11.62500017947252
 42
0.0
 10
7.046106137560911
 20
11.62500017947252
 42
0.4142135623730928
 10
5.646106137560934
 20
10.22500017947253
 42
0.0
 10
5.646106137560934
 20
9.317399166794903
 42
0.1989123673796619
 10
6.26118189706915
 20
7.832474926303099
 42
0.0
 10
7.716080884391487
 20
6.37757593898077
 42
-0.1989123673796613
 10
7.921106137560911
 20
5.882601192150177
 42
0.0
 10
7.921106137560911
 20
5.237500179472519
 42
-0.4142135623730911
 10
7.658606137560923
 20
4.975000179472523
 42
0.0
 10
6.171106137560968
 20
4.975000179472523
 42
0.4142135623731526
 10
5.908606137560923
 20
4.712500179472529
 42
0.0
 10
5.908606137560923
 20
3.837500179472518
 42
0.4142135623731526
 10
6.171106137560968
 20
3.575000179472525
 42
0.0
 10
7.921106137560911
 20
3.575000179472525
 42
0.4142135623731044
 10
9.321106137560946
 20
4.975000179472512
 42
0.0
 10
9.321106137560946
 20
5.882601192150149
 42
0.1989123673796604
 10
8.706030378052673
 20
7.367525432641919
 42
0.0
 97
        0
 92
        7
 72
     1
 73
     1
 93
       16
 10
11.77110613756093
 20
9.525000179472527
 42
-0.4142135623730935
 10
12.47110613756092
 20
10.22500017947252
 42
0.0
 10
13.4336061375609
 20
10.22500017947252
 42
0.4142135623731546
 10
13.69610613756094
 20
10.48750017947251
 42
0.0
 10
13.69610613756094
 20
11.36250017947252
 42
0.4142135623730951
 10
13.43360613756095
 20
11.62500017947252
 42
0.0
 10
12.47110613756086
 20
11.6250001794725
 42
0.4142135623730892
 10
10.3711061375609
 20
9.525000179472492
 42
0.0
 10
10.3711061375609
 20
5.675000179472537
 42
0.4142135623730969
 10
12.47110613756092
 20
3.575000179472525
 42
0.0
 10
13.4336061375609
 20
3.575000179472525
 42
0.4142135623731526
 10
13.69610613756094
 20
3.837500179472518
 42
0.0
 10
13.69610613756094
 20
4.712500179472529
 42
0.4142135623730891
 10
13.43360613756095
 20
4.975000179472523
 42
0.0
 10
12.47110613756092
 20
4.975000179472523
 42
-0.4142135623730928
 10
11.77110613756093
 20
5.675000179472517
 42
0.0
 97
        0
 92
        7
 72
     1
 73
     1
 93
        2
 10
12.1211061375609
 20
7.600000179472523
 42
1.0
 10
13.8711061375609
 20
7.600000179472523
 42
1.0
 97
        0
 92
        7
 72
     1
 73
     1
 93
       26
 10
18.65742937864991
 20
9.602523776254237
 42
0.0
 10
19.18824919521881
 20
11.28345319538903
 42
0.5069206636600134
 10
18.93793374562113
 20
11.62500017947252
 42
0.0
 10
18.08848905581652
 20
11.62500017947252
 42
0.3272098845218764
 10
17.83817360621884
 20
11.441547163556
 42
0.0
 10
16.90403866890295
 20
8.483453195389063
 42
-0.3272098845219541
 10
16.65372321930522
 20
8.300000179472522
 42
0.0
 10
16.58360613756099
 20
8.300000179472522
 42
-0.4142135623731526
 10
16.32110613756094
 20
8.562500179472516
 42
0.0
 10
16.32110613756094
 20
11.36250017947252
 42
0.4142135623730951
 10
16.05860613756095
 20
11.62500017947252
 42
0.0
 10
15.1836061375609
 20
11.62500017947252
 42
0.4142135623730871
 10
14.92110613756091
 20
11.36250017947253
 42
0.0
 10
14.92110613756091
 20
3.837500179472518
 42
0.4142135623730891
 10
15.1836061375609
 20
3.575000179472525
 42
0.0
 10
16.0586061375609
 20
3.575000179472525
 42
0.4142135623731526
 10
16.32110613756094
 20
3.837500179472518
 42
0.0
 10
16.32110613756094
 20
6.63750017947253
 42
-0.4142135623731526
 10
16.58360613756099
 20
6.900000179472524
 42
0.0
 10
16.65372321930527
 20
6.900000179472524
 42
-0.3272098845218915
 10
16.90403866890295
 20
6.716547163555986
 42
0.0
 10
17.83817360621884
 20
3.75845319538906
 42
0.3272098845218902
 10
18.08848905581652
 20
3.575000179472525
 42
0.0
 10
18.93793374562113
 20
3.575000179472525
 42
0.5069206636600335
 10
19.18824919521881
 20
3.916547163556028
 42
0.0
 10
18.02505350598198
 20
7.600000179472592
 42
0.0
 97
        0
 92
        7
 72
     1
 73
     1
 93
        8
 10
21.7461061375609
 20
11.36250017947252
 42
0.4142135623731546
 10
21.48360613756085
 20
11.62500017947252
 42
0.0
 10
20.60860613756096
 20
11.62500017947252
 42
0.4142135623731507
 10
20.34610613756092
 20
11.36250017947253
 42
0.0
 10
20.34610613756092
 20
3.837500179472518
 42
0.4142135623731526
 10
20.60860613756096
 20
3.575000179472525
 42
0.0
 10
21.48360613756085
 20
3.575000179472525
 42
0.4142135623731526
 10
21.7461061375609
 20
3.837500179472518
 42
0.0
 97
        0
 92
        7
 72
     1
 73
     1
 93
       24
 10
24.19610613756094
 20
9.962500179472527
 42
-0.4142135623731546
 10
24.45860613756099
 20
10.22500017947252
 42
0.0
 10
25.94610613756094
 20
10.22500017947252
 42
0.4142135623730911
 10
26.20860613756093
 20
10.48750017947251
 42
0.0
 10
26.20860613756093
 20
11.36250017947252
 42
0.4142135623730952
 10
25.94610613756094
 20
11.62500017947252
 42
0.0
 10
24.19610613756094
 20
11.62500017947252
 42
0.4142135623731048
 10
22.79610613756091
 20
10.22500017947253
 42
0.0
 10
22.79610613756091
 20
9.317399166794903
 42
0.1989123673796613
 10
23.41118189706918
 20
7.832474926303127
 42
0.0
 10
24.86608088439152
 20
6.377575938980793
 42
-0.1989123673796402
 10
25.07110613756094
 20
5.882601192150257
 42
0.0
 10
25.07110613756094
 20
5.237500179472519
 42
-0.4142135623730911
 10
24.80860613756096
 20
4.975000179472523
 42
0.0
 10
23.32110613756094
 20
4.975000179472523
 42
0.4142135623731526
 10
23.05860613756089
 20
4.712500179472529
 42
0.0
 10
23.05860613756089
 20
3.837500179472518
 42
0.4142135623730891
 10
23.32110613756089
 20
3.575000179472525
 42
0.0
 10
25.07110613756094
 20
3.575000179472525
 42
0.4142135623730925
 10
26.47110613756092
 20
4.975000179472512
 42
0.0
 10
26.47110613756092
 20
5.882601192150149
 42
0.1989123673796675
 10
25.85603037805265
 20
7.367525432641976
 42
0.0
 10
24.40113139073037
 20
8.822424419964233
 42
-0.1989123673796652
 10
24.19610613756094
 20
9.317399166794817
 42
0.0
 97
        0
 92
        7
 72
     1
 73
     1
 93
       16
 10
28.92110613756091
 20
11.36250017947251
 42
0.414213562373103
 10
28.65860613756092
 20
11.62500017947252
 42
0.0
 10
27.78360613756092
 20
11.62500017947252
 42
0.4142135623730871
 10
27.52110613756093
 20
11.36250017947253
 42
0.0
 10
27.52110613756093
 20
4.975000179472512
 42
0.4142135623730926
 10
28.92110613756091
 20
3.575000179472525
 42
0.0
 10
30.67110613756091
 20
3.575000179472525
 42
0.4142135623731044
 10
32.07110613756094
 20
4.975000179472512
 42
0.0
 10
32.07110613756094
 20
11.36250017947252
 42
0.4142135623730951
 10
31.80860613756095
 20
11.62500017947252
 42
0.0
 10
30.9336061375609
 20
11.62500017947252
 42
0.4142135623730871
 10
30.67110613756091
 20
11.36250017947253
 42
0.0
 10
30.67110613756091
 20
5.500000179472511
 42
-0.414213562373088
 10
30.14610613756093
 20
4.975000179472523
 42
0.0
 10
29.44610613756094
 20
4.975000179472523
 42
-0.4142135623731197
 10
28.92110613756091
 20
5.500000179472511
 42
0.0
 97
        0
 92
        7
 72
     1
 73
     1
 93
        8
 10
34.52110613756093
 20
11.36250017947253
 42
0.4142135623730871
 10
34.25860613756094
 20
11.62500017947252
 42
0.0
 10
33.38360613756094
 20
11.62500017947252
 42
0.4142135623731507
 10
33.1211061375609
 20
11.36250017947253
 42
0.0
 10
33.1211061375609
 20
3.837500179472518
 42
0.4142135623730891
 10
33.38360613756089
 20
3.575000179472525
 42
0.0
 10
34.25860613756094
 20
3.575000179472525
 42
0.4142135623730891
 10
34.52110613756093
 20
3.837500179472518
 42
0.0
 97
        0
 75
     0
 76
     1
 52
0.0
 41
0.1
 77
     0
 78
     2
 53
45.0
 43
-450.4711521071691
 44
-6.599999820527443
 45
-0.2245064030267288
 46
0.2245064030267288
 79
     0
 53
135.0
 43
-450.4711521071691
 44
-6.599999820527443
 45
-0.2245064030267288
 46
-0.2245064030267288
 79
     0
 47
0.057451373970553
 98
        8
 10
8.039927541682004
 20
7.583587002415299
 10
11.20225756338993
 20
9.422031270698028
 10
12.58218400300018
 20
7.755941002507881
 10
15.45703005098892
 20
8.100649002693273
 10
20.91923606964872
 20
8.330455136464081
 10
23.44910050773512
 20
9.709288337676127
 10
28.27884304637052
 20
9.364579137020029
 10
33.91353986998172
 20
9.594385270790837
  0
ARC
  5
A21
330
1A
100
AcDbEntity
  8
ZUWAKU
100
AcDbCircle
 10
7.7461061375609
 20
9.317399166794874
 30
0.0
 40
2.099999999999999
100
AcDbArc
 50
180.0
 51
225.0
  0
LINE
  5
A22
330
1A
100
AcDbEntity
  8
ZUWAKU
100
AcDbLine
 10
10.3711061375609
 20
5.675000179472526
 30
0.0
 11
10.3711061375609
 21
9.525000179472502
 31
0.0
  0
LINE
  5
A23
330
1A
100
AcDbEntity
  8
ZUWAKU
100
AcDbLine
 10
11.77110613756093
 20
9.525000179472524
 30
0.0
 11
11.77110613756093
 21
5.675000179472526
 31
0.0
  0
ARC
  5
A24
330
1A
100
AcDbEntity
  8
ZUWAKU
100
AcDbCircle
 10
7.7461061375609
 20
9.317399166794874
 30
0.0
 40
0.7
100
AcDbArc
 50
180.0000000000016
 51
224.9999999999988
  0
ARC
  5
A25
330
1A
100
AcDbEntity
  8
ZUWAKU
100
AcDbCircle
 10
12.47110613756092
 20
5.675000179472526
 30
0.0
 40
2.099999999999999
100
AcDbArc
 50
180.0
 51
270.0
  0
ARC
  5
A26
330
1A
100
AcDbEntity
  8
ZUWAKU
100
AcDbCircle
 10
7.921106137560911
 20
4.975000179472523
 30
0.0
 40
1.399999999999999
100
AcDbArc
 50
270.0
 51
0.0
  0
ARC
  5
A27
330
1A
100
AcDbEntity
  8
ZUWAKU
100
AcDbCircle
 10
7.221106137560923
 20
5.882601192150175
 30
0.0
 40
2.099999999999999
100
AcDbArc
 50
0.0
 51
45.0
  0
LINE
  5
A28
330
1A
100
AcDbEntity
  8
ZUWAKU
100
AcDbLine
 10
6.26118189706915
 20
7.832474926303113
 30
0.0
 11
7.716080884391487
 21
6.377575938980783
 31
0.0
  0
LINE
  5
A29
330
1A
100
AcDbEntity
  8
ZUWAKU
100
AcDbLine
 10
6.171106137560911
 20
4.975000179472523
 30
0.0
 11
7.658606137560923
 21
4.975000179472523
 31
0.0
  0
LINE
  5
A2A
330
1A
100
AcDbEntity
  8
ZUWAKU
100
AcDbLine
 10
6.171106137560911
 20
3.575000179472525
 30
0.0
 11
7.921106137560911
 21
3.575000179472525
 31
0.0
  0
ARC
  5
A2B
330
1A
100
AcDbEntity
  8
ZUWAKU
100
AcDbCircle
 10
6.171106137560911
 20
4.712500179472524
 30
0.0
 40
0.2625
100
AcDbArc
 50
90.0
 51
180.0
  0
ARC
  5
A2C
330
1A
100
AcDbEntity
  8
ZUWAKU
100
AcDbCircle
 10
6.171106137560911
 20
3.837500179472524
 30
0.0
 40
0.2625
100
AcDbArc
 50
180.0
 51
270.0
  0
LINE
  5
A2D
330
1A
100
AcDbEntity
  8
ZUWAKU
100
AcDbLine
 10
5.908606137560923
 20
3.837500179472524
 30
0.0
 11
5.908606137560923
 21
4.712500179472524
 31
0.0
  0
ARC
  5
A2E
330
1A
100
AcDbEntity
  8
ZUWAKU
100
AcDbCircle
 10
7.221106137560923
 20
5.882601192150197
 30
0.0
 40
0.7
100
AcDbArc
 50
0.0
 51
45.0
  0
ARC
  5
A2F
330
1A
100
AcDbEntity
  8
ZUWAKU
100
AcDbCircle
 10
7.658606137560923
 20
5.237500179472526
 30
0.0
 40
0.2625
100
AcDbArc
 50
270.0
 51
0.0
  0
LINE
  5
A30
330
1A
100
AcDbEntity
  8
ZUWAKU
100
AcDbLine
 10
7.921106137560911
 20
5.237500179472526
 30
0.0
 11
7.921106137560911
 21
5.882601192150197
 31
0.0
  0
LINE
  5
A31
330
1A
100
AcDbEntity
  8
ZUWAKU
100
AcDbLine
 10
8.706030378052673
 20
7.367525432641937
 30
0.0
 11
7.251131390730336
 21
8.822424419964274
 31
0.0
  0
ARC
  5
A32
330
1A
100
AcDbEntity
  8
ZUWAKU
100
AcDbCircle
 10
12.47110613756092
 20
5.675000179472526
 30
0.0
 40
0.7
100
AcDbArc
 50
180.0
 51
270.0
  0
LINE
  5
A33
330
1A
100
AcDbEntity
  8
ZUWAKU
100
AcDbLine
 10
9.321106137560946
 20
4.975000179472523
 30
0.0
 11
9.321106137560946
 21
5.882601192150197
 31
0.0
  0
ARC
  5
A34
330
1A
100
AcDbEntity
  8
ZUWAKU
100
AcDbCircle
 10
8.796106137560911
 20
10.48750017947252
 30
0.0
 40
0.2625
100
AcDbArc
 50
270.0
 51
0.0
  0
ARC
  5
A35
330
1A
100
AcDbEntity
  8
ZUWAKU
100
AcDbCircle
 10
8.796106137560911
 20
11.36250017947252
 30
0.0
 40
0.2625
100
AcDbArc
 50
0.0
 51
90.0
  0
ARC
  5
A36
330
1A
100
AcDbEntity
  8
ZUWAKU
100
AcDbCircle
 10
7.046106137560911
 20
10.22500017947252
 30
0.0
 40
1.399999999999999
100
AcDbArc
 50
90.0
 51
180.0
  0
LINE
  5
A37
330
1A
100
AcDbEntity
  8
ZUWAKU
100
AcDbLine
 10
5.646106137560934
 20
10.22500017947252
 30
0.0
 11
5.646106137560934
 21
9.317399166794853
 31
0.0
  0
LINE
  5
A38
330
1A
100
AcDbEntity
  8
ZUWAKU
100
AcDbLine
 10
8.796106137560911
 20
10.22500017947252
 30
0.0
 11
7.3086061375609
 21
10.22500017947252
 31
0.0
  0
LINE
  5
A39
330
1A
100
AcDbEntity
  8
ZUWAKU
100
AcDbLine
 10
7.046106137560911
 20
9.962500179472524
 30
0.0
 11
7.046106137560911
 21
9.317399166794853
 31
0.0
  0
ARC
  5
A3A
330
1A
100
AcDbEntity
  8
ZUWAKU
100
AcDbCircle
 10
7.3086061375609
 20
9.962500179472524
 30
0.0
 40
0.2625
100
AcDbArc
 50
90.0
 51
180.0
  0
LINE
  5
A3B
330
1A
100
AcDbEntity
  8
ZUWAKU
100
AcDbLine
 10
7.046106137560911
 20
11.62500017947252
 30
0.0
 11
8.796106137560911
 21
11.62500017947252
 31
0.0
  0
ARC
  5
A3C
330
1A
100
AcDbEntity
  8
ZUWAKU
100
AcDbCircle
 10
12.47110613756092
 20
9.525000179472502
 30
0.0
 40
2.099999999999999
100
AcDbArc
 50
90.0
 51
180.0
  0
ARC
  5
A3D
330
1A
100
AcDbEntity
  8
ZUWAKU
100
AcDbCircle
 10
12.47110613756092
 20
9.525000179472524
 30
0.0
 40
0.7
100
AcDbArc
 50
90.0
 51
180.0
  0
LINE
  5
A3E
330
1A
100
AcDbEntity
  8
ZUWAKU
100
AcDbLine
 10
9.0586061375609
 20
11.36250017947252
 30
0.0
 11
9.0586061375609
 21
10.48750017947252
 31
0.0
  0
TEXT
  5
A3F
330
1A
100
AcDbEntity
  8
MOJI
100
AcDbText
 10
46.47889485425491
 20
6.370589244609902
 30
0.0
 40
3.0
  1
ライナートップ
 41
0.9
  7
ｽﾀｲﾙ1
100
AcDbText
  0
LINE
  5
A40
330
1A
100
AcDbEntity
  8
ZUWAKU
100
AcDbLine
 10
17.83817360621884
 20
11.441547163556
 30
0.0
 11
16.90403866890295
 21
8.483453195389039
 31
0.0
  0
LINE
  5
A41
330
1A
100
AcDbEntity
  8
ZUWAKU
100
AcDbLine
 10
14.92110613756091
 20
11.36250017947252
 30
0.0
 11
14.92110613756091
 21
3.837500179472524
 31
0.0
  0
LINE
  5
A42
330
1A
100
AcDbEntity
  8
ZUWAKU
100
AcDbLine
 10
16.32110613756094
 20
8.562500179472525
 30
0.0
 11
16.32110613756094
 21
11.36250017947252
 31
0.0
  0
LINE
  5
A43
330
1A
100
AcDbEntity
  8
ZUWAKU
100
AcDbLine
 10
28.92110613756091
 20
5.500000179472522
 30
0.0
 11
28.92110613756091
 21
11.36250017947252
 31
0.0
  0
LINE
  5
A44
330
1A
100
AcDbEntity
  8
ZUWAKU
100
AcDbLine
 10
27.52110613756093
 20
11.36250017947252
 30
0.0
 11
27.52110613756093
 21
4.975000179472523
 31
0.0
  0
LINE
  5
A45
330
1A
100
AcDbEntity
  8
ZUWAKU
100
AcDbLine
 10
21.7461061375609
 20
3.837500179472524
 30
0.0
 11
21.7461061375609
 21
11.36250017947252
 31
0.0
  0
LINE
  5
A46
330
1A
100
AcDbEntity
  8
ZUWAKU
100
AcDbLine
 10
20.34610613756092
 20
11.36250017947252
 30
0.0
 11
20.34610613756092
 21
3.837500179472524
 31
0.0
  0
LINE
  5
A47
330
1A
100
AcDbEntity
  8
ZUWAKU
100
AcDbLine
 10
18.65742937864991
 20
9.602523776254237
 30
0.0
 11
18.02505350598198
 21
7.600000179472534
 31
0.0
  0
ARC
  5
A48
330
1A
100
AcDbEntity
  8
ZUWAKU
100
AcDbCircle
 10
24.89610613756093
 20
9.317399166794874
 30
0.0
 40
2.099999999999999
100
AcDbArc
 50
180.0
 51
225.0
  0
ARC
  5
A49
330
1A
100
AcDbEntity
  8
ZUWAKU
100
AcDbCircle
 10
24.89610613756093
 20
9.317399166794874
 30
0.0
 40
0.7
100
AcDbArc
 50
180.0000000000016
 51
224.9999999999988
  0
LINE
  5
A4A
330
1A
100
AcDbEntity
  8
ZUWAKU
100
AcDbLine
 10
33.1211061375609
 20
11.36250017947252
 30
0.0
 11
33.1211061375609
 21
3.837500179472524
 31
0.0
  0
LINE
  5
A4B
330
1A
100
AcDbEntity
  8
ZUWAKU
100
AcDbLine
 10
34.52110613756093
 20
3.837500179472524
 30
0.0
 11
34.52110613756093
 21
11.36250017947252
 31
0.0
  0
LINE
  5
A4C
330
1A
100
AcDbEntity
  8
ZUWAKU
100
AcDbLine
 10
30.67110613756091
 20
11.36250017947252
 30
0.0
 11
30.67110613756091
 21
5.500000179472522
 31
0.0
  0
LINE
  5
A4D
330
1A
100
AcDbEntity
  8
ZUWAKU
100
AcDbLine
 10
32.07110613756094
 20
4.975000179472523
 30
0.0
 11
32.07110613756094
 21
11.36250017947252
 31
0.0
  0
LINE
  5
A4E
330
1A
100
AcDbEntity
  8
ZUWAKU
100
AcDbLine
 10
39.56331483416454
 20
15.00000017947252
 30
0.0
 11
39.56331483416454
 21
0.4000001794725563
 31
0.0
  0
LINE
  5
A4F
330
1A
100
AcDbEntity
  8
ZUWAKU
100
AcDbLine
 10
39.76331483416447
 20
15.00000017947252
 30
0.0
 11
39.76331483416458
 21
0.4000001794725563
 31
0.0
  0
LINE
  5
A50
330
1A
100
AcDbEntity
  8
ZUWAKU
100
AcDbLine
 10
39.66331483416445
 20
15.00000017947252
 30
0.0
 11
39.66331483416457
 21
0.4000001794725563
 31
0.0
  0
LINE
  5
A51
330
1A
100
AcDbEntity
  8
ZUWAKU
100
AcDbLine
 10
28.92110613756091
 20
3.575000179472525
 30
0.0
 11
30.67110613756091
 21
3.575000179472525
 31
0.0
  0
LINE
  5
A52
330
1A
100
AcDbEntity
  8
ZUWAKU
100
AcDbLine
 10
30.14610613756093
 20
4.975000179472523
 30
0.0
 11
29.44610613756094
 21
4.975000179472523
 31
0.0
  0
LINE
  5
A53
330
1A
100
AcDbEntity
  8
ZUWAKU
100
AcDbLine
 10
20.60860613756091
 20
3.575000179472525
 30
0.0
 11
21.48360613756091
 21
3.575000179472525
 31
0.0
  0
LINE
  5
A54
330
1A
100
AcDbEntity
  8
ZUWAKU
100
AcDbLine
 10
17.83817360621884
 20
3.758453195389037
 30
0.0
 11
16.90403866890295
 21
6.716547163556008
 31
0.0
  0
ARC
  5
A55
330
1A
100
AcDbEntity
  8
ZUWAKU
100
AcDbCircle
 10
16.58360613756093
 20
6.637500179472525
 30
0.0
 40
0.2625
100
AcDbArc
 50
90.0
 51
180.0
  0
ARC
  5
A56
330
1A
100
AcDbEntity
  8
ZUWAKU
100
AcDbCircle
 10
16.65372321930527
 20
6.637500179472525
 30
0.0
 40
0.2625
100
AcDbArc
 50
17.52556837372303
 51
90.0
  0
ARC
  5
A57
330
1A
100
AcDbEntity
  8
ZUWAKU
100
AcDbCircle
 10
15.1836061375609
 20
3.837500179472524
 30
0.0
 40
0.2625
100
AcDbArc
 50
180.0
 51
270.0
  0
ARC
  5
A58
330
1A
100
AcDbEntity
  8
ZUWAKU
100
AcDbCircle
 10
13.4336061375609
 20
4.712500179472524
 30
0.0
 40
0.2625
100
AcDbArc
 50
0.0
 51
90.0
  0
ARC
  5
A59
330
1A
100
AcDbEntity
  8
ZUWAKU
100
AcDbCircle
 10
13.4336061375609
 20
3.837500179472524
 30
0.0
 40
0.2625
100
AcDbArc
 50
270.0
 51
0.0
  0
LINE
  5
A5A
330
1A
100
AcDbEntity
  8
ZUWAKU
100
AcDbLine
 10
13.69610613756094
 20
4.712500179472524
 30
0.0
 11
13.69610613756094
 21
3.837500179472524
 31
0.0
  0
LINE
  5
A5B
330
1A
100
AcDbEntity
  8
ZUWAKU
100
AcDbLine
 10
16.32110613756094
 20
3.837500179472524
 30
0.0
 11
16.32110613756094
 21
6.637500179472525
 31
0.0
  0
ARC
  5
A5C
330
1A
100
AcDbEntity
  8
ZUWAKU
100
AcDbCircle
 10
16.0586061375609
 20
3.837500179472524
 30
0.0
 40
0.2625
100
AcDbArc
 50
270.0
 51
0.0
  0
LINE
  5
A5D
330
1A
100
AcDbEntity
  8
ZUWAKU
100
AcDbLine
 10
15.1836061375609
 20
3.575000179472525
 30
0.0
 11
16.0586061375609
 21
3.575000179472525
 31
0.0
  0
ARC
  5
A5E
330
1A
100
AcDbEntity
  8
ZUWAKU
100
AcDbCircle
 10
16.58360613756093
 20
8.562500179472525
 30
0.0
 40
0.2625
100
AcDbArc
 50
180.0
 51
270.0
  0
LINE
  5
A5F
330
1A
100
AcDbEntity
  8
ZUWAKU
100
AcDbLine
 10
16.58360613756093
 20
6.900000179472524
 30
0.0
 11
16.65372321930527
 21
6.900000179472524
 31
0.0
  0
LINE
  5
A60
330
1A
100
AcDbEntity
  8
ZUWAKU
100
AcDbLine
 10
16.65372321930527
 20
8.300000179472522
 30
0.0
 11
16.58360613756093
 21
8.300000179472522
 31
0.0
  0
ARC
  5
A61
330
1A
100
AcDbEntity
  8
ZUWAKU
100
AcDbCircle
 10
16.65372321930527
 20
8.562500179472525
 30
0.0
 40
0.2625
100
AcDbArc
 50
270.0
 51
342.4744316262769
  0
ARC
  5
A62
330
1A
100
AcDbEntity
  8
ZUWAKU
100
AcDbCircle
 10
18.08848905581658
 20
3.837500179472524
 30
0.0
 40
0.2625
100
AcDbArc
 50
197.525568373723
 51
270.0
  0
LINE
  5
A63
330
1A
100
AcDbEntity
  8
ZUWAKU
100
AcDbLine
 10
19.18824919521881
 20
3.91654716355601
 30
0.0
 11
18.02505350598198
 21
7.600000179472534
 31
0.0
  0
ARC
  5
A64
330
1A
100
AcDbEntity
  8
ZUWAKU
100
AcDbCircle
 10
18.93793374562108
 20
3.837500179472524
 30
0.0
 40
0.2625
100
AcDbArc
 50
270.0
 51
17.52556837372303
  0
LINE
  5
A65
330
1A
100
AcDbEntity
  8
ZUWAKU
100
AcDbLine
 10
18.08848905581658
 20
3.575000179472525
 30
0.0
 11
18.93793374562108
 21
3.575000179472525
 31
0.0
  0
ARC
  5
A66
330
1A
100
AcDbEntity
  8
ZUWAKU
100
AcDbCircle
 10
20.60860613756091
 20
3.837500179472524
 30
0.0
 40
0.2625
100
AcDbArc
 50
180.0
 51
270.0
  0
ARC
  5
A67
330
1A
100
AcDbEntity
  8
ZUWAKU
100
AcDbCircle
 10
25.07110613756094
 20
4.975000179472523
 30
0.0
 40
1.399999999999999
100
AcDbArc
 50
270.0
 51
0.0
  0
ARC
  5
A68
330
1A
100
AcDbEntity
  8
ZUWAKU
100
AcDbCircle
 10
28.92110613756091
 20
4.975000179472523
 30
0.0
 40
1.399999999999999
100
AcDbArc
 50
180.0
 51
270.0
  0
LINE
  5
A69
330
1A
100
AcDbEntity
  8
ZUWAKU
100
AcDbLine
 10
25.8560303780527
 20
7.367525432641937
 30
0.0
 11
24.40113139073031
 21
8.822424419964274
 31
0.0
  0
LINE
  5
A6A
330
1A
100
AcDbEntity
  8
ZUWAKU
100
AcDbLine
 10
23.41118189706918
 20
7.832474926303113
 30
0.0
 11
24.86608088439152
 21
6.377575938980783
 31
0.0
  0
LINE
  5
A6B
330
1A
100
AcDbEntity
  8
ZUWAKU
100
AcDbLine
 10
23.32110613756094
 20
3.575000179472525
 30
0.0
 11
25.07110613756094
 21
3.575000179472525
 31
0.0
  0
LINE
  5
A6C
330
1A
100
AcDbEntity
  8
ZUWAKU
100
AcDbLine
 10
23.32110613756094
 20
4.975000179472523
 30
0.0
 11
24.8086061375609
 21
4.975000179472523
 31
0.0
  0
ARC
  5
A6D
330
1A
100
AcDbEntity
  8
ZUWAKU
100
AcDbCircle
 10
23.32110613756094
 20
4.712500179472524
 30
0.0
 40
0.2625
100
AcDbArc
 50
90.0
 51
180.0
  0
ARC
  5
A6E
330
1A
100
AcDbEntity
  8
ZUWAKU
100
AcDbCircle
 10
21.48360613756091
 20
3.837500179472524
 30
0.0
 40
0.2625
100
AcDbArc
 50
270.0
 51
0.0
  0
ARC
  5
A6F
330
1A
100
AcDbEntity
  8
ZUWAKU
100
AcDbCircle
 10
23.32110613756094
 20
3.837500179472524
 30
0.0
 40
0.2625
100
AcDbArc
 50
180.0
 51
270.0
  0
LINE
  5
A70
330
1A
100
AcDbEntity
  8
ZUWAKU
100
AcDbLine
 10
23.05860613756089
 20
3.837500179472524
 30
0.0
 11
23.05860613756089
 21
4.712500179472524
 31
0.0
  0
ARC
  5
A71
330
1A
100
AcDbEntity
  8
ZUWAKU
100
AcDbCircle
 10
24.8086061375609
 20
5.237500179472526
 30
0.0
 40
0.2625
100
AcDbArc
 50
270.0
 51
0.0
  0
ARC
  5
A72
330
1A
100
AcDbEntity
  8
ZUWAKU
100
AcDbCircle
 10
24.3711061375609
 20
5.882601192150197
 30
0.0
 40
0.7
100
AcDbArc
 50
0.0
 51
45.0
  0
LINE
  5
A73
330
1A
100
AcDbEntity
  8
ZUWAKU
100
AcDbLine
 10
25.07110613756094
 20
5.237500179472526
 30
0.0
 11
25.07110613756094
 21
5.882601192150197
 31
0.0
  0
ARC
  5
A74
330
1A
100
AcDbEntity
  8
ZUWAKU
100
AcDbCircle
 10
29.44610613756094
 20
5.500000179472522
 30
0.0
 40
0.525
100
AcDbArc
 50
180.0
 51
270.0
  0
ARC
  5
A75
330
1A
100
AcDbEntity
  8
ZUWAKU
100
AcDbCircle
 10
24.3711061375609
 20
5.882601192150175
 30
0.0
 40
2.099999999999999
100
AcDbArc
 50
0.0
 51
45.0
  0
LINE
  5
A76
330
1A
100
AcDbEntity
  8
ZUWAKU
100
AcDbLine
 10
26.47110613756092
 20
4.975000179472523
 30
0.0
 11
26.47110613756092
 21
5.882601192150197
 31
0.0
  0
ARC
  5
A77
330
1A
100
AcDbEntity
  8
ZUWAKU
100
AcDbCircle
 10
30.67110613756091
 20
4.975000179472523
 30
0.0
 40
1.399999999999999
100
AcDbArc
 50
270.0
 51
0.0
  0
LINE
  5
A78
330
1A
100
AcDbEntity
  8
ZUWAKU
100
AcDbLine
 10
33.38360613756094
 20
3.575000179472525
 30
0.0
 11
34.25860613756094
 21
3.575000179472525
 31
0.0
  0
ARC
  5
A79
330
1A
100
AcDbEntity
  8
ZUWAKU
100
AcDbCircle
 10
30.14610613756093
 20
5.500000179472522
 30
0.0
 40
0.525
100
AcDbArc
 50
270.0
 51
0.0
  0
ARC
  5
A7A
330
1A
100
AcDbEntity
  8
ZUWAKU
100
AcDbCircle
 10
33.38360613756094
 20
3.837500179472524
 30
0.0
 40
0.2625
100
AcDbArc
 50
180.0
 51
270.0
  0
ARC
  5
A7B
330
1A
100
AcDbEntity
  8
ZUWAKU
100
AcDbCircle
 10
34.25860613756094
 20
3.837500179472524
 30
0.0
 40
0.2625
100
AcDbArc
 50
270.0
 51
0.0
  0
LINE
  5
A7C
330
1A
100
AcDbEntity
  8
ZUWAKU
100
AcDbLine
 10
21.48360613756091
 20
11.62500017947252
 30
0.0
 11
20.60860613756091
 21
11.62500017947252
 31
0.0
  0
LINE
  5
A7D
330
1A
100
AcDbEntity
  8
ZUWAKU
100
AcDbLine
 10
13.69610613756094
 20
11.36250017947252
 30
0.0
 11
13.69610613756094
 21
10.48750017947252
 31
0.0
  0
ARC
  5
A7E
330
1A
100
AcDbEntity
  8
ZUWAKU
100
AcDbCircle
 10
13.4336061375609
 20
10.48750017947252
 30
0.0
 40
0.2625
100
AcDbArc
 50
270.0
 51
0.0
  0
ARC
  5
A7F
330
1A
100
AcDbEntity
  8
ZUWAKU
100
AcDbCircle
 10
15.1836061375609
 20
11.36250017947252
 30
0.0
 40
0.2625
100
AcDbArc
 50
90.0
 51
180.0
  0
ARC
  5
A80
330
1A
100
AcDbEntity
  8
ZUWAKU
100
AcDbCircle
 10
13.4336061375609
 20
11.36250017947252
 30
0.0
 40
0.2625
100
AcDbArc
 50
0.0
 51
90.0
  0
LINE
  5
A81
330
1A
100
AcDbEntity
  8
ZUWAKU
100
AcDbLine
 10
16.0586061375609
 20
11.62500017947252
 30
0.0
 11
15.1836061375609
 21
11.62500017947252
 31
0.0
  0
ARC
  5
A82
330
1A
100
AcDbEntity
  8
ZUWAKU
100
AcDbCircle
 10
16.0586061375609
 20
11.36250017947252
 30
0.0
 40
0.2625
100
AcDbArc
 50
0.0
 51
90.0
  0
ARC
  5
A83
330
1A
100
AcDbEntity
  8
ZUWAKU
100
AcDbCircle
 10
18.08848905581658
 20
11.36250017947252
 30
0.0
 40
0.2625
100
AcDbArc
 50
90.0
 51
162.4744316262769
  0
LINE
  5
A84
330
1A
100
AcDbEntity
  8
ZUWAKU
100
AcDbLine
 10
19.18824919521881
 20
11.28345319538903
 30
0.0
 11
18.65742937864991
 21
9.602523776254237
 31
0.0
  0
ARC
  5
A85
330
1A
100
AcDbEntity
  8
ZUWAKU
100
AcDbCircle
 10
18.93793374562108
 20
11.36250017947252
 30
0.0
 40
0.2625
100
AcDbArc
 50
342.4744316262769
 51
90.0
  0
LINE
  5
A86
330
1A
100
AcDbEntity
  8
ZUWAKU
100
AcDbLine
 10
18.08848905581658
 20
11.62500017947252
 30
0.0
 11
18.93793374562108
 21
11.62500017947252
 31
0.0
  0
ARC
  5
A87
330
1A
100
AcDbEntity
  8
ZUWAKU
100
AcDbCircle
 10
20.60860613756091
 20
11.36250017947252
 30
0.0
 40
0.2625
100
AcDbArc
 50
90.0
 51
180.0
  0
LINE
  5
A88
330
1A
100
AcDbEntity
  8
ZUWAKU
100
AcDbLine
 10
25.94610613756094
 20
10.22500017947252
 30
0.0
 11
24.45860613756093
 21
10.22500017947252
 31
0.0
  0
LINE
  5
A89
330
1A
100
AcDbEntity
  8
ZUWAKU
100
AcDbLine
 10
24.19610613756094
 20
11.62500017947252
 30
0.0
 11
25.94610613756094
 21
11.62500017947252
 31
0.0
  0
ARC
  5
A8A
330
1A
100
AcDbEntity
  8
ZUWAKU
100
AcDbCircle
 10
24.19610613756094
 20
10.22500017947252
 30
0.0
 40
1.399999999999999
100
AcDbArc
 50
90.0
 51
180.0
  0
LINE
  5
A8B
330
1A
100
AcDbEntity
  8
ZUWAKU
100
AcDbLine
 10
22.79610613756091
 20
10.22500017947252
 30
0.0
 11
22.79610613756091
 21
9.317399166794853
 31
0.0
  0
ARC
  5
A8C
330
1A
100
AcDbEntity
  8
ZUWAKU
100
AcDbCircle
 10
21.48360613756091
 20
11.36250017947252
 30
0.0
 40
0.2625
100
AcDbArc
 50
0.0
 51
90.0
  0
LINE
  5
A8D
330
1A
100
AcDbEntity
  8
ZUWAKU
100
AcDbLine
 10
24.19610613756094
 20
9.962500179472524
 30
0.0
 11
24.19610613756094
 21
9.317399166794853
 31
0.0
  0
ARC
  5
A8E
330
1A
100
AcDbEntity
  8
ZUWAKU
100
AcDbCircle
 10
24.45860613756093
 20
9.962500179472524
 30
0.0
 40
0.2625
100
AcDbArc
 50
90.0
 51
180.0
  0
LINE
  5
A8F
330
1A
100
AcDbEntity
  8
ZUWAKU
100
AcDbLine
 10
26.20860613756093
 20
11.36250017947252
 30
0.0
 11
26.20860613756093
 21
10.48750017947252
 31
0.0
  0
ARC
  5
A90
330
1A
100
AcDbEntity
  8
ZUWAKU
100
AcDbCircle
 10
25.94610613756094
 20
10.48750017947252
 30
0.0
 40
0.2625
100
AcDbArc
 50
270.0
 51
0.0
  0
ARC
  5
A91
330
1A
100
AcDbEntity
  8
ZUWAKU
100
AcDbCircle
 10
25.94610613756094
 20
11.36250017947252
 30
0.0
 40
0.2625
100
AcDbArc
 50
0.0
 51
90.0
  0
LINE
  5
A92
330
1A
100
AcDbEntity
  8
ZUWAKU
100
AcDbLine
 10
28.65860613756092
 20
11.62500017947252
 30
0.0
 11
27.78360613756092
 21
11.62500017947252
 31
0.0
  0
ARC
  5
A93
330
1A
100
AcDbEntity
  8
ZUWAKU
100
AcDbCircle
 10
27.78360613756092
 20
11.36250017947252
 30
0.0
 40
0.2625
100
AcDbArc
 50
90.0
 51
180.0
  0
ARC
  5
A94
330
1A
100
AcDbEntity
  8
ZUWAKU
100
AcDbCircle
 10
28.65860613756092
 20
11.36250017947252
 30
0.0
 40
0.2625
100
AcDbArc
 50
0.0
 51
90.0
  0
LINE
  5
A95
330
1A
100
AcDbEntity
  8
ZUWAKU
100
AcDbLine
 10
34.25860613756094
 20
11.62500017947252
 30
0.0
 11
33.38360613756094
 21
11.62500017947252
 31
0.0
  0
ARC
  5
A96
330
1A
100
AcDbEntity
  8
ZUWAKU
100
AcDbCircle
 10
30.9336061375609
 20
11.36250017947252
 30
0.0
 40
0.2625
100
AcDbArc
 50
90.0
 51
180.0
  0
LINE
  5
A97
330
1A
100
AcDbEntity
  8
ZUWAKU
100
AcDbLine
 10
31.8086061375609
 20
11.62500017947252
 30
0.0
 11
30.9336061375609
 21
11.62500017947252
 31
0.0
  0
ARC
  5
A98
330
1A
100
AcDbEntity
  8
ZUWAKU
100
AcDbCircle
 10
31.8086061375609
 20
11.36250017947252
 30
0.0
 40
0.2625
100
AcDbArc
 50
0.0
 51
90.0
  0
ARC
  5
A99
330
1A
100
AcDbEntity
  8
ZUWAKU
100
AcDbCircle
 10
33.38360613756094
 20
11.36250017947252
 30
0.0
 40
0.2625
100
AcDbArc
 50
90.0
 51
180.0
  0
ARC
  5
A9A
330
1A
100
AcDbEntity
  8
ZUWAKU
100
AcDbCircle
 10
34.25860613756094
 20
11.36250017947252
 30
0.0
 40
0.2625
100
AcDbArc
 50
0.0
 51
90.0
  0
TEXT
  5
A9B
330
1A
100
AcDbEntity
  8
MOJI
100
AcDbText
 10
119.9136014005959
 20
1.602460708176232
 30
0.0
 40
2.799999999999999
  1
Ｘ７０Ｕ－０－２０
 41
0.9
  7
ｽﾀｲﾙ1
100
AcDbText
  0
TEXT
  5
A9C
330
1A
100
AcDbEntity
  8
MOJI
100
AcDbText
 10
119.9136014005959
 20
9.002460708176215
 30
0.0
 40
2.799999999999999
  1
ステンレス金具正面打（吊）固定式（内吊り）
 41
0.9
  7
ｽﾀｲﾙ1
100
AcDbText
  0
LINE
  5
A9D
330
1A
100
AcDbEntity
  8
ZUWAKU
100
AcDbLine
 10
104.2233007052042
 20
15.00000017947252
 30
0.0
 11
104.2233007052043
 21
0.4000001794725563
 31
0.0
  0
LINE
  5
A9E
330
1A
100
AcDbEntity
  8
ZUWAKU
100
AcDbLine
 10
104.3233007052042
 20
15.00000017947252
 30
0.0
 11
104.3233007052043
 21
0.4000001794725563
 31
0.0
  0
LINE
  5
A9F
330
1A
100
AcDbEntity
  8
ZUWAKU
100
AcDbLine
 10
104.1233007052043
 20
15.00000017947252
 30
0.0
 11
104.1233007052043
 21
0.4000001794725563
 31
0.0
  0
TEXT
  5
AA0
330
1A
100
AcDbEntity
  8
ZUWAKU
100
AcDbText
 10
104.8620232163091
 20
4.827678448665331
 30
0.0
 40
2.0
  1
サイズ
 41
0.9
  7
ｽﾀｲﾙ1
100
AcDbText
  0
TEXT
  5
AA1
330
1A
100
AcDbEntity
  8
ZUWAKU
100
AcDbText
 10
104.862023216309
 20
12.02767844866531
 30
0.0
 40
2.0
  1
品名
 41
0.9
  7
ｽﾀｲﾙ1
100
AcDbText
  0
TEXT
  5
AA2
330
1A
100
AcDbEntity
  8
ZUWAKU
100
AcDbText
 10
329.1019689038215
 20
9.002460708176215
 30
0.0
 40
2.799999999999999
  1
　　．　　．　　
 41
0.9
  7
ｽﾀｲﾙ1
100
AcDbText
  0
LINE
  5
AA3
330
1A
100
AcDbEntity
  8
ZUWAKU
100
AcDbLine
 10
324.4086013152724
 20
7.800000179472538
 30
0.0
 11
348.624505334441
 21
7.800000179472538
 31
0.0
  0
LINE
  5
AA4
330
1A
100
AcDbEntity
  8
ZUWAKU
100
AcDbLine
 10
324.4086013152725
 20
7.700000179472541
 30
0.0
 11
348.624505334441
 21
7.700000179472539
 31
0.0
  0
LINE
  5
AA5
330
1A
100
AcDbEntity
  8
ZUWAKU
100
AcDbLine
 10
324.4086013152724
 20
7.600000179472537
 30
0.0
 11
348.624505334441
 21
7.600000179472539
 31
0.0
  0
LINE
  5
AA6
330
1A
100
AcDbEntity
  8
ZUWAKU
100
AcDbLine
 10
252.5995898092407
 20
7.800000179472538
 30
0.0
 11
276.2634779432265
 21
7.800000179472538
 31
0.0
  0
LINE
  5
AA7
330
1A
100
AcDbEntity
  8
ZUWAKU
100
AcDbLine
 10
252.5995898092407
 20
7.700000179472539
 30
0.0
 11
276.2634779432265
 21
7.700000179472539
 31
0.0
  0
LINE
  5
AA8
330
1A
100
AcDbEntity
  8
ZUWAKU
100
AcDbLine
 10
252.5995898092407
 20
7.600000179472541
 30
0.0
 11
276.2634779432265
 21
7.600000179472541
 31
0.0
  0
LINE
  5
AA9
330
1A
100
AcDbEntity
  8
ZUWAKU
100
AcDbLine
 10
252.3995898092408
 20
15.00000017947252
 30
0.0
 11
252.3995898092408
 21
0.4000001794725563
 31
0.0
  0
LINE
  5
AAA
330
1A
100
AcDbEntity
  8
ZUWAKU
100
AcDbLine
 10
252.5995898092407
 20
15.00000017947252
 30
0.0
 11
252.5995898092409
 21
0.4000001794725563
 31
0.0
  0
LINE
  5
AAB
330
1A
100
AcDbEntity
  8
ZUWAKU
100
AcDbLine
 10
252.4995898092407
 20
15.00000017947252
 30
0.0
 11
252.4995898092408
 21
0.4000001794725563
 31
0.0
  0
TEXT
  5
AAC
330
1A
100
AcDbEntity
  8
MOJI
100
AcDbText
 10
264.0204540463268
 20
9.002460708176215
 30
0.0
 40
2.799999999999999
  1
Ａ３
 41
0.9
  7
ｽﾀｲﾙ1
100
AcDbText
  0
LINE
  5
AAD
330
1A
100
AcDbEntity
  8
ZUWAKU
100
AcDbLine
 10
223.712182045666
 20
15.00000017947252
 30
0.0
 11
223.712182045666
 21
0.4000001794725563
 31
0.0
  0
LINE
  5
AAE
330
1A
100
AcDbEntity
  8
ZUWAKU
100
AcDbLine
 10
223.9121820456659
 20
15.00000017947252
 30
0.0
 11
223.9121820456661
 21
0.4000001794725563
 31
0.0
  0
LINE
  5
AAF
330
1A
100
AcDbEntity
  8
ZUWAKU
100
AcDbLine
 10
223.8121820456659
 20
15.00000017947252
 30
0.0
 11
223.812182045666
 21
0.4000001794725563
 31
0.0
  0
TEXT
  5
AB0
330
1A
100
AcDbEntity
  8
MOJI
100
AcDbText
 10
231.2836392211646
 20
5.971309040302514
 30
0.0
 40
2.799999999999999
  1
ＬＦ６７Ｇ
 41
0.9
  7
ｽﾀｲﾙ1
100
AcDbText
  0
TEXT
  5
AB1
330
1A
100
AcDbEntity
  8
ZUWAKU
100
AcDbText
 10
253.3383123203457
 20
4.827678448665331
 30
0.0
 40
2.0
  1
縮尺
 41
0.9
  7
ｽﾀｲﾙ1
100
AcDbText
  0
TEXT
  5
AB2
330
1A
100
AcDbEntity
  8
MOJI
100
AcDbText
 10
264.0204540463268
 20
1.602460708176232
 30
0.0
 40
2.799999999999999
  1
１/１
 41
0.9
  7
ｽﾀｲﾙ1
100
AcDbText
  0
TEXT
  5
AB3
330
1A
100
AcDbEntity
  8
ZUWAKU
100
AcDbText
 10
224.6509045567707
 20
12.02767844866531
 30
0.0
 40
2.0
  1
品番
 41
0.9
  7
ｽﾀｲﾙ1
100
AcDbText
  0
TEXT
  5
AB4
330
1A
100
AcDbEntity
  8
ZUWAKU
100
AcDbText
 10
253.3383123203456
 20
12.02767844866531
 30
0.0
 40
2.0
  1
用紙
 41
0.9
  7
ｽﾀｲﾙ1
100
AcDbText
  0
LINE
  5
AB5
330
1A
100
AcDbEntity
  8
ZUWAKU
100
AcDbLine
 10
276.2634779432265
 20
15.00000017947252
 30
0.0
 11
276.2634779432265
 21
0.4000001794725563
 31
0.0
  0
LINE
  5
AB6
330
1A
100
AcDbEntity
  8
ZUWAKU
100
AcDbLine
 10
276.4634779432264
 20
15.00000017947252
 30
0.0
 11
276.4634779432266
 21
0.4000001794725563
 31
0.0
  0
LINE
  5
AB7
330
1A
100
AcDbEntity
  8
ZUWAKU
100
AcDbLine
 10
276.3634779432265
 20
15.00000017947252
 30
0.0
 11
276.3634779432265
 21
0.4000001794725563
 31
0.0
  0
LINE
  5
AB8
330
1A
100
AcDbEntity
  8
ZUWAKU
100
AcDbLine
 10
324.2086013152726
 20
15.00000017947252
 30
0.0
 11
324.2086013152726
 21
0.4000001794725563
 31
0.0
  0
LINE
  5
AB9
330
1A
100
AcDbEntity
  8
ZUWAKU
100
AcDbLine
 10
324.4086013152725
 20
15.00000017947252
 30
0.0
 11
324.4086013152726
 21
0.4000001794725563
 31
0.0
  0
LINE
  5
ABA
330
1A
100
AcDbEntity
  8
ZUWAKU
100
AcDbLine
 10
324.3086013152725
 20
15.00000017947252
 30
0.0
 11
324.3086013152726
 21
0.4000001794725563
 31
0.0
  0
TEXT
  5
ABB
330
1A
100
AcDbEntity
  8
ZUWAKU
100
AcDbText
 10
325.1473238263773
 20
12.02767844866531
 30
0.0
 40
2.0
  1
DATE
 41
0.9
  7
ｽﾀｲﾙ1
100
AcDbText
  0
TEXT
  5
ABC
330
1A
100
AcDbEntity
  8
ZUWAKU
100
AcDbText
 10
354.2640421562922
 20
8.776919847315923
 30
0.0
 40
3.0
  1
積水化学工業株式会社
 41
0.9
  7
ｽﾀｲﾙ1
100
AcDbText
  0
LINE
  5
ABD
330
1A
100
AcDbEntity
  8
ZUWAKU
100
AcDbLine
 10
348.9245053344409
 20
15.00000017947252
 30
0.0
 11
348.924505334441
 21
0.4000001794725563
 31
0.0
  0
LINE
  5
ABE
330
1A
100
AcDbEntity
  8
ZUWAKU
100
AcDbLine
 10
348.8245053344409
 20
15.00000017947252
 30
0.0
 11
348.824505334441
 21
0.4000001794725563
 31
0.0
  0
LINE
  5
ABF
330
1A
100
AcDbEntity
  8
ZUWAKU
100
AcDbLine
 10
348.7245053344409
 20
15.00000017947252
 30
0.0
 11
348.7245053344409
 21
0.4000001794725563
 31
0.0
  0
LINE
  5
AC0
330
1A
100
AcDbEntity
  8
ZUWAKU
100
AcDbLine
 10
348.624505334441
 20
15.00000017947252
 30
0.0
 11
348.624505334441
 21
0.4000001794725563
 31
0.0
  0
TEXT
  5
AC1
330
1A
100
AcDbEntity
  8
ZUWAKU
100
AcDbText
 10
354.2640421562922
 20
3.324420336399555
 30
0.0
 40
3.0
  1
建材事業部
 41
0.9
  7
ｽﾀｲﾙ1
100
AcDbText
  0
VIEWPORT
  5
22
330
17
100
AcDbEntity
 67
     1
  8
0
100
AcDbViewport
 10
313.6808219178082
 20
148.5
 30
0.0
 40
627.3616438356165
 41
297.0
 68
     2
 69
     1
1001
ACAD
1000
MVIEW
1002
{
1070
    16
1010
0.0
1020
0.0
1030
0.0
1010
0.0
1020
0.0
1030
1.0
1040
0.0
1040
297.0
1040
313.6808219178082
1040
148.5
1040
50.0
1040
0.0
1040
0.0
1070
     0
1070
   100
1070
     1
1070
     0
1070
     0
1070
     0
1070
     0
1070
     0
1040
0.0
1040
0.0
1040
0.0
1040
1.0
1040
1.0
1040
10.0
1040
10.0
1070
     0
1002
{
1002
}
1002
}
  0
VIEWPORT
  5
64
330
17
100
AcDbEntity
 67
     1
  8
VIEWPORT
100
AcDbViewport
 10
210.0
 20
148.5
 30
0.0
 40
420.0
 41
297.0
 68
     1
 69
     2
1001
ACAD
1000
MVIEW
1002
{
1070
    16
1010
0.0
1020
0.0
1030
0.0
1010
0.0
1020
0.0
1030
1.0
1040
0.0
1040
302.9399999999998
1040
210.0
1040
148.5
1040
50.0
1040
0.0
1040
0.0
1070
     0
1070
   100
1070
     1
1070
     0
1070
     0
1070
     0
1070
     0
1070
     0
1040
0.0
1040
0.0
1040
0.0
1040
5.0
1040
5.0
1040
0.0
1040
0.0
1070
     0
1002
{
1002
}
1002
}
  0
ENDSEC
  0
SECTION
  2
OBJECTS
  0
DICTIONARY
  5
C
330
0
100
AcDbDictionary
  3
ACAD_GROUP
350
D
  3
ACAD_LAYOUT
350
378
  3
ACAD_MLINESTYLE
350
E
  3
ACAD_PLOTSETTINGS
350
379
  3
ACAD_PLOTSTYLENAME
350
376
  3
ACDBHEADERROUNDTRIPXREC
350
AC9
  0
DICTIONARY
  5
86B
330
1A
100
AcDbDictionary
280
     1
  3
ACAD_LAYOUTSELFREF
360
AEB
  0
DICTIONARY
  5
869
330
17
100
AcDbDictionary
280
     1
  3
ACAD_LAYOUTSELFREF
360
AEA
  0
DICTIONARY
  5
D
102
{ACAD_REACTORS
330
C
102
}
330
C
100
AcDbDictionary
  0
DICTIONARY
  5
378
102
{ACAD_REACTORS
330
C
102
}
330
C
100
AcDbDictionary
  0
DICTIONARY
  5
E
102
{ACAD_REACTORS
330
C
102
}
330
C
100
AcDbDictionary
  3
STANDARD
350
13
  0
DICTIONARY
  5
379
102
{ACAD_REACTORS
330
C
102
}
330
C
100
AcDbDictionary
  0
ACDBDICTIONARYWDFLT
  5
376
102
{ACAD_REACTORS
330
C
102
}
330
C
100
AcDbDictionary
281
     1
  3
Normal
350
377
100
AcDbDictionaryWithDefault
340
377
1001
ACAD
1000
TREAT_AS_HARD
1070
     0
1000
TREAT_AS_HARD
1070
     0
  0
DICTIONARY
  5
AC9
102
{ACAD_REACTORS
330
C
102
}
330
C
100
AcDbDictionary
  3
TSTACKALIGN
350
ACA
  3
TSTACKSIZE
350
ACB
  3
HYPERLINKBASE
350
ACC
  3
STYLESHEET
350
ACD
  3
LAYOUTDICT
350
ACE
  3
PLOTSETDICT
350
ACF
  3
PLOTSTYLNAMDICT
350
AD0
  3
LWETCUNION
350
AD1
  3
INSUNITS
350
AD2
  3
CEPSNTYPE
350
AD3
  3
FINGERPRINTGUID
350
AD4
  3
VERSIONGUID
350
AD5
  3
PSVPSCALE
350
AD6
  3
DIMSTYLEDATA
350
AD7
  3
PUCSORTHOREF
350
AD8
  3
PUCSORTHOVIEW
350
AD9
  3
PUCSBASE
350
ADA
  3
PUCSORGTOP
350
ADB
  3
PUCSORGBOTTOM
350
ADC
  3
PUCSORGLEFT
350
ADD
  3
PUCSORGRIGHT
350
ADE
  3
PUCSORGFRONT
350
ADF
  3
PUCSORGBACK
350
AE0
  3
UCSORTHOREF
350
AE1
  3
UCSORTHOVIEW
350
AE2
  3
UCSBASE
350
AE3
  3
UCSORGTOP
350
AE4
  3
UCSORGBOTTOM
350
AE5
  3
UCSORGLEFT
350
AE6
  3
UCSORGRIGHT
350
AE7
  3
UCSORGFRONT
350
AE8
  3
UCSORGBACK
350
AE9
  0
XRECORD
  5
AEB
102
{ACAD_REACTORS
330
86B
102
}
330
86B
100
AcDbXrecord
340
1A
  0
XRECORD
  5
AEA
102
{ACAD_REACTORS
330
869
102
}
330
869
100
AcDbXrecord
340
17
  0
MLINESTYLE
  5
13
102
{ACAD_REACTORS
330
E
102
}
330
E
100
AcDbMlineStyle
  2
STANDARD
 70
     0
  3

 62
     0
 51
90.0
 52
90.0
 71
     2
 49
0.5
 62
   256
  6
BYLAYER
 49
-0.5
 62
   256
  6
BYLAYER
  0
ACDBPLACEHOLDER
  5
377
102
{ACAD_REACTORS
330
376
102
}
330
376
100
AcDbPlaceHolder
280
     0
  0
XRECORD
  5
ACA
102
{ACAD_REACTORS
330
AC9
102
}
330
AC9
100
AcDbXrecord
 90
        1
  0
XRECORD
  5
ACB
102
{ACAD_REACTORS
330
AC9
102
}
330
AC9
100
AcDbXrecord
 90
       70
  0
XRECORD
  5
ACC
102
{ACAD_REACTORS
330
AC9
102
}
330
AC9
100
AcDbXrecord
  1

  0
XRECORD
  5
ACD
102
{ACAD_REACTORS
330
AC9
102
}
330
AC9
100
AcDbXrecord
  1
systemprinter.ctb
  0
XRECORD
  5
ACE
102
{ACAD_REACTORS
330
AC9
102
}
330
AC9
100
AcDbXrecord
340
378
  0
XRECORD
  5
ACF
102
{ACAD_REACTORS
330
AC9
102
}
330
AC9
100
AcDbXrecord
340
379
  0
XRECORD
  5
AD0
102
{ACAD_REACTORS
330
AC9
102
}
330
AC9
100
AcDbXrecord
340
376
  0
XRECORD
  5
AD1
102
{ACAD_REACTORS
330
AC9
102
}
330
AC9
100
AcDbXrecord
 90
    10781
  0
XRECORD
  5
AD2
102
{ACAD_REACTORS
330
AC9
102
}
330
AC9
100
AcDbXrecord
 90
        0
  0
XRECORD
  5
AD3
102
{ACAD_REACTORS
330
AC9
102
}
330
AC9
100
AcDbXrecord
 90
        0
  0
XRECORD
  5
AD4
102
{ACAD_REACTORS
330
AC9
102
}
330
AC9
100
AcDbXrecord
  1
{18239624-D70C-4257-B8FA-2AB4C60B5184}
  0
XRECORD
  5
AD5
102
{ACAD_REACTORS
330
AC9
102
}
330
AC9
100
AcDbXrecord
  1
{6026B18E-B165-4FAC-92C5-DACE1626936A}
  0
XRECORD
  5
AD6
102
{ACAD_REACTORS
330
AC9
102
}
330
AC9
100
AcDbXrecord
 40
0.0
  0
XRECORD
  5
AD7
102
{ACAD_REACTORS
330
AC9
102
}
330
AC9
100
AcDbXrecord
1000
DSTYLE
1002
{
1070
   341
340
B2
1070
   343
340
B2
1070
   344
340
B2
1070
   371
 70
    -1
1070
   372
 70
    -1
1002
}
  0
XRECORD
  5
AD8
102
{ACAD_REACTORS
330
AC9
102
}
330
AC9
100
AcDbXrecord
340
0
  0
XRECORD
  5
AD9
102
{ACAD_REACTORS
330
AC9
102
}
330
AC9
100
AcDbXrecord
 70
     0
  0
XRECORD
  5
ADA
102
{ACAD_REACTORS
330
AC9
102
}
330
AC9
100
AcDbXrecord
340
0
  0
XRECORD
  5
ADB
102
{ACAD_REACTORS
330
AC9
102
}
330
AC9
100
AcDbXrecord
 10
0.0
 20
0.0
 30
0.0
  0
XRECORD
  5
ADC
102
{ACAD_REACTORS
330
AC9
102
}
330
AC9
100
AcDbXrecord
 10
0.0
 20
0.0
 30
0.0
  0
XRECORD
  5
ADD
102
{ACAD_REACTORS
330
AC9
102
}
330
AC9
100
AcDbXrecord
 10
0.0
 20
0.0
 30
0.0
  0
XRECORD
  5
ADE
102
{ACAD_REACTORS
330
AC9
102
}
330
AC9
100
AcDbXrecord
 10
0.0
 20
0.0
 30
0.0
  0
XRECORD
  5
ADF
102
{ACAD_REACTORS
330
AC9
102
}
330
AC9
100
AcDbXrecord
 10
0.0
 20
0.0
 30
0.0
  0
XRECORD
  5
AE0
102
{ACAD_REACTORS
330
AC9
102
}
330
AC9
100
AcDbXrecord
 10
0.0
 20
0.0
 30
0.0
  0
XRECORD
  5
AE1
102
{ACAD_REACTORS
330
AC9
102
}
330
AC9
100
AcDbXrecord
340
0
  0
XRECORD
  5
AE2
102
{ACAD_REACTORS
330
AC9
102
}
330
AC9
100
AcDbXrecord
 70
     0
  0
XRECORD
  5
AE3
102
{ACAD_REACTORS
330
AC9
102
}
330
AC9
100
AcDbXrecord
340
0
  0
XRECORD
  5
AE4
102
{ACAD_REACTORS
330
AC9
102
}
330
AC9
100
AcDbXrecord
 10
0.0
 20
0.0
 30
0.0
  0
XRECORD
  5
AE5
102
{ACAD_REACTORS
330
AC9
102
}
330
AC9
100
AcDbXrecord
 10
0.0
 20
0.0
 30
0.0
  0
XRECORD
  5
AE6
102
{ACAD_REACTORS
330
AC9
102
}
330
AC9
100
AcDbXrecord
 10
0.0
 20
0.0
 30
0.0
  0
XRECORD
  5
AE7
102
{ACAD_REACTORS
330
AC9
102
}
330
AC9
100
AcDbXrecord
 10
0.0
 20
0.0
 30
0.0
  0
XRECORD
  5
AE8
102
{ACAD_REACTORS
330
AC9
102
}
330
AC9
100
AcDbXrecord
 10
0.0
 20
0.0
 30
0.0
  0
XRECORD
  5
AE9
102
{ACAD_REACTORS
330
AC9
102
}
330
AC9
100
AcDbXrecord
 10
0.0
 20
0.0
 30
0.0
  0
ENDSEC
  0
EOF
