  0
SECTION
  2
HEADER
  9
$ACADVER
  1
AC1014
  9
$ACADMAINTVER
 70
     9
  9
$DWGCODEPAGE
  3
ANSI_932
  9
$INSBASE
 10
0.0
 20
0.0
 30
0.0
  9
$EXTMIN
 10
-0.0128164049386896
 20
-0.0090630292066862
 30
-0.0015258207003583
  9
$EXTMAX
 10
398.8000497813338
 20
275.8226172440017
 30
0.0000000349246037
  9
$LIMMIN
 10
0.0
 20
0.0
  9
$LIMMAX
 10
420.0
 20
297.0
  9
$ORTHOMODE
 70
     1
  9
$REGENMODE
 70
     1
  9
$FILLMODE
 70
     1
  9
$QTEXTMODE
 70
     0
  9
$MIRRTEXT
 70
     1
  9
$DRAGMODE
 70
     2
  9
$LTSCALE
 40
1.0
  9
$OSMODE
 70
    37
  9
$ATTMODE
 70
     1
  9
$TEXTSIZE
 40
2.5
  9
$TRACEWID
 40
1.0
  9
$TEXTSTYLE
  7
STANDARD
  9
$CLAYER
  8
SUNPOU
  9
$CELTYPE
  6
BYLAYER
  9
$CECOLOR
 62
   256
  9
$CELTSCALE
 40
1.0
  9
$DELOBJ
 70
     1
  9
$DISPSILH
 70
     0
  9
$DIMSCALE
 40
1.0
  9
$DIMASZ
 40
3.0
  9
$DIMEXO
 40
3.0
  9
$DIMDLI
 40
7.0
  9
$DIMRND
 40
0.0
  9
$DIMDLE
 40
0.0
  9
$DIMEXE
 40
1.5
  9
$DIMTP
 40
0.0
  9
$DIMTM
 40
0.0
  9
$DIMTXT
 40
3.0
  9
$DIMCEN
 40
150.0
  9
$DIMTSZ
 40
0.0
  9
$DIMTOL
 70
     0
  9
$DIMLIM
 70
     0
  9
$DIMTIH
 70
     0
  9
$DIMTOH
 70
     0
  9
$DIMSE1
 70
     0
  9
$DIMSE2
 70
     0
  9
$DIMTAD
 70
     3
  9
$DIMZIN
 70
     0
  9
$DIMBLK
  1

  9
$DIMASO
 70
     1
  9
$DIMSHO
 70
     1
  9
$DIMPOST
  1

  9
$DIMAPOST
  1

  9
$DIMALT
 70
     0
  9
$DIMALTD
 70
     2
  9
$DIMALTF
 40
25.4
  9
$DIMLFAC
 40
1.0
  9
$DIMTOFL
 70
     1
  9
$DIMTVP
 40
0.0
  9
$DIMTIX
 70
     0
  9
$DIMSOXD
 70
     0
  9
$DIMSAH
 70
     1
  9
$DIMBLK1
  1
OPEN
  9
$DIMBLK2
  1
OPEN
  9
$DIMSTYLE
  2
STANDARD
  9
$DIMCLRD
 70
   256
  9
$DIMCLRE
 70
   256
  9
$DIMCLRT
 70
   256
  9
$DIMTFAC
 40
1.0
  9
$DIMGAP
 40
1.0
  9
$DIMJUST
 70
     0
  9
$DIMSD1
 70
     0
  9
$DIMSD2
 70
     0
  9
$DIMTOLJ
 70
     1
  9
$DIMTZIN
 70
     0
  9
$DIMALTZ
 70
     0
  9
$DIMALTTZ
 70
     0
  9
$DIMFIT
 70
     3
  9
$DIMUPT
 70
     0
  9
$DIMUNIT
 70
     2
  9
$DIMDEC
 70
     0
  9
$DIMTDEC
 70
     0
  9
$DIMALTU
 70
     2
  9
$DIMALTTD
 70
     2
  9
$DIMTXSTY
  7
STANDARD
  9
$DIMAUNIT
 70
     0
  9
$LUNITS
 70
     2
  9
$LUPREC
 70
     4
  9
$SKETCHINC
 40
1.0
  9
$FILLETRAD
 40
10.0
  9
$AUNITS
 70
     0
  9
$AUPREC
 70
     0
  9
$MENU
  1
.
  9
$ELEVATION
 40
0.0
  9
$PELEVATION
 40
0.0
  9
$THICKNESS
 40
0.0
  9
$LIMCHECK
 70
     0
  9
$BLIPMODE
 70
     0
  9
$CHAMFERA
 40
10.0
  9
$CHAMFERB
 40
10.0
  9
$CHAMFERC
 40
20.0
  9
$CHAMFERD
 40
0.0
  9
$SKPOLY
 70
     0
  9
$TDCREATE
 40
2450994.350997107
  9
$TDUPDATE
 40
2454515.383160358
  9
$TDINDWG
 40
0.0172530093
  9
$TDUSRTIMER
 40
0.0172530093
  9
$USRTIMER
 70
     1
  9
$ANGBASE
 50
0.0
  9
$ANGDIR
 70
     0
  9
$PDMODE
 70
     1
  9
$PDSIZE
 40
0.0
  9
$PLINEWID
 40
0.0
  9
$COORDS
 70
     2
  9
$SPLFRAME
 70
     0
  9
$SPLINETYPE
 70
     6
  9
$SPLINESEGS
 70
     8
  9
$ATTDIA
 70
     0
  9
$ATTREQ
 70
     1
  9
$HANDLING
 70
 10241
  9
$HANDSEED
  5
934
  9
$SURFTAB1
 70
     6
  9
$SURFTAB2
 70
     6
  9
$SURFTYPE
 70
     6
  9
$SURFU
 70
     6
  9
$SURFV
 70
     6
  9
$UCSNAME
  2

  9
$UCSORG
 10
0.0
 20
0.0
 30
0.0
  9
$UCSXDIR
 10
1.0
 20
0.0
 30
0.0
  9
$UCSYDIR
 10
0.0
 20
1.0
 30
0.0
  9
$PUCSNAME
  2

  9
$PUCSORG
 10
0.0
 20
0.0
 30
0.0
  9
$PUCSXDIR
 10
1.0
 20
0.0
 30
0.0
  9
$PUCSYDIR
 10
0.0
 20
1.0
 30
0.0
  9
$USERI1
 70
     0
  9
$USERI2
 70
     0
  9
$USERI3
 70
     0
  9
$USERI4
 70
     0
  9
$USERI5
 70
     0
  9
$USERR1
 40
0.0
  9
$USERR2
 40
0.0
  9
$USERR3
 40
0.0
  9
$USERR4
 40
0.0
  9
$USERR5
 40
0.0
  9
$WORLDVIEW
 70
     1
  9
$SHADEDGE
 70
     3
  9
$SHADEDIF
 70
    70
  9
$TILEMODE
 70
     1
  9
$MAXACTVP
 70
    16
  9
$PINSBASE
 10
0.0
 20
0.0
 30
0.0
  9
$PLIMCHECK
 70
     0
  9
$PEXTMIN
 10
0.0
 20
0.0
 30
0.0
  9
$PEXTMAX
 10
420.0
 20
297.0
 30
0.0
  9
$PLIMMIN
 10
0.0
 20
0.0
  9
$PLIMMAX
 10
420.0
 20
297.0
  9
$UNITMODE
 70
     0
  9
$VISRETAIN
 70
     0
  9
$PLINEGEN
 70
     0
  9
$PSLTSCALE
 70
     1
  9
$TREEDEPTH
 70
  3020
  9
$PICKSTYLE
 70
     1
  9
$CMLSTYLE
  2
STANDARD
  9
$CMLJUST
 70
     0
  9
$CMLSCALE
 40
1.0
  9
$PROXYGRAPHICS
 70
     1
  9
$MEASUREMENT
 70
     1
  0
ENDSEC
  0
SECTION
  2
CLASSES
  0
CLASS
  1
ACDBDICTIONARYWDFLT
  2
AcDbDictionaryWithDefault
  3
AutoCAD 2000
 90
        0
280
     0
281
     0
  0
CLASS
  1
ACDBPLACEHOLDER
  2
AcDbPlaceHolder
  3
AutoCAD 2000
 90
        0
280
     0
281
     0
  0
CLASS
  1
LAYOUT
  2
AcDbLayout
  3
AutoCAD 2000
 90
        0
280
     0
281
     0
  0
CLASS
  1
LONG_TRANSACTION
  2
AcDbLongTransaction
  3
AutoCAD 2000
 90
        0
280
     0
281
     0
  0
CLASS
  1
LWPOLYLINE
  2
AcDbPolyline
  3
AutoCAD 2000
 90
        0
280
     0
281
     1
  0
CLASS
  1
HATCH
  2
AcDbHatch
  3
AutoCAD 2000
 90
        0
280
     0
281
     1
  0
CLASS
  1
XRECORD
  2
AcDbXrecord
  3
AutoCAD 2000
 90
        0
280
     0
281
     0
  0
CLASS
  1
LONG_TRANSACTION
  2
AcDbLongTransaction
  3
AutoCAD 2000
 90
        0
280
     0
281
     0
  0
CLASS
  1
LWPOLYLINE
  2
AcDbPolyline
  3
AutoCAD 2000
 90
        0
280
     0
281
     1
  0
CLASS
  1
HATCH
  2
AcDbHatch
  3
AutoCAD 2000
 90
        0
280
     0
281
     1
  0
CLASS
  1
XRECORD
  2
AcDbXrecord
  3
AutoCAD 2000
 90
        0
280
     0
281
     0
  0
CLASS
  1
LONG_TRANSACTION
  2
AcDbLongTransaction
  3
AutoCAD 2000
 90
        0
280
     0
281
     0
  0
CLASS
  1
LWPOLYLINE
  2
AcDbPolyline
  3
AutoCAD 2000
 90
        0
280
     0
281
     1
  0
CLASS
  1
HATCH
  2
AcDbHatch
  3
AutoCAD 2000
 90
        0
280
     0
281
     1
  0
CLASS
  1
XRECORD
  2
AcDbXrecord
  3
AutoCAD 2000
 90
        0
280
     0
281
     0
  0
ENDSEC
  0
SECTION
  2
TABLES
  0
TABLE
  2
VPORT
  5
8
330
0
100
AcDbSymbolTable
 70
     2
  0
VPORT
  5
910
330
8
100
AcDbSymbolTableRecord
100
AcDbViewportTableRecord
  2
*ACTIVE
 70
     0
 10
0.0
 20
0.0
 11
1.0
 21
1.0
 12
192.5649400098804
 22
151.3115186352686
 13
0.0
 23
0.0
 14
5.0
 24
5.0
 15
0.0
 25
0.0
 16
0.0
 26
0.0
 36
1.0
 17
0.0
 27
0.0
 37
0.0
 40
341.7271742747256
 41
1.570153061224489
 42
50.0
 43
0.0
 44
0.0
 50
0.0
 51
0.0
 71
     0
 72
   100
 73
     1
 74
     0
 75
     0
 76
     0
 77
     0
 78
     0
  0
ENDTAB
  0
TABLE
  2
LTYPE
  5
5
330
0
100
AcDbSymbolTable
 70
     3
  0
LTYPE
  5
14
330
5
100
AcDbSymbolTableRecord
100
AcDbLinetypeTableRecord
  2
BYBLOCK
 70
     0
  3

 72
    65
 73
     0
 40
0.0
  0
LTYPE
  5
15
330
5
100
AcDbSymbolTableRecord
100
AcDbLinetypeTableRecord
  2
BYLAYER
 70
     0
  3

 72
    65
 73
     0
 40
0.0
  0
LTYPE
  5
16
330
5
100
AcDbSymbolTableRecord
100
AcDbLinetypeTableRecord
  2
CONTINUOUS
 70
     0
  3
Solid line
 72
    65
 73
     0
 40
0.0
  0
LTYPE
  5
120
330
5
100
AcDbSymbolTableRecord
100
AcDbLinetypeTableRecord
  2
CENTER
 70
     0
  3
____ _ ____ _ ____ _ ____ _ ____ _ ____ _ ____ 
 72
    65
 73
     4
 40
2.0
 49
1.25
 74
     0
 49
-0.25
 74
     0
 49
0.25
 74
     0
 49
-0.25
 74
     0
  0
LTYPE
  5
122
330
5
100
AcDbSymbolTableRecord
100
AcDbLinetypeTableRecord
  2
PHANTOM
 70
     0
  3
______  __  __  ______  __  __  ______  __  __ 
 72
    65
 73
     6
 40
2.5
 49
1.25
 74
     0
 49
-0.25
 74
     0
 49
0.25
 74
     0
 49
-0.25
 74
     0
 49
0.25
 74
     0
 49
-0.25
 74
     0
  0
ENDTAB
  0
TABLE
  2
LAYER
  5
2
330
0
100
AcDbSymbolTable
 70
     9
  0
LAYER
  5
F
330
2
100
AcDbSymbolTableRecord
100
AcDbLayerTableRecord
  2
0
 70
     0
 62
     7
  6
CONTINUOUS
  0
LAYER
  5
62
330
2
100
AcDbSymbolTableRecord
100
AcDbLayerTableRecord
  2
VIEWPORT
 70
     0
 62
     7
  6
CONTINUOUS
  0
LAYER
  5
6B
330
2
100
AcDbSymbolTableRecord
100
AcDbLayerTableRecord
  2
ZUWAKU
 70
     0
 62
     7
  6
CONTINUOUS
  0
LAYER
  5
14E
330
2
100
AcDbSymbolTableRecord
100
AcDbLayerTableRecord
  2
NOKITOI
 70
     0
 62
     8
  6
PHANTOM
  0
LAYER
  5
14F
330
2
100
AcDbSymbolTableRecord
100
AcDbLayerTableRecord
  2
SEIHIN
 70
     0
 62
     3
  6
CONTINUOUS
  0
LAYER
  5
150
330
2
100
AcDbSymbolTableRecord
100
AcDbLayerTableRecord
  2
SUNPOU
 70
     0
 62
     4
  6
CONTINUOUS
  0
LAYER
  5
151
330
2
100
AcDbSymbolTableRecord
100
AcDbLayerTableRecord
  2
CENTER_L
 70
     0
 62
     1
  6
CENTER
  0
LAYER
  5
419
330
2
100
AcDbSymbolTableRecord
100
AcDbLayerTableRecord
  2
DEFPOINTS
 70
     0
 62
     7
  6
CONTINUOUS
  0
LAYER
  5
79B
330
2
100
AcDbSymbolTableRecord
100
AcDbLayerTableRecord
  2
MOJI
 70
     0
 62
     2
  6
CONTINUOUS
  0
ENDTAB
  0
TABLE
  2
STYLE
  5
3
330
0
100
AcDbSymbolTable
 70
     2
  0
STYLE
  5
10
330
3
100
AcDbSymbolTableRecord
100
AcDbTextStyleTableRecord
  2
STANDARD
 70
     0
 40
0.0
 41
1.0
 50
0.0
 71
     0
 42
2.5
  3
TXT
  4
bigfont.shx
  0
STYLE
  5
79C
330
3
100
AcDbSymbolTableRecord
100
AcDbTextStyleTableRecord
  2
ｽﾀｲﾙ1
 70
     0
 40
0.0
 41
1.0
 50
0.0
 71
     0
 42
2.5
  3
MS PGothic.ttf
  4

1001
ACAD
1000
MS PGothic
1071
    32818
  0
ENDTAB
  0
TABLE
  2
VIEW
  5
6
330
0
100
AcDbSymbolTable
 70
     0
  0
ENDTAB
  0
TABLE
  2
UCS
  5
7
330
0
100
AcDbSymbolTable
 70
     0
  0
ENDTAB
  0
TABLE
  2
APPID
  5
9
330
0
100
AcDbSymbolTable
 70
     1
  0
APPID
  5
11
330
9
100
AcDbSymbolTableRecord
100
AcDbRegAppTableRecord
  2
ACAD
 70
     0
  0
ENDTAB
  0
TABLE
  2
DIMSTYLE
  5
A
330
0
100
AcDbSymbolTable
 70
     1
  0
DIMSTYLE
105
1D
102
{ACAD_REACTORS
330
418
330
426
330
433
330
440
330
44D
330
45A
330
469
330
476
330
483
330
490
330
4A6
330
4B3
330
4C2
330
4E7
330
4F4
330
502
330
50F
330
51C
102
}
330
A
100
AcDbSymbolTableRecord
100
AcDbDimStyleTableRecord
  2
STANDARD
 70
     0
  3

  4

  5

  6

  7

 40
1.0
 41
0.18
 42
0.0625
 43
0.38
 44
0.18
 45
0.0
 46
0.0
 47
0.0
 48
0.0
140
0.18
141
0.09
142
0.0
143
25.4
144
1.0
145
0.0
146
1.0
147
0.09
 71
     0
 72
     0
 73
     1
 74
     1
 75
     0
 76
     0
 77
     0
 78
     0
170
     0
171
     2
172
     0
173
     0
174
     0
175
     0
176
     0
177
     0
178
     0
270
     2
271
     4
272
     4
273
     2
274
     2
340
10
275
     0
280
     0
281
     0
282
     0
283
     1
284
     0
285
     0
286
     0
287
     3
288
     0
  0
ENDTAB
  0
TABLE
  2
BLOCK_RECORD
  5
1
330
0
100
AcDbSymbolTable
 70
    19
  0
BLOCK_RECORD
  5
1A
102
{ACAD_XDICTIONARY
360
6B3
102
}
330
1
100
AcDbSymbolTableRecord
100
AcDbBlockTableRecord
  2
*MODEL_SPACE
  0
BLOCK_RECORD
  5
17
102
{ACAD_XDICTIONARY
360
6B1
102
}
330
1
100
AcDbSymbolTableRecord
100
AcDbBlockTableRecord
  2
*PAPER_SPACE
  0
BLOCK_RECORD
  5
B2
330
1
100
AcDbSymbolTableRecord
100
AcDbBlockTableRecord
  2
_OPEN
  0
BLOCK_RECORD
  5
41A
330
1
100
AcDbSymbolTableRecord
100
AcDbBlockTableRecord
  2
*D1
  0
BLOCK_RECORD
  5
427
330
1
100
AcDbSymbolTableRecord
100
AcDbBlockTableRecord
  2
*D2
  0
BLOCK_RECORD
  5
434
330
1
100
AcDbSymbolTableRecord
100
AcDbBlockTableRecord
  2
*D3
  0
BLOCK_RECORD
  5
441
330
1
100
AcDbSymbolTableRecord
100
AcDbBlockTableRecord
  2
*D4
  0
BLOCK_RECORD
  5
44E
330
1
100
AcDbSymbolTableRecord
100
AcDbBlockTableRecord
  2
*D5
  0
BLOCK_RECORD
  5
45B
330
1
100
AcDbSymbolTableRecord
100
AcDbBlockTableRecord
  2
*D6
  0
BLOCK_RECORD
  5
46A
330
1
100
AcDbSymbolTableRecord
100
AcDbBlockTableRecord
  2
*D7
  0
BLOCK_RECORD
  5
477
330
1
100
AcDbSymbolTableRecord
100
AcDbBlockTableRecord
  2
*D8
  0
BLOCK_RECORD
  5
484
330
1
100
AcDbSymbolTableRecord
100
AcDbBlockTableRecord
  2
*D9
  0
BLOCK_RECORD
  5
491
330
1
100
AcDbSymbolTableRecord
100
AcDbBlockTableRecord
  2
*D10
  0
BLOCK_RECORD
  5
4A7
330
1
100
AcDbSymbolTableRecord
100
AcDbBlockTableRecord
  2
*D11
  0
BLOCK_RECORD
  5
4B4
330
1
100
AcDbSymbolTableRecord
100
AcDbBlockTableRecord
  2
*D12
  0
BLOCK_RECORD
  5
4C3
330
1
100
AcDbSymbolTableRecord
100
AcDbBlockTableRecord
  2
*D13
  0
BLOCK_RECORD
  5
4E8
330
1
100
AcDbSymbolTableRecord
100
AcDbBlockTableRecord
  2
*D14
  0
BLOCK_RECORD
  5
4F5
330
1
100
AcDbSymbolTableRecord
100
AcDbBlockTableRecord
  2
*D15
  0
BLOCK_RECORD
  5
503
330
1
100
AcDbSymbolTableRecord
100
AcDbBlockTableRecord
  2
*D16
  0
BLOCK_RECORD
  5
510
330
1
100
AcDbSymbolTableRecord
100
AcDbBlockTableRecord
  2
*D17
  0
BLOCK_RECORD
  5
51D
330
1
100
AcDbSymbolTableRecord
100
AcDbBlockTableRecord
  2
*D18
  0
ENDTAB
  0
ENDSEC
  0
SECTION
  2
BLOCKS
  0
BLOCK
  5
1B
330
1A
100
AcDbEntity
  8
0
100
AcDbBlockBegin
  2
*MODEL_SPACE
 70
     0
 10
0.0
 20
0.0
 30
0.0
  3
*MODEL_SPACE
  1

  0
ENDBLK
  5
1C
330
1A
100
AcDbEntity
  8
0
100
AcDbBlockEnd
  0
BLOCK
  5
18
330
17
100
AcDbEntity
 67
     1
  8
0
100
AcDbBlockBegin
  2
*PAPER_SPACE
 70
     0
 10
0.0
 20
0.0
 30
0.0
  3
*PAPER_SPACE
  1

  0
ENDBLK
  5
19
330
17
100
AcDbEntity
 67
     1
  8
0
100
AcDbBlockEnd
  0
BLOCK
  5
B3
330
B2
100
AcDbEntity
  8
0
100
AcDbBlockBegin
  2
_OPEN
 70
     0
 10
0.0
 20
0.0
 30
0.0
  3
_OPEN
  1

  0
LINE
  5
B4
330
B2
100
AcDbEntity
  8
0
  6
BYBLOCK
 62
     0
100
AcDbLine
 10
-1.0
 20
0.1666666666666666
 30
0.0
 11
0.0
 21
0.0
 31
0.0
  0
LINE
  5
B5
330
B2
100
AcDbEntity
  8
0
  6
BYBLOCK
 62
     0
100
AcDbLine
 10
0.0
 20
0.0
 30
0.0
 11
-1.0
 21
-0.1666666666666666
 31
0.0
  0
LINE
  5
B6
330
B2
100
AcDbEntity
  8
0
  6
BYBLOCK
 62
     0
100
AcDbLine
 10
0.0
 20
0.0
 30
0.0
 11
-1.0
 21
0.0
 31
0.0
  0
ENDBLK
  5
B7
330
B2
100
AcDbEntity
  8
0
100
AcDbBlockEnd
  0
BLOCK
  5
424
330
41A
100
AcDbEntity
  8
0
100
AcDbBlockBegin
  2
*D1
 70
     1
 10
0.0
 20
0.0
 30
0.0
  3
*D1
  1

  0
LINE
  5
6BB
330
41A
100
AcDbEntity
  8
SUNPOU
 62
     4
100
AcDbLine
 10
199.6026368344004
 20
110.2877155222529
 30
0.0
 11
199.6026368344004
 21
132.0904702484901
 31
0.0
  0
LINE
  5
6BC
330
41A
100
AcDbEntity
  8
SUNPOU
 62
     4
100
AcDbLine
 10
229.4337436525821
 20
121.4893155222529
 30
0.0
 11
229.4337436525821
 21
132.0904702484901
 31
0.0
  0
LINE
  5
6BD
330
41A
100
AcDbEntity
  8
SUNPOU
 62
     4
100
AcDbLine
 10
202.6026368344004
 20
130.5904702484901
 30
0.0
 11
226.4337436525821
 21
130.5904702484901
 31
0.0
  0
INSERT
  5
6BE
330
41A
100
AcDbEntity
  8
SUNPOU
 62
     4
100
AcDbBlockReference
  2
_OPEN
 10
199.6026368344004
 20
130.5904702484901
 30
0.0
 41
3.0
 42
3.0
 43
3.0
 50
180.0
  0
INSERT
  5
6BF
330
41A
100
AcDbEntity
  8
SUNPOU
 62
     4
100
AcDbBlockReference
  2
_OPEN
 10
229.4337436525821
 20
130.5904702484901
 30
0.0
 41
3.0
 42
3.0
 43
3.0
  0
MTEXT
  5
6C0
330
41A
100
AcDbEntity
  8
SUNPOU
 62
     4
100
AcDbMText
 10
214.5181902434913
 20
133.0904702484901
 30
0.0
 40
3.0
 41
0.0
 71
     5
 72
     5
  1
\A1;30
1001
ACAD
1000
MTEXTBEGIN
1070
    73
1070
     1
1070
    44
1040
1.0
1070
    74
1070
     0
1000
MTEXTEND
1000
MTEXTBEGIN
1070
    73
1070
     1
1070
    44
1040
1.0
1070
    74
1070
     0
1000
MTEXTEND
  0
POINT
  5
6C1
330
41A
100
AcDbEntity
  8
DEFPOINTS
 62
     0
100
AcDbPoint
 10
199.6026368344004
 20
107.2877155222529
 30
0.0
  0
POINT
  5
6C2
330
41A
100
AcDbEntity
  8
DEFPOINTS
 62
     0
100
AcDbPoint
 10
229.4337436525821
 20
118.4893155222529
 30
0.0
  0
POINT
  5
6C3
330
41A
100
AcDbEntity
  8
DEFPOINTS
 62
     0
100
AcDbPoint
 10
229.4337436525821
 20
130.5904702484901
 30
0.0
  0
ENDBLK
  5
425
330
41A
100
AcDbEntity
  8
0
100
AcDbBlockEnd
  0
BLOCK
  5
431
330
427
100
AcDbEntity
  8
0
100
AcDbBlockBegin
  2
*D2
 70
     1
 10
0.0
 20
0.0
 30
0.0
  3
*D2
  1

  0
LINE
  5
6C4
330
427
100
AcDbEntity
  8
SUNPOU
 62
     4
100
AcDbLine
 10
229.4337436525821
 20
121.4893155222529
 30
0.0
 11
229.4337436525821
 21
139.6801020892495
 31
0.0
  0
LINE
  5
6C5
330
427
100
AcDbEntity
  8
SUNPOU
 62
     4
100
AcDbLine
 10
184.4336956579297
 20
121.4893155222529
 30
0.0
 11
184.4336956579297
 21
139.6801020892495
 31
0.0
  0
LINE
  5
6C6
330
427
100
AcDbEntity
  8
SUNPOU
 62
     4
100
AcDbLine
 10
226.4337436525821
 20
138.1801020892495
 30
0.0
 11
187.4336956579297
 21
138.1801020892495
 31
0.0
  0
INSERT
  5
6C7
330
427
100
AcDbEntity
  8
SUNPOU
 62
     4
100
AcDbBlockReference
  2
_OPEN
 10
229.4337436525821
 20
138.1801020892495
 30
0.0
 41
3.0
 42
3.0
 43
3.0
  0
INSERT
  5
6C8
330
427
100
AcDbEntity
  8
SUNPOU
 62
     4
100
AcDbBlockReference
  2
_OPEN
 10
184.4336956579297
 20
138.1801020892495
 30
0.0
 41
3.0
 42
3.0
 43
3.0
 50
180.0
  0
MTEXT
  5
6C9
330
427
100
AcDbEntity
  8
SUNPOU
 62
     4
100
AcDbMText
 10
206.9337196552559
 20
140.6801020892495
 30
0.0
 40
3.0
 41
0.0
 71
     5
 72
     5
  1
\A1;45
1001
ACAD
1000
MTEXTBEGIN
1070
    73
1070
     1
1070
    44
1040
1.0
1070
    74
1070
     0
1000
MTEXTEND
1000
MTEXTBEGIN
1070
    73
1070
     1
1070
    44
1040
1.0
1070
    74
1070
     0
1000
MTEXTEND
  0
POINT
  5
6CA
330
427
100
AcDbEntity
  8
DEFPOINTS
 62
     0
100
AcDbPoint
 10
229.4337436525821
 20
118.4893155222529
 30
0.0
  0
POINT
  5
6CB
330
427
100
AcDbEntity
  8
DEFPOINTS
 62
     0
100
AcDbPoint
 10
184.4336956579297
 20
118.4893155222529
 30
0.0
  0
POINT
  5
6CC
330
427
100
AcDbEntity
  8
DEFPOINTS
 62
     0
100
AcDbPoint
 10
184.4336956579297
 20
138.1801020892495
 30
0.0
  0
ENDBLK
  5
432
330
427
100
AcDbEntity
  8
0
100
AcDbBlockEnd
  0
BLOCK
  5
43E
330
434
100
AcDbEntity
  8
0
100
AcDbBlockBegin
  2
*D3
 70
     1
 10
0.0
 20
0.0
 30
0.0
  3
*D3
  1

  0
LINE
  5
6CD
330
434
100
AcDbEntity
  8
SUNPOU
 62
     4
100
AcDbLine
 10
88.43373683440034
 20
109.9893155222529
 30
0.0
 11
88.43373683440034
 21
147.4751426781861
 31
0.0
  0
LINE
  5
6CE
330
434
100
AcDbEntity
  8
SUNPOU
 62
     4
100
AcDbLine
 10
229.4337436525821
 20
121.4893155222529
 30
0.0
 11
229.4337436525821
 21
147.4751426781861
 31
0.0
  0
LINE
  5
6CF
330
434
100
AcDbEntity
  8
SUNPOU
 62
     4
100
AcDbLine
 10
91.43373683440035
 20
145.9751426781861
 30
0.0
 11
226.4337436525821
 21
145.9751426781861
 31
0.0
  0
INSERT
  5
6D0
330
434
100
AcDbEntity
  8
SUNPOU
 62
     4
100
AcDbBlockReference
  2
_OPEN
 10
88.43373683440034
 20
145.9751426781861
 30
0.0
 41
3.0
 42
3.0
 43
3.0
 50
180.0
  0
INSERT
  5
6D1
330
434
100
AcDbEntity
  8
SUNPOU
 62
     4
100
AcDbBlockReference
  2
_OPEN
 10
229.4337436525821
 20
145.9751426781861
 30
0.0
 41
3.0
 42
3.0
 43
3.0
  0
MTEXT
  5
6D2
330
434
100
AcDbEntity
  8
SUNPOU
 62
     4
100
AcDbMText
 10
158.9337402434912
 20
148.4751426781861
 30
0.0
 40
3.0
 41
0.0
 71
     5
 72
     5
  1
\A1;141
1001
ACAD
1000
MTEXTBEGIN
1070
    73
1070
     1
1070
    44
1040
1.0
1070
    74
1070
     0
1000
MTEXTEND
1000
MTEXTBEGIN
1070
    73
1070
     1
1070
    44
1040
1.0
1070
    74
1070
     0
1000
MTEXTEND
  0
POINT
  5
6D3
330
434
100
AcDbEntity
  8
DEFPOINTS
 62
     0
100
AcDbPoint
 10
88.43373683440034
 20
106.9893155222529
 30
0.0
  0
POINT
  5
6D4
330
434
100
AcDbEntity
  8
DEFPOINTS
 62
     0
100
AcDbPoint
 10
229.4337436525821
 20
118.4893155222529
 30
0.0
  0
POINT
  5
6D5
330
434
100
AcDbEntity
  8
DEFPOINTS
 62
     0
100
AcDbPoint
 10
229.4337436525821
 20
145.9751426781861
 30
0.0
  0
ENDBLK
  5
43F
330
434
100
AcDbEntity
  8
0
100
AcDbBlockEnd
  0
BLOCK
  5
44B
330
441
100
AcDbEntity
  8
0
100
AcDbBlockBegin
  2
*D4
 70
     1
 10
0.0
 20
0.0
 30
0.0
  3
*D4
  1

  0
LINE
  5
6D6
330
441
100
AcDbEntity
  8
SUNPOU
 62
     4
100
AcDbLine
 10
232.4337436525821
 20
118.4893155222529
 30
0.0
 11
251.6968412349101
 21
118.4893155222529
 31
0.0
  0
LINE
  5
6D7
330
441
100
AcDbEntity
  8
SUNPOU
 62
     4
100
AcDbLine
 10
232.4337368344003
 20
71.48931552225289
 30
0.0
 11
251.6968412349101
 21
71.48931552225289
 31
0.0
  0
LINE
  5
6D8
330
441
100
AcDbEntity
  8
SUNPOU
 62
     4
100
AcDbLine
 10
250.1968412349101
 20
115.4893155222528
 30
0.0
 11
250.1968412349101
 21
74.48931552225289
 31
0.0
  0
INSERT
  5
6D9
330
441
100
AcDbEntity
  8
SUNPOU
 62
     4
100
AcDbBlockReference
  2
_OPEN
 10
250.1968412349101
 20
118.4893155222529
 30
0.0
 41
3.0
 42
3.0
 43
3.0
 50
90.0
  0
INSERT
  5
6DA
330
441
100
AcDbEntity
  8
SUNPOU
 62
     4
100
AcDbBlockReference
  2
_OPEN
 10
250.1968412349101
 20
71.48931552225289
 30
0.0
 41
3.0
 42
3.0
 43
3.0
 50
270.0
  0
MTEXT
  5
6DB
330
441
100
AcDbEntity
  8
SUNPOU
 62
     4
100
AcDbMText
 10
247.6968412349101
 20
94.98931552225293
 30
0.0
 40
3.0
 41
0.0
 71
     5
 72
     5
  1
\A1;47
 11
0.0000000000000001
 21
1.0
 31
0.0
1001
ACAD
1000
MTEXTBEGIN
1070
    73
1070
     1
1070
    44
1040
1.0
1070
    74
1070
     0
1000
MTEXTEND
1000
MTEXTBEGIN
1070
    73
1070
     1
1070
    44
1040
1.0
1070
    74
1070
     0
1000
MTEXTEND
  0
POINT
  5
6DC
330
441
100
AcDbEntity
  8
DEFPOINTS
 62
     0
100
AcDbPoint
 10
229.4337436525821
 20
118.4893155222529
 30
0.0
  0
POINT
  5
6DD
330
441
100
AcDbEntity
  8
DEFPOINTS
 62
     0
100
AcDbPoint
 10
229.4337368344003
 20
71.48931552225289
 30
0.0
  0
POINT
  5
6DE
330
441
100
AcDbEntity
  8
DEFPOINTS
 62
     0
100
AcDbPoint
 10
250.1968412349101
 20
71.48931552225289
 30
0.0
  0
ENDBLK
  5
44C
330
441
100
AcDbEntity
  8
0
100
AcDbBlockEnd
  0
BLOCK
  5
458
330
44E
100
AcDbEntity
  8
0
100
AcDbBlockBegin
  2
*D5
 70
     1
 10
0.0
 20
0.0
 30
0.0
  3
*D5
  1

  0
LINE
  5
6DF
330
44E
100
AcDbEntity
  8
SUNPOU
 62
     4
100
AcDbLine
 10
309.4337368344003
 20
118.4893155222529
 30
0.0
 11
290.4557914186116
 21
118.4893155222529
 31
0.0
  0
LINE
  5
6E0
330
44E
100
AcDbEntity
  8
SUNPOU
 62
     4
100
AcDbLine
 10
304.2532368344003
 20
102.4893155222528
 30
0.0
 11
290.4557914186116
 21
102.4893155222528
 31
0.0
  0
LINE
  5
6E1
330
44E
100
AcDbEntity
  8
SUNPOU
 62
     4
100
AcDbLine
 10
291.9557914186116
 20
115.4893155222528
 30
0.0
 11
291.9557914186116
 21
105.4893155222528
 31
0.0
  0
INSERT
  5
6E2
330
44E
100
AcDbEntity
  8
SUNPOU
 62
     4
100
AcDbBlockReference
  2
_OPEN
 10
291.9557914186116
 20
118.4893155222529
 30
0.0
 41
3.0
 42
3.0
 43
3.0
 50
90.0
  0
INSERT
  5
6E3
330
44E
100
AcDbEntity
  8
SUNPOU
 62
     4
100
AcDbBlockReference
  2
_OPEN
 10
291.9557914186116
 20
102.4893155222528
 30
0.0
 41
3.0
 42
3.0
 43
3.0
 50
270.0
  0
MTEXT
  5
6E4
330
44E
100
AcDbEntity
  8
SUNPOU
 62
     4
100
AcDbMText
 10
289.4557914186116
 20
110.4893155222529
 30
0.0
 40
3.0
 41
0.0
 71
     5
 72
     5
  1
\A1;16
 11
0.0000000000000001
 21
1.0
 31
0.0
1001
ACAD
1000
MTEXTBEGIN
1070
    73
1070
     1
1070
    44
1040
1.0
1070
    74
1070
     0
1000
MTEXTEND
1000
MTEXTBEGIN
1070
    73
1070
     1
1070
    44
1040
1.0
1070
    74
1070
     0
1000
MTEXTEND
  0
POINT
  5
6E5
330
44E
100
AcDbEntity
  8
DEFPOINTS
 62
     0
100
AcDbPoint
 10
312.4337368344003
 20
118.4893155222529
 30
0.0
  0
POINT
  5
6E6
330
44E
100
AcDbEntity
  8
DEFPOINTS
 62
     0
100
AcDbPoint
 10
307.2532368344003
 20
102.4893155222528
 30
0.0
  0
POINT
  5
6E7
330
44E
100
AcDbEntity
  8
DEFPOINTS
 62
     0
100
AcDbPoint
 10
291.9557914186116
 20
102.4893155222528
 30
0.0
  0
ENDBLK
  5
459
330
44E
100
AcDbEntity
  8
0
100
AcDbBlockEnd
  0
BLOCK
  5
467
330
45B
100
AcDbEntity
  8
0
100
AcDbBlockBegin
  2
*D6
 70
     1
 10
0.0
 20
0.0
 30
0.0
  3
*D6
  1

  0
LINE
  5
6E8
330
45B
100
AcDbEntity
  8
SUNPOU
 62
     4
100
AcDbLine
 10
319.3668368344003
 20
77.4893155222529
 30
0.0
 11
300.460202462461
 21
77.4893155222529
 31
0.0
  0
LINE
  5
6E9
330
45B
100
AcDbEntity
  8
SUNPOU
 62
     4
100
AcDbLine
 10
324.4337368344003
 20
71.48930379576663
 30
0.0
 11
300.460202462461
 21
71.48930379576663
 31
0.0
  0
LINE
  5
6EA
330
45B
100
AcDbEntity
  8
SUNPOU
 62
     4
100
AcDbLine
 10
301.9602024624609
 20
80.48931552225289
 30
0.0
 11
301.9602024624609
 21
83.48931552225289
 31
0.0
  0
LINE
  5
6EB
330
45B
100
AcDbEntity
  8
SUNPOU
 62
     4
100
AcDbLine
 10
301.9602024624609
 20
68.48930379576663
 30
0.0
 11
301.9602024624609
 21
65.48930379576663
 31
0.0
  0
LINE
  5
6EC
330
45B
100
AcDbEntity
  8
SUNPOU
 62
     4
100
AcDbLine
 10
301.9602024624609
 20
77.4893155222529
 30
0.0
 11
301.9602024624609
 21
71.48930379576663
 31
0.0
  0
INSERT
  5
6ED
330
45B
100
AcDbEntity
  8
SUNPOU
 62
     4
100
AcDbBlockReference
  2
_OPEN
 10
301.9602024624609
 20
77.4893155222529
 30
0.0
 41
3.0
 42
3.0
 43
3.0
 50
270.0
  0
INSERT
  5
6EE
330
45B
100
AcDbEntity
  8
SUNPOU
 62
     4
100
AcDbBlockReference
  2
_OPEN
 10
301.9602024624609
 20
71.48930379576663
 30
0.0
 41
3.0
 42
3.0
 43
3.0
 50
90.0
  0
MTEXT
  5
6EF
330
45B
100
AcDbEntity
  8
SUNPOU
 62
     4
100
AcDbMText
 10
299.4602024624609
 20
74.48930965900982
 30
0.0
 40
3.0
 41
0.0
 71
     5
 72
     5
  1
\A1;6
 11
0.0000000000000001
 21
1.0
 31
0.0
1001
ACAD
1000
MTEXTBEGIN
1070
    73
1070
     1
1070
    44
1040
1.0
1070
    74
1070
     0
1000
MTEXTEND
1000
MTEXTBEGIN
1070
    73
1070
     1
1070
    44
1040
1.0
1070
    74
1070
     0
1000
MTEXTEND
  0
POINT
  5
6F0
330
45B
100
AcDbEntity
  8
DEFPOINTS
 62
     0
100
AcDbPoint
 10
322.3668368344003
 20
77.4893155222529
 30
0.0
  0
POINT
  5
6F1
330
45B
100
AcDbEntity
  8
DEFPOINTS
 62
     0
100
AcDbPoint
 10
327.4337368344003
 20
71.48930379576663
 30
0.0
  0
POINT
  5
6F2
330
45B
100
AcDbEntity
  8
DEFPOINTS
 62
     0
100
AcDbPoint
 10
301.9602024624609
 20
71.48930379576663
 30
0.0
  0
ENDBLK
  5
468
330
45B
100
AcDbEntity
  8
0
100
AcDbBlockEnd
  0
BLOCK
  5
474
330
46A
100
AcDbEntity
  8
0
100
AcDbBlockBegin
  2
*D7
 70
     1
 10
0.0
 20
0.0
 30
0.0
  3
*D7
  1

  0
LINE
  5
6F3
330
46A
100
AcDbEntity
  8
SUNPOU
 62
     4
100
AcDbLine
 10
309.4337368344003
 20
118.4893155222529
 30
0.0
 11
282.1187837509562
 21
118.4893155222529
 31
0.0
  0
LINE
  5
6F4
330
46A
100
AcDbEntity
  8
SUNPOU
 62
     4
100
AcDbLine
 10
324.4337368344003
 20
71.48930379576667
 30
0.0
 11
282.1187837509562
 21
71.48930379576668
 31
0.0
  0
LINE
  5
6F5
330
46A
100
AcDbEntity
  8
SUNPOU
 62
     4
100
AcDbLine
 10
283.6187837509562
 20
115.4893155222529
 30
0.0
 11
283.6187837509562
 21
74.48930379576669
 31
0.0
  0
INSERT
  5
6F6
330
46A
100
AcDbEntity
  8
SUNPOU
 62
     4
100
AcDbBlockReference
  2
_OPEN
 10
283.6187837509562
 20
118.4893155222529
 30
0.0
 41
3.0
 42
3.0
 43
3.0
 50
90.0
  0
INSERT
  5
6F7
330
46A
100
AcDbEntity
  8
SUNPOU
 62
     4
100
AcDbBlockReference
  2
_OPEN
 10
283.6187837509562
 20
71.48930379576668
 30
0.0
 41
3.0
 42
3.0
 43
3.0
 50
270.0
  0
MTEXT
  5
6F8
330
46A
100
AcDbEntity
  8
SUNPOU
 62
     4
100
AcDbMText
 10
281.1187837509562
 20
94.98930965900983
 30
0.0
 40
3.0
 41
0.0
 71
     5
 72
     5
  1
\A1;47
 11
0.0000000000000001
 21
1.0
 31
0.0
1001
ACAD
1000
MTEXTBEGIN
1070
    73
1070
     1
1070
    44
1040
1.0
1070
    74
1070
     0
1000
MTEXTEND
1000
MTEXTBEGIN
1070
    73
1070
     1
1070
    44
1040
1.0
1070
    74
1070
     0
1000
MTEXTEND
  0
POINT
  5
6F9
330
46A
100
AcDbEntity
  8
DEFPOINTS
 62
     0
100
AcDbPoint
 10
312.4337368344003
 20
118.4893155222529
 30
0.0
  0
POINT
  5
6FA
330
46A
100
AcDbEntity
  8
DEFPOINTS
 62
     0
100
AcDbPoint
 10
327.4337368344003
 20
71.48930379576667
 30
0.0
  0
POINT
  5
6FB
330
46A
100
AcDbEntity
  8
DEFPOINTS
 62
     0
100
AcDbPoint
 10
283.6187837509562
 20
71.48930379576668
 30
0.0
  0
ENDBLK
  5
475
330
46A
100
AcDbEntity
  8
0
100
AcDbBlockEnd
  0
BLOCK
  5
481
330
477
100
AcDbEntity
  8
0
100
AcDbBlockBegin
  2
*D8
 70
     1
 10
0.0
 20
0.0
 30
0.0
  3
*D8
  1

  0
LINE
  5
6FC
330
477
100
AcDbEntity
  8
SUNPOU
 62
     4
100
AcDbLine
 10
312.4337368344003
 20
121.4893155222529
 30
0.0
 11
312.4337368344003
 21
132.0904702484901
 31
0.0
  0
LINE
  5
6FD
330
477
100
AcDbEntity
  8
SUNPOU
 62
     4
100
AcDbLine
 10
342.4337368344003
 20
121.4893155222529
 30
0.0
 11
342.4337368344003
 21
132.0904702484901
 31
0.0
  0
LINE
  5
6FE
330
477
100
AcDbEntity
  8
SUNPOU
 62
     4
100
AcDbLine
 10
315.4337368344003
 20
130.5904702484901
 30
0.0
 11
339.4337368344003
 21
130.5904702484901
 31
0.0
  0
INSERT
  5
6FF
330
477
100
AcDbEntity
  8
SUNPOU
 62
     4
100
AcDbBlockReference
  2
_OPEN
 10
312.4337368344003
 20
130.5904702484901
 30
0.0
 41
3.0
 42
3.0
 43
3.0
 50
180.0
  0
INSERT
  5
700
330
477
100
AcDbEntity
  8
SUNPOU
 62
     4
100
AcDbBlockReference
  2
_OPEN
 10
342.4337368344003
 20
130.5904702484901
 30
0.0
 41
3.0
 42
3.0
 43
3.0
  0
MTEXT
  5
701
330
477
100
AcDbEntity
  8
SUNPOU
 62
     4
100
AcDbMText
 10
327.4337368344003
 20
133.0904702484901
 30
0.0
 40
3.0
 41
0.0
 71
     5
 72
     5
  1
\A1;30
1001
ACAD
1000
MTEXTBEGIN
1070
    73
1070
     1
1070
    44
1040
1.0
1070
    74
1070
     0
1000
MTEXTEND
1000
MTEXTBEGIN
1070
    73
1070
     1
1070
    44
1040
1.0
1070
    74
1070
     0
1000
MTEXTEND
  0
POINT
  5
702
330
477
100
AcDbEntity
  8
DEFPOINTS
 62
     0
100
AcDbPoint
 10
312.4337368344003
 20
118.4893155222529
 30
0.0
  0
POINT
  5
703
330
477
100
AcDbEntity
  8
DEFPOINTS
 62
     0
100
AcDbPoint
 10
342.4337368344003
 20
118.4893155222529
 30
0.0
  0
POINT
  5
704
330
477
100
AcDbEntity
  8
DEFPOINTS
 62
     0
100
AcDbPoint
 10
342.4337368344003
 20
130.5904702484901
 30
0.0
  0
ENDBLK
  5
482
330
477
100
AcDbEntity
  8
0
100
AcDbBlockEnd
  0
BLOCK
  5
48E
330
484
100
AcDbEntity
  8
0
100
AcDbBlockBegin
  2
*D9
 70
     1
 10
0.0
 20
0.0
 30
0.0
  3
*D9
  1

  0
LINE
  5
705
330
484
100
AcDbEntity
  8
SUNPOU
 62
     4
100
AcDbLine
 10
310.9337368344003
 20
109.1818155222529
 30
0.0
 11
310.9337368344003
 21
139.6801020892495
 31
0.0
  0
LINE
  5
706
330
484
100
AcDbEntity
  8
SUNPOU
 62
     4
100
AcDbLine
 10
343.9337368344003
 20
109.1818155222529
 30
0.0
 11
343.9337368344003
 21
139.6801020892495
 31
0.0
  0
LINE
  5
707
330
484
100
AcDbEntity
  8
SUNPOU
 62
     4
100
AcDbLine
 10
313.9337368344003
 20
138.1801020892495
 30
0.0
 11
340.9337368344003
 21
138.1801020892495
 31
0.0
  0
INSERT
  5
708
330
484
100
AcDbEntity
  8
SUNPOU
 62
     4
100
AcDbBlockReference
  2
_OPEN
 10
310.9337368344003
 20
138.1801020892495
 30
0.0
 41
3.0
 42
3.0
 43
3.0
 50
180.0
  0
INSERT
  5
709
330
484
100
AcDbEntity
  8
SUNPOU
 62
     4
100
AcDbBlockReference
  2
_OPEN
 10
343.9337368344003
 20
138.1801020892495
 30
0.0
 41
3.0
 42
3.0
 43
3.0
  0
MTEXT
  5
70A
330
484
100
AcDbEntity
  8
SUNPOU
 62
     4
100
AcDbMText
 10
327.4337368344003
 20
140.6801020892495
 30
0.0
 40
3.0
 41
0.0
 71
     5
 72
     5
  1
\A1;33
1001
ACAD
1000
MTEXTBEGIN
1070
    73
1070
     1
1070
    44
1040
1.0
1070
    74
1070
     0
1000
MTEXTEND
1000
MTEXTBEGIN
1070
    73
1070
     1
1070
    44
1040
1.0
1070
    74
1070
     0
1000
MTEXTEND
  0
POINT
  5
70B
330
484
100
AcDbEntity
  8
DEFPOINTS
 62
     0
100
AcDbPoint
 10
310.9337368344003
 20
106.1818155222528
 30
0.0
  0
POINT
  5
70C
330
484
100
AcDbEntity
  8
DEFPOINTS
 62
     0
100
AcDbPoint
 10
343.9337368344003
 20
106.1818155222528
 30
0.0
  0
POINT
  5
70D
330
484
100
AcDbEntity
  8
DEFPOINTS
 62
     0
100
AcDbPoint
 10
343.9337368344003
 20
138.1801020892495
 30
0.0
  0
ENDBLK
  5
48F
330
484
100
AcDbEntity
  8
0
100
AcDbBlockEnd
  0
BLOCK
  5
49B
330
491
100
AcDbEntity
  8
0
100
AcDbBlockBegin
  2
*D10
 70
     1
 10
0.0
 20
0.0
 30
0.0
  3
*D10
  1

  0
LINE
  5
70E
330
491
100
AcDbEntity
  8
SUNPOU
 62
     4
100
AcDbLine
 10
304.9337368344003
 20
111.4893155222528
 30
0.0
 11
304.9337368344003
 21
147.4751426781861
 31
0.0
  0
LINE
  5
70F
330
491
100
AcDbEntity
  8
SUNPOU
 62
     4
100
AcDbLine
 10
349.9337368344003
 20
111.4893155222528
 30
0.0
 11
349.9337368344003
 21
147.4751426781861
 31
0.0
  0
LINE
  5
710
330
491
100
AcDbEntity
  8
SUNPOU
 62
     4
100
AcDbLine
 10
307.9337368344003
 20
145.9751426781861
 30
0.0
 11
346.9337368344003
 21
145.9751426781861
 31
0.0
  0
INSERT
  5
711
330
491
100
AcDbEntity
  8
SUNPOU
 62
     4
100
AcDbBlockReference
  2
_OPEN
 10
304.9337368344003
 20
145.9751426781861
 30
0.0
 41
3.0
 42
3.0
 43
3.0
 50
180.0
  0
INSERT
  5
712
330
491
100
AcDbEntity
  8
SUNPOU
 62
     4
100
AcDbBlockReference
  2
_OPEN
 10
349.9337368344003
 20
145.9751426781861
 30
0.0
 41
3.0
 42
3.0
 43
3.0
  0
MTEXT
  5
713
330
491
100
AcDbEntity
  8
SUNPOU
 62
     4
100
AcDbMText
 10
327.4337368344003
 20
148.4751426781861
 30
0.0
 40
3.0
 41
0.0
 71
     5
 72
     5
  1
\A1;45
1001
ACAD
1000
MTEXTBEGIN
1070
    73
1070
     1
1070
    44
1040
1.0
1070
    74
1070
     0
1000
MTEXTEND
1000
MTEXTBEGIN
1070
    73
1070
     1
1070
    44
1040
1.0
1070
    74
1070
     0
1000
MTEXTEND
  0
POINT
  5
714
330
491
100
AcDbEntity
  8
DEFPOINTS
 62
     0
100
AcDbPoint
 10
304.9337368344003
 20
108.4893155222528
 30
0.0
  0
POINT
  5
715
330
491
100
AcDbEntity
  8
DEFPOINTS
 62
     0
100
AcDbPoint
 10
349.9337368344003
 20
108.4893155222528
 30
0.0
  0
POINT
  5
716
330
491
100
AcDbEntity
  8
DEFPOINTS
 62
     0
100
AcDbPoint
 10
349.9337368344003
 20
145.9751426781861
 30
0.0
  0
ENDBLK
  5
49C
330
491
100
AcDbEntity
  8
0
100
AcDbBlockEnd
  0
BLOCK
  5
4B1
330
4A7
100
AcDbEntity
  8
0
100
AcDbBlockBegin
  2
*D11
 70
     1
 10
0.0
 20
0.0
 30
0.0
  3
*D11
  1

  0
LINE
  5
717
330
4A7
100
AcDbEntity
  8
SUNPOU
 62
     4
100
AcDbLine
 10
85.43373683440036
 20
106.9893155222529
 30
0.0
 11
59.06609748381424
 21
106.9893155222529
 31
0.0
  0
LINE
  5
718
330
4A7
100
AcDbEntity
  8
SUNPOU
 62
     4
100
AcDbLine
 10
225.4336368344003
 20
71.48931552225289
 30
0.0
 11
59.06609748381423
 21
71.48931552225295
 31
0.0
  0
LINE
  5
719
330
4A7
100
AcDbEntity
  8
SUNPOU
 62
     4
100
AcDbLine
 10
60.56609748381425
 20
103.9893155222529
 30
0.0
 11
60.56609748381424
 21
74.48931552225295
 31
0.0
  0
INSERT
  5
71A
330
4A7
100
AcDbEntity
  8
SUNPOU
 62
     4
100
AcDbBlockReference
  2
_OPEN
 10
60.56609748381425
 20
106.9893155222529
 30
0.0
 41
3.0
 42
3.0
 43
3.0
 50
90.0
  0
INSERT
  5
71B
330
4A7
100
AcDbEntity
  8
SUNPOU
 62
     4
100
AcDbBlockReference
  2
_OPEN
 10
60.56609748381424
 20
71.48931552225295
 30
0.0
 41
3.0
 42
3.0
 43
3.0
 50
270.0
  0
MTEXT
  5
71C
330
4A7
100
AcDbEntity
  8
SUNPOU
 62
     4
100
AcDbMText
 10
58.06609748381423
 20
89.23931552225294
 30
0.0
 40
3.0
 41
0.0
 71
     5
 72
     5
  1
\A1;36
 11
0.0000000000000001
 21
1.0
 31
0.0
1001
ACAD
1000
MTEXTBEGIN
1070
    73
1070
     1
1070
    44
1040
1.0
1070
    74
1070
     0
1000
MTEXTEND
1000
MTEXTBEGIN
1070
    73
1070
     1
1070
    44
1040
1.0
1070
    74
1070
     0
1000
MTEXTEND
  0
POINT
  5
71D
330
4A7
100
AcDbEntity
  8
DEFPOINTS
 62
     0
100
AcDbPoint
 10
88.43373683440034
 20
106.9893155222529
 30
0.0
  0
POINT
  5
71E
330
4A7
100
AcDbEntity
  8
DEFPOINTS
 62
     0
100
AcDbPoint
 10
228.4336368344003
 20
71.48931552225289
 30
0.0
  0
POINT
  5
71F
330
4A7
100
AcDbEntity
  8
DEFPOINTS
 62
     0
100
AcDbPoint
 10
60.56609748381424
 20
71.48931552225295
 30
0.0
  0
ENDBLK
  5
4B2
330
4A7
100
AcDbEntity
  8
0
100
AcDbBlockEnd
  0
BLOCK
  5
4C0
330
4B4
100
AcDbEntity
  8
0
100
AcDbBlockBegin
  2
*D12
 70
     1
 10
0.0
 20
0.0
 30
0.0
  3
*D12
  1

  0
LINE
  5
720
330
4B4
100
AcDbEntity
  8
SUNPOU
 62
     4
100
AcDbLine
 10
85.38443683440041
 20
106.9893155222529
 30
0.0
 11
68.37860436430265
 21
106.9893155222529
 31
0.0
  0
LINE
  5
721
330
4B4
100
AcDbEntity
  8
SUNPOU
 62
     4
100
AcDbLine
 10
86.83363683440035
 20
101.9893155222528
 30
0.0
 11
68.37860436430265
 21
101.9893155222528
 31
0.0
  0
LINE
  5
722
330
4B4
100
AcDbEntity
  8
SUNPOU
 62
     4
100
AcDbLine
 10
69.87860436430264
 20
109.9893155222529
 30
0.0
 11
69.87860436430264
 21
112.9893155222528
 31
0.0
  0
LINE
  5
723
330
4B4
100
AcDbEntity
  8
SUNPOU
 62
     4
100
AcDbLine
 10
69.87860436430264
 20
98.9893155222529
 30
0.0
 11
69.87860436430263
 21
95.98931552225289
 31
0.0
  0
LINE
  5
724
330
4B4
100
AcDbEntity
  8
SUNPOU
 62
     4
100
AcDbLine
 10
69.87860436430264
 20
106.9893155222529
 30
0.0
 11
69.87860436430264
 21
101.9893155222528
 31
0.0
  0
INSERT
  5
725
330
4B4
100
AcDbEntity
  8
SUNPOU
 62
     4
100
AcDbBlockReference
  2
_OPEN
 10
69.87860436430264
 20
106.9893155222529
 30
0.0
 41
3.0
 42
3.0
 43
3.0
 50
270.0
  0
INSERT
  5
726
330
4B4
100
AcDbEntity
  8
SUNPOU
 62
     4
100
AcDbBlockReference
  2
_OPEN
 10
69.87860436430264
 20
101.9893155222528
 30
0.0
 41
3.0
 42
3.0
 43
3.0
 50
90.0
  0
MTEXT
  5
727
330
4B4
100
AcDbEntity
  8
SUNPOU
 62
     4
100
AcDbMText
 10
67.37860436430262
 20
104.4893155222529
 30
0.0
 40
3.0
 41
0.0
 71
     5
 72
     5
  1
\A1;5
 11
0.0000000000000001
 21
1.0
 31
0.0
1001
ACAD
1000
MTEXTBEGIN
1070
    73
1070
     1
1070
    44
1040
1.0
1070
    74
1070
     0
1000
MTEXTEND
1000
MTEXTBEGIN
1070
    73
1070
     1
1070
    44
1040
1.0
1070
    74
1070
     0
1000
MTEXTEND
  0
POINT
  5
728
330
4B4
100
AcDbEntity
  8
DEFPOINTS
 62
     0
100
AcDbPoint
 10
88.3844368344004
 20
106.9893155222529
 30
0.0
  0
POINT
  5
729
330
4B4
100
AcDbEntity
  8
DEFPOINTS
 62
     0
100
AcDbPoint
 10
89.83363683440035
 20
101.9893155222528
 30
0.0
  0
POINT
  5
72A
330
4B4
100
AcDbEntity
  8
DEFPOINTS
 62
     0
100
AcDbPoint
 10
69.87860436430264
 20
101.9893155222528
 30
0.0
  0
ENDBLK
  5
4C1
330
4B4
100
AcDbEntity
  8
0
100
AcDbBlockEnd
  0
BLOCK
  5
4CF
330
4C3
100
AcDbEntity
  8
0
100
AcDbBlockBegin
  2
*D13
 70
     1
 10
0.0
 20
0.0
 30
0.0
  3
*D13
  1

  0
LINE
  5
72B
330
4C3
100
AcDbEntity
  8
SUNPOU
 62
     4
100
AcDbLine
 10
228.4336368344003
 20
68.48931552225289
 30
0.0
 11
228.4336368344003
 21
45.65664102404286
 31
0.0
  0
LINE
  5
72C
330
4C3
100
AcDbEntity
  8
SUNPOU
 62
     4
100
AcDbLine
 10
229.4336368344003
 20
68.48931552225289
 30
0.0
 11
229.4336368344003
 21
45.65664102404286
 31
0.0
  0
LINE
  5
72D
330
4C3
100
AcDbEntity
  8
SUNPOU
 62
     4
100
AcDbLine
 10
225.4336368344003
 20
47.15664102404287
 30
0.0
 11
222.4336368344003
 21
47.15664102404287
 31
0.0
  0
LINE
  5
72E
330
4C3
100
AcDbEntity
  8
SUNPOU
 62
     4
100
AcDbLine
 10
232.4336368344003
 20
47.15664102404287
 30
0.0
 11
244.9336368344003
 21
47.15664102404287
 31
0.0
  0
LINE
  5
72F
330
4C3
100
AcDbEntity
  8
SUNPOU
 62
     4
100
AcDbLine
 10
228.4336368344003
 20
47.15664102404287
 30
0.0
 11
229.4336368344003
 21
47.15664102404287
 31
0.0
  0
INSERT
  5
730
330
4C3
100
AcDbEntity
  8
SUNPOU
 62
     4
100
AcDbBlockReference
  2
_OPEN
 10
228.4336368344003
 20
47.15664102404287
 30
0.0
 41
3.0
 42
3.0
 43
3.0
  0
INSERT
  5
731
330
4C3
100
AcDbEntity
  8
SUNPOU
 62
     4
100
AcDbBlockReference
  2
_OPEN
 10
229.4336368344003
 20
47.15664102404287
 30
0.0
 41
3.0
 42
3.0
 43
3.0
 50
180.0
  0
MTEXT
  5
732
330
4C3
100
AcDbEntity
  8
SUNPOU
 62
     4
100
AcDbMText
 10
240.1836368344003
 20
49.65664102404287
 30
0.0
 40
3.0
 41
0.0
 71
     5
 72
     5
  1
\A1;t1.0
1001
ACAD
1000
MTEXTBEGIN
1070
    73
1070
     1
1070
    44
1040
1.0
1070
    74
1070
     0
1000
MTEXTEND
1000
MTEXTBEGIN
1070
    73
1070
     1
1070
    44
1040
1.0
1070
    74
1070
     0
1000
MTEXTEND
  0
POINT
  5
733
330
4C3
100
AcDbEntity
  8
DEFPOINTS
 62
     0
100
AcDbPoint
 10
228.4336368344003
 20
71.48931552225289
 30
0.0
  0
POINT
  5
734
330
4C3
100
AcDbEntity
  8
DEFPOINTS
 62
     0
100
AcDbPoint
 10
229.4336368344003
 20
71.48931552225289
 30
0.0
  0
POINT
  5
735
330
4C3
100
AcDbEntity
  8
DEFPOINTS
 62
     0
100
AcDbPoint
 10
229.4336368344003
 20
47.15664102404287
 30
0.0
  0
ENDBLK
  5
4D0
330
4C3
100
AcDbEntity
  8
0
100
AcDbBlockEnd
  0
BLOCK
  5
4F2
330
4E8
100
AcDbEntity
  8
0
100
AcDbBlockBegin
  2
*D14
 70
     1
 10
0.0
 20
0.0
 30
0.0
  3
*D14
  1

  0
LINE
  5
736
330
4E8
100
AcDbEntity
  8
SUNPOU
 62
     4
100
AcDbLine
 10
236.4036368344003
 20
223.6579155222528
 30
0.0
 11
251.6968412349101
 21
223.6579155222528
 31
0.0
  0
LINE
  5
737
330
4E8
100
AcDbEntity
  8
SUNPOU
 62
     4
100
AcDbLine
 10
236.4035368344003
 20
190.6579155222528
 30
0.0
 11
251.6968412349101
 21
190.6579155222528
 31
0.0
  0
LINE
  5
738
330
4E8
100
AcDbEntity
  8
SUNPOU
 62
     4
100
AcDbLine
 10
250.1968412349101
 20
220.6579155222529
 30
0.0
 11
250.1968412349101
 21
193.6579155222528
 31
0.0
  0
INSERT
  5
739
330
4E8
100
AcDbEntity
  8
SUNPOU
 62
     4
100
AcDbBlockReference
  2
_OPEN
 10
250.1968412349101
 20
223.6579155222528
 30
0.0
 41
3.0
 42
3.0
 43
3.0
 50
90.0
  0
INSERT
  5
73A
330
4E8
100
AcDbEntity
  8
SUNPOU
 62
     4
100
AcDbBlockReference
  2
_OPEN
 10
250.1968412349101
 20
190.6579155222528
 30
0.0
 41
3.0
 42
3.0
 43
3.0
 50
270.0
  0
MTEXT
  5
73B
330
4E8
100
AcDbEntity
  8
SUNPOU
 62
     4
100
AcDbMText
 10
247.6968412349101
 20
207.1579155222529
 30
0.0
 40
3.0
 41
0.0
 71
     5
 72
     5
  1
\A1;33
 11
0.0000000000000001
 21
1.0
 31
0.0
1001
ACAD
1000
MTEXTBEGIN
1070
    73
1070
     1
1070
    44
1040
1.0
1070
    74
1070
     0
1000
MTEXTEND
1000
MTEXTBEGIN
1070
    73
1070
     1
1070
    44
1040
1.0
1070
    74
1070
     0
1000
MTEXTEND
  0
POINT
  5
73C
330
4E8
100
AcDbEntity
  8
DEFPOINTS
 62
     0
100
AcDbPoint
 10
233.4036368344003
 20
223.6579155222528
 30
0.0
  0
POINT
  5
73D
330
4E8
100
AcDbEntity
  8
DEFPOINTS
 62
     0
100
AcDbPoint
 10
233.4035368344003
 20
190.6579155222528
 30
0.0
  0
POINT
  5
73E
330
4E8
100
AcDbEntity
  8
DEFPOINTS
 62
     0
100
AcDbPoint
 10
250.1968412349101
 20
190.6579155222528
 30
0.0
  0
ENDBLK
  5
4F3
330
4E8
100
AcDbEntity
  8
0
100
AcDbBlockEnd
  0
BLOCK
  5
4FF
330
4F5
100
AcDbEntity
  8
0
100
AcDbBlockBegin
  2
*D15
 70
     1
 10
0.0
 20
0.0
 30
0.0
  3
*D15
  1

  0
LINE
  5
73F
330
4F5
100
AcDbEntity
  8
SUNPOU
 62
     4
100
AcDbLine
 10
232.4337368344003
 20
184.6579155222529
 30
0.0
 11
260.8377093214233
 21
184.6579155222529
 31
0.0
  0
LINE
  5
740
330
4F5
100
AcDbEntity
  8
SUNPOU
 62
     4
100
AcDbLine
 10
232.4337368344003
 20
229.6579155222528
 30
0.0
 11
260.8377093214233
 21
229.6579155222528
 31
0.0
  0
LINE
  5
741
330
4F5
100
AcDbEntity
  8
SUNPOU
 62
     4
100
AcDbLine
 10
259.3377093214233
 20
187.6579155222529
 30
0.0
 11
259.3377093214233
 21
226.6579155222529
 31
0.0
  0
INSERT
  5
742
330
4F5
100
AcDbEntity
  8
SUNPOU
 62
     4
100
AcDbBlockReference
  2
_OPEN
 10
259.3377093214233
 20
184.6579155222529
 30
0.0
 41
3.0
 42
3.0
 43
3.0
 50
270.0
  0
INSERT
  5
743
330
4F5
100
AcDbEntity
  8
SUNPOU
 62
     4
100
AcDbBlockReference
  2
_OPEN
 10
259.3377093214233
 20
229.6579155222528
 30
0.0
 41
3.0
 42
3.0
 43
3.0
 50
90.0
  0
MTEXT
  5
744
330
4F5
100
AcDbEntity
  8
SUNPOU
 62
     4
100
AcDbMText
 10
256.8377093214232
 20
207.1579155222529
 30
0.0
 40
3.0
 41
0.0
 71
     5
 72
     5
  1
\A1;45
 11
0.0000000000000001
 21
1.0
 31
0.0
1001
ACAD
1000
MTEXTBEGIN
1070
    73
1070
     1
1070
    44
1040
1.0
1070
    74
1070
     0
1000
MTEXTEND
1000
MTEXTBEGIN
1070
    73
1070
     1
1070
    44
1040
1.0
1070
    74
1070
     0
1000
MTEXTEND
  0
POINT
  5
745
330
4F5
100
AcDbEntity
  8
DEFPOINTS
 62
     0
100
AcDbPoint
 10
229.4337368344003
 20
184.6579155222529
 30
0.0
  0
POINT
  5
746
330
4F5
100
AcDbEntity
  8
DEFPOINTS
 62
     0
100
AcDbPoint
 10
229.4337368344003
 20
229.6579155222528
 30
0.0
  0
POINT
  5
747
330
4F5
100
AcDbEntity
  8
DEFPOINTS
 62
     0
100
AcDbPoint
 10
259.3377093214233
 20
229.6579155222528
 30
0.0
  0
ENDBLK
  5
500
330
4F5
100
AcDbEntity
  8
0
100
AcDbBlockEnd
  0
BLOCK
  5
50D
330
503
100
AcDbEntity
  8
0
100
AcDbBlockBegin
  2
*D16
 70
     1
 10
0.0
 20
0.0
 30
0.0
  3
*D16
  1

  0
LINE
  5
748
330
503
100
AcDbEntity
  8
SUNPOU
 62
     4
100
AcDbLine
 10
89.83373683440035
 20
213.6579155222528
 30
0.0
 11
66.17484785451893
 21
213.6579155222528
 31
0.0
  0
LINE
  5
749
330
503
100
AcDbEntity
  8
SUNPOU
 62
     4
100
AcDbLine
 10
89.83373683440035
 20
200.6579155222528
 30
0.0
 11
66.17484785451893
 21
200.6579155222528
 31
0.0
  0
LINE
  5
74A
330
503
100
AcDbEntity
  8
SUNPOU
 62
     4
100
AcDbLine
 10
67.67484785451893
 20
210.6579155222529
 30
0.0
 11
67.67484785451893
 21
203.6579155222528
 31
0.0
  0
INSERT
  5
74B
330
503
100
AcDbEntity
  8
SUNPOU
 62
     4
100
AcDbBlockReference
  2
_OPEN
 10
67.67484785451893
 20
213.6579155222528
 30
0.0
 41
3.0
 42
3.0
 43
3.0
 50
90.0
  0
INSERT
  5
74C
330
503
100
AcDbEntity
  8
SUNPOU
 62
     4
100
AcDbBlockReference
  2
_OPEN
 10
67.67484785451893
 20
200.6579155222528
 30
0.0
 41
3.0
 42
3.0
 43
3.0
 50
270.0
  0
MTEXT
  5
74D
330
503
100
AcDbEntity
  8
SUNPOU
 62
     4
100
AcDbMText
 10
65.1748478545189
 20
207.1579155222529
 30
0.0
 40
3.0
 41
0.0
 71
     5
 72
     5
  1
\A1;13
 11
0.0000000000000001
 21
1.0
 31
0.0
1001
ACAD
1000
MTEXTBEGIN
1070
    73
1070
     1
1070
    44
1040
1.0
1070
    74
1070
     0
1000
MTEXTEND
1000
MTEXTBEGIN
1070
    73
1070
     1
1070
    44
1040
1.0
1070
    74
1070
     0
1000
MTEXTEND
  0
POINT
  5
74E
330
503
100
AcDbEntity
  8
DEFPOINTS
 62
     0
100
AcDbPoint
 10
92.83373683440036
 20
213.6579155222528
 30
0.0
  0
POINT
  5
74F
330
503
100
AcDbEntity
  8
DEFPOINTS
 62
     0
100
AcDbPoint
 10
92.83373683440036
 20
200.6579155222528
 30
0.0
  0
POINT
  5
750
330
503
100
AcDbEntity
  8
DEFPOINTS
 62
     0
100
AcDbPoint
 10
67.67484785451893
 20
200.6579155222528
 30
0.0
  0
ENDBLK
  5
50E
330
503
100
AcDbEntity
  8
0
100
AcDbBlockEnd
  0
BLOCK
  5
51A
330
510
100
AcDbEntity
  8
0
100
AcDbBlockBegin
  2
*D17
 70
     1
 10
0.0
 20
0.0
 30
0.0
  3
*D17
  1

  0
LINE
  5
751
330
510
100
AcDbEntity
  8
SUNPOU
 62
     4
100
AcDbLine
 10
85.43373683440036
 20
217.1579155222528
 30
0.0
 11
57.52248947291105
 21
217.1579155222529
 31
0.0
  0
LINE
  5
752
330
510
100
AcDbEntity
  8
SUNPOU
 62
     4
100
AcDbLine
 10
85.43373683440036
 20
197.1579155222529
 30
0.0
 11
57.52248947291104
 21
197.1579155222529
 31
0.0
  0
LINE
  5
753
330
510
100
AcDbEntity
  8
SUNPOU
 62
     4
100
AcDbLine
 10
59.02248947291106
 20
214.1579155222529
 30
0.0
 11
59.02248947291105
 21
200.1579155222529
 31
0.0
  0
INSERT
  5
754
330
510
100
AcDbEntity
  8
SUNPOU
 62
     4
100
AcDbBlockReference
  2
_OPEN
 10
59.02248947291106
 20
217.1579155222529
 30
0.0
 41
3.0
 42
3.0
 43
3.0
 50
90.0
  0
INSERT
  5
755
330
510
100
AcDbEntity
  8
SUNPOU
 62
     4
100
AcDbBlockReference
  2
_OPEN
 10
59.02248947291105
 20
197.1579155222529
 30
0.0
 41
3.0
 42
3.0
 43
3.0
 50
270.0
  0
MTEXT
  5
756
330
510
100
AcDbEntity
  8
SUNPOU
 62
     4
100
AcDbMText
 10
56.52248947291102
 20
207.1579155222529
 30
0.0
 40
3.0
 41
0.0
 71
     5
 72
     5
  1
\A1;20
 11
0.0000000000000001
 21
1.0
 31
0.0
1001
ACAD
1000
MTEXTBEGIN
1070
    73
1070
     1
1070
    44
1040
1.0
1070
    74
1070
     0
1000
MTEXTEND
1000
MTEXTBEGIN
1070
    73
1070
     1
1070
    44
1040
1.0
1070
    74
1070
     0
1000
MTEXTEND
  0
POINT
  5
757
330
510
100
AcDbEntity
  8
DEFPOINTS
 62
     0
100
AcDbPoint
 10
88.43373683440034
 20
217.1579155222528
 30
0.0
  0
POINT
  5
758
330
510
100
AcDbEntity
  8
DEFPOINTS
 62
     0
100
AcDbPoint
 10
88.43373683440034
 20
197.1579155222529
 30
0.0
  0
POINT
  5
759
330
510
100
AcDbEntity
  8
DEFPOINTS
 62
     0
100
AcDbPoint
 10
59.02248947291105
 20
197.1579155222529
 30
0.0
  0
ENDBLK
  5
51B
330
510
100
AcDbEntity
  8
0
100
AcDbBlockEnd
  0
BLOCK
  5
527
330
51D
100
AcDbEntity
  8
0
100
AcDbBlockBegin
  2
*D18
 70
     1
 10
0.0
 20
0.0
 30
0.0
  3
*D18
  1

  0
LINE
  5
75A
330
51D
100
AcDbEntity
  8
SUNPOU
 62
     4
100
AcDbLine
 10
181.4336956579297
 20
118.4893155222529
 30
0.0
 11
161.1166257539766
 21
118.4893155222529
 31
0.0
  0
LINE
  5
75B
330
51D
100
AcDbEntity
  8
SUNPOU
 62
     4
100
AcDbLine
 10
155.8866368344003
 20
98.48931552225289
 30
0.0
 11
164.1166257539766
 21
98.48931552225288
 31
0.0
  0
LINE
  5
75C
330
51D
100
AcDbEntity
  8
SUNPOU
 62
     4
100
AcDbLine
 10
162.6166257539766
 20
115.4893155222528
 30
0.0
 11
162.6166257539766
 21
101.4893155222528
 31
0.0
  0
INSERT
  5
75D
330
51D
100
AcDbEntity
  8
SUNPOU
 62
     4
100
AcDbBlockReference
  2
_OPEN
 10
162.6166257539766
 20
118.4893155222529
 30
0.0
 41
3.0
 42
3.0
 43
3.0
 50
90.0
  0
INSERT
  5
75E
330
51D
100
AcDbEntity
  8
SUNPOU
 62
     4
100
AcDbBlockReference
  2
_OPEN
 10
162.6166257539766
 20
98.48931552225288
 30
0.0
 41
3.0
 42
3.0
 43
3.0
 50
270.0
  0
MTEXT
  5
75F
330
51D
100
AcDbEntity
  8
SUNPOU
 62
     4
100
AcDbMText
 10
160.1166257539766
 20
108.4893155222529
 30
0.0
 40
3.0
 41
0.0
 71
     5
 72
     5
  1
\A1;20
 11
0.0000000000000001
 21
1.0
 31
0.0
1001
ACAD
1000
MTEXTBEGIN
1070
    73
1070
     1
1070
    44
1040
1.0
1070
    74
1070
     0
1000
MTEXTEND
1000
MTEXTBEGIN
1070
    73
1070
     1
1070
    44
1040
1.0
1070
    74
1070
     0
1000
MTEXTEND
  0
POINT
  5
760
330
51D
100
AcDbEntity
  8
DEFPOINTS
 62
     0
100
AcDbPoint
 10
184.4336956579297
 20
118.4893155222529
 30
0.0
  0
POINT
  5
761
330
51D
100
AcDbEntity
  8
DEFPOINTS
 62
     0
100
AcDbPoint
 10
152.8866368344003
 20
98.48931552225289
 30
0.0
  0
POINT
  5
762
330
51D
100
AcDbEntity
  8
DEFPOINTS
 62
     0
100
AcDbPoint
 10
162.6166257539766
 20
98.48931552225288
 30
0.0
  0
ENDBLK
  5
528
330
51D
100
AcDbEntity
  8
0
100
AcDbBlockEnd
  0
ENDSEC
  0
SECTION
  2
ENTITIES
  0
LINE
  5
2C4
330
1A
100
AcDbEntity
  8
NOKITOI
  6
PHANTOM
 62
     8
 48
5.0
100
AcDbLine
 10
109.4851368344004
 20
58.28531552225289
 30
0.0
 11
175.7157368344004
 21
58.28521552225303
 31
0.0
  0
LINE
  5
2C5
330
1A
100
AcDbEntity
  8
NOKITOI
  6
PHANTOM
 62
     8
 48
5.0
100
AcDbLine
 10
175.7157368344004
 20
58.28521552225303
 30
0.0
 11
109.4851368344004
 21
58.28531552225289
 31
0.0
  0
LINE
  5
2C6
330
1A
100
AcDbEntity
  8
NOKITOI
  6
PHANTOM
 62
     8
 48
5.0
100
AcDbLine
 10
114.8008368344004
 20
59.57871552225291
 30
0.0
 11
170.4000368344004
 21
59.57861552225288
 31
0.0
  0
LINE
  5
2C7
330
1A
100
AcDbEntity
  8
NOKITOI
  6
PHANTOM
 62
     8
 48
5.0
100
AcDbLine
 10
99.58353683440034
 20
71.40691552225288
 30
0.0
 11
93.65253683440041
 21
99.57681552225304
 31
0.0
  0
LINE
  5
2C8
330
1A
100
AcDbEntity
  8
NOKITOI
  6
PHANTOM
 62
     8
 48
5.0
100
AcDbLine
 10
98.47493683440042
 20
70.39401552225289
 30
0.0
 11
92.63633683440026
 21
98.12531552225303
 31
0.0
  0
LINE
  5
2C9
330
1A
100
AcDbEntity
  8
NOKITOI
  6
PHANTOM
 62
     8
 48
5.0
100
AcDbLine
 10
110.1600368344003
 20
59.5853155222529
 30
0.0
 11
112.8018368344003
 21
59.5853155222529
 31
0.0
  0
LINE
  5
2CA
330
1A
100
AcDbEntity
  8
NOKITOI
  6
PHANTOM
 62
     8
 48
5.0
100
AcDbLine
 10
112.9395368344003
 20
66.97501552225301
 30
0.0
 11
106.7186368344004
 21
66.97501552225301
 31
0.0
  0
LINE
  5
2CB
330
1A
100
AcDbEntity
  8
NOKITOI
  6
PHANTOM
 62
     8
 48
5.0
100
AcDbLine
 10
114.6019368344004
 20
68.27501552225303
 30
0.0
 11
104.6912368344004
 21
68.27501552225303
 31
0.0
  0
ARC
  5
2CC
330
1A
100
AcDbEntity
  8
NOKITOI
  6
PHANTOM
 62
     8
 48
5.0
100
AcDbCircle
 10
95.71491067319131
 20
57.17897541276901
 30
0.0
 40
14.22848866365036
100
AcDbArc
 50
51.52529185494234
 51
71.45345265407179
  0
ARC
  5
2CD
330
1A
100
AcDbEntity
  8
NOKITOI
  6
PHANTOM
 62
     8
 48
5.0
100
AcDbCircle
 10
95.71484390418723
 20
57.1790075493592
 30
0.0
 40
12.93471022655885
100
AcDbArc
 50
8.676219579622188
 51
74.45245455808946
  0
ARC
  5
2CE
330
1A
100
AcDbEntity
  8
NOKITOI
  6
PHANTOM
 62
     8
 48
5.0
100
AcDbCircle
 10
95.71484203141372
 20
57.17900490648489
 30
0.0
 40
14.23472333170272
100
AcDbArc
 50
11.37541821407346
 51
40.79334907830746
  0
ARC
  5
2CF
330
1A
100
AcDbEntity
  8
NOKITOI
  6
PHANTOM
 62
     8
 48
5.0
100
AcDbCircle
 10
110.1601137932722
 20
60.08533438654123
 30
0.0
 40
0.5000188648192144
100
AcDbArc
 50
191.386728855441
 51
270.0026402191978
  0
ARC
  5
2D0
330
1A
100
AcDbEntity
  8
NOKITOI
  6
PHANTOM
 62
     8
 48
5.0
100
AcDbCircle
 10
109.485144448418
 20
59.28030898200899
 30
0.0
 40
0.9949934597852239
100
AcDbArc
 50
188.6761125650601
 51
269.9995615538234
  0
ARC
  5
2D1
330
1A
100
AcDbEntity
  8
NOKITOI
  6
PHANTOM
 62
     8
 48
5.0
100
AcDbCircle
 10
106.7186404937035
 20
66.67502351413259
 30
0.0
 40
0.2999920081427447
100
AcDbArc
 50
90.00069889403132
 51
220.79672841758
  0
ARC
  5
2D2
330
1A
100
AcDbEntity
  8
NOKITOI
  6
PHANTOM
 62
     8
 48
5.0
100
AcDbCircle
 10
104.6912401467594
 20
68.47401436646757
 30
0.0
 40
0.1989988442421132
100
AcDbArc
 50
231.5280949042402
 51
269.9990463050545
  0
ARC
  5
2D3
330
1A
100
AcDbEntity
  8
NOKITOI
  6
PHANTOM
 62
     8
 48
5.0
100
AcDbCircle
 10
100.5571567161718
 20
71.61189318517293
 30
0.0
 40
0.995060928010462
100
AcDbArc
 50
191.8877567214141
 51
251.4524867922931
  0
ARC
  5
2D4
330
1A
100
AcDbEntity
  8
NOKITOI
  6
PHANTOM
 62
     8
 48
5.0
100
AcDbCircle
 10
99.44857685878789
 20
70.59897285802708
 30
0.0
 40
0.9949785960395137
100
AcDbArc
 50
191.8875585738771
 51
254.4495841050101
  0
LINE
  5
2D5
330
1A
100
AcDbEntity
  8
NOKITOI
  6
PHANTOM
 62
     8
 48
5.0
100
AcDbLine
 10
114.6018368344003
 20
59.77771552225303
 30
0.0
 11
114.6019368344004
 21
68.27501552225303
 31
0.0
  0
LINE
  5
2D6
330
1A
100
AcDbEntity
  8
NOKITOI
  6
PHANTOM
 62
     8
 48
5.0
100
AcDbLine
 10
113.3018368344003
 20
60.08531552225301
 30
0.0
 11
113.3018368344003
 21
66.61261552225304
 31
0.0
  0
ARC
  5
2D7
330
1A
100
AcDbEntity
  8
NOKITOI
  6
PHANTOM
 62
     8
 48
5.0
100
AcDbCircle
 10
112.8018368344002
 20
60.08531552225296
 30
0.0
 40
0.5000000000000569
100
AcDbArc
 50
270.0000000000065
 51
0.0000000000065138
  0
ARC
  5
2D8
330
1A
100
AcDbEntity
  8
NOKITOI
  6
PHANTOM
 62
     8
 48
5.0
100
AcDbCircle
 10
114.8008368344004
 20
59.77771552225298
 30
0.0
 40
0.1990000000000691
100
AcDbArc
 50
179.9999999999837
 51
269.9999999999837
  0
LINE
  5
2D9
330
1A
100
AcDbEntity
  8
NOKITOI
  6
PHANTOM
 62
     8
 48
5.0
100
AcDbLine
 10
113.7968368344003
 20
67.46991552225288
 30
0.0
 11
112.9395368344003
 21
66.97501552225301
 31
0.0
  0
LINE
  5
2DA
330
1A
100
AcDbEntity
  8
NOKITOI
  6
PHANTOM
 62
     8
 48
5.0
100
AcDbLine
 10
113.7968368344003
 20
67.46991552225288
 30
0.0
 11
113.3018368344003
 21
66.61261552225304
 31
0.0
  0
LINE
  5
2DB
330
1A
100
AcDbEntity
  8
NOKITOI
  6
PHANTOM
 62
     8
 48
5.0
100
AcDbLine
 10
90.52613683440041
 20
103.083015522253
 30
0.0
 11
90.52613683440041
 21
105.496915522253
 31
0.0
  0
LINE
  5
2DC
330
1A
100
AcDbEntity
  8
NOKITOI
  6
PHANTOM
 62
     8
 48
5.0
100
AcDbLine
 10
86.89193683440034
 20
105.496915522253
 30
0.0
 11
86.89193683440034
 21
101.566715522253
 31
0.0
  0
LINE
  5
2DD
330
1A
100
AcDbEntity
  8
NOKITOI
  6
PHANTOM
 62
     8
 48
5.0
100
AcDbLine
 10
91.81953683440033
 20
107.2878155222528
 30
0.0
 11
91.81953683440033
 21
103.083015522253
 31
0.0
  0
LINE
  5
2DE
330
1A
100
AcDbEntity
  8
NOKITOI
  6
PHANTOM
 62
     8
 48
5.0
100
AcDbLine
 10
85.59843683440046
 20
99.27831552225288
 30
0.0
 11
85.59843683440046
 21
107.2878155222528
 31
0.0
  0
LINE
  5
2DF
330
1A
100
AcDbEntity
  8
NOKITOI
  6
PHANTOM
 62
     8
 48
5.0
100
AcDbLine
 10
92.44163683440048
 20
98.28331552225288
 30
0.0
 11
86.59343683440047
 21
98.28331552225288
 31
0.0
  0
ARC
  5
2E0
330
1A
100
AcDbEntity
  8
NOKITOI
  6
PHANTOM
 62
     8
 48
5.0
100
AcDbCircle
 10
88.88188683440036
 20
101.566765522253
 30
0.0
 40
1.989950000628206
100
AcDbArc
 50
180.0014396286237
 51
270.0014396286237
  0
ARC
  5
2E1
330
1A
100
AcDbEntity
  8
NOKITOI
  6
PHANTOM
 62
     8
 48
5.0
100
AcDbCircle
 10
86.59343683440047
 20
99.27831552225288
 30
0.0
 40
0.9950000000000045
100
AcDbArc
 50
180.0
 51
270.0
  0
LINE
  5
2E2
330
1A
100
AcDbEntity
  8
NOKITOI
  6
PHANTOM
 62
     8
 48
5.0
100
AcDbLine
 10
91.81953683440033
 20
103.083015522253
 30
0.0
 11
90.52613683440041
 21
103.083015522253
 31
0.0
  0
LINE
  5
2E3
330
1A
100
AcDbEntity
  8
NOKITOI
  6
PHANTOM
 62
     8
 48
5.0
100
AcDbLine
 10
88.88193683440047
 20
99.57681552225304
 30
0.0
 11
93.65253683440041
 21
99.57681552225304
 31
0.0
  0
ARC
  5
2E4
330
1A
100
AcDbEntity
  8
NOKITOI
  6
PHANTOM
 62
     8
 48
5.0
100
AcDbCircle
 10
92.44161839178618
 20
98.08433048568975
 30
0.0
 40
0.1989850374177657
100
AcDbArc
 50
11.88631382809341
 51
89.9946896310665
  0
LINE
  5
2E5
330
1A
100
AcDbEntity
  8
NOKITOI
  6
PHANTOM
 62
     8
 48
5.0
100
AcDbLine
 10
86.59343683440047
 20
108.282815522253
 30
0.0
 11
90.82463683440041
 21
108.282815522253
 31
0.0
  0
ARC
  5
2E6
330
1A
100
AcDbEntity
  8
NOKITOI
  6
PHANTOM
 62
     8
 48
5.0
100
AcDbCircle
 10
88.38438683440029
 20
105.4968655222529
 30
0.0
 40
1.49245000083754
100
AcDbArc
 50
89.99808047909004
 51
179.99808047909
  0
ARC
  5
2E7
330
1A
100
AcDbEntity
  8
NOKITOI
  6
PHANTOM
 62
     8
 48
5.0
100
AcDbCircle
 10
86.59343683440047
 20
107.2878155222529
 30
0.0
 40
0.9950000000000613
100
AcDbArc
 50
90.00000000000325
 51
180.0000000000032
  0
ARC
  5
2E8
330
1A
100
AcDbEntity
  8
NOKITOI
  6
PHANTOM
 62
     8
 48
5.0
100
AcDbCircle
 10
90.8245868344003
 20
107.287865522253
 30
0.0
 40
0.9949500012563332
100
AcDbArc
 50
359.9971206704047
 51
89.99712067040476
  0
ARC
  5
2E9
330
1A
100
AcDbEntity
  8
NOKITOI
  6
PHANTOM
 62
     8
 48
5.0
100
AcDbCircle
 10
89.03363683440035
 20
105.4969155222529
 30
0.0
 40
1.492399999999918
100
AcDbArc
 50
0.0000000000024427
 51
90.00000000000161
  0
LINE
  5
2EA
330
1A
100
AcDbEntity
  8
NOKITOI
  6
PHANTOM
 62
     8
 48
5.0
100
AcDbLine
 10
89.03363683440035
 20
106.9893155222529
 30
0.0
 11
88.3844368344004
 21
106.9893155222529
 31
0.0
  0
LINE
  5
2EB
330
1A
100
AcDbEntity
  8
NOKITOI
  6
PHANTOM
 62
     8
 48
5.0
100
AcDbLine
 10
186.7260368344004
 20
70.39381552225288
 30
0.0
 11
192.5647368344002
 21
98.12521552225289
 31
0.0
  0
LINE
  5
2EC
330
1A
100
AcDbEntity
  8
NOKITOI
  6
PHANTOM
 62
     8
 48
5.0
100
AcDbLine
 10
185.6173368344004
 20
71.40631552225304
 30
0.0
 11
191.0723368344003
 21
97.31521552225288
 31
0.0
  0
ARC
  5
2ED
330
1A
100
AcDbEntity
  8
NOKITOI
  6
PHANTOM
 62
     8
 48
5.0
100
AcDbCircle
 10
189.4859256780795
 20
57.17900294077884
 30
0.0
 40
12.93449408578155
100
AcDbArc
 50
105.547333235354
 51
171.3240617643018
  0
ARC
  5
2EE
330
1A
100
AcDbEntity
  8
NOKITOI
  6
PHANTOM
 62
     8
 48
5.0
100
AcDbCircle
 10
189.4860313009885
 20
57.17890928198759
 30
0.0
 40
12.93461262833301
100
AcDbArc
 50
105.5476727870196
 51
171.3237222126367
  0
ARC
  5
2EF
330
1A
100
AcDbEntity
  8
NOKITOI
  6
PHANTOM
 62
     8
 48
5.0
100
AcDbCircle
 10
189.4859952890912
 20
57.17883065769666
 30
0.0
 40
14.23462403148678
100
AcDbArc
 50
139.2075062368998
 51
168.623785948384
  0
LINE
  5
2F0
330
1A
100
AcDbEntity
  8
NOKITOI
  6
PHANTOM
 62
     8
 48
5.0
100
AcDbLine
 10
178.4820368344002
 20
66.97461552225289
 30
0.0
 11
172.2614368344004
 21
66.97461552225289
 31
0.0
  0
LINE
  5
2F1
330
1A
100
AcDbEntity
  8
NOKITOI
  6
PHANTOM
 62
     8
 48
5.0
100
AcDbLine
 10
170.5991368344002
 20
68.27471552225287
 30
0.0
 11
180.5796368344002
 21
68.27461552225301
 31
0.0
  0
LINE
  5
2F2
330
1A
100
AcDbEntity
  8
NOKITOI
  6
PHANTOM
 62
     8
 48
5.0
100
AcDbLine
 10
166.4000368344004
 20
59.57861552225288
 30
0.0
 11
151.6456368344003
 21
59.57861552225288
 31
0.0
  0
LINE
  5
2F3
330
1A
100
AcDbEntity
  8
NOKITOI
  6
PHANTOM
 62
     8
 48
5.0
100
AcDbLine
 10
170.5990368344004
 20
59.77771552225303
 30
0.0
 11
170.5991368344002
 21
68.27471552225287
 31
0.0
  0
LINE
  5
2F4
330
1A
100
AcDbEntity
  8
NOKITOI
  6
PHANTOM
 62
     8
 48
5.0
100
AcDbLine
 10
171.8991368344004
 20
66.61231552225288
 30
0.0
 11
171.8991368344004
 21
60.08521552225293
 31
0.0
  0
LINE
  5
2F5
330
1A
100
AcDbEntity
  8
NOKITOI
  6
PHANTOM
 62
     8
 48
5.0
100
AcDbLine
 10
175.0408368344004
 20
59.58521552225303
 30
0.0
 11
172.3991368344004
 21
59.58521552225303
 31
0.0
  0
ARC
  5
2F6
330
1A
100
AcDbEntity
  8
NOKITOI
  6
PHANTOM
 62
     8
 48
5.0
100
AcDbCircle
 10
172.3991368344003
 20
60.08521552225298
 30
0.0
 40
0.4999999999999432
100
AcDbArc
 50
180.0000000000065
 51
270.0000000000065
  0
ARC
  5
2F7
330
1A
100
AcDbEntity
  8
NOKITOI
  6
PHANTOM
 62
     8
 48
5.0
100
AcDbCircle
 10
170.3999868344003
 20
59.77766552225296
 30
0.0
 40
0.1990500062799141
100
AcDbArc
 50
270.0143923080609
 51
0.0143923080609163
  0
ARC
  5
2F8
330
1A
100
AcDbEntity
  8
NOKITOI
  6
PHANTOM
 62
     8
 48
5.0
100
AcDbCircle
 10
175.0408598755286
 20
60.08523438654123
 30
0.0
 40
0.5000188648190603
100
AcDbArc
 50
269.9973597808037
 51
348.6132711445605
  0
ARC
  5
2F9
330
1A
100
AcDbEntity
  8
NOKITOI
  6
PHANTOM
 62
     8
 48
5.0
100
AcDbCircle
 10
175.7157867624963
 20
59.28025840985163
 30
0.0
 40
0.9950428888512103
100
AcDbArc
 50
269.9971250795227
 51
351.3214426795066
  0
LINE
  5
2FA
330
1A
100
AcDbEntity
  8
NOKITOI
  6
PHANTOM
 62
     8
 48
5.0
100
AcDbLine
 10
171.4041368344002
 20
67.4696155222529
 30
0.0
 11
172.2614368344004
 21
66.97461552225289
 31
0.0
  0
LINE
  5
2FB
330
1A
100
AcDbEntity
  8
NOKITOI
  6
PHANTOM
 62
     8
 48
5.0
100
AcDbLine
 10
171.4041368344002
 20
67.4696155222529
 30
0.0
 11
171.8991368344004
 21
66.61231552225288
 31
0.0
  0
ARC
  5
2FC
330
1A
100
AcDbEntity
  8
NOKITOI
  6
PHANTOM
 62
     8
 48
5.0
100
AcDbCircle
 10
189.4860513379489
 20
57.17892344644141
 30
0.0
 40
14.22809199964113
100
AcDbArc
 50
108.5474584936546
 51
128.7537062451649
  0
ARC
  5
2FD
330
1A
100
AcDbEntity
  8
NOKITOI
  6
PHANTOM
 62
     8
 48
5.0
100
AcDbCircle
 10
178.4820505122516
 20
66.67458565855906
 30
0.0
 40
0.3000298640056128
100
AcDbArc
 50
319.2190584222774
 51
90.00261201720057
  0
ARC
  5
2FE
330
1A
100
AcDbEntity
  8
NOKITOI
  6
PHANTOM
 62
     8
 48
5.0
100
AcDbCircle
 10
184.6437804039515
 20
71.61136447402189
 30
0.0
 40
0.9950135261271753
100
AcDbArc
 50
288.5445751594485
 51
348.1074736523475
  0
ARC
  5
2FF
330
1A
100
AcDbEntity
  8
NOKITOI
  6
PHANTOM
 62
     8
 48
5.0
100
AcDbCircle
 10
185.7524111712525
 20
70.59889477364044
 30
0.0
 40
0.9949690575286499
100
AcDbArc
 50
285.5437330810334
 51
348.1110361155297
  0
LINE
  5
300
330
1A
100
AcDbEntity
  8
NOKITOI
  6
PHANTOM
 62
     8
 48
5.0
100
AcDbLine
 10
198.6076368344004
 20
108.282715522253
 30
0.0
 11
193.4039368344003
 21
108.2826155222528
 31
0.0
  0
LINE
  5
301
330
1A
100
AcDbEntity
  8
NOKITOI
  6
PHANTOM
 62
     8
 48
5.0
100
AcDbLine
 10
192.7594368344002
 20
98.28311552225304
 30
0.0
 11
198.6076368344004
 21
98.28311552225304
 31
0.0
  0
LINE
  5
302
330
1A
100
AcDbEntity
  8
NOKITOI
  6
PHANTOM
 62
     8
 48
5.0
100
AcDbLine
 10
198.3026368344004
 20
99.58311552225289
 30
0.0
 11
192.8783368344004
 21
99.58321552225292
 31
0.0
  0
LINE
  5
303
330
1A
100
AcDbEntity
  8
NOKITOI
  6
PHANTOM
 62
     8
 48
5.0
100
AcDbLine
 10
194.4362368344002
 20
106.982615522253
 30
0.0
 11
192.8783368344004
 21
99.58321552225292
 31
0.0
  0
LINE
  5
304
330
1A
100
AcDbEntity
  8
NOKITOI
  6
PHANTOM
 62
     8
 48
5.0
100
AcDbLine
 10
191.0723368344003
 20
97.31521552225288
 30
0.0
 11
193.3814368344002
 21
108.2826155222528
 31
0.0
  0
ARC
  5
305
330
1A
100
AcDbEntity
  8
NOKITOI
  6
PHANTOM
 62
     8
 48
5.0
100
AcDbCircle
 10
192.7594552770145
 20
98.08423048568968
 30
0.0
 40
0.1989850374179911
100
AcDbArc
 50
90.00531036897097
 51
168.1136861719429
  0
LINE
  5
306
330
1A
100
AcDbEntity
  8
NOKITOI
  6
PHANTOM
 62
     8
 48
5.0
100
AcDbLine
 10
198.3026368344004
 20
99.58311552225289
 30
0.0
 11
198.3026368344004
 21
106.982615522253
 31
0.0
  0
LINE
  5
307
330
1A
100
AcDbEntity
  8
NOKITOI
  6
PHANTOM
 62
     8
 48
5.0
100
AcDbLine
 10
199.6026368344004
 20
99.27811552225287
 30
0.0
 11
199.6026368344004
 21
107.2877155222529
 31
0.0
  0
ARC
  5
308
330
1A
100
AcDbEntity
  8
NOKITOI
  6
PHANTOM
 62
     8
 48
5.0
100
AcDbCircle
 10
198.6076368344005
 20
99.27811552225296
 30
0.0
 40
0.9949999999999192
100
AcDbArc
 50
269.9999999999951
 51
359.9999999999951
  0
LINE
  5
309
330
1A
100
AcDbEntity
  8
NOKITOI
  6
PHANTOM
 62
     8
 48
5.0
100
AcDbLine
 10
198.3026368344004
 20
106.982615522253
 30
0.0
 11
194.4362368344002
 21
106.982615522253
 31
0.0
  0
ARC
  5
30A
330
1A
100
AcDbEntity
  8
NOKITOI
  6
PHANTOM
 62
     8
 48
5.0
100
AcDbCircle
 10
198.6076368344004
 20
107.2877155222529
 30
0.0
 40
0.9950000000000613
100
AcDbArc
 50
359.9999999999967
 51
89.99999999999674
  0
LINE
  5
312
330
1A
100
AcDbEntity
  8
CENTER_L
  6
CENTER
 62
     1
 48
5.0
100
AcDbLine
 10
236.6967368344003
 20
207.1579155222528
 30
0.0
 11
82.22733683440035
 21
207.1579155222528
 31
0.0
  0
LINE
  5
313
330
1A
100
AcDbEntity
  8
SEIHIN
  6
CONTINUOUS
 62
     3
100
AcDbLine
 10
92.83373683440036
 20
213.6579155222528
 30
0.0
 11
152.8867368344003
 21
213.6579155222528
 31
0.0
  0
LINE
  5
314
330
1A
100
AcDbEntity
  8
SEIHIN
  6
CONTINUOUS
 62
     3
100
AcDbLine
 10
92.83373683440036
 20
200.6579155222528
 30
0.0
 11
152.8867368344003
 21
200.6579155222528
 31
0.0
  0
LINE
  5
315
330
1A
100
AcDbEntity
  8
SEIHIN
  6
CONTINUOUS
 62
     3
100
AcDbLine
 10
114.7609368344003
 20
91.98931552225289
 30
0.0
 11
183.4336368344003
 21
91.98931552225289
 31
0.0
  0
LINE
  5
316
330
1A
100
AcDbEntity
  8
SEIHIN
  6
CONTINUOUS
 62
     3
100
AcDbLine
 10
116.2337368344003
 20
97.4893155222529
 30
0.0
 11
152.8866368344003
 21
97.4893155222529
 31
0.0
  0
LINE
  5
31A
330
1A
100
AcDbEntity
  8
SEIHIN
  6
CONTINUOUS
 62
     3
100
AcDbLine
 10
89.33363683440035
 20
102.4893155222528
 30
0.0
 11
89.33363683440035
 21
106.9893155222529
 31
0.0
  0
LINE
  5
31B
330
1A
100
AcDbEntity
  8
SEIHIN
  6
CONTINUOUS
 62
     3
100
AcDbLine
 10
88.43373683440034
 20
106.9893155222529
 30
0.0
 11
88.43373683440034
 21
102.4893155222528
 31
0.0
  0
ARC
  5
31F
330
1A
100
AcDbEntity
  8
SEIHIN
  6
CONTINUOUS
 62
     3
100
AcDbCircle
 10
102.0337368344003
 20
101.0893155222528
 30
0.0
 40
4.60005000000001
100
AcDbArc
 50
180.0
 51
270.0
  0
LINE
  5
320
330
1A
100
AcDbEntity
  8
SEIHIN
  6
CONTINUOUS
 62
     3
100
AcDbLine
 10
95.93373683440034
 20
99.58931552225289
 30
0.0
 11
97.68513683440033
 21
99.58931552225289
 31
0.0
  0
LINE
  5
321
330
1A
100
AcDbEntity
  8
SEIHIN
  6
CONTINUOUS
 62
     3
100
AcDbLine
 10
89.83373683440035
 20
101.0893155222528
 30
0.0
 11
97.50783683440033
 21
101.0893155222528
 31
0.0
  0
LINE
  5
322
330
1A
100
AcDbEntity
  8
SEIHIN
  6
CONTINUOUS
 62
     3
100
AcDbLine
 10
89.83363683440035
 20
101.9893155222528
 30
0.0
 11
108.4336368344003
 21
101.9893155222528
 31
0.0
  0
ARC
  5
323
330
1A
100
AcDbEntity
  8
SEIHIN
  6
CONTINUOUS
 62
     3
100
AcDbCircle
 10
95.93373683440034
 20
101.0893155222528
 30
0.0
 40
1.5
100
AcDbArc
 50
180.0
 51
270.0
  0
ARC
  5
324
330
1A
100
AcDbEntity
  8
SEIHIN
  6
CONTINUOUS
 62
     3
100
AcDbCircle
 10
89.83373683440035
 20
102.4893155222528
 30
0.0
 40
1.400000000000005
100
AcDbArc
 50
180.0
 51
270.0
  0
ARC
  5
325
330
1A
100
AcDbEntity
  8
SEIHIN
  6
CONTINUOUS
 62
     3
100
AcDbCircle
 10
89.83363683440035
 20
102.4893155222528
 30
0.0
 40
0.5
100
AcDbArc
 50
180.0
 51
270.0
  0
LINE
  5
326
330
1A
100
AcDbEntity
  8
SEIHIN
  6
CONTINUOUS
 62
     3
100
AcDbLine
 10
106.9609368344003
 20
96.4893155222529
 30
0.0
 11
114.7609368344003
 21
91.98931552225289
 31
0.0
  0
LINE
  5
327
330
1A
100
AcDbEntity
  8
SEIHIN
  6
CONTINUOUS
 62
     3
100
AcDbLine
 10
102.0337368344003
 20
96.4893155222529
 30
0.0
 11
106.9609368344003
 21
96.4893155222529
 31
0.0
  0
LINE
  5
328
330
1A
100
AcDbEntity
  8
SEIHIN
  6
CONTINUOUS
 62
     3
100
AcDbLine
 10
108.4336368344003
 20
101.9893155222528
 30
0.0
 11
116.2337368344003
 21
97.4893155222529
 31
0.0
  0
LINE
  5
32B
330
1A
100
AcDbEntity
  8
SEIHIN
  6
CONTINUOUS
 62
     3
100
AcDbLine
 10
88.43373683440034
 20
106.9893155222529
 30
0.0
 11
89.33363683440035
 21
106.9893155222529
 31
0.0
  0
LINE
  5
33E
330
1A
100
AcDbEntity
  8
SEIHIN
  6
CONTINUOUS
 62
     3
100
AcDbLine
 10
96.18373683440035
 20
208.9079155222528
 30
0.0
 11
98.68373683440035
 21
208.9079155222528
 31
0.0
  0
LINE
  5
33F
330
1A
100
AcDbEntity
  8
SEIHIN
  6
CONTINUOUS
 62
     3
100
AcDbLine
 10
96.18373683440035
 20
205.4079155222528
 30
0.0
 11
98.68373683440035
 21
205.4079155222528
 31
0.0
  0
LINE
  5
340
330
1A
100
AcDbEntity
  8
SEIHIN
  6
CONTINUOUS
 62
     3
100
AcDbLine
 10
89.33373683440036
 20
197.1579155222529
 30
0.0
 11
89.33373683440036
 21
207.1579155222528
 31
0.0
  0
LINE
  5
341
330
1A
100
AcDbEntity
  8
SEIHIN
  6
CONTINUOUS
 62
     3
100
AcDbLine
 10
88.43373683440034
 20
197.1579155222529
 30
0.0
 11
88.43373683440034
 21
207.1579155222528
 31
0.0
  0
ARC
  5
342
330
1A
100
AcDbEntity
  8
SEIHIN
  6
CONTINUOUS
 62
     3
100
AcDbCircle
 10
92.83373683440036
 20
197.1579155222529
 30
0.0
 40
3.5
100
AcDbArc
 50
90.0
 51
180.0
  0
LINE
  5
343
330
1A
100
AcDbEntity
  8
SEIHIN
  6
CONTINUOUS
 62
     3
100
AcDbLine
 10
88.43373683440034
 20
197.1579155222529
 30
0.0
 11
89.33373683440036
 21
197.1579155222529
 31
0.0
  0
LINE
  5
344
330
1A
100
AcDbEntity
  8
SEIHIN
  6
CONTINUOUS
 62
     3
100
AcDbLine
 10
88.43373683440034
 20
217.1579155222528
 30
0.0
 11
88.43373683440034
 21
207.1579155222528
 31
0.0
  0
LINE
  5
345
330
1A
100
AcDbEntity
  8
SEIHIN
  6
CONTINUOUS
 62
     3
100
AcDbLine
 10
89.33373683440036
 20
217.1579155222528
 30
0.0
 11
89.33373683440036
 21
207.1579155222528
 31
0.0
  0
ARC
  5
346
330
1A
100
AcDbEntity
  8
SEIHIN
  6
CONTINUOUS
 62
     3
100
AcDbCircle
 10
96.18373683440035
 20
207.1579155222528
 30
0.0
 40
1.75
100
AcDbArc
 50
90.0
 51
180.0
  0
ARC
  5
347
330
1A
100
AcDbEntity
  8
SEIHIN
  6
CONTINUOUS
 62
     3
100
AcDbCircle
 10
96.18373683440035
 20
207.1579155222528
 30
0.0
 40
1.75
100
AcDbArc
 50
180.0
 51
270.0
  0
ARC
  5
348
330
1A
100
AcDbEntity
  8
SEIHIN
  6
CONTINUOUS
 62
     3
100
AcDbCircle
 10
92.83373683440036
 20
217.1579155222528
 30
0.0
 40
3.5
100
AcDbArc
 50
180.0
 51
270.0
  0
LINE
  5
349
330
1A
100
AcDbEntity
  8
SEIHIN
  6
CONTINUOUS
 62
     3
100
AcDbLine
 10
88.43373683440034
 20
217.1579155222528
 30
0.0
 11
89.33373683440036
 21
217.1579155222528
 31
0.0
  0
LINE
  5
34A
330
1A
100
AcDbEntity
  8
SEIHIN
  6
CONTINUOUS
 62
     3
100
AcDbLine
 10
116.2336368344003
 20
200.6579155222528
 30
0.0
 11
116.2336368344003
 21
207.1579155222528
 31
0.0
  0
LINE
  5
34B
330
1A
100
AcDbEntity
  8
SEIHIN
  6
CONTINUOUS
 62
     3
100
AcDbLine
 10
108.4336368344003
 20
200.6579155222528
 30
0.0
 11
108.4336368344003
 21
207.1579155222528
 31
0.0
  0
ARC
  5
34C
330
1A
100
AcDbEntity
  8
SEIHIN
  6
CONTINUOUS
 62
     3
100
AcDbCircle
 10
98.68373683440035
 20
207.1579155222528
 30
0.0
 40
1.75
100
AcDbArc
 50
0.0
 51
90.0
  0
ARC
  5
34D
330
1A
100
AcDbEntity
  8
SEIHIN
  6
CONTINUOUS
 62
     3
100
AcDbCircle
 10
98.68373683440035
 20
207.1579155222528
 30
0.0
 40
1.75
100
AcDbArc
 50
270.0
 51
0.0
  0
LINE
  5
34E
330
1A
100
AcDbEntity
  8
SEIHIN
  6
CONTINUOUS
 62
     3
100
AcDbLine
 10
108.4336368344003
 20
213.6579155222528
 30
0.0
 11
108.4336368344003
 21
207.1579155222528
 31
0.0
  0
LINE
  5
34F
330
1A
100
AcDbEntity
  8
SEIHIN
  6
CONTINUOUS
 62
     3
100
AcDbLine
 10
116.2336368344003
 20
213.6579155222528
 30
0.0
 11
116.2336368344003
 21
207.1579155222528
 31
0.0
  0
LINE
  5
35C
330
1A
100
AcDbEntity
  8
SEIHIN
  6
CONTINUOUS
 62
     3
100
AcDbLine
 10
191.0732368344003
 20
112.9893155222528
 30
0.0
 11
223.4337368344003
 21
112.9893155222528
 31
0.0
  0
LINE
  5
35D
330
1A
100
AcDbEntity
  8
SEIHIN
  6
CONTINUOUS
 62
     3
100
AcDbLine
 10
187.8978368344003
 20
118.4893155222529
 30
0.0
 11
226.4337368344003
 21
118.4893155222529
 31
0.0
  0
LINE
  5
360
330
1A
100
AcDbEntity
  8
SEIHIN
  6
CONTINUOUS
 62
     3
100
AcDbLine
 10
177.7941368344003
 20
95.98931552225289
 30
0.0
 11
185.8770368344003
 21
109.9893155222529
 31
0.0
  0
LINE
  5
361
330
1A
100
AcDbEntity
  8
SEIHIN
  6
CONTINUOUS
 62
     3
100
AcDbLine
 10
172.8866368344003
 20
98.48931552225289
 30
0.0
 11
182.7016368344003
 21
115.4893155222528
 31
0.0
  0
LINE
  5
362
330
1A
100
AcDbEntity
  8
SEIHIN
  6
CONTINUOUS
 62
     3
100
AcDbLine
 10
202.7627368344003
 20
96.16931552225288
 30
0.0
 11
202.7627368344003
 21
112.9893155222528
 31
0.0
  0
LINE
  5
363
330
1A
100
AcDbEntity
  8
SEIHIN
  6
CONTINUOUS
 62
     3
100
AcDbLine
 10
199.8827368344003
 20
90.98931552225289
 30
0.0
 11
199.8827368344003
 21
112.9893155222528
 31
0.0
  0
LINE
  5
364
330
1A
100
AcDbEntity
  8
SEIHIN
  6
CONTINUOUS
 62
     3
100
AcDbLine
 10
203.1627368344003
 20
96.16931552225288
 30
0.0
 11
203.1627368344003
 21
112.9893155222528
 31
0.0
  0
LINE
  5
366
330
1A
100
AcDbEntity
  8
SEIHIN
  6
CONTINUOUS
 62
     3
100
AcDbLine
 10
155.8866368344003
 20
92.98931552225289
 30
0.0
 11
172.5980368344003
 21
92.98931552225289
 31
0.0
  0
LINE
  5
367
330
1A
100
AcDbEntity
  8
SEIHIN
  6
CONTINUOUS
 62
     3
100
AcDbLine
 10
152.8866368344003
 20
98.48931552225289
 30
0.0
 11
172.8866368344003
 21
98.48931552225289
 31
0.0
  0
LINE
  5
368
330
1A
100
AcDbEntity
  8
SEIHIN
  6
CONTINUOUS
 62
     3
100
AcDbLine
 10
152.8866368344003
 20
95.98931552225289
 30
0.0
 11
155.8866368344003
 21
92.98931552225289
 31
0.0
  0
LINE
  5
369
330
1A
100
AcDbEntity
  8
SEIHIN
  6
CONTINUOUS
 62
     3
100
AcDbLine
 10
152.8866368344003
 20
95.98931552225289
 30
0.0
 11
152.8866368344003
 21
98.48931552225289
 31
0.0
  0
LINE
  5
36A
330
1A
100
AcDbEntity
  8
SEIHIN
  6
CONTINUOUS
 62
     3
100
AcDbLine
 10
178.6601368344003
 20
97.4893155222529
 30
0.0
 11
187.4336368344003
 21
97.4893155222529
 31
0.0
  0
LINE
  5
36B
330
1A
100
AcDbEntity
  8
SEIHIN
  6
CONTINUOUS
 62
     3
100
AcDbLine
 10
183.4336368344003
 20
91.98931552225289
 30
0.0
 11
188.7987368344003
 21
94.49241552225288
 31
0.0
  0
ARC
  5
36C
330
1A
100
AcDbEntity
  8
SEIHIN
  6
CONTINUOUS
 62
     3
100
AcDbCircle
 10
172.5980368344003
 20
98.9893155222529
 30
0.0
 40
5.999977300330799
100
AcDbArc
 50
270.0
 51
329.9997496981192
  0
LINE
  5
36F
330
1A
100
AcDbEntity
  8
SEIHIN
  6
CONTINUOUS
 62
     3
100
AcDbLine
 10
193.9533368344003
 20
97.90051552225287
 30
0.0
 11
198.2033368344003
 21
90.53931552225288
 31
0.0
  0
LINE
  5
370
330
1A
100
AcDbEntity
  8
SEIHIN
  6
CONTINUOUS
 62
     3
100
AcDbLine
 10
197.6836368344003
 20
90.2393155222529
 30
0.0
 11
193.4336368344003
 21
97.6005155222529
 31
0.0
  0
LINE
  5
371
330
1A
100
AcDbEntity
  8
SEIHIN
  6
CONTINUOUS
 62
     3
100
AcDbLine
 10
200.4827368344003
 20
93.02891552225288
 30
0.0
 11
200.4827368344003
 21
90.98931552225289
 31
0.0
  0
ARC
  5
372
330
1A
100
AcDbEntity
  8
SEIHIN
  6
CONTINUOUS
 62
     3
100
AcDbCircle
 10
198.9827368344003
 20
90.98931552225289
 30
0.0
 40
1.500026801187798
100
AcDbArc
 50
209.9988179477405
 51
0.0
  0
ARC
  5
373
330
1A
100
AcDbEntity
  8
SEIHIN
  6
CONTINUOUS
 62
     3
100
AcDbCircle
 10
198.9827368344003
 20
90.98931552225289
 30
0.0
 40
0.8999900998911121
100
AcDbArc
 50
210.0007277808294
 51
0.0
  0
ARC
  5
374
330
1A
100
AcDbEntity
  8
SEIHIN
  6
CONTINUOUS
 62
     3
100
AcDbCircle
 10
188.3336368344003
 20
95.48931552225289
 30
0.0
 40
1.100029003780724
100
AcDbArc
 50
295.0112297255587
 51
90.0
  0
LINE
  5
375
330
1A
100
AcDbEntity
  8
SEIHIN
  6
CONTINUOUS
 62
     3
100
AcDbLine
 10
188.3336368344003
 20
96.5893155222529
 30
0.0
 11
187.4336368344003
 21
96.5893155222529
 31
0.0
  0
LINE
  5
376
330
1A
100
AcDbEntity
  8
SEIHIN
  6
CONTINUOUS
 62
     3
100
AcDbLine
 10
187.4336368344003
 20
97.4893155222529
 30
0.0
 11
187.4336368344003
 21
96.5893155222529
 31
0.0
  0
LINE
  5
377
330
1A
100
AcDbEntity
  8
SEIHIN
  6
CONTINUOUS
 62
     3
100
AcDbLine
 10
193.9533368344003
 20
97.90051552225287
 30
0.0
 11
193.4336368344003
 21
97.6005155222529
 31
0.0
  0
ARC
  5
378
330
1A
100
AcDbEntity
  8
SEIHIN
  6
CONTINUOUS
 62
     3
100
AcDbCircle
 10
200.8827368344003
 20
92.91381552225288
 30
0.0
 40
0.9999850622768779
100
AcDbArc
 50
97.00775276145755
 51
180.0
  0
ARC
  5
379
330
1A
100
AcDbEntity
  8
SEIHIN
  6
CONTINUOUS
 62
     3
100
AcDbCircle
 10
200.9827368344003
 20
93.02891552225288
 30
0.0
 40
0.4999588216086873
100
AcDbArc
 50
99.04591388350681
 51
180.0
  0
ARC
  5
37A
330
1A
100
AcDbEntity
  8
SEIHIN
  6
CONTINUOUS
 62
     3
100
AcDbCircle
 10
200.4827368344003
 20
96.16931552225288
 30
0.0
 40
2.280005811388714
100
AcDbArc
 50
277.003455471511
 51
0.0
  0
ARC
  5
37B
330
1A
100
AcDbEntity
  8
SEIHIN
  6
CONTINUOUS
 62
     3
100
AcDbCircle
 10
200.4827368344003
 20
96.16931552225288
 30
0.0
 40
2.680018549311909
100
AcDbArc
 50
279.0465365345734
 51
0.0
  0
ARC
  5
37F
330
1A
100
AcDbEntity
  8
SEIHIN
  6
CONTINUOUS
 62
     3
100
AcDbCircle
 10
187.8978368344003
 20
112.4893155222528
 30
0.0
 40
6.000020601595926
100
AcDbArc
 50
90.0
 51
150.0002271632825
  0
ARC
  5
382
330
1A
100
AcDbEntity
  8
SEIHIN
  6
CONTINUOUS
 62
     3
100
AcDbCircle
 10
191.0732368344003
 20
106.9893155222529
 30
0.0
 40
6.000020601595919
100
AcDbArc
 50
90.0
 51
150.0002271632825
  0
LINE
  5
38A
330
1A
100
AcDbEntity
  8
SEIHIN
  6
CONTINUOUS
 62
     3
100
AcDbLine
 10
227.4336368344003
 20
105.5393155222528
 30
0.0
 11
227.4336368344003
 21
109.3893155222529
 31
0.0
  0
LINE
  5
38B
330
1A
100
AcDbEntity
  8
SEIHIN
  6
CONTINUOUS
 62
     3
100
AcDbLine
 10
225.9337368344003
 20
110.7393155222528
 30
0.0
 11
225.9337368344003
 21
95.98931552225289
 31
0.0
  0
LINE
  5
38C
330
1A
100
AcDbEntity
  8
SEIHIN
  6
CONTINUOUS
 62
     3
100
AcDbLine
 10
228.4337368344003
 20
108.4893155222528
 30
0.0
 11
228.4336368344003
 21
71.48931552225289
 31
0.0
  0
LINE
  5
38D
330
1A
100
AcDbEntity
  8
SEIHIN
  6
CONTINUOUS
 62
     3
100
AcDbLine
 10
229.4337368344003
 20
115.4893155222528
 30
0.0
 11
229.4336368344003
 21
71.48931552225289
 31
0.0
  0
LINE
  5
393
330
1A
100
AcDbEntity
  8
CENTER_L
  6
CENTER
 62
     1
 48
5.0
100
AcDbLine
 10
224.9535368344004
 20
77.4893155222529
 30
0.0
 11
233.9900368344003
 21
77.4893155222529
 31
0.0
  0
LINE
  5
395
330
1A
100
AcDbEntity
  8
SEIHIN
  6
CONTINUOUS
 62
     3
100
AcDbLine
 10
228.4337368344003
 20
71.48931552225289
 30
0.0
 11
229.4337368344003
 21
71.48931552225289
 31
0.0
  0
ARC
  5
396
330
1A
100
AcDbEntity
  8
SEIHIN
  6
CONTINUOUS
 62
     3
100
AcDbCircle
 10
228.4336368344003
 20
105.5393155222528
 30
0.0
 40
1.0
100
AcDbArc
 50
180.0
 51
270.0
  0
ARC
  5
397
330
1A
100
AcDbEntity
  8
SEIHIN
  6
CONTINUOUS
 62
     3
100
AcDbCircle
 10
228.4337368344003
 20
95.98931552225289
 30
0.0
 40
2.5
100
AcDbArc
 50
180.0
 51
270.0
  0
LINE
  5
398
330
1A
100
AcDbEntity
  8
CENTER_L
  6
CENTER
 62
     1
 48
5.0
100
AcDbLine
 10
224.9535368344004
 20
102.4893155222528
 30
0.0
 11
234.4173368344003
 21
102.4893155222528
 31
0.0
  0
LINE
  5
399
330
1A
100
AcDbEntity
  8
SEIHIN
  6
CONTINUOUS
 62
     3
100
AcDbLine
 10
228.4337368344003
 20
98.48931552225289
 30
0.0
 11
229.4337368344003
 21
98.48931552225289
 31
0.0
  0
ARC
  5
3AD
330
1A
100
AcDbEntity
  8
SEIHIN
  6
CONTINUOUS
 62
     3
100
AcDbCircle
 10
226.4337368344003
 20
115.4893155222528
 30
0.0
 40
3.0
100
AcDbArc
 50
0.0
 51
90.0
  0
LINE
  5
3AE
330
1A
100
AcDbEntity
  8
SEIHIN
  6
CONTINUOUS
 62
     3
100
AcDbLine
 10
223.4337368344003
 20
112.9893155222528
 30
0.0
 11
228.4336368344003
 21
108.4893155222528
 31
0.0
  0
LINE
  5
3AF
330
1A
100
AcDbEntity
  8
SEIHIN
  6
CONTINUOUS
 62
     3
100
AcDbLine
 10
228.4337368344003
 20
108.4893155222528
 30
0.0
 11
229.4337368344003
 21
108.4893155222528
 31
0.0
  0
LINE
  5
3B8
330
1A
100
AcDbEntity
  8
SEIHIN
  6
CONTINUOUS
 62
     3
100
AcDbLine
 10
229.4337368344003
 20
211.1579155222528
 30
0.0
 11
203.4337368344003
 21
211.1579155222528
 31
0.0
  0
LINE
  5
3B9
330
1A
100
AcDbEntity
  8
SEIHIN
  6
CONTINUOUS
 62
     3
100
AcDbLine
 10
229.4337368344003
 20
203.1579155222528
 30
0.0
 11
203.4337368344003
 21
203.1579155222528
 31
0.0
  0
LINE
  5
3BA
330
1A
100
AcDbEntity
  8
SEIHIN
  6
CONTINUOUS
 62
     3
100
AcDbLine
 10
172.8866368344003
 20
199.4079155222529
 30
0.0
 11
229.4337368344003
 21
191.9540155222528
 31
0.0
  0
LINE
  5
3BB
330
1A
100
AcDbEntity
  8
SEIHIN
  6
CONTINUOUS
 62
     3
100
AcDbLine
 10
172.8866368344003
 20
214.9079155222529
 30
0.0
 11
229.4337368344003
 21
222.3619155222528
 31
0.0
  0
LINE
  5
3BC
330
1A
100
AcDbEntity
  8
SEIHIN
  6
CONTINUOUS
 62
     3
100
AcDbLine
 10
152.8867368344003
 20
214.9079155222529
 30
0.0
 11
172.8866368344003
 21
214.9079155222529
 31
0.0
  0
LINE
  5
3BD
330
1A
100
AcDbEntity
  8
SEIHIN
  6
CONTINUOUS
 62
     3
100
AcDbLine
 10
152.8867368344003
 20
199.4079155222529
 30
0.0
 11
172.8866368344003
 21
199.4079155222529
 31
0.0
  0
LINE
  5
3BE
330
1A
100
AcDbEntity
  8
SEIHIN
  6
CONTINUOUS
 62
     3
100
AcDbLine
 10
152.8867368344003
 20
199.4079155222529
 30
0.0
 11
152.8867368344003
 21
207.1580155222528
 31
0.0
  0
LINE
  5
3BF
330
1A
100
AcDbEntity
  8
SEIHIN
  6
CONTINUOUS
 62
     3
100
AcDbLine
 10
152.8867368344003
 20
214.9079155222529
 30
0.0
 11
152.8867368344003
 21
207.1579155222528
 31
0.0
  0
LINE
  5
3C0
330
1A
100
AcDbEntity
  8
SEIHIN
  6
CONTINUOUS
 62
     3
100
AcDbLine
 10
172.8866368344003
 20
199.4079155222529
 30
0.0
 11
172.8866368344003
 21
207.1579155222528
 31
0.0
  0
LINE
  5
3C1
330
1A
100
AcDbEntity
  8
SEIHIN
  6
CONTINUOUS
 62
     3
100
AcDbLine
 10
172.8866368344003
 20
214.9079155222529
 30
0.0
 11
172.8866368344003
 21
207.1579155222528
 31
0.0
  0
ARC
  5
3C2
330
1A
100
AcDbEntity
  8
SEIHIN
  6
CONTINUOUS
 62
     3
100
AcDbCircle
 10
203.4337368344003
 20
207.1579155222528
 30
0.0
 40
4.0
100
AcDbArc
 50
180.0
 51
270.0
  0
LINE
  5
3C3
330
1A
100
AcDbEntity
  8
SEIHIN
  6
CONTINUOUS
 62
     3
100
AcDbLine
 10
204.4337368344003
 20
196.8947155222529
 30
0.0
 11
204.4337368344003
 21
202.5757155222529
 31
0.0
  0
ARC
  5
3C4
330
1A
100
AcDbEntity
  8
SEIHIN
  6
CONTINUOUS
 62
     3
100
AcDbCircle
 10
205.4337368344003
 20
202.5757155222529
 30
0.0
 40
0.9999875823457797
100
AcDbArc
 50
122.7730954825724
 51
180.0
  0
ARC
  5
3C5
330
1A
100
AcDbEntity
  8
SEIHIN
  6
CONTINUOUS
 62
     3
100
AcDbCircle
 10
205.4337368344003
 20
211.7402155222528
 30
0.0
 40
1.000029624122422
100
AcDbArc
 50
180.0
 51
237.2300058312523
  0
ARC
  5
3C6
330
1A
100
AcDbEntity
  8
SEIHIN
  6
CONTINUOUS
 62
     3
100
AcDbCircle
 10
203.4337368344003
 20
207.1579155222528
 30
0.0
 40
4.0
100
AcDbArc
 50
90.0
 51
180.0
  0
LINE
  5
3C7
330
1A
100
AcDbEntity
  8
SEIHIN
  6
CONTINUOUS
 62
     3
100
AcDbLine
 10
204.4337368344003
 20
217.4211155222528
 30
0.0
 11
204.4337368344003
 21
211.7402155222528
 31
0.0
  0
LINE
  5
3C9
330
1A
100
AcDbEntity
  8
SEIHIN
  6
CONTINUOUS
 62
     3
100
AcDbLine
 10
229.4337368344003
 20
229.6579155222528
 30
0.0
 11
229.4337368344003
 21
207.1579155222528
 31
0.0
  0
LINE
  5
3CC
330
1A
100
AcDbEntity
  8
SEIHIN
  6
CONTINUOUS
 62
     3
100
AcDbLine
 10
229.4337368344003
 20
184.6579155222529
 30
0.0
 11
229.4337368344003
 21
207.1579155222528
 31
0.0
  0
LINE
  5
3CD
330
1A
100
AcDbEntity
  8
SEIHIN
  6
CONTINUOUS
 62
     3
100
AcDbLine
 10
228.4337368344003
 20
184.6579155222529
 30
0.0
 11
224.9456368344003
 21
190.6015155222529
 31
0.0
  0
LINE
  5
3CE
330
1A
100
AcDbEntity
  8
SEIHIN
  6
CONTINUOUS
 62
     3
100
AcDbLine
 10
229.4337368344003
 20
184.6579155222529
 30
0.0
 11
228.4337368344003
 21
184.6579155222529
 31
0.0
  0
ARC
  5
3CF
330
1A
100
AcDbEntity
  8
SEIHIN
  6
CONTINUOUS
 62
     3
100
AcDbCircle
 10
231.3834368344003
 20
207.1578155222528
 30
0.0
 40
4.449717421892847
100
AcDbArc
 50
115.9851681695025
 51
179.9987123675865
  0
ARC
  5
3D0
330
1A
100
AcDbEntity
  8
SEIHIN
  6
CONTINUOUS
 62
     3
100
AcDbCircle
 10
231.3834368344003
 20
207.1581155222529
 30
0.0
 40
4.449717423578341
100
AcDbArc
 50
180.0025752648259
 51
244.0148318304978
  0
LINE
  5
3D1
330
1A
100
AcDbEntity
  8
CENTER_L
  6
CENTER
 62
     1
 48
5.0
100
AcDbLine
 10
233.4035368344003
 20
190.6579155222528
 30
0.0
 11
222.4660368344003
 21
190.6579155222528
 31
0.0
  0
ARC
  5
3D2
330
1A
100
AcDbEntity
  8
SEIHIN
  6
CONTINUOUS
 62
     3
100
AcDbCircle
 10
220.6334368344003
 20
188.0708155222528
 30
0.0
 40
4.999964164854612
100
AcDbArc
 50
30.40738601407238
 51
82.49107688682633
  0
LINE
  5
3D6
330
1A
100
AcDbEntity
  8
CENTER_L
  6
CENTER
 62
     1
 48
5.0
100
AcDbLine
 10
233.4036368344003
 20
223.6579155222528
 30
0.0
 11
222.4660368344003
 21
223.6579155222528
 31
0.0
  0
LINE
  5
3D7
330
1A
100
AcDbEntity
  8
SEIHIN
  6
CONTINUOUS
 62
     3
100
AcDbLine
 10
228.4337368344003
 20
229.6579155222528
 30
0.0
 11
224.9456368344003
 21
223.7144155222528
 31
0.0
  0
ARC
  5
3D8
330
1A
100
AcDbEntity
  8
SEIHIN
  6
CONTINUOUS
 62
     3
100
AcDbCircle
 10
220.6334368344003
 20
226.2451155222529
 30
0.0
 40
4.999964164854612
100
AcDbArc
 50
277.5089231131736
 51
329.5926139859275
  0
LINE
  5
3D9
330
1A
100
AcDbEntity
  8
SEIHIN
  6
CONTINUOUS
 62
     3
100
AcDbLine
 10
229.4337368344003
 20
229.6579155222528
 30
0.0
 11
228.4337368344003
 21
229.6579155222528
 31
0.0
  0
LINE
  5
3DE
330
1A
100
AcDbEntity
  8
SEIHIN
  6
CONTINUOUS
 62
     3
100
AcDbLine
 10
338.4337368344003
 20
113.0393155222528
 30
0.0
 11
338.4337368344003
 21
106.0393155222528
 31
0.0
  0
LINE
  5
3DF
330
1A
100
AcDbEntity
  8
SEIHIN
  6
CONTINUOUS
 62
     3
100
AcDbLine
 10
335.4337368344003
 20
113.0393155222528
 30
0.0
 11
335.4337368344003
 21
106.0393155222528
 31
0.0
  0
LINE
  5
3E0
330
1A
100
AcDbEntity
  8
SEIHIN
  6
CONTINUOUS
 62
     3
100
AcDbLine
 10
349.9337368344003
 20
98.48931552225289
 30
0.0
 11
349.9337368344003
 21
108.4893155222528
 31
0.0
  0
LINE
  5
3E1
330
1A
100
AcDbEntity
  8
SEIHIN
  6
CONTINUOUS
 62
     3
100
AcDbLine
 10
331.4337368344003
 20
97.4893155222529
 30
0.0
 11
331.4337368344003
 21
118.4893155222529
 31
0.0
  0
LINE
  5
3E2
330
1A
100
AcDbEntity
  8
SEIHIN
  6
CONTINUOUS
 62
     3
100
AcDbLine
 10
323.4337368344003
 20
97.4893155222529
 30
0.0
 11
323.4337368344003
 21
118.4893155222529
 31
0.0
  0
LINE
  5
3E3
330
1A
100
AcDbEntity
  8
SEIHIN
  6
CONTINUOUS
 62
     3
100
AcDbLine
 10
319.4337368344003
 20
113.0393155222528
 30
0.0
 11
319.4337368344003
 21
106.0393155222528
 31
0.0
  0
LINE
  5
3E4
330
1A
100
AcDbEntity
  8
SEIHIN
  6
CONTINUOUS
 62
     3
100
AcDbLine
 10
316.4337368344003
 20
113.0393155222528
 30
0.0
 11
316.4337368344003
 21
106.0393155222528
 31
0.0
  0
LINE
  5
3E5
330
1A
100
AcDbEntity
  8
SEIHIN
  6
CONTINUOUS
 62
     3
100
AcDbLine
 10
304.9337368344003
 20
98.48931552225289
 30
0.0
 11
304.9337368344003
 21
108.4893155222528
 31
0.0
  0
LINE
  5
3E6
330
1A
100
AcDbEntity
  8
CENTER_L
  6
CENTER
 62
     1
 48
5.0
100
AcDbLine
 10
327.4337368344003
 20
67.87351552225288
 30
0.0
 11
327.4337368344003
 21
122.3504155222528
 31
0.0
  0
ARC
  5
3E7
330
1A
100
AcDbEntity
  8
SEIHIN
  6
CONTINUOUS
 62
     3
100
AcDbCircle
 10
336.9337368344003
 20
106.0393155222528
 30
0.0
 40
1.5
100
AcDbArc
 50
180.0
 51
0.0
  0
LINE
  5
3E8
330
1A
100
AcDbEntity
  8
SEIHIN
  6
CONTINUOUS
 62
     3
100
AcDbLine
 10
349.9337368344003
 20
98.48931552225289
 30
0.0
 11
335.8996368344004
 21
76.16681552225287
 31
0.0
  0
CIRCLE
  5
3E9
330
1A
100
AcDbEntity
  8
SEIHIN
  6
CONTINUOUS
 62
     3
100
AcDbCircle
 10
327.4337368344003
 20
77.4893155222529
 30
0.0
 40
2.050000000000011
  0
LINE
  5
3EA
330
1A
100
AcDbEntity
  8
SEIHIN
  6
CONTINUOUS
 62
     3
100
AcDbLine
 10
304.9337368344003
 20
98.48931552225289
 30
0.0
 11
318.9678368344003
 21
76.16681552225287
 31
0.0
  0
ARC
  5
3EB
330
1A
100
AcDbEntity
  8
SEIHIN
  6
CONTINUOUS
 62
     3
100
AcDbCircle
 10
327.4337368344003
 20
81.4893155222529
 30
0.0
 40
10.00001172648622
100
AcDbArc
 50
212.1575202091201
 51
270.0
  0
LINE
  5
3EC
330
1A
100
AcDbEntity
  8
CENTER_L
  6
CENTER
 62
     1
 48
5.0
100
AcDbLine
 10
322.3668368344003
 20
77.4893155222529
 30
0.0
 11
327.4337368344003
 21
77.4893155222529
 31
0.0
  0
ARC
  5
3ED
330
1A
100
AcDbEntity
  8
SEIHIN
  6
CONTINUOUS
 62
     3
100
AcDbCircle
 10
327.4337368344003
 20
81.4893155222529
 30
0.0
 40
10.00001172648626
100
AcDbArc
 50
270.0
 51
327.8424797908799
  0
LINE
  5
3EE
330
1A
100
AcDbEntity
  8
CENTER_L
  6
CENTER
 62
     1
 48
5.0
100
AcDbLine
 10
331.8541368344003
 20
77.4893155222529
 30
0.0
 11
327.4337368344003
 21
77.4893155222529
 31
0.0
  0
LINE
  5
3EF
330
1A
100
AcDbEntity
  8
CENTER_L
  6
CENTER
 62
     1
 48
5.0
100
AcDbLine
 10
307.2532368344003
 20
102.4893155222528
 30
0.0
 11
315.8342368344003
 21
102.4893155222528
 31
0.0
  0
LINE
  5
3F0
330
1A
100
AcDbEntity
  8
CENTER_L
  6
CENTER
 62
     1
 48
5.0
100
AcDbLine
 10
310.9337368344003
 20
98.51941552225291
 30
0.0
 11
310.9337368344003
 21
106.1818155222528
 31
0.0
  0
CIRCLE
  5
3F1
330
1A
100
AcDbEntity
  8
SEIHIN
  6
CONTINUOUS
 62
     3
100
AcDbCircle
 10
310.9337368344003
 20
102.4893155222528
 30
0.0
 40
2.050000000000011
  0
ARC
  5
3F2
330
1A
100
AcDbEntity
  8
SEIHIN
  6
CONTINUOUS
 62
     3
100
AcDbCircle
 10
327.4337368344003
 20
97.4893155222529
 30
0.0
 40
4.0
100
AcDbArc
 50
270.0
 51
0.0
  0
ARC
  5
3F3
330
1A
100
AcDbEntity
  8
SEIHIN
  6
CONTINUOUS
 62
     3
100
AcDbCircle
 10
327.4337368344003
 20
97.4893155222529
 30
0.0
 40
4.0
100
AcDbArc
 50
180.0
 51
270.0
  0
ARC
  5
3F4
330
1A
100
AcDbEntity
  8
SEIHIN
  6
CONTINUOUS
 62
     3
100
AcDbCircle
 10
317.9337368344003
 20
106.0393155222528
 30
0.0
 40
1.5
100
AcDbArc
 50
180.0
 51
0.0
  0
LINE
  5
3F8
330
1A
100
AcDbEntity
  8
CENTER_L
  6
CENTER
 62
     1
 48
5.0
100
AcDbLine
 10
343.9337368344003
 20
98.51941552225291
 30
0.0
 11
343.9337368344003
 21
106.1818155222528
 31
0.0
  0
CIRCLE
  5
3F9
330
1A
100
AcDbEntity
  8
SEIHIN
  6
CONTINUOUS
 62
     3
100
AcDbCircle
 10
343.9337368344003
 20
102.4893155222528
 30
0.0
 40
2.050000000000011
  0
LINE
  5
3FA
330
1A
100
AcDbEntity
  8
CENTER_L
  6
CENTER
 62
     1
 48
5.0
100
AcDbLine
 10
348.2230368344003
 20
102.4893155222528
 30
0.0
 11
339.0333368344003
 21
102.4893155222528
 31
0.0
  0
ARC
  5
3FD
330
1A
100
AcDbEntity
  8
SEIHIN
  6
CONTINUOUS
 62
     3
100
AcDbCircle
 10
336.9337368344003
 20
113.0393155222528
 30
0.0
 40
1.5
100
AcDbArc
 50
0.0
 51
180.0
  0
LINE
  5
3FE
330
1A
100
AcDbEntity
  8
SEIHIN
  6
CONTINUOUS
 62
     3
100
AcDbLine
 10
340.9337368344003
 20
118.4893155222529
 30
0.0
 11
331.4337368344003
 21
118.4893155222529
 31
0.0
  0
LINE
  5
404
330
1A
100
AcDbEntity
  8
SEIHIN
  6
CONTINUOUS
 62
     3
100
AcDbLine
 10
313.9337368344003
 20
118.4893155222529
 30
0.0
 11
323.4337368344003
 21
118.4893155222529
 31
0.0
  0
LINE
  5
405
330
1A
100
AcDbEntity
  8
SEIHIN
  6
CONTINUOUS
 62
     3
100
AcDbLine
 10
312.4337368344003
 20
112.9893155222528
 30
0.0
 11
312.4337368344003
 21
116.9893155222528
 31
0.0
  0
LINE
  5
406
330
1A
100
AcDbEntity
  8
SEIHIN
  6
CONTINUOUS
 62
     3
100
AcDbLine
 10
304.9337368344003
 20
108.4893155222528
 30
0.0
 11
312.4337368344003
 21
112.9893155222528
 31
0.0
  0
ARC
  5
407
330
1A
100
AcDbEntity
  8
SEIHIN
  6
CONTINUOUS
 62
     3
100
AcDbCircle
 10
313.9337368344003
 20
116.9893155222528
 30
0.0
 40
1.5
100
AcDbArc
 50
90.0
 51
180.0
  0
ARC
  5
408
330
1A
100
AcDbEntity
  8
SEIHIN
  6
CONTINUOUS
 62
     3
100
AcDbCircle
 10
327.4337368344003
 20
120.4393155222528
 30
0.0
 40
4.449999999999992
100
AcDbArc
 50
205.9892335838327
 51
270.0
  0
ARC
  5
409
330
1A
100
AcDbEntity
  8
SEIHIN
  6
CONTINUOUS
 62
     3
100
AcDbCircle
 10
317.9337368344003
 20
113.0393155222528
 30
0.0
 40
1.5
100
AcDbArc
 50
0.0
 51
180.0
  0
ARC
  5
40A
330
1A
100
AcDbEntity
  8
SEIHIN
  6
CONTINUOUS
 62
     3
100
AcDbCircle
 10
327.4337368344003
 20
120.4393155222528
 30
0.0
 40
4.449999999999992
100
AcDbArc
 50
270.0
 51
334.0107664161672
  0
LINE
  5
410
330
1A
100
AcDbEntity
  8
SEIHIN
  6
CONTINUOUS
 62
     3
100
AcDbLine
 10
349.9337368344003
 20
108.4893155222528
 30
0.0
 11
342.4337368344003
 21
112.9893155222528
 31
0.0
  0
LINE
  5
411
330
1A
100
AcDbEntity
  8
SEIHIN
  6
CONTINUOUS
 62
     3
100
AcDbLine
 10
342.4337368344003
 20
112.9893155222528
 30
0.0
 11
342.4337368344003
 21
116.9893155222528
 31
0.0
  0
ARC
  5
412
330
1A
100
AcDbEntity
  8
SEIHIN
  6
CONTINUOUS
 62
     3
100
AcDbCircle
 10
340.9337368344003
 20
116.9893155222528
 30
0.0
 40
1.5
100
AcDbArc
 50
0.0
 51
90.0
  0
LINE
  5
417
330
1A
100
AcDbEntity
  8
SEIHIN
100
AcDbLine
 10
229.4337311525822
 20
112.9893155222528
 30
0.0
 11
223.4337368344003
 21
112.9893155222528
 31
0.0
  0
DIMENSION
  5
418
330
1A
100
AcDbEntity
  8
SUNPOU
100
AcDbDimension
  2
*D1
 10
229.4337436525821
 20
130.5904702484901
 30
0.0
 11
214.5181902434913
 21
133.0904702484901
 31
0.0
 70
    32
  3
STANDARD
100
AcDbAlignedDimension
 13
199.6026368344004
 23
107.2877155222529
 33
0.0
 14
229.4337436525821
 24
118.4893155222529
 34
0.0
100
AcDbRotatedDimension
1001
ACAD
1000
DSTYLE
1002
{
1070
    41
1040
3.0
1070
    42
1040
3.0
1070
    43
1040
7.0
1070
    44
1040
1.5
1070
    73
1070
     0
1070
    74
1070
     0
1070
    77
1070
     3
1070
   140
1040
3.0
1070
   141
1040
150.0
1070
   147
1040
1.0
1070
   172
1070
     1
1070
   173
1070
     1
1070
   176
1070
     4
1070
   177
1070
     4
1070
   178
1070
     4
1070
   271
1070
     0
1070
   272
1070
     2
1070
   341
1005
B2
1070
     6
1000
OPEN
1070
     7
1000
OPEN
1002
}
  0
DIMENSION
  5
426
330
1A
100
AcDbEntity
  8
SUNPOU
100
AcDbDimension
  2
*D2
 10
184.4336956579297
 20
138.1801020892495
 30
0.0
 11
206.9337196552559
 21
140.6801020892495
 31
0.0
 70
    32
  3
STANDARD
100
AcDbAlignedDimension
 13
229.4337436525821
 23
118.4893155222529
 33
0.0
 14
184.4336956579297
 24
118.4893155222529
 34
0.0
100
AcDbRotatedDimension
1001
ACAD
1000
DSTYLE
1002
{
1070
    41
1040
3.0
1070
    42
1040
3.0
1070
    43
1040
7.0
1070
    44
1040
1.5
1070
    73
1070
     0
1070
    74
1070
     0
1070
    77
1070
     3
1070
   140
1040
3.0
1070
   141
1040
150.0
1070
   147
1040
1.0
1070
   172
1070
     1
1070
   173
1070
     1
1070
   176
1070
     4
1070
   177
1070
     4
1070
   178
1070
     4
1070
   271
1070
     0
1070
   272
1070
     2
1070
   341
1005
B2
1070
     6
1000
OPEN
1070
     7
1000
OPEN
1002
}
  0
DIMENSION
  5
433
330
1A
100
AcDbEntity
  8
SUNPOU
100
AcDbDimension
  2
*D3
 10
229.4337436525821
 20
145.9751426781861
 30
0.0
 11
158.9337402434912
 21
148.4751426781861
 31
0.0
 70
    32
  3
STANDARD
100
AcDbAlignedDimension
 13
88.43373683440034
 23
106.9893155222529
 33
0.0
 14
229.4337436525821
 24
118.4893155222529
 34
0.0
100
AcDbRotatedDimension
1001
ACAD
1000
DSTYLE
1002
{
1070
    41
1040
3.0
1070
    42
1040
3.0
1070
    43
1040
7.0
1070
    44
1040
1.5
1070
    73
1070
     0
1070
    74
1070
     0
1070
    77
1070
     3
1070
   140
1040
3.0
1070
   141
1040
150.0
1070
   147
1040
1.0
1070
   172
1070
     1
1070
   173
1070
     1
1070
   176
1070
     4
1070
   177
1070
     4
1070
   178
1070
     4
1070
   271
1070
     0
1070
   272
1070
     2
1070
   341
1005
B2
1070
     6
1000
OPEN
1070
     7
1000
OPEN
1002
}
  0
DIMENSION
  5
440
330
1A
100
AcDbEntity
  8
SUNPOU
100
AcDbDimension
  2
*D4
 10
250.1968412349101
 20
71.48931552225289
 30
0.0
 11
247.6968412349101
 21
94.98931552225293
 31
0.0
 70
    32
  3
STANDARD
100
AcDbAlignedDimension
 13
229.4337436525821
 23
118.4893155222529
 33
0.0
 14
229.4337368344003
 24
71.48931552225289
 34
0.0
 50
90.0
100
AcDbRotatedDimension
1001
ACAD
1000
DSTYLE
1002
{
1070
    41
1040
3.0
1070
    42
1040
3.0
1070
    43
1040
7.0
1070
    44
1040
1.5
1070
    73
1070
     0
1070
    74
1070
     0
1070
    77
1070
     3
1070
   140
1040
3.0
1070
   141
1040
150.0
1070
   147
1040
1.0
1070
   172
1070
     1
1070
   173
1070
     1
1070
   176
1070
     4
1070
   177
1070
     4
1070
   178
1070
     4
1070
   271
1070
     0
1070
   272
1070
     2
1070
   341
1005
B2
1070
     6
1000
OPEN
1070
     7
1000
OPEN
1002
}
  0
DIMENSION
  5
44D
330
1A
100
AcDbEntity
  8
SUNPOU
100
AcDbDimension
  2
*D5
 10
291.9557914186116
 20
102.4893155222528
 30
0.0
 11
289.4557914186116
 21
110.4893155222529
 31
0.0
 70
    32
  3
STANDARD
100
AcDbAlignedDimension
 13
312.4337368344003
 23
118.4893155222529
 33
0.0
 14
307.2532368344003
 24
102.4893155222528
 34
0.0
 50
90.0
100
AcDbRotatedDimension
1001
ACAD
1000
DSTYLE
1002
{
1070
    41
1040
3.0
1070
    42
1040
3.0
1070
    43
1040
7.0
1070
    44
1040
1.5
1070
    73
1070
     0
1070
    74
1070
     0
1070
    77
1070
     3
1070
   140
1040
3.0
1070
   141
1040
150.0
1070
   147
1040
1.0
1070
   172
1070
     1
1070
   173
1070
     1
1070
   176
1070
     4
1070
   177
1070
     4
1070
   178
1070
     4
1070
   271
1070
     0
1070
   272
1070
     2
1070
   341
1005
B2
1070
     6
1000
OPEN
1070
     7
1000
OPEN
1002
}
  0
DIMENSION
  5
45A
330
1A
100
AcDbEntity
  8
SUNPOU
100
AcDbDimension
  2
*D6
 10
301.9602024624609
 20
71.48930379576663
 30
0.0
 11
299.4602024624609
 21
74.48930965900982
 31
0.0
 70
    32
  3
STANDARD
100
AcDbAlignedDimension
 13
322.3668368344003
 23
77.4893155222529
 33
0.0
 14
327.4337368344003
 24
71.48930379576663
 34
0.0
 50
90.0
100
AcDbRotatedDimension
1001
ACAD
1000
DSTYLE
1002
{
1070
    41
1040
3.0
1070
    42
1040
3.0
1070
    43
1040
7.0
1070
    44
1040
1.5
1070
    73
1070
     0
1070
    74
1070
     0
1070
    77
1070
     3
1070
   140
1040
3.0
1070
   141
1040
150.0
1070
   147
1040
1.0
1070
   172
1070
     1
1070
   173
1070
     1
1070
   176
1070
     4
1070
   177
1070
     4
1070
   178
1070
     4
1070
   271
1070
     0
1070
   272
1070
     2
1070
   341
1005
B2
1070
     6
1000
OPEN
1070
     7
1000
OPEN
1002
}
  0
DIMENSION
  5
469
330
1A
100
AcDbEntity
  8
SUNPOU
100
AcDbDimension
  2
*D7
 10
283.6187837509562
 20
71.48930379576668
 30
0.0
 11
281.1187837509562
 21
94.98930965900983
 31
0.0
 70
    32
  3
STANDARD
100
AcDbAlignedDimension
 13
312.4337368344003
 23
118.4893155222529
 33
0.0
 14
327.4337368344003
 24
71.48930379576667
 34
0.0
 50
90.0
100
AcDbRotatedDimension
1001
ACAD
1000
DSTYLE
1002
{
1070
    41
1040
3.0
1070
    42
1040
3.0
1070
    43
1040
7.0
1070
    44
1040
1.5
1070
    73
1070
     0
1070
    74
1070
     0
1070
    77
1070
     3
1070
   140
1040
3.0
1070
   141
1040
150.0
1070
   147
1040
1.0
1070
   172
1070
     1
1070
   173
1070
     1
1070
   176
1070
     4
1070
   177
1070
     4
1070
   178
1070
     4
1070
   271
1070
     0
1070
   272
1070
     2
1070
   341
1005
B2
1070
     6
1000
OPEN
1070
     7
1000
OPEN
1002
}
  0
DIMENSION
  5
476
330
1A
100
AcDbEntity
  8
SUNPOU
100
AcDbDimension
  2
*D8
 10
342.4337368344003
 20
130.5904702484901
 30
0.0
 11
327.4337368344003
 21
133.0904702484901
 31
0.0
 70
    32
  3
STANDARD
100
AcDbAlignedDimension
 13
312.4337368344003
 23
118.4893155222529
 33
0.0
 14
342.4337368344003
 24
118.4893155222529
 34
0.0
100
AcDbRotatedDimension
1001
ACAD
1000
DSTYLE
1002
{
1070
    41
1040
3.0
1070
    42
1040
3.0
1070
    43
1040
7.0
1070
    44
1040
1.5
1070
    73
1070
     0
1070
    74
1070
     0
1070
    77
1070
     3
1070
   140
1040
3.0
1070
   141
1040
150.0
1070
   147
1040
1.0
1070
   172
1070
     1
1070
   173
1070
     1
1070
   176
1070
     4
1070
   177
1070
     4
1070
   178
1070
     4
1070
   271
1070
     0
1070
   272
1070
     2
1070
   341
1005
B2
1070
     6
1000
OPEN
1070
     7
1000
OPEN
1002
}
  0
DIMENSION
  5
483
330
1A
100
AcDbEntity
  8
SUNPOU
100
AcDbDimension
  2
*D9
 10
343.9337368344003
 20
138.1801020892495
 30
0.0
 11
327.4337368344003
 21
140.6801020892495
 31
0.0
 70
    32
  3
STANDARD
100
AcDbAlignedDimension
 13
310.9337368344003
 23
106.1818155222528
 33
0.0
 14
343.9337368344003
 24
106.1818155222528
 34
0.0
100
AcDbRotatedDimension
1001
ACAD
1000
DSTYLE
1002
{
1070
    41
1040
3.0
1070
    42
1040
3.0
1070
    43
1040
7.0
1070
    44
1040
1.5
1070
    73
1070
     0
1070
    74
1070
     0
1070
    77
1070
     3
1070
   140
1040
3.0
1070
   141
1040
150.0
1070
   147
1040
1.0
1070
   172
1070
     1
1070
   173
1070
     1
1070
   176
1070
     4
1070
   177
1070
     4
1070
   178
1070
     4
1070
   271
1070
     0
1070
   272
1070
     2
1070
   341
1005
B2
1070
     6
1000
OPEN
1070
     7
1000
OPEN
1002
}
  0
DIMENSION
  5
490
330
1A
100
AcDbEntity
  8
SUNPOU
100
AcDbDimension
  2
*D10
 10
349.9337368344003
 20
145.9751426781861
 30
0.0
 11
327.4337368344003
 21
148.4751426781861
 31
0.0
 70
    32
  3
STANDARD
100
AcDbAlignedDimension
 13
304.9337368344003
 23
108.4893155222528
 33
0.0
 14
349.9337368344003
 24
108.4893155222528
 34
0.0
100
AcDbRotatedDimension
1001
ACAD
1000
DSTYLE
1002
{
1070
    41
1040
3.0
1070
    42
1040
3.0
1070
    43
1040
7.0
1070
    44
1040
1.5
1070
    73
1070
     0
1070
    74
1070
     0
1070
    77
1070
     3
1070
   140
1040
3.0
1070
   141
1040
150.0
1070
   147
1040
1.0
1070
   172
1070
     1
1070
   173
1070
     1
1070
   176
1070
     4
1070
   177
1070
     4
1070
   178
1070
     4
1070
   271
1070
     0
1070
   272
1070
     2
1070
   341
1005
B2
1070
     6
1000
OPEN
1070
     7
1000
OPEN
1002
}
  0
LEADER
  5
49D
330
1A
100
AcDbEntity
  8
SUNPOU
100
AcDbLeader
  3
STANDARD
 40
3.0
 41
15.59999999999999
 76
     3
 10
310.9337368344003
 20
102.4893155222528
 30
0.0
 10
296.7727296793723
 20
128.1899501079417
 30
0.0
 10
277.1344434301893
 20
128.1899501079417
 30
0.0
213
0.0
223
1.5
233
0.0
1001
ACAD
1000
DSTYLE
1002
{
1070
     6
1000
OPEN
1070
    41
1040
3.0
1070
    42
1040
3.0
1070
    43
1040
7.0
1070
    44
1040
1.5
1070
    73
1070
     0
1070
    74
1070
     0
1070
    77
1070
     0
1070
   140
1040
3.0
1070
   141
1040
150.0
1070
   147
1040
1.0
1070
   172
1070
     1
1070
   173
1070
     1
1070
   176
1070
     4
1070
   177
1070
     4
1070
   178
1070
     4
1070
   271
1070
     0
1070
   272
1070
     2
1070
   341
1005
B2
1070
   343
1005
B2
1070
   344
1005
B2
1002
}
  0
MTEXT
  5
4A5
330
1A
100
AcDbEntity
  8
SUNPOU
 62
     4
100
AcDbMText
 10
294.4018450012404
 20
129.1155151000558
 30
0.0
 40
3.0
 41
0.0
 71
     9
 72
     5
  1
\A1;3-φ4.2
1001
ACAD
1000
MTEXTBEGIN
1070
    73
1070
     1
1070
    44
1040
1.0
1070
    74
1070
     0
1000
MTEXTEND
1000
MTEXTBEGIN
1070
    73
1070
     1
1070
    44
1040
1.0
1070
    74
1070
     0
1000
MTEXTEND
1000
MTEXTBEGIN
1070
    73
1070
     1
1070
    44
1040
1.0
1070
    74
1070
     0
1000
MTEXTEND
  0
DIMENSION
  5
4A6
330
1A
100
AcDbEntity
  8
SUNPOU
100
AcDbDimension
  2
*D11
 10
60.56609748381424
 20
71.48931552225295
 30
0.0
 11
58.06609748381423
 21
89.23931552225294
 31
0.0
 70
    32
  3
STANDARD
100
AcDbAlignedDimension
 13
88.43373683440034
 23
106.9893155222529
 33
0.0
 14
228.4336368344003
 24
71.48931552225289
 34
0.0
 50
90.0
100
AcDbRotatedDimension
1001
ACAD
1000
DSTYLE
1002
{
1070
    41
1040
3.0
1070
    42
1040
3.0
1070
    43
1040
7.0
1070
    44
1040
1.5
1070
    73
1070
     0
1070
    74
1070
     0
1070
    77
1070
     3
1070
   140
1040
3.0
1070
   141
1040
150.0
1070
   147
1040
1.0
1070
   172
1070
     1
1070
   173
1070
     1
1070
   176
1070
     4
1070
   177
1070
     4
1070
   178
1070
     4
1070
   271
1070
     0
1070
   272
1070
     2
1070
   341
1005
B2
1070
     6
1000
OPEN
1070
     7
1000
OPEN
1002
}
  0
DIMENSION
  5
4B3
330
1A
100
AcDbEntity
  8
SUNPOU
100
AcDbDimension
  2
*D12
 10
69.87860436430264
 20
101.9893155222528
 30
0.0
 11
67.37860436430262
 21
104.4893155222529
 31
0.0
 70
    32
  3
STANDARD
100
AcDbAlignedDimension
 13
88.3844368344004
 23
106.9893155222529
 33
0.0
 14
89.83363683440035
 24
101.9893155222528
 34
0.0
 50
90.0
100
AcDbRotatedDimension
1001
ACAD
1000
DSTYLE
1002
{
1070
    41
1040
3.0
1070
    42
1040
3.0
1070
    43
1040
7.0
1070
    44
1040
1.5
1070
    73
1070
     0
1070
    74
1070
     0
1070
    77
1070
     3
1070
   140
1040
3.0
1070
   141
1040
150.0
1070
   147
1040
1.0
1070
   172
1070
     1
1070
   173
1070
     1
1070
   176
1070
     4
1070
   177
1070
     4
1070
   178
1070
     4
1070
   271
1070
     0
1070
   272
1070
     2
1070
   341
1005
B2
1070
     6
1000
OPEN
1070
     7
1000
OPEN
1002
}
  0
DIMENSION
  5
4C2
330
1A
100
AcDbEntity
  8
SUNPOU
100
AcDbDimension
  2
*D13
 10
229.4336368344003
 20
47.15664102404287
 30
0.0
 11
240.1836368344003
 21
49.65664102404287
 31
0.0
 70
    32
  1
t<>
  3
STANDARD
100
AcDbAlignedDimension
 13
228.4336368344003
 23
71.48931552225289
 33
0.0
 14
229.4336368344003
 24
71.48931552225289
 34
0.0
100
AcDbRotatedDimension
1001
ACAD
1000
DSTYLE
1002
{
1070
    41
1040
3.0
1070
    42
1040
3.0
1070
    43
1040
7.0
1070
    44
1040
1.5
1070
    73
1070
     0
1070
    74
1070
     0
1070
    77
1070
     3
1070
   140
1040
3.0
1070
   141
1040
150.0
1070
   147
1040
1.0
1070
   172
1070
     1
1070
   173
1070
     1
1070
   176
1070
     4
1070
   177
1070
     4
1070
   178
1070
     4
1070
   271
1070
     1
1070
   272
1070
     2
1070
   341
1005
B2
1070
     6
1000
OPEN
1070
     7
1000
OPEN
1002
}
  0
DIMENSION
  5
4E7
330
1A
100
AcDbEntity
  8
SUNPOU
100
AcDbDimension
  2
*D14
 10
250.1968412349101
 20
190.6579155222528
 30
0.0
 11
247.6968412349101
 21
207.1579155222529
 31
0.0
 70
    32
  3
STANDARD
100
AcDbAlignedDimension
 13
233.4036368344003
 23
223.6579155222528
 33
0.0
 14
233.4035368344003
 24
190.6579155222528
 34
0.0
 50
90.0
100
AcDbRotatedDimension
1001
ACAD
1000
DSTYLE
1002
{
1070
    41
1040
3.0
1070
    42
1040
3.0
1070
    43
1040
7.0
1070
    44
1040
1.5
1070
    73
1070
     0
1070
    74
1070
     0
1070
    77
1070
     3
1070
   140
1040
3.0
1070
   141
1040
150.0
1070
   147
1040
1.0
1070
   172
1070
     1
1070
   173
1070
     1
1070
   176
1070
     4
1070
   177
1070
     4
1070
   178
1070
     4
1070
   271
1070
     0
1070
   272
1070
     2
1070
   341
1005
B2
1070
     6
1000
OPEN
1070
     7
1000
OPEN
1002
}
  0
DIMENSION
  5
4F4
330
1A
100
AcDbEntity
  8
SUNPOU
100
AcDbDimension
  2
*D15
 10
259.3377093214233
 20
229.6579155222528
 30
0.0
 11
256.8377093214232
 21
207.1579155222529
 31
0.0
 70
    32
  3
STANDARD
100
AcDbAlignedDimension
 13
229.4337368344003
 23
184.6579155222529
 33
0.0
 14
229.4337368344003
 24
229.6579155222528
 34
0.0
 50
90.0
100
AcDbRotatedDimension
1001
ACAD
1000
DSTYLE
1002
{
1070
    41
1040
3.0
1070
    42
1040
3.0
1070
    43
1040
7.0
1070
    44
1040
1.5
1070
    73
1070
     0
1070
    74
1070
     0
1070
    77
1070
     3
1070
   140
1040
3.0
1070
   141
1040
150.0
1070
   147
1040
1.0
1070
   172
1070
     1
1070
   173
1070
     1
1070
   176
1070
     4
1070
   177
1070
     4
1070
   178
1070
     4
1070
   271
1070
     0
1070
   272
1070
     2
1070
   341
1005
B2
1070
     6
1000
OPEN
1070
     7
1000
OPEN
1002
}
  0
DIMENSION
  5
502
330
1A
100
AcDbEntity
  8
SUNPOU
100
AcDbDimension
  2
*D16
 10
67.67484785451893
 20
200.6579155222528
 30
0.0
 11
65.1748478545189
 21
207.1579155222529
 31
0.0
 70
    32
  3
STANDARD
100
AcDbAlignedDimension
 13
92.83373683440036
 23
213.6579155222528
 33
0.0
 14
92.83373683440036
 24
200.6579155222528
 34
0.0
 50
90.0
100
AcDbRotatedDimension
1001
ACAD
1000
DSTYLE
1002
{
1070
    41
1040
3.0
1070
    42
1040
3.0
1070
    43
1040
7.0
1070
    44
1040
1.5
1070
    73
1070
     0
1070
    74
1070
     0
1070
    77
1070
     3
1070
   140
1040
3.0
1070
   141
1040
150.0
1070
   147
1040
1.0
1070
   172
1070
     1
1070
   173
1070
     1
1070
   176
1070
     4
1070
   177
1070
     4
1070
   178
1070
     4
1070
   271
1070
     0
1070
   272
1070
     2
1070
   341
1005
B2
1070
     6
1000
OPEN
1070
     7
1000
OPEN
1002
}
  0
DIMENSION
  5
50F
330
1A
100
AcDbEntity
  8
SUNPOU
100
AcDbDimension
  2
*D17
 10
59.02248947291105
 20
197.1579155222529
 30
0.0
 11
56.52248947291102
 21
207.1579155222529
 31
0.0
 70
    32
  3
STANDARD
100
AcDbAlignedDimension
 13
88.43373683440034
 23
217.1579155222528
 33
0.0
 14
88.43373683440034
 24
197.1579155222529
 34
0.0
 50
90.0
100
AcDbRotatedDimension
1001
ACAD
1000
DSTYLE
1002
{
1070
    41
1040
3.0
1070
    42
1040
3.0
1070
    43
1040
7.0
1070
    44
1040
1.5
1070
    73
1070
     0
1070
    74
1070
     0
1070
    77
1070
     3
1070
   140
1040
3.0
1070
   141
1040
150.0
1070
   147
1040
1.0
1070
   172
1070
     1
1070
   173
1070
     1
1070
   176
1070
     4
1070
   177
1070
     4
1070
   178
1070
     4
1070
   271
1070
     0
1070
   272
1070
     2
1070
   341
1005
B2
1070
     6
1000
OPEN
1070
     7
1000
OPEN
1002
}
  0
DIMENSION
  5
51C
330
1A
100
AcDbEntity
  8
SUNPOU
100
AcDbDimension
  2
*D18
 10
162.6166257539766
 20
98.48931552225288
 30
0.0
 11
160.1166257539766
 21
108.4893155222529
 31
0.0
 70
    32
  3
STANDARD
100
AcDbAlignedDimension
 13
184.4336956579297
 23
118.4893155222529
 33
0.0
 14
152.8866368344003
 24
98.48931552225289
 34
0.0
 50
90.0
100
AcDbRotatedDimension
1001
ACAD
1000
DSTYLE
1002
{
1070
    41
1040
3.0
1070
    42
1040
3.0
1070
    43
1040
7.0
1070
    44
1040
1.5
1070
    73
1070
     0
1070
    74
1070
     0
1070
    77
1070
     3
1070
   140
1040
3.0
1070
   141
1040
150.0
1070
   147
1040
1.0
1070
   172
1070
     1
1070
   173
1070
     1
1070
   176
1070
     4
1070
   177
1070
     4
1070
   178
1070
     4
1070
   271
1070
     0
1070
   272
1070
     2
1070
   341
1005
B2
1070
     6
1000
OPEN
1070
     7
1000
OPEN
1002
}
  0
LWPOLYLINE
  5
856
330
1A
100
AcDbEntity
  8
ZUWAKU
100
AcDbPolyline
 90
        4
 70
     1
 43
0.0
 10
0.4000000601703278
 20
275.4000001794725
 10
0.4000000601703278
 20
0.4000001794725563
 10
398.4000000601703
 20
0.4000001794725563
 10
398.4000000601703
 20
275.4000001794725
  0
LWPOLYLINE
  5
857
330
1A
100
AcDbEntity
  8
ZUWAKU
100
AcDbPolyline
 90
        4
 70
     1
 43
0.0
 10
0.2000000601703391
 20
275.6000001794725
 10
0.2000000601703391
 20
0.2000001794725676
 10
398.6000000601703
 20
0.2000001794725561
 10
398.6000000601703
 20
275.6000001794725
  0
LWPOLYLINE
  5
858
330
1A
100
AcDbEntity
  8
ZUWAKU
100
AcDbPolyline
 90
        4
 70
     1
 43
0.0
 10
0.0000000601703505
 20
275.8000001794725
 10
0.0000000601703505
 20
0.0000001794725222
 10
398.8000000601704
 20
0.0000001794725559
 10
398.8000000601704
 20
275.8000001794726
  0
LWPOLYLINE
  5
859
330
1A
100
AcDbEntity
  8
ZUWAKU
100
AcDbPolyline
 90
        4
 70
     1
 43
0.0
 10
0.300000060170305
 20
275.5000001794726
 10
0.300000060170305
 20
0.3000001794725335
 10
398.5000000601704
 20
0.3000001794725566
 10
398.5000000601703
 20
275.5000001794726
  0
LWPOLYLINE
  5
85A
330
1A
100
AcDbEntity
  8
ZUWAKU
100
AcDbPolyline
 90
        4
 70
     1
 43
0.0
 10
0.1000000601703164
 20
275.7000001794725
 10
0.1000000601703164
 20
0.1000001794725449
 10
398.7000000601702
 20
0.1000001794725565
 10
398.7000000601704
 20
275.7000001794725
  0
LINE
  5
85B
330
1A
100
AcDbEntity
  8
ZUWAKU
100
AcDbLine
 10
0.0000000601703505
 20
15.00000017947252
 30
0.0
 11
398.7000000601702
 21
15.00000017947252
 31
0.0
  0
LINE
  5
85C
330
1A
100
AcDbEntity
  8
ZUWAKU
100
AcDbLine
 10
0.0000000601703505
 20
15.10000017947252
 30
0.0
 11
398.7000000601702
 21
15.10000017947252
 31
0.0
  0
LINE
  5
85D
330
1A
100
AcDbEntity
  8
ZUWAKU
100
AcDbLine
 10
0.0000000601703505
 20
15.20000017947252
 30
0.0
 11
398.7000000601702
 21
15.20000017947252
 31
0.0
  0
LINE
  5
85E
330
1A
100
AcDbEntity
  8
ZUWAKU
100
AcDbLine
 10
0.0000000601703505
 20
15.30000017947252
 30
0.0
 11
398.7000000601702
 21
15.30000017947252
 31
0.0
  0
LINE
  5
85F
330
1A
100
AcDbEntity
  8
ZUWAKU
100
AcDbLine
 10
0.0000000601703505
 20
15.40000017947252
 30
0.0
 11
398.7000000601702
 21
15.40000017947252
 31
0.0
  0
LINE
  5
860
330
1A
100
AcDbEntity
  8
ZUWAKU
100
AcDbLine
 10
104.3233007052043
 20
7.700000179472539
 30
0.0
 11
223.712182045666
 21
7.700000179472539
 31
0.0
  0
LINE
  5
861
330
1A
100
AcDbEntity
  8
ZUWAKU
100
AcDbLine
 10
104.3233007052043
 20
7.800000179472538
 30
0.0
 11
223.712182045666
 21
7.800000179472542
 31
0.0
  0
LINE
  5
862
330
1A
100
AcDbEntity
  8
ZUWAKU
100
AcDbLine
 10
104.3233007052043
 20
7.600000179472541
 30
0.0
 11
223.712182045666
 21
7.600000179472537
 31
0.0
  0
CIRCLE
  5
863
330
1A
100
AcDbEntity
  8
ZUWAKU
100
AcDbCircle
 10
12.9961061375609
 20
7.600000179472523
 30
0.0
 40
0.875
  0
LINE
  5
864
330
1A
100
AcDbEntity
  8
ZUWAKU
100
AcDbLine
 10
13.4336061375609
 20
3.575000179472525
 30
0.0
 11
12.47110613756092
 21
3.575000179472525
 31
0.0
  0
LINE
  5
865
330
1A
100
AcDbEntity
  8
ZUWAKU
100
AcDbLine
 10
12.47110613756092
 20
4.975000179472523
 30
0.0
 11
13.4336061375609
 21
4.975000179472523
 31
0.0
  0
LINE
  5
866
330
1A
100
AcDbEntity
  8
ZUWAKU
100
AcDbLine
 10
13.4336061375609
 20
10.22500017947252
 30
0.0
 11
12.47110613756092
 21
10.22500017947252
 31
0.0
  0
LINE
  5
867
330
1A
100
AcDbEntity
  8
ZUWAKU
100
AcDbLine
 10
12.47110613756092
 20
11.6250001794725
 30
0.0
 11
13.4336061375609
 21
11.62500017947252
 31
0.0
  0
HATCH
  5
868
330
1A
100
AcDbEntity
  8
ZUWAKU
100
AcDbHatch
 10
0.0
 20
0.0
 30
0.0
210
0.0
220
0.0
230
1.0
  2
ANSI37
 70
     0
 71
     0
 91
        8
 92
        7
 72
     1
 73
     1
 93
       24
 10
7.251131390730279
 20
8.822424419964313
 42
-0.1989123673796348
 10
7.046106137560911
 20
9.317399166794839
 42
0.0
 10
7.046106137560911
 20
9.962500179472527
 42
-0.4142135623730912
 10
7.3086061375609
 20
10.22500017947252
 42
0.0
 10
8.796106137560855
 20
10.22500017947252
 42
0.4142135623731546
 10
9.0586061375609
 20
10.48750017947251
 42
0.0
 10
9.0586061375609
 20
11.36250017947252
 42
0.4142135623731586
 10
8.796106137560855
 20
11.62500017947252
 42
0.0
 10
7.046106137560911
 20
11.62500017947252
 42
0.4142135623730928
 10
5.646106137560934
 20
10.22500017947253
 42
0.0
 10
5.646106137560934
 20
9.317399166794903
 42
0.1989123673796619
 10
6.26118189706915
 20
7.832474926303099
 42
0.0
 10
7.716080884391487
 20
6.37757593898077
 42
-0.1989123673796613
 10
7.921106137560911
 20
5.882601192150177
 42
0.0
 10
7.921106137560911
 20
5.237500179472519
 42
-0.4142135623730911
 10
7.658606137560923
 20
4.975000179472523
 42
0.0
 10
6.171106137560968
 20
4.975000179472523
 42
0.4142135623731526
 10
5.908606137560923
 20
4.712500179472529
 42
0.0
 10
5.908606137560923
 20
3.837500179472518
 42
0.4142135623731526
 10
6.171106137560968
 20
3.575000179472525
 42
0.0
 10
7.921106137560911
 20
3.575000179472525
 42
0.4142135623731044
 10
9.321106137560946
 20
4.975000179472512
 42
0.0
 10
9.321106137560946
 20
5.882601192150149
 42
0.1989123673796604
 10
8.706030378052673
 20
7.367525432641919
 42
0.0
 97
        0
 92
        7
 72
     1
 73
     1
 93
       16
 10
11.77110613756093
 20
9.525000179472527
 42
-0.4142135623730935
 10
12.47110613756092
 20
10.22500017947252
 42
0.0
 10
13.4336061375609
 20
10.22500017947252
 42
0.4142135623731546
 10
13.69610613756094
 20
10.48750017947251
 42
0.0
 10
13.69610613756094
 20
11.36250017947252
 42
0.4142135623730951
 10
13.43360613756095
 20
11.62500017947252
 42
0.0
 10
12.47110613756086
 20
11.6250001794725
 42
0.4142135623730892
 10
10.3711061375609
 20
9.525000179472492
 42
0.0
 10
10.3711061375609
 20
5.675000179472537
 42
0.4142135623730969
 10
12.47110613756092
 20
3.575000179472525
 42
0.0
 10
13.4336061375609
 20
3.575000179472525
 42
0.4142135623731526
 10
13.69610613756094
 20
3.837500179472518
 42
0.0
 10
13.69610613756094
 20
4.712500179472529
 42
0.4142135623730891
 10
13.43360613756095
 20
4.975000179472523
 42
0.0
 10
12.47110613756092
 20
4.975000179472523
 42
-0.4142135623730928
 10
11.77110613756093
 20
5.675000179472517
 42
0.0
 97
        0
 92
        7
 72
     1
 73
     1
 93
        2
 10
12.1211061375609
 20
7.600000179472523
 42
1.0
 10
13.8711061375609
 20
7.600000179472523
 42
1.0
 97
        0
 92
        7
 72
     1
 73
     1
 93
       26
 10
18.65742937864991
 20
9.602523776254237
 42
0.0
 10
19.18824919521881
 20
11.28345319538903
 42
0.5069206636600134
 10
18.93793374562113
 20
11.62500017947252
 42
0.0
 10
18.08848905581652
 20
11.62500017947252
 42
0.3272098845218764
 10
17.83817360621884
 20
11.441547163556
 42
0.0
 10
16.90403866890295
 20
8.483453195389063
 42
-0.3272098845219541
 10
16.65372321930522
 20
8.300000179472522
 42
0.0
 10
16.58360613756099
 20
8.300000179472522
 42
-0.4142135623731526
 10
16.32110613756094
 20
8.562500179472516
 42
0.0
 10
16.32110613756094
 20
11.36250017947252
 42
0.4142135623730951
 10
16.05860613756095
 20
11.62500017947252
 42
0.0
 10
15.1836061375609
 20
11.62500017947252
 42
0.4142135623730871
 10
14.92110613756091
 20
11.36250017947253
 42
0.0
 10
14.92110613756091
 20
3.837500179472518
 42
0.4142135623730891
 10
15.1836061375609
 20
3.575000179472525
 42
0.0
 10
16.0586061375609
 20
3.575000179472525
 42
0.4142135623731526
 10
16.32110613756094
 20
3.837500179472518
 42
0.0
 10
16.32110613756094
 20
6.63750017947253
 42
-0.4142135623731526
 10
16.58360613756099
 20
6.900000179472524
 42
0.0
 10
16.65372321930527
 20
6.900000179472524
 42
-0.3272098845218915
 10
16.90403866890295
 20
6.716547163555986
 42
0.0
 10
17.83817360621884
 20
3.75845319538906
 42
0.3272098845218902
 10
18.08848905581652
 20
3.575000179472525
 42
0.0
 10
18.93793374562113
 20
3.575000179472525
 42
0.5069206636600335
 10
19.18824919521881
 20
3.916547163556028
 42
0.0
 10
18.02505350598198
 20
7.600000179472592
 42
0.0
 97
        0
 92
        7
 72
     1
 73
     1
 93
        8
 10
21.7461061375609
 20
11.36250017947252
 42
0.4142135623731546
 10
21.48360613756085
 20
11.62500017947252
 42
0.0
 10
20.60860613756096
 20
11.62500017947252
 42
0.4142135623731507
 10
20.34610613756092
 20
11.36250017947253
 42
0.0
 10
20.34610613756092
 20
3.837500179472518
 42
0.4142135623731526
 10
20.60860613756096
 20
3.575000179472525
 42
0.0
 10
21.48360613756085
 20
3.575000179472525
 42
0.4142135623731526
 10
21.7461061375609
 20
3.837500179472518
 42
0.0
 97
        0
 92
        7
 72
     1
 73
     1
 93
       24
 10
24.19610613756094
 20
9.962500179472527
 42
-0.4142135623731546
 10
24.45860613756099
 20
10.22500017947252
 42
0.0
 10
25.94610613756094
 20
10.22500017947252
 42
0.4142135623730911
 10
26.20860613756093
 20
10.48750017947251
 42
0.0
 10
26.20860613756093
 20
11.36250017947252
 42
0.4142135623730952
 10
25.94610613756094
 20
11.62500017947252
 42
0.0
 10
24.19610613756094
 20
11.62500017947252
 42
0.4142135623731048
 10
22.79610613756091
 20
10.22500017947253
 42
0.0
 10
22.79610613756091
 20
9.317399166794903
 42
0.1989123673796613
 10
23.41118189706918
 20
7.832474926303127
 42
0.0
 10
24.86608088439152
 20
6.377575938980793
 42
-0.1989123673796402
 10
25.07110613756094
 20
5.882601192150257
 42
0.0
 10
25.07110613756094
 20
5.237500179472519
 42
-0.4142135623730911
 10
24.80860613756096
 20
4.975000179472523
 42
0.0
 10
23.32110613756094
 20
4.975000179472523
 42
0.4142135623731526
 10
23.05860613756089
 20
4.712500179472529
 42
0.0
 10
23.05860613756089
 20
3.837500179472518
 42
0.4142135623730891
 10
23.32110613756089
 20
3.575000179472525
 42
0.0
 10
25.07110613756094
 20
3.575000179472525
 42
0.4142135623730925
 10
26.47110613756092
 20
4.975000179472512
 42
0.0
 10
26.47110613756092
 20
5.882601192150149
 42
0.1989123673796675
 10
25.85603037805265
 20
7.367525432641976
 42
0.0
 10
24.40113139073037
 20
8.822424419964233
 42
-0.1989123673796652
 10
24.19610613756094
 20
9.317399166794817
 42
0.0
 97
        0
 92
        7
 72
     1
 73
     1
 93
       16
 10
28.92110613756091
 20
11.36250017947251
 42
0.414213562373103
 10
28.65860613756092
 20
11.62500017947252
 42
0.0
 10
27.78360613756092
 20
11.62500017947252
 42
0.4142135623730871
 10
27.52110613756093
 20
11.36250017947253
 42
0.0
 10
27.52110613756093
 20
4.975000179472512
 42
0.4142135623730926
 10
28.92110613756091
 20
3.575000179472525
 42
0.0
 10
30.67110613756091
 20
3.575000179472525
 42
0.4142135623731044
 10
32.07110613756094
 20
4.975000179472512
 42
0.0
 10
32.07110613756094
 20
11.36250017947252
 42
0.4142135623730951
 10
31.80860613756095
 20
11.62500017947252
 42
0.0
 10
30.9336061375609
 20
11.62500017947252
 42
0.4142135623730871
 10
30.67110613756091
 20
11.36250017947253
 42
0.0
 10
30.67110613756091
 20
5.500000179472511
 42
-0.414213562373088
 10
30.14610613756093
 20
4.975000179472523
 42
0.0
 10
29.44610613756094
 20
4.975000179472523
 42
-0.4142135623731197
 10
28.92110613756091
 20
5.500000179472511
 42
0.0
 97
        0
 92
        7
 72
     1
 73
     1
 93
        8
 10
34.52110613756093
 20
11.36250017947253
 42
0.4142135623730871
 10
34.25860613756094
 20
11.62500017947252
 42
0.0
 10
33.38360613756094
 20
11.62500017947252
 42
0.4142135623731507
 10
33.1211061375609
 20
11.36250017947253
 42
0.0
 10
33.1211061375609
 20
3.837500179472518
 42
0.4142135623730891
 10
33.38360613756089
 20
3.575000179472525
 42
0.0
 10
34.25860613756094
 20
3.575000179472525
 42
0.4142135623730891
 10
34.52110613756093
 20
3.837500179472518
 42
0.0
 97
        0
 75
     0
 76
     1
 52
0.0
 41
0.1
 77
     0
 78
     2
 53
45.0
 43
-450.4711521071691
 44
-6.599999820527443
 45
-0.2245064030267288
 46
0.2245064030267288
 79
     0
 53
135.0
 43
-450.4711521071691
 44
-6.599999820527443
 45
-0.2245064030267288
 46
-0.2245064030267288
 79
     0
 47
0.057451373970553
 98
        8
 10
8.039927541682004
 20
7.583587002415299
 10
11.20225756338993
 20
9.422031270698028
 10
12.58218400300018
 20
7.755941002507881
 10
15.45703005098892
 20
8.100649002693273
 10
20.91923606964872
 20
8.330455136464081
 10
23.44910050773512
 20
9.709288337676127
 10
28.27884304637052
 20
9.364579137020029
 10
33.91353986998172
 20
9.594385270790837
  0
ARC
  5
869
330
1A
100
AcDbEntity
  8
ZUWAKU
100
AcDbCircle
 10
7.7461061375609
 20
9.317399166794874
 30
0.0
 40
2.099999999999999
100
AcDbArc
 50
180.0
 51
225.0
  0
LINE
  5
86A
330
1A
100
AcDbEntity
  8
ZUWAKU
100
AcDbLine
 10
10.3711061375609
 20
5.675000179472526
 30
0.0
 11
10.3711061375609
 21
9.525000179472502
 31
0.0
  0
LINE
  5
86B
330
1A
100
AcDbEntity
  8
ZUWAKU
100
AcDbLine
 10
11.77110613756093
 20
9.525000179472524
 30
0.0
 11
11.77110613756093
 21
5.675000179472526
 31
0.0
  0
ARC
  5
86C
330
1A
100
AcDbEntity
  8
ZUWAKU
100
AcDbCircle
 10
7.7461061375609
 20
9.317399166794874
 30
0.0
 40
0.7
100
AcDbArc
 50
180.0000000000016
 51
224.9999999999988
  0
ARC
  5
86D
330
1A
100
AcDbEntity
  8
ZUWAKU
100
AcDbCircle
 10
12.47110613756092
 20
5.675000179472526
 30
0.0
 40
2.099999999999999
100
AcDbArc
 50
180.0
 51
270.0
  0
ARC
  5
86E
330
1A
100
AcDbEntity
  8
ZUWAKU
100
AcDbCircle
 10
7.921106137560911
 20
4.975000179472523
 30
0.0
 40
1.399999999999999
100
AcDbArc
 50
270.0
 51
0.0
  0
ARC
  5
86F
330
1A
100
AcDbEntity
  8
ZUWAKU
100
AcDbCircle
 10
7.221106137560923
 20
5.882601192150175
 30
0.0
 40
2.099999999999999
100
AcDbArc
 50
0.0
 51
45.0
  0
LINE
  5
870
330
1A
100
AcDbEntity
  8
ZUWAKU
100
AcDbLine
 10
6.26118189706915
 20
7.832474926303113
 30
0.0
 11
7.716080884391487
 21
6.377575938980783
 31
0.0
  0
LINE
  5
871
330
1A
100
AcDbEntity
  8
ZUWAKU
100
AcDbLine
 10
6.171106137560911
 20
4.975000179472523
 30
0.0
 11
7.658606137560923
 21
4.975000179472523
 31
0.0
  0
LINE
  5
872
330
1A
100
AcDbEntity
  8
ZUWAKU
100
AcDbLine
 10
6.171106137560911
 20
3.575000179472525
 30
0.0
 11
7.921106137560911
 21
3.575000179472525
 31
0.0
  0
ARC
  5
873
330
1A
100
AcDbEntity
  8
ZUWAKU
100
AcDbCircle
 10
6.171106137560911
 20
4.712500179472524
 30
0.0
 40
0.2625
100
AcDbArc
 50
90.0
 51
180.0
  0
ARC
  5
874
330
1A
100
AcDbEntity
  8
ZUWAKU
100
AcDbCircle
 10
6.171106137560911
 20
3.837500179472524
 30
0.0
 40
0.2625
100
AcDbArc
 50
180.0
 51
270.0
  0
LINE
  5
875
330
1A
100
AcDbEntity
  8
ZUWAKU
100
AcDbLine
 10
5.908606137560923
 20
3.837500179472524
 30
0.0
 11
5.908606137560923
 21
4.712500179472524
 31
0.0
  0
ARC
  5
876
330
1A
100
AcDbEntity
  8
ZUWAKU
100
AcDbCircle
 10
7.221106137560923
 20
5.882601192150197
 30
0.0
 40
0.7
100
AcDbArc
 50
0.0
 51
45.0
  0
ARC
  5
877
330
1A
100
AcDbEntity
  8
ZUWAKU
100
AcDbCircle
 10
7.658606137560923
 20
5.237500179472526
 30
0.0
 40
0.2625
100
AcDbArc
 50
270.0
 51
0.0
  0
LINE
  5
878
330
1A
100
AcDbEntity
  8
ZUWAKU
100
AcDbLine
 10
7.921106137560911
 20
5.237500179472526
 30
0.0
 11
7.921106137560911
 21
5.882601192150197
 31
0.0
  0
LINE
  5
879
330
1A
100
AcDbEntity
  8
ZUWAKU
100
AcDbLine
 10
8.706030378052673
 20
7.367525432641937
 30
0.0
 11
7.251131390730336
 21
8.822424419964274
 31
0.0
  0
ARC
  5
87A
330
1A
100
AcDbEntity
  8
ZUWAKU
100
AcDbCircle
 10
12.47110613756092
 20
5.675000179472526
 30
0.0
 40
0.7
100
AcDbArc
 50
180.0
 51
270.0
  0
LINE
  5
87B
330
1A
100
AcDbEntity
  8
ZUWAKU
100
AcDbLine
 10
9.321106137560946
 20
4.975000179472523
 30
0.0
 11
9.321106137560946
 21
5.882601192150197
 31
0.0
  0
ARC
  5
87C
330
1A
100
AcDbEntity
  8
ZUWAKU
100
AcDbCircle
 10
8.796106137560911
 20
10.48750017947252
 30
0.0
 40
0.2625
100
AcDbArc
 50
270.0
 51
0.0
  0
ARC
  5
87D
330
1A
100
AcDbEntity
  8
ZUWAKU
100
AcDbCircle
 10
8.796106137560911
 20
11.36250017947252
 30
0.0
 40
0.2625
100
AcDbArc
 50
0.0
 51
90.0
  0
ARC
  5
87E
330
1A
100
AcDbEntity
  8
ZUWAKU
100
AcDbCircle
 10
7.046106137560911
 20
10.22500017947252
 30
0.0
 40
1.399999999999999
100
AcDbArc
 50
90.0
 51
180.0
  0
LINE
  5
87F
330
1A
100
AcDbEntity
  8
ZUWAKU
100
AcDbLine
 10
5.646106137560934
 20
10.22500017947252
 30
0.0
 11
5.646106137560934
 21
9.317399166794853
 31
0.0
  0
LINE
  5
880
330
1A
100
AcDbEntity
  8
ZUWAKU
100
AcDbLine
 10
8.796106137560911
 20
10.22500017947252
 30
0.0
 11
7.3086061375609
 21
10.22500017947252
 31
0.0
  0
LINE
  5
881
330
1A
100
AcDbEntity
  8
ZUWAKU
100
AcDbLine
 10
7.046106137560911
 20
9.962500179472524
 30
0.0
 11
7.046106137560911
 21
9.317399166794853
 31
0.0
  0
ARC
  5
882
330
1A
100
AcDbEntity
  8
ZUWAKU
100
AcDbCircle
 10
7.3086061375609
 20
9.962500179472524
 30
0.0
 40
0.2625
100
AcDbArc
 50
90.0
 51
180.0
  0
LINE
  5
883
330
1A
100
AcDbEntity
  8
ZUWAKU
100
AcDbLine
 10
7.046106137560911
 20
11.62500017947252
 30
0.0
 11
8.796106137560911
 21
11.62500017947252
 31
0.0
  0
ARC
  5
884
330
1A
100
AcDbEntity
  8
ZUWAKU
100
AcDbCircle
 10
12.47110613756092
 20
9.525000179472502
 30
0.0
 40
2.099999999999999
100
AcDbArc
 50
90.0
 51
180.0
  0
ARC
  5
885
330
1A
100
AcDbEntity
  8
ZUWAKU
100
AcDbCircle
 10
12.47110613756092
 20
9.525000179472524
 30
0.0
 40
0.7
100
AcDbArc
 50
90.0
 51
180.0
  0
LINE
  5
886
330
1A
100
AcDbEntity
  8
ZUWAKU
100
AcDbLine
 10
9.0586061375609
 20
11.36250017947252
 30
0.0
 11
9.0586061375609
 21
10.48750017947252
 31
0.0
  0
TEXT
  5
887
330
1A
100
AcDbEntity
  8
MOJI
100
AcDbText
 10
46.47889485425491
 20
6.370589244609902
 30
0.0
 40
3.0
  1
ライナートップ
 41
0.9
  7
ｽﾀｲﾙ1
100
AcDbText
  0
LINE
  5
888
330
1A
100
AcDbEntity
  8
ZUWAKU
100
AcDbLine
 10
17.83817360621884
 20
11.441547163556
 30
0.0
 11
16.90403866890295
 21
8.483453195389039
 31
0.0
  0
LINE
  5
889
330
1A
100
AcDbEntity
  8
ZUWAKU
100
AcDbLine
 10
14.92110613756091
 20
11.36250017947252
 30
0.0
 11
14.92110613756091
 21
3.837500179472524
 31
0.0
  0
LINE
  5
88A
330
1A
100
AcDbEntity
  8
ZUWAKU
100
AcDbLine
 10
16.32110613756094
 20
8.562500179472525
 30
0.0
 11
16.32110613756094
 21
11.36250017947252
 31
0.0
  0
LINE
  5
88B
330
1A
100
AcDbEntity
  8
ZUWAKU
100
AcDbLine
 10
28.92110613756091
 20
5.500000179472522
 30
0.0
 11
28.92110613756091
 21
11.36250017947252
 31
0.0
  0
LINE
  5
88C
330
1A
100
AcDbEntity
  8
ZUWAKU
100
AcDbLine
 10
27.52110613756093
 20
11.36250017947252
 30
0.0
 11
27.52110613756093
 21
4.975000179472523
 31
0.0
  0
LINE
  5
88D
330
1A
100
AcDbEntity
  8
ZUWAKU
100
AcDbLine
 10
21.7461061375609
 20
3.837500179472524
 30
0.0
 11
21.7461061375609
 21
11.36250017947252
 31
0.0
  0
LINE
  5
88E
330
1A
100
AcDbEntity
  8
ZUWAKU
100
AcDbLine
 10
20.34610613756092
 20
11.36250017947252
 30
0.0
 11
20.34610613756092
 21
3.837500179472524
 31
0.0
  0
LINE
  5
88F
330
1A
100
AcDbEntity
  8
ZUWAKU
100
AcDbLine
 10
18.65742937864991
 20
9.602523776254237
 30
0.0
 11
18.02505350598198
 21
7.600000179472534
 31
0.0
  0
ARC
  5
890
330
1A
100
AcDbEntity
  8
ZUWAKU
100
AcDbCircle
 10
24.89610613756093
 20
9.317399166794874
 30
0.0
 40
2.099999999999999
100
AcDbArc
 50
180.0
 51
225.0
  0
ARC
  5
891
330
1A
100
AcDbEntity
  8
ZUWAKU
100
AcDbCircle
 10
24.89610613756093
 20
9.317399166794874
 30
0.0
 40
0.7
100
AcDbArc
 50
180.0000000000016
 51
224.9999999999988
  0
LINE
  5
892
330
1A
100
AcDbEntity
  8
ZUWAKU
100
AcDbLine
 10
33.1211061375609
 20
11.36250017947252
 30
0.0
 11
33.1211061375609
 21
3.837500179472524
 31
0.0
  0
LINE
  5
893
330
1A
100
AcDbEntity
  8
ZUWAKU
100
AcDbLine
 10
34.52110613756093
 20
3.837500179472524
 30
0.0
 11
34.52110613756093
 21
11.36250017947252
 31
0.0
  0
LINE
  5
894
330
1A
100
AcDbEntity
  8
ZUWAKU
100
AcDbLine
 10
30.67110613756091
 20
11.36250017947252
 30
0.0
 11
30.67110613756091
 21
5.500000179472522
 31
0.0
  0
LINE
  5
895
330
1A
100
AcDbEntity
  8
ZUWAKU
100
AcDbLine
 10
32.07110613756094
 20
4.975000179472523
 30
0.0
 11
32.07110613756094
 21
11.36250017947252
 31
0.0
  0
LINE
  5
896
330
1A
100
AcDbEntity
  8
ZUWAKU
100
AcDbLine
 10
39.56331483416454
 20
15.00000017947252
 30
0.0
 11
39.56331483416454
 21
0.4000001794725563
 31
0.0
  0
LINE
  5
897
330
1A
100
AcDbEntity
  8
ZUWAKU
100
AcDbLine
 10
39.76331483416447
 20
15.00000017947252
 30
0.0
 11
39.76331483416458
 21
0.4000001794725563
 31
0.0
  0
LINE
  5
898
330
1A
100
AcDbEntity
  8
ZUWAKU
100
AcDbLine
 10
39.66331483416445
 20
15.00000017947252
 30
0.0
 11
39.66331483416457
 21
0.4000001794725563
 31
0.0
  0
LINE
  5
899
330
1A
100
AcDbEntity
  8
ZUWAKU
100
AcDbLine
 10
28.92110613756091
 20
3.575000179472525
 30
0.0
 11
30.67110613756091
 21
3.575000179472525
 31
0.0
  0
LINE
  5
89A
330
1A
100
AcDbEntity
  8
ZUWAKU
100
AcDbLine
 10
30.14610613756093
 20
4.975000179472523
 30
0.0
 11
29.44610613756094
 21
4.975000179472523
 31
0.0
  0
LINE
  5
89B
330
1A
100
AcDbEntity
  8
ZUWAKU
100
AcDbLine
 10
20.60860613756091
 20
3.575000179472525
 30
0.0
 11
21.48360613756091
 21
3.575000179472525
 31
0.0
  0
LINE
  5
89C
330
1A
100
AcDbEntity
  8
ZUWAKU
100
AcDbLine
 10
17.83817360621884
 20
3.758453195389037
 30
0.0
 11
16.90403866890295
 21
6.716547163556008
 31
0.0
  0
ARC
  5
89D
330
1A
100
AcDbEntity
  8
ZUWAKU
100
AcDbCircle
 10
16.58360613756093
 20
6.637500179472525
 30
0.0
 40
0.2625
100
AcDbArc
 50
90.0
 51
180.0
  0
ARC
  5
89E
330
1A
100
AcDbEntity
  8
ZUWAKU
100
AcDbCircle
 10
16.65372321930527
 20
6.637500179472525
 30
0.0
 40
0.2625
100
AcDbArc
 50
17.52556837372303
 51
90.0
  0
ARC
  5
89F
330
1A
100
AcDbEntity
  8
ZUWAKU
100
AcDbCircle
 10
15.1836061375609
 20
3.837500179472524
 30
0.0
 40
0.2625
100
AcDbArc
 50
180.0
 51
270.0
  0
ARC
  5
8A0
330
1A
100
AcDbEntity
  8
ZUWAKU
100
AcDbCircle
 10
13.4336061375609
 20
4.712500179472524
 30
0.0
 40
0.2625
100
AcDbArc
 50
0.0
 51
90.0
  0
ARC
  5
8A1
330
1A
100
AcDbEntity
  8
ZUWAKU
100
AcDbCircle
 10
13.4336061375609
 20
3.837500179472524
 30
0.0
 40
0.2625
100
AcDbArc
 50
270.0
 51
0.0
  0
LINE
  5
8A2
330
1A
100
AcDbEntity
  8
ZUWAKU
100
AcDbLine
 10
13.69610613756094
 20
4.712500179472524
 30
0.0
 11
13.69610613756094
 21
3.837500179472524
 31
0.0
  0
LINE
  5
8A3
330
1A
100
AcDbEntity
  8
ZUWAKU
100
AcDbLine
 10
16.32110613756094
 20
3.837500179472524
 30
0.0
 11
16.32110613756094
 21
6.637500179472525
 31
0.0
  0
ARC
  5
8A4
330
1A
100
AcDbEntity
  8
ZUWAKU
100
AcDbCircle
 10
16.0586061375609
 20
3.837500179472524
 30
0.0
 40
0.2625
100
AcDbArc
 50
270.0
 51
0.0
  0
LINE
  5
8A5
330
1A
100
AcDbEntity
  8
ZUWAKU
100
AcDbLine
 10
15.1836061375609
 20
3.575000179472525
 30
0.0
 11
16.0586061375609
 21
3.575000179472525
 31
0.0
  0
ARC
  5
8A6
330
1A
100
AcDbEntity
  8
ZUWAKU
100
AcDbCircle
 10
16.58360613756093
 20
8.562500179472525
 30
0.0
 40
0.2625
100
AcDbArc
 50
180.0
 51
270.0
  0
LINE
  5
8A7
330
1A
100
AcDbEntity
  8
ZUWAKU
100
AcDbLine
 10
16.58360613756093
 20
6.900000179472524
 30
0.0
 11
16.65372321930527
 21
6.900000179472524
 31
0.0
  0
LINE
  5
8A8
330
1A
100
AcDbEntity
  8
ZUWAKU
100
AcDbLine
 10
16.65372321930527
 20
8.300000179472522
 30
0.0
 11
16.58360613756093
 21
8.300000179472522
 31
0.0
  0
ARC
  5
8A9
330
1A
100
AcDbEntity
  8
ZUWAKU
100
AcDbCircle
 10
16.65372321930527
 20
8.562500179472525
 30
0.0
 40
0.2625
100
AcDbArc
 50
270.0
 51
342.4744316262769
  0
ARC
  5
8AA
330
1A
100
AcDbEntity
  8
ZUWAKU
100
AcDbCircle
 10
18.08848905581658
 20
3.837500179472524
 30
0.0
 40
0.2625
100
AcDbArc
 50
197.525568373723
 51
270.0
  0
LINE
  5
8AB
330
1A
100
AcDbEntity
  8
ZUWAKU
100
AcDbLine
 10
19.18824919521881
 20
3.91654716355601
 30
0.0
 11
18.02505350598198
 21
7.600000179472534
 31
0.0
  0
ARC
  5
8AC
330
1A
100
AcDbEntity
  8
ZUWAKU
100
AcDbCircle
 10
18.93793374562108
 20
3.837500179472524
 30
0.0
 40
0.2625
100
AcDbArc
 50
270.0
 51
17.52556837372303
  0
LINE
  5
8AD
330
1A
100
AcDbEntity
  8
ZUWAKU
100
AcDbLine
 10
18.08848905581658
 20
3.575000179472525
 30
0.0
 11
18.93793374562108
 21
3.575000179472525
 31
0.0
  0
ARC
  5
8AE
330
1A
100
AcDbEntity
  8
ZUWAKU
100
AcDbCircle
 10
20.60860613756091
 20
3.837500179472524
 30
0.0
 40
0.2625
100
AcDbArc
 50
180.0
 51
270.0
  0
ARC
  5
8AF
330
1A
100
AcDbEntity
  8
ZUWAKU
100
AcDbCircle
 10
25.07110613756094
 20
4.975000179472523
 30
0.0
 40
1.399999999999999
100
AcDbArc
 50
270.0
 51
0.0
  0
ARC
  5
8B0
330
1A
100
AcDbEntity
  8
ZUWAKU
100
AcDbCircle
 10
28.92110613756091
 20
4.975000179472523
 30
0.0
 40
1.399999999999999
100
AcDbArc
 50
180.0
 51
270.0
  0
LINE
  5
8B1
330
1A
100
AcDbEntity
  8
ZUWAKU
100
AcDbLine
 10
25.8560303780527
 20
7.367525432641937
 30
0.0
 11
24.40113139073031
 21
8.822424419964274
 31
0.0
  0
LINE
  5
8B2
330
1A
100
AcDbEntity
  8
ZUWAKU
100
AcDbLine
 10
23.41118189706918
 20
7.832474926303113
 30
0.0
 11
24.86608088439152
 21
6.377575938980783
 31
0.0
  0
LINE
  5
8B3
330
1A
100
AcDbEntity
  8
ZUWAKU
100
AcDbLine
 10
23.32110613756094
 20
3.575000179472525
 30
0.0
 11
25.07110613756094
 21
3.575000179472525
 31
0.0
  0
LINE
  5
8B4
330
1A
100
AcDbEntity
  8
ZUWAKU
100
AcDbLine
 10
23.32110613756094
 20
4.975000179472523
 30
0.0
 11
24.8086061375609
 21
4.975000179472523
 31
0.0
  0
ARC
  5
8B5
330
1A
100
AcDbEntity
  8
ZUWAKU
100
AcDbCircle
 10
23.32110613756094
 20
4.712500179472524
 30
0.0
 40
0.2625
100
AcDbArc
 50
90.0
 51
180.0
  0
ARC
  5
8B6
330
1A
100
AcDbEntity
  8
ZUWAKU
100
AcDbCircle
 10
21.48360613756091
 20
3.837500179472524
 30
0.0
 40
0.2625
100
AcDbArc
 50
270.0
 51
0.0
  0
ARC
  5
8B7
330
1A
100
AcDbEntity
  8
ZUWAKU
100
AcDbCircle
 10
23.32110613756094
 20
3.837500179472524
 30
0.0
 40
0.2625
100
AcDbArc
 50
180.0
 51
270.0
  0
LINE
  5
8B8
330
1A
100
AcDbEntity
  8
ZUWAKU
100
AcDbLine
 10
23.05860613756089
 20
3.837500179472524
 30
0.0
 11
23.05860613756089
 21
4.712500179472524
 31
0.0
  0
ARC
  5
8B9
330
1A
100
AcDbEntity
  8
ZUWAKU
100
AcDbCircle
 10
24.8086061375609
 20
5.237500179472526
 30
0.0
 40
0.2625
100
AcDbArc
 50
270.0
 51
0.0
  0
ARC
  5
8BA
330
1A
100
AcDbEntity
  8
ZUWAKU
100
AcDbCircle
 10
24.3711061375609
 20
5.882601192150197
 30
0.0
 40
0.7
100
AcDbArc
 50
0.0
 51
45.0
  0
LINE
  5
8BB
330
1A
100
AcDbEntity
  8
ZUWAKU
100
AcDbLine
 10
25.07110613756094
 20
5.237500179472526
 30
0.0
 11
25.07110613756094
 21
5.882601192150197
 31
0.0
  0
ARC
  5
8BC
330
1A
100
AcDbEntity
  8
ZUWAKU
100
AcDbCircle
 10
29.44610613756094
 20
5.500000179472522
 30
0.0
 40
0.525
100
AcDbArc
 50
180.0
 51
270.0
  0
ARC
  5
8BD
330
1A
100
AcDbEntity
  8
ZUWAKU
100
AcDbCircle
 10
24.3711061375609
 20
5.882601192150175
 30
0.0
 40
2.099999999999999
100
AcDbArc
 50
0.0
 51
45.0
  0
LINE
  5
8BE
330
1A
100
AcDbEntity
  8
ZUWAKU
100
AcDbLine
 10
26.47110613756092
 20
4.975000179472523
 30
0.0
 11
26.47110613756092
 21
5.882601192150197
 31
0.0
  0
ARC
  5
8BF
330
1A
100
AcDbEntity
  8
ZUWAKU
100
AcDbCircle
 10
30.67110613756091
 20
4.975000179472523
 30
0.0
 40
1.399999999999999
100
AcDbArc
 50
270.0
 51
0.0
  0
LINE
  5
8C0
330
1A
100
AcDbEntity
  8
ZUWAKU
100
AcDbLine
 10
33.38360613756094
 20
3.575000179472525
 30
0.0
 11
34.25860613756094
 21
3.575000179472525
 31
0.0
  0
ARC
  5
8C1
330
1A
100
AcDbEntity
  8
ZUWAKU
100
AcDbCircle
 10
30.14610613756093
 20
5.500000179472522
 30
0.0
 40
0.525
100
AcDbArc
 50
270.0
 51
0.0
  0
ARC
  5
8C2
330
1A
100
AcDbEntity
  8
ZUWAKU
100
AcDbCircle
 10
33.38360613756094
 20
3.837500179472524
 30
0.0
 40
0.2625
100
AcDbArc
 50
180.0
 51
270.0
  0
ARC
  5
8C3
330
1A
100
AcDbEntity
  8
ZUWAKU
100
AcDbCircle
 10
34.25860613756094
 20
3.837500179472524
 30
0.0
 40
0.2625
100
AcDbArc
 50
270.0
 51
0.0
  0
LINE
  5
8C4
330
1A
100
AcDbEntity
  8
ZUWAKU
100
AcDbLine
 10
21.48360613756091
 20
11.62500017947252
 30
0.0
 11
20.60860613756091
 21
11.62500017947252
 31
0.0
  0
LINE
  5
8C5
330
1A
100
AcDbEntity
  8
ZUWAKU
100
AcDbLine
 10
13.69610613756094
 20
11.36250017947252
 30
0.0
 11
13.69610613756094
 21
10.48750017947252
 31
0.0
  0
ARC
  5
8C6
330
1A
100
AcDbEntity
  8
ZUWAKU
100
AcDbCircle
 10
13.4336061375609
 20
10.48750017947252
 30
0.0
 40
0.2625
100
AcDbArc
 50
270.0
 51
0.0
  0
ARC
  5
8C7
330
1A
100
AcDbEntity
  8
ZUWAKU
100
AcDbCircle
 10
15.1836061375609
 20
11.36250017947252
 30
0.0
 40
0.2625
100
AcDbArc
 50
90.0
 51
180.0
  0
ARC
  5
8C8
330
1A
100
AcDbEntity
  8
ZUWAKU
100
AcDbCircle
 10
13.4336061375609
 20
11.36250017947252
 30
0.0
 40
0.2625
100
AcDbArc
 50
0.0
 51
90.0
  0
LINE
  5
8C9
330
1A
100
AcDbEntity
  8
ZUWAKU
100
AcDbLine
 10
16.0586061375609
 20
11.62500017947252
 30
0.0
 11
15.1836061375609
 21
11.62500017947252
 31
0.0
  0
ARC
  5
8CA
330
1A
100
AcDbEntity
  8
ZUWAKU
100
AcDbCircle
 10
16.0586061375609
 20
11.36250017947252
 30
0.0
 40
0.2625
100
AcDbArc
 50
0.0
 51
90.0
  0
ARC
  5
8CB
330
1A
100
AcDbEntity
  8
ZUWAKU
100
AcDbCircle
 10
18.08848905581658
 20
11.36250017947252
 30
0.0
 40
0.2625
100
AcDbArc
 50
90.0
 51
162.4744316262769
  0
LINE
  5
8CC
330
1A
100
AcDbEntity
  8
ZUWAKU
100
AcDbLine
 10
19.18824919521881
 20
11.28345319538903
 30
0.0
 11
18.65742937864991
 21
9.602523776254237
 31
0.0
  0
ARC
  5
8CD
330
1A
100
AcDbEntity
  8
ZUWAKU
100
AcDbCircle
 10
18.93793374562108
 20
11.36250017947252
 30
0.0
 40
0.2625
100
AcDbArc
 50
342.4744316262769
 51
90.0
  0
LINE
  5
8CE
330
1A
100
AcDbEntity
  8
ZUWAKU
100
AcDbLine
 10
18.08848905581658
 20
11.62500017947252
 30
0.0
 11
18.93793374562108
 21
11.62500017947252
 31
0.0
  0
ARC
  5
8CF
330
1A
100
AcDbEntity
  8
ZUWAKU
100
AcDbCircle
 10
20.60860613756091
 20
11.36250017947252
 30
0.0
 40
0.2625
100
AcDbArc
 50
90.0
 51
180.0
  0
LINE
  5
8D0
330
1A
100
AcDbEntity
  8
ZUWAKU
100
AcDbLine
 10
25.94610613756094
 20
10.22500017947252
 30
0.0
 11
24.45860613756093
 21
10.22500017947252
 31
0.0
  0
LINE
  5
8D1
330
1A
100
AcDbEntity
  8
ZUWAKU
100
AcDbLine
 10
24.19610613756094
 20
11.62500017947252
 30
0.0
 11
25.94610613756094
 21
11.62500017947252
 31
0.0
  0
ARC
  5
8D2
330
1A
100
AcDbEntity
  8
ZUWAKU
100
AcDbCircle
 10
24.19610613756094
 20
10.22500017947252
 30
0.0
 40
1.399999999999999
100
AcDbArc
 50
90.0
 51
180.0
  0
LINE
  5
8D3
330
1A
100
AcDbEntity
  8
ZUWAKU
100
AcDbLine
 10
22.79610613756091
 20
10.22500017947252
 30
0.0
 11
22.79610613756091
 21
9.317399166794853
 31
0.0
  0
ARC
  5
8D4
330
1A
100
AcDbEntity
  8
ZUWAKU
100
AcDbCircle
 10
21.48360613756091
 20
11.36250017947252
 30
0.0
 40
0.2625
100
AcDbArc
 50
0.0
 51
90.0
  0
LINE
  5
8D5
330
1A
100
AcDbEntity
  8
ZUWAKU
100
AcDbLine
 10
24.19610613756094
 20
9.962500179472524
 30
0.0
 11
24.19610613756094
 21
9.317399166794853
 31
0.0
  0
ARC
  5
8D6
330
1A
100
AcDbEntity
  8
ZUWAKU
100
AcDbCircle
 10
24.45860613756093
 20
9.962500179472524
 30
0.0
 40
0.2625
100
AcDbArc
 50
90.0
 51
180.0
  0
LINE
  5
8D7
330
1A
100
AcDbEntity
  8
ZUWAKU
100
AcDbLine
 10
26.20860613756093
 20
11.36250017947252
 30
0.0
 11
26.20860613756093
 21
10.48750017947252
 31
0.0
  0
ARC
  5
8D8
330
1A
100
AcDbEntity
  8
ZUWAKU
100
AcDbCircle
 10
25.94610613756094
 20
10.48750017947252
 30
0.0
 40
0.2625
100
AcDbArc
 50
270.0
 51
0.0
  0
ARC
  5
8D9
330
1A
100
AcDbEntity
  8
ZUWAKU
100
AcDbCircle
 10
25.94610613756094
 20
11.36250017947252
 30
0.0
 40
0.2625
100
AcDbArc
 50
0.0
 51
90.0
  0
LINE
  5
8DA
330
1A
100
AcDbEntity
  8
ZUWAKU
100
AcDbLine
 10
28.65860613756092
 20
11.62500017947252
 30
0.0
 11
27.78360613756092
 21
11.62500017947252
 31
0.0
  0
ARC
  5
8DB
330
1A
100
AcDbEntity
  8
ZUWAKU
100
AcDbCircle
 10
27.78360613756092
 20
11.36250017947252
 30
0.0
 40
0.2625
100
AcDbArc
 50
90.0
 51
180.0
  0
ARC
  5
8DC
330
1A
100
AcDbEntity
  8
ZUWAKU
100
AcDbCircle
 10
28.65860613756092
 20
11.36250017947252
 30
0.0
 40
0.2625
100
AcDbArc
 50
0.0
 51
90.0
  0
LINE
  5
8DD
330
1A
100
AcDbEntity
  8
ZUWAKU
100
AcDbLine
 10
34.25860613756094
 20
11.62500017947252
 30
0.0
 11
33.38360613756094
 21
11.62500017947252
 31
0.0
  0
ARC
  5
8DE
330
1A
100
AcDbEntity
  8
ZUWAKU
100
AcDbCircle
 10
30.9336061375609
 20
11.36250017947252
 30
0.0
 40
0.2625
100
AcDbArc
 50
90.0
 51
180.0
  0
LINE
  5
8DF
330
1A
100
AcDbEntity
  8
ZUWAKU
100
AcDbLine
 10
31.8086061375609
 20
11.62500017947252
 30
0.0
 11
30.9336061375609
 21
11.62500017947252
 31
0.0
  0
ARC
  5
8E0
330
1A
100
AcDbEntity
  8
ZUWAKU
100
AcDbCircle
 10
31.8086061375609
 20
11.36250017947252
 30
0.0
 40
0.2625
100
AcDbArc
 50
0.0
 51
90.0
  0
ARC
  5
8E1
330
1A
100
AcDbEntity
  8
ZUWAKU
100
AcDbCircle
 10
33.38360613756094
 20
11.36250017947252
 30
0.0
 40
0.2625
100
AcDbArc
 50
90.0
 51
180.0
  0
ARC
  5
8E2
330
1A
100
AcDbEntity
  8
ZUWAKU
100
AcDbCircle
 10
34.25860613756094
 20
11.36250017947252
 30
0.0
 40
0.2625
100
AcDbArc
 50
0.0
 51
90.0
  0
TEXT
  5
8E3
330
1A
100
AcDbEntity
  8
MOJI
100
AcDbText
 10
119.9136014005959
 20
1.602460708176232
 30
0.0
 40
2.799999999999999
  1
Ｘ７０Ｕ－０－３０
 41
0.9
  7
ｽﾀｲﾙ1
100
AcDbText
  0
TEXT
  5
8E4
330
1A
100
AcDbEntity
  8
MOJI
100
AcDbText
 10
119.9136014005959
 20
9.002460708176215
 30
0.0
 40
2.799999999999999
  1
ステンレス金具正面打（吊）固定式（内吊り）
 41
0.9
  7
ｽﾀｲﾙ1
100
AcDbText
  0
LINE
  5
8E5
330
1A
100
AcDbEntity
  8
ZUWAKU
100
AcDbLine
 10
104.2233007052042
 20
15.00000017947252
 30
0.0
 11
104.2233007052043
 21
0.4000001794725563
 31
0.0
  0
LINE
  5
8E6
330
1A
100
AcDbEntity
  8
ZUWAKU
100
AcDbLine
 10
104.3233007052042
 20
15.00000017947252
 30
0.0
 11
104.3233007052043
 21
0.4000001794725563
 31
0.0
  0
LINE
  5
8E7
330
1A
100
AcDbEntity
  8
ZUWAKU
100
AcDbLine
 10
104.1233007052043
 20
15.00000017947252
 30
0.0
 11
104.1233007052043
 21
0.4000001794725563
 31
0.0
  0
TEXT
  5
8E8
330
1A
100
AcDbEntity
  8
ZUWAKU
100
AcDbText
 10
104.8620232163091
 20
4.827678448665331
 30
0.0
 40
2.0
  1
サイズ
 41
0.9
  7
ｽﾀｲﾙ1
100
AcDbText
  0
TEXT
  5
8E9
330
1A
100
AcDbEntity
  8
ZUWAKU
100
AcDbText
 10
104.862023216309
 20
12.02767844866531
 30
0.0
 40
2.0
  1
品名
 41
0.9
  7
ｽﾀｲﾙ1
100
AcDbText
  0
TEXT
  5
8EA
330
1A
100
AcDbEntity
  8
ZUWAKU
100
AcDbText
 10
329.1019689038215
 20
9.002460708176215
 30
0.0
 40
2.799999999999999
  1
　　．　　．　　
 41
0.9
  7
ｽﾀｲﾙ1
100
AcDbText
  0
LINE
  5
8EB
330
1A
100
AcDbEntity
  8
ZUWAKU
100
AcDbLine
 10
324.4086013152724
 20
7.800000179472538
 30
0.0
 11
348.624505334441
 21
7.800000179472538
 31
0.0
  0
LINE
  5
8EC
330
1A
100
AcDbEntity
  8
ZUWAKU
100
AcDbLine
 10
324.4086013152725
 20
7.700000179472541
 30
0.0
 11
348.624505334441
 21
7.700000179472539
 31
0.0
  0
LINE
  5
8ED
330
1A
100
AcDbEntity
  8
ZUWAKU
100
AcDbLine
 10
324.4086013152724
 20
7.600000179472537
 30
0.0
 11
348.624505334441
 21
7.600000179472539
 31
0.0
  0
LINE
  5
8EE
330
1A
100
AcDbEntity
  8
ZUWAKU
100
AcDbLine
 10
252.5995898092407
 20
7.800000179472538
 30
0.0
 11
276.2634779432265
 21
7.800000179472538
 31
0.0
  0
LINE
  5
8EF
330
1A
100
AcDbEntity
  8
ZUWAKU
100
AcDbLine
 10
252.5995898092407
 20
7.700000179472539
 30
0.0
 11
276.2634779432265
 21
7.700000179472539
 31
0.0
  0
LINE
  5
8F0
330
1A
100
AcDbEntity
  8
ZUWAKU
100
AcDbLine
 10
252.5995898092407
 20
7.600000179472541
 30
0.0
 11
276.2634779432265
 21
7.600000179472541
 31
0.0
  0
LINE
  5
8F1
330
1A
100
AcDbEntity
  8
ZUWAKU
100
AcDbLine
 10
252.3995898092408
 20
15.00000017947252
 30
0.0
 11
252.3995898092408
 21
0.4000001794725563
 31
0.0
  0
LINE
  5
8F2
330
1A
100
AcDbEntity
  8
ZUWAKU
100
AcDbLine
 10
252.5995898092407
 20
15.00000017947252
 30
0.0
 11
252.5995898092409
 21
0.4000001794725563
 31
0.0
  0
LINE
  5
8F3
330
1A
100
AcDbEntity
  8
ZUWAKU
100
AcDbLine
 10
252.4995898092407
 20
15.00000017947252
 30
0.0
 11
252.4995898092408
 21
0.4000001794725563
 31
0.0
  0
TEXT
  5
8F4
330
1A
100
AcDbEntity
  8
MOJI
100
AcDbText
 10
264.0204540463268
 20
9.002460708176215
 30
0.0
 40
2.799999999999999
  1
Ａ３
 41
0.9
  7
ｽﾀｲﾙ1
100
AcDbText
  0
LINE
  5
8F5
330
1A
100
AcDbEntity
  8
ZUWAKU
100
AcDbLine
 10
223.712182045666
 20
15.00000017947252
 30
0.0
 11
223.712182045666
 21
0.4000001794725563
 31
0.0
  0
LINE
  5
8F6
330
1A
100
AcDbEntity
  8
ZUWAKU
100
AcDbLine
 10
223.9121820456659
 20
15.00000017947252
 30
0.0
 11
223.9121820456661
 21
0.4000001794725563
 31
0.0
  0
LINE
  5
8F7
330
1A
100
AcDbEntity
  8
ZUWAKU
100
AcDbLine
 10
223.8121820456659
 20
15.00000017947252
 30
0.0
 11
223.812182045666
 21
0.4000001794725563
 31
0.0
  0
TEXT
  5
8F8
330
1A
100
AcDbEntity
  8
MOJI
100
AcDbText
 10
231.2836392211646
 20
5.971309040302514
 30
0.0
 40
2.799999999999999
  1
ＬＦ６８Ｇ
 41
0.9
  7
ｽﾀｲﾙ1
100
AcDbText
  0
TEXT
  5
8F9
330
1A
100
AcDbEntity
  8
ZUWAKU
100
AcDbText
 10
253.3383123203457
 20
4.827678448665331
 30
0.0
 40
2.0
  1
縮尺
 41
0.9
  7
ｽﾀｲﾙ1
100
AcDbText
  0
TEXT
  5
8FA
330
1A
100
AcDbEntity
  8
MOJI
100
AcDbText
 10
264.0204540463268
 20
1.602460708176232
 30
0.0
 40
2.799999999999999
  1
１/１
 41
0.9
  7
ｽﾀｲﾙ1
100
AcDbText
  0
TEXT
  5
8FB
330
1A
100
AcDbEntity
  8
ZUWAKU
100
AcDbText
 10
224.6509045567707
 20
12.02767844866531
 30
0.0
 40
2.0
  1
品番
 41
0.9
  7
ｽﾀｲﾙ1
100
AcDbText
  0
TEXT
  5
8FC
330
1A
100
AcDbEntity
  8
ZUWAKU
100
AcDbText
 10
253.3383123203456
 20
12.02767844866531
 30
0.0
 40
2.0
  1
用紙
 41
0.9
  7
ｽﾀｲﾙ1
100
AcDbText
  0
LINE
  5
8FD
330
1A
100
AcDbEntity
  8
ZUWAKU
100
AcDbLine
 10
276.2634779432265
 20
15.00000017947252
 30
0.0
 11
276.2634779432265
 21
0.4000001794725563
 31
0.0
  0
LINE
  5
8FE
330
1A
100
AcDbEntity
  8
ZUWAKU
100
AcDbLine
 10
276.4634779432264
 20
15.00000017947252
 30
0.0
 11
276.4634779432266
 21
0.4000001794725563
 31
0.0
  0
LINE
  5
8FF
330
1A
100
AcDbEntity
  8
ZUWAKU
100
AcDbLine
 10
276.3634779432265
 20
15.00000017947252
 30
0.0
 11
276.3634779432265
 21
0.4000001794725563
 31
0.0
  0
LINE
  5
900
330
1A
100
AcDbEntity
  8
ZUWAKU
100
AcDbLine
 10
324.2086013152726
 20
15.00000017947252
 30
0.0
 11
324.2086013152726
 21
0.4000001794725563
 31
0.0
  0
LINE
  5
901
330
1A
100
AcDbEntity
  8
ZUWAKU
100
AcDbLine
 10
324.4086013152725
 20
15.00000017947252
 30
0.0
 11
324.4086013152726
 21
0.4000001794725563
 31
0.0
  0
LINE
  5
902
330
1A
100
AcDbEntity
  8
ZUWAKU
100
AcDbLine
 10
324.3086013152725
 20
15.00000017947252
 30
0.0
 11
324.3086013152726
 21
0.4000001794725563
 31
0.0
  0
TEXT
  5
903
330
1A
100
AcDbEntity
  8
ZUWAKU
100
AcDbText
 10
325.1473238263773
 20
12.02767844866531
 30
0.0
 40
2.0
  1
DATE
 41
0.9
  7
ｽﾀｲﾙ1
100
AcDbText
  0
TEXT
  5
904
330
1A
100
AcDbEntity
  8
ZUWAKU
100
AcDbText
 10
354.2640421562922
 20
8.776919847315923
 30
0.0
 40
3.0
  1
積水化学工業株式会社
 41
0.9
  7
ｽﾀｲﾙ1
100
AcDbText
  0
LINE
  5
905
330
1A
100
AcDbEntity
  8
ZUWAKU
100
AcDbLine
 10
348.9245053344409
 20
15.00000017947252
 30
0.0
 11
348.924505334441
 21
0.4000001794725563
 31
0.0
  0
LINE
  5
906
330
1A
100
AcDbEntity
  8
ZUWAKU
100
AcDbLine
 10
348.8245053344409
 20
15.00000017947252
 30
0.0
 11
348.824505334441
 21
0.4000001794725563
 31
0.0
  0
LINE
  5
907
330
1A
100
AcDbEntity
  8
ZUWAKU
100
AcDbLine
 10
348.7245053344409
 20
15.00000017947252
 30
0.0
 11
348.7245053344409
 21
0.4000001794725563
 31
0.0
  0
LINE
  5
908
330
1A
100
AcDbEntity
  8
ZUWAKU
100
AcDbLine
 10
348.624505334441
 20
15.00000017947252
 30
0.0
 11
348.624505334441
 21
0.4000001794725563
 31
0.0
  0
TEXT
  5
909
330
1A
100
AcDbEntity
  8
ZUWAKU
100
AcDbText
 10
354.2640421562922
 20
3.324420336399555
 30
0.0
 40
3.0
  1
建材事業部
 41
0.9
  7
ｽﾀｲﾙ1
100
AcDbText
  0
VIEWPORT
  5
22
330
17
100
AcDbEntity
 67
     1
  8
0
100
AcDbViewport
 10
313.6808219178082
 20
148.5
 30
0.0
 40
627.3616438356165
 41
297.0
 68
     2
 69
     1
1001
ACAD
1000
MVIEW
1002
{
1070
    16
1010
0.0
1020
0.0
1030
0.0
1010
0.0
1020
0.0
1030
1.0
1040
0.0
1040
297.0
1040
313.6808219178082
1040
148.5
1040
50.0
1040
0.0
1040
0.0
1070
     0
1070
   100
1070
     1
1070
     0
1070
     0
1070
     0
1070
     0
1070
     0
1040
0.0
1040
0.0
1040
0.0
1040
1.0
1040
1.0
1040
10.0
1040
10.0
1070
     0
1002
{
1002
}
1002
}
  0
VIEWPORT
  5
64
330
17
100
AcDbEntity
 67
     1
  8
VIEWPORT
100
AcDbViewport
 10
210.0
 20
148.5
 30
0.0
 40
420.0
 41
297.0
 68
     1
 69
     2
1001
ACAD
1000
MVIEW
1002
{
1070
    16
1010
0.0
1020
0.0
1030
0.0
1010
0.0
1020
0.0
1030
1.0
1040
0.0
1040
302.9399999999998
1040
210.0
1040
148.5
1040
50.0
1040
0.0
1040
0.0
1070
     0
1070
   100
1070
     1
1070
     0
1070
     0
1070
     0
1070
     0
1070
     0
1040
0.0
1040
0.0
1040
0.0
1040
5.0
1040
5.0
1040
0.0
1040
0.0
1070
     0
1002
{
1002
}
1002
}
  0
ENDSEC
  0
SECTION
  2
OBJECTS
  0
DICTIONARY
  5
C
330
0
100
AcDbDictionary
  3
ACAD_GROUP
350
D
  3
ACAD_LAYOUT
350
271
  3
ACAD_MLINESTYLE
350
E
  3
ACAD_PLOTSETTINGS
350
272
  3
ACAD_PLOTSTYLENAME
350
26F
  3
ACDBHEADERROUNDTRIPXREC
350
911
  0
DICTIONARY
  5
6B3
330
1A
100
AcDbDictionary
280
     1
  3
ACAD_LAYOUTSELFREF
360
933
  0
DICTIONARY
  5
6B1
330
17
100
AcDbDictionary
280
     1
  3
ACAD_LAYOUTSELFREF
360
932
  0
DICTIONARY
  5
D
102
{ACAD_REACTORS
330
C
102
}
330
C
100
AcDbDictionary
  0
DICTIONARY
  5
271
102
{ACAD_REACTORS
330
C
102
}
330
C
100
AcDbDictionary
  0
DICTIONARY
  5
E
102
{ACAD_REACTORS
330
C
102
}
330
C
100
AcDbDictionary
  3
STANDARD
350
13
  0
DICTIONARY
  5
272
102
{ACAD_REACTORS
330
C
102
}
330
C
100
AcDbDictionary
  0
ACDBDICTIONARYWDFLT
  5
26F
102
{ACAD_REACTORS
330
C
102
}
330
C
100
AcDbDictionary
281
     1
  3
Normal
350
270
100
AcDbDictionaryWithDefault
340
270
1001
ACAD
1000
TREAT_AS_HARD
1070
     0
1000
TREAT_AS_HARD
1070
     0
  0
DICTIONARY
  5
911
102
{ACAD_REACTORS
330
C
102
}
330
C
100
AcDbDictionary
  3
TSTACKALIGN
350
912
  3
TSTACKSIZE
350
913
  3
HYPERLINKBASE
350
914
  3
STYLESHEET
350
915
  3
LAYOUTDICT
350
916
  3
PLOTSETDICT
350
917
  3
PLOTSTYLNAMDICT
350
918
  3
LWETCUNION
350
919
  3
INSUNITS
350
91A
  3
CEPSNTYPE
350
91B
  3
FINGERPRINTGUID
350
91C
  3
VERSIONGUID
350
91D
  3
PSVPSCALE
350
91E
  3
DIMSTYLEDATA
350
91F
  3
PUCSORTHOREF
350
920
  3
PUCSORTHOVIEW
350
921
  3
PUCSBASE
350
922
  3
PUCSORGTOP
350
923
  3
PUCSORGBOTTOM
350
924
  3
PUCSORGLEFT
350
925
  3
PUCSORGRIGHT
350
926
  3
PUCSORGFRONT
350
927
  3
PUCSORGBACK
350
928
  3
UCSORTHOREF
350
929
  3
UCSORTHOVIEW
350
92A
  3
UCSBASE
350
92B
  3
UCSORGTOP
350
92C
  3
UCSORGBOTTOM
350
92D
  3
UCSORGLEFT
350
92E
  3
UCSORGRIGHT
350
92F
  3
UCSORGFRONT
350
930
  3
UCSORGBACK
350
931
  0
XRECORD
  5
933
102
{ACAD_REACTORS
330
6B3
102
}
330
6B3
100
AcDbXrecord
340
1A
  0
XRECORD
  5
932
102
{ACAD_REACTORS
330
6B1
102
}
330
6B1
100
AcDbXrecord
340
17
  0
MLINESTYLE
  5
13
102
{ACAD_REACTORS
330
E
102
}
330
E
100
AcDbMlineStyle
  2
STANDARD
 70
     0
  3

 62
     0
 51
90.0
 52
90.0
 71
     2
 49
0.5
 62
   256
  6
BYLAYER
 49
-0.5
 62
   256
  6
BYLAYER
  0
ACDBPLACEHOLDER
  5
270
102
{ACAD_REACTORS
330
26F
102
}
330
26F
100
AcDbPlaceHolder
280
     0
  0
XRECORD
  5
912
102
{ACAD_REACTORS
330
911
102
}
330
911
100
AcDbXrecord
 90
        1
  0
XRECORD
  5
913
102
{ACAD_REACTORS
330
911
102
}
330
911
100
AcDbXrecord
 90
       70
  0
XRECORD
  5
914
102
{ACAD_REACTORS
330
911
102
}
330
911
100
AcDbXrecord
  1

  0
XRECORD
  5
915
102
{ACAD_REACTORS
330
911
102
}
330
911
100
AcDbXrecord
  1
systemprinter.ctb
  0
XRECORD
  5
916
102
{ACAD_REACTORS
330
911
102
}
330
911
100
AcDbXrecord
340
271
  0
XRECORD
  5
917
102
{ACAD_REACTORS
330
911
102
}
330
911
100
AcDbXrecord
340
272
  0
XRECORD
  5
918
102
{ACAD_REACTORS
330
911
102
}
330
911
100
AcDbXrecord
340
26F
  0
XRECORD
  5
919
102
{ACAD_REACTORS
330
911
102
}
330
911
100
AcDbXrecord
 90
    10781
  0
XRECORD
  5
91A
102
{ACAD_REACTORS
330
911
102
}
330
911
100
AcDbXrecord
 90
        0
  0
XRECORD
  5
91B
102
{ACAD_REACTORS
330
911
102
}
330
911
100
AcDbXrecord
 90
        0
  0
XRECORD
  5
91C
102
{ACAD_REACTORS
330
911
102
}
330
911
100
AcDbXrecord
  1
{92329FFC-2CAD-40EB-B958-DFA4560B95B5}
  0
XRECORD
  5
91D
102
{ACAD_REACTORS
330
911
102
}
330
911
100
AcDbXrecord
  1
{B8779EF1-5A32-4FFE-B307-D14D9DC4B48E}
  0
XRECORD
  5
91E
102
{ACAD_REACTORS
330
911
102
}
330
911
100
AcDbXrecord
 40
0.0
  0
XRECORD
  5
91F
102
{ACAD_REACTORS
330
911
102
}
330
911
100
AcDbXrecord
1000
DSTYLE
1002
{
1070
   341
340
B2
1070
   343
340
B2
1070
   344
340
B2
1070
   371
 70
    -1
1070
   372
 70
    -1
1002
}
  0
XRECORD
  5
920
102
{ACAD_REACTORS
330
911
102
}
330
911
100
AcDbXrecord
340
0
  0
XRECORD
  5
921
102
{ACAD_REACTORS
330
911
102
}
330
911
100
AcDbXrecord
 70
     0
  0
XRECORD
  5
922
102
{ACAD_REACTORS
330
911
102
}
330
911
100
AcDbXrecord
340
0
  0
XRECORD
  5
923
102
{ACAD_REACTORS
330
911
102
}
330
911
100
AcDbXrecord
 10
0.0
 20
0.0
 30
0.0
  0
XRECORD
  5
924
102
{ACAD_REACTORS
330
911
102
}
330
911
100
AcDbXrecord
 10
0.0
 20
0.0
 30
0.0
  0
XRECORD
  5
925
102
{ACAD_REACTORS
330
911
102
}
330
911
100
AcDbXrecord
 10
0.0
 20
0.0
 30
0.0
  0
XRECORD
  5
926
102
{ACAD_REACTORS
330
911
102
}
330
911
100
AcDbXrecord
 10
0.0
 20
0.0
 30
0.0
  0
XRECORD
  5
927
102
{ACAD_REACTORS
330
911
102
}
330
911
100
AcDbXrecord
 10
0.0
 20
0.0
 30
0.0
  0
XRECORD
  5
928
102
{ACAD_REACTORS
330
911
102
}
330
911
100
AcDbXrecord
 10
0.0
 20
0.0
 30
0.0
  0
XRECORD
  5
929
102
{ACAD_REACTORS
330
911
102
}
330
911
100
AcDbXrecord
340
0
  0
XRECORD
  5
92A
102
{ACAD_REACTORS
330
911
102
}
330
911
100
AcDbXrecord
 70
     0
  0
XRECORD
  5
92B
102
{ACAD_REACTORS
330
911
102
}
330
911
100
AcDbXrecord
340
0
  0
XRECORD
  5
92C
102
{ACAD_REACTORS
330
911
102
}
330
911
100
AcDbXrecord
 10
0.0
 20
0.0
 30
0.0
  0
XRECORD
  5
92D
102
{ACAD_REACTORS
330
911
102
}
330
911
100
AcDbXrecord
 10
0.0
 20
0.0
 30
0.0
  0
XRECORD
  5
92E
102
{ACAD_REACTORS
330
911
102
}
330
911
100
AcDbXrecord
 10
0.0
 20
0.0
 30
0.0
  0
XRECORD
  5
92F
102
{ACAD_REACTORS
330
911
102
}
330
911
100
AcDbXrecord
 10
0.0
 20
0.0
 30
0.0
  0
XRECORD
  5
930
102
{ACAD_REACTORS
330
911
102
}
330
911
100
AcDbXrecord
 10
0.0
 20
0.0
 30
0.0
  0
XRECORD
  5
931
102
{ACAD_REACTORS
330
911
102
}
330
911
100
AcDbXrecord
 10
0.0
 20
0.0
 30
0.0
  0
ENDSEC
  0
EOF
